  0
SECTION
  2
HEADER
  9
$ACADVER
  1
AC1015
  9
$ACADMAINTVER
 70
     6
  9
$DWGCODEPAGE
  3
ANSI_1252
  9
$INSBASE
 10
0.0
 20
0.0
 30
0.0
  9
$EXTMIN
 10
0.0
 20
0.0
 30
0.0
  9
$EXTMAX
 10
297.0
 20
210.0
 30
0.0
  9
$LIMMIN
 10
0.0
 20
0.0
  9
$LIMMAX
 10
297.0
 20
210.0
  9
$ORTHOMODE
 70
     0
  9
$REGENMODE
 70
     1
  9
$FILLMODE
 70
     1
  9
$QTEXTMODE
 70
     0
  9
$MIRRTEXT
 70
     1
  9
$LTSCALE
 40
1.0
  9
$ATTMODE
 70
     1
  9
$TEXTSIZE
 40
2.0
  9
$TRACEWID
 40
1.0
  9
$TEXTSTYLE
  7
Standard
  9
$CLAYER
  8
0
  9
$CELTYPE
  6
ByLayer
  9
$CECOLOR
 62
   256
  9
$CELTSCALE
 40
1.0
  9
$DISPSILH
 70
     0
  9
$DIMSCALE
 40
1.0
  9
$DIMASZ
 40
3.0
  9
$DIMEXO
 40
0.0
  9
$DIMDLI
 40
3.75
  9
$DIMRND
 40
0.0
  9
$DIMDLE
 40
0.0
  9
$DIMEXE
 40
1.0
  9
$DIMTP
 40
0.0
  9
$DIMTM
 40
0.0
  9
$DIMTXT
 40
2.0
  9
$DIMCEN
 40
2.5
  9
$DIMTSZ
 40
0.0
  9
$DIMTOL
 70
     0
  9
$DIMLIM
 70
     0
  9
$DIMTIH
 70
     1
  9
$DIMTOH
 70
     1
  9
$DIMSE1
 70
     0
  9
$DIMSE2
 70
     0
  9
$DIMTAD
 70
     1
  9
$DIMZIN
 70
     0
  9
$DIMBLK
  1

  9
$DIMASO
 70
     1
  9
$DIMSHO
 70
     1
  9
$DIMPOST
  1

  9
$DIMAPOST
  1

  9
$DIMALT
 70
     0
  9
$DIMALTD
 70
     3
  9
$DIMALTF
 40
0.0393700787
  9
$DIMLFAC
 40
1.0
  9
$DIMTOFL
 70
     1
  9
$DIMTVP
 40
0.0
  9
$DIMTIX
 70
     0
  9
$DIMSOXD
 70
     0
  9
$DIMSAH
 70
     0
  9
$DIMBLK1
  1

  9
$DIMBLK2
  1

  9
$DIMSTYLE
  2
ISO-25
  9
$DIMCLRD
 70
     0
  9
$DIMCLRE
 70
     0
  9
$DIMCLRT
 70
     0
  9
$DIMTFAC
 40
1.0
  9
$DIMGAP
 40
1.524
  9
$DIMJUST
 70
     0
  9
$DIMSD1
 70
     0
  9
$DIMSD2
 70
     0
  9
$DIMTOLJ
 70
     0
  9
$DIMTZIN
 70
     0
  9
$DIMALTZ
 70
     0
  9
$DIMALTTZ
 70
     0
  9
$DIMUPT
 70
     0
  9
$DIMDEC
 70
     2
  9
$DIMTDEC
 70
     3
  9
$DIMALTU
 70
     2
  9
$DIMALTTD
 70
     3
  9
$DIMTXSTY
  7
Standard
  9
$DIMAUNIT
 70
     0
  9
$DIMADEC
 70
     2
  9
$DIMALTRND
 40
0.0
  9
$DIMAZIN
 70
     0
  9
$DIMDSEP
 70
    44
  9
$DIMATFIT
 70
     3
  9
$DIMFRAC
 70
     0
  9
$DIMLDRBLK
  1

  9
$DIMLUNIT
 70
     2
  9
$DIMLWD
 70
    -2
  9
$DIMLWE
 70
    -2
  9
$DIMTMOVE
 70
     0
  9
$LUNITS
 70
     2
  9
$LUPREC
 70
     2
  9
$SKETCHINC
 40
1.0
  9
$FILLETRAD
 40
10.0
  9
$AUNITS
 70
     0
  9
$AUPREC
 70
     2
  9
$MENU
  1
.
  9
$ELEVATION
 40
0.0
  9
$PELEVATION
 40
0.0
  9
$THICKNESS
 40
0.0
  9
$LIMCHECK
 70
     0
  9
$CHAMFERA
 40
10.0
  9
$CHAMFERB
 40
10.0
  9
$CHAMFERC
 40
20.0
  9
$CHAMFERD
 40
0.0
  9
$SKPOLY
 70
     0
  9
$TDCREATE
 40
2455673.402116644
  9
$TDUCREATE
 40
2455673.31878331
  9
$TDUPDATE
 40
2455673.402116655
  9
$TDUUPDATE
 40
2455673.318783322
  9
$TDINDWG
 40
0.0000000116
  9
$TDUSRTIMER
 40
0.0000000116
  9
$USRTIMER
 70
     1
  9
$ANGBASE
 50
0.0
  9
$ANGDIR
 70
     0
  9
$PDMODE
 70
     0
  9
$PDSIZE
 40
-1.0
  9
$PLINEWID
 40
0.0
  9
$SPLFRAME
 70
     0
  9
$SPLINETYPE
 70
     6
  9
$SPLINESEGS
 70
     8
  9
$HANDSEED
  5
20B
  9
$SURFTAB1
 70
     6
  9
$SURFTAB2
 70
     6
  9
$SURFTYPE
 70
     6
  9
$SURFU
 70
     6
  9
$SURFV
 70
     6
  9
$UCSBASE
  2

  9
$UCSNAME
  2

  9
$UCSORG
 10
0.0
 20
0.0
 30
0.0
  9
$UCSXDIR
 10
1.0
 20
0.0
 30
0.0
  9
$UCSYDIR
 10
0.0
 20
1.0
 30
0.0
  9
$UCSORTHOREF
  2

  9
$UCSORTHOVIEW
 70
     0
  9
$UCSORGTOP
 10
0.0
 20
0.0
 30
0.0
  9
$UCSORGBOTTOM
 10
0.0
 20
0.0
 30
0.0
  9
$UCSORGLEFT
 10
0.0
 20
0.0
 30
0.0
  9
$UCSORGRIGHT
 10
0.0
 20
0.0
 30
0.0
  9
$UCSORGFRONT
 10
0.0
 20
0.0
 30
0.0
  9
$UCSORGBACK
 10
0.0
 20
0.0
 30
0.0
  9
$PUCSBASE
  2

  9
$PUCSNAME
  2

  9
$PUCSORG
 10
0.0
 20
0.0
 30
0.0
  9
$PUCSXDIR
 10
1.0
 20
0.0
 30
0.0
  9
$PUCSYDIR
 10
0.0
 20
1.0
 30
0.0
  9
$PUCSORTHOREF
  2

  9
$PUCSORTHOVIEW
 70
     0
  9
$PUCSORGTOP
 10
0.0
 20
0.0
 30
0.0
  9
$PUCSORGBOTTOM
 10
0.0
 20
0.0
 30
0.0
  9
$PUCSORGLEFT
 10
0.0
 20
0.0
 30
0.0
  9
$PUCSORGRIGHT
 10
0.0
 20
0.0
 30
0.0
  9
$PUCSORGFRONT
 10
0.0
 20
0.0
 30
0.0
  9
$PUCSORGBACK
 10
0.0
 20
0.0
 30
0.0
  9
$USERI1
 70
     0
  9
$USERI2
 70
     0
  9
$USERI3
 70
     0
  9
$USERI4
 70
     0
  9
$USERI5
 70
     0
  9
$USERR1
 40
0.0
  9
$USERR2
 40
0.0
  9
$USERR3
 40
0.0
  9
$USERR4
 40
0.0
  9
$USERR5
 40
0.0
  9
$WORLDVIEW
 70
     1
  9
$SHADEDGE
 70
     3
  9
$SHADEDIF
 70
    70
  9
$TILEMODE
 70
     1
  9
$MAXACTVP
 70
    64
  9
$PINSBASE
 10
0.0
 20
0.0
 30
0.0
  9
$PLIMCHECK
 70
     0
  9
$PEXTMIN
 10
1.0000000000E+20
 20
1.0000000000E+20
 30
1.0000000000E+20
  9
$PEXTMAX
 10
-1.0000000000E+20
 20
-1.0000000000E+20
 30
-1.0000000000E+20
  9
$PLIMMIN
 10
0.0
 20
0.0
  9
$PLIMMAX
 10
420.0
 20
297.0
  9
$UNITMODE
 70
     0
  9
$VISRETAIN
 70
     1
  9
$PLINEGEN
 70
     0
  9
$PSLTSCALE
 70
     1
  9
$TREEDEPTH
 70
  3020
  9
$CMLSTYLE
  2
Standard
  9
$CMLJUST
 70
     0
  9
$CMLSCALE
 40
20.0
  9
$PROXYGRAPHICS
 70
     1
  9
$MEASUREMENT
 70
     1
  9
$CELWEIGHT
370
    -1
  9
$ENDCAPS
280
     0
  9
$JOINSTYLE
280
     0
  9
$LWDISPLAY
290
     1
  9
$INSUNITS
 70
     4
  9
$HYPERLINKBASE
  1

  9
$STYLESHEET
  1

  9
$XEDIT
290
     1
  9
$CEPSNTYPE
380
     0
  9
$PSTYLEMODE
290
     1
  9
$FINGERPRINTGUID
  2
{22A51933-5561-4A4A-8574-842EDFA867D3}
  9
$VERSIONGUID
  2
{FAEB1C32-E019-11D5-929B-00C0DF256EC4}
  9
$EXTNAMES
290
     1
  9
$PSVPSCALE
 40
0.0
  9
$OLESTARTUP
290
     0
  0
ENDSEC
  0
SECTION
  2
CLASSES
  0
CLASS
  1
ACDBDICTIONARYWDFLT
  2
AcDbDictionaryWithDefault
  3
ObjectDBX Classes
 90
        0
280
     0
281
     0
  0
CLASS
  1
VISUALSTYLE
  2
AcDbVisualStyle
  3
ObjectDBX Classes
 90
     4095
280
     0
281
     0
  0
CLASS
  1
DICTIONARYVAR
  2
AcDbDictionaryVar
  3
ObjectDBX Classes
 90
        0
280
     0
281
     0
  0
CLASS
  1
ACDBPLACEHOLDER
  2
AcDbPlaceHolder
  3
ObjectDBX Classes
 90
        0
280
     0
281
     0
  0
CLASS
  1
LAYOUT
  2
AcDbLayout
  3
ObjectDBX Classes
 90
        0
280
     0
281
     0
  0
ENDSEC
  0
SECTION
  2
TABLES
  0
TABLE
  2
VPORT
  5
8
330
0
100
AcDbSymbolTable
 70
     1
  0
VPORT
  5
29
330
8
100
AcDbSymbolTableRecord
100
AcDbViewportTableRecord
  2
*Active
 70
     0
 10
0.0
 20
0.0
 11
1.0
 21
1.0
 12
148.5
 22
105.0
 13
0.0
 23
0.0
 14
10.0
 24
10.0
 15
10.0
 25
10.0
 16
0.0
 26
0.0
 36
1.0
 17
0.0
 27
0.0
 37
0.0
 40
210.0
 41
1.4142857143
 42
50.0
 43
0.0
 44
0.0
 50
0.0
 51
0.0
 71
     0
 72
  2000
 73
     1
 74
     3
 75
     0
 76
     0
 77
     0
 78
     0
281
     0
 65
     1
110
0.0
120
0.0
130
0.0
111
1.0
121
0.0
131
0.0
112
0.0
122
1.0
132
0.0
 79
     0
146
0.0
  0
ENDTAB
  0
TABLE
  2
LTYPE
  5
5
330
0
100
AcDbSymbolTable
 70
     6
  0
LTYPE
  5
14
330
5
100
AcDbSymbolTableRecord
100
AcDbLinetypeTableRecord
  2
ByBlock
 70
     0
  3

 72
    65
 73
     0
 40
0.0
  0
LTYPE
  5
15
330
5
100
AcDbSymbolTableRecord
100
AcDbLinetypeTableRecord
  2
ByLayer
 70
     0
  3

 72
    65
 73
     0
 40
0.0
  0
LTYPE
  5
16
330
5
100
AcDbSymbolTableRecord
100
AcDbLinetypeTableRecord
  2
Continuous
 70
     0
  3
Solid line
 72
    65
 73
     0
 40
0.0
  0
LTYPE
  5
3B
330
5
100
AcDbSymbolTableRecord
100
AcDbLinetypeTableRecord
  2
HIDDEN
 70
     0
  3
Hidden __ __ __ __ __ __ __ __ __ __ __ __ __ __
 72
    65
 73
     2
 40
1.905
 49
1.27
 74
     0
 49
-0.635
 74
     0
  0
LTYPE
  5
3C
330
5
100
AcDbSymbolTableRecord
100
AcDbLinetypeTableRecord
  2
PHANTOM
 70
     0
  3
Phantom ______  __  __  ______  __  __  ______
 72
    65
 73
     6
 40
12.7
 49
6.35
 74
     0
 49
-1.27
 74
     0
 49
1.27
 74
     0
 49
-1.27
 74
     0
 49
1.27
 74
     0
 49
-1.27
 74
     0
  0
LTYPE
  5
3D
330
5
100
AcDbSymbolTableRecord
100
AcDbLinetypeTableRecord
  2
CENTER
 70
     0
  3
Center ____ _ ____ _ ____ _ ____ _ ____ _ ____
 72
    65
 73
     4
 40
10.16
 49
6.35
 74
     0
 49
-1.27
 74
     0
 49
1.27
 74
     0
 49
-1.27
 74
     0
  0
LTYPE
  5
3E
330
5
100
AcDbSymbolTableRecord
100
AcDbLinetypeTableRecord
  2
CENTERX2
 70
     0
  3
Center (2x) ________  __  ________  __  _____
 72
    65
 73
     4
 40
20.32
 49
12.7
 74
     0
 49
-2.54
 74
     0
 49
2.54
 74
     0
 49
-2.54
 74
     0
  0
LTYPE
  5
3F
330
5
100
AcDbSymbolTableRecord
100
AcDbLinetypeTableRecord
  2
DOT2
 70
     0
  3
Dot (.5x) ........................................
 72
    65
 73
     2
 40
0.635
 49
0.0
 74
     0
 49
-0.635
 74
     0
  0
ENDTAB
  0
TABLE
  2
LAYER
  5
2
330
0
100
AcDbSymbolTable
 70
     5
  0
LAYER
  5
10
330
2
100
AcDbSymbolTableRecord
100
AcDbLayerTableRecord
  2
0
 70
     0
 62
     7
  6
Continuous
370
    -3
390
F
  0
LAYER
  5
40
330
2
100
AcDbSymbolTableRecord
100
AcDbLayerTableRecord
  2
FORMAT
 70
     0
 62
     7
  6
Continuous
370
    -3
390
F
  0
LAYER
  5
41
330
2
100
AcDbSymbolTableRecord
100
AcDbLayerTableRecord
  2
VERMASSUNG
 70
     0
 62
     7
  6
Continuous
370
    -3
390
F
  0
LAYER
  5
42
330
2
100
AcDbSymbolTableRecord
100
AcDbLayerTableRecord
  2
KOPF_DÜNN
 70
     0
 62
     7
  6
Continuous
370
    -3
390
F
  0
LAYER
  5
43
330
2
100
AcDbSymbolTableRecord
100
AcDbLayerTableRecord
  2
KOPF_DICK
 70
     0
 62
     7
  6
Continuous
370
    15
390
F
  0
ENDTAB
  0
TABLE
  2
STYLE
  5
3
330
0
100
AcDbSymbolTable
 70
     3
  0
STYLE
  5
11
330
3
100
AcDbSymbolTableRecord
100
AcDbTextStyleTableRecord
  2
Standard
 70
     0
 40
0.0
 41
1.0
 50
0.0
 71
     0
 42
2.5
  3
txt
  4

  0
STYLE
  5
44
330
3
100
AcDbSymbolTableRecord
100
AcDbTextStyleTableRecord
  2
SLDTEXTSTYLE0
 70
     0
 40
0.0
 41
0.7
 50
0.0
 71
     0
 42
0.2
  3
TXT
  4

  0
STYLE
  5
48
330
3
100
AcDbSymbolTableRecord
100
AcDbTextStyleTableRecord
  2
SLDTEXTSTYLE1
 70
     0
 40
0.0
 41
0.6473684211
 50
0.0
 71
     0
 42
0.2
  3
TXT
  4

  0
ENDTAB
  0
TABLE
  2
VIEW
  5
6
330
0
100
AcDbSymbolTable
 70
     0
  0
ENDTAB
  0
TABLE
  2
UCS
  5
7
330
0
100
AcDbSymbolTable
 70
     0
  0
ENDTAB
  0
TABLE
  2
APPID
  5
9
330
0
100
AcDbSymbolTable
 70
     1
  0
APPID
  5
12
330
9
100
AcDbSymbolTableRecord
100
AcDbRegAppTableRecord
  2
ACAD
 70
     0
  0
ENDTAB
  0
TABLE
  2
DIMSTYLE
  5
A
330
0
100
AcDbSymbolTable
 70
     2
100
AcDbDimStyleTable
  0
DIMSTYLE
105
27
330
A
100
AcDbSymbolTableRecord
100
AcDbDimStyleTableRecord
  2
ISO-25
 70
     0
 41
2.5
 42
0.625
 43
3.75
 44
1.25
 73
     0
 74
     0
 77
     1
 78
     8
140
2.5
141
2.5
143
0.0393700787
147
0.625
171
     3
172
     1
271
     2
272
     2
274
     3
278
    44
283
     0
284
     8
340
11
  0
DIMSTYLE
105
1C4
102
{ACAD_REACTORS
330
1C3
330
1D0
330
1DB
330
1E5
330
1EF
330
1F9
102
}
330
A
100
AcDbSymbolTableRecord
100
AcDbDimStyleTableRecord
  2
SLDDIMSTYLE0
 70
     0
 41
3.0
 44
0.0
 45
0.000000001
 73
     0
 74
     0
 77
     1
 78
    12
140
2.0
147
0.5
173
     1
271
     2
272
     3
284
    12
340
44
  0
ENDTAB
  0
TABLE
  2
BLOCK_RECORD
  5
1
330
0
100
AcDbSymbolTable
 70
     7
  0
BLOCK_RECORD
  5
1F
330
1
100
AcDbSymbolTableRecord
100
AcDbBlockTableRecord
  2
*Model_Space
340
22
  0
BLOCK_RECORD
  5
1B
330
1
100
AcDbSymbolTableRecord
100
AcDbBlockTableRecord
  2
*Paper_Space
340
1E
  0
BLOCK_RECORD
  5
23
330
1
100
AcDbSymbolTableRecord
100
AcDbBlockTableRecord
  2
*Paper_Space0
340
26
  0
BLOCK_RECORD
  5
1C5
330
1
100
AcDbSymbolTableRecord
100
AcDbBlockTableRecord
  2
*D1
340
0
  0
BLOCK_RECORD
  5
1D1
330
1
100
AcDbSymbolTableRecord
100
AcDbBlockTableRecord
  2
*D2
340
0
  0
BLOCK_RECORD
  5
1DC
330
1
100
AcDbSymbolTableRecord
100
AcDbBlockTableRecord
  2
*D3
340
0
  0
BLOCK_RECORD
  5
1E6
330
1
100
AcDbSymbolTableRecord
100
AcDbBlockTableRecord
  2
*D4
340
0
  0
BLOCK_RECORD
  5
1F0
330
1
100
AcDbSymbolTableRecord
100
AcDbBlockTableRecord
  2
*D5
340
0
  0
BLOCK_RECORD
  5
1FA
330
1
100
AcDbSymbolTableRecord
100
AcDbBlockTableRecord
  2
*D6
340
0
  0
ENDTAB
  0
ENDSEC
  0
SECTION
  2
BLOCKS
  0
BLOCK
  5
20
330
1F
100
AcDbEntity
  8
0
100
AcDbBlockBegin
  2
*Model_Space
 70
     0
 10
0.0
 20
0.0
 30
0.0
  3
*Model_Space
  1

  0
ENDBLK
  5
21
330
1F
100
AcDbEntity
  8
0
100
AcDbBlockEnd
  0
BLOCK
  5
1C
330
1B
100
AcDbEntity
 67
     1
  8
0
100
AcDbBlockBegin
  2
*Paper_Space
 70
     0
 10
0.0
 20
0.0
 30
0.0
  3
*Paper_Space
  1

  0
ENDBLK
  5
1D
330
1B
100
AcDbEntity
 67
     1
  8
0
100
AcDbBlockEnd
  0
BLOCK
  5
24
330
23
100
AcDbEntity
  8
0
100
AcDbBlockBegin
  2
*Paper_Space0
 70
     0
 10
0.0
 20
0.0
 30
0.0
  3
*Paper_Space0
  1

  0
ENDBLK
  5
25
330
23
100
AcDbEntity
  8
0
100
AcDbBlockEnd
  0
BLOCK
  5
1C6
330
1C5
100
AcDbEntity
  8
0
100
AcDbBlockBegin
  2
*D1
 70
     1
 10
0.0
 20
0.0
 30
0.0
  3
*D1
  1

  0
SOLID
  5
1C8
330
1C5
100
AcDbEntity
  8
VERMASSUNG
100
AcDbTrace
 10
85.4937984327
 20
145.5437877558
 30
0.0
 11
85.0437984327
 21
142.5437877558
 31
0.0
 12
85.9437984327
 22
142.5437877558
 32
0.0
 13
85.9437984327
 23
142.5437877558
 33
0.0
  0
SOLID
  5
1C9
330
1C5
100
AcDbEntity
  8
VERMASSUNG
100
AcDbTrace
 10
85.4937984327
 20
82.5437877558
 30
0.0
 11
85.9437984327
 21
85.5437877558
 31
0.0
 12
85.0437984327
 22
85.5437877558
 32
0.0
 13
85.0437984327
 23
85.5437877558
 33
0.0
  0
LINE
  5
1CA
330
1C5
100
AcDbEntity
  8
VERMASSUNG
100
AcDbLine
 10
122.1782627884
 20
145.5437877558
 30
0.0
 11
84.4937984327
 21
145.5437877558
 31
0.0
  0
LINE
  5
1CB
330
1C5
100
AcDbEntity
  8
VERMASSUNG
100
AcDbLine
 10
122.1782627884
 20
82.5437877558
 30
0.0
 11
84.4937984327
 21
82.5437877558
 31
0.0
  0
LINE
  5
1CC
330
1C5
100
AcDbEntity
  8
VERMASSUNG
100
AcDbLine
 10
85.4937984327
 20
145.5437877558
 30
0.0
 11
85.4937984327
 21
82.5437877558
 31
0.0
  0
MTEXT
  5
1CD
330
1C5
100
AcDbEntity
  8
VERMASSUNG
100
AcDbMText
 10
82.7156629437
 20
106.3402460439
 30
0.0
 40
2.0
 41
0.0
 71
     1
 72
     1
  1
HSK A 
  7
SLDTEXTSTYLE0
 11
-7.044195017643634E-15
 21
1.0
 31
0.0
 73
     1
 44
1.0
  0
MTEXT
  5
1CE
330
1C5
100
AcDbEntity
  8
VERMASSUNG
100
AcDbMText
 10
82.9156629532
 20
115.3402465878
 30
0.0
 40
2.0
 41
0.0
 71
     1
 72
     1
  1
%%c
  7
SLDTEXTSTYLE0
 11
-7.044195017643634E-15
 21
1.0
 31
0.0
 73
     1
 44
1.0
  0
MTEXT
  5
1CF
330
1C5
100
AcDbEntity
  8
VERMASSUNG
100
AcDbMText
 10
82.9156630696
 20
118.9485732379
 30
0.0
 40
2.0
 41
0.0
 71
     1
 72
     1
  1
63
  7
SLDTEXTSTYLE0
 11
-7.044195017643634E-15
 21
1.0
 31
0.0
 73
     1
 44
1.0
  0
ENDBLK
  5
1C7
330
1C5
100
AcDbEntity
  8
0
100
AcDbBlockEnd
  0
BLOCK
  5
1D2
330
1D1
100
AcDbEntity
  8
0
100
AcDbBlockBegin
  2
*D2
 70
     1
 10
0.0
 20
0.0
 30
0.0
  3
*D2
  1

  0
SOLID
  5
1D4
330
1D1
100
AcDbEntity
  8
VERMASSUNG
100
AcDbTrace
 10
210.6771892231
 20
121.0437877558
 30
0.0
 11
210.2271892231
 21
118.0437877558
 31
0.0
 12
211.1271892231
 22
118.0437877558
 32
0.0
 13
211.1271892231
 23
118.0437877558
 33
0.0
  0
SOLID
  5
1D5
330
1D1
100
AcDbEntity
  8
VERMASSUNG
100
AcDbTrace
 10
210.6771892231
 20
107.0437877558
 30
0.0
 11
211.1271892231
 21
110.0437877558
 31
0.0
 12
210.2271892231
 22
110.0437877558
 32
0.0
 13
210.2271892231
 23
110.0437877558
 33
0.0
  0
LINE
  5
1D6
330
1D1
100
AcDbEntity
  8
VERMASSUNG
100
AcDbLine
 10
201.5782627884
 20
121.0437877558
 30
0.0
 11
211.6771892231
 21
121.0437877558
 31
0.0
  0
LINE
  5
1D7
330
1D1
100
AcDbEntity
  8
VERMASSUNG
100
AcDbLine
 10
201.5782627884
 20
107.0437877558
 30
0.0
 11
211.6771892231
 21
107.0437877558
 31
0.0
  0
LINE
  5
1D8
330
1D1
100
AcDbEntity
  8
VERMASSUNG
100
AcDbLine
 10
210.6771892231
 20
121.0437877558
 30
0.0
 11
210.6771892231
 21
107.0437877558
 31
0.0
  0
MTEXT
  5
1D9
330
1D1
100
AcDbEntity
  8
VERMASSUNG
100
AcDbMText
 10
208.0990537435
 20
110.9398603451
 30
0.0
 40
2.0
 41
0.0
 71
     1
 72
     1
  1
%%c
  7
SLDTEXTSTYLE0
 11
-7.044195017643634E-15
 21
1.0
 31
0.0
 73
     1
 44
1.0
  0
MTEXT
  5
1DA
330
1D1
100
AcDbEntity
  8
VERMASSUNG
100
AcDbMText
 10
208.09905386
 20
114.5485385683
 30
0.0
 40
2.0
 41
0.0
 71
     1
 72
     1
  1
14
  7
SLDTEXTSTYLE0
 11
-7.044195017643634E-15
 21
1.0
 31
0.0
 73
     1
 44
1.0
  0
ENDBLK
  5
1D3
330
1D1
100
AcDbEntity
  8
0
100
AcDbBlockEnd
  0
BLOCK
  5
1DD
330
1DC
100
AcDbEntity
  8
0
100
AcDbBlockBegin
  2
*D3
 70
     1
 10
0.0
 20
0.0
 30
0.0
  3
*D3
  1

  0
SOLID
  5
1DF
330
1DC
100
AcDbEntity
  8
VERMASSUNG
100
AcDbTrace
 10
147.8282627884
 20
147.1249683715
 30
0.0
 11
150.8282627884
 21
146.6749683715
 31
0.0
 12
150.8282627884
 22
147.5749683715
 32
0.0
 13
150.8282627884
 23
147.5749683715
 33
0.0
  0
SOLID
  5
1E0
330
1DC
100
AcDbEntity
  8
VERMASSUNG
100
AcDbTrace
 10
201.8782627884
 20
147.1249683715
 30
0.0
 11
198.8782627884
 21
147.5749683715
 31
0.0
 12
198.8782627884
 22
146.6749683715
 32
0.0
 13
198.8782627884
 23
146.6749683715
 33
0.0
  0
LINE
  5
1E1
330
1DC
100
AcDbEntity
  8
VERMASSUNG
100
AcDbLine
 10
147.8282627884
 20
143.8902280795
 30
0.0
 11
147.8282627884
 21
148.1249683715
 31
0.0
  0
LINE
  5
1E2
330
1DC
100
AcDbEntity
  8
VERMASSUNG
100
AcDbLine
 10
201.8782627884
 20
128.7696472341
 30
0.0
 11
201.8782627884
 21
148.1249683715
 31
0.0
  0
LINE
  5
1E3
330
1DC
100
AcDbEntity
  8
VERMASSUNG
100
AcDbLine
 10
147.8282627884
 20
147.1249683715
 30
0.0
 11
201.8782627884
 21
147.1249683715
 31
0.0
  0
MTEXT
  5
1E4
330
1DC
100
AcDbEntity
  8
VERMASSUNG
100
AcDbMText
 10
171.6541869487
 20
149.7031037346
 30
0.0
 40
2.0
 41
0.0
 71
     1
 72
     1
  1
54.05
  7
SLDTEXTSTYLE0
 73
     1
 44
1.0
  0
ENDBLK
  5
1DE
330
1DC
100
AcDbEntity
  8
0
100
AcDbBlockEnd
  0
BLOCK
  5
1E7
330
1E6
100
AcDbEntity
  8
0
100
AcDbBlockBegin
  2
*D4
 70
     1
 10
0.0
 20
0.0
 30
0.0
  3
*D4
  1

  0
SOLID
  5
1E9
330
1E6
100
AcDbEntity
  8
VERMASSUNG
100
AcDbTrace
 10
121.8782627884
 20
153.1249683715
 30
0.0
 11
124.8782627884
 21
152.6749683715
 31
0.0
 12
124.8782627884
 22
153.5749683715
 32
0.0
 13
124.8782627884
 23
153.5749683715
 33
0.0
  0
SOLID
  5
1EA
330
1E6
100
AcDbEntity
  8
VERMASSUNG
100
AcDbTrace
 10
201.8782627884
 20
153.1249683715
 30
0.0
 11
198.8782627884
 21
153.5749683715
 31
0.0
 12
198.8782627884
 22
152.6749683715
 32
0.0
 13
198.8782627884
 23
152.6749683715
 33
0.0
  0
LINE
  5
1EB
330
1E6
100
AcDbEntity
  8
VERMASSUNG
100
AcDbLine
 10
121.8782627884
 20
145.2437877558
 30
0.0
 11
121.8782627884
 21
154.1249683715
 31
0.0
  0
LINE
  5
1EC
330
1E6
100
AcDbEntity
  8
VERMASSUNG
100
AcDbLine
 10
201.8782627884
 20
128.7696472341
 30
0.0
 11
201.8782627884
 21
154.1249683715
 31
0.0
  0
LINE
  5
1ED
330
1E6
100
AcDbEntity
  8
VERMASSUNG
100
AcDbLine
 10
121.8782627884
 20
153.1249683715
 30
0.0
 11
201.8782627884
 21
153.1249683715
 31
0.0
  0
MTEXT
  5
1EE
330
1E6
100
AcDbEntity
  8
VERMASSUNG
100
AcDbMText
 10
160.4788846735
 20
155.7031037346
 30
0.0
 40
2.0
 41
0.0
 71
     1
 72
     1
  1
80
  7
SLDTEXTSTYLE0
 73
     1
 44
1.0
  0
ENDBLK
  5
1E8
330
1E6
100
AcDbEntity
  8
0
100
AcDbBlockEnd
  0
BLOCK
  5
1F1
330
1F0
100
AcDbEntity
  8
0
100
AcDbBlockBegin
  2
*D5
 70
     1
 10
0.0
 20
0.0
 30
0.0
  3
*D5
  1

  0
SOLID
  5
1F3
330
1F0
100
AcDbEntity
  8
VERMASSUNG
100
AcDbTrace
 10
89.9782627884
 20
159.1249683715
 30
0.0
 11
92.9782627884
 21
158.6749683715
 31
0.0
 12
92.9782627884
 22
159.5749683715
 32
0.0
 13
92.9782627884
 23
159.5749683715
 33
0.0
  0
SOLID
  5
1F4
330
1F0
100
AcDbEntity
  8
VERMASSUNG
100
AcDbTrace
 10
201.8782627884
 20
159.1249683715
 30
0.0
 11
198.8782627884
 21
159.5749683715
 31
0.0
 12
198.8782627884
 22
158.6749683715
 32
0.0
 13
198.8782627884
 23
158.6749683715
 33
0.0
  0
LINE
  5
1F5
330
1F0
100
AcDbEntity
  8
VERMASSUNG
100
AcDbLine
 10
89.9782627884
 20
133.7344655022
 30
0.0
 11
89.9782627884
 21
160.1249683715
 31
0.0
  0
LINE
  5
1F6
330
1F0
100
AcDbEntity
  8
VERMASSUNG
100
AcDbLine
 10
201.8782627884
 20
128.7696472341
 30
0.0
 11
201.8782627884
 21
160.1249683715
 31
0.0
  0
LINE
  5
1F7
330
1F0
100
AcDbEntity
  8
VERMASSUNG
100
AcDbLine
 10
89.9782627884
 20
159.1249683715
 30
0.0
 11
201.8782627884
 21
159.1249683715
 31
0.0
  0
MTEXT
  5
1F8
330
1F0
100
AcDbEntity
  8
VERMASSUNG
100
AcDbMText
 10
143.4288760061
 20
161.7031037346
 30
0.0
 40
2.0
 41
0.0
 71
     1
 72
     1
  1
111.9
  7
SLDTEXTSTYLE0
 73
     1
 44
1.0
  0
ENDBLK
  5
1F2
330
1F0
100
AcDbEntity
  8
0
100
AcDbBlockEnd
  0
BLOCK
  5
1FB
330
1FA
100
AcDbEntity
  8
0
100
AcDbBlockBegin
  2
*D6
 70
     1
 10
0.0
 20
0.0
 30
0.0
  3
*D6
  1

  0
SOLID
  5
1FD
330
1FA
100
AcDbEntity
  8
VERMASSUNG
100
AcDbTrace
 10
216.6771892231
 20
136.5437877558
 30
0.0
 11
216.2271892231
 21
133.5437877558
 31
0.0
 12
217.1271892231
 22
133.5437877558
 32
0.0
 13
217.1271892231
 23
133.5437877558
 33
0.0
  0
SOLID
  5
1FE
330
1FA
100
AcDbEntity
  8
VERMASSUNG
100
AcDbTrace
 10
216.6771892231
 20
91.5437877558
 30
0.0
 11
217.1271892231
 21
94.5437877558
 31
0.0
 12
216.2271892231
 22
94.5437877558
 32
0.0
 13
216.2271892231
 23
94.5437877558
 33
0.0
  0
LINE
  5
1FF
330
1FA
100
AcDbEntity
  8
VERMASSUNG
100
AcDbLine
 10
187.938967805
 20
136.5437877558
 30
0.0
 11
217.6771892231
 21
136.5437877558
 31
0.0
  0
LINE
  5
200
330
1FA
100
AcDbEntity
  8
VERMASSUNG
100
AcDbLine
 10
187.938967805
 20
91.5437877558
 30
0.0
 11
217.6771892231
 21
91.5437877558
 31
0.0
  0
LINE
  5
201
330
1FA
100
AcDbEntity
  8
VERMASSUNG
100
AcDbLine
 10
216.6771892231
 20
136.5437877558
 30
0.0
 11
216.6771892231
 21
91.5437877558
 31
0.0
  0
MTEXT
  5
202
330
1FA
100
AcDbEntity
  8
VERMASSUNG
100
AcDbMText
 10
214.0990537435
 20
110.7402807135
 30
0.0
 40
2.0
 41
0.0
 71
     1
 72
     1
  1
%%c
  7
SLDTEXTSTYLE0
 11
-7.044195017643634E-15
 21
1.0
 31
0.0
 73
     1
 44
1.0
  0
MTEXT
  5
203
330
1FA
100
AcDbEntity
  8
VERMASSUNG
100
AcDbMText
 10
214.09905386
 20
114.3489589367
 30
0.0
 40
2.0
 41
0.0
 71
     1
 72
     1
  1
45
  7
SLDTEXTSTYLE0
 11
-7.044195017643634E-15
 21
1.0
 31
0.0
 73
     1
 44
1.0
  0
ENDBLK
  5
1FC
330
1FA
100
AcDbEntity
  8
0
100
AcDbBlockEnd
  0
ENDSEC
  0
SECTION
  2
ENTITIES
  0
MTEXT
  5
45
330
1F
100
AcDbEntity
  8
KOPF_DÜNN
100
AcDbMText
 10
13.8892156294
 20
23.8442973028
 30
0.0
 40
3.0
 41
0.0
 71
     1
 72
     1
  1
HA6.W14.K21.080
  7
SLDTEXTSTYLE0
 73
     1
 44
1.0
  0
MTEXT
  5
46
330
1F
100
AcDbEntity
  8
VERMASSUNG
100
AcDbMText
 10
13.9329988022
 20
28.8834360957
 30
0.0
 40
3.0
 41
0.0
 71
     1
 72
     1
  1
Flächenspannfutter_End mill adapter Weldon ø14
  7
SLDTEXTSTYLE0
 73
     1
 44
1.0
  0
MTEXT
  5
47
330
1F
100
AcDbEntity
  8
VERMASSUNG
100
AcDbMText
 10
98.8601118557
 20
13.8365368179
 30
0.0
 40
2.0
 41
0.0
 71
     1
 72
     1
  1
Datum: 09.10.2006
  7
SLDTEXTSTYLE0
 73
     1
 44
1.0
  0
MTEXT
  5
49
330
1F
100
AcDbEntity
  8
VERMASSUNG
100
AcDbMText
 10
13.933048693
 20
18.0482802738
 30
0.0
 40
2.0
 41
0.0
 71
     1
 72
     1
  1
DIN 69 893 HSK A 63
  7
SLDTEXTSTYLE1
 73
     1
 44
1.0
  0
MTEXT
  5
4A
330
1F
100
AcDbEntity
  8
VERMASSUNG
100
AcDbMText
 10
13.9808475933
 20
13.9090973692
 30
0.0
 40
2.0
 41
0.0
 71
     1
 72
     1
  1
Gewicht: 1194g
  7
SLDTEXTSTYLE0
 73
     1
 44
1.0
  0
LINE
  5
4B
330
1F
100
AcDbEntity
  8
0
  6
Continuous
 62
     7
370
    15
100
AcDbLine
 10
122.1782627884
 20
82.5437877558
 30
0.0
 11
126.8282627884
 21
82.5437877558
 31
0.0
  0
LINE
  5
4C
330
1F
100
AcDbEntity
  8
0
  6
Continuous
 62
     7
370
    15
100
AcDbLine
 10
126.8562511474
 20
145.5437877558
 30
0.0
 11
122.1782627884
 21
145.5437877558
 31
0.0
  0
ARC
  5
4D
330
1F
100
AcDbEntity
  8
0
  6
Continuous
 62
     7
370
    15
100
AcDbCircle
 10
122.1782627884
 20
82.8437877558
 30
0.0
 40
0.2999999999999972
100
AcDbArc
 50
180.0
 51
270.0
  0
ARC
  5
4E
330
1F
100
AcDbEntity
  8
0
  6
Continuous
 62
     7
370
    15
100
AcDbCircle
 10
122.1782627884
 20
145.2437877558
 30
0.0
 40
0.3000000000000398
100
AcDbArc
 50
90.0
 51
180.0
  0
ARC
  5
4F
330
1F
100
AcDbEntity
  8
0
  6
Continuous
 62
     7
370
    15
100
AcDbCircle
 10
150.8282627884
 20
88.5437877558
 30
0.0
 40
3.0
100
AcDbArc
 50
90.0
 51
180.0
  0
ARC
  5
50
330
1F
100
AcDbEntity
  8
0
  6
Continuous
 62
     7
370
    15
100
AcDbCircle
 10
150.8282627884
 20
139.5437877558
 30
0.0
 40
3.0
100
AcDbArc
 50
180.0
 51
270.0
  0
ARC
  5
51
330
1F
100
AcDbEntity
  8
0
  6
Continuous
 62
     7
370
    15
100
AcDbCircle
 10
121.3782560357
 20
89.4733501414
 30
0.0
 40
0.6000067526677242
100
AcDbArc
 50
33.5571153394
 51
90.0
  0
ARC
  5
52
330
1F
100
AcDbEntity
  8
0
  6
Continuous
 62
     7
370
    15
100
AcDbCircle
 10
121.3782560357
 20
138.6142253701
 30
0.0
 40
0.6000067526677242
100
AcDbArc
 50
270.0
 51
326.4428846606
  0
LINE
  5
53
330
1F
100
AcDbEntity
  8
0
  6
Continuous
 62
     7
370
    15
100
AcDbLine
 10
119.8782627884
 20
89.823356894
 30
0.0
 11
120.7349755617
 21
90.0529123898
 31
0.0
  0
LINE
  5
54
330
1F
100
AcDbEntity
  8
0
  6
Continuous
 62
     7
370
    15
100
AcDbLine
 10
120.7349755617
 20
138.0346631217
 30
0.0
 11
119.8782627884
 21
138.2642186175
 31
0.0
  0
LINE
  5
55
330
1F
100
AcDbEntity
  8
0
  6
Continuous
 62
     7
370
    15
100
AcDbLine
 10
108.6467539895
 20
137.7015177759
 30
0.0
 11
96.0782627884
 21
137.0718338479
 31
0.0
  0
LINE
  5
56
330
1F
100
AcDbEntity
  8
0
  6
Continuous
 62
     7
370
    15
100
AcDbLine
 10
119.8782627884
 20
138.2642186175
 30
0.0
 11
117.061261131
 21
138.1230862699
 31
0.0
  0
LINE
  5
57
330
1F
100
AcDbEntity
  8
0
  6
Continuous
 62
     7
370
    15
100
AcDbLine
 10
117.0613172211
 20
89.9644864315
 30
0.0
 11
119.8782627884
 21
89.823356894
 31
0.0
  0
LINE
  5
58
330
1F
100
AcDbEntity
  8
0
  6
Continuous
 62
     7
370
    15
100
AcDbLine
 10
100.0782627884
 20
90.815340862
 30
0.0
 11
108.6471565082
 21
90.3860375694
 31
0.0
  0
ARC
  5
59
330
1F
100
AcDbEntity
  8
0
  6
Continuous
 62
     7
370
    15
100
AcDbCircle
 10
120.8902669888
 20
89.473356894
 30
0.0
 40
0.6000000000000109
100
AcDbArc
 50
90.0
 51
105.0
  0
ARC
  5
5A
330
1F
100
AcDbEntity
  8
0
  6
Continuous
 62
     7
370
    15
100
AcDbCircle
 10
120.8902669888
 20
138.6142186175
 30
0.0
 40
0.5999999999999971
100
AcDbArc
 50
255.0
 51
270.0
  0
LINE
  5
5B
330
1F
100
AcDbEntity
  8
0
  6
Continuous
 62
     7
370
    15
100
AcDbLine
 10
120.8902669888
 20
90.073356894
 30
0.0
 11
121.3782560357
 21
90.073356894
 31
0.0
  0
LINE
  5
5C
330
1F
100
AcDbEntity
  8
0
  6
Continuous
 62
     7
370
    15
100
AcDbLine
 10
121.3782560357
 20
138.0142186175
 30
0.0
 11
120.8902669888
 21
138.0142186175
 31
0.0
  0
LINE
  5
5D
330
1F
100
AcDbEntity
  8
0
  6
Continuous
 62
     7
370
    15
100
AcDbLine
 10
162.3271032185
 20
91.5437877558
 30
0.0
 11
187.938967805
 21
91.5437877558
 31
0.0
  0
LINE
  5
5E
330
1F
100
AcDbEntity
  8
0
  6
Continuous
 62
     7
370
    15
100
AcDbLine
 10
150.8282627884
 20
91.5437877558
 30
0.0
 11
155.3388991374
 21
91.5437877558
 31
0.0
  0
LINE
  5
5F
330
1F
100
AcDbEntity
  8
0
  6
Continuous
 62
     7
370
    15
100
AcDbLine
 10
155.328501621
 20
136.5437877558
 30
0.0
 11
150.8282627884
 21
136.5437877558
 31
0.0
  0
LINE
  5
60
330
1F
100
AcDbEntity
  8
0
  6
Continuous
 62
     7
370
    15
100
AcDbLine
 10
187.938967805
 20
136.5437877558
 30
0.0
 11
162.3179700119
 21
136.5437877558
 31
0.0
  0
LINE
  5
61
330
1F
100
AcDbEntity
  8
0
  6
Continuous
 62
     7
370
    15
100
AcDbLine
 10
187.938967805
 20
91.5437877558
 30
0.0
 11
200.7234993118
 21
97.5053127033
 31
0.0
  0
LINE
  5
62
330
1F
100
AcDbEntity
  8
0
  6
Continuous
 62
     7
370
    15
100
AcDbLine
 10
200.7234993118
 20
130.5822628082
 30
0.0
 11
187.938967805
 21
136.5437877558
 31
0.0
  0
ARC
  5
63
330
1F
100
AcDbEntity
  8
0
  6
Continuous
 62
     7
370
    15
100
AcDbCircle
 10
199.8782627884
 20
99.3179282774
 30
0.0
 40
2.000000000000013
100
AcDbArc
 50
295.0
 51
0.0
  0
ARC
  5
64
330
1F
100
AcDbEntity
  8
0
  6
Continuous
 62
     7
370
    15
100
AcDbCircle
 10
199.8782627884
 20
128.7696472341
 30
0.0
 40
2.000000000000013
100
AcDbArc
 50
0.0
 51
65.0
  0
LINE
  5
65
330
1F
100
AcDbEntity
  8
0
  6
Continuous
 62
     7
370
    15
100
AcDbLine
 10
91.2615994283
 20
93.1737877558
 30
0.0
 11
98.6782627884
 21
93.1737877558
 31
0.0
  0
ARC
  5
66
330
1F
100
AcDbEntity
  8
0
  6
Continuous
 62
     7
370
    15
100
AcDbCircle
 10
98.6782627884
 20
91.7737877558
 30
0.0
 40
1.400000000000006
100
AcDbArc
 50
42.2465410162
 51
90.0
  0
LINE
  5
67
330
1F
100
AcDbEntity
  8
0
  6
Continuous
 62
     7
370
    15
100
AcDbLine
 10
89.9894232235
 20
94.3126273206
 30
0.0
 11
91.1194262465
 21
93.1826242976
 31
0.0
  0
LINE
  5
68
330
1F
100
AcDbEntity
  8
0
  6
Continuous
 62
     7
370
    15
100
AcDbLine
 10
91.1194262465
 20
134.9049512139
 30
0.0
 11
89.9881635617
 21
133.7736885291
 31
0.0
  0
ARC
  5
69
330
1F
100
AcDbEntity
  8
0
  6
Continuous
 62
     7
370
    15
100
AcDbCircle
 10
94.6782627884
 20
136.3137877558
 30
0.0
 40
1.400000000000006
100
AcDbArc
 50
270.0
 51
301.7485287426
  0
LINE
  5
6A
330
1F
100
AcDbEntity
  8
0
  6
Continuous
 62
     7
370
    15
100
AcDbLine
 10
94.6782627884
 20
134.9137877558
 30
0.0
 11
91.2759181925
 21
134.9137877558
 31
0.0
  0
LINE
  5
6B
330
1F
100
AcDbEntity
  8
0
  6
Continuous
 62
     7
370
    15
100
AcDbLine
 10
201.8782627884
 20
104.5751239657
 30
0.0
 11
201.943163724
 21
104.6953045117
 31
0.0
  0
LINE
  5
6C
330
1F
100
AcDbEntity
  8
0
  6
Continuous
 62
     7
370
    15
100
AcDbLine
 10
201.8842740003
 20
123.3939070919
 30
0.0
 11
201.8782627884
 21
123.4050383757
 31
0.0
  0
LINE
  5
6D
330
1F
100
AcDbEntity
  8
0
  6
Continuous
 62
     7
370
    15
100
AcDbLine
 10
147.2282627884
 20
83.8568700595
 30
0.0
 11
143.2701956198
 21
83.8568700595
 31
0.0
  0
LINE
  5
6E
330
1F
100
AcDbEntity
  8
0
  6
Continuous
 62
     7
370
    15
100
AcDbLine
 10
143.2701956198
 20
83.8568700595
 30
0.0
 11
143.2701956198
 21
133.8937877558
 31
0.0
  0
LINE
  5
6F
330
1F
100
AcDbEntity
  8
0
  6
Continuous
 62
     7
370
    15
100
AcDbLine
 10
143.2701956198
 20
133.8937877558
 30
0.0
 11
147.2282627884
 21
133.8937877558
 31
0.0
  0
LINE
  5
70
330
1F
100
AcDbEntity
  8
0
  6
Continuous
 62
     7
370
    15
100
AcDbLine
 10
126.8282627884
 20
133.8937877558
 30
0.0
 11
136.4863299569
 21
133.8937877558
 31
0.0
  0
LINE
  5
71
330
1F
100
AcDbEntity
  8
0
  6
Continuous
 62
     7
370
    15
100
AcDbLine
 10
136.4863299569
 20
83.8568700595
 30
0.0
 11
136.4863299569
 21
133.8937877558
 31
0.0
  0
LINE
  5
72
330
1F
100
AcDbEntity
  8
0
  6
Continuous
 62
     7
370
    15
100
AcDbLine
 10
136.4863299569
 20
83.8568700595
 30
0.0
 11
134.8282627884
 21
83.8568700595
 31
0.0
  0
SPLINE
  5
73
330
1F
100
AcDbEntity
  8
0
  6
Continuous
 62
     7
370
    15
100
AcDbSpline
210
0.0
220
0.0
230
1.0
 70
     8
 71
     3
 72
    28
 73
    24
 74
     0
 42
0.00000001
 43
0.00000001
 40
0.0
 40
0.0
 40
0.0
 40
0.0
 40
0.1250000000000001
 40
0.1250000000000001
 40
0.1875000000000001
 40
0.1875000000000001
 40
0.2500000000000001
 40
0.2500000000000001
 40
0.3749999999999999
 40
0.3749999999999999
 40
0.4375
 40
0.4375
 40
0.4999999999999999
 40
0.4999999999999999
 40
0.6249999999999999
 40
0.6249999999999999
 40
0.7499999999999997
 40
0.7499999999999997
 40
0.8124999999999998
 40
0.8124999999999998
 40
0.8749999999999998
 40
0.8749999999999998
 40
1.0
 40
1.0
 40
1.0
 40
1.0
 10
134.8282627883559
 20
83.85687005950876
 30
0.0
 10
134.296555030863
 20
83.85687005950876
 30
0.0
 10
133.7743164655527
 20
83.84108534555855
 30
0.0
 10
133.0044459792776
 20
83.79608993148236
 30
0.0
 10
132.7500864070863
 20
83.77753493640661
 30
0.0
 10
132.2459648263878
 20
83.73368221396011
 30
0.0
 10
131.9962420089599
 20
83.7083376070079
 30
0.0
 10
131.2706520575135
 20
83.62493552925781
 30
0.0
 10
130.8122917959319
 20
83.55906997010673
 30
0.0
 10
130.161793852538
 20
83.45009962961493
 30
0.0
 10
129.9501118017456
 20
83.41185999384828
 30
0.0
 10
129.5460403126076
 20
83.33410125642892
 30
0.0
 10
129.3535337987867
 20
83.29460029425356
 30
0.0
 10
128.8036988277654
 20
83.17569255188758
 30
0.0
 10
128.4737700494566
 20
83.09587487046296
 30
0.0
 10
127.889298780888
 20
82.9425317086669
 30
0.0
 10
127.6430216428745
 20
82.87119795539766
 30
0.0
 10
127.3431788501764
 20
82.77725444832302
 30
0.0
 10
127.2547219931043
 20
82.7480606549631
 30
0.0
 10
127.1013606397991
 20
82.69459408069967
 30
0.0
 10
127.0362724255729
 20
82.6702347464245
 30
0.0
 10
126.8806784096321
 20
82.60664460097978
 30
0.0
 10
126.8282627883559
 20
82.57654166589052
 30
0.0
 10
126.8282627883559
 20
82.55966477289358
 30
0.0
  0
LINE
  5
74
330
1F
100
AcDbEntity
  8
0
  6
Continuous
 62
     7
370
    15
100
AcDbLine
 10
126.8282627884
 20
82.5596647729
 30
0.0
 11
126.8282627884
 21
82.5437877558
 31
0.0
  0
SPLINE
  5
75
330
1F
100
AcDbEntity
  8
0
  6
Continuous
 62
     7
370
    15
100
AcDbSpline
210
0.0
220
0.0
230
1.0
 70
     8
 71
     3
 72
    17
 73
    13
 74
     0
 42
0.00000001
 43
0.00000001
 40
0.0
 40
0.0
 40
0.0
 40
0.0
 40
0.1034796923964056
 40
0.210023918880785
 40
0.3134862136955583
 40
0.4198361274354882
 40
0.5254127712915682
 40
0.633961069541979
 40
0.7409508756305031
 40
0.8511696089308174
 40
0.9558996534551937
 40
1.0
 40
1.0
 40
1.0
 40
1.0
 10
134.8282627883559
 20
144.5109832289202
 30
0.0
 10
134.3930144392459
 20
144.5164314254535
 30
0.0
 10
133.5096279326809
 20
144.5274891659653
 30
0.0
 10
132.2288003474522
 20
144.6138475588669
 30
0.0
 10
131.0113838115782
 20
144.7417177354046
 30
0.0
 10
129.9035779593317
 20
144.9006630339978
 30
0.0
 10
128.9153391553834
 20
145.0751567217134
 30
0.0
 10
128.0906155978519
 20
145.2443225723533
 30
0.0
 10
127.4416620971926
 20
145.3922063548816
 30
0.0
 10
127.0246272817309
 20
145.4939969391124
 30
0.0
 10
126.8260305687663
 20
145.5443484617156
 30
0.0
 10
126.8493432901996
 20
145.5384427774932
 30
0.0
 10
126.8562511474372
 20
145.5366928477986
 30
0.0
  0
LINE
  5
76
330
1F
100
AcDbEntity
  8
0
  6
Continuous
 62
     7
370
    15
100
AcDbLine
 10
136.4863299569
 20
144.5109832289
 30
0.0
 11
134.8282627884
 21
144.5109832289
 31
0.0
  0
LINE
  5
77
330
1F
100
AcDbEntity
  8
0
  6
Continuous
 62
     7
370
    15
100
AcDbLine
 10
136.4863299569
 20
138.5024774181
 30
0.0
 11
136.4863299569
 21
144.5109832289
 31
0.0
  0
LINE
  5
78
330
1F
100
AcDbEntity
  8
0
  6
Continuous
 62
     7
370
    15
100
AcDbLine
 10
134.073883134
 20
138.5024774181
 30
0.0
 11
136.4863299569
 21
138.5024774181
 31
0.0
  0
SPLINE
  5
79
330
1F
100
AcDbEntity
  8
0
  6
Continuous
 62
     7
370
    15
100
AcDbSpline
210
0.0
220
0.0
230
1.0
 70
     8
 71
     3
 72
    20
 73
    16
 74
     0
 42
0.00000001
 43
0.00000001
 40
0.0
 40
0.0
 40
0.0
 40
0.0
 40
0.2499999999999997
 40
0.2499999999999997
 40
0.3749999999999997
 40
0.3749999999999997
 40
0.4999999999999998
 40
0.4999999999999998
 40
0.6249999999999998
 40
0.6249999999999998
 40
0.7499999999999999
 40
0.7499999999999999
 40
0.8749999999999999
 40
0.8749999999999999
 40
1.0
 40
1.0
 40
1.0
 40
1.0
 10
126.8282627883559
 20
133.8937877557559
 30
0.0
 10
127.076636522644
 20
134.5476501840533
 30
0.0
 10
127.3962066149892
 20
135.1514359660505
 30
0.0
 10
128.0185128481939
 20
135.9782747022191
 30
0.0
 10
128.2499371086247
 20
136.240703340172
 30
0.0
 10
128.7711514482744
 20
136.737365994277
 30
0.0
 10
129.0577719309095
 20
136.9679528732985
 30
0.0
 10
129.6772566722171
 20
137.3845070978811
 30
0.0
 10
130.011557051704
 20
137.5720048998487
 30
0.0
 10
130.7368175243288
 20
137.903401877485
 30
0.0
 10
131.1187325817193
 20
138.0429058649803
 30
0.0
 10
131.913520757891
 20
138.2683593724513
 30
0.0
 10
132.3276789520974
 20
138.3549854839949
 30
0.0
 10
133.1932252926788
 20
138.472966272849
 30
0.0
 10
133.6311129076906
 20
138.5024774181234
 30
0.0
 10
134.0738831340452
 20
138.5024774181234
 30
0.0
  0
SPLINE
  5
7A
330
1F
100
AcDbEntity
  8
0
  6
Continuous
 62
     7
370
    15
100
AcDbSpline
210
0.0
220
0.0
230
1.0
 70
     8
 71
     3
 72
    70
 73
    66
 74
     0
 42
0.00000001
 43
0.00000001
 40
-0.0312500000000001
 40
-0.0312500000000001
 40
0.0
 40
0.0
 40
0.0312499999999999
 40
0.0312499999999999
 40
0.0624999999999998
 40
0.0624999999999998
 40
0.0937499999999997
 40
0.0937499999999997
 40
0.1249999999999996
 40
0.1249999999999996
 40
0.1562499999999994
 40
0.1562499999999994
 40
0.1874999999999993
 40
0.1874999999999993
 40
0.2187499999999992
 40
0.2187499999999992
 40
0.2499999999999991
 40
0.2499999999999991
 40
0.281249999999999
 40
0.281249999999999
 40
0.3124999999999989
 40
0.3124999999999989
 40
0.3437499999999988
 40
0.3437499999999988
 40
0.3749999999999987
 40
0.3749999999999987
 40
0.4062499999999986
 40
0.4062499999999986
 40
0.4374999999999984
 40
0.4374999999999984
 40
0.4687499999999983
 40
0.4687499999999983
 40
0.4999999999999982
 40
0.4999999999999982
 40
0.5312499999999983
 40
0.5312499999999983
 40
0.5624999999999984
 40
0.5624999999999984
 40
0.5937499999999986
 40
0.5937499999999986
 40
0.6249999999999987
 40
0.6249999999999987
 40
0.6562499999999988
 40
0.6562499999999988
 40
0.6874999999999989
 40
0.6874999999999989
 40
0.718749999999999
 40
0.718749999999999
 40
0.7499999999999991
 40
0.7499999999999991
 40
0.7812499999999992
 40
0.7812499999999992
 40
0.8124999999999993
 40
0.8124999999999993
 40
0.8437499999999994
 40
0.8437499999999994
 40
0.8749999999999996
 40
0.8749999999999996
 40
0.9062499999999997
 40
0.9062499999999997
 40
0.9374999999999998
 40
0.9374999999999998
 40
0.9687499999999999
 40
0.9687499999999999
 40
1.0
 40
1.0
 40
1.03125
 40
1.03125
 10
130.1428081270161
 20
124.6646946417393
 30
0.0
 10
129.6137174496958
 20
124.6646946417393
 30
0.0
 10
129.3536467823187
 20
124.6893719365245
 30
0.0
 10
128.8420721024833
 20
124.7858436095664
 30
0.0
 10
128.5878968187431
 20
124.8588245255464
 30
0.0
 10
128.1036261886814
 20
125.0485651284851
 30
0.0
 10
127.8739850968002
 20
125.1644257868788
 30
0.0
 10
127.4393807485667
 20
125.4370436328365
 30
0.0
 10
127.2338149719201
 20
125.5950827148903
 30
0.0
 10
126.8652578313249
 20
125.9386255658609
 30
0.0
 10
126.6997768485894
 20
126.1253880099626
 30
0.0
 10
126.4073523391543
 20
126.5289311843594
 30
0.0
 10
126.2832513625278
 20
126.7424281807886
 30
0.0
 10
126.0836721657781
 20
127.1818114947111
 30
0.0
 10
126.0067385799198
 20
127.4109514818567
 30
0.0
 10
125.9038815213994
 20
127.8769256046167
 30
0.0
 10
125.8784086119403
 20
128.1098080502929
 30
0.0
 10
125.8781182013725
 20
128.5752055853727
 30
0.0
 10
125.9041428351482
 20
128.810081342767
 30
0.0
 10
126.0062911196403
 20
129.2615744900133
 30
0.0
 10
126.0818675672234
 20
129.4796209654247
 30
0.0
 10
126.2823650983683
 20
129.9007154904625
 30
0.0
 10
126.4074939398767
 20
130.1026368749808
 30
0.0
 10
126.6968527408983
 20
130.4746663574997
 30
0.0
 10
126.8622637279538
 20
130.6472946610801
 30
0.0
 10
127.2352542861016
 20
130.964612665626
 30
0.0
 10
127.4369873191907
 20
131.1043995991277
 30
0.0
 10
127.8698465700186
 20
131.3485758526795
 30
0.0
 10
128.103765102908
 20
131.453805363721
 30
0.0
 10
128.5879488380506
 20
131.6219625100961
 30
0.0
 10
128.8372644640061
 20
131.68521340069
 30
0.0
 10
129.3502969884338
 20
131.7707926097926
 30
0.0
 10
129.6155908113384
 20
131.792664774715
 30
0.0
 10
130.1379254312082
 20
131.7928284243589
 30
0.0
 10
130.3976790936899
 20
131.7718267322629
 30
0.0
 10
130.9142909093352
 20
131.6864243771853
 30
0.0
 10
131.1666569498354
 20
131.6224181938983
 30
0.0
 10
131.6481820713683
 20
131.4556036738571
 30
0.0
 10
131.8810328034818
 20
131.351470510458
 30
0.0
 10
132.3181226519206
 20
131.105483857963
 30
0.0
 10
132.5194436405778
 20
130.9657340270142
 30
0.0
 10
132.8885296658777
 20
130.6525959572896
 30
0.0
 10
133.0575144169294
 20
130.4771397980194
 30
0.0
 10
133.3479704735886
 20
130.1042995339193
 30
0.0
 10
133.4710422849507
 20
129.9061777238083
 30
0.0
 10
133.6723785263727
 20
129.4854663810746
 30
0.0
 10
133.749591072315
 20
129.2634763604071
 30
0.0
 10
133.8517946152151
 20
128.8136114206987
 30
0.0
 10
133.8780229666673
 20
128.583356007582
 30
0.0
 10
133.8784993659845
 20
128.1120400650329
 30
0.0
 10
133.8527569534865
 20
127.8788026493188
 30
0.0
 10
133.7514461771226
 20
127.4171261098207
 30
0.0
 10
133.6746135377317
 20
127.1862287227086
 30
0.0
 10
133.4742096985165
 20
126.7439527089169
 30
0.0
 10
133.3515382002245
 20
126.532890277631
 30
0.0
 10
133.0615909110602
 20
126.1313917668983
 30
0.0
 10
132.893019931695
 20
125.9404852448224
 30
0.0
 10
132.5247503375818
 20
125.5967599128253
 30
0.0
 10
132.3236884803115
 20
125.4416227266112
 30
0.0
 10
131.8866575617266
 20
125.1665453665315
 30
0.0
 10
131.654509348597
 20
125.0494291371095
 30
0.0
 10
131.1734990670981
 20
124.860502652045
 30
0.0
 10
130.9213989842677
 20
124.7874276816507
 30
0.0
 10
130.4043294980087
 20
124.6893756225162
 30
0.0
 10
130.1428081270161
 20
124.6646946417393
 30
0.0
 10
129.6137174496958
 20
124.6646946417393
 30
0.0
  0
SPLINE
  5
7B
330
1F
100
AcDbEntity
  8
0
  6
Continuous
 62
     7
370
    15
100
AcDbSpline
210
0.0
220
0.0
230
1.0
 70
     8
 71
     3
 72
    70
 73
    66
 74
     0
 42
0.00000001
 43
0.00000001
 40
-0.0312499999999999
 40
-0.0312499999999999
 40
0.0
 40
0.0
 40
0.0312499999999999
 40
0.0312499999999999
 40
0.0624999999999998
 40
0.0624999999999998
 40
0.0937499999999997
 40
0.0937499999999997
 40
0.1249999999999996
 40
0.1249999999999996
 40
0.1562499999999995
 40
0.1562499999999995
 40
0.1874999999999994
 40
0.1874999999999994
 40
0.2187499999999993
 40
0.2187499999999993
 40
0.2499999999999992
 40
0.2499999999999992
 40
0.2812499999999993
 40
0.2812499999999993
 40
0.3124999999999993
 40
0.3124999999999993
 40
0.3437499999999994
 40
0.3437499999999994
 40
0.3749999999999995
 40
0.3749999999999995
 40
0.4062499999999996
 40
0.4062499999999996
 40
0.4374999999999996
 40
0.4374999999999996
 40
0.4687499999999997
 40
0.4687499999999997
 40
0.4999999999999998
 40
0.4999999999999998
 40
0.5312499999999999
 40
0.5312499999999999
 40
0.5625
 40
0.5625
 40
0.5937500000000001
 40
0.5937500000000001
 40
0.6250000000000002
 40
0.6250000000000002
 40
0.6562500000000004
 40
0.6562500000000004
 40
0.6875000000000006
 40
0.6875000000000006
 40
0.7187500000000007
 40
0.7187500000000007
 40
0.7500000000000008
 40
0.7500000000000008
 40
0.7812500000000007
 40
0.7812500000000007
 40
0.8125000000000006
 40
0.8125000000000006
 40
0.8437500000000004
 40
0.8437500000000004
 40
0.8750000000000003
 40
0.8750000000000003
 40
0.9062500000000003
 40
0.9062500000000003
 40
0.9375000000000002
 40
0.9375000000000002
 40
0.9687500000000001
 40
0.9687500000000001
 40
1.0
 40
1.0
 40
1.03125
 40
1.03125
 10
130.1428081270161
 20
139.1027511505351
 30
0.0
 10
129.6137174496958
 20
139.1027511505351
 30
0.0
 10
129.3536467823187
 20
139.1186515909499
 30
0.0
 10
128.8420721024833
 20
139.1805959411242
 30
0.0
 10
128.5878968187431
 20
139.2273981752154
 30
0.0
 10
128.1036261886814
 20
139.3483751586705
 30
0.0
 10
127.8739850968002
 20
139.4219774864774
 30
0.0
 10
127.4393807485667
 20
139.5938017574555
 30
0.0
 10
127.2338149719201
 20
139.6928051803829
 30
0.0
 10
126.8652578313249
 20
139.9059015942957
 30
0.0
 10
126.6997768485894
 20
140.0208013104254
 30
0.0
 10
126.4073523391543
 20
140.2661682091157
 30
0.0
 10
126.2832513625278
 20
140.394608109586
 30
0.0
 10
126.0836721657781
 20
140.6555002576719
 30
0.0
 10
126.0067385799198
 20
140.7898814290114
 30
0.0
 10
125.9038815213994
 20
141.0592013801177
 30
0.0
 10
125.8784086119403
 20
141.1918826443358
 30
0.0
 10
125.8781182013725
 20
141.4530691184669
 30
0.0
 10
125.9041428351482
 20
141.5828341566316
 30
0.0
 10
126.0062911196403
 20
141.8284167909042
 30
0.0
 10
126.0818675672234
 20
141.9450783282131
 30
0.0
 10
126.2823650983683
 20
142.1669835183677
 30
0.0
 10
126.4074939398767
 20
142.2715947722907
 30
0.0
 10
126.6968527408983
 20
142.4616411838988
 30
0.0
 10
126.8622637279538
 20
142.5484008553484
 30
0.0
 10
127.2352542861016
 20
142.7059052311
 30
0.0
 10
127.4369873191907
 20
142.7742304958872
 30
0.0
 10
127.8698465700186
 20
142.8924602195064
 30
0.0
 10
128.1037651029079
 20
142.9427551356102
 30
0.0
 10
128.5879488380506
 20
143.0226206724998
 30
0.0
 10
128.8372644640061
 20
143.0523618002995
 30
0.0
 10
129.3502969884338
 20
143.0925145418077
 30
0.0
 10
129.6155908113384
 20
143.1027128112176
 30
0.0
 10
130.1379254312082
 20
143.1027892696022
 30
0.0
 10
130.3976790936899
 20
143.0929982579932
 30
0.0
 10
130.9142909093352
 20
143.0529314192545
 30
0.0
 10
131.1666569498354
 20
143.0228342523976
 30
0.0
 10
131.6481820713683
 20
142.9436120425674
 30
0.0
 10
131.8810328034818
 20
142.8938545631041
 30
0.0
 10
132.3181226519206
 20
142.7747626206537
 30
0.0
 10
132.5194436405778
 20
142.7064473591064
 30
0.0
 10
132.8885296658777
 20
142.5510463921729
 30
0.0
 10
133.0575144169294
 20
142.4628940501059
 30
0.0
 10
133.3479704735886
 20
142.2724546609896
 30
0.0
 10
133.4710422849507
 20
142.1698300832905
 30
0.0
 10
133.6723785263727
 20
141.9481897366824
 30
0.0
 10
133.749591072315
 20
141.8294356611349
 30
0.0
 10
133.851794615215
 20
141.5847697222172
 30
0.0
 10
133.8780229666673
 20
141.4576129967687
 30
0.0
 10
133.8784993659845
 20
141.1931648509131
 30
0.0
 10
133.8527569534865
 20
141.060264170656
 30
0.0
 10
133.7514461771226
 20
140.7934718971739
 30
0.0
 10
133.6746135377317
 20
140.6581079957054
 30
0.0
 10
133.4742096985165
 20
140.3955282004028
 30
0.0
 10
133.3515382002245
 20
140.268553040649
 30
0.0
 10
133.0615909110602
 20
140.0244736545666
 30
0.0
 10
132.893019931695
 20
139.9070485298128
 30
0.0
 10
132.5247503375818
 20
139.6938520688643
 30
0.0
 10
132.3236884803115
 20
139.5966779504394
 30
0.0
 10
131.8866575617266
 20
139.4233230632253
 30
0.0
 10
131.654509348597
 20
139.3489235115686
 30
0.0
 10
131.1734990670981
 20
139.228470632064
 30
0.0
 10
130.9213989842677
 20
139.1816122567979
 30
0.0
 10
130.4043294980087
 20
139.1186547598142
 30
0.0
 10
130.1428081270161
 20
139.1027511505351
 30
0.0
 10
129.6137174496958
 20
139.1027511505351
 30
0.0
  0
LINE
  5
7C
330
1F
100
AcDbEntity
  8
0
  6
Continuous
 62
     7
370
    15
100
AcDbLine
 10
147.8282627884
 20
84.4835103552
 30
0.0
 11
147.8282627884
 21
133.8937877558
 31
0.0
  0
SPLINE
  5
7D
330
1F
100
AcDbEntity
  8
0
  6
Continuous
 62
     7
370
    15
100
AcDbSpline
210
0.0
220
0.0
230
1.0
 70
     8
 71
     3
 72
    10
 73
     6
 74
     0
 42
0.00000001
 43
0.00000001
 40
0.0
 40
0.0
 40
0.0
 40
0.0
 40
0.5
 40
0.5
 40
1.0
 40
1.0
 40
1.0
 40
1.0
 10
147.8282627883559
 20
84.48351035516308
 30
0.0
 10
147.8282627883559
 20
84.32362308696942
 30
0.0
 10
147.7669531371201
 20
84.1624958314548
 30
0.0
 10
147.547853499585
 20
83.92839683309998
 30
0.0
 10
147.3898052932715
 20
83.85687005950876
 30
0.0
 10
147.2282627883559
 20
83.85687005950876
 30
0.0
  0
SPLINE
  5
7E
330
1F
100
AcDbEntity
  8
0
  6
Continuous
 62
     7
370
    15
100
AcDbSpline
210
0.0
220
0.0
230
1.0
 70
    24
 71
     3
 72
    12
 73
     8
 74
     0
 42
0.00000001
 43
0.00000001
 40
0.0
 40
0.0
 40
0.0
 40
0.0
 40
0.2500000000000033
 40
0.2500000000000033
 40
0.5000000000000067
 40
0.5000000000000067
 40
1.0
 40
1.0
 40
1.0
 40
1.0
 10
147.2282627883559
 20
133.8937877557559
 30
0.0
 10
147.318501856043
 20
133.8937877557559
 30
0.0
 10
147.4093999701495
 20
133.8937877557559
 30
0.0
 10
147.563997006638
 20
133.8937877557559
 30
0.0
 10
147.6289754227461
 20
133.8937877557559
 30
0.0
 10
147.7808104506823
 20
133.8937877557559
 30
0.0
 10
147.8282627883559
 20
133.8937877557559
 30
0.0
 10
147.8282627883559
 20
133.8937877557559
 30
0.0
  0
SPLINE
  5
7F
330
1F
100
AcDbEntity
  8
0
  6
Continuous
 62
     7
370
    15
100
AcDbSpline
210
0.0
220
0.0
230
1.0
 70
     8
 71
     3
 72
     8
 73
     4
 74
     0
 42
0.00000001
 43
0.00000001
 40
0.0
 40
0.0
 40
0.0
 40
0.0
 40
1.0
 40
1.0
 40
1.0
 40
1.0
 10
143.270195619845
 20
83.85687005950876
 30
0.0
 10
142.7747159591792
 20
84.75239614744213
 30
0.0
 10
142.2806019111371
 20
85.64868056249436
 30
0.0
 10
141.7882627883559
 20
86.54595059670106
 30
0.0
  0
LINE
  5
80
330
1F
100
AcDbEntity
  8
0
  6
Continuous
 62
     7
370
    15
100
AcDbLine
 10
141.7882627884
 20
86.5459505967
 30
0.0
 11
141.7882627884
 21
133.8937877558
 31
0.0
  0
SPLINE
  5
81
330
1F
100
AcDbEntity
  8
0
  6
Continuous
 62
     7
370
    15
100
AcDbSpline
210
0.0
220
0.0
230
1.0
 70
    24
 71
     3
 72
     8
 73
     4
 74
     0
 42
0.00000001
 43
0.00000001
 40
0.0
 40
0.0
 40
0.0
 40
0.0
 40
1.0
 40
1.0
 40
1.0
 40
1.0
 10
141.7882627883559
 20
133.8937877557559
 30
0.0
 10
142.2682147827208
 20
133.8937877557559
 30
0.0
 10
142.7635155116944
 20
133.8937877557559
 30
0.0
 10
143.270195619845
 20
133.8937877557559
 30
0.0
  0
LINE
  5
82
330
1F
100
AcDbEntity
  8
0
  6
Continuous
 62
     7
370
    15
100
AcDbLine
 10
121.8782627884
 20
82.8437877558
 30
0.0
 11
121.8782627884
 21
145.2437877498
 31
0.0
  0
LINE
  5
83
330
1F
100
AcDbEntity
  8
0
  6
Continuous
 62
     7
370
    15
100
AcDbLine
 10
137.9682627884
 20
86.5459505967
 30
0.0
 11
137.9682627884
 21
133.8937877558
 31
0.0
  0
SPLINE
  5
84
330
1F
100
AcDbEntity
  8
0
  6
Continuous
 62
     7
370
    15
100
AcDbSpline
210
0.0
220
0.0
230
1.0
 70
     8
 71
     3
 72
     8
 73
     4
 74
     0
 42
0.00000001
 43
0.00000001
 40
0.0
 40
0.0
 40
0.0
 40
0.0
 40
1.0
 40
1.0
 40
1.0
 40
1.0
 10
137.9682627883559
 20
86.54595059670106
 30
0.0
 10
137.4759236655747
 20
85.64868056249436
 30
0.0
 10
136.9818096175326
 20
84.75239614744211
 30
0.0
 10
136.4863299568669
 20
83.85687005950876
 30
0.0
  0
SPLINE
  5
85
330
1F
100
AcDbEntity
  8
0
  6
Continuous
 62
     7
370
    15
100
AcDbSpline
210
0.0
220
0.0
230
1.0
 70
    24
 71
     3
 72
     8
 73
     4
 74
     0
 42
0.00000001
 43
0.00000001
 40
0.0
 40
0.0
 40
0.0
 40
0.0
 40
1.0
 40
1.0
 40
1.0
 40
1.0
 10
136.4863299568669
 20
133.8937877557559
 30
0.0
 10
136.9930100650174
 20
133.8937877557559
 30
0.0
 10
137.488310793991
 20
133.8937877557559
 30
0.0
 10
137.9682627883559
 20
133.8937877557559
 30
0.0
  0
ARC
  5
86
330
1F
100
AcDbEntity
  8
0
  6
Continuous
 62
     7
370
    15
100
AcDbCircle
 10
129.8784646894
 20
125.9449040402
 30
0.0
 40
4.113500879071442
100
AcDbArc
 50
19.8711558648
 51
160.2183257488
  0
SPLINE
  5
87
330
1F
100
AcDbEntity
  8
0
  6
Continuous
 62
     7
370
    15
100
AcDbSpline
210
0.0
220
0.0
230
1.0
 70
     8
 71
     3
 72
    10
 73
     6
 74
     0
 42
0.00000001
 43
0.00000001
 40
0.0
 40
0.0
 40
0.0
 40
0.0
 40
0.5
 40
0.5
 40
1.0
 40
1.0
 40
1.0
 40
1.0
 10
138.3625603200469
 20
140.4437877557559
 30
0.0
 10
138.2410200563784
 20
140.5185139229677
 30
0.0
 10
138.1396856960294
 20
140.6274589388844
 30
0.0
 10
138.004046753141
 20
140.8778894196461
 30
0.0
 10
137.9682627883559
 20
141.020308781745
 30
0.0
 10
137.9682627883559
 20
141.1634416067917
 30
0.0
  0
SPLINE
  5
88
330
1F
100
AcDbEntity
  8
0
  6
Continuous
 62
     7
370
    15
100
AcDbSpline
210
0.0
220
0.0
230
1.0
 70
    24
 71
     3
 72
    12
 73
     8
 74
     0
 42
0.00000001
 43
0.00000001
 40
0.0
 40
0.0
 40
0.0
 40
0.0
 40
0.2500000000000037
 40
0.2500000000000037
 40
0.5000000000000074
 40
0.5000000000000074
 40
1.0
 40
1.0
 40
1.0
 40
1.0
 10
138.7682627883559
 20
140.4437877557559
 30
0.0
 10
138.7183861060385
 20
140.4437877557559
 30
0.0
 10
138.6703829126349
 20
140.4437877557559
 30
0.0
 10
138.5873348099229
 20
140.4437877557559
 30
0.0
 10
138.5512052304551
 20
140.4437877557559
 30
0.0
 10
138.4552931995108
 20
140.4437877557559
 30
0.0
 10
138.405534531542
 20
140.4437877557559
 30
0.0
 10
138.3625603200469
 20
140.4437877557559
 30
0.0
  0
SPLINE
  5
89
330
1F
100
AcDbEntity
  8
0
  6
Continuous
 62
     7
370
    15
100
AcDbSpline
210
0.0
220
0.0
230
1.0
 70
    24
 71
     3
 72
    14
 73
    10
 74
     0
 42
0.00000001
 43
0.00000001
 40
0.0
 40
0.0
 40
0.0
 40
0.0
 40
0.1249999999999991
 40
0.1249999999999991
 40
0.2499999999999982
 40
0.2499999999999982
 40
0.4999999999999998
 40
0.4999999999999998
 40
1.0
 40
1.0
 40
1.0
 40
1.0
 10
138.7682627883559
 20
87.64378775575594
 30
0.0
 10
138.6998249404695
 20
87.64378775575594
 30
0.0
 10
138.6342749017044
 20
87.64378775575594
 30
0.0
 10
138.5298482622965
 20
87.64378775575594
 30
0.0
 10
138.487303652535
 20
87.64378775575594
 30
0.0
 10
138.3746941919948
 20
87.64378775575592
 30
0.0
 10
138.3191551449753
 20
87.64378775575594
 30
0.0
 10
138.1765434495115
 20
87.64378775575592
 30
0.0
 10
138.1131380945158
 20
87.64378775575592
 30
0.0
 10
138.0659375906882
 20
87.64378775575594
 30
0.0
  0
SPLINE
  5
8A
330
1F
100
AcDbEntity
  8
0
  6
Continuous
 62
     7
370
    15
100
AcDbSpline
210
0.0
220
0.0
230
1.0
 70
     8
 71
     3
 72
    10
 73
     6
 74
     0
 42
0.00000001
 43
0.00000001
 40
0.0
 40
0.0
 40
0.0
 40
0.0
 40
0.5
 40
0.5
 40
1.0
 40
1.0
 40
1.0
 40
1.0
 10
137.9682627883559
 20
134.1796543872173
 30
0.0
 10
137.9682627883559
 20
134.131882879224
 30
0.0
 10
137.9704240319531
 20
134.0841731571623
 30
0.0
 10
137.9790954058132
 20
133.9888780396141
 30
0.0
 10
137.9856245887692
 20
133.9411854756474
 30
0.0
 10
137.994410411516
 20
133.8937877557559
 30
0.0
  0
SPLINE
  5
8B
330
1F
100
AcDbEntity
  8
0
  6
Continuous
 62
     7
370
    15
100
AcDbSpline
210
0.0
220
0.0
230
1.0
 70
    24
 71
     3
 72
    14
 73
    10
 74
     0
 42
0.00000001
 43
0.00000001
 40
0.0
 40
0.0
 40
0.0
 40
0.0
 40
0.5000000000000013
 40
0.5000000000000013
 40
0.750000000000002
 40
0.750000000000002
 40
0.875000000000001
 40
0.875000000000001
 40
1.0
 40
1.0
 40
1.0
 40
1.0
 10
141.6905879860236
 20
87.64378775575594
 30
0.0
 10
141.6438032809754
 20
87.64378775575592
 30
0.0
 10
141.5817520841958
 20
87.64378775575594
 30
0.0
 10
141.4383604456452
 20
87.64378775575594
 30
0.0
 10
141.382216792094
 20
87.64378775575592
 30
0.0
 10
141.2692657699579
 20
87.64378775575592
 30
0.0
 10
141.2262650079197
 20
87.64378775575594
 30
0.0
 10
141.1222022976132
 20
87.64378775575592
 30
0.0
 10
141.0568700592563
 20
87.64378775575594
 30
0.0
 10
140.9882627883559
 20
87.64378775575594
 30
0.0
  0
SPLINE
  5
8C
330
1F
100
AcDbEntity
  8
0
  6
Continuous
 62
     7
370
    15
100
AcDbSpline
210
0.0
220
0.0
230
1.0
 70
    24
 71
     3
 72
    12
 73
     8
 74
     0
 42
0.00000001
 43
0.00000001
 40
0.0
 40
0.0
 40
0.0
 40
0.0
 40
0.5000000000000017
 40
0.5000000000000017
 40
0.7500000000000008
 40
0.7500000000000008
 40
1.0
 40
1.0
 40
1.0
 40
1.0
 10
141.393965256665
 20
140.4437877557559
 30
0.0
 10
141.350879707054
 20
140.4437877557559
 30
0.0
 10
141.3017275053047
 20
140.4437877557559
 30
0.0
 10
141.2052549110168
 20
140.4437877557559
 30
0.0
 10
141.1691533258822
 20
140.4437877557559
 30
0.0
 10
141.0860475680209
 20
140.4437877557559
 30
0.0
 10
141.0380509710546
 20
140.4437877557559
 30
0.0
 10
140.9882627883559
 20
140.4437877557559
 30
0.0
  0
SPLINE
  5
8D
330
1F
100
AcDbEntity
  8
0
  6
Continuous
 62
     7
370
    15
100
AcDbSpline
210
0.0
220
0.0
230
1.0
 70
     8
 71
     3
 72
    10
 73
     6
 74
     0
 42
0.00000001
 43
0.00000001
 40
0.0
 40
0.0
 40
0.0
 40
0.0
 40
0.5
 40
0.5
 40
1.0
 40
1.0
 40
1.0
 40
1.0
 10
141.7882627883559
 20
141.1634416067917
 30
0.0
 10
141.7882627883559
 20
141.0196715489737
 30
0.0
 10
141.752213729637
 20
140.8772521864785
 30
0.0
 10
141.616704868863
 20
140.6273578931213
 30
0.0
 10
141.5168288757669
 20
140.5193275568731
 30
0.0
 10
141.3939652566649
 20
140.4437877557559
 30
0.0
  0
SPLINE
  5
8E
330
1F
100
AcDbEntity
  8
0
  6
Continuous
 62
     7
370
    15
100
AcDbSpline
210
0.0
220
0.0
230
1.0
 70
     8
 71
     3
 72
    10
 73
     6
 74
     0
 42
0.00000001
 43
0.00000001
 40
0.0
 40
0.0
 40
0.0
 40
0.0
 40
0.5
 40
0.5
 40
1.0
 40
1.0
 40
1.0
 40
1.0
 10
141.7621151651958
 20
133.8937877557559
 30
0.0
 10
141.7708048081074
 20
133.9406666050741
 30
0.0
 10
141.777343872858
 20
133.9880890704753
 30
0.0
 10
141.786102507251
 20
134.0840258690621
 30
0.0
 10
141.7882627883559
 20
134.1319411570726
 30
0.0
 10
141.7882627883559
 20
134.1796543872171
 30
0.0
  0
LINE
  5
8F
330
1F
100
AcDbEntity
  8
0
  6
Continuous
 62
     7
370
    15
100
AcDbLine
 10
140.9882627884
 20
140.4437877558
 30
0.0
 11
138.7682627884
 21
140.4437877558
 31
0.0
  0
LINE
  5
90
330
1F
100
AcDbEntity
  8
0
  6
Continuous
 62
     7
370
    15
100
AcDbLine
 10
140.9882627884
 20
87.6437877558
 30
0.0
 11
138.7682627884
 21
87.6437877558
 31
0.0
  0
LINE
  5
91
330
1F
100
AcDbEntity
  8
0
  6
Continuous
 62
     7
370
    15
100
AcDbLine
 10
119.8782627884
 20
89.823356894
 30
0.0
 11
119.8782627884
 21
138.2642186175
 31
0.0
  0
LINE
  5
92
330
1F
100
AcDbEntity
  8
0
  6
Continuous
 62
     7
370
    15
100
AcDbLine
 10
100.0782627884
 20
90.815340862
 30
0.0
 11
100.0782627884
 21
92.0800502246
 31
0.0
  0
SPLINE
  5
93
330
1F
100
AcDbEntity
  8
0
  6
Continuous
 62
     7
370
    15
100
AcDbSpline
210
0.0
220
0.0
230
1.0
 70
     8
 71
     3
 72
    14
 73
    10
 74
     0
 42
0.00000001
 43
0.00000001
 40
0.0
 40
0.0
 40
0.0
 40
0.0
 40
0.25
 40
0.25
 40
0.5
 40
0.5
 40
0.75
 40
0.75
 40
1.0
 40
1.0
 40
1.0
 40
1.0
 10
99.29997567044022
 20
93.21063643219597
 30
0.0
 10
99.35660234564229
 20
93.1029389783591
 30
0.0
 10
99.451125005932
 20
93.0001493966398
 30
0.0
 10
99.63416998149424
 20
92.80179208441965
 30
0.0
 10
99.72579655844896
 20
92.7057325757414
 30
0.0
 10
99.88464987614216
 20
92.51820353303215
 30
0.0
 10
99.95254048376387
 20
92.42679456024861
 30
0.0
 10
100.0494575094715
 20
92.24841833933844
 30
0.0
 10
100.0782627883565
 20
92.16119643309227
 30
0.0
 10
100.0782627883565
 20
92.08005022455801
 30
0.0
  0
SPLINE
  5
94
330
1F
100
AcDbEntity
  8
0
  6
Continuous
 62
     7
370
    15
100
AcDbSpline
210
0.0
220
0.0
230
1.0
 70
     8
 71
     3
 72
    14
 73
    10
 74
     0
 42
0.00000001
 43
0.00000001
 40
0.0
 40
0.0
 40
0.0
 40
0.0
 40
0.1249999999999975
 40
0.1249999999999975
 40
0.249999999999995
 40
0.249999999999995
 40
0.4999999999999953
 40
0.4999999999999953
 40
1.0
 40
1.0
 40
1.0
 40
1.0
 10
98.67826278835592
 20
93.65731829447529
 30
0.0
 10
98.72680719701309
 20
93.66306660775558
 30
0.0
 10
98.779722551798
 20
93.65996571909935
 30
0.0
 10
98.87501789678105
 20
93.63777087493702
 30
0.0
 10
98.91526889406599
 20
93.62053864784116
 30
0.0
 10
99.01953890757896
 20
93.5642107313891
 30
0.0
 10
99.06986088273229
 20
93.52002438544329
 30
0.0
 10
99.19754383025767
 20
93.38901648659268
 30
0.0
 10
99.25362927731993
 20
93.29878196636237
 30
0.0
 10
99.29997567044165
 20
93.2106364321965
 30
0.0
  0
SPLINE
  5
95
330
1F
100
AcDbEntity
  8
0
  6
Continuous
 62
     7
370
    15
100
AcDbSpline
210
0.0
220
0.0
230
1.0
 70
     8
 71
     3
 72
     8
 73
     4
 74
     0
 42
0.00000001
 43
0.00000001
 40
0.0
 40
0.0
 40
0.0
 40
0.0
 40
1.0
 40
1.0
 40
1.0
 40
1.0
 10
96.4097376954097
 20
93.3474730078925
 30
0.0
 10
97.14431472189266
 20
93.46609801896147
 30
0.0
 10
97.90778979128831
 20
93.56608389109775
 30
0.0
 10
98.67826278835592
 20
93.65731829447529
 30
0.0
  0
SPLINE
  5
96
330
1F
100
AcDbEntity
  8
0
  6
Continuous
 62
     7
370
    15
100
AcDbSpline
210
0.0
220
0.0
230
1.0
 70
     8
 71
     3
 72
    14
 73
    10
 74
     0
 42
0.00000001
 43
0.00000001
 40
0.0
 40
0.0
 40
0.0
 40
0.0
 40
0.500000000000001
 40
0.500000000000001
 40
0.7500000000000004
 40
0.7500000000000004
 40
0.8750000000000003
 40
0.8750000000000003
 40
1.0
 40
1.0
 40
1.0
 40
1.0
 10
91.12826278835593
 20
93.17384999036085
 30
0.0
 10
92.0204089189095
 20
93.1731277641602
 30
0.0
 10
92.9103853547031
 20
93.17771397061766
 30
0.0
 10
94.2369805217787
 20
93.2054389750092
 30
0.0
 10
94.67782745027745
 20
93.21804551263338
 30
0.0
 10
95.33426768769985
 20
93.24906166064083
 30
0.0
 10
95.55228134429174
 20
93.2614048332676
 30
0.0
 10
95.98499019797451
 20
93.29442888843089
 30
0.0
 10
96.2002666631393
 20
93.31364605356931
 30
0.0
 10
96.40973769540972
 20
93.3474730078925
 30
0.0
  0
SPLINE
  5
97
330
1F
100
AcDbEntity
  8
0
  6
Continuous
 62
     7
370
    15
100
AcDbSpline
210
0.0
220
0.0
230
1.0
 70
     8
 71
     3
 72
     8
 73
     4
 74
     0
 42
0.00000001
 43
0.00000001
 40
0.0000005163856998
 40
0.0000005163856998
 40
0.0000005163856998
 40
0.0000005163856998
 40
0.000026289209185
 40
0.000026289209185
 40
0.000026289209185
 40
0.000026289209185
 10
91.11821785794831
 20
93.18383386345764
 30
0.0
 10
91.12154559615615
 20
93.18049961658852
 30
0.0
 10
91.12489404913174
 20
93.1771716593132
 30
0.0
 10
91.1282627883559
 20
93.17384999036084
 30
0.0
  0
SPLINE
  5
98
330
1F
100
AcDbEntity
  8
0
  6
Continuous
 62
     7
370
    15
100
AcDbSpline
210
0.0
220
0.0
230
1.0
 70
     8
 71
     3
 72
     8
 73
     4
 74
     0
 42
0.00000001
 43
0.00000001
 40
0.0000005099763573
 40
0.0000005099763573
 40
0.0000005099763573
 40
0.0000005099763573
 40
0.0000262827998699
 40
0.0000262827998699
 40
0.0000262827998699
 40
0.0000262827998699
 10
91.1282627883559
 20
134.913725521151
 30
0.0
 10
91.12489404912816
 20
134.9104038521951
 30
0.0
 10
91.12154559614902
 20
134.9070758949162
 30
0.0
 10
91.11821785793768
 20
134.9037416480436
 30
0.0
  0
SPLINE
  5
99
330
1F
100
AcDbEntity
  8
0
  6
Continuous
 62
     7
370
    15
100
AcDbSpline
210
0.0
220
0.0
230
1.0
 70
     8
 71
     3
 72
    10
 73
     6
 74
     0
 42
0.00000001
 43
0.00000001
 40
0.0
 40
0.0
 40
0.0
 40
0.0
 40
0.5
 40
0.5
 40
1.0
 40
1.0
 40
1.0
 40
1.0
 10
94.67826278835592
 20
134.8668751475837
 30
0.0
 10
94.09067724126534
 20
134.8879406678201
 30
0.0
 10
93.49993084780495
 20
134.8986991536923
 30
0.0
 10
92.3159116825061
 20
134.912063934228
 30
0.0
 10
91.72249769430063
 20
134.9142065768926
 30
0.0
 10
91.12826278835593
 20
134.913725521151
 30
0.0
  0
SPLINE
  5
9A
330
1F
100
AcDbEntity
  8
0
  6
Continuous
 62
     7
370
    15
100
AcDbSpline
210
0.0
220
0.0
230
1.0
 70
     8
 71
     3
 72
    18
 73
    14
 74
     0
 42
0.00000001
 43
0.00000001
 40
0.0
 40
0.0
 40
0.0
 40
0.0
 40
0.2500000000000009
 40
0.2500000000000009
 40
0.500000000000001
 40
0.500000000000001
 40
0.7500000000000011
 40
0.7500000000000011
 40
0.875000000000001
 40
0.875000000000001
 40
0.9375000000000006
 40
0.9375000000000006
 40
1.0
 40
1.0
 40
1.0
 40
1.0
 10
96.07826278835593
 20
135.8878954281189
 30
0.0
 10
96.07826278835593
 20
135.8046885192617
 30
0.0
 10
96.04241368841767
 20
135.7159518639481
 30
0.0
 10
95.91754195238374
 20
135.5338266733879
 30
0.0
 10
95.82714153473587
 20
135.4386966247613
 30
0.0
 10
95.6048988799937
 20
135.249515115637
 30
0.0
 10
95.47513409354794
 20
135.1545699475423
 30
0.0
 10
95.23449663623641
 20
135.0162912399623
 30
0.0
 10
95.14672933809896
 20
134.9705808066599
 30
0.0
 10
94.99220525089217
 20
134.9127575014385
 30
0.0
 10
94.93559436483741
 20
134.8950427374006
 30
0.0
 10
94.81155033393081
 20
134.8705034341677
 30
0.0
 10
94.74383565891252
 20
134.8645242956294
 30
0.0
 10
94.67826278835592
 20
134.8668751475837
 30
0.0
  0
LINE
  5
9B
330
1F
100
AcDbEntity
  8
0
  6
Continuous
 62
     7
370
    15
100
AcDbLine
 10
96.0782627884
 20
135.8878954281
 30
0.0
 11
96.0782627884
 21
137.0718338479
 31
0.0
  0
SPLINE
  5
9C
330
1F
100
AcDbEntity
  8
0
  6
Continuous
 62
     7
370
    15
100
AcDbSpline
210
0.0
220
0.0
230
1.0
 70
     8
 71
     3
 72
    24
 73
    20
 74
     0
 42
0.00000001
 43
0.00000001
 40
0.0
 40
0.0
 40
0.0
 40
0.0
 40
0.0010489762969682
 40
0.0637843125639766
 40
0.1272220590447888
 40
0.1903788924487598
 40
0.252674865369363
 40
0.3146354154424954
 40
0.377089199714964
 40
0.4393540298504154
 40
0.5008133242537826
 40
0.562184510458698
 40
0.624843845111553
 40
0.6874304766616532
 40
0.7496743174679398
 40
0.8119848426977657
 40
0.8750960525413161
 40
0.9384412526965076
 40
0.9999999999999999
 40
0.9999999999999999
 40
0.9999999999999999
 40
0.9999999999999999
 10
108.6471686203316
 20
90.38627932717577
 30
0.0
 10
108.6467221602274
 20
90.38622104135688
 30
0.0
 10
108.6195745965336
 20
90.38267689941436
 30
0.0
 10
108.7151863741473
 20
90.3955106440971
 30
0.0
 10
108.9487466320417
 20
90.4247573292973
 30
0.0
 10
109.344300939359
 20
90.47137165236013
 30
0.0
 10
109.8713412431965
 20
90.5215547940195
 30
0.0
 10
110.5148716551864
 20
90.5659312564691
 30
0.0
 10
111.2535455104254
 20
90.59287603740731
 30
0.0
 10
112.0510600158587
 20
90.5963478881141
 30
0.0
 10
112.8776388983014
 20
90.56872064408385
 30
0.0
 10
113.7031619159122
 20
90.51024175511053
 30
0.0
 10
114.4952884639134
 20
90.42479672575044
 30
0.0
 10
115.2278607379193
 20
90.32306248591411
 30
0.0
 10
115.8635009746473
 20
90.21521936394115
 30
0.0
 10
116.3854120816568
 20
90.11358920720205
 30
0.0
 10
116.7670408587723
 20
90.03110405052384
 30
0.0
 10
117.0178553290061
 20
89.9749548441742
 30
0.0
 10
117.0469768849904
 20
89.96810538556046
 30
0.0
 10
117.0613294058066
 20
89.9647296388323
 30
0.0
  0
SPLINE
  5
9D
330
1F
100
AcDbEntity
  8
0
  6
Continuous
 62
     7
370
    15
100
AcDbSpline
210
0.0
220
0.0
230
1.0
 70
     8
 71
     3
 72
    24
 73
    20
 74
     0
 42
0.00000001
 43
0.00000001
 40
0.0
 40
0.0
 40
0.0
 40
0.0
 40
0.0614384276250176
 40
0.1250736755369651
 40
0.1884253490729237
 40
0.2508623904037427
 40
0.3129665632511172
 40
0.3753451453465143
 40
0.4377328972324873
 40
0.4990927322917189
 40
0.5605807588447405
 40
0.6229469893028771
 40
0.6854686282025979
 40
0.7475477813740068
 40
0.8098225060804932
 40
0.8730684085990272
 40
0.9364041844536292
 40
0.9991757196257863
 40
1.0
 40
1.0
 40
1.0
 40
1.0
 10
117.0612746350037
 20
138.1228167302133
 30
0.0
 10
117.0466739107002
 20
138.1194486733607
 30
0.0
 10
117.0169503919723
 20
138.1125921298869
 30
0.0
 10
116.7642125763236
 20
138.056253509361
 30
0.0
 10
116.381216659874
 20
137.973396427231
 30
0.0
 10
115.8588610754369
 20
137.8714893972798
 30
0.0
 10
115.224076597437
 20
137.7636502582359
 30
0.0
 10
114.4938529932643
 20
137.6621833062608
 30
0.0
 10
113.7033844080303
 20
137.5771235925701
 30
0.0
 10
112.8789008932022
 20
137.5189192986837
 30
0.0
 10
112.0518644343187
 20
137.4913358598571
 30
0.0
 10
111.253540166667
 20
137.4948288373499
 30
0.0
 10
110.5137162023777
 20
137.521784757203
 30
0.0
 10
109.8694619694026
 20
137.5661386992023
 30
0.0
 10
109.3420547141867
 20
137.6163441489601
 30
0.0
 10
108.9473901120365
 20
137.6629540041585
 30
0.0
 10
108.7148608328481
 20
137.6921495967059
 30
0.0
 10
108.6194808002996
 20
137.7049276656471
 30
0.0
 10
108.6464144372005
 20
137.7013734071393
 30
0.0
 10
108.6467635304248
 20
137.701327339556
 30
0.0
  0
SPLINE
  5
9E
330
1F
100
AcDbEntity
  8
0
  6
Continuous
 62
     7
370
    15
100
AcDbSpline
210
0.0
220
0.0
230
1.0
 70
     8
 71
     3
 72
    10
 73
     6
 74
     0
 42
0.00000001
 43
0.00000001
 40
0.0
 40
0.0
 40
0.0
 40
0.0
 40
0.0840381716606348
 40
0.7011125076933074
 40
1.0
 40
1.0
 40
1.0
 40
1.0
 10
89.99180975089159
 20
94.31501384807258
 30
0.0
 10
89.99248430822651
 20
94.3128082212367
 30
0.0
 10
89.9981119959227
 20
94.29440714787448
 30
0.0
 10
90.02443347604955
 20
94.30864171059766
 30
0.0
 10
90.03686849289426
 20
94.35432748614863
 30
0.0
 10
90.04092616307932
 20
94.3692352109752
 30
0.0
  0
LINE
  5
9F
330
1F
100
AcDbEntity
  8
0
  6
Continuous
 62
     7
370
    15
100
AcDbLine
 10
89.9782627884
 20
94.3531100093
 30
0.0
 11
89.9782627884
 21
133.7344655022
 31
0.0
  0
SPLINE
  5
A0
330
1F
100
AcDbEntity
  8
0
  6
Continuous
 62
     7
370
    15
100
AcDbSpline
210
0.0
220
0.0
230
1.0
 70
     8
 71
     3
 72
    10
 73
     6
 74
     0
 42
0.00000001
 43
0.00000001
 40
0.0
 40
0.0
 40
0.0
 40
0.0
 40
0.3981552638809415
 40
0.8068145697130351
 40
1.0
 40
1.0
 40
1.0
 40
1.0
 10
90.04092616307932
 20
133.7183403005367
 30
0.0
 10
90.03526265835485
 20
133.7371820850875
 30
0.0
 10
90.02378623560757
 20
133.7753627338799
 30
0.0
 10
90.00027200763336
 20
133.7889460177475
 30
0.0
 10
89.99525605181556
 20
133.7732457236273
 30
0.0
 10
89.99364598608796
 20
133.7682061047801
 30
0.0
  0
SPLINE
  5
A1
330
1F
100
AcDbEntity
  8
0
  6
Continuous
 62
     7
370
    15
100
AcDbSpline
210
0.0
220
0.0
230
1.0
 70
     8
 71
     3
 72
    26
 73
    22
 74
     0
 42
0.00000001
 43
0.00000001
 40
0.0
 40
0.0
 40
0.0
 40
0.0
 40
0.2500000000000165
 40
0.2500000000000165
 40
0.3750000000000256
 40
0.3750000000000256
 40
0.4375000000000291
 40
0.4375000000000291
 40
0.4687500000000291
 40
0.4687500000000291
 40
0.5000000000000292
 40
0.5000000000000292
 40
0.5312500000000293
 40
0.5312500000000293
 40
0.5625000000000293
 40
0.5625000000000293
 40
0.625000000000026
 40
0.625000000000026
 40
0.7500000000000173
 40
0.7500000000000173
 40
1.0
 40
1.0
 40
1.0
 40
1.0
 10
90.80241643446044
 20
134.4339070893538
 30
0.0
 10
90.76381591159196
 20
134.3161323929983
 30
0.0
 10
90.71751890903771
 20
134.1917427068364
 30
0.0
 10
90.62357956060377
 20
133.9865233744829
 30
0.0
 10
90.58826809369032
 20
133.9149505080365
 30
0.0
 10
90.52208811794465
 20
133.798997275436
 30
0.0
 10
90.49754975127641
 20
133.7584127406258
 30
0.0
 10
90.45417700572263
 20
133.694271058754
 30
0.0
 10
90.43866860429742
 20
133.672404633469
 30
0.0
 10
90.40362595971041
 20
133.6268103651258
 30
0.0
 10
90.38407566899063
 20
133.6031400741583
 30
0.0
 10
90.34214838862003
 20
133.5585235148184
 30
0.0
 10
90.3194962783884
 20
133.5376435023005
 30
0.0
 10
90.27852256430174
 20
133.5067700885497
 30
0.0
 10
90.26092326440633
 20
133.4969312187173
 30
0.0
 10
90.21629627855019
 20
133.4779416030211
 30
0.0
 10
90.19573705589684
 20
133.4776172783677
 30
0.0
 10
90.14461161640018
 20
133.4868407192439
 30
0.0
 10
90.12370020341164
 20
133.5080876154609
 30
0.0
 10
90.07225029585071
 20
133.5820564942916
 30
0.0
 10
90.05458499654615
 20
133.6481745876063
 30
0.0
 10
90.04092616307932
 20
133.7183403005367
 30
0.0
  0
SPLINE
  5
A2
330
1F
100
AcDbEntity
  8
0
  6
Continuous
 62
     7
370
    15
100
AcDbSpline
210
0.0
220
0.0
230
1.0
 70
     8
 71
     3
 72
    10
 73
     6
 74
     0
 42
0.00000001
 43
0.00000001
 40
0.0
 40
0.0
 40
0.0
 40
0.0
 40
0.5
 40
0.5
 40
1.0
 40
1.0
 40
1.0
 40
1.0
 10
91.11821785793771
 20
134.9037416480436
 30
0.0
 10
91.05065860301946
 20
134.8360502552338
 30
0.0
 10
90.98702194768298
 20
134.7613430904802
 30
0.0
 10
90.87680119311113
 20
134.6023769580536
 30
0.0
 10
90.8299848998885
 20
134.5180216920456
 30
0.0
 10
90.80241643446044
 20
134.4339070893538
 30
0.0
  0
SPLINE
  5
A3
330
1F
100
AcDbEntity
  8
0
  6
Continuous
 62
     7
370
    15
100
AcDbSpline
210
0.0
220
0.0
230
1.0
 70
     8
 71
     3
 72
    10
 73
     6
 74
     0
 42
0.00000001
 43
0.00000001
 40
0.0
 40
0.0
 40
0.0
 40
0.0
 40
0.5
 40
0.5
 40
1.0
 40
1.0
 40
1.0
 40
1.0
 10
90.80241643446047
 20
93.65366842215796
 30
0.0
 10
90.82989384921444
 20
93.56983162569007
 30
0.0
 10
90.87660247950386
 20
93.48552113810094
 30
0.0
 10
90.98688094224981
 20
93.32639990761423
 30
0.0
 10
91.05076848086371
 20
93.25141516352457
 30
0.0
 10
91.11821785794832
 20
93.18383386345764
 30
0.0
  0
SPLINE
  5
A4
330
1F
100
AcDbEntity
  8
0
  6
Continuous
 62
     7
370
    15
100
AcDbSpline
210
0.0
220
0.0
230
1.0
 70
     8
 71
     3
 72
    24
 73
    20
 74
     0
 42
0.00000001
 43
0.00000001
 40
0.0
 40
0.0
 40
0.0
 40
0.0
 40
0.25
 40
0.25
 40
0.374999999999999
 40
0.374999999999999
 40
0.4374999999999993
 40
0.4374999999999993
 40
0.4687499999999994
 40
0.4687499999999994
 40
0.4999999999999995
 40
0.4999999999999995
 40
0.5624999999999971
 40
0.5624999999999971
 40
0.6249999999999947
 40
0.6249999999999947
 40
0.7499999999999947
 40
0.7499999999999947
 40
1.0
 40
1.0
 40
1.0
 40
1.0
 10
90.04092616307932
 20
94.36923521097518
 30
0.0
 10
90.05467928174957
 20
94.43988526896547
 30
0.0
 10
90.07245184915543
 20
94.5064833817304
 30
0.0
 10
90.12470294071079
 20
94.5805814019636
 30
0.0
 10
90.14573801629233
 20
94.60183920912516
 30
0.0
 10
90.19863842392078
 20
94.6099851352714
 30
0.0
 10
90.21974409679869
 20
94.60904533187562
 30
0.0
 10
90.26579626547665
 20
94.58802934029828
 30
0.0
 10
90.28416673746005
 20
94.57712053419067
 30
0.0
 10
90.32571837252576
 20
94.5444856232433
 30
0.0
 10
90.34828504528267
 20
94.52299364287192
 30
0.0
 10
90.41106606174267
 20
94.4545276992856
 30
0.0
 10
90.44419582271057
 20
94.40845324108052
 30
0.0
 10
90.50111350919559
 20
94.32344535274585
 30
0.0
 10
90.52529953469937
 20
94.28316505156448
 30
0.0
 10
90.59050748507913
 20
94.16822882509852
 30
0.0
 10
90.62522354527036
 20
94.09764583995153
 30
0.0
 10
90.71843881560123
 20
93.89344008087292
 30
0.0
 10
90.76411135096193
 20
93.77054169854556
 30
0.0
 10
90.80241643446047
 20
93.65366842215798
 30
0.0
  0
SPLINE
  5
A5
330
1F
100
AcDbEntity
  8
0
  6
Continuous
 62
     7
370
    15
100
AcDbSpline
210
0.0
220
0.0
230
1.0
 70
     8
 71
     3
 72
    39
 73
    35
 74
     0
 42
0.00000001
 43
0.00000001
 40
-0.0928098421164364
 40
-0.061703430605938
 40
-0.0305299624236124
 40
0.0
 40
0.0305538645811833
 40
0.0617342229577186
 40
0.0928524521284906
 40
0.1239442732030928
 40
0.1551263163317096
 40
0.1867203328768558
 40
0.2185055218161155
 40
0.2499267493270508
 40
0.2813715591307927
 40
0.3132224564732013
 40
0.3448874983141129
 40
0.3761203570732657
 40
0.4072073710858754
 40
0.438279678301593
 40
0.4694125787358527
 40
0.5000112827606752
 40
0.5306014508049117
 40
0.5617732316877301
 40
0.5928577352014439
 40
0.6239624052471865
 40
0.6551724327590712
 40
0.6868187306052905
 40
0.7186212033239733
 40
0.7500671669597214
 40
0.7814821074169622
 40
0.8133060958935162
 40
0.8449172376387107
 40
0.8761199144779185
 40
0.9071901578835636
 40
0.938296569394062
 40
0.9694700375763876
 40
1.0
 40
1.030553864581183
 40
1.061734222957719
 40
1.092852452128491
 10
181.0412135994134
 20
108.0501061555047
 30
0.0
 10
179.8779562196273
 20
107.9312933491303
 30
0.0
 10
178.714643345677
 20
108.0503259426262
 30
0.0
 10
177.598004658867
 20
108.407540748723
 30
0.0
 10
176.5663384461564
 20
108.9686036427283
 30
0.0
 10
175.6714727656387
 20
109.7248181099806
 30
0.0
 10
174.9364383784464
 20
110.6448240988659
 30
0.0
 10
174.3921902799553
 20
111.7021200810186
 30
0.0
 10
174.0464764658884
 20
112.8480219164886
 30
0.0
 10
173.9320489290579
 20
114.0412493669035
 30
0.0
 10
174.0471273937362
 20
115.2352245999472
 30
0.0
 10
174.3931450578319
 20
116.3830999401623
 30
0.0
 10
174.9375668746545
 20
117.4429574536614
 30
0.0
 10
175.6730920787637
 20
118.3644671429641
 30
0.0
 10
176.5675917129676
 20
119.1210589278134
 30
0.0
 10
177.5980285430416
 20
119.6818842994399
 30
0.0
 10
178.7144591176132
 20
120.0380084492307
 30
0.0
 10
179.8785418411197
 20
120.1560977946182
 30
0.0
 10
181.0430827506628
 20
120.0376559742268
 30
0.0
 10
182.1598778308399
 20
119.6809358736991
 30
0.0
 10
183.1910083774515
 20
119.1195943981527
 30
0.0
 10
184.0852835488509
 20
118.3625568477361
 30
0.0
 10
184.8202367691467
 20
117.4410049976012
 30
0.0
 10
185.364008383053
 20
116.3820655630489
 30
0.0
 10
185.7093884875042
 20
115.2348843207046
 30
0.0
 10
185.8244610340081
 20
114.0416104678288
 30
0.0
 10
185.7101276704499
 20
112.8479332502943
 30
0.0
 10
185.3639927632561
 20
111.7014909856854
 30
0.0
 10
184.8192814857786
 20
110.6433593948713
 30
0.0
 10
184.0837439235605
 20
109.7234606260205
 30
0.0
 10
183.1886814743661
 20
108.9677401858349
 30
0.0
 10
182.1573290942476
 20
108.407195966601
 30
0.0
 10
181.0412135994134
 20
108.0501061555047
 30
0.0
 10
179.8779562196273
 20
107.9312933491303
 30
0.0
 10
178.714643345677
 20
108.0503259426262
 30
0.0
  0
LINE
  5
A6
330
1F
100
AcDbEntity
  8
0
  6
Continuous
 62
     7
370
    15
100
AcDbLine
 10
187.938967805
 20
91.5437877558
 30
0.0
 11
187.938967805
 21
136.5437877558
 31
0.0
  0
LINE
  5
A7
330
1F
100
AcDbEntity
  8
0
  6
Continuous
 62
     7
370
    15
100
AcDbLine
 10
156.4696822703
 20
136.4257500205
 30
0.0
 11
156.5918974889
 21
136.4159882299
 31
0.0
  0
SPLINE
  5
A8
330
1F
100
AcDbEntity
  8
0
  6
Continuous
 62
     7
370
    15
100
AcDbSpline
210
0.0
220
0.0
230
1.0
 70
     8
 71
     3
 72
    37
 73
    33
 74
     0
 42
0.00000001
 43
0.00000001
 40
0.0
 40
0.0
 40
0.0
 40
0.0
 40
0.0280518452031601
 40
0.051897685275949
 40
0.073766643533669
 40
0.1181981254430329
 40
0.1407964566095249
 40
0.1637112430508274
 40
0.2101978924112473
 40
0.2337981632275973
 40
0.2591079495247554
 40
0.3104446026594818
 40
0.3365053181415109
 40
0.3645269433735961
 40
0.4214114492891605
 40
0.4503237149874168
 40
0.4802659791643933
 40
0.5411265088198098
 40
0.5721142978286905
 40
0.6026320654728269
 40
0.633367755983912
 40
0.6648086860239784
 40
0.6965024572390899
 40
0.7260910278637163
 40
0.7864390551571288
 40
0.817321773722582
 40
0.8442610498563182
 40
0.899289994404206
 40
0.9275029883221131
 40
0.9511890595554909
 40
0.9994973449091633
 40
1.0
 40
1.0
 40
1.0
 40
1.0
 10
162.3179700119223
 20
136.5425285211226
 30
0.0
 10
162.3194292764621
 20
136.5427056869786
 30
0.0
 10
162.3221290080224
 20
136.5430334550012
 30
0.0
 10
162.2793971474769
 20
136.5378261593367
 30
0.0
 10
162.2074813761028
 20
136.5291841224857
 30
0.0
 10
162.0984725632262
 20
136.5163709767449
 30
0.0
 10
161.9555057293602
 20
136.5003350744069
 30
0.0
 10
161.7874627320733
 20
136.4821439289896
 30
0.0
 10
161.5861700092328
 20
136.4616553609061
 30
0.0
 10
161.3529256637262
 20
136.4399740581766
 30
0.0
 10
161.0898471986572
 20
136.4171952214616
 30
0.0
 10
160.794095477605
 20
136.3947032524572
 30
0.0
 10
160.4705840453862
 20
136.374176553475
 30
0.0
 10
160.1172104677924
 20
136.3549143961643
 30
0.0
 10
159.7371321785347
 20
136.3397281207016
 30
0.0
 10
159.3413199151026
 20
136.3302216008059
 30
0.0
 10
158.9274490074191
 20
136.3248001987862
 30
0.0
 10
158.5027888679394
 20
136.3265249158518
 30
0.0
 10
158.0828671800741
 20
136.3354568113013
 30
0.0
 10
157.7714448266329
 20
136.345597611315
 30
0.0
 10
157.4660080039471
 20
136.3589061235041
 30
0.0
 10
157.1667696706899
 20
136.3751740333
 30
0.0
 10
156.8837732715758
 20
136.393525819598
 30
0.0
 10
156.5321424449046
 20
136.4196917895945
 30
0.0
 10
156.2150888345549
 20
136.4476342679398
 30
0.0
 10
155.9488289968042
 20
136.4739564109962
 30
0.0
 10
155.7238683423474
 20
136.4975856164181
 30
0.0
 10
155.5488733220253
 20
136.517424731817
 30
0.0
 10
155.430342001247
 20
136.5314233941522
 30
0.0
 10
155.353721195193
 20
136.5406493784539
 30
0.0
 10
155.3207497089663
 20
136.5447070381813
 30
0.0
 10
155.3284226055095
 20
136.5437682016927
 30
0.0
 10
155.3285016210022
 20
136.543758533554
 30
0.0
  0
SPLINE
  5
A9
330
1F
100
AcDbEntity
  8
0
  6
Continuous
 62
     7
370
    15
100
AcDbSpline
210
0.0
220
0.0
230
1.0
 70
     8
 71
     3
 72
     9
 73
     5
 74
     0
 42
0.00000001
 43
0.00000001
 40
0.0
 40
0.0
 40
0.0
 40
0.0
 40
0.3529434880842668
 40
0.9999999999999999
 40
0.9999999999999999
 40
0.9999999999999999
 40
0.9999999999999999
 10
156.1707577714156
 20
136.4525308509505
 30
0.0
 10
156.2037490542079
 20
136.4493898824795
 30
0.0
 10
156.2972237432336
 20
136.4404905300987
 30
0.0
 10
156.4019308530564
 20
136.4315409224414
 30
0.0
 10
156.4696822703111
 20
136.4257500205277
 30
0.0
  0
SPLINE
  5
AA
330
1F
100
AcDbEntity
  8
0
  6
Continuous
 62
     7
370
    15
100
AcDbSpline
210
0.0
220
0.0
230
1.0
 70
     8
 71
     3
 72
    70
 73
    66
 74
     0
 42
0.00000001
 43
0.00000001
 40
-0.03125
 40
-0.03125
 40
0.0
 40
0.0
 40
0.03125
 40
0.03125
 40
0.0625
 40
0.0625
 40
0.09375
 40
0.09375
 40
0.125
 40
0.125
 40
0.15625
 40
0.15625
 40
0.1875
 40
0.1875
 40
0.21875
 40
0.21875
 40
0.25
 40
0.25
 40
0.28125
 40
0.28125
 40
0.3125
 40
0.3125
 40
0.34375
 40
0.34375
 40
0.375
 40
0.375
 40
0.40625
 40
0.40625
 40
0.4375
 40
0.4375
 40
0.46875
 40
0.46875
 40
0.5
 40
0.5
 40
0.53125
 40
0.53125
 40
0.5625
 40
0.5625
 40
0.59375
 40
0.59375
 40
0.625
 40
0.625
 40
0.65625
 40
0.65625
 40
0.6875
 40
0.6875
 40
0.71875
 40
0.71875
 40
0.75
 40
0.75
 40
0.78125
 40
0.78125
 40
0.8125
 40
0.8125
 40
0.84375
 40
0.84375
 40
0.875
 40
0.875
 40
0.90625
 40
0.90625
 40
0.9375
 40
0.9375
 40
0.96875
 40
0.96875
 40
1.0
 40
1.0
 40
1.03125
 40
1.03125
 10
156.3005305388407
 20
116.2073646828936
 30
0.0
 10
156.6388340038757
 20
116.4835857540089
 30
0.0
 10
156.8183547656127
 20
116.60345735037
 30
0.0
 10
157.1962677872746
 20
116.810171156599
 30
0.0
 10
157.3960734557312
 20
116.8974275494377
 30
0.0
 10
157.8085732001839
 20
117.0362645636528
 30
0.0
 10
158.0184728824599
 20
117.0871912866631
 30
0.0
 10
158.4452634982919
 20
117.1537199475298
 30
0.0
 10
158.6641678059799
 20
117.1692086232565
 30
0.0
 10
159.0982766136988
 20
117.1632839934248
 30
0.0
 10
159.3129097482481
 20
117.1422906428575
 30
0.0
 10
159.7373820597415
 20
117.0645624145832
 30
0.0
 10
159.9492654224747
 20
117.0069856557246
 30
0.0
 10
160.355961511215
 20
116.8574067467948
 30
0.0
 10
160.550676242313
 20
116.7659534979184
 30
0.0
 10
160.9224964177123
 20
116.5489114092285
 30
0.0
 10
161.1014899513914
 20
116.4215622784016
 30
0.0
 10
161.4282141026065
 20
116.1380639002724
 30
0.0
 10
161.576206247826
 20
115.9824986556043
 30
0.0
 10
161.8397973728414
 20
115.6421102000028
 30
0.0
 10
161.9564212112808
 20
115.454522176246
 30
0.0
 10
162.1426397140758
 20
115.0646222056062
 30
0.0
 10
162.2136470403786
 20
114.8615093074021
 30
0.0
 10
162.308499948435
 20
114.4378217756592
 30
0.0
 10
162.3312027887849
 20
114.2182715551189
 30
0.0
 10
162.324697683338
 20
113.7862755575757
 30
0.0
 10
162.2955626564645
 20
113.568174838393
 30
0.0
 10
162.1879411752921
 20
113.1462493754893
 30
0.0
 10
162.1106541191657
 20
112.9441670994433
 30
0.0
 10
161.9115554691954
 20
112.5567992104416
 30
0.0
 10
161.7905852390242
 20
112.3741599843955
 30
0.0
 10
161.5164550413079
 20
112.039610651169
 30
0.0
 10
161.3606036895422
 20
111.8846237581344
 30
0.0
 10
161.0251473171951
 20
111.609450212791
 30
0.0
 10
160.8458630914253
 20
111.488831947618
 30
0.0
 10
160.4653291005919
 20
111.2796887851469
 30
0.0
 10
160.264129361454
 20
111.1917190122236
 30
0.0
 10
159.854578489829
 20
111.0532160274476
 30
0.0
 10
159.6444720187609
 20
111.001639201411
 30
0.0
 10
159.2135300657525
 20
110.933959851774
 30
0.0
 10
158.9958067948201
 20
110.9185780686445
 30
0.0
 10
158.5639832725095
 20
110.9239604397612
 30
0.0
 10
158.3486203173136
 20
110.9445130316939
 30
0.0
 10
157.9190382803924
 20
111.022889435547
 30
0.0
 10
157.7092111253525
 20
111.0800715638907
 30
0.0
 10
157.304674387066
 20
111.2284607353424
 30
0.0
 10
157.1090626460808
 20
111.3198031838471
 30
0.0
 10
156.7322098547316
 20
111.539669419967
 30
0.0
 10
156.5555405600244
 20
111.6657356363576
 30
0.0
 10
156.2306797945946
 20
111.9472974999355
 30
0.0
 10
156.0816460357494
 20
112.1032168742821
 30
0.0
 10
155.8138085447782
 20
112.4493832274043
 30
0.0
 10
155.7001485051061
 20
112.6330962648804
 30
0.0
 10
155.5145300981675
 20
113.0214695734563
 30
0.0
 10
155.4418794527591
 20
113.2291481545792
 30
0.0
 10
155.3473167713949
 20
113.6543258729332
 30
0.0
 10
155.3252269301783
 20
113.8692412435395
 30
0.0
 10
155.3319606455241
 20
114.3037776507155
 30
0.0
 10
155.3616979340325
 20
114.5230984852849
 30
0.0
 10
155.4691580278933
 20
114.9427487731142
 30
0.0
 10
155.5479983919082
 20
115.1483915096072
 30
0.0
 10
155.7477405213365
 20
115.5353005104163
 30
0.0
 10
155.8674650180728
 20
115.7157400007212
 30
0.0
 10
156.1440640437588
 20
116.0523654475206
 30
0.0
 10
156.3005305388407
 20
116.2073646828936
 30
0.0
 10
156.6388340038757
 20
116.4835857540089
 30
0.0
  0
LINE
  5
AB
330
1F
100
AcDbEntity
  8
0
  6
Continuous
 62
     7
370
    15
100
AcDbLine
 10
156.4696822707
 20
91.661825491
 30
0.0
 11
156.3936468832
 21
91.6551751681
 31
0.0
  0
SPLINE
  5
AC
330
1F
100
AcDbEntity
  8
0
  6
Continuous
 62
     7
370
    15
100
AcDbSpline
210
0.0
220
0.0
230
1.0
 70
     8
 71
     3
 72
    38
 73
    34
 74
     0
 42
0.00000001
 43
0.00000001
 40
0.0
 40
0.0
 40
0.0
 40
0.0
 40
0.0259614310263355
 40
0.049849794350635
 40
0.0717159278983511
 40
0.116143971877834
 40
0.1387420493699561
 40
0.1616129899743125
 40
0.2080115409768518
 40
0.2315675705719492
 40
0.2568130416558959
 40
0.3080187861351175
 40
0.3340126560192813
 40
0.3619757020340926
 40
0.4187397887275238
 40
0.4475897790563945
 40
0.4775006765338856
 40
0.5076107543296153
 40
0.5383473251817419
 40
0.5693004259647759
 40
0.5998189734667382
 40
0.6305550766916131
 40
0.6619946964656801
 40
0.6936862926850647
 40
0.723313783865399
 40
0.7837381014386281
 40
0.8146576117808155
 40
0.8416708402037467
 40
0.8968505224344177
 40
0.92514096341925
 40
0.948889627416866
 40
0.997328821327704
 40
1.0
 40
1.0
 40
1.0
 40
1.0
 10
155.338899137375
 20
91.54508917739338
 30
0.0
 10
155.336914345023
 20
91.54484734795247
 30
0.0
 10
155.3331032496146
 20
91.54438299959337
 30
0.0
 10
155.3731503048204
 20
91.54926711909683
 30
0.0
 10
155.4426642680803
 20
91.55763169068548
 30
0.0
 10
155.5495703207592
 20
91.57022440338794
 30
0.0
 10
155.6904740891933
 20
91.58607481444294
 30
0.0
 10
155.8563725753877
 20
91.60409679483959
 30
0.0
 10
156.0555231352616
 20
91.6244606090611
 30
0.0
 10
156.2866755302959
 20
91.64607501589015
 30
0.0
 10
156.5475684116119
 20
91.66882391324697
 30
0.0
 10
156.8411824623211
 20
91.6913608112814
 30
0.0
 10
157.1627227989769
 20
91.71201741144857
 30
0.0
 10
157.5142417396129
 20
91.73147720922837
 30
0.0
 10
157.892721124901
 20
91.74695120099501
 30
0.0
 10
158.2872765686779
 20
91.75682109650784
 30
0.0
 10
158.5944005974179
 20
91.76115222896452
 30
0.0
 10
158.9095767407836
 20
91.76203838774104
 30
0.0
 10
159.2278454027642
 20
91.75928532044749
 30
0.0
 10
159.5447515335197
 20
91.75288349161883
 30
0.0
 10
159.8566315816302
 20
91.74304841213498
 30
0.0
 10
160.162882719534
 20
91.73001249777926
 30
0.0
 10
160.4631486938228
 20
91.71397837960873
 30
0.0
 10
160.7475099174708
 20
91.69579906524847
 30
0.0
 10
161.1014074947044
 20
91.66976749204578
 30
0.0
 10
161.4212039771526
 20
91.64182407529142
 30
0.0
 10
161.6905986613452
 20
91.61536003384288
 30
0.0
 10
161.9188974645782
 20
91.59150266415384
 30
0.0
 10
162.0974251977114
 20
91.57133471610007
 30
0.0
 10
162.2193024463103
 20
91.55697340628483
 30
0.0
 10
162.2992804640249
 20
91.54735775433102
 30
0.0
 10
162.3345159473533
 20
91.54302222100907
 30
0.0
 10
162.3274713879237
 20
91.5438846142135
 30
0.0
 10
162.3271032184904
 20
91.54392968542346
 30
0.0
  0
CIRCLE
  5
AD
330
1F
100
AcDbEntity
  8
0
  6
Continuous
 62
     7
370
    15
100
AcDbCircle
 10
158.8282627884
 20
114.0437877558
 30
0.0
 40
2.499999999999986
  0
LINE
  5
AE
330
1F
100
AcDbEntity
  8
0
  6
Continuous
 62
     7
370
    15
100
AcDbLine
 10
141.7882627884
 20
134.1796543872
 30
0.0
 11
141.7882627884
 21
135.0939314233
 31
0.0
  0
SPLINE
  5
AF
330
1F
100
AcDbEntity
  8
0
  6
Continuous
 62
     7
370
    15
100
AcDbSpline
210
0.0
220
0.0
230
1.0
 70
     8
 71
     3
 72
     8
 73
     4
 74
     0
 42
0.00000001
 43
0.00000001
 40
0.0
 40
0.0
 40
0.0
 40
0.0
 40
1.0
 40
1.0
 40
1.0
 40
1.0
 10
141.7882627883559
 20
135.0939314233392
 30
0.0
 10
142.2675409389458
 20
136.2349426531918
 30
0.0
 10
142.7631087780857
 20
137.3713270639597
 30
0.0
 10
143.270195619845
 20
138.5024774181234
 30
0.0
  0
LINE
  5
B0
330
1F
100
AcDbEntity
  8
0
  6
Continuous
 62
     7
370
    15
100
AcDbLine
 10
143.2701956198
 20
138.5024774181
 30
0.0
 11
147.2282627884
 21
138.5024774181
 31
0.0
  0
SPLINE
  5
B1
330
1F
100
AcDbEntity
  8
0
  6
Continuous
 62
     7
370
    15
100
AcDbSpline
210
0.0
220
0.0
230
1.0
 70
     8
 71
     3
 72
    12
 73
     8
 74
     0
 42
0.00000001
 43
0.00000001
 40
0.0
 40
0.0
 40
0.0
 40
0.0
 40
0.250000000000002
 40
0.250000000000002
 40
0.500000000000004
 40
0.500000000000004
 40
1.0
 40
1.0
 40
1.0
 40
1.0
 10
147.2282627883559
 20
138.5024774181234
 30
0.0
 10
147.3194625101816
 20
138.5024774181234
 30
0.0
 10
147.4100575193176
 20
138.4742577195355
 30
0.0
 10
147.5634702457643
 20
138.3798147122874
 30
0.0
 10
147.6286791130879
 20
138.3135277355821
 30
0.0
 10
147.7814636424279
 20
138.0879029122937
 30
0.0
 10
147.8282627883559
 20
137.9054766492612
 30
0.0
 10
147.8282627883559
 20
137.7247400170143
 30
0.0
  0
LINE
  5
B2
330
1F
100
AcDbEntity
  8
0
  6
Continuous
 62
     7
370
    15
100
AcDbLine
 10
147.8282627884
 20
137.724740017
 30
0.0
 11
147.8282627884
 21
133.8937877558
 31
0.0
  0
SPLINE
  5
B3
330
1F
100
AcDbEntity
  8
0
  6
Continuous
 62
     7
370
    15
100
AcDbSpline
210
0.0
220
0.0
230
1.0
 70
     8
 71
     3
 72
     8
 73
     4
 74
     0
 42
0.00000001
 43
0.00000001
 40
0.0
 40
0.0
 40
0.0
 40
0.0
 40
1.0
 40
1.0
 40
1.0
 40
1.0
 10
143.270195619845
 20
144.5109832289202
 30
0.0
 10
142.7750555904807
 20
143.6243035807399
 30
0.0
 10
142.2809728852017
 20
142.7370409450539
 30
0.0
 10
141.7882627883559
 20
141.8490219469275
 30
0.0
  0
LINE
  5
B4
330
1F
100
AcDbEntity
  8
0
  6
Continuous
 62
     7
370
    15
100
AcDbLine
 10
143.2701956198
 20
138.5024774181
 30
0.0
 11
143.2701956198
 21
144.5109832289
 31
0.0
  0
LINE
  5
B5
330
1F
100
AcDbEntity
  8
0
  6
Continuous
 62
     7
370
    15
100
AcDbLine
 10
141.7882627884
 20
135.0939314233
 30
0.0
 11
141.7882627884
 21
141.8490219469
 31
0.0
  0
SPLINE
  5
B6
330
1F
100
AcDbEntity
  8
0
  6
Continuous
 62
     7
370
    15
100
AcDbSpline
210
0.0
220
0.0
230
1.0
 70
     8
 71
     3
 72
    10
 73
     6
 74
     0
 42
0.00000001
 43
0.00000001
 40
0.0
 40
0.0
 40
0.0
 40
0.0
 40
0.5
 40
0.5
 40
1.0
 40
1.0
 40
1.0
 40
1.0
 10
147.8282627883559
 20
143.8902280795199
 30
0.0
 10
147.8282627883559
 20
144.0506333458706
 30
0.0
 10
147.766024957249
 20
144.2096951588592
 30
0.0
 10
147.5468900335065
 20
144.4406076244896
 30
0.0
 10
147.3893013385146
 20
144.5109832289202
 30
0.0
 10
147.2282627883559
 20
144.5109832289202
 30
0.0
  0
LINE
  5
B7
330
1F
100
AcDbEntity
  8
0
  6
Continuous
 62
     7
370
    15
100
AcDbLine
 10
147.8282627884
 20
137.724740017
 30
0.0
 11
147.8282627884
 21
143.8902280795
 31
0.0
  0
SPLINE
  5
B8
330
1F
100
AcDbEntity
  8
0
  6
Continuous
 62
     7
370
    15
100
AcDbSpline
210
0.0
220
0.0
230
1.0
 70
     8
 71
     3
 72
     8
 73
     4
 74
     0
 42
0.00000001
 43
0.00000001
 40
0.0
 40
0.0
 40
0.0
 40
0.0
 40
1.0
 40
1.0
 40
1.0
 40
1.0
 10
136.4863299568669
 20
138.5024774181234
 30
0.0
 10
136.9934167986262
 20
137.3713270639597
 30
0.0
 10
137.4889846377661
 20
136.2349426531919
 30
0.0
 10
137.9682627883559
 20
135.0939314233393
 30
0.0
  0
LINE
  5
B9
330
1F
100
AcDbEntity
  8
0
  6
Continuous
 62
     7
370
    15
100
AcDbLine
 10
137.9682627884
 20
135.0939314233
 30
0.0
 11
137.9682627884
 21
134.1796543872
 31
0.0
  0
LINE
  5
BA
330
1F
100
AcDbEntity
  8
0
  6
Continuous
 62
     7
370
    15
100
AcDbLine
 10
147.2282627884
 20
144.5109832289
 30
0.0
 11
143.2701956198
 21
144.5109832289
 31
0.0
  0
SPLINE
  5
BB
330
1F
100
AcDbEntity
  8
0
  6
Continuous
 62
     7
370
    15
100
AcDbSpline
210
0.0
220
0.0
230
1.0
 70
     8
 71
     3
 72
     8
 73
     4
 74
     0
 42
0.00000001
 43
0.00000001
 40
0.0
 40
0.0
 40
0.0
 40
0.0
 40
1.0
 40
1.0
 40
1.0
 40
1.0
 10
137.9682627883559
 20
141.8490219469275
 30
0.0
 10
137.4755526915102
 20
142.7370409450539
 30
0.0
 10
136.9814699862312
 20
143.6243035807399
 30
0.0
 10
136.4863299568669
 20
144.5109832289202
 30
0.0
  0
LINE
  5
BC
330
1F
100
AcDbEntity
  8
0
  6
Continuous
 62
     7
370
    15
100
AcDbLine
 10
137.9682627884
 20
135.0939314233
 30
0.0
 11
137.9682627884
 21
141.8490219469
 31
0.0
  0
ARC
  5
BD
330
1F
100
AcDbEntity
  8
0
  6
Continuous
 62
     7
370
    15
100
AcDbCircle
 10
129.8787648224
 20
132.7426934317
 30
0.0
 40
7.255296553667861
100
AcDbArc
 50
70.8012926998
 51
109.3295635315
  0
LINE
  5
BE
330
1F
100
AcDbEntity
  8
0
  6
Continuous
 62
     7
370
    15
100
AcDbLine
 10
201.8782627884
 20
99.3179282774
 30
0.0
 11
201.8782627884
 21
128.7696472227
 31
0.0
  0
LINE
  5
BF
330
1F
100
AcDbEntity
  8
0
  6
Continuous
 62
     7
370
    15
100
AcDbLine
 10
181.9098785605
 20
116.8495919817
 30
0.0
 11
178.4641729367
 21
117.2061207381
 31
0.0
  0
LINE
  5
C0
330
1F
100
AcDbEntity
  8
0
  6
Continuous
 62
     7
370
    15
100
AcDbLine
 10
176.4325571646
 20
114.4003165122
 30
0.0
 11
178.4641729367
 21
117.2061207381
 31
0.0
  0
LINE
  5
C1
330
1F
100
AcDbEntity
  8
0
  6
Continuous
 62
     7
370
    15
100
AcDbLine
 10
177.8466470162
 20
111.2379835298
 30
0.0
 11
181.29235264
 21
110.8814547734
 31
0.0
  0
LINE
  5
C2
330
1F
100
AcDbEntity
  8
0
  6
Continuous
 62
     7
370
    15
100
AcDbLine
 10
183.3239684122
 20
113.6872589993
 30
0.0
 11
181.9098785605
 21
116.8495919817
 31
0.0
  0
CIRCLE
  5
C3
330
1F
100
AcDbEntity
  8
0
  6
Continuous
 62
     7
370
    15
100
AcDbCircle
 10
179.8782627884
 20
114.0437877558
 30
0.0
 40
5.100000000000003
  0
LINE
  5
C4
330
1F
100
AcDbEntity
  8
0
  6
Continuous
 62
     7
370
    15
100
AcDbLine
 10
177.8466470162
 20
111.2379835298
 30
0.0
 11
176.4325571646
 21
114.4003165122
 31
0.0
  0
LINE
  5
C5
330
1F
100
AcDbEntity
  8
0
  6
Continuous
 62
     7
370
    15
100
AcDbLine
 10
183.3239684122
 20
113.6872589993
 30
0.0
 11
181.29235264
 21
110.8814547734
 31
0.0
  0
ARC
  5
C6
330
1F
100
AcDbEntity
  8
0
  6
Continuous
 62
     7
370
    15
100
AcDbCircle
 10
179.8782627884
 20
114.0437877558
 30
0.0
 40
6.000000000000029
100
AcDbArc
 50
310.1569603869
 51
221.4835821295
  0
ARC
  5
C7
330
1F
100
AcDbEntity
  8
0
  6
Continuous
 62
     7
370
    15
100
AcDbCircle
 10
183.7266336716
 20
105.4228555724
 30
0.0
 40
18.23105311537908
100
AcDbArc
 50
357.7128760747
 51
5.3501433671
  0
LWPOLYLINE
  5
C8
330
1F
100
AcDbEntity
  8
0
  6
Continuous
 62
     7
370
    15
100
AcDbPolyline
 90
        8
 70
   128
 43
0.0
 10
201.8782627884
 20
122.0262990332
 10
201.8795928909
 20
122.0696200223
 10
201.8902809238
 20
122.4913878643
 10
201.8959679074
 20
122.8751555346
 10
201.8959679074
 20
123.1746349885
 10
201.8902809238
 20
123.353704584
 10
201.8795928909
 20
123.3907658849
 10
201.8782627884
 20
123.3862109789
  0
LINE
  5
C9
330
1F
100
AcDbEntity
  8
0
  6
HIDDEN
 62
     7
370
     0
100
AcDbLine
 10
136.4863299569
 20
138.5024774181
 30
0.0
 11
136.4863299569
 21
133.8937877558
 31
0.0
  0
ARC
  5
CA
330
1F
100
AcDbEntity
  8
0
  6
HIDDEN
 62
     7
370
     0
100
AcDbCircle
 10
130.1624723778
 20
126.5368262701
 30
0.0
 40
3.674132863276873
100
AcDbArc
 50
265.5634991556
 51
12.6766274787
  0
ARC
  5
CB
330
1F
100
AcDbEntity
  8
0
  6
HIDDEN
 62
     7
370
     0
100
AcDbCircle
 10
129.5942637326
 20
126.5373471889
 30
0.0
 40
3.674635944095146
100
AcDbArc
 50
167.4300251538
 51
274.4325996972
  0
LINE
  5
CC
330
1F
100
AcDbEntity
  8
0
  6
HIDDEN
 62
     7
370
     0
100
AcDbLine
 10
92.9095435974
 20
134.9053632198
 30
0.0
 11
91.2691511898
 21
134.9130641143
 31
0.0
  0
LINE
  5
CD
330
1F
100
AcDbEntity
  8
0
  6
HIDDEN
 62
     7
370
     0
100
AcDbLine
 10
109.8734129929
 20
90.5191881329
 30
0.0
 11
109.6245481742
 21
90.4959251664
 31
0.0
  0
LINE
  5
CE
330
1F
100
AcDbEntity
  8
0
  6
HIDDEN
 62
     7
370
     0
100
AcDbLine
 10
109.491987413
 20
137.603874084
 30
0.0
 11
109.8733202726
 21
137.5683707857
 31
0.0
  0
SPLINE
  5
CF
330
1F
100
AcDbEntity
  8
0
  6
HIDDEN
 62
     7
370
     0
100
AcDbSpline
210
0.0
220
0.0
230
1.0
 70
     8
 71
     3
 72
    47
 73
    43
 74
     0
 42
0.00000001
 43
0.00000001
 40
-0.0754949989713192
 40
-0.062461212156303
 40
-0.0297328214073523
 40
0.0
 40
0.0297242095427576
 40
0.0624299019453922
 40
0.0902097647784725
 40
0.1249852930172214
 40
0.1466391321270611
 40
0.1670192907602391
 40
0.1861310717627509
 40
0.2039809867672291
 40
0.2205771118258814
 40
0.235929581578132
 40
0.2500512891535284
 40
0.2849026059674588
 40
0.3264789802138945
 40
0.3748710591760528
 40
0.3932245645783657
 40
0.4097806282265256
 40
0.42454046033457
 40
0.4375060314395677
 40
0.4702107541789963
 40
0.499989266731454
 40
0.5297467782434018
 40
0.5624402498405201
 40
0.5901193917538062
 40
0.6249672064517526
 40
0.6466372316118307
 40
0.6670357476813248
 40
0.686168053399068
 40
0.7040406516321648
 40
0.7206616024892996
 40
0.7360410134932837
 40
0.7501917330339881
 40
0.7849807220982448
 40
0.8265111602619758
 40
0.8748738597239413
 40
0.8931741800627327
 40
0.9097174713201104
 40
0.9245050010286808
 40
0.937538787843697
 40
0.9702671785926477
 40
1.0
 40
1.029724209542758
 40
1.062429901945392
 40
1.090209764778473
 10
178.8828984297936
 20
108.9823337847341
 30
0.0
 10
179.8781451022435
 20
108.8885392971648
 30
0.0
 10
180.873299892566
 20
108.9823171436543
 30
0.0
 10
181.8084890212544
 20
109.2627818895184
 30
0.0
 10
182.7154101585662
 20
109.7362365239061
 30
0.0
 10
183.420701469532
 20
110.3028819014162
 30
0.0
 10
183.9603084982004
 20
110.9206901096916
 30
0.0
 10
184.3229688645409
 20
111.4660722588169
 30
0.0
 10
184.5977972372664
 20
112.0165431527849
 30
0.0
 10
184.793660521221
 20
112.5580265802399
 30
0.0
 10
184.9204936748553
 20
113.0791583530362
 30
0.0
 10
184.9888630148282
 20
113.5714177684003
 30
0.0
 10
185.0201969195151
 20
114.264999120533
 30
0.0
 10
184.9122756577624
 20
115.2439394897074
 30
0.0
 10
184.4466594823646
 20
116.5151030225007
 30
0.0
 10
183.7499081201228
 20
117.4619026848766
 30
0.0
 10
183.0869953563434
 20
118.0529559795276
 30
0.0
 10
182.6548675497717
 20
118.3612356052433
 30
0.0
 10
182.2441472392351
 20
118.5972690746409
 30
0.0
 10
181.6571702733868
 20
118.8700168367213
 30
0.0
 10
180.8746894884783
 20
119.1050560315217
 30
0.0
 10
179.8788477303657
 20
119.1991170752075
 30
0.0
 10
178.8829578297255
 20
119.1052293276553
 30
0.0
 10
177.9486196318636
 20
118.8249042748315
 30
0.0
 10
177.0420338740326
 20
118.3519141637488
 30
0.0
 10
176.3366146097587
 20
117.7855653414873
 30
0.0
 10
175.7962042987672
 20
117.1669095580208
 30
0.0
 10
175.4332363304455
 20
116.6210032966208
 30
0.0
 10
175.1582042427236
 20
116.0698809120487
 30
0.0
 10
174.9622591569707
 20
115.5276394741682
 30
0.0
 10
174.8354773588689
 20
115.0056642862826
 30
0.0
 10
174.7672972708955
 20
114.5124964729348
 30
0.0
 10
174.7365240737149
 20
113.8189563809957
 30
0.0
 10
174.8450312656092
 20
112.840976832478
 30
0.0
 10
175.3105667814434
 20
111.5714277681548
 30
0.0
 10
176.0065633337493
 20
110.62587111164
 30
0.0
 10
176.6686056693453
 20
110.0354093622215
 30
0.0
 10
177.1002900615998
 20
109.7272108786406
 30
0.0
 10
177.5117167995433
 20
109.4906001308206
 30
0.0
 10
178.0998693061251
 20
109.2172980986054
 30
0.0
 10
178.8828984297936
 20
108.9823337847341
 30
0.0
 10
179.8781451022435
 20
108.8885392971648
 30
0.0
 10
180.873299892566
 20
108.9823171436543
 30
0.0
  0
SPLINE
  5
D0
330
1F
100
AcDbEntity
  8
0
  6
HIDDEN
 62
     7
370
     0
100
AcDbSpline
210
0.0
220
0.0
230
1.0
 70
     8
 71
     3
 72
    90
 73
    86
 74
     0
 42
0.00000001
 43
0.00000001
 40
-0.03125
 40
-0.03125
 40
0.0
 40
0.0
 40
0.0312500000000007
 40
0.0312500000000007
 40
0.0468750000000011
 40
0.0468750000000011
 40
0.0625000000000015
 40
0.0625000000000015
 40
0.0937500000000023
 40
0.0937500000000023
 40
0.125000000000003
 40
0.125000000000003
 40
0.1562500000000038
 40
0.1562500000000038
 40
0.171875000000004
 40
0.171875000000004
 40
0.1875000000000042
 40
0.1875000000000042
 40
0.2187500000000047
 40
0.2187500000000047
 40
0.2500000000000051
 40
0.2500000000000051
 40
0.2656250000000053
 40
0.2656250000000053
 40
0.2812500000000056
 40
0.2812500000000056
 40
0.3125000000000061
 40
0.3125000000000061
 40
0.3281250000000062
 40
0.3281250000000062
 40
0.3437500000000064
 40
0.3437500000000064
 40
0.3593750000000067
 40
0.3593750000000067
 40
0.3750000000000068
 40
0.3750000000000068
 40
0.4062500000000069
 40
0.4062500000000069
 40
0.4375000000000069
 40
0.4375000000000069
 40
0.4687500000000069
 40
0.4687500000000069
 40
0.4843750000000069
 40
0.4843750000000069
 40
0.500000000000007
 40
0.500000000000007
 40
0.5312500000000064
 40
0.5312500000000064
 40
0.5625000000000058
 40
0.5625000000000058
 40
0.5781250000000056
 40
0.5781250000000056
 40
0.5937500000000052
 40
0.5937500000000052
 40
0.6250000000000048
 40
0.6250000000000048
 40
0.6562500000000042
 40
0.6562500000000042
 40
0.6875000000000038
 40
0.6875000000000038
 40
0.7031250000000034
 40
0.7031250000000034
 40
0.7187500000000032
 40
0.7187500000000032
 40
0.7500000000000024
 40
0.7500000000000024
 40
0.7812500000000018
 40
0.7812500000000018
 40
0.8125000000000011
 40
0.8125000000000011
 40
0.8437500000000004
 40
0.8437500000000004
 40
0.859375
 40
0.859375
 40
0.875
 40
0.875
 40
0.8906250000000001
 40
0.8906250000000001
 40
0.9062500000000001
 40
0.9062500000000001
 40
0.9375000000000001
 40
0.9375000000000001
 40
0.96875
 40
0.96875
 40
1.0
 40
1.0
 40
1.031250000000001
 40
1.031250000000001
 10
180.2575842552257
 20
108.4381941072467
 30
0.0
 10
179.4989413214862
 20
108.4381941072467
 30
0.0
 10
179.1257032671663
 20
108.4729044168034
 30
0.0
 10
178.5746116894862
 20
108.5751617165648
 30
0.0
 10
178.3923858102834
 20
108.6176756713793
 30
0.0
 10
178.0309406172425
 20
108.7200001590851
 30
0.0
 10
177.8508883099658
 20
108.7801938413928
 30
0.0
 10
177.3256922135335
 20
108.9838612550552
 30
0.0
 10
176.9929961988176
 20
109.1505147633447
 30
0.0
 10
176.3621534607037
 20
109.5459238985338
 30
0.0
 10
176.0614822706808
 20
109.7776723409747
 30
0.0
 10
175.5198045786191
 20
110.2884304713024
 30
0.0
 10
175.2762483535554
 20
110.5681643239019
 30
0.0
 10
174.9527417750772
 20
111.0257463665213
 30
0.0
 10
174.8514113058352
 20
111.1856590159867
 30
0.0
 10
174.6670888033086
 20
111.5125151546122
 30
0.0
 10
174.5838317443367
 20
111.6796010854186
 30
0.0
 10
174.360255563598
 20
112.1916906270261
 30
0.0
 10
174.2458453867983
 20
112.5474108999337
 30
0.0
 10
174.090129024089
 20
113.2893734938181
 30
0.0
 10
174.0516275348434
 20
113.6626931361692
 30
0.0
 10
174.0509359292462
 20
114.2242128223174
 30
0.0
 10
174.0602701629986
 20
114.4117493963736
 30
0.0
 10
174.0985972519954
 20
114.7875687361573
 30
0.0
 10
174.1277054787618
 20
114.9755373003446
 30
0.0
 10
174.2424248425294
 20
115.5271539868151
 30
0.0
 10
174.3555009536654
 20
115.8831603042243
 30
0.0
 10
174.5798669261464
 20
116.3997721515656
 30
0.0
 10
174.6642939510107
 20
116.5696612928967
 30
0.0
 10
174.8480270870582
 20
116.8963436746636
 30
0.0
 10
174.9476194397221
 20
117.0539801747133
 30
0.0
 10
175.1618755309677
 20
117.3582089680258
 30
0.0
 10
175.2765403085526
 20
117.504800354566
 30
0.0
 10
175.521019074808
 20
117.7869731904631
 30
0.0
 10
175.6515829567995
 20
117.9232280142865
 30
0.0
 10
176.0605552169579
 20
118.3093705653363
 30
0.0
 10
176.355016628532
 20
118.5365447242855
 30
0.0
 10
176.9861353241859
 20
118.93338005183
 30
0.0
 10
177.3261255901912
 20
119.1038017736507
 30
0.0
 10
178.0232879010537
 20
119.3743173249267
 30
0.0
 10
178.382504015903
 20
119.4763889852713
 30
0.0
 10
178.93737980937
 20
119.5799116461959
 30
0.0
 10
179.1258766150565
 20
119.6061116723328
 30
0.0
 10
179.5010663568682
 20
119.6407049932861
 30
0.0
 10
179.6884099448773
 20
119.6492970493371
 30
0.0
 10
180.2497031937183
 20
119.6495482552212
 30
0.0
 10
180.6229222638532
 20
119.6159379284494
 30
0.0
 10
181.3673293280488
 20
119.478206606207
 30
0.0
 10
181.7282621719601
 20
119.3758108276616
 30
0.0
 10
182.2495417486394
 20
119.174191978013
 30
0.0
 10
182.4201442644778
 20
119.0988820908956
 30
0.0
 10
182.7548997838469
 20
118.9315935019441
 30
0.0
 10
182.9199260042479
 20
118.8390252320403
 30
0.0
 10
183.3965420368704
 20
118.5403052624091
 30
0.0
 10
183.6905932934656
 20
118.3135150931694
 30
0.0
 10
184.2318444767087
 20
117.8043172986165
 30
0.0
 10
184.4812433787607
 20
117.5181496918703
 30
0.0
 10
184.9116957307661
 20
116.9090883973561
 30
0.0
 10
185.0947188658979
 20
116.5855933577772
 30
0.0
 10
185.3200436992678
 20
116.0709555034024
 30
0.0
 10
185.3872091928687
 20
115.8933384407438
 30
0.0
 10
185.5019926665709
 20
115.5346487301504
 30
0.0
 10
185.5497996406552
 20
115.3535192489265
 30
0.0
 10
185.6650996418753
 20
114.8048739997547
 30
0.0
 10
185.7047800878721
 20
114.4316993108912
 30
0.0
 10
185.7059337948514
 20
113.6725286422627
 30
0.0
 10
185.6674780009169
 20
113.2996048273773
 30
0.0
 10
185.515708698958
 20
112.5664916234558
 30
0.0
 10
185.40028709551
 20
112.2025877076866
 30
0.0
 10
185.1020043773295
 20
111.5160384100966
 30
0.0
 10
184.9195618843692
 20
111.1911327414425
 30
0.0
 10
184.5959135418894
 20
110.7309565512939
 30
0.0
 10
184.479405237968
 20
110.5820507433798
 30
0.0
 10
184.2346724090271
 20
110.2996948986143
 30
0.0
 10
184.1058821876156
 20
110.1653718540025
 30
0.0
 10
183.8357282760741
 20
109.9100262412315
 30
0.0
 10
183.6943639737183
 20
109.7890045177278
 30
0.0
 10
183.398966851977
 20
109.5602454446892
 30
0.0
 10
183.2440645242713
 20
109.4520002173234
 30
0.0
 10
182.7675516644103
 20
109.1524759060867
 30
0.0
 10
182.4343592257697
 20
108.9856197936463
 30
0.0
 10
181.7378280686092
 20
108.7147333699159
 30
0.0
 10
181.371212288394
 20
108.6105074669887
 30
0.0
 10
180.6321171618754
 20
108.472926074454
 30
0.0
 10
180.2575842552257
 20
108.4381941072467
 30
0.0
 10
179.4989413214862
 20
108.4381941072467
 30
0.0
  0
SPLINE
  5
D1
330
1F
100
AcDbEntity
  8
0
  6
HIDDEN
 62
     7
370
     0
100
AcDbSpline
210
0.0
220
0.0
230
1.0
 70
     8
 71
     3
 72
    22
 73
    18
 74
     0
 42
0.00000001
 43
0.00000001
 40
0.0
 40
0.0
 40
0.0
 40
0.0
 40
0.069470503305567
 40
0.1409377255045835
 40
0.210413548914841
 40
0.2819466223559928
 40
0.3506518733998513
 40
0.4213897814436845
 40
0.4894670043894698
 40
0.5594810940348494
 40
0.6282706827033766
 40
0.6989997382187428
 40
0.7687375408512302
 40
0.8405098102584779
 40
0.9099666189318144
 40
0.9814998892127903
 40
1.0
 40
1.0
 40
1.0
 40
1.0
 10
115.6332647899575
 20
94.20625927993946
 30
0.0
 10
115.4850909354982
 20
94.22598561974878
 30
0.0
 10
115.184484418587
 20
94.26600527316955
 30
0.0
 10
114.6495895559063
 20
94.32137893669942
 30
0.0
 10
114.0639510032375
 20
94.36583532182722
 30
0.0
 10
113.4497183436642
 20
94.39352029727941
 30
0.0
 10
112.8158016982959
 20
94.40177355074925
 30
0.0
 10
112.1936529977241
 20
94.38979349586877
 30
0.0
 10
111.5876555278635
 20
94.35904274210782
 30
0.0
 10
111.023166606737
 20
94.31357677135762
 30
0.0
 10
110.5037903691553
 20
94.25749561955803
 30
0.0
 10
110.0509248714739
 20
94.19750545723963
 30
0.0
 10
109.6722097278082
 20
94.13952554288072
 30
0.0
 10
109.3841246067331
 20
94.09060673473421
 30
0.0
 10
109.2016667101805
 20
94.05757137220846
 30
0.0
 10
109.1210087588464
 20
94.0424315759528
 30
0.0
 10
109.1352986375453
 20
94.04510352932581
 30
0.0
 10
109.1382349300173
 20
94.04565256383759
 30
0.0
  0
SPLINE
  5
D2
330
1F
100
AcDbEntity
  8
0
  6
HIDDEN
 62
     7
370
     0
100
AcDbSpline
210
0.0
220
0.0
230
1.0
 70
     8
 71
     3
 72
    22
 73
    18
 74
     0
 42
0.00000001
 43
0.00000001
 40
0.0
 40
0.0
 40
0.0
 40
0.0
 40
0.0499040281125884
 40
0.1203075863893544
 40
0.1885125365560131
 40
0.258644416829719
 40
0.3277839407293157
 40
0.3988873214655099
 40
0.4686969488930336
 40
0.5405663748364754
 40
0.609708789122301
 40
0.6809159691092499
 40
0.7490773369981711
 40
0.8192056085539694
 40
0.8876078379088254
 40
0.9579332867310426
 40
1.0
 40
1.0
 40
1.0
 40
1.0
 10
109.1382349300173
 20
134.0419229476743
 30
0.0
 10
109.1394858640428
 20
134.0416839172785
 30
0.0
 10
109.1425015896071
 20
134.0411076678038
 30
0.0
 10
109.2673949166606
 20
134.0179096329803
 30
0.0
 10
109.4918767445382
 20
133.9782295966627
 30
0.0
 10
109.8109049067157
 20
133.9260181752635
 30
0.0
 10
110.2184401377124
 20
133.8666883635913
 30
0.0
 10
110.7002266915453
 20
133.8072135870753
 30
0.0
 10
111.2506463733406
 20
133.7536072307133
 30
0.0
 10
111.8435412592888
 20
133.7131333122389
 30
0.0
 10
112.470493829606
 20
133.6899340638726
 30
0.0
 10
113.098704803434
 20
133.6869559606577
 30
0.0
 10
113.7229648959111
 20
133.704090286357
 30
0.0
 10
114.3155831857394
 20
133.7387761420471
 30
0.0
 10
114.8724092692675
 20
133.7877325057109
 30
0.0
 10
115.3102161139004
 20
133.837632670334
 30
0.0
 10
115.5452828206733
 20
133.8694190593258
 30
0.0
 10
115.6332647899575
 20
133.8813162315724
 30
0.0
  0
SPLINE
  5
D3
330
1F
100
AcDbEntity
  8
0
  6
HIDDEN
 62
     7
370
     0
100
AcDbSpline
210
0.0
220
0.0
230
1.0
 70
     8
 71
     3
 72
    12
 73
     8
 74
     0
 42
0.00000001
 43
0.00000001
 40
0.0
 40
0.0
 40
0.0
 40
0.0
 40
0.2208188216103116
 40
0.4480900742980286
 40
0.6689432733876343
 40
0.8961371317007352
 40
1.0
 40
1.0
 40
1.0
 40
1.0
 10
115.6332647899575
 20
133.8813162315724
 30
0.0
 10
115.7653080054501
 20
133.8983733194243
 30
0.0
 10
116.0332528020446
 20
133.9329859113544
 30
0.0
 10
116.3284087808799
 20
133.9599578485794
 30
0.0
 10
116.5295015027768
 20
133.9754676069896
 30
0.0
 10
116.6268334051509
 20
133.9815768605163
 30
0.0
 10
116.6181747357505
 20
133.9810316032745
 30
0.0
 10
116.6154582398533
 20
133.9808605389929
 30
0.0
  0
SPLINE
  5
D4
330
1F
100
AcDbEntity
  8
0
  6
HIDDEN
 62
     7
370
     0
100
AcDbSpline
210
0.0
220
0.0
230
1.0
 70
     8
 71
     3
 72
    12
 73
     8
 74
     0
 42
0.00000001
 43
0.00000001
 40
0.0
 40
0.0
 40
0.0
 40
0.0
 40
0.1180999897765186
 40
0.3464923168730383
 40
0.5687549525518864
 40
0.7975156872931217
 40
1.0
 40
1.0
 40
1.0
 40
1.0
 10
116.6154581461896
 20
94.10671497848837
 30
0.0
 10
116.6175808020596
 20
94.10658095516864
 30
0.0
 10
116.6238084397732
 20
94.10618774556163
 30
0.0
 10
116.5191437757723
 20
94.11281099518462
 30
0.0
 10
116.3091701587448
 20
94.12921537449947
 30
0.0
 10
116.0137116865495
 20
94.15681708623245
 30
0.0
 10
115.754822245271
 20
94.19046189190455
 30
0.0
 10
115.6332647899575
 20
94.20625927993946
 30
0.0
  0
LINE
  5
D5
330
1F
100
AcDbEntity
  8
0
  6
HIDDEN
 62
     7
370
     0
100
AcDbLine
 10
102.8822373846
 20
97.0437877558
 30
0.0
 11
102.8822373846
 21
131.0437877558
 31
0.0
  0
LWPOLYLINE
  5
D6
330
1F
100
AcDbEntity
  8
0
  6
HIDDEN
 62
     7
370
     0
100
AcDbPolyline
 90
       15
 70
   128
 43
0.0
 10
129.8782627884
 20
135.9893901704
 10
130.6352677658
 20
136.0255327759
 10
131.364912611
 20
136.1326543044
 10
132.0408260582
 20
136.3068831047
 10
132.6385788343
 20
136.5419220942
 10
133.1365665966
 20
136.8292763513
 10
133.5167907698
 20
137.1585601444
 10
133.7655090617
 20
137.5178722994
 10
133.8737321451
 20
137.8942263387
 10
133.8375485559
 20
138.2740198469
 10
133.6582660632
 20
138.643526097
 10
133.3423644035
 20
138.9893901704
 10
132.9012610858
 20
139.2991116383
 10
132.3508987332
 20
139.5614963599
 10
132.2646352826
 20
139.5944778875
  0
LWPOLYLINE
  5
D7
330
1F
100
AcDbEntity
  8
0
  6
HIDDEN
 62
     7
370
     0
100
AcDbPolyline
 90
       15
 70
   128
 43
0.0
 10
127.4772519989
 20
139.5890109996
 10
127.4056268435
 20
139.5614963599
 10
126.8552644909
 20
139.2991116383
 10
126.4141611732
 20
138.9893901704
 10
126.0982595135
 20
138.643526097
 10
125.9189770208
 20
138.2740198469
 10
125.8827934316
 20
137.8942263387
 10
125.9910165151
 20
137.5178722994
 10
126.2397348069
 20
137.1585601444
 10
126.6199589802
 20
136.8292763513
 10
127.1179467424
 20
136.5419220942
 10
127.7156995185
 20
136.3068831047
 10
128.3916129657
 20
136.1326543044
 10
129.1212578109
 20
136.0255327759
 10
129.8782627884
 20
135.9893901704
  0
SPLINE
  5
D8
330
1F
100
AcDbEntity
  8
0
  6
HIDDEN
 62
     7
370
     0
100
AcDbSpline
210
0.0
220
0.0
230
1.0
 70
     8
 71
     3
 72
    11
 73
     7
 74
     0
 42
0.00000001
 43
0.00000001
 40
0.0
 40
0.0
 40
0.0
 40
0.0
 40
0.0005779865010845
 40
0.0005779865010845
 40
0.0005779865010845
 40
0.0011559733324421
 40
0.0011559733324421
 40
0.0011559733324421
 40
0.0011559733324421
 10
89.97826278835593
 20
116.0436283639097
 30
0.0
 10
90.1449300431619
 20
116.0416447245687
 30
0.0
 10
90.31159647283957
 20
116.0396071175662
 30
0.0
 10
90.47826281129139
 20
116.0374956541598
 30
0.0
 10
90.64492924011779
 20
116.0353841896084
 30
0.0
 10
90.81159561375549
 20
116.0331986264521
 30
0.0
 10
90.97826278835592
 20
116.0309160491204
 30
0.0
  0
SPLINE
  5
D9
330
1F
100
AcDbEntity
  8
0
  6
HIDDEN
 62
     7
370
     0
100
AcDbSpline
210
0.0
220
0.0
230
1.0
 70
     8
 71
     3
 72
     8
 73
     4
 74
     0
 42
0.00000001
 43
0.00000001
 40
0.0
 40
0.0
 40
0.0
 40
0.0
 40
0.0011564765856722
 40
0.0011564765856722
 40
0.0011564765856722
 40
0.0011564765856722
 10
90.9782627883559
 20
112.0470874535397
 30
0.0
 10
90.64495485778708
 20
112.0462122979564
 30
0.0
 10
90.31161962539488
 20
112.0451574467049
 30
0.0
 10
89.97826278835592
 20
112.0439863596673
 30
0.0
  0
LINE
  5
DA
330
1F
100
AcDbEntity
  8
0
  6
HIDDEN
 62
     7
370
     0
100
AcDbLine
 10
129.5380887569
 20
97.0437877558
 30
0.0
 11
129.5380887569
 21
131.0437877558
 31
0.0
  0
LINE
  5
DB
330
1F
100
AcDbEntity
  8
0
  6
HIDDEN
 62
     7
370
     0
100
AcDbLine
 10
131.8282627884
 20
98.3187877558
 30
0.0
 11
131.8282627884
 21
129.7687877543
 31
0.0
  0
SPLINE
  5
DC
330
1F
100
AcDbEntity
  8
0
  6
HIDDEN
 62
     7
370
     0
100
AcDbSpline
210
0.0
220
0.0
230
1.0
 70
     8
 71
     3
 72
    16
 73
    12
 74
     0
 42
0.00000001
 43
0.00000001
 40
0.0
 40
0.0
 40
0.0
 40
0.0
 40
0.124999999999998
 40
0.124999999999998
 40
0.249999999999996
 40
0.249999999999996
 40
0.4999999999999973
 40
0.4999999999999973
 40
0.7499999999999987
 40
0.7499999999999987
 40
1.0
 40
1.0
 40
1.0
 40
1.0
 10
98.67826278835592
 20
98.24229731972427
 30
0.0
 10
98.77338454302176
 20
98.24229731972427
 30
0.0
 10
98.86671461174983
 20
98.23848148633147
 30
0.0
 10
99.04997637248783
 20
98.22371093360167
 30
0.0
 10
99.14085408804483
 20
98.21255288562608
 30
0.0
 10
99.39765578556457
 20
98.17008161548435
 30
0.0
 10
99.55272315043656
 20
98.12903541828155
 30
0.0
 10
99.80646961199119
 20
98.03388930169966
 30
0.0
 10
99.90734006365905
 20
97.9791265676181
 30
0.0
 10
100.0425864783539
 20
97.86786544371421
 30
0.0
 10
100.0782627883559
 20
97.81069570638552
 30
0.0
 10
100.0782627883559
 20
97.75627413335181
 30
0.0
  0
SPLINE
  5
DD
330
1F
100
AcDbEntity
  8
0
  6
HIDDEN
 62
     7
370
     0
100
AcDbSpline
210
0.0
220
0.0
230
1.0
 70
     8
 71
     3
 72
     8
 73
     4
 74
     0
 42
0.00000001
 43
0.00000001
 40
0.0
 40
0.0
 40
0.0
 40
0.0
 40
1.0
 40
1.0
 40
1.0
 40
1.0
 10
91.27826279167111
 20
100.3871002658065
 30
0.0
 10
91.27826279167304
 20
99.50320312348958
 30
0.0
 10
91.26478216576325
 20
98.78861987842762
 30
0.0
 10
91.26343079757395
 20
98.24229731972427
 30
0.0
  0
SPLINE
  5
DE
330
1F
100
AcDbEntity
  8
0
  6
HIDDEN
 62
     7
370
     0
100
AcDbSpline
210
0.0
220
0.0
230
1.0
 70
     8
 71
     3
 72
    10
 73
     6
 74
     0
 42
0.00000001
 43
0.00000001
 40
0.0
 40
0.0
 40
0.0
 40
0.0
 40
0.5
 40
0.5
 40
1.0
 40
1.0
 40
1.0
 40
1.0
 10
90.9782627883559
 20
101.4120105315097
 30
0.0
 10
91.06965390404882
 20
101.2373717438923
 30
0.0
 10
91.14230573778188
 20
101.0637699166367
 30
0.0
 10
91.24980463079004
 20
100.72015649763
 30
0.0
 10
91.2782627916655
 20
100.5518306710985
 30
0.0
 10
91.27826279167111
 20
100.387100265866
 30
0.0
  0
LINE
  5
DF
330
1F
100
AcDbEntity
  8
0
  6
HIDDEN
 62
     7
370
     0
100
AcDbLine
 10
90.9782627884
 20
104.4429609634
 30
0.0
 11
90.9782627884
 21
101.4120105315
 31
0.0
  0
SPLINE
  5
E0
330
1F
100
AcDbEntity
  8
0
  6
HIDDEN
 62
     7
370
     0
100
AcDbSpline
210
0.0
220
0.0
230
1.0
 70
     8
 71
     3
 72
    10
 73
     6
 74
     0
 42
0.00000001
 43
0.00000001
 40
0.0
 40
0.0
 40
0.0
 40
0.0
 40
0.5
 40
0.5
 40
1.0
 40
1.0
 40
1.0
 40
1.0
 10
91.27826279154364
 20
105.8108013801131
 30
0.0
 10
91.27826279154361
 20
105.5688174125063
 30
0.0
 10
91.25011276247304
 20
105.3344749835413
 30
0.0
 10
91.14652284833063
 20
104.8790999612636
 30
0.0
 10
91.06989413873913
 20
104.6574953981562
 30
0.0
 10
90.97826278835592
 20
104.4429609633583
 30
0.0
  0
LINE
  5
E1
330
1F
100
AcDbEntity
  8
0
  6
HIDDEN
 62
     7
370
     0
100
AcDbLine
 10
91.2782627915
 20
117.6484213773
 30
0.0
 11
91.2782627915
 21
105.8108013801
 31
0.0
  0
SPLINE
  5
E2
330
1F
100
AcDbEntity
  8
0
  6
HIDDEN
 62
     7
370
     0
100
AcDbSpline
210
0.0
220
0.0
230
1.0
 70
     8
 71
     3
 72
     8
 73
     4
 74
     0
 42
0.00000001
 43
0.00000001
 40
0.0
 40
0.0
 40
0.0
 40
0.0
 40
1.0
 40
1.0
 40
1.0
 40
1.0
 10
90.9782627883559
 20
123.6507270768243
 30
0.0
 10
91.15929425491483
 20
123.2186195911616
 30
0.0
 10
91.27826279154935
 20
122.7644741850619
 30
0.0
 10
91.27826279154365
 20
122.2767741313678
 30
0.0
  0
LINE
  5
E3
330
1F
100
AcDbEntity
  8
0
  6
HIDDEN
 62
     7
370
     0
100
AcDbLine
 10
90.9782627884
 20
126.6839300628
 30
0.0
 11
90.9782627884
 21
123.6507270768
 31
0.0
  0
SPLINE
  5
E4
330
1F
100
AcDbEntity
  8
0
  6
HIDDEN
 62
     7
370
     0
100
AcDbSpline
210
0.0
220
0.0
230
1.0
 70
     8
 71
     3
 72
    10
 73
     6
 74
     0
 42
0.00000001
 43
0.00000001
 40
0.0
 40
0.0
 40
0.0
 40
0.0
 40
0.5
 40
0.5
 40
1.0
 40
1.0
 40
1.0
 40
1.0
 10
91.27826279174914
 20
127.7004752456757
 30
0.0
 10
91.27826279174735
 20
127.5358388990697
 30
0.0
 10
91.25110412099184
 20
127.3686836752392
 30
0.0
 10
91.14533912567342
 20
127.0300606674377
 30
0.0
 10
91.06892433737629
 20
126.8577888901466
 30
0.0
 10
90.97826278835593
 20
126.6839300628026
 30
0.0
  0
SPLINE
  5
E5
330
1F
100
AcDbEntity
  8
0
  6
HIDDEN
 62
     7
370
     0
100
AcDbSpline
210
0.0
220
0.0
230
1.0
 70
     8
 71
     3
 72
    18
 73
    14
 74
     0
 42
0.00000001
 43
0.00000001
 40
0.0
 40
0.0
 40
0.0
 40
0.0
 40
0.2500000000000033
 40
0.2500000000000033
 40
0.3750000000000029
 40
0.3750000000000029
 40
0.5000000000000026
 40
0.5000000000000026
 40
0.6250000000000022
 40
0.6250000000000022
 40
0.7500000000000018
 40
0.7500000000000018
 40
1.0
 40
1.0
 40
1.0
 40
1.0
 10
96.07826278835593
 20
130.3313013781601
 30
0.0
 10
96.07826278835591
 20
130.2768268576079
 30
0.0
 10
96.04335209696374
 20
130.2204457982554
 30
0.0
 10
95.9413427956307
 20
130.1363689574019
 30
0.0
 10
95.89970644095258
 20
130.109035253411
 30
0.0
 10
95.80130064546384
 20
130.056081337812
 30
0.0
 10
95.74375743375957
 20
130.0301939840948
 30
0.0
 10
95.61645926018662
 20
129.9824164392616
 30
0.0
 10
95.54687195542914
 20
129.9604685210837
 30
0.0
 10
95.39543771027418
 20
129.9210359561709
 30
0.0
 10
95.31275380718024
 20
129.9034797069451
 30
0.0
 10
95.0566423451422
 20
129.8610409415245
 30
0.0
 10
94.8687273412542
 20
129.8452781917876
 30
0.0
 10
94.67826278835592
 20
129.8452781917876
 30
0.0
  0
LINE
  5
E6
330
1F
100
AcDbEntity
  8
0
  6
HIDDEN
 62
     7
370
     0
100
AcDbLine
 10
94.6782627884
 20
129.8452781918
 30
0.0
 11
91.2782627917
 21
129.8452781918
 31
0.0
  0
LINE
  5
E7
330
1F
100
AcDbEntity
  8
0
  6
HIDDEN
 62
     7
370
     0
100
AcDbLine
 10
91.2092938017
 20
98.2422973197
 30
0.0
 11
98.6782627884
 21
98.2422973197
 31
0.0
  0
SPLINE
  5
E8
330
1F
100
AcDbEntity
  8
0
  6
HIDDEN
 62
     7
370
     0
100
AcDbSpline
210
0.0
220
0.0
230
1.0
 70
     8
 71
     3
 72
    22
 73
    18
 74
     0
 42
0.00000001
 43
0.00000001
 40
0.0
 40
0.0
 40
0.0
 40
0.0
 40
0.1249999999999998
 40
0.1249999999999998
 40
0.2499999999999995
 40
0.2499999999999995
 40
0.4999999999999992
 40
0.4999999999999992
 40
0.5624999999999993
 40
0.5624999999999993
 40
0.6249999999999994
 40
0.6249999999999994
 40
0.7499999999999996
 40
0.7499999999999996
 40
0.8749999999999998
 40
0.8749999999999998
 40
1.0
 40
1.0
 40
1.0
 40
1.0
 10
91.20929380171384
 20
98.24229731972427
 30
0.0
 10
91.19621140898548
 20
98.49740302987193
 30
0.0
 10
91.18299184554566
 20
98.79056128897584
 30
0.0
 10
91.16054466775154
 20
99.45286175460065
 30
0.0
 10
91.15106620072706
 20
99.82313567521203
 30
0.0
 10
91.13186823979049
 20
101.0456924783258
 30
0.0
 10
91.1329820127874
 20
101.9828314044577
 30
0.0
 10
91.15189280574047
 20
103.3027026339727
 30
0.0
 10
91.15652233359947
 20
103.574204542949
 30
0.0
 10
91.16700355334544
 20
104.1325893777513
 30
0.0
 10
91.17279881462984
 20
104.4197122336909
 30
0.0
 10
91.1911080355348
 20
105.2923014880626
 30
0.0
 10
91.20514296981514
 20
105.8927571644184
 30
0.0
 10
91.23460014195196
 20
107.1302316569145
 30
0.0
 10
91.25015583293354
 20
107.767247813558
 30
0.0
 10
91.27395038293044
 20
109.0787364112425
 30
0.0
 10
91.2819694350758
 20
109.754859022903
 30
0.0
 10
91.27826278835592
 20
110.4391541341878
 30
0.0
  0
LINE
  5
E9
330
1F
100
AcDbEntity
  8
0
  6
HIDDEN
 62
     7
370
     0
100
AcDbLine
 10
91.2782627917
 20
117.6484213773
 30
0.0
 11
91.2782627917
 21
129.8452781918
 31
0.0
  0
SPLINE
  5
EA
330
1F
100
AcDbEntity
  8
0
  6
HIDDEN
 62
     7
370
     0
100
AcDbSpline
210
0.0
220
0.0
230
1.0
 70
     8
 71
     3
 72
    10
 73
     6
 74
     0
 42
0.00000001
 43
0.00000001
 40
0.0
 40
0.0
 40
0.0
 40
0.0
 40
0.5
 40
0.5
 40
1.0
 40
1.0
 40
1.0
 40
1.0
 10
91.27826278835592
 20
110.4391541341727
 30
0.0
 10
91.27826278835575
 20
110.7130692822471
 30
0.0
 10
91.25250355848803
 20
110.9840108609772
 30
0.0
 10
91.14929762575491
 20
111.5197019425801
 30
0.0
 10
91.07195946187969
 20
111.7854487461021
 30
0.0
 10
90.9782627883559
 20
112.0470874535396
 30
0.0
  0
SPLINE
  5
EB
330
1F
100
AcDbEntity
  8
0
  6
HIDDEN
 62
     7
370
     0
100
AcDbSpline
210
0.0
220
0.0
230
1.0
 70
     8
 71
     3
 72
    10
 73
     6
 74
     0
 42
0.00000001
 43
0.00000001
 40
0.0
 40
0.0
 40
0.0
 40
0.0
 40
0.5
 40
0.5
 40
1.0
 40
1.0
 40
1.0
 40
1.0
 10
90.9782627883559
 20
116.0309160491204
 30
0.0
 10
91.07149336974693
 20
116.2948098571906
 30
0.0
 10
91.14652298198368
 20
116.5609901678288
 30
0.0
 10
91.25159008116182
 20
117.099312742787
 30
0.0
 10
91.27826279174802
 20
117.3720608590326
 30
0.0
 10
91.2782627917492
 20
117.648421377323
 30
0.0
  0
LINE
  5
EC
330
1F
100
AcDbEntity
  8
0
  6
HIDDEN
 62
     7
370
     0
100
AcDbLine
 10
90.9782627884
 20
112.0470874535
 30
0.0
 11
90.9782627884
 21
116.0309160491
 31
0.0
  0
LWPOLYLINE
  5
ED
330
1F
100
AcDbEntity
  8
0
  6
HIDDEN
 62
     7
370
     0
100
AcDbPolyline
 90
       21
 70
   128
 43
0.0
 10
157.8782627884
 20
102.5179472224
 10
157.4147372968
 20
102.5698596262
 10
156.9965849099
 20
102.72051529
 10
156.6647372968
 20
102.9551669875
 10
156.4516780139
 20
103.2508453759
 10
156.3782627884
 20
103.5786073942
 10
156.4516780139
 20
103.9063694125
 10
156.6647372968
 20
104.2020478009
 10
156.9965849099
 20
104.4366994984
 10
157.4147372968
 20
104.5873551621
 10
157.8782627884
 20
104.639267566
 10
158.3417882799
 20
104.5873551621
 10
158.7599406668
 20
104.4366994984
 10
159.0917882799
 20
104.2020478009
 10
159.3048475628
 20
103.9063694125
 10
159.3782627884
 20
103.5786073942
 10
159.3048475628
 20
103.2508453759
 10
159.0917882799
 20
102.9551669875
 10
158.7599406668
 20
102.72051529
 10
158.3417882799
 20
102.5698596262
 10
157.8782627884
 20
102.5179472224
  0
SPLINE
  5
EE
330
1F
100
AcDbEntity
  8
0
  6
HIDDEN
 62
     7
370
     0
100
AcDbSpline
210
0.0
220
0.0
230
1.0
 70
     8
 71
     3
 72
    14
 73
    10
 74
     0
 42
0.00000001
 43
0.00000001
 40
0.0
 40
0.0
 40
0.0
 40
0.0
 40
0.25
 40
0.25
 40
0.5
 40
0.5
 40
0.75
 40
0.75
 40
1.0
 40
1.0
 40
1.0
 40
1.0
 10
156.930943568345
 20
103.5167289597155
 30
0.0
 10
156.9670633132517
 20
103.5497780714883
 30
0.0
 10
156.9985150313436
 20
103.5899909615581
 30
0.0
 10
157.0419199999156
 20
103.689168917498
 30
0.0
 10
157.0523939257756
 20
103.7464469160761
 30
0.0
 10
157.0439325722605
 20
103.8758186410609
 30
0.0
 10
157.0249668627238
 20
103.9462484309794
 30
0.0
 10
156.9684564091708
 20
104.091454671183
 30
0.0
 10
156.9318360401024
 20
104.1654777617388
 30
0.0
 10
156.8919884348603
 20
104.2410334451095
 30
0.0
  0
SPLINE
  5
EF
330
1F
100
AcDbEntity
  8
0
  6
HIDDEN
 62
     7
370
     0
100
AcDbSpline
210
0.0
220
0.0
230
1.0
 70
     8
 71
     3
 72
    14
 73
    10
 74
     0
 42
0.00000001
 43
0.00000001
 40
0.0
 40
0.0
 40
0.0
 40
0.0
 40
0.25
 40
0.25
 40
0.5
 40
0.5
 40
0.75
 40
0.75
 40
1.0
 40
1.0
 40
1.0
 40
1.0
 10
156.8919884348604
 20
104.2410334451089
 30
0.0
 10
156.8596355414949
 20
104.2046424083107
 30
0.0
 10
156.8286613572569
 20
104.1690717771335
 30
0.0
 10
156.7788151165632
 20
104.0878010293584
 30
0.0
 10
156.7601152738876
 20
104.0397604366349
 30
0.0
 10
156.7701564301777
 20
103.9045235802871
 30
0.0
 10
156.7967470347251
 20
103.8243265612407
 30
0.0
 10
156.8581641329981
 20
103.6692137540544
 30
0.0
 10
156.8938043859675
 20
103.5923206648435
 30
0.0
 10
156.930943568345
 20
103.5167289597149
 30
0.0
  0
SPLINE
  5
F0
330
1F
100
AcDbEntity
  8
0
  6
HIDDEN
 62
     7
370
     0
100
AcDbSpline
210
0.0
220
0.0
230
1.0
 70
     8
 71
     3
 72
    48
 73
    44
 74
     0
 42
0.00000001
 43
0.00000001
 40
-0.0624999999999996
 40
-0.0624999999999996
 40
0.0
 40
0.0
 40
0.0312500000000005
 40
0.0312500000000005
 40
0.0625000000000009
 40
0.0625000000000009
 40
0.1250000000000023
 40
0.1250000000000023
 40
0.1875000000000037
 40
0.1875000000000037
 40
0.2500000000000052
 40
0.2500000000000052
 40
0.3125000000000066
 40
0.3125000000000066
 40
0.3437500000000068
 40
0.3437500000000068
 40
0.3750000000000069
 40
0.3750000000000069
 40
0.4062500000000071
 40
0.4062500000000071
 40
0.4375000000000073
 40
0.4375000000000073
 40
0.5000000000000064
 40
0.5000000000000064
 40
0.5625000000000056
 40
0.5625000000000056
 40
0.6250000000000047
 40
0.6250000000000047
 40
0.6875000000000039
 40
0.6875000000000039
 40
0.750000000000003
 40
0.750000000000003
 40
0.8125000000000021
 40
0.8125000000000021
 40
0.8437500000000017
 40
0.8437500000000017
 40
0.8750000000000012
 40
0.8750000000000012
 40
0.9062500000000009
 40
0.9062500000000009
 40
0.9375000000000004
 40
0.9375000000000004
 40
1.0
 40
1.0
 40
1.03125
 40
1.03125
 10
159.0090527657075
 20
103.4705721542922
 30
0.0
 10
159.1311205962245
 20
103.4739634795141
 30
0.0
 10
159.1695829261421
 20
103.4824102954604
 30
0.0
 10
159.2397324019086
 20
103.5146851595146
 30
0.0
 10
159.2717495346837
 20
103.5389579169805
 30
0.0
 10
159.3504851216014
 20
103.6357805785017
 30
0.0
 10
159.3802135224223
 20
103.7349302162367
 30
0.0
 10
159.3761017683922
 20
103.9838520180064
 30
0.0
 10
159.3420556757267
 20
104.134453465101
 30
0.0
 10
159.230689517202
 20
104.4433686356295
 30
0.0
 10
159.1542905936114
 20
104.6021285152553
 30
0.0
 10
158.9911174133471
 20
104.9098997620936
 30
0.0
 10
158.9024779473315
 20
105.0606372950037
 30
0.0
 10
158.7932638466026
 20
105.2785625085262
 30
0.0
 10
158.7603422988907
 20
105.3517181682187
 30
0.0
 10
158.7158915858908
 20
105.4912548118645
 30
0.0
 10
158.7046587674668
 20
105.5592554472331
 30
0.0
 10
158.7114465658907
 20
105.6791889587442
 30
0.0
 10
158.7291935291763
 20
105.7326076933991
 30
0.0
 10
158.7813440556491
 20
105.8207547717286
 30
0.0
 10
158.8157172201163
 20
105.856876957813
 30
0.0
 10
158.9276638808143
 20
105.9429763081637
 30
0.0
 10
159.0131478579677
 20
105.972073325558
 30
0.0
 10
159.1712993358682
 20
105.9756119209927
 30
0.0
 10
159.243544211303
 20
105.9496470675125
 30
0.0
 10
159.349234267688
 20
105.8279500035652
 30
0.0
 10
159.3797333134463
 20
105.7311012443375
 30
0.0
 10
159.3766769375283
 20
105.4819521738703
 30
0.0
 10
159.3427542871339
 20
105.3290168510036
 30
0.0
 10
159.2327888595357
 20
105.0161359548373
 30
0.0
 10
159.1576335941429
 20
104.855180032778
 30
0.0
 10
158.9988736643965
 20
104.545677570574
 30
0.0
 10
158.9122289437548
 20
104.3927991040432
 30
0.0
 10
158.8037588093091
 20
104.1741754885513
 30
0.0
 10
158.7708092426583
 20
104.1020285027661
 30
0.0
 10
158.722019702898
 20
103.9596804929043
 30
0.0
 10
158.7074281087743
 20
103.8913918409833
 30
0.0
 10
158.7074098719428
 20
103.766311078994
 30
0.0
 10
158.722092098902
 20
103.7114495235134
 30
0.0
 10
158.7721044749266
 20
103.619503500066
 30
0.0
 10
158.8060907809574
 20
103.5831849349936
 30
0.0
 10
158.9203883495499
 20
103.4967118460546
 30
0.0
 10
159.0090527657075
 20
103.4705721542922
 30
0.0
 10
159.1311205962245
 20
103.4739634795141
 30
0.0
  0
SPLINE
  5
F1
330
1F
100
AcDbEntity
  8
0
  6
HIDDEN
 62
     7
370
     0
100
AcDbSpline
210
0.0
220
0.0
230
1.0
 70
     8
 71
     3
 72
     8
 73
     4
 74
     0
 42
0.00000001
 43
0.00000001
 40
0.0
 40
0.0
 40
0.0
 40
0.0
 40
1.0
 40
1.0
 40
1.0
 40
1.0
 10
159.1202968275664
 20
109.5281597721719
 30
0.0
 10
159.0789885792237
 20
109.5656123270602
 30
0.0
 10
159.0334005099527
 20
109.6052071840519
 30
0.0
 10
158.9834887702362
 20
109.6490657648885
 30
0.0
  0
SPLINE
  5
F2
330
1F
100
AcDbEntity
  8
0
  6
HIDDEN
 62
     7
370
     0
100
AcDbSpline
210
0.0
220
0.0
230
1.0
 70
     8
 71
     3
 72
    34
 73
    30
 74
     0
 42
0.00000001
 43
0.00000001
 40
0.0
 40
0.0
 40
0.0
 40
0.0
 40
0.0625000000000027
 40
0.0625000000000027
 40
0.1250000000000053
 40
0.1250000000000053
 40
0.2500000000000079
 40
0.2500000000000079
 40
0.3125000000000078
 40
0.3125000000000078
 40
0.3750000000000077
 40
0.3750000000000077
 40
0.5000000000000063
 40
0.5000000000000063
 40
0.5625000000000056
 40
0.5625000000000056
 40
0.6250000000000048
 40
0.6250000000000048
 40
0.687500000000004
 40
0.687500000000004
 40
0.7500000000000031
 40
0.7500000000000031
 40
0.8125000000000023
 40
0.8125000000000023
 40
0.8750000000000016
 40
0.8750000000000016
 40
0.9375000000000008
 40
0.9375000000000008
 40
1.0
 40
1.0
 40
1.0
 40
1.0
 10
158.9834887702362
 20
109.6490657648885
 30
0.0
 10
158.8814391746371
 20
109.7387390654657
 30
0.0
 10
158.7655538403773
 20
109.815830235561
 30
0.0
 10
158.5061671869289
 20
109.9425034153319
 30
0.0
 10
158.3659289223833
 20
109.9899888223226
 30
0.0
 10
157.9275936016293
 20
110.0772706380031
 30
0.0
 10
157.6122453428876
 20
110.0573661293953
 30
0.0
 10
157.1947442358764
 20
109.9199643162013
 30
0.0
 10
157.0621646957549
 20
109.8560068413158
 30
0.0
 10
156.8289206956006
 20
109.7037067259736
 30
0.0
 10
156.7248568286258
 20
109.613224406883
 30
0.0
 10
156.4722374517612
 20
109.3218914913676
 30
0.0
 10
156.3783642091308
 20
109.0953885566319
 30
0.0
 10
156.3782122051566
 20
108.7757030714493
 30
0.0
 10
156.400604571584
 20
108.6738465599322
 30
0.0
 10
156.4899207977413
 20
108.4821081349828
 30
0.0
 10
156.5548250952201
 20
108.3959453840554
 30
0.0
 10
156.7249259559831
 20
108.2405052349137
 30
0.0
 10
156.8268155318288
 20
108.1744495564829
 30
0.0
 10
157.0614119081073
 20
108.0639191798262
 30
0.0
 10
157.1924054490775
 20
108.0205706040994
 30
0.0
 10
157.4711783633363
 20
107.9584908786228
 30
0.0
 10
157.620274373571
 20
107.939663396567
 30
0.0
 10
157.9188424268836
 20
107.9275352756895
 30
0.0
 10
158.0719752877163
 20
107.9341682851124
 30
0.0
 10
158.3632150353292
 20
107.9722252106593
 30
0.0
 10
158.5055687354257
 20
108.0042210463116
 30
0.0
 10
158.7631336203225
 20
108.091346539163
 30
0.0
 10
158.8814346639306
 20
108.1472461150373
 30
0.0
 10
158.9834887702362
 20
108.2148582980436
 30
0.0
  0
SPLINE
  5
F3
330
1F
100
AcDbEntity
  8
0
  6
HIDDEN
 62
     7
370
     0
100
AcDbSpline
210
0.0
220
0.0
230
1.0
 70
     8
 71
     3
 72
     8
 73
     4
 74
     0
 42
0.00000001
 43
0.00000001
 40
0.0
 40
0.0
 40
0.0
 40
0.0
 40
1.0
 40
1.0
 40
1.0
 40
1.0
 10
158.9834887702362
 20
108.2148582980436
 30
0.0
 10
159.0334005099527
 20
108.2479254797773
 30
0.0
 10
159.0789885792237
 20
108.2899279322469
 30
0.0
 10
159.1202968275664
 20
108.338746937667
 30
0.0
  0
SPLINE
  5
F4
330
1F
100
AcDbEntity
  8
0
  6
HIDDEN
 62
     7
370
     0
100
AcDbSpline
210
0.0
220
0.0
230
1.0
 70
     8
 71
     3
 72
    12
 73
     8
 74
     0
 42
0.00000001
 43
0.00000001
 40
0.0
 40
0.0
 40
0.0
 40
0.0
 40
0.2500000000000005
 40
0.2500000000000005
 40
0.500000000000001
 40
0.500000000000001
 40
1.0
 40
1.0
 40
1.0
 40
1.0
 10
159.1202968275664
 20
108.338746937667
 30
0.0
 10
159.2040946414003
 20
108.4377810553524
 30
0.0
 10
159.2679681979845
 20
108.5397704217878
 30
0.0
 10
159.3558343368484
 20
108.7519187406537
 30
0.0
 10
159.3781261406758
 20
108.8590726354334
 30
0.0
 10
159.3785342065371
 20
109.175020229697
 30
0.0
 10
159.287894928736
 20
109.3762052029257
 30
0.0
 10
159.1202968275664
 20
109.5281597721719
 30
0.0
  0
SPLINE
  5
F5
330
1F
100
AcDbEntity
  8
0
  6
HIDDEN
 62
     7
370
     0
100
AcDbSpline
210
0.0
220
0.0
230
1.0
 70
     8
 71
     3
 72
    10
 73
     6
 74
     0
 42
0.00000001
 43
0.00000001
 40
0.0
 40
0.0
 40
0.0
 40
0.0
 40
0.5
 40
0.5
 40
1.0
 40
1.0
 40
1.0
 40
1.0
 10
156.8919884348604
 20
105.8393218418867
 30
0.0
 10
156.9715584980293
 20
105.786650212
 30
0.0
 10
157.0392538811876
 20
105.7010986496007
 30
0.0
 10
157.056928104357
 20
105.4569637438911
 30
0.0
 10
157.0032063849497
 20
105.3108316521857
 30
0.0
 10
156.930943568345
 20
105.1614698483654
 30
0.0
  0
SPLINE
  5
F6
330
1F
100
AcDbEntity
  8
0
  6
HIDDEN
 62
     7
370
     0
100
AcDbSpline
210
0.0
220
0.0
230
1.0
 70
     8
 71
     3
 72
    14
 73
    10
 74
     0
 42
0.00000001
 43
0.00000001
 40
0.0
 40
0.0
 40
0.0
 40
0.0
 40
0.25
 40
0.25
 40
0.5
 40
0.5
 40
0.75
 40
0.75
 40
1.0
 40
1.0
 40
1.0
 40
1.0
 10
156.930943568345
 20
105.1614698483655
 30
0.0
 10
156.8937314813751
 20
105.1943439483955
 30
0.0
 10
156.8579929253197
 20
105.225798043411
 30
0.0
 10
156.7964971961369
 20
105.2958333387355
 30
0.0
 10
156.7699903302009
 20
105.3349347474943
 30
0.0
 10
156.7602069897657
 20
105.4541132883555
 30
0.0
 10
156.7789901855749
 20
105.5323983717648
 30
0.0
 10
156.8289087941602
 20
105.6860419910465
 30
0.0
 10
156.8597175285755
 20
105.7631954607714
 30
0.0
 10
156.8919884348604
 20
105.8393218418867
 30
0.0
  0
SPLINE
  5
F7
330
1F
100
AcDbEntity
  8
0
  6
HIDDEN
 62
     7
370
     0
100
AcDbSpline
210
0.0
220
0.0
230
1.0
 70
     8
 71
     3
 72
    30
 73
    26
 74
     0
 42
0.00000001
 43
0.00000001
 40
-0.1250000000000022
 40
-0.1250000000000022
 40
0.0
 40
0.0
 40
0.1250000000000008
 40
0.1250000000000008
 40
0.1875000000000012
 40
0.1875000000000012
 40
0.2500000000000017
 40
0.2500000000000017
 40
0.3125000000000021
 40
0.3125000000000021
 40
0.3750000000000025
 40
0.3750000000000025
 40
0.4999999999999998
 40
0.4999999999999998
 40
0.624999999999997
 40
0.624999999999997
 40
0.6874999999999972
 40
0.6874999999999972
 40
0.7499999999999974
 40
0.7499999999999974
 40
0.8124999999999977
 40
0.8124999999999977
 40
0.8749999999999978
 40
0.8749999999999978
 40
1.0
 40
1.0
 40
1.125000000000001
 40
1.125000000000001
 10
156.3782627883555
 20
104.8385857785934
 30
0.0
 10
156.3782627883555
 20
105.0016449476745
 30
0.0
 10
156.3924658499819
 20
105.0594340727028
 30
0.0
 10
156.4242623178943
 20
105.0996442508045
 30
0.0
 10
156.4367032663441
 20
105.105708431366
 30
0.0
 10
156.4587534140747
 20
105.0921218689146
 30
0.0
 10
156.467792157439
 20
105.0700445067388
 30
0.0
 10
156.4661888504203
 20
104.9855415951829
 30
0.0
 10
156.4564651180117
 20
104.9287349984011
 30
0.0
 10
156.4351220081011
 20
104.8171021874182
 30
0.0
 10
156.4233264274317
 20
104.7605014750716
 30
0.0
 10
156.3924964508033
 20
104.5952155269283
 30
0.0
 10
156.3782844543633
 20
104.4904536925159
 30
0.0
 10
156.3782411758881
 20
104.3283910949793
 30
0.0
 10
156.3922604638342
 20
104.2740088343586
 30
0.0
 10
156.4232812261756
 20
104.2399767662776
 30
0.0
 10
156.4348468468927
 20
104.23636878856
 30
0.0
 10
156.4562058512938
 20
104.2504391325811
 30
0.0
 10
156.4660448386851
 20
104.2694775409005
 30
0.0
 10
156.4678977388512
 20
104.3468517822833
 30
0.0
 10
156.458947341194
 20
104.4035055343118
 30
0.0
 10
156.4369493484966
 20
104.5159242266493
 30
0.0
 10
156.4245923582448
 20
104.5721155948386
 30
0.0
 10
156.3924029661968
 20
104.7369922292227
 30
0.0
 10
156.3782627883555
 20
104.8385857785934
 30
0.0
 10
156.3782627883555
 20
105.0016449476745
 30
0.0
  0
LINE
  5
F8
330
1F
100
AcDbEntity
  8
0
  6
HIDDEN
 62
     7
370
     0
100
AcDbLine
 10
91.1282627884
 20
96.0537877558
 30
0.0
 11
91.1282627884
 21
93.1738499904
 31
0.0
  0
ARC
  5
F9
330
1F
100
AcDbEntity
  8
0
  6
HIDDEN
 62
     7
370
     0
100
AcDbCircle
 10
143.7828486692
 20
104.7459139737
 30
0.0
 40
13.15466024505653
100
AcDbArc
 50
1.810275534
 51
4.7678934514
  0
LINE
  5
FA
330
1F
100
AcDbEntity
  8
0
  6
HIDDEN
 62
     7
370
     0
100
AcDbLine
 10
100.0782627884
 20
96.0537877558
 30
0.0
 11
100.0782627884
 21
92.0800502246
 31
0.0
  0
LINE
  5
FB
330
1F
100
AcDbEntity
  8
0
  6
HIDDEN
 62
     7
370
     0
100
AcDbLine
 10
91.1282627884
 20
132.0337877558
 30
0.0
 11
91.1282627884
 21
134.9137255212
 31
0.0
  0
LINE
  5
FC
330
1F
100
AcDbEntity
  8
0
  6
HIDDEN
 62
     7
370
     0
100
AcDbLine
 10
96.0782627884
 20
132.0337877558
 30
0.0
 11
96.0782627884
 21
135.8878954281
 31
0.0
  0
LINE
  5
FD
330
1F
100
AcDbEntity
  8
0
  6
HIDDEN
 62
     7
370
     0
100
AcDbLine
 10
140.6782627884
 20
104.5437877558
 30
0.0
 11
140.6782627884
 21
123.5437877558
 31
0.0
  0
LINE
  5
FE
330
1F
100
AcDbEntity
  8
0
  6
HIDDEN
 62
     7
370
     0
100
AcDbLine
 10
143.6782627884
 20
104.5437877558
 30
0.0
 11
143.6782627884
 21
123.5437877558
 31
0.0
  0
LINE
  5
FF
330
1F
100
AcDbEntity
  8
0
  6
HIDDEN
 62
     7
370
     0
100
AcDbLine
 10
132.3282627884
 20
105.5437877558
 30
0.0
 11
132.3282627884
 21
122.5437877558
 31
0.0
  0
LINE
  5
100
330
1F
100
AcDbEntity
  8
0
  6
HIDDEN
 62
     7
370
     0
100
AcDbLine
 10
126.8282627884
 20
82.5596647729
 30
0.0
 11
126.8282627884
 21
87.6437877558
 31
0.0
  0
LINE
  5
101
330
1F
100
AcDbEntity
  8
0
  6
HIDDEN
 62
     7
370
     0
100
AcDbLine
 10
134.8282627884
 20
87.6437877558
 30
0.0
 11
126.8282627884
 21
87.6437877558
 31
0.0
  0
LINE
  5
102
330
1F
100
AcDbEntity
  8
0
  6
HIDDEN
 62
     7
370
     0
100
AcDbLine
 10
138.0659375907
 20
87.6437877558
 30
0.0
 11
134.8282627884
 21
87.6437877558
 31
0.0
  0
LINE
  5
103
330
1F
100
AcDbEntity
  8
0
  6
HIDDEN
 62
     7
370
     0
100
AcDbLine
 10
147.8282627884
 20
87.6437877558
 30
0.0
 11
141.690587986
 21
87.6437877558
 31
0.0
  0
ARC
  5
104
330
1F
100
AcDbEntity
  8
0
  6
HIDDEN
 62
     7
370
     0
100
AcDbCircle
 10
173.0806131442
 20
104.7485034372
 30
0.0
 40
16.19657666836423
100
AcDbArc
 50
181.7954811518
 51
184.3616432553
  0
LINE
  5
105
330
1F
100
AcDbEntity
  8
0
  6
HIDDEN
 62
     7
370
     0
100
AcDbLine
 10
147.8282627884
 20
140.4437877558
 30
0.0
 11
141.3939652567
 21
140.4437877558
 31
0.0
  0
LINE
  5
106
330
1F
100
AcDbEntity
  8
0
  6
HIDDEN
 62
     7
370
     0
100
AcDbLine
 10
134.8282627884
 20
140.4437877558
 30
0.0
 11
126.8282627884
 21
140.4437877558
 31
0.0
  0
LINE
  5
107
330
1F
100
AcDbEntity
  8
0
  6
HIDDEN
 62
     7
370
     0
100
AcDbLine
 10
138.36256032
 20
140.4437877558
 30
0.0
 11
134.8282627884
 21
140.4437877558
 31
0.0
  0
SPLINE
  5
108
330
1F
100
AcDbEntity
  8
0
  6
HIDDEN
 62
     7
370
     0
100
AcDbSpline
210
0.0
220
0.0
230
1.0
 70
     8
 71
     3
 72
    11
 73
     7
 74
     0
 42
0.00000001
 43
0.00000001
 40
0.0
 40
0.0
 40
0.0
 40
0.0
 40
0.0008203708524183
 40
0.0008203708524183
 40
0.0008203708524183
 40
0.0016409967870154
 40
0.0016409967870154
 40
0.0016409967870154
 40
0.0016409967870154
 10
91.12826278835593
 20
98.1917550051132
 30
0.0
 10
90.93710448805727
 20
98.15057597649405
 30
0.0
 10
90.74567741798509
 20
98.11182200426404
 30
0.0
 10
90.55403179446446
 20
98.07545424498551
 30
0.0
 10
90.36232638938401
 20
98.03907514121948
 30
0.0
 10
90.17038743732505
 20
98.00508089045194
 30
0.0
 10
89.97826279025422
 20
97.97343276506072
 30
0.0
  0
ELLIPSE
  5
109
330
1F
100
AcDbEntity
  8
0
  6
HIDDEN
 62
     7
370
     0
100
AcDbEllipse
 10
85.7358309198
 20
114.0437877558
 30
0.0
 11
20.19992453366628
 21
-1.421085471520200E-14
 31
0.0
210
0.0
220
0.0
230
1.0
 40
0.8164965809
 41
1.300566354718001
 42
1.359198697209605
  0
SPLINE
  5
10A
330
1F
100
AcDbEntity
  8
0
  6
HIDDEN
 62
     7
370
     0
100
AcDbSpline
210
0.0
220
0.0
230
1.0
 70
     8
 71
     3
 72
     8
 73
     4
 74
     0
 42
0.00000001
 43
0.00000001
 40
0.0
 40
0.0
 40
0.0
 40
0.0
 40
1.0
 40
1.0
 40
1.0
 40
1.0
 10
158.9834887702362
 20
119.8727172134682
 30
0.0
 10
159.0334005099527
 20
119.8396500317345
 30
0.0
 10
159.0789885792237
 20
119.7976475792649
 30
0.0
 10
159.1202968275664
 20
119.7488285738448
 30
0.0
  0
SPLINE
  5
10B
330
1F
100
AcDbEntity
  8
0
  6
HIDDEN
 62
     7
370
     0
100
AcDbSpline
210
0.0
220
0.0
230
1.0
 70
     8
 71
     3
 72
    34
 73
    30
 74
     0
 42
0.00000001
 43
0.00000001
 40
0.0
 40
0.0
 40
0.0
 40
0.0
 40
0.0625000000000003
 40
0.0625000000000003
 40
0.1250000000000005
 40
0.1250000000000005
 40
0.2500000000000039
 40
0.2500000000000039
 40
0.3125000000000041
 40
0.3125000000000041
 40
0.3750000000000043
 40
0.3750000000000043
 40
0.5000000000000032
 40
0.5000000000000032
 40
0.5625000000000028
 40
0.5625000000000028
 40
0.6250000000000024
 40
0.6250000000000024
 40
0.687500000000002
 40
0.687500000000002
 40
0.7500000000000016
 40
0.7500000000000016
 40
0.8125000000000012
 40
0.8125000000000012
 40
0.8750000000000008
 40
0.8750000000000008
 40
0.9375000000000004
 40
0.9375000000000004
 40
1.0
 40
1.0
 40
1.0
 40
1.0
 10
158.9834887702362
 20
118.4385097466233
 30
0.0
 10
158.8814391746371
 20
118.3488364460462
 30
0.0
 10
158.7655538403773
 20
118.2717452759508
 30
0.0
 10
158.5061671869289
 20
118.14507209618
 30
0.0
 10
158.3659289223833
 20
118.0975866891893
 30
0.0
 10
157.9275936016293
 20
118.0103048735088
 30
0.0
 10
157.6122453428876
 20
118.0302093821166
 30
0.0
 10
157.1947442358764
 20
118.1676111953106
 30
0.0
 10
157.062164695755
 20
118.231568670196
 30
0.0
 10
156.8289206956006
 20
118.3838687855383
 30
0.0
 10
156.7248568286259
 20
118.4743511046289
 30
0.0
 10
156.4722374517613
 20
118.7656840201442
 30
0.0
 10
156.3783642091308
 20
118.9921869548799
 30
0.0
 10
156.3782122051566
 20
119.3118724400625
 30
0.0
 10
156.400604571584
 20
119.4137289515797
 30
0.0
 10
156.4899207977413
 20
119.605467376529
 30
0.0
 10
156.5548250952201
 20
119.6916301274564
 30
0.0
 10
156.7249259559831
 20
119.8470702765982
 30
0.0
 10
156.8268155318289
 20
119.9131259550289
 30
0.0
 10
157.0614119081073
 20
120.0236563316857
 30
0.0
 10
157.1924054490775
 20
120.0670049074124
 30
0.0
 10
157.4711783633363
 20
120.1290846328891
 30
0.0
 10
157.620274373571
 20
120.1479121149448
 30
0.0
 10
157.9188424268836
 20
120.1600402358223
 30
0.0
 10
158.0719752877163
 20
120.1534072263995
 30
0.0
 10
158.3632150353293
 20
120.1153503008525
 30
0.0
 10
158.5055687354257
 20
120.0833544652003
 30
0.0
 10
158.7631336203225
 20
119.9962289723489
 30
0.0
 10
158.8814346639306
 20
119.9403293964746
 30
0.0
 10
158.9834887702362
 20
119.8727172134683
 30
0.0
  0
LINE
  5
10C
330
1F
100
AcDbEntity
  8
0
  6
HIDDEN
 62
     7
370
     0
100
AcDbLine
 10
155.8782627884
 20
107.1437877558
 30
0.0
 11
155.8782627884
 21
120.9437876776
 31
0.0
  0
SPLINE
  5
10D
330
1F
100
AcDbEntity
  8
0
  6
HIDDEN
 62
     7
370
     0
100
AcDbSpline
210
0.0
220
0.0
230
1.0
 70
     8
 71
     3
 72
    12
 73
     8
 74
     0
 42
0.00000001
 43
0.00000001
 40
0.0
 40
0.0
 40
0.0
 40
0.0
 40
0.2500000000000003
 40
0.2500000000000003
 40
0.5000000000000006
 40
0.5000000000000006
 40
1.0
 40
1.0
 40
1.0
 40
1.0
 10
159.1202968275664
 20
119.7488285738448
 30
0.0
 10
159.2040946414003
 20
119.6497944561594
 30
0.0
 10
159.2679681979844
 20
119.547805089724
 30
0.0
 10
159.3558343368484
 20
119.3356567708582
 30
0.0
 10
159.3781261406758
 20
119.2285028760785
 30
0.0
 10
159.3785342065371
 20
118.9125552818148
 30
0.0
 10
159.287894928736
 20
118.7113703085862
 30
0.0
 10
159.1202968275664
 20
118.55941573934
 30
0.0
  0
LINE
  5
10E
330
1F
100
AcDbEntity
  8
0
  6
HIDDEN
 62
     7
370
     0
100
AcDbLine
 10
159.8782627884
 20
107.0437877558
 30
0.0
 11
159.8782627884
 21
121.0437877558
 31
0.0
  0
LINE
  5
10F
330
1F
100
AcDbEntity
  8
0
  6
HIDDEN
 62
     7
370
     0
100
AcDbLine
 10
91.1282627884
 20
96.0537877558
 30
0.0
 11
91.1282627884
 21
98.1917550051
 31
0.0
  0
LINE
  5
110
330
1F
100
AcDbEntity
  8
0
  6
HIDDEN
 62
     7
370
     0
100
AcDbLine
 10
91.2092938017
 20
98.2422973197
 30
0.0
 11
91.1282627884
 21
98.1917550051
 31
0.0
  0
LINE
  5
111
330
1F
100
AcDbEntity
  8
0
  6
HIDDEN
 62
     7
370
     0
100
AcDbLine
 10
100.0782627884
 20
96.0537877558
 30
0.0
 11
100.0782627884
 21
97.7562741334
 31
0.0
  0
LINE
  5
112
330
1F
100
AcDbEntity
  8
0
  6
HIDDEN
 62
     7
370
     0
100
AcDbLine
 10
96.0782627884
 20
132.0337877558
 30
0.0
 11
96.0782627884
 21
130.3313013782
 31
0.0
  0
LINE
  5
113
330
1F
100
AcDbEntity
  8
0
  6
HIDDEN
 62
     7
370
     0
100
AcDbLine
 10
91.1282627884
 20
132.0337877558
 30
0.0
 11
91.1282627884
 21
129.9384122068
 31
0.0
  0
SPLINE
  5
114
330
1F
100
AcDbEntity
  8
0
  6
HIDDEN
 62
     7
370
     0
100
AcDbSpline
210
0.0
220
0.0
230
1.0
 70
     8
 71
     3
 72
     8
 73
     4
 74
     0
 42
0.00000001
 43
0.00000001
 40
0.0
 40
0.0
 40
0.0
 40
0.0
 40
1.0
 40
1.0
 40
1.0
 40
1.0
 10
91.12826278835593
 20
129.9384122068146
 30
0.0
 10
91.17826828729966
 20
129.9073764325954
 30
0.0
 10
91.22826835796408
 20
129.8763317875679
 30
0.0
 10
91.2782627917492
 20
129.8452781917876
 30
0.0
  0
SPLINE
  5
115
330
1F
100
AcDbEntity
  8
0
  6
HIDDEN
 62
     7
370
     0
100
AcDbSpline
210
0.0
220
0.0
230
1.0
 70
     8
 71
     3
 72
     8
 73
     4
 74
     0
 42
0.00000001
 43
0.00000001
 40
0.0
 40
0.0
 40
0.0
 40
0.0
 40
1.0
 40
1.0
 40
1.0
 40
1.0
 10
159.1202968275664
 20
118.55941573934
 30
0.0
 10
159.0789885792237
 20
118.5219631844516
 30
0.0
 10
159.0334005099527
 20
118.48236832746
 30
0.0
 10
158.9834887702362
 20
118.4385097466233
 30
0.0
  0
SPLINE
  5
116
330
1F
100
AcDbEntity
  8
0
  6
HIDDEN
 62
     7
370
     0
100
AcDbSpline
210
0.0
220
0.0
230
1.0
 70
     8
 71
     3
 72
    20
 73
    16
 74
     0
 42
0.00000001
 43
0.00000001
 40
0.0
 40
0.0
 40
0.0
 40
0.0
 40
0.1118535494849179
 40
0.1773730685924756
 40
0.2489949814854543
 40
0.3297438282836502
 40
0.3985165675539052
 40
0.4997968041482328
 40
0.6137624896888147
 40
0.6789287412071094
 40
0.7494555931726334
 40
0.8296019506449644
 40
0.8980459617257948
 40
0.9994568726596122
 40
1.0
 40
1.0
 40
1.0
 40
1.0
 10
116.6268786739455
 20
90.44385395410228
 30
0.0
 10
116.5835865193251
 20
90.45727239549025
 30
0.0
 10
116.5149354810133
 20
90.47855084517445
 30
0.0
 10
116.0699176605258
 20
90.58182346930224
 30
0.0
 10
115.5433679368645
 20
90.69512489687787
 30
0.0
 10
114.8579403691049
 20
90.81805830207537
 30
0.0
 10
113.9646236246977
 20
90.94009261908103
 30
0.0
 10
112.8512640529854
 20
91.05782899213894
 30
0.0
 10
111.7404897973478
 20
91.06980443085918
 30
0.0
 10
110.8557420796947
 20
91.04274625638067
 30
0.0
 10
110.1885433195282
 20
90.99481378022227
 30
0.0
 10
109.6472796984489
 20
90.93852195205552
 30
0.0
 10
109.2596659798033
 20
90.89343264057776
 30
0.0
 10
109.065758017328
 20
90.85456395264836
 30
0.0
 10
109.1289507916238
 20
90.86528620553281
 30
0.0
 10
109.1292874307998
 20
90.86534332488571
 30
0.0
  0
LINE
  5
117
330
1F
100
AcDbEntity
  8
0
  6
HIDDEN
 62
     7
370
     0
100
AcDbLine
 10
110.0382747007
 20
90.9761258992
 30
0.0
 11
110.2221200138
 21
90.9943152417
 31
0.0
  0
SPLINE
  5
118
330
1F
100
AcDbEntity
  8
0
  6
HIDDEN
 62
     7
370
     0
100
AcDbSpline
210
0.0
220
0.0
230
1.0
 70
     8
 71
     3
 72
    27
 73
    23
 74
     0
 42
0.00000001
 43
0.00000001
 40
0.0
 40
0.0
 40
0.0
 40
0.0
 40
0.0008085620132743
 40
0.0456910729025998
 40
0.1022727378510186
 40
0.1705508272471735
 40
0.2091424989402973
 40
0.2506697374996056
 40
0.3211155140175551
 40
0.3862092476672336
 40
0.4266883970036038
 40
0.4648196494536864
 40
0.5006239657997564
 40
0.545215729606189
 40
0.6017099851214275
 40
0.6701159591381641
 40
0.7088532888090754
 40
0.750582033877325
 40
0.8222466184915082
 40
0.8877860424923878
 40
0.9472597969153607
 40
1.0
 40
1.0
 40
1.0
 40
1.0
 10
109.1289312379911
 20
137.2222019048016
 30
0.0
 10
109.1287088986421
 20
137.2222498336544
 30
0.0
 10
109.1161447127967
 20
137.2249582476964
 30
0.0
 10
109.1652213837269
 20
137.2131262103923
 30
0.0
 10
109.3103258595243
 20
137.1896820118533
 30
0.0
 10
109.5833780296615
 20
137.1557778634934
 30
0.0
 10
109.9119045099432
 20
137.1222090662026
 30
0.0
 10
110.3046322747451
 20
137.0840257278367
 30
0.0
 10
110.8543602501512
 20
137.0450570552085
 30
0.0
 10
111.4803828953143
 20
137.0255959508326
 30
0.0
 10
112.0235744057466
 20
137.023410272993
 30
0.0
 10
112.4686433025851
 20
137.031925154173
 30
0.0
 10
112.9350910990426
 20
137.0517085510987
 30
0.0
 10
113.4723317481815
 20
137.095870936614
 30
0.0
 10
114.1205451789556
 20
137.1682865566271
 30
0.0
 10
114.706083809003
 20
137.2491886498093
 30
0.0
 10
115.1870534233374
 20
137.327354638267
 30
0.0
 10
115.6324683209469
 20
137.4121267773616
 30
0.0
 10
116.0709680366244
 20
137.5059098193372
 30
0.0
 10
116.4099933070863
 20
137.5838135867297
 30
0.0
 10
116.5973343385265
 20
137.6340052503405
 30
0.0
 10
116.6178241257951
 20
137.6406716927466
 30
0.0
 10
116.6274542606349
 20
137.643804899472
 30
0.0
  0
LINE
  5
119
330
1F
100
AcDbEntity
  8
0
  6
HIDDEN
 62
     7
370
     0
100
AcDbLine
 10
158.8282627884
 20
135.9664374866
 30
0.0
 11
161.3282627884
 21
135.9664374866
 31
0.0
  0
LINE
  5
11A
330
1F
100
AcDbEntity
  8
0
  6
HIDDEN
 62
     7
370
     0
100
AcDbLine
 10
156.3282627884
 20
135.9664374866
 30
0.0
 11
158.8282627884
 21
135.9664374866
 31
0.0
  0
LINE
  5
11B
330
1F
100
AcDbEntity
  8
0
  6
HIDDEN
 62
     7
370
     0
100
AcDbLine
 10
161.3282627884
 20
92.1211380249
 30
0.0
 11
156.3282627884
 21
92.1211380249
 31
0.0
  0
LINE
  5
11C
330
1F
100
AcDbEntity
  8
0
  6
HIDDEN
 62
     7
370
     0
100
AcDbLine
 10
158.8282627884
 20
124.5437877558
 30
0.0
 11
161.3282627884
 21
124.5437877558
 31
0.0
  0
LINE
  5
11D
330
1F
100
AcDbEntity
  8
0
  6
HIDDEN
 62
     7
370
     0
100
AcDbLine
 10
156.3282627884
 20
124.5437877558
 30
0.0
 11
158.8282627884
 21
124.5437877558
 31
0.0
  0
LINE
  5
11E
330
1F
100
AcDbEntity
  8
0
  6
HIDDEN
 62
     7
370
     0
100
AcDbLine
 10
161.3282627884
 20
103.5437877558
 30
0.0
 11
156.3282627884
 21
103.5437877558
 31
0.0
  0
SPLINE
  5
11F
330
1F
100
AcDbEntity
  8
0
  6
HIDDEN
 62
     7
370
     0
100
AcDbSpline
210
0.0
220
0.0
230
1.0
 70
     8
 71
     3
 72
    10
 73
     6
 74
     0
 42
0.00000001
 43
0.00000001
 40
0.0
 40
0.0
 40
0.0
 40
0.0
 40
0.5
 40
0.5
 40
1.0
 40
1.0
 40
1.0
 40
1.0
 10
156.3976962331757
 20
123.4706912073746
 30
0.0
 10
156.386127942456
 20
123.5440515631435
 30
0.0
 10
156.3790610637899
 20
123.6115637816185
 30
0.0
 10
156.3775958093129
 20
123.7250507436764
 30
0.0
 10
156.383331466712
 20
123.7702667158233
 30
0.0
 10
156.3937411776586
 20
123.8006707489585
 30
0.0
  0
SPLINE
  5
120
330
1F
100
AcDbEntity
  8
0
  6
HIDDEN
 62
     7
370
     0
100
AcDbSpline
210
0.0
220
0.0
230
1.0
 70
     8
 71
     3
 72
    24
 73
    20
 74
     0
 42
0.00000001
 43
0.00000001
 40
0.0
 40
0.0
 40
0.0
 40
0.0
 40
0.0075027338515887
 40
0.0775467961637062
 40
0.1497239342923401
 40
0.2158240899843581
 40
0.2705815035056371
 40
0.3257450812930588
 40
0.3848428931216754
 40
0.4308769449651463
 40
0.4781242675679116
 40
0.5478386710953504
 40
0.6195332046046624
 40
0.6903865693520019
 40
0.7631875727538657
 40
0.835652522476795
 40
0.9102706886739788
 40
0.982116823299029
 40
0.9999999999999999
 40
0.9999999999999999
 40
0.9999999999999999
 40
0.9999999999999999
 10
156.4061026976388
 20
123.8263359046802
 30
0.0
 10
156.4066217489875
 20
123.8274459378352
 30
0.0
 10
156.4119865626581
 20
123.8389190243811
 30
0.0
 10
156.4254763059345
 20
123.8475416171764
 30
0.0
 10
156.4441586029563
 20
123.8486900714649
 30
0.0
 10
156.4599992927178
 20
123.829954241757
 30
0.0
 10
156.4683339498557
 20
123.7912076144245
 30
0.0
 10
156.4659322317877
 20
123.7307365361589
 30
0.0
 10
156.454657967005
 20
123.6611384034136
 30
0.0
 10
156.4410800459032
 20
123.5931232025588
 30
0.0
 10
156.4258009820591
 20
123.520188804246
 30
0.0
 10
156.4089205437559
 20
123.4370662174155
 30
0.0
 10
156.3932819440462
 20
123.3472516052659
 30
0.0
 10
156.3823367069469
 20
123.2618198366383
 30
0.0
 10
156.3773868776397
 20
123.1841720777149
 30
0.0
 10
156.3789683366734
 20
123.1154114145757
 30
0.0
 10
156.3874271378784
 20
123.060877856137
 30
0.0
 10
156.3972480244294
 20
123.0267688763077
 30
0.0
 10
156.4047496414228
 20
123.0165771757662
 30
0.0
 10
156.4062447241361
 20
123.0145459556557
 30
0.0
  0
LWPOLYLINE
  5
121
330
1F
100
AcDbEntity
  8
0
  6
HIDDEN
 62
     7
370
     0
100
AcDbPolyline
 90
       10
 70
   128
 43
0.0
 10
156.4200138211
 20
122.9944300338
 10
156.4333207659
 20
122.9866069064
 10
156.4468712192
 20
122.988161509
 10
156.4613430843
 20
123.0087230346
 10
156.4668684355
 20
123.0444256754
 10
156.4645405684
 20
123.0971082243
 10
156.452317146
 20
123.1795001444
 10
156.4389262706
 20
123.2499184432
 10
156.4244932062
 20
123.3226647184
 10
156.3976962332
 20
123.4706912074
  0
SPLINE
  5
122
330
1F
100
AcDbEntity
  8
0
  6
HIDDEN
 62
     7
370
     0
100
AcDbSpline
210
0.0
220
0.0
230
1.0
 70
     8
 71
     3
 72
    14
 73
    10
 74
     0
 42
0.00000001
 43
0.00000001
 40
0.0
 40
0.0
 40
0.0
 40
0.0
 40
0.25
 40
0.25
 40
0.5
 40
0.5
 40
0.75
 40
0.75
 40
1.0
 40
1.0
 40
1.0
 40
1.0
 10
156.930943568345
 20
124.5708465517963
 30
0.0
 10
156.9670633132517
 20
124.5377974400234
 30
0.0
 10
156.9985150313435
 20
124.4975845499536
 30
0.0
 10
157.0419199999155
 20
124.3984065940137
 30
0.0
 10
157.0523939257755
 20
124.3411285954357
 30
0.0
 10
157.0439325722604
 20
124.2117568704508
 30
0.0
 10
157.0249668627236
 20
124.1413270805324
 30
0.0
 10
156.9684564091707
 20
123.9961208403288
 30
0.0
 10
156.9318360401025
 20
123.9220977497733
 30
0.0
 10
156.8919884348604
 20
123.8465420664026
 30
0.0
  0
SPLINE
  5
123
330
1F
100
AcDbEntity
  8
0
  6
HIDDEN
 62
     7
370
     0
100
AcDbSpline
210
0.0
220
0.0
230
1.0
 70
     8
 71
     3
 72
    14
 73
    10
 74
     0
 42
0.00000001
 43
0.00000001
 40
0.0
 40
0.0
 40
0.0
 40
0.0
 40
0.25
 40
0.25
 40
0.5
 40
0.5
 40
0.75
 40
0.75
 40
1.0
 40
1.0
 40
1.0
 40
1.0
 10
156.8919884348604
 20
123.8465420664031
 30
0.0
 10
156.859635541495
 20
123.8829331032012
 30
0.0
 10
156.8286613572569
 20
123.9185037343784
 30
0.0
 10
156.7788151165634
 20
123.9997744821536
 30
0.0
 10
156.7601152738878
 20
124.047815074877
 30
0.0
 10
156.7701564301778
 20
124.1830519312248
 30
0.0
 10
156.7967470347252
 20
124.2632489502712
 30
0.0
 10
156.8581641329982
 20
124.4183617574573
 30
0.0
 10
156.8938043859676
 20
124.4952548466682
 30
0.0
 10
156.930943568345
 20
124.5708465517968
 30
0.0
  0
LWPOLYLINE
  5
124
330
1F
100
AcDbEntity
  8
0
  6
HIDDEN
 62
     7
370
     0
100
AcDbPolyline
 90
       21
 70
   128
 43
0.0
 10
157.8782627884
 20
123.2361759112
 10
158.3417882799
 20
123.288088315
 10
158.7599406668
 20
123.4387439787
 10
159.0917882799
 20
123.6733956763
 10
159.3048475628
 20
123.9690740646
 10
159.3782627884
 20
124.296836083
 10
159.3048475628
 20
124.6245981013
 10
159.0917882799
 20
124.9202764896
 10
158.7599406668
 20
125.1549281872
 10
158.3417882799
 20
125.3055838509
 10
157.8782627884
 20
125.3574962547
 10
157.4147372968
 20
125.3055838509
 10
156.9965849099
 20
125.1549281872
 10
156.6647372968
 20
124.9202764896
 10
156.4516780139
 20
124.6245981013
 10
156.3782627884
 20
124.296836083
 10
156.4516780139
 20
123.9690740646
 10
156.6647372968
 20
123.6733956763
 10
156.9965849099
 20
123.4387439787
 10
157.4147372968
 20
123.288088315
 10
157.8782627884
 20
123.2361759112
  0
SPLINE
  5
125
330
1F
100
AcDbEntity
  8
0
  6
HIDDEN
 62
     7
370
     0
100
AcDbSpline
210
0.0
220
0.0
230
1.0
 70
     8
 71
     3
 72
    48
 73
    44
 74
     0
 42
0.00000001
 43
0.00000001
 40
-0.0625000000000007
 40
-0.0625000000000007
 40
0.0
 40
0.0
 40
0.0624999999999999
 40
0.0624999999999999
 40
0.1249999999999998
 40
0.1249999999999998
 40
0.1874999999999997
 40
0.1874999999999997
 40
0.2499999999999996
 40
0.2499999999999996
 40
0.3124999999999994
 40
0.3124999999999994
 40
0.3437499999999995
 40
0.3437499999999995
 40
0.3749999999999996
 40
0.3749999999999996
 40
0.4062499999999996
 40
0.4062499999999996
 40
0.4374999999999997
 40
0.4374999999999997
 40
0.4999999999999992
 40
0.4999999999999992
 40
0.5624999999999988
 40
0.5624999999999988
 40
0.6249999999999983
 40
0.6249999999999983
 40
0.6562499999999982
 40
0.6562499999999982
 40
0.687499999999998
 40
0.687499999999998
 40
0.7499999999999979
 40
0.7499999999999979
 40
0.8124999999999978
 40
0.8124999999999978
 40
0.8437499999999982
 40
0.8437499999999982
 40
0.8749999999999986
 40
0.8749999999999986
 40
0.9062499999999989
 40
0.9062499999999989
 40
0.9374999999999993
 40
0.9374999999999993
 40
1.0
 40
1.0
 40
1.0625
 40
1.0625
 10
159.1720089973808
 20
123.5212366685394
 30
0.0
 10
159.0088536413904
 20
123.2092125410871
 30
0.0
 10
158.9211497321391
 20
123.0598812877874
 30
0.0
 10
158.7691579026882
 20
122.7643972512028
 30
0.0
 10
158.7082702849965
 20
122.6194339242406
 30
0.0
 10
158.7065864485514
 20
122.3681918373807
 30
0.0
 10
158.7650331490551
 20
122.2758962457959
 30
0.0
 10
158.9100562184142
 20
122.1531003539753
 30
0.0
 10
158.9955753266748
 20
122.1203404263533
 30
0.0
 10
159.1548676689525
 20
122.1087485389826
 30
0.0
 10
159.2295817107376
 20
122.1304957102087
 30
0.0
 10
159.3132361177882
 20
122.2150522722017
 30
0.0
 10
159.3357994756193
 20
122.2514445004183
 30
0.0
 10
159.3676364489506
 20
122.3413739552979
 30
0.0
 10
159.3767874475676
 20
122.3956224335879
 30
0.0
 10
159.379399221757
 20
122.5161857864912
 30
0.0
 10
159.3729442343639
 20
122.5842815741957
 30
0.0
 10
159.3457568838874
 20
122.7281707095952
 30
0.0
 10
159.3252370994174
 20
122.8038699449383
 30
0.0
 10
159.2468215298969
 20
123.0382192527831
 30
0.0
 10
159.1736355355201
 20
123.1989262375308
 30
0.0
 10
159.0166562797974
 20
123.5090724354047
 30
0.0
 10
158.9302809787478
 20
123.6620334218792
 30
0.0
 10
158.7811795244927
 20
123.955993916792
 30
0.0
 10
158.7164271752247
 20
124.1032390516552
 30
0.0
 10
158.7042546379596
 20
124.2950285673902
 30
0.0
 10
158.7146358658247
 20
124.3521510259567
 30
0.0
 10
158.7582767971773
 20
124.4491463216701
 30
0.0
 10
158.7900756714554
 20
124.4879506627377
 30
0.0
 10
158.9001292305175
 20
124.5817511696262
 30
0.0
 10
158.9877957374469
 20
124.6120734796675
 30
0.0
 10
159.1525324050656
 20
124.6173202209073
 30
0.0
 10
159.2278455967198
 20
124.5914647493738
 30
0.0
 10
159.312559542654
 20
124.5021398772849
 30
0.0
 10
159.3352566105779
 20
124.4646164625294
 30
0.0
 10
159.3675098785891
 20
124.3724892546838
 30
0.0
 10
159.3766686202369
 20
124.3180490134216
 30
0.0
 10
159.37946791907
 20
124.1974512990934
 30
0.0
 10
159.3730739773675
 20
124.1295084939241
 30
0.0
 10
159.3459809132851
 20
123.9870514796874
 30
0.0
 10
159.3253591414948
 20
123.9119230367289
 30
0.0
 10
159.2462643251544
 20
123.6800540328705
 30
0.0
 10
159.1720089973808
 20
123.5212366685394
 30
0.0
 10
159.0088536413904
 20
123.2092125410871
 30
0.0
  0
SPLINE
  5
126
330
1F
100
AcDbEntity
  8
0
  6
HIDDEN
 62
     7
370
     0
100
AcDbSpline
210
0.0
220
0.0
230
1.0
 70
     8
 71
     3
 72
    10
 73
     6
 74
     0
 42
0.00000001
 43
0.00000001
 40
0.0
 40
0.0
 40
0.0
 40
0.0
 40
0.5
 40
0.5
 40
1.0
 40
1.0
 40
1.0
 40
1.0
 10
156.8919884348604
 20
122.248253669625
 30
0.0
 10
156.9715584980293
 20
122.3009252995116
 30
0.0
 10
157.0392538811877
 20
122.3864768619109
 30
0.0
 10
157.0569281043572
 20
122.6306117676207
 30
0.0
 10
157.0032063849497
 20
122.7767438593263
 30
0.0
 10
156.930943568345
 20
122.9261056631467
 30
0.0
  0
SPLINE
  5
127
330
1F
100
AcDbEntity
  8
0
  6
HIDDEN
 62
     7
370
     0
100
AcDbSpline
210
0.0
220
0.0
230
1.0
 70
     8
 71
     3
 72
    14
 73
    10
 74
     0
 42
0.00000001
 43
0.00000001
 40
0.0
 40
0.0
 40
0.0
 40
0.0
 40
0.25
 40
0.25
 40
0.5
 40
0.5
 40
0.75
 40
0.75
 40
1.0
 40
1.0
 40
1.0
 40
1.0
 10
156.930943568345
 20
122.9261056631465
 30
0.0
 10
156.893731481375
 20
122.8932315631165
 30
0.0
 10
156.8579929253196
 20
122.861777468101
 30
0.0
 10
156.7964971961368
 20
122.7917421727765
 30
0.0
 10
156.7699903302007
 20
122.7526407640177
 30
0.0
 10
156.7602069897655
 20
122.6334622231564
 30
0.0
 10
156.7789901855748
 20
122.555177139747
 30
0.0
 10
156.8289087941602
 20
122.4015335204653
 30
0.0
 10
156.8597175285755
 20
122.3243800507403
 30
0.0
 10
156.8919884348604
 20
122.248253669625
 30
0.0
  0
SPLINE
  5
128
330
1F
100
AcDbEntity
  8
0
  6
HIDDEN
 62
     7
370
     0
100
AcDbSpline
210
0.0
220
0.0
230
1.0
 70
     8
 71
     3
 72
     8
 73
     4
 74
     0
 42
0.00000001
 43
0.00000001
 40
0.0
 40
0.0
 40
0.0
 40
0.0
 40
0.000159097695343
 40
0.000159097695343
 40
0.000159097695343
 40
0.000159097695343
 10
91.26343079757395
 20
98.24229731972427
 30
0.0
 10
91.2183793270696
 20
98.21431843540049
 30
0.0
 10
91.1733232886548
 20
98.18634690502542
 30
0.0
 10
91.12826278835593
 20
98.1583825656729
 30
0.0
  0
SPLINE
  5
129
330
1F
100
AcDbEntity
  8
0
  6
HIDDEN
 62
     7
370
     0
100
AcDbSpline
210
0.0
220
0.0
230
1.0
 70
     8
 71
     3
 72
    11
 73
     7
 74
     0
 42
0.00000001
 43
0.00000001
 40
0.0
 40
0.0
 40
0.0
 40
0.0
 40
0.0008212909311456
 40
0.0008212909311456
 40
0.0008212909311456
 40
0.001642825724306
 40
0.001642825724306
 40
0.001642825724306
 40
0.001642825724306
 10
91.12826278835593
 20
98.1583825656729
 30
0.0
 10
90.93711776687374
 20
98.11509637682033
 30
0.0
 10
90.74569943119727
 20
98.07415986718307
 30
0.0
 10
90.55405335653613
 20
98.03555809579647
 30
0.0
 10
90.36235027499454
 20
97.99694484195939
 30
0.0
 10
90.17040515170902
 20
97.96066463267339
 30
0.0
 10
89.97826278835585
 20
97.92669772632188
 30
0.0
  0
LINE
  5
12A
330
1F
100
AcDbEntity
  8
0
  6
HIDDEN
 62
     7
370
     0
100
AcDbLine
 10
137.9682627884
 20
134.2295708832
 30
0.0
 11
137.9682627884
 21
133.8937877558
 31
0.0
  0
LINE
  5
12B
330
1F
100
AcDbEntity
  8
0
  6
HIDDEN
 62
     7
370
     0
100
AcDbLine
 10
141.7882627884
 20
134.2295708831
 30
0.0
 11
141.7882627884
 21
133.8937877558
 31
0.0
  0
LINE
  5
12C
330
1F
100
AcDbEntity
  8
0
  6
HIDDEN
 62
     7
370
     0
100
AcDbLine
 10
143.2701956198
 20
138.5024774181
 30
0.0
 11
143.2701956198
 21
133.8937877558
 31
0.0
  0
ARC
  5
12D
330
1F
100
AcDbEntity
  8
0
  6
HIDDEN
 62
     7
370
     0
100
AcDbCircle
 10
173.0806131443
 20
123.3390720743
 30
0.0
 40
16.19657666844295
100
AcDbArc
 50
175.6383567447
 51
178.2045188482
  0
ARC
  5
12E
330
1F
100
AcDbEntity
  8
0
  6
HIDDEN
 62
     7
370
     0
100
AcDbCircle
 10
143.7828486692
 20
123.3416615379
 30
0.0
 40
13.15466024505318
100
AcDbArc
 50
355.2321065486
 51
358.189724466
  0
SPLINE
  5
12F
330
1F
100
AcDbEntity
  8
0
  6
HIDDEN
 62
     7
370
     0
100
AcDbSpline
210
0.0
220
0.0
230
1.0
 70
     8
 71
     3
 72
    11
 73
     7
 74
     0
 42
0.00000001
 43
0.00000001
 40
0.0
 40
0.0
 40
0.0
 40
0.0
 40
0.0005781862223978
 40
0.0005781862223978
 40
0.0005781862223978
 40
0.0011563724723928
 40
0.0011563724723928
 40
0.0011563724723928
 40
0.0011563724723928
 10
90.9782627883559
 20
126.6839300628027
 30
0.0
 10
90.8116022340803
 20
126.7484595742162
 30
0.0
 10
90.64493893717382
 20
126.81296227806
 30
0.0
 10
90.47827235334357
 20
126.8774487264937
 30
0.0
 10
90.3116057610845
 20
126.9419351781886
 30
0.0
 10
90.14493589545862
 20
127.0064051869167
 30
0.0
 10
89.97826278835588
 20
127.0708609536493
 30
0.0
  0
SPLINE
  5
130
330
1F
100
AcDbEntity
  8
0
  6
HIDDEN
 62
     7
370
     0
100
AcDbSpline
210
0.0
220
0.0
230
1.0
 70
     8
 71
     3
 72
    11
 73
     7
 74
     0
 42
0.00000001
 43
0.00000001
 40
0.0
 40
0.0
 40
0.0
 40
0.0
 40
0.0005778746105108
 40
0.0005778746105108
 40
0.0005778746105108
 40
0.0011557494857226
 40
0.0011557494857226
 40
0.0011557494857226
 40
0.0011557494857226
 10
89.97826278835589
 20
101.016565900266
 30
0.0
 10
90.14492966476922
 20
101.0823780269599
 30
0.0
 10
90.3115963843307
 20
101.1482365070975
 30
0.0
 10
90.47826303237935
 20
101.2141440800281
 30
0.0
 10
90.64492975689801
 20
101.2800516831985
 30
0.0
 10
90.8115964513186
 20
101.346008791587
 30
0.0
 10
90.9782627883559
 20
101.4120105315097
 30
0.0
  0
SPLINE
  5
131
330
1F
100
AcDbEntity
  8
0
  6
HIDDEN
 62
     7
370
     0
100
AcDbSpline
210
0.0
220
0.0
230
1.0
 70
     8
 71
     3
 72
    11
 73
     7
 74
     0
 42
0.00000001
 43
0.00000001
 40
0.0000000000000006
 40
0.0000000000000006
 40
0.0000000000000006
 40
0.0000000000000006
 40
0.0005780486062768
 40
0.0005780486062768
 40
0.0005780486062768
 40
0.0011560973514127
 40
0.0011560973514127
 40
0.0011560973514127
 40
0.0011560973514127
 10
89.97826278835589
 20
124.0246022574477
 30
0.0
 10
90.14493264440082
 20
123.9622303959332
 30
0.0
 10
90.31160034848509
 20
123.8998765356355
 30
0.0
 10
90.47826665293873
 20
123.8375569754494
 30
0.0
 10
90.64493299363247
 20
123.7752374017125
 30
0.0
 10
90.81159795026126
 20
123.7129521973929
 30
0.0
 10
90.9782627883559
 20
123.6507270768242
 30
0.0
  0
SPLINE
  5
132
330
1F
100
AcDbEntity
  8
0
  6
HIDDEN
 62
     7
370
     0
100
AcDbSpline
210
0.0
220
0.0
230
1.0
 70
     8
 71
     3
 72
    11
 73
     7
 74
     0
 42
0.00000001
 43
0.00000001
 40
0.0
 40
0.0
 40
0.0
 40
0.0
 40
0.0005782401583533
 40
0.0005782401583533
 40
0.0005782401583533
 40
0.0011564805960993
 40
0.0011564805960993
 40
0.0011564805960993
 40
0.0011564805960993
 10
90.9782627883559
 20
104.4429609633583
 30
0.0
 10
90.81161183800701
 20
104.3795355052975
 30
0.0
 10
90.64495224542435
 20
104.3161799816422
 30
0.0
 10
90.4782851929958
 20
104.2528823972922
 30
0.0
 10
90.31161805643198
 20
104.189584780989
 30
0.0
 10
90.14494344898594
 20
104.1263449860483
 30
0.0
 10
89.97826278835586
 20
104.0631449794095
 30
0.0
  0
CIRCLE
  5
133
330
1F
100
AcDbEntity
  8
0
  6
HIDDEN
 62
     7
370
     0
100
AcDbCircle
 10
128.8782627884
 20
114.0437877558
 30
0.0
 40
5.000000000000014
  0
LWPOLYLINE
  5
134
330
1F
100
AcDbEntity
  8
0
  6
HIDDEN
 62
     7
370
     0
100
AcDbPolyline
 90
        3
 70
   128
 43
0.0
 10
182.3275382579
 20
108.5664663598
 10
183.154225455
 20
109.0170523731
 10
183.747565319
 20
109.4581037363
  0
ARC
  5
135
330
1F
100
AcDbEntity
  8
0
  6
HIDDEN
 62
     7
370
     0
100
AcDbCircle
 10
179.8782627884
 20
114.0437877558
 30
0.0
 40
6.000000000000029
100
AcDbArc
 50
221.4835821295
 51
294.0926011172
  0
CIRCLE
  5
136
330
1F
100
AcDbEntity
  8
0
  6
HIDDEN
 62
     7
370
     0
100
AcDbCircle
 10
179.8782627884
 20
114.0437877558
 30
0.0
 40
2.750000000000003
  0
CIRCLE
  5
137
330
1F
100
AcDbEntity
  8
0
  6
HIDDEN
 62
     7
370
     0
100
AcDbCircle
 10
179.8782627884
 20
114.0437877558
 30
0.0
 40
3.999999999999992
  0
LWPOLYLINE
  5
138
330
1F
100
AcDbEntity
  8
0
  6
HIDDEN
 62
     7
370
     0
100
AcDbPolyline
 90
       21
 70
   128
 43
0.0
 10
196.3609479542
 20
106.1477133596
 10
196.354345109
 20
106.5763516587
 10
196.3533808313
 20
106.9250986586
 10
196.3581495113
 20
107.1598165731
 10
196.3681843575
 20
107.2575295773
 10
196.382503089
 20
107.2086728416
 10
196.3997040888
 20
107.0180288036
 10
196.4181036032
 20
106.7042590301
 10
196.4359005594
 20
106.2980774927
 10
196.4513528673
 20
105.8392440703
 10
196.4629479475
 20
105.3726725752
 10
196.4695507927
 20
104.9440342761
 10
196.4705150704
 20
104.5952872761
 10
196.4657463904
 20
104.3605693617
 10
196.4557115442
 20
104.2628563575
 10
196.4413928127
 20
104.3117130932
 10
196.4241918129
 20
104.5023571312
 10
196.4057922985
 20
104.8161269047
 10
196.3879953423
 20
105.2223084421
 10
196.3725430344
 20
105.6811418645
 10
196.3609479542
 20
106.1477133596
  0
LWPOLYLINE
  5
139
330
1F
100
AcDbEntity
  8
0
  6
HIDDEN
 62
     7
370
     0
100
AcDbPolyline
 90
       17
 70
   128
 43
0.0
 10
195.8783334349
 20
106.0046594546
 10
195.8734094901
 20
106.3545334656
 10
195.8744113628
 20
106.6118113522
 10
195.8811865268
 20
106.7373248883
 10
195.8927035249
 20
106.7119657759
 10
195.9072089985
 20
106.5395947099
 10
195.9224946208
 20
106.2464536226
 10
195.9362332943
 20
105.8771705872
 10
195.9463334305
 20
105.4879655983
 10
195.9512573753
 20
105.1380915872
 10
195.9502555027
 20
104.8808137007
 10
195.9434803387
 20
104.7553001646
 10
195.9319633406
 20
104.780659277
 10
195.917457867
 20
104.953030343
 10
195.9021722447
 20
105.2461714303
 10
195.8884335712
 20
105.6154544657
 10
195.8783334349
 20
106.0046594546
  0
LWPOLYLINE
  5
13A
330
1F
100
AcDbEntity
  8
0
  6
HIDDEN
 62
     7
370
     0
100
AcDbPolyline
 90
       21
 70
   128
 43
0.0
 10
201.6948857581
 20
106.2959024257
 10
201.6882829129
 20
106.7245407248
 10
201.6873186352
 20
107.0732877247
 10
201.6920873152
 20
107.3080056392
 10
201.7021221613
 20
107.4057186434
 10
201.7164408929
 20
107.3568619077
 10
201.7336418927
 20
107.1662178697
 10
201.7520414071
 20
106.8524480962
 10
201.7698383632
 20
106.4462665588
 10
201.7852906712
 20
105.9874331364
 10
201.7968857514
 20
105.5208616413
 10
201.8034885966
 20
105.0922233422
 10
201.8044528743
 20
104.7434763423
 10
201.7996841943
 20
104.5087584278
 10
201.7896493481
 20
104.4110454236
 10
201.7753306166
 20
104.4599021593
 10
201.7581296168
 20
104.6505461973
 10
201.7397301024
 20
104.9643159708
 10
201.7219331462
 20
105.3704975082
 10
201.7064808383
 20
105.8293309306
 10
201.6948857581
 20
106.2959024257
  0
LWPOLYLINE
  5
13B
330
1F
100
AcDbEntity
  8
0
  6
HIDDEN
 62
     7
370
     0
100
AcDbPolyline
 90
        6
 70
   128
 43
0.0
 10
201.8662446529
 20
106.227931897
 10
201.8605576693
 20
106.6116995674
 10
201.8605576693
 20
106.9111790212
 10
201.8662446529
 20
107.0902486167
 10
201.8769326858
 20
107.1273099176
 10
201.8782627884
 20
107.1227550116
  0
ARC
  5
13C
330
1F
100
AcDbEntity
  8
0
  6
HIDDEN
 62
     7
370
     0
100
AcDbCircle
 10
213.5256788843
 20
106.0448484061
 30
0.0
 40
11.66087158670243
100
AcDbArc
 50
179.1003809383
 51
186.645886576
  0
LINE
  5
13D
330
1F
100
AcDbEntity
  8
0
  6
HIDDEN
 62
     7
370
     0
100
AcDbLine
 10
201.9077076502
 20
106.5252502538
 30
0.0
 11
201.937152512
 21
105.6891428154
 31
0.0
  0
LINE
  5
13E
330
1F
100
AcDbEntity
  8
0
  6
HIDDEN
 62
     7
370
     0
100
AcDbLine
 10
199.9092495777
 20
106.4697284899
 30
0.0
 11
199.9386944395
 21
105.6336210515
 31
0.0
  0
LINE
  5
13F
330
1F
100
AcDbEntity
  8
0
  6
HIDDEN
 62
     7
370
     0
100
AcDbLine
 10
199.9386944395
 20
105.0212486158
 30
0.0
 11
199.9386944395
 21
105.6336210515
 31
0.0
  0
LINE
  5
140
330
1F
100
AcDbEntity
  8
0
  6
HIDDEN
 62
     7
370
     0
100
AcDbLine
 10
199.9386944395
 20
105.6336210515
 30
0.0
 11
201.937152512
 21
105.6891428154
 31
0.0
  0
LINE
  5
141
330
1F
100
AcDbEntity
  8
0
  6
HIDDEN
 62
     7
370
     0
100
AcDbLine
 10
201.937152512
 20
105.0767703797
 30
0.0
 11
201.937152512
 21
105.6891428154
 31
0.0
  0
LINE
  5
142
330
1F
100
AcDbEntity
  8
0
  6
HIDDEN
 62
     7
370
     0
100
AcDbLine
 10
199.8798047159
 20
106.6934634927
 30
0.0
 11
199.9092495777
 21
106.4697284899
 31
0.0
  0
LINE
  5
143
330
1F
100
AcDbEntity
  8
0
  6
HIDDEN
 62
     7
370
     0
100
AcDbLine
 10
199.9092495777
 20
106.4697284899
 30
0.0
 11
201.9077076502
 21
106.5252502538
 31
0.0
  0
LINE
  5
144
330
1F
100
AcDbEntity
  8
0
  6
HIDDEN
 62
     7
370
     0
100
AcDbLine
 10
201.8782627884
 20
106.7489852566
 30
0.0
 11
201.9077076502
 21
106.5252502538
 31
0.0
  0
LINE
  5
145
330
1F
100
AcDbEntity
  8
0
  6
HIDDEN
 62
     7
370
     0
100
AcDbLine
 10
199.9092495777
 20
105.2449836185
 30
0.0
 11
201.9077076502
 21
105.3005053824
 31
0.0
  0
LINE
  5
146
330
1F
100
AcDbEntity
  8
0
  6
HIDDEN
 62
     7
370
     0
100
AcDbLine
 10
199.9386944395
 20
105.0212486158
 30
0.0
 11
201.937152512
 21
105.0767703797
 31
0.0
  0
LINE
  5
147
330
1F
100
AcDbEntity
  8
0
  6
HIDDEN
 62
     7
370
     0
100
AcDbLine
 10
199.9092495777
 20
105.2449836185
 30
0.0
 11
199.9386944395
 21
105.0212486158
 31
0.0
  0
LINE
  5
148
330
1F
100
AcDbEntity
  8
0
  6
HIDDEN
 62
     7
370
     0
100
AcDbLine
 10
201.9077076502
 20
105.3005053824
 30
0.0
 11
201.937152512
 21
105.0767703797
 31
0.0
  0
LINE
  5
149
330
1F
100
AcDbEntity
  8
0
  6
HIDDEN
 62
     7
370
     0
100
AcDbLine
 10
199.8798047159
 20
106.081091057
 30
0.0
 11
201.8782627884
 21
106.1366128209
 31
0.0
  0
LINE
  5
14A
330
1F
100
AcDbEntity
  8
0
  6
HIDDEN
 62
     7
370
     0
100
AcDbLine
 10
199.8798047159
 20
106.6934634927
 30
0.0
 11
201.8782627884
 21
106.7489852566
 31
0.0
  0
LINE
  5
14B
330
1F
100
AcDbEntity
  8
0
  6
HIDDEN
 62
     7
370
     0
100
AcDbLine
 10
199.8798047159
 20
106.6934634927
 30
0.0
 11
199.8798047159
 21
106.081091057
 31
0.0
  0
LINE
  5
14C
330
1F
100
AcDbEntity
  8
0
  6
HIDDEN
 62
     7
370
     0
100
AcDbLine
 10
199.9092495777
 20
105.2449836185
 30
0.0
 11
199.8798047159
 21
106.081091057
 31
0.0
  0
LINE
  5
14D
330
1F
100
AcDbEntity
  8
0
  6
HIDDEN
 62
     7
370
     0
100
AcDbLine
 10
201.9077076502
 20
105.3005053824
 30
0.0
 11
201.8782627884
 21
106.1366128209
 31
0.0
  0
LWPOLYLINE
  5
14E
330
1F
100
AcDbEntity
  8
0
  6
HIDDEN
 62
     7
370
     0
100
AcDbPolyline
 90
        6
 70
   128
 43
0.0
 10
201.8073549292
 20
120.9989629869
 10
201.8180429622
 20
120.9619016859
 10
201.83244291
 20
121.0713188192
 10
201.8488179265
 20
121.3140170658
 10
201.865192943
 20
121.6607234351
 10
201.8782627884
 20
122.0262990332
  0
ARC
  5
14F
330
1F
100
AcDbEntity
  8
0
  6
HIDDEN
 62
     7
370
     0
100
AcDbCircle
 10
224.2822300817
 20
121.5260741931
 30
0.0
 40
22.48105556555635
100
AcDbArc
 50
175.2537827255
 51
181.3435319028
  0
LWPOLYLINE
  5
150
330
1F
100
AcDbEntity
  8
0
  6
HIDDEN
 62
     7
370
     0
100
AcDbPolyline
 90
       21
 70
   128
 43
0.0
 10
201.6359960344
 20
120.732649006
 10
201.6475911146
 20
120.6834324365
 10
201.6630434226
 20
120.7807915313
 10
201.6808403788
 20
121.015196104
 10
201.6992398931
 20
121.3637010018
 10
201.7164408929
 20
121.7921921371
 10
201.7307596245
 20
122.2587258122
 10
201.7407944706
 20
122.7176344603
 10
201.7455631507
 20
123.1239969057
 10
201.744598873
 20
123.4380355608
 10
201.7379960278
 20
123.629010134
 10
201.7264009476
 20
123.6782267036
 10
201.7109486396
 20
123.5808676088
 10
201.6931516834
 20
123.3464630361
 10
201.6747521691
 20
122.9979581383
 10
201.6575511693
 20
122.569467003
 10
201.6432324377
 20
122.1029333279
 10
201.6331975916
 20
121.6440246798
 10
201.6284289115
 20
121.2376622344
 10
201.6293931892
 20
120.9236235793
 10
201.6359960344
 20
120.732649006
  0
LWPOLYLINE
  5
151
330
1F
100
AcDbEntity
  8
0
  6
HIDDEN
 62
     7
370
     0
100
AcDbPolyline
 90
       21
 70
   128
 43
0.0
 10
196.3020582305
 20
120.8808380721
 10
196.3136533107
 20
120.8316215026
 10
196.3291056187
 20
120.9289805974
 10
196.3469025749
 20
121.1633851701
 10
196.3653020892
 20
121.5118900679
 10
196.382503089
 20
121.9403812032
 10
196.3968218206
 20
122.4069148783
 10
196.4068566667
 20
122.8658235264
 10
196.4116253468
 20
123.2721859718
 10
196.4106610691
 20
123.5862246269
 10
196.4040582239
 20
123.7771992002
 10
196.3924631437
 20
123.8264157697
 10
196.3770108357
 20
123.7290566749
 10
196.3592138795
 20
123.4946521022
 10
196.3408143652
 20
123.1461472044
 10
196.3236133654
 20
122.7176560691
 10
196.3092946338
 20
122.251122394
 10
196.2992597877
 20
121.7922137459
 10
196.2944911076
 20
121.3858513005
 10
196.2954553853
 20
121.0718126454
 10
196.3020582305
 20
120.8808380721
  0
LWPOLYLINE
  5
152
330
1F
100
AcDbEntity
  8
0
  6
HIDDEN
 62
     7
370
     0
100
AcDbPolyline
 90
       17
 70
   128
 43
0.0
 10
195.8194437113
 20
121.3774453678
 10
195.8295438475
 20
121.3517860843
 10
195.8432825211
 20
121.4770147695
 10
195.8585681434
 20
121.7340664913
 10
195.873073617
 20
122.0838074552
 10
195.8845906151
 20
122.4729927698
 10
195.8913657791
 20
122.8423724991
 10
195.8923676517
 20
123.1357119276
 10
195.8874437069
 20
123.3083527865
 10
195.8773435706
 20
123.33401207
 10
195.8636048971
 20
123.2087833848
 10
195.8483192748
 20
122.951731663
 10
195.8338138012
 20
122.6019906991
 10
195.8222968031
 20
122.2128053844
 10
195.8155216391
 20
121.8434256552
 10
195.8145197665
 20
121.5500862267
 10
195.8194437113
 20
121.3774453678
  0
LINE
  5
153
330
1F
100
AcDbEntity
  8
0
  6
HIDDEN
 62
     7
370
     0
100
AcDbLine
 10
201.8488179265
 20
122.7887062211
 30
0.0
 11
201.8782627884
 21
123.0124412239
 31
0.0
  0
LINE
  5
154
330
1F
100
AcDbEntity
  8
0
  6
HIDDEN
 62
     7
370
     0
100
AcDbLine
 10
201.8193730647
 20
121.9525987827
 30
0.0
 11
201.8488179265
 21
122.7887062211
 31
0.0
  0
LINE
  5
155
330
1F
100
AcDbEntity
  8
0
  6
HIDDEN
 62
     7
370
     0
100
AcDbLine
 10
201.8193730647
 20
121.9525987827
 30
0.0
 11
201.8193730647
 21
121.340226347
 31
0.0
  0
LINE
  5
156
330
1F
100
AcDbEntity
  8
0
  6
HIDDEN
 62
     7
370
     0
100
AcDbLine
 10
201.8488179265
 20
121.5639613497
 30
0.0
 11
201.8193730647
 21
121.340226347
 31
0.0
  0
LINE
  5
157
330
1F
100
AcDbEntity
  8
0
  6
HIDDEN
 62
     7
370
     0
100
AcDbLine
 10
201.8488179265
 20
121.5639613497
 30
0.0
 11
201.8782627884
 21
122.4000687882
 31
0.0
  0
LINE
  5
158
330
1F
100
AcDbEntity
  8
0
  6
HIDDEN
 62
     7
370
     0
100
AcDbLine
 10
199.8209149922
 20
122.0081205466
 30
0.0
 11
199.8503598541
 21
122.844227985
 31
0.0
  0
LINE
  5
159
330
1F
100
AcDbEntity
  8
0
  6
HIDDEN
 62
     7
370
     0
100
AcDbLine
 10
199.8503598541
 20
122.844227985
 30
0.0
 11
199.8798047159
 21
123.0679629878
 31
0.0
  0
LINE
  5
15A
330
1F
100
AcDbEntity
  8
0
  6
HIDDEN
 62
     7
370
     0
100
AcDbLine
 10
199.8798047159
 20
122.4555905521
 30
0.0
 11
199.8798047159
 21
123.0679629878
 31
0.0
  0
LINE
  5
15B
330
1F
100
AcDbEntity
  8
0
  6
HIDDEN
 62
     7
370
     0
100
AcDbLine
 10
199.8503598541
 20
121.6194831136
 30
0.0
 11
199.8798047159
 21
122.4555905521
 31
0.0
  0
LINE
  5
15C
330
1F
100
AcDbEntity
  8
0
  6
HIDDEN
 62
     7
370
     0
100
AcDbLine
 10
199.8503598541
 20
121.6194831136
 30
0.0
 11
199.8209149922
 21
121.3957481109
 31
0.0
  0
LINE
  5
15D
330
1F
100
AcDbEntity
  8
0
  6
HIDDEN
 62
     7
370
     0
100
AcDbLine
 10
199.8209149922
 20
122.0081205466
 30
0.0
 11
199.8209149922
 21
121.3957481109
 31
0.0
  0
LINE
  5
15E
330
1F
100
AcDbEntity
  8
0
  6
HIDDEN
 62
     7
370
     0
100
AcDbLine
 10
199.8209149922
 20
122.0081205466
 30
0.0
 11
201.8193730647
 21
121.9525987827
 31
0.0
  0
LINE
  5
15F
330
1F
100
AcDbEntity
  8
0
  6
HIDDEN
 62
     7
370
     0
100
AcDbLine
 10
199.8503598541
 20
122.844227985
 30
0.0
 11
201.8488179265
 21
122.7887062211
 31
0.0
  0
LINE
  5
160
330
1F
100
AcDbEntity
  8
0
  6
HIDDEN
 62
     7
370
     0
100
AcDbLine
 10
199.8503598541
 20
121.6194831136
 30
0.0
 11
201.8488179265
 21
121.5639613497
 31
0.0
  0
LINE
  5
161
330
1F
100
AcDbEntity
  8
0
  6
HIDDEN
 62
     7
370
     0
100
AcDbLine
 10
199.8209149922
 20
121.3957481109
 30
0.0
 11
201.8193730647
 21
121.340226347
 31
0.0
  0
LINE
  5
162
330
1F
100
AcDbEntity
  8
0
  6
HIDDEN
 62
     7
370
     0
100
AcDbLine
 10
199.8798047159
 20
122.4555905521
 30
0.0
 11
201.8782627884
 21
122.4000687882
 31
0.0
  0
LINE
  5
163
330
1F
100
AcDbEntity
  8
0
  6
HIDDEN
 62
     7
370
     0
100
AcDbLine
 10
199.8798047159
 20
123.0679629878
 30
0.0
 11
201.8782627884
 21
123.0124412239
 31
0.0
  0
LINE
  5
164
330
1F
100
AcDbEntity
  8
0
  6
HIDDEN
 62
     7
370
     0
100
AcDbLine
 10
125.8782627884
 20
128.3437322159
 30
0.0
 11
125.8782627884
 21
126.4377283986
 31
0.0
  0
LINE
  5
165
330
1F
100
AcDbEntity
  8
0
  6
HIDDEN
 62
     7
370
     0
100
AcDbLine
 10
133.8782627884
 20
126.4377283986
 30
0.0
 11
133.8782627884
 21
128.3444528598
 31
0.0
  0
LINE
  5
166
330
1F
100
AcDbEntity
  8
0
  6
HIDDEN
 62
     7
370
     0
100
AcDbLine
 10
121.8782627884
 20
88.7198566098
 30
0.0
 11
121.9724235639
 21
89.389845341
 31
0.0
  0
LINE
  5
167
330
1F
100
AcDbEntity
  8
0
  6
HIDDEN
 62
     7
370
     0
100
AcDbLine
 10
121.9724235639
 20
138.6977301705
 30
0.0
 11
121.8782627884
 21
139.3677189017
 31
0.0
  0
ARC
  5
168
330
1F
100
AcDbEntity
  8
0
  6
HIDDEN
 62
     7
370
     0
100
AcDbCircle
 10
121.3782560357
 20
89.4733501414
 30
0.0
 40
0.6000067526677203
100
AcDbArc
 50
352.0
 51
0.0
  0
ARC
  5
169
330
1F
100
AcDbEntity
  8
0
  6
HIDDEN
 62
     7
370
     0
100
AcDbCircle
 10
121.3782560357
 20
89.4733501414
 30
0.0
 40
0.6000067526677164
100
AcDbArc
 50
0.0
 51
33.5571153394
  0
ARC
  5
16A
330
1F
100
AcDbEntity
  8
0
  6
HIDDEN
 62
     7
370
     0
100
AcDbCircle
 10
121.3782560357
 20
138.6142253701
 30
0.0
 40
0.6000067526677183
100
AcDbArc
 50
348.75
 51
8.0
  0
LWPOLYLINE
  5
16B
330
1F
100
AcDbEntity
  8
0
  6
HIDDEN
 62
     7
370
     0
100
AcDbPolyline
 90
        3
 70
   128
 43
0.0
 10
121.9667338268
 20
138.4971698596
 10
121.9325899938
 20
138.3846127266
 10
121.8782627884
 20
138.2825608551
  0
LINE
  5
16C
330
1F
100
AcDbEntity
  8
0
  6
HIDDEN
 62
     7
370
     0
100
AcDbLine
 10
121.9782627884
 20
89.4733501414
 30
0.0
 11
121.9782627884
 21
138.6142253701
 31
0.0
  0
LINE
  5
16D
330
1F
100
AcDbEntity
  8
0
  6
HIDDEN
 62
     7
370
     0
100
AcDbLine
 10
104.9606983537
 20
94.0437877558
 30
0.0
 11
109.13823493
 21
94.0437877558
 31
0.0
  0
LINE
  5
16E
330
1F
100
AcDbEntity
  8
0
  6
HIDDEN
 62
     7
370
     0
100
AcDbLine
 10
109.13823493
 20
134.0437877558
 30
0.0
 11
104.9606983537
 21
134.0437877558
 31
0.0
  0
ARC
  5
16F
330
1F
100
AcDbEntity
  8
0
  6
HIDDEN
 62
     7
370
     0
100
AcDbCircle
 10
115.63326479
 20
102.0437877558
 30
0.0
 40
8.000000000000002
100
AcDbArc
 50
277.0480948018
 51
321.3178125465
  0
ARC
  5
170
330
1F
100
AcDbEntity
  8
0
  6
HIDDEN
 62
     7
370
     0
100
AcDbCircle
 10
115.63326479
 20
126.0437877558
 30
0.0
 40
7.999999999999998
100
AcDbArc
 50
38.6821874535
 51
82.9418950986
  0
ARC
  5
171
330
1F
100
AcDbEntity
  8
0
  6
HIDDEN
 62
     7
370
     0
100
AcDbCircle
 10
104.9606983537
 20
94.6437877558
 30
0.0
 40
0.6000000000000085
100
AcDbArc
 50
210.0
 51
270.0
  0
ARC
  5
172
330
1F
100
AcDbEntity
  8
0
  6
HIDDEN
 62
     7
370
     0
100
AcDbCircle
 10
104.9606983537
 20
133.4437877558
 30
0.0
 40
0.599999999999989
100
AcDbArc
 50
90.0
 51
150.0
  0
LINE
  5
173
330
1F
100
AcDbEntity
  8
0
  6
HIDDEN
 62
     7
370
     0
100
AcDbLine
 10
104.4410831114
 20
133.7437877558
 30
0.0
 11
102.8822373846
 21
131.0437877558
 31
0.0
  0
LINE
  5
174
330
1F
100
AcDbEntity
  8
0
  6
HIDDEN
 62
     7
370
     0
100
AcDbLine
 10
102.8822373846
 20
97.0437877558
 30
0.0
 11
104.4410831114
 21
94.3437877558
 31
0.0
  0
LINE
  5
175
330
1F
100
AcDbEntity
  8
0
  6
HIDDEN
 62
     7
370
     0
100
AcDbLine
 10
125.8782627884
 20
141.3221453036
 30
0.0
 11
125.8782627884
 21
137.9893901704
 31
0.0
  0
LINE
  5
176
330
1F
100
AcDbEntity
  8
0
  6
HIDDEN
 62
     7
370
     0
100
AcDbLine
 10
133.8782627884
 20
137.9893901704
 30
0.0
 11
133.8782627884
 21
141.3235199929
 31
0.0
  0
ARC
  5
177
330
1F
100
AcDbEntity
  8
0
  6
HIDDEN
 62
     7
370
     0
100
AcDbCircle
 10
130.3282627884
 20
98.3187877558
 30
0.0
 40
1.5
100
AcDbArc
 50
238.2116693829
 51
0.0
  0
ARC
  5
178
330
1F
100
AcDbEntity
  8
0
  6
HIDDEN
 62
     7
370
     0
100
AcDbCircle
 10
130.3282627884
 20
129.7687877558
 30
0.0
 40
1.5
100
AcDbArc
 50
0.0
 51
121.7883306171
  0
LINE
  5
179
330
1F
100
AcDbEntity
  8
0
  6
HIDDEN
 62
     7
370
     0
100
AcDbLine
 10
121.8782627884
 20
97.0437877558
 30
0.0
 11
129.5380887569
 21
97.0437877558
 31
0.0
  0
LINE
  5
17A
330
1F
100
AcDbEntity
  8
0
  6
HIDDEN
 62
     7
370
     0
100
AcDbLine
 10
129.5380887569
 20
131.0437877558
 30
0.0
 11
121.8782627884
 21
131.0437877558
 31
0.0
  0
LINE
  5
17B
330
1F
100
AcDbEntity
  8
0
  6
HIDDEN
 62
     7
370
     0
100
AcDbLine
 10
100.0782627884
 20
97.0437877558
 30
0.0
 11
102.8822373846
 21
97.0437877558
 31
0.0
  0
LINE
  5
17C
330
1F
100
AcDbEntity
  8
0
  6
HIDDEN
 62
     7
370
     0
100
AcDbLine
 10
102.8822373846
 20
131.0437877558
 30
0.0
 11
96.0782627884
 21
131.0437877558
 31
0.0
  0
LINE
  5
17D
330
1F
100
AcDbEntity
  8
0
  6
HIDDEN
 62
     7
370
     0
100
AcDbLine
 10
159.3782627884
 20
105.6141429121
 30
0.0
 11
159.3782627884
 21
108.964788178
 31
0.0
  0
LINE
  5
17E
330
1F
100
AcDbEntity
  8
0
  6
HIDDEN
 62
     7
370
     0
100
AcDbLine
 10
159.3782627884
 20
103.5786073942
 30
0.0
 11
159.3782627884
 21
103.8486567812
 31
0.0
  0
LINE
  5
17F
330
1F
100
AcDbEntity
  8
0
  6
HIDDEN
 62
     7
370
     0
100
AcDbLine
 10
156.3782627884
 20
104.4102101714
 30
0.0
 11
156.3782627884
 21
103.5786073942
 31
0.0
  0
LINE
  5
180
330
1F
100
AcDbEntity
  8
0
  6
HIDDEN
 62
     7
370
     0
100
AcDbLine
 10
156.3782627884
 20
108.882522652
 30
0.0
 11
156.3782627884
 21
104.9201153631
 31
0.0
  0
LINE
  5
181
330
1F
100
AcDbEntity
  8
0
  6
HIDDEN
 62
     7
370
     0
100
AcDbLine
 10
159.0904313194
 20
103.4728330378
 30
0.0
 11
201.8782627884
 21
104.661577455
 31
0.0
  0
LINE
  5
182
330
1F
100
AcDbEntity
  8
0
  6
HIDDEN
 62
     7
370
     0
100
AcDbLine
 10
201.8782627884
 20
107.1625420892
 30
0.0
 11
159.0900281042
 21
105.9737864697
 31
0.0
  0
LINE
  5
183
330
1F
100
AcDbEntity
  8
0
  6
HIDDEN
 62
     7
370
     0
100
AcDbLine
 10
156.4059077398
 20
105.0745180587
 30
0.0
 11
156.1624594359
 21
104.6419695584
 31
0.0
  0
LINE
  5
184
330
1F
100
AcDbEntity
  8
0
  6
HIDDEN
 62
     7
370
     0
100
AcDbLine
 10
156.1624594359
 20
104.6419695584
 30
0.0
 11
156.4052439221
 21
104.2616746821
 31
0.0
  0
LINE
  5
185
330
1F
100
AcDbEntity
  8
0
  6
HIDDEN
 62
     7
370
     0
100
AcDbLine
 10
140.6782627884
 20
104.5437877558
 30
0.0
 11
143.6782627884
 21
104.5437877558
 31
0.0
  0
LINE
  5
186
330
1F
100
AcDbEntity
  8
0
  6
HIDDEN
 62
     7
370
     0
100
AcDbLine
 10
143.6782627884
 20
123.5437877558
 30
0.0
 11
140.6782627884
 21
123.5437877558
 31
0.0
  0
LINE
  5
187
330
1F
100
AcDbEntity
  8
0
  6
HIDDEN
 62
     7
370
     0
100
AcDbLine
 10
131.8282627884
 20
105.0437877558
 30
0.0
 11
132.3282627884
 21
105.5437877558
 31
0.0
  0
LINE
  5
188
330
1F
100
AcDbEntity
  8
0
  6
HIDDEN
 62
     7
370
     0
100
AcDbLine
 10
132.3282627884
 20
122.5437877558
 30
0.0
 11
131.8282627884
 21
123.0437877558
 31
0.0
  0
LINE
  5
189
330
1F
100
AcDbEntity
  8
0
  6
HIDDEN
 62
     7
370
     0
100
AcDbLine
 10
132.3282627884
 20
105.5437877558
 30
0.0
 11
140.6782627884
 21
105.5437877558
 31
0.0
  0
LINE
  5
18A
330
1F
100
AcDbEntity
  8
0
  6
HIDDEN
 62
     7
370
     0
100
AcDbLine
 10
140.6782627884
 20
122.5437877558
 30
0.0
 11
132.3282627884
 21
122.5437877558
 31
0.0
  0
LINE
  5
18B
330
1F
100
AcDbEntity
  8
0
  6
HIDDEN
 62
     7
370
     0
100
AcDbLine
 10
126.8282627884
 20
145.5437877558
 30
0.0
 11
126.8282627884
 21
140.4437877558
 31
0.0
  0
ARC
  5
18C
330
1F
100
AcDbEntity
  8
0
  6
HIDDEN
 62
     7
370
     0
100
AcDbCircle
 10
201.5782627884
 20
106.7437877558
 30
0.0
 40
0.2999999999999972
100
AcDbArc
 50
0.0
 51
90.0
  0
ARC
  5
18D
330
1F
100
AcDbEntity
  8
0
  6
HIDDEN
 62
     7
370
     0
100
AcDbCircle
 10
201.5782627884
 20
121.3437877558
 30
0.0
 40
0.2999999999999972
100
AcDbArc
 50
270.0
 51
0.0
  0
ARC
  5
18E
330
1F
100
AcDbEntity
  8
0
  6
HIDDEN
 62
     7
370
     0
100
AcDbCircle
 10
158.9834887702
 20
120.9437877558
 30
0.0
 40
0.4000000000000057
100
AcDbArc
 50
70.0
 51
90.0
  0
LINE
  5
18F
330
1F
100
AcDbEntity
  8
0
  6
HIDDEN
 62
     7
370
     0
100
AcDbLine
 10
156.2782627884
 20
106.7437877558
 30
0.0
 11
158.9834887702
 21
106.7437877558
 31
0.0
  0
LINE
  5
190
330
1F
100
AcDbEntity
  8
0
  6
HIDDEN
 62
     7
370
     0
100
AcDbLine
 10
158.9834887702
 20
121.3437877558
 30
0.0
 11
156.2782627884
 21
121.3437877558
 31
0.0
  0
ARC
  5
191
330
1F
100
AcDbEntity
  8
0
  6
HIDDEN
 62
     7
370
     0
100
AcDbCircle
 10
156.2782627884
 20
107.1437877558
 30
0.0
 40
0.4000000000000057
100
AcDbArc
 50
180.0
 51
270.0
  0
ARC
  5
192
330
1F
100
AcDbEntity
  8
0
  6
HIDDEN
 62
     7
370
     0
100
AcDbCircle
 10
156.2782627884
 20
120.9437877558
 30
0.0
 40
0.4000000000000057
100
AcDbArc
 50
90.0
 51
180.0
  0
LINE
  5
193
330
1F
100
AcDbEntity
  8
0
  6
HIDDEN
 62
     7
370
     0
100
AcDbLine
 10
159.1202968276
 20
106.7679107074
 30
0.0
 11
159.8782627884
 21
107.0437877558
 31
0.0
  0
LINE
  5
194
330
1F
100
AcDbEntity
  8
0
  6
HIDDEN
 62
     7
370
     0
100
AcDbLine
 10
159.8782627884
 20
121.0437877558
 30
0.0
 11
159.1202968276
 21
121.3196648041
 31
0.0
  0
LINE
  5
195
330
1F
100
AcDbEntity
  8
0
  6
HIDDEN
 62
     7
370
     0
100
AcDbLine
 10
159.8782627884
 20
107.0437877558
 30
0.0
 11
201.5782627884
 21
107.0437877558
 31
0.0
  0
LINE
  5
196
330
1F
100
AcDbEntity
  8
0
  6
HIDDEN
 62
     7
370
     0
100
AcDbLine
 10
201.5782627884
 20
121.0437877558
 30
0.0
 11
159.8782627884
 21
121.0437877558
 31
0.0
  0
ARC
  5
197
330
1F
100
AcDbEntity
  8
0
  6
HIDDEN
 62
     7
370
     0
100
AcDbCircle
 10
158.9834887702
 20
107.1437877558
 30
0.0
 40
0.4000000000000057
100
AcDbArc
 50
270.0
 51
290.0
  0
LINE
  5
198
330
1F
100
AcDbEntity
  8
0
  6
HIDDEN
 62
     7
370
     0
100
AcDbLine
 10
117.0627006188
 20
89.9644164222
 30
0.0
 11
116.6282684693
 21
90.4434824413
 31
0.0
  0
LINE
  5
199
330
1F
100
AcDbEntity
  8
0
  6
HIDDEN
 62
     7
370
     0
100
AcDbLine
 10
109.1282651443
 20
90.8651704004
 30
0.0
 11
108.6458314009
 21
90.386104425
 31
0.0
  0
LINE
  5
19A
330
1F
100
AcDbEntity
  8
0
  6
HIDDEN
 62
     7
370
     0
100
AcDbLine
 10
108.6457094727
 20
137.7014657961
 30
0.0
 11
109.1282602237
 21
137.2223455382
 31
0.0
  0
LINE
  5
19B
330
1F
100
AcDbEntity
  8
0
  6
HIDDEN
 62
     7
370
     0
100
AcDbLine
 10
116.6282626704
 20
137.6440433158
 30
0.0
 11
117.0628050607
 21
138.1231635664
 31
0.0
  0
LINE
  5
19C
330
1F
100
AcDbEntity
  8
0
  6
HIDDEN
 62
     7
370
     0
100
AcDbLine
 10
143.6782627884
 20
109.7937877558
 30
0.0
 11
155.8782627884
 21
109.7937877558
 31
0.0
  0
LINE
  5
19D
330
1F
100
AcDbEntity
  8
0
  6
HIDDEN
 62
     7
370
     0
100
AcDbLine
 10
155.8782627884
 20
118.2937877558
 30
0.0
 11
143.6782627884
 21
118.2937877558
 31
0.0
  0
LINE
  5
19E
330
1F
100
AcDbEntity
  8
0
  6
HIDDEN
 62
     7
370
     0
100
AcDbLine
 10
116.6282627884
 20
133.9808605818
 30
0.0
 11
116.6282627884
 21
137.6437520098
 31
0.0
  0
LINE
  5
19F
330
1F
100
AcDbEntity
  8
0
  6
HIDDEN
 62
     7
370
     0
100
AcDbLine
 10
109.1282627884
 20
137.2222017589
 30
0.0
 11
109.1282627884
 21
134.0419255102
 31
0.0
  0
LINE
  5
1A0
330
1F
100
AcDbEntity
  8
0
  6
HIDDEN
 62
     7
370
     0
100
AcDbLine
 10
116.6282627884
 20
90.443966343
 30
0.0
 11
116.6282627884
 21
94.1067149297
 31
0.0
  0
LINE
  5
1A1
330
1F
100
AcDbEntity
  8
0
  6
HIDDEN
 62
     7
370
     0
100
AcDbLine
 10
109.1282627884
 20
94.0456500013
 30
0.0
 11
109.1282627884
 21
90.8654936382
 31
0.0
  0
LINE
  5
1A2
330
1F
100
AcDbEntity
  8
0
  6
HIDDEN
 62
     7
370
     0
100
AcDbLine
 10
155.3282627884
 20
136.5437877558
 30
0.0
 11
156.3282627884
 21
135.9664374866
 31
0.0
  0
LINE
  5
1A3
330
1F
100
AcDbEntity
  8
0
  6
HIDDEN
 62
     7
370
     0
100
AcDbLine
 10
161.3282627884
 20
135.9664374866
 30
0.0
 11
162.3282627884
 21
136.5437877558
 31
0.0
  0
LINE
  5
1A4
330
1F
100
AcDbEntity
  8
0
  6
HIDDEN
 62
     7
370
     0
100
AcDbLine
 10
162.3282627884
 20
91.5437877558
 30
0.0
 11
161.3282627884
 21
92.1211380249
 31
0.0
  0
LINE
  5
1A5
330
1F
100
AcDbEntity
  8
0
  6
HIDDEN
 62
     7
370
     0
100
AcDbLine
 10
156.3282627884
 20
92.1211380249
 30
0.0
 11
155.3282627884
 21
91.5437877558
 31
0.0
  0
LINE
  5
1A6
330
1F
100
AcDbEntity
  8
0
  6
HIDDEN
 62
     7
370
     0
100
AcDbLine
 10
156.3282627884
 20
135.9664374866
 30
0.0
 11
156.3282627884
 21
124.5437877558
 31
0.0
  0
LINE
  5
1A7
330
1F
100
AcDbEntity
  8
0
  6
HIDDEN
 62
     7
370
     0
100
AcDbLine
 10
161.3282627884
 20
124.5437877558
 30
0.0
 11
161.3282627884
 21
135.9664374866
 31
0.0
  0
LINE
  5
1A8
330
1F
100
AcDbEntity
  8
0
  6
HIDDEN
 62
     7
370
     0
100
AcDbLine
 10
156.3282627884
 20
124.5437877558
 30
0.0
 11
158.8282627884
 21
123.0416362082
 31
0.0
  0
LINE
  5
1A9
330
1F
100
AcDbEntity
  8
0
  6
HIDDEN
 62
     7
370
     0
100
AcDbLine
 10
158.8282627884
 20
123.0416362082
 30
0.0
 11
161.3282627884
 21
124.5437877558
 31
0.0
  0
LINE
  5
1AA
330
1F
100
AcDbEntity
  8
0
  6
HIDDEN
 62
     7
370
     0
100
AcDbLine
 10
161.3282627884
 20
103.5437877558
 30
0.0
 11
158.8282627884
 21
105.0459393033
 31
0.0
  0
LINE
  5
1AB
330
1F
100
AcDbEntity
  8
0
  6
HIDDEN
 62
     7
370
     0
100
AcDbLine
 10
158.8282627884
 20
105.0459393033
 30
0.0
 11
156.3282627884
 21
103.5437877558
 31
0.0
  0
LINE
  5
1AC
330
1F
100
AcDbEntity
  8
0
  6
HIDDEN
 62
     7
370
     0
100
AcDbLine
 10
161.3282627884
 20
92.1211380249
 30
0.0
 11
161.3282627884
 21
103.5437877558
 31
0.0
  0
LINE
  5
1AD
330
1F
100
AcDbEntity
  8
0
  6
HIDDEN
 62
     7
370
     0
100
AcDbLine
 10
156.3282627884
 20
103.5437877558
 30
0.0
 11
156.3282627884
 21
92.1211380249
 31
0.0
  0
LINE
  5
1AE
330
1F
100
AcDbEntity
  8
0
  6
HIDDEN
 62
     7
370
     0
100
AcDbLine
 10
159.3782627884
 20
124.2391058371
 30
0.0
 11
159.3782627884
 21
124.296836083
 31
0.0
  0
LINE
  5
1AF
330
1F
100
AcDbEntity
  8
0
  6
HIDDEN
 62
     7
370
     0
100
AcDbLine
 10
159.3782627884
 20
119.1227873336
 30
0.0
 11
159.3782627884
 21
122.4723538607
 31
0.0
  0
LINE
  5
1B0
330
1F
100
AcDbEntity
  8
0
  6
HIDDEN
 62
     7
370
     0
100
AcDbLine
 10
156.3782627884
 20
123.1684997337
 30
0.0
 11
156.3782627884
 21
119.2050528596
 31
0.0
  0
LINE
  5
1B1
330
1F
100
AcDbEntity
  8
0
  6
HIDDEN
 62
     7
370
     0
100
AcDbLine
 10
156.3782627884
 20
124.296836083
 30
0.0
 11
156.3782627884
 21
123.6770724201
 31
0.0
  0
LINE
  5
1B2
330
1F
100
AcDbEntity
  8
0
  6
HIDDEN
 62
     7
370
     0
100
AcDbLine
 10
91.2759181925
 20
134.9137877558
 30
0.0
 11
91.2691511898
 21
134.9137877558
 31
0.0
  0
LINE
  5
1B3
330
1F
100
AcDbEntity
  8
0
  6
HIDDEN
 62
     7
370
     0
100
AcDbLine
 10
159.0899733092
 20
122.1137905641
 30
0.0
 11
201.8782627884
 21
120.9250334223
 31
0.0
  0
LINE
  5
1B4
330
1F
100
AcDbEntity
  8
0
  6
HIDDEN
 62
     7
370
     0
100
AcDbLine
 10
201.8782627884
 20
123.4259980565
 30
0.0
 11
159.09012529
 21
124.6147509759
 31
0.0
  0
LINE
  5
1B5
330
1F
100
AcDbEntity
  8
0
  6
HIDDEN
 62
     7
370
     0
100
AcDbLine
 10
156.4056905679
 20
123.8266004502
 30
0.0
 11
156.1624594359
 21
123.4456059531
 31
0.0
  0
LINE
  5
1B6
330
1F
100
AcDbEntity
  8
0
  6
HIDDEN
 62
     7
370
     0
100
AcDbLine
 10
156.1624594359
 20
123.4456059531
 30
0.0
 11
156.4053533624
 21
123.0140424467
 31
0.0
  0
LINE
  5
1B7
330
1F
100
AcDbEntity
  8
0
  6
HIDDEN
 62
     7
370
     0
100
AcDbLine
 10
196.3691506408
 20
107.2590039596
 30
0.0
 11
195.8838018927
 21
106.7455198546
 31
0.0
  0
LINE
  5
1B8
330
1F
100
AcDbEntity
  8
0
  6
HIDDEN
 62
     7
370
     0
100
AcDbLine
 10
195.9393236401
 20
104.7470623765
 30
0.0
 11
196.4524332619
 21
104.2613177425
 31
0.0
  0
LINE
  5
1B9
330
1F
100
AcDbEntity
  8
0
  6
HIDDEN
 62
     7
370
     0
100
AcDbLine
 10
201.7042283767
 20
107.4078034762
 30
0.0
 11
196.3702905729
 21
107.2596144101
 31
0.0
  0
LINE
  5
1BA
330
1F
100
AcDbEntity
  8
0
  6
HIDDEN
 62
     7
370
     0
100
AcDbLine
 10
196.4536053288
 20
104.2607715247
 30
0.0
 11
201.7875431327
 21
104.4089605908
 31
0.0
  0
LINE
  5
1BB
330
1F
100
AcDbEntity
  8
0
  6
HIDDEN
 62
     7
370
     0
100
AcDbLine
 10
201.7894971616
 20
104.4107518903
 30
0.0
 11
201.8782627884
 21
104.5751239657
 31
0.0
  0
LINE
  5
1BC
330
1F
100
AcDbEntity
  8
0
  6
HIDDEN
 62
     7
370
     0
100
AcDbLine
 10
201.8755072347
 20
107.1305415742
 30
0.0
 11
201.7062788476
 21
107.4061234309
 31
0.0
  0
LINE
  5
1BD
330
1F
100
AcDbEntity
  8
0
  6
HIDDEN
 62
     7
370
     0
100
AcDbLine
 10
201.647389124
 20
120.6830881726
 30
0.0
 11
201.816617511
 21
120.9586700293
 31
0.0
  0
LINE
  5
1BE
330
1F
100
AcDbEntity
  8
0
  6
HIDDEN
 62
     7
370
     0
100
AcDbLine
 10
201.8782627884
 20
123.4050383757
 30
0.0
 11
201.730607438
 21
123.6784597133
 31
0.0
  0
LINE
  5
1BF
330
1F
100
AcDbEntity
  8
0
  6
HIDDEN
 62
     7
370
     0
100
AcDbLine
 10
201.7286534091
 20
123.6802510128
 30
0.0
 11
196.3947156052
 21
123.8284400789
 31
0.0
  0
LINE
  5
1C0
330
1F
100
AcDbEntity
  8
0
  6
HIDDEN
 62
     7
370
     0
100
AcDbLine
 10
196.3114008492
 20
120.8295971934
 30
0.0
 11
201.6453386531
 21
120.6814081273
 31
0.0
  0
LINE
  5
1C1
330
1F
100
AcDbEntity
  8
0
  6
HIDDEN
 62
     7
370
     0
100
AcDbLine
 10
196.3935435382
 20
123.827893861
 30
0.0
 11
195.8804339164
 21
123.3421492271
 31
0.0
  0
LINE
  5
1C2
330
1F
100
AcDbEntity
  8
0
  6
HIDDEN
 62
     7
370
     0
100
AcDbLine
 10
195.8249121691
 20
121.343691749
 30
0.0
 11
196.3102609172
 21
120.8302076439
 31
0.0
  0
DIMENSION
  5
1C3
330
1F
100
AcDbEntity
  8
VERMASSUNG
100
AcDbDimension
  2
*D1
 10
85.4937984327
 20
82.5437877558
 30
0.0
 11
85.4937984327
 21
114.0437877558
 31
0.0
 70
   160
  1
HSK A %%c<>
 71
     2
 42
-1.0
  3
SLDDIMSTYLE0
100
AcDbAlignedDimension
 13
122.1782627884
 23
145.5437877558
 33
0.0
 14
122.1782627884
 24
82.5437877558
 34
0.0
 50
90.0
100
AcDbRotatedDimension
  0
DIMENSION
  5
1D0
330
1F
100
AcDbEntity
  8
VERMASSUNG
100
AcDbDimension
  2
*D2
 10
210.6771892231
 20
107.0437877558
 30
0.0
 11
210.6771892231
 21
114.0437877558
 31
0.0
 70
   160
  1
%%c<>
 71
     2
 42
-1.0
  3
SLDDIMSTYLE0
100
AcDbAlignedDimension
 13
201.5782627884
 23
121.0437877558
 33
0.0
 14
201.5782627884
 24
107.0437877558
 34
0.0
 50
90.0
100
AcDbRotatedDimension
  0
DIMENSION
  5
1DB
330
1F
100
AcDbEntity
  8
VERMASSUNG
100
AcDbDimension
  2
*D3
 10
201.8782627884
 20
147.1249683715
 30
0.0
 11
174.8532627884
 21
147.1249683715
 31
0.0
 70
   160
 71
     2
 42
-1.0
  3
SLDDIMSTYLE0
100
AcDbAlignedDimension
 13
147.8282627884
 23
143.8902280795
 33
0.0
 14
201.8782627884
 24
128.7696472341
 34
0.0
100
AcDbRotatedDimension
  0
DIMENSION
  5
1E5
330
1F
100
AcDbEntity
  8
VERMASSUNG
100
AcDbDimension
  2
*D4
 10
201.8782627884
 20
153.1249683715
 30
0.0
 11
161.8782627884
 21
153.1249683715
 31
0.0
 70
   160
 71
     2
 42
-1.0
  3
SLDDIMSTYLE0
100
AcDbAlignedDimension
 13
121.8782627884
 23
145.2437877558
 33
0.0
 14
201.8782627884
 24
128.7696472341
 34
0.0
100
AcDbRotatedDimension
  0
DIMENSION
  5
1EF
330
1F
100
AcDbEntity
  8
VERMASSUNG
100
AcDbDimension
  2
*D5
 10
201.8782627884
 20
159.1249683715
 30
0.0
 11
145.9282627884
 21
159.1249683715
 31
0.0
 70
   160
 71
     2
 42
-1.0
  3
SLDDIMSTYLE0
100
AcDbAlignedDimension
 13
89.9782627884
 23
133.7344655022
 33
0.0
 14
201.8782627884
 24
128.7696472341
 34
0.0
100
AcDbRotatedDimension
  0
DIMENSION
  5
1F9
330
1F
100
AcDbEntity
  8
VERMASSUNG
100
AcDbDimension
  2
*D6
 10
216.6771892231
 20
91.5437877558
 30
0.0
 11
216.6771892231
 21
114.0437877558
 31
0.0
 70
   160
  1
%%c<>
 71
     2
 42
-1.0
  3
SLDDIMSTYLE0
100
AcDbAlignedDimension
 13
187.938967805
 23
136.5437877558
 33
0.0
 14
187.938967805
 24
91.5437877558
 34
0.0
 50
90.0
100
AcDbRotatedDimension
  0
LINE
  5
204
330
1F
100
AcDbEntity
  8
VERMASSUNG
  6
CENTERX2
370
     0
100
AcDbLine
 10
86.9649458873
 20
114.0437877558
 30
0.0
 11
203.4637541213
 21
114.0437877558
 31
0.0
  0
OLE2FRAME
  5
205
330
1F
100
AcDbEntity
  8
0
100
AcDbOle2Frame
 70
     2
  3
Bitmap Image
 10
13.8511154363
 20
38.264191557
 30
0.0
 11
51.6290888628
 21
31.9806341108
 31
0.0
 71
     2
 72
     0
 73
     1
 90
    12928
310
80552BED0767C5B32B40DDAF6807D121434000000000000000006FFBDDFB85D0
310
4940DDAF6807D121434000000000000000006FFBDDFB85D04940416F4BD60AFB
310
3F4000000000000000002BED0767C5B32B40416F4BD60AFB3F40000000000000
310
0000000000000100000000010000010000000100000000000100000000320000
310
D0CF11E0A1B11AE1000000000000000000000000000000003E000300FEFF0900
310
0600000000000000000000000100000001000000000000000010000002000000
310
01000000FEFFFFFF0000000000000000FFFFFFFFFFFFFFFFFFFFFFFFFFFFFFFF
310
FFFFFFFFFFFFFFFFFFFFFFFFFFFFFFFFFFFFFFFFFFFFFFFFFFFFFFFFFFFFFFFF
310
FFFFFFFFFFFFFFFFFFFFFFFFFFFFFFFFFFFFFFFFFFFFFFFFFFFFFFFFFFFFFFFF
310
FFFFFFFFFFFFFFFFFFFFFFFFFFFFFFFFFFFFFFFFFFFFFFFFFFFFFFFFFFFFFFFF
310
FFFFFFFFFFFFFFFFFFFFFFFFFFFFFFFFFFFFFFFFFFFFFFFFFFFFFFFFFFFFFFFF
310
FFFFFFFFFFFFFFFFFFFFFFFFFFFFFFFFFFFFFFFFFFFFFFFFFFFFFFFFFFFFFFFF
310
FFFFFFFFFFFFFFFFFFFFFFFFFFFFFFFFFFFFFFFFFFFFFFFFFFFFFFFFFFFFFFFF
310
FFFFFFFFFFFFFFFFFFFFFFFFFFFFFFFFFFFFFFFFFFFFFFFFFFFFFFFFFFFFFFFF
310
FFFFFFFFFFFFFFFFFFFFFFFFFFFFFFFFFFFFFFFFFFFFFFFFFFFFFFFFFFFFFFFF
310
FFFFFFFFFFFFFFFFFFFFFFFFFFFFFFFFFFFFFFFFFFFFFFFFFFFFFFFFFFFFFFFF
310
FFFFFFFFFFFFFFFFFFFFFFFFFFFFFFFFFFFFFFFFFFFFFFFFFFFFFFFFFFFFFFFF
310
FFFFFFFFFFFFFFFFFFFFFFFFFFFFFFFFFFFFFFFFFFFFFFFFFFFFFFFFFFFFFFFF
310
FFFFFFFFFFFFFFFFFFFFFFFFFFFFFFFFFFFFFFFFFFFFFFFFFFFFFFFFFFFFFFFF
310
FFFFFFFFFFFFFFFFFFFFFFFFFFFFFFFFFFFFFFFFFFFFFFFFFFFFFFFFFFFFFFFF
310
FDFFFFFFFEFFFFFFFEFFFFFFFEFFFFFF05000000060000000700000008000000
310
090000000A0000000B0000000C0000000D0000000E0000000F00000010000000
310
11000000120000001300000014000000150000001600000017000000FEFFFFFF
310
FFFFFFFFFFFFFFFFFFFFFFFFFFFFFFFFFFFFFFFFFFFFFFFFFFFFFFFFFFFFFFFF
310
FFFFFFFFFFFFFFFFFFFFFFFFFFFFFFFFFFFFFFFFFFFFFFFFFFFFFFFFFFFFFFFF
310
FFFFFFFFFFFFFFFFFFFFFFFFFFFFFFFFFFFFFFFFFFFFFFFFFFFFFFFFFFFFFFFF
310
FFFFFFFFFFFFFFFFFFFFFFFFFFFFFFFFFFFFFFFFFFFFFFFFFFFFFFFFFFFFFFFF
310
FFFFFFFFFFFFFFFFFFFFFFFFFFFFFFFFFFFFFFFFFFFFFFFFFFFFFFFFFFFFFFFF
310
FFFFFFFFFFFFFFFFFFFFFFFFFFFFFFFFFFFFFFFFFFFFFFFFFFFFFFFFFFFFFFFF
310
FFFFFFFFFFFFFFFFFFFFFFFFFFFFFFFFFFFFFFFFFFFFFFFFFFFFFFFFFFFFFFFF
310
FFFFFFFFFFFFFFFFFFFFFFFFFFFFFFFFFFFFFFFFFFFFFFFFFFFFFFFFFFFFFFFF
310
FFFFFFFFFFFFFFFFFFFFFFFFFFFFFFFFFFFFFFFFFFFFFFFFFFFFFFFFFFFFFFFF
310
FFFFFFFFFFFFFFFFFFFFFFFFFFFFFFFFFFFFFFFFFFFFFFFFFFFFFFFFFFFFFFFF
310
FFFFFFFFFFFFFFFFFFFFFFFFFFFFFFFFFFFFFFFFFFFFFFFFFFFFFFFFFFFFFFFF
310
FFFFFFFFFFFFFFFFFFFFFFFFFFFFFFFFFFFFFFFFFFFFFFFFFFFFFFFFFFFFFFFF
310
FFFFFFFFFFFFFFFFFFFFFFFFFFFFFFFFFFFFFFFFFFFFFFFFFFFFFFFFFFFFFFFF
310
52006F006F007400200045006E00740072007900000000000000000000000000
310
0000000000000000000000000000000000000000000000000000000000000000
310
16000500FFFFFFFFFFFFFFFF020000000A00030000000000C000000000000046
310
000000000000000000000000B06B902FF7FFCB0103000000C000000000000000
310
01004F006C006500000000000000000000000000000000000000000000000000
310
0000000000000000000000000000000000000000000000000000000000000000
310
0A000200FFFFFFFFFFFFFFFFFFFFFFFF00000000000000000000000000000000
310
0000000000000000000000000000000000000000000000001400000000000000
310
010043006F006D0070004F0062006A0000000000000000000000000000000000
310
0000000000000000000000000000000000000000000000000000000000000000
310
120002010100000003000000FFFFFFFF00000000000000000000000000000000
310
0000000000000000000000000000000000000000010000004D00000000000000
310
01004F006C006500310030004E00610074006900760065000000000000000000
310
0000000000000000000000000000000000000000000000000000000000000000
310
1A000200FFFFFFFFFFFFFFFFFFFFFFFF00000000000000000000000000000000
310
0000000000000000000000000000000000000000040000002426000000000000
310
FEFFFFFF02000000FEFFFFFFFFFFFFFFFFFFFFFFFFFFFFFFFFFFFFFFFFFFFFFF
310
FFFFFFFFFFFFFFFFFFFFFFFFFFFFFFFFFFFFFFFFFFFFFFFFFFFFFFFFFFFFFFFF
310
FFFFFFFFFFFFFFFFFFFFFFFFFFFFFFFFFFFFFFFFFFFFFFFFFFFFFFFFFFFFFFFF
310
FFFFFFFFFFFFFFFFFFFFFFFFFFFFFFFFFFFFFFFFFFFFFFFFFFFFFFFFFFFFFFFF
310
FFFFFFFFFFFFFFFFFFFFFFFFFFFFFFFFFFFFFFFFFFFFFFFFFFFFFFFFFFFFFFFF
310
FFFFFFFFFFFFFFFFFFFFFFFFFFFFFFFFFFFFFFFFFFFFFFFFFFFFFFFFFFFFFFFF
310
FFFFFFFFFFFFFFFFFFFFFFFFFFFFFFFFFFFFFFFFFFFFFFFFFFFFFFFFFFFFFFFF
310
FFFFFFFFFFFFFFFFFFFFFFFFFFFFFFFFFFFFFFFFFFFFFFFFFFFFFFFFFFFFFFFF
310
FFFFFFFFFFFFFFFFFFFFFFFFFFFFFFFFFFFFFFFFFFFFFFFFFFFFFFFFFFFFFFFF
310
FFFFFFFFFFFFFFFFFFFFFFFFFFFFFFFFFFFFFFFFFFFFFFFFFFFFFFFFFFFFFFFF
310
FFFFFFFFFFFFFFFFFFFFFFFFFFFFFFFFFFFFFFFFFFFFFFFFFFFFFFFFFFFFFFFF
310
FFFFFFFFFFFFFFFFFFFFFFFFFFFFFFFFFFFFFFFFFFFFFFFFFFFFFFFFFFFFFFFF
310
FFFFFFFFFFFFFFFFFFFFFFFFFFFFFFFFFFFFFFFFFFFFFFFFFFFFFFFFFFFFFFFF
310
FFFFFFFFFFFFFFFFFFFFFFFFFFFFFFFFFFFFFFFFFFFFFFFFFFFFFFFFFFFFFFFF
310
FFFFFFFFFFFFFFFFFFFFFFFFFFFFFFFFFFFFFFFFFFFFFFFFFFFFFFFFFFFFFFFF
310
FFFFFFFFFFFFFFFFFFFFFFFFFFFFFFFFFFFFFFFFFFFFFFFFFFFFFFFFFFFFFFFF
310
010000020000000000000000000000000000000061007200650064005C003100
310
30002E0030005C0044004C004C005300680061007200650064005C003B004300
310
0100FEFF030A0000FFFFFFFF0A00030000000000C00000000000004607000000
310
5042727573680007000000504272757368000700000050427275736800F439B2
310
71000000000000000000000000004100540049002E004100430045005C004300
310
6F00720065002D005300740061007400690063003B0043003A005C0050007200
310
6F006700720061006D002000460069006C006500730020002800780038003600
310
29005C0043006F006D006D006F006E002000460069006C00650073005C004100
310
750074006F006400650073006B0020005300680061007200650064005C003B00
310
43003A005C00500072006F006700720061006D002000460069006C0065007300
310
5C004E006F0072006D0061006E005C004E0070006D005C00420069006E000000
310
43003A005C00500072006F006700720061006D002000460069006C0065007300
310
5C0053006F006C006900640057006F0072006B007300200043006F0072007000
310
5C0053006F006C006900640057006F0072006B00730020002800320029005C00
310
730065007400750070005C0069003300380036005C0073007700610063007400
310
770069007A002E006500780065000000220043003A005C00500072006F006700
310
20260000424D0E260000000000003E00000028000000B40200006E0000000100
310
01000000000000000000130B0000130B00000200000002000000000000FFFFFF
310
FFFFFFFFFFFFFFFFFFFFFFFFFFFFFFFFFFFFFFFFFFFFFFFFFFFFFFFFFFFFFFFF
310
FFFFFFFFFFFFFFFFFFFFFFFFFFFFFFFFFFFFFFFFFFFFFFFFFFFFFFFFFFFFFFFF
310
FFFFFFFFFFFFFFFFFFFFFFFFFFFFFFFFFFFFFFFFFFFFFFFFF000FFFFFFFFFFFF
310
FFFFFFFFFFFFFFFFFFFFFFFFFFFFFFFFFFFFFFFFFFFFFFFFFFFFFFFFFFFFFFFF
310
FFFFFFFFFFFFFFFFFFFFFFFFFFFFFFFFFFFFFFFFFFFFFFFFFFFFFFFFFFFFFFFF
310
FFFFFFFFFFFFFFFFFFFFFFFFFFFFFFFFF000FFFFFFFFFFFFFFFFFFFFFFFFFFFF
310
FFFFFFFFFFFFFFFFFFFFFFFFFFFFFFFFFFFFFFFFFFFFFFFFFFFFFFFFFFFFFFFF
310
FFFFFFFFFFFFFFFFFFFFFFFFFFFFFFFFFFFFFFFFFFFFFFFFFFFFFFFFFFFFFFFF
310
FFFFFFFFFFFFFFFFF000FFFFFFFFFFFFFFFFFFFFFFFFFFFFFFFFFFFFFFFFFFFF
310
FFFFFFFFFFFFFFFFFFFFFFFFFFFFFFFFFFFFFFFFFFFFFFFFFFFFFFFFFFFFFFFF
310
FFFFFFFFFFFFFFFFFFFFFFFFFFFFFFFFFFFFFFFFFFFFFFFFFFFFFFFFFFFFFFFF
310
F000FFFFFFFFFFFFFFFFFFFFFFFFFFFFFFFFFFFFFFFFFFFFFFFFFFFFFFFFFFFF
310
FFFFFFFFFFFFFFFFFFFFFFFFFFFFFFFFFFFFFFFFFFFFFFFFFFFFFFFFFFFFFFFF
310
FFFFFFFFFFFFFFFFFFFFFFFFFFFFFFFFFFFFFFFFFFFFFFFFF000FFFFFFFFFFFF
310
FFFFFFFFFFFFFFFFFFFFFFFFFFFFFFFFFFFFFFFFFFFFFFFFFFFFFFFFFFFFFFFF
310
FFFFFFFFFFFFFFFFFFFFFFFFFFFFFFFFFFFFFFFFFFFFFFFFFFFFFFFFFFFFFFFF
310
FFFFFFFFFFFFFFFFFFFFFFFFFFFFFFFFF000FFFFFFFFFFFFFFFFFFFFFFFFFFFF
310
FFFFFFFFFFFFFFFFFFFFFFFFFFFFFFFFFFFFFFFFFFFFFFFFFFFFFFFFFFFFFFFF
310
FFFFFFFFFFFFFFFFFFFFFFFFFFFFFFFFFFFFFFFFFFFFFFFFFFFFFFFFFFFFFFFF
310
FFFFFFFFFFFFFFFFF000FFFFFFFFFFFFFFFFFFFFFFFFFFFFFFFFFFFFFFFFFFFF
310
FFFFFFFFFFFFFFFFFFFFFFFFFFFFFFFFFFFFFFFFFFFFFFFFFFFFFFFFFFFFFFFF
310
FFFFFFFFFFFFFFFFFFFFFFFFFFFFFFFFFFFFFFFFFFFFFFFFFFFFFFFFFFFFFFFF
310
F000FFFFFFFFFFFFFFFFFFFFFFFFFFFFFFFFFFFFFFFFFFFFFFFFFFFFFFFFFFFF
310
FFFFFFFFFFFFFFFFFFFFFFFFFFFFFFFFFFFFFFFFFFFFFFFFFFFFFFFFFFFFFFFF
310
FFFFFFFFFFFFFFFFFFFFFFFFFFFFFFFFFFFFFFFFFFFFFFFFF000FFFFFFFFFFFF
310
FFFFFFFFFFFFFFFFFFFFFFFFFFFFFFFFFFFFFFFFFFFFFFFFFFFFFFFFFFFFFFFF
310
FFFFFFFFFFFFFFFFFFFFFFFFFFFFFFFFFFFFFFFFFFFFFFFFFFFFFFFFFFFFFFFF
310
FFFFFFFFFFFFFFFFFFFFFFFFFFFFFFFFF000FFFFFFFFFFFFFFFFFFFFFFFFFFFF
310
FFFFFFFFFFFFFFFFFFFFFFFFFFFFFFFFFFFFFFFFFFFFFFFFFFFFFFFFFFFFFFFF
310
FFFFFFFFFFFFFFFFFFFFFFFFFFFFFFFFFFFFFFFFFFFFFFFFFFFFFFFFFFFFFFFF
310
FFFFFFFFFFFFFFFFF000FFFFFFFFFFFFFFFFFFFFFFFFFFFFFFFFFFFFFFFFFFFF
310
FFFFFFFFFFFFFFFFFFFFFFFFFFFFFFFFFFFFFFFFFFFFFFFFFFFFFFFFFFFFFFFF
310
FFFFFFFFFFFFFFFFFFFFFFFFFFFFFFFFFFFFFFFFFFFFFFFFFFFFFFFFFFFFFFFF
310
F000FFFFFFFFFFFFFFFFFFFFFFFFFFFFFFFFFFFFFFFFFFFFFFFFFFFFFFFFFFFF
310
FFFFFFFFFFFFFFFFFFFFFFFFFFFFFFFFFFFFFFFFFFFFFFFFFFFFFFFFFFFFFFFF
310
FFFFFFFFFFFFFFFFFFFFFFFFFFFFFFFFFFFFFFFFFFFFFFFFF000FFFFFFFFFFFF
310
FFFFFFFFFFFFFFFFFFFFFFFFFFFFFFFFFFFFFFFFFFFFFFFFFFFFFFFFFFFFFFFF
310
FFFFFFFFFFFFFFFFFFFFFFFFFFFFFFFFFFFFFFFFFFFFFFFFFFFFFFFFFFFFFFFF
310
FFFFFFFFFFFFFFFFFFFFFFFFFFFFFFFFF000FFFFFFFFFFFFFFFFFFFFFFFFFFFF
310
FFFFFFFFFFFFFFFFFFFFFFFFFFFFFFFFFFFFFFFFFFFFFFFFFFFFFFFFFFFFFFFF
310
FFFFFFFFFFFFFFFFFFFFFFFFFFFFFFFFFFFFFFFFFFFFFFFFFFFFFFFFFFFFFFFF
310
FFFFFFFFFFFFFFFFF000FFFFFFFFFFFFFFFFFFFFFFFFFFFFFFFFFFFFFFFFFFFF
310
FFFFFFFFFFFFFFFFFFFFFFFFFFFFFFFFFFFFFFFFFFFFFFFFFFFFFFFFFFFFFFFF
310
FFFFFFFFFFFFFFFFFFFFFFFFFFFFFFFFFFFFFFFFFFFFFFFFFFFFFFFFFFFFFFFF
310
F000FFFFFFFFFFFFFFFFFFFFFFFFFFFFFFFFFFFFFFFFFFFFFFFFFFFFFFFFFFFF
310
FFFFFFFFFFFFFFFFFFFFFFFFFFFFFFFFFFFFFFFFFFFFFFFFFFFFFFFFFFFFFFFF
310
FFFFFFFFFFFFFFFFFFFFFFFFFFFFFFFFFFFFFFFFFFFFFFFFF000FFFFFFFFFFFF
310
FFFFFFFFFFFFFFFFFFFFFFFFFFFFFFFFFFFFFFFFFFFFFFFFFFFFFFFFFFFFFFFF
310
FFFFFFFFFFFFFFFFFFFFFFFFFFFFFFFFFFFFFFFFFFFFFFFFFFFFFFFFFFFFFFFF
310
FFFFFFFFFFFFFFFFFFFFFFFFFFFFFFFFF000FFFFFFFFFFFFFFFFFFFFFFFFFFFF
310
FFFFFFFFFFFFFFFFFFFFFFFFFFFFFFFFFFFFFFFFFFFFFFFFFFFFFFFFFFFFFFFF
310
FFFFFFFFFFFFFFFFFFFFFFFFFFFFFFFFFFFFFFFFFFFFFFFFFFFFFFFFFFFFFFFF
310
FFFFFFFFFFFFFFFFF000FFFFF80003FFFFFFFFFFFFFFFFFFFFFFFFFFFFFFFFFF
310
FFFFF00007FFFFFFFFFF00007FFFFFF800000000000000007FFFFFFFFFFFFFFF
310
FFFFFFFC001FFFFFFFFFFFFFFC001FFFFFFFFFFFFFFFFFFFFFFFFFFE0007FFFF
310
F000FFFF8000007FFFFFFFF8000FFFFFC0007FFFFF80007FFFFF0000007FFFFF
310
FFF8000007FFFFF800000000000000007FFFFFF0001FFFFFFFFFFFC00001FFFF
310
FFFFFFFFC00001FFFFFFFF000000000003FFFFE000007FFFF000FFFE0000000F
310
FFFFFFF0000FFFFF80007FFFFF80007FFFFC0000001FFFFFFFC0000001FFFFF8
310
00000000000000007FFFFFF0001FFFFFFFFFFE0000003FFFFFFFFFFE0000003F
310
FFFFFF000000000003FFFF0000000FFFF000FFF800000003FFFFFFF00007FFFF
310
80007FFFFF80007FFFF000000007FFFFFF000000003FFFF80000000000000000
310
7FFFFFF0001FFFFFFFFFF80000000FFFFFFFFFF80000000FFFFFFF0000000000
310
03FFFC00000003FFF000FFE000000000FFFFFFF00007FFFF80003FFFFF80007F
310
FFC000000001FFFFFC000000001FFFF800000000000000007FFFFFF0001FFFFF
310
FFFFE000000003FFFFFFFFE000000003FFFFFF000000000003FFF000000000FF
310
F000FF80000000007FFFFFF00007FFFF80003FFFFF80007FFF8000000000FFFF
310
F80000000007FFF800000000000000007FFFFFF0001FFFFFFFFFC000000001FF
310
FFFFFFC000000001FFFFFF000000000003FFC0000000007FF000FF0000000000
310
3FFFFFE00007FFFF00003FFFFF80007FFE00000000003FFFF00000000003FFF8
310
00000000000000007FFFFFF0001FFFFFFFFF8000000000FFFFFFFF8000000000
310
FFFFFF000000000003FF80000000003FF000FE00000000001FFFFFE00003FFFF
310
00003FFFFF80007FFC00000000001FFFE00000000001FFF8000001FFFE000000
310
7FFFFFF0001FFFFFFFFE00000000003FFFFFFE00000000003FFFFF0000000000
310
03FF00000000001FF000FC00000000000FFFFFE00003FFFF00001FFFFF80007F
310
F800000000001FFFC00000000000FFF8000001FFFE0000007FFFFFF0001FFFFF
310
FFFC00000000001FFFFFFC00000000001FFFFF000000000003FE00000000000F
310
F000F8000000000007FFFFE00003FFFF00001FFFFF80007FF800000000000FFF
310
800000000000FFF8000001FFFE0000007FFFFFF0001FFFFFFFF800000000000F
310
FFFFF800000000000FFFFF000000000003FC000000000007F000F80000000000
310
03FFFFC00003FFFE00001FFFFF80007FF0000000000007FF0000000000007FF8
310
000001FFFE0000007FFFFFF0001FFFFFFFF0000000000007FFFFF00000000000
310
07FFFF000000000003F8000000000003F000F0000000000003FFFFC00001FFFE
310
00001FFFFF80007FE0000000000007FE0000000000003FF8000001FFFE000000
310
7FFFFFF0001FFFFFFFF0000000000007FFFFF0000000000007FFFF0000000000
310
03F800001F800003F000E00001FFF00001FFFFC00001FFFE00000FFFFF80007F
310
E00001FFE00003FE00001FFF00003FF8000001FFFE0000007FFFFFF0001FFFFF
310
FFE000003E000003FFFFE000003E000003FFFF000000000003F00001FFF80001
310
F000E00007FFFC0001FFFFC00001FFFE00000FFFFF80007FC0000FFFFC0003FC
310
0000FFFFC0001FF8000001FFFE0000007FFFFFF0001FFFFFFFC00003FFE00001
310
FFFFC00003FFE00001FFFF0001FFFFFFFFF00007FFFE0001F000E0000FFFFF00
310
00FFFF800001FFFC00000FFFFF80007FC0001FFFFE0001FC0001FFFFE0001FF8
310
000001FFFE0000007FFFFFF0001FFFFFFF80000FFFF80000FFFF80000FFFF800
310
00FFFF0003FFFFFFFFE0000FFFFF8000F000C0003FFFFF8000FFFF800000FFFC
310
000007FFFF80007F80003FFFFF0001FC0003FFFFF0001FF8000001FFFE000000
310
7FFFFFF0001FFFFFFF80003FFFFE0000FFFF80003FFFFE0000FFFF0003FFFFFF
310
FFE0003FFFFF8000F000C0003FFFFF8000FFFF800000FFFC000007FFFF80007F
310
80007FFFFF8001F80007FFFFF8000FF8000001FFFE0000007FFFFFF0001FFFFF
310
FF00007FFFFF00007FFF00007FFFFF00007FFF0003FFFFFFFFE0003FFFFFC000
310
F000C0007FFFFFC000FFFF000000FFFC000007FFFF80007F8000FFFFFF8000F8
310
000FFFFFF8000FF8000001FFFE0000007FFFFFF0001FFFFFFF0000FFFFFF8000
310
7FFF0000FFFFFF80007FFF0003FFFFFFFFC0007FFFFFC00070008000FFFFFFC0
310
00FFFF000000FFF8000007FFFF80007F8000FFFFFF8000F8000FFFFFF8000FF8
310
000001FFFE0000007FFFFFF0001FFFFFFE0001FFFFFFC0003FFE0001FFFFFFC0
310
003FFF0003FFFFFFFFC0007FFFFFE00070008000FFFFFFC0007FFF0000007FF8
310
000003FFFF80007F0001FFFFFF8000F8000FFFFFF8000FF8000001FFFE000000
310
7FFFFFF0001FFFFFFE0001FFFFFFC0003FFE0001FFFFFFC0003FFF0003FFFFFF
310
FFC000FFFFFFE00070008000FFFFFFC0007FFF0000007FF8000003FFFF80007F
310
0001FFFFFF8000F8001FFFFFF8000FF8000001FFFE0000007FFFFFF0001FFFFF
310
FE0003FFFFFFE0003FFE0003FFFFFFE0003FFF0003FFFFFFFFC000FFFFFFE000
310
70008000FFFFFFC0007FFE0000007FF8000003FFFF80007F0001FFFFFF8000F0
310
001FFFFFF8000FF8000001FFFE0000007FFFFFF0001FFFFFFC0003FFFFFFE000
310
1FFC0003FFFFFFE0001FFF0003FFFFFFFFC000FFFFFFC00070008000FFFFFF80
310
007FFE0000007FF0000003FFFF80007F0001FFFFFF0000F0001FFFFFF8000FF8
310
000001FFFE0000007FFFFFF0001FFFFFFC0007FFFFFFF0001FFC0007FFFFFFF0
310
001FFF0003FFFFFFFFC000FFFFFFC00070008001FFFFFF0000FFFE0000003FF0
310
000001FFFF80007F0001FFFFFF0000F8001FFFFFF0000FF8000001FFFE000000
310
7FFFFFF0001FFFFFFC0007FFFFFFF0001FFC0007FFFFFFF0001FFF0003FFFFFF
310
FFC001FFFFFF80007000FFFFFFFFFE0000FFFE0008003FF0008001FFFF80007F
310
FFFFFFFFFC0000FFFFFFFFFFE0000FF8000001FFFE0000007FFFFFF0001FFFFF
310
F8000FFFFFFFF8000FF8000FFFFFFFF8000FFF0003FFFFFFFFFFFFFFFFFF0000
310
7000FFFFFFFFFC0000FFFC0008003FF0008001FFFF80007FFFFFFFFFF80001FF
310
FFFFFFFF80000FF8000001FFFE0000007FFFFFF0001FFFFFF8000FFFFFFFF800
310
0FF8000FFFFFFFF8000FFF0003FFFFFFFFFFFFFFFFFE0000F000FFFFFFFFE000
310
00FFFC000C003FE000C001FFFF80007FFFFFFFFFC00001FFFFFFFFFE00001FF8
310
000001FFFE0000007FFFFFF0001FFFFFF8000FFFFFFFF8000FF8000FFFFFFFF8
310
000FFF0003FFFFFFFFFFFFFFFFF00000F000FFFFFFFE000001FFFC000C001FE0
310
00C000FFFF80007FFFFFFFFE000001FFFFFFFFE000001FF80FFFFFFFFFFFFFC0
310
7FFFFFF0001FFFFFF8000FFFFFFFF8000FF8000FFFFFFFF8000FFF0003FFFFFF
310
FFFFFFFFFF800000F000FFFFFFC0000001FFFC001C001FE001C000FFFF80007F
310
FFFFFF80000003FFFFFFF80000001FF80FFFFFFFFFFFFFC07FFFFFF0001FFFFF
310
F8001FFFFFFFFC000FF8001FFFFFFFFC000FFF0003FFFFFFFFFFFFFFF0000001
310
F000FFFFF800000001FFF8001C001FE001C000FFFF80007FFFFFF800000003FF
310
FFFF800000003FF80FFFFFFFFFFFFFC07FFFFFF0001FFFFFF8001FFFFFFFFC00
310
0FF8001FFFFFFFFC000FFF0003FFFFFFFFFFFFFE00000001F000FFFFC0000000
310
03FFF8001E001FC001E000FFFF80007FFFFF8000000007FFFFFC000000003FF8
310
0FFFFFFFFFFFFFC07FFFFFF0001FFFFFF8001FFFFFFFFC000FF8001FFFFFFFFC
310
000FFF0003FFFFFFFFFFFFE000000003F000FFFE0000000007FFF8001E000FC0
310
01E0007FFF80007FFFFE0000000007FFFFE0000000007FF80FFFFFFFFFFFFFC0
310
7FFFFFF0001FFFFFF0001FFFFFFFFC0007F0001FFFFFFFFC0007FF0003FFFFFF
310
FFFFFF0000000003F000FFF80000000007FFF8001E000FC003E0007FFF80007F
310
FFF0000000000FFFFF8000000000FFF80FFFFFFFFFFFFFC07FFFFFF0001FFFFF
310
F0001FFFFFFFFC0007F0001FFFFFFFFC0007FF0003FFFFFFFFFFFC0000000007
310
F000FFE0000000000FFFF0003E000FC003E0007FFF80007FFFC0000000001FFF
310
FE0000000001FFF80FFFFFFFFFFFFFC07FFFFFF0001FFFFFF0001FFFFFFFFC00
310
07F0001FFFFFFFFC0007FF0003FFFFFFFFFFF0000000000FF000FFC000000000
310
1FFFF0003F000F8003F0003FFF80007FFF80000000003FFFF80000000003FFF8
310
0FFFFFFFFFFFFFC07FFFFFF0001FFFFFF0001FFFFFFFFC0007F0001FFFFFFFFC
310
0007FF0003FFFFFFFFFFE0000000001FF000FF00000000007FFFF0003F000780
310
03F0003FFF80007FFF00000000007FFFF00000000007FFF80FFFFFFFFFFFFFC0
310
7FFFFFF0001FFFFFF0001FFFFFFFFC0007F0001FFFFFFFFC0007FF0003FFFFFF
310
FFFF80000000007FF000FE0000000000FFFFE0003F00078007F0003FFF80007F
310
FE0000000001FFFFE0000000001FFFF80FFFFFFFFFFFFFC07FFFFFF0001FFFFF
310
F0001FFFFFFFFC0007F0001FFFFFFFFC0007FF0003FFFFFFFFFF0000000000FF
310
F000FC0000000003FFFFE0007F00078007F0003FFF80007FFC0000000007FFFF
310
C0000000007FFFF80FFFFFFFFFFFFFC07FFFFFF0001FFFFFF8001FFFFFFFFC00
310
0FF8001FFFFFFFFC000FFF0003FFFFFFFFFE0000000003FFF000FC000000000F
310
FFFFE0007F80070007F8001FFF80007FF8000000001FFFFF8000000001FFFFF8
310
0FFFFFFFFFFFFFC07FFFFFF0001FFFFFF8001FFFFFFFFC000FF8001FFFFFFFFC
310
000FFF0003FFFFFFFFFC000000000FFFF000F8000000007FFFFFE0007F800700
310
07F8001FFF80007FF000000000FFFFFF800000000FFFFFF80FFFFFFFFFFFFFC0
310
7FFFFFF0001FFFFFF8000FFFFFFFF8000FF8000FFFFFFFF8000FFF0003FFFFFF
310
FFFC000000007FFFF000F800000007FFFFFFC0007F8003000FF8001FFF80007F
310
F000000007FFFFFF000000007FFFFFF80FFFFFFFFFFFFFC07FFFFFF0001FFFFF
310
F8000FFFFFFFF8000FF8000FFFFFFFF8000FFF0003FFFFFFFFF80000000FFFFF
310
F000F0000000FFFFFFFFC000FF8003000FF8001FFF80007FE0000000FFFFFFFF
310
0000000FFFFFFFF8000001FFFE0000007FFFFFF0001FFFFFF8000FFFFFFFF800
310
0FF8000FFFFFFFF8000FFF0003FFFFFFFFF8000000FFFFFFF000F000000FFFFF
310
FFFFC000FFC002000FF8000FFF80007FE000001FFFFFFFFE000001FFFFFFFFF8
310
000001FFFE0000007FFFFFF0001FFFFFF8000FFFFFFFF8000FF8000FFFFFFFF8
310
000FFF0003FFFFFFFFF000001FFFFFFFF000E00000FFFFFFFFFFC000FFC00200
310
0FFC000FFF80007FE00001FFFFFFFFFE00001FFFFFFFFFF8000001FFFE000000
310
7FFFFFF0001FFFFFFC000FFFFFFFF8001FFC000FFFFFFFF8001FFF0003FFFFFF
310
FFF00001FFFFFFFFF000E00007FFFFFFFFFF8000FFC000001FFC000FFF80007F
310
C0000FFFFFFFFFFE0000FFFFFFFFFFF8000001FFFE0000007FFFFFF0001FFFFF
310
FC0007FFFFFFF0001FFC0007FFFFFFF0001FFF0003FFFFFFFFF00007FFFFFFFF
310
F000E0001FFFFFFFFFFF8000FFC000001FFC000FFF80007FC0003FFFFFFFFFFE
310
0001FFFFFFFFFFF8000001FFFE0000007FFFFFF0001FFFFFFC0007FFFFFFF000
310
1FFC0007FFFFFFF0001FFF0003FFFFFFFFF0001FFFFFFFFFF000E0003FFFFF00
310
03FF8001FFE000001FFC0007FF80007FC0007FFFFF0007FC0003FFFFF0003FF8
310
000001FFFE0000007FFFFFF0001FFFFFFC0003FFFFFFE0001FFC0003FFFFFFE0
310
001FFF0003FFFFFFFFF0003FFFFFFFFFF000E0003FFFFF0001FF8001FFE00000
310
1FFE0007FF80007FC0007FFFFE0003FC0007FFFFE0003FF8000001FFFE000000
310
7FFFFFF0001FFFFFFE0003FFFFFFE0003FFE0003FFFFFFE0003FFF0003FFFFFF
310
FFF0003FFFFF8001F000E0003FFFFF0001FF0001FFE000001FFE0007FF80007F
310
C0007FFFFE0003FC0007FFFFE0003FF8000001FFFE0000007FFFFFF0001FFFFF
310
FE0001FFFFFFC0003FFE0001FFFFFFC0003FFF0003FFFFFFFFF0003FFFFF0001
310
F000E0003FFFFF0003FF0001FFE000003FFE0007FF80007FC0007FFFFE0003FC
310
0007FFFFE0003FF8000001FFFE0000007FFFFFF0001FFFFFFF0001FFFFFFC000
310
7FFF0001FFFFFFC0007FFF0003FFFFFFFFF0003FFFFF0001F000E0003FFFFE00
310
03FF0003FFF000003FFE0003FF80007FC0007FFFFC0003FE0007FFFFE0003FF8
310
000001FFFE0000007FFFFFF0001FFFFFFF0000FFFFFF80007FFF0000FFFFFF80
310
007FFF0003FFFFFFFFF0003FFFFF0001F000E0003FFFFE0003FF0003FFF00000
310
3FFF0003FF80007FC0007FFFFC0007FE0007FFFFC0003FF8000001FFFE000000
310
7FFFFFF0001FFFFFFF80007FFFFF0000FFFF80007FFFFF0000FFFF0003FFFFFF
310
FFF0003FFFFF0003F000E0003FFFFC0003FE0003FFF000003FFF0003FF80007F
310
E0003FFFF80007FE0003FFFFC0007FF8000001FFFE0000007FFFFFF0001FFFFF
310
FF80003FFFFE0000FFFF80003FFFFE0000FFFF0003FFFFFFFFF0001FFFFE0003
310
F000F0001FFFF80003FE0003FFF000007FFF0001FF80007FE0003FFFF00007FE
310
0001FFFF80007FF8000001FFFE0000007FFFFFF0001FFFFFFFC0000FFFF80001
310
FFFFC0000FFFF80001FFFF0003FFFFFFFFF0001FFFFC0003F000F0000FFFF000
310
07FE0007FFF800007FFF0001FF80007FE0001FFFE00007FF0000FFFE00007FF8
310
000001FFFE0000007FFFFFF0001FFFFFFFC00003FFE00001FFFFC00003FFE000
310
01FFFF0003FFFFFFFFF8000FFFF80003F000F00003FFC00007FC0007FFF80000
310
7FFF8001FF80007FF00007FF80000FFF00007FF80000FFF8000001FFFE000000
310
7F80000000000001FFE000003E000003FFFFE000003E000003FFFF0003FFFFFF
310
FFF80003FFE00007F000F800000000000FFC0007FFF800007FFF8001FF80007F
310
F000000000000FFF000000000000FFF8000001FFFE0000007F80000000000001
310
FFF0000000000007FFFFF0000000000007FFFF0003FFFFFFFFFC00007E000007
310
F000F800000000000FFC0007FFF80000FFFF8000FF80007FF800000000001FFF
310
800000000001FFF8000001FFFE0000007F80000000000001FFF800000000000F
310
FFFFF800000000000FFFFF0003FFFFFFFFFC00000000000FF000FC0000000000
310
1FFC0007FFFC0000FFFF8000FF80007FF800000000003FFFC00000000001FFF8
310
000001FFFE0000007F80000000000001FFF800000000000FFFFFF80000000000
310
0FFFFF0003FFFFFFFFFE00000000001FF000FE00000000003FF8000FFFFC0000
310
FFFF8000FF80007FFC00000000003FFFC00000000003FFF8000001FFFE000000
310
7F80000000000001FFFC00000000001FFFFFFC00000000001FFFFF0003FFFFFF
310
FFFF00000000001FF000FF00000000003FF8000FFFFC0000FFFFC000FF80007F
310
FE00000000007FFFE00000000007FFF8000001FFFE0000007F80000000000001
310
FFFE00000000003FFFFFFE00000000003FFFFF0003FFFFFFFFFF80000000003F
310
F000FF80000000007FF8000FFFFC0001FFFFC0007F80007FFF0000000000FFFF
310
F0000000000FFFF800000000000000007F80000000000001FFFF8000000000FF
310
FFFFFF8000000000FFFFFF0003FFFFFFFFFFC0000000007FF000FFC000000000
310
FFF8000FFFFE0001FFFFC0007F80007FFF8000000001FFFFF8000000001FFFF8
310
00000000000000007F80000000000001FFFFC000000001FFFFFFFFC000000001
310
FFFFFF0003FFFFFFFFFFE000000000FFF000FFE000000003FFF0001FFFFE0001
310
FFFFC0007F80007FFFC000000007FFFFFE000000003FFFF80000000000000000
310
7F80000000000001FFFFE000000003FFFFFFFFE000000003FFFFFF0003FFFFFF
310
FFFFF000000003FFF000FFF80000000FFFF0001FFFFE0001FFFFE0007F80007F
310
FFF00000000FFFFFFF00000000FFFFF800000000000000007F80000000000001
310
FFFFF80000000FFFFFFFFFF80000000FFFFFFF0003FFFFFFFFFFFC0000000FFF
310
F000FFFE0000003FFFF0001FFFFE0003FFFFE0003F80007FFFFC0000003FFFFF
310
FFC0000003FFFFF800000000000000007F80000000000001FFFFFE0000003FFF
310
FFFFFFFE0000003FFFFFFF0003FFFFFFFFFFFF0000003FFFF000FFFF800000FF
310
FFF0001FFFFF0003FFFFE0003F80007FFFFF000001FFFFFFFFF800001FFFFFF8
310
00000000000000007F80000000000001FFFFFFC00001FFFFFFFFFFFFC00001FF
310
FFFFFF0003FFFFFFFFFFFFC00000FFFFF000FFFFF8000FFFFFFFFFFFFFFFFFFF
310
FFFFFFFFFFFFFFFFFFFFF0001FFFFFFFFFFF0000FFFFFFF80000000000000000
310
7FFFFFFFFFFFFFFFFFFFFFFC001FFFFFFFFFFFFFFC001FFFFFFFFFFFFFFFFFFF
310
FFFFFFFC001FFFFFF000FFFFFFFFFFFFFFFFFFFFFFFFFFFFFFFFFFFFFFFFFFFF
310
FFFFFFFFFFFFFFFFFFFFFFFFFFFFFFFFFFFFFFFFFFFFFFFFFFFFFFFFFFFFFFFF
310
FFFFFFFFFFFFFFFFFFFFFFFFFFFFFFFFFFFFFFFFFFFFFFFFFFFFFFFFFFFFFFFF
310
F000FFFFFFFFFFFFFFFFFFFFFFFFFFFFFFFFFFFFFFFFFFFFFFFFFFFFFFFFFFFF
310
FFFFFFFFFFFFFFFFFFFFFFFFFFFFFFFFFFFFFFFFFFFFFFFFFFFFFFFFFFFFFFFF
310
FFFFFFFFFFFFFFFFFFFFFFFFFFFFFFFFFFFFFFFFFFFFFFFFF000FFFFFFFFFFFF
310
FFFFFFFFFFFFFFFFFFFFFFFFFFFFFFFFFFFFFFFFFFFFFFFFFFFFFFFFFFFFFFFF
310
FFFFFFFFFFFFFFFFFFFFFFFFFFFFFFFFFFFFFFFFFFFFFFFFFFFFFFFFFFFFFFFF
310
FFFFFFFFFFFFFFFFFFFFFFFFFFFFFFFFF000FFFFFFFFFFFFFFFFFFFFFFFFFFFF
310
FFFFFFFFFFFFFFFFFFFFFFFFFFFFFFFFFFFFFFFFFFFFFFFFFFFFFFFFFFFFFFFF
310
FFFFFFFFFFFFFFFFFFFFFFFFFFFFFFFFFFFFFFFFFFFFFFFFFFFFFFFFFFFFFFFF
310
FFFFFFFFFFFFFFFFF000FFFFFFFFFFFFFFFFFFFFFFFFFFFFFFFFFFFFFFFFFFFF
310
FFFFFFFFFFFFFFFFFFFFFFFFFFFFFFFFFFFFFFFFFFFFFFFFFFFFFFFFFFFFFFFF
310
FFFFFFFFFFFFFFFFFFFFFFFFFFFFFFFFFFFFFFFFFFFFFFFFFFFFFFFFFFFFFFFF
310
F000FFFFFFFFFFFFFFFFFFFFFFFFFFFFFFFFFFFFFFFFFFFFFFFFFFFFFFFFFFFF
310
FFFFFFFFFFFFFFFFFFFFFFFFFFFFFFFFFFFFFFFFFFFFFFFFFFFFFFFFFFFFFFFF
310
FFFFFFFFFFFFFFFFFFFFFFFFFFFFFFFFFFFFFFFFFFFFFFFFF000FFFFFFFFFFFF
310
FFFFFFFFFFFFFFFFFFFFFFFFFFFFFFFFFFFFFFFFFFFFFFFFFFFFFFFFFFFFFFFF
310
FFFFFFFFFFFFFFFFFFFFFFFFFFFFFFFFFFFFFFFFFFFFFFFFFFFFFFFFFFFFFFFF
310
FFFFFFFFFFFFFFFFFFFFFFFFFFFFFFFFF000FFFFFFFFFFFFFFFFFFFFFFFFFFFF
310
FFFFFFFFFFFFFFFFFFFFFFFFFFFFFFFFFFFFFFFFFFFFFFFFFFFFFFFFFFFFFFFF
310
FFFFFFFFFFFFFFFFFFFFFFFFFFFFFFFFFFFFFFFFFFFFFFFFFFFFFFFFFFFFFFFF
310
FFFFFFFFFFFFFFFFF000FFFFFFFFFFFFFFFFFFFFFFFFFFFFFFFFFFFFFFFFFFFF
310
FFFFFFFFFFFFFFFFFFFFFFFFFFFFFFFFFFFFFFFFFFFFFFFFFFFFFFFFFFFFFFFF
310
FFFFFFFFFFFFFFFFFFFFFFFFFFFFFFFFFFFFFFFFFFFFFFFFFFFFFFFFFFFFFFFF
310
F000FFFFFFFFFFFFFFFFFFFFFFFFFFFFFFFFFFFFFFFFFFFFFFFFFFFFFFFFFFFF
310
FFFFFFFFFFFFFFFFFFFFFFFFFFFFFFFFFFFFFFFFFFFFFFFFFFFFFFFFFFFFFFFF
310
FFFFFFFFFFFFFFFFFFFFFFFFFFFFFFFFFFFFFFFFFFFFFFFFF000FFFFFFFFFFFF
310
FFFFFFFFFFFFFFFFFFFFFFFFFFFFFFFFFFFFFFFFFFFFFFFFFFFFFFFFFFFFFFFF
310
FFFFFFFFFFFFFFFFFFFFFFFFFFFFFFFFFFFFFFFFFFFFFFFFFFFFFFFFFFFFFFFF
310
FFFFFFFFFFFFFFFFFFFFFFFFFFFFFFFFF000FFFFFFFFFFFFFFFFFFFFFFFFFFFF
310
FFFFFFFFFFFFFFFFFFFFFFFFFFFFFFFFFFFFFFFFFFFFFFFFFFFFFFFFFFFFFFFF
310
FFFFFFFFFFFFFFFFFFFFFFFFFFFFFFFFFFFFFFFFFFFFFFFFFFFFFFFFFFFFFFFF
310
FFFFFFFFFFFFFFFFF000FFFFFFFFFFFFFFFFFFFFFFFFFFFFFFFFFFFFFFFFFFFF
310
FFFFFFFFFFFFFFFFFFFFFFFFFFFFFFFFFFFFFFFFFFFFFFFFFFFFFFFFFFFFFFFF
310
FFFFFFFFFFFFFFFFFFFFFFFFFFFFFFFFFFFFFFFFFFFFFFFFFFFFFFFFFFFFFFFF
310
F000FFFFFFFFFFFFFFFFFFFFFFFFFFFFFFFFFFFFFFFFFFFFFFFFFFFFFFFFFFFF
310
FFFFFFFFFFFFFFFFFFFFFFFFFFFFFFFFFFFFFFFFFFFFFFFFFFFFFFFFFFFFFFFF
310
FFFFFFFFFFFFFFFFFFFFFFFFFFFFFFFFFFFFFFFFFFFFFFFFF000FFFFFFFFFFFF
310
FFFFFFFFFFFFFFFFFFFFFFFFFFFFFFFFFFFFFFFFFFFFFFFFFFFFFFFFFFFFFFFF
310
FFFFFFFFFFFFFFFFFFFFFFFFFFFFFFFFFFFFFFFFFFFFFFFFFFFFFFFFFFFFFFFF
310
FFFFFFFFFFFFFFFFFFFFFFFFFFFFFFFFF000FFFFFFFFFFFFFFFFFFFFFFFFFFFF
310
FFFFFFFFFFFFFFFFFFFFFFFFFFFFFFFFFFFFFFFFFFFFFFFFFFFFFFFFFFFFFFFF
310
FFFFFFFFFFFFFFFFFFFFFFFFFFFFFFFFFFFFFFFFFFFFFFFFFFFFFFFFFFFFFFFF
310
FFFFFFFFFFFFFFFFF000FFFFFFFFFFFFFFFFFFFFFFFFFFFFFFFFFFFFFFFFFFFF
310
FFFFFFFFFFFFFFFFFFFFFFFFFFFFFFFFFFFFFFFFFFFFFFFFFFFFFFFFFFFFFFFF
310
FFFFFFFFFFFFFFFFFFFFFFFFFFFFFFFFFFFFFFFFFFFFFFFFFFFFFFFFFFFFFFFF
310
F000FFFFFFFFFFFFFFFFFFFFFFFFFFFFFFFFFFFFFFFFFFFFFFFFFFFFFFFFFFFF
310
FFFFFFFFFFFFFFFFFFFFFFFFFFFFFFFFFFFFFFFFFFFFFFFFFFFFFFFFFFFFFFFF
310
FFFFFFFFFFFFFFFFFFFFFFFFFFFFFFFFFFFFFFFFFFFFFFFFF000FFFFFFFFFFFF
310
FFFFFFFFFFFFFFFFFFFFFFFFFFFFFFFFFFFFFFFFFFFFFFFFFFFFFFFFFFFFFFFF
310
FFFFFFFFFFFFFFFFFFFFFFFFFFFFFFFFFFFFFFFFFFFFFFFFFFFFFFFFFFFFFFFF
310
FFFFFFFFFFFFFFFFFFFFFFFFFFFFFFFFF000FFFFFFFFFFFFFFFFFFFFFFFFFFFF
310
FFFFFFFFFFFFFFFFFFFFFFFFFFFFFFFFFFFFFFFFFFFFFFFFFFFFFFFFFFFFFFFF
310
FFFFFFFFFFFFFFFFFFFFFFFFFFFFFFFFFFFFFFFFFFFFFFFFFFFFFFFFFFFFFFFF
310
FFFFFFFFFFFFFFFFF000FFFFFFFFFFFFFFFFFFFFFFFFFFFFFFFFFFFFFFFFFFFF
310
FFFFFFFFFFFFFFFFFFFFFFFFFFFFFFFFFFFFFFFFFFFFFFFFFFFFFFFFFFFFFFFF
310
FFFFFFFFFFFFFFFFFFFFFFFFFFFFFFFFFFFFFFFFFFFFFFFFFFFFFFFFFFFFFFFF
310
F000FFFFFFFFFFFFFFFFFFFFFFFFFFFFFFFFFFFFFFFFFFFFFFFFFFFFFFFFFFFF
310
FFFFFFFFFFFFFFFFFFFFFFFFFFFFFFFFFFFFFFFFFFFFFFFFFFFFFFFFFFFFFFFF
310
FFFFFFFFFFFFFFFFFFFFFFFFFFFFFFFFFFFFFFFFFFFFFFFFF000FFFFFFFFFFFF
310
FFFFFFFFFFFFFFFFFFFFFFFFFFFFFFFFFFFFFFFFFFFFFFFFFFFFFFFFFFFFFFFF
310
FFFFFFFFFFFFFFFFFFFFFFFFFFFFFFFFFFFFFFFFFFFFFFFFFFFFFFFFFFFFFFFF
310
FFFFFFFFFFFFFFFFFFFFFFFFFFFFFFFFF0000000000000000000000000000000
310
00000000608FC53D509BF93DE5BEC63D509BF93D5830063E548FF83D11C8063E
310
5667F73D2B52073E1826F63D5CCD073E98CEF43D7D38083E0A64F33D8F92083E
310
CFE9F13DBDDA083E6B63F03D5810093E83D4EE3DE232093E35E5D53D5137C13D
310
11FCD53D1A15C13D3317D63D2AF6C03D2336D63D09DBC03D5958D63D2DC4C03D
310
417DD63DFAB1C03D38A4D63DC0A4C03D93CCD63DB89CC03DA2F5D63D089AC03D
310
A2F5D63DC642093E93CCD63D6E41093E38A4D63D6A3D093E417DD63DCD36093E
310
5958D63DB42D093E2336D63D4622093E3317D63DB514093E11FCD53D3D05093E
310
35E5D53D22F4083E35E5D53D22F4083EECB3D23D5830063EECB3D23DE5BEC63D
310
35E5D53D5137C13D3BE6003EC1B6103E3BE6003E174D0D3E6217093E174D0D3E
310
6217093E1DB7103EA2A5043EE5BEC63DAB04053E9169C63D916B053E2549C63D
310
1ED3053EE65FC63D0B34063E3DACC63D8B87063ECC28C73DC3C7063ED8CCC73D
310
31F0063EDB8CC83DFDFD063E5C5BC93DFDFD063E1CE2043E31F0063E5D49053E
310
C3C7063E5EA9053E8B87063E64FB053E0B34063EAC39063E1ED3053ED75F063E
310
916B053E386B063EAB04053E015B063EA2A5043E5830063E509BF93DE5BEC63D
310
A2A5043EE5BEC63DA2A5043E5830063E509BF93D5830063ED5F5CC3DE5BEC63D
  1
OLE
  0
ENDSEC
  0
SECTION
  2
OBJECTS
  0
DICTIONARY
  5
C
330
0
100
AcDbDictionary
281
     1
  3
ACAD_GROUP
350
D
  3
ACAD_LAYOUT
350
1A
  3
ACAD_MLEADERSTYLE
350
207
  3
ACAD_MLINESTYLE
350
17
  3
ACAD_PLOTSETTINGS
350
19
  3
ACAD_PLOTSTYLENAME
350
E
  3
ACAD_TABLESTYLE
350
206
  3
ACAD_VISUALSTYLE
350
2A
  3
AcDbVariableDictionary
350
208
  0
DICTIONARY
  5
D
102
{ACAD_REACTORS
330
C
102
}
330
C
100
AcDbDictionary
281
     1
  0
DICTIONARY
  5
1A
102
{ACAD_REACTORS
330
C
102
}
330
C
100
AcDbDictionary
281
     1
  3
Layout1
350
1E
  3
Layout2
350
26
  3
Model
350
22
  0
DICTIONARY
  5
207
102
{ACAD_REACTORS
330
C
102
}
330
C
100
AcDbDictionary
281
     1
  0
DICTIONARY
  5
17
102
{ACAD_REACTORS
330
C
102
}
330
C
100
AcDbDictionary
281
     1
  3
Standard
350
18
  0
DICTIONARY
  5
19
102
{ACAD_REACTORS
330
C
102
}
330
C
100
AcDbDictionary
281
     1
  0
ACDBDICTIONARYWDFLT
  5
E
102
{ACAD_REACTORS
330
C
102
}
330
C
100
AcDbDictionary
281
     1
  3
Normal
350
F
100
AcDbDictionaryWithDefault
340
F
  0
DICTIONARY
  5
206
102
{ACAD_REACTORS
330
C
102
}
330
C
100
AcDbDictionary
281
     1
  0
DICTIONARY
  5
2A
102
{ACAD_REACTORS
330
C
102
}
330
C
100
AcDbDictionary
281
     1
  3
2dWireframe
350
2F
  3
3D Hidden
350
31
  3
3dWireframe
350
30
  3
Basic
350
32
  3
Brighten
350
36
  3
ColorChange
350
3A
  3
Conceptual
350
34
  3
Dim
350
35
  3
Facepattern
350
39
  3
Flat
350
2B
  3
FlatWithEdges
350
2C
  3
Gouraud
350
2D
  3
GouraudWithEdges
350
2E
  3
Linepattern
350
38
  3
Realistic
350
33
  3
Thicken
350
37
  0
DICTIONARY
  5
208
102
{ACAD_REACTORS
330
C
102
}
330
C
100
AcDbDictionary
281
     1
  3
PSOLHEIGHT
350
20A
  3
PSOLWIDTH
350
209
  0
LAYOUT
  5
1E
102
{ACAD_REACTORS
330
1A
102
}
330
1A
100
AcDbPlotSettings
  1

  2
none_device
  4

  6

 40
0.0
 41
0.0
 42
0.0
 43
0.0
 44
0.0
 45
0.0
 46
0.0
 47
0.0
 48
0.0
 49
0.0
140
0.0
141
0.0
142
1.0
143
1.0
 70
   688
 72
     0
 73
     0
 74
     5
  7

 75
    16
147
1.0
148
0.0
149
0.0
100
AcDbLayout
  1
Layout1
 70
     1
 71
     1
 10
0.0
 20
0.0
 11
420.0
 21
297.0
 12
0.0
 22
0.0
 32
0.0
 14
1.0000000000E+20
 24
1.0000000000E+20
 34
1.0000000000E+20
 15
-1.0000000000E+20
 25
-1.0000000000E+20
 35
-1.0000000000E+20
146
0.0
 13
0.0
 23
0.0
 33
0.0
 16
1.0
 26
0.0
 36
0.0
 17
0.0
 27
1.0
 37
0.0
 76
     0
330
1B
  0
LAYOUT
  5
26
102
{ACAD_REACTORS
330
1A
102
}
330
1A
100
AcDbPlotSettings
  1

  2
none_device
  4

  6

 40
0.0
 41
0.0
 42
0.0
 43
0.0
 44
0.0
 45
0.0
 46
0.0
 47
0.0
 48
0.0
 49
0.0
140
0.0
141
0.0
142
1.0
143
1.0
 70
   688
 72
     0
 73
     0
 74
     5
  7

 75
    16
147
1.0
148
0.0
149
0.0
100
AcDbLayout
  1
Layout2
 70
     1
 71
     2
 10
0.0
 20
0.0
 11
0.0
 21
0.0
 12
0.0
 22
0.0
 32
0.0
 14
0.0
 24
0.0
 34
0.0
 15
0.0
 25
0.0
 35
0.0
146
0.0
 13
0.0
 23
0.0
 33
0.0
 16
1.0
 26
0.0
 36
0.0
 17
0.0
 27
1.0
 37
0.0
 76
     0
330
23
  0
LAYOUT
  5
22
102
{ACAD_REACTORS
330
1A
102
}
330
1A
100
AcDbPlotSettings
  1

  2
none_device
  4

  6

 40
0.0
 41
0.0
 42
0.0
 43
0.0
 44
0.0
 45
0.0
 46
0.0
 47
0.0
 48
0.0
 49
0.0
140
0.0
141
0.0
142
1.0
143
1.0
 70
  1712
 72
     0
 73
     0
 74
     0
  7

 75
     0
147
1.0
148
0.0
149
0.0
100
AcDbLayout
  1
Model
 70
     1
 71
     0
 10
0.0
 20
0.0
 11
297.0
 21
210.0
 12
0.0
 22
0.0
 32
0.0
 14
0.0
 24
0.0
 34
0.0
 15
297.0
 25
210.0
 35
0.0
146
0.0
 13
0.0
 23
0.0
 33
0.0
 16
1.0
 26
0.0
 36
0.0
 17
0.0
 27
1.0
 37
0.0
 76
     0
330
1F
331
29
  0
MLINESTYLE
  5
18
102
{ACAD_REACTORS
330
17
102
}
330
17
100
AcDbMlineStyle
  2
Standard
 70
     0
  3

 62
   256
 51
90.0
 52
90.0
 71
     2
 49
0.5
 62
   256
  6
BYLAYER
 49
-0.5
 62
   256
  6
BYLAYER
  0
ACDBPLACEHOLDER
  5
F
102
{ACAD_REACTORS
330
E
102
}
330
E
  0
VISUALSTYLE
  5
2F
102
{ACAD_REACTORS
330
2A
102
}
330
2A
100
AcDbVisualStyle
  2
2dWireframe
 70
     4
 71
     0
 72
     2
 73
     0
 90
        0
 40
-0.6
 41
-30.0
 62
     5
 63
     7
 74
     1
 91
        4
 64
     7
 65
   257
 75
     1
175
     1
 42
1.0
 92
        0
 66
   257
 43
1.0
 76
     1
 77
     6
 78
     2
 67
     7
 79
     5
170
     0
171
     0
290
     0
174
     0
 93
        1
 44
0.0
173
     0
291
     0
 45
0.0
1001
ACAD
1000
AcDbSavedByObjectVersion
1070
     0
  0
VISUALSTYLE
  5
31
102
{ACAD_REACTORS
330
2A
102
}
330
2A
100
AcDbVisualStyle
  2
3D Hidden
 70
     6
 71
     1
 72
     2
 73
     2
 90
        0
 40
-0.6
 41
-30.0
 62
     5
 63
     7
 74
     2
 91
        2
 64
     7
 65
   257
 75
     2
175
     1
 42
40.0
 92
        0
 66
   257
 43
1.0
 76
     1
 77
     6
 78
     2
 67
     7
 79
     3
170
     0
171
     0
290
     0
174
     0
 93
        1
 44
0.0
173
     0
291
     0
 45
0.0
1001
ACAD
1000
AcDbSavedByObjectVersion
1070
     0
  0
VISUALSTYLE
  5
30
102
{ACAD_REACTORS
330
2A
102
}
330
2A
100
AcDbVisualStyle
  2
3dWireframe
 70
     5
 71
     0
 72
     2
 73
     0
 90
        0
 40
-0.6
 41
-30.0
 62
     5
 63
     7
 74
     1
 91
        4
 64
     7
 65
   257
 75
     1
175
     1
 42
1.0
 92
        0
 66
   257
 43
1.0
 76
     1
 77
     6
 78
     2
 67
     7
 79
     5
170
     0
171
     0
290
     0
174
     0
 93
        1
 44
0.0
173
     0
291
     0
 45
0.0
1001
ACAD
1000
AcDbSavedByObjectVersion
1070
     0
  0
VISUALSTYLE
  5
32
102
{ACAD_REACTORS
330
2A
102
}
330
2A
100
AcDbVisualStyle
  2
Basic
 70
     7
 71
     1
 72
     0
 73
     1
 90
        0
 40
-0.6
 41
-30.0
 62
     5
 63
     7
 74
     0
 91
        4
 64
     7
 65
   257
 75
     1
175
     1
 42
1.0
 92
        8
 66
     7
 43
1.0
 76
     1
 77
     6
 78
     2
 67
     7
 79
     5
170
     0
171
     0
290
     0
174
     0
 93
        1
 44
0.0
173
     0
291
     1
 45
0.0
1001
ACAD
1000
AcDbSavedByObjectVersion
1070
     0
  0
VISUALSTYLE
  5
36
102
{ACAD_REACTORS
330
2A
102
}
330
2A
100
AcDbVisualStyle
  2
Brighten
 70
    12
 71
     2
 72
     2
 73
     0
 90
        0
 40
-0.6
 41
-30.0
 62
     5
 63
     7
 74
     1
 91
        4
 64
     7
 65
   257
 75
     1
175
     1
 42
1.0
 92
        8
 66
     7
 43
1.0
 76
     1
 77
     6
 78
     2
 67
     7
 79
     5
170
     0
171
     0
290
     0
174
     0
 93
        1
 44
50.0
173
     0
291
     1
 45
0.0
1001
ACAD
1000
AcDbSavedByObjectVersion
1070
     0
  0
VISUALSTYLE
  5
3A
102
{ACAD_REACTORS
330
2A
102
}
330
2A
100
AcDbVisualStyle
  2
ColorChange
 70
    16
 71
     2
 72
     2
 73
     3
 90
        0
 40
-0.6
 41
-30.0
 62
     5
 63
     8
 74
     1
 91
        4
 64
     7
 65
   257
 75
     1
175
     1
 42
1.0
 92
        8
 66
     8
 43
1.0
 76
     1
 77
     6
 78
     2
 67
     7
 79
     5
170
     0
171
     0
290
     0
174
     0
 93
        1
 44
0.0
173
     0
291
     1
 45
0.0
1001
ACAD
1000
AcDbSavedByObjectVersion
1070
     0
  0
VISUALSTYLE
  5
34
102
{ACAD_REACTORS
330
2A
102
}
330
2A
100
AcDbVisualStyle
  2
Conceptual
 70
     9
 71
     3
 72
     2
 73
     0
 90
        0
 40
-0.6
 41
-30.0
 62
     5
 63
     7
 74
     2
 91
        2
 64
     7
 65
   257
 75
     1
175
     1
 42
40.0
 92
        8
 66
     7
 43
1.0
 76
     1
 77
     6
 78
     2
 67
     7
 79
     3
170
     0
171
     0
290
     0
174
     0
 93
        1
 44
0.0
173
     0
291
     0
 45
0.0
1001
ACAD
1000
AcDbSavedByObjectVersion
1070
     0
  0
VISUALSTYLE
  5
35
102
{ACAD_REACTORS
330
2A
102
}
330
2A
100
AcDbVisualStyle
  2
Dim
 70
    11
 71
     2
 72
     2
 73
     0
 90
        0
 40
-0.6
 41
-30.0
 62
     5
 63
     7
 74
     1
 91
        4
 64
     7
 65
   257
 75
     1
175
     1
 42
1.0
 92
        8
 66
     7
 43
1.0
 76
     1
 77
     6
 78
     2
 67
     7
 79
     5
170
     0
171
     0
290
     0
174
     0
 93
        1
 44
-50.0
173
     0
291
     1
 45
0.0
1001
ACAD
1000
AcDbSavedByObjectVersion
1070
     0
  0
VISUALSTYLE
  5
39
102
{ACAD_REACTORS
330
2A
102
}
330
2A
100
AcDbVisualStyle
  2
Facepattern
 70
    15
 71
     2
 72
     2
 73
     0
 90
        0
 40
-0.6
 41
-30.0
 62
     5
 63
     7
 74
     1
 91
        4
 64
     7
 65
   257
 75
     1
175
     1
 42
1.0
 92
        8
 66
     7
 43
1.0
 76
     1
 77
     6
 78
     2
 67
     7
 79
     5
170
     0
171
     0
290
     0
174
     0
 93
        1
 44
0.0
173
     0
291
     1
 45
0.0
1001
ACAD
1000
AcDbSavedByObjectVersion
1070
     0
  0
VISUALSTYLE
  5
2B
102
{ACAD_REACTORS
330
2A
102
}
330
2A
100
AcDbVisualStyle
  2
Flat
 70
     0
 71
     2
 72
     1
 73
     1
 90
        2
 40
-0.6
 41
30.0
 62
     5
 63
     7
 74
     0
 91
        4
 64
     7
 65
   257
 75
     1
175
     1
 42
1.0
 92
        8
 66
     7
 43
1.0
 76
     1
 77
     6
 78
     2
 67
     7
 79
     5
170
     0
171
     0
290
     0
174
     0
 93
       13
 44
0.0
173
     0
291
     1
 45
0.0
1001
ACAD
1000
AcDbSavedByObjectVersion
1070
     0
  0
VISUALSTYLE
  5
2C
102
{ACAD_REACTORS
330
2A
102
}
330
2A
100
AcDbVisualStyle
  2
FlatWithEdges
 70
     1
 71
     2
 72
     1
 73
     1
 90
        2
 40
-0.6
 41
30.0
 62
     5
 63
     7
 74
     1
 91
        4
 64
     7
 65
   257
 75
     1
175
     1
 42
1.0
 92
        0
 66
   257
 43
1.0
 76
     1
 77
     6
 78
     2
 67
     7
 79
     5
170
     0
171
     0
290
     0
174
     0
 93
       13
 44
0.0
173
     0
291
     1
 45
0.0
1001
ACAD
1000
AcDbSavedByObjectVersion
1070
     0
  0
VISUALSTYLE
  5
2D
102
{ACAD_REACTORS
330
2A
102
}
330
2A
100
AcDbVisualStyle
  2
Gouraud
 70
     2
 71
     2
 72
     2
 73
     1
 90
        2
 40
-0.6
 41
30.0
 62
     5
 63
     7
 74
     0
 91
        4
 64
     7
 65
   257
 75
     1
175
     1
 42
1.0
 92
        0
 66
     7
 43
1.0
 76
     1
 77
     6
 78
     2
 67
     7
 79
     5
170
     0
171
     0
290
     0
174
     0
 93
       13
 44
0.0
173
     0
291
     1
 45
0.0
1001
ACAD
1000
AcDbSavedByObjectVersion
1070
     0
  0
VISUALSTYLE
  5
2E
102
{ACAD_REACTORS
330
2A
102
}
330
2A
100
AcDbVisualStyle
  2
GouraudWithEdges
 70
     3
 71
     2
 72
     2
 73
     1
 90
        2
 40
-0.6
 41
30.0
 62
     5
 63
     7
 74
     1
 91
        4
 64
     7
 65
   257
 75
     1
175
     1
 42
1.0
 92
        0
 66
   257
 43
1.0
 76
     1
 77
     6
 78
     2
 67
     7
 79
     5
170
     0
171
     0
290
     0
174
     0
 93
       13
 44
0.0
173
     0
291
     1
 45
0.0
1001
ACAD
1000
AcDbSavedByObjectVersion
1070
     0
  0
VISUALSTYLE
  5
38
102
{ACAD_REACTORS
330
2A
102
}
330
2A
100
AcDbVisualStyle
  2
Linepattern
 70
    14
 71
     2
 72
     2
 73
     0
 90
        0
 40
-0.6
 41
-30.0
 62
     5
 63
     7
 74
     1
 91
        4
 64
     7
 65
   257
 75
     7
175
     7
 42
1.0
 92
        8
 66
     7
 43
1.0
 76
     1
 77
     6
 78
     2
 67
     7
 79
     5
170
     0
171
     0
290
     0
174
     0
 93
        1
 44
0.0
173
     0
291
     1
 45
0.0
1001
ACAD
1000
AcDbSavedByObjectVersion
1070
     0
  0
VISUALSTYLE
  5
33
102
{ACAD_REACTORS
330
2A
102
}
330
2A
100
AcDbVisualStyle
  2
Realistic
 70
     8
 71
     2
 72
     2
 73
     0
 90
        0
 40
-0.6
 41
-30.0
 62
     5
 63
     7
 74
     1
 91
        0
 64
     7
 65
   257
 75
     1
175
     1
 42
1.0
 92
        8
 66
     8
 43
1.0
 76
     1
 77
     6
 78
     2
 67
     7
 79
     5
170
     0
171
     0
290
     0
174
     0
 93
       13
 44
0.0
173
     0
291
     0
 45
0.0
1001
ACAD
1000
AcDbSavedByObjectVersion
1070
     0
  0
VISUALSTYLE
  5
37
102
{ACAD_REACTORS
330
2A
102
}
330
2A
100
AcDbVisualStyle
  2
Thicken
 70
    13
 71
     2
 72
     2
 73
     0
 90
        0
 40
-0.6
 41
-30.0
 62
     5
 63
     7
 74
     1
 91
        4
 64
     7
 65
   257
 75
     1
175
     1
 42
1.0
 92
       12
 66
     7
 43
1.0
 76
     1
 77
     6
 78
     2
 67
     7
 79
     5
170
     0
171
     0
290
     0
174
     0
 93
        1
 44
0.0
173
     0
291
     1
 45
0.0
1001
ACAD
1000
AcDbSavedByObjectVersion
1070
     0
  0
DICTIONARYVAR
  5
20A
102
{ACAD_REACTORS
330
208
102
}
330
208
100
DictionaryVariables
280
     0
  1
80.000000
  0
DICTIONARYVAR
  5
209
102
{ACAD_REACTORS
330
208
102
}
330
208
100
DictionaryVariables
280
     0
  1
5.000000
  0
ENDSEC
  0
EOF
