  0
SECTION
  2
HEADER
  9
$ACADVER
  1
AC1015
  9
$ACADMAINTVER
 70
     6
  9
$DWGCODEPAGE
  3
ANSI_1252
  9
$INSBASE
 10
0.0
 20
0.0
 30
0.0
  9
$EXTMIN
 10
0.0
 20
0.0
 30
0.0
  9
$EXTMAX
 10
297.0
 20
210.0
 30
0.0
  9
$LIMMIN
 10
0.0
 20
0.0
  9
$LIMMAX
 10
297.0
 20
210.0
  9
$ORTHOMODE
 70
     0
  9
$REGENMODE
 70
     1
  9
$FILLMODE
 70
     1
  9
$QTEXTMODE
 70
     0
  9
$MIRRTEXT
 70
     1
  9
$LTSCALE
 40
1.0
  9
$ATTMODE
 70
     1
  9
$TEXTSIZE
 40
2.0
  9
$TRACEWID
 40
1.0
  9
$TEXTSTYLE
  7
Standard
  9
$CLAYER
  8
0
  9
$CELTYPE
  6
ByLayer
  9
$CECOLOR
 62
   256
  9
$CELTSCALE
 40
1.0
  9
$DISPSILH
 70
     0
  9
$DIMSCALE
 40
1.0
  9
$DIMASZ
 40
3.0
  9
$DIMEXO
 40
0.0
  9
$DIMDLI
 40
3.75
  9
$DIMRND
 40
0.0
  9
$DIMDLE
 40
0.0
  9
$DIMEXE
 40
1.0
  9
$DIMTP
 40
0.0
  9
$DIMTM
 40
0.0
  9
$DIMTXT
 40
2.0
  9
$DIMCEN
 40
2.5
  9
$DIMTSZ
 40
0.0
  9
$DIMTOL
 70
     0
  9
$DIMLIM
 70
     0
  9
$DIMTIH
 70
     1
  9
$DIMTOH
 70
     1
  9
$DIMSE1
 70
     0
  9
$DIMSE2
 70
     0
  9
$DIMTAD
 70
     1
  9
$DIMZIN
 70
     0
  9
$DIMBLK
  1

  9
$DIMASO
 70
     1
  9
$DIMSHO
 70
     1
  9
$DIMPOST
  1

  9
$DIMAPOST
  1

  9
$DIMALT
 70
     0
  9
$DIMALTD
 70
     3
  9
$DIMALTF
 40
0.0393700787
  9
$DIMLFAC
 40
1.0
  9
$DIMTOFL
 70
     1
  9
$DIMTVP
 40
0.0
  9
$DIMTIX
 70
     0
  9
$DIMSOXD
 70
     0
  9
$DIMSAH
 70
     0
  9
$DIMBLK1
  1

  9
$DIMBLK2
  1

  9
$DIMSTYLE
  2
ISO-25
  9
$DIMCLRD
 70
     0
  9
$DIMCLRE
 70
     0
  9
$DIMCLRT
 70
     0
  9
$DIMTFAC
 40
1.0
  9
$DIMGAP
 40
1.524
  9
$DIMJUST
 70
     0
  9
$DIMSD1
 70
     0
  9
$DIMSD2
 70
     0
  9
$DIMTOLJ
 70
     0
  9
$DIMTZIN
 70
     0
  9
$DIMALTZ
 70
     0
  9
$DIMALTTZ
 70
     0
  9
$DIMUPT
 70
     0
  9
$DIMDEC
 70
     2
  9
$DIMTDEC
 70
     3
  9
$DIMALTU
 70
     2
  9
$DIMALTTD
 70
     3
  9
$DIMTXSTY
  7
Standard
  9
$DIMAUNIT
 70
     0
  9
$DIMADEC
 70
     2
  9
$DIMALTRND
 40
0.0
  9
$DIMAZIN
 70
     0
  9
$DIMDSEP
 70
    44
  9
$DIMATFIT
 70
     3
  9
$DIMFRAC
 70
     0
  9
$DIMLDRBLK
  1

  9
$DIMLUNIT
 70
     2
  9
$DIMLWD
 70
    -2
  9
$DIMLWE
 70
    -2
  9
$DIMTMOVE
 70
     0
  9
$LUNITS
 70
     2
  9
$LUPREC
 70
     2
  9
$SKETCHINC
 40
1.0
  9
$FILLETRAD
 40
10.0
  9
$AUNITS
 70
     0
  9
$AUPREC
 70
     2
  9
$MENU
  1
.
  9
$ELEVATION
 40
0.0
  9
$PELEVATION
 40
0.0
  9
$THICKNESS
 40
0.0
  9
$LIMCHECK
 70
     0
  9
$CHAMFERA
 40
10.0
  9
$CHAMFERB
 40
10.0
  9
$CHAMFERC
 40
20.0
  9
$CHAMFERD
 40
0.0
  9
$SKPOLY
 70
     0
  9
$TDCREATE
 40
2455672.377442245
  9
$TDUCREATE
 40
2455672.294108912
  9
$TDUPDATE
 40
2455672.377442257
  9
$TDUUPDATE
 40
2455672.294108924
  9
$TDINDWG
 40
0.0000000116
  9
$TDUSRTIMER
 40
0.0000000116
  9
$USRTIMER
 70
     1
  9
$ANGBASE
 50
0.0
  9
$ANGDIR
 70
     0
  9
$PDMODE
 70
     0
  9
$PDSIZE
 40
-1.0
  9
$PLINEWID
 40
0.0
  9
$SPLFRAME
 70
     0
  9
$SPLINETYPE
 70
     6
  9
$SPLINESEGS
 70
     8
  9
$HANDSEED
  5
188
  9
$SURFTAB1
 70
     6
  9
$SURFTAB2
 70
     6
  9
$SURFTYPE
 70
     6
  9
$SURFU
 70
     6
  9
$SURFV
 70
     6
  9
$UCSBASE
  2

  9
$UCSNAME
  2

  9
$UCSORG
 10
0.0
 20
0.0
 30
0.0
  9
$UCSXDIR
 10
1.0
 20
0.0
 30
0.0
  9
$UCSYDIR
 10
0.0
 20
1.0
 30
0.0
  9
$UCSORTHOREF
  2

  9
$UCSORTHOVIEW
 70
     0
  9
$UCSORGTOP
 10
0.0
 20
0.0
 30
0.0
  9
$UCSORGBOTTOM
 10
0.0
 20
0.0
 30
0.0
  9
$UCSORGLEFT
 10
0.0
 20
0.0
 30
0.0
  9
$UCSORGRIGHT
 10
0.0
 20
0.0
 30
0.0
  9
$UCSORGFRONT
 10
0.0
 20
0.0
 30
0.0
  9
$UCSORGBACK
 10
0.0
 20
0.0
 30
0.0
  9
$PUCSBASE
  2

  9
$PUCSNAME
  2

  9
$PUCSORG
 10
0.0
 20
0.0
 30
0.0
  9
$PUCSXDIR
 10
1.0
 20
0.0
 30
0.0
  9
$PUCSYDIR
 10
0.0
 20
1.0
 30
0.0
  9
$PUCSORTHOREF
  2

  9
$PUCSORTHOVIEW
 70
     0
  9
$PUCSORGTOP
 10
0.0
 20
0.0
 30
0.0
  9
$PUCSORGBOTTOM
 10
0.0
 20
0.0
 30
0.0
  9
$PUCSORGLEFT
 10
0.0
 20
0.0
 30
0.0
  9
$PUCSORGRIGHT
 10
0.0
 20
0.0
 30
0.0
  9
$PUCSORGFRONT
 10
0.0
 20
0.0
 30
0.0
  9
$PUCSORGBACK
 10
0.0
 20
0.0
 30
0.0
  9
$USERI1
 70
     0
  9
$USERI2
 70
     0
  9
$USERI3
 70
     0
  9
$USERI4
 70
     0
  9
$USERI5
 70
     0
  9
$USERR1
 40
0.0
  9
$USERR2
 40
0.0
  9
$USERR3
 40
0.0
  9
$USERR4
 40
0.0
  9
$USERR5
 40
0.0
  9
$WORLDVIEW
 70
     1
  9
$SHADEDGE
 70
     3
  9
$SHADEDIF
 70
    70
  9
$TILEMODE
 70
     1
  9
$MAXACTVP
 70
    64
  9
$PINSBASE
 10
0.0
 20
0.0
 30
0.0
  9
$PLIMCHECK
 70
     0
  9
$PEXTMIN
 10
1.0000000000E+20
 20
1.0000000000E+20
 30
1.0000000000E+20
  9
$PEXTMAX
 10
-1.0000000000E+20
 20
-1.0000000000E+20
 30
-1.0000000000E+20
  9
$PLIMMIN
 10
0.0
 20
0.0
  9
$PLIMMAX
 10
420.0
 20
297.0
  9
$UNITMODE
 70
     0
  9
$VISRETAIN
 70
     1
  9
$PLINEGEN
 70
     0
  9
$PSLTSCALE
 70
     1
  9
$TREEDEPTH
 70
  3020
  9
$CMLSTYLE
  2
Standard
  9
$CMLJUST
 70
     0
  9
$CMLSCALE
 40
20.0
  9
$PROXYGRAPHICS
 70
     1
  9
$MEASUREMENT
 70
     1
  9
$CELWEIGHT
370
    -1
  9
$ENDCAPS
280
     0
  9
$JOINSTYLE
280
     0
  9
$LWDISPLAY
290
     1
  9
$INSUNITS
 70
     4
  9
$HYPERLINKBASE
  1

  9
$STYLESHEET
  1

  9
$XEDIT
290
     1
  9
$CEPSNTYPE
380
     0
  9
$PSTYLEMODE
290
     1
  9
$FINGERPRINTGUID
  2
{B70BFC1C-4B3B-4B8E-99A0-20179EEBCC25}
  9
$VERSIONGUID
  2
{FAEB1C32-E019-11D5-929B-00C0DF256EC4}
  9
$EXTNAMES
290
     1
  9
$PSVPSCALE
 40
0.0
  9
$OLESTARTUP
290
     0
  0
ENDSEC
  0
SECTION
  2
CLASSES
  0
CLASS
  1
ACDBDICTIONARYWDFLT
  2
AcDbDictionaryWithDefault
  3
ObjectDBX Classes
 90
        0
280
     0
281
     0
  0
CLASS
  1
VISUALSTYLE
  2
AcDbVisualStyle
  3
ObjectDBX Classes
 90
     4095
280
     0
281
     0
  0
CLASS
  1
DICTIONARYVAR
  2
AcDbDictionaryVar
  3
ObjectDBX Classes
 90
        0
280
     0
281
     0
  0
CLASS
  1
ACDBPLACEHOLDER
  2
AcDbPlaceHolder
  3
ObjectDBX Classes
 90
        0
280
     0
281
     0
  0
CLASS
  1
LAYOUT
  2
AcDbLayout
  3
ObjectDBX Classes
 90
        0
280
     0
281
     0
  0
ENDSEC
  0
SECTION
  2
TABLES
  0
TABLE
  2
VPORT
  5
8
330
0
100
AcDbSymbolTable
 70
     1
  0
VPORT
  5
29
330
8
100
AcDbSymbolTableRecord
100
AcDbViewportTableRecord
  2
*Active
 70
     0
 10
0.0
 20
0.0
 11
1.0
 21
1.0
 12
148.5
 22
105.0
 13
0.0
 23
0.0
 14
10.0
 24
10.0
 15
10.0
 25
10.0
 16
0.0
 26
0.0
 36
1.0
 17
0.0
 27
0.0
 37
0.0
 40
210.0
 41
1.4142857143
 42
50.0
 43
0.0
 44
0.0
 50
0.0
 51
0.0
 71
     0
 72
  2000
 73
     1
 74
     3
 75
     0
 76
     0
 77
     0
 78
     0
281
     0
 65
     1
110
0.0
120
0.0
130
0.0
111
1.0
121
0.0
131
0.0
112
0.0
122
1.0
132
0.0
 79
     0
146
0.0
  0
ENDTAB
  0
TABLE
  2
LTYPE
  5
5
330
0
100
AcDbSymbolTable
 70
     6
  0
LTYPE
  5
14
330
5
100
AcDbSymbolTableRecord
100
AcDbLinetypeTableRecord
  2
ByBlock
 70
     0
  3

 72
    65
 73
     0
 40
0.0
  0
LTYPE
  5
15
330
5
100
AcDbSymbolTableRecord
100
AcDbLinetypeTableRecord
  2
ByLayer
 70
     0
  3

 72
    65
 73
     0
 40
0.0
  0
LTYPE
  5
16
330
5
100
AcDbSymbolTableRecord
100
AcDbLinetypeTableRecord
  2
Continuous
 70
     0
  3
Solid line
 72
    65
 73
     0
 40
0.0
  0
LTYPE
  5
3B
330
5
100
AcDbSymbolTableRecord
100
AcDbLinetypeTableRecord
  2
HIDDEN
 70
     0
  3
Hidden __ __ __ __ __ __ __ __ __ __ __ __ __ __
 72
    65
 73
     2
 40
1.905
 49
1.27
 74
     0
 49
-0.635
 74
     0
  0
LTYPE
  5
3C
330
5
100
AcDbSymbolTableRecord
100
AcDbLinetypeTableRecord
  2
PHANTOM
 70
     0
  3
Phantom ______  __  __  ______  __  __  ______
 72
    65
 73
     6
 40
12.7
 49
6.35
 74
     0
 49
-1.27
 74
     0
 49
1.27
 74
     0
 49
-1.27
 74
     0
 49
1.27
 74
     0
 49
-1.27
 74
     0
  0
LTYPE
  5
3D
330
5
100
AcDbSymbolTableRecord
100
AcDbLinetypeTableRecord
  2
CENTER
 70
     0
  3
Center ____ _ ____ _ ____ _ ____ _ ____ _ ____
 72
    65
 73
     4
 40
10.16
 49
6.35
 74
     0
 49
-1.27
 74
     0
 49
1.27
 74
     0
 49
-1.27
 74
     0
  0
LTYPE
  5
3E
330
5
100
AcDbSymbolTableRecord
100
AcDbLinetypeTableRecord
  2
CENTERX2
 70
     0
  3
Center (2x) ________  __  ________  __  _____
 72
    65
 73
     4
 40
20.32
 49
12.7
 74
     0
 49
-2.54
 74
     0
 49
2.54
 74
     0
 49
-2.54
 74
     0
  0
LTYPE
  5
3F
330
5
100
AcDbSymbolTableRecord
100
AcDbLinetypeTableRecord
  2
DOT2
 70
     0
  3
Dot (.5x) ........................................
 72
    65
 73
     2
 40
0.635
 49
0.0
 74
     0
 49
-0.635
 74
     0
  0
ENDTAB
  0
TABLE
  2
LAYER
  5
2
330
0
100
AcDbSymbolTable
 70
     5
  0
LAYER
  5
10
330
2
100
AcDbSymbolTableRecord
100
AcDbLayerTableRecord
  2
0
 70
     0
 62
     7
  6
Continuous
370
    -3
390
F
  0
LAYER
  5
40
330
2
100
AcDbSymbolTableRecord
100
AcDbLayerTableRecord
  2
FORMAT
 70
     0
 62
     7
  6
Continuous
370
    -3
390
F
  0
LAYER
  5
41
330
2
100
AcDbSymbolTableRecord
100
AcDbLayerTableRecord
  2
VERMASSUNG
 70
     0
 62
     7
  6
Continuous
370
    -3
390
F
  0
LAYER
  5
42
330
2
100
AcDbSymbolTableRecord
100
AcDbLayerTableRecord
  2
KOPF_DÜNN
 70
     0
 62
     7
  6
Continuous
370
    -3
390
F
  0
LAYER
  5
43
330
2
100
AcDbSymbolTableRecord
100
AcDbLayerTableRecord
  2
KOPF_DICK
 70
     0
 62
     7
  6
Continuous
370
    15
390
F
  0
ENDTAB
  0
TABLE
  2
STYLE
  5
3
330
0
100
AcDbSymbolTable
 70
     3
  0
STYLE
  5
11
330
3
100
AcDbSymbolTableRecord
100
AcDbTextStyleTableRecord
  2
Standard
 70
     0
 40
0.0
 41
1.0
 50
0.0
 71
     0
 42
2.5
  3
txt
  4

  0
STYLE
  5
44
330
3
100
AcDbSymbolTableRecord
100
AcDbTextStyleTableRecord
  2
SLDTEXTSTYLE0
 70
     0
 40
0.0
 41
0.7
 50
0.0
 71
     0
 42
0.2
  3
TXT
  4

  0
STYLE
  5
48
330
3
100
AcDbSymbolTableRecord
100
AcDbTextStyleTableRecord
  2
SLDTEXTSTYLE1
 70
     0
 40
0.0
 41
0.6473684211
 50
0.0
 71
     0
 42
0.2
  3
TXT
  4

  0
ENDTAB
  0
TABLE
  2
VIEW
  5
6
330
0
100
AcDbSymbolTable
 70
     0
  0
ENDTAB
  0
TABLE
  2
UCS
  5
7
330
0
100
AcDbSymbolTable
 70
     0
  0
ENDTAB
  0
TABLE
  2
APPID
  5
9
330
0
100
AcDbSymbolTable
 70
     1
  0
APPID
  5
12
330
9
100
AcDbSymbolTableRecord
100
AcDbRegAppTableRecord
  2
ACAD
 70
     0
  0
ENDTAB
  0
TABLE
  2
DIMSTYLE
  5
A
330
0
100
AcDbSymbolTable
 70
     2
100
AcDbDimStyleTable
  0
DIMSTYLE
105
27
330
A
100
AcDbSymbolTableRecord
100
AcDbDimStyleTableRecord
  2
ISO-25
 70
     0
 41
2.5
 42
0.625
 43
3.75
 44
1.25
 73
     0
 74
     0
 77
     1
 78
     8
140
2.5
141
2.5
143
0.0393700787
147
0.625
171
     3
172
     1
271
     2
272
     2
274
     3
278
    44
283
     0
284
     8
340
11
  0
DIMSTYLE
105
140
102
{ACAD_REACTORS
330
13F
330
14C
330
156
330
160
330
16A
330
175
102
}
330
A
100
AcDbSymbolTableRecord
100
AcDbDimStyleTableRecord
  2
SLDDIMSTYLE0
 70
     0
 41
3.0
 44
0.0
 45
0.000000001
 73
     0
 74
     0
 77
     1
 78
    12
140
2.0
147
0.5
173
     1
271
     2
272
     3
284
    12
340
44
  0
ENDTAB
  0
TABLE
  2
BLOCK_RECORD
  5
1
330
0
100
AcDbSymbolTable
 70
     7
  0
BLOCK_RECORD
  5
1F
330
1
100
AcDbSymbolTableRecord
100
AcDbBlockTableRecord
  2
*Model_Space
340
22
  0
BLOCK_RECORD
  5
1B
330
1
100
AcDbSymbolTableRecord
100
AcDbBlockTableRecord
  2
*Paper_Space
340
1E
  0
BLOCK_RECORD
  5
23
330
1
100
AcDbSymbolTableRecord
100
AcDbBlockTableRecord
  2
*Paper_Space0
340
26
  0
BLOCK_RECORD
  5
141
330
1
100
AcDbSymbolTableRecord
100
AcDbBlockTableRecord
  2
*D1
340
0
  0
BLOCK_RECORD
  5
14D
330
1
100
AcDbSymbolTableRecord
100
AcDbBlockTableRecord
  2
*D2
340
0
  0
BLOCK_RECORD
  5
157
330
1
100
AcDbSymbolTableRecord
100
AcDbBlockTableRecord
  2
*D3
340
0
  0
BLOCK_RECORD
  5
161
330
1
100
AcDbSymbolTableRecord
100
AcDbBlockTableRecord
  2
*D4
340
0
  0
BLOCK_RECORD
  5
16B
330
1
100
AcDbSymbolTableRecord
100
AcDbBlockTableRecord
  2
*D5
340
0
  0
BLOCK_RECORD
  5
176
330
1
100
AcDbSymbolTableRecord
100
AcDbBlockTableRecord
  2
*D6
340
0
  0
ENDTAB
  0
ENDSEC
  0
SECTION
  2
BLOCKS
  0
BLOCK
  5
20
330
1F
100
AcDbEntity
  8
0
100
AcDbBlockBegin
  2
*Model_Space
 70
     0
 10
0.0
 20
0.0
 30
0.0
  3
*Model_Space
  1

  0
ENDBLK
  5
21
330
1F
100
AcDbEntity
  8
0
100
AcDbBlockEnd
  0
BLOCK
  5
1C
330
1B
100
AcDbEntity
 67
     1
  8
0
100
AcDbBlockBegin
  2
*Paper_Space
 70
     0
 10
0.0
 20
0.0
 30
0.0
  3
*Paper_Space
  1

  0
ENDBLK
  5
1D
330
1B
100
AcDbEntity
 67
     1
  8
0
100
AcDbBlockEnd
  0
BLOCK
  5
24
330
23
100
AcDbEntity
  8
0
100
AcDbBlockBegin
  2
*Paper_Space0
 70
     0
 10
0.0
 20
0.0
 30
0.0
  3
*Paper_Space0
  1

  0
ENDBLK
  5
25
330
23
100
AcDbEntity
  8
0
100
AcDbBlockEnd
  0
BLOCK
  5
142
330
141
100
AcDbEntity
  8
0
100
AcDbBlockBegin
  2
*D1
 70
     1
 10
0.0
 20
0.0
 30
0.0
  3
*D1
  1

  0
SOLID
  5
144
330
141
100
AcDbEntity
  8
VERMASSUNG
100
AcDbTrace
 10
87.5170650778
 20
141.5100461845
 30
0.0
 11
87.0670650778
 21
138.5100461845
 31
0.0
 12
87.9670650778
 22
138.5100461845
 32
0.0
 13
87.9670650778
 23
138.5100461845
 33
0.0
  0
SOLID
  5
145
330
141
100
AcDbEntity
  8
VERMASSUNG
100
AcDbTrace
 10
87.5170650778
 20
78.5100461845
 30
0.0
 11
87.9670650778
 21
81.5100461845
 31
0.0
 12
87.0670650778
 22
81.5100461845
 32
0.0
 13
87.0670650778
 23
81.5100461845
 33
0.0
  0
LINE
  5
146
330
141
100
AcDbEntity
  8
VERMASSUNG
100
AcDbLine
 10
126.0396826063
 20
141.5100461845
 30
0.0
 11
86.5170650778
 21
141.5100461845
 31
0.0
  0
LINE
  5
147
330
141
100
AcDbEntity
  8
VERMASSUNG
100
AcDbLine
 10
126.0396826063
 20
78.5100461845
 30
0.0
 11
86.5170650778
 21
78.5100461845
 31
0.0
  0
LINE
  5
148
330
141
100
AcDbEntity
  8
VERMASSUNG
100
AcDbLine
 10
87.5170650778
 20
141.5100461845
 30
0.0
 11
87.5170650778
 21
78.5100461845
 31
0.0
  0
MTEXT
  5
149
330
141
100
AcDbEntity
  8
VERMASSUNG
100
AcDbMText
 10
84.7389295888
 20
102.4622802413
 30
0.0
 40
2.0
 41
0.0
 71
     1
 72
     1
  1
HSK A
  7
SLDTEXTSTYLE0
 11
-7.044195017643634E-15
 21
1.0
 31
0.0
 73
     1
 44
1.0
  0
MTEXT
  5
14A
330
141
100
AcDbEntity
  8
VERMASSUNG
100
AcDbMText
 10
84.9389295983
 20
110.2622804954
 30
0.0
 40
2.0
 41
0.0
 71
     1
 72
     1
  1
%%c
  7
SLDTEXTSTYLE0
 11
-7.044195017643634E-15
 21
1.0
 31
0.0
 73
     1
 44
1.0
  0
MTEXT
  5
14B
330
141
100
AcDbEntity
  8
VERMASSUNG
100
AcDbMText
 10
84.9389297147
 20
113.870808952
 30
0.0
 40
2.0
 41
0.0
 71
     1
 72
     1
  1
63
  7
SLDTEXTSTYLE0
 11
-7.044195017643634E-15
 21
1.0
 31
0.0
 73
     1
 44
1.0
  0
ENDBLK
  5
143
330
141
100
AcDbEntity
  8
0
100
AcDbBlockEnd
  0
BLOCK
  5
14E
330
14D
100
AcDbEntity
  8
0
100
AcDbBlockBegin
  2
*D2
 70
     1
 10
0.0
 20
0.0
 30
0.0
  3
*D2
  1

  0
SOLID
  5
150
330
14D
100
AcDbEntity
  8
VERMASSUNG
100
AcDbTrace
 10
205.7396826063
 20
148.4349842239
 30
0.0
 11
202.7396826063
 21
148.8849842239
 31
0.0
 12
202.7396826063
 22
147.9849842239
 32
0.0
 13
202.7396826063
 23
147.9849842239
 33
0.0
  0
SOLID
  5
151
330
14D
100
AcDbEntity
  8
VERMASSUNG
100
AcDbTrace
 10
151.6896826063
 20
148.4349842239
 30
0.0
 11
154.6896826063
 21
147.9849842239
 31
0.0
 12
154.6896826063
 22
148.8849842239
 32
0.0
 13
154.6896826063
 23
148.8849842239
 33
0.0
  0
LINE
  5
152
330
14D
100
AcDbEntity
  8
VERMASSUNG
100
AcDbLine
 10
205.7396826063
 20
123.7359056629
 30
0.0
 11
205.7396826063
 21
149.4349842239
 31
0.0
  0
LINE
  5
153
330
14D
100
AcDbEntity
  8
VERMASSUNG
100
AcDbLine
 10
151.6896826063
 20
139.8564865083
 30
0.0
 11
151.6896826063
 21
149.4349842239
 31
0.0
  0
LINE
  5
154
330
14D
100
AcDbEntity
  8
VERMASSUNG
100
AcDbLine
 10
205.7396826063
 20
148.4349842239
 30
0.0
 11
151.6896826063
 21
148.4349842239
 31
0.0
  0
MTEXT
  5
155
330
14D
100
AcDbEntity
  8
VERMASSUNG
100
AcDbMText
 10
175.3576602245
 20
151.0131195871
 30
0.0
 40
2.0
 41
0.0
 71
     1
 72
     1
  1
54.05
  7
SLDTEXTSTYLE0
 73
     1
 44
1.0
  0
ENDBLK
  5
14F
330
14D
100
AcDbEntity
  8
0
100
AcDbBlockEnd
  0
BLOCK
  5
158
330
157
100
AcDbEntity
  8
0
100
AcDbBlockBegin
  2
*D3
 70
     1
 10
0.0
 20
0.0
 30
0.0
  3
*D3
  1

  0
SOLID
  5
15A
330
157
100
AcDbEntity
  8
VERMASSUNG
100
AcDbTrace
 10
205.7396826063
 20
154.4349842239
 30
0.0
 11
202.7396826063
 21
154.8849842239
 31
0.0
 12
202.7396826063
 22
153.9849842239
 32
0.0
 13
202.7396826063
 23
153.9849842239
 33
0.0
  0
SOLID
  5
15B
330
157
100
AcDbEntity
  8
VERMASSUNG
100
AcDbTrace
 10
125.7396826063
 20
154.4349842239
 30
0.0
 11
128.7396826063
 21
153.9849842239
 31
0.0
 12
128.7396826063
 22
154.8849842239
 32
0.0
 13
128.7396826063
 23
154.8849842239
 33
0.0
  0
LINE
  5
15C
330
157
100
AcDbEntity
  8
VERMASSUNG
100
AcDbLine
 10
205.7396826063
 20
123.7359056629
 30
0.0
 11
205.7396826063
 21
155.4349842239
 31
0.0
  0
LINE
  5
15D
330
157
100
AcDbEntity
  8
VERMASSUNG
100
AcDbLine
 10
125.7396826063
 20
141.2100461845
 30
0.0
 11
125.7396826063
 21
155.4349842239
 31
0.0
  0
LINE
  5
15E
330
157
100
AcDbEntity
  8
VERMASSUNG
100
AcDbLine
 10
205.7396826063
 20
154.4349842239
 30
0.0
 11
125.7396826063
 21
154.4349842239
 31
0.0
  0
MTEXT
  5
15F
330
157
100
AcDbEntity
  8
VERMASSUNG
100
AcDbMText
 10
163.2945666927
 20
157.0131195871
 30
0.0
 40
2.0
 41
0.0
 71
     1
 72
     1
  1
80
  7
SLDTEXTSTYLE0
 73
     1
 44
1.0
  0
ENDBLK
  5
159
330
157
100
AcDbEntity
  8
0
100
AcDbBlockEnd
  0
BLOCK
  5
162
330
161
100
AcDbEntity
  8
0
100
AcDbBlockBegin
  2
*D4
 70
     1
 10
0.0
 20
0.0
 30
0.0
  3
*D4
  1

  0
SOLID
  5
164
330
161
100
AcDbEntity
  8
VERMASSUNG
100
AcDbTrace
 10
205.7396826063
 20
160.4349842239
 30
0.0
 11
202.7396826063
 21
160.8849842239
 31
0.0
 12
202.7396826063
 22
159.9849842239
 32
0.0
 13
202.7396826063
 23
159.9849842239
 33
0.0
  0
SOLID
  5
165
330
161
100
AcDbEntity
  8
VERMASSUNG
100
AcDbTrace
 10
93.8396826063
 20
160.4349842239
 30
0.0
 11
96.8396826063
 21
159.9849842239
 31
0.0
 12
96.8396826063
 22
160.8849842239
 32
0.0
 13
96.8396826063
 23
160.8849842239
 33
0.0
  0
LINE
  5
166
330
161
100
AcDbEntity
  8
VERMASSUNG
100
AcDbLine
 10
205.7396826063
 20
123.7359056629
 30
0.0
 11
205.7396826063
 21
161.4349842239
 31
0.0
  0
LINE
  5
167
330
161
100
AcDbEntity
  8
VERMASSUNG
100
AcDbLine
 10
93.8396826063
 20
129.700723931
 30
0.0
 11
93.8396826063
 21
161.4349842239
 31
0.0
  0
LINE
  5
168
330
161
100
AcDbEntity
  8
VERMASSUNG
100
AcDbLine
 10
205.7396826063
 20
160.4349842239
 30
0.0
 11
93.8396826063
 21
160.4349842239
 31
0.0
  0
MTEXT
  5
169
330
161
100
AcDbEntity
  8
VERMASSUNG
100
AcDbMText
 10
144.8648907271
 20
163.0131195871
 30
0.0
 40
2.0
 41
0.0
 71
     1
 72
     1
  1
111.9
  7
SLDTEXTSTYLE0
 73
     1
 44
1.0
  0
ENDBLK
  5
163
330
161
100
AcDbEntity
  8
0
100
AcDbBlockEnd
  0
BLOCK
  5
16C
330
16B
100
AcDbEntity
  8
0
100
AcDbBlockBegin
  2
*D5
 70
     1
 10
0.0
 20
0.0
 30
0.0
  3
*D5
  1

  0
SOLID
  5
16E
330
16B
100
AcDbEntity
  8
VERMASSUNG
100
AcDbTrace
 10
214.237073912
 20
116.0100461845
 30
0.0
 11
213.787073912
 21
113.0100461845
 31
0.0
 12
214.687073912
 22
113.0100461845
 32
0.0
 13
214.687073912
 23
113.0100461845
 33
0.0
  0
SOLID
  5
16F
330
16B
100
AcDbEntity
  8
VERMASSUNG
100
AcDbTrace
 10
214.237073912
 20
104.0100461845
 30
0.0
 11
214.687073912
 21
107.0100461845
 31
0.0
 12
213.787073912
 22
107.0100461845
 32
0.0
 13
213.787073912
 23
107.0100461845
 33
0.0
  0
LINE
  5
170
330
16B
100
AcDbEntity
  8
VERMASSUNG
100
AcDbLine
 10
205.4396826063
 20
116.0100461845
 30
0.0
 11
215.237073912
 21
116.0100461845
 31
0.0
  0
LINE
  5
171
330
16B
100
AcDbEntity
  8
VERMASSUNG
100
AcDbLine
 10
205.4396826063
 20
104.0100461845
 30
0.0
 11
215.237073912
 21
104.0100461845
 31
0.0
  0
LINE
  5
172
330
16B
100
AcDbEntity
  8
VERMASSUNG
100
AcDbLine
 10
214.237073912
 20
116.0100461845
 30
0.0
 11
214.237073912
 21
104.0100461845
 31
0.0
  0
MTEXT
  5
173
330
16B
100
AcDbEntity
  8
VERMASSUNG
100
AcDbMText
 10
211.6589384324
 20
106.6634136024
 30
0.0
 40
2.0
 41
0.0
 71
     1
 72
     1
  1
%%c
  7
SLDTEXTSTYLE0
 11
-7.044195017643634E-15
 21
1.0
 31
0.0
 73
     1
 44
1.0
  0
MTEXT
  5
174
330
16B
100
AcDbEntity
  8
VERMASSUNG
100
AcDbMText
 10
211.6589385488
 20
110.2720918255
 30
0.0
 40
2.0
 41
0.0
 71
     1
 72
     1
  1
12
  7
SLDTEXTSTYLE0
 11
-7.044195017643634E-15
 21
1.0
 31
0.0
 73
     1
 44
1.0
  0
ENDBLK
  5
16D
330
16B
100
AcDbEntity
  8
0
100
AcDbBlockEnd
  0
BLOCK
  5
177
330
176
100
AcDbEntity
  8
0
100
AcDbBlockBegin
  2
*D6
 70
     1
 10
0.0
 20
0.0
 30
0.0
  3
*D6
  1

  0
SOLID
  5
179
330
176
100
AcDbEntity
  8
VERMASSUNG
100
AcDbTrace
 10
220.237073912
 20
131.0100461845
 30
0.0
 11
219.787073912
 21
128.0100461845
 31
0.0
 12
220.687073912
 22
128.0100461845
 32
0.0
 13
220.687073912
 23
128.0100461845
 33
0.0
  0
SOLID
  5
17A
330
176
100
AcDbEntity
  8
VERMASSUNG
100
AcDbTrace
 10
220.237073912
 20
89.0100461845
 30
0.0
 11
220.687073912
 21
92.0100461845
 31
0.0
 12
219.787073912
 22
92.0100461845
 32
0.0
 13
219.787073912
 23
92.0100461845
 33
0.0
  0
LINE
  5
17B
330
176
100
AcDbEntity
  8
VERMASSUNG
100
AcDbLine
 10
192.8726410833
 20
131.0100461845
 30
0.0
 11
221.237073912
 21
131.0100461845
 31
0.0
  0
LINE
  5
17C
330
176
100
AcDbEntity
  8
VERMASSUNG
100
AcDbLine
 10
192.8726410833
 20
89.0100461845
 30
0.0
 11
221.237073912
 21
89.0100461845
 31
0.0
  0
LINE
  5
17D
330
176
100
AcDbEntity
  8
VERMASSUNG
100
AcDbLine
 10
220.237073912
 20
131.0100461845
 30
0.0
 11
220.237073912
 21
89.0100461845
 31
0.0
  0
MTEXT
  5
17E
330
176
100
AcDbEntity
  8
VERMASSUNG
100
AcDbMText
 10
217.6589384324
 20
106.3640441549
 30
0.0
 40
2.0
 41
0.0
 71
     1
 72
     1
  1
%%c
  7
SLDTEXTSTYLE0
 11
-7.044195017643634E-15
 21
1.0
 31
0.0
 73
     1
 44
1.0
  0
MTEXT
  5
17F
330
176
100
AcDbEntity
  8
VERMASSUNG
100
AcDbMText
 10
217.6589385488
 20
109.9727223781
 30
0.0
 40
2.0
 41
0.0
 71
     1
 72
     1
  1
42
  7
SLDTEXTSTYLE0
 11
-7.044195017643634E-15
 21
1.0
 31
0.0
 73
     1
 44
1.0
  0
ENDBLK
  5
178
330
176
100
AcDbEntity
  8
0
100
AcDbBlockEnd
  0
ENDSEC
  0
SECTION
  2
ENTITIES
  0
MTEXT
  5
45
330
1F
100
AcDbEntity
  8
KOPF_DÜNN
100
AcDbMText
 10
13.8892156294
 20
23.8442973028
 30
0.0
 40
3.0
 41
0.0
 71
     1
 72
     1
  1
HA6.W12.K01.080
  7
SLDTEXTSTYLE0
 73
     1
 44
1.0
  0
MTEXT
  5
46
330
1F
100
AcDbEntity
  8
VERMASSUNG
100
AcDbMText
 10
13.9329988022
 20
28.8834360957
 30
0.0
 40
3.0
 41
0.0
 71
     1
 72
     1
  1
Flächenspannfutter_End mill adapter Weldon ø12
  7
SLDTEXTSTYLE0
 73
     1
 44
1.0
  0
MTEXT
  5
47
330
1F
100
AcDbEntity
  8
VERMASSUNG
100
AcDbMText
 10
98.8601118557
 20
13.8365368179
 30
0.0
 40
2.0
 41
0.0
 71
     1
 72
     1
  1
Datum: 25.04.2006
  7
SLDTEXTSTYLE0
 73
     1
 44
1.0
  0
MTEXT
  5
49
330
1F
100
AcDbEntity
  8
VERMASSUNG
100
AcDbMText
 10
13.933048693
 20
18.0482802738
 30
0.0
 40
2.0
 41
0.0
 71
     1
 72
     1
  1
DIN 69 893 HSK A 63
  7
SLDTEXTSTYLE1
 73
     1
 44
1.0
  0
MTEXT
  5
4A
330
1F
100
AcDbEntity
  8
VERMASSUNG
100
AcDbMText
 10
13.9808475933
 20
13.9090973692
 30
0.0
 40
2.0
 41
0.0
 71
     1
 72
     1
  1
Gewicht: 1143g
  7
SLDTEXTSTYLE0
 73
     1
 44
1.0
  0
LINE
  5
4B
330
1F
100
AcDbEntity
  8
0
  6
Continuous
 62
     7
370
    15
100
AcDbLine
 10
126.0396826206
 20
78.5100456779
 30
0.0
 11
130.6896825795
 21
78.5100456779
 31
0.0
  0
LINE
  5
4C
330
1F
100
AcDbEntity
  8
0
  6
Continuous
 62
     7
370
    15
100
AcDbLine
 10
130.7176711512
 20
141.5100466912
 30
0.0
 11
126.0396826206
 21
141.5100466912
 31
0.0
  0
ARC
  5
4D
330
1F
100
AcDbEntity
  8
0
  6
Continuous
 62
     7
370
    15
100
AcDbCircle
 10
126.0396826063
 20
78.8100461845
 30
0.0
 40
0.2999999999999972
100
AcDbArc
 50
180.0
 51
270.0
  0
ARC
  5
4E
330
1F
100
AcDbEntity
  8
0
  6
Continuous
 62
     7
370
    15
100
AcDbCircle
 10
126.0396826063
 20
141.2100461845
 30
0.0
 40
0.2999999999999972
100
AcDbArc
 50
90.0
 51
180.0
  0
ARC
  5
4F
330
1F
100
AcDbEntity
  8
0
  6
Continuous
 62
     7
370
    15
100
AcDbCircle
 10
125.2396758536
 20
85.4396085702
 30
0.0
 40
0.6000067526677282
100
AcDbArc
 50
33.5571153394
 51
90.0
  0
ARC
  5
50
330
1F
100
AcDbEntity
  8
0
  6
Continuous
 62
     7
370
    15
100
AcDbCircle
 10
125.2396758536
 20
134.5804837989
 30
0.0
 40
0.6000067526677282
100
AcDbArc
 50
270.0
 51
326.4428846606
  0
LINE
  5
51
330
1F
100
AcDbEntity
  8
0
  6
Continuous
 62
     7
370
    15
100
AcDbLine
 10
123.7396825113
 20
85.789614961
 30
0.0
 11
124.5963954375
 21
86.0191710745
 31
0.0
  0
LINE
  5
52
330
1F
100
AcDbEntity
  8
0
  6
Continuous
 62
     7
370
    15
100
AcDbLine
 10
124.5963954375
 20
134.0009212946
 30
0.0
 11
123.7396825113
 21
134.2304774081
 31
0.0
  0
LINE
  5
53
330
1F
100
AcDbEntity
  8
0
  6
Continuous
 62
     7
370
    15
100
AcDbLine
 10
112.5081741725
 20
133.6677760338
 30
0.0
 11
99.9396817301
 21
133.0380920773
 31
0.0
  0
LINE
  5
54
330
1F
100
AcDbEntity
  8
0
  6
Continuous
 62
     7
370
    15
100
AcDbLine
 10
123.7396825113
 20
134.2304774081
 30
0.0
 11
120.9226810847
 21
134.0893447851
 31
0.0
  0
LINE
  5
55
330
1F
100
AcDbEntity
  8
0
  6
Continuous
 62
     7
370
    15
100
AcDbLine
 10
120.9227369641
 20
85.9307457213
 30
0.0
 11
123.7396825113
 21
85.789614961
 31
0.0
  0
LINE
  5
56
330
1F
100
AcDbEntity
  8
0
  6
Continuous
 62
     7
370
    15
100
AcDbLine
 10
103.9396823858
 20
86.7816001629
 30
0.0
 11
112.5085765038
 21
86.3522958462
 31
0.0
  0
ARC
  5
57
330
1F
100
AcDbEntity
  8
0
  6
Continuous
 62
     7
370
    15
100
AcDbCircle
 10
154.6896826063
 20
86.0100461845
 30
0.0
 40
3.0
100
AcDbArc
 50
90.0
 51
180.0
  0
ARC
  5
58
330
1F
100
AcDbEntity
  8
0
  6
Continuous
 62
     7
370
    15
100
AcDbCircle
 10
154.6896826063
 20
134.0100461845
 30
0.0
 40
3.0
100
AcDbArc
 50
180.0
 51
270.0
  0
ARC
  5
59
330
1F
100
AcDbEntity
  8
0
  6
Continuous
 62
     7
370
    15
100
AcDbCircle
 10
124.7516868068
 20
85.4396153228
 30
0.0
 40
0.6000000000000085
100
AcDbArc
 50
90.0
 51
105.0
  0
ARC
  5
5A
330
1F
100
AcDbEntity
  8
0
  6
Continuous
 62
     7
370
    15
100
AcDbCircle
 10
124.7516868068
 20
134.5804770463
 30
0.0
 40
0.5999999999999943
100
AcDbArc
 50
255.0
 51
270.0
  0
LINE
  5
5B
330
1F
100
AcDbEntity
  8
0
  6
Continuous
 62
     7
370
    15
100
AcDbLine
 10
124.7516868411
 20
86.0396154677
 30
0.0
 11
125.2396758305
 21
86.0396154677
 31
0.0
  0
LINE
  5
5C
330
1F
100
AcDbEntity
  8
0
  6
Continuous
 62
     7
370
    15
100
AcDbLine
 10
125.2396758305
 20
133.9804769014
 30
0.0
 11
124.7516868411
 21
133.9804769014
 31
0.0
  0
LINE
  5
5D
330
1F
100
AcDbEntity
  8
0
  6
Continuous
 62
     7
370
    15
100
AcDbLine
 10
154.6896827881
 20
89.0100464677
 30
0.0
 11
192.872639886
 21
89.0100464677
 31
0.0
  0
LINE
  5
5E
330
1F
100
AcDbEntity
  8
0
  6
Continuous
 62
     7
370
    15
100
AcDbLine
 10
192.872639886
 20
131.0100459014
 30
0.0
 11
154.6896827881
 21
131.0100459014
 31
0.0
  0
LINE
  5
5F
330
1F
100
AcDbEntity
  8
0
  6
Continuous
 62
     7
370
    15
100
AcDbLine
 10
192.872639886
 20
89.0100464677
 30
0.0
 11
204.584922782
 21
94.4715707083
 31
0.0
  0
LINE
  5
60
330
1F
100
AcDbEntity
  8
0
  6
Continuous
 62
     7
370
    15
100
AcDbLine
 10
204.584922782
 20
125.5485216608
 30
0.0
 11
192.872639886
 21
131.0100459014
 31
0.0
  0
ARC
  5
61
330
1F
100
AcDbEntity
  8
0
  6
Continuous
 62
     7
370
    15
100
AcDbCircle
 10
203.7396826063
 20
96.2841867062
 30
0.0
 40
2.0
100
AcDbArc
 50
295.0
 51
0.0
  0
ARC
  5
62
330
1F
100
AcDbEntity
  8
0
  6
Continuous
 62
     7
370
    15
100
AcDbCircle
 10
203.7396826063
 20
123.7359056629
 30
0.0
 40
2.0
100
AcDbArc
 50
0.0
 51
65.0
  0
LINE
  5
63
330
1F
100
AcDbEntity
  8
0
  6
Continuous
 62
     7
370
    15
100
AcDbLine
 10
95.12301921
 20
89.1400460606
 30
0.0
 11
102.5396829014
 21
89.1400460606
 31
0.0
  0
ARC
  5
64
330
1F
100
AcDbEntity
  8
0
  6
Continuous
 62
     7
370
    15
100
AcDbCircle
 10
102.5396826063
 20
87.7400461845
 30
0.0
 40
1.399999999999991
100
AcDbArc
 50
42.2465410162
 51
90.0
  0
LINE
  5
65
330
1F
100
AcDbEntity
  8
0
  6
Continuous
 62
     7
370
    15
100
AcDbLine
 10
93.8407146846
 20
90.2890131329
 30
0.0
 11
94.9808453684
 21
89.1488824492
 31
0.0
  0
LINE
  5
66
330
1F
100
AcDbEntity
  8
0
  6
Continuous
 62
     7
370
    15
100
AcDbLine
 10
94.9808453684
 20
130.8712099199
 30
0.0
 11
93.8495846008
 21
129.7399472897
 31
0.0
  0
ARC
  5
67
330
1F
100
AcDbEntity
  8
0
  6
Continuous
 62
     7
370
    15
100
AcDbCircle
 10
98.5396826063
 20
132.2800461845
 30
0.0
 40
1.400000000000008
100
AcDbArc
 50
270.0
 51
301.7485287426
  0
LINE
  5
68
330
1F
100
AcDbEntity
  8
0
  6
Continuous
 62
     7
370
    15
100
AcDbLine
 10
98.5396822457
 20
130.8800463085
 30
0.0
 11
95.1305703734
 21
130.8800463085
 31
0.0
  0
CIRCLE
  5
69
330
1F
100
AcDbEntity
  8
0
  6
Continuous
 62
     7
370
    15
100
AcDbCircle
 10
183.7396826063
 20
110.0100461845
 30
0.0
 40
5.099999999999994
  0
ARC
  5
6A
330
1F
100
AcDbEntity
  8
0
  6
Continuous
 62
     7
370
    15
100
AcDbCircle
 10
183.7396826063
 20
110.0100461845
 30
0.0
 40
6.000000000000001
100
AcDbArc
 50
67.5748093136
 51
135.776979768
  0
LINE
  5
6B
330
1F
100
AcDbEntity
  8
0
  6
Continuous
 62
     7
370
    15
100
AcDbLine
 10
180.3058089231
 20
109.5534062989
 30
0.0
 11
182.4182087098
 21
106.8079053876
 31
0.0
  0
LINE
  5
6C
330
1F
100
AcDbEntity
  8
0
  6
Continuous
 62
     7
370
    15
100
AcDbLine
 10
185.8520807241
 20
107.2645454188
 30
0.0
 11
182.4182087098
 21
106.8079053876
 31
0.0
  0
LINE
  5
6D
330
1F
100
AcDbEntity
  8
0
  6
Continuous
 62
     7
370
    15
100
AcDbLine
 10
181.627284876
 20
112.7555469503
 30
0.0
 11
185.0611568902
 21
113.2121869815
 31
0.0
  0
LINE
  5
6E
330
1F
100
AcDbEntity
  8
0
  6
Continuous
 62
     7
370
    15
100
AcDbLine
 10
187.173556677
 20
110.4666860702
 30
0.0
 11
185.8520807241
 21
107.2645454188
 31
0.0
  0
LINE
  5
6F
330
1F
100
AcDbEntity
  8
0
  6
Continuous
 62
     7
370
    15
100
AcDbLine
 10
187.173556677
 20
110.4666860702
 30
0.0
 11
185.0611568902
 21
113.2121869815
 31
0.0
  0
LINE
  5
70
330
1F
100
AcDbEntity
  8
0
  6
Continuous
 62
     7
370
    15
100
AcDbLine
 10
181.627284876
 20
112.7555469503
 30
0.0
 11
180.3058089231
 21
109.5534062989
 31
0.0
  0
LINE
  5
71
330
1F
100
AcDbEntity
  8
0
  6
Continuous
 62
     7
370
    15
100
AcDbLine
 10
151.0896833156
 20
79.8231285517
 30
0.0
 11
147.1316145276
 21
79.8231285517
 31
0.0
  0
LINE
  5
72
330
1F
100
AcDbEntity
  8
0
  6
Continuous
 62
     7
370
    15
100
AcDbLine
 10
147.1316145276
 20
79.8231285517
 30
0.0
 11
147.1316145276
 21
129.8600469236
 31
0.0
  0
LINE
  5
73
330
1F
100
AcDbEntity
  8
0
  6
Continuous
 62
     7
370
    15
100
AcDbLine
 10
147.1316145276
 20
129.8600469236
 30
0.0
 11
151.0896833156
 21
129.8600469236
 31
0.0
  0
LINE
  5
74
330
1F
100
AcDbEntity
  8
0
  6
Continuous
 62
     7
370
    15
100
AcDbLine
 10
151.6896822964
 20
80.4497689461
 30
0.0
 11
151.6896822964
 21
129.8600469236
 31
0.0
  0
SPLINE
  5
75
330
1F
100
AcDbEntity
  8
0
  6
Continuous
 62
     7
370
    15
100
AcDbSpline
210
0.0
220
0.0
230
1.0
 70
     8
 71
     3
 72
    10
 73
     6
 74
     0
 42
0.00000001
 43
0.00000001
 40
0.0
 40
0.0
 40
0.0
 40
0.0
 40
0.5
 40
0.5
 40
1.0
 40
1.0
 40
1.0
 40
1.0
 10
151.6896826063086
 20
80.44976878395411
 30
0.0
 10
151.6896826063086
 20
80.28988151576046
 30
0.0
 10
151.6283729550727
 20
80.12875426024586
 30
0.0
 10
151.4092733175376
 20
79.89465526189102
 30
0.0
 10
151.2512251112242
 20
79.8231284882998
 30
0.0
 10
151.0896826063086
 20
79.8231284882998
 30
0.0
  0
SPLINE
  5
76
330
1F
100
AcDbEntity
  8
0
  6
Continuous
 62
     7
370
    15
100
AcDbSpline
210
0.0
220
0.0
230
1.0
 70
    24
 71
     3
 72
    12
 73
     8
 74
     0
 42
0.00000001
 43
0.00000001
 40
0.0
 40
0.0
 40
0.0
 40
0.0
 40
0.250000000000002
 40
0.250000000000002
 40
0.500000000000004
 40
0.500000000000004
 40
1.0
 40
1.0
 40
1.0
 40
1.0
 10
151.0896826063086
 20
129.860046184547
 30
0.0
 10
151.1799216739956
 20
129.860046184547
 30
0.0
 10
151.2708197881021
 20
129.860046184547
 30
0.0
 10
151.4254168245906
 20
129.860046184547
 30
0.0
 10
151.4903952406987
 20
129.860046184547
 30
0.0
 10
151.642230268635
 20
129.860046184547
 30
0.0
 10
151.6896826063086
 20
129.860046184547
 30
0.0
 10
151.6896826063086
 20
129.860046184547
 30
0.0
  0
LINE
  5
77
330
1F
100
AcDbEntity
  8
0
  6
Continuous
 62
     7
370
    15
100
AcDbLine
 10
130.6896825795
 20
129.8600469236
 30
0.0
 11
140.3477500667
 21
129.8600469236
 31
0.0
  0
LINE
  5
78
330
1F
100
AcDbEntity
  8
0
  6
Continuous
 62
     7
370
    15
100
AcDbLine
 10
140.3477500667
 20
79.8231285517
 30
0.0
 11
140.3477500667
 21
129.8600469236
 31
0.0
  0
LINE
  5
79
330
1F
100
AcDbEntity
  8
0
  6
Continuous
 62
     7
370
    15
100
AcDbLine
 10
140.3477500667
 20
79.8231285517
 30
0.0
 11
138.6896829595
 21
79.8231285517
 31
0.0
  0
SPLINE
  5
7A
330
1F
100
AcDbEntity
  8
0
  6
Continuous
 62
     7
370
    15
100
AcDbSpline
210
0.0
220
0.0
230
1.0
 70
     8
 71
     3
 72
    28
 73
    24
 74
     0
 42
0.00000001
 43
0.00000001
 40
0.0
 40
0.0
 40
0.0
 40
0.0
 40
0.1249999999999999
 40
0.1249999999999999
 40
0.1874999999999998
 40
0.1874999999999998
 40
0.2499999999999997
 40
0.2499999999999997
 40
0.3749999999999993
 40
0.3749999999999993
 40
0.4374999999999993
 40
0.4374999999999993
 40
0.4999999999999992
 40
0.4999999999999992
 40
0.6249999999999992
 40
0.6249999999999992
 40
0.7499999999999992
 40
0.7499999999999992
 40
0.8124999999999993
 40
0.8124999999999993
 40
0.8749999999999996
 40
0.8749999999999996
 40
1.0
 40
1.0
 40
1.0
 40
1.0
 10
138.6896826063086
 20
79.8231284882998
 30
0.0
 10
138.1579748488156
 20
79.8231284882998
 30
0.0
 10
137.6357362835053
 20
79.80734377434959
 30
0.0
 10
136.8658657972303
 20
79.76234836027338
 30
0.0
 10
136.611506225039
 20
79.74379336519766
 30
0.0
 10
136.1073846443404
 20
79.69994064275116
 30
0.0
 10
135.8576618269125
 20
79.67459603579894
 30
0.0
 10
135.1320718754661
 20
79.59119395804883
 30
0.0
 10
134.6737116138846
 20
79.52532839889776
 30
0.0
 10
134.0232136704907
 20
79.41635805840596
 30
0.0
 10
133.8115316196982
 20
79.3781184226393
 30
0.0
 10
133.4074601305602
 20
79.30035968521996
 30
0.0
 10
133.2149536167394
 20
79.26085872304462
 30
0.0
 10
132.6651186457181
 20
79.14195098067862
 30
0.0
 10
132.3351898674093
 20
79.06213329925399
 30
0.0
 10
131.7507185988406
 20
78.90879013745794
 30
0.0
 10
131.5044414608272
 20
78.83745638418868
 30
0.0
 10
131.2045986681291
 20
78.74351287711406
 30
0.0
 10
131.1161418110569
 20
78.71431908375415
 30
0.0
 10
130.9627804577518
 20
78.66085250949072
 30
0.0
 10
130.8976922435255
 20
78.63649317521553
 30
0.0
 10
130.7420982275848
 20
78.57290302977081
 30
0.0
 10
130.6896826063086
 20
78.54280009468157
 30
0.0
 10
130.6896826063086
 20
78.52592320168463
 30
0.0
  0
LINE
  5
7B
330
1F
100
AcDbEntity
  8
0
  6
Continuous
 62
     7
370
    15
100
AcDbLine
 10
130.6896825795
 20
78.5259228652
 30
0.0
 11
130.6896825795
 21
78.5100456779
 31
0.0
  0
SPLINE
  5
7C
330
1F
100
AcDbEntity
  8
0
  6
Continuous
 62
     7
370
    15
100
AcDbSpline
210
0.0
220
0.0
230
1.0
 70
     8
 71
     3
 72
    17
 73
    13
 74
     0
 42
0.00000001
 43
0.00000001
 40
0.0
 40
0.0
 40
0.0
 40
0.0
 40
0.1034797280380778
 40
0.2100239090909901
 40
0.3134862262879433
 40
0.4198361712144981
 40
0.5254127947779869
 40
0.6339610881168427
 40
0.7409508662120068
 40
0.8511696072047016
 40
0.9558996557845765
 40
1.0
 40
1.0
 40
1.0
 40
1.0
 10
138.6896829594661
 20
140.4772416209054
 30
0.0
 10
138.2544344677402
 20
140.4826896125431
 30
0.0
 10
137.3710480171632
 20
140.4937469328717
 30
0.0
 10
136.0902201549404
 20
140.5801056932467
 30
0.0
 10
134.8728039594985
 20
140.7079768363797
 30
0.0
 10
133.7649973431727
 20
140.8669212436982
 30
0.0
 10
132.7767588638438
 20
141.0414158166828
 30
0.0
 10
131.952035764028
 20
141.2105822498697
 30
0.0
 10
131.3030821065294
 20
141.3584630583374
 30
0.0
 10
130.8860468030497
 20
141.46025380986
 30
0.0
 10
130.6874500601718
 20
141.5106107094944
 30
0.0
 10
130.7107631771597
 20
141.5047011045189
 30
0.0
 10
130.7176711511601
 20
141.5029500131679
 30
0.0
  0
LINE
  5
7D
330
1F
100
AcDbEntity
  8
0
  6
Continuous
 62
     7
370
    15
100
AcDbLine
 10
140.3477500667
 20
140.4772416209
 30
0.0
 11
138.6896829595
 21
140.4772416209
 31
0.0
  0
LINE
  5
7E
330
1F
100
AcDbEntity
  8
0
  6
Continuous
 62
     7
370
    15
100
AcDbLine
 10
140.3477500667
 20
134.4687357997
 30
0.0
 11
140.3477500667
 21
140.4772416209
 31
0.0
  0
LINE
  5
7F
330
1F
100
AcDbEntity
  8
0
  6
Continuous
 62
     7
370
    15
100
AcDbLine
 10
137.9353032921
 20
134.4687357997
 30
0.0
 11
140.3477500667
 21
134.4687357997
 31
0.0
  0
SPLINE
  5
80
330
1F
100
AcDbEntity
  8
0
  6
Continuous
 62
     7
370
    15
100
AcDbSpline
210
0.0
220
0.0
230
1.0
 70
     8
 71
     3
 72
    20
 73
    16
 74
     0
 42
0.00000001
 43
0.00000001
 40
0.0
 40
0.0
 40
0.0
 40
0.0
 40
0.2499999999999995
 40
0.2499999999999995
 40
0.3749999999999996
 40
0.3749999999999996
 40
0.4999999999999997
 40
0.4999999999999997
 40
0.6249999999999998
 40
0.6249999999999998
 40
0.7499999999999998
 40
0.7499999999999998
 40
0.8749999999999999
 40
0.8749999999999999
 40
1.0
 40
1.0
 40
1.0
 40
1.0
 10
130.6896826063086
 20
129.860046184547
 30
0.0
 10
130.9380563405966
 20
130.5139086128444
 30
0.0
 10
131.2576264329419
 20
131.1176943948415
 30
0.0
 10
131.8799326661466
 20
131.9445331310101
 30
0.0
 10
132.1113569265773
 20
132.2069617689631
 30
0.0
 10
132.632571266227
 20
132.703624423068
 30
0.0
 10
132.9191917488621
 20
132.9342113020896
 30
0.0
 10
133.5386764901697
 20
133.3507655266721
 30
0.0
 10
133.8729768696567
 20
133.5382633286397
 30
0.0
 10
134.5982373422815
 20
133.8696603062761
 30
0.0
 10
134.980152399672
 20
134.0091642937714
 30
0.0
 10
135.7749405758436
 20
134.2346178012423
 30
0.0
 10
136.18909877005
 20
134.3212439127859
 30
0.0
 10
137.0546451106314
 20
134.4392247016401
 30
0.0
 10
137.4925327256432
 20
134.4687358469144
 30
0.0
 10
137.9353029519978
 20
134.4687358469144
 30
0.0
  0
SPLINE
  5
81
330
1F
100
AcDbEntity
  8
0
  6
Continuous
 62
     7
370
    15
100
AcDbSpline
210
0.0
220
0.0
230
1.0
 70
     8
 71
     3
 72
    70
 73
    66
 74
     0
 42
0.00000001
 43
0.00000001
 40
-0.0312500000000001
 40
-0.0312500000000001
 40
0.0
 40
0.0
 40
0.0312499999999999
 40
0.0312499999999999
 40
0.0624999999999998
 40
0.0624999999999998
 40
0.0937499999999997
 40
0.0937499999999997
 40
0.1249999999999996
 40
0.1249999999999996
 40
0.1562499999999994
 40
0.1562499999999994
 40
0.1874999999999993
 40
0.1874999999999993
 40
0.2187499999999992
 40
0.2187499999999992
 40
0.2499999999999991
 40
0.2499999999999991
 40
0.281249999999999
 40
0.281249999999999
 40
0.3124999999999989
 40
0.3124999999999989
 40
0.3437499999999988
 40
0.3437499999999988
 40
0.3749999999999987
 40
0.3749999999999987
 40
0.4062499999999986
 40
0.4062499999999986
 40
0.4374999999999984
 40
0.4374999999999984
 40
0.4687499999999983
 40
0.4687499999999983
 40
0.4999999999999982
 40
0.4999999999999982
 40
0.5312499999999983
 40
0.5312499999999983
 40
0.5624999999999984
 40
0.5624999999999984
 40
0.5937499999999986
 40
0.5937499999999986
 40
0.6249999999999987
 40
0.6249999999999987
 40
0.6562499999999988
 40
0.6562499999999988
 40
0.6874999999999989
 40
0.6874999999999989
 40
0.718749999999999
 40
0.718749999999999
 40
0.7499999999999991
 40
0.7499999999999991
 40
0.7812499999999992
 40
0.7812499999999992
 40
0.8124999999999993
 40
0.8124999999999993
 40
0.8437499999999994
 40
0.8437499999999994
 40
0.8749999999999996
 40
0.8749999999999996
 40
0.9062499999999997
 40
0.9062499999999997
 40
0.9374999999999998
 40
0.9374999999999998
 40
0.9687499999999999
 40
0.9687499999999999
 40
1.0
 40
1.0
 40
1.03125
 40
1.03125
 10
134.0042279449687
 20
120.6309530705303
 30
0.0
 10
133.4751372676484
 20
120.6309530705303
 30
0.0
 10
133.2150666002713
 20
120.6556303653155
 30
0.0
 10
132.7034919204359
 20
120.7521020383574
 30
0.0
 10
132.4493166366957
 20
120.8250829543375
 30
0.0
 10
131.965046006634
 20
121.0148235572761
 30
0.0
 10
131.7354049147528
 20
121.1306842156698
 30
0.0
 10
131.3008005665193
 20
121.4033020616275
 30
0.0
 10
131.0952347898727
 20
121.5613411436813
 30
0.0
 10
130.7266776492775
 20
121.904883994652
 30
0.0
 10
130.561196666542
 20
122.0916464387536
 30
0.0
 10
130.2687721571069
 20
122.4951896131504
 30
0.0
 10
130.1446711804804
 20
122.7086866095796
 30
0.0
 10
129.9450919837307
 20
123.1480699235021
 30
0.0
 10
129.8681583978724
 20
123.3772099106477
 30
0.0
 10
129.765301339352
 20
123.8431840334077
 30
0.0
 10
129.7398284298929
 20
124.0760664790839
 30
0.0
 10
129.7395380193252
 20
124.5414640141637
 30
0.0
 10
129.7655626531009
 20
124.7763397715581
 30
0.0
 10
129.8677109375929
 20
125.2278329188043
 30
0.0
 10
129.9432873851761
 20
125.4458793942157
 30
0.0
 10
130.143784916321
 20
125.8669739192535
 30
0.0
 10
130.2689137578294
 20
126.0688953037718
 30
0.0
 10
130.5582725588509
 20
126.4409247862907
 30
0.0
 10
130.7236835459064
 20
126.6135530898711
 30
0.0
 10
131.0966741040543
 20
126.9308710944171
 30
0.0
 10
131.2984071371434
 20
127.0706580279187
 30
0.0
 10
131.7312663879712
 20
127.3148342814705
 30
0.0
 10
131.9651849208606
 20
127.420063792512
 30
0.0
 10
132.4493686560032
 20
127.5882209388872
 30
0.0
 10
132.6986842819587
 20
127.651471829481
 30
0.0
 10
133.2117168063864
 20
127.7370510385836
 30
0.0
 10
133.4770106292911
 20
127.758923203506
 30
0.0
 10
133.9993452491608
 20
127.75908685315
 30
0.0
 10
134.2590989116426
 20
127.7380851610539
 30
0.0
 10
134.7757107272878
 20
127.6526828059763
 30
0.0
 10
135.0280767677881
 20
127.5886766226894
 30
0.0
 10
135.5096018893209
 20
127.4218621026482
 30
0.0
 10
135.7424526214345
 20
127.317728939249
 30
0.0
 10
136.1795424698732
 20
127.0717422867541
 30
0.0
 10
136.3808634585304
 20
126.9319924558052
 30
0.0
 10
136.7499494838303
 20
126.6188543860806
 30
0.0
 10
136.918934234882
 20
126.4433982268105
 30
0.0
 10
137.2093902915412
 20
126.0705579627103
 30
0.0
 10
137.3324621029033
 20
125.8724361525993
 30
0.0
 10
137.5337983443254
 20
125.4517248098657
 30
0.0
 10
137.6110108902676
 20
125.2297347891981
 30
0.0
 10
137.7132144331677
 20
124.7798698494898
 30
0.0
 10
137.73944278462
 20
124.549614436373
 30
0.0
 10
137.7399191839371
 20
124.0782984938239
 30
0.0
 10
137.7141767714391
 20
123.8450610781098
 30
0.0
 10
137.6128659950753
 20
123.3833845386118
 30
0.0
 10
137.5360333556843
 20
123.1524871514996
 30
0.0
 10
137.3356295164692
 20
122.7102111377079
 30
0.0
 10
137.2129580181771
 20
122.499148706422
 30
0.0
 10
136.9230107290129
 20
122.0976501956894
 30
0.0
 10
136.7544397496476
 20
121.9067436736134
 30
0.0
 10
136.3861701555345
 20
121.5630183416164
 30
0.0
 10
136.1851082982642
 20
121.4078811554023
 30
0.0
 10
135.7480773796792
 20
121.1328037953226
 30
0.0
 10
135.5159291665496
 20
121.0156875659006
 30
0.0
 10
135.0349188850508
 20
120.826761080836
 30
0.0
 10
134.7828188022203
 20
120.7536861104417
 30
0.0
 10
134.2657493159613
 20
120.6556340513072
 30
0.0
 10
134.0042279449687
 20
120.6309530705303
 30
0.0
 10
133.4751372676484
 20
120.6309530705303
 30
0.0
  0
SPLINE
  5
82
330
1F
100
AcDbEntity
  8
0
  6
Continuous
 62
     7
370
    15
100
AcDbSpline
210
0.0
220
0.0
230
1.0
 70
     8
 71
     3
 72
    70
 73
    66
 74
     0
 42
0.00000001
 43
0.00000001
 40
-0.0312499999999999
 40
-0.0312499999999999
 40
0.0
 40
0.0
 40
0.0312499999999999
 40
0.0312499999999999
 40
0.0624999999999998
 40
0.0624999999999998
 40
0.0937499999999997
 40
0.0937499999999997
 40
0.1249999999999996
 40
0.1249999999999996
 40
0.1562499999999995
 40
0.1562499999999995
 40
0.1874999999999994
 40
0.1874999999999994
 40
0.2187499999999993
 40
0.2187499999999993
 40
0.2499999999999992
 40
0.2499999999999992
 40
0.2812499999999993
 40
0.2812499999999993
 40
0.3124999999999993
 40
0.3124999999999993
 40
0.3437499999999994
 40
0.3437499999999994
 40
0.3749999999999995
 40
0.3749999999999995
 40
0.4062499999999996
 40
0.4062499999999996
 40
0.4374999999999996
 40
0.4374999999999996
 40
0.4687499999999997
 40
0.4687499999999997
 40
0.4999999999999998
 40
0.4999999999999998
 40
0.5312499999999999
 40
0.5312499999999999
 40
0.5625
 40
0.5625
 40
0.5937500000000001
 40
0.5937500000000001
 40
0.6250000000000002
 40
0.6250000000000002
 40
0.6562500000000004
 40
0.6562500000000004
 40
0.6875000000000006
 40
0.6875000000000006
 40
0.7187500000000007
 40
0.7187500000000007
 40
0.7500000000000008
 40
0.7500000000000008
 40
0.7812500000000007
 40
0.7812500000000007
 40
0.8125000000000006
 40
0.8125000000000006
 40
0.8437500000000004
 40
0.8437500000000004
 40
0.8750000000000003
 40
0.8750000000000003
 40
0.9062500000000003
 40
0.9062500000000003
 40
0.9375000000000002
 40
0.9375000000000002
 40
0.9687500000000001
 40
0.9687500000000001
 40
1.0
 40
1.0
 40
1.03125
 40
1.03125
 10
134.0042279449687
 20
135.0690095793261
 30
0.0
 10
133.4751372676484
 20
135.0690095793261
 30
0.0
 10
133.2150666002713
 20
135.0849100197409
 30
0.0
 10
132.7034919204359
 20
135.1468543699152
 30
0.0
 10
132.4493166366957
 20
135.1936566040065
 30
0.0
 10
131.965046006634
 20
135.3146335874615
 30
0.0
 10
131.7354049147528
 20
135.3882359152684
 30
0.0
 10
131.3008005665193
 20
135.5600601862465
 30
0.0
 10
131.0952347898727
 20
135.6590636091739
 30
0.0
 10
130.7266776492775
 20
135.8721600230868
 30
0.0
 10
130.561196666542
 20
135.9870597392164
 30
0.0
 10
130.2687721571069
 20
136.2324266379067
 30
0.0
 10
130.1446711804804
 20
136.360866538377
 30
0.0
 10
129.9450919837307
 20
136.621758686463
 30
0.0
 10
129.8681583978724
 20
136.7561398578025
 30
0.0
 10
129.765301339352
 20
137.0254598089087
 30
0.0
 10
129.7398284298929
 20
137.1581410731269
 30
0.0
 10
129.7395380193252
 20
137.4193275472579
 30
0.0
 10
129.7655626531009
 20
137.5490925854226
 30
0.0
 10
129.8677109375929
 20
137.7946752196953
 30
0.0
 10
129.9432873851761
 20
137.9113367570041
 30
0.0
 10
130.143784916321
 20
138.1332419471587
 30
0.0
 10
130.2689137578294
 20
138.2378532010817
 30
0.0
 10
130.5582725588509
 20
138.4278996126898
 30
0.0
 10
130.7236835459064
 20
138.5146592841394
 30
0.0
 10
131.0966741040542
 20
138.672163659891
 30
0.0
 10
131.2984071371434
 20
138.7404889246782
 30
0.0
 10
131.7312663879712
 20
138.8587186482974
 30
0.0
 10
131.9651849208606
 20
138.9090135644013
 30
0.0
 10
132.4493686560032
 20
138.9888791012909
 30
0.0
 10
132.6986842819587
 20
139.0186202290905
 30
0.0
 10
133.2117168063864
 20
139.0587729705987
 30
0.0
 10
133.4770106292911
 20
139.0689712400086
 30
0.0
 10
133.9993452491608
 20
139.0690476983933
 30
0.0
 10
134.2590989116426
 20
139.0592566867842
 30
0.0
 10
134.7757107272878
 20
139.0191898480455
 30
0.0
 10
135.0280767677881
 20
138.9890926811887
 30
0.0
 10
135.5096018893209
 20
138.9098704713585
 30
0.0
 10
135.7424526214345
 20
138.8601129918951
 30
0.0
 10
136.1795424698732
 20
138.7410210494447
 30
0.0
 10
136.3808634585304
 20
138.6727057878974
 30
0.0
 10
136.7499494838303
 20
138.5173048209639
 30
0.0
 10
136.918934234882
 20
138.429152478897
 30
0.0
 10
137.2093902915412
 20
138.2387130897806
 30
0.0
 10
137.3324621029034
 20
138.1360885120816
 30
0.0
 10
137.5337983443254
 20
137.9144481654734
 30
0.0
 10
137.6110108902676
 20
137.7956940899259
 30
0.0
 10
137.7132144331677
 20
137.5510281510082
 30
0.0
 10
137.73944278462
 20
137.4238714255597
 30
0.0
 10
137.7399191839371
 20
137.1594232797042
 30
0.0
 10
137.7141767714391
 20
137.026522599447
 30
0.0
 10
137.6128659950753
 20
136.7597303259649
 30
0.0
 10
137.5360333556843
 20
136.6243664244964
 30
0.0
 10
137.3356295164692
 20
136.3617866291938
 30
0.0
 10
137.2129580181771
 20
136.2348114694401
 30
0.0
 10
136.9230107290129
 20
135.9907320833577
 30
0.0
 10
136.7544397496476
 20
135.8733069586038
 30
0.0
 10
136.3861701555345
 20
135.6601104976554
 30
0.0
 10
136.1851082982642
 20
135.5629363792305
 30
0.0
 10
135.7480773796792
 20
135.3895814920163
 30
0.0
 10
135.5159291665496
 20
135.3151819403596
 30
0.0
 10
135.0349188850508
 20
135.194729060855
 30
0.0
 10
134.7828188022203
 20
135.147870685589
 30
0.0
 10
134.2657493159613
 20
135.0849131886052
 30
0.0
 10
134.0042279449687
 20
135.0690095793261
 30
0.0
 10
133.4751372676484
 20
135.0690095793261
 30
0.0
  0
LINE
  5
83
330
1F
100
AcDbEntity
  8
0
  6
Continuous
 62
     7
370
    15
100
AcDbLine
 10
125.7396826063
 20
78.8100470309
 30
0.0
 11
125.7396826063
 21
141.2100453382
 31
0.0
  0
SPLINE
  5
84
330
1F
100
AcDbEntity
  8
0
  6
Continuous
 62
     7
370
    15
100
AcDbSpline
210
0.0
220
0.0
230
1.0
 70
     8
 71
     3
 72
     8
 73
     4
 74
     0
 42
0.00000001
 43
0.00000001
 40
0.0
 40
0.0
 40
0.0
 40
0.0
 40
1.0
 40
1.0
 40
1.0
 40
1.0
 10
147.1316154377976
 20
79.8231284882998
 30
0.0
 10
146.6361357771319
 20
80.71865457623316
 30
0.0
 10
146.1420217290897
 20
81.61493899128541
 30
0.0
 10
145.6496826063086
 20
82.51220902549211
 30
0.0
  0
LINE
  5
85
330
1F
100
AcDbEntity
  8
0
  6
Continuous
 62
     7
370
    15
100
AcDbLine
 10
145.649682871
 20
82.5122088646
 30
0.0
 11
145.649682871
 21
129.8600469236
 31
0.0
  0
SPLINE
  5
86
330
1F
100
AcDbEntity
  8
0
  6
Continuous
 62
     7
370
    15
100
AcDbSpline
210
0.0
220
0.0
230
1.0
 70
    24
 71
     3
 72
     8
 73
     4
 74
     0
 42
0.00000001
 43
0.00000001
 40
0.0
 40
0.0
 40
0.0
 40
0.0
 40
1.0
 40
1.0
 40
1.0
 40
1.0
 10
145.6496826063086
 20
129.860046184547
 30
0.0
 10
146.1296346006735
 20
129.860046184547
 30
0.0
 10
146.6249353296471
 20
129.860046184547
 30
0.0
 10
147.1316154377976
 20
129.860046184547
 30
0.0
  0
LINE
  5
87
330
1F
100
AcDbEntity
  8
0
  6
Continuous
 62
     7
370
    15
100
AcDbLine
 10
141.8296826546
 20
82.5122088646
 30
0.0
 11
141.8296826546
 21
129.8600469236
 31
0.0
  0
SPLINE
  5
88
330
1F
100
AcDbEntity
  8
0
  6
Continuous
 62
     7
370
    15
100
AcDbSpline
210
0.0
220
0.0
230
1.0
 70
     8
 71
     3
 72
     8
 73
     4
 74
     0
 42
0.00000001
 43
0.00000001
 40
0.0
 40
0.0
 40
0.0
 40
0.0
 40
1.0
 40
1.0
 40
1.0
 40
1.0
 10
141.8296826063086
 20
82.5122090254921
 30
0.0
 10
141.3373434835274
 20
81.6149389912854
 30
0.0
 10
140.8432294354853
 20
80.71865457623315
 30
0.0
 10
140.3477497748195
 20
79.8231284882998
 30
0.0
  0
SPLINE
  5
89
330
1F
100
AcDbEntity
  8
0
  6
Continuous
 62
     7
370
    15
100
AcDbSpline
210
0.0
220
0.0
230
1.0
 70
    24
 71
     3
 72
     8
 73
     4
 74
     0
 42
0.00000001
 43
0.00000001
 40
0.0
 40
0.0
 40
0.0
 40
0.0
 40
1.0
 40
1.0
 40
1.0
 40
1.0
 10
140.3477497748195
 20
129.860046184547
 30
0.0
 10
140.85442988297
 20
129.860046184547
 30
0.0
 10
141.3497306119437
 20
129.860046184547
 30
0.0
 10
141.8296826063086
 20
129.860046184547
 30
0.0
  0
ARC
  5
8A
330
1F
100
AcDbEntity
  8
0
  6
Continuous
 62
     7
370
    15
100
AcDbCircle
 10
133.7398819865
 20
121.9110777582
 30
0.0
 40
4.113570299262714
100
AcDbArc
 50
19.881128212
 51
160.2073220356
  0
SPLINE
  5
8B
330
1F
100
AcDbEntity
  8
0
  6
Continuous
 62
     7
370
    15
100
AcDbSpline
210
0.0
220
0.0
230
1.0
 70
    24
 71
     3
 72
    14
 73
    10
 74
     0
 42
0.00000001
 43
0.00000001
 40
0.0
 40
0.0
 40
0.0
 40
0.0
 40
0.5
 40
0.5
 40
0.75
 40
0.75
 40
0.875
 40
0.875
 40
1.0
 40
1.0
 40
1.0
 40
1.0
 10
145.5520078039763
 20
83.61004618454696
 30
0.0
 10
145.505223098928
 20
83.61004618454697
 30
0.0
 10
145.4431719021484
 20
83.61004618454697
 30
0.0
 10
145.2997802635979
 20
83.61004618454696
 30
0.0
 10
145.2436366100467
 20
83.61004618454697
 30
0.0
 10
145.1306855879105
 20
83.61004618454696
 30
0.0
 10
145.0876848258724
 20
83.61004618454696
 30
0.0
 10
144.9836221155659
 20
83.61004618454696
 30
0.0
 10
144.918289877209
 20
83.61004618454696
 30
0.0
 10
144.8496826063086
 20
83.61004618454696
 30
0.0
  0
SPLINE
  5
8C
330
1F
100
AcDbEntity
  8
0
  6
Continuous
 62
     7
370
    15
100
AcDbSpline
210
0.0
220
0.0
230
1.0
 70
    24
 71
     3
 72
    12
 73
     8
 74
     0
 42
0.00000001
 43
0.00000001
 40
0.0
 40
0.0
 40
0.0
 40
0.0
 40
0.5000000000000017
 40
0.5000000000000017
 40
0.7500000000000008
 40
0.7500000000000008
 40
1.0
 40
1.0
 40
1.0
 40
1.0
 10
145.2553850746176
 20
136.410046184547
 30
0.0
 10
145.2122995250066
 20
136.410046184547
 30
0.0
 10
145.1631473232573
 20
136.410046184547
 30
0.0
 10
145.0666747289694
 20
136.410046184547
 30
0.0
 10
145.0305731438348
 20
136.410046184547
 30
0.0
 10
144.9474673859736
 20
136.410046184547
 30
0.0
 10
144.8994707890072
 20
136.410046184547
 30
0.0
 10
144.8496826063086
 20
136.410046184547
 30
0.0
  0
SPLINE
  5
8D
330
1F
100
AcDbEntity
  8
0
  6
Continuous
 62
     7
370
    15
100
AcDbSpline
210
0.0
220
0.0
230
1.0
 70
     8
 71
     3
 72
    10
 73
     6
 74
     0
 42
0.00000001
 43
0.00000001
 40
0.0
 40
0.0
 40
0.0
 40
0.0
 40
0.5
 40
0.5
 40
1.0
 40
1.0
 40
1.0
 40
1.0
 10
145.6496826063086
 20
137.1297000355827
 30
0.0
 10
145.6496826063086
 20
136.9859299777647
 30
0.0
 10
145.6136335475897
 20
136.8435106152696
 30
0.0
 10
145.4781246868156
 20
136.5936163219123
 30
0.0
 10
145.3782486937195
 20
136.4855859856642
 30
0.0
 10
145.2553850746176
 20
136.4100461845469
 30
0.0
  0
SPLINE
  5
8E
330
1F
100
AcDbEntity
  8
0
  6
Continuous
 62
     7
370
    15
100
AcDbSpline
210
0.0
220
0.0
230
1.0
 70
     8
 71
     3
 72
    10
 73
     6
 74
     0
 42
0.00000001
 43
0.00000001
 40
0.0
 40
0.0
 40
0.0
 40
0.0
 40
0.5
 40
0.5
 40
1.0
 40
1.0
 40
1.0
 40
1.0
 10
145.6235349831484
 20
129.860046184547
 30
0.0
 10
145.6322246260601
 20
129.9069250338651
 30
0.0
 10
145.6387636908106
 20
129.9543474992664
 30
0.0
 10
145.6475223252037
 20
130.0502842978533
 30
0.0
 10
145.6496826063086
 20
130.0981995858638
 30
0.0
 10
145.6496826063086
 20
130.1459128160083
 30
0.0
  0
SPLINE
  5
8F
330
1F
100
AcDbEntity
  8
0
  6
Continuous
 62
     7
370
    15
100
AcDbSpline
210
0.0
220
0.0
230
1.0
 70
     8
 71
     3
 72
    10
 73
     6
 74
     0
 42
0.00000001
 43
0.00000001
 40
0.0
 40
0.0
 40
0.0
 40
0.0
 40
0.5
 40
0.5
 40
1.0
 40
1.0
 40
1.0
 40
1.0
 10
142.2239801379995
 20
136.410046184547
 30
0.0
 10
142.102439874331
 20
136.4847723517587
 30
0.0
 10
142.0011055139821
 20
136.5937173676755
 30
0.0
 10
141.8654665710936
 20
136.8441478484371
 30
0.0
 10
141.8296826063086
 20
136.986567210536
 30
0.0
 10
141.8296826063086
 20
137.1297000355827
 30
0.0
  0
SPLINE
  5
90
330
1F
100
AcDbEntity
  8
0
  6
Continuous
 62
     7
370
    15
100
AcDbSpline
210
0.0
220
0.0
230
1.0
 70
    24
 71
     3
 72
    12
 73
     8
 74
     0
 42
0.00000001
 43
0.00000001
 40
0.0
 40
0.0
 40
0.0
 40
0.0
 40
0.2499999999999992
 40
0.2499999999999992
 40
0.4999999999999983
 40
0.4999999999999983
 40
1.0
 40
1.0
 40
1.0
 40
1.0
 10
142.6296826063086
 20
136.410046184547
 30
0.0
 10
142.5798059239912
 20
136.410046184547
 30
0.0
 10
142.5318027305875
 20
136.4100461845469
 30
0.0
 10
142.4487546278755
 20
136.410046184547
 30
0.0
 10
142.4126250484077
 20
136.410046184547
 30
0.0
 10
142.3167130174635
 20
136.410046184547
 30
0.0
 10
142.2669543494947
 20
136.410046184547
 30
0.0
 10
142.2239801379995
 20
136.410046184547
 30
0.0
  0
SPLINE
  5
91
330
1F
100
AcDbEntity
  8
0
  6
Continuous
 62
     7
370
    15
100
AcDbSpline
210
0.0
220
0.0
230
1.0
 70
    24
 71
     3
 72
    14
 73
    10
 74
     0
 42
0.00000001
 43
0.00000001
 40
0.0
 40
0.0
 40
0.0
 40
0.0
 40
0.1250000000000012
 40
0.1250000000000012
 40
0.2500000000000024
 40
0.2500000000000024
 40
0.5000000000000013
 40
0.5000000000000013
 40
1.0
 40
1.0
 40
1.0
 40
1.0
 10
142.6296826063085
 20
83.61004618454696
 30
0.0
 10
142.5612447584221
 20
83.61004618454696
 30
0.0
 10
142.4956947196571
 20
83.61004618454696
 30
0.0
 10
142.3912680802491
 20
83.61004618454697
 30
0.0
 10
142.3487234704877
 20
83.61004618454696
 30
0.0
 10
142.2361140099474
 20
83.61004618454696
 30
0.0
 10
142.180574962928
 20
83.61004618454696
 30
0.0
 10
142.0379632674642
 20
83.61004618454696
 30
0.0
 10
141.9745579124684
 20
83.61004618454696
 30
0.0
 10
141.9273574086409
 20
83.61004618454696
 30
0.0
  0
SPLINE
  5
92
330
1F
100
AcDbEntity
  8
0
  6
Continuous
 62
     7
370
    15
100
AcDbSpline
210
0.0
220
0.0
230
1.0
 70
     8
 71
     3
 72
    10
 73
     6
 74
     0
 42
0.00000001
 43
0.00000001
 40
0.0
 40
0.0
 40
0.0
 40
0.0
 40
0.5
 40
0.5
 40
1.0
 40
1.0
 40
1.0
 40
1.0
 10
141.8296826063086
 20
130.1459128160083
 30
0.0
 10
141.8296826063086
 20
130.098141308015
 30
0.0
 10
141.8318438499057
 20
130.0504315859534
 30
0.0
 10
141.8405152237659
 20
129.9551364684051
 30
0.0
 10
141.8470444067219
 20
129.9074439044385
 30
0.0
 10
141.8558302294687
 20
129.860046184547
 30
0.0
  0
LINE
  5
93
330
1F
100
AcDbEntity
  8
0
  6
Continuous
 62
     7
370
    15
100
AcDbLine
 10
144.8496823673
 20
136.4100460415
 30
0.0
 11
142.6296831582
 21
136.4100460415
 31
0.0
  0
LINE
  5
94
330
1F
100
AcDbEntity
  8
0
  6
Continuous
 62
     7
370
    15
100
AcDbLine
 10
144.8496823673
 20
83.6100463276
 30
0.0
 11
142.6296831582
 21
83.6100463276
 31
0.0
  0
LINE
  5
95
330
1F
100
AcDbEntity
  8
0
  6
Continuous
 62
     7
370
    15
100
AcDbLine
 10
123.7396825113
 20
85.789614961
 30
0.0
 11
123.7396825113
 21
134.2304774081
 31
0.0
  0
LINE
  5
96
330
1F
100
AcDbEntity
  8
0
  6
Continuous
 62
     7
370
    15
100
AcDbLine
 10
103.9396823858
 20
86.7816001629
 30
0.0
 11
103.9396823858
 21
88.0463082795
 31
0.0
  0
SPLINE
  5
97
330
1F
100
AcDbEntity
  8
0
  6
Continuous
 62
     7
370
    15
100
AcDbSpline
210
0.0
220
0.0
230
1.0
 70
     8
 71
     3
 72
    14
 73
    10
 74
     0
 42
0.00000001
 43
0.00000001
 40
0.0
 40
0.0
 40
0.0
 40
0.0
 40
0.25
 40
0.25
 40
0.5
 40
0.5
 40
0.75
 40
0.75
 40
1.0
 40
1.0
 40
1.0
 40
1.0
 10
103.1613954883928
 20
89.176894860987
 30
0.0
 10
103.2180221635949
 20
89.06919740715016
 30
0.0
 10
103.3125448238847
 20
88.96640782543084
 30
0.0
 10
103.4955897994469
 20
88.76805051321068
 30
0.0
 10
103.5872163764016
 20
88.67199100453243
 30
0.0
 10
103.7460696940948
 20
88.48446196182319
 30
0.0
 10
103.8139603017165
 20
88.39305298903963
 30
0.0
 10
103.9108773274241
 20
88.21467676812948
 30
0.0
 10
103.9396826063091
 20
88.12745486188331
 30
0.0
 10
103.9396826063091
 20
88.04630865334906
 30
0.0
  0
SPLINE
  5
98
330
1F
100
AcDbEntity
  8
0
  6
Continuous
 62
     7
370
    15
100
AcDbSpline
210
0.0
220
0.0
230
1.0
 70
     8
 71
     3
 72
    14
 73
    10
 74
     0
 42
0.00000001
 43
0.00000001
 40
0.0
 40
0.0
 40
0.0
 40
0.0
 40
0.125
 40
0.125
 40
0.25
 40
0.25
 40
0.5
 40
0.5
 40
1.0
 40
1.0
 40
1.0
 40
1.0
 10
102.5396826063086
 20
89.62357672326634
 30
0.0
 10
102.5882270149657
 20
89.62932503654662
 30
0.0
 10
102.6411423697506
 20
89.62622414789038
 30
0.0
 10
102.7364377147337
 20
89.60402930372805
 30
0.0
 10
102.7766887120186
 20
89.5867970766322
 30
0.0
 10
102.8809587255316
 20
89.53046916018013
 30
0.0
 10
102.9312807006849
 20
89.48628281423433
 30
0.0
 10
103.0589636482103
 20
89.35527491538372
 30
0.0
 10
103.1150490952726
 20
89.26504039515343
 30
0.0
 10
103.1613954883943
 20
89.17689486098753
 30
0.0
  0
SPLINE
  5
99
330
1F
100
AcDbEntity
  8
0
  6
Continuous
 62
     7
370
    15
100
AcDbSpline
210
0.0
220
0.0
230
1.0
 70
     8
 71
     3
 72
     8
 73
     4
 74
     0
 42
0.00000001
 43
0.00000001
 40
0.0
 40
0.0
 40
0.0
 40
0.0
 40
1.0
 40
1.0
 40
1.0
 40
1.0
 10
100.2711575133623
 20
89.31373143668353
 30
0.0
 10
101.0057345398453
 20
89.4323564477525
 30
0.0
 10
101.7692096092409
 20
89.53234231988878
 30
0.0
 10
102.5396826063086
 20
89.62357672326634
 30
0.0
  0
SPLINE
  5
9A
330
1F
100
AcDbEntity
  8
0
  6
Continuous
 62
     7
370
    15
100
AcDbSpline
210
0.0
220
0.0
230
1.0
 70
     8
 71
     3
 72
    14
 73
    10
 74
     0
 42
0.00000001
 43
0.00000001
 40
0.0
 40
0.0
 40
0.0
 40
0.0
 40
0.5000000000000002
 40
0.5000000000000002
 40
0.7500000000000002
 40
0.7500000000000002
 40
0.8750000000000001
 40
0.8750000000000001
 40
1.0
 40
1.0
 40
1.0
 40
1.0
 10
94.98968260630856
 20
89.14010841915189
 30
0.0
 10
95.88182873686213
 20
89.13938619295124
 30
0.0
 10
96.77180517265572
 20
89.1439723994087
 30
0.0
 10
98.0984003397313
 20
89.17169740380024
 30
0.0
 10
98.53924726823003
 20
89.1843039414244
 30
0.0
 10
99.19568750565246
 20
89.21532008943186
 30
0.0
 10
99.41370116224434
 20
89.22766326205864
 30
0.0
 10
99.84641001592709
 20
89.2606873172219
 30
0.0
 10
100.0616864810919
 20
89.27990448236035
 30
0.0
 10
100.2711575133623
 20
89.31373143668353
 30
0.0
  0
SPLINE
  5
9B
330
1F
100
AcDbEntity
  8
0
  6
Continuous
 62
     7
370
    15
100
AcDbSpline
210
0.0
220
0.0
230
1.0
 70
     8
 71
     3
 72
     8
 73
     4
 74
     0
 42
0.00000001
 43
0.00000001
 40
0.0000005163856711
 40
0.0000005163856711
 40
0.0000005163856711
 40
0.0000005163856711
 40
0.000026289209185
 40
0.000026289209185
 40
0.000026289209185
 40
0.000026289209185
 10
94.97963767588986
 20
89.15009229225979
 30
0.0
 10
94.98296541410134
 20
89.14675804538695
 30
0.0
 10
94.98631386708064
 20
89.14343008810793
 30
0.0
 10
94.98968260630853
 20
89.14010841915187
 30
0.0
  0
SPLINE
  5
9C
330
1F
100
AcDbEntity
  8
0
  6
Continuous
 62
     7
370
    15
100
AcDbSpline
210
0.0
220
0.0
230
1.0
 70
     8
 71
     3
 72
     8
 73
     4
 74
     0
 42
0.00000001
 43
0.00000001
 40
0.0000005099763573
 40
0.0000005099763573
 40
0.0000005099763573
 40
0.0000005099763573
 40
0.0000262827998699
 40
0.0000262827998699
 40
0.0000262827998699
 40
0.0000262827998699
 10
94.98968260630855
 20
130.879983949942
 30
0.0
 10
94.98631386708081
 20
130.8766622809862
 30
0.0
 10
94.98296541410167
 20
130.8733343237073
 30
0.0
 10
94.97963767589034
 20
130.8700000768346
 30
0.0
  0
SPLINE
  5
9D
330
1F
100
AcDbEntity
  8
0
  6
Continuous
 62
     7
370
    15
100
AcDbSpline
210
0.0
220
0.0
230
1.0
 70
     8
 71
     3
 72
    10
 73
     6
 74
     0
 42
0.00000001
 43
0.00000001
 40
0.0
 40
0.0
 40
0.0
 40
0.0
 40
0.5
 40
0.5
 40
1.0
 40
1.0
 40
1.0
 40
1.0
 10
98.53968260630857
 20
130.8331335763747
 30
0.0
 10
97.95209705921798
 20
130.8541990966111
 30
0.0
 10
97.36135066575758
 20
130.8649575824834
 30
0.0
 10
96.17733150045873
 20
130.878322363019
 30
0.0
 10
95.58391751225327
 20
130.8804650056836
 30
0.0
 10
94.98968260630856
 20
130.879983949942
 30
0.0
  0
SPLINE
  5
9E
330
1F
100
AcDbEntity
  8
0
  6
Continuous
 62
     7
370
    15
100
AcDbSpline
210
0.0
220
0.0
230
1.0
 70
     8
 71
     3
 72
    18
 73
    14
 74
     0
 42
0.00000001
 43
0.00000001
 40
0.0
 40
0.0
 40
0.0
 40
0.0
 40
0.2500000000000008
 40
0.2500000000000008
 40
0.5000000000000009
 40
0.5000000000000009
 40
0.7500000000000009
 40
0.7500000000000009
 40
0.875000000000001
 40
0.875000000000001
 40
0.9375000000000006
 40
0.9375000000000006
 40
1.0
 40
1.0
 40
1.0
 40
1.0
 10
99.93968260630858
 20
131.85415385691
 30
0.0
 10
99.9396826063086
 20
131.7709469480527
 30
0.0
 10
99.90383350637032
 20
131.6822102927392
 30
0.0
 10
99.7789617703364
 20
131.500085102179
 30
0.0
 10
99.68856135268852
 20
131.4049550535523
 30
0.0
 10
99.46631869794633
 20
131.215773544428
 30
0.0
 10
99.33655391150056
 20
131.1208283763333
 30
0.0
 10
99.09591645418907
 20
130.9825496687533
 30
0.0
 10
99.00814915605163
 20
130.936839235451
 30
0.0
 10
98.85362506884479
 20
130.8790159302295
 30
0.0
 10
98.79701418279005
 20
130.8613011661917
 30
0.0
 10
98.67297015188345
 20
130.8367618629587
 30
0.0
 10
98.60525547686517
 20
130.8307827244205
 30
0.0
 10
98.53968260630856
 20
130.8331335763747
 30
0.0
  0
LINE
  5
9F
330
1F
100
AcDbEntity
  8
0
  6
Continuous
 62
     7
370
    15
100
AcDbLine
 10
99.9396817301
 20
131.8541538422
 30
0.0
 11
99.9396817301
 21
133.0380920773
 31
0.0
  0
SPLINE
  5
A0
330
1F
100
AcDbEntity
  8
0
  6
Continuous
 62
     7
370
    15
100
AcDbSpline
210
0.0
220
0.0
230
1.0
 70
     8
 71
     3
 72
    24
 73
    20
 74
     0
 42
0.00000001
 43
0.00000001
 40
0.0
 40
0.0
 40
0.0
 40
0.0
 40
0.0010489815523775
 40
0.0637843212772741
 40
0.1272220630088516
 40
0.1903789073370505
 40
0.2526748662763491
 40
0.3146354150030102
 40
0.3770891884518245
 40
0.4393540587943444
 40
0.5008133488401828
 40
0.5621845177353679
 40
0.6248438462901906
 40
0.6874304788646655
 40
0.7496743245911356
 40
0.811984857412469
 40
0.8750960476811308
 40
0.9384412548145236
 40
1.0
 40
1.0
 40
1.0
 40
1.0
 10
112.5085886110354
 20
86.3525379901004
 30
0.0
 10
112.5081419452847
 20
86.35247934513391
 30
0.0
 10
112.4809820093611
 20
86.34891338215323
 30
0.0
 10
112.576611932493
 20
86.36177799162843
 30
0.0
 10
112.8101651085135
 20
86.39101247396849
 30
0.0
 10
113.2057210607479
 20
86.43763168470991
 30
0.0
 10
113.7327610611179
 20
86.48781248413508
 30
0.0
 10
114.3762915029541
 20
86.53219115757813
 30
0.0
 10
115.1149653372239
 20
86.55913435408893
 30
0.0
 10
115.9124800073427
 20
86.56260610239106
 30
0.0
 10
116.7390590571073
 20
86.53498065609763
 30
0.0
 10
117.564581878526
 20
86.476499513119
 30
0.0
 10
118.3567083494416
 20
86.39105644972041
 30
0.0
 10
119.0892807282789
 20
86.28932128122788
 30
0.0
 10
119.7249209100997
 20
86.18147763017997
 30
0.0
 10
120.2468318406459
 20
86.07984623490513
 30
0.0
 10
120.6284606782848
 20
85.99736427061264
 30
0.0
 10
120.8792753542182
 20
85.94121216310573
 30
0.0
 10
120.9083966699255
 20
85.93436331219286
 30
0.0
 10
120.9227490712691
 20
85.93098786521675
 30
0.0
  0
SPLINE
  5
A1
330
1F
100
AcDbEntity
  8
0
  6
Continuous
 62
     7
370
    15
100
AcDbSpline
210
0.0
220
0.0
230
1.0
 70
     8
 71
     3
 72
    24
 73
    20
 74
     0
 42
0.00000001
 43
0.00000001
 40
0.0
 40
0.0
 40
0.0
 40
0.0
 40
0.061438429114026
 40
0.1250736777967296
 40
0.1884253375120635
 40
0.2508623992448768
 40
0.3129665476325514
 40
0.3753451442328022
 40
0.4377328732174486
 40
0.499092717251918
 40
0.560580729454827
 40
0.622946985474185
 40
0.6854686070210457
 40
0.7475477863222202
 40
0.8098225081553685
 40
0.873068419947611
 40
0.936404185690527
 40
0.9991757203144552
 40
1.0
 40
1.0
 40
1.0
 40
1.0
 10
120.9226945888985
 20
134.0890747015548
 30
0.0
 10
120.9080937804463
 20
134.0857065436818
 30
0.0
 10
120.8783700905953
 20
134.0788497945974
 30
0.0
 10
120.6256320906094
 20
134.0225119747013
 30
0.0
 10
120.2426367915883
 20
133.9396541618161
 30
0.0
 10
119.7202808347053
 20
133.8377474135951
 30
0.0
 10
119.0854964900036
 20
133.729908843706
 30
0.0
 10
118.3552727533895
 20
133.628442590477
 30
0.0
 10
117.5648046584784
 20
133.5433805119098
 30
0.0
 10
116.7403209310207
 20
133.4851791549532
 30
0.0
 10
115.9132845505406
 20
133.4575947072686
 30
0.0
 10
115.1149600915501
 20
133.4610886358028
 30
0.0
 10
114.3751363405506
 20
133.4880422944765
 30
0.0
 10
113.7308814690909
 20
133.5323977950898
 30
0.0
 10
113.2034746119934
 20
133.5826029788126
 30
0.0
 10
112.8088093716803
 20
133.6292104388578
 30
0.0
 10
112.5762806860921
 20
133.6584136156962
 30
0.0
 10
112.4809014574258
 20
133.6711717544134
 30
0.0
 10
112.5078344017526
 20
133.6676319244946
 30
0.0
 10
112.5081834857155
 20
133.6675860439611
 30
0.0
  0
SPLINE
  5
A2
330
1F
100
AcDbEntity
  8
0
  6
Continuous
 62
     7
370
    15
100
AcDbSpline
210
0.0
220
0.0
230
1.0
 70
     8
 71
     3
 72
     9
 73
     5
 74
     0
 42
0.00000001
 43
0.00000001
 40
0.0
 40
0.0
 40
0.0
 40
0.0
 40
0.7009339503679092
 40
0.9999999999999999
 40
0.9999999999999999
 40
0.9999999999999999
 40
0.9999999999999999
 10
93.86046617373715
 20
90.30876648474457
 30
0.0
 10
93.86960684468698
 20
90.29093720098366
 30
0.0
 10
93.88264754694579
 20
90.26550073332287
 30
0.0
 10
93.89781101021407
 20
90.31938009279641
 30
0.0
 10
93.90234588727246
 20
90.33549357999088
 30
0.0
  0
LINE
  5
A3
330
1F
100
AcDbEntity
  8
0
  6
Continuous
 62
     7
370
    15
100
AcDbLine
 10
93.8396827792
 20
90.3193686609
 30
0.0
 11
93.8396827792
 21
129.7007237082
 31
0.0
  0
SPLINE
  5
A4
330
1F
100
AcDbEntity
  8
0
  6
Continuous
 62
     7
370
    15
100
AcDbSpline
210
0.0
220
0.0
230
1.0
 70
     8
 71
     3
 72
    10
 73
     6
 74
     0
 42
0.00000001
 43
0.00000001
 40
0.0
 40
0.0
 40
0.0
 40
0.0
 40
0.5
 40
0.5
 40
1.0
 40
1.0
 40
1.0
 40
1.0
 10
93.90234598103197
 20
129.6845987293277
 30
0.0
 10
93.8934416919232
 20
129.7303402485409
 30
0.0
 10
93.87692631173023
 20
129.7475310880099
 30
0.0
 10
93.84981836566861
 20
129.7472078110742
 30
0.0
 10
93.83968260630857
 20
129.7293302687777
 30
0.0
 10
93.83968260630857
 20
129.7007239310251
 30
0.0
  0
SPLINE
  5
A5
330
1F
100
AcDbEntity
  8
0
  6
Continuous
 62
     7
370
    15
100
AcDbSpline
210
0.0
220
0.0
230
1.0
 70
     8
 71
     3
 72
    26
 73
    22
 74
     0
 42
0.00000001
 43
0.00000001
 40
0.0
 40
0.0
 40
0.0
 40
0.0
 40
0.2500000000000165
 40
0.2500000000000165
 40
0.3750000000000256
 40
0.3750000000000256
 40
0.4375000000000291
 40
0.4375000000000291
 40
0.4687500000000291
 40
0.4687500000000291
 40
0.5000000000000292
 40
0.5000000000000292
 40
0.5312500000000293
 40
0.5312500000000293
 40
0.5625000000000293
 40
0.5625000000000293
 40
0.625000000000026
 40
0.625000000000026
 40
0.7500000000000173
 40
0.7500000000000173
 40
1.0
 40
1.0
 40
1.0
 40
1.0
 10
94.66383625241308
 20
130.4001655181448
 30
0.0
 10
94.62523572954461
 20
130.2823908217894
 30
0.0
 10
94.57893872699034
 20
130.1580011356274
 30
0.0
 10
94.48499937855642
 20
129.952781803274
 30
0.0
 10
94.44968791164295
 20
129.8812089368275
 30
0.0
 10
94.38350793589728
 20
129.765255704227
 30
0.0
 10
94.35896956922906
 20
129.7246711694168
 30
0.0
 10
94.31559682367526
 20
129.6605294875451
 30
0.0
 10
94.30008842225007
 20
129.63866306226
 30
0.0
 10
94.26504577766303
 20
129.5930687939168
 30
0.0
 10
94.24549548694327
 20
129.5693985029494
 30
0.0
 10
94.20356820657267
 20
129.5247819436095
 30
0.0
 10
94.18091609634102
 20
129.5039019310915
 30
0.0
 10
94.1399423822544
 20
129.4730285173407
 30
0.0
 10
94.12234308235898
 20
129.4631896475083
 30
0.0
 10
94.07771609650283
 20
129.4442000318122
 30
0.0
 10
94.0571568738495
 20
129.4438757071587
 30
0.0
 10
94.00603143435282
 20
129.4530991480349
 30
0.0
 10
93.98512002136428
 20
129.4743460442519
 30
0.0
 10
93.93367011380336
 20
129.5483149230827
 30
0.0
 10
93.9160048144988
 20
129.6144330163974
 30
0.0
 10
93.90234598103197
 20
129.6845987293277
 30
0.0
  0
SPLINE
  5
A6
330
1F
100
AcDbEntity
  8
0
  6
Continuous
 62
     7
370
    15
100
AcDbSpline
210
0.0
220
0.0
230
1.0
 70
     8
 71
     3
 72
    10
 73
     6
 74
     0
 42
0.00000001
 43
0.00000001
 40
0.0
 40
0.0
 40
0.0
 40
0.0
 40
0.5
 40
0.5
 40
1.0
 40
1.0
 40
1.0
 40
1.0
 10
94.97963767589036
 20
130.8700000768346
 30
0.0
 10
94.91207842097212
 20
130.8023086840249
 30
0.0
 10
94.84844176563563
 20
130.7276015192712
 30
0.0
 10
94.73822101106376
 20
130.5686353868446
 30
0.0
 10
94.69140471784114
 20
130.4842801208366
 30
0.0
 10
94.66383625241306
 20
130.4001655181448
 30
0.0
  0
SPLINE
  5
A7
330
1F
100
AcDbEntity
  8
0
  6
Continuous
 62
     7
370
    15
100
AcDbSpline
210
0.0
220
0.0
230
1.0
 70
     8
 71
     3
 72
    10
 73
     6
 74
     0
 42
0.00000001
 43
0.00000001
 40
0.0
 40
0.0
 40
0.0
 40
0.0
 40
0.5
 40
0.5
 40
1.0
 40
1.0
 40
1.0
 40
1.0
 10
94.66383625241312
 20
89.619926850949
 30
0.0
 10
94.69131366716633
 20
89.53609005448341
 30
0.0
 10
94.73802229745397
 20
89.45177956689656
 30
0.0
 10
94.84830076019593
 20
89.29265833641372
 30
0.0
 10
94.91218829880755
 20
89.21767359232565
 30
0.0
 10
94.97963767588988
 20
89.15009229225979
 30
0.0
  0
SPLINE
  5
A8
330
1F
100
AcDbEntity
  8
0
  6
Continuous
 62
     7
370
    15
100
AcDbSpline
210
0.0
220
0.0
230
1.0
 70
     8
 71
     3
 72
    24
 73
    20
 74
     0
 42
0.00000001
 43
0.00000001
 40
0.0
 40
0.0
 40
0.0
 40
0.0
 40
0.249999999999999
 40
0.249999999999999
 40
0.3749999999999983
 40
0.3749999999999983
 40
0.4374999999999987
 40
0.4374999999999987
 40
0.4687499999999975
 40
0.4687499999999975
 40
0.4999999999999963
 40
0.4999999999999963
 40
0.5624999999999984
 40
0.5624999999999984
 40
0.6250000000000006
 40
0.6250000000000006
 40
0.7500000000000001
 40
0.7500000000000001
 40
1.0
 40
1.0
 40
1.0
 40
1.0
 10
93.90234598103197
 20
90.33549363976623
 30
0.0
 10
93.9160990997022
 20
90.40614369775652
 30
0.0
 10
93.93387166710806
 20
90.47274181052143
 30
0.0
 10
93.98612275866341
 20
90.54683983075464
 30
0.0
 10
94.00715783424499
 20
90.5680976379162
 30
0.0
 10
94.0600582418734
 20
90.57624356406244
 30
0.0
 10
94.08116391475133
 20
90.57530376066666
 30
0.0
 10
94.1272160834293
 20
90.5542877690893
 30
0.0
 10
94.14558655541269
 20
90.5433789629817
 30
0.0
 10
94.18713819047841
 20
90.51074405203433
 30
0.0
 10
94.20970486323532
 20
90.48925207166295
 30
0.0
 10
94.27248587969534
 20
90.42078612807664
 30
0.0
 10
94.30561564066322
 20
90.37471166987154
 30
0.0
 10
94.36253332714826
 20
90.28970378153687
 30
0.0
 10
94.386719352652
 20
90.2494234803555
 30
0.0
 10
94.45192730303175
 20
90.13448725388956
 30
0.0
 10
94.48664336322301
 20
90.06390426874255
 30
0.0
 10
94.5798586335539
 20
89.85969850966396
 30
0.0
 10
94.62553116891458
 20
89.7368001273366
 30
0.0
 10
94.6638362524131
 20
89.61992685094903
 30
0.0
  0
SPLINE
  5
A9
330
1F
100
AcDbEntity
  8
0
  6
Continuous
 62
     7
370
    15
100
AcDbSpline
210
0.0
220
0.0
230
1.0
 70
     8
 71
     3
 72
    39
 73
    35
 74
     0
 42
0.00000001
 43
0.00000001
 40
-0.0927615054815756
 40
-0.0616740545464923
 40
-0.0305063473525771
 40
0.0
 40
0.0305183753946089
 40
0.0617093957316992
 40
0.0928116875992934
 40
0.1239169479866891
 40
0.1551100282336396
 40
0.1867027229323807
 40
0.2185031476999673
 40
0.2499300698104768
 40
0.2813814845356509
 40
0.313253612114032
 40
0.3449221859785251
 40
0.3761681539517497
 40
0.4072646953312196
 40
0.4383210271119021
 40
0.4694507012475042
 40
0.5000108865836478
 40
0.5305634981840415
 40
0.5617344712253497
 40
0.5928057379642131
 40
0.6239204355846686
 40
0.6551423104236993
 40
0.6867884522342258
 40
0.7186083347530191
 40
0.750060128174391
 40
0.7814819828185031
 40
0.8133260058975065
 40
0.8449403355403603
 40
0.8761558972349044
 40
0.9072384945184244
 40
0.9383259454535077
 40
0.9694936526474229
 40
1.0
 40
1.030518375394609
 40
1.061709395731699
 40
1.092811687599293
 10
184.9011753801299
 20
104.0224992889501
 30
0.0
 10
183.7395330452628
 20
103.903523886088
 30
0.0
 10
182.5775848992575
 20
104.0225149169278
 30
0.0
 10
181.462912651519
 20
104.379707048939
 30
0.0
 10
180.4332526415788
 20
104.9402903899439
 30
0.0
 10
179.5406657615318
 20
105.6954245743021
 30
0.0
 10
178.8073694445459
 20
106.613987563015
 30
0.0
 10
178.2640553000521
 20
107.6698846993752
 30
0.0
 10
177.9188049011857
 20
108.8148483915047
 30
0.0
 10
177.8044499784382
 20
110.0076158929921
 30
0.0
 10
177.919515921317
 20
111.2012061287558
 30
0.0
 10
178.2652434865418
 20
112.3482476024887
 30
0.0
 10
178.8088750881183
 20
113.4068024014112
 30
0.0
 10
179.5427324400858
 20
114.3268554820298
 30
0.0
 10
180.435023793207
 20
115.0822439410905
 30
0.0
 10
181.463336013805
 20
115.6423589000498
 30
0.0
 10
182.57763788355
 20
115.9982403747534
 30
0.0
 10
183.7399422887767
 20
116.1163773480465
 30
0.0
 10
184.9027372518051
 20
115.9978928687164
 30
0.0
 10
186.017469838472
 20
115.6413784975447
 30
0.0
 10
187.0465396219446
 20
115.0807161114884
 30
0.0
 10
187.9385949035049
 20
114.3248276276381
 30
0.0
 10
188.6718070222665
 20
113.404747020759
 30
0.0
 10
189.2147437480415
 20
112.347207779333
 30
0.0
 10
189.5597870416443
 20
111.2009568505252
 30
0.0
 10
189.674901311913
 20
110.0081198281938
 30
0.0
 10
189.5606843363103
 20
108.8148270612502
 30
0.0
 10
189.2149430990843
 20
107.6692031591883
 30
0.0
 10
188.6710965149789
 20
106.6123529680714
 30
0.0
 10
187.9372120221607
 20
105.6938754619798
 30
0.0
 10
187.0444040514657
 20
104.9393168750467
 30
0.0
 10
186.0152849766521
 20
104.3793463470427
 30
0.0
 10
184.9011753801299
 20
104.0224992889501
 30
0.0
 10
183.7395330452628
 20
103.903523886088
 30
0.0
 10
182.5775848992575
 20
104.0225149169278
 30
0.0
  0
LINE
  5
AA
330
1F
100
AcDbEntity
  8
0
  6
Continuous
 62
     7
370
    15
100
AcDbLine
 10
192.872639886
 20
89.0100464677
 30
0.0
 11
192.872639886
 21
131.0100459014
 31
0.0
  0
SPLINE
  5
AB
330
1F
100
AcDbEntity
  8
0
  6
Continuous
 62
     7
370
    15
100
AcDbSpline
210
0.0
220
0.0
230
1.0
 70
     8
 71
     3
 72
     8
 73
     4
 74
     0
 42
0.00000001
 43
0.00000001
 40
0.0
 40
0.0
 40
0.0
 40
0.0
 40
1.0
 40
1.0
 40
1.0
 40
1.0
 10
140.3477497748195
 20
134.4687358469144
 30
0.0
 10
140.8548366165788
 20
133.3375854927507
 30
0.0
 10
141.3504044557187
 20
132.2012010819829
 30
0.0
 10
141.8296826063086
 20
131.0601898521303
 30
0.0
  0
LINE
  5
AC
330
1F
100
AcDbEntity
  8
0
  6
Continuous
 62
     7
370
    15
100
AcDbLine
 10
141.8296826546
 20
131.0601901715
 30
0.0
 11
141.8296826546
 21
130.1459126626
 31
0.0
  0
LINE
  5
AD
330
1F
100
AcDbEntity
  8
0
  6
Continuous
 62
     7
370
    15
100
AcDbLine
 10
145.649682871
 20
130.1459126626
 30
0.0
 11
145.649682871
 21
131.0601901715
 31
0.0
  0
SPLINE
  5
AE
330
1F
100
AcDbEntity
  8
0
  6
Continuous
 62
     7
370
    15
100
AcDbSpline
210
0.0
220
0.0
230
1.0
 70
     8
 71
     3
 72
     8
 73
     4
 74
     0
 42
0.00000001
 43
0.00000001
 40
0.0
 40
0.0
 40
0.0
 40
0.0
 40
1.0
 40
1.0
 40
1.0
 40
1.0
 10
145.6496826063086
 20
131.0601898521303
 30
0.0
 10
146.1289607568984
 20
132.2012010819829
 30
0.0
 10
146.6245285960383
 20
133.3375854927507
 30
0.0
 10
147.1316154377976
 20
134.4687358469144
 30
0.0
  0
LINE
  5
AF
330
1F
100
AcDbEntity
  8
0
  6
Continuous
 62
     7
370
    15
100
AcDbLine
 10
147.1316145276
 20
134.4687357997
 30
0.0
 11
151.0896833156
 21
134.4687357997
 31
0.0
  0
SPLINE
  5
B0
330
1F
100
AcDbEntity
  8
0
  6
Continuous
 62
     7
370
    15
100
AcDbSpline
210
0.0
220
0.0
230
1.0
 70
     8
 71
     3
 72
    12
 73
     8
 74
     0
 42
0.00000001
 43
0.00000001
 40
0.0
 40
0.0
 40
0.0
 40
0.0
 40
0.2499999999999987
 40
0.2499999999999987
 40
0.4999999999999973
 40
0.4999999999999973
 40
1.0
 40
1.0
 40
1.0
 40
1.0
 10
151.0896826063086
 20
134.4687358469144
 30
0.0
 10
151.1808823281342
 20
134.4687358469144
 30
0.0
 10
151.2714773372703
 20
134.4405161483265
 30
0.0
 10
151.4248900637169
 20
134.3460731410784
 30
0.0
 10
151.4900989310406
 20
134.2797861643731
 30
0.0
 10
151.6428834603805
 20
134.0541613410848
 30
0.0
 10
151.6896826063086
 20
133.8717350780522
 30
0.0
 10
151.6896826063086
 20
133.6909984458054
 30
0.0
  0
LINE
  5
B1
330
1F
100
AcDbEntity
  8
0
  6
Continuous
 62
     7
370
    15
100
AcDbLine
 10
151.6896822964
 20
133.6909976308
 30
0.0
 11
151.6896822964
 21
129.8600469236
 31
0.0
  0
SPLINE
  5
B2
330
1F
100
AcDbEntity
  8
0
  6
Continuous
 62
     7
370
    15
100
AcDbSpline
210
0.0
220
0.0
230
1.0
 70
     8
 71
     3
 72
     8
 73
     4
 74
     0
 42
0.00000001
 43
0.00000001
 40
0.0
 40
0.0
 40
0.0
 40
0.0
 40
1.0
 40
1.0
 40
1.0
 40
1.0
 10
141.8296826063086
 20
137.8152803757186
 30
0.0
 10
141.3369725094628
 20
138.703299373845
 30
0.0
 10
140.8428898041838
 20
139.590562009531
 30
0.0
 10
140.3477497748195
 20
140.4772416577112
 30
0.0
  0
LINE
  5
B3
330
1F
100
AcDbEntity
  8
0
  6
Continuous
 62
     7
370
    15
100
AcDbLine
 10
141.8296826546
 20
131.0601901715
 30
0.0
 11
141.8296826546
 21
137.8152795588
 31
0.0
  0
SPLINE
  5
B4
330
1F
100
AcDbEntity
  8
0
  6
Continuous
 62
     7
370
    15
100
AcDbSpline
210
0.0
220
0.0
230
1.0
 70
     8
 71
     3
 72
     8
 73
     4
 74
     0
 42
0.00000001
 43
0.00000001
 40
0.0
 40
0.0
 40
0.0
 40
0.0
 40
1.0
 40
1.0
 40
1.0
 40
1.0
 10
147.1316154377976
 20
140.4772416577112
 30
0.0
 10
146.6364754084333
 20
139.590562009531
 30
0.0
 10
146.1423927031543
 20
138.703299373845
 30
0.0
 10
145.6496826063086
 20
137.8152803757185
 30
0.0
  0
LINE
  5
B5
330
1F
100
AcDbEntity
  8
0
  6
Continuous
 62
     7
370
    15
100
AcDbLine
 10
147.1316145276
 20
134.4687357997
 30
0.0
 11
147.1316145276
 21
140.4772416209
 31
0.0
  0
LINE
  5
B6
330
1F
100
AcDbEntity
  8
0
  6
Continuous
 62
     7
370
    15
100
AcDbLine
 10
145.649682871
 20
131.0601901715
 30
0.0
 11
145.649682871
 21
137.8152795588
 31
0.0
  0
SPLINE
  5
B7
330
1F
100
AcDbEntity
  8
0
  6
Continuous
 62
     7
370
    15
100
AcDbSpline
210
0.0
220
0.0
230
1.0
 70
     8
 71
     3
 72
    10
 73
     6
 74
     0
 42
0.00000001
 43
0.00000001
 40
0.0
 40
0.0
 40
0.0
 40
0.0
 40
0.5
 40
0.5
 40
1.0
 40
1.0
 40
1.0
 40
1.0
 10
151.6896826063086
 20
139.8564865083109
 30
0.0
 10
151.6896826063086
 20
140.0168917746617
 30
0.0
 10
151.6274447752017
 20
140.1759535876502
 30
0.0
 10
151.4083098514591
 20
140.4068660532806
 30
0.0
 10
151.2507211564673
 20
140.4772416577112
 30
0.0
 10
151.0896826063086
 20
140.4772416577112
 30
0.0
  0
LINE
  5
B8
330
1F
100
AcDbEntity
  8
0
  6
Continuous
 62
     7
370
    15
100
AcDbLine
 10
151.6896822964
 20
133.6909976308
 30
0.0
 11
151.6896822964
 21
139.8564871852
 31
0.0
  0
LINE
  5
B9
330
1F
100
AcDbEntity
  8
0
  6
Continuous
 62
     7
370
    15
100
AcDbLine
 10
151.0896833156
 20
140.4772416209
 30
0.0
 11
147.1316145276
 21
140.4772416209
 31
0.0
  0
ARC
  5
BA
330
1F
100
AcDbEntity
  8
0
  6
Continuous
 62
     7
370
    15
100
AcDbCircle
 10
133.7404573774
 20
128.7022174555
 30
0.0
 40
7.261939159703592
100
AcDbArc
 50
70.9635650583
 51
109.2417726031
  0
LINE
  5
BB
330
1F
100
AcDbEntity
  8
0
  6
Continuous
 62
     7
370
    15
100
AcDbLine
 10
205.7396808182
 20
96.2841870715
 30
0.0
 11
205.7396808182
 21
123.7359052976
 31
0.0
  0
ARC
  5
BC
330
1F
100
AcDbEntity
  8
0
  6
HIDDEN
 62
     7
370
     0
100
AcDbCircle
 10
183.7396826063
 20
110.0100461845
 30
0.0
 40
6.000000000000001
100
AcDbArc
 50
135.776979768
 51
67.5748093136
  0
CIRCLE
  5
BD
330
1F
100
AcDbEntity
  8
0
  6
HIDDEN
 62
     7
370
     0
100
AcDbCircle
 10
183.7396826063
 20
110.0100461845
 30
0.0
 40
2.750000000000004
  0
CIRCLE
  5
BE
330
1F
100
AcDbEntity
  8
0
  6
HIDDEN
 62
     7
370
     0
100
AcDbCircle
 10
183.7396826063
 20
110.0100461845
 30
0.0
 40
4.000000000000006
  0
LINE
  5
BF
330
1F
100
AcDbEntity
  8
0
  6
HIDDEN
 62
     7
370
     0
100
AcDbLine
 10
140.3477500667
 20
134.4687357997
 30
0.0
 11
140.3477500667
 21
129.8600469236
 31
0.0
  0
ARC
  5
C0
330
1F
100
AcDbEntity
  8
0
  6
HIDDEN
 62
     7
370
     0
100
AcDbCircle
 10
134.0239147811
 20
122.5030311221
 30
0.0
 40
3.674080747436468
100
AcDbArc
 50
265.563088775
 51
12.6874524898
  0
ARC
  5
C1
330
1F
100
AcDbEntity
  8
0
  6
HIDDEN
 62
     7
370
     0
100
AcDbCircle
 10
133.4556589093
 20
122.5035464719
 30
0.0
 40
3.674578491807517
100
AcDbArc
 50
167.4179825747
 51
274.4330604531
  0
LINE
  5
C2
330
1F
100
AcDbEntity
  8
0
  6
HIDDEN
 62
     7
370
     0
100
AcDbLine
 10
113.7348331054
 20
86.4854470347
 30
0.0
 11
113.4831748445
 21
86.4619255518
 31
0.0
  0
LINE
  5
C3
330
1F
100
AcDbEntity
  8
0
  6
HIDDEN
 62
     7
370
     0
100
AcDbLine
 10
113.3604833399
 20
133.5694767987
 30
0.0
 11
113.7347399731
 21
133.5346285706
 31
0.0
  0
SPLINE
  5
C4
330
1F
100
AcDbEntity
  8
0
  6
HIDDEN
 62
     7
370
     0
100
AcDbSpline
210
0.0
220
0.0
230
1.0
 70
     8
 71
     3
 72
    45
 73
    41
 74
     0
 42
0.00000001
 43
0.00000001
 40
-0.075452558347286
 40
-0.0624582876444593
 40
-0.0297178004934366
 40
0.0
 40
0.0297087962992288
 40
0.0624230266872737
 40
0.0901528007810493
 40
0.1249931446062148
 40
0.1466449327579443
 40
0.1670227894589743
 40
0.1861328429909256
 40
0.2039826041943823
 40
0.2205813722441704
 40
0.235940796874314
 40
0.2500756715097938
 40
0.2849470597656563
 40
0.3265208474017998
 40
0.3749037100796141
 40
0.3933016039436486
 40
0.4098753360587235
 40
0.4246263163925514
 40
0.4375568183423245
 40
0.4702688115259962
 40
0.5000240066429427
 40
0.5297575339393648
 40
0.5624554899008382
 40
0.5900900246878157
 40
0.6249974600184596
 40
0.648578034025522
 40
0.6694778225495305
 40
0.6877019222769866
 40
0.7203344941537524
 40
0.7501727464244088
 40
0.7849806724429833
 40
0.8265068160216773
 40
0.8748580847785415
 40
0.8932075216390952
 40
0.9097701516971938
 40
0.924547441652714
 40
0.9375417123555407
 40
0.9702821995065634
 40
1.0
 40
1.029708796299229
 40
1.062423026687274
 40
1.090152800781049
 10
182.7436856087884
 20
104.9486760510636
 30
0.0
 10
183.7395605696519
 20
104.8547721446712
 30
0.0
 10
184.7353052477313
 20
104.9486543528117
 30
0.0
 10
185.670107509671
 20
105.2291756214723
 30
0.0
 10
186.5768015793685
 20
105.7025122346617
 30
0.0
 10
187.2815799185629
 20
106.2686184324431
 30
0.0
 10
187.8211651317208
 20
106.8862544228918
 30
0.0
 10
188.1837195377372
 20
107.4312015152898
 30
0.0
 10
188.4586243001914
 20
107.9814285329178
 30
0.0
 10
188.6546742899623
 20
108.5229186280043
 30
0.0
 10
188.7817203732857
 20
109.0443293170703
 30
0.0
 10
188.8502550319901
 20
109.5371459072875
 30
0.0
 10
188.881663375401
 20
110.2317371017745
 30
0.0
 10
188.773396142312
 20
111.2118048674394
 30
0.0
 10
188.3071267182842
 20
112.4829847883951
 30
0.0
 10
187.6104262610272
 20
113.4291009485902
 30
0.0
 10
186.9476888560404
 20
114.0198183288088
 30
0.0
 10
186.5153570099905
 20
114.3280851259836
 30
0.0
 10
186.1050687799398
 20
114.5637571802507
 30
0.0
 10
185.5186206735692
 20
114.8362381328481
 30
0.0
 10
184.7364837469503
 20
115.0712669862589
 30
0.0
 10
183.7402485551369
 20
115.1653839067749
 30
0.0
 10
182.7439946880352
 20
115.0714349917602
 30
0.0
 10
181.8101016768652
 20
114.7911345745598
 30
0.0
 10
180.903746866052
 20
114.3183291364037
 30
0.0
 10
180.1828080280253
 20
113.7397179598964
 30
0.0
 10
179.6290409490292
 20
113.0983433679344
 30
0.0
 10
179.2648735337208
 20
112.5345949396977
 30
0.0
 10
178.9294972953655
 20
111.8424316098535
 30
0.0
 10
178.6781597793639
 20
111.0052074656929
 30
0.0
 10
178.579024503736
 20
109.9541328653879
 30
0.0
 10
178.7066810192646
 20
108.8061350304141
 30
0.0
 10
179.1727517174296
 20
107.5363592676775
 30
0.0
 10
179.868623267698
 20
106.5914894655766
 30
0.0
 10
180.5304781282685
 20
106.0012770702751
 30
0.0
 10
180.9623925152332
 20
105.693037181734
 30
0.0
 10
181.3733347354936
 20
105.4567879057697
 30
0.0
 10
181.9609269762508
 20
105.1837146419481
 30
0.0
 10
182.7436856087884
 20
104.9486760510636
 30
0.0
 10
183.7395605696519
 20
104.8547721446712
 30
0.0
 10
184.7353052477313
 20
104.9486543528117
 30
0.0
  0
SPLINE
  5
C5
330
1F
100
AcDbEntity
  8
0
  6
HIDDEN
 62
     7
370
     0
100
AcDbSpline
210
0.0
220
0.0
230
1.0
 70
     8
 71
     3
 72
    90
 73
    86
 74
     0
 42
0.00000001
 43
0.00000001
 40
-0.0312500000000007
 40
-0.0312500000000007
 40
0.0
 40
0.0
 40
0.0312500000000001
 40
0.0312500000000001
 40
0.0468750000000001
 40
0.0468750000000001
 40
0.0625000000000002
 40
0.0625000000000002
 40
0.0937500000000003
 40
0.0937500000000003
 40
0.1250000000000004
 40
0.1250000000000004
 40
0.1562500000000005
 40
0.1562500000000005
 40
0.1718750000000006
 40
0.1718750000000006
 40
0.1875000000000007
 40
0.1875000000000007
 40
0.2187500000000009
 40
0.2187500000000009
 40
0.2500000000000011
 40
0.2500000000000011
 40
0.2656250000000012
 40
0.2656250000000012
 40
0.2812500000000013
 40
0.2812500000000013
 40
0.3125000000000016
 40
0.3125000000000016
 40
0.3281250000000016
 40
0.3281250000000016
 40
0.3437500000000017
 40
0.3437500000000017
 40
0.3593750000000017
 40
0.3593750000000017
 40
0.3750000000000017
 40
0.3750000000000017
 40
0.4062500000000013
 40
0.4062500000000013
 40
0.4375000000000009
 40
0.4375000000000009
 40
0.4687500000000006
 40
0.4687500000000006
 40
0.4843750000000004
 40
0.4843750000000004
 40
0.5000000000000002
 40
0.5000000000000002
 40
0.5312499999999999
 40
0.5312499999999999
 40
0.5624999999999994
 40
0.5624999999999994
 40
0.5781249999999993
 40
0.5781249999999993
 40
0.5937499999999991
 40
0.5937499999999991
 40
0.6249999999999988
 40
0.6249999999999988
 40
0.6562499999999984
 40
0.6562499999999984
 40
0.687499999999998
 40
0.687499999999998
 40
0.7031249999999979
 40
0.7031249999999979
 40
0.7187499999999977
 40
0.7187499999999977
 40
0.7499999999999976
 40
0.7499999999999976
 40
0.7812499999999974
 40
0.7812499999999974
 40
0.8124999999999972
 40
0.8124999999999972
 40
0.8437499999999971
 40
0.8437499999999971
 40
0.8593749999999971
 40
0.8593749999999971
 40
0.8749999999999973
 40
0.8749999999999973
 40
0.8906249999999977
 40
0.8906249999999977
 40
0.9062499999999981
 40
0.9062499999999981
 40
0.9374999999999987
 40
0.9374999999999987
 40
0.9687499999999993
 40
0.9687499999999993
 40
1.0
 40
1.0
 40
1.03125
 40
1.03125
 10
184.1145853629414
 20
104.4927065321729
 30
0.0
 10
183.3647798496757
 20
104.4927065321729
 30
0.0
 10
182.9958321835024
 20
104.5265947106326
 30
0.0
 10
182.4509954138901
 20
104.6264729284651
 30
0.0
 10
182.2708240431676
 20
104.6680013258039
 30
0.0
 10
181.9134254608134
 20
104.7679662994165
 30
0.0
 10
181.7353327669009
 20
104.8267861214808
 30
0.0
 10
181.2154551134504
 20
105.0260004931184
 30
0.0
 10
180.8860071414346
 20
105.1890908367816
 30
0.0
 10
180.2610826772439
 20
105.5762981462439
 30
0.0
 10
179.9629109935384
 20
105.8034517977734
 30
0.0
 10
179.4249584180549
 20
106.3050926596517
 30
0.0
 10
179.1829919008717
 20
106.5799868997127
 30
0.0
 10
178.8614400060653
 20
107.0299282015221
 30
0.0
 10
178.7606657469946
 20
107.1872271930685
 30
0.0
 10
178.5769302644704
 20
107.5095844522973
 30
0.0
 10
178.4939446941309
 20
107.674389756478
 30
0.0
 10
178.271090875435
 20
108.1795410400161
 30
0.0
 10
178.157038673468
 20
108.5305079072768
 30
0.0
 10
178.001682443027
 20
109.262681074638
 30
0.0
 10
177.963041289742
 20
109.6325960287554
 30
0.0
 10
177.9622681716375
 20
110.187563724575
 30
0.0
 10
177.971554243018
 20
110.372873104637
 30
0.0
 10
178.0097197102237
 20
110.7441485495451
 30
0.0
 10
178.0387484612333
 20
110.9300337616869
 30
0.0
 10
178.1531524671709
 20
111.4752048712399
 30
0.0
 10
178.2658960431044
 20
111.8267328805842
 30
0.0
 10
178.4894228589554
 20
112.3364264359165
 30
0.0
 10
178.5735010977986
 20
112.5039413207905
 30
0.0
 10
178.7563768826251
 20
112.8258680516693
 30
0.0
 10
178.855471908324
 20
112.9811340833491
 30
0.0
 10
179.0685846240459
 20
113.280655926105
 30
0.0
 10
179.1826034487072
 20
113.4249107389335
 30
0.0
 10
179.4256285361504
 20
113.7024628063414
 30
0.0
 10
179.5553902184638
 20
113.8364210148935
 30
0.0
 10
179.9611698950114
 20
114.2154223108627
 30
0.0
 10
180.2532070312394
 20
114.4382424857687
 30
0.0
 10
180.8789013939444
 20
114.8272548093629
 30
0.0
 10
181.2155634587456
 20
114.9940172142282
 30
0.0
 10
181.9052619652304
 20
115.258537851233
 30
0.0
 10
182.260629985538
 20
115.358339876618
 30
0.0
 10
182.8095777816009
 20
115.4595403678727
 30
0.0
 10
182.9959141773874
 20
115.4851216482652
 30
0.0
 10
183.3665959694717
 20
115.5188957183415
 30
0.0
 10
183.5517234131457
 20
115.5272937920319
 30
0.0
 10
184.1064785002891
 20
115.5275676712365
 30
0.0
 10
184.475484771607
 20
115.4947736625972
 30
0.0
 10
185.2117667931594
 20
115.360197222099
 30
0.0
 10
185.5684442152344
 20
115.260234055668
 30
0.0
 10
186.0842804244016
 20
115.0630995017735
 30
0.0
 10
186.2531561712825
 20
114.989437965402
 30
0.0
 10
186.5846309012714
 20
114.825732875798
 30
0.0
 10
186.7480972258289
 20
114.7351121704525
 30
0.0
 10
187.2204613539517
 20
114.4424681091516
 30
0.0
 10
187.5121127751916
 20
114.2201051066556
 30
0.0
 10
188.0493310250363
 20
113.7203065755031
 30
0.0
 10
188.2971807892282
 20
113.4390935647415
 30
0.0
 10
188.7254838016378
 20
112.8395412120573
 30
0.0
 10
188.9077039856385
 20
112.52087097885
 30
0.0
 10
189.1321879242758
 20
112.013505038157
 30
0.0
 10
189.1991467719009
 20
111.8383163865967
 30
0.0
 10
189.3137217823609
 20
111.4840130463577
 30
0.0
 10
189.3614430154003
 20
111.3050805102093
 30
0.0
 10
189.4765537318679
 20
110.7630375999071
 30
0.0
 10
189.5162020687333
 20
110.3944876714491
 30
0.0
 10
189.5174716709873
 20
109.6437451145279
 30
0.0
 10
189.4791189624383
 20
109.2751094035655
 30
0.0
 10
189.3277569176627
 20
108.5506900617347
 30
0.0
 10
189.212635162218
 20
108.1912941287636
 30
0.0
 10
188.9154971219677
 20
107.5140774004947
 30
0.0
 10
188.7338192022603
 20
107.1937973026804
 30
0.0
 10
188.4116224104458
 20
106.7404504291345
 30
0.0
 10
188.2958725542291
 20
106.5940958282674
 30
0.0
 10
188.0527983898012
 20
106.3166287631526
 30
0.0
 10
187.9248996645198
 20
106.1846628298662
 30
0.0
 10
187.6566441618232
 20
105.933856447206
 30
0.0
 10
187.5162867897871
 20
105.8150168401464
 30
0.0
 10
187.2230135028247
 20
105.5904415652508
 30
0.0
 10
187.0692977359996
 20
105.484268569175
 30
0.0
 10
186.5975143465317
 20
105.1911177346425
 30
0.0
 10
186.2676052460947
 20
105.0278031104742
 30
0.0
 10
185.5778129825462
 20
104.7627110323547
 30
0.0
 10
185.2150815058366
 20
104.6609005588527
 30
0.0
 10
184.4847673801644
 20
104.5266226449748
 30
0.0
 10
184.1145853629414
 20
104.4927065321729
 30
0.0
 10
183.3647798496757
 20
104.4927065321729
 30
0.0
  0
SPLINE
  5
C6
330
1F
100
AcDbEntity
  8
0
  6
HIDDEN
 62
     7
370
     0
100
AcDbSpline
210
0.0
220
0.0
230
1.0
 70
     8
 71
     3
 72
    15
 73
    11
 74
     0
 42
0.00000001
 43
0.00000001
 40
0.0
 40
0.0
 40
0.0
 40
0.0
 40
0.1409172263352446
 40
0.281889861653346
 40
0.4212989542022905
 40
0.5593768841673977
 40
0.6988856533029646
 40
0.840367202775075
 40
0.9813164473602943
 40
1.0
 40
1.0
 40
1.0
 40
1.0
 10
119.4946846467246
 20
90.17251771736862
 30
0.0
 10
119.1786429271119
 20
90.2128710391433
 30
0.0
 10
118.5464352195435
 20
90.29359354971312
 30
0.0
 10
117.3122720472293
 20
90.3701514960959
 30
0.0
 10
116.0415499234136
 20
90.36547342808096
 30
0.0
 10
114.8529904568772
 20
90.28467696285772
 30
0.0
 10
113.8598677775867
 20
90.1602824160035
 30
0.0
 10
113.220459246273
 20
90.05387546924227
 30
0.0
 10
112.9394392579196
 20
90.00079840993271
 30
0.0
 10
113.0059998264084
 20
90.01305290189462
 30
0.0
 10
113.0137901295711
 20
90.01448717761757
 30
0.0
  0
SPLINE
  5
C7
330
1F
100
AcDbEntity
  8
0
  6
HIDDEN
 62
     7
370
     0
100
AcDbSpline
210
0.0
220
0.0
230
1.0
 70
     8
 71
     3
 72
    15
 73
    11
 74
     0
 42
0.00000001
 43
0.00000001
 40
0.0
 40
0.0
 40
0.0
 40
0.0
 40
0.1201202497733958
 40
0.2584739452442804
 40
0.3987302041697883
 40
0.5404022600041716
 40
0.680739511736143
 40
0.8190355942651634
 40
0.9577823154231621
 40
1.0
 40
1.0
 40
1.0
 40
1.0
 10
113.0137901295711
 20
130.0056051914763
 30
0.0
 10
113.0344993783745
 20
130.0015806874021
 30
0.0
 10
113.0790614006096
 20
129.9929207866135
 30
0.0
 10
113.641500870338
 20
129.8936278679023
 30
0.0
 10
114.5349631257853
 20
129.769711856191
 30
0.0
 10
115.6939419496374
 20
129.6700004806573
 30
0.0
 10
116.9669788184572
 20
129.6428634229593
 30
0.0
 10
118.2012641651843
 20
129.6982007850894
 30
0.0
 10
119.0292272428801
 20
129.7846805208808
 30
0.0
 10
119.4066375555264
 20
129.8356774400179
 30
0.0
 10
119.4946846467246
 20
129.8475746517253
 30
0.0
  0
SPLINE
  5
C8
330
1F
100
AcDbEntity
  8
0
  6
HIDDEN
 62
     7
370
     0
100
AcDbSpline
210
0.0
220
0.0
230
1.0
 70
     8
 71
     3
 72
    10
 73
     6
 74
     0
 42
0.00000001
 43
0.00000001
 40
0.0
 40
0.0
 40
0.0
 40
0.0
 40
0.4475765645034734
 40
0.8951364709208242
 40
1.0
 40
1.0
 40
1.0
 40
1.0
 10
119.4946846467246
 20
129.8475746517253
 30
0.0
 10
119.7413901798798
 20
129.8770863300899
 30
0.0
 10
120.2347920642036
 20
129.9361085884414
 30
0.0
 10
120.5238066183844
 20
129.9500517921463
 30
0.0
 10
120.4634379949821
 20
129.9461584527974
 30
0.0
 10
120.4519785483171
 20
129.9454194014144
 30
0.0
  0
SPLINE
  5
C9
330
1F
100
AcDbEntity
  8
0
  6
HIDDEN
 62
     7
370
     0
100
AcDbSpline
210
0.0
220
0.0
230
1.0
 70
     8
 71
     3
 72
    10
 73
     6
 74
     0
 42
0.00000001
 43
0.00000001
 40
0.0
 40
0.0
 40
0.0
 40
0.0
 40
0.3454688819333812
 40
0.7966952282103242
 40
1.0
 40
1.0
 40
1.0
 40
1.0
 10
120.4519580592204
 20
90.07467483032467
 30
0.0
 10
120.4423979196538
 20
90.07522968805726
 30
0.0
 10
120.4203510205783
 20
90.0765092606353
 30
0.0
 10
120.003411731757
 20
90.10646867989487
 30
0.0
 10
119.6152515816695
 20
90.15686427520176
 30
0.0
 10
119.4946846467246
 20
90.17251771736862
 30
0.0
  0
LINE
  5
CA
330
1F
100
AcDbEntity
  8
0
  6
HIDDEN
 62
     7
370
     0
100
AcDbLine
 10
106.743658102
 20
93.0100452607
 30
0.0
 11
106.743658102
 21
127.0100471084
 31
0.0
  0
LWPOLYLINE
  5
CB
330
1F
100
AcDbEntity
  8
0
  6
HIDDEN
 62
     7
370
     0
100
AcDbPolyline
 90
       15
 70
   128
 43
0.0
 10
133.7396829863
 20
131.9556493764
 10
134.4966871206
 20
131.9917902802
 10
135.2263327231
 20
132.0989128654
 10
135.9022456695
 20
132.2731409674
 10
136.4999983002
 20
132.5081807082
 10
136.9979867254
 20
132.7955347006
 10
137.3782103424
 20
133.1248186981
 10
137.6269284178
 20
133.4841303979
 10
137.7351518263
 20
133.8604853009
 10
137.6989680816
 20
134.2402786468
 10
137.519685692
 20
134.6097846036
 10
137.2037838687
 20
134.9556480055
 10
136.7626806264
 20
135.2653705036
 10
136.2123183449
 20
135.5277538751
 10
136.1090793748
 20
135.5670109843
  0
LWPOLYLINE
  5
CC
330
1F
100
AcDbEntity
  8
0
  6
HIDDEN
 62
     7
370
     0
100
AcDbPolyline
 90
       15
 70
   128
 43
0.0
 10
131.3472484712
 20
135.5584782069
 10
131.2670466964
 20
135.5277538751
 10
130.7166844149
 20
135.2653705036
 10
130.2755811726
 20
134.9556480055
 10
129.9596793492
 20
134.6097846036
 10
129.7803969596
 20
134.2402786468
 10
129.744213215
 20
133.8604853009
 10
129.8524361578
 20
133.4841303979
 10
130.1011546989
 20
133.1248186981
 10
130.4813787815
 20
132.7955347006
 10
130.979366741
 20
132.5081807082
 10
131.5771193717
 20
132.2731409674
 10
132.2530327839
 20
132.0989128654
 10
132.9826774549
 20
131.9917902802
 10
133.7396829863
 20
131.9556493764
  0
SPLINE
  5
CD
330
1F
100
AcDbEntity
  8
0
  6
HIDDEN
 62
     7
370
     0
100
AcDbSpline
210
0.0
220
0.0
230
1.0
 70
     8
 71
     3
 72
    11
 73
     7
 74
     0
 42
0.00000001
 43
0.00000001
 40
0.0
 40
0.0
 40
0.0
 40
0.0
 40
0.0005779865010846
 40
0.0005779865010846
 40
0.0005779865010846
 40
0.0011559733324422
 40
0.0011559733324422
 40
0.0011559733324422
 40
0.0011559733324422
 10
93.83968260630857
 20
112.0098867927069
 30
0.0
 10
94.00634986111453
 20
112.0079031533662
 30
0.0
 10
94.17301629079219
 20
112.005865546358
 30
0.0
 10
94.33968262924402
 20
112.0037540829519
 30
0.0
 10
94.50634905807043
 20
112.0016426184008
 30
0.0
 10
94.67301543170811
 20
111.9994570552447
 30
0.0
 10
94.83968260630856
 20
111.9971744779134
 30
0.0
  0
SPLINE
  5
CE
330
1F
100
AcDbEntity
  8
0
  6
HIDDEN
 62
     7
370
     0
100
AcDbSpline
210
0.0
220
0.0
230
1.0
 70
     8
 71
     3
 72
    11
 73
     7
 74
     0
 42
0.00000001
 43
0.00000001
 40
0.0
 40
0.0
 40
0.0
 40
0.0
 40
0.0005782382535738
 40
0.0005782382535738
 40
0.0005782382535738
 40
0.0011564766069467
 40
0.0011564766069467
 40
0.0011564766069467
 40
0.0011564766069467
 10
94.83968260630857
 20
108.0133458823287
 30
0.0
 10
94.67302865233994
 20
108.0129083045671
 30
0.0
 10
94.50636798013797
 20
108.0124282398947
 30
0.0
 10
94.33970109147255
 20
108.0119087005254
 30
0.0
 10
94.1730341730765
 20
108.0113891610633
 30
0.0
 10
94.00636104324326
 20
108.0108303320414
 30
0.0
 10
93.83968260630856
 20
108.0102447884583
 30
0.0
  0
LINE
  5
CF
330
1F
100
AcDbEntity
  8
0
  6
HIDDEN
 62
     7
370
     0
100
AcDbLine
 10
133.3995085683
 20
93.0100452607
 30
0.0
 11
133.3995085683
 21
127.0100471084
 31
0.0
  0
LINE
  5
D0
330
1F
100
AcDbEntity
  8
0
  6
HIDDEN
 62
     7
370
     0
100
AcDbLine
 10
135.6896824677
 20
94.2850463544
 30
0.0
 11
135.6896824677
 21
125.7350460147
 31
0.0
  0
SPLINE
  5
D1
330
1F
100
AcDbEntity
  8
0
  6
HIDDEN
 62
     7
370
     0
100
AcDbSpline
210
0.0
220
0.0
230
1.0
 70
     8
 71
     3
 72
    16
 73
    12
 74
     0
 42
0.00000001
 43
0.00000001
 40
0.0
 40
0.0
 40
0.0
 40
0.0
 40
0.124999999999998
 40
0.124999999999998
 40
0.249999999999996
 40
0.249999999999996
 40
0.4999999999999973
 40
0.4999999999999973
 40
0.7499999999999987
 40
0.7499999999999987
 40
1.0
 40
1.0
 40
1.0
 40
1.0
 10
102.5396826063086
 20
94.20855574851531
 30
0.0
 10
102.6348043609744
 20
94.20855574851531
 30
0.0
 10
102.7281344297025
 20
94.2047399151225
 30
0.0
 10
102.9113961904405
 20
94.18996936239269
 30
0.0
 10
103.0022739059975
 20
94.1788113144171
 30
0.0
 10
103.2590756035172
 20
94.13634004427539
 30
0.0
 10
103.4141429683892
 20
94.09529384707258
 30
0.0
 10
103.6678894299438
 20
94.0001477304907
 30
0.0
 10
103.7687598816117
 20
93.94538499640912
 30
0.0
 10
103.9040062963065
 20
93.83412387250526
 30
0.0
 10
103.9396826063086
 20
93.77695413517657
 30
0.0
 10
103.9396826063086
 20
93.72253256214283
 30
0.0
  0
SPLINE
  5
D2
330
1F
100
AcDbEntity
  8
0
  6
HIDDEN
 62
     7
370
     0
100
AcDbSpline
210
0.0
220
0.0
230
1.0
 70
     8
 71
     3
 72
     8
 73
     4
 74
     0
 42
0.00000001
 43
0.00000001
 40
0.0
 40
0.0
 40
0.0
 40
0.0
 40
1.0
 40
1.0
 40
1.0
 40
1.0
 10
95.1396826095894
 20
96.35335869459753
 30
0.0
 10
95.13968260959132
 20
95.4694615522806
 30
0.0
 10
95.12620198368191
 20
94.75487830721865
 30
0.0
 10
95.12485061549262
 20
94.2085557485153
 30
0.0
  0
SPLINE
  5
D3
330
1F
100
AcDbEntity
  8
0
  6
HIDDEN
 62
     7
370
     0
100
AcDbSpline
210
0.0
220
0.0
230
1.0
 70
     8
 71
     3
 72
    10
 73
     6
 74
     0
 42
0.00000001
 43
0.00000001
 40
0.0
 40
0.0
 40
0.0
 40
0.0
 40
0.5
 40
0.5
 40
1.0
 40
1.0
 40
1.0
 40
1.0
 10
94.83968260630856
 20
97.37826896025031
 30
0.0
 10
94.9310737219908
 20
97.20363017264103
 30
0.0
 10
95.0037255557163
 20
97.03002834539406
 30
0.0
 10
95.11122444871191
 20
96.68641492640444
 30
0.0
 10
95.13968260958379
 20
96.51808909988138
 30
0.0
 10
95.13968260958941
 20
96.35335869465703
 30
0.0
  0
LINE
  5
D4
330
1F
100
AcDbEntity
  8
0
  6
HIDDEN
 62
     7
370
     0
100
AcDbLine
 10
94.8396829431
 20
100.4092196454
 30
0.0
 11
94.8396829431
 21
97.3782685106
 31
0.0
  0
SPLINE
  5
D5
330
1F
100
AcDbEntity
  8
0
  6
HIDDEN
 62
     7
370
     0
100
AcDbSpline
210
0.0
220
0.0
230
1.0
 70
     8
 71
     3
 72
    10
 73
     6
 74
     0
 42
0.00000001
 43
0.00000001
 40
0.0
 40
0.0
 40
0.0
 40
0.0
 40
0.5
 40
0.5
 40
1.0
 40
1.0
 40
1.0
 40
1.0
 10
95.13968260939377
 20
101.7770598089041
 30
0.0
 10
95.13968260939376
 20
101.5350758413328
 30
0.0
 10
95.11153258033345
 20
101.3007334124007
 30
0.0
 10
95.00794266622813
 20
100.8453583901847
 30
0.0
 10
94.93131395666309
 20
100.623753827107
 30
0.0
 10
94.83968260630856
 20
100.4092193923342
 30
0.0
  0
LINE
  5
D6
330
1F
100
AcDbEntity
  8
0
  6
HIDDEN
 62
     7
370
     0
100
AcDbLine
 10
95.1396824335
 20
113.6146799182
 30
0.0
 11
95.1396824335
 21
101.77705963
 31
0.0
  0
SPLINE
  5
D7
330
1F
100
AcDbEntity
  8
0
  6
HIDDEN
 62
     7
370
     0
100
AcDbSpline
210
0.0
220
0.0
230
1.0
 70
     8
 71
     3
 72
     8
 73
     4
 74
     0
 42
0.00000001
 43
0.00000001
 40
0.0
 40
0.0
 40
0.0
 40
0.0
 40
1.0
 40
1.0
 40
1.0
 40
1.0
 10
94.83968260630857
 20
119.6169855054275
 30
0.0
 10
95.02071407280788
 20
119.1848780198172
 30
0.0
 10
95.13968260939949
 20
118.7307326137776
 30
0.0
 10
95.13968260939379
 20
118.2430325601589
 30
0.0
  0
LINE
  5
D8
330
1F
100
AcDbEntity
  8
0
  6
HIDDEN
 62
     7
370
     0
100
AcDbLine
 10
94.8396829431
 20
122.6501880665
 30
0.0
 11
94.8396829431
 21
119.616985925
 31
0.0
  0
SPLINE
  5
D9
330
1F
100
AcDbEntity
  8
0
  6
HIDDEN
 62
     7
370
     0
100
AcDbSpline
210
0.0
220
0.0
230
1.0
 70
     8
 71
     3
 72
    10
 73
     6
 74
     0
 42
0.00000001
 43
0.00000001
 40
0.0
 40
0.0
 40
0.0
 40
0.0
 40
0.5
 40
0.5
 40
1.0
 40
1.0
 40
1.0
 40
1.0
 10
95.13968260970094
 20
123.6667336744668
 30
0.0
 10
95.13968260969915
 20
123.5020973278616
 30
0.0
 10
95.11252393894415
 20
123.334942104032
 30
0.0
 10
95.0067589436268
 20
122.9963190962321
 30
0.0
 10
94.9303441553284
 20
122.8240473189381
 30
0.0
 10
94.83968260630859
 20
122.650188491595
 30
0.0
  0
SPLINE
  5
DA
330
1F
100
AcDbEntity
  8
0
  6
HIDDEN
 62
     7
370
     0
100
AcDbSpline
210
0.0
220
0.0
230
1.0
 70
     8
 71
     3
 72
    18
 73
    14
 74
     0
 42
0.00000001
 43
0.00000001
 40
0.0
 40
0.0
 40
0.0
 40
0.0
 40
0.2500000000000033
 40
0.2500000000000033
 40
0.3750000000000029
 40
0.3750000000000029
 40
0.5000000000000026
 40
0.5000000000000026
 40
0.6250000000000022
 40
0.6250000000000022
 40
0.7500000000000018
 40
0.7500000000000018
 40
1.0
 40
1.0
 40
1.0
 40
1.0
 10
99.93968260630857
 20
126.2975598069511
 30
0.0
 10
99.93968260630857
 20
126.2430852863989
 30
0.0
 10
99.9047719149164
 20
126.1867042270464
 30
0.0
 10
99.80276261358334
 20
126.1026273861929
 30
0.0
 10
99.76112625890524
 20
126.075293682202
 30
0.0
 10
99.66272046341648
 20
126.022339766603
 30
0.0
 10
99.60517725171219
 20
125.9964524128859
 30
0.0
 10
99.47787907813925
 20
125.9486748680526
 30
0.0
 10
99.40829177338179
 20
125.9267269498747
 30
0.0
 10
99.25685752822683
 20
125.887294384962
 30
0.0
 10
99.17417362513288
 20
125.8697381357361
 30
0.0
 10
98.91806216309483
 20
125.8272993703156
 30
0.0
 10
98.73014715920685
 20
125.8115366205786
 30
0.0
 10
98.53968260630856
 20
125.8115366205786
 30
0.0
  0
LINE
  5
DB
330
1F
100
AcDbEntity
  8
0
  6
HIDDEN
 62
     7
370
     0
100
AcDbLine
 10
98.5396822457
 20
125.8115374004
 30
0.0
 11
95.1396824335
 21
125.8115374004
 31
0.0
  0
LINE
  5
DC
330
1F
100
AcDbEntity
  8
0
  6
HIDDEN
 62
     7
370
     0
100
AcDbLine
 10
95.0707142715
 20
94.2085549687
 30
0.0
 11
102.5396829014
 21
94.2085549687
 31
0.0
  0
SPLINE
  5
DD
330
1F
100
AcDbEntity
  8
0
  6
HIDDEN
 62
     7
370
     0
100
AcDbSpline
210
0.0
220
0.0
230
1.0
 70
     8
 71
     3
 72
    22
 73
    18
 74
     0
 42
0.00000001
 43
0.00000001
 40
0.0
 40
0.0
 40
0.0
 40
0.0
 40
0.125
 40
0.125
 40
0.25
 40
0.25
 40
0.5000000000000001
 40
0.5000000000000001
 40
0.5625000000000001
 40
0.5625000000000001
 40
0.6250000000000001
 40
0.6250000000000001
 40
0.75
 40
0.75
 40
0.875
 40
0.875
 40
1.0
 40
1.0
 40
1.0
 40
1.0
 10
95.07071361966646
 20
94.20855574851531
 30
0.0
 10
95.05763122693808
 20
94.46366145866297
 30
0.0
 10
95.04441166349825
 20
94.75681971776687
 30
0.0
 10
95.02196448570415
 20
95.41912018339168
 30
0.0
 10
95.0124860186797
 20
95.78939410400307
 30
0.0
 10
94.99328805774319
 20
97.01195090711686
 30
0.0
 10
94.99440183074005
 20
97.94908983324872
 30
0.0
 10
95.01331262369311
 20
99.26896106276371
 30
0.0
 10
95.0179421515521
 20
99.54046297174001
 30
0.0
 10
95.02842337129806
 20
100.0988478065423
 30
0.0
 10
95.0342186325825
 20
100.3859706624819
 30
0.0
 10
95.05252785348742
 20
101.2585599168536
 30
0.0
 10
95.0665627877678
 20
101.8590155932095
 30
0.0
 10
95.09601995990464
 20
103.0964900857055
 30
0.0
 10
95.1115756508862
 20
103.733506242349
 30
0.0
 10
95.13537020088309
 20
105.0449948400336
 30
0.0
 10
95.14338925302845
 20
105.7211174516941
 30
0.0
 10
95.13968260630857
 20
106.4054125629789
 30
0.0
  0
LINE
  5
DE
330
1F
100
AcDbEntity
  8
0
  6
HIDDEN
 62
     7
370
     0
100
AcDbLine
 10
95.1396824335
 20
113.6146799182
 30
0.0
 11
95.1396824335
 21
125.8115374004
 31
0.0
  0
SPLINE
  5
DF
330
1F
100
AcDbEntity
  8
0
  6
HIDDEN
 62
     7
370
     0
100
AcDbSpline
210
0.0
220
0.0
230
1.0
 70
     8
 71
     3
 72
    10
 73
     6
 74
     0
 42
0.00000001
 43
0.00000001
 40
0.0
 40
0.0
 40
0.0
 40
0.0
 40
0.5
 40
0.5
 40
1.0
 40
1.0
 40
1.0
 40
1.0
 10
95.13968260630855
 20
106.4054125629638
 30
0.0
 10
95.13968260630838
 20
106.6793277110379
 30
0.0
 10
95.11392337643954
 20
106.9502692897675
 30
0.0
 10
95.01071744370614
 20
107.4859603713696
 30
0.0
 10
94.93337927983173
 20
107.7517071748914
 30
0.0
 10
94.83968260630856
 20
108.0133458823287
 30
0.0
  0
SPLINE
  5
E0
330
1F
100
AcDbEntity
  8
0
  6
HIDDEN
 62
     7
370
     0
100
AcDbSpline
210
0.0
220
0.0
230
1.0
 70
     8
 71
     3
 72
    10
 73
     6
 74
     0
 42
0.00000001
 43
0.00000001
 40
0.0
 40
0.0
 40
0.0
 40
0.0
 40
0.5
 40
0.5
 40
1.0
 40
1.0
 40
1.0
 40
1.0
 10
94.83968260630857
 20
111.9971744779134
 30
0.0
 10
94.93291318769933
 20
112.2610682859832
 30
0.0
 10
95.00794279993589
 20
112.5272485966212
 30
0.0
 10
95.11300989911373
 20
113.0655711715787
 30
0.0
 10
95.13968260969978
 20
113.338319287824
 30
0.0
 10
95.13968260970097
 20
113.6146798061141
 30
0.0
  0
LINE
  5
E1
330
1F
100
AcDbEntity
  8
0
  6
HIDDEN
 62
     7
370
     0
100
AcDbLine
 10
94.8396829431
 20
108.0133459983
 30
0.0
 11
94.8396829431
 21
111.9971744702
 31
0.0
  0
LINE
  5
E2
330
1F
100
AcDbEntity
  8
0
  6
HIDDEN
 62
     7
370
     0
100
AcDbLine
 10
94.9896817569
 20
92.0200456386
 30
0.0
 11
94.9896817569
 21
89.1401075279
 31
0.0
  0
LINE
  5
E3
330
1F
100
AcDbEntity
  8
0
  6
HIDDEN
 62
     7
370
     0
100
AcDbLine
 10
103.9396823858
 20
92.0200456386
 30
0.0
 11
103.9396823858
 21
88.0463082795
 31
0.0
  0
LINE
  5
E4
330
1F
100
AcDbEntity
  8
0
  6
HIDDEN
 62
     7
370
     0
100
AcDbLine
 10
94.9896817569
 20
128.0000467305
 30
0.0
 11
94.9896817569
 21
130.8799848412
 31
0.0
  0
LINE
  5
E5
330
1F
100
AcDbEntity
  8
0
  6
HIDDEN
 62
     7
370
     0
100
AcDbLine
 10
99.9396817301
 20
128.0000467305
 30
0.0
 11
99.9396817301
 21
131.8541538422
 31
0.0
  0
LINE
  5
E6
330
1F
100
AcDbEntity
  8
0
  6
HIDDEN
 62
     7
370
     0
100
AcDbLine
 10
144.5396823351
 20
100.51004649
 30
0.0
 11
144.5396823351
 21
119.5100458791
 31
0.0
  0
LINE
  5
E7
330
1F
100
AcDbEntity
  8
0
  6
HIDDEN
 62
     7
370
     0
100
AcDbLine
 10
147.5396828268
 20
100.51004649
 30
0.0
 11
147.5396828268
 21
119.5100458791
 31
0.0
  0
LINE
  5
E8
330
1F
100
AcDbEntity
  8
0
  6
HIDDEN
 62
     7
370
     0
100
AcDbLine
 10
136.1896825497
 20
101.5100457226
 30
0.0
 11
136.1896825497
 21
118.5100466465
 31
0.0
  0
LINE
  5
E9
330
1F
100
AcDbEntity
  8
0
  6
HIDDEN
 62
     7
370
     0
100
AcDbLine
 10
151.6896822964
 20
83.6100463276
 30
0.0
 11
145.552007622
 21
83.6100463276
 31
0.0
  0
LINE
  5
EA
330
1F
100
AcDbEntity
  8
0
  6
HIDDEN
 62
     7
370
     0
100
AcDbLine
 10
130.6896825795
 20
78.5259228652
 30
0.0
 11
130.6896825795
 21
83.6100463276
 31
0.0
  0
LINE
  5
EB
330
1F
100
AcDbEntity
  8
0
  6
HIDDEN
 62
     7
370
     0
100
AcDbLine
 10
138.6896829595
 20
83.6100463276
 30
0.0
 11
130.6896825795
 21
83.6100463276
 31
0.0
  0
LINE
  5
EC
330
1F
100
AcDbEntity
  8
0
  6
HIDDEN
 62
     7
370
     0
100
AcDbLine
 10
141.9273579036
 20
83.6100463276
 30
0.0
 11
138.6896829595
 21
83.6100463276
 31
0.0
  0
LINE
  5
ED
330
1F
100
AcDbEntity
  8
0
  6
HIDDEN
 62
     7
370
     0
100
AcDbLine
 10
151.6896822964
 20
136.4100460415
 30
0.0
 11
145.2553851072
 21
136.4100460415
 31
0.0
  0
LINE
  5
EE
330
1F
100
AcDbEntity
  8
0
  6
HIDDEN
 62
     7
370
     0
100
AcDbLine
 10
138.6896829595
 20
136.4100460415
 30
0.0
 11
130.6896825795
 21
136.4100460415
 31
0.0
  0
LINE
  5
EF
330
1F
100
AcDbEntity
  8
0
  6
HIDDEN
 62
     7
370
     0
100
AcDbLine
 10
142.2239804183
 20
136.4100460415
 30
0.0
 11
138.6896829595
 21
136.4100460415
 31
0.0
  0
SPLINE
  5
F0
330
1F
100
AcDbEntity
  8
0
  6
HIDDEN
 62
     7
370
     0
100
AcDbSpline
210
0.0
220
0.0
230
1.0
 70
     8
 71
     3
 72
    11
 73
     7
 74
     0
 42
0.00000001
 43
0.00000001
 40
0.0
 40
0.0
 40
0.0
 40
0.0
 40
0.0008203708524183
 40
0.0008203708524183
 40
0.0008203708524183
 40
0.0016409967870154
 40
0.0016409967870154
 40
0.0016409967870154
 40
0.0016409967870154
 10
94.98968260630856
 20
94.15801343390423
 30
0.0
 10
94.79852430600991
 20
94.11683440528509
 30
0.0
 10
94.60709723593772
 20
94.0780804330551
 30
0.0
 10
94.41545161241709
 20
94.04171267377656
 30
0.0
 10
94.22374620733662
 20
94.00533357001054
 30
0.0
 10
94.03180725527767
 20
93.97133931924297
 30
0.0
 10
93.83968260820686
 20
93.93969119385176
 30
0.0
  0
ELLIPSE
  5
F1
330
1F
100
AcDbEntity
  8
0
  6
HIDDEN
 62
     7
370
     0
100
AcDbEllipse
 10
89.5972507377
 20
110.0100461845
 30
0.0
 11
20.19992453367504
 21
-1.421085471520200E-14
 31
0.0
210
0.0
220
0.0
230
1.0
 40
0.8164965809
 41
1.300566354717478
 42
1.359198697209065
  0
LINE
  5
F2
330
1F
100
AcDbEntity
  8
0
  6
HIDDEN
 62
     7
370
     0
100
AcDbLine
 10
159.7396844541
 20
104.1100459625
 30
0.0
 11
159.7396844541
 21
115.9100459409
 31
0.0
  0
LINE
  5
F3
330
1F
100
AcDbEntity
  8
0
  6
HIDDEN
 62
     7
370
     0
100
AcDbLine
 10
163.7396813844
 20
104.0100461324
 30
0.0
 11
163.7396813844
 21
116.0100462367
 31
0.0
  0
LINE
  5
F4
330
1F
100
AcDbEntity
  8
0
  6
HIDDEN
 62
     7
370
     0
100
AcDbLine
 10
103.9396823858
 20
92.0200456386
 30
0.0
 11
103.9396823858
 21
93.7225331073
 31
0.0
  0
LINE
  5
F5
330
1F
100
AcDbEntity
  8
0
  6
HIDDEN
 62
     7
370
     0
100
AcDbLine
 10
94.9896817569
 20
92.0200456386
 30
0.0
 11
94.9896817569
 21
94.1580139552
 31
0.0
  0
LINE
  5
F6
330
1F
100
AcDbEntity
  8
0
  6
HIDDEN
 62
     7
370
     0
100
AcDbLine
 10
95.0707142715
 20
94.2085549687
 30
0.0
 11
94.9896817569
 21
94.1580139552
 31
0.0
  0
LINE
  5
F7
330
1F
100
AcDbEntity
  8
0
  6
HIDDEN
 62
     7
370
     0
100
AcDbLine
 10
99.9396817301
 20
128.0000467305
 30
0.0
 11
99.9396817301
 21
126.2975592618
 31
0.0
  0
LINE
  5
F8
330
1F
100
AcDbEntity
  8
0
  6
HIDDEN
 62
     7
370
     0
100
AcDbLine
 10
94.9896817569
 20
128.0000467305
 30
0.0
 11
94.9896817569
 21
125.9046715205
 31
0.0
  0
SPLINE
  5
F9
330
1F
100
AcDbEntity
  8
0
  6
HIDDEN
 62
     7
370
     0
100
AcDbSpline
210
0.0
220
0.0
230
1.0
 70
     8
 71
     3
 72
     8
 73
     4
 74
     0
 42
0.00000001
 43
0.00000001
 40
0.0
 40
0.0
 40
0.0
 40
0.0
 40
1.0
 40
1.0
 40
1.0
 40
1.0
 10
94.98968260630856
 20
125.9046706356051
 30
0.0
 10
95.03968810525201
 20
125.8736348613862
 30
0.0
 10
95.08968817591615
 20
125.8425902163588
 30
0.0
 10
95.13968260970098
 20
125.8115366205786
 30
0.0
  0
SPLINE
  5
FA
330
1F
100
AcDbEntity
  8
0
  6
HIDDEN
 62
     7
370
     0
100
AcDbSpline
210
0.0
220
0.0
230
1.0
 70
     8
 71
     3
 72
    20
 73
    16
 74
     0
 42
0.00000001
 43
0.00000001
 40
0.0
 40
0.0
 40
0.0
 40
0.0
 40
0.1118532751676574
 40
0.1773727996867736
 40
0.2489947105137334
 40
0.3297435705434892
 40
0.3985162980320196
 40
0.4997965447706521
 40
0.613762252866019
 40
0.6789284839908694
 40
0.749455343084578
 40
0.8296017155328829
 40
0.8980457330006051
 40
0.9994566396976663
 40
1.0
 40
1.0
 40
1.0
 40
1.0
 10
120.4882978004206
 20
86.41011235166313
 30
0.0
 10
120.4450056562363
 20
86.42353004163998
 30
0.0
 10
120.3763545701871
 20
86.44480731968979
 30
0.0
 10
119.9313377334527
 20
86.54808385589371
 30
0.0
 10
119.4047876189267
 20
86.6613823130405
 30
0.0
 10
118.7193600674546
 20
86.78431750146154
 30
0.0
 10
117.8260435392203
 20
86.90635203654745
 30
0.0
 10
116.7126837358866
 20
87.0240878014164
 30
0.0
 10
115.6019093077252
 20
87.0360613707292
 30
0.0
 10
114.7171619110281
 20
87.00900651634574
 30
0.0
 10
114.0499623979968
 20
86.96107097124823
 30
0.0
 10
113.50870120239
 20
86.90478401312193
 30
0.0
 10
113.1210782501478
 20
86.8596737351676
 30
0.0
 10
112.9272005253201
 20
86.8208825050753
 30
0.0
 10
112.9903706375217
 20
86.83154418833499
 30
0.0
 10
112.9907072995592
 20
86.83160100925686
 30
0.0
  0
LINE
  5
FB
330
1F
100
AcDbEntity
  8
0
  6
HIDDEN
 62
     7
370
     0
100
AcDbLine
 10
113.8996948962
 20
86.9423836922
 30
0.0
 11
114.0835398351
 21
86.9605742847
 31
0.0
  0
SPLINE
  5
FC
330
1F
100
AcDbEntity
  8
0
  6
HIDDEN
 62
     7
370
     0
100
AcDbSpline
210
0.0
220
0.0
230
1.0
 70
     8
 71
     3
 72
    27
 73
    23
 74
     0
 42
0.00000001
 43
0.00000001
 40
0.0
 40
0.0
 40
0.0
 40
0.0
 40
0.0008086712591869
 40
0.0456911834610217
 40
0.1022728485874025
 40
0.1705509376464067
 40
0.2091425948588652
 40
0.2506698340784129
 40
0.3211155926765004
 40
0.3862093443739516
 40
0.4266885161495899
 40
0.4648197780056701
 40
0.5006240417998917
 40
0.5452158716962395
 40
0.6017101231772332
 40
0.6701160578659416
 40
0.7088534256377248
 40
0.7505821482908256
 40
0.8222467570140622
 40
0.8877861676511027
 40
0.9472599271540103
 40
1.0
 40
1.0
 40
1.0
 40
1.0
 10
112.9903515343357
 20
133.1884596948695
 30
0.0
 10
112.9901290714106
 20
133.1885077175488
 30
0.0
 10
112.9775595702592
 20
133.1912210735906
 30
0.0
 10
113.0266443432151
 20
133.1793800346531
 30
0.0
 10
113.171745164372
 20
133.1559437780647
 30
0.0
 10
113.4447983178726
 20
133.1220347835704
 30
0.0
 10
113.7733240189888
 20
133.0884671675638
 30
0.0
 10
114.1660520159653
 20
133.0502841396093
 30
0.0
 10
114.7157798179064
 20
133.0113160529382
 30
0.0
 10
115.3418024482915
 20
132.9918544247597
 30
0.0
 10
115.8849942889363
 20
132.9896692685798
 30
0.0
 10
116.3300630382399
 20
132.9981839898721
 30
0.0
 10
116.7965108926093
 20
133.0179675400143
 30
0.0
 10
117.3337518189294
 20
133.06212742191
 30
0.0
 10
117.9819647846778
 20
133.134547256245
 30
0.0
 10
118.5675039448522
 20
133.2154449189754
 30
0.0
 10
119.0484730106158
 20
133.2936142626843
 30
0.0
 10
119.4938882645786
 20
133.3783848679353
 30
0.0
 10
119.9323880691524
 20
133.4721695887068
 30
0.0
 10
120.2714130072909
 20
133.5500718377588
 30
0.0
 10
120.4587539369246
 20
133.6002628228711
 30
0.0
 10
120.4792437088462
 20
133.6069301963697
 30
0.0
 10
120.488873823433
 20
133.6100638364625
 30
0.0
  0
SPLINE
  5
FD
330
1F
100
AcDbEntity
  8
0
  6
HIDDEN
 62
     7
370
     0
100
AcDbSpline
210
0.0
220
0.0
230
1.0
 70
     8
 71
     3
 72
     8
 73
     4
 74
     0
 42
0.00000001
 43
0.00000001
 40
0.0
 40
0.0
 40
0.0
 40
0.0
 40
0.0001590976953043
 40
0.0001590976953043
 40
0.0001590976953043
 40
0.0001590976953043
 10
95.12485061549263
 20
94.20855574851531
 30
0.0
 10
95.07979914499961
 20
94.18057686419782
 30
0.0
 10
95.03474310659612
 20
94.15260533382902
 30
0.0
 10
94.98968260630858
 20
94.12464099448279
 30
0.0
  0
SPLINE
  5
FE
330
1F
100
AcDbEntity
  8
0
  6
HIDDEN
 62
     7
370
     0
100
AcDbSpline
210
0.0
220
0.0
230
1.0
 70
     8
 71
     3
 72
    11
 73
     7
 74
     0
 42
0.00000001
 43
0.00000001
 40
0.0
 40
0.0
 40
0.0
 40
0.0
 40
0.000821290931147
 40
0.000821290931147
 40
0.000821290931147
 40
0.0016428257243086
 40
0.0016428257243086
 40
0.0016428257243086
 40
0.0016428257243086
 10
94.98968260630855
 20
94.12464099448279
 30
0.0
 10
94.79853758482639
 20
94.08135480562717
 30
0.0
 10
94.60711924914995
 20
94.04041829598681
 30
0.0
 10
94.41547317448881
 20
94.00181652459707
 30
0.0
 10
94.2237700929472
 20
93.96320327075684
 30
0.0
 10
94.03182496966166
 20
93.92692306146763
 30
0.0
 10
93.83968260630846
 20
93.8929561551129
 30
0.0
  0
LINE
  5
FF
330
1F
100
AcDbEntity
  8
0
  6
HIDDEN
 62
     7
370
     0
100
AcDbLine
 10
141.8296826546
 20
130.1459126626
 30
0.0
 11
141.8296826546
 21
129.8600469236
 31
0.0
  0
LINE
  5
100
330
1F
100
AcDbEntity
  8
0
  6
HIDDEN
 62
     7
370
     0
100
AcDbLine
 10
145.649682871
 20
130.1958315526
 30
0.0
 11
145.649682871
 21
129.8600469236
 31
0.0
  0
LINE
  5
101
330
1F
100
AcDbEntity
  8
0
  6
HIDDEN
 62
     7
370
     0
100
AcDbLine
 10
147.1316145276
 20
134.4687357997
 30
0.0
 11
147.1316145276
 21
129.8600469236
 31
0.0
  0
SPLINE
  5
102
330
1F
100
AcDbEntity
  8
0
  6
HIDDEN
 62
     7
370
     0
100
AcDbSpline
210
0.0
220
0.0
230
1.0
 70
     8
 71
     3
 72
    24
 73
    20
 74
     0
 42
0.00000001
 43
0.00000001
 40
0.0
 40
0.0
 40
0.0
 40
0.0
 40
0.249999999999999
 40
0.249999999999999
 40
0.3749999999999983
 40
0.3749999999999983
 40
0.4374999999999987
 40
0.4374999999999987
 40
0.4687499999999975
 40
0.4687499999999975
 40
0.4999999999999963
 40
0.4999999999999963
 40
0.5624999999999984
 40
0.5624999999999984
 40
0.6250000000000006
 40
0.6250000000000006
 40
0.7500000000000001
 40
0.7500000000000001
 40
1.0
 40
1.0
 40
1.0
 40
1.0
 10
93.90234598103197
 20
90.33549363976623
 30
0.0
 10
93.9160990997022
 20
90.40614369775652
 30
0.0
 10
93.93387166710806
 20
90.47274181052143
 30
0.0
 10
93.98612275866341
 20
90.54683983075464
 30
0.0
 10
94.00715783424499
 20
90.5680976379162
 30
0.0
 10
94.0600582418734
 20
90.57624356406244
 30
0.0
 10
94.08116391475133
 20
90.57530376066666
 30
0.0
 10
94.1272160834293
 20
90.5542877690893
 30
0.0
 10
94.14558655541269
 20
90.5433789629817
 30
0.0
 10
94.18713819047841
 20
90.51074405203433
 30
0.0
 10
94.20970486323532
 20
90.48925207166295
 30
0.0
 10
94.27248587969534
 20
90.42078612807664
 30
0.0
 10
94.30561564066322
 20
90.37471166987154
 30
0.0
 10
94.36253332714826
 20
90.28970378153687
 30
0.0
 10
94.386719352652
 20
90.2494234803555
 30
0.0
 10
94.45192730303175
 20
90.13448725388956
 30
0.0
 10
94.48664336322301
 20
90.06390426874255
 30
0.0
 10
94.5798586335539
 20
89.85969850966396
 30
0.0
 10
94.62553116891458
 20
89.7368001273366
 30
0.0
 10
94.6638362524131
 20
89.61992685094903
 30
0.0
  0
SPLINE
  5
103
330
1F
100
AcDbEntity
  8
0
  6
HIDDEN
 62
     7
370
     0
100
AcDbSpline
210
0.0
220
0.0
230
1.0
 70
     8
 71
     3
 72
    11
 73
     7
 74
     0
 42
0.00000001
 43
0.00000001
 40
0.0
 40
0.0
 40
0.0
 40
0.0
 40
0.0005781862223981
 40
0.0005781862223981
 40
0.0005781862223981
 40
0.0011563724723932
 40
0.0011563724723932
 40
0.0011563724723932
 40
0.0011563724723932
 10
94.83968260630884
 20
122.6501884915997
 30
0.0
 10
94.67302205203318
 20
122.7147180030132
 30
0.0
 10
94.50635875512667
 20
122.7792207068518
 30
0.0
 10
94.33969217129636
 20
122.8437071552853
 30
0.0
 10
94.17302557903726
 20
122.90819360698
 30
0.0
 10
94.00635571341131
 20
122.9726636157079
 30
0.0
 10
93.83968260630854
 20
123.0371193824403
 30
0.0
  0
SPLINE
  5
104
330
1F
100
AcDbEntity
  8
0
  6
HIDDEN
 62
     7
370
     0
100
AcDbSpline
210
0.0
220
0.0
230
1.0
 70
     8
 71
     3
 72
    11
 73
     7
 74
     0
 42
0.00000001
 43
0.00000001
 40
0.0
 40
0.0
 40
0.0
 40
0.0
 40
0.0005778746105124
 40
0.0005778746105124
 40
0.0005778746105124
 40
0.0011557494857259
 40
0.0011557494857259
 40
0.0011557494857259
 40
0.0011557494857259
 10
93.83968260630853
 20
96.98282432905711
 30
0.0
 10
94.00634948272184
 20
97.04863645574217
 30
0.0
 10
94.17301620228329
 20
97.11449493587115
 30
0.0
 10
94.33968285033195
 20
97.18040250879336
 30
0.0
 10
94.50634957485062
 20
97.2463101119553
 30
0.0
 10
94.6730162692712
 20
97.31226722033557
 30
0.0
 10
94.83968260630856
 20
97.37826896025032
 30
0.0
  0
SPLINE
  5
105
330
1F
100
AcDbEntity
  8
0
  6
HIDDEN
 62
     7
370
     0
100
AcDbSpline
210
0.0
220
0.0
230
1.0
 70
     8
 71
     3
 72
    11
 73
     7
 74
     0
 42
0.00000001
 43
0.00000001
 40
0.0000000000000006
 40
0.0000000000000006
 40
0.0000000000000006
 40
0.0000000000000006
 40
0.0005780486062825
 40
0.0005780486062825
 40
0.0005780486062825
 40
0.0011560973514241
 40
0.0011560973514241
 40
0.0011560973514241
 40
0.0011560973514241
 10
93.83968260630854
 20
119.9908606862387
 30
0.0
 10
94.00635246235342
 20
119.9284888246918
 30
0.0
 10
94.17302016643768
 20
119.8661349643622
 30
0.0
 10
94.33968647089134
 20
119.8038154041449
 30
0.0
 10
94.50635281158506
 20
119.7414958303767
 30
0.0
 10
94.67301776821388
 20
119.6792106260264
 30
0.0
 10
94.83968260630857
 20
119.6169855054275
 30
0.0
  0
SPLINE
  5
106
330
1F
100
AcDbEntity
  8
0
  6
HIDDEN
 62
     7
370
     0
100
AcDbSpline
210
0.0
220
0.0
230
1.0
 70
     8
 71
     3
 72
    11
 73
     7
 74
     0
 42
0.00000001
 43
0.00000001
 40
0.0
 40
0.0
 40
0.0
 40
0.0
 40
0.0005782401583596
 40
0.0005782401583596
 40
0.0005782401583596
 40
0.0011564805961118
 40
0.0011564805961118
 40
0.0011564805961118
 40
0.0011564805961118
 10
94.83968260630857
 20
100.4092193923342
 30
0.0
 10
94.67303165595963
 20
100.3457939342443
 30
0.0
 10
94.50637206337696
 20
100.2824384105591
 30
0.0
 10
94.3397050109484
 20
100.2191408261783
 30
0.0
 10
94.17303787438459
 20
100.1558432098443
 30
0.0
 10
94.00636326693854
 20
100.0926034148719
 30
0.0
 10
93.8396826063085
 20
100.0294034082004
 30
0.0
  0
CIRCLE
  5
107
330
1F
100
AcDbEntity
  8
0
  6
HIDDEN
 62
     7
370
     0
100
AcDbCircle
 10
132.7396826063
 20
110.0100461845
 30
0.0
 40
5.000000000000014
  0
LINE
  5
108
330
1F
100
AcDbEntity
  8
0
  6
HIDDEN
 62
     7
370
     0
100
AcDbLine
 10
129.7396827963
 20
124.3099902277
 30
0.0
 11
129.7396827963
 21
122.4039864247
 31
0.0
  0
LINE
  5
109
330
1F
100
AcDbEntity
  8
0
  6
HIDDEN
 62
     7
370
     0
100
AcDbLine
 10
137.7396827106
 20
122.4039864247
 30
0.0
 11
137.7396827106
 21
124.3107110714
 31
0.0
  0
LINE
  5
10A
330
1F
100
AcDbEntity
  8
0
  6
HIDDEN
 62
     7
370
     0
100
AcDbLine
 10
125.7396826063
 20
84.6861150568
 30
0.0
 11
125.8338433786
 21
85.356102929
 31
0.0
  0
LINE
  5
10B
330
1F
100
AcDbEntity
  8
0
  6
HIDDEN
 62
     7
370
     0
100
AcDbLine
 10
125.8338433786
 20
134.6639894401
 30
0.0
 11
125.7396826063
 21
135.3339773123
 31
0.0
  0
ARC
  5
10C
330
1F
100
AcDbEntity
  8
0
  6
HIDDEN
 62
     7
370
     0
100
AcDbCircle
 10
125.2396758536
 20
85.4396085702
 30
0.0
 40
0.6000067526677242
100
AcDbArc
 50
352.0
 51
0.0
  0
ARC
  5
10D
330
1F
100
AcDbEntity
  8
0
  6
HIDDEN
 62
     7
370
     0
100
AcDbCircle
 10
125.2396758536
 20
85.4396085702
 30
0.0
 40
0.6000067526677282
100
AcDbArc
 50
0.0
 51
33.5571153394
  0
ARC
  5
10E
330
1F
100
AcDbEntity
  8
0
  6
HIDDEN
 62
     7
370
     0
100
AcDbCircle
 10
125.2396758536
 20
134.5804837989
 30
0.0
 40
0.6000067526677262
100
AcDbArc
 50
348.75
 51
8.0
  0
LWPOLYLINE
  5
10F
330
1F
100
AcDbEntity
  8
0
  6
HIDDEN
 62
     7
370
     0
100
AcDbPolyline
 90
        3
 70
   128
 43
0.0
 10
125.8281536452
 20
134.4634291236
 10
125.7940098135
 20
134.3508713399
 10
125.7396826063
 20
134.2488188748
  0
LINE
  5
110
330
1F
100
AcDbEntity
  8
0
  6
HIDDEN
 62
     7
370
     0
100
AcDbLine
 10
125.8396826038
 20
85.4396090363
 30
0.0
 11
125.8396826038
 21
134.5804833328
 31
0.0
  0
LINE
  5
111
330
1F
100
AcDbEntity
  8
0
  6
HIDDEN
 62
     7
370
     0
100
AcDbLine
 10
108.8221186315
 20
90.0100466316
 30
0.0
 11
113.0137901296
 21
90.0100466316
 31
0.0
  0
LINE
  5
112
330
1F
100
AcDbEntity
  8
0
  6
HIDDEN
 62
     7
370
     0
100
AcDbLine
 10
113.0137901296
 20
130.0100457375
 30
0.0
 11
108.8221186315
 21
130.0100457375
 31
0.0
  0
ARC
  5
113
330
1F
100
AcDbEntity
  8
0
  6
HIDDEN
 62
     7
370
     0
100
AcDbCircle
 10
119.4946846079
 20
98.0100461845
 30
0.0
 40
8.000000000000007
100
AcDbArc
 50
276.8737622725
 51
321.3178125465
  0
ARC
  5
114
330
1F
100
AcDbEntity
  8
0
  6
HIDDEN
 62
     7
370
     0
100
AcDbCircle
 10
119.4946846079
 20
122.0100461845
 30
0.0
 40
8.000000000000025
100
AcDbArc
 50
38.6821874535
 51
83.1187603686
  0
ARC
  5
115
330
1F
100
AcDbEntity
  8
0
  6
HIDDEN
 62
     7
370
     0
100
AcDbCircle
 10
108.8221181716
 20
90.6100461845
 30
0.0
 40
0.6000000000000085
100
AcDbArc
 50
210.0
 51
270.0
  0
ARC
  5
116
330
1F
100
AcDbEntity
  8
0
  6
HIDDEN
 62
     7
370
     0
100
AcDbCircle
 10
108.8221181716
 20
129.4100461845
 30
0.0
 40
0.6000000000000227
100
AcDbArc
 50
90.0
 51
150.0
  0
LINE
  5
117
330
1F
100
AcDbEntity
  8
0
  6
HIDDEN
 62
     7
370
     0
100
AcDbLine
 10
108.3025021021
 20
129.7100462471
 30
0.0
 11
106.743658102
 21
127.0100471084
 31
0.0
  0
LINE
  5
118
330
1F
100
AcDbEntity
  8
0
  6
HIDDEN
 62
     7
370
     0
100
AcDbLine
 10
106.743658102
 20
93.0100452607
 30
0.0
 11
108.3025021021
 21
90.310046122
 31
0.0
  0
LINE
  5
119
330
1F
100
AcDbEntity
  8
0
  6
HIDDEN
 62
     7
370
     0
100
AcDbLine
 10
129.7396827963
 20
137.2843791251
 30
0.0
 11
129.7396827963
 21
133.9556478416
 31
0.0
  0
LINE
  5
11A
330
1F
100
AcDbEntity
  8
0
  6
HIDDEN
 62
     7
370
     0
100
AcDbLine
 10
137.7396827106
 20
133.9556478416
 30
0.0
 11
137.7396827106
 21
137.2897118782
 31
0.0
  0
ARC
  5
11B
330
1F
100
AcDbEntity
  8
0
  6
HIDDEN
 62
     7
370
     0
100
AcDbCircle
 10
134.1896826063
 20
94.2850461845
 30
0.0
 40
1.5
100
AcDbArc
 50
238.2116693829
 51
0.0
  0
ARC
  5
11C
330
1F
100
AcDbEntity
  8
0
  6
HIDDEN
 62
     7
370
     0
100
AcDbCircle
 10
134.1896826063
 20
125.7350461845
 30
0.0
 40
1.500000000000025
100
AcDbArc
 50
0.0
 51
121.7883306171
  0
LINE
  5
11D
330
1F
100
AcDbEntity
  8
0
  6
HIDDEN
 62
     7
370
     0
100
AcDbLine
 10
103.9396823858
 20
93.0100452607
 30
0.0
 11
106.743658102
 21
93.0100452607
 31
0.0
  0
LINE
  5
11E
330
1F
100
AcDbEntity
  8
0
  6
HIDDEN
 62
     7
370
     0
100
AcDbLine
 10
106.743658102
 20
127.0100471084
 30
0.0
 11
99.9396817301
 21
127.0100471084
 31
0.0
  0
LINE
  5
11F
330
1F
100
AcDbEntity
  8
0
  6
HIDDEN
 62
     7
370
     0
100
AcDbLine
 10
125.7396826063
 20
93.0100452607
 30
0.0
 11
133.3995085683
 21
93.0100452607
 31
0.0
  0
LINE
  5
120
330
1F
100
AcDbEntity
  8
0
  6
HIDDEN
 62
     7
370
     0
100
AcDbLine
 10
133.3995085683
 20
127.0100471084
 30
0.0
 11
125.7396826063
 21
127.0100471084
 31
0.0
  0
LINE
  5
121
330
1F
100
AcDbEntity
  8
0
  6
HIDDEN
 62
     7
370
     0
100
AcDbLine
 10
144.5396823351
 20
100.51004649
 30
0.0
 11
147.5396828268
 21
100.51004649
 31
0.0
  0
LINE
  5
122
330
1F
100
AcDbEntity
  8
0
  6
HIDDEN
 62
     7
370
     0
100
AcDbLine
 10
147.5396828268
 20
119.5100458791
 30
0.0
 11
144.5396823351
 21
119.5100458791
 31
0.0
  0
LINE
  5
123
330
1F
100
AcDbEntity
  8
0
  6
HIDDEN
 62
     7
370
     0
100
AcDbLine
 10
135.6896824677
 20
101.010046572
 30
0.0
 11
136.1896825497
 21
101.5100457226
 31
0.0
  0
LINE
  5
124
330
1F
100
AcDbEntity
  8
0
  6
HIDDEN
 62
     7
370
     0
100
AcDbLine
 10
136.1896825497
 20
118.5100466465
 30
0.0
 11
135.6896824677
 21
119.0100457971
 31
0.0
  0
LINE
  5
125
330
1F
100
AcDbEntity
  8
0
  6
HIDDEN
 62
     7
370
     0
100
AcDbLine
 10
136.1896825497
 20
101.5100457226
 30
0.0
 11
144.5396823351
 21
101.5100457226
 31
0.0
  0
LINE
  5
126
330
1F
100
AcDbEntity
  8
0
  6
HIDDEN
 62
     7
370
     0
100
AcDbLine
 10
144.5396823351
 20
118.5100466465
 30
0.0
 11
136.1896825497
 21
118.5100466465
 31
0.0
  0
LINE
  5
127
330
1F
100
AcDbEntity
  8
0
  6
HIDDEN
 62
     7
370
     0
100
AcDbLine
 10
130.6896825795
 20
141.5100466912
 30
0.0
 11
130.6896825795
 21
136.4100460415
 31
0.0
  0
ARC
  5
128
330
1F
100
AcDbEntity
  8
0
  6
HIDDEN
 62
     7
370
     0
100
AcDbCircle
 10
205.4396826063
 20
103.7100461845
 30
0.0
 40
0.3000000000000114
100
AcDbArc
 50
0.0
 51
90.0
  0
ARC
  5
129
330
1F
100
AcDbEntity
  8
0
  6
HIDDEN
 62
     7
370
     0
100
AcDbCircle
 10
205.4396826063
 20
116.3100461845
 30
0.0
 40
0.3000000000000114
100
AcDbArc
 50
270.0
 51
0.0
  0
LINE
  5
12A
330
1F
100
AcDbEntity
  8
0
  6
HIDDEN
 62
     7
370
     0
100
AcDbLine
 10
160.1396837746
 20
103.7100461764
 30
0.0
 11
162.8449076329
 21
103.7100461764
 31
0.0
  0
LINE
  5
12B
330
1F
100
AcDbEntity
  8
0
  6
HIDDEN
 62
     7
370
     0
100
AcDbLine
 10
162.8449076329
 20
116.3100461927
 30
0.0
 11
160.1396837746
 21
116.3100461927
 31
0.0
  0
ARC
  5
12C
330
1F
100
AcDbEntity
  8
0
  6
HIDDEN
 62
     7
370
     0
100
AcDbCircle
 10
162.8449085882
 20
104.1100461845
 30
0.0
 40
0.4000000000000074
100
AcDbArc
 50
270.0
 51
290.0
  0
ARC
  5
12D
330
1F
100
AcDbEntity
  8
0
  6
HIDDEN
 62
     7
370
     0
100
AcDbCircle
 10
162.8449085882
 20
115.9100461845
 30
0.0
 40
0.4000000000000074
100
AcDbArc
 50
70.0
 51
90.0
  0
ARC
  5
12E
330
1F
100
AcDbEntity
  8
0
  6
HIDDEN
 62
     7
370
     0
100
AcDbCircle
 10
160.1396826063
 20
104.1100461845
 30
0.0
 40
0.4000000000000057
100
AcDbArc
 50
180.0
 51
270.0
  0
ARC
  5
12F
330
1F
100
AcDbEntity
  8
0
  6
HIDDEN
 62
     7
370
     0
100
AcDbCircle
 10
160.1396826063
 20
115.9100461845
 30
0.0
 40
0.4000000000000057
100
AcDbArc
 50
90.0
 51
180.0
  0
LINE
  5
130
330
1F
100
AcDbEntity
  8
0
  6
HIDDEN
 62
     7
370
     0
100
AcDbLine
 10
162.9817151938
 20
103.7341692937
 30
0.0
 11
163.7396813844
 21
104.0100461324
 31
0.0
  0
LINE
  5
131
330
1F
100
AcDbEntity
  8
0
  6
HIDDEN
 62
     7
370
     0
100
AcDbLine
 10
163.7396813844
 20
116.0100462367
 30
0.0
 11
162.9817151938
 21
116.2859230754
 31
0.0
  0
LINE
  5
132
330
1F
100
AcDbEntity
  8
0
  6
HIDDEN
 62
     7
370
     0
100
AcDbLine
 10
163.7396813844
 20
104.0100461324
 30
0.0
 11
205.4396831904
 21
104.0100461324
 31
0.0
  0
LINE
  5
133
330
1F
100
AcDbEntity
  8
0
  6
HIDDEN
 62
     7
370
     0
100
AcDbLine
 10
205.4396831904
 20
116.0100462367
 30
0.0
 11
184.3966694091
 21
116.0100462367
 31
0.0
  0
LINE
  5
134
330
1F
100
AcDbEntity
  8
0
  6
HIDDEN
 62
     7
370
     0
100
AcDbLine
 10
183.0817127143
 20
116.0100462367
 30
0.0
 11
163.7396813844
 21
116.0100462367
 31
0.0
  0
LINE
  5
135
330
1F
100
AcDbEntity
  8
0
  6
HIDDEN
 62
     7
370
     0
100
AcDbLine
 10
120.9241204438
 20
85.9306749408
 30
0.0
 11
120.489688265
 21
86.4097416853
 31
0.0
  0
LINE
  5
136
330
1F
100
AcDbEntity
  8
0
  6
HIDDEN
 62
     7
370
     0
100
AcDbLine
 10
112.9896847074
 20
86.8314296459
 30
0.0
 11
112.5072512318
 21
86.3523629015
 31
0.0
  0
LINE
  5
137
330
1F
100
AcDbEntity
  8
0
  6
HIDDEN
 62
     7
370
     0
100
AcDbLine
 10
112.5071292286
 20
133.6677238797
 30
0.0
 11
112.9896800508
 21
133.1886031185
 31
0.0
  0
LINE
  5
138
330
1F
100
AcDbEntity
  8
0
  6
HIDDEN
 62
     7
370
     0
100
AcDbLine
 10
120.4896826771
 20
133.610302255
 30
0.0
 11
120.9242247519
 21
134.0894211536
 31
0.0
  0
LINE
  5
139
330
1F
100
AcDbEntity
  8
0
  6
HIDDEN
 62
     7
370
     0
100
AcDbLine
 10
147.5396828268
 20
105.8100463343
 30
0.0
 11
159.7396844541
 21
105.8100463343
 31
0.0
  0
LINE
  5
13A
330
1F
100
AcDbEntity
  8
0
  6
HIDDEN
 62
     7
370
     0
100
AcDbLine
 10
159.7396844541
 20
114.2100460348
 30
0.0
 11
147.5396828268
 21
114.2100460348
 31
0.0
  0
LINE
  5
13B
330
1F
100
AcDbEntity
  8
0
  6
HIDDEN
 62
     7
370
     0
100
AcDbLine
 10
120.4896826771
 20
129.9454473411
 30
0.0
 11
120.4896826771
 21
133.6100098198
 31
0.0
  0
LINE
  5
13C
330
1F
100
AcDbEntity
  8
0
  6
HIDDEN
 62
     7
370
     0
100
AcDbLine
 10
112.9896828447
 20
133.1884596949
 30
0.0
 11
112.9896828447
 21
130.0056685214
 31
0.0
  0
LINE
  5
13D
330
1F
100
AcDbEntity
  8
0
  6
HIDDEN
 62
     7
370
     0
100
AcDbLine
 10
120.4896826771
 20
86.4102241104
 30
0.0
 11
120.4896826771
 21
90.074645028
 31
0.0
  0
LINE
  5
13E
330
1F
100
AcDbEntity
  8
0
  6
HIDDEN
 62
     7
370
     0
100
AcDbLine
 10
112.9896828447
 20
90.0144238477
 30
0.0
 11
112.9896828447
 21
86.8317518835
 31
0.0
  0
DIMENSION
  5
13F
330
1F
100
AcDbEntity
  8
VERMASSUNG
100
AcDbDimension
  2
*D1
 10
87.5170650778
 20
78.5100461845
 30
0.0
 11
87.5170650778
 21
109.5659227115
 31
0.0
 70
   160
  1
HSK A%%c<>
 71
     2
 42
-1.0
  3
SLDDIMSTYLE0
100
AcDbAlignedDimension
 13
126.0396826063
 23
141.5100461845
 33
0.0
 14
126.0396826063
 24
78.5100461845
 34
0.0
 50
90.0
100
AcDbRotatedDimension
  0
DIMENSION
  5
14C
330
1F
100
AcDbEntity
  8
VERMASSUNG
100
AcDbDimension
  2
*D2
 10
151.6896826063
 20
148.4349842239
 30
0.0
 11
178.5567360642
 21
148.4349842239
 31
0.0
 70
   160
 71
     2
 42
-1.0
  3
SLDDIMSTYLE0
100
AcDbAlignedDimension
 13
205.7396826063
 23
123.7359056629
 33
0.0
 14
151.6896826063
 24
139.8564865083
 34
0.0
100
AcDbRotatedDimension
  0
DIMENSION
  5
156
330
1F
100
AcDbEntity
  8
VERMASSUNG
100
AcDbDimension
  2
*D3
 10
125.7396826063
 20
154.4349842239
 30
0.0
 11
164.6939448076
 21
154.4349842239
 31
0.0
 70
   160
 71
     2
 42
-1.0
  3
SLDDIMSTYLE0
100
AcDbAlignedDimension
 13
205.7396826063
 23
123.7359056629
 33
0.0
 14
125.7396826063
 24
141.2100461845
 34
0.0
100
AcDbRotatedDimension
  0
DIMENSION
  5
160
330
1F
100
AcDbEntity
  8
VERMASSUNG
100
AcDbDimension
  2
*D4
 10
93.8396826063
 20
160.4349842239
 30
0.0
 11
147.3642775094
 21
160.4349842239
 31
0.0
 70
   160
 71
     2
 42
-1.0
  3
SLDDIMSTYLE0
100
AcDbAlignedDimension
 13
205.7396826063
 23
123.7359056629
 33
0.0
 14
93.8396826063
 24
129.700723931
 34
0.0
100
AcDbRotatedDimension
  0
DIMENSION
  5
16A
330
1F
100
AcDbEntity
  8
VERMASSUNG
100
AcDbDimension
  2
*D5
 10
214.237073912
 20
104.0100461845
 30
0.0
 11
214.237073912
 21
109.6675511972
 31
0.0
 70
   160
  1
%%c<>
 71
     2
 42
-1.0
  3
SLDDIMSTYLE0
100
AcDbAlignedDimension
 13
205.4396826063
 23
116.0100461845
 33
0.0
 14
205.4396826063
 24
104.0100461845
 34
0.0
 50
90.0
100
AcDbRotatedDimension
  0
DIMENSION
  5
175
330
1F
100
AcDbEntity
  8
VERMASSUNG
100
AcDbDimension
  2
*D6
 10
220.237073912
 20
89.0100461845
 30
0.0
 11
220.237073912
 21
109.6675511972
 31
0.0
 70
   160
  1
%%c<>
 71
     2
 42
-1.0
  3
SLDDIMSTYLE0
100
AcDbAlignedDimension
 13
192.8726410833
 23
131.0100461845
 33
0.0
 14
192.8726410833
 24
89.0100461845
 34
0.0
 50
90.0
100
AcDbRotatedDimension
  0
LINE
  5
180
330
1F
100
AcDbEntity
  8
VERMASSUNG
  6
CENTERX2
 62
     7
370
     0
100
AcDbLine
 10
137.935302952
 20
136.3663614706
 30
0.0
 11
137.935302952
 21
125.7604501059
 31
0.0
  0
LINE
  5
181
330
1F
100
AcDbEntity
  8
VERMASSUNG
  6
CENTERX2
 62
     7
370
     0
100
AcDbLine
 10
91.694378764
 20
110.0100461845
 30
0.0
 11
207.0555701173
 21
110.0100461845
 31
0.0
  0
OLE2FRAME
  5
182
330
1F
100
AcDbEntity
  8
0
100
AcDbOle2Frame
 70
     2
  3
Bitmap Image
 10
13.8511154363
 20
38.264191557
 30
0.0
 11
51.6290888628
 21
31.9806341108
 31
0.0
 71
     2
 72
     0
 73
     1
 90
    12928
310
80552BED0767C5B32B40DDAF6807D121434000000000000000006FFBDDFB85D0
310
4940DDAF6807D121434000000000000000006FFBDDFB85D04940416F4BD60AFB
310
3F4000000000000000002BED0767C5B32B40416F4BD60AFB3F40000000000000
310
0000000000000100000000010000010000000100000000000100000000320000
310
D0CF11E0A1B11AE1000000000000000000000000000000003E000300FEFF0900
310
0600000000000000000000000100000001000000000000000010000002000000
310
01000000FEFFFFFF0000000000000000FFFFFFFFFFFFFFFFFFFFFFFFFFFFFFFF
310
FFFFFFFFFFFFFFFFFFFFFFFFFFFFFFFFFFFFFFFFFFFFFFFFFFFFFFFFFFFFFFFF
310
FFFFFFFFFFFFFFFFFFFFFFFFFFFFFFFFFFFFFFFFFFFFFFFFFFFFFFFFFFFFFFFF
310
FFFFFFFFFFFFFFFFFFFFFFFFFFFFFFFFFFFFFFFFFFFFFFFFFFFFFFFFFFFFFFFF
310
FFFFFFFFFFFFFFFFFFFFFFFFFFFFFFFFFFFFFFFFFFFFFFFFFFFFFFFFFFFFFFFF
310
FFFFFFFFFFFFFFFFFFFFFFFFFFFFFFFFFFFFFFFFFFFFFFFFFFFFFFFFFFFFFFFF
310
FFFFFFFFFFFFFFFFFFFFFFFFFFFFFFFFFFFFFFFFFFFFFFFFFFFFFFFFFFFFFFFF
310
FFFFFFFFFFFFFFFFFFFFFFFFFFFFFFFFFFFFFFFFFFFFFFFFFFFFFFFFFFFFFFFF
310
FFFFFFFFFFFFFFFFFFFFFFFFFFFFFFFFFFFFFFFFFFFFFFFFFFFFFFFFFFFFFFFF
310
FFFFFFFFFFFFFFFFFFFFFFFFFFFFFFFFFFFFFFFFFFFFFFFFFFFFFFFFFFFFFFFF
310
FFFFFFFFFFFFFFFFFFFFFFFFFFFFFFFFFFFFFFFFFFFFFFFFFFFFFFFFFFFFFFFF
310
FFFFFFFFFFFFFFFFFFFFFFFFFFFFFFFFFFFFFFFFFFFFFFFFFFFFFFFFFFFFFFFF
310
FFFFFFFFFFFFFFFFFFFFFFFFFFFFFFFFFFFFFFFFFFFFFFFFFFFFFFFFFFFFFFFF
310
FFFFFFFFFFFFFFFFFFFFFFFFFFFFFFFFFFFFFFFFFFFFFFFFFFFFFFFFFFFFFFFF
310
FDFFFFFFFEFFFFFFFEFFFFFFFEFFFFFF05000000060000000700000008000000
310
090000000A0000000B0000000C0000000D0000000E0000000F00000010000000
310
11000000120000001300000014000000150000001600000017000000FEFFFFFF
310
FFFFFFFFFFFFFFFFFFFFFFFFFFFFFFFFFFFFFFFFFFFFFFFFFFFFFFFFFFFFFFFF
310
FFFFFFFFFFFFFFFFFFFFFFFFFFFFFFFFFFFFFFFFFFFFFFFFFFFFFFFFFFFFFFFF
310
FFFFFFFFFFFFFFFFFFFFFFFFFFFFFFFFFFFFFFFFFFFFFFFFFFFFFFFFFFFFFFFF
310
FFFFFFFFFFFFFFFFFFFFFFFFFFFFFFFFFFFFFFFFFFFFFFFFFFFFFFFFFFFFFFFF
310
FFFFFFFFFFFFFFFFFFFFFFFFFFFFFFFFFFFFFFFFFFFFFFFFFFFFFFFFFFFFFFFF
310
FFFFFFFFFFFFFFFFFFFFFFFFFFFFFFFFFFFFFFFFFFFFFFFFFFFFFFFFFFFFFFFF
310
FFFFFFFFFFFFFFFFFFFFFFFFFFFFFFFFFFFFFFFFFFFFFFFFFFFFFFFFFFFFFFFF
310
FFFFFFFFFFFFFFFFFFFFFFFFFFFFFFFFFFFFFFFFFFFFFFFFFFFFFFFFFFFFFFFF
310
FFFFFFFFFFFFFFFFFFFFFFFFFFFFFFFFFFFFFFFFFFFFFFFFFFFFFFFFFFFFFFFF
310
FFFFFFFFFFFFFFFFFFFFFFFFFFFFFFFFFFFFFFFFFFFFFFFFFFFFFFFFFFFFFFFF
310
FFFFFFFFFFFFFFFFFFFFFFFFFFFFFFFFFFFFFFFFFFFFFFFFFFFFFFFFFFFFFFFF
310
FFFFFFFFFFFFFFFFFFFFFFFFFFFFFFFFFFFFFFFFFFFFFFFFFFFFFFFFFFFFFFFF
310
FFFFFFFFFFFFFFFFFFFFFFFFFFFFFFFFFFFFFFFFFFFFFFFFFFFFFFFFFFFFFFFF
310
52006F006F007400200045006E00740072007900000000000000000000000000
310
0000000000000000000000000000000000000000000000000000000000000000
310
16000500FFFFFFFFFFFFFFFF020000000A00030000000000C000000000000046
310
000000000000000000000000F08B700E29FFCB0103000000C000000000000000
310
01004F006C006500000000000000000000000000000000000000000000000000
310
0000000000000000000000000000000000000000000000000000000000000000
310
0A000200FFFFFFFFFFFFFFFFFFFFFFFF00000000000000000000000000000000
310
0000000000000000000000000000000000000000000000001400000000000000
310
010043006F006D0070004F0062006A0000000000000000000000000000000000
310
0000000000000000000000000000000000000000000000000000000000000000
310
120002010100000003000000FFFFFFFF00000000000000000000000000000000
310
0000000000000000000000000000000000000000010000004D00000000000000
310
01004F006C006500310030004E00610074006900760065000000000000000000
310
0000000000000000000000000000000000000000000000000000000000000000
310
1A000200FFFFFFFFFFFFFFFFFFFFFFFF00000000000000000000000000000000
310
0000000000000000000000000000000000000000040000002426000000000000
310
FEFFFFFF02000000FEFFFFFFFFFFFFFFFFFFFFFFFFFFFFFFFFFFFFFFFFFFFFFF
310
FFFFFFFFFFFFFFFFFFFFFFFFFFFFFFFFFFFFFFFFFFFFFFFFFFFFFFFFFFFFFFFF
310
FFFFFFFFFFFFFFFFFFFFFFFFFFFFFFFFFFFFFFFFFFFFFFFFFFFFFFFFFFFFFFFF
310
FFFFFFFFFFFFFFFFFFFFFFFFFFFFFFFFFFFFFFFFFFFFFFFFFFFFFFFFFFFFFFFF
310
FFFFFFFFFFFFFFFFFFFFFFFFFFFFFFFFFFFFFFFFFFFFFFFFFFFFFFFFFFFFFFFF
310
FFFFFFFFFFFFFFFFFFFFFFFFFFFFFFFFFFFFFFFFFFFFFFFFFFFFFFFFFFFFFFFF
310
FFFFFFFFFFFFFFFFFFFFFFFFFFFFFFFFFFFFFFFFFFFFFFFFFFFFFFFFFFFFFFFF
310
FFFFFFFFFFFFFFFFFFFFFFFFFFFFFFFFFFFFFFFFFFFFFFFFFFFFFFFFFFFFFFFF
310
FFFFFFFFFFFFFFFFFFFFFFFFFFFFFFFFFFFFFFFFFFFFFFFFFFFFFFFFFFFFFFFF
310
FFFFFFFFFFFFFFFFFFFFFFFFFFFFFFFFFFFFFFFFFFFFFFFFFFFFFFFFFFFFFFFF
310
FFFFFFFFFFFFFFFFFFFFFFFFFFFFFFFFFFFFFFFFFFFFFFFFFFFFFFFFFFFFFFFF
310
FFFFFFFFFFFFFFFFFFFFFFFFFFFFFFFFFFFFFFFFFFFFFFFFFFFFFFFFFFFFFFFF
310
FFFFFFFFFFFFFFFFFFFFFFFFFFFFFFFFFFFFFFFFFFFFFFFFFFFFFFFFFFFFFFFF
310
FFFFFFFFFFFFFFFFFFFFFFFFFFFFFFFFFFFFFFFFFFFFFFFFFFFFFFFFFFFFFFFF
310
FFFFFFFFFFFFFFFFFFFFFFFFFFFFFFFFFFFFFFFFFFFFFFFFFFFFFFFFFFFFFFFF
310
FFFFFFFFFFFFFFFFFFFFFFFFFFFFFFFFFFFFFFFFFFFFFFFFFFFFFFFFFFFFFFFF
310
0100000200000000000000000000000000000000000000003300820000000005
310
F805250000000000C0592600000000001FA83A3E0000803FF8282047F6112047
310
0100FEFF030A0000FFFFFFFF0A00030000000000C00000000000004607000000
310
5042727573680007000000504272757368000700000050427275736800F439B2
310
7100000000000000000000000000000040BFF156000000000A00000000000000
310
000000000000000070BD26000000000000000000000000000000000000000000
310
0000000000000000000000000000000000000000000000004000000000000000
310
00B7F15600000000000000000000000080CE293D140DDA3EC82E383E0000803F
310
A829204760122047D905974E0000803FC836F25600000000A8B6F15600000000
310
20A9F056000000009037F2560000000000000000000000000000000000007F43
310
05000000000000000802000000000000000000000000000020BCF15600000000
310
0500000000000000000000000000000070BD2600000000000000000000000000
310
0000000000000000000000000000000000000000000000000000000000000000
310
4000000000000000C8B7F156000000000000000000000000F4770B3D2AE2DA3E
310
CEEB353E0000803F5D292047521220477ABD964E0000803F00000000A28A663D
310
000000000000803F000080BFAD243E38FC8EDB37000000000000000000000000
310
20260000424D0E260000000000003E00000028000000B40200006E0000000100
310
01000000000000000000130B0000130B00000200000002000000000000FFFFFF
310
FFFFFFFFFFFFFFFFFFFFFFFFFFFFFFFFFFFFFFFFFFFFFFFFFFFFFFFFFFFFFFFF
310
FFFFFFFFFFFFFFFFFFFFFFFFFFFFFFFFFFFFFFFFFFFFFFFFFFFFFFFFFFFFFFFF
310
FFFFFFFFFFFFFFFFFFFFFFFFFFFFFFFFFFFFFFFFFFFFFFFFF000FFFFFFFFFFFF
310
FFFFFFFFFFFFFFFFFFFFFFFFFFFFFFFFFFFFFFFFFFFFFFFFFFFFFFFFFFFFFFFF
310
FFFFFFFFFFFFFFFFFFFFFFFFFFFFFFFFFFFFFFFFFFFFFFFFFFFFFFFFFFFFFFFF
310
FFFFFFFFFFFFFFFFFFFFFFFFFFFFFFFFF000FFFFFFFFFFFFFFFFFFFFFFFFFFFF
310
FFFFFFFFFFFFFFFFFFFFFFFFFFFFFFFFFFFFFFFFFFFFFFFFFFFFFFFFFFFFFFFF
310
FFFFFFFFFFFFFFFFFFFFFFFFFFFFFFFFFFFFFFFFFFFFFFFFFFFFFFFFFFFFFFFF
310
FFFFFFFFFFFFFFFFF000FFFFFFFFFFFFFFFFFFFFFFFFFFFFFFFFFFFFFFFFFFFF
310
FFFFFFFFFFFFFFFFFFFFFFFFFFFFFFFFFFFFFFFFFFFFFFFFFFFFFFFFFFFFFFFF
310
FFFFFFFFFFFFFFFFFFFFFFFFFFFFFFFFFFFFFFFFFFFFFFFFFFFFFFFFFFFFFFFF
310
F000FFFFFFFFFFFFFFFFFFFFFFFFFFFFFFFFFFFFFFFFFFFFFFFFFFFFFFFFFFFF
310
FFFFFFFFFFFFFFFFFFFFFFFFFFFFFFFFFFFFFFFFFFFFFFFFFFFFFFFFFFFFFFFF
310
FFFFFFFFFFFFFFFFFFFFFFFFFFFFFFFFFFFFFFFFFFFFFFFFF000FFFFFFFFFFFF
310
FFFFFFFFFFFFFFFFFFFFFFFFFFFFFFFFFFFFFFFFFFFFFFFFFFFFFFFFFFFFFFFF
310
FFFFFFFFFFFFFFFFFFFFFFFFFFFFFFFFFFFFFFFFFFFFFFFFFFFFFFFFFFFFFFFF
310
FFFFFFFFFFFFFFFFFFFFFFFFFFFFFFFFF000FFFFFFFFFFFFFFFFFFFFFFFFFFFF
310
FFFFFFFFFFFFFFFFFFFFFFFFFFFFFFFFFFFFFFFFFFFFFFFFFFFFFFFFFFFFFFFF
310
FFFFFFFFFFFFFFFFFFFFFFFFFFFFFFFFFFFFFFFFFFFFFFFFFFFFFFFFFFFFFFFF
310
FFFFFFFFFFFFFFFFF000FFFFFFFFFFFFFFFFFFFFFFFFFFFFFFFFFFFFFFFFFFFF
310
FFFFFFFFFFFFFFFFFFFFFFFFFFFFFFFFFFFFFFFFFFFFFFFFFFFFFFFFFFFFFFFF
310
FFFFFFFFFFFFFFFFFFFFFFFFFFFFFFFFFFFFFFFFFFFFFFFFFFFFFFFFFFFFFFFF
310
F000FFFFFFFFFFFFFFFFFFFFFFFFFFFFFFFFFFFFFFFFFFFFFFFFFFFFFFFFFFFF
310
FFFFFFFFFFFFFFFFFFFFFFFFFFFFFFFFFFFFFFFFFFFFFFFFFFFFFFFFFFFFFFFF
310
FFFFFFFFFFFFFFFFFFFFFFFFFFFFFFFFFFFFFFFFFFFFFFFFF000FFFFFFFFFFFF
310
FFFFFFFFFFFFFFFFFFFFFFFFFFFFFFFFFFFFFFFFFFFFFFFFFFFFFFFFFFFFFFFF
310
FFFFFFFFFFFFFFFFFFFFFFFFFFFFFFFFFFFFFFFFFFFFFFFFFFFFFFFFFFFFFFFF
310
FFFFFFFFFFFFFFFFFFFFFFFFFFFFFFFFF000FFFFFFFFFFFFFFFFFFFFFFFFFFFF
310
FFFFFFFFFFFFFFFFFFFFFFFFFFFFFFFFFFFFFFFFFFFFFFFFFFFFFFFFFFFFFFFF
310
FFFFFFFFFFFFFFFFFFFFFFFFFFFFFFFFFFFFFFFFFFFFFFFFFFFFFFFFFFFFFFFF
310
FFFFFFFFFFFFFFFFF000FFFFFFFFFFFFFFFFFFFFFFFFFFFFFFFFFFFFFFFFFFFF
310
FFFFFFFFFFFFFFFFFFFFFFFFFFFFFFFFFFFFFFFFFFFFFFFFFFFFFFFFFFFFFFFF
310
FFFFFFFFFFFFFFFFFFFFFFFFFFFFFFFFFFFFFFFFFFFFFFFFFFFFFFFFFFFFFFFF
310
F000FFFFFFFFFFFFFFFFFFFFFFFFFFFFFFFFFFFFFFFFFFFFFFFFFFFFFFFFFFFF
310
FFFFFFFFFFFFFFFFFFFFFFFFFFFFFFFFFFFFFFFFFFFFFFFFFFFFFFFFFFFFFFFF
310
FFFFFFFFFFFFFFFFFFFFFFFFFFFFFFFFFFFFFFFFFFFFFFFFF000FFFFFFFFFFFF
310
FFFFFFFFFFFFFFFFFFFFFFFFFFFFFFFFFFFFFFFFFFFFFFFFFFFFFFFFFFFFFFFF
310
FFFFFFFFFFFFFFFFFFFFFFFFFFFFFFFFFFFFFFFFFFFFFFFFFFFFFFFFFFFFFFFF
310
FFFFFFFFFFFFFFFFFFFFFFFFFFFFFFFFF000FFFFFFFFFFFFFFFFFFFFFFFFFFFF
310
FFFFFFFFFFFFFFFFFFFFFFFFFFFFFFFFFFFFFFFFFFFFFFFFFFFFFFFFFFFFFFFF
310
FFFFFFFFFFFFFFFFFFFFFFFFFFFFFFFFFFFFFFFFFFFFFFFFFFFFFFFFFFFFFFFF
310
FFFFFFFFFFFFFFFFF000FFFFFFFFFFFFFFFFFFFFFFFFFFFFFFFFFFFFFFFFFFFF
310
FFFFFFFFFFFFFFFFFFFFFFFFFFFFFFFFFFFFFFFFFFFFFFFFFFFFFFFFFFFFFFFF
310
FFFFFFFFFFFFFFFFFFFFFFFFFFFFFFFFFFFFFFFFFFFFFFFFFFFFFFFFFFFFFFFF
310
F000FFFFFFFFFFFFFFFFFFFFFFFFFFFFFFFFFFFFFFFFFFFFFFFFFFFFFFFFFFFF
310
FFFFFFFFFFFFFFFFFFFFFFFFFFFFFFFFFFFFFFFFFFFFFFFFFFFFFFFFFFFFFFFF
310
FFFFFFFFFFFFFFFFFFFFFFFFFFFFFFFFFFFFFFFFFFFFFFFFF000FFFFFFFFFFFF
310
FFFFFFFFFFFFFFFFFFFFFFFFFFFFFFFFFFFFFFFFFFFFFFFFFFFFFFFFFFFFFFFF
310
FFFFFFFFFFFFFFFFFFFFFFFFFFFFFFFFFFFFFFFFFFFFFFFFFFFFFFFFFFFFFFFF
310
FFFFFFFFFFFFFFFFFFFFFFFFFFFFFFFFF000FFFFFFFFFFFFFFFFFFFFFFFFFFFF
310
FFFFFFFFFFFFFFFFFFFFFFFFFFFFFFFFFFFFFFFFFFFFFFFFFFFFFFFFFFFFFFFF
310
FFFFFFFFFFFFFFFFFFFFFFFFFFFFFFFFFFFFFFFFFFFFFFFFFFFFFFFFFFFFFFFF
310
FFFFFFFFFFFFFFFFF000FFFFF80003FFFFFFFFFFFFFFFFFFFFFFFFFFFFFFFFFF
310
FFFFF00007FFFFFFFFFF00007FFFFFF800000000000000007FFFFFFFFFFFFFFF
310
FFFFFFFC001FFFFFFFFFFFFFFC001FFFFFFFFFFFFFFFFFFFFFFFFFFE0007FFFF
310
F000FFFF8000007FFFFFFFF8000FFFFFC0007FFFFF80007FFFFF0000007FFFFF
310
FFF8000007FFFFF800000000000000007FFFFFF0001FFFFFFFFFFFC00001FFFF
310
FFFFFFFFC00001FFFFFFFF000000000003FFFFE000007FFFF000FFFE0000000F
310
FFFFFFF0000FFFFF80007FFFFF80007FFFFC0000001FFFFFFFC0000001FFFFF8
310
00000000000000007FFFFFF0001FFFFFFFFFFE0000003FFFFFFFFFFE0000003F
310
FFFFFF000000000003FFFF0000000FFFF000FFF800000003FFFFFFF00007FFFF
310
80007FFFFF80007FFFF000000007FFFFFF000000003FFFF80000000000000000
310
7FFFFFF0001FFFFFFFFFF80000000FFFFFFFFFF80000000FFFFFFF0000000000
310
03FFFC00000003FFF000FFE000000000FFFFFFF00007FFFF80003FFFFF80007F
310
FFC000000001FFFFFC000000001FFFF800000000000000007FFFFFF0001FFFFF
310
FFFFE000000003FFFFFFFFE000000003FFFFFF000000000003FFF000000000FF
310
F000FF80000000007FFFFFF00007FFFF80003FFFFF80007FFF8000000000FFFF
310
F80000000007FFF800000000000000007FFFFFF0001FFFFFFFFFC000000001FF
310
FFFFFFC000000001FFFFFF000000000003FFC0000000007FF000FF0000000000
310
3FFFFFE00007FFFF00003FFFFF80007FFE00000000003FFFF00000000003FFF8
310
00000000000000007FFFFFF0001FFFFFFFFF8000000000FFFFFFFF8000000000
310
FFFFFF000000000003FF80000000003FF000FE00000000001FFFFFE00003FFFF
310
00003FFFFF80007FFC00000000001FFFE00000000001FFF8000001FFFE000000
310
7FFFFFF0001FFFFFFFFE00000000003FFFFFFE00000000003FFFFF0000000000
310
03FF00000000001FF000FC00000000000FFFFFE00003FFFF00001FFFFF80007F
310
F800000000001FFFC00000000000FFF8000001FFFE0000007FFFFFF0001FFFFF
310
FFFC00000000001FFFFFFC00000000001FFFFF000000000003FE00000000000F
310
F000F8000000000007FFFFE00003FFFF00001FFFFF80007FF800000000000FFF
310
800000000000FFF8000001FFFE0000007FFFFFF0001FFFFFFFF800000000000F
310
FFFFF800000000000FFFFF000000000003FC000000000007F000F80000000000
310
03FFFFC00003FFFE00001FFFFF80007FF0000000000007FF0000000000007FF8
310
000001FFFE0000007FFFFFF0001FFFFFFFF0000000000007FFFFF00000000000
310
07FFFF000000000003F8000000000003F000F0000000000003FFFFC00001FFFE
310
00001FFFFF80007FE0000000000007FE0000000000003FF8000001FFFE000000
310
7FFFFFF0001FFFFFFFF0000000000007FFFFF0000000000007FFFF0000000000
310
03F800001F800003F000E00001FFF00001FFFFC00001FFFE00000FFFFF80007F
310
E00001FFE00003FE00001FFF00003FF8000001FFFE0000007FFFFFF0001FFFFF
310
FFE000003E000003FFFFE000003E000003FFFF000000000003F00001FFF80001
310
F000E00007FFFC0001FFFFC00001FFFE00000FFFFF80007FC0000FFFFC0003FC
310
0000FFFFC0001FF8000001FFFE0000007FFFFFF0001FFFFFFFC00003FFE00001
310
FFFFC00003FFE00001FFFF0001FFFFFFFFF00007FFFE0001F000E0000FFFFF00
310
00FFFF800001FFFC00000FFFFF80007FC0001FFFFE0001FC0001FFFFE0001FF8
310
000001FFFE0000007FFFFFF0001FFFFFFF80000FFFF80000FFFF80000FFFF800
310
00FFFF0003FFFFFFFFE0000FFFFF8000F000C0003FFFFF8000FFFF800000FFFC
310
000007FFFF80007F80003FFFFF0001FC0003FFFFF0001FF8000001FFFE000000
310
7FFFFFF0001FFFFFFF80003FFFFE0000FFFF80003FFFFE0000FFFF0003FFFFFF
310
FFE0003FFFFF8000F000C0003FFFFF8000FFFF800000FFFC000007FFFF80007F
310
80007FFFFF8001F80007FFFFF8000FF8000001FFFE0000007FFFFFF0001FFFFF
310
FF00007FFFFF00007FFF00007FFFFF00007FFF0003FFFFFFFFE0003FFFFFC000
310
F000C0007FFFFFC000FFFF000000FFFC000007FFFF80007F8000FFFFFF8000F8
310
000FFFFFF8000FF8000001FFFE0000007FFFFFF0001FFFFFFF0000FFFFFF8000
310
7FFF0000FFFFFF80007FFF0003FFFFFFFFC0007FFFFFC00070008000FFFFFFC0
310
00FFFF000000FFF8000007FFFF80007F8000FFFFFF8000F8000FFFFFF8000FF8
310
000001FFFE0000007FFFFFF0001FFFFFFE0001FFFFFFC0003FFE0001FFFFFFC0
310
003FFF0003FFFFFFFFC0007FFFFFE00070008000FFFFFFC0007FFF0000007FF8
310
000003FFFF80007F0001FFFFFF8000F8000FFFFFF8000FF8000001FFFE000000
310
7FFFFFF0001FFFFFFE0001FFFFFFC0003FFE0001FFFFFFC0003FFF0003FFFFFF
310
FFC000FFFFFFE00070008000FFFFFFC0007FFF0000007FF8000003FFFF80007F
310
0001FFFFFF8000F8001FFFFFF8000FF8000001FFFE0000007FFFFFF0001FFFFF
310
FE0003FFFFFFE0003FFE0003FFFFFFE0003FFF0003FFFFFFFFC000FFFFFFE000
310
70008000FFFFFFC0007FFE0000007FF8000003FFFF80007F0001FFFFFF8000F0
310
001FFFFFF8000FF8000001FFFE0000007FFFFFF0001FFFFFFC0003FFFFFFE000
310
1FFC0003FFFFFFE0001FFF0003FFFFFFFFC000FFFFFFC00070008000FFFFFF80
310
007FFE0000007FF0000003FFFF80007F0001FFFFFF0000F0001FFFFFF8000FF8
310
000001FFFE0000007FFFFFF0001FFFFFFC0007FFFFFFF0001FFC0007FFFFFFF0
310
001FFF0003FFFFFFFFC000FFFFFFC00070008001FFFFFF0000FFFE0000003FF0
310
000001FFFF80007F0001FFFFFF0000F8001FFFFFF0000FF8000001FFFE000000
310
7FFFFFF0001FFFFFFC0007FFFFFFF0001FFC0007FFFFFFF0001FFF0003FFFFFF
310
FFC001FFFFFF80007000FFFFFFFFFE0000FFFE0008003FF0008001FFFF80007F
310
FFFFFFFFFC0000FFFFFFFFFFE0000FF8000001FFFE0000007FFFFFF0001FFFFF
310
F8000FFFFFFFF8000FF8000FFFFFFFF8000FFF0003FFFFFFFFFFFFFFFFFF0000
310
7000FFFFFFFFFC0000FFFC0008003FF0008001FFFF80007FFFFFFFFFF80001FF
310
FFFFFFFF80000FF8000001FFFE0000007FFFFFF0001FFFFFF8000FFFFFFFF800
310
0FF8000FFFFFFFF8000FFF0003FFFFFFFFFFFFFFFFFE0000F000FFFFFFFFE000
310
00FFFC000C003FE000C001FFFF80007FFFFFFFFFC00001FFFFFFFFFE00001FF8
310
000001FFFE0000007FFFFFF0001FFFFFF8000FFFFFFFF8000FF8000FFFFFFFF8
310
000FFF0003FFFFFFFFFFFFFFFFF00000F000FFFFFFFE000001FFFC000C001FE0
310
00C000FFFF80007FFFFFFFFE000001FFFFFFFFE000001FF80FFFFFFFFFFFFFC0
310
7FFFFFF0001FFFFFF8000FFFFFFFF8000FF8000FFFFFFFF8000FFF0003FFFFFF
310
FFFFFFFFFF800000F000FFFFFFC0000001FFFC001C001FE001C000FFFF80007F
310
FFFFFF80000003FFFFFFF80000001FF80FFFFFFFFFFFFFC07FFFFFF0001FFFFF
310
F8001FFFFFFFFC000FF8001FFFFFFFFC000FFF0003FFFFFFFFFFFFFFF0000001
310
F000FFFFF800000001FFF8001C001FE001C000FFFF80007FFFFFF800000003FF
310
FFFF800000003FF80FFFFFFFFFFFFFC07FFFFFF0001FFFFFF8001FFFFFFFFC00
310
0FF8001FFFFFFFFC000FFF0003FFFFFFFFFFFFFE00000001F000FFFFC0000000
310
03FFF8001E001FC001E000FFFF80007FFFFF8000000007FFFFFC000000003FF8
310
0FFFFFFFFFFFFFC07FFFFFF0001FFFFFF8001FFFFFFFFC000FF8001FFFFFFFFC
310
000FFF0003FFFFFFFFFFFFE000000003F000FFFE0000000007FFF8001E000FC0
310
01E0007FFF80007FFFFE0000000007FFFFE0000000007FF80FFFFFFFFFFFFFC0
310
7FFFFFF0001FFFFFF0001FFFFFFFFC0007F0001FFFFFFFFC0007FF0003FFFFFF
310
FFFFFF0000000003F000FFF80000000007FFF8001E000FC003E0007FFF80007F
310
FFF0000000000FFFFF8000000000FFF80FFFFFFFFFFFFFC07FFFFFF0001FFFFF
310
F0001FFFFFFFFC0007F0001FFFFFFFFC0007FF0003FFFFFFFFFFFC0000000007
310
F000FFE0000000000FFFF0003E000FC003E0007FFF80007FFFC0000000001FFF
310
FE0000000001FFF80FFFFFFFFFFFFFC07FFFFFF0001FFFFFF0001FFFFFFFFC00
310
07F0001FFFFFFFFC0007FF0003FFFFFFFFFFF0000000000FF000FFC000000000
310
1FFFF0003F000F8003F0003FFF80007FFF80000000003FFFF80000000003FFF8
310
0FFFFFFFFFFFFFC07FFFFFF0001FFFFFF0001FFFFFFFFC0007F0001FFFFFFFFC
310
0007FF0003FFFFFFFFFFE0000000001FF000FF00000000007FFFF0003F000780
310
03F0003FFF80007FFF00000000007FFFF00000000007FFF80FFFFFFFFFFFFFC0
310
7FFFFFF0001FFFFFF0001FFFFFFFFC0007F0001FFFFFFFFC0007FF0003FFFFFF
310
FFFF80000000007FF000FE0000000000FFFFE0003F00078007F0003FFF80007F
310
FE0000000001FFFFE0000000001FFFF80FFFFFFFFFFFFFC07FFFFFF0001FFFFF
310
F0001FFFFFFFFC0007F0001FFFFFFFFC0007FF0003FFFFFFFFFF0000000000FF
310
F000FC0000000003FFFFE0007F00078007F0003FFF80007FFC0000000007FFFF
310
C0000000007FFFF80FFFFFFFFFFFFFC07FFFFFF0001FFFFFF8001FFFFFFFFC00
310
0FF8001FFFFFFFFC000FFF0003FFFFFFFFFE0000000003FFF000FC000000000F
310
FFFFE0007F80070007F8001FFF80007FF8000000001FFFFF8000000001FFFFF8
310
0FFFFFFFFFFFFFC07FFFFFF0001FFFFFF8001FFFFFFFFC000FF8001FFFFFFFFC
310
000FFF0003FFFFFFFFFC000000000FFFF000F8000000007FFFFFE0007F800700
310
07F8001FFF80007FF000000000FFFFFF800000000FFFFFF80FFFFFFFFFFFFFC0
310
7FFFFFF0001FFFFFF8000FFFFFFFF8000FF8000FFFFFFFF8000FFF0003FFFFFF
310
FFFC000000007FFFF000F800000007FFFFFFC0007F8003000FF8001FFF80007F
310
F000000007FFFFFF000000007FFFFFF80FFFFFFFFFFFFFC07FFFFFF0001FFFFF
310
F8000FFFFFFFF8000FF8000FFFFFFFF8000FFF0003FFFFFFFFF80000000FFFFF
310
F000F0000000FFFFFFFFC000FF8003000FF8001FFF80007FE0000000FFFFFFFF
310
0000000FFFFFFFF8000001FFFE0000007FFFFFF0001FFFFFF8000FFFFFFFF800
310
0FF8000FFFFFFFF8000FFF0003FFFFFFFFF8000000FFFFFFF000F000000FFFFF
310
FFFFC000FFC002000FF8000FFF80007FE000001FFFFFFFFE000001FFFFFFFFF8
310
000001FFFE0000007FFFFFF0001FFFFFF8000FFFFFFFF8000FF8000FFFFFFFF8
310
000FFF0003FFFFFFFFF000001FFFFFFFF000E00000FFFFFFFFFFC000FFC00200
310
0FFC000FFF80007FE00001FFFFFFFFFE00001FFFFFFFFFF8000001FFFE000000
310
7FFFFFF0001FFFFFFC000FFFFFFFF8001FFC000FFFFFFFF8001FFF0003FFFFFF
310
FFF00001FFFFFFFFF000E00007FFFFFFFFFF8000FFC000001FFC000FFF80007F
310
C0000FFFFFFFFFFE0000FFFFFFFFFFF8000001FFFE0000007FFFFFF0001FFFFF
310
FC0007FFFFFFF0001FFC0007FFFFFFF0001FFF0003FFFFFFFFF00007FFFFFFFF
310
F000E0001FFFFFFFFFFF8000FFC000001FFC000FFF80007FC0003FFFFFFFFFFE
310
0001FFFFFFFFFFF8000001FFFE0000007FFFFFF0001FFFFFFC0007FFFFFFF000
310
1FFC0007FFFFFFF0001FFF0003FFFFFFFFF0001FFFFFFFFFF000E0003FFFFF00
310
03FF8001FFE000001FFC0007FF80007FC0007FFFFF0007FC0003FFFFF0003FF8
310
000001FFFE0000007FFFFFF0001FFFFFFC0003FFFFFFE0001FFC0003FFFFFFE0
310
001FFF0003FFFFFFFFF0003FFFFFFFFFF000E0003FFFFF0001FF8001FFE00000
310
1FFE0007FF80007FC0007FFFFE0003FC0007FFFFE0003FF8000001FFFE000000
310
7FFFFFF0001FFFFFFE0003FFFFFFE0003FFE0003FFFFFFE0003FFF0003FFFFFF
310
FFF0003FFFFF8001F000E0003FFFFF0001FF0001FFE000001FFE0007FF80007F
310
C0007FFFFE0003FC0007FFFFE0003FF8000001FFFE0000007FFFFFF0001FFFFF
310
FE0001FFFFFFC0003FFE0001FFFFFFC0003FFF0003FFFFFFFFF0003FFFFF0001
310
F000E0003FFFFF0003FF0001FFE000003FFE0007FF80007FC0007FFFFE0003FC
310
0007FFFFE0003FF8000001FFFE0000007FFFFFF0001FFFFFFF0001FFFFFFC000
310
7FFF0001FFFFFFC0007FFF0003FFFFFFFFF0003FFFFF0001F000E0003FFFFE00
310
03FF0003FFF000003FFE0003FF80007FC0007FFFFC0003FE0007FFFFE0003FF8
310
000001FFFE0000007FFFFFF0001FFFFFFF0000FFFFFF80007FFF0000FFFFFF80
310
007FFF0003FFFFFFFFF0003FFFFF0001F000E0003FFFFE0003FF0003FFF00000
310
3FFF0003FF80007FC0007FFFFC0007FE0007FFFFC0003FF8000001FFFE000000
310
7FFFFFF0001FFFFFFF80007FFFFF0000FFFF80007FFFFF0000FFFF0003FFFFFF
310
FFF0003FFFFF0003F000E0003FFFFC0003FE0003FFF000003FFF0003FF80007F
310
E0003FFFF80007FE0003FFFFC0007FF8000001FFFE0000007FFFFFF0001FFFFF
310
FF80003FFFFE0000FFFF80003FFFFE0000FFFF0003FFFFFFFFF0001FFFFE0003
310
F000F0001FFFF80003FE0003FFF000007FFF0001FF80007FE0003FFFF00007FE
310
0001FFFF80007FF8000001FFFE0000007FFFFFF0001FFFFFFFC0000FFFF80001
310
FFFFC0000FFFF80001FFFF0003FFFFFFFFF0001FFFFC0003F000F0000FFFF000
310
07FE0007FFF800007FFF0001FF80007FE0001FFFE00007FF0000FFFE00007FF8
310
000001FFFE0000007FFFFFF0001FFFFFFFC00003FFE00001FFFFC00003FFE000
310
01FFFF0003FFFFFFFFF8000FFFF80003F000F00003FFC00007FC0007FFF80000
310
7FFF8001FF80007FF00007FF80000FFF00007FF80000FFF8000001FFFE000000
310
7F80000000000001FFE000003E000003FFFFE000003E000003FFFF0003FFFFFF
310
FFF80003FFE00007F000F800000000000FFC0007FFF800007FFF8001FF80007F
310
F000000000000FFF000000000000FFF8000001FFFE0000007F80000000000001
310
FFF0000000000007FFFFF0000000000007FFFF0003FFFFFFFFFC00007E000007
310
F000F800000000000FFC0007FFF80000FFFF8000FF80007FF800000000001FFF
310
800000000001FFF8000001FFFE0000007F80000000000001FFF800000000000F
310
FFFFF800000000000FFFFF0003FFFFFFFFFC00000000000FF000FC0000000000
310
1FFC0007FFFC0000FFFF8000FF80007FF800000000003FFFC00000000001FFF8
310
000001FFFE0000007F80000000000001FFF800000000000FFFFFF80000000000
310
0FFFFF0003FFFFFFFFFE00000000001FF000FE00000000003FF8000FFFFC0000
310
FFFF8000FF80007FFC00000000003FFFC00000000003FFF8000001FFFE000000
310
7F80000000000001FFFC00000000001FFFFFFC00000000001FFFFF0003FFFFFF
310
FFFF00000000001FF000FF00000000003FF8000FFFFC0000FFFFC000FF80007F
310
FE00000000007FFFE00000000007FFF8000001FFFE0000007F80000000000001
310
FFFE00000000003FFFFFFE00000000003FFFFF0003FFFFFFFFFF80000000003F
310
F000FF80000000007FF8000FFFFC0001FFFFC0007F80007FFF0000000000FFFF
310
F0000000000FFFF800000000000000007F80000000000001FFFF8000000000FF
310
FFFFFF8000000000FFFFFF0003FFFFFFFFFFC0000000007FF000FFC000000000
310
FFF8000FFFFE0001FFFFC0007F80007FFF8000000001FFFFF8000000001FFFF8
310
00000000000000007F80000000000001FFFFC000000001FFFFFFFFC000000001
310
FFFFFF0003FFFFFFFFFFE000000000FFF000FFE000000003FFF0001FFFFE0001
310
FFFFC0007F80007FFFC000000007FFFFFE000000003FFFF80000000000000000
310
7F80000000000001FFFFE000000003FFFFFFFFE000000003FFFFFF0003FFFFFF
310
FFFFF000000003FFF000FFF80000000FFFF0001FFFFE0001FFFFE0007F80007F
310
FFF00000000FFFFFFF00000000FFFFF800000000000000007F80000000000001
310
FFFFF80000000FFFFFFFFFF80000000FFFFFFF0003FFFFFFFFFFFC0000000FFF
310
F000FFFE0000003FFFF0001FFFFE0003FFFFE0003F80007FFFFC0000003FFFFF
310
FFC0000003FFFFF800000000000000007F80000000000001FFFFFE0000003FFF
310
FFFFFFFE0000003FFFFFFF0003FFFFFFFFFFFF0000003FFFF000FFFF800000FF
310
FFF0001FFFFF0003FFFFE0003F80007FFFFF000001FFFFFFFFF800001FFFFFF8
310
00000000000000007F80000000000001FFFFFFC00001FFFFFFFFFFFFC00001FF
310
FFFFFF0003FFFFFFFFFFFFC00000FFFFF000FFFFF8000FFFFFFFFFFFFFFFFFFF
310
FFFFFFFFFFFFFFFFFFFFF0001FFFFFFFFFFF0000FFFFFFF80000000000000000
310
7FFFFFFFFFFFFFFFFFFFFFFC001FFFFFFFFFFFFFFC001FFFFFFFFFFFFFFFFFFF
310
FFFFFFFC001FFFFFF000FFFFFFFFFFFFFFFFFFFFFFFFFFFFFFFFFFFFFFFFFFFF
310
FFFFFFFFFFFFFFFFFFFFFFFFFFFFFFFFFFFFFFFFFFFFFFFFFFFFFFFFFFFFFFFF
310
FFFFFFFFFFFFFFFFFFFFFFFFFFFFFFFFFFFFFFFFFFFFFFFFFFFFFFFFFFFFFFFF
310
F000FFFFFFFFFFFFFFFFFFFFFFFFFFFFFFFFFFFFFFFFFFFFFFFFFFFFFFFFFFFF
310
FFFFFFFFFFFFFFFFFFFFFFFFFFFFFFFFFFFFFFFFFFFFFFFFFFFFFFFFFFFFFFFF
310
FFFFFFFFFFFFFFFFFFFFFFFFFFFFFFFFFFFFFFFFFFFFFFFFF000FFFFFFFFFFFF
310
FFFFFFFFFFFFFFFFFFFFFFFFFFFFFFFFFFFFFFFFFFFFFFFFFFFFFFFFFFFFFFFF
310
FFFFFFFFFFFFFFFFFFFFFFFFFFFFFFFFFFFFFFFFFFFFFFFFFFFFFFFFFFFFFFFF
310
FFFFFFFFFFFFFFFFFFFFFFFFFFFFFFFFF000FFFFFFFFFFFFFFFFFFFFFFFFFFFF
310
FFFFFFFFFFFFFFFFFFFFFFFFFFFFFFFFFFFFFFFFFFFFFFFFFFFFFFFFFFFFFFFF
310
FFFFFFFFFFFFFFFFFFFFFFFFFFFFFFFFFFFFFFFFFFFFFFFFFFFFFFFFFFFFFFFF
310
FFFFFFFFFFFFFFFFF000FFFFFFFFFFFFFFFFFFFFFFFFFFFFFFFFFFFFFFFFFFFF
310
FFFFFFFFFFFFFFFFFFFFFFFFFFFFFFFFFFFFFFFFFFFFFFFFFFFFFFFFFFFFFFFF
310
FFFFFFFFFFFFFFFFFFFFFFFFFFFFFFFFFFFFFFFFFFFFFFFFFFFFFFFFFFFFFFFF
310
F000FFFFFFFFFFFFFFFFFFFFFFFFFFFFFFFFFFFFFFFFFFFFFFFFFFFFFFFFFFFF
310
FFFFFFFFFFFFFFFFFFFFFFFFFFFFFFFFFFFFFFFFFFFFFFFFFFFFFFFFFFFFFFFF
310
FFFFFFFFFFFFFFFFFFFFFFFFFFFFFFFFFFFFFFFFFFFFFFFFF000FFFFFFFFFFFF
310
FFFFFFFFFFFFFFFFFFFFFFFFFFFFFFFFFFFFFFFFFFFFFFFFFFFFFFFFFFFFFFFF
310
FFFFFFFFFFFFFFFFFFFFFFFFFFFFFFFFFFFFFFFFFFFFFFFFFFFFFFFFFFFFFFFF
310
FFFFFFFFFFFFFFFFFFFFFFFFFFFFFFFFF000FFFFFFFFFFFFFFFFFFFFFFFFFFFF
310
FFFFFFFFFFFFFFFFFFFFFFFFFFFFFFFFFFFFFFFFFFFFFFFFFFFFFFFFFFFFFFFF
310
FFFFFFFFFFFFFFFFFFFFFFFFFFFFFFFFFFFFFFFFFFFFFFFFFFFFFFFFFFFFFFFF
310
FFFFFFFFFFFFFFFFF000FFFFFFFFFFFFFFFFFFFFFFFFFFFFFFFFFFFFFFFFFFFF
310
FFFFFFFFFFFFFFFFFFFFFFFFFFFFFFFFFFFFFFFFFFFFFFFFFFFFFFFFFFFFFFFF
310
FFFFFFFFFFFFFFFFFFFFFFFFFFFFFFFFFFFFFFFFFFFFFFFFFFFFFFFFFFFFFFFF
310
F000FFFFFFFFFFFFFFFFFFFFFFFFFFFFFFFFFFFFFFFFFFFFFFFFFFFFFFFFFFFF
310
FFFFFFFFFFFFFFFFFFFFFFFFFFFFFFFFFFFFFFFFFFFFFFFFFFFFFFFFFFFFFFFF
310
FFFFFFFFFFFFFFFFFFFFFFFFFFFFFFFFFFFFFFFFFFFFFFFFF000FFFFFFFFFFFF
310
FFFFFFFFFFFFFFFFFFFFFFFFFFFFFFFFFFFFFFFFFFFFFFFFFFFFFFFFFFFFFFFF
310
FFFFFFFFFFFFFFFFFFFFFFFFFFFFFFFFFFFFFFFFFFFFFFFFFFFFFFFFFFFFFFFF
310
FFFFFFFFFFFFFFFFFFFFFFFFFFFFFFFFF000FFFFFFFFFFFFFFFFFFFFFFFFFFFF
310
FFFFFFFFFFFFFFFFFFFFFFFFFFFFFFFFFFFFFFFFFFFFFFFFFFFFFFFFFFFFFFFF
310
FFFFFFFFFFFFFFFFFFFFFFFFFFFFFFFFFFFFFFFFFFFFFFFFFFFFFFFFFFFFFFFF
310
FFFFFFFFFFFFFFFFF000FFFFFFFFFFFFFFFFFFFFFFFFFFFFFFFFFFFFFFFFFFFF
310
FFFFFFFFFFFFFFFFFFFFFFFFFFFFFFFFFFFFFFFFFFFFFFFFFFFFFFFFFFFFFFFF
310
FFFFFFFFFFFFFFFFFFFFFFFFFFFFFFFFFFFFFFFFFFFFFFFFFFFFFFFFFFFFFFFF
310
F000FFFFFFFFFFFFFFFFFFFFFFFFFFFFFFFFFFFFFFFFFFFFFFFFFFFFFFFFFFFF
310
FFFFFFFFFFFFFFFFFFFFFFFFFFFFFFFFFFFFFFFFFFFFFFFFFFFFFFFFFFFFFFFF
310
FFFFFFFFFFFFFFFFFFFFFFFFFFFFFFFFFFFFFFFFFFFFFFFFF000FFFFFFFFFFFF
310
FFFFFFFFFFFFFFFFFFFFFFFFFFFFFFFFFFFFFFFFFFFFFFFFFFFFFFFFFFFFFFFF
310
FFFFFFFFFFFFFFFFFFFFFFFFFFFFFFFFFFFFFFFFFFFFFFFFFFFFFFFFFFFFFFFF
310
FFFFFFFFFFFFFFFFFFFFFFFFFFFFFFFFF000FFFFFFFFFFFFFFFFFFFFFFFFFFFF
310
FFFFFFFFFFFFFFFFFFFFFFFFFFFFFFFFFFFFFFFFFFFFFFFFFFFFFFFFFFFFFFFF
310
FFFFFFFFFFFFFFFFFFFFFFFFFFFFFFFFFFFFFFFFFFFFFFFFFFFFFFFFFFFFFFFF
310
FFFFFFFFFFFFFFFFF000FFFFFFFFFFFFFFFFFFFFFFFFFFFFFFFFFFFFFFFFFFFF
310
FFFFFFFFFFFFFFFFFFFFFFFFFFFFFFFFFFFFFFFFFFFFFFFFFFFFFFFFFFFFFFFF
310
FFFFFFFFFFFFFFFFFFFFFFFFFFFFFFFFFFFFFFFFFFFFFFFFFFFFFFFFFFFFFFFF
310
F000FFFFFFFFFFFFFFFFFFFFFFFFFFFFFFFFFFFFFFFFFFFFFFFFFFFFFFFFFFFF
310
FFFFFFFFFFFFFFFFFFFFFFFFFFFFFFFFFFFFFFFFFFFFFFFFFFFFFFFFFFFFFFFF
310
FFFFFFFFFFFFFFFFFFFFFFFFFFFFFFFFFFFFFFFFFFFFFFFFF000FFFFFFFFFFFF
310
FFFFFFFFFFFFFFFFFFFFFFFFFFFFFFFFFFFFFFFFFFFFFFFFFFFFFFFFFFFFFFFF
310
FFFFFFFFFFFFFFFFFFFFFFFFFFFFFFFFFFFFFFFFFFFFFFFFFFFFFFFFFFFFFFFF
310
FFFFFFFFFFFFFFFFFFFFFFFFFFFFFFFFF000FFFFFFFFFFFFFFFFFFFFFFFFFFFF
310
FFFFFFFFFFFFFFFFFFFFFFFFFFFFFFFFFFFFFFFFFFFFFFFFFFFFFFFFFFFFFFFF
310
FFFFFFFFFFFFFFFFFFFFFFFFFFFFFFFFFFFFFFFFFFFFFFFFFFFFFFFFFFFFFFFF
310
FFFFFFFFFFFFFFFFF000FFFFFFFFFFFFFFFFFFFFFFFFFFFFFFFFFFFFFFFFFFFF
310
FFFFFFFFFFFFFFFFFFFFFFFFFFFFFFFFFFFFFFFFFFFFFFFFFFFFFFFFFFFFFFFF
310
FFFFFFFFFFFFFFFFFFFFFFFFFFFFFFFFFFFFFFFFFFFFFFFFFFFFFFFFFFFFFFFF
310
F000FFFFFFFFFFFFFFFFFFFFFFFFFFFFFFFFFFFFFFFFFFFFFFFFFFFFFFFFFFFF
310
FFFFFFFFFFFFFFFFFFFFFFFFFFFFFFFFFFFFFFFFFFFFFFFFFFFFFFFFFFFFFFFF
310
FFFFFFFFFFFFFFFFFFFFFFFFFFFFFFFFFFFFFFFFFFFFFFFFF000FFFFFFFFFFFF
310
FFFFFFFFFFFFFFFFFFFFFFFFFFFFFFFFFFFFFFFFFFFFFFFFFFFFFFFFFFFFFFFF
310
FFFFFFFFFFFFFFFFFFFFFFFFFFFFFFFFFFFFFFFFFFFFFFFFFFFFFFFFFFFFFFFF
310
FFFFFFFFFFFFFFFFFFFFFFFFFFFFFFFFF0000000000000000000000000000000
310
0000000000000000000000000000000000000000000000000000000000000000
310
0000000000000000000000000000000045004C00000000000000000000000000
310
0000000000000000000000000000000000000000000000000000000000000000
310
000000000000000000000000000000000000FFFFFFFFFFFFFFFFFFFFFFFFFFFF
310
FFFFFFFFFFFFFFFFFFFFFFFFFFFFFFFFFFFFFFFFFFFFFFFFFFFFFFFFFFFFFFFF
310
FFFFFFFFFFFFFFFFFFFFFFFFFFFFFFFF6476000800000000FFFFFFFF00FF2020
310
2A00000021000000090000000A000000000000001F00000026000000FA000000
310
0000000060000000600000000000E8FF200020000000002B80FFFFFF40002200
310
E80300001B050000C4030000FF0200E0FFFCC76A120000000000000005000200
310
00000000616C000800000000E40100007001000002000000290000001F000000
310
0000000000000000FA000000000000800302012240004B006F007A0075006B00
310
6100200047006F0074006800690063002000500072006F00200045004C000000
310
00000000000000000000000000000000000000004B006F007A0047006F005000
310
72006F002D00450078007400720061004C006900670068007400000000000000
310
0000000000000000000000000000000000000000000000000000000000000000
  1
OLE
  0
ENDSEC
  0
SECTION
  2
OBJECTS
  0
DICTIONARY
  5
C
330
0
100
AcDbDictionary
281
     1
  3
ACAD_GROUP
350
D
  3
ACAD_LAYOUT
350
1A
  3
ACAD_MLEADERSTYLE
350
184
  3
ACAD_MLINESTYLE
350
17
  3
ACAD_PLOTSETTINGS
350
19
  3
ACAD_PLOTSTYLENAME
350
E
  3
ACAD_TABLESTYLE
350
183
  3
ACAD_VISUALSTYLE
350
2A
  3
AcDbVariableDictionary
350
185
  0
DICTIONARY
  5
D
102
{ACAD_REACTORS
330
C
102
}
330
C
100
AcDbDictionary
281
     1
  0
DICTIONARY
  5
1A
102
{ACAD_REACTORS
330
C
102
}
330
C
100
AcDbDictionary
281
     1
  3
Layout1
350
1E
  3
Layout2
350
26
  3
Model
350
22
  0
DICTIONARY
  5
184
102
{ACAD_REACTORS
330
C
102
}
330
C
100
AcDbDictionary
281
     1
  0
DICTIONARY
  5
17
102
{ACAD_REACTORS
330
C
102
}
330
C
100
AcDbDictionary
281
     1
  3
Standard
350
18
  0
DICTIONARY
  5
19
102
{ACAD_REACTORS
330
C
102
}
330
C
100
AcDbDictionary
281
     1
  0
ACDBDICTIONARYWDFLT
  5
E
102
{ACAD_REACTORS
330
C
102
}
330
C
100
AcDbDictionary
281
     1
  3
Normal
350
F
100
AcDbDictionaryWithDefault
340
F
  0
DICTIONARY
  5
183
102
{ACAD_REACTORS
330
C
102
}
330
C
100
AcDbDictionary
281
     1
  0
DICTIONARY
  5
2A
102
{ACAD_REACTORS
330
C
102
}
330
C
100
AcDbDictionary
281
     1
  3
2dWireframe
350
2F
  3
3D Hidden
350
31
  3
3dWireframe
350
30
  3
Basic
350
32
  3
Brighten
350
36
  3
ColorChange
350
3A
  3
Conceptual
350
34
  3
Dim
350
35
  3
Facepattern
350
39
  3
Flat
350
2B
  3
FlatWithEdges
350
2C
  3
Gouraud
350
2D
  3
GouraudWithEdges
350
2E
  3
Linepattern
350
38
  3
Realistic
350
33
  3
Thicken
350
37
  0
DICTIONARY
  5
185
102
{ACAD_REACTORS
330
C
102
}
330
C
100
AcDbDictionary
281
     1
  3
PSOLHEIGHT
350
187
  3
PSOLWIDTH
350
186
  0
LAYOUT
  5
1E
102
{ACAD_REACTORS
330
1A
102
}
330
1A
100
AcDbPlotSettings
  1

  2
none_device
  4

  6

 40
0.0
 41
0.0
 42
0.0
 43
0.0
 44
0.0
 45
0.0
 46
0.0
 47
0.0
 48
0.0
 49
0.0
140
0.0
141
0.0
142
1.0
143
1.0
 70
   688
 72
     0
 73
     0
 74
     5
  7

 75
    16
147
1.0
148
0.0
149
0.0
100
AcDbLayout
  1
Layout1
 70
     1
 71
     1
 10
0.0
 20
0.0
 11
420.0
 21
297.0
 12
0.0
 22
0.0
 32
0.0
 14
1.0000000000E+20
 24
1.0000000000E+20
 34
1.0000000000E+20
 15
-1.0000000000E+20
 25
-1.0000000000E+20
 35
-1.0000000000E+20
146
0.0
 13
0.0
 23
0.0
 33
0.0
 16
1.0
 26
0.0
 36
0.0
 17
0.0
 27
1.0
 37
0.0
 76
     0
330
1B
  0
LAYOUT
  5
26
102
{ACAD_REACTORS
330
1A
102
}
330
1A
100
AcDbPlotSettings
  1

  2
none_device
  4

  6

 40
0.0
 41
0.0
 42
0.0
 43
0.0
 44
0.0
 45
0.0
 46
0.0
 47
0.0
 48
0.0
 49
0.0
140
0.0
141
0.0
142
1.0
143
1.0
 70
   688
 72
     0
 73
     0
 74
     5
  7

 75
    16
147
1.0
148
0.0
149
0.0
100
AcDbLayout
  1
Layout2
 70
     1
 71
     2
 10
0.0
 20
0.0
 11
0.0
 21
0.0
 12
0.0
 22
0.0
 32
0.0
 14
0.0
 24
0.0
 34
0.0
 15
0.0
 25
0.0
 35
0.0
146
0.0
 13
0.0
 23
0.0
 33
0.0
 16
1.0
 26
0.0
 36
0.0
 17
0.0
 27
1.0
 37
0.0
 76
     0
330
23
  0
LAYOUT
  5
22
102
{ACAD_REACTORS
330
1A
102
}
330
1A
100
AcDbPlotSettings
  1

  2
none_device
  4

  6

 40
0.0
 41
0.0
 42
0.0
 43
0.0
 44
0.0
 45
0.0
 46
0.0
 47
0.0
 48
0.0
 49
0.0
140
0.0
141
0.0
142
1.0
143
1.0
 70
  1712
 72
     0
 73
     0
 74
     0
  7

 75
     0
147
1.0
148
0.0
149
0.0
100
AcDbLayout
  1
Model
 70
     1
 71
     0
 10
0.0
 20
0.0
 11
297.0
 21
210.0
 12
0.0
 22
0.0
 32
0.0
 14
0.0
 24
0.0
 34
0.0
 15
297.0
 25
210.0
 35
0.0
146
0.0
 13
0.0
 23
0.0
 33
0.0
 16
1.0
 26
0.0
 36
0.0
 17
0.0
 27
1.0
 37
0.0
 76
     0
330
1F
331
29
  0
MLINESTYLE
  5
18
102
{ACAD_REACTORS
330
17
102
}
330
17
100
AcDbMlineStyle
  2
Standard
 70
     0
  3

 62
   256
 51
90.0
 52
90.0
 71
     2
 49
0.5
 62
   256
  6
BYLAYER
 49
-0.5
 62
   256
  6
BYLAYER
  0
ACDBPLACEHOLDER
  5
F
102
{ACAD_REACTORS
330
E
102
}
330
E
  0
VISUALSTYLE
  5
2F
102
{ACAD_REACTORS
330
2A
102
}
330
2A
100
AcDbVisualStyle
  2
2dWireframe
 70
     4
 71
     0
 72
     2
 73
     0
 90
        0
 40
-0.6
 41
-30.0
 62
     5
 63
     7
 74
     1
 91
        4
 64
     7
 65
   257
 75
     1
175
     1
 42
1.0
 92
        0
 66
   257
 43
1.0
 76
     1
 77
     6
 78
     2
 67
     7
 79
     5
170
     0
171
     0
290
     0
174
     0
 93
        1
 44
0.0
173
     0
291
     0
 45
0.0
1001
ACAD
1000
AcDbSavedByObjectVersion
1070
     0
  0
VISUALSTYLE
  5
31
102
{ACAD_REACTORS
330
2A
102
}
330
2A
100
AcDbVisualStyle
  2
3D Hidden
 70
     6
 71
     1
 72
     2
 73
     2
 90
        0
 40
-0.6
 41
-30.0
 62
     5
 63
     7
 74
     2
 91
        2
 64
     7
 65
   257
 75
     2
175
     1
 42
40.0
 92
        0
 66
   257
 43
1.0
 76
     1
 77
     6
 78
     2
 67
     7
 79
     3
170
     0
171
     0
290
     0
174
     0
 93
        1
 44
0.0
173
     0
291
     0
 45
0.0
1001
ACAD
1000
AcDbSavedByObjectVersion
1070
     0
  0
VISUALSTYLE
  5
30
102
{ACAD_REACTORS
330
2A
102
}
330
2A
100
AcDbVisualStyle
  2
3dWireframe
 70
     5
 71
     0
 72
     2
 73
     0
 90
        0
 40
-0.6
 41
-30.0
 62
     5
 63
     7
 74
     1
 91
        4
 64
     7
 65
   257
 75
     1
175
     1
 42
1.0
 92
        0
 66
   257
 43
1.0
 76
     1
 77
     6
 78
     2
 67
     7
 79
     5
170
     0
171
     0
290
     0
174
     0
 93
        1
 44
0.0
173
     0
291
     0
 45
0.0
1001
ACAD
1000
AcDbSavedByObjectVersion
1070
     0
  0
VISUALSTYLE
  5
32
102
{ACAD_REACTORS
330
2A
102
}
330
2A
100
AcDbVisualStyle
  2
Basic
 70
     7
 71
     1
 72
     0
 73
     1
 90
        0
 40
-0.6
 41
-30.0
 62
     5
 63
     7
 74
     0
 91
        4
 64
     7
 65
   257
 75
     1
175
     1
 42
1.0
 92
        8
 66
     7
 43
1.0
 76
     1
 77
     6
 78
     2
 67
     7
 79
     5
170
     0
171
     0
290
     0
174
     0
 93
        1
 44
0.0
173
     0
291
     1
 45
0.0
1001
ACAD
1000
AcDbSavedByObjectVersion
1070
     0
  0
VISUALSTYLE
  5
36
102
{ACAD_REACTORS
330
2A
102
}
330
2A
100
AcDbVisualStyle
  2
Brighten
 70
    12
 71
     2
 72
     2
 73
     0
 90
        0
 40
-0.6
 41
-30.0
 62
     5
 63
     7
 74
     1
 91
        4
 64
     7
 65
   257
 75
     1
175
     1
 42
1.0
 92
        8
 66
     7
 43
1.0
 76
     1
 77
     6
 78
     2
 67
     7
 79
     5
170
     0
171
     0
290
     0
174
     0
 93
        1
 44
50.0
173
     0
291
     1
 45
0.0
1001
ACAD
1000
AcDbSavedByObjectVersion
1070
     0
  0
VISUALSTYLE
  5
3A
102
{ACAD_REACTORS
330
2A
102
}
330
2A
100
AcDbVisualStyle
  2
ColorChange
 70
    16
 71
     2
 72
     2
 73
     3
 90
        0
 40
-0.6
 41
-30.0
 62
     5
 63
     8
 74
     1
 91
        4
 64
     7
 65
   257
 75
     1
175
     1
 42
1.0
 92
        8
 66
     8
 43
1.0
 76
     1
 77
     6
 78
     2
 67
     7
 79
     5
170
     0
171
     0
290
     0
174
     0
 93
        1
 44
0.0
173
     0
291
     1
 45
0.0
1001
ACAD
1000
AcDbSavedByObjectVersion
1070
     0
  0
VISUALSTYLE
  5
34
102
{ACAD_REACTORS
330
2A
102
}
330
2A
100
AcDbVisualStyle
  2
Conceptual
 70
     9
 71
     3
 72
     2
 73
     0
 90
        0
 40
-0.6
 41
-30.0
 62
     5
 63
     7
 74
     2
 91
        2
 64
     7
 65
   257
 75
     1
175
     1
 42
40.0
 92
        8
 66
     7
 43
1.0
 76
     1
 77
     6
 78
     2
 67
     7
 79
     3
170
     0
171
     0
290
     0
174
     0
 93
        1
 44
0.0
173
     0
291
     0
 45
0.0
1001
ACAD
1000
AcDbSavedByObjectVersion
1070
     0
  0
VISUALSTYLE
  5
35
102
{ACAD_REACTORS
330
2A
102
}
330
2A
100
AcDbVisualStyle
  2
Dim
 70
    11
 71
     2
 72
     2
 73
     0
 90
        0
 40
-0.6
 41
-30.0
 62
     5
 63
     7
 74
     1
 91
        4
 64
     7
 65
   257
 75
     1
175
     1
 42
1.0
 92
        8
 66
     7
 43
1.0
 76
     1
 77
     6
 78
     2
 67
     7
 79
     5
170
     0
171
     0
290
     0
174
     0
 93
        1
 44
-50.0
173
     0
291
     1
 45
0.0
1001
ACAD
1000
AcDbSavedByObjectVersion
1070
     0
  0
VISUALSTYLE
  5
39
102
{ACAD_REACTORS
330
2A
102
}
330
2A
100
AcDbVisualStyle
  2
Facepattern
 70
    15
 71
     2
 72
     2
 73
     0
 90
        0
 40
-0.6
 41
-30.0
 62
     5
 63
     7
 74
     1
 91
        4
 64
     7
 65
   257
 75
     1
175
     1
 42
1.0
 92
        8
 66
     7
 43
1.0
 76
     1
 77
     6
 78
     2
 67
     7
 79
     5
170
     0
171
     0
290
     0
174
     0
 93
        1
 44
0.0
173
     0
291
     1
 45
0.0
1001
ACAD
1000
AcDbSavedByObjectVersion
1070
     0
  0
VISUALSTYLE
  5
2B
102
{ACAD_REACTORS
330
2A
102
}
330
2A
100
AcDbVisualStyle
  2
Flat
 70
     0
 71
     2
 72
     1
 73
     1
 90
        2
 40
-0.6
 41
30.0
 62
     5
 63
     7
 74
     0
 91
        4
 64
     7
 65
   257
 75
     1
175
     1
 42
1.0
 92
        8
 66
     7
 43
1.0
 76
     1
 77
     6
 78
     2
 67
     7
 79
     5
170
     0
171
     0
290
     0
174
     0
 93
       13
 44
0.0
173
     0
291
     1
 45
0.0
1001
ACAD
1000
AcDbSavedByObjectVersion
1070
     0
  0
VISUALSTYLE
  5
2C
102
{ACAD_REACTORS
330
2A
102
}
330
2A
100
AcDbVisualStyle
  2
FlatWithEdges
 70
     1
 71
     2
 72
     1
 73
     1
 90
        2
 40
-0.6
 41
30.0
 62
     5
 63
     7
 74
     1
 91
        4
 64
     7
 65
   257
 75
     1
175
     1
 42
1.0
 92
        0
 66
   257
 43
1.0
 76
     1
 77
     6
 78
     2
 67
     7
 79
     5
170
     0
171
     0
290
     0
174
     0
 93
       13
 44
0.0
173
     0
291
     1
 45
0.0
1001
ACAD
1000
AcDbSavedByObjectVersion
1070
     0
  0
VISUALSTYLE
  5
2D
102
{ACAD_REACTORS
330
2A
102
}
330
2A
100
AcDbVisualStyle
  2
Gouraud
 70
     2
 71
     2
 72
     2
 73
     1
 90
        2
 40
-0.6
 41
30.0
 62
     5
 63
     7
 74
     0
 91
        4
 64
     7
 65
   257
 75
     1
175
     1
 42
1.0
 92
        0
 66
     7
 43
1.0
 76
     1
 77
     6
 78
     2
 67
     7
 79
     5
170
     0
171
     0
290
     0
174
     0
 93
       13
 44
0.0
173
     0
291
     1
 45
0.0
1001
ACAD
1000
AcDbSavedByObjectVersion
1070
     0
  0
VISUALSTYLE
  5
2E
102
{ACAD_REACTORS
330
2A
102
}
330
2A
100
AcDbVisualStyle
  2
GouraudWithEdges
 70
     3
 71
     2
 72
     2
 73
     1
 90
        2
 40
-0.6
 41
30.0
 62
     5
 63
     7
 74
     1
 91
        4
 64
     7
 65
   257
 75
     1
175
     1
 42
1.0
 92
        0
 66
   257
 43
1.0
 76
     1
 77
     6
 78
     2
 67
     7
 79
     5
170
     0
171
     0
290
     0
174
     0
 93
       13
 44
0.0
173
     0
291
     1
 45
0.0
1001
ACAD
1000
AcDbSavedByObjectVersion
1070
     0
  0
VISUALSTYLE
  5
38
102
{ACAD_REACTORS
330
2A
102
}
330
2A
100
AcDbVisualStyle
  2
Linepattern
 70
    14
 71
     2
 72
     2
 73
     0
 90
        0
 40
-0.6
 41
-30.0
 62
     5
 63
     7
 74
     1
 91
        4
 64
     7
 65
   257
 75
     7
175
     7
 42
1.0
 92
        8
 66
     7
 43
1.0
 76
     1
 77
     6
 78
     2
 67
     7
 79
     5
170
     0
171
     0
290
     0
174
     0
 93
        1
 44
0.0
173
     0
291
     1
 45
0.0
1001
ACAD
1000
AcDbSavedByObjectVersion
1070
     0
  0
VISUALSTYLE
  5
33
102
{ACAD_REACTORS
330
2A
102
}
330
2A
100
AcDbVisualStyle
  2
Realistic
 70
     8
 71
     2
 72
     2
 73
     0
 90
        0
 40
-0.6
 41
-30.0
 62
     5
 63
     7
 74
     1
 91
        0
 64
     7
 65
   257
 75
     1
175
     1
 42
1.0
 92
        8
 66
     8
 43
1.0
 76
     1
 77
     6
 78
     2
 67
     7
 79
     5
170
     0
171
     0
290
     0
174
     0
 93
       13
 44
0.0
173
     0
291
     0
 45
0.0
1001
ACAD
1000
AcDbSavedByObjectVersion
1070
     0
  0
VISUALSTYLE
  5
37
102
{ACAD_REACTORS
330
2A
102
}
330
2A
100
AcDbVisualStyle
  2
Thicken
 70
    13
 71
     2
 72
     2
 73
     0
 90
        0
 40
-0.6
 41
-30.0
 62
     5
 63
     7
 74
     1
 91
        4
 64
     7
 65
   257
 75
     1
175
     1
 42
1.0
 92
       12
 66
     7
 43
1.0
 76
     1
 77
     6
 78
     2
 67
     7
 79
     5
170
     0
171
     0
290
     0
174
     0
 93
        1
 44
0.0
173
     0
291
     1
 45
0.0
1001
ACAD
1000
AcDbSavedByObjectVersion
1070
     0
  0
DICTIONARYVAR
  5
187
102
{ACAD_REACTORS
330
185
102
}
330
185
100
DictionaryVariables
280
     0
  1
80.000000
  0
DICTIONARYVAR
  5
186
102
{ACAD_REACTORS
330
185
102
}
330
185
100
DictionaryVariables
280
     0
  1
5.000000
  0
ENDSEC
  0
EOF
