  0
SECTION
  2
HEADER
  9
$ACADVER
  1
AC1015
  9
$ACADMAINTVER
 70
     6
  9
$DWGCODEPAGE
  3
ANSI_1252
  9
$INSBASE
 10
0.0
 20
0.0
 30
0.0
  9
$EXTMIN
 10
0.0
 20
0.0
 30
0.0
  9
$EXTMAX
 10
297.0
 20
210.0
 30
0.0
  9
$LIMMIN
 10
0.0
 20
0.0
  9
$LIMMAX
 10
297.0
 20
210.0
  9
$ORTHOMODE
 70
     0
  9
$REGENMODE
 70
     1
  9
$FILLMODE
 70
     1
  9
$QTEXTMODE
 70
     0
  9
$MIRRTEXT
 70
     1
  9
$LTSCALE
 40
1.0
  9
$ATTMODE
 70
     1
  9
$TEXTSIZE
 40
2.0
  9
$TRACEWID
 40
1.0
  9
$TEXTSTYLE
  7
Standard
  9
$CLAYER
  8
0
  9
$CELTYPE
  6
ByLayer
  9
$CECOLOR
 62
   256
  9
$CELTSCALE
 40
1.0
  9
$DISPSILH
 70
     0
  9
$DIMSCALE
 40
1.0
  9
$DIMASZ
 40
3.0
  9
$DIMEXO
 40
0.0
  9
$DIMDLI
 40
3.75
  9
$DIMRND
 40
0.0
  9
$DIMDLE
 40
0.0
  9
$DIMEXE
 40
1.0
  9
$DIMTP
 40
0.0
  9
$DIMTM
 40
0.0
  9
$DIMTXT
 40
2.0
  9
$DIMCEN
 40
2.5
  9
$DIMTSZ
 40
0.0
  9
$DIMTOL
 70
     0
  9
$DIMLIM
 70
     0
  9
$DIMTIH
 70
     1
  9
$DIMTOH
 70
     1
  9
$DIMSE1
 70
     0
  9
$DIMSE2
 70
     0
  9
$DIMTAD
 70
     1
  9
$DIMZIN
 70
     0
  9
$DIMBLK
  1

  9
$DIMASO
 70
     1
  9
$DIMSHO
 70
     1
  9
$DIMPOST
  1

  9
$DIMAPOST
  1

  9
$DIMALT
 70
     0
  9
$DIMALTD
 70
     3
  9
$DIMALTF
 40
0.0393700787
  9
$DIMLFAC
 40
1.0
  9
$DIMTOFL
 70
     1
  9
$DIMTVP
 40
0.0
  9
$DIMTIX
 70
     0
  9
$DIMSOXD
 70
     0
  9
$DIMSAH
 70
     0
  9
$DIMBLK1
  1

  9
$DIMBLK2
  1

  9
$DIMSTYLE
  2
ISO-25
  9
$DIMCLRD
 70
     0
  9
$DIMCLRE
 70
     0
  9
$DIMCLRT
 70
     0
  9
$DIMTFAC
 40
1.0
  9
$DIMGAP
 40
1.524
  9
$DIMJUST
 70
     0
  9
$DIMSD1
 70
     0
  9
$DIMSD2
 70
     0
  9
$DIMTOLJ
 70
     0
  9
$DIMTZIN
 70
     0
  9
$DIMALTZ
 70
     0
  9
$DIMALTTZ
 70
     0
  9
$DIMUPT
 70
     0
  9
$DIMDEC
 70
     2
  9
$DIMTDEC
 70
     3
  9
$DIMALTU
 70
     2
  9
$DIMALTTD
 70
     3
  9
$DIMTXSTY
  7
Standard
  9
$DIMAUNIT
 70
     0
  9
$DIMADEC
 70
     2
  9
$DIMALTRND
 40
0.0
  9
$DIMAZIN
 70
     0
  9
$DIMDSEP
 70
    44
  9
$DIMATFIT
 70
     3
  9
$DIMFRAC
 70
     0
  9
$DIMLDRBLK
  1

  9
$DIMLUNIT
 70
     2
  9
$DIMLWD
 70
    -2
  9
$DIMLWE
 70
    -2
  9
$DIMTMOVE
 70
     0
  9
$LUNITS
 70
     2
  9
$LUPREC
 70
     2
  9
$SKETCHINC
 40
1.0
  9
$FILLETRAD
 40
10.0
  9
$AUNITS
 70
     0
  9
$AUPREC
 70
     2
  9
$MENU
  1
.
  9
$ELEVATION
 40
0.0
  9
$PELEVATION
 40
0.0
  9
$THICKNESS
 40
0.0
  9
$LIMCHECK
 70
     0
  9
$CHAMFERA
 40
10.0
  9
$CHAMFERB
 40
10.0
  9
$CHAMFERC
 40
20.0
  9
$CHAMFERD
 40
0.0
  9
$SKPOLY
 70
     0
  9
$TDCREATE
 40
2455673.444474699
  9
$TDUCREATE
 40
2455673.361141366
  9
$TDUPDATE
 40
2455673.444474711
  9
$TDUUPDATE
 40
2455673.361141377
  9
$TDINDWG
 40
0.0000000116
  9
$TDUSRTIMER
 40
0.0000000116
  9
$USRTIMER
 70
     1
  9
$ANGBASE
 50
0.0
  9
$ANGDIR
 70
     0
  9
$PDMODE
 70
     0
  9
$PDSIZE
 40
-1.0
  9
$PLINEWID
 40
0.0
  9
$SPLFRAME
 70
     0
  9
$SPLINETYPE
 70
     6
  9
$SPLINESEGS
 70
     8
  9
$HANDSEED
  5
20A
  9
$SURFTAB1
 70
     6
  9
$SURFTAB2
 70
     6
  9
$SURFTYPE
 70
     6
  9
$SURFU
 70
     6
  9
$SURFV
 70
     6
  9
$UCSBASE
  2

  9
$UCSNAME
  2

  9
$UCSORG
 10
0.0
 20
0.0
 30
0.0
  9
$UCSXDIR
 10
1.0
 20
0.0
 30
0.0
  9
$UCSYDIR
 10
0.0
 20
1.0
 30
0.0
  9
$UCSORTHOREF
  2

  9
$UCSORTHOVIEW
 70
     0
  9
$UCSORGTOP
 10
0.0
 20
0.0
 30
0.0
  9
$UCSORGBOTTOM
 10
0.0
 20
0.0
 30
0.0
  9
$UCSORGLEFT
 10
0.0
 20
0.0
 30
0.0
  9
$UCSORGRIGHT
 10
0.0
 20
0.0
 30
0.0
  9
$UCSORGFRONT
 10
0.0
 20
0.0
 30
0.0
  9
$UCSORGBACK
 10
0.0
 20
0.0
 30
0.0
  9
$PUCSBASE
  2

  9
$PUCSNAME
  2

  9
$PUCSORG
 10
0.0
 20
0.0
 30
0.0
  9
$PUCSXDIR
 10
1.0
 20
0.0
 30
0.0
  9
$PUCSYDIR
 10
0.0
 20
1.0
 30
0.0
  9
$PUCSORTHOREF
  2

  9
$PUCSORTHOVIEW
 70
     0
  9
$PUCSORGTOP
 10
0.0
 20
0.0
 30
0.0
  9
$PUCSORGBOTTOM
 10
0.0
 20
0.0
 30
0.0
  9
$PUCSORGLEFT
 10
0.0
 20
0.0
 30
0.0
  9
$PUCSORGRIGHT
 10
0.0
 20
0.0
 30
0.0
  9
$PUCSORGFRONT
 10
0.0
 20
0.0
 30
0.0
  9
$PUCSORGBACK
 10
0.0
 20
0.0
 30
0.0
  9
$USERI1
 70
     0
  9
$USERI2
 70
     0
  9
$USERI3
 70
     0
  9
$USERI4
 70
     0
  9
$USERI5
 70
     0
  9
$USERR1
 40
0.0
  9
$USERR2
 40
0.0
  9
$USERR3
 40
0.0
  9
$USERR4
 40
0.0
  9
$USERR5
 40
0.0
  9
$WORLDVIEW
 70
     1
  9
$SHADEDGE
 70
     3
  9
$SHADEDIF
 70
    70
  9
$TILEMODE
 70
     1
  9
$MAXACTVP
 70
    64
  9
$PINSBASE
 10
0.0
 20
0.0
 30
0.0
  9
$PLIMCHECK
 70
     0
  9
$PEXTMIN
 10
1.0000000000E+20
 20
1.0000000000E+20
 30
1.0000000000E+20
  9
$PEXTMAX
 10
-1.0000000000E+20
 20
-1.0000000000E+20
 30
-1.0000000000E+20
  9
$PLIMMIN
 10
0.0
 20
0.0
  9
$PLIMMAX
 10
420.0
 20
297.0
  9
$UNITMODE
 70
     0
  9
$VISRETAIN
 70
     1
  9
$PLINEGEN
 70
     0
  9
$PSLTSCALE
 70
     1
  9
$TREEDEPTH
 70
  3020
  9
$CMLSTYLE
  2
Standard
  9
$CMLJUST
 70
     0
  9
$CMLSCALE
 40
20.0
  9
$PROXYGRAPHICS
 70
     1
  9
$MEASUREMENT
 70
     1
  9
$CELWEIGHT
370
    -1
  9
$ENDCAPS
280
     0
  9
$JOINSTYLE
280
     0
  9
$LWDISPLAY
290
     1
  9
$INSUNITS
 70
     4
  9
$HYPERLINKBASE
  1

  9
$STYLESHEET
  1

  9
$XEDIT
290
     1
  9
$CEPSNTYPE
380
     0
  9
$PSTYLEMODE
290
     1
  9
$FINGERPRINTGUID
  2
{14CADF0C-D083-4B8C-8963-AA640B20A391}
  9
$VERSIONGUID
  2
{FAEB1C32-E019-11D5-929B-00C0DF256EC4}
  9
$EXTNAMES
290
     1
  9
$PSVPSCALE
 40
0.0
  9
$OLESTARTUP
290
     0
  0
ENDSEC
  0
SECTION
  2
CLASSES
  0
CLASS
  1
ACDBDICTIONARYWDFLT
  2
AcDbDictionaryWithDefault
  3
ObjectDBX Classes
 90
        0
280
     0
281
     0
  0
CLASS
  1
VISUALSTYLE
  2
AcDbVisualStyle
  3
ObjectDBX Classes
 90
     4095
280
     0
281
     0
  0
CLASS
  1
DICTIONARYVAR
  2
AcDbDictionaryVar
  3
ObjectDBX Classes
 90
        0
280
     0
281
     0
  0
CLASS
  1
ACDBPLACEHOLDER
  2
AcDbPlaceHolder
  3
ObjectDBX Classes
 90
        0
280
     0
281
     0
  0
CLASS
  1
LAYOUT
  2
AcDbLayout
  3
ObjectDBX Classes
 90
        0
280
     0
281
     0
  0
ENDSEC
  0
SECTION
  2
TABLES
  0
TABLE
  2
VPORT
  5
8
330
0
100
AcDbSymbolTable
 70
     1
  0
VPORT
  5
29
330
8
100
AcDbSymbolTableRecord
100
AcDbViewportTableRecord
  2
*Active
 70
     0
 10
0.0
 20
0.0
 11
1.0
 21
1.0
 12
148.5
 22
105.0
 13
0.0
 23
0.0
 14
10.0
 24
10.0
 15
10.0
 25
10.0
 16
0.0
 26
0.0
 36
1.0
 17
0.0
 27
0.0
 37
0.0
 40
210.0
 41
1.4142857143
 42
50.0
 43
0.0
 44
0.0
 50
0.0
 51
0.0
 71
     0
 72
  2000
 73
     1
 74
     3
 75
     0
 76
     0
 77
     0
 78
     0
281
     0
 65
     1
110
0.0
120
0.0
130
0.0
111
1.0
121
0.0
131
0.0
112
0.0
122
1.0
132
0.0
 79
     0
146
0.0
  0
ENDTAB
  0
TABLE
  2
LTYPE
  5
5
330
0
100
AcDbSymbolTable
 70
     6
  0
LTYPE
  5
14
330
5
100
AcDbSymbolTableRecord
100
AcDbLinetypeTableRecord
  2
ByBlock
 70
     0
  3

 72
    65
 73
     0
 40
0.0
  0
LTYPE
  5
15
330
5
100
AcDbSymbolTableRecord
100
AcDbLinetypeTableRecord
  2
ByLayer
 70
     0
  3

 72
    65
 73
     0
 40
0.0
  0
LTYPE
  5
16
330
5
100
AcDbSymbolTableRecord
100
AcDbLinetypeTableRecord
  2
Continuous
 70
     0
  3
Solid line
 72
    65
 73
     0
 40
0.0
  0
LTYPE
  5
3B
330
5
100
AcDbSymbolTableRecord
100
AcDbLinetypeTableRecord
  2
HIDDEN
 70
     0
  3
Hidden __ __ __ __ __ __ __ __ __ __ __ __ __ __
 72
    65
 73
     2
 40
1.905
 49
1.27
 74
     0
 49
-0.635
 74
     0
  0
LTYPE
  5
3C
330
5
100
AcDbSymbolTableRecord
100
AcDbLinetypeTableRecord
  2
PHANTOM
 70
     0
  3
Phantom ______  __  __  ______  __  __  ______
 72
    65
 73
     6
 40
12.7
 49
6.35
 74
     0
 49
-1.27
 74
     0
 49
1.27
 74
     0
 49
-1.27
 74
     0
 49
1.27
 74
     0
 49
-1.27
 74
     0
  0
LTYPE
  5
3D
330
5
100
AcDbSymbolTableRecord
100
AcDbLinetypeTableRecord
  2
CENTER
 70
     0
  3
Center ____ _ ____ _ ____ _ ____ _ ____ _ ____
 72
    65
 73
     4
 40
10.16
 49
6.35
 74
     0
 49
-1.27
 74
     0
 49
1.27
 74
     0
 49
-1.27
 74
     0
  0
LTYPE
  5
3E
330
5
100
AcDbSymbolTableRecord
100
AcDbLinetypeTableRecord
  2
CENTERX2
 70
     0
  3
Center (2x) ________  __  ________  __  _____
 72
    65
 73
     4
 40
20.32
 49
12.7
 74
     0
 49
-2.54
 74
     0
 49
2.54
 74
     0
 49
-2.54
 74
     0
  0
LTYPE
  5
3F
330
5
100
AcDbSymbolTableRecord
100
AcDbLinetypeTableRecord
  2
DOT2
 70
     0
  3
Dot (.5x) ........................................
 72
    65
 73
     2
 40
0.635
 49
0.0
 74
     0
 49
-0.635
 74
     0
  0
ENDTAB
  0
TABLE
  2
LAYER
  5
2
330
0
100
AcDbSymbolTable
 70
     5
  0
LAYER
  5
10
330
2
100
AcDbSymbolTableRecord
100
AcDbLayerTableRecord
  2
0
 70
     0
 62
     7
  6
Continuous
370
    -3
390
F
  0
LAYER
  5
40
330
2
100
AcDbSymbolTableRecord
100
AcDbLayerTableRecord
  2
FORMAT
 70
     0
 62
     7
  6
Continuous
370
    -3
390
F
  0
LAYER
  5
41
330
2
100
AcDbSymbolTableRecord
100
AcDbLayerTableRecord
  2
VERMASSUNG
 70
     0
 62
     7
  6
Continuous
370
    -3
390
F
  0
LAYER
  5
42
330
2
100
AcDbSymbolTableRecord
100
AcDbLayerTableRecord
  2
KOPF_DÜNN
 70
     0
 62
     7
  6
Continuous
370
    -3
390
F
  0
LAYER
  5
43
330
2
100
AcDbSymbolTableRecord
100
AcDbLayerTableRecord
  2
KOPF_DICK
 70
     0
 62
     7
  6
Continuous
370
    15
390
F
  0
ENDTAB
  0
TABLE
  2
STYLE
  5
3
330
0
100
AcDbSymbolTable
 70
     3
  0
STYLE
  5
11
330
3
100
AcDbSymbolTableRecord
100
AcDbTextStyleTableRecord
  2
Standard
 70
     0
 40
0.0
 41
1.0
 50
0.0
 71
     0
 42
2.5
  3
txt
  4

  0
STYLE
  5
44
330
3
100
AcDbSymbolTableRecord
100
AcDbTextStyleTableRecord
  2
SLDTEXTSTYLE0
 70
     0
 40
0.0
 41
0.7
 50
0.0
 71
     0
 42
0.2
  3
TXT
  4

  0
STYLE
  5
48
330
3
100
AcDbSymbolTableRecord
100
AcDbTextStyleTableRecord
  2
SLDTEXTSTYLE1
 70
     0
 40
0.0
 41
0.6473684211
 50
0.0
 71
     0
 42
0.2
  3
TXT
  4

  0
ENDTAB
  0
TABLE
  2
VIEW
  5
6
330
0
100
AcDbSymbolTable
 70
     0
  0
ENDTAB
  0
TABLE
  2
UCS
  5
7
330
0
100
AcDbSymbolTable
 70
     0
  0
ENDTAB
  0
TABLE
  2
APPID
  5
9
330
0
100
AcDbSymbolTable
 70
     1
  0
APPID
  5
12
330
9
100
AcDbSymbolTableRecord
100
AcDbRegAppTableRecord
  2
ACAD
 70
     0
  0
ENDTAB
  0
TABLE
  2
DIMSTYLE
  5
A
330
0
100
AcDbSymbolTable
 70
     2
100
AcDbDimStyleTable
  0
DIMSTYLE
105
27
330
A
100
AcDbSymbolTableRecord
100
AcDbDimStyleTableRecord
  2
ISO-25
 70
     0
 41
2.5
 42
0.625
 43
3.75
 44
1.25
 73
     0
 74
     0
 77
     1
 78
     8
140
2.5
141
2.5
143
0.0393700787
147
0.625
171
     3
172
     1
271
     2
272
     2
274
     3
278
    44
283
     0
284
     8
340
11
  0
DIMSTYLE
105
1C3
102
{ACAD_REACTORS
330
1C2
330
1CF
330
1D9
330
1E3
330
1ED
330
1F8
102
}
330
A
100
AcDbSymbolTableRecord
100
AcDbDimStyleTableRecord
  2
SLDDIMSTYLE0
 70
     0
 41
3.0
 44
0.0
 45
0.000000001
 73
     0
 74
     0
 77
     1
 78
    12
140
2.0
147
0.5
173
     1
271
     2
272
     3
284
    12
340
44
  0
ENDTAB
  0
TABLE
  2
BLOCK_RECORD
  5
1
330
0
100
AcDbSymbolTable
 70
     7
  0
BLOCK_RECORD
  5
1F
330
1
100
AcDbSymbolTableRecord
100
AcDbBlockTableRecord
  2
*Model_Space
340
22
  0
BLOCK_RECORD
  5
1B
330
1
100
AcDbSymbolTableRecord
100
AcDbBlockTableRecord
  2
*Paper_Space
340
1E
  0
BLOCK_RECORD
  5
23
330
1
100
AcDbSymbolTableRecord
100
AcDbBlockTableRecord
  2
*Paper_Space0
340
26
  0
BLOCK_RECORD
  5
1C4
330
1
100
AcDbSymbolTableRecord
100
AcDbBlockTableRecord
  2
*D1
340
0
  0
BLOCK_RECORD
  5
1D0
330
1
100
AcDbSymbolTableRecord
100
AcDbBlockTableRecord
  2
*D2
340
0
  0
BLOCK_RECORD
  5
1DA
330
1
100
AcDbSymbolTableRecord
100
AcDbBlockTableRecord
  2
*D3
340
0
  0
BLOCK_RECORD
  5
1E4
330
1
100
AcDbSymbolTableRecord
100
AcDbBlockTableRecord
  2
*D4
340
0
  0
BLOCK_RECORD
  5
1EE
330
1
100
AcDbSymbolTableRecord
100
AcDbBlockTableRecord
  2
*D5
340
0
  0
BLOCK_RECORD
  5
1F9
330
1
100
AcDbSymbolTableRecord
100
AcDbBlockTableRecord
  2
*D6
340
0
  0
ENDTAB
  0
ENDSEC
  0
SECTION
  2
BLOCKS
  0
BLOCK
  5
20
330
1F
100
AcDbEntity
  8
0
100
AcDbBlockBegin
  2
*Model_Space
 70
     0
 10
0.0
 20
0.0
 30
0.0
  3
*Model_Space
  1

  0
ENDBLK
  5
21
330
1F
100
AcDbEntity
  8
0
100
AcDbBlockEnd
  0
BLOCK
  5
1C
330
1B
100
AcDbEntity
 67
     1
  8
0
100
AcDbBlockBegin
  2
*Paper_Space
 70
     0
 10
0.0
 20
0.0
 30
0.0
  3
*Paper_Space
  1

  0
ENDBLK
  5
1D
330
1B
100
AcDbEntity
 67
     1
  8
0
100
AcDbBlockEnd
  0
BLOCK
  5
24
330
23
100
AcDbEntity
  8
0
100
AcDbBlockBegin
  2
*Paper_Space0
 70
     0
 10
0.0
 20
0.0
 30
0.0
  3
*Paper_Space0
  1

  0
ENDBLK
  5
25
330
23
100
AcDbEntity
  8
0
100
AcDbBlockEnd
  0
BLOCK
  5
1C5
330
1C4
100
AcDbEntity
  8
0
100
AcDbBlockBegin
  2
*D1
 70
     1
 10
0.0
 20
0.0
 30
0.0
  3
*D1
  1

  0
SOLID
  5
1C7
330
1C4
100
AcDbEntity
  8
VERMASSUNG
100
AcDbTrace
 10
93.8913311103
 20
144.1015621508
 30
0.0
 11
93.4413311103
 21
141.1015621508
 31
0.0
 12
94.3413311103
 22
141.1015621508
 32
0.0
 13
94.3413311103
 23
141.1015621508
 33
0.0
  0
SOLID
  5
1C8
330
1C4
100
AcDbEntity
  8
VERMASSUNG
100
AcDbTrace
 10
93.8913311103
 20
81.1015621508
 30
0.0
 11
94.3413311103
 21
84.1015621508
 31
0.0
 12
93.4413311103
 22
84.1015621508
 32
0.0
 13
93.4413311103
 23
84.1015621508
 33
0.0
  0
LINE
  5
1C9
330
1C4
100
AcDbEntity
  8
VERMASSUNG
100
AcDbLine
 10
131.7265367101
 20
144.1015621508
 30
0.0
 11
92.8913311103
 21
144.1015621508
 31
0.0
  0
LINE
  5
1CA
330
1C4
100
AcDbEntity
  8
VERMASSUNG
100
AcDbLine
 10
131.7265367101
 20
81.1015621508
 30
0.0
 11
92.8913311103
 21
81.1015621508
 31
0.0
  0
LINE
  5
1CB
330
1C4
100
AcDbEntity
  8
VERMASSUNG
100
AcDbLine
 10
93.8913311103
 20
144.1015621508
 30
0.0
 11
93.8913311103
 21
81.1015621508
 31
0.0
  0
MTEXT
  5
1CC
330
1C4
100
AcDbEntity
  8
VERMASSUNG
100
AcDbMText
 10
91.1131956212
 20
103.4095047416
 30
0.0
 40
2.0
 41
0.0
 71
     1
 72
     1
  1
HSK A 
  7
SLDTEXTSTYLE0
 11
-7.044195017643634E-15
 21
1.0
 31
0.0
 73
     1
 44
1.0
  0
MTEXT
  5
1CD
330
1C4
100
AcDbEntity
  8
VERMASSUNG
100
AcDbMText
 10
91.3131956307
 20
112.4095052855
 30
0.0
 40
2.0
 41
0.0
 71
     1
 72
     1
  1
%%c
  7
SLDTEXTSTYLE0
 11
-7.044195017643634E-15
 21
1.0
 31
0.0
 73
     1
 44
1.0
  0
MTEXT
  5
1CE
330
1C4
100
AcDbEntity
  8
VERMASSUNG
100
AcDbMText
 10
91.3131957472
 20
116.0178319355
 30
0.0
 40
2.0
 41
0.0
 71
     1
 72
     1
  1
63
  7
SLDTEXTSTYLE0
 11
-7.044195017643634E-15
 21
1.0
 31
0.0
 73
     1
 44
1.0
  0
ENDBLK
  5
1C6
330
1C4
100
AcDbEntity
  8
0
100
AcDbBlockEnd
  0
BLOCK
  5
1D1
330
1D0
100
AcDbEntity
  8
0
100
AcDbBlockBegin
  2
*D2
 70
     1
 10
0.0
 20
0.0
 30
0.0
  3
*D2
  1

  0
SOLID
  5
1D3
330
1D0
100
AcDbEntity
  8
VERMASSUNG
100
AcDbTrace
 10
99.5265367101
 20
157.9602383532
 30
0.0
 11
102.5265367101
 21
157.5102383532
 31
0.0
 12
102.5265367101
 22
158.4102383532
 32
0.0
 13
102.5265367101
 23
158.4102383532
 33
0.0
  0
SOLID
  5
1D4
330
1D0
100
AcDbEntity
  8
VERMASSUNG
100
AcDbTrace
 10
196.4265367101
 20
157.9602383532
 30
0.0
 11
193.4265367101
 21
158.4102383532
 31
0.0
 12
193.4265367101
 22
157.5102383532
 32
0.0
 13
193.4265367101
 23
157.5102383532
 33
0.0
  0
LINE
  5
1D5
330
1D0
100
AcDbEntity
  8
VERMASSUNG
100
AcDbLine
 10
99.5265367101
 20
132.2922398972
 30
0.0
 11
99.5265367101
 21
158.9602383532
 31
0.0
  0
LINE
  5
1D6
330
1D0
100
AcDbEntity
  8
VERMASSUNG
100
AcDbLine
 10
196.4265367101
 20
123.8274216291
 30
0.0
 11
196.4265367101
 21
158.9602383532
 31
0.0
  0
LINE
  5
1D7
330
1D0
100
AcDbEntity
  8
VERMASSUNG
100
AcDbLine
 10
99.5265367101
 20
157.9602383532
 30
0.0
 11
196.4265367101
 21
157.9602383532
 31
0.0
  0
MTEXT
  5
1D8
330
1D0
100
AcDbEntity
  8
VERMASSUNG
100
AcDbMText
 10
145.5769397437
 20
160.5383737163
 30
0.0
 40
2.0
 41
0.0
 71
     1
 72
     1
  1
96.9
  7
SLDTEXTSTYLE0
 73
     1
 44
1.0
  0
ENDBLK
  5
1D2
330
1D0
100
AcDbEntity
  8
0
100
AcDbBlockEnd
  0
BLOCK
  5
1DB
330
1DA
100
AcDbEntity
  8
0
100
AcDbBlockBegin
  2
*D3
 70
     1
 10
0.0
 20
0.0
 30
0.0
  3
*D3
  1

  0
SOLID
  5
1DD
330
1DA
100
AcDbEntity
  8
VERMASSUNG
100
AcDbTrace
 10
131.4265367101
 20
151.9602383532
 30
0.0
 11
134.4265367101
 21
151.5102383532
 31
0.0
 12
134.4265367101
 22
152.4102383532
 32
0.0
 13
134.4265367101
 23
152.4102383532
 33
0.0
  0
SOLID
  5
1DE
330
1DA
100
AcDbEntity
  8
VERMASSUNG
100
AcDbTrace
 10
196.4265367101
 20
151.9602383532
 30
0.0
 11
193.4265367101
 21
152.4102383532
 31
0.0
 12
193.4265367101
 22
151.5102383532
 32
0.0
 13
193.4265367101
 23
151.5102383532
 33
0.0
  0
LINE
  5
1DF
330
1DA
100
AcDbEntity
  8
VERMASSUNG
100
AcDbLine
 10
131.4265367101
 20
143.8015621508
 30
0.0
 11
131.4265367101
 21
152.9602383532
 31
0.0
  0
LINE
  5
1E0
330
1DA
100
AcDbEntity
  8
VERMASSUNG
100
AcDbLine
 10
196.4265367101
 20
123.8274216291
 30
0.0
 11
196.4265367101
 21
152.9602383532
 31
0.0
  0
LINE
  5
1E1
330
1DA
100
AcDbEntity
  8
VERMASSUNG
100
AcDbLine
 10
131.4265367101
 20
151.9602383532
 30
0.0
 11
196.4265367101
 21
151.9602383532
 31
0.0
  0
MTEXT
  5
1E2
330
1DA
100
AcDbEntity
  8
VERMASSUNG
100
AcDbMText
 10
162.5271585953
 20
154.5383737163
 30
0.0
 40
2.0
 41
0.0
 71
     1
 72
     1
  1
65
  7
SLDTEXTSTYLE0
 73
     1
 44
1.0
  0
ENDBLK
  5
1DC
330
1DA
100
AcDbEntity
  8
0
100
AcDbBlockEnd
  0
BLOCK
  5
1E5
330
1E4
100
AcDbEntity
  8
0
100
AcDbBlockBegin
  2
*D4
 70
     1
 10
0.0
 20
0.0
 30
0.0
  3
*D4
  1

  0
SOLID
  5
1E7
330
1E4
100
AcDbEntity
  8
VERMASSUNG
100
AcDbTrace
 10
157.3765367101
 20
145.9602383532
 30
0.0
 11
160.3765367101
 21
145.5102383532
 31
0.0
 12
160.3765367101
 22
146.4102383532
 32
0.0
 13
160.3765367101
 23
146.4102383532
 33
0.0
  0
SOLID
  5
1E8
330
1E4
100
AcDbEntity
  8
VERMASSUNG
100
AcDbTrace
 10
196.4265367101
 20
145.9602383532
 30
0.0
 11
193.4265367101
 21
146.4102383532
 31
0.0
 12
193.4265367101
 22
145.5102383532
 32
0.0
 13
193.4265367101
 23
145.5102383532
 33
0.0
  0
LINE
  5
1E9
330
1E4
100
AcDbEntity
  8
VERMASSUNG
100
AcDbLine
 10
157.3765367101
 20
142.4480024745
 30
0.0
 11
157.3765367101
 21
146.9602383532
 31
0.0
  0
LINE
  5
1EA
330
1E4
100
AcDbEntity
  8
VERMASSUNG
100
AcDbLine
 10
196.4265367101
 20
123.8274216291
 30
0.0
 11
196.4265367101
 21
146.9602383532
 31
0.0
  0
LINE
  5
1EB
330
1E4
100
AcDbEntity
  8
VERMASSUNG
100
AcDbLine
 10
157.3765367101
 20
145.9602383532
 30
0.0
 11
196.4265367101
 21
145.9602383532
 31
0.0
  0
MTEXT
  5
1EC
330
1E4
100
AcDbEntity
  8
VERMASSUNG
100
AcDbMText
 10
173.8022506863
 20
148.5383737163
 30
0.0
 40
2.0
 41
0.0
 71
     1
 72
     1
  1
39.05
  7
SLDTEXTSTYLE0
 73
     1
 44
1.0
  0
ENDBLK
  5
1E6
330
1E4
100
AcDbEntity
  8
0
100
AcDbBlockEnd
  0
BLOCK
  5
1EF
330
1EE
100
AcDbEntity
  8
0
100
AcDbBlockBegin
  2
*D5
 70
     1
 10
0.0
 20
0.0
 30
0.0
  3
*D5
  1

  0
SOLID
  5
1F1
330
1EE
100
AcDbEntity
  8
VERMASSUNG
100
AcDbTrace
 10
203.6061959325
 20
117.6015621508
 30
0.0
 11
203.1561959325
 21
114.6015621508
 31
0.0
 12
204.0561959325
 22
114.6015621508
 32
0.0
 13
204.0561959325
 23
114.6015621508
 33
0.0
  0
SOLID
  5
1F2
330
1EE
100
AcDbEntity
  8
VERMASSUNG
100
AcDbTrace
 10
203.6061959325
 20
107.6015621508
 30
0.0
 11
204.0561959325
 21
110.6015621508
 31
0.0
 12
203.1561959325
 22
110.6015621508
 32
0.0
 13
203.1561959325
 23
110.6015621508
 33
0.0
  0
LINE
  5
1F3
330
1EE
100
AcDbEntity
  8
VERMASSUNG
100
AcDbLine
 10
196.1265367101
 20
117.6015621508
 30
0.0
 11
204.6061959325
 21
117.6015621508
 31
0.0
  0
LINE
  5
1F4
330
1EE
100
AcDbEntity
  8
VERMASSUNG
100
AcDbLine
 10
196.1265367101
 20
107.6015621508
 30
0.0
 11
204.6061959325
 21
107.6015621508
 31
0.0
  0
LINE
  5
1F5
330
1EE
100
AcDbEntity
  8
VERMASSUNG
100
AcDbLine
 10
203.6061959325
 20
117.6015621508
 30
0.0
 11
203.6061959325
 21
107.6015621508
 31
0.0
  0
MTEXT
  5
1F6
330
1EE
100
AcDbEntity
  8
VERMASSUNG
100
AcDbMText
 10
201.028060453
 20
109.597424556
 30
0.0
 40
2.0
 41
0.0
 71
     1
 72
     1
  1
%%c
  7
SLDTEXTSTYLE0
 11
-7.044195017643634E-15
 21
1.0
 31
0.0
 73
     1
 44
1.0
  0
MTEXT
  5
1F7
330
1EE
100
AcDbEntity
  8
VERMASSUNG
100
AcDbMText
 10
201.0280605694
 20
113.2061027791
 30
0.0
 40
2.0
 41
0.0
 71
     1
 72
     1
  1
10
  7
SLDTEXTSTYLE0
 11
-7.044195017643634E-15
 21
1.0
 31
0.0
 73
     1
 44
1.0
  0
ENDBLK
  5
1F0
330
1EE
100
AcDbEntity
  8
0
100
AcDbBlockEnd
  0
BLOCK
  5
1FA
330
1F9
100
AcDbEntity
  8
0
100
AcDbBlockBegin
  2
*D6
 70
     1
 10
0.0
 20
0.0
 30
0.0
  3
*D6
  1

  0
SOLID
  5
1FC
330
1F9
100
AcDbEntity
  8
VERMASSUNG
100
AcDbTrace
 10
209.6061959325
 20
130.1015621508
 30
0.0
 11
209.1561959325
 21
127.1015621508
 31
0.0
 12
210.0561959325
 22
127.1015621508
 32
0.0
 13
210.0561959325
 23
127.1015621508
 33
0.0
  0
SOLID
  5
1FD
330
1F9
100
AcDbEntity
  8
VERMASSUNG
100
AcDbTrace
 10
209.6061959325
 20
95.1015621508
 30
0.0
 11
210.0561959325
 21
98.1015621508
 31
0.0
 12
209.1561959325
 22
98.1015621508
 32
0.0
 13
209.1561959325
 23
98.1015621508
 33
0.0
  0
LINE
  5
1FE
330
1F9
100
AcDbEntity
  8
VERMASSUNG
100
AcDbLine
 10
185.7040021076
 20
130.1015621508
 30
0.0
 11
210.6061959325
 21
130.1015621508
 31
0.0
  0
LINE
  5
1FF
330
1F9
100
AcDbEntity
  8
VERMASSUNG
100
AcDbLine
 10
185.7040021076
 20
95.1015621508
 30
0.0
 11
210.6061959325
 21
95.1015621508
 31
0.0
  0
LINE
  5
200
330
1F9
100
AcDbEntity
  8
VERMASSUNG
100
AcDbLine
 10
209.6061959325
 20
130.1015621508
 30
0.0
 11
209.6061959325
 21
95.1015621508
 31
0.0
  0
MTEXT
  5
201
330
1F9
100
AcDbEntity
  8
VERMASSUNG
100
AcDbMText
 10
207.028060453
 20
109.3978449243
 30
0.0
 40
2.0
 41
0.0
 71
     1
 72
     1
  1
%%c
  7
SLDTEXTSTYLE0
 11
-7.044195017643634E-15
 21
1.0
 31
0.0
 73
     1
 44
1.0
  0
MTEXT
  5
202
330
1F9
100
AcDbEntity
  8
VERMASSUNG
100
AcDbMText
 10
207.0280605694
 20
113.0065231475
 30
0.0
 40
2.0
 41
0.0
 71
     1
 72
     1
  1
35
  7
SLDTEXTSTYLE0
 11
-7.044195017643634E-15
 21
1.0
 31
0.0
 73
     1
 44
1.0
  0
ENDBLK
  5
1FB
330
1F9
100
AcDbEntity
  8
0
100
AcDbBlockEnd
  0
ENDSEC
  0
SECTION
  2
ENTITIES
  0
MTEXT
  5
45
330
1F
100
AcDbEntity
  8
KOPF_DÜNN
100
AcDbMText
 10
13.8892156294
 20
23.8442973028
 30
0.0
 40
3.0
 41
0.0
 71
     1
 72
     1
  1
HA6.W10.K21.065
  7
SLDTEXTSTYLE0
 73
     1
 44
1.0
  0
MTEXT
  5
46
330
1F
100
AcDbEntity
  8
VERMASSUNG
100
AcDbMText
 10
13.9329988022
 20
28.8834360957
 30
0.0
 40
3.0
 41
0.0
 71
     1
 72
     1
  1
Flächenspannfutter_End mill adapter Weldon ø10
  7
SLDTEXTSTYLE0
 73
     1
 44
1.0
  0
MTEXT
  5
47
330
1F
100
AcDbEntity
  8
VERMASSUNG
100
AcDbMText
 10
98.8601118557
 20
13.8365368179
 30
0.0
 40
2.0
 41
0.0
 71
     1
 72
     1
  1
Datum: 09.10.2006
  7
SLDTEXTSTYLE0
 73
     1
 44
1.0
  0
MTEXT
  5
49
330
1F
100
AcDbEntity
  8
VERMASSUNG
100
AcDbMText
 10
13.933048693
 20
18.0482802738
 30
0.0
 40
2.0
 41
0.0
 71
     1
 72
     1
  1
DIN 69 893 HSK A 63
  7
SLDTEXTSTYLE1
 73
     1
 44
1.0
  0
MTEXT
  5
4A
330
1F
100
AcDbEntity
  8
VERMASSUNG
100
AcDbMText
 10
13.9808475933
 20
13.9090973692
 30
0.0
 40
2.0
 41
0.0
 71
     1
 72
     1
  1
Gewicht: 873g
  7
SLDTEXTSTYLE0
 73
     1
 44
1.0
  0
ARC
  5
4B
330
1F
100
AcDbEntity
  8
0
  6
Continuous
 62
     7
370
    15
100
AcDbCircle
 10
131.7265367101
 20
81.4015621508
 30
0.0
 40
0.3000000000000114
100
AcDbArc
 50
180.0
 51
270.0
  0
ARC
  5
4C
330
1F
100
AcDbEntity
  8
0
  6
Continuous
 62
     7
370
    15
100
AcDbCircle
 10
131.7265367101
 20
143.8015621508
 30
0.0
 40
0.3000000000000114
100
AcDbArc
 50
90.0
 51
180.0
  0
LINE
  5
4D
330
1F
100
AcDbEntity
  8
0
  6
Continuous
 62
     7
370
    15
100
AcDbLine
 10
131.7265367244
 20
81.1015616441
 30
0.0
 11
136.3765366833
 21
81.1015616441
 31
0.0
  0
LINE
  5
4E
330
1F
100
AcDbEntity
  8
0
  6
Continuous
 62
     7
370
    15
100
AcDbLine
 10
136.404525255
 20
144.1015626574
 30
0.0
 11
131.7265367244
 21
144.1015626574
 31
0.0
  0
ARC
  5
4F
330
1F
100
AcDbEntity
  8
0
  6
Continuous
 62
     7
370
    15
100
AcDbCircle
 10
130.9265299575
 20
88.0311245364
 30
0.0
 40
0.60000675266771
100
AcDbArc
 50
33.5571153394
 51
90.0
  0
ARC
  5
50
330
1F
100
AcDbEntity
  8
0
  6
Continuous
 62
     7
370
    15
100
AcDbCircle
 10
130.9265299575
 20
137.1719997651
 30
0.0
 40
0.6000067526677242
100
AcDbArc
 50
270.0
 51
326.4428846606
  0
LINE
  5
51
330
1F
100
AcDbEntity
  8
0
  6
Continuous
 62
     7
370
    15
100
AcDbLine
 10
129.4265366151
 20
88.3811309272
 30
0.0
 11
130.2832495413
 21
88.6106870407
 31
0.0
  0
LINE
  5
52
330
1F
100
AcDbEntity
  8
0
  6
Continuous
 62
     7
370
    15
100
AcDbLine
 10
130.2832495413
 20
136.5924372608
 30
0.0
 11
129.4265366151
 21
136.8219933743
 31
0.0
  0
LINE
  5
53
330
1F
100
AcDbEntity
  8
0
  6
Continuous
 62
     7
370
    15
100
AcDbLine
 10
118.1950282763
 20
136.259292
 30
0.0
 11
105.6265358339
 21
135.6296080435
 31
0.0
  0
LINE
  5
54
330
1F
100
AcDbEntity
  8
0
  6
Continuous
 62
     7
370
    15
100
AcDbLine
 10
129.4265366151
 20
136.8219933743
 30
0.0
 11
126.6095351885
 21
136.6808607513
 31
0.0
  0
LINE
  5
55
330
1F
100
AcDbEntity
  8
0
  6
Continuous
 62
     7
370
    15
100
AcDbLine
 10
126.6095910679
 20
88.5222616876
 30
0.0
 11
129.4265366151
 21
88.3811309272
 31
0.0
  0
LINE
  5
56
330
1F
100
AcDbEntity
  8
0
  6
Continuous
 62
     7
370
    15
100
AcDbLine
 10
109.6265364896
 20
89.3731161291
 30
0.0
 11
118.1954306077
 21
88.9438118124
 31
0.0
  0
ARC
  5
57
330
1F
100
AcDbEntity
  8
0
  6
Continuous
 62
     7
370
    15
100
AcDbCircle
 10
130.4385409106
 20
88.031131289
 30
0.0
 40
0.6000000000000085
100
AcDbArc
 50
90.0
 51
105.0
  0
ARC
  5
58
330
1F
100
AcDbEntity
  8
0
  6
Continuous
 62
     7
370
    15
100
AcDbCircle
 10
130.4385409106
 20
137.1719930125
 30
0.0
 40
0.5999999999999943
100
AcDbArc
 50
255.0
 51
270.0
  0
LINE
  5
59
330
1F
100
AcDbEntity
  8
0
  6
Continuous
 62
     7
370
    15
100
AcDbLine
 10
130.4385409449
 20
88.6311314339
 30
0.0
 11
130.9265299343
 21
88.6311314339
 31
0.0
  0
LINE
  5
5A
330
1F
100
AcDbEntity
  8
0
  6
Continuous
 62
     7
370
    15
100
AcDbLine
 10
130.9265299343
 20
136.5719928676
 30
0.0
 11
130.4385409449
 21
136.5719928676
 31
0.0
  0
ARC
  5
5B
330
1F
100
AcDbEntity
  8
0
  6
Continuous
 62
     7
370
    15
100
AcDbCircle
 10
158.0765367101
 20
94.4015621508
 30
0.0
 40
0.7000000000000028
100
AcDbArc
 50
90.0
 51
180.0
  0
ARC
  5
5C
330
1F
100
AcDbEntity
  8
0
  6
Continuous
 62
     7
370
    15
100
AcDbCircle
 10
158.0765367101
 20
130.8015621508
 30
0.0
 40
0.700000000000017
100
AcDbArc
 50
180.0
 51
270.0
  0
LINE
  5
5D
330
1F
100
AcDbEntity
  8
0
  6
Continuous
 62
     7
370
    15
100
AcDbLine
 10
169.5702981661
 20
95.1015620762
 30
0.0
 11
185.7040014575
 21
95.1015620762
 31
0.0
  0
LINE
  5
5E
330
1F
100
AcDbEntity
  8
0
  6
Continuous
 62
     7
370
    15
100
AcDbLine
 10
158.0765370737
 20
95.1015620762
 30
0.0
 11
162.6181129824
 21
95.1015620762
 31
0.0
  0
LINE
  5
5F
330
1F
100
AcDbEntity
  8
0
  6
Continuous
 62
     7
370
    15
100
AcDbLine
 10
162.6030758481
 20
130.1015622253
 30
0.0
 11
158.0765370737
 21
130.1015622253
 31
0.0
  0
LINE
  5
60
330
1F
100
AcDbEntity
  8
0
  6
Continuous
 62
     7
370
    15
100
AcDbLine
 10
185.7040014575
 20
130.1015622253
 30
0.0
 11
169.5416842113
 21
130.1015622253
 31
0.0
  0
LINE
  5
61
330
1F
100
AcDbEntity
  8
0
  6
Continuous
 62
     7
370
    15
100
AcDbLine
 10
185.7040014575
 20
95.1015620762
 30
0.0
 11
195.2717762898
 21
99.5630870843
 31
0.0
  0
LINE
  5
62
330
1F
100
AcDbEntity
  8
0
  6
Continuous
 62
     7
370
    15
100
AcDbLine
 10
195.2717762898
 20
125.6400372172
 30
0.0
 11
185.7040014575
 21
130.1015622253
 31
0.0
  0
ARC
  5
63
330
1F
100
AcDbEntity
  8
0
  6
Continuous
 62
     7
370
    15
100
AcDbCircle
 10
194.4265367101
 20
101.3757026724
 30
0.0
 40
2.000000000000001
100
AcDbArc
 50
295.0
 51
0.0
  0
ARC
  5
64
330
1F
100
AcDbEntity
  8
0
  6
Continuous
 62
     7
370
    15
100
AcDbCircle
 10
194.4265367101
 20
123.8274216291
 30
0.0
 40
2.000000000000014
100
AcDbArc
 50
0.0
 51
65.0
  0
LINE
  5
65
330
1F
100
AcDbEntity
  8
0
  6
Continuous
 62
     7
370
    15
100
AcDbLine
 10
100.8098733138
 20
91.7315620268
 30
0.0
 11
108.2265370052
 21
91.7315620268
 31
0.0
  0
ARC
  5
66
330
1F
100
AcDbEntity
  8
0
  6
Continuous
 62
     7
370
    15
100
AcDbCircle
 10
108.2265367101
 20
90.3315621508
 30
0.0
 40
1.400000000000006
100
AcDbArc
 50
42.2465410162
 51
90.0
  0
LINE
  5
67
330
1F
100
AcDbEntity
  8
0
  6
Continuous
 62
     7
370
    15
100
AcDbLine
 10
99.5275687884
 20
92.8805290991
 30
0.0
 11
100.6676994722
 21
91.7403984154
 31
0.0
  0
LINE
  5
68
330
1F
100
AcDbEntity
  8
0
  6
Continuous
 62
     7
370
    15
100
AcDbLine
 10
100.6676994722
 20
133.4627258861
 30
0.0
 11
99.5364387046
 21
132.3314632559
 31
0.0
  0
ARC
  5
69
330
1F
100
AcDbEntity
  8
0
  6
Continuous
 62
     7
370
    15
100
AcDbCircle
 10
104.2265367101
 20
134.8715621508
 30
0.0
 40
1.400000000000008
100
AcDbArc
 50
270.0
 51
301.7485287426
  0
LINE
  5
6A
330
1F
100
AcDbEntity
  8
0
  6
Continuous
 62
     7
370
    15
100
AcDbLine
 10
104.2265363495
 20
133.4715622747
 30
0.0
 11
100.8008022319
 21
133.4715622747
 31
0.0
  0
LINE
  5
6B
330
1F
100
AcDbEntity
  8
0
  6
Continuous
 62
     7
370
    15
100
AcDbLine
 10
196.4325469445
 20
120.1839146474
 30
0.0
 11
196.4265343259
 21
120.1950458148
 31
0.0
  0
LINE
  5
6C
330
1F
100
AcDbEntity
  8
0
  6
Continuous
 62
     7
370
    15
100
AcDbLine
 10
196.4265343259
 20
104.9006653288
 30
0.0
 11
196.4914363335
 21
105.0208459878
 31
0.0
  0
CIRCLE
  5
6D
330
1F
100
AcDbEntity
  8
0
  6
Continuous
 62
     7
370
    15
100
AcDbCircle
 10
177.2265367101
 20
112.6015621508
 30
0.0
 40
4.200000000000009
  0
LINE
  5
6E
330
1F
100
AcDbEntity
  8
0
  6
Continuous
 62
     7
370
    15
100
AcDbLine
 10
174.3944261681
 20
113.160555115
 30
0.0
 11
176.2945812653
 21
115.3337398814
 31
0.0
  0
LINE
  5
6F
330
1F
100
AcDbEntity
  8
0
  6
Continuous
 62
     7
370
    15
100
AcDbLine
 10
175.3263783167
 20
110.4283775007
 30
0.0
 11
174.3944261681
 21
113.160555115
 31
0.0
  0
LINE
  5
70
330
1F
100
AcDbEntity
  8
0
  6
Continuous
 62
     7
370
    15
100
AcDbLine
 10
179.1266959618
 20
114.7747468008
 30
0.0
 11
176.2945812653
 21
115.3337398814
 31
0.0
  0
LINE
  5
71
330
1F
100
AcDbEntity
  8
0
  6
Continuous
 62
     7
370
    15
100
AcDbLine
 10
180.0586481105
 20
112.0425691865
 30
0.0
 11
178.1584892879
 21
109.8693844201
 31
0.0
  0
LINE
  5
72
330
1F
100
AcDbEntity
  8
0
  6
Continuous
 62
     7
370
    15
100
AcDbLine
 10
175.3263783167
 20
110.4283775007
 30
0.0
 11
178.1584892879
 21
109.8693844201
 31
0.0
  0
LINE
  5
73
330
1F
100
AcDbEntity
  8
0
  6
Continuous
 62
     7
370
    15
100
AcDbLine
 10
180.0586481105
 20
112.0425691865
 30
0.0
 11
179.1266959618
 21
114.7747468008
 31
0.0
  0
LINE
  5
74
330
1F
100
AcDbEntity
  8
0
  6
Continuous
 62
     7
370
    15
100
AcDbLine
 10
156.7765374194
 20
82.4146445179
 30
0.0
 11
152.8184686314
 21
82.4146445179
 31
0.0
  0
LINE
  5
75
330
1F
100
AcDbEntity
  8
0
  6
Continuous
 62
     7
370
    15
100
AcDbLine
 10
152.8184686314
 20
82.4146445179
 30
0.0
 11
152.8184686314
 21
132.4515628899
 31
0.0
  0
LINE
  5
76
330
1F
100
AcDbEntity
  8
0
  6
Continuous
 62
     7
370
    15
100
AcDbLine
 10
152.8184686314
 20
132.4515628899
 30
0.0
 11
156.7765374194
 21
132.4515628899
 31
0.0
  0
LINE
  5
77
330
1F
100
AcDbEntity
  8
0
  6
Continuous
 62
     7
370
    15
100
AcDbLine
 10
131.4265367101
 20
81.4015629971
 30
0.0
 11
131.4265367101
 21
143.8015613044
 31
0.0
  0
SPLINE
  5
78
330
1F
100
AcDbEntity
  8
0
  6
Continuous
 62
     7
370
    15
100
AcDbSpline
210
0.0
220
0.0
230
1.0
 70
     8
 71
     3
 72
    70
 73
    66
 74
     0
 42
0.00000001
 43
0.00000001
 40
-0.0312499999999999
 40
-0.0312499999999999
 40
0.0
 40
0.0
 40
0.0312500000000001
 40
0.0312500000000001
 40
0.0625000000000001
 40
0.0625000000000001
 40
0.0937500000000002
 40
0.0937500000000002
 40
0.1250000000000002
 40
0.1250000000000002
 40
0.1562500000000003
 40
0.1562500000000003
 40
0.1875000000000003
 40
0.1875000000000003
 40
0.2187500000000004
 40
0.2187500000000004
 40
0.2500000000000004
 40
0.2500000000000004
 40
0.2812500000000005
 40
0.2812500000000005
 40
0.3125000000000006
 40
0.3125000000000006
 40
0.3437500000000006
 40
0.3437500000000006
 40
0.3750000000000007
 40
0.3750000000000007
 40
0.4062500000000007
 40
0.4062500000000007
 40
0.4375000000000008
 40
0.4375000000000008
 40
0.4687500000000008
 40
0.4687500000000008
 40
0.5000000000000009
 40
0.5000000000000009
 40
0.5312500000000009
 40
0.5312500000000009
 40
0.562500000000001
 40
0.562500000000001
 40
0.5937500000000011
 40
0.5937500000000011
 40
0.6250000000000011
 40
0.6250000000000011
 40
0.6562500000000011
 40
0.6562500000000011
 40
0.6875000000000012
 40
0.6875000000000012
 40
0.7187500000000013
 40
0.7187500000000013
 40
0.7500000000000013
 40
0.7500000000000013
 40
0.7812500000000011
 40
0.7812500000000011
 40
0.812500000000001
 40
0.812500000000001
 40
0.8437500000000008
 40
0.8437500000000008
 40
0.8750000000000007
 40
0.8750000000000007
 40
0.9062500000000004
 40
0.9062500000000004
 40
0.9375000000000003
 40
0.9375000000000003
 40
0.9687500000000001
 40
0.9687500000000001
 40
1.0
 40
1.0
 40
1.03125
 40
1.03125
 10
135.4265367101192
 20
140.0136348619824
 30
0.0
 10
135.4265367101192
 20
139.7490898779435
 30
0.0
 10
135.4525217855031
 20
139.6161707335196
 30
0.0
 10
135.5542866880872
 20
139.3494026451133
 30
0.0
 10
135.6313210738932
 20
139.2140874902648
 30
0.0
 10
135.8321873613303
 20
138.9515212180827
 30
0.0
 10
135.9550664099217
 20
138.8245932145207
 30
0.0
 10
136.2453310719854
 20
138.5806789227056
 30
0.0
 10
136.4141046478373
 20
138.4633017544253
 30
0.0
 10
136.7827426691236
 20
138.2502447039231
 30
0.0
 10
136.9839357170761
 20
138.1531785468423
 30
0.0
 10
137.4210732423303
 20
137.9800900840593
 30
0.0
 10
137.6534879099537
 20
137.9057509032205
 30
0.0
 10
138.134672132066
 20
137.7855489399631
 30
0.0
 10
138.387007138024
 20
137.7388120784905
 30
0.0
 10
138.9034520037117
 20
137.6762032472166
 30
0.0
 10
139.1631572517641
 20
137.6606146998568
 30
0.0
 10
139.6854643089171
 20
137.6604371478858
 30
0.0
 10
139.9507706242312
 20
137.6763619115953
 30
0.0
 10
140.4639767143604
 20
137.738539449265
 30
0.0
 10
140.7134441526722
 20
137.7844580925459
 30
0.0
 10
141.198046762164
 20
137.9052210138307
 30
0.0
 10
141.4319164209485
 20
137.9801679131463
 30
0.0
 10
141.8650587422037
 20
138.151453514639
 30
0.0
 10
142.0672356579695
 20
138.2485111699591
 30
0.0
 10
142.4405104502792
 20
138.4641377103103
 30
0.0
 10
142.6058327444291
 20
138.5793150443433
 30
0.0
 10
142.8955477317644
 20
138.822289453842
 30
0.0
 10
143.020950997395
 20
138.9515971772471
 30
0.0
 10
143.221766445407
 20
139.2141148500826
 30
0.0
 10
143.2975510025129
 20
139.3468668356549
 30
0.0
 10
143.4001607212452
 20
139.6144535295934
 30
0.0
 10
143.4264382541033
 20
139.750016074546
 30
0.0
 10
143.4266346009248
 20
140.0112049939474
 30
0.0
 10
143.4014013547071
 20
140.1382804124771
 30
0.0
 10
143.29900086879
 20
140.3855384758476
 30
0.0
 10
143.2223125717308
 20
140.5035335127271
 30
0.0
 10
143.0230964614144
 20
140.7240298616697
 30
0.0
 10
142.8989898274099
 20
140.8282192909537
 30
0.0
 10
142.6071134794083
 20
141.0200064105274
 30
0.0
 10
142.4418411752264
 20
141.1063712533893
 30
0.0
 10
142.0734580720427
 20
141.2621237861628
 30
0.0
 10
141.8679481654152
 20
141.3319878179654
 30
0.0
 10
141.433843821483
 20
141.4505174373418
 30
0.0
 10
141.2043585338557
 20
141.4998754724794
 30
0.0
 10
140.7201458564951
 20
141.5799558387816
 30
0.0
 10
140.4661525307231
 20
141.6102592727497
 30
0.0
 10
139.9547743945969
 20
141.6502527501644
 30
0.0
 10
139.6946443705298
 20
141.6604321368716
 30
0.0
 10
139.1656401566379
 20
141.6606176895154
 30
0.0
 10
138.9055524258508
 20
141.6506274447644
 30
0.0
 10
138.393834903142
 20
141.6109873126313
 30
0.0
 10
138.1395237854088
 20
141.5808373228306
 30
0.0
 10
137.6551459394432
 20
141.5011429134673
 30
0.0
 10
137.4253811826805
 20
141.4519577019517
 30
0.0
 10
136.9904191258072
 20
141.3336664455672
 30
0.0
 10
136.7847428636775
 20
141.2639930943671
 30
0.0
 10
136.4159000185514
 20
141.1086355641524
 30
0.0
 10
136.2502163008971
 20
141.0224145504185
 30
0.0
 10
135.957314883897
 20
140.8307213402904
 30
0.0
 10
135.8331041519713
 20
140.7268832049407
 30
0.0
 10
135.6330956000496
 20
140.5067091460678
 30
0.0
 10
135.5559580504632
 20
140.3888889404354
 30
0.0
 10
135.4525250201924
 20
140.1415107152941
 30
0.0
 10
135.4265367101192
 20
140.0136348619824
 30
0.0
 10
135.4265367101192
 20
139.7490898779435
 30
0.0
  0
LINE
  5
79
330
1F
100
AcDbEntity
  8
0
  6
Continuous
 62
     7
370
    15
100
AcDbLine
 10
136.3765366833
 20
132.4515628899
 30
0.0
 11
146.0346041705
 21
132.4515628899
 31
0.0
  0
LINE
  5
7A
330
1F
100
AcDbEntity
  8
0
  6
Continuous
 62
     7
370
    15
100
AcDbLine
 10
146.0346041705
 20
82.4146445179
 30
0.0
 11
146.0346041705
 21
132.4515628899
 31
0.0
  0
LINE
  5
7B
330
1F
100
AcDbEntity
  8
0
  6
Continuous
 62
     7
370
    15
100
AcDbLine
 10
146.0346041705
 20
82.4146445179
 30
0.0
 11
144.3765370633
 21
82.4146445179
 31
0.0
  0
SPLINE
  5
7C
330
1F
100
AcDbEntity
  8
0
  6
Continuous
 62
     7
370
    15
100
AcDbSpline
210
0.0
220
0.0
230
1.0
 70
     8
 71
     3
 72
    28
 73
    24
 74
     0
 42
0.00000001
 43
0.00000001
 40
0.0
 40
0.0
 40
0.0
 40
0.0
 40
0.1250000000000001
 40
0.1250000000000001
 40
0.1875000000000001
 40
0.1875000000000001
 40
0.2500000000000001
 40
0.2500000000000001
 40
0.3749999999999999
 40
0.3749999999999999
 40
0.4375
 40
0.4375
 40
0.4999999999999999
 40
0.4999999999999999
 40
0.6249999999999999
 40
0.6249999999999999
 40
0.7499999999999997
 40
0.7499999999999997
 40
0.8124999999999998
 40
0.8124999999999998
 40
0.8749999999999998
 40
0.8749999999999998
 40
1.0
 40
1.0
 40
1.0
 40
1.0
 10
144.3765367101192
 20
82.41464445450599
 30
0.0
 10
143.8448289526262
 20
82.414644454506
 30
0.0
 10
143.3225903873159
 20
82.39885974055578
 30
0.0
 10
142.5527199010409
 20
82.35386432647957
 30
0.0
 10
142.2983603288496
 20
82.33530933140385
 30
0.0
 10
141.7942387481511
 20
82.29145660895733
 30
0.0
 10
141.5445159307231
 20
82.26611200200513
 30
0.0
 10
140.8189259792767
 20
82.18270992425502
 30
0.0
 10
140.3605657176952
 20
82.11684436510394
 30
0.0
 10
139.7100677743013
 20
82.00787402461215
 30
0.0
 10
139.4983857235088
 20
81.96963438884549
 30
0.0
 10
139.0943142343708
 20
81.89187565142613
 30
0.0
 10
138.90180772055
 20
81.8523746892508
 30
0.0
 10
138.3519727495287
 20
81.7334669468848
 30
0.0
 10
138.0220439712199
 20
81.65364926546019
 30
0.0
 10
137.4375727026512
 20
81.50030610366413
 30
0.0
 10
137.1912955646378
 20
81.42897235039487
 30
0.0
 10
136.8914527719397
 20
81.33502884332025
 30
0.0
 10
136.8029959148675
 20
81.30583504996032
 30
0.0
 10
136.6496345615624
 20
81.25236847569691
 30
0.0
 10
136.5845463473361
 20
81.22800914142172
 30
0.0
 10
136.4289523313954
 20
81.16441899597699
 30
0.0
 10
136.3765367101192
 20
81.13431606088774
 30
0.0
 10
136.3765367101192
 20
81.11743916789082
 30
0.0
  0
LINE
  5
7D
330
1F
100
AcDbEntity
  8
0
  6
Continuous
 62
     7
370
    15
100
AcDbLine
 10
136.3765366833
 20
81.1174388314
 30
0.0
 11
136.3765366833
 21
81.1015616441
 31
0.0
  0
SPLINE
  5
7E
330
1F
100
AcDbEntity
  8
0
  6
Continuous
 62
     7
370
    15
100
AcDbSpline
210
0.0
220
0.0
230
1.0
 70
     8
 71
     3
 72
    17
 73
    13
 74
     0
 42
0.00000001
 43
0.00000001
 40
0.0
 40
0.0
 40
0.0
 40
0.0
 40
0.1034797280380778
 40
0.2100239090909901
 40
0.3134862262879433
 40
0.4198361712144981
 40
0.5254127947779869
 40
0.6339610881168427
 40
0.7409508662120068
 40
0.8511696072047016
 40
0.9558996557845765
 40
1.0
 40
1.0
 40
1.0
 40
1.0
 10
144.3765370632767
 20
143.0687575871116
 30
0.0
 10
143.9412885715508
 20
143.0742055787493
 30
0.0
 10
143.0579021209738
 20
143.0852628990779
 30
0.0
 10
141.777074258751
 20
143.1716216594529
 30
0.0
 10
140.5596580633091
 20
143.2994928025859
 30
0.0
 10
139.4518514469833
 20
143.4584372099044
 30
0.0
 10
138.4636129676545
 20
143.632931782889
 30
0.0
 10
137.6388898678386
 20
143.8020982160759
 30
0.0
 10
136.98993621034
 20
143.9499790245436
 30
0.0
 10
136.5729009068604
 20
144.0517697760662
 30
0.0
 10
136.3743041639824
 20
144.1021266757006
 30
0.0
 10
136.3976172809703
 20
144.0962170707251
 30
0.0
 10
136.4045252549707
 20
144.0944659793741
 30
0.0
  0
LINE
  5
7F
330
1F
100
AcDbEntity
  8
0
  6
Continuous
 62
     7
370
    15
100
AcDbLine
 10
146.0346041705
 20
143.0687575871
 30
0.0
 11
144.3765370633
 21
143.0687575871
 31
0.0
  0
LINE
  5
80
330
1F
100
AcDbEntity
  8
0
  6
Continuous
 62
     7
370
    15
100
AcDbLine
 10
146.0346041705
 20
137.0602517659
 30
0.0
 11
146.0346041705
 21
143.0687575871
 31
0.0
  0
LINE
  5
81
330
1F
100
AcDbEntity
  8
0
  6
Continuous
 62
     7
370
    15
100
AcDbLine
 10
143.6221573959
 20
137.0602517659
 30
0.0
 11
146.0346041705
 21
137.0602517659
 31
0.0
  0
SPLINE
  5
82
330
1F
100
AcDbEntity
  8
0
  6
Continuous
 62
     7
370
    15
100
AcDbSpline
210
0.0
220
0.0
230
1.0
 70
     8
 71
     3
 72
    20
 73
    16
 74
     0
 42
0.00000001
 43
0.00000001
 40
0.0
 40
0.0
 40
0.0
 40
0.0
 40
0.2499999999999997
 40
0.2499999999999997
 40
0.3749999999999997
 40
0.3749999999999997
 40
0.4999999999999998
 40
0.4999999999999998
 40
0.6249999999999998
 40
0.6249999999999998
 40
0.7499999999999999
 40
0.7499999999999999
 40
0.8749999999999999
 40
0.8749999999999999
 40
1.0
 40
1.0
 40
1.0
 40
1.0
 10
136.3765367101192
 20
132.4515621507531
 30
0.0
 10
136.6249104444072
 20
133.1054245790505
 30
0.0
 10
136.9444805367525
 20
133.7092103610477
 30
0.0
 10
137.5667867699572
 20
134.5360490972163
 30
0.0
 10
137.7982110303879
 20
134.7984777351692
 30
0.0
 10
138.3194253700376
 20
135.2951403892742
 30
0.0
 10
138.6060458526727
 20
135.5257272682957
 30
0.0
 10
139.2255305939803
 20
135.9422814928784
 30
0.0
 10
139.5598309734673
 20
136.1297792948459
 30
0.0
 10
140.2850914460921
 20
136.4611762724823
 30
0.0
 10
140.6670065034826
 20
136.6006802599775
 30
0.0
 10
141.4617946796542
 20
136.8261337674485
 30
0.0
 10
141.8759528738606
 20
136.9127598789921
 30
0.0
 10
142.741499214442
 20
137.0307406678463
 30
0.0
 10
143.1793868294538
 20
137.0602518131206
 30
0.0
 10
143.6221570558084
 20
137.0602518131206
 30
0.0
  0
SPLINE
  5
83
330
1F
100
AcDbEntity
  8
0
  6
Continuous
 62
     7
370
    15
100
AcDbSpline
210
0.0
220
0.0
230
1.0
 70
     8
 71
     3
 72
    70
 73
    66
 74
     0
 42
0.00000001
 43
0.00000001
 40
-0.0312500000000001
 40
-0.0312500000000001
 40
0.0
 40
0.0
 40
0.0312499999999999
 40
0.0312499999999999
 40
0.0624999999999998
 40
0.0624999999999998
 40
0.0937499999999997
 40
0.0937499999999997
 40
0.1249999999999996
 40
0.1249999999999996
 40
0.1562499999999994
 40
0.1562499999999994
 40
0.1874999999999993
 40
0.1874999999999993
 40
0.2187499999999992
 40
0.2187499999999992
 40
0.2499999999999991
 40
0.2499999999999991
 40
0.281249999999999
 40
0.281249999999999
 40
0.3124999999999989
 40
0.3124999999999989
 40
0.3437499999999988
 40
0.3437499999999988
 40
0.3749999999999987
 40
0.3749999999999987
 40
0.4062499999999986
 40
0.4062499999999986
 40
0.4374999999999984
 40
0.4374999999999984
 40
0.4687499999999983
 40
0.4687499999999983
 40
0.4999999999999982
 40
0.4999999999999982
 40
0.5312499999999983
 40
0.5312499999999983
 40
0.5624999999999984
 40
0.5624999999999984
 40
0.5937499999999986
 40
0.5937499999999986
 40
0.6249999999999987
 40
0.6249999999999987
 40
0.6562499999999988
 40
0.6562499999999988
 40
0.6874999999999989
 40
0.6874999999999989
 40
0.718749999999999
 40
0.718749999999999
 40
0.7499999999999991
 40
0.7499999999999991
 40
0.7812499999999992
 40
0.7812499999999992
 40
0.8124999999999993
 40
0.8124999999999993
 40
0.8437499999999994
 40
0.8437499999999994
 40
0.8749999999999996
 40
0.8749999999999996
 40
0.9062499999999997
 40
0.9062499999999997
 40
0.9374999999999998
 40
0.9374999999999998
 40
0.9687499999999999
 40
0.9687499999999999
 40
1.0
 40
1.0
 40
1.03125
 40
1.03125
 10
139.6910820487793
 20
123.2224690367365
 30
0.0
 10
139.161991371459
 20
123.2224690367365
 30
0.0
 10
138.9019207040819
 20
123.2471463315217
 30
0.0
 10
138.3903460242465
 20
123.3436180045636
 30
0.0
 10
138.1361707405063
 20
123.4165989205436
 30
0.0
 10
137.6519001104446
 20
123.6063395234823
 30
0.0
 10
137.4222590185634
 20
123.722200181876
 30
0.0
 10
136.9876546703299
 20
123.9948180278337
 30
0.0
 10
136.7820888936834
 20
124.1528571098875
 30
0.0
 10
136.4135317530881
 20
124.4963999608582
 30
0.0
 10
136.2480507703526
 20
124.6831624049598
 30
0.0
 10
135.9556262609175
 20
125.0867055793566
 30
0.0
 10
135.831525284291
 20
125.3002025757858
 30
0.0
 10
135.6319460875413
 20
125.7395858897083
 30
0.0
 10
135.555012501683
 20
125.9687258768539
 30
0.0
 10
135.4521554431627
 20
126.4346999996139
 30
0.0
 10
135.4266825337035
 20
126.6675824452901
 30
0.0
 10
135.4263921231358
 20
127.1329799803699
 30
0.0
 10
135.4524167569115
 20
127.3678557377642
 30
0.0
 10
135.5545650414035
 20
127.8193488850105
 30
0.0
 10
135.6301414889867
 20
128.0373953604219
 30
0.0
 10
135.8306390201316
 20
128.4584898854597
 30
0.0
 10
135.95576786164
 20
128.660411269978
 30
0.0
 10
136.2451266626616
 20
129.0324407524969
 30
0.0
 10
136.410537649717
 20
129.2050690560773
 30
0.0
 10
136.7835282078649
 20
129.5223870606233
 30
0.0
 10
136.9852612409539
 20
129.6621739941249
 30
0.0
 10
137.4181204917818
 20
129.9063502476767
 30
0.0
 10
137.6520390246712
 20
130.0115797587182
 30
0.0
 10
138.1362227598138
 20
130.1797369050933
 30
0.0
 10
138.3855383857693
 20
130.2429877956872
 30
0.0
 10
138.8985709101971
 20
130.3285670047898
 30
0.0
 10
139.1638647331017
 20
130.3504391697122
 30
0.0
 10
139.6861993529714
 20
130.3506028193561
 30
0.0
 10
139.9459530154532
 20
130.3296011272602
 30
0.0
 10
140.4625648310984
 20
130.2441987721825
 30
0.0
 10
140.7149308715987
 20
130.1801925888956
 30
0.0
 10
141.1964559931315
 20
130.0133780688544
 30
0.0
 10
141.4293067252451
 20
129.9092449054552
 30
0.0
 10
141.8663965736838
 20
129.6632582529602
 30
0.0
 10
142.067717562341
 20
129.5235084220114
 30
0.0
 10
142.4368035876409
 20
129.2103703522868
 30
0.0
 10
142.6057883386926
 20
129.0349141930167
 30
0.0
 10
142.8962443953518
 20
128.6620739289165
 30
0.0
 10
143.019316206714
 20
128.4639521188055
 30
0.0
 10
143.220652448136
 20
128.0432407760719
 30
0.0
 10
143.2978649940782
 20
127.8212507554043
 30
0.0
 10
143.4000685369783
 20
127.371385815696
 30
0.0
 10
143.4262968884306
 20
127.1411304025792
 30
0.0
 10
143.4267732877477
 20
126.6698144600301
 30
0.0
 10
143.4010308752497
 20
126.436577044316
 30
0.0
 10
143.2997200988859
 20
125.9749005048179
 30
0.0
 10
143.2228874594949
 20
125.7440031177058
 30
0.0
 10
143.0224836202798
 20
125.3017271039141
 30
0.0
 10
142.8998121219877
 20
125.0906646726282
 30
0.0
 10
142.6098648328235
 20
124.6891661618956
 30
0.0
 10
142.4412938534582
 20
124.4982596398196
 30
0.0
 10
142.0730242593451
 20
124.1545343078226
 30
0.0
 10
141.8719624020748
 20
123.9993971216085
 30
0.0
 10
141.4349314834898
 20
123.7243197615287
 30
0.0
 10
141.2027832703602
 20
123.6072035321068
 30
0.0
 10
140.7217729888614
 20
123.4182770470422
 30
0.0
 10
140.4696729060309
 20
123.3452020766479
 30
0.0
 10
139.9526034197719
 20
123.2471500175134
 30
0.0
 10
139.6910820487793
 20
123.2224690367365
 30
0.0
 10
139.161991371459
 20
123.2224690367365
 30
0.0
  0
SPLINE
  5
84
330
1F
100
AcDbEntity
  8
0
  6
Continuous
 62
     7
370
    15
100
AcDbSpline
210
0.0
220
0.0
230
1.0
 70
     8
 71
     3
 72
     8
 73
     4
 74
     0
 42
0.00000001
 43
0.00000001
 40
0.0
 40
0.0
 40
0.0
 40
0.0
 40
1.0
 40
1.0
 40
1.0
 40
1.0
 10
152.8184695416082
 20
82.41464445450599
 30
0.0
 10
152.3229898809425
 20
83.31017054243935
 30
0.0
 10
151.8288758329003
 20
84.2064549574916
 30
0.0
 10
151.3365367101192
 20
85.1037249916983
 30
0.0
  0
LINE
  5
85
330
1F
100
AcDbEntity
  8
0
  6
Continuous
 62
     7
370
    15
100
AcDbLine
 10
151.3365369748
 20
85.1037248308
 30
0.0
 11
151.3365369748
 21
132.4515628899
 31
0.0
  0
SPLINE
  5
86
330
1F
100
AcDbEntity
  8
0
  6
Continuous
 62
     7
370
    15
100
AcDbSpline
210
0.0
220
0.0
230
1.0
 70
    24
 71
     3
 72
     8
 73
     4
 74
     0
 42
0.00000001
 43
0.00000001
 40
0.0
 40
0.0
 40
0.0
 40
0.0
 40
1.0
 40
1.0
 40
1.0
 40
1.0
 10
151.3365367101192
 20
132.4515621507531
 30
0.0
 10
151.816488704484
 20
132.4515621507531
 30
0.0
 10
152.3117894334577
 20
132.4515621507531
 30
0.0
 10
152.8184695416082
 20
132.4515621507531
 30
0.0
  0
LINE
  5
87
330
1F
100
AcDbEntity
  8
0
  6
Continuous
 62
     7
370
    15
100
AcDbLine
 10
157.3765364002
 20
83.0412849123
 30
0.0
 11
157.3765364002
 21
132.4515628899
 31
0.0
  0
SPLINE
  5
88
330
1F
100
AcDbEntity
  8
0
  6
Continuous
 62
     7
370
    15
100
AcDbSpline
210
0.0
220
0.0
230
1.0
 70
     8
 71
     3
 72
    10
 73
     6
 74
     0
 42
0.00000001
 43
0.00000001
 40
0.0
 40
0.0
 40
0.0
 40
0.0
 40
0.5
 40
0.5
 40
1.0
 40
1.0
 40
1.0
 40
1.0
 10
157.3765367101192
 20
83.0412847501603
 30
0.0
 10
157.3765367101192
 20
82.88139748196664
 30
0.0
 10
157.3152270588833
 20
82.72027022645203
 30
0.0
 10
157.0961274213482
 20
82.4861712280972
 30
0.0
 10
156.9380792150348
 20
82.41464445450599
 30
0.0
 10
156.7765367101192
 20
82.41464445450599
 30
0.0
  0
SPLINE
  5
89
330
1F
100
AcDbEntity
  8
0
  6
Continuous
 62
     7
370
    15
100
AcDbSpline
210
0.0
220
0.0
230
1.0
 70
    24
 71
     3
 72
    12
 73
     8
 74
     0
 42
0.00000001
 43
0.00000001
 40
0.0
 40
0.0
 40
0.0
 40
0.0
 40
0.2500000000000033
 40
0.2500000000000033
 40
0.5000000000000067
 40
0.5000000000000067
 40
1.0
 40
1.0
 40
1.0
 40
1.0
 10
156.7765367101192
 20
132.4515621507531
 30
0.0
 10
156.8667757778062
 20
132.4515621507531
 30
0.0
 10
156.9576738919127
 20
132.4515621507531
 30
0.0
 10
157.1122709284012
 20
132.4515621507531
 30
0.0
 10
157.1772493445093
 20
132.4515621507531
 30
0.0
 10
157.3290843724456
 20
132.4515621507531
 30
0.0
 10
157.3765367101192
 20
132.4515621507531
 30
0.0
 10
157.3765367101192
 20
132.4515621507531
 30
0.0
  0
LINE
  5
8A
330
1F
100
AcDbEntity
  8
0
  6
Continuous
 62
     7
370
    15
100
AcDbLine
 10
147.5165367584
 20
85.1037248308
 30
0.0
 11
147.5165367584
 21
132.4515628899
 31
0.0
  0
SPLINE
  5
8B
330
1F
100
AcDbEntity
  8
0
  6
Continuous
 62
     7
370
    15
100
AcDbSpline
210
0.0
220
0.0
230
1.0
 70
     8
 71
     3
 72
     8
 73
     4
 74
     0
 42
0.00000001
 43
0.00000001
 40
0.0
 40
0.0
 40
0.0
 40
0.0
 40
1.0
 40
1.0
 40
1.0
 40
1.0
 10
147.5165367101192
 20
85.10372499169829
 30
0.0
 10
147.024197587338
 20
84.20645495749159
 30
0.0
 10
146.5300835392959
 20
83.31017054243934
 30
0.0
 10
146.0346038786301
 20
82.41464445450599
 30
0.0
  0
SPLINE
  5
8C
330
1F
100
AcDbEntity
  8
0
  6
Continuous
 62
     7
370
    15
100
AcDbSpline
210
0.0
220
0.0
230
1.0
 70
    24
 71
     3
 72
     8
 73
     4
 74
     0
 42
0.00000001
 43
0.00000001
 40
0.0
 40
0.0
 40
0.0
 40
0.0
 40
1.0
 40
1.0
 40
1.0
 40
1.0
 10
146.0346038786301
 20
132.4515621507531
 30
0.0
 10
146.5412839867807
 20
132.4515621507531
 30
0.0
 10
147.0365847157543
 20
132.4515621507531
 30
0.0
 10
147.5165367101192
 20
132.4515621507531
 30
0.0
  0
ARC
  5
8D
330
1F
100
AcDbEntity
  8
0
  6
Continuous
 62
     7
370
    15
100
AcDbCircle
 10
139.4282205165
 20
124.4963433802
 30
0.0
 40
4.118986525892335
100
AcDbArc
 50
21.0703414788
 51
159.6982754705
  0
SPLINE
  5
8E
330
1F
100
AcDbEntity
  8
0
  6
Continuous
 62
     7
370
    15
100
AcDbSpline
210
0.0
220
0.0
230
1.0
 70
    24
 71
     3
 72
    14
 73
    10
 74
     0
 42
0.00000001
 43
0.00000001
 40
0.0
 40
0.0
 40
0.0
 40
0.0
 40
0.5000000000000013
 40
0.5000000000000013
 40
0.750000000000002
 40
0.750000000000002
 40
0.875000000000001
 40
0.875000000000001
 40
1.0
 40
1.0
 40
1.0
 40
1.0
 10
151.2388619077869
 20
86.20156215075315
 30
0.0
 10
151.1920772027387
 20
86.20156215075315
 30
0.0
 10
151.1300260059591
 20
86.20156215075316
 30
0.0
 10
150.9866343674084
 20
86.20156215075315
 30
0.0
 10
150.9304907138573
 20
86.20156215075315
 30
0.0
 10
150.8175396917211
 20
86.20156215075315
 30
0.0
 10
150.774538929683
 20
86.20156215075315
 30
0.0
 10
150.6704762193765
 20
86.20156215075315
 30
0.0
 10
150.6051439810196
 20
86.20156215075316
 30
0.0
 10
150.5365367101192
 20
86.20156215075315
 30
0.0
  0
SPLINE
  5
8F
330
1F
100
AcDbEntity
  8
0
  6
Continuous
 62
     7
370
    15
100
AcDbSpline
210
0.0
220
0.0
230
1.0
 70
    24
 71
     3
 72
    12
 73
     8
 74
     0
 42
0.00000001
 43
0.00000001
 40
0.0
 40
0.0
 40
0.0
 40
0.0
 40
0.5000000000000017
 40
0.5000000000000017
 40
0.7500000000000008
 40
0.7500000000000008
 40
1.0
 40
1.0
 40
1.0
 40
1.0
 10
150.9422391784282
 20
139.0015621507532
 30
0.0
 10
150.8991536288173
 20
139.0015621507532
 30
0.0
 10
150.8500014270679
 20
139.0015621507532
 30
0.0
 10
150.75352883278
 20
139.0015621507532
 30
0.0
 10
150.7174272476454
 20
139.0015621507532
 30
0.0
 10
150.6343214897842
 20
139.0015621507532
 30
0.0
 10
150.5863248928179
 20
139.0015621507532
 30
0.0
 10
150.5365367101192
 20
139.0015621507532
 30
0.0
  0
SPLINE
  5
90
330
1F
100
AcDbEntity
  8
0
  6
Continuous
 62
     7
370
    15
100
AcDbSpline
210
0.0
220
0.0
230
1.0
 70
     8
 71
     3
 72
    10
 73
     6
 74
     0
 42
0.00000001
 43
0.00000001
 40
0.0
 40
0.0
 40
0.0
 40
0.0
 40
0.5
 40
0.5
 40
1.0
 40
1.0
 40
1.0
 40
1.0
 10
151.3365367101192
 20
139.7212160017889
 30
0.0
 10
151.3365367101192
 20
139.5774459439709
 30
0.0
 10
151.3004876514003
 20
139.4350265814757
 30
0.0
 10
151.1649787906263
 20
139.1851322881185
 30
0.0
 10
151.0651027975301
 20
139.0771019518703
 30
0.0
 10
150.9422391784282
 20
139.0015621507531
 30
0.0
  0
SPLINE
  5
91
330
1F
100
AcDbEntity
  8
0
  6
Continuous
 62
     7
370
    15
100
AcDbSpline
210
0.0
220
0.0
230
1.0
 70
     8
 71
     3
 72
    10
 73
     6
 74
     0
 42
0.00000001
 43
0.00000001
 40
0.0
 40
0.0
 40
0.0
 40
0.0
 40
0.5
 40
0.5
 40
1.0
 40
1.0
 40
1.0
 40
1.0
 10
151.310389086959
 20
132.4515621507531
 30
0.0
 10
151.3190787298707
 20
132.4984410000713
 30
0.0
 10
151.3256177946212
 20
132.5458634654726
 30
0.0
 10
151.3343764290142
 20
132.6418002640593
 30
0.0
 10
151.3365367101192
 20
132.6897155520698
 30
0.0
 10
151.3365367101192
 20
132.7374287822144
 30
0.0
  0
SPLINE
  5
92
330
1F
100
AcDbEntity
  8
0
  6
Continuous
 62
     7
370
    15
100
AcDbSpline
210
0.0
220
0.0
230
1.0
 70
     8
 71
     3
 72
    10
 73
     6
 74
     0
 42
0.00000001
 43
0.00000001
 40
0.0
 40
0.0
 40
0.0
 40
0.0
 40
0.5
 40
0.5
 40
1.0
 40
1.0
 40
1.0
 40
1.0
 10
147.9108342418101
 20
139.0015621507532
 30
0.0
 10
147.7892939781416
 20
139.0762883179649
 30
0.0
 10
147.6879596177927
 20
139.1852333338817
 30
0.0
 10
147.5523206749043
 20
139.4356638146433
 30
0.0
 10
147.5165367101192
 20
139.5780831767422
 30
0.0
 10
147.5165367101192
 20
139.7212160017889
 30
0.0
  0
SPLINE
  5
93
330
1F
100
AcDbEntity
  8
0
  6
Continuous
 62
     7
370
    15
100
AcDbSpline
210
0.0
220
0.0
230
1.0
 70
    24
 71
     3
 72
    12
 73
     8
 74
     0
 42
0.00000001
 43
0.00000001
 40
0.0
 40
0.0
 40
0.0
 40
0.0
 40
0.2500000000000037
 40
0.2500000000000037
 40
0.5000000000000074
 40
0.5000000000000074
 40
1.0
 40
1.0
 40
1.0
 40
1.0
 10
148.3165367101192
 20
139.0015621507532
 30
0.0
 10
148.2666600278017
 20
139.0015621507532
 30
0.0
 10
148.2186568343981
 20
139.0015621507532
 30
0.0
 10
148.1356087316861
 20
139.0015621507532
 30
0.0
 10
148.0994791522183
 20
139.0015621507532
 30
0.0
 10
148.0035671212741
 20
139.0015621507532
 30
0.0
 10
147.9538084533053
 20
139.0015621507532
 30
0.0
 10
147.9108342418101
 20
139.0015621507532
 30
0.0
  0
SPLINE
  5
94
330
1F
100
AcDbEntity
  8
0
  6
Continuous
 62
     7
370
    15
100
AcDbSpline
210
0.0
220
0.0
230
1.0
 70
    24
 71
     3
 72
    14
 73
    10
 74
     0
 42
0.00000001
 43
0.00000001
 40
0.0
 40
0.0
 40
0.0
 40
0.0
 40
0.1249999999999991
 40
0.1249999999999991
 40
0.2499999999999982
 40
0.2499999999999982
 40
0.4999999999999998
 40
0.4999999999999998
 40
1.0
 40
1.0
 40
1.0
 40
1.0
 10
148.3165367101192
 20
86.20156215075315
 30
0.0
 10
148.2480988622327
 20
86.20156215075315
 30
0.0
 10
148.1825488234676
 20
86.20156215075316
 30
0.0
 10
148.0781221840597
 20
86.20156215075316
 30
0.0
 10
148.0355775742983
 20
86.20156215075316
 30
0.0
 10
147.9229681137581
 20
86.20156215075315
 30
0.0
 10
147.8674290667386
 20
86.20156215075315
 30
0.0
 10
147.7248173712748
 20
86.20156215075315
 30
0.0
 10
147.661412016279
 20
86.20156215075315
 30
0.0
 10
147.6142115124514
 20
86.20156215075315
 30
0.0
  0
SPLINE
  5
95
330
1F
100
AcDbEntity
  8
0
  6
Continuous
 62
     7
370
    15
100
AcDbSpline
210
0.0
220
0.0
230
1.0
 70
     8
 71
     3
 72
    10
 73
     6
 74
     0
 42
0.00000001
 43
0.00000001
 40
0.0
 40
0.0
 40
0.0
 40
0.0
 40
0.5
 40
0.5
 40
1.0
 40
1.0
 40
1.0
 40
1.0
 10
147.5165367101192
 20
132.7374287822145
 30
0.0
 10
147.5165367101192
 20
132.6896572742212
 30
0.0
 10
147.5186979537163
 20
132.6419475521596
 30
0.0
 10
147.5273693275765
 20
132.5466524346113
 30
0.0
 10
147.5338985105325
 20
132.4989598706446
 30
0.0
 10
147.5426843332793
 20
132.4515621507531
 30
0.0
  0
LINE
  5
96
330
1F
100
AcDbEntity
  8
0
  6
Continuous
 62
     7
370
    15
100
AcDbLine
 10
150.5365364711
 20
139.0015620077
 30
0.0
 11
148.3165372621
 21
139.0015620077
 31
0.0
  0
LINE
  5
97
330
1F
100
AcDbEntity
  8
0
  6
Continuous
 62
     7
370
    15
100
AcDbLine
 10
150.5365364711
 20
86.2015622938
 30
0.0
 11
148.3165372621
 21
86.2015622938
 31
0.0
  0
LINE
  5
98
330
1F
100
AcDbEntity
  8
0
  6
Continuous
 62
     7
370
    15
100
AcDbLine
 10
129.4265366151
 20
88.3811309272
 30
0.0
 11
129.4265366151
 21
136.8219933743
 31
0.0
  0
LINE
  5
99
330
1F
100
AcDbEntity
  8
0
  6
Continuous
 62
     7
370
    15
100
AcDbLine
 10
109.6265364896
 20
89.3731161291
 30
0.0
 11
109.6265364896
 21
90.6378242457
 31
0.0
  0
SPLINE
  5
9A
330
1F
100
AcDbEntity
  8
0
  6
Continuous
 62
     7
370
    15
100
AcDbSpline
210
0.0
220
0.0
230
1.0
 70
     8
 71
     3
 72
    14
 73
    10
 74
     0
 42
0.00000001
 43
0.00000001
 40
0.0
 40
0.0
 40
0.0
 40
0.0
 40
0.25
 40
0.25
 40
0.5
 40
0.5
 40
0.75
 40
0.75
 40
1.0
 40
1.0
 40
1.0
 40
1.0
 10
108.8482495922035
 20
91.7684108271932
 30
0.0
 10
108.9048762674055
 20
91.66071337335633
 30
0.0
 10
108.9993989276953
 20
91.55792379163702
 30
0.0
 10
109.1824439032575
 20
91.35956647941687
 30
0.0
 10
109.2740704802122
 20
91.26350697073862
 30
0.0
 10
109.4329237979054
 20
91.07597792802937
 30
0.0
 10
109.5008144055271
 20
90.98456895524582
 30
0.0
 10
109.5977314312347
 20
90.80619273433567
 30
0.0
 10
109.6265367101197
 20
90.7189708280895
 30
0.0
 10
109.6265367101197
 20
90.63782461955525
 30
0.0
  0
SPLINE
  5
9B
330
1F
100
AcDbEntity
  8
0
  6
Continuous
 62
     7
370
    15
100
AcDbSpline
210
0.0
220
0.0
230
1.0
 70
     8
 71
     3
 72
    14
 73
    10
 74
     0
 42
0.00000001
 43
0.00000001
 40
0.0
 40
0.0
 40
0.0
 40
0.0
 40
0.1249999999999975
 40
0.1249999999999975
 40
0.249999999999995
 40
0.249999999999995
 40
0.4999999999999953
 40
0.4999999999999953
 40
1.0
 40
1.0
 40
1.0
 40
1.0
 10
108.2265367101192
 20
92.21509268947251
 30
0.0
 10
108.2750811187763
 20
92.2208410027528
 30
0.0
 10
108.3279964735612
 20
92.21774011409657
 30
0.0
 10
108.4232918185443
 20
92.19554526993424
 30
0.0
 10
108.4635428158292
 20
92.17831304283838
 30
0.0
 10
108.5678128293422
 20
92.12198512638632
 30
0.0
 10
108.6181348044955
 20
92.07779878044052
 30
0.0
 10
108.7458177520209
 20
91.9467908815899
 30
0.0
 10
108.8019031990832
 20
91.8565563613596
 30
0.0
 10
108.8482495922049
 20
91.76841082719372
 30
0.0
  0
SPLINE
  5
9C
330
1F
100
AcDbEntity
  8
0
  6
Continuous
 62
     7
370
    15
100
AcDbSpline
210
0.0
220
0.0
230
1.0
 70
     8
 71
     3
 72
     8
 73
     4
 74
     0
 42
0.00000001
 43
0.00000001
 40
0.0
 40
0.0
 40
0.0
 40
0.0
 40
1.0
 40
1.0
 40
1.0
 40
1.0
 10
105.9580116171729
 20
91.90524740288973
 30
0.0
 10
106.6925886436559
 20
92.02387241395869
 30
0.0
 10
107.4560637130515
 20
92.12385828609496
 30
0.0
 10
108.2265367101192
 20
92.2150926894725
 30
0.0
  0
SPLINE
  5
9D
330
1F
100
AcDbEntity
  8
0
  6
Continuous
 62
     7
370
    15
100
AcDbSpline
210
0.0
220
0.0
230
1.0
 70
     8
 71
     3
 72
    14
 73
    10
 74
     0
 42
0.00000001
 43
0.00000001
 40
0.0
 40
0.0
 40
0.0
 40
0.0
 40
0.500000000000001
 40
0.500000000000001
 40
0.7500000000000004
 40
0.7500000000000004
 40
0.8750000000000003
 40
0.8750000000000003
 40
1.0
 40
1.0
 40
1.0
 40
1.0
 10
100.6765367101192
 20
91.73162438535807
 30
0.0
 10
101.5686828406727
 20
91.73090215915742
 30
0.0
 10
102.4586592764663
 20
91.73548836561488
 30
0.0
 10
103.7852544435419
 20
91.76321337000643
 30
0.0
 10
104.2261013720407
 20
91.77581990763059
 30
0.0
 10
104.8825416094631
 20
91.80683605563806
 30
0.0
 10
105.100555266055
 20
91.81917922826483
 30
0.0
 10
105.5332641197378
 20
91.85220328342811
 30
0.0
 10
105.7485405849025
 20
91.87142044856654
 30
0.0
 10
105.958011617173
 20
91.90524740288973
 30
0.0
  0
SPLINE
  5
9E
330
1F
100
AcDbEntity
  8
0
  6
Continuous
 62
     7
370
    15
100
AcDbSpline
210
0.0
220
0.0
230
1.0
 70
     8
 71
     3
 72
     8
 73
     4
 74
     0
 42
0.00000001
 43
0.00000001
 40
0.0000005163856998
 40
0.0000005163856998
 40
0.0000005163856998
 40
0.0000005163856998
 40
0.000026289209185
 40
0.000026289209185
 40
0.000026289209185
 40
0.000026289209185
 10
100.6664917797115
 20
91.74160825845486
 30
0.0
 10
100.6698195179194
 20
91.73827401158574
 30
0.0
 10
100.673167970895
 20
91.73494605431043
 30
0.0
 10
100.6765367101191
 20
91.73162438535806
 30
0.0
  0
SPLINE
  5
9F
330
1F
100
AcDbEntity
  8
0
  6
Continuous
 62
     7
370
    15
100
AcDbSpline
210
0.0
220
0.0
230
1.0
 70
     8
 71
     3
 72
     8
 73
     4
 74
     0
 42
0.00000001
 43
0.00000001
 40
0.0000005099763573
 40
0.0000005099763573
 40
0.0000005099763573
 40
0.0000005099763573
 40
0.0000262827998699
 40
0.0000262827998699
 40
0.0000262827998699
 40
0.0000262827998699
 10
100.6765367101191
 20
133.4714999161482
 30
0.0
 10
100.6731679708914
 20
133.4681782471924
 30
0.0
 10
100.6698195179123
 20
133.4648502899134
 30
0.0
 10
100.6664917797009
 20
133.4615160430408
 30
0.0
  0
SPLINE
  5
A0
330
1F
100
AcDbEntity
  8
0
  6
Continuous
 62
     7
370
    15
100
AcDbSpline
210
0.0
220
0.0
230
1.0
 70
     8
 71
     3
 72
    10
 73
     6
 74
     0
 42
0.00000001
 43
0.00000001
 40
0.0
 40
0.0
 40
0.0
 40
0.0
 40
0.5
 40
0.5
 40
1.0
 40
1.0
 40
1.0
 40
1.0
 10
104.2265367101192
 20
133.4246495425809
 30
0.0
 10
103.6389511630286
 20
133.4457150628173
 30
0.0
 10
103.0482047695682
 20
133.4564735486895
 30
0.0
 10
101.8641856042693
 20
133.4698383292252
 30
0.0
 10
101.2707716160639
 20
133.4719809718898
 30
0.0
 10
100.6765367101192
 20
133.4714999161482
 30
0.0
  0
SPLINE
  5
A1
330
1F
100
AcDbEntity
  8
0
  6
Continuous
 62
     7
370
    15
100
AcDbSpline
210
0.0
220
0.0
230
1.0
 70
     8
 71
     3
 72
    18
 73
    14
 74
     0
 42
0.00000001
 43
0.00000001
 40
0.0
 40
0.0
 40
0.0
 40
0.0
 40
0.2500000000000009
 40
0.2500000000000009
 40
0.500000000000001
 40
0.500000000000001
 40
0.7500000000000011
 40
0.7500000000000011
 40
0.875000000000001
 40
0.875000000000001
 40
0.9375000000000006
 40
0.9375000000000006
 40
1.0
 40
1.0
 40
1.0
 40
1.0
 10
105.6265367101192
 20
134.4456698231162
 30
0.0
 10
105.6265367101192
 20
134.3624629142589
 30
0.0
 10
105.5906876101809
 20
134.2737262589454
 30
0.0
 10
105.465815874147
 20
134.0916010683851
 30
0.0
 10
105.3754154564991
 20
133.9964710197585
 30
0.0
 10
105.1531728017569
 20
133.8072895106342
 30
0.0
 10
105.0234080153112
 20
133.7123443425395
 30
0.0
 10
104.7827705579997
 20
133.5740656349595
 30
0.0
 10
104.6950032598622
 20
133.5283552016571
 30
0.0
 10
104.5404791726554
 20
133.4705318964357
 30
0.0
 10
104.4838682866007
 20
133.4528171323979
 30
0.0
 10
104.3598242556941
 20
133.4282778291649
 30
0.0
 10
104.2921095806758
 20
133.4222986906266
 30
0.0
 10
104.2265367101192
 20
133.4246495425809
 30
0.0
  0
LINE
  5
A2
330
1F
100
AcDbEntity
  8
0
  6
Continuous
 62
     7
370
    15
100
AcDbLine
 10
105.6265358339
 20
134.4456698084
 30
0.0
 11
105.6265358339
 21
135.6296080435
 31
0.0
  0
SPLINE
  5
A3
330
1F
100
AcDbEntity
  8
0
  6
Continuous
 62
     7
370
    15
100
AcDbSpline
210
0.0
220
0.0
230
1.0
 70
     8
 71
     3
 72
    24
 73
    20
 74
     0
 42
0.00000001
 43
0.00000001
 40
0.0
 40
0.0
 40
0.0
 40
0.0
 40
0.0010489815523775
 40
0.0637843212772741
 40
0.1272220630088516
 40
0.1903789073370505
 40
0.2526748662763491
 40
0.3146354150030102
 40
0.3770891884518245
 40
0.4393540587943444
 40
0.5008133488401828
 40
0.5621845177353679
 40
0.6248438462901906
 40
0.6874304788646655
 40
0.7496743245911356
 40
0.811984857412469
 40
0.8750960476811308
 40
0.9384412548145236
 40
1.0
 40
1.0
 40
1.0
 40
1.0
 10
118.1954427148461
 20
88.94405395630659
 30
0.0
 10
118.1949960490953
 20
88.9439953113401
 30
0.0
 10
118.1678361131717
 20
88.94042934835942
 30
0.0
 10
118.2634660363036
 20
88.95329395783462
 30
0.0
 10
118.4970192123241
 20
88.98252844017468
 30
0.0
 10
118.8925751645585
 20
89.0291476509161
 30
0.0
 10
119.4196151649285
 20
89.07932845034127
 30
0.0
 10
120.0631456067647
 20
89.12370712378431
 30
0.0
 10
120.8018194410345
 20
89.15065032029511
 30
0.0
 10
121.5993341111533
 20
89.15412206859725
 30
0.0
 10
122.4259131609179
 20
89.12649662230382
 30
0.0
 10
123.2514359823366
 20
89.06801547932518
 30
0.0
 10
124.0435624532522
 20
88.9825724159266
 30
0.0
 10
124.7761348320896
 20
88.88083724743407
 30
0.0
 10
125.4117750139103
 20
88.77299359638616
 30
0.0
 10
125.9336859444565
 20
88.67136220111132
 30
0.0
 10
126.3153147820954
 20
88.58888023681882
 30
0.0
 10
126.5661294580288
 20
88.53272812931192
 30
0.0
 10
126.5952507737361
 20
88.52587927839905
 30
0.0
 10
126.6096031750797
 20
88.52250383142294
 30
0.0
  0
SPLINE
  5
A4
330
1F
100
AcDbEntity
  8
0
  6
Continuous
 62
     7
370
    15
100
AcDbSpline
210
0.0
220
0.0
230
1.0
 70
     8
 71
     3
 72
    24
 73
    20
 74
     0
 42
0.00000001
 43
0.00000001
 40
0.0
 40
0.0
 40
0.0
 40
0.0
 40
0.061438429114026
 40
0.1250736777967296
 40
0.1884253375120635
 40
0.2508623992448768
 40
0.3129665476325514
 40
0.3753451442328022
 40
0.4377328732174486
 40
0.499092717251918
 40
0.560580729454827
 40
0.622946985474185
 40
0.6854686070210457
 40
0.7475477863222202
 40
0.8098225081553685
 40
0.873068419947611
 40
0.936404185690527
 40
0.9991757203144552
 40
1.0
 40
1.0
 40
1.0
 40
1.0
 10
126.6095486927091
 20
136.680590667761
 30
0.0
 10
126.594947884257
 20
136.677222509888
 30
0.0
 10
126.5652241944059
 20
136.6703657608036
 30
0.0
 10
126.31248619442
 20
136.6140279409075
 30
0.0
 10
125.9294908953988
 20
136.5311701280223
 30
0.0
 10
125.4071349385159
 20
136.4292633798012
 30
0.0
 10
124.7723505938143
 20
136.3214248099122
 30
0.0
 10
124.0421268572001
 20
136.2199585566832
 30
0.0
 10
123.251658762289
 20
136.134896478116
 30
0.0
 10
122.4271750348313
 20
136.0766951211594
 30
0.0
 10
121.6001386543512
 20
136.0491106734748
 30
0.0
 10
120.8018141953608
 20
136.052604602009
 30
0.0
 10
120.0619904443611
 20
136.0795582606827
 30
0.0
 10
119.4177355729015
 20
136.1239137612961
 30
0.0
 10
118.890328715804
 20
136.1741189450188
 30
0.0
 10
118.4956634754909
 20
136.220726405064
 30
0.0
 10
118.2631347899027
 20
136.2499295819024
 30
0.0
 10
118.1677555612364
 20
136.2626877206196
 30
0.0
 10
118.1946885055632
 20
136.2591478907008
 30
0.0
 10
118.1950375895261
 20
136.2591020101673
 30
0.0
  0
SPLINE
  5
A5
330
1F
100
AcDbEntity
  8
0
  6
Continuous
 62
     7
370
    15
100
AcDbSpline
210
0.0
220
0.0
230
1.0
 70
     8
 71
     3
 72
     9
 73
     5
 74
     0
 42
0.00000001
 43
0.00000001
 40
0.0
 40
0.0
 40
0.0
 40
0.0
 40
0.7009339503679092
 40
0.9999999999999999
 40
0.9999999999999999
 40
0.9999999999999999
 40
0.9999999999999999
 10
99.54732027754775
 20
92.90028245095075
 30
0.0
 10
99.5564609484976
 20
92.88245316718985
 30
0.0
 10
99.5695016507564
 20
92.85701669952905
 30
0.0
 10
99.58466511402467
 20
92.9108960590026
 30
0.0
 10
99.58919999108306
 20
92.92700954619707
 30
0.0
  0
LINE
  5
A6
330
1F
100
AcDbEntity
  8
0
  6
Continuous
 62
     7
370
    15
100
AcDbLine
 10
99.526536883
 20
92.9108846271
 30
0.0
 11
99.526536883
 21
132.2922396744
 31
0.0
  0
SPLINE
  5
A7
330
1F
100
AcDbEntity
  8
0
  6
Continuous
 62
     7
370
    15
100
AcDbSpline
210
0.0
220
0.0
230
1.0
 70
     8
 71
     3
 72
    10
 73
     6
 74
     0
 42
0.00000001
 43
0.00000001
 40
0.0
 40
0.0
 40
0.0
 40
0.0
 40
0.5
 40
0.5
 40
1.0
 40
1.0
 40
1.0
 40
1.0
 10
99.58920008484256
 20
132.2761146955339
 30
0.0
 10
99.58029579573383
 20
132.3218562147471
 30
0.0
 10
99.56378041554085
 20
132.3390470542161
 30
0.0
 10
99.53667246947923
 20
132.3387237772803
 30
0.0
 10
99.52653671011917
 20
132.3208462349839
 30
0.0
 10
99.52653671011917
 20
132.2922398972313
 30
0.0
  0
SPLINE
  5
A8
330
1F
100
AcDbEntity
  8
0
  6
Continuous
 62
     7
370
    15
100
AcDbSpline
210
0.0
220
0.0
230
1.0
 70
     8
 71
     3
 72
    26
 73
    22
 74
     0
 42
0.00000001
 43
0.00000001
 40
0.0
 40
0.0
 40
0.0
 40
0.0
 40
0.2500000000000165
 40
0.2500000000000165
 40
0.3750000000000256
 40
0.3750000000000256
 40
0.4375000000000291
 40
0.4375000000000291
 40
0.4687500000000291
 40
0.4687500000000291
 40
0.5000000000000292
 40
0.5000000000000292
 40
0.5312500000000293
 40
0.5312500000000293
 40
0.5625000000000293
 40
0.5625000000000293
 40
0.625000000000026
 40
0.625000000000026
 40
0.7500000000000173
 40
0.7500000000000173
 40
1.0
 40
1.0
 40
1.0
 40
1.0
 10
100.3506903562237
 20
132.991681484351
 30
0.0
 10
100.3120898333552
 20
132.8739067879955
 30
0.0
 10
100.2657928308009
 20
132.7495171018336
 30
0.0
 10
100.171853482367
 20
132.5442977694801
 30
0.0
 10
100.1365420154536
 20
132.4727249030337
 30
0.0
 10
100.0703620397079
 20
132.3567716704333
 30
0.0
 10
100.0458236730397
 20
132.316187135623
 30
0.0
 10
100.0024509274859
 20
132.2520454537512
 30
0.0
 10
99.98694252606066
 20
132.2301790284662
 30
0.0
 10
99.95189988147365
 20
132.184584760123
 30
0.0
 10
99.93234959075389
 20
132.1609144691556
 30
0.0
 10
99.89042231038329
 20
132.1162979098157
 30
0.0
 10
99.86777020015164
 20
132.0954178972977
 30
0.0
 10
99.82679648606499
 20
132.0645444835469
 30
0.0
 10
99.80919718616957
 20
132.0547056137145
 30
0.0
 10
99.76457020031343
 20
132.0357159980183
 30
0.0
 10
99.74401097766008
 20
132.0353916733649
 30
0.0
 10
99.69288553816342
 20
132.0446151142411
 30
0.0
 10
99.6719741251749
 20
132.0658620104581
 30
0.0
 10
99.62052421761396
 20
132.1398308892888
 30
0.0
 10
99.60285891830941
 20
132.2059489826036
 30
0.0
 10
99.58920008484256
 20
132.2761146955339
 30
0.0
  0
SPLINE
  5
A9
330
1F
100
AcDbEntity
  8
0
  6
Continuous
 62
     7
370
    15
100
AcDbSpline
210
0.0
220
0.0
230
1.0
 70
     8
 71
     3
 72
    10
 73
     6
 74
     0
 42
0.00000001
 43
0.00000001
 40
0.0
 40
0.0
 40
0.0
 40
0.0
 40
0.5
 40
0.5
 40
1.0
 40
1.0
 40
1.0
 40
1.0
 10
100.6664917797009
 20
133.4615160430408
 30
0.0
 10
100.5989325247827
 20
133.393824650231
 30
0.0
 10
100.5352958694462
 20
133.3191174854774
 30
0.0
 10
100.4250751148744
 20
133.1601513530508
 30
0.0
 10
100.3782588216517
 20
133.0757960870428
 30
0.0
 10
100.3506903562237
 20
132.991681484351
 30
0.0
  0
SPLINE
  5
AA
330
1F
100
AcDbEntity
  8
0
  6
Continuous
 62
     7
370
    15
100
AcDbSpline
210
0.0
220
0.0
230
1.0
 70
     8
 71
     3
 72
    10
 73
     6
 74
     0
 42
0.00000001
 43
0.00000001
 40
0.0
 40
0.0
 40
0.0
 40
0.0
 40
0.5
 40
0.5
 40
1.0
 40
1.0
 40
1.0
 40
1.0
 10
100.3506903562237
 20
92.21144281715519
 30
0.0
 10
100.3781677709777
 20
92.12760602068728
 30
0.0
 10
100.4248764012671
 20
92.04329553309815
 30
0.0
 10
100.5351548640131
 20
91.88417430261146
 30
0.0
 10
100.599042402627
 20
91.8091895585218
 30
0.0
 10
100.6664917797116
 20
91.74160825845486
 30
0.0
  0
SPLINE
  5
AB
330
1F
100
AcDbEntity
  8
0
  6
Continuous
 62
     7
370
    15
100
AcDbSpline
210
0.0
220
0.0
230
1.0
 70
     8
 71
     3
 72
    24
 73
    20
 74
     0
 42
0.00000001
 43
0.00000001
 40
0.0
 40
0.0
 40
0.0
 40
0.0
 40
0.25
 40
0.25
 40
0.374999999999999
 40
0.374999999999999
 40
0.4374999999999993
 40
0.4374999999999993
 40
0.4687499999999994
 40
0.4687499999999994
 40
0.4999999999999995
 40
0.4999999999999995
 40
0.5624999999999971
 40
0.5624999999999971
 40
0.6249999999999947
 40
0.6249999999999947
 40
0.7499999999999947
 40
0.7499999999999947
 40
1.0
 40
1.0
 40
1.0
 40
1.0
 10
99.58920008484256
 20
92.92700960597242
 30
0.0
 10
99.60295320351281
 20
92.99765966396271
 30
0.0
 10
99.62072577091867
 20
93.06425777672762
 30
0.0
 10
99.67297686247403
 20
93.13835579696082
 30
0.0
 10
99.69401193805558
 20
93.15961360412238
 30
0.0
 10
99.74691234568402
 20
93.16775953026863
 30
0.0
 10
99.76801801856195
 20
93.16681972687284
 30
0.0
 10
99.81407018723989
 20
93.1458037352955
 30
0.0
 10
99.8324406592233
 20
93.1348949291879
 30
0.0
 10
99.87399229428901
 20
93.10226001824051
 30
0.0
 10
99.8965589670459
 20
93.08076803786916
 30
0.0
 10
99.95933998350593
 20
93.01230209428283
 30
0.0
 10
99.99246974447382
 20
92.96622763607775
 30
0.0
 10
100.0493874309588
 20
92.88121974774307
 30
0.0
 10
100.0735734564626
 20
92.84093944656169
 30
0.0
 10
100.1387814068424
 20
92.72600322009575
 30
0.0
 10
100.1734974670336
 20
92.65542023494875
 30
0.0
 10
100.2667127373645
 20
92.45121447587015
 30
0.0
 10
100.3123852727252
 20
92.32831609354278
 30
0.0
 10
100.3506903562237
 20
92.21144281715522
 30
0.0
  0
SPLINE
  5
AC
330
1F
100
AcDbEntity
  8
0
  6
Continuous
 62
     7
370
    15
100
AcDbSpline
210
0.0
220
0.0
230
1.0
 70
     8
 71
     3
 72
     8
 73
     4
 74
     0
 42
0.00000001
 43
0.00000001
 40
0.0
 40
0.0
 40
0.0
 40
0.0
 40
1.0
 40
1.0
 40
1.0
 40
1.0
 10
147.5165367101192
 20
140.4067963419248
 30
0.0
 10
147.0238266132734
 20
141.2948153400511
 30
0.0
 10
146.5297439079944
 20
142.1820779757371
 30
0.0
 10
146.0346038786301
 20
143.0687576239174
 30
0.0
  0
LINE
  5
AD
330
1F
100
AcDbEntity
  8
0
  6
Continuous
 62
     7
370
    15
100
AcDbLine
 10
147.5165367584
 20
133.6517061377
 30
0.0
 11
147.5165367584
 21
140.406795525
 31
0.0
  0
SPLINE
  5
AE
330
1F
100
AcDbEntity
  8
0
  6
Continuous
 62
     7
370
    15
100
AcDbSpline
210
0.0
220
0.0
230
1.0
 70
     8
 71
     3
 72
     8
 73
     4
 74
     0
 42
0.00000001
 43
0.00000001
 40
0.0
 40
0.0
 40
0.0
 40
0.0
 40
1.0
 40
1.0
 40
1.0
 40
1.0
 10
146.0346038786301
 20
137.0602518131206
 30
0.0
 10
146.5416907203894
 20
135.9291014589569
 30
0.0
 10
147.0372585595293
 20
134.7927170481891
 30
0.0
 10
147.5165367101192
 20
133.6517058183365
 30
0.0
  0
SPLINE
  5
AF
330
1F
100
AcDbEntity
  8
0
  6
Continuous
 62
     7
370
    15
100
AcDbSpline
210
0.0
220
0.0
230
1.0
 70
     8
 71
     3
 72
    10
 73
     6
 74
     0
 42
0.00000001
 43
0.00000001
 40
0.0
 40
0.0
 40
0.0
 40
0.0
 40
0.5
 40
0.5
 40
1.0
 40
1.0
 40
1.0
 40
1.0
 10
157.3765367101192
 20
142.4480024745171
 30
0.0
 10
157.3765367101192
 20
142.6084077408678
 30
0.0
 10
157.3142988790123
 20
142.7674695538564
 30
0.0
 10
157.0951639552697
 20
142.9983820194868
 30
0.0
 10
156.9375752602779
 20
143.0687576239174
 30
0.0
 10
156.7765367101192
 20
143.0687576239174
 30
0.0
  0
SPLINE
  5
B0
330
1F
100
AcDbEntity
  8
0
  6
Continuous
 62
     7
370
    15
100
AcDbSpline
210
0.0
220
0.0
230
1.0
 70
     8
 71
     3
 72
    12
 73
     8
 74
     0
 42
0.00000001
 43
0.00000001
 40
0.0
 40
0.0
 40
0.0
 40
0.0
 40
0.250000000000002
 40
0.250000000000002
 40
0.500000000000004
 40
0.500000000000004
 40
1.0
 40
1.0
 40
1.0
 40
1.0
 10
156.7765367101192
 20
137.0602518131206
 30
0.0
 10
156.8677364319448
 20
137.0602518131206
 30
0.0
 10
156.9583314410808
 20
137.0320321145327
 30
0.0
 10
157.1117441675275
 20
136.9375891072846
 30
0.0
 10
157.1769530348512
 20
136.8713021305793
 30
0.0
 10
157.3297375641911
 20
136.645677307291
 30
0.0
 10
157.3765367101192
 20
136.4632510442584
 30
0.0
 10
157.3765367101192
 20
136.2825144120116
 30
0.0
  0
LINE
  5
B1
330
1F
100
AcDbEntity
  8
0
  6
Continuous
 62
     7
370
    15
100
AcDbLine
 10
157.3765364002
 20
136.282513597
 30
0.0
 11
157.3765364002
 21
142.4480031515
 31
0.0
  0
LINE
  5
B2
330
1F
100
AcDbEntity
  8
0
  6
Continuous
 62
     7
370
    15
100
AcDbLine
 10
147.5165367584
 20
133.6517061377
 30
0.0
 11
147.5165367584
 21
132.7374286288
 31
0.0
  0
LINE
  5
B3
330
1F
100
AcDbEntity
  8
0
  6
Continuous
 62
     7
370
    15
100
AcDbLine
 10
151.3365369748
 20
132.7374286288
 30
0.0
 11
151.3365369748
 21
133.6517061377
 31
0.0
  0
SPLINE
  5
B4
330
1F
100
AcDbEntity
  8
0
  6
Continuous
 62
     7
370
    15
100
AcDbSpline
210
0.0
220
0.0
230
1.0
 70
     8
 71
     3
 72
     8
 73
     4
 74
     0
 42
0.00000001
 43
0.00000001
 40
0.0
 40
0.0
 40
0.0
 40
0.0
 40
1.0
 40
1.0
 40
1.0
 40
1.0
 10
151.3365367101192
 20
133.6517058183365
 30
0.0
 10
151.815814860709
 20
134.7927170481891
 30
0.0
 10
152.311382699849
 20
135.9291014589569
 30
0.0
 10
152.8184695416082
 20
137.0602518131206
 30
0.0
  0
LINE
  5
B5
330
1F
100
AcDbEntity
  8
0
  6
Continuous
 62
     7
370
    15
100
AcDbLine
 10
152.8184686314
 20
137.0602517659
 30
0.0
 11
156.7765374194
 21
137.0602517659
 31
0.0
  0
LINE
  5
B6
330
1F
100
AcDbEntity
  8
0
  6
Continuous
 62
     7
370
    15
100
AcDbLine
 10
157.3765364002
 20
136.282513597
 30
0.0
 11
157.3765364002
 21
132.4515628899
 31
0.0
  0
SPLINE
  5
B7
330
1F
100
AcDbEntity
  8
0
  6
Continuous
 62
     7
370
    15
100
AcDbSpline
210
0.0
220
0.0
230
1.0
 70
     8
 71
     3
 72
     8
 73
     4
 74
     0
 42
0.00000001
 43
0.00000001
 40
0.0
 40
0.0
 40
0.0
 40
0.0
 40
1.0
 40
1.0
 40
1.0
 40
1.0
 10
152.8184695416082
 20
143.0687576239174
 30
0.0
 10
152.3233295122439
 20
142.1820779757371
 30
0.0
 10
151.8292468069649
 20
141.2948153400511
 30
0.0
 10
151.3365367101192
 20
140.4067963419247
 30
0.0
  0
LINE
  5
B8
330
1F
100
AcDbEntity
  8
0
  6
Continuous
 62
     7
370
    15
100
AcDbLine
 10
152.8184686314
 20
137.0602517659
 30
0.0
 11
152.8184686314
 21
143.0687575871
 31
0.0
  0
LINE
  5
B9
330
1F
100
AcDbEntity
  8
0
  6
Continuous
 62
     7
370
    15
100
AcDbLine
 10
151.3365369748
 20
133.6517061377
 30
0.0
 11
151.3365369748
 21
140.406795525
 31
0.0
  0
LINE
  5
BA
330
1F
100
AcDbEntity
  8
0
  6
Continuous
 62
     7
370
    15
100
AcDbLine
 10
156.7765374194
 20
143.0687575871
 30
0.0
 11
152.8184686314
 21
143.0687575871
 31
0.0
  0
ARC
  5
BB
330
1F
100
AcDbEntity
  8
0
  6
Continuous
 62
     7
370
    15
100
AcDbCircle
 10
139.5119669746
 20
131.6452484922
 30
0.0
 40
6.902444336153447
100
AcDbArc
 50
70.8610165942
 51
90.7091541143
  0
ARC
  5
BC
330
1F
100
AcDbEntity
  8
0
  6
Continuous
 62
     7
370
    15
100
AcDbCircle
 10
139.3399029683
 20
131.6577459486
 30
0.0
 40
6.889962875592545
100
AcDbArc
 50
89.2795461398
 51
109.330719081
  0
SPLINE
  5
BD
330
1F
100
AcDbEntity
  8
0
  6
Continuous
 62
     7
370
    15
100
AcDbSpline
210
0.0
220
0.0
230
1.0
 70
     8
 71
     3
 72
    49
 73
    45
 74
     0
 42
0.00000001
 43
0.00000001
 40
-0.0453289120053126
 40
-0.0288496406627724
 40
-0.0137448999164242
 40
0.0
 40
0.0161749300516669
 40
0.0341951114536164
 40
0.0540821746207062
 40
0.0758519784573601
 40
0.0995163878703517
 40
0.1250844199077913
 40
0.150212236303792
 40
0.1736095456496355
 40
0.1952861273055994
 40
0.215254486962964
 40
0.2335308377910961
 40
0.2501365530631918
 40
0.2850050262084533
 40
0.3265790049407425
 40
0.3749615561882117
 40
0.3970363947901612
 40
0.4177011086870894
 40
0.4369611297385282
 40
0.4548232786289648
 40
0.4712962209790971
 40
0.4863911248994962
 40
0.5001226324881478
 40
0.5342115554730544
 40
0.5757710868835584
 40
0.624897412676147
 40
0.6465640803628002
 40
0.6669596739976171
 40
0.6860901303064281
 40
0.7039627233118283
 40
0.7205864555658408
 40
0.7359725999380965
 40
0.7501354635862441
 40
0.7849405197656586
 40
0.826467021320231
 40
0.8748182531463248
 40
0.896885817244398
 40
0.9175466010995726
 40
0.9368060714706359
 40
0.9546710879946874
 40
0.9711503593372276
 40
0.9862551000835758
 40
1.0
 40
1.016174930051667
 40
1.034195111453616
 40
1.054082174620706
 10
176.8453140182814
 20
108.3627858799863
 30
0.0
 10
177.2482738610502
 20
108.3452677615082
 30
0.0
 10
177.6774103350062
 20
108.3672259443886
 30
0.0
 10
178.1553194161816
 20
108.4439190110976
 30
0.0
 10
178.6677768154521
 20
108.5904741089035
 30
0.0
 10
179.2016892556308
 20
108.822168516805
 30
0.0
 10
179.7392335896344
 20
109.1531011147628
 30
0.0
 10
180.2409904393725
 20
109.580557029224
 30
0.0
 10
180.6677304311151
 20
110.0797319310096
 30
0.0
 10
180.9970529912481
 20
110.6099899879444
 30
0.0
 10
181.2304705247315
 20
111.1405788226688
 30
0.0
 10
181.3802500040553
 20
111.6545030104295
 30
0.0
 10
181.4599378980188
 20
112.1390437568069
 30
0.0
 10
181.4930576622663
 20
112.7631976260648
 30
0.0
 10
181.4008988294408
 20
113.5978437917674
 30
0.0
 10
181.014264753896
 20
114.6521046304316
 30
0.0
 10
180.41711630552
 20
115.4631958033315
 30
0.0
 10
179.8092985816005
 20
115.9925786251012
 30
0.0
 10
179.3498948062714
 20
116.2959244084683
 30
0.0
 10
178.8889810457516
 20
116.5233787851071
 30
0.0
 10
178.4388784999928
 20
116.6836096428841
 30
0.0
 10
178.0093895294752
 20
116.7859871263585
 30
0.0
 10
177.6076736223048
 20
116.8403263029076
 30
0.0
 10
177.0447371322795
 20
116.8648704964842
 30
0.0
 10
176.2431089582872
 20
116.7780870832851
 30
0.0
 10
175.1878639574086
 20
116.3967571482947
 30
0.0
 10
174.3726125945675
 20
115.7996672087723
 30
0.0
 10
173.8420227531867
 20
115.1921865771683
 30
0.0
 10
173.5409974617714
 20
114.7397663236235
 30
0.0
 10
173.3128574585922
 20
114.2829274556447
 30
0.0
 10
173.1502034282462
 20
113.8332609540563
 30
0.0
 10
173.0448934063118
 20
113.400207753466
 30
0.0
 10
172.9882143749972
 20
112.9908444108867
 30
0.0
 10
172.9626158743946
 20
112.415024088818
 30
0.0
 10
173.0527703558599
 20
111.6032881668844
 30
0.0
 10
173.4392582409918
 20
110.5504139668602
 30
0.0
 10
174.0359490545545
 20
109.740000393148
 30
0.0
 10
174.643419354869
 20
109.2108255714645
 30
0.0
 10
175.1026905892072
 20
108.9074833769988
 30
0.0
 10
175.563557203898
 20
108.6799716724368
 30
0.0
 10
176.0137088519983
 20
108.5196530180823
 30
0.0
 10
176.4433636466592
 20
108.4171934949776
 30
0.0
 10
176.8453140182814
 20
108.3627858799863
 30
0.0
 10
177.2482738610502
 20
108.3452677615082
 30
0.0
 10
177.6774103350062
 20
108.3672259443886
 30
0.0
  0
SPLINE
  5
BE
330
1F
100
AcDbEntity
  8
0
  6
Continuous
 62
     7
370
    15
100
AcDbSpline
210
0.0
220
0.0
230
1.0
 70
     8
 71
     3
 72
    39
 73
    35
 74
     0
 42
0.00000001
 43
0.00000001
 40
-0.0928043551744249
 40
-0.0617048467358776
 40
-0.0305245298598695
 40
0.0
 40
0.0305379537716813
 40
0.0617396733444479
 40
0.092851156286777
 40
0.123958163581455
 40
0.1551451717990076
 40
0.1867314500165454
 40
0.218516274404103
 40
0.2499298363871451
 40
0.28136505597829
 40
0.3132232878484551
 40
0.3448819419201464
 40
0.3761241187089471
 40
0.4072203283788184
 40
0.4382883502617133
 40
0.4694286048559654
 40
0.5000111438430817
 40
0.5305819932533714
 40
0.5617670451414633
 40
0.5928468450963644
 40
0.6239637556318322
 40
0.6551794805657429
 40
0.6868189513443868
 40
0.7186229856224622
 40
0.7500614968638893
 40
0.7814671780297212
 40
0.813297598151919
 40
0.8449019848414243
 40
0.8761138750537001
 40
0.9071956448255751
 40
0.9382951532641224
 40
0.9694754701401305
 40
1.0
 40
1.030537953771681
 40
1.061739673344448
 40
1.092851156286777
 10
178.1855471266633
 20
107.6623559500282
 30
0.0
 10
177.2263967549072
 20
107.5642701362934
 30
0.0
 10
176.2670260847419
 20
107.6624206476459
 30
0.0
 10
175.3465938253531
 20
107.956994867644
 30
0.0
 10
174.496312878323
 20
108.419393480793
 30
0.0
 10
173.7591470158439
 20
109.0423247840811
 30
0.0
 10
173.1535281617905
 20
109.8001265169783
 30
0.0
 10
172.7048645017635
 20
110.6711876833301
 30
0.0
 10
172.4197673169785
 20
111.615681759858
 30
0.0
 10
172.3253464337213
 20
112.5995263468618
 30
0.0
 10
172.4203452378415
 20
113.5840663069743
 30
0.0
 10
172.7058030823637
 20
114.5302359881801
 30
0.0
 10
173.1547184110899
 20
115.4035013973747
 30
0.0
 10
173.7607701275075
 20
116.1625159601696
 30
0.0
 10
174.4976968269102
 20
116.7856931077158
 30
0.0
 10
175.3468566032101
 20
117.2477281989928
 30
0.0
 10
176.2670246674977
 20
117.5412647127978
 30
0.0
 10
177.2267226425427
 20
117.6386972877539
 30
0.0
 10
178.1868641358205
 20
117.5409996804297
 30
0.0
 10
179.1073516407642
 20
117.2469469000912
 30
0.0
 10
179.9571647971009
 20
116.7844541453975
 30
0.0
 10
180.6938792312648
 20
116.1608881888239
 30
0.0
 10
181.2994273917747
 20
115.4018305667227
 30
0.0
 10
181.7477687348347
 20
114.5294140323927
 30
0.0
 10
182.0326805933923
 20
113.5838580097669
 30
0.0
 10
182.1277155852147
 20
112.5999565972814
 30
0.0
 10
182.033404191816
 20
111.6156590015519
 30
0.0
 10
181.7479191337701
 20
110.6706606239501
 30
0.0
 10
181.2988139476234
 20
109.7988051651724
 30
0.0
 10
180.6927434318659
 20
109.0410957189362
 30
0.0
 10
179.9553881400306
 20
108.4186053115542
 30
0.0
 10
179.1055340691818
 20
107.9567041463718
 30
0.0
 10
178.1855471266633
 20
107.6623559500282
 30
0.0
 10
177.2263967549072
 20
107.5642701362934
 30
0.0
 10
176.2670260847419
 20
107.6624206476459
 30
0.0
  0
LINE
  5
BF
330
1F
100
AcDbEntity
  8
0
  6
Continuous
 62
     7
370
    15
100
AcDbLine
 10
185.7040014575
 20
95.1015620762
 30
0.0
 11
185.7040014575
 21
130.1015622253
 31
0.0
  0
LINE
  5
C0
330
1F
100
AcDbEntity
  8
0
  6
Continuous
 62
     7
370
    15
100
AcDbLine
 10
163.737946422
 20
129.955864259
 30
0.0
 11
163.7981992672
 21
129.9510884369
 31
0.0
  0
SPLINE
  5
C1
330
1F
100
AcDbEntity
  8
0
  6
Continuous
 62
     7
370
    15
100
AcDbSpline
210
0.0
220
0.0
230
1.0
 70
     8
 71
     3
 72
    18
 73
    14
 74
     0
 42
0.00000001
 43
0.00000001
 40
0.0
 40
0.0
 40
0.0
 40
0.0
 40
0.0605771462735934
 40
0.1453074166339507
 40
0.236060486888568
 40
0.339032914803308
 40
0.4554530476848191
 40
0.5808767237384895
 40
0.7087066988966529
 40
0.7695535020871745
 40
0.8326122541826163
 40
0.9249104850475305
 40
1.0
 40
1.0
 40
1.0
 40
1.0
 10
169.5416842113494
 20
130.0964231872922
 30
0.0
 10
169.5408934937108
 20
130.0962716010895
 30
0.0
 10
169.5389967860509
 20
130.095907988723
 30
0.0
 10
169.1872348800524
 20
130.0451239346357
 30
0.0
 10
168.5710406770692
 20
129.9684650041292
 30
0.0
 10
167.6639017649191
 20
129.8835166304076
 30
0.0
 10
166.5116207309573
 20
129.8281538673872
 30
0.0
 10
165.2276416425074
 20
129.8391389545768
 30
0.0
 10
164.211044893504
 20
129.9075172780566
 30
0.0
 10
163.5228179836856
 20
129.977248254721
 30
0.0
 10
163.0319990490588
 20
130.0363350212043
 30
0.0
 10
162.6416658135325
 20
130.091711884047
 30
0.0
 10
162.6150262543921
 20
130.0958231401736
 30
0.0
 10
162.6030758480786
 20
130.0976674342519
 30
0.0
  0
LINE
  5
C2
330
1F
100
AcDbEntity
  8
0
  6
Continuous
 62
     7
370
    15
100
AcDbLine
 10
163.638570578
 20
129.9669823879
 30
0.0
 11
163.737946422
 21
129.955864259
 31
0.0
  0
SPLINE
  5
C3
330
1F
100
AcDbEntity
  8
0
  6
Continuous
 62
     7
370
    15
100
AcDbSpline
210
0.0
220
0.0
230
1.0
 70
     8
 71
     3
 72
    68
 73
    64
 74
     0
 42
0.00000001
 43
0.00000001
 40
-0.0625000000000003
 40
-0.0625000000000003
 40
0.0
 40
0.0
 40
0.03125
 40
0.03125
 40
0.0625
 40
0.0625
 40
0.0937499999999999
 40
0.0937499999999999
 40
0.1249999999999999
 40
0.1249999999999999
 40
0.1562499999999999
 40
0.1562499999999999
 40
0.1874999999999999
 40
0.1874999999999999
 40
0.2187499999999999
 40
0.2187499999999999
 40
0.2499999999999998
 40
0.2499999999999998
 40
0.2812499999999998
 40
0.2812499999999998
 40
0.3124999999999998
 40
0.3124999999999998
 40
0.3437499999999998
 40
0.3437499999999998
 40
0.3749999999999998
 40
0.3749999999999998
 40
0.4062499999999997
 40
0.4062499999999997
 40
0.4374999999999997
 40
0.4374999999999997
 40
0.4687499999999997
 40
0.4687499999999997
 40
0.4999999999999997
 40
0.4999999999999997
 40
0.5312499999999997
 40
0.5312499999999997
 40
0.5624999999999997
 40
0.5624999999999997
 40
0.5937499999999996
 40
0.5937499999999996
 40
0.6249999999999996
 40
0.6249999999999996
 40
0.6562499999999996
 40
0.6562499999999996
 40
0.6874999999999996
 40
0.6874999999999996
 40
0.7187499999999996
 40
0.7187499999999996
 40
0.7499999999999996
 40
0.7499999999999996
 40
0.7812499999999994
 40
0.7812499999999994
 40
0.8124999999999994
 40
0.8124999999999994
 40
0.8437499999999994
 40
0.8437499999999994
 40
0.8749999999999996
 40
0.8749999999999996
 40
0.9062499999999997
 40
0.9062499999999997
 40
0.9374999999999997
 40
0.9374999999999997
 40
1.0
 40
1.0
 40
1.03125
 40
1.03125
 10
163.3988795723089
 20
114.5893077773747
 30
0.0
 10
163.9074793151412
 20
114.9879145546761
 30
0.0
 10
164.0867387459697
 20
115.1028985185465
 30
0.0
 10
164.4628198600219
 20
115.3008203159107
 30
0.0
 10
164.6606953396197
 20
115.3840447396884
 30
0.0
 10
165.0697292557067
 20
115.5167547509385
 30
0.0
 10
165.2774583718642
 20
115.5653245167656
 30
0.0
 10
165.6990424345692
 20
115.6286893879893
 30
0.0
 10
165.9145336419613
 20
115.6434201294083
 30
0.0
 10
166.3440283923019
 20
115.6377101377092
 30
0.0
 10
166.55615369002
 20
115.6175903120196
 30
0.0
 10
166.9752591259703
 20
115.5434120947604
 30
0.0
 10
167.1837167516644
 20
115.4888234912839
 30
0.0
 10
167.5882236353997
 20
115.3453675574939
 30
0.0
 10
167.781807435076
 20
115.2576784621571
 30
0.0
 10
168.1514977749562
 20
115.0499100281322
 30
0.0
 10
168.3287576010628
 20
114.928918178772
 30
0.0
 10
168.6585367911824
 20
114.6543030136784
 30
0.0
 10
168.8078626265633
 20
114.5036884791676
 30
0.0
 10
169.0740711108511
 20
114.1745195638721
 30
0.0
 10
169.1921416625505
 20
113.9936541592145
 30
0.0
 10
169.3843792977316
 20
113.6097824054938
 30
0.0
 10
169.4574252128218
 20
113.4102848354465
 30
0.0
 10
169.5552392799211
 20
112.9954092838174
 30
0.0
 10
169.579384516757
 20
112.7773432852093
 30
0.0
 10
169.5731333069591
 20
112.3497751744567
 30
0.0
 10
169.5435711974955
 20
112.1363826866751
 30
0.0
 10
169.4326412003633
 20
111.7187425385302
 30
0.0
 10
169.353169170837
 20
111.5201884272924
 30
0.0
 10
169.150348748912
 20
111.141766940388
 30
0.0
 10
169.0270307973715
 20
110.9632268969661
 30
0.0
 10
168.7497867953817
 20
110.6382850462317
 30
0.0
 10
168.5931268779021
 20
110.4886017370485
 30
0.0
 10
168.2567005302106
 20
110.2229528969839
 30
0.0
 10
168.0776152112565
 20
110.1069319867483
 30
0.0
 10
167.6990334773174
 20
109.9061947682694
 30
0.0
 10
167.4991402634656
 20
109.8217913632414
 30
0.0
 10
167.0930742619725
 20
109.6890292312665
 30
0.0
 10
166.8852278320586
 20
109.6396854366784
 30
0.0
 10
166.4599175570567
 20
109.5748946182558
 30
0.0
 10
166.2439844994717
 20
109.5600017671067
 30
0.0
 10
165.8171383562867
 20
109.5649481363102
 30
0.0
 10
165.6045460747914
 20
109.5844953331764
 30
0.0
 10
165.1810733075195
 20
109.6588321418362
 30
0.0
 10
164.9717760702618
 20
109.7136920610053
 30
0.0
 10
164.5702917894249
 20
109.8555823276306
 30
0.0
 10
164.3762691268225
 20
109.9428668880693
 30
0.0
 10
164.0025267850031
 20
110.1524505603057
 30
0.0
 10
163.8238018461342
 20
110.2747589549371
 30
0.0
 10
163.4973937436784
 20
110.5463181576725
 30
0.0
 10
163.3476200537854
 20
110.696583009752
 30
0.0
 10
163.0780379049212
 20
111.0296716497363
 30
0.0
 10
162.9595794444636
 20
111.2118871019542
 30
0.0
 10
162.7685268228779
 20
111.5939616532059
 30
0.0
 10
162.6935979644176
 20
111.7987773475061
 30
0.0
 10
162.5962416653886
 20
112.2173320900337
 30
0.0
 10
162.5732992528636
 20
112.4296186228603
 30
0.0
 10
162.5805004606687
 20
112.8604058711968
 30
0.0
 10
162.611356698267
 20
113.0760226025838
 30
0.0
 10
162.7224568278543
 20
113.4896229853238
 30
0.0
 10
162.804159471685
 20
113.6924295038499
 30
0.0
 10
163.1099746668087
 20
114.2582430156744
 30
0.0
 10
163.3988795723089
 20
114.5893077773747
 30
0.0
 10
163.9074793151412
 20
114.9879145546761
 30
0.0
  0
LINE
  5
C4
330
1F
100
AcDbEntity
  8
0
  6
Continuous
 62
     7
370
    15
100
AcDbLine
 10
163.737946422
 20
95.2472600425
 30
0.0
 11
163.5913264464
 21
95.2301255697
 31
0.0
  0
SPLINE
  5
C5
330
1F
100
AcDbEntity
  8
0
  6
Continuous
 62
     7
370
    15
100
AcDbSpline
210
0.0
220
0.0
230
1.0
 70
     8
 71
     3
 72
    18
 73
    14
 74
     0
 42
0.00000001
 43
0.00000001
 40
0.0
 40
0.0
 40
0.0
 40
0.0
 40
0.047534926997111
 40
0.1321347352148214
 40
0.2214277823673225
 40
0.32226492916608
 40
0.4367473244959836
 40
0.5611888182316749
 40
0.6890241601863735
 40
0.7505007224416855
 40
0.8141519587767633
 40
0.9086005093599089
 40
1.0
 40
1.0
 40
1.0
 40
1.0
 10
162.6181129823684
 20
95.10770507994951
 30
0.0
 10
162.6108433599773
 20
95.10664292166283
 30
0.0
 10
162.5906357002533
 20
95.10369039784861
 30
0.0
 10
162.8955082051842
 20
95.14827579536424
 30
0.0
 10
163.4667285225927
 20
95.22142420912814
 30
0.0
 10
164.332000258867
 20
95.30743601423193
 30
0.0
 10
165.4507590746222
 20
95.36998724209182
 30
0.0
 10
166.7260446896199
 20
95.37081631690144
 30
0.0
 10
167.7616723300326
 20
95.31009229349094
 30
0.0
 10
168.4815776724424
 20
95.2420854992784
 30
0.0
 10
169.0136443462495
 20
95.18094454523535
 30
0.0
 10
169.4761143092175
 20
95.11682001184947
 30
0.0
 10
169.5392488129036
 20
95.1072001853104
 30
0.0
 10
169.5702981661319
 20
95.10246918443502
 30
0.0
  0
LINE
  5
C6
330
1F
100
AcDbEntity
  8
0
  6
Continuous
 62
     7
370
    15
100
AcDbLine
 10
163.9327530275
 20
95.2626119638
 30
0.0
 11
163.737946422
 21
95.2472600425
 31
0.0
  0
CIRCLE
  5
C7
330
1F
100
AcDbEntity
  8
0
  6
Continuous
 62
     7
370
    15
100
AcDbCircle
 10
166.0765367101
 20
112.6015621508
 30
0.0
 40
2.5
  0
LINE
  5
C8
330
1F
100
AcDbEntity
  8
0
  6
Continuous
 62
     7
370
    15
100
AcDbLine
 10
196.4265343259
 20
101.3757025162
 30
0.0
 11
196.4265343259
 21
123.8274217853
 31
0.0
  0
LWPOLYLINE
  5
C9
330
1F
100
AcDbEntity
  8
0
  6
Continuous
 62
     7
370
    15
100
AcDbPolyline
 90
        7
 70
   128
 43
0.0
 10
196.4265343259
 20
118.8163065622
 10
196.4356687377
 20
119.1499361107
 10
196.4427840422
 20
119.5312917503
 10
196.4449521612
 20
119.8514264347
 10
196.4419272254
 20
120.0756483981
 10
196.4340519618
 20
120.1796599003
 10
196.4265343259
 20
120.1762181977
  0
ARC
  5
CA
330
1F
100
AcDbEntity
  8
0
  6
Continuous
 62
     7
370
    15
100
AcDbCircle
 10
179.4146818843
 20
105.7788627858
 30
0.0
 40
17.09356990174526
100
AcDbArc
 50
357.4583769986
 51
5.6046931598
  0
CIRCLE
  5
CB
330
1F
100
AcDbEntity
  8
0
  6
HIDDEN
 62
     7
370
     0
100
AcDbCircle
 10
177.2265367101
 20
112.6015621508
 30
0.0
 40
2.500000000000012
  0
CIRCLE
  5
CC
330
1F
100
AcDbEntity
  8
0
  6
HIDDEN
 62
     7
370
     0
100
AcDbCircle
 10
177.2265367101
 20
112.6015621508
 30
0.0
 40
3.500000000000006
  0
LINE
  5
CD
330
1F
100
AcDbEntity
  8
0
  6
HIDDEN
 62
     7
370
     0
100
AcDbLine
 10
146.0346041705
 20
137.0602517659
 30
0.0
 11
146.0346041705
 21
132.4515628899
 31
0.0
  0
ARC
  5
CE
330
1F
100
AcDbEntity
  8
0
  6
HIDDEN
 62
     7
370
     0
100
AcDbCircle
 10
139.7569949507
 20
125.0511740934
 30
0.0
 40
3.634750144069956
100
AcDbArc
 50
264.7836794142
 51
14.7595755789
  0
ARC
  5
CF
330
1F
100
AcDbEntity
  8
0
  6
HIDDEN
 62
     7
370
     0
100
AcDbCircle
 10
139.1488149088
 20
125.0987941028
 30
0.0
 40
3.677817762636416
100
AcDbArc
 50
167.010234949
 51
274.3306850141
  0
LINE
  5
D0
330
1F
100
AcDbEntity
  8
0
  6
HIDDEN
 62
     7
370
     0
100
AcDbLine
 10
119.4216872092
 20
89.0769630009
 30
0.0
 11
119.1728219847
 21
89.0537004257
 31
0.0
  0
LINE
  5
D1
330
1F
100
AcDbEntity
  8
0
  6
HIDDEN
 62
     7
370
     0
100
AcDbLine
 10
119.0402612548
 20
136.161648416
 30
0.0
 11
119.4215940769
 21
136.1261445368
 31
0.0
  0
SPLINE
  5
D2
330
1F
100
AcDbEntity
  8
0
  6
HIDDEN
 62
     7
370
     0
100
AcDbSpline
210
0.0
220
0.0
230
1.0
 70
     8
 71
     3
 72
    10
 73
     6
 74
     0
 42
0.00000001
 43
0.00000001
 40
0.0
 40
0.0
 40
0.0
 40
0.0
 40
0.44755400412776
 40
0.8950913510090587
 40
1.0
 40
1.0
 40
1.0
 40
1.0
 10
125.1815387505352
 20
132.4390906179315
 30
0.0
 10
125.4282455282926
 20
132.4686024992787
 30
0.0
 10
125.9216499017747
 20
132.5276251635879
 30
0.0
 10
126.2106651204664
 20
132.5415668025062
 30
0.0
 10
126.1502859847277
 20
132.5376745083273
 30
0.0
 10
126.1388200792729
 20
132.5369353676206
 30
0.0
  0
SPLINE
  5
D3
330
1F
100
AcDbEntity
  8
0
  6
HIDDEN
 62
     7
370
     0
100
AcDbSpline
210
0.0
220
0.0
230
1.0
 70
     8
 71
     3
 72
    10
 73
     6
 74
     0
 42
0.00000001
 43
0.00000001
 40
0.0
 40
0.0
 40
0.0
 40
0.0
 40
0.3455415192288221
 40
0.7967177901762346
 40
1.0
 40
1.0
 40
1.0
 40
1.0
 10
126.1388401027083
 20
92.6661889338857
 30
0.0
 10
126.1292801399642
 20
92.666743718377
 30
0.0
 10
126.1072376589082
 20
92.66802288932853
 30
0.0
 10
125.6902673464875
 20
92.69798453750286
 30
0.0
 10
125.302106043564
 20
92.74838021567047
 30
0.0
 10
125.1815387505352
 20
92.76403368357481
 30
0.0
  0
SPLINE
  5
D4
330
1F
100
AcDbEntity
  8
0
  6
HIDDEN
 62
     7
370
     0
100
AcDbSpline
210
0.0
220
0.0
230
1.0
 70
     8
 71
     3
 72
    15
 73
    11
 74
     0
 42
0.00000001
 43
0.00000001
 40
0.0
 40
0.0
 40
0.0
 40
0.0
 40
0.1409172263352446
 40
0.281889861653346
 40
0.4212989542022905
 40
0.5593768841673977
 40
0.6988856533029646
 40
0.840367202775075
 40
0.9813164473602943
 40
1.0
 40
1.0
 40
1.0
 40
1.0
 10
125.1815387505352
 20
92.76403368357481
 30
0.0
 10
124.8654970309225
 20
92.80438700534948
 30
0.0
 10
124.2332893233541
 20
92.88510951591931
 30
0.0
 10
122.9991261510399
 20
92.96166746230209
 30
0.0
 10
121.7284040272242
 20
92.95698939428715
 30
0.0
 10
120.5398445606878
 20
92.8761929290639
 30
0.0
 10
119.5467218813973
 20
92.75179838220969
 30
0.0
 10
118.9073133500836
 20
92.64539143544846
 30
0.0
 10
118.6262933617302
 20
92.5923143761389
 30
0.0
 10
118.692853930219
 20
92.60456886810081
 30
0.0
 10
118.7006442333817
 20
92.60600314382376
 30
0.0
  0
SPLINE
  5
D5
330
1F
100
AcDbEntity
  8
0
  6
HIDDEN
 62
     7
370
     0
100
AcDbSpline
210
0.0
220
0.0
230
1.0
 70
     8
 71
     3
 72
    15
 73
    11
 74
     0
 42
0.00000001
 43
0.00000001
 40
0.0
 40
0.0
 40
0.0
 40
0.0
 40
0.1201202497733958
 40
0.2584739452442804
 40
0.3987302041697883
 40
0.5404022600041716
 40
0.680739511736143
 40
0.8190355942651634
 40
0.9577823154231621
 40
1.0
 40
1.0
 40
1.0
 40
1.0
 10
118.7006442333817
 20
132.5971211576826
 30
0.0
 10
118.7213534821851
 20
132.5930966536083
 30
0.0
 10
118.7659155044202
 20
132.5844367528197
 30
0.0
 10
119.3283549741486
 20
132.4851438341085
 30
0.0
 10
120.2218172295959
 20
132.3612278223972
 30
0.0
 10
121.380796053448
 20
132.2615164468635
 30
0.0
 10
122.6538329222678
 20
132.2343793891655
 30
0.0
 10
123.8881182689948
 20
132.2897167512956
 30
0.0
 10
124.7160813466907
 20
132.3761964870869
 30
0.0
 10
125.0934916593371
 20
132.4271934062241
 30
0.0
 10
125.1815387505352
 20
132.4390906179315
 30
0.0
  0
LINE
  5
D6
330
1F
100
AcDbEntity
  8
0
  6
HIDDEN
 62
     7
370
     0
100
AcDbLine
 10
112.4305122058
 20
95.6015612269
 30
0.0
 11
112.4305122058
 21
129.6015630746
 31
0.0
  0
LWPOLYLINE
  5
D7
330
1F
100
AcDbEntity
  8
0
  6
HIDDEN
 62
     7
370
     0
100
AcDbPolyline
 90
       29
 70
   128
 43
0.0
 10
141.7750075917
 20
138.1661675209
 10
142.1213189597
 20
138.0251820469
 10
142.6186051677
 20
137.7524330551
 10
143.0071901988
 20
137.4386406774
 10
143.2738390277
 20
137.094490909
 10
143.4094731222
 20
136.7317016507
 10
143.4094731222
 20
136.3626278276
 10
143.2738390277
 20
135.9998385692
 10
143.0071901988
 20
135.6556869382
 10
142.6186051677
 20
135.3418945605
 10
142.1213189597
 20
135.0691474313
 10
141.5322658132
 20
134.8467308367
 10
140.8715036224
 20
134.6822201544
 10
140.1615350033
 20
134.5812182212
 10
139.4265370901
 20
134.5471653426
 10
138.6915387112
 20
134.5812182212
 10
137.9815700921
 20
134.6822201544
 10
137.3208079013
 20
134.8467308367
 10
136.7317542891
 20
135.0691474313
 10
136.2344676155
 20
135.3418945605
 10
135.8458835158
 20
135.6556869382
 10
135.5792342211
 20
135.9998385692
 10
135.4436001267
 20
136.3626278276
 10
135.4436001267
 20
136.7317016507
 10
135.5792342211
 20
137.094490909
 10
135.8458835158
 20
137.4386406774
 10
136.2344676155
 20
137.7524330551
 10
136.7317542891
 20
138.0251820469
 10
137.0591849546
 20
138.1592775965
  0
SPLINE
  5
D8
330
1F
100
AcDbEntity
  8
0
  6
HIDDEN
 62
     7
370
     0
100
AcDbSpline
210
0.0
220
0.0
230
1.0
 70
     8
 71
     3
 72
    83
 73
    79
 74
     0
 42
0.00000001
 43
0.00000001
 40
-0.0312499999999997
 40
-0.0312499999999997
 40
0.0
 40
0.0
 40
0.0312500000000006
 40
0.0312500000000006
 40
0.0468750000000006
 40
0.0468750000000006
 40
0.0625000000000007
 40
0.0625000000000007
 40
0.0937500000000007
 40
0.0937500000000007
 40
0.1250000000000007
 40
0.1250000000000007
 40
0.1562500000000007
 40
0.1562500000000007
 40
0.1875000000000007
 40
0.1875000000000007
 40
0.2187500000000007
 40
0.2187500000000007
 40
0.2343750000000007
 40
0.2343750000000007
 40
0.2500000000000007
 40
0.2656250000000008
 40
0.2656250000000008
 40
0.2812500000000008
 40
0.2812500000000008
 40
0.3125000000000008
 40
0.3125000000000008
 40
0.3281250000000008
 40
0.3281250000000008
 40
0.3437500000000009
 40
0.3437500000000009
 40
0.3593750000000009
 40
0.3593750000000009
 40
0.3750000000000009
 40
0.3750000000000009
 40
0.4062500000000013
 40
0.4062500000000013
 40
0.4375000000000017
 40
0.4375000000000017
 40
0.4687500000000022
 40
0.4687500000000022
 40
0.5000000000000026
 40
0.5000000000000026
 40
0.531250000000003
 40
0.531250000000003
 40
0.5625000000000033
 40
0.5625000000000033
 40
0.5781250000000036
 40
0.5781250000000036
 40
0.5937500000000038
 40
0.5937500000000038
 40
0.6250000000000037
 40
0.6250000000000037
 40
0.6562500000000037
 40
0.6562500000000037
 40
0.6875000000000037
 40
0.6875000000000037
 40
0.7031250000000036
 40
0.7031250000000036
 40
0.7187500000000033
 40
0.7187500000000033
 40
0.750000000000003
 40
0.750000000000003
 40
0.7812500000000027
 40
0.7812500000000027
 40
0.8125000000000022
 40
0.8125000000000022
 40
0.8437500000000019
 40
0.8437500000000019
 40
0.8750000000000014
 40
0.8750000000000014
 40
0.9062500000000011
 40
0.9062500000000011
 40
0.9375000000000008
 40
0.9375000000000008
 40
0.9687500000000003
 40
0.9687500000000003
 40
1.0
 40
1.0
 40
1.031250000000001
 40
1.031250000000001
 10
179.4914567715764
 20
107.2922407514659
 30
0.0
 10
178.7616166486619
 20
107.2922407514659
 30
0.0
 10
178.4023586911351
 20
107.3241414317117
 30
0.0
 10
177.871642691167
 20
107.4182719613317
 30
0.0
 10
177.6961085835935
 20
107.4574199181468
 30
0.0
 10
177.3478412846613
 20
107.5516906064548
 30
0.0
 10
177.1742124723084
 20
107.6071794235966
 30
0.0
 10
176.6662769575858
 20
107.795630701226
 30
0.0
 10
176.3441034840305
 20
107.9501176609013
 30
0.0
 10
175.7323843099296
 20
108.3175881586212
 30
0.0
 10
175.4398886903883
 20
108.5335745977017
 30
0.0
 10
174.9099131382982
 20
109.0133926699641
 30
0.0
 10
174.671315996734
 20
109.2767585242042
 30
0.0
 10
174.2480042634197
 20
109.8525822160088
 30
0.0
 10
174.062959372381
 20
110.1677688487468
 30
0.0
 10
173.7673606033194
 20
110.8199083467477
 30
0.0
 10
173.6538674243302
 20
111.1599475959589
 30
0.0
 10
173.5376730023939
 20
111.6923139952836
 30
0.0
 10
173.5083183467895
 20
111.872839774018
 30
0.0
 10
173.4693667767804
 20
112.2321274765358
 30
0.0
 10
173.4496523977967
 20
112.5918531484812
 30
0.0
 10
173.4680245432914
 20
112.9524469866881
 30
0.0
 10
173.505891350412
 20
113.313484694957
 30
0.0
 10
173.5347863462048
 20
113.494581275732
 30
0.0
 10
173.6486970777897
 20
114.0250844736076
 30
0.0
 10
173.7609034999082
 20
114.3663433245424
 30
0.0
 10
173.982955619803
 20
114.8600867683006
 30
0.0
 10
174.0663692261688
 20
115.022041995057
 30
0.0
 10
174.2475246316897
 20
115.332761748208
 30
0.0
 10
174.3456096552257
 20
115.4824336868756
 30
0.0
 10
174.5563831828298
 20
115.7708346768283
 30
0.0
 10
174.6690730405047
 20
115.9095624991332
 30
0.0
 10
174.9090992273458
 20
116.1761736457134
 30
0.0
 10
175.0370868361113
 20
116.3045671644058
 30
0.0
 10
175.4357972070856
 20
116.6664336094863
 30
0.0
 10
175.7224848399938
 20
116.8788140582493
 30
0.0
 10
176.3363066423966
 20
117.2490762183022
 30
0.0
 10
176.6652918375707
 20
117.4069084958862
 30
0.0
 10
177.3381793850089
 20
117.6569964821877
 30
0.0
 10
177.684953652716
 20
117.7513474544293
 30
0.0
 10
178.3994129232096
 20
117.8788462122065
 30
0.0
 10
178.7625751008798
 20
117.910653155892
 30
0.0
 10
179.4826071600619
 20
117.9111114327397
 30
0.0
 10
179.8426424024674
 20
117.8802203768738
 30
0.0
 10
180.5601076762881
 20
117.753353818368
 30
0.0
 10
180.9071721240327
 20
117.6592800647168
 30
0.0
 10
181.4108087054389
 20
117.4729652254602
 30
0.0
 10
181.5758415405577
 20
117.4032715633349
 30
0.0
 10
181.9000702183596
 20
117.2481595165716
 30
0.0
 10
182.0601062143827
 20
117.1621952475899
 30
0.0
 10
182.5228128409399
 20
116.8843026099725
 30
0.0
 10
182.8091431038972
 20
116.6726319585467
 30
0.0
 10
183.3376546506106
 20
116.1952827375518
 30
0.0
 10
183.5822512882908
 20
115.9258441187009
 30
0.0
 10
184.0061178456369
 20
115.3489648875962
 30
0.0
 10
184.1868092754376
 20
115.0416496820147
 30
0.0
 10
184.4098469189805
 20
114.5510748787175
 30
0.0
 10
184.4764713742142
 20
114.3814928689882
 30
0.0
 10
184.5908073725149
 20
114.0373570550802
 30
0.0
 10
184.6384433342425
 20
113.8634786468388
 30
0.0
 10
184.753411221128
 20
113.3365062022037
 30
0.0
 10
184.7931273033147
 20
112.9780137644066
 30
0.0
 10
184.7946666077143
 20
112.2465500317094
 30
0.0
 10
184.7564823782755
 20
111.8876450916606
 30
0.0
 10
184.6056627093481
 20
111.1828232961432
 30
0.0
 10
184.4909371505144
 20
110.833742395009
 30
0.0
 10
184.1958988196026
 20
110.1783070112474
 30
0.0
 10
184.0156258180342
 20
109.8687780965201
 30
0.0
 10
183.5894302118017
 20
109.2854365744081
 30
0.0
 10
183.3487418176787
 20
109.0192129558982
 30
0.0
 10
182.8202095330963
 20
108.539185637435
 30
0.0
 10
182.5282514587998
 20
108.3226532352535
 30
0.0
 10
181.9133697234975
 20
107.9522485080039
 30
0.0
 10
181.5907053368538
 20
107.7974229147567
 30
0.0
 10
180.9154353427378
 20
107.5462091648787
 30
0.0
 10
180.5620233092644
 20
107.4504483243243
 30
0.0
 10
179.8517996749069
 20
107.3241893071993
 30
0.0
 10
179.4914567715764
 20
107.2922407514659
 30
0.0
 10
178.7616166486619
 20
107.2922407514659
 30
0.0
  0
SPLINE
  5
D9
330
1F
100
AcDbEntity
  8
0
  6
HIDDEN
 62
     7
370
     0
100
AcDbSpline
210
0.0
220
0.0
230
1.0
 70
     8
 71
     3
 72
    11
 73
     7
 74
     0
 42
0.00000001
 43
0.00000001
 40
0.0
 40
0.0
 40
0.0
 40
0.0
 40
0.0005779865010845
 40
0.0005779865010845
 40
0.0005779865010845
 40
0.0011559733324421
 40
0.0011559733324421
 40
0.0011559733324421
 40
0.0011559733324421
 10
99.52653671011919
 20
114.601402758907
 30
0.0
 10
99.69320396492515
 20
114.599419119566
 30
0.0
 10
99.85987039460281
 20
114.5973815125634
 30
0.0
 10
100.0265367330546
 20
114.595270049157
 30
0.0
 10
100.193203161881
 20
114.5931585846056
 30
0.0
 10
100.3598695355187
 20
114.5909730214493
 30
0.0
 10
100.5265367101192
 20
114.5886904441177
 30
0.0
  0
SPLINE
  5
DA
330
1F
100
AcDbEntity
  8
0
  6
HIDDEN
 62
     7
370
     0
100
AcDbSpline
210
0.0
220
0.0
230
1.0
 70
     8
 71
     3
 72
     8
 73
     4
 74
     0
 42
0.00000001
 43
0.00000001
 40
0.0
 40
0.0
 40
0.0
 40
0.0
 40
0.0011564765856722
 40
0.0011564765856722
 40
0.0011564765856722
 40
0.0011564765856722
 10
100.5265367101192
 20
110.6048618485369
 30
0.0
 10
100.1932287795503
 20
110.6039866929536
 30
0.0
 10
99.85989354715812
 20
110.6029318417021
 30
0.0
 10
99.52653671011917
 20
110.6017607546646
 30
0.0
  0
LINE
  5
DB
330
1F
100
AcDbEntity
  8
0
  6
HIDDEN
 62
     7
370
     0
100
AcDbLine
 10
139.0863626722
 20
95.6015612269
 30
0.0
 11
139.0863626722
 21
129.6015630746
 31
0.0
  0
LINE
  5
DC
330
1F
100
AcDbEntity
  8
0
  6
HIDDEN
 62
     7
370
     0
100
AcDbLine
 10
141.3765365715
 20
96.8765623206
 30
0.0
 11
141.3765365715
 21
128.3265619809
 31
0.0
  0
SPLINE
  5
DD
330
1F
100
AcDbEntity
  8
0
  6
HIDDEN
 62
     7
370
     0
100
AcDbSpline
210
0.0
220
0.0
230
1.0
 70
     8
 71
     3
 72
    16
 73
    12
 74
     0
 42
0.00000001
 43
0.00000001
 40
0.0
 40
0.0
 40
0.0
 40
0.0
 40
0.124999999999998
 40
0.124999999999998
 40
0.249999999999996
 40
0.249999999999996
 40
0.4999999999999973
 40
0.4999999999999973
 40
0.7499999999999987
 40
0.7499999999999987
 40
1.0
 40
1.0
 40
1.0
 40
1.0
 10
108.2265367101192
 20
96.8000717147215
 30
0.0
 10
108.321658464785
 20
96.8000717147215
 30
0.0
 10
108.4149885335131
 20
96.79625588132869
 30
0.0
 10
108.5982502942511
 20
96.78148532859888
 30
0.0
 10
108.6891280098081
 20
96.77032728062329
 30
0.0
 10
108.9459297073278
 20
96.72785601048157
 30
0.0
 10
109.1009970721998
 20
96.68680981327877
 30
0.0
 10
109.3547435337544
 20
96.59166369669688
 30
0.0
 10
109.4556139854223
 20
96.5369009626153
 30
0.0
 10
109.5908604001171
 20
96.42563983871145
 30
0.0
 10
109.6265367101192
 20
96.36847010138274
 30
0.0
 10
109.6265367101192
 20
96.31404852834902
 30
0.0
  0
SPLINE
  5
DE
330
1F
100
AcDbEntity
  8
0
  6
HIDDEN
 62
     7
370
     0
100
AcDbSpline
210
0.0
220
0.0
230
1.0
 70
     8
 71
     3
 72
     8
 73
     4
 74
     0
 42
0.00000001
 43
0.00000001
 40
0.0
 40
0.0
 40
0.0
 40
0.0
 40
1.0
 40
1.0
 40
1.0
 40
1.0
 10
100.8265367134344
 20
98.94487466080373
 30
0.0
 10
100.8265367134363
 20
98.06097751848681
 30
0.0
 10
100.8130560875265
 20
97.34639427342485
 30
0.0
 10
100.8117047193372
 20
96.8000717147215
 30
0.0
  0
SPLINE
  5
DF
330
1F
100
AcDbEntity
  8
0
  6
HIDDEN
 62
     7
370
     0
100
AcDbSpline
210
0.0
220
0.0
230
1.0
 70
     8
 71
     3
 72
    10
 73
     6
 74
     0
 42
0.00000001
 43
0.00000001
 40
0.0
 40
0.0
 40
0.0
 40
0.0
 40
0.5
 40
0.5
 40
1.0
 40
1.0
 40
1.0
 40
1.0
 10
100.5265367101192
 20
99.96978492650693
 30
0.0
 10
100.6179278258121
 20
99.7951461388895
 30
0.0
 10
100.6905796595451
 20
99.62154431163394
 30
0.0
 10
100.7980785525533
 20
99.27793089262723
 30
0.0
 10
100.8265367134287
 20
99.10960506609577
 30
0.0
 10
100.8265367134344
 20
98.9448746608632
 30
0.0
  0
LINE
  5
E0
330
1F
100
AcDbEntity
  8
0
  6
HIDDEN
 62
     7
370
     0
100
AcDbLine
 10
100.5265370469
 20
103.0007356117
 30
0.0
 11
100.5265370469
 21
99.9697844768
 31
0.0
  0
SPLINE
  5
E1
330
1F
100
AcDbEntity
  8
0
  6
HIDDEN
 62
     7
370
     0
100
AcDbSpline
210
0.0
220
0.0
230
1.0
 70
     8
 71
     3
 72
    10
 73
     6
 74
     0
 42
0.00000001
 43
0.00000001
 40
0.0
 40
0.0
 40
0.0
 40
0.0
 40
0.5
 40
0.5
 40
1.0
 40
1.0
 40
1.0
 40
1.0
 10
100.8265367133069
 20
104.3685757751103
 30
0.0
 10
100.8265367133069
 20
104.1265918075035
 30
0.0
 10
100.7983866842363
 20
103.8922493785385
 30
0.0
 10
100.6947967700939
 20
103.4368743562608
 30
0.0
 10
100.6181680605024
 20
103.2152697931534
 30
0.0
 10
100.5265367101192
 20
103.0007353583555
 30
0.0
  0
LINE
  5
E2
330
1F
100
AcDbEntity
  8
0
  6
HIDDEN
 62
     7
370
     0
100
AcDbLine
 10
100.8265365373
 20
116.2061958844
 30
0.0
 11
100.8265365373
 21
104.3685755962
 31
0.0
  0
SPLINE
  5
E3
330
1F
100
AcDbEntity
  8
0
  6
HIDDEN
 62
     7
370
     0
100
AcDbSpline
210
0.0
220
0.0
230
1.0
 70
     8
 71
     3
 72
     8
 73
     4
 74
     0
 42
0.00000001
 43
0.00000001
 40
0.0
 40
0.0
 40
0.0
 40
0.0
 40
1.0
 40
1.0
 40
1.0
 40
1.0
 10
100.5265367101192
 20
122.2085014718215
 30
0.0
 10
100.7075681766781
 20
121.7763939861588
 30
0.0
 10
100.8265367133126
 20
121.3222485800592
 30
0.0
 10
100.8265367133069
 20
120.8345485263651
 30
0.0
  0
LINE
  5
E4
330
1F
100
AcDbEntity
  8
0
  6
HIDDEN
 62
     7
370
     0
100
AcDbLine
 10
100.5265370469
 20
125.2417040328
 30
0.0
 11
100.5265370469
 21
122.2085018912
 31
0.0
  0
SPLINE
  5
E5
330
1F
100
AcDbEntity
  8
0
  6
HIDDEN
 62
     7
370
     0
100
AcDbSpline
210
0.0
220
0.0
230
1.0
 70
     8
 71
     3
 72
    10
 73
     6
 74
     0
 42
0.00000001
 43
0.00000001
 40
0.0
 40
0.0
 40
0.0
 40
0.0
 40
0.5
 40
0.5
 40
1.0
 40
1.0
 40
1.0
 40
1.0
 10
100.8265367135124
 20
126.258249640673
 30
0.0
 10
100.8265367135106
 20
126.093613294067
 30
0.0
 10
100.7993780427551
 20
125.9264580702365
 30
0.0
 10
100.6936130474367
 20
125.5878350624349
 30
0.0
 10
100.6171982591395
 20
125.4155632851438
 30
0.0
 10
100.5265367101192
 20
125.2417044577998
 30
0.0
  0
SPLINE
  5
E6
330
1F
100
AcDbEntity
  8
0
  6
HIDDEN
 62
     7
370
     0
100
AcDbSpline
210
0.0
220
0.0
230
1.0
 70
     8
 71
     3
 72
    18
 73
    14
 74
     0
 42
0.00000001
 43
0.00000001
 40
0.0
 40
0.0
 40
0.0
 40
0.0
 40
0.2500000000000033
 40
0.2500000000000033
 40
0.3750000000000029
 40
0.3750000000000029
 40
0.5000000000000026
 40
0.5000000000000026
 40
0.6250000000000022
 40
0.6250000000000022
 40
0.7500000000000018
 40
0.7500000000000018
 40
1.0
 40
1.0
 40
1.0
 40
1.0
 10
105.6265367101192
 20
128.8890757731573
 30
0.0
 10
105.6265367101192
 20
128.8346012526051
 30
0.0
 10
105.591626018727
 20
128.7782201932526
 30
0.0
 10
105.4896167173939
 20
128.6941433523991
 30
0.0
 10
105.4479803627158
 20
128.6668096484082
 30
0.0
 10
105.3495745672271
 20
128.6138557328092
 30
0.0
 10
105.2920313555228
 20
128.587968379092
 30
0.0
 10
105.1647331819499
 20
128.5401908342588
 30
0.0
 10
105.0951458771924
 20
128.5182429160809
 30
0.0
 10
104.9437116320374
 20
128.4788103511682
 30
0.0
 10
104.8610277289435
 20
128.4612541019423
 30
0.0
 10
104.6049162669054
 20
128.4188153365218
 30
0.0
 10
104.4170012630175
 20
128.4030525867848
 30
0.0
 10
104.2265367101192
 20
128.4030525867848
 30
0.0
  0
LINE
  5
E7
330
1F
100
AcDbEntity
  8
0
  6
HIDDEN
 62
     7
370
     0
100
AcDbLine
 10
104.2265363495
 20
128.4030533666
 30
0.0
 11
100.8265365373
 21
128.4030533666
 31
0.0
  0
LINE
  5
E8
330
1F
100
AcDbEntity
  8
0
  6
HIDDEN
 62
     7
370
     0
100
AcDbLine
 10
100.7575683753
 20
96.8000709349
 30
0.0
 11
108.2265370052
 21
96.8000709349
 31
0.0
  0
SPLINE
  5
E9
330
1F
100
AcDbEntity
  8
0
  6
HIDDEN
 62
     7
370
     0
100
AcDbSpline
210
0.0
220
0.0
230
1.0
 70
     8
 71
     3
 72
    22
 73
    18
 74
     0
 42
0.00000001
 43
0.00000001
 40
0.0
 40
0.0
 40
0.0
 40
0.0
 40
0.1249999999999998
 40
0.1249999999999998
 40
0.2499999999999995
 40
0.2499999999999995
 40
0.4999999999999992
 40
0.4999999999999992
 40
0.5624999999999993
 40
0.5624999999999993
 40
0.6249999999999994
 40
0.6249999999999994
 40
0.7499999999999996
 40
0.7499999999999996
 40
0.8749999999999998
 40
0.8749999999999998
 40
1.0
 40
1.0
 40
1.0
 40
1.0
 10
100.7575677234771
 20
96.8000717147215
 30
0.0
 10
100.7444853307487
 20
97.05517742486916
 30
0.0
 10
100.7312657673089
 20
97.34833568397306
 30
0.0
 10
100.7088185895148
 20
98.01063614959787
 30
0.0
 10
100.6993401224903
 20
98.38091007020925
 30
0.0
 10
100.6801421615537
 20
99.60346687332306
 30
0.0
 10
100.6812559345506
 20
100.5406057994549
 30
0.0
 10
100.7001667275037
 20
101.8604770289699
 30
0.0
 10
100.7047962553627
 20
102.1319789379462
 30
0.0
 10
100.7152774751087
 20
102.6903637727485
 30
0.0
 10
100.7210727363931
 20
102.9774866286881
 30
0.0
 10
100.739381957298
 20
103.8500758830598
 30
0.0
 10
100.7534168915784
 20
104.4505315594157
 30
0.0
 10
100.7828740637152
 20
105.6880060519117
 30
0.0
 10
100.7984297546968
 20
106.3250222085552
 30
0.0
 10
100.8222243046937
 20
107.6365108062397
 30
0.0
 10
100.830243356839
 20
108.3126334179003
 30
0.0
 10
100.8265367101192
 20
108.9969285291851
 30
0.0
  0
LINE
  5
EA
330
1F
100
AcDbEntity
  8
0
  6
HIDDEN
 62
     7
370
     0
100
AcDbLine
 10
100.8265365373
 20
116.2061958844
 30
0.0
 11
100.8265365373
 21
128.4030533666
 31
0.0
  0
SPLINE
  5
EB
330
1F
100
AcDbEntity
  8
0
  6
HIDDEN
 62
     7
370
     0
100
AcDbSpline
210
0.0
220
0.0
230
1.0
 70
     8
 71
     3
 72
    10
 73
     6
 74
     0
 42
0.00000001
 43
0.00000001
 40
0.0
 40
0.0
 40
0.0
 40
0.0
 40
0.5
 40
0.5
 40
1.0
 40
1.0
 40
1.0
 40
1.0
 10
100.8265367101192
 20
108.99692852917
 30
0.0
 10
100.826536710119
 20
109.2708436772443
 30
0.0
 10
100.8007774802513
 20
109.5417852559744
 30
0.0
 10
100.6975715475182
 20
110.0774763375773
 30
0.0
 10
100.6202333836429
 20
110.3432231410993
 30
0.0
 10
100.5265367101192
 20
110.6048618485369
 30
0.0
  0
SPLINE
  5
EC
330
1F
100
AcDbEntity
  8
0
  6
HIDDEN
 62
     7
370
     0
100
AcDbSpline
210
0.0
220
0.0
230
1.0
 70
     8
 71
     3
 72
    10
 73
     6
 74
     0
 42
0.00000001
 43
0.00000001
 40
0.0
 40
0.0
 40
0.0
 40
0.0
 40
0.5
 40
0.5
 40
1.0
 40
1.0
 40
1.0
 40
1.0
 10
100.5265367101192
 20
114.5886904441177
 30
0.0
 10
100.6197672915102
 20
114.8525842521878
 30
0.0
 10
100.6947969037469
 20
115.118764562826
 30
0.0
 10
100.7998640029251
 20
115.6570871377842
 30
0.0
 10
100.8265367135113
 20
115.9298352540298
 30
0.0
 10
100.8265367135124
 20
116.2061957723203
 30
0.0
  0
LINE
  5
ED
330
1F
100
AcDbEntity
  8
0
  6
HIDDEN
 62
     7
370
     0
100
AcDbLine
 10
100.5265370469
 20
110.6048619645
 30
0.0
 11
100.5265370469
 21
114.5886904364
 31
0.0
  0
SPLINE
  5
EE
330
1F
100
AcDbEntity
  8
0
  6
HIDDEN
 62
     7
370
     0
100
AcDbSpline
210
0.0
220
0.0
230
1.0
 70
     8
 71
     3
 72
    10
 73
     6
 74
     0
 42
0.00000001
 43
0.00000001
 40
0.0
 40
0.0
 40
0.0
 40
0.0
 40
0.5
 40
0.5
 40
1.0
 40
1.0
 40
1.0
 40
1.0
 10
159.4265367101192
 20
108.6378362798781
 30
0.0
 10
159.3489781434918
 20
108.5099829611782
 30
0.0
 10
159.2439213252678
 20
108.3925211215134
 30
0.0
 10
158.9830682074685
 20
108.1709791619334
 30
0.0
 10
158.8344612479746
 20
108.0728521738232
 30
0.0
 10
158.6685707493297
 20
107.9838442957174
 30
0.0
  0
SPLINE
  5
EF
330
1F
100
AcDbEntity
  8
0
  6
HIDDEN
 62
     7
370
     0
100
AcDbSpline
210
0.0
220
0.0
230
1.0
 70
     8
 71
     3
 72
    14
 73
    10
 74
     0
 42
0.00000001
 43
0.00000001
 40
0.0
 40
0.0
 40
0.0
 40
0.0
 40
0.25
 40
0.25
 40
0.5
 40
0.5
 40
0.75
 40
0.75
 40
1.0
 40
1.0
 40
1.0
 40
1.0
 10
159.4265367101192
 20
109.5537962114862
 30
0.0
 10
159.4769741241534
 20
109.473426426808
 30
0.0
 10
159.5158145825575
 20
109.392123138437
 30
0.0
 10
159.5689113320966
 20
109.2282208605109
 30
0.0
 10
159.5827765773765
 20
109.1452179883979
 30
0.0
 10
159.5828275627642
 20
108.9872883329915
 30
0.0
 10
159.5692205714431
 20
108.9104152847492
 30
0.0
 10
159.5159699420223
 20
108.7662162260962
 30
0.0
 10
159.4769878089419
 20
108.6996505324706
 30
0.0
 10
159.4265367101192
 20
108.6378362798781
 30
0.0
  0
SPLINE
  5
F0
330
1F
100
AcDbEntity
  8
0
  6
HIDDEN
 62
     7
370
     0
100
AcDbSpline
210
0.0
220
0.0
230
1.0
 70
     8
 71
     3
 72
    10
 73
     6
 74
     0
 42
0.00000001
 43
0.00000001
 40
0.0
 40
0.0
 40
0.0
 40
0.0
 40
0.5
 40
0.5
 40
1.0
 40
1.0
 40
1.0
 40
1.0
 10
158.6685707493297
 20
110.0497862122714
 30
0.0
 10
158.8344597336626
 20
110.0135529490731
 30
0.0
 10
158.9832526956775
 20
109.9505259234388
 30
0.0
 10
159.244079731679
 20
109.7782197052568
 30
0.0
 10
159.3489774385183
 20
109.6737640139328
 30
0.0
 10
159.4265367101192
 20
109.5537962114862
 30
0.0
  0
SPLINE
  5
F1
330
1F
100
AcDbEntity
  8
0
  6
HIDDEN
 62
     7
370
     0
100
AcDbSpline
210
0.0
220
0.0
230
1.0
 70
     8
 71
     3
 72
     8
 73
     4
 74
     0
 42
0.00000001
 43
0.00000001
 40
0.0
 40
0.0
 40
0.0
 40
0.0
 40
1.0
 40
1.0
 40
1.0
 40
1.0
 10
158.5317626919994
 20
110.0883718333997
 30
0.0
 10
158.5789980102498
 20
110.0720251367337
 30
0.0
 10
158.6246638091109
 20
110.0593763109002
 30
0.0
 10
158.6685707493297
 20
110.0497862122714
 30
0.0
  0
SPLINE
  5
F2
330
1F
100
AcDbEntity
  8
0
  6
HIDDEN
 62
     7
370
     0
100
AcDbSpline
210
0.0
220
0.0
230
1.0
 70
     8
 71
     3
 72
    28
 73
    24
 74
     0
 42
0.00000001
 43
0.00000001
 40
0.0
 40
0.0
 40
0.0
 40
0.0
 40
0.0625000000000001
 40
0.0625000000000001
 40
0.1250000000000002
 40
0.1250000000000002
 40
0.2500000000000003
 40
0.2500000000000003
 40
0.3125000000000004
 40
0.3125000000000004
 40
0.3750000000000005
 40
0.3750000000000005
 40
0.4999999999999999
 40
0.4999999999999999
 40
0.6249999999999993
 40
0.6249999999999993
 40
0.7499999999999989
 40
0.7499999999999989
 40
0.8124999999999992
 40
0.8124999999999992
 40
0.8749999999999994
 40
0.8749999999999994
 40
1.0
 40
1.0
 40
1.0
 40
1.0
 10
158.5317626919994
 20
107.935313718794
 30
0.0
 10
158.4014258969539
 20
107.9110203514961
 30
0.0
 10
158.267987270028
 20
107.8941657342997
 30
0.0
 10
157.9947529350851
 20
107.8740540396982
 30
0.0
 10
157.8533593083263
 20
107.8709658057114
 30
0.0
 10
157.4399164893156
 20
107.8842940350339
 30
0.0
 10
157.1670635707139
 20
107.9234749134663
 30
0.0
 10
156.8186726685116
 20
108.0355468469296
 30
0.0
 10
156.7107374012435
 20
108.0825731284175
 30
0.0
 10
156.5246051458141
 20
108.1930282685623
 30
0.0
 10
156.4436835852552
 20
108.2579388098965
 30
0.0
 10
156.2486876566281
 20
108.4762670816527
 30
0.0
 10
156.1806851228885
 20
108.6556611390479
 30
0.0
 10
156.1797330376598
 20
109.0479230715313
 30
0.0
 10
156.2474736267904
 20
109.2620998578979
 30
0.0
 10
156.5059932147364
 20
109.6581627215295
 30
0.0
 10
156.6973614557768
 20
109.8400277642145
 30
0.0
 10
157.0456587923694
 20
110.0379962509705
 30
0.0
 10
157.1731666259352
 20
110.0921468526683
 30
0.0
 10
157.4358319303791
 20
110.1694946110753
 30
0.0
 10
157.5745694636758
 20
110.1937916946584
 30
0.0
 10
157.9901868696851
 20
110.2207152529939
 30
0.0
 10
158.2709029308888
 20
110.1786474056869
 30
0.0
 10
158.5317626919994
 20
110.0883718333997
 30
0.0
  0
SPLINE
  5
F3
330
1F
100
AcDbEntity
  8
0
  6
HIDDEN
 62
     7
370
     0
100
AcDbSpline
210
0.0
220
0.0
230
1.0
 70
     8
 71
     3
 72
     8
 73
     4
 74
     0
 42
0.00000001
 43
0.00000001
 40
0.0
 40
0.0
 40
0.0
 40
0.0
 40
1.0
 40
1.0
 40
1.0
 40
1.0
 10
158.6685707493297
 20
107.9838442957174
 30
0.0
 10
158.6246638091109
 20
107.9602862039948
 30
0.0
 10
158.5789980102498
 20
107.9441178706476
 30
0.0
 10
158.5317626919994
 20
107.935313718794
 30
0.0
  0
SPLINE
  5
F4
330
1F
100
AcDbEntity
  8
0
  6
HIDDEN
 62
     7
370
     0
100
AcDbSpline
210
0.0
220
0.0
230
1.0
 70
     8
 71
     3
 72
    19
 73
    15
 74
     0
 42
0.00000001
 43
0.00000001
 40
0.0
 40
0.0
 40
0.0
 40
0.0
 40
0.1059225051468858
 40
0.1842272149023027
 40
0.2631168592657314
 40
0.3303165310683202
 40
0.4162063893384834
 40
0.538431677636316
 40
0.6657543337414604
 40
0.7472484155972373
 40
0.8155370086228034
 40
0.8838882931691784
 40
0.9735555100915241
 40
1.0
 40
1.0
 40
1.0
 40
1.0
 10
161.586039931631
 20
104.0191694432861
 30
0.0
 10
161.6733847143135
 20
104.031947819946
 30
0.0
 10
161.8253003627164
 20
104.0541727922478
 30
0.0
 10
161.9668680556021
 20
104.209893186579
 30
0.0
 10
162.0013372503956
 20
104.4202031899331
 30
0.0
 10
161.9369422718736
 20
104.6893003234345
 30
0.0
 10
161.7664891702262
 20
105.0263382443776
 30
0.0
 10
161.4791697720878
 20
105.4187956285344
 30
0.0
 10
161.1765748548691
 20
105.777400607961
 30
0.0
 10
160.9664885009437
 20
106.0639999416378
 30
0.0
 10
160.8707917246338
 20
106.2716647390835
 30
0.0
 10
160.8616878752514
 20
106.4272544567616
 30
0.0
 10
160.9081224885405
 20
106.5081753335201
 30
0.0
 10
160.9430726266777
 20
106.4937287639233
 30
0.0
 10
160.9510325352906
 20
106.4904385516411
 30
0.0
  0
LWPOLYLINE
  5
F5
330
1F
100
AcDbEntity
  8
0
  6
HIDDEN
 62
     7
370
     0
100
AcDbPolyline
 90
       11
 70
   128
 43
0.0
 10
161.009225295
 20
106.4744514683
 10
161.0762097399
 20
106.3087356547
 10
161.0852528821
 20
106.0350446301
 10
161.0436972688
 20
105.7054737853
 10
160.9672897022
 20
105.3283654423
 10
160.8858604442
 20
104.9089899557
 10
160.870927618
 20
104.6140452186
 10
160.9382939051
 20
104.3642039681
 10
161.1011915366
 20
104.1745252246
 10
161.4355661433
 20
104.0310046906
 10
161.5860399316
 20
104.0191694433
  0
SPLINE
  5
F6
330
1F
100
AcDbEntity
  8
0
  6
HIDDEN
 62
     7
370
     0
100
AcDbSpline
210
0.0
220
0.0
230
1.0
 70
     8
 71
     3
 72
    50
 73
    46
 74
     0
 42
0.00000001
 43
0.00000001
 40
-0.0625000000000007
 40
-0.0625000000000007
 40
0.0
 40
0.0
 40
0.0312499999999999
 40
0.0312499999999999
 40
0.0624999999999998
 40
0.0624999999999998
 40
0.0937499999999996
 40
0.0937499999999996
 40
0.1249999999999995
 40
0.1249999999999995
 40
0.1874999999999991
 40
0.1874999999999991
 40
0.2499999999999987
 40
0.2499999999999987
 40
0.3124999999999983
 40
0.3124999999999983
 40
0.3749999999999978
 40
0.3749999999999978
 40
0.4062499999999977
 40
0.4062499999999977
 40
0.4374999999999976
 40
0.4374999999999976
 40
0.4999999999999977
 40
0.4999999999999977
 40
0.5624999999999979
 40
0.5624999999999979
 40
0.6249999999999981
 40
0.6249999999999981
 40
0.656249999999998
 40
0.656249999999998
 40
0.6874999999999979
 40
0.6874999999999979
 40
0.7187499999999978
 40
0.7187499999999978
 40
0.7499999999999976
 40
0.7499999999999976
 40
0.8124999999999981
 40
0.8124999999999981
 40
0.8749999999999987
 40
0.8749999999999987
 40
0.906249999999999
 40
0.906249999999999
 40
0.9374999999999993
 40
0.9374999999999993
 40
1.0
 40
1.0
 40
1.03125
 40
1.03125
 10
158.6245908463052
 20
103.9368937608631
 30
0.0
 10
158.6806791078482
 20
103.9384520218334
 30
0.0
 10
158.6986307660272
 20
103.9477525910138
 30
0.0
 10
158.7280217129634
 20
103.9838366292597
 30
0.0
 10
158.7394505645265
 20
104.0111054322865
 30
0.0
 10
158.7471550319842
 20
104.0820366762934
 30
0.0
 10
158.7432024707817
 20
104.1268327993793
 30
0.0
 10
158.714004036133
 20
104.2283179176463
 30
0.0
 10
158.6888061805749
 20
104.2851660812506
 30
0.0
 10
158.5857121505639
 20
104.4663189547709
 30
0.0
 10
158.4849610794401
 20
104.5954755015292
 30
0.0
 10
158.2740458628697
 20
104.8571495279527
 30
0.0
 10
158.1612688304377
 20
104.9929460895164
 30
0.0
 10
157.9505595719388
 20
105.2727650980087
 30
0.0
 10
157.8512291314256
 20
105.4176651731963
 30
0.0
 10
157.6938204919131
 20
105.7156347162237
 30
0.0
 10
157.6390392905881
 20
105.8665053841282
 30
0.0
 10
157.6231146026001
 20
106.0618316903665
 30
0.0
 10
157.6288018474086
 20
106.1221543048715
 30
0.0
 10
157.6603622552463
 20
106.2247271269361
 30
0.0
 10
157.6865067177337
 20
106.2683745459511
 30
0.0
 10
157.7851670485538
 20
106.3719205646887
 30
0.0
 10
157.8790719439191
 20
106.4079380400604
 30
0.0
 10
158.082623969029
 20
106.4286619954871
 30
0.0
 10
158.1948135383985
 20
106.4141471127305
 30
0.0
 10
158.4114016432352
 20
106.3385455464424
 30
0.0
 10
158.5182371141353
 20
106.2774203483301
 30
0.0
 10
158.642555016268
 20
106.1358979356159
 30
0.0
 10
158.6769597438832
 20
106.080756316137
 30
0.0
 10
158.7256001706583
 20
105.9535035990402
 30
0.0
 10
158.7393998027222
 20
105.8813620589814
 30
0.0
 10
158.7473974785823
 20
105.7283137388058
 30
0.0
 10
158.7419478212643
 20
105.6458688206865
 30
0.0
 10
158.7206871187029
 20
105.4796662192386
 30
0.0
 10
158.7048387473881
 20
105.3939292699674
 30
0.0
 10
158.6522136209633
 20
105.1353689508577
 30
0.0
 10
158.6110900860467
 20
104.9606042326564
 30
0.0
 10
158.5497233330337
 20
104.6325698977793
 30
0.0
 10
158.5287815380608
 20
104.4759938545056
 30
0.0
 10
158.5229973539612
 20
104.280780712729
 30
0.0
 10
158.5251855021626
 20
104.2209303328878
 30
0.0
 10
158.5373043713616
 20
104.1188739228584
 30
0.0
 10
158.5471738810999
 20
104.0757471647431
 30
0.0
 10
158.5863678396465
 20
103.970980971596
 30
0.0
 10
158.6245908463052
 20
103.9368937608631
 30
0.0
 10
158.6806791078482
 20
103.9384520218334
 30
0.0
  0
LWPOLYLINE
  5
F7
330
1F
100
AcDbEntity
  8
0
  6
HIDDEN
 62
     7
370
     0
100
AcDbPolyline
 90
       23
 70
   128
 43
0.0
 10
161.6924956898
 20
100.3893937254
 10
162.1293213676
 20
100.5490773628
 10
162.5307567875
 20
100.7903467203
 10
162.8642801653
 20
101.0936533371
 10
163.102873833
 20
101.4344270611
 10
163.227209122
 20
101.7850588346
 10
163.227209122
 20
102.1171442503
 10
163.102873833
 20
102.4037783304
 10
162.8642801653
 20
102.6217394778
 10
162.5307567875
 20
102.7533716792
 10
162.1293213676
 20
102.7880084971
 10
161.6924956898
 20
102.7228457192
 10
161.2556718747
 20
102.5631611506
 10
160.8542364548
 20
102.3218927244
 10
160.5207112144
 20
102.0185851762
 10
160.2821194093
 20
101.6778123835
 10
160.1577859829
 20
101.3271796787
 10
160.1577859829
 20
100.9950951943
 10
160.2821194093
 20
100.7084611142
 10
160.5207112144
 20
100.4904990355
 10
160.8542364548
 20
100.3588677654
 10
161.2556718747
 20
100.3242300162
 10
161.6924956898
 20
100.3893937254
  0
LINE
  5
F8
330
1F
100
AcDbEntity
  8
0
  6
HIDDEN
 62
     7
370
     0
100
AcDbLine
 10
100.6765358608
 20
94.6115616048
 30
0.0
 11
100.6765358608
 21
91.7316234941
 31
0.0
  0
LINE
  5
F9
330
1F
100
AcDbEntity
  8
0
  6
HIDDEN
 62
     7
370
     0
100
AcDbLine
 10
109.6265364896
 20
94.6115616048
 30
0.0
 11
109.6265364896
 21
90.6378242457
 31
0.0
  0
LINE
  5
FA
330
1F
100
AcDbEntity
  8
0
  6
HIDDEN
 62
     7
370
     0
100
AcDbLine
 10
100.6765358608
 20
130.5915626967
 30
0.0
 11
100.6765358608
 21
133.4715008074
 31
0.0
  0
LINE
  5
FB
330
1F
100
AcDbEntity
  8
0
  6
HIDDEN
 62
     7
370
     0
100
AcDbLine
 10
105.6265358339
 20
130.5915626967
 30
0.0
 11
105.6265358339
 21
134.4456698084
 31
0.0
  0
LINE
  5
FC
330
1F
100
AcDbEntity
  8
0
  6
HIDDEN
 62
     7
370
     0
100
AcDbLine
 10
150.2265364389
 20
103.1015624562
 30
0.0
 11
150.2265364389
 21
122.1015618453
 31
0.0
  0
LINE
  5
FD
330
1F
100
AcDbEntity
  8
0
  6
HIDDEN
 62
     7
370
     0
100
AcDbLine
 10
153.2265369307
 20
103.1015624562
 30
0.0
 11
153.2265369307
 21
122.1015618453
 31
0.0
  0
LINE
  5
FE
330
1F
100
AcDbEntity
  8
0
  6
HIDDEN
 62
     7
370
     0
100
AcDbLine
 10
141.8765366535
 20
104.1015616888
 30
0.0
 11
141.8765366535
 21
121.1015626127
 31
0.0
  0
LINE
  5
FF
330
1F
100
AcDbEntity
  8
0
  6
HIDDEN
 62
     7
370
     0
100
AcDbLine
 10
157.3765364002
 20
86.2015622938
 30
0.0
 11
151.2388617258
 21
86.2015622938
 31
0.0
  0
LINE
  5
100
330
1F
100
AcDbEntity
  8
0
  6
HIDDEN
 62
     7
370
     0
100
AcDbLine
 10
136.3765366833
 20
81.1174388314
 30
0.0
 11
136.3765366833
 21
86.2015622938
 31
0.0
  0
LINE
  5
101
330
1F
100
AcDbEntity
  8
0
  6
HIDDEN
 62
     7
370
     0
100
AcDbLine
 10
144.3765370633
 20
86.2015622938
 30
0.0
 11
136.3765366833
 21
86.2015622938
 31
0.0
  0
LINE
  5
102
330
1F
100
AcDbEntity
  8
0
  6
HIDDEN
 62
     7
370
     0
100
AcDbLine
 10
147.6142120074
 20
86.2015622938
 30
0.0
 11
144.3765370633
 21
86.2015622938
 31
0.0
  0
LWPOLYLINE
  5
103
330
1F
100
AcDbEntity
  8
0
  6
HIDDEN
 62
     7
370
     0
100
AcDbPolyline
 90
       20
 70
   128
 43
0.0
 10
156.4920891534
 20
103.8776475275
 10
156.4789463292
 20
103.9450370977
 10
156.4634640227
 20
104.1405291567
 10
156.4473223399
 20
104.4429379785
 10
156.4322703044
 20
104.8194931159
 10
156.4199395935
 20
105.2293896014
 10
156.4116638611
 20
105.6282089362
 10
156.4083427648
 20
105.9727321649
 10
156.4103357951
 20
106.2256253595
 10
156.4174250226
 20
106.3594834218
 10
156.4288430373
 20
106.3598005371
 10
156.4433549057
 20
106.2265427122
 10
156.4593848299
 20
105.9741501035
 10
156.4751968245
 20
105.6299737925
 10
156.4890772562
 20
105.2313104542
 10
156.4995229702
 20
104.821361349
 10
156.5054014783
 20
104.4445510292
 10
156.5060757558
 20
104.1417128677
 10
156.501471297
 20
103.9456629464
 10
156.4920891534
 20
103.8776475275
  0
LINE
  5
104
330
1F
100
AcDbEntity
  8
0
  6
HIDDEN
 62
     7
370
     0
100
AcDbLine
 10
147.9108345221
 20
139.0015620077
 30
0.0
 11
144.3765370633
 21
139.0015620077
 31
0.0
  0
LINE
  5
105
330
1F
100
AcDbEntity
  8
0
  6
HIDDEN
 62
     7
370
     0
100
AcDbLine
 10
157.3765364002
 20
139.0015620077
 30
0.0
 11
150.9422392111
 21
139.0015620077
 31
0.0
  0
LINE
  5
106
330
1F
100
AcDbEntity
  8
0
  6
HIDDEN
 62
     7
370
     0
100
AcDbLine
 10
144.3765370633
 20
139.0015620077
 30
0.0
 11
136.3765366833
 21
139.0015620077
 31
0.0
  0
SPLINE
  5
107
330
1F
100
AcDbEntity
  8
0
  6
HIDDEN
 62
     7
370
     0
100
AcDbSpline
210
0.0
220
0.0
230
1.0
 70
     8
 71
     3
 72
    11
 73
     7
 74
     0
 42
0.00000001
 43
0.00000001
 40
0.0
 40
0.0
 40
0.0
 40
0.0
 40
0.0008203708524183
 40
0.0008203708524183
 40
0.0008203708524183
 40
0.0016409967870154
 40
0.0016409967870154
 40
0.0016409967870154
 40
0.0016409967870154
 10
100.6765367101192
 20
96.74952940011042
 30
0.0
 10
100.4853784098205
 20
96.70835037149128
 30
0.0
 10
100.2939513397483
 20
96.66959639926128
 30
0.0
 10
100.1023057162277
 20
96.63322863998273
 30
0.0
 10
99.91060031114725
 20
96.59684953621671
 30
0.0
 10
99.71866135908829
 20
96.56285528544916
 30
0.0
 10
99.52653671201747
 20
96.53120716005795
 30
0.0
  0
ELLIPSE
  5
108
330
1F
100
AcDbEntity
  8
0
  6
HIDDEN
 62
     7
370
     0
100
AcDbEllipse
 10
95.2841048415
 20
112.6015621508
 30
0.0
 11
20.19992453366626
 21
-1.421085471520200E-14
 31
0.0
210
0.0
220
0.0
230
1.0
 40
0.8164965809
 41
1.300566354718001
 42
1.359198697209605
  0
LINE
  5
109
330
1F
100
AcDbEntity
  8
0
  6
HIDDEN
 62
     7
370
     0
100
AcDbLine
 10
109.6265364896
 20
94.6115616048
 30
0.0
 11
109.6265364896
 21
96.3140490735
 31
0.0
  0
LINE
  5
10A
330
1F
100
AcDbEntity
  8
0
  6
HIDDEN
 62
     7
370
     0
100
AcDbLine
 10
100.6765358608
 20
94.6115616048
 30
0.0
 11
100.6765358608
 21
96.7495299214
 31
0.0
  0
LINE
  5
10B
330
1F
100
AcDbEntity
  8
0
  6
HIDDEN
 62
     7
370
     0
100
AcDbLine
 10
100.7575683753
 20
96.8000709349
 30
0.0
 11
100.6765358608
 21
96.7495299214
 31
0.0
  0
LINE
  5
10C
330
1F
100
AcDbEntity
  8
0
  6
HIDDEN
 62
     7
370
     0
100
AcDbLine
 10
100.6765358608
 20
130.5915626967
 30
0.0
 11
100.6765358608
 21
128.4961874867
 31
0.0
  0
SPLINE
  5
10D
330
1F
100
AcDbEntity
  8
0
  6
HIDDEN
 62
     7
370
     0
100
AcDbSpline
210
0.0
220
0.0
230
1.0
 70
     8
 71
     3
 72
     8
 73
     4
 74
     0
 42
0.00000001
 43
0.00000001
 40
0.0
 40
0.0
 40
0.0
 40
0.0
 40
1.0
 40
1.0
 40
1.0
 40
1.0
 10
100.6765367101192
 20
128.4961866018118
 30
0.0
 10
100.7265422090629
 20
128.4651508275927
 30
0.0
 10
100.7765422797273
 20
128.4341061825651
 30
0.0
 10
100.8265367135124
 20
128.4030525867848
 30
0.0
  0
LINE
  5
10E
330
1F
100
AcDbEntity
  8
0
  6
HIDDEN
 62
     7
370
     0
100
AcDbLine
 10
105.6265358339
 20
130.5915626967
 30
0.0
 11
105.6265358339
 21
128.889075228
 31
0.0
  0
SPLINE
  5
10F
330
1F
100
AcDbEntity
  8
0
  6
HIDDEN
 62
     7
370
     0
100
AcDbSpline
210
0.0
220
0.0
230
1.0
 70
     8
 71
     3
 72
    28
 73
    24
 74
     0
 42
0.00000001
 43
0.00000001
 40
0.0
 40
0.0
 40
0.0
 40
0.0
 40
0.0625000000000001
 40
0.0625000000000001
 40
0.1250000000000002
 40
0.1250000000000002
 40
0.2500000000000003
 40
0.2500000000000003
 40
0.3125000000000003
 40
0.3125000000000003
 40
0.3750000000000004
 40
0.3750000000000004
 40
0.4999999999999996
 40
0.4999999999999996
 40
0.624999999999999
 40
0.624999999999999
 40
0.7499999999999986
 40
0.7499999999999986
 40
0.812499999999999
 40
0.812499999999999
 40
0.8749999999999993
 40
0.8749999999999993
 40
1.0
 40
1.0
 40
1.0
 40
1.0
 10
158.5317626919994
 20
117.2678105827123
 30
0.0
 10
158.4014258969539
 20
117.2921039500102
 30
0.0
 10
158.267987270028
 20
117.3089585672066
 30
0.0
 10
157.9947529350851
 20
117.3290702618082
 30
0.0
 10
157.8533593083263
 20
117.3321584957949
 30
0.0
 10
157.4399164893156
 20
117.3188302664724
 30
0.0
 10
157.1670635707139
 20
117.27964938804
 30
0.0
 10
156.8186726685116
 20
117.1675774545767
 30
0.0
 10
156.7107374012435
 20
117.1205511730889
 30
0.0
 10
156.5246051458141
 20
117.010096032944
 30
0.0
 10
156.4436835852552
 20
116.9451854916098
 30
0.0
 10
156.2486876566281
 20
116.7268572198537
 30
0.0
 10
156.1806851228886
 20
116.5474631624584
 30
0.0
 10
156.1797330376598
 20
116.155201229975
 30
0.0
 10
156.2474736267904
 20
115.9410244436085
 30
0.0
 10
156.5059932147364
 20
115.5449615799768
 30
0.0
 10
156.6973614557768
 20
115.3630965372918
 30
0.0
 10
157.0456587923694
 20
115.1651280505359
 30
0.0
 10
157.1731666259352
 20
115.110977448838
 30
0.0
 10
157.4358319303791
 20
115.0336296904311
 30
0.0
 10
157.5745694636758
 20
115.0093326068479
 30
0.0
 10
157.9901868696851
 20
114.9824090485125
 30
0.0
 10
158.2709029308888
 20
115.0244768958194
 30
0.0
 10
158.5317626919994
 20
115.1147524681066
 30
0.0
  0
SPLINE
  5
110
330
1F
100
AcDbEntity
  8
0
  6
HIDDEN
 62
     7
370
     0
100
AcDbSpline
210
0.0
220
0.0
230
1.0
 70
     8
 71
     3
 72
     8
 73
     4
 74
     0
 42
0.00000001
 43
0.00000001
 40
0.0
 40
0.0
 40
0.0
 40
0.0
 40
1.0
 40
1.0
 40
1.0
 40
1.0
 10
158.6685707493297
 20
117.2192800057889
 30
0.0
 10
158.6246638091109
 20
117.2428380975116
 30
0.0
 10
158.5789980102498
 20
117.2590064308587
 30
0.0
 10
158.5317626919994
 20
117.2678105827123
 30
0.0
  0
LINE
  5
111
330
1F
100
AcDbEntity
  8
0
  6
HIDDEN
 62
     7
370
     0
100
AcDbLine
 10
155.4265369187
 20
107.7015620926
 30
0.0
 11
155.4265369187
 21
117.5015622089
 31
0.0
  0
LINE
  5
112
330
1F
100
AcDbEntity
  8
0
  6
HIDDEN
 62
     7
370
     0
100
AcDbLine
 10
159.4265375744
 20
109.5537962196
 30
0.0
 11
159.4265375744
 21
117.601562039
 31
0.0
  0
SPLINE
  5
113
330
1F
100
AcDbEntity
  8
0
  6
HIDDEN
 62
     7
370
     0
100
AcDbSpline
210
0.0
220
0.0
230
1.0
 70
     8
 71
     3
 72
    10
 73
     6
 74
     0
 42
0.00000001
 43
0.00000001
 40
0.0
 40
0.0
 40
0.0
 40
0.0
 40
0.5
 40
0.5
 40
1.0
 40
1.0
 40
1.0
 40
1.0
 10
159.4265367101192
 20
116.5652880216282
 30
0.0
 10
159.3489781434918
 20
116.6931413403282
 30
0.0
 10
159.2439213252679
 20
116.8106031799929
 30
0.0
 10
158.9830682074685
 20
117.0321451395729
 30
0.0
 10
158.8344612479746
 20
117.1302721276831
 30
0.0
 10
158.6685707493297
 20
117.2192800057889
 30
0.0
  0
LINE
  5
114
330
1F
100
AcDbEntity
  8
0
  6
HIDDEN
 62
     7
370
     0
100
AcDbLine
 10
159.4265375744
 20
109.5537962196
 30
0.0
 11
159.4265375744
 21
108.6378365094
 31
0.0
  0
LINE
  5
115
330
1F
100
AcDbEntity
  8
0
  6
HIDDEN
 62
     7
370
     0
100
AcDbLine
 10
159.4265375744
 20
107.6015622625
 30
0.0
 11
159.4265375744
 21
108.6378365094
 31
0.0
  0
SPLINE
  5
116
330
1F
100
AcDbEntity
  8
0
  6
HIDDEN
 62
     7
370
     0
100
AcDbSpline
210
0.0
220
0.0
230
1.0
 70
     8
 71
     3
 72
    27
 73
    23
 74
     0
 42
0.00000001
 43
0.00000001
 40
0.0
 40
0.0
 40
0.0
 40
0.0
 40
0.0524809842989513
 40
0.1118478436119894
 40
0.1772462479954998
 40
0.2122789461544702
 40
0.2488471372211948
 40
0.3294467239931148
 40
0.3980923174381591
 40
0.437240982619478
 40
0.471064106902638
 40
0.4995707995362022
 40
0.5540645733862366
 40
0.6138045314706254
 40
0.6788502955620427
 40
0.713428907807596
 40
0.7493558449236578
 40
0.8293540578794983
 40
0.8976715489608046
 40
0.954294493388243
 40
0.9992202008586136
 40
1.0
 40
1.0
 40
1.0
 40
1.0
 10
126.1756268787443
 20
89.00152587238611
 30
0.0
 10
126.1659915484253
 20
89.00463557259394
 30
0.0
 10
126.1454566645418
 20
89.01126298759335
 30
0.0
 10
125.9590535208011
 20
89.06104094216269
 30
0.0
 10
125.684162488414
 20
89.12475313289345
 30
0.0
 10
125.3760207872628
 20
89.19064062211159
 30
0.0
 10
124.9829015098601
 20
89.27312162489609
 30
0.0
 10
124.4065380617897
 20
89.3754789769999
 30
0.0
 10
123.7333247664143
 20
89.46802101659983
 30
0.0
 10
123.197469228396
 20
89.5296050037569
 30
0.0
 10
122.8037358577933
 20
89.56781550021313
 30
0.0
 10
122.3455593440322
 20
89.60164176452858
 30
0.0
 10
121.7831495231109
 20
89.62121902323835
 30
0.0
 10
121.0978039945993
 20
89.6221466104812
 30
0.0
 10
120.5311316979518
 20
89.60396215489607
 30
0.0
 10
120.095042494599
 20
89.57910701596484
 30
0.0
 10
119.6515935528708
 20
89.54312509474693
 30
0.0
 10
119.2014992663976
 20
89.49764194062126
 30
0.0
 10
118.8596818026657
 20
89.45578856575142
 30
0.0
 10
118.7139268107057
 20
89.43217459485366
 30
0.0
 10
118.6644937312395
 20
89.42033536082458
 30
0.0
 10
118.6769722482942
 20
89.42303734820945
 30
0.0
 10
118.6771851490497
 20
89.42308344785036
 30
0.0
  0
LINE
  5
117
330
1F
100
AcDbEntity
  8
0
  6
HIDDEN
 62
     7
370
     0
100
AcDbLine
 10
119.586549
 20
89.5338996584
 30
0.0
 11
119.7703939389
 21
89.5520902509
 31
0.0
  0
SPLINE
  5
118
330
1F
100
AcDbEntity
  8
0
  6
HIDDEN
 62
     7
370
     0
100
AcDbSpline
210
0.0
220
0.0
230
1.0
 70
     8
 71
     3
 72
    27
 73
    23
 74
     0
 42
0.00000001
 43
0.00000001
 40
0.0
 40
0.0
 40
0.0
 40
0.0
 40
0.0008228663998685
 40
0.0457055237728625
 40
0.1022873725888823
 40
0.1705656833094002
 40
0.2091574658078071
 40
0.2506848398435284
 40
0.3211308271403638
 40
0.3862247901615313
 40
0.4267040933508429
 40
0.4648354789982203
 40
0.5006398590292526
 40
0.5452318336908192
 40
0.6017262685776676
 40
0.6701324253429345
 40
0.7088699188737084
 40
0.7505987899210274
 40
0.822263615976933
 40
0.8878032393845
 40
0.9472771919660911
 40
0.9999999999999999
 40
0.9999999999999999
 40
0.9999999999999999
 40
0.9999999999999999
 10
118.6772168140172
 20
135.7799737984306
 30
0.0
 10
118.6769905007465
 20
135.780022469165
 30
0.0
 10
118.664420092506
 20
135.7827258501876
 30
0.0
 10
118.7134907711116
 20
135.7709034469312
 30
0.0
 10
118.8586020863223
 20
135.7474570106521
 30
0.0
 10
119.1316519904361
 20
135.7135511680898
 30
0.0
 10
119.460178216139
 20
135.67998304323
 30
0.0
 10
119.8529060733925
 20
135.6418001508072
 30
0.0
 10
120.402633935751
 20
135.6028320055347
 30
0.0
 10
121.028656549949
 20
135.5833703930446
 30
0.0
 10
121.5718483931925
 20
135.5811852343749
 30
0.0
 10
122.0169171418863
 20
135.5896999561649
 30
0.0
 10
122.4833649966884
 20
135.6094835062398
 30
0.0
 10
123.020605921479
 20
135.6536433878493
 30
0.0
 10
123.6688188950534
 20
135.7260632239152
 30
0.0
 10
124.2543580242649
 20
135.8069608797203
 30
0.0
 10
124.7353272059146
 20
135.8851302468109
 30
0.0
 10
125.1807421276393
 20
135.9699007803588
 30
0.0
 10
125.6192426944405
 20
136.0636857028433
 30
0.0
 10
125.958265724442
 20
136.1415873893942
 30
0.0
 10
126.1455940502481
 20
136.1917751816465
 30
0.0
 10
126.1660830835786
 20
136.1984415813861
 30
0.0
 10
126.1757111634373
 20
136.2015742147333
 30
0.0
  0
LINE
  5
119
330
1F
100
AcDbEntity
  8
0
  6
HIDDEN
 62
     7
370
     0
100
AcDbLine
 10
166.076538385
 20
129.5242111469
 30
0.0
 11
168.5765360008
 21
129.5242111469
 31
0.0
  0
LINE
  5
11A
330
1F
100
AcDbEntity
  8
0
  6
HIDDEN
 62
     7
370
     0
100
AcDbLine
 10
163.5765370439
 20
129.5242111469
 30
0.0
 11
166.076538385
 21
129.5242111469
 31
0.0
  0
LINE
  5
11B
330
1F
100
AcDbEntity
  8
0
  6
HIDDEN
 62
     7
370
     0
100
AcDbLine
 10
168.5765360008
 20
95.6789131546
 30
0.0
 11
163.5765370439
 21
95.6789131546
 31
0.0
  0
SPLINE
  5
11C
330
1F
100
AcDbEntity
  8
0
  6
HIDDEN
 62
     7
370
     0
100
AcDbSpline
210
0.0
220
0.0
230
1.0
 70
     8
 71
     3
 72
    10
 73
     6
 74
     0
 42
0.00000001
 43
0.00000001
 40
0.0
 40
0.0
 40
0.0
 40
0.0
 40
0.5
 40
0.5
 40
1.0
 40
1.0
 40
1.0
 40
1.0
 10
158.6685707493297
 20
115.1533380892349
 30
0.0
 10
158.8344597336625
 20
115.1895713524332
 30
0.0
 10
158.9832526956775
 20
115.2525983780675
 30
0.0
 10
159.2440797316789
 20
115.4249045962494
 30
0.0
 10
159.3489774385183
 20
115.5293602875735
 30
0.0
 10
159.4265367101192
 20
115.6493280900201
 30
0.0
  0
SPLINE
  5
11D
330
1F
100
AcDbEntity
  8
0
  6
HIDDEN
 62
     7
370
     0
100
AcDbSpline
210
0.0
220
0.0
230
1.0
 70
     8
 71
     3
 72
     8
 73
     4
 74
     0
 42
0.00000001
 43
0.00000001
 40
0.0
 40
0.0
 40
0.0
 40
0.0
 40
1.0
 40
1.0
 40
1.0
 40
1.0
 10
158.5317626919994
 20
115.1147524681066
 30
0.0
 10
158.5789980102498
 20
115.1310991647726
 30
0.0
 10
158.6246638091109
 20
115.1437479906061
 30
0.0
 10
158.6685707493297
 20
115.1533380892349
 30
0.0
  0
LINE
  5
11E
330
1F
100
AcDbEntity
  8
0
  6
HIDDEN
 62
     7
370
     0
100
AcDbLine
 10
166.076538385
 20
121.1015626127
 30
0.0
 11
168.5765360008
 21
121.1015626127
 31
0.0
  0
LINE
  5
11F
330
1F
100
AcDbEntity
  8
0
  6
HIDDEN
 62
     7
370
     0
100
AcDbLine
 10
163.5765370439
 20
121.1015626127
 30
0.0
 11
166.076538385
 21
121.1015626127
 31
0.0
  0
LINE
  5
120
330
1F
100
AcDbEntity
  8
0
  6
HIDDEN
 62
     7
370
     0
100
AcDbLine
 10
168.5765360008
 20
104.1015616888
 30
0.0
 11
163.5765370439
 21
104.1015616888
 31
0.0
  0
SPLINE
  5
121
330
1F
100
AcDbEntity
  8
0
  6
HIDDEN
 62
     7
370
     0
100
AcDbSpline
210
0.0
220
0.0
230
1.0
 70
     8
 71
     3
 72
    18
 73
    14
 74
     0
 42
0.00000001
 43
0.00000001
 40
0.0
 40
0.0
 40
0.0
 40
0.0
 40
0.2499999999999986
 40
0.2499999999999986
 40
0.4999999999999971
 40
0.4999999999999971
 40
0.6249999999999978
 40
0.6249999999999978
 40
0.7499999999999986
 40
0.7499999999999986
 40
0.8749999999999992
 40
0.8749999999999992
 40
1.0
 40
1.0
 40
1.0
 40
1.0
 10
161.586039079178
 20
119.9344368252244
 30
0.0
 10
161.4867920424063
 20
119.8001354246524
 30
0.0
 10
161.3830554084816
 20
119.6734786327655
 30
0.0
 10
161.1806728709132
 20
119.4241939562773
 30
0.0
 10
161.0817800969413
 20
119.3018619070704
 30
0.0
 10
160.9666972087616
 20
119.1254403976628
 30
0.0
 10
160.934858104339
 20
119.0688569960572
 30
0.0
 10
160.8889648958647
 20
118.9631454069135
 30
0.0
 10
160.8752366099437
 20
118.9141446969595
 30
0.0
 10
160.8655467270999
 20
118.8311550832415
 30
0.0
 10
160.8692420545327
 20
118.7960708591357
 30
0.0
 10
160.8868148829212
 20
118.7427516476056
 30
0.0
 10
160.9004991816262
 20
118.7238561957342
 30
0.0
 10
160.9164070828045
 20
118.7126064866667
 30
0.0
  0
LWPOLYLINE
  5
122
330
1F
100
AcDbEntity
  8
0
  6
HIDDEN
 62
     7
370
     0
100
AcDbPolyline
 90
       19
 70
   128
 43
0.0
 10
160.9516807358
 20
118.7141465293
 10
160.9950785051
 20
118.7160413051
 10
161.0690199296
 20
118.858481505
 10
161.0876594196
 20
119.1195079396
 10
161.0531520556
 20
119.4414410079
 10
160.9811570953
 20
119.8107434707
 10
160.8965892802
 20
120.2251224117
 10
160.8685397069
 20
120.541380466
 10
160.9100748311
 20
120.7756220633
 10
161.020138533
 20
120.9550273875
 10
161.2784687887
 20
121.1273779431
 10
161.6659138809
 20
121.1765527064
 10
161.8691750328
 20
121.0886153663
 10
161.9673382948
 20
120.9394146958
 10
161.9800098698
 20
120.7192938114
 10
161.9152475606
 20
120.4894787902
 10
161.7434222709
 20
120.1628160002
 10
161.5860399316
 20
119.9344366128
 10
161.5860399316
 20
119.9344366128
  0
SPLINE
  5
123
330
1F
100
AcDbEntity
  8
0
  6
HIDDEN
 62
     7
370
     0
100
AcDbSpline
210
0.0
220
0.0
230
1.0
 70
     8
 71
     3
 72
    14
 73
    10
 74
     0
 42
0.00000001
 43
0.00000001
 40
0.0
 40
0.0
 40
0.0
 40
0.0
 40
0.2500000000000011
 40
0.2500000000000011
 40
0.5000000000000008
 40
0.5000000000000008
 40
0.7500000000000004
 40
0.7500000000000004
 40
1.0
 40
1.0
 40
1.0
 40
1.0
 10
158.6619830206672
 20
120.0156738310713
 30
0.0
 10
158.6330328402222
 20
120.1501070576878
 30
0.0
 10
158.6037903198731
 20
120.2811359018004
 30
0.0
 10
158.5558166028487
 20
120.5383981427735
 30
0.0
 10
158.5381575638814
 20
120.6585078000928
 30
0.0
 10
158.521344400433
 20
120.8778056042836
 30
0.0
 10
158.5226144795315
 20
120.972677129502
 30
0.0
 10
158.5441253244727
 20
121.126701583588
 30
0.0
 10
158.5639376124861
 20
121.183355627527
 30
0.0
 10
158.5893597151866
 20
121.2195185900387
 30
0.0
  0
LWPOLYLINE
  5
124
330
1F
100
AcDbEntity
  8
0
  6
HIDDEN
 62
     7
370
     0
100
AcDbPolyline
 90
       20
 70
   128
 43
0.0
 10
158.66226633
 20
121.2587046707
 10
158.6721495251
 20
121.2640160033
 10
158.7411512147
 20
121.1715533668
 10
158.7292507748
 20
121.0278186286
 10
158.6415518533
 20
120.8354492942
 10
158.4389295887
 20
120.5512133697
 10
158.0619860898
 20
120.078317103
 10
157.7975053798
 20
119.6823913874
 10
157.6684389721
 20
119.3958103927
 10
157.6265443574
 20
119.1696177507
 10
157.6609045725
 20
118.9867674643
 10
157.7600233714
 20
118.864244529
 10
157.9978775691
 20
118.7833335521
 10
158.3840113591
 20
118.8599762777
 10
158.6033899795
 20
119.0226569111
 10
158.7128818493
 20
119.2193811098
 10
158.7444611351
 20
119.4756037826
 10
158.7021157603
 20
119.8201484317
 10
158.6619832079
 20
120.0156740183
 10
158.6619832079
 20
120.0156740183
  0
LWPOLYLINE
  5
125
330
1F
100
AcDbEntity
  8
0
  6
HIDDEN
 62
     7
370
     0
100
AcDbPolyline
 90
       23
 70
   128
 43
0.0
 10
161.6924956898
 20
122.4802785823
 10
162.1293213676
 20
122.4151158044
 10
162.5307567875
 20
122.4497526223
 10
162.8642801653
 20
122.5813848237
 10
163.102873833
 20
122.7993459711
 10
163.227209122
 20
123.0859800512
 10
163.227209122
 20
123.4180654669
 10
163.102873833
 20
123.7686972404
 10
162.8642801653
 20
124.1094709644
 10
162.5307567875
 20
124.4127775813
 10
162.1293213676
 20
124.6540469388
 10
161.6924956898
 20
124.8137305761
 10
161.2556718747
 20
124.8788942853
 10
160.8542364548
 20
124.8442565361
 10
160.5207112144
 20
124.7126252661
 10
160.2821194093
 20
124.4946631873
 10
160.1577859829
 20
124.2080291072
 10
160.1577859829
 20
123.8759446228
 10
160.2821194093
 20
123.525311918
 10
160.5207112144
 20
123.1845391253
 10
160.8542364548
 20
122.8812315771
 10
161.2556718747
 20
122.639963151
 10
161.6924956898
 20
122.4802785823
  0
LWPOLYLINE
  5
126
330
1F
100
AcDbEntity
  8
0
  6
HIDDEN
 62
     7
370
     0
100
AcDbPolyline
 90
       20
 70
   128
 43
0.0
 10
156.4920891534
 20
120.0759585286
 10
156.4789463292
 20
119.6702404218
 10
156.4634640227
 20
119.3084886568
 10
156.4473223399
 20
119.029903532
 10
156.4322703044
 20
118.8646752657
 10
156.4199395935
 20
118.8307080688
 10
156.4116638611
 20
118.9316829937
 10
156.4083427648
 20
119.1566579314
 10
156.4103357951
 20
119.481253651
 10
156.4174250226
 20
119.8702945644
 10
156.4288430373
 20
120.2816224927
 10
156.4433549057
 20
120.6706638718
 10
156.4593848299
 20
120.9952586601
 10
156.4751968245
 20
121.2202335978
 10
156.4890772562
 20
121.3212085227
 10
156.4995229702
 20
121.2872413257
 10
156.5054014783
 20
121.1220135251
 10
156.5060757558
 20
120.843428866
 10
156.501471297
 20
120.4816761697
 10
156.4920891534
 20
120.0759585286
  0
SPLINE
  5
127
330
1F
100
AcDbEntity
  8
0
  6
HIDDEN
 62
     7
370
     0
100
AcDbSpline
210
0.0
220
0.0
230
1.0
 70
     8
 71
     3
 72
     8
 73
     4
 74
     0
 42
0.00000001
 43
0.00000001
 40
0.0
 40
0.0
 40
0.0
 40
0.0
 40
0.000159097695343
 40
0.000159097695343
 40
0.000159097695343
 40
0.000159097695343
 10
100.8117047193372
 20
96.8000717147215
 30
0.0
 10
100.7666532488328
 20
96.77209283039771
 30
0.0
 10
100.721597210418
 20
96.74412130002264
 30
0.0
 10
100.6765367101192
 20
96.71615696067012
 30
0.0
  0
SPLINE
  5
128
330
1F
100
AcDbEntity
  8
0
  6
HIDDEN
 62
     7
370
     0
100
AcDbSpline
210
0.0
220
0.0
230
1.0
 70
     8
 71
     3
 72
    11
 73
     7
 74
     0
 42
0.00000001
 43
0.00000001
 40
0.0
 40
0.0
 40
0.0
 40
0.0
 40
0.0008212909311456
 40
0.0008212909311456
 40
0.0008212909311456
 40
0.001642825724306
 40
0.001642825724306
 40
0.001642825724306
 40
0.001642825724306
 10
100.6765367101192
 20
96.71615696067012
 30
0.0
 10
100.485391688637
 20
96.67287077181757
 30
0.0
 10
100.2939733529605
 20
96.6319342621803
 30
0.0
 10
100.1023272782994
 20
96.59333249079371
 30
0.0
 10
99.91062419675778
 20
96.55471923695661
 30
0.0
 10
99.71867907347226
 20
96.51843902767061
 30
0.0
 10
99.52653671011909
 20
96.48447212131911
 30
0.0
  0
LINE
  5
129
330
1F
100
AcDbEntity
  8
0
  6
HIDDEN
 62
     7
370
     0
100
AcDbLine
 10
147.5165367584
 20
132.7374286288
 30
0.0
 11
147.5165367584
 21
132.4515628899
 31
0.0
  0
LINE
  5
12A
330
1F
100
AcDbEntity
  8
0
  6
HIDDEN
 62
     7
370
     0
100
AcDbLine
 10
151.3365369748
 20
132.7374286288
 30
0.0
 11
151.3365369748
 21
132.4515628899
 31
0.0
  0
LINE
  5
12B
330
1F
100
AcDbEntity
  8
0
  6
HIDDEN
 62
     7
370
     0
100
AcDbLine
 10
152.8184686314
 20
137.0602517659
 30
0.0
 11
152.8184686314
 21
132.4515628899
 31
0.0
  0
SPLINE
  5
12C
330
1F
100
AcDbEntity
  8
0
  6
HIDDEN
 62
     7
370
     0
100
AcDbSpline
210
0.0
220
0.0
230
1.0
 70
     8
 71
     3
 72
    24
 73
    20
 74
     0
 42
0.00000001
 43
0.00000001
 40
0.0
 40
0.0
 40
0.0
 40
0.0
 40
0.25
 40
0.25
 40
0.374999999999999
 40
0.374999999999999
 40
0.4374999999999993
 40
0.4374999999999993
 40
0.4687499999999994
 40
0.4687499999999994
 40
0.4999999999999995
 40
0.4999999999999995
 40
0.5624999999999971
 40
0.5624999999999971
 40
0.6249999999999947
 40
0.6249999999999947
 40
0.7499999999999947
 40
0.7499999999999947
 40
1.0
 40
1.0
 40
1.0
 40
1.0
 10
99.58920008484256
 20
92.92700960597242
 30
0.0
 10
99.60295320351281
 20
92.99765966396271
 30
0.0
 10
99.62072577091867
 20
93.06425777672762
 30
0.0
 10
99.67297686247403
 20
93.13835579696082
 30
0.0
 10
99.69401193805558
 20
93.15961360412238
 30
0.0
 10
99.74691234568402
 20
93.16775953026863
 30
0.0
 10
99.76801801856195
 20
93.16681972687284
 30
0.0
 10
99.81407018723989
 20
93.1458037352955
 30
0.0
 10
99.8324406592233
 20
93.1348949291879
 30
0.0
 10
99.87399229428901
 20
93.10226001824051
 30
0.0
 10
99.8965589670459
 20
93.08076803786916
 30
0.0
 10
99.95933998350593
 20
93.01230209428283
 30
0.0
 10
99.99246974447382
 20
92.96622763607775
 30
0.0
 10
100.0493874309588
 20
92.88121974774307
 30
0.0
 10
100.0735734564626
 20
92.84093944656169
 30
0.0
 10
100.1387814068424
 20
92.72600322009575
 30
0.0
 10
100.1734974670336
 20
92.65542023494875
 30
0.0
 10
100.2667127373645
 20
92.45121447587015
 30
0.0
 10
100.3123852727252
 20
92.32831609354278
 30
0.0
 10
100.3506903562237
 20
92.21144281715522
 30
0.0
  0
SPLINE
  5
12D
330
1F
100
AcDbEntity
  8
0
  6
HIDDEN
 62
     7
370
     0
100
AcDbSpline
210
0.0
220
0.0
230
1.0
 70
     8
 71
     3
 72
    11
 73
     7
 74
     0
 42
0.00000001
 43
0.00000001
 40
0.0
 40
0.0
 40
0.0
 40
0.0
 40
0.0005781862223978
 40
0.0005781862223978
 40
0.0005781862223978
 40
0.0011563724723928
 40
0.0011563724723928
 40
0.0011563724723928
 40
0.0011563724723928
 10
100.5265367101192
 20
125.2417044577999
 30
0.0
 10
100.3598761558436
 20
125.3062339692135
 30
0.0
 10
100.1932128589371
 20
125.3707366730573
 30
0.0
 10
100.0265462751068
 20
125.4352231214909
 30
0.0
 10
99.85987968284773
 20
125.4997095731859
 30
0.0
 10
99.69320981722187
 20
125.564179581914
 30
0.0
 10
99.52653671011913
 20
125.6286353486465
 30
0.0
  0
SPLINE
  5
12E
330
1F
100
AcDbEntity
  8
0
  6
HIDDEN
 62
     7
370
     0
100
AcDbSpline
210
0.0
220
0.0
230
1.0
 70
     8
 71
     3
 72
    11
 73
     7
 74
     0
 42
0.00000001
 43
0.00000001
 40
0.0
 40
0.0
 40
0.0
 40
0.0
 40
0.0005778746105108
 40
0.0005778746105108
 40
0.0005778746105108
 40
0.0011557494857226
 40
0.0011557494857226
 40
0.0011557494857226
 40
0.0011557494857226
 10
99.52653671011915
 20
99.57434029526326
 30
0.0
 10
99.69320358653248
 20
99.64015242195711
 30
0.0
 10
99.85987030609394
 20
99.70601090209472
 30
0.0
 10
100.0265369541426
 20
99.77191847502536
 30
0.0
 10
100.1932036786612
 20
99.83782607819572
 30
0.0
 10
100.3598703730818
 20
99.90378318658423
 30
0.0
 10
100.5265367101192
 20
99.96978492650693
 30
0.0
  0
SPLINE
  5
12F
330
1F
100
AcDbEntity
  8
0
  6
HIDDEN
 62
     7
370
     0
100
AcDbSpline
210
0.0
220
0.0
230
1.0
 70
     8
 71
     3
 72
    11
 73
     7
 74
     0
 42
0.00000001
 43
0.00000001
 40
0.0000000000000006
 40
0.0000000000000006
 40
0.0000000000000006
 40
0.0000000000000006
 40
0.0005780486062768
 40
0.0005780486062768
 40
0.0005780486062768
 40
0.0011560973514127
 40
0.0011560973514127
 40
0.0011560973514127
 40
0.0011560973514127
 10
99.52653671011915
 20
122.5823766524449
 30
0.0
 10
99.69320656616406
 20
122.5200047909304
 30
0.0
 10
99.85987427024833
 20
122.4576509306327
 30
0.0
 10
100.026540574702
 20
122.3953313704466
 30
0.0
 10
100.1932069153957
 20
122.3330117967097
 30
0.0
 10
100.3598718720245
 20
122.2707265923901
 30
0.0
 10
100.5265367101192
 20
122.2085014718215
 30
0.0
  0
SPLINE
  5
130
330
1F
100
AcDbEntity
  8
0
  6
HIDDEN
 62
     7
370
     0
100
AcDbSpline
210
0.0
220
0.0
230
1.0
 70
     8
 71
     3
 72
    11
 73
     7
 74
     0
 42
0.00000001
 43
0.00000001
 40
0.0
 40
0.0
 40
0.0
 40
0.0
 40
0.0005782401583533
 40
0.0005782401583533
 40
0.0005782401583533
 40
0.0011564805960993
 40
0.0011564805960993
 40
0.0011564805960993
 40
0.0011564805960993
 10
100.5265367101192
 20
103.0007353583555
 30
0.0
 10
100.3598857597703
 20
102.9373099002947
 30
0.0
 10
100.1932261671876
 20
102.8739543766394
 30
0.0
 10
100.026559114759
 20
102.8106567922894
 30
0.0
 10
99.85989197819522
 20
102.7473591759862
 30
0.0
 10
99.69321737074918
 20
102.6841193810455
 30
0.0
 10
99.5265367101191
 20
102.6209193744067
 30
0.0
  0
CIRCLE
  5
131
330
1F
100
AcDbEntity
  8
0
  6
HIDDEN
 62
     7
370
     0
100
AcDbCircle
 10
138.4265367101
 20
112.6015621508
 30
0.0
 40
5.000000000000014
  0
LWPOLYLINE
  5
132
330
1F
100
AcDbEntity
  8
0
  6
HIDDEN
 62
     7
370
     0
100
AcDbPolyline
 90
        7
 70
   128
 43
0.0
 10
196.3556271504
 20
117.788970218
 10
196.3656481813
 20
117.7501708539
 10
196.3790741275
 20
117.843162016
 10
196.3944521259
 20
118.0578672597
 10
196.4101206969
 20
118.3710198188
 10
196.4243736576
 20
118.748684627
 10
196.4265343259
 20
118.8163065622
  0
ARC
  5
133
330
1F
100
AcDbEntity
  8
0
  6
HIDDEN
 62
     7
370
     0
100
AcDbCircle
 10
217.4346073582
 20
118.3575493659
 30
0.0
 40
21.08664716948993
100
AcDbArc
 50
175.0522400062
 51
181.5451073889
  0
LWPOLYLINE
  5
134
330
1F
100
AcDbEntity
  8
0
  6
HIDDEN
 62
     7
370
     0
100
AcDbPolyline
 90
       22
 70
   128
 43
0.0
 10
196.1842712472
 20
117.5226566652
 10
196.1952161501
 20
117.4724420803
 10
196.20971498
 20
117.5553670423
 10
196.2264936875
 20
117.7640619958
 10
196.2440472554
 20
118.0799847739
 10
196.2608185123
 20
118.4750634516
 10
196.2753247927
 20
118.9141941527
 10
196.2862696956
 20
119.3583572553
 10
196.2926846455
 20
119.7680879654
 10
196.2939959477
 20
120.1069790209
 10
196.2900918435
 20
120.3449193658
 10
196.2813150595
 20
120.4607661152
 10
196.2684404562
 20
120.4442258263
 10
196.2526303242
 20
120.2967690574
 10
196.2352704714
 20
120.0314971888
 10
196.2179106186
 20
119.6719810637
 10
196.202093036
 20
119.2501650462
 10
196.1892258833
 20
118.8035297478
 10
196.1804490994
 20
118.3717602203
 10
196.1765449952
 20
117.9932213658
 10
196.1778562973
 20
117.7015478993
 10
196.1842712472
 20
117.5226566652
  0
LWPOLYLINE
  5
135
330
1F
100
AcDbEntity
  8
0
  6
HIDDEN
 62
     7
370
     0
100
AcDbPolyline
 90
       22
 70
   128
 43
0.0
 10
190.8503335427
 20
117.6708454536
 10
190.8612784456
 20
117.6206313344
 10
190.8757810007
 20
117.7035558308
 10
190.8925559829
 20
117.9122512499
 10
190.9101095508
 20
118.228174028
 10
190.926884533
 20
118.6232527057
 10
190.9413870882
 20
119.0623829411
 10
190.9523319911
 20
119.5065465095
 10
190.9587469409
 20
119.9162767539
 10
190.9600582431
 20
120.255168275
 10
190.9561504136
 20
120.4931081543
 10
190.9473736297
 20
120.6089553693
 10
190.934506477
 20
120.5924150804
 10
190.9186888944
 20
120.4449578458
 10
190.9013327669
 20
120.1796864429
 10
190.8839729141
 20
119.8201698521
 10
190.8681590568
 20
119.3983543003
 10
190.8552919041
 20
118.9517185362
 10
190.8465113948
 20
118.5199494744
 10
190.8426072906
 20
118.14141062
 10
190.8439185928
 20
117.8497371534
 10
190.8503335427
 20
117.6708454536
  0
LWPOLYLINE
  5
136
330
1F
100
AcDbEntity
  8
0
  6
HIDDEN
 62
     7
370
     0
100
AcDbPolyline
 90
       18
 70
   128
 43
0.0
 10
190.3677184592
 20
118.1674527274
 10
190.3771061908
 20
118.1390529769
 10
190.3898168813
 20
118.2448786953
 10
190.4041331719
 20
118.470637341
 10
190.4181253623
 20
118.7858392755
 10
190.4299010049
 20
119.1479146751
 10
190.4378731261
 20
119.5079625854
 10
190.4409576665
 20
119.8173577236
 10
190.4387448441
 20
120.0343135083
 10
190.431532682
 20
120.1295296
 10
190.4202897559
 20
120.090145831
 10
190.4065434347
 20
119.9214819157
 10
190.3921414624
 20
119.6463166075
 10
190.3790358912
 20
119.3018120052
 10
190.3689887832
 20
118.9344960535
 10
190.3633673202
 20
118.5939765805
 10
190.3629240106
 20
118.3262422951
 10
190.3677184592
 20
118.1674527274
  0
LINE
  5
137
330
1F
100
AcDbEntity
  8
0
  6
HIDDEN
 62
     7
370
     0
100
AcDbLine
 10
196.3970896314
 20
119.5787137644
 30
0.0
 11
196.4265343259
 21
119.8024486462
 31
0.0
  0
LINE
  5
138
330
1F
100
AcDbEntity
  8
0
  6
HIDDEN
 62
     7
370
     0
100
AcDbLine
 10
196.3676449369
 20
118.7426063502
 30
0.0
 11
196.3970896314
 21
119.5787137644
 31
0.0
  0
LINE
  5
139
330
1F
100
AcDbEntity
  8
0
  6
HIDDEN
 62
     7
370
     0
100
AcDbLine
 10
196.3676449369
 20
118.7426063502
 30
0.0
 11
196.3676449369
 21
118.1302338177
 31
0.0
  0
LINE
  5
13A
330
1F
100
AcDbEntity
  8
0
  6
HIDDEN
 62
     7
370
     0
100
AcDbLine
 10
196.3970896314
 20
118.3539686995
 30
0.0
 11
196.3676449369
 21
118.1302338177
 31
0.0
  0
LINE
  5
13B
330
1F
100
AcDbEntity
  8
0
  6
HIDDEN
 62
     7
370
     0
100
AcDbLine
 10
196.3970896314
 20
118.3539686995
 30
0.0
 11
196.4265343259
 21
119.1900761137
 31
0.0
  0
LINE
  5
13C
330
1F
100
AcDbEntity
  8
0
  6
HIDDEN
 62
     7
370
     0
100
AcDbLine
 10
194.3691906045
 20
118.7981280768
 30
0.0
 11
194.3986352991
 21
119.634235491
 31
0.0
  0
LINE
  5
13D
330
1F
100
AcDbEntity
  8
0
  6
HIDDEN
 62
     7
370
     0
100
AcDbLine
 10
194.3986352991
 20
119.634235491
 30
0.0
 11
194.4280799936
 21
119.8579703728
 31
0.0
  0
LINE
  5
13E
330
1F
100
AcDbEntity
  8
0
  6
HIDDEN
 62
     7
370
     0
100
AcDbLine
 10
194.4280799936
 20
119.2455978403
 30
0.0
 11
194.4280799936
 21
119.8579703728
 31
0.0
  0
LINE
  5
13F
330
1F
100
AcDbEntity
  8
0
  6
HIDDEN
 62
     7
370
     0
100
AcDbLine
 10
194.3986352991
 20
118.4094904261
 30
0.0
 11
194.4280799936
 21
119.2455978403
 31
0.0
  0
LINE
  5
140
330
1F
100
AcDbEntity
  8
0
  6
HIDDEN
 62
     7
370
     0
100
AcDbLine
 10
194.3986352991
 20
118.4094904261
 30
0.0
 11
194.3691906045
 21
118.1857555443
 31
0.0
  0
LINE
  5
141
330
1F
100
AcDbEntity
  8
0
  6
HIDDEN
 62
     7
370
     0
100
AcDbLine
 10
194.3691906045
 20
118.7981280768
 30
0.0
 11
194.3691906045
 21
118.1857555443
 31
0.0
  0
LINE
  5
142
330
1F
100
AcDbEntity
  8
0
  6
HIDDEN
 62
     7
370
     0
100
AcDbLine
 10
194.3691906045
 20
118.7981280768
 30
0.0
 11
196.3676449369
 21
118.7426063502
 31
0.0
  0
LINE
  5
143
330
1F
100
AcDbEntity
  8
0
  6
HIDDEN
 62
     7
370
     0
100
AcDbLine
 10
194.3986352991
 20
119.634235491
 30
0.0
 11
196.3970896314
 21
119.5787137644
 31
0.0
  0
LINE
  5
144
330
1F
100
AcDbEntity
  8
0
  6
HIDDEN
 62
     7
370
     0
100
AcDbLine
 10
194.3986352991
 20
118.4094904261
 30
0.0
 11
196.3970896314
 21
118.3539686995
 31
0.0
  0
LINE
  5
145
330
1F
100
AcDbEntity
  8
0
  6
HIDDEN
 62
     7
370
     0
100
AcDbLine
 10
194.3691906045
 20
118.1857555443
 30
0.0
 11
196.3676449369
 21
118.1302338177
 31
0.0
  0
LINE
  5
146
330
1F
100
AcDbEntity
  8
0
  6
HIDDEN
 62
     7
370
     0
100
AcDbLine
 10
194.4280799936
 20
119.2455978403
 30
0.0
 11
196.4265343259
 21
119.1900761137
 31
0.0
  0
LINE
  5
147
330
1F
100
AcDbEntity
  8
0
  6
HIDDEN
 62
     7
370
     0
100
AcDbLine
 10
194.4280799936
 20
119.8579703728
 30
0.0
 11
196.4265343259
 21
119.8024486462
 31
0.0
  0
LWPOLYLINE
  5
148
330
1F
100
AcDbEntity
  8
0
  6
HIDDEN
 62
     7
370
     0
100
AcDbPolyline
 90
       22
 70
   128
 43
0.0
 10
190.9092229317
 20
106.4732547188
 10
190.9028079818
 20
106.8829854289
 10
190.9014966796
 20
107.2218764843
 10
190.9054045092
 20
107.4598163636
 10
190.9141812931
 20
107.575663113
 10
190.9270484458
 20
107.5591232898
 10
190.9428623031
 20
107.4116665209
 10
190.9602221559
 20
107.1463946523
 10
190.9775782834
 20
106.7868780615
 10
190.993395866
 20
106.3650625097
 10
191.0062630187
 20
105.9184267456
 10
191.0150398026
 20
105.4866576837
 10
191.0189476322
 20
105.1081188293
 10
191.01763633
 20
104.8164453628
 10
191.0112213801
 20
104.637553663
 10
191.0002764772
 20
104.5873395437
 10
190.9857739221
 20
104.6702645058
 10
190.9689989398
 20
104.8789594593
 10
190.951445372
 20
105.1948822374
 10
190.9346703897
 20
105.589960915
 10
190.9201678346
 20
106.0290911505
 10
190.9092229317
 20
106.4732547188
  0
LWPOLYLINE
  5
149
330
1F
100
AcDbEntity
  8
0
  6
HIDDEN
 62
     7
370
     0
100
AcDbPolyline
 90
       18
 70
   128
 43
0.0
 10
190.4266078483
 20
106.3302007774
 10
190.4218133996
 20
106.6615895638
 10
190.4222567092
 20
106.913331178
 10
190.4278818975
 20
107.0514262924
 10
190.4379252802
 20
107.0572251724
 10
190.4510308515
 20
106.9299441101
 10
190.4654328238
 20
106.6867729919
 10
190.479179145
 20
106.3605539771
 10
190.4904220711
 20
105.9953442113
 10
190.4976342331
 20
105.6404674696
 10
190.4998470555
 20
105.3438519398
 10
190.4967625152
 20
105.1455570655
 10
190.4887941192
 20
105.0723639587
 10
190.4770147513
 20
105.1341572115
 10
190.4630225609
 20
105.322591708
 10
190.4487062703
 20
105.6122181276
 10
190.4359955798
 20
105.963920922
 10
190.4266078483
 20
106.3302007774
  0
LWPOLYLINE
  5
14A
330
1F
100
AcDbEntity
  8
0
  6
HIDDEN
 62
     7
370
     0
100
AcDbPolyline
 90
       22
 70
   128
 43
0.0
 10
196.2431606363
 20
106.6214439729
 10
196.2367456864
 20
107.0311742173
 10
196.2354343842
 20
107.3700657384
 10
196.2393384884
 20
107.6080056177
 10
196.2481152724
 20
107.7238523671
 10
196.2609824251
 20
107.7073125439
 10
196.2768000077
 20
107.5598553093
 10
196.2941598605
 20
107.2945834408
 10
196.3115197133
 20
106.9350673156
 10
196.3273298453
 20
106.5132512981
 10
196.3402044486
 20
106.0666159997
 10
196.3489812325
 20
105.6348464722
 10
196.3528853367
 20
105.2563076178
 10
196.3515740345
 20
104.9646341512
 10
196.3451590847
 20
104.7857429171
 10
196.3342141818
 20
104.7355287978
 10
196.3197079013
 20
104.8184532942
 10
196.3029366444
 20
105.0271487134
 10
196.2853830765
 20
105.3430710258
 10
196.2686118196
 20
105.7381501691
 10
196.2541055392
 20
106.1772804046
 10
196.2431606363
 20
106.6214439729
  0
LWPOLYLINE
  5
14B
330
1F
100
AcDbEntity
  8
0
  6
HIDDEN
 62
     7
370
     0
100
AcDbPolyline
 90
        6
 70
   128
 43
0.0
 10
196.4145165394
 20
106.5534732575
 10
196.4089956592
 20
106.9187733615
 10
196.408556075
 20
107.2103467109
 10
196.4132648419
 20
107.3965963246
 10
196.4226004194
 20
107.4573399769
 10
196.4265343259
 20
107.4482963691
  0
ARC
  5
14C
330
1F
100
AcDbEntity
  8
0
  6
HIDDEN
 62
     7
370
     0
100
AcDbCircle
 10
208.904238703
 20
106.4120659835
 30
0.0
 40
12.49052263679103
100
AcDbArc
 50
179.3513311406
 51
186.3949907253
  0
LINE
  5
14D
330
1F
100
AcDbEntity
  8
0
  6
HIDDEN
 62
     7
370
     0
100
AcDbLine
 10
194.4575246881
 20
106.7952697435
 30
0.0
 11
194.4869693826
 21
105.9591623293
 31
0.0
  0
LINE
  5
14E
330
1F
100
AcDbEntity
  8
0
  6
HIDDEN
 62
     7
370
     0
100
AcDbLine
 10
196.4559790205
 20
106.8507914701
 30
0.0
 11
196.485423715
 21
106.0146840559
 31
0.0
  0
LINE
  5
14F
330
1F
100
AcDbEntity
  8
0
  6
HIDDEN
 62
     7
370
     0
100
AcDbLine
 10
194.4869693826
 20
105.9591623293
 30
0.0
 11
196.485423715
 21
106.0146840559
 31
0.0
  0
LINE
  5
150
330
1F
100
AcDbEntity
  8
0
  6
HIDDEN
 62
     7
370
     0
100
AcDbLine
 10
194.4869693826
 20
105.3467897968
 30
0.0
 11
194.4869693826
 21
105.9591623293
 31
0.0
  0
LINE
  5
151
330
1F
100
AcDbEntity
  8
0
  6
HIDDEN
 62
     7
370
     0
100
AcDbLine
 10
196.485423715
 20
105.4023115234
 30
0.0
 11
196.485423715
 21
106.0146840559
 31
0.0
  0
LINE
  5
152
330
1F
100
AcDbEntity
  8
0
  6
HIDDEN
 62
     7
370
     0
100
AcDbLine
 10
194.4575246881
 20
106.7952697435
 30
0.0
 11
196.4559790205
 21
106.8507914701
 31
0.0
  0
LINE
  5
153
330
1F
100
AcDbEntity
  8
0
  6
HIDDEN
 62
     7
370
     0
100
AcDbLine
 10
194.4280799936
 20
107.0190046253
 30
0.0
 11
194.4575246881
 21
106.7952697435
 31
0.0
  0
LINE
  5
154
330
1F
100
AcDbEntity
  8
0
  6
HIDDEN
 62
     7
370
     0
100
AcDbLine
 10
196.4265343259
 20
107.0745268175
 30
0.0
 11
196.4559790205
 21
106.8507914701
 31
0.0
  0
LINE
  5
155
330
1F
100
AcDbEntity
  8
0
  6
HIDDEN
 62
     7
370
     0
100
AcDbLine
 10
194.4575246881
 20
105.5705251442
 30
0.0
 11
196.4559790205
 21
105.6260468708
 31
0.0
  0
LINE
  5
156
330
1F
100
AcDbEntity
  8
0
  6
HIDDEN
 62
     7
370
     0
100
AcDbLine
 10
194.4869693826
 20
105.3467897968
 30
0.0
 11
196.485423715
 21
105.4023115234
 31
0.0
  0
LINE
  5
157
330
1F
100
AcDbEntity
  8
0
  6
HIDDEN
 62
     7
370
     0
100
AcDbLine
 10
194.4575246881
 20
105.5705251442
 30
0.0
 11
194.4869693826
 21
105.3467897968
 31
0.0
  0
LINE
  5
158
330
1F
100
AcDbEntity
  8
0
  6
HIDDEN
 62
     7
370
     0
100
AcDbLine
 10
196.4559790205
 20
105.6260468708
 30
0.0
 11
196.485423715
 21
105.4023115234
 31
0.0
  0
LINE
  5
159
330
1F
100
AcDbEntity
  8
0
  6
HIDDEN
 62
     7
370
     0
100
AcDbLine
 10
194.4280799936
 20
106.4066325584
 30
0.0
 11
196.4265343259
 21
106.4621542851
 31
0.0
  0
LINE
  5
15A
330
1F
100
AcDbEntity
  8
0
  6
HIDDEN
 62
     7
370
     0
100
AcDbLine
 10
194.4280799936
 20
107.0190046253
 30
0.0
 11
196.4265343259
 21
107.0745268175
 31
0.0
  0
LINE
  5
15B
330
1F
100
AcDbEntity
  8
0
  6
HIDDEN
 62
     7
370
     0
100
AcDbLine
 10
194.4280799936
 20
107.0190046253
 30
0.0
 11
194.4280799936
 21
106.4066325584
 31
0.0
  0
LINE
  5
15C
330
1F
100
AcDbEntity
  8
0
  6
HIDDEN
 62
     7
370
     0
100
AcDbLine
 10
194.4575246881
 20
105.5705251442
 30
0.0
 11
194.4280799936
 21
106.4066325584
 31
0.0
  0
LINE
  5
15D
330
1F
100
AcDbEntity
  8
0
  6
HIDDEN
 62
     7
370
     0
100
AcDbLine
 10
196.4559790205
 20
105.6260468708
 30
0.0
 11
196.4265343259
 21
106.4621542851
 31
0.0
  0
LINE
  5
15E
330
1F
100
AcDbEntity
  8
0
  6
HIDDEN
 62
     7
370
     0
100
AcDbLine
 10
135.4265369001
 20
126.8993976796
 30
0.0
 11
135.4265369001
 21
124.9955023909
 31
0.0
  0
LINE
  5
15F
330
1F
100
AcDbEntity
  8
0
  6
HIDDEN
 62
     7
370
     0
100
AcDbLine
 10
143.4265368144
 20
124.9955023909
 30
0.0
 11
143.4265368144
 21
126.9021925787
 31
0.0
  0
LINE
  5
160
330
1F
100
AcDbEntity
  8
0
  6
HIDDEN
 62
     7
370
     0
100
AcDbLine
 10
131.4265367101
 20
87.277631023
 30
0.0
 11
131.5206974824
 21
87.9476188952
 31
0.0
  0
LINE
  5
161
330
1F
100
AcDbEntity
  8
0
  6
HIDDEN
 62
     7
370
     0
100
AcDbLine
 10
131.5206974824
 20
137.2555054063
 30
0.0
 11
131.4265367101
 21
137.9254932785
 31
0.0
  0
ARC
  5
162
330
1F
100
AcDbEntity
  8
0
  6
HIDDEN
 62
     7
370
     0
100
AcDbCircle
 10
130.9265299575
 20
88.0311245364
 30
0.0
 40
0.6000067526677081
100
AcDbArc
 50
352.0
 51
0.0
  0
ARC
  5
163
330
1F
100
AcDbEntity
  8
0
  6
HIDDEN
 62
     7
370
     0
100
AcDbCircle
 10
130.9265299575
 20
88.0311245364
 30
0.0
 40
0.6000067526677045
100
AcDbArc
 50
0.0
 51
33.5571153394
  0
ARC
  5
164
330
1F
100
AcDbEntity
  8
0
  6
HIDDEN
 62
     7
370
     0
100
AcDbCircle
 10
130.9265299575
 20
137.1719997651
 30
0.0
 40
0.6000067526677081
100
AcDbArc
 50
348.75
 51
8.0
  0
LWPOLYLINE
  5
165
330
1F
100
AcDbEntity
  8
0
  6
HIDDEN
 62
     7
370
     0
100
AcDbPolyline
 90
        3
 70
   128
 43
0.0
 10
131.515007749
 20
137.0549450899
 10
131.4808639173
 20
136.9423873061
 10
131.4265367101
 20
136.840334841
  0
LINE
  5
166
330
1F
100
AcDbEntity
  8
0
  6
HIDDEN
 62
     7
370
     0
100
AcDbLine
 10
131.5265367076
 20
88.0311250025
 30
0.0
 11
131.5265367076
 21
137.171999299
 31
0.0
  0
ARC
  5
167
330
1F
100
AcDbEntity
  8
0
  6
HIDDEN
 62
     7
370
     0
100
AcDbCircle
 10
125.1815387117
 20
100.6015621508
 30
0.0
 40
7.999999999999993
100
AcDbArc
 50
276.8809132624
 51
321.3178125465
  0
ARC
  5
168
330
1F
100
AcDbEntity
  8
0
  6
HIDDEN
 62
     7
370
     0
100
AcDbCircle
 10
125.1815387117
 20
124.6015621508
 30
0.0
 40
8.000000000000002
100
AcDbArc
 50
38.6821874535
 51
83.1249005381
  0
LINE
  5
169
330
1F
100
AcDbEntity
  8
0
  6
HIDDEN
 62
     7
370
     0
100
AcDbLine
 10
114.5089727353
 20
92.6015625978
 30
0.0
 11
118.7006442334
 21
92.6015625978
 31
0.0
  0
LINE
  5
16A
330
1F
100
AcDbEntity
  8
0
  6
HIDDEN
 62
     7
370
     0
100
AcDbLine
 10
118.7006442334
 20
132.6015617037
 30
0.0
 11
114.5089727353
 21
132.6015617037
 31
0.0
  0
ARC
  5
16B
330
1F
100
AcDbEntity
  8
0
  6
HIDDEN
 62
     7
370
     0
100
AcDbCircle
 10
114.5089722754
 20
93.2015621508
 30
0.0
 40
0.6000000000000085
100
AcDbArc
 50
210.0
 51
270.0
  0
ARC
  5
16C
330
1F
100
AcDbEntity
  8
0
  6
HIDDEN
 62
     7
370
     0
100
AcDbCircle
 10
114.5089722754
 20
132.0015621508
 30
0.0
 40
0.599999999999989
100
AcDbArc
 50
90.0
 51
150.0
  0
LINE
  5
16D
330
1F
100
AcDbEntity
  8
0
  6
HIDDEN
 62
     7
370
     0
100
AcDbLine
 10
113.9893562059
 20
132.3015622133
 30
0.0
 11
112.4305122058
 21
129.6015630746
 31
0.0
  0
LINE
  5
16E
330
1F
100
AcDbEntity
  8
0
  6
HIDDEN
 62
     7
370
     0
100
AcDbLine
 10
112.4305122058
 20
95.6015612269
 30
0.0
 11
113.9893562059
 21
92.9015620882
 31
0.0
  0
LINE
  5
16F
330
1F
100
AcDbEntity
  8
0
  6
HIDDEN
 62
     7
370
     0
100
AcDbLine
 10
143.4265368144
 20
136.5471638078
 30
0.0
 11
143.4265368144
 21
139.875891366
 31
0.0
  0
LINE
  5
170
330
1F
100
AcDbEntity
  8
0
  6
HIDDEN
 62
     7
370
     0
100
AcDbLine
 10
135.4265369001
 20
139.8813619548
 30
0.0
 11
135.4265369001
 21
136.5471638078
 31
0.0
  0
ARC
  5
171
330
1F
100
AcDbEntity
  8
0
  6
HIDDEN
 62
     7
370
     0
100
AcDbCircle
 10
139.8765367101
 20
96.8765621508
 30
0.0
 40
1.500000000000004
100
AcDbArc
 50
238.2116693829
 51
0.0
  0
ARC
  5
172
330
1F
100
AcDbEntity
  8
0
  6
HIDDEN
 62
     7
370
     0
100
AcDbCircle
 10
139.8765367101
 20
128.3265621508
 30
0.0
 40
1.5
100
AcDbArc
 50
0.0
 51
121.7883306171
  0
LINE
  5
173
330
1F
100
AcDbEntity
  8
0
  6
HIDDEN
 62
     7
370
     0
100
AcDbLine
 10
109.6265364896
 20
95.6015612269
 30
0.0
 11
112.4305122058
 21
95.6015612269
 31
0.0
  0
LINE
  5
174
330
1F
100
AcDbEntity
  8
0
  6
HIDDEN
 62
     7
370
     0
100
AcDbLine
 10
112.4305122058
 20
129.6015630746
 30
0.0
 11
105.6265358339
 21
129.6015630746
 31
0.0
  0
LINE
  5
175
330
1F
100
AcDbEntity
  8
0
  6
HIDDEN
 62
     7
370
     0
100
AcDbLine
 10
131.4265367101
 20
95.6015612269
 30
0.0
 11
139.0863626722
 21
95.6015612269
 31
0.0
  0
LINE
  5
176
330
1F
100
AcDbEntity
  8
0
  6
HIDDEN
 62
     7
370
     0
100
AcDbLine
 10
139.0863626722
 20
129.6015630746
 30
0.0
 11
131.4265367101
 21
129.6015630746
 31
0.0
  0
LINE
  5
177
330
1F
100
AcDbEntity
  8
0
  6
HIDDEN
 62
     7
370
     0
100
AcDbLine
 10
161.043622763
 20
106.4220100911
 30
0.0
 11
159.4751116346
 21
109.469251222
 31
0.0
  0
LINE
  5
178
330
1F
100
AcDbEntity
  8
0
  6
HIDDEN
 62
     7
370
     0
100
AcDbLine
 10
163.1595541249
 20
102.3112607459
 30
0.0
 11
161.8456181596
 21
104.8639260503
 31
0.0
  0
LINE
  5
179
330
1F
100
AcDbEntity
  8
0
  6
HIDDEN
 62
     7
370
     0
100
AcDbLine
 10
158.5711215149
 20
104.0149188871
 30
0.0
 11
160.2254372548
 21
100.8009777674
 31
0.0
  0
LINE
  5
17A
330
1F
100
AcDbEntity
  8
0
  6
HIDDEN
 62
     7
370
     0
100
AcDbLine
 10
156.2654275905
 20
108.4943285482
 30
0.0
 11
157.76574728
 21
105.5795654925
 31
0.0
  0
LINE
  5
17B
330
1F
100
AcDbEntity
  8
0
  6
HIDDEN
 62
     7
370
     0
100
AcDbLine
 10
150.2265364389
 20
103.1015624562
 30
0.0
 11
153.2265369307
 21
103.1015624562
 31
0.0
  0
LINE
  5
17C
330
1F
100
AcDbEntity
  8
0
  6
HIDDEN
 62
     7
370
     0
100
AcDbLine
 10
153.2265369307
 20
122.1015618453
 30
0.0
 11
150.2265364389
 21
122.1015618453
 31
0.0
  0
LINE
  5
17D
330
1F
100
AcDbEntity
  8
0
  6
HIDDEN
 62
     7
370
     0
100
AcDbLine
 10
141.3765365715
 20
103.6015625382
 30
0.0
 11
141.8765366535
 21
104.1015616888
 31
0.0
  0
LINE
  5
17E
330
1F
100
AcDbEntity
  8
0
  6
HIDDEN
 62
     7
370
     0
100
AcDbLine
 10
141.8765366535
 20
121.1015626127
 30
0.0
 11
141.3765365715
 21
121.6015617633
 31
0.0
  0
LINE
  5
17F
330
1F
100
AcDbEntity
  8
0
  6
HIDDEN
 62
     7
370
     0
100
AcDbLine
 10
156.4920891534
 20
103.8776475275
 30
0.0
 11
158.6619832079
 21
103.9379329691
 31
0.0
  0
LINE
  5
180
330
1F
100
AcDbEntity
  8
0
  6
HIDDEN
 62
     7
370
     0
100
AcDbLine
 10
158.0332138102
 20
106.4214284802
 30
0.0
 11
156.4226609181
 21
106.3766835527
 31
0.0
  0
LINE
  5
181
330
1F
100
AcDbEntity
  8
0
  6
HIDDEN
 62
     7
370
     0
100
AcDbLine
 10
156.4210944335
 20
106.3753037984
 30
0.0
 11
155.7068780522
 21
105.1063153232
 31
0.0
  0
LINE
  5
182
330
1F
100
AcDbEntity
  8
0
  6
HIDDEN
 62
     7
370
     0
100
AcDbLine
 10
155.7068780522
 20
105.1063153232
 30
0.0
 11
156.4904500257
 21
103.8789383406
 31
0.0
  0
LINE
  5
183
330
1F
100
AcDbEntity
  8
0
  6
HIDDEN
 62
     7
370
     0
100
AcDbLine
 10
161.5860399316
 20
104.0191694433
 30
0.0
 11
196.4265343259
 21
104.9871186065
 31
0.0
  0
LINE
  5
184
330
1F
100
AcDbEntity
  8
0
  6
HIDDEN
 62
     7
370
     0
100
AcDbLine
 10
196.4265343259
 20
107.4880834008
 30
0.0
 11
160.9506767701
 21
106.5024824152
 31
0.0
  0
LINE
  5
185
330
1F
100
AcDbEntity
  8
0
  6
HIDDEN
 62
     7
370
     0
100
AcDbLine
 10
141.8765366535
 20
104.1015616888
 30
0.0
 11
150.2265364389
 21
104.1015616888
 31
0.0
  0
LINE
  5
186
330
1F
100
AcDbEntity
  8
0
  6
HIDDEN
 62
     7
370
     0
100
AcDbLine
 10
150.2265364389
 20
121.1015626127
 30
0.0
 11
141.8765366535
 21
121.1015626127
 31
0.0
  0
LINE
  5
187
330
1F
100
AcDbEntity
  8
0
  6
HIDDEN
 62
     7
370
     0
100
AcDbLine
 10
136.3765366833
 20
144.1015626574
 30
0.0
 11
136.3765366833
 21
139.0015620077
 31
0.0
  0
LINE
  5
188
330
1F
100
AcDbEntity
  8
0
  6
HIDDEN
 62
     7
370
     0
100
AcDbLine
 10
155.8265362392
 20
107.3015623065
 30
0.0
 11
158.5317619602
 21
107.3015623065
 31
0.0
  0
LINE
  5
189
330
1F
100
AcDbEntity
  8
0
  6
HIDDEN
 62
     7
370
     0
100
AcDbLine
 10
158.5317619602
 20
117.901561995
 30
0.0
 11
155.8265362392
 21
117.901561995
 31
0.0
  0
ARC
  5
18A
330
1F
100
AcDbEntity
  8
0
  6
HIDDEN
 62
     7
370
     0
100
AcDbCircle
 10
158.531762692
 20
117.5015621508
 30
0.0
 40
0.4000000000000074
100
AcDbArc
 50
70.0
 51
90.0
  0
ARC
  5
18B
330
1F
100
AcDbEntity
  8
0
  6
HIDDEN
 62
     7
370
     0
100
AcDbCircle
 10
155.8265367101
 20
107.7015621508
 30
0.0
 40
0.4000000000000057
100
AcDbArc
 50
180.0
 51
270.0
  0
ARC
  5
18C
330
1F
100
AcDbEntity
  8
0
  6
HIDDEN
 62
     7
370
     0
100
AcDbCircle
 10
155.8265367101
 20
117.5015621508
 30
0.0
 40
0.4000000000000057
100
AcDbArc
 50
90.0
 51
180.0
  0
ARC
  5
18D
330
1F
100
AcDbEntity
  8
0
  6
HIDDEN
 62
     7
370
     0
100
AcDbCircle
 10
196.1265367101
 20
107.3015621508
 30
0.0
 40
0.2999999999999972
100
AcDbArc
 50
0.0
 51
90.0
  0
ARC
  5
18E
330
1F
100
AcDbEntity
  8
0
  6
HIDDEN
 62
     7
370
     0
100
AcDbCircle
 10
196.1265367101
 20
117.9015621508
 30
0.0
 40
0.2999999999999972
100
AcDbArc
 50
270.0
 51
0.0
  0
LINE
  5
18F
330
1F
100
AcDbEntity
  8
0
  6
HIDDEN
 62
     7
370
     0
100
AcDbLine
 10
159.4265375744
 20
117.601562039
 30
0.0
 11
158.6685713838
 21
117.8774393434
 31
0.0
  0
LINE
  5
190
330
1F
100
AcDbEntity
  8
0
  6
HIDDEN
 62
     7
370
     0
100
AcDbLine
 10
159.4265375744
 20
107.6015622625
 30
0.0
 11
177.1794792722
 21
107.6015622625
 31
0.0
  0
LINE
  5
191
330
1F
100
AcDbEntity
  8
0
  6
HIDDEN
 62
     7
370
     0
100
AcDbLine
 10
177.2736061822
 20
107.6015622625
 30
0.0
 11
196.1265366982
 21
107.6015622625
 31
0.0
  0
LINE
  5
192
330
1F
100
AcDbEntity
  8
0
  6
HIDDEN
 62
     7
370
     0
100
AcDbLine
 10
196.1265366982
 20
117.601562039
 30
0.0
 11
177.2740308653
 21
117.601562039
 31
0.0
  0
LINE
  5
193
330
1F
100
AcDbEntity
  8
0
  6
HIDDEN
 62
     7
370
     0
100
AcDbLine
 10
177.1795388769
 20
117.601562039
 30
0.0
 11
159.4265375744
 21
117.601562039
 31
0.0
  0
LINE
  5
194
330
1F
100
AcDbEntity
  8
0
  6
HIDDEN
 62
     7
370
     0
100
AcDbLine
 10
126.6109745476
 20
88.522190907
 30
0.0
 11
126.1765423688
 21
89.0012576515
 31
0.0
  0
LINE
  5
195
330
1F
100
AcDbEntity
  8
0
  6
HIDDEN
 62
     7
370
     0
100
AcDbLine
 10
118.6765388112
 20
89.4229456121
 30
0.0
 11
118.1941053356
 21
88.9438788677
 31
0.0
  0
LINE
  5
196
330
1F
100
AcDbEntity
  8
0
  6
HIDDEN
 62
     7
370
     0
100
AcDbLine
 10
118.1939833324
 20
136.2592398459
 30
0.0
 11
118.6765341546
 21
135.7801190848
 31
0.0
  0
LINE
  5
197
330
1F
100
AcDbEntity
  8
0
  6
HIDDEN
 62
     7
370
     0
100
AcDbLine
 10
126.1765367809
 20
136.2018182212
 30
0.0
 11
126.6110788557
 21
136.6809371198
 31
0.0
  0
LINE
  5
198
330
1F
100
AcDbEntity
  8
0
  6
HIDDEN
 62
     7
370
     0
100
AcDbLine
 10
126.1765367809
 20
89.0015109712
 30
0.0
 11
126.1765367809
 21
92.6661609942
 31
0.0
  0
LINE
  5
199
330
1F
100
AcDbEntity
  8
0
  6
HIDDEN
 62
     7
370
     0
100
AcDbLine
 10
118.6765369485
 20
92.6059398139
 30
0.0
 11
118.6765369485
 21
89.4231262887
 31
0.0
  0
LINE
  5
19A
330
1F
100
AcDbEntity
  8
0
  6
HIDDEN
 62
     7
370
     0
100
AcDbLine
 10
126.1765367809
 20
132.5369633073
 30
0.0
 11
126.1765367809
 21
136.201525786
 31
0.0
  0
LINE
  5
19B
330
1F
100
AcDbEntity
  8
0
  6
HIDDEN
 62
     7
370
     0
100
AcDbLine
 10
118.6765369485
 20
135.7799756611
 30
0.0
 11
118.6765369485
 21
132.5971844876
 31
0.0
  0
LINE
  5
19C
330
1F
100
AcDbEntity
  8
0
  6
HIDDEN
 62
     7
370
     0
100
AcDbLine
 10
153.2265369307
 20
109.2015621057
 30
0.0
 11
155.4265369187
 21
109.2015621057
 31
0.0
  0
LINE
  5
19D
330
1F
100
AcDbEntity
  8
0
  6
HIDDEN
 62
     7
370
     0
100
AcDbLine
 10
155.4265369187
 20
116.0015621958
 30
0.0
 11
153.2265369307
 21
116.0015621958
 31
0.0
  0
LINE
  5
19E
330
1F
100
AcDbEntity
  8
0
  6
HIDDEN
 62
     7
370
     0
100
AcDbLine
 10
162.57653688
 20
130.1015622253
 30
0.0
 11
163.5765370439
 21
129.5242111469
 31
0.0
  0
LINE
  5
19F
330
1F
100
AcDbEntity
  8
0
  6
HIDDEN
 62
     7
370
     0
100
AcDbLine
 10
168.5765360008
 20
129.5242111469
 30
0.0
 11
169.5765380274
 21
130.1015622253
 31
0.0
  0
LINE
  5
1A0
330
1F
100
AcDbEntity
  8
0
  6
HIDDEN
 62
     7
370
     0
100
AcDbLine
 10
169.5765380274
 20
95.1015620762
 30
0.0
 11
168.5765360008
 21
95.6789131546
 31
0.0
  0
LINE
  5
1A1
330
1F
100
AcDbEntity
  8
0
  6
HIDDEN
 62
     7
370
     0
100
AcDbLine
 10
163.5765370439
 20
95.6789131546
 30
0.0
 11
162.57653688
 21
95.1015620762
 31
0.0
  0
LINE
  5
1A2
330
1F
100
AcDbEntity
  8
0
  6
HIDDEN
 62
     7
370
     0
100
AcDbLine
 10
158.6685713838
 20
107.3256849581
 30
0.0
 11
159.4265375744
 21
107.6015622625
 31
0.0
  0
ARC
  5
1A3
330
1F
100
AcDbEntity
  8
0
  6
HIDDEN
 62
     7
370
     0
100
AcDbCircle
 10
158.531762692
 20
107.7015621508
 30
0.0
 40
0.4000000000000074
100
AcDbArc
 50
270.0
 51
290.0
  0
LINE
  5
1A4
330
1F
100
AcDbEntity
  8
0
  6
HIDDEN
 62
     7
370
     0
100
AcDbLine
 10
163.5765370439
 20
129.5242111469
 30
0.0
 11
163.5765370439
 21
121.1015626127
 31
0.0
  0
LINE
  5
1A5
330
1F
100
AcDbEntity
  8
0
  6
HIDDEN
 62
     7
370
     0
100
AcDbLine
 10
168.5765360008
 20
121.1015626127
 30
0.0
 11
168.5765360008
 21
129.5242111469
 31
0.0
  0
LINE
  5
1A6
330
1F
100
AcDbEntity
  8
0
  6
HIDDEN
 62
     7
370
     0
100
AcDbLine
 10
163.5765370439
 20
121.1015626127
 30
0.0
 11
166.076538385
 21
119.599410546
 31
0.0
  0
LINE
  5
1A7
330
1F
100
AcDbEntity
  8
0
  6
HIDDEN
 62
     7
370
     0
100
AcDbLine
 10
166.076538385
 20
119.599410546
 30
0.0
 11
168.5765360008
 21
121.1015626127
 31
0.0
  0
LINE
  5
1A8
330
1F
100
AcDbEntity
  8
0
  6
HIDDEN
 62
     7
370
     0
100
AcDbLine
 10
168.5765360008
 20
95.6789131546
 30
0.0
 11
168.5765360008
 21
104.1015616888
 31
0.0
  0
LINE
  5
1A9
330
1F
100
AcDbEntity
  8
0
  6
HIDDEN
 62
     7
370
     0
100
AcDbLine
 10
163.5765370439
 20
104.1015616888
 30
0.0
 11
163.5765370439
 21
95.6789131546
 31
0.0
  0
LINE
  5
1AA
330
1F
100
AcDbEntity
  8
0
  6
HIDDEN
 62
     7
370
     0
100
AcDbLine
 10
168.5765360008
 20
104.1015616888
 30
0.0
 11
166.076538385
 21
105.6037137555
 31
0.0
  0
LINE
  5
1AB
330
1F
100
AcDbEntity
  8
0
  6
HIDDEN
 62
     7
370
     0
100
AcDbLine
 10
166.076538385
 20
105.6037137555
 30
0.0
 11
163.5765370439
 21
104.1015616888
 31
0.0
  0
LINE
  5
1AC
330
1F
100
AcDbEntity
  8
0
  6
HIDDEN
 62
     7
370
     0
100
AcDbLine
 10
157.7655889551
 20
119.6232500756
 30
0.0
 11
156.2654275905
 21
116.7087957533
 31
0.0
  0
LINE
  5
1AD
330
1F
100
AcDbEntity
  8
0
  6
HIDDEN
 62
     7
370
     0
100
AcDbLine
 10
160.2254372548
 20
124.4021465341
 30
0.0
 11
158.5715871762
 21
121.18911066
 31
0.0
  0
LINE
  5
1AE
330
1F
100
AcDbEntity
  8
0
  6
HIDDEN
 62
     7
370
     0
100
AcDbLine
 10
161.845096619
 20
120.3381863693
 30
0.0
 11
163.1595541249
 21
122.8918635556
 31
0.0
  0
LINE
  5
1AF
330
1F
100
AcDbEntity
  8
0
  6
HIDDEN
 62
     7
370
     0
100
AcDbLine
 10
159.4751116346
 20
115.7338730795
 30
0.0
 11
161.0440828364
 21
118.782009677
 31
0.0
  0
LINE
  5
1B0
330
1F
100
AcDbEntity
  8
0
  6
HIDDEN
 62
     7
370
     0
100
AcDbLine
 10
160.9512988935
 20
118.7006246569
 30
0.0
 11
196.4265343259
 21
117.7150409007
 31
0.0
  0
LINE
  5
1B1
330
1F
100
AcDbEntity
  8
0
  6
HIDDEN
 62
     7
370
     0
100
AcDbLine
 10
196.4265343259
 20
120.2160056951
 30
0.0
 11
161.5819178979
 21
121.1840694109
 31
0.0
  0
LINE
  5
1B2
330
1F
100
AcDbEntity
  8
0
  6
HIDDEN
 62
     7
370
     0
100
AcDbLine
 10
156.4226609181
 20
118.8264407488
 30
0.0
 11
158.027892233
 21
118.7818434359
 31
0.0
  0
LINE
  5
1B3
330
1F
100
AcDbEntity
  8
0
  6
HIDDEN
 62
     7
370
     0
100
AcDbLine
 10
158.6624674957
 20
121.2651782939
 30
0.0
 11
156.4920891534
 21
121.325476774
 31
0.0
  0
LINE
  5
1B4
330
1F
100
AcDbEntity
  8
0
  6
HIDDEN
 62
     7
370
     0
100
AcDbLine
 10
156.4904500257
 20
121.3241859609
 30
0.0
 11
155.7068780522
 21
120.0968089784
 31
0.0
  0
LINE
  5
1B5
330
1F
100
AcDbEntity
  8
0
  6
HIDDEN
 62
     7
370
     0
100
AcDbLine
 10
155.7068780522
 20
120.0968089784
 30
0.0
 11
156.4210944335
 21
118.8278205032
 31
0.0
  0
LINE
  5
1B6
330
1F
100
AcDbEntity
  8
0
  6
HIDDEN
 62
     7
370
     0
100
AcDbLine
 10
196.195663185
 20
117.4730954031
 30
0.0
 11
196.3648882221
 21
117.7486774782
 31
0.0
  0
LINE
  5
1B7
330
1F
100
AcDbEntity
  8
0
  6
HIDDEN
 62
     7
370
     0
100
AcDbLine
 10
196.4265343259
 20
120.1950458148
 30
0.0
 11
196.2788787197
 21
120.4684672216
 31
0.0
  0
LINE
  5
1B8
330
1F
100
AcDbEntity
  8
0
  6
HIDDEN
 62
     7
370
     0
100
AcDbLine
 10
196.2769266675
 20
120.4702581549
 30
0.0
 11
190.942988963
 21
120.618447409
 31
0.0
  0
LINE
  5
1B9
330
1F
100
AcDbEntity
  8
0
  6
HIDDEN
 62
     7
370
     0
100
AcDbLine
 10
190.8596765707
 20
117.6196045512
 30
0.0
 11
196.1936142753
 21
117.4714157628
 31
0.0
  0
LINE
  5
1BA
330
1F
100
AcDbEntity
  8
0
  6
HIDDEN
 62
     7
370
     0
100
AcDbLine
 10
190.9418192218
 20
120.617901654
 30
0.0
 11
190.428708912
 21
120.132156861
 31
0.0
  0
LINE
  5
1BB
330
1F
100
AcDbEntity
  8
0
  6
HIDDEN
 62
     7
370
     0
100
AcDbLine
 10
190.3731871854
 20
118.133699269
 30
0.0
 11
190.8585366319
 21
117.6202150332
 31
0.0
  0
LINE
  5
1BC
330
1F
100
AcDbEntity
  8
0
  6
HIDDEN
 62
     7
370
     0
100
AcDbLine
 10
190.917426021
 20
107.5845451364
 30
0.0
 11
190.4320765744
 21
107.0710613662
 31
0.0
  0
LINE
  5
1BD
330
1F
100
AcDbEntity
  8
0
  6
HIDDEN
 62
     7
370
     0
100
AcDbLine
 10
190.487598301
 20
105.0726037743
 30
0.0
 11
191.0007086109
 21
104.5868589813
 31
0.0
  0
LINE
  5
1BE
330
1F
100
AcDbEntity
  8
0
  6
HIDDEN
 62
     7
370
     0
100
AcDbLine
 10
196.2525036644
 20
107.7333448725
 30
0.0
 11
190.9185659598
 21
107.5851556184
 31
0.0
  0
LINE
  5
1BF
330
1F
100
AcDbEntity
  8
0
  6
HIDDEN
 62
     7
370
     0
100
AcDbLine
 10
191.001878352
 20
104.5863132263
 30
0.0
 11
196.3358160566
 21
104.734501549
 31
0.0
  0
LINE
  5
1C0
330
1F
100
AcDbEntity
  8
0
  6
HIDDEN
 62
     7
370
     0
100
AcDbLine
 10
196.3377681087
 20
104.7362934137
 30
0.0
 11
196.4265343259
 21
104.9006653288
 31
0.0
  0
LINE
  5
1C1
330
1F
100
AcDbEntity
  8
0
  6
HIDDEN
 62
     7
370
     0
100
AcDbLine
 10
196.4237776111
 20
107.4560826914
 30
0.0
 11
196.254552574
 21
107.7316647666
 31
0.0
  0
DIMENSION
  5
1C2
330
1F
100
AcDbEntity
  8
VERMASSUNG
100
AcDbDimension
  2
*D1
 10
93.8913311103
 20
81.1015621508
 30
0.0
 11
93.8913311103
 21
111.1130464534
 31
0.0
 70
   160
  1
HSK A %%c<>
 71
     2
 42
-1.0
  3
SLDDIMSTYLE0
100
AcDbAlignedDimension
 13
131.7265367101
 23
144.1015621508
 33
0.0
 14
131.7265367101
 24
81.1015621508
 34
0.0
 50
90.0
100
AcDbRotatedDimension
  0
DIMENSION
  5
1CF
330
1F
100
AcDbEntity
  8
VERMASSUNG
100
AcDbDimension
  2
*D2
 10
196.4265367101
 20
157.9602383532
 30
0.0
 11
147.9765367101
 21
157.9602383532
 31
0.0
 70
   160
 71
     2
 42
-1.0
  3
SLDDIMSTYLE0
100
AcDbAlignedDimension
 13
99.5265367101
 23
132.2922398972
 33
0.0
 14
196.4265367101
 24
123.8274216291
 34
0.0
100
AcDbRotatedDimension
  0
DIMENSION
  5
1D9
330
1F
100
AcDbEntity
  8
VERMASSUNG
100
AcDbDimension
  2
*D3
 10
196.4265367101
 20
151.9602383532
 30
0.0
 11
163.9265367101
 21
151.9602383532
 31
0.0
 70
   160
 71
     2
 42
-1.0
  3
SLDDIMSTYLE0
100
AcDbAlignedDimension
 13
131.4265367101
 23
143.8015621508
 33
0.0
 14
196.4265367101
 24
123.8274216291
 34
0.0
100
AcDbRotatedDimension
  0
DIMENSION
  5
1E3
330
1F
100
AcDbEntity
  8
VERMASSUNG
100
AcDbDimension
  2
*D4
 10
196.4265367101
 20
145.9602383532
 30
0.0
 11
176.9015367101
 21
145.9602383532
 31
0.0
 70
   160
 71
     2
 42
-1.0
  3
SLDDIMSTYLE0
100
AcDbAlignedDimension
 13
157.3765367101
 23
142.4480024745
 33
0.0
 14
196.4265367101
 24
123.8274216291
 34
0.0
100
AcDbRotatedDimension
  0
DIMENSION
  5
1ED
330
1F
100
AcDbEntity
  8
VERMASSUNG
100
AcDbDimension
  2
*D5
 10
203.6061959325
 20
107.6015621508
 30
0.0
 11
203.6061959325
 21
112.6015621508
 31
0.0
 70
   160
  1
%%c<>
 71
     2
 42
-1.0
  3
SLDDIMSTYLE0
100
AcDbAlignedDimension
 13
196.1265367101
 23
117.6015621508
 33
0.0
 14
196.1265367101
 24
107.6015621508
 34
0.0
 50
90.0
100
AcDbRotatedDimension
  0
DIMENSION
  5
1F8
330
1F
100
AcDbEntity
  8
VERMASSUNG
100
AcDbDimension
  2
*D6
 10
209.6061959325
 20
95.1015621508
 30
0.0
 11
209.6061959325
 21
112.6015621508
 31
0.0
 70
   160
  1
%%c<>
 71
     2
 42
-1.0
  3
SLDDIMSTYLE0
100
AcDbAlignedDimension
 13
185.7040021076
 23
130.1015621508
 33
0.0
 14
185.7040021076
 24
95.1015621508
 34
0.0
 50
90.0
100
AcDbRotatedDimension
  0
LINE
  5
203
330
1F
100
AcDbEntity
  8
VERMASSUNG
  6
CENTERX2
370
     0
100
AcDbLine
 10
96.9672753223
 20
112.6015621508
 30
0.0
 11
197.2212298185
 21
112.6015621508
 31
0.0
  0
OLE2FRAME
  5
204
330
1F
100
AcDbEntity
  8
0
100
AcDbOle2Frame
 70
     2
  3
Bitmap Image
 10
13.8511154363
 20
38.264191557
 30
0.0
 11
51.6290888628
 21
31.9806341108
 31
0.0
 71
     2
 72
     0
 73
     1
 90
    12928
310
80552BED0767C5B32B40DDAF6807D121434000000000000000006FFBDDFB85D0
310
4940DDAF6807D121434000000000000000006FFBDDFB85D04940416F4BD60AFB
310
3F4000000000000000002BED0767C5B32B40416F4BD60AFB3F40000000000000
310
0000000000000100000000010000010000000100000000000100000000320000
310
D0CF11E0A1B11AE1000000000000000000000000000000003E000300FEFF0900
310
0600000000000000000000000100000001000000000000000010000002000000
310
01000000FEFFFFFF0000000000000000FFFFFFFFFFFFFFFFFFFFFFFFFFFFFFFF
310
FFFFFFFFFFFFFFFFFFFFFFFFFFFFFFFFFFFFFFFFFFFFFFFFFFFFFFFFFFFFFFFF
310
FFFFFFFFFFFFFFFFFFFFFFFFFFFFFFFFFFFFFFFFFFFFFFFFFFFFFFFFFFFFFFFF
310
FFFFFFFFFFFFFFFFFFFFFFFFFFFFFFFFFFFFFFFFFFFFFFFFFFFFFFFFFFFFFFFF
310
FFFFFFFFFFFFFFFFFFFFFFFFFFFFFFFFFFFFFFFFFFFFFFFFFFFFFFFFFFFFFFFF
310
FFFFFFFFFFFFFFFFFFFFFFFFFFFFFFFFFFFFFFFFFFFFFFFFFFFFFFFFFFFFFFFF
310
FFFFFFFFFFFFFFFFFFFFFFFFFFFFFFFFFFFFFFFFFFFFFFFFFFFFFFFFFFFFFFFF
310
FFFFFFFFFFFFFFFFFFFFFFFFFFFFFFFFFFFFFFFFFFFFFFFFFFFFFFFFFFFFFFFF
310
FFFFFFFFFFFFFFFFFFFFFFFFFFFFFFFFFFFFFFFFFFFFFFFFFFFFFFFFFFFFFFFF
310
FFFFFFFFFFFFFFFFFFFFFFFFFFFFFFFFFFFFFFFFFFFFFFFFFFFFFFFFFFFFFFFF
310
FFFFFFFFFFFFFFFFFFFFFFFFFFFFFFFFFFFFFFFFFFFFFFFFFFFFFFFFFFFFFFFF
310
FFFFFFFFFFFFFFFFFFFFFFFFFFFFFFFFFFFFFFFFFFFFFFFFFFFFFFFFFFFFFFFF
310
FFFFFFFFFFFFFFFFFFFFFFFFFFFFFFFFFFFFFFFFFFFFFFFFFFFFFFFFFFFFFFFF
310
FFFFFFFFFFFFFFFFFFFFFFFFFFFFFFFFFFFFFFFFFFFFFFFFFFFFFFFFFFFFFFFF
310
FDFFFFFFFEFFFFFFFEFFFFFFFEFFFFFF05000000060000000700000008000000
310
090000000A0000000B0000000C0000000D0000000E0000000F00000010000000
310
11000000120000001300000014000000150000001600000017000000FEFFFFFF
310
FFFFFFFFFFFFFFFFFFFFFFFFFFFFFFFFFFFFFFFFFFFFFFFFFFFFFFFFFFFFFFFF
310
FFFFFFFFFFFFFFFFFFFFFFFFFFFFFFFFFFFFFFFFFFFFFFFFFFFFFFFFFFFFFFFF
310
FFFFFFFFFFFFFFFFFFFFFFFFFFFFFFFFFFFFFFFFFFFFFFFFFFFFFFFFFFFFFFFF
310
FFFFFFFFFFFFFFFFFFFFFFFFFFFFFFFFFFFFFFFFFFFFFFFFFFFFFFFFFFFFFFFF
310
FFFFFFFFFFFFFFFFFFFFFFFFFFFFFFFFFFFFFFFFFFFFFFFFFFFFFFFFFFFFFFFF
310
FFFFFFFFFFFFFFFFFFFFFFFFFFFFFFFFFFFFFFFFFFFFFFFFFFFFFFFFFFFFFFFF
310
FFFFFFFFFFFFFFFFFFFFFFFFFFFFFFFFFFFFFFFFFFFFFFFFFFFFFFFFFFFFFFFF
310
FFFFFFFFFFFFFFFFFFFFFFFFFFFFFFFFFFFFFFFFFFFFFFFFFFFFFFFFFFFFFFFF
310
FFFFFFFFFFFFFFFFFFFFFFFFFFFFFFFFFFFFFFFFFFFFFFFFFFFFFFFFFFFFFFFF
310
FFFFFFFFFFFFFFFFFFFFFFFFFFFFFFFFFFFFFFFFFFFFFFFFFFFFFFFFFFFFFFFF
310
FFFFFFFFFFFFFFFFFFFFFFFFFFFFFFFFFFFFFFFFFFFFFFFFFFFFFFFFFFFFFFFF
310
FFFFFFFFFFFFFFFFFFFFFFFFFFFFFFFFFFFFFFFFFFFFFFFFFFFFFFFFFFFFFFFF
310
FFFFFFFFFFFFFFFFFFFFFFFFFFFFFFFFFFFFFFFFFFFFFFFFFFFFFFFFFFFFFFFF
310
52006F006F007400200045006E00740072007900000000000000000000000000
310
0000000000000000000000000000000000000000000000000000000000000000
310
16000500FFFFFFFFFFFFFFFF020000000A00030000000000C000000000000046
310
00000000000000000000000030EFEAB4FFFFCB0103000000C000000000000000
310
01004F006C006500000000000000000000000000000000000000000000000000
310
0000000000000000000000000000000000000000000000000000000000000000
310
0A000200FFFFFFFFFFFFFFFFFFFFFFFF00000000000000000000000000000000
310
0000000000000000000000000000000000000000000000001400000000000000
310
010043006F006D0070004F0062006A0000000000000000000000000000000000
310
0000000000000000000000000000000000000000000000000000000000000000
310
120002010100000003000000FFFFFFFF00000000000000000000000000000000
310
0000000000000000000000000000000000000000010000004D00000000000000
310
01004F006C006500310030004E00610074006900760065000000000000000000
310
0000000000000000000000000000000000000000000000000000000000000000
310
1A000200FFFFFFFFFFFFFFFFFFFFFFFF00000000000000000000000000000000
310
0000000000000000000000000000000000000000040000002426000000000000
310
FEFFFFFF02000000FEFFFFFFFFFFFFFFFFFFFFFFFFFFFFFFFFFFFFFFFFFFFFFF
310
FFFFFFFFFFFFFFFFFFFFFFFFFFFFFFFFFFFFFFFFFFFFFFFFFFFFFFFFFFFFFFFF
310
FFFFFFFFFFFFFFFFFFFFFFFFFFFFFFFFFFFFFFFFFFFFFFFFFFFFFFFFFFFFFFFF
310
FFFFFFFFFFFFFFFFFFFFFFFFFFFFFFFFFFFFFFFFFFFFFFFFFFFFFFFFFFFFFFFF
310
FFFFFFFFFFFFFFFFFFFFFFFFFFFFFFFFFFFFFFFFFFFFFFFFFFFFFFFFFFFFFFFF
310
FFFFFFFFFFFFFFFFFFFFFFFFFFFFFFFFFFFFFFFFFFFFFFFFFFFFFFFFFFFFFFFF
310
FFFFFFFFFFFFFFFFFFFFFFFFFFFFFFFFFFFFFFFFFFFFFFFFFFFFFFFFFFFFFFFF
310
FFFFFFFFFFFFFFFFFFFFFFFFFFFFFFFFFFFFFFFFFFFFFFFFFFFFFFFFFFFFFFFF
310
FFFFFFFFFFFFFFFFFFFFFFFFFFFFFFFFFFFFFFFFFFFFFFFFFFFFFFFFFFFFFFFF
310
FFFFFFFFFFFFFFFFFFFFFFFFFFFFFFFFFFFFFFFFFFFFFFFFFFFFFFFFFFFFFFFF
310
FFFFFFFFFFFFFFFFFFFFFFFFFFFFFFFFFFFFFFFFFFFFFFFFFFFFFFFFFFFFFFFF
310
FFFFFFFFFFFFFFFFFFFFFFFFFFFFFFFFFFFFFFFFFFFFFFFFFFFFFFFFFFFFFFFF
310
FFFFFFFFFFFFFFFFFFFFFFFFFFFFFFFFFFFFFFFFFFFFFFFFFFFFFFFFFFFFFFFF
310
FFFFFFFFFFFFFFFFFFFFFFFFFFFFFFFFFFFFFFFFFFFFFFFFFFFFFFFFFFFFFFFF
310
FFFFFFFFFFFFFFFFFFFFFFFFFFFFFFFFFFFFFFFFFFFFFFFFFFFFFFFFFFFFFFFF
310
FFFFFFFFFFFFFFFFFFFFFFFFFFFFFFFFFFFFFFFFFFFFFFFFFFFFFFFFFFFFFFFF
310
010000020000000000000000000000000000000061007200650064005C003100
310
30002E0030005C0044004C004C005300680061007200650064005C003B004300
310
0100FEFF030A0000FFFFFFFF0A00030000000000C00000000000004607000000
310
5042727573680007000000504272757368000700000050427275736800F439B2
310
71000000000000000000000000004100540049002E004100430045005C004300
310
6F00720065002D005300740061007400690063003B0043003A005C0050007200
310
6F006700720061006D002000460069006C006500730020002800780038003600
310
29005C0043006F006D006D006F006E002000460069006C00650073005C004100
310
750074006F006400650073006B0020005300680061007200650064005C003B00
310
43003A005C00500072006F006700720061006D002000460069006C0065007300
310
5C004E006F0072006D0061006E005C004E0070006D005C00420069006E000000
310
43003A005C00500072006F006700720061006D002000460069006C0065007300
310
5C0053006F006C006900640057006F0072006B007300200043006F0072007000
310
5C0053006F006C006900640057006F0072006B00730020002800320029005C00
310
730065007400750070005C0069003300380036005C0073007700610063007400
310
770069007A002E006500780065000000220043003A005C00500072006F006700
310
20260000424D0E260000000000003E00000028000000B40200006E0000000100
310
01000000000000000000130B0000130B00000200000002000000000000FFFFFF
310
FFFFFFFFFFFFFFFFFFFFFFFFFFFFFFFFFFFFFFFFFFFFFFFFFFFFFFFFFFFFFFFF
310
FFFFFFFFFFFFFFFFFFFFFFFFFFFFFFFFFFFFFFFFFFFFFFFFFFFFFFFFFFFFFFFF
310
FFFFFFFFFFFFFFFFFFFFFFFFFFFFFFFFFFFFFFFFFFFFFFFFF000FFFFFFFFFFFF
310
FFFFFFFFFFFFFFFFFFFFFFFFFFFFFFFFFFFFFFFFFFFFFFFFFFFFFFFFFFFFFFFF
310
FFFFFFFFFFFFFFFFFFFFFFFFFFFFFFFFFFFFFFFFFFFFFFFFFFFFFFFFFFFFFFFF
310
FFFFFFFFFFFFFFFFFFFFFFFFFFFFFFFFF000FFFFFFFFFFFFFFFFFFFFFFFFFFFF
310
FFFFFFFFFFFFFFFFFFFFFFFFFFFFFFFFFFFFFFFFFFFFFFFFFFFFFFFFFFFFFFFF
310
FFFFFFFFFFFFFFFFFFFFFFFFFFFFFFFFFFFFFFFFFFFFFFFFFFFFFFFFFFFFFFFF
310
FFFFFFFFFFFFFFFFF000FFFFFFFFFFFFFFFFFFFFFFFFFFFFFFFFFFFFFFFFFFFF
310
FFFFFFFFFFFFFFFFFFFFFFFFFFFFFFFFFFFFFFFFFFFFFFFFFFFFFFFFFFFFFFFF
310
FFFFFFFFFFFFFFFFFFFFFFFFFFFFFFFFFFFFFFFFFFFFFFFFFFFFFFFFFFFFFFFF
310
F000FFFFFFFFFFFFFFFFFFFFFFFFFFFFFFFFFFFFFFFFFFFFFFFFFFFFFFFFFFFF
310
FFFFFFFFFFFFFFFFFFFFFFFFFFFFFFFFFFFFFFFFFFFFFFFFFFFFFFFFFFFFFFFF
310
FFFFFFFFFFFFFFFFFFFFFFFFFFFFFFFFFFFFFFFFFFFFFFFFF000FFFFFFFFFFFF
310
FFFFFFFFFFFFFFFFFFFFFFFFFFFFFFFFFFFFFFFFFFFFFFFFFFFFFFFFFFFFFFFF
310
FFFFFFFFFFFFFFFFFFFFFFFFFFFFFFFFFFFFFFFFFFFFFFFFFFFFFFFFFFFFFFFF
310
FFFFFFFFFFFFFFFFFFFFFFFFFFFFFFFFF000FFFFFFFFFFFFFFFFFFFFFFFFFFFF
310
FFFFFFFFFFFFFFFFFFFFFFFFFFFFFFFFFFFFFFFFFFFFFFFFFFFFFFFFFFFFFFFF
310
FFFFFFFFFFFFFFFFFFFFFFFFFFFFFFFFFFFFFFFFFFFFFFFFFFFFFFFFFFFFFFFF
310
FFFFFFFFFFFFFFFFF000FFFFFFFFFFFFFFFFFFFFFFFFFFFFFFFFFFFFFFFFFFFF
310
FFFFFFFFFFFFFFFFFFFFFFFFFFFFFFFFFFFFFFFFFFFFFFFFFFFFFFFFFFFFFFFF
310
FFFFFFFFFFFFFFFFFFFFFFFFFFFFFFFFFFFFFFFFFFFFFFFFFFFFFFFFFFFFFFFF
310
F000FFFFFFFFFFFFFFFFFFFFFFFFFFFFFFFFFFFFFFFFFFFFFFFFFFFFFFFFFFFF
310
FFFFFFFFFFFFFFFFFFFFFFFFFFFFFFFFFFFFFFFFFFFFFFFFFFFFFFFFFFFFFFFF
310
FFFFFFFFFFFFFFFFFFFFFFFFFFFFFFFFFFFFFFFFFFFFFFFFF000FFFFFFFFFFFF
310
FFFFFFFFFFFFFFFFFFFFFFFFFFFFFFFFFFFFFFFFFFFFFFFFFFFFFFFFFFFFFFFF
310
FFFFFFFFFFFFFFFFFFFFFFFFFFFFFFFFFFFFFFFFFFFFFFFFFFFFFFFFFFFFFFFF
310
FFFFFFFFFFFFFFFFFFFFFFFFFFFFFFFFF000FFFFFFFFFFFFFFFFFFFFFFFFFFFF
310
FFFFFFFFFFFFFFFFFFFFFFFFFFFFFFFFFFFFFFFFFFFFFFFFFFFFFFFFFFFFFFFF
310
FFFFFFFFFFFFFFFFFFFFFFFFFFFFFFFFFFFFFFFFFFFFFFFFFFFFFFFFFFFFFFFF
310
FFFFFFFFFFFFFFFFF000FFFFFFFFFFFFFFFFFFFFFFFFFFFFFFFFFFFFFFFFFFFF
310
FFFFFFFFFFFFFFFFFFFFFFFFFFFFFFFFFFFFFFFFFFFFFFFFFFFFFFFFFFFFFFFF
310
FFFFFFFFFFFFFFFFFFFFFFFFFFFFFFFFFFFFFFFFFFFFFFFFFFFFFFFFFFFFFFFF
310
F000FFFFFFFFFFFFFFFFFFFFFFFFFFFFFFFFFFFFFFFFFFFFFFFFFFFFFFFFFFFF
310
FFFFFFFFFFFFFFFFFFFFFFFFFFFFFFFFFFFFFFFFFFFFFFFFFFFFFFFFFFFFFFFF
310
FFFFFFFFFFFFFFFFFFFFFFFFFFFFFFFFFFFFFFFFFFFFFFFFF000FFFFFFFFFFFF
310
FFFFFFFFFFFFFFFFFFFFFFFFFFFFFFFFFFFFFFFFFFFFFFFFFFFFFFFFFFFFFFFF
310
FFFFFFFFFFFFFFFFFFFFFFFFFFFFFFFFFFFFFFFFFFFFFFFFFFFFFFFFFFFFFFFF
310
FFFFFFFFFFFFFFFFFFFFFFFFFFFFFFFFF000FFFFFFFFFFFFFFFFFFFFFFFFFFFF
310
FFFFFFFFFFFFFFFFFFFFFFFFFFFFFFFFFFFFFFFFFFFFFFFFFFFFFFFFFFFFFFFF
310
FFFFFFFFFFFFFFFFFFFFFFFFFFFFFFFFFFFFFFFFFFFFFFFFFFFFFFFFFFFFFFFF
310
FFFFFFFFFFFFFFFFF000FFFFFFFFFFFFFFFFFFFFFFFFFFFFFFFFFFFFFFFFFFFF
310
FFFFFFFFFFFFFFFFFFFFFFFFFFFFFFFFFFFFFFFFFFFFFFFFFFFFFFFFFFFFFFFF
310
FFFFFFFFFFFFFFFFFFFFFFFFFFFFFFFFFFFFFFFFFFFFFFFFFFFFFFFFFFFFFFFF
310
F000FFFFFFFFFFFFFFFFFFFFFFFFFFFFFFFFFFFFFFFFFFFFFFFFFFFFFFFFFFFF
310
FFFFFFFFFFFFFFFFFFFFFFFFFFFFFFFFFFFFFFFFFFFFFFFFFFFFFFFFFFFFFFFF
310
FFFFFFFFFFFFFFFFFFFFFFFFFFFFFFFFFFFFFFFFFFFFFFFFF000FFFFFFFFFFFF
310
FFFFFFFFFFFFFFFFFFFFFFFFFFFFFFFFFFFFFFFFFFFFFFFFFFFFFFFFFFFFFFFF
310
FFFFFFFFFFFFFFFFFFFFFFFFFFFFFFFFFFFFFFFFFFFFFFFFFFFFFFFFFFFFFFFF
310
FFFFFFFFFFFFFFFFFFFFFFFFFFFFFFFFF000FFFFFFFFFFFFFFFFFFFFFFFFFFFF
310
FFFFFFFFFFFFFFFFFFFFFFFFFFFFFFFFFFFFFFFFFFFFFFFFFFFFFFFFFFFFFFFF
310
FFFFFFFFFFFFFFFFFFFFFFFFFFFFFFFFFFFFFFFFFFFFFFFFFFFFFFFFFFFFFFFF
310
FFFFFFFFFFFFFFFFF000FFFFF80003FFFFFFFFFFFFFFFFFFFFFFFFFFFFFFFFFF
310
FFFFF00007FFFFFFFFFF00007FFFFFF800000000000000007FFFFFFFFFFFFFFF
310
FFFFFFFC001FFFFFFFFFFFFFFC001FFFFFFFFFFFFFFFFFFFFFFFFFFE0007FFFF
310
F000FFFF8000007FFFFFFFF8000FFFFFC0007FFFFF80007FFFFF0000007FFFFF
310
FFF8000007FFFFF800000000000000007FFFFFF0001FFFFFFFFFFFC00001FFFF
310
FFFFFFFFC00001FFFFFFFF000000000003FFFFE000007FFFF000FFFE0000000F
310
FFFFFFF0000FFFFF80007FFFFF80007FFFFC0000001FFFFFFFC0000001FFFFF8
310
00000000000000007FFFFFF0001FFFFFFFFFFE0000003FFFFFFFFFFE0000003F
310
FFFFFF000000000003FFFF0000000FFFF000FFF800000003FFFFFFF00007FFFF
310
80007FFFFF80007FFFF000000007FFFFFF000000003FFFF80000000000000000
310
7FFFFFF0001FFFFFFFFFF80000000FFFFFFFFFF80000000FFFFFFF0000000000
310
03FFFC00000003FFF000FFE000000000FFFFFFF00007FFFF80003FFFFF80007F
310
FFC000000001FFFFFC000000001FFFF800000000000000007FFFFFF0001FFFFF
310
FFFFE000000003FFFFFFFFE000000003FFFFFF000000000003FFF000000000FF
310
F000FF80000000007FFFFFF00007FFFF80003FFFFF80007FFF8000000000FFFF
310
F80000000007FFF800000000000000007FFFFFF0001FFFFFFFFFC000000001FF
310
FFFFFFC000000001FFFFFF000000000003FFC0000000007FF000FF0000000000
310
3FFFFFE00007FFFF00003FFFFF80007FFE00000000003FFFF00000000003FFF8
310
00000000000000007FFFFFF0001FFFFFFFFF8000000000FFFFFFFF8000000000
310
FFFFFF000000000003FF80000000003FF000FE00000000001FFFFFE00003FFFF
310
00003FFFFF80007FFC00000000001FFFE00000000001FFF8000001FFFE000000
310
7FFFFFF0001FFFFFFFFE00000000003FFFFFFE00000000003FFFFF0000000000
310
03FF00000000001FF000FC00000000000FFFFFE00003FFFF00001FFFFF80007F
310
F800000000001FFFC00000000000FFF8000001FFFE0000007FFFFFF0001FFFFF
310
FFFC00000000001FFFFFFC00000000001FFFFF000000000003FE00000000000F
310
F000F8000000000007FFFFE00003FFFF00001FFFFF80007FF800000000000FFF
310
800000000000FFF8000001FFFE0000007FFFFFF0001FFFFFFFF800000000000F
310
FFFFF800000000000FFFFF000000000003FC000000000007F000F80000000000
310
03FFFFC00003FFFE00001FFFFF80007FF0000000000007FF0000000000007FF8
310
000001FFFE0000007FFFFFF0001FFFFFFFF0000000000007FFFFF00000000000
310
07FFFF000000000003F8000000000003F000F0000000000003FFFFC00001FFFE
310
00001FFFFF80007FE0000000000007FE0000000000003FF8000001FFFE000000
310
7FFFFFF0001FFFFFFFF0000000000007FFFFF0000000000007FFFF0000000000
310
03F800001F800003F000E00001FFF00001FFFFC00001FFFE00000FFFFF80007F
310
E00001FFE00003FE00001FFF00003FF8000001FFFE0000007FFFFFF0001FFFFF
310
FFE000003E000003FFFFE000003E000003FFFF000000000003F00001FFF80001
310
F000E00007FFFC0001FFFFC00001FFFE00000FFFFF80007FC0000FFFFC0003FC
310
0000FFFFC0001FF8000001FFFE0000007FFFFFF0001FFFFFFFC00003FFE00001
310
FFFFC00003FFE00001FFFF0001FFFFFFFFF00007FFFE0001F000E0000FFFFF00
310
00FFFF800001FFFC00000FFFFF80007FC0001FFFFE0001FC0001FFFFE0001FF8
310
000001FFFE0000007FFFFFF0001FFFFFFF80000FFFF80000FFFF80000FFFF800
310
00FFFF0003FFFFFFFFE0000FFFFF8000F000C0003FFFFF8000FFFF800000FFFC
310
000007FFFF80007F80003FFFFF0001FC0003FFFFF0001FF8000001FFFE000000
310
7FFFFFF0001FFFFFFF80003FFFFE0000FFFF80003FFFFE0000FFFF0003FFFFFF
310
FFE0003FFFFF8000F000C0003FFFFF8000FFFF800000FFFC000007FFFF80007F
310
80007FFFFF8001F80007FFFFF8000FF8000001FFFE0000007FFFFFF0001FFFFF
310
FF00007FFFFF00007FFF00007FFFFF00007FFF0003FFFFFFFFE0003FFFFFC000
310
F000C0007FFFFFC000FFFF000000FFFC000007FFFF80007F8000FFFFFF8000F8
310
000FFFFFF8000FF8000001FFFE0000007FFFFFF0001FFFFFFF0000FFFFFF8000
310
7FFF0000FFFFFF80007FFF0003FFFFFFFFC0007FFFFFC00070008000FFFFFFC0
310
00FFFF000000FFF8000007FFFF80007F8000FFFFFF8000F8000FFFFFF8000FF8
310
000001FFFE0000007FFFFFF0001FFFFFFE0001FFFFFFC0003FFE0001FFFFFFC0
310
003FFF0003FFFFFFFFC0007FFFFFE00070008000FFFFFFC0007FFF0000007FF8
310
000003FFFF80007F0001FFFFFF8000F8000FFFFFF8000FF8000001FFFE000000
310
7FFFFFF0001FFFFFFE0001FFFFFFC0003FFE0001FFFFFFC0003FFF0003FFFFFF
310
FFC000FFFFFFE00070008000FFFFFFC0007FFF0000007FF8000003FFFF80007F
310
0001FFFFFF8000F8001FFFFFF8000FF8000001FFFE0000007FFFFFF0001FFFFF
310
FE0003FFFFFFE0003FFE0003FFFFFFE0003FFF0003FFFFFFFFC000FFFFFFE000
310
70008000FFFFFFC0007FFE0000007FF8000003FFFF80007F0001FFFFFF8000F0
310
001FFFFFF8000FF8000001FFFE0000007FFFFFF0001FFFFFFC0003FFFFFFE000
310
1FFC0003FFFFFFE0001FFF0003FFFFFFFFC000FFFFFFC00070008000FFFFFF80
310
007FFE0000007FF0000003FFFF80007F0001FFFFFF0000F0001FFFFFF8000FF8
310
000001FFFE0000007FFFFFF0001FFFFFFC0007FFFFFFF0001FFC0007FFFFFFF0
310
001FFF0003FFFFFFFFC000FFFFFFC00070008001FFFFFF0000FFFE0000003FF0
310
000001FFFF80007F0001FFFFFF0000F8001FFFFFF0000FF8000001FFFE000000
310
7FFFFFF0001FFFFFFC0007FFFFFFF0001FFC0007FFFFFFF0001FFF0003FFFFFF
310
FFC001FFFFFF80007000FFFFFFFFFE0000FFFE0008003FF0008001FFFF80007F
310
FFFFFFFFFC0000FFFFFFFFFFE0000FF8000001FFFE0000007FFFFFF0001FFFFF
310
F8000FFFFFFFF8000FF8000FFFFFFFF8000FFF0003FFFFFFFFFFFFFFFFFF0000
310
7000FFFFFFFFFC0000FFFC0008003FF0008001FFFF80007FFFFFFFFFF80001FF
310
FFFFFFFF80000FF8000001FFFE0000007FFFFFF0001FFFFFF8000FFFFFFFF800
310
0FF8000FFFFFFFF8000FFF0003FFFFFFFFFFFFFFFFFE0000F000FFFFFFFFE000
310
00FFFC000C003FE000C001FFFF80007FFFFFFFFFC00001FFFFFFFFFE00001FF8
310
000001FFFE0000007FFFFFF0001FFFFFF8000FFFFFFFF8000FF8000FFFFFFFF8
310
000FFF0003FFFFFFFFFFFFFFFFF00000F000FFFFFFFE000001FFFC000C001FE0
310
00C000FFFF80007FFFFFFFFE000001FFFFFFFFE000001FF80FFFFFFFFFFFFFC0
310
7FFFFFF0001FFFFFF8000FFFFFFFF8000FF8000FFFFFFFF8000FFF0003FFFFFF
310
FFFFFFFFFF800000F000FFFFFFC0000001FFFC001C001FE001C000FFFF80007F
310
FFFFFF80000003FFFFFFF80000001FF80FFFFFFFFFFFFFC07FFFFFF0001FFFFF
310
F8001FFFFFFFFC000FF8001FFFFFFFFC000FFF0003FFFFFFFFFFFFFFF0000001
310
F000FFFFF800000001FFF8001C001FE001C000FFFF80007FFFFFF800000003FF
310
FFFF800000003FF80FFFFFFFFFFFFFC07FFFFFF0001FFFFFF8001FFFFFFFFC00
310
0FF8001FFFFFFFFC000FFF0003FFFFFFFFFFFFFE00000001F000FFFFC0000000
310
03FFF8001E001FC001E000FFFF80007FFFFF8000000007FFFFFC000000003FF8
310
0FFFFFFFFFFFFFC07FFFFFF0001FFFFFF8001FFFFFFFFC000FF8001FFFFFFFFC
310
000FFF0003FFFFFFFFFFFFE000000003F000FFFE0000000007FFF8001E000FC0
310
01E0007FFF80007FFFFE0000000007FFFFE0000000007FF80FFFFFFFFFFFFFC0
310
7FFFFFF0001FFFFFF0001FFFFFFFFC0007F0001FFFFFFFFC0007FF0003FFFFFF
310
FFFFFF0000000003F000FFF80000000007FFF8001E000FC003E0007FFF80007F
310
FFF0000000000FFFFF8000000000FFF80FFFFFFFFFFFFFC07FFFFFF0001FFFFF
310
F0001FFFFFFFFC0007F0001FFFFFFFFC0007FF0003FFFFFFFFFFFC0000000007
310
F000FFE0000000000FFFF0003E000FC003E0007FFF80007FFFC0000000001FFF
310
FE0000000001FFF80FFFFFFFFFFFFFC07FFFFFF0001FFFFFF0001FFFFFFFFC00
310
07F0001FFFFFFFFC0007FF0003FFFFFFFFFFF0000000000FF000FFC000000000
310
1FFFF0003F000F8003F0003FFF80007FFF80000000003FFFF80000000003FFF8
310
0FFFFFFFFFFFFFC07FFFFFF0001FFFFFF0001FFFFFFFFC0007F0001FFFFFFFFC
310
0007FF0003FFFFFFFFFFE0000000001FF000FF00000000007FFFF0003F000780
310
03F0003FFF80007FFF00000000007FFFF00000000007FFF80FFFFFFFFFFFFFC0
310
7FFFFFF0001FFFFFF0001FFFFFFFFC0007F0001FFFFFFFFC0007FF0003FFFFFF
310
FFFF80000000007FF000FE0000000000FFFFE0003F00078007F0003FFF80007F
310
FE0000000001FFFFE0000000001FFFF80FFFFFFFFFFFFFC07FFFFFF0001FFFFF
310
F0001FFFFFFFFC0007F0001FFFFFFFFC0007FF0003FFFFFFFFFF0000000000FF
310
F000FC0000000003FFFFE0007F00078007F0003FFF80007FFC0000000007FFFF
310
C0000000007FFFF80FFFFFFFFFFFFFC07FFFFFF0001FFFFFF8001FFFFFFFFC00
310
0FF8001FFFFFFFFC000FFF0003FFFFFFFFFE0000000003FFF000FC000000000F
310
FFFFE0007F80070007F8001FFF80007FF8000000001FFFFF8000000001FFFFF8
310
0FFFFFFFFFFFFFC07FFFFFF0001FFFFFF8001FFFFFFFFC000FF8001FFFFFFFFC
310
000FFF0003FFFFFFFFFC000000000FFFF000F8000000007FFFFFE0007F800700
310
07F8001FFF80007FF000000000FFFFFF800000000FFFFFF80FFFFFFFFFFFFFC0
310
7FFFFFF0001FFFFFF8000FFFFFFFF8000FF8000FFFFFFFF8000FFF0003FFFFFF
310
FFFC000000007FFFF000F800000007FFFFFFC0007F8003000FF8001FFF80007F
310
F000000007FFFFFF000000007FFFFFF80FFFFFFFFFFFFFC07FFFFFF0001FFFFF
310
F8000FFFFFFFF8000FF8000FFFFFFFF8000FFF0003FFFFFFFFF80000000FFFFF
310
F000F0000000FFFFFFFFC000FF8003000FF8001FFF80007FE0000000FFFFFFFF
310
0000000FFFFFFFF8000001FFFE0000007FFFFFF0001FFFFFF8000FFFFFFFF800
310
0FF8000FFFFFFFF8000FFF0003FFFFFFFFF8000000FFFFFFF000F000000FFFFF
310
FFFFC000FFC002000FF8000FFF80007FE000001FFFFFFFFE000001FFFFFFFFF8
310
000001FFFE0000007FFFFFF0001FFFFFF8000FFFFFFFF8000FF8000FFFFFFFF8
310
000FFF0003FFFFFFFFF000001FFFFFFFF000E00000FFFFFFFFFFC000FFC00200
310
0FFC000FFF80007FE00001FFFFFFFFFE00001FFFFFFFFFF8000001FFFE000000
310
7FFFFFF0001FFFFFFC000FFFFFFFF8001FFC000FFFFFFFF8001FFF0003FFFFFF
310
FFF00001FFFFFFFFF000E00007FFFFFFFFFF8000FFC000001FFC000FFF80007F
310
C0000FFFFFFFFFFE0000FFFFFFFFFFF8000001FFFE0000007FFFFFF0001FFFFF
310
FC0007FFFFFFF0001FFC0007FFFFFFF0001FFF0003FFFFFFFFF00007FFFFFFFF
310
F000E0001FFFFFFFFFFF8000FFC000001FFC000FFF80007FC0003FFFFFFFFFFE
310
0001FFFFFFFFFFF8000001FFFE0000007FFFFFF0001FFFFFFC0007FFFFFFF000
310
1FFC0007FFFFFFF0001FFF0003FFFFFFFFF0001FFFFFFFFFF000E0003FFFFF00
310
03FF8001FFE000001FFC0007FF80007FC0007FFFFF0007FC0003FFFFF0003FF8
310
000001FFFE0000007FFFFFF0001FFFFFFC0003FFFFFFE0001FFC0003FFFFFFE0
310
001FFF0003FFFFFFFFF0003FFFFFFFFFF000E0003FFFFF0001FF8001FFE00000
310
1FFE0007FF80007FC0007FFFFE0003FC0007FFFFE0003FF8000001FFFE000000
310
7FFFFFF0001FFFFFFE0003FFFFFFE0003FFE0003FFFFFFE0003FFF0003FFFFFF
310
FFF0003FFFFF8001F000E0003FFFFF0001FF0001FFE000001FFE0007FF80007F
310
C0007FFFFE0003FC0007FFFFE0003FF8000001FFFE0000007FFFFFF0001FFFFF
310
FE0001FFFFFFC0003FFE0001FFFFFFC0003FFF0003FFFFFFFFF0003FFFFF0001
310
F000E0003FFFFF0003FF0001FFE000003FFE0007FF80007FC0007FFFFE0003FC
310
0007FFFFE0003FF8000001FFFE0000007FFFFFF0001FFFFFFF0001FFFFFFC000
310
7FFF0001FFFFFFC0007FFF0003FFFFFFFFF0003FFFFF0001F000E0003FFFFE00
310
03FF0003FFF000003FFE0003FF80007FC0007FFFFC0003FE0007FFFFE0003FF8
310
000001FFFE0000007FFFFFF0001FFFFFFF0000FFFFFF80007FFF0000FFFFFF80
310
007FFF0003FFFFFFFFF0003FFFFF0001F000E0003FFFFE0003FF0003FFF00000
310
3FFF0003FF80007FC0007FFFFC0007FE0007FFFFC0003FF8000001FFFE000000
310
7FFFFFF0001FFFFFFF80007FFFFF0000FFFF80007FFFFF0000FFFF0003FFFFFF
310
FFF0003FFFFF0003F000E0003FFFFC0003FE0003FFF000003FFF0003FF80007F
310
E0003FFFF80007FE0003FFFFC0007FF8000001FFFE0000007FFFFFF0001FFFFF
310
FF80003FFFFE0000FFFF80003FFFFE0000FFFF0003FFFFFFFFF0001FFFFE0003
310
F000F0001FFFF80003FE0003FFF000007FFF0001FF80007FE0003FFFF00007FE
310
0001FFFF80007FF8000001FFFE0000007FFFFFF0001FFFFFFFC0000FFFF80001
310
FFFFC0000FFFF80001FFFF0003FFFFFFFFF0001FFFFC0003F000F0000FFFF000
310
07FE0007FFF800007FFF0001FF80007FE0001FFFE00007FF0000FFFE00007FF8
310
000001FFFE0000007FFFFFF0001FFFFFFFC00003FFE00001FFFFC00003FFE000
310
01FFFF0003FFFFFFFFF8000FFFF80003F000F00003FFC00007FC0007FFF80000
310
7FFF8001FF80007FF00007FF80000FFF00007FF80000FFF8000001FFFE000000
310
7F80000000000001FFE000003E000003FFFFE000003E000003FFFF0003FFFFFF
310
FFF80003FFE00007F000F800000000000FFC0007FFF800007FFF8001FF80007F
310
F000000000000FFF000000000000FFF8000001FFFE0000007F80000000000001
310
FFF0000000000007FFFFF0000000000007FFFF0003FFFFFFFFFC00007E000007
310
F000F800000000000FFC0007FFF80000FFFF8000FF80007FF800000000001FFF
310
800000000001FFF8000001FFFE0000007F80000000000001FFF800000000000F
310
FFFFF800000000000FFFFF0003FFFFFFFFFC00000000000FF000FC0000000000
310
1FFC0007FFFC0000FFFF8000FF80007FF800000000003FFFC00000000001FFF8
310
000001FFFE0000007F80000000000001FFF800000000000FFFFFF80000000000
310
0FFFFF0003FFFFFFFFFE00000000001FF000FE00000000003FF8000FFFFC0000
310
FFFF8000FF80007FFC00000000003FFFC00000000003FFF8000001FFFE000000
310
7F80000000000001FFFC00000000001FFFFFFC00000000001FFFFF0003FFFFFF
310
FFFF00000000001FF000FF00000000003FF8000FFFFC0000FFFFC000FF80007F
310
FE00000000007FFFE00000000007FFF8000001FFFE0000007F80000000000001
310
FFFE00000000003FFFFFFE00000000003FFFFF0003FFFFFFFFFF80000000003F
310
F000FF80000000007FF8000FFFFC0001FFFFC0007F80007FFF0000000000FFFF
310
F0000000000FFFF800000000000000007F80000000000001FFFF8000000000FF
310
FFFFFF8000000000FFFFFF0003FFFFFFFFFFC0000000007FF000FFC000000000
310
FFF8000FFFFE0001FFFFC0007F80007FFF8000000001FFFFF8000000001FFFF8
310
00000000000000007F80000000000001FFFFC000000001FFFFFFFFC000000001
310
FFFFFF0003FFFFFFFFFFE000000000FFF000FFE000000003FFF0001FFFFE0001
310
FFFFC0007F80007FFFC000000007FFFFFE000000003FFFF80000000000000000
310
7F80000000000001FFFFE000000003FFFFFFFFE000000003FFFFFF0003FFFFFF
310
FFFFF000000003FFF000FFF80000000FFFF0001FFFFE0001FFFFE0007F80007F
310
FFF00000000FFFFFFF00000000FFFFF800000000000000007F80000000000001
310
FFFFF80000000FFFFFFFFFF80000000FFFFFFF0003FFFFFFFFFFFC0000000FFF
310
F000FFFE0000003FFFF0001FFFFE0003FFFFE0003F80007FFFFC0000003FFFFF
310
FFC0000003FFFFF800000000000000007F80000000000001FFFFFE0000003FFF
310
FFFFFFFE0000003FFFFFFF0003FFFFFFFFFFFF0000003FFFF000FFFF800000FF
310
FFF0001FFFFF0003FFFFE0003F80007FFFFF000001FFFFFFFFF800001FFFFFF8
310
00000000000000007F80000000000001FFFFFFC00001FFFFFFFFFFFFC00001FF
310
FFFFFF0003FFFFFFFFFFFFC00000FFFFF000FFFFF8000FFFFFFFFFFFFFFFFFFF
310
FFFFFFFFFFFFFFFFFFFFF0001FFFFFFFFFFF0000FFFFFFF80000000000000000
310
7FFFFFFFFFFFFFFFFFFFFFFC001FFFFFFFFFFFFFFC001FFFFFFFFFFFFFFFFFFF
310
FFFFFFFC001FFFFFF000FFFFFFFFFFFFFFFFFFFFFFFFFFFFFFFFFFFFFFFFFFFF
310
FFFFFFFFFFFFFFFFFFFFFFFFFFFFFFFFFFFFFFFFFFFFFFFFFFFFFFFFFFFFFFFF
310
FFFFFFFFFFFFFFFFFFFFFFFFFFFFFFFFFFFFFFFFFFFFFFFFFFFFFFFFFFFFFFFF
310
F000FFFFFFFFFFFFFFFFFFFFFFFFFFFFFFFFFFFFFFFFFFFFFFFFFFFFFFFFFFFF
310
FFFFFFFFFFFFFFFFFFFFFFFFFFFFFFFFFFFFFFFFFFFFFFFFFFFFFFFFFFFFFFFF
310
FFFFFFFFFFFFFFFFFFFFFFFFFFFFFFFFFFFFFFFFFFFFFFFFF000FFFFFFFFFFFF
310
FFFFFFFFFFFFFFFFFFFFFFFFFFFFFFFFFFFFFFFFFFFFFFFFFFFFFFFFFFFFFFFF
310
FFFFFFFFFFFFFFFFFFFFFFFFFFFFFFFFFFFFFFFFFFFFFFFFFFFFFFFFFFFFFFFF
310
FFFFFFFFFFFFFFFFFFFFFFFFFFFFFFFFF000FFFFFFFFFFFFFFFFFFFFFFFFFFFF
310
FFFFFFFFFFFFFFFFFFFFFFFFFFFFFFFFFFFFFFFFFFFFFFFFFFFFFFFFFFFFFFFF
310
FFFFFFFFFFFFFFFFFFFFFFFFFFFFFFFFFFFFFFFFFFFFFFFFFFFFFFFFFFFFFFFF
310
FFFFFFFFFFFFFFFFF000FFFFFFFFFFFFFFFFFFFFFFFFFFFFFFFFFFFFFFFFFFFF
310
FFFFFFFFFFFFFFFFFFFFFFFFFFFFFFFFFFFFFFFFFFFFFFFFFFFFFFFFFFFFFFFF
310
FFFFFFFFFFFFFFFFFFFFFFFFFFFFFFFFFFFFFFFFFFFFFFFFFFFFFFFFFFFFFFFF
310
F000FFFFFFFFFFFFFFFFFFFFFFFFFFFFFFFFFFFFFFFFFFFFFFFFFFFFFFFFFFFF
310
FFFFFFFFFFFFFFFFFFFFFFFFFFFFFFFFFFFFFFFFFFFFFFFFFFFFFFFFFFFFFFFF
310
FFFFFFFFFFFFFFFFFFFFFFFFFFFFFFFFFFFFFFFFFFFFFFFFF000FFFFFFFFFFFF
310
FFFFFFFFFFFFFFFFFFFFFFFFFFFFFFFFFFFFFFFFFFFFFFFFFFFFFFFFFFFFFFFF
310
FFFFFFFFFFFFFFFFFFFFFFFFFFFFFFFFFFFFFFFFFFFFFFFFFFFFFFFFFFFFFFFF
310
FFFFFFFFFFFFFFFFFFFFFFFFFFFFFFFFF000FFFFFFFFFFFFFFFFFFFFFFFFFFFF
310
FFFFFFFFFFFFFFFFFFFFFFFFFFFFFFFFFFFFFFFFFFFFFFFFFFFFFFFFFFFFFFFF
310
FFFFFFFFFFFFFFFFFFFFFFFFFFFFFFFFFFFFFFFFFFFFFFFFFFFFFFFFFFFFFFFF
310
FFFFFFFFFFFFFFFFF000FFFFFFFFFFFFFFFFFFFFFFFFFFFFFFFFFFFFFFFFFFFF
310
FFFFFFFFFFFFFFFFFFFFFFFFFFFFFFFFFFFFFFFFFFFFFFFFFFFFFFFFFFFFFFFF
310
FFFFFFFFFFFFFFFFFFFFFFFFFFFFFFFFFFFFFFFFFFFFFFFFFFFFFFFFFFFFFFFF
310
F000FFFFFFFFFFFFFFFFFFFFFFFFFFFFFFFFFFFFFFFFFFFFFFFFFFFFFFFFFFFF
310
FFFFFFFFFFFFFFFFFFFFFFFFFFFFFFFFFFFFFFFFFFFFFFFFFFFFFFFFFFFFFFFF
310
FFFFFFFFFFFFFFFFFFFFFFFFFFFFFFFFFFFFFFFFFFFFFFFFF000FFFFFFFFFFFF
310
FFFFFFFFFFFFFFFFFFFFFFFFFFFFFFFFFFFFFFFFFFFFFFFFFFFFFFFFFFFFFFFF
310
FFFFFFFFFFFFFFFFFFFFFFFFFFFFFFFFFFFFFFFFFFFFFFFFFFFFFFFFFFFFFFFF
310
FFFFFFFFFFFFFFFFFFFFFFFFFFFFFFFFF000FFFFFFFFFFFFFFFFFFFFFFFFFFFF
310
FFFFFFFFFFFFFFFFFFFFFFFFFFFFFFFFFFFFFFFFFFFFFFFFFFFFFFFFFFFFFFFF
310
FFFFFFFFFFFFFFFFFFFFFFFFFFFFFFFFFFFFFFFFFFFFFFFFFFFFFFFFFFFFFFFF
310
FFFFFFFFFFFFFFFFF000FFFFFFFFFFFFFFFFFFFFFFFFFFFFFFFFFFFFFFFFFFFF
310
FFFFFFFFFFFFFFFFFFFFFFFFFFFFFFFFFFFFFFFFFFFFFFFFFFFFFFFFFFFFFFFF
310
FFFFFFFFFFFFFFFFFFFFFFFFFFFFFFFFFFFFFFFFFFFFFFFFFFFFFFFFFFFFFFFF
310
F000FFFFFFFFFFFFFFFFFFFFFFFFFFFFFFFFFFFFFFFFFFFFFFFFFFFFFFFFFFFF
310
FFFFFFFFFFFFFFFFFFFFFFFFFFFFFFFFFFFFFFFFFFFFFFFFFFFFFFFFFFFFFFFF
310
FFFFFFFFFFFFFFFFFFFFFFFFFFFFFFFFFFFFFFFFFFFFFFFFF000FFFFFFFFFFFF
310
FFFFFFFFFFFFFFFFFFFFFFFFFFFFFFFFFFFFFFFFFFFFFFFFFFFFFFFFFFFFFFFF
310
FFFFFFFFFFFFFFFFFFFFFFFFFFFFFFFFFFFFFFFFFFFFFFFFFFFFFFFFFFFFFFFF
310
FFFFFFFFFFFFFFFFFFFFFFFFFFFFFFFFF000FFFFFFFFFFFFFFFFFFFFFFFFFFFF
310
FFFFFFFFFFFFFFFFFFFFFFFFFFFFFFFFFFFFFFFFFFFFFFFFFFFFFFFFFFFFFFFF
310
FFFFFFFFFFFFFFFFFFFFFFFFFFFFFFFFFFFFFFFFFFFFFFFFFFFFFFFFFFFFFFFF
310
FFFFFFFFFFFFFFFFF000FFFFFFFFFFFFFFFFFFFFFFFFFFFFFFFFFFFFFFFFFFFF
310
FFFFFFFFFFFFFFFFFFFFFFFFFFFFFFFFFFFFFFFFFFFFFFFFFFFFFFFFFFFFFFFF
310
FFFFFFFFFFFFFFFFFFFFFFFFFFFFFFFFFFFFFFFFFFFFFFFFFFFFFFFFFFFFFFFF
310
F000FFFFFFFFFFFFFFFFFFFFFFFFFFFFFFFFFFFFFFFFFFFFFFFFFFFFFFFFFFFF
310
FFFFFFFFFFFFFFFFFFFFFFFFFFFFFFFFFFFFFFFFFFFFFFFFFFFFFFFFFFFFFFFF
310
FFFFFFFFFFFFFFFFFFFFFFFFFFFFFFFFFFFFFFFFFFFFFFFFF000FFFFFFFFFFFF
310
FFFFFFFFFFFFFFFFFFFFFFFFFFFFFFFFFFFFFFFFFFFFFFFFFFFFFFFFFFFFFFFF
310
FFFFFFFFFFFFFFFFFFFFFFFFFFFFFFFFFFFFFFFFFFFFFFFFFFFFFFFFFFFFFFFF
310
FFFFFFFFFFFFFFFFFFFFFFFFFFFFFFFFF000FFFFFFFFFFFFFFFFFFFFFFFFFFFF
310
FFFFFFFFFFFFFFFFFFFFFFFFFFFFFFFFFFFFFFFFFFFFFFFFFFFFFFFFFFFFFFFF
310
FFFFFFFFFFFFFFFFFFFFFFFFFFFFFFFFFFFFFFFFFFFFFFFFFFFFFFFFFFFFFFFF
310
FFFFFFFFFFFFFFFFF000FFFFFFFFFFFFFFFFFFFFFFFFFFFFFFFFFFFFFFFFFFFF
310
FFFFFFFFFFFFFFFFFFFFFFFFFFFFFFFFFFFFFFFFFFFFFFFFFFFFFFFFFFFFFFFF
310
FFFFFFFFFFFFFFFFFFFFFFFFFFFFFFFFFFFFFFFFFFFFFFFFFFFFFFFFFFFFFFFF
310
F000FFFFFFFFFFFFFFFFFFFFFFFFFFFFFFFFFFFFFFFFFFFFFFFFFFFFFFFFFFFF
310
FFFFFFFFFFFFFFFFFFFFFFFFFFFFFFFFFFFFFFFFFFFFFFFFFFFFFFFFFFFFFFFF
310
FFFFFFFFFFFFFFFFFFFFFFFFFFFFFFFFFFFFFFFFFFFFFFFFF000FFFFFFFFFFFF
310
FFFFFFFFFFFFFFFFFFFFFFFFFFFFFFFFFFFFFFFFFFFFFFFFFFFFFFFFFFFFFFFF
310
FFFFFFFFFFFFFFFFFFFFFFFFFFFFFFFFFFFFFFFFFFFFFFFFFFFFFFFFFFFFFFFF
310
FFFFFFFFFFFFFFFFFFFFFFFFFFFFFFFFF0000000000000000000000000000000
310
0000000001000000010000000100000001000000010000000100000001000000
310
0100000001000000010000000100000001000000010000000100000001000000
310
0100000001000000010000000100000001000000010000000100000001000000
310
0100000001000000000000000100000001000000010000000100000001000000
310
0100000001000000010000000100000001000000010000000100000001000000
310
0100000001000000010000000100000001000000010000000100000001000000
310
0100000001000000010000000100000001000000010000000100000001000000
310
0100000001000000010000000100000001000000010000000100000000000000
310
0100000000000000010000000100000001000000010000000100000001000000
310
0100000001000000010000000100000001000000000000000100000000000000
310
0100000001000000010000000100000001000000010000000100000001000000
310
0100000001000000010000000100000001000000010000000100000001000000
310
0100000001000000010000000100000001000000000000000100000000000000
310
0100000001000000010000000100000001000000010000000100000001000000
310
0100000001000000010000000000000001000000000000000100000001000000
  1
OLE
  0
ENDSEC
  0
SECTION
  2
OBJECTS
  0
DICTIONARY
  5
C
330
0
100
AcDbDictionary
281
     1
  3
ACAD_GROUP
350
D
  3
ACAD_LAYOUT
350
1A
  3
ACAD_MLEADERSTYLE
350
206
  3
ACAD_MLINESTYLE
350
17
  3
ACAD_PLOTSETTINGS
350
19
  3
ACAD_PLOTSTYLENAME
350
E
  3
ACAD_TABLESTYLE
350
205
  3
ACAD_VISUALSTYLE
350
2A
  3
AcDbVariableDictionary
350
207
  0
DICTIONARY
  5
D
102
{ACAD_REACTORS
330
C
102
}
330
C
100
AcDbDictionary
281
     1
  0
DICTIONARY
  5
1A
102
{ACAD_REACTORS
330
C
102
}
330
C
100
AcDbDictionary
281
     1
  3
Layout1
350
1E
  3
Layout2
350
26
  3
Model
350
22
  0
DICTIONARY
  5
206
102
{ACAD_REACTORS
330
C
102
}
330
C
100
AcDbDictionary
281
     1
  0
DICTIONARY
  5
17
102
{ACAD_REACTORS
330
C
102
}
330
C
100
AcDbDictionary
281
     1
  3
Standard
350
18
  0
DICTIONARY
  5
19
102
{ACAD_REACTORS
330
C
102
}
330
C
100
AcDbDictionary
281
     1
  0
ACDBDICTIONARYWDFLT
  5
E
102
{ACAD_REACTORS
330
C
102
}
330
C
100
AcDbDictionary
281
     1
  3
Normal
350
F
100
AcDbDictionaryWithDefault
340
F
  0
DICTIONARY
  5
205
102
{ACAD_REACTORS
330
C
102
}
330
C
100
AcDbDictionary
281
     1
  0
DICTIONARY
  5
2A
102
{ACAD_REACTORS
330
C
102
}
330
C
100
AcDbDictionary
281
     1
  3
2dWireframe
350
2F
  3
3D Hidden
350
31
  3
3dWireframe
350
30
  3
Basic
350
32
  3
Brighten
350
36
  3
ColorChange
350
3A
  3
Conceptual
350
34
  3
Dim
350
35
  3
Facepattern
350
39
  3
Flat
350
2B
  3
FlatWithEdges
350
2C
  3
Gouraud
350
2D
  3
GouraudWithEdges
350
2E
  3
Linepattern
350
38
  3
Realistic
350
33
  3
Thicken
350
37
  0
DICTIONARY
  5
207
102
{ACAD_REACTORS
330
C
102
}
330
C
100
AcDbDictionary
281
     1
  3
PSOLHEIGHT
350
209
  3
PSOLWIDTH
350
208
  0
LAYOUT
  5
1E
102
{ACAD_REACTORS
330
1A
102
}
330
1A
100
AcDbPlotSettings
  1

  2
none_device
  4

  6

 40
0.0
 41
0.0
 42
0.0
 43
0.0
 44
0.0
 45
0.0
 46
0.0
 47
0.0
 48
0.0
 49
0.0
140
0.0
141
0.0
142
1.0
143
1.0
 70
   688
 72
     0
 73
     0
 74
     5
  7

 75
    16
147
1.0
148
0.0
149
0.0
100
AcDbLayout
  1
Layout1
 70
     1
 71
     1
 10
0.0
 20
0.0
 11
420.0
 21
297.0
 12
0.0
 22
0.0
 32
0.0
 14
1.0000000000E+20
 24
1.0000000000E+20
 34
1.0000000000E+20
 15
-1.0000000000E+20
 25
-1.0000000000E+20
 35
-1.0000000000E+20
146
0.0
 13
0.0
 23
0.0
 33
0.0
 16
1.0
 26
0.0
 36
0.0
 17
0.0
 27
1.0
 37
0.0
 76
     0
330
1B
  0
LAYOUT
  5
26
102
{ACAD_REACTORS
330
1A
102
}
330
1A
100
AcDbPlotSettings
  1

  2
none_device
  4

  6

 40
0.0
 41
0.0
 42
0.0
 43
0.0
 44
0.0
 45
0.0
 46
0.0
 47
0.0
 48
0.0
 49
0.0
140
0.0
141
0.0
142
1.0
143
1.0
 70
   688
 72
     0
 73
     0
 74
     5
  7

 75
    16
147
1.0
148
0.0
149
0.0
100
AcDbLayout
  1
Layout2
 70
     1
 71
     2
 10
0.0
 20
0.0
 11
0.0
 21
0.0
 12
0.0
 22
0.0
 32
0.0
 14
0.0
 24
0.0
 34
0.0
 15
0.0
 25
0.0
 35
0.0
146
0.0
 13
0.0
 23
0.0
 33
0.0
 16
1.0
 26
0.0
 36
0.0
 17
0.0
 27
1.0
 37
0.0
 76
     0
330
23
  0
LAYOUT
  5
22
102
{ACAD_REACTORS
330
1A
102
}
330
1A
100
AcDbPlotSettings
  1

  2
none_device
  4

  6

 40
0.0
 41
0.0
 42
0.0
 43
0.0
 44
0.0
 45
0.0
 46
0.0
 47
0.0
 48
0.0
 49
0.0
140
0.0
141
0.0
142
1.0
143
1.0
 70
  1712
 72
     0
 73
     0
 74
     0
  7

 75
     0
147
1.0
148
0.0
149
0.0
100
AcDbLayout
  1
Model
 70
     1
 71
     0
 10
0.0
 20
0.0
 11
297.0
 21
210.0
 12
0.0
 22
0.0
 32
0.0
 14
0.0
 24
0.0
 34
0.0
 15
297.0
 25
210.0
 35
0.0
146
0.0
 13
0.0
 23
0.0
 33
0.0
 16
1.0
 26
0.0
 36
0.0
 17
0.0
 27
1.0
 37
0.0
 76
     0
330
1F
331
29
  0
MLINESTYLE
  5
18
102
{ACAD_REACTORS
330
17
102
}
330
17
100
AcDbMlineStyle
  2
Standard
 70
     0
  3

 62
   256
 51
90.0
 52
90.0
 71
     2
 49
0.5
 62
   256
  6
BYLAYER
 49
-0.5
 62
   256
  6
BYLAYER
  0
ACDBPLACEHOLDER
  5
F
102
{ACAD_REACTORS
330
E
102
}
330
E
  0
VISUALSTYLE
  5
2F
102
{ACAD_REACTORS
330
2A
102
}
330
2A
100
AcDbVisualStyle
  2
2dWireframe
 70
     4
 71
     0
 72
     2
 73
     0
 90
        0
 40
-0.6
 41
-30.0
 62
     5
 63
     7
 74
     1
 91
        4
 64
     7
 65
   257
 75
     1
175
     1
 42
1.0
 92
        0
 66
   257
 43
1.0
 76
     1
 77
     6
 78
     2
 67
     7
 79
     5
170
     0
171
     0
290
     0
174
     0
 93
        1
 44
0.0
173
     0
291
     0
 45
0.0
1001
ACAD
1000
AcDbSavedByObjectVersion
1070
     0
  0
VISUALSTYLE
  5
31
102
{ACAD_REACTORS
330
2A
102
}
330
2A
100
AcDbVisualStyle
  2
3D Hidden
 70
     6
 71
     1
 72
     2
 73
     2
 90
        0
 40
-0.6
 41
-30.0
 62
     5
 63
     7
 74
     2
 91
        2
 64
     7
 65
   257
 75
     2
175
     1
 42
40.0
 92
        0
 66
   257
 43
1.0
 76
     1
 77
     6
 78
     2
 67
     7
 79
     3
170
     0
171
     0
290
     0
174
     0
 93
        1
 44
0.0
173
     0
291
     0
 45
0.0
1001
ACAD
1000
AcDbSavedByObjectVersion
1070
     0
  0
VISUALSTYLE
  5
30
102
{ACAD_REACTORS
330
2A
102
}
330
2A
100
AcDbVisualStyle
  2
3dWireframe
 70
     5
 71
     0
 72
     2
 73
     0
 90
        0
 40
-0.6
 41
-30.0
 62
     5
 63
     7
 74
     1
 91
        4
 64
     7
 65
   257
 75
     1
175
     1
 42
1.0
 92
        0
 66
   257
 43
1.0
 76
     1
 77
     6
 78
     2
 67
     7
 79
     5
170
     0
171
     0
290
     0
174
     0
 93
        1
 44
0.0
173
     0
291
     0
 45
0.0
1001
ACAD
1000
AcDbSavedByObjectVersion
1070
     0
  0
VISUALSTYLE
  5
32
102
{ACAD_REACTORS
330
2A
102
}
330
2A
100
AcDbVisualStyle
  2
Basic
 70
     7
 71
     1
 72
     0
 73
     1
 90
        0
 40
-0.6
 41
-30.0
 62
     5
 63
     7
 74
     0
 91
        4
 64
     7
 65
   257
 75
     1
175
     1
 42
1.0
 92
        8
 66
     7
 43
1.0
 76
     1
 77
     6
 78
     2
 67
     7
 79
     5
170
     0
171
     0
290
     0
174
     0
 93
        1
 44
0.0
173
     0
291
     1
 45
0.0
1001
ACAD
1000
AcDbSavedByObjectVersion
1070
     0
  0
VISUALSTYLE
  5
36
102
{ACAD_REACTORS
330
2A
102
}
330
2A
100
AcDbVisualStyle
  2
Brighten
 70
    12
 71
     2
 72
     2
 73
     0
 90
        0
 40
-0.6
 41
-30.0
 62
     5
 63
     7
 74
     1
 91
        4
 64
     7
 65
   257
 75
     1
175
     1
 42
1.0
 92
        8
 66
     7
 43
1.0
 76
     1
 77
     6
 78
     2
 67
     7
 79
     5
170
     0
171
     0
290
     0
174
     0
 93
        1
 44
50.0
173
     0
291
     1
 45
0.0
1001
ACAD
1000
AcDbSavedByObjectVersion
1070
     0
  0
VISUALSTYLE
  5
3A
102
{ACAD_REACTORS
330
2A
102
}
330
2A
100
AcDbVisualStyle
  2
ColorChange
 70
    16
 71
     2
 72
     2
 73
     3
 90
        0
 40
-0.6
 41
-30.0
 62
     5
 63
     8
 74
     1
 91
        4
 64
     7
 65
   257
 75
     1
175
     1
 42
1.0
 92
        8
 66
     8
 43
1.0
 76
     1
 77
     6
 78
     2
 67
     7
 79
     5
170
     0
171
     0
290
     0
174
     0
 93
        1
 44
0.0
173
     0
291
     1
 45
0.0
1001
ACAD
1000
AcDbSavedByObjectVersion
1070
     0
  0
VISUALSTYLE
  5
34
102
{ACAD_REACTORS
330
2A
102
}
330
2A
100
AcDbVisualStyle
  2
Conceptual
 70
     9
 71
     3
 72
     2
 73
     0
 90
        0
 40
-0.6
 41
-30.0
 62
     5
 63
     7
 74
     2
 91
        2
 64
     7
 65
   257
 75
     1
175
     1
 42
40.0
 92
        8
 66
     7
 43
1.0
 76
     1
 77
     6
 78
     2
 67
     7
 79
     3
170
     0
171
     0
290
     0
174
     0
 93
        1
 44
0.0
173
     0
291
     0
 45
0.0
1001
ACAD
1000
AcDbSavedByObjectVersion
1070
     0
  0
VISUALSTYLE
  5
35
102
{ACAD_REACTORS
330
2A
102
}
330
2A
100
AcDbVisualStyle
  2
Dim
 70
    11
 71
     2
 72
     2
 73
     0
 90
        0
 40
-0.6
 41
-30.0
 62
     5
 63
     7
 74
     1
 91
        4
 64
     7
 65
   257
 75
     1
175
     1
 42
1.0
 92
        8
 66
     7
 43
1.0
 76
     1
 77
     6
 78
     2
 67
     7
 79
     5
170
     0
171
     0
290
     0
174
     0
 93
        1
 44
-50.0
173
     0
291
     1
 45
0.0
1001
ACAD
1000
AcDbSavedByObjectVersion
1070
     0
  0
VISUALSTYLE
  5
39
102
{ACAD_REACTORS
330
2A
102
}
330
2A
100
AcDbVisualStyle
  2
Facepattern
 70
    15
 71
     2
 72
     2
 73
     0
 90
        0
 40
-0.6
 41
-30.0
 62
     5
 63
     7
 74
     1
 91
        4
 64
     7
 65
   257
 75
     1
175
     1
 42
1.0
 92
        8
 66
     7
 43
1.0
 76
     1
 77
     6
 78
     2
 67
     7
 79
     5
170
     0
171
     0
290
     0
174
     0
 93
        1
 44
0.0
173
     0
291
     1
 45
0.0
1001
ACAD
1000
AcDbSavedByObjectVersion
1070
     0
  0
VISUALSTYLE
  5
2B
102
{ACAD_REACTORS
330
2A
102
}
330
2A
100
AcDbVisualStyle
  2
Flat
 70
     0
 71
     2
 72
     1
 73
     1
 90
        2
 40
-0.6
 41
30.0
 62
     5
 63
     7
 74
     0
 91
        4
 64
     7
 65
   257
 75
     1
175
     1
 42
1.0
 92
        8
 66
     7
 43
1.0
 76
     1
 77
     6
 78
     2
 67
     7
 79
     5
170
     0
171
     0
290
     0
174
     0
 93
       13
 44
0.0
173
     0
291
     1
 45
0.0
1001
ACAD
1000
AcDbSavedByObjectVersion
1070
     0
  0
VISUALSTYLE
  5
2C
102
{ACAD_REACTORS
330
2A
102
}
330
2A
100
AcDbVisualStyle
  2
FlatWithEdges
 70
     1
 71
     2
 72
     1
 73
     1
 90
        2
 40
-0.6
 41
30.0
 62
     5
 63
     7
 74
     1
 91
        4
 64
     7
 65
   257
 75
     1
175
     1
 42
1.0
 92
        0
 66
   257
 43
1.0
 76
     1
 77
     6
 78
     2
 67
     7
 79
     5
170
     0
171
     0
290
     0
174
     0
 93
       13
 44
0.0
173
     0
291
     1
 45
0.0
1001
ACAD
1000
AcDbSavedByObjectVersion
1070
     0
  0
VISUALSTYLE
  5
2D
102
{ACAD_REACTORS
330
2A
102
}
330
2A
100
AcDbVisualStyle
  2
Gouraud
 70
     2
 71
     2
 72
     2
 73
     1
 90
        2
 40
-0.6
 41
30.0
 62
     5
 63
     7
 74
     0
 91
        4
 64
     7
 65
   257
 75
     1
175
     1
 42
1.0
 92
        0
 66
     7
 43
1.0
 76
     1
 77
     6
 78
     2
 67
     7
 79
     5
170
     0
171
     0
290
     0
174
     0
 93
       13
 44
0.0
173
     0
291
     1
 45
0.0
1001
ACAD
1000
AcDbSavedByObjectVersion
1070
     0
  0
VISUALSTYLE
  5
2E
102
{ACAD_REACTORS
330
2A
102
}
330
2A
100
AcDbVisualStyle
  2
GouraudWithEdges
 70
     3
 71
     2
 72
     2
 73
     1
 90
        2
 40
-0.6
 41
30.0
 62
     5
 63
     7
 74
     1
 91
        4
 64
     7
 65
   257
 75
     1
175
     1
 42
1.0
 92
        0
 66
   257
 43
1.0
 76
     1
 77
     6
 78
     2
 67
     7
 79
     5
170
     0
171
     0
290
     0
174
     0
 93
       13
 44
0.0
173
     0
291
     1
 45
0.0
1001
ACAD
1000
AcDbSavedByObjectVersion
1070
     0
  0
VISUALSTYLE
  5
38
102
{ACAD_REACTORS
330
2A
102
}
330
2A
100
AcDbVisualStyle
  2
Linepattern
 70
    14
 71
     2
 72
     2
 73
     0
 90
        0
 40
-0.6
 41
-30.0
 62
     5
 63
     7
 74
     1
 91
        4
 64
     7
 65
   257
 75
     7
175
     7
 42
1.0
 92
        8
 66
     7
 43
1.0
 76
     1
 77
     6
 78
     2
 67
     7
 79
     5
170
     0
171
     0
290
     0
174
     0
 93
        1
 44
0.0
173
     0
291
     1
 45
0.0
1001
ACAD
1000
AcDbSavedByObjectVersion
1070
     0
  0
VISUALSTYLE
  5
33
102
{ACAD_REACTORS
330
2A
102
}
330
2A
100
AcDbVisualStyle
  2
Realistic
 70
     8
 71
     2
 72
     2
 73
     0
 90
        0
 40
-0.6
 41
-30.0
 62
     5
 63
     7
 74
     1
 91
        0
 64
     7
 65
   257
 75
     1
175
     1
 42
1.0
 92
        8
 66
     8
 43
1.0
 76
     1
 77
     6
 78
     2
 67
     7
 79
     5
170
     0
171
     0
290
     0
174
     0
 93
       13
 44
0.0
173
     0
291
     0
 45
0.0
1001
ACAD
1000
AcDbSavedByObjectVersion
1070
     0
  0
VISUALSTYLE
  5
37
102
{ACAD_REACTORS
330
2A
102
}
330
2A
100
AcDbVisualStyle
  2
Thicken
 70
    13
 71
     2
 72
     2
 73
     0
 90
        0
 40
-0.6
 41
-30.0
 62
     5
 63
     7
 74
     1
 91
        4
 64
     7
 65
   257
 75
     1
175
     1
 42
1.0
 92
       12
 66
     7
 43
1.0
 76
     1
 77
     6
 78
     2
 67
     7
 79
     5
170
     0
171
     0
290
     0
174
     0
 93
        1
 44
0.0
173
     0
291
     1
 45
0.0
1001
ACAD
1000
AcDbSavedByObjectVersion
1070
     0
  0
DICTIONARYVAR
  5
209
102
{ACAD_REACTORS
330
207
102
}
330
207
100
DictionaryVariables
280
     0
  1
80.000000
  0
DICTIONARYVAR
  5
208
102
{ACAD_REACTORS
330
207
102
}
330
207
100
DictionaryVariables
280
     0
  1
5.000000
  0
ENDSEC
  0
EOF
