  0
SECTION
  2
HEADER
  9
$ACADVER
  1
AC1015
  9
$ACADMAINTVER
 70
     6
  9
$DWGCODEPAGE
  3
ANSI_1252
  9
$INSBASE
 10
0.0
 20
0.0
 30
0.0
  9
$EXTMIN
 10
0.0
 20
0.0
 30
0.0
  9
$EXTMAX
 10
297.0
 20
210.0
 30
0.0
  9
$LIMMIN
 10
0.0
 20
0.0
  9
$LIMMAX
 10
297.0
 20
210.0
  9
$ORTHOMODE
 70
     0
  9
$REGENMODE
 70
     1
  9
$FILLMODE
 70
     1
  9
$QTEXTMODE
 70
     0
  9
$MIRRTEXT
 70
     1
  9
$LTSCALE
 40
1.0
  9
$ATTMODE
 70
     1
  9
$TEXTSIZE
 40
2.0
  9
$TRACEWID
 40
1.0
  9
$TEXTSTYLE
  7
Standard
  9
$CLAYER
  8
0
  9
$CELTYPE
  6
ByLayer
  9
$CECOLOR
 62
   256
  9
$CELTSCALE
 40
1.0
  9
$DISPSILH
 70
     0
  9
$DIMSCALE
 40
1.0
  9
$DIMASZ
 40
3.0
  9
$DIMEXO
 40
0.0
  9
$DIMDLI
 40
3.75
  9
$DIMRND
 40
0.0
  9
$DIMDLE
 40
0.0
  9
$DIMEXE
 40
1.0
  9
$DIMTP
 40
0.0
  9
$DIMTM
 40
0.0
  9
$DIMTXT
 40
2.0
  9
$DIMCEN
 40
2.5
  9
$DIMTSZ
 40
0.0
  9
$DIMTOL
 70
     0
  9
$DIMLIM
 70
     0
  9
$DIMTIH
 70
     1
  9
$DIMTOH
 70
     1
  9
$DIMSE1
 70
     0
  9
$DIMSE2
 70
     0
  9
$DIMTAD
 70
     1
  9
$DIMZIN
 70
     0
  9
$DIMBLK
  1

  9
$DIMASO
 70
     1
  9
$DIMSHO
 70
     1
  9
$DIMPOST
  1

  9
$DIMAPOST
  1

  9
$DIMALT
 70
     0
  9
$DIMALTD
 70
     3
  9
$DIMALTF
 40
0.0393700787
  9
$DIMLFAC
 40
1.0
  9
$DIMTOFL
 70
     1
  9
$DIMTVP
 40
0.0
  9
$DIMTIX
 70
     0
  9
$DIMSOXD
 70
     0
  9
$DIMSAH
 70
     0
  9
$DIMBLK1
  1

  9
$DIMBLK2
  1

  9
$DIMSTYLE
  2
ISO-25
  9
$DIMCLRD
 70
     0
  9
$DIMCLRE
 70
     0
  9
$DIMCLRT
 70
     0
  9
$DIMTFAC
 40
1.0
  9
$DIMGAP
 40
1.524
  9
$DIMJUST
 70
     0
  9
$DIMSD1
 70
     0
  9
$DIMSD2
 70
     0
  9
$DIMTOLJ
 70
     0
  9
$DIMTZIN
 70
     0
  9
$DIMALTZ
 70
     0
  9
$DIMALTTZ
 70
     0
  9
$DIMUPT
 70
     0
  9
$DIMDEC
 70
     2
  9
$DIMTDEC
 70
     3
  9
$DIMALTU
 70
     2
  9
$DIMALTTD
 70
     3
  9
$DIMTXSTY
  7
Standard
  9
$DIMAUNIT
 70
     0
  9
$DIMADEC
 70
     2
  9
$DIMALTRND
 40
0.0
  9
$DIMAZIN
 70
     0
  9
$DIMDSEP
 70
    44
  9
$DIMATFIT
 70
     3
  9
$DIMFRAC
 70
     0
  9
$DIMLDRBLK
  1

  9
$DIMLUNIT
 70
     2
  9
$DIMLWD
 70
    -2
  9
$DIMLWE
 70
    -2
  9
$DIMTMOVE
 70
     0
  9
$LUNITS
 70
     2
  9
$LUPREC
 70
     2
  9
$SKETCHINC
 40
1.0
  9
$FILLETRAD
 40
10.0
  9
$AUNITS
 70
     0
  9
$AUPREC
 70
     2
  9
$MENU
  1
.
  9
$ELEVATION
 40
0.0
  9
$PELEVATION
 40
0.0
  9
$THICKNESS
 40
0.0
  9
$LIMCHECK
 70
     0
  9
$CHAMFERA
 40
10.0
  9
$CHAMFERB
 40
10.0
  9
$CHAMFERC
 40
20.0
  9
$CHAMFERD
 40
0.0
  9
$SKPOLY
 70
     0
  9
$TDCREATE
 40
2455672.373788588
  9
$TDUCREATE
 40
2455672.290455255
  9
$TDUPDATE
 40
2455672.373788599
  9
$TDUUPDATE
 40
2455672.290455266
  9
$TDINDWG
 40
0.0000000116
  9
$TDUSRTIMER
 40
0.0000000116
  9
$USRTIMER
 70
     1
  9
$ANGBASE
 50
0.0
  9
$ANGDIR
 70
     0
  9
$PDMODE
 70
     0
  9
$PDSIZE
 40
-1.0
  9
$PLINEWID
 40
0.0
  9
$SPLFRAME
 70
     0
  9
$SPLINETYPE
 70
     6
  9
$SPLINESEGS
 70
     8
  9
$HANDSEED
  5
189
  9
$SURFTAB1
 70
     6
  9
$SURFTAB2
 70
     6
  9
$SURFTYPE
 70
     6
  9
$SURFU
 70
     6
  9
$SURFV
 70
     6
  9
$UCSBASE
  2

  9
$UCSNAME
  2

  9
$UCSORG
 10
0.0
 20
0.0
 30
0.0
  9
$UCSXDIR
 10
1.0
 20
0.0
 30
0.0
  9
$UCSYDIR
 10
0.0
 20
1.0
 30
0.0
  9
$UCSORTHOREF
  2

  9
$UCSORTHOVIEW
 70
     0
  9
$UCSORGTOP
 10
0.0
 20
0.0
 30
0.0
  9
$UCSORGBOTTOM
 10
0.0
 20
0.0
 30
0.0
  9
$UCSORGLEFT
 10
0.0
 20
0.0
 30
0.0
  9
$UCSORGRIGHT
 10
0.0
 20
0.0
 30
0.0
  9
$UCSORGFRONT
 10
0.0
 20
0.0
 30
0.0
  9
$UCSORGBACK
 10
0.0
 20
0.0
 30
0.0
  9
$PUCSBASE
  2

  9
$PUCSNAME
  2

  9
$PUCSORG
 10
0.0
 20
0.0
 30
0.0
  9
$PUCSXDIR
 10
1.0
 20
0.0
 30
0.0
  9
$PUCSYDIR
 10
0.0
 20
1.0
 30
0.0
  9
$PUCSORTHOREF
  2

  9
$PUCSORTHOVIEW
 70
     0
  9
$PUCSORGTOP
 10
0.0
 20
0.0
 30
0.0
  9
$PUCSORGBOTTOM
 10
0.0
 20
0.0
 30
0.0
  9
$PUCSORGLEFT
 10
0.0
 20
0.0
 30
0.0
  9
$PUCSORGRIGHT
 10
0.0
 20
0.0
 30
0.0
  9
$PUCSORGFRONT
 10
0.0
 20
0.0
 30
0.0
  9
$PUCSORGBACK
 10
0.0
 20
0.0
 30
0.0
  9
$USERI1
 70
     0
  9
$USERI2
 70
     0
  9
$USERI3
 70
     0
  9
$USERI4
 70
     0
  9
$USERI5
 70
     0
  9
$USERR1
 40
0.0
  9
$USERR2
 40
0.0
  9
$USERR3
 40
0.0
  9
$USERR4
 40
0.0
  9
$USERR5
 40
0.0
  9
$WORLDVIEW
 70
     1
  9
$SHADEDGE
 70
     3
  9
$SHADEDIF
 70
    70
  9
$TILEMODE
 70
     1
  9
$MAXACTVP
 70
    64
  9
$PINSBASE
 10
0.0
 20
0.0
 30
0.0
  9
$PLIMCHECK
 70
     0
  9
$PEXTMIN
 10
1.0000000000E+20
 20
1.0000000000E+20
 30
1.0000000000E+20
  9
$PEXTMAX
 10
-1.0000000000E+20
 20
-1.0000000000E+20
 30
-1.0000000000E+20
  9
$PLIMMIN
 10
0.0
 20
0.0
  9
$PLIMMAX
 10
420.0
 20
297.0
  9
$UNITMODE
 70
     0
  9
$VISRETAIN
 70
     1
  9
$PLINEGEN
 70
     0
  9
$PSLTSCALE
 70
     1
  9
$TREEDEPTH
 70
  3020
  9
$CMLSTYLE
  2
Standard
  9
$CMLJUST
 70
     0
  9
$CMLSCALE
 40
20.0
  9
$PROXYGRAPHICS
 70
     1
  9
$MEASUREMENT
 70
     1
  9
$CELWEIGHT
370
    -1
  9
$ENDCAPS
280
     0
  9
$JOINSTYLE
280
     0
  9
$LWDISPLAY
290
     1
  9
$INSUNITS
 70
     4
  9
$HYPERLINKBASE
  1

  9
$STYLESHEET
  1

  9
$XEDIT
290
     1
  9
$CEPSNTYPE
380
     0
  9
$PSTYLEMODE
290
     1
  9
$FINGERPRINTGUID
  2
{91F9CD59-4154-454A-B8E7-BB5E26053F58}
  9
$VERSIONGUID
  2
{FAEB1C32-E019-11D5-929B-00C0DF256EC4}
  9
$EXTNAMES
290
     1
  9
$PSVPSCALE
 40
0.0
  9
$OLESTARTUP
290
     0
  0
ENDSEC
  0
SECTION
  2
CLASSES
  0
CLASS
  1
ACDBDICTIONARYWDFLT
  2
AcDbDictionaryWithDefault
  3
ObjectDBX Classes
 90
        0
280
     0
281
     0
  0
CLASS
  1
VISUALSTYLE
  2
AcDbVisualStyle
  3
ObjectDBX Classes
 90
     4095
280
     0
281
     0
  0
CLASS
  1
DICTIONARYVAR
  2
AcDbDictionaryVar
  3
ObjectDBX Classes
 90
        0
280
     0
281
     0
  0
CLASS
  1
ACDBPLACEHOLDER
  2
AcDbPlaceHolder
  3
ObjectDBX Classes
 90
        0
280
     0
281
     0
  0
CLASS
  1
LAYOUT
  2
AcDbLayout
  3
ObjectDBX Classes
 90
        0
280
     0
281
     0
  0
ENDSEC
  0
SECTION
  2
TABLES
  0
TABLE
  2
VPORT
  5
8
330
0
100
AcDbSymbolTable
 70
     1
  0
VPORT
  5
29
330
8
100
AcDbSymbolTableRecord
100
AcDbViewportTableRecord
  2
*Active
 70
     0
 10
0.0
 20
0.0
 11
1.0
 21
1.0
 12
148.5
 22
105.0
 13
0.0
 23
0.0
 14
10.0
 24
10.0
 15
10.0
 25
10.0
 16
0.0
 26
0.0
 36
1.0
 17
0.0
 27
0.0
 37
0.0
 40
210.0
 41
1.4142857143
 42
50.0
 43
0.0
 44
0.0
 50
0.0
 51
0.0
 71
     0
 72
  2000
 73
     1
 74
     3
 75
     0
 76
     0
 77
     0
 78
     0
281
     0
 65
     1
110
0.0
120
0.0
130
0.0
111
1.0
121
0.0
131
0.0
112
0.0
122
1.0
132
0.0
 79
     0
146
0.0
  0
ENDTAB
  0
TABLE
  2
LTYPE
  5
5
330
0
100
AcDbSymbolTable
 70
     6
  0
LTYPE
  5
14
330
5
100
AcDbSymbolTableRecord
100
AcDbLinetypeTableRecord
  2
ByBlock
 70
     0
  3

 72
    65
 73
     0
 40
0.0
  0
LTYPE
  5
15
330
5
100
AcDbSymbolTableRecord
100
AcDbLinetypeTableRecord
  2
ByLayer
 70
     0
  3

 72
    65
 73
     0
 40
0.0
  0
LTYPE
  5
16
330
5
100
AcDbSymbolTableRecord
100
AcDbLinetypeTableRecord
  2
Continuous
 70
     0
  3
Solid line
 72
    65
 73
     0
 40
0.0
  0
LTYPE
  5
3B
330
5
100
AcDbSymbolTableRecord
100
AcDbLinetypeTableRecord
  2
HIDDEN
 70
     0
  3
Hidden __ __ __ __ __ __ __ __ __ __ __ __ __ __
 72
    65
 73
     2
 40
1.905
 49
1.27
 74
     0
 49
-0.635
 74
     0
  0
LTYPE
  5
3C
330
5
100
AcDbSymbolTableRecord
100
AcDbLinetypeTableRecord
  2
PHANTOM
 70
     0
  3
Phantom ______  __  __  ______  __  __  ______
 72
    65
 73
     6
 40
12.7
 49
6.35
 74
     0
 49
-1.27
 74
     0
 49
1.27
 74
     0
 49
-1.27
 74
     0
 49
1.27
 74
     0
 49
-1.27
 74
     0
  0
LTYPE
  5
3D
330
5
100
AcDbSymbolTableRecord
100
AcDbLinetypeTableRecord
  2
CENTER
 70
     0
  3
Center ____ _ ____ _ ____ _ ____ _ ____ _ ____
 72
    65
 73
     4
 40
10.16
 49
6.35
 74
     0
 49
-1.27
 74
     0
 49
1.27
 74
     0
 49
-1.27
 74
     0
  0
LTYPE
  5
3E
330
5
100
AcDbSymbolTableRecord
100
AcDbLinetypeTableRecord
  2
CENTERX2
 70
     0
  3
Center (2x) ________  __  ________  __  _____
 72
    65
 73
     4
 40
20.32
 49
12.7
 74
     0
 49
-2.54
 74
     0
 49
2.54
 74
     0
 49
-2.54
 74
     0
  0
LTYPE
  5
3F
330
5
100
AcDbSymbolTableRecord
100
AcDbLinetypeTableRecord
  2
DOT2
 70
     0
  3
Dot (.5x) ........................................
 72
    65
 73
     2
 40
0.635
 49
0.0
 74
     0
 49
-0.635
 74
     0
  0
ENDTAB
  0
TABLE
  2
LAYER
  5
2
330
0
100
AcDbSymbolTable
 70
     5
  0
LAYER
  5
10
330
2
100
AcDbSymbolTableRecord
100
AcDbLayerTableRecord
  2
0
 70
     0
 62
     7
  6
Continuous
370
    -3
390
F
  0
LAYER
  5
40
330
2
100
AcDbSymbolTableRecord
100
AcDbLayerTableRecord
  2
FORMAT
 70
     0
 62
     7
  6
Continuous
370
    -3
390
F
  0
LAYER
  5
41
330
2
100
AcDbSymbolTableRecord
100
AcDbLayerTableRecord
  2
VERMASSUNG
 70
     0
 62
     7
  6
Continuous
370
    -3
390
F
  0
LAYER
  5
42
330
2
100
AcDbSymbolTableRecord
100
AcDbLayerTableRecord
  2
KOPF_DÜNN
 70
     0
 62
     7
  6
Continuous
370
    -3
390
F
  0
LAYER
  5
43
330
2
100
AcDbSymbolTableRecord
100
AcDbLayerTableRecord
  2
KOPF_DICK
 70
     0
 62
     7
  6
Continuous
370
    15
390
F
  0
ENDTAB
  0
TABLE
  2
STYLE
  5
3
330
0
100
AcDbSymbolTable
 70
     3
  0
STYLE
  5
11
330
3
100
AcDbSymbolTableRecord
100
AcDbTextStyleTableRecord
  2
Standard
 70
     0
 40
0.0
 41
1.0
 50
0.0
 71
     0
 42
2.5
  3
txt
  4

  0
STYLE
  5
44
330
3
100
AcDbSymbolTableRecord
100
AcDbTextStyleTableRecord
  2
SLDTEXTSTYLE0
 70
     0
 40
0.0
 41
0.7
 50
0.0
 71
     0
 42
0.2
  3
TXT
  4

  0
STYLE
  5
48
330
3
100
AcDbSymbolTableRecord
100
AcDbTextStyleTableRecord
  2
SLDTEXTSTYLE1
 70
     0
 40
0.0
 41
0.6473684211
 50
0.0
 71
     0
 42
0.2
  3
TXT
  4

  0
ENDTAB
  0
TABLE
  2
VIEW
  5
6
330
0
100
AcDbSymbolTable
 70
     0
  0
ENDTAB
  0
TABLE
  2
UCS
  5
7
330
0
100
AcDbSymbolTable
 70
     0
  0
ENDTAB
  0
TABLE
  2
APPID
  5
9
330
0
100
AcDbSymbolTable
 70
     1
  0
APPID
  5
12
330
9
100
AcDbSymbolTableRecord
100
AcDbRegAppTableRecord
  2
ACAD
 70
     0
  0
ENDTAB
  0
TABLE
  2
DIMSTYLE
  5
A
330
0
100
AcDbSymbolTable
 70
     2
100
AcDbDimStyleTable
  0
DIMSTYLE
105
27
330
A
100
AcDbSymbolTableRecord
100
AcDbDimStyleTableRecord
  2
ISO-25
 70
     0
 41
2.5
 42
0.625
 43
3.75
 44
1.25
 73
     0
 74
     0
 77
     1
 78
     8
140
2.5
141
2.5
143
0.0393700787
147
0.625
171
     3
172
     1
271
     2
272
     2
274
     3
278
    44
283
     0
284
     8
340
11
  0
DIMSTYLE
105
142
102
{ACAD_REACTORS
330
141
330
14E
330
158
330
162
330
16C
330
177
102
}
330
A
100
AcDbSymbolTableRecord
100
AcDbDimStyleTableRecord
  2
SLDDIMSTYLE0
 70
     0
 41
3.0
 44
0.0
 45
0.000000001
 73
     0
 74
     0
 77
     1
 78
    12
140
2.0
147
0.5
173
     1
271
     2
272
     3
284
    12
340
44
  0
ENDTAB
  0
TABLE
  2
BLOCK_RECORD
  5
1
330
0
100
AcDbSymbolTable
 70
     7
  0
BLOCK_RECORD
  5
1F
330
1
100
AcDbSymbolTableRecord
100
AcDbBlockTableRecord
  2
*Model_Space
340
22
  0
BLOCK_RECORD
  5
1B
330
1
100
AcDbSymbolTableRecord
100
AcDbBlockTableRecord
  2
*Paper_Space
340
1E
  0
BLOCK_RECORD
  5
23
330
1
100
AcDbSymbolTableRecord
100
AcDbBlockTableRecord
  2
*Paper_Space0
340
26
  0
BLOCK_RECORD
  5
143
330
1
100
AcDbSymbolTableRecord
100
AcDbBlockTableRecord
  2
*D1
340
0
  0
BLOCK_RECORD
  5
14F
330
1
100
AcDbSymbolTableRecord
100
AcDbBlockTableRecord
  2
*D2
340
0
  0
BLOCK_RECORD
  5
159
330
1
100
AcDbSymbolTableRecord
100
AcDbBlockTableRecord
  2
*D3
340
0
  0
BLOCK_RECORD
  5
163
330
1
100
AcDbSymbolTableRecord
100
AcDbBlockTableRecord
  2
*D4
340
0
  0
BLOCK_RECORD
  5
16D
330
1
100
AcDbSymbolTableRecord
100
AcDbBlockTableRecord
  2
*D5
340
0
  0
BLOCK_RECORD
  5
178
330
1
100
AcDbSymbolTableRecord
100
AcDbBlockTableRecord
  2
*D6
340
0
  0
ENDTAB
  0
ENDSEC
  0
SECTION
  2
BLOCKS
  0
BLOCK
  5
20
330
1F
100
AcDbEntity
  8
0
100
AcDbBlockBegin
  2
*Model_Space
 70
     0
 10
0.0
 20
0.0
 30
0.0
  3
*Model_Space
  1

  0
ENDBLK
  5
21
330
1F
100
AcDbEntity
  8
0
100
AcDbBlockEnd
  0
BLOCK
  5
1C
330
1B
100
AcDbEntity
 67
     1
  8
0
100
AcDbBlockBegin
  2
*Paper_Space
 70
     0
 10
0.0
 20
0.0
 30
0.0
  3
*Paper_Space
  1

  0
ENDBLK
  5
1D
330
1B
100
AcDbEntity
 67
     1
  8
0
100
AcDbBlockEnd
  0
BLOCK
  5
24
330
23
100
AcDbEntity
  8
0
100
AcDbBlockBegin
  2
*Paper_Space0
 70
     0
 10
0.0
 20
0.0
 30
0.0
  3
*Paper_Space0
  1

  0
ENDBLK
  5
25
330
23
100
AcDbEntity
  8
0
100
AcDbBlockEnd
  0
BLOCK
  5
144
330
143
100
AcDbEntity
  8
0
100
AcDbBlockBegin
  2
*D1
 70
     1
 10
0.0
 20
0.0
 30
0.0
  3
*D1
  1

  0
SOLID
  5
146
330
143
100
AcDbEntity
  8
VERMASSUNG
100
AcDbTrace
 10
70.1620056452
 20
148.9410677618
 30
0.0
 11
69.7120056452
 21
145.9410677618
 31
0.0
 12
70.6120056452
 22
145.9410677618
 32
0.0
 13
70.6120056452
 23
145.9410677618
 33
0.0
  0
SOLID
  5
147
330
143
100
AcDbEntity
  8
VERMASSUNG
100
AcDbTrace
 10
70.1620056452
 20
85.9410677618
 30
0.0
 11
70.6120056452
 21
88.9410677618
 31
0.0
 12
69.7120056452
 22
88.9410677618
 32
0.0
 13
69.7120056452
 23
88.9410677618
 33
0.0
  0
LINE
  5
148
330
143
100
AcDbEntity
  8
VERMASSUNG
100
AcDbLine
 10
108.6846231737
 20
148.9410677618
 30
0.0
 11
69.1620056452
 21
148.9410677618
 31
0.0
  0
LINE
  5
149
330
143
100
AcDbEntity
  8
VERMASSUNG
100
AcDbLine
 10
108.6846231737
 20
85.9410677618
 30
0.0
 11
69.1620056452
 21
85.9410677618
 31
0.0
  0
LINE
  5
14A
330
143
100
AcDbEntity
  8
VERMASSUNG
100
AcDbLine
 10
70.1620056452
 20
148.9410677618
 30
0.0
 11
70.1620056452
 21
85.9410677618
 31
0.0
  0
MTEXT
  5
14B
330
143
100
AcDbEntity
  8
VERMASSUNG
100
AcDbMText
 10
67.3838701562
 20
109.8933018186
 30
0.0
 40
2.0
 41
0.0
 71
     1
 72
     1
  1
HSK A
  7
SLDTEXTSTYLE0
 11
-7.044195017643634E-15
 21
1.0
 31
0.0
 73
     1
 44
1.0
  0
MTEXT
  5
14C
330
143
100
AcDbEntity
  8
VERMASSUNG
100
AcDbMText
 10
67.5838701657
 20
117.6933020726
 30
0.0
 40
2.0
 41
0.0
 71
     1
 72
     1
  1
%%c
  7
SLDTEXTSTYLE0
 11
-7.044195017643634E-15
 21
1.0
 31
0.0
 73
     1
 44
1.0
  0
MTEXT
  5
14D
330
143
100
AcDbEntity
  8
VERMASSUNG
100
AcDbMText
 10
67.5838702821
 20
121.3018305293
 30
0.0
 40
2.0
 41
0.0
 71
     1
 72
     1
  1
63
  7
SLDTEXTSTYLE0
 11
-7.044195017643634E-15
 21
1.0
 31
0.0
 73
     1
 44
1.0
  0
ENDBLK
  5
145
330
143
100
AcDbEntity
  8
0
100
AcDbBlockEnd
  0
BLOCK
  5
150
330
14F
100
AcDbEntity
  8
0
100
AcDbBlockBegin
  2
*D2
 70
     1
 10
0.0
 20
0.0
 30
0.0
  3
*D2
  1

  0
SOLID
  5
152
330
14F
100
AcDbEntity
  8
VERMASSUNG
100
AcDbTrace
 10
208.3846231737
 20
156.0549175553
 30
0.0
 11
205.3846231737
 21
156.5049175553
 31
0.0
 12
205.3846231737
 22
155.6049175553
 32
0.0
 13
205.3846231737
 23
155.6049175553
 33
0.0
  0
SOLID
  5
153
330
14F
100
AcDbEntity
  8
VERMASSUNG
100
AcDbTrace
 10
134.3346231737
 20
156.0549175553
 30
0.0
 11
137.3346231737
 21
155.6049175553
 31
0.0
 12
137.3346231737
 22
156.5049175553
 32
0.0
 13
137.3346231737
 23
156.5049175553
 33
0.0
  0
LINE
  5
154
330
14F
100
AcDbEntity
  8
VERMASSUNG
100
AcDbLine
 10
208.3846231737
 20
128.6669272402
 30
0.0
 11
208.3846231737
 21
157.0549175553
 31
0.0
  0
LINE
  5
155
330
14F
100
AcDbEntity
  8
VERMASSUNG
100
AcDbLine
 10
134.3346231737
 20
147.2875080856
 30
0.0
 11
134.3346231737
 21
157.0549175553
 31
0.0
  0
LINE
  5
156
330
14F
100
AcDbEntity
  8
VERMASSUNG
100
AcDbLine
 10
208.3846231737
 20
156.0549175553
 30
0.0
 11
134.3346231737
 21
156.0549175553
 31
0.0
  0
MTEXT
  5
157
330
14F
100
AcDbEntity
  8
VERMASSUNG
100
AcDbMText
 10
164.340828661
 20
158.6330529185
 30
0.0
 40
2.0
 41
0.0
 71
     1
 72
     1
  1
74.05
  7
SLDTEXTSTYLE0
 73
     1
 44
1.0
  0
ENDBLK
  5
151
330
14F
100
AcDbEntity
  8
0
100
AcDbBlockEnd
  0
BLOCK
  5
15A
330
159
100
AcDbEntity
  8
0
100
AcDbBlockBegin
  2
*D3
 70
     1
 10
0.0
 20
0.0
 30
0.0
  3
*D3
  1

  0
SOLID
  5
15C
330
159
100
AcDbEntity
  8
VERMASSUNG
100
AcDbTrace
 10
208.3846231737
 20
162.0549175553
 30
0.0
 11
205.3846231737
 21
162.5049175553
 31
0.0
 12
205.3846231737
 22
161.6049175553
 32
0.0
 13
205.3846231737
 23
161.6049175553
 33
0.0
  0
SOLID
  5
15D
330
159
100
AcDbEntity
  8
VERMASSUNG
100
AcDbTrace
 10
108.3846231737
 20
162.0549175553
 30
0.0
 11
111.3846231737
 21
161.6049175553
 31
0.0
 12
111.3846231737
 22
162.5049175553
 32
0.0
 13
111.3846231737
 23
162.5049175553
 33
0.0
  0
LINE
  5
15E
330
159
100
AcDbEntity
  8
VERMASSUNG
100
AcDbLine
 10
208.3846231737
 20
128.6669272402
 30
0.0
 11
208.3846231737
 21
163.0549175553
 31
0.0
  0
LINE
  5
15F
330
159
100
AcDbEntity
  8
VERMASSUNG
100
AcDbLine
 10
108.3846231737
 20
148.6410677618
 30
0.0
 11
108.3846231737
 21
163.0549175553
 31
0.0
  0
LINE
  5
160
330
159
100
AcDbEntity
  8
VERMASSUNG
100
AcDbLine
 10
208.3846231737
 20
162.0549175553
 30
0.0
 11
108.3846231737
 21
162.0549175553
 31
0.0
  0
MTEXT
  5
161
330
159
100
AcDbEntity
  8
VERMASSUNG
100
AcDbMText
 10
155.1779633847
 20
164.6330529185
 30
0.0
 40
2.0
 41
0.0
 71
     1
 72
     1
  1
100
  7
SLDTEXTSTYLE0
 73
     1
 44
1.0
  0
ENDBLK
  5
15B
330
159
100
AcDbEntity
  8
0
100
AcDbBlockEnd
  0
BLOCK
  5
164
330
163
100
AcDbEntity
  8
0
100
AcDbBlockBegin
  2
*D4
 70
     1
 10
0.0
 20
0.0
 30
0.0
  3
*D4
  1

  0
SOLID
  5
166
330
163
100
AcDbEntity
  8
VERMASSUNG
100
AcDbTrace
 10
208.3846231737
 20
168.0549175553
 30
0.0
 11
205.3846231737
 21
168.5049175553
 31
0.0
 12
205.3846231737
 22
167.6049175553
 32
0.0
 13
205.3846231737
 23
167.6049175553
 33
0.0
  0
SOLID
  5
167
330
163
100
AcDbEntity
  8
VERMASSUNG
100
AcDbTrace
 10
76.4846231737
 20
168.0549175553
 30
0.0
 11
79.4846231737
 21
167.6049175553
 31
0.0
 12
79.4846231737
 22
168.5049175553
 32
0.0
 13
79.4846231737
 23
168.5049175553
 33
0.0
  0
LINE
  5
168
330
163
100
AcDbEntity
  8
VERMASSUNG
100
AcDbLine
 10
208.3846231737
 20
128.6669272402
 30
0.0
 11
208.3846231737
 21
169.0549175553
 31
0.0
  0
LINE
  5
169
330
163
100
AcDbEntity
  8
VERMASSUNG
100
AcDbLine
 10
76.4846231737
 20
137.1317455083
 30
0.0
 11
76.4846231737
 21
169.0549175553
 31
0.0
  0
LINE
  5
16A
330
163
100
AcDbEntity
  8
VERMASSUNG
100
AcDbLine
 10
208.3846231737
 20
168.0549175553
 30
0.0
 11
76.4846231737
 21
168.0549175553
 31
0.0
  0
MTEXT
  5
16B
330
163
100
AcDbEntity
  8
VERMASSUNG
100
AcDbMText
 10
136.8767565607
 20
170.6330529185
 30
0.0
 40
2.0
 41
0.0
 71
     1
 72
     1
  1
131.9
  7
SLDTEXTSTYLE0
 73
     1
 44
1.0
  0
ENDBLK
  5
165
330
163
100
AcDbEntity
  8
0
100
AcDbBlockEnd
  0
BLOCK
  5
16E
330
16D
100
AcDbEntity
  8
0
100
AcDbBlockBegin
  2
*D5
 70
     1
 10
0.0
 20
0.0
 30
0.0
  3
*D5
  1

  0
SOLID
  5
170
330
16D
100
AcDbEntity
  8
VERMASSUNG
100
AcDbTrace
 10
216.3279393299
 20
122.4410677618
 30
0.0
 11
215.8779393299
 21
119.4410677618
 31
0.0
 12
216.7779393299
 22
119.4410677618
 32
0.0
 13
216.7779393299
 23
119.4410677618
 33
0.0
  0
SOLID
  5
171
330
16D
100
AcDbEntity
  8
VERMASSUNG
100
AcDbTrace
 10
216.3279393299
 20
112.4410677618
 30
0.0
 11
216.7779393299
 21
115.4410677618
 31
0.0
 12
215.8779393299
 22
115.4410677618
 32
0.0
 13
215.8779393299
 23
115.4410677618
 33
0.0
  0
LINE
  5
172
330
16D
100
AcDbEntity
  8
VERMASSUNG
100
AcDbLine
 10
208.0846231737
 20
122.4410677618
 30
0.0
 11
217.3279393299
 21
122.4410677618
 31
0.0
  0
LINE
  5
173
330
16D
100
AcDbEntity
  8
VERMASSUNG
100
AcDbLine
 10
208.0846231737
 20
112.4410677618
 30
0.0
 11
217.3279393299
 21
112.4410677618
 31
0.0
  0
LINE
  5
174
330
16D
100
AcDbEntity
  8
VERMASSUNG
100
AcDbLine
 10
216.3279393299
 20
122.4410677618
 30
0.0
 11
216.3279393299
 21
112.4410677618
 31
0.0
  0
MTEXT
  5
175
330
16D
100
AcDbEntity
  8
VERMASSUNG
100
AcDbMText
 10
213.7498038504
 20
114.1960325535
 30
0.0
 40
2.0
 41
0.0
 71
     1
 72
     1
  1
%%c
  7
SLDTEXTSTYLE0
 11
-7.044195017643634E-15
 21
1.0
 31
0.0
 73
     1
 44
1.0
  0
MTEXT
  5
176
330
16D
100
AcDbEntity
  8
VERMASSUNG
100
AcDbMText
 10
213.7498039668
 20
117.8047107767
 30
0.0
 40
2.0
 41
0.0
 71
     1
 72
     1
  1
10
  7
SLDTEXTSTYLE0
 11
-7.044195017643634E-15
 21
1.0
 31
0.0
 73
     1
 44
1.0
  0
ENDBLK
  5
16F
330
16D
100
AcDbEntity
  8
0
100
AcDbBlockEnd
  0
BLOCK
  5
179
330
178
100
AcDbEntity
  8
0
100
AcDbBlockBegin
  2
*D6
 70
     1
 10
0.0
 20
0.0
 30
0.0
  3
*D6
  1

  0
SOLID
  5
17B
330
178
100
AcDbEntity
  8
VERMASSUNG
100
AcDbTrace
 10
222.3279393299
 20
134.9410677618
 30
0.0
 11
221.8779393299
 21
131.9410677618
 31
0.0
 12
222.7779393299
 22
131.9410677618
 32
0.0
 13
222.7779393299
 23
131.9410677618
 33
0.0
  0
SOLID
  5
17C
330
178
100
AcDbEntity
  8
VERMASSUNG
100
AcDbTrace
 10
222.3279393299
 20
99.9410677618
 30
0.0
 11
222.7779393299
 21
102.9410677618
 31
0.0
 12
221.8779393299
 22
102.9410677618
 32
0.0
 13
221.8779393299
 23
102.9410677618
 33
0.0
  0
LINE
  5
17D
330
178
100
AcDbEntity
  8
VERMASSUNG
100
AcDbLine
 10
197.6620885712
 20
134.9410677618
 30
0.0
 11
223.3279393299
 21
134.9410677618
 31
0.0
  0
LINE
  5
17E
330
178
100
AcDbEntity
  8
VERMASSUNG
100
AcDbLine
 10
197.6620885712
 20
99.9410677618
 30
0.0
 11
223.3279393299
 21
99.9410677618
 31
0.0
  0
LINE
  5
17F
330
178
100
AcDbEntity
  8
VERMASSUNG
100
AcDbLine
 10
222.3279393299
 20
134.9410677618
 30
0.0
 11
222.3279393299
 21
99.9410677618
 31
0.0
  0
MTEXT
  5
180
330
178
100
AcDbEntity
  8
VERMASSUNG
100
AcDbMText
 10
219.7498038504
 20
113.9538967213
 30
0.0
 40
2.0
 41
0.0
 71
     1
 72
     1
  1
%%c
  7
SLDTEXTSTYLE0
 11
-7.044195017643634E-15
 21
1.0
 31
0.0
 73
     1
 44
1.0
  0
MTEXT
  5
181
330
178
100
AcDbEntity
  8
VERMASSUNG
100
AcDbMText
 10
219.7498039668
 20
117.5625749445
 30
0.0
 40
2.0
 41
0.0
 71
     1
 72
     1
  1
35
  7
SLDTEXTSTYLE0
 11
-7.044195017643634E-15
 21
1.0
 31
0.0
 73
     1
 44
1.0
  0
ENDBLK
  5
17A
330
178
100
AcDbEntity
  8
0
100
AcDbBlockEnd
  0
ENDSEC
  0
SECTION
  2
ENTITIES
  0
MTEXT
  5
45
330
1F
100
AcDbEntity
  8
KOPF_DÜNN
100
AcDbMText
 10
13.8892156294
 20
23.8442973028
 30
0.0
 40
3.0
 41
0.0
 71
     1
 72
     1
  1
HA6.W10.K01.100
  7
SLDTEXTSTYLE0
 73
     1
 44
1.0
  0
MTEXT
  5
46
330
1F
100
AcDbEntity
  8
VERMASSUNG
100
AcDbMText
 10
13.9329988022
 20
28.8834360957
 30
0.0
 40
3.0
 41
0.0
 71
     1
 72
     1
  1
Flächenspannfutter_End mill adapter Weldon ø10
  7
SLDTEXTSTYLE0
 73
     1
 44
1.0
  0
MTEXT
  5
47
330
1F
100
AcDbEntity
  8
VERMASSUNG
100
AcDbMText
 10
98.8601118557
 20
13.8365368179
 30
0.0
 40
2.0
 41
0.0
 71
     1
 72
     1
  1
Datum: 25.04.2006
  7
SLDTEXTSTYLE0
 73
     1
 44
1.0
  0
MTEXT
  5
49
330
1F
100
AcDbEntity
  8
VERMASSUNG
100
AcDbMText
 10
13.933048693
 20
18.0482802738
 30
0.0
 40
2.0
 41
0.0
 71
     1
 72
     1
  1
DIN 69 893 HSK A 63
  7
SLDTEXTSTYLE1
 73
     1
 44
1.0
  0
MTEXT
  5
4A
330
1F
100
AcDbEntity
  8
VERMASSUNG
100
AcDbMText
 10
13.9808475933
 20
13.9090973692
 30
0.0
 40
2.0
 41
0.0
 71
     1
 72
     1
  1
Gewicht: 1163g
  7
SLDTEXTSTYLE0
 73
     1
 44
1.0
  0
LINE
  5
4B
330
1F
100
AcDbEntity
  8
0
  6
Continuous
 62
     7
370
    15
100
AcDbLine
 10
108.684623188
 20
85.9410672552
 30
0.0
 11
113.3346231469
 21
85.9410672552
 31
0.0
  0
LINE
  5
4C
330
1F
100
AcDbEntity
  8
0
  6
Continuous
 62
     7
370
    15
100
AcDbLine
 10
113.3626117186
 20
148.9410682684
 30
0.0
 11
108.684623188
 21
148.9410682684
 31
0.0
  0
ARC
  5
4D
330
1F
100
AcDbEntity
  8
0
  6
Continuous
 62
     7
370
    15
100
AcDbCircle
 10
108.6846231737
 20
86.2410677618
 30
0.0
 40
0.3000000000000114
100
AcDbArc
 50
180.0
 51
270.0
  0
ARC
  5
4E
330
1F
100
AcDbEntity
  8
0
  6
Continuous
 62
     7
370
    15
100
AcDbCircle
 10
108.6846231737
 20
148.6410677618
 30
0.0
 40
0.3000000000000114
100
AcDbArc
 50
90.0
 51
180.0
  0
ARC
  5
4F
330
1F
100
AcDbEntity
  8
0
  6
Continuous
 62
     7
370
    15
100
AcDbCircle
 10
107.8846164211
 20
92.8706301474
 30
0.0
 40
0.6000067526677242
100
AcDbArc
 50
33.5571153394
 51
90.0
  0
ARC
  5
50
330
1F
100
AcDbEntity
  8
0
  6
Continuous
 62
     7
370
    15
100
AcDbCircle
 10
107.8846164211
 20
142.0115053762
 30
0.0
 40
0.6000067526677242
100
AcDbArc
 50
270.0
 51
326.4428846606
  0
LINE
  5
51
330
1F
100
AcDbEntity
  8
0
  6
Continuous
 62
     7
370
    15
100
AcDbLine
 10
95.1531147399
 20
141.098797611
 30
0.0
 11
82.5846222975
 21
140.4691136545
 31
0.0
  0
LINE
  5
52
330
1F
100
AcDbEntity
  8
0
  6
Continuous
 62
     7
370
    15
100
AcDbLine
 10
106.3846230787
 20
141.6614989853
 30
0.0
 11
103.5676216522
 21
141.5203663624
 31
0.0
  0
LINE
  5
53
330
1F
100
AcDbEntity
  8
0
  6
Continuous
 62
     7
370
    15
100
AcDbLine
 10
103.5676775315
 20
93.3617672986
 30
0.0
 11
106.3846230787
 21
93.2206365383
 31
0.0
  0
LINE
  5
54
330
1F
100
AcDbEntity
  8
0
  6
Continuous
 62
     7
370
    15
100
AcDbLine
 10
86.5846229532
 20
94.2126217401
 30
0.0
 11
95.1535170713
 21
93.7833174235
 31
0.0
  0
LINE
  5
55
330
1F
100
AcDbEntity
  8
0
  6
Continuous
 62
     7
370
    15
100
AcDbLine
 10
106.3846230787
 20
93.2206365383
 30
0.0
 11
107.2413360049
 21
93.4501926518
 31
0.0
  0
LINE
  5
56
330
1F
100
AcDbEntity
  8
0
  6
Continuous
 62
     7
370
    15
100
AcDbLine
 10
107.2413360049
 20
141.4319428718
 30
0.0
 11
106.3846230787
 21
141.6614989853
 31
0.0
  0
ARC
  5
57
330
1F
100
AcDbEntity
  8
0
  6
Continuous
 62
     7
370
    15
100
AcDbCircle
 10
107.3966273742
 20
92.8706369001
 30
0.0
 40
0.6000000000000085
100
AcDbArc
 50
90.0
 51
105.0
  0
ARC
  5
58
330
1F
100
AcDbEntity
  8
0
  6
Continuous
 62
     7
370
    15
100
AcDbCircle
 10
107.3966273742
 20
142.0114986235
 30
0.0
 40
0.5999999999999943
100
AcDbArc
 50
255.0
 51
270.0
  0
LINE
  5
59
330
1F
100
AcDbEntity
  8
0
  6
Continuous
 62
     7
370
    15
100
AcDbLine
 10
107.3966274086
 20
93.4706370449
 30
0.0
 11
107.8846163979
 21
93.4706370449
 31
0.0
  0
LINE
  5
5A
330
1F
100
AcDbEntity
  8
0
  6
Continuous
 62
     7
370
    15
100
AcDbLine
 10
107.8846163979
 20
141.4114984787
 30
0.0
 11
107.3966274086
 21
141.4114984787
 31
0.0
  0
ARC
  5
5B
330
1F
100
AcDbEntity
  8
0
  6
Continuous
 62
     7
370
    15
100
AcDbCircle
 10
137.3346231737
 20
93.9251089603
 30
0.0
 40
3.000000000000028
100
AcDbArc
 50
104.3250519401
 51
180.0
  0
ARC
  5
5C
330
1F
100
AcDbEntity
  8
0
  6
Continuous
 62
     7
370
    15
100
AcDbCircle
 10
137.3346231737
 20
140.9570265633
 30
0.0
 40
3.000000000000028
100
AcDbArc
 50
180.0
 51
255.6749480599
  0
ARC
  5
5D
330
1F
100
AcDbEntity
  8
0
  6
Continuous
 62
     7
370
    15
100
AcDbCircle
 10
161.3346231737
 20
-0.0589322382
 30
0.0
 40
100.0
100
AcDbArc
 50
90.0
 51
104.3250519401
  0
ARC
  5
5E
330
1F
100
AcDbEntity
  8
0
  6
Continuous
 62
     7
370
    15
100
AcDbCircle
 10
161.3346231737
 20
234.9410677618
 30
0.0
 40
100.0
100
AcDbArc
 50
255.6749480599
 51
270.0
  0
LINE
  5
5F
330
1F
100
AcDbEntity
  8
0
  6
Continuous
 62
     7
370
    15
100
AcDbLine
 10
161.3346217015
 20
99.9410676873
 30
0.0
 11
197.6620917955
 21
99.9410676873
 31
0.0
  0
LINE
  5
60
330
1F
100
AcDbEntity
  8
0
  6
Continuous
 62
     7
370
    15
100
AcDbLine
 10
197.6620917955
 20
134.9410678363
 30
0.0
 11
161.3346217015
 21
134.9410678363
 31
0.0
  0
LINE
  5
61
330
1F
100
AcDbEntity
  8
0
  6
Continuous
 62
     7
370
    15
100
AcDbLine
 10
197.6620917955
 20
99.9410676873
 30
0.0
 11
207.2298591771
 21
104.4025926954
 31
0.0
  0
LINE
  5
62
330
1F
100
AcDbEntity
  8
0
  6
Continuous
 62
     7
370
    15
100
AcDbLine
 10
207.2298591771
 20
130.4795428282
 30
0.0
 11
197.6620917955
 21
134.9410678363
 31
0.0
  0
ARC
  5
63
330
1F
100
AcDbEntity
  8
0
  6
Continuous
 62
     7
370
    15
100
AcDbCircle
 10
206.3846231737
 20
106.2152082834
 30
0.0
 40
2.000000000000001
100
AcDbArc
 50
295.0
 51
0.0
  0
ARC
  5
64
330
1F
100
AcDbEntity
  8
0
  6
Continuous
 62
     7
370
    15
100
AcDbCircle
 10
206.3846231737
 20
128.6669272402
 30
0.0
 40
2.000000000000001
100
AcDbArc
 50
0.0
 51
65.0
  0
LINE
  5
65
330
1F
100
AcDbEntity
  8
0
  6
Continuous
 62
     7
370
    15
100
AcDbLine
 10
77.7679597774
 20
96.5710676378
 30
0.0
 11
85.1846234688
 21
96.5710676378
 31
0.0
  0
ARC
  5
66
330
1F
100
AcDbEntity
  8
0
  6
Continuous
 62
     7
370
    15
100
AcDbCircle
 10
85.1846231737
 20
95.1710677618
 30
0.0
 40
1.399999999999997
100
AcDbArc
 50
42.2465410162
 51
90.0
  0
LINE
  5
67
330
1F
100
AcDbEntity
  8
0
  6
Continuous
 62
     7
370
    15
100
AcDbLine
 10
76.485655252
 20
97.7200347102
 30
0.0
 11
77.6257859358
 21
96.5799040264
 31
0.0
  0
LINE
  5
68
330
1F
100
AcDbEntity
  8
0
  6
Continuous
 62
     7
370
    15
100
AcDbLine
 10
77.6257859358
 20
138.3022314972
 30
0.0
 11
76.4945251682
 21
137.170968867
 31
0.0
  0
ARC
  5
69
330
1F
100
AcDbEntity
  8
0
  6
Continuous
 62
     7
370
    15
100
AcDbCircle
 10
81.1846231737
 20
139.7110677618
 30
0.0
 40
1.400000000000034
100
AcDbArc
 50
270.0
 51
301.7485287426
  0
LINE
  5
6A
330
1F
100
AcDbEntity
  8
0
  6
Continuous
 62
     7
370
    15
100
AcDbLine
 10
81.1846228131
 20
138.3110678858
 30
0.0
 11
77.7755109408
 21
138.3110678858
 31
0.0
  0
CIRCLE
  5
6B
330
1F
100
AcDbEntity
  8
0
  6
Continuous
 62
     7
370
    15
100
AcDbCircle
 10
188.8846231737
 20
117.4410677618
 30
0.0
 40
4.199999999999968
  0
LINE
  5
6C
330
1F
100
AcDbEntity
  8
0
  6
Continuous
 62
     7
370
    15
100
AcDbLine
 10
191.7461817899
 20
117.8216009853
 30
0.0
 11
190.6449561754
 21
115.153150457
 31
0.0
  0
LINE
  5
6D
330
1F
100
AcDbEntity
  8
0
  6
Continuous
 62
     7
370
    15
100
AcDbLine
 10
187.1242886224
 20
119.7289850666
 30
0.0
 11
186.0230630079
 21
117.0605345383
 31
0.0
  0
LINE
  5
6E
330
1F
100
AcDbEntity
  8
0
  6
Continuous
 62
     7
370
    15
100
AcDbLine
 10
187.1242886224
 20
119.7289850666
 30
0.0
 11
189.985855464
 21
120.1095183483
 31
0.0
  0
LINE
  5
6F
330
1F
100
AcDbEntity
  8
0
  6
Continuous
 62
     7
370
    15
100
AcDbLine
 10
191.7461817899
 20
117.8216009853
 30
0.0
 11
189.985855464
 21
120.1095183483
 31
0.0
  0
LINE
  5
70
330
1F
100
AcDbEntity
  8
0
  6
Continuous
 62
     7
370
    15
100
AcDbLine
 10
190.6449561754
 20
115.153150457
 30
0.0
 11
187.7833967843
 21
114.7726171753
 31
0.0
  0
LINE
  5
71
330
1F
100
AcDbEntity
  8
0
  6
Continuous
 62
     7
370
    15
100
AcDbLine
 10
186.0230630079
 20
117.0605345383
 30
0.0
 11
187.7833967843
 21
114.7726171753
 31
0.0
  0
LINE
  5
72
330
1F
100
AcDbEntity
  8
0
  6
Continuous
 62
     7
370
    15
100
AcDbLine
 10
133.734623883
 20
87.254150129
 30
0.0
 11
129.776555095
 21
87.254150129
 31
0.0
  0
LINE
  5
73
330
1F
100
AcDbEntity
  8
0
  6
Continuous
 62
     7
370
    15
100
AcDbLine
 10
129.776555095
 20
87.254150129
 30
0.0
 11
129.776555095
 21
137.2910685009
 31
0.0
  0
LINE
  5
74
330
1F
100
AcDbEntity
  8
0
  6
Continuous
 62
     7
370
    15
100
AcDbLine
 10
129.776555095
 20
137.2910685009
 30
0.0
 11
133.734623883
 21
137.2910685009
 31
0.0
  0
LINE
  5
75
330
1F
100
AcDbEntity
  8
0
  6
Continuous
 62
     7
370
    15
100
AcDbLine
 10
134.3346228638
 20
87.8807905233
 30
0.0
 11
134.3346228638
 21
137.2910685009
 31
0.0
  0
SPLINE
  5
76
330
1F
100
AcDbEntity
  8
0
  6
Continuous
 62
     7
370
    15
100
AcDbSpline
210
0.0
220
0.0
230
1.0
 70
     8
 71
     3
 72
    10
 73
     6
 74
     0
 42
0.00000001
 43
0.00000001
 40
0.0
 40
0.0
 40
0.0
 40
0.0
 40
0.5
 40
0.5
 40
1.0
 40
1.0
 40
1.0
 40
1.0
 10
134.3346231737374
 20
87.88079036121412
 30
0.0
 10
134.3346231737374
 20
87.72090309302047
 30
0.0
 10
134.2733135225016
 20
87.55977583750587
 30
0.0
 10
134.0542138849665
 20
87.32567683915103
 30
0.0
 10
133.8961656786531
 20
87.25415006555981
 30
0.0
 10
133.7346231737375
 20
87.25415006555981
 30
0.0
  0
SPLINE
  5
77
330
1F
100
AcDbEntity
  8
0
  6
Continuous
 62
     7
370
    15
100
AcDbSpline
210
0.0
220
0.0
230
1.0
 70
    24
 71
     3
 72
    12
 73
     8
 74
     0
 42
0.00000001
 43
0.00000001
 40
0.0
 40
0.0
 40
0.0
 40
0.0
 40
0.250000000000002
 40
0.250000000000002
 40
0.500000000000004
 40
0.500000000000004
 40
1.0
 40
1.0
 40
1.0
 40
1.0
 10
133.7346231737375
 20
137.291067761807
 30
0.0
 10
133.8248622414245
 20
137.291067761807
 30
0.0
 10
133.915760355531
 20
137.291067761807
 30
0.0
 10
134.0703573920195
 20
137.291067761807
 30
0.0
 10
134.1353358081276
 20
137.291067761807
 30
0.0
 10
134.2871708360639
 20
137.291067761807
 30
0.0
 10
134.3346231737374
 20
137.291067761807
 30
0.0
 10
134.3346231737374
 20
137.291067761807
 30
0.0
  0
LINE
  5
78
330
1F
100
AcDbEntity
  8
0
  6
Continuous
 62
     7
370
    15
100
AcDbLine
 10
113.3346231469
 20
137.2910685009
 30
0.0
 11
122.9926906341
 21
137.2910685009
 31
0.0
  0
LINE
  5
79
330
1F
100
AcDbEntity
  8
0
  6
Continuous
 62
     7
370
    15
100
AcDbLine
 10
122.9926906341
 20
87.254150129
 30
0.0
 11
122.9926906341
 21
137.2910685009
 31
0.0
  0
LINE
  5
7A
330
1F
100
AcDbEntity
  8
0
  6
Continuous
 62
     7
370
    15
100
AcDbLine
 10
122.9926906341
 20
87.254150129
 30
0.0
 11
121.3346235269
 21
87.254150129
 31
0.0
  0
SPLINE
  5
7B
330
1F
100
AcDbEntity
  8
0
  6
Continuous
 62
     7
370
    15
100
AcDbSpline
210
0.0
220
0.0
230
1.0
 70
     8
 71
     3
 72
    28
 73
    24
 74
     0
 42
0.00000001
 43
0.00000001
 40
0.0
 40
0.0
 40
0.0
 40
0.0
 40
0.1249999999999999
 40
0.1249999999999999
 40
0.1874999999999998
 40
0.1874999999999998
 40
0.2499999999999997
 40
0.2499999999999997
 40
0.3749999999999993
 40
0.3749999999999993
 40
0.4374999999999993
 40
0.4374999999999993
 40
0.4999999999999992
 40
0.4999999999999992
 40
0.6249999999999992
 40
0.6249999999999992
 40
0.7499999999999992
 40
0.7499999999999992
 40
0.8124999999999993
 40
0.8124999999999993
 40
0.8749999999999996
 40
0.8749999999999996
 40
1.0
 40
1.0
 40
1.0
 40
1.0
 10
121.3346231737375
 20
87.25415006555981
 30
0.0
 10
120.8029154162445
 20
87.25415006555981
 30
0.0
 10
120.2806768509342
 20
87.23836535160959
 30
0.0
 10
119.5108063646592
 20
87.19336993753339
 30
0.0
 10
119.2564467924679
 20
87.17481494245766
 30
0.0
 10
118.7523252117693
 20
87.13096222001117
 30
0.0
 10
118.5026023943414
 20
87.10561761305897
 30
0.0
 10
117.777012442895
 20
87.02221553530886
 30
0.0
 10
117.3186521813135
 20
86.95634997615777
 30
0.0
 10
116.6681542379196
 20
86.84737963566599
 30
0.0
 10
116.4564721871271
 20
86.80913999989934
 30
0.0
 10
116.0524006979891
 20
86.73138126247999
 30
0.0
 10
115.8598941841683
 20
86.69188030030465
 30
0.0
 10
115.310059213147
 20
86.57297255793863
 30
0.0
 10
114.9801304348382
 20
86.493154876514
 30
0.0
 10
114.3956591662695
 20
86.33981171471795
 30
0.0
 10
114.1493820282561
 20
86.2684779614487
 30
0.0
 10
113.849539235558
 20
86.17453445437408
 30
0.0
 10
113.7610823784858
 20
86.14534066101415
 30
0.0
 10
113.6077210251807
 20
86.09187408675075
 30
0.0
 10
113.5426328109544
 20
86.06751475247556
 30
0.0
 10
113.3870387950137
 20
86.00392460703083
 30
0.0
 10
113.3346231737375
 20
85.97382167194156
 30
0.0
 10
113.3346231737375
 20
85.95694477894463
 30
0.0
  0
LINE
  5
7C
330
1F
100
AcDbEntity
  8
0
  6
Continuous
 62
     7
370
    15
100
AcDbLine
 10
113.3346231469
 20
85.9569444424
 30
0.0
 11
113.3346231469
 21
85.9410672552
 31
0.0
  0
SPLINE
  5
7D
330
1F
100
AcDbEntity
  8
0
  6
Continuous
 62
     7
370
    15
100
AcDbSpline
210
0.0
220
0.0
230
1.0
 70
     8
 71
     3
 72
    17
 73
    13
 74
     0
 42
0.00000001
 43
0.00000001
 40
0.0
 40
0.0
 40
0.0
 40
0.0
 40
0.1034797280380778
 40
0.2100239090909901
 40
0.3134862262879433
 40
0.4198361712144981
 40
0.5254127947779869
 40
0.6339610881168427
 40
0.7409508662120068
 40
0.8511696072047016
 40
0.9558996557845765
 40
1.0
 40
1.0
 40
1.0
 40
1.0
 10
121.334623526895
 20
147.9082631981654
 30
0.0
 10
120.8993750351691
 20
147.9137111898031
 30
0.0
 10
120.0159885845921
 20
147.9247685101317
 30
0.0
 10
118.7351607223693
 20
148.0111272705067
 30
0.0
 10
117.5177445269274
 20
148.1389984136398
 30
0.0
 10
116.4099379106016
 20
148.2979428209582
 30
0.0
 10
115.4216994312727
 20
148.4724373939428
 30
0.0
 10
114.5969763314569
 20
148.6416038271297
 30
0.0
 10
113.9480226739583
 20
148.7894846355974
 30
0.0
 10
113.5309873704786
 20
148.89127538712
 30
0.0
 10
113.3323906276007
 20
148.9416322867544
 30
0.0
 10
113.3557037445886
 20
148.9357226817789
 30
0.0
 10
113.362611718589
 20
148.9339715904279
 30
0.0
  0
LINE
  5
7E
330
1F
100
AcDbEntity
  8
0
  6
Continuous
 62
     7
370
    15
100
AcDbLine
 10
122.9926906341
 20
147.9082631982
 30
0.0
 11
121.3346235269
 21
147.9082631982
 31
0.0
  0
LINE
  5
7F
330
1F
100
AcDbEntity
  8
0
  6
Continuous
 62
     7
370
    15
100
AcDbLine
 10
122.9926906341
 20
141.8997573769
 30
0.0
 11
122.9926906341
 21
147.9082631982
 31
0.0
  0
LINE
  5
80
330
1F
100
AcDbEntity
  8
0
  6
Continuous
 62
     7
370
    15
100
AcDbLine
 10
120.5802438596
 20
141.8997573769
 30
0.0
 11
122.9926906341
 21
141.8997573769
 31
0.0
  0
SPLINE
  5
81
330
1F
100
AcDbEntity
  8
0
  6
Continuous
 62
     7
370
    15
100
AcDbSpline
210
0.0
220
0.0
230
1.0
 70
     8
 71
     3
 72
    20
 73
    16
 74
     0
 42
0.00000001
 43
0.00000001
 40
0.0
 40
0.0
 40
0.0
 40
0.0
 40
0.2499999999999995
 40
0.2499999999999995
 40
0.3749999999999996
 40
0.3749999999999996
 40
0.4999999999999997
 40
0.4999999999999997
 40
0.6249999999999998
 40
0.6249999999999998
 40
0.7499999999999998
 40
0.7499999999999998
 40
0.8749999999999999
 40
0.8749999999999999
 40
1.0
 40
1.0
 40
1.0
 40
1.0
 10
113.3346231737375
 20
137.291067761807
 30
0.0
 10
113.5829969080255
 20
137.9449301901044
 30
0.0
 10
113.9025670003708
 20
138.5487159721015
 30
0.0
 10
114.5248732335755
 20
139.3755547082701
 30
0.0
 10
114.7562974940062
 20
139.6379833462231
 30
0.0
 10
115.2775118336559
 20
140.134646000328
 30
0.0
 10
115.564132316291
 20
140.3652328793495
 30
0.0
 10
116.1836170575986
 20
140.7817871039322
 30
0.0
 10
116.5179174370856
 20
140.9692849058997
 30
0.0
 10
117.2431779097104
 20
141.3006818835361
 30
0.0
 10
117.6250929671009
 20
141.4401858710314
 30
0.0
 10
118.4198811432725
 20
141.6656393785023
 30
0.0
 10
118.8340393374789
 20
141.752265490046
 30
0.0
 10
119.6995856780603
 20
141.8702462789001
 30
0.0
 10
120.1374732930721
 20
141.8997574241744
 30
0.0
 10
120.5802435194267
 20
141.8997574241744
 30
0.0
  0
SPLINE
  5
82
330
1F
100
AcDbEntity
  8
0
  6
Continuous
 62
     7
370
    15
100
AcDbSpline
210
0.0
220
0.0
230
1.0
 70
     8
 71
     3
 72
    70
 73
    66
 74
     0
 42
0.00000001
 43
0.00000001
 40
-0.0312500000000001
 40
-0.0312500000000001
 40
0.0
 40
0.0
 40
0.0312499999999999
 40
0.0312499999999999
 40
0.0624999999999998
 40
0.0624999999999998
 40
0.0937499999999997
 40
0.0937499999999997
 40
0.1249999999999996
 40
0.1249999999999996
 40
0.1562499999999994
 40
0.1562499999999994
 40
0.1874999999999993
 40
0.1874999999999993
 40
0.2187499999999992
 40
0.2187499999999992
 40
0.2499999999999991
 40
0.2499999999999991
 40
0.281249999999999
 40
0.281249999999999
 40
0.3124999999999989
 40
0.3124999999999989
 40
0.3437499999999988
 40
0.3437499999999988
 40
0.3749999999999987
 40
0.3749999999999987
 40
0.4062499999999986
 40
0.4062499999999986
 40
0.4374999999999984
 40
0.4374999999999984
 40
0.4687499999999983
 40
0.4687499999999983
 40
0.4999999999999982
 40
0.4999999999999982
 40
0.5312499999999983
 40
0.5312499999999983
 40
0.5624999999999984
 40
0.5624999999999984
 40
0.5937499999999986
 40
0.5937499999999986
 40
0.6249999999999987
 40
0.6249999999999987
 40
0.6562499999999988
 40
0.6562499999999988
 40
0.6874999999999989
 40
0.6874999999999989
 40
0.718749999999999
 40
0.718749999999999
 40
0.7499999999999991
 40
0.7499999999999991
 40
0.7812499999999992
 40
0.7812499999999992
 40
0.8124999999999993
 40
0.8124999999999993
 40
0.8437499999999994
 40
0.8437499999999994
 40
0.8749999999999996
 40
0.8749999999999996
 40
0.9062499999999997
 40
0.9062499999999997
 40
0.9374999999999998
 40
0.9374999999999998
 40
0.9687499999999999
 40
0.9687499999999999
 40
1.0
 40
1.0
 40
1.03125
 40
1.03125
 10
116.6491685123976
 20
128.0619746477903
 30
0.0
 10
116.1200778350773
 20
128.0619746477903
 30
0.0
 10
115.8600071677002
 20
128.0866519425755
 30
0.0
 10
115.3484324878648
 20
128.1831236156174
 30
0.0
 10
115.0942572041246
 20
128.2561045315975
 30
0.0
 10
114.6099865740629
 20
128.4458451345361
 30
0.0
 10
114.3803454821818
 20
128.5617057929299
 30
0.0
 10
113.9457411339483
 20
128.8343236388876
 30
0.0
 10
113.7401753573017
 20
128.9923627209413
 30
0.0
 10
113.3716182167064
 20
129.335905571912
 30
0.0
 10
113.2061372339709
 20
129.5226680160137
 30
0.0
 10
112.9137127245358
 20
129.9262111904104
 30
0.0
 10
112.7896117479093
 20
130.1397081868396
 30
0.0
 10
112.5900325511596
 20
130.5790915007621
 30
0.0
 10
112.5130989653013
 20
130.8082314879077
 30
0.0
 10
112.410241906781
 20
131.2742056106677
 30
0.0
 10
112.3847689973218
 20
131.5070880563439
 30
0.0
 10
112.3844785867541
 20
131.9724855914237
 30
0.0
 10
112.4105032205298
 20
132.2073613488181
 30
0.0
 10
112.5126515050218
 20
132.6588544960643
 30
0.0
 10
112.588227952605
 20
132.8769009714757
 30
0.0
 10
112.7887254837499
 20
133.2979954965135
 30
0.0
 10
112.9138543252583
 20
133.4999168810318
 30
0.0
 10
113.2032131262799
 20
133.8719463635507
 30
0.0
 10
113.3686241133353
 20
134.0445746671311
 30
0.0
 10
113.7416146714831
 20
134.3618926716771
 30
0.0
 10
113.9433477045722
 20
134.5016796051787
 30
0.0
 10
114.3762069554001
 20
134.7458558587306
 30
0.0
 10
114.6101254882895
 20
134.851085369772
 30
0.0
 10
115.0943092234321
 20
135.0192425161472
 30
0.0
 10
115.3436248493876
 20
135.082493406741
 30
0.0
 10
115.8566573738154
 20
135.1680726158436
 30
0.0
 10
116.12195119672
 20
135.189944780766
 30
0.0
 10
116.6442858165897
 20
135.19010843041
 30
0.0
 10
116.9040394790715
 20
135.169106738314
 30
0.0
 10
117.4206512947167
 20
135.0837043832363
 30
0.0
 10
117.673017335217
 20
135.0196981999493
 30
0.0
 10
118.1545424567498
 20
134.8528836799082
 30
0.0
 10
118.3873931888634
 20
134.748750516509
 30
0.0
 10
118.8244830373021
 20
134.502763864014
 30
0.0
 10
119.0258040259593
 20
134.3630140330652
 30
0.0
 10
119.3948900512592
 20
134.0498759633406
 30
0.0
 10
119.5638748023109
 20
133.8744198040705
 30
0.0
 10
119.8543308589701
 20
133.5015795399703
 30
0.0
 10
119.9774026703323
 20
133.3034577298594
 30
0.0
 10
120.1787389117543
 20
132.8827463871257
 30
0.0
 10
120.2559514576965
 20
132.6607563664582
 30
0.0
 10
120.3581550005966
 20
132.2108914267498
 30
0.0
 10
120.3843833520489
 20
131.980636013633
 30
0.0
 10
120.384859751366
 20
131.5093200710839
 30
0.0
 10
120.359117338868
 20
131.2760826553698
 30
0.0
 10
120.2578065625042
 20
130.8144061158717
 30
0.0
 10
120.1809739231132
 20
130.5835087287596
 30
0.0
 10
119.980570083898
 20
130.141232714968
 30
0.0
 10
119.857898585606
 20
129.9301702836821
 30
0.0
 10
119.5679512964418
 20
129.5286717729494
 30
0.0
 10
119.3993803170765
 20
129.3377652508734
 30
0.0
 10
119.0311107229634
 20
128.9940399188764
 30
0.0
 10
118.8300488656931
 20
128.8389027326623
 30
0.0
 10
118.3930179471081
 20
128.5638253725826
 30
0.0
 10
118.1608697339785
 20
128.4467091431605
 30
0.0
 10
117.6798594524797
 20
128.257782658096
 30
0.0
 10
117.4277593696493
 20
128.1847076877017
 30
0.0
 10
116.9106898833902
 20
128.0866556285672
 30
0.0
 10
116.6491685123976
 20
128.0619746477903
 30
0.0
 10
116.1200778350773
 20
128.0619746477903
 30
0.0
  0
SPLINE
  5
83
330
1F
100
AcDbEntity
  8
0
  6
Continuous
 62
     7
370
    15
100
AcDbSpline
210
0.0
220
0.0
230
1.0
 70
     8
 71
     3
 72
    70
 73
    66
 74
     0
 42
0.00000001
 43
0.00000001
 40
-0.0312499999999999
 40
-0.0312499999999999
 40
0.0
 40
0.0
 40
0.0312499999999999
 40
0.0312499999999999
 40
0.0624999999999998
 40
0.0624999999999998
 40
0.0937499999999997
 40
0.0937499999999997
 40
0.1249999999999996
 40
0.1249999999999996
 40
0.1562499999999995
 40
0.1562499999999995
 40
0.1874999999999994
 40
0.1874999999999994
 40
0.2187499999999993
 40
0.2187499999999993
 40
0.2499999999999992
 40
0.2499999999999992
 40
0.2812499999999993
 40
0.2812499999999993
 40
0.3124999999999993
 40
0.3124999999999993
 40
0.3437499999999994
 40
0.3437499999999994
 40
0.3749999999999995
 40
0.3749999999999995
 40
0.4062499999999996
 40
0.4062499999999996
 40
0.4374999999999996
 40
0.4374999999999996
 40
0.4687499999999997
 40
0.4687499999999997
 40
0.4999999999999998
 40
0.4999999999999998
 40
0.5312499999999999
 40
0.5312499999999999
 40
0.5625
 40
0.5625
 40
0.5937500000000001
 40
0.5937500000000001
 40
0.6250000000000002
 40
0.6250000000000002
 40
0.6562500000000004
 40
0.6562500000000004
 40
0.6875000000000006
 40
0.6875000000000006
 40
0.7187500000000007
 40
0.7187500000000007
 40
0.7500000000000008
 40
0.7500000000000008
 40
0.7812500000000007
 40
0.7812500000000007
 40
0.8125000000000006
 40
0.8125000000000006
 40
0.8437500000000004
 40
0.8437500000000004
 40
0.8750000000000003
 40
0.8750000000000003
 40
0.9062500000000003
 40
0.9062500000000003
 40
0.9375000000000002
 40
0.9375000000000002
 40
0.9687500000000001
 40
0.9687500000000001
 40
1.0
 40
1.0
 40
1.03125
 40
1.03125
 10
116.6491685123976
 20
142.5000311565861
 30
0.0
 10
116.1200778350773
 20
142.5000311565861
 30
0.0
 10
115.8600071677002
 20
142.5159315970009
 30
0.0
 10
115.3484324878648
 20
142.5778759471752
 30
0.0
 10
115.0942572041246
 20
142.6246781812665
 30
0.0
 10
114.6099865740629
 20
142.7456551647216
 30
0.0
 10
114.3803454821818
 20
142.8192574925284
 30
0.0
 10
113.9457411339483
 20
142.9910817635065
 30
0.0
 10
113.7401753573017
 20
143.090085186434
 30
0.0
 10
113.3716182167064
 20
143.3031816003468
 30
0.0
 10
113.2061372339709
 20
143.4180813164764
 30
0.0
 10
112.9137127245358
 20
143.6634482151667
 30
0.0
 10
112.7896117479093
 20
143.791888115637
 30
0.0
 10
112.5900325511596
 20
144.052780263723
 30
0.0
 10
112.5130989653013
 20
144.1871614350624
 30
0.0
 10
112.410241906781
 20
144.4564813861687
 30
0.0
 10
112.3847689973218
 20
144.5891626503869
 30
0.0
 10
112.3844785867541
 20
144.8503491245179
 30
0.0
 10
112.4105032205298
 20
144.9801141626826
 30
0.0
 10
112.5126515050218
 20
145.2256967969553
 30
0.0
 10
112.588227952605
 20
145.3423583342642
 30
0.0
 10
112.7887254837499
 20
145.5642635244187
 30
0.0
 10
112.9138543252583
 20
145.6688747783417
 30
0.0
 10
113.2032131262799
 20
145.8589211899498
 30
0.0
 10
113.3686241133353
 20
145.9456808613994
 30
0.0
 10
113.7416146714831
 20
146.103185237151
 30
0.0
 10
113.9433477045722
 20
146.1715105019383
 30
0.0
 10
114.3762069554001
 20
146.2897402255574
 30
0.0
 10
114.6101254882895
 20
146.3400351416613
 30
0.0
 10
115.0943092234321
 20
146.4199006785509
 30
0.0
 10
115.3436248493876
 20
146.4496418063505
 30
0.0
 10
115.8566573738153
 20
146.4897945478587
 30
0.0
 10
116.12195119672
 20
146.4999928172686
 30
0.0
 10
116.6442858165897
 20
146.5000692756533
 30
0.0
 10
116.9040394790715
 20
146.4902782640443
 30
0.0
 10
117.4206512947167
 20
146.4502114253055
 30
0.0
 10
117.673017335217
 20
146.4201142584487
 30
0.0
 10
118.1545424567498
 20
146.3408920486185
 30
0.0
 10
118.3873931888634
 20
146.2911345691551
 30
0.0
 10
118.8244830373021
 20
146.1720426267047
 30
0.0
 10
119.0258040259593
 20
146.1037273651575
 30
0.0
 10
119.3948900512592
 20
145.9483263982239
 30
0.0
 10
119.5638748023109
 20
145.860174056157
 30
0.0
 10
119.8543308589701
 20
145.6697346670406
 30
0.0
 10
119.9774026703323
 20
145.5671100893416
 30
0.0
 10
120.1787389117543
 20
145.3454697427335
 30
0.0
 10
120.2559514576965
 20
145.226715667186
 30
0.0
 10
120.3581550005966
 20
144.9820497282683
 30
0.0
 10
120.3843833520489
 20
144.8548930028197
 30
0.0
 10
120.384859751366
 20
144.5904448569642
 30
0.0
 10
120.359117338868
 20
144.457544176707
 30
0.0
 10
120.2578065625042
 20
144.190751903225
 30
0.0
 10
120.1809739231132
 20
144.0553880017564
 30
0.0
 10
119.980570083898
 20
143.7928082064539
 30
0.0
 10
119.857898585606
 20
143.6658330467001
 30
0.0
 10
119.5679512964418
 20
143.4217536606177
 30
0.0
 10
119.3993803170765
 20
143.3043285358638
 30
0.0
 10
119.0311107229634
 20
143.0911320749154
 30
0.0
 10
118.8300488656931
 20
142.9939579564905
 30
0.0
 10
118.3930179471081
 20
142.8206030692763
 30
0.0
 10
118.1608697339785
 20
142.7462035176196
 30
0.0
 10
117.6798594524797
 20
142.625750638115
 30
0.0
 10
117.4277593696493
 20
142.578892262849
 30
0.0
 10
116.9106898833902
 20
142.5159347658652
 30
0.0
 10
116.6491685123976
 20
142.5000311565861
 30
0.0
 10
116.1200778350773
 20
142.5000311565861
 30
0.0
  0
LINE
  5
84
330
1F
100
AcDbEntity
  8
0
  6
Continuous
 62
     7
370
    15
100
AcDbLine
 10
108.3846231737
 20
86.2410686082
 30
0.0
 11
108.3846231737
 21
148.6410669154
 31
0.0
  0
SPLINE
  5
85
330
1F
100
AcDbEntity
  8
0
  6
Continuous
 62
     7
370
    15
100
AcDbSpline
210
0.0
220
0.0
230
1.0
 70
     8
 71
     3
 72
     8
 73
     4
 74
     0
 42
0.00000001
 43
0.00000001
 40
0.0
 40
0.0
 40
0.0
 40
0.0
 40
1.0
 40
1.0
 40
1.0
 40
1.0
 10
129.7765560052265
 20
87.25415006555981
 30
0.0
 10
129.2810763445608
 20
88.14967615349317
 30
0.0
 10
128.7869622965187
 20
89.04596056854542
 30
0.0
 10
128.2946231737375
 20
89.94323060275212
 30
0.0
  0
LINE
  5
86
330
1F
100
AcDbEntity
  8
0
  6
Continuous
 62
     7
370
    15
100
AcDbLine
 10
128.2946234384
 20
89.9432304418
 30
0.0
 11
128.2946234384
 21
137.2910685009
 31
0.0
  0
SPLINE
  5
87
330
1F
100
AcDbEntity
  8
0
  6
Continuous
 62
     7
370
    15
100
AcDbSpline
210
0.0
220
0.0
230
1.0
 70
    24
 71
     3
 72
     8
 73
     4
 74
     0
 42
0.00000001
 43
0.00000001
 40
0.0
 40
0.0
 40
0.0
 40
0.0
 40
1.0
 40
1.0
 40
1.0
 40
1.0
 10
128.2946231737375
 20
137.291067761807
 30
0.0
 10
128.7745751681024
 20
137.291067761807
 30
0.0
 10
129.269875897076
 20
137.291067761807
 30
0.0
 10
129.7765560052265
 20
137.291067761807
 30
0.0
  0
LINE
  5
88
330
1F
100
AcDbEntity
  8
0
  6
Continuous
 62
     7
370
    15
100
AcDbLine
 10
124.474623222
 20
89.9432304418
 30
0.0
 11
124.474623222
 21
137.2910685009
 31
0.0
  0
SPLINE
  5
89
330
1F
100
AcDbEntity
  8
0
  6
Continuous
 62
     7
370
    15
100
AcDbSpline
210
0.0
220
0.0
230
1.0
 70
     8
 71
     3
 72
     8
 73
     4
 74
     0
 42
0.00000001
 43
0.00000001
 40
0.0
 40
0.0
 40
0.0
 40
0.0
 40
1.0
 40
1.0
 40
1.0
 40
1.0
 10
124.4746231737375
 20
89.94323060275211
 30
0.0
 10
123.9822840509563
 20
89.04596056854541
 30
0.0
 10
123.4881700029141
 20
88.14967615349317
 30
0.0
 10
122.9926903422484
 20
87.25415006555981
 30
0.0
  0
SPLINE
  5
8A
330
1F
100
AcDbEntity
  8
0
  6
Continuous
 62
     7
370
    15
100
AcDbSpline
210
0.0
220
0.0
230
1.0
 70
    24
 71
     3
 72
     8
 73
     4
 74
     0
 42
0.00000001
 43
0.00000001
 40
0.0
 40
0.0
 40
0.0
 40
0.0
 40
1.0
 40
1.0
 40
1.0
 40
1.0
 10
122.9926903422484
 20
137.291067761807
 30
0.0
 10
123.4993704503989
 20
137.291067761807
 30
0.0
 10
123.9946711793726
 20
137.291067761807
 30
0.0
 10
124.4746231737375
 20
137.291067761807
 30
0.0
  0
ARC
  5
8B
330
1F
100
AcDbEntity
  8
0
  6
Continuous
 62
     7
370
    15
100
AcDbCircle
 10
116.382096672
 20
129.3528621651
 30
0.0
 40
4.110156032299375
100
AcDbArc
 50
19.1742613699
 51
159.6514936674
  0
SPLINE
  5
8C
330
1F
100
AcDbEntity
  8
0
  6
Continuous
 62
     7
370
    15
100
AcDbSpline
210
0.0
220
0.0
230
1.0
 70
    24
 71
     3
 72
    14
 73
    10
 74
     0
 42
0.00000001
 43
0.00000001
 40
0.0
 40
0.0
 40
0.0
 40
0.0
 40
0.5
 40
0.5
 40
0.75
 40
0.75
 40
0.875
 40
0.875
 40
1.0
 40
1.0
 40
1.0
 40
1.0
 10
128.1969483714052
 20
91.04106776180699
 30
0.0
 10
128.1501636663569
 20
91.04106776180699
 30
0.0
 10
128.0881124695773
 20
91.04106776180699
 30
0.0
 10
127.9447208310268
 20
91.04106776180697
 30
0.0
 10
127.8885771774756
 20
91.04106776180699
 30
0.0
 10
127.7756261553394
 20
91.04106776180697
 30
0.0
 10
127.7326253933013
 20
91.04106776180699
 30
0.0
 10
127.6285626829948
 20
91.04106776180697
 30
0.0
 10
127.5632304446379
 20
91.04106776180697
 30
0.0
 10
127.4946231737375
 20
91.04106776180699
 30
0.0
  0
SPLINE
  5
8D
330
1F
100
AcDbEntity
  8
0
  6
Continuous
 62
     7
370
    15
100
AcDbSpline
210
0.0
220
0.0
230
1.0
 70
    24
 71
     3
 72
    12
 73
     8
 74
     0
 42
0.00000001
 43
0.00000001
 40
0.0
 40
0.0
 40
0.0
 40
0.0
 40
0.5000000000000017
 40
0.5000000000000017
 40
0.7500000000000008
 40
0.7500000000000008
 40
1.0
 40
1.0
 40
1.0
 40
1.0
 10
127.9003256420465
 20
143.841067761807
 30
0.0
 10
127.8572400924355
 20
143.841067761807
 30
0.0
 10
127.8080878906862
 20
143.841067761807
 30
0.0
 10
127.7116152963983
 20
143.841067761807
 30
0.0
 10
127.6755137112637
 20
143.841067761807
 30
0.0
 10
127.5924079534025
 20
143.841067761807
 30
0.0
 10
127.5444113564362
 20
143.841067761807
 30
0.0
 10
127.4946231737375
 20
143.841067761807
 30
0.0
  0
SPLINE
  5
8E
330
1F
100
AcDbEntity
  8
0
  6
Continuous
 62
     7
370
    15
100
AcDbSpline
210
0.0
220
0.0
230
1.0
 70
     8
 71
     3
 72
    10
 73
     6
 74
     0
 42
0.00000001
 43
0.00000001
 40
0.0
 40
0.0
 40
0.0
 40
0.0
 40
0.5
 40
0.5
 40
1.0
 40
1.0
 40
1.0
 40
1.0
 10
128.2946231737375
 20
144.5607216128427
 30
0.0
 10
128.2946231737375
 20
144.4169515550247
 30
0.0
 10
128.2585741150186
 20
144.2745321925296
 30
0.0
 10
128.1230652542446
 20
144.0246378991723
 30
0.0
 10
128.0231892611484
 20
143.9166075629242
 30
0.0
 10
127.9003256420465
 20
143.8410677618069
 30
0.0
  0
SPLINE
  5
8F
330
1F
100
AcDbEntity
  8
0
  6
Continuous
 62
     7
370
    15
100
AcDbSpline
210
0.0
220
0.0
230
1.0
 70
     8
 71
     3
 72
    10
 73
     6
 74
     0
 42
0.00000001
 43
0.00000001
 40
0.0
 40
0.0
 40
0.0
 40
0.0
 40
0.5
 40
0.5
 40
1.0
 40
1.0
 40
1.0
 40
1.0
 10
128.2684755505773
 20
137.291067761807
 30
0.0
 10
128.277165193489
 20
137.3379466111251
 30
0.0
 10
128.2837042582395
 20
137.3853690765265
 30
0.0
 10
128.2924628926326
 20
137.4813058751133
 30
0.0
 10
128.2946231737375
 20
137.5292211631238
 30
0.0
 10
128.2946231737375
 20
137.5769343932683
 30
0.0
  0
SPLINE
  5
90
330
1F
100
AcDbEntity
  8
0
  6
Continuous
 62
     7
370
    15
100
AcDbSpline
210
0.0
220
0.0
230
1.0
 70
     8
 71
     3
 72
    10
 73
     6
 74
     0
 42
0.00000001
 43
0.00000001
 40
0.0
 40
0.0
 40
0.0
 40
0.0
 40
0.5
 40
0.5
 40
1.0
 40
1.0
 40
1.0
 40
1.0
 10
124.8689207054284
 20
143.841067761807
 30
0.0
 10
124.7473804417599
 20
143.9157939290188
 30
0.0
 10
124.646046081411
 20
144.0247389449355
 30
0.0
 10
124.5104071385225
 20
144.2751694256971
 30
0.0
 10
124.4746231737375
 20
144.4175887877961
 30
0.0
 10
124.4746231737375
 20
144.5607216128427
 30
0.0
  0
SPLINE
  5
91
330
1F
100
AcDbEntity
  8
0
  6
Continuous
 62
     7
370
    15
100
AcDbSpline
210
0.0
220
0.0
230
1.0
 70
    24
 71
     3
 72
    12
 73
     8
 74
     0
 42
0.00000001
 43
0.00000001
 40
0.0
 40
0.0
 40
0.0
 40
0.0
 40
0.2499999999999992
 40
0.2499999999999992
 40
0.4999999999999983
 40
0.4999999999999983
 40
1.0
 40
1.0
 40
1.0
 40
1.0
 10
125.2746231737375
 20
143.841067761807
 30
0.0
 10
125.2247464914201
 20
143.841067761807
 30
0.0
 10
125.1767432980164
 20
143.841067761807
 30
0.0
 10
125.0936951953044
 20
143.841067761807
 30
0.0
 10
125.0575656158366
 20
143.841067761807
 30
0.0
 10
124.9616535848924
 20
143.841067761807
 30
0.0
 10
124.9118949169236
 20
143.841067761807
 30
0.0
 10
124.8689207054284
 20
143.841067761807
 30
0.0
  0
SPLINE
  5
92
330
1F
100
AcDbEntity
  8
0
  6
Continuous
 62
     7
370
    15
100
AcDbSpline
210
0.0
220
0.0
230
1.0
 70
    24
 71
     3
 72
    14
 73
    10
 74
     0
 42
0.00000001
 43
0.00000001
 40
0.0
 40
0.0
 40
0.0
 40
0.0
 40
0.1250000000000012
 40
0.1250000000000012
 40
0.2500000000000024
 40
0.2500000000000024
 40
0.5000000000000013
 40
0.5000000000000013
 40
1.0
 40
1.0
 40
1.0
 40
1.0
 10
125.2746231737374
 20
91.04106776180699
 30
0.0
 10
125.206185325851
 20
91.04106776180699
 30
0.0
 10
125.140635287086
 20
91.04106776180699
 30
0.0
 10
125.036208647678
 20
91.04106776180699
 30
0.0
 10
124.9936640379166
 20
91.04106776180697
 30
0.0
 10
124.8810545773763
 20
91.04106776180697
 30
0.0
 10
124.8255155303569
 20
91.04106776180697
 30
0.0
 10
124.6829038348931
 20
91.04106776180699
 30
0.0
 10
124.6194984798973
 20
91.04106776180697
 30
0.0
 10
124.5722979760697
 20
91.04106776180699
 30
0.0
  0
SPLINE
  5
93
330
1F
100
AcDbEntity
  8
0
  6
Continuous
 62
     7
370
    15
100
AcDbSpline
210
0.0
220
0.0
230
1.0
 70
     8
 71
     3
 72
    10
 73
     6
 74
     0
 42
0.00000001
 43
0.00000001
 40
0.0
 40
0.0
 40
0.0
 40
0.0
 40
0.5
 40
0.5
 40
1.0
 40
1.0
 40
1.0
 40
1.0
 10
124.4746231737375
 20
137.5769343932683
 30
0.0
 10
124.4746231737375
 20
137.5291628852751
 30
0.0
 10
124.4767844173346
 20
137.4814531632134
 30
0.0
 10
124.4854557911948
 20
137.3861580456651
 30
0.0
 10
124.4919849741508
 20
137.3384654816985
 30
0.0
 10
124.5007707968976
 20
137.291067761807
 30
0.0
  0
LINE
  5
94
330
1F
100
AcDbEntity
  8
0
  6
Continuous
 62
     7
370
    15
100
AcDbLine
 10
127.4946229347
 20
143.8410676188
 30
0.0
 11
125.2746237257
 21
143.8410676188
 31
0.0
  0
LINE
  5
95
330
1F
100
AcDbEntity
  8
0
  6
Continuous
 62
     7
370
    15
100
AcDbLine
 10
127.4946229347
 20
91.0410679049
 30
0.0
 11
125.2746237257
 21
91.0410679049
 31
0.0
  0
LINE
  5
96
330
1F
100
AcDbEntity
  8
0
  6
Continuous
 62
     7
370
    15
100
AcDbLine
 10
86.5846229532
 20
94.2126217401
 30
0.0
 11
86.5846229532
 21
95.4773298568
 31
0.0
  0
SPLINE
  5
97
330
1F
100
AcDbEntity
  8
0
  6
Continuous
 62
     7
370
    15
100
AcDbSpline
210
0.0
220
0.0
230
1.0
 70
     8
 71
     3
 72
    14
 73
    10
 74
     0
 42
0.00000001
 43
0.00000001
 40
0.0
 40
0.0
 40
0.0
 40
0.0
 40
0.25
 40
0.25
 40
0.5
 40
0.5
 40
0.75
 40
0.75
 40
1.0
 40
1.0
 40
1.0
 40
1.0
 10
85.80633605582175
 20
96.60791643824703
 30
0.0
 10
85.86296273102383
 20
96.50021898441017
 30
0.0
 10
85.95748539131355
 20
96.39742940269085
 30
0.0
 10
86.14053036687578
 20
96.1990720904707
 30
0.0
 10
86.23215694383052
 20
96.10301258179246
 30
0.0
 10
86.3910102615237
 20
95.9154835390832
 30
0.0
 10
86.4589008691454
 20
95.82407456629966
 30
0.0
 10
86.55581789485299
 20
95.64569834538949
 30
0.0
 10
86.58462317373805
 20
95.55847643914332
 30
0.0
 10
86.58462317373804
 20
95.47733023060906
 30
0.0
  0
SPLINE
  5
98
330
1F
100
AcDbEntity
  8
0
  6
Continuous
 62
     7
370
    15
100
AcDbSpline
210
0.0
220
0.0
230
1.0
 70
     8
 71
     3
 72
    14
 73
    10
 74
     0
 42
0.00000001
 43
0.00000001
 40
0.0
 40
0.0
 40
0.0
 40
0.0
 40
0.125
 40
0.125
 40
0.25
 40
0.25
 40
0.5
 40
0.5
 40
1.0
 40
1.0
 40
1.0
 40
1.0
 10
85.18462317373746
 20
97.05459830052635
 30
0.0
 10
85.23316758239463
 20
97.06034661380663
 30
0.0
 10
85.28608293717954
 20
97.0572457251504
 30
0.0
 10
85.38137828216257
 20
97.03505088098807
 30
0.0
 10
85.42162927944753
 20
97.0178186538922
 30
0.0
 10
85.52589929296049
 20
96.96149073744014
 30
0.0
 10
85.57622126811383
 20
96.91730439149434
 30
0.0
 10
85.7039042156392
 20
96.78629649264373
 30
0.0
 10
85.75998966270147
 20
96.69606197241343
 30
0.0
 10
85.80633605582322
 20
96.60791643824756
 30
0.0
  0
SPLINE
  5
99
330
1F
100
AcDbEntity
  8
0
  6
Continuous
 62
     7
370
    15
100
AcDbSpline
210
0.0
220
0.0
230
1.0
 70
     8
 71
     3
 72
     8
 73
     4
 74
     0
 42
0.00000001
 43
0.00000001
 40
0.0
 40
0.0
 40
0.0
 40
0.0
 40
1.0
 40
1.0
 40
1.0
 40
1.0
 10
82.9160980807912
 20
96.74475301394354
 30
0.0
 10
83.65067510727417
 20
96.86337802501251
 30
0.0
 10
84.41415017666984
 20
96.9633638971488
 30
0.0
 10
85.18462317373746
 20
97.05459830052635
 30
0.0
  0
SPLINE
  5
9A
330
1F
100
AcDbEntity
  8
0
  6
Continuous
 62
     7
370
    15
100
AcDbSpline
210
0.0
220
0.0
230
1.0
 70
     8
 71
     3
 72
    14
 73
    10
 74
     0
 42
0.00000001
 43
0.00000001
 40
0.0
 40
0.0
 40
0.0
 40
0.0
 40
0.5000000000000002
 40
0.5000000000000002
 40
0.7500000000000002
 40
0.7500000000000002
 40
0.8750000000000001
 40
0.8750000000000001
 40
1.0
 40
1.0
 40
1.0
 40
1.0
 10
77.63462317373747
 20
96.5711299964119
 30
0.0
 10
78.52676930429104
 20
96.57040777021125
 30
0.0
 10
79.41674574008462
 20
96.57499397666872
 30
0.0
 10
80.7433409071602
 20
96.60271898106025
 30
0.0
 10
81.18418783565893
 20
96.61532551868443
 30
0.0
 10
81.84062807308136
 20
96.64634166669187
 30
0.0
 10
82.05864172967324
 20
96.65868483931865
 30
0.0
 10
82.491350583356
 20
96.69170889448192
 30
0.0
 10
82.7066270485208
 20
96.71092605962036
 30
0.0
 10
82.9160980807912
 20
96.74475301394354
 30
0.0
  0
SPLINE
  5
9B
330
1F
100
AcDbEntity
  8
0
  6
Continuous
 62
     7
370
    15
100
AcDbSpline
210
0.0
220
0.0
230
1.0
 70
     8
 71
     3
 72
     8
 73
     4
 74
     0
 42
0.00000001
 43
0.00000001
 40
0.0000005163856711
 40
0.0000005163856711
 40
0.0000005163856711
 40
0.0000005163856711
 40
0.000026289209185
 40
0.000026289209185
 40
0.000026289209185
 40
0.000026289209185
 10
77.62457824331877
 20
96.58111386951978
 30
0.0
 10
77.62790598153025
 20
96.57777962264696
 30
0.0
 10
77.63125443450954
 20
96.57445166536793
 30
0.0
 10
77.63462317373744
 20
96.57112999641188
 30
0.0
  0
SPLINE
  5
9C
330
1F
100
AcDbEntity
  8
0
  6
Continuous
 62
     7
370
    15
100
AcDbSpline
210
0.0
220
0.0
230
1.0
 70
     8
 71
     3
 72
     8
 73
     4
 74
     0
 42
0.00000001
 43
0.00000001
 40
0.0000005099763573
 40
0.0000005099763573
 40
0.0000005099763573
 40
0.0000005099763573
 40
0.0000262827998699
 40
0.0000262827998699
 40
0.0000262827998699
 40
0.0000262827998699
 10
77.63462317373745
 20
138.311005527202
 30
0.0
 10
77.63125443450971
 20
138.3076838582462
 30
0.0
 10
77.62790598153057
 20
138.3043559009673
 30
0.0
 10
77.62457824331925
 20
138.3010216540946
 30
0.0
  0
SPLINE
  5
9D
330
1F
100
AcDbEntity
  8
0
  6
Continuous
 62
     7
370
    15
100
AcDbSpline
210
0.0
220
0.0
230
1.0
 70
     8
 71
     3
 72
    10
 73
     6
 74
     0
 42
0.00000001
 43
0.00000001
 40
0.0
 40
0.0
 40
0.0
 40
0.0
 40
0.5
 40
0.5
 40
1.0
 40
1.0
 40
1.0
 40
1.0
 10
81.18462317373748
 20
138.2641551536347
 30
0.0
 10
80.59703762664688
 20
138.2852206738712
 30
0.0
 10
80.00629123318649
 20
138.2959791597434
 30
0.0
 10
78.82227206788764
 20
138.309343940279
 30
0.0
 10
78.22885807968217
 20
138.3114865829436
 30
0.0
 10
77.63462317373747
 20
138.311005527202
 30
0.0
  0
SPLINE
  5
9E
330
1F
100
AcDbEntity
  8
0
  6
Continuous
 62
     7
370
    15
100
AcDbSpline
210
0.0
220
0.0
230
1.0
 70
     8
 71
     3
 72
    18
 73
    14
 74
     0
 42
0.00000001
 43
0.00000001
 40
0.0
 40
0.0
 40
0.0
 40
0.0
 40
0.2500000000000008
 40
0.2500000000000008
 40
0.5000000000000009
 40
0.5000000000000009
 40
0.7500000000000009
 40
0.7500000000000009
 40
0.875000000000001
 40
0.875000000000001
 40
0.9375000000000006
 40
0.9375000000000006
 40
1.0
 40
1.0
 40
1.0
 40
1.0
 10
82.58462317373748
 20
139.28517543417
 30
0.0
 10
82.5846231737375
 20
139.2019685253128
 30
0.0
 10
82.54877407379922
 20
139.1132318699992
 30
0.0
 10
82.4239023377653
 20
138.931106679439
 30
0.0
 10
82.33350192011743
 20
138.8359766308124
 30
0.0
 10
82.11125926537524
 20
138.646795121688
 30
0.0
 10
81.98149447892946
 20
138.5518499535933
 30
0.0
 10
81.74085702161797
 20
138.4135712460134
 30
0.0
 10
81.65308972348053
 20
138.367860812711
 30
0.0
 10
81.4985656362737
 20
138.3100375074895
 30
0.0
 10
81.44195475021895
 20
138.2923227434516
 30
0.0
 10
81.31791071931235
 20
138.2677834402187
 30
0.0
 10
81.25019604429407
 20
138.2618043016805
 30
0.0
 10
81.18462317373746
 20
138.2641551536347
 30
0.0
  0
LINE
  5
9F
330
1F
100
AcDbEntity
  8
0
  6
Continuous
 62
     7
370
    15
100
AcDbLine
 10
82.5846222975
 20
139.2851754195
 30
0.0
 11
82.5846222975
 21
140.4691136545
 31
0.0
  0
LINE
  5
A0
330
1F
100
AcDbEntity
  8
0
  6
Continuous
 62
     7
370
    15
100
AcDbLine
 10
106.3846230787
 20
93.2206365383
 30
0.0
 11
106.3846230787
 21
141.6614989853
 31
0.0
  0
SPLINE
  5
A1
330
1F
100
AcDbEntity
  8
0
  6
Continuous
 62
     7
370
    15
100
AcDbSpline
210
0.0
220
0.0
230
1.0
 70
     8
 71
     3
 72
    24
 73
    20
 74
     0
 42
0.00000001
 43
0.00000001
 40
0.0
 40
0.0
 40
0.0
 40
0.0
 40
0.0010489815523775
 40
0.0637843212772741
 40
0.1272220630088516
 40
0.1903789073370505
 40
0.2526748662763491
 40
0.3146354150030102
 40
0.3770891884518245
 40
0.4393540587943444
 40
0.5008133488401828
 40
0.5621845177353679
 40
0.6248438462901906
 40
0.6874304788646655
 40
0.7496743245911356
 40
0.811984857412469
 40
0.8750960476811308
 40
0.9384412548145236
 40
1.0
 40
1.0
 40
1.0
 40
1.0
 10
95.15352917846435
 20
93.78355956736041
 30
0.0
 10
95.15308251271364
 20
93.78350092239393
 30
0.0
 10
95.12592257679002
 20
93.77993495941324
 30
0.0
 10
95.22155249992186
 20
93.79279956888844
 30
0.0
 10
95.45510567594236
 20
93.8220340512285
 30
0.0
 10
95.85066162817677
 20
93.86865326196992
 30
0.0
 10
96.37770162854677
 20
93.91883406139509
 30
0.0
 10
97.02123207038305
 20
93.96321273483814
 30
0.0
 10
97.75990590465275
 20
93.99015593134894
 30
0.0
 10
98.55742057477163
 20
93.99362767965107
 30
0.0
 10
99.3839996245362
 20
93.96600223335764
 30
0.0
 10
100.2095224459549
 20
93.907521090379
 30
0.0
 10
101.0016489168705
 20
93.82207802698042
 30
0.0
 10
101.7342212957078
 20
93.72034285848791
 30
0.0
 10
102.3698614775286
 20
93.61249920743998
 30
0.0
 10
102.8917724080748
 20
93.51086781216515
 30
0.0
 10
103.2734012457137
 20
93.42838584787265
 30
0.0
 10
103.5242159216471
 20
93.37223374036574
 30
0.0
 10
103.5533372373544
 20
93.36538488945287
 30
0.0
 10
103.567689638698
 20
93.36200944247676
 30
0.0
  0
SPLINE
  5
A2
330
1F
100
AcDbEntity
  8
0
  6
Continuous
 62
     7
370
    15
100
AcDbSpline
210
0.0
220
0.0
230
1.0
 70
     8
 71
     3
 72
    24
 73
    20
 74
     0
 42
0.00000001
 43
0.00000001
 40
0.0
 40
0.0
 40
0.0
 40
0.0
 40
0.061438429114026
 40
0.1250736777967296
 40
0.1884253375120635
 40
0.2508623992448768
 40
0.3129665476325514
 40
0.3753451442328022
 40
0.4377328732174486
 40
0.499092717251918
 40
0.560580729454827
 40
0.622946985474185
 40
0.6854686070210457
 40
0.7475477863222202
 40
0.8098225081553685
 40
0.873068419947611
 40
0.936404185690527
 40
0.9991757203144552
 40
1.0
 40
1.0
 40
1.0
 40
1.0
 10
103.5676351563274
 20
141.5200962788148
 30
0.0
 10
103.5530343478752
 20
141.5167281209418
 30
0.0
 10
103.5233106580242
 20
141.5098713718575
 30
0.0
 10
103.2705726580383
 20
141.4535335519614
 30
0.0
 10
102.8875773590172
 20
141.3706757390761
 30
0.0
 10
102.3652214021342
 20
141.2687689908551
 30
0.0
 10
101.7304370574326
 20
141.160930420966
 30
0.0
 10
101.0002133208184
 20
141.059464167737
 30
0.0
 10
100.2097452259073
 20
140.9744020891698
 30
0.0
 10
99.38526149844957
 20
140.9162007322132
 30
0.0
 10
98.5582251179695
 20
140.8886162845286
 30
0.0
 10
97.75990065897905
 20
140.8921102130628
 30
0.0
 10
97.02007690797946
 20
140.9190638717365
 30
0.0
 10
96.37582203651984
 20
140.9634193723499
 30
0.0
 10
95.84841517942226
 20
141.0136245560726
 30
0.0
 10
95.45374993910919
 20
141.0602320161178
 30
0.0
 10
95.22122125352101
 20
141.0894351929562
 30
0.0
 10
95.12584202485472
 20
141.1021933316734
 30
0.0
 10
95.15277496918154
 20
141.0986535017546
 30
0.0
 10
95.1531240531444
 20
141.098607621221
 30
0.0
  0
SPLINE
  5
A3
330
1F
100
AcDbEntity
  8
0
  6
Continuous
 62
     7
370
    15
100
AcDbSpline
210
0.0
220
0.0
230
1.0
 70
     8
 71
     3
 72
     9
 73
     5
 74
     0
 42
0.00000001
 43
0.00000001
 40
0.0
 40
0.0
 40
0.0
 40
0.0
 40
0.7009339503679092
 40
0.9999999999999999
 40
0.9999999999999999
 40
0.9999999999999999
 40
0.9999999999999999
 10
76.50540674116606
 20
97.73978806200458
 30
0.0
 10
76.51454741211589
 20
97.72195877824367
 30
0.0
 10
76.5275881143747
 20
97.69652231058288
 30
0.0
 10
76.54275157764297
 20
97.75040167005643
 30
0.0
 10
76.54728645470136
 20
97.7665151572509
 30
0.0
  0
LINE
  5
A4
330
1F
100
AcDbEntity
  8
0
  6
Continuous
 62
     7
370
    15
100
AcDbLine
 10
76.4846233466
 20
97.7503902382
 30
0.0
 11
76.4846233466
 21
137.1317452854
 31
0.0
  0
SPLINE
  5
A5
330
1F
100
AcDbEntity
  8
0
  6
Continuous
 62
     7
370
    15
100
AcDbSpline
210
0.0
220
0.0
230
1.0
 70
     8
 71
     3
 72
    10
 73
     6
 74
     0
 42
0.00000001
 43
0.00000001
 40
0.0
 40
0.0
 40
0.0
 40
0.0
 40
0.5
 40
0.5
 40
1.0
 40
1.0
 40
1.0
 40
1.0
 10
76.54728654846087
 20
137.1156203065877
 30
0.0
 10
76.5383822593521
 20
137.1613618258009
 30
0.0
 10
76.52186687915913
 20
137.1785526652699
 30
0.0
 10
76.49475893309751
 20
137.1782293883342
 30
0.0
 10
76.48462317373748
 20
137.1603518460377
 30
0.0
 10
76.48462317373748
 20
137.1317455082851
 30
0.0
  0
SPLINE
  5
A6
330
1F
100
AcDbEntity
  8
0
  6
Continuous
 62
     7
370
    15
100
AcDbSpline
210
0.0
220
0.0
230
1.0
 70
     8
 71
     3
 72
    26
 73
    22
 74
     0
 42
0.00000001
 43
0.00000001
 40
0.0
 40
0.0
 40
0.0
 40
0.0
 40
0.2500000000000165
 40
0.2500000000000165
 40
0.3750000000000256
 40
0.3750000000000256
 40
0.4375000000000291
 40
0.4375000000000291
 40
0.4687500000000291
 40
0.4687500000000291
 40
0.5000000000000292
 40
0.5000000000000292
 40
0.5312500000000293
 40
0.5312500000000293
 40
0.5625000000000293
 40
0.5625000000000293
 40
0.625000000000026
 40
0.625000000000026
 40
0.7500000000000173
 40
0.7500000000000173
 40
1.0
 40
1.0
 40
1.0
 40
1.0
 10
77.30877681984198
 20
137.8311870954048
 30
0.0
 10
77.27017629697352
 20
137.7134123990494
 30
0.0
 10
77.22387929441925
 20
137.5890227128874
 30
0.0
 10
77.12993994598533
 20
137.383803380534
 30
0.0
 10
77.09462847907186
 20
137.3122305140875
 30
0.0
 10
77.02844850332619
 20
137.1962772814871
 30
0.0
 10
77.00391013665796
 20
137.1556927466768
 30
0.0
 10
76.96053739110417
 20
137.0915510648051
 30
0.0
 10
76.94502898967897
 20
137.06968463952
 30
0.0
 10
76.90998634509194
 20
137.0240903711769
 30
0.0
 10
76.89043605437217
 20
137.0004200802094
 30
0.0
 10
76.84850877400157
 20
136.9558035208695
 30
0.0
 10
76.82585666376993
 20
136.9349235083516
 30
0.0
 10
76.78488294968331
 20
136.9040500946007
 30
0.0
 10
76.76728364978788
 20
136.8942112247683
 30
0.0
 10
76.72265666393173
 20
136.8752216090722
 30
0.0
 10
76.7020974412784
 20
136.8748972844187
 30
0.0
 10
76.65097200178172
 20
136.8841207252949
 30
0.0
 10
76.63006058879319
 20
136.9053676215119
 30
0.0
 10
76.57861068123226
 20
136.9793365003427
 30
0.0
 10
76.56094538192771
 20
137.0454545936574
 30
0.0
 10
76.54728654846087
 20
137.1156203065877
 30
0.0
  0
SPLINE
  5
A7
330
1F
100
AcDbEntity
  8
0
  6
Continuous
 62
     7
370
    15
100
AcDbSpline
210
0.0
220
0.0
230
1.0
 70
     8
 71
     3
 72
    10
 73
     6
 74
     0
 42
0.00000001
 43
0.00000001
 40
0.0
 40
0.0
 40
0.0
 40
0.0
 40
0.5
 40
0.5
 40
1.0
 40
1.0
 40
1.0
 40
1.0
 10
77.62457824331926
 20
138.3010216540946
 30
0.0
 10
77.55701898840103
 20
138.2333302612849
 30
0.0
 10
77.49338233306453
 20
138.1586230965312
 30
0.0
 10
77.38316157849266
 20
137.9996569641046
 30
0.0
 10
77.33634528527004
 20
137.9153016980966
 30
0.0
 10
77.30877681984197
 20
137.8311870954048
 30
0.0
  0
SPLINE
  5
A8
330
1F
100
AcDbEntity
  8
0
  6
Continuous
 62
     7
370
    15
100
AcDbSpline
210
0.0
220
0.0
230
1.0
 70
     8
 71
     3
 72
    10
 73
     6
 74
     0
 42
0.00000001
 43
0.00000001
 40
0.0
 40
0.0
 40
0.0
 40
0.0
 40
0.5
 40
0.5
 40
1.0
 40
1.0
 40
1.0
 40
1.0
 10
77.30877681984202
 20
97.05094842820901
 30
0.0
 10
77.33625423459523
 20
96.96711163174342
 30
0.0
 10
77.38296286488287
 20
96.88280114415659
 30
0.0
 10
77.49324132762483
 20
96.72367991367373
 30
0.0
 10
77.55712886623645
 20
96.64869516958566
 30
0.0
 10
77.62457824331878
 20
96.5811138695198
 30
0.0
  0
SPLINE
  5
A9
330
1F
100
AcDbEntity
  8
0
  6
Continuous
 62
     7
370
    15
100
AcDbSpline
210
0.0
220
0.0
230
1.0
 70
     8
 71
     3
 72
    24
 73
    20
 74
     0
 42
0.00000001
 43
0.00000001
 40
0.0
 40
0.0
 40
0.0
 40
0.0
 40
0.249999999999999
 40
0.249999999999999
 40
0.3749999999999983
 40
0.3749999999999983
 40
0.4374999999999987
 40
0.4374999999999987
 40
0.4687499999999975
 40
0.4687499999999975
 40
0.4999999999999963
 40
0.4999999999999963
 40
0.5624999999999984
 40
0.5624999999999984
 40
0.6250000000000006
 40
0.6250000000000006
 40
0.7500000000000001
 40
0.7500000000000001
 40
1.0
 40
1.0
 40
1.0
 40
1.0
 10
76.54728654846087
 20
97.76651521702622
 30
0.0
 10
76.5610396671311
 20
97.83716527501652
 30
0.0
 10
76.57881223453697
 20
97.90376338778145
 30
0.0
 10
76.63106332609232
 20
97.97786140801465
 30
0.0
 10
76.6520984016739
 20
97.99911921517621
 30
0.0
 10
76.70499880930231
 20
98.00726514132245
 30
0.0
 10
76.72610448218023
 20
98.00632533792667
 30
0.0
 10
76.77215665085821
 20
97.98530934634931
 30
0.0
 10
76.7905271228416
 20
97.97440054024172
 30
0.0
 10
76.83207875790731
 20
97.94176562929434
 30
0.0
 10
76.85464543066422
 20
97.92027364892296
 30
0.0
 10
76.91742644712424
 20
97.85180770533665
 30
0.0
 10
76.95055620809212
 20
97.80573324713156
 30
0.0
 10
77.00747389457716
 20
97.72072535879688
 30
0.0
 10
77.0316599200809
 20
97.68044505761551
 30
0.0
 10
77.09686787046066
 20
97.56550883114957
 30
0.0
 10
77.13158393065191
 20
97.49492584600256
 30
0.0
 10
77.2247992009828
 20
97.29072008692397
 30
0.0
 10
77.27047173634348
 20
97.1678217045966
 30
0.0
 10
77.30877681984201
 20
97.05094842820903
 30
0.0
  0
SPLINE
  5
AA
330
1F
100
AcDbEntity
  8
0
  6
Continuous
 62
     7
370
    15
100
AcDbSpline
210
0.0
220
0.0
230
1.0
 70
     8
 71
     3
 72
     8
 73
     4
 74
     0
 42
0.00000001
 43
0.00000001
 40
0.0
 40
0.0
 40
0.0
 40
0.0
 40
1.0
 40
1.0
 40
1.0
 40
1.0
 10
129.7765560052265
 20
147.9082632349712
 30
0.0
 10
129.2814159758622
 20
147.021583586791
 30
0.0
 10
128.7873332705832
 20
146.134320951105
 30
0.0
 10
128.2946231737375
 20
145.2463019529786
 30
0.0
  0
LINE
  5
AB
330
1F
100
AcDbEntity
  8
0
  6
Continuous
 62
     7
370
    15
100
AcDbLine
 10
129.776555095
 20
141.8997573769
 30
0.0
 11
129.776555095
 21
147.9082631982
 31
0.0
  0
SPLINE
  5
AC
330
1F
100
AcDbEntity
  8
0
  6
Continuous
 62
     7
370
    15
100
AcDbSpline
210
0.0
220
0.0
230
1.0
 70
     8
 71
     3
 72
     8
 73
     4
 74
     0
 42
0.00000001
 43
0.00000001
 40
0.0
 40
0.0
 40
0.0
 40
0.0
 40
1.0
 40
1.0
 40
1.0
 40
1.0
 10
128.2946231737375
 20
138.4912114293903
 30
0.0
 10
128.7739013243273
 20
139.6322226592429
 30
0.0
 10
129.2694691634672
 20
140.7686070700107
 30
0.0
 10
129.7765560052265
 20
141.8997574241744
 30
0.0
  0
LINE
  5
AD
330
1F
100
AcDbEntity
  8
0
  6
Continuous
 62
     7
370
    15
100
AcDbLine
 10
128.2946234384
 20
138.4912117487
 30
0.0
 11
128.2946234384
 21
145.246301136
 31
0.0
  0
LINE
  5
AE
330
1F
100
AcDbEntity
  8
0
  6
Continuous
 62
     7
370
    15
100
AcDbLine
 10
133.734623883
 20
147.9082631982
 30
0.0
 11
129.776555095
 21
147.9082631982
 31
0.0
  0
LINE
  5
AF
330
1F
100
AcDbEntity
  8
0
  6
Continuous
 62
     7
370
    15
100
AcDbLine
 10
129.776555095
 20
141.8997573769
 30
0.0
 11
133.734623883
 21
141.8997573769
 31
0.0
  0
SPLINE
  5
B0
330
1F
100
AcDbEntity
  8
0
  6
Continuous
 62
     7
370
    15
100
AcDbSpline
210
0.0
220
0.0
230
1.0
 70
     8
 71
     3
 72
     8
 73
     4
 74
     0
 42
0.00000001
 43
0.00000001
 40
0.0
 40
0.0
 40
0.0
 40
0.0
 40
1.0
 40
1.0
 40
1.0
 40
1.0
 10
122.9926903422484
 20
141.8997574241744
 30
0.0
 10
123.4997771840077
 20
140.7686070700107
 30
0.0
 10
123.9953450231476
 20
139.6322226592429
 30
0.0
 10
124.4746231737375
 20
138.4912114293903
 30
0.0
  0
LINE
  5
B1
330
1F
100
AcDbEntity
  8
0
  6
Continuous
 62
     7
370
    15
100
AcDbLine
 10
124.474623222
 20
138.4912117487
 30
0.0
 11
124.474623222
 21
137.5769342399
 31
0.0
  0
SPLINE
  5
B2
330
1F
100
AcDbEntity
  8
0
  6
Continuous
 62
     7
370
    15
100
AcDbSpline
210
0.0
220
0.0
230
1.0
 70
     8
 71
     3
 72
     8
 73
     4
 74
     0
 42
0.00000001
 43
0.00000001
 40
0.0
 40
0.0
 40
0.0
 40
0.0
 40
1.0
 40
1.0
 40
1.0
 40
1.0
 10
124.4746231737375
 20
145.2463019529786
 30
0.0
 10
123.9819130768917
 20
146.134320951105
 30
0.0
 10
123.4878303716127
 20
147.021583586791
 30
0.0
 10
122.9926903422484
 20
147.9082632349712
 30
0.0
  0
LINE
  5
B3
330
1F
100
AcDbEntity
  8
0
  6
Continuous
 62
     7
370
    15
100
AcDbLine
 10
124.474623222
 20
138.4912117487
 30
0.0
 11
124.474623222
 21
145.246301136
 31
0.0
  0
SPLINE
  5
B4
330
1F
100
AcDbEntity
  8
0
  6
Continuous
 62
     7
370
    15
100
AcDbSpline
210
0.0
220
0.0
230
1.0
 70
     8
 71
     3
 72
    10
 73
     6
 74
     0
 42
0.00000001
 43
0.00000001
 40
0.0
 40
0.0
 40
0.0
 40
0.0
 40
0.5
 40
0.5
 40
1.0
 40
1.0
 40
1.0
 40
1.0
 10
134.3346231737374
 20
147.2875080855709
 30
0.0
 10
134.3346231737374
 20
147.4479133519217
 30
0.0
 10
134.2723853426306
 20
147.6069751649103
 30
0.0
 10
134.053250418888
 20
147.8378876305406
 30
0.0
 10
133.8956617238962
 20
147.9082632349712
 30
0.0
 10
133.7346231737375
 20
147.9082632349712
 30
0.0
  0
SPLINE
  5
B5
330
1F
100
AcDbEntity
  8
0
  6
Continuous
 62
     7
370
    15
100
AcDbSpline
210
0.0
220
0.0
230
1.0
 70
     8
 71
     3
 72
    12
 73
     8
 74
     0
 42
0.00000001
 43
0.00000001
 40
0.0
 40
0.0
 40
0.0
 40
0.0
 40
0.2499999999999987
 40
0.2499999999999987
 40
0.4999999999999973
 40
0.4999999999999973
 40
1.0
 40
1.0
 40
1.0
 40
1.0
 10
133.7346231737375
 20
141.8997574241744
 30
0.0
 10
133.8258228955631
 20
141.8997574241744
 30
0.0
 10
133.9164179046992
 20
141.8715377255865
 30
0.0
 10
134.0698306311458
 20
141.7770947183384
 30
0.0
 10
134.1350394984695
 20
141.7108077416331
 30
0.0
 10
134.2878240278094
 20
141.4851829183448
 30
0.0
 10
134.3346231737374
 20
141.3027566553123
 30
0.0
 10
134.3346231737374
 20
141.1220200230654
 30
0.0
  0
LINE
  5
B6
330
1F
100
AcDbEntity
  8
0
  6
Continuous
 62
     7
370
    15
100
AcDbLine
 10
134.3346228638
 20
141.1220192081
 30
0.0
 11
134.3346228638
 21
147.2875087625
 31
0.0
  0
LINE
  5
B7
330
1F
100
AcDbEntity
  8
0
  6
Continuous
 62
     7
370
    15
100
AcDbLine
 10
128.2946234384
 20
137.5769342399
 30
0.0
 11
128.2946234384
 21
138.4912117487
 31
0.0
  0
LINE
  5
B8
330
1F
100
AcDbEntity
  8
0
  6
Continuous
 62
     7
370
    15
100
AcDbLine
 10
134.3346228638
 20
141.1220192081
 30
0.0
 11
134.3346228638
 21
137.2910685009
 31
0.0
  0
ARC
  5
B9
330
1F
100
AcDbEntity
  8
0
  6
Continuous
 62
     7
370
    15
100
AcDbCircle
 10
116.3848343287
 20
136.1460263248
 30
0.0
 40
7.250126202801805
100
AcDbArc
 50
70.9628461809
 51
109.0966336114
  0
SPLINE
  5
BA
330
1F
100
AcDbEntity
  8
0
  6
Continuous
 62
     7
370
    15
100
AcDbSpline
210
0.0
220
0.0
230
1.0
 70
     8
 71
     3
 72
    39
 73
    35
 74
     0
 42
0.00000001
 43
0.00000001
 40
-0.0928043551756701
 40
-0.0617048467358924
 40
-0.0305245298602019
 40
0.0
 40
0.0305379537711319
 40
0.0617396733444235
 40
0.0928511562862008
 40
0.1239581635814527
 40
0.1551451718002096
 40
0.186731450016587
 40
0.2185162744046741
 40
0.2499298363871192
 40
0.2813650559764551
 40
0.3132232878484077
 40
0.3448819419189388
 40
0.3761241187089441
 40
0.4072203283790681
 40
0.4382883502617201
 40
0.4694286048562043
 40
0.500011143843077
 40
0.5305819932533671
 40
0.5617670451414593
 40
0.5928468450959133
 40
0.6239637556318111
 40
0.6551794805640705
 40
0.686818951344338
 40
0.7186229856199942
 40
0.7500614968638394
 40
0.7814671780302638
 40
0.8132975981519825
 40
0.8449019848423034
 40
0.8761138750536638
 40
0.9071956448243299
 40
0.9382951532641076
 40
0.9694754701397981
 40
1.0
 40
1.030537953771132
 40
1.061739673344424
 40
1.092851156286201
 10
189.843633590286
 20
112.5018615610793
 30
0.0
 10
188.8844832185342
 20
112.403775747347
 30
0.0
 10
187.9251125483669
 20
112.5019262587037
 30
0.0
 10
187.0046802889821
 20
112.7965004786934
 30
0.0
 10
186.1543993419423
 20
113.2588990918385
 30
0.0
 10
185.4172334794596
 20
113.8818303951412
 30
0.0
 10
184.8116146253925
 20
114.6396321280361
 30
0.0
 10
184.3629509653739
 20
115.5106932944007
 30
0.0
 10
184.0778537806136
 20
116.4551873709209
 30
0.0
 10
183.9834328973359
 20
117.4390319579026
 30
0.0
 10
184.0784317014625
 20
118.4235719180086
 30
0.0
 10
184.363889545971
 20
119.3697415992047
 30
0.0
 10
184.8128048746912
 20
120.2430070084246
 30
0.0
 10
185.4188565911209
 20
121.0020215712152
 30
0.0
 10
186.1557832905285
 20
121.6251987187735
 30
0.0
 10
187.0049430668333
 20
122.0872338100486
 30
0.0
 10
187.9251111311189
 20
122.3807703238497
 30
0.0
 10
188.8848091061635
 20
122.4782028988083
 30
0.0
 10
189.8449505994386
 20
122.3805052914831
 30
0.0
 10
190.7654381043789
 20
122.0864525111477
 30
0.0
 10
191.6152512607121
 20
121.6239597564499
 30
0.0
 10
192.3519656948698
 20
121.0003937998943
 30
0.0
 10
192.957513855377
 20
120.2413361777869
 30
0.0
 10
193.405855198438
 20
119.368919643486
 30
0.0
 10
193.6907670570068
 20
118.4233636208457
 30
0.0
 10
193.7858020488285
 20
117.4394622083551
 30
0.0
 10
193.6914906554623
 20
116.455164612595
 30
0.0
 10
193.406005597382
 20
115.5101662349899
 30
0.0
 10
192.9569004112157
 20
114.6383107762325
 30
0.0
 10
192.3508298954892
 20
113.8806013299908
 30
0.0
 10
191.6134746036616
 20
113.2581109226116
 30
0.0
 10
190.7636205328144
 20
112.7962097574328
 30
0.0
 10
189.843633590286
 20
112.5018615610793
 30
0.0
 10
188.8844832185342
 20
112.403775747347
 30
0.0
 10
187.9251125483669
 20
112.5019262587037
 30
0.0
  0
LINE
  5
BB
330
1F
100
AcDbEntity
  8
0
  6
Continuous
 62
     7
370
    15
100
AcDbLine
 10
197.6620917955
 20
99.9410676873
 30
0.0
 11
197.6620917955
 21
134.9410678363
 31
0.0
  0
SPLINE
  5
BC
330
1F
100
AcDbEntity
  8
0
  6
Continuous
 62
     7
370
    15
100
AcDbSpline
210
0.0
220
0.0
230
1.0
 70
     8
 71
     3
 72
    49
 73
    45
 74
     0
 42
0.00000001
 43
0.00000001
 40
-0.0453289120053146
 40
-0.028849640662774
 40
-0.0137448999164249
 40
0.0
 40
0.016174930051487
 40
0.0341951114533296
 40
0.0540821746203848
 40
0.0758519784570752
 40
0.0995163878701752
 40
0.1250844199077938
 40
0.1502122363039692
 40
0.1736095456499182
 40
0.195286127305918
 40
0.2152544869632483
 40
0.2335308377912758
 40
0.2501365530631962
 40
0.2850050262077037
 40
0.3265790049399949
 40
0.37496155618821
 40
0.3970363947908301
 40
0.4177011086882066
 40
0.4369611297398706
 40
0.454823278630308
 40
0.4712962209802167
 40
0.4863911249001673
 40
0.5001226324881464
 40
0.534211555472856
 40
0.5757710868833621
 40
0.6248974126761392
 40
0.6465640803628795
 40
0.6669596739977552
 40
0.6860901303065967
 40
0.7039627233119977
 40
0.7205864555659809
 40
0.7359725999381761
 40
0.7501354635862308
 40
0.784940519765186
 40
0.8264670213197604
 40
0.8748182531463193
 40
0.8968858172443933
 40
0.9175466010995692
 40
0.9368060714706334
 40
0.9546710879946853
 40
0.9711503593372259
 40
0.986255100083575
 40
0.9999999999999999
 40
1.016174930051487
 40
1.034195111453329
 40
1.054082174620385
 10
188.5034004818997
 20
113.2022914910402
 30
0.0
 10
188.9063603246668
 20
113.1847733725621
 30
0.0
 10
189.3354967986203
 20
113.2067315554422
 30
0.0
 10
189.8134058797929
 20
113.28342462215
 30
0.0
 10
190.3258632790628
 20
113.4299797199546
 30
0.0
 10
190.8597757192428
 20
113.6616741278554
 30
0.0
 10
191.3973200532494
 20
113.992606725814
 30
0.0
 10
191.8990769029909
 20
114.4200626402776
 30
0.0
 10
192.325816894736
 20
114.9192375420667
 30
0.0
 10
192.6551394548697
 20
115.4494955990044
 30
0.0
 10
192.8885569883525
 20
115.9800844337301
 30
0.0
 10
193.038336467675
 20
116.4940086214901
 30
0.0
 10
193.1180243616374
 20
116.9785493678648
 30
0.0
 10
193.151144125884
 20
117.6027032371134
 30
0.0
 10
193.0589852930616
 20
118.4373494028076
 30
0.0
 10
192.672351217522
 20
119.4916102414734
 30
0.0
 10
192.0752027691398
 20
120.3027014143858
 30
0.0
 10
191.4673850452063
 20
120.8320842361654
 30
0.0
 10
191.0079812698654
 20
121.1354300195365
 30
0.0
 10
190.5470675093384
 20
121.3628843961744
 30
0.0
 10
190.0969649635783
 20
121.5231152539475
 30
0.0
 10
189.6674759930657
 20
121.6254927374172
 30
0.0
 10
189.265760085907
 20
121.6798319139624
 30
0.0
 10
188.7028235958935
 20
121.7043761075373
 30
0.0
 10
187.9011954219091
 20
121.6175926943396
 30
0.0
 10
186.8459504210302
 20
121.2362627593506
 30
0.0
 10
186.0306990581863
 20
120.639172819827
 30
0.0
 10
185.5001092168036
 20
120.0316921882203
 30
0.0
 10
185.1990839253877
 20
119.5792719346739
 30
0.0
 10
184.9709439222085
 20
119.1224330666941
 30
0.0
 10
184.8082898918632
 20
118.6727665651055
 30
0.0
 10
184.7029798699295
 20
118.2397133645159
 30
0.0
 10
184.6463008386153
 20
117.8303500219383
 30
0.0
 10
184.6207023380131
 20
117.2545296998751
 30
0.0
 10
184.7108568194767
 20
116.4427937779465
 30
0.0
 10
185.0973447046055
 20
115.3899195779211
 30
0.0
 10
185.6940355181697
 20
114.5795060042045
 30
0.0
 10
186.3015058184873
 20
114.0503311825183
 30
0.0
 10
186.7607770528255
 20
113.7469889880526
 30
0.0
 10
187.2216436675164
 20
113.5194772834907
 30
0.0
 10
187.6717953156166
 20
113.3591586291361
 30
0.0
 10
188.1014501102775
 20
113.2566991060314
 30
0.0
 10
188.5034004818997
 20
113.2022914910402
 30
0.0
 10
188.9063603246668
 20
113.1847733725621
 30
0.0
 10
189.3354967986203
 20
113.2067315554422
 30
0.0
  0
LINE
  5
BD
330
1F
100
AcDbEntity
  8
0
  6
Continuous
 62
     7
370
    15
100
AcDbLine
 10
208.3846246639
 20
106.2152081272
 30
0.0
 11
208.3846246639
 21
128.6669273964
 31
0.0
  0
LINE
  5
BE
330
1F
100
AcDbEntity
  8
0
  6
HIDDEN
 62
     7
370
     0
100
AcDbLine
 10
190.7920082846
 20
122.062959998
 30
0.0
 11
190.6304722467
 21
122.1263644389
 31
0.0
  0
LWPOLYLINE
  5
BF
330
1F
100
AcDbEntity
  8
0
  6
HIDDEN
 62
     7
370
     0
100
AcDbPolyline
 90
        3
 70
   128
 43
0.0
 10
187.5313808956
 20
112.6276760465
 10
188.2755672374
 20
112.4783012188
 10
189.0411590972
 20
112.4435186489
  0
LWPOLYLINE
  5
C0
330
1F
100
AcDbEntity
  8
0
  6
HIDDEN
 62
     7
370
     0
100
AcDbPolyline
 90
        3
 70
   128
 43
0.0
 10
192.2045564094
 20
121.1797902929
 10
191.5866276064
 20
121.6481074794
 10
190.7920082846
 20
122.062959998
  0
CIRCLE
  5
C1
330
1F
100
AcDbEntity
  8
0
  6
HIDDEN
 62
     7
370
     0
100
AcDbCircle
 10
188.8846231737
 20
117.4410677618
 30
0.0
 40
2.499999999999985
  0
CIRCLE
  5
C2
330
1F
100
AcDbEntity
  8
0
  6
HIDDEN
 62
     7
370
     0
100
AcDbCircle
 10
188.8846231737
 20
117.4410677618
 30
0.0
 40
3.499999999999992
  0
LINE
  5
C3
330
1F
100
AcDbEntity
  8
0
  6
HIDDEN
 62
     7
370
     0
100
AcDbLine
 10
122.9926906341
 20
141.8997573769
 30
0.0
 11
122.9926906341
 21
137.2910685009
 31
0.0
  0
ARC
  5
C4
330
1F
100
AcDbEntity
  8
0
  6
HIDDEN
 62
     7
370
     0
100
AcDbCircle
 10
116.6685919863
 20
129.9364150227
 30
0.0
 40
3.676415644107833
100
AcDbArc
 50
265.5700290317
 51
12.032294133
  0
ARC
  5
C5
330
1F
100
AcDbEntity
  8
0
  6
HIDDEN
 62
     7
370
     0
100
AcDbCircle
 10
116.0835332346
 20
129.9173319615
 30
0.0
 40
3.658759096118234
100
AcDbArc
 50
166.3287028976
 51
274.7203805789
  0
LINE
  5
C6
330
1F
100
AcDbEntity
  8
0
  6
HIDDEN
 62
     7
370
     0
100
AcDbLine
 10
96.3797736728
 20
93.916468612
 30
0.0
 11
96.128115412
 21
93.892947129
 31
0.0
  0
LINE
  5
C7
330
1F
100
AcDbEntity
  8
0
  6
HIDDEN
 62
     7
370
     0
100
AcDbLine
 10
96.0054239073
 20
141.0004983759
 30
0.0
 11
96.3796805405
 21
140.9656501478
 31
0.0
  0
SPLINE
  5
C8
330
1F
100
AcDbEntity
  8
0
  6
HIDDEN
 62
     7
370
     0
100
AcDbSpline
210
0.0
220
0.0
230
1.0
 70
     8
 71
     3
 72
    10
 73
     6
 74
     0
 42
0.00000001
 43
0.00000001
 40
0.0
 40
0.0
 40
0.0
 40
0.0
 40
0.4476904421849672
 40
0.895364222045466
 40
1.0
 40
1.0
 40
1.0
 40
1.0
 10
102.1396252141535
 20
137.2785962289853
 30
0.0
 10
102.3863245940037
 20
137.3081077789023
 30
0.0
 10
102.8797141719467
 20
137.3671297803634
 30
0.0
 10
103.1687239315876
 20
137.3810708719036
 30
0.0
 10
103.1084099422459
 20
137.3771831085344
 30
0.0
 10
103.0969833770036
 20
137.3764465666098
 30
0.0
  0
SPLINE
  5
C9
330
1F
100
AcDbEntity
  8
0
  6
HIDDEN
 62
     7
370
     0
100
AcDbSpline
210
0.0
220
0.0
230
1.0
 70
     8
 71
     3
 72
    10
 73
     6
 74
     0
 42
0.00000001
 43
0.00000001
 40
0.0
 40
0.0
 40
0.0
 40
0.0
 40
0.3457481865191991
 40
0.7967819833752234
 40
1.0
 40
1.0
 40
1.0
 40
1.0
 10
103.0970061944067
 20
97.50568895700408
 30
0.0
 10
103.0874466994222
 20
97.50624365087202
 30
0.0
 10
103.0654166970368
 20
97.50752195137366
 30
0.0
 10
102.6483581122913
 20
97.5374898281003
 30
0.0
 10
102.2601935267886
 20
97.58788575077699
 30
0.0
 10
102.1396252141535
 20
97.60353929462863
 30
0.0
  0
SPLINE
  5
CA
330
1F
100
AcDbEntity
  8
0
  6
HIDDEN
 62
     7
370
     0
100
AcDbSpline
210
0.0
220
0.0
230
1.0
 70
     8
 71
     3
 72
    15
 73
    11
 74
     0
 42
0.00000001
 43
0.00000001
 40
0.0
 40
0.0
 40
0.0
 40
0.0
 40
0.1409172263352446
 40
0.281889861653346
 40
0.4212989542022905
 40
0.5593768841673977
 40
0.6988856533029646
 40
0.840367202775075
 40
0.9813164473602943
 40
1.0
 40
1.0
 40
1.0
 40
1.0
 10
102.1396252141535
 20
97.60353929462863
 30
0.0
 10
101.8235834945408
 20
97.6438926164033
 30
0.0
 10
101.1913757869724
 20
97.72461512697313
 30
0.0
 10
99.95721261465819
 20
97.8011730733559
 30
0.0
 10
98.68649049084253
 20
97.79649500534096
 30
0.0
 10
97.49793102430607
 20
97.71569854011774
 30
0.0
 10
96.50480834501565
 20
97.59130399326352
 30
0.0
 10
95.86539981370188
 20
97.48489704650228
 30
0.0
 10
95.58437982534848
 20
97.43181998719274
 30
0.0
 10
95.65094039383729
 20
97.44407447915464
 30
0.0
 10
95.65873069699997
 20
97.44550875487758
 30
0.0
  0
SPLINE
  5
CB
330
1F
100
AcDbEntity
  8
0
  6
HIDDEN
 62
     7
370
     0
100
AcDbSpline
210
0.0
220
0.0
230
1.0
 70
     8
 71
     3
 72
    15
 73
    11
 74
     0
 42
0.00000001
 43
0.00000001
 40
0.0
 40
0.0
 40
0.0
 40
0.0
 40
0.1201202497733958
 40
0.2584739452442804
 40
0.3987302041697883
 40
0.5404022600041716
 40
0.680739511736143
 40
0.8190355942651634
 40
0.9577823154231621
 40
1.0
 40
1.0
 40
1.0
 40
1.0
 10
95.65873069699997
 20
137.4366267687363
 30
0.0
 10
95.67943994580344
 20
137.4326022646621
 30
0.0
 10
95.72400196803846
 20
137.4239423638735
 30
0.0
 10
96.2864414377669
 20
137.3246494451623
 30
0.0
 10
97.17990369321416
 20
137.200733433451
 30
0.0
 10
98.33888251706632
 20
137.1010220579174
 30
0.0
 10
99.61191938588605
 20
137.0738850002193
 30
0.0
 10
100.8462047326132
 20
137.1292223623494
 30
0.0
 10
101.674167810309
 20
137.2157020981408
 30
0.0
 10
102.0515781229553
 20
137.2666990172779
 30
0.0
 10
102.1396252141535
 20
137.2785962289853
 30
0.0
  0
LINE
  5
CC
330
1F
100
AcDbEntity
  8
0
  6
HIDDEN
 62
     7
370
     0
100
AcDbLine
 10
89.3885986694
 20
100.4410668379
 30
0.0
 11
89.3885986694
 21
134.4410686857
 31
0.0
  0
LWPOLYLINE
  5
CD
330
1F
100
AcDbEntity
  8
0
  6
HIDDEN
 62
     7
370
     0
100
AcDbPolyline
 90
       14
 70
   128
 43
0.0
 10
116.3846235537
 20
139.3866709537
 10
117.1898171121
 20
139.4276100314
 10
117.9620465079
 20
139.5487546093
 10
118.6696961337
 20
139.7451426006
 10
119.2837944069
 20
140.0087366915
 10
119.7792002746
 20
140.3287428534
 10
120.1356313938
 20
140.6920592404
 10
120.3384967336
 20
141.0838144934
 10
120.3794888967
 20
141.4879693753
 10
120.2569315025
 20
141.8879761464
 10
119.9758415857
 20
142.2674584306
 10
119.5477265679
 20
142.6108817673
 10
118.9901130089
 20
142.904186911
 10
118.7496892923
 20
142.9996232605
  0
LWPOLYLINE
  5
CE
330
1F
100
AcDbEntity
  8
0
  6
HIDDEN
 62
     7
370
     0
100
AcDbPolyline
 90
       14
 70
   128
 43
0.0
 10
114.0128657968
 20
142.9971645689
 10
113.7791331672
 20
142.904186911
 10
113.2215200738
 20
142.6108817673
 10
112.7934050561
 20
142.2674584306
 10
112.5123146736
 20
141.8879761464
 10
112.3897572794
 20
141.4879693753
 10
112.4307499082
 20
141.0838144934
 10
112.6336147824
 20
140.6920592404
 10
112.9900463672
 20
140.3287428534
 10
113.4854522349
 20
140.0087366915
 10
114.0995505081
 20
139.7451426006
 10
114.8071996683
 20
139.5487546093
 10
115.5794290641
 20
139.4276100314
 10
116.3846235537
 20
139.3866709537
  0
SPLINE
  5
CF
330
1F
100
AcDbEntity
  8
0
  6
HIDDEN
 62
     7
370
     0
100
AcDbSpline
210
0.0
220
0.0
230
1.0
 70
     8
 71
     3
 72
    11
 73
     7
 74
     0
 42
0.00000001
 43
0.00000001
 40
0.0
 40
0.0
 40
0.0
 40
0.0
 40
0.0005779865010846
 40
0.0005779865010846
 40
0.0005779865010846
 40
0.0011559733324422
 40
0.0011559733324422
 40
0.0011559733324422
 40
0.0011559733324422
 10
76.48462317373748
 20
119.4409083699669
 30
0.0
 10
76.65129042854343
 20
119.4389247306262
 30
0.0
 10
76.8179568582211
 20
119.436887123618
 30
0.0
 10
76.98462319667293
 20
119.4347756602119
 30
0.0
 10
77.15128962549933
 20
119.4326641956608
 30
0.0
 10
77.31795599913701
 20
119.4304786325047
 30
0.0
 10
77.48462317373746
 20
119.4281960551734
 30
0.0
  0
SPLINE
  5
D0
330
1F
100
AcDbEntity
  8
0
  6
HIDDEN
 62
     7
370
     0
100
AcDbSpline
210
0.0
220
0.0
230
1.0
 70
     8
 71
     3
 72
    11
 73
     7
 74
     0
 42
0.00000001
 43
0.00000001
 40
0.0
 40
0.0
 40
0.0
 40
0.0
 40
0.0005782382535738
 40
0.0005782382535738
 40
0.0005782382535738
 40
0.0011564766069467
 40
0.0011564766069467
 40
0.0011564766069467
 40
0.0011564766069467
 10
77.48462317373748
 20
115.4443674595888
 30
0.0
 10
77.31796921976884
 20
115.4439298818271
 30
0.0
 10
77.15130854756687
 20
115.4434498171547
 30
0.0
 10
76.98464165890145
 20
115.4429302777854
 30
0.0
 10
76.8179747405054
 20
115.4424107383234
 30
0.0
 10
76.65130161067216
 20
115.4418519093014
 30
0.0
 10
76.48462317373746
 20
115.4412663657183
 30
0.0
  0
LINE
  5
D1
330
1F
100
AcDbEntity
  8
0
  6
HIDDEN
 62
     7
370
     0
100
AcDbLine
 10
116.0444491358
 20
100.4410668379
 30
0.0
 11
116.0444491358
 21
134.4410686857
 31
0.0
  0
LINE
  5
D2
330
1F
100
AcDbEntity
  8
0
  6
HIDDEN
 62
     7
370
     0
100
AcDbLine
 10
118.3346230352
 20
101.7160679317
 30
0.0
 11
118.3346230352
 21
133.1660675919
 31
0.0
  0
SPLINE
  5
D3
330
1F
100
AcDbEntity
  8
0
  6
HIDDEN
 62
     7
370
     0
100
AcDbSpline
210
0.0
220
0.0
230
1.0
 70
     8
 71
     3
 72
    16
 73
    12
 74
     0
 42
0.00000001
 43
0.00000001
 40
0.0
 40
0.0
 40
0.0
 40
0.0
 40
0.124999999999998
 40
0.124999999999998
 40
0.249999999999996
 40
0.249999999999996
 40
0.4999999999999973
 40
0.4999999999999973
 40
0.7499999999999987
 40
0.7499999999999987
 40
1.0
 40
1.0
 40
1.0
 40
1.0
 10
85.18462317373746
 20
101.6395773257753
 30
0.0
 10
85.27974492840329
 20
101.6395773257753
 30
0.0
 10
85.37307499713137
 20
101.6357614923825
 30
0.0
 10
85.55633675786937
 20
101.6209909396527
 30
0.0
 10
85.64721447342637
 20
101.6098328916771
 30
0.0
 10
85.90401617094612
 20
101.5673616215354
 30
0.0
 10
86.05908353581812
 20
101.5263154243326
 30
0.0
 10
86.31282999737273
 20
101.4311693077507
 30
0.0
 10
86.41370044904059
 20
101.3764065736691
 30
0.0
 10
86.54894686373544
 20
101.2651454497653
 30
0.0
 10
86.58462317373747
 20
101.2079757124366
 30
0.0
 10
86.58462317373747
 20
101.1535541394029
 30
0.0
  0
SPLINE
  5
D4
330
1F
100
AcDbEntity
  8
0
  6
HIDDEN
 62
     7
370
     0
100
AcDbSpline
210
0.0
220
0.0
230
1.0
 70
     8
 71
     3
 72
     8
 73
     4
 74
     0
 42
0.00000001
 43
0.00000001
 40
0.0
 40
0.0
 40
0.0
 40
0.0
 40
1.0
 40
1.0
 40
1.0
 40
1.0
 10
77.7846231770183
 20
103.7843802718575
 30
0.0
 10
77.78462317702022
 20
102.9004831295406
 30
0.0
 10
77.77114255111081
 20
102.1858998844787
 30
0.0
 10
77.76979118292152
 20
101.6395773257753
 30
0.0
  0
SPLINE
  5
D5
330
1F
100
AcDbEntity
  8
0
  6
HIDDEN
 62
     7
370
     0
100
AcDbSpline
210
0.0
220
0.0
230
1.0
 70
     8
 71
     3
 72
    10
 73
     6
 74
     0
 42
0.00000001
 43
0.00000001
 40
0.0
 40
0.0
 40
0.0
 40
0.0
 40
0.5
 40
0.5
 40
1.0
 40
1.0
 40
1.0
 40
1.0
 10
77.48462317373746
 20
104.8092905375103
 30
0.0
 10
77.5760142894197
 20
104.634651749901
 30
0.0
 10
77.6486661231452
 20
104.4610499226541
 30
0.0
 10
77.75616501614081
 20
104.1174365036645
 30
0.0
 10
77.78462317701269
 20
103.9491106771414
 30
0.0
 10
77.78462317701832
 20
103.784380271917
 30
0.0
  0
LINE
  5
D6
330
1F
100
AcDbEntity
  8
0
  6
HIDDEN
 62
     7
370
     0
100
AcDbLine
 10
77.4846235105
 20
107.8402412227
 30
0.0
 11
77.4846235105
 21
104.8092900878
 31
0.0
  0
SPLINE
  5
D7
330
1F
100
AcDbEntity
  8
0
  6
HIDDEN
 62
     7
370
     0
100
AcDbSpline
210
0.0
220
0.0
230
1.0
 70
     8
 71
     3
 72
    10
 73
     6
 74
     0
 42
0.00000001
 43
0.00000001
 40
0.0
 40
0.0
 40
0.0
 40
0.0
 40
0.5
 40
0.5
 40
1.0
 40
1.0
 40
1.0
 40
1.0
 10
77.78462317682268
 20
109.2080813861641
 30
0.0
 10
77.78462317682266
 20
108.9660974185928
 30
0.0
 10
77.75647314776235
 20
108.7317549896608
 30
0.0
 10
77.65288323365704
 20
108.2763799674447
 30
0.0
 10
77.576254524092
 20
108.054775404367
 30
0.0
 10
77.48462317373746
 20
107.8402409695942
 30
0.0
  0
LINE
  5
D8
330
1F
100
AcDbEntity
  8
0
  6
HIDDEN
 62
     7
370
     0
100
AcDbLine
 10
77.7846230009
 20
121.0457014954
 30
0.0
 11
77.7846230009
 21
109.2080812073
 31
0.0
  0
SPLINE
  5
D9
330
1F
100
AcDbEntity
  8
0
  6
HIDDEN
 62
     7
370
     0
100
AcDbSpline
210
0.0
220
0.0
230
1.0
 70
     8
 71
     3
 72
     8
 73
     4
 74
     0
 42
0.00000001
 43
0.00000001
 40
0.0
 40
0.0
 40
0.0
 40
0.0
 40
1.0
 40
1.0
 40
1.0
 40
1.0
 10
77.48462317373748
 20
127.0480070826875
 30
0.0
 10
77.66565464023678
 20
126.6158995970772
 30
0.0
 10
77.78462317682839
 20
126.1617541910376
 30
0.0
 10
77.78462317682269
 20
125.6740541374189
 30
0.0
  0
LINE
  5
DA
330
1F
100
AcDbEntity
  8
0
  6
HIDDEN
 62
     7
370
     0
100
AcDbLine
 10
77.4846235105
 20
130.0812096438
 30
0.0
 11
77.4846235105
 21
127.0480075023
 31
0.0
  0
SPLINE
  5
DB
330
1F
100
AcDbEntity
  8
0
  6
HIDDEN
 62
     7
370
     0
100
AcDbSpline
210
0.0
220
0.0
230
1.0
 70
     8
 71
     3
 72
    10
 73
     6
 74
     0
 42
0.00000001
 43
0.00000001
 40
0.0
 40
0.0
 40
0.0
 40
0.0
 40
0.5
 40
0.5
 40
1.0
 40
1.0
 40
1.0
 40
1.0
 10
77.78462317712984
 20
131.0977552517268
 30
0.0
 10
77.78462317712805
 20
130.9331189051217
 30
0.0
 10
77.75746450637305
 20
130.765963681292
 30
0.0
 10
77.65169951105571
 20
130.4273406734922
 30
0.0
 10
77.5752847227573
 20
130.2550688961981
 30
0.0
 10
77.48462317373749
 20
130.081210068855
 30
0.0
  0
SPLINE
  5
DC
330
1F
100
AcDbEntity
  8
0
  6
HIDDEN
 62
     7
370
     0
100
AcDbSpline
210
0.0
220
0.0
230
1.0
 70
     8
 71
     3
 72
    18
 73
    14
 74
     0
 42
0.00000001
 43
0.00000001
 40
0.0
 40
0.0
 40
0.0
 40
0.0
 40
0.2500000000000033
 40
0.2500000000000033
 40
0.3750000000000029
 40
0.3750000000000029
 40
0.5000000000000026
 40
0.5000000000000026
 40
0.6250000000000022
 40
0.6250000000000022
 40
0.7500000000000018
 40
0.7500000000000018
 40
1.0
 40
1.0
 40
1.0
 40
1.0
 10
82.58462317373747
 20
133.7285813842111
 30
0.0
 10
82.58462317373747
 20
133.6741068636589
 30
0.0
 10
82.5497124823453
 20
133.6177258043064
 30
0.0
 10
82.44770318101224
 20
133.5336489634529
 30
0.0
 10
82.40606682633414
 20
133.506315259462
 30
0.0
 10
82.30766103084538
 20
133.453361343863
 30
0.0
 10
82.2501178191411
 20
133.4274739901459
 30
0.0
 10
82.12281964556816
 20
133.3796964453126
 30
0.0
 10
82.0532323408107
 20
133.3577485271347
 30
0.0
 10
81.90179809565574
 20
133.318315962222
 30
0.0
 10
81.81911419256178
 20
133.3007597129962
 30
0.0
 10
81.56300273052373
 20
133.2583209475756
 30
0.0
 10
81.37508772663575
 20
133.2425581978386
 30
0.0
 10
81.18462317373746
 20
133.2425581978386
 30
0.0
  0
LINE
  5
DD
330
1F
100
AcDbEntity
  8
0
  6
HIDDEN
 62
     7
370
     0
100
AcDbLine
 10
81.1846228131
 20
133.2425589776
 30
0.0
 11
77.7846230009
 21
133.2425589776
 31
0.0
  0
LINE
  5
DE
330
1F
100
AcDbEntity
  8
0
  6
HIDDEN
 62
     7
370
     0
100
AcDbLine
 10
77.7156548389
 20
101.639576546
 30
0.0
 11
85.1846234688
 21
101.639576546
 31
0.0
  0
SPLINE
  5
DF
330
1F
100
AcDbEntity
  8
0
  6
HIDDEN
 62
     7
370
     0
100
AcDbSpline
210
0.0
220
0.0
230
1.0
 70
     8
 71
     3
 72
    22
 73
    18
 74
     0
 42
0.00000001
 43
0.00000001
 40
0.0
 40
0.0
 40
0.0
 40
0.0
 40
0.125
 40
0.125
 40
0.25
 40
0.25
 40
0.5000000000000001
 40
0.5000000000000001
 40
0.5625000000000001
 40
0.5625000000000001
 40
0.6250000000000001
 40
0.6250000000000001
 40
0.75
 40
0.75
 40
0.875
 40
0.875
 40
1.0
 40
1.0
 40
1.0
 40
1.0
 10
77.71565418709537
 20
101.6395773257753
 30
0.0
 10
77.70257179436699
 20
101.894683035923
 30
0.0
 10
77.68935223092716
 20
102.1878412950269
 30
0.0
 10
77.66690505313305
 20
102.8501417606517
 30
0.0
 10
77.6574265861086
 20
103.2204156812631
 30
0.0
 10
77.63822862517209
 20
104.4429724843769
 30
0.0
 10
77.63934239816895
 20
105.3801114105087
 30
0.0
 10
77.65825319112201
 20
106.6999826400237
 30
0.0
 10
77.66288271898101
 20
106.971484549
 30
0.0
 10
77.67336393872696
 20
107.5298693838023
 30
0.0
 10
77.6791592000114
 20
107.8169922397419
 30
0.0
 10
77.69746842091632
 20
108.6895814941136
 30
0.0
 10
77.7115033551967
 20
109.2900371704695
 30
0.0
 10
77.74096052733354
 20
110.5275116629656
 30
0.0
 10
77.7565162183151
 20
111.164527819609
 30
0.0
 10
77.78031076831199
 20
112.4760164172936
 30
0.0
 10
77.78832982045735
 20
113.1521390289541
 30
0.0
 10
77.78462317373747
 20
113.8364341402389
 30
0.0
  0
LINE
  5
E0
330
1F
100
AcDbEntity
  8
0
  6
HIDDEN
 62
     7
370
     0
100
AcDbLine
 10
77.7846230009
 20
121.0457014954
 30
0.0
 11
77.7846230009
 21
133.2425589776
 31
0.0
  0
SPLINE
  5
E1
330
1F
100
AcDbEntity
  8
0
  6
HIDDEN
 62
     7
370
     0
100
AcDbSpline
210
0.0
220
0.0
230
1.0
 70
     8
 71
     3
 72
    10
 73
     6
 74
     0
 42
0.00000001
 43
0.00000001
 40
0.0
 40
0.0
 40
0.0
 40
0.0
 40
0.5
 40
0.5
 40
1.0
 40
1.0
 40
1.0
 40
1.0
 10
77.78462317373746
 20
113.8364341402238
 30
0.0
 10
77.78462317373729
 20
114.1103492882979
 30
0.0
 10
77.75886394386845
 20
114.3812908670275
 30
0.0
 10
77.65565801113505
 20
114.9169819486297
 30
0.0
 10
77.57831984726063
 20
115.1827287521514
 30
0.0
 10
77.48462317373746
 20
115.4443674595888
 30
0.0
  0
SPLINE
  5
E2
330
1F
100
AcDbEntity
  8
0
  6
HIDDEN
 62
     7
370
     0
100
AcDbSpline
210
0.0
220
0.0
230
1.0
 70
     8
 71
     3
 72
    10
 73
     6
 74
     0
 42
0.00000001
 43
0.00000001
 40
0.0
 40
0.0
 40
0.0
 40
0.0
 40
0.5
 40
0.5
 40
1.0
 40
1.0
 40
1.0
 40
1.0
 10
77.48462317373748
 20
119.4281960551734
 30
0.0
 10
77.57785375512823
 20
119.6920898632432
 30
0.0
 10
77.6528833673648
 20
119.9582701738812
 30
0.0
 10
77.75795046654264
 20
120.4965927488387
 30
0.0
 10
77.78462317712868
 20
120.769340865084
 30
0.0
 10
77.78462317712987
 20
121.0457013833741
 30
0.0
  0
LINE
  5
E3
330
1F
100
AcDbEntity
  8
0
  6
HIDDEN
 62
     7
370
     0
100
AcDbLine
 10
77.4846235105
 20
115.4443675755
 30
0.0
 11
77.4846235105
 21
119.4281960475
 31
0.0
  0
LINE
  5
E4
330
1F
100
AcDbEntity
  8
0
  6
HIDDEN
 62
     7
370
     0
100
AcDbLine
 10
77.6346223244
 20
99.4510672158
 30
0.0
 11
77.6346223244
 21
96.5711291051
 31
0.0
  0
LINE
  5
E5
330
1F
100
AcDbEntity
  8
0
  6
HIDDEN
 62
     7
370
     0
100
AcDbLine
 10
86.5846229532
 20
99.4510672158
 30
0.0
 11
86.5846229532
 21
95.4773298568
 31
0.0
  0
LINE
  5
E6
330
1F
100
AcDbEntity
  8
0
  6
HIDDEN
 62
     7
370
     0
100
AcDbLine
 10
77.6346223244
 20
135.4310683078
 30
0.0
 11
77.6346223244
 21
138.3110064185
 31
0.0
  0
LINE
  5
E7
330
1F
100
AcDbEntity
  8
0
  6
HIDDEN
 62
     7
370
     0
100
AcDbLine
 10
82.5846222975
 20
135.4310683078
 30
0.0
 11
82.5846222975
 21
139.2851754195
 31
0.0
  0
LINE
  5
E8
330
1F
100
AcDbEntity
  8
0
  6
HIDDEN
 62
     7
370
     0
100
AcDbLine
 10
127.1846229025
 20
107.9410680673
 30
0.0
 11
127.1846229025
 21
126.9410674563
 31
0.0
  0
LINE
  5
E9
330
1F
100
AcDbEntity
  8
0
  6
HIDDEN
 62
     7
370
     0
100
AcDbLine
 10
130.1846233943
 20
107.9410680673
 30
0.0
 11
130.1846233943
 21
126.9410674563
 31
0.0
  0
LINE
  5
EA
330
1F
100
AcDbEntity
  8
0
  6
HIDDEN
 62
     7
370
     0
100
AcDbLine
 10
118.8346231171
 20
108.9410672999
 30
0.0
 11
118.8346231171
 21
125.9410682237
 31
0.0
  0
LINE
  5
EB
330
1F
100
AcDbEntity
  8
0
  6
HIDDEN
 62
     7
370
     0
100
AcDbLine
 10
124.572298471
 20
91.0410679049
 30
0.0
 11
121.3346235269
 21
91.0410679049
 31
0.0
  0
LINE
  5
EC
330
1F
100
AcDbEntity
  8
0
  6
HIDDEN
 62
     7
370
     0
100
AcDbLine
 10
134.3346228638
 20
91.0410679049
 30
0.0
 11
128.1969481894
 21
91.0410679049
 31
0.0
  0
LINE
  5
ED
330
1F
100
AcDbEntity
  8
0
  6
HIDDEN
 62
     7
370
     0
100
AcDbLine
 10
113.3346231469
 20
85.9569444424
 30
0.0
 11
113.3346231469
 21
91.0410679049
 31
0.0
  0
LINE
  5
EE
330
1F
100
AcDbEntity
  8
0
  6
HIDDEN
 62
     7
370
     0
100
AcDbLine
 10
121.3346235269
 20
91.0410679049
 30
0.0
 11
113.3346231469
 21
91.0410679049
 31
0.0
  0
LINE
  5
EF
330
1F
100
AcDbEntity
  8
0
  6
HIDDEN
 62
     7
370
     0
100
AcDbLine
 10
124.8689209857
 20
143.8410676188
 30
0.0
 11
121.3346235269
 21
143.8410676188
 31
0.0
  0
LINE
  5
F0
330
1F
100
AcDbEntity
  8
0
  6
HIDDEN
 62
     7
370
     0
100
AcDbLine
 10
121.3346235269
 20
143.8410676188
 30
0.0
 11
113.3346231469
 21
143.8410676188
 31
0.0
  0
LINE
  5
F1
330
1F
100
AcDbEntity
  8
0
  6
HIDDEN
 62
     7
370
     0
100
AcDbLine
 10
134.3346228638
 20
143.8410676188
 30
0.0
 11
127.9003256747
 21
143.8410676188
 31
0.0
  0
SPLINE
  5
F2
330
1F
100
AcDbEntity
  8
0
  6
HIDDEN
 62
     7
370
     0
100
AcDbSpline
210
0.0
220
0.0
230
1.0
 70
     8
 71
     3
 72
    11
 73
     7
 74
     0
 42
0.00000001
 43
0.00000001
 40
0.0
 40
0.0
 40
0.0
 40
0.0
 40
0.0008203708524183
 40
0.0008203708524183
 40
0.0008203708524183
 40
0.0016409967870154
 40
0.0016409967870154
 40
0.0016409967870154
 40
0.0016409967870154
 10
77.63462317373747
 20
101.5890350111643
 30
0.0
 10
77.44346487343881
 20
101.5478559825451
 30
0.0
 10
77.25203780336662
 20
101.5091020103151
 30
0.0
 10
77.06039217984599
 20
101.4727342510366
 30
0.0
 10
76.86868677476552
 20
101.4363551472705
 30
0.0
 10
76.67674782270657
 20
101.402360896503
 30
0.0
 10
76.48462317563576
 20
101.3707127711118
 30
0.0
  0
ELLIPSE
  5
F3
330
1F
100
AcDbEntity
  8
0
  6
HIDDEN
 62
     7
370
     0
100
AcDbEllipse
 10
72.2421913051
 20
117.4410677618
 30
0.0
 11
20.19992453367504
 21
-1.421085471520200E-14
 31
0.0
210
0.0
220
0.0
230
1.0
 40
0.8164965809
 41
1.300566354717479
 42
1.359198697209065
  0
LINE
  5
F4
330
1F
100
AcDbEntity
  8
0
  6
HIDDEN
 62
     7
370
     0
100
AcDbLine
 10
77.6346223244
 20
99.4510672158
 30
0.0
 11
77.6346223244
 21
101.5890355325
 31
0.0
  0
LINE
  5
F5
330
1F
100
AcDbEntity
  8
0
  6
HIDDEN
 62
     7
370
     0
100
AcDbLine
 10
77.7156548389
 20
101.639576546
 30
0.0
 11
77.6346223244
 21
101.5890355325
 31
0.0
  0
LINE
  5
F6
330
1F
100
AcDbEntity
  8
0
  6
HIDDEN
 62
     7
370
     0
100
AcDbLine
 10
86.5846229532
 20
99.4510672158
 30
0.0
 11
86.5846229532
 21
101.1535546845
 31
0.0
  0
LINE
  5
F7
330
1F
100
AcDbEntity
  8
0
  6
HIDDEN
 62
     7
370
     0
100
AcDbLine
 10
77.6346223244
 20
135.4310683078
 30
0.0
 11
77.6346223244
 21
133.3356930977
 31
0.0
  0
SPLINE
  5
F8
330
1F
100
AcDbEntity
  8
0
  6
HIDDEN
 62
     7
370
     0
100
AcDbSpline
210
0.0
220
0.0
230
1.0
 70
     8
 71
     3
 72
     8
 73
     4
 74
     0
 42
0.00000001
 43
0.00000001
 40
0.0
 40
0.0
 40
0.0
 40
0.0
 40
1.0
 40
1.0
 40
1.0
 40
1.0
 10
77.63462317373747
 20
133.3356922128652
 30
0.0
 10
77.68462867268092
 20
133.3046564386462
 30
0.0
 10
77.73462874334506
 20
133.2736117936188
 30
0.0
 10
77.78462317712989
 20
133.2425581978386
 30
0.0
  0
LINE
  5
F9
330
1F
100
AcDbEntity
  8
0
  6
HIDDEN
 62
     7
370
     0
100
AcDbLine
 10
82.5846222975
 20
135.4310683078
 30
0.0
 11
82.5846222975
 21
133.7285808391
 31
0.0
  0
LINE
  5
FA
330
1F
100
AcDbEntity
  8
0
  6
HIDDEN
 62
     7
370
     0
100
AcDbLine
 10
167.3846235314
 20
112.5410677037
 30
0.0
 11
167.3846235314
 21
122.3410678199
 31
0.0
  0
LINE
  5
FB
330
1F
100
AcDbEntity
  8
0
  6
HIDDEN
 62
     7
370
     0
100
AcDbLine
 10
171.384624187
 20
112.4410678736
 30
0.0
 11
171.384624187
 21
122.44106765
 31
0.0
  0
SPLINE
  5
FC
330
1F
100
AcDbEntity
  8
0
  6
HIDDEN
 62
     7
370
     0
100
AcDbSpline
210
0.0
220
0.0
230
1.0
 70
     8
 71
     3
 72
    20
 73
    16
 74
     0
 42
0.00000001
 43
0.00000001
 40
0.0
 40
0.0
 40
0.0
 40
0.0
 40
0.1119047131392668
 40
0.177423775918874
 40
0.2490451820006272
 40
0.329793472964303
 40
0.3985657157868402
 40
0.4998452487673717
 40
0.6138101537056571
 40
0.6789759255807832
 40
0.7495022876465063
 40
0.8296480952746766
 40
0.8980916303929427
 40
0.9995018224110955
 40
1.0
 40
1.0
 40
1.0
 40
1.0
 10
103.1333454699456
 20
93.8411059892459
 30
0.0
 10
103.0900381570969
 20
93.85452859908823
 30
0.0
 10
103.0213748563745
 20
93.87581000944267
 30
0.0
 10
102.5762813992659
 20
93.97910480194967
 30
0.0
 10
102.0497271992223
 20
94.09240409207364
 30
0.0
 10
101.3643008613493
 20
94.21533902970236
 30
0.0
 10
100.470984029025
 20
94.33737364039482
 30
0.0
 10
99.35762427151407
 20
94.45510931945311
 30
0.0
 10
98.24685008776008
 20
94.46708312997076
 30
0.0
 10
97.36210203015031
 20
94.44002771919052
 30
0.0
 10
96.69490493971497
 20
94.3920941929144
 30
0.0
 10
96.15363381582758
 20
94.33579896675121
 30
0.0
 10
95.7660486015966
 20
94.290720114587
 30
0.0
 10
95.57209476678617
 20
94.2518329840376
 30
0.0
 10
95.63525621545193
 20
94.26255712320183
 30
0.0
 10
95.63556497927898
 20
94.26260954800082
 30
0.0
  0
LINE
  5
FD
330
1F
100
AcDbEntity
  8
0
  6
HIDDEN
 62
     7
370
     0
100
AcDbLine
 10
96.5446354636
 20
94.3734052694
 30
0.0
 11
96.7284804025
 21
94.3915958619
 31
0.0
  0
SPLINE
  5
FE
330
1F
100
AcDbEntity
  8
0
  6
HIDDEN
 62
     7
370
     0
100
AcDbSpline
210
0.0
220
0.0
230
1.0
 70
     8
 71
     3
 72
    27
 73
    23
 74
     0
 42
0.00000001
 43
0.00000001
 40
0.0
 40
0.0
 40
0.0
 40
0.0
 40
0.0007884401771522
 40
0.0456707454626512
 40
0.1022521497375279
 40
0.1705299240224407
 40
0.2091214033205198
 40
0.2506484510921349
 40
0.3210938849227903
 40
0.3861873365265096
 40
0.4266663216859919
 40
0.464797407750197
 40
0.500601506480417
 40
0.5451931308005259
 40
0.6016871218330078
 40
0.6700927411582338
 40
0.7088299303438862
 40
0.75055846062018
 40
0.8222227389568694
 40
0.8877618474456114
 40
0.9472353327639471
 40
1.0
 40
1.0
 40
1.0
 40
1.0
 10
95.63527533795828
 20
140.6194849974198
 30
0.0
 10
95.6350586403084
 20
140.6195317368506
 30
0.0
 10
95.62250633323845
 20
140.6222391390208
 30
0.0
 10
95.67158694979454
 20
140.6104022911181
 30
0.0
 10
95.81668498319087
 20
140.5869651059759
 30
0.0
 10
96.08973899985787
 20
140.5530563989872
 30
0.0
 10
96.41826456162303
 20
140.5194887365651
 30
0.0
 10
96.81099259571552
 20
140.4813057209733
 30
0.0
 10
97.36072038160714
 20
140.4423376289565
 30
0.0
 10
97.986743016293
 20
140.42287600221
 30
0.0
 10
98.52993485624546
 20
140.4206908458008
 30
0.0
 10
98.97500360571735
 20
140.4292055671452
 30
0.0
 10
99.44145145994801
 20
140.4489891172562
 30
0.0
 10
99.97869238679417
 20
140.4931489992512
 30
0.0
 10
100.6269053498325
 20
140.5655688330835
 30
0.0
 10
101.2124445207345
 20
140.6464664978017
 30
0.0
 10
101.6934135608127
 20
140.7246358367516
 30
0.0
 10
102.1388289248914
 20
140.8094064624048
 30
0.0
 10
102.5773280291641
 20
140.903191053425
 30
0.0
 10
102.9163555150462
 20
140.9810937745212
 30
0.0
 10
103.1037144790923
 20
141.0312902641556
 30
0.0
 10
103.1242051834722
 20
141.0379569179275
 30
0.0
 10
103.1338381395876
 20
141.0410910016579
 30
0.0
  0
SPLINE
  5
FF
330
1F
100
AcDbEntity
  8
0
  6
HIDDEN
 62
     7
370
     0
100
AcDbSpline
210
0.0
220
0.0
230
1.0
 70
     8
 71
     3
 72
     8
 73
     4
 74
     0
 42
0.00000001
 43
0.00000001
 40
0.0
 40
0.0
 40
0.0
 40
0.0
 40
0.0001590976953043
 40
0.0001590976953043
 40
0.0001590976953043
 40
0.0001590976953043
 10
77.76979118292154
 20
101.6395773257753
 30
0.0
 10
77.72473971242852
 20
101.6115984414578
 30
0.0
 10
77.67968367402503
 20
101.583626911089
 30
0.0
 10
77.63462317373748
 20
101.5556625717428
 30
0.0
  0
SPLINE
  5
100
330
1F
100
AcDbEntity
  8
0
  6
HIDDEN
 62
     7
370
     0
100
AcDbSpline
210
0.0
220
0.0
230
1.0
 70
     8
 71
     3
 72
    11
 73
     7
 74
     0
 42
0.00000001
 43
0.00000001
 40
0.0
 40
0.0
 40
0.0
 40
0.0
 40
0.000821290931147
 40
0.000821290931147
 40
0.000821290931147
 40
0.0016428257243086
 40
0.0016428257243086
 40
0.0016428257243086
 40
0.0016428257243086
 10
77.63462317373745
 20
101.5556625717428
 30
0.0
 10
77.4434781522553
 20
101.5123763828872
 30
0.0
 10
77.25205981657885
 20
101.4714398732468
 30
0.0
 10
77.06041374191771
 20
101.4328381018571
 30
0.0
 10
76.86871066037611
 20
101.3942248480169
 30
0.0
 10
76.67676553709056
 20
101.3579446387276
 30
0.0
 10
76.48462317373736
 20
101.3239777323729
 30
0.0
  0
LINE
  5
101
330
1F
100
AcDbEntity
  8
0
  6
HIDDEN
 62
     7
370
     0
100
AcDbLine
 10
124.474623222
 20
137.5769342399
 30
0.0
 11
124.474623222
 21
137.2910685009
 31
0.0
  0
LINE
  5
102
330
1F
100
AcDbEntity
  8
0
  6
HIDDEN
 62
     7
370
     0
100
AcDbLine
 10
128.2946234384
 20
137.6194547034
 30
0.0
 11
128.2946234384
 21
137.2910685009
 31
0.0
  0
LINE
  5
103
330
1F
100
AcDbEntity
  8
0
  6
HIDDEN
 62
     7
370
     0
100
AcDbLine
 10
129.776555095
 20
141.8997573769
 30
0.0
 11
129.776555095
 21
137.2910685009
 31
0.0
  0
SPLINE
  5
104
330
1F
100
AcDbEntity
  8
0
  6
HIDDEN
 62
     7
370
     0
100
AcDbSpline
210
0.0
220
0.0
230
1.0
 70
     8
 71
     3
 72
    24
 73
    20
 74
     0
 42
0.00000001
 43
0.00000001
 40
0.0
 40
0.0
 40
0.0
 40
0.0
 40
0.249999999999999
 40
0.249999999999999
 40
0.3749999999999983
 40
0.3749999999999983
 40
0.4374999999999987
 40
0.4374999999999987
 40
0.4687499999999975
 40
0.4687499999999975
 40
0.4999999999999963
 40
0.4999999999999963
 40
0.5624999999999984
 40
0.5624999999999984
 40
0.6250000000000006
 40
0.6250000000000006
 40
0.7500000000000001
 40
0.7500000000000001
 40
1.0
 40
1.0
 40
1.0
 40
1.0
 10
76.54728654846087
 20
97.76651521702622
 30
0.0
 10
76.5610396671311
 20
97.83716527501652
 30
0.0
 10
76.57881223453697
 20
97.90376338778145
 30
0.0
 10
76.63106332609232
 20
97.97786140801465
 30
0.0
 10
76.6520984016739
 20
97.99911921517621
 30
0.0
 10
76.70499880930231
 20
98.00726514132245
 30
0.0
 10
76.72610448218023
 20
98.00632533792667
 30
0.0
 10
76.77215665085821
 20
97.98530934634931
 30
0.0
 10
76.7905271228416
 20
97.97440054024172
 30
0.0
 10
76.83207875790731
 20
97.94176562929434
 30
0.0
 10
76.85464543066422
 20
97.92027364892296
 30
0.0
 10
76.91742644712424
 20
97.85180770533665
 30
0.0
 10
76.95055620809212
 20
97.80573324713156
 30
0.0
 10
77.00747389457716
 20
97.72072535879688
 30
0.0
 10
77.0316599200809
 20
97.68044505761551
 30
0.0
 10
77.09686787046066
 20
97.56550883114957
 30
0.0
 10
77.13158393065191
 20
97.49492584600256
 30
0.0
 10
77.2247992009828
 20
97.29072008692397
 30
0.0
 10
77.27047173634348
 20
97.1678217045966
 30
0.0
 10
77.30877681984201
 20
97.05094842820903
 30
0.0
  0
SPLINE
  5
105
330
1F
100
AcDbEntity
  8
0
  6
HIDDEN
 62
     7
370
     0
100
AcDbSpline
210
0.0
220
0.0
230
1.0
 70
     8
 71
     3
 72
    11
 73
     7
 74
     0
 42
0.00000001
 43
0.00000001
 40
0.0
 40
0.0
 40
0.0
 40
0.0
 40
0.0005781862223981
 40
0.0005781862223981
 40
0.0005781862223981
 40
0.0011563724723932
 40
0.0011563724723932
 40
0.0011563724723932
 40
0.0011563724723932
 10
77.48462317373775
 20
130.0812100688598
 30
0.0
 10
77.31796261946208
 20
130.1457395802732
 30
0.0
 10
77.15129932255557
 20
130.2102422841119
 30
0.0
 10
76.98463273872527
 20
130.2747287325453
 30
0.0
 10
76.81796614646616
 20
130.3392151842401
 30
0.0
 10
76.65129628084021
 20
130.4036851929679
 30
0.0
 10
76.48462317373745
 20
130.4681409597003
 30
0.0
  0
SPLINE
  5
106
330
1F
100
AcDbEntity
  8
0
  6
HIDDEN
 62
     7
370
     0
100
AcDbSpline
210
0.0
220
0.0
230
1.0
 70
     8
 71
     3
 72
    11
 73
     7
 74
     0
 42
0.00000001
 43
0.00000001
 40
0.0
 40
0.0
 40
0.0
 40
0.0
 40
0.0005778746105124
 40
0.0005778746105124
 40
0.0005778746105124
 40
0.0011557494857259
 40
0.0011557494857259
 40
0.0011557494857259
 40
0.0011557494857259
 10
76.48462317373743
 20
104.4138459063171
 30
0.0
 10
76.65129005015075
 20
104.4796580330022
 30
0.0
 10
76.8179567697122
 20
104.5455165131312
 30
0.0
 10
76.98462341776086
 20
104.6114240860534
 30
0.0
 10
77.15129014227952
 20
104.6773316892153
 30
0.0
 10
77.3179568367001
 20
104.7432887975956
 30
0.0
 10
77.48462317373746
 20
104.8092905375103
 30
0.0
  0
SPLINE
  5
107
330
1F
100
AcDbEntity
  8
0
  6
HIDDEN
 62
     7
370
     0
100
AcDbSpline
210
0.0
220
0.0
230
1.0
 70
     8
 71
     3
 72
    11
 73
     7
 74
     0
 42
0.00000001
 43
0.00000001
 40
0.0000000000000006
 40
0.0000000000000006
 40
0.0000000000000006
 40
0.0000000000000006
 40
0.0005780486062825
 40
0.0005780486062825
 40
0.0005780486062825
 40
0.0011560973514241
 40
0.0011560973514241
 40
0.0011560973514241
 40
0.0011560973514241
 10
76.48462317373745
 20
127.4218822634988
 30
0.0
 10
76.65129302978232
 20
127.3595104019518
 30
0.0
 10
76.81796073386658
 20
127.2971565416222
 30
0.0
 10
76.98462703832024
 20
127.2348369814049
 30
0.0
 10
77.15129337901396
 20
127.1725174076367
 30
0.0
 10
77.31795833564279
 20
127.1102322032864
 30
0.0
 10
77.48462317373748
 20
127.0480070826875
 30
0.0
  0
SPLINE
  5
108
330
1F
100
AcDbEntity
  8
0
  6
HIDDEN
 62
     7
370
     0
100
AcDbSpline
210
0.0
220
0.0
230
1.0
 70
     8
 71
     3
 72
    11
 73
     7
 74
     0
 42
0.00000001
 43
0.00000001
 40
0.0
 40
0.0
 40
0.0
 40
0.0
 40
0.0005782401583596
 40
0.0005782401583596
 40
0.0005782401583596
 40
0.0011564805961118
 40
0.0011564805961118
 40
0.0011564805961118
 40
0.0011564805961118
 10
77.48462317373748
 20
107.8402409695942
 30
0.0
 10
77.31797222338854
 20
107.7768155115043
 30
0.0
 10
77.15131263080586
 20
107.7134599878191
 30
0.0
 10
76.98464557837731
 20
107.6501624034383
 30
0.0
 10
76.8179784418135
 20
107.5868647871043
 30
0.0
 10
76.65130383436744
 20
107.5236249921319
 30
0.0
 10
76.4846231737374
 20
107.4604249854604
 30
0.0
  0
CIRCLE
  5
109
330
1F
100
AcDbEntity
  8
0
  6
HIDDEN
 62
     7
370
     0
100
AcDbCircle
 10
115.3846231737
 20
117.4410677618
 30
0.0
 40
5.0
  0
LINE
  5
10A
330
1F
100
AcDbEntity
  8
0
  6
HIDDEN
 62
     7
370
     0
100
AcDbLine
 10
112.3846233637
 20
131.7389032907
 30
0.0
 11
112.3846233637
 21
129.835008002
 31
0.0
  0
LINE
  5
10B
330
1F
100
AcDbEntity
  8
0
  6
HIDDEN
 62
     7
370
     0
100
AcDbLine
 10
120.384623278
 20
129.835008002
 30
0.0
 11
120.384623278
 21
131.7416981897
 31
0.0
  0
LINE
  5
10C
330
1F
100
AcDbEntity
  8
0
  6
HIDDEN
 62
     7
370
     0
100
AcDbLine
 10
108.3846231737
 20
92.117136634
 30
0.0
 11
108.478783946
 21
92.7871245063
 31
0.0
  0
LINE
  5
10D
330
1F
100
AcDbEntity
  8
0
  6
HIDDEN
 62
     7
370
     0
100
AcDbLine
 10
108.478783946
 20
142.0950110174
 30
0.0
 11
108.3846231737
 21
142.7649988896
 31
0.0
  0
ARC
  5
10E
330
1F
100
AcDbEntity
  8
0
  6
HIDDEN
 62
     7
370
     0
100
AcDbCircle
 10
107.8846164211
 20
92.8706301474
 30
0.0
 40
0.6000067526677242
100
AcDbArc
 50
352.0
 51
0.0
  0
ARC
  5
10F
330
1F
100
AcDbEntity
  8
0
  6
HIDDEN
 62
     7
370
     0
100
AcDbCircle
 10
107.8846164211
 20
92.8706301474
 30
0.0
 40
0.6000067526677242
100
AcDbArc
 50
0.0
 51
33.5571153394
  0
ARC
  5
110
330
1F
100
AcDbEntity
  8
0
  6
HIDDEN
 62
     7
370
     0
100
AcDbCircle
 10
107.8846164211
 20
142.0115053762
 30
0.0
 40
0.6000067526677253
100
AcDbArc
 50
348.75
 51
8.0
  0
LWPOLYLINE
  5
111
330
1F
100
AcDbEntity
  8
0
  6
HIDDEN
 62
     7
370
     0
100
AcDbPolyline
 90
        3
 70
   128
 43
0.0
 10
108.4730942126
 20
141.8944507009
 10
108.4389503809
 20
141.7818929172
 10
108.3846231737
 20
141.6798404521
  0
LINE
  5
112
330
1F
100
AcDbEntity
  8
0
  6
HIDDEN
 62
     7
370
     0
100
AcDbLine
 10
108.4846231712
 20
92.8706306136
 30
0.0
 11
108.4846231712
 21
142.01150491
 31
0.0
  0
ARC
  5
113
330
1F
100
AcDbEntity
  8
0
  6
HIDDEN
 62
     7
370
     0
100
AcDbCircle
 10
102.1396251753
 20
105.4410677618
 30
0.0
 40
8.000000000000004
100
AcDbArc
 50
276.8737647156
 51
321.3178125465
  0
ARC
  5
114
330
1F
100
AcDbEntity
  8
0
  6
HIDDEN
 62
     7
370
     0
100
AcDbCircle
 10
102.1396251753
 20
129.4410677618
 30
0.0
 40
8.00000000000001
100
AcDbArc
 50
38.6821874535
 51
83.1168281217
  0
LINE
  5
115
330
1F
100
AcDbEntity
  8
0
  6
HIDDEN
 62
     7
370
     0
100
AcDbLine
 10
91.4670591989
 20
97.4410682088
 30
0.0
 11
95.658730697
 21
97.4410682088
 31
0.0
  0
LINE
  5
116
330
1F
100
AcDbEntity
  8
0
  6
HIDDEN
 62
     7
370
     0
100
AcDbLine
 10
95.658730697
 20
137.4410673148
 30
0.0
 11
91.4670591989
 21
137.4410673148
 31
0.0
  0
ARC
  5
117
330
1F
100
AcDbEntity
  8
0
  6
HIDDEN
 62
     7
370
     0
100
AcDbCircle
 10
91.467058739
 20
98.0410677618
 30
0.0
 40
0.6000000000000032
100
AcDbArc
 50
210.0
 51
270.0
  0
ARC
  5
118
330
1F
100
AcDbEntity
  8
0
  6
HIDDEN
 62
     7
370
     0
100
AcDbCircle
 10
91.467058739
 20
136.8410677618
 30
0.0
 40
0.6000000000000032
100
AcDbArc
 50
90.0
 51
150.0
  0
LINE
  5
119
330
1F
100
AcDbEntity
  8
0
  6
HIDDEN
 62
     7
370
     0
100
AcDbLine
 10
90.9474426695
 20
137.1410678244
 30
0.0
 11
89.3885986694
 21
134.4410686857
 31
0.0
  0
LINE
  5
11A
330
1F
100
AcDbEntity
  8
0
  6
HIDDEN
 62
     7
370
     0
100
AcDbLine
 10
89.3885986694
 20
100.4410668379
 30
0.0
 11
90.9474426695
 21
97.7410676992
 31
0.0
  0
LINE
  5
11B
330
1F
100
AcDbEntity
  8
0
  6
HIDDEN
 62
     7
370
     0
100
AcDbLine
 10
112.3846233637
 20
144.7154007024
 30
0.0
 11
112.3846233637
 21
141.3866694188
 31
0.0
  0
LINE
  5
11C
330
1F
100
AcDbEntity
  8
0
  6
HIDDEN
 62
     7
370
     0
100
AcDbLine
 10
120.384623278
 20
141.3866694188
 30
0.0
 11
120.384623278
 21
144.7207334554
 31
0.0
  0
ARC
  5
11D
330
1F
100
AcDbEntity
  8
0
  6
HIDDEN
 62
     7
370
     0
100
AcDbCircle
 10
116.8346231737
 20
101.7160677618
 30
0.0
 40
1.5
100
AcDbArc
 50
238.2116693829
 51
0.0
  0
ARC
  5
11E
330
1F
100
AcDbEntity
  8
0
  6
HIDDEN
 62
     7
370
     0
100
AcDbCircle
 10
116.8346231737
 20
133.1660677618
 30
0.0
 40
1.500000000000001
100
AcDbArc
 50
0.0
 51
121.7883306171
  0
LINE
  5
11F
330
1F
100
AcDbEntity
  8
0
  6
HIDDEN
 62
     7
370
     0
100
AcDbLine
 10
86.5846229532
 20
100.4410668379
 30
0.0
 11
89.3885986694
 21
100.4410668379
 31
0.0
  0
LINE
  5
120
330
1F
100
AcDbEntity
  8
0
  6
HIDDEN
 62
     7
370
     0
100
AcDbLine
 10
89.3885986694
 20
134.4410686857
 30
0.0
 11
82.5846222975
 21
134.4410686857
 31
0.0
  0
LINE
  5
121
330
1F
100
AcDbEntity
  8
0
  6
HIDDEN
 62
     7
370
     0
100
AcDbLine
 10
108.3846231737
 20
100.4410668379
 30
0.0
 11
116.0444491358
 21
100.4410668379
 31
0.0
  0
LINE
  5
122
330
1F
100
AcDbEntity
  8
0
  6
HIDDEN
 62
     7
370
     0
100
AcDbLine
 10
116.0444491358
 20
134.4410686857
 30
0.0
 11
108.3846231737
 21
134.4410686857
 31
0.0
  0
LINE
  5
123
330
1F
100
AcDbEntity
  8
0
  6
HIDDEN
 62
     7
370
     0
100
AcDbLine
 10
127.1846229025
 20
107.9410680673
 30
0.0
 11
130.1846233943
 21
107.9410680673
 31
0.0
  0
LINE
  5
124
330
1F
100
AcDbEntity
  8
0
  6
HIDDEN
 62
     7
370
     0
100
AcDbLine
 10
130.1846233943
 20
126.9410674563
 30
0.0
 11
127.1846229025
 21
126.9410674563
 31
0.0
  0
LINE
  5
125
330
1F
100
AcDbEntity
  8
0
  6
HIDDEN
 62
     7
370
     0
100
AcDbLine
 10
118.3346230352
 20
108.4410681492
 30
0.0
 11
118.8346231171
 21
108.9410672999
 31
0.0
  0
LINE
  5
126
330
1F
100
AcDbEntity
  8
0
  6
HIDDEN
 62
     7
370
     0
100
AcDbLine
 10
118.8346231171
 20
125.9410682237
 30
0.0
 11
118.3346230352
 21
126.4410673744
 31
0.0
  0
LINE
  5
127
330
1F
100
AcDbEntity
  8
0
  6
HIDDEN
 62
     7
370
     0
100
AcDbLine
 10
118.8346231171
 20
108.9410672999
 30
0.0
 11
127.1846229025
 21
108.9410672999
 31
0.0
  0
LINE
  5
128
330
1F
100
AcDbEntity
  8
0
  6
HIDDEN
 62
     7
370
     0
100
AcDbLine
 10
127.1846229025
 20
125.9410682237
 30
0.0
 11
118.8346231171
 21
125.9410682237
 31
0.0
  0
LINE
  5
129
330
1F
100
AcDbEntity
  8
0
  6
HIDDEN
 62
     7
370
     0
100
AcDbLine
 10
113.3346231469
 20
148.9410682684
 30
0.0
 11
113.3346231469
 21
143.8410676188
 31
0.0
  0
ARC
  5
12A
330
1F
100
AcDbEntity
  8
0
  6
HIDDEN
 62
     7
370
     0
100
AcDbCircle
 10
208.0846231737
 20
112.1410677618
 30
0.0
 40
0.2999999999999972
100
AcDbArc
 50
0.0
 51
90.0
  0
ARC
  5
12B
330
1F
100
AcDbEntity
  8
0
  6
HIDDEN
 62
     7
370
     0
100
AcDbCircle
 10
208.0846231737
 20
122.7410677618
 30
0.0
 40
0.2999999999999972
100
AcDbArc
 50
270.0
 51
0.0
  0
ARC
  5
12C
330
1F
100
AcDbEntity
  8
0
  6
HIDDEN
 62
     7
370
     0
100
AcDbCircle
 10
170.4898491556
 20
112.5410677618
 30
0.0
 40
0.3999999999999915
100
AcDbArc
 50
270.0
 51
290.0
  0
ARC
  5
12D
330
1F
100
AcDbEntity
  8
0
  6
HIDDEN
 62
     7
370
     0
100
AcDbCircle
 10
170.4898491556
 20
122.3410677618
 30
0.0
 40
0.3999999999999915
100
AcDbArc
 50
70.0
 51
90.0
  0
LINE
  5
12E
330
1F
100
AcDbEntity
  8
0
  6
HIDDEN
 62
     7
370
     0
100
AcDbLine
 10
167.7846228519
 20
112.1410679175
 30
0.0
 11
170.4898504355
 21
112.1410679175
 31
0.0
  0
LINE
  5
12F
330
1F
100
AcDbEntity
  8
0
  6
HIDDEN
 62
     7
370
     0
100
AcDbLine
 10
170.4898504355
 20
122.7410676061
 30
0.0
 11
167.7846228519
 21
122.7410676061
 31
0.0
  0
ARC
  5
130
330
1F
100
AcDbEntity
  8
0
  6
HIDDEN
 62
     7
370
     0
100
AcDbCircle
 10
167.7846231737
 20
112.5410677618
 30
0.0
 40
0.3999999999999915
100
AcDbArc
 50
180.0
 51
270.0
  0
ARC
  5
131
330
1F
100
AcDbEntity
  8
0
  6
HIDDEN
 62
     7
370
     0
100
AcDbCircle
 10
167.7846231737
 20
122.3410677618
 30
0.0
 40
0.3999999999999915
100
AcDbArc
 50
90.0
 51
180.0
  0
LINE
  5
132
330
1F
100
AcDbEntity
  8
0
  6
HIDDEN
 62
     7
370
     0
100
AcDbLine
 10
170.6266579964
 20
112.1651905692
 30
0.0
 11
171.384624187
 21
112.4410678736
 31
0.0
  0
LINE
  5
133
330
1F
100
AcDbEntity
  8
0
  6
HIDDEN
 62
     7
370
     0
100
AcDbLine
 10
171.384624187
 20
122.44106765
 30
0.0
 11
170.6266579964
 21
122.7169449544
 31
0.0
  0
LINE
  5
134
330
1F
100
AcDbEntity
  8
0
  6
HIDDEN
 62
     7
370
     0
100
AcDbLine
 10
171.384624187
 20
112.4410678736
 30
0.0
 11
208.0846195855
 21
112.4410678736
 31
0.0
  0
LINE
  5
135
330
1F
100
AcDbEntity
  8
0
  6
HIDDEN
 62
     7
370
     0
100
AcDbLine
 10
208.0846195855
 20
122.44106765
 30
0.0
 11
188.9321198502
 21
122.44106765
 31
0.0
  0
LINE
  5
136
330
1F
100
AcDbEntity
  8
0
  6
HIDDEN
 62
     7
370
     0
100
AcDbLine
 10
188.8376241365
 20
122.44106765
 30
0.0
 11
171.384624187
 21
122.44106765
 31
0.0
  0
LINE
  5
137
330
1F
100
AcDbEntity
  8
0
  6
HIDDEN
 62
     7
370
     0
100
AcDbLine
 10
103.5690610112
 20
93.3616965181
 30
0.0
 11
103.1346288325
 21
93.8407632625
 31
0.0
  0
LINE
  5
138
330
1F
100
AcDbEntity
  8
0
  6
HIDDEN
 62
     7
370
     0
100
AcDbLine
 10
95.6346252748
 20
94.2624512232
 30
0.0
 11
95.1521917992
 21
93.7833844787
 31
0.0
  0
LINE
  5
139
330
1F
100
AcDbEntity
  8
0
  6
HIDDEN
 62
     7
370
     0
100
AcDbLine
 10
95.152069796
 20
141.098745457
 30
0.0
 11
95.6346206182
 21
140.6196246958
 31
0.0
  0
LINE
  5
13A
330
1F
100
AcDbEntity
  8
0
  6
HIDDEN
 62
     7
370
     0
100
AcDbLine
 10
103.1346232445
 20
141.0413238323
 30
0.0
 11
103.5691653193
 21
141.5204427308
 31
0.0
  0
LINE
  5
13B
330
1F
100
AcDbEntity
  8
0
  6
HIDDEN
 62
     7
370
     0
100
AcDbLine
 10
130.1846233943
 20
113.2410679116
 30
0.0
 11
167.3846235314
 21
113.2410679116
 31
0.0
  0
LINE
  5
13C
330
1F
100
AcDbEntity
  8
0
  6
HIDDEN
 62
     7
370
     0
100
AcDbLine
 10
167.3846235314
 20
121.6410676121
 30
0.0
 11
130.1846233943
 21
121.6410676121
 31
0.0
  0
LINE
  5
13D
330
1F
100
AcDbEntity
  8
0
  6
HIDDEN
 62
     7
370
     0
100
AcDbLine
 10
103.1346232445
 20
137.3764689184
 30
0.0
 11
103.1346232445
 21
141.041031397
 31
0.0
  0
LINE
  5
13E
330
1F
100
AcDbEntity
  8
0
  6
HIDDEN
 62
     7
370
     0
100
AcDbLine
 10
95.6346234122
 20
140.6194812721
 30
0.0
 11
95.6346234122
 21
137.4366900987
 31
0.0
  0
LINE
  5
13F
330
1F
100
AcDbEntity
  8
0
  6
HIDDEN
 62
     7
370
     0
100
AcDbLine
 10
103.1346232445
 20
93.8412456876
 30
0.0
 11
103.1346232445
 21
97.5056666053
 31
0.0
  0
LINE
  5
140
330
1F
100
AcDbEntity
  8
0
  6
HIDDEN
 62
     7
370
     0
100
AcDbLine
 10
95.6346234122
 20
97.4454454249
 30
0.0
 11
95.6346234122
 21
94.2627734608
 31
0.0
  0
DIMENSION
  5
141
330
1F
100
AcDbEntity
  8
VERMASSUNG
100
AcDbDimension
  2
*D1
 10
70.1620056452
 20
85.9410677618
 30
0.0
 11
70.1620056452
 21
116.9969442888
 31
0.0
 70
   160
  1
HSK A%%c<>
 71
     2
 42
-1.0
  3
SLDDIMSTYLE0
100
AcDbAlignedDimension
 13
108.6846231737
 23
148.9410677618
 33
0.0
 14
108.6846231737
 24
85.9410677618
 34
0.0
 50
90.0
100
AcDbRotatedDimension
  0
DIMENSION
  5
14E
330
1F
100
AcDbEntity
  8
VERMASSUNG
100
AcDbDimension
  2
*D2
 10
134.3346231737
 20
156.0549175553
 30
0.0
 11
167.5399045007
 21
156.0549175553
 31
0.0
 70
   160
 71
     2
 42
-1.0
  3
SLDDIMSTYLE0
100
AcDbAlignedDimension
 13
208.3846231737
 23
128.6669272402
 33
0.0
 14
134.3346231737
 24
147.2875080856
 34
0.0
100
AcDbRotatedDimension
  0
DIMENSION
  5
158
330
1F
100
AcDbEntity
  8
VERMASSUNG
100
AcDbDimension
  2
*D3
 10
108.3846231737
 20
162.0549175553
 30
0.0
 11
157.0774509253
 21
162.0549175553
 31
0.0
 70
   160
 71
     2
 42
-1.0
  3
SLDDIMSTYLE0
100
AcDbAlignedDimension
 13
208.3846231737
 23
128.6669272402
 33
0.0
 14
108.3846231737
 24
148.6410677618
 34
0.0
100
AcDbRotatedDimension
  0
DIMENSION
  5
162
330
1F
100
AcDbEntity
  8
VERMASSUNG
100
AcDbDimension
  2
*D4
 10
76.4846231737
 20
168.0549175553
 30
0.0
 11
139.5757229746
 21
168.0549175553
 31
0.0
 70
   160
 71
     2
 42
-1.0
  3
SLDDIMSTYLE0
100
AcDbAlignedDimension
 13
208.3846231737
 23
128.6669272402
 33
0.0
 14
76.4846231737
 24
137.1317455083
 34
0.0
100
AcDbRotatedDimension
  0
DIMENSION
  5
16C
330
1F
100
AcDbEntity
  8
VERMASSUNG
100
AcDbDimension
  2
*D5
 10
216.3279393299
 20
112.4410677618
 30
0.0
 11
216.3279393299
 21
117.2001701483
 31
0.0
 70
   160
  1
%%c<>
 71
     2
 42
-1.0
  3
SLDDIMSTYLE0
100
AcDbAlignedDimension
 13
208.0846231737
 23
122.4410677618
 33
0.0
 14
208.0846231737
 24
112.4410677618
 34
0.0
 50
90.0
100
AcDbRotatedDimension
  0
DIMENSION
  5
177
330
1F
100
AcDbEntity
  8
VERMASSUNG
100
AcDbDimension
  2
*D6
 10
222.3279393299
 20
99.9410677618
 30
0.0
 11
222.3279393299
 21
117.1576139477
 31
0.0
 70
   160
  1
%%c<>
 71
     2
 42
-1.0
  3
SLDDIMSTYLE0
100
AcDbAlignedDimension
 13
197.6620885712
 23
134.9410677618
 33
0.0
 14
197.6620885712
 24
99.9410677618
 34
0.0
 50
90.0
100
AcDbRotatedDimension
  0
LINE
  5
182
330
1F
100
AcDbEntity
  8
VERMASSUNG
  6
CENTERX2
 62
     7
370
     0
100
AcDbLine
 10
74.3393193314
 20
117.4410677618
 30
0.0
 11
210.6251635942
 21
117.4410677618
 31
0.0
  0
OLE2FRAME
  5
183
330
1F
100
AcDbEntity
  8
0
100
AcDbOle2Frame
 70
     2
  3
Bitmap Image
 10
13.8511154363
 20
38.264191557
 30
0.0
 11
51.6290888628
 21
31.9806341108
 31
0.0
 71
     2
 72
     0
 73
     1
 90
    12928
310
80552BED0767C5B32B40DDAF6807D121434000000000000000006FFBDDFB85D0
310
4940DDAF6807D121434000000000000000006FFBDDFB85D04940416F4BD60AFB
310
3F4000000000000000002BED0767C5B32B40416F4BD60AFB3F40000000000000
310
0000000000000100000000010000010000000100000000000100000000320000
310
D0CF11E0A1B11AE1000000000000000000000000000000003E000300FEFF0900
310
0600000000000000000000000100000001000000000000000010000002000000
310
01000000FEFFFFFF0000000000000000FFFFFFFFFFFFFFFFFFFFFFFFFFFFFFFF
310
FFFFFFFFFFFFFFFFFFFFFFFFFFFFFFFFFFFFFFFFFFFFFFFFFFFFFFFFFFFFFFFF
310
FFFFFFFFFFFFFFFFFFFFFFFFFFFFFFFFFFFFFFFFFFFFFFFFFFFFFFFFFFFFFFFF
310
FFFFFFFFFFFFFFFFFFFFFFFFFFFFFFFFFFFFFFFFFFFFFFFFFFFFFFFFFFFFFFFF
310
FFFFFFFFFFFFFFFFFFFFFFFFFFFFFFFFFFFFFFFFFFFFFFFFFFFFFFFFFFFFFFFF
310
FFFFFFFFFFFFFFFFFFFFFFFFFFFFFFFFFFFFFFFFFFFFFFFFFFFFFFFFFFFFFFFF
310
FFFFFFFFFFFFFFFFFFFFFFFFFFFFFFFFFFFFFFFFFFFFFFFFFFFFFFFFFFFFFFFF
310
FFFFFFFFFFFFFFFFFFFFFFFFFFFFFFFFFFFFFFFFFFFFFFFFFFFFFFFFFFFFFFFF
310
FFFFFFFFFFFFFFFFFFFFFFFFFFFFFFFFFFFFFFFFFFFFFFFFFFFFFFFFFFFFFFFF
310
FFFFFFFFFFFFFFFFFFFFFFFFFFFFFFFFFFFFFFFFFFFFFFFFFFFFFFFFFFFFFFFF
310
FFFFFFFFFFFFFFFFFFFFFFFFFFFFFFFFFFFFFFFFFFFFFFFFFFFFFFFFFFFFFFFF
310
FFFFFFFFFFFFFFFFFFFFFFFFFFFFFFFFFFFFFFFFFFFFFFFFFFFFFFFFFFFFFFFF
310
FFFFFFFFFFFFFFFFFFFFFFFFFFFFFFFFFFFFFFFFFFFFFFFFFFFFFFFFFFFFFFFF
310
FFFFFFFFFFFFFFFFFFFFFFFFFFFFFFFFFFFFFFFFFFFFFFFFFFFFFFFFFFFFFFFF
310
FDFFFFFFFEFFFFFFFEFFFFFFFEFFFFFF05000000060000000700000008000000
310
090000000A0000000B0000000C0000000D0000000E0000000F00000010000000
310
11000000120000001300000014000000150000001600000017000000FEFFFFFF
310
FFFFFFFFFFFFFFFFFFFFFFFFFFFFFFFFFFFFFFFFFFFFFFFFFFFFFFFFFFFFFFFF
310
FFFFFFFFFFFFFFFFFFFFFFFFFFFFFFFFFFFFFFFFFFFFFFFFFFFFFFFFFFFFFFFF
310
FFFFFFFFFFFFFFFFFFFFFFFFFFFFFFFFFFFFFFFFFFFFFFFFFFFFFFFFFFFFFFFF
310
FFFFFFFFFFFFFFFFFFFFFFFFFFFFFFFFFFFFFFFFFFFFFFFFFFFFFFFFFFFFFFFF
310
FFFFFFFFFFFFFFFFFFFFFFFFFFFFFFFFFFFFFFFFFFFFFFFFFFFFFFFFFFFFFFFF
310
FFFFFFFFFFFFFFFFFFFFFFFFFFFFFFFFFFFFFFFFFFFFFFFFFFFFFFFFFFFFFFFF
310
FFFFFFFFFFFFFFFFFFFFFFFFFFFFFFFFFFFFFFFFFFFFFFFFFFFFFFFFFFFFFFFF
310
FFFFFFFFFFFFFFFFFFFFFFFFFFFFFFFFFFFFFFFFFFFFFFFFFFFFFFFFFFFFFFFF
310
FFFFFFFFFFFFFFFFFFFFFFFFFFFFFFFFFFFFFFFFFFFFFFFFFFFFFFFFFFFFFFFF
310
FFFFFFFFFFFFFFFFFFFFFFFFFFFFFFFFFFFFFFFFFFFFFFFFFFFFFFFFFFFFFFFF
310
FFFFFFFFFFFFFFFFFFFFFFFFFFFFFFFFFFFFFFFFFFFFFFFFFFFFFFFFFFFFFFFF
310
FFFFFFFFFFFFFFFFFFFFFFFFFFFFFFFFFFFFFFFFFFFFFFFFFFFFFFFFFFFFFFFF
310
FFFFFFFFFFFFFFFFFFFFFFFFFFFFFFFFFFFFFFFFFFFFFFFFFFFFFFFFFFFFFFFF
310
52006F006F007400200045006E00740072007900000000000000000000000000
310
0000000000000000000000000000000000000000000000000000000000000000
310
16000500FFFFFFFFFFFFFFFF020000000A00030000000000C000000000000046
310
00000000000000000000000030184D5228FFCB0103000000C000000000000000
310
01004F006C006500000000000000000000000000000000000000000000000000
310
0000000000000000000000000000000000000000000000000000000000000000
310
0A000200FFFFFFFFFFFFFFFFFFFFFFFF00000000000000000000000000000000
310
0000000000000000000000000000000000000000000000001400000000000000
310
010043006F006D0070004F0062006A0000000000000000000000000000000000
310
0000000000000000000000000000000000000000000000000000000000000000
310
120002010100000003000000FFFFFFFF00000000000000000000000000000000
310
0000000000000000000000000000000000000000010000004D00000000000000
310
01004F006C006500310030004E00610074006900760065000000000000000000
310
0000000000000000000000000000000000000000000000000000000000000000
310
1A000200FFFFFFFFFFFFFFFFFFFFFFFF00000000000000000000000000000000
310
0000000000000000000000000000000000000000040000002426000000000000
310
FEFFFFFF02000000FEFFFFFFFFFFFFFFFFFFFFFFFFFFFFFFFFFFFFFFFFFFFFFF
310
FFFFFFFFFFFFFFFFFFFFFFFFFFFFFFFFFFFFFFFFFFFFFFFFFFFFFFFFFFFFFFFF
310
FFFFFFFFFFFFFFFFFFFFFFFFFFFFFFFFFFFFFFFFFFFFFFFFFFFFFFFFFFFFFFFF
310
FFFFFFFFFFFFFFFFFFFFFFFFFFFFFFFFFFFFFFFFFFFFFFFFFFFFFFFFFFFFFFFF
310
FFFFFFFFFFFFFFFFFFFFFFFFFFFFFFFFFFFFFFFFFFFFFFFFFFFFFFFFFFFFFFFF
310
FFFFFFFFFFFFFFFFFFFFFFFFFFFFFFFFFFFFFFFFFFFFFFFFFFFFFFFFFFFFFFFF
310
FFFFFFFFFFFFFFFFFFFFFFFFFFFFFFFFFFFFFFFFFFFFFFFFFFFFFFFFFFFFFFFF
310
FFFFFFFFFFFFFFFFFFFFFFFFFFFFFFFFFFFFFFFFFFFFFFFFFFFFFFFFFFFFFFFF
310
FFFFFFFFFFFFFFFFFFFFFFFFFFFFFFFFFFFFFFFFFFFFFFFFFFFFFFFFFFFFFFFF
310
FFFFFFFFFFFFFFFFFFFFFFFFFFFFFFFFFFFFFFFFFFFFFFFFFFFFFFFFFFFFFFFF
310
FFFFFFFFFFFFFFFFFFFFFFFFFFFFFFFFFFFFFFFFFFFFFFFFFFFFFFFFFFFFFFFF
310
FFFFFFFFFFFFFFFFFFFFFFFFFFFFFFFFFFFFFFFFFFFFFFFFFFFFFFFFFFFFFFFF
310
FFFFFFFFFFFFFFFFFFFFFFFFFFFFFFFFFFFFFFFFFFFFFFFFFFFFFFFFFFFFFFFF
310
FFFFFFFFFFFFFFFFFFFFFFFFFFFFFFFFFFFFFFFFFFFFFFFFFFFFFFFFFFFFFFFF
310
FFFFFFFFFFFFFFFFFFFFFFFFFFFFFFFFFFFFFFFFFFFFFFFFFFFFFFFFFFFFFFFF
310
FFFFFFFFFFFFFFFFFFFFFFFFFFFFFFFFFFFFFFFFFFFFFFFFFFFFFFFFFFFFFFFF
310
0100000200000000000000000000000000000000000000001501820000000005
310
70FDE35600000000C80225000000000000000000000000000000000000000000
310
0100FEFF030A0000FFFFFFFF0A00030000000000C00000000000004607000000
310
5042727573680007000000504272757368000700000050427275736800F439B2
310
7100000000000000000000000000000000000000000000000000000000000000
310
0000000000000000000000000000000000000000000000000000000000000000
310
0000000000000000000000000000000000000000000000000000000000000000
310
0000000000000000000000000000000000000000000000000000000000000000
310
0000000000000000000000000000000000000000000000000000000000000000
310
0000000000000000000000000000000000000000000000000000000000000000
310
0000000000000000000000000000000000000000000000000000000000000000
310
0000000000000000000000000000000000000000000000000000000000000000
310
0000000000000000000000000000000000000000000000000000000000000000
310
0000000000000000000000000000000000000000000000000000000000000000
310
0000000000000000000000000000000000000000000000000000000000000000
310
0000000000000000000000000000000000000000000000000000000000000000
310
20260000424D0E260000000000003E00000028000000B40200006E0000000100
310
01000000000000000000130B0000130B00000200000002000000000000FFFFFF
310
FFFFFFFFFFFFFFFFFFFFFFFFFFFFFFFFFFFFFFFFFFFFFFFFFFFFFFFFFFFFFFFF
310
FFFFFFFFFFFFFFFFFFFFFFFFFFFFFFFFFFFFFFFFFFFFFFFFFFFFFFFFFFFFFFFF
310
FFFFFFFFFFFFFFFFFFFFFFFFFFFFFFFFFFFFFFFFFFFFFFFFF000FFFFFFFFFFFF
310
FFFFFFFFFFFFFFFFFFFFFFFFFFFFFFFFFFFFFFFFFFFFFFFFFFFFFFFFFFFFFFFF
310
FFFFFFFFFFFFFFFFFFFFFFFFFFFFFFFFFFFFFFFFFFFFFFFFFFFFFFFFFFFFFFFF
310
FFFFFFFFFFFFFFFFFFFFFFFFFFFFFFFFF000FFFFFFFFFFFFFFFFFFFFFFFFFFFF
310
FFFFFFFFFFFFFFFFFFFFFFFFFFFFFFFFFFFFFFFFFFFFFFFFFFFFFFFFFFFFFFFF
310
FFFFFFFFFFFFFFFFFFFFFFFFFFFFFFFFFFFFFFFFFFFFFFFFFFFFFFFFFFFFFFFF
310
FFFFFFFFFFFFFFFFF000FFFFFFFFFFFFFFFFFFFFFFFFFFFFFFFFFFFFFFFFFFFF
310
FFFFFFFFFFFFFFFFFFFFFFFFFFFFFFFFFFFFFFFFFFFFFFFFFFFFFFFFFFFFFFFF
310
FFFFFFFFFFFFFFFFFFFFFFFFFFFFFFFFFFFFFFFFFFFFFFFFFFFFFFFFFFFFFFFF
310
F000FFFFFFFFFFFFFFFFFFFFFFFFFFFFFFFFFFFFFFFFFFFFFFFFFFFFFFFFFFFF
310
FFFFFFFFFFFFFFFFFFFFFFFFFFFFFFFFFFFFFFFFFFFFFFFFFFFFFFFFFFFFFFFF
310
FFFFFFFFFFFFFFFFFFFFFFFFFFFFFFFFFFFFFFFFFFFFFFFFF000FFFFFFFFFFFF
310
FFFFFFFFFFFFFFFFFFFFFFFFFFFFFFFFFFFFFFFFFFFFFFFFFFFFFFFFFFFFFFFF
310
FFFFFFFFFFFFFFFFFFFFFFFFFFFFFFFFFFFFFFFFFFFFFFFFFFFFFFFFFFFFFFFF
310
FFFFFFFFFFFFFFFFFFFFFFFFFFFFFFFFF000FFFFFFFFFFFFFFFFFFFFFFFFFFFF
310
FFFFFFFFFFFFFFFFFFFFFFFFFFFFFFFFFFFFFFFFFFFFFFFFFFFFFFFFFFFFFFFF
310
FFFFFFFFFFFFFFFFFFFFFFFFFFFFFFFFFFFFFFFFFFFFFFFFFFFFFFFFFFFFFFFF
310
FFFFFFFFFFFFFFFFF000FFFFFFFFFFFFFFFFFFFFFFFFFFFFFFFFFFFFFFFFFFFF
310
FFFFFFFFFFFFFFFFFFFFFFFFFFFFFFFFFFFFFFFFFFFFFFFFFFFFFFFFFFFFFFFF
310
FFFFFFFFFFFFFFFFFFFFFFFFFFFFFFFFFFFFFFFFFFFFFFFFFFFFFFFFFFFFFFFF
310
F000FFFFFFFFFFFFFFFFFFFFFFFFFFFFFFFFFFFFFFFFFFFFFFFFFFFFFFFFFFFF
310
FFFFFFFFFFFFFFFFFFFFFFFFFFFFFFFFFFFFFFFFFFFFFFFFFFFFFFFFFFFFFFFF
310
FFFFFFFFFFFFFFFFFFFFFFFFFFFFFFFFFFFFFFFFFFFFFFFFF000FFFFFFFFFFFF
310
FFFFFFFFFFFFFFFFFFFFFFFFFFFFFFFFFFFFFFFFFFFFFFFFFFFFFFFFFFFFFFFF
310
FFFFFFFFFFFFFFFFFFFFFFFFFFFFFFFFFFFFFFFFFFFFFFFFFFFFFFFFFFFFFFFF
310
FFFFFFFFFFFFFFFFFFFFFFFFFFFFFFFFF000FFFFFFFFFFFFFFFFFFFFFFFFFFFF
310
FFFFFFFFFFFFFFFFFFFFFFFFFFFFFFFFFFFFFFFFFFFFFFFFFFFFFFFFFFFFFFFF
310
FFFFFFFFFFFFFFFFFFFFFFFFFFFFFFFFFFFFFFFFFFFFFFFFFFFFFFFFFFFFFFFF
310
FFFFFFFFFFFFFFFFF000FFFFFFFFFFFFFFFFFFFFFFFFFFFFFFFFFFFFFFFFFFFF
310
FFFFFFFFFFFFFFFFFFFFFFFFFFFFFFFFFFFFFFFFFFFFFFFFFFFFFFFFFFFFFFFF
310
FFFFFFFFFFFFFFFFFFFFFFFFFFFFFFFFFFFFFFFFFFFFFFFFFFFFFFFFFFFFFFFF
310
F000FFFFFFFFFFFFFFFFFFFFFFFFFFFFFFFFFFFFFFFFFFFFFFFFFFFFFFFFFFFF
310
FFFFFFFFFFFFFFFFFFFFFFFFFFFFFFFFFFFFFFFFFFFFFFFFFFFFFFFFFFFFFFFF
310
FFFFFFFFFFFFFFFFFFFFFFFFFFFFFFFFFFFFFFFFFFFFFFFFF000FFFFFFFFFFFF
310
FFFFFFFFFFFFFFFFFFFFFFFFFFFFFFFFFFFFFFFFFFFFFFFFFFFFFFFFFFFFFFFF
310
FFFFFFFFFFFFFFFFFFFFFFFFFFFFFFFFFFFFFFFFFFFFFFFFFFFFFFFFFFFFFFFF
310
FFFFFFFFFFFFFFFFFFFFFFFFFFFFFFFFF000FFFFFFFFFFFFFFFFFFFFFFFFFFFF
310
FFFFFFFFFFFFFFFFFFFFFFFFFFFFFFFFFFFFFFFFFFFFFFFFFFFFFFFFFFFFFFFF
310
FFFFFFFFFFFFFFFFFFFFFFFFFFFFFFFFFFFFFFFFFFFFFFFFFFFFFFFFFFFFFFFF
310
FFFFFFFFFFFFFFFFF000FFFFFFFFFFFFFFFFFFFFFFFFFFFFFFFFFFFFFFFFFFFF
310
FFFFFFFFFFFFFFFFFFFFFFFFFFFFFFFFFFFFFFFFFFFFFFFFFFFFFFFFFFFFFFFF
310
FFFFFFFFFFFFFFFFFFFFFFFFFFFFFFFFFFFFFFFFFFFFFFFFFFFFFFFFFFFFFFFF
310
F000FFFFFFFFFFFFFFFFFFFFFFFFFFFFFFFFFFFFFFFFFFFFFFFFFFFFFFFFFFFF
310
FFFFFFFFFFFFFFFFFFFFFFFFFFFFFFFFFFFFFFFFFFFFFFFFFFFFFFFFFFFFFFFF
310
FFFFFFFFFFFFFFFFFFFFFFFFFFFFFFFFFFFFFFFFFFFFFFFFF000FFFFFFFFFFFF
310
FFFFFFFFFFFFFFFFFFFFFFFFFFFFFFFFFFFFFFFFFFFFFFFFFFFFFFFFFFFFFFFF
310
FFFFFFFFFFFFFFFFFFFFFFFFFFFFFFFFFFFFFFFFFFFFFFFFFFFFFFFFFFFFFFFF
310
FFFFFFFFFFFFFFFFFFFFFFFFFFFFFFFFF000FFFFFFFFFFFFFFFFFFFFFFFFFFFF
310
FFFFFFFFFFFFFFFFFFFFFFFFFFFFFFFFFFFFFFFFFFFFFFFFFFFFFFFFFFFFFFFF
310
FFFFFFFFFFFFFFFFFFFFFFFFFFFFFFFFFFFFFFFFFFFFFFFFFFFFFFFFFFFFFFFF
310
FFFFFFFFFFFFFFFFF000FFFFF80003FFFFFFFFFFFFFFFFFFFFFFFFFFFFFFFFFF
310
FFFFF00007FFFFFFFFFF00007FFFFFF800000000000000007FFFFFFFFFFFFFFF
310
FFFFFFFC001FFFFFFFFFFFFFFC001FFFFFFFFFFFFFFFFFFFFFFFFFFE0007FFFF
310
F000FFFF8000007FFFFFFFF8000FFFFFC0007FFFFF80007FFFFF0000007FFFFF
310
FFF8000007FFFFF800000000000000007FFFFFF0001FFFFFFFFFFFC00001FFFF
310
FFFFFFFFC00001FFFFFFFF000000000003FFFFE000007FFFF000FFFE0000000F
310
FFFFFFF0000FFFFF80007FFFFF80007FFFFC0000001FFFFFFFC0000001FFFFF8
310
00000000000000007FFFFFF0001FFFFFFFFFFE0000003FFFFFFFFFFE0000003F
310
FFFFFF000000000003FFFF0000000FFFF000FFF800000003FFFFFFF00007FFFF
310
80007FFFFF80007FFFF000000007FFFFFF000000003FFFF80000000000000000
310
7FFFFFF0001FFFFFFFFFF80000000FFFFFFFFFF80000000FFFFFFF0000000000
310
03FFFC00000003FFF000FFE000000000FFFFFFF00007FFFF80003FFFFF80007F
310
FFC000000001FFFFFC000000001FFFF800000000000000007FFFFFF0001FFFFF
310
FFFFE000000003FFFFFFFFE000000003FFFFFF000000000003FFF000000000FF
310
F000FF80000000007FFFFFF00007FFFF80003FFFFF80007FFF8000000000FFFF
310
F80000000007FFF800000000000000007FFFFFF0001FFFFFFFFFC000000001FF
310
FFFFFFC000000001FFFFFF000000000003FFC0000000007FF000FF0000000000
310
3FFFFFE00007FFFF00003FFFFF80007FFE00000000003FFFF00000000003FFF8
310
00000000000000007FFFFFF0001FFFFFFFFF8000000000FFFFFFFF8000000000
310
FFFFFF000000000003FF80000000003FF000FE00000000001FFFFFE00003FFFF
310
00003FFFFF80007FFC00000000001FFFE00000000001FFF8000001FFFE000000
310
7FFFFFF0001FFFFFFFFE00000000003FFFFFFE00000000003FFFFF0000000000
310
03FF00000000001FF000FC00000000000FFFFFE00003FFFF00001FFFFF80007F
310
F800000000001FFFC00000000000FFF8000001FFFE0000007FFFFFF0001FFFFF
310
FFFC00000000001FFFFFFC00000000001FFFFF000000000003FE00000000000F
310
F000F8000000000007FFFFE00003FFFF00001FFFFF80007FF800000000000FFF
310
800000000000FFF8000001FFFE0000007FFFFFF0001FFFFFFFF800000000000F
310
FFFFF800000000000FFFFF000000000003FC000000000007F000F80000000000
310
03FFFFC00003FFFE00001FFFFF80007FF0000000000007FF0000000000007FF8
310
000001FFFE0000007FFFFFF0001FFFFFFFF0000000000007FFFFF00000000000
310
07FFFF000000000003F8000000000003F000F0000000000003FFFFC00001FFFE
310
00001FFFFF80007FE0000000000007FE0000000000003FF8000001FFFE000000
310
7FFFFFF0001FFFFFFFF0000000000007FFFFF0000000000007FFFF0000000000
310
03F800001F800003F000E00001FFF00001FFFFC00001FFFE00000FFFFF80007F
310
E00001FFE00003FE00001FFF00003FF8000001FFFE0000007FFFFFF0001FFFFF
310
FFE000003E000003FFFFE000003E000003FFFF000000000003F00001FFF80001
310
F000E00007FFFC0001FFFFC00001FFFE00000FFFFF80007FC0000FFFFC0003FC
310
0000FFFFC0001FF8000001FFFE0000007FFFFFF0001FFFFFFFC00003FFE00001
310
FFFFC00003FFE00001FFFF0001FFFFFFFFF00007FFFE0001F000E0000FFFFF00
310
00FFFF800001FFFC00000FFFFF80007FC0001FFFFE0001FC0001FFFFE0001FF8
310
000001FFFE0000007FFFFFF0001FFFFFFF80000FFFF80000FFFF80000FFFF800
310
00FFFF0003FFFFFFFFE0000FFFFF8000F000C0003FFFFF8000FFFF800000FFFC
310
000007FFFF80007F80003FFFFF0001FC0003FFFFF0001FF8000001FFFE000000
310
7FFFFFF0001FFFFFFF80003FFFFE0000FFFF80003FFFFE0000FFFF0003FFFFFF
310
FFE0003FFFFF8000F000C0003FFFFF8000FFFF800000FFFC000007FFFF80007F
310
80007FFFFF8001F80007FFFFF8000FF8000001FFFE0000007FFFFFF0001FFFFF
310
FF00007FFFFF00007FFF00007FFFFF00007FFF0003FFFFFFFFE0003FFFFFC000
310
F000C0007FFFFFC000FFFF000000FFFC000007FFFF80007F8000FFFFFF8000F8
310
000FFFFFF8000FF8000001FFFE0000007FFFFFF0001FFFFFFF0000FFFFFF8000
310
7FFF0000FFFFFF80007FFF0003FFFFFFFFC0007FFFFFC00070008000FFFFFFC0
310
00FFFF000000FFF8000007FFFF80007F8000FFFFFF8000F8000FFFFFF8000FF8
310
000001FFFE0000007FFFFFF0001FFFFFFE0001FFFFFFC0003FFE0001FFFFFFC0
310
003FFF0003FFFFFFFFC0007FFFFFE00070008000FFFFFFC0007FFF0000007FF8
310
000003FFFF80007F0001FFFFFF8000F8000FFFFFF8000FF8000001FFFE000000
310
7FFFFFF0001FFFFFFE0001FFFFFFC0003FFE0001FFFFFFC0003FFF0003FFFFFF
310
FFC000FFFFFFE00070008000FFFFFFC0007FFF0000007FF8000003FFFF80007F
310
0001FFFFFF8000F8001FFFFFF8000FF8000001FFFE0000007FFFFFF0001FFFFF
310
FE0003FFFFFFE0003FFE0003FFFFFFE0003FFF0003FFFFFFFFC000FFFFFFE000
310
70008000FFFFFFC0007FFE0000007FF8000003FFFF80007F0001FFFFFF8000F0
310
001FFFFFF8000FF8000001FFFE0000007FFFFFF0001FFFFFFC0003FFFFFFE000
310
1FFC0003FFFFFFE0001FFF0003FFFFFFFFC000FFFFFFC00070008000FFFFFF80
310
007FFE0000007FF0000003FFFF80007F0001FFFFFF0000F0001FFFFFF8000FF8
310
000001FFFE0000007FFFFFF0001FFFFFFC0007FFFFFFF0001FFC0007FFFFFFF0
310
001FFF0003FFFFFFFFC000FFFFFFC00070008001FFFFFF0000FFFE0000003FF0
310
000001FFFF80007F0001FFFFFF0000F8001FFFFFF0000FF8000001FFFE000000
310
7FFFFFF0001FFFFFFC0007FFFFFFF0001FFC0007FFFFFFF0001FFF0003FFFFFF
310
FFC001FFFFFF80007000FFFFFFFFFE0000FFFE0008003FF0008001FFFF80007F
310
FFFFFFFFFC0000FFFFFFFFFFE0000FF8000001FFFE0000007FFFFFF0001FFFFF
310
F8000FFFFFFFF8000FF8000FFFFFFFF8000FFF0003FFFFFFFFFFFFFFFFFF0000
310
7000FFFFFFFFFC0000FFFC0008003FF0008001FFFF80007FFFFFFFFFF80001FF
310
FFFFFFFF80000FF8000001FFFE0000007FFFFFF0001FFFFFF8000FFFFFFFF800
310
0FF8000FFFFFFFF8000FFF0003FFFFFFFFFFFFFFFFFE0000F000FFFFFFFFE000
310
00FFFC000C003FE000C001FFFF80007FFFFFFFFFC00001FFFFFFFFFE00001FF8
310
000001FFFE0000007FFFFFF0001FFFFFF8000FFFFFFFF8000FF8000FFFFFFFF8
310
000FFF0003FFFFFFFFFFFFFFFFF00000F000FFFFFFFE000001FFFC000C001FE0
310
00C000FFFF80007FFFFFFFFE000001FFFFFFFFE000001FF80FFFFFFFFFFFFFC0
310
7FFFFFF0001FFFFFF8000FFFFFFFF8000FF8000FFFFFFFF8000FFF0003FFFFFF
310
FFFFFFFFFF800000F000FFFFFFC0000001FFFC001C001FE001C000FFFF80007F
310
FFFFFF80000003FFFFFFF80000001FF80FFFFFFFFFFFFFC07FFFFFF0001FFFFF
310
F8001FFFFFFFFC000FF8001FFFFFFFFC000FFF0003FFFFFFFFFFFFFFF0000001
310
F000FFFFF800000001FFF8001C001FE001C000FFFF80007FFFFFF800000003FF
310
FFFF800000003FF80FFFFFFFFFFFFFC07FFFFFF0001FFFFFF8001FFFFFFFFC00
310
0FF8001FFFFFFFFC000FFF0003FFFFFFFFFFFFFE00000001F000FFFFC0000000
310
03FFF8001E001FC001E000FFFF80007FFFFF8000000007FFFFFC000000003FF8
310
0FFFFFFFFFFFFFC07FFFFFF0001FFFFFF8001FFFFFFFFC000FF8001FFFFFFFFC
310
000FFF0003FFFFFFFFFFFFE000000003F000FFFE0000000007FFF8001E000FC0
310
01E0007FFF80007FFFFE0000000007FFFFE0000000007FF80FFFFFFFFFFFFFC0
310
7FFFFFF0001FFFFFF0001FFFFFFFFC0007F0001FFFFFFFFC0007FF0003FFFFFF
310
FFFFFF0000000003F000FFF80000000007FFF8001E000FC003E0007FFF80007F
310
FFF0000000000FFFFF8000000000FFF80FFFFFFFFFFFFFC07FFFFFF0001FFFFF
310
F0001FFFFFFFFC0007F0001FFFFFFFFC0007FF0003FFFFFFFFFFFC0000000007
310
F000FFE0000000000FFFF0003E000FC003E0007FFF80007FFFC0000000001FFF
310
FE0000000001FFF80FFFFFFFFFFFFFC07FFFFFF0001FFFFFF0001FFFFFFFFC00
310
07F0001FFFFFFFFC0007FF0003FFFFFFFFFFF0000000000FF000FFC000000000
310
1FFFF0003F000F8003F0003FFF80007FFF80000000003FFFF80000000003FFF8
310
0FFFFFFFFFFFFFC07FFFFFF0001FFFFFF0001FFFFFFFFC0007F0001FFFFFFFFC
310
0007FF0003FFFFFFFFFFE0000000001FF000FF00000000007FFFF0003F000780
310
03F0003FFF80007FFF00000000007FFFF00000000007FFF80FFFFFFFFFFFFFC0
310
7FFFFFF0001FFFFFF0001FFFFFFFFC0007F0001FFFFFFFFC0007FF0003FFFFFF
310
FFFF80000000007FF000FE0000000000FFFFE0003F00078007F0003FFF80007F
310
FE0000000001FFFFE0000000001FFFF80FFFFFFFFFFFFFC07FFFFFF0001FFFFF
310
F0001FFFFFFFFC0007F0001FFFFFFFFC0007FF0003FFFFFFFFFF0000000000FF
310
F000FC0000000003FFFFE0007F00078007F0003FFF80007FFC0000000007FFFF
310
C0000000007FFFF80FFFFFFFFFFFFFC07FFFFFF0001FFFFFF8001FFFFFFFFC00
310
0FF8001FFFFFFFFC000FFF0003FFFFFFFFFE0000000003FFF000FC000000000F
310
FFFFE0007F80070007F8001FFF80007FF8000000001FFFFF8000000001FFFFF8
310
0FFFFFFFFFFFFFC07FFFFFF0001FFFFFF8001FFFFFFFFC000FF8001FFFFFFFFC
310
000FFF0003FFFFFFFFFC000000000FFFF000F8000000007FFFFFE0007F800700
310
07F8001FFF80007FF000000000FFFFFF800000000FFFFFF80FFFFFFFFFFFFFC0
310
7FFFFFF0001FFFFFF8000FFFFFFFF8000FF8000FFFFFFFF8000FFF0003FFFFFF
310
FFFC000000007FFFF000F800000007FFFFFFC0007F8003000FF8001FFF80007F
310
F000000007FFFFFF000000007FFFFFF80FFFFFFFFFFFFFC07FFFFFF0001FFFFF
310
F8000FFFFFFFF8000FF8000FFFFFFFF8000FFF0003FFFFFFFFF80000000FFFFF
310
F000F0000000FFFFFFFFC000FF8003000FF8001FFF80007FE0000000FFFFFFFF
310
0000000FFFFFFFF8000001FFFE0000007FFFFFF0001FFFFFF8000FFFFFFFF800
310
0FF8000FFFFFFFF8000FFF0003FFFFFFFFF8000000FFFFFFF000F000000FFFFF
310
FFFFC000FFC002000FF8000FFF80007FE000001FFFFFFFFE000001FFFFFFFFF8
310
000001FFFE0000007FFFFFF0001FFFFFF8000FFFFFFFF8000FF8000FFFFFFFF8
310
000FFF0003FFFFFFFFF000001FFFFFFFF000E00000FFFFFFFFFFC000FFC00200
310
0FFC000FFF80007FE00001FFFFFFFFFE00001FFFFFFFFFF8000001FFFE000000
310
7FFFFFF0001FFFFFFC000FFFFFFFF8001FFC000FFFFFFFF8001FFF0003FFFFFF
310
FFF00001FFFFFFFFF000E00007FFFFFFFFFF8000FFC000001FFC000FFF80007F
310
C0000FFFFFFFFFFE0000FFFFFFFFFFF8000001FFFE0000007FFFFFF0001FFFFF
310
FC0007FFFFFFF0001FFC0007FFFFFFF0001FFF0003FFFFFFFFF00007FFFFFFFF
310
F000E0001FFFFFFFFFFF8000FFC000001FFC000FFF80007FC0003FFFFFFFFFFE
310
0001FFFFFFFFFFF8000001FFFE0000007FFFFFF0001FFFFFFC0007FFFFFFF000
310
1FFC0007FFFFFFF0001FFF0003FFFFFFFFF0001FFFFFFFFFF000E0003FFFFF00
310
03FF8001FFE000001FFC0007FF80007FC0007FFFFF0007FC0003FFFFF0003FF8
310
000001FFFE0000007FFFFFF0001FFFFFFC0003FFFFFFE0001FFC0003FFFFFFE0
310
001FFF0003FFFFFFFFF0003FFFFFFFFFF000E0003FFFFF0001FF8001FFE00000
310
1FFE0007FF80007FC0007FFFFE0003FC0007FFFFE0003FF8000001FFFE000000
310
7FFFFFF0001FFFFFFE0003FFFFFFE0003FFE0003FFFFFFE0003FFF0003FFFFFF
310
FFF0003FFFFF8001F000E0003FFFFF0001FF0001FFE000001FFE0007FF80007F
310
C0007FFFFE0003FC0007FFFFE0003FF8000001FFFE0000007FFFFFF0001FFFFF
310
FE0001FFFFFFC0003FFE0001FFFFFFC0003FFF0003FFFFFFFFF0003FFFFF0001
310
F000E0003FFFFF0003FF0001FFE000003FFE0007FF80007FC0007FFFFE0003FC
310
0007FFFFE0003FF8000001FFFE0000007FFFFFF0001FFFFFFF0001FFFFFFC000
310
7FFF0001FFFFFFC0007FFF0003FFFFFFFFF0003FFFFF0001F000E0003FFFFE00
310
03FF0003FFF000003FFE0003FF80007FC0007FFFFC0003FE0007FFFFE0003FF8
310
000001FFFE0000007FFFFFF0001FFFFFFF0000FFFFFF80007FFF0000FFFFFF80
310
007FFF0003FFFFFFFFF0003FFFFF0001F000E0003FFFFE0003FF0003FFF00000
310
3FFF0003FF80007FC0007FFFFC0007FE0007FFFFC0003FF8000001FFFE000000
310
7FFFFFF0001FFFFFFF80007FFFFF0000FFFF80007FFFFF0000FFFF0003FFFFFF
310
FFF0003FFFFF0003F000E0003FFFFC0003FE0003FFF000003FFF0003FF80007F
310
E0003FFFF80007FE0003FFFFC0007FF8000001FFFE0000007FFFFFF0001FFFFF
310
FF80003FFFFE0000FFFF80003FFFFE0000FFFF0003FFFFFFFFF0001FFFFE0003
310
F000F0001FFFF80003FE0003FFF000007FFF0001FF80007FE0003FFFF00007FE
310
0001FFFF80007FF8000001FFFE0000007FFFFFF0001FFFFFFFC0000FFFF80001
310
FFFFC0000FFFF80001FFFF0003FFFFFFFFF0001FFFFC0003F000F0000FFFF000
310
07FE0007FFF800007FFF0001FF80007FE0001FFFE00007FF0000FFFE00007FF8
310
000001FFFE0000007FFFFFF0001FFFFFFFC00003FFE00001FFFFC00003FFE000
310
01FFFF0003FFFFFFFFF8000FFFF80003F000F00003FFC00007FC0007FFF80000
310
7FFF8001FF80007FF00007FF80000FFF00007FF80000FFF8000001FFFE000000
310
7F80000000000001FFE000003E000003FFFFE000003E000003FFFF0003FFFFFF
310
FFF80003FFE00007F000F800000000000FFC0007FFF800007FFF8001FF80007F
310
F000000000000FFF000000000000FFF8000001FFFE0000007F80000000000001
310
FFF0000000000007FFFFF0000000000007FFFF0003FFFFFFFFFC00007E000007
310
F000F800000000000FFC0007FFF80000FFFF8000FF80007FF800000000001FFF
310
800000000001FFF8000001FFFE0000007F80000000000001FFF800000000000F
310
FFFFF800000000000FFFFF0003FFFFFFFFFC00000000000FF000FC0000000000
310
1FFC0007FFFC0000FFFF8000FF80007FF800000000003FFFC00000000001FFF8
310
000001FFFE0000007F80000000000001FFF800000000000FFFFFF80000000000
310
0FFFFF0003FFFFFFFFFE00000000001FF000FE00000000003FF8000FFFFC0000
310
FFFF8000FF80007FFC00000000003FFFC00000000003FFF8000001FFFE000000
310
7F80000000000001FFFC00000000001FFFFFFC00000000001FFFFF0003FFFFFF
310
FFFF00000000001FF000FF00000000003FF8000FFFFC0000FFFFC000FF80007F
310
FE00000000007FFFE00000000007FFF8000001FFFE0000007F80000000000001
310
FFFE00000000003FFFFFFE00000000003FFFFF0003FFFFFFFFFF80000000003F
310
F000FF80000000007FF8000FFFFC0001FFFFC0007F80007FFF0000000000FFFF
310
F0000000000FFFF800000000000000007F80000000000001FFFF8000000000FF
310
FFFFFF8000000000FFFFFF0003FFFFFFFFFFC0000000007FF000FFC000000000
310
FFF8000FFFFE0001FFFFC0007F80007FFF8000000001FFFFF8000000001FFFF8
310
00000000000000007F80000000000001FFFFC000000001FFFFFFFFC000000001
310
FFFFFF0003FFFFFFFFFFE000000000FFF000FFE000000003FFF0001FFFFE0001
310
FFFFC0007F80007FFFC000000007FFFFFE000000003FFFF80000000000000000
310
7F80000000000001FFFFE000000003FFFFFFFFE000000003FFFFFF0003FFFFFF
310
FFFFF000000003FFF000FFF80000000FFFF0001FFFFE0001FFFFE0007F80007F
310
FFF00000000FFFFFFF00000000FFFFF800000000000000007F80000000000001
310
FFFFF80000000FFFFFFFFFF80000000FFFFFFF0003FFFFFFFFFFFC0000000FFF
310
F000FFFE0000003FFFF0001FFFFE0003FFFFE0003F80007FFFFC0000003FFFFF
310
FFC0000003FFFFF800000000000000007F80000000000001FFFFFE0000003FFF
310
FFFFFFFE0000003FFFFFFF0003FFFFFFFFFFFF0000003FFFF000FFFF800000FF
310
FFF0001FFFFF0003FFFFE0003F80007FFFFF000001FFFFFFFFF800001FFFFFF8
310
00000000000000007F80000000000001FFFFFFC00001FFFFFFFFFFFFC00001FF
310
FFFFFF0003FFFFFFFFFFFFC00000FFFFF000FFFFF8000FFFFFFFFFFFFFFFFFFF
310
FFFFFFFFFFFFFFFFFFFFF0001FFFFFFFFFFF0000FFFFFFF80000000000000000
310
7FFFFFFFFFFFFFFFFFFFFFFC001FFFFFFFFFFFFFFC001FFFFFFFFFFFFFFFFFFF
310
FFFFFFFC001FFFFFF000FFFFFFFFFFFFFFFFFFFFFFFFFFFFFFFFFFFFFFFFFFFF
310
FFFFFFFFFFFFFFFFFFFFFFFFFFFFFFFFFFFFFFFFFFFFFFFFFFFFFFFFFFFFFFFF
310
FFFFFFFFFFFFFFFFFFFFFFFFFFFFFFFFFFFFFFFFFFFFFFFFFFFFFFFFFFFFFFFF
310
F000FFFFFFFFFFFFFFFFFFFFFFFFFFFFFFFFFFFFFFFFFFFFFFFFFFFFFFFFFFFF
310
FFFFFFFFFFFFFFFFFFFFFFFFFFFFFFFFFFFFFFFFFFFFFFFFFFFFFFFFFFFFFFFF
310
FFFFFFFFFFFFFFFFFFFFFFFFFFFFFFFFFFFFFFFFFFFFFFFFF000FFFFFFFFFFFF
310
FFFFFFFFFFFFFFFFFFFFFFFFFFFFFFFFFFFFFFFFFFFFFFFFFFFFFFFFFFFFFFFF
310
FFFFFFFFFFFFFFFFFFFFFFFFFFFFFFFFFFFFFFFFFFFFFFFFFFFFFFFFFFFFFFFF
310
FFFFFFFFFFFFFFFFFFFFFFFFFFFFFFFFF000FFFFFFFFFFFFFFFFFFFFFFFFFFFF
310
FFFFFFFFFFFFFFFFFFFFFFFFFFFFFFFFFFFFFFFFFFFFFFFFFFFFFFFFFFFFFFFF
310
FFFFFFFFFFFFFFFFFFFFFFFFFFFFFFFFFFFFFFFFFFFFFFFFFFFFFFFFFFFFFFFF
310
FFFFFFFFFFFFFFFFF000FFFFFFFFFFFFFFFFFFFFFFFFFFFFFFFFFFFFFFFFFFFF
310
FFFFFFFFFFFFFFFFFFFFFFFFFFFFFFFFFFFFFFFFFFFFFFFFFFFFFFFFFFFFFFFF
310
FFFFFFFFFFFFFFFFFFFFFFFFFFFFFFFFFFFFFFFFFFFFFFFFFFFFFFFFFFFFFFFF
310
F000FFFFFFFFFFFFFFFFFFFFFFFFFFFFFFFFFFFFFFFFFFFFFFFFFFFFFFFFFFFF
310
FFFFFFFFFFFFFFFFFFFFFFFFFFFFFFFFFFFFFFFFFFFFFFFFFFFFFFFFFFFFFFFF
310
FFFFFFFFFFFFFFFFFFFFFFFFFFFFFFFFFFFFFFFFFFFFFFFFF000FFFFFFFFFFFF
310
FFFFFFFFFFFFFFFFFFFFFFFFFFFFFFFFFFFFFFFFFFFFFFFFFFFFFFFFFFFFFFFF
310
FFFFFFFFFFFFFFFFFFFFFFFFFFFFFFFFFFFFFFFFFFFFFFFFFFFFFFFFFFFFFFFF
310
FFFFFFFFFFFFFFFFFFFFFFFFFFFFFFFFF000FFFFFFFFFFFFFFFFFFFFFFFFFFFF
310
FFFFFFFFFFFFFFFFFFFFFFFFFFFFFFFFFFFFFFFFFFFFFFFFFFFFFFFFFFFFFFFF
310
FFFFFFFFFFFFFFFFFFFFFFFFFFFFFFFFFFFFFFFFFFFFFFFFFFFFFFFFFFFFFFFF
310
FFFFFFFFFFFFFFFFF000FFFFFFFFFFFFFFFFFFFFFFFFFFFFFFFFFFFFFFFFFFFF
310
FFFFFFFFFFFFFFFFFFFFFFFFFFFFFFFFFFFFFFFFFFFFFFFFFFFFFFFFFFFFFFFF
310
FFFFFFFFFFFFFFFFFFFFFFFFFFFFFFFFFFFFFFFFFFFFFFFFFFFFFFFFFFFFFFFF
310
F000FFFFFFFFFFFFFFFFFFFFFFFFFFFFFFFFFFFFFFFFFFFFFFFFFFFFFFFFFFFF
310
FFFFFFFFFFFFFFFFFFFFFFFFFFFFFFFFFFFFFFFFFFFFFFFFFFFFFFFFFFFFFFFF
310
FFFFFFFFFFFFFFFFFFFFFFFFFFFFFFFFFFFFFFFFFFFFFFFFF000FFFFFFFFFFFF
310
FFFFFFFFFFFFFFFFFFFFFFFFFFFFFFFFFFFFFFFFFFFFFFFFFFFFFFFFFFFFFFFF
310
FFFFFFFFFFFFFFFFFFFFFFFFFFFFFFFFFFFFFFFFFFFFFFFFFFFFFFFFFFFFFFFF
310
FFFFFFFFFFFFFFFFFFFFFFFFFFFFFFFFF000FFFFFFFFFFFFFFFFFFFFFFFFFFFF
310
FFFFFFFFFFFFFFFFFFFFFFFFFFFFFFFFFFFFFFFFFFFFFFFFFFFFFFFFFFFFFFFF
310
FFFFFFFFFFFFFFFFFFFFFFFFFFFFFFFFFFFFFFFFFFFFFFFFFFFFFFFFFFFFFFFF
310
FFFFFFFFFFFFFFFFF000FFFFFFFFFFFFFFFFFFFFFFFFFFFFFFFFFFFFFFFFFFFF
310
FFFFFFFFFFFFFFFFFFFFFFFFFFFFFFFFFFFFFFFFFFFFFFFFFFFFFFFFFFFFFFFF
310
FFFFFFFFFFFFFFFFFFFFFFFFFFFFFFFFFFFFFFFFFFFFFFFFFFFFFFFFFFFFFFFF
310
F000FFFFFFFFFFFFFFFFFFFFFFFFFFFFFFFFFFFFFFFFFFFFFFFFFFFFFFFFFFFF
310
FFFFFFFFFFFFFFFFFFFFFFFFFFFFFFFFFFFFFFFFFFFFFFFFFFFFFFFFFFFFFFFF
310
FFFFFFFFFFFFFFFFFFFFFFFFFFFFFFFFFFFFFFFFFFFFFFFFF000FFFFFFFFFFFF
310
FFFFFFFFFFFFFFFFFFFFFFFFFFFFFFFFFFFFFFFFFFFFFFFFFFFFFFFFFFFFFFFF
310
FFFFFFFFFFFFFFFFFFFFFFFFFFFFFFFFFFFFFFFFFFFFFFFFFFFFFFFFFFFFFFFF
310
FFFFFFFFFFFFFFFFFFFFFFFFFFFFFFFFF000FFFFFFFFFFFFFFFFFFFFFFFFFFFF
310
FFFFFFFFFFFFFFFFFFFFFFFFFFFFFFFFFFFFFFFFFFFFFFFFFFFFFFFFFFFFFFFF
310
FFFFFFFFFFFFFFFFFFFFFFFFFFFFFFFFFFFFFFFFFFFFFFFFFFFFFFFFFFFFFFFF
310
FFFFFFFFFFFFFFFFF000FFFFFFFFFFFFFFFFFFFFFFFFFFFFFFFFFFFFFFFFFFFF
310
FFFFFFFFFFFFFFFFFFFFFFFFFFFFFFFFFFFFFFFFFFFFFFFFFFFFFFFFFFFFFFFF
310
FFFFFFFFFFFFFFFFFFFFFFFFFFFFFFFFFFFFFFFFFFFFFFFFFFFFFFFFFFFFFFFF
310
F000FFFFFFFFFFFFFFFFFFFFFFFFFFFFFFFFFFFFFFFFFFFFFFFFFFFFFFFFFFFF
310
FFFFFFFFFFFFFFFFFFFFFFFFFFFFFFFFFFFFFFFFFFFFFFFFFFFFFFFFFFFFFFFF
310
FFFFFFFFFFFFFFFFFFFFFFFFFFFFFFFFFFFFFFFFFFFFFFFFF000FFFFFFFFFFFF
310
FFFFFFFFFFFFFFFFFFFFFFFFFFFFFFFFFFFFFFFFFFFFFFFFFFFFFFFFFFFFFFFF
310
FFFFFFFFFFFFFFFFFFFFFFFFFFFFFFFFFFFFFFFFFFFFFFFFFFFFFFFFFFFFFFFF
310
FFFFFFFFFFFFFFFFFFFFFFFFFFFFFFFFF000FFFFFFFFFFFFFFFFFFFFFFFFFFFF
310
FFFFFFFFFFFFFFFFFFFFFFFFFFFFFFFFFFFFFFFFFFFFFFFFFFFFFFFFFFFFFFFF
310
FFFFFFFFFFFFFFFFFFFFFFFFFFFFFFFFFFFFFFFFFFFFFFFFFFFFFFFFFFFFFFFF
310
FFFFFFFFFFFFFFFFF000FFFFFFFFFFFFFFFFFFFFFFFFFFFFFFFFFFFFFFFFFFFF
310
FFFFFFFFFFFFFFFFFFFFFFFFFFFFFFFFFFFFFFFFFFFFFFFFFFFFFFFFFFFFFFFF
310
FFFFFFFFFFFFFFFFFFFFFFFFFFFFFFFFFFFFFFFFFFFFFFFFFFFFFFFFFFFFFFFF
310
F000FFFFFFFFFFFFFFFFFFFFFFFFFFFFFFFFFFFFFFFFFFFFFFFFFFFFFFFFFFFF
310
FFFFFFFFFFFFFFFFFFFFFFFFFFFFFFFFFFFFFFFFFFFFFFFFFFFFFFFFFFFFFFFF
310
FFFFFFFFFFFFFFFFFFFFFFFFFFFFFFFFFFFFFFFFFFFFFFFFF000FFFFFFFFFFFF
310
FFFFFFFFFFFFFFFFFFFFFFFFFFFFFFFFFFFFFFFFFFFFFFFFFFFFFFFFFFFFFFFF
310
FFFFFFFFFFFFFFFFFFFFFFFFFFFFFFFFFFFFFFFFFFFFFFFFFFFFFFFFFFFFFFFF
310
FFFFFFFFFFFFFFFFFFFFFFFFFFFFFFFFF0000000000000000000000000000000
310
000000000070005C00030000000090FBED0B000000FFFEFF012A000400000000
310
90EB26240000000410000078A81E000100000009000000040000000200000005
310
00000002000000CE0E0000FFFEFF0E5300650072007600690063006500200050
310
00610063006B002000320007084725533328FFCB0100C07F8FFFFEFF012A0003
310
00000000508DE165000000FFFEFF012A000300000000508DE165000000FFFEFF
310
012A000400000000206CD51E000000FFFEFF2643003A005C0044004F00430055
310
004D0045007E0031005C00480031003600430043007E0031002E005A00550045
310
005C004C004F00430041004C0053007E0031005C00540065006D0070005C0003
310
00000000508DE165000000FFFEFF2643003A005C0044004F00430055004D0045
310
007E0031005C00480031003600430043007E0031002E005A00550045005C004C
310
004F00430041004C0053007E0031005C00540065006D0070005C000300000000
310
508DE165000000FFFEFF012A000400000000206CD51E000000BC436D4628FFCB
310
010070848EFFFEFF012A000300000000B083E165000000FFFEFF012A00030000
310
0000B083E165000000FFFEFF012A000400000000E06BD51E000000FFFEFF2643
310
003A005C0044004F00430055004D0045007E0031005C00480031003600430043
  1
OLE
  0
ENDSEC
  0
SECTION
  2
OBJECTS
  0
DICTIONARY
  5
C
330
0
100
AcDbDictionary
281
     1
  3
ACAD_GROUP
350
D
  3
ACAD_LAYOUT
350
1A
  3
ACAD_MLEADERSTYLE
350
185
  3
ACAD_MLINESTYLE
350
17
  3
ACAD_PLOTSETTINGS
350
19
  3
ACAD_PLOTSTYLENAME
350
E
  3
ACAD_TABLESTYLE
350
184
  3
ACAD_VISUALSTYLE
350
2A
  3
AcDbVariableDictionary
350
186
  0
DICTIONARY
  5
D
102
{ACAD_REACTORS
330
C
102
}
330
C
100
AcDbDictionary
281
     1
  0
DICTIONARY
  5
1A
102
{ACAD_REACTORS
330
C
102
}
330
C
100
AcDbDictionary
281
     1
  3
Layout1
350
1E
  3
Layout2
350
26
  3
Model
350
22
  0
DICTIONARY
  5
185
102
{ACAD_REACTORS
330
C
102
}
330
C
100
AcDbDictionary
281
     1
  0
DICTIONARY
  5
17
102
{ACAD_REACTORS
330
C
102
}
330
C
100
AcDbDictionary
281
     1
  3
Standard
350
18
  0
DICTIONARY
  5
19
102
{ACAD_REACTORS
330
C
102
}
330
C
100
AcDbDictionary
281
     1
  0
ACDBDICTIONARYWDFLT
  5
E
102
{ACAD_REACTORS
330
C
102
}
330
C
100
AcDbDictionary
281
     1
  3
Normal
350
F
100
AcDbDictionaryWithDefault
340
F
  0
DICTIONARY
  5
184
102
{ACAD_REACTORS
330
C
102
}
330
C
100
AcDbDictionary
281
     1
  0
DICTIONARY
  5
2A
102
{ACAD_REACTORS
330
C
102
}
330
C
100
AcDbDictionary
281
     1
  3
2dWireframe
350
2F
  3
3D Hidden
350
31
  3
3dWireframe
350
30
  3
Basic
350
32
  3
Brighten
350
36
  3
ColorChange
350
3A
  3
Conceptual
350
34
  3
Dim
350
35
  3
Facepattern
350
39
  3
Flat
350
2B
  3
FlatWithEdges
350
2C
  3
Gouraud
350
2D
  3
GouraudWithEdges
350
2E
  3
Linepattern
350
38
  3
Realistic
350
33
  3
Thicken
350
37
  0
DICTIONARY
  5
186
102
{ACAD_REACTORS
330
C
102
}
330
C
100
AcDbDictionary
281
     1
  3
PSOLHEIGHT
350
188
  3
PSOLWIDTH
350
187
  0
LAYOUT
  5
1E
102
{ACAD_REACTORS
330
1A
102
}
330
1A
100
AcDbPlotSettings
  1

  2
none_device
  4

  6

 40
0.0
 41
0.0
 42
0.0
 43
0.0
 44
0.0
 45
0.0
 46
0.0
 47
0.0
 48
0.0
 49
0.0
140
0.0
141
0.0
142
1.0
143
1.0
 70
   688
 72
     0
 73
     0
 74
     5
  7

 75
    16
147
1.0
148
0.0
149
0.0
100
AcDbLayout
  1
Layout1
 70
     1
 71
     1
 10
0.0
 20
0.0
 11
420.0
 21
297.0
 12
0.0
 22
0.0
 32
0.0
 14
1.0000000000E+20
 24
1.0000000000E+20
 34
1.0000000000E+20
 15
-1.0000000000E+20
 25
-1.0000000000E+20
 35
-1.0000000000E+20
146
0.0
 13
0.0
 23
0.0
 33
0.0
 16
1.0
 26
0.0
 36
0.0
 17
0.0
 27
1.0
 37
0.0
 76
     0
330
1B
  0
LAYOUT
  5
26
102
{ACAD_REACTORS
330
1A
102
}
330
1A
100
AcDbPlotSettings
  1

  2
none_device
  4

  6

 40
0.0
 41
0.0
 42
0.0
 43
0.0
 44
0.0
 45
0.0
 46
0.0
 47
0.0
 48
0.0
 49
0.0
140
0.0
141
0.0
142
1.0
143
1.0
 70
   688
 72
     0
 73
     0
 74
     5
  7

 75
    16
147
1.0
148
0.0
149
0.0
100
AcDbLayout
  1
Layout2
 70
     1
 71
     2
 10
0.0
 20
0.0
 11
0.0
 21
0.0
 12
0.0
 22
0.0
 32
0.0
 14
0.0
 24
0.0
 34
0.0
 15
0.0
 25
0.0
 35
0.0
146
0.0
 13
0.0
 23
0.0
 33
0.0
 16
1.0
 26
0.0
 36
0.0
 17
0.0
 27
1.0
 37
0.0
 76
     0
330
23
  0
LAYOUT
  5
22
102
{ACAD_REACTORS
330
1A
102
}
330
1A
100
AcDbPlotSettings
  1

  2
none_device
  4

  6

 40
0.0
 41
0.0
 42
0.0
 43
0.0
 44
0.0
 45
0.0
 46
0.0
 47
0.0
 48
0.0
 49
0.0
140
0.0
141
0.0
142
1.0
143
1.0
 70
  1712
 72
     0
 73
     0
 74
     0
  7

 75
     0
147
1.0
148
0.0
149
0.0
100
AcDbLayout
  1
Model
 70
     1
 71
     0
 10
0.0
 20
0.0
 11
297.0
 21
210.0
 12
0.0
 22
0.0
 32
0.0
 14
0.0
 24
0.0
 34
0.0
 15
297.0
 25
210.0
 35
0.0
146
0.0
 13
0.0
 23
0.0
 33
0.0
 16
1.0
 26
0.0
 36
0.0
 17
0.0
 27
1.0
 37
0.0
 76
     0
330
1F
331
29
  0
MLINESTYLE
  5
18
102
{ACAD_REACTORS
330
17
102
}
330
17
100
AcDbMlineStyle
  2
Standard
 70
     0
  3

 62
   256
 51
90.0
 52
90.0
 71
     2
 49
0.5
 62
   256
  6
BYLAYER
 49
-0.5
 62
   256
  6
BYLAYER
  0
ACDBPLACEHOLDER
  5
F
102
{ACAD_REACTORS
330
E
102
}
330
E
  0
VISUALSTYLE
  5
2F
102
{ACAD_REACTORS
330
2A
102
}
330
2A
100
AcDbVisualStyle
  2
2dWireframe
 70
     4
 71
     0
 72
     2
 73
     0
 90
        0
 40
-0.6
 41
-30.0
 62
     5
 63
     7
 74
     1
 91
        4
 64
     7
 65
   257
 75
     1
175
     1
 42
1.0
 92
        0
 66
   257
 43
1.0
 76
     1
 77
     6
 78
     2
 67
     7
 79
     5
170
     0
171
     0
290
     0
174
     0
 93
        1
 44
0.0
173
     0
291
     0
 45
0.0
1001
ACAD
1000
AcDbSavedByObjectVersion
1070
     0
  0
VISUALSTYLE
  5
31
102
{ACAD_REACTORS
330
2A
102
}
330
2A
100
AcDbVisualStyle
  2
3D Hidden
 70
     6
 71
     1
 72
     2
 73
     2
 90
        0
 40
-0.6
 41
-30.0
 62
     5
 63
     7
 74
     2
 91
        2
 64
     7
 65
   257
 75
     2
175
     1
 42
40.0
 92
        0
 66
   257
 43
1.0
 76
     1
 77
     6
 78
     2
 67
     7
 79
     3
170
     0
171
     0
290
     0
174
     0
 93
        1
 44
0.0
173
     0
291
     0
 45
0.0
1001
ACAD
1000
AcDbSavedByObjectVersion
1070
     0
  0
VISUALSTYLE
  5
30
102
{ACAD_REACTORS
330
2A
102
}
330
2A
100
AcDbVisualStyle
  2
3dWireframe
 70
     5
 71
     0
 72
     2
 73
     0
 90
        0
 40
-0.6
 41
-30.0
 62
     5
 63
     7
 74
     1
 91
        4
 64
     7
 65
   257
 75
     1
175
     1
 42
1.0
 92
        0
 66
   257
 43
1.0
 76
     1
 77
     6
 78
     2
 67
     7
 79
     5
170
     0
171
     0
290
     0
174
     0
 93
        1
 44
0.0
173
     0
291
     0
 45
0.0
1001
ACAD
1000
AcDbSavedByObjectVersion
1070
     0
  0
VISUALSTYLE
  5
32
102
{ACAD_REACTORS
330
2A
102
}
330
2A
100
AcDbVisualStyle
  2
Basic
 70
     7
 71
     1
 72
     0
 73
     1
 90
        0
 40
-0.6
 41
-30.0
 62
     5
 63
     7
 74
     0
 91
        4
 64
     7
 65
   257
 75
     1
175
     1
 42
1.0
 92
        8
 66
     7
 43
1.0
 76
     1
 77
     6
 78
     2
 67
     7
 79
     5
170
     0
171
     0
290
     0
174
     0
 93
        1
 44
0.0
173
     0
291
     1
 45
0.0
1001
ACAD
1000
AcDbSavedByObjectVersion
1070
     0
  0
VISUALSTYLE
  5
36
102
{ACAD_REACTORS
330
2A
102
}
330
2A
100
AcDbVisualStyle
  2
Brighten
 70
    12
 71
     2
 72
     2
 73
     0
 90
        0
 40
-0.6
 41
-30.0
 62
     5
 63
     7
 74
     1
 91
        4
 64
     7
 65
   257
 75
     1
175
     1
 42
1.0
 92
        8
 66
     7
 43
1.0
 76
     1
 77
     6
 78
     2
 67
     7
 79
     5
170
     0
171
     0
290
     0
174
     0
 93
        1
 44
50.0
173
     0
291
     1
 45
0.0
1001
ACAD
1000
AcDbSavedByObjectVersion
1070
     0
  0
VISUALSTYLE
  5
3A
102
{ACAD_REACTORS
330
2A
102
}
330
2A
100
AcDbVisualStyle
  2
ColorChange
 70
    16
 71
     2
 72
     2
 73
     3
 90
        0
 40
-0.6
 41
-30.0
 62
     5
 63
     8
 74
     1
 91
        4
 64
     7
 65
   257
 75
     1
175
     1
 42
1.0
 92
        8
 66
     8
 43
1.0
 76
     1
 77
     6
 78
     2
 67
     7
 79
     5
170
     0
171
     0
290
     0
174
     0
 93
        1
 44
0.0
173
     0
291
     1
 45
0.0
1001
ACAD
1000
AcDbSavedByObjectVersion
1070
     0
  0
VISUALSTYLE
  5
34
102
{ACAD_REACTORS
330
2A
102
}
330
2A
100
AcDbVisualStyle
  2
Conceptual
 70
     9
 71
     3
 72
     2
 73
     0
 90
        0
 40
-0.6
 41
-30.0
 62
     5
 63
     7
 74
     2
 91
        2
 64
     7
 65
   257
 75
     1
175
     1
 42
40.0
 92
        8
 66
     7
 43
1.0
 76
     1
 77
     6
 78
     2
 67
     7
 79
     3
170
     0
171
     0
290
     0
174
     0
 93
        1
 44
0.0
173
     0
291
     0
 45
0.0
1001
ACAD
1000
AcDbSavedByObjectVersion
1070
     0
  0
VISUALSTYLE
  5
35
102
{ACAD_REACTORS
330
2A
102
}
330
2A
100
AcDbVisualStyle
  2
Dim
 70
    11
 71
     2
 72
     2
 73
     0
 90
        0
 40
-0.6
 41
-30.0
 62
     5
 63
     7
 74
     1
 91
        4
 64
     7
 65
   257
 75
     1
175
     1
 42
1.0
 92
        8
 66
     7
 43
1.0
 76
     1
 77
     6
 78
     2
 67
     7
 79
     5
170
     0
171
     0
290
     0
174
     0
 93
        1
 44
-50.0
173
     0
291
     1
 45
0.0
1001
ACAD
1000
AcDbSavedByObjectVersion
1070
     0
  0
VISUALSTYLE
  5
39
102
{ACAD_REACTORS
330
2A
102
}
330
2A
100
AcDbVisualStyle
  2
Facepattern
 70
    15
 71
     2
 72
     2
 73
     0
 90
        0
 40
-0.6
 41
-30.0
 62
     5
 63
     7
 74
     1
 91
        4
 64
     7
 65
   257
 75
     1
175
     1
 42
1.0
 92
        8
 66
     7
 43
1.0
 76
     1
 77
     6
 78
     2
 67
     7
 79
     5
170
     0
171
     0
290
     0
174
     0
 93
        1
 44
0.0
173
     0
291
     1
 45
0.0
1001
ACAD
1000
AcDbSavedByObjectVersion
1070
     0
  0
VISUALSTYLE
  5
2B
102
{ACAD_REACTORS
330
2A
102
}
330
2A
100
AcDbVisualStyle
  2
Flat
 70
     0
 71
     2
 72
     1
 73
     1
 90
        2
 40
-0.6
 41
30.0
 62
     5
 63
     7
 74
     0
 91
        4
 64
     7
 65
   257
 75
     1
175
     1
 42
1.0
 92
        8
 66
     7
 43
1.0
 76
     1
 77
     6
 78
     2
 67
     7
 79
     5
170
     0
171
     0
290
     0
174
     0
 93
       13
 44
0.0
173
     0
291
     1
 45
0.0
1001
ACAD
1000
AcDbSavedByObjectVersion
1070
     0
  0
VISUALSTYLE
  5
2C
102
{ACAD_REACTORS
330
2A
102
}
330
2A
100
AcDbVisualStyle
  2
FlatWithEdges
 70
     1
 71
     2
 72
     1
 73
     1
 90
        2
 40
-0.6
 41
30.0
 62
     5
 63
     7
 74
     1
 91
        4
 64
     7
 65
   257
 75
     1
175
     1
 42
1.0
 92
        0
 66
   257
 43
1.0
 76
     1
 77
     6
 78
     2
 67
     7
 79
     5
170
     0
171
     0
290
     0
174
     0
 93
       13
 44
0.0
173
     0
291
     1
 45
0.0
1001
ACAD
1000
AcDbSavedByObjectVersion
1070
     0
  0
VISUALSTYLE
  5
2D
102
{ACAD_REACTORS
330
2A
102
}
330
2A
100
AcDbVisualStyle
  2
Gouraud
 70
     2
 71
     2
 72
     2
 73
     1
 90
        2
 40
-0.6
 41
30.0
 62
     5
 63
     7
 74
     0
 91
        4
 64
     7
 65
   257
 75
     1
175
     1
 42
1.0
 92
        0
 66
     7
 43
1.0
 76
     1
 77
     6
 78
     2
 67
     7
 79
     5
170
     0
171
     0
290
     0
174
     0
 93
       13
 44
0.0
173
     0
291
     1
 45
0.0
1001
ACAD
1000
AcDbSavedByObjectVersion
1070
     0
  0
VISUALSTYLE
  5
2E
102
{ACAD_REACTORS
330
2A
102
}
330
2A
100
AcDbVisualStyle
  2
GouraudWithEdges
 70
     3
 71
     2
 72
     2
 73
     1
 90
        2
 40
-0.6
 41
30.0
 62
     5
 63
     7
 74
     1
 91
        4
 64
     7
 65
   257
 75
     1
175
     1
 42
1.0
 92
        0
 66
   257
 43
1.0
 76
     1
 77
     6
 78
     2
 67
     7
 79
     5
170
     0
171
     0
290
     0
174
     0
 93
       13
 44
0.0
173
     0
291
     1
 45
0.0
1001
ACAD
1000
AcDbSavedByObjectVersion
1070
     0
  0
VISUALSTYLE
  5
38
102
{ACAD_REACTORS
330
2A
102
}
330
2A
100
AcDbVisualStyle
  2
Linepattern
 70
    14
 71
     2
 72
     2
 73
     0
 90
        0
 40
-0.6
 41
-30.0
 62
     5
 63
     7
 74
     1
 91
        4
 64
     7
 65
   257
 75
     7
175
     7
 42
1.0
 92
        8
 66
     7
 43
1.0
 76
     1
 77
     6
 78
     2
 67
     7
 79
     5
170
     0
171
     0
290
     0
174
     0
 93
        1
 44
0.0
173
     0
291
     1
 45
0.0
1001
ACAD
1000
AcDbSavedByObjectVersion
1070
     0
  0
VISUALSTYLE
  5
33
102
{ACAD_REACTORS
330
2A
102
}
330
2A
100
AcDbVisualStyle
  2
Realistic
 70
     8
 71
     2
 72
     2
 73
     0
 90
        0
 40
-0.6
 41
-30.0
 62
     5
 63
     7
 74
     1
 91
        0
 64
     7
 65
   257
 75
     1
175
     1
 42
1.0
 92
        8
 66
     8
 43
1.0
 76
     1
 77
     6
 78
     2
 67
     7
 79
     5
170
     0
171
     0
290
     0
174
     0
 93
       13
 44
0.0
173
     0
291
     0
 45
0.0
1001
ACAD
1000
AcDbSavedByObjectVersion
1070
     0
  0
VISUALSTYLE
  5
37
102
{ACAD_REACTORS
330
2A
102
}
330
2A
100
AcDbVisualStyle
  2
Thicken
 70
    13
 71
     2
 72
     2
 73
     0
 90
        0
 40
-0.6
 41
-30.0
 62
     5
 63
     7
 74
     1
 91
        4
 64
     7
 65
   257
 75
     1
175
     1
 42
1.0
 92
       12
 66
     7
 43
1.0
 76
     1
 77
     6
 78
     2
 67
     7
 79
     5
170
     0
171
     0
290
     0
174
     0
 93
        1
 44
0.0
173
     0
291
     1
 45
0.0
1001
ACAD
1000
AcDbSavedByObjectVersion
1070
     0
  0
DICTIONARYVAR
  5
188
102
{ACAD_REACTORS
330
186
102
}
330
186
100
DictionaryVariables
280
     0
  1
80.000000
  0
DICTIONARYVAR
  5
187
102
{ACAD_REACTORS
330
186
102
}
330
186
100
DictionaryVariables
280
     0
  1
5.000000
  0
ENDSEC
  0
EOF
