  0
SECTION
  2
HEADER
  9
$ACADVER
  1
AC1015
  9
$ACADMAINTVER
 70
     6
  9
$DWGCODEPAGE
  3
ANSI_1252
  9
$INSBASE
 10
0.0
 20
0.0
 30
0.0
  9
$EXTMIN
 10
0.0
 20
0.0
 30
0.0
  9
$EXTMAX
 10
297.0
 20
210.0
 30
0.0
  9
$LIMMIN
 10
0.0
 20
0.0
  9
$LIMMAX
 10
297.0
 20
210.0
  9
$ORTHOMODE
 70
     0
  9
$REGENMODE
 70
     1
  9
$FILLMODE
 70
     1
  9
$QTEXTMODE
 70
     0
  9
$MIRRTEXT
 70
     1
  9
$LTSCALE
 40
1.0
  9
$ATTMODE
 70
     1
  9
$TEXTSIZE
 40
2.0
  9
$TRACEWID
 40
1.0
  9
$TEXTSTYLE
  7
Standard
  9
$CLAYER
  8
0
  9
$CELTYPE
  6
ByLayer
  9
$CECOLOR
 62
   256
  9
$CELTSCALE
 40
1.0
  9
$DISPSILH
 70
     0
  9
$DIMSCALE
 40
1.0
  9
$DIMASZ
 40
3.0
  9
$DIMEXO
 40
0.0
  9
$DIMDLI
 40
3.75
  9
$DIMRND
 40
0.0
  9
$DIMDLE
 40
0.0
  9
$DIMEXE
 40
1.0
  9
$DIMTP
 40
0.0
  9
$DIMTM
 40
0.0
  9
$DIMTXT
 40
2.0
  9
$DIMCEN
 40
2.5
  9
$DIMTSZ
 40
0.0
  9
$DIMTOL
 70
     0
  9
$DIMLIM
 70
     0
  9
$DIMTIH
 70
     1
  9
$DIMTOH
 70
     1
  9
$DIMSE1
 70
     0
  9
$DIMSE2
 70
     0
  9
$DIMTAD
 70
     1
  9
$DIMZIN
 70
     0
  9
$DIMBLK
  1

  9
$DIMASO
 70
     1
  9
$DIMSHO
 70
     1
  9
$DIMPOST
  1

  9
$DIMAPOST
  1

  9
$DIMALT
 70
     0
  9
$DIMALTD
 70
     3
  9
$DIMALTF
 40
0.0393700787
  9
$DIMLFAC
 40
1.0
  9
$DIMTOFL
 70
     1
  9
$DIMTVP
 40
0.0
  9
$DIMTIX
 70
     0
  9
$DIMSOXD
 70
     0
  9
$DIMSAH
 70
     0
  9
$DIMBLK1
  1

  9
$DIMBLK2
  1

  9
$DIMSTYLE
  2
ISO-25
  9
$DIMCLRD
 70
     0
  9
$DIMCLRE
 70
     0
  9
$DIMCLRT
 70
     0
  9
$DIMTFAC
 40
1.0
  9
$DIMGAP
 40
1.524
  9
$DIMJUST
 70
     0
  9
$DIMSD1
 70
     0
  9
$DIMSD2
 70
     0
  9
$DIMTOLJ
 70
     0
  9
$DIMTZIN
 70
     0
  9
$DIMALTZ
 70
     0
  9
$DIMALTTZ
 70
     0
  9
$DIMUPT
 70
     0
  9
$DIMDEC
 70
     2
  9
$DIMTDEC
 70
     3
  9
$DIMALTU
 70
     2
  9
$DIMALTTD
 70
     3
  9
$DIMTXSTY
  7
Standard
  9
$DIMAUNIT
 70
     0
  9
$DIMADEC
 70
     2
  9
$DIMALTRND
 40
0.0
  9
$DIMAZIN
 70
     0
  9
$DIMDSEP
 70
    44
  9
$DIMATFIT
 70
     3
  9
$DIMFRAC
 70
     0
  9
$DIMLDRBLK
  1

  9
$DIMLUNIT
 70
     2
  9
$DIMLWD
 70
    -2
  9
$DIMLWE
 70
    -2
  9
$DIMTMOVE
 70
     0
  9
$LUNITS
 70
     2
  9
$LUPREC
 70
     2
  9
$SKETCHINC
 40
1.0
  9
$FILLETRAD
 40
10.0
  9
$AUNITS
 70
     0
  9
$AUPREC
 70
     2
  9
$MENU
  1
.
  9
$ELEVATION
 40
0.0
  9
$PELEVATION
 40
0.0
  9
$THICKNESS
 40
0.0
  9
$LIMCHECK
 70
     0
  9
$CHAMFERA
 40
10.0
  9
$CHAMFERB
 40
10.0
  9
$CHAMFERC
 40
20.0
  9
$CHAMFERD
 40
0.0
  9
$SKPOLY
 70
     0
  9
$TDCREATE
 40
2456231.395165625
  9
$TDUCREATE
 40
2456231.353498959
  9
$TDUPDATE
 40
2456231.395166701
  9
$TDUUPDATE
 40
2456231.353500035
  9
$TDINDWG
 40
0.0000000116
  9
$TDUSRTIMER
 40
0.0000000116
  9
$USRTIMER
 70
     1
  9
$ANGBASE
 50
0.0
  9
$ANGDIR
 70
     0
  9
$PDMODE
 70
     0
  9
$PDSIZE
 40
-1.0
  9
$PLINEWID
 40
0.0
  9
$SPLFRAME
 70
     0
  9
$SPLINETYPE
 70
     6
  9
$SPLINESEGS
 70
     8
  9
$HANDSEED
  5
183
  9
$SURFTAB1
 70
     6
  9
$SURFTAB2
 70
     6
  9
$SURFTYPE
 70
     6
  9
$SURFU
 70
     6
  9
$SURFV
 70
     6
  9
$UCSBASE
  2

  9
$UCSNAME
  2

  9
$UCSORG
 10
0.0
 20
0.0
 30
0.0
  9
$UCSXDIR
 10
1.0
 20
0.0
 30
0.0
  9
$UCSYDIR
 10
0.0
 20
1.0
 30
0.0
  9
$UCSORTHOREF
  2

  9
$UCSORTHOVIEW
 70
     0
  9
$UCSORGTOP
 10
0.0
 20
0.0
 30
0.0
  9
$UCSORGBOTTOM
 10
0.0
 20
0.0
 30
0.0
  9
$UCSORGLEFT
 10
0.0
 20
0.0
 30
0.0
  9
$UCSORGRIGHT
 10
0.0
 20
0.0
 30
0.0
  9
$UCSORGFRONT
 10
0.0
 20
0.0
 30
0.0
  9
$UCSORGBACK
 10
0.0
 20
0.0
 30
0.0
  9
$PUCSBASE
  2

  9
$PUCSNAME
  2

  9
$PUCSORG
 10
0.0
 20
0.0
 30
0.0
  9
$PUCSXDIR
 10
1.0
 20
0.0
 30
0.0
  9
$PUCSYDIR
 10
0.0
 20
1.0
 30
0.0
  9
$PUCSORTHOREF
  2

  9
$PUCSORTHOVIEW
 70
     0
  9
$PUCSORGTOP
 10
0.0
 20
0.0
 30
0.0
  9
$PUCSORGBOTTOM
 10
0.0
 20
0.0
 30
0.0
  9
$PUCSORGLEFT
 10
0.0
 20
0.0
 30
0.0
  9
$PUCSORGRIGHT
 10
0.0
 20
0.0
 30
0.0
  9
$PUCSORGFRONT
 10
0.0
 20
0.0
 30
0.0
  9
$PUCSORGBACK
 10
0.0
 20
0.0
 30
0.0
  9
$USERI1
 70
     0
  9
$USERI2
 70
     0
  9
$USERI3
 70
     0
  9
$USERI4
 70
     0
  9
$USERI5
 70
     0
  9
$USERR1
 40
0.0
  9
$USERR2
 40
0.0
  9
$USERR3
 40
0.0
  9
$USERR4
 40
0.0
  9
$USERR5
 40
0.0
  9
$WORLDVIEW
 70
     1
  9
$SHADEDGE
 70
     3
  9
$SHADEDIF
 70
    70
  9
$TILEMODE
 70
     1
  9
$MAXACTVP
 70
    64
  9
$PINSBASE
 10
0.0
 20
0.0
 30
0.0
  9
$PLIMCHECK
 70
     0
  9
$PEXTMIN
 10
1.0000000000E+20
 20
1.0000000000E+20
 30
1.0000000000E+20
  9
$PEXTMAX
 10
-1.0000000000E+20
 20
-1.0000000000E+20
 30
-1.0000000000E+20
  9
$PLIMMIN
 10
0.0
 20
0.0
  9
$PLIMMAX
 10
420.0
 20
297.0
  9
$UNITMODE
 70
     0
  9
$VISRETAIN
 70
     1
  9
$PLINEGEN
 70
     0
  9
$PSLTSCALE
 70
     1
  9
$TREEDEPTH
 70
  3020
  9
$CMLSTYLE
  2
Standard
  9
$CMLJUST
 70
     0
  9
$CMLSCALE
 40
20.0
  9
$PROXYGRAPHICS
 70
     1
  9
$MEASUREMENT
 70
     1
  9
$CELWEIGHT
370
    -1
  9
$ENDCAPS
280
     0
  9
$JOINSTYLE
280
     0
  9
$LWDISPLAY
290
     1
  9
$INSUNITS
 70
     4
  9
$HYPERLINKBASE
  1

  9
$STYLESHEET
  1

  9
$XEDIT
290
     1
  9
$CEPSNTYPE
380
     0
  9
$PSTYLEMODE
290
     1
  9
$FINGERPRINTGUID
  2
{79F6A03E-5F65-4DB7-8045-53B213D96F64}
  9
$VERSIONGUID
  2
{FAEB1C32-E019-11D5-929B-00C0DF256EC4}
  9
$EXTNAMES
290
     1
  9
$PSVPSCALE
 40
0.0
  9
$OLESTARTUP
290
     0
  0
ENDSEC
  0
SECTION
  2
CLASSES
  0
CLASS
  1
ACDBDICTIONARYWDFLT
  2
AcDbDictionaryWithDefault
  3
ObjectDBX Classes
 90
        0
280
     0
281
     0
  0
CLASS
  1
VISUALSTYLE
  2
AcDbVisualStyle
  3
ObjectDBX Classes
 90
     4095
280
     0
281
     0
  0
CLASS
  1
MATERIAL
  2
AcDbMaterial
  3
ObjectDBX Classes
 90
     1153
280
     0
281
     0
  0
CLASS
  1
ACDBPLACEHOLDER
  2
AcDbPlaceHolder
  3
ObjectDBX Classes
 90
        0
280
     0
281
     0
  0
CLASS
  1
LAYOUT
  2
AcDbLayout
  3
ObjectDBX Classes
 90
        0
280
     0
281
     0
  0
ENDSEC
  0
SECTION
  2
TABLES
  0
TABLE
  2
VPORT
  5
8
330
0
100
AcDbSymbolTable
 70
     1
  0
VPORT
  5
29
330
8
100
AcDbSymbolTableRecord
100
AcDbViewportTableRecord
  2
*Active
 70
     0
 10
0.0
 20
0.0
 11
1.0
 21
1.0
 12
148.5
 22
105.0
 13
0.0
 23
0.0
 14
10.0
 24
10.0
 15
10.0
 25
10.0
 16
0.0
 26
0.0
 36
1.0
 17
0.0
 27
0.0
 37
0.0
 40
210.0
 41
1.4142857143
 42
50.0
 43
0.0
 44
0.0
 50
0.0
 51
0.0
 71
     0
 72
  2000
 73
     1
 74
     3
 75
     0
 76
     0
 77
     0
 78
     0
281
     0
 65
     1
110
0.0
120
0.0
130
0.0
111
1.0
121
0.0
131
0.0
112
0.0
122
1.0
132
0.0
 79
     0
146
0.0
  0
ENDTAB
  0
TABLE
  2
LTYPE
  5
5
330
0
100
AcDbSymbolTable
 70
     6
  0
LTYPE
  5
14
330
5
100
AcDbSymbolTableRecord
100
AcDbLinetypeTableRecord
  2
ByBlock
 70
     0
  3

 72
    65
 73
     0
 40
0.0
  0
LTYPE
  5
15
330
5
100
AcDbSymbolTableRecord
100
AcDbLinetypeTableRecord
  2
ByLayer
 70
     0
  3

 72
    65
 73
     0
 40
0.0
  0
LTYPE
  5
16
330
5
100
AcDbSymbolTableRecord
100
AcDbLinetypeTableRecord
  2
Continuous
 70
     0
  3
Solid line
 72
    65
 73
     0
 40
0.0
  0
LTYPE
  5
3F
330
5
100
AcDbSymbolTableRecord
100
AcDbLinetypeTableRecord
  2
HIDDEN
 70
     0
  3
Hidden __ __ __ __ __ __ __ __ __ __ __ __ __ __
 72
    65
 73
     2
 40
1.905
 49
1.27
 74
     0
 49
-0.635
 74
     0
  0
LTYPE
  5
40
330
5
100
AcDbSymbolTableRecord
100
AcDbLinetypeTableRecord
  2
PHANTOM
 70
     0
  3
Phantom ______  __  __  ______  __  __  ______
 72
    65
 73
     6
 40
12.7
 49
6.35
 74
     0
 49
-1.27
 74
     0
 49
1.27
 74
     0
 49
-1.27
 74
     0
 49
1.27
 74
     0
 49
-1.27
 74
     0
  0
LTYPE
  5
41
330
5
100
AcDbSymbolTableRecord
100
AcDbLinetypeTableRecord
  2
CENTER
 70
     0
  3
Center ____ _ ____ _ ____ _ ____ _ ____ _ ____
 72
    65
 73
     4
 40
10.16
 49
6.35
 74
     0
 49
-1.27
 74
     0
 49
1.27
 74
     0
 49
-1.27
 74
     0
  0
LTYPE
  5
42
330
5
100
AcDbSymbolTableRecord
100
AcDbLinetypeTableRecord
  2
CENTERX2
 70
     0
  3
Center (2x) ________  __  ________  __  _____
 72
    65
 73
     4
 40
20.32
 49
12.7
 74
     0
 49
-2.54
 74
     0
 49
2.54
 74
     0
 49
-2.54
 74
     0
  0
LTYPE
  5
43
330
5
100
AcDbSymbolTableRecord
100
AcDbLinetypeTableRecord
  2
DOT2
 70
     0
  3
Dot (.5x) ........................................
 72
    65
 73
     2
 40
0.635
 49
0.0
 74
     0
 49
-0.635
 74
     0
  0
ENDTAB
  0
TABLE
  2
LAYER
  5
2
330
0
100
AcDbSymbolTable
 70
     5
  0
LAYER
  5
10
330
2
100
AcDbSymbolTableRecord
100
AcDbLayerTableRecord
  2
0
 70
     0
 62
     7
  6
Continuous
370
    -3
390
F
  0
LAYER
  5
44
330
2
100
AcDbSymbolTableRecord
100
AcDbLayerTableRecord
  2
FORMAT
 70
     0
 62
     7
  6
Continuous
370
    -3
390
F
  0
LAYER
  5
45
330
2
100
AcDbSymbolTableRecord
100
AcDbLayerTableRecord
  2
VERMASSUNG
 70
     0
 62
     7
  6
Continuous
370
    -3
390
F
  0
LAYER
  5
46
330
2
100
AcDbSymbolTableRecord
100
AcDbLayerTableRecord
  2
KOPF_DÜNN
 70
     0
 62
     7
  6
Continuous
370
    -3
390
F
  0
LAYER
  5
47
330
2
100
AcDbSymbolTableRecord
100
AcDbLayerTableRecord
  2
KOPF_DICK
 70
     0
 62
     7
  6
Continuous
370
    15
390
F
  0
ENDTAB
  0
TABLE
  2
STYLE
  5
3
330
0
100
AcDbSymbolTable
 70
     3
  0
STYLE
  5
11
330
3
100
AcDbSymbolTableRecord
100
AcDbTextStyleTableRecord
  2
Standard
 70
     0
 40
0.0
 41
1.0
 50
0.0
 71
     0
 42
2.0
  3
txt
  4

  0
STYLE
  5
48
330
3
100
AcDbSymbolTableRecord
100
AcDbTextStyleTableRecord
  2
SLDTEXTSTYLE0
 70
     0
 40
0.0
 41
0.7
 50
0.0
 71
     0
 42
0.2
  3
TXT
  4

  0
STYLE
  5
4C
330
3
100
AcDbSymbolTableRecord
100
AcDbTextStyleTableRecord
  2
SLDTEXTSTYLE1
 70
     0
 40
0.0
 41
0.6473684211
 50
0.0
 71
     0
 42
0.2
  3
TXT
  4

  0
ENDTAB
  0
TABLE
  2
VIEW
  5
6
330
0
100
AcDbSymbolTable
 70
     0
  0
ENDTAB
  0
TABLE
  2
UCS
  5
7
330
0
100
AcDbSymbolTable
 70
     0
  0
ENDTAB
  0
TABLE
  2
APPID
  5
9
330
0
100
AcDbSymbolTable
 70
     1
  0
APPID
  5
12
330
9
100
AcDbSymbolTableRecord
100
AcDbRegAppTableRecord
  2
ACAD
 70
     0
  0
ENDTAB
  0
TABLE
  2
DIMSTYLE
  5
A
330
0
100
AcDbSymbolTable
 70
     3
100
AcDbDimStyleTable
  0
DIMSTYLE
105
27
330
A
100
AcDbSymbolTableRecord
100
AcDbDimStyleTableRecord
  2
ISO-25
 70
     0
 41
2.5
 42
0.625
 43
3.75
 44
1.25
 73
     0
 74
     0
 77
     1
 78
     8
140
2.5
141
2.5
143
0.0393700787
147
0.625
171
     3
172
     1
178
     0
271
     2
272
     2
274
     3
278
    44
283
     0
284
     8
340
11
  0
DIMSTYLE
105
13E
102
{ACAD_REACTORS
330
13D
102
}
330
A
100
AcDbSymbolTableRecord
100
AcDbDimStyleTableRecord
  2
SLDDIMSTYLE0
 70
     0
 41
3.0
 44
0.0
 45
0.000000001
 73
     0
 74
     0
 77
     1
 78
    12
 79
     3
140
2.0
147
0.5
172
     1
173
     1
178
     0
271
     2
272
     3
276
     2
284
    12
289
     0
340
48
  0
DIMSTYLE
105
14C
102
{ACAD_REACTORS
330
14B
330
157
330
161
330
16B
330
175
102
}
330
A
100
AcDbSymbolTableRecord
100
AcDbDimStyleTableRecord
  2
SLDDIMSTYLE1
 70
     0
 41
3.0
 44
0.0
 45
0.000000001
 73
     0
 74
     0
 77
     1
 78
    12
 79
     3
140
2.0
147
0.5
173
     1
178
     0
271
     2
272
     3
276
     2
284
    12
340
48
  0
ENDTAB
  0
TABLE
  2
BLOCK_RECORD
  5
1
330
0
100
AcDbSymbolTable
 70
     7
  0
BLOCK_RECORD
  5
1F
330
1
100
AcDbSymbolTableRecord
100
AcDbBlockTableRecord
  2
*Model_Space
340
22
  0
BLOCK_RECORD
  5
1B
330
1
100
AcDbSymbolTableRecord
100
AcDbBlockTableRecord
  2
*Paper_Space
340
1E
  0
BLOCK_RECORD
  5
23
330
1
100
AcDbSymbolTableRecord
100
AcDbBlockTableRecord
  2
*Paper_Space0
340
26
  0
BLOCK_RECORD
  5
13F
330
1
100
AcDbSymbolTableRecord
100
AcDbBlockTableRecord
  2
_D
340
0
  0
BLOCK_RECORD
  5
14D
330
1
100
AcDbSymbolTableRecord
100
AcDbBlockTableRecord
  2
_D_1
340
0
  0
BLOCK_RECORD
  5
158
330
1
100
AcDbSymbolTableRecord
100
AcDbBlockTableRecord
  2
_D_2
340
0
  0
BLOCK_RECORD
  5
162
330
1
100
AcDbSymbolTableRecord
100
AcDbBlockTableRecord
  2
_D_3
340
0
  0
BLOCK_RECORD
  5
16C
330
1
100
AcDbSymbolTableRecord
100
AcDbBlockTableRecord
  2
_D_4
340
0
  0
BLOCK_RECORD
  5
176
330
1
100
AcDbSymbolTableRecord
100
AcDbBlockTableRecord
  2
_D_5
340
0
  0
ENDTAB
  0
ENDSEC
  0
SECTION
  2
BLOCKS
  0
BLOCK
  5
20
330
1F
100
AcDbEntity
  8
0
100
AcDbBlockBegin
  2
*Model_Space
 70
     0
 10
0.0
 20
0.0
 30
0.0
  3
*Model_Space
  1

  0
ENDBLK
  5
21
330
1F
100
AcDbEntity
  8
0
100
AcDbBlockEnd
  0
BLOCK
  5
1C
330
1B
100
AcDbEntity
 67
     1
  8
0
100
AcDbBlockBegin
  2
*Paper_Space
 70
     0
 10
0.0
 20
0.0
 30
0.0
  3
*Paper_Space
  1

  0
ENDBLK
  5
1D
330
1B
100
AcDbEntity
 67
     1
  8
0
100
AcDbBlockEnd
  0
BLOCK
  5
24
330
23
100
AcDbEntity
  8
0
100
AcDbBlockBegin
  2
*Paper_Space0
 70
     0
 10
0.0
 20
0.0
 30
0.0
  3
*Paper_Space0
  1

  0
ENDBLK
  5
25
330
23
100
AcDbEntity
  8
0
100
AcDbBlockEnd
  0
BLOCK
  5
140
330
13F
100
AcDbEntity
  8
0
100
AcDbBlockBegin
  2
_D
 70
     0
 10
0.0
 20
0.0
 30
0.0
  3
_D
  1

  0
SOLID
  5
142
330
13F
100
AcDbEntity
  8
VERMASSUNG
100
AcDbTrace
 10
244.1463705309
 20
116.0063921993
 30
0.0
 11
244.5963705309
 21
119.0063921993
 31
0.0
 12
243.6963705309
 22
119.0063921993
 32
0.0
 13
243.6963705309
 23
119.0063921993
 33
0.0
  0
SOLID
  5
143
330
13F
100
AcDbEntity
  8
VERMASSUNG
100
AcDbTrace
 10
244.1463705309
 20
110.0063921993
 30
0.0
 11
243.6963705309
 21
107.0063921993
 31
0.0
 12
244.5963705309
 22
107.0063921993
 32
0.0
 13
244.5963705309
 23
107.0063921993
 33
0.0
  0
LINE
  5
144
330
13F
100
AcDbEntity
  8
VERMASSUNG
100
AcDbLine
 10
236.6488707727
 20
116.0063921993
 30
0.0
 11
245.1463705309
 21
116.0063921993
 31
0.0
  0
LINE
  5
145
330
13F
100
AcDbEntity
  8
VERMASSUNG
100
AcDbLine
 10
236.6488707727
 20
110.0063921993
 30
0.0
 11
245.1463705309
 21
110.0063921993
 31
0.0
  0
LINE
  5
146
330
13F
100
AcDbEntity
  8
VERMASSUNG
100
AcDbLine
 10
244.1463705309
 20
116.0063921993
 30
0.0
 11
244.1463705309
 21
122.0063921993
 31
0.0
  0
LINE
  5
147
330
13F
100
AcDbEntity
  8
VERMASSUNG
100
AcDbLine
 10
244.1463705309
 20
116.0063921993
 30
0.0
 11
244.1463705309
 21
110.0063921993
 31
0.0
  0
LINE
  5
148
330
13F
100
AcDbEntity
  8
VERMASSUNG
100
AcDbLine
 10
244.1463705309
 20
110.0063921993
 30
0.0
 11
244.1463705309
 21
104.0063921993
 31
0.0
  0
MTEXT
  5
149
330
13F
100
AcDbEntity
  8
VERMASSUNG
100
AcDbMText
 10
241.5682350513
 20
110.502894746
 30
0.0
 40
2.0
 41
0.0
 71
     1
 72
     1
  1
%%c
  7
SLDTEXTSTYLE0
 11
-7.044195017643634E-15
 21
1.0
 31
0.0
 73
     1
 44
1.0
  0
MTEXT
  5
14A
330
13F
100
AcDbEntity
  8
VERMASSUNG
100
AcDbMText
 10
241.5682351677
 20
114.1113952393
 30
0.0
 40
2.0
 41
0.0
 71
     1
 72
     1
  1
6
  7
SLDTEXTSTYLE0
 11
-7.044195017643634E-15
 21
1.0
 31
0.0
 73
     1
 44
1.0
  0
ENDBLK
  5
141
330
13F
100
AcDbEntity
  8
0
100
AcDbBlockEnd
  0
BLOCK
  5
14E
330
14D
100
AcDbEntity
  8
0
100
AcDbBlockBegin
  2
_D_1
 70
     0
 10
0.0
 20
0.0
 30
0.0
  3
_D_1
  1

  0
SOLID
  5
150
330
14D
100
AcDbEntity
  8
VERMASSUNG
100
AcDbTrace
 10
250.1463705309
 20
128.0063921993
 30
0.0
 11
249.6963705309
 21
125.0063921993
 31
0.0
 12
250.5963705309
 22
125.0063921993
 32
0.0
 13
250.5963705309
 23
125.0063921993
 33
0.0
  0
SOLID
  5
151
330
14D
100
AcDbEntity
  8
VERMASSUNG
100
AcDbTrace
 10
250.1463705309
 20
98.0063921993
 30
0.0
 11
250.5963705309
 21
101.0063921993
 31
0.0
 12
249.6963705309
 22
101.0063921993
 32
0.0
 13
249.6963705309
 23
101.0063921993
 33
0.0
  0
LINE
  5
152
330
14D
100
AcDbEntity
  8
VERMASSUNG
100
AcDbLine
 10
223.0095757894
 20
128.0063921993
 30
0.0
 11
251.1463705309
 21
128.0063921993
 31
0.0
  0
LINE
  5
153
330
14D
100
AcDbEntity
  8
VERMASSUNG
100
AcDbLine
 10
223.0095757894
 20
98.0063921993
 30
0.0
 11
251.1463705309
 21
98.0063921993
 31
0.0
  0
LINE
  5
154
330
14D
100
AcDbEntity
  8
VERMASSUNG
100
AcDbLine
 10
250.1463705309
 20
128.0063921993
 30
0.0
 11
250.1463705309
 21
98.0063921993
 31
0.0
  0
MTEXT
  5
155
330
14D
100
AcDbEntity
  8
VERMASSUNG
100
AcDbMText
 10
247.5682350513
 20
109.8036475394
 30
0.0
 40
2.0
 41
0.0
 71
     1
 72
     1
  1
%%c
  7
SLDTEXTSTYLE0
 11
-7.044195017643634E-15
 21
1.0
 31
0.0
 73
     1
 44
1.0
  0
MTEXT
  5
156
330
14D
100
AcDbEntity
  8
VERMASSUNG
100
AcDbMText
 10
247.5682351677
 20
113.4121480326
 30
0.0
 40
2.0
 41
0.0
 71
     1
 72
     1
  1
30
  7
SLDTEXTSTYLE0
 11
-7.044195017643634E-15
 21
1.0
 31
0.0
 73
     1
 44
1.0
  0
ENDBLK
  5
14F
330
14D
100
AcDbEntity
  8
0
100
AcDbBlockEnd
  0
BLOCK
  5
159
330
158
100
AcDbEntity
  8
0
100
AcDbBlockBegin
  2
_D_2
 70
     0
 10
0.0
 20
0.0
 30
0.0
  3
_D_2
  1

  0
SOLID
  5
15B
330
158
100
AcDbEntity
  8
VERMASSUNG
100
AcDbTrace
 10
132.8988707727
 20
150.1374864572
 30
0.0
 11
135.8988707727
 21
149.6874864572
 31
0.0
 12
135.8988707727
 22
150.5874864572
 32
0.0
 13
135.8988707727
 23
150.5874864572
 33
0.0
  0
SOLID
  5
15C
330
158
100
AcDbEntity
  8
VERMASSUNG
100
AcDbTrace
 10
236.9488707727
 20
150.1374864572
 30
0.0
 11
233.9488707727
 21
150.5874864572
 31
0.0
 12
233.9488707727
 22
149.6874864572
 32
0.0
 13
233.9488707727
 23
149.6874864572
 33
0.0
  0
LINE
  5
15D
330
158
100
AcDbEntity
  8
VERMASSUNG
100
AcDbLine
 10
132.8988707727
 20
142.8528325231
 30
0.0
 11
132.8988707727
 21
151.1374864572
 31
0.0
  0
LINE
  5
15E
330
158
100
AcDbEntity
  8
VERMASSUNG
100
AcDbLine
 10
236.9488707727
 20
120.2322516777
 30
0.0
 11
236.9488707727
 21
151.1374864572
 31
0.0
  0
LINE
  5
15F
330
158
100
AcDbEntity
  8
VERMASSUNG
100
AcDbLine
 10
132.8988707727
 20
150.1374864572
 30
0.0
 11
236.9488707727
 21
150.1374864572
 31
0.0
  0
MTEXT
  5
160
330
158
100
AcDbEntity
  8
VERMASSUNG
100
AcDbMText
 10
181.2239549337
 20
152.7156218203
 30
0.0
 40
2.0
 41
0.0
 71
     1
 72
     1
  1
104.05
  7
SLDTEXTSTYLE0
 73
     1
 44
1.0
  0
ENDBLK
  5
15A
330
158
100
AcDbEntity
  8
0
100
AcDbBlockEnd
  0
BLOCK
  5
163
330
162
100
AcDbEntity
  8
0
100
AcDbBlockBegin
  2
_D_3
 70
     0
 10
0.0
 20
0.0
 30
0.0
  3
_D_3
  1

  0
SOLID
  5
165
330
162
100
AcDbEntity
  8
VERMASSUNG
100
AcDbTrace
 10
106.9488707727
 20
156.1374864572
 30
0.0
 11
109.9488707727
 21
155.6874864572
 31
0.0
 12
109.9488707727
 22
156.5874864572
 32
0.0
 13
109.9488707727
 23
156.5874864572
 33
0.0
  0
SOLID
  5
166
330
162
100
AcDbEntity
  8
VERMASSUNG
100
AcDbTrace
 10
236.9488707727
 20
156.1374864572
 30
0.0
 11
233.9488707727
 21
156.5874864572
 31
0.0
 12
233.9488707727
 22
155.6874864572
 32
0.0
 13
233.9488707727
 23
155.6874864572
 33
0.0
  0
LINE
  5
167
330
162
100
AcDbEntity
  8
VERMASSUNG
100
AcDbLine
 10
106.9488707727
 20
144.2063921993
 30
0.0
 11
106.9488707727
 21
157.1374864572
 31
0.0
  0
LINE
  5
168
330
162
100
AcDbEntity
  8
VERMASSUNG
100
AcDbLine
 10
236.9488707727
 20
120.2322516777
 30
0.0
 11
236.9488707727
 21
157.1374864572
 31
0.0
  0
LINE
  5
169
330
162
100
AcDbEntity
  8
VERMASSUNG
100
AcDbLine
 10
106.9488707727
 20
156.1374864572
 30
0.0
 11
236.9488707727
 21
156.1374864572
 31
0.0
  0
MTEXT
  5
16A
330
162
100
AcDbEntity
  8
VERMASSUNG
100
AcDbMText
 10
170.0499976243
 20
158.7156218203
 30
0.0
 40
2.0
 41
0.0
 71
     1
 72
     1
  1
130
  7
SLDTEXTSTYLE0
 73
     1
 44
1.0
  0
ENDBLK
  5
164
330
162
100
AcDbEntity
  8
0
100
AcDbBlockEnd
  0
BLOCK
  5
16D
330
16C
100
AcDbEntity
  8
0
100
AcDbBlockBegin
  2
_D_4
 70
     0
 10
0.0
 20
0.0
 30
0.0
  3
_D_4
  1

  0
SOLID
  5
16F
330
16C
100
AcDbEntity
  8
VERMASSUNG
100
AcDbTrace
 10
75.0488707727
 20
162.1374864572
 30
0.0
 11
78.0488707727
 21
161.6874864572
 31
0.0
 12
78.0488707727
 22
162.5874864572
 32
0.0
 13
78.0488707727
 23
162.5874864572
 33
0.0
  0
SOLID
  5
170
330
16C
100
AcDbEntity
  8
VERMASSUNG
100
AcDbTrace
 10
236.9488707727
 20
162.1374864572
 30
0.0
 11
233.9488707727
 21
162.5874864572
 31
0.0
 12
233.9488707727
 22
161.6874864572
 32
0.0
 13
233.9488707727
 23
161.6874864572
 33
0.0
  0
LINE
  5
171
330
16C
100
AcDbEntity
  8
VERMASSUNG
100
AcDbLine
 10
75.0488707727
 20
132.6970699458
 30
0.0
 11
75.0488707727
 21
163.1374864572
 31
0.0
  0
LINE
  5
172
330
16C
100
AcDbEntity
  8
VERMASSUNG
100
AcDbLine
 10
236.9488707727
 20
120.2322516777
 30
0.0
 11
236.9488707727
 21
163.1374864572
 31
0.0
  0
LINE
  5
173
330
16C
100
AcDbEntity
  8
VERMASSUNG
100
AcDbLine
 10
75.0488707727
 20
162.1374864572
 30
0.0
 11
236.9488707727
 21
162.1374864572
 31
0.0
  0
MTEXT
  5
174
330
16C
100
AcDbEntity
  8
VERMASSUNG
100
AcDbMText
 10
153.2997124038
 20
164.7156218203
 30
0.0
 40
2.0
 41
0.0
 71
     1
 72
     1
  1
161.9
  7
SLDTEXTSTYLE0
 73
     1
 44
1.0
  0
ENDBLK
  5
16E
330
16C
100
AcDbEntity
  8
0
100
AcDbBlockEnd
  0
BLOCK
  5
177
330
176
100
AcDbEntity
  8
0
100
AcDbBlockBegin
  2
_D_5
 70
     0
 10
0.0
 20
0.0
 30
0.0
  3
_D_5
  1

  0
SOLID
  5
179
330
176
100
AcDbEntity
  8
VERMASSUNG
100
AcDbTrace
 10
69.1322860238
 20
144.5063921993
 30
0.0
 11
68.6822860238
 21
141.5063921993
 31
0.0
 12
69.5822860238
 22
141.5063921993
 32
0.0
 13
69.5822860238
 23
141.5063921993
 33
0.0
  0
SOLID
  5
17A
330
176
100
AcDbEntity
  8
VERMASSUNG
100
AcDbTrace
 10
69.1322860238
 20
81.5063921993
 30
0.0
 11
69.5822860238
 21
84.5063921993
 31
0.0
 12
68.6822860238
 22
84.5063921993
 32
0.0
 13
68.6822860238
 23
84.5063921993
 33
0.0
  0
LINE
  5
17B
330
176
100
AcDbEntity
  8
VERMASSUNG
100
AcDbLine
 10
107.2488707727
 20
144.5063921993
 30
0.0
 11
68.1322860238
 21
144.5063921993
 31
0.0
  0
LINE
  5
17C
330
176
100
AcDbEntity
  8
VERMASSUNG
100
AcDbLine
 10
107.2488707727
 20
81.5063921993
 30
0.0
 11
68.1322860238
 21
81.5063921993
 31
0.0
  0
LINE
  5
17D
330
176
100
AcDbEntity
  8
VERMASSUNG
100
AcDbLine
 10
69.1322860238
 20
144.5063921993
 30
0.0
 11
69.1322860238
 21
81.5063921993
 31
0.0
  0
MTEXT
  5
17E
330
176
100
AcDbEntity
  8
VERMASSUNG
100
AcDbMText
 10
66.3541505348
 20
105.3034464798
 30
0.0
 40
2.0
 41
0.0
 71
     1
 72
     1
  1
HSK A
  7
SLDTEXTSTYLE0
 11
-7.044195017643634E-15
 21
1.0
 31
0.0
 73
     1
 44
1.0
  0
MTEXT
  5
17F
330
176
100
AcDbEntity
  8
VERMASSUNG
100
AcDbMText
 10
66.5541505443
 20
114.3034470237
 30
0.0
 40
2.0
 41
0.0
 71
     1
 72
     1
  1
%%c
  7
SLDTEXTSTYLE0
 11
-7.044195017643634E-15
 21
1.0
 31
0.0
 73
     1
 44
1.0
  0
MTEXT
  5
180
330
176
100
AcDbEntity
  8
VERMASSUNG
100
AcDbMText
 10
66.5541506607
 20
117.9123490921
 30
0.0
 40
2.0
 41
0.0
 71
     1
 72
     1
  1
63
  7
SLDTEXTSTYLE0
 11
-7.044195017643634E-15
 21
1.0
 31
0.0
 73
     1
 44
1.0
  0
ENDBLK
  5
178
330
176
100
AcDbEntity
  8
0
100
AcDbBlockEnd
  0
ENDSEC
  0
SECTION
  2
ENTITIES
  0
MTEXT
  5
49
330
1F
100
AcDbEntity
  8
KOPF_DÜNN
100
AcDbMText
 10
13.8892156294
 20
23.8442973028
 30
0.0
 40
3.0
 41
0.0
 71
     1
 72
     1
  1
HA6.W06.K01.130
  7
SLDTEXTSTYLE0
 73
     1
 44
1.0
  0
MTEXT
  5
4A
330
1F
100
AcDbEntity
  8
VERMASSUNG
100
AcDbMText
 10
13.9329988022
 20
28.8834360957
 30
0.0
 40
3.0
 41
0.0
 71
     1
 72
     1
  1
Flächenspannfutter_End mill adapter Weldon ø6
  7
SLDTEXTSTYLE0
 73
     1
 44
1.0
  0
MTEXT
  5
4B
330
1F
100
AcDbEntity
  8
VERMASSUNG
100
AcDbMText
 10
98.8601118557
 20
13.8365368179
 30
0.0
 40
2.0
 41
0.0
 71
     1
 72
     1
  1
Datum: 20.04.2011
  7
SLDTEXTSTYLE0
 73
     1
 44
1.0
  0
MTEXT
  5
4D
330
1F
100
AcDbEntity
  8
VERMASSUNG
100
AcDbMText
 10
13.933048693
 20
18.0482802738
 30
0.0
 40
2.0
 41
0.0
 71
     1
 72
     1
  1
DIN 69 893 HSK A 63
  7
SLDTEXTSTYLE1
 73
     1
 44
1.0
  0
MTEXT
  5
4E
330
1F
100
AcDbEntity
  8
VERMASSUNG
100
AcDbMText
 10
13.9808475933
 20
13.9090973692
 30
0.0
 40
2.0
 41
0.0
 71
     1
 72
     1
  1
Gewicht: 1172g
  7
SLDTEXTSTYLE0
 73
     1
 44
1.0
  0
LINE
  5
4F
330
1F
100
AcDbEntity
  8
0
  6
Continuous
 62
     7
370
    15
100
AcDbLine
 10
107.2488707727
 20
81.5063921993
 30
0.0
 11
111.8988707727
 21
81.5063921993
 31
0.0
  0
LINE
  5
50
330
1F
100
AcDbEntity
  8
0
  6
Continuous
 62
     7
370
    15
100
AcDbLine
 10
111.9268591318
 20
144.5063921993
 30
0.0
 11
107.2488707727
 21
144.5063921993
 31
0.0
  0
ARC
  5
51
330
1F
100
AcDbEntity
  8
0
  6
Continuous
 62
     7
370
    15
100
AcDbCircle
 10
107.2488707727
 20
81.8063921993
 30
0.0
 40
0.3000000000000114
100
AcDbArc
 50
180.0
 51
270.0
  0
ARC
  5
52
330
1F
100
AcDbEntity
  8
0
  6
Continuous
 62
     7
370
    15
100
AcDbCircle
 10
107.2488707727
 20
144.2063921993
 30
0.0
 40
0.2999999999999972
100
AcDbArc
 50
90.0
 51
180.0
  0
ARC
  5
53
330
1F
100
AcDbEntity
  8
0
  6
Continuous
 62
     7
370
    15
100
AcDbCircle
 10
106.4488640201
 20
88.435954585
 30
0.0
 40
0.6000067526677282
100
AcDbArc
 50
33.5571153394
 51
90.0
  0
ARC
  5
54
330
1F
100
AcDbEntity
  8
0
  6
Continuous
 62
     7
370
    15
100
AcDbCircle
 10
106.4488640201
 20
137.5768298137
 30
0.0
 40
0.6000067526677282
100
AcDbArc
 50
270.0
 51
326.4428846606
  0
LINE
  5
55
330
1F
100
AcDbEntity
  8
0
  6
Continuous
 62
     7
370
    15
100
AcDbLine
 10
104.9488707727
 20
88.7859613376
 30
0.0
 11
105.8055835461
 21
89.0155168334
 31
0.0
  0
LINE
  5
56
330
1F
100
AcDbEntity
  8
0
  6
Continuous
 62
     7
370
    15
100
AcDbLine
 10
105.8055835461
 20
136.9972675653
 30
0.0
 11
104.9488707727
 21
137.2268230611
 31
0.0
  0
LINE
  5
57
330
1F
100
AcDbEntity
  8
0
  6
Continuous
 62
     7
370
    15
100
AcDbLine
 10
93.7184485902
 20
136.6641766591
 30
0.0
 11
81.1488707727
 21
136.0344382915
 31
0.0
  0
LINE
  5
58
330
1F
100
AcDbEntity
  8
0
  6
Continuous
 62
     7
370
    15
100
AcDbLine
 10
104.9488707727
 20
137.2268230611
 30
0.0
 11
102.1302614152
 21
137.0856101674
 31
0.0
  0
LINE
  5
59
330
1F
100
AcDbEntity
  8
0
  6
Continuous
 62
     7
370
    15
100
AcDbLine
 10
102.1304828904
 20
88.9271631353
 30
0.0
 11
104.9488707727
 21
88.7859613376
 31
0.0
  0
LINE
  5
5A
330
1F
100
AcDbEntity
  8
0
  6
Continuous
 62
     7
370
    15
100
AcDbLine
 10
85.1488707727
 20
89.7779453056
 30
0.0
 11
93.7191475419
 21
89.3485727219
 31
0.0
  0
ARC
  5
5B
330
1F
100
AcDbEntity
  8
0
  6
Continuous
 62
     7
370
    15
100
AcDbCircle
 10
105.9608749732
 20
88.4359613376
 30
0.0
 40
0.5999999999999943
100
AcDbArc
 50
90.0
 51
105.0
  0
ARC
  5
5C
330
1F
100
AcDbEntity
  8
0
  6
Continuous
 62
     7
370
    15
100
AcDbCircle
 10
105.9608749732
 20
137.5768230611
 30
0.0
 40
0.6000000000000227
100
AcDbArc
 50
255.0
 51
270.0
  0
LINE
  5
5D
330
1F
100
AcDbEntity
  8
0
  6
Continuous
 62
     7
370
    15
100
AcDbLine
 10
105.9608749732
 20
89.0359613376
 30
0.0
 11
106.4488640201
 21
89.0359613376
 31
0.0
  0
LINE
  5
5E
330
1F
100
AcDbEntity
  8
0
  6
Continuous
 62
     7
370
    15
100
AcDbLine
 10
106.4488640201
 20
136.9768230611
 30
0.0
 11
105.9608749732
 21
136.9768230611
 31
0.0
  0
ARC
  5
5F
330
1F
100
AcDbEntity
  8
0
  6
Continuous
 62
     7
370
    15
100
AcDbCircle
 10
135.8988707727
 20
91.9904333978
 30
0.0
 40
3.000000000000003
100
AcDbArc
 50
104.3250519401
 51
180.0
  0
ARC
  5
60
330
1F
100
AcDbEntity
  8
0
  6
Continuous
 62
     7
370
    15
100
AcDbCircle
 10
135.8988707727
 20
134.0223510009
 30
0.0
 40
3.0
100
AcDbArc
 50
180.0
 51
255.6749480599
  0
ARC
  5
61
330
1F
100
AcDbEntity
  8
0
  6
Continuous
 62
     7
370
    15
100
AcDbCircle
 10
159.8988707727
 20
-1.9936078007
 30
0.0
 40
100.0
100
AcDbArc
 50
90.0
 51
104.3250519401
  0
ARC
  5
62
330
1F
100
AcDbEntity
  8
0
  6
Continuous
 62
     7
370
    15
100
AcDbCircle
 10
159.8988707727
 20
228.0063921993
 30
0.0
 40
100.0
100
AcDbArc
 50
255.6749480599
 51
270.0
  0
LINE
  5
63
330
1F
100
AcDbEntity
  8
0
  6
Continuous
 62
     7
370
    15
100
AcDbLine
 10
159.8988707727
 20
98.0063921993
 30
0.0
 11
223.0095757894
 21
98.0063921993
 31
0.0
  0
LINE
  5
64
330
1F
100
AcDbEntity
  8
0
  6
Continuous
 62
     7
370
    15
100
AcDbLine
 10
223.0095757894
 20
128.0063921993
 30
0.0
 11
159.8988707727
 21
128.0063921993
 31
0.0
  0
LINE
  5
65
330
1F
100
AcDbEntity
  8
0
  6
Continuous
 62
     7
370
    15
100
AcDbLine
 10
223.0095757894
 20
98.0063921993
 30
0.0
 11
235.7941072962
 21
103.9679171469
 31
0.0
  0
LINE
  5
66
330
1F
100
AcDbEntity
  8
0
  6
Continuous
 62
     7
370
    15
100
AcDbLine
 10
235.7941072962
 20
122.0448672518
 30
0.0
 11
223.0095757894
 21
128.0063921993
 31
0.0
  0
LINE
  5
67
330
1F
100
AcDbEntity
  8
0
  6
Continuous
 62
     7
370
    15
100
AcDbLine
 10
76.3322074127
 20
92.1363921993
 30
0.0
 11
83.7488707727
 21
92.1363921993
 31
0.0
  0
ARC
  5
68
330
1F
100
AcDbEntity
  8
0
  6
Continuous
 62
     7
370
    15
100
AcDbCircle
 10
83.7488707727
 20
90.7363921993
 30
0.0
 40
1.400000000000006
100
AcDbArc
 50
42.2465410162
 51
90.0
  0
LINE
  5
69
330
1F
100
AcDbEntity
  8
0
  6
Continuous
 62
     7
370
    15
100
AcDbLine
 10
75.0499032669
 20
93.2853597052
 30
0.0
 11
76.1900342309
 21
92.1452287412
 31
0.0
  0
LINE
  5
6A
330
1F
100
AcDbEntity
  8
0
  6
Continuous
 62
     7
370
    15
100
AcDbLine
 10
76.1900342309
 20
133.8675556575
 30
0.0
 11
75.0587715461
 21
132.7362929727
 31
0.0
  0
ARC
  5
6B
330
1F
100
AcDbEntity
  8
0
  6
Continuous
 62
     7
370
    15
100
AcDbCircle
 10
79.7488707727
 20
135.2763921993
 30
0.0
 40
1.399999999999984
100
AcDbArc
 50
270.0
 51
301.7485287426
  0
LINE
  5
6C
330
1F
100
AcDbEntity
  8
0
  6
Continuous
 62
     7
370
    15
100
AcDbLine
 10
79.7488707727
 20
133.8763921993
 30
0.0
 11
76.3231365066
 21
133.8763921993
 31
0.0
  0
ARC
  5
6D
330
1F
100
AcDbEntity
  8
0
  6
Continuous
 62
     7
370
    15
100
AcDbCircle
 10
234.9488707727
 20
105.780532721
 30
0.0
 40
2.0
100
AcDbArc
 50
295.0
 51
0.0
  0
ARC
  5
6E
330
1F
100
AcDbEntity
  8
0
  6
Continuous
 62
     7
370
    15
100
AcDbCircle
 10
234.9488707727
 20
120.2322516777
 30
0.0
 40
2.0
100
AcDbArc
 50
0.0
 51
65.0
  0
CIRCLE
  5
6F
330
1F
100
AcDbEntity
  8
0
  6
Continuous
 62
     7
370
    15
100
AcDbCircle
 10
219.4488707727
 20
113.0063921993
 30
0.0
 40
2.500000000000006
  0
LINE
  5
70
330
1F
100
AcDbEntity
  8
0
  6
Continuous
 62
     7
370
    15
100
AcDbLine
 10
219.3031831016
 20
114.732305031
 30
0.0
 11
217.8813425802
 21
113.743179391
 31
0.0
  0
LINE
  5
71
330
1F
100
AcDbEntity
  8
0
  6
Continuous
 62
     7
370
    15
100
AcDbLine
 10
220.8707112941
 20
113.9955178394
 30
0.0
 11
221.0163989652
 21
112.2696050077
 31
0.0
  0
LINE
  5
72
330
1F
100
AcDbEntity
  8
0
  6
Continuous
 62
     7
370
    15
100
AcDbLine
 10
218.0270302514
 20
112.0172665593
 30
0.0
 11
219.5945584439
 21
111.2804793677
 31
0.0
  0
LINE
  5
73
330
1F
100
AcDbEntity
  8
0
  6
Continuous
 62
     7
370
    15
100
AcDbLine
 10
218.0270302514
 20
112.0172665593
 30
0.0
 11
217.8813425802
 21
113.743179391
 31
0.0
  0
LINE
  5
74
330
1F
100
AcDbEntity
  8
0
  6
Continuous
 62
     7
370
    15
100
AcDbLine
 10
219.5945584439
 20
111.2804793677
 30
0.0
 11
221.0163989652
 21
112.2696050077
 31
0.0
  0
LINE
  5
75
330
1F
100
AcDbEntity
  8
0
  6
Continuous
 62
     7
370
    15
100
AcDbLine
 10
219.3031831016
 20
114.732305031
 30
0.0
 11
220.8707112941
 21
113.9955178394
 31
0.0
  0
LINE
  5
76
330
1F
100
AcDbEntity
  8
0
  6
Continuous
 62
     7
370
    15
100
AcDbLine
 10
132.2988707727
 20
82.8194745031
 30
0.0
 11
128.3408036042
 21
82.8194745031
 31
0.0
  0
LINE
  5
77
330
1F
100
AcDbEntity
  8
0
  6
Continuous
 62
     7
370
    15
100
AcDbLine
 10
128.3408036042
 20
82.8194745031
 30
0.0
 11
128.3408036042
 21
132.8563921993
 31
0.0
  0
LINE
  5
78
330
1F
100
AcDbEntity
  8
0
  6
Continuous
 62
     7
370
    15
100
AcDbLine
 10
128.3408036042
 20
132.8563921993
 30
0.0
 11
132.2988707727
 21
132.8563921993
 31
0.0
  0
LINE
  5
79
330
1F
100
AcDbEntity
  8
0
  6
Continuous
 62
     7
370
    15
100
AcDbLine
 10
132.8988707727
 20
83.4461147988
 30
0.0
 11
132.8988707727
 21
132.8563921993
 31
0.0
  0
SPLINE
  5
7A
330
1F
100
AcDbEntity
  8
0
  6
Continuous
 62
     7
370
    15
100
AcDbSpline
210
0.0
220
0.0
230
1.0
 70
     8
 71
     3
 72
    10
 73
     6
 74
     0
 42
0.00000001
 43
0.00000001
 12
1.0
 22
0.0
 32
0.0
 13
1.0
 23
0.0
 33
0.0
 40
0.0
 40
0.0
 40
0.0
 40
0.0
 40
0.5
 40
0.5
 40
1.0
 40
1.0
 40
1.0
 40
1.0
 10
132.8988707727416
 20
83.44611479875714
 30
0.0
 10
132.8988707727416
 20
83.28622753056348
 30
0.0
 10
132.8375611215058
 20
83.12510027504887
 30
0.0
 10
132.6184614839707
 20
82.89100127669404
 30
0.0
 10
132.4604132776572
 20
82.81947450310281
 30
0.0
 10
132.2988707727416
 20
82.81947450310281
 30
0.0
  0
SPLINE
  5
7B
330
1F
100
AcDbEntity
  8
0
  6
Continuous
 62
     7
370
    15
100
AcDbSpline
210
0.0
220
0.0
230
1.0
 70
    24
 71
     3
 72
    12
 73
     8
 74
     0
 42
0.00000001
 43
0.00000001
 12
1.0
 22
0.0
 32
0.0
 13
1.0
 23
0.0
 33
0.0
 40
0.0
 40
0.0
 40
0.0
 40
0.0
 40
0.2500000000000033
 40
0.2500000000000033
 40
0.5000000000000067
 40
0.5000000000000067
 40
1.0
 40
1.0
 40
1.0
 40
1.0
 10
132.2988707727416
 20
132.85639219935
 30
0.0
 10
132.3891098404287
 20
132.85639219935
 30
0.0
 10
132.4800079545352
 20
132.85639219935
 30
0.0
 10
132.6346049910237
 20
132.85639219935
 30
0.0
 10
132.6995834071318
 20
132.85639219935
 30
0.0
 10
132.851418435068
 20
132.85639219935
 30
0.0
 10
132.8988707727416
 20
132.85639219935
 30
0.0
 10
132.8988707727416
 20
132.85639219935
 30
0.0
  0
LINE
  5
7C
330
1F
100
AcDbEntity
  8
0
  6
Continuous
 62
     7
370
    15
100
AcDbLine
 10
111.8988707727
 20
132.8563921993
 30
0.0
 11
121.5569379413
 21
132.8563921993
 31
0.0
  0
LINE
  5
7D
330
1F
100
AcDbEntity
  8
0
  6
Continuous
 62
     7
370
    15
100
AcDbLine
 10
121.5569379413
 20
82.8194745031
 30
0.0
 11
121.5569379413
 21
132.8563921993
 31
0.0
  0
LINE
  5
7E
330
1F
100
AcDbEntity
  8
0
  6
Continuous
 62
     7
370
    15
100
AcDbLine
 10
121.5569379413
 20
82.8194745031
 30
0.0
 11
119.8988707727
 21
82.8194745031
 31
0.0
  0
SPLINE
  5
7F
330
1F
100
AcDbEntity
  8
0
  6
Continuous
 62
     7
370
    15
100
AcDbSpline
210
0.0
220
0.0
230
1.0
 70
     8
 71
     3
 72
    28
 73
    24
 74
     0
 42
0.00000001
 43
0.00000001
 12
1.0
 22
0.0
 32
0.0
 13
1.0
 23
0.0
 33
0.0
 40
0.0
 40
0.0
 40
0.0
 40
0.0
 40
0.1249999999999999
 40
0.1249999999999999
 40
0.1874999999999998
 40
0.1874999999999998
 40
0.2499999999999997
 40
0.2499999999999997
 40
0.3749999999999993
 40
0.3749999999999993
 40
0.4374999999999993
 40
0.4374999999999993
 40
0.4999999999999992
 40
0.4999999999999992
 40
0.6249999999999992
 40
0.6249999999999992
 40
0.7499999999999992
 40
0.7499999999999992
 40
0.8124999999999993
 40
0.8124999999999993
 40
0.8749999999999996
 40
0.8749999999999996
 40
1.0
 40
1.0
 40
1.0
 40
1.0
 10
119.8988707727416
 20
82.81947450310281
 30
0.0
 10
119.3671630152487
 20
82.81947450310281
 30
0.0
 10
118.8449244499384
 20
82.80368978915259
 30
0.0
 10
118.0750539636634
 20
82.75869437507639
 30
0.0
 10
117.820694391472
 20
82.74013938000066
 30
0.0
 10
117.3165728107735
 20
82.69628665755417
 30
0.0
 10
117.0668499933456
 20
82.67094205060197
 30
0.0
 10
116.3412600418992
 20
82.58753997285186
 30
0.0
 10
115.8828997803176
 20
82.52167441370077
 30
0.0
 10
115.2324018369238
 20
82.412704073209
 30
0.0
 10
115.0207197861313
 20
82.37446443744234
 30
0.0
 10
114.6166482969933
 20
82.29670570002298
 30
0.0
 10
114.4241417831724
 20
82.25720473784764
 30
0.0
 10
113.8743068121512
 20
82.13829699548162
 30
0.0
 10
113.5443780338423
 20
82.05847931405701
 30
0.0
 10
112.9599067652737
 20
81.90513615226095
 30
0.0
 10
112.7136296272602
 20
81.8338023989917
 30
0.0
 10
112.4137868345622
 20
81.73985889191708
 30
0.0
 10
112.32532997749
 20
81.71066509855714
 30
0.0
 10
112.1719686241849
 20
81.65719852429375
 30
0.0
 10
112.1068804099586
 20
81.63283919001857
 30
0.0
 10
111.9512863940178
 20
81.56924904457382
 30
0.0
 10
111.8988707727416
 20
81.53914610948456
 30
0.0
 10
111.8988707727416
 20
81.52226921648764
 30
0.0
  0
LINE
  5
80
330
1F
100
AcDbEntity
  8
0
  6
Continuous
 62
     7
370
    15
100
AcDbLine
 10
111.8988707727
 20
81.5222692165
 30
0.0
 11
111.8988707727
 21
81.5063921993
 31
0.0
  0
SPLINE
  5
81
330
1F
100
AcDbEntity
  8
0
  6
Continuous
 62
     7
370
    15
100
AcDbSpline
210
0.0
220
0.0
230
1.0
 70
     8
 71
     3
 72
    17
 73
    13
 74
     0
 42
0.00000001
 43
0.00000001
 12
1.0
 22
0.0
 32
0.0
 13
1.0
 23
0.0
 33
0.0
 40
0.0
 40
0.0
 40
0.0
 40
0.0
 40
0.1034796923964057
 40
0.210023918880785
 40
0.3134862136955584
 40
0.4198361274354883
 40
0.5254127712915682
 40
0.6339610695419793
 40
0.7409508756305033
 40
0.8511696089308177
 40
0.955899653455194
 40
1.0
 40
1.0
 40
1.0
 40
1.0
 10
119.8988707727416
 20
143.4735876725142
 30
0.0
 10
119.4636224236316
 20
143.4790358690476
 30
0.0
 10
118.5802359170666
 20
143.4900936095594
 30
0.0
 10
117.299408331838
 20
143.5764520024609
 30
0.0
 10
116.0819917959639
 20
143.7043221789987
 30
0.0
 10
114.9741859437174
 20
143.8632674775919
 30
0.0
 10
113.9859471397691
 20
144.0377611653074
 30
0.0
 10
113.1612235822376
 20
144.2069270159473
 30
0.0
 10
112.5122700815783
 20
144.3548107984757
 30
0.0
 10
112.0952352661166
 20
144.4566013827065
 30
0.0
 10
111.8966385531521
 20
144.5069529053096
 30
0.0
 10
111.9199512745854
 20
144.5010472210873
 30
0.0
 10
111.9268591318229
 20
144.4992972913927
 30
0.0
  0
LINE
  5
82
330
1F
100
AcDbEntity
  8
0
  6
Continuous
 62
     7
370
    15
100
AcDbLine
 10
121.5569379413
 20
143.4735876725
 30
0.0
 11
119.8988707727
 21
143.4735876725
 31
0.0
  0
LINE
  5
83
330
1F
100
AcDbEntity
  8
0
  6
Continuous
 62
     7
370
    15
100
AcDbLine
 10
121.5569379413
 20
137.4650818617
 30
0.0
 11
121.5569379413
 21
143.4735876725
 31
0.0
  0
LINE
  5
84
330
1F
100
AcDbEntity
  8
0
  6
Continuous
 62
     7
370
    15
100
AcDbLine
 10
119.1444911184
 20
137.4650818617
 30
0.0
 11
121.5569379413
 21
137.4650818617
 31
0.0
  0
SPLINE
  5
85
330
1F
100
AcDbEntity
  8
0
  6
Continuous
 62
     7
370
    15
100
AcDbSpline
210
0.0
220
0.0
230
1.0
 70
     8
 71
     3
 72
    20
 73
    16
 74
     0
 42
0.00000001
 43
0.00000001
 12
1.0
 22
0.0
 32
0.0
 13
1.0
 23
0.0
 33
0.0
 40
0.0
 40
0.0
 40
0.0
 40
0.0
 40
0.2499999999999995
 40
0.2499999999999995
 40
0.3749999999999996
 40
0.3749999999999996
 40
0.4999999999999997
 40
0.4999999999999997
 40
0.6249999999999998
 40
0.6249999999999998
 40
0.7499999999999998
 40
0.7499999999999998
 40
0.8749999999999999
 40
0.8749999999999999
 40
1.0
 40
1.0
 40
1.0
 40
1.0
 10
111.8988707727416
 20
132.85639219935
 30
0.0
 10
112.1472445070297
 20
133.5102546276474
 30
0.0
 10
112.466814599375
 20
134.1140404096445
 30
0.0
 10
113.0891208325796
 20
134.9408791458131
 30
0.0
 10
113.3205450930104
 20
135.203307783766
 30
0.0
 10
113.8417594326601
 20
135.699970437871
 30
0.0
 10
114.1283799152952
 20
135.9305573168926
 30
0.0
 10
114.7478646566028
 20
136.3471115414752
 30
0.0
 10
115.0821650360898
 20
136.5346093434427
 30
0.0
 10
115.8074255087145
 20
136.8660063210791
 30
0.0
 10
116.189340566105
 20
137.0055103085744
 30
0.0
 10
116.9841287422767
 20
137.2309638160453
 30
0.0
 10
117.3982869364831
 20
137.317589927589
 30
0.0
 10
118.2638332770645
 20
137.4355707164431
 30
0.0
 10
118.7017208920763
 20
137.4650818617174
 30
0.0
 10
119.1444911184309
 20
137.4650818617174
 30
0.0
  0
SPLINE
  5
86
330
1F
100
AcDbEntity
  8
0
  6
Continuous
 62
     7
370
    15
100
AcDbSpline
210
0.0
220
0.0
230
1.0
 70
     8
 71
     3
 72
    70
 73
    66
 74
     0
 42
0.00000001
 43
0.00000001
 12
1.0
 22
0.0
 32
0.0
 13
1.0
 23
0.0
 33
0.0
 40
-0.0312500000000001
 40
-0.0312500000000001
 40
0.0
 40
0.0
 40
0.0312499999999999
 40
0.0312499999999999
 40
0.0624999999999998
 40
0.0624999999999998
 40
0.0937499999999997
 40
0.0937499999999997
 40
0.1249999999999996
 40
0.1249999999999996
 40
0.1562499999999994
 40
0.1562499999999994
 40
0.1874999999999993
 40
0.1874999999999993
 40
0.2187499999999992
 40
0.2187499999999992
 40
0.2499999999999991
 40
0.2499999999999991
 40
0.281249999999999
 40
0.281249999999999
 40
0.3124999999999989
 40
0.3124999999999989
 40
0.3437499999999988
 40
0.3437499999999988
 40
0.3749999999999987
 40
0.3749999999999987
 40
0.4062499999999986
 40
0.4062499999999986
 40
0.4374999999999984
 40
0.4374999999999984
 40
0.4687499999999983
 40
0.4687499999999983
 40
0.4999999999999982
 40
0.4999999999999982
 40
0.5312499999999983
 40
0.5312499999999983
 40
0.5624999999999984
 40
0.5624999999999984
 40
0.5937499999999986
 40
0.5937499999999986
 40
0.6249999999999987
 40
0.6249999999999987
 40
0.6562499999999988
 40
0.6562499999999988
 40
0.6874999999999989
 40
0.6874999999999989
 40
0.718749999999999
 40
0.718749999999999
 40
0.7499999999999991
 40
0.7499999999999991
 40
0.7812499999999992
 40
0.7812499999999992
 40
0.8124999999999993
 40
0.8124999999999993
 40
0.8437499999999994
 40
0.8437499999999994
 40
0.8749999999999996
 40
0.8749999999999996
 40
0.9062499999999997
 40
0.9062499999999997
 40
0.9374999999999998
 40
0.9374999999999998
 40
0.9687499999999999
 40
0.9687499999999999
 40
1.0
 40
1.0
 40
1.03125
 40
1.03125
 10
115.2134161114018
 20
123.6272990853333
 30
0.0
 10
114.6843254340815
 20
123.6272990853333
 30
0.0
 10
114.4242547667044
 20
123.6519763801185
 30
0.0
 10
113.912680086869
 20
123.7484480531604
 30
0.0
 10
113.6585048031288
 20
123.8214289691405
 30
0.0
 10
113.1742341730671
 20
124.0111695720791
 30
0.0
 10
112.9445930811859
 20
124.1270302304729
 30
0.0
 10
112.5099887329524
 20
124.3996480764306
 30
0.0
 10
112.3044229563058
 20
124.5576871584843
 30
0.0
 10
111.9358658157106
 20
124.901230009455
 30
0.0
 10
111.7703848329751
 20
125.0879924535567
 30
0.0
 10
111.47796032354
 20
125.4915356279535
 30
0.0
 10
111.3538593469135
 20
125.7050326243826
 30
0.0
 10
111.1542801501638
 20
126.1444159383051
 30
0.0
 10
111.0773465643055
 20
126.3735559254507
 30
0.0
 10
110.9744895057851
 20
126.8395300482107
 30
0.0
 10
110.949016596326
 20
127.0724124938869
 30
0.0
 10
110.9487261857582
 20
127.5378100289667
 30
0.0
 10
110.974750819534
 20
127.7726857863611
 30
0.0
 10
111.076899104026
 20
128.2241789336073
 30
0.0
 10
111.1524755516091
 20
128.4422254090187
 30
0.0
 10
111.3529730827541
 20
128.8633199340565
 30
0.0
 10
111.4781019242624
 20
129.0652413185748
 30
0.0
 10
111.767460725284
 20
129.4372708010937
 30
0.0
 10
111.9328717123395
 20
129.6098991046741
 30
0.0
 10
112.3058622704873
 20
129.9272171092201
 30
0.0
 10
112.5075953035764
 20
130.0670040427217
 30
0.0
 10
112.9404545544043
 20
130.3111802962736
 30
0.0
 10
113.1743730872937
 20
130.4164098073151
 30
0.0
 10
113.6585568224363
 20
130.5845669536902
 30
0.0
 10
113.9078724483918
 20
130.647817844284
 30
0.0
 10
114.4209049728195
 20
130.7333970533866
 30
0.0
 10
114.6861987957242
 20
130.755269218309
 30
0.0
 10
115.2085334155939
 20
130.755432867953
 30
0.0
 10
115.4682870780756
 20
130.734431175857
 30
0.0
 10
115.9848988937209
 20
130.6490288207793
 30
0.0
 10
116.2372649342211
 20
130.5850226374924
 30
0.0
 10
116.718790055754
 20
130.4182081174512
 30
0.0
 10
116.9516407878675
 20
130.314074954052
 30
0.0
 10
117.3887306363063
 20
130.0680883015571
 30
0.0
 10
117.5900516249635
 20
129.9283384706082
 30
0.0
 10
117.9591376502634
 20
129.6152004008836
 30
0.0
 10
118.1281224013151
 20
129.4397442416135
 30
0.0
 10
118.4185784579743
 20
129.0669039775133
 30
0.0
 10
118.5416502693364
 20
128.8687821674023
 30
0.0
 10
118.7429865107584
 20
128.4480708246687
 30
0.0
 10
118.8201990567007
 20
128.2260808040012
 30
0.0
 10
118.9224025996007
 20
127.7762158642928
 30
0.0
 10
118.9486309510531
 20
127.545960451176
 30
0.0
 10
118.9491073503702
 20
127.074644508627
 30
0.0
 10
118.9233649378722
 20
126.8414070929128
 30
0.0
 10
118.8220541615083
 20
126.3797305534148
 30
0.0
 10
118.7452215221174
 20
126.1488331663026
 30
0.0
 10
118.5448176829022
 20
125.706557152511
 30
0.0
 10
118.4221461846102
 20
125.4954947212251
 30
0.0
 10
118.1321988954459
 20
125.0939962104924
 30
0.0
 10
117.9636279160807
 20
124.9030896884165
 30
0.0
 10
117.5953583219676
 20
124.5593643564194
 30
0.0
 10
117.3942964646972
 20
124.4042271702053
 30
0.0
 10
116.9572655461123
 20
124.1291498101256
 30
0.0
 10
116.7251173329827
 20
124.0120335807036
 30
0.0
 10
116.2441070514838
 20
123.823107095639
 30
0.0
 10
115.9920069686534
 20
123.7500321252447
 30
0.0
 10
115.4749374823944
 20
123.6519800661102
 30
0.0
 10
115.2134161114018
 20
123.6272990853333
 30
0.0
 10
114.6843254340815
 20
123.6272990853333
 30
0.0
  0
SPLINE
  5
87
330
1F
100
AcDbEntity
  8
0
  6
Continuous
 62
     7
370
    15
100
AcDbSpline
210
0.0
220
0.0
230
1.0
 70
     8
 71
     3
 72
    70
 73
    66
 74
     0
 42
0.00000001
 43
0.00000001
 12
1.0
 22
0.0
 32
0.0
 13
1.0
 23
0.0
 33
0.0
 40
-0.0312500000000001
 40
-0.0312500000000001
 40
0.0
 40
0.0
 40
0.0312500000000001
 40
0.0312500000000001
 40
0.0625000000000002
 40
0.0625000000000002
 40
0.0937500000000003
 40
0.0937500000000003
 40
0.1250000000000004
 40
0.1250000000000004
 40
0.1562500000000005
 40
0.1562500000000005
 40
0.1875000000000006
 40
0.1875000000000006
 40
0.2187500000000007
 40
0.2187500000000007
 40
0.2500000000000008
 40
0.2500000000000008
 40
0.2812500000000007
 40
0.2812500000000007
 40
0.3125000000000006
 40
0.3125000000000006
 40
0.3437500000000006
 40
0.3437500000000006
 40
0.3750000000000005
 40
0.3750000000000005
 40
0.4062500000000004
 40
0.4062500000000004
 40
0.4375000000000003
 40
0.4375000000000003
 40
0.4687500000000003
 40
0.4687500000000003
 40
0.5000000000000002
 40
0.5000000000000002
 40
0.5312500000000001
 40
0.5312500000000001
 40
0.5625
 40
0.5625
 40
0.5937499999999999
 40
0.5937499999999999
 40
0.6249999999999997
 40
0.6249999999999997
 40
0.6562499999999996
 40
0.6562499999999996
 40
0.6874999999999994
 40
0.6874999999999994
 40
0.7187499999999993
 40
0.7187499999999993
 40
0.7499999999999992
 40
0.7499999999999992
 40
0.7812499999999993
 40
0.7812499999999993
 40
0.8124999999999994
 40
0.8124999999999994
 40
0.8437499999999996
 40
0.8437499999999996
 40
0.8749999999999996
 40
0.8749999999999996
 40
0.9062499999999997
 40
0.9062499999999997
 40
0.9374999999999998
 40
0.9374999999999998
 40
0.9687499999999999
 40
0.9687499999999999
 40
1.0
 40
1.0
 40
1.03125
 40
1.03125
 10
115.2134161114018
 20
138.0653555941292
 30
0.0
 10
114.6843254340815
 20
138.0653555941292
 30
0.0
 10
114.4242547667044
 20
138.0812560345439
 30
0.0
 10
113.912680086869
 20
138.1432003847182
 30
0.0
 10
113.6585048031288
 20
138.1900026188095
 30
0.0
 10
113.1742341730671
 20
138.3109796022646
 30
0.0
 10
112.9445930811859
 20
138.3845819300714
 30
0.0
 10
112.5099887329524
 20
138.5564062010495
 30
0.0
 10
112.3044229563058
 20
138.655409623977
 30
0.0
 10
111.9358658157106
 20
138.8685060378898
 30
0.0
 10
111.7703848329751
 20
138.9834057540195
 30
0.0
 10
111.47796032354
 20
139.2287726527097
 30
0.0
 10
111.3538593469135
 20
139.35721255318
 30
0.0
 10
111.1542801501638
 20
139.618104701266
 30
0.0
 10
111.0773465643055
 20
139.7524858726054
 30
0.0
 10
110.9744895057851
 20
140.0218058237117
 30
0.0
 10
110.949016596326
 20
140.1544870879299
 30
0.0
 10
110.9487261857582
 20
140.4156735620609
 30
0.0
 10
110.974750819534
 20
140.5454386002257
 30
0.0
 10
111.076899104026
 20
140.7910212344983
 30
0.0
 10
111.1524755516091
 20
140.9076827718072
 30
0.0
 10
111.3529730827541
 20
141.1295879619617
 30
0.0
 10
111.4781019242624
 20
141.2341992158847
 30
0.0
 10
111.767460725284
 20
141.4242456274928
 30
0.0
 10
111.9328717123395
 20
141.5110052989425
 30
0.0
 10
112.3058622704873
 20
141.668509674694
 30
0.0
 10
112.5075953035764
 20
141.7368349394812
 30
0.0
 10
112.9404545544043
 20
141.8550646631004
 30
0.0
 10
113.1743730872937
 20
141.9053595792043
 30
0.0
 10
113.6585568224363
 20
141.9852251160939
 30
0.0
 10
113.9078724483918
 20
142.0149662438935
 30
0.0
 10
114.4209049728195
 20
142.0551189854017
 30
0.0
 10
114.6861987957241
 20
142.0653172548116
 30
0.0
 10
115.2085334155939
 20
142.0653937131963
 30
0.0
 10
115.4682870780756
 20
142.0556027015873
 30
0.0
 10
115.9848988937209
 20
142.0155358628485
 30
0.0
 10
116.2372649342211
 20
141.9854386959917
 30
0.0
 10
116.718790055754
 20
141.9062164861615
 30
0.0
 10
116.9516407878675
 20
141.8564590066981
 30
0.0
 10
117.3887306363063
 20
141.7373670642477
 30
0.0
 10
117.5900516249635
 20
141.6690518027005
 30
0.0
 10
117.9591376502634
 20
141.5136508357669
 30
0.0
 10
118.1281224013151
 20
141.4254984937
 30
0.0
 10
118.4185784579743
 20
141.2350591045837
 30
0.0
 10
118.5416502693364
 20
141.1324345268846
 30
0.0
 10
118.7429865107584
 20
140.9107941802765
 30
0.0
 10
118.8201990567007
 20
140.792040104729
 30
0.0
 10
118.9224025996007
 20
140.5473741658113
 30
0.0
 10
118.9486309510531
 20
140.4202174403628
 30
0.0
 10
118.9491073503702
 20
140.1557692945072
 30
0.0
 10
118.9233649378722
 20
140.0228686142501
 30
0.0
 10
118.8220541615083
 20
139.756076340768
 30
0.0
 10
118.7452215221174
 20
139.6207124392994
 30
0.0
 10
118.5448176829022
 20
139.3581326439968
 30
0.0
 10
118.4221461846102
 20
139.2311574842431
 30
0.0
 10
118.1321988954459
 20
138.9870780981607
 30
0.0
 10
117.9636279160807
 20
138.8696529734068
 30
0.0
 10
117.5953583219676
 20
138.6564565124584
 30
0.0
 10
117.3942964646972
 20
138.5592823940335
 30
0.0
 10
116.9572655461123
 20
138.3859275068193
 30
0.0
 10
116.7251173329827
 20
138.3115279551626
 30
0.0
 10
116.2441070514838
 20
138.191075075658
 30
0.0
 10
115.9920069686534
 20
138.144216700392
 30
0.0
 10
115.4749374823944
 20
138.0812592034083
 30
0.0
 10
115.2134161114018
 20
138.0653555941292
 30
0.0
 10
114.6843254340815
 20
138.0653555941292
 30
0.0
  0
LINE
  5
88
330
1F
100
AcDbEntity
  8
0
  6
Continuous
 62
     7
370
    15
100
AcDbLine
 10
123.0388707727
 20
85.5085550403
 30
0.0
 11
123.0388707727
 21
132.8563921993
 31
0.0
  0
SPLINE
  5
89
330
1F
100
AcDbEntity
  8
0
  6
Continuous
 62
     7
370
    15
100
AcDbSpline
210
0.0
220
0.0
230
1.0
 70
     8
 71
     3
 72
     8
 73
     4
 74
     0
 42
0.00000001
 43
0.00000001
 12
1.0
 22
0.0
 32
0.0
 13
1.0
 23
0.0
 33
0.0
 40
0.0
 40
0.0
 40
0.0
 40
0.0
 40
1.0
 40
1.0
 40
1.0
 40
1.0
 10
123.0388707727416
 20
85.50855504029512
 30
0.0
 10
122.5465316499605
 20
84.61128500608842
 30
0.0
 10
122.0524176019183
 20
83.71500059103617
 30
0.0
 10
121.5569379412526
 20
82.81947450310281
 30
0.0
  0
SPLINE
  5
8A
330
1F
100
AcDbEntity
  8
0
  6
Continuous
 62
     7
370
    15
100
AcDbSpline
210
0.0
220
0.0
230
1.0
 70
    24
 71
     3
 72
     8
 73
     4
 74
     0
 42
0.00000001
 43
0.00000001
 12
1.0
 22
0.0
 32
0.0
 13
1.0
 23
0.0
 33
0.0
 40
0.0
 40
0.0
 40
0.0
 40
0.0
 40
1.0
 40
1.0
 40
1.0
 40
1.0
 10
121.5569379412526
 20
132.85639219935
 30
0.0
 10
122.0636180494031
 20
132.85639219935
 30
0.0
 10
122.5589187783767
 20
132.85639219935
 30
0.0
 10
123.0388707727416
 20
132.85639219935
 30
0.0
  0
SPLINE
  5
8B
330
1F
100
AcDbEntity
  8
0
  6
Continuous
 62
     7
370
    15
100
AcDbSpline
210
0.0
220
0.0
230
1.0
 70
     8
 71
     3
 72
     8
 73
     4
 74
     0
 42
0.00000001
 43
0.00000001
 12
1.0
 22
0.0
 32
0.0
 13
1.0
 23
0.0
 33
0.0
 40
0.0
 40
0.0
 40
0.0
 40
0.0
 40
1.0
 40
1.0
 40
1.0
 40
1.0
 10
128.3408036042307
 20
82.81947450310281
 30
0.0
 10
127.845323943565
 20
83.71500059103617
 30
0.0
 10
127.3512098955228
 20
84.61128500608842
 30
0.0
 10
126.8588707727416
 20
85.50855504029512
 30
0.0
  0
LINE
  5
8C
330
1F
100
AcDbEntity
  8
0
  6
Continuous
 62
     7
370
    15
100
AcDbLine
 10
126.8588707727
 20
85.5085550403
 30
0.0
 11
126.8588707727
 21
132.8563921993
 31
0.0
  0
SPLINE
  5
8D
330
1F
100
AcDbEntity
  8
0
  6
Continuous
 62
     7
370
    15
100
AcDbSpline
210
0.0
220
0.0
230
1.0
 70
    24
 71
     3
 72
     8
 73
     4
 74
     0
 42
0.00000001
 43
0.00000001
 12
1.0
 22
0.0
 32
0.0
 13
1.0
 23
0.0
 33
0.0
 40
0.0
 40
0.0
 40
0.0
 40
0.0
 40
1.0
 40
1.0
 40
1.0
 40
1.0
 10
126.8588707727416
 20
132.85639219935
 30
0.0
 10
127.3388227671065
 20
132.85639219935
 30
0.0
 10
127.8341234960801
 20
132.85639219935
 30
0.0
 10
128.3408036042307
 20
132.85639219935
 30
0.0
  0
LINE
  5
8E
330
1F
100
AcDbEntity
  8
0
  6
Continuous
 62
     7
370
    15
100
AcDbLine
 10
106.9488707727
 20
81.8063921993
 30
0.0
 11
106.9488707727
 21
144.2063921959
 31
0.0
  0
ARC
  5
8F
330
1F
100
AcDbEntity
  8
0
  6
Continuous
 62
     7
370
    15
100
AcDbCircle
 10
114.9458656285
 20
124.9046232766
 30
0.0
 40
4.115011572779889
100
AcDbArc
 50
19.3349591234
 51
159.3357509812
  0
SPLINE
  5
90
330
1F
100
AcDbEntity
  8
0
  6
Continuous
 62
     7
370
    15
100
AcDbSpline
210
0.0
220
0.0
230
1.0
 70
     8
 71
     3
 72
    10
 73
     6
 74
     0
 42
0.00000001
 43
0.00000001
 12
1.0
 22
0.0
 32
0.0
 13
1.0
 23
0.0
 33
0.0
 40
0.0
 40
0.0
 40
0.0
 40
0.0
 40
0.5
 40
0.5
 40
1.0
 40
1.0
 40
1.0
 40
1.0
 10
123.4331683044326
 20
139.40639219935
 30
0.0
 10
123.3116280407641
 20
139.4811183665617
 30
0.0
 10
123.2102936804151
 20
139.5900633824785
 30
0.0
 10
123.0746547375267
 20
139.8404938632401
 30
0.0
 10
123.0388707727416
 20
139.9829132253391
 30
0.0
 10
123.0388707727416
 20
140.1260460503858
 30
0.0
  0
SPLINE
  5
91
330
1F
100
AcDbEntity
  8
0
  6
Continuous
 62
     7
370
    15
100
AcDbSpline
210
0.0
220
0.0
230
1.0
 70
    24
 71
     3
 72
    12
 73
     8
 74
     0
 42
0.00000001
 43
0.00000001
 12
1.0
 22
0.0
 32
0.0
 13
1.0
 23
0.0
 33
0.0
 40
0.0
 40
0.0
 40
0.0
 40
0.0
 40
0.2499999999999971
 40
0.2499999999999971
 40
0.4999999999999942
 40
0.4999999999999942
 40
1.0
 40
1.0
 40
1.0
 40
1.0
 10
123.8388707727416
 20
139.40639219935
 30
0.0
 10
123.7889940904242
 20
139.40639219935
 30
0.0
 10
123.7409908970206
 20
139.40639219935
 30
0.0
 10
123.6579427943086
 20
139.40639219935
 30
0.0
 10
123.6218132148408
 20
139.40639219935
 30
0.0
 10
123.5259011838966
 20
139.40639219935
 30
0.0
 10
123.4761425159278
 20
139.40639219935
 30
0.0
 10
123.4331683044326
 20
139.40639219935
 30
0.0
  0
SPLINE
  5
92
330
1F
100
AcDbEntity
  8
0
  6
Continuous
 62
     7
370
    15
100
AcDbSpline
210
0.0
220
0.0
230
1.0
 70
    24
 71
     3
 72
    14
 73
    10
 74
     0
 42
0.00000001
 43
0.00000001
 12
1.0
 22
0.0
 32
0.0
 13
1.0
 23
0.0
 33
0.0
 40
0.0
 40
0.0
 40
0.0
 40
0.0
 40
0.1250000000000017
 40
0.1250000000000017
 40
0.2500000000000034
 40
0.2500000000000034
 40
0.5000000000000032
 40
0.5000000000000032
 40
1.0
 40
1.0
 40
1.0
 40
1.0
 10
123.8388707727416
 20
86.60639219934998
 30
0.0
 10
123.7704329248552
 20
86.60639219934998
 30
0.0
 10
123.7048828860901
 20
86.60639219934998
 30
0.0
 10
123.6004562466822
 20
86.60639219934998
 30
0.0
 10
123.5579116369208
 20
86.60639219934998
 30
0.0
 10
123.4453021763805
 20
86.60639219934998
 30
0.0
 10
123.389763129361
 20
86.60639219934997
 30
0.0
 10
123.2471514338972
 20
86.60639219934998
 30
0.0
 10
123.1837460789015
 20
86.60639219934998
 30
0.0
 10
123.1365455750739
 20
86.60639219934998
 30
0.0
  0
SPLINE
  5
93
330
1F
100
AcDbEntity
  8
0
  6
Continuous
 62
     7
370
    15
100
AcDbSpline
210
0.0
220
0.0
230
1.0
 70
     8
 71
     3
 72
    10
 73
     6
 74
     0
 42
0.00000001
 43
0.00000001
 12
1.0
 22
0.0
 32
0.0
 13
1.0
 23
0.0
 33
0.0
 40
0.0
 40
0.0
 40
0.0
 40
0.0
 40
0.5
 40
0.5
 40
1.0
 40
1.0
 40
1.0
 40
1.0
 10
123.0388707727416
 20
133.1422588308114
 30
0.0
 10
123.0388707727416
 20
133.0944873228181
 30
0.0
 10
123.0410320163388
 20
133.0467776007564
 30
0.0
 10
123.049703390199
 20
132.9514824832081
 30
0.0
 10
123.0562325731549
 20
132.9037899192415
 30
0.0
 10
123.0650183959018
 20
132.85639219935
 30
0.0
  0
SPLINE
  5
94
330
1F
100
AcDbEntity
  8
0
  6
Continuous
 62
     7
370
    15
100
AcDbSpline
210
0.0
220
0.0
230
1.0
 70
    24
 71
     3
 72
    14
 73
    10
 74
     0
 42
0.00000001
 43
0.00000001
 12
1.0
 22
0.0
 32
0.0
 13
1.0
 23
0.0
 33
0.0
 40
0.0
 40
0.0
 40
0.0
 40
0.0
 40
0.5
 40
0.5
 40
0.75
 40
0.75
 40
0.875
 40
0.875
 40
1.0
 40
1.0
 40
1.0
 40
1.0
 10
126.7611959704094
 20
86.60639219934998
 30
0.0
 10
126.7144112653611
 20
86.60639219934998
 30
0.0
 10
126.6523600685815
 20
86.60639219934998
 30
0.0
 10
126.5089684300309
 20
86.60639219934997
 30
0.0
 10
126.4528247764798
 20
86.60639219934998
 30
0.0
 10
126.3398737543436
 20
86.60639219934997
 30
0.0
 10
126.2968729923054
 20
86.60639219934998
 30
0.0
 10
126.192810281999
 20
86.60639219934997
 30
0.0
 10
126.127478043642
 20
86.60639219934997
 30
0.0
 10
126.0588707727416
 20
86.60639219934998
 30
0.0
  0
SPLINE
  5
95
330
1F
100
AcDbEntity
  8
0
  6
Continuous
 62
     7
370
    15
100
AcDbSpline
210
0.0
220
0.0
230
1.0
 70
    24
 71
     3
 72
    12
 73
     8
 74
     0
 42
0.00000001
 43
0.00000001
 12
1.0
 22
0.0
 32
0.0
 13
1.0
 23
0.0
 33
0.0
 40
0.0
 40
0.0
 40
0.0
 40
0.0
 40
0.5000000000000074
 40
0.5000000000000074
 40
0.7500000000000037
 40
0.7500000000000037
 40
1.0
 40
1.0
 40
1.0
 40
1.0
 10
126.4645732410506
 20
139.40639219935
 30
0.0
 10
126.4214876914397
 20
139.40639219935
 30
0.0
 10
126.3723354896904
 20
139.40639219935
 30
0.0
 10
126.2758628954025
 20
139.40639219935
 30
0.0
 10
126.2397613102679
 20
139.40639219935
 30
0.0
 10
126.1566555524066
 20
139.40639219935
 30
0.0
 10
126.1086589554404
 20
139.40639219935
 30
0.0
 10
126.0588707727416
 20
139.40639219935
 30
0.0
  0
SPLINE
  5
96
330
1F
100
AcDbEntity
  8
0
  6
Continuous
 62
     7
370
    15
100
AcDbSpline
210
0.0
220
0.0
230
1.0
 70
     8
 71
     3
 72
    10
 73
     6
 74
     0
 42
0.00000001
 43
0.00000001
 12
1.0
 22
0.0
 32
0.0
 13
1.0
 23
0.0
 33
0.0
 40
0.0
 40
0.0
 40
0.0
 40
0.0
 40
0.5
 40
0.5
 40
1.0
 40
1.0
 40
1.0
 40
1.0
 10
126.8588707727416
 20
140.1260460503858
 30
0.0
 10
126.8588707727416
 20
139.9822759925677
 30
0.0
 10
126.8228217140228
 20
139.8398566300726
 30
0.0
 10
126.6873128532487
 20
139.5899623367154
 30
0.0
 10
126.5874368601526
 20
139.4819320004672
 30
0.0
 10
126.4645732410506
 20
139.4063921993499
 30
0.0
  0
SPLINE
  5
97
330
1F
100
AcDbEntity
  8
0
  6
Continuous
 62
     7
370
    15
100
AcDbSpline
210
0.0
220
0.0
230
1.0
 70
     8
 71
     3
 72
    10
 73
     6
 74
     0
 42
0.00000001
 43
0.00000001
 12
1.0
 22
0.0
 32
0.0
 13
1.0
 23
0.0
 33
0.0
 40
0.0
 40
0.0
 40
0.0
 40
0.0
 40
0.5
 40
0.5
 40
1.0
 40
1.0
 40
1.0
 40
1.0
 10
126.8327231495815
 20
132.85639219935
 30
0.0
 10
126.8414127924932
 20
132.9032710486682
 30
0.0
 10
126.8479518572437
 20
132.9506935140695
 30
0.0
 10
126.8567104916367
 20
133.0466303126562
 30
0.0
 10
126.8588707727416
 20
133.0945456006668
 30
0.0
 10
126.8588707727416
 20
133.1422588308114
 30
0.0
  0
LINE
  5
98
330
1F
100
AcDbEntity
  8
0
  6
Continuous
 62
     7
370
    15
100
AcDbLine
 10
126.0588707727
 20
139.4063921993
 30
0.0
 11
123.8388707727
 21
139.4063921993
 31
0.0
  0
LINE
  5
99
330
1F
100
AcDbEntity
  8
0
  6
Continuous
 62
     7
370
    15
100
AcDbLine
 10
126.0588707727
 20
86.6063921993
 30
0.0
 11
123.8388707727
 21
86.6063921993
 31
0.0
  0
LINE
  5
9A
330
1F
100
AcDbEntity
  8
0
  6
Continuous
 62
     7
370
    15
100
AcDbLine
 10
104.9488707727
 20
88.7859613376
 30
0.0
 11
104.9488707727
 21
137.2268230611
 31
0.0
  0
LINE
  5
9B
330
1F
100
AcDbEntity
  8
0
  6
Continuous
 62
     7
370
    15
100
AcDbLine
 10
85.1488707727
 20
89.7779453056
 30
0.0
 11
85.1488707727
 21
91.0426546682
 31
0.0
  0
SPLINE
  5
9C
330
1F
100
AcDbEntity
  8
0
  6
Continuous
 62
     7
370
    15
100
AcDbSpline
210
0.0
220
0.0
230
1.0
 70
     8
 71
     3
 72
    14
 73
    10
 74
     0
 42
0.00000001
 43
0.00000001
 12
1.0
 22
0.0
 32
0.0
 13
1.0
 23
0.0
 33
0.0
 40
0.0
 40
0.0
 40
0.0
 40
0.0
 40
0.25
 40
0.25
 40
0.5
 40
0.5
 40
0.75
 40
0.75
 40
1.0
 40
1.0
 40
1.0
 40
1.0
 10
84.37058365482592
 20
92.17324087579003
 30
0.0
 10
84.42721033002799
 20
92.06554342195317
 30
0.0
 10
84.52173299031772
 20
91.96275384023384
 30
0.0
 10
84.70477796587996
 20
91.7643965280137
 30
0.0
 10
84.79640454283468
 20
91.66833701933545
 30
0.0
 10
84.95525786052788
 20
91.48080797662621
 30
0.0
 10
85.02314846814957
 20
91.38939900384266
 30
0.0
 10
85.12006549385715
 20
91.2110227829325
 30
0.0
 10
85.14887077274221
 20
91.12380087668633
 30
0.0
 10
85.1488707727422
 20
91.04265466815207
 30
0.0
  0
SPLINE
  5
9D
330
1F
100
AcDbEntity
  8
0
  6
Continuous
 62
     7
370
    15
100
AcDbSpline
210
0.0
220
0.0
230
1.0
 70
     8
 71
     3
 72
    14
 73
    10
 74
     0
 42
0.00000001
 43
0.00000001
 12
1.0
 22
0.0
 32
0.0
 13
1.0
 23
0.0
 33
0.0
 40
0.0
 40
0.0
 40
0.0
 40
0.0
 40
0.125
 40
0.125
 40
0.25
 40
0.25
 40
0.5
 40
0.5
 40
1.0
 40
1.0
 40
1.0
 40
1.0
 10
83.74887077274164
 20
92.61992273806935
 30
0.0
 10
83.7974151813988
 20
92.62567105134964
 30
0.0
 10
83.8503305361837
 20
92.6225701626934
 30
0.0
 10
83.94562588116675
 20
92.60037531853108
 30
0.0
 10
83.9858768784517
 20
92.58314309143522
 30
0.0
 10
84.09014689196466
 20
92.52681517498316
 30
0.0
 10
84.140468867118
 20
92.48262882903735
 30
0.0
 10
84.26815181464336
 20
92.35162093018673
 30
0.0
 10
84.32423726170563
 20
92.26138640995643
 30
0.0
 10
84.37058365482739
 20
92.17324087579055
 30
0.0
  0
SPLINE
  5
9E
330
1F
100
AcDbEntity
  8
0
  6
Continuous
 62
     7
370
    15
100
AcDbSpline
210
0.0
220
0.0
230
1.0
 70
     8
 71
     3
 72
     8
 73
     4
 74
     0
 42
0.00000001
 43
0.00000001
 12
1.0
 22
0.0
 32
0.0
 13
1.0
 23
0.0
 33
0.0
 40
0.0
 40
0.0
 40
0.0
 40
0.0
 40
1.0
 40
1.0
 40
1.0
 40
1.0
 10
81.48034567979536
 20
92.31007745148655
 30
0.0
 10
82.21492270627834
 20
92.4287024625555
 30
0.0
 10
82.97839777567401
 20
92.5286883346918
 30
0.0
 10
83.74887077274164
 20
92.61992273806935
 30
0.0
  0
SPLINE
  5
9F
330
1F
100
AcDbEntity
  8
0
  6
Continuous
 62
     7
370
    15
100
AcDbSpline
210
0.0
220
0.0
230
1.0
 70
     8
 71
     3
 72
    14
 73
    10
 74
     0
 42
0.00000001
 43
0.00000001
 12
1.0
 22
0.0
 32
0.0
 13
1.0
 23
0.0
 33
0.0
 40
0.0
 40
0.0
 40
0.0
 40
0.0
 40
0.5000000000000002
 40
0.5000000000000002
 40
0.7500000000000002
 40
0.7500000000000002
 40
0.8750000000000001
 40
0.8750000000000001
 40
1.0
 40
1.0
 40
1.0
 40
1.0
 10
76.19887077274164
 20
92.13645443395491
 30
0.0
 10
77.0910169032952
 20
92.13573220775426
 30
0.0
 10
77.98099333908878
 20
92.14031841421172
 30
0.0
 10
79.30758850616438
 20
92.16804341860326
 30
0.0
 10
79.74843543466311
 20
92.18064995622743
 30
0.0
 10
80.40487567208552
 20
92.21166610423487
 30
0.0
 10
80.6228893286774
 20
92.22400927686165
 30
0.0
 10
81.05559818236016
 20
92.25703333202492
 30
0.0
 10
81.27087464752498
 20
92.27625049716337
 30
0.0
 10
81.48034567979536
 20
92.31007745148655
 30
0.0
  0
SPLINE
  5
A0
330
1F
100
AcDbEntity
  8
0
  6
Continuous
 62
     7
370
    15
100
AcDbSpline
210
0.0
220
0.0
230
1.0
 70
     8
 71
     3
 72
     8
 73
     4
 74
     0
 42
0.00000001
 43
0.00000001
 12
1.0
 22
0.0
 32
0.0
 13
1.0
 23
0.0
 33
0.0
 40
0.0000005163856712
 40
0.0000005163856712
 40
0.0000005163856712
 40
0.0000005163856712
 40
0.000026289209185
 40
0.000026289209185
 40
0.000026289209185
 40
0.000026289209185
 10
76.18882584232296
 20
92.14643830706278
 30
0.0
 10
76.19215358053442
 20
92.14310406018996
 30
0.0
 10
76.19550203351372
 20
92.13977610291094
 30
0.0
 10
76.19887077274161
 20
92.1364544339549
 30
0.0
  0
SPLINE
  5
A1
330
1F
100
AcDbEntity
  8
0
  6
Continuous
 62
     7
370
    15
100
AcDbSpline
210
0.0
220
0.0
230
1.0
 70
     8
 71
     3
 72
     8
 73
     4
 74
     0
 42
0.00000001
 43
0.00000001
 12
1.0
 22
0.0
 32
0.0
 13
1.0
 23
0.0
 33
0.0
 40
0.0000005099763573
 40
0.0000005099763573
 40
0.0000005099763573
 40
0.0000005099763573
 40
0.0000262827998699
 40
0.0000262827998699
 40
0.0000262827998699
 40
0.0000262827998699
 10
76.19887077274163
 20
133.8763299647451
 30
0.0
 10
76.19550203351389
 20
133.8730082957892
 30
0.0
 10
76.19215358053475
 20
133.8696803385103
 30
0.0
 10
76.18882584232342
 20
133.8663460916376
 30
0.0
  0
SPLINE
  5
A2
330
1F
100
AcDbEntity
  8
0
  6
Continuous
 62
     7
370
    15
100
AcDbSpline
210
0.0
220
0.0
230
1.0
 70
     8
 71
     3
 72
    10
 73
     6
 74
     0
 42
0.00000001
 43
0.00000001
 12
1.0
 22
0.0
 32
0.0
 13
1.0
 23
0.0
 33
0.0
 40
0.0
 40
0.0
 40
0.0
 40
0.0
 40
0.5
 40
0.5
 40
1.0
 40
1.0
 40
1.0
 40
1.0
 10
79.74887077274165
 20
133.8294795911777
 30
0.0
 10
79.16128522565106
 20
133.8505451114141
 30
0.0
 10
78.57053883219066
 20
133.8613035972863
 30
0.0
 10
77.3865196668918
 20
133.874668377822
 30
0.0
 10
76.79310567868635
 20
133.8768110204866
 30
0.0
 10
76.19887077274164
 20
133.8763299647451
 30
0.0
  0
SPLINE
  5
A3
330
1F
100
AcDbEntity
  8
0
  6
Continuous
 62
     7
370
    15
100
AcDbSpline
210
0.0
220
0.0
230
1.0
 70
     8
 71
     3
 72
    18
 73
    14
 74
     0
 42
0.00000001
 43
0.00000001
 12
1.0
 22
0.0
 32
0.0
 13
1.0
 23
0.0
 33
0.0
 40
0.0
 40
0.0
 40
0.0
 40
0.0
 40
0.2500000000000008
 40
0.2500000000000008
 40
0.5000000000000009
 40
0.5000000000000009
 40
0.7500000000000009
 40
0.7500000000000009
 40
0.875000000000001
 40
0.875000000000001
 40
0.9375000000000006
 40
0.9375000000000006
 40
1.0
 40
1.0
 40
1.0
 40
1.0
 10
81.14887077274165
 20
134.850499871713
 30
0.0
 10
81.14887077274166
 20
134.7672929628558
 30
0.0
 10
81.11302167280338
 20
134.6785563075422
 30
0.0
 10
80.98814993676946
 20
134.496431116982
 30
0.0
 10
80.8977495191216
 20
134.4013010683553
 30
0.0
 10
80.67550686437941
 20
134.212119559231
 30
0.0
 10
80.54574207793364
 20
134.1171743911363
 30
0.0
 10
80.30510462062215
 20
133.9788956835564
 30
0.0
 10
80.21733732248471
 20
133.933185250254
 30
0.0
 10
80.06281323527786
 20
133.8753619450325
 30
0.0
 10
80.00620234922312
 20
133.8576471809947
 30
0.0
 10
79.88215831831653
 20
133.8331078777617
 30
0.0
 10
79.81444364329823
 20
133.8271287392234
 30
0.0
 10
79.74887077274164
 20
133.8294795911777
 30
0.0
  0
LINE
  5
A4
330
1F
100
AcDbEntity
  8
0
  6
Continuous
 62
     7
370
    15
100
AcDbLine
 10
81.1488707727
 20
134.8504998717
 30
0.0
 11
81.1488707727
 21
136.0344382915
 31
0.0
  0
SPLINE
  5
A5
330
1F
100
AcDbEntity
  8
0
  6
Continuous
 62
     7
370
    15
100
AcDbSpline
210
0.0
220
0.0
230
1.0
 70
     8
 71
     3
 72
    18
 73
    14
 74
     0
 42
0.00000001
 43
0.00000001
 12
1.0
 22
0.0
 32
0.0
 13
1.0
 23
0.0
 33
0.0
 40
0.0
 40
0.0
 40
0.0
 40
0.0
 40
0.0010671296451824
 40
0.127094779573163
 40
0.2524053457512755
 40
0.3766468878987078
 40
0.4391415999051341
 40
0.5008278021400385
 40
0.5624255708809358
 40
0.6253162439161155
 40
0.7499985144706713
 40
0.8752758950341255
 40
0.9999999999999999
 40
0.9999999999999999
 40
0.9999999999999999
 40
0.9999999999999999
 10
93.71917161281432
 20
89.34905317643363
 30
0.0
 10
93.71825978017581
 20
89.348938397897
 30
0.0
 10
93.60966082153877
 20
89.3352683130307
 30
0.0
 10
93.99730188918876
 20
89.38618781364686
 30
0.0
 10
94.86326657102381
 20
89.48577098669311
 30
0.0
 10
96.06367049579364
 20
89.55489486983684
 30
0.0
 10
97.12124641028238
 20
89.55884709897568
 30
0.0
 10
97.94838049718891
 20
89.5313581605206
 30
0.0
 10
98.7736523648233
 20
89.47281798411288
 30
0.0
 10
99.82801758482302
 20
89.35929682437718
 30
0.0
 10
100.9898538662981
 20
89.17614600012865
 30
0.0
 10
101.9420886476817
 20
88.97154279049371
 30
0.0
 10
102.0677937084895
 20
88.94225743971765
 30
0.0
 10
102.1305071406348
 20
88.92764716987696
 30
0.0
  0
SPLINE
  5
A6
330
1F
100
AcDbEntity
  8
0
  6
Continuous
 62
     7
370
    15
100
AcDbSpline
210
0.0
220
0.0
230
1.0
 70
     8
 71
     3
 72
    18
 73
    14
 74
     0
 42
0.00000001
 43
0.00000001
 12
1.0
 22
0.0
 32
0.0
 13
1.0
 23
0.0
 33
0.0
 40
0.0
 40
0.0
 40
0.0
 40
0.0
 40
0.1248907792210138
 40
0.2505384020341688
 40
0.3748721840485263
 40
0.4374907653349633
 40
0.4990776265894304
 40
0.5607931536354568
 40
0.6233901338664956
 40
0.7478191038417366
 40
0.8731940995934963
 40
0.9991614644710076
 40
0.9999999999999999
 40
0.9999999999999999
 40
0.9999999999999999
 40
0.9999999999999999
 10
102.1302883751109
 20
137.0850720482686
 30
0.0
 10
102.0665476223992
 20
137.0704107556706
 30
0.0
 10
101.9386798452227
 20
137.0409993223991
 30
0.0
 10
100.9866806241623
 20
136.8360462183366
 30
0.0
 10
99.82613691895898
 20
136.6527824425257
 30
0.0
 10
98.77387246687107
 20
136.5397548502767
 30
0.0
 10
97.9496453518029
 20
136.4814912027354
 30
0.0
 10
97.12204158228244
 20
136.4540448147312
 30
0.0
 10
96.06322438979745
 20
136.4580296206605
 30
0.0
 10
94.86100569176284
 20
136.5271190970417
 30
0.0
 10
93.99582175207566
 20
136.6267453135985
 30
0.0
 10
93.60968133054506
 20
136.6775613871988
 30
0.0
 10
93.7177528713257
 20
136.6638892071358
 30
0.0
 10
93.71846752124598
 20
136.6637987964475
 30
0.0
  0
SPLINE
  5
A7
330
1F
100
AcDbEntity
  8
0
  6
Continuous
 62
     7
370
    15
100
AcDbSpline
210
0.0
220
0.0
230
1.0
 70
     8
 71
     3
 72
     9
 73
     5
 74
     0
 42
0.00000001
 43
0.00000001
 12
1.0
 22
0.0
 32
0.0
 13
1.0
 23
0.0
 33
0.0
 40
0.0
 40
0.0
 40
0.0
 40
0.0
 40
0.7009329310330151
 40
1.0
 40
1.0
 40
1.0
 40
1.0
 10
75.06965545697709
 20
93.30511189524736
 30
0.0
 10
75.07879473365236
 20
93.28728260970584
 30
0.0
 10
75.09183346570597
 20
93.26184610251356
 30
0.0
 10
75.10699871947129
 20
93.31572596270534
 30
0.0
 10
75.11153414746502
 20
93.33183965456927
 30
0.0
  0
LINE
  5
A8
330
1F
100
AcDbEntity
  8
0
  6
Continuous
 62
     7
370
    15
100
AcDbLine
 10
75.0488707727
 20
93.3157144529
 30
0.0
 11
75.0488707727
 21
132.6970699458
 31
0.0
  0
SPLINE
  5
A9
330
1F
100
AcDbEntity
  8
0
  6
Continuous
 62
     7
370
    15
100
AcDbSpline
210
0.0
220
0.0
230
1.0
 70
     8
 71
     3
 72
    10
 73
     6
 74
     0
 42
0.00000001
 43
0.00000001
 12
1.0
 22
0.0
 32
0.0
 13
1.0
 23
0.0
 33
0.0
 40
0.0
 40
0.0
 40
0.0
 40
0.0
 40
0.5
 40
0.5
 40
1.0
 40
1.0
 40
1.0
 40
1.0
 10
75.11153414746505
 20
132.6809447441307
 30
0.0
 10
75.10262985835628
 20
132.7266862633439
 30
0.0
 10
75.0861144781633
 20
132.7438771028129
 30
0.0
 10
75.05900653210168
 20
132.7435538258772
 30
0.0
 10
75.04887077274164
 20
132.7256762835807
 30
0.0
 10
75.04887077274164
 20
132.6970699458281
 30
0.0
  0
SPLINE
  5
AA
330
1F
100
AcDbEntity
  8
0
  6
Continuous
 62
     7
370
    15
100
AcDbSpline
210
0.0
220
0.0
230
1.0
 70
     8
 71
     3
 72
    26
 73
    22
 74
     0
 42
0.00000001
 43
0.00000001
 12
1.0
 22
0.0
 32
0.0
 13
1.0
 23
0.0
 33
0.0
 40
0.0
 40
0.0
 40
0.0
 40
0.0
 40
0.2500000000000165
 40
0.2500000000000165
 40
0.3750000000000256
 40
0.3750000000000256
 40
0.4375000000000291
 40
0.4375000000000291
 40
0.4687500000000291
 40
0.4687500000000291
 40
0.5000000000000292
 40
0.5000000000000292
 40
0.5312500000000293
 40
0.5312500000000293
 40
0.5625000000000293
 40
0.5625000000000293
 40
0.625000000000026
 40
0.625000000000026
 40
0.7500000000000173
 40
0.7500000000000173
 40
1.0
 40
1.0
 40
1.0
 40
1.0
 10
75.87302441884614
 20
133.3965115329478
 30
0.0
 10
75.83442389597768
 20
133.2787368365924
 30
0.0
 10
75.78812689342341
 20
133.1543471504305
 30
0.0
 10
75.69418754498949
 20
132.949127818077
 30
0.0
 10
75.65887607807603
 20
132.8775549516305
 30
0.0
 10
75.59269610233035
 20
132.7616017190301
 30
0.0
 10
75.56815773566214
 20
132.7210171842198
 30
0.0
 10
75.52478499010834
 20
132.6568755023481
 30
0.0
 10
75.50927658868315
 20
132.635009077063
 30
0.0
 10
75.47423394409611
 20
132.5894148087198
 30
0.0
 10
75.45468365337635
 20
132.5657445177524
 30
0.0
 10
75.41275637300573
 20
132.5211279584125
 30
0.0
 10
75.39010426277409
 20
132.5002479458946
 30
0.0
 10
75.34913054868747
 20
132.4693745321437
 30
0.0
 10
75.33153124879205
 20
132.4595356623113
 30
0.0
 10
75.28690426293589
 20
132.4405460466152
 30
0.0
 10
75.26634504028257
 20
132.4402217219617
 30
0.0
 10
75.21521960078589
 20
132.4494451628379
 30
0.0
 10
75.19430818779735
 20
132.4706920590549
 30
0.0
 10
75.14285828023642
 20
132.5446609378857
 30
0.0
 10
75.12519298093187
 20
132.6107790312005
 30
0.0
 10
75.11153414746505
 20
132.6809447441307
 30
0.0
  0
SPLINE
  5
AB
330
1F
100
AcDbEntity
  8
0
  6
Continuous
 62
     7
370
    15
100
AcDbSpline
210
0.0
220
0.0
230
1.0
 70
     8
 71
     3
 72
    10
 73
     6
 74
     0
 42
0.00000001
 43
0.00000001
 12
1.0
 22
0.0
 32
0.0
 13
1.0
 23
0.0
 33
0.0
 40
0.0
 40
0.0
 40
0.0
 40
0.0
 40
0.5
 40
0.5
 40
1.0
 40
1.0
 40
1.0
 40
1.0
 10
76.18882584232345
 20
133.8663460916376
 30
0.0
 10
76.1212665874052
 20
133.7986546988279
 30
0.0
 10
76.0576299320687
 20
133.7239475340742
 30
0.0
 10
75.94740917749684
 20
133.5649814016476
 30
0.0
 10
75.90059288427422
 20
133.4806261356396
 30
0.0
 10
75.87302441884614
 20
133.3965115329478
 30
0.0
  0
SPLINE
  5
AC
330
1F
100
AcDbEntity
  8
0
  6
Continuous
 62
     7
370
    15
100
AcDbSpline
210
0.0
220
0.0
230
1.0
 70
     8
 71
     3
 72
    10
 73
     6
 74
     0
 42
0.00000001
 43
0.00000001
 12
1.0
 22
0.0
 32
0.0
 13
1.0
 23
0.0
 33
0.0
 40
0.0
 40
0.0
 40
0.0
 40
0.0
 40
0.5
 40
0.5
 40
1.0
 40
1.0
 40
1.0
 40
1.0
 10
75.87302441884619
 20
92.61627286575201
 30
0.0
 10
75.90050183359939
 20
92.53243606928642
 30
0.0
 10
75.94721046388706
 20
92.44812558169959
 30
0.0
 10
76.057488926629
 20
92.28900435121673
 30
0.0
 10
76.12137646524064
 20
92.21401960712865
 30
0.0
 10
76.18882584232297
 20
92.14643830706278
 30
0.0
  0
SPLINE
  5
AD
330
1F
100
AcDbEntity
  8
0
  6
Continuous
 62
     7
370
    15
100
AcDbSpline
210
0.0
220
0.0
230
1.0
 70
     8
 71
     3
 72
    24
 73
    20
 74
     0
 42
0.00000001
 43
0.00000001
 12
1.0
 22
0.0
 32
0.0
 13
1.0
 23
0.0
 33
0.0
 40
0.0
 40
0.0
 40
0.0
 40
0.0
 40
0.2499999999999952
 40
0.2499999999999952
 40
0.3749999999999937
 40
0.3749999999999937
 40
0.4374999999999931
 40
0.4374999999999931
 40
0.468749999999992
 40
0.468749999999992
 40
0.4999999999999909
 40
0.4999999999999909
 40
0.5624999999999933
 40
0.5624999999999933
 40
0.6249999999999958
 40
0.6249999999999958
 40
0.7499999999999981
 40
0.7499999999999981
 40
1.0
 40
1.0
 40
1.0
 40
1.0
 10
75.11153414746505
 20
93.33183965456924
 30
0.0
 10
75.12528726613526
 20
93.40248971255951
 30
0.0
 10
75.14305983354112
 20
93.46908782532445
 30
0.0
 10
75.19531092509649
 20
93.54318584555764
 30
0.0
 10
75.21634600067803
 20
93.5644436527192
 30
0.0
 10
75.26924640830649
 20
93.57258957886545
 30
0.0
 10
75.29035208118438
 20
93.57164977546968
 30
0.0
 10
75.33640424986235
 20
93.55063378389235
 30
0.0
 10
75.35477472184573
 20
93.53972497778473
 30
0.0
 10
75.39632635691144
 20
93.50709006683736
 30
0.0
 10
75.41889302966837
 20
93.485598086466
 30
0.0
 10
75.48167404612839
 20
93.41713214287968
 30
0.0
 10
75.51480380709627
 20
93.3710576846746
 30
0.0
 10
75.5717214935813
 20
93.28604979633992
 30
0.0
 10
75.59590751908506
 20
93.24576949515853
 30
0.0
 10
75.66111546946483
 20
93.1308332686926
 30
0.0
 10
75.69583152965608
 20
93.06025028354559
 30
0.0
 10
75.78904679998696
 20
92.85604452446698
 30
0.0
 10
75.83471933534763
 20
92.7331461421396
 30
0.0
 10
75.87302441884617
 20
92.61627286575202
 30
0.0
  0
SPLINE
  5
AE
330
1F
100
AcDbEntity
  8
0
  6
Continuous
 62
     7
370
    15
100
AcDbSpline
210
0.0
220
0.0
230
1.0
 70
     8
 71
     3
 72
     8
 73
     4
 74
     0
 42
0.00000001
 43
0.00000001
 12
1.0
 22
0.0
 32
0.0
 13
1.0
 23
0.0
 33
0.0
 40
0.0
 40
0.0
 40
0.0
 40
0.0
 40
1.0
 40
1.0
 40
1.0
 40
1.0
 10
123.0388707727416
 20
140.8116263905216
 30
0.0
 10
122.5461606758959
 20
141.699645388648
 30
0.0
 10
122.0520779706169
 20
142.586908024334
 30
0.0
 10
121.5569379412526
 20
143.4735876725142
 30
0.0
  0
SPLINE
  5
AF
330
1F
100
AcDbEntity
  8
0
  6
Continuous
 62
     7
370
    15
100
AcDbSpline
210
0.0
220
0.0
230
1.0
 70
     8
 71
     3
 72
     8
 73
     4
 74
     0
 42
0.00000001
 43
0.00000001
 12
1.0
 22
0.0
 32
0.0
 13
1.0
 23
0.0
 33
0.0
 40
0.0
 40
0.0
 40
0.0
 40
0.0
 40
1.0
 40
1.0
 40
1.0
 40
1.0
 10
121.5569379412526
 20
137.4650818617174
 30
0.0
 10
122.0640247830119
 20
136.3339315075537
 30
0.0
 10
122.5595926221518
 20
135.1975470967859
 30
0.0
 10
123.0388707727416
 20
134.0565358669333
 30
0.0
  0
LINE
  5
B0
330
1F
100
AcDbEntity
  8
0
  6
Continuous
 62
     7
370
    15
100
AcDbLine
 10
123.0388707727
 20
134.0565358669
 30
0.0
 11
123.0388707727
 21
140.8116263905
 31
0.0
  0
SPLINE
  5
B1
330
1F
100
AcDbEntity
  8
0
  6
Continuous
 62
     7
370
    15
100
AcDbSpline
210
0.0
220
0.0
230
1.0
 70
     8
 71
     3
 72
    10
 73
     6
 74
     0
 42
0.00000001
 43
0.00000001
 12
1.0
 22
0.0
 32
0.0
 13
1.0
 23
0.0
 33
0.0
 40
0.0
 40
0.0
 40
0.0
 40
0.0
 40
0.5
 40
0.5
 40
1.0
 40
1.0
 40
1.0
 40
1.0
 10
132.8988707727416
 20
142.8528325231139
 30
0.0
 10
132.8988707727416
 20
143.0132377894647
 30
0.0
 10
132.8366329416348
 20
143.1722996024533
 30
0.0
 10
132.6174980178922
 20
143.4032120680836
 30
0.0
 10
132.4599093229004
 20
143.4735876725142
 30
0.0
 10
132.2988707727416
 20
143.4735876725142
 30
0.0
  0
SPLINE
  5
B2
330
1F
100
AcDbEntity
  8
0
  6
Continuous
 62
     7
370
    15
100
AcDbSpline
210
0.0
220
0.0
230
1.0
 70
     8
 71
     3
 72
    12
 73
     8
 74
     0
 42
0.00000001
 43
0.00000001
 12
1.0
 22
0.0
 32
0.0
 13
1.0
 23
0.0
 33
0.0
 40
0.0
 40
0.0
 40
0.0
 40
0.0
 40
0.25
 40
0.25
 40
0.5
 40
0.5
 40
1.0
 40
1.0
 40
1.0
 40
1.0
 10
132.2988707727416
 20
137.4650818617174
 30
0.0
 10
132.3900704945673
 20
137.4650818617174
 30
0.0
 10
132.4806655037033
 20
137.4368621631295
 30
0.0
 10
132.63407823015
 20
137.3424191558814
 30
0.0
 10
132.6992870974736
 20
137.2761321791761
 30
0.0
 10
132.8520716268136
 20
137.0505073558878
 30
0.0
 10
132.8988707727416
 20
136.8680810928552
 30
0.0
 10
132.8988707727416
 20
136.6873444606084
 30
0.0
  0
LINE
  5
B3
330
1F
100
AcDbEntity
  8
0
  6
Continuous
 62
     7
370
    15
100
AcDbLine
 10
132.8988707727
 20
136.6873444606
 30
0.0
 11
132.8988707727
 21
142.8528325231
 31
0.0
  0
LINE
  5
B4
330
1F
100
AcDbEntity
  8
0
  6
Continuous
 62
     7
370
    15
100
AcDbLine
 10
123.0388707727
 20
134.0565358669
 30
0.0
 11
123.0388707727
 21
133.1422588308
 31
0.0
  0
LINE
  5
B5
330
1F
100
AcDbEntity
  8
0
  6
Continuous
 62
     7
370
    15
100
AcDbLine
 10
132.2988707727
 20
143.4735876725
 30
0.0
 11
128.3408036042
 21
143.4735876725
 31
0.0
  0
LINE
  5
B6
330
1F
100
AcDbEntity
  8
0
  6
Continuous
 62
     7
370
    15
100
AcDbLine
 10
128.3408036042
 20
137.4650818617
 30
0.0
 11
132.2988707727
 21
137.4650818617
 31
0.0
  0
LINE
  5
B7
330
1F
100
AcDbEntity
  8
0
  6
Continuous
 62
     7
370
    15
100
AcDbLine
 10
128.3408036042
 20
137.4650818617
 30
0.0
 11
128.3408036042
 21
143.4735876725
 31
0.0
  0
SPLINE
  5
B8
330
1F
100
AcDbEntity
  8
0
  6
Continuous
 62
     7
370
    15
100
AcDbSpline
210
0.0
220
0.0
230
1.0
 70
     8
 71
     3
 72
     8
 73
     4
 74
     0
 42
0.00000001
 43
0.00000001
 12
1.0
 22
0.0
 32
0.0
 13
1.0
 23
0.0
 33
0.0
 40
0.0
 40
0.0
 40
0.0
 40
0.0
 40
1.0
 40
1.0
 40
1.0
 40
1.0
 10
128.3408036042307
 20
143.4735876725142
 30
0.0
 10
127.8456635748664
 20
142.586908024334
 30
0.0
 10
127.3515808695874
 20
141.699645388648
 30
0.0
 10
126.8588707727416
 20
140.8116263905216
 30
0.0
  0
SPLINE
  5
B9
330
1F
100
AcDbEntity
  8
0
  6
Continuous
 62
     7
370
    15
100
AcDbSpline
210
0.0
220
0.0
230
1.0
 70
     8
 71
     3
 72
     8
 73
     4
 74
     0
 42
0.00000001
 43
0.00000001
 12
1.0
 22
0.0
 32
0.0
 13
1.0
 23
0.0
 33
0.0
 40
0.0
 40
0.0
 40
0.0
 40
0.0
 40
1.0
 40
1.0
 40
1.0
 40
1.0
 10
126.8588707727416
 20
134.0565358669333
 30
0.0
 10
127.3381489233315
 20
135.1975470967859
 30
0.0
 10
127.8337167624714
 20
136.3339315075537
 30
0.0
 10
128.3408036042307
 20
137.4650818617174
 30
0.0
  0
LINE
  5
BA
330
1F
100
AcDbEntity
  8
0
  6
Continuous
 62
     7
370
    15
100
AcDbLine
 10
126.8588707727
 20
134.0565358669
 30
0.0
 11
126.8588707727
 21
140.8116263905
 31
0.0
  0
LINE
  5
BB
330
1F
100
AcDbEntity
  8
0
  6
Continuous
 62
     7
370
    15
100
AcDbLine
 10
126.8588707727
 20
133.1422588308
 30
0.0
 11
126.8588707727
 21
134.0565358669
 31
0.0
  0
LINE
  5
BC
330
1F
100
AcDbEntity
  8
0
  6
Continuous
 62
     7
370
    15
100
AcDbLine
 10
132.8988707727
 20
136.6873444606
 30
0.0
 11
132.8988707727
 21
132.8563921993
 31
0.0
  0
ARC
  5
BD
330
1F
100
AcDbEntity
  8
0
  6
Continuous
 62
     7
370
    15
100
AcDbCircle
 10
114.9490808781
 20
131.7362625661
 30
0.0
 40
7.226579600532163
100
AcDbArc
 50
70.8977090435
 51
109.1655022323
  0
SPLINE
  5
BE
330
1F
100
AcDbEntity
  8
0
  6
Continuous
 62
     7
370
    15
100
AcDbSpline
210
0.0
220
0.0
230
1.0
 70
     8
 71
     3
 72
    39
 73
    35
 74
     0
 42
0.00000001
 43
0.00000001
 12
1.0
 22
0.0
 32
0.0
 13
1.0
 23
0.0
 33
0.0
 40
-0.0930101214669509
 40
-0.0618280028303918
 40
-0.0306436199920902
 40
0.0
 40
0.030659610713743
 40
0.0618452964001033
 40
0.0930163102304101
 40
0.1240785945074915
 40
0.1552163478462344
 40
0.1868112107939094
 40
0.2185267826062785
 40
0.2499192584027679
 40
0.2813177417211847
 40
0.3130921101017624
 40
0.344727132424138
 40
0.3759220232797307
 40
0.4069779730815443
 40
0.4381192479309842
 40
0.4692677792204145
 40
0.5000093392007194
 40
0.5307192062571301
 40
0.5619180231307422
 40
0.5930486394296058
 40
0.6241331762561622
 40
0.6552964593293149
 40
0.6869387764013574
 40
0.7186659751607792
 40
0.7500826423953671
 40
0.781452371210989
 40
0.8132065805149591
 40
0.844791683989474
 40
0.8759584677019113
 40
0.9069898785330491
 40
0.9381719971696082
 40
0.9693563800079098
 40
1.0
 40
1.030659610713743
 40
1.061845296400103
 40
1.09301631023041
 10
220.0214869263919
 20
110.0614677733503
 30
0.0
 10
219.448765274637
 20
110.0034171294566
 30
0.0
 10
218.8760746627679
 20
110.0616515633367
 30
0.0
 10
218.3255907621778
 20
110.2366868500761
 30
0.0
 10
217.8165230466776
 20
110.5122265237227
 30
0.0
 10
217.3742424468003
 20
110.8842117126756
 30
0.0
 10
217.0110758531129
 20
111.3370605253299
 30
0.0
 10
216.7427606687367
 20
111.8570519450211
 30
0.0
 10
216.5724940125156
 20
112.4198090770473
 30
0.0
 10
216.5162417959637
 20
113.0049344125812
 30
0.0
 10
216.5726653410929
 20
113.5903869565388
 30
0.0
 10
216.7427653410822
 20
114.1538521670167
 30
0.0
 10
217.0109699652276
 20
114.6749922174485
 30
0.0
 10
217.3741988965325
 20
115.128528225327
 30
0.0
 10
217.8162607898743
 20
115.500940331016
 30
0.0
 10
218.3247360238427
 20
115.7766711972002
 30
0.0
 10
218.8754380811591
 20
115.9514626226671
 30
0.0
 10
219.4488455717594
 20
116.0092899326113
 30
0.0
 10
220.022559817718
 20
115.9514073512049
 30
0.0
 10
220.5732612829361
 20
115.7764239055658
 30
0.0
 10
221.0820933234488
 20
115.5004922788926
 30
0.0
 10
221.5240247068604
 20
115.1280308639853
 30
0.0
 10
221.8871730719236
 20
114.6744143857466
 30
0.0
 10
222.1551455046055
 20
114.1536403779501
 30
0.0
 10
222.3250923338182
 20
113.5902802628733
 30
0.0
 10
222.3814930112883
 20
113.0051479633199
 30
0.0
 10
222.3252606026485
 20
112.4198120560446
 30
0.0
 10
222.1549354265873
 20
111.8570237567667
 30
0.0
 10
221.8864747923592
 20
111.3367112742154
 30
0.0
 10
221.5232654085562
 20
110.8839724974602
 30
0.0
 10
221.0808790901498
 20
110.5120318913554
 30
0.0
 10
220.571887540955
 20
110.236643326421
 30
0.0
 10
220.0214869263919
 20
110.0614677733503
 30
0.0
 10
219.448765274637
 20
110.0034171294566
 30
0.0
 10
218.8760746627679
 20
110.0616515633367
 30
0.0
  0
LINE
  5
BF
330
1F
100
AcDbEntity
  8
0
  6
Continuous
 62
     7
370
    15
100
AcDbLine
 10
223.0095757894
 20
98.0063921993
 30
0.0
 11
223.0095757894
 21
128.0063921994
 31
0.0
  0
LINE
  5
C0
330
1F
100
AcDbEntity
  8
0
  6
Continuous
 62
     7
370
    15
100
AcDbLine
 10
236.9488707727
 20
105.780532721
 30
0.0
 11
236.9488707727
 21
120.2322514293
 31
0.0
  0
CIRCLE
  5
C1
330
1F
100
AcDbEntity
  8
0
  6
HIDDEN
 62
     7
370
     0
100
AcDbCircle
 10
219.4488707727
 20
113.0063921993
 30
0.0
 40
3.000000000000004
  0
CIRCLE
  5
C2
330
1F
100
AcDbEntity
  8
0
  6
HIDDEN
 62
     7
370
     0
100
AcDbCircle
 10
219.4488707727
 20
113.0063921993
 30
0.0
 40
1.250000000000019
  0
CIRCLE
  5
C3
330
1F
100
AcDbEntity
  8
0
  6
HIDDEN
 62
     7
370
     0
100
AcDbCircle
 10
219.4488707727
 20
113.0063921993
 30
0.0
 40
2.099999999999985
  0
LINE
  5
C4
330
1F
100
AcDbEntity
  8
0
  6
HIDDEN
 62
     7
370
     0
100
AcDbLine
 10
121.5569379413
 20
137.4650818617
 30
0.0
 11
121.5569379413
 21
132.8563921993
 31
0.0
  0
ARC
  5
C5
330
1F
100
AcDbEntity
  8
0
  6
HIDDEN
 62
     7
370
     0
100
AcDbCircle
 10
115.2500957878
 20
125.4866875212
 30
0.0
 40
3.662788052458478
100
AcDbArc
 50
265.2827092948
 51
12.3014501683
  0
ARC
  5
C6
330
1F
100
AcDbEntity
  8
0
  6
HIDDEN
 62
     7
370
     0
100
AcDbCircle
 10
114.6668028512
 20
125.498381966
 30
0.0
 40
3.672922165405653
100
AcDbArc
 50
166.4845093491
 51
274.4044574913
  0
LINE
  5
C7
330
1F
100
AcDbEntity
  8
0
  6
HIDDEN
 62
     7
370
     0
100
AcDbLine
 10
94.9440209773
 20
89.4817925765
 30
0.0
 11
94.4098755482
 21
89.427177977
 31
0.0
  0
LINE
  5
C8
330
1F
100
AcDbEntity
  8
0
  6
HIDDEN
 62
     7
370
     0
100
AcDbLine
 10
94.1722218761
 20
136.6097253799
 30
0.0
 11
94.943928257
 21
136.5309752293
 31
0.0
  0
SPLINE
  5
C9
330
1F
100
AcDbEntity
  8
0
  6
HIDDEN
 62
     7
370
     0
100
AcDbSpline
210
0.0
220
0.0
230
1.0
 70
     8
 71
     3
 72
    15
 73
    11
 74
     0
 42
0.00000001
 43
0.00000001
 12
1.0
 22
0.0
 32
0.0
 13
1.0
 23
0.0
 33
0.0
 40
0.0
 40
0.0
 40
0.0
 40
0.0
 40
0.1409172169897705
 40
0.2818898291171906
 40
0.4212989265166057
 40
0.5593768372264388
 40
0.6988856205980569
 40
0.8403671979046411
 40
0.981316445467027
 40
1.0
 40
1.0
 40
1.0
 40
1.0
 10
100.7038727743432
 20
93.16886372353352
 30
0.0
 10
100.3878310880707
 20
93.20921754085514
 30
0.0
 10
99.75562347823866
 20
93.28994103874997
 30
0.0
 10
98.52146035656142
 20
93.36649613635224
 30
0.0
 10
97.25073835570292
 20
93.3618200852132
 30
0.0
 10
96.06217895067546
 20
93.28102407348099
 30
0.0
 10
95.06905627789442
 20
93.15662727696923
 30
0.0
 10
94.4296472715978
 20
93.05022373830712
 30
0.0
 10
94.14862716501428
 20
92.99714307762996
 30
0.0
 10
94.21518790270746
 20
93.00939911764421
 30
0.0
 10
94.22297822622569
 20
93.01083357465404
 30
0.0
  0
SPLINE
  5
CA
330
1F
100
AcDbEntity
  8
0
  6
HIDDEN
 62
     7
370
     0
100
AcDbSpline
210
0.0
220
0.0
230
1.0
 70
     8
 71
     3
 72
    15
 73
    11
 74
     0
 42
0.00000001
 43
0.00000001
 12
1.0
 22
0.0
 32
0.0
 13
1.0
 23
0.0
 33
0.0
 40
0.0
 40
0.0
 40
0.0
 40
0.0
 40
0.1201202395113831
 40
0.2584739316900695
 40
0.3987301965958642
 40
0.5404022890432704
 40
0.680739540300365
 40
0.819035606386088
 40
0.9577823106998845
 40
1.0
 40
1.0
 40
1.0
 40
1.0
 10
94.22297822622569
 20
133.0019508240459
 30
0.0
 10
94.24368736269616
 20
132.9979262301923
 30
0.0
 10
94.28824914468395
 20
132.9892661359314
 30
0.0
 10
94.85068875055666
 20
132.8899750093228
 30
0.0
 10
95.744150962878
 20
132.7660574193415
 30
0.0
 10
96.90313011707018
 20
132.6663469825201
 30
0.0
 10
98.17616699719552
 20
132.6392084934444
 30
0.0
 10
99.41045227183913
 20
132.6945473276083
 30
0.0
 10
100.2384150686051
 20
132.7810259265925
 30
0.0
 10
100.6158256132691
 20
132.8320233448824
 30
0.0
 10
100.7038727743433
 20
132.8439206751664
 30
0.0
  0
SPLINE
  5
CB
330
1F
100
AcDbEntity
  8
0
  6
HIDDEN
 62
     7
370
     0
100
AcDbSpline
210
0.0
220
0.0
230
1.0
 70
     8
 71
     3
 72
    10
 73
     6
 74
     0
 42
0.00000001
 43
0.00000001
 12
1.0
 22
0.0
 32
0.0
 13
1.0
 23
0.0
 33
0.0
 40
0.0
 40
0.0
 40
0.0
 40
0.0
 40
0.4474980330246504
 40
0.8949793102011562
 40
1.0
 40
1.0
 40
1.0
 40
1.0
 10
100.7038727743432
 20
132.8439206751664
 30
0.0
 10
100.9505826400288
 20
132.8734333836458
 30
0.0
 10
101.4439931337436
 20
132.9324576955485
 30
0.0
 10
101.7330109997272
 20
132.9463956691215
 30
0.0
 10
101.6726047273137
 20
132.9425027639432
 30
0.0
 10
101.6611225810478
 20
132.9417627926642
 30
0.0
  0
SPLINE
  5
CC
330
1F
100
AcDbEntity
  8
0
  6
HIDDEN
 62
     7
370
     0
100
AcDbSpline
210
0.0
220
0.0
230
1.0
 70
     8
 71
     3
 72
    10
 73
     6
 74
     0
 42
0.00000001
 43
0.00000001
 12
1.0
 22
0.0
 32
0.0
 13
1.0
 23
0.0
 33
0.0
 40
0.0
 40
0.0
 40
0.0
 40
0.0
 40
0.3454371160332159
 40
0.796685321207651
 40
0.9999999999999999
 40
0.9999999999999999
 40
0.9999999999999999
 40
0.9999999999999999
 10
101.6611338627334
 20
93.07102083913453
 30
0.0
 10
101.651573792194
 20
93.07157647441099
 30
0.0
 10
101.6295252990964
 20
93.07285794200132
 30
0.0
 10
101.2125993938434
 20
93.10281421554211
 30
0.0
 10
100.8244396171269
 20
93.15321016749637
 30
0.0
 10
100.7038727743432
 20
93.16886372353352
 30
0.0
  0
LINE
  5
CD
330
1F
100
AcDbEntity
  8
0
  6
HIDDEN
 62
     7
370
     0
100
AcDbLine
 10
87.952845369
 20
96.0063921993
 30
0.0
 11
87.952845369
 21
130.0063921993
 31
0.0
  0
LWPOLYLINE
  5
CE
330
1F
100
AcDbEntity
  8
0
  6
HIDDEN
 62
     7
370
     0
100
AcDbPolyline
 90
       13
 70
   128
 43
0.0
 10
114.9488707727
 20
134.951994614
 10
115.8087525336
 20
134.9987535026
 10
116.628427179
 20
135.1368437746
 10
117.3695676335
 20
135.3598084826
 10
117.9975189933
 20
135.6572220444
 10
118.4829189505
 20
136.0151777326
 10
118.8030707428
 20
136.4169379369
 10
118.9430044281
 20
136.8437167968
 10
118.8961768629
 20
137.2755586071
 10
118.664777652
 20
137.6922709247
 10
118.2596267654
 20
138.0743687447
 10
117.6996686082
 20
138.4039855978
 10
117.3140201156
 20
138.5649165422
  0
LWPOLYLINE
  5
CF
330
1F
100
AcDbEntity
  8
0
  6
HIDDEN
 62
     7
370
     0
100
AcDbPolyline
 90
       13
 70
   128
 43
0.0
 10
112.5766094038
 20
138.5623032799
 10
112.1980729373
 20
138.4039855978
 10
111.6381147801
 20
138.0743687447
 10
111.2329638935
 20
137.6922709247
 10
111.0015646826
 20
137.2755586071
 10
110.9547371173
 20
136.8437167968
 10
111.0946708027
 20
136.4169379369
 10
111.414822595
 20
136.0151777326
 10
111.9002225522
 20
135.6572220444
 10
112.528173912
 20
135.3598084826
 10
113.2693143665
 20
135.1368437746
 10
114.0889890119
 20
134.9987535026
 10
114.9488707727
 20
134.951994614
  0
SPLINE
  5
D0
330
1F
100
AcDbEntity
  8
0
  6
HIDDEN
 62
     7
370
     0
100
AcDbSpline
210
0.0
220
0.0
230
1.0
 70
     8
 71
     3
 72
     8
 73
     4
 74
     0
 42
0.00000001
 43
0.00000001
 12
1.0
 22
0.0
 32
0.0
 13
1.0
 23
0.0
 33
0.0
 40
0.0
 40
0.0
 40
0.0
 40
0.0
 40
0.0011559732291307
 40
0.0011559732291307
 40
0.0011559732291307
 40
0.0011559732291307
 10
75.04887077274162
 20
115.0062328179766
 30
0.0
 10
75.38220534780895
 20
115.0022655381771
 30
0.0
 10
75.71553653883569
 20
114.9980856556062
 30
0.0
 10
76.04887077274164
 20
114.9935205021981
 30
0.0
  0
SPLINE
  5
D1
330
1F
100
AcDbEntity
  8
0
  6
HIDDEN
 62
     7
370
     0
100
AcDbSpline
210
0.0
220
0.0
230
1.0
 70
     8
 71
     3
 72
     8
 73
     4
 74
     0
 42
0.00000001
 43
0.00000001
 12
1.0
 22
0.0
 32
0.0
 13
1.0
 23
0.0
 33
0.0
 40
0.0
 40
0.0
 40
0.0
 40
0.0
 40
0.0011564765856722
 40
0.0011564765856722
 40
0.0011564765856722
 40
0.0011564765856722
 10
76.04887077274164
 20
111.0096918971329
 30
0.0
 10
75.71556284217279
 20
111.0088167415499
 30
0.0
 10
75.38222760978059
 20
111.0077618902986
 30
0.0
 10
75.04887077274164
 20
111.0065908032613
 30
0.0
  0
LINE
  5
D2
330
1F
100
AcDbEntity
  8
0
  6
HIDDEN
 62
     7
370
     0
100
AcDbLine
 10
114.6086967413
 20
96.0063921993
 30
0.0
 11
114.6086967413
 21
130.0063921993
 31
0.0
  0
LINE
  5
D3
330
1F
100
AcDbEntity
  8
0
  6
HIDDEN
 62
     7
370
     0
100
AcDbLine
 10
116.8988707727
 20
97.2813921993
 30
0.0
 11
116.8988707727
 21
128.7313921987
 31
0.0
  0
SPLINE
  5
D4
330
1F
100
AcDbEntity
  8
0
  6
HIDDEN
 62
     7
370
     0
100
AcDbSpline
210
0.0
220
0.0
230
1.0
 70
     8
 71
     3
 72
    16
 73
    12
 74
     0
 42
0.00000001
 43
0.00000001
 12
1.0
 22
0.0
 32
0.0
 13
1.0
 23
0.0
 33
0.0
 40
0.0
 40
0.0
 40
0.0
 40
0.0
 40
0.124999999999998
 40
0.124999999999998
 40
0.249999999999996
 40
0.249999999999996
 40
0.4999999999999973
 40
0.4999999999999973
 40
0.7499999999999987
 40
0.7499999999999987
 40
1.0
 40
1.0
 40
1.0
 40
1.0
 10
83.74887077274164
 20
97.20490176331832
 30
0.0
 10
83.84399252740745
 20
97.20490176331832
 30
0.0
 10
83.93732259613554
 20
97.20108592992551
 30
0.0
 10
84.12058435687354
 20
97.18631537719571
 30
0.0
 10
84.21146207243055
 20
97.17515732922014
 30
0.0
 10
84.46826376995028
 20
97.13268605907841
 30
0.0
 10
84.6233311348223
 20
97.0916398618756
 30
0.0
 10
84.8770775963769
 20
96.99649374529372
 30
0.0
 10
84.97794804804477
 20
96.94173101121214
 30
0.0
 10
85.1131944627396
 20
96.83046988730825
 30
0.0
 10
85.14887077274163
 20
96.77330014997958
 30
0.0
 10
85.14887077274163
 20
96.71887857694585
 30
0.0
  0
SPLINE
  5
D5
330
1F
100
AcDbEntity
  8
0
  6
HIDDEN
 62
     7
370
     0
100
AcDbSpline
210
0.0
220
0.0
230
1.0
 70
     8
 71
     3
 72
     8
 73
     4
 74
     0
 42
0.00000001
 43
0.00000001
 12
1.0
 22
0.0
 32
0.0
 13
1.0
 23
0.0
 33
0.0
 40
0.0
 40
0.0
 40
0.0
 40
0.0
 40
1.0
 40
1.0
 40
1.0
 40
1.0
 10
76.34887077283427
 20
99.34970470940057
 30
0.0
 10
76.34887077283618
 20
98.46580756708363
 30
0.0
 10
76.33539014692566
 20
97.75122432202168
 30
0.0
 10
76.33403877873454
 20
97.20490176331832
 30
0.0
  0
LINE
  5
D6
330
1F
100
AcDbEntity
  8
0
  6
HIDDEN
 62
     7
370
     0
100
AcDbLine
 10
76.0488707727
 20
103.4055654144
 30
0.0
 11
76.0488707727
 21
100.3746149688
 31
0.0
  0
SPLINE
  5
D7
330
1F
100
AcDbEntity
  8
0
  6
HIDDEN
 62
     7
370
     0
100
AcDbSpline
210
0.0
220
0.0
230
1.0
 70
     8
 71
     3
 72
    10
 73
     6
 74
     0
 42
0.00000001
 43
0.00000001
 12
1.0
 22
0.0
 32
0.0
 13
1.0
 23
0.0
 33
0.0
 40
0.0
 40
0.0
 40
0.0
 40
0.0
 40
0.5
 40
0.5
 40
1.0
 40
1.0
 40
1.0
 40
1.0
 10
76.34887077282818
 20
104.7734058237072
 30
0.0
 10
76.34887077282818
 20
104.5314218574928
 30
0.0
 10
76.32072074406975
 20
104.2970794298342
 30
0.0
 10
76.21713083105449
 20
103.8417044100257
 30
0.0
 10
76.14050212226091
 20
103.6200998481082
 30
0.0
 10
76.04887077274164
 20
103.4055654143689
 30
0.0
  0
LINE
  5
D8
330
1F
100
AcDbEntity
  8
0
  6
HIDDEN
 62
     7
370
     0
100
AcDbLine
 10
76.3488707728
 20
116.6110258209
 30
0.0
 11
76.3488707728
 21
104.7734058237
 31
0.0
  0
SPLINE
  5
D9
330
1F
100
AcDbEntity
  8
0
  6
HIDDEN
 62
     7
370
     0
100
AcDbSpline
210
0.0
220
0.0
230
1.0
 70
     8
 71
     3
 72
     8
 73
     4
 74
     0
 42
0.00000001
 43
0.00000001
 12
1.0
 22
0.0
 32
0.0
 13
1.0
 23
0.0
 33
0.0
 40
0.0
 40
0.0
 40
0.0
 40
0.0
 40
1.0
 40
1.0
 40
1.0
 40
1.0
 10
76.04887077274164
 20
122.6133315128555
 30
0.0
 10
76.22990223748046
 20
122.181224029381
 30
0.0
 10
76.34887077283383
 20
121.7270786257322
 30
0.0
 10
76.34887077282812
 20
121.2393785749619
 30
0.0
  0
LINE
  5
DA
330
1F
100
AcDbEntity
  8
0
  6
HIDDEN
 62
     7
370
     0
100
AcDbLine
 10
76.0488707727
 20
125.6465345128
 30
0.0
 11
76.0488707727
 21
122.6133315129
 31
0.0
  0
SPLINE
  5
DB
330
1F
100
AcDbEntity
  8
0
  6
HIDDEN
 62
     7
370
     0
100
AcDbSpline
210
0.0
220
0.0
230
1.0
 70
     8
 71
     3
 72
    10
 73
     6
 74
     0
 42
0.00000001
 43
0.00000001
 12
1.0
 22
0.0
 32
0.0
 13
1.0
 23
0.0
 33
0.0
 40
0.0
 40
0.0
 40
0.0
 40
0.0
 40
0.5
 40
0.5
 40
1.0
 40
1.0
 40
1.0
 40
1.0
 10
76.34887077284719
 20
126.6630796892698
 30
0.0
 10
76.34887077284542
 20
126.4984433436765
 30
0.0
 10
76.32171210242036
 20
126.33128812089
 30
0.0
 10
76.21594710836071
 20
125.9926651152276
 30
0.0
 10
76.1395323208399
 20
125.8203933390709
 30
0.0
 10
76.04887077274167
 20
125.6465345128204
 30
0.0
  0
SPLINE
  5
DC
330
1F
100
AcDbEntity
  8
0
  6
HIDDEN
 62
     7
370
     0
100
AcDbSpline
210
0.0
220
0.0
230
1.0
 70
     8
 71
     3
 72
    18
 73
    14
 74
     0
 42
0.00000001
 43
0.00000001
 12
1.0
 22
0.0
 32
0.0
 13
1.0
 23
0.0
 33
0.0
 40
0.0
 40
0.0
 40
0.0
 40
0.0
 40
0.2500000000000033
 40
0.2500000000000033
 40
0.3750000000000029
 40
0.3750000000000029
 40
0.5000000000000026
 40
0.5000000000000026
 40
0.6250000000000022
 40
0.6250000000000022
 40
0.7500000000000018
 40
0.7500000000000018
 40
1.0
 40
1.0
 40
1.0
 40
1.0
 10
81.14887077274163
 20
129.2939058217541
 30
0.0
 10
81.14887077274163
 20
129.2394313012019
 30
0.0
 10
81.11396008134946
 20
129.1830502418494
 30
0.0
 10
81.0119507800164
 20
129.0989734009959
 30
0.0
 10
80.9703144253383
 20
129.071639697005
 30
0.0
 10
80.87190862984956
 20
129.018685781406
 30
0.0
 10
80.81436541814527
 20
128.9927984276889
 30
0.0
 10
80.68706724457232
 20
128.9450208828556
 30
0.0
 10
80.61747993981486
 20
128.9230729646777
 30
0.0
 10
80.4660456946599
 20
128.883640399765
 30
0.0
 10
80.38336179156595
 20
128.8660841505392
 30
0.0
 10
80.1272503295279
 20
128.8236453851187
 30
0.0
 10
79.93933532563992
 20
128.8078826353816
 30
0.0
 10
79.74887077274164
 20
128.8078826353816
 30
0.0
  0
LINE
  5
DD
330
1F
100
AcDbEntity
  8
0
  6
HIDDEN
 62
     7
370
     0
100
AcDbLine
 10
79.7488707727
 20
128.8078826354
 30
0.0
 11
76.3488707728
 21
128.8078826354
 31
0.0
  0
LINE
  5
DE
330
1F
100
AcDbEntity
  8
0
  6
HIDDEN
 62
     7
370
     0
100
AcDbLine
 10
76.2799017861
 20
97.2049017633
 30
0.0
 11
83.7488707727
 21
97.2049017633
 31
0.0
  0
SPLINE
  5
DF
330
1F
100
AcDbEntity
  8
0
  6
HIDDEN
 62
     7
370
     0
100
AcDbSpline
210
0.0
220
0.0
230
1.0
 70
     8
 71
     3
 72
    22
 73
    18
 74
     0
 42
0.00000001
 43
0.00000001
 12
1.0
 22
0.0
 32
0.0
 13
1.0
 23
0.0
 33
0.0
 40
0.0
 40
0.0
 40
0.0
 40
0.0
 40
0.1249999999999998
 40
0.1249999999999998
 40
0.2499999999999996
 40
0.2499999999999996
 40
0.4999999999999992
 40
0.4999999999999992
 40
0.5624999999999992
 40
0.5624999999999992
 40
0.6249999999999992
 40
0.6249999999999992
 40
0.7499999999999994
 40
0.7499999999999994
 40
0.8749999999999998
 40
0.8749999999999998
 40
1.0
 40
1.0
 40
1.0
 40
1.0
 10
76.27990178609956
 20
97.20490176331832
 30
0.0
 10
76.26681939337118
 20
97.46000747346599
 30
0.0
 10
76.25359982993136
 20
97.7531657325699
 30
0.0
 10
76.23115265213723
 20
98.41546619819471
 30
0.0
 10
76.22167418511278
 20
98.78574011880607
 30
0.0
 10
76.20247622417622
 20
100.0082969219199
 30
0.0
 10
76.20358999717311
 20
100.9454358480517
 30
0.0
 10
76.22250079012619
 20
102.2653070775667
 30
0.0
 10
76.22713031798519
 20
102.536808986543
 30
0.0
 10
76.23761153773115
 20
103.0951938213453
 30
0.0
 10
76.24340679901556
 20
103.3823166772849
 30
0.0
 10
76.26171601992048
 20
104.2549059316567
 30
0.0
 10
76.27575095420086
 20
104.8553616080125
 30
0.0
 10
76.30520812633769
 20
106.0928361005086
 30
0.0
 10
76.32076381731926
 20
106.729852257152
 30
0.0
 10
76.34455836731614
 20
108.0413408548366
 30
0.0
 10
76.35257741946151
 20
108.7174634664971
 30
0.0
 10
76.34887077274163
 20
109.4017585777819
 30
0.0
  0
LINE
  5
E0
330
1F
100
AcDbEntity
  8
0
  6
HIDDEN
 62
     7
370
     0
100
AcDbLine
 10
76.3488707728
 20
116.6110258209
 30
0.0
 11
76.3488707728
 21
128.8078826354
 31
0.0
  0
SPLINE
  5
E1
330
1F
100
AcDbEntity
  8
0
  6
HIDDEN
 62
     7
370
     0
100
AcDbSpline
210
0.0
220
0.0
230
1.0
 70
     8
 71
     3
 72
    10
 73
     6
 74
     0
 42
0.00000001
 43
0.00000001
 12
1.0
 22
0.0
 32
0.0
 13
1.0
 23
0.0
 33
0.0
 40
0.0
 40
0.0
 40
0.0
 40
0.0
 40
0.5
 40
0.5
 40
1.0
 40
1.0
 40
1.0
 40
1.0
 10
76.34887077274163
 20
109.4017585777668
 30
0.0
 10
76.34887077274144
 20
109.675673725841
 30
0.0
 10
76.3231115428736
 20
109.946615304571
 30
0.0
 10
76.21990561014047
 20
110.4823063861735
 30
0.0
 10
76.14256744626533
 20
110.7480531896954
 30
0.0
 10
76.04887077274164
 20
111.0096918971328
 30
0.0
  0
SPLINE
  5
E2
330
1F
100
AcDbEntity
  8
0
  6
HIDDEN
 62
     7
370
     0
100
AcDbSpline
210
0.0
220
0.0
230
1.0
 70
     8
 71
     3
 72
    10
 73
     6
 74
     0
 42
0.00000001
 43
0.00000001
 12
1.0
 22
0.0
 32
0.0
 13
1.0
 23
0.0
 33
0.0
 40
0.0
 40
0.0
 40
0.0
 40
0.0
 40
0.5
 40
0.5
 40
1.0
 40
1.0
 40
1.0
 40
1.0
 10
76.04887077274164
 20
114.9935205021982
 30
0.0
 10
76.14210135309288
 20
115.2574143087965
 30
0.0
 10
76.21713096462169
 20
115.5235946178951
 30
0.0
 10
76.32219806260134
 20
116.061917189714
 30
0.0
 10
76.34887077284598
 20
116.3346653043298
 30
0.0
 10
76.34887077284716
 20
116.6110258209171
 30
0.0
  0
LINE
  5
E3
330
1F
100
AcDbEntity
  8
0
  6
HIDDEN
 62
     7
370
     0
100
AcDbLine
 10
76.0488707727
 20
111.0096918971
 30
0.0
 11
76.0488707727
 21
114.9935205022
 31
0.0
  0
SPLINE
  5
E4
330
1F
100
AcDbEntity
  8
0
  6
HIDDEN
 62
     7
370
     0
100
AcDbSpline
210
0.0
220
0.0
230
1.0
 70
     8
 71
     3
 72
    37
 73
    33
 74
     0
 42
0.00000001
 43
0.00000001
 12
1.0
 22
0.0
 32
0.0
 13
1.0
 23
0.0
 33
0.0
 40
-0.0672961992404805
 40
-0.042274535416493
 40
-0.0198477749538286
 40
0.0
 40
0.0252075669981468
 40
0.0544363278062606
 40
0.0877117524165338
 40
0.1250489433360334
 40
0.1620915304697864
 40
0.1952559607571153
 40
0.2245582096138406
 40
0.2500241769224275
 40
0.2848342141697356
 40
0.3264523844556095
 40
0.3749196230365295
 40
0.4123147764332629
 40
0.4456207602117332
 40
0.4748524896769776
 40
0.5000352833317041
 40
0.534459490646623
 40
0.5760834699269538
 40
0.6249453020700578
 40
0.6620128839147266
 40
0.6952092116712688
 40
0.7245502584390173
 40
0.7500618788844016
 40
0.7848149950160475
 40
0.826392614582119
 40
0.8748356825798611
 40
0.9050763678480477
 40
0.9327038007595195
 40
0.957725464583507
 40
0.9801522250461714
 40
1.0
 40
1.025207566998147
 40
1.054436327806261
 40
1.087711752416534
 10
219.1230260226305
 20
110.5202666806612
 30
0.0
 10
219.4769532405821
 20
110.4981132827225
 30
0.0
 10
219.8667960592711
 20
110.5291160037318
 30
0.0
 10
220.3139041897987
 20
110.6436234500885
 30
0.0
 10
220.7874679988231
 20
110.8706854039573
 30
0.0
 10
221.2315302616238
 20
111.2214156554654
 30
0.0
 10
221.5822916051583
 20
111.6646079439393
 30
0.0
 10
221.809684172208
 20
112.1360698411728
 30
0.0
 10
221.9255443861064
 20
112.5841173478545
 30
0.0
 10
221.9636053602719
 20
113.0540354109991
 30
0.0
 10
221.9049519242606
 20
113.5893543034648
 30
0.0
 10
221.6786347869927
 20
114.2096630277534
 30
0.0
 10
221.2791666814092
 20
114.7538181320216
 30
0.0
 10
220.7878835646465
 20
115.1418534742911
 30
0.0
 10
220.3138613686312
 20
115.3692143471383
 30
0.0
 10
219.8666583731842
 20
115.4836632500367
 30
0.0
 10
219.4006114144603
 20
115.5207789404896
 30
0.0
 10
218.868842220335
 20
115.4629203227936
 30
0.0
 10
218.2480672838445
 20
115.2378384751779
 30
0.0
 10
217.7031655500544
 20
114.838425041033
 30
0.0
 10
217.3150865096944
 20
114.3475911283943
 30
0.0
 10
217.0875732021369
 20
113.8755390648453
 30
0.0
 10
216.9718484756529
 20
113.4268271739376
 30
0.0
 10
216.9341805576522
 20
112.9567233711606
 30
0.0
 10
216.9932668989183
 20
112.4217329446007
 30
0.0
 10
217.2196193196621
 20
111.8022175526188
 30
0.0
 10
217.5968724302418
 20
111.2888193005729
 30
0.0
 10
218.0258452318298
 20
110.93427319133
 30
0.0
 10
218.4053518475717
 20
110.722036939732
 30
0.0
 10
218.776233034328
 20
110.5889412919783
 30
0.0
 10
219.1230260226305
 20
110.5202666806612
 30
0.0
 10
219.4769532405821
 20
110.4981132827225
 30
0.0
 10
219.8667960592711
 20
110.5291160037318
 30
0.0
  0
SPLINE
  5
E5
330
1F
100
AcDbEntity
  8
0
  6
HIDDEN
 62
     7
370
     0
100
AcDbSpline
210
0.0
220
0.0
230
1.0
 70
     8
 71
     3
 72
    78
 73
    74
 74
     0
 42
0.00000001
 43
0.00000001
 12
1.0
 22
0.0
 32
0.0
 13
1.0
 23
0.0
 33
0.0
 40
-0.0312499999999997
 40
-0.0312499999999997
 40
0.0
 40
0.0
 40
0.0312499999999998
 40
0.0312499999999998
 40
0.0624999999999997
 40
0.0624999999999997
 40
0.0937499999999995
 40
0.0937499999999995
 40
0.1249999999999993
 40
0.1249999999999993
 40
0.1562499999999991
 40
0.1562499999999991
 40
0.1718749999999995
 40
0.1718749999999995
 40
0.1874999999999999
 40
0.1874999999999999
 40
0.21875
 40
0.21875
 40
0.2500000000000001
 40
0.2500000000000001
 40
0.2812500000000002
 40
0.2812500000000002
 40
0.3125000000000004
 40
0.3125000000000004
 40
0.3437500000000006
 40
0.3437500000000006
 40
0.3750000000000007
 40
0.3750000000000007
 40
0.4062500000000008
 40
0.4062500000000008
 40
0.437500000000001
 40
0.437500000000001
 40
0.4687500000000012
 40
0.4687500000000012
 40
0.5000000000000013
 40
0.5000000000000013
 40
0.5312500000000014
 40
0.5312500000000014
 40
0.5625000000000017
 40
0.5625000000000017
 40
0.5937500000000018
 40
0.5937500000000018
 40
0.625000000000002
 40
0.625000000000002
 40
0.6562500000000021
 40
0.6562500000000021
 40
0.6875000000000023
 40
0.6875000000000023
 40
0.703125000000002
 40
0.703125000000002
 40
0.7187500000000017
 40
0.7187500000000017
 40
0.7500000000000014
 40
0.7500000000000014
 40
0.7656250000000014
 40
0.7656250000000014
 40
0.7812500000000013
 40
0.7812500000000013
 40
0.7968750000000012
 40
0.7968750000000012
 40
0.8125000000000011
 40
0.8125000000000011
 40
0.843750000000001
 40
0.843750000000001
 40
0.8750000000000008
 40
0.8750000000000008
 40
0.9062500000000007
 40
0.9062500000000007
 40
0.9375000000000004
 40
0.9375000000000004
 40
0.9687500000000003
 40
0.9687500000000003
 40
1.0
 40
1.0
 40
1.03125
 40
1.03125
 10
217.2433884096506
 20
108.8341842253028
 30
0.0
 10
216.6543531358327
 20
108.8341842253028
 30
0.0
 10
216.3639179443765
 20
108.8579634141112
 30
0.0
 10
215.7909580826711
 20
108.9517897669376
 30
0.0
 10
215.5074208368517
 20
109.022169961813
 30
0.0
 10
214.9531100675345
 20
109.2117152151082
 30
0.0
 10
214.6883815175554
 20
109.3286328086065
 30
0.0
 10
214.183839449043
 20
109.6076385024061
 30
0.0
 10
213.9423279530078
 20
109.7710982843646
 30
0.0
 10
213.4946689111752
 20
110.1431703422279
 30
0.0
 10
213.2924966091319
 20
110.3479379634513
 30
0.0
 10
213.0224836981271
 20
110.6844121778419
 30
0.0
 10
212.9380581207651
 20
110.8014902363088
 30
0.0
 10
212.7810295663459
 20
111.0461659890154
 30
0.0
 10
212.7081689136918
 20
111.1744803134146
 30
0.0
 10
212.5139666143952
 20
111.5656909112386
 30
0.0
 10
212.4146874070632
 20
111.8373915949834
 30
0.0
 10
212.2784431011497
 20
112.4035255917133
 30
0.0
 10
212.2424728013441
 20
112.699808334818
 30
0.0
 10
212.240109124362
 20
113.2823661603247
 30
0.0
 10
212.2728933528903
 20
113.5751806188009
 30
0.0
 10
212.4056387640629
 20
114.1476813814587
 30
0.0
 10
212.5035927813737
 20
114.421481362361
 30
0.0
 10
212.7593661303225
 20
114.9457346716337
 30
0.0
 10
212.91737137747
 20
115.1945567969746
 30
0.0
 10
213.2771561547134
 20
115.6483317383865
 30
0.0
 10
213.4825733498319
 20
115.8580770389758
 30
0.0
 10
213.9283587696088
 20
116.2314752629332
 30
0.0
 10
214.1672410858557
 20
116.3947487389295
 30
0.0
 10
214.6751704802542
 20
116.6779951192698
 30
0.0
 10
214.9447850463029
 20
116.7975235772913
 30
0.0
 10
215.4941933709295
 20
116.9867633457916
 30
0.0
 10
215.7763296036947
 20
117.0579327438579
 30
0.0
 10
216.3554194282695
 20
117.1540695733257
 30
0.0
 10
216.6486716242862
 20
117.1780975560411
 30
0.0
 10
217.2306349682401
 20
117.1790871175135
 30
0.0
 10
217.5211748981298
 20
117.1563728068295
 30
0.0
 10
218.1013343830517
 20
117.0623904937823
 30
0.0
 10
218.3853801776835
 20
116.9917856698799
 30
0.0
 10
218.9334334415105
 20
116.8054014526986
 30
0.0
 10
219.1987889106144
 20
116.689443506125
 30
0.0
 10
219.7107478734662
 20
116.4074292699758
 30
0.0
 10
219.951657588006
 20
116.244139188025
 30
0.0
 10
220.3947322810554
 20
115.8771968510519
 30
0.0
 10
220.5983367546801
 20
115.6728484021177
 30
0.0
 10
220.9654702815836
 20
115.2165504127308
 30
0.0
 10
221.1223431695325
 20
114.9725831217738
 30
0.0
 10
221.3156722721293
 20
114.5848380376833
 30
0.0
 10
221.3731705588299
 20
114.451803108877
 30
0.0
 10
221.4735708742705
 20
114.1777242605587
 30
0.0
 10
221.516633732485
 20
114.0357036563519
 30
0.0
 10
221.6195945865664
 20
113.6083394269157
 30
0.0
 10
221.6548614821726
 20
113.3194622317513
 30
0.0
 10
221.6572108141389
 20
112.8801128126523
 30
0.0
 10
221.6493273367546
 20
112.7316303900246
 30
0.0
 10
221.6165623576302
 20
112.4395161031784
 30
0.0
 10
221.5918165893186
 20
112.2955280447156
 30
0.0
 10
221.5261451485827
 20
112.0115437751556
 30
0.0
 10
221.4852177150606
 20
111.8715480151537
 30
0.0
 10
221.3871557166433
 20
111.5955369951399
 30
0.0
 10
221.3297235225423
 20
111.4591337098316
 30
0.0
 10
221.1374897708572
 20
111.0654726555988
 30
0.0
 10
220.9820443643604
 20
110.8203607430951
 30
0.0
 10
220.6191480702956
 20
110.3626182903421
 30
0.0
 10
220.414119371449
 20
110.1537998806427
 30
0.0
 10
219.9699086068213
 20
109.7817785800163
 30
0.0
 10
219.7268631288332
 20
109.6156713518
 30
0.0
 10
219.2177199190848
 20
109.3324256458116
 30
0.0
 10
218.9522566319205
 20
109.2149008641267
 30
0.0
 10
218.400517538167
 20
109.0250968715625
 30
0.0
 10
218.1131026849045
 20
108.9530652597903
 30
0.0
 10
217.5359948548932
 20
108.8580818132083
 30
0.0
 10
217.2433884096506
 20
108.8341842253028
 30
0.0
 10
216.6543531358327
 20
108.8341842253028
 30
0.0
  0
LINE
  5
E6
330
1F
100
AcDbEntity
  8
0
  6
HIDDEN
 62
     7
370
     0
100
AcDbLine
 10
76.1988707727
 20
95.0163921993
 30
0.0
 11
76.1988707727
 21
92.136454434
 31
0.0
  0
LINE
  5
E7
330
1F
100
AcDbEntity
  8
0
  6
HIDDEN
 62
     7
370
     0
100
AcDbLine
 10
85.1488707727
 20
95.0163921993
 30
0.0
 11
85.1488707727
 21
91.0426546682
 31
0.0
  0
LINE
  5
E8
330
1F
100
AcDbEntity
  8
0
  6
HIDDEN
 62
     7
370
     0
100
AcDbLine
 10
76.1988707727
 20
130.9963921993
 30
0.0
 11
76.1988707727
 21
133.8763299647
 31
0.0
  0
LINE
  5
E9
330
1F
100
AcDbEntity
  8
0
  6
HIDDEN
 62
     7
370
     0
100
AcDbLine
 10
81.1488707727
 20
130.9963921993
 30
0.0
 11
81.1488707727
 21
134.8504998717
 31
0.0
  0
LINE
  5
EA
330
1F
100
AcDbEntity
  8
0
  6
HIDDEN
 62
     7
370
     0
100
AcDbLine
 10
128.7488707727
 20
103.5063921993
 30
0.0
 11
128.7488707727
 21
122.5063921993
 31
0.0
  0
LINE
  5
EB
330
1F
100
AcDbEntity
  8
0
  6
HIDDEN
 62
     7
370
     0
100
AcDbLine
 10
125.7488707727
 20
103.5063921993
 30
0.0
 11
125.7488707727
 21
122.5063921993
 31
0.0
  0
LINE
  5
EC
330
1F
100
AcDbEntity
  8
0
  6
HIDDEN
 62
     7
370
     0
100
AcDbLine
 10
117.3988707727
 20
104.5063921993
 30
0.0
 11
117.3988707727
 21
121.5063921993
 31
0.0
  0
LINE
  5
ED
330
1F
100
AcDbEntity
  8
0
  6
HIDDEN
 62
     7
370
     0
100
AcDbLine
 10
111.8988707727
 20
81.5222692165
 30
0.0
 11
111.8988707727
 21
86.6063921993
 31
0.0
  0
LINE
  5
EE
330
1F
100
AcDbEntity
  8
0
  6
HIDDEN
 62
     7
370
     0
100
AcDbLine
 10
119.8988707727
 20
86.6063921993
 30
0.0
 11
111.8988707727
 21
86.6063921993
 31
0.0
  0
LINE
  5
EF
330
1F
100
AcDbEntity
  8
0
  6
HIDDEN
 62
     7
370
     0
100
AcDbLine
 10
123.1365455751
 20
86.6063921993
 30
0.0
 11
119.8988707727
 21
86.6063921993
 31
0.0
  0
LINE
  5
F0
330
1F
100
AcDbEntity
  8
0
  6
HIDDEN
 62
     7
370
     0
100
AcDbLine
 10
132.8988707727
 20
86.6063921993
 30
0.0
 11
126.7611959704
 21
86.6063921993
 31
0.0
  0
LINE
  5
F1
330
1F
100
AcDbEntity
  8
0
  6
HIDDEN
 62
     7
370
     0
100
AcDbLine
 10
119.8988707727
 20
139.4063921993
 30
0.0
 11
111.8988707727
 21
139.4063921993
 31
0.0
  0
LINE
  5
F2
330
1F
100
AcDbEntity
  8
0
  6
HIDDEN
 62
     7
370
     0
100
AcDbLine
 10
132.8988707727
 20
139.4063921993
 30
0.0
 11
126.4645732411
 21
139.4063921993
 31
0.0
  0
LINE
  5
F3
330
1F
100
AcDbEntity
  8
0
  6
HIDDEN
 62
     7
370
     0
100
AcDbLine
 10
123.4331683044
 20
139.4063921993
 30
0.0
 11
119.8988707727
 21
139.4063921993
 31
0.0
  0
SPLINE
  5
F4
330
1F
100
AcDbEntity
  8
0
  6
HIDDEN
 62
     7
370
     0
100
AcDbSpline
210
0.0
220
0.0
230
1.0
 70
     8
 71
     3
 72
    11
 73
     7
 74
     0
 42
0.00000001
 43
0.00000001
 12
1.0
 22
0.0
 32
0.0
 13
1.0
 23
0.0
 33
0.0
 40
0.0
 40
0.0
 40
0.0
 40
0.0
 40
0.0008203708524183
 40
0.0008203708524183
 40
0.0008203708524183
 40
0.0016409967870154
 40
0.0016409967870154
 40
0.0016409967870154
 40
0.0016409967870154
 10
76.19887077274164
 20
97.15435944870725
 30
0.0
 10
76.00771247244298
 20
97.11318042008811
 30
0.0
 10
75.8162854023708
 20
97.07442644785812
 30
0.0
 10
75.62463977885017
 20
97.03805868857958
 30
0.0
 10
75.43293437376971
 20
97.00167958481356
 30
0.0
 10
75.24099542171075
 20
96.96768533404598
 30
0.0
 10
75.04887077463992
 20
96.93603720865477
 30
0.0
  0
ELLIPSE
  5
F5
330
1F
100
AcDbEntity
  8
0
  6
HIDDEN
 62
     7
370
     0
100
AcDbEllipse
 10
70.80643891
 20
113.0063921993
 30
0.0
 11
20.19992452771986
 21
-1.421085471520200E-14
 31
0.0
210
0.0
220
0.0
230
1.0
 40
0.816496581
 41
1.300566354937426
 42
1.359198697443033
  0
LINE
  5
F6
330
1F
100
AcDbEntity
  8
0
  6
HIDDEN
 62
     7
370
     0
100
AcDbLine
 10
85.1488707727
 20
95.0163921993
 30
0.0
 11
85.1488707727
 21
96.7188785769
 31
0.0
  0
LINE
  5
F7
330
1F
100
AcDbEntity
  8
0
  6
HIDDEN
 62
     7
370
     0
100
AcDbLine
 10
76.1988707727
 20
95.0163921993
 30
0.0
 11
76.1988707727
 21
97.1543594487
 31
0.0
  0
LINE
  5
F8
330
1F
100
AcDbEntity
  8
0
  6
HIDDEN
 62
     7
370
     0
100
AcDbLine
 10
76.2799017861
 20
97.2049017633
 30
0.0
 11
76.1988707727
 21
97.1543594487
 31
0.0
  0
LINE
  5
F9
330
1F
100
AcDbEntity
  8
0
  6
HIDDEN
 62
     7
370
     0
100
AcDbLine
 10
76.1988707727
 20
130.9963921993
 30
0.0
 11
76.1988707727
 21
128.9010166483
 31
0.0
  0
SPLINE
  5
FA
330
1F
100
AcDbEntity
  8
0
  6
HIDDEN
 62
     7
370
     0
100
AcDbSpline
210
0.0
220
0.0
230
1.0
 70
     8
 71
     3
 72
     8
 73
     4
 74
     0
 42
0.00000001
 43
0.00000001
 12
1.0
 22
0.0
 32
0.0
 13
1.0
 23
0.0
 33
0.0
 40
0.0
 40
0.0
 40
0.0
 40
0.0
 40
1.0
 40
1.0
 40
1.0
 40
1.0
 10
76.19887077274164
 20
128.9010166483487
 30
0.0
 10
76.24887627058922
 20
128.8699808748159
 30
0.0
 10
76.29887634015772
 20
128.8389362304749
 30
0.0
 10
76.34887077284718
 20
128.8078826353816
 30
0.0
  0
LINE
  5
FB
330
1F
100
AcDbEntity
  8
0
  6
HIDDEN
 62
     7
370
     0
100
AcDbLine
 10
81.1488707727
 20
130.9963921993
 30
0.0
 11
81.1488707727
 21
129.2939058218
 31
0.0
  0
SPLINE
  5
FC
330
1F
100
AcDbEntity
  8
0
  6
HIDDEN
 62
     7
370
     0
100
AcDbSpline
210
0.0
220
0.0
230
1.0
 70
     8
 71
     3
 72
    20
 73
    16
 74
     0
 42
0.00000001
 43
0.00000001
 12
1.0
 22
0.0
 32
0.0
 13
1.0
 23
0.0
 33
0.0
 40
0.0
 40
0.0
 40
0.0
 40
0.0
 40
0.1119595197645658
 40
0.1774767634618356
 40
0.2490961890178973
 40
0.3298422315149356
 40
0.3986125823955669
 40
0.4998893016460264
 40
0.6138510292917939
 40
0.679015017669575
 40
0.749539420331935
 40
0.8296829944359103
 40
0.8981246285464773
 40
0.9995320175861896
 40
1.0
 40
1.0
 40
1.0
 40
1.0
 10
101.6977112226047
 20
89.40639843758215
 30
0.0
 10
101.6543874843089
 20
89.41982775561985
 30
0.0
 10
101.5857112621353
 20
89.44111573457728
 30
0.0
 10
101.1405321360945
 20
89.5444265462251
 30
0.0
 10
100.6139738524044
 20
89.65772977628677
 30
0.0
 10
99.92854883123651
 20
89.78066264407988
 30
0.0
 10
99.03523143392837
 20
89.90269710326218
 30
0.0
 10
97.92187204684781
 20
90.02043341104866
 30
0.0
 10
96.81109796626855
 20
90.03240891341464
 30
0.0
 10
95.926349664352
 20
90.00535062328544
 30
0.0
 10
95.25915306963918
 20
89.95741855888235
 30
0.0
 10
94.71788056735977
 20
89.90112504652134
 30
0.0
 10
94.3303006083373
 20
89.85604213588788
 30
0.0
 10
94.13636408831796
 20
89.81716896118121
 30
0.0
 10
94.19946654852995
 20
89.82787501842118
 30
0.0
 10
94.19975642076528
 20
89.8279241985757
 30
0.0
  0
LINE
  5
FD
330
1F
100
AcDbEntity
  8
0
  6
HIDDEN
 62
     7
370
     0
100
AcDbLine
 10
95.1088826871
 20
89.938730343
 30
0.0
 11
95.2927279982
 21
89.9569196853
 31
0.0
  0
LINE
  5
FE
330
1F
100
AcDbEntity
  8
0
  6
HIDDEN
 62
     7
370
     0
100
AcDbLine
 10
95.2927252998
 20
136.0557952821
 30
0.0
 11
95.1186520176
 21
136.0730048083
 31
0.0
  0
SPLINE
  5
FF
330
1F
100
AcDbEntity
  8
0
  6
HIDDEN
 62
     7
370
     0
100
AcDbSpline
210
0.0
220
0.0
230
1.0
 70
     8
 71
     3
 72
    20
 73
    16
 74
     0
 42
0.00000001
 43
0.00000001
 12
1.0
 22
0.0
 32
0.0
 13
1.0
 23
0.0
 33
0.0
 40
0.0
 40
0.0
 40
0.0
 40
0.0
 40
0.0004889684280501
 40
0.1018319933901125
 40
0.1702475582131287
 40
0.2503692056770502
 40
0.3209568221786551
 40
0.3861816196708298
 40
0.5002554836817573
 40
0.6012243489362008
 40
0.6697680558686374
 40
0.7502401907581328
 40
0.8220490693794319
 40
0.8877204546033431
 40
1.0
 40
1.0
 40
1.0
 40
1.0
 10
94.19978980552679
 20
136.1847936535425
 30
0.0
 10
94.19948616452987
 20
136.1848452406927
 30
0.0
 10
94.13625024536451
 20
136.1955887203066
 30
0.0
 10
94.32945427915507
 20
136.1567327296486
 30
0.0
 10
94.71640133405555
 20
136.1117092392439
 30
0.0
 10
95.25740825738444
 20
136.0554462771505
 30
0.0
 10
95.92490851885037
 20
136.0075150845566
 30
0.0
 10
96.81073637020206
 20
135.9804416288274
 30
0.0
 10
97.92154294231709
 20
135.9922676324078
 30
0.0
 10
99.03361330836442
 20
136.1097167075592
 30
0.0
 10
99.92471361455485
 20
136.2314210958009
 30
0.0
 10
100.6101980653322
 20
136.354242141376
 30
0.0
 10
101.1381859648519
 20
136.4676803930591
 30
0.0
 10
101.5855699163546
 20
136.5714209486984
 30
0.0
 10
101.6543803827126
 20
136.5928437419742
 30
0.0
 10
101.6977968900288
 20
136.6063606226207
 30
0.0
  0
LINE
  5
100
330
1F
100
AcDbEntity
  8
0
  6
HIDDEN
 62
     7
370
     0
100
AcDbLine
 10
203.2278380299
 20
108.8063921993
 30
0.0
 11
203.2278380299
 21
117.2063921993
 31
0.0
  0
LINE
  5
101
330
1F
100
AcDbEntity
  8
0
  6
HIDDEN
 62
     7
370
     0
100
AcDbLine
 10
203.9488707727
 20
110.0063921993
 30
0.0
 11
203.9488707727
 21
116.0063921993
 31
0.0
  0
SPLINE
  5
102
330
1F
100
AcDbEntity
  8
0
  6
HIDDEN
 62
     7
370
     0
100
AcDbSpline
210
0.0
220
0.0
230
1.0
 70
     8
 71
     3
 72
     8
 73
     4
 74
     0
 42
0.00000001
 43
0.00000001
 12
1.0
 22
0.0
 32
0.0
 13
1.0
 23
0.0
 33
0.0
 40
0.0
 40
0.0
 40
0.0
 40
0.0
 40
0.0001590976915385
 40
0.0001590976915385
 40
0.0001590976915385
 40
0.0001590976915385
 10
76.33403877873454
 20
97.20490176331832
 30
0.0
 10
76.28898730930501
 20
97.17692287966766
 30
0.0
 10
76.24393127196525
 20
97.14895134996534
 30
0.0
 10
76.19887077274166
 20
97.12098701128525
 30
0.0
  0
SPLINE
  5
103
330
1F
100
AcDbEntity
  8
0
  6
HIDDEN
 62
     7
370
     0
100
AcDbSpline
210
0.0
220
0.0
230
1.0
 70
     8
 71
     3
 72
    11
 73
     7
 74
     0
 42
0.00000001
 43
0.00000001
 12
1.0
 22
0.0
 32
0.0
 13
1.0
 23
0.0
 33
0.0
 40
0.0
 40
0.0
 40
0.0
 40
0.0
 40
0.000821290931132
 40
0.000821290931132
 40
0.000821290931132
 40
0.0016428257242788
 40
0.0016428257242788
 40
0.0016428257242788
 40
0.0016428257242788
 10
76.19887077274164
 20
97.12098701128525
 30
0.0
 10
76.0077257512592
 20
97.07770082246361
 30
0.0
 10
75.81630741558261
 20
97.03676431285785
 30
0.0
 10
75.62466134092148
 20
96.99816254150338
 30
0.0
 10
75.43295825937987
 20
96.95954928769842
 30
0.0
 10
75.24101313609454
 20
96.92326907844517
 30
0.0
 10
75.04887077274164
 20
96.88930217212706
 30
0.0
  0
LINE
  5
104
330
1F
100
AcDbEntity
  8
0
  6
HIDDEN
 62
     7
370
     0
100
AcDbLine
 10
123.0388707727
 20
133.1422588308
 30
0.0
 11
123.0388707727
 21
132.8563921993
 31
0.0
  0
LINE
  5
105
330
1F
100
AcDbEntity
  8
0
  6
HIDDEN
 62
     7
370
     0
100
AcDbLine
 10
126.8588707727
 20
133.1506353693
 30
0.0
 11
126.8588707727
 21
132.8563921993
 31
0.0
  0
LINE
  5
106
330
1F
100
AcDbEntity
  8
0
  6
HIDDEN
 62
     7
370
     0
100
AcDbLine
 10
128.3408036042
 20
137.4650818617
 30
0.0
 11
128.3408036042
 21
132.8563921993
 31
0.0
  0
SPLINE
  5
107
330
1F
100
AcDbEntity
  8
0
  6
HIDDEN
 62
     7
370
     0
100
AcDbSpline
210
0.0
220
0.0
230
1.0
 70
     8
 71
     3
 72
    24
 73
    20
 74
     0
 42
0.00000001
 43
0.00000001
 12
1.0
 22
0.0
 32
0.0
 13
1.0
 23
0.0
 33
0.0
 40
0.0
 40
0.0
 40
0.0
 40
0.0
 40
0.2499999999999952
 40
0.2499999999999952
 40
0.3749999999999937
 40
0.3749999999999937
 40
0.4374999999999931
 40
0.4374999999999931
 40
0.468749999999992
 40
0.468749999999992
 40
0.4999999999999909
 40
0.4999999999999909
 40
0.5624999999999933
 40
0.5624999999999933
 40
0.6249999999999958
 40
0.6249999999999958
 40
0.7499999999999981
 40
0.7499999999999981
 40
1.0
 40
1.0
 40
1.0
 40
1.0
 10
75.11153414746505
 20
93.33183965456924
 30
0.0
 10
75.12528726613526
 20
93.40248971255951
 30
0.0
 10
75.14305983354112
 20
93.46908782532445
 30
0.0
 10
75.19531092509649
 20
93.54318584555764
 30
0.0
 10
75.21634600067803
 20
93.5644436527192
 30
0.0
 10
75.26924640830649
 20
93.57258957886545
 30
0.0
 10
75.29035208118438
 20
93.57164977546968
 30
0.0
 10
75.33640424986235
 20
93.55063378389235
 30
0.0
 10
75.35477472184573
 20
93.53972497778473
 30
0.0
 10
75.39632635691144
 20
93.50709006683736
 30
0.0
 10
75.41889302966837
 20
93.485598086466
 30
0.0
 10
75.48167404612839
 20
93.41713214287968
 30
0.0
 10
75.51480380709627
 20
93.3710576846746
 30
0.0
 10
75.5717214935813
 20
93.28604979633992
 30
0.0
 10
75.59590751908506
 20
93.24576949515853
 30
0.0
 10
75.66111546946483
 20
93.1308332686926
 30
0.0
 10
75.69583152965608
 20
93.06025028354559
 30
0.0
 10
75.78904679998696
 20
92.85604452446698
 30
0.0
 10
75.83471933534763
 20
92.7331461421396
 30
0.0
 10
75.87302441884617
 20
92.61627286575202
 30
0.0
  0
SPLINE
  5
108
330
1F
100
AcDbEntity
  8
0
  6
HIDDEN
 62
     7
370
     0
100
AcDbSpline
210
0.0
220
0.0
230
1.0
 70
     8
 71
     3
 72
     8
 73
     4
 74
     0
 42
0.00000001
 43
0.00000001
 12
1.0
 22
0.0
 32
0.0
 13
1.0
 23
0.0
 33
0.0
 40
0.0
 40
0.0
 40
0.0
 40
0.0
 40
0.0011563724678166
 40
0.0011563724678166
 40
0.0011563724678166
 40
0.0011563724678166
 10
76.04887077274164
 20
125.6465345128204
 30
0.0
 10
75.71554965754449
 20
125.7755935384472
 30
0.0
 10
75.3822169767365
 20
125.9045538746209
 30
0.0
 10
75.04887077274161
 20
126.033465404394
 30
0.0
  0
SPLINE
  5
109
330
1F
100
AcDbEntity
  8
0
  6
HIDDEN
 62
     7
370
     0
100
AcDbSpline
210
0.0
220
0.0
230
1.0
 70
     8
 71
     3
 72
     8
 73
     4
 74
     0
 42
0.00000001
 43
0.00000001
 12
1.0
 22
0.0
 32
0.0
 13
1.0
 23
0.0
 33
0.0
 40
0.0
 40
0.0
 40
0.0
 40
0.0
 40
0.0011557494192775
 40
0.0011557494192775
 40
0.0011557494192775
 40
0.0011557494192775
 10
75.04887077274161
 20
99.97917033689913
 30
0.0
 10
75.38220458275576
 20
100.110794613094
 30
0.0
 10
75.71553819441844
 20
100.2426115266675
 30
0.0
 10
76.04887077274165
 20
100.3746149688304
 30
0.0
  0
SPLINE
  5
10A
330
1F
100
AcDbEntity
  8
0
  6
HIDDEN
 62
     7
370
     0
100
AcDbSpline
210
0.0
220
0.0
230
1.0
 70
     8
 71
     3
 72
     8
 73
     4
 74
     0
 42
0.00000001
 43
0.00000001
 12
1.0
 22
0.0
 32
0.0
 13
1.0
 23
0.0
 33
0.0
 40
0.0000000000000006
 40
0.0000000000000006
 40
0.0000000000000006
 40
0.0000000000000006
 40
0.0011560973009451
 40
0.0011560973009451
 40
0.0011560973009451
 40
0.0011560973009451
 10
75.04887077274161
 20
122.9872066926371
 30
0.0
 10
75.38221051032835
 20
122.8624629603638
 30
0.0
 10
75.71554114353697
 20
122.7377817361868
 30
0.0
 10
76.04887077274162
 20
122.6133315128556
 30
0.0
  0
SPLINE
  5
10B
330
1F
100
AcDbEntity
  8
0
  6
HIDDEN
 62
     7
370
     0
100
AcDbSpline
210
0.0
220
0.0
230
1.0
 70
     8
 71
     3
 72
     8
 73
     4
 74
     0
 42
0.00000001
 43
0.00000001
 12
1.0
 22
0.0
 32
0.0
 13
1.0
 23
0.0
 33
0.0
 40
0.0
 40
0.0
 40
0.0
 40
0.0
 40
0.0011564805411644
 40
0.0011564805411644
 40
0.0011564805411644
 40
0.0011564805411644
 10
76.04887077274162
 20
103.4055654143688
 30
0.0
 10
75.71556880734016
 20
103.2787144739346
 30
0.0
 10
75.38223199043351
 20
103.1521494050723
 30
0.0
 10
75.04887077274164
 20
103.0257494314116
 30
0.0
  0
CIRCLE
  5
10C
330
1F
100
AcDbEntity
  8
0
  6
HIDDEN
 62
     7
370
     0
100
AcDbCircle
 10
113.9488707727
 20
113.0063921993
 30
0.0
 40
5.0
  0
LINE
  5
10D
330
1F
100
AcDbEntity
  8
0
  6
HIDDEN
 62
     7
370
     0
100
AcDbLine
 10
110.9488707727
 20
127.3042273491
 30
0.0
 11
110.9488707727
 21
125.4003328422
 31
0.0
  0
LINE
  5
10E
330
1F
100
AcDbEntity
  8
0
  6
HIDDEN
 62
     7
370
     0
100
AcDbLine
 10
118.9488707727
 20
125.4003328422
 30
0.0
 11
118.9488707727
 21
127.3070227051
 31
0.0
  0
LINE
  5
10F
330
1F
100
AcDbEntity
  8
0
  6
HIDDEN
 62
     7
370
     0
100
AcDbLine
 10
106.9488707727
 20
87.6824610534
 30
0.0
 11
107.0430315483
 21
88.3524497846
 31
0.0
  0
LINE
  5
110
330
1F
100
AcDbEntity
  8
0
  6
HIDDEN
 62
     7
370
     0
100
AcDbLine
 10
107.0430315483
 20
137.6603346141
 30
0.0
 11
106.9488707727
 21
138.3303233453
 31
0.0
  0
ARC
  5
111
330
1F
100
AcDbEntity
  8
0
  6
HIDDEN
 62
     7
370
     0
100
AcDbCircle
 10
106.4488640201
 20
88.435954585
 30
0.0
 40
0.6000067526677242
100
AcDbArc
 50
352.0
 51
0.0
  0
ARC
  5
112
330
1F
100
AcDbEntity
  8
0
  6
HIDDEN
 62
     7
370
     0
100
AcDbCircle
 10
106.4488640201
 20
88.435954585
 30
0.0
 40
0.6000067526677282
100
AcDbArc
 50
0.0
 51
33.5571153394
  0
ARC
  5
113
330
1F
100
AcDbEntity
  8
0
  6
HIDDEN
 62
     7
370
     0
100
AcDbCircle
 10
106.4488640201
 20
137.5768298137
 30
0.0
 40
0.6000067526677308
100
AcDbArc
 50
348.75
 51
8.0
  0
LWPOLYLINE
  5
114
330
1F
100
AcDbEntity
  8
0
  6
HIDDEN
 62
     7
370
     0
100
AcDbPolyline
 90
        3
 70
   128
 43
0.0
 10
107.0373418112
 20
137.4597743032
 10
107.0031979782
 20
137.3472171702
 10
106.9488707727
 20
137.2451652987
  0
LINE
  5
115
330
1F
100
AcDbEntity
  8
0
  6
HIDDEN
 62
     7
370
     0
100
AcDbLine
 10
107.0488707727
 20
88.435954585
 30
0.0
 11
107.0488707727
 21
137.5768298137
 31
0.0
  0
LINE
  5
116
330
1F
100
AcDbEntity
  8
0
  6
HIDDEN
 62
     7
370
     0
100
AcDbLine
 10
90.031306338
 20
93.0063921993
 30
0.0
 11
94.2229782262
 21
93.0063921993
 31
0.0
  0
LINE
  5
117
330
1F
100
AcDbEntity
  8
0
  6
HIDDEN
 62
     7
370
     0
100
AcDbLine
 10
94.2229782262
 20
133.0063921993
 30
0.0
 11
90.031306338
 21
133.0063921993
 31
0.0
  0
ARC
  5
118
330
1F
100
AcDbEntity
  8
0
  6
HIDDEN
 62
     7
370
     0
100
AcDbCircle
 10
100.7038727743
 20
101.0063921993
 30
0.0
 40
8.000000000000016
100
AcDbArc
 50
276.8813033455
 51
321.3178125465
  0
ARC
  5
119
330
1F
100
AcDbEntity
  8
0
  6
HIDDEN
 62
     7
370
     0
100
AcDbCircle
 10
100.7038727743
 20
125.0063921993
 30
0.0
 40
8.000000000000025
100
AcDbArc
 50
38.6821874535
 51
83.1303396552
  0
ARC
  5
11A
330
1F
100
AcDbEntity
  8
0
  6
HIDDEN
 62
     7
370
     0
100
AcDbCircle
 10
90.031306338
 20
93.6063921993
 30
0.0
 40
0.6000000000000085
100
AcDbArc
 50
210.0
 51
270.0
  0
ARC
  5
11B
330
1F
100
AcDbEntity
  8
0
  6
HIDDEN
 62
     7
370
     0
100
AcDbCircle
 10
90.031306338
 20
132.4063921993
 30
0.0
 40
0.5999999999999943
100
AcDbArc
 50
90.0
 51
150.0
  0
LINE
  5
11C
330
1F
100
AcDbEntity
  8
0
  6
HIDDEN
 62
     7
370
     0
100
AcDbLine
 10
89.5116910958
 20
132.7063921993
 30
0.0
 11
87.952845369
 21
130.0063921993
 31
0.0
  0
LINE
  5
11D
330
1F
100
AcDbEntity
  8
0
  6
HIDDEN
 62
     7
370
     0
100
AcDbLine
 10
87.952845369
 20
96.0063921993
 30
0.0
 11
89.5116910958
 21
93.3063921993
 31
0.0
  0
LINE
  5
11E
330
1F
100
AcDbEntity
  8
0
  6
HIDDEN
 62
     7
370
     0
100
AcDbLine
 10
110.9488707727
 20
140.2807260586
 30
0.0
 11
110.9488707727
 21
136.951994614
 31
0.0
  0
LINE
  5
11F
330
1F
100
AcDbEntity
  8
0
  6
HIDDEN
 62
     7
370
     0
100
AcDbLine
 10
118.9488707727
 20
136.951994614
 30
0.0
 11
118.9488707727
 21
140.2860584373
 31
0.0
  0
ARC
  5
120
330
1F
100
AcDbEntity
  8
0
  6
HIDDEN
 62
     7
370
     0
100
AcDbCircle
 10
115.3988707727
 20
97.2813921993
 30
0.0
 40
1.500000000000001
100
AcDbArc
 50
238.2116693829
 51
0.0
  0
ARC
  5
121
330
1F
100
AcDbEntity
  8
0
  6
HIDDEN
 62
     7
370
     0
100
AcDbCircle
 10
115.3988707727
 20
128.7313921993
 30
0.0
 40
1.500000000000001
100
AcDbArc
 50
0.0
 51
121.7883306171
  0
LINE
  5
122
330
1F
100
AcDbEntity
  8
0
  6
HIDDEN
 62
     7
370
     0
100
AcDbLine
 10
106.9488707727
 20
96.0063921993
 30
0.0
 11
114.6086967413
 21
96.0063921993
 31
0.0
  0
LINE
  5
123
330
1F
100
AcDbEntity
  8
0
  6
HIDDEN
 62
     7
370
     0
100
AcDbLine
 10
114.6086967413
 20
130.0063921993
 30
0.0
 11
106.9488707727
 21
130.0063921993
 31
0.0
  0
LINE
  5
124
330
1F
100
AcDbEntity
  8
0
  6
HIDDEN
 62
     7
370
     0
100
AcDbLine
 10
85.1488707727
 20
96.0063921993
 30
0.0
 11
87.952845369
 21
96.0063921993
 31
0.0
  0
LINE
  5
125
330
1F
100
AcDbEntity
  8
0
  6
HIDDEN
 62
     7
370
     0
100
AcDbLine
 10
87.952845369
 20
130.0063921993
 30
0.0
 11
81.1488707727
 21
130.0063921993
 31
0.0
  0
LINE
  5
126
330
1F
100
AcDbEntity
  8
0
  6
HIDDEN
 62
     7
370
     0
100
AcDbLine
 10
125.7488707727
 20
103.5063921993
 30
0.0
 11
128.7488707727
 21
103.5063921993
 31
0.0
  0
LINE
  5
127
330
1F
100
AcDbEntity
  8
0
  6
HIDDEN
 62
     7
370
     0
100
AcDbLine
 10
128.7488707727
 20
122.5063921993
 30
0.0
 11
125.7488707727
 21
122.5063921993
 31
0.0
  0
LINE
  5
128
330
1F
100
AcDbEntity
  8
0
  6
HIDDEN
 62
     7
370
     0
100
AcDbLine
 10
116.8988707727
 20
104.0063921993
 30
0.0
 11
117.3988707727
 21
104.5063921993
 31
0.0
  0
LINE
  5
129
330
1F
100
AcDbEntity
  8
0
  6
HIDDEN
 62
     7
370
     0
100
AcDbLine
 10
117.3988707727
 20
121.5063921993
 30
0.0
 11
116.8988707727
 21
122.0063921993
 31
0.0
  0
LINE
  5
12A
330
1F
100
AcDbEntity
  8
0
  6
HIDDEN
 62
     7
370
     0
100
AcDbLine
 10
117.3988707727
 20
104.5063921993
 30
0.0
 11
125.7488707727
 21
104.5063921993
 31
0.0
  0
LINE
  5
12B
330
1F
100
AcDbEntity
  8
0
  6
HIDDEN
 62
     7
370
     0
100
AcDbLine
 10
125.7488707727
 20
121.5063921993
 30
0.0
 11
117.3988707727
 21
121.5063921993
 31
0.0
  0
LINE
  5
12C
330
1F
100
AcDbEntity
  8
0
  6
HIDDEN
 62
     7
370
     0
100
AcDbLine
 10
111.8988707727
 20
144.5063921993
 30
0.0
 11
111.8988707727
 21
139.4063921993
 31
0.0
  0
LINE
  5
12D
330
1F
100
AcDbEntity
  8
0
  6
HIDDEN
 62
     7
370
     0
100
AcDbLine
 10
102.1333086032
 20
88.9270208658
 30
0.0
 11
101.6988764537
 21
89.4060868849
 31
0.0
  0
LINE
  5
12E
330
1F
100
AcDbEntity
  8
0
  6
HIDDEN
 62
     7
370
     0
100
AcDbLine
 10
94.1988731286
 20
89.827774844
 30
0.0
 11
93.7164393853
 21
89.3487088686
 31
0.0
  0
LINE
  5
12F
330
1F
100
AcDbEntity
  8
0
  6
HIDDEN
 62
     7
370
     0
100
AcDbLine
 10
93.7163174571
 20
136.6640702397
 30
0.0
 11
94.198868208
 21
136.1849499818
 31
0.0
  0
LINE
  5
130
330
1F
100
AcDbEntity
  8
0
  6
HIDDEN
 62
     7
370
     0
100
AcDbLine
 10
101.6988706547
 20
136.6066477594
 30
0.0
 11
102.1334130451
 21
137.08576801
 31
0.0
  0
LINE
  5
131
330
1F
100
AcDbEntity
  8
0
  6
HIDDEN
 62
     7
370
     0
100
AcDbLine
 10
128.7488707727
 20
108.8063921993
 30
0.0
 11
203.2278380299
 21
108.8063921993
 31
0.0
  0
LINE
  5
132
330
1F
100
AcDbEntity
  8
0
  6
HIDDEN
 62
     7
370
     0
100
AcDbLine
 10
203.2278380299
 20
117.2063921993
 30
0.0
 11
128.7488707727
 21
117.2063921993
 31
0.0
  0
LINE
  5
133
330
1F
100
AcDbEntity
  8
0
  6
HIDDEN
 62
     7
370
     0
100
AcDbLine
 10
203.2278380299
 20
108.8063921993
 30
0.0
 11
203.9488707727
 21
110.0063921993
 31
0.0
  0
LINE
  5
134
330
1F
100
AcDbEntity
  8
0
  6
HIDDEN
 62
     7
370
     0
100
AcDbLine
 10
203.9488707727
 20
116.0063921993
 30
0.0
 11
203.2278380299
 21
117.2063921993
 31
0.0
  0
LINE
  5
135
330
1F
100
AcDbEntity
  8
0
  6
HIDDEN
 62
     7
370
     0
100
AcDbLine
 10
101.6988707727
 20
89.4065707866
 30
0.0
 11
101.6988707727
 21
93.0709918611
 31
0.0
  0
LINE
  5
136
330
1F
100
AcDbEntity
  8
0
  6
HIDDEN
 62
     7
370
     0
100
AcDbLine
 10
94.1988707727
 20
93.0107699674
 30
0.0
 11
94.1988707727
 21
89.8280980818
 31
0.0
  0
LINE
  5
137
330
1F
100
AcDbEntity
  8
0
  6
HIDDEN
 62
     7
370
     0
100
AcDbLine
 10
101.6988707727
 20
132.9417925376
 30
0.0
 11
101.6988707727
 21
136.6060943378
 31
0.0
  0
LINE
  5
138
330
1F
100
AcDbEntity
  8
0
  6
HIDDEN
 62
     7
370
     0
100
AcDbLine
 10
94.1988707727
 20
136.1846947905
 30
0.0
 11
94.1988707727
 21
133.0020144313
 31
0.0
  0
ARC
  5
139
330
1F
100
AcDbEntity
  8
0
  6
HIDDEN
 62
     7
370
     0
100
AcDbCircle
 10
236.6488707727
 20
109.7063921993
 30
0.0
 40
0.2999999999999972
100
AcDbArc
 50
0.0
 51
90.0
  0
ARC
  5
13A
330
1F
100
AcDbEntity
  8
0
  6
HIDDEN
 62
     7
370
     0
100
AcDbCircle
 10
236.6488707727
 20
116.3063921993
 30
0.0
 40
0.2999999999999972
100
AcDbArc
 50
270.0
 51
0.0
  0
LINE
  5
13B
330
1F
100
AcDbEntity
  8
0
  6
HIDDEN
 62
     7
370
     0
100
AcDbLine
 10
203.9488707727
 20
110.0063921993
 30
0.0
 11
236.6488707727
 21
110.0063921993
 31
0.0
  0
LINE
  5
13C
330
1F
100
AcDbEntity
  8
0
  6
HIDDEN
 62
     7
370
     0
100
AcDbLine
 10
236.6488707727
 20
116.0063921993
 30
0.0
 11
203.9488707727
 21
116.0063921993
 31
0.0
  0
DIMENSION
  5
13D
330
1F
100
AcDbEntity
  8
VERMASSUNG
100
AcDbDimension
  2
_D
 10
244.1463705309
 20
110.0063921993
 30
0.0
 11
244.1463705309
 21
113.0063921993
 31
0.0
 70
   160
  1
%%c<>
 71
     2
 42
-1.0
  3
SLDDIMSTYLE0
100
AcDbAlignedDimension
 13
236.6488707727
 23
116.0063921993
 33
0.0
 14
236.6488707727
 24
110.0063921993
 34
0.0
 50
90.0
100
AcDbRotatedDimension
  0
DIMENSION
  5
14B
330
1F
100
AcDbEntity
  8
VERMASSUNG
100
AcDbDimension
  2
_D_1
 10
250.1463705309
 20
98.0063921993
 30
0.0
 11
250.1463705309
 21
113.0063921993
 31
0.0
 70
   160
  1
%%c<>
 71
     2
 42
-1.0
  3
SLDDIMSTYLE1
100
AcDbAlignedDimension
 13
223.0095757894
 23
128.0063921993
 33
0.0
 14
223.0095757894
 24
98.0063921993
 34
0.0
 50
90.0
100
AcDbRotatedDimension
  0
DIMENSION
  5
157
330
1F
100
AcDbEntity
  8
VERMASSUNG
100
AcDbDimension
  2
_D_2
 10
236.9488707727
 20
150.1374864572
 30
0.0
 11
184.9238707727
 21
150.1374864572
 31
0.0
 70
   160
  1
<>
 71
     2
 42
-1.0
  3
SLDDIMSTYLE1
100
AcDbAlignedDimension
 13
132.8988707727
 23
142.8528325231
 33
0.0
 14
236.9488707727
 24
120.2322516777
 34
0.0
100
AcDbRotatedDimension
  0
DIMENSION
  5
161
330
1F
100
AcDbEntity
  8
VERMASSUNG
100
AcDbDimension
  2
_D_3
 10
236.9488707727
 20
156.1374864572
 30
0.0
 11
171.9488707727
 21
156.1374864572
 31
0.0
 70
   160
  1
<>
 71
     2
 42
-1.0
  3
SLDDIMSTYLE1
100
AcDbAlignedDimension
 13
106.9488707727
 23
144.2063921993
 33
0.0
 14
236.9488707727
 24
120.2322516777
 34
0.0
100
AcDbRotatedDimension
  0
DIMENSION
  5
16B
330
1F
100
AcDbEntity
  8
VERMASSUNG
100
AcDbDimension
  2
_D_4
 10
236.9488707727
 20
162.1374864572
 30
0.0
 11
155.9988707727
 21
162.1374864572
 31
0.0
 70
   160
  1
<>
 71
     2
 42
-1.0
  3
SLDDIMSTYLE1
100
AcDbAlignedDimension
 13
75.0488707727
 23
132.6970699458
 33
0.0
 14
236.9488707727
 24
120.2322516777
 34
0.0
100
AcDbRotatedDimension
  0
DIMENSION
  5
175
330
1F
100
AcDbEntity
  8
VERMASSUNG
100
AcDbDimension
  2
_D_5
 10
69.1322860238
 20
81.5063921993
 30
0.0
 11
69.1322860238
 21
113.0063921993
 31
0.0
 70
   160
  1
HSK A %%c<>
 71
     2
 42
-1.0
  3
SLDDIMSTYLE1
100
AcDbAlignedDimension
 13
107.2488707727
 23
144.5063921993
 33
0.0
 14
107.2488707727
 24
81.5063921993
 34
0.0
 50
90.0
100
AcDbRotatedDimension
  0
LINE
  5
181
330
1F
100
AcDbEntity
  8
VERMASSUNG
  6
CENTERX2
370
     0
100
AcDbLine
 10
70.0605633803
 20
113.0063921993
 30
0.0
 11
238.7749729144
 21
113.0063921993
 31
0.0
  0
OLE2FRAME
  5
182
330
1F
100
AcDbEntity
  8
0
100
AcDbOle2Frame
 70
     2
  3
Paintbrush-Bild
 10
13.8511154363
 20
38.264191557
 30
0.0
 11
51.6290888628
 21
31.9806341108
 31
0.0
 71
     2
 72
     0
 73
     1
 90
    12928
310
80552BED0767C5B32B40DDAF6807D121434000000000000000006FFBDDFB85D0
310
4940DDAF6807D121434000000000000000006FFBDDFB85D04940416F4BD60AFB
310
3F4000000000000000002BED0767C5B32B40416F4BD60AFB3F40000000000000
310
0000000000000100000000010000010000000100000000000100000000320000
310
D0CF11E0A1B11AE1000000000000000000000000000000003E000300FEFF0900
310
0600000000000000000000000100000001000000000000000010000002000000
310
01000000FEFFFFFF0000000000000000FFFFFFFFFFFFFFFFFFFFFFFFFFFFFFFF
310
FFFFFFFFFFFFFFFFFFFFFFFFFFFFFFFFFFFFFFFFFFFFFFFFFFFFFFFFFFFFFFFF
310
FFFFFFFFFFFFFFFFFFFFFFFFFFFFFFFFFFFFFFFFFFFFFFFFFFFFFFFFFFFFFFFF
310
FFFFFFFFFFFFFFFFFFFFFFFFFFFFFFFFFFFFFFFFFFFFFFFFFFFFFFFFFFFFFFFF
310
FFFFFFFFFFFFFFFFFFFFFFFFFFFFFFFFFFFFFFFFFFFFFFFFFFFFFFFFFFFFFFFF
310
FFFFFFFFFFFFFFFFFFFFFFFFFFFFFFFFFFFFFFFFFFFFFFFFFFFFFFFFFFFFFFFF
310
FFFFFFFFFFFFFFFFFFFFFFFFFFFFFFFFFFFFFFFFFFFFFFFFFFFFFFFFFFFFFFFF
310
FFFFFFFFFFFFFFFFFFFFFFFFFFFFFFFFFFFFFFFFFFFFFFFFFFFFFFFFFFFFFFFF
310
FFFFFFFFFFFFFFFFFFFFFFFFFFFFFFFFFFFFFFFFFFFFFFFFFFFFFFFFFFFFFFFF
310
FFFFFFFFFFFFFFFFFFFFFFFFFFFFFFFFFFFFFFFFFFFFFFFFFFFFFFFFFFFFFFFF
310
FFFFFFFFFFFFFFFFFFFFFFFFFFFFFFFFFFFFFFFFFFFFFFFFFFFFFFFFFFFFFFFF
310
FFFFFFFFFFFFFFFFFFFFFFFFFFFFFFFFFFFFFFFFFFFFFFFFFFFFFFFFFFFFFFFF
310
FFFFFFFFFFFFFFFFFFFFFFFFFFFFFFFFFFFFFFFFFFFFFFFFFFFFFFFFFFFFFFFF
310
FFFFFFFFFFFFFFFFFFFFFFFFFFFFFFFFFFFFFFFFFFFFFFFFFFFFFFFFFFFFFFFF
310
FDFFFFFFFEFFFFFFFEFFFFFFFEFFFFFF05000000060000000700000008000000
310
090000000A0000000B0000000C0000000D0000000E0000000F00000010000000
310
11000000120000001300000014000000150000001600000017000000FEFFFFFF
310
FFFFFFFFFFFFFFFFFFFFFFFFFFFFFFFFFFFFFFFFFFFFFFFFFFFFFFFFFFFFFFFF
310
FFFFFFFFFFFFFFFFFFFFFFFFFFFFFFFFFFFFFFFFFFFFFFFFFFFFFFFFFFFFFFFF
310
FFFFFFFFFFFFFFFFFFFFFFFFFFFFFFFFFFFFFFFFFFFFFFFFFFFFFFFFFFFFFFFF
310
FFFFFFFFFFFFFFFFFFFFFFFFFFFFFFFFFFFFFFFFFFFFFFFFFFFFFFFFFFFFFFFF
310
FFFFFFFFFFFFFFFFFFFFFFFFFFFFFFFFFFFFFFFFFFFFFFFFFFFFFFFFFFFFFFFF
310
FFFFFFFFFFFFFFFFFFFFFFFFFFFFFFFFFFFFFFFFFFFFFFFFFFFFFFFFFFFFFFFF
310
FFFFFFFFFFFFFFFFFFFFFFFFFFFFFFFFFFFFFFFFFFFFFFFFFFFFFFFFFFFFFFFF
310
FFFFFFFFFFFFFFFFFFFFFFFFFFFFFFFFFFFFFFFFFFFFFFFFFFFFFFFFFFFFFFFF
310
FFFFFFFFFFFFFFFFFFFFFFFFFFFFFFFFFFFFFFFFFFFFFFFFFFFFFFFFFFFFFFFF
310
FFFFFFFFFFFFFFFFFFFFFFFFFFFFFFFFFFFFFFFFFFFFFFFFFFFFFFFFFFFFFFFF
310
FFFFFFFFFFFFFFFFFFFFFFFFFFFFFFFFFFFFFFFFFFFFFFFFFFFFFFFFFFFFFFFF
310
FFFFFFFFFFFFFFFFFFFFFFFFFFFFFFFFFFFFFFFFFFFFFFFFFFFFFFFFFFFFFFFF
310
FFFFFFFFFFFFFFFFFFFFFFFFFFFFFFFFFFFFFFFFFFFFFFFFFFFFFFFFFFFFFFFF
310
52006F006F007400200045006E00740072007900000000000000000000000000
310
0000000000000000000000000000000000000000000000000000000000000000
310
16000500FFFFFFFFFFFFFFFF020000000A00030000000000C000000000000046
310
0000000000000000000000003099D69D78B6CD0103000000C000000000000000
310
01004F006C006500000000000000000000000000000000000000000000000000
310
0000000000000000000000000000000000000000000000000000000000000000
310
0A000200FFFFFFFFFFFFFFFFFFFFFFFF00000000000000000000000000000000
310
0000000000000000000000000000000000000000000000001400000000000000
310
010043006F006D0070004F0062006A0000000000000000000000000000000000
310
0000000000000000000000000000000000000000000000000000000000000000
310
120002010100000003000000FFFFFFFF00000000000000000000000000000000
310
0000000000000000000000000000000000000000010000004D00000000000000
310
01004F006C006500310030004E00610074006900760065000000000000000000
310
0000000000000000000000000000000000000000000000000000000000000000
310
1A000200FFFFFFFFFFFFFFFFFFFFFFFF00000000000000000000000000000000
310
0000000000000000000000000000000000000000040000002426000000000000
310
FEFFFFFF02000000FEFFFFFFFFFFFFFFFFFFFFFFFFFFFFFFFFFFFFFFFFFFFFFF
310
FFFFFFFFFFFFFFFFFFFFFFFFFFFFFFFFFFFFFFFFFFFFFFFFFFFFFFFFFFFFFFFF
310
FFFFFFFFFFFFFFFFFFFFFFFFFFFFFFFFFFFFFFFFFFFFFFFFFFFFFFFFFFFFFFFF
310
FFFFFFFFFFFFFFFFFFFFFFFFFFFFFFFFFFFFFFFFFFFFFFFFFFFFFFFFFFFFFFFF
310
FFFFFFFFFFFFFFFFFFFFFFFFFFFFFFFFFFFFFFFFFFFFFFFFFFFFFFFFFFFFFFFF
310
FFFFFFFFFFFFFFFFFFFFFFFFFFFFFFFFFFFFFFFFFFFFFFFFFFFFFFFFFFFFFFFF
310
FFFFFFFFFFFFFFFFFFFFFFFFFFFFFFFFFFFFFFFFFFFFFFFFFFFFFFFFFFFFFFFF
310
FFFFFFFFFFFFFFFFFFFFFFFFFFFFFFFFFFFFFFFFFFFFFFFFFFFFFFFFFFFFFFFF
310
FFFFFFFFFFFFFFFFFFFFFFFFFFFFFFFFFFFFFFFFFFFFFFFFFFFFFFFFFFFFFFFF
310
FFFFFFFFFFFFFFFFFFFFFFFFFFFFFFFFFFFFFFFFFFFFFFFFFFFFFFFFFFFFFFFF
310
FFFFFFFFFFFFFFFFFFFFFFFFFFFFFFFFFFFFFFFFFFFFFFFFFFFFFFFFFFFFFFFF
310
FFFFFFFFFFFFFFFFFFFFFFFFFFFFFFFFFFFFFFFFFFFFFFFFFFFFFFFFFFFFFFFF
310
FFFFFFFFFFFFFFFFFFFFFFFFFFFFFFFFFFFFFFFFFFFFFFFFFFFFFFFFFFFFFFFF
310
FFFFFFFFFFFFFFFFFFFFFFFFFFFFFFFFFFFFFFFFFFFFFFFFFFFFFFFFFFFFFFFF
310
FFFFFFFFFFFFFFFFFFFFFFFFFFFFFFFFFFFFFFFFFFFFFFFFFFFFFFFFFFFFFFFF
310
FFFFFFFFFFFFFFFFFFFFFFFFFFFFFFFFFFFFFFFFFFFFFFFFFFFFFFFFFFFFFFFF
310
0100000200000000000000000000000000000000000000000000000000000000
310
0000000000000000000000000000000000000000000000000000000000000000
310
0100FEFF030A0000FFFFFFFF0A00030000000000C00000000000004607000000
310
5042727573680007000000504272757368000700000050427275736800F439B2
310
7100000000000000000000000000000000000000000000000000000000000000
310
0000000000000000000000000000000000000000000000000000000000000000
310
0000000000000000000000000000000000000000000000000000000000000000
310
0000000000000000000000000000000000000000000000000000000000000000
310
0000000000000000000000000000000000000000000000000000000000000000
310
0000000000000000000000000000000000000000000000000000000000000000
310
0000000000000000000000000000000000000000000000000000000000000000
310
0000000000000000000000000000000000000000000000000000000000000000
310
0000000000000000000000000000000000000000000000000000000000000000
310
0000000000000000000000000000000000000000000000000000000000000000
310
0000000000000000000000000000000000000000000000000000000000000000
310
0000000000000000000000000000000000000000000000000000000000000000
310
20260000424D0E260000000000003E00000028000000B40200006E0000000100
310
01000000000000000000130B0000130B00000200000002000000000000FFFFFF
310
FFFFFFFFFFFFFFFFFFFFFFFFFFFFFFFFFFFFFFFFFFFFFFFFFFFFFFFFFFFFFFFF
310
FFFFFFFFFFFFFFFFFFFFFFFFFFFFFFFFFFFFFFFFFFFFFFFFFFFFFFFFFFFFFFFF
310
FFFFFFFFFFFFFFFFFFFFFFFFFFFFFFFFFFFFFFFFFFFFFFFFF000FFFFFFFFFFFF
310
FFFFFFFFFFFFFFFFFFFFFFFFFFFFFFFFFFFFFFFFFFFFFFFFFFFFFFFFFFFFFFFF
310
FFFFFFFFFFFFFFFFFFFFFFFFFFFFFFFFFFFFFFFFFFFFFFFFFFFFFFFFFFFFFFFF
310
FFFFFFFFFFFFFFFFFFFFFFFFFFFFFFFFF000FFFFFFFFFFFFFFFFFFFFFFFFFFFF
310
FFFFFFFFFFFFFFFFFFFFFFFFFFFFFFFFFFFFFFFFFFFFFFFFFFFFFFFFFFFFFFFF
310
FFFFFFFFFFFFFFFFFFFFFFFFFFFFFFFFFFFFFFFFFFFFFFFFFFFFFFFFFFFFFFFF
310
FFFFFFFFFFFFFFFFF000FFFFFFFFFFFFFFFFFFFFFFFFFFFFFFFFFFFFFFFFFFFF
310
FFFFFFFFFFFFFFFFFFFFFFFFFFFFFFFFFFFFFFFFFFFFFFFFFFFFFFFFFFFFFFFF
310
FFFFFFFFFFFFFFFFFFFFFFFFFFFFFFFFFFFFFFFFFFFFFFFFFFFFFFFFFFFFFFFF
310
F000FFFFFFFFFFFFFFFFFFFFFFFFFFFFFFFFFFFFFFFFFFFFFFFFFFFFFFFFFFFF
310
FFFFFFFFFFFFFFFFFFFFFFFFFFFFFFFFFFFFFFFFFFFFFFFFFFFFFFFFFFFFFFFF
310
FFFFFFFFFFFFFFFFFFFFFFFFFFFFFFFFFFFFFFFFFFFFFFFFF000FFFFFFFFFFFF
310
FFFFFFFFFFFFFFFFFFFFFFFFFFFFFFFFFFFFFFFFFFFFFFFFFFFFFFFFFFFFFFFF
310
FFFFFFFFFFFFFFFFFFFFFFFFFFFFFFFFFFFFFFFFFFFFFFFFFFFFFFFFFFFFFFFF
310
FFFFFFFFFFFFFFFFFFFFFFFFFFFFFFFFF000FFFFFFFFFFFFFFFFFFFFFFFFFFFF
310
FFFFFFFFFFFFFFFFFFFFFFFFFFFFFFFFFFFFFFFFFFFFFFFFFFFFFFFFFFFFFFFF
310
FFFFFFFFFFFFFFFFFFFFFFFFFFFFFFFFFFFFFFFFFFFFFFFFFFFFFFFFFFFFFFFF
310
FFFFFFFFFFFFFFFFF000FFFFFFFFFFFFFFFFFFFFFFFFFFFFFFFFFFFFFFFFFFFF
310
FFFFFFFFFFFFFFFFFFFFFFFFFFFFFFFFFFFFFFFFFFFFFFFFFFFFFFFFFFFFFFFF
310
FFFFFFFFFFFFFFFFFFFFFFFFFFFFFFFFFFFFFFFFFFFFFFFFFFFFFFFFFFFFFFFF
310
F000FFFFFFFFFFFFFFFFFFFFFFFFFFFFFFFFFFFFFFFFFFFFFFFFFFFFFFFFFFFF
310
FFFFFFFFFFFFFFFFFFFFFFFFFFFFFFFFFFFFFFFFFFFFFFFFFFFFFFFFFFFFFFFF
310
FFFFFFFFFFFFFFFFFFFFFFFFFFFFFFFFFFFFFFFFFFFFFFFFF000FFFFFFFFFFFF
310
FFFFFFFFFFFFFFFFFFFFFFFFFFFFFFFFFFFFFFFFFFFFFFFFFFFFFFFFFFFFFFFF
310
FFFFFFFFFFFFFFFFFFFFFFFFFFFFFFFFFFFFFFFFFFFFFFFFFFFFFFFFFFFFFFFF
310
FFFFFFFFFFFFFFFFFFFFFFFFFFFFFFFFF000FFFFFFFFFFFFFFFFFFFFFFFFFFFF
310
FFFFFFFFFFFFFFFFFFFFFFFFFFFFFFFFFFFFFFFFFFFFFFFFFFFFFFFFFFFFFFFF
310
FFFFFFFFFFFFFFFFFFFFFFFFFFFFFFFFFFFFFFFFFFFFFFFFFFFFFFFFFFFFFFFF
310
FFFFFFFFFFFFFFFFF000FFFFFFFFFFFFFFFFFFFFFFFFFFFFFFFFFFFFFFFFFFFF
310
FFFFFFFFFFFFFFFFFFFFFFFFFFFFFFFFFFFFFFFFFFFFFFFFFFFFFFFFFFFFFFFF
310
FFFFFFFFFFFFFFFFFFFFFFFFFFFFFFFFFFFFFFFFFFFFFFFFFFFFFFFFFFFFFFFF
310
F000FFFFFFFFFFFFFFFFFFFFFFFFFFFFFFFFFFFFFFFFFFFFFFFFFFFFFFFFFFFF
310
FFFFFFFFFFFFFFFFFFFFFFFFFFFFFFFFFFFFFFFFFFFFFFFFFFFFFFFFFFFFFFFF
310
FFFFFFFFFFFFFFFFFFFFFFFFFFFFFFFFFFFFFFFFFFFFFFFFF000FFFFFFFFFFFF
310
FFFFFFFFFFFFFFFFFFFFFFFFFFFFFFFFFFFFFFFFFFFFFFFFFFFFFFFFFFFFFFFF
310
FFFFFFFFFFFFFFFFFFFFFFFFFFFFFFFFFFFFFFFFFFFFFFFFFFFFFFFFFFFFFFFF
310
FFFFFFFFFFFFFFFFFFFFFFFFFFFFFFFFF000FFFFFFFFFFFFFFFFFFFFFFFFFFFF
310
FFFFFFFFFFFFFFFFFFFFFFFFFFFFFFFFFFFFFFFFFFFFFFFFFFFFFFFFFFFFFFFF
310
FFFFFFFFFFFFFFFFFFFFFFFFFFFFFFFFFFFFFFFFFFFFFFFFFFFFFFFFFFFFFFFF
310
FFFFFFFFFFFFFFFFF000FFFFFFFFFFFFFFFFFFFFFFFFFFFFFFFFFFFFFFFFFFFF
310
FFFFFFFFFFFFFFFFFFFFFFFFFFFFFFFFFFFFFFFFFFFFFFFFFFFFFFFFFFFFFFFF
310
FFFFFFFFFFFFFFFFFFFFFFFFFFFFFFFFFFFFFFFFFFFFFFFFFFFFFFFFFFFFFFFF
310
F000FFFFFFFFFFFFFFFFFFFFFFFFFFFFFFFFFFFFFFFFFFFFFFFFFFFFFFFFFFFF
310
FFFFFFFFFFFFFFFFFFFFFFFFFFFFFFFFFFFFFFFFFFFFFFFFFFFFFFFFFFFFFFFF
310
FFFFFFFFFFFFFFFFFFFFFFFFFFFFFFFFFFFFFFFFFFFFFFFFF000FFFFFFFFFFFF
310
FFFFFFFFFFFFFFFFFFFFFFFFFFFFFFFFFFFFFFFFFFFFFFFFFFFFFFFFFFFFFFFF
310
FFFFFFFFFFFFFFFFFFFFFFFFFFFFFFFFFFFFFFFFFFFFFFFFFFFFFFFFFFFFFFFF
310
FFFFFFFFFFFFFFFFFFFFFFFFFFFFFFFFF000FFFFFFFFFFFFFFFFFFFFFFFFFFFF
310
FFFFFFFFFFFFFFFFFFFFFFFFFFFFFFFFFFFFFFFFFFFFFFFFFFFFFFFFFFFFFFFF
310
FFFFFFFFFFFFFFFFFFFFFFFFFFFFFFFFFFFFFFFFFFFFFFFFFFFFFFFFFFFFFFFF
310
FFFFFFFFFFFFFFFFF000FFFFF80003FFFFFFFFFFFFFFFFFFFFFFFFFFFFFFFFFF
310
FFFFF00007FFFFFFFFFF00007FFFFFF800000000000000007FFFFFFFFFFFFFFF
310
FFFFFFFC001FFFFFFFFFFFFFFC001FFFFFFFFFFFFFFFFFFFFFFFFFFE0007FFFF
310
F000FFFF8000007FFFFFFFF8000FFFFFC0007FFFFF80007FFFFF0000007FFFFF
310
FFF8000007FFFFF800000000000000007FFFFFF0001FFFFFFFFFFFC00001FFFF
310
FFFFFFFFC00001FFFFFFFF000000000003FFFFE000007FFFF000FFFE0000000F
310
FFFFFFF0000FFFFF80007FFFFF80007FFFFC0000001FFFFFFFC0000001FFFFF8
310
00000000000000007FFFFFF0001FFFFFFFFFFE0000003FFFFFFFFFFE0000003F
310
FFFFFF000000000003FFFF0000000FFFF000FFF800000003FFFFFFF00007FFFF
310
80007FFFFF80007FFFF000000007FFFFFF000000003FFFF80000000000000000
310
7FFFFFF0001FFFFFFFFFF80000000FFFFFFFFFF80000000FFFFFFF0000000000
310
03FFFC00000003FFF000FFE000000000FFFFFFF00007FFFF80003FFFFF80007F
310
FFC000000001FFFFFC000000001FFFF800000000000000007FFFFFF0001FFFFF
310
FFFFE000000003FFFFFFFFE000000003FFFFFF000000000003FFF000000000FF
310
F000FF80000000007FFFFFF00007FFFF80003FFFFF80007FFF8000000000FFFF
310
F80000000007FFF800000000000000007FFFFFF0001FFFFFFFFFC000000001FF
310
FFFFFFC000000001FFFFFF000000000003FFC0000000007FF000FF0000000000
310
3FFFFFE00007FFFF00003FFFFF80007FFE00000000003FFFF00000000003FFF8
310
00000000000000007FFFFFF0001FFFFFFFFF8000000000FFFFFFFF8000000000
310
FFFFFF000000000003FF80000000003FF000FE00000000001FFFFFE00003FFFF
310
00003FFFFF80007FFC00000000001FFFE00000000001FFF8000001FFFE000000
310
7FFFFFF0001FFFFFFFFE00000000003FFFFFFE00000000003FFFFF0000000000
310
03FF00000000001FF000FC00000000000FFFFFE00003FFFF00001FFFFF80007F
310
F800000000001FFFC00000000000FFF8000001FFFE0000007FFFFFF0001FFFFF
310
FFFC00000000001FFFFFFC00000000001FFFFF000000000003FE00000000000F
310
F000F8000000000007FFFFE00003FFFF00001FFFFF80007FF800000000000FFF
310
800000000000FFF8000001FFFE0000007FFFFFF0001FFFFFFFF800000000000F
310
FFFFF800000000000FFFFF000000000003FC000000000007F000F80000000000
310
03FFFFC00003FFFE00001FFFFF80007FF0000000000007FF0000000000007FF8
310
000001FFFE0000007FFFFFF0001FFFFFFFF0000000000007FFFFF00000000000
310
07FFFF000000000003F8000000000003F000F0000000000003FFFFC00001FFFE
310
00001FFFFF80007FE0000000000007FE0000000000003FF8000001FFFE000000
310
7FFFFFF0001FFFFFFFF0000000000007FFFFF0000000000007FFFF0000000000
310
03F800001F800003F000E00001FFF00001FFFFC00001FFFE00000FFFFF80007F
310
E00001FFE00003FE00001FFF00003FF8000001FFFE0000007FFFFFF0001FFFFF
310
FFE000003E000003FFFFE000003E000003FFFF000000000003F00001FFF80001
310
F000E00007FFFC0001FFFFC00001FFFE00000FFFFF80007FC0000FFFFC0003FC
310
0000FFFFC0001FF8000001FFFE0000007FFFFFF0001FFFFFFFC00003FFE00001
310
FFFFC00003FFE00001FFFF0001FFFFFFFFF00007FFFE0001F000E0000FFFFF00
310
00FFFF800001FFFC00000FFFFF80007FC0001FFFFE0001FC0001FFFFE0001FF8
310
000001FFFE0000007FFFFFF0001FFFFFFF80000FFFF80000FFFF80000FFFF800
310
00FFFF0003FFFFFFFFE0000FFFFF8000F000C0003FFFFF8000FFFF800000FFFC
310
000007FFFF80007F80003FFFFF0001FC0003FFFFF0001FF8000001FFFE000000
310
7FFFFFF0001FFFFFFF80003FFFFE0000FFFF80003FFFFE0000FFFF0003FFFFFF
310
FFE0003FFFFF8000F000C0003FFFFF8000FFFF800000FFFC000007FFFF80007F
310
80007FFFFF8001F80007FFFFF8000FF8000001FFFE0000007FFFFFF0001FFFFF
310
FF00007FFFFF00007FFF00007FFFFF00007FFF0003FFFFFFFFE0003FFFFFC000
310
F000C0007FFFFFC000FFFF000000FFFC000007FFFF80007F8000FFFFFF8000F8
310
000FFFFFF8000FF8000001FFFE0000007FFFFFF0001FFFFFFF0000FFFFFF8000
310
7FFF0000FFFFFF80007FFF0003FFFFFFFFC0007FFFFFC00070008000FFFFFFC0
310
00FFFF000000FFF8000007FFFF80007F8000FFFFFF8000F8000FFFFFF8000FF8
310
000001FFFE0000007FFFFFF0001FFFFFFE0001FFFFFFC0003FFE0001FFFFFFC0
310
003FFF0003FFFFFFFFC0007FFFFFE00070008000FFFFFFC0007FFF0000007FF8
310
000003FFFF80007F0001FFFFFF8000F8000FFFFFF8000FF8000001FFFE000000
310
7FFFFFF0001FFFFFFE0001FFFFFFC0003FFE0001FFFFFFC0003FFF0003FFFFFF
310
FFC000FFFFFFE00070008000FFFFFFC0007FFF0000007FF8000003FFFF80007F
310
0001FFFFFF8000F8001FFFFFF8000FF8000001FFFE0000007FFFFFF0001FFFFF
310
FE0003FFFFFFE0003FFE0003FFFFFFE0003FFF0003FFFFFFFFC000FFFFFFE000
310
70008000FFFFFFC0007FFE0000007FF8000003FFFF80007F0001FFFFFF8000F0
310
001FFFFFF8000FF8000001FFFE0000007FFFFFF0001FFFFFFC0003FFFFFFE000
310
1FFC0003FFFFFFE0001FFF0003FFFFFFFFC000FFFFFFC00070008000FFFFFF80
310
007FFE0000007FF0000003FFFF80007F0001FFFFFF0000F0001FFFFFF8000FF8
310
000001FFFE0000007FFFFFF0001FFFFFFC0007FFFFFFF0001FFC0007FFFFFFF0
310
001FFF0003FFFFFFFFC000FFFFFFC00070008001FFFFFF0000FFFE0000003FF0
310
000001FFFF80007F0001FFFFFF0000F8001FFFFFF0000FF8000001FFFE000000
310
7FFFFFF0001FFFFFFC0007FFFFFFF0001FFC0007FFFFFFF0001FFF0003FFFFFF
310
FFC001FFFFFF80007000FFFFFFFFFE0000FFFE0008003FF0008001FFFF80007F
310
FFFFFFFFFC0000FFFFFFFFFFE0000FF8000001FFFE0000007FFFFFF0001FFFFF
310
F8000FFFFFFFF8000FF8000FFFFFFFF8000FFF0003FFFFFFFFFFFFFFFFFF0000
310
7000FFFFFFFFFC0000FFFC0008003FF0008001FFFF80007FFFFFFFFFF80001FF
310
FFFFFFFF80000FF8000001FFFE0000007FFFFFF0001FFFFFF8000FFFFFFFF800
310
0FF8000FFFFFFFF8000FFF0003FFFFFFFFFFFFFFFFFE0000F000FFFFFFFFE000
310
00FFFC000C003FE000C001FFFF80007FFFFFFFFFC00001FFFFFFFFFE00001FF8
310
000001FFFE0000007FFFFFF0001FFFFFF8000FFFFFFFF8000FF8000FFFFFFFF8
310
000FFF0003FFFFFFFFFFFFFFFFF00000F000FFFFFFFE000001FFFC000C001FE0
310
00C000FFFF80007FFFFFFFFE000001FFFFFFFFE000001FF80FFFFFFFFFFFFFC0
310
7FFFFFF0001FFFFFF8000FFFFFFFF8000FF8000FFFFFFFF8000FFF0003FFFFFF
310
FFFFFFFFFF800000F000FFFFFFC0000001FFFC001C001FE001C000FFFF80007F
310
FFFFFF80000003FFFFFFF80000001FF80FFFFFFFFFFFFFC07FFFFFF0001FFFFF
310
F8001FFFFFFFFC000FF8001FFFFFFFFC000FFF0003FFFFFFFFFFFFFFF0000001
310
F000FFFFF800000001FFF8001C001FE001C000FFFF80007FFFFFF800000003FF
310
FFFF800000003FF80FFFFFFFFFFFFFC07FFFFFF0001FFFFFF8001FFFFFFFFC00
310
0FF8001FFFFFFFFC000FFF0003FFFFFFFFFFFFFE00000001F000FFFFC0000000
310
03FFF8001E001FC001E000FFFF80007FFFFF8000000007FFFFFC000000003FF8
310
0FFFFFFFFFFFFFC07FFFFFF0001FFFFFF8001FFFFFFFFC000FF8001FFFFFFFFC
310
000FFF0003FFFFFFFFFFFFE000000003F000FFFE0000000007FFF8001E000FC0
310
01E0007FFF80007FFFFE0000000007FFFFE0000000007FF80FFFFFFFFFFFFFC0
310
7FFFFFF0001FFFFFF0001FFFFFFFFC0007F0001FFFFFFFFC0007FF0003FFFFFF
310
FFFFFF0000000003F000FFF80000000007FFF8001E000FC003E0007FFF80007F
310
FFF0000000000FFFFF8000000000FFF80FFFFFFFFFFFFFC07FFFFFF0001FFFFF
310
F0001FFFFFFFFC0007F0001FFFFFFFFC0007FF0003FFFFFFFFFFFC0000000007
310
F000FFE0000000000FFFF0003E000FC003E0007FFF80007FFFC0000000001FFF
310
FE0000000001FFF80FFFFFFFFFFFFFC07FFFFFF0001FFFFFF0001FFFFFFFFC00
310
07F0001FFFFFFFFC0007FF0003FFFFFFFFFFF0000000000FF000FFC000000000
310
1FFFF0003F000F8003F0003FFF80007FFF80000000003FFFF80000000003FFF8
310
0FFFFFFFFFFFFFC07FFFFFF0001FFFFFF0001FFFFFFFFC0007F0001FFFFFFFFC
310
0007FF0003FFFFFFFFFFE0000000001FF000FF00000000007FFFF0003F000780
310
03F0003FFF80007FFF00000000007FFFF00000000007FFF80FFFFFFFFFFFFFC0
310
7FFFFFF0001FFFFFF0001FFFFFFFFC0007F0001FFFFFFFFC0007FF0003FFFFFF
310
FFFF80000000007FF000FE0000000000FFFFE0003F00078007F0003FFF80007F
310
FE0000000001FFFFE0000000001FFFF80FFFFFFFFFFFFFC07FFFFFF0001FFFFF
310
F0001FFFFFFFFC0007F0001FFFFFFFFC0007FF0003FFFFFFFFFF0000000000FF
310
F000FC0000000003FFFFE0007F00078007F0003FFF80007FFC0000000007FFFF
310
C0000000007FFFF80FFFFFFFFFFFFFC07FFFFFF0001FFFFFF8001FFFFFFFFC00
310
0FF8001FFFFFFFFC000FFF0003FFFFFFFFFE0000000003FFF000FC000000000F
310
FFFFE0007F80070007F8001FFF80007FF8000000001FFFFF8000000001FFFFF8
310
0FFFFFFFFFFFFFC07FFFFFF0001FFFFFF8001FFFFFFFFC000FF8001FFFFFFFFC
310
000FFF0003FFFFFFFFFC000000000FFFF000F8000000007FFFFFE0007F800700
310
07F8001FFF80007FF000000000FFFFFF800000000FFFFFF80FFFFFFFFFFFFFC0
310
7FFFFFF0001FFFFFF8000FFFFFFFF8000FF8000FFFFFFFF8000FFF0003FFFFFF
310
FFFC000000007FFFF000F800000007FFFFFFC0007F8003000FF8001FFF80007F
310
F000000007FFFFFF000000007FFFFFF80FFFFFFFFFFFFFC07FFFFFF0001FFFFF
310
F8000FFFFFFFF8000FF8000FFFFFFFF8000FFF0003FFFFFFFFF80000000FFFFF
310
F000F0000000FFFFFFFFC000FF8003000FF8001FFF80007FE0000000FFFFFFFF
310
0000000FFFFFFFF8000001FFFE0000007FFFFFF0001FFFFFF8000FFFFFFFF800
310
0FF8000FFFFFFFF8000FFF0003FFFFFFFFF8000000FFFFFFF000F000000FFFFF
310
FFFFC000FFC002000FF8000FFF80007FE000001FFFFFFFFE000001FFFFFFFFF8
310
000001FFFE0000007FFFFFF0001FFFFFF8000FFFFFFFF8000FF8000FFFFFFFF8
310
000FFF0003FFFFFFFFF000001FFFFFFFF000E00000FFFFFFFFFFC000FFC00200
310
0FFC000FFF80007FE00001FFFFFFFFFE00001FFFFFFFFFF8000001FFFE000000
310
7FFFFFF0001FFFFFFC000FFFFFFFF8001FFC000FFFFFFFF8001FFF0003FFFFFF
310
FFF00001FFFFFFFFF000E00007FFFFFFFFFF8000FFC000001FFC000FFF80007F
310
C0000FFFFFFFFFFE0000FFFFFFFFFFF8000001FFFE0000007FFFFFF0001FFFFF
310
FC0007FFFFFFF0001FFC0007FFFFFFF0001FFF0003FFFFFFFFF00007FFFFFFFF
310
F000E0001FFFFFFFFFFF8000FFC000001FFC000FFF80007FC0003FFFFFFFFFFE
310
0001FFFFFFFFFFF8000001FFFE0000007FFFFFF0001FFFFFFC0007FFFFFFF000
310
1FFC0007FFFFFFF0001FFF0003FFFFFFFFF0001FFFFFFFFFF000E0003FFFFF00
310
03FF8001FFE000001FFC0007FF80007FC0007FFFFF0007FC0003FFFFF0003FF8
310
000001FFFE0000007FFFFFF0001FFFFFFC0003FFFFFFE0001FFC0003FFFFFFE0
310
001FFF0003FFFFFFFFF0003FFFFFFFFFF000E0003FFFFF0001FF8001FFE00000
310
1FFE0007FF80007FC0007FFFFE0003FC0007FFFFE0003FF8000001FFFE000000
310
7FFFFFF0001FFFFFFE0003FFFFFFE0003FFE0003FFFFFFE0003FFF0003FFFFFF
310
FFF0003FFFFF8001F000E0003FFFFF0001FF0001FFE000001FFE0007FF80007F
310
C0007FFFFE0003FC0007FFFFE0003FF8000001FFFE0000007FFFFFF0001FFFFF
310
FE0001FFFFFFC0003FFE0001FFFFFFC0003FFF0003FFFFFFFFF0003FFFFF0001
310
F000E0003FFFFF0003FF0001FFE000003FFE0007FF80007FC0007FFFFE0003FC
310
0007FFFFE0003FF8000001FFFE0000007FFFFFF0001FFFFFFF0001FFFFFFC000
310
7FFF0001FFFFFFC0007FFF0003FFFFFFFFF0003FFFFF0001F000E0003FFFFE00
310
03FF0003FFF000003FFE0003FF80007FC0007FFFFC0003FE0007FFFFE0003FF8
310
000001FFFE0000007FFFFFF0001FFFFFFF0000FFFFFF80007FFF0000FFFFFF80
310
007FFF0003FFFFFFFFF0003FFFFF0001F000E0003FFFFE0003FF0003FFF00000
310
3FFF0003FF80007FC0007FFFFC0007FE0007FFFFC0003FF8000001FFFE000000
310
7FFFFFF0001FFFFFFF80007FFFFF0000FFFF80007FFFFF0000FFFF0003FFFFFF
310
FFF0003FFFFF0003F000E0003FFFFC0003FE0003FFF000003FFF0003FF80007F
310
E0003FFFF80007FE0003FFFFC0007FF8000001FFFE0000007FFFFFF0001FFFFF
310
FF80003FFFFE0000FFFF80003FFFFE0000FFFF0003FFFFFFFFF0001FFFFE0003
310
F000F0001FFFF80003FE0003FFF000007FFF0001FF80007FE0003FFFF00007FE
310
0001FFFF80007FF8000001FFFE0000007FFFFFF0001FFFFFFFC0000FFFF80001
310
FFFFC0000FFFF80001FFFF0003FFFFFFFFF0001FFFFC0003F000F0000FFFF000
310
07FE0007FFF800007FFF0001FF80007FE0001FFFE00007FF0000FFFE00007FF8
310
000001FFFE0000007FFFFFF0001FFFFFFFC00003FFE00001FFFFC00003FFE000
310
01FFFF0003FFFFFFFFF8000FFFF80003F000F00003FFC00007FC0007FFF80000
310
7FFF8001FF80007FF00007FF80000FFF00007FF80000FFF8000001FFFE000000
310
7F80000000000001FFE000003E000003FFFFE000003E000003FFFF0003FFFFFF
310
FFF80003FFE00007F000F800000000000FFC0007FFF800007FFF8001FF80007F
310
F000000000000FFF000000000000FFF8000001FFFE0000007F80000000000001
310
FFF0000000000007FFFFF0000000000007FFFF0003FFFFFFFFFC00007E000007
310
F000F800000000000FFC0007FFF80000FFFF8000FF80007FF800000000001FFF
310
800000000001FFF8000001FFFE0000007F80000000000001FFF800000000000F
310
FFFFF800000000000FFFFF0003FFFFFFFFFC00000000000FF000FC0000000000
310
1FFC0007FFFC0000FFFF8000FF80007FF800000000003FFFC00000000001FFF8
310
000001FFFE0000007F80000000000001FFF800000000000FFFFFF80000000000
310
0FFFFF0003FFFFFFFFFE00000000001FF000FE00000000003FF8000FFFFC0000
310
FFFF8000FF80007FFC00000000003FFFC00000000003FFF8000001FFFE000000
310
7F80000000000001FFFC00000000001FFFFFFC00000000001FFFFF0003FFFFFF
310
FFFF00000000001FF000FF00000000003FF8000FFFFC0000FFFFC000FF80007F
310
FE00000000007FFFE00000000007FFF8000001FFFE0000007F80000000000001
310
FFFE00000000003FFFFFFE00000000003FFFFF0003FFFFFFFFFF80000000003F
310
F000FF80000000007FF8000FFFFC0001FFFFC0007F80007FFF0000000000FFFF
310
F0000000000FFFF800000000000000007F80000000000001FFFF8000000000FF
310
FFFFFF8000000000FFFFFF0003FFFFFFFFFFC0000000007FF000FFC000000000
310
FFF8000FFFFE0001FFFFC0007F80007FFF8000000001FFFFF8000000001FFFF8
310
00000000000000007F80000000000001FFFFC000000001FFFFFFFFC000000001
310
FFFFFF0003FFFFFFFFFFE000000000FFF000FFE000000003FFF0001FFFFE0001
310
FFFFC0007F80007FFFC000000007FFFFFE000000003FFFF80000000000000000
310
7F80000000000001FFFFE000000003FFFFFFFFE000000003FFFFFF0003FFFFFF
310
FFFFF000000003FFF000FFF80000000FFFF0001FFFFE0001FFFFE0007F80007F
310
FFF00000000FFFFFFF00000000FFFFF800000000000000007F80000000000001
310
FFFFF80000000FFFFFFFFFF80000000FFFFFFF0003FFFFFFFFFFFC0000000FFF
310
F000FFFE0000003FFFF0001FFFFE0003FFFFE0003F80007FFFFC0000003FFFFF
310
FFC0000003FFFFF800000000000000007F80000000000001FFFFFE0000003FFF
310
FFFFFFFE0000003FFFFFFF0003FFFFFFFFFFFF0000003FFFF000FFFF800000FF
310
FFF0001FFFFF0003FFFFE0003F80007FFFFF000001FFFFFFFFF800001FFFFFF8
310
00000000000000007F80000000000001FFFFFFC00001FFFFFFFFFFFFC00001FF
310
FFFFFF0003FFFFFFFFFFFFC00000FFFFF000FFFFF8000FFFFFFFFFFFFFFFFFFF
310
FFFFFFFFFFFFFFFFFFFFF0001FFFFFFFFFFF0000FFFFFFF80000000000000000
310
7FFFFFFFFFFFFFFFFFFFFFFC001FFFFFFFFFFFFFFC001FFFFFFFFFFFFFFFFFFF
310
FFFFFFFC001FFFFFF000FFFFFFFFFFFFFFFFFFFFFFFFFFFFFFFFFFFFFFFFFFFF
310
FFFFFFFFFFFFFFFFFFFFFFFFFFFFFFFFFFFFFFFFFFFFFFFFFFFFFFFFFFFFFFFF
310
FFFFFFFFFFFFFFFFFFFFFFFFFFFFFFFFFFFFFFFFFFFFFFFFFFFFFFFFFFFFFFFF
310
F000FFFFFFFFFFFFFFFFFFFFFFFFFFFFFFFFFFFFFFFFFFFFFFFFFFFFFFFFFFFF
310
FFFFFFFFFFFFFFFFFFFFFFFFFFFFFFFFFFFFFFFFFFFFFFFFFFFFFFFFFFFFFFFF
310
FFFFFFFFFFFFFFFFFFFFFFFFFFFFFFFFFFFFFFFFFFFFFFFFF000FFFFFFFFFFFF
310
FFFFFFFFFFFFFFFFFFFFFFFFFFFFFFFFFFFFFFFFFFFFFFFFFFFFFFFFFFFFFFFF
310
FFFFFFFFFFFFFFFFFFFFFFFFFFFFFFFFFFFFFFFFFFFFFFFFFFFFFFFFFFFFFFFF
310
FFFFFFFFFFFFFFFFFFFFFFFFFFFFFFFFF000FFFFFFFFFFFFFFFFFFFFFFFFFFFF
310
FFFFFFFFFFFFFFFFFFFFFFFFFFFFFFFFFFFFFFFFFFFFFFFFFFFFFFFFFFFFFFFF
310
FFFFFFFFFFFFFFFFFFFFFFFFFFFFFFFFFFFFFFFFFFFFFFFFFFFFFFFFFFFFFFFF
310
FFFFFFFFFFFFFFFFF000FFFFFFFFFFFFFFFFFFFFFFFFFFFFFFFFFFFFFFFFFFFF
310
FFFFFFFFFFFFFFFFFFFFFFFFFFFFFFFFFFFFFFFFFFFFFFFFFFFFFFFFFFFFFFFF
310
FFFFFFFFFFFFFFFFFFFFFFFFFFFFFFFFFFFFFFFFFFFFFFFFFFFFFFFFFFFFFFFF
310
F000FFFFFFFFFFFFFFFFFFFFFFFFFFFFFFFFFFFFFFFFFFFFFFFFFFFFFFFFFFFF
310
FFFFFFFFFFFFFFFFFFFFFFFFFFFFFFFFFFFFFFFFFFFFFFFFFFFFFFFFFFFFFFFF
310
FFFFFFFFFFFFFFFFFFFFFFFFFFFFFFFFFFFFFFFFFFFFFFFFF000FFFFFFFFFFFF
310
FFFFFFFFFFFFFFFFFFFFFFFFFFFFFFFFFFFFFFFFFFFFFFFFFFFFFFFFFFFFFFFF
310
FFFFFFFFFFFFFFFFFFFFFFFFFFFFFFFFFFFFFFFFFFFFFFFFFFFFFFFFFFFFFFFF
310
FFFFFFFFFFFFFFFFFFFFFFFFFFFFFFFFF000FFFFFFFFFFFFFFFFFFFFFFFFFFFF
310
FFFFFFFFFFFFFFFFFFFFFFFFFFFFFFFFFFFFFFFFFFFFFFFFFFFFFFFFFFFFFFFF
310
FFFFFFFFFFFFFFFFFFFFFFFFFFFFFFFFFFFFFFFFFFFFFFFFFFFFFFFFFFFFFFFF
310
FFFFFFFFFFFFFFFFF000FFFFFFFFFFFFFFFFFFFFFFFFFFFFFFFFFFFFFFFFFFFF
310
FFFFFFFFFFFFFFFFFFFFFFFFFFFFFFFFFFFFFFFFFFFFFFFFFFFFFFFFFFFFFFFF
310
FFFFFFFFFFFFFFFFFFFFFFFFFFFFFFFFFFFFFFFFFFFFFFFFFFFFFFFFFFFFFFFF
310
F000FFFFFFFFFFFFFFFFFFFFFFFFFFFFFFFFFFFFFFFFFFFFFFFFFFFFFFFFFFFF
310
FFFFFFFFFFFFFFFFFFFFFFFFFFFFFFFFFFFFFFFFFFFFFFFFFFFFFFFFFFFFFFFF
310
FFFFFFFFFFFFFFFFFFFFFFFFFFFFFFFFFFFFFFFFFFFFFFFFF000FFFFFFFFFFFF
310
FFFFFFFFFFFFFFFFFFFFFFFFFFFFFFFFFFFFFFFFFFFFFFFFFFFFFFFFFFFFFFFF
310
FFFFFFFFFFFFFFFFFFFFFFFFFFFFFFFFFFFFFFFFFFFFFFFFFFFFFFFFFFFFFFFF
310
FFFFFFFFFFFFFFFFFFFFFFFFFFFFFFFFF000FFFFFFFFFFFFFFFFFFFFFFFFFFFF
310
FFFFFFFFFFFFFFFFFFFFFFFFFFFFFFFFFFFFFFFFFFFFFFFFFFFFFFFFFFFFFFFF
310
FFFFFFFFFFFFFFFFFFFFFFFFFFFFFFFFFFFFFFFFFFFFFFFFFFFFFFFFFFFFFFFF
310
FFFFFFFFFFFFFFFFF000FFFFFFFFFFFFFFFFFFFFFFFFFFFFFFFFFFFFFFFFFFFF
310
FFFFFFFFFFFFFFFFFFFFFFFFFFFFFFFFFFFFFFFFFFFFFFFFFFFFFFFFFFFFFFFF
310
FFFFFFFFFFFFFFFFFFFFFFFFFFFFFFFFFFFFFFFFFFFFFFFFFFFFFFFFFFFFFFFF
310
F000FFFFFFFFFFFFFFFFFFFFFFFFFFFFFFFFFFFFFFFFFFFFFFFFFFFFFFFFFFFF
310
FFFFFFFFFFFFFFFFFFFFFFFFFFFFFFFFFFFFFFFFFFFFFFFFFFFFFFFFFFFFFFFF
310
FFFFFFFFFFFFFFFFFFFFFFFFFFFFFFFFFFFFFFFFFFFFFFFFF000FFFFFFFFFFFF
310
FFFFFFFFFFFFFFFFFFFFFFFFFFFFFFFFFFFFFFFFFFFFFFFFFFFFFFFFFFFFFFFF
310
FFFFFFFFFFFFFFFFFFFFFFFFFFFFFFFFFFFFFFFFFFFFFFFFFFFFFFFFFFFFFFFF
310
FFFFFFFFFFFFFFFFFFFFFFFFFFFFFFFFF000FFFFFFFFFFFFFFFFFFFFFFFFFFFF
310
FFFFFFFFFFFFFFFFFFFFFFFFFFFFFFFFFFFFFFFFFFFFFFFFFFFFFFFFFFFFFFFF
310
FFFFFFFFFFFFFFFFFFFFFFFFFFFFFFFFFFFFFFFFFFFFFFFFFFFFFFFFFFFFFFFF
310
FFFFFFFFFFFFFFFFF000FFFFFFFFFFFFFFFFFFFFFFFFFFFFFFFFFFFFFFFFFFFF
310
FFFFFFFFFFFFFFFFFFFFFFFFFFFFFFFFFFFFFFFFFFFFFFFFFFFFFFFFFFFFFFFF
310
FFFFFFFFFFFFFFFFFFFFFFFFFFFFFFFFFFFFFFFFFFFFFFFFFFFFFFFFFFFFFFFF
310
F000FFFFFFFFFFFFFFFFFFFFFFFFFFFFFFFFFFFFFFFFFFFFFFFFFFFFFFFFFFFF
310
FFFFFFFFFFFFFFFFFFFFFFFFFFFFFFFFFFFFFFFFFFFFFFFFFFFFFFFFFFFFFFFF
310
FFFFFFFFFFFFFFFFFFFFFFFFFFFFFFFFFFFFFFFFFFFFFFFFF000FFFFFFFFFFFF
310
FFFFFFFFFFFFFFFFFFFFFFFFFFFFFFFFFFFFFFFFFFFFFFFFFFFFFFFFFFFFFFFF
310
FFFFFFFFFFFFFFFFFFFFFFFFFFFFFFFFFFFFFFFFFFFFFFFFFFFFFFFFFFFFFFFF
310
FFFFFFFFFFFFFFFFFFFFFFFFFFFFFFFFF000FFFFFFFFFFFFFFFFFFFFFFFFFFFF
310
FFFFFFFFFFFFFFFFFFFFFFFFFFFFFFFFFFFFFFFFFFFFFFFFFFFFFFFFFFFFFFFF
310
FFFFFFFFFFFFFFFFFFFFFFFFFFFFFFFFFFFFFFFFFFFFFFFFFFFFFFFFFFFFFFFF
310
FFFFFFFFFFFFFFFFF000FFFFFFFFFFFFFFFFFFFFFFFFFFFFFFFFFFFFFFFFFFFF
310
FFFFFFFFFFFFFFFFFFFFFFFFFFFFFFFFFFFFFFFFFFFFFFFFFFFFFFFFFFFFFFFF
310
FFFFFFFFFFFFFFFFFFFFFFFFFFFFFFFFFFFFFFFFFFFFFFFFFFFFFFFFFFFFFFFF
310
F000FFFFFFFFFFFFFFFFFFFFFFFFFFFFFFFFFFFFFFFFFFFFFFFFFFFFFFFFFFFF
310
FFFFFFFFFFFFFFFFFFFFFFFFFFFFFFFFFFFFFFFFFFFFFFFFFFFFFFFFFFFFFFFF
310
FFFFFFFFFFFFFFFFFFFFFFFFFFFFFFFFFFFFFFFFFFFFFFFFF000FFFFFFFFFFFF
310
FFFFFFFFFFFFFFFFFFFFFFFFFFFFFFFFFFFFFFFFFFFFFFFFFFFFFFFFFFFFFFFF
310
FFFFFFFFFFFFFFFFFFFFFFFFFFFFFFFFFFFFFFFFFFFFFFFFFFFFFFFFFFFFFFFF
310
FFFFFFFFFFFFFFFFFFFFFFFFFFFFFFFFF0000000000000000000000000000000
310
0000000000000000000000000000000000000000000000000000000000000000
310
0000000000000000000000000000000000000000000000000000000000000000
310
0000000000000000000000000000000000000000000000000000000000000000
310
0000000000000000000000000000000000000000000000000000000000000000
310
0000000000000000000000000000000000000000000000000000000000000000
310
0000000000000000000000000000000000000000000000000000000000000000
310
0000000000000000000000000000000000000000000000000000000000000000
310
0000000000000000000000000000000000000000000000000000000000000000
310
0000000000000000000000000000000000000000000000000000000000000000
310
0000000000000000000000000000000000000000000000000000000000000000
310
0000000000000000000000000000000000000000000000000000000000000000
310
0000000000000000000000000000000000000000000000000000000000000000
310
0000000000000000000000000000000000000000000000000000000000000000
310
0000000000000000000000000000000000000000000000000000000000000000
310
0000000000000000000000000000000000000000000000000000000000000000
  1
OLE
  0
ENDSEC
  0
SECTION
  2
OBJECTS
  0
DICTIONARY
  5
C
330
0
100
AcDbDictionary
281
     1
  3
ACAD_GROUP
350
D
  3
ACAD_LAYOUT
350
1A
  3
ACAD_MLINESTYLE
350
17
  3
ACAD_PLOTSETTINGS
350
19
  3
ACAD_PLOTSTYLENAME
350
E
  0
DICTIONARY
  5
D
102
{ACAD_REACTORS
330
C
102
}
330
C
100
AcDbDictionary
281
     1
  0
DICTIONARY
  5
1A
102
{ACAD_REACTORS
330
C
102
}
330
C
100
AcDbDictionary
281
     1
  3
Layout1
350
1E
  3
Layout2
350
26
  3
Model
350
22
  0
DICTIONARY
  5
17
102
{ACAD_REACTORS
330
C
102
}
330
C
100
AcDbDictionary
281
     1
  3
Standard
350
18
  0
DICTIONARY
  5
19
102
{ACAD_REACTORS
330
C
102
}
330
C
100
AcDbDictionary
281
     1
  0
ACDBDICTIONARYWDFLT
  5
E
102
{ACAD_REACTORS
330
C
102
}
330
C
100
AcDbDictionary
281
     1
  3
Normal
350
F
100
AcDbDictionaryWithDefault
340
F
  0
LAYOUT
  5
1E
102
{ACAD_REACTORS
330
1A
102
}
330
1A
100
AcDbPlotSettings
  1

  2
none_device
  4

  6

 40
0.0
 41
0.0
 42
0.0
 43
0.0
 44
0.0
 45
0.0
 46
0.0
 47
0.0
 48
0.0
 49
0.0
140
0.0
141
0.0
142
1.0
143
1.0
 70
   688
 72
     0
 73
     0
 74
     5
  7

 75
    16
147
1.0
148
0.0
149
0.0
100
AcDbLayout
  1
Layout1
 70
     1
 71
     1
 10
0.0
 20
0.0
 11
420.0
 21
297.0
 12
0.0
 22
0.0
 32
0.0
 14
1.0000000000E+20
 24
1.0000000000E+20
 34
1.0000000000E+20
 15
-1.0000000000E+20
 25
-1.0000000000E+20
 35
-1.0000000000E+20
146
0.0
 13
0.0
 23
0.0
 33
0.0
 16
1.0
 26
0.0
 36
0.0
 17
0.0
 27
1.0
 37
0.0
 76
     0
330
1B
  0
LAYOUT
  5
26
102
{ACAD_REACTORS
330
1A
102
}
330
1A
100
AcDbPlotSettings
  1

  2
none_device
  4

  6

 40
0.0
 41
0.0
 42
0.0
 43
0.0
 44
0.0
 45
0.0
 46
0.0
 47
0.0
 48
0.0
 49
0.0
140
0.0
141
0.0
142
1.0
143
1.0
 70
   688
 72
     0
 73
     0
 74
     5
  7

 75
    16
147
1.0
148
0.0
149
0.0
100
AcDbLayout
  1
Layout2
 70
     1
 71
     2
 10
0.0
 20
0.0
 11
0.0
 21
0.0
 12
0.0
 22
0.0
 32
0.0
 14
0.0
 24
0.0
 34
0.0
 15
0.0
 25
0.0
 35
0.0
146
0.0
 13
0.0
 23
0.0
 33
0.0
 16
1.0
 26
0.0
 36
0.0
 17
0.0
 27
1.0
 37
0.0
 76
     0
330
23
  0
LAYOUT
  5
22
102
{ACAD_REACTORS
330
1A
102
}
330
1A
100
AcDbPlotSettings
  1

  2
none_device
  4

  6

 40
0.0
 41
0.0
 42
0.0
 43
0.0
 44
0.0
 45
0.0
 46
0.0
 47
0.0
 48
0.0
 49
0.0
140
0.0
141
0.0
142
1.0
143
1.0
 70
  1712
 72
     0
 73
     0
 74
     0
  7

 75
     0
147
1.0
148
0.0
149
0.0
100
AcDbLayout
  1
Model
 70
     1
 71
     0
 10
0.0
 20
0.0
 11
297.0
 21
210.0
 12
0.0
 22
0.0
 32
0.0
 14
0.0
 24
0.0
 34
0.0
 15
297.0
 25
210.0
 35
0.0
146
0.0
 13
0.0
 23
0.0
 33
0.0
 16
1.0
 26
0.0
 36
0.0
 17
0.0
 27
1.0
 37
0.0
 76
     0
330
1F
331
29
  0
MLINESTYLE
  5
18
102
{ACAD_REACTORS
330
17
102
}
330
17
100
AcDbMlineStyle
  2
Standard
 70
     0
  3

 62
   256
 51
90.0
 52
90.0
 71
     2
 49
0.5
 62
   256
  6
BYLAYER
 49
-0.5
 62
   256
  6
BYLAYER
  0
ACDBPLACEHOLDER
  5
F
102
{ACAD_REACTORS
330
E
102
}
330
E
  0
ENDSEC
  0
EOF
