  0
SECTION
  2
HEADER
  9
$ACADVER
  1
AC1015
  9
$ACADMAINTVER
 70
     6
  9
$DWGCODEPAGE
  3
ANSI_1252
  9
$INSBASE
 10
0.0
 20
0.0
 30
0.0
  9
$EXTMIN
 10
0.0
 20
0.0
 30
0.0
  9
$EXTMAX
 10
297.0
 20
210.0
 30
0.0
  9
$LIMMIN
 10
0.0
 20
0.0
  9
$LIMMAX
 10
297.0
 20
210.0
  9
$ORTHOMODE
 70
     0
  9
$REGENMODE
 70
     1
  9
$FILLMODE
 70
     1
  9
$QTEXTMODE
 70
     0
  9
$MIRRTEXT
 70
     1
  9
$LTSCALE
 40
1.0
  9
$ATTMODE
 70
     1
  9
$TEXTSIZE
 40
2.0
  9
$TRACEWID
 40
1.0
  9
$TEXTSTYLE
  7
Standard
  9
$CLAYER
  8
0
  9
$CELTYPE
  6
ByLayer
  9
$CECOLOR
 62
   256
  9
$CELTSCALE
 40
1.0
  9
$DISPSILH
 70
     0
  9
$DIMSCALE
 40
1.0
  9
$DIMASZ
 40
3.0
  9
$DIMEXO
 40
0.0
  9
$DIMDLI
 40
3.75
  9
$DIMRND
 40
0.0
  9
$DIMDLE
 40
0.0
  9
$DIMEXE
 40
1.0
  9
$DIMTP
 40
0.0
  9
$DIMTM
 40
0.0
  9
$DIMTXT
 40
2.0
  9
$DIMCEN
 40
2.5
  9
$DIMTSZ
 40
0.0
  9
$DIMTOL
 70
     0
  9
$DIMLIM
 70
     0
  9
$DIMTIH
 70
     1
  9
$DIMTOH
 70
     1
  9
$DIMSE1
 70
     0
  9
$DIMSE2
 70
     0
  9
$DIMTAD
 70
     1
  9
$DIMZIN
 70
     0
  9
$DIMBLK
  1

  9
$DIMASO
 70
     1
  9
$DIMSHO
 70
     1
  9
$DIMPOST
  1

  9
$DIMAPOST
  1

  9
$DIMALT
 70
     0
  9
$DIMALTD
 70
     3
  9
$DIMALTF
 40
0.0393700787
  9
$DIMLFAC
 40
1.0
  9
$DIMTOFL
 70
     1
  9
$DIMTVP
 40
0.0
  9
$DIMTIX
 70
     0
  9
$DIMSOXD
 70
     0
  9
$DIMSAH
 70
     0
  9
$DIMBLK1
  1

  9
$DIMBLK2
  1

  9
$DIMSTYLE
  2
ISO-25
  9
$DIMCLRD
 70
     0
  9
$DIMCLRE
 70
     0
  9
$DIMCLRT
 70
     0
  9
$DIMTFAC
 40
1.0
  9
$DIMGAP
 40
1.524
  9
$DIMJUST
 70
     0
  9
$DIMSD1
 70
     0
  9
$DIMSD2
 70
     0
  9
$DIMTOLJ
 70
     0
  9
$DIMTZIN
 70
     0
  9
$DIMALTZ
 70
     0
  9
$DIMALTTZ
 70
     0
  9
$DIMUPT
 70
     0
  9
$DIMDEC
 70
     2
  9
$DIMTDEC
 70
     3
  9
$DIMALTU
 70
     2
  9
$DIMALTTD
 70
     3
  9
$DIMTXSTY
  7
Standard
  9
$DIMAUNIT
 70
     0
  9
$DIMADEC
 70
     2
  9
$DIMALTRND
 40
0.0
  9
$DIMAZIN
 70
     0
  9
$DIMDSEP
 70
    44
  9
$DIMATFIT
 70
     3
  9
$DIMFRAC
 70
     0
  9
$DIMLDRBLK
  1

  9
$DIMLUNIT
 70
     2
  9
$DIMLWD
 70
    -2
  9
$DIMLWE
 70
    -2
  9
$DIMTMOVE
 70
     0
  9
$LUNITS
 70
     2
  9
$LUPREC
 70
     2
  9
$SKETCHINC
 40
1.0
  9
$FILLETRAD
 40
10.0
  9
$AUNITS
 70
     0
  9
$AUPREC
 70
     2
  9
$MENU
  1
.
  9
$ELEVATION
 40
0.0
  9
$PELEVATION
 40
0.0
  9
$THICKNESS
 40
0.0
  9
$LIMCHECK
 70
     0
  9
$CHAMFERA
 40
10.0
  9
$CHAMFERB
 40
10.0
  9
$CHAMFERC
 40
20.0
  9
$CHAMFERD
 40
0.0
  9
$SKPOLY
 70
     0
  9
$TDCREATE
 40
2455680.387124815
  9
$TDUCREATE
 40
2455680.303791482
  9
$TDUPDATE
 40
2455680.387124826
  9
$TDUUPDATE
 40
2455680.303791493
  9
$TDINDWG
 40
0.0000000116
  9
$TDUSRTIMER
 40
0.0000000116
  9
$USRTIMER
 70
     1
  9
$ANGBASE
 50
0.0
  9
$ANGDIR
 70
     0
  9
$PDMODE
 70
     0
  9
$PDSIZE
 40
-1.0
  9
$PLINEWID
 40
0.0
  9
$SPLFRAME
 70
     0
  9
$SPLINETYPE
 70
     6
  9
$SPLINESEGS
 70
     8
  9
$HANDSEED
  5
230
  9
$SURFTAB1
 70
     6
  9
$SURFTAB2
 70
     6
  9
$SURFTYPE
 70
     6
  9
$SURFU
 70
     6
  9
$SURFV
 70
     6
  9
$UCSBASE
  2

  9
$UCSNAME
  2

  9
$UCSORG
 10
0.0
 20
0.0
 30
0.0
  9
$UCSXDIR
 10
1.0
 20
0.0
 30
0.0
  9
$UCSYDIR
 10
0.0
 20
1.0
 30
0.0
  9
$UCSORTHOREF
  2

  9
$UCSORTHOVIEW
 70
     0
  9
$UCSORGTOP
 10
0.0
 20
0.0
 30
0.0
  9
$UCSORGBOTTOM
 10
0.0
 20
0.0
 30
0.0
  9
$UCSORGLEFT
 10
0.0
 20
0.0
 30
0.0
  9
$UCSORGRIGHT
 10
0.0
 20
0.0
 30
0.0
  9
$UCSORGFRONT
 10
0.0
 20
0.0
 30
0.0
  9
$UCSORGBACK
 10
0.0
 20
0.0
 30
0.0
  9
$PUCSBASE
  2

  9
$PUCSNAME
  2

  9
$PUCSORG
 10
0.0
 20
0.0
 30
0.0
  9
$PUCSXDIR
 10
1.0
 20
0.0
 30
0.0
  9
$PUCSYDIR
 10
0.0
 20
1.0
 30
0.0
  9
$PUCSORTHOREF
  2

  9
$PUCSORTHOVIEW
 70
     0
  9
$PUCSORGTOP
 10
0.0
 20
0.0
 30
0.0
  9
$PUCSORGBOTTOM
 10
0.0
 20
0.0
 30
0.0
  9
$PUCSORGLEFT
 10
0.0
 20
0.0
 30
0.0
  9
$PUCSORGRIGHT
 10
0.0
 20
0.0
 30
0.0
  9
$PUCSORGFRONT
 10
0.0
 20
0.0
 30
0.0
  9
$PUCSORGBACK
 10
0.0
 20
0.0
 30
0.0
  9
$USERI1
 70
     0
  9
$USERI2
 70
     0
  9
$USERI3
 70
     0
  9
$USERI4
 70
     0
  9
$USERI5
 70
     0
  9
$USERR1
 40
0.0
  9
$USERR2
 40
0.0
  9
$USERR3
 40
0.0
  9
$USERR4
 40
0.0
  9
$USERR5
 40
0.0
  9
$WORLDVIEW
 70
     1
  9
$SHADEDGE
 70
     3
  9
$SHADEDIF
 70
    70
  9
$TILEMODE
 70
     1
  9
$MAXACTVP
 70
    64
  9
$PINSBASE
 10
0.0
 20
0.0
 30
0.0
  9
$PLIMCHECK
 70
     0
  9
$PEXTMIN
 10
1.0000000000E+20
 20
1.0000000000E+20
 30
1.0000000000E+20
  9
$PEXTMAX
 10
-1.0000000000E+20
 20
-1.0000000000E+20
 30
-1.0000000000E+20
  9
$PLIMMIN
 10
0.0
 20
0.0
  9
$PLIMMAX
 10
420.0
 20
297.0
  9
$UNITMODE
 70
     0
  9
$VISRETAIN
 70
     1
  9
$PLINEGEN
 70
     0
  9
$PSLTSCALE
 70
     1
  9
$TREEDEPTH
 70
  3020
  9
$CMLSTYLE
  2
Standard
  9
$CMLJUST
 70
     0
  9
$CMLSCALE
 40
20.0
  9
$PROXYGRAPHICS
 70
     1
  9
$MEASUREMENT
 70
     1
  9
$CELWEIGHT
370
    -1
  9
$ENDCAPS
280
     0
  9
$JOINSTYLE
280
     0
  9
$LWDISPLAY
290
     1
  9
$INSUNITS
 70
     4
  9
$HYPERLINKBASE
  1

  9
$STYLESHEET
  1

  9
$XEDIT
290
     1
  9
$CEPSNTYPE
380
     0
  9
$PSTYLEMODE
290
     1
  9
$FINGERPRINTGUID
  2
{8AB2B782-D251-46EE-AA7A-59F625D69A9B}
  9
$VERSIONGUID
  2
{FAEB1C32-E019-11D5-929B-00C0DF256EC4}
  9
$EXTNAMES
290
     1
  9
$PSVPSCALE
 40
0.0
  9
$OLESTARTUP
290
     0
  0
ENDSEC
  0
SECTION
  2
CLASSES
  0
CLASS
  1
ACDBDICTIONARYWDFLT
  2
AcDbDictionaryWithDefault
  3
ObjectDBX Classes
 90
        0
280
     0
281
     0
  0
CLASS
  1
VISUALSTYLE
  2
AcDbVisualStyle
  3
ObjectDBX Classes
 90
     4095
280
     0
281
     0
  0
CLASS
  1
DICTIONARYVAR
  2
AcDbDictionaryVar
  3
ObjectDBX Classes
 90
        0
280
     0
281
     0
  0
CLASS
  1
ACDBPLACEHOLDER
  2
AcDbPlaceHolder
  3
ObjectDBX Classes
 90
        0
280
     0
281
     0
  0
CLASS
  1
LAYOUT
  2
AcDbLayout
  3
ObjectDBX Classes
 90
        0
280
     0
281
     0
  0
ENDSEC
  0
SECTION
  2
TABLES
  0
TABLE
  2
VPORT
  5
8
330
0
100
AcDbSymbolTable
 70
     1
  0
VPORT
  5
29
330
8
100
AcDbSymbolTableRecord
100
AcDbViewportTableRecord
  2
*Active
 70
     0
 10
0.0
 20
0.0
 11
1.0
 21
1.0
 12
148.5
 22
105.0
 13
0.0
 23
0.0
 14
10.0
 24
10.0
 15
10.0
 25
10.0
 16
0.0
 26
0.0
 36
1.0
 17
0.0
 27
0.0
 37
0.0
 40
210.0
 41
1.4142857143
 42
50.0
 43
0.0
 44
0.0
 50
0.0
 51
0.0
 71
     0
 72
  2000
 73
     1
 74
     3
 75
     0
 76
     0
 77
     0
 78
     0
281
     0
 65
     1
110
0.0
120
0.0
130
0.0
111
1.0
121
0.0
131
0.0
112
0.0
122
1.0
132
0.0
 79
     0
146
0.0
  0
ENDTAB
  0
TABLE
  2
LTYPE
  5
5
330
0
100
AcDbSymbolTable
 70
     6
  0
LTYPE
  5
14
330
5
100
AcDbSymbolTableRecord
100
AcDbLinetypeTableRecord
  2
ByBlock
 70
     0
  3

 72
    65
 73
     0
 40
0.0
  0
LTYPE
  5
15
330
5
100
AcDbSymbolTableRecord
100
AcDbLinetypeTableRecord
  2
ByLayer
 70
     0
  3

 72
    65
 73
     0
 40
0.0
  0
LTYPE
  5
16
330
5
100
AcDbSymbolTableRecord
100
AcDbLinetypeTableRecord
  2
Continuous
 70
     0
  3
Solid line
 72
    65
 73
     0
 40
0.0
  0
LTYPE
  5
3B
330
5
100
AcDbSymbolTableRecord
100
AcDbLinetypeTableRecord
  2
HIDDEN
 70
     0
  3
Hidden __ __ __ __ __ __ __ __ __ __ __ __ __ __
 72
    65
 73
     2
 40
1.905
 49
1.27
 74
     0
 49
-0.635
 74
     0
  0
LTYPE
  5
3C
330
5
100
AcDbSymbolTableRecord
100
AcDbLinetypeTableRecord
  2
PHANTOM
 70
     0
  3
Phantom ______  __  __  ______  __  __  ______
 72
    65
 73
     6
 40
12.7
 49
6.35
 74
     0
 49
-1.27
 74
     0
 49
1.27
 74
     0
 49
-1.27
 74
     0
 49
1.27
 74
     0
 49
-1.27
 74
     0
  0
LTYPE
  5
3D
330
5
100
AcDbSymbolTableRecord
100
AcDbLinetypeTableRecord
  2
CENTER
 70
     0
  3
Center ____ _ ____ _ ____ _ ____ _ ____ _ ____
 72
    65
 73
     4
 40
10.16
 49
6.35
 74
     0
 49
-1.27
 74
     0
 49
1.27
 74
     0
 49
-1.27
 74
     0
  0
LTYPE
  5
3E
330
5
100
AcDbSymbolTableRecord
100
AcDbLinetypeTableRecord
  2
CENTERX2
 70
     0
  3
Center (2x) ________  __  ________  __  _____
 72
    65
 73
     4
 40
20.32
 49
12.7
 74
     0
 49
-2.54
 74
     0
 49
2.54
 74
     0
 49
-2.54
 74
     0
  0
LTYPE
  5
3F
330
5
100
AcDbSymbolTableRecord
100
AcDbLinetypeTableRecord
  2
DOT2
 70
     0
  3
Dot (.5x) ........................................
 72
    65
 73
     2
 40
0.635
 49
0.0
 74
     0
 49
-0.635
 74
     0
  0
ENDTAB
  0
TABLE
  2
LAYER
  5
2
330
0
100
AcDbSymbolTable
 70
     5
  0
LAYER
  5
10
330
2
100
AcDbSymbolTableRecord
100
AcDbLayerTableRecord
  2
0
 70
     0
 62
     7
  6
Continuous
370
    -3
390
F
  0
LAYER
  5
40
330
2
100
AcDbSymbolTableRecord
100
AcDbLayerTableRecord
  2
FORMAT
 70
     0
 62
     7
  6
Continuous
370
    -3
390
F
  0
LAYER
  5
41
330
2
100
AcDbSymbolTableRecord
100
AcDbLayerTableRecord
  2
VERMASSUNG
 70
     0
 62
     7
  6
Continuous
370
    -3
390
F
  0
LAYER
  5
42
330
2
100
AcDbSymbolTableRecord
100
AcDbLayerTableRecord
  2
KOPF_DÜNN
 70
     0
 62
     7
  6
Continuous
370
    -3
390
F
  0
LAYER
  5
43
330
2
100
AcDbSymbolTableRecord
100
AcDbLayerTableRecord
  2
KOPF_DICK
 70
     0
 62
     7
  6
Continuous
370
    15
390
F
  0
ENDTAB
  0
TABLE
  2
STYLE
  5
3
330
0
100
AcDbSymbolTable
 70
     3
  0
STYLE
  5
11
330
3
100
AcDbSymbolTableRecord
100
AcDbTextStyleTableRecord
  2
Standard
 70
     0
 40
0.0
 41
1.0
 50
0.0
 71
     0
 42
2.5
  3
txt
  4

  0
STYLE
  5
44
330
3
100
AcDbSymbolTableRecord
100
AcDbTextStyleTableRecord
  2
SLDTEXTSTYLE0
 70
     0
 40
0.0
 41
0.7
 50
0.0
 71
     0
 42
0.2
  3
TXT
  4

  0
STYLE
  5
48
330
3
100
AcDbSymbolTableRecord
100
AcDbTextStyleTableRecord
  2
SLDTEXTSTYLE1
 70
     0
 40
0.0
 41
0.6473684211
 50
0.0
 71
     0
 42
0.2
  3
TXT
  4

  0
ENDTAB
  0
TABLE
  2
VIEW
  5
6
330
0
100
AcDbSymbolTable
 70
     0
  0
ENDTAB
  0
TABLE
  2
UCS
  5
7
330
0
100
AcDbSymbolTable
 70
     0
  0
ENDTAB
  0
TABLE
  2
APPID
  5
9
330
0
100
AcDbSymbolTable
 70
     1
  0
APPID
  5
12
330
9
100
AcDbSymbolTableRecord
100
AcDbRegAppTableRecord
  2
ACAD
 70
     0
  0
ENDTAB
  0
TABLE
  2
DIMSTYLE
  5
A
330
0
100
AcDbSymbolTable
 70
     4
100
AcDbDimStyleTable
  0
DIMSTYLE
105
27
330
A
100
AcDbSymbolTableRecord
100
AcDbDimStyleTableRecord
  2
ISO-25
 70
     0
 41
2.5
 42
0.625
 43
3.75
 44
1.25
 73
     0
 74
     0
 77
     1
 78
     8
140
2.5
141
2.5
143
0.0393700787
147
0.625
171
     3
172
     1
271
     2
272
     2
274
     3
278
    44
283
     0
284
     8
340
11
  0
DIMSTYLE
105
1D2
102
{ACAD_REACTORS
330
1D1
330
200
330
20A
330
214
330
21E
102
}
330
A
100
AcDbSymbolTableRecord
100
AcDbDimStyleTableRecord
  2
SLDDIMSTYLE0
 70
     0
 41
3.0
 44
0.0
 45
0.000000001
 73
     0
 74
     0
 77
     1
 78
    12
140
2.0
147
0.5
173
     1
271
     2
272
     3
284
    12
340
44
  0
DIMSTYLE
105
1DF
102
{ACAD_REACTORS
330
1DE
102
}
330
A
100
AcDbSymbolTableRecord
100
AcDbDimStyleTableRecord
  2
SLDDIMSTYLE1
 70
     0
 41
3.0
 44
0.0
 45
0.000000001
 73
     0
 74
     0
 77
     1
 78
    12
140
2.0
147
0.5
173
     1
271
     2
272
     2
284
    12
340
44
  0
DIMSTYLE
105
1EA
102
{ACAD_REACTORS
330
1E9
330
1F5
102
}
330
A
100
AcDbSymbolTableRecord
100
AcDbDimStyleTableRecord
  2
SLDDIMSTYLE2
 70
     0
 41
3.0
 44
0.0
 45
0.000000001
 73
     0
 74
     0
 77
     1
 78
    12
140
2.0
147
0.5
173
     1
271
     2
272
     3
284
    12
340
44
  0
ENDTAB
  0
TABLE
  2
BLOCK_RECORD
  5
1
330
0
100
AcDbSymbolTable
 70
     9
  0
BLOCK_RECORD
  5
1F
330
1
100
AcDbSymbolTableRecord
100
AcDbBlockTableRecord
  2
*Model_Space
340
22
  0
BLOCK_RECORD
  5
1B
330
1
100
AcDbSymbolTableRecord
100
AcDbBlockTableRecord
  2
*Paper_Space
340
1E
  0
BLOCK_RECORD
  5
23
330
1
100
AcDbSymbolTableRecord
100
AcDbBlockTableRecord
  2
*Paper_Space0
340
26
  0
BLOCK_RECORD
  5
1D3
330
1
100
AcDbSymbolTableRecord
100
AcDbBlockTableRecord
  2
*D1
340
0
  0
BLOCK_RECORD
  5
1E0
330
1
100
AcDbSymbolTableRecord
100
AcDbBlockTableRecord
  2
*D2
340
0
  0
BLOCK_RECORD
  5
1EB
330
1
100
AcDbSymbolTableRecord
100
AcDbBlockTableRecord
  2
*D3
340
0
  0
BLOCK_RECORD
  5
1F6
330
1
100
AcDbSymbolTableRecord
100
AcDbBlockTableRecord
  2
*D4
340
0
  0
BLOCK_RECORD
  5
201
330
1
100
AcDbSymbolTableRecord
100
AcDbBlockTableRecord
  2
*D5
340
0
  0
BLOCK_RECORD
  5
20B
330
1
100
AcDbSymbolTableRecord
100
AcDbBlockTableRecord
  2
*D6
340
0
  0
BLOCK_RECORD
  5
215
330
1
100
AcDbSymbolTableRecord
100
AcDbBlockTableRecord
  2
*D7
340
0
  0
BLOCK_RECORD
  5
21F
330
1
100
AcDbSymbolTableRecord
100
AcDbBlockTableRecord
  2
*D8
340
0
  0
ENDTAB
  0
ENDSEC
  0
SECTION
  2
BLOCKS
  0
BLOCK
  5
20
330
1F
100
AcDbEntity
  8
0
100
AcDbBlockBegin
  2
*Model_Space
 70
     0
 10
0.0
 20
0.0
 30
0.0
  3
*Model_Space
  1

  0
ENDBLK
  5
21
330
1F
100
AcDbEntity
  8
0
100
AcDbBlockEnd
  0
BLOCK
  5
1C
330
1B
100
AcDbEntity
 67
     1
  8
0
100
AcDbBlockBegin
  2
*Paper_Space
 70
     0
 10
0.0
 20
0.0
 30
0.0
  3
*Paper_Space
  1

  0
ENDBLK
  5
1D
330
1B
100
AcDbEntity
 67
     1
  8
0
100
AcDbBlockEnd
  0
BLOCK
  5
24
330
23
100
AcDbEntity
  8
0
100
AcDbBlockBegin
  2
*Paper_Space0
 70
     0
 10
0.0
 20
0.0
 30
0.0
  3
*Paper_Space0
  1

  0
ENDBLK
  5
25
330
23
100
AcDbEntity
  8
0
100
AcDbBlockEnd
  0
BLOCK
  5
1D4
330
1D3
100
AcDbEntity
  8
0
100
AcDbBlockBegin
  2
*D1
 70
     1
 10
0.0
 20
0.0
 30
0.0
  3
*D1
  1

  0
SOLID
  5
1D6
330
1D3
100
AcDbEntity
  8
VERMASSUNG
100
AcDbTrace
 10
48.2460455038
 20
142.4177681473
 30
0.0
 11
47.7960455038
 21
139.4177681473
 31
0.0
 12
48.6960455038
 22
139.4177681473
 32
0.0
 13
48.6960455038
 23
139.4177681473
 33
0.0
  0
SOLID
  5
1D7
330
1D3
100
AcDbEntity
  8
VERMASSUNG
100
AcDbTrace
 10
48.2460455038
 20
79.4177681473
 30
0.0
 11
48.6960455038
 21
82.4177681473
 31
0.0
 12
47.7960455038
 22
82.4177681473
 32
0.0
 13
47.7960455038
 23
82.4177681473
 33
0.0
  0
LINE
  5
1D8
330
1D3
100
AcDbEntity
  8
VERMASSUNG
100
AcDbLine
 10
84.7493921076
 20
142.4177681473
 30
0.0
 11
47.2460455038
 21
142.4177681473
 31
0.0
  0
LINE
  5
1D9
330
1D3
100
AcDbEntity
  8
VERMASSUNG
100
AcDbLine
 10
84.7493921076
 20
79.4177681473
 30
0.0
 11
47.2460455038
 21
79.4177681473
 31
0.0
  0
LINE
  5
1DA
330
1D3
100
AcDbEntity
  8
VERMASSUNG
100
AcDbLine
 10
48.2460455038
 20
142.4177681473
 30
0.0
 11
48.2460455038
 21
79.4177681473
 31
0.0
  0
MTEXT
  5
1DB
330
1D3
100
AcDbEntity
  8
VERMASSUNG
100
AcDbMText
 10
45.4679100147
 20
103.2142264355
 30
0.0
 40
2.0
 41
0.0
 71
     1
 72
     1
  1
HSK A 
  7
SLDTEXTSTYLE0
 11
-7.044195017643634E-15
 21
1.0
 31
0.0
 73
     1
 44
1.0
  0
MTEXT
  5
1DC
330
1D3
100
AcDbEntity
  8
VERMASSUNG
100
AcDbMText
 10
45.6679100242
 20
112.2142269794
 30
0.0
 40
2.0
 41
0.0
 71
     1
 72
     1
  1
%%c
  7
SLDTEXTSTYLE0
 11
-7.044195017643634E-15
 21
1.0
 31
0.0
 73
     1
 44
1.0
  0
MTEXT
  5
1DD
330
1D3
100
AcDbEntity
  8
VERMASSUNG
100
AcDbMText
 10
45.6679101407
 20
115.8225536295
 30
0.0
 40
2.0
 41
0.0
 71
     1
 72
     1
  1
63
  7
SLDTEXTSTYLE0
 11
-7.044195017643634E-15
 21
1.0
 31
0.0
 73
     1
 44
1.0
  0
ENDBLK
  5
1D5
330
1D3
100
AcDbEntity
  8
0
100
AcDbBlockEnd
  0
BLOCK
  5
1E1
330
1E0
100
AcDbEntity
  8
0
100
AcDbBlockBegin
  2
*D2
 70
     1
 10
0.0
 20
0.0
 30
0.0
  3
*D2
  1

  0
SOLID
  5
1E3
330
1E0
100
AcDbEntity
  8
VERMASSUNG
100
AcDbTrace
 10
186.9493921076
 20
148.0488624052
 30
0.0
 11
189.9493921076
 21
147.5988624052
 31
0.0
 12
189.9493921076
 22
148.4988624052
 32
0.0
 13
189.9493921076
 23
148.4988624052
 33
0.0
  0
SOLID
  5
1E4
330
1E0
100
AcDbEntity
  8
VERMASSUNG
100
AcDbTrace
 10
244.4493921076
 20
148.0488624052
 30
0.0
 11
241.4493921076
 21
148.4988624052
 31
0.0
 12
241.4493921076
 22
147.5988624052
 32
0.0
 13
241.4493921076
 23
147.5988624052
 33
0.0
  0
LINE
  5
1E5
330
1E0
100
AcDbEntity
  8
VERMASSUNG
100
AcDbLine
 10
186.9493921076
 20
123.3177681473
 30
0.0
 11
186.9493921076
 21
149.0488624052
 31
0.0
  0
LINE
  5
1E6
330
1E0
100
AcDbEntity
  8
VERMASSUNG
100
AcDbLine
 10
244.4493921076
 20
130.6067919182
 30
0.0
 11
244.4493921076
 21
149.0488624052
 31
0.0
  0
LINE
  5
1E7
330
1E0
100
AcDbEntity
  8
VERMASSUNG
100
AcDbLine
 10
186.9493921076
 20
148.0488624052
 30
0.0
 11
244.4493921076
 21
148.0488624052
 31
0.0
  0
MTEXT
  5
1E8
330
1E0
100
AcDbEntity
  8
VERMASSUNG
100
AcDbMText
 10
213.2997951412
 20
150.6269977683
 30
0.0
 40
2.0
 41
0.0
 71
     1
 72
     1
  1
57.5
  7
SLDTEXTSTYLE0
 73
     1
 44
1.0
  0
ENDBLK
  5
1E2
330
1E0
100
AcDbEntity
  8
0
100
AcDbBlockEnd
  0
BLOCK
  5
1EC
330
1EB
100
AcDbEntity
  8
0
100
AcDbBlockBegin
  2
*D3
 70
     1
 10
0.0
 20
0.0
 30
0.0
  3
*D3
  1

  0
SOLID
  5
1EE
330
1EB
100
AcDbEntity
  8
VERMASSUNG
100
AcDbTrace
 10
250.6105092091
 20
98.4177681473
 30
0.0
 11
251.0605092091
 21
101.4177681473
 31
0.0
 12
250.1605092091
 22
101.4177681473
 32
0.0
 13
250.1605092091
 23
101.4177681473
 33
0.0
  0
SOLID
  5
1EF
330
1EB
100
AcDbEntity
  8
VERMASSUNG
100
AcDbTrace
 10
250.6105092091
 20
123.4177681473
 30
0.0
 11
250.1605092091
 21
120.4177681473
 31
0.0
 12
251.0605092091
 22
120.4177681473
 32
0.0
 13
251.0605092091
 23
120.4177681473
 33
0.0
  0
LINE
  5
1F0
330
1EB
100
AcDbEntity
  8
VERMASSUNG
100
AcDbLine
 10
240.9493921076
 20
98.4177681473
 30
0.0
 11
251.6105092091
 21
98.4177681473
 31
0.0
  0
LINE
  5
1F1
330
1EB
100
AcDbEntity
  8
VERMASSUNG
100
AcDbLine
 10
240.9493921076
 20
123.4177681473
 30
0.0
 11
251.6105092091
 21
123.4177681473
 31
0.0
  0
LINE
  5
1F2
330
1EB
100
AcDbEntity
  8
VERMASSUNG
100
AcDbLine
 10
250.6105092091
 20
98.4177681473
 30
0.0
 11
250.6105092091
 21
123.4177681473
 31
0.0
  0
MTEXT
  5
1F3
330
1EB
100
AcDbEntity
  8
VERMASSUNG
100
AcDbMText
 10
248.0323737296
 20
107.7140509209
 30
0.0
 40
2.0
 41
0.0
 71
     1
 72
     1
  1
%%c
  7
SLDTEXTSTYLE0
 11
6.123233995736766E-17
 21
1.0
 31
0.0
 73
     1
 44
1.0
  0
MTEXT
  5
1F4
330
1EB
100
AcDbEntity
  8
VERMASSUNG
100
AcDbMText
 10
248.032373846
 20
111.3227291441
 30
0.0
 40
2.0
 41
0.0
 71
     1
 72
     1
  1
25
  7
SLDTEXTSTYLE0
 11
6.123233995736766E-17
 21
1.0
 31
0.0
 73
     1
 44
1.0
  0
ENDBLK
  5
1ED
330
1EB
100
AcDbEntity
  8
0
100
AcDbBlockEnd
  0
BLOCK
  5
1F7
330
1F6
100
AcDbEntity
  8
0
100
AcDbBlockBegin
  2
*D4
 70
     1
 10
0.0
 20
0.0
 30
0.0
  3
*D4
  1

  0
SOLID
  5
1F9
330
1F6
100
AcDbEntity
  8
VERMASSUNG
100
AcDbTrace
 10
256.6105092091
 20
88.9177681473
 30
0.0
 11
257.0605092091
 21
91.9177681473
 31
0.0
 12
256.1605092091
 22
91.9177681473
 32
0.0
 13
256.1605092091
 23
91.9177681473
 33
0.0
  0
SOLID
  5
1FA
330
1F6
100
AcDbEntity
  8
VERMASSUNG
100
AcDbTrace
 10
256.6105092091
 20
132.9177681473
 30
0.0
 11
256.1605092091
 21
129.9177681473
 31
0.0
 12
257.0605092091
 22
129.9177681473
 32
0.0
 13
257.0605092091
 23
129.9177681473
 33
0.0
  0
LINE
  5
1FB
330
1F6
100
AcDbEntity
  8
VERMASSUNG
100
AcDbLine
 10
244.4493921076
 20
88.9177681473
 30
0.0
 11
257.6105092091
 21
88.9177681473
 31
0.0
  0
LINE
  5
1FC
330
1F6
100
AcDbEntity
  8
VERMASSUNG
100
AcDbLine
 10
244.4493921076
 20
132.9177681473
 30
0.0
 11
257.6105092091
 21
132.9177681473
 31
0.0
  0
LINE
  5
1FD
330
1F6
100
AcDbEntity
  8
VERMASSUNG
100
AcDbLine
 10
256.6105092091
 20
88.9177681473
 30
0.0
 11
256.6105092091
 21
132.9177681473
 31
0.0
  0
MTEXT
  5
1FE
330
1F6
100
AcDbEntity
  8
VERMASSUNG
100
AcDbMText
 10
254.0323737296
 20
107.5144712893
 30
0.0
 40
2.0
 41
0.0
 71
     1
 72
     1
  1
%%c
  7
SLDTEXTSTYLE0
 11
6.123233995736766E-17
 21
1.0
 31
0.0
 73
     1
 44
1.0
  0
MTEXT
  5
1FF
330
1F6
100
AcDbEntity
  8
VERMASSUNG
100
AcDbMText
 10
254.032373846
 20
111.1231495125
 30
0.0
 40
2.0
 41
0.0
 71
     1
 72
     1
  1
44
  7
SLDTEXTSTYLE0
 11
6.123233995736766E-17
 21
1.0
 31
0.0
 73
     1
 44
1.0
  0
ENDBLK
  5
1F8
330
1F6
100
AcDbEntity
  8
0
100
AcDbBlockEnd
  0
BLOCK
  5
202
330
201
100
AcDbEntity
  8
0
100
AcDbBlockBegin
  2
*D5
 70
     1
 10
0.0
 20
0.0
 30
0.0
  3
*D5
  1

  0
SOLID
  5
204
330
201
100
AcDbEntity
  8
VERMASSUNG
100
AcDbTrace
 10
84.4493921076
 20
160.0488624052
 30
0.0
 11
87.4493921076
 21
159.5988624052
 31
0.0
 12
87.4493921076
 22
160.4988624052
 32
0.0
 13
87.4493921076
 23
160.4988624052
 33
0.0
  0
SOLID
  5
205
330
201
100
AcDbEntity
  8
VERMASSUNG
100
AcDbTrace
 10
244.4493921076
 20
160.0488624052
 30
0.0
 11
241.4493921076
 21
160.4988624052
 31
0.0
 12
241.4493921076
 22
159.5988624052
 32
0.0
 13
241.4493921076
 23
159.5988624052
 33
0.0
  0
LINE
  5
206
330
201
100
AcDbEntity
  8
VERMASSUNG
100
AcDbLine
 10
84.4493921076
 20
142.1177681473
 30
0.0
 11
84.4493921076
 21
161.0488624052
 31
0.0
  0
LINE
  5
207
330
201
100
AcDbEntity
  8
VERMASSUNG
100
AcDbLine
 10
244.4493921076
 20
130.6067919182
 30
0.0
 11
244.4493921076
 21
161.0488624052
 31
0.0
  0
LINE
  5
208
330
201
100
AcDbEntity
  8
VERMASSUNG
100
AcDbLine
 10
84.4493921076
 20
160.0488624052
 30
0.0
 11
244.4493921076
 21
160.0488624052
 31
0.0
  0
MTEXT
  5
209
330
201
100
AcDbEntity
  8
VERMASSUNG
100
AcDbMText
 10
162.549904567
 20
162.6269977683
 30
0.0
 40
2.0
 41
0.0
 71
     1
 72
     1
  1
160
  7
SLDTEXTSTYLE0
 73
     1
 44
1.0
  0
ENDBLK
  5
203
330
201
100
AcDbEntity
  8
0
100
AcDbBlockEnd
  0
BLOCK
  5
20C
330
20B
100
AcDbEntity
  8
0
100
AcDbBlockBegin
  2
*D6
 70
     1
 10
0.0
 20
0.0
 30
0.0
  3
*D6
  1

  0
SOLID
  5
20E
330
20B
100
AcDbEntity
  8
VERMASSUNG
100
AcDbTrace
 10
110.3993921076
 20
154.0488624052
 30
0.0
 11
113.3993921076
 21
153.5988624052
 31
0.0
 12
113.3993921076
 22
154.4988624052
 32
0.0
 13
113.3993921076
 23
154.4988624052
 33
0.0
  0
SOLID
  5
20F
330
20B
100
AcDbEntity
  8
VERMASSUNG
100
AcDbTrace
 10
244.4493921076
 20
154.0488624052
 30
0.0
 11
241.4493921076
 21
154.4988624052
 31
0.0
 12
241.4493921076
 22
153.5988624052
 32
0.0
 13
241.4493921076
 23
153.5988624052
 33
0.0
  0
LINE
  5
210
330
20B
100
AcDbEntity
  8
VERMASSUNG
100
AcDbLine
 10
110.3993921076
 20
140.7642084711
 30
0.0
 11
110.3993921076
 21
155.0488624052
 31
0.0
  0
LINE
  5
211
330
20B
100
AcDbEntity
  8
VERMASSUNG
100
AcDbLine
 10
244.4493921076
 20
130.6067919182
 30
0.0
 11
244.4493921076
 21
155.0488624052
 31
0.0
  0
LINE
  5
212
330
20B
100
AcDbEntity
  8
VERMASSUNG
100
AcDbLine
 10
110.3993921076
 20
154.0488624052
 30
0.0
 11
244.4493921076
 21
154.0488624052
 31
0.0
  0
MTEXT
  5
213
330
20B
100
AcDbEntity
  8
VERMASSUNG
100
AcDbMText
 10
173.7252068422
 20
156.6269977683
 30
0.0
 40
2.0
 41
0.0
 71
     1
 72
     1
  1
134.05
  7
SLDTEXTSTYLE0
 73
     1
 44
1.0
  0
ENDBLK
  5
20D
330
20B
100
AcDbEntity
  8
0
100
AcDbBlockEnd
  0
BLOCK
  5
216
330
215
100
AcDbEntity
  8
0
100
AcDbBlockBegin
  2
*D7
 70
     1
 10
0.0
 20
0.0
 30
0.0
  3
*D7
  1

  0
SOLID
  5
218
330
215
100
AcDbEntity
  8
VERMASSUNG
100
AcDbTrace
 10
52.5493921076
 20
166.0488624052
 30
0.0
 11
55.5493921076
 21
165.5988624052
 31
0.0
 12
55.5493921076
 22
166.4988624052
 32
0.0
 13
55.5493921076
 23
166.4988624052
 33
0.0
  0
SOLID
  5
219
330
215
100
AcDbEntity
  8
VERMASSUNG
100
AcDbTrace
 10
244.4493921076
 20
166.0488624052
 30
0.0
 11
241.4493921076
 21
166.4988624052
 31
0.0
 12
241.4493921076
 22
165.5988624052
 32
0.0
 13
241.4493921076
 23
165.5988624052
 33
0.0
  0
LINE
  5
21A
330
215
100
AcDbEntity
  8
VERMASSUNG
100
AcDbLine
 10
52.5493921076
 20
130.6084458938
 30
0.0
 11
52.5493921076
 21
167.0488624052
 31
0.0
  0
LINE
  5
21B
330
215
100
AcDbEntity
  8
VERMASSUNG
100
AcDbLine
 10
244.4493921076
 20
130.6067919182
 30
0.0
 11
244.4493921076
 21
167.0488624052
 31
0.0
  0
LINE
  5
21C
330
215
100
AcDbEntity
  8
VERMASSUNG
100
AcDbLine
 10
52.5493921076
 20
166.0488624052
 30
0.0
 11
244.4493921076
 21
166.0488624052
 31
0.0
  0
MTEXT
  5
21D
330
215
100
AcDbEntity
  8
VERMASSUNG
100
AcDbMText
 10
145.8004256937
 20
168.6269977683
 30
0.0
 40
2.0
 41
0.0
 71
     1
 72
     1
  1
191.9
  7
SLDTEXTSTYLE0
 73
     1
 44
1.0
  0
ENDBLK
  5
217
330
215
100
AcDbEntity
  8
0
100
AcDbBlockEnd
  0
BLOCK
  5
220
330
21F
100
AcDbEntity
  8
0
100
AcDbBlockBegin
  2
*D8
 70
     1
 10
0.0
 20
0.0
 30
0.0
  3
*D8
  1

  0
SOLID
  5
222
330
21F
100
AcDbEntity
  8
VERMASSUNG
100
AcDbTrace
 10
262.6105092091
 20
136.9177681473
 30
0.0
 11
262.1605092091
 21
133.9177681473
 31
0.0
 12
263.0605092091
 22
133.9177681473
 32
0.0
 13
263.0605092091
 23
133.9177681473
 33
0.0
  0
SOLID
  5
223
330
21F
100
AcDbEntity
  8
VERMASSUNG
100
AcDbTrace
 10
262.6105092091
 20
84.9177681473
 30
0.0
 11
263.0605092091
 21
87.9177681473
 31
0.0
 12
262.1605092091
 22
87.9177681473
 32
0.0
 13
262.1605092091
 23
87.9177681473
 33
0.0
  0
LINE
  5
224
330
21F
100
AcDbEntity
  8
VERMASSUNG
100
AcDbLine
 10
193.6245731629
 20
136.9177681473
 30
0.0
 11
263.6105092091
 21
136.9177681473
 31
0.0
  0
LINE
  5
225
330
21F
100
AcDbEntity
  8
VERMASSUNG
100
AcDbLine
 10
193.6245731629
 20
84.9177681473
 30
0.0
 11
263.6105092091
 21
84.9177681473
 31
0.0
  0
LINE
  5
226
330
21F
100
AcDbEntity
  8
VERMASSUNG
100
AcDbLine
 10
262.6105092091
 20
136.9177681473
 30
0.0
 11
262.6105092091
 21
84.9177681473
 31
0.0
  0
MTEXT
  5
227
330
21F
100
AcDbEntity
  8
VERMASSUNG
100
AcDbMText
 10
260.0323737296
 20
107.7140509209
 30
0.0
 40
2.0
 41
0.0
 71
     1
 72
     1
  1
%%c
  7
SLDTEXTSTYLE0
 11
-7.044195017643634E-15
 21
1.0
 31
0.0
 73
     1
 44
1.0
  0
MTEXT
  5
228
330
21F
100
AcDbEntity
  8
VERMASSUNG
100
AcDbMText
 10
260.032373846
 20
111.3227291441
 30
0.0
 40
2.0
 41
0.0
 71
     1
 72
     1
  1
52
  7
SLDTEXTSTYLE0
 11
-7.044195017643634E-15
 21
1.0
 31
0.0
 73
     1
 44
1.0
  0
ENDBLK
  5
221
330
21F
100
AcDbEntity
  8
0
100
AcDbBlockEnd
  0
ENDSEC
  0
SECTION
  2
ENTITIES
  0
MTEXT
  5
45
330
1F
100
AcDbEntity
  8
KOPF_DÜNN
100
AcDbMText
 10
13.8892156294
 20
23.8442973028
 30
0.0
 40
3.0
 41
0.0
 71
     1
 72
     1
  1
HA6.S25.K21.160
  7
SLDTEXTSTYLE0
 73
     1
 44
1.0
  0
MTEXT
  5
46
330
1F
100
AcDbEntity
  8
VERMASSUNG
100
AcDbMText
 10
13.9329988022
 20
28.8834360957
 30
0.0
 40
3.0
 41
0.0
 71
     1
 72
     1
  1
Schrumpffutter_Heat shrink chuck
  7
SLDTEXTSTYLE0
 73
     1
 44
1.0
  0
MTEXT
  5
47
330
1F
100
AcDbEntity
  8
VERMASSUNG
100
AcDbMText
 10
98.8601118557
 20
13.8365368179
 30
0.0
 40
2.0
 41
0.0
 71
     1
 72
     1
  1
Datum: 28.04.2011
  7
SLDTEXTSTYLE0
 73
     1
 44
1.0
  0
MTEXT
  5
49
330
1F
100
AcDbEntity
  8
VERMASSUNG
100
AcDbMText
 10
13.933048693
 20
18.0482802738
 30
0.0
 40
2.0
 41
0.0
 71
     1
 72
     1
  1
DIN 69 893 HSK A 63
  7
SLDTEXTSTYLE1
 73
     1
 44
1.0
  0
MTEXT
  5
4A
330
1F
100
AcDbEntity
  8
VERMASSUNG
100
AcDbMText
 10
13.9808475933
 20
13.9090973692
 30
0.0
 40
2.0
 41
0.0
 71
     1
 72
     1
  1
Gewicht: 2473g
  7
SLDTEXTSTYLE0
 73
     1
 44
1.0
  0
LINE
  5
4B
330
1F
100
AcDbEntity
  8
0
  6
Continuous
 62
     7
370
    15
100
AcDbLine
 10
84.7493921076
 20
79.4177681473
 30
0.0
 11
89.3993921076
 21
79.4177681473
 31
0.0
  0
LINE
  5
4C
330
1F
100
AcDbEntity
  8
0
  6
Continuous
 62
     7
370
    15
100
AcDbLine
 10
89.4087001944
 20
142.4177681473
 30
0.0
 11
84.7493921076
 21
142.4177681473
 31
0.0
  0
ARC
  5
4D
330
1F
100
AcDbEntity
  8
0
  6
Continuous
 62
     7
370
    15
100
AcDbCircle
 10
84.7493921076
 20
79.7177681473
 30
0.0
 40
0.3000000000000114
100
AcDbArc
 50
180.0
 51
270.0
  0
ARC
  5
4E
330
1F
100
AcDbEntity
  8
0
  6
Continuous
 62
     7
370
    15
100
AcDbCircle
 10
84.7493921076
 20
142.1177681473
 30
0.0
 40
0.3000000000000398
100
AcDbArc
 50
90.0
 51
180.0
  0
ARC
  5
4F
330
1F
100
AcDbEntity
  8
0
  6
Continuous
 62
     7
370
    15
100
AcDbCircle
 10
111.3993921076
 20
83.9177681473
 30
0.0
 40
1.0
100
AcDbArc
 50
90.0
 51
143.1139143113
  0
ARC
  5
50
330
1F
100
AcDbEntity
  8
0
  6
Continuous
 62
     7
370
    15
100
AcDbCircle
 10
111.3993921076
 20
137.9177681473
 30
0.0
 40
1.000000000000009
100
AcDbArc
 50
216.9131094514
 51
270.0
  0
LINE
  5
51
330
1F
100
AcDbEntity
  8
0
  6
Continuous
 62
     7
370
    15
100
AcDbLine
 10
159.8874890466
 20
84.9177681473
 30
0.0
 11
193.6245731629
 21
84.9177681473
 31
0.0
  0
LINE
  5
52
330
1F
100
AcDbEntity
  8
0
  6
Continuous
 62
     7
370
    15
100
AcDbLine
 10
111.3993921076
 20
84.9177681473
 30
0.0
 11
152.9019729793
 21
84.9177681473
 31
0.0
  0
LINE
  5
53
330
1F
100
AcDbEntity
  8
0
  6
Continuous
 62
     7
370
    15
100
AcDbLine
 10
152.9106681903
 20
136.9177681473
 30
0.0
 11
111.3993921076
 21
136.9177681473
 31
0.0
  0
LINE
  5
54
330
1F
100
AcDbEntity
  8
0
  6
Continuous
 62
     7
370
    15
100
AcDbLine
 10
193.6245731629
 20
136.9177681473
 30
0.0
 11
159.898043413
 21
136.9177681473
 31
0.0
  0
LINE
  5
55
330
1F
100
AcDbEntity
  8
0
  6
Continuous
 62
     7
370
    15
100
AcDbLine
 10
193.6245731629
 20
84.9177681473
 30
0.0
 11
242.1455398469
 21
88.7364510422
 31
0.0
  0
LINE
  5
56
330
1F
100
AcDbEntity
  8
0
  6
Continuous
 62
     7
370
    15
100
AcDbLine
 10
242.1455398469
 20
133.0990852525
 30
0.0
 11
193.6245731629
 21
136.9177681473
 31
0.0
  0
ARC
  5
57
330
1F
100
AcDbEntity
  8
0
  6
Continuous
 62
     7
370
    15
100
AcDbCircle
 10
83.9493853549
 20
86.347330533
 30
0.0
 40
0.6000067526677242
100
AcDbArc
 50
33.5571153394
 51
90.0
  0
ARC
  5
58
330
1F
100
AcDbEntity
  8
0
  6
Continuous
 62
     7
370
    15
100
AcDbCircle
 10
83.9493853549
 20
135.4882057617
 30
0.0
 40
0.6000067526677242
100
AcDbArc
 50
270.0
 51
326.4428846606
  0
LINE
  5
59
330
1F
100
AcDbEntity
  8
0
  6
Continuous
 62
     7
370
    15
100
AcDbLine
 10
82.4493921076
 20
86.6973372856
 30
0.0
 11
83.306104881
 21
86.9268927814
 31
0.0
  0
LINE
  5
5A
330
1F
100
AcDbEntity
  8
0
  6
Continuous
 62
     7
370
    15
100
AcDbLine
 10
83.306104881
 20
134.9086435133
 30
0.0
 11
82.4493921076
 21
135.1381990091
 31
0.0
  0
LINE
  5
5B
330
1F
100
AcDbEntity
  8
0
  6
Continuous
 62
     7
370
    15
100
AcDbLine
 10
71.2189701052
 20
134.5755526162
 30
0.0
 11
58.6493921076
 21
133.9458142395
 31
0.0
  0
LINE
  5
5C
330
1F
100
AcDbEntity
  8
0
  6
Continuous
 62
     7
370
    15
100
AcDbLine
 10
82.4493921076
 20
135.1381990091
 30
0.0
 11
79.630782315
 21
134.9969860936
 31
0.0
  0
LINE
  5
5D
330
1F
100
AcDbEntity
  8
0
  6
Continuous
 62
     7
370
    15
100
AcDbLine
 10
79.6310042253
 20
86.8385390833
 30
0.0
 11
82.4493921076
 21
86.6973372856
 31
0.0
  0
LINE
  5
5E
330
1F
100
AcDbEntity
  8
0
  6
Continuous
 62
     7
370
    15
100
AcDbLine
 10
62.6493921076
 20
87.6893212536
 30
0.0
 11
71.2196688768
 21
87.2599486699
 31
0.0
  0
ARC
  5
5F
330
1F
100
AcDbEntity
  8
0
  6
Continuous
 62
     7
370
    15
100
AcDbCircle
 10
83.4613963081
 20
86.3473372856
 30
0.0
 40
0.6000000000000085
100
AcDbArc
 50
90.0
 51
105.0
  0
ARC
  5
60
330
1F
100
AcDbEntity
  8
0
  6
Continuous
 62
     7
370
    15
100
AcDbCircle
 10
83.4613963081
 20
135.4881990091
 30
0.0
 40
0.6000000000000227
100
AcDbArc
 50
255.0
 51
270.0
  0
LINE
  5
61
330
1F
100
AcDbEntity
  8
0
  6
Continuous
 62
     7
370
    15
100
AcDbLine
 10
83.4613963081
 20
86.9473372856
 30
0.0
 11
83.9493853549
 21
86.9473372856
 31
0.0
  0
LINE
  5
62
330
1F
100
AcDbEntity
  8
0
  6
Continuous
 62
     7
370
    15
100
AcDbLine
 10
83.9493853549
 20
134.8881990091
 30
0.0
 11
83.4613963081
 21
134.8881990091
 31
0.0
  0
ARC
  5
63
330
1F
100
AcDbEntity
  8
0
  6
Continuous
 62
     7
370
    15
100
AcDbCircle
 10
241.9493921076
 20
91.2287443765
 30
0.0
 40
2.500000000000009
100
AcDbArc
 50
274.5
 51
0.0
  0
ARC
  5
64
330
1F
100
AcDbEntity
  8
0
  6
Continuous
 62
     7
370
    15
100
AcDbCircle
 10
241.9493921076
 20
130.6067919182
 30
0.0
 40
2.500000000000009
100
AcDbArc
 50
0.0
 51
85.5
  0
LINE
  5
65
330
1F
100
AcDbEntity
  8
0
  6
Continuous
 62
     7
370
    15
100
AcDbLine
 10
53.8327287476
 20
90.0477681473
 30
0.0
 11
61.2493921076
 21
90.0477681473
 31
0.0
  0
ARC
  5
66
330
1F
100
AcDbEntity
  8
0
  6
Continuous
 62
     7
370
    15
100
AcDbCircle
 10
61.2493921076
 20
88.6477681473
 30
0.0
 40
1.40000000000002
100
AcDbArc
 50
42.2465410162
 51
90.0
  0
LINE
  5
67
330
1F
100
AcDbEntity
  8
0
  6
Continuous
 62
     7
370
    15
100
AcDbLine
 10
52.5605525427
 20
91.1866077122
 30
0.0
 11
53.6905555658
 21
90.0566046892
 31
0.0
  0
LINE
  5
68
330
1F
100
AcDbEntity
  8
0
  6
Continuous
 62
     7
370
    15
100
AcDbLine
 10
53.6905555658
 20
131.7789316055
 30
0.0
 11
52.5605597268
 21
130.6489357665
 31
0.0
  0
ARC
  5
69
330
1F
100
AcDbEntity
  8
0
  6
Continuous
 62
     7
370
    15
100
AcDbCircle
 10
57.2493921076
 20
133.1877681473
 30
0.0
 40
1.400000000000006
100
AcDbArc
 50
270.0
 51
302.5610026528
  0
LINE
  5
6A
330
1F
100
AcDbEntity
  8
0
  6
Continuous
 62
     7
370
    15
100
AcDbLine
 10
57.2493921076
 20
131.7877681473
 30
0.0
 11
53.840280509
 21
131.7877681473
 31
0.0
  0
LINE
  5
6B
330
1F
100
AcDbEntity
  8
0
  6
Continuous
 62
     7
370
    15
100
AcDbLine
 10
244.4733405952
 20
129.5280694181
 30
0.0
 11
244.4493921076
 21
129.573588006
 31
0.0
  0
LINE
  5
6C
330
1F
100
AcDbEntity
  8
0
  6
Continuous
 62
     7
370
    15
100
AcDbLine
 10
244.4493921076
 20
92.1157920616
 30
0.0
 11
244.5518602267
 21
92.3105519214
 31
0.0
  0
SPLINE
  5
6D
330
1F
100
AcDbEntity
  8
0
  6
Continuous
 62
     7
370
    15
100
AcDbSpline
210
0.0
220
0.0
230
1.0
 70
     8
 71
     3
 72
    70
 73
    66
 74
     0
 42
0.00000001
 43
0.00000001
 40
-0.0312499999999998
 40
-0.0312499999999998
 40
0.0
 40
0.0
 40
0.03125
 40
0.03125
 40
0.0625000000000001
 40
0.0625000000000001
 40
0.0937500000000001
 40
0.0937500000000001
 40
0.1250000000000002
 40
0.1250000000000002
 40
0.1562500000000002
 40
0.1562500000000002
 40
0.1875000000000003
 40
0.1875000000000003
 40
0.2187500000000003
 40
0.2187500000000003
 40
0.2500000000000004
 40
0.2500000000000004
 40
0.2812500000000004
 40
0.2812500000000004
 40
0.3125000000000005
 40
0.3125000000000005
 40
0.3437500000000006
 40
0.3437500000000006
 40
0.3750000000000006
 40
0.3750000000000006
 40
0.4062500000000006
 40
0.4062500000000006
 40
0.4375000000000007
 40
0.4375000000000007
 40
0.4687500000000007
 40
0.4687500000000007
 40
0.5000000000000008
 40
0.5000000000000008
 40
0.5312500000000009
 40
0.5312500000000009
 40
0.5625000000000011
 40
0.5625000000000011
 40
0.5937500000000012
 40
0.5937500000000012
 40
0.6250000000000014
 40
0.6250000000000014
 40
0.6562500000000016
 40
0.6562500000000016
 40
0.6875000000000018
 40
0.6875000000000018
 40
0.7187500000000016
 40
0.7187500000000016
 40
0.7500000000000014
 40
0.7500000000000014
 40
0.7812500000000012
 40
0.7812500000000012
 40
0.812500000000001
 40
0.812500000000001
 40
0.8437500000000009
 40
0.8437500000000009
 40
0.8750000000000007
 40
0.8750000000000007
 40
0.9062500000000006
 40
0.9062500000000006
 40
0.9375000000000003
 40
0.9375000000000003
 40
0.9687500000000002
 40
0.9687500000000002
 40
1.0
 40
1.0
 40
1.03125
 40
1.03125
 10
92.18484676895616
 20
121.538675033329
 30
0.0
 10
92.71393744627645
 20
121.538675033329
 30
0.0
 10
92.97400811365355
 20
121.5633523281142
 30
0.0
 10
93.48558279348897
 20
121.6598240011561
 30
0.0
 10
93.73975807722915
 20
121.7328049171362
 30
0.0
 10
94.22402870729087
 20
121.9225455200748
 30
0.0
 10
94.45366979917202
 20
122.0384061784686
 30
0.0
 10
94.88827414740551
 20
122.3110240244263
 30
0.0
 10
95.09383992405212
 20
122.46906310648
 30
0.0
 10
95.46239706464736
 20
122.8126059574507
 30
0.0
 10
95.62787804738285
 20
122.9993684015524
 30
0.0
 10
95.92030255681796
 20
123.4029115759491
 30
0.0
 10
96.04440353344445
 20
123.6164085723783
 30
0.0
 10
96.24398273019418
 20
124.0557918863008
 30
0.0
 10
96.32091631605245
 20
124.2849318734464
 30
0.0
 10
96.4237733745728
 20
124.7509059962065
 30
0.0
 10
96.44924628403194
 20
124.9837884418826
 30
0.0
 10
96.44953669459971
 20
125.4491859769624
 30
0.0
 10
96.42351206082397
 20
125.6840617343568
 30
0.0
 10
96.32136377633198
 20
126.135554881603
 30
0.0
 10
96.2457873287488
 20
126.3536013570144
 30
0.0
 10
96.04528979760387
 20
126.7746958820522
 30
0.0
 10
95.92016095609551
 20
126.9766172665705
 30
0.0
 10
95.63080215507391
 20
127.3486467490895
 30
0.0
 10
95.46539116801844
 20
127.5212750526698
 30
0.0
 10
95.09240060987062
 20
127.8385930572158
 30
0.0
 10
94.89066757678152
 20
127.9783799907175
 30
0.0
 10
94.45780832595366
 20
128.2225562442693
 30
0.0
 10
94.22388979306427
 20
128.3277857553108
 30
0.0
 10
93.73970605792167
 20
128.4959429016859
 30
0.0
 10
93.49039043196615
 20
128.5591937922797
 30
0.0
 10
92.97735790753842
 20
128.6447730013823
 30
0.0
 10
92.71206408463378
 20
128.6666451663047
 30
0.0
 10
92.18972946476403
 20
128.6668088159487
 30
0.0
 10
91.92997580228231
 20
128.6458071238527
 30
0.0
 10
91.41336398663707
 20
128.560404768775
 30
0.0
 10
91.16099794613679
 20
128.4963985854881
 30
0.0
 10
90.67947282460395
 20
128.3295840654469
 30
0.0
 10
90.4466220924904
 20
128.2254509020478
 30
0.0
 10
90.00953224405163
 20
127.9794642495528
 30
0.0
 10
89.80821125539445
 20
127.8397144186039
 30
0.0
 10
89.43912523009455
 20
127.5265763488793
 30
0.0
 10
89.27014047904287
 20
127.3511201896092
 30
0.0
 10
88.97968442238364
 20
126.978279925509
 30
0.0
 10
88.85661261102152
 20
126.7801581153981
 30
0.0
 10
88.65527636959949
 20
126.3594467726644
 30
0.0
 10
88.57806382365726
 20
126.1374567519969
 30
0.0
 10
88.4758602807572
 20
125.6875918122885
 30
0.0
 10
88.44963192930489
 20
125.4573363991718
 30
0.0
 10
88.44915552998778
 20
124.9860204566227
 30
0.0
 10
88.47489794248575
 20
124.7527830409085
 30
0.0
 10
88.57620871884961
 20
124.2911065014105
 30
0.0
 10
88.65304135824054
 20
124.0602091142983
 30
0.0
 10
88.85344519745573
 20
123.6179331005067
 30
0.0
 10
88.97611669574776
 20
123.4068706692208
 30
0.0
 10
89.266063984912
 20
123.0053721584881
 30
0.0
 10
89.43463496427722
 20
122.8144656364122
 30
0.0
 10
89.8029045583904
 20
122.4707403044151
 30
0.0
 10
90.0039664156607
 20
122.315603118201
 30
0.0
 10
90.44099733424562
 20
122.0405257581213
 30
0.0
 10
90.67314554737524
 20
121.9234095286993
 30
0.0
 10
91.1541558288741
 20
121.7344830436347
 30
0.0
 10
91.40625591170453
 20
121.6614080732405
 30
0.0
 10
91.92332539796354
 20
121.5633560141059
 30
0.0
 10
92.18484676895616
 20
121.538675033329
 30
0.0
 10
92.71393744627645
 20
121.538675033329
 30
0.0
  0
LINE
  5
6E
330
1F
100
AcDbEntity
  8
0
  6
Continuous
 62
     7
370
    15
100
AcDbLine
 10
89.3993921076
 20
130.7677681473
 30
0.0
 11
99.0574592761
 21
130.7677681473
 31
0.0
  0
LINE
  5
6F
330
1F
100
AcDbEntity
  8
0
  6
Continuous
 62
     7
370
    15
100
AcDbLine
 10
99.0574592761
 20
80.7308504511
 30
0.0
 11
99.0574592761
 21
130.7677681473
 31
0.0
  0
LINE
  5
70
330
1F
100
AcDbEntity
  8
0
  6
Continuous
 62
     7
370
    15
100
AcDbLine
 10
99.0574592761
 20
80.7308504511
 30
0.0
 11
97.3993921076
 21
80.7308504511
 31
0.0
  0
SPLINE
  5
71
330
1F
100
AcDbEntity
  8
0
  6
Continuous
 62
     7
370
    15
100
AcDbSpline
210
0.0
220
0.0
230
1.0
 70
     8
 71
     3
 72
    28
 73
    24
 74
     0
 42
0.00000001
 43
0.00000001
 40
0.0
 40
0.0
 40
0.0
 40
0.0
 40
0.1249999999999996
 40
0.1249999999999996
 40
0.1874999999999994
 40
0.1874999999999994
 40
0.2499999999999992
 40
0.2499999999999992
 40
0.3749999999999986
 40
0.3749999999999986
 40
0.4374999999999986
 40
0.4374999999999986
 40
0.4999999999999986
 40
0.4999999999999986
 40
0.6249999999999988
 40
0.6249999999999988
 40
0.7499999999999991
 40
0.7499999999999991
 40
0.8124999999999993
 40
0.8124999999999993
 40
0.8749999999999996
 40
0.8749999999999996
 40
1.0
 40
1.0
 40
1.0
 40
1.0
 10
97.39939210761631
 20
80.73085045109853
 30
0.0
 10
96.86768435012338
 20
80.73085045109853
 30
0.0
 10
96.34544578481305
 20
80.71506573714832
 30
0.0
 10
95.57557529853806
 20
80.67007032307211
 30
0.0
 10
95.32121572634672
 20
80.65151532799639
 30
0.0
 10
94.81709414564821
 20
80.6076626055499
 30
0.0
 10
94.56737132822026
 20
80.58231799859769
 30
0.0
 10
93.84178137677387
 20
80.4989159208476
 30
0.0
 10
93.38342111519232
 20
80.43305036169649
 30
0.0
 10
92.73292317179845
 20
80.3240800212047
 30
0.0
 10
92.52124112100599
 20
80.28584038543805
 30
0.0
 10
92.11716963186798
 20
80.2080816480187
 30
0.0
 10
91.92466311804714
 20
80.16858068584335
 30
0.0
 10
91.37482814702584
 20
80.04967294347736
 30
0.0
 10
91.04489936871704
 20
79.96985526205275
 30
0.0
 10
90.46042810014835
 20
79.81651210025669
 30
0.0
 10
90.21415096213492
 20
79.74517834698744
 30
0.0
 10
89.91430816943685
 20
79.65123483991282
 30
0.0
 10
89.82585131236466
 20
79.62204104655288
 30
0.0
 10
89.67248995905953
 20
79.56857447228946
 30
0.0
 10
89.6074017448333
 20
79.5442151380143
 30
0.0
 10
89.4518077288925
 20
79.48062499256956
 30
0.0
 10
89.39939210761631
 20
79.4505220574803
 30
0.0
 10
89.39939210761631
 20
79.43364516448337
 30
0.0
  0
LINE
  5
72
330
1F
100
AcDbEntity
  8
0
  6
Continuous
 62
     7
370
    15
100
AcDbLine
 10
89.3993921076
 20
79.4336451645
 30
0.0
 11
89.3993921076
 21
79.4177681473
 31
0.0
  0
SPLINE
  5
73
330
1F
100
AcDbEntity
  8
0
  6
Continuous
 62
     7
370
    15
100
AcDbSpline
210
0.0
220
0.0
230
1.0
 70
     8
 71
     3
 72
    22
 73
    18
 74
     0
 42
0.00000001
 43
0.00000001
 40
0.0
 40
0.0
 40
0.0
 40
0.0
 40
0.0515773377536172
 40
0.156526484994363
 40
0.2100197540385887
 40
0.2615951369298747
 40
0.3664424119934944
 40
0.4198226601719805
 40
0.4724528789006788
 40
0.5794488992297347
 40
0.633939733648029
 40
0.687267045260295
 40
0.7409741315029987
 40
0.7958968813361835
 40
0.8512481408256368
 40
0.9034470736265869
 40
1.0
 40
1.0
 40
1.0
 40
1.0
 10
97.39939210761631
 20
141.38496362051
 30
0.0
 10
97.18258191161385
 20
141.3863602415785
 30
0.0
 10
96.5246080926991
 20
141.3905986958347
 30
0.0
 10
95.64951311536818
 20
141.430131020189
 30
0.0
 10
94.8046876205113
 20
141.4931042670309
 30
0.0
 10
93.98496233690709
 20
141.571118300286
 30
0.0
 10
93.20917235887867
 20
141.6680014281611
 30
0.0
 10
92.4916838975722
 20
141.7762608400771
 30
0.0
 10
91.81241915040013
 20
141.8899792123816
 30
0.0
 10
91.20410417249123
 20
142.0064793973224
 30
0.0
 10
90.68401223176804
 20
142.1155796487394
 30
0.0
 10
90.34012205405192
 20
142.1915835464695
 30
0.0
 10
90.04516832632436
 20
142.2596170023911
 30
0.0
 10
89.79939403898318
 20
142.3183300531497
 30
0.0
 10
89.6134917300098
 20
142.3639454330834
 30
0.0
 10
89.44189512428605
 20
142.4069048846439
 30
0.0
 10
89.4217658491098
 20
142.4120659064459
 30
0.0
 10
89.40870019443608
 20
142.4154158595883
 30
0.0
  0
LINE
  5
74
330
1F
100
AcDbEntity
  8
0
  6
Continuous
 62
     7
370
    15
100
AcDbLine
 10
99.0574592761
 20
141.3849636205
 30
0.0
 11
97.3993921076
 21
141.3849636205
 31
0.0
  0
LINE
  5
75
330
1F
100
AcDbEntity
  8
0
  6
Continuous
 62
     7
370
    15
100
AcDbLine
 10
99.0574592761
 20
135.3764578097
 30
0.0
 11
99.0574592761
 21
141.3849636205
 31
0.0
  0
LINE
  5
76
330
1F
100
AcDbEntity
  8
0
  6
Continuous
 62
     7
370
    15
100
AcDbLine
 10
96.6450124533
 20
135.3764578097
 30
0.0
 11
99.0574592761
 21
135.3764578097
 31
0.0
  0
SPLINE
  5
77
330
1F
100
AcDbEntity
  8
0
  6
Continuous
 62
     7
370
    15
100
AcDbSpline
210
0.0
220
0.0
230
1.0
 70
     8
 71
     3
 72
    20
 73
    16
 74
     0
 42
0.00000001
 43
0.00000001
 40
0.0
 40
0.0
 40
0.0
 40
0.0
 40
0.25
 40
0.25
 40
0.375
 40
0.375
 40
0.5
 40
0.5
 40
0.625
 40
0.625
 40
0.75
 40
0.75
 40
0.875
 40
0.875
 40
1.0
 40
1.0
 40
1.0
 40
1.0
 10
89.39939210761632
 20
130.7677681473457
 30
0.0
 10
89.64776584190439
 20
131.4216305756431
 30
0.0
 10
89.96733593424965
 20
132.0254163576403
 30
0.0
 10
90.58964216745433
 20
132.8522550938089
 30
0.0
 10
90.8210664278851
 20
133.1146837317618
 30
0.0
 10
91.3422807675348
 20
133.6113463858667
 30
0.0
 10
91.62890125016987
 20
133.8419332648882
 30
0.0
 10
92.24838599147749
 20
134.2584874894709
 30
0.0
 10
92.58268637096445
 20
134.4459852914384
 30
0.0
 10
93.30794684358924
 20
134.7773822690748
 30
0.0
 10
93.68986190097971
 20
134.9168862565701
 30
0.0
 10
94.4846500771514
 20
135.142339764041
 30
0.0
 10
94.89880827135777
 20
135.2289658755847
 30
0.0
 10
95.76435461193917
 20
135.3469466644388
 30
0.0
 10
96.20224222695099
 20
135.3764578097131
 30
0.0
 10
96.64501245330558
 20
135.3764578097131
 30
0.0
  0
SPLINE
  5
78
330
1F
100
AcDbEntity
  8
0
  6
Continuous
 62
     7
370
    15
100
AcDbSpline
210
0.0
220
0.0
230
1.0
 70
     8
 71
     3
 72
    70
 73
    66
 74
     0
 42
0.00000001
 43
0.00000001
 40
-0.03125
 40
-0.03125
 40
0.0
 40
0.0
 40
0.0312499999999998
 40
0.0312499999999998
 40
0.0624999999999997
 40
0.0624999999999997
 40
0.0937499999999995
 40
0.0937499999999995
 40
0.1249999999999994
 40
0.1249999999999994
 40
0.1562499999999992
 40
0.1562499999999992
 40
0.1874999999999991
 40
0.1874999999999991
 40
0.2187499999999989
 40
0.2187499999999989
 40
0.2499999999999988
 40
0.2499999999999988
 40
0.2812499999999988
 40
0.2812499999999988
 40
0.3124999999999988
 40
0.3124999999999988
 40
0.3437499999999988
 40
0.3437499999999988
 40
0.3749999999999988
 40
0.3749999999999988
 40
0.4062499999999988
 40
0.4062499999999988
 40
0.4374999999999988
 40
0.4374999999999988
 40
0.4687499999999989
 40
0.4687499999999989
 40
0.4999999999999989
 40
0.4999999999999989
 40
0.5312499999999991
 40
0.5312499999999991
 40
0.5624999999999992
 40
0.5624999999999992
 40
0.5937499999999994
 40
0.5937499999999994
 40
0.6249999999999996
 40
0.6249999999999996
 40
0.6562499999999998
 40
0.6562499999999998
 40
0.6875
 40
0.6875
 40
0.7187500000000001
 40
0.7187500000000001
 40
0.7500000000000003
 40
0.7500000000000003
 40
0.7812500000000003
 40
0.7812500000000003
 40
0.8125000000000002
 40
0.8125000000000002
 40
0.8437500000000002
 40
0.8437500000000002
 40
0.8750000000000001
 40
0.8750000000000001
 40
0.9062500000000001
 40
0.9062500000000001
 40
0.9375000000000001
 40
0.9375000000000001
 40
0.96875
 40
0.96875
 40
1.0
 40
1.0
 40
1.03125
 40
1.03125
 10
92.18484676895616
 20
135.9767315421248
 30
0.0
 10
92.71393744627646
 20
135.9767315421248
 30
0.0
 10
92.97400811365355
 20
135.9926319825396
 30
0.0
 10
93.48558279348899
 20
136.0545763327139
 30
0.0
 10
93.73975807722915
 20
136.1013785668052
 30
0.0
 10
94.22402870729087
 20
136.2223555502603
 30
0.0
 10
94.45366979917202
 20
136.2959578780671
 30
0.0
 10
94.88827414740551
 20
136.4677821490452
 30
0.0
 10
95.09383992405212
 20
136.5667855719727
 30
0.0
 10
95.46239706464736
 20
136.7798819858855
 30
0.0
 10
95.62787804738285
 20
136.8947817020152
 30
0.0
 10
95.92030255681797
 20
137.1401486007054
 30
0.0
 10
96.04440353344445
 20
137.2685885011757
 30
0.0
 10
96.24398273019418
 20
137.5294806492617
 30
0.0
 10
96.32091631605245
 20
137.6638618206012
 30
0.0
 10
96.4237733745728
 20
137.9331817717074
 30
0.0
 10
96.44924628403194
 20
138.0658630359256
 30
0.0
 10
96.44953669459971
 20
138.3270495100566
 30
0.0
 10
96.42351206082397
 20
138.4568145482214
 30
0.0
 10
96.32136377633198
 20
138.702397182494
 30
0.0
 10
96.2457873287488
 20
138.8190587198029
 30
0.0
 10
96.04528979760387
 20
139.0409639099574
 30
0.0
 10
95.92016095609551
 20
139.1455751638804
 30
0.0
 10
95.63080215507391
 20
139.3356215754885
 30
0.0
 10
95.46539116801844
 20
139.4223812469382
 30
0.0
 10
95.09240060987064
 20
139.5798856226897
 30
0.0
 10
94.89066757678152
 20
139.6482108874769
 30
0.0
 10
94.45780832595366
 20
139.7664406110961
 30
0.0
 10
94.22388979306427
 20
139.8167355272
 30
0.0
 10
93.73970605792167
 20
139.8966010640896
 30
0.0
 10
93.49039043196615
 20
139.9263421918892
 30
0.0
 10
92.97735790753842
 20
139.9664949333974
 30
0.0
 10
92.71206408463378
 20
139.9766932028073
 30
0.0
 10
92.18972946476404
 20
139.976769661192
 30
0.0
 10
91.92997580228231
 20
139.966978649583
 30
0.0
 10
91.41336398663708
 20
139.9269118108442
 30
0.0
 10
91.16099794613679
 20
139.8968146439874
 30
0.0
 10
90.67947282460395
 20
139.8175924341572
 30
0.0
 10
90.4466220924904
 20
139.7678349546938
 30
0.0
 10
90.00953224405163
 20
139.6487430122434
 30
0.0
 10
89.80821125539445
 20
139.5804277506962
 30
0.0
 10
89.43912523009455
 20
139.4250267837626
 30
0.0
 10
89.27014047904287
 20
139.3368744416957
 30
0.0
 10
88.97968442238364
 20
139.1464350525794
 30
0.0
 10
88.85661261102152
 20
139.0438104748803
 30
0.0
 10
88.65527636959949
 20
138.8221701282722
 30
0.0
 10
88.57806382365726
 20
138.7034160527247
 30
0.0
 10
88.4758602807572
 20
138.458750113807
 30
0.0
 10
88.44963192930489
 20
138.3315933883584
 30
0.0
 10
88.44915552998778
 20
138.0671452425029
 30
0.0
 10
88.47489794248575
 20
137.9342445622457
 30
0.0
 10
88.57620871884961
 20
137.6674522887637
 30
0.0
 10
88.65304135824054
 20
137.5320883872951
 30
0.0
 10
88.85344519745573
 20
137.2695085919925
 30
0.0
 10
88.97611669574776
 20
137.1425334322388
 30
0.0
 10
89.26606398491201
 20
136.8984540461564
 30
0.0
 10
89.43463496427724
 20
136.7810289214025
 30
0.0
 10
89.8029045583904
 20
136.5678324604541
 30
0.0
 10
90.00396641566071
 20
136.4706583420292
 30
0.0
 10
90.44099733424562
 20
136.297303454815
 30
0.0
 10
90.67314554737526
 20
136.2229039031583
 30
0.0
 10
91.15415582887411
 20
136.1024510236537
 30
0.0
 10
91.40625591170453
 20
136.0555926483877
 30
0.0
 10
91.92332539796355
 20
135.992635151404
 30
0.0
 10
92.18484676895616
 20
135.9767315421248
 30
0.0
 10
92.71393744627646
 20
135.9767315421248
 30
0.0
  0
LINE
  5
79
330
1F
100
AcDbEntity
  8
0
  6
Continuous
 62
     7
370
    15
100
AcDbLine
 10
100.5393921076
 20
83.4199309883
 30
0.0
 11
100.5393921076
 21
130.7677681473
 31
0.0
  0
SPLINE
  5
7A
330
1F
100
AcDbEntity
  8
0
  6
Continuous
 62
     7
370
    15
100
AcDbSpline
210
0.0
220
0.0
230
1.0
 70
     8
 71
     3
 72
     8
 73
     4
 74
     0
 42
0.00000001
 43
0.00000001
 40
0.0
 40
0.0
 40
0.0
 40
0.0
 40
1.0
 40
1.0
 40
1.0
 40
1.0
 10
100.5393921076163
 20
83.41993098829083
 30
0.0
 10
100.0470529848351
 20
82.52266095408413
 30
0.0
 10
99.55293893679298
 20
81.6263765390319
 30
0.0
 10
99.05745927612725
 20
80.73085045109855
 30
0.0
  0
SPLINE
  5
7B
330
1F
100
AcDbEntity
  8
0
  6
Continuous
 62
     7
370
    15
100
AcDbSpline
210
0.0
220
0.0
230
1.0
 70
    24
 71
     3
 72
     8
 73
     4
 74
     0
 42
0.00000001
 43
0.00000001
 40
0.0
 40
0.0
 40
0.0
 40
0.0
 40
1.0
 40
1.0
 40
1.0
 40
1.0
 10
99.05745927612725
 20
130.7677681473457
 30
0.0
 10
99.56413938427778
 20
130.7677681473457
 30
0.0
 10
100.0594401132514
 20
130.7677681473457
 30
0.0
 10
100.5393921076163
 20
130.7677681473457
 30
0.0
  0
LINE
  5
7C
330
1F
100
AcDbEntity
  8
0
  6
Continuous
 62
     7
370
    15
100
AcDbLine
 10
105.8413249391
 20
80.7308504511
 30
0.0
 11
105.8413249391
 21
130.7677681473
 31
0.0
  0
SPLINE
  5
7D
330
1F
100
AcDbEntity
  8
0
  6
Continuous
 62
     7
370
    15
100
AcDbSpline
210
0.0
220
0.0
230
1.0
 70
     8
 71
     3
 72
     8
 73
     4
 74
     0
 42
0.00000001
 43
0.00000001
 40
0.0
 40
0.0
 40
0.0
 40
0.0
 40
1.0
 40
1.0
 40
1.0
 40
1.0
 10
105.8413249391054
 20
80.73085045109855
 30
0.0
 10
105.3458452784396
 20
81.6263765390319
 30
0.0
 10
104.8517312303975
 20
82.52266095408415
 30
0.0
 10
104.3593921076163
 20
83.41993098829084
 30
0.0
  0
LINE
  5
7E
330
1F
100
AcDbEntity
  8
0
  6
Continuous
 62
     7
370
    15
100
AcDbLine
 10
104.3593921076
 20
83.4199309883
 30
0.0
 11
104.3593921076
 21
130.7677681473
 31
0.0
  0
SPLINE
  5
7F
330
1F
100
AcDbEntity
  8
0
  6
Continuous
 62
     7
370
    15
100
AcDbSpline
210
0.0
220
0.0
230
1.0
 70
    24
 71
     3
 72
     8
 73
     4
 74
     0
 42
0.00000001
 43
0.00000001
 40
0.0
 40
0.0
 40
0.0
 40
0.0
 40
1.0
 40
1.0
 40
1.0
 40
1.0
 10
104.3593921076163
 20
130.7677681473457
 30
0.0
 10
104.8393441019812
 20
130.7677681473457
 30
0.0
 10
105.3346448309548
 20
130.7677681473457
 30
0.0
 10
105.8413249391054
 20
130.7677681473457
 30
0.0
  0
LINE
  5
80
330
1F
100
AcDbEntity
  8
0
  6
Continuous
 62
     7
370
    15
100
AcDbLine
 10
110.3993921076
 20
81.3574907468
 30
0.0
 11
110.3993921076
 21
130.7677681473
 31
0.0
  0
SPLINE
  5
81
330
1F
100
AcDbEntity
  8
0
  6
Continuous
 62
     7
370
    15
100
AcDbSpline
210
0.0
220
0.0
230
1.0
 70
     8
 71
     3
 72
    10
 73
     6
 74
     0
 42
0.00000001
 43
0.00000001
 40
0.0
 40
0.0
 40
0.0
 40
0.0
 40
0.5
 40
0.5
 40
1.0
 40
1.0
 40
1.0
 40
1.0
 10
110.3993921076163
 20
81.35749074675286
 30
0.0
 10
110.3993921076163
 20
81.1976034785592
 30
0.0
 10
110.3380824563805
 20
81.03647622304459
 30
0.0
 10
110.1189828188454
 20
80.80237722468976
 30
0.0
 10
109.9609346125319
 20
80.73085045109855
 30
0.0
 10
109.7993921076163
 20
80.73085045109855
 30
0.0
  0
SPLINE
  5
82
330
1F
100
AcDbEntity
  8
0
  6
Continuous
 62
     7
370
    15
100
AcDbSpline
210
0.0
220
0.0
230
1.0
 70
    24
 71
     3
 72
    12
 73
     8
 74
     0
 42
0.00000001
 43
0.00000001
 40
0.0
 40
0.0
 40
0.0
 40
0.0
 40
0.2500000000000013
 40
0.2500000000000013
 40
0.5000000000000027
 40
0.5000000000000027
 40
1.0
 40
1.0
 40
1.0
 40
1.0
 10
109.7993921076163
 20
130.7677681473457
 30
0.0
 10
109.8896311753033
 20
130.7677681473457
 30
0.0
 10
109.9805292894098
 20
130.7677681473457
 30
0.0
 10
110.1351263258984
 20
130.7677681473457
 30
0.0
 10
110.2001047420065
 20
130.7677681473457
 30
0.0
 10
110.3519397699427
 20
130.7677681473457
 30
0.0
 10
110.3993921076163
 20
130.7677681473457
 30
0.0
 10
110.3993921076163
 20
130.7677681473457
 30
0.0
  0
LINE
  5
83
330
1F
100
AcDbEntity
  8
0
  6
Continuous
 62
     7
370
    15
100
AcDbLine
 10
109.7993921076
 20
80.7308504511
 30
0.0
 11
105.8413249391
 21
80.7308504511
 31
0.0
  0
LINE
  5
84
330
1F
100
AcDbEntity
  8
0
  6
Continuous
 62
     7
370
    15
100
AcDbLine
 10
105.8413249391
 20
130.7677681473
 30
0.0
 11
109.7993921076
 21
130.7677681473
 31
0.0
  0
LINE
  5
85
330
1F
100
AcDbEntity
  8
0
  6
Continuous
 62
     7
370
    15
100
AcDbLine
 10
84.4493921076
 20
79.7177681473
 30
0.0
 11
84.4493921076
 21
142.1177681473
 31
0.0
  0
ARC
  5
86
330
1F
100
AcDbEntity
  8
0
  6
Continuous
 62
     7
370
    15
100
AcDbCircle
 10
92.4472428955
 20
122.8312164136
 30
0.0
 40
4.108559335819256
100
AcDbArc
 50
18.9925603252
 51
160.0201117809
  0
SPLINE
  5
87
330
1F
100
AcDbEntity
  8
0
  6
Continuous
 62
     7
370
    15
100
AcDbSpline
210
0.0
220
0.0
230
1.0
 70
     8
 71
     3
 72
    10
 73
     6
 74
     0
 42
0.00000001
 43
0.00000001
 40
0.0
 40
0.0
 40
0.0
 40
0.0
 40
0.5
 40
0.5
 40
1.0
 40
1.0
 40
1.0
 40
1.0
 10
100.9336896393072
 20
137.3177681473457
 30
0.0
 10
100.8121493756387
 20
137.3924943145575
 30
0.0
 10
100.7108150152898
 20
137.5014393304742
 30
0.0
 10
100.5751760724014
 20
137.7518698112358
 30
0.0
 10
100.5393921076163
 20
137.8942891733348
 30
0.0
 10
100.5393921076163
 20
138.0374219983815
 30
0.0
  0
SPLINE
  5
88
330
1F
100
AcDbEntity
  8
0
  6
Continuous
 62
     7
370
    15
100
AcDbSpline
210
0.0
220
0.0
230
1.0
 70
    24
 71
     3
 72
    12
 73
     8
 74
     0
 42
0.00000001
 43
0.00000001
 40
0.0
 40
0.0
 40
0.0
 40
0.0
 40
0.2500000000000021
 40
0.2500000000000021
 40
0.5000000000000041
 40
0.5000000000000041
 40
1.0
 40
1.0
 40
1.0
 40
1.0
 10
101.3393921076163
 20
137.3177681473457
 30
0.0
 10
101.2895154252986
 20
137.3177681473457
 30
0.0
 10
101.2415122318953
 20
137.3177681473457
 30
0.0
 10
101.1584641291832
 20
137.3177681473457
 30
0.0
 10
101.1223345497154
 20
137.3177681473457
 30
0.0
 10
101.0264225187711
 20
137.3177681473457
 30
0.0
 10
100.9766638508024
 20
137.3177681473457
 30
0.0
 10
100.9336896393072
 20
137.3177681473457
 30
0.0
  0
SPLINE
  5
89
330
1F
100
AcDbEntity
  8
0
  6
Continuous
 62
     7
370
    15
100
AcDbSpline
210
0.0
220
0.0
230
1.0
 70
    24
 71
     3
 72
    14
 73
    10
 74
     0
 42
0.00000001
 43
0.00000001
 40
0.0
 40
0.0
 40
0.0
 40
0.0
 40
0.1250000000000007
 40
0.1250000000000007
 40
0.2500000000000014
 40
0.2500000000000014
 40
0.5000000000000019
 40
0.5000000000000019
 40
1.0
 40
1.0
 40
1.0
 40
1.0
 10
101.3393921076163
 20
84.51776814734569
 30
0.0
 10
101.2709542597299
 20
84.51776814734569
 30
0.0
 10
101.2054042209648
 20
84.51776814734569
 30
0.0
 10
101.1009775815569
 20
84.51776814734569
 30
0.0
 10
101.0584329717954
 20
84.51776814734569
 30
0.0
 10
100.9458235112552
 20
84.51776814734569
 30
0.0
 10
100.8902844642356
 20
84.51776814734569
 30
0.0
 10
100.7476727687718
 20
84.51776814734569
 30
0.0
 10
100.6842674137761
 20
84.51776814734569
 30
0.0
 10
100.6370669099486
 20
84.51776814734569
 30
0.0
  0
SPLINE
  5
8A
330
1F
100
AcDbEntity
  8
0
  6
Continuous
 62
     7
370
    15
100
AcDbSpline
210
0.0
220
0.0
230
1.0
 70
     8
 71
     3
 72
    10
 73
     6
 74
     0
 42
0.00000001
 43
0.00000001
 40
0.0
 40
0.0
 40
0.0
 40
0.0
 40
0.5
 40
0.5
 40
1.0
 40
1.0
 40
1.0
 40
1.0
 10
100.5393921076163
 20
131.0536347788071
 30
0.0
 10
100.5393921076163
 20
131.0058632708138
 30
0.0
 10
100.5415533512135
 20
130.9581535487521
 30
0.0
 10
100.5502247250736
 20
130.8628584312038
 30
0.0
 10
100.5567539080296
 20
130.8151658672372
 30
0.0
 10
100.5655397307764
 20
130.7677681473457
 30
0.0
  0
SPLINE
  5
8B
330
1F
100
AcDbEntity
  8
0
  6
Continuous
 62
     7
370
    15
100
AcDbSpline
210
0.0
220
0.0
230
1.0
 70
    24
 71
     3
 72
    14
 73
    10
 74
     0
 42
0.00000001
 43
0.00000001
 40
0.0
 40
0.0
 40
0.0
 40
0.0
 40
0.5000000000000018
 40
0.5000000000000018
 40
0.7500000000000027
 40
0.7500000000000027
 40
0.8750000000000013
 40
0.8750000000000013
 40
1.0
 40
1.0
 40
1.0
 40
1.0
 10
104.261717305284
 20
84.51776814734569
 30
0.0
 10
104.2149326002358
 20
84.51776814734569
 30
0.0
 10
104.1528814034562
 20
84.51776814734569
 30
0.0
 10
104.0094897649055
 20
84.51776814734569
 30
0.0
 10
103.9533461113544
 20
84.51776814734569
 30
0.0
 10
103.8403950892182
 20
84.51776814734569
 30
0.0
 10
103.7973943271801
 20
84.51776814734569
 30
0.0
 10
103.6933316168736
 20
84.51776814734569
 30
0.0
 10
103.6279993785167
 20
84.51776814734569
 30
0.0
 10
103.5593921076163
 20
84.51776814734569
 30
0.0
  0
SPLINE
  5
8C
330
1F
100
AcDbEntity
  8
0
  6
Continuous
 62
     7
370
    15
100
AcDbSpline
210
0.0
220
0.0
230
1.0
 70
    24
 71
     3
 72
    12
 73
     8
 74
     0
 42
0.00000001
 43
0.00000001
 40
0.0
 40
0.0
 40
0.0
 40
0.0
 40
0.4999999999999983
 40
0.4999999999999983
 40
0.7499999999999991
 40
0.7499999999999991
 40
1.0
 40
1.0
 40
1.0
 40
1.0
 10
103.9650945759254
 20
137.3177681473457
 30
0.0
 10
103.9220090263143
 20
137.3177681473457
 30
0.0
 10
103.8728568245639
 20
137.3177681473457
 30
0.0
 10
103.7763842302768
 20
137.3177681473457
 30
0.0
 10
103.7402826451421
 20
137.3177681473457
 30
0.0
 10
103.6571768872814
 20
137.3177681473457
 30
0.0
 10
103.609180290314
 20
137.3177681473457
 30
0.0
 10
103.5593921076163
 20
137.3177681473457
 30
0.0
  0
SPLINE
  5
8D
330
1F
100
AcDbEntity
  8
0
  6
Continuous
 62
     7
370
    15
100
AcDbSpline
210
0.0
220
0.0
230
1.0
 70
     8
 71
     3
 72
    10
 73
     6
 74
     0
 42
0.00000001
 43
0.00000001
 40
0.0
 40
0.0
 40
0.0
 40
0.0
 40
0.5
 40
0.5
 40
1.0
 40
1.0
 40
1.0
 40
1.0
 10
104.3593921076163
 20
138.0374219983815
 30
0.0
 10
104.3593921076163
 20
137.8936519405635
 30
0.0
 10
104.3233430488974
 20
137.7512325780683
 30
0.0
 10
104.1878341881234
 20
137.5013382847111
 30
0.0
 10
104.0879581950273
 20
137.3933079484629
 30
0.0
 10
103.9650945759253
 20
137.3177681473457
 30
0.0
  0
SPLINE
  5
8E
330
1F
100
AcDbEntity
  8
0
  6
Continuous
 62
     7
370
    15
100
AcDbSpline
210
0.0
220
0.0
230
1.0
 70
     8
 71
     3
 72
    10
 73
     6
 74
     0
 42
0.00000001
 43
0.00000001
 40
0.0
 40
0.0
 40
0.0
 40
0.0
 40
0.5
 40
0.5
 40
1.0
 40
1.0
 40
1.0
 40
1.0
 10
104.3332444844562
 20
130.7677681473457
 30
0.0
 10
104.3419341273678
 20
130.8146469966638
 30
0.0
 10
104.3484731921183
 20
130.8620694620651
 30
0.0
 10
104.3572318265114
 20
130.9580062606518
 30
0.0
 10
104.3593921076163
 20
131.0059215486623
 30
0.0
 10
104.3593921076163
 20
131.0536347788069
 30
0.0
  0
LINE
  5
8F
330
1F
100
AcDbEntity
  8
0
  6
Continuous
 62
     7
370
    15
100
AcDbLine
 10
103.5593921076
 20
137.3177681473
 30
0.0
 11
101.3393921076
 21
137.3177681473
 31
0.0
  0
LINE
  5
90
330
1F
100
AcDbEntity
  8
0
  6
Continuous
 62
     7
370
    15
100
AcDbLine
 10
103.5593921076
 20
84.5177681473
 30
0.0
 11
101.3393921076
 21
84.5177681473
 31
0.0
  0
LINE
  5
91
330
1F
100
AcDbEntity
  8
0
  6
Continuous
 62
     7
370
    15
100
AcDbLine
 10
193.6245731629
 20
84.9177681473
 30
0.0
 11
193.6245731629
 21
136.9177681473
 31
0.0
  0
SPLINE
  5
92
330
1F
100
AcDbEntity
  8
0
  6
Continuous
 62
     7
370
    15
100
AcDbSpline
210
0.0
220
0.0
230
1.0
 70
     8
 71
     3
 72
    32
 73
    28
 74
     0
 42
0.00000001
 43
0.00000001
 40
0.0
 40
0.0
 40
0.0
 40
0.0
 40
0.0470225995639218
 40
0.0919340361956323
 40
0.1380666438742806
 40
0.1846404737031103
 40
0.2323592999485038
 40
0.2831163052220028
 40
0.3351037787878459
 40
0.3907100293809246
 40
0.4477406109262958
 40
0.5068939249186044
 40
0.5676925153197533
 40
0.5977639816207909
 40
0.6280494209805307
 40
0.6590253422541112
 40
0.6902477643254242
 40
0.7195115436806396
 40
0.7490004179746356
 40
0.7792372838317673
 40
0.8097507453876993
 40
0.8367234042760173
 40
0.8639164656384202
 40
0.8918465570110368
 40
0.9200495903244469
 40
0.9684546060620634
 40
1.0
 40
1.0
 40
1.0
 40
1.0
 10
159.8980434130243
 20
136.9176217486732
 30
0.0
 10
159.8903584601132
 20
136.9167771255475
 30
0.0
 10
159.8753335838697
 20
136.915125800148
 30
0.0
 10
159.7480279053007
 20
136.9014607437067
 30
0.0
 10
159.5538348021552
 20
136.8815632766634
 30
0.0
 10
159.2854700152299
 20
136.8559356323222
 30
0.0
 10
158.9467952949556
 20
136.8267131895707
 30
0.0
 10
158.5394195397832
 20
136.7962342274886
 30
0.0
 10
158.0621484541295
 20
136.7671132194026
 30
0.0
 10
157.5264035743274
 20
136.7429794456038
 30
0.0
 10
156.939156419837
 20
136.727108492756
 30
0.0
 10
156.3200024035334
 20
136.7223737818168
 30
0.0
 10
155.7964976816147
 20
136.729000545637
 30
0.0
 10
155.3842724532117
 20
136.7403592678727
 30
0.0
 10
155.0806057867087
 20
136.7516658908434
 30
0.0
 10
154.782847493075
 20
136.7655946658199
 30
0.0
 10
154.5005779559147
 20
136.7814185866271
 30
0.0
 10
154.2370399142431
 20
136.7984416831332
 30
0.0
 10
153.9922127672556
 20
136.8161660086982
 30
0.0
 10
153.7626873882654
 20
136.8344707000749
 30
0.0
 10
153.5606234221261
 20
136.8519589172431
 30
0.0
 10
153.387167172348
 20
136.8679553264009
 30
0.0
 10
153.2407278651443
 20
136.8821520717457
 30
0.0
 10
153.1158838867316
 20
136.8947718144896
 30
0.0
 10
152.9945515214823
 20
136.9074403904562
 30
0.0
 10
152.9079803890406
 20
136.9168273273856
 30
0.0
 10
152.9099077334014
 20
136.91662105003
 30
0.0
 10
152.9106681902567
 20
136.916539660823
 30
0.0
  0
SPLINE
  5
93
330
1F
100
AcDbEntity
  8
0
  6
Continuous
 62
     7
370
    15
100
AcDbSpline
210
0.0
220
0.0
230
1.0
 70
     8
 71
     3
 72
    66
 73
    62
 74
     0
 42
0.00000001
 43
0.00000001
 40
-0.0312499999999996
 40
-0.0312499999999996
 40
0.0
 40
0.0
 40
0.0312500000000002
 40
0.0312500000000002
 40
0.0625000000000003
 40
0.0625000000000003
 40
0.0937500000000005
 40
0.0937500000000005
 40
0.1250000000000007
 40
0.1250000000000007
 40
0.1562500000000008
 40
0.1562500000000008
 40
0.187500000000001
 40
0.187500000000001
 40
0.2187500000000012
 40
0.2187500000000012
 40
0.2500000000000013
 40
0.2500000000000013
 40
0.2812500000000015
 40
0.2812500000000015
 40
0.3125000000000017
 40
0.3125000000000017
 40
0.3437500000000018
 40
0.3437500000000018
 40
0.375000000000002
 40
0.375000000000002
 40
0.4062500000000022
 40
0.4062500000000022
 40
0.4375000000000023
 40
0.4375000000000023
 40
0.4687500000000025
 40
0.4687500000000025
 40
0.5000000000000027
 40
0.5000000000000027
 40
0.5312500000000029
 40
0.5312500000000029
 40
0.562500000000003
 40
0.562500000000003
 40
0.5937500000000031
 40
0.5937500000000031
 40
0.6250000000000033
 40
0.6250000000000033
 40
0.6875000000000037
 40
0.6875000000000037
 40
0.750000000000004
 40
0.750000000000004
 40
0.7812500000000034
 40
0.7812500000000034
 40
0.812500000000003
 40
0.812500000000003
 40
0.8437500000000024
 40
0.8437500000000024
 40
0.875000000000002
 40
0.875000000000002
 40
0.9062500000000014
 40
0.9062500000000014
 40
0.937500000000001
 40
0.937500000000001
 40
0.9687500000000004
 40
0.9687500000000004
 40
1.0
 40
1.0
 40
1.03125
 40
1.03125
 10
153.8608648812974
 20
113.1016867388065
 30
0.0
 10
154.1985245968719
 20
113.3833392361933
 30
0.0
 10
154.3780551234484
 20
113.5057771910532
 30
0.0
 10
154.7566804818101
 20
113.7171631225412
 30
0.0
 10
154.9573464512593
 20
113.8065845773244
 30
0.0
 10
155.3714724081137
 20
113.9487904342262
 30
0.0
 10
155.5824247163683
 20
114.0010446108279
 30
0.0
 10
156.0117992213657
 20
114.0694282743117
 30
0.0
 10
156.2323247778224
 20
114.0854154427629
 30
0.0
 10
156.6688123817407
 20
114.0795937833195
 30
0.0
 10
156.8847443380579
 20
114.0582475649478
 30
0.0
 10
157.3120110235435
 20
113.9788627810677
 30
0.0
 10
157.5253681471077
 20
113.9199126670701
 30
0.0
 10
157.9333090070791
 20
113.7673558865799
 30
0.0
 10
158.1286669247678
 20
113.674043873494
 30
0.0
 10
158.5017194671136
 20
113.4523689778436
 30
0.0
 10
158.6810877523919
 20
113.3222534899731
 30
0.0
 10
159.0066221465777
 20
113.0343340280132
 30
0.0
 10
159.1541081652825
 20
112.8762893572466
 30
0.0
 10
159.416708103289
 20
112.5302500348304
 30
0.0
 10
159.5322063561997
 20
112.3402898502657
 30
0.0
 10
159.7160707414749
 20
111.9471075043576
 30
0.0
 10
159.7863129439701
 20
111.7420567526684
 30
0.0
 10
159.8801083387561
 20
111.3137095146756
 30
0.0
 10
159.9022269665428
 20
111.094206819803
 30
0.0
 10
159.8959688269682
 20
110.6595979306123
 30
0.0
 10
159.8672540771555
 20
110.4394132238241
 30
0.0
 10
159.7615413685986
 20
110.0151109060666
 30
0.0
 10
159.685454039732
 20
109.8111786073441
 30
0.0
 10
159.488449310033
 20
109.4191404747036
 30
0.0
 10
159.36885892977
 20
109.2345067907206
 30
0.0
 10
159.0965856764806
 20
108.8949666670424
 30
0.0
 10
158.9413115722688
 20
108.737216186032
 30
0.0
 10
158.6066383369046
 20
108.4569961266376
 30
0.0
 10
158.4273929544718
 20
108.333911086338
 30
0.0
 10
158.0461147829437
 20
108.1201928852945
 30
0.0
 10
157.8443560860758
 20
108.0302428542546
 30
0.0
 10
157.4331712630785
 20
107.8884750098611
 30
0.0
 10
157.2219675773743
 20
107.8355886119339
 30
0.0
 10
156.788222164657
 20
107.7661044806396
 30
0.0
 10
156.5696299515309
 20
107.7503191486738
 30
0.0
 10
155.9180123811012
 20
107.7582952815378
 30
0.0
 10
155.478814193545
 20
107.8392251334563
 30
0.0
 10
154.6662756299468
 20
108.1422639900813
 30
0.0
 10
154.2811611994393
 20
108.3691184836777
 30
0.0
 10
153.794524914392
 20
108.7989079877374
 30
0.0
 10
153.6447624099404
 20
108.9589189582415
 30
0.0
 10
153.3797045123422
 20
109.3086274521574
 30
0.0
 10
153.267231168602
 20
109.4941045629983
 30
0.0
 10
153.0833266569867
 20
109.8868641093788
 30
0.0
 10
153.0113842517225
 20
110.0973404390989
 30
0.0
 10
152.9184249189048
 20
110.5240921464492
 30
0.0
 10
152.8964858040905
 20
110.7402846700535
 30
0.0
 10
152.9029080941048
 20
111.1784465941965
 30
0.0
 10
152.9319588031888
 20
111.3982571044088
 30
0.0
 10
153.0374586478737
 20
111.8208755333215
 30
0.0
 10
153.1152054654778
 20
112.0287520681834
 30
0.0
 10
153.3121996989551
 20
112.4194314633765
 30
0.0
 10
153.4306324339489
 20
112.6022449953688
 30
0.0
 10
153.7053519750864
 20
112.9441637787575
 30
0.0
 10
153.8608648812974
 20
113.1016867388065
 30
0.0
 10
154.1985245968719
 20
113.3833392361933
 30
0.0
  0
SPLINE
  5
94
330
1F
100
AcDbEntity
  8
0
  6
Continuous
 62
     7
370
    15
100
AcDbSpline
210
0.0
220
0.0
230
1.0
 70
     8
 71
     3
 72
    33
 73
    29
 74
     0
 42
0.00000001
 43
0.00000001
 40
0.0
 40
0.0
 40
0.0
 40
0.0
 40
0.0030573853208094
 40
0.0513461793297708
 40
0.0962559426475287
 40
0.1423788476139617
 40
0.1891037643299016
 40
0.2369744342985014
 40
0.287958520133113
 40
0.3401801917468355
 40
0.3959934858922173
 40
0.4532415650913269
 40
0.5125041134878495
 40
0.5734215270334246
 40
0.6034865114594236
 40
0.6337661223479267
 40
0.6647392758562177
 40
0.6959604551165959
 40
0.7251477707959509
 40
0.7545604581530468
 40
0.7847228930838179
 40
0.8151629008268625
 40
0.8420001313616984
 40
0.8690568443807527
 40
0.8968469180793524
 40
0.9249082172932949
 40
0.9730802415536224
 40
1.0
 40
1.0
 40
1.0
 40
1.0
 10
152.9019729793434
 20
84.9180485577937
 30
0.0
 10
152.9011221989338
 20
84.91795612813262
 30
0.0
 10
152.8868340674435
 20
84.91640385079275
 30
0.0
 10
152.9398922015454
 20
84.9222058575636
 30
0.0
 10
153.0635250993782
 20
84.93540874078239
 30
0.0
 10
153.2677867322176
 20
84.95624553130641
 30
0.0
 10
153.5418216872413
 20
84.9821916379542
 30
0.0
 10
153.8874253717439
 20
85.01167916356015
 30
0.0
 10
154.3011733142307
 20
85.04213829348248
 30
0.0
 10
154.784549342722
 20
85.07095122480546
 30
0.0
 10
155.3255436736159
 20
85.09445156192206
 30
0.0
 10
155.9165749694129
 20
85.10937805535484
 30
0.0
 10
156.5378307030303
 20
85.1129633875628
 30
0.0
 10
157.0612319861567
 20
85.10534003003251
 30
0.0
 10
157.4722511794919
 20
85.09324974335256
 30
0.0
 10
157.7742607560116
 20
85.08145885405874
 30
0.0
 10
158.0699133179274
 20
85.06711416680928
 30
0.0
 10
158.3494245847701
 20
85.050981891437
 30
0.0
 10
158.6096076732357
 20
85.03377244967747
 30
0.0
 10
158.8505373790749
 20
85.01598702090992
 30
0.0
 10
159.0757564685942
 20
84.99773540785219
 30
0.0
 10
159.2731247242659
 20
84.98042822117164
 30
0.0
 10
159.4416401319836
 20
84.96472122695208
 30
0.0
 10
159.5829711243914
 20
84.95090244781501
 30
0.0
 10
159.7026008270277
 20
84.93872932481742
 30
0.0
 10
159.8170225730853
 20
84.92672472321014
 30
0.0
 10
159.8949009158495
 20
84.91826010836174
 30
0.0
 10
159.8894449599128
 20
84.9188528617156
 30
0.0
 10
159.8874890466209
 20
84.91906535869636
 30
0.0
  0
LINE
  5
95
330
1F
100
AcDbEntity
  8
0
  6
Continuous
 62
     7
370
    15
100
AcDbLine
 10
154.1953673346
 20
85.0333667506
 30
0.0
 11
154.0296947385
 21
85.0219082191
 31
0.0
  0
CIRCLE
  5
96
330
1F
100
AcDbEntity
  8
0
  6
Continuous
 62
     7
370
    15
100
AcDbCircle
 10
156.3993921076
 20
110.9177681473
 30
0.0
 40
2.5
  0
LINE
  5
97
330
1F
100
AcDbEntity
  8
0
  6
Continuous
 62
     7
370
    15
100
AcDbLine
 10
82.4493921076
 20
86.6973372856
 30
0.0
 11
82.4493921076
 21
135.1381990091
 31
0.0
  0
LINE
  5
98
330
1F
100
AcDbEntity
  8
0
  6
Continuous
 62
     7
370
    15
100
AcDbLine
 10
62.6493921076
 20
87.6893212536
 30
0.0
 11
62.6493921076
 21
88.9540306161
 31
0.0
  0
SPLINE
  5
99
330
1F
100
AcDbEntity
  8
0
  6
Continuous
 62
     7
370
    15
100
AcDbSpline
210
0.0
220
0.0
230
1.0
 70
     8
 71
     3
 72
    14
 73
    10
 74
     0
 42
0.00000001
 43
0.00000001
 40
0.0
 40
0.0
 40
0.0
 40
0.0
 40
0.25
 40
0.25
 40
0.5
 40
0.5
 40
0.75
 40
0.75
 40
1.0
 40
1.0
 40
1.0
 40
1.0
 10
61.8711049897006
 20
90.08461682378574
 30
0.0
 10
61.92773166490267
 20
89.97691936994887
 30
0.0
 10
62.0222543251924
 20
89.87412978822957
 30
0.0
 10
62.20529930075463
 20
89.67577247600941
 30
0.0
 10
62.29692587770936
 20
89.57971296733116
 30
0.0
 10
62.45577919540254
 20
89.39218392462192
 30
0.0
 10
62.52366980302425
 20
89.30077495183836
 30
0.0
 10
62.62058682873184
 20
89.12239873092821
 30
0.0
 10
62.64939210761688
 20
89.03517682468204
 30
0.0
 10
62.64939210761688
 20
88.95403061614779
 30
0.0
  0
SPLINE
  5
9A
330
1F
100
AcDbEntity
  8
0
  6
Continuous
 62
     7
370
    15
100
AcDbSpline
210
0.0
220
0.0
230
1.0
 70
     8
 71
     3
 72
    14
 73
    10
 74
     0
 42
0.00000001
 43
0.00000001
 40
0.0
 40
0.0
 40
0.0
 40
0.0
 40
0.1250000000000004
 40
0.1250000000000004
 40
0.2500000000000009
 40
0.2500000000000009
 40
0.5000000000000018
 40
0.5000000000000018
 40
1.0
 40
1.0
 40
1.0
 40
1.0
 10
61.24939210761632
 20
90.53129868606504
 30
0.0
 10
61.29793651627348
 20
90.53704699934534
 30
0.0
 10
61.35085187105837
 20
90.5339461106891
 30
0.0
 10
61.44614721604141
 20
90.51175126652677
 30
0.0
 10
61.48639821332638
 20
90.49451903943093
 30
0.0
 10
61.59066822683934
 20
90.43819112297886
 30
0.0
 10
61.64099020199266
 20
90.39400477703306
 30
0.0
 10
61.76867314951803
 20
90.26299687818243
 30
0.0
 10
61.82475859658031
 20
90.17276235795214
 30
0.0
 10
61.87110498970205
 20
90.08461682378626
 30
0.0
  0
SPLINE
  5
9B
330
1F
100
AcDbEntity
  8
0
  6
Continuous
 62
     7
370
    15
100
AcDbSpline
210
0.0
220
0.0
230
1.0
 70
     8
 71
     3
 72
     8
 73
     4
 74
     0
 42
0.00000001
 43
0.00000001
 40
0.0
 40
0.0
 40
0.0
 40
0.0
 40
1.0
 40
1.0
 40
1.0
 40
1.0
 10
58.98086701467003
 20
90.22145339948226
 30
0.0
 10
59.71544404115301
 20
90.34007841055121
 30
0.0
 10
60.47891911054867
 20
90.4400642826875
 30
0.0
 10
61.24939210761632
 20
90.53129868606504
 30
0.0
  0
SPLINE
  5
9C
330
1F
100
AcDbEntity
  8
0
  6
Continuous
 62
     7
370
    15
100
AcDbSpline
210
0.0
220
0.0
230
1.0
 70
     8
 71
     3
 72
    14
 73
    10
 74
     0
 42
0.00000001
 43
0.00000001
 40
0.0
 40
0.0
 40
0.0
 40
0.0
 40
0.5000000000000001
 40
0.5000000000000001
 40
0.7500000000000002
 40
0.7500000000000002
 40
0.8750000000000001
 40
0.8750000000000001
 40
1.0
 40
1.0
 40
1.0
 40
1.0
 10
53.69939210761632
 20
90.04783038195062
 30
0.0
 10
54.5915382381699
 20
90.04710815574997
 30
0.0
 10
55.48151467396347
 20
90.05169436220743
 30
0.0
 10
56.80810984103906
 20
90.07941936659898
 30
0.0
 10
57.24895676953778
 20
90.09202590422315
 30
0.0
 10
57.90539700696019
 20
90.1230420522306
 30
0.0
 10
58.12341066355207
 20
90.13538522485737
 30
0.0
 10
58.55611951723483
 20
90.16840928002063
 30
0.0
 10
58.77139598239962
 20
90.18762644515908
 30
0.0
 10
58.98086701467002
 20
90.22145339948226
 30
0.0
  0
SPLINE
  5
9D
330
1F
100
AcDbEntity
  8
0
  6
Continuous
 62
     7
370
    15
100
AcDbSpline
210
0.0
220
0.0
230
1.0
 70
     8
 71
     3
 72
     8
 73
     4
 74
     0
 42
0.00000001
 43
0.00000001
 40
0.0000005163856941
 40
0.0000005163856941
 40
0.0000005163856941
 40
0.0000005163856941
 40
0.000026289209185
 40
0.000026289209185
 40
0.000026289209185
 40
0.000026289209185
 10
53.68934717720649
 20
90.05781425504962
 30
0.0
 10
53.69267491541505
 20
90.05448000817977
 30
0.0
 10
53.69602336839138
 20
90.05115205090371
 30
0.0
 10
53.69939210761629
 20
90.0478303819506
 30
0.0
  0
SPLINE
  5
9E
330
1F
100
AcDbEntity
  8
0
  6
Continuous
 62
     7
370
    15
100
AcDbSpline
210
0.0
220
0.0
230
1.0
 70
     8
 71
     3
 72
     8
 73
     4
 74
     0
 42
0.00000001
 43
0.00000001
 40
0.0000005099763573
 40
0.0000005099763573
 40
0.0000005099763573
 40
0.0000005099763573
 40
0.0000262827998699
 40
0.0000262827998699
 40
0.0000262827998699
 40
0.0000262827998699
 10
53.69939210761629
 20
131.7877059127408
 30
0.0
 10
53.69602336838855
 20
131.7843842437849
 30
0.0
 10
53.6926749154094
 20
131.781056286506
 30
0.0
 10
53.68934717719807
 20
131.7777220396333
 30
0.0
  0
SPLINE
  5
9F
330
1F
100
AcDbEntity
  8
0
  6
Continuous
 62
     7
370
    15
100
AcDbSpline
210
0.0
220
0.0
230
1.0
 70
     8
 71
     3
 72
    10
 73
     6
 74
     0
 42
0.00000001
 43
0.00000001
 40
0.0
 40
0.0
 40
0.0
 40
0.0
 40
0.5
 40
0.5
 40
1.0
 40
1.0
 40
1.0
 40
1.0
 10
57.24939210761632
 20
131.7408555391734
 30
0.0
 10
56.66180656052572
 20
131.7619210594098
 30
0.0
 10
56.07106016706534
 20
131.7726795452821
 30
0.0
 10
54.88704100176648
 20
131.7860443258177
 30
0.0
 10
54.29362701356101
 20
131.7881869684823
 30
0.0
 10
53.6993921076163
 20
131.7877059127408
 30
0.0
  0
SPLINE
  5
A0
330
1F
100
AcDbEntity
  8
0
  6
Continuous
 62
     7
370
    15
100
AcDbSpline
210
0.0
220
0.0
230
1.0
 70
     8
 71
     3
 72
    18
 73
    14
 74
     0
 42
0.00000001
 43
0.00000001
 40
0.0
 40
0.0
 40
0.0
 40
0.0
 40
0.2499999999999984
 40
0.2499999999999984
 40
0.4999999999999976
 40
0.4999999999999976
 40
0.7499999999999967
 40
0.7499999999999967
 40
0.8749999999999979
 40
0.8749999999999979
 40
0.937499999999999
 40
0.937499999999999
 40
1.0
 40
1.0
 40
1.0
 40
1.0
 10
58.64939210761633
 20
132.7618758197087
 30
0.0
 10
58.64939210761633
 20
132.6786689108515
 30
0.0
 10
58.61354300767805
 20
132.5899322555379
 30
0.0
 10
58.48867127164412
 20
132.4078070649777
 30
0.0
 10
58.39827085399627
 20
132.312677016351
 30
0.0
 10
58.17602819925408
 20
132.1234955072267
 30
0.0
 10
58.04626341280832
 20
132.028550339132
 30
0.0
 10
57.80562595549679
 20
131.8902716315521
 30
0.0
 10
57.71785865735936
 20
131.8445611982497
 30
0.0
 10
57.56333457015253
 20
131.7867378930283
 30
0.0
 10
57.50672368409779
 20
131.7690231289904
 30
0.0
 10
57.3826796531912
 20
131.7444838257574
 30
0.0
 10
57.3149649781729
 20
131.7385046872192
 30
0.0
 10
57.24939210761632
 20
131.7408555391734
 30
0.0
  0
LINE
  5
A1
330
1F
100
AcDbEntity
  8
0
  6
Continuous
 62
     7
370
    15
100
AcDbLine
 10
58.6493921076
 20
132.7618758197
 30
0.0
 11
58.6493921076
 21
133.9458142395
 31
0.0
  0
SPLINE
  5
A2
330
1F
100
AcDbEntity
  8
0
  6
Continuous
 62
     7
370
    15
100
AcDbSpline
210
0.0
220
0.0
230
1.0
 70
     8
 71
     3
 72
    18
 73
    14
 74
     0
 42
0.00000001
 43
0.00000001
 40
0.0
 40
0.0
 40
0.0
 40
0.0
 40
0.0010671296451832
 40
0.1270947795731634
 40
0.2524053457512759
 40
0.3766468878987077
 40
0.4391415999050406
 40
0.5008278021400041
 40
0.5624255708808993
 40
0.6253162439161174
 40
0.7499985144706734
 40
0.8752758950341273
 40
1.0
 40
1.0
 40
1.0
 40
1.0
 10
71.21969294768898
 20
87.26042912442934
 30
0.0
 10
71.21878111505048
 20
87.26031434589271
 30
0.0
 10
71.11018215641364
 20
87.24664426102684
 30
0.0
 10
71.49782322406328
 20
87.29756376164241
 30
0.0
 10
72.36378790589872
 20
87.39714693468876
 30
0.0
 10
73.56419183066741
 20
87.46627081783289
 30
0.0
 10
74.62176774515746
 20
87.47022304697074
 30
0.0
 10
75.44890183206302
 20
87.44273410851635
 30
0.0
 10
76.27417369969878
 20
87.3841939321092
 30
0.0
 10
77.32853891969691
 20
87.27067277237259
 30
0.0
 10
78.49037520117302
 20
87.08752194812449
 30
0.0
 10
79.44260998255628
 20
86.88291873848941
 30
0.0
 10
79.56831504336421
 20
86.85363338771336
 30
0.0
 10
79.63102847550941
 20
86.83902311787269
 30
0.0
  0
SPLINE
  5
A3
330
1F
100
AcDbEntity
  8
0
  6
Continuous
 62
     7
370
    15
100
AcDbSpline
210
0.0
220
0.0
230
1.0
 70
     8
 71
     3
 72
    18
 73
    14
 74
     0
 42
0.00000001
 43
0.00000001
 40
0.0
 40
0.0
 40
0.0
 40
0.0
 40
0.1249080880615186
 40
0.2505384005827851
 40
0.3748721824256792
 40
0.4374907636253189
 40
0.4990776247952343
 40
0.5607931517551704
 40
0.6233901319009026
 40
0.747819101704548
 40
0.8731940972834111
 40
0.9991614619872062
 40
1.0
 40
1.0
 40
1.0
 40
1.0
 10
79.63080927851506
 20
134.9964479026634
 30
0.0
 10
79.5670517009146
 20
134.9817824918223
 30
0.0
 10
79.43916789639121
 20
134.9523668740425
 30
0.0
 10
78.48713754900504
 20
134.7474118210731
 30
0.0
 10
77.32665827293182
 20
134.5641584149629
 30
0.0
 10
76.27439379660419
 20
134.4511307939284
 30
0.0
 10
75.45016669428583
 20
134.3928671511461
 30
0.0
 10
74.6225628916181
 20
134.3654207654143
 30
0.0
 10
73.56374586087678
 20
134.3694055526515
 30
0.0
 10
72.36152593460213
 20
134.438495174918
 30
0.0
 10
71.49634711587586
 20
134.538120782179
 30
0.0
 10
71.11019391382406
 20
134.5889383766676
 30
0.0
 10
71.21827432700334
 20
134.5752651407244
 30
0.0
 10
71.21898903769856
 20
134.5751747227876
 30
0.0
  0
SPLINE
  5
A4
330
1F
100
AcDbEntity
  8
0
  6
Continuous
 62
     7
370
    15
100
AcDbSpline
210
0.0
220
0.0
230
1.0
 70
     8
 71
     3
 72
    10
 73
     6
 74
     0
 42
0.00000001
 43
0.00000001
 40
0.0
 40
0.0
 40
0.0
 40
0.0
 40
0.5
 40
0.5
 40
1.0
 40
1.0
 40
1.0
 40
1.0
 10
52.54939210761564
 20
91.22709040086818
 30
0.0
 10
52.54939210761561
 20
91.19821613600878
 30
0.0
 10
52.5595860173767
 20
91.18071257963027
 30
0.0
 10
52.58633662218485
 20
91.18018101680254
 30
0.0
 10
52.60322407411619
 20
91.1978484739821
 30
0.0
 10
52.61205548233971
 20
91.24321560256496
 30
0.0
  0
LINE
  5
A5
330
1F
100
AcDbEntity
  8
0
  6
Continuous
 62
     7
370
    15
100
AcDbLine
 10
52.5493921076
 20
91.2270904009
 30
0.0
 11
52.5493921076
 21
130.6084458938
 31
0.0
  0
SPLINE
  5
A6
330
1F
100
AcDbEntity
  8
0
  6
Continuous
 62
     7
370
    15
100
AcDbSpline
210
0.0
220
0.0
230
1.0
 70
     8
 71
     3
 72
    10
 73
     6
 74
     0
 42
0.00000001
 43
0.00000001
 40
0.0
 40
0.0
 40
0.0
 40
0.0
 40
0.5
 40
0.5
 40
1.0
 40
1.0
 40
1.0
 40
1.0
 10
52.61205548233971
 20
130.5923206921264
 30
0.0
 10
52.60315119323096
 20
130.6380622113396
 30
0.0
 10
52.58663581303798
 20
130.6552530508086
 30
0.0
 10
52.55952786697637
 20
130.6549297738729
 30
0.0
 10
52.54939210761631
 20
130.6370522315764
 30
0.0
 10
52.54939210761631
 20
130.6084458938238
 30
0.0
  0
SPLINE
  5
A7
330
1F
100
AcDbEntity
  8
0
  6
Continuous
 62
     7
370
    15
100
AcDbSpline
210
0.0
220
0.0
230
1.0
 70
     8
 71
     3
 72
    26
 73
    22
 74
     0
 42
0.00000001
 43
0.00000001
 40
0.0
 40
0.0
 40
0.0
 40
0.0
 40
0.2499999999999942
 40
0.2499999999999942
 40
0.3749999999999899
 40
0.3749999999999899
 40
0.4374999999999888
 40
0.4374999999999888
 40
0.4687499999999888
 40
0.4687499999999888
 40
0.4999999999999888
 40
0.4999999999999888
 40
0.5312499999999887
 40
0.5312499999999887
 40
0.5624999999999887
 40
0.5624999999999887
 40
0.6249999999999912
 40
0.6249999999999912
 40
0.7499999999999942
 40
0.7499999999999942
 40
1.0
 40
1.0
 40
1.0
 40
1.0
 10
53.37354575372083
 20
131.3078874809435
 30
0.0
 10
53.33494523085236
 20
131.1901127845881
 30
0.0
 10
53.28864822829808
 20
131.0657230984262
 30
0.0
 10
53.19470887986416
 20
130.8605037660727
 30
0.0
 10
53.1593974129507
 20
130.7889308996262
 30
0.0
 10
53.09321743720502
 20
130.6729776670258
 30
0.0
 10
53.06867907053678
 20
130.6323931322155
 30
0.0
 10
53.02530632498298
 20
130.5682514503438
 30
0.0
 10
53.00979792355781
 20
130.5463850250587
 30
0.0
 10
52.97475527897078
 20
130.5007907567155
 30
0.0
 10
52.95520498825098
 20
130.4771204657481
 30
0.0
 10
52.91327770788038
 20
130.4325039064082
 30
0.0
 10
52.89062559764874
 20
130.4116238938903
 30
0.0
 10
52.84965188356211
 20
130.3807504801395
 30
0.0
 10
52.8320525836667
 20
130.370911610307
 30
0.0
 10
52.78742559781056
 20
130.3519219946109
 30
0.0
 10
52.76686637515724
 20
130.3515976699574
 30
0.0
 10
52.71574093566056
 20
130.3608211108337
 30
0.0
 10
52.69482952267203
 20
130.3820680070506
 30
0.0
 10
52.64337961511109
 20
130.4560368858814
 30
0.0
 10
52.62571431580653
 20
130.5221549791961
 30
0.0
 10
52.61205548233971
 20
130.5923206921264
 30
0.0
  0
SPLINE
  5
A8
330
1F
100
AcDbEntity
  8
0
  6
Continuous
 62
     7
370
    15
100
AcDbSpline
210
0.0
220
0.0
230
1.0
 70
     8
 71
     3
 72
    10
 73
     6
 74
     0
 42
0.00000001
 43
0.00000001
 40
0.0
 40
0.0
 40
0.0
 40
0.0
 40
0.5
 40
0.5
 40
1.0
 40
1.0
 40
1.0
 40
1.0
 10
53.68934717719809
 20
131.7777220396333
 30
0.0
 10
53.62178792227986
 20
131.7100306468236
 30
0.0
 10
53.55815126694337
 20
131.6353234820699
 30
0.0
 10
53.44793051237151
 20
131.4763573496433
 30
0.0
 10
53.40111421914889
 20
131.3920020836353
 30
0.0
 10
53.37354575372083
 20
131.3078874809435
 30
0.0
  0
SPLINE
  5
A9
330
1F
100
AcDbEntity
  8
0
  6
Continuous
 62
     7
370
    15
100
AcDbSpline
210
0.0
220
0.0
230
1.0
 70
     8
 71
     3
 72
    10
 73
     6
 74
     0
 42
0.00000001
 43
0.00000001
 40
0.0
 40
0.0
 40
0.0
 40
0.0
 40
0.5
 40
0.5
 40
1.0
 40
1.0
 40
1.0
 40
1.0
 10
53.37354575372085
 20
90.52764881374772
 30
0.0
 10
53.40102316847467
 20
90.4438120172803
 30
0.0
 10
53.44773179876375
 20
90.3595015296916
 30
0.0
 10
53.5580102615089
 20
90.20038029920568
 30
0.0
 10
53.62189780012235
 20
90.12539555511634
 30
0.0
 10
53.6893471772065
 20
90.05781425504962
 30
0.0
  0
SPLINE
  5
AA
330
1F
100
AcDbEntity
  8
0
  6
Continuous
 62
     7
370
    15
100
AcDbSpline
210
0.0
220
0.0
230
1.0
 70
     8
 71
     3
 72
    24
 73
    20
 74
     0
 42
0.00000001
 43
0.00000001
 40
0.0
 40
0.0
 40
0.0
 40
0.0
 40
0.2499999999999893
 40
0.2499999999999893
 40
0.3749999999999847
 40
0.3749999999999847
 40
0.4374999999999823
 40
0.4374999999999823
 40
0.4687499999999816
 40
0.4687499999999816
 40
0.4999999999999808
 40
0.4999999999999808
 40
0.5624999999999839
 40
0.5624999999999839
 40
0.624999999999987
 40
0.624999999999987
 40
0.7499999999999907
 40
0.7499999999999907
 40
1.0
 40
1.0
 40
1.0
 40
1.0
 10
52.61205548233971
 20
91.24321560256496
 30
0.0
 10
52.62580860100993
 20
91.31386566055524
 30
0.0
 10
52.64358116841581
 20
91.38046377332016
 30
0.0
 10
52.69583225997118
 20
91.45456179355337
 30
0.0
 10
52.71686733555271
 20
91.47581960071493
 30
0.0
 10
52.76976774318115
 20
91.48396552686117
 30
0.0
 10
52.79087341605906
 20
91.48302572346539
 30
0.0
 10
52.83692558473702
 20
91.46200973188805
 30
0.0
 10
52.85529605672041
 20
91.45110092578045
 30
0.0
 10
52.89684769178611
 20
91.41846601483307
 30
0.0
 10
52.91941436454303
 20
91.3969740344617
 30
0.0
 10
52.98219538100307
 20
91.32850809087539
 30
0.0
 10
53.01532514197093
 20
91.2824336326703
 30
0.0
 10
53.07224282845596
 20
91.19742574433563
 30
0.0
 10
53.09642885395971
 20
91.15714544315425
 30
0.0
 10
53.16163680433949
 20
91.0422092166883
 30
0.0
 10
53.19635286453075
 20
90.97162623154128
 30
0.0
 10
53.28956813486163
 20
90.76742047246267
 30
0.0
 10
53.3352406702223
 20
90.64452209013533
 30
0.0
 10
53.37354575372085
 20
90.52764881374773
 30
0.0
  0
LINE
  5
AB
330
1F
100
AcDbEntity
  8
0
  6
Continuous
 62
     7
370
    15
100
AcDbLine
 10
244.4493921076
 20
91.2287443765
 30
0.0
 11
244.4493921076
 21
130.6067918779
 31
0.0
  0
LINE
  5
AC
330
1F
100
AcDbEntity
  8
0
  6
Continuous
 62
     7
370
    15
100
AcDbLine
 10
109.7993921076
 20
141.3849636205
 30
0.0
 11
105.8413249391
 21
141.3849636205
 31
0.0
  0
LINE
  5
AD
330
1F
100
AcDbEntity
  8
0
  6
Continuous
 62
     7
370
    15
100
AcDbLine
 10
105.8413249391
 20
135.3764578097
 30
0.0
 11
109.7993921076
 21
135.3764578097
 31
0.0
  0
LINE
  5
AE
330
1F
100
AcDbEntity
  8
0
  6
Continuous
 62
     7
370
    15
100
AcDbLine
 10
105.8413249391
 20
135.3764578097
 30
0.0
 11
105.8413249391
 21
141.3849636205
 31
0.0
  0
SPLINE
  5
AF
330
1F
100
AcDbEntity
  8
0
  6
Continuous
 62
     7
370
    15
100
AcDbSpline
210
0.0
220
0.0
230
1.0
 70
     8
 71
     3
 72
    10
 73
     6
 74
     0
 42
0.00000001
 43
0.00000001
 40
0.0
 40
0.0
 40
0.0
 40
0.0
 40
0.5
 40
0.5
 40
1.0
 40
1.0
 40
1.0
 40
1.0
 10
110.3993921076163
 20
140.7642084711096
 30
0.0
 10
110.3993921076163
 20
140.9246137374604
 30
0.0
 10
110.3371542765095
 20
141.083675550449
 30
0.0
 10
110.1180193527669
 20
141.3145880160793
 30
0.0
 10
109.960430657775
 20
141.3849636205099
 30
0.0
 10
109.7993921076163
 20
141.3849636205099
 30
0.0
  0
SPLINE
  5
B0
330
1F
100
AcDbEntity
  8
0
  6
Continuous
 62
     7
370
    15
100
AcDbSpline
210
0.0
220
0.0
230
1.0
 70
     8
 71
     3
 72
    12
 73
     8
 74
     0
 42
0.00000001
 43
0.00000001
 40
0.0
 40
0.0
 40
0.0
 40
0.0
 40
0.249999999999998
 40
0.249999999999998
 40
0.499999999999996
 40
0.499999999999996
 40
1.0
 40
1.0
 40
1.0
 40
1.0
 10
109.7993921076163
 20
135.3764578097131
 30
0.0
 10
109.890591829442
 20
135.3764578097131
 30
0.0
 10
109.981186838578
 20
135.3482381111253
 30
0.0
 10
110.1345995650246
 20
135.2537951038771
 30
0.0
 10
110.1998084323483
 20
135.1875081271718
 30
0.0
 10
110.3525929616882
 20
134.9618833038835
 30
0.0
 10
110.3993921076163
 20
134.779457040851
 30
0.0
 10
110.3993921076163
 20
134.5987204086041
 30
0.0
  0
LINE
  5
B1
330
1F
100
AcDbEntity
  8
0
  6
Continuous
 62
     7
370
    15
100
AcDbLine
 10
110.3993921076
 20
134.5987204086
 30
0.0
 11
110.3993921076
 21
140.7642084711
 31
0.0
  0
LINE
  5
B2
330
1F
100
AcDbEntity
  8
0
  6
Continuous
 62
     7
370
    15
100
AcDbLine
 10
104.3593921076
 20
131.0536347788
 30
0.0
 11
104.3593921076
 21
131.9679118149
 31
0.0
  0
SPLINE
  5
B3
330
1F
100
AcDbEntity
  8
0
  6
Continuous
 62
     7
370
    15
100
AcDbSpline
210
0.0
220
0.0
230
1.0
 70
     8
 71
     3
 72
     8
 73
     4
 74
     0
 42
0.00000001
 43
0.00000001
 40
0.0
 40
0.0
 40
0.0
 40
0.0
 40
1.0
 40
1.0
 40
1.0
 40
1.0
 10
104.3593921076163
 20
131.967911814929
 30
0.0
 10
104.8386702582062
 20
133.1089230447816
 30
0.0
 10
105.3342380973461
 20
134.2453074555495
 30
0.0
 10
105.8413249391054
 20
135.3764578097131
 30
0.0
  0
LINE
  5
B4
330
1F
100
AcDbEntity
  8
0
  6
Continuous
 62
     7
370
    15
100
AcDbLine
 10
110.3993921076
 20
134.5987204086
 30
0.0
 11
110.3993921076
 21
130.7677681473
 31
0.0
  0
SPLINE
  5
B5
330
1F
100
AcDbEntity
  8
0
  6
Continuous
 62
     7
370
    15
100
AcDbSpline
210
0.0
220
0.0
230
1.0
 70
     8
 71
     3
 72
     8
 73
     4
 74
     0
 42
0.00000001
 43
0.00000001
 40
0.0
 40
0.0
 40
0.0
 40
0.0
 40
1.0
 40
1.0
 40
1.0
 40
1.0
 10
99.05745927612725
 20
135.3764578097131
 30
0.0
 10
99.56454611788652
 20
134.2453074555494
 30
0.0
 10
100.0601139570265
 20
133.1089230447816
 30
0.0
 10
100.5393921076163
 20
131.967911814929
 30
0.0
  0
LINE
  5
B6
330
1F
100
AcDbEntity
  8
0
  6
Continuous
 62
     7
370
    15
100
AcDbLine
 10
100.5393921076
 20
131.9679118149
 30
0.0
 11
100.5393921076
 21
131.0536347788
 31
0.0
  0
SPLINE
  5
B7
330
1F
100
AcDbEntity
  8
0
  6
Continuous
 62
     7
370
    15
100
AcDbSpline
210
0.0
220
0.0
230
1.0
 70
     8
 71
     3
 72
     8
 73
     4
 74
     0
 42
0.00000001
 43
0.00000001
 40
0.0
 40
0.0
 40
0.0
 40
0.0
 40
1.0
 40
1.0
 40
1.0
 40
1.0
 10
100.5393921076163
 20
138.7230023385173
 30
0.0
 10
100.0466820107706
 20
139.6110213366437
 30
0.0
 10
99.55259930549157
 20
140.4982839723297
 30
0.0
 10
99.05745927612725
 20
141.3849636205099
 30
0.0
  0
LINE
  5
B8
330
1F
100
AcDbEntity
  8
0
  6
Continuous
 62
     7
370
    15
100
AcDbLine
 10
100.5393921076
 20
131.9679118149
 30
0.0
 11
100.5393921076
 21
138.7230023385
 31
0.0
  0
SPLINE
  5
B9
330
1F
100
AcDbEntity
  8
0
  6
Continuous
 62
     7
370
    15
100
AcDbSpline
210
0.0
220
0.0
230
1.0
 70
     8
 71
     3
 72
     8
 73
     4
 74
     0
 42
0.00000001
 43
0.00000001
 40
0.0
 40
0.0
 40
0.0
 40
0.0
 40
1.0
 40
1.0
 40
1.0
 40
1.0
 10
105.8413249391054
 20
141.3849636205099
 30
0.0
 10
105.346184909741
 20
140.4982839723297
 30
0.0
 10
104.8521022044621
 20
139.6110213366437
 30
0.0
 10
104.3593921076163
 20
138.7230023385173
 30
0.0
  0
LINE
  5
BA
330
1F
100
AcDbEntity
  8
0
  6
Continuous
 62
     7
370
    15
100
AcDbLine
 10
104.3593921076
 20
131.9679118149
 30
0.0
 11
104.3593921076
 21
138.7230023385
 31
0.0
  0
ARC
  5
BB
330
1F
100
AcDbEntity
  8
0
  6
Continuous
 62
     7
370
    15
100
AcDbCircle
 10
92.4492538857
 20
129.6782676426
 30
0.0
 40
7.197617454955509
100
AcDbArc
 50
70.7484472317
 51
109.2065859885
  0
LINE
  5
BC
330
1F
100
AcDbEntity
  8
0
  6
Continuous
 62
     7
370
    15
100
AcDbLine
 10
244.4733405952
 20
129.5280694181
 30
0.0
 11
244.4493921076
 21
128.9185397059
 31
0.0
  0
LINE
  5
BD
330
1F
100
AcDbEntity
  8
0
  6
Continuous
 62
     7
370
    15
100
AcDbLine
 10
244.4493921076
 20
94.9185397059
 30
0.0
 11
244.5518602267
 21
92.3105519214
 31
0.0
  0
LINE
  5
BE
330
1F
100
AcDbEntity
  8
0
  6
HIDDEN
 62
     7
370
     0
100
AcDbLine
 10
99.0574592761
 20
135.3764578097
 30
0.0
 11
99.0574592761
 21
130.7677681473
 31
0.0
  0
ARC
  5
BF
330
1F
100
AcDbEntity
  8
0
  6
HIDDEN
 62
     7
370
     0
100
AcDbCircle
 10
92.7289768436
 20
123.4175870886
 30
0.0
 40
3.680538804811129
100
AcDbArc
 50
265.6434445208
 51
11.7695519744
  0
ARC
  5
C0
330
1F
100
AcDbEntity
  8
0
  6
HIDDEN
 62
     7
370
     0
100
AcDbCircle
 10
92.1673740672
 20
123.4116843726
 30
0.0
 40
3.674839109350247
100
AcDbArc
 50
167.0523533452
 51
274.4013754008
  0
LINE
  5
C1
330
1F
100
AcDbEntity
  8
0
  6
HIDDEN
 62
     7
370
     0
100
AcDbLine
 10
72.4445423122
 20
87.3931685245
 30
0.0
 11
71.9103968831
 21
87.338553925
 31
0.0
  0
LINE
  5
C2
330
1F
100
AcDbEntity
  8
0
  6
HIDDEN
 62
     7
370
     0
100
AcDbLine
 10
71.670605686
 20
134.5213185153
 30
0.0
 11
72.4444495919
 21
134.4423511773
 31
0.0
  0
SPLINE
  5
C3
330
1F
100
AcDbEntity
  8
0
  6
HIDDEN
 62
     7
370
     0
100
AcDbSpline
210
0.0
220
0.0
230
1.0
 70
     8
 71
     3
 72
    15
 73
    11
 74
     0
 42
0.00000001
 43
0.00000001
 40
0.0
 40
0.0
 40
0.0
 40
0.0
 40
0.1100725713486526
 40
0.2209193386057678
 40
0.3341941122544269
 40
0.448303448756719
 40
0.5583989836054378
 40
0.7822970457118946
 40
0.8963602235575515
 40
0.9999999999999999
 40
0.9999999999999999
 40
0.9999999999999999
 40
0.9999999999999999
 10
78.20439410921792
 20
130.7552966231622
 30
0.0
 10
78.27198809568162
 20
130.7643648772537
 30
0.0
 10
78.4076514912063
 20
130.7825651670414
 30
0.0
 10
78.58809691578648
 20
130.8032862223639
 30
0.0
 10
78.75024569057587
 20
130.8200259077261
 30
0.0
 10
78.88829683624124
 20
130.8326080195468
 30
0.0
 10
79.0399375531253
 20
130.8449868193995
 30
0.0
 10
79.14138320979404
 20
130.8519441049214
 30
0.0
 10
79.19279693487898
 20
130.8552407468117
 30
0.0
 10
79.19675174372645
 20
130.8554860517024
 30
0.0
 10
79.19863447198874
 20
130.8556028316704
 30
0.0
  0
SPLINE
  5
C4
330
1F
100
AcDbEntity
  8
0
  6
HIDDEN
 62
     7
370
     0
100
AcDbSpline
210
0.0
220
0.0
230
1.0
 70
     8
 71
     3
 72
    12
 73
     8
 74
     0
 42
0.00000001
 43
0.00000001
 40
0.0
 40
0.0
 40
0.0
 40
0.0
 40
0.1180927257878417
 40
0.3464869340945427
 40
0.5687514004948451
 40
0.797514019480743
 40
1.0
 40
1.0
 40
1.0
 40
1.0
 10
79.18658734247951
 20
90.9806953779154
 30
0.0
 10
79.18870973203323
 20
90.98056137142594
 30
0.0
 10
79.19493687468339
 20
90.98016819312159
 30
0.0
 10
79.09027288888576
 20
90.98679139981694
 30
0.0
 10
78.8802995343473
 20
91.00319576252458
 30
0.0
 10
78.58484099344736
 20
91.03079747860437
 30
0.0
 10
78.32595156058142
 20
91.06444228374423
 30
0.0
 10
78.20439410921792
 20
91.08023967152923
 30
0.0
  0
SPLINE
  5
C5
330
1F
100
AcDbEntity
  8
0
  6
HIDDEN
 62
     7
370
     0
100
AcDbSpline
210
0.0
220
0.0
230
1.0
 70
     8
 71
     3
 72
    22
 73
    18
 74
     0
 42
0.00000001
 43
0.00000001
 40
0.0
 40
0.0
 40
0.0
 40
0.0
 40
0.049904028112587
 40
0.120307586389353
 40
0.1885125365560117
 40
0.2586444168297176
 40
0.3277839407293142
 40
0.3988873214655086
 40
0.4686969488930325
 40
0.5405663748364741
 40
0.6097087891222995
 40
0.6809159691092483
 40
0.7490773369981696
 40
0.8192056085539678
 40
0.8876078379088238
 40
0.9579332867310412
 40
1.0
 40
1.0
 40
1.0
 40
1.0
 10
71.70936424927771
 20
130.915903339264
 30
0.0
 10
71.7106151833032
 20
130.9156643088683
 30
0.0
 10
71.7136309088675
 20
130.9150880593936
 30
0.0
 10
71.838524235921
 20
130.8918900245701
 30
0.0
 10
72.06300606379858
 20
130.8522099882525
 30
0.0
 10
72.38203422597608
 20
130.7999985668532
 30
0.0
 10
72.78956945697276
 20
130.740668755181
 30
0.0
 10
73.2713560108057
 20
130.681193978665
 30
0.0
 10
73.82177569260097
 20
130.6275876223031
 30
0.0
 10
74.4146705785492
 20
130.5871137038287
 30
0.0
 10
75.04162314886639
 20
130.5639144554624
 30
0.0
 10
75.6698341226944
 20
130.5609363522475
 30
0.0
 10
76.29409421517143
 20
130.5780706779468
 30
0.0
 10
76.88671250499974
 20
130.6127565336368
 30
0.0
 10
77.44353858852789
 20
130.6617128973006
 30
0.0
 10
77.88134543316076
 20
130.7116130619238
 30
0.0
 10
78.11641213993367
 20
130.7433994509155
 30
0.0
 10
78.20439410921792
 20
130.7552966231622
 30
0.0
  0
SPLINE
  5
C6
330
1F
100
AcDbEntity
  8
0
  6
HIDDEN
 62
     7
370
     0
100
AcDbSpline
210
0.0
220
0.0
230
1.0
 70
     8
 71
     3
 72
    22
 73
    18
 74
     0
 42
0.00000001
 43
0.00000001
 40
0.0
 40
0.0
 40
0.0
 40
0.0
 40
0.069470503305567
 40
0.1409377255045835
 40
0.2104135489148408
 40
0.2819466223559928
 40
0.3506518733998512
 40
0.4213897814436844
 40
0.4894670043894698
 40
0.5594810940348492
 40
0.6282706827033765
 40
0.6989997382187427
 40
0.7687375408512301
 40
0.8405098102584778
 40
0.9099666189318144
 40
0.9814998892127903
 40
1.0
 40
1.0
 40
1.0
 40
1.0
 10
78.20439410921792
 20
91.08023967152923
 30
0.0
 10
78.05622025475854
 20
91.09996601133857
 30
0.0
 10
77.75561373784743
 20
91.13998566475934
 30
0.0
 10
77.22071887516667
 20
91.19535932828919
 30
0.0
 10
76.63508032249791
 20
91.239815713417
 30
0.0
 10
76.02084766292457
 20
91.26750068886919
 30
0.0
 10
75.38693101755631
 20
91.27575394233902
 30
0.0
 10
74.76478231698451
 20
91.26377388745856
 30
0.0
 10
74.15878484712387
 20
91.23302313369759
 30
0.0
 10
73.59429592599736
 20
91.18755716294739
 30
0.0
 10
73.07491968841569
 20
91.13147601114781
 30
0.0
 10
72.62205419073425
 20
91.0714858488294
 30
0.0
 10
72.24333904706857
 20
91.01350593447049
 30
0.0
 10
71.95525392599346
 20
90.96458712632398
 30
0.0
 10
71.77279602944084
 20
90.93155176379823
 30
0.0
 10
71.6921380781068
 20
90.91641196754257
 30
0.0
 10
71.70642795680564
 20
90.9190839209156
 30
0.0
 10
71.70936424927771
 20
90.91963295542737
 30
0.0
  0
LINE
  5
C7
330
1F
100
AcDbEntity
  8
0
  6
HIDDEN
 62
     7
370
     0
100
AcDbLine
 10
65.4533667038
 20
93.9177681473
 30
0.0
 11
65.4533667038
 21
127.9177681473
 31
0.0
  0
LWPOLYLINE
  5
C8
330
1F
100
AcDbEntity
  8
0
  6
HIDDEN
 62
     7
370
     0
100
AcDbPolyline
 90
       12
 70
   128
 43
0.0
 10
92.4493921076
 20
132.863370562
 10
93.3718555906
 20
132.9172808208
 10
94.2445888284
 20
133.0761052813
 10
95.0205425464
 20
133.3312816757
 10
95.6578848786
 20
133.6690533786
 10
96.1222565351
 20
134.0712110299
 10
96.3886231197
 20
134.5160742067
 10
96.4426247407
 20
134.9796602198
 10
96.2813501569
 20
135.4369770274
 10
95.9134937228
 20
135.863370562
 10
95.3588866739
 20
136.2358538377
 10
94.8224251839
 20
136.4733949422
  0
LWPOLYLINE
  5
C9
330
1F
100
AcDbEntity
  8
0
  6
HIDDEN
 62
     7
370
     0
100
AcDbPolyline
 90
       12
 70
   128
 43
0.0
 10
90.0814162586
 20
136.4752553577
 10
89.5398975413
 20
136.2358538377
 10
88.9852904925
 20
135.863370562
 10
88.6174340584
 20
135.4369770274
 10
88.4561594745
 20
134.9796602198
 10
88.5101610956
 20
134.5160742067
 10
88.7765276801
 20
134.0712110299
 10
89.2408993366
 20
133.6690533786
 10
89.8782416689
 20
133.3312816757
 10
90.6541953868
 20
133.0761052813
 10
91.5269286246
 20
132.9172808208
 10
92.4493921076
 20
132.863370562
  0
SPLINE
  5
CA
330
1F
100
AcDbEntity
  8
0
  6
HIDDEN
 62
     7
370
     0
100
AcDbSpline
210
0.0
220
0.0
230
1.0
 70
     8
 71
     3
 72
    11
 73
     7
 74
     0
 42
0.00000001
 43
0.00000001
 40
0.0
 40
0.0
 40
0.0
 40
0.0
 40
0.000577986501074
 40
0.000577986501074
 40
0.000577986501074
 40
0.0011559733324211
 40
0.0011559733324211
 40
0.0011559733324211
 40
0.0011559733324211
 10
52.54939210761631
 20
112.9176087659723
 30
0.0
 10
52.71605936242234
 20
112.9156251264977
 30
0.0
 10
52.88272579210002
 20
112.9135875193636
 30
0.0
 10
53.04939213055182
 20
112.911476055827
 30
0.0
 10
53.21605855937822
 20
112.9093645911454
 30
0.0
 10
53.38272493301588
 20
112.9071790278603
 30
0.0
 10
53.54939210761631
 20
112.9048964503997
 30
0.0
  0
SPLINE
  5
CB
330
1F
100
AcDbEntity
  8
0
  6
HIDDEN
 62
     7
370
     0
100
AcDbSpline
210
0.0
220
0.0
230
1.0
 70
     8
 71
     3
 72
    11
 73
     7
 74
     0
 42
0.00000001
 43
0.00000001
 40
0.0
 40
0.0
 40
0.0
 40
0.0
 40
0.0005782382535738
 40
0.0005782382535738
 40
0.0005782382535738
 40
0.0011564766069466
 40
0.0011564766069466
 40
0.0011564766069466
 40
0.0011564766069466
 10
53.54939210761631
 20
108.9210678451286
 30
0.0
 10
53.38273815364767
 20
108.9206302673668
 30
0.0
 10
53.21607748144567
 20
108.9201502026942
 30
0.0
 10
53.04941059278026
 20
108.9196306633246
 30
0.0
 10
52.88274367438422
 20
108.9191111238624
 30
0.0
 10
52.71607054455102
 20
108.9185522948403
 30
0.0
 10
52.54939210761633
 20
108.917966751257
 30
0.0
  0
LINE
  5
CC
330
1F
100
AcDbEntity
  8
0
  6
HIDDEN
 62
     7
370
     0
100
AcDbLine
 10
92.1092180762
 20
93.9177681473
 30
0.0
 11
92.1092180762
 21
127.9177681473
 31
0.0
  0
LINE
  5
CD
330
1F
100
AcDbEntity
  8
0
  6
HIDDEN
 62
     7
370
     0
100
AcDbLine
 10
94.3993921076
 20
95.1927681473
 30
0.0
 11
94.3993921076
 21
126.6427681473
 31
0.0
  0
SPLINE
  5
CE
330
1F
100
AcDbEntity
  8
0
  6
HIDDEN
 62
     7
370
     0
100
AcDbSpline
210
0.0
220
0.0
230
1.0
 70
     8
 71
     3
 72
    16
 73
    12
 74
     0
 42
0.00000001
 43
0.00000001
 40
0.0
 40
0.0
 40
0.0
 40
0.0
 40
0.1249999999999985
 40
0.1249999999999985
 40
0.249999999999997
 40
0.249999999999997
 40
0.499999999999998
 40
0.499999999999998
 40
0.749999999999999
 40
0.749999999999999
 40
1.0
 40
1.0
 40
1.0
 40
1.0
 10
61.24939210761632
 20
95.11627771131403
 30
0.0
 10
61.34451386228213
 20
95.11627771131403
 30
0.0
 10
61.43784393101022
 20
95.11246187792123
 30
0.0
 10
61.62110569174821
 20
95.09769132519142
 30
0.0
 10
61.71198340730521
 20
95.08653327721584
 30
0.0
 10
61.96878510482495
 20
95.04406200707412
 30
0.0
 10
62.12385246969696
 20
95.00301580987131
 30
0.0
 10
62.37759893125158
 20
94.90786969328941
 30
0.0
 10
62.47846938291944
 20
94.85310695920786
 30
0.0
 10
62.6137157976143
 20
94.74184583530398
 30
0.0
 10
62.6493921076163
 20
94.68467609797528
 30
0.0
 10
62.6493921076163
 20
94.63025452494156
 30
0.0
  0
SPLINE
  5
CF
330
1F
100
AcDbEntity
  8
0
  6
HIDDEN
 62
     7
370
     0
100
AcDbSpline
210
0.0
220
0.0
230
1.0
 70
     8
 71
     3
 72
     8
 73
     4
 74
     0
 42
0.00000001
 43
0.00000001
 40
0.0
 40
0.0
 40
0.0
 40
0.0
 40
1.0
 40
1.0
 40
1.0
 40
1.0
 10
53.84939210784691
 20
97.26108065739628
 30
0.0
 10
53.84939210784882
 20
96.37718351507935
 30
0.0
 10
53.83591148193663
 20
95.66260027001738
 30
0.0
 10
53.83456011374552
 20
95.11627771131403
 30
0.0
  0
LINE
  5
D0
330
1F
100
AcDbEntity
  8
0
  6
HIDDEN
 62
     7
370
     0
100
AcDbLine
 10
53.5493921076
 20
101.3169413625
 30
0.0
 11
53.5493921076
 21
98.285990917
 31
0.0
  0
LINE
  5
D1
330
1F
100
AcDbEntity
  8
0
  6
HIDDEN
 62
     7
370
     0
100
AcDbLine
 10
53.8493921076
 20
114.5224017689
 30
0.0
 11
53.8493921076
 21
102.6847817717
 31
0.0
  0
SPLINE
  5
D2
330
1F
100
AcDbEntity
  8
0
  6
HIDDEN
 62
     7
370
     0
100
AcDbSpline
210
0.0
220
0.0
230
1.0
 70
     8
 71
     3
 72
     8
 73
     4
 74
     0
 42
0.00000001
 43
0.00000001
 40
0.0
 40
0.0
 40
0.0
 40
0.0
 40
1.0
 40
1.0
 40
1.0
 40
1.0
 10
53.54939210761631
 20
120.5247074606774
 30
0.0
 10
53.73042357230005
 20
120.0925999772514
 30
0.0
 10
53.84939210761394
 20
119.6384545736582
 30
0.0
 10
53.84939210760822
 20
119.1507545229576
 30
0.0
  0
LINE
  5
D3
330
1F
100
AcDbEntity
  8
0
  6
HIDDEN
 62
     7
370
     0
100
AcDbLine
 10
53.5493921076
 20
123.557910461
 30
0.0
 11
53.5493921076
 21
120.5247074607
 31
0.0
  0
SPLINE
  5
D4
330
1F
100
AcDbEntity
  8
0
  6
HIDDEN
 62
     7
370
     0
100
AcDbSpline
210
0.0
220
0.0
230
1.0
 70
     8
 71
     3
 72
    10
 73
     6
 74
     0
 42
0.00000001
 43
0.00000001
 40
0.0
 40
0.0
 40
0.0
 40
0.0
 40
0.5
 40
0.5
 40
1.0
 40
1.0
 40
1.0
 40
1.0
 10
53.8493921076283
 20
124.5744556372655
 30
0.0
 10
53.84939210762651
 20
124.4098192916944
 30
0.0
 10
53.82223343721103
 20
124.2426640689306
 30
0.0
 10
53.71646844318676
 20
123.9040410633141
 30
0.0
 10
53.64005365568841
 20
123.7317692871816
 30
0.0
 10
53.54939210761633
 20
123.5579104609537
 30
0.0
  0
SPLINE
  5
D5
330
1F
100
AcDbEntity
  8
0
  6
HIDDEN
 62
     7
370
     0
100
AcDbSpline
210
0.0
220
0.0
230
1.0
 70
     8
 71
     3
 72
    18
 73
    14
 74
     0
 42
0.00000001
 43
0.00000001
 40
0.0
 40
0.0
 40
0.0
 40
0.0
 40
0.2499999999999999
 40
0.2499999999999999
 40
0.3749999999999992
 40
0.3749999999999992
 40
0.4999999999999984
 40
0.4999999999999984
 40
0.6249999999999978
 40
0.6249999999999978
 40
0.749999999999997
 40
0.749999999999997
 40
1.0
 40
1.0
 40
1.0
 40
1.0
 10
58.64939210761631
 20
127.2052817697498
 30
0.0
 10
58.6493921076163
 20
127.1508072491976
 30
0.0
 10
58.61448141622414
 20
127.0944261898452
 30
0.0
 10
58.51247211489109
 20
127.0103493489916
 30
0.0
 10
58.47083576021298
 20
126.9830156450007
 30
0.0
 10
58.37242996472422
 20
126.9300617294018
 30
0.0
 10
58.31488675301995
 20
126.9041743756846
 30
0.0
 10
58.18758857944697
 20
126.8563968308513
 30
0.0
 10
58.11800127468953
 20
126.8344489126734
 30
0.0
 10
57.96656702953458
 20
126.7950163477607
 30
0.0
 10
57.88388312644062
 20
126.7774600985349
 30
0.0
 10
57.62777166440257
 20
126.7350213331143
 30
0.0
 10
57.43985666051459
 20
126.7192585833774
 30
0.0
 10
57.24939210761632
 20
126.7192585833774
 30
0.0
  0
LINE
  5
D6
330
1F
100
AcDbEntity
  8
0
  6
HIDDEN
 62
     7
370
     0
100
AcDbLine
 10
57.2493921076
 20
126.7192585834
 30
0.0
 11
53.8493921076
 21
126.7192585834
 31
0.0
  0
LINE
  5
D7
330
1F
100
AcDbEntity
  8
0
  6
HIDDEN
 62
     7
370
     0
100
AcDbLine
 10
53.780423121
 20
95.1162777113
 30
0.0
 11
61.2493921076
 21
95.1162777113
 31
0.0
  0
SPLINE
  5
D8
330
1F
100
AcDbEntity
  8
0
  6
HIDDEN
 62
     7
370
     0
100
AcDbSpline
210
0.0
220
0.0
230
1.0
 70
     8
 71
     3
 72
    22
 73
    18
 74
     0
 42
0.00000001
 43
0.00000001
 40
0.0
 40
0.0
 40
0.0
 40
0.0
 40
0.1249999999999998
 40
0.1249999999999998
 40
0.2499999999999995
 40
0.2499999999999995
 40
0.4999999999999992
 40
0.4999999999999992
 40
0.5624999999999992
 40
0.5624999999999992
 40
0.6249999999999992
 40
0.6249999999999992
 40
0.7499999999999993
 40
0.7499999999999993
 40
0.8749999999999997
 40
0.8749999999999997
 40
1.0
 40
1.0
 40
1.0
 40
1.0
 10
53.7804231209742
 20
95.11627771131404
 30
0.0
 10
53.76734072824582
 20
95.3713834214617
 30
0.0
 10
53.75412116480602
 20
95.6645416805656
 30
0.0
 10
53.7316739870119
 20
96.32684214619042
 30
0.0
 10
53.72219551998744
 20
96.6971160668018
 30
0.0
 10
53.70299755905089
 20
97.91967286991559
 30
0.0
 10
53.70411133204777
 20
98.85681179604744
 30
0.0
 10
53.72302212500085
 20
100.1766830255624
 30
0.0
 10
53.72765165285985
 20
100.4481849345387
 30
0.0
 10
53.7381328726058
 20
101.0065697693411
 30
0.0
 10
53.74392813389023
 20
101.2936926252807
 30
0.0
 10
53.76223735479517
 20
102.1662818796523
 30
0.0
 10
53.77627228907554
 20
102.7667375560082
 30
0.0
 10
53.80572946121237
 20
104.0042120485043
 30
0.0
 10
53.82128515219392
 20
104.6412282051477
 30
0.0
 10
53.84507970219081
 20
105.9527168028323
 30
0.0
 10
53.85309875433618
 20
106.6288394144928
 30
0.0
 10
53.8493921076163
 20
107.3131345257776
 30
0.0
  0
LINE
  5
D9
330
1F
100
AcDbEntity
  8
0
  6
HIDDEN
 62
     7
370
     0
100
AcDbLine
 10
53.8493921076
 20
114.5224017689
 30
0.0
 11
53.8493921076
 21
126.7192585834
 31
0.0
  0
SPLINE
  5
DA
330
1F
100
AcDbEntity
  8
0
  6
HIDDEN
 62
     7
370
     0
100
AcDbSpline
210
0.0
220
0.0
230
1.0
 70
     8
 71
     3
 72
    10
 73
     6
 74
     0
 42
0.00000001
 43
0.00000001
 40
0.0
 40
0.0
 40
0.0
 40
0.0
 40
0.5
 40
0.5
 40
1.0
 40
1.0
 40
1.0
 40
1.0
 10
53.84939210761626
 20
107.3131345257625
 30
0.0
 10
53.84939210761608
 20
107.5870496738368
 30
0.0
 10
53.82363287774741
 20
107.8579912525666
 30
0.0
 10
53.72042694501407
 20
108.3936823341691
 30
0.0
 10
53.64308878113963
 20
108.6594291376911
 30
0.0
 10
53.54939210761631
 20
108.9210678451286
 30
0.0
  0
SPLINE
  5
DB
330
1F
100
AcDbEntity
  8
0
  6
HIDDEN
 62
     7
370
     0
100
AcDbSpline
210
0.0
220
0.0
230
1.0
 70
     8
 71
     3
 72
    10
 73
     6
 74
     0
 42
0.00000001
 43
0.00000001
 40
0.0
 40
0.0
 40
0.0
 40
0.0
 40
0.5
 40
0.5
 40
1.0
 40
1.0
 40
1.0
 40
1.0
 10
53.54939210761631
 20
112.9048964503997
 30
0.0
 10
53.6426226879384
 20
113.1687902569672
 30
0.0
 10
53.71765229944761
 20
113.4349705660328
 30
0.0
 10
53.82271939739397
 20
113.9732931377836
 30
0.0
 10
53.84939210762707
 20
114.2460412523638
 30
0.0
 10
53.84939210762826
 20
114.5224017689128
 30
0.0
  0
LINE
  5
DC
330
1F
100
AcDbEntity
  8
0
  6
HIDDEN
 62
     7
370
     0
100
AcDbLine
 10
53.5493921076
 20
108.9210678451
 30
0.0
 11
53.5493921076
 21
112.9048964504
 31
0.0
  0
LINE
  5
DD
330
1F
100
AcDbEntity
  8
0
  6
HIDDEN
 62
     7
370
     0
100
AcDbLine
 10
240.9493921076
 20
98.4177681473
 30
0.0
 11
240.9493921076
 21
123.4177681473
 31
0.0
  0
SPLINE
  5
DE
330
1F
100
AcDbEntity
  8
0
  6
HIDDEN
 62
     7
370
     0
100
AcDbSpline
210
0.0
220
0.0
230
1.0
 70
     8
 71
     3
 72
    23
 73
    19
 74
     0
 42
0.00000001
 43
0.00000001
 40
0.0
 40
0.0
 40
0.0
 40
0.0
 40
0.0523123178761831
 40
0.1049915026917192
 40
0.1588250674243165
 40
0.2130559209977827
 40
0.2653675040126837
 40
0.3717463041429031
 40
0.4259341265728934
 40
0.4786474818970185
 40
0.5858456392878681
 40
0.6404576823414828
 40
0.6934236928582581
 40
0.7467611188863934
 40
0.8012766130235316
 40
0.85620228899573
 40
0.9087321543526594
 40
1.0
 40
1.0
 40
1.0
 40
1.0
 10
189.4493921076163
 20
123.560552650769
 30
0.0
 10
189.5042402302464
 20
123.5607593267332
 30
0.0
 10
189.6143211260764
 20
123.5611741280828
 30
0.0
 10
189.7796879411681
 20
123.5645328324934
 30
0.0
 10
189.9446771151236
 20
123.5698858927448
 30
0.0
 10
190.1057022324618
 20
123.5772500538349
 30
0.0
 10
190.3131654881732
 20
123.5893071822206
 30
0.0
 10
190.5095579034795
 20
123.6043355418947
 30
0.0
 10
190.6902892840877
 20
123.6210799237655
 30
0.0
 10
190.8600564179718
 20
123.6385462454648
 30
0.0
 10
191.0111971394231
 20
123.6563490639844
 30
0.0
 10
191.139537932938
 20
123.6729210702331
 30
0.0
 10
191.2237848194768
 20
123.6843855106551
 30
0.0
 10
191.2955266348836
 20
123.6945753301424
 30
0.0
 10
191.3550133936128
 20
123.7033266934714
 30
0.0
 10
191.3998219090415
 20
123.7100971509276
 30
0.0
 10
191.440004492168
 20
123.7162923104192
 30
0.0
 10
191.443591559051
 20
123.7168597639491
 30
0.0
 10
191.4458682563941
 20
123.7172199244887
 30
0.0
  0
LINE
  5
DF
330
1F
100
AcDbEntity
  8
0
  6
HIDDEN
 62
     7
370
     0
100
AcDbLine
 10
189.5006326564
 20
123.5608856967
 30
0.0
 11
189.1953460259
 21
123.5632426791
 31
0.0
  0
SPLINE
  5
E0
330
1F
100
AcDbEntity
  8
0
  6
HIDDEN
 62
     7
370
     0
100
AcDbSpline
210
0.0
220
0.0
230
1.0
 70
     8
 71
     3
 72
    22
 73
    18
 74
     0
 42
0.00000001
 43
0.00000001
 40
0.0
 40
0.0
 40
0.0
 40
0.0
 40
0.0468443003380664
 40
0.1530008964562493
 40
0.2070937122189937
 40
0.259257165174097
 40
0.3653258742232218
 40
0.419350630507689
 40
0.4720432571313393
 40
0.5791978454760949
 40
0.6337865429864598
 40
0.6867585594509663
 40
0.7401017575505761
 40
0.7946222893424532
 40
0.849552811619931
 40
0.924236961843397
 40
1.0
 40
1.0
 40
1.0
 40
1.0
 10
187.4500110416698
 20
123.7176715539639
 30
0.0
 10
187.4508680328614
 20
123.7175377408718
 30
0.0
 10
187.4536671016834
 20
123.7171006861418
 30
0.0
 10
187.4897400848414
 20
123.7114752513575
 30
0.0
 10
187.5516668230021
 20
123.7021505499945
 30
0.0
 10
187.6314830120301
 20
123.690461898272
 30
0.0
 10
187.7367056333312
 20
123.6757761196667
 30
0.0
 10
187.8654790056913
 20
123.6592489680495
 30
0.0
 10
188.0096274985568
 20
123.6418933258309
 30
0.0
 10
188.1752370119318
 20
123.6240446018907
 30
0.0
 10
188.3583067558319
 20
123.6072847666494
 30
0.0
 10
188.503318063155
 20
123.5956173603325
 30
0.0
 10
188.6549664035763
 20
123.5851725475986
 30
0.0
 10
188.814291058059
 20
123.5761359783737
 30
0.0
 10
188.9998416539464
 20
123.5680600571832
 30
0.0
 10
189.2121487810384
 20
123.5618467149046
 30
0.0
 10
189.3699338290092
 20
123.5609860627857
 30
0.0
 10
189.4493921076163
 20
123.560552650769
 30
0.0
  0
SPLINE
  5
E1
330
1F
100
AcDbEntity
  8
0
  6
HIDDEN
 62
     7
370
     0
100
AcDbSpline
210
0.0
220
0.0
230
1.0
 70
     8
 71
     3
 72
    38
 73
    34
 74
     0
 42
0.00000001
 43
0.00000001
 40
0.0
 40
0.0
 40
0.0
 40
0.0
 40
0.0261585671324982
 40
0.0525005146755889
 40
0.0794195472015503
 40
0.1065372218269547
 40
0.1326954357812271
 40
0.1858900855615709
 40
0.2129868877802076
 40
0.2393409303040545
 40
0.2929344678704303
 40
0.320237502066799
 40
0.3467216110878725
 40
0.373391404344031
 40
0.4006502078989116
 40
0.4281141324051057
 40
0.4543803288181268
 40
0.5078206089211562
 40
0.5350608161795236
 40
0.5611005256618108
 40
0.6140596422568061
 40
0.6410397619011237
 40
0.6671974190417793
 40
0.7203843408274456
 40
0.7474739732468259
 40
0.7739089343004669
 40
0.8276741751615382
 40
0.8550699397014088
 40
0.881512149333187
 40
0.93531115990842
 40
0.9627362266963482
 40
0.9889069640292376
 40
1.0
 40
1.0
 40
1.0
 40
1.0
 10
191.4493921076163
 20
98.11776814734569
 30
0.0
 10
191.4480876593526
 20
98.1179723032978
 30
0.0
 10
191.4454696182012
 20
98.11838204640436
 30
0.0
 10
191.4241283091622
 20
98.12170087470611
 30
0.0
 10
191.3896137145247
 20
98.12699404648276
 30
0.0
 10
191.3410779852498
 20
98.13428321627555
 30
0.0
 10
191.2591848074087
 20
98.14623312639394
 30
0.0
 10
191.1516875040344
 20
98.16116055320742
 30
0.0
 10
191.0207843949194
 20
98.17784182211224
 30
0.0
 10
190.8747414853824
 20
98.19527507868739
 30
0.0
 10
190.7075143589753
 20
98.2130985246008
 30
0.0
 10
190.5230593008295
 20
98.22974113448518
 30
0.0
 10
190.3771502914216
 20
98.24127522026315
 30
0.0
 10
190.2247472149355
 20
98.25155046800563
 30
0.0
 10
190.0648042236699
 20
98.26036708931787
 30
0.0
 10
189.9010630777356
 20
98.26727467330191
 30
0.0
 10
189.6801351017513
 20
98.27372253665703
 30
0.0
 10
189.4550557917098
 20
98.27586664197175
 30
0.0
 10
189.2316264151082
 20
98.27347306913961
 30
0.0
 10
189.011308251565
 20
98.2682178809873
 30
0.0
 10
188.7965109174247
 20
98.25888655145319
 30
0.0
 10
188.5918835013197
 20
98.2462330045854
 30
0.0
 10
188.394871708211
 20
98.23172298171751
 30
0.0
 10
188.2113742362546
 20
98.21501028359793
 30
0.0
 10
188.0457828016142
 20
98.19749236130994
 30
0.0
 10
187.8924752464093
 20
98.17985102025766
 30
0.0
 10
187.7599480999406
 20
98.16282353060895
 30
0.0
 10
187.6521745164425
 20
98.14795245420862
 30
0.0
 10
187.5615559168291
 20
98.1349314092553
 30
0.0
 10
187.4962643539005
 20
98.12503476261497
 30
0.0
 10
187.462332259749
 20
98.11978895450794
 30
0.0
 10
187.447273232119
 20
98.11743874542817
 30
0.0
 10
187.4524724671055
 20
98.11824790742526
 30
0.0
 10
187.4540202250381
 20
98.11848878649744
 30
0.0
  0
LINE
  5
E2
330
1F
100
AcDbEntity
  8
0
  6
HIDDEN
 62
     7
370
     0
100
AcDbLine
 10
186.9493921076
 20
98.5177681473
 30
0.0
 11
186.9493921076
 21
123.3177313207
 31
0.0
  0
LINE
  5
E3
330
1F
100
AcDbEntity
  8
0
  6
HIDDEN
 62
     7
370
     0
100
AcDbLine
 10
197.4493921076
 20
98.4177681473
 30
0.0
 11
197.4493921076
 21
123.4177681473
 31
0.0
  0
LINE
  5
E4
330
1F
100
AcDbEntity
  8
0
  6
HIDDEN
 62
     7
370
     0
100
AcDbLine
 10
53.6993921076
 20
92.9277681473
 30
0.0
 11
53.6993921076
 21
90.047830382
 31
0.0
  0
LINE
  5
E5
330
1F
100
AcDbEntity
  8
0
  6
HIDDEN
 62
     7
370
     0
100
AcDbLine
 10
62.6493921076
 20
92.9277681473
 30
0.0
 11
62.6493921076
 21
88.9540306161
 31
0.0
  0
LINE
  5
E6
330
1F
100
AcDbEntity
  8
0
  6
HIDDEN
 62
     7
370
     0
100
AcDbLine
 10
53.6993921076
 20
128.9077681473
 30
0.0
 11
53.6993921076
 21
131.7877059127
 31
0.0
  0
LINE
  5
E7
330
1F
100
AcDbEntity
  8
0
  6
HIDDEN
 62
     7
370
     0
100
AcDbLine
 10
58.6493921076
 20
128.9077681473
 30
0.0
 11
58.6493921076
 21
132.7618758197
 31
0.0
  0
LINE
  5
E8
330
1F
100
AcDbEntity
  8
0
  6
HIDDEN
 62
     7
370
     0
100
AcDbLine
 10
106.2493921076
 20
101.4177681473
 30
0.0
 11
106.2493921076
 21
120.4177681473
 31
0.0
  0
LINE
  5
E9
330
1F
100
AcDbEntity
  8
0
  6
HIDDEN
 62
     7
370
     0
100
AcDbLine
 10
103.2493921076
 20
101.4177681473
 30
0.0
 11
103.2493921076
 21
120.4177681473
 31
0.0
  0
LINE
  5
EA
330
1F
100
AcDbEntity
  8
0
  6
HIDDEN
 62
     7
370
     0
100
AcDbLine
 10
94.8993921076
 20
102.4177681473
 30
0.0
 11
94.8993921076
 21
119.4177681473
 31
0.0
  0
LINE
  5
EB
330
1F
100
AcDbEntity
  8
0
  6
HIDDEN
 62
     7
370
     0
100
AcDbLine
 10
110.3993921076
 20
84.5177681473
 30
0.0
 11
104.2617173053
 21
84.5177681473
 31
0.0
  0
LINE
  5
EC
330
1F
100
AcDbEntity
  8
0
  6
HIDDEN
 62
     7
370
     0
100
AcDbLine
 10
100.6370669099
 20
84.5177681473
 30
0.0
 11
97.3993921076
 21
84.5177681473
 31
0.0
  0
LINE
  5
ED
330
1F
100
AcDbEntity
  8
0
  6
HIDDEN
 62
     7
370
     0
100
AcDbLine
 10
89.3993921076
 20
79.4336451645
 30
0.0
 11
89.3993921076
 21
84.5177681473
 31
0.0
  0
LINE
  5
EE
330
1F
100
AcDbEntity
  8
0
  6
HIDDEN
 62
     7
370
     0
100
AcDbLine
 10
97.3993921076
 20
84.5177681473
 30
0.0
 11
89.3993921076
 21
84.5177681473
 31
0.0
  0
LINE
  5
EF
330
1F
100
AcDbEntity
  8
0
  6
HIDDEN
 62
     7
370
     0
100
AcDbLine
 10
110.3993921076
 20
137.3177681473
 30
0.0
 11
103.9650945759
 21
137.3177681473
 31
0.0
  0
LINE
  5
F0
330
1F
100
AcDbEntity
  8
0
  6
HIDDEN
 62
     7
370
     0
100
AcDbLine
 10
100.9336896393
 20
137.3177681473
 30
0.0
 11
97.3993921076
 21
137.3177681473
 31
0.0
  0
LINE
  5
F1
330
1F
100
AcDbEntity
  8
0
  6
HIDDEN
 62
     7
370
     0
100
AcDbLine
 10
97.3993921076
 20
137.3177681473
 30
0.0
 11
89.3993921076
 21
137.3177681473
 31
0.0
  0
SPLINE
  5
F2
330
1F
100
AcDbEntity
  8
0
  6
HIDDEN
 62
     7
370
     0
100
AcDbSpline
210
0.0
220
0.0
230
1.0
 70
     8
 71
     3
 72
    11
 73
     7
 74
     0
 42
0.00000001
 43
0.00000001
 40
0.0
 40
0.0
 40
0.0
 40
0.0
 40
0.0008203708524183
 40
0.0008203708524183
 40
0.0008203708524183
 40
0.0016409967870155
 40
0.0016409967870155
 40
0.0016409967870155
 40
0.0016409967870155
 10
53.69939210761632
 20
95.06573539670299
 30
0.0
 10
53.50823380731764
 20
95.02455636808384
 30
0.0
 10
53.31680673724546
 20
94.98580239585382
 30
0.0
 10
53.12516111372484
 20
94.94943463657529
 30
0.0
 10
52.93345570864438
 20
94.91305553280925
 30
0.0
 10
52.74151675658543
 20
94.8790612820417
 30
0.0
 10
52.54939210951462
 20
94.84741315665049
 30
0.0
  0
ELLIPSE
  5
F3
330
1F
100
AcDbEntity
  8
0
  6
HIDDEN
 62
     7
370
     0
100
AcDbEllipse
 10
48.3069602435
 20
110.9177681473
 30
0.0
 11
20.19992452871123
 21
-1.421085471520200E-14
 31
0.0
210
0.0
220
0.0
230
1.0
 40
0.8164965809
 41
1.3005663548785
 42
1.359198697382092
  0
LINE
  5
F4
330
1F
100
AcDbEntity
  8
0
  6
HIDDEN
 62
     7
370
     0
100
AcDbLine
 10
53.6993921076
 20
92.9277681473
 30
0.0
 11
53.6993921076
 21
95.0657353967
 31
0.0
  0
LINE
  5
F5
330
1F
100
AcDbEntity
  8
0
  6
HIDDEN
 62
     7
370
     0
100
AcDbLine
 10
53.780423121
 20
95.1162777113
 30
0.0
 11
53.6993921076
 21
95.0657353967
 31
0.0
  0
LINE
  5
F6
330
1F
100
AcDbEntity
  8
0
  6
HIDDEN
 62
     7
370
     0
100
AcDbLine
 10
62.6493921076
 20
92.9277681473
 30
0.0
 11
62.6493921076
 21
94.6302545249
 31
0.0
  0
LINE
  5
F7
330
1F
100
AcDbEntity
  8
0
  6
HIDDEN
 62
     7
370
     0
100
AcDbLine
 10
53.6993921076
 20
128.9077681473
 30
0.0
 11
53.6993921076
 21
126.8123925963
 31
0.0
  0
SPLINE
  5
F8
330
1F
100
AcDbEntity
  8
0
  6
HIDDEN
 62
     7
370
     0
100
AcDbSpline
210
0.0
220
0.0
230
1.0
 70
     8
 71
     3
 72
     8
 73
     4
 74
     0
 42
0.00000001
 43
0.00000001
 40
0.0
 40
0.0
 40
0.0
 40
0.0
 40
1.0
 40
1.0
 40
1.0
 40
1.0
 10
53.6993921076163
 20
126.8123925962931
 30
0.0
 10
53.7493976054327
 20
126.7813568227773
 30
0.0
 10
53.79939767497001
 20
126.7503121784535
 30
0.0
 10
53.84939210762829
 20
126.7192585833774
 30
0.0
  0
LINE
  5
F9
330
1F
100
AcDbEntity
  8
0
  6
HIDDEN
 62
     7
370
     0
100
AcDbLine
 10
58.6493921076
 20
128.9077681473
 30
0.0
 11
58.6493921076
 21
127.2052817697
 31
0.0
  0
LINE
  5
FA
330
1F
100
AcDbEntity
  8
0
  6
HIDDEN
 62
     7
370
     0
100
AcDbLine
 10
186.4493921076
 20
105.4177681473
 30
0.0
 11
186.4493921076
 21
116.4177681473
 31
0.0
  0
LINE
  5
FB
330
1F
100
AcDbEntity
  8
0
  6
HIDDEN
 62
     7
370
     0
100
AcDbLine
 10
156.4493921076
 20
105.4177681473
 30
0.0
 11
156.4493921076
 21
116.4177681473
 31
0.0
  0
LINE
  5
FC
330
1F
100
AcDbEntity
  8
0
  6
HIDDEN
 62
     7
370
     0
100
AcDbLine
 10
155.6682733029
 20
106.7177681473
 30
0.0
 11
155.6682733029
 21
115.1177681473
 31
0.0
  0
SPLINE
  5
FD
330
1F
100
AcDbEntity
  8
0
  6
HIDDEN
 62
     7
370
     0
100
AcDbSpline
210
0.0
220
0.0
230
1.0
 70
     8
 71
     3
 72
    20
 73
    16
 74
     0
 42
0.00000001
 43
0.00000001
 40
0.0
 40
0.0
 40
0.0
 40
0.0
 40
0.1119595197697403
 40
0.1774767634657198
 40
0.2490961890178592
 40
0.329842231515121
 40
0.3986125823958296
 40
0.4998893016460016
 40
0.6138510292917251
 40
0.6790150176695212
 40
0.7495394203319203
 40
0.8296829944361284
 40
0.898124628546775
 40
0.9995320175861881
 40
0.9999999999999999
 40
0.9999999999999999
 40
0.9999999999999999
 40
0.9999999999999999
 10
79.19823255747924
 20
87.31777438557778
 30
0.0
 10
79.15490881917962
 20
87.33120370361883
 30
0.0
 10
79.08623259700158
 20
87.352491682581
 30
0.0
 10
78.64105347094815
 20
87.45580249422609
 30
0.0
 10
78.11449518726639
 20
87.56910572428464
 30
0.0
 10
77.42907016610948
 20
87.69203859207575
 30
0.0
 10
76.535752768801
 20
87.81407305125799
 30
0.0
 10
75.42239338172153
 20
87.93180935904445
 30
0.0
 10
74.31161930114358
 20
87.94378486141015
 30
0.0
 10
73.42687099922696
 20
87.91672657128099
 30
0.0
 10
72.75967440451323
 20
87.86879450687802
 30
0.0
 10
72.2184019022332
 20
87.81250099451717
 30
0.0
 10
71.83082194321142
 20
87.76741808388344
 30
0.0
 10
71.63688542319309
 20
87.72854490917787
 30
0.0
 10
71.69998788340462
 20
87.73925096641689
 30
0.0
 10
71.70027775563995
 20
87.73930014657141
 30
0.0
  0
LINE
  5
FE
330
1F
100
AcDbEntity
  8
0
  6
HIDDEN
 62
     7
370
     0
100
AcDbLine
 10
72.609404022
 20
87.850106291
 30
0.0
 11
72.7932493331
 21
87.8682956333
 31
0.0
  0
LINE
  5
FF
330
1F
100
AcDbEntity
  8
0
  6
HIDDEN
 62
     7
370
     0
100
AcDbLine
 10
72.7932466347
 20
133.9671712301
 30
0.0
 11
72.6191733543
 21
133.9843807561
 31
0.0
  0
SPLINE
  5
100
330
1F
100
AcDbEntity
  8
0
  6
HIDDEN
 62
     7
370
     0
100
AcDbSpline
210
0.0
220
0.0
230
1.0
 70
     8
 71
     3
 72
    20
 73
    16
 74
     0
 42
0.00000001
 43
0.00000001
 40
0.0
 40
0.0
 40
0.0
 40
0.0
 40
0.0004889684280482
 40
0.1018319933902445
 40
0.1702475582132129
 40
0.2503692056770098
 40
0.3209568221784361
 40
0.3861816196705448
 40
0.5002554836816774
 40
0.6012243489286591
 40
0.6697680558629565
 40
0.750240190758037
 40
0.8220490693851168
 40
0.8877204546109287
 40
1.0
 40
1.0
 40
1.0
 40
1.0
 10
71.70031114040154
 20
134.0961696015382
 30
0.0
 10
71.70000749940459
 20
134.0962211886884
 30
0.0
 10
71.63677158023263
 20
134.1069646683015
 30
0.0
 10
71.82997561403194
 20
134.0681086776446
 30
0.0
 10
72.21692266893032
 20
134.0230851872395
 30
0.0
 10
72.75792959225917
 20
133.9668222251463
 30
0.0
 10
73.42542985372374
 20
133.9188910325522
 30
0.0
 10
74.31125770507514
 20
133.8918175768236
 30
0.0
 10
75.42206427716192
 20
133.9036435804008
 30
0.0
 10
76.53413464318668
 20
134.0210926555547
 30
0.0
 10
77.42523494938636
 20
134.1427970437949
 30
0.0
 10
78.11071940021128
 20
134.265618089372
 30
0.0
 10
78.63870729975812
 20
134.3790563410573
 30
0.0
 10
79.08609125124217
 20
134.4827968966981
 30
0.0
 10
79.15490171759315
 20
134.5042196899716
 30
0.0
 10
79.19831822490336
 20
134.5177365706163
 30
0.0
  0
LINE
  5
101
330
1F
100
AcDbEntity
  8
0
  6
HIDDEN
 62
     7
370
     0
100
AcDbLine
 10
158.8993921076
 20
85.4951184165
 30
0.0
 11
153.8993921076
 21
85.4951184165
 31
0.0
  0
LINE
  5
102
330
1F
100
AcDbEntity
  8
0
  6
HIDDEN
 62
     7
370
     0
100
AcDbLine
 10
156.3993921076
 20
136.3404178782
 30
0.0
 11
158.8993921076
 21
136.3404178782
 31
0.0
  0
LINE
  5
103
330
1F
100
AcDbEntity
  8
0
  6
HIDDEN
 62
     7
370
     0
100
AcDbLine
 10
153.8993921076
 20
136.3404178782
 30
0.0
 11
156.3993921076
 21
136.3404178782
 31
0.0
  0
LINE
  5
104
330
1F
100
AcDbEntity
  8
0
  6
HIDDEN
 62
     7
370
     0
100
AcDbLine
 10
156.3993921076
 20
122.9177681473
 30
0.0
 11
158.8993921076
 21
122.9177681473
 31
0.0
  0
LINE
  5
105
330
1F
100
AcDbEntity
  8
0
  6
HIDDEN
 62
     7
370
     0
100
AcDbLine
 10
153.8993921076
 20
122.9177681473
 30
0.0
 11
156.3993921076
 21
122.9177681473
 31
0.0
  0
LINE
  5
106
330
1F
100
AcDbEntity
  8
0
  6
HIDDEN
 62
     7
370
     0
100
AcDbLine
 10
158.8993921076
 20
98.9177681473
 30
0.0
 11
153.8993921076
 21
98.9177681473
 31
0.0
  0
LINE
  5
107
330
1F
100
AcDbEntity
  8
0
  6
HIDDEN
 62
     7
370
     0
100
AcDbLine
 10
189.4493921076
 20
88.9177681473
 30
0.0
 11
191.4493921076
 21
88.9177681473
 31
0.0
  0
LINE
  5
108
330
1F
100
AcDbEntity
  8
0
  6
HIDDEN
 62
     7
370
     0
100
AcDbLine
 10
187.4493921076
 20
88.9177681473
 30
0.0
 11
189.4493921076
 21
88.9177681473
 31
0.0
  0
LWPOLYLINE
  5
109
330
1F
100
AcDbEntity
  8
0
  6
HIDDEN
 62
     7
370
     0
100
AcDbPolyline
 90
       33
 70
   128
 43
0.0
 10
191.4457943189
 20
93.4821579453
 10
191.4449815386
 20
93.4811392096
 10
191.4204176539
 20
93.4502574219
 10
191.3745610727
 20
93.3921077273
 10
191.3095908994
 20
93.3084831901
 10
191.2282191325
 20
93.2013436634
 10
191.1618034387
 20
93.1114963578
 10
191.0904657549
 20
93.0120076646
 10
191.0146171476
 20
92.9019333582
 10
190.9369211465
 20
92.7830830346
 10
190.8609643629
 20
92.6585236657
 10
190.7871414483
 20
92.5255176685
 10
190.7171617641
 20
92.381295953
 10
190.6559766784
 20
92.2268556352
 10
190.6096283348
 20
92.0646080518
 10
190.5832342615
 20
91.8914195272
 10
190.5826509019
 20
91.7189612174
 10
190.608910546
 20
91.5433594186
 10
190.6680452905
 20
91.3486931892
 10
190.7504782427
 20
91.1629776013
 10
190.8203511118
 20
91.0341737175
 10
190.8945925423
 20
90.9122861766
 10
190.9718792929
 20
90.7958109761
 10
191.0491462358
 20
90.6866655074
 10
191.1233115378
 20
90.5869191078
 10
191.194066759
 20
90.4952793509
 10
191.2608163641
 20
90.4113496066
 10
191.3205334503
 20
90.3379815792
 10
191.3866929512
 20
90.2583001022
 10
191.4314689967
 20
90.205203272
 10
191.4448310576
 20
90.1894759814
 10
191.4493921076
 20
90.1841194042
 10
191.4493921076
 20
90.1841194042
  0
SPLINE
  5
10A
330
1F
100
AcDbEntity
  8
0
  6
HIDDEN
 62
     7
370
     0
100
AcDbSpline
210
0.0
220
0.0
230
1.0
 70
     8
 71
     3
 72
    30
 73
    26
 74
     0
 42
0.00000001
 43
0.00000001
 40
0.0
 40
0.0
 40
0.0
 40
0.0
 40
0.0414412690291367
 40
0.0842947113695372
 40
0.1256975587269001
 40
0.1681123829571933
 40
0.2254717067013177
 40
0.284474591466959
 40
0.3430907850696388
 40
0.40321165856442
 40
0.4363179896277927
 40
0.4701017962545533
 40
0.5032870542272193
 40
0.537778298687908
 40
0.5665969891574107
 40
0.596015859365955
 40
0.6465849815535235
 40
0.6985171762080316
 40
0.7519870819336286
 40
0.8066631369680013
 40
0.8536696350293028
 40
0.9019091676884385
 40
0.9489857498294716
 40
0.9979076744658223
 40
1.0
 40
1.0
 40
1.0
 40
1.0
 10
187.4493921076163
 20
90.02695897621314
 30
0.0
 10
187.4519447727821
 20
90.03015111327161
 30
0.0
 10
187.4571370890024
 20
90.03664416423993
 30
0.0
 10
187.4980085729179
 20
90.08805236763237
 30
0.0
 10
187.5598009278716
 20
90.16681800468969
 30
0.0
 10
187.6493136345985
 20
90.28322876286829
 30
0.0
 10
187.7698157366026
 20
90.44538211372425
 30
0.0
 10
187.9167780352304
 20
90.65652327235155
 30
0.0
 10
188.0684865458437
 20
90.89999410115537
 30
0.0
 10
188.1876780919167
 20
91.13346764608873
 30
0.0
 10
188.2657950663491
 20
91.34639007288962
 30
0.0
 10
188.3082931696146
 20
91.52400824385865
 30
0.0
 10
188.324392006023
 20
91.71092589065239
 30
0.0
 10
188.3096697913604
 20
91.88895867488141
 30
0.0
 10
188.2712870318858
 20
92.05371182900952
 30
0.0
 10
188.2061421371475
 20
92.23730893452368
 30
0.0
 10
188.1041345122855
 20
92.44245318785103
 30
0.0
 10
187.9693077580318
 20
92.65950065289653
 30
0.0
 10
187.8294164380803
 20
92.85712215949717
 30
0.0
 10
187.702386440708
 20
93.02247966241914
 30
0.0
 10
187.5962522473734
 20
93.15424237716643
 30
0.0
 10
187.5155960528856
 20
93.25136676001742
 30
0.0
 10
187.4651322355753
 20
93.31105815681333
 30
0.0
 10
187.4448907884591
 20
93.33479554984648
 30
0.0
 10
187.4498023884442
 20
93.32902291956773
 30
0.0
 10
187.450003835413
 20
93.32878615784546
 30
0.0
  0
SPLINE
  5
10B
330
1F
100
AcDbEntity
  8
0
  6
HIDDEN
 62
     7
370
     0
100
AcDbSpline
210
0.0
220
0.0
230
1.0
 70
     8
 71
     3
 72
    29
 73
    25
 74
     0
 42
0.00000001
 43
0.00000001
 40
0.0
 40
0.0
 40
0.0
 40
0.0
 40
0.042478849065246
 40
0.0863703874596697
 40
0.1288144707763537
 40
0.1723062560001977
 40
0.2291267328383392
 40
0.2875856695109178
 40
0.3452554015789437
 40
0.404623729796927
 40
0.4361232463389387
 40
0.4683463133480338
 40
0.4999082316482746
 40
0.5326044226786659
 40
0.569837397222447
 40
0.6081154188238183
 40
0.6673497330728474
 40
0.7282029480557111
 40
0.7895823055770012
 40
0.8529565728006225
 40
0.8950480000302168
 40
0.9382453367910178
 40
0.9803895576288131
 40
1.0
 40
1.0
 40
1.0
 40
1.0
 10
191.4493921076163
 20
131.6514168904475
 30
0.0
 10
191.4467120014252
 20
131.6482762334232
 30
0.0
 10
191.4412626586284
 20
131.6418904727436
 30
0.0
 10
191.3982900420672
 20
131.5912046886461
 30
0.0
 10
191.3330998274606
 20
131.5131508391446
 30
0.0
 10
191.2396358509105
 20
131.3986605234963
 30
0.0
 10
191.1153261835488
 20
131.2403760313396
 30
0.0
 10
190.9657125682473
 20
131.0353469413047
 30
0.0
 10
190.8122721887113
 20
130.7970333339903
 30
0.0
 10
190.6949158404719
 20
130.5678158180665
 30
0.0
 10
190.6221666968712
 20
130.3594510814465
 30
0.0
 10
190.5857392966795
 20
130.1888622200782
 30
0.0
 10
190.5751865587025
 20
130.0106632202489
 30
0.0
 10
190.5938702164435
 20
129.8241032769196
 30
0.0
 10
190.6432570536193
 20
129.6332188223518
 30
0.0
 10
190.7315999892438
 20
129.4108952906492
 30
0.0
 10
190.8591204860365
 20
129.1724812480292
 30
0.0
 10
191.0147004203004
 20
128.9295669648363
 30
0.0
 10
191.1682595262953
 20
128.7131530142433
 30
0.0
 10
191.2887910075179
 20
128.5535120684144
 30
0.0
 10
191.3734159484756
 20
128.4446772983627
 30
0.0
 10
191.4236106841118
 20
128.3811772831846
 30
0.0
 10
191.4491649392555
 20
128.3491542280428
 30
0.0
 10
191.4466066985706
 20
128.3523602608055
 30
0.0
 10
191.4457943189232
 20
128.3533783494399
 30
0.0
  0
LWPOLYLINE
  5
10C
330
1F
100
AcDbEntity
  8
0
  6
HIDDEN
 62
     7
370
     0
100
AcDbPolyline
 90
       24
 70
   128
 43
0.0
 10
187.4500038354
 20
128.5067501368
 10
187.4606385501
 20
128.5192500195
 10
187.497383859
 20
128.562702044
 10
187.5538264861
 20
128.6302946582
 10
187.6294355865
 20
128.7226859959
 10
187.7538306232
 20
128.8804733778
 10
187.8977893797
 20
129.0758655498
 10
188.0442560163
 20
129.2984780558
 10
188.1833512396
 20
129.557623905
 10
188.2488152114
 20
129.7207554998
 10
188.296793788
 20
129.8980416284
 10
188.3182926939
 20
130.0797047805
 10
188.3096586397
 20
130.2702201847
 10
188.2712088198
 20
130.4578612193
 10
188.2082891647
 20
130.6405584976
 10
188.0836405338
 20
130.8996424814
 10
187.9406707058
 20
131.1381428662
 10
187.7936476735
 20
131.3546663516
 10
187.6557439151
 20
131.5429929663
 10
187.570007921
 20
131.6552512842
 10
187.5024184512
 20
131.7417535609
 10
187.4634119344
 20
131.7909913751
 10
187.4493921076
 20
131.8085773185
 10
187.4493921076
 20
131.8085773185
  0
LINE
  5
10D
330
1F
100
AcDbEntity
  8
0
  6
HIDDEN
 62
     7
370
     0
100
AcDbLine
 10
191.4493921076
 20
133.4177681473
 30
0.0
 11
187.4493921076
 21
133.4177681473
 31
0.0
  0
LINE
  5
10E
330
1F
100
AcDbEntity
  8
0
  6
HIDDEN
 62
     7
370
     0
100
AcDbLine
 10
186.5588867017
 20
131.8435653712
 30
0.0
 11
186.4293293097
 21
128.5461095516
 31
0.0
  0
LINE
  5
10F
330
1F
100
AcDbEntity
  8
0
  6
HIDDEN
 62
     7
370
     0
100
AcDbLine
 10
186.5588867017
 20
89.9919709235
 30
0.0
 11
186.4293293097
 21
93.2894267431
 31
0.0
  0
SPLINE
  5
110
330
1F
100
AcDbEntity
  8
0
  6
HIDDEN
 62
     7
370
     0
100
AcDbSpline
210
0.0
220
0.0
230
1.0
 70
     8
 71
     3
 72
     8
 73
     4
 74
     0
 42
0.00000001
 43
0.00000001
 40
0.0
 40
0.0
 40
0.0
 40
0.0
 40
0.0001590976916942
 40
0.0001590976916942
 40
0.0001590976916942
 40
0.0001590976916942
 10
53.83456011374553
 20
95.11627771131404
 30
0.0
 10
53.78950864427058
 20
95.08829882763811
 30
0.0
 10
53.74445260688537
 20
95.06032729791058
 30
0.0
 10
53.69939210761632
 20
95.03236295920526
 30
0.0
  0
SPLINE
  5
111
330
1F
100
AcDbEntity
  8
0
  6
HIDDEN
 62
     7
370
     0
100
AcDbSpline
210
0.0
220
0.0
230
1.0
 70
     8
 71
     3
 72
    11
 73
     7
 74
     0
 42
0.00000001
 43
0.00000001
 40
0.0
 40
0.0
 40
0.0
 40
0.0
 40
0.0008212909311266
 40
0.0008212909311266
 40
0.0008212909311266
 40
0.0016428257242681
 40
0.0016428257242681
 40
0.0016428257242681
 40
0.0016428257242681
 10
53.69939210761632
 20
95.03236295920526
 30
0.0
 10
53.50824708613378
 20
94.98907677039593
 30
0.0
 10
53.31682875045713
 20
94.94814026080259
 30
0.0
 10
53.125182675796
 20
94.90953848946074
 30
0.0
 10
52.9334795942544
 20
94.87092523566838
 30
0.0
 10
52.74153447096911
 20
94.83464502642794
 30
0.0
 10
52.54939210761633
 20
94.80067812012277
 30
0.0
  0
LINE
  5
112
330
1F
100
AcDbEntity
  8
0
  6
HIDDEN
 62
     7
370
     0
100
AcDbLine
 10
100.5393921076
 20
131.0989686984
 30
0.0
 11
100.5393921076
 21
130.7677681473
 31
0.0
  0
LINE
  5
113
330
1F
100
AcDbEntity
  8
0
  6
HIDDEN
 62
     7
370
     0
100
AcDbLine
 10
104.3593921076
 20
131.0989686984
 30
0.0
 11
104.3593921076
 21
130.7677681473
 31
0.0
  0
LINE
  5
114
330
1F
100
AcDbEntity
  8
0
  6
HIDDEN
 62
     7
370
     0
100
AcDbLine
 10
105.8413249391
 20
135.3764578097
 30
0.0
 11
105.8413249391
 21
130.7677681473
 31
0.0
  0
SPLINE
  5
115
330
1F
100
AcDbEntity
  8
0
  6
HIDDEN
 62
     7
370
     0
100
AcDbSpline
210
0.0
220
0.0
230
1.0
 70
     8
 71
     3
 72
    24
 73
    20
 74
     0
 42
0.00000001
 43
0.00000001
 40
0.0
 40
0.0
 40
0.0
 40
0.0
 40
0.2500000000000047
 40
0.2500000000000047
 40
0.3750000000000068
 40
0.3750000000000068
 40
0.437500000000008
 40
0.437500000000008
 40
0.4687500000000068
 40
0.4687500000000068
 40
0.5000000000000056
 40
0.5000000000000056
 40
0.5625000000000058
 40
0.5625000000000058
 40
0.625000000000006
 40
0.625000000000006
 40
0.7500000000000029
 40
0.7500000000000029
 40
1.0
 40
1.0
 40
1.0
 40
1.0
 10
52.61205548233971
 20
91.24321560256494
 30
0.0
 10
52.62580860100996
 20
91.31386566055522
 30
0.0
 10
52.64358116841581
 20
91.38046377332014
 30
0.0
 10
52.69583225997117
 20
91.45456179355335
 30
0.0
 10
52.71686733555273
 20
91.4758196007149
 30
0.0
 10
52.76976774318115
 20
91.48396552686114
 30
0.0
 10
52.79087341605905
 20
91.48302572346537
 30
0.0
 10
52.83692558473699
 20
91.46200973188806
 30
0.0
 10
52.85529605672038
 20
91.45110092578047
 30
0.0
 10
52.89684769178609
 20
91.4184660148331
 30
0.0
 10
52.91941436454299
 20
91.39697403446173
 30
0.0
 10
52.98219538100305
 20
91.32850809087542
 30
0.0
 10
53.01532514197093
 20
91.28243363267035
 30
0.0
 10
53.07224282845595
 20
91.19742574433565
 30
0.0
 10
53.09642885395972
 20
91.15714544315428
 30
0.0
 10
53.16163680433949
 20
91.04220921668832
 30
0.0
 10
53.19635286453074
 20
90.9716262315413
 30
0.0
 10
53.28956813486163
 20
90.76742047246267
 30
0.0
 10
53.3352406702223
 20
90.64452209013531
 30
0.0
 10
53.37354575372085
 20
90.52764881374773
 30
0.0
  0
SPLINE
  5
116
330
1F
100
AcDbEntity
  8
0
  6
HIDDEN
 62
     7
370
     0
100
AcDbSpline
210
0.0
220
0.0
230
1.0
 70
     8
 71
     3
 72
    11
 73
     7
 74
     0
 42
0.00000001
 43
0.00000001
 40
0.0000000000000004
 40
0.0000000000000004
 40
0.0000000000000004
 40
0.0000000000000004
 40
0.0005781862223847
 40
0.0005781862223847
 40
0.0005781862223847
 40
0.0011563724723663
 40
0.0011563724723663
 40
0.0011563724723663
 40
0.0011563724723663
 10
53.5493921076166
 20
123.5579104609585
 30
0.0
 10
53.38273155334128
 20
123.6224399724632
 30
0.0
 10
53.21606825643491
 20
123.6869426763974
 30
0.0
 10
53.0494016726046
 20
123.7514291249295
 30
0.0
 10
52.88273508034546
 20
123.8159155767229
 30
0.0
 10
52.71606521471936
 20
123.8803855855528
 30
0.0
 10
52.54939210761632
 20
123.9448413523897
 30
0.0
  0
SPLINE
  5
117
330
1F
100
AcDbEntity
  8
0
  6
HIDDEN
 62
     7
370
     0
100
AcDbSpline
210
0.0
220
0.0
230
1.0
 70
     8
 71
     3
 72
     8
 73
     4
 74
     0
 42
0.00000001
 43
0.00000001
 40
0.0
 40
0.0
 40
0.0
 40
0.0
 40
0.0011557494192644
 40
0.0011557494192644
 40
0.0011557494192644
 40
0.0011557494192644
 10
52.54939210761631
 20
97.89054628489491
 30
0.0
 10
52.88272591763054
 20
98.02217056116055
 30
0.0
 10
53.21605952929323
 20
98.15398747480207
 30
0.0
 10
53.54939210761631
 20
98.28599091702894
 30
0.0
  0
SPLINE
  5
118
330
1F
100
AcDbEntity
  8
0
  6
HIDDEN
 62
     7
370
     0
100
AcDbSpline
210
0.0
220
0.0
230
1.0
 70
     8
 71
     3
 72
    11
 73
     7
 74
     0
 42
0.00000001
 43
0.00000001
 40
0.0000000000000006
 40
0.0000000000000006
 40
0.0000000000000006
 40
0.0000000000000006
 40
0.0005780486062644
 40
0.0005780486062644
 40
0.0005780486062644
 40
0.0011560973513878
 40
0.0011560973513878
 40
0.0011560973513878
 40
0.0011560973513878
 10
52.54939210761631
 20
120.898582640633
 30
0.0
 10
52.71606196366152
 20
120.8362107792369
 30
0.0
 10
52.88272966774595
 20
120.7738569190543
 30
0.0
 10
53.0493959721996
 20
120.7115373589795
 30
0.0
 10
53.21606231289333
 20
120.6492177853539
 30
0.0
 10
53.38272726952195
 20
120.5869325811419
 30
0.0
 10
53.54939210761629
 20
120.5247074606774
 30
0.0
  0
SPLINE
  5
119
330
1F
100
AcDbEntity
  8
0
  6
HIDDEN
 62
     7
370
     0
100
AcDbSpline
210
0.0
220
0.0
230
1.0
 70
     8
 71
     3
 72
    11
 73
     7
 74
     0
 42
0.00000001
 43
0.00000001
 40
0.0
 40
0.0
 40
0.0
 40
0.0
 40
0.000578240158334
 40
0.000578240158334
 40
0.000578240158334
 40
0.0011564805960605
 40
0.0011564805960605
 40
0.0011564805960605
 40
0.0011564805960605
 10
53.54939210761631
 20
101.3169413625346
 30
0.0
 10
53.3827411572676
 20
101.2535159046035
 30
0.0
 10
53.21608156468502
 20
101.1901603810819
 30
0.0
 10
53.04941451225648
 20
101.126862796869
 30
0.0
 10
52.88274737569265
 20
101.0635651807028
 30
0.0
 10
52.71607276824653
 20
101.0003253859027
 30
0.0
 10
52.54939210761632
 20
100.9371253794073
 30
0.0
  0
CIRCLE
  5
11A
330
1F
100
AcDbEntity
  8
0
  6
HIDDEN
 62
     7
370
     0
100
AcDbCircle
 10
91.4493921076
 20
110.9177681473
 30
0.0
 40
5.000000000000014
  0
LINE
  5
11B
330
1F
100
AcDbEntity
  8
0
  6
HIDDEN
 62
     7
370
     0
100
AcDbLine
 10
237.2442414106
 20
130.2024024064
 30
0.0
 11
237.0872021476
 21
126.2054862615
 31
0.0
  0
LINE
  5
11C
330
1F
100
AcDbEntity
  8
0
  6
HIDDEN
 62
     7
370
     0
100
AcDbLine
 10
236.4653747716
 20
129.4824254911
 30
0.0
 11
236.3672252322
 21
126.9843529005
 31
0.0
  0
LINE
  5
11D
330
1F
100
AcDbEntity
  8
0
  6
HIDDEN
 62
     7
370
     0
100
AcDbLine
 10
244.2636589137
 20
129.9266087416
 30
0.0
 11
244.1066196506
 21
125.9296925967
 31
0.0
  0
LINE
  5
11E
330
1F
100
AcDbEntity
  8
0
  6
HIDDEN
 62
     7
370
     0
100
AcDbLine
 10
244.4493921076
 20
128.9185397059
 30
0.0
 11
244.3469239885
 21
126.3105519214
 31
0.0
  0
LINE
  5
11F
330
1F
100
AcDbEntity
  8
0
  6
HIDDEN
 62
     7
370
     0
100
AcDbLine
 10
241.9120597013
 20
128.0174602091
 30
0.0
 11
241.8727998855
 21
127.0182311729
 31
0.0
  0
LINE
  5
120
330
1F
100
AcDbEntity
  8
0
  6
HIDDEN
 62
     7
370
     0
100
AcDbLine
 10
241.951319517
 20
129.0166892453
 30
0.0
 11
241.9120597013
 21
128.0174602091
 31
0.0
  0
LINE
  5
121
330
1F
100
AcDbEntity
  8
0
  6
HIDDEN
 62
     7
370
     0
100
AcDbLine
 10
241.9120597013
 20
128.0174602091
 30
0.0
 11
244.4101322919
 21
127.9193106697
 31
0.0
  0
LINE
  5
122
330
1F
100
AcDbEntity
  8
0
  6
HIDDEN
 62
     7
370
     0
100
AcDbLine
 10
241.8727998855
 20
127.0182311729
 30
0.0
 11
244.3708724761
 21
126.9200816335
 31
0.0
  0
LINE
  5
123
330
1F
100
AcDbEntity
  8
0
  6
HIDDEN
 62
     7
370
     0
100
AcDbLine
 10
241.951319517
 20
129.0166892453
 30
0.0
 11
244.4493921076
 21
128.9185397059
 31
0.0
  0
LINE
  5
124
330
1F
100
AcDbEntity
  8
0
  6
HIDDEN
 62
     7
370
     0
100
AcDbLine
 10
244.1851392822
 20
95.9089287428
 30
0.0
 11
244.3421785452
 21
91.9120125978
 31
0.0
  0
LINE
  5
125
330
1F
100
AcDbEntity
  8
0
  6
HIDDEN
 62
     7
370
     0
100
AcDbLine
 10
237.1657217791
 20
95.6331350779
 30
0.0
 11
237.3227610421
 21
91.636218933
 31
0.0
  0
LINE
  5
126
330
1F
100
AcDbEntity
  8
0
  6
HIDDEN
 62
     7
370
     0
100
AcDbLine
 10
236.4457448638
 20
94.8542684389
 30
0.0
 11
236.5438944031
 21
92.3561958483
 31
0.0
  0
LINE
  5
127
330
1F
100
AcDbEntity
  8
0
  6
HIDDEN
 62
     7
370
     0
100
AcDbLine
 10
244.42544362
 20
95.5280694181
 30
0.0
 11
244.4493921076
 21
94.9185397059
 31
0.0
  0
LINE
  5
128
330
1F
100
AcDbEntity
  8
0
  6
HIDDEN
 62
     7
370
     0
100
AcDbLine
 10
241.9905793328
 20
93.8211611303
 30
0.0
 11
242.0298391485
 21
92.8219320941
 31
0.0
  0
LINE
  5
129
330
1F
100
AcDbEntity
  8
0
  6
HIDDEN
 62
     7
370
     0
100
AcDbLine
 10
241.951319517
 20
94.8203901666
 30
0.0
 11
241.9905793328
 21
93.8211611303
 31
0.0
  0
LINE
  5
12A
330
1F
100
AcDbEntity
  8
0
  6
HIDDEN
 62
     7
370
     0
100
AcDbLine
 10
241.9905793328
 20
93.8211611303
 30
0.0
 11
244.4886519234
 21
93.9193106697
 31
0.0
  0
LINE
  5
12B
330
1F
100
AcDbEntity
  8
0
  6
HIDDEN
 62
     7
370
     0
100
AcDbLine
 10
242.0298391485
 20
92.8219320941
 30
0.0
 11
244.5279117391
 21
92.9200816335
 31
0.0
  0
LINE
  5
12C
330
1F
100
AcDbEntity
  8
0
  6
HIDDEN
 62
     7
370
     0
100
AcDbLine
 10
241.951319517
 20
94.8203901666
 30
0.0
 11
244.4493921076
 21
94.9185397059
 31
0.0
  0
LINE
  5
12D
330
1F
100
AcDbEntity
  8
0
  6
HIDDEN
 62
     7
370
     0
100
AcDbLine
 10
187.4493921076
 20
105.4177681473
 30
0.0
 11
187.4493921076
 21
116.4177681473
 31
0.0
  0
LINE
  5
12E
330
1F
100
AcDbEntity
  8
0
  6
HIDDEN
 62
     7
370
     0
100
AcDbLine
 10
171.9493921076
 20
104.9177681473
 30
0.0
 11
171.9493921076
 21
116.9177681473
 31
0.0
  0
LINE
  5
12F
330
1F
100
AcDbEntity
  8
0
  6
HIDDEN
 62
     7
370
     0
100
AcDbLine
 10
171.4493921076
 20
105.4177681473
 30
0.0
 11
171.4493921076
 21
116.4177681473
 31
0.0
  0
LINE
  5
130
330
1F
100
AcDbEntity
  8
0
  6
HIDDEN
 62
     7
370
     0
100
AcDbLine
 10
191.4493921076
 20
108.7463861633
 30
0.0
 11
189.4493921076
 21
108.7463861633
 31
0.0
  0
LINE
  5
131
330
1F
100
AcDbEntity
  8
0
  6
HIDDEN
 62
     7
370
     0
100
AcDbLine
 10
191.4493921076
 20
105.4177681473
 30
0.0
 11
191.4493921076
 21
108.7463861633
 31
0.0
  0
LINE
  5
132
330
1F
100
AcDbEntity
  8
0
  6
HIDDEN
 62
     7
370
     0
100
AcDbLine
 10
189.4493921076
 20
110.1143168673
 30
0.0
 11
191.4493921076
 21
110.1143168673
 31
0.0
  0
LINE
  5
133
330
1F
100
AcDbEntity
  8
0
  6
HIDDEN
 62
     7
370
     0
100
AcDbLine
 10
191.4493921076
 20
113.0891501314
 30
0.0
 11
189.4493921076
 21
113.0891501314
 31
0.0
  0
LINE
  5
134
330
1F
100
AcDbEntity
  8
0
  6
HIDDEN
 62
     7
370
     0
100
AcDbLine
 10
191.4493921076
 20
111.7212194274
 30
0.0
 11
191.4493921076
 21
116.4177681473
 31
0.0
  0
LINE
  5
135
330
1F
100
AcDbEntity
  8
0
  6
HIDDEN
 62
     7
370
     0
100
AcDbLine
 10
189.4493921076
 20
111.7212194274
 30
0.0
 11
191.4493921076
 21
111.7212194274
 31
0.0
  0
LINE
  5
136
330
1F
100
AcDbEntity
  8
0
  6
HIDDEN
 62
     7
370
     0
100
AcDbLine
 10
189.4493921076
 20
108.7463861633
 30
0.0
 11
189.4493921076
 21
111.7212194274
 31
0.0
  0
LINE
  5
137
330
1F
100
AcDbEntity
  8
0
  6
HIDDEN
 62
     7
370
     0
100
AcDbLine
 10
189.4493921076
 20
112.0693644581
 30
0.0
 11
189.4493921076
 21
111.7212194274
 31
0.0
  0
LINE
  5
138
330
1F
100
AcDbEntity
  8
0
  6
HIDDEN
 62
     7
370
     0
100
AcDbLine
 10
189.4493921076
 20
109.094531194
 30
0.0
 11
191.4493921076
 21
109.094531194
 31
0.0
  0
LINE
  5
139
330
1F
100
AcDbEntity
  8
0
  6
HIDDEN
 62
     7
370
     0
100
AcDbLine
 10
191.4493921076
 20
109.094531194
 30
0.0
 11
191.4493921076
 21
108.7463861633
 31
0.0
  0
LINE
  5
13A
330
1F
100
AcDbEntity
  8
0
  6
HIDDEN
 62
     7
370
     0
100
AcDbLine
 10
191.4493921076
 20
112.0693644581
 30
0.0
 11
189.4493921076
 21
112.0693644581
 31
0.0
  0
LINE
  5
13B
330
1F
100
AcDbEntity
  8
0
  6
HIDDEN
 62
     7
370
     0
100
AcDbLine
 10
178.4493921075
 20
110.470007719
 30
0.0
 11
178.4493921075
 21
112.0693644581
 31
0.0
  0
LINE
  5
13C
330
1F
100
AcDbEntity
  8
0
  6
HIDDEN
 62
     7
370
     0
100
AcDbLine
 10
184.4493921076
 20
112.0693644581
 30
0.0
 11
184.4493921076
 21
110.470007719
 31
0.0
  0
LINE
  5
13D
330
1F
100
AcDbEntity
  8
0
  6
HIDDEN
 62
     7
370
     0
100
AcDbLine
 10
178.4493921075
 20
109.094531194
 30
0.0
 11
178.4493921075
 21
110.470007719
 31
0.0
  0
LINE
  5
13E
330
1F
100
AcDbEntity
  8
0
  6
HIDDEN
 62
     7
370
     0
100
AcDbLine
 10
178.4493921075
 20
110.470007719
 30
0.0
 11
171.4493921076
 21
110.470007719
 31
0.0
  0
LINE
  5
13F
330
1F
100
AcDbEntity
  8
0
  6
HIDDEN
 62
     7
370
     0
100
AcDbLine
 10
184.4493921076
 20
110.470007719
 30
0.0
 11
184.4493921076
 21
109.094531194
 31
0.0
  0
LINE
  5
140
330
1F
100
AcDbEntity
  8
0
  6
HIDDEN
 62
     7
370
     0
100
AcDbLine
 10
184.4493921076
 20
110.470007719
 30
0.0
 11
189.4493921076
 21
110.470007719
 31
0.0
  0
LINE
  5
141
330
1F
100
AcDbEntity
  8
0
  6
HIDDEN
 62
     7
370
     0
100
AcDbLine
 10
178.4493921075
 20
112.0693644581
 30
0.0
 11
178.4493921075
 21
113.6687211973
 31
0.0
  0
LINE
  5
142
330
1F
100
AcDbEntity
  8
0
  6
HIDDEN
 62
     7
370
     0
100
AcDbLine
 10
184.4493921076
 20
113.6687211973
 30
0.0
 11
184.4493921076
 21
112.0693644581
 31
0.0
  0
LINE
  5
143
330
1F
100
AcDbEntity
  8
0
  6
HIDDEN
 62
     7
370
     0
100
AcDbLine
 10
184.4493921076
 20
109.094531194
 30
0.0
 11
184.4493921076
 21
107.7190546691
 31
0.0
  0
LINE
  5
144
330
1F
100
AcDbEntity
  8
0
  6
HIDDEN
 62
     7
370
     0
100
AcDbLine
 10
178.4493921075
 20
107.7190546691
 30
0.0
 11
178.4493921075
 21
109.094531194
 31
0.0
  0
LINE
  5
145
330
1F
100
AcDbEntity
  8
0
  6
HIDDEN
 62
     7
370
     0
100
AcDbLine
 10
178.4493921075
 20
113.6687211973
 30
0.0
 11
178.4493921075
 21
113.8926014114
 31
0.0
  0
LINE
  5
146
330
1F
100
AcDbEntity
  8
0
  6
HIDDEN
 62
     7
370
     0
100
AcDbLine
 10
178.4493921075
 20
113.6687211973
 30
0.0
 11
171.4493921075
 21
113.6687211973
 31
0.0
  0
LINE
  5
147
330
1F
100
AcDbEntity
  8
0
  6
HIDDEN
 62
     7
370
     0
100
AcDbLine
 10
184.4493921076
 20
113.8926014114
 30
0.0
 11
184.4493921076
 21
113.6687211973
 31
0.0
  0
LINE
  5
148
330
1F
100
AcDbEntity
  8
0
  6
HIDDEN
 62
     7
370
     0
100
AcDbLine
 10
184.4493921076
 20
113.6687211973
 30
0.0
 11
191.4493921076
 21
113.6687211973
 31
0.0
  0
LINE
  5
149
330
1F
100
AcDbEntity
  8
0
  6
HIDDEN
 62
     7
370
     0
100
AcDbLine
 10
178.4493921075
 20
108.1668150974
 30
0.0
 11
171.4493921075
 21
108.1668150974
 31
0.0
  0
LINE
  5
14A
330
1F
100
AcDbEntity
  8
0
  6
HIDDEN
 62
     7
370
     0
100
AcDbLine
 10
178.4493921075
 20
107.7190546691
 30
0.0
 11
171.4493921075
 21
107.7190546691
 31
0.0
  0
LINE
  5
14B
330
1F
100
AcDbEntity
  8
0
  6
HIDDEN
 62
     7
370
     0
100
AcDbLine
 10
184.4493921076
 20
108.1668150974
 30
0.0
 11
191.4493921076
 21
108.1668150974
 31
0.0
  0
LINE
  5
14C
330
1F
100
AcDbEntity
  8
0
  6
HIDDEN
 62
     7
370
     0
100
AcDbLine
 10
184.4493921076
 20
107.7190546691
 30
0.0
 11
191.4493921076
 21
107.7190546691
 31
0.0
  0
LINE
  5
14D
330
1F
100
AcDbEntity
  8
0
  6
HIDDEN
 62
     7
370
     0
100
AcDbLine
 10
178.4493921075
 20
113.8926014114
 30
0.0
 11
178.4493921075
 21
114.1164816256
 31
0.0
  0
LINE
  5
14E
330
1F
100
AcDbEntity
  8
0
  6
HIDDEN
 62
     7
370
     0
100
AcDbLine
 10
184.4493921076
 20
114.1164816256
 30
0.0
 11
184.4493921076
 21
113.8926014114
 31
0.0
  0
LINE
  5
14F
330
1F
100
AcDbEntity
  8
0
  6
HIDDEN
 62
     7
370
     0
100
AcDbLine
 10
189.4493921076
 20
112.7410051006
 30
0.0
 11
191.4493921076
 21
112.7410051006
 31
0.0
  0
LINE
  5
150
330
1F
100
AcDbEntity
  8
0
  6
HIDDEN
 62
     7
370
     0
100
AcDbLine
 10
189.4493921076
 20
112.0693644581
 30
0.0
 11
189.4493921076
 21
112.7410051006
 31
0.0
  0
LINE
  5
151
330
1F
100
AcDbEntity
  8
0
  6
HIDDEN
 62
     7
370
     0
100
AcDbLine
 10
184.4493921076
 20
111.3655285757
 30
0.0
 11
189.4493921076
 21
111.3655285757
 31
0.0
  0
LINE
  5
152
330
1F
100
AcDbEntity
  8
0
  6
HIDDEN
 62
     7
370
     0
100
AcDbLine
 10
184.4493921076
 20
114.1164816256
 30
0.0
 11
191.4493921076
 21
114.1164816256
 31
0.0
  0
LINE
  5
153
330
1F
100
AcDbEntity
  8
0
  6
HIDDEN
 62
     7
370
     0
100
AcDbLine
 10
178.4493921075
 20
111.3655285757
 30
0.0
 11
171.4493921075
 21
111.3655285757
 31
0.0
  0
LINE
  5
154
330
1F
100
AcDbEntity
  8
0
  6
HIDDEN
 62
     7
370
     0
100
AcDbLine
 10
178.4493921075
 20
114.1164816256
 30
0.0
 11
171.4493921075
 21
114.1164816256
 31
0.0
  0
LINE
  5
155
330
1F
100
AcDbEntity
  8
0
  6
HIDDEN
 62
     7
370
     0
100
AcDbLine
 10
191.4493921076
 20
109.7661718366
 30
0.0
 11
189.4493921076
 21
109.7661718366
 31
0.0
  0
LINE
  5
156
330
1F
100
AcDbEntity
  8
0
  6
HIDDEN
 62
     7
370
     0
100
AcDbLine
 10
191.4493921076
 20
109.7661718366
 30
0.0
 11
191.4493921076
 21
109.094531194
 31
0.0
  0
LINE
  5
157
330
1F
100
AcDbEntity
  8
0
  6
HIDDEN
 62
     7
370
     0
100
AcDbLine
 10
189.4493921076
 20
113.0891501314
 30
0.0
 11
189.4493921076
 21
112.7410051006
 31
0.0
  0
LINE
  5
158
330
1F
100
AcDbEntity
  8
0
  6
HIDDEN
 62
     7
370
     0
100
AcDbLine
 10
191.4493921076
 20
110.1143168673
 30
0.0
 11
191.4493921076
 21
109.7661718366
 31
0.0
  0
LINE
  5
159
330
1F
100
AcDbEntity
  8
0
  6
HIDDEN
 62
     7
370
     0
100
AcDbLine
 10
88.4493921076
 20
125.2184332514
 30
0.0
 11
88.4493921076
 21
123.3117087902
 31
0.0
  0
LINE
  5
15A
330
1F
100
AcDbEntity
  8
0
  6
HIDDEN
 62
     7
370
     0
100
AcDbLine
 10
96.4493921076
 20
123.3117087902
 30
0.0
 11
96.4493921076
 21
125.2177126075
 31
0.0
  0
LINE
  5
15B
330
1F
100
AcDbEntity
  8
0
  6
HIDDEN
 62
     7
370
     0
100
AcDbLine
 10
84.4493921076
 20
85.5938370014
 30
0.0
 11
84.5435528831
 21
86.2638257326
 31
0.0
  0
LINE
  5
15C
330
1F
100
AcDbEntity
  8
0
  6
HIDDEN
 62
     7
370
     0
100
AcDbLine
 10
84.5435528831
 20
135.5717105621
 30
0.0
 11
84.4493921076
 21
136.2416992933
 31
0.0
  0
ARC
  5
15D
330
1F
100
AcDbEntity
  8
0
  6
HIDDEN
 62
     7
370
     0
100
AcDbCircle
 10
83.9493853549
 20
86.347330533
 30
0.0
 40
0.60000675266771
100
AcDbArc
 50
352.0
 51
0.0
  0
ARC
  5
15E
330
1F
100
AcDbEntity
  8
0
  6
HIDDEN
 62
     7
370
     0
100
AcDbCircle
 10
83.9493853549
 20
86.347330533
 30
0.0
 40
0.6000067526677164
100
AcDbArc
 50
0.0
 51
33.5571153394
  0
ARC
  5
15F
330
1F
100
AcDbEntity
  8
0
  6
HIDDEN
 62
     7
370
     0
100
AcDbCircle
 10
83.9493853549
 20
135.4882057617
 30
0.0
 40
0.6000067526677042
100
AcDbArc
 50
348.75
 51
8.0
  0
LWPOLYLINE
  5
160
330
1F
100
AcDbEntity
  8
0
  6
HIDDEN
 62
     7
370
     0
100
AcDbPolyline
 90
        3
 70
   128
 43
0.0
 10
84.5378631461
 20
135.3711502511
 10
84.5037193131
 20
135.2585931182
 10
84.4493921076
 20
135.1565412467
  0
LINE
  5
161
330
1F
100
AcDbEntity
  8
0
  6
HIDDEN
 62
     7
370
     0
100
AcDbLine
 10
84.5493921076
 20
86.347330533
 30
0.0
 11
84.5493921076
 21
135.4882057617
 31
0.0
  0
ARC
  5
162
330
1F
100
AcDbEntity
  8
0
  6
HIDDEN
 62
     7
370
     0
100
AcDbCircle
 10
67.5318276729
 20
91.5177681473
 30
0.0
 40
0.6000000000000085
100
AcDbArc
 50
210.0
 51
270.0
  0
ARC
  5
163
330
1F
100
AcDbEntity
  8
0
  6
HIDDEN
 62
     7
370
     0
100
AcDbCircle
 10
67.5318276729
 20
130.3177681473
 30
0.0
 40
0.599999999999989
100
AcDbArc
 50
90.0
 51
150.0
  0
ARC
  5
164
330
1F
100
AcDbEntity
  8
0
  6
HIDDEN
 62
     7
370
     0
100
AcDbCircle
 10
78.2043941092
 20
98.9177681473
 30
0.0
 40
8.000000000000007
100
AcDbArc
 50
277.0401410089
 51
321.3178125465
  0
ARC
  5
165
330
1F
100
AcDbEntity
  8
0
  6
HIDDEN
 62
     7
370
     0
100
AcDbCircle
 10
78.2043941092
 20
122.9177681473
 30
0.0
 40
8.000000000000004
100
AcDbArc
 50
38.6821874535
 51
82.8557128836
  0
LINE
  5
166
330
1F
100
AcDbEntity
  8
0
  6
HIDDEN
 62
     7
370
     0
100
AcDbLine
 10
67.5318276729
 20
90.9177681473
 30
0.0
 11
71.7093642493
 21
90.9177681473
 31
0.0
  0
LINE
  5
167
330
1F
100
AcDbEntity
  8
0
  6
HIDDEN
 62
     7
370
     0
100
AcDbLine
 10
71.7093642493
 20
130.9177681473
 30
0.0
 11
67.5318276729
 21
130.9177681473
 31
0.0
  0
LINE
  5
168
330
1F
100
AcDbEntity
  8
0
  6
HIDDEN
 62
     7
370
     0
100
AcDbLine
 10
67.0122124306
 20
130.6177681473
 30
0.0
 11
65.4533667038
 21
127.9177681473
 31
0.0
  0
LINE
  5
169
330
1F
100
AcDbEntity
  8
0
  6
HIDDEN
 62
     7
370
     0
100
AcDbLine
 10
65.4533667038
 20
93.9177681473
 30
0.0
 11
67.0122124306
 21
91.2177681473
 31
0.0
  0
LINE
  5
16A
330
1F
100
AcDbEntity
  8
0
  6
HIDDEN
 62
     7
370
     0
100
AcDbLine
 10
88.4493921076
 20
138.1974343853
 30
0.0
 11
88.4493921076
 21
134.863370562
 31
0.0
  0
LINE
  5
16B
330
1F
100
AcDbEntity
  8
0
  6
HIDDEN
 62
     7
370
     0
100
AcDbLine
 10
96.4493921076
 20
134.863370562
 30
0.0
 11
96.4493921076
 21
138.1921020066
 31
0.0
  0
ARC
  5
16C
330
1F
100
AcDbEntity
  8
0
  6
HIDDEN
 62
     7
370
     0
100
AcDbCircle
 10
92.8993921076
 20
95.1927681473
 30
0.0
 40
1.500000000000001
100
AcDbArc
 50
238.2116693829
 51
0.0
  0
ARC
  5
16D
330
1F
100
AcDbEntity
  8
0
  6
HIDDEN
 62
     7
370
     0
100
AcDbCircle
 10
92.8993921076
 20
126.6427681473
 30
0.0
 40
1.500000000000001
100
AcDbArc
 50
0.0
 51
121.7883306171
  0
LINE
  5
16E
330
1F
100
AcDbEntity
  8
0
  6
HIDDEN
 62
     7
370
     0
100
AcDbLine
 10
62.6493921076
 20
93.9177681473
 30
0.0
 11
65.4533667038
 21
93.9177681473
 31
0.0
  0
LINE
  5
16F
330
1F
100
AcDbEntity
  8
0
  6
HIDDEN
 62
     7
370
     0
100
AcDbLine
 10
65.4533667038
 20
127.9177681473
 30
0.0
 11
58.6493921076
 21
127.9177681473
 31
0.0
  0
LINE
  5
170
330
1F
100
AcDbEntity
  8
0
  6
HIDDEN
 62
     7
370
     0
100
AcDbLine
 10
84.4493921076
 20
93.9177681473
 30
0.0
 11
92.1092180762
 21
93.9177681473
 31
0.0
  0
LINE
  5
171
330
1F
100
AcDbEntity
  8
0
  6
HIDDEN
 62
     7
370
     0
100
AcDbLine
 10
92.1092180762
 20
127.9177681473
 30
0.0
 11
84.4493921076
 21
127.9177681473
 31
0.0
  0
ARC
  5
172
330
1F
100
AcDbEntity
  8
0
  6
HIDDEN
 62
     7
370
     0
100
AcDbCircle
 10
243.9493921076
 20
97.3810738993
 30
0.0
 40
0.5000000000000056
100
AcDbArc
 50
0.0
 51
80.0
  0
ARC
  5
173
330
1F
100
AcDbEntity
  8
0
  6
HIDDEN
 62
     7
370
     0
100
AcDbCircle
 10
243.9493921076
 20
124.4544623954
 30
0.0
 40
0.5
100
AcDbArc
 50
280.0
 51
360.0
  0
LINE
  5
174
330
1F
100
AcDbEntity
  8
0
  6
HIDDEN
 62
     7
370
     0
100
AcDbLine
 10
244.0362161964
 20
123.9620585189
 30
0.0
 11
240.9493921076
 21
123.4177681473
 31
0.0
  0
LINE
  5
175
330
1F
100
AcDbEntity
  8
0
  6
HIDDEN
 62
     7
370
     0
100
AcDbLine
 10
240.9493921076
 20
98.4177681473
 30
0.0
 11
244.0362161964
 21
97.8734777758
 31
0.0
  0
LINE
  5
176
330
1F
100
AcDbEntity
  8
0
  6
HIDDEN
 62
     7
370
     0
100
AcDbLine
 10
191.4493921076
 20
98.1177681473
 30
0.0
 11
196.5546180895
 21
98.1177681473
 31
0.0
  0
LINE
  5
177
330
1F
100
AcDbEntity
  8
0
  6
HIDDEN
 62
     7
370
     0
100
AcDbLine
 10
187.3493921076
 20
98.1177681473
 30
0.0
 11
187.454020225
 21
98.1177681473
 31
0.0
  0
LINE
  5
178
330
1F
100
AcDbEntity
  8
0
  6
HIDDEN
 62
     7
370
     0
100
AcDbLine
 10
187.4500110417
 20
123.7177681473
 30
0.0
 11
187.3493921076
 21
123.7177681473
 31
0.0
  0
LINE
  5
179
330
1F
100
AcDbEntity
  8
0
  6
HIDDEN
 62
     7
370
     0
100
AcDbLine
 10
196.5546180895
 20
123.7177681473
 30
0.0
 11
191.4458682564
 21
123.7177681473
 31
0.0
  0
ARC
  5
17A
330
1F
100
AcDbEntity
  8
0
  6
HIDDEN
 62
     7
370
     0
100
AcDbCircle
 10
187.3493921076
 20
98.5177681473
 30
0.0
 40
0.4000000000000057
100
AcDbArc
 50
180.0
 51
270.0
  0
ARC
  5
17B
330
1F
100
AcDbEntity
  8
0
  6
HIDDEN
 62
     7
370
     0
100
AcDbCircle
 10
187.3493921076
 20
123.3177681473
 30
0.0
 40
0.4000000000000057
100
AcDbArc
 50
90.0
 51
180.0
  0
ARC
  5
17C
330
1F
100
AcDbEntity
  8
0
  6
HIDDEN
 62
     7
370
     0
100
AcDbCircle
 10
196.5546180895
 20
98.5177681473
 30
0.0
 40
0.4000000000000074
100
AcDbArc
 50
270.0
 51
290.0
  0
ARC
  5
17D
330
1F
100
AcDbEntity
  8
0
  6
HIDDEN
 62
     7
370
     0
100
AcDbCircle
 10
196.5546180895
 20
123.3177681473
 30
0.0
 40
0.4000000000000208
100
AcDbArc
 50
70.0
 51
90.0
  0
LINE
  5
17E
330
1F
100
AcDbEntity
  8
0
  6
HIDDEN
 62
     7
370
     0
100
AcDbLine
 10
196.6914261468
 20
98.141891099
 30
0.0
 11
197.4493921076
 21
98.4177681473
 31
0.0
  0
LINE
  5
17F
330
1F
100
AcDbEntity
  8
0
  6
HIDDEN
 62
     7
370
     0
100
AcDbLine
 10
197.4493921076
 20
123.4177681473
 30
0.0
 11
196.6914261468
 21
123.6936451957
 31
0.0
  0
LINE
  5
180
330
1F
100
AcDbEntity
  8
0
  6
HIDDEN
 62
     7
370
     0
100
AcDbLine
 10
197.4493921076
 20
98.4177681473
 30
0.0
 11
240.9493921076
 21
98.4177681473
 31
0.0
  0
LINE
  5
181
330
1F
100
AcDbEntity
  8
0
  6
HIDDEN
 62
     7
370
     0
100
AcDbLine
 10
240.9493921076
 20
123.4177681473
 30
0.0
 11
197.4493921076
 21
123.4177681473
 31
0.0
  0
LINE
  5
182
330
1F
100
AcDbEntity
  8
0
  6
HIDDEN
 62
     7
370
     0
100
AcDbLine
 10
103.2493921076
 20
101.4177681473
 30
0.0
 11
106.2493921076
 21
101.4177681473
 31
0.0
  0
LINE
  5
183
330
1F
100
AcDbEntity
  8
0
  6
HIDDEN
 62
     7
370
     0
100
AcDbLine
 10
106.2493921076
 20
120.4177681473
 30
0.0
 11
103.2493921076
 21
120.4177681473
 31
0.0
  0
LINE
  5
184
330
1F
100
AcDbEntity
  8
0
  6
HIDDEN
 62
     7
370
     0
100
AcDbLine
 10
94.3993921076
 20
101.9177681473
 30
0.0
 11
94.8993921076
 21
102.4177681473
 31
0.0
  0
LINE
  5
185
330
1F
100
AcDbEntity
  8
0
  6
HIDDEN
 62
     7
370
     0
100
AcDbLine
 10
94.8993921076
 20
119.4177681473
 30
0.0
 11
94.3993921076
 21
119.9177681473
 31
0.0
  0
LINE
  5
186
330
1F
100
AcDbEntity
  8
0
  6
HIDDEN
 62
     7
370
     0
100
AcDbLine
 10
94.8993921076
 20
102.4177681473
 30
0.0
 11
103.2493921076
 21
102.4177681473
 31
0.0
  0
LINE
  5
187
330
1F
100
AcDbEntity
  8
0
  6
HIDDEN
 62
     7
370
     0
100
AcDbLine
 10
103.2493921076
 20
119.4177681473
 30
0.0
 11
94.8993921076
 21
119.4177681473
 31
0.0
  0
LINE
  5
188
330
1F
100
AcDbEntity
  8
0
  6
HIDDEN
 62
     7
370
     0
100
AcDbLine
 10
89.3993921076
 20
142.4177681473
 30
0.0
 11
89.3993921076
 21
137.3177681473
 31
0.0
  0
LINE
  5
189
330
1F
100
AcDbEntity
  8
0
  6
HIDDEN
 62
     7
370
     0
100
AcDbLine
 10
186.9493921076
 20
116.9177681473
 30
0.0
 11
186.4493921076
 21
116.4177681473
 31
0.0
  0
LINE
  5
18A
330
1F
100
AcDbEntity
  8
0
  6
HIDDEN
 62
     7
370
     0
100
AcDbLine
 10
186.4493921076
 20
105.4177681473
 30
0.0
 11
186.9493921076
 21
104.9177681473
 31
0.0
  0
LINE
  5
18B
330
1F
100
AcDbEntity
  8
0
  6
HIDDEN
 62
     7
370
     0
100
AcDbLine
 10
156.4493921076
 20
105.4177681473
 30
0.0
 11
186.4493921076
 21
105.4177681473
 31
0.0
  0
LINE
  5
18C
330
1F
100
AcDbEntity
  8
0
  6
HIDDEN
 62
     7
370
     0
100
AcDbLine
 10
186.4493921076
 20
116.4177681473
 30
0.0
 11
156.4493921076
 21
116.4177681473
 31
0.0
  0
LINE
  5
18D
330
1F
100
AcDbEntity
  8
0
  6
HIDDEN
 62
     7
370
     0
100
AcDbLine
 10
156.4493921076
 20
116.4177681473
 30
0.0
 11
155.6682733029
 21
115.1177681473
 31
0.0
  0
LINE
  5
18E
330
1F
100
AcDbEntity
  8
0
  6
HIDDEN
 62
     7
370
     0
100
AcDbLine
 10
155.6682733029
 20
106.7177681473
 30
0.0
 11
156.4493921076
 21
105.4177681473
 31
0.0
  0
LINE
  5
18F
330
1F
100
AcDbEntity
  8
0
  6
HIDDEN
 62
     7
370
     0
100
AcDbLine
 10
79.6338299381
 20
86.8383968138
 30
0.0
 11
79.1993977886
 21
87.3174628329
 31
0.0
  0
LINE
  5
190
330
1F
100
AcDbEntity
  8
0
  6
HIDDEN
 62
     7
370
     0
100
AcDbLine
 10
71.6993944635
 20
87.739150792
 30
0.0
 11
71.2169607202
 21
87.2600848166
 31
0.0
  0
LINE
  5
191
330
1F
100
AcDbEntity
  8
0
  6
HIDDEN
 62
     7
370
     0
100
AcDbLine
 10
71.2168387919
 20
134.5754461877
 30
0.0
 11
71.6993895429
 21
134.0963259298
 31
0.0
  0
LINE
  5
192
330
1F
100
AcDbEntity
  8
0
  6
HIDDEN
 62
     7
370
     0
100
AcDbLine
 10
79.1993919896
 20
134.5180237074
 30
0.0
 11
79.63393438
 21
134.997143958
 31
0.0
  0
LINE
  5
193
330
1F
100
AcDbEntity
  8
0
  6
HIDDEN
 62
     7
370
     0
100
AcDbLine
 10
106.2493921076
 20
106.7177681473
 30
0.0
 11
155.6682733029
 21
106.7177681473
 31
0.0
  0
LINE
  5
194
330
1F
100
AcDbEntity
  8
0
  6
HIDDEN
 62
     7
370
     0
100
AcDbLine
 10
155.6682733029
 20
115.1177681473
 30
0.0
 11
106.2493921076
 21
115.1177681473
 31
0.0
  0
LINE
  5
195
330
1F
100
AcDbEntity
  8
0
  6
HIDDEN
 62
     7
370
     0
100
AcDbLine
 10
79.1993921076
 20
130.855604338
 30
0.0
 11
79.1993921076
 21
134.6180542081
 31
0.0
  0
LINE
  5
196
330
1F
100
AcDbEntity
  8
0
  6
HIDDEN
 62
     7
370
     0
100
AcDbLine
 10
71.6993921076
 20
134.0960707385
 30
0.0
 11
71.6993921076
 21
130.9159059018
 31
0.0
  0
LINE
  5
197
330
1F
100
AcDbEntity
  8
0
  6
HIDDEN
 62
     7
370
     0
100
AcDbLine
 10
79.1993921076
 20
87.2174032875
 30
0.0
 11
79.1993921076
 21
90.9806953213
 31
0.0
  0
LINE
  5
198
330
1F
100
AcDbEntity
  8
0
  6
HIDDEN
 62
     7
370
     0
100
AcDbLine
 10
71.6993921076
 20
90.9196303929
 30
0.0
 11
71.6993921076
 21
87.7394740298
 31
0.0
  0
LINE
  5
199
330
1F
100
AcDbEntity
  8
0
  6
HIDDEN
 62
     7
370
     0
100
AcDbLine
 10
159.8993921076
 20
84.9177681473
 30
0.0
 11
158.8993921076
 21
85.4951184165
 31
0.0
  0
LINE
  5
19A
330
1F
100
AcDbEntity
  8
0
  6
HIDDEN
 62
     7
370
     0
100
AcDbLine
 10
153.8993921076
 20
85.4951184165
 30
0.0
 11
152.8993921076
 21
84.9177681473
 31
0.0
  0
LINE
  5
19B
330
1F
100
AcDbEntity
  8
0
  6
HIDDEN
 62
     7
370
     0
100
AcDbLine
 10
152.8993921076
 20
136.9177681473
 30
0.0
 11
153.8993921076
 21
136.3404178782
 31
0.0
  0
LINE
  5
19C
330
1F
100
AcDbEntity
  8
0
  6
HIDDEN
 62
     7
370
     0
100
AcDbLine
 10
158.8993921076
 20
136.3404178782
 30
0.0
 11
159.8993921076
 21
136.9177681473
 31
0.0
  0
LINE
  5
19D
330
1F
100
AcDbEntity
  8
0
  6
HIDDEN
 62
     7
370
     0
100
AcDbLine
 10
153.8993921076
 20
136.3404178782
 30
0.0
 11
153.8993921076
 21
122.9177681473
 31
0.0
  0
LINE
  5
19E
330
1F
100
AcDbEntity
  8
0
  6
HIDDEN
 62
     7
370
     0
100
AcDbLine
 10
158.8993921076
 20
122.9177681473
 30
0.0
 11
158.8993921076
 21
136.3404178782
 31
0.0
  0
LINE
  5
19F
330
1F
100
AcDbEntity
  8
0
  6
HIDDEN
 62
     7
370
     0
100
AcDbLine
 10
153.8993921076
 20
122.9177681473
 30
0.0
 11
156.3993921076
 21
121.4156165998
 31
0.0
  0
LINE
  5
1A0
330
1F
100
AcDbEntity
  8
0
  6
HIDDEN
 62
     7
370
     0
100
AcDbLine
 10
156.3993921076
 20
121.4156165998
 30
0.0
 11
158.8993921076
 21
122.9177681473
 31
0.0
  0
LINE
  5
1A1
330
1F
100
AcDbEntity
  8
0
  6
HIDDEN
 62
     7
370
     0
100
AcDbLine
 10
158.8993921076
 20
85.4951184165
 30
0.0
 11
158.8993921076
 21
98.9177681473
 31
0.0
  0
LINE
  5
1A2
330
1F
100
AcDbEntity
  8
0
  6
HIDDEN
 62
     7
370
     0
100
AcDbLine
 10
153.8993921076
 20
98.9177681473
 30
0.0
 11
153.8993921076
 21
85.4951184165
 31
0.0
  0
LINE
  5
1A3
330
1F
100
AcDbEntity
  8
0
  6
HIDDEN
 62
     7
370
     0
100
AcDbLine
 10
158.8993921076
 20
98.9177681473
 30
0.0
 11
156.3993921076
 21
100.4199196949
 31
0.0
  0
LINE
  5
1A4
330
1F
100
AcDbEntity
  8
0
  6
HIDDEN
 62
     7
370
     0
100
AcDbLine
 10
156.3993921076
 20
100.4199196949
 30
0.0
 11
153.8993921076
 21
98.9177681473
 31
0.0
  0
LINE
  5
1A5
330
1F
100
AcDbEntity
  8
0
  6
HIDDEN
 62
     7
370
     0
100
AcDbLine
 10
187.4493921076
 20
90.0269589762
 30
0.0
 11
187.4493921076
 21
88.9177681473
 31
0.0
  0
LINE
  5
1A6
330
1F
100
AcDbEntity
  8
0
  6
HIDDEN
 62
     7
370
     0
100
AcDbLine
 10
187.4493921076
 20
98.1184871046
 30
0.0
 11
187.4493921076
 21
93.3287861578
 31
0.0
  0
LINE
  5
1A7
330
1F
100
AcDbEntity
  8
0
  6
HIDDEN
 62
     7
370
     0
100
AcDbLine
 10
191.4493921076
 20
93.4821579453
 30
0.0
 11
191.4493921076
 21
98.1177681473
 31
0.0
  0
LINE
  5
1A8
330
1F
100
AcDbEntity
  8
0
  6
HIDDEN
 62
     7
370
     0
100
AcDbLine
 10
191.4493921076
 20
88.9177681473
 30
0.0
 11
191.4493921076
 21
90.1841194042
 31
0.0
  0
LINE
  5
1A9
330
1F
100
AcDbEntity
  8
0
  6
HIDDEN
 62
     7
370
     0
100
AcDbLine
 10
187.4493921076
 20
88.9177681473
 30
0.0
 11
189.4493921076
 21
87.7160469093
 31
0.0
  0
LINE
  5
1AA
330
1F
100
AcDbEntity
  8
0
  6
HIDDEN
 62
     7
370
     0
100
AcDbLine
 10
189.4493921076
 20
87.7160469093
 30
0.0
 11
191.4493921076
 21
88.9177681473
 31
0.0
  0
LINE
  5
1AB
330
1F
100
AcDbEntity
  8
0
  6
HIDDEN
 62
     7
370
     0
100
AcDbLine
 10
187.4493921076
 20
128.5067501368
 30
0.0
 11
187.4493921076
 21
123.7176716543
 31
0.0
  0
LINE
  5
1AC
330
1F
100
AcDbEntity
  8
0
  6
HIDDEN
 62
     7
370
     0
100
AcDbLine
 10
187.4493921076
 20
133.4177681473
 30
0.0
 11
187.4493921076
 21
131.8085773185
 31
0.0
  0
LINE
  5
1AD
330
1F
100
AcDbEntity
  8
0
  6
HIDDEN
 62
     7
370
     0
100
AcDbLine
 10
191.4493921076
 20
131.6514168904
 30
0.0
 11
191.4493921076
 21
133.4177681473
 31
0.0
  0
LINE
  5
1AE
330
1F
100
AcDbEntity
  8
0
  6
HIDDEN
 62
     7
370
     0
100
AcDbLine
 10
191.4493921076
 20
123.7172218218
 30
0.0
 11
191.4493921076
 21
128.3533783494
 31
0.0
  0
LINE
  5
1AF
330
1F
100
AcDbEntity
  8
0
  6
HIDDEN
 62
     7
370
     0
100
AcDbLine
 10
244.4493921076
 20
95.569041219
 30
0.0
 11
191.4456230997
 21
93.4865174629
 31
0.0
  0
LINE
  5
1B0
330
1F
100
AcDbEntity
  8
0
  6
HIDDEN
 62
     7
370
     0
100
AcDbLine
 10
191.4493921076
 20
90.1841194042
 30
0.0
 11
244.4493921076
 21
92.2664950757
 31
0.0
  0
LINE
  5
1B1
330
1F
100
AcDbEntity
  8
0
  6
HIDDEN
 62
     7
370
     0
100
AcDbLine
 10
244.4493921076
 20
129.569041219
 30
0.0
 11
191.4493921076
 21
131.6514168904
 31
0.0
  0
LINE
  5
1B2
330
1F
100
AcDbEntity
  8
0
  6
HIDDEN
 62
     7
370
     0
100
AcDbLine
 10
191.4456230997
 20
128.3490188318
 30
0.0
 11
244.4493921076
 21
126.2664950757
 31
0.0
  0
LINE
  5
1B3
330
1F
100
AcDbEntity
  8
0
  6
HIDDEN
 62
     7
370
     0
100
AcDbLine
 10
187.4493921076
 20
131.8085773185
 30
0.0
 11
186.5588867017
 21
131.8435653712
 31
0.0
  0
LINE
  5
1B4
330
1F
100
AcDbEntity
  8
0
  6
HIDDEN
 62
     7
370
     0
100
AcDbLine
 10
186.4293293097
 20
128.5461095516
 30
0.0
 11
187.449973996
 21
128.5060083126
 31
0.0
  0
LINE
  5
1B5
330
1F
100
AcDbEntity
  8
0
  6
HIDDEN
 62
     7
370
     0
100
AcDbLine
 10
187.449973996
 20
93.3295279821
 30
0.0
 11
186.4293293097
 21
93.2894267431
 31
0.0
  0
LINE
  5
1B6
330
1F
100
AcDbEntity
  8
0
  6
HIDDEN
 62
     7
370
     0
100
AcDbLine
 10
186.5588867017
 20
89.9919709235
 30
0.0
 11
187.4493921076
 21
90.0269589762
 31
0.0
  0
LINE
  5
1B7
330
1F
100
AcDbEntity
  8
0
  6
HIDDEN
 62
     7
370
     0
100
AcDbLine
 10
186.4293293097
 20
93.2894267431
 30
0.0
 11
185.5034523332
 21
91.6017758659
 31
0.0
  0
LINE
  5
1B8
330
1F
100
AcDbEntity
  8
0
  6
HIDDEN
 62
     7
370
     0
100
AcDbLine
 10
185.5034523332
 20
91.6017758659
 30
0.0
 11
186.5588867017
 21
89.9919709235
 31
0.0
  0
LINE
  5
1B9
330
1F
100
AcDbEntity
  8
0
  6
HIDDEN
 62
     7
370
     0
100
AcDbLine
 10
186.5588867017
 20
131.8435653712
 30
0.0
 11
185.5034523332
 21
130.2337604288
 31
0.0
  0
LINE
  5
1BA
330
1F
100
AcDbEntity
  8
0
  6
HIDDEN
 62
     7
370
     0
100
AcDbLine
 10
185.5034523332
 20
130.2337604288
 30
0.0
 11
186.4293293097
 21
128.5461095516
 31
0.0
  0
LINE
  5
1BB
330
1F
100
AcDbEntity
  8
0
  6
HIDDEN
 62
     7
370
     0
100
AcDbLine
 10
237.2442414106
 20
130.2024024064
 30
0.0
 11
236.4653747716
 21
129.4824254911
 31
0.0
  0
LINE
  5
1BC
330
1F
100
AcDbEntity
  8
0
  6
HIDDEN
 62
     7
370
     0
100
AcDbLine
 10
236.3672252322
 20
126.9843529005
 30
0.0
 11
237.0872021476
 21
126.2054862615
 31
0.0
  0
LINE
  5
1BD
330
1F
100
AcDbEntity
  8
0
  6
HIDDEN
 62
     7
370
     0
100
AcDbLine
 10
244.2636589137
 20
129.9266087416
 30
0.0
 11
237.2442414106
 21
130.2024024064
 31
0.0
  0
LINE
  5
1BE
330
1F
100
AcDbEntity
  8
0
  6
HIDDEN
 62
     7
370
     0
100
AcDbLine
 10
237.0872021476
 20
126.2054862615
 30
0.0
 11
244.1066196506
 21
125.9296925967
 31
0.0
  0
LINE
  5
1BF
330
1F
100
AcDbEntity
  8
0
  6
HIDDEN
 62
     7
370
     0
100
AcDbLine
 10
244.1066196506
 20
125.9296925967
 30
0.0
 11
244.3469239885
 21
126.3105519214
 31
0.0
  0
LINE
  5
1C0
330
1F
100
AcDbEntity
  8
0
  6
HIDDEN
 62
     7
370
     0
100
AcDbLine
 10
244.4493921076
 20
129.573588006
 30
0.0
 11
244.2636589137
 21
129.9266087416
 31
0.0
  0
LINE
  5
1C1
330
1F
100
AcDbEntity
  8
0
  6
HIDDEN
 62
     7
370
     0
100
AcDbLine
 10
244.1851392822
 20
95.9089287428
 30
0.0
 11
237.1657217791
 21
95.6331350779
 31
0.0
  0
LINE
  5
1C2
330
1F
100
AcDbEntity
  8
0
  6
HIDDEN
 62
     7
370
     0
100
AcDbLine
 10
237.3227610421
 20
91.636218933
 30
0.0
 11
244.3421785452
 21
91.9120125978
 31
0.0
  0
LINE
  5
1C3
330
1F
100
AcDbEntity
  8
0
  6
HIDDEN
 62
     7
370
     0
100
AcDbLine
 10
237.1657217791
 20
95.6331350779
 30
0.0
 11
236.4457448638
 21
94.8542684389
 31
0.0
  0
LINE
  5
1C4
330
1F
100
AcDbEntity
  8
0
  6
HIDDEN
 62
     7
370
     0
100
AcDbLine
 10
236.5438944031
 20
92.3561958483
 30
0.0
 11
237.3227610421
 21
91.636218933
 31
0.0
  0
LINE
  5
1C5
330
1F
100
AcDbEntity
  8
0
  6
HIDDEN
 62
     7
370
     0
100
AcDbLine
 10
244.3421785452
 20
91.9120125978
 30
0.0
 11
244.4493921076
 21
92.1157920616
 31
0.0
  0
LINE
  5
1C6
330
1F
100
AcDbEntity
  8
0
  6
HIDDEN
 62
     7
370
     0
100
AcDbLine
 10
244.42544362
 20
95.5280694181
 30
0.0
 11
244.1851392822
 21
95.9089287428
 31
0.0
  0
LINE
  5
1C7
330
1F
100
AcDbEntity
  8
0
  6
HIDDEN
 62
     7
370
     0
100
AcDbLine
 10
186.9493921076
 20
104.9177681473
 30
0.0
 11
187.4493921076
 21
105.4177681473
 31
0.0
  0
LINE
  5
1C8
330
1F
100
AcDbEntity
  8
0
  6
HIDDEN
 62
     7
370
     0
100
AcDbLine
 10
187.4493921076
 20
116.4177681473
 30
0.0
 11
186.9493921076
 21
116.9177681473
 31
0.0
  0
LINE
  5
1C9
330
1F
100
AcDbEntity
  8
0
  6
HIDDEN
 62
     7
370
     0
100
AcDbLine
 10
171.9493921076
 20
104.9177681473
 30
0.0
 11
186.9493921076
 21
104.9177681473
 31
0.0
  0
LINE
  5
1CA
330
1F
100
AcDbEntity
  8
0
  6
HIDDEN
 62
     7
370
     0
100
AcDbLine
 10
186.9493921076
 20
116.9177681473
 30
0.0
 11
171.9493921076
 21
116.9177681473
 31
0.0
  0
LINE
  5
1CB
330
1F
100
AcDbEntity
  8
0
  6
HIDDEN
 62
     7
370
     0
100
AcDbLine
 10
171.9493921076
 20
116.9177681473
 30
0.0
 11
171.4493921076
 21
116.4177681473
 31
0.0
  0
LINE
  5
1CC
330
1F
100
AcDbEntity
  8
0
  6
HIDDEN
 62
     7
370
     0
100
AcDbLine
 10
171.4493921076
 20
105.4177681473
 30
0.0
 11
171.9493921076
 21
104.9177681473
 31
0.0
  0
LINE
  5
1CD
330
1F
100
AcDbEntity
  8
0
  6
HIDDEN
 62
     7
370
     0
100
AcDbLine
 10
187.4493921076
 20
105.4177681473
 30
0.0
 11
191.4493921076
 21
105.4177681473
 31
0.0
  0
LINE
  5
1CE
330
1F
100
AcDbEntity
  8
0
  6
HIDDEN
 62
     7
370
     0
100
AcDbLine
 10
191.4493921076
 20
116.4177681473
 30
0.0
 11
187.4493921076
 21
116.4177681473
 31
0.0
  0
LINE
  5
1CF
330
1F
100
AcDbEntity
  8
0
  6
HIDDEN
 62
     7
370
     0
100
AcDbLine
 10
178.4493921075
 20
107.9177681473
 30
0.0
 11
184.4493921076
 21
107.9177681473
 31
0.0
  0
LINE
  5
1D0
330
1F
100
AcDbEntity
  8
0
  6
HIDDEN
 62
     7
370
     0
100
AcDbLine
 10
184.4493921076
 20
113.9177681473
 30
0.0
 11
178.4493921075
 21
113.9177681473
 31
0.0
  0
DIMENSION
  5
1D1
330
1F
100
AcDbEntity
  8
VERMASSUNG
100
AcDbDimension
  2
*D1
 10
48.2460455038
 20
79.4177681473
 30
0.0
 11
48.2460455038
 21
110.9177681473
 31
0.0
 70
   160
  1
HSK A %%c<>
 71
     2
 42
-1.0
  3
SLDDIMSTYLE0
100
AcDbAlignedDimension
 13
84.7493921076
 23
142.4177681473
 33
0.0
 14
84.7493921076
 24
79.4177681473
 34
0.0
 50
90.0
100
AcDbRotatedDimension
  0
DIMENSION
  5
1DE
330
1F
100
AcDbEntity
  8
VERMASSUNG
100
AcDbDimension
  2
*D2
 10
244.4493921076
 20
148.0488624052
 30
0.0
 11
215.6993921076
 21
148.0488624052
 31
0.0
 70
   160
 71
     2
 42
-1.0
  3
SLDDIMSTYLE1
100
AcDbAlignedDimension
 13
186.9493921076
 23
123.3177681473
 33
0.0
 14
244.4493921076
 24
130.6067919182
 34
0.0
100
AcDbRotatedDimension
  0
DIMENSION
  5
1E9
330
1F
100
AcDbEntity
  8
VERMASSUNG
100
AcDbDimension
  2
*D3
 10
250.6105092091
 20
123.4177681473
 30
0.0
 11
250.6105092091
 21
110.9177681473
 31
0.0
 70
   160
  1
%%c<>
 71
     1
 42
-1.0
  3
SLDDIMSTYLE2
100
AcDbAlignedDimension
 13
240.9493921076
 23
98.4177681473
 33
0.0
 14
240.9493921076
 24
123.4177681473
 34
0.0
 50
90.0
100
AcDbRotatedDimension
  0
DIMENSION
  5
1F5
330
1F
100
AcDbEntity
  8
VERMASSUNG
100
AcDbDimension
  2
*D4
 10
256.6105092091
 20
132.9177681473
 30
0.0
 11
256.6105092091
 21
110.9177681473
 31
0.0
 70
   160
  1
%%c<>
 71
     1
 42
-1.0
  3
SLDDIMSTYLE2
100
AcDbAlignedDimension
 13
244.4493921076
 23
88.9177681473
 33
0.0
 14
244.4493921076
 24
132.9177681473
 34
0.0
 50
90.0
100
AcDbRotatedDimension
  0
DIMENSION
  5
200
330
1F
100
AcDbEntity
  8
VERMASSUNG
100
AcDbDimension
  2
*D5
 10
244.4493921076
 20
160.0488624052
 30
0.0
 11
164.4493921076
 21
160.0488624052
 31
0.0
 70
   160
 71
     2
 42
-1.0
  3
SLDDIMSTYLE0
100
AcDbAlignedDimension
 13
84.4493921076
 23
142.1177681473
 33
0.0
 14
244.4493921076
 24
130.6067919182
 34
0.0
100
AcDbRotatedDimension
  0
DIMENSION
  5
20A
330
1F
100
AcDbEntity
  8
VERMASSUNG
100
AcDbDimension
  2
*D6
 10
244.4493921076
 20
154.0488624052
 30
0.0
 11
177.4243921076
 21
154.0488624052
 31
0.0
 70
   160
 71
     2
 42
-1.0
  3
SLDDIMSTYLE0
100
AcDbAlignedDimension
 13
110.3993921076
 23
140.7642084711
 33
0.0
 14
244.4493921076
 24
130.6067919182
 34
0.0
100
AcDbRotatedDimension
  0
DIMENSION
  5
214
330
1F
100
AcDbEntity
  8
VERMASSUNG
100
AcDbDimension
  2
*D7
 10
244.4493921076
 20
166.0488624052
 30
0.0
 11
148.4993921076
 21
166.0488624052
 31
0.0
 70
   160
 71
     2
 42
-1.0
  3
SLDDIMSTYLE0
100
AcDbAlignedDimension
 13
52.5493921076
 23
130.6084458938
 33
0.0
 14
244.4493921076
 24
130.6067919182
 34
0.0
100
AcDbRotatedDimension
  0
DIMENSION
  5
21E
330
1F
100
AcDbEntity
  8
VERMASSUNG
100
AcDbDimension
  2
*D8
 10
262.6105092091
 20
84.9177681473
 30
0.0
 11
262.6105092091
 21
110.9177681473
 31
0.0
 70
   160
  1
%%c<>
 71
     2
 42
-1.0
  3
SLDDIMSTYLE0
100
AcDbAlignedDimension
 13
193.6245731629
 23
136.9177681473
 33
0.0
 14
193.6245731629
 24
84.9177681473
 34
0.0
 50
90.0
100
AcDbRotatedDimension
  0
LINE
  5
229
330
1F
100
AcDbEntity
  8
VERMASSUNG
  6
CENTERX2
370
     0
100
AcDbLine
 10
50.4040882653
 20
110.9177681473
 30
0.0
 11
245.7370530878
 21
110.9177681473
 31
0.0
  0
OLE2FRAME
  5
22A
330
1F
100
AcDbEntity
  8
0
100
AcDbOle2Frame
 70
     2
  3
Bitmap Image
 10
13.8511154363
 20
38.264191557
 30
0.0
 11
51.6290888628
 21
31.9806341108
 31
0.0
 71
     2
 72
     0
 73
     1
 90
    12928
310
80552BED0767C5B32B40DDAF6807D121434000000000000000006FFBDDFB85D0
310
4940DDAF6807D121434000000000000000006FFBDDFB85D04940416F4BD60AFB
310
3F4000000000000000002BED0767C5B32B40416F4BD60AFB3F40000000000000
310
0000000000000100000000010000010000000100000000000100000000320000
310
D0CF11E0A1B11AE1000000000000000000000000000000003E000300FEFF0900
310
0600000000000000000000000100000001000000000000000010000002000000
310
01000000FEFFFFFF0000000000000000FFFFFFFFFFFFFFFFFFFFFFFFFFFFFFFF
310
FFFFFFFFFFFFFFFFFFFFFFFFFFFFFFFFFFFFFFFFFFFFFFFFFFFFFFFFFFFFFFFF
310
FFFFFFFFFFFFFFFFFFFFFFFFFFFFFFFFFFFFFFFFFFFFFFFFFFFFFFFFFFFFFFFF
310
FFFFFFFFFFFFFFFFFFFFFFFFFFFFFFFFFFFFFFFFFFFFFFFFFFFFFFFFFFFFFFFF
310
FFFFFFFFFFFFFFFFFFFFFFFFFFFFFFFFFFFFFFFFFFFFFFFFFFFFFFFFFFFFFFFF
310
FFFFFFFFFFFFFFFFFFFFFFFFFFFFFFFFFFFFFFFFFFFFFFFFFFFFFFFFFFFFFFFF
310
FFFFFFFFFFFFFFFFFFFFFFFFFFFFFFFFFFFFFFFFFFFFFFFFFFFFFFFFFFFFFFFF
310
FFFFFFFFFFFFFFFFFFFFFFFFFFFFFFFFFFFFFFFFFFFFFFFFFFFFFFFFFFFFFFFF
310
FFFFFFFFFFFFFFFFFFFFFFFFFFFFFFFFFFFFFFFFFFFFFFFFFFFFFFFFFFFFFFFF
310
FFFFFFFFFFFFFFFFFFFFFFFFFFFFFFFFFFFFFFFFFFFFFFFFFFFFFFFFFFFFFFFF
310
FFFFFFFFFFFFFFFFFFFFFFFFFFFFFFFFFFFFFFFFFFFFFFFFFFFFFFFFFFFFFFFF
310
FFFFFFFFFFFFFFFFFFFFFFFFFFFFFFFFFFFFFFFFFFFFFFFFFFFFFFFFFFFFFFFF
310
FFFFFFFFFFFFFFFFFFFFFFFFFFFFFFFFFFFFFFFFFFFFFFFFFFFFFFFFFFFFFFFF
310
FFFFFFFFFFFFFFFFFFFFFFFFFFFFFFFFFFFFFFFFFFFFFFFFFFFFFFFFFFFFFFFF
310
FDFFFFFFFEFFFFFFFEFFFFFFFEFFFFFF05000000060000000700000008000000
310
090000000A0000000B0000000C0000000D0000000E0000000F00000010000000
310
11000000120000001300000014000000150000001600000017000000FEFFFFFF
310
FFFFFFFFFFFFFFFFFFFFFFFFFFFFFFFFFFFFFFFFFFFFFFFFFFFFFFFFFFFFFFFF
310
FFFFFFFFFFFFFFFFFFFFFFFFFFFFFFFFFFFFFFFFFFFFFFFFFFFFFFFFFFFFFFFF
310
FFFFFFFFFFFFFFFFFFFFFFFFFFFFFFFFFFFFFFFFFFFFFFFFFFFFFFFFFFFFFFFF
310
FFFFFFFFFFFFFFFFFFFFFFFFFFFFFFFFFFFFFFFFFFFFFFFFFFFFFFFFFFFFFFFF
310
FFFFFFFFFFFFFFFFFFFFFFFFFFFFFFFFFFFFFFFFFFFFFFFFFFFFFFFFFFFFFFFF
310
FFFFFFFFFFFFFFFFFFFFFFFFFFFFFFFFFFFFFFFFFFFFFFFFFFFFFFFFFFFFFFFF
310
FFFFFFFFFFFFFFFFFFFFFFFFFFFFFFFFFFFFFFFFFFFFFFFFFFFFFFFFFFFFFFFF
310
FFFFFFFFFFFFFFFFFFFFFFFFFFFFFFFFFFFFFFFFFFFFFFFFFFFFFFFFFFFFFFFF
310
FFFFFFFFFFFFFFFFFFFFFFFFFFFFFFFFFFFFFFFFFFFFFFFFFFFFFFFFFFFFFFFF
310
FFFFFFFFFFFFFFFFFFFFFFFFFFFFFFFFFFFFFFFFFFFFFFFFFFFFFFFFFFFFFFFF
310
FFFFFFFFFFFFFFFFFFFFFFFFFFFFFFFFFFFFFFFFFFFFFFFFFFFFFFFFFFFFFFFF
310
FFFFFFFFFFFFFFFFFFFFFFFFFFFFFFFFFFFFFFFFFFFFFFFFFFFFFFFFFFFFFFFF
310
FFFFFFFFFFFFFFFFFFFFFFFFFFFFFFFFFFFFFFFFFFFFFFFFFFFFFFFFFFFFFFFF
310
52006F006F007400200045006E00740072007900000000000000000000000000
310
0000000000000000000000000000000000000000000000000000000000000000
310
16000500FFFFFFFFFFFFFFFF020000000A00030000000000C000000000000046
310
000000000000000000000000D0EE68547405CC0103000000C000000000000000
310
01004F006C006500000000000000000000000000000000000000000000000000
310
0000000000000000000000000000000000000000000000000000000000000000
310
0A000200FFFFFFFFFFFFFFFFFFFFFFFF00000000000000000000000000000000
310
0000000000000000000000000000000000000000000000001400000000000000
310
010043006F006D0070004F0062006A0000000000000000000000000000000000
310
0000000000000000000000000000000000000000000000000000000000000000
310
120002010100000003000000FFFFFFFF00000000000000000000000000000000
310
0000000000000000000000000000000000000000010000004D00000000000000
310
01004F006C006500310030004E00610074006900760065000000000000000000
310
0000000000000000000000000000000000000000000000000000000000000000
310
1A000200FFFFFFFFFFFFFFFFFFFFFFFF00000000000000000000000000000000
310
0000000000000000000000000000000000000000040000002426000000000000
310
FEFFFFFF02000000FEFFFFFFFFFFFFFFFFFFFFFFFFFFFFFFFFFFFFFFFFFFFFFF
310
FFFFFFFFFFFFFFFFFFFFFFFFFFFFFFFFFFFFFFFFFFFFFFFFFFFFFFFFFFFFFFFF
310
FFFFFFFFFFFFFFFFFFFFFFFFFFFFFFFFFFFFFFFFFFFFFFFFFFFFFFFFFFFFFFFF
310
FFFFFFFFFFFFFFFFFFFFFFFFFFFFFFFFFFFFFFFFFFFFFFFFFFFFFFFFFFFFFFFF
310
FFFFFFFFFFFFFFFFFFFFFFFFFFFFFFFFFFFFFFFFFFFFFFFFFFFFFFFFFFFFFFFF
310
FFFFFFFFFFFFFFFFFFFFFFFFFFFFFFFFFFFFFFFFFFFFFFFFFFFFFFFFFFFFFFFF
310
FFFFFFFFFFFFFFFFFFFFFFFFFFFFFFFFFFFFFFFFFFFFFFFFFFFFFFFFFFFFFFFF
310
FFFFFFFFFFFFFFFFFFFFFFFFFFFFFFFFFFFFFFFFFFFFFFFFFFFFFFFFFFFFFFFF
310
FFFFFFFFFFFFFFFFFFFFFFFFFFFFFFFFFFFFFFFFFFFFFFFFFFFFFFFFFFFFFFFF
310
FFFFFFFFFFFFFFFFFFFFFFFFFFFFFFFFFFFFFFFFFFFFFFFFFFFFFFFFFFFFFFFF
310
FFFFFFFFFFFFFFFFFFFFFFFFFFFFFFFFFFFFFFFFFFFFFFFFFFFFFFFFFFFFFFFF
310
FFFFFFFFFFFFFFFFFFFFFFFFFFFFFFFFFFFFFFFFFFFFFFFFFFFFFFFFFFFFFFFF
310
FFFFFFFFFFFFFFFFFFFFFFFFFFFFFFFFFFFFFFFFFFFFFFFFFFFFFFFFFFFFFFFF
310
FFFFFFFFFFFFFFFFFFFFFFFFFFFFFFFFFFFFFFFFFFFFFFFFFFFFFFFFFFFFFFFF
310
FFFFFFFFFFFFFFFFFFFFFFFFFFFFFFFFFFFFFFFFFFFFFFFFFFFFFFFFFFFFFFFF
310
FFFFFFFFFFFFFFFFFFFFFFFFFFFFFFFFFFFFFFFFFFFFFFFFFFFFFFFFFFFFFFFF
310
0100000200000000000000000000000000000000000000000000000000000000
310
0000000000000000000000000000000000000000000000000000000000000000
310
0100FEFF030A0000FFFFFFFF0A00030000000000C00000000000004607000000
310
5042727573680007000000504272757368000700000050427275736800F439B2
310
7100000000000000000000000000000000000000000000000000000000000000
310
0000000000000000000000000000000000000000000000000000000000000000
310
0000000000000000000000000000000000000000000000000000000000000000
310
0000000000000000000000000000000000000000000000000000000000000000
310
0000000000000000000000000000000000000000000000000000000000000000
310
0000000000000000000000000000000000000000000000000000000000000000
310
0000000000000000000000000000000000000000000000000000000000000000
310
0000000000000000000000000000000000000000000000000000000000000000
310
0000000000000000000000000000000000000000000000000000000000000000
310
0000000000000000000000000000000000000000000000000000000000000000
310
0000000000000000000000000000000000000000000000000000000000000000
310
0000000000000000000000000000000000000000000000000000000000000000
310
20260000424D0E260000000000003E00000028000000B40200006E0000000100
310
01000000000000000000130B0000130B00000200000002000000000000FFFFFF
310
FFFFFFFFFFFFFFFFFFFFFFFFFFFFFFFFFFFFFFFFFFFFFFFFFFFFFFFFFFFFFFFF
310
FFFFFFFFFFFFFFFFFFFFFFFFFFFFFFFFFFFFFFFFFFFFFFFFFFFFFFFFFFFFFFFF
310
FFFFFFFFFFFFFFFFFFFFFFFFFFFFFFFFFFFFFFFFFFFFFFFFF000FFFFFFFFFFFF
310
FFFFFFFFFFFFFFFFFFFFFFFFFFFFFFFFFFFFFFFFFFFFFFFFFFFFFFFFFFFFFFFF
310
FFFFFFFFFFFFFFFFFFFFFFFFFFFFFFFFFFFFFFFFFFFFFFFFFFFFFFFFFFFFFFFF
310
FFFFFFFFFFFFFFFFFFFFFFFFFFFFFFFFF000FFFFFFFFFFFFFFFFFFFFFFFFFFFF
310
FFFFFFFFFFFFFFFFFFFFFFFFFFFFFFFFFFFFFFFFFFFFFFFFFFFFFFFFFFFFFFFF
310
FFFFFFFFFFFFFFFFFFFFFFFFFFFFFFFFFFFFFFFFFFFFFFFFFFFFFFFFFFFFFFFF
310
FFFFFFFFFFFFFFFFF000FFFFFFFFFFFFFFFFFFFFFFFFFFFFFFFFFFFFFFFFFFFF
310
FFFFFFFFFFFFFFFFFFFFFFFFFFFFFFFFFFFFFFFFFFFFFFFFFFFFFFFFFFFFFFFF
310
FFFFFFFFFFFFFFFFFFFFFFFFFFFFFFFFFFFFFFFFFFFFFFFFFFFFFFFFFFFFFFFF
310
F000FFFFFFFFFFFFFFFFFFFFFFFFFFFFFFFFFFFFFFFFFFFFFFFFFFFFFFFFFFFF
310
FFFFFFFFFFFFFFFFFFFFFFFFFFFFFFFFFFFFFFFFFFFFFFFFFFFFFFFFFFFFFFFF
310
FFFFFFFFFFFFFFFFFFFFFFFFFFFFFFFFFFFFFFFFFFFFFFFFF000FFFFFFFFFFFF
310
FFFFFFFFFFFFFFFFFFFFFFFFFFFFFFFFFFFFFFFFFFFFFFFFFFFFFFFFFFFFFFFF
310
FFFFFFFFFFFFFFFFFFFFFFFFFFFFFFFFFFFFFFFFFFFFFFFFFFFFFFFFFFFFFFFF
310
FFFFFFFFFFFFFFFFFFFFFFFFFFFFFFFFF000FFFFFFFFFFFFFFFFFFFFFFFFFFFF
310
FFFFFFFFFFFFFFFFFFFFFFFFFFFFFFFFFFFFFFFFFFFFFFFFFFFFFFFFFFFFFFFF
310
FFFFFFFFFFFFFFFFFFFFFFFFFFFFFFFFFFFFFFFFFFFFFFFFFFFFFFFFFFFFFFFF
310
FFFFFFFFFFFFFFFFF000FFFFFFFFFFFFFFFFFFFFFFFFFFFFFFFFFFFFFFFFFFFF
310
FFFFFFFFFFFFFFFFFFFFFFFFFFFFFFFFFFFFFFFFFFFFFFFFFFFFFFFFFFFFFFFF
310
FFFFFFFFFFFFFFFFFFFFFFFFFFFFFFFFFFFFFFFFFFFFFFFFFFFFFFFFFFFFFFFF
310
F000FFFFFFFFFFFFFFFFFFFFFFFFFFFFFFFFFFFFFFFFFFFFFFFFFFFFFFFFFFFF
310
FFFFFFFFFFFFFFFFFFFFFFFFFFFFFFFFFFFFFFFFFFFFFFFFFFFFFFFFFFFFFFFF
310
FFFFFFFFFFFFFFFFFFFFFFFFFFFFFFFFFFFFFFFFFFFFFFFFF000FFFFFFFFFFFF
310
FFFFFFFFFFFFFFFFFFFFFFFFFFFFFFFFFFFFFFFFFFFFFFFFFFFFFFFFFFFFFFFF
310
FFFFFFFFFFFFFFFFFFFFFFFFFFFFFFFFFFFFFFFFFFFFFFFFFFFFFFFFFFFFFFFF
310
FFFFFFFFFFFFFFFFFFFFFFFFFFFFFFFFF000FFFFFFFFFFFFFFFFFFFFFFFFFFFF
310
FFFFFFFFFFFFFFFFFFFFFFFFFFFFFFFFFFFFFFFFFFFFFFFFFFFFFFFFFFFFFFFF
310
FFFFFFFFFFFFFFFFFFFFFFFFFFFFFFFFFFFFFFFFFFFFFFFFFFFFFFFFFFFFFFFF
310
FFFFFFFFFFFFFFFFF000FFFFFFFFFFFFFFFFFFFFFFFFFFFFFFFFFFFFFFFFFFFF
310
FFFFFFFFFFFFFFFFFFFFFFFFFFFFFFFFFFFFFFFFFFFFFFFFFFFFFFFFFFFFFFFF
310
FFFFFFFFFFFFFFFFFFFFFFFFFFFFFFFFFFFFFFFFFFFFFFFFFFFFFFFFFFFFFFFF
310
F000FFFFFFFFFFFFFFFFFFFFFFFFFFFFFFFFFFFFFFFFFFFFFFFFFFFFFFFFFFFF
310
FFFFFFFFFFFFFFFFFFFFFFFFFFFFFFFFFFFFFFFFFFFFFFFFFFFFFFFFFFFFFFFF
310
FFFFFFFFFFFFFFFFFFFFFFFFFFFFFFFFFFFFFFFFFFFFFFFFF000FFFFFFFFFFFF
310
FFFFFFFFFFFFFFFFFFFFFFFFFFFFFFFFFFFFFFFFFFFFFFFFFFFFFFFFFFFFFFFF
310
FFFFFFFFFFFFFFFFFFFFFFFFFFFFFFFFFFFFFFFFFFFFFFFFFFFFFFFFFFFFFFFF
310
FFFFFFFFFFFFFFFFFFFFFFFFFFFFFFFFF000FFFFFFFFFFFFFFFFFFFFFFFFFFFF
310
FFFFFFFFFFFFFFFFFFFFFFFFFFFFFFFFFFFFFFFFFFFFFFFFFFFFFFFFFFFFFFFF
310
FFFFFFFFFFFFFFFFFFFFFFFFFFFFFFFFFFFFFFFFFFFFFFFFFFFFFFFFFFFFFFFF
310
FFFFFFFFFFFFFFFFF000FFFFFFFFFFFFFFFFFFFFFFFFFFFFFFFFFFFFFFFFFFFF
310
FFFFFFFFFFFFFFFFFFFFFFFFFFFFFFFFFFFFFFFFFFFFFFFFFFFFFFFFFFFFFFFF
310
FFFFFFFFFFFFFFFFFFFFFFFFFFFFFFFFFFFFFFFFFFFFFFFFFFFFFFFFFFFFFFFF
310
F000FFFFFFFFFFFFFFFFFFFFFFFFFFFFFFFFFFFFFFFFFFFFFFFFFFFFFFFFFFFF
310
FFFFFFFFFFFFFFFFFFFFFFFFFFFFFFFFFFFFFFFFFFFFFFFFFFFFFFFFFFFFFFFF
310
FFFFFFFFFFFFFFFFFFFFFFFFFFFFFFFFFFFFFFFFFFFFFFFFF000FFFFFFFFFFFF
310
FFFFFFFFFFFFFFFFFFFFFFFFFFFFFFFFFFFFFFFFFFFFFFFFFFFFFFFFFFFFFFFF
310
FFFFFFFFFFFFFFFFFFFFFFFFFFFFFFFFFFFFFFFFFFFFFFFFFFFFFFFFFFFFFFFF
310
FFFFFFFFFFFFFFFFFFFFFFFFFFFFFFFFF000FFFFFFFFFFFFFFFFFFFFFFFFFFFF
310
FFFFFFFFFFFFFFFFFFFFFFFFFFFFFFFFFFFFFFFFFFFFFFFFFFFFFFFFFFFFFFFF
310
FFFFFFFFFFFFFFFFFFFFFFFFFFFFFFFFFFFFFFFFFFFFFFFFFFFFFFFFFFFFFFFF
310
FFFFFFFFFFFFFFFFF000FFFFF80003FFFFFFFFFFFFFFFFFFFFFFFFFFFFFFFFFF
310
FFFFF00007FFFFFFFFFF00007FFFFFF800000000000000007FFFFFFFFFFFFFFF
310
FFFFFFFC001FFFFFFFFFFFFFFC001FFFFFFFFFFFFFFFFFFFFFFFFFFE0007FFFF
310
F000FFFF8000007FFFFFFFF8000FFFFFC0007FFFFF80007FFFFF0000007FFFFF
310
FFF8000007FFFFF800000000000000007FFFFFF0001FFFFFFFFFFFC00001FFFF
310
FFFFFFFFC00001FFFFFFFF000000000003FFFFE000007FFFF000FFFE0000000F
310
FFFFFFF0000FFFFF80007FFFFF80007FFFFC0000001FFFFFFFC0000001FFFFF8
310
00000000000000007FFFFFF0001FFFFFFFFFFE0000003FFFFFFFFFFE0000003F
310
FFFFFF000000000003FFFF0000000FFFF000FFF800000003FFFFFFF00007FFFF
310
80007FFFFF80007FFFF000000007FFFFFF000000003FFFF80000000000000000
310
7FFFFFF0001FFFFFFFFFF80000000FFFFFFFFFF80000000FFFFFFF0000000000
310
03FFFC00000003FFF000FFE000000000FFFFFFF00007FFFF80003FFFFF80007F
310
FFC000000001FFFFFC000000001FFFF800000000000000007FFFFFF0001FFFFF
310
FFFFE000000003FFFFFFFFE000000003FFFFFF000000000003FFF000000000FF
310
F000FF80000000007FFFFFF00007FFFF80003FFFFF80007FFF8000000000FFFF
310
F80000000007FFF800000000000000007FFFFFF0001FFFFFFFFFC000000001FF
310
FFFFFFC000000001FFFFFF000000000003FFC0000000007FF000FF0000000000
310
3FFFFFE00007FFFF00003FFFFF80007FFE00000000003FFFF00000000003FFF8
310
00000000000000007FFFFFF0001FFFFFFFFF8000000000FFFFFFFF8000000000
310
FFFFFF000000000003FF80000000003FF000FE00000000001FFFFFE00003FFFF
310
00003FFFFF80007FFC00000000001FFFE00000000001FFF8000001FFFE000000
310
7FFFFFF0001FFFFFFFFE00000000003FFFFFFE00000000003FFFFF0000000000
310
03FF00000000001FF000FC00000000000FFFFFE00003FFFF00001FFFFF80007F
310
F800000000001FFFC00000000000FFF8000001FFFE0000007FFFFFF0001FFFFF
310
FFFC00000000001FFFFFFC00000000001FFFFF000000000003FE00000000000F
310
F000F8000000000007FFFFE00003FFFF00001FFFFF80007FF800000000000FFF
310
800000000000FFF8000001FFFE0000007FFFFFF0001FFFFFFFF800000000000F
310
FFFFF800000000000FFFFF000000000003FC000000000007F000F80000000000
310
03FFFFC00003FFFE00001FFFFF80007FF0000000000007FF0000000000007FF8
310
000001FFFE0000007FFFFFF0001FFFFFFFF0000000000007FFFFF00000000000
310
07FFFF000000000003F8000000000003F000F0000000000003FFFFC00001FFFE
310
00001FFFFF80007FE0000000000007FE0000000000003FF8000001FFFE000000
310
7FFFFFF0001FFFFFFFF0000000000007FFFFF0000000000007FFFF0000000000
310
03F800001F800003F000E00001FFF00001FFFFC00001FFFE00000FFFFF80007F
310
E00001FFE00003FE00001FFF00003FF8000001FFFE0000007FFFFFF0001FFFFF
310
FFE000003E000003FFFFE000003E000003FFFF000000000003F00001FFF80001
310
F000E00007FFFC0001FFFFC00001FFFE00000FFFFF80007FC0000FFFFC0003FC
310
0000FFFFC0001FF8000001FFFE0000007FFFFFF0001FFFFFFFC00003FFE00001
310
FFFFC00003FFE00001FFFF0001FFFFFFFFF00007FFFE0001F000E0000FFFFF00
310
00FFFF800001FFFC00000FFFFF80007FC0001FFFFE0001FC0001FFFFE0001FF8
310
000001FFFE0000007FFFFFF0001FFFFFFF80000FFFF80000FFFF80000FFFF800
310
00FFFF0003FFFFFFFFE0000FFFFF8000F000C0003FFFFF8000FFFF800000FFFC
310
000007FFFF80007F80003FFFFF0001FC0003FFFFF0001FF8000001FFFE000000
310
7FFFFFF0001FFFFFFF80003FFFFE0000FFFF80003FFFFE0000FFFF0003FFFFFF
310
FFE0003FFFFF8000F000C0003FFFFF8000FFFF800000FFFC000007FFFF80007F
310
80007FFFFF8001F80007FFFFF8000FF8000001FFFE0000007FFFFFF0001FFFFF
310
FF00007FFFFF00007FFF00007FFFFF00007FFF0003FFFFFFFFE0003FFFFFC000
310
F000C0007FFFFFC000FFFF000000FFFC000007FFFF80007F8000FFFFFF8000F8
310
000FFFFFF8000FF8000001FFFE0000007FFFFFF0001FFFFFFF0000FFFFFF8000
310
7FFF0000FFFFFF80007FFF0003FFFFFFFFC0007FFFFFC00070008000FFFFFFC0
310
00FFFF000000FFF8000007FFFF80007F8000FFFFFF8000F8000FFFFFF8000FF8
310
000001FFFE0000007FFFFFF0001FFFFFFE0001FFFFFFC0003FFE0001FFFFFFC0
310
003FFF0003FFFFFFFFC0007FFFFFE00070008000FFFFFFC0007FFF0000007FF8
310
000003FFFF80007F0001FFFFFF8000F8000FFFFFF8000FF8000001FFFE000000
310
7FFFFFF0001FFFFFFE0001FFFFFFC0003FFE0001FFFFFFC0003FFF0003FFFFFF
310
FFC000FFFFFFE00070008000FFFFFFC0007FFF0000007FF8000003FFFF80007F
310
0001FFFFFF8000F8001FFFFFF8000FF8000001FFFE0000007FFFFFF0001FFFFF
310
FE0003FFFFFFE0003FFE0003FFFFFFE0003FFF0003FFFFFFFFC000FFFFFFE000
310
70008000FFFFFFC0007FFE0000007FF8000003FFFF80007F0001FFFFFF8000F0
310
001FFFFFF8000FF8000001FFFE0000007FFFFFF0001FFFFFFC0003FFFFFFE000
310
1FFC0003FFFFFFE0001FFF0003FFFFFFFFC000FFFFFFC00070008000FFFFFF80
310
007FFE0000007FF0000003FFFF80007F0001FFFFFF0000F0001FFFFFF8000FF8
310
000001FFFE0000007FFFFFF0001FFFFFFC0007FFFFFFF0001FFC0007FFFFFFF0
310
001FFF0003FFFFFFFFC000FFFFFFC00070008001FFFFFF0000FFFE0000003FF0
310
000001FFFF80007F0001FFFFFF0000F8001FFFFFF0000FF8000001FFFE000000
310
7FFFFFF0001FFFFFFC0007FFFFFFF0001FFC0007FFFFFFF0001FFF0003FFFFFF
310
FFC001FFFFFF80007000FFFFFFFFFE0000FFFE0008003FF0008001FFFF80007F
310
FFFFFFFFFC0000FFFFFFFFFFE0000FF8000001FFFE0000007FFFFFF0001FFFFF
310
F8000FFFFFFFF8000FF8000FFFFFFFF8000FFF0003FFFFFFFFFFFFFFFFFF0000
310
7000FFFFFFFFFC0000FFFC0008003FF0008001FFFF80007FFFFFFFFFF80001FF
310
FFFFFFFF80000FF8000001FFFE0000007FFFFFF0001FFFFFF8000FFFFFFFF800
310
0FF8000FFFFFFFF8000FFF0003FFFFFFFFFFFFFFFFFE0000F000FFFFFFFFE000
310
00FFFC000C003FE000C001FFFF80007FFFFFFFFFC00001FFFFFFFFFE00001FF8
310
000001FFFE0000007FFFFFF0001FFFFFF8000FFFFFFFF8000FF8000FFFFFFFF8
310
000FFF0003FFFFFFFFFFFFFFFFF00000F000FFFFFFFE000001FFFC000C001FE0
310
00C000FFFF80007FFFFFFFFE000001FFFFFFFFE000001FF80FFFFFFFFFFFFFC0
310
7FFFFFF0001FFFFFF8000FFFFFFFF8000FF8000FFFFFFFF8000FFF0003FFFFFF
310
FFFFFFFFFF800000F000FFFFFFC0000001FFFC001C001FE001C000FFFF80007F
310
FFFFFF80000003FFFFFFF80000001FF80FFFFFFFFFFFFFC07FFFFFF0001FFFFF
310
F8001FFFFFFFFC000FF8001FFFFFFFFC000FFF0003FFFFFFFFFFFFFFF0000001
310
F000FFFFF800000001FFF8001C001FE001C000FFFF80007FFFFFF800000003FF
310
FFFF800000003FF80FFFFFFFFFFFFFC07FFFFFF0001FFFFFF8001FFFFFFFFC00
310
0FF8001FFFFFFFFC000FFF0003FFFFFFFFFFFFFE00000001F000FFFFC0000000
310
03FFF8001E001FC001E000FFFF80007FFFFF8000000007FFFFFC000000003FF8
310
0FFFFFFFFFFFFFC07FFFFFF0001FFFFFF8001FFFFFFFFC000FF8001FFFFFFFFC
310
000FFF0003FFFFFFFFFFFFE000000003F000FFFE0000000007FFF8001E000FC0
310
01E0007FFF80007FFFFE0000000007FFFFE0000000007FF80FFFFFFFFFFFFFC0
310
7FFFFFF0001FFFFFF0001FFFFFFFFC0007F0001FFFFFFFFC0007FF0003FFFFFF
310
FFFFFF0000000003F000FFF80000000007FFF8001E000FC003E0007FFF80007F
310
FFF0000000000FFFFF8000000000FFF80FFFFFFFFFFFFFC07FFFFFF0001FFFFF
310
F0001FFFFFFFFC0007F0001FFFFFFFFC0007FF0003FFFFFFFFFFFC0000000007
310
F000FFE0000000000FFFF0003E000FC003E0007FFF80007FFFC0000000001FFF
310
FE0000000001FFF80FFFFFFFFFFFFFC07FFFFFF0001FFFFFF0001FFFFFFFFC00
310
07F0001FFFFFFFFC0007FF0003FFFFFFFFFFF0000000000FF000FFC000000000
310
1FFFF0003F000F8003F0003FFF80007FFF80000000003FFFF80000000003FFF8
310
0FFFFFFFFFFFFFC07FFFFFF0001FFFFFF0001FFFFFFFFC0007F0001FFFFFFFFC
310
0007FF0003FFFFFFFFFFE0000000001FF000FF00000000007FFFF0003F000780
310
03F0003FFF80007FFF00000000007FFFF00000000007FFF80FFFFFFFFFFFFFC0
310
7FFFFFF0001FFFFFF0001FFFFFFFFC0007F0001FFFFFFFFC0007FF0003FFFFFF
310
FFFF80000000007FF000FE0000000000FFFFE0003F00078007F0003FFF80007F
310
FE0000000001FFFFE0000000001FFFF80FFFFFFFFFFFFFC07FFFFFF0001FFFFF
310
F0001FFFFFFFFC0007F0001FFFFFFFFC0007FF0003FFFFFFFFFF0000000000FF
310
F000FC0000000003FFFFE0007F00078007F0003FFF80007FFC0000000007FFFF
310
C0000000007FFFF80FFFFFFFFFFFFFC07FFFFFF0001FFFFFF8001FFFFFFFFC00
310
0FF8001FFFFFFFFC000FFF0003FFFFFFFFFE0000000003FFF000FC000000000F
310
FFFFE0007F80070007F8001FFF80007FF8000000001FFFFF8000000001FFFFF8
310
0FFFFFFFFFFFFFC07FFFFFF0001FFFFFF8001FFFFFFFFC000FF8001FFFFFFFFC
310
000FFF0003FFFFFFFFFC000000000FFFF000F8000000007FFFFFE0007F800700
310
07F8001FFF80007FF000000000FFFFFF800000000FFFFFF80FFFFFFFFFFFFFC0
310
7FFFFFF0001FFFFFF8000FFFFFFFF8000FF8000FFFFFFFF8000FFF0003FFFFFF
310
FFFC000000007FFFF000F800000007FFFFFFC0007F8003000FF8001FFF80007F
310
F000000007FFFFFF000000007FFFFFF80FFFFFFFFFFFFFC07FFFFFF0001FFFFF
310
F8000FFFFFFFF8000FF8000FFFFFFFF8000FFF0003FFFFFFFFF80000000FFFFF
310
F000F0000000FFFFFFFFC000FF8003000FF8001FFF80007FE0000000FFFFFFFF
310
0000000FFFFFFFF8000001FFFE0000007FFFFFF0001FFFFFF8000FFFFFFFF800
310
0FF8000FFFFFFFF8000FFF0003FFFFFFFFF8000000FFFFFFF000F000000FFFFF
310
FFFFC000FFC002000FF8000FFF80007FE000001FFFFFFFFE000001FFFFFFFFF8
310
000001FFFE0000007FFFFFF0001FFFFFF8000FFFFFFFF8000FF8000FFFFFFFF8
310
000FFF0003FFFFFFFFF000001FFFFFFFF000E00000FFFFFFFFFFC000FFC00200
310
0FFC000FFF80007FE00001FFFFFFFFFE00001FFFFFFFFFF8000001FFFE000000
310
7FFFFFF0001FFFFFFC000FFFFFFFF8001FFC000FFFFFFFF8001FFF0003FFFFFF
310
FFF00001FFFFFFFFF000E00007FFFFFFFFFF8000FFC000001FFC000FFF80007F
310
C0000FFFFFFFFFFE0000FFFFFFFFFFF8000001FFFE0000007FFFFFF0001FFFFF
310
FC0007FFFFFFF0001FFC0007FFFFFFF0001FFF0003FFFFFFFFF00007FFFFFFFF
310
F000E0001FFFFFFFFFFF8000FFC000001FFC000FFF80007FC0003FFFFFFFFFFE
310
0001FFFFFFFFFFF8000001FFFE0000007FFFFFF0001FFFFFFC0007FFFFFFF000
310
1FFC0007FFFFFFF0001FFF0003FFFFFFFFF0001FFFFFFFFFF000E0003FFFFF00
310
03FF8001FFE000001FFC0007FF80007FC0007FFFFF0007FC0003FFFFF0003FF8
310
000001FFFE0000007FFFFFF0001FFFFFFC0003FFFFFFE0001FFC0003FFFFFFE0
310
001FFF0003FFFFFFFFF0003FFFFFFFFFF000E0003FFFFF0001FF8001FFE00000
310
1FFE0007FF80007FC0007FFFFE0003FC0007FFFFE0003FF8000001FFFE000000
310
7FFFFFF0001FFFFFFE0003FFFFFFE0003FFE0003FFFFFFE0003FFF0003FFFFFF
310
FFF0003FFFFF8001F000E0003FFFFF0001FF0001FFE000001FFE0007FF80007F
310
C0007FFFFE0003FC0007FFFFE0003FF8000001FFFE0000007FFFFFF0001FFFFF
310
FE0001FFFFFFC0003FFE0001FFFFFFC0003FFF0003FFFFFFFFF0003FFFFF0001
310
F000E0003FFFFF0003FF0001FFE000003FFE0007FF80007FC0007FFFFE0003FC
310
0007FFFFE0003FF8000001FFFE0000007FFFFFF0001FFFFFFF0001FFFFFFC000
310
7FFF0001FFFFFFC0007FFF0003FFFFFFFFF0003FFFFF0001F000E0003FFFFE00
310
03FF0003FFF000003FFE0003FF80007FC0007FFFFC0003FE0007FFFFE0003FF8
310
000001FFFE0000007FFFFFF0001FFFFFFF0000FFFFFF80007FFF0000FFFFFF80
310
007FFF0003FFFFFFFFF0003FFFFF0001F000E0003FFFFE0003FF0003FFF00000
310
3FFF0003FF80007FC0007FFFFC0007FE0007FFFFC0003FF8000001FFFE000000
310
7FFFFFF0001FFFFFFF80007FFFFF0000FFFF80007FFFFF0000FFFF0003FFFFFF
310
FFF0003FFFFF0003F000E0003FFFFC0003FE0003FFF000003FFF0003FF80007F
310
E0003FFFF80007FE0003FFFFC0007FF8000001FFFE0000007FFFFFF0001FFFFF
310
FF80003FFFFE0000FFFF80003FFFFE0000FFFF0003FFFFFFFFF0001FFFFE0003
310
F000F0001FFFF80003FE0003FFF000007FFF0001FF80007FE0003FFFF00007FE
310
0001FFFF80007FF8000001FFFE0000007FFFFFF0001FFFFFFFC0000FFFF80001
310
FFFFC0000FFFF80001FFFF0003FFFFFFFFF0001FFFFC0003F000F0000FFFF000
310
07FE0007FFF800007FFF0001FF80007FE0001FFFE00007FF0000FFFE00007FF8
310
000001FFFE0000007FFFFFF0001FFFFFFFC00003FFE00001FFFFC00003FFE000
310
01FFFF0003FFFFFFFFF8000FFFF80003F000F00003FFC00007FC0007FFF80000
310
7FFF8001FF80007FF00007FF80000FFF00007FF80000FFF8000001FFFE000000
310
7F80000000000001FFE000003E000003FFFFE000003E000003FFFF0003FFFFFF
310
FFF80003FFE00007F000F800000000000FFC0007FFF800007FFF8001FF80007F
310
F000000000000FFF000000000000FFF8000001FFFE0000007F80000000000001
310
FFF0000000000007FFFFF0000000000007FFFF0003FFFFFFFFFC00007E000007
310
F000F800000000000FFC0007FFF80000FFFF8000FF80007FF800000000001FFF
310
800000000001FFF8000001FFFE0000007F80000000000001FFF800000000000F
310
FFFFF800000000000FFFFF0003FFFFFFFFFC00000000000FF000FC0000000000
310
1FFC0007FFFC0000FFFF8000FF80007FF800000000003FFFC00000000001FFF8
310
000001FFFE0000007F80000000000001FFF800000000000FFFFFF80000000000
310
0FFFFF0003FFFFFFFFFE00000000001FF000FE00000000003FF8000FFFFC0000
310
FFFF8000FF80007FFC00000000003FFFC00000000003FFF8000001FFFE000000
310
7F80000000000001FFFC00000000001FFFFFFC00000000001FFFFF0003FFFFFF
310
FFFF00000000001FF000FF00000000003FF8000FFFFC0000FFFFC000FF80007F
310
FE00000000007FFFE00000000007FFF8000001FFFE0000007F80000000000001
310
FFFE00000000003FFFFFFE00000000003FFFFF0003FFFFFFFFFF80000000003F
310
F000FF80000000007FF8000FFFFC0001FFFFC0007F80007FFF0000000000FFFF
310
F0000000000FFFF800000000000000007F80000000000001FFFF8000000000FF
310
FFFFFF8000000000FFFFFF0003FFFFFFFFFFC0000000007FF000FFC000000000
310
FFF8000FFFFE0001FFFFC0007F80007FFF8000000001FFFFF8000000001FFFF8
310
00000000000000007F80000000000001FFFFC000000001FFFFFFFFC000000001
310
FFFFFF0003FFFFFFFFFFE000000000FFF000FFE000000003FFF0001FFFFE0001
310
FFFFC0007F80007FFFC000000007FFFFFE000000003FFFF80000000000000000
310
7F80000000000001FFFFE000000003FFFFFFFFE000000003FFFFFF0003FFFFFF
310
FFFFF000000003FFF000FFF80000000FFFF0001FFFFE0001FFFFE0007F80007F
310
FFF00000000FFFFFFF00000000FFFFF800000000000000007F80000000000001
310
FFFFF80000000FFFFFFFFFF80000000FFFFFFF0003FFFFFFFFFFFC0000000FFF
310
F000FFFE0000003FFFF0001FFFFE0003FFFFE0003F80007FFFFC0000003FFFFF
310
FFC0000003FFFFF800000000000000007F80000000000001FFFFFE0000003FFF
310
FFFFFFFE0000003FFFFFFF0003FFFFFFFFFFFF0000003FFFF000FFFF800000FF
310
FFF0001FFFFF0003FFFFE0003F80007FFFFF000001FFFFFFFFF800001FFFFFF8
310
00000000000000007F80000000000001FFFFFFC00001FFFFFFFFFFFFC00001FF
310
FFFFFF0003FFFFFFFFFFFFC00000FFFFF000FFFFF8000FFFFFFFFFFFFFFFFFFF
310
FFFFFFFFFFFFFFFFFFFFF0001FFFFFFFFFFF0000FFFFFFF80000000000000000
310
7FFFFFFFFFFFFFFFFFFFFFFC001FFFFFFFFFFFFFFC001FFFFFFFFFFFFFFFFFFF
310
FFFFFFFC001FFFFFF000FFFFFFFFFFFFFFFFFFFFFFFFFFFFFFFFFFFFFFFFFFFF
310
FFFFFFFFFFFFFFFFFFFFFFFFFFFFFFFFFFFFFFFFFFFFFFFFFFFFFFFFFFFFFFFF
310
FFFFFFFFFFFFFFFFFFFFFFFFFFFFFFFFFFFFFFFFFFFFFFFFFFFFFFFFFFFFFFFF
310
F000FFFFFFFFFFFFFFFFFFFFFFFFFFFFFFFFFFFFFFFFFFFFFFFFFFFFFFFFFFFF
310
FFFFFFFFFFFFFFFFFFFFFFFFFFFFFFFFFFFFFFFFFFFFFFFFFFFFFFFFFFFFFFFF
310
FFFFFFFFFFFFFFFFFFFFFFFFFFFFFFFFFFFFFFFFFFFFFFFFF000FFFFFFFFFFFF
310
FFFFFFFFFFFFFFFFFFFFFFFFFFFFFFFFFFFFFFFFFFFFFFFFFFFFFFFFFFFFFFFF
310
FFFFFFFFFFFFFFFFFFFFFFFFFFFFFFFFFFFFFFFFFFFFFFFFFFFFFFFFFFFFFFFF
310
FFFFFFFFFFFFFFFFFFFFFFFFFFFFFFFFF000FFFFFFFFFFFFFFFFFFFFFFFFFFFF
310
FFFFFFFFFFFFFFFFFFFFFFFFFFFFFFFFFFFFFFFFFFFFFFFFFFFFFFFFFFFFFFFF
310
FFFFFFFFFFFFFFFFFFFFFFFFFFFFFFFFFFFFFFFFFFFFFFFFFFFFFFFFFFFFFFFF
310
FFFFFFFFFFFFFFFFF000FFFFFFFFFFFFFFFFFFFFFFFFFFFFFFFFFFFFFFFFFFFF
310
FFFFFFFFFFFFFFFFFFFFFFFFFFFFFFFFFFFFFFFFFFFFFFFFFFFFFFFFFFFFFFFF
310
FFFFFFFFFFFFFFFFFFFFFFFFFFFFFFFFFFFFFFFFFFFFFFFFFFFFFFFFFFFFFFFF
310
F000FFFFFFFFFFFFFFFFFFFFFFFFFFFFFFFFFFFFFFFFFFFFFFFFFFFFFFFFFFFF
310
FFFFFFFFFFFFFFFFFFFFFFFFFFFFFFFFFFFFFFFFFFFFFFFFFFFFFFFFFFFFFFFF
310
FFFFFFFFFFFFFFFFFFFFFFFFFFFFFFFFFFFFFFFFFFFFFFFFF000FFFFFFFFFFFF
310
FFFFFFFFFFFFFFFFFFFFFFFFFFFFFFFFFFFFFFFFFFFFFFFFFFFFFFFFFFFFFFFF
310
FFFFFFFFFFFFFFFFFFFFFFFFFFFFFFFFFFFFFFFFFFFFFFFFFFFFFFFFFFFFFFFF
310
FFFFFFFFFFFFFFFFFFFFFFFFFFFFFFFFF000FFFFFFFFFFFFFFFFFFFFFFFFFFFF
310
FFFFFFFFFFFFFFFFFFFFFFFFFFFFFFFFFFFFFFFFFFFFFFFFFFFFFFFFFFFFFFFF
310
FFFFFFFFFFFFFFFFFFFFFFFFFFFFFFFFFFFFFFFFFFFFFFFFFFFFFFFFFFFFFFFF
310
FFFFFFFFFFFFFFFFF000FFFFFFFFFFFFFFFFFFFFFFFFFFFFFFFFFFFFFFFFFFFF
310
FFFFFFFFFFFFFFFFFFFFFFFFFFFFFFFFFFFFFFFFFFFFFFFFFFFFFFFFFFFFFFFF
310
FFFFFFFFFFFFFFFFFFFFFFFFFFFFFFFFFFFFFFFFFFFFFFFFFFFFFFFFFFFFFFFF
310
F000FFFFFFFFFFFFFFFFFFFFFFFFFFFFFFFFFFFFFFFFFFFFFFFFFFFFFFFFFFFF
310
FFFFFFFFFFFFFFFFFFFFFFFFFFFFFFFFFFFFFFFFFFFFFFFFFFFFFFFFFFFFFFFF
310
FFFFFFFFFFFFFFFFFFFFFFFFFFFFFFFFFFFFFFFFFFFFFFFFF000FFFFFFFFFFFF
310
FFFFFFFFFFFFFFFFFFFFFFFFFFFFFFFFFFFFFFFFFFFFFFFFFFFFFFFFFFFFFFFF
310
FFFFFFFFFFFFFFFFFFFFFFFFFFFFFFFFFFFFFFFFFFFFFFFFFFFFFFFFFFFFFFFF
310
FFFFFFFFFFFFFFFFFFFFFFFFFFFFFFFFF000FFFFFFFFFFFFFFFFFFFFFFFFFFFF
310
FFFFFFFFFFFFFFFFFFFFFFFFFFFFFFFFFFFFFFFFFFFFFFFFFFFFFFFFFFFFFFFF
310
FFFFFFFFFFFFFFFFFFFFFFFFFFFFFFFFFFFFFFFFFFFFFFFFFFFFFFFFFFFFFFFF
310
FFFFFFFFFFFFFFFFF000FFFFFFFFFFFFFFFFFFFFFFFFFFFFFFFFFFFFFFFFFFFF
310
FFFFFFFFFFFFFFFFFFFFFFFFFFFFFFFFFFFFFFFFFFFFFFFFFFFFFFFFFFFFFFFF
310
FFFFFFFFFFFFFFFFFFFFFFFFFFFFFFFFFFFFFFFFFFFFFFFFFFFFFFFFFFFFFFFF
310
F000FFFFFFFFFFFFFFFFFFFFFFFFFFFFFFFFFFFFFFFFFFFFFFFFFFFFFFFFFFFF
310
FFFFFFFFFFFFFFFFFFFFFFFFFFFFFFFFFFFFFFFFFFFFFFFFFFFFFFFFFFFFFFFF
310
FFFFFFFFFFFFFFFFFFFFFFFFFFFFFFFFFFFFFFFFFFFFFFFFF000FFFFFFFFFFFF
310
FFFFFFFFFFFFFFFFFFFFFFFFFFFFFFFFFFFFFFFFFFFFFFFFFFFFFFFFFFFFFFFF
310
FFFFFFFFFFFFFFFFFFFFFFFFFFFFFFFFFFFFFFFFFFFFFFFFFFFFFFFFFFFFFFFF
310
FFFFFFFFFFFFFFFFFFFFFFFFFFFFFFFFF000FFFFFFFFFFFFFFFFFFFFFFFFFFFF
310
FFFFFFFFFFFFFFFFFFFFFFFFFFFFFFFFFFFFFFFFFFFFFFFFFFFFFFFFFFFFFFFF
310
FFFFFFFFFFFFFFFFFFFFFFFFFFFFFFFFFFFFFFFFFFFFFFFFFFFFFFFFFFFFFFFF
310
FFFFFFFFFFFFFFFFF000FFFFFFFFFFFFFFFFFFFFFFFFFFFFFFFFFFFFFFFFFFFF
310
FFFFFFFFFFFFFFFFFFFFFFFFFFFFFFFFFFFFFFFFFFFFFFFFFFFFFFFFFFFFFFFF
310
FFFFFFFFFFFFFFFFFFFFFFFFFFFFFFFFFFFFFFFFFFFFFFFFFFFFFFFFFFFFFFFF
310
F000FFFFFFFFFFFFFFFFFFFFFFFFFFFFFFFFFFFFFFFFFFFFFFFFFFFFFFFFFFFF
310
FFFFFFFFFFFFFFFFFFFFFFFFFFFFFFFFFFFFFFFFFFFFFFFFFFFFFFFFFFFFFFFF
310
FFFFFFFFFFFFFFFFFFFFFFFFFFFFFFFFFFFFFFFFFFFFFFFFF000FFFFFFFFFFFF
310
FFFFFFFFFFFFFFFFFFFFFFFFFFFFFFFFFFFFFFFFFFFFFFFFFFFFFFFFFFFFFFFF
310
FFFFFFFFFFFFFFFFFFFFFFFFFFFFFFFFFFFFFFFFFFFFFFFFFFFFFFFFFFFFFFFF
310
FFFFFFFFFFFFFFFFFFFFFFFFFFFFFFFFF000FFFFFFFFFFFFFFFFFFFFFFFFFFFF
310
FFFFFFFFFFFFFFFFFFFFFFFFFFFFFFFFFFFFFFFFFFFFFFFFFFFFFFFFFFFFFFFF
310
FFFFFFFFFFFFFFFFFFFFFFFFFFFFFFFFFFFFFFFFFFFFFFFFFFFFFFFFFFFFFFFF
310
FFFFFFFFFFFFFFFFF000FFFFFFFFFFFFFFFFFFFFFFFFFFFFFFFFFFFFFFFFFFFF
310
FFFFFFFFFFFFFFFFFFFFFFFFFFFFFFFFFFFFFFFFFFFFFFFFFFFFFFFFFFFFFFFF
310
FFFFFFFFFFFFFFFFFFFFFFFFFFFFFFFFFFFFFFFFFFFFFFFFFFFFFFFFFFFFFFFF
310
F000FFFFFFFFFFFFFFFFFFFFFFFFFFFFFFFFFFFFFFFFFFFFFFFFFFFFFFFFFFFF
310
FFFFFFFFFFFFFFFFFFFFFFFFFFFFFFFFFFFFFFFFFFFFFFFFFFFFFFFFFFFFFFFF
310
FFFFFFFFFFFFFFFFFFFFFFFFFFFFFFFFFFFFFFFFFFFFFFFFF000FFFFFFFFFFFF
310
FFFFFFFFFFFFFFFFFFFFFFFFFFFFFFFFFFFFFFFFFFFFFFFFFFFFFFFFFFFFFFFF
310
FFFFFFFFFFFFFFFFFFFFFFFFFFFFFFFFFFFFFFFFFFFFFFFFFFFFFFFFFFFFFFFF
310
FFFFFFFFFFFFFFFFFFFFFFFFFFFFFFFFF0000000000000000000000000000000
310
0000000052004F0043004500530053004F0052005F004900440045004E005400
310
490046004900450052003D0045004D003600340054002000460061006D006900
310
6C0079002000360020004D006F00640065006C00200032003600200053007400
310
65007000700069006E006700200035002C002000470065006E00750069006E00
310
650049006E00740065006C000000500052004F0043004500530053004F005200
310
5F004C004500560045004C003D0036000000500052004F004300450053005300
310
4F0052005F005200450056004900530049004F004E003D003100610030003500
310
0000500072006F006700720061006D00460069006C00650073003D0043003A00
310
5C00500072006F006700720061006D002000460069006C006500730000005000
310
72006F006700720061006D00460069006C006500730028007800380036002900
310
3D0043003A005C00500072006F006700720061006D002000460069006C006500
310
7300200028007800380036002900000050005F0053004300480045004D004100
310
3D0043003A005C00500072006F006700720061006D002000460069006C006500
310
73005C0053006F006C006900640057006F0072006B007300200043006F007200
310
70005C0053006F006C006900640057006F0072006B0073002000280032002900
  1
OLE
  0
ENDSEC
  0
SECTION
  2
OBJECTS
  0
DICTIONARY
  5
C
330
0
100
AcDbDictionary
281
     1
  3
ACAD_GROUP
350
D
  3
ACAD_LAYOUT
350
1A
  3
ACAD_MLEADERSTYLE
350
22C
  3
ACAD_MLINESTYLE
350
17
  3
ACAD_PLOTSETTINGS
350
19
  3
ACAD_PLOTSTYLENAME
350
E
  3
ACAD_TABLESTYLE
350
22B
  3
ACAD_VISUALSTYLE
350
2A
  3
AcDbVariableDictionary
350
22D
  0
DICTIONARY
  5
D
102
{ACAD_REACTORS
330
C
102
}
330
C
100
AcDbDictionary
281
     1
  0
DICTIONARY
  5
1A
102
{ACAD_REACTORS
330
C
102
}
330
C
100
AcDbDictionary
281
     1
  3
Layout1
350
1E
  3
Layout2
350
26
  3
Model
350
22
  0
DICTIONARY
  5
22C
102
{ACAD_REACTORS
330
C
102
}
330
C
100
AcDbDictionary
281
     1
  0
DICTIONARY
  5
17
102
{ACAD_REACTORS
330
C
102
}
330
C
100
AcDbDictionary
281
     1
  3
Standard
350
18
  0
DICTIONARY
  5
19
102
{ACAD_REACTORS
330
C
102
}
330
C
100
AcDbDictionary
281
     1
  0
ACDBDICTIONARYWDFLT
  5
E
102
{ACAD_REACTORS
330
C
102
}
330
C
100
AcDbDictionary
281
     1
  3
Normal
350
F
100
AcDbDictionaryWithDefault
340
F
  0
DICTIONARY
  5
22B
102
{ACAD_REACTORS
330
C
102
}
330
C
100
AcDbDictionary
281
     1
  0
DICTIONARY
  5
2A
102
{ACAD_REACTORS
330
C
102
}
330
C
100
AcDbDictionary
281
     1
  3
2dWireframe
350
2F
  3
3D Hidden
350
31
  3
3dWireframe
350
30
  3
Basic
350
32
  3
Brighten
350
36
  3
ColorChange
350
3A
  3
Conceptual
350
34
  3
Dim
350
35
  3
Facepattern
350
39
  3
Flat
350
2B
  3
FlatWithEdges
350
2C
  3
Gouraud
350
2D
  3
GouraudWithEdges
350
2E
  3
Linepattern
350
38
  3
Realistic
350
33
  3
Thicken
350
37
  0
DICTIONARY
  5
22D
102
{ACAD_REACTORS
330
C
102
}
330
C
100
AcDbDictionary
281
     1
  3
PSOLHEIGHT
350
22F
  3
PSOLWIDTH
350
22E
  0
LAYOUT
  5
1E
102
{ACAD_REACTORS
330
1A
102
}
330
1A
100
AcDbPlotSettings
  1

  2
none_device
  4

  6

 40
0.0
 41
0.0
 42
0.0
 43
0.0
 44
0.0
 45
0.0
 46
0.0
 47
0.0
 48
0.0
 49
0.0
140
0.0
141
0.0
142
1.0
143
1.0
 70
   688
 72
     0
 73
     0
 74
     5
  7

 75
    16
147
1.0
148
0.0
149
0.0
100
AcDbLayout
  1
Layout1
 70
     1
 71
     1
 10
0.0
 20
0.0
 11
420.0
 21
297.0
 12
0.0
 22
0.0
 32
0.0
 14
1.0000000000E+20
 24
1.0000000000E+20
 34
1.0000000000E+20
 15
-1.0000000000E+20
 25
-1.0000000000E+20
 35
-1.0000000000E+20
146
0.0
 13
0.0
 23
0.0
 33
0.0
 16
1.0
 26
0.0
 36
0.0
 17
0.0
 27
1.0
 37
0.0
 76
     0
330
1B
  0
LAYOUT
  5
26
102
{ACAD_REACTORS
330
1A
102
}
330
1A
100
AcDbPlotSettings
  1

  2
none_device
  4

  6

 40
0.0
 41
0.0
 42
0.0
 43
0.0
 44
0.0
 45
0.0
 46
0.0
 47
0.0
 48
0.0
 49
0.0
140
0.0
141
0.0
142
1.0
143
1.0
 70
   688
 72
     0
 73
     0
 74
     5
  7

 75
    16
147
1.0
148
0.0
149
0.0
100
AcDbLayout
  1
Layout2
 70
     1
 71
     2
 10
0.0
 20
0.0
 11
0.0
 21
0.0
 12
0.0
 22
0.0
 32
0.0
 14
0.0
 24
0.0
 34
0.0
 15
0.0
 25
0.0
 35
0.0
146
0.0
 13
0.0
 23
0.0
 33
0.0
 16
1.0
 26
0.0
 36
0.0
 17
0.0
 27
1.0
 37
0.0
 76
     0
330
23
  0
LAYOUT
  5
22
102
{ACAD_REACTORS
330
1A
102
}
330
1A
100
AcDbPlotSettings
  1

  2
none_device
  4

  6

 40
0.0
 41
0.0
 42
0.0
 43
0.0
 44
0.0
 45
0.0
 46
0.0
 47
0.0
 48
0.0
 49
0.0
140
0.0
141
0.0
142
1.0
143
1.0
 70
  1712
 72
     0
 73
     0
 74
     0
  7

 75
     0
147
1.0
148
0.0
149
0.0
100
AcDbLayout
  1
Model
 70
     1
 71
     0
 10
0.0
 20
0.0
 11
297.0
 21
210.0
 12
0.0
 22
0.0
 32
0.0
 14
0.0
 24
0.0
 34
0.0
 15
297.0
 25
210.0
 35
0.0
146
0.0
 13
0.0
 23
0.0
 33
0.0
 16
1.0
 26
0.0
 36
0.0
 17
0.0
 27
1.0
 37
0.0
 76
     0
330
1F
331
29
  0
MLINESTYLE
  5
18
102
{ACAD_REACTORS
330
17
102
}
330
17
100
AcDbMlineStyle
  2
Standard
 70
     0
  3

 62
   256
 51
90.0
 52
90.0
 71
     2
 49
0.5
 62
   256
  6
BYLAYER
 49
-0.5
 62
   256
  6
BYLAYER
  0
ACDBPLACEHOLDER
  5
F
102
{ACAD_REACTORS
330
E
102
}
330
E
  0
VISUALSTYLE
  5
2F
102
{ACAD_REACTORS
330
2A
102
}
330
2A
100
AcDbVisualStyle
  2
2dWireframe
 70
     4
 71
     0
 72
     2
 73
     0
 90
        0
 40
-0.6
 41
-30.0
 62
     5
 63
     7
 74
     1
 91
        4
 64
     7
 65
   257
 75
     1
175
     1
 42
1.0
 92
        0
 66
   257
 43
1.0
 76
     1
 77
     6
 78
     2
 67
     7
 79
     5
170
     0
171
     0
290
     0
174
     0
 93
        1
 44
0.0
173
     0
291
     0
 45
0.0
1001
ACAD
1000
AcDbSavedByObjectVersion
1070
     0
  0
VISUALSTYLE
  5
31
102
{ACAD_REACTORS
330
2A
102
}
330
2A
100
AcDbVisualStyle
  2
3D Hidden
 70
     6
 71
     1
 72
     2
 73
     2
 90
        0
 40
-0.6
 41
-30.0
 62
     5
 63
     7
 74
     2
 91
        2
 64
     7
 65
   257
 75
     2
175
     1
 42
40.0
 92
        0
 66
   257
 43
1.0
 76
     1
 77
     6
 78
     2
 67
     7
 79
     3
170
     0
171
     0
290
     0
174
     0
 93
        1
 44
0.0
173
     0
291
     0
 45
0.0
1001
ACAD
1000
AcDbSavedByObjectVersion
1070
     0
  0
VISUALSTYLE
  5
30
102
{ACAD_REACTORS
330
2A
102
}
330
2A
100
AcDbVisualStyle
  2
3dWireframe
 70
     5
 71
     0
 72
     2
 73
     0
 90
        0
 40
-0.6
 41
-30.0
 62
     5
 63
     7
 74
     1
 91
        4
 64
     7
 65
   257
 75
     1
175
     1
 42
1.0
 92
        0
 66
   257
 43
1.0
 76
     1
 77
     6
 78
     2
 67
     7
 79
     5
170
     0
171
     0
290
     0
174
     0
 93
        1
 44
0.0
173
     0
291
     0
 45
0.0
1001
ACAD
1000
AcDbSavedByObjectVersion
1070
     0
  0
VISUALSTYLE
  5
32
102
{ACAD_REACTORS
330
2A
102
}
330
2A
100
AcDbVisualStyle
  2
Basic
 70
     7
 71
     1
 72
     0
 73
     1
 90
        0
 40
-0.6
 41
-30.0
 62
     5
 63
     7
 74
     0
 91
        4
 64
     7
 65
   257
 75
     1
175
     1
 42
1.0
 92
        8
 66
     7
 43
1.0
 76
     1
 77
     6
 78
     2
 67
     7
 79
     5
170
     0
171
     0
290
     0
174
     0
 93
        1
 44
0.0
173
     0
291
     1
 45
0.0
1001
ACAD
1000
AcDbSavedByObjectVersion
1070
     0
  0
VISUALSTYLE
  5
36
102
{ACAD_REACTORS
330
2A
102
}
330
2A
100
AcDbVisualStyle
  2
Brighten
 70
    12
 71
     2
 72
     2
 73
     0
 90
        0
 40
-0.6
 41
-30.0
 62
     5
 63
     7
 74
     1
 91
        4
 64
     7
 65
   257
 75
     1
175
     1
 42
1.0
 92
        8
 66
     7
 43
1.0
 76
     1
 77
     6
 78
     2
 67
     7
 79
     5
170
     0
171
     0
290
     0
174
     0
 93
        1
 44
50.0
173
     0
291
     1
 45
0.0
1001
ACAD
1000
AcDbSavedByObjectVersion
1070
     0
  0
VISUALSTYLE
  5
3A
102
{ACAD_REACTORS
330
2A
102
}
330
2A
100
AcDbVisualStyle
  2
ColorChange
 70
    16
 71
     2
 72
     2
 73
     3
 90
        0
 40
-0.6
 41
-30.0
 62
     5
 63
     8
 74
     1
 91
        4
 64
     7
 65
   257
 75
     1
175
     1
 42
1.0
 92
        8
 66
     8
 43
1.0
 76
     1
 77
     6
 78
     2
 67
     7
 79
     5
170
     0
171
     0
290
     0
174
     0
 93
        1
 44
0.0
173
     0
291
     1
 45
0.0
1001
ACAD
1000
AcDbSavedByObjectVersion
1070
     0
  0
VISUALSTYLE
  5
34
102
{ACAD_REACTORS
330
2A
102
}
330
2A
100
AcDbVisualStyle
  2
Conceptual
 70
     9
 71
     3
 72
     2
 73
     0
 90
        0
 40
-0.6
 41
-30.0
 62
     5
 63
     7
 74
     2
 91
        2
 64
     7
 65
   257
 75
     1
175
     1
 42
40.0
 92
        8
 66
     7
 43
1.0
 76
     1
 77
     6
 78
     2
 67
     7
 79
     3
170
     0
171
     0
290
     0
174
     0
 93
        1
 44
0.0
173
     0
291
     0
 45
0.0
1001
ACAD
1000
AcDbSavedByObjectVersion
1070
     0
  0
VISUALSTYLE
  5
35
102
{ACAD_REACTORS
330
2A
102
}
330
2A
100
AcDbVisualStyle
  2
Dim
 70
    11
 71
     2
 72
     2
 73
     0
 90
        0
 40
-0.6
 41
-30.0
 62
     5
 63
     7
 74
     1
 91
        4
 64
     7
 65
   257
 75
     1
175
     1
 42
1.0
 92
        8
 66
     7
 43
1.0
 76
     1
 77
     6
 78
     2
 67
     7
 79
     5
170
     0
171
     0
290
     0
174
     0
 93
        1
 44
-50.0
173
     0
291
     1
 45
0.0
1001
ACAD
1000
AcDbSavedByObjectVersion
1070
     0
  0
VISUALSTYLE
  5
39
102
{ACAD_REACTORS
330
2A
102
}
330
2A
100
AcDbVisualStyle
  2
Facepattern
 70
    15
 71
     2
 72
     2
 73
     0
 90
        0
 40
-0.6
 41
-30.0
 62
     5
 63
     7
 74
     1
 91
        4
 64
     7
 65
   257
 75
     1
175
     1
 42
1.0
 92
        8
 66
     7
 43
1.0
 76
     1
 77
     6
 78
     2
 67
     7
 79
     5
170
     0
171
     0
290
     0
174
     0
 93
        1
 44
0.0
173
     0
291
     1
 45
0.0
1001
ACAD
1000
AcDbSavedByObjectVersion
1070
     0
  0
VISUALSTYLE
  5
2B
102
{ACAD_REACTORS
330
2A
102
}
330
2A
100
AcDbVisualStyle
  2
Flat
 70
     0
 71
     2
 72
     1
 73
     1
 90
        2
 40
-0.6
 41
30.0
 62
     5
 63
     7
 74
     0
 91
        4
 64
     7
 65
   257
 75
     1
175
     1
 42
1.0
 92
        8
 66
     7
 43
1.0
 76
     1
 77
     6
 78
     2
 67
     7
 79
     5
170
     0
171
     0
290
     0
174
     0
 93
       13
 44
0.0
173
     0
291
     1
 45
0.0
1001
ACAD
1000
AcDbSavedByObjectVersion
1070
     0
  0
VISUALSTYLE
  5
2C
102
{ACAD_REACTORS
330
2A
102
}
330
2A
100
AcDbVisualStyle
  2
FlatWithEdges
 70
     1
 71
     2
 72
     1
 73
     1
 90
        2
 40
-0.6
 41
30.0
 62
     5
 63
     7
 74
     1
 91
        4
 64
     7
 65
   257
 75
     1
175
     1
 42
1.0
 92
        0
 66
   257
 43
1.0
 76
     1
 77
     6
 78
     2
 67
     7
 79
     5
170
     0
171
     0
290
     0
174
     0
 93
       13
 44
0.0
173
     0
291
     1
 45
0.0
1001
ACAD
1000
AcDbSavedByObjectVersion
1070
     0
  0
VISUALSTYLE
  5
2D
102
{ACAD_REACTORS
330
2A
102
}
330
2A
100
AcDbVisualStyle
  2
Gouraud
 70
     2
 71
     2
 72
     2
 73
     1
 90
        2
 40
-0.6
 41
30.0
 62
     5
 63
     7
 74
     0
 91
        4
 64
     7
 65
   257
 75
     1
175
     1
 42
1.0
 92
        0
 66
     7
 43
1.0
 76
     1
 77
     6
 78
     2
 67
     7
 79
     5
170
     0
171
     0
290
     0
174
     0
 93
       13
 44
0.0
173
     0
291
     1
 45
0.0
1001
ACAD
1000
AcDbSavedByObjectVersion
1070
     0
  0
VISUALSTYLE
  5
2E
102
{ACAD_REACTORS
330
2A
102
}
330
2A
100
AcDbVisualStyle
  2
GouraudWithEdges
 70
     3
 71
     2
 72
     2
 73
     1
 90
        2
 40
-0.6
 41
30.0
 62
     5
 63
     7
 74
     1
 91
        4
 64
     7
 65
   257
 75
     1
175
     1
 42
1.0
 92
        0
 66
   257
 43
1.0
 76
     1
 77
     6
 78
     2
 67
     7
 79
     5
170
     0
171
     0
290
     0
174
     0
 93
       13
 44
0.0
173
     0
291
     1
 45
0.0
1001
ACAD
1000
AcDbSavedByObjectVersion
1070
     0
  0
VISUALSTYLE
  5
38
102
{ACAD_REACTORS
330
2A
102
}
330
2A
100
AcDbVisualStyle
  2
Linepattern
 70
    14
 71
     2
 72
     2
 73
     0
 90
        0
 40
-0.6
 41
-30.0
 62
     5
 63
     7
 74
     1
 91
        4
 64
     7
 65
   257
 75
     7
175
     7
 42
1.0
 92
        8
 66
     7
 43
1.0
 76
     1
 77
     6
 78
     2
 67
     7
 79
     5
170
     0
171
     0
290
     0
174
     0
 93
        1
 44
0.0
173
     0
291
     1
 45
0.0
1001
ACAD
1000
AcDbSavedByObjectVersion
1070
     0
  0
VISUALSTYLE
  5
33
102
{ACAD_REACTORS
330
2A
102
}
330
2A
100
AcDbVisualStyle
  2
Realistic
 70
     8
 71
     2
 72
     2
 73
     0
 90
        0
 40
-0.6
 41
-30.0
 62
     5
 63
     7
 74
     1
 91
        0
 64
     7
 65
   257
 75
     1
175
     1
 42
1.0
 92
        8
 66
     8
 43
1.0
 76
     1
 77
     6
 78
     2
 67
     7
 79
     5
170
     0
171
     0
290
     0
174
     0
 93
       13
 44
0.0
173
     0
291
     0
 45
0.0
1001
ACAD
1000
AcDbSavedByObjectVersion
1070
     0
  0
VISUALSTYLE
  5
37
102
{ACAD_REACTORS
330
2A
102
}
330
2A
100
AcDbVisualStyle
  2
Thicken
 70
    13
 71
     2
 72
     2
 73
     0
 90
        0
 40
-0.6
 41
-30.0
 62
     5
 63
     7
 74
     1
 91
        4
 64
     7
 65
   257
 75
     1
175
     1
 42
1.0
 92
       12
 66
     7
 43
1.0
 76
     1
 77
     6
 78
     2
 67
     7
 79
     5
170
     0
171
     0
290
     0
174
     0
 93
        1
 44
0.0
173
     0
291
     1
 45
0.0
1001
ACAD
1000
AcDbSavedByObjectVersion
1070
     0
  0
DICTIONARYVAR
  5
22F
102
{ACAD_REACTORS
330
22D
102
}
330
22D
100
DictionaryVariables
280
     0
  1
80.000000
  0
DICTIONARYVAR
  5
22E
102
{ACAD_REACTORS
330
22D
102
}
330
22D
100
DictionaryVariables
280
     0
  1
5.000000
  0
ENDSEC
  0
EOF
