  0
SECTION
  2
HEADER
  9
$ACADVER
  1
AC1015
  9
$ACADMAINTVER
 70
     6
  9
$DWGCODEPAGE
  3
ANSI_1252
  9
$INSBASE
 10
0.0
 20
0.0
 30
0.0
  9
$EXTMIN
 10
0.0
 20
0.0
 30
0.0
  9
$EXTMAX
 10
297.0
 20
210.0
 30
0.0
  9
$LIMMIN
 10
0.0
 20
0.0
  9
$LIMMAX
 10
297.0
 20
210.0
  9
$ORTHOMODE
 70
     0
  9
$REGENMODE
 70
     1
  9
$FILLMODE
 70
     1
  9
$QTEXTMODE
 70
     0
  9
$MIRRTEXT
 70
     1
  9
$LTSCALE
 40
1.0
  9
$ATTMODE
 70
     1
  9
$TEXTSIZE
 40
2.0
  9
$TRACEWID
 40
1.0
  9
$TEXTSTYLE
  7
Standard
  9
$CLAYER
  8
0
  9
$CELTYPE
  6
ByLayer
  9
$CECOLOR
 62
   256
  9
$CELTSCALE
 40
1.0
  9
$DISPSILH
 70
     0
  9
$DIMSCALE
 40
1.0
  9
$DIMASZ
 40
3.0
  9
$DIMEXO
 40
0.0
  9
$DIMDLI
 40
3.75
  9
$DIMRND
 40
0.0
  9
$DIMDLE
 40
0.0
  9
$DIMEXE
 40
1.0
  9
$DIMTP
 40
0.0
  9
$DIMTM
 40
0.0
  9
$DIMTXT
 40
2.0
  9
$DIMCEN
 40
2.5
  9
$DIMTSZ
 40
0.0
  9
$DIMTOL
 70
     0
  9
$DIMLIM
 70
     0
  9
$DIMTIH
 70
     1
  9
$DIMTOH
 70
     1
  9
$DIMSE1
 70
     0
  9
$DIMSE2
 70
     0
  9
$DIMTAD
 70
     1
  9
$DIMZIN
 70
     0
  9
$DIMBLK
  1

  9
$DIMASO
 70
     1
  9
$DIMSHO
 70
     1
  9
$DIMPOST
  1

  9
$DIMAPOST
  1

  9
$DIMALT
 70
     0
  9
$DIMALTD
 70
     3
  9
$DIMALTF
 40
0.0393700787
  9
$DIMLFAC
 40
1.0
  9
$DIMTOFL
 70
     1
  9
$DIMTVP
 40
0.0
  9
$DIMTIX
 70
     0
  9
$DIMSOXD
 70
     0
  9
$DIMSAH
 70
     0
  9
$DIMBLK1
  1

  9
$DIMBLK2
  1

  9
$DIMSTYLE
  2
ISO-25
  9
$DIMCLRD
 70
     0
  9
$DIMCLRE
 70
     0
  9
$DIMCLRT
 70
     0
  9
$DIMTFAC
 40
1.0
  9
$DIMGAP
 40
1.524
  9
$DIMJUST
 70
     0
  9
$DIMSD1
 70
     0
  9
$DIMSD2
 70
     0
  9
$DIMTOLJ
 70
     0
  9
$DIMTZIN
 70
     0
  9
$DIMALTZ
 70
     0
  9
$DIMALTTZ
 70
     0
  9
$DIMUPT
 70
     0
  9
$DIMDEC
 70
     2
  9
$DIMTDEC
 70
     3
  9
$DIMALTU
 70
     2
  9
$DIMALTTD
 70
     3
  9
$DIMTXSTY
  7
Standard
  9
$DIMAUNIT
 70
     0
  9
$DIMADEC
 70
     2
  9
$DIMALTRND
 40
0.0
  9
$DIMAZIN
 70
     0
  9
$DIMDSEP
 70
    44
  9
$DIMATFIT
 70
     3
  9
$DIMFRAC
 70
     0
  9
$DIMLDRBLK
  1

  9
$DIMLUNIT
 70
     2
  9
$DIMLWD
 70
    -2
  9
$DIMLWE
 70
    -2
  9
$DIMTMOVE
 70
     0
  9
$LUNITS
 70
     2
  9
$LUPREC
 70
     2
  9
$SKETCHINC
 40
1.0
  9
$FILLETRAD
 40
10.0
  9
$AUNITS
 70
     0
  9
$AUPREC
 70
     2
  9
$MENU
  1
.
  9
$ELEVATION
 40
0.0
  9
$PELEVATION
 40
0.0
  9
$THICKNESS
 40
0.0
  9
$LIMCHECK
 70
     0
  9
$CHAMFERA
 40
10.0
  9
$CHAMFERB
 40
10.0
  9
$CHAMFERC
 40
20.0
  9
$CHAMFERD
 40
0.0
  9
$SKPOLY
 70
     0
  9
$TDCREATE
 40
2455680.385480914
  9
$TDUCREATE
 40
2455680.302147581
  9
$TDUPDATE
 40
2455680.385480926
  9
$TDUUPDATE
 40
2455680.302147592
  9
$TDINDWG
 40
0.0000000116
  9
$TDUSRTIMER
 40
0.0000000116
  9
$USRTIMER
 70
     1
  9
$ANGBASE
 50
0.0
  9
$ANGDIR
 70
     0
  9
$PDMODE
 70
     0
  9
$PDSIZE
 40
-1.0
  9
$PLINEWID
 40
0.0
  9
$SPLFRAME
 70
     0
  9
$SPLINETYPE
 70
     6
  9
$SPLINESEGS
 70
     8
  9
$HANDSEED
  5
238
  9
$SURFTAB1
 70
     6
  9
$SURFTAB2
 70
     6
  9
$SURFTYPE
 70
     6
  9
$SURFU
 70
     6
  9
$SURFV
 70
     6
  9
$UCSBASE
  2

  9
$UCSNAME
  2

  9
$UCSORG
 10
0.0
 20
0.0
 30
0.0
  9
$UCSXDIR
 10
1.0
 20
0.0
 30
0.0
  9
$UCSYDIR
 10
0.0
 20
1.0
 30
0.0
  9
$UCSORTHOREF
  2

  9
$UCSORTHOVIEW
 70
     0
  9
$UCSORGTOP
 10
0.0
 20
0.0
 30
0.0
  9
$UCSORGBOTTOM
 10
0.0
 20
0.0
 30
0.0
  9
$UCSORGLEFT
 10
0.0
 20
0.0
 30
0.0
  9
$UCSORGRIGHT
 10
0.0
 20
0.0
 30
0.0
  9
$UCSORGFRONT
 10
0.0
 20
0.0
 30
0.0
  9
$UCSORGBACK
 10
0.0
 20
0.0
 30
0.0
  9
$PUCSBASE
  2

  9
$PUCSNAME
  2

  9
$PUCSORG
 10
0.0
 20
0.0
 30
0.0
  9
$PUCSXDIR
 10
1.0
 20
0.0
 30
0.0
  9
$PUCSYDIR
 10
0.0
 20
1.0
 30
0.0
  9
$PUCSORTHOREF
  2

  9
$PUCSORTHOVIEW
 70
     0
  9
$PUCSORGTOP
 10
0.0
 20
0.0
 30
0.0
  9
$PUCSORGBOTTOM
 10
0.0
 20
0.0
 30
0.0
  9
$PUCSORGLEFT
 10
0.0
 20
0.0
 30
0.0
  9
$PUCSORGRIGHT
 10
0.0
 20
0.0
 30
0.0
  9
$PUCSORGFRONT
 10
0.0
 20
0.0
 30
0.0
  9
$PUCSORGBACK
 10
0.0
 20
0.0
 30
0.0
  9
$USERI1
 70
     0
  9
$USERI2
 70
     0
  9
$USERI3
 70
     0
  9
$USERI4
 70
     0
  9
$USERI5
 70
     0
  9
$USERR1
 40
0.0
  9
$USERR2
 40
0.0
  9
$USERR3
 40
0.0
  9
$USERR4
 40
0.0
  9
$USERR5
 40
0.0
  9
$WORLDVIEW
 70
     1
  9
$SHADEDGE
 70
     3
  9
$SHADEDIF
 70
    70
  9
$TILEMODE
 70
     1
  9
$MAXACTVP
 70
    64
  9
$PINSBASE
 10
0.0
 20
0.0
 30
0.0
  9
$PLIMCHECK
 70
     0
  9
$PEXTMIN
 10
1.0000000000E+20
 20
1.0000000000E+20
 30
1.0000000000E+20
  9
$PEXTMAX
 10
-1.0000000000E+20
 20
-1.0000000000E+20
 30
-1.0000000000E+20
  9
$PLIMMIN
 10
0.0
 20
0.0
  9
$PLIMMAX
 10
420.0
 20
297.0
  9
$UNITMODE
 70
     0
  9
$VISRETAIN
 70
     1
  9
$PLINEGEN
 70
     0
  9
$PSLTSCALE
 70
     1
  9
$TREEDEPTH
 70
  3020
  9
$CMLSTYLE
  2
Standard
  9
$CMLJUST
 70
     0
  9
$CMLSCALE
 40
20.0
  9
$PROXYGRAPHICS
 70
     1
  9
$MEASUREMENT
 70
     1
  9
$CELWEIGHT
370
    -1
  9
$ENDCAPS
280
     0
  9
$JOINSTYLE
280
     0
  9
$LWDISPLAY
290
     1
  9
$INSUNITS
 70
     4
  9
$HYPERLINKBASE
  1

  9
$STYLESHEET
  1

  9
$XEDIT
290
     1
  9
$CEPSNTYPE
380
     0
  9
$PSTYLEMODE
290
     1
  9
$FINGERPRINTGUID
  2
{084441C6-7697-4D28-857B-16211DF6402A}
  9
$VERSIONGUID
  2
{FAEB1C32-E019-11D5-929B-00C0DF256EC4}
  9
$EXTNAMES
290
     1
  9
$PSVPSCALE
 40
0.0
  9
$OLESTARTUP
290
     0
  0
ENDSEC
  0
SECTION
  2
CLASSES
  0
CLASS
  1
ACDBDICTIONARYWDFLT
  2
AcDbDictionaryWithDefault
  3
ObjectDBX Classes
 90
        0
280
     0
281
     0
  0
CLASS
  1
VISUALSTYLE
  2
AcDbVisualStyle
  3
ObjectDBX Classes
 90
     4095
280
     0
281
     0
  0
CLASS
  1
DICTIONARYVAR
  2
AcDbDictionaryVar
  3
ObjectDBX Classes
 90
        0
280
     0
281
     0
  0
CLASS
  1
ACDBPLACEHOLDER
  2
AcDbPlaceHolder
  3
ObjectDBX Classes
 90
        0
280
     0
281
     0
  0
CLASS
  1
LAYOUT
  2
AcDbLayout
  3
ObjectDBX Classes
 90
        0
280
     0
281
     0
  0
ENDSEC
  0
SECTION
  2
TABLES
  0
TABLE
  2
VPORT
  5
8
330
0
100
AcDbSymbolTable
 70
     1
  0
VPORT
  5
29
330
8
100
AcDbSymbolTableRecord
100
AcDbViewportTableRecord
  2
*Active
 70
     0
 10
0.0
 20
0.0
 11
1.0
 21
1.0
 12
148.5
 22
105.0
 13
0.0
 23
0.0
 14
10.0
 24
10.0
 15
10.0
 25
10.0
 16
0.0
 26
0.0
 36
1.0
 17
0.0
 27
0.0
 37
0.0
 40
210.0
 41
1.4142857143
 42
50.0
 43
0.0
 44
0.0
 50
0.0
 51
0.0
 71
     0
 72
  2000
 73
     1
 74
     3
 75
     0
 76
     0
 77
     0
 78
     0
281
     0
 65
     1
110
0.0
120
0.0
130
0.0
111
1.0
121
0.0
131
0.0
112
0.0
122
1.0
132
0.0
 79
     0
146
0.0
  0
ENDTAB
  0
TABLE
  2
LTYPE
  5
5
330
0
100
AcDbSymbolTable
 70
     6
  0
LTYPE
  5
14
330
5
100
AcDbSymbolTableRecord
100
AcDbLinetypeTableRecord
  2
ByBlock
 70
     0
  3

 72
    65
 73
     0
 40
0.0
  0
LTYPE
  5
15
330
5
100
AcDbSymbolTableRecord
100
AcDbLinetypeTableRecord
  2
ByLayer
 70
     0
  3

 72
    65
 73
     0
 40
0.0
  0
LTYPE
  5
16
330
5
100
AcDbSymbolTableRecord
100
AcDbLinetypeTableRecord
  2
Continuous
 70
     0
  3
Solid line
 72
    65
 73
     0
 40
0.0
  0
LTYPE
  5
3B
330
5
100
AcDbSymbolTableRecord
100
AcDbLinetypeTableRecord
  2
HIDDEN
 70
     0
  3
Hidden __ __ __ __ __ __ __ __ __ __ __ __ __ __
 72
    65
 73
     2
 40
1.905
 49
1.27
 74
     0
 49
-0.635
 74
     0
  0
LTYPE
  5
3C
330
5
100
AcDbSymbolTableRecord
100
AcDbLinetypeTableRecord
  2
PHANTOM
 70
     0
  3
Phantom ______  __  __  ______  __  __  ______
 72
    65
 73
     6
 40
12.7
 49
6.35
 74
     0
 49
-1.27
 74
     0
 49
1.27
 74
     0
 49
-1.27
 74
     0
 49
1.27
 74
     0
 49
-1.27
 74
     0
  0
LTYPE
  5
3D
330
5
100
AcDbSymbolTableRecord
100
AcDbLinetypeTableRecord
  2
CENTER
 70
     0
  3
Center ____ _ ____ _ ____ _ ____ _ ____ _ ____
 72
    65
 73
     4
 40
10.16
 49
6.35
 74
     0
 49
-1.27
 74
     0
 49
1.27
 74
     0
 49
-1.27
 74
     0
  0
LTYPE
  5
3E
330
5
100
AcDbSymbolTableRecord
100
AcDbLinetypeTableRecord
  2
CENTERX2
 70
     0
  3
Center (2x) ________  __  ________  __  _____
 72
    65
 73
     4
 40
20.32
 49
12.7
 74
     0
 49
-2.54
 74
     0
 49
2.54
 74
     0
 49
-2.54
 74
     0
  0
LTYPE
  5
3F
330
5
100
AcDbSymbolTableRecord
100
AcDbLinetypeTableRecord
  2
DOT2
 70
     0
  3
Dot (.5x) ........................................
 72
    65
 73
     2
 40
0.635
 49
0.0
 74
     0
 49
-0.635
 74
     0
  0
ENDTAB
  0
TABLE
  2
LAYER
  5
2
330
0
100
AcDbSymbolTable
 70
     5
  0
LAYER
  5
10
330
2
100
AcDbSymbolTableRecord
100
AcDbLayerTableRecord
  2
0
 70
     0
 62
     7
  6
Continuous
370
    -3
390
F
  0
LAYER
  5
40
330
2
100
AcDbSymbolTableRecord
100
AcDbLayerTableRecord
  2
FORMAT
 70
     0
 62
     7
  6
Continuous
370
    -3
390
F
  0
LAYER
  5
41
330
2
100
AcDbSymbolTableRecord
100
AcDbLayerTableRecord
  2
VERMASSUNG
 70
     0
 62
     7
  6
Continuous
370
    -3
390
F
  0
LAYER
  5
42
330
2
100
AcDbSymbolTableRecord
100
AcDbLayerTableRecord
  2
KOPF_DÜNN
 70
     0
 62
     7
  6
Continuous
370
    -3
390
F
  0
LAYER
  5
43
330
2
100
AcDbSymbolTableRecord
100
AcDbLayerTableRecord
  2
KOPF_DICK
 70
     0
 62
     7
  6
Continuous
370
    15
390
F
  0
ENDTAB
  0
TABLE
  2
STYLE
  5
3
330
0
100
AcDbSymbolTable
 70
     3
  0
STYLE
  5
11
330
3
100
AcDbSymbolTableRecord
100
AcDbTextStyleTableRecord
  2
Standard
 70
     0
 40
0.0
 41
1.0
 50
0.0
 71
     0
 42
2.5
  3
txt
  4

  0
STYLE
  5
44
330
3
100
AcDbSymbolTableRecord
100
AcDbTextStyleTableRecord
  2
SLDTEXTSTYLE0
 70
     0
 40
0.0
 41
0.7
 50
0.0
 71
     0
 42
0.2
  3
TXT
  4

  0
STYLE
  5
48
330
3
100
AcDbSymbolTableRecord
100
AcDbTextStyleTableRecord
  2
SLDTEXTSTYLE1
 70
     0
 40
0.0
 41
0.6473684211
 50
0.0
 71
     0
 42
0.2
  3
TXT
  4

  0
ENDTAB
  0
TABLE
  2
VIEW
  5
6
330
0
100
AcDbSymbolTable
 70
     0
  0
ENDTAB
  0
TABLE
  2
UCS
  5
7
330
0
100
AcDbSymbolTable
 70
     0
  0
ENDTAB
  0
TABLE
  2
APPID
  5
9
330
0
100
AcDbSymbolTable
 70
     1
  0
APPID
  5
12
330
9
100
AcDbSymbolTableRecord
100
AcDbRegAppTableRecord
  2
ACAD
 70
     0
  0
ENDTAB
  0
TABLE
  2
DIMSTYLE
  5
A
330
0
100
AcDbSymbolTable
 70
     5
100
AcDbDimStyleTable
  0
DIMSTYLE
105
27
330
A
100
AcDbSymbolTableRecord
100
AcDbDimStyleTableRecord
  2
ISO-25
 70
     0
 41
2.5
 42
0.625
 43
3.75
 44
1.25
 73
     0
 74
     0
 77
     1
 78
     8
140
2.5
141
2.5
143
0.0393700787
147
0.625
171
     3
172
     1
271
     2
272
     2
274
     3
278
    44
283
     0
284
     8
340
11
  0
DIMSTYLE
105
1D9
102
{ACAD_REACTORS
330
1D8
330
213
330
21D
330
227
102
}
330
A
100
AcDbSymbolTableRecord
100
AcDbDimStyleTableRecord
  2
SLDDIMSTYLE0
 70
     0
 41
3.0
 44
0.0
 45
0.000000001
 73
     0
 74
     0
 77
     1
 78
    12
140
2.0
147
0.5
173
     1
271
     2
272
     3
284
    12
340
44
  0
DIMSTYLE
105
1E6
102
{ACAD_REACTORS
330
1E5
102
}
330
A
100
AcDbSymbolTableRecord
100
AcDbDimStyleTableRecord
  2
SLDDIMSTYLE1
 70
     0
 41
3.0
 44
0.0
 45
0.000000001
 73
     0
 74
     0
 77
     1
 78
    12
140
2.0
147
0.5
173
     1
271
     2
272
     2
284
    12
340
44
  0
DIMSTYLE
105
1F1
102
{ACAD_REACTORS
330
1F0
102
}
330
A
100
AcDbSymbolTableRecord
100
AcDbDimStyleTableRecord
  2
SLDDIMSTYLE2
 70
     0
 41
3.0
 44
0.0
 45
0.000000001
 73
     0
 74
     0
 77
     1
 78
    12
140
2.0
147
0.5
173
     1
271
     2
272
     2
284
    12
340
44
  0
DIMSTYLE
105
1FD
102
{ACAD_REACTORS
330
1FC
330
208
102
}
330
A
100
AcDbSymbolTableRecord
100
AcDbDimStyleTableRecord
  2
SLDDIMSTYLE3
 70
     0
 41
3.0
 44
0.0
 45
0.000000001
 73
     0
 74
     0
 77
     1
 78
    12
140
2.0
147
0.5
173
     1
271
     2
272
     3
284
    12
340
44
  0
ENDTAB
  0
TABLE
  2
BLOCK_RECORD
  5
1
330
0
100
AcDbSymbolTable
 70
     9
  0
BLOCK_RECORD
  5
1F
330
1
100
AcDbSymbolTableRecord
100
AcDbBlockTableRecord
  2
*Model_Space
340
22
  0
BLOCK_RECORD
  5
1B
330
1
100
AcDbSymbolTableRecord
100
AcDbBlockTableRecord
  2
*Paper_Space
340
1E
  0
BLOCK_RECORD
  5
23
330
1
100
AcDbSymbolTableRecord
100
AcDbBlockTableRecord
  2
*Paper_Space0
340
26
  0
BLOCK_RECORD
  5
1DA
330
1
100
AcDbSymbolTableRecord
100
AcDbBlockTableRecord
  2
*D1
340
0
  0
BLOCK_RECORD
  5
1E7
330
1
100
AcDbSymbolTableRecord
100
AcDbBlockTableRecord
  2
*D2
340
0
  0
BLOCK_RECORD
  5
1F2
330
1
100
AcDbSymbolTableRecord
100
AcDbBlockTableRecord
  2
*D3
340
0
  0
BLOCK_RECORD
  5
1FE
330
1
100
AcDbSymbolTableRecord
100
AcDbBlockTableRecord
  2
*D4
340
0
  0
BLOCK_RECORD
  5
209
330
1
100
AcDbSymbolTableRecord
100
AcDbBlockTableRecord
  2
*D5
340
0
  0
BLOCK_RECORD
  5
214
330
1
100
AcDbSymbolTableRecord
100
AcDbBlockTableRecord
  2
*D6
340
0
  0
BLOCK_RECORD
  5
21E
330
1
100
AcDbSymbolTableRecord
100
AcDbBlockTableRecord
  2
*D7
340
0
  0
BLOCK_RECORD
  5
228
330
1
100
AcDbSymbolTableRecord
100
AcDbBlockTableRecord
  2
*D8
340
0
  0
ENDTAB
  0
ENDSEC
  0
SECTION
  2
BLOCKS
  0
BLOCK
  5
20
330
1F
100
AcDbEntity
  8
0
100
AcDbBlockBegin
  2
*Model_Space
 70
     0
 10
0.0
 20
0.0
 30
0.0
  3
*Model_Space
  1

  0
ENDBLK
  5
21
330
1F
100
AcDbEntity
  8
0
100
AcDbBlockEnd
  0
BLOCK
  5
1C
330
1B
100
AcDbEntity
 67
     1
  8
0
100
AcDbBlockBegin
  2
*Paper_Space
 70
     0
 10
0.0
 20
0.0
 30
0.0
  3
*Paper_Space
  1

  0
ENDBLK
  5
1D
330
1B
100
AcDbEntity
 67
     1
  8
0
100
AcDbBlockEnd
  0
BLOCK
  5
24
330
23
100
AcDbEntity
  8
0
100
AcDbBlockBegin
  2
*Paper_Space0
 70
     0
 10
0.0
 20
0.0
 30
0.0
  3
*Paper_Space0
  1

  0
ENDBLK
  5
25
330
23
100
AcDbEntity
  8
0
100
AcDbBlockEnd
  0
BLOCK
  5
1DB
330
1DA
100
AcDbEntity
  8
0
100
AcDbBlockBegin
  2
*D1
 70
     1
 10
0.0
 20
0.0
 30
0.0
  3
*D1
  1

  0
SOLID
  5
1DD
330
1DA
100
AcDbEntity
  8
VERMASSUNG
100
AcDbTrace
 10
64.4908992416
 20
138.2405200433
 30
0.0
 11
64.0408992416
 21
135.2405200433
 31
0.0
 12
64.9408992416
 22
135.2405200433
 32
0.0
 13
64.9408992416
 23
135.2405200433
 33
0.0
  0
SOLID
  5
1DE
330
1DA
100
AcDbEntity
  8
VERMASSUNG
100
AcDbTrace
 10
64.4908992416
 20
75.2405200433
 30
0.0
 11
64.9408992416
 21
78.2405200433
 31
0.0
 12
64.0408992416
 22
78.2405200433
 32
0.0
 13
64.0408992416
 23
78.2405200433
 33
0.0
  0
LINE
  5
1DF
330
1DA
100
AcDbEntity
  8
VERMASSUNG
100
AcDbLine
 10
103.5362826818
 20
138.2405200433
 30
0.0
 11
63.4908992416
 21
138.2405200433
 31
0.0
  0
LINE
  5
1E0
330
1DA
100
AcDbEntity
  8
VERMASSUNG
100
AcDbLine
 10
103.5362826818
 20
75.2405200433
 30
0.0
 11
63.4908992416
 21
75.2405200433
 31
0.0
  0
LINE
  5
1E1
330
1DA
100
AcDbEntity
  8
VERMASSUNG
100
AcDbLine
 10
64.4908992416
 20
138.2405200433
 30
0.0
 11
64.4908992416
 21
75.2405200433
 31
0.0
  0
MTEXT
  5
1E2
330
1DA
100
AcDbEntity
  8
VERMASSUNG
100
AcDbMText
 10
61.7127637526
 20
99.0369783315
 30
0.0
 40
2.0
 41
0.0
 71
     1
 72
     1
  1
HSK A 
  7
SLDTEXTSTYLE0
 11
-7.044195017643634E-15
 21
1.0
 31
0.0
 73
     1
 44
1.0
  0
MTEXT
  5
1E3
330
1DA
100
AcDbEntity
  8
VERMASSUNG
100
AcDbMText
 10
61.9127637621
 20
108.0369788754
 30
0.0
 40
2.0
 41
0.0
 71
     1
 72
     1
  1
%%c
  7
SLDTEXTSTYLE0
 11
-7.044195017643634E-15
 21
1.0
 31
0.0
 73
     1
 44
1.0
  0
MTEXT
  5
1E4
330
1DA
100
AcDbEntity
  8
VERMASSUNG
100
AcDbMText
 10
61.9127638785
 20
111.6453055255
 30
0.0
 40
2.0
 41
0.0
 71
     1
 72
     1
  1
63
  7
SLDTEXTSTYLE0
 11
-7.044195017643634E-15
 21
1.0
 31
0.0
 73
     1
 44
1.0
  0
ENDBLK
  5
1DC
330
1DA
100
AcDbEntity
  8
0
100
AcDbBlockEnd
  0
BLOCK
  5
1E8
330
1E7
100
AcDbEntity
  8
0
100
AcDbBlockBegin
  2
*D2
 70
     1
 10
0.0
 20
0.0
 30
0.0
  3
*D2
  1

  0
SOLID
  5
1EA
330
1E7
100
AcDbEntity
  8
VERMASSUNG
100
AcDbTrace
 10
160.7362826818
 20
140.6226435536
 30
0.0
 11
163.7362826818
 21
140.1726435536
 31
0.0
 12
163.7362826818
 22
141.0726435536
 32
0.0
 13
163.7362826818
 23
141.0726435536
 33
0.0
  0
SOLID
  5
1EB
330
1E7
100
AcDbEntity
  8
VERMASSUNG
100
AcDbTrace
 10
218.2362826818
 20
140.6226435536
 30
0.0
 11
215.2362826818
 21
141.0726435536
 31
0.0
 12
215.2362826818
 22
140.1726435536
 32
0.0
 13
215.2362826818
 23
140.1726435536
 33
0.0
  0
LINE
  5
1EC
330
1E7
100
AcDbEntity
  8
VERMASSUNG
100
AcDbLine
 10
160.7362826818
 20
119.1405200433
 30
0.0
 11
160.7362826818
 21
141.6226435536
 31
0.0
  0
LINE
  5
1ED
330
1E7
100
AcDbEntity
  8
VERMASSUNG
100
AcDbLine
 10
218.2362826818
 20
126.4295438142
 30
0.0
 11
218.2362826818
 21
141.6226435536
 31
0.0
  0
LINE
  5
1EE
330
1E7
100
AcDbEntity
  8
VERMASSUNG
100
AcDbLine
 10
160.7362826818
 20
140.6226435536
 30
0.0
 11
218.2362826818
 21
140.6226435536
 31
0.0
  0
MTEXT
  5
1EF
330
1E7
100
AcDbEntity
  8
VERMASSUNG
100
AcDbMText
 10
187.0866857154
 20
143.2007789168
 30
0.0
 40
2.0
 41
0.0
 71
     1
 72
     1
  1
57.5
  7
SLDTEXTSTYLE0
 73
     1
 44
1.0
  0
ENDBLK
  5
1E9
330
1E7
100
AcDbEntity
  8
0
100
AcDbBlockEnd
  0
BLOCK
  5
1F3
330
1F2
100
AcDbEntity
  8
0
100
AcDbBlockBegin
  2
*D3
 70
     1
 10
0.0
 20
0.0
 30
0.0
  3
*D3
  1

  0
SOLID
  5
1F5
330
1F2
100
AcDbEntity
  8
VERMASSUNG
100
AcDbTrace
 10
228.3828023089
 20
94.2405200433
 30
0.0
 11
228.8328023089
 21
97.2405200433
 31
0.0
 12
227.9328023089
 22
97.2405200433
 32
0.0
 13
227.9328023089
 23
97.2405200433
 33
0.0
  0
SOLID
  5
1F6
330
1F2
100
AcDbEntity
  8
VERMASSUNG
100
AcDbTrace
 10
228.3828023089
 20
119.2405200433
 30
0.0
 11
227.9328023089
 21
116.2405200433
 31
0.0
 12
228.8328023089
 22
116.2405200433
 32
0.0
 13
228.8328023089
 23
116.2405200433
 33
0.0
  0
LINE
  5
1F7
330
1F2
100
AcDbEntity
  8
VERMASSUNG
100
AcDbLine
 10
214.7362826818
 20
94.2405200433
 30
0.0
 11
229.3828023089
 21
94.2405200433
 31
0.0
  0
LINE
  5
1F8
330
1F2
100
AcDbEntity
  8
VERMASSUNG
100
AcDbLine
 10
214.7362826818
 20
119.2405200433
 30
0.0
 11
229.3828023089
 21
119.2405200433
 31
0.0
  0
LINE
  5
1F9
330
1F2
100
AcDbEntity
  8
VERMASSUNG
100
AcDbLine
 10
228.3828023089
 20
94.2405200433
 30
0.0
 11
228.3828023089
 21
119.2405200433
 31
0.0
  0
MTEXT
  5
1FA
330
1F2
100
AcDbEntity
  8
VERMASSUNG
100
AcDbMText
 10
225.8046668294
 20
103.5368028169
 30
0.0
 40
2.0
 41
0.0
 71
     1
 72
     1
  1
%%c
  7
SLDTEXTSTYLE0
 11
6.123233995736766E-17
 21
1.0
 31
0.0
 73
     1
 44
1.0
  0
MTEXT
  5
1FB
330
1F2
100
AcDbEntity
  8
VERMASSUNG
100
AcDbMText
 10
225.8046669458
 20
107.1454810401
 30
0.0
 40
2.0
 41
0.0
 71
     1
 72
     1
  1
25
  7
SLDTEXTSTYLE0
 11
6.123233995736766E-17
 21
1.0
 31
0.0
 73
     1
 44
1.0
  0
ENDBLK
  5
1F4
330
1F2
100
AcDbEntity
  8
0
100
AcDbBlockEnd
  0
BLOCK
  5
1FF
330
1FE
100
AcDbEntity
  8
0
100
AcDbBlockBegin
  2
*D4
 70
     1
 10
0.0
 20
0.0
 30
0.0
  3
*D4
  1

  0
SOLID
  5
201
330
1FE
100
AcDbEntity
  8
VERMASSUNG
100
AcDbTrace
 10
234.3828023089
 20
84.7405200433
 30
0.0
 11
234.8328023089
 21
87.7405200433
 31
0.0
 12
233.9328023089
 22
87.7405200433
 32
0.0
 13
233.9328023089
 23
87.7405200433
 33
0.0
  0
SOLID
  5
202
330
1FE
100
AcDbEntity
  8
VERMASSUNG
100
AcDbTrace
 10
234.3828023089
 20
128.7405200433
 30
0.0
 11
233.9328023089
 21
125.7405200433
 31
0.0
 12
234.8328023089
 22
125.7405200433
 32
0.0
 13
234.8328023089
 23
125.7405200433
 33
0.0
  0
LINE
  5
203
330
1FE
100
AcDbEntity
  8
VERMASSUNG
100
AcDbLine
 10
218.2362826818
 20
84.7405200433
 30
0.0
 11
235.3828023089
 21
84.7405200433
 31
0.0
  0
LINE
  5
204
330
1FE
100
AcDbEntity
  8
VERMASSUNG
100
AcDbLine
 10
218.2362826818
 20
128.7405200433
 30
0.0
 11
235.3828023089
 21
128.7405200433
 31
0.0
  0
LINE
  5
205
330
1FE
100
AcDbEntity
  8
VERMASSUNG
100
AcDbLine
 10
234.3828023089
 20
84.7405200433
 30
0.0
 11
234.3828023089
 21
128.7405200433
 31
0.0
  0
MTEXT
  5
206
330
1FE
100
AcDbEntity
  8
VERMASSUNG
100
AcDbMText
 10
231.8046668294
 20
103.3372231853
 30
0.0
 40
2.0
 41
0.0
 71
     1
 72
     1
  1
%%c
  7
SLDTEXTSTYLE0
 11
6.123233995736766E-17
 21
1.0
 31
0.0
 73
     1
 44
1.0
  0
MTEXT
  5
207
330
1FE
100
AcDbEntity
  8
VERMASSUNG
100
AcDbMText
 10
231.8046669458
 20
106.9459014085
 30
0.0
 40
2.0
 41
0.0
 71
     1
 72
     1
  1
44
  7
SLDTEXTSTYLE0
 11
6.123233995736766E-17
 21
1.0
 31
0.0
 73
     1
 44
1.0
  0
ENDBLK
  5
200
330
1FE
100
AcDbEntity
  8
0
100
AcDbBlockEnd
  0
BLOCK
  5
20A
330
209
100
AcDbEntity
  8
0
100
AcDbBlockBegin
  2
*D5
 70
     1
 10
0.0
 20
0.0
 30
0.0
  3
*D5
  1

  0
SOLID
  5
20C
330
209
100
AcDbEntity
  8
VERMASSUNG
100
AcDbTrace
 10
240.3828023089
 20
80.7405200433
 30
0.0
 11
240.8328023089
 21
83.7405200433
 31
0.0
 12
239.9328023089
 22
83.7405200433
 32
0.0
 13
239.9328023089
 23
83.7405200433
 33
0.0
  0
SOLID
  5
20D
330
209
100
AcDbEntity
  8
VERMASSUNG
100
AcDbTrace
 10
240.3828023089
 20
132.7405200433
 30
0.0
 11
239.9328023089
 21
129.7405200433
 31
0.0
 12
240.8328023089
 22
129.7405200433
 32
0.0
 13
240.8328023089
 23
129.7405200433
 33
0.0
  0
LINE
  5
20E
330
209
100
AcDbEntity
  8
VERMASSUNG
100
AcDbLine
 10
160.2362826818
 20
80.7405200433
 30
0.0
 11
241.3828023089
 21
80.7405200433
 31
0.0
  0
LINE
  5
20F
330
209
100
AcDbEntity
  8
VERMASSUNG
100
AcDbLine
 10
160.2362826818
 20
132.7405200433
 30
0.0
 11
241.3828023089
 21
132.7405200433
 31
0.0
  0
LINE
  5
210
330
209
100
AcDbEntity
  8
VERMASSUNG
100
AcDbLine
 10
240.3828023089
 20
80.7405200433
 30
0.0
 11
240.3828023089
 21
132.7405200433
 31
0.0
  0
MTEXT
  5
211
330
209
100
AcDbEntity
  8
VERMASSUNG
100
AcDbMText
 10
237.8046668294
 20
103.5368028169
 30
0.0
 40
2.0
 41
0.0
 71
     1
 72
     1
  1
%%c
  7
SLDTEXTSTYLE0
 11
6.123233995736766E-17
 21
1.0
 31
0.0
 73
     1
 44
1.0
  0
MTEXT
  5
212
330
209
100
AcDbEntity
  8
VERMASSUNG
100
AcDbMText
 10
237.8046669458
 20
107.1454810401
 30
0.0
 40
2.0
 41
0.0
 71
     1
 72
     1
  1
52
  7
SLDTEXTSTYLE0
 11
6.123233995736766E-17
 21
1.0
 31
0.0
 73
     1
 44
1.0
  0
ENDBLK
  5
20B
330
209
100
AcDbEntity
  8
0
100
AcDbBlockEnd
  0
BLOCK
  5
215
330
214
100
AcDbEntity
  8
0
100
AcDbBlockBegin
  2
*D6
 70
     1
 10
0.0
 20
0.0
 30
0.0
  3
*D6
  1

  0
SOLID
  5
217
330
214
100
AcDbEntity
  8
VERMASSUNG
100
AcDbTrace
 10
103.2362826818
 20
152.6226435536
 30
0.0
 11
106.2362826818
 21
152.1726435536
 31
0.0
 12
106.2362826818
 22
153.0726435536
 32
0.0
 13
106.2362826818
 23
153.0726435536
 33
0.0
  0
SOLID
  5
218
330
214
100
AcDbEntity
  8
VERMASSUNG
100
AcDbTrace
 10
218.2362826818
 20
152.6226435536
 30
0.0
 11
215.2362826818
 21
153.0726435536
 31
0.0
 12
215.2362826818
 22
152.1726435536
 32
0.0
 13
215.2362826818
 23
152.1726435536
 33
0.0
  0
LINE
  5
219
330
214
100
AcDbEntity
  8
VERMASSUNG
100
AcDbLine
 10
103.2362826818
 20
137.9405200433
 30
0.0
 11
103.2362826818
 21
153.6226435536
 31
0.0
  0
LINE
  5
21A
330
214
100
AcDbEntity
  8
VERMASSUNG
100
AcDbLine
 10
218.2362826818
 20
126.4295438142
 30
0.0
 11
218.2362826818
 21
153.6226435536
 31
0.0
  0
LINE
  5
21B
330
214
100
AcDbEntity
  8
VERMASSUNG
100
AcDbLine
 10
103.2362826818
 20
152.6226435536
 30
0.0
 11
218.2362826818
 21
152.6226435536
 31
0.0
  0
MTEXT
  5
21C
330
214
100
AcDbEntity
  8
VERMASSUNG
100
AcDbMText
 10
159.0363747728
 20
155.2007789168
 30
0.0
 40
2.0
 41
0.0
 71
     1
 72
     1
  1
115
  7
SLDTEXTSTYLE0
 73
     1
 44
1.0
  0
ENDBLK
  5
216
330
214
100
AcDbEntity
  8
0
100
AcDbBlockEnd
  0
BLOCK
  5
21F
330
21E
100
AcDbEntity
  8
0
100
AcDbBlockBegin
  2
*D7
 70
     1
 10
0.0
 20
0.0
 30
0.0
  3
*D7
  1

  0
SOLID
  5
221
330
21E
100
AcDbEntity
  8
VERMASSUNG
100
AcDbTrace
 10
129.1862826818
 20
146.6226435536
 30
0.0
 11
132.1862826818
 21
146.1726435536
 31
0.0
 12
132.1862826818
 22
147.0726435536
 32
0.0
 13
132.1862826818
 23
147.0726435536
 33
0.0
  0
SOLID
  5
222
330
21E
100
AcDbEntity
  8
VERMASSUNG
100
AcDbTrace
 10
218.2362826818
 20
146.6226435536
 30
0.0
 11
215.2362826818
 21
147.0726435536
 31
0.0
 12
215.2362826818
 22
146.1726435536
 32
0.0
 13
215.2362826818
 23
146.1726435536
 33
0.0
  0
LINE
  5
223
330
21E
100
AcDbEntity
  8
VERMASSUNG
100
AcDbLine
 10
129.1862826818
 20
136.5869603671
 30
0.0
 11
129.1862826818
 21
147.6226435536
 31
0.0
  0
LINE
  5
224
330
21E
100
AcDbEntity
  8
VERMASSUNG
100
AcDbLine
 10
218.2362826818
 20
126.4295438142
 30
0.0
 11
218.2362826818
 21
147.6226435536
 31
0.0
  0
LINE
  5
225
330
21E
100
AcDbEntity
  8
VERMASSUNG
100
AcDbLine
 10
129.1862826818
 20
146.6226435536
 30
0.0
 11
218.2362826818
 21
146.6226435536
 31
0.0
  0
MTEXT
  5
226
330
21E
100
AcDbEntity
  8
VERMASSUNG
100
AcDbMText
 10
170.611996658
 20
149.2007789168
 30
0.0
 40
2.0
 41
0.0
 71
     1
 72
     1
  1
89.05
  7
SLDTEXTSTYLE0
 73
     1
 44
1.0
  0
ENDBLK
  5
220
330
21E
100
AcDbEntity
  8
0
100
AcDbBlockEnd
  0
BLOCK
  5
229
330
228
100
AcDbEntity
  8
0
100
AcDbBlockBegin
  2
*D8
 70
     1
 10
0.0
 20
0.0
 30
0.0
  3
*D8
  1

  0
SOLID
  5
22B
330
228
100
AcDbEntity
  8
VERMASSUNG
100
AcDbTrace
 10
71.3362826818
 20
158.6226435536
 30
0.0
 11
74.3362826818
 21
158.1726435536
 31
0.0
 12
74.3362826818
 22
159.0726435536
 32
0.0
 13
74.3362826818
 23
159.0726435536
 33
0.0
  0
SOLID
  5
22C
330
228
100
AcDbEntity
  8
VERMASSUNG
100
AcDbTrace
 10
218.2362826818
 20
158.6226435536
 30
0.0
 11
215.2362826818
 21
159.0726435536
 31
0.0
 12
215.2362826818
 22
158.1726435536
 32
0.0
 13
215.2362826818
 23
158.1726435536
 33
0.0
  0
LINE
  5
22D
330
228
100
AcDbEntity
  8
VERMASSUNG
100
AcDbLine
 10
71.3362826818
 20
126.4311977898
 30
0.0
 11
71.3362826818
 21
159.6226435536
 31
0.0
  0
LINE
  5
22E
330
228
100
AcDbEntity
  8
VERMASSUNG
100
AcDbLine
 10
218.2362826818
 20
126.4295438142
 30
0.0
 11
218.2362826818
 21
159.6226435536
 31
0.0
  0
LINE
  5
22F
330
228
100
AcDbEntity
  8
VERMASSUNG
100
AcDbLine
 10
71.3362826818
 20
158.6226435536
 30
0.0
 11
218.2362826818
 21
158.6226435536
 31
0.0
  0
MTEXT
  5
230
330
228
100
AcDbEntity
  8
VERMASSUNG
100
AcDbMText
 10
141.7867864738
 20
161.2007789168
 30
0.0
 40
2.0
 41
0.0
 71
     1
 72
     1
  1
146.9
  7
SLDTEXTSTYLE0
 73
     1
 44
1.0
  0
ENDBLK
  5
22A
330
228
100
AcDbEntity
  8
0
100
AcDbBlockEnd
  0
ENDSEC
  0
SECTION
  2
ENTITIES
  0
MTEXT
  5
45
330
1F
100
AcDbEntity
  8
KOPF_DÜNN
100
AcDbMText
 10
13.8892156294
 20
23.8442973028
 30
0.0
 40
3.0
 41
0.0
 71
     1
 72
     1
  1
HA6.S25.K21.115
  7
SLDTEXTSTYLE0
 73
     1
 44
1.0
  0
MTEXT
  5
46
330
1F
100
AcDbEntity
  8
VERMASSUNG
100
AcDbMText
 10
13.9329988022
 20
28.8834360957
 30
0.0
 40
3.0
 41
0.0
 71
     1
 72
     1
  1
Schrumpffutter_Heat shrink chuck
  7
SLDTEXTSTYLE0
 73
     1
 44
1.0
  0
MTEXT
  5
47
330
1F
100
AcDbEntity
  8
VERMASSUNG
100
AcDbMText
 10
98.8601118557
 20
13.8365368179
 30
0.0
 40
2.0
 41
0.0
 71
     1
 72
     1
  1
Datum: 28.04.2011
  7
SLDTEXTSTYLE0
 73
     1
 44
1.0
  0
MTEXT
  5
49
330
1F
100
AcDbEntity
  8
VERMASSUNG
100
AcDbMText
 10
13.933048693
 20
18.0482802738
 30
0.0
 40
2.0
 41
0.0
 71
     1
 72
     1
  1
DIN 69 893 HSK A 63
  7
SLDTEXTSTYLE1
 73
     1
 44
1.0
  0
MTEXT
  5
4A
330
1F
100
AcDbEntity
  8
VERMASSUNG
100
AcDbMText
 10
13.9808475933
 20
13.9090973692
 30
0.0
 40
2.0
 41
0.0
 71
     1
 72
     1
  1
Gewicht: 1742g
  7
SLDTEXTSTYLE0
 73
     1
 44
1.0
  0
LINE
  5
4B
330
1F
100
AcDbEntity
  8
0
  6
Continuous
 62
     7
370
    15
100
AcDbLine
 10
103.5362826818
 20
75.2405200433
 30
0.0
 11
108.1862826818
 21
75.2405200433
 31
0.0
  0
LINE
  5
4C
330
1F
100
AcDbEntity
  8
0
  6
Continuous
 62
     7
370
    15
100
AcDbLine
 10
108.1955907687
 20
138.2405200433
 30
0.0
 11
103.5362826818
 21
138.2405200433
 31
0.0
  0
ARC
  5
4D
330
1F
100
AcDbEntity
  8
0
  6
Continuous
 62
     7
370
    15
100
AcDbCircle
 10
103.5362826818
 20
75.5405200433
 30
0.0
 40
0.3000000000000114
100
AcDbArc
 50
180.0
 51
270.0
  0
ARC
  5
4E
330
1F
100
AcDbEntity
  8
0
  6
Continuous
 62
     7
370
    15
100
AcDbCircle
 10
103.5362826818
 20
137.9405200433
 30
0.0
 40
0.3000000000000114
100
AcDbArc
 50
90.0
 51
180.0
  0
ARC
  5
4F
330
1F
100
AcDbEntity
  8
0
  6
Continuous
 62
     7
370
    15
100
AcDbCircle
 10
130.1862826818
 20
79.7405200433
 30
0.0
 40
0.9999999999999858
100
AcDbArc
 50
90.0
 51
143.1139143113
  0
ARC
  5
50
330
1F
100
AcDbEntity
  8
0
  6
Continuous
 62
     7
370
    15
100
AcDbCircle
 10
130.1862826818
 20
133.7405200433
 30
0.0
 40
1.000000000000005
100
AcDbArc
 50
216.9057233334
 51
270.0
  0
LINE
  5
51
330
1F
100
AcDbEntity
  8
0
  6
Continuous
 62
     7
370
    15
100
AcDbLine
 10
167.4114637371
 20
80.7405200433
 30
0.0
 11
215.9324304212
 21
84.5592029381
 31
0.0
  0
LINE
  5
52
330
1F
100
AcDbEntity
  8
0
  6
Continuous
 62
     7
370
    15
100
AcDbLine
 10
215.9324304212
 20
128.9218371485
 30
0.0
 11
167.4114637371
 21
132.7405200433
 31
0.0
  0
LINE
  5
53
330
1F
100
AcDbEntity
  8
0
  6
Continuous
 62
     7
370
    15
100
AcDbLine
 10
156.6743796208
 20
80.7405200433
 30
0.0
 11
167.4114637371
 21
80.7405200433
 31
0.0
  0
LINE
  5
54
330
1F
100
AcDbEntity
  8
0
  6
Continuous
 62
     7
370
    15
100
AcDbLine
 10
130.1862826818
 20
80.7405200433
 30
0.0
 11
149.6888635536
 21
80.7405200433
 31
0.0
  0
LINE
  5
55
330
1F
100
AcDbEntity
  8
0
  6
Continuous
 62
     7
370
    15
100
AcDbLine
 10
149.6975587645
 20
132.7405200433
 30
0.0
 11
130.1862826818
 21
132.7405200433
 31
0.0
  0
LINE
  5
56
330
1F
100
AcDbEntity
  8
0
  6
Continuous
 62
     7
370
    15
100
AcDbLine
 10
167.4114637371
 20
132.7405200433
 30
0.0
 11
156.6849339872
 21
132.7405200433
 31
0.0
  0
ARC
  5
57
330
1F
100
AcDbEntity
  8
0
  6
Continuous
 62
     7
370
    15
100
AcDbCircle
 10
102.7362759292
 20
82.1700824289
 30
0.0
 40
0.6000067526677164
100
AcDbArc
 50
33.5571153394
 51
90.0
  0
ARC
  5
58
330
1F
100
AcDbEntity
  8
0
  6
Continuous
 62
     7
370
    15
100
AcDbCircle
 10
102.7362759292
 20
131.3109576577
 30
0.0
 40
0.6000067526677242
100
AcDbArc
 50
270.0
 51
326.4428846606
  0
LINE
  5
59
330
1F
100
AcDbEntity
  8
0
  6
Continuous
 62
     7
370
    15
100
AcDbLine
 10
101.2362826818
 20
82.5200891816
 30
0.0
 11
102.0929954552
 21
82.7496446774
 31
0.0
  0
LINE
  5
5A
330
1F
100
AcDbEntity
  8
0
  6
Continuous
 62
     7
370
    15
100
AcDbLine
 10
102.0929954552
 20
130.7313954093
 30
0.0
 11
101.2362826818
 21
130.9609509051
 31
0.0
  0
LINE
  5
5B
330
1F
100
AcDbEntity
  8
0
  6
Continuous
 62
     7
370
    15
100
AcDbLine
 10
90.0058604993
 20
130.3983045031
 30
0.0
 11
77.4362826818
 21
129.7685661355
 31
0.0
  0
LINE
  5
5C
330
1F
100
AcDbEntity
  8
0
  6
Continuous
 62
     7
370
    15
100
AcDbLine
 10
101.2362826818
 20
130.9609509051
 30
0.0
 11
98.4176733243
 21
130.8197380114
 31
0.0
  0
LINE
  5
5D
330
1F
100
AcDbEntity
  8
0
  6
Continuous
 62
     7
370
    15
100
AcDbLine
 10
98.4178947995
 20
82.6612909793
 30
0.0
 11
101.2362826818
 21
82.5200891816
 31
0.0
  0
LINE
  5
5E
330
1F
100
AcDbEntity
  8
0
  6
Continuous
 62
     7
370
    15
100
AcDbLine
 10
81.4362826818
 20
83.5120731495
 30
0.0
 11
90.006559451
 21
83.0827005659
 31
0.0
  0
ARC
  5
5F
330
1F
100
AcDbEntity
  8
0
  6
Continuous
 62
     7
370
    15
100
AcDbCircle
 10
102.2482868823
 20
82.1700891816
 30
0.0
 40
0.6000000000000071
100
AcDbArc
 50
90.0
 51
105.0
  0
ARC
  5
60
330
1F
100
AcDbEntity
  8
0
  6
Continuous
 62
     7
370
    15
100
AcDbCircle
 10
102.2482868823
 20
131.3109509051
 30
0.0
 40
0.6000000000000227
100
AcDbArc
 50
255.0
 51
270.0
  0
LINE
  5
61
330
1F
100
AcDbEntity
  8
0
  6
Continuous
 62
     7
370
    15
100
AcDbLine
 10
102.2482868823
 20
82.7700891816
 30
0.0
 11
102.7362759292
 21
82.7700891816
 31
0.0
  0
LINE
  5
62
330
1F
100
AcDbEntity
  8
0
  6
Continuous
 62
     7
370
    15
100
AcDbLine
 10
102.7362759292
 20
130.7109509051
 30
0.0
 11
102.2482868823
 21
130.7109509051
 31
0.0
  0
ARC
  5
63
330
1F
100
AcDbEntity
  8
0
  6
Continuous
 62
     7
370
    15
100
AcDbCircle
 10
215.7362826818
 20
87.0514962725
 30
0.0
 40
2.5
100
AcDbArc
 50
274.5
 51
0.0
  0
ARC
  5
64
330
1F
100
AcDbEntity
  8
0
  6
Continuous
 62
     7
370
    15
100
AcDbCircle
 10
215.7362826818
 20
126.4295438142
 30
0.0
 40
2.5
100
AcDbArc
 50
0.0
 51
85.5
  0
LINE
  5
65
330
1F
100
AcDbEntity
  8
0
  6
Continuous
 62
     7
370
    15
100
AcDbLine
 10
72.6196193218
 20
85.8705200433
 30
0.0
 11
80.0362826818
 21
85.8705200433
 31
0.0
  0
ARC
  5
66
330
1F
100
AcDbEntity
  8
0
  6
Continuous
 62
     7
370
    15
100
AcDbCircle
 10
80.0362826818
 20
84.4705200433
 30
0.0
 40
1.400000000000006
100
AcDbArc
 50
42.2465410162
 51
90.0
  0
LINE
  5
67
330
1F
100
AcDbEntity
  8
0
  6
Continuous
 62
     7
370
    15
100
AcDbLine
 10
71.3474431169
 20
87.0093596082
 30
0.0
 11
72.47744614
 21
85.8793565852
 31
0.0
  0
LINE
  5
68
330
1F
100
AcDbEntity
  8
0
  6
Continuous
 62
     7
370
    15
100
AcDbLine
 10
72.47744614
 20
127.6016835015
 30
0.0
 11
71.3461834552
 21
126.4704208167
 31
0.0
  0
ARC
  5
69
330
1F
100
AcDbEntity
  8
0
  6
Continuous
 62
     7
370
    15
100
AcDbCircle
 10
76.0362826818
 20
129.0105200433
 30
0.0
 40
1.399999999999984
100
AcDbArc
 50
270.0
 51
301.7485287426
  0
LINE
  5
6A
330
1F
100
AcDbEntity
  8
0
  6
Continuous
 62
     7
370
    15
100
AcDbLine
 10
76.0362826818
 20
127.6105200433
 30
0.0
 11
72.6271710832
 21
127.6105200433
 31
0.0
  0
LINE
  5
6B
330
1F
100
AcDbEntity
  8
0
  6
Continuous
 62
     7
370
    15
100
AcDbLine
 10
218.2602311694
 20
125.350821314
 30
0.0
 11
218.2362826818
 21
125.396339902
 31
0.0
  0
LINE
  5
6C
330
1F
100
AcDbEntity
  8
0
  6
Continuous
 62
     7
370
    15
100
AcDbLine
 10
218.2362826818
 20
87.9385439576
 30
0.0
 11
218.338750801
 21
88.1333038174
 31
0.0
  0
SPLINE
  5
6D
330
1F
100
AcDbEntity
  8
0
  6
Continuous
 62
     7
370
    15
100
AcDbSpline
210
0.0
220
0.0
230
1.0
 70
     8
 71
     3
 72
    70
 73
    66
 74
     0
 42
0.00000001
 43
0.00000001
 40
-0.0312500000000001
 40
-0.0312500000000001
 40
0.0
 40
0.0
 40
0.0312499999999998
 40
0.0312499999999998
 40
0.0624999999999996
 40
0.0624999999999996
 40
0.0937499999999995
 40
0.0937499999999995
 40
0.1249999999999993
 40
0.1249999999999993
 40
0.1562499999999991
 40
0.1562499999999991
 40
0.1874999999999989
 40
0.1874999999999989
 40
0.2187499999999987
 40
0.2187499999999987
 40
0.2499999999999986
 40
0.2499999999999986
 40
0.2812499999999986
 40
0.2812499999999986
 40
0.3124999999999985
 40
0.3124999999999985
 40
0.3437499999999985
 40
0.3437499999999985
 40
0.3749999999999985
 40
0.3749999999999985
 40
0.4062499999999985
 40
0.4062499999999985
 40
0.4374999999999984
 40
0.4374999999999984
 40
0.4687499999999984
 40
0.4687499999999984
 40
0.4999999999999984
 40
0.4999999999999984
 40
0.5312499999999984
 40
0.5312499999999984
 40
0.5624999999999986
 40
0.5624999999999986
 40
0.5937499999999986
 40
0.5937499999999986
 40
0.6249999999999986
 40
0.6249999999999986
 40
0.6562499999999987
 40
0.6562499999999987
 40
0.6874999999999987
 40
0.6874999999999987
 40
0.7187499999999988
 40
0.7187499999999988
 40
0.7499999999999988
 40
0.7499999999999988
 40
0.7812499999999989
 40
0.7812499999999989
 40
0.8124999999999991
 40
0.8124999999999991
 40
0.8437499999999992
 40
0.8437499999999992
 40
0.8749999999999993
 40
0.8749999999999993
 40
0.9062499999999996
 40
0.9062499999999996
 40
0.9374999999999997
 40
0.9374999999999997
 40
0.9687499999999999
 40
0.9687499999999999
 40
1.0
 40
1.0
 40
1.03125
 40
1.03125
 10
110.9717373431706
 20
131.7994834381161
 30
0.0
 10
111.5008280204909
 20
131.7994834381161
 30
0.0
 10
111.760898687868
 20
131.815383878531
 30
0.0
 10
112.2724733677034
 20
131.8773282287052
 30
0.0
 10
112.5266486514436
 20
131.9241304627965
 30
0.0
 10
113.0109192815053
 20
132.0451074462516
 30
0.0
 10
113.2405603733864
 20
132.1187097740584
 30
0.0
 10
113.6751647216199
 20
132.2905340450365
 30
0.0
 10
113.8807304982666
 20
132.3895374679639
 30
0.0
 10
114.2492876388618
 20
132.6026338818768
 30
0.0
 10
114.4147686215973
 20
132.7175335980065
 30
0.0
 10
114.7071931310324
 20
132.9629004966968
 30
0.0
 10
114.8312941076589
 20
133.091340397167
 30
0.0
 10
115.0308733044086
 20
133.352232545253
 30
0.0
 10
115.1078068902669
 20
133.4866137165924
 30
0.0
 10
115.2106639487872
 20
133.7559336676988
 30
0.0
 10
115.2361368582464
 20
133.8886149319169
 30
0.0
 10
115.2364272688141
 20
134.1498014060479
 30
0.0
 10
115.2104026350384
 20
134.2795664442127
 30
0.0
 10
115.1082543505464
 20
134.5251490784853
 30
0.0
 10
115.0326779029632
 20
134.6418106157942
 30
0.0
 10
114.8321803718183
 20
134.8637158059487
 30
0.0
 10
114.7070515303099
 20
134.9683270598717
 30
0.0
 10
114.4176927292883
 20
135.1583734714798
 30
0.0
 10
114.2522817422329
 20
135.2451331429295
 30
0.0
 10
113.879291184085
 20
135.402637518681
 30
0.0
 10
113.6775581509959
 20
135.4709627834683
 30
0.0
 10
113.2446989001681
 20
135.5891925070875
 30
0.0
 10
113.0107803672787
 20
135.6394874231913
 30
0.0
 10
112.5265966321361
 20
135.719352960081
 30
0.0
 10
112.2772810061806
 20
135.7490940878806
 30
0.0
 10
111.7642484817528
 20
135.7892468293888
 30
0.0
 10
111.4989546588482
 20
135.7994450987986
 30
0.0
 10
110.9766200389785
 20
135.7995215571833
 30
0.0
 10
110.7168663764967
 20
135.7897305455743
 30
0.0
 10
110.2002545608515
 20
135.7496637068355
 30
0.0
 10
109.9478885203512
 20
135.7195665399787
 30
0.0
 10
109.4663633988184
 20
135.6403443301485
 30
0.0
 10
109.2335126667048
 20
135.5905868506852
 30
0.0
 10
108.7964228182661
 20
135.4714949082348
 30
0.0
 10
108.5951018296089
 20
135.4031796466875
 30
0.0
 10
108.226015804309
 20
135.2477786797539
 30
0.0
 10
108.0570310532573
 20
135.159626337687
 30
0.0
 10
107.7665749965981
 20
134.9691869485707
 30
0.0
 10
107.6435031852359
 20
134.8665623708716
 30
0.0
 10
107.4421669438139
 20
134.6449220242635
 30
0.0
 10
107.3649543978717
 20
134.526167948716
 30
0.0
 10
107.2627508549716
 20
134.2815020097983
 30
0.0
 10
107.2365225035193
 20
134.1543452843497
 30
0.0
 10
107.2360461042022
 20
133.8898971384942
 30
0.0
 10
107.2617885167002
 20
133.756996458237
 30
0.0
 10
107.363099293064
 20
133.490204184755
 30
0.0
 10
107.439931932455
 20
133.3548402832864
 30
0.0
 10
107.6403357716702
 20
133.0922604879839
 30
0.0
 10
107.7630072699622
 20
132.9652853282301
 30
0.0
 10
108.0529545591264
 20
132.7212059421477
 30
0.0
 10
108.2215255384917
 20
132.6037808173938
 30
0.0
 10
108.5897951326048
 20
132.3905843564454
 30
0.0
 10
108.7908569898751
 20
132.2934102380205
 30
0.0
 10
109.22788790846
 20
132.1200553508064
 30
0.0
 10
109.4600361215897
 20
132.0456557991496
 30
0.0
 10
109.9410464030885
 20
131.925202919645
 30
0.0
 10
110.193146485919
 20
131.878344544379
 30
0.0
 10
110.710215972178
 20
131.8153870473953
 30
0.0
 10
110.9717373431706
 20
131.7994834381161
 30
0.0
 10
111.5008280204909
 20
131.7994834381161
 30
0.0
  0
SPLINE
  5
6E
330
1F
100
AcDbEntity
  8
0
  6
Continuous
 62
     7
370
    15
100
AcDbSpline
210
0.0
220
0.0
230
1.0
 70
     8
 71
     3
 72
    70
 73
    66
 74
     0
 42
0.00000001
 43
0.00000001
 40
-0.0312499999999999
 40
-0.0312499999999999
 40
0.0
 40
0.0
 40
0.0312500000000001
 40
0.0312500000000001
 40
0.0625000000000002
 40
0.0625000000000002
 40
0.0937500000000003
 40
0.0937500000000003
 40
0.1250000000000004
 40
0.1250000000000004
 40
0.1562500000000006
 40
0.1562500000000006
 40
0.1875000000000007
 40
0.1875000000000007
 40
0.2187500000000008
 40
0.2187500000000008
 40
0.2500000000000009
 40
0.2500000000000009
 40
0.281250000000001
 40
0.281250000000001
 40
0.3125000000000011
 40
0.3125000000000011
 40
0.3437500000000012
 40
0.3437500000000012
 40
0.3750000000000013
 40
0.3750000000000013
 40
0.4062500000000014
 40
0.4062500000000014
 40
0.4375000000000016
 40
0.4375000000000016
 40
0.4687500000000017
 40
0.4687500000000017
 40
0.5000000000000018
 40
0.5000000000000018
 40
0.5312500000000017
 40
0.5312500000000017
 40
0.5625000000000016
 40
0.5625000000000016
 40
0.5937500000000014
 40
0.5937500000000014
 40
0.6250000000000013
 40
0.6250000000000013
 40
0.6562500000000012
 40
0.6562500000000012
 40
0.6875000000000011
 40
0.6875000000000011
 40
0.718750000000001
 40
0.718750000000001
 40
0.7500000000000009
 40
0.7500000000000009
 40
0.7812500000000008
 40
0.7812500000000008
 40
0.8125000000000007
 40
0.8125000000000007
 40
0.8437500000000006
 40
0.8437500000000006
 40
0.8750000000000004
 40
0.8750000000000004
 40
0.9062500000000003
 40
0.9062500000000003
 40
0.9375000000000002
 40
0.9375000000000002
 40
0.9687500000000001
 40
0.9687500000000001
 40
1.0
 40
1.0
 40
1.03125
 40
1.03125
 10
110.9717373431706
 20
117.3614269293203
 30
0.0
 10
111.5008280204909
 20
117.3614269293203
 30
0.0
 10
111.760898687868
 20
117.3861042241055
 30
0.0
 10
112.2724733677034
 20
117.4825758971474
 30
0.0
 10
112.5266486514436
 20
117.5555568131275
 30
0.0
 10
113.0109192815053
 20
117.7452974160661
 30
0.0
 10
113.2405603733864
 20
117.8611580744599
 30
0.0
 10
113.6751647216199
 20
118.1337759204176
 30
0.0
 10
113.8807304982666
 20
118.2918150024713
 30
0.0
 10
114.2492876388618
 20
118.635357853442
 30
0.0
 10
114.4147686215973
 20
118.8221202975437
 30
0.0
 10
114.7071931310324
 20
119.2256634719405
 30
0.0
 10
114.8312941076589
 20
119.4391604683696
 30
0.0
 10
115.0308733044086
 20
119.8785437822921
 30
0.0
 10
115.1078068902669
 20
120.1076837694377
 30
0.0
 10
115.2106639487872
 20
120.5736578921978
 30
0.0
 10
115.2361368582464
 20
120.8065403378739
 30
0.0
 10
115.2364272688141
 20
121.2719378729537
 30
0.0
 10
115.2104026350384
 20
121.5068136303481
 30
0.0
 10
115.1082543505464
 20
121.9583067775943
 30
0.0
 10
115.0326779029632
 20
122.1763532530057
 30
0.0
 10
114.8321803718183
 20
122.5974477780435
 30
0.0
 10
114.7070515303099
 20
122.7993691625618
 30
0.0
 10
114.4176927292883
 20
123.1713986450808
 30
0.0
 10
114.2522817422329
 20
123.3440269486611
 30
0.0
 10
113.879291184085
 20
123.6613449532071
 30
0.0
 10
113.6775581509959
 20
123.8011318867088
 30
0.0
 10
113.2446989001681
 20
124.0453081402606
 30
0.0
 10
113.0107803672787
 20
124.150537651302
 30
0.0
 10
112.5265966321361
 20
124.3186947976772
 30
0.0
 10
112.2772810061806
 20
124.381945688271
 30
0.0
 10
111.7642484817528
 20
124.4675248973736
 30
0.0
 10
111.4989546588482
 20
124.4893970622961
 30
0.0
 10
110.9766200389785
 20
124.48956071194
 30
0.0
 10
110.7168663764967
 20
124.468559019844
 30
0.0
 10
110.2002545608515
 20
124.3831566647663
 30
0.0
 10
109.9478885203512
 20
124.3191504814794
 30
0.0
 10
109.4663633988184
 20
124.1523359614382
 30
0.0
 10
109.2335126667048
 20
124.048202798039
 30
0.0
 10
108.7964228182661
 20
123.8022161455441
 30
0.0
 10
108.5951018296089
 20
123.6624663145952
 30
0.0
 10
108.226015804309
 20
123.3493282448706
 30
0.0
 10
108.0570310532573
 20
123.1738720856005
 30
0.0
 10
107.7665749965981
 20
122.8010318215003
 30
0.0
 10
107.6435031852359
 20
122.6029100113894
 30
0.0
 10
107.4421669438139
 20
122.1821986686557
 30
0.0
 10
107.3649543978717
 20
121.9602086479882
 30
0.0
 10
107.2627508549716
 20
121.5103437082798
 30
0.0
 10
107.2365225035193
 20
121.280088295163
 30
0.0
 10
107.2360461042022
 20
120.808772352614
 30
0.0
 10
107.2617885167002
 20
120.5755349368998
 30
0.0
 10
107.363099293064
 20
120.1138583974018
 30
0.0
 10
107.439931932455
 20
119.8829610102896
 30
0.0
 10
107.6403357716702
 20
119.440684996498
 30
0.0
 10
107.7630072699622
 20
119.2296225652121
 30
0.0
 10
108.0529545591264
 20
118.8281240544794
 30
0.0
 10
108.2215255384916
 20
118.6372175324035
 30
0.0
 10
108.5897951326048
 20
118.2934922004064
 30
0.0
 10
108.7908569898751
 20
118.1383550141923
 30
0.0
 10
109.22788790846
 20
117.8632776541126
 30
0.0
 10
109.4600361215897
 20
117.7461614246906
 30
0.0
 10
109.9410464030885
 20
117.557234939626
 30
0.0
 10
110.1931464859189
 20
117.4841599692318
 30
0.0
 10
110.710215972178
 20
117.3861079100973
 30
0.0
 10
110.9717373431706
 20
117.3614269293203
 30
0.0
 10
111.5008280204909
 20
117.3614269293203
 30
0.0
  0
LINE
  5
6F
330
1F
100
AcDbEntity
  8
0
  6
Continuous
 62
     7
370
    15
100
AcDbLine
 10
108.1862826818
 20
126.5905200433
 30
0.0
 11
117.8443498503
 21
126.5905200433
 31
0.0
  0
LINE
  5
70
330
1F
100
AcDbEntity
  8
0
  6
Continuous
 62
     7
370
    15
100
AcDbLine
 10
117.8443498503
 20
76.5536023471
 30
0.0
 11
117.8443498503
 21
126.5905200433
 31
0.0
  0
LINE
  5
71
330
1F
100
AcDbEntity
  8
0
  6
Continuous
 62
     7
370
    15
100
AcDbLine
 10
117.8443498503
 20
76.5536023471
 30
0.0
 11
116.1862826818
 21
76.5536023471
 31
0.0
  0
SPLINE
  5
72
330
1F
100
AcDbEntity
  8
0
  6
Continuous
 62
     7
370
    15
100
AcDbSpline
210
0.0
220
0.0
230
1.0
 70
     8
 71
     3
 72
    28
 73
    24
 74
     0
 42
0.00000001
 43
0.00000001
 40
0.0
 40
0.0
 40
0.0
 40
0.0
 40
0.1250000000000001
 40
0.1250000000000001
 40
0.1875000000000001
 40
0.1875000000000001
 40
0.2500000000000001
 40
0.2500000000000001
 40
0.3749999999999999
 40
0.3749999999999999
 40
0.4375
 40
0.4375
 40
0.4999999999999999
 40
0.4999999999999999
 40
0.6249999999999999
 40
0.6249999999999999
 40
0.7499999999999997
 40
0.7499999999999997
 40
0.8124999999999998
 40
0.8124999999999998
 40
0.8749999999999998
 40
0.8749999999999998
 40
1.0
 40
1.0
 40
1.0
 40
1.0
 10
116.1862826818307
 20
76.55360234708982
 30
0.0
 10
115.6545749243378
 20
76.55360234708982
 30
0.0
 10
115.1323363590275
 20
76.53781763313962
 30
0.0
 10
114.3624658727525
 20
76.49282221906343
 30
0.0
 10
114.1081063005611
 20
76.47426722398768
 30
0.0
 10
113.6039847198626
 20
76.43041450154116
 30
0.0
 10
113.3542619024347
 20
76.40506989458898
 30
0.0
 10
112.6286719509883
 20
76.32166781683888
 30
0.0
 10
112.1703116894067
 20
76.2558022576878
 30
0.0
 10
111.5198137460129
 20
76.146831917196
 30
0.0
 10
111.3081316952204
 20
76.10859228142935
 30
0.0
 10
110.9040602060824
 20
76.03083354401
 30
0.0
 10
110.7115536922615
 20
75.99133258183463
 30
0.0
 10
110.1617187212402
 20
75.87242483946864
 30
0.0
 10
109.8317899429314
 20
75.79260715804404
 30
0.0
 10
109.2473186743628
 20
75.63926399624798
 30
0.0
 10
109.0010415363493
 20
75.56793024297873
 30
0.0
 10
108.7011987436512
 20
75.47398673590409
 30
0.0
 10
108.6127418865791
 20
75.44479294254417
 30
0.0
 10
108.4593805332739
 20
75.39132636828074
 30
0.0
 10
108.3942923190477
 20
75.36696703400557
 30
0.0
 10
108.2386983031069
 20
75.30337688856085
 30
0.0
 10
108.1862826818307
 20
75.27327395347159
 30
0.0
 10
108.1862826818307
 20
75.25639706047465
 30
0.0
  0
LINE
  5
73
330
1F
100
AcDbEntity
  8
0
  6
Continuous
 62
     7
370
    15
100
AcDbLine
 10
108.1862826818
 20
75.2563970605
 30
0.0
 11
108.1862826818
 21
75.2405200433
 31
0.0
  0
SPLINE
  5
74
330
1F
100
AcDbEntity
  8
0
  6
Continuous
 62
     7
370
    15
100
AcDbSpline
210
0.0
220
0.0
230
1.0
 70
     8
 71
     3
 72
    22
 73
    18
 74
     0
 42
0.00000001
 43
0.00000001
 40
0.0
 40
0.0
 40
0.0
 40
0.0
 40
0.0515773377536172
 40
0.1565264849943629
 40
0.2100197540385886
 40
0.2615951369298746
 40
0.3664424119934943
 40
0.4198226601719804
 40
0.4724528789006786
 40
0.5794488992297344
 40
0.6339397336480286
 40
0.6872670452602943
 40
0.7409741315029978
 40
0.7958968813361827
 40
0.8512481408256359
 40
0.9034470736265863
 40
1.0
 40
1.0
 40
1.0
 40
1.0
 10
116.1862826818307
 20
137.2077155165013
 30
0.0
 10
115.9694724858283
 20
137.2091121375697
 30
0.0
 10
115.3114986669135
 20
137.213350591826
 30
0.0
 10
114.4364036895826
 20
137.2528829161803
 30
0.0
 10
113.5915781947257
 20
137.3158561630222
 30
0.0
 10
112.7718529111215
 20
137.3938701962773
 30
0.0
 10
111.9960629330931
 20
137.4907533241525
 30
0.0
 10
111.2785744717866
 20
137.5990127360685
 30
0.0
 10
110.5993097246145
 20
137.7127311083729
 30
0.0
 10
109.9909947467056
 20
137.8292312933137
 30
0.0
 10
109.4709028059824
 20
137.9383315447307
 30
0.0
 10
109.1270126282663
 20
138.0143354424608
 30
0.0
 10
108.8320589005388
 20
138.0823688983824
 30
0.0
 10
108.5862846131976
 20
138.141081949141
 30
0.0
 10
108.4003823042242
 20
138.1866973290747
 30
0.0
 10
108.2287856985005
 20
138.2296567806352
 30
0.0
 10
108.2086564233242
 20
138.2348178024373
 30
0.0
 10
108.1955907686505
 20
138.2381677555796
 30
0.0
  0
LINE
  5
75
330
1F
100
AcDbEntity
  8
0
  6
Continuous
 62
     7
370
    15
100
AcDbLine
 10
117.8443498503
 20
137.2077155165
 30
0.0
 11
116.1862826818
 21
137.2077155165
 31
0.0
  0
LINE
  5
76
330
1F
100
AcDbEntity
  8
0
  6
Continuous
 62
     7
370
    15
100
AcDbLine
 10
117.8443498503
 20
131.1992097057
 30
0.0
 11
117.8443498503
 21
137.2077155165
 31
0.0
  0
LINE
  5
77
330
1F
100
AcDbEntity
  8
0
  6
Continuous
 62
     7
370
    15
100
AcDbLine
 10
115.4319030275
 20
131.1992097057
 30
0.0
 11
117.8443498503
 21
131.1992097057
 31
0.0
  0
SPLINE
  5
78
330
1F
100
AcDbEntity
  8
0
  6
Continuous
 62
     7
370
    15
100
AcDbSpline
210
0.0
220
0.0
230
1.0
 70
     8
 71
     3
 72
    20
 73
    16
 74
     0
 42
0.00000001
 43
0.00000001
 40
0.0
 40
0.0
 40
0.0
 40
0.0
 40
0.2499999999999997
 40
0.2499999999999997
 40
0.3749999999999997
 40
0.3749999999999997
 40
0.4999999999999998
 40
0.4999999999999998
 40
0.6249999999999998
 40
0.6249999999999998
 40
0.7499999999999999
 40
0.7499999999999999
 40
0.8749999999999999
 40
0.8749999999999999
 40
1.0
 40
1.0
 40
1.0
 40
1.0
 10
108.1862826818307
 20
126.590520043337
 30
0.0
 10
108.4346564161188
 20
127.2443824716344
 30
0.0
 10
108.754226508464
 20
127.8481682536315
 30
0.0
 10
109.3765327416687
 20
128.6750069898002
 30
0.0
 10
109.6079570020995
 20
128.9374356277531
 30
0.0
 10
110.1291713417492
 20
129.434098281858
 30
0.0
 10
110.4157918243843
 20
129.6646851608796
 30
0.0
 10
111.0352765656919
 20
130.0812393854622
 30
0.0
 10
111.3695769451788
 20
130.2687371874297
 30
0.0
 10
112.0948374178036
 20
130.6001341650661
 30
0.0
 10
112.4767524751941
 20
130.7396381525614
 30
0.0
 10
113.2715406513658
 20
130.9650916600323
 30
0.0
 10
113.6856988455722
 20
131.051717771576
 30
0.0
 10
114.5512451861536
 20
131.1696985604301
 30
0.0
 10
114.9891328011654
 20
131.1992097057044
 30
0.0
 10
115.43190302752
 20
131.1992097057044
 30
0.0
  0
LINE
  5
79
330
1F
100
AcDbEntity
  8
0
  6
Continuous
 62
     7
370
    15
100
AcDbLine
 10
119.3262826818
 20
79.2426828843
 30
0.0
 11
119.3262826818
 21
126.5905200433
 31
0.0
  0
SPLINE
  5
7A
330
1F
100
AcDbEntity
  8
0
  6
Continuous
 62
     7
370
    15
100
AcDbSpline
210
0.0
220
0.0
230
1.0
 70
     8
 71
     3
 72
     8
 73
     4
 74
     0
 42
0.00000001
 43
0.00000001
 40
0.0
 40
0.0
 40
0.0
 40
0.0
 40
1.0
 40
1.0
 40
1.0
 40
1.0
 10
119.3262826818307
 20
79.24268288428213
 30
0.0
 10
118.8339435590496
 20
78.34541285007543
 30
0.0
 10
118.3398295110074
 20
77.44912843502317
 30
0.0
 10
117.8443498503417
 20
76.55360234708982
 30
0.0
  0
SPLINE
  5
7B
330
1F
100
AcDbEntity
  8
0
  6
Continuous
 62
     7
370
    15
100
AcDbSpline
210
0.0
220
0.0
230
1.0
 70
    24
 71
     3
 72
     8
 73
     4
 74
     0
 42
0.00000001
 43
0.00000001
 40
0.0
 40
0.0
 40
0.0
 40
0.0
 40
1.0
 40
1.0
 40
1.0
 40
1.0
 10
117.8443498503417
 20
126.590520043337
 30
0.0
 10
118.3510299584922
 20
126.590520043337
 30
0.0
 10
118.8463306874658
 20
126.590520043337
 30
0.0
 10
119.3262826818307
 20
126.590520043337
 30
0.0
  0
LINE
  5
7C
330
1F
100
AcDbEntity
  8
0
  6
Continuous
 62
     7
370
    15
100
AcDbLine
 10
124.6282155133
 20
76.5536023471
 30
0.0
 11
124.6282155133
 21
126.5905200433
 31
0.0
  0
SPLINE
  5
7D
330
1F
100
AcDbEntity
  8
0
  6
Continuous
 62
     7
370
    15
100
AcDbSpline
210
0.0
220
0.0
230
1.0
 70
     8
 71
     3
 72
     8
 73
     4
 74
     0
 42
0.00000001
 43
0.00000001
 40
0.0
 40
0.0
 40
0.0
 40
0.0
 40
1.0
 40
1.0
 40
1.0
 40
1.0
 10
124.6282155133198
 20
76.55360234708982
 30
0.0
 10
124.132735852654
 20
77.44912843502318
 30
0.0
 10
123.6386218046119
 20
78.34541285007543
 30
0.0
 10
123.1462826818307
 20
79.24268288428213
 30
0.0
  0
LINE
  5
7E
330
1F
100
AcDbEntity
  8
0
  6
Continuous
 62
     7
370
    15
100
AcDbLine
 10
123.1462826818
 20
79.2426828843
 30
0.0
 11
123.1462826818
 21
126.5905200433
 31
0.0
  0
SPLINE
  5
7F
330
1F
100
AcDbEntity
  8
0
  6
Continuous
 62
     7
370
    15
100
AcDbSpline
210
0.0
220
0.0
230
1.0
 70
    24
 71
     3
 72
     8
 73
     4
 74
     0
 42
0.00000001
 43
0.00000001
 40
0.0
 40
0.0
 40
0.0
 40
0.0
 40
1.0
 40
1.0
 40
1.0
 40
1.0
 10
123.1462826818307
 20
126.590520043337
 30
0.0
 10
123.6262346761956
 20
126.590520043337
 30
0.0
 10
124.1215354051693
 20
126.590520043337
 30
0.0
 10
124.6282155133198
 20
126.590520043337
 30
0.0
  0
LINE
  5
80
330
1F
100
AcDbEntity
  8
0
  6
Continuous
 62
     7
370
    15
100
AcDbLine
 10
103.2362826818
 20
75.5405200433
 30
0.0
 11
103.2362826818
 21
137.9405200342
 31
0.0
  0
LINE
  5
81
330
1F
100
AcDbEntity
  8
0
  6
Continuous
 62
     7
370
    15
100
AcDbLine
 10
128.5862826818
 20
76.5536023471
 30
0.0
 11
124.6282155133
 21
76.5536023471
 31
0.0
  0
LINE
  5
82
330
1F
100
AcDbEntity
  8
0
  6
Continuous
 62
     7
370
    15
100
AcDbLine
 10
124.6282155133
 20
126.5905200433
 30
0.0
 11
128.5862826818
 21
126.5905200433
 31
0.0
  0
LINE
  5
83
330
1F
100
AcDbEntity
  8
0
  6
Continuous
 62
     7
370
    15
100
AcDbLine
 10
129.1862826818
 20
77.1802426427
 30
0.0
 11
129.1862826818
 21
126.5905200433
 31
0.0
  0
SPLINE
  5
84
330
1F
100
AcDbEntity
  8
0
  6
Continuous
 62
     7
370
    15
100
AcDbSpline
210
0.0
220
0.0
230
1.0
 70
     8
 71
     3
 72
    10
 73
     6
 74
     0
 42
0.00000001
 43
0.00000001
 40
0.0
 40
0.0
 40
0.0
 40
0.0
 40
0.5
 40
0.5
 40
1.0
 40
1.0
 40
1.0
 40
1.0
 10
129.1862826818307
 20
77.18024264274415
 30
0.0
 10
129.1862826818307
 20
77.02035537455049
 30
0.0
 10
129.1249730305949
 20
76.85922811903588
 30
0.0
 10
128.9058733930598
 20
76.62512912068105
 30
0.0
 10
128.7478251867463
 20
76.55360234708982
 30
0.0
 10
128.5862826818307
 20
76.55360234708982
 30
0.0
  0
SPLINE
  5
85
330
1F
100
AcDbEntity
  8
0
  6
Continuous
 62
     7
370
    15
100
AcDbSpline
210
0.0
220
0.0
230
1.0
 70
    24
 71
     3
 72
    12
 73
     8
 74
     0
 42
0.00000001
 43
0.00000001
 40
0.0
 40
0.0
 40
0.0
 40
0.0
 40
0.2500000000000033
 40
0.2500000000000033
 40
0.5000000000000067
 40
0.5000000000000067
 40
1.0
 40
1.0
 40
1.0
 40
1.0
 10
128.5862826818307
 20
126.590520043337
 30
0.0
 10
128.6765217495178
 20
126.590520043337
 30
0.0
 10
128.7674198636242
 20
126.590520043337
 30
0.0
 10
128.9220169001128
 20
126.590520043337
 30
0.0
 10
128.9869953162209
 20
126.590520043337
 30
0.0
 10
129.1388303441571
 20
126.590520043337
 30
0.0
 10
129.1862826818307
 20
126.590520043337
 30
0.0
 10
129.1862826818307
 20
126.590520043337
 30
0.0
  0
ARC
  5
86
330
1F
100
AcDbEntity
  8
0
  6
Continuous
 62
     7
370
    15
100
AcDbCircle
 10
111.233609021
 20
118.6521973003
 30
0.0
 40
4.111978140459076
100
AcDbArc
 50
19.5624069805
 51
159.1546740157
  0
SPLINE
  5
87
330
1F
100
AcDbEntity
  8
0
  6
Continuous
 62
     7
370
    15
100
AcDbSpline
210
0.0
220
0.0
230
1.0
 70
    24
 71
     3
 72
    14
 73
    10
 74
     0
 42
0.00000001
 43
0.00000001
 40
0.0
 40
0.0
 40
0.0
 40
0.0
 40
0.5000000000000013
 40
0.5000000000000013
 40
0.750000000000002
 40
0.750000000000002
 40
0.875000000000001
 40
0.875000000000001
 40
1.0
 40
1.0
 40
1.0
 40
1.0
 10
123.0486078794984
 20
80.340520043337
 30
0.0
 10
123.0018231744502
 20
80.34052004333698
 30
0.0
 10
122.9397719776706
 20
80.340520043337
 30
0.0
 10
122.79638033912
 20
80.340520043337
 30
0.0
 10
122.7402366855689
 20
80.34052004333698
 30
0.0
 10
122.6272856634327
 20
80.34052004333698
 30
0.0
 10
122.5842849013945
 20
80.340520043337
 30
0.0
 10
122.480222191088
 20
80.34052004333698
 30
0.0
 10
122.4148899527311
 20
80.340520043337
 30
0.0
 10
122.3462826818307
 20
80.340520043337
 30
0.0
  0
SPLINE
  5
88
330
1F
100
AcDbEntity
  8
0
  6
Continuous
 62
     7
370
    15
100
AcDbSpline
210
0.0
220
0.0
230
1.0
 70
    24
 71
     3
 72
    12
 73
     8
 74
     0
 42
0.00000001
 43
0.00000001
 40
0.0
 40
0.0
 40
0.0
 40
0.0
 40
0.5000000000000017
 40
0.5000000000000017
 40
0.7500000000000008
 40
0.7500000000000008
 40
1.0
 40
1.0
 40
1.0
 40
1.0
 10
122.7519851501398
 20
133.140520043337
 30
0.0
 10
122.7088996005288
 20
133.140520043337
 30
0.0
 10
122.6597473987795
 20
133.140520043337
 30
0.0
 10
122.5632748044916
 20
133.140520043337
 30
0.0
 10
122.527173219357
 20
133.140520043337
 30
0.0
 10
122.4440674614957
 20
133.140520043337
 30
0.0
 10
122.3960708645294
 20
133.140520043337
 30
0.0
 10
122.3462826818307
 20
133.140520043337
 30
0.0
  0
SPLINE
  5
89
330
1F
100
AcDbEntity
  8
0
  6
Continuous
 62
     7
370
    15
100
AcDbSpline
210
0.0
220
0.0
230
1.0
 70
     8
 71
     3
 72
    10
 73
     6
 74
     0
 42
0.00000001
 43
0.00000001
 40
0.0
 40
0.0
 40
0.0
 40
0.0
 40
0.5
 40
0.5
 40
1.0
 40
1.0
 40
1.0
 40
1.0
 10
123.1462826818307
 20
133.8601738943728
 30
0.0
 10
123.1462826818307
 20
133.7164038365547
 30
0.0
 10
123.1102336231118
 20
133.5739844740596
 30
0.0
 10
122.9747247623378
 20
133.3240901807024
 30
0.0
 10
122.8748487692417
 20
133.2160598444542
 30
0.0
 10
122.7519851501397
 20
133.1405200433369
 30
0.0
  0
SPLINE
  5
8A
330
1F
100
AcDbEntity
  8
0
  6
Continuous
 62
     7
370
    15
100
AcDbSpline
210
0.0
220
0.0
230
1.0
 70
     8
 71
     3
 72
    10
 73
     6
 74
     0
 42
0.00000001
 43
0.00000001
 40
0.0
 40
0.0
 40
0.0
 40
0.0
 40
0.5
 40
0.5
 40
1.0
 40
1.0
 40
1.0
 40
1.0
 10
123.1201350586706
 20
126.590520043337
 30
0.0
 10
123.1288247015823
 20
126.6373988926551
 30
0.0
 10
123.1353637663327
 20
126.6848213580564
 30
0.0
 10
123.1441224007258
 20
126.7807581566431
 30
0.0
 10
123.1462826818307
 20
126.8286734446536
 30
0.0
 10
123.1462826818307
 20
126.8763866747982
 30
0.0
  0
SPLINE
  5
8B
330
1F
100
AcDbEntity
  8
0
  6
Continuous
 62
     7
370
    15
100
AcDbSpline
210
0.0
220
0.0
230
1.0
 70
     8
 71
     3
 72
    10
 73
     6
 74
     0
 42
0.00000001
 43
0.00000001
 40
0.0
 40
0.0
 40
0.0
 40
0.0
 40
0.5
 40
0.5
 40
1.0
 40
1.0
 40
1.0
 40
1.0
 10
119.7205802135217
 20
133.140520043337
 30
0.0
 10
119.5990399498532
 20
133.2152462105487
 30
0.0
 10
119.4977055895042
 20
133.3241912264656
 30
0.0
 10
119.3620666466158
 20
133.5746217072272
 30
0.0
 10
119.3262826818307
 20
133.7170410693261
 30
0.0
 10
119.3262826818307
 20
133.8601738943728
 30
0.0
  0
SPLINE
  5
8C
330
1F
100
AcDbEntity
  8
0
  6
Continuous
 62
     7
370
    15
100
AcDbSpline
210
0.0
220
0.0
230
1.0
 70
    24
 71
     3
 72
    12
 73
     8
 74
     0
 42
0.00000001
 43
0.00000001
 40
0.0
 40
0.0
 40
0.0
 40
0.0
 40
0.2500000000000037
 40
0.2500000000000037
 40
0.5000000000000074
 40
0.5000000000000074
 40
1.0
 40
1.0
 40
1.0
 40
1.0
 10
120.1262826818307
 20
133.140520043337
 30
0.0
 10
120.0764059995133
 20
133.140520043337
 30
0.0
 10
120.0284028061097
 20
133.140520043337
 30
0.0
 10
119.9453547033977
 20
133.140520043337
 30
0.0
 10
119.9092251239299
 20
133.140520043337
 30
0.0
 10
119.8133130929857
 20
133.140520043337
 30
0.0
 10
119.7635544250168
 20
133.140520043337
 30
0.0
 10
119.7205802135217
 20
133.140520043337
 30
0.0
  0
SPLINE
  5
8D
330
1F
100
AcDbEntity
  8
0
  6
Continuous
 62
     7
370
    15
100
AcDbSpline
210
0.0
220
0.0
230
1.0
 70
    24
 71
     3
 72
    14
 73
    10
 74
     0
 42
0.00000001
 43
0.00000001
 40
0.0
 40
0.0
 40
0.0
 40
0.0
 40
0.1249999999999991
 40
0.1249999999999991
 40
0.2499999999999982
 40
0.2499999999999982
 40
0.4999999999999998
 40
0.4999999999999998
 40
1.0
 40
1.0
 40
1.0
 40
1.0
 10
120.1262826818307
 20
80.340520043337
 30
0.0
 10
120.0578448339443
 20
80.340520043337
 30
0.0
 10
119.9922947951792
 20
80.340520043337
 30
0.0
 10
119.8878681557713
 20
80.340520043337
 30
0.0
 10
119.8453235460099
 20
80.340520043337
 30
0.0
 10
119.7327140854696
 20
80.34052004333698
 30
0.0
 10
119.6771750384501
 20
80.340520043337
 30
0.0
 10
119.5345633429863
 20
80.34052004333698
 30
0.0
 10
119.4711579879906
 20
80.34052004333698
 30
0.0
 10
119.423957484163
 20
80.340520043337
 30
0.0
  0
SPLINE
  5
8E
330
1F
100
AcDbEntity
  8
0
  6
Continuous
 62
     7
370
    15
100
AcDbSpline
210
0.0
220
0.0
230
1.0
 70
     8
 71
     3
 72
    10
 73
     6
 74
     0
 42
0.00000001
 43
0.00000001
 40
0.0
 40
0.0
 40
0.0
 40
0.0
 40
0.5
 40
0.5
 40
1.0
 40
1.0
 40
1.0
 40
1.0
 10
119.3262826818307
 20
126.8763866747984
 30
0.0
 10
119.3262826818307
 20
126.8286151668051
 30
0.0
 10
119.3284439254279
 20
126.7809054447434
 30
0.0
 10
119.337115299288
 20
126.6856103271951
 30
0.0
 10
119.343644482244
 20
126.6379177632285
 30
0.0
 10
119.3524303049909
 20
126.590520043337
 30
0.0
  0
LINE
  5
8F
330
1F
100
AcDbEntity
  8
0
  6
Continuous
 62
     7
370
    15
100
AcDbLine
 10
122.3462826818
 20
133.1405200433
 30
0.0
 11
120.1262826818
 21
133.1405200433
 31
0.0
  0
LINE
  5
90
330
1F
100
AcDbEntity
  8
0
  6
Continuous
 62
     7
370
    15
100
AcDbLine
 10
122.3462826818
 20
80.3405200433
 30
0.0
 11
120.1262826818
 21
80.3405200433
 31
0.0
  0
LINE
  5
91
330
1F
100
AcDbEntity
  8
0
  6
Continuous
 62
     7
370
    15
100
AcDbLine
 10
129.386281417
 20
133.1405200433
 30
0.0
 11
129.3675180002
 21
133.1405200433
 31
0.0
  0
LINE
  5
92
330
1F
100
AcDbEntity
  8
0
  6
Continuous
 62
     7
370
    15
100
AcDbLine
 10
129.3862813621
 20
80.3405200433
 30
0.0
 11
129.3704016945
 21
80.3405200433
 31
0.0
  0
LINE
  5
93
330
1F
100
AcDbEntity
  8
0
  6
Continuous
 62
     7
370
    15
100
AcDbLine
 10
167.4114637371
 20
80.7405200433
 30
0.0
 11
167.4114637371
 21
132.7405200433
 31
0.0
  0
LINE
  5
94
330
1F
100
AcDbEntity
  8
0
  6
Continuous
 62
     7
370
    15
100
AcDbLine
 10
150.8165853133
 20
132.6363799756
 30
0.0
 11
151.1380210341
 21
132.6147136378
 31
0.0
  0
SPLINE
  5
95
330
1F
100
AcDbEntity
  8
0
  6
Continuous
 62
     7
370
    15
100
AcDbSpline
210
0.0
220
0.0
230
1.0
 70
     8
 71
     3
 72
    24
 73
    20
 74
     0
 42
0.00000001
 43
0.00000001
 40
0.0
 40
0.0
 40
0.0
 40
0.0
 40
0.0470671694528432
 40
0.1378966603257512
 40
0.2319980363134784
 40
0.2828031510940657
 40
0.334839900453753
 40
0.3904988568613824
 40
0.4475834942587943
 40
0.5067928761133328
 40
0.567649093835085
 40
0.6280095768661267
 40
0.6902049444175757
 40
0.7489566125332803
 40
0.8096947458838227
 40
0.863856225614821
 40
0.9199738101482873
 40
0.9684247060838237
 40
1.0
 40
1.0
 40
1.0
 40
1.0
 10
156.6849339872387
 20
132.7403736446645
 30
0.0
 10
156.6768576224329
 20
132.7394903304916
 30
0.0
 10
156.6531956145568
 20
132.7369024103792
 30
0.0
 10
156.3668514864971
 20
132.7060869385788
 30
0.0
 10
155.8591364072647
 20
132.6588537546249
 30
0.0
 10
155.3262872597082
 20
132.6189838853105
 30
0.0
 10
154.849046505
 20
132.589865727876
 30
0.0
 10
154.3132887010591
 20
132.5657313306134
 30
0.0
 10
153.7260614501251
 20
132.5498597621295
 30
0.0
 10
153.1068381012218
 20
132.5451283303871
 30
0.0
 10
152.4781041758577
 20
132.5530776192858
 30
0.0
 10
151.8589574348985
 20
132.5733278542898
 30
0.0
 10
151.2848289804754
 20
132.603155466427
 30
0.0
 10
150.7664977595592
 20
132.638999851736
 30
0.0
 10
150.3433414766891
 20
132.6745484277527
 30
0.0
 10
150.0127500368256
 20
132.7061098453592
 30
0.0
 10
149.8027690027937
 20
132.7278821786225
 30
0.0
 10
149.6950091083081
 20
132.7395639075237
 30
0.0
 10
149.6968373928548
 20
132.7393686127226
 30
0.0
 10
149.6975587644711
 20
132.7392915568143
 30
0.0
  0
SPLINE
  5
96
330
1F
100
AcDbEntity
  8
0
  6
Continuous
 62
     7
370
    15
100
AcDbSpline
210
0.0
220
0.0
230
1.0
 70
     8
 71
     3
 72
    66
 73
    62
 74
     0
 42
0.00000001
 43
0.00000001
 40
-0.0312500000000002
 40
-0.0312500000000002
 40
0.0
 40
0.0
 40
0.0312499999999998
 40
0.0312499999999998
 40
0.0624999999999997
 40
0.0624999999999997
 40
0.0937499999999995
 40
0.0937499999999995
 40
0.1249999999999993
 40
0.1249999999999993
 40
0.1562499999999991
 40
0.1562499999999991
 40
0.1874999999999989
 40
0.1874999999999989
 40
0.2187499999999988
 40
0.2187499999999988
 40
0.2499999999999986
 40
0.2499999999999986
 40
0.2812499999999984
 40
0.2812499999999984
 40
0.3124999999999983
 40
0.3124999999999983
 40
0.3437499999999981
 40
0.3437499999999981
 40
0.3749999999999979
 40
0.3749999999999979
 40
0.4062499999999977
 40
0.4062499999999977
 40
0.4374999999999976
 40
0.4374999999999976
 40
0.4687499999999974
 40
0.4687499999999974
 40
0.4999999999999972
 40
0.4999999999999972
 40
0.531249999999997
 40
0.531249999999997
 40
0.5624999999999969
 40
0.5624999999999969
 40
0.5937499999999967
 40
0.5937499999999967
 40
0.6249999999999966
 40
0.6249999999999966
 40
0.6874999999999972
 40
0.6874999999999972
 40
0.7499999999999978
 40
0.7499999999999978
 40
0.7812499999999981
 40
0.7812499999999981
 40
0.8124999999999983
 40
0.8124999999999983
 40
0.8437499999999987
 40
0.8437499999999987
 40
0.8749999999999989
 40
0.8749999999999989
 40
0.9062499999999992
 40
0.9062499999999992
 40
0.9374999999999994
 40
0.9374999999999994
 40
0.9687499999999998
 40
0.9687499999999998
 40
1.0
 40
1.0
 40
1.03125
 40
1.03125
 10
150.6477554555118
 20
108.9244386347978
 30
0.0
 10
150.9854151710864
 20
109.2060911321846
 30
0.0
 10
151.1649456976627
 20
109.3285290870445
 30
0.0
 10
151.5435710560245
 20
109.5399150185325
 30
0.0
 10
151.7442370254738
 20
109.6293364733157
 30
0.0
 10
152.1583629823282
 20
109.7715423302175
 30
0.0
 10
152.3693152905827
 20
109.8237965068192
 30
0.0
 10
152.7986897955801
 20
109.892180170303
 30
0.0
 10
153.0192153520368
 20
109.9081673387542
 30
0.0
 10
153.4557029559551
 20
109.9023456793108
 30
0.0
 10
153.6716349122723
 20
109.8809994609391
 30
0.0
 10
154.0989015977579
 20
109.801614677059
 30
0.0
 10
154.3122587213221
 20
109.7426645630614
 30
0.0
 10
154.7201995812935
 20
109.5901077825712
 30
0.0
 10
154.9155574989822
 20
109.4967957694853
 30
0.0
 10
155.288610041328
 20
109.2751208738349
 30
0.0
 10
155.4679783266063
 20
109.1450053859644
 30
0.0
 10
155.7935127207921
 20
108.8570859240046
 30
0.0
 10
155.9409987394968
 20
108.6990412532379
 30
0.0
 10
156.2035986775034
 20
108.3530019308217
 30
0.0
 10
156.3190969304142
 20
108.163041746257
 30
0.0
 10
156.5029613156893
 20
107.7698594003489
 30
0.0
 10
156.5732035181846
 20
107.5648086486597
 30
0.0
 10
156.6669989129705
 20
107.1364614106669
 30
0.0
 10
156.6891175407572
 20
106.9169587157943
 30
0.0
 10
156.6828594011826
 20
106.4823498266036
 30
0.0
 10
156.6541446513699
 20
106.2621651198154
 30
0.0
 10
156.548431942813
 20
105.8378628020579
 30
0.0
 10
156.4723446139463
 20
105.6339305033354
 30
0.0
 10
156.2753398842474
 20
105.2418923706949
 30
0.0
 10
156.1557495039845
 20
105.0572586867119
 30
0.0
 10
155.883476250695
 20
104.7177185630337
 30
0.0
 10
155.7282021464831
 20
104.5599680820233
 30
0.0
 10
155.3935289111189
 20
104.2797480226289
 30
0.0
 10
155.2142835286862
 20
104.1566629823293
 30
0.0
 10
154.8330053571581
 20
103.9429447812858
 30
0.0
 10
154.6312466602902
 20
103.852994750246
 30
0.0
 10
154.220061837293
 20
103.7112269058524
 30
0.0
 10
154.0088581515888
 20
103.6583405079252
 30
0.0
 10
153.5751127388714
 20
103.5888563766309
 30
0.0
 10
153.3565205257453
 20
103.5730710446651
 30
0.0
 10
152.7049029553156
 20
103.5810471775291
 30
0.0
 10
152.2657047677594
 20
103.6619770294476
 30
0.0
 10
151.4531662041613
 20
103.9650158860726
 30
0.0
 10
151.0680517736536
 20
104.1918703796691
 30
0.0
 10
150.5814154886064
 20
104.6216598837287
 30
0.0
 10
150.4316529841549
 20
104.7816708542328
 30
0.0
 10
150.1665950865566
 20
105.1313793481488
 30
0.0
 10
150.0541217428164
 20
105.3168564589896
 30
0.0
 10
149.8702172312011
 20
105.7096160053702
 30
0.0
 10
149.798274825937
 20
105.9200923350902
 30
0.0
 10
149.7053154931193
 20
106.3468440424405
 30
0.0
 10
149.683376378305
 20
106.5630365660448
 30
0.0
 10
149.6897986683192
 20
107.0011984901879
 30
0.0
 10
149.7188493774032
 20
107.2210090004001
 30
0.0
 10
149.8243492220882
 20
107.6436274293129
 30
0.0
 10
149.9020960396922
 20
107.8515039641748
 30
0.0
 10
150.0990902731695
 20
108.2421833593678
 30
0.0
 10
150.2175230081634
 20
108.4249968913601
 30
0.0
 10
150.4922425493008
 20
108.7669156747488
 30
0.0
 10
150.6477554555118
 20
108.9244386347978
 30
0.0
 10
150.9854151710864
 20
109.2060911321846
 30
0.0
  0
LINE
  5
97
330
1F
100
AcDbEntity
  8
0
  6
Continuous
 62
     7
370
    15
100
AcDbLine
 10
150.8165853133
 20
80.8446601111
 30
0.0
 11
150.7420288394
 21
80.8386306263
 31
0.0
  0
SPLINE
  5
98
330
1F
100
AcDbEntity
  8
0
  6
Continuous
 62
     7
370
    15
100
AcDbSpline
210
0.0
220
0.0
230
1.0
 70
     8
 71
     3
 72
    25
 73
    21
 74
     0
 42
0.00000001
 43
0.00000001
 40
0.0
 40
0.0
 40
0.0
 40
0.0
 40
0.003060278001107
 40
0.0513947594286852
 40
0.1422148054027267
 40
0.2366190689327534
 40
0.287651392279196
 40
0.3399224723202943
 40
0.3957885730305591
 40
0.4530908162860086
 40
0.5124094346861939
 40
0.5733844839510022
 40
0.6337323671565838
 40
0.6959232165373177
 40
0.7545219089378026
 40
0.8151116608181892
 40
0.869001250810066
 40
0.9248371707952052
 40
0.9730547719949268
 40
1.0
 40
1.0
 40
1.0
 40
1.0
 10
149.6888635535578
 20
80.74080045378497
 30
0.0
 10
149.6880142439877
 20
80.7407081927956
 30
0.0
 10
149.6737508139917
 20
80.73915874815299
 30
0.0
 10
149.7486928893161
 20
80.74733583024931
 30
0.0
 10
150.0213458944777
 20
80.77650386748867
 30
0.0
 10
150.5479277127203
 20
80.82515656542897
 30
0.0
 10
151.0879008599841
 20
80.86487211767361
 30
0.0
 10
151.5714865647319
 20
80.89370842426105
 30
0.0
 10
152.1124244025073
 20
80.91720178866707
 30
0.0
 10
152.7034553078924
 20
80.93213107389715
 30
0.0
 10
153.3247751739378
 20
80.93571240581768
 30
0.0
 10
153.9532089380385
 20
80.92656887506581
 30
0.0
 10
154.5699045050201
 20
80.90525675389138
 30
0.0
 10
155.1389888767641
 20
80.87471463478332
 30
0.0
 10
155.650187856532
 20
80.83859626167686
 30
0.0
 10
156.0642995430966
 20
80.8033000038119
 30
0.0
 10
156.3848424671891
 20
80.77240401352977
 30
0.0
 10
156.5841053129141
 20
80.75162719103638
 30
0.0
 10
156.6816588122694
 20
80.74102670268394
 30
0.0
 10
156.6763005218713
 20
80.74160863643975
 30
0.0
 10
156.6743796208353
 20
80.74181725468763
 30
0.0
  0
CIRCLE
  5
99
330
1F
100
AcDbEntity
  8
0
  6
Continuous
 62
     7
370
    15
100
AcDbCircle
 10
153.1862826818
 20
106.7405200433
 30
0.0
 40
2.5
  0
LINE
  5
9A
330
1F
100
AcDbEntity
  8
0
  6
Continuous
 62
     7
370
    15
100
AcDbLine
 10
101.2362826818
 20
82.5200891816
 30
0.0
 11
101.2362826818
 21
130.9609509051
 31
0.0
  0
LINE
  5
9B
330
1F
100
AcDbEntity
  8
0
  6
Continuous
 62
     7
370
    15
100
AcDbLine
 10
81.4362826818
 20
83.5120731495
 30
0.0
 11
81.4362826818
 21
84.7767825121
 31
0.0
  0
SPLINE
  5
9C
330
1F
100
AcDbEntity
  8
0
  6
Continuous
 62
     7
370
    15
100
AcDbSpline
210
0.0
220
0.0
230
1.0
 70
     8
 71
     3
 72
    14
 73
    10
 74
     0
 42
0.00000001
 43
0.00000001
 40
0.0
 40
0.0
 40
0.0
 40
0.0
 40
0.25
 40
0.25
 40
0.5
 40
0.5
 40
0.75
 40
0.75
 40
1.0
 40
1.0
 40
1.0
 40
1.0
 10
80.65799556391501
 20
85.90736871977704
 30
0.0
 10
80.71462223911709
 20
85.79967126594018
 30
0.0
 10
80.80914489940683
 20
85.69688168422087
 30
0.0
 10
80.99218987496906
 20
85.49852437200072
 30
0.0
 10
81.08381645192378
 20
85.40246486332246
 30
0.0
 10
81.24266976961697
 20
85.21493582061322
 30
0.0
 10
81.31056037723866
 20
85.12352684782967
 30
0.0
 10
81.40747740294626
 20
84.94515062691951
 30
0.0
 10
81.43628268183132
 20
84.85792872067334
 30
0.0
 10
81.4362826818313
 20
84.77678251213909
 30
0.0
  0
SPLINE
  5
9D
330
1F
100
AcDbEntity
  8
0
  6
Continuous
 62
     7
370
    15
100
AcDbSpline
210
0.0
220
0.0
230
1.0
 70
     8
 71
     3
 72
    14
 73
    10
 74
     0
 42
0.00000001
 43
0.00000001
 40
0.0
 40
0.0
 40
0.0
 40
0.0
 40
0.1250000000000025
 40
0.1250000000000025
 40
0.250000000000005
 40
0.250000000000005
 40
0.5000000000000046
 40
0.5000000000000046
 40
1.0
 40
1.0
 40
1.0
 40
1.0
 10
80.03628268183073
 20
86.35405058205636
 30
0.0
 10
80.08482709048789
 20
86.35979889533665
 30
0.0
 10
80.13774244527279
 20
86.35669800668042
 30
0.0
 10
80.23303779025582
 20
86.33450316251809
 30
0.0
 10
80.27328878754078
 20
86.31727093542223
 30
0.0
 10
80.37755880105375
 20
86.26094301897018
 30
0.0
 10
80.42788077620709
 20
86.21675667302436
 30
0.0
 10
80.55556372373248
 20
86.08574877417374
 30
0.0
 10
80.61164917079475
 20
85.99551425394345
 30
0.0
 10
80.65799556391647
 20
85.90736871977757
 30
0.0
  0
SPLINE
  5
9E
330
1F
100
AcDbEntity
  8
0
  6
Continuous
 62
     7
370
    15
100
AcDbSpline
210
0.0
220
0.0
230
1.0
 70
     8
 71
     3
 72
     8
 73
     4
 74
     0
 42
0.00000001
 43
0.00000001
 40
0.0
 40
0.0
 40
0.0
 40
0.0
 40
1.0
 40
1.0
 40
1.0
 40
1.0
 10
77.76775758888449
 20
86.04420529547356
 30
0.0
 10
78.50233461536746
 20
86.16283030654252
 30
0.0
 10
79.2658096847631
 20
86.26281617867882
 30
0.0
 10
80.03628268183073
 20
86.35405058205636
 30
0.0
  0
SPLINE
  5
9F
330
1F
100
AcDbEntity
  8
0
  6
Continuous
 62
     7
370
    15
100
AcDbSpline
210
0.0
220
0.0
230
1.0
 70
     8
 71
     3
 72
    14
 73
    10
 74
     0
 42
0.00000001
 43
0.00000001
 40
0.0
 40
0.0
 40
0.0
 40
0.0
 40
0.4999999999999989
 40
0.4999999999999989
 40
0.7499999999999983
 40
0.7499999999999983
 40
0.8749999999999991
 40
0.8749999999999991
 40
1.0
 40
1.0
 40
1.0
 40
1.0
 10
72.48628268183073
 20
85.87058227794192
 30
0.0
 10
73.37842881238431
 20
85.86986005174127
 30
0.0
 10
74.26840524817787
 20
85.87444625819873
 30
0.0
 10
75.5950004152535
 20
85.90217126259029
 30
0.0
 10
76.03584734375222
 20
85.91477780021444
 30
0.0
 10
76.69228758117465
 20
85.94579394822188
 30
0.0
 10
76.91030123776653
 20
85.95813712084866
 30
0.0
 10
77.34301009144929
 20
85.99116117601193
 30
0.0
 10
77.55828655661408
 20
86.01037834115037
 30
0.0
 10
77.76775758888449
 20
86.04420529547357
 30
0.0
  0
SPLINE
  5
A0
330
1F
100
AcDbEntity
  8
0
  6
Continuous
 62
     7
370
    15
100
AcDbSpline
210
0.0
220
0.0
230
1.0
 70
     8
 71
     3
 72
     8
 73
     4
 74
     0
 42
0.00000001
 43
0.00000001
 40
0.0000005163856998
 40
0.0000005163856998
 40
0.0000005163856998
 40
0.0000005163856998
 40
0.000026289209185
 40
0.000026289209185
 40
0.000026289209185
 40
0.000026289209185
 10
72.47623775142311
 20
85.8805661510387
 30
0.0
 10
72.47956548963094
 20
85.87723190416959
 30
0.0
 10
72.48291394260654
 20
85.87390394689427
 30
0.0
 10
72.4862826818307
 20
85.8705822779419
 30
0.0
  0
SPLINE
  5
A1
330
1F
100
AcDbEntity
  8
0
  6
Continuous
 62
     7
370
    15
100
AcDbSpline
210
0.0
220
0.0
230
1.0
 70
     8
 71
     3
 72
     8
 73
     4
 74
     0
 42
0.00000001
 43
0.00000001
 40
0.0000005099763573
 40
0.0000005099763573
 40
0.0000005099763573
 40
0.0000005099763573
 40
0.0000262827998699
 40
0.0000262827998699
 40
0.0000262827998699
 40
0.0000262827998699
 10
72.48628268183072
 20
127.6104578087321
 30
0.0
 10
72.48291394260296
 20
127.6071361397762
 30
0.0
 10
72.47956548962382
 20
127.6038081824973
 30
0.0
 10
72.47623775141248
 20
127.6004739356246
 30
0.0
  0
SPLINE
  5
A2
330
1F
100
AcDbEntity
  8
0
  6
Continuous
 62
     7
370
    15
100
AcDbSpline
210
0.0
220
0.0
230
1.0
 70
     8
 71
     3
 72
    10
 73
     6
 74
     0
 42
0.00000001
 43
0.00000001
 40
0.0
 40
0.0
 40
0.0
 40
0.0
 40
0.5
 40
0.5
 40
1.0
 40
1.0
 40
1.0
 40
1.0
 10
76.03628268183073
 20
127.5636074351647
 30
0.0
 10
75.44869713474013
 20
127.5846729554012
 30
0.0
 10
74.85795074127975
 20
127.5954314412734
 30
0.0
 10
73.67393157598089
 20
127.608796221809
 30
0.0
 10
73.08051758777543
 20
127.6109388644736
 30
0.0
 10
72.48628268183073
 20
127.6104578087321
 30
0.0
  0
SPLINE
  5
A3
330
1F
100
AcDbEntity
  8
0
  6
Continuous
 62
     7
370
    15
100
AcDbSpline
210
0.0
220
0.0
230
1.0
 70
     8
 71
     3
 72
    18
 73
    14
 74
     0
 42
0.00000001
 43
0.00000001
 40
0.0
 40
0.0
 40
0.0
 40
0.0
 40
0.2499999999999991
 40
0.2499999999999991
 40
0.499999999999999
 40
0.499999999999999
 40
0.7499999999999989
 40
0.7499999999999989
 40
0.8749999999999999
 40
0.8749999999999999
 40
0.9374999999999999
 40
0.9374999999999999
 40
1.0
 40
1.0
 40
1.0
 40
1.0
 10
77.43628268183075
 20
128.5846277157
 30
0.0
 10
77.43628268183075
 20
128.5014208068428
 30
0.0
 10
77.40043358189247
 20
128.4126841515292
 30
0.0
 10
77.27556184585856
 20
128.230558960969
 30
0.0
 10
77.18516142821069
 20
128.1354289123424
 30
0.0
 10
76.96291877346852
 20
127.946247403218
 30
0.0
 10
76.83315398702273
 20
127.8513022351233
 30
0.0
 10
76.59251652971122
 20
127.7130235275434
 30
0.0
 10
76.50474923157378
 20
127.667313094241
 30
0.0
 10
76.35022514436696
 20
127.6094897890195
 30
0.0
 10
76.29361425831222
 20
127.5917750249817
 30
0.0
 10
76.16957022740561
 20
127.5672357217487
 30
0.0
 10
76.1018555523873
 20
127.5612565832105
 30
0.0
 10
76.03628268183073
 20
127.5636074351647
 30
0.0
  0
LINE
  5
A4
330
1F
100
AcDbEntity
  8
0
  6
Continuous
 62
     7
370
    15
100
AcDbLine
 10
77.4362826818
 20
128.5846277157
 30
0.0
 11
77.4362826818
 21
129.7685661355
 31
0.0
  0
SPLINE
  5
A5
330
1F
100
AcDbEntity
  8
0
  6
Continuous
 62
     7
370
    15
100
AcDbSpline
210
0.0
220
0.0
230
1.0
 70
     8
 71
     3
 72
    18
 73
    14
 74
     0
 42
0.00000001
 43
0.00000001
 40
0.0
 40
0.0
 40
0.0
 40
0.0
 40
0.0010671296451833
 40
0.1270947795731617
 40
0.2524053457512738
 40
0.3766468878987054
 40
0.4391415999058462
 40
0.5008278021400047
 40
0.5624255708818077
 40
0.6253162439161184
 40
0.7499985144706731
 40
0.8752758950341265
 40
1.0
 40
1.0
 40
1.0
 40
1.0
 10
90.00658352190341
 20
83.08318102042064
 30
0.0
 10
90.0056716892649
 20
83.08306624188401
 30
0.0
 10
89.8970727306279
 20
83.06939615701764
 30
0.0
 10
90.28471379827778
 20
83.12031565763395
 30
0.0
 10
91.15067848011311
 20
83.21989883068001
 30
0.0
 10
92.35108240488493
 20
83.28902271382435
 30
0.0
 10
93.40865831937546
 20
83.29297494296206
 30
0.0
 10
94.23579240628501
 20
83.26548600450722
 30
0.0
 10
95.06106427391731
 20
83.20694582810016
 30
0.0
 10
96.11542949391463
 20
83.09342466836334
 30
0.0
 10
97.27726577538748
 20
82.9102738441158
 30
0.0
 10
98.22950055677072
 20
82.7056706344807
 30
0.0
 10
98.35520561757863
 20
82.67638528370465
 30
0.0
 10
98.41791904972385
 20
82.66177501386397
 30
0.0
  0
SPLINE
  5
A6
330
1F
100
AcDbEntity
  8
0
  6
Continuous
 62
     7
370
    15
100
AcDbSpline
210
0.0
220
0.0
230
1.0
 70
     8
 71
     3
 72
    18
 73
    14
 74
     0
 42
0.00000001
 43
0.00000001
 40
0.0
 40
0.0
 40
0.0
 40
0.0
 40
0.1248907792210151
 40
0.2505384020341686
 40
0.3748721840485259
 40
0.4374907653349573
 40
0.4990776265894251
 40
0.5607931536355093
 40
0.6233901338664966
 40
0.7478191038417377
 40
0.8731940995934968
 40
0.999161464471008
 40
1.0
 40
1.0
 40
1.0
 40
1.0
 10
98.41770028419994
 20
130.8191998922557
 30
0.0
 10
98.35395953148829
 20
130.8045385996576
 30
0.0
 10
98.22609175431182
 20
130.7751271663861
 30
0.0
 10
97.27409253325138
 20
130.5701740623236
 30
0.0
 10
96.11354882804818
 20
130.3869102865127
 30
0.0
 10
95.06128437596007
 20
130.2738826942638
 30
0.0
 10
94.23705726089176
 20
130.2156190467224
 30
0.0
 10
93.40945349137114
 20
130.1881726587181
 30
0.0
 10
92.35063629888646
 20
130.1921574646475
 30
0.0
 10
91.1484176008519
 20
130.2612469410288
 30
0.0
 10
90.28323366116473
 20
130.3608731575855
 30
0.0
 10
89.89709323963424
 20
130.4116892311858
 30
0.0
 10
90.00516478041479
 20
130.3980170511228
 30
0.0
 10
90.00587943033507
 20
130.3979266404345
 30
0.0
  0
SPLINE
  5
A7
330
1F
100
AcDbEntity
  8
0
  6
Continuous
 62
     7
370
    15
100
AcDbSpline
210
0.0
220
0.0
230
1.0
 70
     8
 71
     3
 72
    10
 73
     6
 74
     0
 42
0.00000001
 43
0.00000001
 40
0.0
 40
0.0
 40
0.0
 40
0.0
 40
0.0840381716606348
 40
0.7011125076933074
 40
1.0
 40
1.0
 40
1.0
 40
1.0
 10
71.3498296443664
 20
87.01174613565365
 30
0.0
 10
71.3505042017013
 20
87.00954050881776
 30
0.0
 10
71.35613188939752
 20
86.99113943545554
 30
0.0
 10
71.38245336952437
 20
87.00537399817871
 30
0.0
 10
71.39488838636906
 20
87.0510597737297
 30
0.0
 10
71.39894605655411
 20
87.06596749855628
 30
0.0
  0
LINE
  5
A8
330
1F
100
AcDbEntity
  8
0
  6
Continuous
 62
     7
370
    15
100
AcDbLine
 10
71.3362826818
 20
87.0498422969
 30
0.0
 11
71.3362826818
 21
126.4311977898
 31
0.0
  0
SPLINE
  5
A9
330
1F
100
AcDbEntity
  8
0
  6
Continuous
 62
     7
370
    15
100
AcDbSpline
210
0.0
220
0.0
230
1.0
 70
     8
 71
     3
 72
    10
 73
     6
 74
     0
 42
0.00000001
 43
0.00000001
 40
0.0
 40
0.0
 40
0.0
 40
0.0
 40
0.5
 40
0.5
 40
1.0
 40
1.0
 40
1.0
 40
1.0
 10
71.39894605655414
 20
126.4150725881177
 30
0.0
 10
71.39004176744538
 20
126.4608141073309
 30
0.0
 10
71.3735263872524
 20
126.4780049467999
 30
0.0
 10
71.3464184411908
 20
126.4776816698642
 30
0.0
 10
71.33628268183074
 20
126.4598041275677
 30
0.0
 10
71.33628268183074
 20
126.4311977898152
 30
0.0
  0
SPLINE
  5
AA
330
1F
100
AcDbEntity
  8
0
  6
Continuous
 62
     7
370
    15
100
AcDbSpline
210
0.0
220
0.0
230
1.0
 70
     8
 71
     3
 72
    26
 73
    22
 74
     0
 42
0.00000001
 43
0.00000001
 40
0.0
 40
0.0
 40
0.0
 40
0.0
 40
0.2500000000000165
 40
0.2500000000000165
 40
0.3750000000000256
 40
0.3750000000000256
 40
0.4375000000000291
 40
0.4375000000000291
 40
0.4687500000000291
 40
0.4687500000000291
 40
0.5000000000000292
 40
0.5000000000000292
 40
0.5312500000000293
 40
0.5312500000000293
 40
0.5625000000000293
 40
0.5625000000000293
 40
0.625000000000026
 40
0.625000000000026
 40
0.7500000000000173
 40
0.7500000000000173
 40
1.0
 40
1.0
 40
1.0
 40
1.0
 10
72.16043632793524
 20
127.1306393769348
 30
0.0
 10
72.12183580506677
 20
127.0128646805794
 30
0.0
 10
72.07553880251251
 20
126.8884749944175
 30
0.0
 10
71.98159945407859
 20
126.683255662064
 30
0.0
 10
71.94628798716512
 20
126.6116827956176
 30
0.0
 10
71.88010801141945
 20
126.4957295630171
 30
0.0
 10
71.85556964475123
 20
126.4551450282068
 30
0.0
 10
71.81219689919743
 20
126.3910033463351
 30
0.0
 10
71.79668849777224
 20
126.3691369210501
 30
0.0
 10
71.7616458531852
 20
126.3235426527068
 30
0.0
 10
71.74209556246544
 20
126.2998723617394
 30
0.0
 10
71.70016828209482
 20
126.2552558023995
 30
0.0
 10
71.67751617186319
 20
126.2343757898816
 30
0.0
 10
71.63654245777657
 20
126.2035023761308
 30
0.0
 10
71.61894315788115
 20
126.1936635062983
 30
0.0
 10
71.574316172025
 20
126.1746738906022
 30
0.0
 10
71.55375694937166
 20
126.1743495659487
 30
0.0
 10
71.50263150987499
 20
126.183573006825
 30
0.0
 10
71.48172009688645
 20
126.2048199030419
 30
0.0
 10
71.43027018932551
 20
126.2787887818727
 30
0.0
 10
71.41260489002096
 20
126.3449068751875
 30
0.0
 10
71.39894605655414
 20
126.4150725881177
 30
0.0
  0
SPLINE
  5
AB
330
1F
100
AcDbEntity
  8
0
  6
Continuous
 62
     7
370
    15
100
AcDbSpline
210
0.0
220
0.0
230
1.0
 70
     8
 71
     3
 72
    10
 73
     6
 74
     0
 42
0.00000001
 43
0.00000001
 40
0.0
 40
0.0
 40
0.0
 40
0.0
 40
0.5
 40
0.5
 40
1.0
 40
1.0
 40
1.0
 40
1.0
 10
72.47623775141251
 20
127.6004739356246
 30
0.0
 10
72.40867849649426
 20
127.5327825428149
 30
0.0
 10
72.34504184115778
 20
127.4580753780612
 30
0.0
 10
72.23482108658594
 20
127.2991092456346
 30
0.0
 10
72.1880047933633
 20
127.2147539796266
 30
0.0
 10
72.16043632793523
 20
127.1306393769348
 30
0.0
  0
SPLINE
  5
AC
330
1F
100
AcDbEntity
  8
0
  6
Continuous
 62
     7
370
    15
100
AcDbSpline
210
0.0
220
0.0
230
1.0
 70
     8
 71
     3
 72
    10
 73
     6
 74
     0
 42
0.00000001
 43
0.00000001
 40
0.0
 40
0.0
 40
0.0
 40
0.0
 40
0.5
 40
0.5
 40
1.0
 40
1.0
 40
1.0
 40
1.0
 10
72.16043632793529
 20
86.35040070973902
 30
0.0
 10
72.18791374268925
 20
86.26656391327114
 30
0.0
 10
72.23462237297868
 20
86.182253425682
 30
0.0
 10
72.34490083572462
 20
86.02313219519529
 30
0.0
 10
72.40878837433851
 20
85.94814745110564
 30
0.0
 10
72.47623775142313
 20
85.8805661510387
 30
0.0
  0
SPLINE
  5
AD
330
1F
100
AcDbEntity
  8
0
  6
Continuous
 62
     7
370
    15
100
AcDbSpline
210
0.0
220
0.0
230
1.0
 70
     8
 71
     3
 72
    24
 73
    20
 74
     0
 42
0.00000001
 43
0.00000001
 40
0.0
 40
0.0
 40
0.0
 40
0.0
 40
0.25
 40
0.25
 40
0.374999999999999
 40
0.374999999999999
 40
0.4374999999999993
 40
0.4374999999999993
 40
0.4687499999999994
 40
0.4687499999999994
 40
0.4999999999999995
 40
0.4999999999999995
 40
0.5624999999999971
 40
0.5624999999999971
 40
0.6249999999999947
 40
0.6249999999999947
 40
0.7499999999999947
 40
0.7499999999999947
 40
1.0
 40
1.0
 40
1.0
 40
1.0
 10
71.39894605655414
 20
87.06596749855625
 30
0.0
 10
71.41269917522436
 20
87.13661755654653
 30
0.0
 10
71.43047174263023
 20
87.20321566931146
 30
0.0
 10
71.48272283418558
 20
87.27731368954467
 30
0.0
 10
71.50375790976715
 20
87.29857149670622
 30
0.0
 10
71.55665831739557
 20
87.30671742285247
 30
0.0
 10
71.5777639902735
 20
87.30577761945669
 30
0.0
 10
71.62381615895147
 20
87.28476162787935
 30
0.0
 10
71.64218663093486
 20
87.27385282177173
 30
0.0
 10
71.68373826600055
 20
87.24121791082437
 30
0.0
 10
71.70630493875747
 20
87.219725930453
 30
0.0
 10
71.76908595521749
 20
87.15125998686668
 30
0.0
 10
71.80221571618539
 20
87.1051855286616
 30
0.0
 10
71.8591334026704
 20
87.02017764032692
 30
0.0
 10
71.88331942817416
 20
86.97989733914555
 30
0.0
 10
71.94852737855392
 20
86.8649611126796
 30
0.0
 10
71.98324343874516
 20
86.79437812753258
 30
0.0
 10
72.07645870907606
 20
86.59017236845398
 30
0.0
 10
72.12213124443673
 20
86.46727398612663
 30
0.0
 10
72.16043632793527
 20
86.35040070973903
 30
0.0
  0
LINE
  5
AE
330
1F
100
AcDbEntity
  8
0
  6
Continuous
 62
     7
370
    15
100
AcDbLine
 10
218.2362826818
 20
87.0514962725
 30
0.0
 11
218.2362826818
 21
126.4295437871
 31
0.0
  0
LINE
  5
AF
330
1F
100
AcDbEntity
  8
0
  6
Continuous
 62
     7
370
    15
100
AcDbLine
 10
128.5862826818
 20
137.2077155165
 30
0.0
 11
124.6282155133
 21
137.2077155165
 31
0.0
  0
LINE
  5
B0
330
1F
100
AcDbEntity
  8
0
  6
Continuous
 62
     7
370
    15
100
AcDbLine
 10
124.6282155133
 20
131.1992097057
 30
0.0
 11
128.5862826818
 21
131.1992097057
 31
0.0
  0
LINE
  5
B1
330
1F
100
AcDbEntity
  8
0
  6
Continuous
 62
     7
370
    15
100
AcDbLine
 10
124.6282155133
 20
131.1992097057
 30
0.0
 11
124.6282155133
 21
137.2077155165
 31
0.0
  0
SPLINE
  5
B2
330
1F
100
AcDbEntity
  8
0
  6
Continuous
 62
     7
370
    15
100
AcDbSpline
210
0.0
220
0.0
230
1.0
 70
     8
 71
     3
 72
     8
 73
     4
 74
     0
 42
0.00000001
 43
0.00000001
 40
0.0
 40
0.0
 40
0.0
 40
0.0
 40
1.0
 40
1.0
 40
1.0
 40
1.0
 10
119.3262826818307
 20
134.5457542345086
 30
0.0
 10
118.833572584985
 20
135.433773232635
 30
0.0
 10
118.339489879706
 20
136.321035868321
 30
0.0
 10
117.8443498503417
 20
137.2077155165013
 30
0.0
  0
LINE
  5
B3
330
1F
100
AcDbEntity
  8
0
  6
Continuous
 62
     7
370
    15
100
AcDbLine
 10
119.3262826818
 20
127.7906637109
 30
0.0
 11
119.3262826818
 21
134.5457542345
 31
0.0
  0
SPLINE
  5
B4
330
1F
100
AcDbEntity
  8
0
  6
Continuous
 62
     7
370
    15
100
AcDbSpline
210
0.0
220
0.0
230
1.0
 70
     8
 71
     3
 72
     8
 73
     4
 74
     0
 42
0.00000001
 43
0.00000001
 40
0.0
 40
0.0
 40
0.0
 40
0.0
 40
1.0
 40
1.0
 40
1.0
 40
1.0
 10
117.8443498503417
 20
131.1992097057044
 30
0.0
 10
118.3514366921009
 20
130.0680593515408
 30
0.0
 10
118.8470045312409
 20
128.9316749407729
 30
0.0
 10
119.3262826818307
 20
127.7906637109204
 30
0.0
  0
LINE
  5
B5
330
1F
100
AcDbEntity
  8
0
  6
Continuous
 62
     7
370
    15
100
AcDbLine
 10
119.3262826818
 20
127.7906637109
 30
0.0
 11
119.3262826818
 21
126.8763866748
 31
0.0
  0
SPLINE
  5
B6
330
1F
100
AcDbEntity
  8
0
  6
Continuous
 62
     7
370
    15
100
AcDbSpline
210
0.0
220
0.0
230
1.0
 70
     8
 71
     3
 72
    10
 73
     6
 74
     0
 42
0.00000001
 43
0.00000001
 40
0.0
 40
0.0
 40
0.0
 40
0.0
 40
0.5
 40
0.5
 40
1.0
 40
1.0
 40
1.0
 40
1.0
 10
129.1862826818307
 20
136.5869603671009
 30
0.0
 10
129.1862826818307
 20
136.7473656334517
 30
0.0
 10
129.1240448507239
 20
136.9064274464403
 30
0.0
 10
128.9049099269813
 20
137.1373399120706
 30
0.0
 10
128.7473212319894
 20
137.2077155165013
 30
0.0
 10
128.5862826818307
 20
137.2077155165013
 30
0.0
  0
SPLINE
  5
B7
330
1F
100
AcDbEntity
  8
0
  6
Continuous
 62
     7
370
    15
100
AcDbSpline
210
0.0
220
0.0
230
1.0
 70
     8
 71
     3
 72
    12
 73
     8
 74
     0
 42
0.00000001
 43
0.00000001
 40
0.0
 40
0.0
 40
0.0
 40
0.0
 40
0.250000000000002
 40
0.250000000000002
 40
0.500000000000004
 40
0.500000000000004
 40
1.0
 40
1.0
 40
1.0
 40
1.0
 10
128.5862826818307
 20
131.1992097057044
 30
0.0
 10
128.6774824036564
 20
131.1992097057044
 30
0.0
 10
128.7680774127924
 20
131.1709900071166
 30
0.0
 10
128.9214901392391
 20
131.0765469998684
 30
0.0
 10
128.9866990065627
 20
131.0102600231631
 30
0.0
 10
129.1394835359027
 20
130.7846351998748
 30
0.0
 10
129.1862826818307
 20
130.6022089368423
 30
0.0
 10
129.1862826818307
 20
130.4214723045954
 30
0.0
  0
LINE
  5
B8
330
1F
100
AcDbEntity
  8
0
  6
Continuous
 62
     7
370
    15
100
AcDbLine
 10
129.1862826818
 20
130.4214723046
 30
0.0
 11
129.1862826818
 21
136.5869603671
 31
0.0
  0
SPLINE
  5
B9
330
1F
100
AcDbEntity
  8
0
  6
Continuous
 62
     7
370
    15
100
AcDbSpline
210
0.0
220
0.0
230
1.0
 70
     8
 71
     3
 72
     8
 73
     4
 74
     0
 42
0.00000001
 43
0.00000001
 40
0.0
 40
0.0
 40
0.0
 40
0.0
 40
1.0
 40
1.0
 40
1.0
 40
1.0
 10
123.1462826818307
 20
127.7906637109203
 30
0.0
 10
123.6255608324206
 20
128.9316749407729
 30
0.0
 10
124.1211286715605
 20
130.0680593515408
 30
0.0
 10
124.6282155133198
 20
131.1992097057044
 30
0.0
  0
LINE
  5
BA
330
1F
100
AcDbEntity
  8
0
  6
Continuous
 62
     7
370
    15
100
AcDbLine
 10
123.1462826818
 20
126.8763866748
 30
0.0
 11
123.1462826818
 21
127.7906637109
 31
0.0
  0
LINE
  5
BB
330
1F
100
AcDbEntity
  8
0
  6
Continuous
 62
     7
370
    15
100
AcDbLine
 10
129.1862826818
 20
130.4214723046
 30
0.0
 11
129.1862826818
 21
126.5905200433
 31
0.0
  0
SPLINE
  5
BC
330
1F
100
AcDbEntity
  8
0
  6
Continuous
 62
     7
370
    15
100
AcDbSpline
210
0.0
220
0.0
230
1.0
 70
     8
 71
     3
 72
     8
 73
     4
 74
     0
 42
0.00000001
 43
0.00000001
 40
0.0
 40
0.0
 40
0.0
 40
0.0
 40
1.0
 40
1.0
 40
1.0
 40
1.0
 10
124.6282155133198
 20
137.2077155165013
 30
0.0
 10
124.1330754839555
 20
136.321035868321
 30
0.0
 10
123.6389927786765
 20
135.433773232635
 30
0.0
 10
123.1462826818307
 20
134.5457542345086
 30
0.0
  0
LINE
  5
BD
330
1F
100
AcDbEntity
  8
0
  6
Continuous
 62
     7
370
    15
100
AcDbLine
 10
123.1462826818
 20
127.7906637109
 30
0.0
 11
123.1462826818
 21
134.5457542345
 31
0.0
  0
ARC
  5
BE
330
1F
100
AcDbEntity
  8
0
  6
Continuous
 62
     7
370
    15
100
AcDbCircle
 10
111.236228305
 20
125.4507537969
 30
0.0
 40
7.244789744705585
100
AcDbArc
 50
70.7704275528
 51
109.214694373
  0
LINE
  5
BF
330
1F
100
AcDbEntity
  8
0
  6
Continuous
 62
     7
370
    15
100
AcDbLine
 10
218.2602311694
 20
125.350821314
 30
0.0
 11
218.2362826818
 21
124.7412916019
 31
0.0
  0
LINE
  5
C0
330
1F
100
AcDbEntity
  8
0
  6
Continuous
 62
     7
370
    15
100
AcDbLine
 10
218.2362826818
 20
90.7412916019
 30
0.0
 11
218.338750801
 21
88.1333038174
 31
0.0
  0
LINE
  5
C1
330
1F
100
AcDbEntity
  8
0
  6
HIDDEN
 62
     7
370
     0
100
AcDbLine
 10
117.8443498503
 20
131.1992097057
 30
0.0
 11
117.8443498503
 21
126.5905200433
 31
0.0
  0
ARC
  5
C2
330
1F
100
AcDbEntity
  8
0
  6
HIDDEN
 62
     7
370
     0
100
AcDbCircle
 10
111.5297008607
 20
119.2261668302
 30
0.0
 40
3.667488574455117
100
AcDbArc
 50
265.4111350232
 51
12.6451504378
  0
ARC
  5
C3
330
1F
100
AcDbEntity
  8
0
  6
HIDDEN
 62
     7
370
     0
100
AcDbCircle
 10
110.9616980779
 20
119.2374375794
 30
0.0
 40
3.677269045515363
100
AcDbArc
 50
166.1865135327
 51
274.2823072208
  0
LINE
  5
C4
330
1F
100
AcDbEntity
  8
0
  6
HIDDEN
 62
     7
370
     0
100
AcDbLine
 10
91.2314328864
 20
83.2159204205
 30
0.0
 11
90.6972874573
 21
83.161305821
 31
0.0
  0
LINE
  5
C5
330
1F
100
AcDbEntity
  8
0
  6
HIDDEN
 62
     7
370
     0
100
AcDbLine
 10
90.4596337852
 20
130.3438532238
 30
0.0
 11
91.2313401661
 21
130.2651030733
 31
0.0
  0
SPLINE
  5
C6
330
1F
100
AcDbEntity
  8
0
  6
HIDDEN
 62
     7
370
     0
100
AcDbSpline
210
0.0
220
0.0
230
1.0
 70
     8
 71
     3
 72
    15
 73
    11
 74
     0
 42
0.00000001
 43
0.00000001
 40
0.0
 40
0.0
 40
0.0
 40
0.0
 40
0.1100579763322909
 40
0.2208900459189327
 40
0.3341497999568516
 40
0.4482440061899691
 40
0.5583249429774919
 40
0.7821933174347924
 40
0.8962413711316571
 40
1.0
 40
1.0
 40
1.0
 40
1.0
 10
96.99128468343233
 20
126.5780485191534
 30
0.0
 10
97.05887866952162
 20
126.5871167732209
 30
0.0
 10
97.19454206429484
 20
126.6053170629601
 30
0.0
 10
97.37498749458287
 20
126.6260381186508
 30
0.0
 10
97.53713624713644
 20
126.6427778025786
 30
0.0
 10
97.67518747586702
 20
126.6553599197576
 30
0.0
 10
97.82682779072132
 20
126.6677386936766
 30
0.0
 10
97.9282759407835
 20
126.6746961400393
 30
0.0
 10
97.97969932040368
 20
126.677993398739
 30
0.0
 10
97.98365437150392
 20
126.6782387132827
 30
0.0
 10
97.98553847659394
 20
126.6783555760914
 30
0.0
  0
SPLINE
  5
C7
330
1F
100
AcDbEntity
  8
0
  6
HIDDEN
 62
     7
370
     0
100
AcDbSpline
210
0.0
220
0.0
230
1.0
 70
     8
 71
     3
 72
    17
 73
    13
 74
     0
 42
0.00000001
 43
0.00000001
 40
0.0
 40
0.0
 40
0.0
 40
0.0
 40
0.0068612437358802
 40
0.1182161551323151
 40
0.2319853530784035
 40
0.3465893645792709
 40
0.45732017057938
 40
0.5688235180812243
 40
0.6827712219100861
 40
0.7975686423425558
 40
0.898486664243918
 40
1.0
 40
1.0
 40
1.0
 40
1.0
 10
97.98553953047713
 20
86.80268444400626
 30
0.0
 10
97.985785141427
 20
86.80266893332966
 30
0.0
 10
97.99001690803816
 20
86.8024016913218
 30
0.0
 10
97.97409297242321
 20
86.80339881656242
 30
0.0
 10
97.93508329240638
 20
86.8059149790953
 30
0.0
 10
97.8666294921009
 20
86.81061269343813
 30
0.0
 10
97.77387795411208
 20
86.81756253293089
 30
0.0
 10
97.65658626711227
 20
86.82729202476817
 30
0.0
 10
97.51374965669405
 20
86.84053902969647
 30
0.0
 10
97.35220025786205
 20
86.85752611873168
 30
0.0
 10
97.17839691898867
 20
86.87781875906195
 30
0.0
 10
97.05377758955541
 20
86.89458419666539
 30
0.0
 10
96.99128468343233
 20
86.90299156752053
 30
0.0
  0
SPLINE
  5
C8
330
1F
100
AcDbEntity
  8
0
  6
HIDDEN
 62
     7
370
     0
100
AcDbSpline
210
0.0
220
0.0
230
1.0
 70
     8
 71
     3
 72
    32
 73
    28
 74
     0
 42
0.00000001
 43
0.00000001
 40
0.0
 40
0.0
 40
0.0
 40
0.0
 40
0.0346246159901393
 40
0.0694870388940023
 40
0.105100760954932
 40
0.1409753874086758
 40
0.1756005721189328
 40
0.210469240812561
 40
0.2461122854708169
 40
0.2820258067991321
 40
0.3162663828049037
 40
0.3859338563640312
 40
0.4214461814158482
 40
0.4553763558770598
 40
0.5243713305904967
 40
0.5595124638219118
 40
0.593798734303577
 40
0.6635059787021123
 40
0.6990055363805018
 40
0.7337623601246063
 40
0.7687606633024604
 40
0.8045245907686109
 40
0.8405553812432468
 40
0.875170121130555
 40
0.9456085132854553
 40
0.9815233266320907
 40
1.0
 40
1.0
 40
1.0
 40
1.0
 10
96.99128468343233
 20
86.90299156752053
 30
0.0
 10
96.9192863815859
 20
86.91277951042886
 30
0.0
 10
96.77479528305274
 20
86.93242262126529
 30
0.0
 10
96.53347534879428
 20
86.96187183988701
 30
0.0
 10
96.27417709780863
 20
86.99042222197743
 30
0.0
 10
96.00018967867602
 20
87.01685344093225
 30
0.0
 10
95.71556189765448
 20
87.04030591828356
 30
0.0
 10
95.42097693868632
 20
87.06030337474216
 30
0.0
 10
95.11404602971801
 20
87.0764590532459
 30
0.0
 10
94.80231456396555
 20
87.08790104094142
 30
0.0
 10
94.38504901528013
 20
87.09659216863925
 30
0.0
 10
93.96440602192257
 20
87.09530411217905
 30
0.0
 10
93.5510024687571
 20
87.08407630081157
 30
0.0
 10
93.14615850568981
 20
87.06677802873072
 30
0.0
 10
92.75552042112764
 20
87.04106238496249
 30
0.0
 10
92.38673934308638
 20
87.00896907406558
 30
0.0
 10
92.03332156083796
 20
86.97341086556314
 30
0.0
 10
91.70788047051707
 20
86.93416240922754
 30
0.0
 10
91.41850326479972
 20
86.8945308918552
 30
0.0
 10
91.22058938782442
 20
86.86539514871295
 30
0.0
 10
91.04326242378691
 20
86.8376609164002
 30
0.0
 10
90.8866530952744
 20
86.81188037214582
 30
0.0
 10
90.7550055755717
 20
86.78927373541164
 30
0.0
 10
90.61314437999998
 20
86.76408769010499
 30
0.0
 10
90.52432579218434
 20
86.74764214098138
 30
0.0
 10
90.48750285363396
 20
86.74074931016519
 30
0.0
 10
90.48891900080713
 20
86.7410142960744
 30
0.0
 10
90.48940006301632
 20
86.7411043112291
 30
0.0
  0
SPLINE
  5
C9
330
1F
100
AcDbEntity
  8
0
  6
HIDDEN
 62
     7
370
     0
100
AcDbSpline
210
0.0
220
0.0
230
1.0
 70
     8
 71
     3
 72
    30
 73
    26
 74
     0
 42
0.00000001
 43
0.00000001
 40
0.0
 40
0.0
 40
0.0
 40
0.0
 40
0.0156161600804337
 40
0.0849748372628082
 40
0.1203204532886746
 40
0.15431851909124
 40
0.2234436946574013
 40
0.2586467089786606
 40
0.2931107206687011
 40
0.3631864361325603
 40
0.3988795186727328
 40
0.4336750628309723
 40
0.4687145712104809
 40
0.5045294144990544
 40
0.5406151111978532
 40
0.5750767863722916
 40
0.6452033649630275
 40
0.6809575734718859
 40
0.7149323277721685
 40
0.784033058295527
 40
0.8192378401372485
 40
0.8533347063218409
 40
0.9226550151093995
 40
0.9579547149334489
 40
1.0
 40
1.0
 40
1.0
 40
1.0
 10
90.48940006301632
 20
126.7399357754449
 30
0.0
 10
90.48880232393122
 20
126.7400480283266
 30
0.0
 10
90.48554974575457
 20
126.7406588488039
 30
0.0
 10
90.5358706482029
 20
126.7311997143467
 30
0.0
 10
90.6361756772442
 20
126.7128948782506
 30
0.0
 10
90.77079266531388
 20
126.6889115728768
 30
0.0
 10
90.95285131034395
 20
126.6578127787303
 30
0.0
 10
91.17977388400922
 20
126.621893634688
 30
0.0
 10
91.4363602893866
 20
126.5835746135489
 30
0.0
 10
91.73439694785928
 20
126.5433294782407
 30
0.0
 10
92.06694620185903
 20
126.5046684548384
 30
0.0
 10
92.3321439072633
 20
126.4772657961072
 30
0.0
 10
92.61120173252225
 20
126.452220959495
 30
0.0
 10
92.90565274841641
 20
126.4300532621994
 30
0.0
 10
93.20851768173266
 20
126.4118911749294
 30
0.0
 10
93.61890366860142
 20
126.393633069935
 30
0.0
 10
94.03974450755621
 20
126.3847858359306
 30
0.0
 10
94.45964842478517
 20
126.3862512303718
 30
0.0
 10
94.87426294563889
 20
126.3942946235391
 30
0.0
 10
95.28048406511472
 20
126.4118014091383
 30
0.0
 10
95.67001456483669
 20
126.4373667221662
 30
0.0
 10
96.04683526607505
 20
126.4675509578804
 30
0.0
 10
96.399972425779
 20
126.5034485327279
 30
0.0
 10
96.74172391360061
 20
126.5442668105865
 30
0.0
 10
96.90339767461018
 20
126.5661517241529
 30
0.0
 10
96.99128468343233
 20
126.5780485191534
 30
0.0
  0
LINE
  5
CA
330
1F
100
AcDbEntity
  8
0
  6
HIDDEN
 62
     7
370
     0
100
AcDbLine
 10
84.240257278
 20
89.7405200433
 30
0.0
 11
84.240257278
 21
123.7405200433
 31
0.0
  0
LWPOLYLINE
  5
CB
330
1F
100
AcDbEntity
  8
0
  6
HIDDEN
 62
     7
370
     0
100
AcDbPolyline
 90
       13
 70
   128
 43
0.0
 10
111.2362826818
 20
128.686122458
 10
112.0679294451
 20
128.7298272565
 10
112.8632292541
 20
128.8590315427
 10
113.587423691
 20
129.0680884692
 10
114.2088619837
 20
129.3478612453
 10
114.700384297
 20
129.686122458
 10
115.040508747
 20
130.0680884692
 10
115.2143702633
 20
130.4770655314
 10
115.2143702633
 20
130.8951793845
 10
115.040508747
 20
131.3041564467
 10
114.700384297
 20
131.686122458
 10
114.2088619837
 20
132.0243836707
 10
113.6223290046
 20
132.2913313965
  0
LWPOLYLINE
  5
CC
330
1F
100
AcDbEntity
  8
0
  6
HIDDEN
 62
     7
370
     0
100
AcDbPolyline
 90
       13
 70
   128
 43
0.0
 10
108.851903988
 20
132.291950768
 10
108.2637033799
 20
132.0243836707
 10
107.7721810667
 20
131.686122458
 10
107.4320566167
 20
131.3041564467
 10
107.2581951004
 20
130.8951793845
 10
107.2581951004
 20
130.4770655314
 10
107.4320566167
 20
130.0680884692
 10
107.7721810667
 20
129.686122458
 10
108.2637033799
 20
129.3478612453
 10
108.8851416727
 20
129.0680884692
 10
109.6093361095
 20
128.8590315427
 10
110.4046359186
 20
128.7298272565
 10
111.2362826818
 20
128.686122458
  0
SPLINE
  5
CD
330
1F
100
AcDbEntity
  8
0
  6
HIDDEN
 62
     7
370
     0
100
AcDbSpline
210
0.0
220
0.0
230
1.0
 70
     8
 71
     3
 72
    11
 73
     7
 74
     0
 42
0.00000001
 43
0.00000001
 40
0.0
 40
0.0
 40
0.0
 40
0.0
 40
0.0005779865010845
 40
0.0005779865010845
 40
0.0005779865010845
 40
0.0011559733324421
 40
0.0011559733324421
 40
0.0011559733324421
 40
0.0011559733324421
 10
71.33628268183075
 20
108.7403606514969
 30
0.0
 10
71.50294993663671
 20
108.7383770121558
 30
0.0
 10
71.66961636631436
 20
108.7363394051473
 30
0.0
 10
71.83628270476619
 20
108.7342279417409
 30
0.0
 10
72.0029491335926
 20
108.7321164771895
 30
0.0
 10
72.16961550723029
 20
108.7299309140332
 30
0.0
 10
72.33628268183074
 20
108.7276483367015
 30
0.0
  0
SPLINE
  5
CE
330
1F
100
AcDbEntity
  8
0
  6
HIDDEN
 62
     7
370
     0
100
AcDbSpline
210
0.0
220
0.0
230
1.0
 70
     8
 71
     3
 72
     8
 73
     4
 74
     0
 42
0.00000001
 43
0.00000001
 40
0.0
 40
0.0
 40
0.0
 40
0.0
 40
0.0011564765856722
 40
0.0011564765856722
 40
0.0011564765856722
 40
0.0011564765856722
 10
72.33628268183074
 20
104.7438197411207
 30
0.0
 10
72.00297475126189
 20
104.7429445855374
 30
0.0
 10
71.66963951886967
 20
104.7418897342859
 30
0.0
 10
71.33628268183074
 20
104.7407186472483
 30
0.0
  0
LINE
  5
CF
330
1F
100
AcDbEntity
  8
0
  6
HIDDEN
 62
     7
370
     0
100
AcDbLine
 10
110.8961086504
 20
89.7405200433
 30
0.0
 11
110.8961086504
 21
123.7405200433
 31
0.0
  0
LINE
  5
D0
330
1F
100
AcDbEntity
  8
0
  6
HIDDEN
 62
     7
370
     0
100
AcDbLine
 10
113.1862826818
 20
91.0155200433
 30
0.0
 11
113.1862826818
 21
122.4655200429
 31
0.0
  0
SPLINE
  5
D1
330
1F
100
AcDbEntity
  8
0
  6
HIDDEN
 62
     7
370
     0
100
AcDbSpline
210
0.0
220
0.0
230
1.0
 70
     8
 71
     3
 72
    16
 73
    12
 74
     0
 42
0.00000001
 43
0.00000001
 40
0.0
 40
0.0
 40
0.0
 40
0.0
 40
0.124999999999998
 40
0.124999999999998
 40
0.249999999999996
 40
0.249999999999996
 40
0.4999999999999973
 40
0.4999999999999973
 40
0.7499999999999987
 40
0.7499999999999987
 40
1.0
 40
1.0
 40
1.0
 40
1.0
 10
80.03628268183073
 20
90.93902960730533
 30
0.0
 10
80.13140443649655
 20
90.93902960730533
 30
0.0
 10
80.22473450522463
 20
90.93521377391254
 30
0.0
 10
80.40799626596264
 20
90.92044322118272
 30
0.0
 10
80.49887398151964
 20
90.90928517320715
 30
0.0
 10
80.75567567903938
 20
90.86681390306542
 30
0.0
 10
80.91074304391138
 20
90.82576770586262
 30
0.0
 10
81.164489505466
 20
90.73062158928073
 30
0.0
 10
81.26535995713385
 20
90.67585885519917
 30
0.0
 10
81.40060637182869
 20
90.56459773129527
 30
0.0
 10
81.43628268183073
 20
90.50742799396659
 30
0.0
 10
81.43628268183073
 20
90.45300642093288
 30
0.0
  0
SPLINE
  5
D2
330
1F
100
AcDbEntity
  8
0
  6
HIDDEN
 62
     7
370
     0
100
AcDbSpline
210
0.0
220
0.0
230
1.0
 70
     8
 71
     3
 72
     8
 73
     4
 74
     0
 42
0.00000001
 43
0.00000001
 40
0.0
 40
0.0
 40
0.0
 40
0.0
 40
1.0
 40
1.0
 40
1.0
 40
1.0
 10
72.63628268514593
 20
93.08383255338758
 30
0.0
 10
72.63628268514785
 20
92.19993541107064
 30
0.0
 10
72.62280205923805
 20
91.4853521660087
 30
0.0
 10
72.62145069104875
 20
90.93902960730533
 30
0.0
  0
LINE
  5
D3
330
1F
100
AcDbEntity
  8
0
  6
HIDDEN
 62
     7
370
     0
100
AcDbLine
 10
72.3362826818
 20
97.1396932509
 30
0.0
 11
72.3362826818
 21
94.1087428191
 31
0.0
  0
SPLINE
  5
D4
330
1F
100
AcDbEntity
  8
0
  6
HIDDEN
 62
     7
370
     0
100
AcDbSpline
210
0.0
220
0.0
230
1.0
 70
     8
 71
     3
 72
    10
 73
     6
 74
     0
 42
0.00000001
 43
0.00000001
 40
0.0
 40
0.0
 40
0.0
 40
0.0
 40
0.5
 40
0.5
 40
1.0
 40
1.0
 40
1.0
 40
1.0
 10
72.63628268501844
 20
98.50753366769416
 30
0.0
 10
72.63628268501841
 20
98.26554970008736
 30
0.0
 10
72.60813265594784
 20
98.03120727112234
 30
0.0
 10
72.50454274180544
 20
97.57583224884465
 30
0.0
 10
72.42791403221393
 20
97.35422768573729
 30
0.0
 10
72.33628268183074
 20
97.13969325093935
 30
0.0
  0
LINE
  5
D5
330
1F
100
AcDbEntity
  8
0
  6
HIDDEN
 62
     7
370
     0
100
AcDbLine
 10
72.636282685
 20
110.3451536649
 30
0.0
 11
72.636282685
 21
98.5075336676
 31
0.0
  0
SPLINE
  5
D6
330
1F
100
AcDbEntity
  8
0
  6
HIDDEN
 62
     7
370
     0
100
AcDbSpline
210
0.0
220
0.0
230
1.0
 70
     8
 71
     3
 72
     8
 73
     4
 74
     0
 42
0.00000001
 43
0.00000001
 40
0.0
 40
0.0
 40
0.0
 40
0.0
 40
1.0
 40
1.0
 40
1.0
 40
1.0
 10
72.33628268183072
 20
116.3474593644053
 30
0.0
 10
72.51731414838963
 20
115.9153518787427
 30
0.0
 10
72.63628268502416
 20
115.461206472643
 30
0.0
 10
72.63628268501846
 20
114.9735064189489
 30
0.0
  0
LINE
  5
D7
330
1F
100
AcDbEntity
  8
0
  6
HIDDEN
 62
     7
370
     0
100
AcDbLine
 10
72.3362826818
 20
119.3806623504
 30
0.0
 11
72.3362826818
 21
116.3474593644
 31
0.0
  0
SPLINE
  5
D8
330
1F
100
AcDbEntity
  8
0
  6
HIDDEN
 62
     7
370
     0
100
AcDbSpline
210
0.0
220
0.0
230
1.0
 70
     8
 71
     3
 72
    10
 73
     6
 74
     0
 42
0.00000001
 43
0.00000001
 40
0.0
 40
0.0
 40
0.0
 40
0.0
 40
0.5
 40
0.5
 40
1.0
 40
1.0
 40
1.0
 40
1.0
 10
72.63628268522395
 20
120.3972075332568
 30
0.0
 10
72.63628268522216
 20
120.2325711866508
 30
0.0
 10
72.60912401446664
 20
120.0654159628203
 30
0.0
 10
72.50335901914823
 20
119.7267929550187
 30
0.0
 10
72.42694423085109
 20
119.5545211777277
 30
0.0
 10
72.33628268183077
 20
119.3806623503837
 30
0.0
  0
SPLINE
  5
D9
330
1F
100
AcDbEntity
  8
0
  6
HIDDEN
 62
     7
370
     0
100
AcDbSpline
210
0.0
220
0.0
230
1.0
 70
     8
 71
     3
 72
    18
 73
    14
 74
     0
 42
0.00000001
 43
0.00000001
 40
0.0
 40
0.0
 40
0.0
 40
0.0
 40
0.2500000000000033
 40
0.2500000000000033
 40
0.3750000000000029
 40
0.3750000000000029
 40
0.5000000000000026
 40
0.5000000000000026
 40
0.6250000000000022
 40
0.6250000000000022
 40
0.7500000000000018
 40
0.7500000000000018
 40
1.0
 40
1.0
 40
1.0
 40
1.0
 10
77.43628268183073
 20
123.0280336657411
 30
0.0
 10
77.43628268183073
 20
122.9735591451889
 30
0.0
 10
77.40137199043856
 20
122.9171780858364
 30
0.0
 10
77.29936268910551
 20
122.833101244983
 30
0.0
 10
77.2577263344274
 20
122.805767540992
 30
0.0
 10
77.15932053893864
 20
122.7528136253931
 30
0.0
 10
77.10177732723436
 20
122.7269262716759
 30
0.0
 10
76.97447915366142
 20
122.6791487268426
 30
0.0
 10
76.90489184890394
 20
122.6572008086647
 30
0.0
 10
76.753457603749
 20
122.617768243752
 30
0.0
 10
76.67077370065505
 20
122.6002119945262
 30
0.0
 10
76.414662238617
 20
122.5577732291056
 30
0.0
 10
76.22674723472902
 20
122.5420104793686
 30
0.0
 10
76.03628268183073
 20
122.5420104793686
 30
0.0
  0
LINE
  5
DA
330
1F
100
AcDbEntity
  8
0
  6
HIDDEN
 62
     7
370
     0
100
AcDbLine
 10
76.0362826818
 20
122.5420104794
 30
0.0
 11
72.6362826852
 21
122.5420104794
 31
0.0
  0
LINE
  5
DB
330
1F
100
AcDbEntity
  8
0
  6
HIDDEN
 62
     7
370
     0
100
AcDbLine
 10
72.5673136952
 20
90.9390296073
 30
0.0
 11
80.0362826818
 21
90.9390296073
 31
0.0
  0
SPLINE
  5
DC
330
1F
100
AcDbEntity
  8
0
  6
HIDDEN
 62
     7
370
     0
100
AcDbSpline
210
0.0
220
0.0
230
1.0
 70
     8
 71
     3
 72
    22
 73
    18
 74
     0
 42
0.00000001
 43
0.00000001
 40
0.0
 40
0.0
 40
0.0
 40
0.0
 40
0.1249999999999998
 40
0.1249999999999998
 40
0.2499999999999995
 40
0.2499999999999995
 40
0.4999999999999992
 40
0.4999999999999992
 40
0.5624999999999993
 40
0.5624999999999993
 40
0.6249999999999994
 40
0.6249999999999994
 40
0.7499999999999996
 40
0.7499999999999996
 40
0.8749999999999998
 40
0.8749999999999998
 40
1.0
 40
1.0
 40
1.0
 40
1.0
 10
72.56731369518864
 20
90.93902960730533
 30
0.0
 10
72.55423130246028
 20
91.194135317453
 30
0.0
 10
72.54101173902045
 20
91.48729357655691
 30
0.0
 10
72.51856456122633
 20
92.14959404218172
 30
0.0
 10
72.50908609420186
 20
92.5198679627931
 30
0.0
 10
72.48988813326532
 20
93.74242476590689
 30
0.0
 10
72.4910019062622
 20
94.67956369203876
 30
0.0
 10
72.50991269921528
 20
95.99943492155374
 30
0.0
 10
72.51454222707429
 20
96.27093683053006
 30
0.0
 10
72.52502344682024
 20
96.82932166533237
 30
0.0
 10
72.53081870810466
 20
97.11644452127197
 30
0.0
 10
72.5491279290096
 20
97.98903377564365
 30
0.0
 10
72.56316286328996
 20
98.58948945199951
 30
0.0
 10
72.59262003542676
 20
99.82696394449559
 30
0.0
 10
72.60817572640835
 20
100.463980101139
 30
0.0
 10
72.63197027640524
 20
101.7754686988236
 30
0.0
 10
72.6399893285506
 20
102.4515913104841
 30
0.0
 10
72.63628268183072
 20
103.1358864217689
 30
0.0
  0
LINE
  5
DD
330
1F
100
AcDbEntity
  8
0
  6
HIDDEN
 62
     7
370
     0
100
AcDbLine
 10
72.6362826852
 20
110.3451536649
 30
0.0
 11
72.6362826852
 21
122.5420104794
 31
0.0
  0
SPLINE
  5
DE
330
1F
100
AcDbEntity
  8
0
  6
HIDDEN
 62
     7
370
     0
100
AcDbSpline
210
0.0
220
0.0
230
1.0
 70
     8
 71
     3
 72
    10
 73
     6
 74
     0
 42
0.00000001
 43
0.00000001
 40
0.0
 40
0.0
 40
0.0
 40
0.0
 40
0.5
 40
0.5
 40
1.0
 40
1.0
 40
1.0
 40
1.0
 10
72.63628268183072
 20
103.1358864217538
 30
0.0
 10
72.63628268183055
 20
103.4098015698282
 30
0.0
 10
72.61052345196283
 20
103.6807431485582
 30
0.0
 10
72.50731751922972
 20
104.2164342301611
 30
0.0
 10
72.42997935535449
 20
104.4821810336831
 30
0.0
 10
72.33628268183072
 20
104.7438197411207
 30
0.0
  0
SPLINE
  5
DF
330
1F
100
AcDbEntity
  8
0
  6
HIDDEN
 62
     7
370
     0
100
AcDbSpline
210
0.0
220
0.0
230
1.0
 70
     8
 71
     3
 72
    10
 73
     6
 74
     0
 42
0.00000001
 43
0.00000001
 40
0.0
 40
0.0
 40
0.0
 40
0.0
 40
0.5
 40
0.5
 40
1.0
 40
1.0
 40
1.0
 40
1.0
 10
72.33628268183072
 20
108.7276483367015
 30
0.0
 10
72.42951326322174
 20
108.9915421447716
 30
0.0
 10
72.50454287545848
 20
109.2577224554099
 30
0.0
 10
72.60960997463663
 20
109.7960450303681
 30
0.0
 10
72.63628268522282
 20
110.0687931466136
 30
0.0
 10
72.63628268522402
 20
110.3451536649041
 30
0.0
  0
LINE
  5
E0
330
1F
100
AcDbEntity
  8
0
  6
HIDDEN
 62
     7
370
     0
100
AcDbLine
 10
72.3362826818
 20
104.7438197411
 30
0.0
 11
72.3362826818
 21
108.7276483367
 31
0.0
  0
LINE
  5
E1
330
1F
100
AcDbEntity
  8
0
  6
HIDDEN
 62
     7
370
     0
100
AcDbLine
 10
214.7362826818
 20
94.2405200433
 30
0.0
 11
214.7362826818
 21
119.2405200433
 31
0.0
  0
LINE
  5
E2
330
1F
100
AcDbEntity
  8
0
  6
HIDDEN
 62
     7
370
     0
100
AcDbLine
 10
160.7362826818
 20
94.3405200433
 30
0.0
 11
160.7362826818
 21
119.1405200005
 31
0.0
  0
SPLINE
  5
E3
330
1F
100
AcDbEntity
  8
0
  6
HIDDEN
 62
     7
370
     0
100
AcDbSpline
210
0.0
220
0.0
230
1.0
 70
     8
 71
     3
 72
    17
 73
    13
 74
     0
 42
0.00000001
 43
0.00000001
 40
0.0
 40
0.0
 40
0.0
 40
0.0
 40
0.1049567236112998
 40
0.2129804928799142
 40
0.3179306582898475
 40
0.4258805519423829
 40
0.5316362072953795
 40
0.6404254582991709
 40
0.7466935798924276
 40
0.8560914427789796
 40
0.9614859711689632
 40
1.0
 40
1.0
 40
1.0
 40
1.0
 10
163.2362826818307
 20
119.3833045467603
 30
0.0
 10
163.3463609354382
 20
119.3841439002648
 30
0.0
 10
163.5697341496738
 20
119.3858471348642
 30
0.0
 10
163.89379966033
 20
119.3991736103395
 30
0.0
 10
164.2019853706414
 20
119.4189703374867
 30
0.0
 10
164.4809704220233
 20
119.4435306720309
 30
0.0
 10
164.72808053254
 20
119.4703513179164
 30
0.0
 10
164.9317851072261
 20
119.49606751187
 30
0.0
 10
165.0904854695033
 20
119.5183401425677
 30
0.0
 10
165.1911744743616
 20
119.5334761567487
 30
0.0
 10
165.238133881517
 20
119.540808093334
 30
0.0
 10
165.2314137567418
 20
119.5397608499187
 30
0.0
 10
165.2296152599439
 20
119.5394805777523
 30
0.0
  0
LINE
  5
E4
330
1F
100
AcDbEntity
  8
0
  6
HIDDEN
 62
     7
370
     0
100
AcDbLine
 10
163.3538159782
 20
119.3848322053
 30
0.0
 11
163.1764187418
 21
119.3838674948
 31
0.0
  0
SPLINE
  5
E5
330
1F
100
AcDbEntity
  8
0
  6
HIDDEN
 62
     7
370
     0
100
AcDbSpline
210
0.0
220
0.0
230
1.0
 70
     8
 71
     3
 72
    17
 73
    13
 74
     0
 42
0.00000001
 43
0.00000001
 40
0.0
 40
0.0
 40
0.0
 40
0.0
 40
0.099343230266358
 40
0.2070887511073845
 40
0.311734890172926
 40
0.4193567764590178
 40
0.5250651343733682
 40
0.6338028546660871
 40
0.7400772309091184
 40
0.8494792730229874
 40
0.9241999288646741
 40
1.0
 40
1.0
 40
1.0
 40
1.0
 10
161.2375975301058
 20
119.5403157584377
 30
0.0
 10
161.2417868277469
 20
119.5396564720282
 30
0.0
 10
161.2505197470832
 20
119.5382821378256
 30
0.0
 10
161.3323563005423
 20
119.5257134737344
 30
0.0
 10
161.4648049209921
 20
119.5065004661046
 30
0.0
 10
161.6465161539111
 20
119.4823220475445
 30
0.0
 10
161.8747480554535
 20
119.4556121210762
 30
0.0
 10
162.1405654407025
 20
119.4296511452372
 30
0.0
 10
162.4408017578147
 20
119.4070035112554
 30
0.0
 10
162.7305424467039
 20
119.3924305846813
 30
0.0
 10
162.9990256447875
 20
119.3846045111773
 30
0.0
 10
163.1568198112716
 20
119.3837399349177
 30
0.0
 10
163.2362826818307
 20
119.3833045467603
 30
0.0
  0
SPLINE
  5
E6
330
1F
100
AcDbEntity
  8
0
  6
HIDDEN
 62
     7
370
     0
100
AcDbSpline
210
0.0
220
0.0
230
1.0
 70
     8
 71
     3
 72
    26
 73
    22
 74
     0
 42
0.00000001
 43
0.00000001
 40
0.0
 40
0.0
 40
0.0
 40
0.0
 40
0.0524858274011456
 40
0.1065049769118984
 40
0.1589876464661937
 40
0.2129710045298997
 40
0.2658462361482867
 40
0.3202377983657174
 40
0.3733767701529396
 40
0.4280806370618856
 40
0.4807832058616576
 40
0.5350421918460625
 40
0.5872878457962648
 40
0.6410371800125442
 40
0.69351766430422
 40
0.7474880259198277
 40
0.8005264683329468
 40
0.8550997593762232
 40
0.9081553303501085
 40
0.9627808007786264
 40
0.9999999999999999
 40
0.9999999999999999
 40
0.9999999999999999
 40
0.9999999999999999
 10
165.2362826818307
 20
93.940520043337
 30
0.0
 10
165.2310123612322
 20
93.94134893530764
 30
0.0
 10
165.2203177527738
 20
93.9430309345171
 30
0.0
 10
165.1343337107868
 20
93.956209262379
 30
0.0
 10
164.9984688633398
 20
93.97583938920258
 30
0.0
 10
164.8136100672664
 20
94.0002811180929
 30
0.0
 10
164.582538509813
 20
94.0270691342165
 30
0.0
 10
164.3145505747126
 20
94.05290556709267
 30
0.0
 10
164.0125993095834
 20
94.07521221741769
 30
0.0
 10
163.6912360531838
 20
94.09099208235558
 30
0.0
 10
163.3545454910052
 20
94.09868443014973
 30
0.0
 10
163.0194052700972
 20
94.09735094481479
 30
0.0
 10
162.6885101905574
 20
94.08723959523839
 30
0.0
 10
162.3765731442205
 20
94.06973694050625
 30
0.0
 10
162.0856875651207
 20
94.04647312588233
 30
0.0
 10
161.8281007542895
 20
94.02029620281002
 30
0.0
 10
161.6071805171238
 20
93.99371582546128
 30
0.0
 10
161.4328465547106
 20
93.97003153562393
 30
0.0
 10
161.3103632973702
 20
93.95200604696599
 30
0.0
 10
161.2433970943125
 20
93.94163581491374
 30
0.0
 10
161.2423397364372
 20
93.94146606611127
 30
0.0
 10
161.2419112519802
 20
93.94139727698588
 30
0.0
  0
LINE
  5
E7
330
1F
100
AcDbEntity
  8
0
  6
HIDDEN
 62
     7
370
     0
100
AcDbLine
 10
171.2362826818
 20
94.2405200433
 30
0.0
 11
171.2362826818
 21
119.2405200433
 31
0.0
  0
LINE
  5
E8
330
1F
100
AcDbEntity
  8
0
  6
HIDDEN
 62
     7
370
     0
100
AcDbLine
 10
72.4862826818
 20
88.7505200433
 30
0.0
 11
72.4862826818
 21
85.8705822779
 31
0.0
  0
LINE
  5
E9
330
1F
100
AcDbEntity
  8
0
  6
HIDDEN
 62
     7
370
     0
100
AcDbLine
 10
81.4362826818
 20
88.7505200433
 30
0.0
 11
81.4362826818
 21
84.7767825121
 31
0.0
  0
LINE
  5
EA
330
1F
100
AcDbEntity
  8
0
  6
HIDDEN
 62
     7
370
     0
100
AcDbLine
 10
72.4862826818
 20
124.7305200433
 30
0.0
 11
72.4862826818
 21
127.6104578087
 31
0.0
  0
LINE
  5
EB
330
1F
100
AcDbEntity
  8
0
  6
HIDDEN
 62
     7
370
     0
100
AcDbLine
 10
77.4362826818
 20
124.7305200433
 30
0.0
 11
77.4362826818
 21
128.5846277157
 31
0.0
  0
LINE
  5
EC
330
1F
100
AcDbEntity
  8
0
  6
HIDDEN
 62
     7
370
     0
100
AcDbLine
 10
122.0362826818
 20
97.2405200433
 30
0.0
 11
122.0362826818
 21
116.2405200433
 31
0.0
  0
LINE
  5
ED
330
1F
100
AcDbEntity
  8
0
  6
HIDDEN
 62
     7
370
     0
100
AcDbLine
 10
125.0362826818
 20
97.2405200433
 30
0.0
 11
125.0362826818
 21
116.2405200433
 31
0.0
  0
LINE
  5
EE
330
1F
100
AcDbEntity
  8
0
  6
HIDDEN
 62
     7
370
     0
100
AcDbLine
 10
113.6862826818
 20
98.2405200433
 30
0.0
 11
113.6862826818
 21
115.2405200433
 31
0.0
  0
LINE
  5
EF
330
1F
100
AcDbEntity
  8
0
  6
HIDDEN
 62
     7
370
     0
100
AcDbLine
 10
119.4239574842
 20
80.3405200433
 30
0.0
 11
116.1862826818
 21
80.3405200433
 31
0.0
  0
LINE
  5
F0
330
1F
100
AcDbEntity
  8
0
  6
HIDDEN
 62
     7
370
     0
100
AcDbLine
 10
129.1862826818
 20
80.3405200433
 30
0.0
 11
123.0486078795
 21
80.3405200433
 31
0.0
  0
LINE
  5
F1
330
1F
100
AcDbEntity
  8
0
  6
HIDDEN
 62
     7
370
     0
100
AcDbLine
 10
108.1862826818
 20
75.2563970605
 30
0.0
 11
108.1862826818
 21
80.3405200433
 31
0.0
  0
LINE
  5
F2
330
1F
100
AcDbEntity
  8
0
  6
HIDDEN
 62
     7
370
     0
100
AcDbLine
 10
116.1862826818
 20
80.3405200433
 30
0.0
 11
108.1862826818
 21
80.3405200433
 31
0.0
  0
LINE
  5
F3
330
1F
100
AcDbEntity
  8
0
  6
HIDDEN
 62
     7
370
     0
100
AcDbLine
 10
119.7205802135
 20
133.1405200433
 30
0.0
 11
116.1862826818
 21
133.1405200433
 31
0.0
  0
LINE
  5
F4
330
1F
100
AcDbEntity
  8
0
  6
HIDDEN
 62
     7
370
     0
100
AcDbLine
 10
116.1862826818
 20
133.1405200433
 30
0.0
 11
108.1862826818
 21
133.1405200433
 31
0.0
  0
LINE
  5
F5
330
1F
100
AcDbEntity
  8
0
  6
HIDDEN
 62
     7
370
     0
100
AcDbLine
 10
129.1862826818
 20
133.1405200433
 30
0.0
 11
122.7519851501
 21
133.1405200433
 31
0.0
  0
SPLINE
  5
F6
330
1F
100
AcDbEntity
  8
0
  6
HIDDEN
 62
     7
370
     0
100
AcDbSpline
210
0.0
220
0.0
230
1.0
 70
     8
 71
     3
 72
    11
 73
     7
 74
     0
 42
0.00000001
 43
0.00000001
 40
0.0
 40
0.0
 40
0.0
 40
0.0
 40
0.0008203708524183
 40
0.0008203708524183
 40
0.0008203708524183
 40
0.0016409967870154
 40
0.0016409967870154
 40
0.0016409967870154
 40
0.0016409967870154
 10
72.48628268183073
 20
90.88848729269426
 30
0.0
 10
72.29512438153208
 20
90.84730826407512
 30
0.0
 10
72.1036973114599
 20
90.80855429184511
 30
0.0
 10
71.91205168793927
 20
90.77218653256658
 30
0.0
 10
71.72034628285881
 20
90.73580742880056
 30
0.0
 10
71.52840733079985
 20
90.70181317803299
 30
0.0
 10
71.33628268372905
 20
90.67016505264179
 30
0.0
  0
ELLIPSE
  5
F7
330
1F
100
AcDbEntity
  8
0
  6
HIDDEN
 62
     7
370
     0
100
AcDbEllipse
 10
67.0938508132
 20
106.7405200433
 30
0.0
 11
20.19992453366628
 21
-1.421085471520200E-14
 31
0.0
210
0.0
220
0.0
230
1.0
 40
0.8164965809
 41
1.300566354718001
 42
1.359198697209606
  0
LINE
  5
F8
330
1F
100
AcDbEntity
  8
0
  6
HIDDEN
 62
     7
370
     0
100
AcDbLine
 10
81.4362826818
 20
88.7505200433
 30
0.0
 11
81.4362826818
 21
90.4530064209
 31
0.0
  0
LINE
  5
F9
330
1F
100
AcDbEntity
  8
0
  6
HIDDEN
 62
     7
370
     0
100
AcDbLine
 10
72.4862826818
 20
88.7505200433
 30
0.0
 11
72.4862826818
 21
90.8884872927
 31
0.0
  0
LINE
  5
FA
330
1F
100
AcDbEntity
  8
0
  6
HIDDEN
 62
     7
370
     0
100
AcDbLine
 10
72.5673136952
 20
90.9390296073
 30
0.0
 11
72.4862826818
 21
90.8884872927
 31
0.0
  0
LINE
  5
FB
330
1F
100
AcDbEntity
  8
0
  6
HIDDEN
 62
     7
370
     0
100
AcDbLine
 10
77.4362826818
 20
124.7305200433
 30
0.0
 11
77.4362826818
 21
123.0280336657
 31
0.0
  0
LINE
  5
FC
330
1F
100
AcDbEntity
  8
0
  6
HIDDEN
 62
     7
370
     0
100
AcDbLine
 10
72.4862826818
 20
124.7305200433
 30
0.0
 11
72.4862826818
 21
122.6351444944
 31
0.0
  0
SPLINE
  5
FD
330
1F
100
AcDbEntity
  8
0
  6
HIDDEN
 62
     7
370
     0
100
AcDbSpline
210
0.0
220
0.0
230
1.0
 70
     8
 71
     3
 72
     8
 73
     4
 74
     0
 42
0.00000001
 43
0.00000001
 40
0.0
 40
0.0
 40
0.0
 40
0.0
 40
1.0
 40
1.0
 40
1.0
 40
1.0
 10
72.48628268183073
 20
122.6351444943956
 30
0.0
 10
72.53628818077445
 20
122.6041087201765
 30
0.0
 10
72.58628825143887
 20
122.573064075149
 30
0.0
 10
72.63628268522399
 20
122.5420104793686
 30
0.0
  0
LINE
  5
FE
330
1F
100
AcDbEntity
  8
0
  6
HIDDEN
 62
     7
370
     0
100
AcDbLine
 10
130.3362826818
 20
101.2405200433
 30
0.0
 11
130.3362826818
 21
112.2405200433
 31
0.0
  0
LINE
  5
FF
330
1F
100
AcDbEntity
  8
0
  6
HIDDEN
 62
     7
370
     0
100
AcDbLine
 10
129.5551638771
 20
102.5405200433
 30
0.0
 11
129.5551638771
 21
110.9405200433
 31
0.0
  0
SPLINE
  5
100
330
1F
100
AcDbEntity
  8
0
  6
HIDDEN
 62
     7
370
     0
100
AcDbSpline
210
0.0
220
0.0
230
1.0
 70
     8
 71
     3
 72
    20
 73
    16
 74
     0
 42
0.00000001
 43
0.00000001
 40
0.0
 40
0.0
 40
0.0
 40
0.0
 40
0.1119447641433472
 40
0.1774630964701162
 40
0.2490837120472975
 40
0.3298310962100081
 40
0.3986025897726371
 40
0.4998809918380415
 40
0.613844613064641
 40
0.6790096842031909
 40
0.7495352586946727
 40
0.8296801644559344
 40
0.8981229357872961
 40
0.9995320098102248
 40
1.0
 40
1.0
 40
1.0
 40
1.0
 10
97.9850891661019
 20
83.14053535060198
 30
0.0
 10
97.94177020440742
 20
83.15396302363267
 30
0.0
 10
97.87309779139194
 20
83.17524956126265
 30
0.0
 10
97.42794306389236
 20
83.27855459680345
 30
0.0
 10
96.90138607433478
 20
83.39185755440958
 30
0.0
 10
96.21596066776392
 20
83.514790503351
 30
0.0
 10
95.32264337094517
 20
83.63682494138031
 30
0.0
 10
94.20928394596112
 20
83.75456125713943
 30
0.0
 10
93.09850987686715
 20
83.76653675708431
 30
0.0
 10
92.21376157310682
 20
83.73947846734279
 30
0.0
 10
91.54656497884598
 20
83.69154640284756
 30
0.0
 10
91.00529247644184
 20
83.63525289051586
 30
0.0
 10
90.61771251744439
 20
83.59016997987538
 30
0.0
 10
90.4237759974012
 20
83.55129680516944
 30
0.0
 10
90.48687845761907
 20
83.56200286240818
 30
0.0
 10
90.4871683298544
 20
83.56205204256268
 30
0.0
  0
LINE
  5
101
330
1F
100
AcDbEntity
  8
0
  6
HIDDEN
 62
     7
370
     0
100
AcDbLine
 10
91.3962945985
 20
83.6728581872
 30
0.0
 11
91.5801399073
 21
83.6910475293
 31
0.0
  0
LINE
  5
102
330
1F
100
AcDbEntity
  8
0
  6
HIDDEN
 62
     7
370
     0
100
AcDbLine
 10
91.5801372089
 20
129.7899231261
 30
0.0
 11
91.4060639272
 21
129.8071326522
 31
0.0
  0
SPLINE
  5
103
330
1F
100
AcDbEntity
  8
0
  6
HIDDEN
 62
     7
370
     0
100
AcDbSpline
210
0.0
220
0.0
230
1.0
 70
     8
 71
     3
 72
    20
 73
    16
 74
     0
 42
0.00000001
 43
0.00000001
 40
0.0
 40
0.0
 40
0.0
 40
0.0
 40
0.0005062902037587
 40
0.1018475588704612
 40
0.1702619380335102
 40
0.2503821969658378
 40
0.3209685901664115
 40
0.3861922572965574
 40
0.5002641443789648
 40
0.6012312598139384
 40
0.6697737788677842
 40
0.7502445191579703
 40
0.8220521533149286
 40
0.8877224004378196
 40
1.0
 40
1.0
 40
1.0
 40
1.0
 10
90.48723385442426
 20
129.9189160400783
 30
0.0
 10
90.48691940131987
 20
129.9189694651653
 30
0.0
 10
90.42366263509666
 20
129.9297166900857
 30
0.0
 10
90.61686004680638
 20
129.8908617409535
 30
0.0
 10
91.00381488364367
 20
129.8458367714184
 30
0.0
 10
91.54481975868484
 20
129.7895741986483
 30
0.0
 10
92.2123205207959
 20
129.7416429108941
 30
0.0
 10
93.09814823436658
 20
129.7145694813536
 30
0.0
 10
94.20895486443601
 20
129.726395473914
 30
0.0
 10
95.32102521529129
 20
129.8438445519521
 30
0.0
 10
96.21212552419516
 20
129.9655489396781
 30
0.0
 10
96.8976099742741
 20
130.0883699853899
 30
0.0
 10
97.42559787398167
 20
130.2018082370392
 30
0.0
 10
97.87298182543235
 20
130.3055487926871
 30
0.0
 10
97.94179229179754
 20
130.3269715859619
 30
0.0
 10
97.98520879911787
 20
130.3404884666077
 30
0.0
  0
LINE
  5
104
330
1F
100
AcDbEntity
  8
0
  6
HIDDEN
 62
     7
370
     0
100
AcDbLine
 10
155.6862826818
 20
81.3178703125
 30
0.0
 11
150.6862826818
 21
81.3178703125
 31
0.0
  0
LINE
  5
105
330
1F
100
AcDbEntity
  8
0
  6
HIDDEN
 62
     7
370
     0
100
AcDbLine
 10
153.1862826818
 20
132.1631697741
 30
0.0
 11
155.6862826818
 21
132.1631697741
 31
0.0
  0
LINE
  5
106
330
1F
100
AcDbEntity
  8
0
  6
HIDDEN
 62
     7
370
     0
100
AcDbLine
 10
150.6862826818
 20
132.1631697741
 30
0.0
 11
153.1862826818
 21
132.1631697741
 31
0.0
  0
LINE
  5
107
330
1F
100
AcDbEntity
  8
0
  6
HIDDEN
 62
     7
370
     0
100
AcDbLine
 10
153.1862826818
 20
118.7405200433
 30
0.0
 11
155.6862826818
 21
118.7405200433
 31
0.0
  0
LINE
  5
108
330
1F
100
AcDbEntity
  8
0
  6
HIDDEN
 62
     7
370
     0
100
AcDbLine
 10
150.6862826818
 20
118.7405200433
 30
0.0
 11
153.1862826818
 21
118.7405200433
 31
0.0
  0
LINE
  5
109
330
1F
100
AcDbEntity
  8
0
  6
HIDDEN
 62
     7
370
     0
100
AcDbLine
 10
155.6862826818
 20
94.7405200433
 30
0.0
 11
150.6862826818
 21
94.7405200433
 31
0.0
  0
SPLINE
  5
10A
330
1F
100
AcDbEntity
  8
0
  6
HIDDEN
 62
     7
370
     0
100
AcDbSpline
210
0.0
220
0.0
230
1.0
 70
     8
 71
     3
 72
    29
 73
    25
 74
     0
 42
0.00000001
 43
0.00000001
 40
0.0
 40
0.0
 40
0.0
 40
0.0
 40
0.0424788490652464
 40
0.0863703874596701
 40
0.1288144707763537
 40
0.1723062560001991
 40
0.2291267328383404
 40
0.2875856695109177
 40
0.3452554015789443
 40
0.4046237297969271
 40
0.4361232463389392
 40
0.4683463133480347
 40
0.4999082316482751
 40
0.5326044226786677
 40
0.5698373972224497
 40
0.6081154188238208
 40
0.6673497330728472
 40
0.7282029480557124
 40
0.7895823055770044
 40
0.8529565728006238
 40
0.8950480000302184
 40
0.9382453367910195
 40
0.9803895576288145
 40
1.0
 40
1.0
 40
1.0
 40
1.0
 10
165.2362826818307
 20
127.4741687864388
 30
0.0
 10
165.2336025756395
 20
127.4710281294144
 30
0.0
 10
165.2281532328428
 20
127.4646423687349
 30
0.0
 10
165.1851806162816
 20
127.4139565846373
 30
0.0
 10
165.1199904016749
 20
127.3359027351359
 30
0.0
 10
165.0265264251249
 20
127.2214124194876
 30
0.0
 10
164.9022167577632
 20
127.0631279273309
 30
0.0
 10
164.7526031424618
 20
126.858098837296
 30
0.0
 10
164.5991627629256
 20
126.6197852299816
 30
0.0
 10
164.4818064146863
 20
126.3905677140578
 30
0.0
 10
164.4090572710856
 20
126.1822029774378
 30
0.0
 10
164.3726298708939
 20
126.0116141160695
 30
0.0
 10
164.3620771329169
 20
125.8334151162402
 30
0.0
 10
164.3807607906579
 20
125.6468551729109
 30
0.0
 10
164.4301476278337
 20
125.4559707183431
 30
0.0
 10
164.5184905634582
 20
125.2336471866405
 30
0.0
 10
164.6460110602509
 20
124.9952331440204
 30
0.0
 10
164.8015909945148
 20
124.7523188608276
 30
0.0
 10
164.9551501005097
 20
124.5359049102346
 30
0.0
 10
165.0756815817323
 20
124.3762639644057
 30
0.0
 10
165.16030652269
 20
124.267429194354
 30
0.0
 10
165.2105012583262
 20
124.2039291791759
 30
0.0
 10
165.2360555134699
 20
124.1719061240341
 30
0.0
 10
165.233497272785
 20
124.1751121567968
 30
0.0
 10
165.2326848931376
 20
124.1761302454312
 30
0.0
  0
LWPOLYLINE
  5
10B
330
1F
100
AcDbEntity
  8
0
  6
HIDDEN
 62
     7
370
     0
100
AcDbPolyline
 90
       24
 70
   128
 43
0.0
 10
161.2368944096
 20
124.3295020328
 10
161.2475291243
 20
124.3420019155
 10
161.2842744332
 20
124.38545394
 10
161.3407170603
 20
124.4530465542
 10
161.4163261607
 20
124.5454378919
 10
161.5407211974
 20
124.7032252738
 10
161.6846799539
 20
124.8986174458
 10
161.8311465905
 20
125.1212299517
 10
161.9702418139
 20
125.380375801
 10
162.0357057856
 20
125.5435073958
 10
162.0836843622
 20
125.7207935244
 10
162.1051832681
 20
125.9024566764
 10
162.0965492139
 20
126.0929720807
 10
162.058099394
 20
126.2806131153
 10
161.995179739
 20
126.4633103936
 10
161.870531108
 20
126.7223943774
 10
161.72756128
 20
126.9608947622
 10
161.5805382477
 20
127.1774182476
 10
161.4426344893
 20
127.3657448623
 10
161.3568984952
 20
127.4780031802
 10
161.2893090254
 20
127.5645054569
 10
161.2503025087
 20
127.6137432711
 10
161.2362826818
 20
127.6313292145
 10
161.2362826818
 20
127.6313292145
  0
LINE
  5
10C
330
1F
100
AcDbEntity
  8
0
  6
HIDDEN
 62
     7
370
     0
100
AcDbLine
 10
165.2362826818
 20
129.2405200433
 30
0.0
 11
161.2362826818
 21
129.2405200433
 31
0.0
  0
LINE
  5
10D
330
1F
100
AcDbEntity
  8
0
  6
HIDDEN
 62
     7
370
     0
100
AcDbLine
 10
163.2362826818
 20
84.7405200433
 30
0.0
 11
165.2362826818
 21
84.7405200433
 31
0.0
  0
LINE
  5
10E
330
1F
100
AcDbEntity
  8
0
  6
HIDDEN
 62
     7
370
     0
100
AcDbLine
 10
161.2362826818
 20
84.7405200433
 30
0.0
 11
163.2362826818
 21
84.7405200433
 31
0.0
  0
SPLINE
  5
10F
330
1F
100
AcDbEntity
  8
0
  6
HIDDEN
 62
     7
370
     0
100
AcDbSpline
210
0.0
220
0.0
230
1.0
 70
     8
 71
     3
 72
    23
 73
    19
 74
     0
 42
0.00000001
 43
0.00000001
 40
0.0
 40
0.0
 40
0.0
 40
0.0
 40
0.0240524462865384
 40
0.1010685105252702
 40
0.1814349098471845
 40
0.2408293312867025
 40
0.3019282804491151
 40
0.3624140699806467
 40
0.4247465756215409
 40
0.4877183824062758
 40
0.551096919751267
 40
0.6273903693682521
 40
0.6853741378172397
 40
0.7449714244635527
 40
0.8043351378616493
 40
0.8656930847325065
 40
0.9512905095582461
 40
1.0
 40
1.0
 40
1.0
 40
1.0
 10
165.2250554490038
 20
89.29532150011093
 30
0.0
 10
165.2283820436105
 20
89.2994997699278
 30
0.0
 10
165.2423604122976
 20
89.31705688249475
 30
0.0
 10
165.1671924996077
 20
89.22288975458079
 30
0.0
 10
165.0363783185285
 20
89.05418996562055
 30
0.0
 10
164.8777335762937
 20
88.83801153234222
 30
0.0
 10
164.724136933023
 20
88.61178726439374
 30
0.0
 10
164.5692158614374
 20
88.35082642976802
 30
0.0
 10
164.4330536914951
 20
88.05491789870571
 30
0.0
 10
164.3516371190381
 20
87.71589187002611
 30
0.0
 10
164.3824347245224
 20
87.33595345580311
 30
0.0
 10
164.5178288765898
 20
87.0062163193176
 30
0.0
 10
164.6819304582032
 20
86.72777192858815
 30
0.0
 10
164.8373853334013
 20
86.50426616097779
 30
0.0
 10
164.9864210187803
 20
86.30939052801298
 30
0.0
 10
165.1299795406204
 20
86.13225383498421
 30
0.0
 10
165.2226707620767
 20
86.02283457798579
 30
0.0
 10
165.2326598936299
 20
86.01111989817915
 30
0.0
 10
165.2362826818307
 20
86.00687130023518
 30
0.0
  0
SPLINE
  5
110
330
1F
100
AcDbEntity
  8
0
  6
HIDDEN
 62
     7
370
     0
100
AcDbSpline
210
0.0
220
0.0
230
1.0
 70
     8
 71
     3
 72
    19
 73
    15
 74
     0
 42
0.00000001
 43
0.00000001
 40
0.0
 40
0.0
 40
0.0
 40
0.0
 40
0.0842370229743165
 40
0.1680990403005503
 40
0.2844695418496864
 40
0.4032237137816489
 40
0.470161686502319
 40
0.5377393992815753
 40
0.5960353086059991
 40
0.6985739384103443
 40
0.8067844865951718
 40
0.9020386211938952
 40
0.9978973071625459
 40
1.0
 40
1.0
 40
1.0
 40
1.0
 10
161.2362826818307
 20
85.84971087220444
 30
0.0
 10
161.2471090396903
 20
85.86319117234167
 30
0.0
 10
161.2687135587233
 20
85.89009176113292
 30
0.0
 10
161.4410942356432
 20
86.11005033790764
 30
0.0
 10
161.7032834514862
 20
86.46831797935542
 30
0.0
 10
161.9676802159223
 20
86.90685625064874
 30
0.0
 10
162.1098345555697
 20
87.34477331524245
 30
0.0
 10
162.1105593572455
 20
87.7088595718964
 30
0.0
 10
161.9866965882417
 20
88.10558873347753
 30
0.0
 10
161.7531841015072
 20
88.49900914006143
 30
0.0
 10
161.4825561767419
 20
88.8567926321603
 30
0.0
 10
161.2966732293441
 20
89.08178091423203
 30
0.0
 10
161.2176789001468
 20
89.17422241361857
 30
0.0
 10
161.2371233600952
 20
89.15126447023717
 30
0.0
 10
161.2375407258689
 20
89.1507716892688
 30
0.0
  0
LINE
  5
111
330
1F
100
AcDbEntity
  8
0
  6
HIDDEN
 62
     7
370
     0
100
AcDbLine
 10
160.3457772759
 20
127.6663172672
 30
0.0
 11
160.2162198839
 21
124.3688614476
 31
0.0
  0
LINE
  5
112
330
1F
100
AcDbEntity
  8
0
  6
HIDDEN
 62
     7
370
     0
100
AcDbLine
 10
160.3457772759
 20
85.8147228195
 30
0.0
 11
160.2162198839
 21
89.1121786391
 31
0.0
  0
SPLINE
  5
113
330
1F
100
AcDbEntity
  8
0
  6
HIDDEN
 62
     7
370
     0
100
AcDbSpline
210
0.0
220
0.0
230
1.0
 70
     8
 71
     3
 72
     8
 73
     4
 74
     0
 42
0.00000001
 43
0.00000001
 40
0.0
 40
0.0
 40
0.0
 40
0.0
 40
0.000159097695343
 40
0.000159097695343
 40
0.000159097695343
 40
0.000159097695343
 10
72.62145069104875
 20
90.93902960730533
 30
0.0
 10
72.5763992205444
 20
90.91105072298156
 30
0.0
 10
72.5313431821296
 20
90.88307919260649
 30
0.0
 10
72.48628268183073
 20
90.85511485325397
 30
0.0
  0
SPLINE
  5
114
330
1F
100
AcDbEntity
  8
0
  6
HIDDEN
 62
     7
370
     0
100
AcDbSpline
210
0.0
220
0.0
230
1.0
 70
     8
 71
     3
 72
    11
 73
     7
 74
     0
 42
0.00000001
 43
0.00000001
 40
0.0
 40
0.0
 40
0.0
 40
0.0
 40
0.0008212909311456
 40
0.0008212909311456
 40
0.0008212909311456
 40
0.001642825724306
 40
0.001642825724306
 40
0.001642825724306
 40
0.001642825724306
 10
72.48628268183074
 20
90.85511485325397
 30
0.0
 10
72.29513766034854
 20
90.8118286644014
 30
0.0
 10
72.10371932467208
 20
90.77089215476414
 30
0.0
 10
71.91207325001093
 20
90.73229038337755
 30
0.0
 10
71.72037016846933
 20
90.69367712954046
 30
0.0
 10
71.52842504518382
 20
90.65739692025446
 30
0.0
 10
71.33628268183065
 20
90.62343001390293
 30
0.0
  0
LINE
  5
115
330
1F
100
AcDbEntity
  8
0
  6
HIDDEN
 62
     7
370
     0
100
AcDbLine
 10
119.3262826818
 20
126.9047735105
 30
0.0
 11
119.3262826818
 21
126.5905200433
 31
0.0
  0
LINE
  5
116
330
1F
100
AcDbEntity
  8
0
  6
HIDDEN
 62
     7
370
     0
100
AcDbLine
 10
123.1462826818
 20
126.9047735105
 30
0.0
 11
123.1462826818
 21
126.5905200433
 31
0.0
  0
LINE
  5
117
330
1F
100
AcDbEntity
  8
0
  6
HIDDEN
 62
     7
370
     0
100
AcDbLine
 10
124.6282155133
 20
131.1992097057
 30
0.0
 11
124.6282155133
 21
126.5905200433
 31
0.0
  0
SPLINE
  5
118
330
1F
100
AcDbEntity
  8
0
  6
HIDDEN
 62
     7
370
     0
100
AcDbSpline
210
0.0
220
0.0
230
1.0
 70
     8
 71
     3
 72
    24
 73
    20
 74
     0
 42
0.00000001
 43
0.00000001
 40
0.0
 40
0.0
 40
0.0
 40
0.0
 40
0.25
 40
0.25
 40
0.374999999999999
 40
0.374999999999999
 40
0.4374999999999993
 40
0.4374999999999993
 40
0.4687499999999994
 40
0.4687499999999994
 40
0.4999999999999995
 40
0.4999999999999995
 40
0.5624999999999971
 40
0.5624999999999971
 40
0.6249999999999947
 40
0.6249999999999947
 40
0.7499999999999947
 40
0.7499999999999947
 40
1.0
 40
1.0
 40
1.0
 40
1.0
 10
71.39894605655414
 20
87.06596749855625
 30
0.0
 10
71.41269917522436
 20
87.13661755654653
 30
0.0
 10
71.43047174263023
 20
87.20321566931146
 30
0.0
 10
71.48272283418558
 20
87.27731368954467
 30
0.0
 10
71.50375790976715
 20
87.29857149670622
 30
0.0
 10
71.55665831739557
 20
87.30671742285247
 30
0.0
 10
71.5777639902735
 20
87.30577761945669
 30
0.0
 10
71.62381615895147
 20
87.28476162787935
 30
0.0
 10
71.64218663093486
 20
87.27385282177173
 30
0.0
 10
71.68373826600055
 20
87.24121791082437
 30
0.0
 10
71.70630493875747
 20
87.219725930453
 30
0.0
 10
71.76908595521749
 20
87.15125998686668
 30
0.0
 10
71.80221571618539
 20
87.1051855286616
 30
0.0
 10
71.8591334026704
 20
87.02017764032692
 30
0.0
 10
71.88331942817416
 20
86.97989733914555
 30
0.0
 10
71.94852737855392
 20
86.8649611126796
 30
0.0
 10
71.98324343874516
 20
86.79437812753258
 30
0.0
 10
72.07645870907606
 20
86.59017236845398
 30
0.0
 10
72.12213124443673
 20
86.46727398612663
 30
0.0
 10
72.16043632793527
 20
86.35040070973903
 30
0.0
  0
SPLINE
  5
119
330
1F
100
AcDbEntity
  8
0
  6
HIDDEN
 62
     7
370
     0
100
AcDbSpline
210
0.0
220
0.0
230
1.0
 70
     8
 71
     3
 72
    11
 73
     7
 74
     0
 42
0.00000001
 43
0.00000001
 40
0.0
 40
0.0
 40
0.0
 40
0.0
 40
0.0005781862223978
 40
0.0005781862223978
 40
0.0005781862223978
 40
0.0011563724723928
 40
0.0011563724723928
 40
0.0011563724723928
 40
0.0011563724723928
 10
72.33628268183074
 20
119.3806623503837
 30
0.0
 10
72.16962212755512
 20
119.4451918617973
 30
0.0
 10
72.00295883064864
 20
119.5096945656411
 30
0.0
 10
71.8362922468184
 20
119.5741810140748
 30
0.0
 10
71.66962565455931
 20
119.6386674657697
 30
0.0
 10
71.50295578893342
 20
119.7031374744978
 30
0.0
 10
71.33628268183068
 20
119.7675932412304
 30
0.0
  0
SPLINE
  5
11A
330
1F
100
AcDbEntity
  8
0
  6
HIDDEN
 62
     7
370
     0
100
AcDbSpline
210
0.0
220
0.0
230
1.0
 70
     8
 71
     3
 72
    11
 73
     7
 74
     0
 42
0.00000001
 43
0.00000001
 40
0.0
 40
0.0
 40
0.0
 40
0.0
 40
0.0005778746105108
 40
0.0005778746105108
 40
0.0005778746105108
 40
0.0011557494857226
 40
0.0011557494857226
 40
0.0011557494857226
 40
0.0011557494857226
 10
71.33628268183071
 20
93.71329818784709
 30
0.0
 10
71.50294955824404
 20
93.77911031454094
 30
0.0
 10
71.66961627780549
 20
93.84496879467858
 30
0.0
 10
71.83628292585414
 20
93.9108763676092
 30
0.0
 10
72.0029496503728
 20
93.97678397077956
 30
0.0
 10
72.16961634479338
 20
94.04274107916807
 30
0.0
 10
72.33628268183074
 20
94.10874281909078
 30
0.0
  0
SPLINE
  5
11B
330
1F
100
AcDbEntity
  8
0
  6
HIDDEN
 62
     7
370
     0
100
AcDbSpline
210
0.0
220
0.0
230
1.0
 70
     8
 71
     3
 72
    11
 73
     7
 74
     0
 42
0.00000001
 43
0.00000001
 40
0.0000000000000006
 40
0.0000000000000006
 40
0.0000000000000006
 40
0.0000000000000006
 40
0.0005780486062768
 40
0.0005780486062768
 40
0.0005780486062768
 40
0.0011560973514127
 40
0.0011560973514127
 40
0.0011560973514127
 40
0.0011560973514127
 10
71.33628268183071
 20
116.7213345450287
 30
0.0
 10
71.50295253787561
 20
116.6589626835142
 30
0.0
 10
71.66962024195989
 20
116.5966088232165
 30
0.0
 10
71.83628654641352
 20
116.5342892630305
 30
0.0
 10
72.00295288710727
 20
116.4719696892936
 30
0.0
 10
72.16961784373606
 20
116.409684484974
 30
0.0
 10
72.33628268183074
 20
116.3474593644053
 30
0.0
  0
SPLINE
  5
11C
330
1F
100
AcDbEntity
  8
0
  6
HIDDEN
 62
     7
370
     0
100
AcDbSpline
210
0.0
220
0.0
230
1.0
 70
     8
 71
     3
 72
    11
 73
     7
 74
     0
 42
0.00000001
 43
0.00000001
 40
0.0
 40
0.0
 40
0.0
 40
0.0
 40
0.0005782401583533
 40
0.0005782401583533
 40
0.0005782401583533
 40
0.0011564805960993
 40
0.0011564805960993
 40
0.0011564805960993
 40
0.0011564805960993
 10
72.33628268183074
 20
97.13969325093933
 30
0.0
 10
72.16963173148183
 20
97.07626779287855
 30
0.0
 10
72.00297213889917
 20
97.01291226922328
 30
0.0
 10
71.83630508647063
 20
96.94961468487331
 30
0.0
 10
71.6696379499068
 20
96.88631706857007
 30
0.0
 10
71.50296334246076
 20
96.82307727362935
 30
0.0
 10
71.33628268183068
 20
96.7598772669905
 30
0.0
  0
CIRCLE
  5
11D
330
1F
100
AcDbEntity
  8
0
  6
HIDDEN
 62
     7
370
     0
100
AcDbCircle
 10
110.2362826818
 20
106.7405200433
 30
0.0
 40
5.0
  0
LINE
  5
11E
330
1F
100
AcDbEntity
  8
0
  6
HIDDEN
 62
     7
370
     0
100
AcDbLine
 10
218.2362826818
 20
124.7412916019
 30
0.0
 11
218.1338145627
 21
122.1333038174
 31
0.0
  0
LINE
  5
11F
330
1F
100
AcDbEntity
  8
0
  6
HIDDEN
 62
     7
370
     0
100
AcDbLine
 10
218.0505494879
 20
125.7493606376
 30
0.0
 11
217.8935102249
 21
121.7524444926
 31
0.0
  0
LINE
  5
120
330
1F
100
AcDbEntity
  8
0
  6
HIDDEN
 62
     7
370
     0
100
AcDbLine
 10
211.0311319848
 20
126.0251543024
 30
0.0
 11
210.8740927218
 21
122.0282381575
 31
0.0
  0
LINE
  5
121
330
1F
100
AcDbEntity
  8
0
  6
HIDDEN
 62
     7
370
     0
100
AcDbLine
 10
210.2522653458
 20
125.3051773871
 30
0.0
 11
210.1541158064
 21
122.8071047965
 31
0.0
  0
LINE
  5
122
330
1F
100
AcDbEntity
  8
0
  6
HIDDEN
 62
     7
370
     0
100
AcDbLine
 10
215.6989502755
 20
123.8402121051
 30
0.0
 11
215.6596904597
 21
122.8409830689
 31
0.0
  0
LINE
  5
123
330
1F
100
AcDbEntity
  8
0
  6
HIDDEN
 62
     7
370
     0
100
AcDbLine
 10
215.7382100912
 20
124.8394411413
 30
0.0
 11
215.6989502755
 21
123.8402121051
 31
0.0
  0
LINE
  5
124
330
1F
100
AcDbEntity
  8
0
  6
HIDDEN
 62
     7
370
     0
100
AcDbLine
 10
215.6989502755
 20
123.8402121051
 30
0.0
 11
218.1970228661
 21
123.7420625657
 31
0.0
  0
LINE
  5
125
330
1F
100
AcDbEntity
  8
0
  6
HIDDEN
 62
     7
370
     0
100
AcDbLine
 10
215.6596904597
 20
122.8409830689
 30
0.0
 11
218.1577630503
 21
122.7428335295
 31
0.0
  0
LINE
  5
126
330
1F
100
AcDbEntity
  8
0
  6
HIDDEN
 62
     7
370
     0
100
AcDbLine
 10
215.7382100912
 20
124.8394411413
 30
0.0
 11
218.2362826818
 21
124.7412916019
 31
0.0
  0
LINE
  5
127
330
1F
100
AcDbEntity
  8
0
  6
HIDDEN
 62
     7
370
     0
100
AcDbLine
 10
217.9720298564
 20
91.7316806388
 30
0.0
 11
218.1290691194
 21
87.7347644938
 31
0.0
  0
LINE
  5
128
330
1F
100
AcDbEntity
  8
0
  6
HIDDEN
 62
     7
370
     0
100
AcDbLine
 10
210.9526123533
 20
91.4558869739
 30
0.0
 11
211.1096516164
 21
87.458970829
 31
0.0
  0
LINE
  5
129
330
1F
100
AcDbEntity
  8
0
  6
HIDDEN
 62
     7
370
     0
100
AcDbLine
 10
218.2123341942
 20
91.350821314
 30
0.0
 11
218.2362826818
 21
90.7412916019
 31
0.0
  0
LINE
  5
12A
330
1F
100
AcDbEntity
  8
0
  6
HIDDEN
 62
     7
370
     0
100
AcDbLine
 10
210.232635438
 20
90.6770203349
 30
0.0
 11
210.3307849774
 21
88.1789477443
 31
0.0
  0
LINE
  5
12B
330
1F
100
AcDbEntity
  8
0
  6
HIDDEN
 62
     7
370
     0
100
AcDbLine
 10
215.777469907
 20
89.6439130263
 30
0.0
 11
215.7382100912
 21
90.6431420625
 31
0.0
  0
LINE
  5
12C
330
1F
100
AcDbEntity
  8
0
  6
HIDDEN
 62
     7
370
     0
100
AcDbLine
 10
215.8167297227
 20
88.6446839901
 30
0.0
 11
215.777469907
 21
89.6439130263
 31
0.0
  0
LINE
  5
12D
330
1F
100
AcDbEntity
  8
0
  6
HIDDEN
 62
     7
370
     0
100
AcDbLine
 10
215.777469907
 20
89.6439130263
 30
0.0
 11
218.2755424976
 21
89.7420625657
 31
0.0
  0
LINE
  5
12E
330
1F
100
AcDbEntity
  8
0
  6
HIDDEN
 62
     7
370
     0
100
AcDbLine
 10
215.7382100912
 20
90.6431420625
 30
0.0
 11
218.2362826818
 21
90.7412916019
 31
0.0
  0
LINE
  5
12F
330
1F
100
AcDbEntity
  8
0
  6
HIDDEN
 62
     7
370
     0
100
AcDbLine
 10
215.8167297227
 20
88.6446839901
 30
0.0
 11
218.3148023133
 21
88.7428335295
 31
0.0
  0
LINE
  5
130
330
1F
100
AcDbEntity
  8
0
  6
HIDDEN
 62
     7
370
     0
100
AcDbLine
 10
160.2362826818
 20
101.9728843405
 30
0.0
 11
160.2362826818
 21
112.7405200433
 31
0.0
  0
LINE
  5
131
330
1F
100
AcDbEntity
  8
0
  6
HIDDEN
 62
     7
370
     0
100
AcDbLine
 10
160.2362826818
 20
100.7405200433
 30
0.0
 11
160.2362826818
 21
101.9728843405
 31
0.0
  0
LINE
  5
132
330
1F
100
AcDbEntity
  8
0
  6
HIDDEN
 62
     7
370
     0
100
AcDbLine
 10
145.2362826818
 20
101.9728843405
 30
0.0
 11
145.2362826818
 21
112.7405200433
 31
0.0
  0
LINE
  5
133
330
1F
100
AcDbEntity
  8
0
  6
HIDDEN
 62
     7
370
     0
100
AcDbLine
 10
145.2362826818
 20
100.7405200433
 30
0.0
 11
145.2362826818
 21
101.9728843405
 31
0.0
  0
LINE
  5
134
330
1F
100
AcDbEntity
  8
0
  6
HIDDEN
 62
     7
370
     0
100
AcDbLine
 10
144.7362826818
 20
102.3701873157
 30
0.0
 11
144.7362826818
 21
112.2405200433
 31
0.0
  0
LINE
  5
135
330
1F
100
AcDbEntity
  8
0
  6
HIDDEN
 62
     7
370
     0
100
AcDbLine
 10
144.7362826818
 20
101.2405200433
 30
0.0
 11
144.7362826818
 21
102.3701873157
 31
0.0
  0
LINE
  5
136
330
1F
100
AcDbEntity
  8
0
  6
HIDDEN
 62
     7
370
     0
100
AcDbLine
 10
164.7362826818
 20
108.7612173395
 30
0.0
 11
162.7362826818
 21
108.7612173395
 31
0.0
  0
LINE
  5
137
330
1F
100
AcDbEntity
  8
0
  6
HIDDEN
 62
     7
370
     0
100
AcDbLine
 10
164.7362826818
 20
101.2405200433
 30
0.0
 11
164.7362826818
 21
108.7612173395
 31
0.0
  0
LINE
  5
138
330
1F
100
AcDbEntity
  8
0
  6
HIDDEN
 62
     7
370
     0
100
AcDbLine
 10
162.7362826818
 20
102.3360048957
 30
0.0
 11
164.7362826818
 21
102.3360048957
 31
0.0
  0
LINE
  5
139
330
1F
100
AcDbEntity
  8
0
  6
HIDDEN
 62
     7
370
     0
100
AcDbLine
 10
164.7362826818
 20
104.7198227472
 30
0.0
 11
162.7362826818
 21
104.7198227472
 31
0.0
  0
LINE
  5
13A
330
1F
100
AcDbEntity
  8
0
  6
HIDDEN
 62
     7
370
     0
100
AcDbLine
 10
164.7362826818
 20
111.145035191
 30
0.0
 11
164.7362826818
 21
112.2405200433
 31
0.0
  0
LINE
  5
13B
330
1F
100
AcDbEntity
  8
0
  6
HIDDEN
 62
     7
370
     0
100
AcDbLine
 10
162.7362826818
 20
111.145035191
 30
0.0
 11
164.7362826818
 21
111.145035191
 31
0.0
  0
LINE
  5
13C
330
1F
100
AcDbEntity
  8
0
  6
HIDDEN
 62
     7
370
     0
100
AcDbLine
 10
162.7362826818
 20
108.7612173395
 30
0.0
 11
162.7362826818
 21
111.145035191
 31
0.0
  0
LINE
  5
13D
330
1F
100
AcDbEntity
  8
0
  6
HIDDEN
 62
     7
370
     0
100
AcDbLine
 10
162.7362826818
 20
107.1259694594
 30
0.0
 11
162.7362826818
 21
108.7612173395
 31
0.0
  0
LINE
  5
13E
330
1F
100
AcDbEntity
  8
0
  6
HIDDEN
 62
     7
370
     0
100
AcDbLine
 10
162.7362826818
 20
107.1259694594
 30
0.0
 11
164.7362826818
 21
107.1259694594
 31
0.0
  0
LINE
  5
13F
330
1F
100
AcDbEntity
  8
0
  6
HIDDEN
 62
     7
370
     0
100
AcDbLine
 10
157.7362826818
 20
107.1259694594
 30
0.0
 11
157.7362826818
 21
105.4082744198
 31
0.0
  0
LINE
  5
140
330
1F
100
AcDbEntity
  8
0
  6
HIDDEN
 62
     7
370
     0
100
AcDbLine
 10
151.7362826818
 20
105.4082744198
 30
0.0
 11
151.7362826818
 21
107.1259694594
 31
0.0
  0
LINE
  5
141
330
1F
100
AcDbEntity
  8
0
  6
HIDDEN
 62
     7
370
     0
100
AcDbLine
 10
157.7362826818
 20
108.843664499
 30
0.0
 11
157.7362826818
 21
107.1259694594
 31
0.0
  0
LINE
  5
142
330
1F
100
AcDbEntity
  8
0
  6
HIDDEN
 62
     7
370
     0
100
AcDbLine
 10
151.7362826818
 20
107.1259694594
 30
0.0
 11
151.7362826818
 21
108.843664499
 31
0.0
  0
LINE
  5
143
330
1F
100
AcDbEntity
  8
0
  6
HIDDEN
 62
     7
370
     0
100
AcDbLine
 10
164.7362826818
 20
109.5097873108
 30
0.0
 11
162.7362826818
 21
109.5097873108
 31
0.0
  0
LINE
  5
144
330
1F
100
AcDbEntity
  8
0
  6
HIDDEN
 62
     7
370
     0
100
AcDbLine
 10
164.7362826818
 20
109.5097873108
 30
0.0
 11
164.7362826818
 21
111.145035191
 31
0.0
  0
LINE
  5
145
330
1F
100
AcDbEntity
  8
0
  6
HIDDEN
 62
     7
370
     0
100
AcDbLine
 10
151.7362826818
 20
104.3567021919
 30
0.0
 11
151.7362826818
 21
105.4082744198
 31
0.0
  0
LINE
  5
146
330
1F
100
AcDbEntity
  8
0
  6
HIDDEN
 62
     7
370
     0
100
AcDbLine
 10
151.7362826818
 20
105.4082744198
 30
0.0
 11
144.7362826818
 21
105.4082744198
 31
0.0
  0
LINE
  5
147
330
1F
100
AcDbEntity
  8
0
  6
HIDDEN
 62
     7
370
     0
100
AcDbLine
 10
157.7362826818
 20
105.4082744198
 30
0.0
 11
157.7362826818
 21
104.3567021919
 31
0.0
  0
LINE
  5
148
330
1F
100
AcDbEntity
  8
0
  6
HIDDEN
 62
     7
370
     0
100
AcDbLine
 10
157.7362826818
 20
105.4082744198
 30
0.0
 11
164.7362826818
 21
105.4082744198
 31
0.0
  0
LINE
  5
149
330
1F
100
AcDbEntity
  8
0
  6
HIDDEN
 62
     7
370
     0
100
AcDbLine
 10
157.7362826818
 20
109.5097873108
 30
0.0
 11
157.7362826818
 21
108.843664499
 31
0.0
  0
LINE
  5
14A
330
1F
100
AcDbEntity
  8
0
  6
HIDDEN
 62
     7
370
     0
100
AcDbLine
 10
157.7362826818
 20
108.843664499
 30
0.0
 11
162.7362826818
 21
108.843664499
 31
0.0
  0
LINE
  5
14B
330
1F
100
AcDbEntity
  8
0
  6
HIDDEN
 62
     7
370
     0
100
AcDbLine
 10
151.7362826818
 20
108.843664499
 30
0.0
 11
151.7362826818
 21
109.5097873108
 31
0.0
  0
LINE
  5
14C
330
1F
100
AcDbEntity
  8
0
  6
HIDDEN
 62
     7
370
     0
100
AcDbLine
 10
151.7362826818
 20
108.843664499
 30
0.0
 11
144.7362826818
 21
108.843664499
 31
0.0
  0
LINE
  5
14D
330
1F
100
AcDbEntity
  8
0
  6
HIDDEN
 62
     7
370
     0
100
AcDbLine
 10
157.7362826818
 20
104.3567021919
 30
0.0
 11
157.7362826818
 21
103.305129964
 31
0.0
  0
LINE
  5
14E
330
1F
100
AcDbEntity
  8
0
  6
HIDDEN
 62
     7
370
     0
100
AcDbLine
 10
151.7362826818
 20
103.305129964
 30
0.0
 11
151.7362826818
 21
104.3567021919
 31
0.0
  0
LINE
  5
14F
330
1F
100
AcDbEntity
  8
0
  6
HIDDEN
 62
     7
370
     0
100
AcDbLine
 10
151.7362826818
 20
109.5097873108
 30
0.0
 11
151.7362826818
 21
110.1759101226
 31
0.0
  0
LINE
  5
150
330
1F
100
AcDbEntity
  8
0
  6
HIDDEN
 62
     7
370
     0
100
AcDbLine
 10
157.7362826818
 20
110.1759101226
 30
0.0
 11
157.7362826818
 21
109.5097873108
 31
0.0
  0
LINE
  5
151
330
1F
100
AcDbEntity
  8
0
  6
HIDDEN
 62
     7
370
     0
100
AcDbLine
 10
157.7362826818
 20
104.6373755876
 30
0.0
 11
162.7362826818
 21
104.6373755876
 31
0.0
  0
LINE
  5
152
330
1F
100
AcDbEntity
  8
0
  6
HIDDEN
 62
     7
370
     0
100
AcDbLine
 10
162.7362826818
 20
103.9712527758
 30
0.0
 11
162.7362826818
 21
104.6373755876
 31
0.0
  0
LINE
  5
153
330
1F
100
AcDbEntity
  8
0
  6
HIDDEN
 62
     7
370
     0
100
AcDbLine
 10
164.7362826818
 20
103.9712527758
 30
0.0
 11
162.7362826818
 21
103.9712527758
 31
0.0
  0
LINE
  5
154
330
1F
100
AcDbEntity
  8
0
  6
HIDDEN
 62
     7
370
     0
100
AcDbLine
 10
157.7362826818
 20
103.305129964
 30
0.0
 11
164.7362826818
 21
103.305129964
 31
0.0
  0
LINE
  5
155
330
1F
100
AcDbEntity
  8
0
  6
HIDDEN
 62
     7
370
     0
100
AcDbLine
 10
151.7362826818
 20
104.6373755876
 30
0.0
 11
144.7362826818
 21
104.6373755876
 31
0.0
  0
LINE
  5
156
330
1F
100
AcDbEntity
  8
0
  6
HIDDEN
 62
     7
370
     0
100
AcDbLine
 10
151.7362826818
 20
103.305129964
 30
0.0
 11
144.7362826818
 21
103.305129964
 31
0.0
  0
LINE
  5
157
330
1F
100
AcDbEntity
  8
0
  6
HIDDEN
 62
     7
370
     0
100
AcDbLine
 10
157.7362826818
 20
108.0727656669
 30
0.0
 11
164.7362826818
 21
108.0727656669
 31
0.0
  0
LINE
  5
158
330
1F
100
AcDbEntity
  8
0
  6
HIDDEN
 62
     7
370
     0
100
AcDbLine
 10
157.7362826818
 20
110.1759101226
 30
0.0
 11
164.7362826818
 21
110.1759101226
 31
0.0
  0
LINE
  5
159
330
1F
100
AcDbEntity
  8
0
  6
HIDDEN
 62
     7
370
     0
100
AcDbLine
 10
164.7362826818
 20
109.5097873108
 30
0.0
 11
164.7362826818
 21
108.7612173395
 31
0.0
  0
LINE
  5
15A
330
1F
100
AcDbEntity
  8
0
  6
HIDDEN
 62
     7
370
     0
100
AcDbLine
 10
151.7362826818
 20
108.0727656669
 30
0.0
 11
144.7362826818
 21
108.0727656669
 31
0.0
  0
LINE
  5
15B
330
1F
100
AcDbEntity
  8
0
  6
HIDDEN
 62
     7
370
     0
100
AcDbLine
 10
151.7362826818
 20
110.1759101226
 30
0.0
 11
144.7362826818
 21
110.1759101226
 31
0.0
  0
LINE
  5
15C
330
1F
100
AcDbEntity
  8
0
  6
HIDDEN
 62
     7
370
     0
100
AcDbLine
 10
162.7362826818
 20
102.3360048957
 30
0.0
 11
162.7362826818
 21
103.9712527758
 31
0.0
  0
LINE
  5
15D
330
1F
100
AcDbEntity
  8
0
  6
HIDDEN
 62
     7
370
     0
100
AcDbLine
 10
162.7362826818
 20
106.3550706273
 30
0.0
 11
164.7362826818
 21
106.3550706273
 31
0.0
  0
LINE
  5
15E
330
1F
100
AcDbEntity
  8
0
  6
HIDDEN
 62
     7
370
     0
100
AcDbLine
 10
162.7362826818
 20
104.6373755876
 30
0.0
 11
162.7362826818
 21
106.3550706273
 31
0.0
  0
LINE
  5
15F
330
1F
100
AcDbEntity
  8
0
  6
HIDDEN
 62
     7
370
     0
100
AcDbLine
 10
107.2362826818
 20
121.0411505491
 30
0.0
 11
107.2362826818
 21
119.1344606862
 31
0.0
  0
LINE
  5
160
330
1F
100
AcDbEntity
  8
0
  6
HIDDEN
 62
     7
370
     0
100
AcDbLine
 10
115.2362826818
 20
119.1344606862
 30
0.0
 11
115.2362826818
 21
121.0383551931
 31
0.0
  0
LINE
  5
161
330
1F
100
AcDbEntity
  8
0
  6
HIDDEN
 62
     7
370
     0
100
AcDbLine
 10
103.2362826818
 20
81.4165888973
 30
0.0
 11
103.3304434574
 21
82.0865776286
 31
0.0
  0
LINE
  5
162
330
1F
100
AcDbEntity
  8
0
  6
HIDDEN
 62
     7
370
     0
100
AcDbLine
 10
103.3304434574
 20
131.3944624581
 30
0.0
 11
103.2362826818
 21
132.0644511893
 31
0.0
  0
ARC
  5
163
330
1F
100
AcDbEntity
  8
0
  6
HIDDEN
 62
     7
370
     0
100
AcDbCircle
 10
102.7362759292
 20
82.1700824289
 30
0.0
 40
0.6000067526677242
100
AcDbArc
 50
352.0
 51
0.0
  0
ARC
  5
164
330
1F
100
AcDbEntity
  8
0
  6
HIDDEN
 62
     7
370
     0
100
AcDbCircle
 10
102.7362759292
 20
82.1700824289
 30
0.0
 40
0.6000067526677242
100
AcDbArc
 50
0.0
 51
33.5571153394
  0
ARC
  5
165
330
1F
100
AcDbEntity
  8
0
  6
HIDDEN
 62
     7
370
     0
100
AcDbCircle
 10
102.7362759292
 20
131.3109576577
 30
0.0
 40
0.6000067526677169
100
AcDbArc
 50
348.75
 51
8.0
  0
LWPOLYLINE
  5
166
330
1F
100
AcDbEntity
  8
0
  6
HIDDEN
 62
     7
370
     0
100
AcDbPolyline
 90
        3
 70
   128
 43
0.0
 10
103.3247537203
 20
131.1939021471
 10
103.2906098873
 20
131.0813450142
 10
103.2362826818
 20
130.9792931427
  0
LINE
  5
167
330
1F
100
AcDbEntity
  8
0
  6
HIDDEN
 62
     7
370
     0
100
AcDbLine
 10
103.3362826818
 20
82.1700824289
 30
0.0
 11
103.3362826818
 21
131.3109576577
 31
0.0
  0
ARC
  5
168
330
1F
100
AcDbEntity
  8
0
  6
HIDDEN
 62
     7
370
     0
100
AcDbCircle
 10
86.3187182471
 20
87.3405200433
 30
0.0
 40
0.6000000000000085
100
AcDbArc
 50
210.0
 51
270.0
  0
ARC
  5
169
330
1F
100
AcDbEntity
  8
0
  6
HIDDEN
 62
     7
370
     0
100
AcDbCircle
 10
86.3187182471
 20
126.1405200433
 30
0.0
 40
0.5999999999999962
100
AcDbArc
 50
90.0
 51
150.0
  0
ARC
  5
16A
330
1F
100
AcDbEntity
  8
0
  6
HIDDEN
 62
     7
370
     0
100
AcDbCircle
 10
96.9912846834
 20
94.7405200433
 30
0.0
 40
8.000000000000012
100
AcDbArc
 50
277.1509416332
 51
321.3178125465
  0
ARC
  5
16B
330
1F
100
AcDbEntity
  8
0
  6
HIDDEN
 62
     7
370
     0
100
AcDbCircle
 10
96.9912846834
 20
118.7405200433
 30
0.0
 40
8.000000000000023
100
AcDbArc
 50
38.6821874535
 51
82.8675204855
  0
LINE
  5
16C
330
1F
100
AcDbEntity
  8
0
  6
HIDDEN
 62
     7
370
     0
100
AcDbLine
 10
86.3187182471
 20
86.7405200433
 30
0.0
 11
90.489400063
 21
86.7405200433
 31
0.0
  0
LINE
  5
16D
330
1F
100
AcDbEntity
  8
0
  6
HIDDEN
 62
     7
370
     0
100
AcDbLine
 10
90.489400063
 20
126.7405200433
 30
0.0
 11
86.3187182471
 21
126.7405200433
 31
0.0
  0
LINE
  5
16E
330
1F
100
AcDbEntity
  8
0
  6
HIDDEN
 62
     7
370
     0
100
AcDbLine
 10
85.7991030049
 20
126.4405200433
 30
0.0
 11
84.240257278
 21
123.7405200433
 31
0.0
  0
LINE
  5
16F
330
1F
100
AcDbEntity
  8
0
  6
HIDDEN
 62
     7
370
     0
100
AcDbLine
 10
84.240257278
 20
89.7405200433
 30
0.0
 11
85.7991030049
 21
87.0405200433
 31
0.0
  0
LINE
  5
170
330
1F
100
AcDbEntity
  8
0
  6
HIDDEN
 62
     7
370
     0
100
AcDbLine
 10
107.2362826818
 20
134.0202522804
 30
0.0
 11
107.2362826818
 21
130.686122458
 31
0.0
  0
LINE
  5
171
330
1F
100
AcDbEntity
  8
0
  6
HIDDEN
 62
     7
370
     0
100
AcDbLine
 10
115.2362826818
 20
130.686122458
 30
0.0
 11
115.2362826818
 21
134.0188775911
 31
0.0
  0
ARC
  5
172
330
1F
100
AcDbEntity
  8
0
  6
HIDDEN
 62
     7
370
     0
100
AcDbCircle
 10
111.6862826818
 20
91.0155200433
 30
0.0
 40
1.500000000000001
100
AcDbArc
 50
238.2116693829
 51
0.0
  0
ARC
  5
173
330
1F
100
AcDbEntity
  8
0
  6
HIDDEN
 62
     7
370
     0
100
AcDbCircle
 10
111.6862826818
 20
122.4655200433
 30
0.0
 40
1.500000000000001
100
AcDbArc
 50
0.0
 51
121.7883306171
  0
LINE
  5
174
330
1F
100
AcDbEntity
  8
0
  6
HIDDEN
 62
     7
370
     0
100
AcDbLine
 10
103.2362826818
 20
89.7405200433
 30
0.0
 11
110.8961086504
 21
89.7405200433
 31
0.0
  0
LINE
  5
175
330
1F
100
AcDbEntity
  8
0
  6
HIDDEN
 62
     7
370
     0
100
AcDbLine
 10
110.8961086504
 20
123.7405200433
 30
0.0
 11
103.2362826818
 21
123.7405200433
 31
0.0
  0
LINE
  5
176
330
1F
100
AcDbEntity
  8
0
  6
HIDDEN
 62
     7
370
     0
100
AcDbLine
 10
81.4362826818
 20
89.7405200433
 30
0.0
 11
84.240257278
 21
89.7405200433
 31
0.0
  0
LINE
  5
177
330
1F
100
AcDbEntity
  8
0
  6
HIDDEN
 62
     7
370
     0
100
AcDbLine
 10
84.240257278
 20
123.7405200433
 30
0.0
 11
77.4362826818
 21
123.7405200433
 31
0.0
  0
ARC
  5
178
330
1F
100
AcDbEntity
  8
0
  6
HIDDEN
 62
     7
370
     0
100
AcDbCircle
 10
217.7362826818
 20
93.2038257953
 30
0.0
 40
0.5
100
AcDbArc
 50
0.0
 51
80.0
  0
ARC
  5
179
330
1F
100
AcDbEntity
  8
0
  6
HIDDEN
 62
     7
370
     0
100
AcDbCircle
 10
217.7362826818
 20
120.2772142914
 30
0.0
 40
0.5000000000000014
100
AcDbArc
 50
280.0
 51
0.0
  0
LINE
  5
17A
330
1F
100
AcDbEntity
  8
0
  6
HIDDEN
 62
     7
370
     0
100
AcDbLine
 10
217.8231067707
 20
119.7848104149
 30
0.0
 11
214.7362826818
 21
119.2405200433
 31
0.0
  0
LINE
  5
17B
330
1F
100
AcDbEntity
  8
0
  6
HIDDEN
 62
     7
370
     0
100
AcDbLine
 10
214.7362826818
 20
94.2405200433
 30
0.0
 11
217.8231067707
 21
93.6962296718
 31
0.0
  0
ARC
  5
17C
330
1F
100
AcDbEntity
  8
0
  6
HIDDEN
 62
     7
370
     0
100
AcDbCircle
 10
161.1362826818
 20
94.3405200433
 30
0.0
 40
0.4000000000000057
100
AcDbArc
 50
180.0
 51
270.0
  0
ARC
  5
17D
330
1F
100
AcDbEntity
  8
0
  6
HIDDEN
 62
     7
370
     0
100
AcDbCircle
 10
161.1362826818
 20
119.1405200433
 30
0.0
 40
0.4000000000000057
100
AcDbArc
 50
90.0
 51
180.0
  0
LINE
  5
17E
330
1F
100
AcDbEntity
  8
0
  6
HIDDEN
 62
     7
370
     0
100
AcDbLine
 10
165.2362826818
 20
93.9405200433
 30
0.0
 11
170.3415086637
 21
93.9405200433
 31
0.0
  0
LINE
  5
17F
330
1F
100
AcDbEntity
  8
0
  6
HIDDEN
 62
     7
370
     0
100
AcDbLine
 10
161.1362826818
 20
93.9405200433
 30
0.0
 11
161.241911252
 21
93.9405200433
 31
0.0
  0
LINE
  5
180
330
1F
100
AcDbEntity
  8
0
  6
HIDDEN
 62
     7
370
     0
100
AcDbLine
 10
161.2375975301
 20
119.5405200433
 30
0.0
 11
161.1362826818
 21
119.5405200433
 31
0.0
  0
LINE
  5
181
330
1F
100
AcDbEntity
  8
0
  6
HIDDEN
 62
     7
370
     0
100
AcDbLine
 10
170.3415086637
 20
119.5405200433
 30
0.0
 11
165.2296152599
 21
119.5405200433
 31
0.0
  0
ARC
  5
182
330
1F
100
AcDbEntity
  8
0
  6
HIDDEN
 62
     7
370
     0
100
AcDbCircle
 10
170.3415086637
 20
94.3405200433
 30
0.0
 40
0.3999999999999977
100
AcDbArc
 50
270.0
 51
290.0
  0
ARC
  5
183
330
1F
100
AcDbEntity
  8
0
  6
HIDDEN
 62
     7
370
     0
100
AcDbCircle
 10
170.3415086637
 20
119.1405200433
 30
0.0
 40
0.3999999999999977
100
AcDbArc
 50
70.0
 51
90.0
  0
LINE
  5
184
330
1F
100
AcDbEntity
  8
0
  6
HIDDEN
 62
     7
370
     0
100
AcDbLine
 10
170.478316721
 20
93.964642995
 30
0.0
 11
171.2362826818
 21
94.2405200433
 31
0.0
  0
LINE
  5
185
330
1F
100
AcDbEntity
  8
0
  6
HIDDEN
 62
     7
370
     0
100
AcDbLine
 10
171.2362826818
 20
119.2405200433
 30
0.0
 11
170.478316721
 21
119.5163970917
 31
0.0
  0
LINE
  5
186
330
1F
100
AcDbEntity
  8
0
  6
HIDDEN
 62
     7
370
     0
100
AcDbLine
 10
171.2362826818
 20
94.2405200433
 30
0.0
 11
214.7362826818
 21
94.2405200433
 31
0.0
  0
LINE
  5
187
330
1F
100
AcDbEntity
  8
0
  6
HIDDEN
 62
     7
370
     0
100
AcDbLine
 10
214.7362826818
 20
119.2405200433
 30
0.0
 11
171.2362826818
 21
119.2405200433
 31
0.0
  0
LINE
  5
188
330
1F
100
AcDbEntity
  8
0
  6
HIDDEN
 62
     7
370
     0
100
AcDbLine
 10
122.0362826818
 20
97.2405200433
 30
0.0
 11
125.0362826818
 21
97.2405200433
 31
0.0
  0
LINE
  5
189
330
1F
100
AcDbEntity
  8
0
  6
HIDDEN
 62
     7
370
     0
100
AcDbLine
 10
125.0362826818
 20
116.2405200433
 30
0.0
 11
122.0362826818
 21
116.2405200433
 31
0.0
  0
LINE
  5
18A
330
1F
100
AcDbEntity
  8
0
  6
HIDDEN
 62
     7
370
     0
100
AcDbLine
 10
113.1862826818
 20
97.7405200433
 30
0.0
 11
113.6862826818
 21
98.2405200433
 31
0.0
  0
LINE
  5
18B
330
1F
100
AcDbEntity
  8
0
  6
HIDDEN
 62
     7
370
     0
100
AcDbLine
 10
113.6862826818
 20
115.2405200433
 30
0.0
 11
113.1862826818
 21
115.7405200433
 31
0.0
  0
LINE
  5
18C
330
1F
100
AcDbEntity
  8
0
  6
HIDDEN
 62
     7
370
     0
100
AcDbLine
 10
113.6862826818
 20
98.2405200433
 30
0.0
 11
122.0362826818
 21
98.2405200433
 31
0.0
  0
LINE
  5
18D
330
1F
100
AcDbEntity
  8
0
  6
HIDDEN
 62
     7
370
     0
100
AcDbLine
 10
122.0362826818
 20
115.2405200433
 30
0.0
 11
113.6862826818
 21
115.2405200433
 31
0.0
  0
LINE
  5
18E
330
1F
100
AcDbEntity
  8
0
  6
HIDDEN
 62
     7
370
     0
100
AcDbLine
 10
108.1862826818
 20
138.2405200433
 30
0.0
 11
108.1862826818
 21
133.1405200433
 31
0.0
  0
LINE
  5
18F
330
1F
100
AcDbEntity
  8
0
  6
HIDDEN
 62
     7
370
     0
100
AcDbLine
 10
160.7362826818
 20
112.7405200433
 30
0.0
 11
160.2362826818
 21
112.2405200433
 31
0.0
  0
LINE
  5
190
330
1F
100
AcDbEntity
  8
0
  6
HIDDEN
 62
     7
370
     0
100
AcDbLine
 10
160.2362826818
 20
101.2405200433
 30
0.0
 11
160.7362826818
 21
100.7405200433
 31
0.0
  0
LINE
  5
191
330
1F
100
AcDbEntity
  8
0
  6
HIDDEN
 62
     7
370
     0
100
AcDbLine
 10
130.3362826818
 20
101.2405200433
 30
0.0
 11
160.2362826818
 21
101.2405200433
 31
0.0
  0
LINE
  5
192
330
1F
100
AcDbEntity
  8
0
  6
HIDDEN
 62
     7
370
     0
100
AcDbLine
 10
160.2362826818
 20
112.2405200433
 30
0.0
 11
130.3362826818
 21
112.2405200433
 31
0.0
  0
LINE
  5
193
330
1F
100
AcDbEntity
  8
0
  6
HIDDEN
 62
     7
370
     0
100
AcDbLine
 10
130.3362826818
 20
112.2405200433
 30
0.0
 11
129.5551638771
 21
110.9405200433
 31
0.0
  0
LINE
  5
194
330
1F
100
AcDbEntity
  8
0
  6
HIDDEN
 62
     7
370
     0
100
AcDbLine
 10
129.5551638771
 20
102.5405200433
 30
0.0
 11
130.3362826818
 21
101.2405200433
 31
0.0
  0
LINE
  5
195
330
1F
100
AcDbEntity
  8
0
  6
HIDDEN
 62
     7
370
     0
100
AcDbLine
 10
98.4207205123
 20
82.6611487098
 30
0.0
 11
97.9862883628
 21
83.1402147289
 31
0.0
  0
LINE
  5
196
330
1F
100
AcDbEntity
  8
0
  6
HIDDEN
 62
     7
370
     0
100
AcDbLine
 10
90.4862850377
 20
83.561902688
 30
0.0
 11
90.0038512944
 21
83.0828367126
 31
0.0
  0
LINE
  5
197
330
1F
100
AcDbEntity
  8
0
  6
HIDDEN
 62
     7
370
     0
100
AcDbLine
 10
90.0037293662
 20
130.3981980837
 30
0.0
 11
90.4862801171
 21
129.9190778258
 31
0.0
  0
LINE
  5
198
330
1F
100
AcDbEntity
  8
0
  6
HIDDEN
 62
     7
370
     0
100
AcDbLine
 10
97.9862825638
 20
130.3407756034
 30
0.0
 11
98.4208249542
 21
130.819895854
 31
0.0
  0
LINE
  5
199
330
1F
100
AcDbEntity
  8
0
  6
HIDDEN
 62
     7
370
     0
100
AcDbLine
 10
125.0362826818
 20
102.5405200433
 30
0.0
 11
129.5551638771
 21
102.5405200433
 31
0.0
  0
LINE
  5
19A
330
1F
100
AcDbEntity
  8
0
  6
HIDDEN
 62
     7
370
     0
100
AcDbLine
 10
129.5551638771
 20
110.9405200433
 30
0.0
 11
125.0362826818
 21
110.9405200433
 31
0.0
  0
LINE
  5
19B
330
1F
100
AcDbEntity
  8
0
  6
HIDDEN
 62
     7
370
     0
100
AcDbLine
 10
97.9862826818
 20
126.678356234
 30
0.0
 11
97.9862826818
 21
130.3402221818
 31
0.0
  0
LINE
  5
19C
330
1F
100
AcDbEntity
  8
0
  6
HIDDEN
 62
     7
370
     0
100
AcDbLine
 10
90.4862826818
 20
129.9188226345
 30
0.0
 11
90.4862826818
 21
126.7399357821
 31
0.0
  0
LINE
  5
19D
330
1F
100
AcDbEntity
  8
0
  6
HIDDEN
 62
     7
370
     0
100
AcDbLine
 10
97.9862826818
 20
83.1406986306
 30
0.0
 11
97.9862826818
 21
86.8026838527
 31
0.0
  0
LINE
  5
19E
330
1F
100
AcDbEntity
  8
0
  6
HIDDEN
 62
     7
370
     0
100
AcDbLine
 10
90.4862826818
 20
86.7411043046
 30
0.0
 11
90.4862826818
 21
83.5622259258
 31
0.0
  0
LINE
  5
19F
330
1F
100
AcDbEntity
  8
0
  6
HIDDEN
 62
     7
370
     0
100
AcDbLine
 10
156.6862826818
 20
80.7405200433
 30
0.0
 11
155.6862826818
 21
81.3178703125
 31
0.0
  0
LINE
  5
1A0
330
1F
100
AcDbEntity
  8
0
  6
HIDDEN
 62
     7
370
     0
100
AcDbLine
 10
150.6862826818
 20
81.3178703125
 30
0.0
 11
149.6862826818
 21
80.7405200433
 31
0.0
  0
LINE
  5
1A1
330
1F
100
AcDbEntity
  8
0
  6
HIDDEN
 62
     7
370
     0
100
AcDbLine
 10
149.6862826818
 20
132.7405200433
 30
0.0
 11
150.6862826818
 21
132.1631697741
 31
0.0
  0
LINE
  5
1A2
330
1F
100
AcDbEntity
  8
0
  6
HIDDEN
 62
     7
370
     0
100
AcDbLine
 10
155.6862826818
 20
132.1631697741
 30
0.0
 11
156.6862826818
 21
132.7405200433
 31
0.0
  0
LINE
  5
1A3
330
1F
100
AcDbEntity
  8
0
  6
HIDDEN
 62
     7
370
     0
100
AcDbLine
 10
150.6862826818
 20
132.1631697741
 30
0.0
 11
150.6862826818
 21
118.7405200433
 31
0.0
  0
LINE
  5
1A4
330
1F
100
AcDbEntity
  8
0
  6
HIDDEN
 62
     7
370
     0
100
AcDbLine
 10
155.6862826818
 20
118.7405200433
 30
0.0
 11
155.6862826818
 21
132.1631697741
 31
0.0
  0
LINE
  5
1A5
330
1F
100
AcDbEntity
  8
0
  6
HIDDEN
 62
     7
370
     0
100
AcDbLine
 10
150.6862826818
 20
118.7405200433
 30
0.0
 11
153.1862826818
 21
117.2383684958
 31
0.0
  0
LINE
  5
1A6
330
1F
100
AcDbEntity
  8
0
  6
HIDDEN
 62
     7
370
     0
100
AcDbLine
 10
153.1862826818
 20
117.2383684958
 30
0.0
 11
155.6862826818
 21
118.7405200433
 31
0.0
  0
LINE
  5
1A7
330
1F
100
AcDbEntity
  8
0
  6
HIDDEN
 62
     7
370
     0
100
AcDbLine
 10
155.6862826818
 20
94.7405200433
 30
0.0
 11
153.1862826818
 21
96.2426715909
 31
0.0
  0
LINE
  5
1A8
330
1F
100
AcDbEntity
  8
0
  6
HIDDEN
 62
     7
370
     0
100
AcDbLine
 10
153.1862826818
 20
96.2426715909
 30
0.0
 11
150.6862826818
 21
94.7405200433
 31
0.0
  0
LINE
  5
1A9
330
1F
100
AcDbEntity
  8
0
  6
HIDDEN
 62
     7
370
     0
100
AcDbLine
 10
155.6862826818
 20
81.3178703125
 30
0.0
 11
155.6862826818
 21
94.7405200433
 31
0.0
  0
LINE
  5
1AA
330
1F
100
AcDbEntity
  8
0
  6
HIDDEN
 62
     7
370
     0
100
AcDbLine
 10
150.6862826818
 20
94.7405200433
 30
0.0
 11
150.6862826818
 21
81.3178703125
 31
0.0
  0
LINE
  5
1AB
330
1F
100
AcDbEntity
  8
0
  6
HIDDEN
 62
     7
370
     0
100
AcDbLine
 10
161.2362826818
 20
124.3295020328
 30
0.0
 11
161.2362826818
 21
119.5403168465
 31
0.0
  0
LINE
  5
1AC
330
1F
100
AcDbEntity
  8
0
  6
HIDDEN
 62
     7
370
     0
100
AcDbLine
 10
161.2362826818
 20
129.2405200433
 30
0.0
 11
161.2362826818
 21
127.6313292145
 31
0.0
  0
LINE
  5
1AD
330
1F
100
AcDbEntity
  8
0
  6
HIDDEN
 62
     7
370
     0
100
AcDbLine
 10
165.2362826818
 20
127.4741687864
 30
0.0
 11
165.2362826818
 21
129.2405200433
 31
0.0
  0
LINE
  5
1AE
330
1F
100
AcDbEntity
  8
0
  6
HIDDEN
 62
     7
370
     0
100
AcDbLine
 10
165.2362826818
 20
119.5394812011
 30
0.0
 11
165.2362826818
 21
124.1761302454
 31
0.0
  0
LINE
  5
1AF
330
1F
100
AcDbEntity
  8
0
  6
HIDDEN
 62
     7
370
     0
100
AcDbLine
 10
161.2362826818
 20
85.8497108722
 30
0.0
 11
161.2362826818
 21
84.7405200433
 31
0.0
  0
LINE
  5
1B0
330
1F
100
AcDbEntity
  8
0
  6
HIDDEN
 62
     7
370
     0
100
AcDbLine
 10
161.2362826818
 20
93.9413962566
 30
0.0
 11
161.2362826818
 21
89.1507716893
 31
0.0
  0
LINE
  5
1B1
330
1F
100
AcDbEntity
  8
0
  6
HIDDEN
 62
     7
370
     0
100
AcDbLine
 10
165.2362826818
 20
89.2953215001
 30
0.0
 11
165.2362826818
 21
93.9405200433
 31
0.0
  0
LINE
  5
1B2
330
1F
100
AcDbEntity
  8
0
  6
HIDDEN
 62
     7
370
     0
100
AcDbLine
 10
165.2362826818
 20
84.7405200433
 30
0.0
 11
165.2362826818
 21
86.0068713002
 31
0.0
  0
LINE
  5
1B3
330
1F
100
AcDbEntity
  8
0
  6
HIDDEN
 62
     7
370
     0
100
AcDbLine
 10
161.2362826818
 20
84.7405200433
 30
0.0
 11
163.2362826818
 21
83.5387988053
 31
0.0
  0
LINE
  5
1B4
330
1F
100
AcDbEntity
  8
0
  6
HIDDEN
 62
     7
370
     0
100
AcDbLine
 10
163.2362826818
 20
83.5387988053
 30
0.0
 11
165.2362826818
 21
84.7405200433
 31
0.0
  0
LINE
  5
1B5
330
1F
100
AcDbEntity
  8
0
  6
HIDDEN
 62
     7
370
     0
100
AcDbLine
 10
218.2362826818
 20
91.391793115
 30
0.0
 11
165.2245347029
 21
89.3089558643
 31
0.0
  0
LINE
  5
1B6
330
1F
100
AcDbEntity
  8
0
  6
HIDDEN
 62
     7
370
     0
100
AcDbLine
 10
165.2362826818
 20
86.0068713002
 30
0.0
 11
218.2362826818
 21
88.0892469716
 31
0.0
  0
LINE
  5
1B7
330
1F
100
AcDbEntity
  8
0
  6
HIDDEN
 62
     7
370
     0
100
AcDbLine
 10
218.2362826818
 20
125.391793115
 30
0.0
 11
165.2362826818
 21
127.4741687864
 31
0.0
  0
LINE
  5
1B8
330
1F
100
AcDbEntity
  8
0
  6
HIDDEN
 62
     7
370
     0
100
AcDbLine
 10
165.2325136739
 20
124.1717707278
 30
0.0
 11
218.2362826818
 21
122.0892469716
 31
0.0
  0
LINE
  5
1B9
330
1F
100
AcDbEntity
  8
0
  6
HIDDEN
 62
     7
370
     0
100
AcDbLine
 10
161.2362826818
 20
127.6313292145
 30
0.0
 11
160.3457772759
 21
127.6663172672
 31
0.0
  0
LINE
  5
1BA
330
1F
100
AcDbEntity
  8
0
  6
HIDDEN
 62
     7
370
     0
100
AcDbLine
 10
160.2162198839
 20
124.3688614476
 30
0.0
 11
161.2368645702
 21
124.3287602086
 31
0.0
  0
LINE
  5
1BB
330
1F
100
AcDbEntity
  8
0
  6
HIDDEN
 62
     7
370
     0
100
AcDbLine
 10
161.2374739284
 20
89.1523038198
 30
0.0
 11
160.2162198839
 21
89.1121786391
 31
0.0
  0
LINE
  5
1BC
330
1F
100
AcDbEntity
  8
0
  6
HIDDEN
 62
     7
370
     0
100
AcDbLine
 10
160.3457772759
 20
85.8147228195
 30
0.0
 11
161.2362826818
 21
85.8497108722
 31
0.0
  0
LINE
  5
1BD
330
1F
100
AcDbEntity
  8
0
  6
HIDDEN
 62
     7
370
     0
100
AcDbLine
 10
160.3457772759
 20
127.6663172672
 30
0.0
 11
159.2903429074
 21
126.0565123247
 31
0.0
  0
LINE
  5
1BE
330
1F
100
AcDbEntity
  8
0
  6
HIDDEN
 62
     7
370
     0
100
AcDbLine
 10
159.2903429074
 20
126.0565123247
 30
0.0
 11
160.2162198839
 21
124.3688614476
 31
0.0
  0
LINE
  5
1BF
330
1F
100
AcDbEntity
  8
0
  6
HIDDEN
 62
     7
370
     0
100
AcDbLine
 10
160.2162198839
 20
89.1121786391
 30
0.0
 11
159.2903429074
 21
87.4245277619
 31
0.0
  0
LINE
  5
1C0
330
1F
100
AcDbEntity
  8
0
  6
HIDDEN
 62
     7
370
     0
100
AcDbLine
 10
159.2903429074
 20
87.4245277619
 30
0.0
 11
160.3457772759
 21
85.8147228195
 31
0.0
  0
LINE
  5
1C1
330
1F
100
AcDbEntity
  8
0
  6
HIDDEN
 62
     7
370
     0
100
AcDbLine
 10
217.8935102249
 20
121.7524444926
 30
0.0
 11
218.1338145627
 21
122.1333038174
 31
0.0
  0
LINE
  5
1C2
330
1F
100
AcDbEntity
  8
0
  6
HIDDEN
 62
     7
370
     0
100
AcDbLine
 10
218.2362826818
 20
125.396339902
 30
0.0
 11
218.0505494879
 21
125.7493606376
 31
0.0
  0
LINE
  5
1C3
330
1F
100
AcDbEntity
  8
0
  6
HIDDEN
 62
     7
370
     0
100
AcDbLine
 10
218.0505494879
 20
125.7493606376
 30
0.0
 11
211.0311319848
 21
126.0251543024
 31
0.0
  0
LINE
  5
1C4
330
1F
100
AcDbEntity
  8
0
  6
HIDDEN
 62
     7
370
     0
100
AcDbLine
 10
210.8740927218
 20
122.0282381575
 30
0.0
 11
217.8935102249
 21
121.7524444926
 31
0.0
  0
LINE
  5
1C5
330
1F
100
AcDbEntity
  8
0
  6
HIDDEN
 62
     7
370
     0
100
AcDbLine
 10
211.0311319848
 20
126.0251543024
 30
0.0
 11
210.2522653458
 21
125.3051773871
 31
0.0
  0
LINE
  5
1C6
330
1F
100
AcDbEntity
  8
0
  6
HIDDEN
 62
     7
370
     0
100
AcDbLine
 10
210.1541158064
 20
122.8071047965
 30
0.0
 11
210.8740927218
 21
122.0282381575
 31
0.0
  0
LINE
  5
1C7
330
1F
100
AcDbEntity
  8
0
  6
HIDDEN
 62
     7
370
     0
100
AcDbLine
 10
217.9720298564
 20
91.7316806388
 30
0.0
 11
210.9526123533
 21
91.4558869739
 31
0.0
  0
LINE
  5
1C8
330
1F
100
AcDbEntity
  8
0
  6
HIDDEN
 62
     7
370
     0
100
AcDbLine
 10
211.1096516164
 20
87.458970829
 30
0.0
 11
218.1290691194
 21
87.7347644938
 31
0.0
  0
LINE
  5
1C9
330
1F
100
AcDbEntity
  8
0
  6
HIDDEN
 62
     7
370
     0
100
AcDbLine
 10
218.1290691194
 20
87.7347644938
 30
0.0
 11
218.2362826818
 21
87.9385439576
 31
0.0
  0
LINE
  5
1CA
330
1F
100
AcDbEntity
  8
0
  6
HIDDEN
 62
     7
370
     0
100
AcDbLine
 10
218.2123341942
 20
91.350821314
 30
0.0
 11
217.9720298564
 21
91.7316806388
 31
0.0
  0
LINE
  5
1CB
330
1F
100
AcDbEntity
  8
0
  6
HIDDEN
 62
     7
370
     0
100
AcDbLine
 10
210.9526123533
 20
91.4558869739
 30
0.0
 11
210.232635438
 21
90.6770203349
 31
0.0
  0
LINE
  5
1CC
330
1F
100
AcDbEntity
  8
0
  6
HIDDEN
 62
     7
370
     0
100
AcDbLine
 10
210.3307849774
 20
88.1789477443
 30
0.0
 11
211.1096516164
 21
87.458970829
 31
0.0
  0
LINE
  5
1CD
330
1F
100
AcDbEntity
  8
0
  6
HIDDEN
 62
     7
370
     0
100
AcDbLine
 10
160.2362826818
 20
100.7405200433
 30
0.0
 11
160.7362826818
 21
101.2405200433
 31
0.0
  0
LINE
  5
1CE
330
1F
100
AcDbEntity
  8
0
  6
HIDDEN
 62
     7
370
     0
100
AcDbLine
 10
160.7362826818
 20
112.2405200433
 30
0.0
 11
160.2362826818
 21
112.7405200433
 31
0.0
  0
LINE
  5
1CF
330
1F
100
AcDbEntity
  8
0
  6
HIDDEN
 62
     7
370
     0
100
AcDbLine
 10
145.2362826818
 20
100.7405200433
 30
0.0
 11
160.2362826818
 21
100.7405200433
 31
0.0
  0
LINE
  5
1D0
330
1F
100
AcDbEntity
  8
0
  6
HIDDEN
 62
     7
370
     0
100
AcDbLine
 10
160.2362826818
 20
112.7405200433
 30
0.0
 11
145.2362826818
 21
112.7405200433
 31
0.0
  0
LINE
  5
1D1
330
1F
100
AcDbEntity
  8
0
  6
HIDDEN
 62
     7
370
     0
100
AcDbLine
 10
145.2362826818
 20
112.7405200433
 30
0.0
 11
144.7362826818
 21
112.2405200433
 31
0.0
  0
LINE
  5
1D2
330
1F
100
AcDbEntity
  8
0
  6
HIDDEN
 62
     7
370
     0
100
AcDbLine
 10
144.7362826818
 20
101.2405200433
 30
0.0
 11
145.2362826818
 21
100.7405200433
 31
0.0
  0
LINE
  5
1D3
330
1F
100
AcDbEntity
  8
0
  6
HIDDEN
 62
     7
370
     0
100
AcDbLine
 10
160.7362826818
 20
101.2405200433
 30
0.0
 11
164.7362826818
 21
101.2405200433
 31
0.0
  0
LINE
  5
1D4
330
1F
100
AcDbEntity
  8
0
  6
HIDDEN
 62
     7
370
     0
100
AcDbLine
 10
164.7362826818
 20
112.2405200433
 30
0.0
 11
160.7362826818
 21
112.2405200433
 31
0.0
  0
LINE
  5
1D5
330
1F
100
AcDbEntity
  8
0
  6
HIDDEN
 62
     7
370
     0
100
AcDbLine
 10
151.7362826818
 20
103.7405200433
 30
0.0
 11
152.213271752
 21
103.7405200433
 31
0.0
  0
LINE
  5
1D6
330
1F
100
AcDbEntity
  8
0
  6
HIDDEN
 62
     7
370
     0
100
AcDbLine
 10
154.1403490773
 20
103.7405200433
 30
0.0
 11
157.7362826818
 21
103.7405200433
 31
0.0
  0
LINE
  5
1D7
330
1F
100
AcDbEntity
  8
0
  6
HIDDEN
 62
     7
370
     0
100
AcDbLine
 10
157.7362826818
 20
109.7405200433
 30
0.0
 11
151.7362826818
 21
109.7405200433
 31
0.0
  0
DIMENSION
  5
1D8
330
1F
100
AcDbEntity
  8
VERMASSUNG
100
AcDbDimension
  2
*D1
 10
64.4908992416
 20
75.2405200433
 30
0.0
 11
64.4908992416
 21
106.7405200433
 31
0.0
 70
   160
  1
HSK A %%c<>
 71
     2
 42
-1.0
  3
SLDDIMSTYLE0
100
AcDbAlignedDimension
 13
103.5362826818
 23
138.2405200433
 33
0.0
 14
103.5362826818
 24
75.2405200433
 34
0.0
 50
90.0
100
AcDbRotatedDimension
  0
DIMENSION
  5
1E5
330
1F
100
AcDbEntity
  8
VERMASSUNG
100
AcDbDimension
  2
*D2
 10
218.2362826818
 20
140.6226435536
 30
0.0
 11
189.4862826818
 21
140.6226435536
 31
0.0
 70
   160
 71
     2
 42
-1.0
  3
SLDDIMSTYLE1
100
AcDbAlignedDimension
 13
160.7362826818
 23
119.1405200433
 33
0.0
 14
218.2362826818
 24
126.4295438142
 34
0.0
 50
0.0
100
AcDbRotatedDimension
  0
DIMENSION
  5
1F0
330
1F
100
AcDbEntity
  8
VERMASSUNG
100
AcDbDimension
  2
*D3
 10
228.3828023089
 20
119.2405200433
 30
0.0
 11
228.3828023089
 21
106.7405200433
 31
0.0
 70
   160
  1
%%c<>
 71
     2
 42
-1.0
  3
SLDDIMSTYLE2
100
AcDbAlignedDimension
 13
214.7362826818
 23
94.2405200433
 33
0.0
 14
214.7362826818
 24
119.2405200433
 34
0.0
 50
90.0
100
AcDbRotatedDimension
  0
DIMENSION
  5
1FC
330
1F
100
AcDbEntity
  8
VERMASSUNG
100
AcDbDimension
  2
*D4
 10
234.3828023089
 20
128.7405200433
 30
0.0
 11
234.3828023089
 21
106.7405200433
 31
0.0
 70
   160
  1
%%c<>
 71
     2
 42
-1.0
  3
SLDDIMSTYLE3
100
AcDbAlignedDimension
 13
218.2362826818
 23
84.7405200433
 33
0.0
 14
218.2362826818
 24
128.7405200433
 34
0.0
 50
90.0
100
AcDbRotatedDimension
  0
DIMENSION
  5
208
330
1F
100
AcDbEntity
  8
VERMASSUNG
100
AcDbDimension
  2
*D5
 10
240.3828023089
 20
132.7405200433
 30
0.0
 11
240.3828023089
 21
106.7405200433
 31
0.0
 70
   160
  1
%%c<>
 71
     2
 42
-1.0
  3
SLDDIMSTYLE3
100
AcDbAlignedDimension
 13
160.2362826818
 23
80.7405200433
 33
0.0
 14
160.2362826818
 24
132.7405200433
 34
0.0
 50
90.0
100
AcDbRotatedDimension
  0
DIMENSION
  5
213
330
1F
100
AcDbEntity
  8
VERMASSUNG
100
AcDbDimension
  2
*D6
 10
218.2362826818
 20
152.6226435536
 30
0.0
 11
160.7362826818
 21
152.6226435536
 31
0.0
 70
   160
 71
     2
 42
-1.0
  3
SLDDIMSTYLE0
100
AcDbAlignedDimension
 13
103.2362826818
 23
137.9405200433
 33
0.0
 14
218.2362826818
 24
126.4295438142
 34
0.0
100
AcDbRotatedDimension
  0
DIMENSION
  5
21D
330
1F
100
AcDbEntity
  8
VERMASSUNG
100
AcDbDimension
  2
*D7
 10
218.2362826818
 20
146.6226435536
 30
0.0
 11
173.7112826818
 21
146.6226435536
 31
0.0
 70
   160
 71
     2
 42
-1.0
  3
SLDDIMSTYLE0
100
AcDbAlignedDimension
 13
129.1862826818
 23
136.5869603671
 33
0.0
 14
218.2362826818
 24
126.4295438142
 34
0.0
100
AcDbRotatedDimension
  0
DIMENSION
  5
227
330
1F
100
AcDbEntity
  8
VERMASSUNG
100
AcDbDimension
  2
*D8
 10
218.2362826818
 20
158.6226435536
 30
0.0
 11
144.7862826818
 21
158.6226435536
 31
0.0
 70
   160
 71
     2
 42
-1.0
  3
SLDDIMSTYLE0
100
AcDbAlignedDimension
 13
71.3362826818
 23
126.4311977898
 33
0.0
 14
218.2362826818
 24
126.4295438142
 34
0.0
100
AcDbRotatedDimension
  0
LINE
  5
231
330
1F
100
AcDbEntity
  8
VERMASSUNG
  6
CENTERX2
370
     0
100
AcDbLine
 10
67.2757313109
 20
106.7405200433
 30
0.0
 11
220.2362826818
 21
106.7405200433
 31
0.0
  0
OLE2FRAME
  5
232
330
1F
100
AcDbEntity
  8
0
100
AcDbOle2Frame
 70
     2
  3
Bitmap Image
 10
13.8511154363
 20
38.264191557
 30
0.0
 11
51.6290888628
 21
31.9806341108
 31
0.0
 71
     2
 72
     0
 73
     1
 90
    12928
310
80552BED0767C5B32B40DDAF6807D121434000000000000000006FFBDDFB85D0
310
4940DDAF6807D121434000000000000000006FFBDDFB85D04940416F4BD60AFB
310
3F4000000000000000002BED0767C5B32B40416F4BD60AFB3F40000000000000
310
0000000000000100000000010000010000000100000000000100000000320000
310
D0CF11E0A1B11AE1000000000000000000000000000000003E000300FEFF0900
310
0600000000000000000000000100000001000000000000000010000002000000
310
01000000FEFFFFFF0000000000000000FFFFFFFFFFFFFFFFFFFFFFFFFFFFFFFF
310
FFFFFFFFFFFFFFFFFFFFFFFFFFFFFFFFFFFFFFFFFFFFFFFFFFFFFFFFFFFFFFFF
310
FFFFFFFFFFFFFFFFFFFFFFFFFFFFFFFFFFFFFFFFFFFFFFFFFFFFFFFFFFFFFFFF
310
FFFFFFFFFFFFFFFFFFFFFFFFFFFFFFFFFFFFFFFFFFFFFFFFFFFFFFFFFFFFFFFF
310
FFFFFFFFFFFFFFFFFFFFFFFFFFFFFFFFFFFFFFFFFFFFFFFFFFFFFFFFFFFFFFFF
310
FFFFFFFFFFFFFFFFFFFFFFFFFFFFFFFFFFFFFFFFFFFFFFFFFFFFFFFFFFFFFFFF
310
FFFFFFFFFFFFFFFFFFFFFFFFFFFFFFFFFFFFFFFFFFFFFFFFFFFFFFFFFFFFFFFF
310
FFFFFFFFFFFFFFFFFFFFFFFFFFFFFFFFFFFFFFFFFFFFFFFFFFFFFFFFFFFFFFFF
310
FFFFFFFFFFFFFFFFFFFFFFFFFFFFFFFFFFFFFFFFFFFFFFFFFFFFFFFFFFFFFFFF
310
FFFFFFFFFFFFFFFFFFFFFFFFFFFFFFFFFFFFFFFFFFFFFFFFFFFFFFFFFFFFFFFF
310
FFFFFFFFFFFFFFFFFFFFFFFFFFFFFFFFFFFFFFFFFFFFFFFFFFFFFFFFFFFFFFFF
310
FFFFFFFFFFFFFFFFFFFFFFFFFFFFFFFFFFFFFFFFFFFFFFFFFFFFFFFFFFFFFFFF
310
FFFFFFFFFFFFFFFFFFFFFFFFFFFFFFFFFFFFFFFFFFFFFFFFFFFFFFFFFFFFFFFF
310
FFFFFFFFFFFFFFFFFFFFFFFFFFFFFFFFFFFFFFFFFFFFFFFFFFFFFFFFFFFFFFFF
310
FDFFFFFFFEFFFFFFFEFFFFFFFEFFFFFF05000000060000000700000008000000
310
090000000A0000000B0000000C0000000D0000000E0000000F00000010000000
310
11000000120000001300000014000000150000001600000017000000FEFFFFFF
310
FFFFFFFFFFFFFFFFFFFFFFFFFFFFFFFFFFFFFFFFFFFFFFFFFFFFFFFFFFFFFFFF
310
FFFFFFFFFFFFFFFFFFFFFFFFFFFFFFFFFFFFFFFFFFFFFFFFFFFFFFFFFFFFFFFF
310
FFFFFFFFFFFFFFFFFFFFFFFFFFFFFFFFFFFFFFFFFFFFFFFFFFFFFFFFFFFFFFFF
310
FFFFFFFFFFFFFFFFFFFFFFFFFFFFFFFFFFFFFFFFFFFFFFFFFFFFFFFFFFFFFFFF
310
FFFFFFFFFFFFFFFFFFFFFFFFFFFFFFFFFFFFFFFFFFFFFFFFFFFFFFFFFFFFFFFF
310
FFFFFFFFFFFFFFFFFFFFFFFFFFFFFFFFFFFFFFFFFFFFFFFFFFFFFFFFFFFFFFFF
310
FFFFFFFFFFFFFFFFFFFFFFFFFFFFFFFFFFFFFFFFFFFFFFFFFFFFFFFFFFFFFFFF
310
FFFFFFFFFFFFFFFFFFFFFFFFFFFFFFFFFFFFFFFFFFFFFFFFFFFFFFFFFFFFFFFF
310
FFFFFFFFFFFFFFFFFFFFFFFFFFFFFFFFFFFFFFFFFFFFFFFFFFFFFFFFFFFFFFFF
310
FFFFFFFFFFFFFFFFFFFFFFFFFFFFFFFFFFFFFFFFFFFFFFFFFFFFFFFFFFFFFFFF
310
FFFFFFFFFFFFFFFFFFFFFFFFFFFFFFFFFFFFFFFFFFFFFFFFFFFFFFFFFFFFFFFF
310
FFFFFFFFFFFFFFFFFFFFFFFFFFFFFFFFFFFFFFFFFFFFFFFFFFFFFFFFFFFFFFFF
310
FFFFFFFFFFFFFFFFFFFFFFFFFFFFFFFFFFFFFFFFFFFFFFFFFFFFFFFFFFFFFFFF
310
52006F006F007400200045006E00740072007900000000000000000000000000
310
0000000000000000000000000000000000000000000000000000000000000000
310
16000500FFFFFFFFFFFFFFFF020000000A00030000000000C000000000000046
310
000000000000000000000000C06AC0FF7305CC0103000000C000000000000000
310
01004F006C006500000000000000000000000000000000000000000000000000
310
0000000000000000000000000000000000000000000000000000000000000000
310
0A000200FFFFFFFFFFFFFFFFFFFFFFFF00000000000000000000000000000000
310
0000000000000000000000000000000000000000000000001400000000000000
310
010043006F006D0070004F0062006A0000000000000000000000000000000000
310
0000000000000000000000000000000000000000000000000000000000000000
310
120002010100000003000000FFFFFFFF00000000000000000000000000000000
310
0000000000000000000000000000000000000000010000004D00000000000000
310
01004F006C006500310030004E00610074006900760065000000000000000000
310
0000000000000000000000000000000000000000000000000000000000000000
310
1A000200FFFFFFFFFFFFFFFFFFFFFFFF00000000000000000000000000000000
310
0000000000000000000000000000000000000000040000002426000000000000
310
FEFFFFFF02000000FEFFFFFFFFFFFFFFFFFFFFFFFFFFFFFFFFFFFFFFFFFFFFFF
310
FFFFFFFFFFFFFFFFFFFFFFFFFFFFFFFFFFFFFFFFFFFFFFFFFFFFFFFFFFFFFFFF
310
FFFFFFFFFFFFFFFFFFFFFFFFFFFFFFFFFFFFFFFFFFFFFFFFFFFFFFFFFFFFFFFF
310
FFFFFFFFFFFFFFFFFFFFFFFFFFFFFFFFFFFFFFFFFFFFFFFFFFFFFFFFFFFFFFFF
310
FFFFFFFFFFFFFFFFFFFFFFFFFFFFFFFFFFFFFFFFFFFFFFFFFFFFFFFFFFFFFFFF
310
FFFFFFFFFFFFFFFFFFFFFFFFFFFFFFFFFFFFFFFFFFFFFFFFFFFFFFFFFFFFFFFF
310
FFFFFFFFFFFFFFFFFFFFFFFFFFFFFFFFFFFFFFFFFFFFFFFFFFFFFFFFFFFFFFFF
310
FFFFFFFFFFFFFFFFFFFFFFFFFFFFFFFFFFFFFFFFFFFFFFFFFFFFFFFFFFFFFFFF
310
FFFFFFFFFFFFFFFFFFFFFFFFFFFFFFFFFFFFFFFFFFFFFFFFFFFFFFFFFFFFFFFF
310
FFFFFFFFFFFFFFFFFFFFFFFFFFFFFFFFFFFFFFFFFFFFFFFFFFFFFFFFFFFFFFFF
310
FFFFFFFFFFFFFFFFFFFFFFFFFFFFFFFFFFFFFFFFFFFFFFFFFFFFFFFFFFFFFFFF
310
FFFFFFFFFFFFFFFFFFFFFFFFFFFFFFFFFFFFFFFFFFFFFFFFFFFFFFFFFFFFFFFF
310
FFFFFFFFFFFFFFFFFFFFFFFFFFFFFFFFFFFFFFFFFFFFFFFFFFFFFFFFFFFFFFFF
310
FFFFFFFFFFFFFFFFFFFFFFFFFFFFFFFFFFFFFFFFFFFFFFFFFFFFFFFFFFFFFFFF
310
FFFFFFFFFFFFFFFFFFFFFFFFFFFFFFFFFFFFFFFFFFFFFFFFFFFFFFFFFFFFFFFF
310
FFFFFFFFFFFFFFFFFFFFFFFFFFFFFFFFFFFFFFFFFFFFFFFFFFFFFFFFFFFFFFFF
310
0100000200000000000000000000000000000000000000000000000000000000
310
0000000000000000000000000000000000000000000000000000000000000000
310
0100FEFF030A0000FFFFFFFF0A00030000000000C00000000000004607000000
310
5042727573680007000000504272757368000700000050427275736800F439B2
310
7100000000000000000000000000000000000000000000000000000000000000
310
0000000000000000000000000000000000000000000000000000000000000000
310
0000000000000000000000000000000000000000000000000000000000000000
310
0000000000000000000000000000000000000000000000000000000000000000
310
0000000000000000000000000000000000000000000000000000000000000000
310
0000000000000000000000000000000000000000000000000000000000000000
310
0000000000000000000000000000000000000000000000000000000000000000
310
0000000000000000000000000000000000000000000000000000000000000000
310
0000000000000000000000000000000000000000000000000000000000000000
310
0000000000000000000000000000000000000000000000000000000000000000
310
0000000000000000000000000000000000000000000000000000000000000000
310
0000000000000000000000000000000000000000000000000000000000000000
310
20260000424D0E260000000000003E00000028000000B40200006E0000000100
310
01000000000000000000130B0000130B00000200000002000000000000FFFFFF
310
FFFFFFFFFFFFFFFFFFFFFFFFFFFFFFFFFFFFFFFFFFFFFFFFFFFFFFFFFFFFFFFF
310
FFFFFFFFFFFFFFFFFFFFFFFFFFFFFFFFFFFFFFFFFFFFFFFFFFFFFFFFFFFFFFFF
310
FFFFFFFFFFFFFFFFFFFFFFFFFFFFFFFFFFFFFFFFFFFFFFFFF000FFFFFFFFFFFF
310
FFFFFFFFFFFFFFFFFFFFFFFFFFFFFFFFFFFFFFFFFFFFFFFFFFFFFFFFFFFFFFFF
310
FFFFFFFFFFFFFFFFFFFFFFFFFFFFFFFFFFFFFFFFFFFFFFFFFFFFFFFFFFFFFFFF
310
FFFFFFFFFFFFFFFFFFFFFFFFFFFFFFFFF000FFFFFFFFFFFFFFFFFFFFFFFFFFFF
310
FFFFFFFFFFFFFFFFFFFFFFFFFFFFFFFFFFFFFFFFFFFFFFFFFFFFFFFFFFFFFFFF
310
FFFFFFFFFFFFFFFFFFFFFFFFFFFFFFFFFFFFFFFFFFFFFFFFFFFFFFFFFFFFFFFF
310
FFFFFFFFFFFFFFFFF000FFFFFFFFFFFFFFFFFFFFFFFFFFFFFFFFFFFFFFFFFFFF
310
FFFFFFFFFFFFFFFFFFFFFFFFFFFFFFFFFFFFFFFFFFFFFFFFFFFFFFFFFFFFFFFF
310
FFFFFFFFFFFFFFFFFFFFFFFFFFFFFFFFFFFFFFFFFFFFFFFFFFFFFFFFFFFFFFFF
310
F000FFFFFFFFFFFFFFFFFFFFFFFFFFFFFFFFFFFFFFFFFFFFFFFFFFFFFFFFFFFF
310
FFFFFFFFFFFFFFFFFFFFFFFFFFFFFFFFFFFFFFFFFFFFFFFFFFFFFFFFFFFFFFFF
310
FFFFFFFFFFFFFFFFFFFFFFFFFFFFFFFFFFFFFFFFFFFFFFFFF000FFFFFFFFFFFF
310
FFFFFFFFFFFFFFFFFFFFFFFFFFFFFFFFFFFFFFFFFFFFFFFFFFFFFFFFFFFFFFFF
310
FFFFFFFFFFFFFFFFFFFFFFFFFFFFFFFFFFFFFFFFFFFFFFFFFFFFFFFFFFFFFFFF
310
FFFFFFFFFFFFFFFFFFFFFFFFFFFFFFFFF000FFFFFFFFFFFFFFFFFFFFFFFFFFFF
310
FFFFFFFFFFFFFFFFFFFFFFFFFFFFFFFFFFFFFFFFFFFFFFFFFFFFFFFFFFFFFFFF
310
FFFFFFFFFFFFFFFFFFFFFFFFFFFFFFFFFFFFFFFFFFFFFFFFFFFFFFFFFFFFFFFF
310
FFFFFFFFFFFFFFFFF000FFFFFFFFFFFFFFFFFFFFFFFFFFFFFFFFFFFFFFFFFFFF
310
FFFFFFFFFFFFFFFFFFFFFFFFFFFFFFFFFFFFFFFFFFFFFFFFFFFFFFFFFFFFFFFF
310
FFFFFFFFFFFFFFFFFFFFFFFFFFFFFFFFFFFFFFFFFFFFFFFFFFFFFFFFFFFFFFFF
310
F000FFFFFFFFFFFFFFFFFFFFFFFFFFFFFFFFFFFFFFFFFFFFFFFFFFFFFFFFFFFF
310
FFFFFFFFFFFFFFFFFFFFFFFFFFFFFFFFFFFFFFFFFFFFFFFFFFFFFFFFFFFFFFFF
310
FFFFFFFFFFFFFFFFFFFFFFFFFFFFFFFFFFFFFFFFFFFFFFFFF000FFFFFFFFFFFF
310
FFFFFFFFFFFFFFFFFFFFFFFFFFFFFFFFFFFFFFFFFFFFFFFFFFFFFFFFFFFFFFFF
310
FFFFFFFFFFFFFFFFFFFFFFFFFFFFFFFFFFFFFFFFFFFFFFFFFFFFFFFFFFFFFFFF
310
FFFFFFFFFFFFFFFFFFFFFFFFFFFFFFFFF000FFFFFFFFFFFFFFFFFFFFFFFFFFFF
310
FFFFFFFFFFFFFFFFFFFFFFFFFFFFFFFFFFFFFFFFFFFFFFFFFFFFFFFFFFFFFFFF
310
FFFFFFFFFFFFFFFFFFFFFFFFFFFFFFFFFFFFFFFFFFFFFFFFFFFFFFFFFFFFFFFF
310
FFFFFFFFFFFFFFFFF000FFFFFFFFFFFFFFFFFFFFFFFFFFFFFFFFFFFFFFFFFFFF
310
FFFFFFFFFFFFFFFFFFFFFFFFFFFFFFFFFFFFFFFFFFFFFFFFFFFFFFFFFFFFFFFF
310
FFFFFFFFFFFFFFFFFFFFFFFFFFFFFFFFFFFFFFFFFFFFFFFFFFFFFFFFFFFFFFFF
310
F000FFFFFFFFFFFFFFFFFFFFFFFFFFFFFFFFFFFFFFFFFFFFFFFFFFFFFFFFFFFF
310
FFFFFFFFFFFFFFFFFFFFFFFFFFFFFFFFFFFFFFFFFFFFFFFFFFFFFFFFFFFFFFFF
310
FFFFFFFFFFFFFFFFFFFFFFFFFFFFFFFFFFFFFFFFFFFFFFFFF000FFFFFFFFFFFF
310
FFFFFFFFFFFFFFFFFFFFFFFFFFFFFFFFFFFFFFFFFFFFFFFFFFFFFFFFFFFFFFFF
310
FFFFFFFFFFFFFFFFFFFFFFFFFFFFFFFFFFFFFFFFFFFFFFFFFFFFFFFFFFFFFFFF
310
FFFFFFFFFFFFFFFFFFFFFFFFFFFFFFFFF000FFFFFFFFFFFFFFFFFFFFFFFFFFFF
310
FFFFFFFFFFFFFFFFFFFFFFFFFFFFFFFFFFFFFFFFFFFFFFFFFFFFFFFFFFFFFFFF
310
FFFFFFFFFFFFFFFFFFFFFFFFFFFFFFFFFFFFFFFFFFFFFFFFFFFFFFFFFFFFFFFF
310
FFFFFFFFFFFFFFFFF000FFFFFFFFFFFFFFFFFFFFFFFFFFFFFFFFFFFFFFFFFFFF
310
FFFFFFFFFFFFFFFFFFFFFFFFFFFFFFFFFFFFFFFFFFFFFFFFFFFFFFFFFFFFFFFF
310
FFFFFFFFFFFFFFFFFFFFFFFFFFFFFFFFFFFFFFFFFFFFFFFFFFFFFFFFFFFFFFFF
310
F000FFFFFFFFFFFFFFFFFFFFFFFFFFFFFFFFFFFFFFFFFFFFFFFFFFFFFFFFFFFF
310
FFFFFFFFFFFFFFFFFFFFFFFFFFFFFFFFFFFFFFFFFFFFFFFFFFFFFFFFFFFFFFFF
310
FFFFFFFFFFFFFFFFFFFFFFFFFFFFFFFFFFFFFFFFFFFFFFFFF000FFFFFFFFFFFF
310
FFFFFFFFFFFFFFFFFFFFFFFFFFFFFFFFFFFFFFFFFFFFFFFFFFFFFFFFFFFFFFFF
310
FFFFFFFFFFFFFFFFFFFFFFFFFFFFFFFFFFFFFFFFFFFFFFFFFFFFFFFFFFFFFFFF
310
FFFFFFFFFFFFFFFFFFFFFFFFFFFFFFFFF000FFFFFFFFFFFFFFFFFFFFFFFFFFFF
310
FFFFFFFFFFFFFFFFFFFFFFFFFFFFFFFFFFFFFFFFFFFFFFFFFFFFFFFFFFFFFFFF
310
FFFFFFFFFFFFFFFFFFFFFFFFFFFFFFFFFFFFFFFFFFFFFFFFFFFFFFFFFFFFFFFF
310
FFFFFFFFFFFFFFFFF000FFFFF80003FFFFFFFFFFFFFFFFFFFFFFFFFFFFFFFFFF
310
FFFFF00007FFFFFFFFFF00007FFFFFF800000000000000007FFFFFFFFFFFFFFF
310
FFFFFFFC001FFFFFFFFFFFFFFC001FFFFFFFFFFFFFFFFFFFFFFFFFFE0007FFFF
310
F000FFFF8000007FFFFFFFF8000FFFFFC0007FFFFF80007FFFFF0000007FFFFF
310
FFF8000007FFFFF800000000000000007FFFFFF0001FFFFFFFFFFFC00001FFFF
310
FFFFFFFFC00001FFFFFFFF000000000003FFFFE000007FFFF000FFFE0000000F
310
FFFFFFF0000FFFFF80007FFFFF80007FFFFC0000001FFFFFFFC0000001FFFFF8
310
00000000000000007FFFFFF0001FFFFFFFFFFE0000003FFFFFFFFFFE0000003F
310
FFFFFF000000000003FFFF0000000FFFF000FFF800000003FFFFFFF00007FFFF
310
80007FFFFF80007FFFF000000007FFFFFF000000003FFFF80000000000000000
310
7FFFFFF0001FFFFFFFFFF80000000FFFFFFFFFF80000000FFFFFFF0000000000
310
03FFFC00000003FFF000FFE000000000FFFFFFF00007FFFF80003FFFFF80007F
310
FFC000000001FFFFFC000000001FFFF800000000000000007FFFFFF0001FFFFF
310
FFFFE000000003FFFFFFFFE000000003FFFFFF000000000003FFF000000000FF
310
F000FF80000000007FFFFFF00007FFFF80003FFFFF80007FFF8000000000FFFF
310
F80000000007FFF800000000000000007FFFFFF0001FFFFFFFFFC000000001FF
310
FFFFFFC000000001FFFFFF000000000003FFC0000000007FF000FF0000000000
310
3FFFFFE00007FFFF00003FFFFF80007FFE00000000003FFFF00000000003FFF8
310
00000000000000007FFFFFF0001FFFFFFFFF8000000000FFFFFFFF8000000000
310
FFFFFF000000000003FF80000000003FF000FE00000000001FFFFFE00003FFFF
310
00003FFFFF80007FFC00000000001FFFE00000000001FFF8000001FFFE000000
310
7FFFFFF0001FFFFFFFFE00000000003FFFFFFE00000000003FFFFF0000000000
310
03FF00000000001FF000FC00000000000FFFFFE00003FFFF00001FFFFF80007F
310
F800000000001FFFC00000000000FFF8000001FFFE0000007FFFFFF0001FFFFF
310
FFFC00000000001FFFFFFC00000000001FFFFF000000000003FE00000000000F
310
F000F8000000000007FFFFE00003FFFF00001FFFFF80007FF800000000000FFF
310
800000000000FFF8000001FFFE0000007FFFFFF0001FFFFFFFF800000000000F
310
FFFFF800000000000FFFFF000000000003FC000000000007F000F80000000000
310
03FFFFC00003FFFE00001FFFFF80007FF0000000000007FF0000000000007FF8
310
000001FFFE0000007FFFFFF0001FFFFFFFF0000000000007FFFFF00000000000
310
07FFFF000000000003F8000000000003F000F0000000000003FFFFC00001FFFE
310
00001FFFFF80007FE0000000000007FE0000000000003FF8000001FFFE000000
310
7FFFFFF0001FFFFFFFF0000000000007FFFFF0000000000007FFFF0000000000
310
03F800001F800003F000E00001FFF00001FFFFC00001FFFE00000FFFFF80007F
310
E00001FFE00003FE00001FFF00003FF8000001FFFE0000007FFFFFF0001FFFFF
310
FFE000003E000003FFFFE000003E000003FFFF000000000003F00001FFF80001
310
F000E00007FFFC0001FFFFC00001FFFE00000FFFFF80007FC0000FFFFC0003FC
310
0000FFFFC0001FF8000001FFFE0000007FFFFFF0001FFFFFFFC00003FFE00001
310
FFFFC00003FFE00001FFFF0001FFFFFFFFF00007FFFE0001F000E0000FFFFF00
310
00FFFF800001FFFC00000FFFFF80007FC0001FFFFE0001FC0001FFFFE0001FF8
310
000001FFFE0000007FFFFFF0001FFFFFFF80000FFFF80000FFFF80000FFFF800
310
00FFFF0003FFFFFFFFE0000FFFFF8000F000C0003FFFFF8000FFFF800000FFFC
310
000007FFFF80007F80003FFFFF0001FC0003FFFFF0001FF8000001FFFE000000
310
7FFFFFF0001FFFFFFF80003FFFFE0000FFFF80003FFFFE0000FFFF0003FFFFFF
310
FFE0003FFFFF8000F000C0003FFFFF8000FFFF800000FFFC000007FFFF80007F
310
80007FFFFF8001F80007FFFFF8000FF8000001FFFE0000007FFFFFF0001FFFFF
310
FF00007FFFFF00007FFF00007FFFFF00007FFF0003FFFFFFFFE0003FFFFFC000
310
F000C0007FFFFFC000FFFF000000FFFC000007FFFF80007F8000FFFFFF8000F8
310
000FFFFFF8000FF8000001FFFE0000007FFFFFF0001FFFFFFF0000FFFFFF8000
310
7FFF0000FFFFFF80007FFF0003FFFFFFFFC0007FFFFFC00070008000FFFFFFC0
310
00FFFF000000FFF8000007FFFF80007F8000FFFFFF8000F8000FFFFFF8000FF8
310
000001FFFE0000007FFFFFF0001FFFFFFE0001FFFFFFC0003FFE0001FFFFFFC0
310
003FFF0003FFFFFFFFC0007FFFFFE00070008000FFFFFFC0007FFF0000007FF8
310
000003FFFF80007F0001FFFFFF8000F8000FFFFFF8000FF8000001FFFE000000
310
7FFFFFF0001FFFFFFE0001FFFFFFC0003FFE0001FFFFFFC0003FFF0003FFFFFF
310
FFC000FFFFFFE00070008000FFFFFFC0007FFF0000007FF8000003FFFF80007F
310
0001FFFFFF8000F8001FFFFFF8000FF8000001FFFE0000007FFFFFF0001FFFFF
310
FE0003FFFFFFE0003FFE0003FFFFFFE0003FFF0003FFFFFFFFC000FFFFFFE000
310
70008000FFFFFFC0007FFE0000007FF8000003FFFF80007F0001FFFFFF8000F0
310
001FFFFFF8000FF8000001FFFE0000007FFFFFF0001FFFFFFC0003FFFFFFE000
310
1FFC0003FFFFFFE0001FFF0003FFFFFFFFC000FFFFFFC00070008000FFFFFF80
310
007FFE0000007FF0000003FFFF80007F0001FFFFFF0000F0001FFFFFF8000FF8
310
000001FFFE0000007FFFFFF0001FFFFFFC0007FFFFFFF0001FFC0007FFFFFFF0
310
001FFF0003FFFFFFFFC000FFFFFFC00070008001FFFFFF0000FFFE0000003FF0
310
000001FFFF80007F0001FFFFFF0000F8001FFFFFF0000FF8000001FFFE000000
310
7FFFFFF0001FFFFFFC0007FFFFFFF0001FFC0007FFFFFFF0001FFF0003FFFFFF
310
FFC001FFFFFF80007000FFFFFFFFFE0000FFFE0008003FF0008001FFFF80007F
310
FFFFFFFFFC0000FFFFFFFFFFE0000FF8000001FFFE0000007FFFFFF0001FFFFF
310
F8000FFFFFFFF8000FF8000FFFFFFFF8000FFF0003FFFFFFFFFFFFFFFFFF0000
310
7000FFFFFFFFFC0000FFFC0008003FF0008001FFFF80007FFFFFFFFFF80001FF
310
FFFFFFFF80000FF8000001FFFE0000007FFFFFF0001FFFFFF8000FFFFFFFF800
310
0FF8000FFFFFFFF8000FFF0003FFFFFFFFFFFFFFFFFE0000F000FFFFFFFFE000
310
00FFFC000C003FE000C001FFFF80007FFFFFFFFFC00001FFFFFFFFFE00001FF8
310
000001FFFE0000007FFFFFF0001FFFFFF8000FFFFFFFF8000FF8000FFFFFFFF8
310
000FFF0003FFFFFFFFFFFFFFFFF00000F000FFFFFFFE000001FFFC000C001FE0
310
00C000FFFF80007FFFFFFFFE000001FFFFFFFFE000001FF80FFFFFFFFFFFFFC0
310
7FFFFFF0001FFFFFF8000FFFFFFFF8000FF8000FFFFFFFF8000FFF0003FFFFFF
310
FFFFFFFFFF800000F000FFFFFFC0000001FFFC001C001FE001C000FFFF80007F
310
FFFFFF80000003FFFFFFF80000001FF80FFFFFFFFFFFFFC07FFFFFF0001FFFFF
310
F8001FFFFFFFFC000FF8001FFFFFFFFC000FFF0003FFFFFFFFFFFFFFF0000001
310
F000FFFFF800000001FFF8001C001FE001C000FFFF80007FFFFFF800000003FF
310
FFFF800000003FF80FFFFFFFFFFFFFC07FFFFFF0001FFFFFF8001FFFFFFFFC00
310
0FF8001FFFFFFFFC000FFF0003FFFFFFFFFFFFFE00000001F000FFFFC0000000
310
03FFF8001E001FC001E000FFFF80007FFFFF8000000007FFFFFC000000003FF8
310
0FFFFFFFFFFFFFC07FFFFFF0001FFFFFF8001FFFFFFFFC000FF8001FFFFFFFFC
310
000FFF0003FFFFFFFFFFFFE000000003F000FFFE0000000007FFF8001E000FC0
310
01E0007FFF80007FFFFE0000000007FFFFE0000000007FF80FFFFFFFFFFFFFC0
310
7FFFFFF0001FFFFFF0001FFFFFFFFC0007F0001FFFFFFFFC0007FF0003FFFFFF
310
FFFFFF0000000003F000FFF80000000007FFF8001E000FC003E0007FFF80007F
310
FFF0000000000FFFFF8000000000FFF80FFFFFFFFFFFFFC07FFFFFF0001FFFFF
310
F0001FFFFFFFFC0007F0001FFFFFFFFC0007FF0003FFFFFFFFFFFC0000000007
310
F000FFE0000000000FFFF0003E000FC003E0007FFF80007FFFC0000000001FFF
310
FE0000000001FFF80FFFFFFFFFFFFFC07FFFFFF0001FFFFFF0001FFFFFFFFC00
310
07F0001FFFFFFFFC0007FF0003FFFFFFFFFFF0000000000FF000FFC000000000
310
1FFFF0003F000F8003F0003FFF80007FFF80000000003FFFF80000000003FFF8
310
0FFFFFFFFFFFFFC07FFFFFF0001FFFFFF0001FFFFFFFFC0007F0001FFFFFFFFC
310
0007FF0003FFFFFFFFFFE0000000001FF000FF00000000007FFFF0003F000780
310
03F0003FFF80007FFF00000000007FFFF00000000007FFF80FFFFFFFFFFFFFC0
310
7FFFFFF0001FFFFFF0001FFFFFFFFC0007F0001FFFFFFFFC0007FF0003FFFFFF
310
FFFF80000000007FF000FE0000000000FFFFE0003F00078007F0003FFF80007F
310
FE0000000001FFFFE0000000001FFFF80FFFFFFFFFFFFFC07FFFFFF0001FFFFF
310
F0001FFFFFFFFC0007F0001FFFFFFFFC0007FF0003FFFFFFFFFF0000000000FF
310
F000FC0000000003FFFFE0007F00078007F0003FFF80007FFC0000000007FFFF
310
C0000000007FFFF80FFFFFFFFFFFFFC07FFFFFF0001FFFFFF8001FFFFFFFFC00
310
0FF8001FFFFFFFFC000FFF0003FFFFFFFFFE0000000003FFF000FC000000000F
310
FFFFE0007F80070007F8001FFF80007FF8000000001FFFFF8000000001FFFFF8
310
0FFFFFFFFFFFFFC07FFFFFF0001FFFFFF8001FFFFFFFFC000FF8001FFFFFFFFC
310
000FFF0003FFFFFFFFFC000000000FFFF000F8000000007FFFFFE0007F800700
310
07F8001FFF80007FF000000000FFFFFF800000000FFFFFF80FFFFFFFFFFFFFC0
310
7FFFFFF0001FFFFFF8000FFFFFFFF8000FF8000FFFFFFFF8000FFF0003FFFFFF
310
FFFC000000007FFFF000F800000007FFFFFFC0007F8003000FF8001FFF80007F
310
F000000007FFFFFF000000007FFFFFF80FFFFFFFFFFFFFC07FFFFFF0001FFFFF
310
F8000FFFFFFFF8000FF8000FFFFFFFF8000FFF0003FFFFFFFFF80000000FFFFF
310
F000F0000000FFFFFFFFC000FF8003000FF8001FFF80007FE0000000FFFFFFFF
310
0000000FFFFFFFF8000001FFFE0000007FFFFFF0001FFFFFF8000FFFFFFFF800
310
0FF8000FFFFFFFF8000FFF0003FFFFFFFFF8000000FFFFFFF000F000000FFFFF
310
FFFFC000FFC002000FF8000FFF80007FE000001FFFFFFFFE000001FFFFFFFFF8
310
000001FFFE0000007FFFFFF0001FFFFFF8000FFFFFFFF8000FF8000FFFFFFFF8
310
000FFF0003FFFFFFFFF000001FFFFFFFF000E00000FFFFFFFFFFC000FFC00200
310
0FFC000FFF80007FE00001FFFFFFFFFE00001FFFFFFFFFF8000001FFFE000000
310
7FFFFFF0001FFFFFFC000FFFFFFFF8001FFC000FFFFFFFF8001FFF0003FFFFFF
310
FFF00001FFFFFFFFF000E00007FFFFFFFFFF8000FFC000001FFC000FFF80007F
310
C0000FFFFFFFFFFE0000FFFFFFFFFFF8000001FFFE0000007FFFFFF0001FFFFF
310
FC0007FFFFFFF0001FFC0007FFFFFFF0001FFF0003FFFFFFFFF00007FFFFFFFF
310
F000E0001FFFFFFFFFFF8000FFC000001FFC000FFF80007FC0003FFFFFFFFFFE
310
0001FFFFFFFFFFF8000001FFFE0000007FFFFFF0001FFFFFFC0007FFFFFFF000
310
1FFC0007FFFFFFF0001FFF0003FFFFFFFFF0001FFFFFFFFFF000E0003FFFFF00
310
03FF8001FFE000001FFC0007FF80007FC0007FFFFF0007FC0003FFFFF0003FF8
310
000001FFFE0000007FFFFFF0001FFFFFFC0003FFFFFFE0001FFC0003FFFFFFE0
310
001FFF0003FFFFFFFFF0003FFFFFFFFFF000E0003FFFFF0001FF8001FFE00000
310
1FFE0007FF80007FC0007FFFFE0003FC0007FFFFE0003FF8000001FFFE000000
310
7FFFFFF0001FFFFFFE0003FFFFFFE0003FFE0003FFFFFFE0003FFF0003FFFFFF
310
FFF0003FFFFF8001F000E0003FFFFF0001FF0001FFE000001FFE0007FF80007F
310
C0007FFFFE0003FC0007FFFFE0003FF8000001FFFE0000007FFFFFF0001FFFFF
310
FE0001FFFFFFC0003FFE0001FFFFFFC0003FFF0003FFFFFFFFF0003FFFFF0001
310
F000E0003FFFFF0003FF0001FFE000003FFE0007FF80007FC0007FFFFE0003FC
310
0007FFFFE0003FF8000001FFFE0000007FFFFFF0001FFFFFFF0001FFFFFFC000
310
7FFF0001FFFFFFC0007FFF0003FFFFFFFFF0003FFFFF0001F000E0003FFFFE00
310
03FF0003FFF000003FFE0003FF80007FC0007FFFFC0003FE0007FFFFE0003FF8
310
000001FFFE0000007FFFFFF0001FFFFFFF0000FFFFFF80007FFF0000FFFFFF80
310
007FFF0003FFFFFFFFF0003FFFFF0001F000E0003FFFFE0003FF0003FFF00000
310
3FFF0003FF80007FC0007FFFFC0007FE0007FFFFC0003FF8000001FFFE000000
310
7FFFFFF0001FFFFFFF80007FFFFF0000FFFF80007FFFFF0000FFFF0003FFFFFF
310
FFF0003FFFFF0003F000E0003FFFFC0003FE0003FFF000003FFF0003FF80007F
310
E0003FFFF80007FE0003FFFFC0007FF8000001FFFE0000007FFFFFF0001FFFFF
310
FF80003FFFFE0000FFFF80003FFFFE0000FFFF0003FFFFFFFFF0001FFFFE0003
310
F000F0001FFFF80003FE0003FFF000007FFF0001FF80007FE0003FFFF00007FE
310
0001FFFF80007FF8000001FFFE0000007FFFFFF0001FFFFFFFC0000FFFF80001
310
FFFFC0000FFFF80001FFFF0003FFFFFFFFF0001FFFFC0003F000F0000FFFF000
310
07FE0007FFF800007FFF0001FF80007FE0001FFFE00007FF0000FFFE00007FF8
310
000001FFFE0000007FFFFFF0001FFFFFFFC00003FFE00001FFFFC00003FFE000
310
01FFFF0003FFFFFFFFF8000FFFF80003F000F00003FFC00007FC0007FFF80000
310
7FFF8001FF80007FF00007FF80000FFF00007FF80000FFF8000001FFFE000000
310
7F80000000000001FFE000003E000003FFFFE000003E000003FFFF0003FFFFFF
310
FFF80003FFE00007F000F800000000000FFC0007FFF800007FFF8001FF80007F
310
F000000000000FFF000000000000FFF8000001FFFE0000007F80000000000001
310
FFF0000000000007FFFFF0000000000007FFFF0003FFFFFFFFFC00007E000007
310
F000F800000000000FFC0007FFF80000FFFF8000FF80007FF800000000001FFF
310
800000000001FFF8000001FFFE0000007F80000000000001FFF800000000000F
310
FFFFF800000000000FFFFF0003FFFFFFFFFC00000000000FF000FC0000000000
310
1FFC0007FFFC0000FFFF8000FF80007FF800000000003FFFC00000000001FFF8
310
000001FFFE0000007F80000000000001FFF800000000000FFFFFF80000000000
310
0FFFFF0003FFFFFFFFFE00000000001FF000FE00000000003FF8000FFFFC0000
310
FFFF8000FF80007FFC00000000003FFFC00000000003FFF8000001FFFE000000
310
7F80000000000001FFFC00000000001FFFFFFC00000000001FFFFF0003FFFFFF
310
FFFF00000000001FF000FF00000000003FF8000FFFFC0000FFFFC000FF80007F
310
FE00000000007FFFE00000000007FFF8000001FFFE0000007F80000000000001
310
FFFE00000000003FFFFFFE00000000003FFFFF0003FFFFFFFFFF80000000003F
310
F000FF80000000007FF8000FFFFC0001FFFFC0007F80007FFF0000000000FFFF
310
F0000000000FFFF800000000000000007F80000000000001FFFF8000000000FF
310
FFFFFF8000000000FFFFFF0003FFFFFFFFFFC0000000007FF000FFC000000000
310
FFF8000FFFFE0001FFFFC0007F80007FFF8000000001FFFFF8000000001FFFF8
310
00000000000000007F80000000000001FFFFC000000001FFFFFFFFC000000001
310
FFFFFF0003FFFFFFFFFFE000000000FFF000FFE000000003FFF0001FFFFE0001
310
FFFFC0007F80007FFFC000000007FFFFFE000000003FFFF80000000000000000
310
7F80000000000001FFFFE000000003FFFFFFFFE000000003FFFFFF0003FFFFFF
310
FFFFF000000003FFF000FFF80000000FFFF0001FFFFE0001FFFFE0007F80007F
310
FFF00000000FFFFFFF00000000FFFFF800000000000000007F80000000000001
310
FFFFF80000000FFFFFFFFFF80000000FFFFFFF0003FFFFFFFFFFFC0000000FFF
310
F000FFFE0000003FFFF0001FFFFE0003FFFFE0003F80007FFFFC0000003FFFFF
310
FFC0000003FFFFF800000000000000007F80000000000001FFFFFE0000003FFF
310
FFFFFFFE0000003FFFFFFF0003FFFFFFFFFFFF0000003FFFF000FFFF800000FF
310
FFF0001FFFFF0003FFFFE0003F80007FFFFF000001FFFFFFFFF800001FFFFFF8
310
00000000000000007F80000000000001FFFFFFC00001FFFFFFFFFFFFC00001FF
310
FFFFFF0003FFFFFFFFFFFFC00000FFFFF000FFFFF8000FFFFFFFFFFFFFFFFFFF
310
FFFFFFFFFFFFFFFFFFFFF0001FFFFFFFFFFF0000FFFFFFF80000000000000000
310
7FFFFFFFFFFFFFFFFFFFFFFC001FFFFFFFFFFFFFFC001FFFFFFFFFFFFFFFFFFF
310
FFFFFFFC001FFFFFF000FFFFFFFFFFFFFFFFFFFFFFFFFFFFFFFFFFFFFFFFFFFF
310
FFFFFFFFFFFFFFFFFFFFFFFFFFFFFFFFFFFFFFFFFFFFFFFFFFFFFFFFFFFFFFFF
310
FFFFFFFFFFFFFFFFFFFFFFFFFFFFFFFFFFFFFFFFFFFFFFFFFFFFFFFFFFFFFFFF
310
F000FFFFFFFFFFFFFFFFFFFFFFFFFFFFFFFFFFFFFFFFFFFFFFFFFFFFFFFFFFFF
310
FFFFFFFFFFFFFFFFFFFFFFFFFFFFFFFFFFFFFFFFFFFFFFFFFFFFFFFFFFFFFFFF
310
FFFFFFFFFFFFFFFFFFFFFFFFFFFFFFFFFFFFFFFFFFFFFFFFF000FFFFFFFFFFFF
310
FFFFFFFFFFFFFFFFFFFFFFFFFFFFFFFFFFFFFFFFFFFFFFFFFFFFFFFFFFFFFFFF
310
FFFFFFFFFFFFFFFFFFFFFFFFFFFFFFFFFFFFFFFFFFFFFFFFFFFFFFFFFFFFFFFF
310
FFFFFFFFFFFFFFFFFFFFFFFFFFFFFFFFF000FFFFFFFFFFFFFFFFFFFFFFFFFFFF
310
FFFFFFFFFFFFFFFFFFFFFFFFFFFFFFFFFFFFFFFFFFFFFFFFFFFFFFFFFFFFFFFF
310
FFFFFFFFFFFFFFFFFFFFFFFFFFFFFFFFFFFFFFFFFFFFFFFFFFFFFFFFFFFFFFFF
310
FFFFFFFFFFFFFFFFF000FFFFFFFFFFFFFFFFFFFFFFFFFFFFFFFFFFFFFFFFFFFF
310
FFFFFFFFFFFFFFFFFFFFFFFFFFFFFFFFFFFFFFFFFFFFFFFFFFFFFFFFFFFFFFFF
310
FFFFFFFFFFFFFFFFFFFFFFFFFFFFFFFFFFFFFFFFFFFFFFFFFFFFFFFFFFFFFFFF
310
F000FFFFFFFFFFFFFFFFFFFFFFFFFFFFFFFFFFFFFFFFFFFFFFFFFFFFFFFFFFFF
310
FFFFFFFFFFFFFFFFFFFFFFFFFFFFFFFFFFFFFFFFFFFFFFFFFFFFFFFFFFFFFFFF
310
FFFFFFFFFFFFFFFFFFFFFFFFFFFFFFFFFFFFFFFFFFFFFFFFF000FFFFFFFFFFFF
310
FFFFFFFFFFFFFFFFFFFFFFFFFFFFFFFFFFFFFFFFFFFFFFFFFFFFFFFFFFFFFFFF
310
FFFFFFFFFFFFFFFFFFFFFFFFFFFFFFFFFFFFFFFFFFFFFFFFFFFFFFFFFFFFFFFF
310
FFFFFFFFFFFFFFFFFFFFFFFFFFFFFFFFF000FFFFFFFFFFFFFFFFFFFFFFFFFFFF
310
FFFFFFFFFFFFFFFFFFFFFFFFFFFFFFFFFFFFFFFFFFFFFFFFFFFFFFFFFFFFFFFF
310
FFFFFFFFFFFFFFFFFFFFFFFFFFFFFFFFFFFFFFFFFFFFFFFFFFFFFFFFFFFFFFFF
310
FFFFFFFFFFFFFFFFF000FFFFFFFFFFFFFFFFFFFFFFFFFFFFFFFFFFFFFFFFFFFF
310
FFFFFFFFFFFFFFFFFFFFFFFFFFFFFFFFFFFFFFFFFFFFFFFFFFFFFFFFFFFFFFFF
310
FFFFFFFFFFFFFFFFFFFFFFFFFFFFFFFFFFFFFFFFFFFFFFFFFFFFFFFFFFFFFFFF
310
F000FFFFFFFFFFFFFFFFFFFFFFFFFFFFFFFFFFFFFFFFFFFFFFFFFFFFFFFFFFFF
310
FFFFFFFFFFFFFFFFFFFFFFFFFFFFFFFFFFFFFFFFFFFFFFFFFFFFFFFFFFFFFFFF
310
FFFFFFFFFFFFFFFFFFFFFFFFFFFFFFFFFFFFFFFFFFFFFFFFF000FFFFFFFFFFFF
310
FFFFFFFFFFFFFFFFFFFFFFFFFFFFFFFFFFFFFFFFFFFFFFFFFFFFFFFFFFFFFFFF
310
FFFFFFFFFFFFFFFFFFFFFFFFFFFFFFFFFFFFFFFFFFFFFFFFFFFFFFFFFFFFFFFF
310
FFFFFFFFFFFFFFFFFFFFFFFFFFFFFFFFF000FFFFFFFFFFFFFFFFFFFFFFFFFFFF
310
FFFFFFFFFFFFFFFFFFFFFFFFFFFFFFFFFFFFFFFFFFFFFFFFFFFFFFFFFFFFFFFF
310
FFFFFFFFFFFFFFFFFFFFFFFFFFFFFFFFFFFFFFFFFFFFFFFFFFFFFFFFFFFFFFFF
310
FFFFFFFFFFFFFFFFF000FFFFFFFFFFFFFFFFFFFFFFFFFFFFFFFFFFFFFFFFFFFF
310
FFFFFFFFFFFFFFFFFFFFFFFFFFFFFFFFFFFFFFFFFFFFFFFFFFFFFFFFFFFFFFFF
310
FFFFFFFFFFFFFFFFFFFFFFFFFFFFFFFFFFFFFFFFFFFFFFFFFFFFFFFFFFFFFFFF
310
F000FFFFFFFFFFFFFFFFFFFFFFFFFFFFFFFFFFFFFFFFFFFFFFFFFFFFFFFFFFFF
310
FFFFFFFFFFFFFFFFFFFFFFFFFFFFFFFFFFFFFFFFFFFFFFFFFFFFFFFFFFFFFFFF
310
FFFFFFFFFFFFFFFFFFFFFFFFFFFFFFFFFFFFFFFFFFFFFFFFF000FFFFFFFFFFFF
310
FFFFFFFFFFFFFFFFFFFFFFFFFFFFFFFFFFFFFFFFFFFFFFFFFFFFFFFFFFFFFFFF
310
FFFFFFFFFFFFFFFFFFFFFFFFFFFFFFFFFFFFFFFFFFFFFFFFFFFFFFFFFFFFFFFF
310
FFFFFFFFFFFFFFFFFFFFFFFFFFFFFFFFF000FFFFFFFFFFFFFFFFFFFFFFFFFFFF
310
FFFFFFFFFFFFFFFFFFFFFFFFFFFFFFFFFFFFFFFFFFFFFFFFFFFFFFFFFFFFFFFF
310
FFFFFFFFFFFFFFFFFFFFFFFFFFFFFFFFFFFFFFFFFFFFFFFFFFFFFFFFFFFFFFFF
310
FFFFFFFFFFFFFFFFF000FFFFFFFFFFFFFFFFFFFFFFFFFFFFFFFFFFFFFFFFFFFF
310
FFFFFFFFFFFFFFFFFFFFFFFFFFFFFFFFFFFFFFFFFFFFFFFFFFFFFFFFFFFFFFFF
310
FFFFFFFFFFFFFFFFFFFFFFFFFFFFFFFFFFFFFFFFFFFFFFFFFFFFFFFFFFFFFFFF
310
F000FFFFFFFFFFFFFFFFFFFFFFFFFFFFFFFFFFFFFFFFFFFFFFFFFFFFFFFFFFFF
310
FFFFFFFFFFFFFFFFFFFFFFFFFFFFFFFFFFFFFFFFFFFFFFFFFFFFFFFFFFFFFFFF
310
FFFFFFFFFFFFFFFFFFFFFFFFFFFFFFFFFFFFFFFFFFFFFFFFF000FFFFFFFFFFFF
310
FFFFFFFFFFFFFFFFFFFFFFFFFFFFFFFFFFFFFFFFFFFFFFFFFFFFFFFFFFFFFFFF
310
FFFFFFFFFFFFFFFFFFFFFFFFFFFFFFFFFFFFFFFFFFFFFFFFFFFFFFFFFFFFFFFF
310
FFFFFFFFFFFFFFFFFFFFFFFFFFFFFFFFF000FFFFFFFFFFFFFFFFFFFFFFFFFFFF
310
FFFFFFFFFFFFFFFFFFFFFFFFFFFFFFFFFFFFFFFFFFFFFFFFFFFFFFFFFFFFFFFF
310
FFFFFFFFFFFFFFFFFFFFFFFFFFFFFFFFFFFFFFFFFFFFFFFFFFFFFFFFFFFFFFFF
310
FFFFFFFFFFFFFFFFF000FFFFFFFFFFFFFFFFFFFFFFFFFFFFFFFFFFFFFFFFFFFF
310
FFFFFFFFFFFFFFFFFFFFFFFFFFFFFFFFFFFFFFFFFFFFFFFFFFFFFFFFFFFFFFFF
310
FFFFFFFFFFFFFFFFFFFFFFFFFFFFFFFFFFFFFFFFFFFFFFFFFFFFFFFFFFFFFFFF
310
F000FFFFFFFFFFFFFFFFFFFFFFFFFFFFFFFFFFFFFFFFFFFFFFFFFFFFFFFFFFFF
310
FFFFFFFFFFFFFFFFFFFFFFFFFFFFFFFFFFFFFFFFFFFFFFFFFFFFFFFFFFFFFFFF
310
FFFFFFFFFFFFFFFFFFFFFFFFFFFFFFFFFFFFFFFFFFFFFFFFF000FFFFFFFFFFFF
310
FFFFFFFFFFFFFFFFFFFFFFFFFFFFFFFFFFFFFFFFFFFFFFFFFFFFFFFFFFFFFFFF
310
FFFFFFFFFFFFFFFFFFFFFFFFFFFFFFFFFFFFFFFFFFFFFFFFFFFFFFFFFFFFFFFF
310
FFFFFFFFFFFFFFFFFFFFFFFFFFFFFFFFF0000000000000000000000000000000
310
00000000F514013E021D233EF514013EB90F243E1AB5FE3DB90F243E7280B63D
310
021D233EA10BB33D021D233EA10BB33DAF31243EA1BFAF3D7A1F5F3E5859F93D
310
785E5F3E0721FA3D55795F3EE667003EA5485F3E71C4003EA5485F3E71C4003E
310
8C18583EBD0C013E61EF573EF1E9F93D7A1F5F3E5859F93D8C18583EBD0C013E
310
5F4C573E0050003EA432573E4B82FB3D61EF573EF1E9F93D0F345F3ED2DDBB3D
310
F603583E394DBB3D212D583EB01DB33D3A5D5F3E49AEB33D3A5D5F3E49AEB33D
310
55795F3E2019B43D0E735F3E2416BB3D0F345F3ED2DDBB3DF603583E394DBB3D
310
3947573EE0B4B93DF460573E2A97B43D212D583EB01DB33DFB14243E0C51CE3D
310
0D98243E3157CF3D0D98243E5CDEE53DFB14243E80E4E63DD2B8143E0C51CE3D
310
FB14243E0C51CE3DFB14243E80E4E63DD2B8143E80E4E63DD2B8143E80E4E63D
310
C035143E5CDEE53DC035143E3157CF3DD2B8143E0C51CE3D0D98243E3157CF3D
310
A1B0283E3157CF3DA1B0283E5CDEE53D0D98243E5CDEE53DC2601B3EE975D43D
310
CCDD1B3EE975D43DF8D61D3EE975D43D9F85213EE975D43D9F85213EA3BFE03D
310
C2601B3EA3BFE03D000000000100000001000000010000000100000000000000
310
0100000001000000010000000100000001000000010000000100000001000000
  1
OLE
  0
ENDSEC
  0
SECTION
  2
OBJECTS
  0
DICTIONARY
  5
C
330
0
100
AcDbDictionary
281
     1
  3
ACAD_GROUP
350
D
  3
ACAD_LAYOUT
350
1A
  3
ACAD_MLEADERSTYLE
350
234
  3
ACAD_MLINESTYLE
350
17
  3
ACAD_PLOTSETTINGS
350
19
  3
ACAD_PLOTSTYLENAME
350
E
  3
ACAD_TABLESTYLE
350
233
  3
ACAD_VISUALSTYLE
350
2A
  3
AcDbVariableDictionary
350
235
  0
DICTIONARY
  5
D
102
{ACAD_REACTORS
330
C
102
}
330
C
100
AcDbDictionary
281
     1
  0
DICTIONARY
  5
1A
102
{ACAD_REACTORS
330
C
102
}
330
C
100
AcDbDictionary
281
     1
  3
Layout1
350
1E
  3
Layout2
350
26
  3
Model
350
22
  0
DICTIONARY
  5
234
102
{ACAD_REACTORS
330
C
102
}
330
C
100
AcDbDictionary
281
     1
  0
DICTIONARY
  5
17
102
{ACAD_REACTORS
330
C
102
}
330
C
100
AcDbDictionary
281
     1
  3
Standard
350
18
  0
DICTIONARY
  5
19
102
{ACAD_REACTORS
330
C
102
}
330
C
100
AcDbDictionary
281
     1
  0
ACDBDICTIONARYWDFLT
  5
E
102
{ACAD_REACTORS
330
C
102
}
330
C
100
AcDbDictionary
281
     1
  3
Normal
350
F
100
AcDbDictionaryWithDefault
340
F
  0
DICTIONARY
  5
233
102
{ACAD_REACTORS
330
C
102
}
330
C
100
AcDbDictionary
281
     1
  0
DICTIONARY
  5
2A
102
{ACAD_REACTORS
330
C
102
}
330
C
100
AcDbDictionary
281
     1
  3
2dWireframe
350
2F
  3
3D Hidden
350
31
  3
3dWireframe
350
30
  3
Basic
350
32
  3
Brighten
350
36
  3
ColorChange
350
3A
  3
Conceptual
350
34
  3
Dim
350
35
  3
Facepattern
350
39
  3
Flat
350
2B
  3
FlatWithEdges
350
2C
  3
Gouraud
350
2D
  3
GouraudWithEdges
350
2E
  3
Linepattern
350
38
  3
Realistic
350
33
  3
Thicken
350
37
  0
DICTIONARY
  5
235
102
{ACAD_REACTORS
330
C
102
}
330
C
100
AcDbDictionary
281
     1
  3
PSOLHEIGHT
350
237
  3
PSOLWIDTH
350
236
  0
LAYOUT
  5
1E
102
{ACAD_REACTORS
330
1A
102
}
330
1A
100
AcDbPlotSettings
  1

  2
none_device
  4

  6

 40
0.0
 41
0.0
 42
0.0
 43
0.0
 44
0.0
 45
0.0
 46
0.0
 47
0.0
 48
0.0
 49
0.0
140
0.0
141
0.0
142
1.0
143
1.0
 70
   688
 72
     0
 73
     0
 74
     5
  7

 75
    16
147
1.0
148
0.0
149
0.0
100
AcDbLayout
  1
Layout1
 70
     1
 71
     1
 10
0.0
 20
0.0
 11
420.0
 21
297.0
 12
0.0
 22
0.0
 32
0.0
 14
1.0000000000E+20
 24
1.0000000000E+20
 34
1.0000000000E+20
 15
-1.0000000000E+20
 25
-1.0000000000E+20
 35
-1.0000000000E+20
146
0.0
 13
0.0
 23
0.0
 33
0.0
 16
1.0
 26
0.0
 36
0.0
 17
0.0
 27
1.0
 37
0.0
 76
     0
330
1B
  0
LAYOUT
  5
26
102
{ACAD_REACTORS
330
1A
102
}
330
1A
100
AcDbPlotSettings
  1

  2
none_device
  4

  6

 40
0.0
 41
0.0
 42
0.0
 43
0.0
 44
0.0
 45
0.0
 46
0.0
 47
0.0
 48
0.0
 49
0.0
140
0.0
141
0.0
142
1.0
143
1.0
 70
   688
 72
     0
 73
     0
 74
     5
  7

 75
    16
147
1.0
148
0.0
149
0.0
100
AcDbLayout
  1
Layout2
 70
     1
 71
     2
 10
0.0
 20
0.0
 11
0.0
 21
0.0
 12
0.0
 22
0.0
 32
0.0
 14
0.0
 24
0.0
 34
0.0
 15
0.0
 25
0.0
 35
0.0
146
0.0
 13
0.0
 23
0.0
 33
0.0
 16
1.0
 26
0.0
 36
0.0
 17
0.0
 27
1.0
 37
0.0
 76
     0
330
23
  0
LAYOUT
  5
22
102
{ACAD_REACTORS
330
1A
102
}
330
1A
100
AcDbPlotSettings
  1

  2
none_device
  4

  6

 40
0.0
 41
0.0
 42
0.0
 43
0.0
 44
0.0
 45
0.0
 46
0.0
 47
0.0
 48
0.0
 49
0.0
140
0.0
141
0.0
142
1.0
143
1.0
 70
  1712
 72
     0
 73
     0
 74
     0
  7

 75
     0
147
1.0
148
0.0
149
0.0
100
AcDbLayout
  1
Model
 70
     1
 71
     0
 10
0.0
 20
0.0
 11
297.0
 21
210.0
 12
0.0
 22
0.0
 32
0.0
 14
0.0
 24
0.0
 34
0.0
 15
297.0
 25
210.0
 35
0.0
146
0.0
 13
0.0
 23
0.0
 33
0.0
 16
1.0
 26
0.0
 36
0.0
 17
0.0
 27
1.0
 37
0.0
 76
     0
330
1F
331
29
  0
MLINESTYLE
  5
18
102
{ACAD_REACTORS
330
17
102
}
330
17
100
AcDbMlineStyle
  2
Standard
 70
     0
  3

 62
   256
 51
90.0
 52
90.0
 71
     2
 49
0.5
 62
   256
  6
BYLAYER
 49
-0.5
 62
   256
  6
BYLAYER
  0
ACDBPLACEHOLDER
  5
F
102
{ACAD_REACTORS
330
E
102
}
330
E
  0
VISUALSTYLE
  5
2F
102
{ACAD_REACTORS
330
2A
102
}
330
2A
100
AcDbVisualStyle
  2
2dWireframe
 70
     4
 71
     0
 72
     2
 73
     0
 90
        0
 40
-0.6
 41
-30.0
 62
     5
 63
     7
 74
     1
 91
        4
 64
     7
 65
   257
 75
     1
175
     1
 42
1.0
 92
        0
 66
   257
 43
1.0
 76
     1
 77
     6
 78
     2
 67
     7
 79
     5
170
     0
171
     0
290
     0
174
     0
 93
        1
 44
0.0
173
     0
291
     0
 45
0.0
1001
ACAD
1000
AcDbSavedByObjectVersion
1070
     0
  0
VISUALSTYLE
  5
31
102
{ACAD_REACTORS
330
2A
102
}
330
2A
100
AcDbVisualStyle
  2
3D Hidden
 70
     6
 71
     1
 72
     2
 73
     2
 90
        0
 40
-0.6
 41
-30.0
 62
     5
 63
     7
 74
     2
 91
        2
 64
     7
 65
   257
 75
     2
175
     1
 42
40.0
 92
        0
 66
   257
 43
1.0
 76
     1
 77
     6
 78
     2
 67
     7
 79
     3
170
     0
171
     0
290
     0
174
     0
 93
        1
 44
0.0
173
     0
291
     0
 45
0.0
1001
ACAD
1000
AcDbSavedByObjectVersion
1070
     0
  0
VISUALSTYLE
  5
30
102
{ACAD_REACTORS
330
2A
102
}
330
2A
100
AcDbVisualStyle
  2
3dWireframe
 70
     5
 71
     0
 72
     2
 73
     0
 90
        0
 40
-0.6
 41
-30.0
 62
     5
 63
     7
 74
     1
 91
        4
 64
     7
 65
   257
 75
     1
175
     1
 42
1.0
 92
        0
 66
   257
 43
1.0
 76
     1
 77
     6
 78
     2
 67
     7
 79
     5
170
     0
171
     0
290
     0
174
     0
 93
        1
 44
0.0
173
     0
291
     0
 45
0.0
1001
ACAD
1000
AcDbSavedByObjectVersion
1070
     0
  0
VISUALSTYLE
  5
32
102
{ACAD_REACTORS
330
2A
102
}
330
2A
100
AcDbVisualStyle
  2
Basic
 70
     7
 71
     1
 72
     0
 73
     1
 90
        0
 40
-0.6
 41
-30.0
 62
     5
 63
     7
 74
     0
 91
        4
 64
     7
 65
   257
 75
     1
175
     1
 42
1.0
 92
        8
 66
     7
 43
1.0
 76
     1
 77
     6
 78
     2
 67
     7
 79
     5
170
     0
171
     0
290
     0
174
     0
 93
        1
 44
0.0
173
     0
291
     1
 45
0.0
1001
ACAD
1000
AcDbSavedByObjectVersion
1070
     0
  0
VISUALSTYLE
  5
36
102
{ACAD_REACTORS
330
2A
102
}
330
2A
100
AcDbVisualStyle
  2
Brighten
 70
    12
 71
     2
 72
     2
 73
     0
 90
        0
 40
-0.6
 41
-30.0
 62
     5
 63
     7
 74
     1
 91
        4
 64
     7
 65
   257
 75
     1
175
     1
 42
1.0
 92
        8
 66
     7
 43
1.0
 76
     1
 77
     6
 78
     2
 67
     7
 79
     5
170
     0
171
     0
290
     0
174
     0
 93
        1
 44
50.0
173
     0
291
     1
 45
0.0
1001
ACAD
1000
AcDbSavedByObjectVersion
1070
     0
  0
VISUALSTYLE
  5
3A
102
{ACAD_REACTORS
330
2A
102
}
330
2A
100
AcDbVisualStyle
  2
ColorChange
 70
    16
 71
     2
 72
     2
 73
     3
 90
        0
 40
-0.6
 41
-30.0
 62
     5
 63
     8
 74
     1
 91
        4
 64
     7
 65
   257
 75
     1
175
     1
 42
1.0
 92
        8
 66
     8
 43
1.0
 76
     1
 77
     6
 78
     2
 67
     7
 79
     5
170
     0
171
     0
290
     0
174
     0
 93
        1
 44
0.0
173
     0
291
     1
 45
0.0
1001
ACAD
1000
AcDbSavedByObjectVersion
1070
     0
  0
VISUALSTYLE
  5
34
102
{ACAD_REACTORS
330
2A
102
}
330
2A
100
AcDbVisualStyle
  2
Conceptual
 70
     9
 71
     3
 72
     2
 73
     0
 90
        0
 40
-0.6
 41
-30.0
 62
     5
 63
     7
 74
     2
 91
        2
 64
     7
 65
   257
 75
     1
175
     1
 42
40.0
 92
        8
 66
     7
 43
1.0
 76
     1
 77
     6
 78
     2
 67
     7
 79
     3
170
     0
171
     0
290
     0
174
     0
 93
        1
 44
0.0
173
     0
291
     0
 45
0.0
1001
ACAD
1000
AcDbSavedByObjectVersion
1070
     0
  0
VISUALSTYLE
  5
35
102
{ACAD_REACTORS
330
2A
102
}
330
2A
100
AcDbVisualStyle
  2
Dim
 70
    11
 71
     2
 72
     2
 73
     0
 90
        0
 40
-0.6
 41
-30.0
 62
     5
 63
     7
 74
     1
 91
        4
 64
     7
 65
   257
 75
     1
175
     1
 42
1.0
 92
        8
 66
     7
 43
1.0
 76
     1
 77
     6
 78
     2
 67
     7
 79
     5
170
     0
171
     0
290
     0
174
     0
 93
        1
 44
-50.0
173
     0
291
     1
 45
0.0
1001
ACAD
1000
AcDbSavedByObjectVersion
1070
     0
  0
VISUALSTYLE
  5
39
102
{ACAD_REACTORS
330
2A
102
}
330
2A
100
AcDbVisualStyle
  2
Facepattern
 70
    15
 71
     2
 72
     2
 73
     0
 90
        0
 40
-0.6
 41
-30.0
 62
     5
 63
     7
 74
     1
 91
        4
 64
     7
 65
   257
 75
     1
175
     1
 42
1.0
 92
        8
 66
     7
 43
1.0
 76
     1
 77
     6
 78
     2
 67
     7
 79
     5
170
     0
171
     0
290
     0
174
     0
 93
        1
 44
0.0
173
     0
291
     1
 45
0.0
1001
ACAD
1000
AcDbSavedByObjectVersion
1070
     0
  0
VISUALSTYLE
  5
2B
102
{ACAD_REACTORS
330
2A
102
}
330
2A
100
AcDbVisualStyle
  2
Flat
 70
     0
 71
     2
 72
     1
 73
     1
 90
        2
 40
-0.6
 41
30.0
 62
     5
 63
     7
 74
     0
 91
        4
 64
     7
 65
   257
 75
     1
175
     1
 42
1.0
 92
        8
 66
     7
 43
1.0
 76
     1
 77
     6
 78
     2
 67
     7
 79
     5
170
     0
171
     0
290
     0
174
     0
 93
       13
 44
0.0
173
     0
291
     1
 45
0.0
1001
ACAD
1000
AcDbSavedByObjectVersion
1070
     0
  0
VISUALSTYLE
  5
2C
102
{ACAD_REACTORS
330
2A
102
}
330
2A
100
AcDbVisualStyle
  2
FlatWithEdges
 70
     1
 71
     2
 72
     1
 73
     1
 90
        2
 40
-0.6
 41
30.0
 62
     5
 63
     7
 74
     1
 91
        4
 64
     7
 65
   257
 75
     1
175
     1
 42
1.0
 92
        0
 66
   257
 43
1.0
 76
     1
 77
     6
 78
     2
 67
     7
 79
     5
170
     0
171
     0
290
     0
174
     0
 93
       13
 44
0.0
173
     0
291
     1
 45
0.0
1001
ACAD
1000
AcDbSavedByObjectVersion
1070
     0
  0
VISUALSTYLE
  5
2D
102
{ACAD_REACTORS
330
2A
102
}
330
2A
100
AcDbVisualStyle
  2
Gouraud
 70
     2
 71
     2
 72
     2
 73
     1
 90
        2
 40
-0.6
 41
30.0
 62
     5
 63
     7
 74
     0
 91
        4
 64
     7
 65
   257
 75
     1
175
     1
 42
1.0
 92
        0
 66
     7
 43
1.0
 76
     1
 77
     6
 78
     2
 67
     7
 79
     5
170
     0
171
     0
290
     0
174
     0
 93
       13
 44
0.0
173
     0
291
     1
 45
0.0
1001
ACAD
1000
AcDbSavedByObjectVersion
1070
     0
  0
VISUALSTYLE
  5
2E
102
{ACAD_REACTORS
330
2A
102
}
330
2A
100
AcDbVisualStyle
  2
GouraudWithEdges
 70
     3
 71
     2
 72
     2
 73
     1
 90
        2
 40
-0.6
 41
30.0
 62
     5
 63
     7
 74
     1
 91
        4
 64
     7
 65
   257
 75
     1
175
     1
 42
1.0
 92
        0
 66
   257
 43
1.0
 76
     1
 77
     6
 78
     2
 67
     7
 79
     5
170
     0
171
     0
290
     0
174
     0
 93
       13
 44
0.0
173
     0
291
     1
 45
0.0
1001
ACAD
1000
AcDbSavedByObjectVersion
1070
     0
  0
VISUALSTYLE
  5
38
102
{ACAD_REACTORS
330
2A
102
}
330
2A
100
AcDbVisualStyle
  2
Linepattern
 70
    14
 71
     2
 72
     2
 73
     0
 90
        0
 40
-0.6
 41
-30.0
 62
     5
 63
     7
 74
     1
 91
        4
 64
     7
 65
   257
 75
     7
175
     7
 42
1.0
 92
        8
 66
     7
 43
1.0
 76
     1
 77
     6
 78
     2
 67
     7
 79
     5
170
     0
171
     0
290
     0
174
     0
 93
        1
 44
0.0
173
     0
291
     1
 45
0.0
1001
ACAD
1000
AcDbSavedByObjectVersion
1070
     0
  0
VISUALSTYLE
  5
33
102
{ACAD_REACTORS
330
2A
102
}
330
2A
100
AcDbVisualStyle
  2
Realistic
 70
     8
 71
     2
 72
     2
 73
     0
 90
        0
 40
-0.6
 41
-30.0
 62
     5
 63
     7
 74
     1
 91
        0
 64
     7
 65
   257
 75
     1
175
     1
 42
1.0
 92
        8
 66
     8
 43
1.0
 76
     1
 77
     6
 78
     2
 67
     7
 79
     5
170
     0
171
     0
290
     0
174
     0
 93
       13
 44
0.0
173
     0
291
     0
 45
0.0
1001
ACAD
1000
AcDbSavedByObjectVersion
1070
     0
  0
VISUALSTYLE
  5
37
102
{ACAD_REACTORS
330
2A
102
}
330
2A
100
AcDbVisualStyle
  2
Thicken
 70
    13
 71
     2
 72
     2
 73
     0
 90
        0
 40
-0.6
 41
-30.0
 62
     5
 63
     7
 74
     1
 91
        4
 64
     7
 65
   257
 75
     1
175
     1
 42
1.0
 92
       12
 66
     7
 43
1.0
 76
     1
 77
     6
 78
     2
 67
     7
 79
     5
170
     0
171
     0
290
     0
174
     0
 93
        1
 44
0.0
173
     0
291
     1
 45
0.0
1001
ACAD
1000
AcDbSavedByObjectVersion
1070
     0
  0
DICTIONARYVAR
  5
237
102
{ACAD_REACTORS
330
235
102
}
330
235
100
DictionaryVariables
280
     0
  1
80.000000
  0
DICTIONARYVAR
  5
236
102
{ACAD_REACTORS
330
235
102
}
330
235
100
DictionaryVariables
280
     0
  1
5.000000
  0
ENDSEC
  0
EOF
