  0
SECTION
  2
HEADER
  9
$ACADVER
  1
AC1015
  9
$ACADMAINTVER
 70
     6
  9
$DWGCODEPAGE
  3
ANSI_1252
  9
$INSBASE
 10
0.0
 20
0.0
 30
0.0
  9
$EXTMIN
 10
0.0
 20
0.0
 30
0.0
  9
$EXTMAX
 10
297.0
 20
210.0
 30
0.0
  9
$LIMMIN
 10
0.0
 20
0.0
  9
$LIMMAX
 10
297.0
 20
210.0
  9
$ORTHOMODE
 70
     0
  9
$REGENMODE
 70
     1
  9
$FILLMODE
 70
     1
  9
$QTEXTMODE
 70
     0
  9
$MIRRTEXT
 70
     1
  9
$LTSCALE
 40
1.0
  9
$ATTMODE
 70
     1
  9
$TEXTSIZE
 40
2.0
  9
$TRACEWID
 40
1.0
  9
$TEXTSTYLE
  7
Standard
  9
$CLAYER
  8
0
  9
$CELTYPE
  6
ByLayer
  9
$CECOLOR
 62
   256
  9
$CELTSCALE
 40
1.0
  9
$DISPSILH
 70
     0
  9
$DIMSCALE
 40
1.0
  9
$DIMASZ
 40
3.0
  9
$DIMEXO
 40
0.0
  9
$DIMDLI
 40
3.75
  9
$DIMRND
 40
0.0
  9
$DIMDLE
 40
0.0
  9
$DIMEXE
 40
1.0
  9
$DIMTP
 40
0.0
  9
$DIMTM
 40
0.0
  9
$DIMTXT
 40
2.0
  9
$DIMCEN
 40
2.5
  9
$DIMTSZ
 40
0.0
  9
$DIMTOL
 70
     0
  9
$DIMLIM
 70
     0
  9
$DIMTIH
 70
     1
  9
$DIMTOH
 70
     1
  9
$DIMSE1
 70
     0
  9
$DIMSE2
 70
     0
  9
$DIMTAD
 70
     1
  9
$DIMZIN
 70
     0
  9
$DIMBLK
  1

  9
$DIMASO
 70
     1
  9
$DIMSHO
 70
     1
  9
$DIMPOST
  1

  9
$DIMAPOST
  1

  9
$DIMALT
 70
     0
  9
$DIMALTD
 70
     3
  9
$DIMALTF
 40
0.0393700787
  9
$DIMLFAC
 40
1.0
  9
$DIMTOFL
 70
     1
  9
$DIMTVP
 40
0.0
  9
$DIMTIX
 70
     0
  9
$DIMSOXD
 70
     0
  9
$DIMSAH
 70
     0
  9
$DIMBLK1
  1

  9
$DIMBLK2
  1

  9
$DIMSTYLE
  2
ISO-25
  9
$DIMCLRD
 70
     0
  9
$DIMCLRE
 70
     0
  9
$DIMCLRT
 70
     0
  9
$DIMTFAC
 40
1.0
  9
$DIMGAP
 40
1.524
  9
$DIMJUST
 70
     0
  9
$DIMSD1
 70
     0
  9
$DIMSD2
 70
     0
  9
$DIMTOLJ
 70
     0
  9
$DIMTZIN
 70
     0
  9
$DIMALTZ
 70
     0
  9
$DIMALTTZ
 70
     0
  9
$DIMUPT
 70
     0
  9
$DIMDEC
 70
     2
  9
$DIMTDEC
 70
     3
  9
$DIMALTU
 70
     2
  9
$DIMALTTD
 70
     3
  9
$DIMTXSTY
  7
Standard
  9
$DIMAUNIT
 70
     0
  9
$DIMADEC
 70
     2
  9
$DIMALTRND
 40
0.0
  9
$DIMAZIN
 70
     0
  9
$DIMDSEP
 70
    44
  9
$DIMATFIT
 70
     3
  9
$DIMFRAC
 70
     0
  9
$DIMLDRBLK
  1

  9
$DIMLUNIT
 70
     2
  9
$DIMLWD
 70
    -2
  9
$DIMLWE
 70
    -2
  9
$DIMTMOVE
 70
     0
  9
$LUNITS
 70
     2
  9
$LUPREC
 70
     2
  9
$SKETCHINC
 40
1.0
  9
$FILLETRAD
 40
10.0
  9
$AUNITS
 70
     0
  9
$AUPREC
 70
     2
  9
$MENU
  1
.
  9
$ELEVATION
 40
0.0
  9
$PELEVATION
 40
0.0
  9
$THICKNESS
 40
0.0
  9
$LIMCHECK
 70
     0
  9
$CHAMFERA
 40
10.0
  9
$CHAMFERB
 40
10.0
  9
$CHAMFERC
 40
20.0
  9
$CHAMFERD
 40
0.0
  9
$SKPOLY
 70
     0
  9
$TDCREATE
 40
2455679.380189051
  9
$TDUCREATE
 40
2455679.296855717
  9
$TDUPDATE
 40
2455679.380189063
  9
$TDUUPDATE
 40
2455679.296855729
  9
$TDINDWG
 40
0.0000000116
  9
$TDUSRTIMER
 40
0.0000000116
  9
$USRTIMER
 70
     1
  9
$ANGBASE
 50
0.0
  9
$ANGDIR
 70
     0
  9
$PDMODE
 70
     0
  9
$PDSIZE
 40
-1.0
  9
$PLINEWID
 40
0.0
  9
$SPLFRAME
 70
     0
  9
$SPLINETYPE
 70
     6
  9
$SPLINESEGS
 70
     8
  9
$HANDSEED
  5
1BC
  9
$SURFTAB1
 70
     6
  9
$SURFTAB2
 70
     6
  9
$SURFTYPE
 70
     6
  9
$SURFU
 70
     6
  9
$SURFV
 70
     6
  9
$UCSBASE
  2

  9
$UCSNAME
  2

  9
$UCSORG
 10
0.0
 20
0.0
 30
0.0
  9
$UCSXDIR
 10
1.0
 20
0.0
 30
0.0
  9
$UCSYDIR
 10
0.0
 20
1.0
 30
0.0
  9
$UCSORTHOREF
  2

  9
$UCSORTHOVIEW
 70
     0
  9
$UCSORGTOP
 10
0.0
 20
0.0
 30
0.0
  9
$UCSORGBOTTOM
 10
0.0
 20
0.0
 30
0.0
  9
$UCSORGLEFT
 10
0.0
 20
0.0
 30
0.0
  9
$UCSORGRIGHT
 10
0.0
 20
0.0
 30
0.0
  9
$UCSORGFRONT
 10
0.0
 20
0.0
 30
0.0
  9
$UCSORGBACK
 10
0.0
 20
0.0
 30
0.0
  9
$PUCSBASE
  2

  9
$PUCSNAME
  2

  9
$PUCSORG
 10
0.0
 20
0.0
 30
0.0
  9
$PUCSXDIR
 10
1.0
 20
0.0
 30
0.0
  9
$PUCSYDIR
 10
0.0
 20
1.0
 30
0.0
  9
$PUCSORTHOREF
  2

  9
$PUCSORTHOVIEW
 70
     0
  9
$PUCSORGTOP
 10
0.0
 20
0.0
 30
0.0
  9
$PUCSORGBOTTOM
 10
0.0
 20
0.0
 30
0.0
  9
$PUCSORGLEFT
 10
0.0
 20
0.0
 30
0.0
  9
$PUCSORGRIGHT
 10
0.0
 20
0.0
 30
0.0
  9
$PUCSORGFRONT
 10
0.0
 20
0.0
 30
0.0
  9
$PUCSORGBACK
 10
0.0
 20
0.0
 30
0.0
  9
$USERI1
 70
     0
  9
$USERI2
 70
     0
  9
$USERI3
 70
     0
  9
$USERI4
 70
     0
  9
$USERI5
 70
     0
  9
$USERR1
 40
0.0
  9
$USERR2
 40
0.0
  9
$USERR3
 40
0.0
  9
$USERR4
 40
0.0
  9
$USERR5
 40
0.0
  9
$WORLDVIEW
 70
     1
  9
$SHADEDGE
 70
     3
  9
$SHADEDIF
 70
    70
  9
$TILEMODE
 70
     1
  9
$MAXACTVP
 70
    64
  9
$PINSBASE
 10
0.0
 20
0.0
 30
0.0
  9
$PLIMCHECK
 70
     0
  9
$PEXTMIN
 10
1.0000000000E+20
 20
1.0000000000E+20
 30
1.0000000000E+20
  9
$PEXTMAX
 10
-1.0000000000E+20
 20
-1.0000000000E+20
 30
-1.0000000000E+20
  9
$PLIMMIN
 10
0.0
 20
0.0
  9
$PLIMMAX
 10
420.0
 20
297.0
  9
$UNITMODE
 70
     0
  9
$VISRETAIN
 70
     1
  9
$PLINEGEN
 70
     0
  9
$PSLTSCALE
 70
     1
  9
$TREEDEPTH
 70
  3020
  9
$CMLSTYLE
  2
Standard
  9
$CMLJUST
 70
     0
  9
$CMLSCALE
 40
20.0
  9
$PROXYGRAPHICS
 70
     1
  9
$MEASUREMENT
 70
     1
  9
$CELWEIGHT
370
    -1
  9
$ENDCAPS
280
     0
  9
$JOINSTYLE
280
     0
  9
$LWDISPLAY
290
     1
  9
$INSUNITS
 70
     4
  9
$HYPERLINKBASE
  1

  9
$STYLESHEET
  1

  9
$XEDIT
290
     1
  9
$CEPSNTYPE
380
     0
  9
$PSTYLEMODE
290
     1
  9
$FINGERPRINTGUID
  2
{D7D4EC51-B6D8-46E9-994A-D5BB873E1E92}
  9
$VERSIONGUID
  2
{FAEB1C32-E019-11D5-929B-00C0DF256EC4}
  9
$EXTNAMES
290
     1
  9
$PSVPSCALE
 40
0.0
  9
$OLESTARTUP
290
     0
  0
ENDSEC
  0
SECTION
  2
CLASSES
  0
CLASS
  1
ACDBDICTIONARYWDFLT
  2
AcDbDictionaryWithDefault
  3
ObjectDBX Classes
 90
        0
280
     0
281
     0
  0
CLASS
  1
VISUALSTYLE
  2
AcDbVisualStyle
  3
ObjectDBX Classes
 90
     4095
280
     0
281
     0
  0
CLASS
  1
DICTIONARYVAR
  2
AcDbDictionaryVar
  3
ObjectDBX Classes
 90
        0
280
     0
281
     0
  0
CLASS
  1
ACDBPLACEHOLDER
  2
AcDbPlaceHolder
  3
ObjectDBX Classes
 90
        0
280
     0
281
     0
  0
CLASS
  1
LAYOUT
  2
AcDbLayout
  3
ObjectDBX Classes
 90
        0
280
     0
281
     0
  0
ENDSEC
  0
SECTION
  2
TABLES
  0
TABLE
  2
VPORT
  5
8
330
0
100
AcDbSymbolTable
 70
     1
  0
VPORT
  5
29
330
8
100
AcDbSymbolTableRecord
100
AcDbViewportTableRecord
  2
*Active
 70
     0
 10
0.0
 20
0.0
 11
1.0
 21
1.0
 12
148.5
 22
105.0
 13
0.0
 23
0.0
 14
10.0
 24
10.0
 15
10.0
 25
10.0
 16
0.0
 26
0.0
 36
1.0
 17
0.0
 27
0.0
 37
0.0
 40
210.0
 41
1.4142857143
 42
50.0
 43
0.0
 44
0.0
 50
0.0
 51
0.0
 71
     0
 72
  2000
 73
     1
 74
     3
 75
     0
 76
     0
 77
     0
 78
     0
281
     0
 65
     1
110
0.0
120
0.0
130
0.0
111
1.0
121
0.0
131
0.0
112
0.0
122
1.0
132
0.0
 79
     0
146
0.0
  0
ENDTAB
  0
TABLE
  2
LTYPE
  5
5
330
0
100
AcDbSymbolTable
 70
     6
  0
LTYPE
  5
14
330
5
100
AcDbSymbolTableRecord
100
AcDbLinetypeTableRecord
  2
ByBlock
 70
     0
  3

 72
    65
 73
     0
 40
0.0
  0
LTYPE
  5
15
330
5
100
AcDbSymbolTableRecord
100
AcDbLinetypeTableRecord
  2
ByLayer
 70
     0
  3

 72
    65
 73
     0
 40
0.0
  0
LTYPE
  5
16
330
5
100
AcDbSymbolTableRecord
100
AcDbLinetypeTableRecord
  2
Continuous
 70
     0
  3
Solid line
 72
    65
 73
     0
 40
0.0
  0
LTYPE
  5
3B
330
5
100
AcDbSymbolTableRecord
100
AcDbLinetypeTableRecord
  2
HIDDEN
 70
     0
  3
Hidden __ __ __ __ __ __ __ __ __ __ __ __ __ __
 72
    65
 73
     2
 40
1.905
 49
1.27
 74
     0
 49
-0.635
 74
     0
  0
LTYPE
  5
3C
330
5
100
AcDbSymbolTableRecord
100
AcDbLinetypeTableRecord
  2
PHANTOM
 70
     0
  3
Phantom ______  __  __  ______  __  __  ______
 72
    65
 73
     6
 40
12.7
 49
6.35
 74
     0
 49
-1.27
 74
     0
 49
1.27
 74
     0
 49
-1.27
 74
     0
 49
1.27
 74
     0
 49
-1.27
 74
     0
  0
LTYPE
  5
3D
330
5
100
AcDbSymbolTableRecord
100
AcDbLinetypeTableRecord
  2
CENTER
 70
     0
  3
Center ____ _ ____ _ ____ _ ____ _ ____ _ ____
 72
    65
 73
     4
 40
10.16
 49
6.35
 74
     0
 49
-1.27
 74
     0
 49
1.27
 74
     0
 49
-1.27
 74
     0
  0
LTYPE
  5
3E
330
5
100
AcDbSymbolTableRecord
100
AcDbLinetypeTableRecord
  2
CENTERX2
 70
     0
  3
Center (2x) ________  __  ________  __  _____
 72
    65
 73
     4
 40
20.32
 49
12.7
 74
     0
 49
-2.54
 74
     0
 49
2.54
 74
     0
 49
-2.54
 74
     0
  0
LTYPE
  5
3F
330
5
100
AcDbSymbolTableRecord
100
AcDbLinetypeTableRecord
  2
DOT2
 70
     0
  3
Dot (.5x) ........................................
 72
    65
 73
     2
 40
0.635
 49
0.0
 74
     0
 49
-0.635
 74
     0
  0
ENDTAB
  0
TABLE
  2
LAYER
  5
2
330
0
100
AcDbSymbolTable
 70
     5
  0
LAYER
  5
10
330
2
100
AcDbSymbolTableRecord
100
AcDbLayerTableRecord
  2
0
 70
     0
 62
     7
  6
Continuous
370
    -3
390
F
  0
LAYER
  5
40
330
2
100
AcDbSymbolTableRecord
100
AcDbLayerTableRecord
  2
FORMAT
 70
     0
 62
     7
  6
Continuous
370
    -3
390
F
  0
LAYER
  5
41
330
2
100
AcDbSymbolTableRecord
100
AcDbLayerTableRecord
  2
VERMASSUNG
 70
     0
 62
     7
  6
Continuous
370
    -3
390
F
  0
LAYER
  5
42
330
2
100
AcDbSymbolTableRecord
100
AcDbLayerTableRecord
  2
KOPF_DÜNN
 70
     0
 62
     7
  6
Continuous
370
    -3
390
F
  0
LAYER
  5
43
330
2
100
AcDbSymbolTableRecord
100
AcDbLayerTableRecord
  2
KOPF_DICK
 70
     0
 62
     7
  6
Continuous
370
    15
390
F
  0
ENDTAB
  0
TABLE
  2
STYLE
  5
3
330
0
100
AcDbSymbolTable
 70
     3
  0
STYLE
  5
11
330
3
100
AcDbSymbolTableRecord
100
AcDbTextStyleTableRecord
  2
Standard
 70
     0
 40
0.0
 41
1.0
 50
0.0
 71
     0
 42
2.5
  3
txt
  4

  0
STYLE
  5
44
330
3
100
AcDbSymbolTableRecord
100
AcDbTextStyleTableRecord
  2
SLDTEXTSTYLE0
 70
     0
 40
0.0
 41
0.7
 50
0.0
 71
     0
 42
0.2
  3
TXT
  4

  0
STYLE
  5
48
330
3
100
AcDbSymbolTableRecord
100
AcDbTextStyleTableRecord
  2
SLDTEXTSTYLE1
 70
     0
 40
0.0
 41
0.6473684211
 50
0.0
 71
     0
 42
0.2
  3
TXT
  4

  0
ENDTAB
  0
TABLE
  2
VIEW
  5
6
330
0
100
AcDbSymbolTable
 70
     0
  0
ENDTAB
  0
TABLE
  2
UCS
  5
7
330
0
100
AcDbSymbolTable
 70
     0
  0
ENDTAB
  0
TABLE
  2
APPID
  5
9
330
0
100
AcDbSymbolTable
 70
     1
  0
APPID
  5
12
330
9
100
AcDbSymbolTableRecord
100
AcDbRegAppTableRecord
  2
ACAD
 70
     0
  0
ENDTAB
  0
TABLE
  2
DIMSTYLE
  5
A
330
0
100
AcDbSymbolTable
 70
     5
100
AcDbDimStyleTable
  0
DIMSTYLE
105
27
330
A
100
AcDbSymbolTableRecord
100
AcDbDimStyleTableRecord
  2
ISO-25
 70
     0
 41
2.5
 42
0.625
 43
3.75
 44
1.25
 73
     0
 74
     0
 77
     1
 78
     8
140
2.5
141
2.5
143
0.0393700787
147
0.625
171
     3
172
     1
271
     2
272
     2
274
     3
278
    44
283
     0
284
     8
340
11
  0
DIMSTYLE
105
15D
102
{ACAD_REACTORS
330
15C
102
}
330
A
100
AcDbSymbolTableRecord
100
AcDbDimStyleTableRecord
  2
SLDDIMSTYLE0
 70
     0
 41
3.0
 44
0.0
 45
0.000000001
 73
     0
 74
     0
 77
     1
 78
    12
140
2.0
147
0.5
173
     1
271
     2
272
     2
284
    12
340
44
  0
DIMSTYLE
105
168
102
{ACAD_REACTORS
330
167
102
}
330
A
100
AcDbSymbolTableRecord
100
AcDbDimStyleTableRecord
  2
SLDDIMSTYLE1
 70
     0
 41
3.0
 44
0.0
 45
0.000000001
 73
     0
 74
     0
 77
     1
 78
    12
140
2.0
147
0.5
173
     1
271
     2
272
     2
284
    12
340
44
  0
DIMSTYLE
105
174
102
{ACAD_REACTORS
330
173
330
17F
102
}
330
A
100
AcDbSymbolTableRecord
100
AcDbDimStyleTableRecord
  2
SLDDIMSTYLE2
 70
     0
 41
3.0
 44
0.0
 45
0.000000001
 73
     0
 74
     0
 77
     1
 78
    12
140
2.0
147
0.5
173
     1
271
     2
272
     3
284
    12
340
44
  0
DIMSTYLE
105
18B
102
{ACAD_REACTORS
330
18A
330
195
330
19F
330
1A9
102
}
330
A
100
AcDbSymbolTableRecord
100
AcDbDimStyleTableRecord
  2
SLDDIMSTYLE3
 70
     0
 41
3.0
 44
0.0
 45
0.000000001
 73
     0
 74
     0
 77
     1
 78
    12
140
2.0
147
0.5
173
     1
271
     2
272
     3
284
    12
340
44
  0
ENDTAB
  0
TABLE
  2
BLOCK_RECORD
  5
1
330
0
100
AcDbSymbolTable
 70
     9
  0
BLOCK_RECORD
  5
1F
330
1
100
AcDbSymbolTableRecord
100
AcDbBlockTableRecord
  2
*Model_Space
340
22
  0
BLOCK_RECORD
  5
1B
330
1
100
AcDbSymbolTableRecord
100
AcDbBlockTableRecord
  2
*Paper_Space
340
1E
  0
BLOCK_RECORD
  5
23
330
1
100
AcDbSymbolTableRecord
100
AcDbBlockTableRecord
  2
*Paper_Space0
340
26
  0
BLOCK_RECORD
  5
15E
330
1
100
AcDbSymbolTableRecord
100
AcDbBlockTableRecord
  2
*D1
340
0
  0
BLOCK_RECORD
  5
169
330
1
100
AcDbSymbolTableRecord
100
AcDbBlockTableRecord
  2
*D2
340
0
  0
BLOCK_RECORD
  5
175
330
1
100
AcDbSymbolTableRecord
100
AcDbBlockTableRecord
  2
*D3
340
0
  0
BLOCK_RECORD
  5
180
330
1
100
AcDbSymbolTableRecord
100
AcDbBlockTableRecord
  2
*D4
340
0
  0
BLOCK_RECORD
  5
18C
330
1
100
AcDbSymbolTableRecord
100
AcDbBlockTableRecord
  2
*D5
340
0
  0
BLOCK_RECORD
  5
196
330
1
100
AcDbSymbolTableRecord
100
AcDbBlockTableRecord
  2
*D6
340
0
  0
BLOCK_RECORD
  5
1A0
330
1
100
AcDbSymbolTableRecord
100
AcDbBlockTableRecord
  2
*D7
340
0
  0
BLOCK_RECORD
  5
1AA
330
1
100
AcDbSymbolTableRecord
100
AcDbBlockTableRecord
  2
*D8
340
0
  0
ENDTAB
  0
ENDSEC
  0
SECTION
  2
BLOCKS
  0
BLOCK
  5
20
330
1F
100
AcDbEntity
  8
0
100
AcDbBlockBegin
  2
*Model_Space
 70
     0
 10
0.0
 20
0.0
 30
0.0
  3
*Model_Space
  1

  0
ENDBLK
  5
21
330
1F
100
AcDbEntity
  8
0
100
AcDbBlockEnd
  0
BLOCK
  5
1C
330
1B
100
AcDbEntity
 67
     1
  8
0
100
AcDbBlockBegin
  2
*Paper_Space
 70
     0
 10
0.0
 20
0.0
 30
0.0
  3
*Paper_Space
  1

  0
ENDBLK
  5
1D
330
1B
100
AcDbEntity
 67
     1
  8
0
100
AcDbBlockEnd
  0
BLOCK
  5
24
330
23
100
AcDbEntity
  8
0
100
AcDbBlockBegin
  2
*Paper_Space0
 70
     0
 10
0.0
 20
0.0
 30
0.0
  3
*Paper_Space0
  1

  0
ENDBLK
  5
25
330
23
100
AcDbEntity
  8
0
100
AcDbBlockEnd
  0
BLOCK
  5
15F
330
15E
100
AcDbEntity
  8
0
100
AcDbBlockBegin
  2
*D1
 70
     1
 10
0.0
 20
0.0
 30
0.0
  3
*D1
  1

  0
SOLID
  5
161
330
15E
100
AcDbEntity
  8
VERMASSUNG
100
AcDbTrace
 10
167.2866277276
 20
145.0196693548
 30
0.0
 11
170.2866277276
 21
144.5696693548
 31
0.0
 12
170.2866277276
 22
145.4696693548
 32
0.0
 13
170.2866277276
 23
145.4696693548
 33
0.0
  0
SOLID
  5
162
330
15E
100
AcDbEntity
  8
VERMASSUNG
100
AcDbTrace
 10
216.7866277276
 20
145.0196693548
 30
0.0
 11
213.7866277276
 21
145.4696693548
 31
0.0
 12
213.7866277276
 22
144.5696693548
 32
0.0
 13
213.7866277276
 23
144.5696693548
 33
0.0
  0
LINE
  5
163
330
15E
100
AcDbEntity
  8
VERMASSUNG
100
AcDbLine
 10
167.2866277276
 20
118.4196693548
 30
0.0
 11
167.2866277276
 21
146.0196693548
 31
0.0
  0
LINE
  5
164
330
15E
100
AcDbEntity
  8
VERMASSUNG
100
AcDbLine
 10
216.7866277276
 20
124.1708883715
 30
0.0
 11
216.7866277276
 21
146.0196693548
 31
0.0
  0
LINE
  5
165
330
15E
100
AcDbEntity
  8
VERMASSUNG
100
AcDbLine
 10
167.2866277276
 20
145.0196693548
 30
0.0
 11
216.7866277276
 21
145.0196693548
 31
0.0
  0
MTEXT
  5
166
330
15E
100
AcDbEntity
  8
VERMASSUNG
100
AcDbMText
 10
189.5373727276
 20
147.597804718
 30
0.0
 40
2.0
 41
0.0
 71
     1
 72
     1
  1
49.5
  7
SLDTEXTSTYLE0
 73
     1
 44
1.0
  0
ENDBLK
  5
160
330
15E
100
AcDbEntity
  8
0
100
AcDbBlockEnd
  0
BLOCK
  5
16A
330
169
100
AcDbEntity
  8
0
100
AcDbBlockBegin
  2
*D2
 70
     1
 10
0.0
 20
0.0
 30
0.0
  3
*D2
  1

  0
SOLID
  5
16C
330
169
100
AcDbEntity
  8
VERMASSUNG
100
AcDbTrace
 10
224.0992567599
 20
100.5196693548
 30
0.0
 11
224.5492567599
 21
103.5196693548
 31
0.0
 12
223.6492567599
 22
103.5196693548
 32
0.0
 13
223.6492567599
 23
103.5196693548
 33
0.0
  0
SOLID
  5
16D
330
169
100
AcDbEntity
  8
VERMASSUNG
100
AcDbTrace
 10
224.0992567599
 20
118.5196693548
 30
0.0
 11
223.6492567599
 21
115.5196693548
 31
0.0
 12
224.5492567599
 22
115.5196693548
 32
0.0
 13
224.5492567599
 23
115.5196693548
 33
0.0
  0
LINE
  5
16E
330
169
100
AcDbEntity
  8
VERMASSUNG
100
AcDbLine
 10
213.2866277276
 20
100.5196693548
 30
0.0
 11
225.0992567599
 21
100.5196693548
 31
0.0
  0
LINE
  5
16F
330
169
100
AcDbEntity
  8
VERMASSUNG
100
AcDbLine
 10
213.2866277276
 20
118.5196693548
 30
0.0
 11
225.0992567599
 21
118.5196693548
 31
0.0
  0
LINE
  5
170
330
169
100
AcDbEntity
  8
VERMASSUNG
100
AcDbLine
 10
224.0992567599
 20
100.5196693548
 30
0.0
 11
224.0992567599
 21
118.5196693548
 31
0.0
  0
MTEXT
  5
171
330
169
100
AcDbEntity
  8
VERMASSUNG
100
AcDbMText
 10
221.5211212803
 20
106.5159215323
 30
0.0
 40
2.0
 41
0.0
 71
     1
 72
     1
  1
%%c
  7
SLDTEXTSTYLE0
 11
6.123233995736766E-17
 21
1.0
 31
0.0
 73
     1
 44
1.0
  0
MTEXT
  5
172
330
169
100
AcDbEntity
  8
VERMASSUNG
100
AcDbMText
 10
221.5211213968
 20
110.1243278226
 30
0.0
 40
2.0
 41
0.0
 71
     1
 72
     1
  1
18
  7
SLDTEXTSTYLE0
 11
6.123233995736766E-17
 21
1.0
 31
0.0
 73
     1
 44
1.0
  0
ENDBLK
  5
16B
330
169
100
AcDbEntity
  8
0
100
AcDbBlockEnd
  0
BLOCK
  5
176
330
175
100
AcDbEntity
  8
0
100
AcDbBlockBegin
  2
*D3
 70
     1
 10
0.0
 20
0.0
 30
0.0
  3
*D3
  1

  0
SOLID
  5
178
330
175
100
AcDbEntity
  8
VERMASSUNG
100
AcDbTrace
 10
230.0992567599
 20
93.0196693548
 30
0.0
 11
230.5492567599
 21
96.0196693548
 31
0.0
 12
229.6492567599
 22
96.0196693548
 32
0.0
 13
229.6492567599
 23
96.0196693548
 33
0.0
  0
SOLID
  5
179
330
175
100
AcDbEntity
  8
VERMASSUNG
100
AcDbTrace
 10
230.0992567599
 20
126.0196693548
 30
0.0
 11
229.6492567599
 21
123.0196693548
 31
0.0
 12
230.5492567599
 22
123.0196693548
 32
0.0
 13
230.5492567599
 23
123.0196693548
 33
0.0
  0
LINE
  5
17A
330
175
100
AcDbEntity
  8
VERMASSUNG
100
AcDbLine
 10
216.7866277276
 20
93.0196693548
 30
0.0
 11
231.0992567599
 21
93.0196693548
 31
0.0
  0
LINE
  5
17B
330
175
100
AcDbEntity
  8
VERMASSUNG
100
AcDbLine
 10
216.7866277276
 20
126.0196693548
 30
0.0
 11
231.0992567599
 21
126.0196693548
 31
0.0
  0
LINE
  5
17C
330
175
100
AcDbEntity
  8
VERMASSUNG
100
AcDbLine
 10
230.0992567599
 20
93.0196693548
 30
0.0
 11
230.0992567599
 21
126.0196693548
 31
0.0
  0
MTEXT
  5
17D
330
175
100
AcDbEntity
  8
VERMASSUNG
100
AcDbMText
 10
227.5211212803
 20
106.3155902419
 30
0.0
 40
2.0
 41
0.0
 71
     1
 72
     1
  1
%%c
  7
SLDTEXTSTYLE0
 11
6.123233995736766E-17
 21
1.0
 31
0.0
 73
     1
 44
1.0
  0
MTEXT
  5
17E
330
175
100
AcDbEntity
  8
VERMASSUNG
100
AcDbMText
 10
227.5211213968
 20
109.9239965323
 30
0.0
 40
2.0
 41
0.0
 71
     1
 72
     1
  1
33
  7
SLDTEXTSTYLE0
 11
6.123233995736766E-17
 21
1.0
 31
0.0
 73
     1
 44
1.0
  0
ENDBLK
  5
177
330
175
100
AcDbEntity
  8
0
100
AcDbBlockEnd
  0
BLOCK
  5
181
330
180
100
AcDbEntity
  8
0
100
AcDbBlockBegin
  2
*D4
 70
     1
 10
0.0
 20
0.0
 30
0.0
  3
*D4
  1

  0
SOLID
  5
183
330
180
100
AcDbEntity
  8
VERMASSUNG
100
AcDbTrace
 10
236.0992567599
 20
89.0196693548
 30
0.0
 11
236.5492567599
 21
92.0196693548
 31
0.0
 12
235.6492567599
 22
92.0196693548
 32
0.0
 13
235.6492567599
 23
92.0196693548
 33
0.0
  0
SOLID
  5
184
330
180
100
AcDbEntity
  8
VERMASSUNG
100
AcDbTrace
 10
236.0992567599
 20
130.0196693548
 30
0.0
 11
235.6492567599
 21
127.0196693548
 31
0.0
 12
236.5492567599
 22
127.0196693548
 32
0.0
 13
236.5492567599
 23
127.0196693548
 33
0.0
  0
LINE
  5
185
330
180
100
AcDbEntity
  8
VERMASSUNG
100
AcDbLine
 10
150.7366277276
 20
89.0196693548
 30
0.0
 11
237.0992567599
 21
89.0196693548
 31
0.0
  0
LINE
  5
186
330
180
100
AcDbEntity
  8
VERMASSUNG
100
AcDbLine
 10
150.7366277276
 20
130.0196693548
 30
0.0
 11
237.0992567599
 21
130.0196693548
 31
0.0
  0
LINE
  5
187
330
180
100
AcDbEntity
  8
VERMASSUNG
100
AcDbLine
 10
236.0992567599
 20
89.0196693548
 30
0.0
 11
236.0992567599
 21
130.0196693548
 31
0.0
  0
MTEXT
  5
188
330
180
100
AcDbEntity
  8
VERMASSUNG
100
AcDbMText
 10
233.5211212803
 20
106.4157558871
 30
0.0
 40
2.0
 41
0.0
 71
     1
 72
     1
  1
%%c
  7
SLDTEXTSTYLE0
 11
6.123233995736766E-17
 21
1.0
 31
0.0
 73
     1
 44
1.0
  0
MTEXT
  5
189
330
180
100
AcDbEntity
  8
VERMASSUNG
100
AcDbMText
 10
233.5211213968
 20
110.0241621774
 30
0.0
 40
2.0
 41
0.0
 71
     1
 72
     1
  1
41
  7
SLDTEXTSTYLE0
 11
6.123233995736766E-17
 21
1.0
 31
0.0
 73
     1
 44
1.0
  0
ENDBLK
  5
182
330
180
100
AcDbEntity
  8
0
100
AcDbBlockEnd
  0
BLOCK
  5
18D
330
18C
100
AcDbEntity
  8
0
100
AcDbBlockBegin
  2
*D5
 70
     1
 10
0.0
 20
0.0
 30
0.0
  3
*D5
  1

  0
SOLID
  5
18F
330
18C
100
AcDbEntity
  8
VERMASSUNG
100
AcDbTrace
 10
121.7866277276
 20
157.0196693548
 30
0.0
 11
124.7866277276
 21
156.5696693548
 31
0.0
 12
124.7866277276
 22
157.4696693548
 32
0.0
 13
124.7866277276
 23
157.4696693548
 33
0.0
  0
SOLID
  5
190
330
18C
100
AcDbEntity
  8
VERMASSUNG
100
AcDbTrace
 10
216.7866277276
 20
157.0196693548
 30
0.0
 11
213.7866277276
 21
157.4696693548
 31
0.0
 12
213.7866277276
 22
156.5696693548
 32
0.0
 13
213.7866277276
 23
156.5696693548
 33
0.0
  0
LINE
  5
191
330
18C
100
AcDbEntity
  8
VERMASSUNG
100
AcDbLine
 10
121.7866277276
 20
140.7196693548
 30
0.0
 11
121.7866277276
 21
158.0196693548
 31
0.0
  0
LINE
  5
192
330
18C
100
AcDbEntity
  8
VERMASSUNG
100
AcDbLine
 10
216.7866277276
 20
124.1708883715
 30
0.0
 11
216.7866277276
 21
158.0196693548
 31
0.0
  0
LINE
  5
193
330
18C
100
AcDbEntity
  8
VERMASSUNG
100
AcDbLine
 10
121.7866277276
 20
157.0196693548
 30
0.0
 11
216.7866277276
 21
157.0196693548
 31
0.0
  0
MTEXT
  5
194
330
18C
100
AcDbEntity
  8
VERMASSUNG
100
AcDbMText
 10
167.8867517599
 20
159.597804718
 30
0.0
 40
2.0
 41
0.0
 71
     1
 72
     1
  1
95
  7
SLDTEXTSTYLE0
 73
     1
 44
1.0
  0
ENDBLK
  5
18E
330
18C
100
AcDbEntity
  8
0
100
AcDbBlockEnd
  0
BLOCK
  5
197
330
196
100
AcDbEntity
  8
0
100
AcDbBlockBegin
  2
*D6
 70
     1
 10
0.0
 20
0.0
 30
0.0
  3
*D6
  1

  0
SOLID
  5
199
330
196
100
AcDbEntity
  8
VERMASSUNG
100
AcDbTrace
 10
147.7366277276
 20
151.0196693548
 30
0.0
 11
150.7366277276
 21
150.5696693548
 31
0.0
 12
150.7366277276
 22
151.4696693548
 32
0.0
 13
150.7366277276
 23
151.4696693548
 33
0.0
  0
SOLID
  5
19A
330
196
100
AcDbEntity
  8
VERMASSUNG
100
AcDbTrace
 10
216.7866277276
 20
151.0196693548
 30
0.0
 11
213.7866277276
 21
151.4696693548
 31
0.0
 12
213.7866277276
 22
150.5696693548
 32
0.0
 13
213.7866277276
 23
150.5696693548
 33
0.0
  0
LINE
  5
19B
330
196
100
AcDbEntity
  8
VERMASSUNG
100
AcDbLine
 10
147.7366277276
 20
139.3661096786
 30
0.0
 11
147.7366277276
 21
152.0196693548
 31
0.0
  0
LINE
  5
19C
330
196
100
AcDbEntity
  8
VERMASSUNG
100
AcDbLine
 10
216.7866277276
 20
124.1708883715
 30
0.0
 11
216.7866277276
 21
152.0196693548
 31
0.0
  0
LINE
  5
19D
330
196
100
AcDbEntity
  8
VERMASSUNG
100
AcDbLine
 10
147.7366277276
 20
151.0196693548
 30
0.0
 11
216.7866277276
 21
151.0196693548
 31
0.0
  0
MTEXT
  5
19E
330
196
100
AcDbEntity
  8
VERMASSUNG
100
AcDbMText
 10
179.1626003889
 20
153.597804718
 30
0.0
 40
2.0
 41
0.0
 71
     1
 72
     1
  1
69.05
  7
SLDTEXTSTYLE0
 73
     1
 44
1.0
  0
ENDBLK
  5
198
330
196
100
AcDbEntity
  8
0
100
AcDbBlockEnd
  0
BLOCK
  5
1A1
330
1A0
100
AcDbEntity
  8
0
100
AcDbBlockBegin
  2
*D7
 70
     1
 10
0.0
 20
0.0
 30
0.0
  3
*D7
  1

  0
SOLID
  5
1A3
330
1A0
100
AcDbEntity
  8
VERMASSUNG
100
AcDbTrace
 10
89.8866277276
 20
163.0196693548
 30
0.0
 11
92.8866277276
 21
162.5696693548
 31
0.0
 12
92.8866277276
 22
163.4696693548
 32
0.0
 13
92.8866277276
 23
163.4696693548
 33
0.0
  0
SOLID
  5
1A4
330
1A0
100
AcDbEntity
  8
VERMASSUNG
100
AcDbTrace
 10
216.7866277276
 20
163.0196693548
 30
0.0
 11
213.7866277276
 21
163.4696693548
 31
0.0
 12
213.7866277276
 22
162.5696693548
 32
0.0
 13
213.7866277276
 23
162.5696693548
 33
0.0
  0
LINE
  5
1A5
330
1A0
100
AcDbEntity
  8
VERMASSUNG
100
AcDbLine
 10
89.8866277276
 20
129.2103471013
 30
0.0
 11
89.8866277276
 21
164.0196693548
 31
0.0
  0
LINE
  5
1A6
330
1A0
100
AcDbEntity
  8
VERMASSUNG
100
AcDbLine
 10
216.7866277276
 20
124.1708883715
 30
0.0
 11
216.7866277276
 21
164.0196693548
 31
0.0
  0
LINE
  5
1A7
330
1A0
100
AcDbEntity
  8
VERMASSUNG
100
AcDbLine
 10
89.8866277276
 20
163.0196693548
 30
0.0
 11
216.7866277276
 21
163.0196693548
 31
0.0
  0
MTEXT
  5
1A8
330
1A0
100
AcDbEntity
  8
VERMASSUNG
100
AcDbMText
 10
150.436710147
 20
165.597804718
 30
0.0
 40
2.0
 41
0.0
 71
     1
 72
     1
  1
126.9
  7
SLDTEXTSTYLE0
 73
     1
 44
1.0
  0
ENDBLK
  5
1A2
330
1A0
100
AcDbEntity
  8
0
100
AcDbBlockEnd
  0
BLOCK
  5
1AB
330
1AA
100
AcDbEntity
  8
0
100
AcDbBlockBegin
  2
*D8
 70
     1
 10
0.0
 20
0.0
 30
0.0
  3
*D8
  1

  0
SOLID
  5
1AD
330
1AA
100
AcDbEntity
  8
VERMASSUNG
100
AcDbTrace
 10
79.7413238853
 20
141.0196693548
 30
0.0
 11
79.2913238853
 21
138.0196693548
 31
0.0
 12
80.1913238853
 22
138.0196693548
 32
0.0
 13
80.1913238853
 23
138.0196693548
 33
0.0
  0
SOLID
  5
1AE
330
1AA
100
AcDbEntity
  8
VERMASSUNG
100
AcDbTrace
 10
79.7413238853
 20
78.0196693548
 30
0.0
 11
80.1913238853
 21
81.0196693548
 31
0.0
 12
79.2913238853
 22
81.0196693548
 32
0.0
 13
79.2913238853
 23
81.0196693548
 33
0.0
  0
LINE
  5
1AF
330
1AA
100
AcDbEntity
  8
VERMASSUNG
100
AcDbLine
 10
122.0866277276
 20
141.0196693548
 30
0.0
 11
78.7413238853
 21
141.0196693548
 31
0.0
  0
LINE
  5
1B0
330
1AA
100
AcDbEntity
  8
VERMASSUNG
100
AcDbLine
 10
122.0866277276
 20
78.0196693548
 30
0.0
 11
78.7413238853
 21
78.0196693548
 31
0.0
  0
LINE
  5
1B1
330
1AA
100
AcDbEntity
  8
VERMASSUNG
100
AcDbLine
 10
79.7413238853
 20
141.0196693548
 30
0.0
 11
79.7413238853
 21
78.0196693548
 31
0.0
  0
MTEXT
  5
1B2
330
1AA
100
AcDbEntity
  8
VERMASSUNG
100
AcDbMText
 10
76.9631883962
 20
101.8154654032
 30
0.0
 40
2.0
 41
0.0
 71
     1
 72
     1
  1
HSK A 
  7
SLDTEXTSTYLE0
 11
-7.044195017643634E-15
 21
1.0
 31
0.0
 73
     1
 44
1.0
  0
MTEXT
  5
1B3
330
1AA
100
AcDbEntity
  8
VERMASSUNG
100
AcDbMText
 10
77.1631884057
 20
110.8154659471
 30
0.0
 40
2.0
 41
0.0
 71
     1
 72
     1
  1
%%c
  7
SLDTEXTSTYLE0
 11
-7.044195017643634E-15
 21
1.0
 31
0.0
 73
     1
 44
1.0
  0
MTEXT
  5
1B4
330
1AA
100
AcDbEntity
  8
VERMASSUNG
100
AcDbMText
 10
77.1631885222
 20
114.424121371
 30
0.0
 40
2.0
 41
0.0
 71
     1
 72
     1
  1
63
  7
SLDTEXTSTYLE0
 11
-7.044195017643634E-15
 21
1.0
 31
0.0
 73
     1
 44
1.0
  0
ENDBLK
  5
1AC
330
1AA
100
AcDbEntity
  8
0
100
AcDbBlockEnd
  0
ENDSEC
  0
SECTION
  2
ENTITIES
  0
MTEXT
  5
45
330
1F
100
AcDbEntity
  8
KOPF_DÜNN
100
AcDbMText
 10
13.8892156294
 20
23.8442973028
 30
0.0
 40
3.0
 41
0.0
 71
     1
 72
     1
  1
HA6.S18.K01.095
  7
SLDTEXTSTYLE0
 73
     1
 44
1.0
  0
MTEXT
  5
46
330
1F
100
AcDbEntity
  8
VERMASSUNG
100
AcDbMText
 10
13.9329988022
 20
28.8834360957
 30
0.0
 40
3.0
 41
0.0
 71
     1
 72
     1
  1
Schrumpffutter_Heat shrink chuck
  7
SLDTEXTSTYLE0
 73
     1
 44
1.0
  0
MTEXT
  5
47
330
1F
100
AcDbEntity
  8
VERMASSUNG
100
AcDbMText
 10
98.8601118557
 20
13.8365368179
 30
0.0
 40
2.0
 41
0.0
 71
     1
 72
     1
  1
Datum: 17.03.2011
  7
SLDTEXTSTYLE0
 73
     1
 44
1.0
  0
MTEXT
  5
49
330
1F
100
AcDbEntity
  8
VERMASSUNG
100
AcDbMText
 10
13.933048693
 20
18.0482802738
 30
0.0
 40
2.0
 41
0.0
 71
     1
 72
     1
  1
DIN 69 893 HSK A 63
  7
SLDTEXTSTYLE1
 73
     1
 44
1.0
  0
MTEXT
  5
4A
330
1F
100
AcDbEntity
  8
VERMASSUNG
100
AcDbMText
 10
13.9808475933
 20
13.9090973692
 30
0.0
 40
2.0
 41
0.0
 71
     1
 72
     1
  1
Gewicht: 1151.29g
  7
SLDTEXTSTYLE0
 73
     1
 44
1.0
  0
LINE
  5
4B
330
1F
100
AcDbEntity
  8
0
  6
Continuous
 62
     7
370
    15
100
AcDbLine
 10
122.0866277419
 20
78.0196688482
 30
0.0
 11
126.7366277008
 21
78.0196688482
 31
0.0
  0
LINE
  5
4C
330
1F
100
AcDbEntity
  8
0
  6
Continuous
 62
     7
370
    15
100
AcDbLine
 10
126.7646162725
 20
141.0196698615
 30
0.0
 11
122.0866277419
 21
141.0196698615
 31
0.0
  0
ARC
  5
4D
330
1F
100
AcDbEntity
  8
0
  6
Continuous
 62
     7
370
    15
100
AcDbCircle
 10
122.0866277276
 20
78.3196693548
 30
0.0
 40
0.3000000000000114
100
AcDbArc
 50
180.0
 51
270.0
  0
ARC
  5
4E
330
1F
100
AcDbEntity
  8
0
  6
Continuous
 62
     7
370
    15
100
AcDbCircle
 10
122.0866277276
 20
140.7196693548
 30
0.0
 40
0.3000000000000114
100
AcDbArc
 50
90.0
 51
180.0
  0
ARC
  5
4F
330
1F
100
AcDbEntity
  8
0
  6
Continuous
 62
     7
370
    15
100
AcDbCircle
 10
121.286620975
 20
84.9492317404
 30
0.0
 40
0.6000067526677164
100
AcDbArc
 50
33.5571153394
 51
90.0
  0
ARC
  5
50
330
1F
100
AcDbEntity
  8
0
  6
Continuous
 62
     7
370
    15
100
AcDbCircle
 10
121.286620975
 20
134.0901069692
 30
0.0
 40
0.6000067526677242
100
AcDbArc
 50
270.0
 51
326.4428846606
  0
LINE
  5
51
330
1F
100
AcDbEntity
  8
0
  6
Continuous
 62
     7
370
    15
100
AcDbLine
 10
108.5551192938
 20
133.1773992041
 30
0.0
 11
95.9866268514
 21
132.5477152476
 31
0.0
  0
LINE
  5
52
330
1F
100
AcDbEntity
  8
0
  6
Continuous
 62
     7
370
    15
100
AcDbLine
 10
119.7866276326
 20
133.7401005784
 30
0.0
 11
116.969626206
 21
133.5989679554
 31
0.0
  0
LINE
  5
53
330
1F
100
AcDbEntity
  8
0
  6
Continuous
 62
     7
370
    15
100
AcDbLine
 10
116.9696820854
 20
85.4403688916
 30
0.0
 11
119.7866276326
 21
85.2992381313
 31
0.0
  0
LINE
  5
54
330
1F
100
AcDbEntity
  8
0
  6
Continuous
 62
     7
370
    15
100
AcDbLine
 10
99.9866275071
 20
86.2912233332
 30
0.0
 11
108.5555216252
 21
85.8619190165
 31
0.0
  0
LINE
  5
55
330
1F
100
AcDbEntity
  8
0
  6
Continuous
 62
     7
370
    15
100
AcDbLine
 10
119.7866276326
 20
85.2992381313
 30
0.0
 11
120.6433405588
 21
85.5287942448
 31
0.0
  0
LINE
  5
56
330
1F
100
AcDbEntity
  8
0
  6
Continuous
 62
     7
370
    15
100
AcDbLine
 10
120.6433405588
 20
133.5105444649
 30
0.0
 11
119.7866276326
 21
133.7401005784
 31
0.0
  0
ARC
  5
57
330
1F
100
AcDbEntity
  8
0
  6
Continuous
 62
     7
370
    15
100
AcDbCircle
 10
120.7986319281
 20
84.9492384931
 30
0.0
 40
0.5999999999999943
100
AcDbArc
 50
90.0
 51
105.0
  0
ARC
  5
58
330
1F
100
AcDbEntity
  8
0
  6
Continuous
 62
     7
370
    15
100
AcDbCircle
 10
120.7986319281
 20
134.0901002166
 30
0.0
 40
0.5999999999999943
100
AcDbArc
 50
255.0
 51
270.0
  0
LINE
  5
59
330
1F
100
AcDbEntity
  8
0
  6
Continuous
 62
     7
370
    15
100
AcDbLine
 10
120.7986319624
 20
85.549238638
 30
0.0
 11
121.2866209518
 21
85.549238638
 31
0.0
  0
LINE
  5
5A
330
1F
100
AcDbEntity
  8
0
  6
Continuous
 62
     7
370
    15
100
AcDbLine
 10
121.2866209518
 20
133.4901000717
 30
0.0
 11
120.7986319624
 21
133.4901000717
 31
0.0
  0
ARC
  5
5B
330
1F
100
AcDbEntity
  8
0
  6
Continuous
 62
     7
370
    15
100
AcDbCircle
 10
150.7366277276
 20
86.0196693548
 30
0.0
 40
3.0
100
AcDbArc
 50
90.0
 51
180.0
  0
ARC
  5
5C
330
1F
100
AcDbEntity
  8
0
  6
Continuous
 62
     7
370
    15
100
AcDbCircle
 10
150.7366277276
 20
133.0196693548
 30
0.0
 40
3.0
100
AcDbArc
 50
180.0
 51
270.0
  0
LINE
  5
5D
330
1F
100
AcDbEntity
  8
0
  6
Continuous
 62
     7
370
    15
100
AcDbLine
 10
150.7366279094
 20
89.0196687886
 30
0.0
 11
165.9618092655
 21
89.0196687886
 31
0.0
  0
LINE
  5
5E
330
1F
100
AcDbEntity
  8
0
  6
Continuous
 62
     7
370
    15
100
AcDbLine
 10
165.9618092655
 20
130.0196699211
 30
0.0
 11
150.7366279094
 21
130.0196699211
 31
0.0
  0
LINE
  5
5F
330
1F
100
AcDbEntity
  8
0
  6
Continuous
 62
     7
370
    15
100
AcDbLine
 10
165.9618092655
 20
89.0196687886
 30
0.0
 11
214.9435466109
 21
92.8746159532
 31
0.0
  0
LINE
  5
60
330
1F
100
AcDbEntity
  8
0
  6
Continuous
 62
     7
370
    15
100
AcDbLine
 10
214.9435466109
 20
126.1647227564
 30
0.0
 11
165.9618092655
 21
130.0196699211
 31
0.0
  0
ARC
  5
61
330
1F
100
AcDbEntity
  8
0
  6
Continuous
 62
     7
370
    15
100
AcDbCircle
 10
214.7866277276
 20
94.8684503382
 30
0.0
 40
2.000000000000016
100
AcDbArc
 50
274.5
 51
0.0
  0
ARC
  5
62
330
1F
100
AcDbEntity
  8
0
  6
Continuous
 62
     7
370
    15
100
AcDbCircle
 10
214.7866277276
 20
124.1708883715
 30
0.0
 40
2.0
100
AcDbArc
 50
0.0
 51
85.5
  0
LINE
  5
63
330
1F
100
AcDbEntity
  8
0
  6
Continuous
 62
     7
370
    15
100
AcDbLine
 10
91.1699643313
 20
88.6496692309
 30
0.0
 11
98.5866280227
 21
88.6496692309
 31
0.0
  0
ARC
  5
64
330
1F
100
AcDbEntity
  8
0
  6
Continuous
 62
     7
370
    15
100
AcDbCircle
 10
98.5866277276
 20
87.2496693548
 30
0.0
 40
1.400000000000006
100
AcDbArc
 50
42.2465410162
 51
90.0
  0
LINE
  5
65
330
1F
100
AcDbEntity
  8
0
  6
Continuous
 62
     7
370
    15
100
AcDbLine
 10
89.8977888702
 20
89.7885091016
 30
0.0
 11
91.0277904897
 21
88.6585056194
 31
0.0
  0
LINE
  5
66
330
1F
100
AcDbEntity
  8
0
  6
Continuous
 62
     7
370
    15
100
AcDbLine
 10
91.0277904897
 20
130.3808330902
 30
0.0
 11
89.8965297221
 21
129.24957046
 31
0.0
  0
ARC
  5
67
330
1F
100
AcDbEntity
  8
0
  6
Continuous
 62
     7
370
    15
100
AcDbCircle
 10
94.5866277276
 20
131.7896693548
 30
0.0
 40
1.400000000000024
100
AcDbArc
 50
270.0
 51
302.5610026528
  0
LINE
  5
68
330
1F
100
AcDbEntity
  8
0
  6
Continuous
 62
     7
370
    15
100
AcDbLine
 10
94.586627367
 20
130.3896694788
 30
0.0
 11
91.1842824845
 21
130.3896694788
 31
0.0
  0
LINE
  5
69
330
1F
100
AcDbEntity
  8
0
  6
Continuous
 62
     7
370
    15
100
AcDbLine
 10
126.7366277008
 20
129.3696700939
 30
0.0
 11
136.394695188
 21
129.3696700939
 31
0.0
  0
LINE
  5
6A
330
1F
100
AcDbEntity
  8
0
  6
Continuous
 62
     7
370
    15
100
AcDbLine
 10
136.394695188
 20
79.332751722
 30
0.0
 11
136.394695188
 21
129.3696700939
 31
0.0
  0
LINE
  5
6B
330
1F
100
AcDbEntity
  8
0
  6
Continuous
 62
     7
370
    15
100
AcDbLine
 10
136.394695188
 20
79.332751722
 30
0.0
 11
134.7366280808
 21
79.332751722
 31
0.0
  0
SPLINE
  5
6C
330
1F
100
AcDbEntity
  8
0
  6
Continuous
 62
     7
370
    15
100
AcDbSpline
210
0.0
220
0.0
230
1.0
 70
     8
 71
     3
 72
    28
 73
    24
 74
     0
 42
0.00000001
 43
0.00000001
 40
0.0
 40
0.0
 40
0.0
 40
0.0
 40
0.1249999999999999
 40
0.1249999999999999
 40
0.1874999999999998
 40
0.1874999999999998
 40
0.2499999999999997
 40
0.2499999999999997
 40
0.3749999999999993
 40
0.3749999999999993
 40
0.4374999999999993
 40
0.4374999999999993
 40
0.4999999999999992
 40
0.4999999999999992
 40
0.6249999999999992
 40
0.6249999999999992
 40
0.7499999999999992
 40
0.7499999999999992
 40
0.8124999999999993
 40
0.8124999999999993
 40
0.8749999999999996
 40
0.8749999999999996
 40
1.0
 40
1.0
 40
1.0
 40
1.0
 10
134.7366277276219
 20
79.33275165859148
 30
0.0
 10
134.204919970129
 20
79.33275165859148
 30
0.0
 10
133.6826814048186
 20
79.31696694464127
 30
0.0
 10
132.9128109185436
 20
79.27197153056505
 30
0.0
 10
132.6584513463523
 20
79.25341653548934
 30
0.0
 10
132.1543297656538
 20
79.20956381304283
 30
0.0
 10
131.9046069482259
 20
79.18421920609063
 30
0.0
 10
131.1790169967794
 20
79.10081712834052
 30
0.0
 10
130.7206567351979
 20
79.03495156918943
 30
0.0
 10
130.070158791804
 20
78.92598122869765
 30
0.0
 10
129.8584767410116
 20
78.887741592931
 30
0.0
 10
129.4544052518736
 20
78.80998285551165
 30
0.0
 10
129.2618987380527
 20
78.7704818933363
 30
0.0
 10
128.7120637670314
 20
78.65157415097029
 30
0.0
 10
128.3821349887226
 20
78.57175646954568
 30
0.0
 10
127.7976637201539
 20
78.41841330774962
 30
0.0
 10
127.5513865821405
 20
78.34707955448036
 30
0.0
 10
127.2515437894424
 20
78.25313604740575
 30
0.0
 10
127.1630869323702
 20
78.22394225404582
 30
0.0
 10
127.0097255790651
 20
78.17047567978241
 30
0.0
 10
126.9446373648389
 20
78.14611634550722
 30
0.0
 10
126.7890433488981
 20
78.08252620006249
 30
0.0
 10
126.7366277276219
 20
78.05242326497324
 30
0.0
 10
126.7366277276219
 20
78.03554637197632
 30
0.0
  0
LINE
  5
6D
330
1F
100
AcDbEntity
  8
0
  6
Continuous
 62
     7
370
    15
100
AcDbLine
 10
126.7366277008
 20
78.0355460355
 30
0.0
 11
126.7366277008
 21
78.0196688482
 31
0.0
  0
SPLINE
  5
6E
330
1F
100
AcDbEntity
  8
0
  6
Continuous
 62
     7
370
    15
100
AcDbSpline
210
0.0
220
0.0
230
1.0
 70
     8
 71
     3
 72
    17
 73
    13
 74
     0
 42
0.00000001
 43
0.00000001
 40
0.0
 40
0.0
 40
0.0
 40
0.0
 40
0.1034797280380778
 40
0.2100239090909901
 40
0.3134862262879433
 40
0.4198361712144981
 40
0.5254127947779869
 40
0.6339610881168427
 40
0.7409508662120068
 40
0.8511696072047016
 40
0.9558996557845765
 40
1.0
 40
1.0
 40
1.0
 40
1.0
 10
134.7366280807794
 20
139.9868647911971
 30
0.0
 10
134.3013795890535
 20
139.9923127828347
 30
0.0
 10
133.4179931384765
 20
140.0033701031634
 30
0.0
 10
132.1371652762537
 20
140.0897288635384
 30
0.0
 10
130.9197490808118
 20
140.2176000066714
 30
0.0
 10
129.811942464486
 20
140.3765444139899
 30
0.0
 10
128.8237039851572
 20
140.5510389869745
 30
0.0
 10
127.9989808853413
 20
140.7202054201614
 30
0.0
 10
127.3500272278427
 20
140.8680862286291
 30
0.0
 10
126.9329919243631
 20
140.9698769801516
 30
0.0
 10
126.7343951814851
 20
141.0202338797861
 30
0.0
 10
126.757708298473
 20
141.0143242748106
 30
0.0
 10
126.7646162724734
 20
141.0125731834596
 30
0.0
  0
LINE
  5
6F
330
1F
100
AcDbEntity
  8
0
  6
Continuous
 62
     7
370
    15
100
AcDbLine
 10
136.394695188
 20
139.9868647912
 30
0.0
 11
134.7366280808
 21
139.9868647912
 31
0.0
  0
LINE
  5
70
330
1F
100
AcDbEntity
  8
0
  6
Continuous
 62
     7
370
    15
100
AcDbLine
 10
136.394695188
 20
133.97835897
 30
0.0
 11
136.394695188
 21
139.9868647912
 31
0.0
  0
LINE
  5
71
330
1F
100
AcDbEntity
  8
0
  6
Continuous
 62
     7
370
    15
100
AcDbLine
 10
133.9822484134
 20
133.97835897
 30
0.0
 11
136.394695188
 21
133.97835897
 31
0.0
  0
SPLINE
  5
72
330
1F
100
AcDbEntity
  8
0
  6
Continuous
 62
     7
370
    15
100
AcDbSpline
210
0.0
220
0.0
230
1.0
 70
     8
 71
     3
 72
    20
 73
    16
 74
     0
 42
0.00000001
 43
0.00000001
 40
0.0
 40
0.0
 40
0.0
 40
0.0
 40
0.2499999999999995
 40
0.2499999999999995
 40
0.3749999999999996
 40
0.3749999999999996
 40
0.4999999999999997
 40
0.4999999999999997
 40
0.6249999999999998
 40
0.6249999999999998
 40
0.7499999999999998
 40
0.7499999999999998
 40
0.8749999999999999
 40
0.8749999999999999
 40
1.0
 40
1.0
 40
1.0
 40
1.0
 10
126.7366277276219
 20
129.3696693548387
 30
0.0
 10
126.98500146191
 20
130.0235317831361
 30
0.0
 10
127.3045715542552
 20
130.6273175651332
 30
0.0
 10
127.9268777874599
 20
131.4541563013018
 30
0.0
 10
128.1583020478907
 20
131.7165849392547
 30
0.0
 10
128.6795163875404
 20
132.2132475933597
 30
0.0
 10
128.9661368701754
 20
132.4438344723812
 30
0.0
 10
129.5856216114831
 20
132.8603886969638
 30
0.0
 10
129.91992199097
 20
133.0478864989314
 30
0.0
 10
130.6451824635948
 20
133.3792834765678
 30
0.0
 10
131.0270975209853
 20
133.518787464063
 30
0.0
 10
131.821885697157
 20
133.744240971534
 30
0.0
 10
132.2360438913634
 20
133.8308670830776
 30
0.0
 10
133.1015902319447
 20
133.9488478719317
 30
0.0
 10
133.5394778469565
 20
133.9783590172061
 30
0.0
 10
133.9822480733112
 20
133.9783590172061
 30
0.0
  0
SPLINE
  5
73
330
1F
100
AcDbEntity
  8
0
  6
Continuous
 62
     7
370
    15
100
AcDbSpline
210
0.0
220
0.0
230
1.0
 70
     8
 71
     3
 72
    70
 73
    66
 74
     0
 42
0.00000001
 43
0.00000001
 40
-0.0312500000000002
 40
-0.0312500000000002
 40
0.0
 40
0.0
 40
0.0312499999999995
 40
0.0312499999999995
 40
0.0624999999999991
 40
0.0624999999999991
 40
0.0937499999999988
 40
0.0937499999999988
 40
0.1249999999999985
 40
0.1249999999999985
 40
0.1562499999999982
 40
0.1562499999999982
 40
0.1874999999999979
 40
0.1874999999999979
 40
0.2187499999999976
 40
0.2187499999999976
 40
0.2499999999999973
 40
0.2499999999999973
 40
0.2812499999999973
 40
0.2812499999999973
 40
0.3124999999999972
 40
0.3124999999999972
 40
0.3437499999999971
 40
0.3437499999999971
 40
0.3749999999999971
 40
0.3749999999999971
 40
0.406249999999997
 40
0.406249999999997
 40
0.4374999999999969
 40
0.4374999999999969
 40
0.4687499999999968
 40
0.4687499999999968
 40
0.4999999999999968
 40
0.4999999999999968
 40
0.5312499999999969
 40
0.5312499999999969
 40
0.562499999999997
 40
0.562499999999997
 40
0.5937499999999971
 40
0.5937499999999971
 40
0.6249999999999971
 40
0.6249999999999971
 40
0.6562499999999972
 40
0.6562499999999972
 40
0.6874999999999973
 40
0.6874999999999973
 40
0.7187499999999974
 40
0.7187499999999974
 40
0.7499999999999976
 40
0.7499999999999976
 40
0.7812499999999979
 40
0.7812499999999979
 40
0.8124999999999982
 40
0.8124999999999982
 40
0.8437499999999986
 40
0.8437499999999986
 40
0.8749999999999988
 40
0.8749999999999988
 40
0.9062499999999991
 40
0.9062499999999991
 40
0.9374999999999994
 40
0.9374999999999994
 40
0.9687499999999998
 40
0.9687499999999998
 40
1.0
 40
1.0
 40
1.03125
 40
1.03125
 10
125.7866277276219
 20
123.5846587899143
 30
0.0
 10
125.7866277276219
 20
124.0560814033543
 30
0.0
 10
125.8126128030058
 20
124.2862949632704
 30
0.0
 10
125.9143777055899
 20
124.7363577513325
 30
0.0
 10
125.9914120913959
 20
124.9585186918236
 30
0.0
 10
126.192278378833
 20
125.3793029092961
 30
0.0
 10
126.3151574274244
 20
125.5775702069403
 30
0.0
 10
126.6054220894881
 20
125.9508570954068
 30
0.0
 10
126.77419566534
 20
126.1263681409219
 30
0.0
 10
127.1428336866264
 20
126.4396674912247
 30
0.0
 10
127.3440267345788
 20
126.5795997817674
 30
0.0
 10
127.781164259833
 20
126.8260565407589
 30
0.0
 10
128.0135789274564
 20
126.9301868787089
 30
0.0
 10
128.4947631495688
 20
127.0973088573931
 30
0.0
 10
128.7470981555267
 20
127.1615206241531
 30
0.0
 10
129.2635430212145
 20
127.2473055706861
 30
0.0
 10
129.5232482692668
 20
127.2685068772819
 30
0.0
 10
130.0455553264199
 20
127.2687489596871
 30
0.0
 10
130.3108616417339
 20
127.2470879178398
 30
0.0
 10
130.8240677318632
 20
127.161894428118
 30
0.0
 10
131.0735351701749
 20
127.0988182123556
 30
0.0
 10
131.5581377796668
 20
126.9309308068112
 30
0.0
 10
131.7920074384512
 20
126.8259347048635
 30
0.0
 10
132.2251497597065
 20
126.5820669275938
 30
0.0
 10
132.4273266754723
 20
126.4422085909041
 30
0.0
 10
132.8006014677819
 20
126.1251468919607
 30
0.0
 10
132.9659237619318
 20
125.9529038292411
 30
0.0
 10
133.2556387492671
 20
125.5811358272292
 30
0.0
 10
133.3810420148978
 20
125.3791825317446
 30
0.0
 10
133.5818574629097
 20
124.9584734916084
 30
0.0
 10
133.6576420200156
 20
124.7405717453121
 30
0.0
 10
133.7602517387479
 20
124.2892551900692
 30
0.0
 10
133.7865292716061
 20
124.0544059384906
 30
0.0
 10
133.7867256184275
 20
123.5890136735424
 30
0.0
 10
133.7614923722099
 20
123.3561018417495
 30
0.0
 10
133.6590918862927
 20
122.890001771439
 30
0.0
 10
133.5824035892335
 20
122.6608491517632
 30
0.0
 10
133.3831874789171
 20
122.2211792396674
 30
0.0
 10
133.2590808449126
 20
122.0072918190033
 30
0.0
 10
132.967204496911
 20
121.6038090968597
 30
0.0
 10
132.8019321927292
 20
121.4169361394821
 30
0.0
 10
132.4335490895455
 20
121.0729881160561
 30
0.0
 10
132.2280391829179
 20
120.9147560044237
 30
0.0
 10
131.7939348389857
 20
120.641966655207
 30
0.0
 10
131.5644495513584
 20
120.5259275852875
 30
0.0
 10
131.0802368739978
 20
120.3357470296878
 30
0.0
 10
130.8262435482258
 20
120.2625985086349
 30
0.0
 10
130.3148654120996
 20
120.1657122205861
 30
0.0
 10
130.0547353880325
 20
120.1408040731737
 30
0.0
 10
129.5257311741406
 20
120.1403514931361
 30
0.0
 10
129.2656434433535
 20
120.1647985011758
 30
0.0
 10
128.7539259206447
 20
120.2608406314906
 30
0.0
 10
128.4996148029116
 20
120.3336312924818
 30
0.0
 10
128.015236956946
 20
120.5229393083659
 30
0.0
 10
127.7854722001832
 20
120.6386076162222
 30
0.0
 10
127.35051014331
 20
120.91093593189
 30
0.0
 10
127.1448338811802
 20
121.0687906258373
 30
0.0
 10
126.7759910360542
 20
121.4120035421302
 30
0.0
 10
126.6103073183999
 20
121.5986526787092
 30
0.0
 10
126.3174059013998
 20
122.0021158761205
 30
0.0
 10
126.193195169474
 20
122.2153781354759
 30
0.0
 10
125.9931866175523
 20
122.6546254590445
 30
0.0
 10
125.916049067966
 20
122.8835664621137
 30
0.0
 10
125.8126160376952
 20
123.3501287741316
 30
0.0
 10
125.7866277276219
 20
123.5846587899143
 30
0.0
 10
125.7866277276219
 20
124.0560814033543
 30
0.0
  0
SPLINE
  5
74
330
1F
100
AcDbEntity
  8
0
  6
Continuous
 62
     7
370
    15
100
AcDbSpline
210
0.0
220
0.0
230
1.0
 70
     8
 71
     3
 72
    70
 73
    66
 74
     0
 42
0.00000001
 43
0.00000001
 40
-0.0312499999999998
 40
-0.0312499999999998
 40
0.0
 40
0.0
 40
0.0312500000000001
 40
0.0312500000000001
 40
0.0625000000000001
 40
0.0625000000000001
 40
0.0937500000000002
 40
0.0937500000000002
 40
0.1250000000000002
 40
0.1250000000000002
 40
0.1562500000000003
 40
0.1562500000000003
 40
0.1875000000000003
 40
0.1875000000000003
 40
0.2187500000000004
 40
0.2187500000000004
 40
0.2500000000000004
 40
0.2500000000000004
 40
0.2812500000000007
 40
0.2812500000000007
 40
0.312500000000001
 40
0.312500000000001
 40
0.3437500000000013
 40
0.3437500000000013
 40
0.3750000000000016
 40
0.3750000000000016
 40
0.4062500000000018
 40
0.4062500000000018
 40
0.4375000000000021
 40
0.4375000000000021
 40
0.4687500000000024
 40
0.4687500000000024
 40
0.5000000000000027
 40
0.5000000000000027
 40
0.5312500000000027
 40
0.5312500000000027
 40
0.5625000000000026
 40
0.5625000000000026
 40
0.5937500000000026
 40
0.5937500000000026
 40
0.6250000000000024
 40
0.6250000000000024
 40
0.6562500000000024
 40
0.6562500000000024
 40
0.6875000000000023
 40
0.6875000000000023
 40
0.7187500000000023
 40
0.7187500000000023
 40
0.7500000000000022
 40
0.7500000000000022
 40
0.781250000000002
 40
0.781250000000002
 40
0.8125000000000017
 40
0.8125000000000017
 40
0.8437500000000013
 40
0.8437500000000013
 40
0.8750000000000011
 40
0.8750000000000011
 40
0.9062500000000008
 40
0.9062500000000008
 40
0.9375000000000006
 40
0.9375000000000006
 40
0.9687500000000002
 40
0.9687500000000002
 40
1.0
 40
1.0
 40
1.03125
 40
1.03125
 10
125.7866277276219
 20
136.667197082029
 30
0.0
 10
125.7866277276219
 20
136.9317420660679
 30
0.0
 10
125.8126128030058
 20
137.0588941602228
 30
0.0
 10
125.9143777055899
 20
137.3037031559606
 30
0.0
 10
125.9914120913959
 20
137.4225651550337
 30
0.0
 10
126.192278378833
 20
137.6442749813792
 30
0.0
 10
126.3151574274244
 20
137.7469903203047
 30
0.0
 10
126.6054220894881
 20
137.9376823408825
 30
0.0
 10
126.77419566534
 20
138.0258720381935
 30
0.0
 10
127.1428336866263
 20
138.1813711542905
 30
0.0
 10
127.3440267345788
 20
138.2497838117546
 30
0.0
 10
127.781164259833
 20
138.3691144310997
 30
0.0
 10
128.0135789274564
 20
138.418874123282
 30
0.0
 10
128.4947631495688
 20
138.4982481003547
 30
0.0
 10
128.7470981555267
 20
138.5284437845946
 30
0.0
 10
129.2635430212145
 20
138.5686916724375
 30
0.0
 10
129.5232482692668
 20
138.5785759572203
 30
0.0
 10
130.0455553264199
 20
138.5786890600023
 30
0.0
 10
130.3108616417339
 20
138.5685894542711
 30
0.0
 10
130.8240677318632
 20
138.5286192642947
 30
0.0
 10
131.0735351701749
 20
138.4989621005234
 30
0.0
 10
131.5581377796668
 20
138.4192302735629
 30
0.0
 10
131.7920074384512
 20
138.3690512202498
 30
0.0
 10
132.2251497597065
 20
138.2509825456636
 30
0.0
 10
132.4273266754723
 20
138.1826293852629
 30
0.0
 10
132.8006014677819
 20
138.0252688731586
 30
0.0
 10
132.9659237619318
 20
137.9387134560902
 30
0.0
 10
133.2556387492671
 20
137.7488260358464
 30
0.0
 10
133.3810420148978
 20
137.6442120153949
 30
0.0
 10
133.5818574629097
 20
137.4225408784536
 30
0.0
 10
133.6576420200156
 20
137.3059745939087
 30
0.0
 10
133.7602517387479
 20
137.0605247702366
 30
0.0
 10
133.7865292716061
 20
136.9307942147593
 30
0.0
 10
133.7867256184275
 20
136.669648480456
 30
0.0
 10
133.7614923722099
 20
136.5369693184232
 30
0.0
 10
133.6590918862927
 20
136.267612065108
 30
0.0
 10
133.5824035892336
 20
136.1332406267614
 30
0.0
 10
133.3831874789171
 20
135.8722084968573
 30
0.0
 10
133.2590808449126
 20
135.7435458595635
 30
0.0
 10
132.967204496911
 20
135.4982381382254
 30
0.0
 10
132.8019321927292
 20
135.3832815304959
 30
0.0
 10
132.4335490895455
 20
135.169950350811
 30
0.0
 10
132.2280391829179
 20
135.0708321632749
 30
0.0
 10
131.7939348389857
 20
134.8989099010039
 30
0.0
 10
131.5644495513584
 20
134.8251984122161
 30
0.0
 10
131.0802368739978
 20
134.7039459408895
 30
0.0
 10
130.8262435482258
 20
134.6570376102055
 30
0.0
 10
130.3148654120996
 20
134.5948283768307
 30
0.0
 10
130.0547353880325
 20
134.5787793851783
 30
0.0
 10
129.5257311741406
 20
134.5784880993843
 30
0.0
 10
129.2656434433535
 20
134.5942403400308
 30
0.0
 10
128.7539259206447
 20
134.6559102178284
 30
0.0
 10
128.4996148029116
 20
134.7025918936685
 30
0.0
 10
128.015236956946
 20
134.8232981821258
 30
0.0
 10
127.7854722001832
 20
134.8967823965672
 30
0.0
 10
127.35051014331
 20
135.0684348440909
 30
0.0
 10
127.1448338811802
 20
135.1673297243884
 30
0.0
 10
126.7759910360542
 20
135.3802388380072
 30
0.0
 10
126.6103073183999
 20
135.4950797876913
 30
0.0
 10
126.3174059013998
 20
135.7404217938511
 30
0.0
 10
126.193195169474
 20
135.8687338735326
 30
0.0
 10
125.9931866175523
 20
136.129575301439
 30
0.0
 10
125.916049067966
 20
136.2638585735213
 30
0.0
 10
125.8126160376952
 20
136.5335511546619
 30
0.0
 10
125.7866277276219
 20
136.667197082029
 30
0.0
 10
125.7866277276219
 20
136.9317420660679
 30
0.0
  0
LINE
  5
75
330
1F
100
AcDbEntity
  8
0
  6
Continuous
 62
     7
370
    15
100
AcDbLine
 10
147.1366284369
 20
79.332751722
 30
0.0
 11
143.1785596489
 21
79.332751722
 31
0.0
  0
LINE
  5
76
330
1F
100
AcDbEntity
  8
0
  6
Continuous
 62
     7
370
    15
100
AcDbLine
 10
143.1785596489
 20
79.332751722
 30
0.0
 11
143.1785596489
 21
129.3696700939
 31
0.0
  0
LINE
  5
77
330
1F
100
AcDbEntity
  8
0
  6
Continuous
 62
     7
370
    15
100
AcDbLine
 10
143.1785596489
 20
129.3696700939
 30
0.0
 11
147.1366284369
 21
129.3696700939
 31
0.0
  0
LINE
  5
78
330
1F
100
AcDbEntity
  8
0
  6
Continuous
 62
     7
370
    15
100
AcDbLine
 10
147.7366274177
 20
79.9593921164
 30
0.0
 11
147.7366274177
 21
129.3696700939
 31
0.0
  0
SPLINE
  5
79
330
1F
100
AcDbEntity
  8
0
  6
Continuous
 62
     7
370
    15
100
AcDbSpline
210
0.0
220
0.0
230
1.0
 70
     8
 71
     3
 72
    10
 73
     6
 74
     0
 42
0.00000001
 43
0.00000001
 40
0.0
 40
0.0
 40
0.0
 40
0.0
 40
0.5
 40
0.5
 40
1.0
 40
1.0
 40
1.0
 40
1.0
 10
147.7366277276219
 20
79.9593919542458
 30
0.0
 10
147.7366277276219
 20
79.79950468605215
 30
0.0
 10
147.675318076386
 20
79.63837743053753
 30
0.0
 10
147.456218438851
 20
79.4042784321827
 30
0.0
 10
147.2981702325375
 20
79.33275165859148
 30
0.0
 10
147.1366277276219
 20
79.33275165859148
 30
0.0
  0
SPLINE
  5
7A
330
1F
100
AcDbEntity
  8
0
  6
Continuous
 62
     7
370
    15
100
AcDbSpline
210
0.0
220
0.0
230
1.0
 70
    24
 71
     3
 72
    12
 73
     8
 74
     0
 42
0.00000001
 43
0.00000001
 40
0.0
 40
0.0
 40
0.0
 40
0.0
 40
0.250000000000002
 40
0.250000000000002
 40
0.500000000000004
 40
0.500000000000004
 40
1.0
 40
1.0
 40
1.0
 40
1.0
 10
147.1366277276219
 20
129.3696693548387
 30
0.0
 10
147.226866795309
 20
129.3696693548387
 30
0.0
 10
147.3177649094154
 20
129.3696693548387
 30
0.0
 10
147.472361945904
 20
129.3696693548387
 30
0.0
 10
147.5373403620121
 20
129.3696693548387
 30
0.0
 10
147.6891753899483
 20
129.3696693548387
 30
0.0
 10
147.7366277276219
 20
129.3696693548387
 30
0.0
 10
147.7366277276219
 20
129.3696693548387
 30
0.0
  0
LINE
  5
7B
330
1F
100
AcDbEntity
  8
0
  6
Continuous
 62
     7
370
    15
100
AcDbLine
 10
137.8766277759
 20
82.0218320349
 30
0.0
 11
137.8766277759
 21
129.3696700939
 31
0.0
  0
SPLINE
  5
7C
330
1F
100
AcDbEntity
  8
0
  6
Continuous
 62
     7
370
    15
100
AcDbSpline
210
0.0
220
0.0
230
1.0
 70
     8
 71
     3
 72
     8
 73
     4
 74
     0
 42
0.00000001
 43
0.00000001
 40
0.0
 40
0.0
 40
0.0
 40
0.0
 40
1.0
 40
1.0
 40
1.0
 40
1.0
 10
137.8766277276219
 20
82.02183219578379
 30
0.0
 10
137.3842886048407
 20
81.12456216157709
 30
0.0
 10
136.8901745567986
 20
80.22827774652482
 30
0.0
 10
136.3946948961328
 20
79.33275165859148
 30
0.0
  0
SPLINE
  5
7D
330
1F
100
AcDbEntity
  8
0
  6
Continuous
 62
     7
370
    15
100
AcDbSpline
210
0.0
220
0.0
230
1.0
 70
    24
 71
     3
 72
     8
 73
     4
 74
     0
 42
0.00000001
 43
0.00000001
 40
0.0
 40
0.0
 40
0.0
 40
0.0
 40
1.0
 40
1.0
 40
1.0
 40
1.0
 10
136.3946948961328
 20
129.3696693548387
 30
0.0
 10
136.9013750042834
 20
129.3696693548387
 30
0.0
 10
137.396675733257
 20
129.3696693548387
 30
0.0
 10
137.8766277276219
 20
129.3696693548387
 30
0.0
  0
SPLINE
  5
7E
330
1F
100
AcDbEntity
  8
0
  6
Continuous
 62
     7
370
    15
100
AcDbSpline
210
0.0
220
0.0
230
1.0
 70
     8
 71
     3
 72
     8
 73
     4
 74
     0
 42
0.00000001
 43
0.00000001
 40
0.0
 40
0.0
 40
0.0
 40
0.0
 40
1.0
 40
1.0
 40
1.0
 40
1.0
 10
143.178560559111
 20
79.33275165859148
 30
0.0
 10
142.6830808984452
 20
80.22827774652484
 30
0.0
 10
142.1889668504031
 20
81.1245621615771
 30
0.0
 10
141.6966277276219
 20
82.0218321957838
 30
0.0
  0
LINE
  5
7F
330
1F
100
AcDbEntity
  8
0
  6
Continuous
 62
     7
370
    15
100
AcDbLine
 10
141.6966279923
 20
82.0218320349
 30
0.0
 11
141.6966279923
 21
129.3696700939
 31
0.0
  0
SPLINE
  5
80
330
1F
100
AcDbEntity
  8
0
  6
Continuous
 62
     7
370
    15
100
AcDbSpline
210
0.0
220
0.0
230
1.0
 70
    24
 71
     3
 72
     8
 73
     4
 74
     0
 42
0.00000001
 43
0.00000001
 40
0.0
 40
0.0
 40
0.0
 40
0.0
 40
1.0
 40
1.0
 40
1.0
 40
1.0
 10
141.6966277276219
 20
129.3696693548387
 30
0.0
 10
142.1765797219868
 20
129.3696693548387
 30
0.0
 10
142.6718804509604
 20
129.3696693548387
 30
0.0
 10
143.178560559111
 20
129.3696693548387
 30
0.0
  0
LINE
  5
81
330
1F
100
AcDbEntity
  8
0
  6
Continuous
 62
     7
370
    15
100
AcDbLine
 10
121.7866277276
 20
78.3196702012
 30
0.0
 11
121.7866277276
 21
140.7196685085
 31
0.0
  0
ARC
  5
82
330
1F
100
AcDbEntity
  8
0
  6
Continuous
 62
     7
370
    15
100
AcDbCircle
 10
129.9632576671
 20
121.5926064852
 30
0.0
 40
3.889042400290517
100
AcDbArc
 50
17.7618822233
 51
92.6031114248
  0
ARC
  5
83
330
1F
100
AcDbEntity
  8
0
  6
Continuous
 62
     7
370
    15
100
AcDbCircle
 10
129.6574260437
 20
121.5247635722
 30
0.0
 40
3.954983190349207
100
AcDbArc
 50
88.1279186396
 51
161.5829606158
  0
SPLINE
  5
84
330
1F
100
AcDbEntity
  8
0
  6
Continuous
 62
     7
370
    15
100
AcDbSpline
210
0.0
220
0.0
230
1.0
 70
     8
 71
     3
 72
    10
 73
     6
 74
     0
 42
0.00000001
 43
0.00000001
 40
0.0
 40
0.0
 40
0.0
 40
0.0
 40
0.5
 40
0.5
 40
1.0
 40
1.0
 40
1.0
 40
1.0
 10
138.2709252593128
 20
135.9196693548386
 30
0.0
 10
138.1493849956443
 20
135.9943955220504
 30
0.0
 10
138.0480506352954
 20
136.1033405379672
 30
0.0
 10
137.912411692407
 20
136.3537710187288
 30
0.0
 10
137.8766277276219
 20
136.4961903808277
 30
0.0
 10
137.8766277276219
 20
136.6393232058744
 30
0.0
  0
SPLINE
  5
85
330
1F
100
AcDbEntity
  8
0
  6
Continuous
 62
     7
370
    15
100
AcDbSpline
210
0.0
220
0.0
230
1.0
 70
    24
 71
     3
 72
    12
 73
     8
 74
     0
 42
0.00000001
 43
0.00000001
 40
0.0
 40
0.0
 40
0.0
 40
0.0
 40
0.2499999999999992
 40
0.2499999999999992
 40
0.4999999999999983
 40
0.4999999999999983
 40
1.0
 40
1.0
 40
1.0
 40
1.0
 10
138.6766277276219
 20
135.9196693548386
 30
0.0
 10
138.6267510453046
 20
135.9196693548386
 30
0.0
 10
138.5787478519008
 20
135.9196693548386
 30
0.0
 10
138.4956997491889
 20
135.9196693548386
 30
0.0
 10
138.459570169721
 20
135.9196693548386
 30
0.0
 10
138.3636581387769
 20
135.9196693548386
 30
0.0
 10
138.313899470808
 20
135.9196693548386
 30
0.0
 10
138.2709252593128
 20
135.9196693548386
 30
0.0
  0
SPLINE
  5
86
330
1F
100
AcDbEntity
  8
0
  6
Continuous
 62
     7
370
    15
100
AcDbSpline
210
0.0
220
0.0
230
1.0
 70
    24
 71
     3
 72
    14
 73
    10
 74
     0
 42
0.00000001
 43
0.00000001
 40
0.0
 40
0.0
 40
0.0
 40
0.0
 40
0.1250000000000012
 40
0.1250000000000012
 40
0.2500000000000024
 40
0.2500000000000024
 40
0.5000000000000013
 40
0.5000000000000013
 40
1.0
 40
1.0
 40
1.0
 40
1.0
 10
138.6766277276219
 20
83.11966935483863
 30
0.0
 10
138.6081898797354
 20
83.11966935483863
 30
0.0
 10
138.5426398409704
 20
83.11966935483863
 30
0.0
 10
138.4382132015624
 20
83.11966935483865
 30
0.0
 10
138.395668591801
 20
83.11966935483863
 30
0.0
 10
138.2830591312608
 20
83.11966935483863
 30
0.0
 10
138.2275200842413
 20
83.11966935483863
 30
0.0
 10
138.0849083887775
 20
83.11966935483863
 30
0.0
 10
138.0215030337817
 20
83.11966935483863
 30
0.0
 10
137.9743025299542
 20
83.11966935483863
 30
0.0
  0
SPLINE
  5
87
330
1F
100
AcDbEntity
  8
0
  6
Continuous
 62
     7
370
    15
100
AcDbSpline
210
0.0
220
0.0
230
1.0
 70
     8
 71
     3
 72
    10
 73
     6
 74
     0
 42
0.00000001
 43
0.00000001
 40
0.0
 40
0.0
 40
0.0
 40
0.0
 40
0.5
 40
0.5
 40
1.0
 40
1.0
 40
1.0
 40
1.0
 10
137.8766277276219
 20
129.6555359863
 30
0.0
 10
137.8766277276219
 20
129.6077644783067
 30
0.0
 10
137.8787889712191
 20
129.5600547562451
 30
0.0
 10
137.8874603450792
 20
129.4647596386968
 30
0.0
 10
137.8939895280352
 20
129.4170670747301
 30
0.0
 10
137.902775350782
 20
129.3696693548387
 30
0.0
  0
SPLINE
  5
88
330
1F
100
AcDbEntity
  8
0
  6
Continuous
 62
     7
370
    15
100
AcDbSpline
210
0.0
220
0.0
230
1.0
 70
    24
 71
     3
 72
    14
 73
    10
 74
     0
 42
0.00000001
 43
0.00000001
 40
0.0
 40
0.0
 40
0.0
 40
0.0
 40
0.4999999999999984
 40
0.4999999999999984
 40
0.7499999999999992
 40
0.7499999999999992
 40
0.8749999999999996
 40
0.8749999999999996
 40
1.0
 40
1.0
 40
1.0
 40
1.0
 10
141.5989529252896
 20
83.11966935483863
 30
0.0
 10
141.5521682202414
 20
83.11966935483865
 30
0.0
 10
141.4901170234617
 20
83.11966935483865
 30
0.0
 10
141.3467253849112
 20
83.11966935483863
 30
0.0
 10
141.29058173136
 20
83.11966935483863
 30
0.0
 10
141.1776307092238
 20
83.11966935483865
 30
0.0
 10
141.1346299471857
 20
83.11966935483865
 30
0.0
 10
141.0305672368792
 20
83.11966935483863
 30
0.0
 10
140.9652349985223
 20
83.11966935483866
 30
0.0
 10
140.8966277276219
 20
83.11966935483863
 30
0.0
  0
SPLINE
  5
89
330
1F
100
AcDbEntity
  8
0
  6
Continuous
 62
     7
370
    15
100
AcDbSpline
210
0.0
220
0.0
230
1.0
 70
    24
 71
     3
 72
    12
 73
     8
 74
     0
 42
0.00000001
 43
0.00000001
 40
0.0
 40
0.0
 40
0.0
 40
0.0
 40
0.5000000000000017
 40
0.5000000000000017
 40
0.7500000000000008
 40
0.7500000000000008
 40
1.0
 40
1.0
 40
1.0
 40
1.0
 10
141.3023301959309
 20
135.9196693548386
 30
0.0
 10
141.25924464632
 20
135.9196693548386
 30
0.0
 10
141.2100924445707
 20
135.9196693548386
 30
0.0
 10
141.1136198502828
 20
135.9196693548386
 30
0.0
 10
141.0775182651482
 20
135.9196693548386
 30
0.0
 10
140.9944125072869
 20
135.9196693548386
 30
0.0
 10
140.9464159103206
 20
135.9196693548386
 30
0.0
 10
140.8966277276219
 20
135.9196693548386
 30
0.0
  0
SPLINE
  5
8A
330
1F
100
AcDbEntity
  8
0
  6
Continuous
 62
     7
370
    15
100
AcDbSpline
210
0.0
220
0.0
230
1.0
 70
     8
 71
     3
 72
    10
 73
     6
 74
     0
 42
0.00000001
 43
0.00000001
 40
0.0
 40
0.0
 40
0.0
 40
0.0
 40
0.5
 40
0.5
 40
1.0
 40
1.0
 40
1.0
 40
1.0
 10
141.6966277276219
 20
136.6393232058744
 30
0.0
 10
141.6966277276219
 20
136.4955531480564
 30
0.0
 10
141.660578668903
 20
136.3531337855613
 30
0.0
 10
141.525069808129
 20
136.103239492204
 30
0.0
 10
141.4251938150328
 20
135.9952091559558
 30
0.0
 10
141.3023301959309
 20
135.9196693548386
 30
0.0
  0
SPLINE
  5
8B
330
1F
100
AcDbEntity
  8
0
  6
Continuous
 62
     7
370
    15
100
AcDbSpline
210
0.0
220
0.0
230
1.0
 70
     8
 71
     3
 72
    10
 73
     6
 74
     0
 42
0.00000001
 43
0.00000001
 40
0.0
 40
0.0
 40
0.0
 40
0.0
 40
0.5
 40
0.5
 40
1.0
 40
1.0
 40
1.0
 40
1.0
 10
141.6704801044618
 20
129.3696693548387
 30
0.0
 10
141.6791697473734
 20
129.4165482041568
 30
0.0
 10
141.6857088121239
 20
129.4639706695581
 30
0.0
 10
141.694467446517
 20
129.5599074681448
 30
0.0
 10
141.6966277276219
 20
129.6078227561553
 30
0.0
 10
141.6966277276219
 20
129.6555359862998
 30
0.0
  0
LINE
  5
8C
330
1F
100
AcDbEntity
  8
0
  6
Continuous
 62
     7
370
    15
100
AcDbLine
 10
140.8966274886
 20
135.9196692118
 30
0.0
 11
138.6766282796
 21
135.9196692118
 31
0.0
  0
LINE
  5
8D
330
1F
100
AcDbEntity
  8
0
  6
Continuous
 62
     7
370
    15
100
AcDbLine
 10
140.8966274886
 20
83.1196694979
 30
0.0
 11
138.6766282796
 21
83.1196694979
 31
0.0
  0
LINE
  5
8E
330
1F
100
AcDbEntity
  8
0
  6
Continuous
 62
     7
370
    15
100
AcDbLine
 10
99.9866275071
 20
86.2912233332
 30
0.0
 11
99.9866275071
 21
87.5559314498
 31
0.0
  0
SPLINE
  5
8F
330
1F
100
AcDbEntity
  8
0
  6
Continuous
 62
     7
370
    15
100
AcDbSpline
210
0.0
220
0.0
230
1.0
 70
     8
 71
     3
 72
    14
 73
    10
 74
     0
 42
0.00000001
 43
0.00000001
 40
0.0
 40
0.0
 40
0.0
 40
0.0
 40
0.25
 40
0.25
 40
0.5
 40
0.5
 40
0.75
 40
0.75
 40
1.0
 40
1.0
 40
1.0
 40
1.0
 10
99.20834060970618
 20
88.6865180312787
 30
0.0
 10
99.26496728490827
 20
88.57882057744183
 30
0.0
 10
99.35948994519798
 20
88.47603099572251
 30
0.0
 10
99.54253492076022
 20
88.27767368350237
 30
0.0
 10
99.63416149771496
 20
88.18161417482412
 30
0.0
 10
99.79301481540814
 20
87.99408513211488
 30
0.0
 10
99.86090542302983
 20
87.9026761593313
 30
0.0
 10
99.95782244873742
 20
87.72429993842117
 30
0.0
 10
99.98662772762249
 20
87.637078032175
 30
0.0
 10
99.98662772762248
 20
87.55593182364075
 30
0.0
  0
SPLINE
  5
90
330
1F
100
AcDbEntity
  8
0
  6
Continuous
 62
     7
370
    15
100
AcDbSpline
210
0.0
220
0.0
230
1.0
 70
     8
 71
     3
 72
    14
 73
    10
 74
     0
 42
0.00000001
 43
0.00000001
 40
0.0
 40
0.0
 40
0.0
 40
0.0
 40
0.125
 40
0.125
 40
0.25
 40
0.25
 40
0.5
 40
0.5
 40
1.0
 40
1.0
 40
1.0
 40
1.0
 10
98.5866277276219
 20
89.13319989355801
 30
0.0
 10
98.63517213627907
 20
89.13894820683831
 30
0.0
 10
98.68808749106398
 20
89.13584731818207
 30
0.0
 10
98.78338283604701
 20
89.11365247401974
 30
0.0
 10
98.82363383333197
 20
89.09642024692388
 30
0.0
 10
98.92790384684493
 20
89.04009233047182
 30
0.0
 10
98.97822582199827
 20
88.99590598452602
 30
0.0
 10
99.10590876952364
 20
88.86489808567539
 30
0.0
 10
99.16199421658591
 20
88.77466356544511
 30
0.0
 10
99.20834060970765
 20
88.68651803127922
 30
0.0
  0
SPLINE
  5
91
330
1F
100
AcDbEntity
  8
0
  6
Continuous
 62
     7
370
    15
100
AcDbSpline
210
0.0
220
0.0
230
1.0
 70
     8
 71
     3
 72
     8
 73
     4
 74
     0
 42
0.00000001
 43
0.00000001
 40
0.0
 40
0.0
 40
0.0
 40
0.0
 40
1.0
 40
1.0
 40
1.0
 40
1.0
 10
96.31810263467564
 20
88.82335460697522
 30
0.0
 10
97.0526796611586
 20
88.94197961804417
 30
0.0
 10
97.81615473055427
 20
89.04196549018047
 30
0.0
 10
98.5866277276219
 20
89.13319989355801
 30
0.0
  0
SPLINE
  5
92
330
1F
100
AcDbEntity
  8
0
  6
Continuous
 62
     7
370
    15
100
AcDbSpline
210
0.0
220
0.0
230
1.0
 70
     8
 71
     3
 72
    14
 73
    10
 74
     0
 42
0.00000001
 43
0.00000001
 40
0.0
 40
0.0
 40
0.0
 40
0.0
 40
0.5000000000000002
 40
0.5000000000000002
 40
0.7500000000000002
 40
0.7500000000000002
 40
0.8750000000000001
 40
0.8750000000000001
 40
1.0
 40
1.0
 40
1.0
 40
1.0
 10
91.0366277276219
 20
88.64973158944358
 30
0.0
 10
91.92877385817546
 20
88.64900936324293
 30
0.0
 10
92.81875029396905
 20
88.65359556970039
 30
0.0
 10
94.14534546104464
 20
88.68132057409193
 30
0.0
 10
94.58619238954337
 20
88.69392711171609
 30
0.0
 10
95.24263262696579
 20
88.72494325972353
 30
0.0
 10
95.46064628355768
 20
88.73728643235032
 30
0.0
 10
95.89335513724043
 20
88.77031048751357
 30
0.0
 10
96.10863160240524
 20
88.78952765265204
 30
0.0
 10
96.31810263467564
 20
88.82335460697522
 30
0.0
  0
SPLINE
  5
93
330
1F
100
AcDbEntity
  8
0
  6
Continuous
 62
     7
370
    15
100
AcDbSpline
210
0.0
220
0.0
230
1.0
 70
     8
 71
     3
 72
     8
 73
     4
 74
     0
 42
0.00000001
 43
0.00000001
 40
0.0000005163856998
 40
0.0000005163856998
 40
0.0000005163856998
 40
0.0000005163856998
 40
0.000026289209185
 40
0.000026289209185
 40
0.000026289209185
 40
0.000026289209185
 10
91.02658279721429
 20
88.65971546254035
 30
0.0
 10
91.02991053542212
 20
88.65638121567123
 30
0.0
 10
91.03325898839772
 20
88.65305325839593
 30
0.0
 10
91.03662772762188
 20
88.64973158944356
 30
0.0
  0
SPLINE
  5
94
330
1F
100
AcDbEntity
  8
0
  6
Continuous
 62
     7
370
    15
100
AcDbSpline
210
0.0
220
0.0
230
1.0
 70
     8
 71
     3
 72
     8
 73
     4
 74
     0
 42
0.00000001
 43
0.00000001
 40
0.0000005099763573
 40
0.0000005099763573
 40
0.0000005099763573
 40
0.0000005099763573
 40
0.0000262827998699
 40
0.0000262827998699
 40
0.0000262827998699
 40
0.0000262827998699
 10
91.03662772762189
 20
130.3896071202337
 30
0.0
 10
91.03325898839414
 20
130.3862854512778
 30
0.0
 10
91.029910535415
 20
130.382957493999
 30
0.0
 10
91.02658279720366
 20
130.3796232471263
 30
0.0
  0
SPLINE
  5
95
330
1F
100
AcDbEntity
  8
0
  6
Continuous
 62
     7
370
    15
100
AcDbSpline
210
0.0
220
0.0
230
1.0
 70
     8
 71
     3
 72
    10
 73
     6
 74
     0
 42
0.00000001
 43
0.00000001
 40
0.0
 40
0.0
 40
0.0
 40
0.0
 40
0.5
 40
0.5
 40
1.0
 40
1.0
 40
1.0
 40
1.0
 10
94.58662772762192
 20
130.3427567466664
 30
0.0
 10
93.99904218053132
 20
130.3638222669028
 30
0.0
 10
93.40829578707093
 20
130.374580752775
 30
0.0
 10
92.22427662177208
 20
130.3879455333107
 30
0.0
 10
91.63086263356661
 20
130.3900881759753
 30
0.0
 10
91.0366277276219
 20
130.3896071202337
 30
0.0
  0
SPLINE
  5
96
330
1F
100
AcDbEntity
  8
0
  6
Continuous
 62
     7
370
    15
100
AcDbSpline
210
0.0
220
0.0
230
1.0
 70
     8
 71
     3
 72
    18
 73
    14
 74
     0
 42
0.00000001
 43
0.00000001
 40
0.0
 40
0.0
 40
0.0
 40
0.0
 40
0.2500000000000008
 40
0.2500000000000008
 40
0.5000000000000009
 40
0.5000000000000009
 40
0.7500000000000009
 40
0.7500000000000009
 40
0.875000000000001
 40
0.875000000000001
 40
0.9375000000000006
 40
0.9375000000000006
 40
1.0
 40
1.0
 40
1.0
 40
1.0
 10
95.98662772762191
 20
131.3637770272016
 30
0.0
 10
95.98662772762192
 20
131.2805701183444
 30
0.0
 10
95.95077862768366
 20
131.1918334630309
 30
0.0
 10
95.82590689164972
 20
131.0097082724706
 30
0.0
 10
95.73550647400187
 20
130.914578223844
 30
0.0
 10
95.51326381925968
 20
130.7253967147197
 30
0.0
 10
95.3834990328139
 20
130.630451546625
 30
0.0
 10
95.14286157550241
 20
130.492172839045
 30
0.0
 10
95.05509427736497
 20
130.4464624057426
 30
0.0
 10
94.90057019015813
 20
130.3886391005212
 30
0.0
 10
94.8439593041034
 20
130.3709243364833
 30
0.0
 10
94.71991527319679
 20
130.3463850332504
 30
0.0
 10
94.6522005981785
 20
130.3404058947121
 30
0.0
 10
94.5866277276219
 20
130.3427567466664
 30
0.0
  0
LINE
  5
97
330
1F
100
AcDbEntity
  8
0
  6
Continuous
 62
     7
370
    15
100
AcDbLine
 10
95.9866268514
 20
131.3637770125
 30
0.0
 11
95.9866268514
 21
132.5477152476
 31
0.0
  0
LINE
  5
98
330
1F
100
AcDbEntity
  8
0
  6
Continuous
 62
     7
370
    15
100
AcDbLine
 10
119.7866276326
 20
85.2992381313
 30
0.0
 11
119.7866276326
 21
133.7401005784
 31
0.0
  0
SPLINE
  5
99
330
1F
100
AcDbEntity
  8
0
  6
Continuous
 62
     7
370
    15
100
AcDbSpline
210
0.0
220
0.0
230
1.0
 70
     8
 71
     3
 72
    24
 73
    20
 74
     0
 42
0.00000001
 43
0.00000001
 40
0.0
 40
0.0
 40
0.0
 40
0.0
 40
0.0010489815523775
 40
0.0637843212772741
 40
0.1272220630088516
 40
0.1903789073370505
 40
0.2526748662763491
 40
0.3146354150030102
 40
0.3770891884518245
 40
0.4393540587943444
 40
0.5008133488401828
 40
0.5621845177353679
 40
0.6248438462901906
 40
0.6874304788646655
 40
0.7496743245911356
 40
0.811984857412469
 40
0.8750960476811308
 40
0.9384412548145236
 40
1.0
 40
1.0
 40
1.0
 40
1.0
 10
108.5555337323488
 20
85.86216116039208
 30
0.0
 10
108.5550870665981
 20
85.8621025154256
 30
0.0
 10
108.5279271306745
 20
85.8585365524449
 30
0.0
 10
108.6235570538063
 20
85.87140116192012
 30
0.0
 10
108.8571102298268
 20
85.90063564426018
 30
0.0
 10
109.2526661820612
 20
85.9472548550016
 30
0.0
 10
109.7797061824312
 20
85.99743565442677
 30
0.0
 10
110.4232366242675
 20
86.04181432786982
 30
0.0
 10
111.1619104585372
 20
86.0687575243806
 30
0.0
 10
111.9594251286561
 20
86.07222927268273
 30
0.0
 10
112.7860041784206
 20
86.04460382638932
 30
0.0
 10
113.6115269998393
 20
85.98612268341067
 30
0.0
 10
114.4036534707549
 20
85.90067962001208
 30
0.0
 10
115.1362258495923
 20
85.79894445151957
 30
0.0
 10
115.771866031413
 20
85.69110080047166
 30
0.0
 10
116.2937769619593
 20
85.58946940519682
 30
0.0
 10
116.6754057995982
 20
85.50698744090433
 30
0.0
 10
116.9262204755315
 20
85.45083533339741
 30
0.0
 10
116.9553417912388
 20
85.44398648248453
 30
0.0
 10
116.9696941925825
 20
85.44061103550843
 30
0.0
  0
SPLINE
  5
9A
330
1F
100
AcDbEntity
  8
0
  6
Continuous
 62
     7
370
    15
100
AcDbSpline
210
0.0
220
0.0
230
1.0
 70
     8
 71
     3
 72
    24
 73
    20
 74
     0
 42
0.00000001
 43
0.00000001
 40
0.0
 40
0.0
 40
0.0
 40
0.0
 40
0.061438429114026
 40
0.1250736777967296
 40
0.1884253375120635
 40
0.2508623992448768
 40
0.3129665476325514
 40
0.3753451442328022
 40
0.4377328732174486
 40
0.499092717251918
 40
0.560580729454827
 40
0.622946985474185
 40
0.6854686070210457
 40
0.7475477863222202
 40
0.8098225081553685
 40
0.873068419947611
 40
0.936404185690527
 40
0.9991757203144552
 40
1.0
 40
1.0
 40
1.0
 40
1.0
 10
116.9696397102119
 20
133.5986978718465
 30
0.0
 10
116.9550389017597
 20
133.5953297139735
 30
0.0
 10
116.9253152119087
 20
133.5884729648891
 30
0.0
 10
116.6725772119227
 20
133.532135144993
 30
0.0
 10
116.2895819129016
 20
133.4492773321078
 30
0.0
 10
115.7672259560186
 20
133.3473705838867
 30
0.0
 10
115.132441611317
 20
133.2395320139977
 30
0.0
 10
114.4022178747028
 20
133.1380657607687
 30
0.0
 10
113.6117497797917
 20
133.0530036822015
 30
0.0
 10
112.787266052334
 20
132.9948023252449
 30
0.0
 10
111.9602296718539
 20
132.9672178775603
 30
0.0
 10
111.1619052128635
 20
132.9707118060945
 30
0.0
 10
110.4220814618639
 20
132.9976654647681
 30
0.0
 10
109.7778265904043
 20
133.0420209653815
 30
0.0
 10
109.2504197333067
 20
133.0922261491043
 30
0.0
 10
108.8557544929936
 20
133.1388336091495
 30
0.0
 10
108.6232258074054
 20
133.1680367859879
 30
0.0
 10
108.5278465787391
 20
133.1807949247051
 30
0.0
 10
108.554779523066
 20
133.1772550947863
 30
0.0
 10
108.5551286070288
 20
133.1772092142527
 30
0.0
  0
SPLINE
  5
9B
330
1F
100
AcDbEntity
  8
0
  6
Continuous
 62
     7
370
    15
100
AcDbSpline
210
0.0
220
0.0
230
1.0
 70
     8
 71
     3
 72
    10
 73
     6
 74
     0
 42
0.00000001
 43
0.00000001
 40
0.0
 40
0.0
 40
0.0
 40
0.0
 40
0.0840381292075977
 40
0.7011132487654212
 40
1.0
 40
1.0
 40
1.0
 40
1.0
 10
89.90017305600058
 20
89.79089514998844
 30
0.0
 10
89.90084801020446
 20
89.78868985225185
 30
0.0
 10
89.90647901769003
 20
89.77029149575364
 30
0.0
 10
89.93280023622104
 20
89.78452355840268
 30
0.0
 10
89.9452338171892
 20
89.83020912974487
 30
0.0
 10
89.9492910085858
 20
89.84511675028256
 30
0.0
  0
LINE
  5
9C
330
1F
100
AcDbEntity
  8
0
  6
Continuous
 62
     7
370
    15
100
AcDbLine
 10
89.8866279005
 20
89.8289918312
 30
0.0
 11
89.8866279005
 21
129.2103468785
 31
0.0
  0
SPLINE
  5
9D
330
1F
100
AcDbEntity
  8
0
  6
Continuous
 62
     7
370
    15
100
AcDbSpline
210
0.0
220
0.0
230
1.0
 70
     8
 71
     3
 72
    10
 73
     6
 74
     0
 42
0.00000001
 43
0.00000001
 40
0.0
 40
0.0
 40
0.0
 40
0.0
 40
0.5
 40
0.5
 40
1.0
 40
1.0
 40
1.0
 40
1.0
 10
89.94929110234531
 20
129.1942218996194
 30
0.0
 10
89.94038681323656
 20
129.2399634188326
 30
0.0
 10
89.92387143304357
 20
129.2571542583016
 30
0.0
 10
89.89676348698197
 20
129.2568309813659
 30
0.0
 10
89.8866277276219
 20
129.2389534390694
 30
0.0
 10
89.8866277276219
 20
129.2103471013168
 30
0.0
  0
SPLINE
  5
9E
330
1F
100
AcDbEntity
  8
0
  6
Continuous
 62
     7
370
    15
100
AcDbSpline
210
0.0
220
0.0
230
1.0
 70
     8
 71
     3
 72
    26
 73
    22
 74
     0
 42
0.00000001
 43
0.00000001
 40
0.0
 40
0.0
 40
0.0
 40
0.0
 40
0.2500000000000165
 40
0.2500000000000165
 40
0.3750000000000256
 40
0.3750000000000256
 40
0.4375000000000291
 40
0.4375000000000291
 40
0.4687500000000291
 40
0.4687500000000291
 40
0.5000000000000292
 40
0.5000000000000292
 40
0.5312500000000293
 40
0.5312500000000293
 40
0.5625000000000293
 40
0.5625000000000293
 40
0.625000000000026
 40
0.625000000000026
 40
0.7500000000000173
 40
0.7500000000000173
 40
1.0
 40
1.0
 40
1.0
 40
1.0
 10
90.71078137372642
 20
129.9097886884365
 30
0.0
 10
90.67218085085794
 20
129.7920139920811
 30
0.0
 10
90.62588384830369
 20
129.6676243059191
 30
0.0
 10
90.53194449986977
 20
129.4624049735656
 30
0.0
 10
90.4966330329563
 20
129.3908321071192
 30
0.0
 10
90.43045305721061
 20
129.2748788745187
 30
0.0
 10
90.4059146905424
 20
129.2342943397085
 30
0.0
 10
90.3625419449886
 20
129.1701526578368
 30
0.0
 10
90.34703354356341
 20
129.1482862325517
 30
0.0
 10
90.31199089897638
 20
129.1026919642085
 30
0.0
 10
90.29244060825661
 20
129.0790216732411
 30
0.0
 10
90.250513327886
 20
129.0344051139012
 30
0.0
 10
90.22786121765436
 20
129.0135251013832
 30
0.0
 10
90.18688750356773
 20
128.9826516876324
 30
0.0
 10
90.16928820367231
 20
128.9728128178
 30
0.0
 10
90.12466121781617
 20
128.9538232021038
 30
0.0
 10
90.10410199516284
 20
128.9534988774504
 30
0.0
 10
90.05297655566616
 20
128.9627223183266
 30
0.0
 10
90.03206514267761
 20
128.9839692145436
 30
0.0
 10
89.98061523511669
 20
129.0579380933744
 30
0.0
 10
89.96294993581213
 20
129.1240561866891
 30
0.0
 10
89.94929110234531
 20
129.1942218996194
 30
0.0
  0
SPLINE
  5
9F
330
1F
100
AcDbEntity
  8
0
  6
Continuous
 62
     7
370
    15
100
AcDbSpline
210
0.0
220
0.0
230
1.0
 70
     8
 71
     3
 72
    10
 73
     6
 74
     0
 42
0.00000001
 43
0.00000001
 40
0.0
 40
0.0
 40
0.0
 40
0.0
 40
0.5
 40
0.5
 40
1.0
 40
1.0
 40
1.0
 40
1.0
 10
91.02658279720369
 20
130.3796232471263
 30
0.0
 10
90.95902354228544
 20
130.3119318543165
 30
0.0
 10
90.89538688694896
 20
130.2372246895629
 30
0.0
 10
90.78516613237711
 20
130.0782585571363
 30
0.0
 10
90.73834983915448
 20
129.9939032911282
 30
0.0
 10
90.7107813737264
 20
129.9097886884365
 30
0.0
  0
SPLINE
  5
A0
330
1F
100
AcDbEntity
  8
0
  6
Continuous
 62
     7
370
    15
100
AcDbSpline
210
0.0
220
0.0
230
1.0
 70
     8
 71
     3
 72
    10
 73
     6
 74
     0
 42
0.00000001
 43
0.00000001
 40
0.0
 40
0.0
 40
0.0
 40
0.0
 40
0.5
 40
0.5
 40
1.0
 40
1.0
 40
1.0
 40
1.0
 10
90.71078137372646
 20
89.12955002124068
 30
0.0
 10
90.73825878848042
 20
89.04571322477278
 30
0.0
 10
90.78496741876985
 20
88.96140273718365
 30
0.0
 10
90.89524588151579
 20
88.80228150669694
 30
0.0
 10
90.95913342012969
 20
88.7272967626073
 30
0.0
 10
91.0265827972143
 20
88.65971546254035
 30
0.0
  0
SPLINE
  5
A1
330
1F
100
AcDbEntity
  8
0
  6
Continuous
 62
     7
370
    15
100
AcDbSpline
210
0.0
220
0.0
230
1.0
 70
     8
 71
     3
 72
    24
 73
    20
 74
     0
 42
0.00000001
 43
0.00000001
 40
0.0
 40
0.0
 40
0.0
 40
0.0
 40
0.249999999999999
 40
0.249999999999999
 40
0.3749999999999983
 40
0.3749999999999983
 40
0.4374999999999987
 40
0.4374999999999987
 40
0.4687499999999975
 40
0.4687499999999975
 40
0.4999999999999963
 40
0.4999999999999963
 40
0.5624999999999984
 40
0.5624999999999984
 40
0.6250000000000006
 40
0.6250000000000006
 40
0.7500000000000001
 40
0.7500000000000001
 40
1.0
 40
1.0
 40
1.0
 40
1.0
 10
89.94929110234531
 20
89.84511681005792
 30
0.0
 10
89.96304422101554
 20
89.9157668680482
 30
0.0
 10
89.98081678842141
 20
89.9823649808131
 30
0.0
 10
90.03306787997676
 20
90.05646300104632
 30
0.0
 10
90.05410295555832
 20
90.07772080820787
 30
0.0
 10
90.10700336318675
 20
90.08586673435411
 30
0.0
 10
90.12810903606466
 20
90.08492693095833
 30
0.0
 10
90.17416120474265
 20
90.06391093938099
 30
0.0
 10
90.19253167672603
 20
90.05300213327338
 30
0.0
 10
90.23408331179175
 20
90.02036722232602
 30
0.0
 10
90.25664998454866
 20
89.99887524195464
 30
0.0
 10
90.31943100100867
 20
89.93040929836832
 30
0.0
 10
90.35256076197656
 20
89.88433484016323
 30
0.0
 10
90.40947844846158
 20
89.79932695182856
 30
0.0
 10
90.43366447396534
 20
89.75904665064718
 30
0.0
 10
90.4988724243451
 20
89.64411042418125
 30
0.0
 10
90.53358848453635
 20
89.57352743903422
 30
0.0
 10
90.62680375486723
 20
89.36932167995563
 30
0.0
 10
90.67247629022792
 20
89.24642329762827
 30
0.0
 10
90.71078137372645
 20
89.1295500212407
 30
0.0
  0
LINE
  5
A2
330
1F
100
AcDbEntity
  8
0
  6
Continuous
 62
     7
370
    15
100
AcDbLine
 10
165.9618092655
 20
89.0196687886
 30
0.0
 11
165.9618092655
 21
130.0196699211
 31
0.0
  0
SPLINE
  5
A3
330
1F
100
AcDbEntity
  8
0
  6
Continuous
 62
     7
370
    15
100
AcDbSpline
210
0.0
220
0.0
230
1.0
 70
     8
 71
     3
 72
    10
 73
     6
 74
     0
 42
0.00000001
 43
0.00000001
 40
0.0
 40
0.0
 40
0.0
 40
0.0
 40
0.5
 40
0.5
 40
1.0
 40
1.0
 40
1.0
 40
1.0
 10
147.7366277276219
 20
139.3661096786026
 30
0.0
 10
147.7366277276219
 20
139.5265149449534
 30
0.0
 10
147.674389896515
 20
139.6855767579419
 30
0.0
 10
147.4552549727725
 20
139.9164892235723
 30
0.0
 10
147.2976662777806
 20
139.9868648280029
 30
0.0
 10
147.1366277276219
 20
139.9868648280029
 30
0.0
  0
SPLINE
  5
A4
330
1F
100
AcDbEntity
  8
0
  6
Continuous
 62
     7
370
    15
100
AcDbSpline
210
0.0
220
0.0
230
1.0
 70
     8
 71
     3
 72
    12
 73
     8
 74
     0
 42
0.00000001
 43
0.00000001
 40
0.0
 40
0.0
 40
0.0
 40
0.0
 40
0.250000000000002
 40
0.250000000000002
 40
0.500000000000004
 40
0.500000000000004
 40
1.0
 40
1.0
 40
1.0
 40
1.0
 10
147.1366277276219
 20
133.9783590172061
 30
0.0
 10
147.2278274494476
 20
133.9783590172061
 30
0.0
 10
147.3184224585836
 20
133.9501393186182
 30
0.0
 10
147.4718351850302
 20
133.8556963113701
 30
0.0
 10
147.5370440523539
 20
133.7894093346648
 30
0.0
 10
147.6898285816938
 20
133.5637845113765
 30
0.0
 10
147.7366277276219
 20
133.3813582483439
 30
0.0
 10
147.7366277276219
 20
133.200621616097
 30
0.0
  0
LINE
  5
A5
330
1F
100
AcDbEntity
  8
0
  6
Continuous
 62
     7
370
    15
100
AcDbLine
 10
147.7366274177
 20
133.2006208011
 30
0.0
 11
147.7366274177
 21
139.3661103555
 31
0.0
  0
LINE
  5
A6
330
1F
100
AcDbEntity
  8
0
  6
Continuous
 62
     7
370
    15
100
AcDbLine
 10
141.6966279923
 20
129.6555358329
 30
0.0
 11
141.6966279923
 21
130.5698133418
 31
0.0
  0
SPLINE
  5
A7
330
1F
100
AcDbEntity
  8
0
  6
Continuous
 62
     7
370
    15
100
AcDbSpline
210
0.0
220
0.0
230
1.0
 70
     8
 71
     3
 72
     8
 73
     4
 74
     0
 42
0.00000001
 43
0.00000001
 40
0.0
 40
0.0
 40
0.0
 40
0.0
 40
1.0
 40
1.0
 40
1.0
 40
1.0
 10
141.6966277276219
 20
130.569813022422
 30
0.0
 10
142.1759058782118
 20
131.7108242522746
 30
0.0
 10
142.6714737173517
 20
132.8472086630424
 30
0.0
 10
143.178560559111
 20
133.9783590172061
 30
0.0
  0
LINE
  5
A8
330
1F
100
AcDbEntity
  8
0
  6
Continuous
 62
     7
370
    15
100
AcDbLine
 10
143.1785596489
 20
133.97835897
 30
0.0
 11
147.1366284369
 21
133.97835897
 31
0.0
  0
LINE
  5
A9
330
1F
100
AcDbEntity
  8
0
  6
Continuous
 62
     7
370
    15
100
AcDbLine
 10
147.7366274177
 20
133.2006208011
 30
0.0
 11
147.7366274177
 21
129.3696700939
 31
0.0
  0
SPLINE
  5
AA
330
1F
100
AcDbEntity
  8
0
  6
Continuous
 62
     7
370
    15
100
AcDbSpline
210
0.0
220
0.0
230
1.0
 70
     8
 71
     3
 72
     8
 73
     4
 74
     0
 42
0.00000001
 43
0.00000001
 40
0.0
 40
0.0
 40
0.0
 40
0.0
 40
1.0
 40
1.0
 40
1.0
 40
1.0
 10
137.8766277276219
 20
137.3249035460103
 30
0.0
 10
137.3839176307762
 20
138.2129225441366
 30
0.0
 10
136.8898349254972
 20
139.1001851798226
 30
0.0
 10
136.3946948961328
 20
139.9868648280029
 30
0.0
  0
SPLINE
  5
AB
330
1F
100
AcDbEntity
  8
0
  6
Continuous
 62
     7
370
    15
100
AcDbSpline
210
0.0
220
0.0
230
1.0
 70
     8
 71
     3
 72
     8
 73
     4
 74
     0
 42
0.00000001
 43
0.00000001
 40
0.0
 40
0.0
 40
0.0
 40
0.0
 40
1.0
 40
1.0
 40
1.0
 40
1.0
 10
136.3946948961328
 20
133.9783590172061
 30
0.0
 10
136.9017817378921
 20
132.8472086630424
 30
0.0
 10
137.397349577032
 20
131.7108242522746
 30
0.0
 10
137.8766277276219
 20
130.569813022422
 30
0.0
  0
LINE
  5
AC
330
1F
100
AcDbEntity
  8
0
  6
Continuous
 62
     7
370
    15
100
AcDbLine
 10
137.8766277759
 20
130.5698133418
 30
0.0
 11
137.8766277759
 21
137.3249027291
 31
0.0
  0
LINE
  5
AD
330
1F
100
AcDbEntity
  8
0
  6
Continuous
 62
     7
370
    15
100
AcDbLine
 10
147.1366284369
 20
139.9868647912
 30
0.0
 11
143.1785596489
 21
139.9868647912
 31
0.0
  0
LINE
  5
AE
330
1F
100
AcDbEntity
  8
0
  6
Continuous
 62
     7
370
    15
100
AcDbLine
 10
143.1785596489
 20
133.97835897
 30
0.0
 11
143.1785596489
 21
139.9868647912
 31
0.0
  0
LINE
  5
AF
330
1F
100
AcDbEntity
  8
0
  6
Continuous
 62
     7
370
    15
100
AcDbLine
 10
137.8766277759
 20
130.5698133418
 30
0.0
 11
137.8766277759
 21
129.6555358329
 31
0.0
  0
SPLINE
  5
B0
330
1F
100
AcDbEntity
  8
0
  6
Continuous
 62
     7
370
    15
100
AcDbSpline
210
0.0
220
0.0
230
1.0
 70
     8
 71
     3
 72
     8
 73
     4
 74
     0
 42
0.00000001
 43
0.00000001
 40
0.0
 40
0.0
 40
0.0
 40
0.0
 40
1.0
 40
1.0
 40
1.0
 40
1.0
 10
143.178560559111
 20
139.9868648280029
 30
0.0
 10
142.6834205297466
 20
139.1001851798226
 30
0.0
 10
142.1893378244677
 20
138.2129225441366
 30
0.0
 10
141.6966277276219
 20
137.3249035460102
 30
0.0
  0
LINE
  5
B1
330
1F
100
AcDbEntity
  8
0
  6
Continuous
 62
     7
370
    15
100
AcDbLine
 10
141.6966279923
 20
130.5698133418
 30
0.0
 11
141.6966279923
 21
137.3249027291
 31
0.0
  0
ARC
  5
B2
330
1F
100
AcDbEntity
  8
0
  6
Continuous
 62
     7
370
    15
100
AcDbCircle
 10
129.8847398814
 20
128.6458982269
 30
0.0
 40
6.820078853757516
100
AcDbArc
 50
70.5653311297
 51
90.8242697173
  0
ARC
  5
B3
330
1F
100
AcDbEntity
  8
0
  6
Continuous
 62
     7
370
    15
100
AcDbCircle
 10
129.6881121175
 20
128.6497545705
 30
0.0
 40
6.816228739652207
100
AcDbArc
 50
89.1718665552
 51
109.4954265258
  0
LINE
  5
B4
330
1F
100
AcDbEntity
  8
0
  6
Continuous
 62
     7
370
    15
100
AcDbLine
 10
216.7866265355
 20
94.8684499943
 30
0.0
 11
216.7866265355
 21
124.1708887154
 31
0.0
  0
LINE
  5
B5
330
1F
100
AcDbEntity
  8
0
  6
HIDDEN
 62
     7
370
     0
100
AcDbLine
 10
167.786627817
 20
104.0196693846
 30
0.0
 11
167.786627817
 21
115.019669325
 31
0.0
  0
LINE
  5
B6
330
1F
100
AcDbEntity
  8
0
  6
HIDDEN
 62
     7
370
     0
100
AcDbLine
 10
152.2866280703
 20
103.5196693027
 30
0.0
 11
152.2866280703
 21
115.519669407
 31
0.0
  0
LINE
  5
B7
330
1F
100
AcDbEntity
  8
0
  6
HIDDEN
 62
     7
370
     0
100
AcDbLine
 10
151.7866270571
 20
104.0196693846
 30
0.0
 11
151.7866270571
 21
115.019669325
 31
0.0
  0
LINE
  5
B8
330
1F
100
AcDbEntity
  8
0
  6
HIDDEN
 62
     7
370
     0
100
AcDbLine
 10
171.7866284727
 20
108.0196693418
 30
0.0
 11
169.7866281449
 21
108.0196693418
 31
0.0
  0
LINE
  5
B9
330
1F
100
AcDbEntity
  8
0
  6
HIDDEN
 62
     7
370
     0
100
AcDbLine
 10
171.7866284727
 20
104.0196693846
 30
0.0
 11
171.7866284727
 21
108.0196693418
 31
0.0
  0
LINE
  5
BA
330
1F
100
AcDbEntity
  8
0
  6
HIDDEN
 62
     7
370
     0
100
AcDbLine
 10
171.7866284727
 20
111.0196693679
 30
0.0
 11
171.7866284727
 21
115.019669325
 31
0.0
  0
LINE
  5
BB
330
1F
100
AcDbEntity
  8
0
  6
HIDDEN
 62
     7
370
     0
100
AcDbLine
 10
169.7866281449
 20
111.0196693679
 30
0.0
 11
171.7866284727
 21
111.0196693679
 31
0.0
  0
LINE
  5
BC
330
1F
100
AcDbEntity
  8
0
  6
HIDDEN
 62
     7
370
     0
100
AcDbLine
 10
169.7866281449
 20
108.0196693418
 30
0.0
 11
169.7866281449
 21
111.0196693679
 31
0.0
  0
LINE
  5
BD
330
1F
100
AcDbEntity
  8
0
  6
HIDDEN
 62
     7
370
     0
100
AcDbLine
 10
158.7866282045
 20
109.5196693548
 30
0.0
 11
158.7866282045
 21
111.0196693679
 31
0.0
  0
LINE
  5
BE
330
1F
100
AcDbEntity
  8
0
  6
HIDDEN
 62
     7
370
     0
100
AcDbLine
 10
158.7866282045
 20
108.0196693418
 30
0.0
 11
158.7866282045
 21
109.5196693548
 31
0.0
  0
LINE
  5
BF
330
1F
100
AcDbEntity
  8
0
  6
HIDDEN
 62
     7
370
     0
100
AcDbLine
 10
158.7866282045
 20
109.5196693548
 30
0.0
 11
151.7866270571
 21
109.5196693548
 31
0.0
  0
LINE
  5
C0
330
1F
100
AcDbEntity
  8
0
  6
HIDDEN
 62
     7
370
     0
100
AcDbLine
 10
164.7866291879
 20
109.5196693548
 30
0.0
 11
169.7866281449
 21
109.5196693548
 31
0.0
  0
LINE
  5
C1
330
1F
100
AcDbEntity
  8
0
  6
HIDDEN
 62
     7
370
     0
100
AcDbLine
 10
164.7866291879
 20
111.0196693679
 30
0.0
 11
164.7866291879
 21
109.5196693548
 31
0.0
  0
LINE
  5
C2
330
1F
100
AcDbEntity
  8
0
  6
HIDDEN
 62
     7
370
     0
100
AcDbLine
 10
164.7866291879
 20
109.5196693548
 30
0.0
 11
164.7866291879
 21
108.0196693418
 31
0.0
  0
LINE
  5
C3
330
1F
100
AcDbEntity
  8
0
  6
HIDDEN
 62
     7
370
     0
100
AcDbLine
 10
158.7866282045
 20
111.0196693679
 30
0.0
 11
158.7866282045
 21
112.5196693809
 31
0.0
  0
LINE
  5
C4
330
1F
100
AcDbEntity
  8
0
  6
HIDDEN
 62
     7
370
     0
100
AcDbLine
 10
164.7866291879
 20
108.0196693418
 30
0.0
 11
164.7866291879
 21
106.5196693288
 31
0.0
  0
LINE
  5
C5
330
1F
100
AcDbEntity
  8
0
  6
HIDDEN
 62
     7
370
     0
100
AcDbLine
 10
164.7866291879
 20
112.5196693809
 30
0.0
 11
164.7866291879
 21
111.0196693679
 31
0.0
  0
LINE
  5
C6
330
1F
100
AcDbEntity
  8
0
  6
HIDDEN
 62
     7
370
     0
100
AcDbLine
 10
158.7866282045
 20
106.5196693288
 30
0.0
 11
158.7866282045
 21
108.0196693418
 31
0.0
  0
LINE
  5
C7
330
1F
100
AcDbEntity
  8
0
  6
HIDDEN
 62
     7
370
     0
100
AcDbLine
 10
158.7866282045
 20
112.5196693809
 30
0.0
 11
151.7866270571
 21
112.5196693809
 31
0.0
  0
LINE
  5
C8
330
1F
100
AcDbEntity
  8
0
  6
HIDDEN
 62
     7
370
     0
100
AcDbLine
 10
164.7866291879
 20
106.5196693288
 30
0.0
 11
171.7866284727
 21
106.5196693288
 31
0.0
  0
LINE
  5
C9
330
1F
100
AcDbEntity
  8
0
  6
HIDDEN
 62
     7
370
     0
100
AcDbLine
 10
164.7866291879
 20
112.5196693809
 30
0.0
 11
171.7866284727
 21
112.5196693809
 31
0.0
  0
LINE
  5
CA
330
1F
100
AcDbEntity
  8
0
  6
HIDDEN
 62
     7
370
     0
100
AcDbLine
 10
158.7866282045
 20
106.5196693288
 30
0.0
 11
151.7866270571
 21
106.5196693288
 31
0.0
  0
LINE
  5
CB
330
1F
100
AcDbEntity
  8
0
  6
HIDDEN
 62
     7
370
     0
100
AcDbLine
 10
136.394695188
 20
133.97835897
 30
0.0
 11
136.394695188
 21
129.3696700939
 31
0.0
  0
LWPOLYLINE
  5
CC
330
1F
100
AcDbEntity
  8
0
  6
HIDDEN
 62
     7
370
     0
100
AcDbPolyline
 90
       20
 70
   128
 43
0.0
 10
133.6669193535
 20
122.7790047759
 10
133.7405012875
 20
122.4533026451
 10
133.7814934506
 20
121.7330950656
 10
133.6589360564
 20
121.0202775308
 10
133.3778461395
 20
120.3440339649
 10
132.9497311218
 20
119.7320479312
 10
132.3921175628
 20
119.2093766638
 10
131.7278359039
 20
118.7974154362
 10
130.9840798332
 20
118.5130323627
 10
130.1913008048
 20
118.367869907
 10
129.3819544791
 20
118.367869907
 10
128.5891754507
 20
118.5130323627
 10
127.8454198456
 20
118.7974154362
 10
127.1811377211
 20
119.2093766638
 10
126.6235246277
 20
119.7320479312
 10
126.19540961
 20
120.3440339649
 10
125.9143192275
 20
121.0202775308
 10
125.7917618333
 20
121.7330950656
 10
125.8327544621
 20
122.4533026451
 10
125.9050087957
 20
122.7742662066
  0
LINE
  5
CD
330
1F
100
AcDbEntity
  8
0
  6
HIDDEN
 62
     7
370
     0
100
AcDbLine
 10
109.7817782267
 20
85.995070205
 30
0.0
 11
109.5301199658
 21
85.9715487221
 31
0.0
  0
LINE
  5
CE
330
1F
100
AcDbEntity
  8
0
  6
HIDDEN
 62
     7
370
     0
100
AcDbLine
 10
109.4074284612
 20
133.079099969
 30
0.0
 11
109.7816850944
 21
133.0442517409
 31
0.0
  0
SPLINE
  5
CF
330
1F
100
AcDbEntity
  8
0
  6
HIDDEN
 62
     7
370
     0
100
AcDbSpline
210
0.0
220
0.0
230
1.0
 70
     8
 71
     3
 72
    22
 73
    18
 74
     0
 42
0.00000001
 43
0.00000001
 40
0.0
 40
0.0
 40
0.0
 40
0.0
 40
0.0694705205686055
 40
0.1409377331649949
 40
0.2104135932234474
 40
0.2819466554347119
 40
0.3506518590239928
 40
0.4213898075947659
 40
0.4894670079785227
 40
0.559481139205132
 40
0.6282707070598401
 40
0.6989997640116924
 40
0.7687375463058662
 40
0.8405098058647738
 40
0.9099666327908917
 40
0.9814998906941905
 40
1.0
 40
1.0
 40
1.0
 40
1.0
 10
115.5416297680379
 20
89.6821408876603
 30
0.0
 10
115.3934558553089
 20
89.70186701456493
 30
0.0
 10
115.0928492785437
 20
89.74188622828763
 30
0.0
 10
114.5579542999869
 20
89.79725922030856
 30
0.0
 10
113.9723158371362
 20
89.84171831748232
 30
0.0
 10
113.3580831405771
 20
89.86940244123046
 30
0.0
 10
112.7241665433833
 20
89.87765500636813
 30
0.0
 10
112.1020179279776
 20
89.86567407611967
 30
0.0
 10
111.4960202335417
 20
89.8349262048138
 30
0.0
 10
110.9315312181758
 20
89.789457180974
 30
0.0
 10
110.4121552737978
 20
89.73337626912736
 30
0.0
 10
109.959289454745
 20
89.6733876243232
 30
0.0
 10
109.5805746073172
 20
89.6154070884428
 30
0.0
 10
109.2924899125121
 20
89.56648731730706
 30
0.0
 10
109.1100307802037
 20
89.53345208022019
 30
0.0
 10
109.0293742956042
 20
89.51831330477928
 30
0.0
 10
109.0436634856606
 20
89.52098527222405
 30
0.0
 10
109.0465996368469
 20
89.52153430966786
 30
0.0
  0
SPLINE
  5
D0
330
1F
100
AcDbEntity
  8
0
  6
HIDDEN
 62
     7
370
     0
100
AcDbSpline
210
0.0
220
0.0
230
1.0
 70
     8
 71
     3
 72
    30
 73
    26
 74
     0
 42
0.00000001
 43
0.00000001
 40
0.0
 40
0.0
 40
0.0
 40
0.0
 40
0.0156161599134492
 40
0.0849748354430979
 40
0.1203204707274447
 40
0.1543185374002934
 40
0.2234436738941646
 40
0.2586467327159568
 40
0.2931107352539268
 40
0.3631864008633959
 40
0.3988795402369778
 40
0.4336750588357229
 40
0.4687146119081173
 40
0.5045294366644589
 40
0.5406150942464
 40
0.5750767691290661
 40
0.6452033550959662
 40
0.6809575540931957
 40
0.7149323054552074
 40
0.7840330493487319
 40
0.8192378352640541
 40
0.8533346902847149
 40
0.9226550316361518
 40
0.9579547206872956
 40
1.0
 40
1.0
 40
1.0
 40
1.0
 10
109.0397451026977
 20
129.5190858998721
 30
0.0
 10
109.0391472835212
 20
129.5191977356911
 30
0.0
 10
109.0358942695643
 20
129.5198062867282
 30
0.0
 10
109.0862151883475
 20
129.5103500071587
 30
0.0
 10
109.1865211356387
 20
129.492044489366
 30
0.0
 10
109.3211382765495
 20
129.4680610289851
 30
0.0
 10
109.5031956193635
 20
129.4369613961269
 30
0.0
 10
109.730119411015
 20
129.4010425963631
 30
0.0
 10
109.986705184959
 20
129.3627224043668
 30
0.0
 10
110.2847418694984
 20
129.3224802746514
 30
0.0
 10
110.6172915237207
 20
129.2838176202297
 30
0.0
 10
110.8824889316058
 20
129.256414876584
 30
0.0
 10
111.161547107917
 20
129.231368864618
 30
0.0
 10
111.4559980575285
 20
129.2092039047365
 30
0.0
 10
111.75886276198
 20
129.1910398763904
 30
0.0
 10
112.1692486638355
 20
129.172783390127
 30
0.0
 10
112.5900895215116
 20
129.1639352408998
 30
0.0
 10
113.0099934085429
 20
129.1654013001424
 30
0.0
 10
113.4246079843979
 20
129.1734430410307
 30
0.0
 10
113.8308290946133
 20
129.1909511057992
 30
0.0
 10
114.2203596881662
 20
129.2165160078839
 30
0.0
 10
114.597180415
 20
129.2466997540909
 30
0.0
 10
114.950317480844
 20
129.2825993411093
 30
0.0
 10
115.2920692708364
 20
129.3234161963256
 30
0.0
 10
115.4537428508528
 20
129.3453010556104
 30
0.0
 10
115.5416297680379
 20
129.357197822017
 30
0.0
  0
SPLINE
  5
D1
330
1F
100
AcDbEntity
  8
0
  6
HIDDEN
 62
     7
370
     0
100
AcDbSpline
210
0.0
220
0.0
230
1.0
 70
     8
 71
     3
 72
    15
 73
    11
 74
     0
 42
0.00000001
 43
0.00000001
 40
0.0
 40
0.0
 40
0.0
 40
0.0
 40
0.1100544707655662
 40
0.220883012580302
 40
0.3341391370123754
 40
0.4482297160879501
 40
0.5583072266301214
 40
0.7821684842501263
 40
0.8962129084113103
 40
1.0
 40
1.0
 40
1.0
 40
1.0
 10
115.5416297680379
 20
129.357197822017
 30
0.0
 10
115.6092238239897
 20
129.3662657724191
 30
0.0
 10
115.7448873604848
 20
129.3844654528937
 30
0.0
 10
115.9253327247423
 20
129.4051872451264
 30
0.0
 10
116.0874809829133
 20
129.4219269708845
 30
0.0
 10
116.2255323732681
 20
129.4345076107718
 30
0.0
 10
116.3771728805661
 20
129.4468904087506
 30
0.0
 10
116.4786215688497
 20
129.4538449663547
 30
0.0
 10
116.530046854801
 20
129.4571443073775
 30
0.0
 10
116.5340023246824
 20
129.4573885959049
 30
0.0
 10
116.5358869312943
 20
129.4575049885934
 30
0.0
  0
SPLINE
  5
D2
330
1F
100
AcDbEntity
  8
0
  6
HIDDEN
 62
     7
370
     0
100
AcDbSpline
210
0.0
220
0.0
230
1.0
 70
     8
 71
     3
 72
    12
 73
     8
 74
     0
 42
0.00000001
 43
0.00000001
 40
0.0
 40
0.0
 40
0.0
 40
0.0
 40
0.1181137368126274
 40
0.3465025355194956
 40
0.5687617195471242
 40
0.7975188942388328
 40
1.0
 40
1.0
 40
1.0
 40
1.0
 10
116.5238235099853
 20
89.5825974055951
 30
0.0
 10
116.5259466693058
 20
89.58246315064409
 30
0.0
 10
116.5321752427783
 20
89.58206929568539
 30
0.0
 10
116.4275087433834
 20
89.58869124822867
 30
0.0
 10
116.2175349934657
 20
89.60509734586087
 30
0.0
 10
115.9220764690061
 20
89.63269890811553
 30
0.0
 10
115.6631871487509
 20
89.66634356962486
 30
0.0
 10
115.5416297680379
 20
89.6821408876603
 30
0.0
  0
LINE
  5
D3
330
1F
100
AcDbEntity
  8
0
  6
HIDDEN
 62
     7
370
     0
100
AcDbLine
 10
102.7906032233
 20
92.519668431
 30
0.0
 11
102.7906032233
 21
126.5196702787
 31
0.0
  0
LWPOLYLINE
  5
D4
330
1F
100
AcDbEntity
  8
0
  6
HIDDEN
 62
     7
370
     0
100
AcDbPolyline
 90
       26
 70
   128
 43
0.0
 10
132.1539970069
 20
135.0773792127
 10
132.6857989608
 20
134.8432056019
 10
133.1812048285
 20
134.5231994399
 10
133.5376359476
 20
134.159883053
 10
133.7405012875
 20
133.7681277999
 10
133.7814934506
 20
133.3639729181
 10
133.6589360564
 20
132.963966147
 10
133.3778461395
 20
132.5844838628
 10
132.9497311218
 20
132.2410605261
 10
132.3921175628
 20
131.9477553823
 10
131.7278359039
 20
131.7165787676
 10
130.9840798332
 20
131.5569929191
 10
130.1913008048
 20
131.4755338588
 10
129.3819544791
 20
131.4755338588
 10
128.5891754507
 20
131.5569929191
 10
127.8454198456
 20
131.7165787676
 10
127.1811377211
 20
131.9477553823
 10
126.6235246277
 20
132.2410605261
 10
126.19540961
 20
132.5844838628
 10
125.9143192275
 20
132.963966147
 10
125.7917618333
 20
133.3639729181
 10
125.8327544621
 20
133.7681277999
 10
126.0356193362
 20
134.159883053
 10
126.392050921
 20
134.5231994399
 10
126.8874567887
 20
134.8432056019
 10
127.4133210956
 20
135.0751961925
  0
SPLINE
  5
D5
330
1F
100
AcDbEntity
  8
0
  6
HIDDEN
 62
     7
370
     0
100
AcDbSpline
210
0.0
220
0.0
230
1.0
 70
     8
 71
     3
 72
    11
 73
     7
 74
     0
 42
0.00000001
 43
0.00000001
 40
0.0
 40
0.0
 40
0.0
 40
0.0
 40
0.0005779865010846
 40
0.0005779865010846
 40
0.0005779865010846
 40
0.0011559733324422
 40
0.0011559733324422
 40
0.0011559733324422
 40
0.0011559733324422
 10
89.8866277276219
 20
111.5195099629986
 30
0.0
 10
90.05329498242787
 20
111.5175263236579
 30
0.0
 10
90.21996141210553
 20
111.5154887166496
 30
0.0
 10
90.38662775055737
 20
111.5133772532435
 30
0.0
 10
90.55329417938377
 20
111.5112657886925
 30
0.0
 10
90.71996055302145
 20
111.5090802255364
 30
0.0
 10
90.88662772762189
 20
111.5067976482051
 30
0.0
  0
SPLINE
  5
D6
330
1F
100
AcDbEntity
  8
0
  6
HIDDEN
 62
     7
370
     0
100
AcDbSpline
210
0.0
220
0.0
230
1.0
 70
     8
 71
     3
 72
    11
 73
     7
 74
     0
 42
0.00000001
 43
0.00000001
 40
0.0
 40
0.0
 40
0.0
 40
0.0
 40
0.0005782382535738
 40
0.0005782382535738
 40
0.0005782382535738
 40
0.0011564766069467
 40
0.0011564766069467
 40
0.0011564766069467
 40
0.0011564766069467
 10
90.8866277276219
 20
107.5229690526204
 30
0.0
 10
90.71997377365328
 20
107.5225314748588
 30
0.0
 10
90.55331310145132
 20
107.5220514101864
 30
0.0
 10
90.38664621278592
 20
107.521531870817
 30
0.0
 10
90.21997929438984
 20
107.521012331355
 30
0.0
 10
90.05330616455662
 20
107.5204535023331
 30
0.0
 10
89.88662772762189
 20
107.5198679587499
 30
0.0
  0
LINE
  5
D7
330
1F
100
AcDbEntity
  8
0
  6
HIDDEN
 62
     7
370
     0
100
AcDbLine
 10
129.4464536897
 20
92.519668431
 30
0.0
 11
129.4464536897
 21
126.5196702787
 31
0.0
  0
LINE
  5
D8
330
1F
100
AcDbEntity
  8
0
  6
HIDDEN
 62
     7
370
     0
100
AcDbLine
 10
131.736627589
 20
93.7946695247
 30
0.0
 11
131.736627589
 21
125.244669185
 31
0.0
  0
SPLINE
  5
D9
330
1F
100
AcDbEntity
  8
0
  6
HIDDEN
 62
     7
370
     0
100
AcDbSpline
210
0.0
220
0.0
230
1.0
 70
     8
 71
     3
 72
    16
 73
    12
 74
     0
 42
0.00000001
 43
0.00000001
 40
0.0
 40
0.0
 40
0.0
 40
0.0
 40
0.124999999999998
 40
0.124999999999998
 40
0.249999999999996
 40
0.249999999999996
 40
0.4999999999999973
 40
0.4999999999999973
 40
0.7499999999999987
 40
0.7499999999999987
 40
1.0
 40
1.0
 40
1.0
 40
1.0
 10
98.5866277276219
 20
93.71817891880698
 30
0.0
 10
98.68174948228773
 20
93.71817891880698
 30
0.0
 10
98.7750795510158
 20
93.71436308541418
 30
0.0
 10
98.95834131175381
 20
93.69959253268436
 30
0.0
 10
99.04921902731081
 20
93.6884344847088
 30
0.0
 10
99.30602072483055
 20
93.64596321456708
 30
0.0
 10
99.46108808970256
 20
93.60491701736427
 30
0.0
 10
99.71483455125717
 20
93.50977090078239
 30
0.0
 10
99.81570500292503
 20
93.4550081667008
 30
0.0
 10
99.95095141761986
 20
93.34374704279693
 30
0.0
 10
99.98662772762191
 20
93.28657730546824
 30
0.0
 10
99.98662772762191
 20
93.2321557324345
 30
0.0
  0
LINE
  5
DA
330
1F
100
AcDbEntity
  8
0
  6
HIDDEN
 62
     7
370
     0
100
AcDbLine
 10
91.0366268783
 20
93.718178139
 30
0.0
 11
91.1176593928
 21
93.718178139
 31
0.0
  0
LINE
  5
DB
330
1F
100
AcDbEntity
  8
0
  6
HIDDEN
 62
     7
370
     0
100
AcDbLine
 10
90.8866277276
 20
93.7785258132
 30
0.0
 11
91.0366277276
 21
93.7181789188
 31
0.0
  0
LINE
  5
DC
330
1F
100
AcDbEntity
  8
0
  6
HIDDEN
 62
     7
370
     0
100
AcDbLine
 10
90.8866280644
 20
95.0503158727
 30
0.0
 11
90.8866280644
 21
93.7785259792
 31
0.0
  0
SPLINE
  5
DD
330
1F
100
AcDbEntity
  8
0
  6
HIDDEN
 62
     7
370
     0
100
AcDbSpline
210
0.0
220
0.0
230
1.0
 70
     8
 71
     3
 72
     8
 73
     4
 74
     0
 42
0.00000001
 43
0.00000001
 40
0.0
 40
0.0
 40
0.0
 40
0.0
 40
1.0
 40
1.0
 40
1.0
 40
1.0
 10
91.18662773101508
 20
95.96577661495682
 30
0.0
 10
91.18662773101521
 20
95.6281674189974
 30
0.0
 10
91.07517610984169
 20
95.32558580299741
 30
0.0
 10
90.8866277276219
 20
95.05031597332199
 30
0.0
  0
LINE
  5
DE
330
1F
100
AcDbEntity
  8
0
  6
HIDDEN
 62
     7
370
     0
100
AcDbLine
 10
91.1866275548
 20
113.1243030885
 30
0.0
 11
91.1866275548
 21
95.9657761612
 31
0.0
  0
SPLINE
  5
DF
330
1F
100
AcDbEntity
  8
0
  6
HIDDEN
 62
     7
370
     0
100
AcDbSpline
210
0.0
220
0.0
230
1.0
 70
     8
 71
     3
 72
    10
 73
     6
 74
     0
 42
0.00000001
 43
0.00000001
 40
0.0
 40
0.0
 40
0.0
 40
0.0
 40
0.5
 40
0.5
 40
1.0
 40
1.0
 40
1.0
 40
1.0
 10
90.8866277276219
 20
123.9893449890858
 30
0.0
 10
90.97851865707466
 20
123.8514309121068
 30
0.0
 10
91.0543458863855
 20
123.7069443732261
 30
0.0
 10
91.15876699010225
 20
123.4024844874258
 30
0.0
 10
91.1866277310153
 20
123.2424264808827
 30
0.0
 10
91.18662773101508
 20
123.0735620947194
 30
0.0
  0
LINE
  5
E0
330
1F
100
AcDbEntity
  8
0
  6
HIDDEN
 62
     7
370
     0
100
AcDbLine
 10
90.8866280644
 20
125.2608127305
 30
0.0
 11
90.8866280644
 21
123.9893450746
 31
0.0
  0
LINE
  5
E1
330
1F
100
AcDbEntity
  8
0
  6
HIDDEN
 62
     7
370
     0
100
AcDbLine
 10
91.0366277276
 20
125.3211597909
 30
0.0
 11
90.8866277276
 21
125.2608128965
 31
0.0
  0
LINE
  5
E2
330
1F
100
AcDbEntity
  8
0
  6
HIDDEN
 62
     7
370
     0
100
AcDbLine
 10
91.1866275548
 20
125.3211605707
 30
0.0
 11
91.0366268783
 21
125.3211605707
 31
0.0
  0
SPLINE
  5
E3
330
1F
100
AcDbEntity
  8
0
  6
HIDDEN
 62
     7
370
     0
100
AcDbSpline
210
0.0
220
0.0
230
1.0
 70
     8
 71
     3
 72
    18
 73
    14
 74
     0
 42
0.00000001
 43
0.00000001
 40
0.0
 40
0.0
 40
0.0
 40
0.0
 40
0.2500000000000033
 40
0.2500000000000033
 40
0.3750000000000029
 40
0.3750000000000029
 40
0.5000000000000026
 40
0.5000000000000026
 40
0.6250000000000022
 40
0.6250000000000022
 40
0.7500000000000018
 40
0.7500000000000018
 40
1.0
 40
1.0
 40
1.0
 40
1.0
 10
95.9866277276219
 20
125.8071829772428
 30
0.0
 10
95.9866277276219
 20
125.7527084566906
 30
0.0
 10
95.95171703622974
 20
125.6963273973381
 30
0.0
 10
95.84970773489668
 20
125.6122505564846
 30
0.0
 10
95.80807138021858
 20
125.5849168524937
 30
0.0
 10
95.70966558472982
 20
125.5319629368947
 30
0.0
 10
95.65212237302553
 20
125.5060755831776
 30
0.0
 10
95.52482419945258
 20
125.4582980383443
 30
0.0
 10
95.45523689469512
 20
125.4363501201664
 30
0.0
 10
95.30380264954016
 20
125.3969175552537
 30
0.0
 10
95.22111874644622
 20
125.3793613060278
 30
0.0
 10
94.96500728440817
 20
125.3369225406073
 30
0.0
 10
94.77709228052018
 20
125.3211597908703
 30
0.0
 10
94.5866277276219
 20
125.3211597908703
 30
0.0
  0
LINE
  5
E4
330
1F
100
AcDbEntity
  8
0
  6
HIDDEN
 62
     7
370
     0
100
AcDbLine
 10
94.586627367
 20
125.3211605707
 30
0.0
 11
91.1866275548
 21
125.3211605707
 31
0.0
  0
LINE
  5
E5
330
1F
100
AcDbEntity
  8
0
  6
HIDDEN
 62
     7
370
     0
100
AcDbLine
 10
91.1176593928
 20
93.718178139
 30
0.0
 11
98.5866280227
 21
93.718178139
 31
0.0
  0
SPLINE
  5
E6
330
1F
100
AcDbEntity
  8
0
  6
HIDDEN
 62
     7
370
     0
100
AcDbSpline
210
0.0
220
0.0
230
1.0
 70
     8
 71
     3
 72
    22
 73
    18
 74
     0
 42
0.00000001
 43
0.00000001
 40
0.0
 40
0.0
 40
0.0
 40
0.0
 40
0.125
 40
0.125
 40
0.25
 40
0.25
 40
0.5000000000000001
 40
0.5000000000000001
 40
0.5625000000000001
 40
0.5625000000000001
 40
0.6250000000000001
 40
0.6250000000000001
 40
0.75
 40
0.75
 40
0.875
 40
0.875
 40
1.0
 40
1.0
 40
1.0
 40
1.0
 10
91.11765874097979
 20
93.71817891880698
 30
0.0
 10
91.10457634825141
 20
93.97328462895466
 30
0.0
 10
91.0913567848116
 20
94.26644288805856
 30
0.0
 10
91.06890960701749
 20
94.92874335368337
 30
0.0
 10
91.05943113999302
 20
95.29901727429475
 30
0.0
 10
91.04023317905651
 20
96.52157407740853
 30
0.0
 10
91.04134695205339
 20
97.45871300354041
 30
0.0
 10
91.06025774500645
 20
98.7785842330554
 30
0.0
 10
91.06488727286545
 20
99.0500861420317
 30
0.0
 10
91.0753684926114
 20
99.60847097683401
 30
0.0
 10
91.08116375389582
 20
99.89559383277361
 30
0.0
 10
91.09947297480076
 20
100.7681830871453
 30
0.0
 10
91.11350790908112
 20
101.3686387635012
 30
0.0
 10
91.14296508121797
 20
102.6061132559972
 30
0.0
 10
91.15852077219954
 20
103.2431294126407
 30
0.0
 10
91.18231532219642
 20
104.5546180103252
 30
0.0
 10
91.19033437434177
 20
105.2307406219858
 30
0.0
 10
91.1866277276219
 20
105.9150357332705
 30
0.0
  0
LINE
  5
E7
330
1F
100
AcDbEntity
  8
0
  6
HIDDEN
 62
     7
370
     0
100
AcDbLine
 10
91.1866275548
 20
113.1243030885
 30
0.0
 11
91.1866275548
 21
125.3211605707
 31
0.0
  0
SPLINE
  5
E8
330
1F
100
AcDbEntity
  8
0
  6
HIDDEN
 62
     7
370
     0
100
AcDbSpline
210
0.0
220
0.0
230
1.0
 70
     8
 71
     3
 72
    10
 73
     6
 74
     0
 42
0.00000001
 43
0.00000001
 40
0.0
 40
0.0
 40
0.0
 40
0.0
 40
0.5
 40
0.5
 40
1.0
 40
1.0
 40
1.0
 40
1.0
 10
91.18662772762188
 20
105.9150357332555
 30
0.0
 10
91.18662772762173
 20
106.1889508813296
 30
0.0
 10
91.16086849775289
 20
106.4598924600592
 30
0.0
 10
91.05766256501946
 20
106.9955835416613
 30
0.0
 10
90.98032440114507
 20
107.2613303451831
 30
0.0
 10
90.88662772762189
 20
107.5229690526204
 30
0.0
  0
SPLINE
  5
E9
330
1F
100
AcDbEntity
  8
0
  6
HIDDEN
 62
     7
370
     0
100
AcDbSpline
210
0.0
220
0.0
230
1.0
 70
     8
 71
     3
 72
    10
 73
     6
 74
     0
 42
0.00000001
 43
0.00000001
 40
0.0
 40
0.0
 40
0.0
 40
0.0
 40
0.5
 40
0.5
 40
1.0
 40
1.0
 40
1.0
 40
1.0
 10
90.8866277276219
 20
111.5067976482051
 30
0.0
 10
90.97985830901264
 20
111.7706914562749
 30
0.0
 10
91.05488792124923
 20
112.0368717669129
 30
0.0
 10
91.15995502042705
 20
112.5751943418704
 30
0.0
 10
91.18662773101312
 20
112.8479424581157
 30
0.0
 10
91.18662773101431
 20
113.1243029764058
 30
0.0
  0
LINE
  5
EA
330
1F
100
AcDbEntity
  8
0
  6
HIDDEN
 62
     7
370
     0
100
AcDbLine
 10
90.8866280644
 20
107.5229691686
 30
0.0
 11
90.8866280644
 21
111.5067976405
 31
0.0
  0
LINE
  5
EB
330
1F
100
AcDbEntity
  8
0
  6
HIDDEN
 62
     7
370
     0
100
AcDbLine
 10
91.0366268783
 20
91.5296688089
 30
0.0
 11
91.0366268783
 21
88.6497306982
 31
0.0
  0
LINE
  5
EC
330
1F
100
AcDbEntity
  8
0
  6
HIDDEN
 62
     7
370
     0
100
AcDbLine
 10
99.9866275071
 20
91.5296688089
 30
0.0
 11
99.9866275071
 21
87.5559314498
 31
0.0
  0
LINE
  5
ED
330
1F
100
AcDbEntity
  8
0
  6
HIDDEN
 62
     7
370
     0
100
AcDbLine
 10
91.0366268783
 20
127.5096699008
 30
0.0
 11
91.0366268783
 21
130.3896080115
 31
0.0
  0
LINE
  5
EE
330
1F
100
AcDbEntity
  8
0
  6
HIDDEN
 62
     7
370
     0
100
AcDbLine
 10
95.9866268514
 20
127.5096699008
 30
0.0
 11
95.9866268514
 21
131.3637770125
 31
0.0
  0
LINE
  5
EF
330
1F
100
AcDbEntity
  8
0
  6
HIDDEN
 62
     7
370
     0
100
AcDbLine
 10
213.2866268932
 20
100.5196697423
 30
0.0
 11
213.2866268932
 21
118.5196689674
 31
0.0
  0
LINE
  5
F0
330
1F
100
AcDbEntity
  8
0
  6
HIDDEN
 62
     7
370
     0
100
AcDbLine
 10
140.5866274564
 20
100.0196696603
 30
0.0
 11
140.5866274564
 21
119.0196690494
 31
0.0
  0
LINE
  5
F1
330
1F
100
AcDbEntity
  8
0
  6
HIDDEN
 62
     7
370
     0
100
AcDbLine
 10
143.5866279482
 20
100.0196696603
 30
0.0
 11
143.5866279482
 21
119.0196690494
 31
0.0
  0
LINE
  5
F2
330
1F
100
AcDbEntity
  8
0
  6
HIDDEN
 62
     7
370
     0
100
AcDbLine
 10
167.2866268037
 20
100.6196695724
 30
0.0
 11
167.2866268037
 21
118.4196691373
 31
0.0
  0
LINE
  5
F3
330
1F
100
AcDbEntity
  8
0
  6
HIDDEN
 62
     7
370
     0
100
AcDbLine
 10
177.7866294562
 20
100.5196697423
 30
0.0
 11
177.7866294562
 21
118.5196689674
 31
0.0
  0
LINE
  5
F4
330
1F
100
AcDbEntity
  8
0
  6
HIDDEN
 62
     7
370
     0
100
AcDbLine
 10
132.236627671
 20
101.0196688929
 30
0.0
 11
132.236627671
 21
118.0196698168
 31
0.0
  0
LINE
  5
F5
330
1F
100
AcDbEntity
  8
0
  6
HIDDEN
 62
     7
370
     0
100
AcDbLine
 10
126.7366277008
 20
78.0355460355
 30
0.0
 11
126.7366277008
 21
83.1196694979
 31
0.0
  0
LINE
  5
F6
330
1F
100
AcDbEntity
  8
0
  6
HIDDEN
 62
     7
370
     0
100
AcDbLine
 10
134.7366280808
 20
83.1196694979
 30
0.0
 11
126.7366277008
 21
83.1196694979
 31
0.0
  0
LINE
  5
F7
330
1F
100
AcDbEntity
  8
0
  6
HIDDEN
 62
     7
370
     0
100
AcDbLine
 10
147.7366274177
 20
83.1196694979
 30
0.0
 11
141.5989527433
 21
83.1196694979
 31
0.0
  0
LINE
  5
F8
330
1F
100
AcDbEntity
  8
0
  6
HIDDEN
 62
     7
370
     0
100
AcDbLine
 10
137.9743030249
 20
83.1196694979
 30
0.0
 11
134.7366280808
 21
83.1196694979
 31
0.0
  0
LINE
  5
F9
330
1F
100
AcDbEntity
  8
0
  6
HIDDEN
 62
     7
370
     0
100
AcDbLine
 10
138.2709255396
 20
135.9196692118
 30
0.0
 11
134.7366280808
 21
135.9196692118
 31
0.0
  0
LINE
  5
FA
330
1F
100
AcDbEntity
  8
0
  6
HIDDEN
 62
     7
370
     0
100
AcDbLine
 10
134.7366280808
 20
135.9196692118
 30
0.0
 11
126.7366277008
 21
135.9196692118
 31
0.0
  0
LINE
  5
FB
330
1F
100
AcDbEntity
  8
0
  6
HIDDEN
 62
     7
370
     0
100
AcDbLine
 10
147.7366274177
 20
135.9196692118
 30
0.0
 11
141.3023302286
 21
135.9196692118
 31
0.0
  0
SPLINE
  5
FC
330
1F
100
AcDbEntity
  8
0
  6
HIDDEN
 62
     7
370
     0
100
AcDbSpline
210
0.0
220
0.0
230
1.0
 70
     8
 71
     3
 72
    11
 73
     7
 74
     0
 42
0.00000001
 43
0.00000001
 40
0.0
 40
0.0
 40
0.0
 40
0.0
 40
0.0008203708524183
 40
0.0008203708524183
 40
0.0008203708524183
 40
0.0016409967870154
 40
0.0016409967870154
 40
0.0016409967870154
 40
0.0016409967870154
 10
91.0366277276219
 20
93.66763660419592
 30
0.0
 10
90.84546942732324
 20
93.62645757557678
 30
0.0
 10
90.65404235725106
 20
93.58770360334678
 30
0.0
 10
90.46239673373043
 20
93.55133584406825
 30
0.0
 10
90.27069132864996
 20
93.51495674030222
 30
0.0
 10
90.07875237659101
 20
93.48096248953465
 30
0.0
 10
89.88662772952019
 20
93.44931436414345
 30
0.0
  0
ELLIPSE
  5
FD
330
1F
100
AcDbEntity
  8
0
  6
HIDDEN
 62
     7
370
     0
100
AcDbEllipse
 10
85.644195859
 20
109.5196693548
 30
0.0
 11
20.19992453367506
 21
-1.421085471520200E-14
 31
0.0
210
0.0
220
0.0
230
1.0
 40
0.8164965809
 41
1.300566354717478
 42
1.359198697209065
  0
LINE
  5
FE
330
1F
100
AcDbEntity
  8
0
  6
HIDDEN
 62
     7
370
     0
100
AcDbLine
 10
99.9866275071
 20
91.5296688089
 30
0.0
 11
99.9866275071
 21
93.2321562776
 31
0.0
  0
LINE
  5
FF
330
1F
100
AcDbEntity
  8
0
  6
HIDDEN
 62
     7
370
     0
100
AcDbLine
 10
91.0366268783
 20
91.5296688089
 30
0.0
 11
91.0366268783
 21
93.6676371255
 31
0.0
  0
LINE
  5
100
330
1F
100
AcDbEntity
  8
0
  6
HIDDEN
 62
     7
370
     0
100
AcDbLine
 10
91.1176593928
 20
93.718178139
 30
0.0
 11
91.0366268783
 21
93.6676371255
 31
0.0
  0
LINE
  5
101
330
1F
100
AcDbEntity
  8
0
  6
HIDDEN
 62
     7
370
     0
100
AcDbLine
 10
95.9866268514
 20
127.5096699008
 30
0.0
 11
95.9866268514
 21
125.8071824321
 31
0.0
  0
LINE
  5
102
330
1F
100
AcDbEntity
  8
0
  6
HIDDEN
 62
     7
370
     0
100
AcDbLine
 10
91.0366268783
 20
127.5096699008
 30
0.0
 11
91.0366268783
 21
125.4142946908
 31
0.0
  0
SPLINE
  5
103
330
1F
100
AcDbEntity
  8
0
  6
HIDDEN
 62
     7
370
     0
100
AcDbSpline
210
0.0
220
0.0
230
1.0
 70
     8
 71
     3
 72
     8
 73
     4
 74
     0
 42
0.00000001
 43
0.00000001
 40
0.0
 40
0.0
 40
0.0
 40
0.0
 40
1.0
 40
1.0
 40
1.0
 40
1.0
 10
91.0366277276219
 20
125.4142938058968
 30
0.0
 10
91.08663322656535
 20
125.3832580316779
 30
0.0
 10
91.13663329722948
 20
125.3522133866505
 30
0.0
 10
91.18662773101433
 20
125.3211597908703
 30
0.0
  0
LINE
  5
104
330
1F
100
AcDbEntity
  8
0
  6
HIDDEN
 62
     7
370
     0
100
AcDbLine
 10
166.7866295158
 20
104.0196693846
 30
0.0
 11
166.7866295158
 21
115.019669325
 31
0.0
  0
LINE
  5
105
330
1F
100
AcDbEntity
  8
0
  6
HIDDEN
 62
     7
370
     0
100
AcDbLine
 10
144.0055089025
 20
105.3196695046
 30
0.0
 11
144.0055089025
 21
113.7196692051
 31
0.0
  0
LINE
  5
106
330
1F
100
AcDbEntity
  8
0
  6
HIDDEN
 62
     7
370
     0
100
AcDbLine
 10
144.7866277723
 20
104.0196693846
 30
0.0
 11
144.7866277723
 21
115.019669325
 31
0.0
  0
SPLINE
  5
107
330
1F
100
AcDbEntity
  8
0
  6
HIDDEN
 62
     7
370
     0
100
AcDbSpline
210
0.0
220
0.0
230
1.0
 70
     8
 71
     3
 72
    20
 73
    16
 74
     0
 42
0.00000001
 43
0.00000001
 40
0.0
 40
0.0
 40
0.0
 40
0.0
 40
0.1118915819920153
 40
0.1774107625362046
 40
0.2490322973509493
 40
0.3297807334523656
 40
0.3985530998867813
 40
0.4998328149081016
 40
0.6137979246879829
 40
0.6789638136926828
 40
0.7494903025231547
 40
0.8296362542061562
 40
0.8980799123454786
 40
0.9994902866392679
 40
1.0
 40
1.0
 40
1.0
 40
1.0
 10
116.5353225498141
 20
85.91971503285816
 30
0.0
 10
116.4920191681084
 20
85.93313624564506
 30
0.0
 10
116.4233590791899
 20
85.95441637728939
 30
0.0
 10
115.978285157901
 20
86.05770656668514
 30
0.0
 10
115.4517320065795
 20
86.17100563039331
 30
0.0
 10
114.7663053566399
 20
86.29394063531761
 30
0.0
 10
113.8729886045805
 20
86.41597522899966
 30
0.0
 10
112.7596288229038
 20
86.53371091148534
 30
0.0
 10
111.648854623619
 20
86.5456847321684
 30
0.0
 10
110.7641066235549
 20
86.51862929278646
 30
0.0
 10
110.0969093188315
 20
86.47069587159065
 30
0.0
 10
109.5556390740309
 20
86.4144002147237
 30
0.0
 10
109.168050518088
 20
86.36932299970898
 30
0.0
 10
108.9740948425581
 20
86.33042770382748
 30
0.0
 10
109.0372749828805
 20
86.34116118701468
 30
0.0
 10
109.0375909535826
 20
86.34121486632279
 30
0.0
  0
LINE
  5
108
330
1F
100
AcDbEntity
  8
0
  6
HIDDEN
 62
     7
370
     0
100
AcDbLine
 10
109.9466400175
 20
86.4520068624
 30
0.0
 11
110.1304849564
 21
86.470197455
 31
0.0
  0
SPLINE
  5
109
330
1F
100
AcDbEntity
  8
0
  6
HIDDEN
 62
     7
370
     0
100
AcDbSpline
210
0.0
220
0.0
230
1.0
 70
     8
 71
     3
 72
    27
 73
    23
 74
     0
 42
0.00000001
 43
0.00000001
 40
0.0
 40
0.0
 40
0.0
 40
0.0
 40
0.0007935990916085
 40
0.0456759572514214
 40
0.1022574281829215
 40
0.1705352829035527
 40
0.209126807664938
 40
0.2506539043581524
 40
0.3210994211781719
 40
0.3861929494662675
 40
0.4266719823126624
 40
0.4648031132978001
 40
0.5006072542076082
 40
0.5451989310595897
 40
0.6016929886457165
 40
0.6700986885572707
 40
0.7088359233778851
 40
0.7505645028131379
 40
0.8222288655750707
 40
0.8877680512732021
 40
0.9472416066552235
 40
0.9999999999999999
 40
0.9999999999999999
 40
0.9999999999999999
 40
0.9999999999999999
 10
109.037283617133
 20
132.6980865904515
 30
0.0
 10
109.0370656347164
 20
132.6981333372481
 30
0.0
 10
109.0245195574248
 20
132.7008238704207
 30
0.0
 10
109.0735850332339
 20
132.6890140191403
 30
0.0
 10
109.2186919124961
 20
132.665562978264
 30
0.0
 10
109.4917431902425
 20
132.6316585613872
 30
0.0
 10
109.8202691941837
 20
132.5980902063622
 30
0.0
 10
110.2129971105036
 20
132.5599073752436
 30
0.0
 10
110.7627249473186
 20
132.5209392034632
 30
0.0
 10
111.3887475683688
 20
132.5014775980736
 30
0.0
 10
111.9319394104922
 20
132.4992924382674
 30
0.0
 10
112.3770081595093
 20
132.5078071603137
 30
0.0
 10
112.8434560138819
 20
132.5275907102409
 30
0.0
 10
113.3806969405575
 20
132.5717505923099
 30
0.0
 10
114.0289099043001
 20
132.6441704260568
 30
0.0
 10
114.6144490724642
 20
132.7250680910278
 30
0.0
 10
115.0954181190884
 20
132.8032374293887
 30
0.0
 10
115.5408334551067
 20
132.8880080575624
 30
0.0
 10
115.9793327378328
 20
132.9817926325548
 30
0.0
 10
116.3183595744895
 20
133.0596954119609
 30
0.0
 10
116.5057139359337
 20
133.1098899262151
 30
0.0
 10
116.526204406599
 20
133.1165580291586
 30
0.0
 10
116.5358366398753
 20
133.1196925946896
 30
0.0
  0
ELLIPSE
  5
10A
330
1F
100
AcDbEntity
  8
0
  6
HIDDEN
 62
     7
370
     0
100
AcDbEllipse
 10
85.7941958633
 20
109.5196693548
 30
0.0
 11
19.9401169077032
 21
-1.421085471520200E-14
 31
0.0
210
0.0
220
0.0
230
1.0
 40
0.8164965809
 41
1.312549137476567
 42
1.364091388456587
  0
LINE
  5
10B
330
1F
100
AcDbEntity
  8
0
  6
HIDDEN
 62
     7
370
     0
100
AcDbLine
 10
91.0366268783
 20
125.4142946908
 30
0.0
 11
91.0366268783
 21
125.3211605707
 31
0.0
  0
LINE
  5
10C
330
1F
100
AcDbEntity
  8
0
  6
HIDDEN
 62
     7
370
     0
100
AcDbLine
 10
91.0366268783
 20
93.6676371255
 30
0.0
 11
91.0366268783
 21
93.718178139
 31
0.0
  0
ELLIPSE
  5
10D
330
1F
100
AcDbEntity
  8
0
  6
HIDDEN
 62
     7
370
     0
100
AcDbEllipse
 10
85.7941958633
 20
109.5196693548
 30
0.0
 11
19.9401169077032
 21
-1.421085471520200E-14
 31
0.0
210
0.0
220
0.0
230
1.0
 40
0.8164965809
 41
4.919093918723012
 42
4.970636169703032
  0
SPLINE
  5
10E
330
1F
100
AcDbEntity
  8
0
  6
HIDDEN
 62
     7
370
     0
100
AcDbSpline
210
0.0
220
0.0
230
1.0
 70
     8
 71
     3
 72
    11
 73
     7
 74
     0
 42
0.00000001
 43
0.00000001
 40
0.0
 40
0.0
 40
0.0
 40
0.0
 40
0.0005781292547901
 40
0.0005781292547901
 40
0.0005781292547901
 40
0.0011562593522366
 40
0.0011562593522366
 40
0.0011562593522366
 40
0.0011562593522366
 10
90.8866277276219
 20
95.050315973322
 30
0.0
 10
90.7199795636814
 20
94.96296296729311
 30
0.0
 10
90.55332175677484
 20
94.87567479065629
 30
0.0
 10
90.38665500795496
 20
94.78845032858939
 30
0.0
 10
90.21998801563736
 20
94.70122573908878
 30
0.0
 10
90.05331201969669
 20
94.61406484956187
 30
0.0
 10
89.88662772762184
 20
94.52696599742468
 30
0.0
  0
LWPOLYLINE
  5
10F
330
1F
100
AcDbEntity
  8
0
  6
HIDDEN
 62
     7
370
     0
100
AcDbPolyline
 90
        3
 70
   128
 43
0.0
 10
89.8866279005
 20
124.5123115712
 10
90.3866363643
 20
124.2508362391
 10
90.8866280644
 20
123.9893450746
  0
LINE
  5
110
330
1F
100
AcDbEntity
  8
0
  6
HIDDEN
 62
     7
370
     0
100
AcDbLine
 10
137.8766277759
 20
129.7011706391
 30
0.0
 11
137.8766277759
 21
129.3696700939
 31
0.0
  0
LINE
  5
111
330
1F
100
AcDbEntity
  8
0
  6
HIDDEN
 62
     7
370
     0
100
AcDbLine
 10
141.6966279923
 20
129.7011706391
 30
0.0
 11
141.6966279923
 21
129.3696700939
 31
0.0
  0
LINE
  5
112
330
1F
100
AcDbEntity
  8
0
  6
HIDDEN
 62
     7
370
     0
100
AcDbLine
 10
143.1785596489
 20
133.97835897
 30
0.0
 11
143.1785596489
 21
129.3696700939
 31
0.0
  0
CIRCLE
  5
113
330
1F
100
AcDbEntity
  8
0
  6
HIDDEN
 62
     7
370
     0
100
AcDbCircle
 10
128.7866277276
 20
109.5196693548
 30
0.0
 40
5.0
  0
LINE
  5
114
330
1F
100
AcDbEntity
  8
0
  6
HIDDEN
 62
     7
370
     0
100
AcDbLine
 10
167.2866268037
 20
103.5196693027
 30
0.0
 11
167.786627817
 21
104.0196693846
 31
0.0
  0
LINE
  5
115
330
1F
100
AcDbEntity
  8
0
  6
HIDDEN
 62
     7
370
     0
100
AcDbLine
 10
167.786627817
 20
115.019669325
 30
0.0
 11
167.2866268037
 21
115.519669407
 31
0.0
  0
LINE
  5
116
330
1F
100
AcDbEntity
  8
0
  6
HIDDEN
 62
     7
370
     0
100
AcDbLine
 10
152.2866280703
 20
103.5196693027
 30
0.0
 11
167.2866268037
 21
103.5196693027
 31
0.0
  0
LINE
  5
117
330
1F
100
AcDbEntity
  8
0
  6
HIDDEN
 62
     7
370
     0
100
AcDbLine
 10
167.2866268037
 20
115.519669407
 30
0.0
 11
152.2866280703
 21
115.519669407
 31
0.0
  0
LINE
  5
118
330
1F
100
AcDbEntity
  8
0
  6
HIDDEN
 62
     7
370
     0
100
AcDbLine
 10
152.2866280703
 20
115.519669407
 30
0.0
 11
151.7866270571
 21
115.019669325
 31
0.0
  0
LINE
  5
119
330
1F
100
AcDbEntity
  8
0
  6
HIDDEN
 62
     7
370
     0
100
AcDbLine
 10
151.7866270571
 20
104.0196693846
 30
0.0
 11
152.2866280703
 21
103.5196693027
 31
0.0
  0
LINE
  5
11A
330
1F
100
AcDbEntity
  8
0
  6
HIDDEN
 62
     7
370
     0
100
AcDbLine
 10
167.786627817
 20
104.0196693846
 30
0.0
 11
171.7866284727
 21
104.0196693846
 31
0.0
  0
LINE
  5
11B
330
1F
100
AcDbEntity
  8
0
  6
HIDDEN
 62
     7
370
     0
100
AcDbLine
 10
171.7866284727
 20
115.019669325
 30
0.0
 11
167.786627817
 21
115.019669325
 31
0.0
  0
LINE
  5
11C
330
1F
100
AcDbEntity
  8
0
  6
HIDDEN
 62
     7
370
     0
100
AcDbLine
 10
158.7866282045
 20
106.5196693288
 30
0.0
 11
164.7866291879
 21
106.5196693288
 31
0.0
  0
LINE
  5
11D
330
1F
100
AcDbEntity
  8
0
  6
HIDDEN
 62
     7
370
     0
100
AcDbLine
 10
164.7866291879
 20
112.5196693809
 30
0.0
 11
158.7866282045
 21
112.5196693809
 31
0.0
  0
LINE
  5
11E
330
1F
100
AcDbEntity
  8
0
  6
HIDDEN
 62
     7
370
     0
100
AcDbLine
 10
133.7866278319
 20
121.913609595
 30
0.0
 11
133.7866278319
 21
123.8196888351
 31
0.0
  0
LINE
  5
11F
330
1F
100
AcDbEntity
  8
0
  6
HIDDEN
 62
     7
370
     0
100
AcDbLine
 10
125.7866279176
 20
123.8203696319
 30
0.0
 11
125.7866279176
 21
121.913609595
 31
0.0
  0
LINE
  5
120
330
1F
100
AcDbEntity
  8
0
  6
HIDDEN
 62
     7
370
     0
100
AcDbLine
 10
121.7866277276
 20
84.1957382271
 30
0.0
 11
121.8807884999
 21
84.8657260993
 31
0.0
  0
LINE
  5
121
330
1F
100
AcDbEntity
  8
0
  6
HIDDEN
 62
     7
370
     0
100
AcDbLine
 10
121.8807884999
 20
134.1736126104
 30
0.0
 11
121.7866277276
 21
134.8436004826
 31
0.0
  0
ARC
  5
122
330
1F
100
AcDbEntity
  8
0
  6
HIDDEN
 62
     7
370
     0
100
AcDbCircle
 10
121.286620975
 20
84.9492317404
 30
0.0
 40
0.6000067526677101
100
AcDbArc
 50
352.0
 51
0.0
  0
ARC
  5
123
330
1F
100
AcDbEntity
  8
0
  6
HIDDEN
 62
     7
370
     0
100
AcDbCircle
 10
121.286620975
 20
84.9492317404
 30
0.0
 40
0.6000067526677164
100
AcDbArc
 50
0.0
 51
33.5571153394
  0
ARC
  5
124
330
1F
100
AcDbEntity
  8
0
  6
HIDDEN
 62
     7
370
     0
100
AcDbCircle
 10
121.286620975
 20
134.0901069692
 30
0.0
 40
0.6000067526677169
100
AcDbArc
 50
348.75
 51
8.0
  0
LWPOLYLINE
  5
125
330
1F
100
AcDbEntity
  8
0
  6
HIDDEN
 62
     7
370
     0
100
AcDbPolyline
 90
        3
 70
   128
 43
0.0
 10
121.8750987665
 20
133.9730522939
 10
121.8409549348
 20
133.8604945102
 10
121.7866277276
 20
133.7584420451
  0
LINE
  5
126
330
1F
100
AcDbEntity
  8
0
  6
HIDDEN
 62
     7
370
     0
100
AcDbLine
 10
121.8866277251
 20
84.9492322066
 30
0.0
 11
121.8866277251
 21
134.0901065031
 31
0.0
  0
LINE
  5
127
330
1F
100
AcDbEntity
  8
0
  6
HIDDEN
 62
     7
370
     0
100
AcDbLine
 10
104.8690637528
 20
89.5196698019
 30
0.0
 11
109.0465996368
 21
89.5196698019
 31
0.0
  0
LINE
  5
128
330
1F
100
AcDbEntity
  8
0
  6
HIDDEN
 62
     7
370
     0
100
AcDbLine
 10
109.0397451027
 20
129.5196689078
 30
0.0
 11
104.8690637528
 21
129.5196689078
 31
0.0
  0
ARC
  5
129
330
1F
100
AcDbEntity
  8
0
  6
HIDDEN
 62
     7
370
     0
100
AcDbCircle
 10
104.8690632929
 20
90.1196693548
 30
0.0
 40
0.6000000000000085
100
AcDbArc
 50
210.0
 51
270.0
  0
ARC
  5
12A
330
1F
100
AcDbEntity
  8
0
  6
HIDDEN
 62
     7
370
     0
100
AcDbCircle
 10
104.8690632929
 20
128.9196693548
 30
0.0
 40
0.6000000000000227
100
AcDbArc
 50
90.0
 51
150.0
  0
ARC
  5
12B
330
1F
100
AcDbEntity
  8
0
  6
HIDDEN
 62
     7
370
     0
100
AcDbCircle
 10
115.5416297292
 20
97.5196693548
 30
0.0
 40
8.000000000000016
100
AcDbArc
 50
277.0501761091
 51
321.3178125465
  0
ARC
  5
12C
330
1F
100
AcDbEntity
  8
0
  6
HIDDEN
 62
     7
370
     0
100
AcDbCircle
 10
115.5416297292
 20
121.5196693548
 30
0.0
 40
8.000000000000016
100
AcDbArc
 50
38.6821874535
 51
82.8507911168
  0
LINE
  5
12D
330
1F
100
AcDbEntity
  8
0
  6
HIDDEN
 62
     7
370
     0
100
AcDbLine
 10
104.3494472234
 20
129.2196694174
 30
0.0
 11
102.7906032233
 21
126.5196702787
 31
0.0
  0
LINE
  5
12E
330
1F
100
AcDbEntity
  8
0
  6
HIDDEN
 62
     7
370
     0
100
AcDbLine
 10
102.7906032233
 20
92.519668431
 30
0.0
 11
104.3494472234
 21
89.8196692923
 31
0.0
  0
LINE
  5
12F
330
1F
100
AcDbEntity
  8
0
  6
HIDDEN
 62
     7
370
     0
100
AcDbLine
 10
133.7866278319
 20
133.4652710119
 30
0.0
 11
133.7866278319
 21
136.7939985701
 31
0.0
  0
LINE
  5
130
330
1F
100
AcDbEntity
  8
0
  6
HIDDEN
 62
     7
370
     0
100
AcDbLine
 10
125.7866279176
 20
136.7994691589
 30
0.0
 11
125.7866279176
 21
133.4652710119
 31
0.0
  0
ARC
  5
131
330
1F
100
AcDbEntity
  8
0
  6
HIDDEN
 62
     7
370
     0
100
AcDbCircle
 10
130.2366277276
 20
93.7946693548
 30
0.0
 40
1.500000000000001
100
AcDbArc
 50
238.2116693829
 51
0.0
  0
ARC
  5
132
330
1F
100
AcDbEntity
  8
0
  6
HIDDEN
 62
     7
370
     0
100
AcDbCircle
 10
130.2366277276
 20
125.2446693548
 30
0.0
 40
1.500000000000013
100
AcDbArc
 50
0.0
 51
121.7883306171
  0
LINE
  5
133
330
1F
100
AcDbEntity
  8
0
  6
HIDDEN
 62
     7
370
     0
100
AcDbLine
 10
99.9866275071
 20
92.519668431
 30
0.0
 11
102.7906032233
 21
92.519668431
 31
0.0
  0
LINE
  5
134
330
1F
100
AcDbEntity
  8
0
  6
HIDDEN
 62
     7
370
     0
100
AcDbLine
 10
102.7906032233
 20
126.5196702787
 30
0.0
 11
95.9866268514
 21
126.5196702787
 31
0.0
  0
LINE
  5
135
330
1F
100
AcDbEntity
  8
0
  6
HIDDEN
 62
     7
370
     0
100
AcDbLine
 10
121.7866277276
 20
92.519668431
 30
0.0
 11
129.4464536897
 21
92.519668431
 31
0.0
  0
LINE
  5
136
330
1F
100
AcDbEntity
  8
0
  6
HIDDEN
 62
     7
370
     0
100
AcDbLine
 10
129.4464536897
 20
126.5196702787
 30
0.0
 11
121.7866277276
 21
126.5196702787
 31
0.0
  0
ARC
  5
137
330
1F
100
AcDbEntity
  8
0
  6
HIDDEN
 62
     7
370
     0
100
AcDbCircle
 10
216.2866277276
 20
99.4829751068
 30
0.0
 40
0.5000000000000568
100
AcDbArc
 50
0.0
 51
80.0
  0
ARC
  5
138
330
1F
100
AcDbEntity
  8
0
  6
HIDDEN
 62
     7
370
     0
100
AcDbCircle
 10
216.2866277276
 20
119.5563636029
 30
0.0
 40
0.5000000000000568
100
AcDbArc
 50
280.0
 51
0.0
  0
LINE
  5
139
330
1F
100
AcDbEntity
  8
0
  6
HIDDEN
 62
     7
370
     0
100
AcDbLine
 10
216.3734545885
 20
119.063959957
 30
0.0
 11
213.2866268932
 21
118.5196689674
 31
0.0
  0
LINE
  5
13A
330
1F
100
AcDbEntity
  8
0
  6
HIDDEN
 62
     7
370
     0
100
AcDbLine
 10
213.2866268932
 20
100.5196697423
 30
0.0
 11
216.3734545885
 21
99.9753787526
 31
0.0
  0
LINE
  5
13B
330
1F
100
AcDbEntity
  8
0
  6
HIDDEN
 62
     7
370
     0
100
AcDbLine
 10
140.5866274564
 20
100.0196696603
 30
0.0
 11
143.5866279482
 21
100.0196696603
 31
0.0
  0
LINE
  5
13C
330
1F
100
AcDbEntity
  8
0
  6
HIDDEN
 62
     7
370
     0
100
AcDbLine
 10
143.5866279482
 20
119.0196690494
 30
0.0
 11
140.5866274564
 21
119.0196690494
 31
0.0
  0
ARC
  5
13D
330
1F
100
AcDbEntity
  8
0
  6
HIDDEN
 62
     7
370
     0
100
AcDbCircle
 10
176.8918537095
 20
100.6196693548
 30
0.0
 40
0.4000000000000427
100
AcDbArc
 50
270.0
 51
290.0
  0
ARC
  5
13E
330
1F
100
AcDbEntity
  8
0
  6
HIDDEN
 62
     7
370
     0
100
AcDbCircle
 10
176.8918537095
 20
118.4196693548
 30
0.0
 40
0.4000000000000483
100
AcDbArc
 50
70.0
 51
90.0
  0
LINE
  5
13F
330
1F
100
AcDbEntity
  8
0
  6
HIDDEN
 62
     7
370
     0
100
AcDbLine
 10
167.6866261243
 20
100.2196693206
 30
0.0
 11
176.8918519794
 21
100.2196693206
 31
0.0
  0
LINE
  5
140
330
1F
100
AcDbEntity
  8
0
  6
HIDDEN
 62
     7
370
     0
100
AcDbLine
 10
176.8918519794
 20
118.8196693891
 30
0.0
 11
167.6866261243
 21
118.8196693891
 31
0.0
  0
ARC
  5
141
330
1F
100
AcDbEntity
  8
0
  6
HIDDEN
 62
     7
370
     0
100
AcDbCircle
 10
167.6866277276
 20
100.6196693548
 30
0.0
 40
0.4000000000000057
100
AcDbArc
 50
180.0
 51
270.0
  0
ARC
  5
142
330
1F
100
AcDbEntity
  8
0
  6
HIDDEN
 62
     7
370
     0
100
AcDbCircle
 10
167.6866277276
 20
118.4196693548
 30
0.0
 40
0.4000000000000199
100
AcDbArc
 50
90.0
 51
180.0
  0
LINE
  5
143
330
1F
100
AcDbEntity
  8
0
  6
HIDDEN
 62
     7
370
     0
100
AcDbLine
 10
177.0286632656
 20
100.2437924379
 30
0.0
 11
177.7866294562
 21
100.5196697423
 31
0.0
  0
LINE
  5
144
330
1F
100
AcDbEntity
  8
0
  6
HIDDEN
 62
     7
370
     0
100
AcDbLine
 10
177.7866294562
 20
118.5196689674
 30
0.0
 11
177.0286632656
 21
118.7955462718
 31
0.0
  0
LINE
  5
145
330
1F
100
AcDbEntity
  8
0
  6
HIDDEN
 62
     7
370
     0
100
AcDbLine
 10
131.736627589
 20
100.5196697423
 30
0.0
 11
132.236627671
 21
101.0196688929
 31
0.0
  0
LINE
  5
146
330
1F
100
AcDbEntity
  8
0
  6
HIDDEN
 62
     7
370
     0
100
AcDbLine
 10
132.236627671
 20
118.0196698168
 30
0.0
 11
131.736627589
 21
118.5196689674
 31
0.0
  0
LINE
  5
147
330
1F
100
AcDbEntity
  8
0
  6
HIDDEN
 62
     7
370
     0
100
AcDbLine
 10
177.7866294562
 20
100.5196697423
 30
0.0
 11
213.2866268932
 21
100.5196697423
 31
0.0
  0
LINE
  5
148
330
1F
100
AcDbEntity
  8
0
  6
HIDDEN
 62
     7
370
     0
100
AcDbLine
 10
213.2866268932
 20
118.5196689674
 30
0.0
 11
177.7866294562
 21
118.5196689674
 31
0.0
  0
LINE
  5
149
330
1F
100
AcDbEntity
  8
0
  6
HIDDEN
 62
     7
370
     0
100
AcDbLine
 10
132.236627671
 20
101.0196688929
 30
0.0
 11
140.5866274564
 21
101.0196688929
 31
0.0
  0
LINE
  5
14A
330
1F
100
AcDbEntity
  8
0
  6
HIDDEN
 62
     7
370
     0
100
AcDbLine
 10
140.5866274564
 20
118.0196698168
 30
0.0
 11
132.236627671
 21
118.0196698168
 31
0.0
  0
LINE
  5
14B
330
1F
100
AcDbEntity
  8
0
  6
HIDDEN
 62
     7
370
     0
100
AcDbLine
 10
126.7366277008
 20
141.0196698615
 30
0.0
 11
126.7366277008
 21
135.9196692118
 31
0.0
  0
LINE
  5
14C
330
1F
100
AcDbEntity
  8
0
  6
HIDDEN
 62
     7
370
     0
100
AcDbLine
 10
167.2866268037
 20
115.519669407
 30
0.0
 11
166.7866295158
 21
115.019669325
 31
0.0
  0
LINE
  5
14D
330
1F
100
AcDbEntity
  8
0
  6
HIDDEN
 62
     7
370
     0
100
AcDbLine
 10
166.7866295158
 20
104.0196693846
 30
0.0
 11
167.2866268037
 21
103.5196693027
 31
0.0
  0
LINE
  5
14E
330
1F
100
AcDbEntity
  8
0
  6
HIDDEN
 62
     7
370
     0
100
AcDbLine
 10
144.7866277723
 20
115.019669325
 30
0.0
 11
144.0055089025
 21
113.7196692051
 31
0.0
  0
LINE
  5
14F
330
1F
100
AcDbEntity
  8
0
  6
HIDDEN
 62
     7
370
     0
100
AcDbLine
 10
144.0055089025
 20
105.3196695046
 30
0.0
 11
144.7866277723
 21
104.0196693846
 31
0.0
  0
LINE
  5
150
330
1F
100
AcDbEntity
  8
0
  6
HIDDEN
 62
     7
370
     0
100
AcDbLine
 10
144.7866277723
 20
104.0196693846
 30
0.0
 11
166.7866295158
 21
104.0196693846
 31
0.0
  0
LINE
  5
151
330
1F
100
AcDbEntity
  8
0
  6
HIDDEN
 62
     7
370
     0
100
AcDbLine
 10
166.7866295158
 20
115.019669325
 30
0.0
 11
144.7866277723
 21
115.019669325
 31
0.0
  0
LINE
  5
152
330
1F
100
AcDbEntity
  8
0
  6
HIDDEN
 62
     7
370
     0
100
AcDbLine
 10
116.9710655651
 20
85.4402981111
 30
0.0
 11
116.5366333863
 21
85.9193648556
 31
0.0
  0
LINE
  5
153
330
1F
100
AcDbEntity
  8
0
  6
HIDDEN
 62
     7
370
     0
100
AcDbLine
 10
109.0366298287
 20
86.3410528162
 30
0.0
 11
108.5541963531
 21
85.8619860717
 31
0.0
  0
LINE
  5
154
330
1F
100
AcDbEntity
  8
0
  6
HIDDEN
 62
     7
370
     0
100
AcDbLine
 10
108.5540743499
 20
133.17734705
 30
0.0
 11
109.0366251721
 21
132.6982262888
 31
0.0
  0
LINE
  5
155
330
1F
100
AcDbEntity
  8
0
  6
HIDDEN
 62
     7
370
     0
100
AcDbLine
 10
116.5366277984
 20
133.1199254253
 30
0.0
 11
116.9711698732
 21
133.5990443238
 31
0.0
  0
LINE
  5
156
330
1F
100
AcDbEntity
  8
0
  6
HIDDEN
 62
     7
370
     0
100
AcDbLine
 10
143.5866279482
 20
105.3196695046
 30
0.0
 11
144.0055089025
 21
105.3196695046
 31
0.0
  0
LINE
  5
157
330
1F
100
AcDbEntity
  8
0
  6
HIDDEN
 62
     7
370
     0
100
AcDbLine
 10
144.0055089025
 20
113.7196692051
 30
0.0
 11
143.5866279482
 21
113.7196692051
 31
0.0
  0
LINE
  5
158
330
1F
100
AcDbEntity
  8
0
  6
HIDDEN
 62
     7
370
     0
100
AcDbLine
 10
116.5366277984
 20
129.4575049886
 30
0.0
 11
116.5366277984
 21
133.11963299
 31
0.0
  0
LINE
  5
159
330
1F
100
AcDbEntity
  8
0
  6
HIDDEN
 62
     7
370
     0
100
AcDbLine
 10
109.036627966
 20
132.6980828652
 30
0.0
 11
109.036627966
 21
129.5190858999
 31
0.0
  0
LINE
  5
15A
330
1F
100
AcDbEntity
  8
0
  6
HIDDEN
 62
     7
370
     0
100
AcDbLine
 10
116.5366277984
 20
85.9198472807
 30
0.0
 11
116.5366277984
 21
89.5825974056
 31
0.0
  0
LINE
  5
15B
330
1F
100
AcDbEntity
  8
0
  6
HIDDEN
 62
     7
370
     0
100
AcDbLine
 10
109.036627966
 20
89.521532447
 30
0.0
 11
109.036627966
 21
86.3413750538
 31
0.0
  0
DIMENSION
  5
15C
330
1F
100
AcDbEntity
  8
VERMASSUNG
100
AcDbDimension
  2
*D1
 10
216.7866277276
 20
145.0196693548
 30
0.0
 11
192.0366277276
 21
145.0196693548
 31
0.0
 70
   160
 71
     2
 42
-1.0
  3
SLDDIMSTYLE0
100
AcDbAlignedDimension
 13
167.2866277276
 23
118.4196693548
 33
0.0
 14
216.7866277276
 24
124.1708883715
 34
0.0
100
AcDbRotatedDimension
  0
DIMENSION
  5
167
330
1F
100
AcDbEntity
  8
VERMASSUNG
100
AcDbDimension
  2
*D2
 10
224.0992567599
 20
118.5196693548
 30
0.0
 11
224.0992567599
 21
109.5196693548
 31
0.0
 70
   160
  1
%%c<>
 71
     2
 42
-1.0
  3
SLDDIMSTYLE1
100
AcDbAlignedDimension
 13
213.2866277276
 23
100.5196693548
 33
0.0
 14
213.2866277276
 24
118.5196693548
 34
0.0
 50
90.0
100
AcDbRotatedDimension
  0
DIMENSION
  5
173
330
1F
100
AcDbEntity
  8
VERMASSUNG
100
AcDbDimension
  2
*D3
 10
230.0992567599
 20
126.0196693548
 30
0.0
 11
230.0992567599
 21
109.5196693548
 31
0.0
 70
   160
  1
%%c<>
 71
     2
 42
-1.0
  3
SLDDIMSTYLE2
100
AcDbAlignedDimension
 13
216.7866277276
 23
93.0196693548
 33
0.0
 14
216.7866277276
 24
126.0196693548
 34
0.0
 50
90.0
100
AcDbRotatedDimension
  0
DIMENSION
  5
17F
330
1F
100
AcDbEntity
  8
VERMASSUNG
100
AcDbDimension
  2
*D4
 10
236.0992567599
 20
130.0196693548
 30
0.0
 11
236.0992567599
 21
109.5196693548
 31
0.0
 70
   160
  1
%%c<>
 71
     2
 42
-1.0
  3
SLDDIMSTYLE2
100
AcDbAlignedDimension
 13
150.7366277276
 23
89.0196693548
 33
0.0
 14
150.7366277276
 24
130.0196693548
 34
0.0
 50
90.0
100
AcDbRotatedDimension
  0
DIMENSION
  5
18A
330
1F
100
AcDbEntity
  8
VERMASSUNG
100
AcDbDimension
  2
*D5
 10
216.7866277276
 20
157.0196693548
 30
0.0
 11
169.2866277276
 21
157.0196693548
 31
0.0
 70
   160
 71
     2
 42
-1.0
  3
SLDDIMSTYLE3
100
AcDbAlignedDimension
 13
121.7866277276
 23
140.7196693548
 33
0.0
 14
216.7866277276
 24
124.1708883715
 34
0.0
100
AcDbRotatedDimension
  0
DIMENSION
  5
195
330
1F
100
AcDbEntity
  8
VERMASSUNG
100
AcDbDimension
  2
*D6
 10
216.7866277276
 20
151.0196693548
 30
0.0
 11
182.2616277276
 21
151.0196693548
 31
0.0
 70
   160
 71
     2
 42
-1.0
  3
SLDDIMSTYLE3
100
AcDbAlignedDimension
 13
147.7366277276
 23
139.3661096786
 33
0.0
 14
216.7866277276
 24
124.1708883715
 34
0.0
100
AcDbRotatedDimension
  0
DIMENSION
  5
19F
330
1F
100
AcDbEntity
  8
VERMASSUNG
100
AcDbDimension
  2
*D7
 10
216.7866277276
 20
163.0196693548
 30
0.0
 11
153.3366277276
 21
163.0196693548
 31
0.0
 70
   160
 71
     2
 42
-1.0
  3
SLDDIMSTYLE3
100
AcDbAlignedDimension
 13
89.8866277276
 23
129.2103471013
 33
0.0
 14
216.7866277276
 24
124.1708883715
 34
0.0
100
AcDbRotatedDimension
  0
DIMENSION
  5
1A9
330
1F
100
AcDbEntity
  8
VERMASSUNG
100
AcDbDimension
  2
*D8
 10
79.7413238853
 20
78.0196693548
 30
0.0
 11
79.7413238853
 21
109.5196693548
 31
0.0
 70
   160
  1
HSK A %%c<>
 71
     2
 42
-1.0
  3
SLDDIMSTYLE3
100
AcDbAlignedDimension
 13
122.0866277276
 23
141.0196693548
 33
0.0
 14
122.0866277276
 24
78.0196693548
 34
0.0
 50
90.0
100
AcDbRotatedDimension
  0
LINE
  5
1B5
330
1F
100
AcDbEntity
  8
VERMASSUNG
  6
CENTERX2
370
     0
100
AcDbLine
 10
84.12525
 20
109.5196693548
 30
0.0
 11
218.9824112903
 21
109.5196693548
 31
0.0
  0
OLE2FRAME
  5
1B6
330
1F
100
AcDbEntity
  8
0
100
AcDbOle2Frame
 70
     2
  3
Bitmap Image
 10
13.8511154363
 20
38.264191557
 30
0.0
 11
51.6290888628
 21
31.9806341108
 31
0.0
 71
     2
 72
     0
 73
     1
 90
    12928
310
80552BED0767C5B32B40DDAF6807D121434000000000000000006FFBDDFB85D0
310
4940DDAF6807D121434000000000000000006FFBDDFB85D04940416F4BD60AFB
310
3F4000000000000000002BED0767C5B32B40416F4BD60AFB3F40000000000000
310
0000000000000100000000010000010000000100000000000100000000320000
310
D0CF11E0A1B11AE1000000000000000000000000000000003E000300FEFF0900
310
0600000000000000000000000100000001000000000000000010000002000000
310
01000000FEFFFFFF0000000000000000FFFFFFFFFFFFFFFFFFFFFFFFFFFFFFFF
310
FFFFFFFFFFFFFFFFFFFFFFFFFFFFFFFFFFFFFFFFFFFFFFFFFFFFFFFFFFFFFFFF
310
FFFFFFFFFFFFFFFFFFFFFFFFFFFFFFFFFFFFFFFFFFFFFFFFFFFFFFFFFFFFFFFF
310
FFFFFFFFFFFFFFFFFFFFFFFFFFFFFFFFFFFFFFFFFFFFFFFFFFFFFFFFFFFFFFFF
310
FFFFFFFFFFFFFFFFFFFFFFFFFFFFFFFFFFFFFFFFFFFFFFFFFFFFFFFFFFFFFFFF
310
FFFFFFFFFFFFFFFFFFFFFFFFFFFFFFFFFFFFFFFFFFFFFFFFFFFFFFFFFFFFFFFF
310
FFFFFFFFFFFFFFFFFFFFFFFFFFFFFFFFFFFFFFFFFFFFFFFFFFFFFFFFFFFFFFFF
310
FFFFFFFFFFFFFFFFFFFFFFFFFFFFFFFFFFFFFFFFFFFFFFFFFFFFFFFFFFFFFFFF
310
FFFFFFFFFFFFFFFFFFFFFFFFFFFFFFFFFFFFFFFFFFFFFFFFFFFFFFFFFFFFFFFF
310
FFFFFFFFFFFFFFFFFFFFFFFFFFFFFFFFFFFFFFFFFFFFFFFFFFFFFFFFFFFFFFFF
310
FFFFFFFFFFFFFFFFFFFFFFFFFFFFFFFFFFFFFFFFFFFFFFFFFFFFFFFFFFFFFFFF
310
FFFFFFFFFFFFFFFFFFFFFFFFFFFFFFFFFFFFFFFFFFFFFFFFFFFFFFFFFFFFFFFF
310
FFFFFFFFFFFFFFFFFFFFFFFFFFFFFFFFFFFFFFFFFFFFFFFFFFFFFFFFFFFFFFFF
310
FFFFFFFFFFFFFFFFFFFFFFFFFFFFFFFFFFFFFFFFFFFFFFFFFFFFFFFFFFFFFFFF
310
FDFFFFFFFEFFFFFFFEFFFFFFFEFFFFFF05000000060000000700000008000000
310
090000000A0000000B0000000C0000000D0000000E0000000F00000010000000
310
11000000120000001300000014000000150000001600000017000000FEFFFFFF
310
FFFFFFFFFFFFFFFFFFFFFFFFFFFFFFFFFFFFFFFFFFFFFFFFFFFFFFFFFFFFFFFF
310
FFFFFFFFFFFFFFFFFFFFFFFFFFFFFFFFFFFFFFFFFFFFFFFFFFFFFFFFFFFFFFFF
310
FFFFFFFFFFFFFFFFFFFFFFFFFFFFFFFFFFFFFFFFFFFFFFFFFFFFFFFFFFFFFFFF
310
FFFFFFFFFFFFFFFFFFFFFFFFFFFFFFFFFFFFFFFFFFFFFFFFFFFFFFFFFFFFFFFF
310
FFFFFFFFFFFFFFFFFFFFFFFFFFFFFFFFFFFFFFFFFFFFFFFFFFFFFFFFFFFFFFFF
310
FFFFFFFFFFFFFFFFFFFFFFFFFFFFFFFFFFFFFFFFFFFFFFFFFFFFFFFFFFFFFFFF
310
FFFFFFFFFFFFFFFFFFFFFFFFFFFFFFFFFFFFFFFFFFFFFFFFFFFFFFFFFFFFFFFF
310
FFFFFFFFFFFFFFFFFFFFFFFFFFFFFFFFFFFFFFFFFFFFFFFFFFFFFFFFFFFFFFFF
310
FFFFFFFFFFFFFFFFFFFFFFFFFFFFFFFFFFFFFFFFFFFFFFFFFFFFFFFFFFFFFFFF
310
FFFFFFFFFFFFFFFFFFFFFFFFFFFFFFFFFFFFFFFFFFFFFFFFFFFFFFFFFFFFFFFF
310
FFFFFFFFFFFFFFFFFFFFFFFFFFFFFFFFFFFFFFFFFFFFFFFFFFFFFFFFFFFFFFFF
310
FFFFFFFFFFFFFFFFFFFFFFFFFFFFFFFFFFFFFFFFFFFFFFFFFFFFFFFFFFFFFFFF
310
FFFFFFFFFFFFFFFFFFFFFFFFFFFFFFFFFFFFFFFFFFFFFFFFFFFFFFFFFFFFFFFF
310
52006F006F007400200045006E00740072007900000000000000000000000000
310
0000000000000000000000000000000000000000000000000000000000000000
310
16000500FFFFFFFFFFFFFFFF020000000A00030000000000C000000000000046
310
000000000000000000000000C0B7C9C4A904CC0103000000C000000000000000
310
01004F006C006500000000000000000000000000000000000000000000000000
310
0000000000000000000000000000000000000000000000000000000000000000
310
0A000200FFFFFFFFFFFFFFFFFFFFFFFF00000000000000000000000000000000
310
0000000000000000000000000000000000000000000000001400000000000000
310
010043006F006D0070004F0062006A0000000000000000000000000000000000
310
0000000000000000000000000000000000000000000000000000000000000000
310
120002010100000003000000FFFFFFFF00000000000000000000000000000000
310
0000000000000000000000000000000000000000010000004D00000000000000
310
01004F006C006500310030004E00610074006900760065000000000000000000
310
0000000000000000000000000000000000000000000000000000000000000000
310
1A000200FFFFFFFFFFFFFFFFFFFFFFFF00000000000000000000000000000000
310
0000000000000000000000000000000000000000040000002426000000000000
310
FEFFFFFF02000000FEFFFFFFFFFFFFFFFFFFFFFFFFFFFFFFFFFFFFFFFFFFFFFF
310
FFFFFFFFFFFFFFFFFFFFFFFFFFFFFFFFFFFFFFFFFFFFFFFFFFFFFFFFFFFFFFFF
310
FFFFFFFFFFFFFFFFFFFFFFFFFFFFFFFFFFFFFFFFFFFFFFFFFFFFFFFFFFFFFFFF
310
FFFFFFFFFFFFFFFFFFFFFFFFFFFFFFFFFFFFFFFFFFFFFFFFFFFFFFFFFFFFFFFF
310
FFFFFFFFFFFFFFFFFFFFFFFFFFFFFFFFFFFFFFFFFFFFFFFFFFFFFFFFFFFFFFFF
310
FFFFFFFFFFFFFFFFFFFFFFFFFFFFFFFFFFFFFFFFFFFFFFFFFFFFFFFFFFFFFFFF
310
FFFFFFFFFFFFFFFFFFFFFFFFFFFFFFFFFFFFFFFFFFFFFFFFFFFFFFFFFFFFFFFF
310
FFFFFFFFFFFFFFFFFFFFFFFFFFFFFFFFFFFFFFFFFFFFFFFFFFFFFFFFFFFFFFFF
310
FFFFFFFFFFFFFFFFFFFFFFFFFFFFFFFFFFFFFFFFFFFFFFFFFFFFFFFFFFFFFFFF
310
FFFFFFFFFFFFFFFFFFFFFFFFFFFFFFFFFFFFFFFFFFFFFFFFFFFFFFFFFFFFFFFF
310
FFFFFFFFFFFFFFFFFFFFFFFFFFFFFFFFFFFFFFFFFFFFFFFFFFFFFFFFFFFFFFFF
310
FFFFFFFFFFFFFFFFFFFFFFFFFFFFFFFFFFFFFFFFFFFFFFFFFFFFFFFFFFFFFFFF
310
FFFFFFFFFFFFFFFFFFFFFFFFFFFFFFFFFFFFFFFFFFFFFFFFFFFFFFFFFFFFFFFF
310
FFFFFFFFFFFFFFFFFFFFFFFFFFFFFFFFFFFFFFFFFFFFFFFFFFFFFFFFFFFFFFFF
310
FFFFFFFFFFFFFFFFFFFFFFFFFFFFFFFFFFFFFFFFFFFFFFFFFFFFFFFFFFFFFFFF
310
FFFFFFFFFFFFFFFFFFFFFFFFFFFFFFFFFFFFFFFFFFFFFFFFFFFFFFFFFFFFFFFF
310
01000002000000000000000000000000000000005002600166008200B0004004
310
28092500000000002809250000000000B0028003800380033001500250024004
310
0100FEFF030A0000FFFFFFFF0A00030000000000C00000000000004607000000
310
5042727573680007000000504272757368000700000050427275736800F439B2
310
7100000000000000000000000003200320032003200320032003B002E0032003
310
200320032003800320032003B002B002B002B002B002B00280035002B002B002
310
B002B002F001F001500250028003B002B002B002B002B002B002B0028003B002
310
B002B002B002B002B002B0020000000000000000000000005800900000000004
310
480825000000000048082500000000006A0D7201000000000000000000000000
310
00000000000000000000C7060000000000000000000000000000000000000000
310
000000000000000038000000410000007E0D5F0100000000D60D880100000000
310
000000000000000000000000000000000000C706000000000000000000000000
310
0000000000000000000000000000000038000000410000007E0D5F0100000000
310
EA0D990100000000000000000000000000000000000000000000C70600000000
310
0000000000000000000000000000000000000000000000003800000041000000
310
7E0D5F0100000000720DF6000000000000000000000000000000000000000000
310
20260000424D0E260000000000003E00000028000000B40200006E0000000100
310
01000000000000000000130B0000130B00000200000002000000000000FFFFFF
310
FFFFFFFFFFFFFFFFFFFFFFFFFFFFFFFFFFFFFFFFFFFFFFFFFFFFFFFFFFFFFFFF
310
FFFFFFFFFFFFFFFFFFFFFFFFFFFFFFFFFFFFFFFFFFFFFFFFFFFFFFFFFFFFFFFF
310
FFFFFFFFFFFFFFFFFFFFFFFFFFFFFFFFFFFFFFFFFFFFFFFFF000FFFFFFFFFFFF
310
FFFFFFFFFFFFFFFFFFFFFFFFFFFFFFFFFFFFFFFFFFFFFFFFFFFFFFFFFFFFFFFF
310
FFFFFFFFFFFFFFFFFFFFFFFFFFFFFFFFFFFFFFFFFFFFFFFFFFFFFFFFFFFFFFFF
310
FFFFFFFFFFFFFFFFFFFFFFFFFFFFFFFFF000FFFFFFFFFFFFFFFFFFFFFFFFFFFF
310
FFFFFFFFFFFFFFFFFFFFFFFFFFFFFFFFFFFFFFFFFFFFFFFFFFFFFFFFFFFFFFFF
310
FFFFFFFFFFFFFFFFFFFFFFFFFFFFFFFFFFFFFFFFFFFFFFFFFFFFFFFFFFFFFFFF
310
FFFFFFFFFFFFFFFFF000FFFFFFFFFFFFFFFFFFFFFFFFFFFFFFFFFFFFFFFFFFFF
310
FFFFFFFFFFFFFFFFFFFFFFFFFFFFFFFFFFFFFFFFFFFFFFFFFFFFFFFFFFFFFFFF
310
FFFFFFFFFFFFFFFFFFFFFFFFFFFFFFFFFFFFFFFFFFFFFFFFFFFFFFFFFFFFFFFF
310
F000FFFFFFFFFFFFFFFFFFFFFFFFFFFFFFFFFFFFFFFFFFFFFFFFFFFFFFFFFFFF
310
FFFFFFFFFFFFFFFFFFFFFFFFFFFFFFFFFFFFFFFFFFFFFFFFFFFFFFFFFFFFFFFF
310
FFFFFFFFFFFFFFFFFFFFFFFFFFFFFFFFFFFFFFFFFFFFFFFFF000FFFFFFFFFFFF
310
FFFFFFFFFFFFFFFFFFFFFFFFFFFFFFFFFFFFFFFFFFFFFFFFFFFFFFFFFFFFFFFF
310
FFFFFFFFFFFFFFFFFFFFFFFFFFFFFFFFFFFFFFFFFFFFFFFFFFFFFFFFFFFFFFFF
310
FFFFFFFFFFFFFFFFFFFFFFFFFFFFFFFFF000FFFFFFFFFFFFFFFFFFFFFFFFFFFF
310
FFFFFFFFFFFFFFFFFFFFFFFFFFFFFFFFFFFFFFFFFFFFFFFFFFFFFFFFFFFFFFFF
310
FFFFFFFFFFFFFFFFFFFFFFFFFFFFFFFFFFFFFFFFFFFFFFFFFFFFFFFFFFFFFFFF
310
FFFFFFFFFFFFFFFFF000FFFFFFFFFFFFFFFFFFFFFFFFFFFFFFFFFFFFFFFFFFFF
310
FFFFFFFFFFFFFFFFFFFFFFFFFFFFFFFFFFFFFFFFFFFFFFFFFFFFFFFFFFFFFFFF
310
FFFFFFFFFFFFFFFFFFFFFFFFFFFFFFFFFFFFFFFFFFFFFFFFFFFFFFFFFFFFFFFF
310
F000FFFFFFFFFFFFFFFFFFFFFFFFFFFFFFFFFFFFFFFFFFFFFFFFFFFFFFFFFFFF
310
FFFFFFFFFFFFFFFFFFFFFFFFFFFFFFFFFFFFFFFFFFFFFFFFFFFFFFFFFFFFFFFF
310
FFFFFFFFFFFFFFFFFFFFFFFFFFFFFFFFFFFFFFFFFFFFFFFFF000FFFFFFFFFFFF
310
FFFFFFFFFFFFFFFFFFFFFFFFFFFFFFFFFFFFFFFFFFFFFFFFFFFFFFFFFFFFFFFF
310
FFFFFFFFFFFFFFFFFFFFFFFFFFFFFFFFFFFFFFFFFFFFFFFFFFFFFFFFFFFFFFFF
310
FFFFFFFFFFFFFFFFFFFFFFFFFFFFFFFFF000FFFFFFFFFFFFFFFFFFFFFFFFFFFF
310
FFFFFFFFFFFFFFFFFFFFFFFFFFFFFFFFFFFFFFFFFFFFFFFFFFFFFFFFFFFFFFFF
310
FFFFFFFFFFFFFFFFFFFFFFFFFFFFFFFFFFFFFFFFFFFFFFFFFFFFFFFFFFFFFFFF
310
FFFFFFFFFFFFFFFFF000FFFFFFFFFFFFFFFFFFFFFFFFFFFFFFFFFFFFFFFFFFFF
310
FFFFFFFFFFFFFFFFFFFFFFFFFFFFFFFFFFFFFFFFFFFFFFFFFFFFFFFFFFFFFFFF
310
FFFFFFFFFFFFFFFFFFFFFFFFFFFFFFFFFFFFFFFFFFFFFFFFFFFFFFFFFFFFFFFF
310
F000FFFFFFFFFFFFFFFFFFFFFFFFFFFFFFFFFFFFFFFFFFFFFFFFFFFFFFFFFFFF
310
FFFFFFFFFFFFFFFFFFFFFFFFFFFFFFFFFFFFFFFFFFFFFFFFFFFFFFFFFFFFFFFF
310
FFFFFFFFFFFFFFFFFFFFFFFFFFFFFFFFFFFFFFFFFFFFFFFFF000FFFFFFFFFFFF
310
FFFFFFFFFFFFFFFFFFFFFFFFFFFFFFFFFFFFFFFFFFFFFFFFFFFFFFFFFFFFFFFF
310
FFFFFFFFFFFFFFFFFFFFFFFFFFFFFFFFFFFFFFFFFFFFFFFFFFFFFFFFFFFFFFFF
310
FFFFFFFFFFFFFFFFFFFFFFFFFFFFFFFFF000FFFFFFFFFFFFFFFFFFFFFFFFFFFF
310
FFFFFFFFFFFFFFFFFFFFFFFFFFFFFFFFFFFFFFFFFFFFFFFFFFFFFFFFFFFFFFFF
310
FFFFFFFFFFFFFFFFFFFFFFFFFFFFFFFFFFFFFFFFFFFFFFFFFFFFFFFFFFFFFFFF
310
FFFFFFFFFFFFFFFFF000FFFFFFFFFFFFFFFFFFFFFFFFFFFFFFFFFFFFFFFFFFFF
310
FFFFFFFFFFFFFFFFFFFFFFFFFFFFFFFFFFFFFFFFFFFFFFFFFFFFFFFFFFFFFFFF
310
FFFFFFFFFFFFFFFFFFFFFFFFFFFFFFFFFFFFFFFFFFFFFFFFFFFFFFFFFFFFFFFF
310
F000FFFFFFFFFFFFFFFFFFFFFFFFFFFFFFFFFFFFFFFFFFFFFFFFFFFFFFFFFFFF
310
FFFFFFFFFFFFFFFFFFFFFFFFFFFFFFFFFFFFFFFFFFFFFFFFFFFFFFFFFFFFFFFF
310
FFFFFFFFFFFFFFFFFFFFFFFFFFFFFFFFFFFFFFFFFFFFFFFFF000FFFFFFFFFFFF
310
FFFFFFFFFFFFFFFFFFFFFFFFFFFFFFFFFFFFFFFFFFFFFFFFFFFFFFFFFFFFFFFF
310
FFFFFFFFFFFFFFFFFFFFFFFFFFFFFFFFFFFFFFFFFFFFFFFFFFFFFFFFFFFFFFFF
310
FFFFFFFFFFFFFFFFFFFFFFFFFFFFFFFFF000FFFFFFFFFFFFFFFFFFFFFFFFFFFF
310
FFFFFFFFFFFFFFFFFFFFFFFFFFFFFFFFFFFFFFFFFFFFFFFFFFFFFFFFFFFFFFFF
310
FFFFFFFFFFFFFFFFFFFFFFFFFFFFFFFFFFFFFFFFFFFFFFFFFFFFFFFFFFFFFFFF
310
FFFFFFFFFFFFFFFFF000FFFFF80003FFFFFFFFFFFFFFFFFFFFFFFFFFFFFFFFFF
310
FFFFF00007FFFFFFFFFF00007FFFFFF800000000000000007FFFFFFFFFFFFFFF
310
FFFFFFFC001FFFFFFFFFFFFFFC001FFFFFFFFFFFFFFFFFFFFFFFFFFE0007FFFF
310
F000FFFF8000007FFFFFFFF8000FFFFFC0007FFFFF80007FFFFF0000007FFFFF
310
FFF8000007FFFFF800000000000000007FFFFFF0001FFFFFFFFFFFC00001FFFF
310
FFFFFFFFC00001FFFFFFFF000000000003FFFFE000007FFFF000FFFE0000000F
310
FFFFFFF0000FFFFF80007FFFFF80007FFFFC0000001FFFFFFFC0000001FFFFF8
310
00000000000000007FFFFFF0001FFFFFFFFFFE0000003FFFFFFFFFFE0000003F
310
FFFFFF000000000003FFFF0000000FFFF000FFF800000003FFFFFFF00007FFFF
310
80007FFFFF80007FFFF000000007FFFFFF000000003FFFF80000000000000000
310
7FFFFFF0001FFFFFFFFFF80000000FFFFFFFFFF80000000FFFFFFF0000000000
310
03FFFC00000003FFF000FFE000000000FFFFFFF00007FFFF80003FFFFF80007F
310
FFC000000001FFFFFC000000001FFFF800000000000000007FFFFFF0001FFFFF
310
FFFFE000000003FFFFFFFFE000000003FFFFFF000000000003FFF000000000FF
310
F000FF80000000007FFFFFF00007FFFF80003FFFFF80007FFF8000000000FFFF
310
F80000000007FFF800000000000000007FFFFFF0001FFFFFFFFFC000000001FF
310
FFFFFFC000000001FFFFFF000000000003FFC0000000007FF000FF0000000000
310
3FFFFFE00007FFFF00003FFFFF80007FFE00000000003FFFF00000000003FFF8
310
00000000000000007FFFFFF0001FFFFFFFFF8000000000FFFFFFFF8000000000
310
FFFFFF000000000003FF80000000003FF000FE00000000001FFFFFE00003FFFF
310
00003FFFFF80007FFC00000000001FFFE00000000001FFF8000001FFFE000000
310
7FFFFFF0001FFFFFFFFE00000000003FFFFFFE00000000003FFFFF0000000000
310
03FF00000000001FF000FC00000000000FFFFFE00003FFFF00001FFFFF80007F
310
F800000000001FFFC00000000000FFF8000001FFFE0000007FFFFFF0001FFFFF
310
FFFC00000000001FFFFFFC00000000001FFFFF000000000003FE00000000000F
310
F000F8000000000007FFFFE00003FFFF00001FFFFF80007FF800000000000FFF
310
800000000000FFF8000001FFFE0000007FFFFFF0001FFFFFFFF800000000000F
310
FFFFF800000000000FFFFF000000000003FC000000000007F000F80000000000
310
03FFFFC00003FFFE00001FFFFF80007FF0000000000007FF0000000000007FF8
310
000001FFFE0000007FFFFFF0001FFFFFFFF0000000000007FFFFF00000000000
310
07FFFF000000000003F8000000000003F000F0000000000003FFFFC00001FFFE
310
00001FFFFF80007FE0000000000007FE0000000000003FF8000001FFFE000000
310
7FFFFFF0001FFFFFFFF0000000000007FFFFF0000000000007FFFF0000000000
310
03F800001F800003F000E00001FFF00001FFFFC00001FFFE00000FFFFF80007F
310
E00001FFE00003FE00001FFF00003FF8000001FFFE0000007FFFFFF0001FFFFF
310
FFE000003E000003FFFFE000003E000003FFFF000000000003F00001FFF80001
310
F000E00007FFFC0001FFFFC00001FFFE00000FFFFF80007FC0000FFFFC0003FC
310
0000FFFFC0001FF8000001FFFE0000007FFFFFF0001FFFFFFFC00003FFE00001
310
FFFFC00003FFE00001FFFF0001FFFFFFFFF00007FFFE0001F000E0000FFFFF00
310
00FFFF800001FFFC00000FFFFF80007FC0001FFFFE0001FC0001FFFFE0001FF8
310
000001FFFE0000007FFFFFF0001FFFFFFF80000FFFF80000FFFF80000FFFF800
310
00FFFF0003FFFFFFFFE0000FFFFF8000F000C0003FFFFF8000FFFF800000FFFC
310
000007FFFF80007F80003FFFFF0001FC0003FFFFF0001FF8000001FFFE000000
310
7FFFFFF0001FFFFFFF80003FFFFE0000FFFF80003FFFFE0000FFFF0003FFFFFF
310
FFE0003FFFFF8000F000C0003FFFFF8000FFFF800000FFFC000007FFFF80007F
310
80007FFFFF8001F80007FFFFF8000FF8000001FFFE0000007FFFFFF0001FFFFF
310
FF00007FFFFF00007FFF00007FFFFF00007FFF0003FFFFFFFFE0003FFFFFC000
310
F000C0007FFFFFC000FFFF000000FFFC000007FFFF80007F8000FFFFFF8000F8
310
000FFFFFF8000FF8000001FFFE0000007FFFFFF0001FFFFFFF0000FFFFFF8000
310
7FFF0000FFFFFF80007FFF0003FFFFFFFFC0007FFFFFC00070008000FFFFFFC0
310
00FFFF000000FFF8000007FFFF80007F8000FFFFFF8000F8000FFFFFF8000FF8
310
000001FFFE0000007FFFFFF0001FFFFFFE0001FFFFFFC0003FFE0001FFFFFFC0
310
003FFF0003FFFFFFFFC0007FFFFFE00070008000FFFFFFC0007FFF0000007FF8
310
000003FFFF80007F0001FFFFFF8000F8000FFFFFF8000FF8000001FFFE000000
310
7FFFFFF0001FFFFFFE0001FFFFFFC0003FFE0001FFFFFFC0003FFF0003FFFFFF
310
FFC000FFFFFFE00070008000FFFFFFC0007FFF0000007FF8000003FFFF80007F
310
0001FFFFFF8000F8001FFFFFF8000FF8000001FFFE0000007FFFFFF0001FFFFF
310
FE0003FFFFFFE0003FFE0003FFFFFFE0003FFF0003FFFFFFFFC000FFFFFFE000
310
70008000FFFFFFC0007FFE0000007FF8000003FFFF80007F0001FFFFFF8000F0
310
001FFFFFF8000FF8000001FFFE0000007FFFFFF0001FFFFFFC0003FFFFFFE000
310
1FFC0003FFFFFFE0001FFF0003FFFFFFFFC000FFFFFFC00070008000FFFFFF80
310
007FFE0000007FF0000003FFFF80007F0001FFFFFF0000F0001FFFFFF8000FF8
310
000001FFFE0000007FFFFFF0001FFFFFFC0007FFFFFFF0001FFC0007FFFFFFF0
310
001FFF0003FFFFFFFFC000FFFFFFC00070008001FFFFFF0000FFFE0000003FF0
310
000001FFFF80007F0001FFFFFF0000F8001FFFFFF0000FF8000001FFFE000000
310
7FFFFFF0001FFFFFFC0007FFFFFFF0001FFC0007FFFFFFF0001FFF0003FFFFFF
310
FFC001FFFFFF80007000FFFFFFFFFE0000FFFE0008003FF0008001FFFF80007F
310
FFFFFFFFFC0000FFFFFFFFFFE0000FF8000001FFFE0000007FFFFFF0001FFFFF
310
F8000FFFFFFFF8000FF8000FFFFFFFF8000FFF0003FFFFFFFFFFFFFFFFFF0000
310
7000FFFFFFFFFC0000FFFC0008003FF0008001FFFF80007FFFFFFFFFF80001FF
310
FFFFFFFF80000FF8000001FFFE0000007FFFFFF0001FFFFFF8000FFFFFFFF800
310
0FF8000FFFFFFFF8000FFF0003FFFFFFFFFFFFFFFFFE0000F000FFFFFFFFE000
310
00FFFC000C003FE000C001FFFF80007FFFFFFFFFC00001FFFFFFFFFE00001FF8
310
000001FFFE0000007FFFFFF0001FFFFFF8000FFFFFFFF8000FF8000FFFFFFFF8
310
000FFF0003FFFFFFFFFFFFFFFFF00000F000FFFFFFFE000001FFFC000C001FE0
310
00C000FFFF80007FFFFFFFFE000001FFFFFFFFE000001FF80FFFFFFFFFFFFFC0
310
7FFFFFF0001FFFFFF8000FFFFFFFF8000FF8000FFFFFFFF8000FFF0003FFFFFF
310
FFFFFFFFFF800000F000FFFFFFC0000001FFFC001C001FE001C000FFFF80007F
310
FFFFFF80000003FFFFFFF80000001FF80FFFFFFFFFFFFFC07FFFFFF0001FFFFF
310
F8001FFFFFFFFC000FF8001FFFFFFFFC000FFF0003FFFFFFFFFFFFFFF0000001
310
F000FFFFF800000001FFF8001C001FE001C000FFFF80007FFFFFF800000003FF
310
FFFF800000003FF80FFFFFFFFFFFFFC07FFFFFF0001FFFFFF8001FFFFFFFFC00
310
0FF8001FFFFFFFFC000FFF0003FFFFFFFFFFFFFE00000001F000FFFFC0000000
310
03FFF8001E001FC001E000FFFF80007FFFFF8000000007FFFFFC000000003FF8
310
0FFFFFFFFFFFFFC07FFFFFF0001FFFFFF8001FFFFFFFFC000FF8001FFFFFFFFC
310
000FFF0003FFFFFFFFFFFFE000000003F000FFFE0000000007FFF8001E000FC0
310
01E0007FFF80007FFFFE0000000007FFFFE0000000007FF80FFFFFFFFFFFFFC0
310
7FFFFFF0001FFFFFF0001FFFFFFFFC0007F0001FFFFFFFFC0007FF0003FFFFFF
310
FFFFFF0000000003F000FFF80000000007FFF8001E000FC003E0007FFF80007F
310
FFF0000000000FFFFF8000000000FFF80FFFFFFFFFFFFFC07FFFFFF0001FFFFF
310
F0001FFFFFFFFC0007F0001FFFFFFFFC0007FF0003FFFFFFFFFFFC0000000007
310
F000FFE0000000000FFFF0003E000FC003E0007FFF80007FFFC0000000001FFF
310
FE0000000001FFF80FFFFFFFFFFFFFC07FFFFFF0001FFFFFF0001FFFFFFFFC00
310
07F0001FFFFFFFFC0007FF0003FFFFFFFFFFF0000000000FF000FFC000000000
310
1FFFF0003F000F8003F0003FFF80007FFF80000000003FFFF80000000003FFF8
310
0FFFFFFFFFFFFFC07FFFFFF0001FFFFFF0001FFFFFFFFC0007F0001FFFFFFFFC
310
0007FF0003FFFFFFFFFFE0000000001FF000FF00000000007FFFF0003F000780
310
03F0003FFF80007FFF00000000007FFFF00000000007FFF80FFFFFFFFFFFFFC0
310
7FFFFFF0001FFFFFF0001FFFFFFFFC0007F0001FFFFFFFFC0007FF0003FFFFFF
310
FFFF80000000007FF000FE0000000000FFFFE0003F00078007F0003FFF80007F
310
FE0000000001FFFFE0000000001FFFF80FFFFFFFFFFFFFC07FFFFFF0001FFFFF
310
F0001FFFFFFFFC0007F0001FFFFFFFFC0007FF0003FFFFFFFFFF0000000000FF
310
F000FC0000000003FFFFE0007F00078007F0003FFF80007FFC0000000007FFFF
310
C0000000007FFFF80FFFFFFFFFFFFFC07FFFFFF0001FFFFFF8001FFFFFFFFC00
310
0FF8001FFFFFFFFC000FFF0003FFFFFFFFFE0000000003FFF000FC000000000F
310
FFFFE0007F80070007F8001FFF80007FF8000000001FFFFF8000000001FFFFF8
310
0FFFFFFFFFFFFFC07FFFFFF0001FFFFFF8001FFFFFFFFC000FF8001FFFFFFFFC
310
000FFF0003FFFFFFFFFC000000000FFFF000F8000000007FFFFFE0007F800700
310
07F8001FFF80007FF000000000FFFFFF800000000FFFFFF80FFFFFFFFFFFFFC0
310
7FFFFFF0001FFFFFF8000FFFFFFFF8000FF8000FFFFFFFF8000FFF0003FFFFFF
310
FFFC000000007FFFF000F800000007FFFFFFC0007F8003000FF8001FFF80007F
310
F000000007FFFFFF000000007FFFFFF80FFFFFFFFFFFFFC07FFFFFF0001FFFFF
310
F8000FFFFFFFF8000FF8000FFFFFFFF8000FFF0003FFFFFFFFF80000000FFFFF
310
F000F0000000FFFFFFFFC000FF8003000FF8001FFF80007FE0000000FFFFFFFF
310
0000000FFFFFFFF8000001FFFE0000007FFFFFF0001FFFFFF8000FFFFFFFF800
310
0FF8000FFFFFFFF8000FFF0003FFFFFFFFF8000000FFFFFFF000F000000FFFFF
310
FFFFC000FFC002000FF8000FFF80007FE000001FFFFFFFFE000001FFFFFFFFF8
310
000001FFFE0000007FFFFFF0001FFFFFF8000FFFFFFFF8000FF8000FFFFFFFF8
310
000FFF0003FFFFFFFFF000001FFFFFFFF000E00000FFFFFFFFFFC000FFC00200
310
0FFC000FFF80007FE00001FFFFFFFFFE00001FFFFFFFFFF8000001FFFE000000
310
7FFFFFF0001FFFFFFC000FFFFFFFF8001FFC000FFFFFFFF8001FFF0003FFFFFF
310
FFF00001FFFFFFFFF000E00007FFFFFFFFFF8000FFC000001FFC000FFF80007F
310
C0000FFFFFFFFFFE0000FFFFFFFFFFF8000001FFFE0000007FFFFFF0001FFFFF
310
FC0007FFFFFFF0001FFC0007FFFFFFF0001FFF0003FFFFFFFFF00007FFFFFFFF
310
F000E0001FFFFFFFFFFF8000FFC000001FFC000FFF80007FC0003FFFFFFFFFFE
310
0001FFFFFFFFFFF8000001FFFE0000007FFFFFF0001FFFFFFC0007FFFFFFF000
310
1FFC0007FFFFFFF0001FFF0003FFFFFFFFF0001FFFFFFFFFF000E0003FFFFF00
310
03FF8001FFE000001FFC0007FF80007FC0007FFFFF0007FC0003FFFFF0003FF8
310
000001FFFE0000007FFFFFF0001FFFFFFC0003FFFFFFE0001FFC0003FFFFFFE0
310
001FFF0003FFFFFFFFF0003FFFFFFFFFF000E0003FFFFF0001FF8001FFE00000
310
1FFE0007FF80007FC0007FFFFE0003FC0007FFFFE0003FF8000001FFFE000000
310
7FFFFFF0001FFFFFFE0003FFFFFFE0003FFE0003FFFFFFE0003FFF0003FFFFFF
310
FFF0003FFFFF8001F000E0003FFFFF0001FF0001FFE000001FFE0007FF80007F
310
C0007FFFFE0003FC0007FFFFE0003FF8000001FFFE0000007FFFFFF0001FFFFF
310
FE0001FFFFFFC0003FFE0001FFFFFFC0003FFF0003FFFFFFFFF0003FFFFF0001
310
F000E0003FFFFF0003FF0001FFE000003FFE0007FF80007FC0007FFFFE0003FC
310
0007FFFFE0003FF8000001FFFE0000007FFFFFF0001FFFFFFF0001FFFFFFC000
310
7FFF0001FFFFFFC0007FFF0003FFFFFFFFF0003FFFFF0001F000E0003FFFFE00
310
03FF0003FFF000003FFE0003FF80007FC0007FFFFC0003FE0007FFFFE0003FF8
310
000001FFFE0000007FFFFFF0001FFFFFFF0000FFFFFF80007FFF0000FFFFFF80
310
007FFF0003FFFFFFFFF0003FFFFF0001F000E0003FFFFE0003FF0003FFF00000
310
3FFF0003FF80007FC0007FFFFC0007FE0007FFFFC0003FF8000001FFFE000000
310
7FFFFFF0001FFFFFFF80007FFFFF0000FFFF80007FFFFF0000FFFF0003FFFFFF
310
FFF0003FFFFF0003F000E0003FFFFC0003FE0003FFF000003FFF0003FF80007F
310
E0003FFFF80007FE0003FFFFC0007FF8000001FFFE0000007FFFFFF0001FFFFF
310
FF80003FFFFE0000FFFF80003FFFFE0000FFFF0003FFFFFFFFF0001FFFFE0003
310
F000F0001FFFF80003FE0003FFF000007FFF0001FF80007FE0003FFFF00007FE
310
0001FFFF80007FF8000001FFFE0000007FFFFFF0001FFFFFFFC0000FFFF80001
310
FFFFC0000FFFF80001FFFF0003FFFFFFFFF0001FFFFC0003F000F0000FFFF000
310
07FE0007FFF800007FFF0001FF80007FE0001FFFE00007FF0000FFFE00007FF8
310
000001FFFE0000007FFFFFF0001FFFFFFFC00003FFE00001FFFFC00003FFE000
310
01FFFF0003FFFFFFFFF8000FFFF80003F000F00003FFC00007FC0007FFF80000
310
7FFF8001FF80007FF00007FF80000FFF00007FF80000FFF8000001FFFE000000
310
7F80000000000001FFE000003E000003FFFFE000003E000003FFFF0003FFFFFF
310
FFF80003FFE00007F000F800000000000FFC0007FFF800007FFF8001FF80007F
310
F000000000000FFF000000000000FFF8000001FFFE0000007F80000000000001
310
FFF0000000000007FFFFF0000000000007FFFF0003FFFFFFFFFC00007E000007
310
F000F800000000000FFC0007FFF80000FFFF8000FF80007FF800000000001FFF
310
800000000001FFF8000001FFFE0000007F80000000000001FFF800000000000F
310
FFFFF800000000000FFFFF0003FFFFFFFFFC00000000000FF000FC0000000000
310
1FFC0007FFFC0000FFFF8000FF80007FF800000000003FFFC00000000001FFF8
310
000001FFFE0000007F80000000000001FFF800000000000FFFFFF80000000000
310
0FFFFF0003FFFFFFFFFE00000000001FF000FE00000000003FF8000FFFFC0000
310
FFFF8000FF80007FFC00000000003FFFC00000000003FFF8000001FFFE000000
310
7F80000000000001FFFC00000000001FFFFFFC00000000001FFFFF0003FFFFFF
310
FFFF00000000001FF000FF00000000003FF8000FFFFC0000FFFFC000FF80007F
310
FE00000000007FFFE00000000007FFF8000001FFFE0000007F80000000000001
310
FFFE00000000003FFFFFFE00000000003FFFFF0003FFFFFFFFFF80000000003F
310
F000FF80000000007FF8000FFFFC0001FFFFC0007F80007FFF0000000000FFFF
310
F0000000000FFFF800000000000000007F80000000000001FFFF8000000000FF
310
FFFFFF8000000000FFFFFF0003FFFFFFFFFFC0000000007FF000FFC000000000
310
FFF8000FFFFE0001FFFFC0007F80007FFF8000000001FFFFF8000000001FFFF8
310
00000000000000007F80000000000001FFFFC000000001FFFFFFFFC000000001
310
FFFFFF0003FFFFFFFFFFE000000000FFF000FFE000000003FFF0001FFFFE0001
310
FFFFC0007F80007FFFC000000007FFFFFE000000003FFFF80000000000000000
310
7F80000000000001FFFFE000000003FFFFFFFFE000000003FFFFFF0003FFFFFF
310
FFFFF000000003FFF000FFF80000000FFFF0001FFFFE0001FFFFE0007F80007F
310
FFF00000000FFFFFFF00000000FFFFF800000000000000007F80000000000001
310
FFFFF80000000FFFFFFFFFF80000000FFFFFFF0003FFFFFFFFFFFC0000000FFF
310
F000FFFE0000003FFFF0001FFFFE0003FFFFE0003F80007FFFFC0000003FFFFF
310
FFC0000003FFFFF800000000000000007F80000000000001FFFFFE0000003FFF
310
FFFFFFFE0000003FFFFFFF0003FFFFFFFFFFFF0000003FFFF000FFFF800000FF
310
FFF0001FFFFF0003FFFFE0003F80007FFFFF000001FFFFFFFFF800001FFFFFF8
310
00000000000000007F80000000000001FFFFFFC00001FFFFFFFFFFFFC00001FF
310
FFFFFF0003FFFFFFFFFFFFC00000FFFFF000FFFFF8000FFFFFFFFFFFFFFFFFFF
310
FFFFFFFFFFFFFFFFFFFFF0001FFFFFFFFFFF0000FFFFFFF80000000000000000
310
7FFFFFFFFFFFFFFFFFFFFFFC001FFFFFFFFFFFFFFC001FFFFFFFFFFFFFFFFFFF
310
FFFFFFFC001FFFFFF000FFFFFFFFFFFFFFFFFFFFFFFFFFFFFFFFFFFFFFFFFFFF
310
FFFFFFFFFFFFFFFFFFFFFFFFFFFFFFFFFFFFFFFFFFFFFFFFFFFFFFFFFFFFFFFF
310
FFFFFFFFFFFFFFFFFFFFFFFFFFFFFFFFFFFFFFFFFFFFFFFFFFFFFFFFFFFFFFFF
310
F000FFFFFFFFFFFFFFFFFFFFFFFFFFFFFFFFFFFFFFFFFFFFFFFFFFFFFFFFFFFF
310
FFFFFFFFFFFFFFFFFFFFFFFFFFFFFFFFFFFFFFFFFFFFFFFFFFFFFFFFFFFFFFFF
310
FFFFFFFFFFFFFFFFFFFFFFFFFFFFFFFFFFFFFFFFFFFFFFFFF000FFFFFFFFFFFF
310
FFFFFFFFFFFFFFFFFFFFFFFFFFFFFFFFFFFFFFFFFFFFFFFFFFFFFFFFFFFFFFFF
310
FFFFFFFFFFFFFFFFFFFFFFFFFFFFFFFFFFFFFFFFFFFFFFFFFFFFFFFFFFFFFFFF
310
FFFFFFFFFFFFFFFFFFFFFFFFFFFFFFFFF000FFFFFFFFFFFFFFFFFFFFFFFFFFFF
310
FFFFFFFFFFFFFFFFFFFFFFFFFFFFFFFFFFFFFFFFFFFFFFFFFFFFFFFFFFFFFFFF
310
FFFFFFFFFFFFFFFFFFFFFFFFFFFFFFFFFFFFFFFFFFFFFFFFFFFFFFFFFFFFFFFF
310
FFFFFFFFFFFFFFFFF000FFFFFFFFFFFFFFFFFFFFFFFFFFFFFFFFFFFFFFFFFFFF
310
FFFFFFFFFFFFFFFFFFFFFFFFFFFFFFFFFFFFFFFFFFFFFFFFFFFFFFFFFFFFFFFF
310
FFFFFFFFFFFFFFFFFFFFFFFFFFFFFFFFFFFFFFFFFFFFFFFFFFFFFFFFFFFFFFFF
310
F000FFFFFFFFFFFFFFFFFFFFFFFFFFFFFFFFFFFFFFFFFFFFFFFFFFFFFFFFFFFF
310
FFFFFFFFFFFFFFFFFFFFFFFFFFFFFFFFFFFFFFFFFFFFFFFFFFFFFFFFFFFFFFFF
310
FFFFFFFFFFFFFFFFFFFFFFFFFFFFFFFFFFFFFFFFFFFFFFFFF000FFFFFFFFFFFF
310
FFFFFFFFFFFFFFFFFFFFFFFFFFFFFFFFFFFFFFFFFFFFFFFFFFFFFFFFFFFFFFFF
310
FFFFFFFFFFFFFFFFFFFFFFFFFFFFFFFFFFFFFFFFFFFFFFFFFFFFFFFFFFFFFFFF
310
FFFFFFFFFFFFFFFFFFFFFFFFFFFFFFFFF000FFFFFFFFFFFFFFFFFFFFFFFFFFFF
310
FFFFFFFFFFFFFFFFFFFFFFFFFFFFFFFFFFFFFFFFFFFFFFFFFFFFFFFFFFFFFFFF
310
FFFFFFFFFFFFFFFFFFFFFFFFFFFFFFFFFFFFFFFFFFFFFFFFFFFFFFFFFFFFFFFF
310
FFFFFFFFFFFFFFFFF000FFFFFFFFFFFFFFFFFFFFFFFFFFFFFFFFFFFFFFFFFFFF
310
FFFFFFFFFFFFFFFFFFFFFFFFFFFFFFFFFFFFFFFFFFFFFFFFFFFFFFFFFFFFFFFF
310
FFFFFFFFFFFFFFFFFFFFFFFFFFFFFFFFFFFFFFFFFFFFFFFFFFFFFFFFFFFFFFFF
310
F000FFFFFFFFFFFFFFFFFFFFFFFFFFFFFFFFFFFFFFFFFFFFFFFFFFFFFFFFFFFF
310
FFFFFFFFFFFFFFFFFFFFFFFFFFFFFFFFFFFFFFFFFFFFFFFFFFFFFFFFFFFFFFFF
310
FFFFFFFFFFFFFFFFFFFFFFFFFFFFFFFFFFFFFFFFFFFFFFFFF000FFFFFFFFFFFF
310
FFFFFFFFFFFFFFFFFFFFFFFFFFFFFFFFFFFFFFFFFFFFFFFFFFFFFFFFFFFFFFFF
310
FFFFFFFFFFFFFFFFFFFFFFFFFFFFFFFFFFFFFFFFFFFFFFFFFFFFFFFFFFFFFFFF
310
FFFFFFFFFFFFFFFFFFFFFFFFFFFFFFFFF000FFFFFFFFFFFFFFFFFFFFFFFFFFFF
310
FFFFFFFFFFFFFFFFFFFFFFFFFFFFFFFFFFFFFFFFFFFFFFFFFFFFFFFFFFFFFFFF
310
FFFFFFFFFFFFFFFFFFFFFFFFFFFFFFFFFFFFFFFFFFFFFFFFFFFFFFFFFFFFFFFF
310
FFFFFFFFFFFFFFFFF000FFFFFFFFFFFFFFFFFFFFFFFFFFFFFFFFFFFFFFFFFFFF
310
FFFFFFFFFFFFFFFFFFFFFFFFFFFFFFFFFFFFFFFFFFFFFFFFFFFFFFFFFFFFFFFF
310
FFFFFFFFFFFFFFFFFFFFFFFFFFFFFFFFFFFFFFFFFFFFFFFFFFFFFFFFFFFFFFFF
310
F000FFFFFFFFFFFFFFFFFFFFFFFFFFFFFFFFFFFFFFFFFFFFFFFFFFFFFFFFFFFF
310
FFFFFFFFFFFFFFFFFFFFFFFFFFFFFFFFFFFFFFFFFFFFFFFFFFFFFFFFFFFFFFFF
310
FFFFFFFFFFFFFFFFFFFFFFFFFFFFFFFFFFFFFFFFFFFFFFFFF000FFFFFFFFFFFF
310
FFFFFFFFFFFFFFFFFFFFFFFFFFFFFFFFFFFFFFFFFFFFFFFFFFFFFFFFFFFFFFFF
310
FFFFFFFFFFFFFFFFFFFFFFFFFFFFFFFFFFFFFFFFFFFFFFFFFFFFFFFFFFFFFFFF
310
FFFFFFFFFFFFFFFFFFFFFFFFFFFFFFFFF000FFFFFFFFFFFFFFFFFFFFFFFFFFFF
310
FFFFFFFFFFFFFFFFFFFFFFFFFFFFFFFFFFFFFFFFFFFFFFFFFFFFFFFFFFFFFFFF
310
FFFFFFFFFFFFFFFFFFFFFFFFFFFFFFFFFFFFFFFFFFFFFFFFFFFFFFFFFFFFFFFF
310
FFFFFFFFFFFFFFFFF000FFFFFFFFFFFFFFFFFFFFFFFFFFFFFFFFFFFFFFFFFFFF
310
FFFFFFFFFFFFFFFFFFFFFFFFFFFFFFFFFFFFFFFFFFFFFFFFFFFFFFFFFFFFFFFF
310
FFFFFFFFFFFFFFFFFFFFFFFFFFFFFFFFFFFFFFFFFFFFFFFFFFFFFFFFFFFFFFFF
310
F000FFFFFFFFFFFFFFFFFFFFFFFFFFFFFFFFFFFFFFFFFFFFFFFFFFFFFFFFFFFF
310
FFFFFFFFFFFFFFFFFFFFFFFFFFFFFFFFFFFFFFFFFFFFFFFFFFFFFFFFFFFFFFFF
310
FFFFFFFFFFFFFFFFFFFFFFFFFFFFFFFFFFFFFFFFFFFFFFFFF000FFFFFFFFFFFF
310
FFFFFFFFFFFFFFFFFFFFFFFFFFFFFFFFFFFFFFFFFFFFFFFFFFFFFFFFFFFFFFFF
310
FFFFFFFFFFFFFFFFFFFFFFFFFFFFFFFFFFFFFFFFFFFFFFFFFFFFFFFFFFFFFFFF
310
FFFFFFFFFFFFFFFFFFFFFFFFFFFFFFFFF000FFFFFFFFFFFFFFFFFFFFFFFFFFFF
310
FFFFFFFFFFFFFFFFFFFFFFFFFFFFFFFFFFFFFFFFFFFFFFFFFFFFFFFFFFFFFFFF
310
FFFFFFFFFFFFFFFFFFFFFFFFFFFFFFFFFFFFFFFFFFFFFFFFFFFFFFFFFFFFFFFF
310
FFFFFFFFFFFFFFFFF000FFFFFFFFFFFFFFFFFFFFFFFFFFFFFFFFFFFFFFFFFFFF
310
FFFFFFFFFFFFFFFFFFFFFFFFFFFFFFFFFFFFFFFFFFFFFFFFFFFFFFFFFFFFFFFF
310
FFFFFFFFFFFFFFFFFFFFFFFFFFFFFFFFFFFFFFFFFFFFFFFFFFFFFFFFFFFFFFFF
310
F000FFFFFFFFFFFFFFFFFFFFFFFFFFFFFFFFFFFFFFFFFFFFFFFFFFFFFFFFFFFF
310
FFFFFFFFFFFFFFFFFFFFFFFFFFFFFFFFFFFFFFFFFFFFFFFFFFFFFFFFFFFFFFFF
310
FFFFFFFFFFFFFFFFFFFFFFFFFFFFFFFFFFFFFFFFFFFFFFFFF000FFFFFFFFFFFF
310
FFFFFFFFFFFFFFFFFFFFFFFFFFFFFFFFFFFFFFFFFFFFFFFFFFFFFFFFFFFFFFFF
310
FFFFFFFFFFFFFFFFFFFFFFFFFFFFFFFFFFFFFFFFFFFFFFFFFFFFFFFFFFFFFFFF
310
FFFFFFFFFFFFFFFFFFFFFFFFFFFFFFFFF0000000000000000000000000000000
310
00000000000000000000000042006C00610063006B0000000000000000000000
310
0000000000000000000000000000000000000000000000000000000000000000
310
0000000000000000000000000000FFFFFFFFFFFFFFFFFFFFFFFFFFFFFFFFFFFF
310
FFFFFFFFFFFFFFFFFFFFFFFFFFFFFFFFFFFFFFFFFFFFFFFFFFFFFFFFFFFFFFFF
310
FFFFFFFFFFFFFFFFFFFFFFFF6476000800000000FFFFFFFF20FF202026000000
310
1E00000008000000060000000000000011000000200000008403000000000000
310
6000000060000000200002FB200020000000002B00FFFFFF40002200E8030000
310
A80400001C020000AF0000804A20004000000000000000000100000000000000
310
616C000800000000E40100007001000002000000270000001100000000000000
310
00000000BC0200000000000003020122420065006C006C00200047006F007400
310
680069006300200053007400640020004C006900670068007400000000000000
310
00000000000000000000000000000000420065006C006C0047006F0074006800
310
690063005300740064002D0042006F006C006400000000000000000000000000
310
0000000000000000000000000000000000000000000000000000000000000000
310
0000000000000000000000000000000000000000000000000000000000000000
  1
OLE
  0
ENDSEC
  0
SECTION
  2
OBJECTS
  0
DICTIONARY
  5
C
330
0
100
AcDbDictionary
281
     1
  3
ACAD_GROUP
350
D
  3
ACAD_LAYOUT
350
1A
  3
ACAD_MLEADERSTYLE
350
1B8
  3
ACAD_MLINESTYLE
350
17
  3
ACAD_PLOTSETTINGS
350
19
  3
ACAD_PLOTSTYLENAME
350
E
  3
ACAD_TABLESTYLE
350
1B7
  3
ACAD_VISUALSTYLE
350
2A
  3
AcDbVariableDictionary
350
1B9
  0
DICTIONARY
  5
D
102
{ACAD_REACTORS
330
C
102
}
330
C
100
AcDbDictionary
281
     1
  0
DICTIONARY
  5
1A
102
{ACAD_REACTORS
330
C
102
}
330
C
100
AcDbDictionary
281
     1
  3
Layout1
350
1E
  3
Layout2
350
26
  3
Model
350
22
  0
DICTIONARY
  5
1B8
102
{ACAD_REACTORS
330
C
102
}
330
C
100
AcDbDictionary
281
     1
  0
DICTIONARY
  5
17
102
{ACAD_REACTORS
330
C
102
}
330
C
100
AcDbDictionary
281
     1
  3
Standard
350
18
  0
DICTIONARY
  5
19
102
{ACAD_REACTORS
330
C
102
}
330
C
100
AcDbDictionary
281
     1
  0
ACDBDICTIONARYWDFLT
  5
E
102
{ACAD_REACTORS
330
C
102
}
330
C
100
AcDbDictionary
281
     1
  3
Normal
350
F
100
AcDbDictionaryWithDefault
340
F
  0
DICTIONARY
  5
1B7
102
{ACAD_REACTORS
330
C
102
}
330
C
100
AcDbDictionary
281
     1
  0
DICTIONARY
  5
2A
102
{ACAD_REACTORS
330
C
102
}
330
C
100
AcDbDictionary
281
     1
  3
2dWireframe
350
2F
  3
3D Hidden
350
31
  3
3dWireframe
350
30
  3
Basic
350
32
  3
Brighten
350
36
  3
ColorChange
350
3A
  3
Conceptual
350
34
  3
Dim
350
35
  3
Facepattern
350
39
  3
Flat
350
2B
  3
FlatWithEdges
350
2C
  3
Gouraud
350
2D
  3
GouraudWithEdges
350
2E
  3
Linepattern
350
38
  3
Realistic
350
33
  3
Thicken
350
37
  0
DICTIONARY
  5
1B9
102
{ACAD_REACTORS
330
C
102
}
330
C
100
AcDbDictionary
281
     1
  3
PSOLHEIGHT
350
1BB
  3
PSOLWIDTH
350
1BA
  0
LAYOUT
  5
1E
102
{ACAD_REACTORS
330
1A
102
}
330
1A
100
AcDbPlotSettings
  1

  2
none_device
  4

  6

 40
0.0
 41
0.0
 42
0.0
 43
0.0
 44
0.0
 45
0.0
 46
0.0
 47
0.0
 48
0.0
 49
0.0
140
0.0
141
0.0
142
1.0
143
1.0
 70
   688
 72
     0
 73
     0
 74
     5
  7

 75
    16
147
1.0
148
0.0
149
0.0
100
AcDbLayout
  1
Layout1
 70
     1
 71
     1
 10
0.0
 20
0.0
 11
420.0
 21
297.0
 12
0.0
 22
0.0
 32
0.0
 14
1.0000000000E+20
 24
1.0000000000E+20
 34
1.0000000000E+20
 15
-1.0000000000E+20
 25
-1.0000000000E+20
 35
-1.0000000000E+20
146
0.0
 13
0.0
 23
0.0
 33
0.0
 16
1.0
 26
0.0
 36
0.0
 17
0.0
 27
1.0
 37
0.0
 76
     0
330
1B
  0
LAYOUT
  5
26
102
{ACAD_REACTORS
330
1A
102
}
330
1A
100
AcDbPlotSettings
  1

  2
none_device
  4

  6

 40
0.0
 41
0.0
 42
0.0
 43
0.0
 44
0.0
 45
0.0
 46
0.0
 47
0.0
 48
0.0
 49
0.0
140
0.0
141
0.0
142
1.0
143
1.0
 70
   688
 72
     0
 73
     0
 74
     5
  7

 75
    16
147
1.0
148
0.0
149
0.0
100
AcDbLayout
  1
Layout2
 70
     1
 71
     2
 10
0.0
 20
0.0
 11
0.0
 21
0.0
 12
0.0
 22
0.0
 32
0.0
 14
0.0
 24
0.0
 34
0.0
 15
0.0
 25
0.0
 35
0.0
146
0.0
 13
0.0
 23
0.0
 33
0.0
 16
1.0
 26
0.0
 36
0.0
 17
0.0
 27
1.0
 37
0.0
 76
     0
330
23
  0
LAYOUT
  5
22
102
{ACAD_REACTORS
330
1A
102
}
330
1A
100
AcDbPlotSettings
  1

  2
none_device
  4

  6

 40
0.0
 41
0.0
 42
0.0
 43
0.0
 44
0.0
 45
0.0
 46
0.0
 47
0.0
 48
0.0
 49
0.0
140
0.0
141
0.0
142
1.0
143
1.0
 70
  1712
 72
     0
 73
     0
 74
     0
  7

 75
     0
147
1.0
148
0.0
149
0.0
100
AcDbLayout
  1
Model
 70
     1
 71
     0
 10
0.0
 20
0.0
 11
297.0
 21
210.0
 12
0.0
 22
0.0
 32
0.0
 14
0.0
 24
0.0
 34
0.0
 15
297.0
 25
210.0
 35
0.0
146
0.0
 13
0.0
 23
0.0
 33
0.0
 16
1.0
 26
0.0
 36
0.0
 17
0.0
 27
1.0
 37
0.0
 76
     0
330
1F
331
29
  0
MLINESTYLE
  5
18
102
{ACAD_REACTORS
330
17
102
}
330
17
100
AcDbMlineStyle
  2
Standard
 70
     0
  3

 62
   256
 51
90.0
 52
90.0
 71
     2
 49
0.5
 62
   256
  6
BYLAYER
 49
-0.5
 62
   256
  6
BYLAYER
  0
ACDBPLACEHOLDER
  5
F
102
{ACAD_REACTORS
330
E
102
}
330
E
  0
VISUALSTYLE
  5
2F
102
{ACAD_REACTORS
330
2A
102
}
330
2A
100
AcDbVisualStyle
  2
2dWireframe
 70
     4
 71
     0
 72
     2
 73
     0
 90
        0
 40
-0.6
 41
-30.0
 62
     5
 63
     7
 74
     1
 91
        4
 64
     7
 65
   257
 75
     1
175
     1
 42
1.0
 92
        0
 66
   257
 43
1.0
 76
     1
 77
     6
 78
     2
 67
     7
 79
     5
170
     0
171
     0
290
     0
174
     0
 93
        1
 44
0.0
173
     0
291
     0
 45
0.0
1001
ACAD
1000
AcDbSavedByObjectVersion
1070
     0
  0
VISUALSTYLE
  5
31
102
{ACAD_REACTORS
330
2A
102
}
330
2A
100
AcDbVisualStyle
  2
3D Hidden
 70
     6
 71
     1
 72
     2
 73
     2
 90
        0
 40
-0.6
 41
-30.0
 62
     5
 63
     7
 74
     2
 91
        2
 64
     7
 65
   257
 75
     2
175
     1
 42
40.0
 92
        0
 66
   257
 43
1.0
 76
     1
 77
     6
 78
     2
 67
     7
 79
     3
170
     0
171
     0
290
     0
174
     0
 93
        1
 44
0.0
173
     0
291
     0
 45
0.0
1001
ACAD
1000
AcDbSavedByObjectVersion
1070
     0
  0
VISUALSTYLE
  5
30
102
{ACAD_REACTORS
330
2A
102
}
330
2A
100
AcDbVisualStyle
  2
3dWireframe
 70
     5
 71
     0
 72
     2
 73
     0
 90
        0
 40
-0.6
 41
-30.0
 62
     5
 63
     7
 74
     1
 91
        4
 64
     7
 65
   257
 75
     1
175
     1
 42
1.0
 92
        0
 66
   257
 43
1.0
 76
     1
 77
     6
 78
     2
 67
     7
 79
     5
170
     0
171
     0
290
     0
174
     0
 93
        1
 44
0.0
173
     0
291
     0
 45
0.0
1001
ACAD
1000
AcDbSavedByObjectVersion
1070
     0
  0
VISUALSTYLE
  5
32
102
{ACAD_REACTORS
330
2A
102
}
330
2A
100
AcDbVisualStyle
  2
Basic
 70
     7
 71
     1
 72
     0
 73
     1
 90
        0
 40
-0.6
 41
-30.0
 62
     5
 63
     7
 74
     0
 91
        4
 64
     7
 65
   257
 75
     1
175
     1
 42
1.0
 92
        8
 66
     7
 43
1.0
 76
     1
 77
     6
 78
     2
 67
     7
 79
     5
170
     0
171
     0
290
     0
174
     0
 93
        1
 44
0.0
173
     0
291
     1
 45
0.0
1001
ACAD
1000
AcDbSavedByObjectVersion
1070
     0
  0
VISUALSTYLE
  5
36
102
{ACAD_REACTORS
330
2A
102
}
330
2A
100
AcDbVisualStyle
  2
Brighten
 70
    12
 71
     2
 72
     2
 73
     0
 90
        0
 40
-0.6
 41
-30.0
 62
     5
 63
     7
 74
     1
 91
        4
 64
     7
 65
   257
 75
     1
175
     1
 42
1.0
 92
        8
 66
     7
 43
1.0
 76
     1
 77
     6
 78
     2
 67
     7
 79
     5
170
     0
171
     0
290
     0
174
     0
 93
        1
 44
50.0
173
     0
291
     1
 45
0.0
1001
ACAD
1000
AcDbSavedByObjectVersion
1070
     0
  0
VISUALSTYLE
  5
3A
102
{ACAD_REACTORS
330
2A
102
}
330
2A
100
AcDbVisualStyle
  2
ColorChange
 70
    16
 71
     2
 72
     2
 73
     3
 90
        0
 40
-0.6
 41
-30.0
 62
     5
 63
     8
 74
     1
 91
        4
 64
     7
 65
   257
 75
     1
175
     1
 42
1.0
 92
        8
 66
     8
 43
1.0
 76
     1
 77
     6
 78
     2
 67
     7
 79
     5
170
     0
171
     0
290
     0
174
     0
 93
        1
 44
0.0
173
     0
291
     1
 45
0.0
1001
ACAD
1000
AcDbSavedByObjectVersion
1070
     0
  0
VISUALSTYLE
  5
34
102
{ACAD_REACTORS
330
2A
102
}
330
2A
100
AcDbVisualStyle
  2
Conceptual
 70
     9
 71
     3
 72
     2
 73
     0
 90
        0
 40
-0.6
 41
-30.0
 62
     5
 63
     7
 74
     2
 91
        2
 64
     7
 65
   257
 75
     1
175
     1
 42
40.0
 92
        8
 66
     7
 43
1.0
 76
     1
 77
     6
 78
     2
 67
     7
 79
     3
170
     0
171
     0
290
     0
174
     0
 93
        1
 44
0.0
173
     0
291
     0
 45
0.0
1001
ACAD
1000
AcDbSavedByObjectVersion
1070
     0
  0
VISUALSTYLE
  5
35
102
{ACAD_REACTORS
330
2A
102
}
330
2A
100
AcDbVisualStyle
  2
Dim
 70
    11
 71
     2
 72
     2
 73
     0
 90
        0
 40
-0.6
 41
-30.0
 62
     5
 63
     7
 74
     1
 91
        4
 64
     7
 65
   257
 75
     1
175
     1
 42
1.0
 92
        8
 66
     7
 43
1.0
 76
     1
 77
     6
 78
     2
 67
     7
 79
     5
170
     0
171
     0
290
     0
174
     0
 93
        1
 44
-50.0
173
     0
291
     1
 45
0.0
1001
ACAD
1000
AcDbSavedByObjectVersion
1070
     0
  0
VISUALSTYLE
  5
39
102
{ACAD_REACTORS
330
2A
102
}
330
2A
100
AcDbVisualStyle
  2
Facepattern
 70
    15
 71
     2
 72
     2
 73
     0
 90
        0
 40
-0.6
 41
-30.0
 62
     5
 63
     7
 74
     1
 91
        4
 64
     7
 65
   257
 75
     1
175
     1
 42
1.0
 92
        8
 66
     7
 43
1.0
 76
     1
 77
     6
 78
     2
 67
     7
 79
     5
170
     0
171
     0
290
     0
174
     0
 93
        1
 44
0.0
173
     0
291
     1
 45
0.0
1001
ACAD
1000
AcDbSavedByObjectVersion
1070
     0
  0
VISUALSTYLE
  5
2B
102
{ACAD_REACTORS
330
2A
102
}
330
2A
100
AcDbVisualStyle
  2
Flat
 70
     0
 71
     2
 72
     1
 73
     1
 90
        2
 40
-0.6
 41
30.0
 62
     5
 63
     7
 74
     0
 91
        4
 64
     7
 65
   257
 75
     1
175
     1
 42
1.0
 92
        8
 66
     7
 43
1.0
 76
     1
 77
     6
 78
     2
 67
     7
 79
     5
170
     0
171
     0
290
     0
174
     0
 93
       13
 44
0.0
173
     0
291
     1
 45
0.0
1001
ACAD
1000
AcDbSavedByObjectVersion
1070
     0
  0
VISUALSTYLE
  5
2C
102
{ACAD_REACTORS
330
2A
102
}
330
2A
100
AcDbVisualStyle
  2
FlatWithEdges
 70
     1
 71
     2
 72
     1
 73
     1
 90
        2
 40
-0.6
 41
30.0
 62
     5
 63
     7
 74
     1
 91
        4
 64
     7
 65
   257
 75
     1
175
     1
 42
1.0
 92
        0
 66
   257
 43
1.0
 76
     1
 77
     6
 78
     2
 67
     7
 79
     5
170
     0
171
     0
290
     0
174
     0
 93
       13
 44
0.0
173
     0
291
     1
 45
0.0
1001
ACAD
1000
AcDbSavedByObjectVersion
1070
     0
  0
VISUALSTYLE
  5
2D
102
{ACAD_REACTORS
330
2A
102
}
330
2A
100
AcDbVisualStyle
  2
Gouraud
 70
     2
 71
     2
 72
     2
 73
     1
 90
        2
 40
-0.6
 41
30.0
 62
     5
 63
     7
 74
     0
 91
        4
 64
     7
 65
   257
 75
     1
175
     1
 42
1.0
 92
        0
 66
     7
 43
1.0
 76
     1
 77
     6
 78
     2
 67
     7
 79
     5
170
     0
171
     0
290
     0
174
     0
 93
       13
 44
0.0
173
     0
291
     1
 45
0.0
1001
ACAD
1000
AcDbSavedByObjectVersion
1070
     0
  0
VISUALSTYLE
  5
2E
102
{ACAD_REACTORS
330
2A
102
}
330
2A
100
AcDbVisualStyle
  2
GouraudWithEdges
 70
     3
 71
     2
 72
     2
 73
     1
 90
        2
 40
-0.6
 41
30.0
 62
     5
 63
     7
 74
     1
 91
        4
 64
     7
 65
   257
 75
     1
175
     1
 42
1.0
 92
        0
 66
   257
 43
1.0
 76
     1
 77
     6
 78
     2
 67
     7
 79
     5
170
     0
171
     0
290
     0
174
     0
 93
       13
 44
0.0
173
     0
291
     1
 45
0.0
1001
ACAD
1000
AcDbSavedByObjectVersion
1070
     0
  0
VISUALSTYLE
  5
38
102
{ACAD_REACTORS
330
2A
102
}
330
2A
100
AcDbVisualStyle
  2
Linepattern
 70
    14
 71
     2
 72
     2
 73
     0
 90
        0
 40
-0.6
 41
-30.0
 62
     5
 63
     7
 74
     1
 91
        4
 64
     7
 65
   257
 75
     7
175
     7
 42
1.0
 92
        8
 66
     7
 43
1.0
 76
     1
 77
     6
 78
     2
 67
     7
 79
     5
170
     0
171
     0
290
     0
174
     0
 93
        1
 44
0.0
173
     0
291
     1
 45
0.0
1001
ACAD
1000
AcDbSavedByObjectVersion
1070
     0
  0
VISUALSTYLE
  5
33
102
{ACAD_REACTORS
330
2A
102
}
330
2A
100
AcDbVisualStyle
  2
Realistic
 70
     8
 71
     2
 72
     2
 73
     0
 90
        0
 40
-0.6
 41
-30.0
 62
     5
 63
     7
 74
     1
 91
        0
 64
     7
 65
   257
 75
     1
175
     1
 42
1.0
 92
        8
 66
     8
 43
1.0
 76
     1
 77
     6
 78
     2
 67
     7
 79
     5
170
     0
171
     0
290
     0
174
     0
 93
       13
 44
0.0
173
     0
291
     0
 45
0.0
1001
ACAD
1000
AcDbSavedByObjectVersion
1070
     0
  0
VISUALSTYLE
  5
37
102
{ACAD_REACTORS
330
2A
102
}
330
2A
100
AcDbVisualStyle
  2
Thicken
 70
    13
 71
     2
 72
     2
 73
     0
 90
        0
 40
-0.6
 41
-30.0
 62
     5
 63
     7
 74
     1
 91
        4
 64
     7
 65
   257
 75
     1
175
     1
 42
1.0
 92
       12
 66
     7
 43
1.0
 76
     1
 77
     6
 78
     2
 67
     7
 79
     5
170
     0
171
     0
290
     0
174
     0
 93
        1
 44
0.0
173
     0
291
     1
 45
0.0
1001
ACAD
1000
AcDbSavedByObjectVersion
1070
     0
  0
DICTIONARYVAR
  5
1BB
102
{ACAD_REACTORS
330
1B9
102
}
330
1B9
100
DictionaryVariables
280
     0
  1
80.000000
  0
DICTIONARYVAR
  5
1BA
102
{ACAD_REACTORS
330
1B9
102
}
330
1B9
100
DictionaryVariables
280
     0
  1
5.000000
  0
ENDSEC
  0
EOF
