  0
SECTION
  2
HEADER
  9
$ACADVER
  1
AC1015
  9
$ACADMAINTVER
 70
     6
  9
$DWGCODEPAGE
  3
ANSI_1252
  9
$INSBASE
 10
0.0
 20
0.0
 30
0.0
  9
$EXTMIN
 10
0.0
 20
0.0
 30
0.0
  9
$EXTMAX
 10
297.0
 20
210.0
 30
0.0
  9
$LIMMIN
 10
0.0
 20
0.0
  9
$LIMMAX
 10
297.0
 20
210.0
  9
$ORTHOMODE
 70
     0
  9
$REGENMODE
 70
     1
  9
$FILLMODE
 70
     1
  9
$QTEXTMODE
 70
     0
  9
$MIRRTEXT
 70
     1
  9
$LTSCALE
 40
1.0
  9
$ATTMODE
 70
     1
  9
$TEXTSIZE
 40
2.0
  9
$TRACEWID
 40
1.0
  9
$TEXTSTYLE
  7
Standard
  9
$CLAYER
  8
0
  9
$CELTYPE
  6
ByLayer
  9
$CECOLOR
 62
   256
  9
$CELTSCALE
 40
1.0
  9
$DISPSILH
 70
     0
  9
$DIMSCALE
 40
1.0
  9
$DIMASZ
 40
3.0
  9
$DIMEXO
 40
0.0
  9
$DIMDLI
 40
3.75
  9
$DIMRND
 40
0.0
  9
$DIMDLE
 40
0.0
  9
$DIMEXE
 40
1.0
  9
$DIMTP
 40
0.0
  9
$DIMTM
 40
0.0
  9
$DIMTXT
 40
2.0
  9
$DIMCEN
 40
2.5
  9
$DIMTSZ
 40
0.0
  9
$DIMTOL
 70
     0
  9
$DIMLIM
 70
     0
  9
$DIMTIH
 70
     1
  9
$DIMTOH
 70
     1
  9
$DIMSE1
 70
     0
  9
$DIMSE2
 70
     0
  9
$DIMTAD
 70
     1
  9
$DIMZIN
 70
     0
  9
$DIMBLK
  1

  9
$DIMASO
 70
     1
  9
$DIMSHO
 70
     1
  9
$DIMPOST
  1

  9
$DIMAPOST
  1

  9
$DIMALT
 70
     0
  9
$DIMALTD
 70
     3
  9
$DIMALTF
 40
0.0393700787
  9
$DIMLFAC
 40
1.0
  9
$DIMTOFL
 70
     1
  9
$DIMTVP
 40
0.0
  9
$DIMTIX
 70
     0
  9
$DIMSOXD
 70
     0
  9
$DIMSAH
 70
     0
  9
$DIMBLK1
  1

  9
$DIMBLK2
  1

  9
$DIMSTYLE
  2
ISO-25
  9
$DIMCLRD
 70
     0
  9
$DIMCLRE
 70
     0
  9
$DIMCLRT
 70
     0
  9
$DIMTFAC
 40
1.0
  9
$DIMGAP
 40
1.524
  9
$DIMJUST
 70
     0
  9
$DIMSD1
 70
     0
  9
$DIMSD2
 70
     0
  9
$DIMTOLJ
 70
     0
  9
$DIMTZIN
 70
     0
  9
$DIMALTZ
 70
     0
  9
$DIMALTTZ
 70
     0
  9
$DIMUPT
 70
     0
  9
$DIMDEC
 70
     2
  9
$DIMTDEC
 70
     3
  9
$DIMALTU
 70
     2
  9
$DIMALTTD
 70
     3
  9
$DIMTXSTY
  7
Standard
  9
$DIMAUNIT
 70
     0
  9
$DIMADEC
 70
     2
  9
$DIMALTRND
 40
0.0
  9
$DIMAZIN
 70
     0
  9
$DIMDSEP
 70
    44
  9
$DIMATFIT
 70
     3
  9
$DIMFRAC
 70
     0
  9
$DIMLDRBLK
  1

  9
$DIMLUNIT
 70
     2
  9
$DIMLWD
 70
    -2
  9
$DIMLWE
 70
    -2
  9
$DIMTMOVE
 70
     0
  9
$LUNITS
 70
     2
  9
$LUPREC
 70
     2
  9
$SKETCHINC
 40
1.0
  9
$FILLETRAD
 40
10.0
  9
$AUNITS
 70
     0
  9
$AUPREC
 70
     2
  9
$MENU
  1
.
  9
$ELEVATION
 40
0.0
  9
$PELEVATION
 40
0.0
  9
$THICKNESS
 40
0.0
  9
$LIMCHECK
 70
     0
  9
$CHAMFERA
 40
10.0
  9
$CHAMFERB
 40
10.0
  9
$CHAMFERC
 40
20.0
  9
$CHAMFERD
 40
0.0
  9
$SKPOLY
 70
     0
  9
$TDCREATE
 40
2455679.5218336
  9
$TDUCREATE
 40
2455679.438500266
  9
$TDUPDATE
 40
2455679.521833611
  9
$TDUUPDATE
 40
2455679.438500278
  9
$TDINDWG
 40
0.0000000116
  9
$TDUSRTIMER
 40
0.0000000116
  9
$USRTIMER
 70
     1
  9
$ANGBASE
 50
0.0
  9
$ANGDIR
 70
     0
  9
$PDMODE
 70
     0
  9
$PDSIZE
 40
-1.0
  9
$PLINEWID
 40
0.0
  9
$SPLFRAME
 70
     0
  9
$SPLINETYPE
 70
     6
  9
$SPLINESEGS
 70
     8
  9
$HANDSEED
  5
245
  9
$SURFTAB1
 70
     6
  9
$SURFTAB2
 70
     6
  9
$SURFTYPE
 70
     6
  9
$SURFU
 70
     6
  9
$SURFV
 70
     6
  9
$UCSBASE
  2

  9
$UCSNAME
  2

  9
$UCSORG
 10
0.0
 20
0.0
 30
0.0
  9
$UCSXDIR
 10
1.0
 20
0.0
 30
0.0
  9
$UCSYDIR
 10
0.0
 20
1.0
 30
0.0
  9
$UCSORTHOREF
  2

  9
$UCSORTHOVIEW
 70
     0
  9
$UCSORGTOP
 10
0.0
 20
0.0
 30
0.0
  9
$UCSORGBOTTOM
 10
0.0
 20
0.0
 30
0.0
  9
$UCSORGLEFT
 10
0.0
 20
0.0
 30
0.0
  9
$UCSORGRIGHT
 10
0.0
 20
0.0
 30
0.0
  9
$UCSORGFRONT
 10
0.0
 20
0.0
 30
0.0
  9
$UCSORGBACK
 10
0.0
 20
0.0
 30
0.0
  9
$PUCSBASE
  2

  9
$PUCSNAME
  2

  9
$PUCSORG
 10
0.0
 20
0.0
 30
0.0
  9
$PUCSXDIR
 10
1.0
 20
0.0
 30
0.0
  9
$PUCSYDIR
 10
0.0
 20
1.0
 30
0.0
  9
$PUCSORTHOREF
  2

  9
$PUCSORTHOVIEW
 70
     0
  9
$PUCSORGTOP
 10
0.0
 20
0.0
 30
0.0
  9
$PUCSORGBOTTOM
 10
0.0
 20
0.0
 30
0.0
  9
$PUCSORGLEFT
 10
0.0
 20
0.0
 30
0.0
  9
$PUCSORGRIGHT
 10
0.0
 20
0.0
 30
0.0
  9
$PUCSORGFRONT
 10
0.0
 20
0.0
 30
0.0
  9
$PUCSORGBACK
 10
0.0
 20
0.0
 30
0.0
  9
$USERI1
 70
     0
  9
$USERI2
 70
     0
  9
$USERI3
 70
     0
  9
$USERI4
 70
     0
  9
$USERI5
 70
     0
  9
$USERR1
 40
0.0
  9
$USERR2
 40
0.0
  9
$USERR3
 40
0.0
  9
$USERR4
 40
0.0
  9
$USERR5
 40
0.0
  9
$WORLDVIEW
 70
     1
  9
$SHADEDGE
 70
     3
  9
$SHADEDIF
 70
    70
  9
$TILEMODE
 70
     1
  9
$MAXACTVP
 70
    64
  9
$PINSBASE
 10
0.0
 20
0.0
 30
0.0
  9
$PLIMCHECK
 70
     0
  9
$PEXTMIN
 10
1.0000000000E+20
 20
1.0000000000E+20
 30
1.0000000000E+20
  9
$PEXTMAX
 10
-1.0000000000E+20
 20
-1.0000000000E+20
 30
-1.0000000000E+20
  9
$PLIMMIN
 10
0.0
 20
0.0
  9
$PLIMMAX
 10
420.0
 20
297.0
  9
$UNITMODE
 70
     0
  9
$VISRETAIN
 70
     1
  9
$PLINEGEN
 70
     0
  9
$PSLTSCALE
 70
     1
  9
$TREEDEPTH
 70
  3020
  9
$CMLSTYLE
  2
Standard
  9
$CMLJUST
 70
     0
  9
$CMLSCALE
 40
20.0
  9
$PROXYGRAPHICS
 70
     1
  9
$MEASUREMENT
 70
     1
  9
$CELWEIGHT
370
    -1
  9
$ENDCAPS
280
     0
  9
$JOINSTYLE
280
     0
  9
$LWDISPLAY
290
     1
  9
$INSUNITS
 70
     4
  9
$HYPERLINKBASE
  1

  9
$STYLESHEET
  1

  9
$XEDIT
290
     1
  9
$CEPSNTYPE
380
     0
  9
$PSTYLEMODE
290
     1
  9
$FINGERPRINTGUID
  2
{DF9257E6-0A20-4FB9-82AE-E603FD452978}
  9
$VERSIONGUID
  2
{FAEB1C32-E019-11D5-929B-00C0DF256EC4}
  9
$EXTNAMES
290
     1
  9
$PSVPSCALE
 40
0.0
  9
$OLESTARTUP
290
     0
  0
ENDSEC
  0
SECTION
  2
CLASSES
  0
CLASS
  1
ACDBDICTIONARYWDFLT
  2
AcDbDictionaryWithDefault
  3
ObjectDBX Classes
 90
        0
280
     0
281
     0
  0
CLASS
  1
VISUALSTYLE
  2
AcDbVisualStyle
  3
ObjectDBX Classes
 90
     4095
280
     0
281
     0
  0
CLASS
  1
DICTIONARYVAR
  2
AcDbDictionaryVar
  3
ObjectDBX Classes
 90
        0
280
     0
281
     0
  0
CLASS
  1
ACDBPLACEHOLDER
  2
AcDbPlaceHolder
  3
ObjectDBX Classes
 90
        0
280
     0
281
     0
  0
CLASS
  1
LAYOUT
  2
AcDbLayout
  3
ObjectDBX Classes
 90
        0
280
     0
281
     0
  0
ENDSEC
  0
SECTION
  2
TABLES
  0
TABLE
  2
VPORT
  5
8
330
0
100
AcDbSymbolTable
 70
     1
  0
VPORT
  5
29
330
8
100
AcDbSymbolTableRecord
100
AcDbViewportTableRecord
  2
*Active
 70
     0
 10
0.0
 20
0.0
 11
1.0
 21
1.0
 12
148.5
 22
105.0
 13
0.0
 23
0.0
 14
10.0
 24
10.0
 15
10.0
 25
10.0
 16
0.0
 26
0.0
 36
1.0
 17
0.0
 27
0.0
 37
0.0
 40
210.0
 41
1.4142857143
 42
50.0
 43
0.0
 44
0.0
 50
0.0
 51
0.0
 71
     0
 72
  2000
 73
     1
 74
     3
 75
     0
 76
     0
 77
     0
 78
     0
281
     0
 65
     1
110
0.0
120
0.0
130
0.0
111
1.0
121
0.0
131
0.0
112
0.0
122
1.0
132
0.0
 79
     0
146
0.0
  0
ENDTAB
  0
TABLE
  2
LTYPE
  5
5
330
0
100
AcDbSymbolTable
 70
     6
  0
LTYPE
  5
14
330
5
100
AcDbSymbolTableRecord
100
AcDbLinetypeTableRecord
  2
ByBlock
 70
     0
  3

 72
    65
 73
     0
 40
0.0
  0
LTYPE
  5
15
330
5
100
AcDbSymbolTableRecord
100
AcDbLinetypeTableRecord
  2
ByLayer
 70
     0
  3

 72
    65
 73
     0
 40
0.0
  0
LTYPE
  5
16
330
5
100
AcDbSymbolTableRecord
100
AcDbLinetypeTableRecord
  2
Continuous
 70
     0
  3
Solid line
 72
    65
 73
     0
 40
0.0
  0
LTYPE
  5
3B
330
5
100
AcDbSymbolTableRecord
100
AcDbLinetypeTableRecord
  2
HIDDEN
 70
     0
  3
Hidden __ __ __ __ __ __ __ __ __ __ __ __ __ __
 72
    65
 73
     2
 40
1.905
 49
1.27
 74
     0
 49
-0.635
 74
     0
  0
LTYPE
  5
3C
330
5
100
AcDbSymbolTableRecord
100
AcDbLinetypeTableRecord
  2
PHANTOM
 70
     0
  3
Phantom ______  __  __  ______  __  __  ______
 72
    65
 73
     6
 40
12.7
 49
6.35
 74
     0
 49
-1.27
 74
     0
 49
1.27
 74
     0
 49
-1.27
 74
     0
 49
1.27
 74
     0
 49
-1.27
 74
     0
  0
LTYPE
  5
3D
330
5
100
AcDbSymbolTableRecord
100
AcDbLinetypeTableRecord
  2
CENTER
 70
     0
  3
Center ____ _ ____ _ ____ _ ____ _ ____ _ ____
 72
    65
 73
     4
 40
10.16
 49
6.35
 74
     0
 49
-1.27
 74
     0
 49
1.27
 74
     0
 49
-1.27
 74
     0
  0
LTYPE
  5
3E
330
5
100
AcDbSymbolTableRecord
100
AcDbLinetypeTableRecord
  2
CENTERX2
 70
     0
  3
Center (2x) ________  __  ________  __  _____
 72
    65
 73
     4
 40
20.32
 49
12.7
 74
     0
 49
-2.54
 74
     0
 49
2.54
 74
     0
 49
-2.54
 74
     0
  0
LTYPE
  5
3F
330
5
100
AcDbSymbolTableRecord
100
AcDbLinetypeTableRecord
  2
DOT2
 70
     0
  3
Dot (.5x) ........................................
 72
    65
 73
     2
 40
0.635
 49
0.0
 74
     0
 49
-0.635
 74
     0
  0
ENDTAB
  0
TABLE
  2
LAYER
  5
2
330
0
100
AcDbSymbolTable
 70
     5
  0
LAYER
  5
10
330
2
100
AcDbSymbolTableRecord
100
AcDbLayerTableRecord
  2
0
 70
     0
 62
     7
  6
Continuous
370
    -3
390
F
  0
LAYER
  5
40
330
2
100
AcDbSymbolTableRecord
100
AcDbLayerTableRecord
  2
FORMAT
 70
     0
 62
     7
  6
Continuous
370
    -3
390
F
  0
LAYER
  5
41
330
2
100
AcDbSymbolTableRecord
100
AcDbLayerTableRecord
  2
VERMASSUNG
 70
     0
 62
     7
  6
Continuous
370
    -3
390
F
  0
LAYER
  5
42
330
2
100
AcDbSymbolTableRecord
100
AcDbLayerTableRecord
  2
KOPF_DÜNN
 70
     0
 62
     7
  6
Continuous
370
    -3
390
F
  0
LAYER
  5
43
330
2
100
AcDbSymbolTableRecord
100
AcDbLayerTableRecord
  2
KOPF_DICK
 70
     0
 62
     7
  6
Continuous
370
    15
390
F
  0
ENDTAB
  0
TABLE
  2
STYLE
  5
3
330
0
100
AcDbSymbolTable
 70
     3
  0
STYLE
  5
11
330
3
100
AcDbSymbolTableRecord
100
AcDbTextStyleTableRecord
  2
Standard
 70
     0
 40
0.0
 41
1.0
 50
0.0
 71
     0
 42
2.5
  3
txt
  4

  0
STYLE
  5
44
330
3
100
AcDbSymbolTableRecord
100
AcDbTextStyleTableRecord
  2
SLDTEXTSTYLE0
 70
     0
 40
0.0
 41
0.7
 50
0.0
 71
     0
 42
0.2
  3
TXT
  4

  0
STYLE
  5
48
330
3
100
AcDbSymbolTableRecord
100
AcDbTextStyleTableRecord
  2
SLDTEXTSTYLE1
 70
     0
 40
0.0
 41
0.6473684211
 50
0.0
 71
     0
 42
0.2
  3
TXT
  4

  0
ENDTAB
  0
TABLE
  2
VIEW
  5
6
330
0
100
AcDbSymbolTable
 70
     0
  0
ENDTAB
  0
TABLE
  2
UCS
  5
7
330
0
100
AcDbSymbolTable
 70
     0
  0
ENDTAB
  0
TABLE
  2
APPID
  5
9
330
0
100
AcDbSymbolTable
 70
     1
  0
APPID
  5
12
330
9
100
AcDbSymbolTableRecord
100
AcDbRegAppTableRecord
  2
ACAD
 70
     0
  0
ENDTAB
  0
TABLE
  2
DIMSTYLE
  5
A
330
0
100
AcDbSymbolTable
 70
     5
100
AcDbDimStyleTable
  0
DIMSTYLE
105
27
330
A
100
AcDbSymbolTableRecord
100
AcDbDimStyleTableRecord
  2
ISO-25
 70
     0
 41
2.5
 42
0.625
 43
3.75
 44
1.25
 73
     0
 74
     0
 77
     1
 78
     8
140
2.5
141
2.5
143
0.0393700787
147
0.625
171
     3
172
     1
271
     2
272
     2
274
     3
278
    44
283
     0
284
     8
340
11
  0
DIMSTYLE
105
1E5
102
{ACAD_REACTORS
330
1E4
330
220
330
22A
330
234
102
}
330
A
100
AcDbSymbolTableRecord
100
AcDbDimStyleTableRecord
  2
SLDDIMSTYLE0
 70
     0
 41
3.0
 44
0.0
 45
0.000000001
 73
     0
 74
     0
 77
     1
 78
    12
140
2.0
147
0.5
173
     1
271
     2
272
     3
284
    12
340
44
  0
DIMSTYLE
105
1F2
102
{ACAD_REACTORS
330
1F1
102
}
330
A
100
AcDbSymbolTableRecord
100
AcDbDimStyleTableRecord
  2
SLDDIMSTYLE1
 70
     0
 41
3.0
 44
0.0
 45
0.000000001
 73
     0
 74
     0
 77
     1
 78
    12
140
2.0
147
0.5
173
     1
271
     2
272
     2
284
    12
340
44
  0
DIMSTYLE
105
1FD
102
{ACAD_REACTORS
330
1FC
102
}
330
A
100
AcDbSymbolTableRecord
100
AcDbDimStyleTableRecord
  2
SLDDIMSTYLE2
 70
     0
 41
3.0
 44
0.0
 45
0.000000001
 73
     0
 74
     0
 77
     1
 78
    12
140
2.0
147
0.5
173
     1
271
     2
272
     2
284
    12
340
44
  0
DIMSTYLE
105
20A
102
{ACAD_REACTORS
330
209
330
215
102
}
330
A
100
AcDbSymbolTableRecord
100
AcDbDimStyleTableRecord
  2
SLDDIMSTYLE3
 70
     0
 41
3.0
 44
0.0
 45
0.000000001
 73
     0
 74
     0
 77
     1
 78
    12
140
2.0
147
0.5
173
     1
271
     2
272
     3
284
    12
340
44
  0
ENDTAB
  0
TABLE
  2
BLOCK_RECORD
  5
1
330
0
100
AcDbSymbolTable
 70
     9
  0
BLOCK_RECORD
  5
1F
330
1
100
AcDbSymbolTableRecord
100
AcDbBlockTableRecord
  2
*Model_Space
340
22
  0
BLOCK_RECORD
  5
1B
330
1
100
AcDbSymbolTableRecord
100
AcDbBlockTableRecord
  2
*Paper_Space
340
1E
  0
BLOCK_RECORD
  5
23
330
1
100
AcDbSymbolTableRecord
100
AcDbBlockTableRecord
  2
*Paper_Space0
340
26
  0
BLOCK_RECORD
  5
1E6
330
1
100
AcDbSymbolTableRecord
100
AcDbBlockTableRecord
  2
*D1
340
0
  0
BLOCK_RECORD
  5
1F3
330
1
100
AcDbSymbolTableRecord
100
AcDbBlockTableRecord
  2
*D2
340
0
  0
BLOCK_RECORD
  5
1FE
330
1
100
AcDbSymbolTableRecord
100
AcDbBlockTableRecord
  2
*D3
340
0
  0
BLOCK_RECORD
  5
20B
330
1
100
AcDbSymbolTableRecord
100
AcDbBlockTableRecord
  2
*D4
340
0
  0
BLOCK_RECORD
  5
216
330
1
100
AcDbSymbolTableRecord
100
AcDbBlockTableRecord
  2
*D5
340
0
  0
BLOCK_RECORD
  5
221
330
1
100
AcDbSymbolTableRecord
100
AcDbBlockTableRecord
  2
*D6
340
0
  0
BLOCK_RECORD
  5
22B
330
1
100
AcDbSymbolTableRecord
100
AcDbBlockTableRecord
  2
*D7
340
0
  0
BLOCK_RECORD
  5
235
330
1
100
AcDbSymbolTableRecord
100
AcDbBlockTableRecord
  2
*D8
340
0
  0
ENDTAB
  0
ENDSEC
  0
SECTION
  2
BLOCKS
  0
BLOCK
  5
20
330
1F
100
AcDbEntity
  8
0
100
AcDbBlockBegin
  2
*Model_Space
 70
     0
 10
0.0
 20
0.0
 30
0.0
  3
*Model_Space
  1

  0
ENDBLK
  5
21
330
1F
100
AcDbEntity
  8
0
100
AcDbBlockEnd
  0
BLOCK
  5
1C
330
1B
100
AcDbEntity
 67
     1
  8
0
100
AcDbBlockBegin
  2
*Paper_Space
 70
     0
 10
0.0
 20
0.0
 30
0.0
  3
*Paper_Space
  1

  0
ENDBLK
  5
1D
330
1B
100
AcDbEntity
 67
     1
  8
0
100
AcDbBlockEnd
  0
BLOCK
  5
24
330
23
100
AcDbEntity
  8
0
100
AcDbBlockBegin
  2
*Paper_Space0
 70
     0
 10
0.0
 20
0.0
 30
0.0
  3
*Paper_Space0
  1

  0
ENDBLK
  5
25
330
23
100
AcDbEntity
  8
0
100
AcDbBlockEnd
  0
BLOCK
  5
1E7
330
1E6
100
AcDbEntity
  8
0
100
AcDbBlockBegin
  2
*D1
 70
     1
 10
0.0
 20
0.0
 30
0.0
  3
*D1
  1

  0
SOLID
  5
1E9
330
1E6
100
AcDbEntity
  8
VERMASSUNG
100
AcDbTrace
 10
79.5754062839
 20
138.0084507042
 30
0.0
 11
79.1254062839
 21
135.0084507042
 31
0.0
 12
80.0254062839
 22
135.0084507042
 32
0.0
 13
80.0254062839
 23
135.0084507042
 33
0.0
  0
SOLID
  5
1EA
330
1E6
100
AcDbEntity
  8
VERMASSUNG
100
AcDbTrace
 10
79.5754062839
 20
75.0084507042
 30
0.0
 11
80.0254062839
 21
78.0084507042
 31
0.0
 12
79.1254062839
 22
78.0084507042
 32
0.0
 13
79.1254062839
 23
78.0084507042
 33
0.0
  0
LINE
  5
1EB
330
1E6
100
AcDbEntity
  8
VERMASSUNG
100
AcDbLine
 10
119.1242617739
 20
138.0084507042
 30
0.0
 11
78.5754062839
 21
138.0084507042
 31
0.0
  0
LINE
  5
1EC
330
1E6
100
AcDbEntity
  8
VERMASSUNG
100
AcDbLine
 10
119.1242617739
 20
75.0084507042
 30
0.0
 11
78.5754062839
 21
75.0084507042
 31
0.0
  0
LINE
  5
1ED
330
1E6
100
AcDbEntity
  8
VERMASSUNG
100
AcDbLine
 10
79.5754062839
 20
138.0084507042
 30
0.0
 11
79.5754062839
 21
75.0084507042
 31
0.0
  0
MTEXT
  5
1EE
330
1E6
100
AcDbEntity
  8
VERMASSUNG
100
AcDbMText
 10
76.7972707948
 20
98.8049089924
 30
0.0
 40
2.0
 41
0.0
 71
     1
 72
     1
  1
HSK A 
  7
SLDTEXTSTYLE0
 11
-7.044195017643634E-15
 21
1.0
 31
0.0
 73
     1
 44
1.0
  0
MTEXT
  5
1EF
330
1E6
100
AcDbEntity
  8
VERMASSUNG
100
AcDbMText
 10
76.9972708043
 20
107.8049095363
 30
0.0
 40
2.0
 41
0.0
 71
     1
 72
     1
  1
%%c
  7
SLDTEXTSTYLE0
 11
-7.044195017643634E-15
 21
1.0
 31
0.0
 73
     1
 44
1.0
  0
MTEXT
  5
1F0
330
1E6
100
AcDbEntity
  8
VERMASSUNG
100
AcDbMText
 10
76.9972709207
 20
111.4132361863
 30
0.0
 40
2.0
 41
0.0
 71
     1
 72
     1
  1
63
  7
SLDTEXTSTYLE0
 11
-7.044195017643634E-15
 21
1.0
 31
0.0
 73
     1
 44
1.0
  0
ENDBLK
  5
1E8
330
1E6
100
AcDbEntity
  8
0
100
AcDbBlockEnd
  0
BLOCK
  5
1F4
330
1F3
100
AcDbEntity
  8
0
100
AcDbBlockBegin
  2
*D2
 70
     1
 10
0.0
 20
0.0
 30
0.0
  3
*D2
  1

  0
SOLID
  5
1F6
330
1F3
100
AcDbEntity
  8
VERMASSUNG
100
AcDbTrace
 10
164.3242617739
 20
138.9981581798
 30
0.0
 11
167.3242617739
 21
138.5481581798
 31
0.0
 12
167.3242617739
 22
139.4481581798
 32
0.0
 13
167.3242617739
 23
139.4481581798
 33
0.0
  0
SOLID
  5
1F7
330
1F3
100
AcDbEntity
  8
VERMASSUNG
100
AcDbTrace
 10
213.8242617739
 20
138.9981581798
 30
0.0
 11
210.8242617739
 21
139.4481581798
 31
0.0
 12
210.8242617739
 22
138.5481581798
 32
0.0
 13
210.8242617739
 23
138.5481581798
 33
0.0
  0
LINE
  5
1F8
330
1F3
100
AcDbEntity
  8
VERMASSUNG
100
AcDbLine
 10
164.3242617739
 20
114.4084507042
 30
0.0
 11
164.3242617739
 21
139.9981581798
 31
0.0
  0
LINE
  5
1F9
330
1F3
100
AcDbEntity
  8
VERMASSUNG
100
AcDbLine
 10
213.8242617739
 20
118.1596697209
 30
0.0
 11
213.8242617739
 21
139.9981581798
 31
0.0
  0
LINE
  5
1FA
330
1F3
100
AcDbEntity
  8
VERMASSUNG
100
AcDbLine
 10
164.3242617739
 20
138.9981581798
 30
0.0
 11
213.8242617739
 21
138.9981581798
 31
0.0
  0
MTEXT
  5
1FB
330
1F3
100
AcDbEntity
  8
VERMASSUNG
100
AcDbMText
 10
186.5748749917
 20
141.576293543
 30
0.0
 40
2.0
 41
0.0
 71
     1
 72
     1
  1
49.5
  7
SLDTEXTSTYLE0
 73
     1
 44
1.0
  0
ENDBLK
  5
1F5
330
1F3
100
AcDbEntity
  8
0
100
AcDbBlockEnd
  0
BLOCK
  5
1FF
330
1FE
100
AcDbEntity
  8
0
100
AcDbBlockBegin
  2
*D3
 70
     1
 10
0.0
 20
0.0
 30
0.0
  3
*D3
  1

  0
SOLID
  5
201
330
1FE
100
AcDbEntity
  8
VERMASSUNG
100
AcDbTrace
 10
220.2094257855
 20
98.5084507042
 30
0.0
 11
220.6594257855
 21
101.5084507042
 31
0.0
 12
219.7594257855
 22
101.5084507042
 32
0.0
 13
219.7594257855
 23
101.5084507042
 33
0.0
  0
SOLID
  5
202
330
1FE
100
AcDbEntity
  8
VERMASSUNG
100
AcDbTrace
 10
220.2094257855
 20
114.5084507042
 30
0.0
 11
219.7594257855
 21
111.5084507042
 31
0.0
 12
220.6594257855
 22
111.5084507042
 32
0.0
 13
220.6594257855
 23
111.5084507042
 33
0.0
  0
LINE
  5
203
330
1FE
100
AcDbEntity
  8
VERMASSUNG
100
AcDbLine
 10
210.3242617739
 20
98.5084507042
 30
0.0
 11
221.2094257855
 21
98.5084507042
 31
0.0
  0
LINE
  5
204
330
1FE
100
AcDbEntity
  8
VERMASSUNG
100
AcDbLine
 10
210.3242617739
 20
114.5084507042
 30
0.0
 11
221.2094257855
 21
114.5084507042
 31
0.0
  0
LINE
  5
205
330
1FE
100
AcDbEntity
  8
VERMASSUNG
100
AcDbLine
 10
220.2094257855
 20
98.5084507042
 30
0.0
 11
220.2094257855
 21
114.5084507042
 31
0.0
  0
MTEXT
  5
206
330
1FE
100
AcDbEntity
  8
VERMASSUNG
100
AcDbMText
 10
217.6312903059
 20
102.9044138678
 30
0.0
 40
2.0
 41
0.0
 71
     1
 72
     1
  1
%%c
  7
SLDTEXTSTYLE0
 11
6.123233995736766E-17
 21
1.0
 31
0.0
 73
     1
 44
1.0
  0
MTEXT
  5
207
330
1FE
100
AcDbEntity
  8
VERMASSUNG
100
AcDbMText
 10
217.6312904224
 20
106.513092091
 30
0.0
 40
2.0
 41
0.0
 71
     1
 72
     1
  1
16
  7
SLDTEXTSTYLE0
 11
6.123233995736766E-17
 21
1.0
 31
0.0
 73
     1
 44
1.0
  0
MTEXT
  5
208
330
1FE
100
AcDbEntity
  8
VERMASSUNG
100
AcDbMText
 10
217.6312904224
 20
108.9126890574
 30
0.0
 40
2.0
 41
0.0
 71
     1
 72
     1
  1
 
  7
SLDTEXTSTYLE0
 11
6.123233995736766E-17
 21
1.0
 31
0.0
 73
     1
 44
1.0
  0
ENDBLK
  5
200
330
1FE
100
AcDbEntity
  8
0
100
AcDbBlockEnd
  0
BLOCK
  5
20C
330
20B
100
AcDbEntity
  8
0
100
AcDbBlockBegin
  2
*D4
 70
     1
 10
0.0
 20
0.0
 30
0.0
  3
*D4
  1

  0
SOLID
  5
20E
330
20B
100
AcDbEntity
  8
VERMASSUNG
100
AcDbTrace
 10
226.2094257855
 20
93.0084507042
 30
0.0
 11
226.6594257855
 21
96.0084507042
 31
0.0
 12
225.7594257855
 22
96.0084507042
 32
0.0
 13
225.7594257855
 23
96.0084507042
 33
0.0
  0
SOLID
  5
20F
330
20B
100
AcDbEntity
  8
VERMASSUNG
100
AcDbTrace
 10
226.2094257855
 20
120.0084507042
 30
0.0
 11
225.7594257855
 21
117.0084507042
 31
0.0
 12
226.6594257855
 22
117.0084507042
 32
0.0
 13
226.6594257855
 23
117.0084507042
 33
0.0
  0
LINE
  5
210
330
20B
100
AcDbEntity
  8
VERMASSUNG
100
AcDbLine
 10
213.8242617739
 20
93.0084507042
 30
0.0
 11
227.2094257855
 21
93.0084507042
 31
0.0
  0
LINE
  5
211
330
20B
100
AcDbEntity
  8
VERMASSUNG
100
AcDbLine
 10
213.8242617739
 20
120.0084507042
 30
0.0
 11
227.2094257855
 21
120.0084507042
 31
0.0
  0
LINE
  5
212
330
20B
100
AcDbEntity
  8
VERMASSUNG
100
AcDbLine
 10
226.2094257855
 20
93.0084507042
 30
0.0
 11
226.2094257855
 21
120.0084507042
 31
0.0
  0
MTEXT
  5
213
330
20B
100
AcDbEntity
  8
VERMASSUNG
100
AcDbMText
 10
223.6312903059
 20
103.3047334778
 30
0.0
 40
2.0
 41
0.0
 71
     1
 72
     1
  1
%%c
  7
SLDTEXTSTYLE0
 11
6.123233995736766E-17
 21
1.0
 31
0.0
 73
     1
 44
1.0
  0
MTEXT
  5
214
330
20B
100
AcDbEntity
  8
VERMASSUNG
100
AcDbMText
 10
223.6312904224
 20
106.913411701
 30
0.0
 40
2.0
 41
0.0
 71
     1
 72
     1
  1
27
  7
SLDTEXTSTYLE0
 11
6.123233995736766E-17
 21
1.0
 31
0.0
 73
     1
 44
1.0
  0
ENDBLK
  5
20D
330
20B
100
AcDbEntity
  8
0
100
AcDbBlockEnd
  0
BLOCK
  5
217
330
216
100
AcDbEntity
  8
0
100
AcDbBlockBegin
  2
*D5
 70
     1
 10
0.0
 20
0.0
 30
0.0
  3
*D5
  1

  0
SOLID
  5
219
330
216
100
AcDbEntity
  8
VERMASSUNG
100
AcDbTrace
 10
232.2094257855
 20
89.5084507042
 30
0.0
 11
232.6594257855
 21
92.5084507042
 31
0.0
 12
231.7594257855
 22
92.5084507042
 32
0.0
 13
231.7594257855
 23
92.5084507042
 33
0.0
  0
SOLID
  5
21A
330
216
100
AcDbEntity
  8
VERMASSUNG
100
AcDbTrace
 10
232.2094257855
 20
123.5084507042
 30
0.0
 11
231.7594257855
 21
120.5084507042
 31
0.0
 12
232.6594257855
 22
120.5084507042
 32
0.0
 13
232.6594257855
 23
120.5084507042
 33
0.0
  0
LINE
  5
21B
330
216
100
AcDbEntity
  8
VERMASSUNG
100
AcDbLine
 10
163.8242617739
 20
89.5084507042
 30
0.0
 11
233.2094257855
 21
89.5084507042
 31
0.0
  0
LINE
  5
21C
330
216
100
AcDbEntity
  8
VERMASSUNG
100
AcDbLine
 10
163.8242617739
 20
123.5084507042
 30
0.0
 11
233.2094257855
 21
123.5084507042
 31
0.0
  0
LINE
  5
21D
330
216
100
AcDbEntity
  8
VERMASSUNG
100
AcDbLine
 10
232.2094257855
 20
89.5084507042
 30
0.0
 11
232.2094257855
 21
123.5084507042
 31
0.0
  0
MTEXT
  5
21E
330
216
100
AcDbEntity
  8
VERMASSUNG
100
AcDbMText
 10
229.6312903059
 20
103.204943662
 30
0.0
 40
2.0
 41
0.0
 71
     1
 72
     1
  1
%%c
  7
SLDTEXTSTYLE0
 11
6.123233995736766E-17
 21
1.0
 31
0.0
 73
     1
 44
1.0
  0
MTEXT
  5
21F
330
216
100
AcDbEntity
  8
VERMASSUNG
100
AcDbMText
 10
229.6312904224
 20
106.8136218852
 30
0.0
 40
2.0
 41
0.0
 71
     1
 72
     1
  1
34
  7
SLDTEXTSTYLE0
 11
6.123233995736766E-17
 21
1.0
 31
0.0
 73
     1
 44
1.0
  0
ENDBLK
  5
218
330
216
100
AcDbEntity
  8
0
100
AcDbBlockEnd
  0
BLOCK
  5
222
330
221
100
AcDbEntity
  8
0
100
AcDbBlockBegin
  2
*D6
 70
     1
 10
0.0
 20
0.0
 30
0.0
  3
*D6
  1

  0
SOLID
  5
224
330
221
100
AcDbEntity
  8
VERMASSUNG
100
AcDbTrace
 10
118.8242617739
 20
150.9981581798
 30
0.0
 11
121.8242617739
 21
150.5481581798
 31
0.0
 12
121.8242617739
 22
151.4481581798
 32
0.0
 13
121.8242617739
 23
151.4481581798
 33
0.0
  0
SOLID
  5
225
330
221
100
AcDbEntity
  8
VERMASSUNG
100
AcDbTrace
 10
213.8242617739
 20
150.9981581798
 30
0.0
 11
210.8242617739
 21
151.4481581798
 31
0.0
 12
210.8242617739
 22
150.5481581798
 32
0.0
 13
210.8242617739
 23
150.5481581798
 33
0.0
  0
LINE
  5
226
330
221
100
AcDbEntity
  8
VERMASSUNG
100
AcDbLine
 10
118.8242617739
 20
106.5084507042
 30
0.0
 11
118.8242617739
 21
151.9981581798
 31
0.0
  0
LINE
  5
227
330
221
100
AcDbEntity
  8
VERMASSUNG
100
AcDbLine
 10
213.8242617739
 20
118.1596697209
 30
0.0
 11
213.8242617739
 21
151.9981581798
 31
0.0
  0
LINE
  5
228
330
221
100
AcDbEntity
  8
VERMASSUNG
100
AcDbLine
 10
118.8242617739
 20
150.9981581798
 30
0.0
 11
213.8242617739
 21
150.9981581798
 31
0.0
  0
MTEXT
  5
229
330
221
100
AcDbEntity
  8
VERMASSUNG
100
AcDbMText
 10
164.9248836591
 20
153.576293543
 30
0.0
 40
2.0
 41
0.0
 71
     1
 72
     1
  1
95
  7
SLDTEXTSTYLE0
 73
     1
 44
1.0
  0
ENDBLK
  5
223
330
221
100
AcDbEntity
  8
0
100
AcDbBlockEnd
  0
BLOCK
  5
22C
330
22B
100
AcDbEntity
  8
0
100
AcDbBlockBegin
  2
*D7
 70
     1
 10
0.0
 20
0.0
 30
0.0
  3
*D7
  1

  0
SOLID
  5
22E
330
22B
100
AcDbEntity
  8
VERMASSUNG
100
AcDbTrace
 10
144.7742617739
 20
144.9981581798
 30
0.0
 11
147.7742617739
 21
144.5481581798
 31
0.0
 12
147.7742617739
 22
145.4481581798
 32
0.0
 13
147.7742617739
 23
145.4481581798
 33
0.0
  0
SOLID
  5
22F
330
22B
100
AcDbEntity
  8
VERMASSUNG
100
AcDbTrace
 10
213.8242617739
 20
144.9981581798
 30
0.0
 11
210.8242617739
 21
145.4481581798
 31
0.0
 12
210.8242617739
 22
144.5481581798
 32
0.0
 13
210.8242617739
 23
144.5481581798
 33
0.0
  0
LINE
  5
230
330
22B
100
AcDbEntity
  8
VERMASSUNG
100
AcDbLine
 10
144.7742617739
 20
136.354891028
 30
0.0
 11
144.7742617739
 21
145.9981581798
 31
0.0
  0
LINE
  5
231
330
22B
100
AcDbEntity
  8
VERMASSUNG
100
AcDbLine
 10
213.8242617739
 20
118.107898464
 30
0.0
 11
213.8242617739
 21
145.9981581798
 31
0.0
  0
LINE
  5
232
330
22B
100
AcDbEntity
  8
VERMASSUNG
100
AcDbLine
 10
144.7742617739
 20
144.9981581798
 30
0.0
 11
213.8242617739
 21
144.9981581798
 31
0.0
  0
MTEXT
  5
233
330
22B
100
AcDbEntity
  8
VERMASSUNG
100
AcDbMText
 10
176.1999757501
 20
147.576293543
 30
0.0
 40
2.0
 41
0.0
 71
     1
 72
     1
  1
69.05
  7
SLDTEXTSTYLE0
 73
     1
 44
1.0
  0
ENDBLK
  5
22D
330
22B
100
AcDbEntity
  8
0
100
AcDbBlockEnd
  0
BLOCK
  5
236
330
235
100
AcDbEntity
  8
0
100
AcDbBlockBegin
  2
*D8
 70
     1
 10
0.0
 20
0.0
 30
0.0
  3
*D8
  1

  0
SOLID
  5
238
330
235
100
AcDbEntity
  8
VERMASSUNG
100
AcDbTrace
 10
86.9242617739
 20
156.9981581798
 30
0.0
 11
89.9242617739
 21
156.5481581798
 31
0.0
 12
89.9242617739
 22
157.4481581798
 32
0.0
 13
89.9242617739
 23
157.4481581798
 33
0.0
  0
SOLID
  5
239
330
235
100
AcDbEntity
  8
VERMASSUNG
100
AcDbTrace
 10
213.8242617739
 20
156.9981581798
 30
0.0
 11
210.8242617739
 21
157.4481581798
 31
0.0
 12
210.8242617739
 22
156.5481581798
 32
0.0
 13
210.8242617739
 23
156.5481581798
 33
0.0
  0
LINE
  5
23A
330
235
100
AcDbEntity
  8
VERMASSUNG
100
AcDbLine
 10
86.9242617739
 20
126.1991284507
 30
0.0
 11
86.9242617739
 21
157.9981581798
 31
0.0
  0
LINE
  5
23B
330
235
100
AcDbEntity
  8
VERMASSUNG
100
AcDbLine
 10
213.8242617739
 20
118.107898464
 30
0.0
 11
213.8242617739
 21
157.9981581798
 31
0.0
  0
LINE
  5
23C
330
235
100
AcDbEntity
  8
VERMASSUNG
100
AcDbLine
 10
86.9242617739
 20
156.9981581798
 30
0.0
 11
213.8242617739
 21
156.9981581798
 31
0.0
  0
MTEXT
  5
23D
330
235
100
AcDbEntity
  8
VERMASSUNG
100
AcDbMText
 10
147.4745553817
 20
159.576293543
 30
0.0
 40
2.0
 41
0.0
 71
     1
 72
     1
  1
126.9
  7
SLDTEXTSTYLE0
 73
     1
 44
1.0
  0
ENDBLK
  5
237
330
235
100
AcDbEntity
  8
0
100
AcDbBlockEnd
  0
ENDSEC
  0
SECTION
  2
ENTITIES
  0
MTEXT
  5
45
330
1F
100
AcDbEntity
  8
KOPF_DÜNN
100
AcDbMText
 10
13.8892156294
 20
23.8442973028
 30
0.0
 40
3.0
 41
0.0
 71
     1
 72
     1
  1
HA6.S16.K21.095
  7
SLDTEXTSTYLE0
 73
     1
 44
1.0
  0
MTEXT
  5
46
330
1F
100
AcDbEntity
  8
VERMASSUNG
100
AcDbMText
 10
13.9329988022
 20
28.8834360957
 30
0.0
 40
3.0
 41
0.0
 71
     1
 72
     1
  1
Schrumpffutter_Heat shrink chuck
  7
SLDTEXTSTYLE0
 73
     1
 44
1.0
  0
MTEXT
  5
47
330
1F
100
AcDbEntity
  8
VERMASSUNG
100
AcDbMText
 10
98.8601118557
 20
13.8365368179
 30
0.0
 40
2.0
 41
0.0
 71
     1
 72
     1
  1
Datum: 27.04.2011
  7
SLDTEXTSTYLE0
 73
     1
 44
1.0
  0
MTEXT
  5
49
330
1F
100
AcDbEntity
  8
VERMASSUNG
100
AcDbMText
 10
13.933048693
 20
18.0482802738
 30
0.0
 40
2.0
 41
0.0
 71
     1
 72
     1
  1
DIN 69 893 HSK A 63
  7
SLDTEXTSTYLE1
 73
     1
 44
1.0
  0
MTEXT
  5
4A
330
1F
100
AcDbEntity
  8
VERMASSUNG
100
AcDbMText
 10
13.9808475933
 20
13.9090973692
 30
0.0
 40
2.0
 41
0.0
 71
     1
 72
     1
  1
Gewicht: 975g
  7
SLDTEXTSTYLE0
 73
     1
 44
1.0
  0
ARC
  5
4B
330
1F
100
AcDbEntity
  8
0
  6
Continuous
 62
     7
370
    15
100
AcDbCircle
 10
119.1242617739
 20
75.3084507042
 30
0.0
 40
0.2999999999999972
100
AcDbArc
 50
180.0
 51
270.0
  0
ARC
  5
4C
330
1F
100
AcDbEntity
  8
0
  6
Continuous
 62
     7
370
    15
100
AcDbCircle
 10
119.1242617739
 20
137.7084507042
 30
0.0
 40
0.2999999999999972
100
AcDbArc
 50
90.0
 51
180.0
  0
LINE
  5
4D
330
1F
100
AcDbEntity
  8
0
  6
Continuous
 62
     7
370
    15
100
AcDbLine
 10
119.1242617739
 20
75.0084507042
 30
0.0
 11
123.7742617739
 21
75.0084507042
 31
0.0
  0
LINE
  5
4E
330
1F
100
AcDbEntity
  8
0
  6
Continuous
 62
     7
370
    15
100
AcDbLine
 10
123.7835698607
 20
138.0084507042
 30
0.0
 11
119.1242617739
 21
138.0084507042
 31
0.0
  0
ARC
  5
4F
330
1F
100
AcDbEntity
  8
0
  6
Continuous
 62
     7
370
    15
100
AcDbCircle
 10
118.3242550212
 20
81.9380130898
 30
0.0
 40
0.6000067526677164
100
AcDbArc
 50
33.5571153394
 51
90.0
  0
ARC
  5
50
330
1F
100
AcDbEntity
  8
0
  6
Continuous
 62
     7
370
    15
100
AcDbCircle
 10
118.3242550212
 20
131.0788883186
 30
0.0
 40
0.6000067526677242
100
AcDbArc
 50
270.0
 51
326.4428846606
  0
LINE
  5
51
330
1F
100
AcDbEntity
  8
0
  6
Continuous
 62
     7
370
    15
100
AcDbLine
 10
116.8242617739
 20
82.2880198425
 30
0.0
 11
117.6809745473
 21
82.5175753383
 31
0.0
  0
LINE
  5
52
330
1F
100
AcDbEntity
  8
0
  6
Continuous
 62
     7
370
    15
100
AcDbLine
 10
117.6809745473
 20
130.4993260702
 30
0.0
 11
116.8242617739
 21
130.7288815659
 31
0.0
  0
LINE
  5
53
330
1F
100
AcDbEntity
  8
0
  6
Continuous
 62
     7
370
    15
100
AcDbLine
 10
105.5927529751
 20
130.1661807243
 30
0.0
 11
93.0242617739
 21
129.5364967964
 31
0.0
  0
LINE
  5
54
330
1F
100
AcDbEntity
  8
0
  6
Continuous
 62
     7
370
    15
100
AcDbLine
 10
116.8242617739
 20
130.7288815659
 30
0.0
 11
114.0072601166
 21
130.5877492184
 31
0.0
  0
LINE
  5
55
330
1F
100
AcDbEntity
  8
0
  6
Continuous
 62
     7
370
    15
100
AcDbLine
 10
114.0073162066
 20
82.4291493799
 30
0.0
 11
116.8242617739
 21
82.2880198425
 31
0.0
  0
LINE
  5
56
330
1F
100
AcDbEntity
  8
0
  6
Continuous
 62
     7
370
    15
100
AcDbLine
 10
97.0242617739
 20
83.2800038104
 30
0.0
 11
105.5931554938
 21
82.8507005179
 31
0.0
  0
ARC
  5
57
330
1F
100
AcDbEntity
  8
0
  6
Continuous
 62
     7
370
    15
100
AcDbCircle
 10
117.8362659743
 20
81.9380198425
 30
0.0
 40
0.6000000000000085
100
AcDbArc
 50
90.0
 51
105.0
  0
ARC
  5
58
330
1F
100
AcDbEntity
  8
0
  6
Continuous
 62
     7
370
    15
100
AcDbCircle
 10
117.8362659743
 20
131.0788815659
 30
0.0
 40
0.5999999999999943
100
AcDbArc
 50
255.0
 51
270.0
  0
LINE
  5
59
330
1F
100
AcDbEntity
  8
0
  6
Continuous
 62
     7
370
    15
100
AcDbLine
 10
117.8362659743
 20
82.5380198425
 30
0.0
 11
118.3242550212
 21
82.5380198425
 31
0.0
  0
LINE
  5
5A
330
1F
100
AcDbEntity
  8
0
  6
Continuous
 62
     7
370
    15
100
AcDbLine
 10
118.3242550212
 20
130.4788815659
 30
0.0
 11
117.8362659743
 21
130.4788815659
 31
0.0
  0
ARC
  5
5B
330
1F
100
AcDbEntity
  8
0
  6
Continuous
 62
     7
370
    15
100
AcDbCircle
 10
147.7742617739
 20
86.5084507042
 30
0.0
 40
3.0
100
AcDbArc
 50
90.0
 51
180.0
  0
ARC
  5
5C
330
1F
100
AcDbEntity
  8
0
  6
Continuous
 62
     7
370
    15
100
AcDbCircle
 10
147.7742617739
 20
126.5084507042
 30
0.0
 40
3.000000000000014
100
AcDbArc
 50
182.6577405905
 51
270.0
  0
LINE
  5
5D
330
1F
100
AcDbEntity
  8
0
  6
Continuous
 62
     7
370
    15
100
AcDbLine
 10
169.3525451973
 20
89.5084507042
 30
0.0
 11
211.9811799654
 21
92.8633970201
 31
0.0
  0
LINE
  5
5E
330
1F
100
AcDbEntity
  8
0
  6
Continuous
 62
     7
370
    15
100
AcDbLine
 10
211.9811799654
 20
120.1535043884
 30
0.0
 11
169.3525451973
 21
123.5084507042
 31
0.0
  0
LINE
  5
5F
330
1F
100
AcDbEntity
  8
0
  6
Continuous
 62
     7
370
    15
100
AcDbLine
 10
159.2716719214
 20
89.5084507042
 30
0.0
 11
169.3525451973
 21
89.5084507042
 31
0.0
  0
LINE
  5
60
330
1F
100
AcDbEntity
  8
0
  6
Continuous
 62
     7
370
    15
100
AcDbLine
 10
147.7742617739
 20
89.5084507042
 30
0.0
 11
152.2755672051
 21
89.5084507042
 31
0.0
  0
LINE
  5
61
330
1F
100
AcDbEntity
  8
0
  6
Continuous
 62
     7
370
    15
100
AcDbLine
 10
152.2849168547
 20
123.5084507042
 30
0.0
 11
147.7742617739
 21
123.5084507042
 31
0.0
  0
LINE
  5
62
330
1F
100
AcDbEntity
  8
0
  6
Continuous
 62
     7
370
    15
100
AcDbLine
 10
169.3525451973
 20
123.5084507042
 30
0.0
 11
159.2650673797
 21
123.5084507042
 31
0.0
  0
ARC
  5
63
330
1F
100
AcDbEntity
  8
0
  6
Continuous
 62
     7
370
    15
100
AcDbCircle
 10
211.8242617739
 20
94.8572316875
 30
0.0
 40
2.000000000000004
100
AcDbArc
 50
274.5
 51
334.6108581548
  0
ARC
  5
64
330
1F
100
AcDbEntity
  8
0
  6
Continuous
 62
     7
370
    15
100
AcDbCircle
 10
211.8242617739
 20
118.1596697209
 30
0.0
 40
1.999999999999991
100
AcDbArc
 50
25.3891418452
 51
85.5
  0
LINE
  5
65
330
1F
100
AcDbEntity
  8
0
  6
Continuous
 62
     7
370
    15
100
AcDbLine
 10
88.2075984139
 20
85.6384507042
 30
0.0
 11
95.6242617739
 21
85.6384507042
 31
0.0
  0
ARC
  5
66
330
1F
100
AcDbEntity
  8
0
  6
Continuous
 62
     7
370
    15
100
AcDbCircle
 10
95.6242617739
 20
84.2384507042
 30
0.0
 40
1.400000000000006
100
AcDbArc
 50
42.2465410162
 51
90.0
  0
LINE
  5
67
330
1F
100
AcDbEntity
  8
0
  6
Continuous
 62
     7
370
    15
100
AcDbLine
 10
86.935422209
 20
86.7772902691
 30
0.0
 11
88.0654252321
 21
85.647287246
 31
0.0
  0
LINE
  5
68
330
1F
100
AcDbEntity
  8
0
  6
Continuous
 62
     7
370
    15
100
AcDbLine
 10
88.0654252321
 20
127.3696141624
 30
0.0
 11
86.9341625473
 21
126.2383514776
 31
0.0
  0
ARC
  5
69
330
1F
100
AcDbEntity
  8
0
  6
Continuous
 62
     7
370
    15
100
AcDbCircle
 10
91.6242617739
 20
128.7784507042
 30
0.0
 40
1.400000000000015
100
AcDbArc
 50
270.0
 51
301.7485287426
  0
LINE
  5
6A
330
1F
100
AcDbEntity
  8
0
  6
Continuous
 62
     7
370
    15
100
AcDbLine
 10
91.6242617739
 20
127.3784507042
 30
0.0
 11
88.221917178
 21
127.3784507042
 31
0.0
  0
LINE
  5
6B
330
1F
100
AcDbEntity
  8
0
  6
Continuous
 62
     7
370
    15
100
AcDbLine
 10
213.7507744639
 20
94.004406042
 30
0.0
 11
213.901583981
 21
94.2910477863
 31
0.0
  0
LINE
  5
6C
330
1F
100
AcDbEntity
  8
0
  6
Continuous
 62
     7
370
    15
100
AcDbLine
 10
213.6310949026
 20
93.9997038193
 30
0.0
 11
213.7507744639
 21
94.004406042
 31
0.0
  0
LINE
  5
6D
330
1F
100
AcDbEntity
  8
0
  6
Continuous
 62
     7
370
    15
100
AcDbLine
 10
213.6918847403
 20
119.0148091499
 30
0.0
 11
213.6310949026
 21
119.0171975892
 31
0.0
  0
LINE
  5
6E
330
1F
100
AcDbEntity
  8
0
  6
Continuous
 62
     7
370
    15
100
AcDbLine
 10
213.8426942574
 20
118.7281674057
 30
0.0
 11
213.6918847403
 21
119.0148091499
 31
0.0
  0
LINE
  5
6F
330
1F
100
AcDbEntity
  8
0
  6
Continuous
 62
     7
370
    15
100
AcDbLine
 10
134.9142617739
 20
79.0106135452
 30
0.0
 11
134.9142617739
 21
126.3584507042
 31
0.0
  0
SPLINE
  5
70
330
1F
100
AcDbEntity
  8
0
  6
Continuous
 62
     7
370
    15
100
AcDbSpline
210
0.0
220
0.0
230
1.0
 70
     8
 71
     3
 72
     8
 73
     4
 74
     0
 42
0.00000001
 43
0.00000001
 40
0.0
 40
0.0
 40
0.0
 40
0.0
 40
1.0
 40
1.0
 40
1.0
 40
1.0
 10
134.9142617738977
 20
79.01061354517057
 30
0.0
 10
134.4219226511166
 20
78.11334351096387
 30
0.0
 10
133.9278086030744
 20
77.21705909591162
 30
0.0
 10
133.4323289424087
 20
76.32153300797827
 30
0.0
  0
LINE
  5
71
330
1F
100
AcDbEntity
  8
0
  6
Continuous
 62
     7
370
    15
100
AcDbLine
 10
133.4323289424
 20
76.321533008
 30
0.0
 11
133.4323289424
 21
126.3584507042
 31
0.0
  0
SPLINE
  5
72
330
1F
100
AcDbEntity
  8
0
  6
Continuous
 62
     7
370
    15
100
AcDbSpline
210
0.0
220
0.0
230
1.0
 70
    24
 71
     3
 72
     8
 73
     4
 74
     0
 42
0.00000001
 43
0.00000001
 40
0.0
 40
0.0
 40
0.0
 40
0.0
 40
1.0
 40
1.0
 40
1.0
 40
1.0
 10
133.4323289424087
 20
126.3584507042254
 30
0.0
 10
133.9390090505592
 20
126.3584507042254
 30
0.0
 10
134.4343097795329
 20
126.3584507042254
 30
0.0
 10
134.9142617738977
 20
126.3584507042254
 30
0.0
  0
LINE
  5
73
330
1F
100
AcDbEntity
  8
0
  6
Continuous
 62
     7
370
    15
100
AcDbLine
 10
118.8242617739
 20
75.3084507042
 30
0.0
 11
118.8242617739
 21
137.708450697
 31
0.0
  0
LINE
  5
74
330
1F
100
AcDbEntity
  8
0
  6
Continuous
 62
     7
370
    15
100
AcDbLine
 10
140.2161946054
 20
76.321533008
 30
0.0
 11
140.2161946054
 21
126.3584507042
 31
0.0
  0
SPLINE
  5
75
330
1F
100
AcDbEntity
  8
0
  6
Continuous
 62
     7
370
    15
100
AcDbSpline
210
0.0
220
0.0
230
1.0
 70
     8
 71
     3
 72
     8
 73
     4
 74
     0
 42
0.00000001
 43
0.00000001
 40
0.0
 40
0.0
 40
0.0
 40
0.0
 40
1.0
 40
1.0
 40
1.0
 40
1.0
 10
140.2161946053868
 20
76.32153300797827
 30
0.0
 10
139.720714944721
 20
77.21705909591164
 30
0.0
 10
139.2266008966789
 20
78.11334351096389
 30
0.0
 10
138.7342617738977
 20
79.01061354517059
 30
0.0
  0
LINE
  5
76
330
1F
100
AcDbEntity
  8
0
  6
Continuous
 62
     7
370
    15
100
AcDbLine
 10
138.7342617739
 20
79.0106135452
 30
0.0
 11
138.7342617739
 21
126.3584507042
 31
0.0
  0
SPLINE
  5
77
330
1F
100
AcDbEntity
  8
0
  6
Continuous
 62
     7
370
    15
100
AcDbSpline
210
0.0
220
0.0
230
1.0
 70
    24
 71
     3
 72
     8
 73
     4
 74
     0
 42
0.00000001
 43
0.00000001
 40
0.0
 40
0.0
 40
0.0
 40
0.0
 40
1.0
 40
1.0
 40
1.0
 40
1.0
 10
138.7342617738977
 20
126.3584507042254
 30
0.0
 10
139.2142137682627
 20
126.3584507042254
 30
0.0
 10
139.7095144972363
 20
126.3584507042254
 30
0.0
 10
140.2161946053868
 20
126.3584507042254
 30
0.0
  0
SPLINE
  5
78
330
1F
100
AcDbEntity
  8
0
  6
Continuous
 62
     7
370
    15
100
AcDbSpline
210
0.0
220
0.0
230
1.0
 70
     8
 71
     3
 72
    70
 73
    66
 74
     0
 42
0.00000001
 43
0.00000001
 40
-0.03125
 40
-0.03125
 40
0.0
 40
0.0
 40
0.03125
 40
0.03125
 40
0.0625
 40
0.0625
 40
0.09375
 40
0.09375
 40
0.125
 40
0.125
 40
0.15625
 40
0.15625
 40
0.1875
 40
0.1875
 40
0.21875
 40
0.21875
 40
0.25
 40
0.25
 40
0.28125
 40
0.28125
 40
0.3125
 40
0.3125
 40
0.34375
 40
0.34375
 40
0.375
 40
0.375
 40
0.40625
 40
0.40625
 40
0.4375
 40
0.4375
 40
0.46875
 40
0.46875
 40
0.5
 40
0.5
 40
0.53125
 40
0.53125
 40
0.5625
 40
0.5625
 40
0.59375
 40
0.59375
 40
0.625
 40
0.625
 40
0.65625
 40
0.65625
 40
0.6875
 40
0.6875
 40
0.71875
 40
0.71875
 40
0.75
 40
0.75
 40
0.78125
 40
0.78125
 40
0.8125
 40
0.8125
 40
0.84375
 40
0.84375
 40
0.875
 40
0.875
 40
0.90625
 40
0.90625
 40
0.9375
 40
0.9375
 40
0.96875
 40
0.96875
 40
1.0
 40
1.0
 40
1.03125
 40
1.03125
 10
126.5597164352376
 20
117.1293575902088
 30
0.0
 10
127.0888071125579
 20
117.1293575902088
 30
0.0
 10
127.348877779935
 20
117.154034884994
 30
0.0
 10
127.8604524597704
 20
117.2505065580359
 30
0.0
 10
128.1146277435106
 20
117.3234874740159
 30
0.0
 10
128.5988983735723
 20
117.5132280769545
 30
0.0
 10
128.8285394654535
 20
117.6290887353483
 30
0.0
 10
129.263143813687
 20
117.901706581306
 30
0.0
 10
129.4687095903336
 20
118.0597456633598
 30
0.0
 10
129.8372667309288
 20
118.4032885143304
 30
0.0
 10
130.0027477136643
 20
118.5900509584321
 30
0.0
 10
130.2951722230994
 20
118.9935941328289
 30
0.0
 10
130.4192731997259
 20
119.2070911292581
 30
0.0
 10
130.6188523964756
 20
119.6464744431806
 30
0.0
 10
130.6957859823339
 20
119.8756144303262
 30
0.0
 10
130.7986430408542
 20
120.3415885530862
 30
0.0
 10
130.8241159503134
 20
120.5744709987624
 30
0.0
 10
130.8244063608812
 20
121.0398685338422
 30
0.0
 10
130.7983817271054
 20
121.2747442912365
 30
0.0
 10
130.6962334426134
 20
121.7262374384828
 30
0.0
 10
130.6206569950303
 20
121.9442839138942
 30
0.0
 10
130.4201594638853
 20
122.365378438932
 30
0.0
 10
130.2950306223769
 20
122.5672998234503
 30
0.0
 10
130.0056718213553
 20
122.9393293059692
 30
0.0
 10
129.8402608342999
 20
123.1119576095495
 30
0.0
 10
129.4672702761521
 20
123.4292756140956
 30
0.0
 10
129.265537243063
 20
123.5690625475972
 30
0.0
 10
128.8326779922351
 20
123.813238801149
 30
0.0
 10
128.5987594593457
 20
123.9184683121905
 30
0.0
 10
128.1145757242031
 20
124.0866254585656
 30
0.0
 10
127.8652600982476
 20
124.1498763491595
 30
0.0
 10
127.3522275738199
 20
124.2354555582621
 30
0.0
 10
127.0869337509152
 20
124.2573277231845
 30
0.0
 10
126.5645991310455
 20
124.2574913728284
 30
0.0
 10
126.3048454685637
 20
124.2364896807324
 30
0.0
 10
125.7882336529185
 20
124.1510873256548
 30
0.0
 10
125.5358676124182
 20
124.0870811423678
 30
0.0
 10
125.0543424908854
 20
123.9202666223266
 30
0.0
 10
124.8214917587718
 20
123.8161334589275
 30
0.0
 10
124.3844019103331
 20
123.5701468064325
 30
0.0
 10
124.1830809216759
 20
123.4303969754837
 30
0.0
 10
123.813994896376
 20
123.1172589057591
 30
0.0
 10
123.6450101453243
 20
122.941802746489
 30
0.0
 10
123.3545540886651
 20
122.5689624823888
 30
0.0
 10
123.231482277303
 20
122.3708406722778
 30
0.0
 10
123.0301460358809
 20
121.9501293295441
 30
0.0
 10
122.9529334899387
 20
121.7281393088766
 30
0.0
 10
122.8507299470386
 20
121.2782743691682
 30
0.0
 10
122.8245015955863
 20
121.0480189560515
 30
0.0
 10
122.8240251962692
 20
120.5767030135024
 30
0.0
 10
122.8497676087672
 20
120.3434655977883
 30
0.0
 10
122.9510783851311
 20
119.8817890582902
 30
0.0
 10
123.027911024522
 20
119.6508916711781
 30
0.0
 10
123.2283148637372
 20
119.2086156573864
 30
0.0
 10
123.3509863620292
 20
118.9975532261005
 30
0.0
 10
123.6409336511934
 20
118.5960547153678
 30
0.0
 10
123.8095046305587
 20
118.4051481932919
 30
0.0
 10
124.1777742246718
 20
118.0614228612948
 30
0.0
 10
124.3788360819422
 20
117.9062856750808
 30
0.0
 10
124.8158670005271
 20
117.631208315001
 30
0.0
 10
125.0480152136567
 20
117.514092085579
 30
0.0
 10
125.5290254951555
 20
117.3251656005145
 30
0.0
 10
125.781125577986
 20
117.2520906301202
 30
0.0
 10
126.298195064245
 20
117.1540385709857
 30
0.0
 10
126.5597164352376
 20
117.1293575902088
 30
0.0
 10
127.0888071125579
 20
117.1293575902088
 30
0.0
  0
SPLINE
  5
79
330
1F
100
AcDbEntity
  8
0
  6
Continuous
 62
     7
370
    15
100
AcDbSpline
210
0.0
220
0.0
230
1.0
 70
     8
 71
     3
 72
    70
 73
    66
 74
     0
 42
0.00000001
 43
0.00000001
 40
-0.0312500000000001
 40
-0.0312500000000001
 40
0.0
 40
0.0
 40
0.0312499999999998
 40
0.0312499999999998
 40
0.0624999999999996
 40
0.0624999999999996
 40
0.0937499999999995
 40
0.0937499999999995
 40
0.1249999999999993
 40
0.1249999999999993
 40
0.1562499999999991
 40
0.1562499999999991
 40
0.1874999999999989
 40
0.1874999999999989
 40
0.2187499999999987
 40
0.2187499999999987
 40
0.2499999999999986
 40
0.2499999999999986
 40
0.2812499999999986
 40
0.2812499999999986
 40
0.3124999999999985
 40
0.3124999999999985
 40
0.3437499999999985
 40
0.3437499999999985
 40
0.3749999999999985
 40
0.3749999999999985
 40
0.4062499999999985
 40
0.4062499999999985
 40
0.4374999999999984
 40
0.4374999999999984
 40
0.4687499999999984
 40
0.4687499999999984
 40
0.4999999999999984
 40
0.4999999999999984
 40
0.5312499999999984
 40
0.5312499999999984
 40
0.5624999999999986
 40
0.5624999999999986
 40
0.5937499999999986
 40
0.5937499999999986
 40
0.6249999999999986
 40
0.6249999999999986
 40
0.6562499999999987
 40
0.6562499999999987
 40
0.6874999999999987
 40
0.6874999999999987
 40
0.7187499999999988
 40
0.7187499999999988
 40
0.7499999999999988
 40
0.7499999999999988
 40
0.7812499999999989
 40
0.7812499999999989
 40
0.8124999999999991
 40
0.8124999999999991
 40
0.8437499999999992
 40
0.8437499999999992
 40
0.8749999999999993
 40
0.8749999999999993
 40
0.9062499999999996
 40
0.9062499999999996
 40
0.9374999999999997
 40
0.9374999999999997
 40
0.9687499999999999
 40
0.9687499999999999
 40
1.0
 40
1.0
 40
1.03125
 40
1.03125
 10
126.5597164352376
 20
131.5674140990046
 30
0.0
 10
127.0888071125579
 20
131.5674140990046
 30
0.0
 10
127.348877779935
 20
131.5833145394194
 30
0.0
 10
127.8604524597704
 20
131.6452588895936
 30
0.0
 10
128.1146277435106
 20
131.6920611236849
 30
0.0
 10
128.5988983735723
 20
131.81303810714
 30
0.0
 10
128.8285394654535
 20
131.8866404349469
 30
0.0
 10
129.263143813687
 20
132.058464705925
 30
0.0
 10
129.4687095903336
 20
132.1574681288524
 30
0.0
 10
129.8372667309288
 20
132.3705645427652
 30
0.0
 10
130.0027477136643
 20
132.4854642588949
 30
0.0
 10
130.2951722230994
 20
132.7308311575852
 30
0.0
 10
130.4192731997259
 20
132.8592710580555
 30
0.0
 10
130.6188523964756
 20
133.1201632061415
 30
0.0
 10
130.6957859823339
 20
133.2545443774809
 30
0.0
 10
130.7986430408542
 20
133.5238643285872
 30
0.0
 10
130.8241159503134
 20
133.6565455928053
 30
0.0
 10
130.8244063608812
 20
133.9177320669364
 30
0.0
 10
130.7983817271054
 20
134.0474971051011
 30
0.0
 10
130.6962334426134
 20
134.2930797393738
 30
0.0
 10
130.6206569950303
 20
134.4097412766826
 30
0.0
 10
130.4201594638853
 20
134.6316464668372
 30
0.0
 10
130.295030622377
 20
134.7362577207602
 30
0.0
 10
130.0056718213553
 20
134.9263041323682
 30
0.0
 10
129.8402608342999
 20
135.0130638038179
 30
0.0
 10
129.4672702761521
 20
135.1705681795695
 30
0.0
 10
129.265537243063
 20
135.2388934443567
 30
0.0
 10
128.8326779922351
 20
135.3571231679759
 30
0.0
 10
128.5987594593457
 20
135.4074180840798
 30
0.0
 10
128.1145757242031
 20
135.4872836209694
 30
0.0
 10
127.8652600982476
 20
135.517024748769
 30
0.0
 10
127.3522275738199
 20
135.5571774902772
 30
0.0
 10
127.0869337509152
 20
135.5673757596871
 30
0.0
 10
126.5645991310455
 20
135.5674522180718
 30
0.0
 10
126.3048454685637
 20
135.5576612064627
 30
0.0
 10
125.7882336529185
 20
135.5175943677239
 30
0.0
 10
125.5358676124182
 20
135.4874972008672
 30
0.0
 10
125.0543424908854
 20
135.4082749910369
 30
0.0
 10
124.8214917587718
 20
135.3585175115736
 30
0.0
 10
124.3844019103331
 20
135.2394255691232
 30
0.0
 10
124.1830809216759
 20
135.1711103075759
 30
0.0
 10
123.813994896376
 20
135.0157093406424
 30
0.0
 10
123.6450101453243
 20
134.9275569985755
 30
0.0
 10
123.3545540886651
 20
134.7371176094591
 30
0.0
 10
123.231482277303
 20
134.63449303176
 30
0.0
 10
123.0301460358809
 20
134.4128526851519
 30
0.0
 10
122.9529334899387
 20
134.2940986096044
 30
0.0
 10
122.8507299470386
 20
134.0494326706867
 30
0.0
 10
122.8245015955863
 20
133.9222759452382
 30
0.0
 10
122.8240251962692
 20
133.6578277993827
 30
0.0
 10
122.8497676087672
 20
133.5249271191255
 30
0.0
 10
122.9510783851311
 20
133.2581348456434
 30
0.0
 10
123.027911024522
 20
133.1227709441749
 30
0.0
 10
123.2283148637372
 20
132.8601911488723
 30
0.0
 10
123.3509863620292
 20
132.7332159891185
 30
0.0
 10
123.6409336511934
 20
132.4891366030361
 30
0.0
 10
123.8095046305587
 20
132.3717114782823
 30
0.0
 10
124.1777742246718
 20
132.1585150173338
 30
0.0
 10
124.3788360819422
 20
132.061340898909
 30
0.0
 10
124.8158670005271
 20
131.8879860116948
 30
0.0
 10
125.0480152136567
 20
131.8135864600381
 30
0.0
 10
125.5290254951555
 20
131.6931335805334
 30
0.0
 10
125.781125577986
 20
131.6462752052674
 30
0.0
 10
126.298195064245
 20
131.5833177082837
 30
0.0
 10
126.5597164352376
 20
131.5674140990046
 30
0.0
 10
127.0888071125579
 20
131.5674140990046
 30
0.0
  0
LINE
  5
7A
330
1F
100
AcDbEntity
  8
0
  6
Continuous
 62
     7
370
    15
100
AcDbLine
 10
123.7742617739
 20
126.3584507042
 30
0.0
 11
133.4323289424
 21
126.3584507042
 31
0.0
  0
LINE
  5
7B
330
1F
100
AcDbEntity
  8
0
  6
Continuous
 62
     7
370
    15
100
AcDbLine
 10
133.4323289424
 20
76.321533008
 30
0.0
 11
131.7742617739
 21
76.321533008
 31
0.0
  0
SPLINE
  5
7C
330
1F
100
AcDbEntity
  8
0
  6
Continuous
 62
     7
370
    15
100
AcDbSpline
210
0.0
220
0.0
230
1.0
 70
     8
 71
     3
 72
    28
 73
    24
 74
     0
 42
0.00000001
 43
0.00000001
 40
0.0
 40
0.0
 40
0.0
 40
0.0
 40
0.1250000000000001
 40
0.1250000000000001
 40
0.1875000000000001
 40
0.1875000000000001
 40
0.2500000000000001
 40
0.2500000000000001
 40
0.3749999999999999
 40
0.3749999999999999
 40
0.4375
 40
0.4375
 40
0.4999999999999999
 40
0.4999999999999999
 40
0.6249999999999999
 40
0.6249999999999999
 40
0.7499999999999997
 40
0.7499999999999997
 40
0.8124999999999998
 40
0.8124999999999998
 40
0.8749999999999998
 40
0.8749999999999998
 40
1.0
 40
1.0
 40
1.0
 40
1.0
 10
131.7742617738978
 20
76.32153300797827
 30
0.0
 10
131.2425540164048
 20
76.32153300797827
 30
0.0
 10
130.7203154510945
 20
76.30574829402806
 30
0.0
 10
129.9504449648195
 20
76.26075287995185
 30
0.0
 10
129.6960853926281
 20
76.24219788487613
 30
0.0
 10
129.1919638119296
 20
76.19834516242962
 30
0.0
 10
128.9422409945017
 20
76.17300055547742
 30
0.0
 10
128.2166510430553
 20
76.08959847772731
 30
0.0
 10
127.7582907814738
 20
76.02373291857623
 30
0.0
 10
127.1077928380799
 20
75.91476257808444
 30
0.0
 10
126.8961107872874
 20
75.87652294231778
 30
0.0
 10
126.4920392981494
 20
75.79876420489842
 30
0.0
 10
126.2995327843286
 20
75.75926324272308
 30
0.0
 10
125.7496978133073
 20
75.64035550035709
 30
0.0
 10
125.4197690349985
 20
75.56053781893247
 30
0.0
 10
124.8352977664298
 20
75.40719465713642
 30
0.0
 10
124.5890206284163
 20
75.33586090386716
 30
0.0
 10
124.2891778357183
 20
75.24191739679253
 30
0.0
 10
124.2007209786461
 20
75.21272360343261
 30
0.0
 10
124.047359625341
 20
75.1592570291692
 30
0.0
 10
123.9822714111147
 20
75.13489769489401
 30
0.0
 10
123.8266773951739
 20
75.07130754944927
 30
0.0
 10
123.7742617738977
 20
75.04120461436003
 30
0.0
 10
123.7742617738977
 20
75.02432772136311
 30
0.0
  0
LINE
  5
7D
330
1F
100
AcDbEntity
  8
0
  6
Continuous
 62
     7
370
    15
100
AcDbLine
 10
123.7742617739
 20
75.0243277214
 30
0.0
 11
123.7742617739
 21
75.0084507042
 31
0.0
  0
SPLINE
  5
7E
330
1F
100
AcDbEntity
  8
0
  6
Continuous
 62
     7
370
    15
100
AcDbSpline
210
0.0
220
0.0
230
1.0
 70
     8
 71
     3
 72
    22
 73
    18
 74
     0
 42
0.00000001
 43
0.00000001
 40
0.0
 40
0.0
 40
0.0
 40
0.0
 40
0.0515773377536172
 40
0.1565264849943629
 40
0.2100197540385886
 40
0.2615951369298746
 40
0.3664424119934943
 40
0.4198226601719804
 40
0.4724528789006786
 40
0.5794488992297344
 40
0.6339397336480286
 40
0.6872670452602943
 40
0.7409741315029978
 40
0.7958968813361827
 40
0.8512481408256359
 40
0.9034470736265863
 40
1.0
 40
1.0
 40
1.0
 40
1.0
 10
131.7742617738977
 20
136.9756461773897
 30
0.0
 10
131.5574515778953
 20
136.9770427984582
 30
0.0
 10
130.8994777589805
 20
136.9812812527144
 30
0.0
 10
130.0243827816496
 20
137.0208135770687
 30
0.0
 10
129.1795572867927
 20
137.0837868239106
 30
0.0
 10
128.3598320031885
 20
137.1618008571658
 30
0.0
 10
127.5840420251601
 20
137.2586839850409
 30
0.0
 10
126.8665535638536
 20
137.3669433969569
 30
0.0
 10
126.1872888166816
 20
137.4806617692614
 30
0.0
 10
125.5789738387726
 20
137.5971619542021
 30
0.0
 10
125.0588818980495
 20
137.7062622056192
 30
0.0
 10
124.7149917203333
 20
137.7822661033492
 30
0.0
 10
124.4200379926058
 20
137.8502995592709
 30
0.0
 10
124.1742637052646
 20
137.9090126100294
 30
0.0
 10
123.9883613962912
 20
137.9546279899631
 30
0.0
 10
123.8167647905675
 20
137.9975874415236
 30
0.0
 10
123.7966355153912
 20
138.0027484633257
 30
0.0
 10
123.7835698607175
 20
138.006098416468
 30
0.0
  0
LINE
  5
7F
330
1F
100
AcDbEntity
  8
0
  6
Continuous
 62
     7
370
    15
100
AcDbLine
 10
133.4323289424
 20
136.9756461774
 30
0.0
 11
131.7742617739
 21
136.9756461774
 31
0.0
  0
LINE
  5
80
330
1F
100
AcDbEntity
  8
0
  6
Continuous
 62
     7
370
    15
100
AcDbLine
 10
133.4323289424
 20
130.9671403666
 30
0.0
 11
133.4323289424
 21
136.9756461774
 31
0.0
  0
LINE
  5
81
330
1F
100
AcDbEntity
  8
0
  6
Continuous
 62
     7
370
    15
100
AcDbLine
 10
131.0198821196
 20
130.9671403666
 30
0.0
 11
133.4323289424
 21
130.9671403666
 31
0.0
  0
SPLINE
  5
82
330
1F
100
AcDbEntity
  8
0
  6
Continuous
 62
     7
370
    15
100
AcDbSpline
210
0.0
220
0.0
230
1.0
 70
     8
 71
     3
 72
    20
 73
    16
 74
     0
 42
0.00000001
 43
0.00000001
 40
0.0
 40
0.0
 40
0.0
 40
0.0
 40
0.2499999999999997
 40
0.2499999999999997
 40
0.3749999999999997
 40
0.3749999999999997
 40
0.4999999999999998
 40
0.4999999999999998
 40
0.6249999999999998
 40
0.6249999999999998
 40
0.7499999999999999
 40
0.7499999999999999
 40
0.8749999999999999
 40
0.8749999999999999
 40
1.0
 40
1.0
 40
1.0
 40
1.0
 10
123.7742617738977
 20
126.3584507042254
 30
0.0
 10
124.0226355081858
 20
127.0123131325228
 30
0.0
 10
124.3422056005311
 20
127.61609891452
 30
0.0
 10
124.9645118337357
 20
128.4429376506886
 30
0.0
 10
125.1959360941665
 20
128.7053662886415
 30
0.0
 10
125.7171504338162
 20
129.2020289427465
 30
0.0
 10
126.0037709164513
 20
129.432615821768
 30
0.0
 10
126.6232556577589
 20
129.8491700463506
 30
0.0
 10
126.9575560372459
 20
130.0366678483182
 30
0.0
 10
127.6828165098706
 20
130.3680648259545
 30
0.0
 10
128.0647315672611
 20
130.5075688134498
 30
0.0
 10
128.8595197434328
 20
130.7330223209208
 30
0.0
 10
129.2736779376392
 20
130.8196484324644
 30
0.0
 10
130.1392242782206
 20
130.9376292213186
 30
0.0
 10
130.5771118932324
 20
130.9671403665929
 30
0.0
 10
131.019882119587
 20
130.9671403665929
 30
0.0
  0
LINE
  5
83
330
1F
100
AcDbEntity
  8
0
  6
Continuous
 62
     7
370
    15
100
AcDbLine
 10
144.1742617739
 20
76.321533008
 30
0.0
 11
140.2161946054
 21
76.321533008
 31
0.0
  0
LINE
  5
84
330
1F
100
AcDbEntity
  8
0
  6
Continuous
 62
     7
370
    15
100
AcDbLine
 10
140.2161946054
 20
126.3584507042
 30
0.0
 11
144.1742617739
 21
126.3584507042
 31
0.0
  0
LINE
  5
85
330
1F
100
AcDbEntity
  8
0
  6
Continuous
 62
     7
370
    15
100
AcDbLine
 10
144.7742617739
 20
76.9481733036
 30
0.0
 11
144.7742617739
 21
126.3584507042
 31
0.0
  0
SPLINE
  5
86
330
1F
100
AcDbEntity
  8
0
  6
Continuous
 62
     7
370
    15
100
AcDbSpline
210
0.0
220
0.0
230
1.0
 70
     8
 71
     3
 72
    10
 73
     6
 74
     0
 42
0.00000001
 43
0.00000001
 40
0.0
 40
0.0
 40
0.0
 40
0.0
 40
0.5
 40
0.5
 40
1.0
 40
1.0
 40
1.0
 40
1.0
 10
144.7742617738977
 20
76.94817330363259
 30
0.0
 10
144.7742617738977
 20
76.78828603543893
 30
0.0
 10
144.7129521226619
 20
76.62715877992432
 30
0.0
 10
144.4938524851268
 20
76.39305978156949
 30
0.0
 10
144.3358042788134
 20
76.32153300797827
 30
0.0
 10
144.1742617738977
 20
76.32153300797827
 30
0.0
  0
SPLINE
  5
87
330
1F
100
AcDbEntity
  8
0
  6
Continuous
 62
     7
370
    15
100
AcDbSpline
210
0.0
220
0.0
230
1.0
 70
    24
 71
     3
 72
    12
 73
     8
 74
     0
 42
0.00000001
 43
0.00000001
 40
0.0
 40
0.0
 40
0.0
 40
0.0
 40
0.2500000000000033
 40
0.2500000000000033
 40
0.5000000000000067
 40
0.5000000000000067
 40
1.0
 40
1.0
 40
1.0
 40
1.0
 10
144.1742617738977
 20
126.3584507042254
 30
0.0
 10
144.2645008415848
 20
126.3584507042254
 30
0.0
 10
144.3553989556913
 20
126.3584507042254
 30
0.0
 10
144.5099959921798
 20
126.3584507042254
 30
0.0
 10
144.5749744082879
 20
126.3584507042254
 30
0.0
 10
144.7268094362242
 20
126.3584507042254
 30
0.0
 10
144.7742617738977
 20
126.3584507042254
 30
0.0
 10
144.7742617738977
 20
126.3584507042254
 30
0.0
  0
ARC
  5
88
330
1F
100
AcDbEntity
  8
0
  6
Continuous
 62
     7
370
    15
100
AcDbCircle
 10
126.8242238457
 20
118.4254611222
 30
0.0
 40
4.105797355336561
100
AcDbArc
 50
19.0470706495
 51
160.9357326011
  0
SPLINE
  5
89
330
1F
100
AcDbEntity
  8
0
  6
Continuous
 62
     7
370
    15
100
AcDbSpline
210
0.0
220
0.0
230
1.0
 70
     8
 71
     3
 72
    10
 73
     6
 74
     0
 42
0.00000001
 43
0.00000001
 40
0.0
 40
0.0
 40
0.0
 40
0.0
 40
0.5
 40
0.5
 40
1.0
 40
1.0
 40
1.0
 40
1.0
 10
135.3085593055887
 20
132.9084507042254
 30
0.0
 10
135.1870190419202
 20
132.9831768714372
 30
0.0
 10
135.0856846815713
 20
133.092121887354
 30
0.0
 10
134.9500457386828
 20
133.3425523681156
 30
0.0
 10
134.9142617738977
 20
133.4849717302145
 30
0.0
 10
134.9142617738977
 20
133.6281045552612
 30
0.0
  0
SPLINE
  5
8A
330
1F
100
AcDbEntity
  8
0
  6
Continuous
 62
     7
370
    15
100
AcDbSpline
210
0.0
220
0.0
230
1.0
 70
    24
 71
     3
 72
    12
 73
     8
 74
     0
 42
0.00000001
 43
0.00000001
 40
0.0
 40
0.0
 40
0.0
 40
0.0
 40
0.2500000000000037
 40
0.2500000000000037
 40
0.5000000000000074
 40
0.5000000000000074
 40
1.0
 40
1.0
 40
1.0
 40
1.0
 10
135.7142617738978
 20
132.9084507042254
 30
0.0
 10
135.6643850915803
 20
132.9084507042254
 30
0.0
 10
135.6163818981767
 20
132.9084507042254
 30
0.0
 10
135.5333337954647
 20
132.9084507042254
 30
0.0
 10
135.4972042159969
 20
132.9084507042254
 30
0.0
 10
135.4012921850527
 20
132.9084507042254
 30
0.0
 10
135.3515335170839
 20
132.9084507042254
 30
0.0
 10
135.3085593055887
 20
132.9084507042254
 30
0.0
  0
SPLINE
  5
8B
330
1F
100
AcDbEntity
  8
0
  6
Continuous
 62
     7
370
    15
100
AcDbSpline
210
0.0
220
0.0
230
1.0
 70
    24
 71
     3
 72
    14
 73
    10
 74
     0
 42
0.00000001
 43
0.00000001
 40
0.0
 40
0.0
 40
0.0
 40
0.0
 40
0.1249999999999991
 40
0.1249999999999991
 40
0.2499999999999982
 40
0.2499999999999982
 40
0.4999999999999998
 40
0.4999999999999998
 40
1.0
 40
1.0
 40
1.0
 40
1.0
 10
135.7142617738977
 20
80.10845070422542
 30
0.0
 10
135.6458239260113
 20
80.10845070422542
 30
0.0
 10
135.5802738872462
 20
80.10845070422543
 30
0.0
 10
135.4758472478383
 20
80.10845070422543
 30
0.0
 10
135.4333026380769
 20
80.10845070422543
 30
0.0
 10
135.3206931775366
 20
80.10845070422542
 30
0.0
 10
135.2651541305171
 20
80.10845070422542
 30
0.0
 10
135.1225424350533
 20
80.10845070422542
 30
0.0
 10
135.0591370800576
 20
80.10845070422542
 30
0.0
 10
135.01193657623
 20
80.10845070422542
 30
0.0
  0
SPLINE
  5
8C
330
1F
100
AcDbEntity
  8
0
  6
Continuous
 62
     7
370
    15
100
AcDbSpline
210
0.0
220
0.0
230
1.0
 70
     8
 71
     3
 72
    10
 73
     6
 74
     0
 42
0.00000001
 43
0.00000001
 40
0.0
 40
0.0
 40
0.0
 40
0.0
 40
0.5
 40
0.5
 40
1.0
 40
1.0
 40
1.0
 40
1.0
 10
134.9142617738977
 20
126.6443173356868
 30
0.0
 10
134.9142617738977
 20
126.5965458276935
 30
0.0
 10
134.9164230174949
 20
126.5488361056318
 30
0.0
 10
134.9250943913551
 20
126.4535409880836
 30
0.0
 10
134.931623574311
 20
126.4058484241169
 30
0.0
 10
134.9404093970579
 20
126.3584507042254
 30
0.0
  0
SPLINE
  5
8D
330
1F
100
AcDbEntity
  8
0
  6
Continuous
 62
     7
370
    15
100
AcDbSpline
210
0.0
220
0.0
230
1.0
 70
    24
 71
     3
 72
    14
 73
    10
 74
     0
 42
0.00000001
 43
0.00000001
 40
0.0
 40
0.0
 40
0.0
 40
0.0
 40
0.5000000000000013
 40
0.5000000000000013
 40
0.750000000000002
 40
0.750000000000002
 40
0.875000000000001
 40
0.875000000000001
 40
1.0
 40
1.0
 40
1.0
 40
1.0
 10
138.6365869715655
 20
80.10845070422542
 30
0.0
 10
138.5898022665172
 20
80.10845070422542
 30
0.0
 10
138.5277510697376
 20
80.10845070422543
 30
0.0
 10
138.384359431187
 20
80.10845070422542
 30
0.0
 10
138.3282157776359
 20
80.10845070422542
 30
0.0
 10
138.2152647554997
 20
80.10845070422542
 30
0.0
 10
138.1722639934615
 20
80.10845070422542
 30
0.0
 10
138.0682012831551
 20
80.10845070422542
 30
0.0
 10
138.0028690447981
 20
80.10845070422543
 30
0.0
 10
137.9342617738977
 20
80.10845070422542
 30
0.0
  0
SPLINE
  5
8E
330
1F
100
AcDbEntity
  8
0
  6
Continuous
 62
     7
370
    15
100
AcDbSpline
210
0.0
220
0.0
230
1.0
 70
    24
 71
     3
 72
    12
 73
     8
 74
     0
 42
0.00000001
 43
0.00000001
 40
0.0
 40
0.0
 40
0.0
 40
0.0
 40
0.5000000000000017
 40
0.5000000000000017
 40
0.7500000000000008
 40
0.7500000000000008
 40
1.0
 40
1.0
 40
1.0
 40
1.0
 10
138.3399642422068
 20
132.9084507042254
 30
0.0
 10
138.2968786925958
 20
132.9084507042254
 30
0.0
 10
138.2477264908465
 20
132.9084507042254
 30
0.0
 10
138.1512538965586
 20
132.9084507042254
 30
0.0
 10
138.115152311424
 20
132.9084507042254
 30
0.0
 10
138.0320465535627
 20
132.9084507042254
 30
0.0
 10
137.9840499565964
 20
132.9084507042254
 30
0.0
 10
137.9342617738978
 20
132.9084507042254
 30
0.0
  0
SPLINE
  5
8F
330
1F
100
AcDbEntity
  8
0
  6
Continuous
 62
     7
370
    15
100
AcDbSpline
210
0.0
220
0.0
230
1.0
 70
     8
 71
     3
 72
    10
 73
     6
 74
     0
 42
0.00000001
 43
0.00000001
 40
0.0
 40
0.0
 40
0.0
 40
0.0
 40
0.5
 40
0.5
 40
1.0
 40
1.0
 40
1.0
 40
1.0
 10
138.7342617738977
 20
133.6281045552612
 30
0.0
 10
138.7342617738977
 20
133.4843344974432
 30
0.0
 10
138.6982127151789
 20
133.341915134948
 30
0.0
 10
138.5627038544048
 20
133.0920208415908
 30
0.0
 10
138.4628278613087
 20
132.9839905053426
 30
0.0
 10
138.3399642422068
 20
132.9084507042254
 30
0.0
  0
SPLINE
  5
90
330
1F
100
AcDbEntity
  8
0
  6
Continuous
 62
     7
370
    15
100
AcDbSpline
210
0.0
220
0.0
230
1.0
 70
     8
 71
     3
 72
    10
 73
     6
 74
     0
 42
0.00000001
 43
0.00000001
 40
0.0
 40
0.0
 40
0.0
 40
0.0
 40
0.5
 40
0.5
 40
1.0
 40
1.0
 40
1.0
 40
1.0
 10
138.7081141507376
 20
126.3584507042254
 30
0.0
 10
138.7168037936493
 20
126.4053295535436
 30
0.0
 10
138.7233428583998
 20
126.4527520189448
 30
0.0
 10
138.7321014927928
 20
126.5486888175316
 30
0.0
 10
138.7342617738977
 20
126.5966041055421
 30
0.0
 10
138.7342617738977
 20
126.6443173356866
 30
0.0
  0
LINE
  5
91
330
1F
100
AcDbEntity
  8
0
  6
Continuous
 62
     7
370
    15
100
AcDbLine
 10
137.9342617739
 20
132.9084507042
 30
0.0
 11
135.7142617739
 21
132.9084507042
 31
0.0
  0
LINE
  5
92
330
1F
100
AcDbEntity
  8
0
  6
Continuous
 62
     7
370
    15
100
AcDbLine
 10
137.9342617739
 20
80.1084507042
 30
0.0
 11
135.7142617739
 21
80.1084507042
 31
0.0
  0
LINE
  5
93
330
1F
100
AcDbEntity
  8
0
  6
Continuous
 62
     7
370
    15
100
AcDbLine
 10
116.8242617739
 20
82.2880198425
 30
0.0
 11
116.8242617739
 21
130.7288815659
 31
0.0
  0
LINE
  5
94
330
1F
100
AcDbEntity
  8
0
  6
Continuous
 62
     7
370
    15
100
AcDbLine
 10
97.0242617739
 20
83.2800038104
 30
0.0
 11
97.0242617739
 21
84.544713173
 31
0.0
  0
SPLINE
  5
95
330
1F
100
AcDbEntity
  8
0
  6
Continuous
 62
     7
370
    15
100
AcDbSpline
210
0.0
220
0.0
230
1.0
 70
     8
 71
     3
 72
    14
 73
    10
 74
     0
 42
0.00000001
 43
0.00000001
 40
0.0
 40
0.0
 40
0.0
 40
0.0
 40
0.25
 40
0.25
 40
0.5
 40
0.5
 40
0.75
 40
0.75
 40
1.0
 40
1.0
 40
1.0
 40
1.0
 10
96.24597465598202
 20
85.67529938066548
 30
0.0
 10
96.3026013311841
 20
85.56760192682862
 30
0.0
 10
96.39712399147385
 20
85.46481234510931
 30
0.0
 10
96.58016896703609
 20
85.26645503288916
 30
0.0
 10
96.6717955439908
 20
85.1703955242109
 30
0.0
 10
96.830648861684
 20
84.98286648150166
 30
0.0
 10
96.89853946930569
 20
84.8914575087181
 30
0.0
 10
96.99545649501327
 20
84.71308128780795
 30
0.0
 10
97.02426177389833
 20
84.62585938156178
 30
0.0
 10
97.02426177389832
 20
84.54471317302753
 30
0.0
  0
SPLINE
  5
96
330
1F
100
AcDbEntity
  8
0
  6
Continuous
 62
     7
370
    15
100
AcDbSpline
210
0.0
220
0.0
230
1.0
 70
     8
 71
     3
 72
    14
 73
    10
 74
     0
 42
0.00000001
 43
0.00000001
 40
0.0
 40
0.0
 40
0.0
 40
0.0
 40
0.1250000000000025
 40
0.1250000000000025
 40
0.250000000000005
 40
0.250000000000005
 40
0.5000000000000046
 40
0.5000000000000046
 40
1.0
 40
1.0
 40
1.0
 40
1.0
 10
95.62426177389776
 20
86.1219812429448
 30
0.0
 10
95.67280618255492
 20
86.12772955622509
 30
0.0
 10
95.72572153733981
 20
86.12462866756886
 30
0.0
 10
95.82101688232285
 20
86.10243382340653
 30
0.0
 10
95.86126787960781
 20
86.08520159631067
 30
0.0
 10
95.96553789312078
 20
86.02887367985862
 30
0.0
 10
96.01585986827412
 20
85.98468733391282
 30
0.0
 10
96.14354281579949
 20
85.85367943506218
 30
0.0
 10
96.19962826286176
 20
85.7634449148319
 30
0.0
 10
96.2459746559835
 20
85.675299380666
 30
0.0
  0
SPLINE
  5
97
330
1F
100
AcDbEntity
  8
0
  6
Continuous
 62
     7
370
    15
100
AcDbSpline
210
0.0
220
0.0
230
1.0
 70
     8
 71
     3
 72
     8
 73
     4
 74
     0
 42
0.00000001
 43
0.00000001
 40
0.0
 40
0.0
 40
0.0
 40
0.0
 40
1.0
 40
1.0
 40
1.0
 40
1.0
 10
93.35573668095151
 20
85.812135956362
 30
0.0
 10
94.09031370743448
 20
85.93076096743097
 30
0.0
 10
94.85378877683013
 20
86.03074683956726
 30
0.0
 10
95.62426177389776
 20
86.1219812429448
 30
0.0
  0
SPLINE
  5
98
330
1F
100
AcDbEntity
  8
0
  6
Continuous
 62
     7
370
    15
100
AcDbSpline
210
0.0
220
0.0
230
1.0
 70
     8
 71
     3
 72
    14
 73
    10
 74
     0
 42
0.00000001
 43
0.00000001
 40
0.0
 40
0.0
 40
0.0
 40
0.0
 40
0.4999999999999989
 40
0.4999999999999989
 40
0.7499999999999983
 40
0.7499999999999983
 40
0.8749999999999991
 40
0.8749999999999991
 40
1.0
 40
1.0
 40
1.0
 40
1.0
 10
88.07426177389775
 20
85.63851293883036
 30
0.0
 10
88.96640790445133
 20
85.63779071262971
 30
0.0
 10
89.8563843402449
 20
85.64237691908717
 30
0.0
 10
91.18297950732051
 20
85.67010192347871
 30
0.0
 10
91.62382643581925
 20
85.68270846110288
 30
0.0
 10
92.28026667324167
 20
85.71372460911034
 30
0.0
 10
92.49828032983355
 20
85.72606778173711
 30
0.0
 10
92.9309891835163
 20
85.75909183690037
 30
0.0
 10
93.1462656486811
 20
85.77830900203881
 30
0.0
 10
93.35573668095151
 20
85.812135956362
 30
0.0
  0
SPLINE
  5
99
330
1F
100
AcDbEntity
  8
0
  6
Continuous
 62
     7
370
    15
100
AcDbSpline
210
0.0
220
0.0
230
1.0
 70
     8
 71
     3
 72
     8
 73
     4
 74
     0
 42
0.00000001
 43
0.00000001
 40
0.0000005163856998
 40
0.0000005163856998
 40
0.0000005163856998
 40
0.0000005163856998
 40
0.000026289209185
 40
0.000026289209185
 40
0.000026289209185
 40
0.000026289209185
 10
88.06421684349014
 20
85.64849681192715
 30
0.0
 10
88.06754458169796
 20
85.64516256505803
 30
0.0
 10
88.07089303467356
 20
85.64183460778271
 30
0.0
 10
88.07426177389773
 20
85.63851293883035
 30
0.0
  0
SPLINE
  5
9A
330
1F
100
AcDbEntity
  8
0
  6
Continuous
 62
     7
370
    15
100
AcDbSpline
210
0.0
220
0.0
230
1.0
 70
     8
 71
     3
 72
     8
 73
     4
 74
     0
 42
0.00000001
 43
0.00000001
 40
0.0000005099763573
 40
0.0000005099763573
 40
0.0000005099763573
 40
0.0000005099763573
 40
0.0000262827998699
 40
0.0000262827998699
 40
0.0000262827998699
 40
0.0000262827998699
 10
88.07426177389773
 20
127.3783884696205
 30
0.0
 10
88.07089303467
 20
127.3750668006646
 30
0.0
 10
88.06754458169084
 20
127.3717388433858
 30
0.0
 10
88.06421684347951
 20
127.3684045965131
 30
0.0
  0
SPLINE
  5
9B
330
1F
100
AcDbEntity
  8
0
  6
Continuous
 62
     7
370
    15
100
AcDbSpline
210
0.0
220
0.0
230
1.0
 70
     8
 71
     3
 72
    10
 73
     6
 74
     0
 42
0.00000001
 43
0.00000001
 40
0.0
 40
0.0
 40
0.0
 40
0.0
 40
0.5
 40
0.5
 40
1.0
 40
1.0
 40
1.0
 40
1.0
 10
91.62426177389774
 20
127.3315380960532
 30
0.0
 10
91.03667622680716
 20
127.3526036162896
 30
0.0
 10
90.44592983334678
 20
127.3633621021618
 30
0.0
 10
89.2619106680479
 20
127.3767268826975
 30
0.0
 10
88.66849667984246
 20
127.3788695253621
 30
0.0
 10
88.07426177389775
 20
127.3783884696205
 30
0.0
  0
SPLINE
  5
9C
330
1F
100
AcDbEntity
  8
0
  6
Continuous
 62
     7
370
    15
100
AcDbSpline
210
0.0
220
0.0
230
1.0
 70
     8
 71
     3
 72
    18
 73
    14
 74
     0
 42
0.00000001
 43
0.00000001
 40
0.0
 40
0.0
 40
0.0
 40
0.0
 40
0.2499999999999991
 40
0.2499999999999991
 40
0.499999999999999
 40
0.499999999999999
 40
0.7499999999999989
 40
0.7499999999999989
 40
0.8749999999999999
 40
0.8749999999999999
 40
0.9374999999999999
 40
0.9374999999999999
 40
1.0
 40
1.0
 40
1.0
 40
1.0
 10
93.02426177389776
 20
128.3525583765884
 30
0.0
 10
93.02426177389776
 20
128.2693514677312
 30
0.0
 10
92.98841267395949
 20
128.1806148124177
 30
0.0
 10
92.86354093792558
 20
127.9984896218574
 30
0.0
 10
92.7731405202777
 20
127.9033595732308
 30
0.0
 10
92.55089786553553
 20
127.7141780641064
 30
0.0
 10
92.42113307908976
 20
127.6192328960118
 30
0.0
 10
92.18049562177823
 20
127.4809541884318
 30
0.0
 10
92.09272832364081
 20
127.4352437551294
 30
0.0
 10
91.93820423643398
 20
127.377420449908
 30
0.0
 10
91.88159335037923
 20
127.3597056858701
 30
0.0
 10
91.75754931947263
 20
127.3351663826372
 30
0.0
 10
91.68983464445434
 20
127.3291872440989
 30
0.0
 10
91.62426177389774
 20
127.3315380960532
 30
0.0
  0
LINE
  5
9D
330
1F
100
AcDbEntity
  8
0
  6
Continuous
 62
     7
370
    15
100
AcDbLine
 10
93.0242617739
 20
128.3525583766
 30
0.0
 11
93.0242617739
 21
129.5364967964
 31
0.0
  0
SPLINE
  5
9E
330
1F
100
AcDbEntity
  8
0
  6
Continuous
 62
     7
370
    15
100
AcDbSpline
210
0.0
220
0.0
230
1.0
 70
     8
 71
     3
 72
    24
 73
    20
 74
     0
 42
0.00000001
 43
0.00000001
 40
0.0
 40
0.0
 40
0.0
 40
0.0
 40
0.0010489762969683
 40
0.0637843125636769
 40
0.1272220590447979
 40
0.190378892448547
 40
0.2526748653693617
 40
0.3146354154430339
 40
0.3770891997149997
 40
0.4393540298511558
 40
0.5008133242537859
 40
0.56218451045969
 40
0.6248438451115955
 40
0.6874304766618995
 40
0.749674317467912
 40
0.8119848426969831
 40
0.8750960525413152
 40
0.9384412526965837
 40
1.0
 40
1.0
 40
1.0
 40
1.0
 10
105.5931676058734
 20
82.8509422756453
 30
0.0
 10
105.5927211457692
 20
82.8508839898264
 30
0.0
 10
105.5655735820753
 20
82.8473398478837
 30
0.0
 10
105.6611853596877
 20
82.86017359256675
 30
0.0
 10
105.8947456175828
 20
82.88942027776666
 30
0.0
 10
106.2902999249008
 20
82.93603460082954
 30
0.0
 10
106.8173402287397
 20
82.98621774248895
 30
0.0
 10
107.4608706407278
 20
83.03059420493936
 30
0.0
 10
108.1995444959725
 20
83.05753898587689
 30
0.0
 10
108.9970590014043
 20
83.06101083658304
 30
0.0
 10
109.8236378838507
 20
83.03338359255294
 30
0.0
 10
110.6491609014592
 20
82.97490470358028
 30
0.0
 10
111.4412874494605
 20
82.88945967421935
 30
0.0
 10
112.1738597234577
 20
82.7877254343828
 30
0.0
 10
112.8094999601879
 20
82.67988231241111
 30
0.0
 10
113.3314110671992
 20
82.57825215567196
 30
0.0
 10
113.7130398443125
 20
82.49576699899353
 30
0.0
 10
113.9638543145485
 20
82.4396177926437
 30
0.0
 10
113.9929758705324
 20
82.43276833402997
 30
0.0
 10
114.0073283913484
 20
82.4293925873018
 30
0.0
  0
SPLINE
  5
9F
330
1F
100
AcDbEntity
  8
0
  6
Continuous
 62
     7
370
    15
100
AcDbSpline
210
0.0
220
0.0
230
1.0
 70
     8
 71
     3
 72
    24
 73
    20
 74
     0
 42
0.00000001
 43
0.00000001
 40
0.0
 40
0.0
 40
0.0
 40
0.0
 40
0.0614384276252095
 40
0.1250736755369691
 40
0.1884253490731512
 40
0.2508623904037511
 40
0.3129665632512957
 40
0.3753451453465188
 40
0.4377328972324856
 40
0.4990927322917281
 40
0.5605807588449117
 40
0.622946989302896
 40
0.6854686282028133
 40
0.7475477813740252
 40
0.8098225060806654
 40
0.8730684085990508
 40
0.9364041844531371
 40
0.9991757196257861
 40
1.0
 40
1.0
 40
1.0
 40
1.0
 10
114.0072736205455
 20
130.5874796786828
 30
0.0
 10
113.9926728962418
 20
130.5841116218302
 30
0.0
 10
113.9629493775135
 20
130.5772550783564
 30
0.0
 10
113.7102115618648
 20
130.5209164578303
 30
0.0
 10
113.3272156454157
 20
130.4380593757004
 30
0.0
 10
112.8048600609775
 20
130.336152345749
 30
0.0
 10
112.1700755829777
 20
130.2283132067054
 30
0.0
 10
111.4398519788056
 20
130.1268462547302
 30
0.0
 10
110.6493833935721
 20
130.0417865410396
 30
0.0
 10
109.8248998787434
 20
129.9835822471532
 30
0.0
 10
108.9978634198597
 20
129.9559988083264
 30
0.0
 10
108.1995391522074
 20
129.9594917858194
 30
0.0
 10
107.4597151879191
 20
129.9864477056727
 30
0.0
 10
106.8154609549433
 20
130.0308016476718
 30
0.0
 10
106.2880536997281
 20
130.0810070974296
 30
0.0
 10
105.8933890975783
 20
130.1276169526279
 30
0.0
 10
105.660859818394
 20
130.1568125451755
 30
0.0
 10
105.5654797858406
 20
130.1695906141167
 30
0.0
 10
105.5924134227424
 20
130.1660363556089
 30
0.0
 10
105.5927625159667
 20
130.1659902880255
 30
0.0
  0
SPLINE
  5
A0
330
1F
100
AcDbEntity
  8
0
  6
Continuous
 62
     7
370
    15
100
AcDbSpline
210
0.0
220
0.0
230
1.0
 70
     8
 71
     3
 72
    10
 73
     6
 74
     0
 42
0.00000001
 43
0.00000001
 40
0.0
 40
0.0
 40
0.0
 40
0.0
 40
0.0840381716606348
 40
0.7011125076933074
 40
1.0
 40
1.0
 40
1.0
 40
1.0
 10
86.93780873643342
 20
86.77967679654209
 30
0.0
 10
86.93848329376833
 20
86.7774711697062
 30
0.0
 10
86.94411098146453
 20
86.75907009634398
 30
0.0
 10
86.97043246159139
 20
86.77330465906715
 30
0.0
 10
86.98286747843609
 20
86.81899043461814
 30
0.0
 10
86.98692514862114
 20
86.8338981594447
 30
0.0
  0
LINE
  5
A1
330
1F
100
AcDbEntity
  8
0
  6
Continuous
 62
     7
370
    15
100
AcDbLine
 10
86.9242617739
 20
86.8177729577
 30
0.0
 11
86.9242617739
 21
126.1991284507
 31
0.0
  0
SPLINE
  5
A2
330
1F
100
AcDbEntity
  8
0
  6
Continuous
 62
     7
370
    15
100
AcDbSpline
210
0.0
220
0.0
230
1.0
 70
     8
 71
     3
 72
    10
 73
     6
 74
     0
 42
0.00000001
 43
0.00000001
 40
0.0
 40
0.0
 40
0.0
 40
0.0
 40
0.5
 40
0.5
 40
1.0
 40
1.0
 40
1.0
 40
1.0
 10
86.98692514862117
 20
126.1830032490062
 30
0.0
 10
86.97802085951241
 20
126.2287447682194
 30
0.0
 10
86.96150547931943
 20
126.2459356076884
 30
0.0
 10
86.93439753325782
 20
126.2456123307526
 30
0.0
 10
86.92426177389775
 20
126.2277347884562
 30
0.0
 10
86.92426177389775
 20
126.1991284507036
 30
0.0
  0
SPLINE
  5
A3
330
1F
100
AcDbEntity
  8
0
  6
Continuous
 62
     7
370
    15
100
AcDbSpline
210
0.0
220
0.0
230
1.0
 70
     8
 71
     3
 72
    26
 73
    22
 74
     0
 42
0.00000001
 43
0.00000001
 40
0.0
 40
0.0
 40
0.0
 40
0.0
 40
0.2500000000000165
 40
0.2500000000000165
 40
0.3750000000000256
 40
0.3750000000000256
 40
0.4375000000000291
 40
0.4375000000000291
 40
0.4687500000000291
 40
0.4687500000000291
 40
0.5000000000000292
 40
0.5000000000000292
 40
0.5312500000000293
 40
0.5312500000000293
 40
0.5625000000000293
 40
0.5625000000000293
 40
0.625000000000026
 40
0.625000000000026
 40
0.7500000000000173
 40
0.7500000000000173
 40
1.0
 40
1.0
 40
1.0
 40
1.0
 10
87.74841542000226
 20
126.8985700378233
 30
0.0
 10
87.7098148971338
 20
126.7807953414678
 30
0.0
 10
87.66351789457953
 20
126.6564056553059
 30
0.0
 10
87.5695785461456
 20
126.4511863229524
 30
0.0
 10
87.53426707923215
 20
126.379613456506
 30
0.0
 10
87.46808710348647
 20
126.2636602239055
 30
0.0
 10
87.44354873681826
 20
126.2230756890953
 30
0.0
 10
87.40017599126446
 20
126.1589340072236
 30
0.0
 10
87.38466758983925
 20
126.1370675819385
 30
0.0
 10
87.34962494525223
 20
126.0914733135953
 30
0.0
 10
87.33007465453247
 20
126.0678030226279
 30
0.0
 10
87.28814737416185
 20
126.0231864632879
 30
0.0
 10
87.2654952639302
 20
126.00230645077
 30
0.0
 10
87.22452154984359
 20
125.9714330370192
 30
0.0
 10
87.20692224994816
 20
125.9615941671868
 30
0.0
 10
87.16229526409201
 20
125.9426045514906
 30
0.0
 10
87.14173604143868
 20
125.9422802268372
 30
0.0
 10
87.090610601942
 20
125.9515036677134
 30
0.0
 10
87.06969918895346
 20
125.9727505639304
 30
0.0
 10
87.01824928139254
 20
126.0467194427611
 30
0.0
 10
87.00058398208799
 20
126.1128375360759
 30
0.0
 10
86.98692514862117
 20
126.1830032490062
 30
0.0
  0
SPLINE
  5
A4
330
1F
100
AcDbEntity
  8
0
  6
Continuous
 62
     7
370
    15
100
AcDbSpline
210
0.0
220
0.0
230
1.0
 70
     8
 71
     3
 72
    10
 73
     6
 74
     0
 42
0.00000001
 43
0.00000001
 40
0.0
 40
0.0
 40
0.0
 40
0.0
 40
0.5
 40
0.5
 40
1.0
 40
1.0
 40
1.0
 40
1.0
 10
88.06421684347954
 20
127.3684045965131
 30
0.0
 10
87.99665758856129
 20
127.3007132037033
 30
0.0
 10
87.93302093322481
 20
127.2260060389497
 30
0.0
 10
87.82280017865295
 20
127.067039906523
 30
0.0
 10
87.77598388543032
 20
126.982684640515
 30
0.0
 10
87.74841542000225
 20
126.8985700378233
 30
0.0
  0
SPLINE
  5
A5
330
1F
100
AcDbEntity
  8
0
  6
Continuous
 62
     7
370
    15
100
AcDbSpline
210
0.0
220
0.0
230
1.0
 70
     8
 71
     3
 72
    10
 73
     6
 74
     0
 42
0.00000001
 43
0.00000001
 40
0.0
 40
0.0
 40
0.0
 40
0.0
 40
0.5
 40
0.5
 40
1.0
 40
1.0
 40
1.0
 40
1.0
 10
87.7484154200023
 20
86.11833137062746
 30
0.0
 10
87.77589283475628
 20
86.03449457415957
 30
0.0
 10
87.8226014650457
 20
85.95018408657043
 30
0.0
 10
87.93287992779165
 20
85.79106285608373
 30
0.0
 10
87.99676746640554
 20
85.71607811199408
 30
0.0
 10
88.06421684349016
 20
85.64849681192715
 30
0.0
  0
SPLINE
  5
A6
330
1F
100
AcDbEntity
  8
0
  6
Continuous
 62
     7
370
    15
100
AcDbSpline
210
0.0
220
0.0
230
1.0
 70
     8
 71
     3
 72
    24
 73
    20
 74
     0
 42
0.00000001
 43
0.00000001
 40
0.0
 40
0.0
 40
0.0
 40
0.0
 40
0.25
 40
0.25
 40
0.374999999999999
 40
0.374999999999999
 40
0.4374999999999993
 40
0.4374999999999993
 40
0.4687499999999994
 40
0.4687499999999994
 40
0.4999999999999995
 40
0.4999999999999995
 40
0.5624999999999971
 40
0.5624999999999971
 40
0.6249999999999947
 40
0.6249999999999947
 40
0.7499999999999947
 40
0.7499999999999947
 40
1.0
 40
1.0
 40
1.0
 40
1.0
 10
86.98692514862117
 20
86.8338981594447
 30
0.0
 10
87.00067826729138
 20
86.90454821743498
 30
0.0
 10
87.01845083469725
 20
86.9711463301999
 30
0.0
 10
87.0707019262526
 20
87.04524435043311
 30
0.0
 10
87.09173700183418
 20
87.06650215759467
 30
0.0
 10
87.1446374094626
 20
87.07464808374091
 30
0.0
 10
87.16574308234051
 20
87.07370828034513
 30
0.0
 10
87.21179525101849
 20
87.05269228876779
 30
0.0
 10
87.23016572300187
 20
87.04178348266018
 30
0.0
 10
87.27171735806758
 20
87.0091485717128
 30
0.0
 10
87.2942840308245
 20
86.98765659134145
 30
0.0
 10
87.35706504728451
 20
86.91919064775512
 30
0.0
 10
87.39019480825242
 20
86.87311618955003
 30
0.0
 10
87.44711249473741
 20
86.78810830121536
 30
0.0
 10
87.47129852024119
 20
86.74782800003398
 30
0.0
 10
87.53650647062095
 20
86.63289177356803
 30
0.0
 10
87.5712225308122
 20
86.56230878842102
 30
0.0
 10
87.66443780114308
 20
86.35810302934242
 30
0.0
 10
87.71011033650375
 20
86.23520464701507
 30
0.0
 10
87.74841542000229
 20
86.11833137062749
 30
0.0
  0
LINE
  5
A7
330
1F
100
AcDbEntity
  8
0
  6
Continuous
 62
     7
370
    15
100
AcDbLine
 10
138.7342617739
 20
126.6443173357
 30
0.0
 11
138.7342617739
 21
127.5585943718
 31
0.0
  0
SPLINE
  5
A8
330
1F
100
AcDbEntity
  8
0
  6
Continuous
 62
     7
370
    15
100
AcDbSpline
210
0.0
220
0.0
230
1.0
 70
     8
 71
     3
 72
     8
 73
     4
 74
     0
 42
0.00000001
 43
0.00000001
 40
0.0
 40
0.0
 40
0.0
 40
0.0
 40
1.0
 40
1.0
 40
1.0
 40
1.0
 10
138.7342617738977
 20
127.5585943718088
 30
0.0
 10
139.2135399244876
 20
128.6996056016613
 30
0.0
 10
139.7091077636275
 20
129.8359900124292
 30
0.0
 10
140.2161946053868
 20
130.9671403665929
 30
0.0
  0
LINE
  5
A9
330
1F
100
AcDbEntity
  8
0
  6
Continuous
 62
     7
370
    15
100
AcDbLine
 10
140.2161946054
 20
130.9671403666
 30
0.0
 11
144.1742617739
 21
130.9671403666
 31
0.0
  0
SPLINE
  5
AA
330
1F
100
AcDbEntity
  8
0
  6
Continuous
 62
     7
370
    15
100
AcDbSpline
210
0.0
220
0.0
230
1.0
 70
     8
 71
     3
 72
    12
 73
     8
 74
     0
 42
0.00000001
 43
0.00000001
 40
0.0
 40
0.0
 40
0.0
 40
0.0
 40
0.250000000000002
 40
0.250000000000002
 40
0.500000000000004
 40
0.500000000000004
 40
1.0
 40
1.0
 40
1.0
 40
1.0
 10
144.1742617738977
 20
130.9671403665929
 30
0.0
 10
144.2654614957234
 20
130.9671403665929
 30
0.0
 10
144.3560565048595
 20
130.938920668005
 30
0.0
 10
144.5094692313061
 20
130.8444776607569
 30
0.0
 10
144.5746780986298
 20
130.7781906840516
 30
0.0
 10
144.7274626279697
 20
130.5525658607633
 30
0.0
 10
144.7742617738978
 20
130.3701395977307
 30
0.0
 10
144.7742617738977
 20
130.1894029654838
 30
0.0
  0
LINE
  5
AB
330
1F
100
AcDbEntity
  8
0
  6
Continuous
 62
     7
370
    15
100
AcDbLine
 10
144.7742617739
 20
130.1894029655
 30
0.0
 11
144.7742617739
 21
126.3584507042
 31
0.0
  0
SPLINE
  5
AC
330
1F
100
AcDbEntity
  8
0
  6
Continuous
 62
     7
370
    15
100
AcDbSpline
210
0.0
220
0.0
230
1.0
 70
     8
 71
     3
 72
    10
 73
     6
 74
     0
 42
0.00000001
 43
0.00000001
 40
0.0
 40
0.0
 40
0.0
 40
0.0
 40
0.5
 40
0.5
 40
1.0
 40
1.0
 40
1.0
 40
1.0
 10
144.7742617738977
 20
136.3548910279893
 30
0.0
 10
144.7742617738977
 20
136.5152962943401
 30
0.0
 10
144.7120239427909
 20
136.6743581073287
 30
0.0
 10
144.4928890190483
 20
136.9052705729591
 30
0.0
 10
144.3353003240564
 20
136.9756461773897
 30
0.0
 10
144.1742617738977
 20
136.9756461773897
 30
0.0
  0
LINE
  5
AD
330
1F
100
AcDbEntity
  8
0
  6
Continuous
 62
     7
370
    15
100
AcDbLine
 10
144.7742617739
 20
130.1894029655
 30
0.0
 11
144.7742617739
 21
136.354891028
 31
0.0
  0
SPLINE
  5
AE
330
1F
100
AcDbEntity
  8
0
  6
Continuous
 62
     7
370
    15
100
AcDbSpline
210
0.0
220
0.0
230
1.0
 70
     8
 71
     3
 72
     8
 73
     4
 74
     0
 42
0.00000001
 43
0.00000001
 40
0.0
 40
0.0
 40
0.0
 40
0.0
 40
1.0
 40
1.0
 40
1.0
 40
1.0
 10
140.2161946053868
 20
136.9756461773897
 30
0.0
 10
139.7210545760225
 20
136.0889665292094
 30
0.0
 10
139.2269718707435
 20
135.2017038935234
 30
0.0
 10
138.7342617738977
 20
134.313684895397
 30
0.0
  0
LINE
  5
AF
330
1F
100
AcDbEntity
  8
0
  6
Continuous
 62
     7
370
    15
100
AcDbLine
 10
140.2161946054
 20
130.9671403666
 30
0.0
 11
140.2161946054
 21
136.9756461774
 31
0.0
  0
LINE
  5
B0
330
1F
100
AcDbEntity
  8
0
  6
Continuous
 62
     7
370
    15
100
AcDbLine
 10
138.7342617739
 20
127.5585943718
 30
0.0
 11
138.7342617739
 21
134.3136848954
 31
0.0
  0
LINE
  5
B1
330
1F
100
AcDbEntity
  8
0
  6
Continuous
 62
     7
370
    15
100
AcDbLine
 10
144.1742617739
 20
136.9756461774
 30
0.0
 11
140.2161946054
 21
136.9756461774
 31
0.0
  0
SPLINE
  5
B2
330
1F
100
AcDbEntity
  8
0
  6
Continuous
 62
     7
370
    15
100
AcDbSpline
210
0.0
220
0.0
230
1.0
 70
     8
 71
     3
 72
     8
 73
     4
 74
     0
 42
0.00000001
 43
0.00000001
 40
0.0
 40
0.0
 40
0.0
 40
0.0
 40
1.0
 40
1.0
 40
1.0
 40
1.0
 10
133.4323289424087
 20
130.9671403665929
 30
0.0
 10
133.9394157841679
 20
129.8359900124292
 30
0.0
 10
134.4349836233079
 20
128.6996056016614
 30
0.0
 10
134.9142617738977
 20
127.5585943718088
 30
0.0
  0
LINE
  5
B3
330
1F
100
AcDbEntity
  8
0
  6
Continuous
 62
     7
370
    15
100
AcDbLine
 10
134.9142617739
 20
127.5585943718
 30
0.0
 11
134.9142617739
 21
126.6443173357
 31
0.0
  0
SPLINE
  5
B4
330
1F
100
AcDbEntity
  8
0
  6
Continuous
 62
     7
370
    15
100
AcDbSpline
210
0.0
220
0.0
230
1.0
 70
     8
 71
     3
 72
     8
 73
     4
 74
     0
 42
0.00000001
 43
0.00000001
 40
0.0
 40
0.0
 40
0.0
 40
0.0
 40
1.0
 40
1.0
 40
1.0
 40
1.0
 10
134.9142617738977
 20
134.313684895397
 30
0.0
 10
134.421551677052
 20
135.2017038935234
 30
0.0
 10
133.927468971773
 20
136.0889665292094
 30
0.0
 10
133.4323289424087
 20
136.9756461773897
 30
0.0
  0
LINE
  5
B5
330
1F
100
AcDbEntity
  8
0
  6
Continuous
 62
     7
370
    15
100
AcDbLine
 10
134.9142617739
 20
127.5585943718
 30
0.0
 11
134.9142617739
 21
134.3136848954
 31
0.0
  0
ARC
  5
B6
330
1F
100
AcDbEntity
  8
0
  6
Continuous
 62
     7
370
    15
100
AcDbCircle
 10
126.8241936838
 20
125.2213933945
 30
0.0
 40
7.242267518316029
100
AcDbArc
 50
70.7755238007
 51
109.205640316
  0
SPLINE
  5
B7
330
1F
100
AcDbEntity
  8
0
  6
Continuous
 62
     7
370
    15
100
AcDbSpline
210
0.0
220
0.0
230
1.0
 70
     8
 71
     3
 72
    66
 73
    62
 74
     0
 42
0.00000001
 43
0.00000001
 40
-0.0625000000000006
 40
-0.0625000000000006
 40
0.0
 40
0.0
 40
0.0624999999999991
 40
0.0624999999999991
 40
0.0937499999999991
 40
0.0937499999999991
 40
0.1249999999999991
 40
0.1249999999999991
 40
0.1562499999999992
 40
0.1562499999999992
 40
0.1874999999999992
 40
0.1874999999999992
 40
0.2187499999999992
 40
0.2187499999999992
 40
0.2499999999999992
 40
0.2499999999999992
 40
0.2812499999999993
 40
0.2812499999999993
 40
0.3124999999999993
 40
0.3124999999999993
 40
0.3437499999999994
 40
0.3437499999999994
 40
0.3749999999999994
 40
0.3749999999999994
 40
0.4062499999999994
 40
0.4062499999999994
 40
0.4374999999999995
 40
0.4374999999999995
 40
0.4687499999999996
 40
0.4687499999999996
 40
0.4999999999999996
 40
0.4999999999999996
 40
0.5312499999999996
 40
0.5312499999999996
 40
0.5624999999999996
 40
0.5624999999999996
 40
0.5937499999999996
 40
0.5937499999999996
 40
0.6249999999999996
 40
0.6249999999999996
 40
0.6562499999999996
 40
0.6562499999999996
 40
0.6874999999999996
 40
0.6874999999999996
 40
0.7187499999999996
 40
0.7187499999999996
 40
0.7499999999999994
 40
0.7499999999999994
 40
0.7812499999999994
 40
0.7812499999999994
 40
0.8124999999999994
 40
0.8124999999999994
 40
0.8437499999999994
 40
0.8437499999999994
 40
0.8749999999999994
 40
0.8749999999999994
 40
0.9062499999999994
 40
0.9062499999999994
 40
0.9374999999999994
 40
0.9374999999999994
 40
1.0
 40
1.0
 40
1.062499999999999
 40
1.062499999999999
 10
153.0988595935048
 20
108.491186204556
 30
0.0
 10
153.7771056057933
 20
109.0200919214652
 30
0.0
 10
154.1558999984988
 20
109.2158652846837
 30
0.0
 10
154.7687799341217
 20
109.4138486680963
 30
0.0
 10
154.9762338973759
 20
109.4621458121958
 30
0.0
 10
155.3971665938138
 20
109.5251555583425
 30
0.0
 10
155.612213812243
 20
109.5398089776076
 30
0.0
 10
156.041146733546
 20
109.5341573970157
 30
0.0
 10
156.2529672290665
 20
109.5141593172324
 30
0.0
 10
156.6714221671286
 20
109.4404423241584
 30
0.0
 10
156.8794029934463
 20
109.3862482346802
 30
0.0
 10
157.2836642274407
 20
109.2435715303468
 30
0.0
 10
157.4771208679242
 20
109.1563570405996
 30
0.0
 10
157.8465750279101
 20
108.9497491023021
 30
0.0
 10
158.0235149532397
 20
108.8296320223403
 30
0.0
 10
158.3537428387922
 20
108.5561305727025
 30
0.0
 10
158.5032660709739
 20
108.4061340473357
 30
0.0
 10
158.7698598925353
 20
108.0783600396346
 30
0.0
 10
158.8880130818281
 20
107.8985427351715
 30
0.0
 10
159.0811348298549
 20
107.515361164892
 30
0.0
 10
159.1544823853746
 20
107.3162856758558
 30
0.0
 10
159.2527361254705
 20
106.9024555474141
 30
0.0
 10
159.2770776249733
 20
106.6847300896265
 30
0.0
 10
159.2709075292245
 20
106.2576328578978
 30
0.0
 10
159.2413151859254
 20
106.0448716350022
 30
0.0
 10
159.1299866567232
 20
105.6277304341435
 30
0.0
 10
159.0502437529266
 20
105.4296076809994
 30
0.0
 10
158.8469646377443
 20
105.0522840721669
 30
0.0
 10
158.7233732090064
 20
104.8742758426983
 30
0.0
 10
158.4457617216054
 20
104.5505254932791
 30
0.0
 10
158.289015585699
 20
104.4014981041487
 30
0.0
 10
157.9524956086677
 20
104.1370199102296
 30
0.0
 10
157.7734477775442
 20
104.0215592039013
 30
0.0
 10
157.3951284794329
 20
103.8218382838021
 30
0.0
 10
157.1954086168833
 20
103.7378636424981
 30
0.0
 10
156.7897837345536
 20
103.6057828012982
 30
0.0
 10
156.5822194588973
 20
103.5567003740385
 30
0.0
 10
156.1576042490281
 20
103.4922397693699
 30
0.0
 10
155.9419029793216
 20
103.4773964942445
 30
0.0
 10
155.5156586071689
 20
103.4822692318153
 30
0.0
 10
155.3034012162132
 20
103.5016848362096
 30
0.0
 10
154.8806657096222
 20
103.5755150852762
 30
0.0
 10
154.6714729774052
 20
103.6300701162839
 30
0.0
 10
154.2703404512905
 20
103.7711530057875
 30
0.0
 10
154.0765018822561
 20
103.8579365524253
 30
0.0
 10
153.7031190899021
 20
104.0662579700451
 30
0.0
 10
153.5242145473528
 20
104.1880325385771
 30
0.0
 10
153.1975681529071
 20
104.4583573536258
 30
0.0
 10
153.0476814568293
 20
104.607926273374
 30
0.0
 10
152.7778438556727
 20
104.9394109604887
 30
0.0
 10
152.6588925008932
 20
105.1212316785485
 30
0.0
 10
152.4671840413385
 20
105.5022868432848
 30
0.0
 10
152.391986327439
 20
105.7064510030186
 30
0.0
 10
152.2940898453507
 20
106.1245246226534
 30
0.0
 10
152.2710342443631
 20
106.3364943865005
 30
0.0
 10
152.2782071730262
 20
106.766476791995
 30
0.0
 10
152.3091978636623
 20
106.981944166598
 30
0.0
 10
152.420720601215
 20
107.3947989986387
 30
0.0
 10
152.5027082303769
 20
107.5971345442937
 30
0.0
 10
152.8094037379378
 20
108.1614327621431
 30
0.0
 10
153.0988595935048
 20
108.491186204556
 30
0.0
 10
153.7771056057933
 20
109.0200919214652
 30
0.0
  0
CIRCLE
  5
B8
330
1F
100
AcDbEntity
  8
0
  6
Continuous
 62
     7
370
    15
100
AcDbCircle
 10
155.7742617739
 20
106.5084507042
 30
0.0
 40
2.500000000000014
  0
LINE
  5
B9
330
1F
100
AcDbEntity
  8
0
  6
Continuous
 62
     7
370
    15
100
AcDbLine
 10
169.3525451973
 20
89.5084507042
 30
0.0
 11
169.3525451973
 21
123.5084507042
 31
0.0
  0
LINE
  5
BA
330
1F
100
AcDbEntity
  8
0
  6
Continuous
 62
     7
370
    15
100
AcDbLine
 10
153.4379825984
 20
123.3592709952
 30
0.0
 11
153.5782714785
 21
123.3461894211
 31
0.0
  0
SPLINE
  5
BB
330
1F
100
AcDbEntity
  8
0
  6
Continuous
 62
     7
370
    15
100
AcDbSpline
210
0.0
220
0.0
230
1.0
 70
     8
 71
     3
 72
    27
 73
    23
 74
     0
 42
0.00000001
 43
0.00000001
 40
0.0
 40
0.0
 40
0.0
 40
0.0
 40
0.0168839716414423
 40
0.0618081662867348
 40
0.1033815713108977
 40
0.1460093027922904
 40
0.1907251380608313
 40
0.2364505305697975
 40
0.287359342947885
 40
0.3394234305718998
 40
0.3970747075261624
 40
0.4561653966826066
 40
0.5182523870146171
 40
0.5820707442801674
 40
0.645261853400875
 40
0.7104123796365482
 40
0.7712161722927261
 40
0.8342450376997743
 40
0.879505767574588
 40
0.9260191044628434
 40
0.9713185353628984
 40
1.0
 40
1.0
 40
1.0
 40
1.0
 10
159.2650673796812
 20
123.5070573471182
 30
0.0
 10
159.2674034340762
 20
123.5074112725544
 30
0.0
 10
159.2759551683224
 20
123.5087069085977
 30
0.0
 10
159.2087372001422
 20
123.4985122402803
 30
0.0
 10
159.0711120010729
 20
123.4782546802833
 30
0.0
 10
158.8657815760736
 20
123.4493980685815
 30
0.0
 10
158.5964320532209
 20
123.414158359961
 30
0.0
 10
158.255970744341
 20
123.3738676638201
 30
0.0
 10
157.8484153074989
 20
123.3320531343561
 30
0.0
 10
157.364255310402
 20
123.2917297861378
 30
0.0
 10
156.8192337066796
 20
123.258720850228
 30
0.0
 10
156.2163223656509
 20
123.2379735486157
 30
0.0
 10
155.5809215228682
 20
123.2341002510473
 30
0.0
 10
154.9364729889681
 20
123.2493104772985
 30
0.0
 10
154.3053356199873
 20
123.2825382044392
 30
0.0
 10
153.7263502526272
 20
123.328896748358
 30
0.0
 10
153.2103833136711
 20
123.3824940592672
 30
0.0
 10
152.8233198199346
 20
123.4304290866723
 30
0.0
 10
152.5468238257639
 20
123.468267743666
 30
0.0
 10
152.3750659908531
 20
123.4932287929772
 30
0.0
 10
152.2815479127117
 20
123.5073414559391
 30
0.0
 10
152.2839756510116
 20
123.5069774727438
 30
0.0
 10
152.2849168546789
 20
123.5068363610275
 30
0.0
  0
LINE
  5
BC
330
1F
100
AcDbEntity
  8
0
  6
Continuous
 62
     7
370
    15
100
AcDbLine
 10
153.3322353537
 20
123.3713615807
 30
0.0
 11
153.4379825984
 21
123.3592709952
 31
0.0
  0
LINE
  5
BD
330
1F
100
AcDbEntity
  8
0
  6
Continuous
 62
     7
370
    15
100
AcDbLine
 10
153.437982599
 20
89.6576304133
 30
0.0
 11
153.304180102
 21
89.6425944917
 31
0.0
  0
SPLINE
  5
BE
330
1F
100
AcDbEntity
  8
0
  6
Continuous
 62
     7
370
    15
100
AcDbSpline
210
0.0
220
0.0
230
1.0
 70
     8
 71
     3
 72
    27
 73
    23
 74
     0
 42
0.00000001
 43
0.00000001
 40
0.0
 40
0.0
 40
0.0
 40
0.0
 40
0.0014927824170709
 40
0.0473948858325559
 40
0.0888874383008966
 40
0.1314672555557528
 40
0.1753755831539941
 40
0.2202860543373071
 40
0.270021657713213
 40
0.3208761300234712
 40
0.377474328510266
 40
0.4354581739774389
 40
0.497030801420327
 40
0.5602911489147634
 40
0.623515842956133
 40
0.6886601079860016
 40
0.750184243478119
 40
0.8138907364254595
 40
0.8603649035402993
 40
0.9081180150797686
 40
0.9546366343018607
 40
1.0
 40
1.0
 40
1.0
 40
1.0
 10
152.2755672050919
 20
89.50864788799996
 30
0.0
 10
152.2751340064665
 20
89.50858245663935
 30
0.0
 10
152.2613802275108
 20
89.50650505283858
 30
0.0
 10
152.310003555051
 20
89.51389507614223
 30
0.0
 10
152.4218302966633
 20
89.53054901558357
 30
0.0
 10
152.6057823258762
 20
89.55689363991263
 30
0.0
 10
152.8527321555611
 20
89.59008206293723
 30
0.0
 10
153.1692123439976
 20
89.62899722254289
 30
0.0
 10
153.5524979661918
 20
89.67052198906788
 30
0.0
 10
154.0126129270148
 20
89.71204692917014
 30
0.0
 10
154.5359665707136
 20
89.74800766078607
 30
0.0
 10
155.122747222283
 20
89.77359144543323
 30
0.0
 10
155.7485139868896
 20
89.78358965101432
 30
0.0
 10
156.3931026103741
 20
89.77488595199263
 30
0.0
 10
157.0326656862689
 20
89.74747388332091
 30
0.0
 10
157.6306387008277
 20
89.70497039693282
 30
0.0
 10
158.1740908435119
 20
89.6527185219916
 30
0.0
 10
158.595164491523
 20
89.60316655816413
 30
0.0
 10
158.9076399017071
 20
89.5618215584242
 30
0.0
 10
159.1156587793681
 20
89.53222000376701
 30
0.0
 10
159.2502172785805
 20
89.51212064473998
 30
0.0
 10
159.264580571454
 20
89.50992550326042
 30
0.0
 10
159.2716719213831
 20
89.50884173253232
 30
0.0
  0
SPLINE
  5
BF
330
1F
100
AcDbEntity
  8
0
  6
Continuous
 62
     7
370
    15
100
AcDbSpline
210
0.0
220
0.0
230
1.0
 70
     8
 71
     3
 72
    10
 73
     6
 74
     0
 42
0.00000001
 43
0.00000001
 40
0.0
 40
0.0
 40
0.0
 40
0.0
 40
0.1528193873483784
 40
0.8538662091833924
 40
1.0
 40
1.0
 40
1.0
 40
1.0
 10
213.8099582291008
 20
118.3559325336311
 30
0.0
 10
213.8113884285193
 20
118.3450525179874
 30
0.0
 10
213.8193795543646
 20
118.2842612932958
 30
0.0
 10
213.8237035525751
 20
118.196802886081
 30
0.0
 10
213.8241796498515
 20
118.120977847729
 30
0.0
 10
213.8242617738977
 20
118.1078984640324
 30
0.0
  0
LINE
  5
C0
330
1F
100
AcDbEntity
  8
0
  6
Continuous
 62
     7
370
    15
100
AcDbLine
 10
213.8242617739
 20
94.9090029444
 30
0.0
 11
213.8242617739
 21
118.107898464
 31
0.0
  0
LINE
  5
C1
330
1F
100
AcDbEntity
  8
0
  6
Continuous
 62
     7
370
    15
100
AcDbLine
 10
213.8242617739
 20
96.2590293732
 30
0.0
 11
213.901583981
 21
94.2910477863
 31
0.0
  0
LINE
  5
C2
330
1F
100
AcDbEntity
  8
0
  6
Continuous
 62
     7
370
    15
100
AcDbLine
 10
213.7386740087
 20
94.3123831923
 30
0.0
 11
213.7507744639
 21
94.004406042
 31
0.0
  0
LINE
  5
C3
330
1F
100
AcDbEntity
  8
0
  6
Continuous
 62
     7
370
    15
100
AcDbLine
 10
213.6918847403
 20
119.0148091499
 30
0.0
 11
213.6863204252
 21
118.873187875
 31
0.0
  0
LINE
  5
C4
330
1F
100
AcDbEntity
  8
0
  6
Continuous
 62
     7
370
    15
100
AcDbLine
 10
213.8426942574
 20
118.7281674057
 30
0.0
 11
213.8222263983
 21
118.2072256058
 31
0.0
  0
LINE
  5
C5
330
1F
100
AcDbEntity
  8
0
  6
HIDDEN
 62
     7
370
     0
100
AcDbLine
 10
163.3242617739
 20
101.7408150014
 30
0.0
 11
163.3242617739
 21
112.5084507042
 31
0.0
  0
LINE
  5
C6
330
1F
100
AcDbEntity
  8
0
  6
HIDDEN
 62
     7
370
     0
100
AcDbLine
 10
163.3242617739
 20
100.5084507042
 30
0.0
 11
163.3242617739
 21
101.7408150014
 31
0.0
  0
LINE
  5
C7
330
1F
100
AcDbEntity
  8
0
  6
HIDDEN
 62
     7
370
     0
100
AcDbLine
 10
148.3242617739
 20
101.7408150014
 30
0.0
 11
148.3242617739
 21
112.5084507042
 31
0.0
  0
LINE
  5
C8
330
1F
100
AcDbEntity
  8
0
  6
HIDDEN
 62
     7
370
     0
100
AcDbLine
 10
148.3242617739
 20
100.5084507042
 30
0.0
 11
148.3242617739
 21
101.7408150014
 31
0.0
  0
LINE
  5
C9
330
1F
100
AcDbEntity
  8
0
  6
HIDDEN
 62
     7
370
     0
100
AcDbLine
 10
163.8242617739
 20
102.1381179766
 30
0.0
 11
163.8242617739
 21
112.0084507042
 31
0.0
  0
LINE
  5
CA
330
1F
100
AcDbEntity
  8
0
  6
HIDDEN
 62
     7
370
     0
100
AcDbLine
 10
163.8242617739
 20
101.0084507042
 30
0.0
 11
163.8242617739
 21
102.1381179766
 31
0.0
  0
LINE
  5
CB
330
1F
100
AcDbEntity
  8
0
  6
HIDDEN
 62
     7
370
     0
100
AcDbLine
 10
147.8242617739
 20
102.1381179766
 30
0.0
 11
147.8242617739
 21
112.0084507042
 31
0.0
  0
LINE
  5
CC
330
1F
100
AcDbEntity
  8
0
  6
HIDDEN
 62
     7
370
     0
100
AcDbLine
 10
147.8242617739
 20
101.0084507042
 30
0.0
 11
147.8242617739
 21
102.1381179766
 31
0.0
  0
LINE
  5
CD
330
1F
100
AcDbEntity
  8
0
  6
HIDDEN
 62
     7
370
     0
100
AcDbLine
 10
167.8242617739
 20
108.5291480004
 30
0.0
 11
165.8242617739
 21
108.5291480004
 31
0.0
  0
LINE
  5
CE
330
1F
100
AcDbEntity
  8
0
  6
HIDDEN
 62
     7
370
     0
100
AcDbLine
 10
167.8242617739
 20
101.0084507042
 30
0.0
 11
167.8242617739
 21
108.5291480004
 31
0.0
  0
LINE
  5
CF
330
1F
100
AcDbEntity
  8
0
  6
HIDDEN
 62
     7
370
     0
100
AcDbLine
 10
165.8242617739
 20
102.1039355566
 30
0.0
 11
167.8242617739
 21
102.1039355566
 31
0.0
  0
LINE
  5
D0
330
1F
100
AcDbEntity
  8
0
  6
HIDDEN
 62
     7
370
     0
100
AcDbLine
 10
167.8242617739
 20
104.487753408
 30
0.0
 11
165.8242617739
 21
104.487753408
 31
0.0
  0
LINE
  5
D1
330
1F
100
AcDbEntity
  8
0
  6
HIDDEN
 62
     7
370
     0
100
AcDbLine
 10
167.8242617739
 20
110.9129658518
 30
0.0
 11
167.8242617739
 21
112.0084507042
 31
0.0
  0
LINE
  5
D2
330
1F
100
AcDbEntity
  8
0
  6
HIDDEN
 62
     7
370
     0
100
AcDbLine
 10
165.8242617739
 20
110.9129658518
 30
0.0
 11
167.8242617739
 21
110.9129658518
 31
0.0
  0
LINE
  5
D3
330
1F
100
AcDbEntity
  8
0
  6
HIDDEN
 62
     7
370
     0
100
AcDbLine
 10
165.8242617739
 20
108.5291480004
 30
0.0
 11
165.8242617739
 21
110.9129658518
 31
0.0
  0
LINE
  5
D4
330
1F
100
AcDbEntity
  8
0
  6
HIDDEN
 62
     7
370
     0
100
AcDbLine
 10
165.8242617739
 20
106.8939001203
 30
0.0
 11
165.8242617739
 21
108.5291480004
 31
0.0
  0
LINE
  5
D5
330
1F
100
AcDbEntity
  8
0
  6
HIDDEN
 62
     7
370
     0
100
AcDbLine
 10
165.8242617739
 20
106.8939001203
 30
0.0
 11
167.8242617739
 21
106.8939001203
 31
0.0
  0
LINE
  5
D6
330
1F
100
AcDbEntity
  8
0
  6
HIDDEN
 62
     7
370
     0
100
AcDbLine
 10
154.8242617738
 20
105.1762050806
 30
0.0
 11
154.8242617738
 21
106.8939001203
 31
0.0
  0
LINE
  5
D7
330
1F
100
AcDbEntity
  8
0
  6
HIDDEN
 62
     7
370
     0
100
AcDbLine
 10
160.8242617739
 20
106.8939001203
 30
0.0
 11
160.8242617739
 21
105.1762050806
 31
0.0
  0
LINE
  5
D8
330
1F
100
AcDbEntity
  8
0
  6
HIDDEN
 62
     7
370
     0
100
AcDbLine
 10
160.8242617739
 20
108.6115951599
 30
0.0
 11
160.8242617739
 21
106.8939001203
 31
0.0
  0
LINE
  5
D9
330
1F
100
AcDbEntity
  8
0
  6
HIDDEN
 62
     7
370
     0
100
AcDbLine
 10
154.8242617738
 20
106.8939001203
 30
0.0
 11
154.8242617738
 21
108.6115951599
 31
0.0
  0
LINE
  5
DA
330
1F
100
AcDbEntity
  8
0
  6
HIDDEN
 62
     7
370
     0
100
AcDbLine
 10
167.8242617739
 20
109.2777179717
 30
0.0
 11
167.8242617739
 21
110.9129658518
 31
0.0
  0
LINE
  5
DB
330
1F
100
AcDbEntity
  8
0
  6
HIDDEN
 62
     7
370
     0
100
AcDbLine
 10
167.8242617739
 20
109.2777179717
 30
0.0
 11
165.8242617739
 21
109.2777179717
 31
0.0
  0
LINE
  5
DC
330
1F
100
AcDbEntity
  8
0
  6
HIDDEN
 62
     7
370
     0
100
AcDbLine
 10
154.8242617738
 20
104.1246328528
 30
0.0
 11
154.8242617738
 21
105.1762050806
 31
0.0
  0
LINE
  5
DD
330
1F
100
AcDbEntity
  8
0
  6
HIDDEN
 62
     7
370
     0
100
AcDbLine
 10
154.8242617738
 20
105.1762050806
 30
0.0
 11
147.8242617738
 21
105.1762050806
 31
0.0
  0
LINE
  5
DE
330
1F
100
AcDbEntity
  8
0
  6
HIDDEN
 62
     7
370
     0
100
AcDbLine
 10
160.8242617739
 20
105.1762050806
 30
0.0
 11
160.8242617739
 21
104.1246328528
 31
0.0
  0
LINE
  5
DF
330
1F
100
AcDbEntity
  8
0
  6
HIDDEN
 62
     7
370
     0
100
AcDbLine
 10
160.8242617739
 20
105.1762050806
 30
0.0
 11
167.8242617739
 21
105.1762050806
 31
0.0
  0
LINE
  5
E0
330
1F
100
AcDbEntity
  8
0
  6
HIDDEN
 62
     7
370
     0
100
AcDbLine
 10
160.8242617739
 20
109.2777179717
 30
0.0
 11
160.8242617739
 21
108.6115951599
 31
0.0
  0
LINE
  5
E1
330
1F
100
AcDbEntity
  8
0
  6
HIDDEN
 62
     7
370
     0
100
AcDbLine
 10
160.8242617739
 20
108.6115951599
 30
0.0
 11
165.8242617739
 21
108.6115951599
 31
0.0
  0
LINE
  5
E2
330
1F
100
AcDbEntity
  8
0
  6
HIDDEN
 62
     7
370
     0
100
AcDbLine
 10
154.8242617738
 20
108.6115951599
 30
0.0
 11
154.8242617738
 21
109.2777179717
 31
0.0
  0
LINE
  5
E3
330
1F
100
AcDbEntity
  8
0
  6
HIDDEN
 62
     7
370
     0
100
AcDbLine
 10
154.8242617738
 20
108.6115951599
 30
0.0
 11
147.8242617739
 21
108.6115951599
 31
0.0
  0
LINE
  5
E4
330
1F
100
AcDbEntity
  8
0
  6
HIDDEN
 62
     7
370
     0
100
AcDbLine
 10
154.8242617738
 20
103.0730606249
 30
0.0
 11
154.8242617738
 21
104.1246328528
 31
0.0
  0
LINE
  5
E5
330
1F
100
AcDbEntity
  8
0
  6
HIDDEN
 62
     7
370
     0
100
AcDbLine
 10
160.8242617739
 20
104.1246328528
 30
0.0
 11
160.8242617739
 21
103.0730606249
 31
0.0
  0
LINE
  5
E6
330
1F
100
AcDbEntity
  8
0
  6
HIDDEN
 62
     7
370
     0
100
AcDbLine
 10
154.8242617738
 20
109.2777179717
 30
0.0
 11
154.8242617738
 21
109.9438407835
 31
0.0
  0
LINE
  5
E7
330
1F
100
AcDbEntity
  8
0
  6
HIDDEN
 62
     7
370
     0
100
AcDbLine
 10
160.8242617739
 20
109.9438407835
 30
0.0
 11
160.8242617739
 21
109.2777179717
 31
0.0
  0
LINE
  5
E8
330
1F
100
AcDbEntity
  8
0
  6
HIDDEN
 62
     7
370
     0
100
AcDbLine
 10
154.8242617738
 20
104.4053062485
 30
0.0
 11
147.8242617738
 21
104.4053062485
 31
0.0
  0
LINE
  5
E9
330
1F
100
AcDbEntity
  8
0
  6
HIDDEN
 62
     7
370
     0
100
AcDbLine
 10
154.8242617738
 20
103.0730606249
 30
0.0
 11
147.8242617738
 21
103.0730606249
 31
0.0
  0
LINE
  5
EA
330
1F
100
AcDbEntity
  8
0
  6
HIDDEN
 62
     7
370
     0
100
AcDbLine
 10
160.8242617739
 20
104.4053062485
 30
0.0
 11
165.8242617739
 21
104.4053062485
 31
0.0
  0
LINE
  5
EB
330
1F
100
AcDbEntity
  8
0
  6
HIDDEN
 62
     7
370
     0
100
AcDbLine
 10
165.8242617739
 20
103.7391834367
 30
0.0
 11
165.8242617739
 21
104.4053062485
 31
0.0
  0
LINE
  5
EC
330
1F
100
AcDbEntity
  8
0
  6
HIDDEN
 62
     7
370
     0
100
AcDbLine
 10
167.8242617739
 20
103.7391834367
 30
0.0
 11
165.8242617739
 21
103.7391834367
 31
0.0
  0
LINE
  5
ED
330
1F
100
AcDbEntity
  8
0
  6
HIDDEN
 62
     7
370
     0
100
AcDbLine
 10
160.8242617739
 20
103.0730606249
 30
0.0
 11
167.8242617739
 21
103.0730606249
 31
0.0
  0
LINE
  5
EE
330
1F
100
AcDbEntity
  8
0
  6
HIDDEN
 62
     7
370
     0
100
AcDbLine
 10
154.8242617738
 20
107.8406963278
 30
0.0
 11
147.8242617738
 21
107.8406963278
 31
0.0
  0
LINE
  5
EF
330
1F
100
AcDbEntity
  8
0
  6
HIDDEN
 62
     7
370
     0
100
AcDbLine
 10
154.8242617738
 20
109.9438407835
 30
0.0
 11
147.8242617738
 21
109.9438407835
 31
0.0
  0
LINE
  5
F0
330
1F
100
AcDbEntity
  8
0
  6
HIDDEN
 62
     7
370
     0
100
AcDbLine
 10
160.8242617739
 20
107.8406963278
 30
0.0
 11
167.8242617739
 21
107.8406963278
 31
0.0
  0
LINE
  5
F1
330
1F
100
AcDbEntity
  8
0
  6
HIDDEN
 62
     7
370
     0
100
AcDbLine
 10
160.8242617739
 20
109.9438407835
 30
0.0
 11
167.8242617739
 21
109.9438407835
 31
0.0
  0
LINE
  5
F2
330
1F
100
AcDbEntity
  8
0
  6
HIDDEN
 62
     7
370
     0
100
AcDbLine
 10
167.8242617739
 20
109.2777179717
 30
0.0
 11
167.8242617739
 21
108.5291480004
 31
0.0
  0
LINE
  5
F3
330
1F
100
AcDbEntity
  8
0
  6
HIDDEN
 62
     7
370
     0
100
AcDbLine
 10
165.8242617739
 20
102.1039355566
 30
0.0
 11
165.8242617739
 21
103.7391834367
 31
0.0
  0
LINE
  5
F4
330
1F
100
AcDbEntity
  8
0
  6
HIDDEN
 62
     7
370
     0
100
AcDbLine
 10
165.8242617739
 20
106.1230012882
 30
0.0
 11
167.8242617739
 21
106.1230012882
 31
0.0
  0
LINE
  5
F5
330
1F
100
AcDbEntity
  8
0
  6
HIDDEN
 62
     7
370
     0
100
AcDbLine
 10
165.8242617739
 20
104.4053062485
 30
0.0
 11
165.8242617739
 21
106.1230012882
 31
0.0
  0
LINE
  5
F6
330
1F
100
AcDbEntity
  8
0
  6
HIDDEN
 62
     7
370
     0
100
AcDbLine
 10
133.4323289424
 20
130.9671403666
 30
0.0
 11
133.4323289424
 21
126.3584507042
 31
0.0
  0
ARC
  5
F7
330
1F
100
AcDbEntity
  8
0
  6
HIDDEN
 62
     7
370
     0
100
AcDbCircle
 10
127.108054844
 20
119.0042198565
 30
0.0
 40
3.676823153255278
100
AcDbArc
 50
265.5732618407
 51
11.9473124457
  0
ARC
  5
F8
330
1F
100
AcDbEntity
  8
0
  6
HIDDEN
 62
     7
370
     0
100
AcDbCircle
 10
126.5616630229
 20
119.0227287612
 30
0.0
 40
3.693709867333455
100
AcDbArc
 50
168.3829076708
 51
274.0767964701
  0
LINE
  5
F9
330
1F
100
AcDbEntity
  8
0
  6
HIDDEN
 62
     7
370
     0
100
AcDbLine
 10
106.8194119785
 20
82.9838510814
 30
0.0
 11
106.5705471597
 21
82.9605881149
 31
0.0
  0
LINE
  5
FA
330
1F
100
AcDbEntity
  8
0
  6
HIDDEN
 62
     7
370
     0
100
AcDbLine
 10
106.4379863986
 20
130.0685370324
 30
0.0
 11
106.8193192582
 21
130.0330337342
 31
0.0
  0
SPLINE
  5
FB
330
1F
100
AcDbEntity
  8
0
  6
HIDDEN
 62
     7
370
     0
100
AcDbSpline
210
0.0
220
0.0
230
1.0
 70
     8
 71
     3
 72
    32
 73
    28
 74
     0
 42
0.00000001
 43
0.00000001
 40
0.0
 40
0.0
 40
0.0
 40
0.0
 40
0.0346239305784003
 40
0.0694856633630166
 40
0.1050986804323536
 40
0.1409725967297708
 40
0.1755970960170308
 40
0.2104650744677736
 40
0.2461074135539813
 40
0.2820202239560262
 40
0.3509369157952861
 40
0.3859282994925113
 40
0.4214399215599407
 40
0.489717036405698
 40
0.5243644040068604
 40
0.5595048416018171
 40
0.6284941694825993
 40
0.6634978652371093
 40
0.6989967201838478
 40
0.7337528558990941
 40
0.7687504662678829
 40
0.804513685769049
 40
0.8405437629960127
 40
0.910216981903595
 40
0.9455973632566557
 40
0.9815114656514446
 40
1.0
 40
1.0
 40
1.0
 40
1.0
 10
112.5792637754993
 20
86.67092222840897
 30
0.0
 10
112.507265470732
 20
86.6807101711477
 30
0.0
 10
112.3627743663369
 20
86.70035328164376
 30
0.0
 10
112.1214544765926
 20
86.72980250285013
 30
0.0
 10
111.8621560522611
 20
86.75835287487546
 30
0.0
 10
111.5881692806939
 20
86.78478413143031
 30
0.0
 10
111.3035391552608
 20
86.80823647265645
 30
0.0
 10
111.0089630036058
 20
86.82823444050013
 30
0.0
 10
110.7019983728969
 20
86.84438816099532
 30
0.0
 10
110.2882561049022
 20
86.85959019188456
 30
0.0
 10
109.8673962916659
 20
86.8650459613588
 30
0.0
 10
109.4494155184657
 20
86.86042669731464
 30
0.0
 10
109.0369623295081
 20
86.84925298341382
 30
0.0
 10
108.6346396570783
 20
86.82881828721267
 30
0.0
 10
108.2520685794955
 20
86.80102808870997
 30
0.0
 10
107.8822959853291
 20
86.76886691044497
 30
0.0
 10
107.5369277602324
 20
86.73155947293033
 30
0.0
 10
107.2241900800328
 20
86.69227418977744
 30
0.0
 10
107.0064619681195
 20
86.66245966760003
 30
0.0
 10
106.8085722041811
 20
86.63332605182346
 30
0.0
 10
106.6312470589423
 20
86.6055925061131
 30
0.0
 10
106.474605454487
 20
86.57980695709793
 30
0.0
 10
106.2997515069787
 20
86.54977750785639
 30
0.0
 10
106.1731056441179
 20
86.52681473629863
 30
0.0
 10
106.103488456035
 20
86.51392565797951
 30
0.0
 10
106.0715892457907
 20
86.50795236125794
 30
0.0
 10
106.0810642037379
 20
86.5097230918958
 30
0.0
 10
106.084284233059
 20
86.51032486813642
 30
0.0
  0
SPLINE
  5
FC
330
1F
100
AcDbEntity
  8
0
  6
HIDDEN
 62
     7
370
     0
100
AcDbSpline
210
0.0
220
0.0
230
1.0
 70
     8
 71
     3
 72
    30
 73
    26
 74
     0
 42
0.00000001
 43
0.00000001
 40
0.0
 40
0.0
 40
0.0
 40
0.0
 40
0.0501295436075413
 40
0.0849645869476773
 40
0.120310272050844
 40
0.1887226296272166
 40
0.2234350577734725
 40
0.2586381408933402
 40
0.327989180089662
 40
0.3631798593913006
 40
0.3988730116878407
 40
0.4336686238483539
 40
0.4687082007069248
 40
0.5045231139898276
 40
0.5406088812122951
 40
0.6099754147819895
 40
0.6451997353264738
 40
0.6809540137111606
 40
0.7493278060998901
 40
0.7840312587819452
 40
0.8192361094257294
 40
0.8878451716853011
 40
0.922654863951113
 40
0.957954632762727
 40
1.0
 40
1.0
 40
1.0
 40
1.0
 10
106.084284233059
 20
126.5065765403144
 30
0.0
 10
106.0850282043746
 20
126.5064311976398
 30
0.0
 10
106.086289161706
 20
126.5061848562724
 30
0.0
 10
106.1488380374918
 20
126.4945663101788
 30
0.0
 10
106.2490490885268
 20
126.4762875051756
 30
0.0
 10
106.4006426915259
 20
126.4494715904524
 30
0.0
 10
106.5970807943786
 20
126.4168381364495
 30
0.0
 10
106.8247151619307
 20
126.3808073767035
 30
0.0
 10
107.0960451732752
 20
126.3413139863876
 30
0.0
 10
107.4048494293394
 20
126.3016738703344
 30
0.0
 10
107.6549400933108
 20
126.2725968534221
 30
0.0
 10
107.9201207791095
 20
126.2451971128716
 30
0.0
 10
108.1991748551533
 20
126.2201512420767
 30
0.0
 10
108.4936587466312
 20
126.1979847858513
 30
0.0
 10
108.8957454239722
 20
126.1738573071162
 30
0.0
 10
109.3119932257485
 20
126.1584802998864
 30
0.0
 10
109.7324399465961
 20
126.1530935625169
 30
0.0
 10
110.1508411432582
 20
126.1545239493901
 30
0.0
 10
110.5651491797005
 20
126.1659172666575
 30
0.0
 10
110.9651982170597
 20
126.1860904807444
 30
0.0
 10
111.3550824862342
 20
126.2116564248179
 30
0.0
 10
111.7259052454442
 20
126.244227859198
 30
0.0
 10
112.0682108102585
 20
126.2809770543214
 30
0.0
 10
112.3297509671519
 20
126.3121995593971
 30
0.0
 10
112.4913936571179
 20
126.3340831203382
 30
0.0
 10
112.5792637754993
 20
126.3459791800419
 30
0.0
  0
SPLINE
  5
FD
330
1F
100
AcDbEntity
  8
0
  6
HIDDEN
 62
     7
370
     0
100
AcDbSpline
210
0.0
220
0.0
230
1.0
 70
     8
 71
     3
 72
    16
 73
    12
 74
     0
 42
0.00000001
 43
0.00000001
 40
0.0
 40
0.0
 40
0.0
 40
0.0
 40
0.1100327356466676
 40
0.2208393870172141
 40
0.334073166074121
 40
0.4481412059530409
 40
0.5581968967891918
 40
0.6698092658094568
 40
0.7822109143639925
 40
0.896232812291278
 40
1.0
 40
1.0
 40
1.0
 40
1.0
 10
112.5792637754993
 20
126.3459791800419
 30
0.0
 10
112.6468576016287
 20
126.3550474313856
 30
0.0
 10
112.7825206753569
 20
126.3732477156583
 30
0.0
 10
112.9629685441847
 20
126.3939688128708
 30
0.0
 10
113.1251077970023
 20
126.4107083350436
 30
0.0
 10
113.2631945134405
 20
126.4232910564832
 30
0.0
 10
113.3767217176732
 20
126.4325668798274
 30
0.0
 10
113.4654504157923
 20
126.4391230665869
 30
0.0
 10
113.5290889593732
 20
126.4434544022912
 30
0.0
 10
113.5677130837365
 20
126.4459252253274
 30
0.0
 10
113.57164666386
 20
126.446169877673
 30
0.0
 10
113.5735208466082
 20
126.4462864440556
 30
0.0
  0
SPLINE
  5
FE
330
1F
100
AcDbEntity
  8
0
  6
HIDDEN
 62
     7
370
     0
100
AcDbSpline
210
0.0
220
0.0
230
1.0
 70
     8
 71
     3
 72
    16
 73
    12
 74
     0
 42
0.00000001
 43
0.00000001
 40
0.0
 40
0.0
 40
0.0
 40
0.0
 40
0.0068677611755769
 40
0.1182386291988683
 40
0.2320241297275427
 40
0.3466445634357904
 40
0.4573912366314341
 40
0.5689105620303199
 40
0.6828745940208079
 40
0.7976884643752338
 40
1.0
 40
1.0
 40
1.0
 40
1.0
 10
113.5735180618441
 20
86.57061514031544
 30
0.0
 10
113.5737638810172
 20
86.57059961657004
 30
0.0
 10
113.5779960203302
 20
86.57033235241634
 30
0.0
 10
113.562072740243
 20
86.5713293042731
 30
0.0
 10
113.5230604749104
 20
86.57384623355368
 30
0.0
 10
113.4546154811986
 20
86.57854117310035
 30
0.0
 10
113.3618322519762
 20
86.5855010447196
 30
0.0
 10
113.2446595695924
 20
86.59519285192926
 30
0.0
 10
113.101367480436
 20
86.60858409462061
 30
0.0
 10
112.8923026938562
 20
86.6301110798398
 30
0.0
 10
112.7011869180613
 20
86.65502700518488
 30
0.0
 10
112.5792637754993
 20
86.67092222840897
 30
0.0
  0
LINE
  5
FF
330
1F
100
AcDbEntity
  8
0
  6
HIDDEN
 62
     7
370
     0
100
AcDbLine
 10
99.8282363701
 20
89.5084507042
 30
0.0
 11
99.8282363701
 21
123.5084507042
 31
0.0
  0
LWPOLYLINE
  5
100
330
1F
100
AcDbEntity
  8
0
  6
HIDDEN
 62
     7
370
     0
100
AcDbPolyline
 90
       14
 70
   128
 43
0.0
 10
126.8242617739
 20
128.4540531189
 10
127.6294558543
 20
128.4949932364
 10
128.4016851944
 20
128.6161374956
 10
129.1093346343
 20
128.8125262365
 10
129.7234329228
 20
129.0761192807
 10
130.2188388039
 20
129.3961250982
 10
130.5752703025
 20
129.7594426132
 10
130.7781350712
 20
130.1511975639
 10
130.8191278026
 20
130.5553514565
 10
130.6965702494
 20
130.9553581834
 10
130.4154799322
 20
131.334841422
 10
129.9873647216
 20
131.678265084
 10
129.4297517048
 20
131.9715693643
 10
129.2088554362
 20
132.0598016254
  0
LWPOLYLINE
  5
101
330
1F
100
AcDbEntity
  8
0
  6
HIDDEN
 62
     7
370
     0
100
AcDbPolyline
 90
       14
 70
   128
 43
0.0
 10
124.4417801744
 20
132.0605852091
 10
124.218771843
 20
131.9715693643
 10
123.6611588261
 20
131.678265084
 10
123.2330436156
 20
131.334841422
 10
122.9519532984
 20
130.9553581834
 10
122.8293957452
 20
130.5553514565
 10
122.8703884766
 20
130.1511975639
 10
123.0732532453
 20
129.7594426132
 10
123.4296847439
 20
129.3961250982
 10
123.925090625
 20
129.0761192807
 10
124.5391889135
 20
128.8125262365
 10
125.2468383534
 20
128.6161374956
 10
126.0190676935
 20
128.4949932364
 10
126.8242617739
 20
128.4540531189
  0
SPLINE
  5
102
330
1F
100
AcDbEntity
  8
0
  6
HIDDEN
 62
     7
370
     0
100
AcDbSpline
210
0.0
220
0.0
230
1.0
 70
     8
 71
     3
 72
    11
 73
     7
 74
     0
 42
0.00000001
 43
0.00000001
 40
0.0
 40
0.0
 40
0.0
 40
0.0
 40
0.0005779865010845
 40
0.0005779865010845
 40
0.0005779865010845
 40
0.0011559733324421
 40
0.0011559733324421
 40
0.0011559733324421
 40
0.0011559733324421
 10
86.92426177389777
 20
108.5082913123853
 30
0.0
 10
87.09092902870373
 20
108.5063076730443
 30
0.0
 10
87.25759545838139
 20
108.5042700660357
 30
0.0
 10
87.4242617968332
 20
108.5021586026293
 30
0.0
 10
87.59092822565961
 20
108.5000471380779
 30
0.0
 10
87.75759459929732
 20
108.4978615749216
 30
0.0
 10
87.92426177389775
 20
108.49557899759
 30
0.0
  0
SPLINE
  5
103
330
1F
100
AcDbEntity
  8
0
  6
HIDDEN
 62
     7
370
     0
100
AcDbSpline
210
0.0
220
0.0
230
1.0
 70
     8
 71
     3
 72
     8
 73
     4
 74
     0
 42
0.00000001
 43
0.00000001
 40
0.0
 40
0.0
 40
0.0
 40
0.0
 40
0.0011564765856722
 40
0.0011564765856722
 40
0.0011564765856722
 40
0.0011564765856722
 10
87.92426177389775
 20
104.5117504020092
 30
0.0
 10
87.5909538433289
 20
104.5108752464259
 30
0.0
 10
87.2576186109367
 20
104.5098203951744
 30
0.0
 10
86.92426177389775
 20
104.5086493081368
 30
0.0
  0
LINE
  5
104
330
1F
100
AcDbEntity
  8
0
  6
HIDDEN
 62
     7
370
     0
100
AcDbLine
 10
126.4840877424
 20
89.5084507042
 30
0.0
 11
126.4840877424
 21
123.5084507042
 31
0.0
  0
LINE
  5
105
330
1F
100
AcDbEntity
  8
0
  6
HIDDEN
 62
     7
370
     0
100
AcDbLine
 10
128.7742617739
 20
90.7834507042
 30
0.0
 11
128.7742617739
 21
122.2334506731
 31
0.0
  0
SPLINE
  5
106
330
1F
100
AcDbEntity
  8
0
  6
HIDDEN
 62
     7
370
     0
100
AcDbSpline
210
0.0
220
0.0
230
1.0
 70
     8
 71
     3
 72
    16
 73
    12
 74
     0
 42
0.00000001
 43
0.00000001
 40
0.0
 40
0.0
 40
0.0
 40
0.0
 40
0.124999999999998
 40
0.124999999999998
 40
0.249999999999996
 40
0.249999999999996
 40
0.4999999999999973
 40
0.4999999999999973
 40
0.7499999999999987
 40
0.7499999999999987
 40
1.0
 40
1.0
 40
1.0
 40
1.0
 10
95.62426177389776
 20
90.70696026819378
 30
0.0
 10
95.71938352856357
 20
90.70696026819378
 30
0.0
 10
95.81271359729165
 20
90.70314443480098
 30
0.0
 10
95.99597535802965
 20
90.68837388207116
 30
0.0
 10
96.08685307358667
 20
90.67721583409558
 30
0.0
 10
96.3436547711064
 20
90.63474456395386
 30
0.0
 10
96.4987221359784
 20
90.59369836675106
 30
0.0
 10
96.75246859753302
 20
90.49855225016917
 30
0.0
 10
96.85333904920087
 20
90.44378951608759
 30
0.0
 10
96.98858546389572
 20
90.33252839218372
 30
0.0
 10
97.02426177389775
 20
90.27535865485503
 30
0.0
 10
97.02426177389775
 20
90.2209370818213
 30
0.0
  0
SPLINE
  5
107
330
1F
100
AcDbEntity
  8
0
  6
HIDDEN
 62
     7
370
     0
100
AcDbSpline
210
0.0
220
0.0
230
1.0
 70
     8
 71
     3
 72
     8
 73
     4
 74
     0
 42
0.00000001
 43
0.00000001
 40
0.0
 40
0.0
 40
0.0
 40
0.0
 40
1.0
 40
1.0
 40
1.0
 40
1.0
 10
88.22426177721294
 20
92.85176321427602
 30
0.0
 10
88.22426177721488
 20
91.9678660719591
 30
0.0
 10
88.21078115130508
 20
91.25328282689713
 30
0.0
 10
88.20942978311577
 20
90.70696026819378
 30
0.0
  0
SPLINE
  5
108
330
1F
100
AcDbEntity
  8
0
  6
HIDDEN
 62
     7
370
     0
100
AcDbSpline
210
0.0
220
0.0
230
1.0
 70
     8
 71
     3
 72
    10
 73
     6
 74
     0
 42
0.00000001
 43
0.00000001
 40
0.0
 40
0.0
 40
0.0
 40
0.0
 40
0.5
 40
0.5
 40
1.0
 40
1.0
 40
1.0
 40
1.0
 10
87.92426177389775
 20
93.87667347997922
 30
0.0
 10
88.01565288959065
 20
93.70203469236179
 30
0.0
 10
88.08830472332372
 20
93.52843286510621
 30
0.0
 10
88.19580361633186
 20
93.18481944609951
 30
0.0
 10
88.22426177720732
 20
93.01649361956805
 30
0.0
 10
88.22426177721296
 20
92.85176321433549
 30
0.0
  0
LINE
  5
109
330
1F
100
AcDbEntity
  8
0
  6
HIDDEN
 62
     7
370
     0
100
AcDbLine
 10
87.9242617739
 20
96.9076239118
 30
0.0
 11
87.9242617739
 21
93.87667348
 31
0.0
  0
SPLINE
  5
10A
330
1F
100
AcDbEntity
  8
0
  6
HIDDEN
 62
     7
370
     0
100
AcDbSpline
210
0.0
220
0.0
230
1.0
 70
     8
 71
     3
 72
    10
 73
     6
 74
     0
 42
0.00000001
 43
0.00000001
 40
0.0
 40
0.0
 40
0.0
 40
0.0
 40
0.5
 40
0.5
 40
1.0
 40
1.0
 40
1.0
 40
1.0
 10
88.22426177708546
 20
98.2754643285826
 30
0.0
 10
88.22426177708543
 20
98.03348036097579
 30
0.0
 10
88.19611174801487
 20
97.79913793201078
 30
0.0
 10
88.09252183387247
 20
97.3437629097331
 30
0.0
 10
88.01589312428096
 20
97.12215834662572
 30
0.0
 10
87.92426177389775
 20
96.9076239118278
 30
0.0
  0
LINE
  5
10B
330
1F
100
AcDbEntity
  8
0
  6
HIDDEN
 62
     7
370
     0
100
AcDbLine
 10
88.2242617771
 20
110.1130843258
 30
0.0
 11
88.2242617771
 21
98.2754643285
 31
0.0
  0
SPLINE
  5
10C
330
1F
100
AcDbEntity
  8
0
  6
HIDDEN
 62
     7
370
     0
100
AcDbSpline
210
0.0
220
0.0
230
1.0
 70
     8
 71
     3
 72
     8
 73
     4
 74
     0
 42
0.00000001
 43
0.00000001
 40
0.0
 40
0.0
 40
0.0
 40
0.0
 40
1.0
 40
1.0
 40
1.0
 40
1.0
 10
87.92426177389774
 20
116.1153900252938
 30
0.0
 10
88.10529324045666
 20
115.6832825396311
 30
0.0
 10
88.22426177709119
 20
115.2291371335314
 30
0.0
 10
88.22426177708547
 20
114.7414370798374
 30
0.0
  0
LINE
  5
10D
330
1F
100
AcDbEntity
  8
0
  6
HIDDEN
 62
     7
370
     0
100
AcDbLine
 10
87.9242617739
 20
119.1485930113
 30
0.0
 11
87.9242617739
 21
116.1153900253
 31
0.0
  0
SPLINE
  5
10E
330
1F
100
AcDbEntity
  8
0
  6
HIDDEN
 62
     7
370
     0
100
AcDbSpline
210
0.0
220
0.0
230
1.0
 70
     8
 71
     3
 72
    10
 73
     6
 74
     0
 42
0.00000001
 43
0.00000001
 40
0.0
 40
0.0
 40
0.0
 40
0.0
 40
0.5
 40
0.5
 40
1.0
 40
1.0
 40
1.0
 40
1.0
 10
88.22426177729096
 20
120.1651381941453
 30
0.0
 10
88.22426177728917
 20
120.0005018475393
 30
0.0
 10
88.19710310653367
 20
119.8333466237088
 30
0.0
 10
88.09133811121525
 20
119.4947236159072
 30
0.0
 10
88.01492332291812
 20
119.3224518386161
 30
0.0
 10
87.92426177389778
 20
119.1485930112721
 30
0.0
  0
SPLINE
  5
10F
330
1F
100
AcDbEntity
  8
0
  6
HIDDEN
 62
     7
370
     0
100
AcDbSpline
210
0.0
220
0.0
230
1.0
 70
     8
 71
     3
 72
    18
 73
    14
 74
     0
 42
0.00000001
 43
0.00000001
 40
0.0
 40
0.0
 40
0.0
 40
0.0
 40
0.2500000000000033
 40
0.2500000000000033
 40
0.3750000000000029
 40
0.3750000000000029
 40
0.5000000000000026
 40
0.5000000000000026
 40
0.6250000000000022
 40
0.6250000000000022
 40
0.7500000000000018
 40
0.7500000000000018
 40
1.0
 40
1.0
 40
1.0
 40
1.0
 10
93.02426177389775
 20
122.7959643266296
 30
0.0
 10
93.02426177389775
 20
122.7414898060774
 30
0.0
 10
92.98935108250558
 20
122.6851087467249
 30
0.0
 10
92.88734178117252
 20
122.6010319058714
 30
0.0
 10
92.84570542649442
 20
122.5736982018805
 30
0.0
 10
92.74729963100567
 20
122.5207442862815
 30
0.0
 10
92.68975641930139
 20
122.4948569325643
 30
0.0
 10
92.56245824572844
 20
122.4470793877311
 30
0.0
 10
92.49287094097097
 20
122.4251314695532
 30
0.0
 10
92.34143669581601
 20
122.3856989046405
 30
0.0
 10
92.25875279272206
 20
122.3681426554146
 30
0.0
 10
92.00264133068401
 20
122.3257038899941
 30
0.0
 10
91.81472632679603
 20
122.3099411402571
 30
0.0
 10
91.62426177389774
 20
122.3099411402571
 30
0.0
  0
LINE
  5
110
330
1F
100
AcDbEntity
  8
0
  6
HIDDEN
 62
     7
370
     0
100
AcDbLine
 10
91.6242617739
 20
122.3099411403
 30
0.0
 11
88.2242617773
 21
122.3099411403
 31
0.0
  0
LINE
  5
111
330
1F
100
AcDbEntity
  8
0
  6
HIDDEN
 62
     7
370
     0
100
AcDbLine
 10
88.1552927873
 20
90.7069602682
 30
0.0
 11
95.6242617739
 21
90.7069602682
 31
0.0
  0
SPLINE
  5
112
330
1F
100
AcDbEntity
  8
0
  6
HIDDEN
 62
     7
370
     0
100
AcDbSpline
210
0.0
220
0.0
230
1.0
 70
     8
 71
     3
 72
    22
 73
    18
 74
     0
 42
0.00000001
 43
0.00000001
 40
0.0
 40
0.0
 40
0.0
 40
0.0
 40
0.1249999999999998
 40
0.1249999999999998
 40
0.2499999999999995
 40
0.2499999999999995
 40
0.4999999999999992
 40
0.4999999999999992
 40
0.5624999999999993
 40
0.5624999999999993
 40
0.6249999999999994
 40
0.6249999999999994
 40
0.7499999999999996
 40
0.7499999999999996
 40
0.8749999999999998
 40
0.8749999999999998
 40
1.0
 40
1.0
 40
1.0
 40
1.0
 10
88.15529278725568
 20
90.70696026819378
 30
0.0
 10
88.1422103945273
 20
90.96206597834144
 30
0.0
 10
88.12899083108746
 20
91.25522423744535
 30
0.0
 10
88.10654365329334
 20
91.91752470307016
 30
0.0
 10
88.09706518626889
 20
92.28779862368154
 30
0.0
 10
88.07786722533234
 20
93.51035542679534
 30
0.0
 10
88.07898099832923
 20
94.4474943529272
 30
0.0
 10
88.09789179128231
 20
95.76736558244218
 30
0.0
 10
88.10252131914132
 20
96.0388674914185
 30
0.0
 10
88.11300253888726
 20
96.59725232622081
 30
0.0
 10
88.11879780017168
 20
96.88437518216041
 30
0.0
 10
88.13710702107662
 20
97.75696443653209
 30
0.0
 10
88.15114195535698
 20
98.35742011288795
 30
0.0
 10
88.18059912749379
 20
99.59489460538403
 30
0.0
 10
88.19615481847536
 20
100.2319107620275
 30
0.0
 10
88.21994936847226
 20
101.543399359712
 30
0.0
 10
88.22796842061761
 20
102.2195219713725
 30
0.0
 10
88.22426177389775
 20
102.9038170826573
 30
0.0
  0
LINE
  5
113
330
1F
100
AcDbEntity
  8
0
  6
HIDDEN
 62
     7
370
     0
100
AcDbLine
 10
88.2242617773
 20
110.1130843258
 30
0.0
 11
88.2242617773
 21
122.3099411403
 31
0.0
  0
SPLINE
  5
114
330
1F
100
AcDbEntity
  8
0
  6
HIDDEN
 62
     7
370
     0
100
AcDbSpline
210
0.0
220
0.0
230
1.0
 70
     8
 71
     3
 72
    10
 73
     6
 74
     0
 42
0.00000001
 43
0.00000001
 40
0.0
 40
0.0
 40
0.0
 40
0.0
 40
0.5
 40
0.5
 40
1.0
 40
1.0
 40
1.0
 40
1.0
 10
88.22426177389775
 20
102.9038170826422
 30
0.0
 10
88.22426177389757
 20
103.1777322307166
 30
0.0
 10
88.19850254402986
 20
103.4486738094467
 30
0.0
 10
88.09529661129675
 20
103.9843648910496
 30
0.0
 10
88.0179584474215
 20
104.2501116945716
 30
0.0
 10
87.92426177389774
 20
104.5117504020091
 30
0.0
  0
SPLINE
  5
115
330
1F
100
AcDbEntity
  8
0
  6
HIDDEN
 62
     7
370
     0
100
AcDbSpline
210
0.0
220
0.0
230
1.0
 70
     8
 71
     3
 72
    10
 73
     6
 74
     0
 42
0.00000001
 43
0.00000001
 40
0.0
 40
0.0
 40
0.0
 40
0.0
 40
0.5
 40
0.5
 40
1.0
 40
1.0
 40
1.0
 40
1.0
 10
87.92426177389774
 20
108.49557899759
 30
0.0
 10
88.01749235528877
 20
108.7594728056601
 30
0.0
 10
88.09252196752551
 20
109.0256531162983
 30
0.0
 10
88.19758906670364
 20
109.5639756912565
 30
0.0
 10
88.22426177728984
 20
109.8367238075021
 30
0.0
 10
88.22426177729103
 20
110.1130843257925
 30
0.0
  0
LINE
  5
116
330
1F
100
AcDbEntity
  8
0
  6
HIDDEN
 62
     7
370
     0
100
AcDbLine
 10
87.9242617739
 20
104.511750402
 30
0.0
 11
87.9242617739
 21
108.4955789976
 31
0.0
  0
SPLINE
  5
117
330
1F
100
AcDbEntity
  8
0
  6
HIDDEN
 62
     7
370
     0
100
AcDbSpline
210
0.0
220
0.0
230
1.0
 70
     8
 71
     3
 72
    11
 73
     7
 74
     0
 42
0.00000001
 43
0.00000001
 40
0.0
 40
0.0
 40
0.0
 40
0.0
 40
0.059303718534415
 40
0.4491306992686039
 40
0.8423299489278975
 40
0.9999999999999999
 40
0.9999999999999999
 40
0.9999999999999999
 40
0.9999999999999999
 10
213.7334883386683
 20
118.7542586984371
 30
0.0
 10
213.7327100617605
 20
118.7571040989553
 30
0.0
 10
213.7268158605123
 20
118.7786534512727
 30
0.0
 10
213.7523589827078
 20
118.6872634576345
 30
0.0
 10
213.7891365231143
 20
118.5328193230596
 30
0.0
 10
213.8053248104516
 20
118.3952948485854
 30
0.0
 10
213.8099582291008
 20
118.3559325336311
 30
0.0
  0
SPLINE
  5
118
330
1F
100
AcDbEntity
  8
0
  6
HIDDEN
 62
     7
370
     0
100
AcDbSpline
210
0.0
220
0.0
230
1.0
 70
     8
 71
     3
 72
    12
 73
     8
 74
     0
 42
0.00000001
 43
0.00000001
 40
0.0
 40
0.0
 40
0.0
 40
0.0
 40
0.1073605010755355
 40
0.3941450068454301
 40
0.7057759084905183
 40
0.8617177385320595
 40
0.9999999999999999
 40
0.9999999999999999
 40
0.9999999999999999
 40
0.9999999999999999
 10
213.8242617738977
 20
94.90900294441842
 30
0.0
 10
213.8235330525096
 20
94.8676836149596
 30
0.0
 10
213.8208577492684
 20
94.7159908859835
 30
0.0
 10
213.7892073766728
 20
94.48665128808999
 30
0.0
 10
213.7516607362288
 20
94.32808093871955
 30
0.0
 10
213.733326879785
 20
94.26169567185372
 30
0.0
 10
213.73222518555
 20
94.25789068803886
 30
0.0
 10
213.7317074007232
 20
94.25610238523855
 30
0.0
  0
LINE
  5
119
330
1F
100
AcDbEntity
  8
0
  6
HIDDEN
 62
     7
370
     0
100
AcDbLine
 10
88.0742617739
 20
88.5184507042
 30
0.0
 11
88.0742617739
 21
85.6385129388
 31
0.0
  0
LINE
  5
11A
330
1F
100
AcDbEntity
  8
0
  6
HIDDEN
 62
     7
370
     0
100
AcDbLine
 10
97.0242617739
 20
88.5184507042
 30
0.0
 11
97.0242617739
 21
84.544713173
 31
0.0
  0
LINE
  5
11B
330
1F
100
AcDbEntity
  8
0
  6
HIDDEN
 62
     7
370
     0
100
AcDbLine
 10
88.0742617739
 20
124.4984507042
 30
0.0
 11
88.0742617739
 21
127.3783884696
 31
0.0
  0
LINE
  5
11C
330
1F
100
AcDbEntity
  8
0
  6
HIDDEN
 62
     7
370
     0
100
AcDbLine
 10
93.0242617739
 20
124.4984507042
 30
0.0
 11
93.0242617739
 21
128.3525583766
 31
0.0
  0
LINE
  5
11D
330
1F
100
AcDbEntity
  8
0
  6
HIDDEN
 62
     7
370
     0
100
AcDbLine
 10
137.6242617739
 20
97.0084507042
 30
0.0
 11
137.6242617739
 21
116.0084507042
 31
0.0
  0
LINE
  5
11E
330
1F
100
AcDbEntity
  8
0
  6
HIDDEN
 62
     7
370
     0
100
AcDbLine
 10
140.6242617739
 20
97.0084507042
 30
0.0
 11
140.6242617739
 21
116.0084507042
 31
0.0
  0
LINE
  5
11F
330
1F
100
AcDbEntity
  8
0
  6
HIDDEN
 62
     7
370
     0
100
AcDbLine
 10
129.2742617739
 20
98.0084507042
 30
0.0
 11
129.2742617739
 21
115.0084507042
 31
0.0
  0
LINE
  5
120
330
1F
100
AcDbEntity
  8
0
  6
HIDDEN
 62
     7
370
     0
100
AcDbLine
 10
135.0119365762
 20
80.1084507042
 30
0.0
 11
131.7742617739
 21
80.1084507042
 31
0.0
  0
LINE
  5
121
330
1F
100
AcDbEntity
  8
0
  6
HIDDEN
 62
     7
370
     0
100
AcDbLine
 10
123.7742617739
 20
75.0243277214
 30
0.0
 11
123.7742617739
 21
80.1084507042
 31
0.0
  0
LINE
  5
122
330
1F
100
AcDbEntity
  8
0
  6
HIDDEN
 62
     7
370
     0
100
AcDbLine
 10
131.7742617739
 20
80.1084507042
 30
0.0
 11
123.7742617739
 21
80.1084507042
 31
0.0
  0
LINE
  5
123
330
1F
100
AcDbEntity
  8
0
  6
HIDDEN
 62
     7
370
     0
100
AcDbLine
 10
144.7742617739
 20
80.1084507042
 30
0.0
 11
138.6365869716
 21
80.1084507042
 31
0.0
  0
LINE
  5
124
330
1F
100
AcDbEntity
  8
0
  6
HIDDEN
 62
     7
370
     0
100
AcDbLine
 10
210.3242617739
 20
98.5084507042
 30
0.0
 11
210.3242617739
 21
114.5084507042
 31
0.0
  0
LINE
  5
125
330
1F
100
AcDbEntity
  8
0
  6
HIDDEN
 62
     7
370
     0
100
AcDbLine
 10
164.3242617739
 20
98.6084507042
 30
0.0
 11
164.3242617739
 21
114.4084505809
 31
0.0
  0
SPLINE
  5
126
330
1F
100
AcDbEntity
  8
0
  6
HIDDEN
 62
     7
370
     0
100
AcDbSpline
210
0.0
220
0.0
230
1.0
 70
     8
 71
     3
 72
    23
 73
    19
 74
     0
 42
0.00000001
 43
0.00000001
 40
0.0
 40
0.0
 40
0.0
 40
0.0
 40
0.0521608099306151
 40
0.1046886969712449
 40
0.158370706327409
 40
0.2124493706208793
 40
0.2646091962071457
 40
0.3706721588281087
 40
0.4246933325732744
 40
0.4773899457097396
 40
0.5845473519284251
 40
0.6391349684063361
 40
0.6921726394143344
 40
0.7455834437981051
 40
0.8001800120110494
 40
0.8551904952692954
 40
0.9076472549536261
 40
1.0
 40
1.0
 40
1.0
 40
1.0
 10
166.3242617738977
 20
114.6717833570088
 30
0.0
 10
166.3653004910663
 20
114.6719625580355
 30
0.0
 10
166.4476667317644
 20
114.6723222212003
 30
0.0
 10
166.5713994674535
 20
114.6752342849977
 30
0.0
 10
166.6948479431267
 20
114.679874874226
 30
0.0
 10
166.8153237309156
 20
114.6862573853738
 30
0.0
 10
166.9705301765419
 20
114.696703871412
 30
0.0
 10
167.1174509298936
 20
114.7097186657036
 30
0.0
 10
167.2527931513047
 20
114.7242270763444
 30
0.0
 10
167.380130457454
 20
114.739383072848
 30
0.0
 10
167.4936349820695
 20
114.7548473713609
 30
0.0
 10
167.5901515680958
 20
114.769260300859
 30
0.0
 10
167.6536014090822
 20
114.7792452607024
 30
0.0
 10
167.7077123391823
 20
114.7881329365267
 30
0.0
 10
167.7526255861431
 20
114.7957736433739
 30
0.0
 10
167.7864861204898
 20
114.8016901010775
 30
0.0
 10
167.8170332710972
 20
114.8071362519484
 30
0.0
 10
167.819940588922
 20
114.8076678240145
 30
0.0
 10
167.8217947405701
 20
114.8080068358742
 30
0.0
  0
LINE
  5
127
330
1F
100
AcDbEntity
  8
0
  6
HIDDEN
 62
     7
370
     0
100
AcDbLine
 10
166.3679468763
 20
114.6721123775
 30
0.0
 11
166.1351403152
 21
114.6740170955
 31
0.0
  0
SPLINE
  5
128
330
1F
100
AcDbEntity
  8
0
  6
HIDDEN
 62
     7
370
     0
100
AcDbSpline
210
0.0
220
0.0
230
1.0
 70
     8
 71
     3
 72
    22
 73
    18
 74
     0
 42
0.00000001
 43
0.00000001
 40
0.0
 40
0.0
 40
0.0
 40
0.0
 40
0.0425815284376854
 40
0.1483768289674547
 40
0.2022866901838569
 40
0.2542431738930326
 40
0.3598817548797442
 40
0.4136804920179772
 40
0.4663318528738021
 40
0.5733942825692223
 40
0.6279311162625901
 40
0.6809797268595852
 40
0.7344009372477067
 40
0.789006161980739
 40
0.844024792511754
 40
0.9214062139054691
 40
1.0
 40
1.0
 40
1.0
 40
1.0
 10
164.8250069943358
 20
114.808316146851
 30
0.0
 10
164.8254036472662
 20
114.8082445583504
 30
0.0
 10
164.8267857983111
 20
114.8079951057096
 30
0.0
 10
164.852362022816
 20
114.8033775251083
 30
0.0
 10
164.8974498515576
 20
114.7955069359497
 30
0.0
 10
164.9559199670664
 20
114.785570482817
 30
0.0
 10
165.0333093429823
 20
114.7730157207858
 30
0.0
 10
165.1283622261076
 20
114.7588023644472
 30
0.0
 10
165.235099792118
 20
114.7438040874381
 30
0.0
 10
165.3580866319745
 20
114.7282909620375
 30
0.0
 10
165.4943728921411
 20
114.713634466505
 30
0.0
 10
165.6025615856658
 20
114.7033786142255
 30
0.0
 10
165.7159337859476
 20
114.6941459514462
 30
0.0
 10
165.8351888035151
 20
114.6861095235764
 30
0.0
 10
165.9761740560533
 20
114.6787639484552
 30
0.0
 10
166.139649513777
 20
114.6729976274833
 30
0.0
 10
166.2624062990511
 20
114.6721902058104
 30
0.0
 10
166.3242617738977
 20
114.6717833570088
 30
0.0
  0
SPLINE
  5
129
330
1F
100
AcDbEntity
  8
0
  6
HIDDEN
 62
     7
370
     0
100
AcDbSpline
210
0.0
220
0.0
230
1.0
 70
     8
 71
     3
 72
    26
 73
    22
 74
     0
 42
0.00000001
 43
0.00000001
 40
0.0
 40
0.0
 40
0.0
 40
0.0
 40
0.0523380492945948
 40
0.1062088427487319
 40
0.1585427181480207
 40
0.212366188167232
 40
0.2652199457772039
 40
0.3195833796766214
 40
0.3727962810944371
 40
0.4275841845265914
 40
0.4802162948249888
 40
0.5344127743211111
 40
0.5864276781625389
 40
0.6399360673622992
 40
0.6922592859480321
 40
0.7460571397006686
 40
0.7991289863743566
 40
0.8537349720097497
 40
0.9068397926274333
 40
0.9615264322684909
 40
1.0
 40
1.0
 40
1.0
 40
1.0
 10
167.8242617738977
 20
98.20845070422543
 30
0.0
 10
167.8203268084214
 20
98.2091664482694
 30
0.0
 10
167.8123416401712
 20
98.21061889725513
 30
0.0
 10
167.7481572942335
 20
98.22199970810209
 30
0.0
 10
167.6467862439343
 20
98.2389571322081
 30
0.0
 10
167.5088053834841
 20
98.26010346995986
 30
0.0
 10
167.3361757711924
 20
98.28333600342035
 30
0.0
 10
167.1355762337159
 20
98.3058249312921
 30
0.0
 10
166.9092275325828
 20
98.32530794517501
 30
0.0
 10
166.6681752552728
 20
98.33913051732432
 30
0.0
 10
166.415683635212
 20
98.34591252114792
 30
0.0
 10
166.1647492380947
 20
98.3448397758535
 30
0.0
 10
165.9172046302668
 20
98.33615544702972
 30
0.0
 10
165.683913511764
 20
98.32107779340387
 30
0.0
 10
165.4661410813638
 20
98.30099378729038
 30
0.0
 10
165.2727526613607
 20
98.27832080518196
 30
0.0
 10
165.1063935451976
 20
98.25521710982557
 30
0.0
 10
164.9746393006171
 20
98.23454675613364
 30
0.0
 10
164.8815942374123
 20
98.21872692817027
 30
0.0
 10
164.830133101764
 20
98.20951590772843
 30
0.0
 10
164.828789095091
 20
98.20926871205384
 30
0.0
 10
164.8282340433879
 20
98.2091666244802
 30
0.0
  0
LINE
  5
12A
330
1F
100
AcDbEntity
  8
0
  6
HIDDEN
 62
     7
370
     0
100
AcDbLine
 10
174.8242617739
 20
98.5084507042
 30
0.0
 11
174.8242617739
 21
114.5084507042
 31
0.0
  0
LINE
  5
12B
330
1F
100
AcDbEntity
  8
0
  6
HIDDEN
 62
     7
370
     0
100
AcDbLine
 10
135.3085593056
 20
132.9084507042
 30
0.0
 11
131.7742617739
 21
132.9084507042
 31
0.0
  0
LINE
  5
12C
330
1F
100
AcDbEntity
  8
0
  6
HIDDEN
 62
     7
370
     0
100
AcDbLine
 10
144.7742617739
 20
132.9084507042
 30
0.0
 11
138.3399642422
 21
132.9084507042
 31
0.0
  0
LINE
  5
12D
330
1F
100
AcDbEntity
  8
0
  6
HIDDEN
 62
     7
370
     0
100
AcDbLine
 10
131.7742617739
 20
132.9084507042
 30
0.0
 11
123.7742617739
 21
132.9084507042
 31
0.0
  0
SPLINE
  5
12E
330
1F
100
AcDbEntity
  8
0
  6
HIDDEN
 62
     7
370
     0
100
AcDbSpline
210
0.0
220
0.0
230
1.0
 70
     8
 71
     3
 72
    11
 73
     7
 74
     0
 42
0.00000001
 43
0.00000001
 40
0.0
 40
0.0
 40
0.0
 40
0.0
 40
0.0008203708524183
 40
0.0008203708524183
 40
0.0008203708524183
 40
0.0016409967870154
 40
0.0016409967870154
 40
0.0016409967870154
 40
0.0016409967870154
 10
88.07426177389775
 20
90.6564179535827
 30
0.0
 10
87.88310347359909
 20
90.61523892496356
 30
0.0
 10
87.69167640352691
 20
90.57648495273357
 30
0.0
 10
87.50003078000628
 20
90.54011719345502
 30
0.0
 10
87.30832537492583
 20
90.503738089689
 30
0.0
 10
87.11638642286687
 20
90.46974383892143
 30
0.0
 10
86.92426177579607
 20
90.43809571353023
 30
0.0
  0
ELLIPSE
  5
12F
330
1F
100
AcDbEntity
  8
0
  6
HIDDEN
 62
     7
370
     0
100
AcDbEllipse
 10
82.6818299053
 20
106.5084507042
 30
0.0
 11
20.19992453366626
 21
-1.421085471520200E-14
 31
0.0
210
0.0
220
0.0
230
1.0
 40
0.8164965809
 41
1.300566354718001
 42
1.359198697209606
  0
LINE
  5
130
330
1F
100
AcDbEntity
  8
0
  6
HIDDEN
 62
     7
370
     0
100
AcDbLine
 10
97.0242617739
 20
88.5184507042
 30
0.0
 11
97.0242617739
 21
90.2209370818
 31
0.0
  0
LINE
  5
131
330
1F
100
AcDbEntity
  8
0
  6
HIDDEN
 62
     7
370
     0
100
AcDbLine
 10
88.0742617739
 20
88.5184507042
 30
0.0
 11
88.0742617739
 21
90.6564179536
 31
0.0
  0
LINE
  5
132
330
1F
100
AcDbEntity
  8
0
  6
HIDDEN
 62
     7
370
     0
100
AcDbLine
 10
88.1552927873
 20
90.7069602682
 30
0.0
 11
88.0742617739
 21
90.6564179536
 31
0.0
  0
LINE
  5
133
330
1F
100
AcDbEntity
  8
0
  6
HIDDEN
 62
     7
370
     0
100
AcDbLine
 10
88.0742617739
 20
124.4984507042
 30
0.0
 11
88.0742617739
 21
122.4030751553
 31
0.0
  0
SPLINE
  5
134
330
1F
100
AcDbEntity
  8
0
  6
HIDDEN
 62
     7
370
     0
100
AcDbSpline
210
0.0
220
0.0
230
1.0
 70
     8
 71
     3
 72
     8
 73
     4
 74
     0
 42
0.00000001
 43
0.00000001
 40
0.0
 40
0.0
 40
0.0
 40
0.0
 40
1.0
 40
1.0
 40
1.0
 40
1.0
 10
88.07426177389775
 20
122.4030751552841
 30
0.0
 10
88.12426727284148
 20
122.372039381065
 30
0.0
 10
88.17426734350589
 20
122.3409947360374
 30
0.0
 10
88.224261777291
 20
122.3099411402571
 30
0.0
  0
LINE
  5
135
330
1F
100
AcDbEntity
  8
0
  6
HIDDEN
 62
     7
370
     0
100
AcDbLine
 10
93.0242617739
 20
124.4984507042
 30
0.0
 11
93.0242617739
 21
122.7959643266
 31
0.0
  0
LINE
  5
136
330
1F
100
AcDbEntity
  8
0
  6
HIDDEN
 62
     7
370
     0
100
AcDbLine
 10
163.8242617739
 20
101.0084507042
 30
0.0
 11
163.8242617739
 21
112.0084507042
 31
0.0
  0
LINE
  5
137
330
1F
100
AcDbEntity
  8
0
  6
HIDDEN
 62
     7
370
     0
100
AcDbLine
 10
141.1431429692
 20
102.3084507042
 30
0.0
 11
141.1431429692
 21
110.7084507042
 31
0.0
  0
LINE
  5
138
330
1F
100
AcDbEntity
  8
0
  6
HIDDEN
 62
     7
370
     0
100
AcDbLine
 10
141.9242617739
 20
101.0084507042
 30
0.0
 11
141.9242617739
 21
112.0084507042
 31
0.0
  0
SPLINE
  5
139
330
1F
100
AcDbEntity
  8
0
  6
HIDDEN
 62
     7
370
     0
100
AcDbSpline
210
0.0
220
0.0
230
1.0
 70
     8
 71
     3
 72
    20
 73
    16
 74
     0
 42
0.00000001
 43
0.00000001
 40
0.0
 40
0.0
 40
0.0
 40
0.0
 40
0.1118918714197924
 40
0.1774110472519959
 40
0.2490325848974948
 40
0.3297810086296654
 40
0.3985533875800401
 40
0.4998330935382561
 40
0.6137981819715201
 40
0.678964092067499
 40
0.7494905745293649
 40
0.8296365121035734
 40
0.8980801645905983
 40
0.9994905441886537
 40
1.0
 40
1.0
 40
1.0
 40
1.0
 10
113.5729571924742
 20
82.90849566674963
 30
0.0
 10
113.5296538511676
 20
82.9219179604499
 30
0.0
 10
113.4609938937174
 20
82.94319978505142
 30
0.0
 10
113.0159189459693
 20
83.0464859335374
 30
0.0
 10
112.4893661894446
 20
83.15978799977357
 30
0.0
 10
111.8039395236994
 20
83.28272121450539
 30
0.0
 10
110.910622549068
 20
83.40475558209597
 30
0.0
 10
109.7972630366075
 20
83.52249193085419
 30
0.0
 10
108.6864888665176
 20
83.53446739657984
 30
0.0
 10
107.8017408860054
 20
83.50740917053865
 30
0.0
 10
107.1345430960575
 20
83.45947687876502
 30
0.0
 10
106.5932754966909
 20
83.40318429621242
 30
0.0
 10
106.2056769001395
 20
83.35809785188403
 30
0.0
 10
106.011756151839
 20
83.31922715551944
 30
0.0
 10
106.0749084534197
 20
83.32994215061682
 30
0.0
 10
106.0752241260944
 20
83.32999571052002
 30
0.0
  0
LINE
  5
13A
330
1F
100
AcDbEntity
  8
0
  6
HIDDEN
 62
     7
370
     0
100
AcDbLine
 10
106.9842736905
 20
83.4407888481
 30
0.0
 11
107.1681189994
 21
83.4589781902
 31
0.0
  0
SPLINE
  5
13B
330
1F
100
AcDbEntity
  8
0
  6
HIDDEN
 62
     7
370
     0
100
AcDbSpline
210
0.0
220
0.0
230
1.0
 70
     8
 71
     3
 72
    27
 73
    23
 74
     0
 42
0.00000001
 43
0.00000001
 40
0.0
 40
0.0
 40
0.0
 40
0.0
 40
0.0007934909877929
 40
0.0456758475390298
 40
0.102257317917939
 40
0.1705351725225513
 40
0.2091267115080731
 40
0.2506538072648596
 40
0.3210993415366346
 40
0.3861928513451252
 40
0.4266718614841075
 40
0.4648029828109216
 40
0.5006071760357611
 40
0.5451987865040357
 40
0.6016928477503832
 40
0.670098586535776
 40
0.7088357829981573
 40
0.7505643845708906
 40
0.8222287227473023
 40
0.8877679213742402
 40
0.9472414712825347
 40
0.9999999999999999
 40
0.9999999999999999
 40
0.9999999999999999
 40
0.9999999999999999
 10
106.0749179943188
 20
129.6868674862102
 30
0.0
 10
106.0746998630162
 20
129.686914506903
 30
0.0
 10
106.0621435362632
 20
129.6896211664948
 30
0.0
 10
106.1112246608588
 20
129.6777881640967
 30
0.0
 10
106.2563232695507
 20
129.6543453255175
 30
0.0
 10
106.529377256307
 20
129.6204407560772
 30
0.0
 10
106.8579034433082
 20
129.5868720267671
 30
0.0
 10
107.2506312862182
 20
129.5486886702957
 30
0.0
 10
107.8003592278405
 20
129.5097200054969
 30
0.0
 10
108.4263818820444
 20
129.4902588990259
 30
0.0
 10
108.969573391032
 20
129.488073221518
 30
0.0
 10
109.4146422881928
 20
129.496588102634
 30
0.0
 10
109.8810900845082
 20
129.5163714995572
 30
0.0
 10
110.4183307340682
 20
129.5605338851636
 30
0.0
 10
111.0665441628191
 20
129.6329495046624
 30
0.0
 10
111.6520828008693
 20
129.7138515998923
 30
0.0
 10
112.1330523960282
 20
129.792017583446
 30
0.0
 10
112.5784673757985
 20
129.8767897435667
 30
0.0
 10
113.0169665688931
 20
129.9705726518261
 30
0.0
 10
113.355993740527
 20
130.048476905689
 30
0.0
 10
113.5433482010753
 20
130.0986722403079
 30
0.0
 10
113.5638387021324
 20
130.1053391001348
 30
0.0
 10
113.5734709632622
 20
130.1084730857113
 30
0.0
  0
LINE
  5
13C
330
1F
100
AcDbEntity
  8
0
  6
HIDDEN
 62
     7
370
     0
100
AcDbLine
 10
155.7742617739
 20
122.931100435
 30
0.0
 11
158.2742617739
 21
122.931100435
 31
0.0
  0
LINE
  5
13D
330
1F
100
AcDbEntity
  8
0
  6
HIDDEN
 62
     7
370
     0
100
AcDbLine
 10
153.2742617739
 20
122.931100435
 30
0.0
 11
155.7742617739
 21
122.931100435
 31
0.0
  0
LINE
  5
13E
330
1F
100
AcDbEntity
  8
0
  6
HIDDEN
 62
     7
370
     0
100
AcDbLine
 10
158.2742617739
 20
90.0858009734
 30
0.0
 11
153.2742617739
 21
90.0858009734
 31
0.0
  0
LINE
  5
13F
330
1F
100
AcDbEntity
  8
0
  6
HIDDEN
 62
     7
370
     0
100
AcDbLine
 10
155.7742617739
 20
115.5084507042
 30
0.0
 11
158.2742617739
 21
115.5084507042
 31
0.0
  0
LINE
  5
140
330
1F
100
AcDbEntity
  8
0
  6
HIDDEN
 62
     7
370
     0
100
AcDbLine
 10
153.2742617739
 20
115.5084507042
 30
0.0
 11
155.7742617739
 21
115.5084507042
 31
0.0
  0
LINE
  5
141
330
1F
100
AcDbEntity
  8
0
  6
HIDDEN
 62
     7
370
     0
100
AcDbLine
 10
158.2742617739
 20
97.5084507042
 30
0.0
 11
153.2742617739
 21
97.5084507042
 31
0.0
  0
SPLINE
  5
142
330
1F
100
AcDbEntity
  8
0
  6
HIDDEN
 62
     7
370
     0
100
AcDbSpline
210
0.0
220
0.0
230
1.0
 70
     8
 71
     3
 72
    32
 73
    28
 74
     0
 42
0.00000001
 43
0.00000001
 40
0.0
 40
0.0
 40
0.0
 40
0.0
 40
0.0412232890857646
 40
0.0838543097541982
 40
0.125039091509823
 40
0.1672305305261364
 40
0.2244623650334308
 40
0.2833327403655591
 40
0.3125446618157944
 40
0.3419196247966488
 40
0.3718419357043755
 40
0.4019929537120263
 40
0.434702099543644
 40
0.4680565083274081
 40
0.5008465143669116
 40
0.5349479455573509
 40
0.5631612992299926
 40
0.5919759327967132
 40
0.6415058646019647
 40
0.6923596526858647
 40
0.7450516208877461
 40
0.798872155274628
 40
0.8464750663570282
 40
0.8953209806617303
 40
0.9429982769407865
 40
0.992583633817621
 40
1.0
 40
1.0
 40
1.0
 40
1.0
 10
167.8242617738977
 20
118.0648311783245
 30
0.0
 10
167.8223201115764
 20
118.0672359086968
 30
0.0
 10
167.8183704812256
 20
118.0721274884322
 30
0.0
 10
167.7872778452141
 20
118.110848673247
 30
0.0
 10
167.7402595493841
 20
118.1701502385905
 30
0.0
 10
167.672032746244
 20
118.2578554329819
 30
0.0
 10
167.5799969831036
 20
118.3800840612898
 30
0.0
 10
167.4862490896295
 20
118.5125897272731
 30
0.0
 10
167.4094386684088
 20
118.6303938772072
 30
0.0
 10
167.3522781196951
 20
118.7245601875062
 30
0.0
 10
167.2968484656533
 20
118.8253065410309
 30
0.0
 10
167.2440035906052
 20
118.935951471861
 30
0.0
 10
167.1974556698904
 20
119.057709034683
 30
0.0
 10
167.1636005084796
 20
119.1902800707765
 30
0.0
 10
167.1494668706597
 20
119.3302529378141
 30
0.0
 10
167.1590026276929
 20
119.4636974678464
 30
0.0
 10
167.1868249117448
 20
119.5870380571588
 30
0.0
 10
167.234837896516
 20
119.7241474895401
 30
0.0
 10
167.3108843091482
 20
119.8775140663777
 30
0.0
 10
167.4123073157786
 20
120.0405028069259
 30
0.0
 10
167.5184313276517
 20
120.1898154211745
 30
0.0
 10
167.6166866764497
 20
120.3170456241209
 30
0.0
 10
167.7006540936539
 20
120.4205809774814
 30
0.0
 10
167.7660130948489
 20
120.4986583372127
 30
0.0
 10
167.8088223731757
 20
120.5488441941475
 30
0.0
 10
167.8267075296808
 20
120.5696033913463
 30
0.0
 10
167.8232671212311
 20
120.5656037014711
 30
0.0
 10
167.8228194974136
 20
120.5650833108033
 30
0.0
  0
SPLINE
  5
143
330
1F
100
AcDbEntity
  8
0
  6
HIDDEN
 62
     7
370
     0
100
AcDbSpline
210
0.0
220
0.0
230
1.0
 70
     8
 71
     3
 72
    10
 73
     6
 74
     0
 42
0.00000001
 43
0.00000001
 40
0.0
 40
0.0
 40
0.0
 40
0.0
 40
0.2798632951973223
 40
0.7282323680020827
 40
1.0
 40
1.0
 40
1.0
 40
1.0
 10
164.8279752671465
 20
120.5497427520562
 30
0.0
 10
164.8278234668584
 20
120.549714837207
 30
0.0
 10
164.8274284672811
 20
120.5496421999692
 30
0.0
 10
164.8578329676818
 20
120.5576373031526
 30
0.0
 10
164.8936427878846
 20
120.5742409617543
 30
0.0
 10
164.9071568192815
 20
120.5805069067487
 30
0.0
  0
SPLINE
  5
144
330
1F
100
AcDbEntity
  8
0
  6
HIDDEN
 62
     7
370
     0
100
AcDbSpline
210
0.0
220
0.0
230
1.0
 70
     8
 71
     3
 72
    28
 73
    24
 74
     0
 42
0.00000001
 43
0.00000001
 40
0.0
 40
0.0
 40
0.0
 40
0.0
 40
0.0027986860967778
 40
0.0516040466070413
 40
0.0961082528721353
 40
0.1417313148410926
 40
0.1899282212016213
 40
0.2391149089115947
 40
0.2968286445637413
 40
0.3557098507696586
 40
0.4109368451762208
 40
0.4674032882306986
 40
0.5024294432997899
 40
0.5382850294604761
 40
0.5733796457139716
 40
0.6097283077647456
 40
0.6523073981719845
 40
0.69606823421852
 40
0.7647378268412777
 40
0.835288792699291
 40
0.9061961891023934
 40
0.9795351656261162
 40
1.0
 40
1.0
 40
1.0
 40
1.0
 10
164.8248209824262
 20
118.183351925871
 30
0.0
 10
164.8246364368877
 20
118.1831372730939
 30
0.0
 10
164.8212336627861
 20
118.1791793615843
 30
0.0
 10
164.8337266619808
 20
118.1936850147466
 30
0.0
 10
164.8622205514331
 20
118.2269759626331
 30
0.0
 10
164.9085427366416
 20
118.2817516501084
 30
0.0
 10
164.9699134339409
 20
118.3558171241068
 30
0.0
 10
165.0486283071284
 20
118.4538068052858
 30
0.0
 10
165.1422722116498
 20
118.576224943945
 30
0.0
 10
165.2440711337607
 20
118.7208918698718
 30
0.0
 10
165.3427116496642
 20
118.8812833535482
 30
0.0
 10
165.4178840088507
 20
119.0347132614593
 30
0.0
 10
165.4669166675652
 20
119.1792827445722
 30
0.0
 10
165.4923372436894
 20
119.3062623313559
 30
0.0
 10
165.4980335287588
 20
119.4384451198153
 30
0.0
 10
165.4817231384313
 20
119.5776957872936
 30
0.0
 10
165.4420005462748
 20
119.7210322592717
 30
0.0
 10
165.3716363170506
 20
119.8899942123196
 30
0.0
 10
165.2710463297239
 20
120.0716399083984
 30
0.0
 10
165.1492219922991
 20
120.2569388869461
 30
0.0
 10
165.0304748439314
 20
120.4209434860476
 30
0.0
 10
164.9510351733709
 20
120.5244954109237
 30
0.0
 10
164.915015171386
 20
120.5704755811618
 30
0.0
 10
164.9071568192816
 20
120.5805069067488
 30
0.0
  0
LINE
  5
145
330
1F
100
AcDbEntity
  8
0
  6
HIDDEN
 62
     7
370
     0
100
AcDbLine
 10
167.8242617739
 20
121.5084507042
 30
0.0
 11
164.8242617739
 21
121.5084507042
 31
0.0
  0
LWPOLYLINE
  5
146
330
1F
100
AcDbEntity
  8
0
  6
HIDDEN
 62
     7
370
     0
100
AcDbPolyline
 90
       15
 70
   128
 43
0.0
 10
167.8210425913
 20
92.4538981115
 10
167.7918447094
 20
92.4879892105
 10
167.6951402492
 20
92.6034907752
 10
167.4947027904
 20
92.8614254635
 10
167.2749496628
 20
93.2140757465
 10
167.1779263052
 20
93.4724704492
 10
167.1542244221
 20
93.7113868116
 10
167.1961973861
 20
93.9463995271
 10
167.3469118561
 20
94.2814051768
 10
167.4722450304
 20
94.481843229
 10
167.5980438935
 20
94.6599285084
 10
167.749661545
 20
94.8584935084
 10
167.8171721023
 20
94.9432685922
 10
167.8242617739
 20
94.9520702301
 10
167.8242617739
 20
94.9520702301
  0
LINE
  5
147
330
1F
100
AcDbEntity
  8
0
  6
HIDDEN
 62
     7
370
     0
100
AcDbLine
 10
166.3242617739
 20
92.0084507042
 30
0.0
 11
167.8242617739
 21
92.0084507042
 31
0.0
  0
LINE
  5
148
330
1F
100
AcDbEntity
  8
0
  6
HIDDEN
 62
     7
370
     0
100
AcDbLine
 10
164.8242617739
 20
92.0084507042
 30
0.0
 11
166.3242617739
 21
92.0084507042
 31
0.0
  0
SPLINE
  5
149
330
1F
100
AcDbEntity
  8
0
  6
HIDDEN
 62
     7
370
     0
100
AcDbSpline
210
0.0
220
0.0
230
1.0
 70
     8
 71
     3
 72
     9
 73
     5
 74
     0
 42
0.00000001
 43
0.00000001
 40
0.0
 40
0.0
 40
0.0
 40
0.0
 40
0.8426281597194472
 40
1.0
 40
1.0
 40
1.0
 40
1.0
 10
164.9071568192816
 20
92.4363945017021
 30
0.0
 10
164.8632376466817
 20
92.45304238597916
 30
0.0
 10
164.8111159936212
 20
92.47279948059445
 30
0.0
 10
164.830762549617
 20
92.46616853635904
 30
0.0
 10
164.8338543642893
 20
92.46512501246191
 30
0.0
  0
SPLINE
  5
14A
330
1F
100
AcDbEntity
  8
0
  6
HIDDEN
 62
     7
370
     0
100
AcDbSpline
210
0.0
220
0.0
230
1.0
 70
     8
 71
     3
 72
    17
 73
    13
 74
     0
 42
0.00000001
 43
0.00000001
 40
0.0
 40
0.0
 40
0.0
 40
0.0
 40
0.1271062320541688
 40
0.2533275283183539
 40
0.3533701066891513
 40
0.4234657853460477
 40
0.4939500853902424
 40
0.5830110810836027
 40
0.7201916321428492
 40
0.8598523420662774
 40
0.9555602916739099
 40
0.9999999999999999
 40
0.9999999999999999
 40
0.9999999999999999
 40
0.9999999999999999
 10
164.9071568192815
 20
92.43639450170213
 30
0.0
 10
164.9638544337443
 20
92.50937146900388
 30
0.0
 10
165.0768549239742
 20
92.65481732521373
 30
0.0
 10
165.2913730270677
 20
92.96807503610191
 30
0.0
 10
165.4455429590662
 20
93.27644503388922
 30
0.0
 10
165.5082005657127
 20
93.56681859658133
 30
0.0
 10
165.4756451520213
 20
93.85172790196552
 30
0.0
 10
165.3320683347344
 20
94.17442320095003
 30
0.0
 10
165.1043249755464
 20
94.49744297989184
 30
0.0
 10
164.9145771803271
 20
94.72903137758907
 30
0.0
 10
164.8254117840489
 20
94.83287352073769
 30
0.0
 10
164.8323562984822
 20
94.82478466711763
 30
0.0
 10
164.8345583488085
 20
94.82221975593131
 30
0.0
  0
LINE
  5
14B
330
1F
100
AcDbEntity
  8
0
  6
HIDDEN
 62
     7
370
     0
100
AcDbLine
 10
164.8129642284
 20
118.1831453811
 30
0.0
 11
164.9071568193
 21
120.5805069067
 31
0.0
  0
LINE
  5
14C
330
1F
100
AcDbEntity
  8
0
  6
HIDDEN
 62
     7
370
     0
100
AcDbLine
 10
164.8129642284
 20
94.8337560273
 30
0.0
 11
164.9071568193
 21
92.4363945017
 31
0.0
  0
SPLINE
  5
14D
330
1F
100
AcDbEntity
  8
0
  6
HIDDEN
 62
     7
370
     0
100
AcDbSpline
210
0.0
220
0.0
230
1.0
 70
     8
 71
     3
 72
     8
 73
     4
 74
     0
 42
0.00000001
 43
0.00000001
 40
0.0
 40
0.0
 40
0.0
 40
0.0
 40
0.000159097695343
 40
0.000159097695343
 40
0.000159097695343
 40
0.000159097695343
 10
88.20942978311577
 20
90.70696026819378
 30
0.0
 10
88.16437831261142
 20
90.67898138387
 30
0.0
 10
88.11932227419662
 20
90.65100985349491
 30
0.0
 10
88.07426177389775
 20
90.6230455141424
 30
0.0
  0
SPLINE
  5
14E
330
1F
100
AcDbEntity
  8
0
  6
HIDDEN
 62
     7
370
     0
100
AcDbSpline
210
0.0
220
0.0
230
1.0
 70
     8
 71
     3
 72
    11
 73
     7
 74
     0
 42
0.00000001
 43
0.00000001
 40
0.0
 40
0.0
 40
0.0
 40
0.0
 40
0.0008212909311456
 40
0.0008212909311456
 40
0.0008212909311456
 40
0.001642825724306
 40
0.001642825724306
 40
0.001642825724306
 40
0.001642825724306
 10
88.07426177389776
 20
90.6230455141424
 30
0.0
 10
87.88311675241557
 20
90.57975932528986
 30
0.0
 10
87.6916984167391
 20
90.53882281565258
 30
0.0
 10
87.50005234207796
 20
90.500221044266
 30
0.0
 10
87.30834926053635
 20
90.4616077904289
 30
0.0
 10
87.11640413725084
 20
90.4253275811429
 30
0.0
 10
86.92426177389767
 20
90.3913606747914
 30
0.0
  0
LINE
  5
14F
330
1F
100
AcDbEntity
  8
0
  6
HIDDEN
 62
     7
370
     0
100
AcDbLine
 10
134.9142617739
 20
126.6898928884
 30
0.0
 11
134.9142617739
 21
126.3584507042
 31
0.0
  0
LINE
  5
150
330
1F
100
AcDbEntity
  8
0
  6
HIDDEN
 62
     7
370
     0
100
AcDbLine
 10
138.7342617739
 20
126.6898928884
 30
0.0
 11
138.7342617739
 21
126.3584507042
 31
0.0
  0
LINE
  5
151
330
1F
100
AcDbEntity
  8
0
  6
HIDDEN
 62
     7
370
     0
100
AcDbLine
 10
140.2161946054
 20
130.9671403666
 30
0.0
 11
140.2161946054
 21
126.3584507042
 31
0.0
  0
SPLINE
  5
152
330
1F
100
AcDbEntity
  8
0
  6
HIDDEN
 62
     7
370
     0
100
AcDbSpline
210
0.0
220
0.0
230
1.0
 70
     8
 71
     3
 72
    11
 73
     7
 74
     0
 42
0.00000001
 43
0.00000001
 40
0.0
 40
0.0
 40
0.0
 40
0.0
 40
0.0005781862223978
 40
0.0005781862223978
 40
0.0005781862223978
 40
0.0011563724723928
 40
0.0011563724723928
 40
0.0011563724723928
 40
0.0011563724723928
 10
87.92426177389775
 20
119.1485930112722
 30
0.0
 10
87.75760121962215
 20
119.2131225226858
 30
0.0
 10
87.59093792271567
 20
119.2776252265296
 30
0.0
 10
87.42427133888543
 20
119.3421116749632
 30
0.0
 10
87.25760474662633
 20
119.4065981266581
 30
0.0
 10
87.09093488100045
 20
119.4710681353863
 30
0.0
 10
86.9242617738977
 20
119.5355239021189
 30
0.0
  0
SPLINE
  5
153
330
1F
100
AcDbEntity
  8
0
  6
HIDDEN
 62
     7
370
     0
100
AcDbSpline
210
0.0
220
0.0
230
1.0
 70
     8
 71
     3
 72
    11
 73
     7
 74
     0
 42
0.00000001
 43
0.00000001
 40
0.0
 40
0.0
 40
0.0
 40
0.0
 40
0.0005778746105108
 40
0.0005778746105108
 40
0.0005778746105108
 40
0.0011557494857226
 40
0.0011557494857226
 40
0.0011557494857226
 40
0.0011557494857226
 10
86.92426177389773
 20
93.48122884873553
 30
0.0
 10
87.09092865031107
 20
93.54704097542938
 30
0.0
 10
87.25759536987252
 20
93.61289945556703
 30
0.0
 10
87.42426201792115
 20
93.67880702849766
 30
0.0
 10
87.59092874243981
 20
93.744714631668
 30
0.0
 10
87.7575954368604
 20
93.81067174005652
 30
0.0
 10
87.92426177389775
 20
93.87667347997922
 30
0.0
  0
SPLINE
  5
154
330
1F
100
AcDbEntity
  8
0
  6
HIDDEN
 62
     7
370
     0
100
AcDbSpline
210
0.0
220
0.0
230
1.0
 70
     8
 71
     3
 72
    11
 73
     7
 74
     0
 42
0.00000001
 43
0.00000001
 40
0.0000000000000006
 40
0.0000000000000006
 40
0.0000000000000006
 40
0.0000000000000006
 40
0.0005780486062768
 40
0.0005780486062768
 40
0.0005780486062768
 40
0.0011560973514127
 40
0.0011560973514127
 40
0.0011560973514127
 40
0.0011560973514127
 10
86.92426177389773
 20
116.4892652059171
 30
0.0
 10
87.09093162994263
 20
116.4268933444026
 30
0.0
 10
87.2575993340269
 20
116.364539484105
 30
0.0
 10
87.42426563848055
 20
116.3022199239189
 30
0.0
 10
87.5909319791743
 20
116.239900350182
 30
0.0
 10
87.75759693580308
 20
116.1776151458624
 30
0.0
 10
87.92426177389775
 20
116.1153900252937
 30
0.0
  0
SPLINE
  5
155
330
1F
100
AcDbEntity
  8
0
  6
HIDDEN
 62
     7
370
     0
100
AcDbSpline
210
0.0
220
0.0
230
1.0
 70
     8
 71
     3
 72
    11
 73
     7
 74
     0
 42
0.00000001
 43
0.00000001
 40
0.0
 40
0.0
 40
0.0
 40
0.0
 40
0.0005782401583533
 40
0.0005782401583533
 40
0.0005782401583533
 40
0.0011564805960993
 40
0.0011564805960993
 40
0.0011564805960993
 40
0.0011564805960993
 10
87.92426177389775
 20
96.90762391182778
 30
0.0
 10
87.75761082354886
 20
96.84419845376699
 30
0.0
 10
87.5909512309662
 20
96.78084293011172
 30
0.0
 10
87.42428417853765
 20
96.71754534576175
 30
0.0
 10
87.25761704197382
 20
96.65424772945849
 30
0.0
 10
87.09094243452778
 20
96.59100793451779
 30
0.0
 10
86.9242617738977
 20
96.52780792787895
 30
0.0
  0
CIRCLE
  5
156
330
1F
100
AcDbEntity
  8
0
  6
HIDDEN
 62
     7
370
     0
100
AcDbCircle
 10
125.8242617739
 20
106.5084507042
 30
0.0
 40
5.000000000000014
  0
LINE
  5
157
330
1F
100
AcDbEntity
  8
0
  6
HIDDEN
 62
     7
370
     0
100
AcDbLine
 10
213.8058292904
 20
96.7281674057
 30
0.0
 11
213.8242617739
 21
96.2590293732
 31
0.0
  0
LINE
  5
158
330
1F
100
AcDbEntity
  8
0
  6
HIDDEN
 62
     7
370
     0
100
AcDbLine
 10
213.6329950166
 20
97.0020931508
 30
0.0
 11
213.7386740087
 21
94.3123831923
 31
0.0
  0
LINE
  5
159
330
1F
100
AcDbEntity
  8
0
  6
HIDDEN
 62
     7
370
     0
100
AcDbLine
 10
208.2990572128
 20
96.7925221637
 30
0.0
 11
208.41683666
 21
93.794835055
 31
0.0
  0
LINE
  5
15A
330
1F
100
AcDbEntity
  8
0
  6
HIDDEN
 62
     7
370
     0
100
AcDbLine
 10
207.8190726025
 20
96.2732777377
 30
0.0
 11
207.897592234
 21
94.2748196652
 31
0.0
  0
LINE
  5
15B
330
1F
100
AcDbEntity
  8
0
  6
HIDDEN
 62
     7
370
     0
100
AcDbLine
 10
211.8552485632
 20
95.4310879645
 30
0.0
 11
211.8846934251
 21
94.6816661873
 31
0.0
  0
LINE
  5
15C
330
1F
100
AcDbEntity
  8
0
  6
HIDDEN
 62
     7
370
     0
100
AcDbLine
 10
211.8258037014
 20
96.1805097417
 30
0.0
 11
211.8552485632
 21
95.4310879645
 31
0.0
  0
LINE
  5
15D
330
1F
100
AcDbEntity
  8
0
  6
HIDDEN
 62
     7
370
     0
100
AcDbLine
 10
211.8552485632
 20
95.4310879645
 30
0.0
 11
213.8537066357
 21
95.509607596
 31
0.0
  0
LINE
  5
15E
330
1F
100
AcDbEntity
  8
0
  6
HIDDEN
 62
     7
370
     0
100
AcDbLine
 10
211.8258037014
 20
96.1805097417
 30
0.0
 11
213.8242617739
 21
96.2590293732
 31
0.0
  0
LINE
  5
15F
330
1F
100
AcDbEntity
  8
0
  6
HIDDEN
 62
     7
370
     0
100
AcDbLine
 10
211.8846934251
 20
94.6816661873
 30
0.0
 11
213.8831514975
 21
94.7601858188
 31
0.0
  0
LINE
  5
160
330
1F
100
AcDbEntity
  8
0
  6
HIDDEN
 62
     7
370
     0
100
AcDbLine
 10
208.2990572128
 20
117.7255365827
 30
0.0
 11
208.2401674891
 21
116.2266930283
 31
0.0
  0
LINE
  5
161
330
1F
100
AcDbEntity
  8
0
  6
HIDDEN
 62
     7
370
     0
100
AcDbLine
 10
208.3579469364
 20
119.224380137
 30
0.0
 11
208.2990572128
 21
117.7255365827
 31
0.0
  0
LINE
  5
162
330
1F
100
AcDbEntity
  8
0
  6
HIDDEN
 62
     7
370
     0
100
AcDbLine
 10
207.7994426946
 20
117.7451664906
 30
0.0
 11
207.7601828789
 21
116.7459374543
 31
0.0
  0
LINE
  5
163
330
1F
100
AcDbEntity
  8
0
  6
HIDDEN
 62
     7
370
     0
100
AcDbLine
 10
207.8387025104
 20
118.7443955268
 30
0.0
 11
207.7994426946
 21
117.7451664906
 31
0.0
  0
LINE
  5
164
330
1F
100
AcDbEntity
  8
0
  6
HIDDEN
 62
     7
370
     0
100
AcDbLine
 10
213.6329950166
 20
117.5159655956
 30
0.0
 11
213.574105293
 21
116.0171220412
 31
0.0
  0
LINE
  5
165
330
1F
100
AcDbEntity
  8
0
  6
HIDDEN
 62
     7
370
     0
100
AcDbLine
 10
213.6863204252
 20
118.873187875
 30
0.0
 11
213.6329950166
 21
117.5159655956
 31
0.0
  0
LINE
  5
166
330
1F
100
AcDbEntity
  8
0
  6
HIDDEN
 62
     7
370
     0
100
AcDbLine
 10
213.7948169121
 20
117.509607596
 30
0.0
 11
213.7469395668
 21
116.2910477863
 31
0.0
  0
LINE
  5
167
330
1F
100
AcDbEntity
  8
0
  6
HIDDEN
 62
     7
370
     0
100
AcDbLine
 10
213.8222263983
 20
118.2072256058
 30
0.0
 11
213.7948169121
 21
117.509607596
 31
0.0
  0
LINE
  5
168
330
1F
100
AcDbEntity
  8
0
  6
HIDDEN
 62
     7
370
     0
100
AcDbLine
 10
211.8258037014
 20
118.3375490047
 30
0.0
 11
211.7963588396
 21
117.5881272275
 31
0.0
  0
LINE
  5
169
330
1F
100
AcDbEntity
  8
0
  6
HIDDEN
 62
     7
370
     0
100
AcDbLine
 10
211.7669139778
 20
116.8387054503
 30
0.0
 11
211.7963588396
 21
117.5881272275
 31
0.0
  0
LINE
  5
16A
330
1F
100
AcDbEntity
  8
0
  6
HIDDEN
 62
     7
370
     0
100
AcDbLine
 10
211.7963588396
 20
117.5881272275
 30
0.0
 11
213.7948169121
 21
117.509607596
 31
0.0
  0
LINE
  5
16B
330
1F
100
AcDbEntity
  8
0
  6
HIDDEN
 62
     7
370
     0
100
AcDbLine
 10
211.8258037014
 20
118.3375490047
 30
0.0
 11
213.8242617739
 21
118.2590293732
 31
0.0
  0
LINE
  5
16C
330
1F
100
AcDbEntity
  8
0
  6
HIDDEN
 62
     7
370
     0
100
AcDbLine
 10
211.7669139778
 20
116.8387054503
 30
0.0
 11
213.7653720503
 21
116.7601858188
 31
0.0
  0
LINE
  5
16D
330
1F
100
AcDbEntity
  8
0
  6
HIDDEN
 62
     7
370
     0
100
AcDbLine
 10
148.3242617739
 20
100.5084507042
 30
0.0
 11
163.3242617739
 21
100.5084507042
 31
0.0
  0
LINE
  5
16E
330
1F
100
AcDbEntity
  8
0
  6
HIDDEN
 62
     7
370
     0
100
AcDbLine
 10
163.3242617739
 20
112.5084507042
 30
0.0
 11
148.3242617739
 21
112.5084507042
 31
0.0
  0
LINE
  5
16F
330
1F
100
AcDbEntity
  8
0
  6
HIDDEN
 62
     7
370
     0
100
AcDbLine
 10
163.3242617739
 20
100.5084507042
 30
0.0
 11
163.8242617739
 21
101.0084507042
 31
0.0
  0
LINE
  5
170
330
1F
100
AcDbEntity
  8
0
  6
HIDDEN
 62
     7
370
     0
100
AcDbLine
 10
163.8242617739
 20
112.0084507042
 30
0.0
 11
163.3242617739
 21
112.5084507042
 31
0.0
  0
LINE
  5
171
330
1F
100
AcDbEntity
  8
0
  6
HIDDEN
 62
     7
370
     0
100
AcDbLine
 10
148.3242617739
 20
112.5084507042
 30
0.0
 11
147.8242617739
 21
112.0084507042
 31
0.0
  0
LINE
  5
172
330
1F
100
AcDbEntity
  8
0
  6
HIDDEN
 62
     7
370
     0
100
AcDbLine
 10
147.8242617739
 20
101.0084507042
 30
0.0
 11
148.3242617739
 21
100.5084507042
 31
0.0
  0
LINE
  5
173
330
1F
100
AcDbEntity
  8
0
  6
HIDDEN
 62
     7
370
     0
100
AcDbLine
 10
163.8242617739
 20
101.0084507042
 30
0.0
 11
167.8242617739
 21
101.0084507042
 31
0.0
  0
LINE
  5
174
330
1F
100
AcDbEntity
  8
0
  6
HIDDEN
 62
     7
370
     0
100
AcDbLine
 10
167.8242617739
 20
112.0084507042
 30
0.0
 11
163.8242617739
 21
112.0084507042
 31
0.0
  0
LINE
  5
175
330
1F
100
AcDbEntity
  8
0
  6
HIDDEN
 62
     7
370
     0
100
AcDbLine
 10
154.8242617738
 20
103.5084507042
 30
0.0
 11
156.1578939766
 21
103.5084507042
 31
0.0
  0
LINE
  5
176
330
1F
100
AcDbEntity
  8
0
  6
HIDDEN
 62
     7
370
     0
100
AcDbLine
 10
156.2366399413
 20
103.5084507042
 30
0.0
 11
160.8242617739
 21
103.5084507042
 31
0.0
  0
LINE
  5
177
330
1F
100
AcDbEntity
  8
0
  6
HIDDEN
 62
     7
370
     0
100
AcDbLine
 10
160.8242617739
 20
109.5084507042
 30
0.0
 11
155.8963282361
 21
109.5084507042
 31
0.0
  0
LINE
  5
178
330
1F
100
AcDbEntity
  8
0
  6
HIDDEN
 62
     7
370
     0
100
AcDbLine
 10
155.5441614921
 20
109.5084507042
 30
0.0
 11
154.8242617738
 21
109.5084507042
 31
0.0
  0
LINE
  5
179
330
1F
100
AcDbEntity
  8
0
  6
HIDDEN
 62
     7
370
     0
100
AcDbLine
 10
122.8242617739
 20
120.8091158082
 30
0.0
 11
122.8242617739
 21
118.9023913471
 31
0.0
  0
LINE
  5
17A
330
1F
100
AcDbEntity
  8
0
  6
HIDDEN
 62
     7
370
     0
100
AcDbLine
 10
130.8242617739
 20
118.9023913471
 30
0.0
 11
130.8242617739
 21
120.8083951644
 31
0.0
  0
LINE
  5
17B
330
1F
100
AcDbEntity
  8
0
  6
HIDDEN
 62
     7
370
     0
100
AcDbLine
 10
118.8242617739
 20
81.1845195582
 30
0.0
 11
118.9184225494
 21
81.8545082895
 31
0.0
  0
LINE
  5
17C
330
1F
100
AcDbEntity
  8
0
  6
HIDDEN
 62
     7
370
     0
100
AcDbLine
 10
118.9184225494
 20
131.162393119
 30
0.0
 11
118.8242617739
 21
131.8323818502
 31
0.0
  0
ARC
  5
17D
330
1F
100
AcDbEntity
  8
0
  6
HIDDEN
 62
     7
370
     0
100
AcDbCircle
 10
118.3242550212
 20
81.9380130898
 30
0.0
 40
0.6000067526677242
100
AcDbArc
 50
352.0
 51
0.0
  0
ARC
  5
17E
330
1F
100
AcDbEntity
  8
0
  6
HIDDEN
 62
     7
370
     0
100
AcDbCircle
 10
118.3242550212
 20
81.9380130898
 30
0.0
 40
0.6000067526677242
100
AcDbArc
 50
0.0
 51
33.5571153394
  0
ARC
  5
17F
330
1F
100
AcDbEntity
  8
0
  6
HIDDEN
 62
     7
370
     0
100
AcDbCircle
 10
118.3242550212
 20
131.0788883186
 30
0.0
 40
0.6000067526677253
100
AcDbArc
 50
348.75
 51
8.0
  0
LWPOLYLINE
  5
180
330
1F
100
AcDbEntity
  8
0
  6
HIDDEN
 62
     7
370
     0
100
AcDbPolyline
 90
        3
 70
   128
 43
0.0
 10
118.9127328124
 20
130.961832808
 10
118.8785889794
 20
130.8492756751
 10
118.8242617739
 20
130.7472238036
  0
LINE
  5
181
330
1F
100
AcDbEntity
  8
0
  6
HIDDEN
 62
     7
370
     0
100
AcDbLine
 10
118.9242617739
 20
81.9380130898
 30
0.0
 11
118.9242617739
 21
131.0788883186
 31
0.0
  0
ARC
  5
182
330
1F
100
AcDbEntity
  8
0
  6
HIDDEN
 62
     7
370
     0
100
AcDbCircle
 10
101.9066973392
 20
87.1084507042
 30
0.0
 40
0.6000000000000085
100
AcDbArc
 50
210.0
 51
270.0
  0
ARC
  5
183
330
1F
100
AcDbEntity
  8
0
  6
HIDDEN
 62
     7
370
     0
100
AcDbCircle
 10
101.9066973392
 20
125.9084507042
 30
0.0
 40
0.6000000000000227
100
AcDbArc
 50
90.0
 51
150.0
  0
LINE
  5
184
330
1F
100
AcDbEntity
  8
0
  6
HIDDEN
 62
     7
370
     0
100
AcDbLine
 10
101.9066973392
 20
86.5084507042
 30
0.0
 11
106.0842842331
 21
86.5084507042
 31
0.0
  0
LINE
  5
185
330
1F
100
AcDbEntity
  8
0
  6
HIDDEN
 62
     7
370
     0
100
AcDbLine
 10
106.0842842331
 20
126.5084507042
 30
0.0
 11
101.9066973392
 21
126.5084507042
 31
0.0
  0
LINE
  5
186
330
1F
100
AcDbEntity
  8
0
  6
HIDDEN
 62
     7
370
     0
100
AcDbLine
 10
144.7774887318
 20
126.3693416315
 30
0.0
 11
144.7742617739
 21
126.5084507042
 31
0.0
  0
ARC
  5
187
330
1F
100
AcDbEntity
  8
0
  6
HIDDEN
 62
     7
370
     0
100
AcDbCircle
 10
112.5792637755
 20
94.5084507042
 30
0.0
 40
8.000000000000004
100
AcDbArc
 50
277.1331133665
 51
321.3178125465
  0
ARC
  5
188
330
1F
100
AcDbEntity
  8
0
  6
HIDDEN
 62
     7
370
     0
100
AcDbCircle
 10
112.5792637755
 20
118.5084507042
 30
0.0
 40
8.000000000000004
100
AcDbArc
 50
38.6821874535
 51
82.8507962394
  0
LINE
  5
189
330
1F
100
AcDbEntity
  8
0
  6
HIDDEN
 62
     7
370
     0
100
AcDbLine
 10
101.3870820969
 20
126.2084507042
 30
0.0
 11
99.8282363701
 21
123.5084507042
 31
0.0
  0
LINE
  5
18A
330
1F
100
AcDbEntity
  8
0
  6
HIDDEN
 62
     7
370
     0
100
AcDbLine
 10
99.8282363701
 20
89.5084507042
 30
0.0
 11
101.3870820969
 21
86.8084507042
 31
0.0
  0
LINE
  5
18B
330
1F
100
AcDbEntity
  8
0
  6
HIDDEN
 62
     7
370
     0
100
AcDbLine
 10
122.8242617739
 20
133.7881829413
 30
0.0
 11
122.8242617739
 21
130.4540531189
 31
0.0
  0
LINE
  5
18C
330
1F
100
AcDbEntity
  8
0
  6
HIDDEN
 62
     7
370
     0
100
AcDbLine
 10
130.8242617739
 20
130.4540531189
 30
0.0
 11
130.8242617739
 21
133.786808252
 31
0.0
  0
ARC
  5
18D
330
1F
100
AcDbEntity
  8
0
  6
HIDDEN
 62
     7
370
     0
100
AcDbCircle
 10
127.2742617739
 20
90.7834507042
 30
0.0
 40
1.500000000000014
100
AcDbArc
 50
238.2116693829
 51
0.0
  0
ARC
  5
18E
330
1F
100
AcDbEntity
  8
0
  6
HIDDEN
 62
     7
370
     0
100
AcDbCircle
 10
127.2742617739
 20
122.2334507042
 30
0.0
 40
1.500000000000014
100
AcDbArc
 50
0.0
 51
121.7883306171
  0
LINE
  5
18F
330
1F
100
AcDbEntity
  8
0
  6
HIDDEN
 62
     7
370
     0
100
AcDbLine
 10
118.8242617739
 20
89.5084507042
 30
0.0
 11
126.4840877424
 21
89.5084507042
 31
0.0
  0
LINE
  5
190
330
1F
100
AcDbEntity
  8
0
  6
HIDDEN
 62
     7
370
     0
100
AcDbLine
 10
126.4840877424
 20
123.5084507042
 30
0.0
 11
118.8242617739
 21
123.5084507042
 31
0.0
  0
LINE
  5
191
330
1F
100
AcDbEntity
  8
0
  6
HIDDEN
 62
     7
370
     0
100
AcDbLine
 10
97.0242617739
 20
89.5084507042
 30
0.0
 11
99.8282363701
 21
89.5084507042
 31
0.0
  0
LINE
  5
192
330
1F
100
AcDbEntity
  8
0
  6
HIDDEN
 62
     7
370
     0
100
AcDbLine
 10
99.8282363701
 20
123.5084507042
 30
0.0
 11
93.0242617739
 21
123.5084507042
 31
0.0
  0
LINE
  5
193
330
1F
100
AcDbEntity
  8
0
  6
HIDDEN
 62
     7
370
     0
100
AcDbLine
 10
213.6310949026
 20
93.9997038193
 30
0.0
 11
213.7316480491
 21
94.2556690582
 31
0.0
  0
LINE
  5
194
330
1F
100
AcDbEntity
  8
0
  6
HIDDEN
 62
     7
370
     0
100
AcDbLine
 10
213.7335112679
 20
118.7552923949
 30
0.0
 11
213.6310949026
 21
119.0171975892
 31
0.0
  0
LINE
  5
195
330
1F
100
AcDbEntity
  8
0
  6
HIDDEN
 62
     7
370
     0
100
AcDbLine
 10
137.6242617739
 20
97.0084507042
 30
0.0
 11
140.6242617739
 21
97.0084507042
 31
0.0
  0
LINE
  5
196
330
1F
100
AcDbEntity
  8
0
  6
HIDDEN
 62
     7
370
     0
100
AcDbLine
 10
140.6242617739
 20
116.0084507042
 30
0.0
 11
137.6242617739
 21
116.0084507042
 31
0.0
  0
ARC
  5
197
330
1F
100
AcDbEntity
  8
0
  6
HIDDEN
 62
     7
370
     0
100
AcDbCircle
 10
213.3242617739
 20
97.4717564562
 30
0.0
 40
0.5000000000000014
100
AcDbArc
 50
0.0
 51
80.0
  0
ARC
  5
198
330
1F
100
AcDbEntity
  8
0
  6
HIDDEN
 62
     7
370
     0
100
AcDbCircle
 10
213.3242617739
 20
115.5451449523
 30
0.0
 40
0.5000000000000154
100
AcDbArc
 50
280.0
 51
0.0
  0
LINE
  5
199
330
1F
100
AcDbEntity
  8
0
  6
HIDDEN
 62
     7
370
     0
100
AcDbLine
 10
128.7742617739
 20
97.5084507042
 30
0.0
 11
129.2742617739
 21
98.0084507042
 31
0.0
  0
LINE
  5
19A
330
1F
100
AcDbEntity
  8
0
  6
HIDDEN
 62
     7
370
     0
100
AcDbLine
 10
129.2742617739
 20
115.0084507042
 30
0.0
 11
128.7742617739
 21
115.5084507042
 31
0.0
  0
LINE
  5
19B
330
1F
100
AcDbEntity
  8
0
  6
HIDDEN
 62
     7
370
     0
100
AcDbLine
 10
213.4110858627
 20
115.0527410758
 30
0.0
 11
210.3242617739
 21
114.5084507042
 31
0.0
  0
LINE
  5
19C
330
1F
100
AcDbEntity
  8
0
  6
HIDDEN
 62
     7
370
     0
100
AcDbLine
 10
210.3242617739
 20
98.5084507042
 30
0.0
 11
213.4110858627
 21
97.9641603327
 31
0.0
  0
LINE
  5
19D
330
1F
100
AcDbEntity
  8
0
  6
HIDDEN
 62
     7
370
     0
100
AcDbLine
 10
129.2742617739
 20
98.0084507042
 30
0.0
 11
137.6242617739
 21
98.0084507042
 31
0.0
  0
LINE
  5
19E
330
1F
100
AcDbEntity
  8
0
  6
HIDDEN
 62
     7
370
     0
100
AcDbLine
 10
137.6242617739
 20
115.0084507042
 30
0.0
 11
129.2742617739
 21
115.0084507042
 31
0.0
  0
ARC
  5
19F
330
1F
100
AcDbEntity
  8
0
  6
HIDDEN
 62
     7
370
     0
100
AcDbCircle
 10
164.7242617739
 20
98.6084507042
 30
0.0
 40
0.4000000000000057
100
AcDbArc
 50
180.0
 51
270.0
  0
ARC
  5
1A0
330
1F
100
AcDbEntity
  8
0
  6
HIDDEN
 62
     7
370
     0
100
AcDbCircle
 10
164.7242617739
 20
114.4084507042
 30
0.0
 40
0.4000000000000057
100
AcDbArc
 50
90.0
 51
180.0
  0
LINE
  5
1A1
330
1F
100
AcDbEntity
  8
0
  6
HIDDEN
 62
     7
370
     0
100
AcDbLine
 10
167.8242617739
 20
98.2084507042
 30
0.0
 11
173.9294877558
 21
98.2084507042
 31
0.0
  0
LINE
  5
1A2
330
1F
100
AcDbEntity
  8
0
  6
HIDDEN
 62
     7
370
     0
100
AcDbLine
 10
164.7242617739
 20
98.2084507042
 30
0.0
 11
164.8282340434
 21
98.2084507042
 31
0.0
  0
LINE
  5
1A3
330
1F
100
AcDbEntity
  8
0
  6
HIDDEN
 62
     7
370
     0
100
AcDbLine
 10
164.8250069943
 20
114.8084507042
 30
0.0
 11
164.7242617739
 21
114.8084507042
 31
0.0
  0
LINE
  5
1A4
330
1F
100
AcDbEntity
  8
0
  6
HIDDEN
 62
     7
370
     0
100
AcDbLine
 10
173.9294877558
 20
114.8084507042
 30
0.0
 11
167.8217947406
 21
114.8084507042
 31
0.0
  0
ARC
  5
1A5
330
1F
100
AcDbEntity
  8
0
  6
HIDDEN
 62
     7
370
     0
100
AcDbCircle
 10
173.9294877558
 20
98.6084507042
 30
0.0
 40
0.4000000000000074
100
AcDbArc
 50
270.0
 51
290.0
  0
ARC
  5
1A6
330
1F
100
AcDbEntity
  8
0
  6
HIDDEN
 62
     7
370
     0
100
AcDbCircle
 10
173.9294877558
 20
114.4084507042
 30
0.0
 40
0.4000000000000074
100
AcDbArc
 50
70.0
 51
90.0
  0
LINE
  5
1A7
330
1F
100
AcDbEntity
  8
0
  6
HIDDEN
 62
     7
370
     0
100
AcDbLine
 10
174.0662958131
 20
98.2325736559
 30
0.0
 11
174.8242617739
 21
98.5084507042
 31
0.0
  0
LINE
  5
1A8
330
1F
100
AcDbEntity
  8
0
  6
HIDDEN
 62
     7
370
     0
100
AcDbLine
 10
174.8242617739
 20
114.5084507042
 30
0.0
 11
174.0662958131
 21
114.7843277525
 31
0.0
  0
LINE
  5
1A9
330
1F
100
AcDbEntity
  8
0
  6
HIDDEN
 62
     7
370
     0
100
AcDbLine
 10
174.8242617739
 20
98.5084507042
 30
0.0
 11
210.3242617739
 21
98.5084507042
 31
0.0
  0
LINE
  5
1AA
330
1F
100
AcDbEntity
  8
0
  6
HIDDEN
 62
     7
370
     0
100
AcDbLine
 10
210.3242617739
 20
114.5084507042
 30
0.0
 11
174.8242617739
 21
114.5084507042
 31
0.0
  0
LINE
  5
1AB
330
1F
100
AcDbEntity
  8
0
  6
HIDDEN
 62
     7
370
     0
100
AcDbLine
 10
123.7742617739
 20
138.0084507042
 30
0.0
 11
123.7742617739
 21
132.9084507042
 31
0.0
  0
LINE
  5
1AC
330
1F
100
AcDbEntity
  8
0
  6
HIDDEN
 62
     7
370
     0
100
AcDbLine
 10
164.3242617739
 20
112.5084507042
 30
0.0
 11
163.8242617739
 21
112.0084507042
 31
0.0
  0
LINE
  5
1AD
330
1F
100
AcDbEntity
  8
0
  6
HIDDEN
 62
     7
370
     0
100
AcDbLine
 10
163.8242617739
 20
101.0084507042
 30
0.0
 11
164.3242617739
 21
100.5084507042
 31
0.0
  0
LINE
  5
1AE
330
1F
100
AcDbEntity
  8
0
  6
HIDDEN
 62
     7
370
     0
100
AcDbLine
 10
141.9242617739
 20
112.0084507042
 30
0.0
 11
141.1431429692
 21
110.7084507042
 31
0.0
  0
LINE
  5
1AF
330
1F
100
AcDbEntity
  8
0
  6
HIDDEN
 62
     7
370
     0
100
AcDbLine
 10
141.1431429692
 20
102.3084507042
 30
0.0
 11
141.9242617739
 21
101.0084507042
 31
0.0
  0
LINE
  5
1B0
330
1F
100
AcDbEntity
  8
0
  6
HIDDEN
 62
     7
370
     0
100
AcDbLine
 10
141.9242617739
 20
101.0084507042
 30
0.0
 11
163.8242617739
 21
101.0084507042
 31
0.0
  0
LINE
  5
1B1
330
1F
100
AcDbEntity
  8
0
  6
HIDDEN
 62
     7
370
     0
100
AcDbLine
 10
163.8242617739
 20
112.0084507042
 30
0.0
 11
141.9242617739
 21
112.0084507042
 31
0.0
  0
LINE
  5
1B2
330
1F
100
AcDbEntity
  8
0
  6
HIDDEN
 62
     7
370
     0
100
AcDbLine
 10
114.0086996044
 20
82.4290793707
 30
0.0
 11
113.5742674549
 21
82.9081453898
 31
0.0
  0
LINE
  5
1B3
330
1F
100
AcDbEntity
  8
0
  6
HIDDEN
 62
     7
370
     0
100
AcDbLine
 10
106.0742641298
 20
83.3298333489
 30
0.0
 11
105.5918303865
 21
82.8507673735
 31
0.0
  0
LINE
  5
1B4
330
1F
100
AcDbEntity
  8
0
  6
HIDDEN
 62
     7
370
     0
100
AcDbLine
 10
105.5917084582
 20
130.1661287446
 30
0.0
 11
106.0742592092
 21
129.6870084866
 31
0.0
  0
LINE
  5
1B5
330
1F
100
AcDbEntity
  8
0
  6
HIDDEN
 62
     7
370
     0
100
AcDbLine
 10
113.5742616559
 20
130.1087062643
 30
0.0
 11
114.0088040462
 21
130.5878265149
 31
0.0
  0
LINE
  5
1B6
330
1F
100
AcDbEntity
  8
0
  6
HIDDEN
 62
     7
370
     0
100
AcDbLine
 10
140.6242617739
 20
102.3084507042
 30
0.0
 11
141.1431429692
 21
102.3084507042
 31
0.0
  0
LINE
  5
1B7
330
1F
100
AcDbEntity
  8
0
  6
HIDDEN
 62
     7
370
     0
100
AcDbLine
 10
141.1431429692
 20
110.7084507042
 30
0.0
 11
140.6242617739
 21
110.7084507042
 31
0.0
  0
LINE
  5
1B8
330
1F
100
AcDbEntity
  8
0
  6
HIDDEN
 62
     7
370
     0
100
AcDbLine
 10
113.5742617739
 20
82.9086292915
 30
0.0
 11
113.5742617739
 21
86.5706145136
 31
0.0
  0
LINE
  5
1B9
330
1F
100
AcDbEntity
  8
0
  6
HIDDEN
 62
     7
370
     0
100
AcDbLine
 10
106.0742617739
 20
86.5103222514
 30
0.0
 11
106.0742617739
 21
83.3301565867
 31
0.0
  0
LINE
  5
1BA
330
1F
100
AcDbEntity
  8
0
  6
HIDDEN
 62
     7
370
     0
100
AcDbLine
 10
113.5742617739
 20
126.4462868949
 30
0.0
 11
113.5742617739
 21
130.1084149582
 31
0.0
  0
LINE
  5
1BB
330
1F
100
AcDbEntity
  8
0
  6
HIDDEN
 62
     7
370
     0
100
AcDbLine
 10
106.0742617739
 20
129.6868647074
 30
0.0
 11
106.0742617739
 21
126.506579157
 31
0.0
  0
LINE
  5
1BC
330
1F
100
AcDbEntity
  8
0
  6
HIDDEN
 62
     7
370
     0
100
AcDbLine
 10
152.2742617739
 20
123.5084507042
 30
0.0
 11
153.2742617739
 21
122.931100435
 31
0.0
  0
LINE
  5
1BD
330
1F
100
AcDbEntity
  8
0
  6
HIDDEN
 62
     7
370
     0
100
AcDbLine
 10
158.2742617739
 20
122.931100435
 30
0.0
 11
159.2742617739
 21
123.5084507042
 31
0.0
  0
LINE
  5
1BE
330
1F
100
AcDbEntity
  8
0
  6
HIDDEN
 62
     7
370
     0
100
AcDbLine
 10
159.2742617739
 20
89.5084507042
 30
0.0
 11
158.2742617739
 21
90.0858009734
 31
0.0
  0
LINE
  5
1BF
330
1F
100
AcDbEntity
  8
0
  6
HIDDEN
 62
     7
370
     0
100
AcDbLine
 10
153.2742617739
 20
90.0858009734
 30
0.0
 11
152.2742617739
 21
89.5084507042
 31
0.0
  0
LINE
  5
1C0
330
1F
100
AcDbEntity
  8
0
  6
HIDDEN
 62
     7
370
     0
100
AcDbLine
 10
153.2742617739
 20
122.931100435
 30
0.0
 11
153.2742617739
 21
115.5084507042
 31
0.0
  0
LINE
  5
1C1
330
1F
100
AcDbEntity
  8
0
  6
HIDDEN
 62
     7
370
     0
100
AcDbLine
 10
158.2742617739
 20
115.5084507042
 30
0.0
 11
158.2742617739
 21
122.931100435
 31
0.0
  0
LINE
  5
1C2
330
1F
100
AcDbEntity
  8
0
  6
HIDDEN
 62
     7
370
     0
100
AcDbLine
 10
153.2742617739
 20
115.5084507042
 30
0.0
 11
155.7742617739
 21
114.0062991567
 31
0.0
  0
LINE
  5
1C3
330
1F
100
AcDbEntity
  8
0
  6
HIDDEN
 62
     7
370
     0
100
AcDbLine
 10
155.7742617739
 20
114.0062991567
 30
0.0
 11
158.2742617739
 21
115.5084507042
 31
0.0
  0
LINE
  5
1C4
330
1F
100
AcDbEntity
  8
0
  6
HIDDEN
 62
     7
370
     0
100
AcDbLine
 10
158.2742617739
 20
90.0858009734
 30
0.0
 11
158.2742617739
 21
97.5084507042
 31
0.0
  0
LINE
  5
1C5
330
1F
100
AcDbEntity
  8
0
  6
HIDDEN
 62
     7
370
     0
100
AcDbLine
 10
153.2742617739
 20
97.5084507042
 30
0.0
 11
153.2742617739
 21
90.0858009734
 31
0.0
  0
LINE
  5
1C6
330
1F
100
AcDbEntity
  8
0
  6
HIDDEN
 62
     7
370
     0
100
AcDbLine
 10
158.2742617739
 20
97.5084507042
 30
0.0
 11
155.7742617739
 21
99.0106022518
 31
0.0
  0
LINE
  5
1C7
330
1F
100
AcDbEntity
  8
0
  6
HIDDEN
 62
     7
370
     0
100
AcDbLine
 10
155.7742617739
 20
99.0106022518
 30
0.0
 11
153.2742617739
 21
97.5084507042
 31
0.0
  0
LINE
  5
1C8
330
1F
100
AcDbEntity
  8
0
  6
HIDDEN
 62
     7
370
     0
100
AcDbLine
 10
164.8242617739
 20
118.1833519259
 30
0.0
 11
164.8242617739
 21
114.8083162354
 31
0.0
  0
LINE
  5
1C9
330
1F
100
AcDbEntity
  8
0
  6
HIDDEN
 62
     7
370
     0
100
AcDbLine
 10
164.8242617739
 20
121.5084507042
 30
0.0
 11
164.8242617739
 21
120.5497427521
 31
0.0
  0
LINE
  5
1CA
330
1F
100
AcDbEntity
  8
0
  6
HIDDEN
 62
     7
370
     0
100
AcDbLine
 10
167.8242617739
 20
120.5650833108
 30
0.0
 11
167.8242617739
 21
121.5084507042
 31
0.0
  0
LINE
  5
1CB
330
1F
100
AcDbEntity
  8
0
  6
HIDDEN
 62
     7
370
     0
100
AcDbLine
 10
167.8242617739
 20
114.8080084549
 30
0.0
 11
167.8242617739
 21
118.0648311783
 31
0.0
  0
LINE
  5
1CC
330
1F
100
AcDbEntity
  8
0
  6
HIDDEN
 62
     7
370
     0
100
AcDbLine
 10
164.8242617739
 20
92.4651250125
 30
0.0
 11
164.8242617739
 21
92.0084507042
 31
0.0
  0
LINE
  5
1CD
330
1F
100
AcDbEntity
  8
0
  6
HIDDEN
 62
     7
370
     0
100
AcDbLine
 10
164.8242617739
 20
98.2091655872
 30
0.0
 11
164.8242617739
 21
94.8222197559
 31
0.0
  0
LINE
  5
1CE
330
1F
100
AcDbEntity
  8
0
  6
HIDDEN
 62
     7
370
     0
100
AcDbLine
 10
167.8242617739
 20
94.9520702301
 30
0.0
 11
167.8242617739
 21
98.2084507042
 31
0.0
  0
LINE
  5
1CF
330
1F
100
AcDbEntity
  8
0
  6
HIDDEN
 62
     7
370
     0
100
AcDbLine
 10
167.8242617739
 20
92.0084507042
 30
0.0
 11
167.8242617739
 21
92.4538981115
 31
0.0
  0
LINE
  5
1D0
330
1F
100
AcDbEntity
  8
0
  6
HIDDEN
 62
     7
370
     0
100
AcDbLine
 10
164.8242617739
 20
92.0084507042
 30
0.0
 11
166.3242617739
 21
91.1071597757
 31
0.0
  0
LINE
  5
1D1
330
1F
100
AcDbEntity
  8
0
  6
HIDDEN
 62
     7
370
     0
100
AcDbLine
 10
166.3242617739
 20
91.1071597757
 30
0.0
 11
167.8242617739
 21
92.0084507042
 31
0.0
  0
LINE
  5
1D2
330
1F
100
AcDbEntity
  8
0
  6
HIDDEN
 62
     7
370
     0
100
AcDbLine
 10
167.8212070772
 20
92.4500213143
 30
0.0
 11
213.7317942813
 21
94.2538531983
 31
0.0
  0
LINE
  5
1D3
330
1F
100
AcDbEntity
  8
0
  6
HIDDEN
 62
     7
370
     0
100
AcDbLine
 10
213.8242617739
 20
96.7594151525
 30
0.0
 11
167.8242617739
 21
94.9520702301
 31
0.0
  0
LINE
  5
1D4
330
1F
100
AcDbEntity
  8
0
  6
HIDDEN
 62
     7
370
     0
100
AcDbLine
 10
167.8242617739
 20
118.0648311783
 30
0.0
 11
213.8242617739
 21
116.257486256
 31
0.0
  0
LINE
  5
1D5
330
1F
100
AcDbEntity
  8
0
  6
HIDDEN
 62
     7
370
     0
100
AcDbLine
 10
213.7338011338
 20
118.7629693607
 30
0.0
 11
167.8228882886
 21
120.5668140392
 31
0.0
  0
LINE
  5
1D6
330
1F
100
AcDbEntity
  8
0
  6
HIDDEN
 62
     7
370
     0
100
AcDbLine
 10
164.8258352288
 20
120.5511465834
 30
0.0
 11
164.1115422765
 21
119.4616687729
 31
0.0
  0
LINE
  5
1D7
330
1F
100
AcDbEntity
  8
0
  6
HIDDEN
 62
     7
370
     0
100
AcDbLine
 10
164.1115422765
 20
119.4616687729
 30
0.0
 11
164.8129642284
 21
118.1831453811
 31
0.0
  0
LINE
  5
1D8
330
1F
100
AcDbEntity
  8
0
  6
HIDDEN
 62
     7
370
     0
100
AcDbLine
 10
164.8129642284
 20
94.8337560273
 30
0.0
 11
164.1115422765
 21
93.5552326355
 31
0.0
  0
LINE
  5
1D9
330
1F
100
AcDbEntity
  8
0
  6
HIDDEN
 62
     7
370
     0
100
AcDbLine
 10
164.1115422765
 20
93.5552326355
 30
0.0
 11
164.8285571635
 21
92.4616031847
 31
0.0
  0
LINE
  5
1DA
330
1F
100
AcDbEntity
  8
0
  6
HIDDEN
 62
     7
370
     0
100
AcDbLine
 10
213.8058292904
 20
96.7281674057
 30
0.0
 11
213.6329950166
 21
97.0020931508
 31
0.0
  0
LINE
  5
1DB
330
1F
100
AcDbEntity
  8
0
  6
HIDDEN
 62
     7
370
     0
100
AcDbLine
 10
213.6329950166
 20
97.0020931508
 30
0.0
 11
208.2990572128
 21
96.7925221637
 31
0.0
  0
LINE
  5
1DC
330
1F
100
AcDbEntity
  8
0
  6
HIDDEN
 62
     7
370
     0
100
AcDbLine
 10
208.41683666
 20
93.794835055
 30
0.0
 11
213.6310949026
 21
93.9997038193
 31
0.0
  0
LINE
  5
1DD
330
1F
100
AcDbEntity
  8
0
  6
HIDDEN
 62
     7
370
     0
100
AcDbLine
 10
208.2990572128
 20
96.7925221637
 30
0.0
 11
207.8190726025
 21
96.2732777377
 31
0.0
  0
LINE
  5
1DE
330
1F
100
AcDbEntity
  8
0
  6
HIDDEN
 62
     7
370
     0
100
AcDbLine
 10
207.897592234
 20
94.2748196652
 30
0.0
 11
208.41683666
 21
93.794835055
 31
0.0
  0
LINE
  5
1DF
330
1F
100
AcDbEntity
  8
0
  6
HIDDEN
 62
     7
370
     0
100
AcDbLine
 10
208.3579469364
 20
119.224380137
 30
0.0
 11
207.8387025104
 21
118.7443955268
 31
0.0
  0
LINE
  5
1E0
330
1F
100
AcDbEntity
  8
0
  6
HIDDEN
 62
     7
370
     0
100
AcDbLine
 10
207.7601828789
 20
116.7459374543
 30
0.0
 11
208.2401674891
 21
116.2266930283
 31
0.0
  0
LINE
  5
1E1
330
1F
100
AcDbEntity
  8
0
  6
HIDDEN
 62
     7
370
     0
100
AcDbLine
 10
213.6310949026
 20
119.0171975892
 30
0.0
 11
208.3579469364
 21
119.224380137
 31
0.0
  0
LINE
  5
1E2
330
1F
100
AcDbEntity
  8
0
  6
HIDDEN
 62
     7
370
     0
100
AcDbLine
 10
208.2401674891
 20
116.2266930283
 30
0.0
 11
213.574105293
 21
116.0171220412
 31
0.0
  0
LINE
  5
1E3
330
1F
100
AcDbEntity
  8
0
  6
HIDDEN
 62
     7
370
     0
100
AcDbLine
 10
213.574105293
 20
116.0171220412
 30
0.0
 11
213.7469395668
 21
116.2910477863
 31
0.0
  0
DIMENSION
  5
1E4
330
1F
100
AcDbEntity
  8
VERMASSUNG
100
AcDbDimension
  2
*D1
 10
79.5754062839
 20
75.0084507042
 30
0.0
 11
79.5754062839
 21
106.5084507042
 31
0.0
 70
   160
  1
HSK A %%c<>
 71
     2
 42
-1.0
  3
SLDDIMSTYLE0
100
AcDbAlignedDimension
 13
119.1242617739
 23
138.0084507042
 33
0.0
 14
119.1242617739
 24
75.0084507042
 34
0.0
 50
90.0
100
AcDbRotatedDimension
  0
DIMENSION
  5
1F1
330
1F
100
AcDbEntity
  8
VERMASSUNG
100
AcDbDimension
  2
*D2
 10
213.8242617739
 20
138.9981581798
 30
0.0
 11
189.0742617739
 21
138.9981581798
 31
0.0
 70
   160
 71
     2
 42
-1.0
  3
SLDDIMSTYLE1
100
AcDbAlignedDimension
 13
164.3242617739
 23
114.4084507042
 33
0.0
 14
213.8242617739
 24
118.1596697209
 34
0.0
 50
0.0
100
AcDbRotatedDimension
  0
DIMENSION
  5
1FC
330
1F
100
AcDbEntity
  8
VERMASSUNG
100
AcDbDimension
  2
*D3
 10
220.2094257855
 20
114.5084507042
 30
0.0
 11
220.2094257855
 21
106.5084507042
 31
0.0
 70
   160
  1
%%c<> 
 71
     2
 42
-1.0
  3
SLDDIMSTYLE2
100
AcDbAlignedDimension
 13
210.3242617739
 23
98.5084507042
 33
0.0
 14
210.3242617739
 24
114.5084507042
 34
0.0
 50
90.0
100
AcDbRotatedDimension
  0
DIMENSION
  5
209
330
1F
100
AcDbEntity
  8
VERMASSUNG
100
AcDbDimension
  2
*D4
 10
226.2094257855
 20
120.0084507042
 30
0.0
 11
226.2094257855
 21
106.5084507042
 31
0.0
 70
   160
  1
%%c<>
 71
     2
 42
-1.0
  3
SLDDIMSTYLE3
100
AcDbAlignedDimension
 13
213.8242617739
 23
93.0084507042
 33
0.0
 14
213.8242617739
 24
120.0084507042
 34
0.0
 50
90.0
100
AcDbRotatedDimension
  0
DIMENSION
  5
215
330
1F
100
AcDbEntity
  8
VERMASSUNG
100
AcDbDimension
  2
*D5
 10
232.2094257855
 20
123.5084507042
 30
0.0
 11
232.2094257855
 21
106.5084507042
 31
0.0
 70
   160
  1
%%c<>
 71
     2
 42
-1.0
  3
SLDDIMSTYLE3
100
AcDbAlignedDimension
 13
163.8242617739
 23
89.5084507042
 33
0.0
 14
163.8242617739
 24
123.5084507042
 34
0.0
 50
90.0
100
AcDbRotatedDimension
  0
DIMENSION
  5
220
330
1F
100
AcDbEntity
  8
VERMASSUNG
100
AcDbDimension
  2
*D6
 10
213.8242617739
 20
150.9981581798
 30
0.0
 11
166.3242617739
 21
150.9981581798
 31
0.0
 70
   160
 71
     2
 42
-1.0
  3
SLDDIMSTYLE0
100
AcDbAlignedDimension
 13
118.8242617739
 23
106.5084507042
 33
0.0
 14
213.8242617739
 24
118.1596697209
 34
0.0
 50
0.0
100
AcDbRotatedDimension
  0
DIMENSION
  5
22A
330
1F
100
AcDbEntity
  8
VERMASSUNG
100
AcDbDimension
  2
*D7
 10
213.8242617739
 20
144.9981581798
 30
0.0
 11
179.2992617739
 21
144.9981581798
 31
0.0
 70
   160
 71
     2
 42
-1.0
  3
SLDDIMSTYLE0
100
AcDbAlignedDimension
 13
144.7742617739
 23
136.354891028
 33
0.0
 14
213.8242617739
 24
118.107898464
 34
0.0
100
AcDbRotatedDimension
  0
DIMENSION
  5
234
330
1F
100
AcDbEntity
  8
VERMASSUNG
100
AcDbDimension
  2
*D8
 10
213.8242617739
 20
156.9981581798
 30
0.0
 11
150.3742617739
 21
156.9981581798
 31
0.0
 70
   160
 71
     2
 42
-1.0
  3
SLDDIMSTYLE0
100
AcDbAlignedDimension
 13
86.9242617739
 23
126.1991284507
 33
0.0
 14
213.8242617739
 24
118.107898464
 34
0.0
100
AcDbRotatedDimension
  0
LINE
  5
23E
330
1F
100
AcDbEntity
  8
VERMASSUNG
  6
CENTERX2
370
     0
100
AcDbLine
 10
82.3602383532
 20
106.5084507042
 30
0.0
 11
215.8992104032
 21
106.5084507042
 31
0.0
  0
OLE2FRAME
  5
23F
330
1F
100
AcDbEntity
  8
0
100
AcDbOle2Frame
 70
     2
  3
Bitmap Image
 10
13.8511154363
 20
38.264191557
 30
0.0
 11
51.6290888628
 21
31.9806341108
 31
0.0
 71
     2
 72
     0
 73
     1
 90
    12928
310
80552BED0767C5B32B40DDAF6807D121434000000000000000006FFBDDFB85D0
310
4940DDAF6807D121434000000000000000006FFBDDFB85D04940416F4BD60AFB
310
3F4000000000000000002BED0767C5B32B40416F4BD60AFB3F40000000000000
310
0000000000000100000000010000010000000100000000000100000000320000
310
D0CF11E0A1B11AE1000000000000000000000000000000003E000300FEFF0900
310
0600000000000000000000000100000001000000000000000010000002000000
310
01000000FEFFFFFF0000000000000000FFFFFFFFFFFFFFFFFFFFFFFFFFFFFFFF
310
FFFFFFFFFFFFFFFFFFFFFFFFFFFFFFFFFFFFFFFFFFFFFFFFFFFFFFFFFFFFFFFF
310
FFFFFFFFFFFFFFFFFFFFFFFFFFFFFFFFFFFFFFFFFFFFFFFFFFFFFFFFFFFFFFFF
310
FFFFFFFFFFFFFFFFFFFFFFFFFFFFFFFFFFFFFFFFFFFFFFFFFFFFFFFFFFFFFFFF
310
FFFFFFFFFFFFFFFFFFFFFFFFFFFFFFFFFFFFFFFFFFFFFFFFFFFFFFFFFFFFFFFF
310
FFFFFFFFFFFFFFFFFFFFFFFFFFFFFFFFFFFFFFFFFFFFFFFFFFFFFFFFFFFFFFFF
310
FFFFFFFFFFFFFFFFFFFFFFFFFFFFFFFFFFFFFFFFFFFFFFFFFFFFFFFFFFFFFFFF
310
FFFFFFFFFFFFFFFFFFFFFFFFFFFFFFFFFFFFFFFFFFFFFFFFFFFFFFFFFFFFFFFF
310
FFFFFFFFFFFFFFFFFFFFFFFFFFFFFFFFFFFFFFFFFFFFFFFFFFFFFFFFFFFFFFFF
310
FFFFFFFFFFFFFFFFFFFFFFFFFFFFFFFFFFFFFFFFFFFFFFFFFFFFFFFFFFFFFFFF
310
FFFFFFFFFFFFFFFFFFFFFFFFFFFFFFFFFFFFFFFFFFFFFFFFFFFFFFFFFFFFFFFF
310
FFFFFFFFFFFFFFFFFFFFFFFFFFFFFFFFFFFFFFFFFFFFFFFFFFFFFFFFFFFFFFFF
310
FFFFFFFFFFFFFFFFFFFFFFFFFFFFFFFFFFFFFFFFFFFFFFFFFFFFFFFFFFFFFFFF
310
FFFFFFFFFFFFFFFFFFFFFFFFFFFFFFFFFFFFFFFFFFFFFFFFFFFFFFFFFFFFFFFF
310
FDFFFFFFFEFFFFFFFEFFFFFFFEFFFFFF05000000060000000700000008000000
310
090000000A0000000B0000000C0000000D0000000E0000000F00000010000000
310
11000000120000001300000014000000150000001600000017000000FEFFFFFF
310
FFFFFFFFFFFFFFFFFFFFFFFFFFFFFFFFFFFFFFFFFFFFFFFFFFFFFFFFFFFFFFFF
310
FFFFFFFFFFFFFFFFFFFFFFFFFFFFFFFFFFFFFFFFFFFFFFFFFFFFFFFFFFFFFFFF
310
FFFFFFFFFFFFFFFFFFFFFFFFFFFFFFFFFFFFFFFFFFFFFFFFFFFFFFFFFFFFFFFF
310
FFFFFFFFFFFFFFFFFFFFFFFFFFFFFFFFFFFFFFFFFFFFFFFFFFFFFFFFFFFFFFFF
310
FFFFFFFFFFFFFFFFFFFFFFFFFFFFFFFFFFFFFFFFFFFFFFFFFFFFFFFFFFFFFFFF
310
FFFFFFFFFFFFFFFFFFFFFFFFFFFFFFFFFFFFFFFFFFFFFFFFFFFFFFFFFFFFFFFF
310
FFFFFFFFFFFFFFFFFFFFFFFFFFFFFFFFFFFFFFFFFFFFFFFFFFFFFFFFFFFFFFFF
310
FFFFFFFFFFFFFFFFFFFFFFFFFFFFFFFFFFFFFFFFFFFFFFFFFFFFFFFFFFFFFFFF
310
FFFFFFFFFFFFFFFFFFFFFFFFFFFFFFFFFFFFFFFFFFFFFFFFFFFFFFFFFFFFFFFF
310
FFFFFFFFFFFFFFFFFFFFFFFFFFFFFFFFFFFFFFFFFFFFFFFFFFFFFFFFFFFFFFFF
310
FFFFFFFFFFFFFFFFFFFFFFFFFFFFFFFFFFFFFFFFFFFFFFFFFFFFFFFFFFFFFFFF
310
FFFFFFFFFFFFFFFFFFFFFFFFFFFFFFFFFFFFFFFFFFFFFFFFFFFFFFFFFFFFFFFF
310
FFFFFFFFFFFFFFFFFFFFFFFFFFFFFFFFFFFFFFFFFFFFFFFFFFFFFFFFFFFFFFFF
310
52006F006F007400200045006E00740072007900000000000000000000000000
310
0000000000000000000000000000000000000000000000000000000000000000
310
16000500FFFFFFFFFFFFFFFF020000000A00030000000000C000000000000046
310
00000000000000000000000030EC4843C604CC0103000000C000000000000000
310
01004F006C006500000000000000000000000000000000000000000000000000
310
0000000000000000000000000000000000000000000000000000000000000000
310
0A000200FFFFFFFFFFFFFFFFFFFFFFFF00000000000000000000000000000000
310
0000000000000000000000000000000000000000000000001400000000000000
310
010043006F006D0070004F0062006A0000000000000000000000000000000000
310
0000000000000000000000000000000000000000000000000000000000000000
310
120002010100000003000000FFFFFFFF00000000000000000000000000000000
310
0000000000000000000000000000000000000000010000004D00000000000000
310
01004F006C006500310030004E00610074006900760065000000000000000000
310
0000000000000000000000000000000000000000000000000000000000000000
310
1A000200FFFFFFFFFFFFFFFFFFFFFFFF00000000000000000000000000000000
310
0000000000000000000000000000000000000000040000002426000000000000
310
FEFFFFFF02000000FEFFFFFFFFFFFFFFFFFFFFFFFFFFFFFFFFFFFFFFFFFFFFFF
310
FFFFFFFFFFFFFFFFFFFFFFFFFFFFFFFFFFFFFFFFFFFFFFFFFFFFFFFFFFFFFFFF
310
FFFFFFFFFFFFFFFFFFFFFFFFFFFFFFFFFFFFFFFFFFFFFFFFFFFFFFFFFFFFFFFF
310
FFFFFFFFFFFFFFFFFFFFFFFFFFFFFFFFFFFFFFFFFFFFFFFFFFFFFFFFFFFFFFFF
310
FFFFFFFFFFFFFFFFFFFFFFFFFFFFFFFFFFFFFFFFFFFFFFFFFFFFFFFFFFFFFFFF
310
FFFFFFFFFFFFFFFFFFFFFFFFFFFFFFFFFFFFFFFFFFFFFFFFFFFFFFFFFFFFFFFF
310
FFFFFFFFFFFFFFFFFFFFFFFFFFFFFFFFFFFFFFFFFFFFFFFFFFFFFFFFFFFFFFFF
310
FFFFFFFFFFFFFFFFFFFFFFFFFFFFFFFFFFFFFFFFFFFFFFFFFFFFFFFFFFFFFFFF
310
FFFFFFFFFFFFFFFFFFFFFFFFFFFFFFFFFFFFFFFFFFFFFFFFFFFFFFFFFFFFFFFF
310
FFFFFFFFFFFFFFFFFFFFFFFFFFFFFFFFFFFFFFFFFFFFFFFFFFFFFFFFFFFFFFFF
310
FFFFFFFFFFFFFFFFFFFFFFFFFFFFFFFFFFFFFFFFFFFFFFFFFFFFFFFFFFFFFFFF
310
FFFFFFFFFFFFFFFFFFFFFFFFFFFFFFFFFFFFFFFFFFFFFFFFFFFFFFFFFFFFFFFF
310
FFFFFFFFFFFFFFFFFFFFFFFFFFFFFFFFFFFFFFFFFFFFFFFFFFFFFFFFFFFFFFFF
310
FFFFFFFFFFFFFFFFFFFFFFFFFFFFFFFFFFFFFFFFFFFFFFFFFFFFFFFFFFFFFFFF
310
FFFFFFFFFFFFFFFFFFFFFFFFFFFFFFFFFFFFFFFFFFFFFFFFFFFFFFFFFFFFFFFF
310
FFFFFFFFFFFFFFFFFFFFFFFFFFFFFFFFFFFFFFFFFFFFFFFFFFFFFFFFFFFFFFFF
310
0100000200000000000000000000000000000000000000003A09020000000000
310
4A09020000000000460902000000000016090200000000004209020000000000
310
0100FEFF030A0000FFFFFFFF0A00030000000000C00000000000004607000000
310
5042727573680007000000504272757368000700000050427275736800F439B2
310
71000000000000000000000000000000B408020000000000EE08020000000000
310
B808020000000000CC0802000000000052090200000000003E09020000000000
310
120902000000000058071F00000000005E071100000000006407040000000000
310
D006030000000000700B030000000000D806040000000000DA06030000000000
310
5C0B0A0000000000B81E050000000000AE1E050000000000AA1E050000000000
310
161E040000000000201E040000000000241E040000000000621D040000000000
310
6C1D040000000000701D040000000000CE1C030000000000B01C040000000000
310
B41C040000000000161C030000000000021C040000000000061C040000000000
310
E81B020000000000F21B020000000000F61B020000000000EE1A290000000000
310
681A4100000000007A1A4300000000007C197A00000000007019810000000000
310
74197B00000000002619BF0000000000C61870000000000006196E0000000000
310
081809000000000024180700000000000E18090000000000D6170C0000000000
310
20260000424D0E260000000000003E00000028000000B40200006E0000000100
310
01000000000000000000130B0000130B00000200000002000000000000FFFFFF
310
FFFFFFFFFFFFFFFFFFFFFFFFFFFFFFFFFFFFFFFFFFFFFFFFFFFFFFFFFFFFFFFF
310
FFFFFFFFFFFFFFFFFFFFFFFFFFFFFFFFFFFFFFFFFFFFFFFFFFFFFFFFFFFFFFFF
310
FFFFFFFFFFFFFFFFFFFFFFFFFFFFFFFFFFFFFFFFFFFFFFFFF000FFFFFFFFFFFF
310
FFFFFFFFFFFFFFFFFFFFFFFFFFFFFFFFFFFFFFFFFFFFFFFFFFFFFFFFFFFFFFFF
310
FFFFFFFFFFFFFFFFFFFFFFFFFFFFFFFFFFFFFFFFFFFFFFFFFFFFFFFFFFFFFFFF
310
FFFFFFFFFFFFFFFFFFFFFFFFFFFFFFFFF000FFFFFFFFFFFFFFFFFFFFFFFFFFFF
310
FFFFFFFFFFFFFFFFFFFFFFFFFFFFFFFFFFFFFFFFFFFFFFFFFFFFFFFFFFFFFFFF
310
FFFFFFFFFFFFFFFFFFFFFFFFFFFFFFFFFFFFFFFFFFFFFFFFFFFFFFFFFFFFFFFF
310
FFFFFFFFFFFFFFFFF000FFFFFFFFFFFFFFFFFFFFFFFFFFFFFFFFFFFFFFFFFFFF
310
FFFFFFFFFFFFFFFFFFFFFFFFFFFFFFFFFFFFFFFFFFFFFFFFFFFFFFFFFFFFFFFF
310
FFFFFFFFFFFFFFFFFFFFFFFFFFFFFFFFFFFFFFFFFFFFFFFFFFFFFFFFFFFFFFFF
310
F000FFFFFFFFFFFFFFFFFFFFFFFFFFFFFFFFFFFFFFFFFFFFFFFFFFFFFFFFFFFF
310
FFFFFFFFFFFFFFFFFFFFFFFFFFFFFFFFFFFFFFFFFFFFFFFFFFFFFFFFFFFFFFFF
310
FFFFFFFFFFFFFFFFFFFFFFFFFFFFFFFFFFFFFFFFFFFFFFFFF000FFFFFFFFFFFF
310
FFFFFFFFFFFFFFFFFFFFFFFFFFFFFFFFFFFFFFFFFFFFFFFFFFFFFFFFFFFFFFFF
310
FFFFFFFFFFFFFFFFFFFFFFFFFFFFFFFFFFFFFFFFFFFFFFFFFFFFFFFFFFFFFFFF
310
FFFFFFFFFFFFFFFFFFFFFFFFFFFFFFFFF000FFFFFFFFFFFFFFFFFFFFFFFFFFFF
310
FFFFFFFFFFFFFFFFFFFFFFFFFFFFFFFFFFFFFFFFFFFFFFFFFFFFFFFFFFFFFFFF
310
FFFFFFFFFFFFFFFFFFFFFFFFFFFFFFFFFFFFFFFFFFFFFFFFFFFFFFFFFFFFFFFF
310
FFFFFFFFFFFFFFFFF000FFFFFFFFFFFFFFFFFFFFFFFFFFFFFFFFFFFFFFFFFFFF
310
FFFFFFFFFFFFFFFFFFFFFFFFFFFFFFFFFFFFFFFFFFFFFFFFFFFFFFFFFFFFFFFF
310
FFFFFFFFFFFFFFFFFFFFFFFFFFFFFFFFFFFFFFFFFFFFFFFFFFFFFFFFFFFFFFFF
310
F000FFFFFFFFFFFFFFFFFFFFFFFFFFFFFFFFFFFFFFFFFFFFFFFFFFFFFFFFFFFF
310
FFFFFFFFFFFFFFFFFFFFFFFFFFFFFFFFFFFFFFFFFFFFFFFFFFFFFFFFFFFFFFFF
310
FFFFFFFFFFFFFFFFFFFFFFFFFFFFFFFFFFFFFFFFFFFFFFFFF000FFFFFFFFFFFF
310
FFFFFFFFFFFFFFFFFFFFFFFFFFFFFFFFFFFFFFFFFFFFFFFFFFFFFFFFFFFFFFFF
310
FFFFFFFFFFFFFFFFFFFFFFFFFFFFFFFFFFFFFFFFFFFFFFFFFFFFFFFFFFFFFFFF
310
FFFFFFFFFFFFFFFFFFFFFFFFFFFFFFFFF000FFFFFFFFFFFFFFFFFFFFFFFFFFFF
310
FFFFFFFFFFFFFFFFFFFFFFFFFFFFFFFFFFFFFFFFFFFFFFFFFFFFFFFFFFFFFFFF
310
FFFFFFFFFFFFFFFFFFFFFFFFFFFFFFFFFFFFFFFFFFFFFFFFFFFFFFFFFFFFFFFF
310
FFFFFFFFFFFFFFFFF000FFFFFFFFFFFFFFFFFFFFFFFFFFFFFFFFFFFFFFFFFFFF
310
FFFFFFFFFFFFFFFFFFFFFFFFFFFFFFFFFFFFFFFFFFFFFFFFFFFFFFFFFFFFFFFF
310
FFFFFFFFFFFFFFFFFFFFFFFFFFFFFFFFFFFFFFFFFFFFFFFFFFFFFFFFFFFFFFFF
310
F000FFFFFFFFFFFFFFFFFFFFFFFFFFFFFFFFFFFFFFFFFFFFFFFFFFFFFFFFFFFF
310
FFFFFFFFFFFFFFFFFFFFFFFFFFFFFFFFFFFFFFFFFFFFFFFFFFFFFFFFFFFFFFFF
310
FFFFFFFFFFFFFFFFFFFFFFFFFFFFFFFFFFFFFFFFFFFFFFFFF000FFFFFFFFFFFF
310
FFFFFFFFFFFFFFFFFFFFFFFFFFFFFFFFFFFFFFFFFFFFFFFFFFFFFFFFFFFFFFFF
310
FFFFFFFFFFFFFFFFFFFFFFFFFFFFFFFFFFFFFFFFFFFFFFFFFFFFFFFFFFFFFFFF
310
FFFFFFFFFFFFFFFFFFFFFFFFFFFFFFFFF000FFFFFFFFFFFFFFFFFFFFFFFFFFFF
310
FFFFFFFFFFFFFFFFFFFFFFFFFFFFFFFFFFFFFFFFFFFFFFFFFFFFFFFFFFFFFFFF
310
FFFFFFFFFFFFFFFFFFFFFFFFFFFFFFFFFFFFFFFFFFFFFFFFFFFFFFFFFFFFFFFF
310
FFFFFFFFFFFFFFFFF000FFFFFFFFFFFFFFFFFFFFFFFFFFFFFFFFFFFFFFFFFFFF
310
FFFFFFFFFFFFFFFFFFFFFFFFFFFFFFFFFFFFFFFFFFFFFFFFFFFFFFFFFFFFFFFF
310
FFFFFFFFFFFFFFFFFFFFFFFFFFFFFFFFFFFFFFFFFFFFFFFFFFFFFFFFFFFFFFFF
310
F000FFFFFFFFFFFFFFFFFFFFFFFFFFFFFFFFFFFFFFFFFFFFFFFFFFFFFFFFFFFF
310
FFFFFFFFFFFFFFFFFFFFFFFFFFFFFFFFFFFFFFFFFFFFFFFFFFFFFFFFFFFFFFFF
310
FFFFFFFFFFFFFFFFFFFFFFFFFFFFFFFFFFFFFFFFFFFFFFFFF000FFFFFFFFFFFF
310
FFFFFFFFFFFFFFFFFFFFFFFFFFFFFFFFFFFFFFFFFFFFFFFFFFFFFFFFFFFFFFFF
310
FFFFFFFFFFFFFFFFFFFFFFFFFFFFFFFFFFFFFFFFFFFFFFFFFFFFFFFFFFFFFFFF
310
FFFFFFFFFFFFFFFFFFFFFFFFFFFFFFFFF000FFFFFFFFFFFFFFFFFFFFFFFFFFFF
310
FFFFFFFFFFFFFFFFFFFFFFFFFFFFFFFFFFFFFFFFFFFFFFFFFFFFFFFFFFFFFFFF
310
FFFFFFFFFFFFFFFFFFFFFFFFFFFFFFFFFFFFFFFFFFFFFFFFFFFFFFFFFFFFFFFF
310
FFFFFFFFFFFFFFFFF000FFFFF80003FFFFFFFFFFFFFFFFFFFFFFFFFFFFFFFFFF
310
FFFFF00007FFFFFFFFFF00007FFFFFF800000000000000007FFFFFFFFFFFFFFF
310
FFFFFFFC001FFFFFFFFFFFFFFC001FFFFFFFFFFFFFFFFFFFFFFFFFFE0007FFFF
310
F000FFFF8000007FFFFFFFF8000FFFFFC0007FFFFF80007FFFFF0000007FFFFF
310
FFF8000007FFFFF800000000000000007FFFFFF0001FFFFFFFFFFFC00001FFFF
310
FFFFFFFFC00001FFFFFFFF000000000003FFFFE000007FFFF000FFFE0000000F
310
FFFFFFF0000FFFFF80007FFFFF80007FFFFC0000001FFFFFFFC0000001FFFFF8
310
00000000000000007FFFFFF0001FFFFFFFFFFE0000003FFFFFFFFFFE0000003F
310
FFFFFF000000000003FFFF0000000FFFF000FFF800000003FFFFFFF00007FFFF
310
80007FFFFF80007FFFF000000007FFFFFF000000003FFFF80000000000000000
310
7FFFFFF0001FFFFFFFFFF80000000FFFFFFFFFF80000000FFFFFFF0000000000
310
03FFFC00000003FFF000FFE000000000FFFFFFF00007FFFF80003FFFFF80007F
310
FFC000000001FFFFFC000000001FFFF800000000000000007FFFFFF0001FFFFF
310
FFFFE000000003FFFFFFFFE000000003FFFFFF000000000003FFF000000000FF
310
F000FF80000000007FFFFFF00007FFFF80003FFFFF80007FFF8000000000FFFF
310
F80000000007FFF800000000000000007FFFFFF0001FFFFFFFFFC000000001FF
310
FFFFFFC000000001FFFFFF000000000003FFC0000000007FF000FF0000000000
310
3FFFFFE00007FFFF00003FFFFF80007FFE00000000003FFFF00000000003FFF8
310
00000000000000007FFFFFF0001FFFFFFFFF8000000000FFFFFFFF8000000000
310
FFFFFF000000000003FF80000000003FF000FE00000000001FFFFFE00003FFFF
310
00003FFFFF80007FFC00000000001FFFE00000000001FFF8000001FFFE000000
310
7FFFFFF0001FFFFFFFFE00000000003FFFFFFE00000000003FFFFF0000000000
310
03FF00000000001FF000FC00000000000FFFFFE00003FFFF00001FFFFF80007F
310
F800000000001FFFC00000000000FFF8000001FFFE0000007FFFFFF0001FFFFF
310
FFFC00000000001FFFFFFC00000000001FFFFF000000000003FE00000000000F
310
F000F8000000000007FFFFE00003FFFF00001FFFFF80007FF800000000000FFF
310
800000000000FFF8000001FFFE0000007FFFFFF0001FFFFFFFF800000000000F
310
FFFFF800000000000FFFFF000000000003FC000000000007F000F80000000000
310
03FFFFC00003FFFE00001FFFFF80007FF0000000000007FF0000000000007FF8
310
000001FFFE0000007FFFFFF0001FFFFFFFF0000000000007FFFFF00000000000
310
07FFFF000000000003F8000000000003F000F0000000000003FFFFC00001FFFE
310
00001FFFFF80007FE0000000000007FE0000000000003FF8000001FFFE000000
310
7FFFFFF0001FFFFFFFF0000000000007FFFFF0000000000007FFFF0000000000
310
03F800001F800003F000E00001FFF00001FFFFC00001FFFE00000FFFFF80007F
310
E00001FFE00003FE00001FFF00003FF8000001FFFE0000007FFFFFF0001FFFFF
310
FFE000003E000003FFFFE000003E000003FFFF000000000003F00001FFF80001
310
F000E00007FFFC0001FFFFC00001FFFE00000FFFFF80007FC0000FFFFC0003FC
310
0000FFFFC0001FF8000001FFFE0000007FFFFFF0001FFFFFFFC00003FFE00001
310
FFFFC00003FFE00001FFFF0001FFFFFFFFF00007FFFE0001F000E0000FFFFF00
310
00FFFF800001FFFC00000FFFFF80007FC0001FFFFE0001FC0001FFFFE0001FF8
310
000001FFFE0000007FFFFFF0001FFFFFFF80000FFFF80000FFFF80000FFFF800
310
00FFFF0003FFFFFFFFE0000FFFFF8000F000C0003FFFFF8000FFFF800000FFFC
310
000007FFFF80007F80003FFFFF0001FC0003FFFFF0001FF8000001FFFE000000
310
7FFFFFF0001FFFFFFF80003FFFFE0000FFFF80003FFFFE0000FFFF0003FFFFFF
310
FFE0003FFFFF8000F000C0003FFFFF8000FFFF800000FFFC000007FFFF80007F
310
80007FFFFF8001F80007FFFFF8000FF8000001FFFE0000007FFFFFF0001FFFFF
310
FF00007FFFFF00007FFF00007FFFFF00007FFF0003FFFFFFFFE0003FFFFFC000
310
F000C0007FFFFFC000FFFF000000FFFC000007FFFF80007F8000FFFFFF8000F8
310
000FFFFFF8000FF8000001FFFE0000007FFFFFF0001FFFFFFF0000FFFFFF8000
310
7FFF0000FFFFFF80007FFF0003FFFFFFFFC0007FFFFFC00070008000FFFFFFC0
310
00FFFF000000FFF8000007FFFF80007F8000FFFFFF8000F8000FFFFFF8000FF8
310
000001FFFE0000007FFFFFF0001FFFFFFE0001FFFFFFC0003FFE0001FFFFFFC0
310
003FFF0003FFFFFFFFC0007FFFFFE00070008000FFFFFFC0007FFF0000007FF8
310
000003FFFF80007F0001FFFFFF8000F8000FFFFFF8000FF8000001FFFE000000
310
7FFFFFF0001FFFFFFE0001FFFFFFC0003FFE0001FFFFFFC0003FFF0003FFFFFF
310
FFC000FFFFFFE00070008000FFFFFFC0007FFF0000007FF8000003FFFF80007F
310
0001FFFFFF8000F8001FFFFFF8000FF8000001FFFE0000007FFFFFF0001FFFFF
310
FE0003FFFFFFE0003FFE0003FFFFFFE0003FFF0003FFFFFFFFC000FFFFFFE000
310
70008000FFFFFFC0007FFE0000007FF8000003FFFF80007F0001FFFFFF8000F0
310
001FFFFFF8000FF8000001FFFE0000007FFFFFF0001FFFFFFC0003FFFFFFE000
310
1FFC0003FFFFFFE0001FFF0003FFFFFFFFC000FFFFFFC00070008000FFFFFF80
310
007FFE0000007FF0000003FFFF80007F0001FFFFFF0000F0001FFFFFF8000FF8
310
000001FFFE0000007FFFFFF0001FFFFFFC0007FFFFFFF0001FFC0007FFFFFFF0
310
001FFF0003FFFFFFFFC000FFFFFFC00070008001FFFFFF0000FFFE0000003FF0
310
000001FFFF80007F0001FFFFFF0000F8001FFFFFF0000FF8000001FFFE000000
310
7FFFFFF0001FFFFFFC0007FFFFFFF0001FFC0007FFFFFFF0001FFF0003FFFFFF
310
FFC001FFFFFF80007000FFFFFFFFFE0000FFFE0008003FF0008001FFFF80007F
310
FFFFFFFFFC0000FFFFFFFFFFE0000FF8000001FFFE0000007FFFFFF0001FFFFF
310
F8000FFFFFFFF8000FF8000FFFFFFFF8000FFF0003FFFFFFFFFFFFFFFFFF0000
310
7000FFFFFFFFFC0000FFFC0008003FF0008001FFFF80007FFFFFFFFFF80001FF
310
FFFFFFFF80000FF8000001FFFE0000007FFFFFF0001FFFFFF8000FFFFFFFF800
310
0FF8000FFFFFFFF8000FFF0003FFFFFFFFFFFFFFFFFE0000F000FFFFFFFFE000
310
00FFFC000C003FE000C001FFFF80007FFFFFFFFFC00001FFFFFFFFFE00001FF8
310
000001FFFE0000007FFFFFF0001FFFFFF8000FFFFFFFF8000FF8000FFFFFFFF8
310
000FFF0003FFFFFFFFFFFFFFFFF00000F000FFFFFFFE000001FFFC000C001FE0
310
00C000FFFF80007FFFFFFFFE000001FFFFFFFFE000001FF80FFFFFFFFFFFFFC0
310
7FFFFFF0001FFFFFF8000FFFFFFFF8000FF8000FFFFFFFF8000FFF0003FFFFFF
310
FFFFFFFFFF800000F000FFFFFFC0000001FFFC001C001FE001C000FFFF80007F
310
FFFFFF80000003FFFFFFF80000001FF80FFFFFFFFFFFFFC07FFFFFF0001FFFFF
310
F8001FFFFFFFFC000FF8001FFFFFFFFC000FFF0003FFFFFFFFFFFFFFF0000001
310
F000FFFFF800000001FFF8001C001FE001C000FFFF80007FFFFFF800000003FF
310
FFFF800000003FF80FFFFFFFFFFFFFC07FFFFFF0001FFFFFF8001FFFFFFFFC00
310
0FF8001FFFFFFFFC000FFF0003FFFFFFFFFFFFFE00000001F000FFFFC0000000
310
03FFF8001E001FC001E000FFFF80007FFFFF8000000007FFFFFC000000003FF8
310
0FFFFFFFFFFFFFC07FFFFFF0001FFFFFF8001FFFFFFFFC000FF8001FFFFFFFFC
310
000FFF0003FFFFFFFFFFFFE000000003F000FFFE0000000007FFF8001E000FC0
310
01E0007FFF80007FFFFE0000000007FFFFE0000000007FF80FFFFFFFFFFFFFC0
310
7FFFFFF0001FFFFFF0001FFFFFFFFC0007F0001FFFFFFFFC0007FF0003FFFFFF
310
FFFFFF0000000003F000FFF80000000007FFF8001E000FC003E0007FFF80007F
310
FFF0000000000FFFFF8000000000FFF80FFFFFFFFFFFFFC07FFFFFF0001FFFFF
310
F0001FFFFFFFFC0007F0001FFFFFFFFC0007FF0003FFFFFFFFFFFC0000000007
310
F000FFE0000000000FFFF0003E000FC003E0007FFF80007FFFC0000000001FFF
310
FE0000000001FFF80FFFFFFFFFFFFFC07FFFFFF0001FFFFFF0001FFFFFFFFC00
310
07F0001FFFFFFFFC0007FF0003FFFFFFFFFFF0000000000FF000FFC000000000
310
1FFFF0003F000F8003F0003FFF80007FFF80000000003FFFF80000000003FFF8
310
0FFFFFFFFFFFFFC07FFFFFF0001FFFFFF0001FFFFFFFFC0007F0001FFFFFFFFC
310
0007FF0003FFFFFFFFFFE0000000001FF000FF00000000007FFFF0003F000780
310
03F0003FFF80007FFF00000000007FFFF00000000007FFF80FFFFFFFFFFFFFC0
310
7FFFFFF0001FFFFFF0001FFFFFFFFC0007F0001FFFFFFFFC0007FF0003FFFFFF
310
FFFF80000000007FF000FE0000000000FFFFE0003F00078007F0003FFF80007F
310
FE0000000001FFFFE0000000001FFFF80FFFFFFFFFFFFFC07FFFFFF0001FFFFF
310
F0001FFFFFFFFC0007F0001FFFFFFFFC0007FF0003FFFFFFFFFF0000000000FF
310
F000FC0000000003FFFFE0007F00078007F0003FFF80007FFC0000000007FFFF
310
C0000000007FFFF80FFFFFFFFFFFFFC07FFFFFF0001FFFFFF8001FFFFFFFFC00
310
0FF8001FFFFFFFFC000FFF0003FFFFFFFFFE0000000003FFF000FC000000000F
310
FFFFE0007F80070007F8001FFF80007FF8000000001FFFFF8000000001FFFFF8
310
0FFFFFFFFFFFFFC07FFFFFF0001FFFFFF8001FFFFFFFFC000FF8001FFFFFFFFC
310
000FFF0003FFFFFFFFFC000000000FFFF000F8000000007FFFFFE0007F800700
310
07F8001FFF80007FF000000000FFFFFF800000000FFFFFF80FFFFFFFFFFFFFC0
310
7FFFFFF0001FFFFFF8000FFFFFFFF8000FF8000FFFFFFFF8000FFF0003FFFFFF
310
FFFC000000007FFFF000F800000007FFFFFFC0007F8003000FF8001FFF80007F
310
F000000007FFFFFF000000007FFFFFF80FFFFFFFFFFFFFC07FFFFFF0001FFFFF
310
F8000FFFFFFFF8000FF8000FFFFFFFF8000FFF0003FFFFFFFFF80000000FFFFF
310
F000F0000000FFFFFFFFC000FF8003000FF8001FFF80007FE0000000FFFFFFFF
310
0000000FFFFFFFF8000001FFFE0000007FFFFFF0001FFFFFF8000FFFFFFFF800
310
0FF8000FFFFFFFF8000FFF0003FFFFFFFFF8000000FFFFFFF000F000000FFFFF
310
FFFFC000FFC002000FF8000FFF80007FE000001FFFFFFFFE000001FFFFFFFFF8
310
000001FFFE0000007FFFFFF0001FFFFFF8000FFFFFFFF8000FF8000FFFFFFFF8
310
000FFF0003FFFFFFFFF000001FFFFFFFF000E00000FFFFFFFFFFC000FFC00200
310
0FFC000FFF80007FE00001FFFFFFFFFE00001FFFFFFFFFF8000001FFFE000000
310
7FFFFFF0001FFFFFFC000FFFFFFFF8001FFC000FFFFFFFF8001FFF0003FFFFFF
310
FFF00001FFFFFFFFF000E00007FFFFFFFFFF8000FFC000001FFC000FFF80007F
310
C0000FFFFFFFFFFE0000FFFFFFFFFFF8000001FFFE0000007FFFFFF0001FFFFF
310
FC0007FFFFFFF0001FFC0007FFFFFFF0001FFF0003FFFFFFFFF00007FFFFFFFF
310
F000E0001FFFFFFFFFFF8000FFC000001FFC000FFF80007FC0003FFFFFFFFFFE
310
0001FFFFFFFFFFF8000001FFFE0000007FFFFFF0001FFFFFFC0007FFFFFFF000
310
1FFC0007FFFFFFF0001FFF0003FFFFFFFFF0001FFFFFFFFFF000E0003FFFFF00
310
03FF8001FFE000001FFC0007FF80007FC0007FFFFF0007FC0003FFFFF0003FF8
310
000001FFFE0000007FFFFFF0001FFFFFFC0003FFFFFFE0001FFC0003FFFFFFE0
310
001FFF0003FFFFFFFFF0003FFFFFFFFFF000E0003FFFFF0001FF8001FFE00000
310
1FFE0007FF80007FC0007FFFFE0003FC0007FFFFE0003FF8000001FFFE000000
310
7FFFFFF0001FFFFFFE0003FFFFFFE0003FFE0003FFFFFFE0003FFF0003FFFFFF
310
FFF0003FFFFF8001F000E0003FFFFF0001FF0001FFE000001FFE0007FF80007F
310
C0007FFFFE0003FC0007FFFFE0003FF8000001FFFE0000007FFFFFF0001FFFFF
310
FE0001FFFFFFC0003FFE0001FFFFFFC0003FFF0003FFFFFFFFF0003FFFFF0001
310
F000E0003FFFFF0003FF0001FFE000003FFE0007FF80007FC0007FFFFE0003FC
310
0007FFFFE0003FF8000001FFFE0000007FFFFFF0001FFFFFFF0001FFFFFFC000
310
7FFF0001FFFFFFC0007FFF0003FFFFFFFFF0003FFFFF0001F000E0003FFFFE00
310
03FF0003FFF000003FFE0003FF80007FC0007FFFFC0003FE0007FFFFE0003FF8
310
000001FFFE0000007FFFFFF0001FFFFFFF0000FFFFFF80007FFF0000FFFFFF80
310
007FFF0003FFFFFFFFF0003FFFFF0001F000E0003FFFFE0003FF0003FFF00000
310
3FFF0003FF80007FC0007FFFFC0007FE0007FFFFC0003FF8000001FFFE000000
310
7FFFFFF0001FFFFFFF80007FFFFF0000FFFF80007FFFFF0000FFFF0003FFFFFF
310
FFF0003FFFFF0003F000E0003FFFFC0003FE0003FFF000003FFF0003FF80007F
310
E0003FFFF80007FE0003FFFFC0007FF8000001FFFE0000007FFFFFF0001FFFFF
310
FF80003FFFFE0000FFFF80003FFFFE0000FFFF0003FFFFFFFFF0001FFFFE0003
310
F000F0001FFFF80003FE0003FFF000007FFF0001FF80007FE0003FFFF00007FE
310
0001FFFF80007FF8000001FFFE0000007FFFFFF0001FFFFFFFC0000FFFF80001
310
FFFFC0000FFFF80001FFFF0003FFFFFFFFF0001FFFFC0003F000F0000FFFF000
310
07FE0007FFF800007FFF0001FF80007FE0001FFFE00007FF0000FFFE00007FF8
310
000001FFFE0000007FFFFFF0001FFFFFFFC00003FFE00001FFFFC00003FFE000
310
01FFFF0003FFFFFFFFF8000FFFF80003F000F00003FFC00007FC0007FFF80000
310
7FFF8001FF80007FF00007FF80000FFF00007FF80000FFF8000001FFFE000000
310
7F80000000000001FFE000003E000003FFFFE000003E000003FFFF0003FFFFFF
310
FFF80003FFE00007F000F800000000000FFC0007FFF800007FFF8001FF80007F
310
F000000000000FFF000000000000FFF8000001FFFE0000007F80000000000001
310
FFF0000000000007FFFFF0000000000007FFFF0003FFFFFFFFFC00007E000007
310
F000F800000000000FFC0007FFF80000FFFF8000FF80007FF800000000001FFF
310
800000000001FFF8000001FFFE0000007F80000000000001FFF800000000000F
310
FFFFF800000000000FFFFF0003FFFFFFFFFC00000000000FF000FC0000000000
310
1FFC0007FFFC0000FFFF8000FF80007FF800000000003FFFC00000000001FFF8
310
000001FFFE0000007F80000000000001FFF800000000000FFFFFF80000000000
310
0FFFFF0003FFFFFFFFFE00000000001FF000FE00000000003FF8000FFFFC0000
310
FFFF8000FF80007FFC00000000003FFFC00000000003FFF8000001FFFE000000
310
7F80000000000001FFFC00000000001FFFFFFC00000000001FFFFF0003FFFFFF
310
FFFF00000000001FF000FF00000000003FF8000FFFFC0000FFFFC000FF80007F
310
FE00000000007FFFE00000000007FFF8000001FFFE0000007F80000000000001
310
FFFE00000000003FFFFFFE00000000003FFFFF0003FFFFFFFFFF80000000003F
310
F000FF80000000007FF8000FFFFC0001FFFFC0007F80007FFF0000000000FFFF
310
F0000000000FFFF800000000000000007F80000000000001FFFF8000000000FF
310
FFFFFF8000000000FFFFFF0003FFFFFFFFFFC0000000007FF000FFC000000000
310
FFF8000FFFFE0001FFFFC0007F80007FFF8000000001FFFFF8000000001FFFF8
310
00000000000000007F80000000000001FFFFC000000001FFFFFFFFC000000001
310
FFFFFF0003FFFFFFFFFFE000000000FFF000FFE000000003FFF0001FFFFE0001
310
FFFFC0007F80007FFFC000000007FFFFFE000000003FFFF80000000000000000
310
7F80000000000001FFFFE000000003FFFFFFFFE000000003FFFFFF0003FFFFFF
310
FFFFF000000003FFF000FFF80000000FFFF0001FFFFE0001FFFFE0007F80007F
310
FFF00000000FFFFFFF00000000FFFFF800000000000000007F80000000000001
310
FFFFF80000000FFFFFFFFFF80000000FFFFFFF0003FFFFFFFFFFFC0000000FFF
310
F000FFFE0000003FFFF0001FFFFE0003FFFFE0003F80007FFFFC0000003FFFFF
310
FFC0000003FFFFF800000000000000007F80000000000001FFFFFE0000003FFF
310
FFFFFFFE0000003FFFFFFF0003FFFFFFFFFFFF0000003FFFF000FFFF800000FF
310
FFF0001FFFFF0003FFFFE0003F80007FFFFF000001FFFFFFFFF800001FFFFFF8
310
00000000000000007F80000000000001FFFFFFC00001FFFFFFFFFFFFC00001FF
310
FFFFFF0003FFFFFFFFFFFFC00000FFFFF000FFFFF8000FFFFFFFFFFFFFFFFFFF
310
FFFFFFFFFFFFFFFFFFFFF0001FFFFFFFFFFF0000FFFFFFF80000000000000000
310
7FFFFFFFFFFFFFFFFFFFFFFC001FFFFFFFFFFFFFFC001FFFFFFFFFFFFFFFFFFF
310
FFFFFFFC001FFFFFF000FFFFFFFFFFFFFFFFFFFFFFFFFFFFFFFFFFFFFFFFFFFF
310
FFFFFFFFFFFFFFFFFFFFFFFFFFFFFFFFFFFFFFFFFFFFFFFFFFFFFFFFFFFFFFFF
310
FFFFFFFFFFFFFFFFFFFFFFFFFFFFFFFFFFFFFFFFFFFFFFFFFFFFFFFFFFFFFFFF
310
F000FFFFFFFFFFFFFFFFFFFFFFFFFFFFFFFFFFFFFFFFFFFFFFFFFFFFFFFFFFFF
310
FFFFFFFFFFFFFFFFFFFFFFFFFFFFFFFFFFFFFFFFFFFFFFFFFFFFFFFFFFFFFFFF
310
FFFFFFFFFFFFFFFFFFFFFFFFFFFFFFFFFFFFFFFFFFFFFFFFF000FFFFFFFFFFFF
310
FFFFFFFFFFFFFFFFFFFFFFFFFFFFFFFFFFFFFFFFFFFFFFFFFFFFFFFFFFFFFFFF
310
FFFFFFFFFFFFFFFFFFFFFFFFFFFFFFFFFFFFFFFFFFFFFFFFFFFFFFFFFFFFFFFF
310
FFFFFFFFFFFFFFFFFFFFFFFFFFFFFFFFF000FFFFFFFFFFFFFFFFFFFFFFFFFFFF
310
FFFFFFFFFFFFFFFFFFFFFFFFFFFFFFFFFFFFFFFFFFFFFFFFFFFFFFFFFFFFFFFF
310
FFFFFFFFFFFFFFFFFFFFFFFFFFFFFFFFFFFFFFFFFFFFFFFFFFFFFFFFFFFFFFFF
310
FFFFFFFFFFFFFFFFF000FFFFFFFFFFFFFFFFFFFFFFFFFFFFFFFFFFFFFFFFFFFF
310
FFFFFFFFFFFFFFFFFFFFFFFFFFFFFFFFFFFFFFFFFFFFFFFFFFFFFFFFFFFFFFFF
310
FFFFFFFFFFFFFFFFFFFFFFFFFFFFFFFFFFFFFFFFFFFFFFFFFFFFFFFFFFFFFFFF
310
F000FFFFFFFFFFFFFFFFFFFFFFFFFFFFFFFFFFFFFFFFFFFFFFFFFFFFFFFFFFFF
310
FFFFFFFFFFFFFFFFFFFFFFFFFFFFFFFFFFFFFFFFFFFFFFFFFFFFFFFFFFFFFFFF
310
FFFFFFFFFFFFFFFFFFFFFFFFFFFFFFFFFFFFFFFFFFFFFFFFF000FFFFFFFFFFFF
310
FFFFFFFFFFFFFFFFFFFFFFFFFFFFFFFFFFFFFFFFFFFFFFFFFFFFFFFFFFFFFFFF
310
FFFFFFFFFFFFFFFFFFFFFFFFFFFFFFFFFFFFFFFFFFFFFFFFFFFFFFFFFFFFFFFF
310
FFFFFFFFFFFFFFFFFFFFFFFFFFFFFFFFF000FFFFFFFFFFFFFFFFFFFFFFFFFFFF
310
FFFFFFFFFFFFFFFFFFFFFFFFFFFFFFFFFFFFFFFFFFFFFFFFFFFFFFFFFFFFFFFF
310
FFFFFFFFFFFFFFFFFFFFFFFFFFFFFFFFFFFFFFFFFFFFFFFFFFFFFFFFFFFFFFFF
310
FFFFFFFFFFFFFFFFF000FFFFFFFFFFFFFFFFFFFFFFFFFFFFFFFFFFFFFFFFFFFF
310
FFFFFFFFFFFFFFFFFFFFFFFFFFFFFFFFFFFFFFFFFFFFFFFFFFFFFFFFFFFFFFFF
310
FFFFFFFFFFFFFFFFFFFFFFFFFFFFFFFFFFFFFFFFFFFFFFFFFFFFFFFFFFFFFFFF
310
F000FFFFFFFFFFFFFFFFFFFFFFFFFFFFFFFFFFFFFFFFFFFFFFFFFFFFFFFFFFFF
310
FFFFFFFFFFFFFFFFFFFFFFFFFFFFFFFFFFFFFFFFFFFFFFFFFFFFFFFFFFFFFFFF
310
FFFFFFFFFFFFFFFFFFFFFFFFFFFFFFFFFFFFFFFFFFFFFFFFF000FFFFFFFFFFFF
310
FFFFFFFFFFFFFFFFFFFFFFFFFFFFFFFFFFFFFFFFFFFFFFFFFFFFFFFFFFFFFFFF
310
FFFFFFFFFFFFFFFFFFFFFFFFFFFFFFFFFFFFFFFFFFFFFFFFFFFFFFFFFFFFFFFF
310
FFFFFFFFFFFFFFFFFFFFFFFFFFFFFFFFF000FFFFFFFFFFFFFFFFFFFFFFFFFFFF
310
FFFFFFFFFFFFFFFFFFFFFFFFFFFFFFFFFFFFFFFFFFFFFFFFFFFFFFFFFFFFFFFF
310
FFFFFFFFFFFFFFFFFFFFFFFFFFFFFFFFFFFFFFFFFFFFFFFFFFFFFFFFFFFFFFFF
310
FFFFFFFFFFFFFFFFF000FFFFFFFFFFFFFFFFFFFFFFFFFFFFFFFFFFFFFFFFFFFF
310
FFFFFFFFFFFFFFFFFFFFFFFFFFFFFFFFFFFFFFFFFFFFFFFFFFFFFFFFFFFFFFFF
310
FFFFFFFFFFFFFFFFFFFFFFFFFFFFFFFFFFFFFFFFFFFFFFFFFFFFFFFFFFFFFFFF
310
F000FFFFFFFFFFFFFFFFFFFFFFFFFFFFFFFFFFFFFFFFFFFFFFFFFFFFFFFFFFFF
310
FFFFFFFFFFFFFFFFFFFFFFFFFFFFFFFFFFFFFFFFFFFFFFFFFFFFFFFFFFFFFFFF
310
FFFFFFFFFFFFFFFFFFFFFFFFFFFFFFFFFFFFFFFFFFFFFFFFF000FFFFFFFFFFFF
310
FFFFFFFFFFFFFFFFFFFFFFFFFFFFFFFFFFFFFFFFFFFFFFFFFFFFFFFFFFFFFFFF
310
FFFFFFFFFFFFFFFFFFFFFFFFFFFFFFFFFFFFFFFFFFFFFFFFFFFFFFFFFFFFFFFF
310
FFFFFFFFFFFFFFFFFFFFFFFFFFFFFFFFF000FFFFFFFFFFFFFFFFFFFFFFFFFFFF
310
FFFFFFFFFFFFFFFFFFFFFFFFFFFFFFFFFFFFFFFFFFFFFFFFFFFFFFFFFFFFFFFF
310
FFFFFFFFFFFFFFFFFFFFFFFFFFFFFFFFFFFFFFFFFFFFFFFFFFFFFFFFFFFFFFFF
310
FFFFFFFFFFFFFFFFF000FFFFFFFFFFFFFFFFFFFFFFFFFFFFFFFFFFFFFFFFFFFF
310
FFFFFFFFFFFFFFFFFFFFFFFFFFFFFFFFFFFFFFFFFFFFFFFFFFFFFFFFFFFFFFFF
310
FFFFFFFFFFFFFFFFFFFFFFFFFFFFFFFFFFFFFFFFFFFFFFFFFFFFFFFFFFFFFFFF
310
F000FFFFFFFFFFFFFFFFFFFFFFFFFFFFFFFFFFFFFFFFFFFFFFFFFFFFFFFFFFFF
310
FFFFFFFFFFFFFFFFFFFFFFFFFFFFFFFFFFFFFFFFFFFFFFFFFFFFFFFFFFFFFFFF
310
FFFFFFFFFFFFFFFFFFFFFFFFFFFFFFFFFFFFFFFFFFFFFFFFF000FFFFFFFFFFFF
310
FFFFFFFFFFFFFFFFFFFFFFFFFFFFFFFFFFFFFFFFFFFFFFFFFFFFFFFFFFFFFFFF
310
FFFFFFFFFFFFFFFFFFFFFFFFFFFFFFFFFFFFFFFFFFFFFFFFFFFFFFFFFFFFFFFF
310
FFFFFFFFFFFFFFFFFFFFFFFFFFFFFFFFF000FFFFFFFFFFFFFFFFFFFFFFFFFFFF
310
FFFFFFFFFFFFFFFFFFFFFFFFFFFFFFFFFFFFFFFFFFFFFFFFFFFFFFFFFFFFFFFF
310
FFFFFFFFFFFFFFFFFFFFFFFFFFFFFFFFFFFFFFFFFFFFFFFFFFFFFFFFFFFFFFFF
310
FFFFFFFFFFFFFFFFF000FFFFFFFFFFFFFFFFFFFFFFFFFFFFFFFFFFFFFFFFFFFF
310
FFFFFFFFFFFFFFFFFFFFFFFFFFFFFFFFFFFFFFFFFFFFFFFFFFFFFFFFFFFFFFFF
310
FFFFFFFFFFFFFFFFFFFFFFFFFFFFFFFFFFFFFFFFFFFFFFFFFFFFFFFFFFFFFFFF
310
F000FFFFFFFFFFFFFFFFFFFFFFFFFFFFFFFFFFFFFFFFFFFFFFFFFFFFFFFFFFFF
310
FFFFFFFFFFFFFFFFFFFFFFFFFFFFFFFFFFFFFFFFFFFFFFFFFFFFFFFFFFFFFFFF
310
FFFFFFFFFFFFFFFFFFFFFFFFFFFFFFFFFFFFFFFFFFFFFFFFF000FFFFFFFFFFFF
310
FFFFFFFFFFFFFFFFFFFFFFFFFFFFFFFFFFFFFFFFFFFFFFFFFFFFFFFFFFFFFFFF
310
FFFFFFFFFFFFFFFFFFFFFFFFFFFFFFFFFFFFFFFFFFFFFFFFFFFFFFFFFFFFFFFF
310
FFFFFFFFFFFFFFFFFFFFFFFFFFFFFFFFF0000000000000000000000000000000
310
0000000016520D3E5C7DFD3D2719083E9F44283ED56AE63D8CC1273EB064E53D
310
8CC1273E85DDCE3D9F44283E60D7CD3D9854113EB064E53DD487103E1DBBE23D
310
D487103E1887D13D9854113E85DDCE3D9854113E85DDCE3D8CC1273E85DDCE3D
310
8CC1273EB064E53D9854113EB064E53D657DE93D94D0A83DA099E83DBFCBA93D
310
773DD93DD5A8AA3D8840D83DAAADA93D7740D83D454A053E763DD93DACCC043E
310
9F99E83D373B053E737DE93DD1B8053ECEFF0F3E1887D13DD487103E1887D13D
310
D487103E1DBBE23DCEFF0F3E1DBBE23D9F99E83D00CCA93D9F99E83DEF4BB13D
310
763DD93D532CB13D763DD93D00A9AA3D9F99E83D237B013E9F99E83D243B053E
310
763DD93DA2CC043E763DD93DF18A013EC9ED1B3E00F2FC3DEEF31C3E4DC3FB3D
310
A612223E4DC3FB3DCB18233E00F2FC3DCB18233E3550B73DA612223EE87EB83D
310
EEF31C3EE87EB83DC9ED1B3E3550B73DEEF31C3E4DC3FB3DEEF31C3EB28FEC3D
310
A612223EB28FEC3DA612223E4DC3FB3DEEF31C3EB28FEC3D4A831F3E227CE93D
310
4A831F3E227CE93DA612223EB28FEC3DA612223EE87EB83DA612223E83B2C73D
310
EEF31C3E83B2C73DEEF31C3EE87EB83DA612223E83B2C73D4A831F3E12C6CA3D
310
4A831F3E12C6CA3DEEF31C3E83B2C73DB1C7283E1D0AF23DB1C7283E9F20EB3D
  1
OLE
  0
ENDSEC
  0
SECTION
  2
OBJECTS
  0
DICTIONARY
  5
C
330
0
100
AcDbDictionary
281
     1
  3
ACAD_GROUP
350
D
  3
ACAD_LAYOUT
350
1A
  3
ACAD_MLEADERSTYLE
350
241
  3
ACAD_MLINESTYLE
350
17
  3
ACAD_PLOTSETTINGS
350
19
  3
ACAD_PLOTSTYLENAME
350
E
  3
ACAD_TABLESTYLE
350
240
  3
ACAD_VISUALSTYLE
350
2A
  3
AcDbVariableDictionary
350
242
  0
DICTIONARY
  5
D
102
{ACAD_REACTORS
330
C
102
}
330
C
100
AcDbDictionary
281
     1
  0
DICTIONARY
  5
1A
102
{ACAD_REACTORS
330
C
102
}
330
C
100
AcDbDictionary
281
     1
  3
Layout1
350
1E
  3
Layout2
350
26
  3
Model
350
22
  0
DICTIONARY
  5
241
102
{ACAD_REACTORS
330
C
102
}
330
C
100
AcDbDictionary
281
     1
  0
DICTIONARY
  5
17
102
{ACAD_REACTORS
330
C
102
}
330
C
100
AcDbDictionary
281
     1
  3
Standard
350
18
  0
DICTIONARY
  5
19
102
{ACAD_REACTORS
330
C
102
}
330
C
100
AcDbDictionary
281
     1
  0
ACDBDICTIONARYWDFLT
  5
E
102
{ACAD_REACTORS
330
C
102
}
330
C
100
AcDbDictionary
281
     1
  3
Normal
350
F
100
AcDbDictionaryWithDefault
340
F
  0
DICTIONARY
  5
240
102
{ACAD_REACTORS
330
C
102
}
330
C
100
AcDbDictionary
281
     1
  0
DICTIONARY
  5
2A
102
{ACAD_REACTORS
330
C
102
}
330
C
100
AcDbDictionary
281
     1
  3
2dWireframe
350
2F
  3
3D Hidden
350
31
  3
3dWireframe
350
30
  3
Basic
350
32
  3
Brighten
350
36
  3
ColorChange
350
3A
  3
Conceptual
350
34
  3
Dim
350
35
  3
Facepattern
350
39
  3
Flat
350
2B
  3
FlatWithEdges
350
2C
  3
Gouraud
350
2D
  3
GouraudWithEdges
350
2E
  3
Linepattern
350
38
  3
Realistic
350
33
  3
Thicken
350
37
  0
DICTIONARY
  5
242
102
{ACAD_REACTORS
330
C
102
}
330
C
100
AcDbDictionary
281
     1
  3
PSOLHEIGHT
350
244
  3
PSOLWIDTH
350
243
  0
LAYOUT
  5
1E
102
{ACAD_REACTORS
330
1A
102
}
330
1A
100
AcDbPlotSettings
  1

  2
none_device
  4

  6

 40
0.0
 41
0.0
 42
0.0
 43
0.0
 44
0.0
 45
0.0
 46
0.0
 47
0.0
 48
0.0
 49
0.0
140
0.0
141
0.0
142
1.0
143
1.0
 70
   688
 72
     0
 73
     0
 74
     5
  7

 75
    16
147
1.0
148
0.0
149
0.0
100
AcDbLayout
  1
Layout1
 70
     1
 71
     1
 10
0.0
 20
0.0
 11
420.0
 21
297.0
 12
0.0
 22
0.0
 32
0.0
 14
1.0000000000E+20
 24
1.0000000000E+20
 34
1.0000000000E+20
 15
-1.0000000000E+20
 25
-1.0000000000E+20
 35
-1.0000000000E+20
146
0.0
 13
0.0
 23
0.0
 33
0.0
 16
1.0
 26
0.0
 36
0.0
 17
0.0
 27
1.0
 37
0.0
 76
     0
330
1B
  0
LAYOUT
  5
26
102
{ACAD_REACTORS
330
1A
102
}
330
1A
100
AcDbPlotSettings
  1

  2
none_device
  4

  6

 40
0.0
 41
0.0
 42
0.0
 43
0.0
 44
0.0
 45
0.0
 46
0.0
 47
0.0
 48
0.0
 49
0.0
140
0.0
141
0.0
142
1.0
143
1.0
 70
   688
 72
     0
 73
     0
 74
     5
  7

 75
    16
147
1.0
148
0.0
149
0.0
100
AcDbLayout
  1
Layout2
 70
     1
 71
     2
 10
0.0
 20
0.0
 11
0.0
 21
0.0
 12
0.0
 22
0.0
 32
0.0
 14
0.0
 24
0.0
 34
0.0
 15
0.0
 25
0.0
 35
0.0
146
0.0
 13
0.0
 23
0.0
 33
0.0
 16
1.0
 26
0.0
 36
0.0
 17
0.0
 27
1.0
 37
0.0
 76
     0
330
23
  0
LAYOUT
  5
22
102
{ACAD_REACTORS
330
1A
102
}
330
1A
100
AcDbPlotSettings
  1

  2
none_device
  4

  6

 40
0.0
 41
0.0
 42
0.0
 43
0.0
 44
0.0
 45
0.0
 46
0.0
 47
0.0
 48
0.0
 49
0.0
140
0.0
141
0.0
142
1.0
143
1.0
 70
  1712
 72
     0
 73
     0
 74
     0
  7

 75
     0
147
1.0
148
0.0
149
0.0
100
AcDbLayout
  1
Model
 70
     1
 71
     0
 10
0.0
 20
0.0
 11
297.0
 21
210.0
 12
0.0
 22
0.0
 32
0.0
 14
0.0
 24
0.0
 34
0.0
 15
297.0
 25
210.0
 35
0.0
146
0.0
 13
0.0
 23
0.0
 33
0.0
 16
1.0
 26
0.0
 36
0.0
 17
0.0
 27
1.0
 37
0.0
 76
     0
330
1F
331
29
  0
MLINESTYLE
  5
18
102
{ACAD_REACTORS
330
17
102
}
330
17
100
AcDbMlineStyle
  2
Standard
 70
     0
  3

 62
   256
 51
90.0
 52
90.0
 71
     2
 49
0.5
 62
   256
  6
BYLAYER
 49
-0.5
 62
   256
  6
BYLAYER
  0
ACDBPLACEHOLDER
  5
F
102
{ACAD_REACTORS
330
E
102
}
330
E
  0
VISUALSTYLE
  5
2F
102
{ACAD_REACTORS
330
2A
102
}
330
2A
100
AcDbVisualStyle
  2
2dWireframe
 70
     4
 71
     0
 72
     2
 73
     0
 90
        0
 40
-0.6
 41
-30.0
 62
     5
 63
     7
 74
     1
 91
        4
 64
     7
 65
   257
 75
     1
175
     1
 42
1.0
 92
        0
 66
   257
 43
1.0
 76
     1
 77
     6
 78
     2
 67
     7
 79
     5
170
     0
171
     0
290
     0
174
     0
 93
        1
 44
0.0
173
     0
291
     0
 45
0.0
1001
ACAD
1000
AcDbSavedByObjectVersion
1070
     0
  0
VISUALSTYLE
  5
31
102
{ACAD_REACTORS
330
2A
102
}
330
2A
100
AcDbVisualStyle
  2
3D Hidden
 70
     6
 71
     1
 72
     2
 73
     2
 90
        0
 40
-0.6
 41
-30.0
 62
     5
 63
     7
 74
     2
 91
        2
 64
     7
 65
   257
 75
     2
175
     1
 42
40.0
 92
        0
 66
   257
 43
1.0
 76
     1
 77
     6
 78
     2
 67
     7
 79
     3
170
     0
171
     0
290
     0
174
     0
 93
        1
 44
0.0
173
     0
291
     0
 45
0.0
1001
ACAD
1000
AcDbSavedByObjectVersion
1070
     0
  0
VISUALSTYLE
  5
30
102
{ACAD_REACTORS
330
2A
102
}
330
2A
100
AcDbVisualStyle
  2
3dWireframe
 70
     5
 71
     0
 72
     2
 73
     0
 90
        0
 40
-0.6
 41
-30.0
 62
     5
 63
     7
 74
     1
 91
        4
 64
     7
 65
   257
 75
     1
175
     1
 42
1.0
 92
        0
 66
   257
 43
1.0
 76
     1
 77
     6
 78
     2
 67
     7
 79
     5
170
     0
171
     0
290
     0
174
     0
 93
        1
 44
0.0
173
     0
291
     0
 45
0.0
1001
ACAD
1000
AcDbSavedByObjectVersion
1070
     0
  0
VISUALSTYLE
  5
32
102
{ACAD_REACTORS
330
2A
102
}
330
2A
100
AcDbVisualStyle
  2
Basic
 70
     7
 71
     1
 72
     0
 73
     1
 90
        0
 40
-0.6
 41
-30.0
 62
     5
 63
     7
 74
     0
 91
        4
 64
     7
 65
   257
 75
     1
175
     1
 42
1.0
 92
        8
 66
     7
 43
1.0
 76
     1
 77
     6
 78
     2
 67
     7
 79
     5
170
     0
171
     0
290
     0
174
     0
 93
        1
 44
0.0
173
     0
291
     1
 45
0.0
1001
ACAD
1000
AcDbSavedByObjectVersion
1070
     0
  0
VISUALSTYLE
  5
36
102
{ACAD_REACTORS
330
2A
102
}
330
2A
100
AcDbVisualStyle
  2
Brighten
 70
    12
 71
     2
 72
     2
 73
     0
 90
        0
 40
-0.6
 41
-30.0
 62
     5
 63
     7
 74
     1
 91
        4
 64
     7
 65
   257
 75
     1
175
     1
 42
1.0
 92
        8
 66
     7
 43
1.0
 76
     1
 77
     6
 78
     2
 67
     7
 79
     5
170
     0
171
     0
290
     0
174
     0
 93
        1
 44
50.0
173
     0
291
     1
 45
0.0
1001
ACAD
1000
AcDbSavedByObjectVersion
1070
     0
  0
VISUALSTYLE
  5
3A
102
{ACAD_REACTORS
330
2A
102
}
330
2A
100
AcDbVisualStyle
  2
ColorChange
 70
    16
 71
     2
 72
     2
 73
     3
 90
        0
 40
-0.6
 41
-30.0
 62
     5
 63
     8
 74
     1
 91
        4
 64
     7
 65
   257
 75
     1
175
     1
 42
1.0
 92
        8
 66
     8
 43
1.0
 76
     1
 77
     6
 78
     2
 67
     7
 79
     5
170
     0
171
     0
290
     0
174
     0
 93
        1
 44
0.0
173
     0
291
     1
 45
0.0
1001
ACAD
1000
AcDbSavedByObjectVersion
1070
     0
  0
VISUALSTYLE
  5
34
102
{ACAD_REACTORS
330
2A
102
}
330
2A
100
AcDbVisualStyle
  2
Conceptual
 70
     9
 71
     3
 72
     2
 73
     0
 90
        0
 40
-0.6
 41
-30.0
 62
     5
 63
     7
 74
     2
 91
        2
 64
     7
 65
   257
 75
     1
175
     1
 42
40.0
 92
        8
 66
     7
 43
1.0
 76
     1
 77
     6
 78
     2
 67
     7
 79
     3
170
     0
171
     0
290
     0
174
     0
 93
        1
 44
0.0
173
     0
291
     0
 45
0.0
1001
ACAD
1000
AcDbSavedByObjectVersion
1070
     0
  0
VISUALSTYLE
  5
35
102
{ACAD_REACTORS
330
2A
102
}
330
2A
100
AcDbVisualStyle
  2
Dim
 70
    11
 71
     2
 72
     2
 73
     0
 90
        0
 40
-0.6
 41
-30.0
 62
     5
 63
     7
 74
     1
 91
        4
 64
     7
 65
   257
 75
     1
175
     1
 42
1.0
 92
        8
 66
     7
 43
1.0
 76
     1
 77
     6
 78
     2
 67
     7
 79
     5
170
     0
171
     0
290
     0
174
     0
 93
        1
 44
-50.0
173
     0
291
     1
 45
0.0
1001
ACAD
1000
AcDbSavedByObjectVersion
1070
     0
  0
VISUALSTYLE
  5
39
102
{ACAD_REACTORS
330
2A
102
}
330
2A
100
AcDbVisualStyle
  2
Facepattern
 70
    15
 71
     2
 72
     2
 73
     0
 90
        0
 40
-0.6
 41
-30.0
 62
     5
 63
     7
 74
     1
 91
        4
 64
     7
 65
   257
 75
     1
175
     1
 42
1.0
 92
        8
 66
     7
 43
1.0
 76
     1
 77
     6
 78
     2
 67
     7
 79
     5
170
     0
171
     0
290
     0
174
     0
 93
        1
 44
0.0
173
     0
291
     1
 45
0.0
1001
ACAD
1000
AcDbSavedByObjectVersion
1070
     0
  0
VISUALSTYLE
  5
2B
102
{ACAD_REACTORS
330
2A
102
}
330
2A
100
AcDbVisualStyle
  2
Flat
 70
     0
 71
     2
 72
     1
 73
     1
 90
        2
 40
-0.6
 41
30.0
 62
     5
 63
     7
 74
     0
 91
        4
 64
     7
 65
   257
 75
     1
175
     1
 42
1.0
 92
        8
 66
     7
 43
1.0
 76
     1
 77
     6
 78
     2
 67
     7
 79
     5
170
     0
171
     0
290
     0
174
     0
 93
       13
 44
0.0
173
     0
291
     1
 45
0.0
1001
ACAD
1000
AcDbSavedByObjectVersion
1070
     0
  0
VISUALSTYLE
  5
2C
102
{ACAD_REACTORS
330
2A
102
}
330
2A
100
AcDbVisualStyle
  2
FlatWithEdges
 70
     1
 71
     2
 72
     1
 73
     1
 90
        2
 40
-0.6
 41
30.0
 62
     5
 63
     7
 74
     1
 91
        4
 64
     7
 65
   257
 75
     1
175
     1
 42
1.0
 92
        0
 66
   257
 43
1.0
 76
     1
 77
     6
 78
     2
 67
     7
 79
     5
170
     0
171
     0
290
     0
174
     0
 93
       13
 44
0.0
173
     0
291
     1
 45
0.0
1001
ACAD
1000
AcDbSavedByObjectVersion
1070
     0
  0
VISUALSTYLE
  5
2D
102
{ACAD_REACTORS
330
2A
102
}
330
2A
100
AcDbVisualStyle
  2
Gouraud
 70
     2
 71
     2
 72
     2
 73
     1
 90
        2
 40
-0.6
 41
30.0
 62
     5
 63
     7
 74
     0
 91
        4
 64
     7
 65
   257
 75
     1
175
     1
 42
1.0
 92
        0
 66
     7
 43
1.0
 76
     1
 77
     6
 78
     2
 67
     7
 79
     5
170
     0
171
     0
290
     0
174
     0
 93
       13
 44
0.0
173
     0
291
     1
 45
0.0
1001
ACAD
1000
AcDbSavedByObjectVersion
1070
     0
  0
VISUALSTYLE
  5
2E
102
{ACAD_REACTORS
330
2A
102
}
330
2A
100
AcDbVisualStyle
  2
GouraudWithEdges
 70
     3
 71
     2
 72
     2
 73
     1
 90
        2
 40
-0.6
 41
30.0
 62
     5
 63
     7
 74
     1
 91
        4
 64
     7
 65
   257
 75
     1
175
     1
 42
1.0
 92
        0
 66
   257
 43
1.0
 76
     1
 77
     6
 78
     2
 67
     7
 79
     5
170
     0
171
     0
290
     0
174
     0
 93
       13
 44
0.0
173
     0
291
     1
 45
0.0
1001
ACAD
1000
AcDbSavedByObjectVersion
1070
     0
  0
VISUALSTYLE
  5
38
102
{ACAD_REACTORS
330
2A
102
}
330
2A
100
AcDbVisualStyle
  2
Linepattern
 70
    14
 71
     2
 72
     2
 73
     0
 90
        0
 40
-0.6
 41
-30.0
 62
     5
 63
     7
 74
     1
 91
        4
 64
     7
 65
   257
 75
     7
175
     7
 42
1.0
 92
        8
 66
     7
 43
1.0
 76
     1
 77
     6
 78
     2
 67
     7
 79
     5
170
     0
171
     0
290
     0
174
     0
 93
        1
 44
0.0
173
     0
291
     1
 45
0.0
1001
ACAD
1000
AcDbSavedByObjectVersion
1070
     0
  0
VISUALSTYLE
  5
33
102
{ACAD_REACTORS
330
2A
102
}
330
2A
100
AcDbVisualStyle
  2
Realistic
 70
     8
 71
     2
 72
     2
 73
     0
 90
        0
 40
-0.6
 41
-30.0
 62
     5
 63
     7
 74
     1
 91
        0
 64
     7
 65
   257
 75
     1
175
     1
 42
1.0
 92
        8
 66
     8
 43
1.0
 76
     1
 77
     6
 78
     2
 67
     7
 79
     5
170
     0
171
     0
290
     0
174
     0
 93
       13
 44
0.0
173
     0
291
     0
 45
0.0
1001
ACAD
1000
AcDbSavedByObjectVersion
1070
     0
  0
VISUALSTYLE
  5
37
102
{ACAD_REACTORS
330
2A
102
}
330
2A
100
AcDbVisualStyle
  2
Thicken
 70
    13
 71
     2
 72
     2
 73
     0
 90
        0
 40
-0.6
 41
-30.0
 62
     5
 63
     7
 74
     1
 91
        4
 64
     7
 65
   257
 75
     1
175
     1
 42
1.0
 92
       12
 66
     7
 43
1.0
 76
     1
 77
     6
 78
     2
 67
     7
 79
     5
170
     0
171
     0
290
     0
174
     0
 93
        1
 44
0.0
173
     0
291
     1
 45
0.0
1001
ACAD
1000
AcDbSavedByObjectVersion
1070
     0
  0
DICTIONARYVAR
  5
244
102
{ACAD_REACTORS
330
242
102
}
330
242
100
DictionaryVariables
280
     0
  1
80.000000
  0
DICTIONARYVAR
  5
243
102
{ACAD_REACTORS
330
242
102
}
330
242
100
DictionaryVariables
280
     0
  1
5.000000
  0
ENDSEC
  0
EOF
