  0
SECTION
  2
HEADER
  9
$ACADVER
  1
AC1015
  9
$ACADMAINTVER
 70
     6
  9
$DWGCODEPAGE
  3
ANSI_1252
  9
$INSBASE
 10
0.0
 20
0.0
 30
0.0
  9
$EXTMIN
 10
0.0
 20
0.0
 30
0.0
  9
$EXTMAX
 10
297.0
 20
210.0
 30
0.0
  9
$LIMMIN
 10
0.0
 20
0.0
  9
$LIMMAX
 10
297.0
 20
210.0
  9
$ORTHOMODE
 70
     0
  9
$REGENMODE
 70
     1
  9
$FILLMODE
 70
     1
  9
$QTEXTMODE
 70
     0
  9
$MIRRTEXT
 70
     1
  9
$LTSCALE
 40
1.0
  9
$ATTMODE
 70
     1
  9
$TEXTSIZE
 40
2.0
  9
$TRACEWID
 40
1.0
  9
$TEXTSTYLE
  7
Standard
  9
$CLAYER
  8
0
  9
$CELTYPE
  6
ByLayer
  9
$CECOLOR
 62
   256
  9
$CELTSCALE
 40
1.0
  9
$DISPSILH
 70
     0
  9
$DIMSCALE
 40
1.0
  9
$DIMASZ
 40
3.0
  9
$DIMEXO
 40
0.0
  9
$DIMDLI
 40
3.75
  9
$DIMRND
 40
0.0
  9
$DIMDLE
 40
0.0
  9
$DIMEXE
 40
1.0
  9
$DIMTP
 40
0.0
  9
$DIMTM
 40
0.0
  9
$DIMTXT
 40
2.0
  9
$DIMCEN
 40
2.5
  9
$DIMTSZ
 40
0.0
  9
$DIMTOL
 70
     0
  9
$DIMLIM
 70
     0
  9
$DIMTIH
 70
     1
  9
$DIMTOH
 70
     1
  9
$DIMSE1
 70
     0
  9
$DIMSE2
 70
     0
  9
$DIMTAD
 70
     1
  9
$DIMZIN
 70
     0
  9
$DIMBLK
  1

  9
$DIMASO
 70
     1
  9
$DIMSHO
 70
     1
  9
$DIMPOST
  1

  9
$DIMAPOST
  1

  9
$DIMALT
 70
     0
  9
$DIMALTD
 70
     3
  9
$DIMALTF
 40
0.0393700787
  9
$DIMLFAC
 40
1.0
  9
$DIMTOFL
 70
     1
  9
$DIMTVP
 40
0.0
  9
$DIMTIX
 70
     0
  9
$DIMSOXD
 70
     0
  9
$DIMSAH
 70
     0
  9
$DIMBLK1
  1

  9
$DIMBLK2
  1

  9
$DIMSTYLE
  2
ISO-25
  9
$DIMCLRD
 70
     0
  9
$DIMCLRE
 70
     0
  9
$DIMCLRT
 70
     0
  9
$DIMTFAC
 40
1.0
  9
$DIMGAP
 40
1.524
  9
$DIMJUST
 70
     0
  9
$DIMSD1
 70
     0
  9
$DIMSD2
 70
     0
  9
$DIMTOLJ
 70
     0
  9
$DIMTZIN
 70
     0
  9
$DIMALTZ
 70
     0
  9
$DIMALTTZ
 70
     0
  9
$DIMUPT
 70
     0
  9
$DIMDEC
 70
     2
  9
$DIMTDEC
 70
     3
  9
$DIMALTU
 70
     2
  9
$DIMALTTD
 70
     3
  9
$DIMTXSTY
  7
Standard
  9
$DIMAUNIT
 70
     0
  9
$DIMADEC
 70
     2
  9
$DIMALTRND
 40
0.0
  9
$DIMAZIN
 70
     0
  9
$DIMDSEP
 70
    44
  9
$DIMATFIT
 70
     3
  9
$DIMFRAC
 70
     0
  9
$DIMLDRBLK
  1

  9
$DIMLUNIT
 70
     2
  9
$DIMLWD
 70
    -2
  9
$DIMLWE
 70
    -2
  9
$DIMTMOVE
 70
     0
  9
$LUNITS
 70
     2
  9
$LUPREC
 70
     2
  9
$SKETCHINC
 40
1.0
  9
$FILLETRAD
 40
10.0
  9
$AUNITS
 70
     0
  9
$AUPREC
 70
     2
  9
$MENU
  1
.
  9
$ELEVATION
 40
0.0
  9
$PELEVATION
 40
0.0
  9
$THICKNESS
 40
0.0
  9
$LIMCHECK
 70
     0
  9
$CHAMFERA
 40
10.0
  9
$CHAMFERB
 40
10.0
  9
$CHAMFERC
 40
20.0
  9
$CHAMFERD
 40
0.0
  9
$SKPOLY
 70
     0
  9
$TDCREATE
 40
2455679.519635405
  9
$TDUCREATE
 40
2455679.436302072
  9
$TDUPDATE
 40
2455679.519635417
  9
$TDUUPDATE
 40
2455679.436302084
  9
$TDINDWG
 40
0.0000000116
  9
$TDUSRTIMER
 40
0.0000000116
  9
$USRTIMER
 70
     1
  9
$ANGBASE
 50
0.0
  9
$ANGDIR
 70
     0
  9
$PDMODE
 70
     0
  9
$PDSIZE
 40
-1.0
  9
$PLINEWID
 40
0.0
  9
$SPLFRAME
 70
     0
  9
$SPLINETYPE
 70
     6
  9
$SPLINESEGS
 70
     8
  9
$HANDSEED
  5
239
  9
$SURFTAB1
 70
     6
  9
$SURFTAB2
 70
     6
  9
$SURFTYPE
 70
     6
  9
$SURFU
 70
     6
  9
$SURFV
 70
     6
  9
$UCSBASE
  2

  9
$UCSNAME
  2

  9
$UCSORG
 10
0.0
 20
0.0
 30
0.0
  9
$UCSXDIR
 10
1.0
 20
0.0
 30
0.0
  9
$UCSYDIR
 10
0.0
 20
1.0
 30
0.0
  9
$UCSORTHOREF
  2

  9
$UCSORTHOVIEW
 70
     0
  9
$UCSORGTOP
 10
0.0
 20
0.0
 30
0.0
  9
$UCSORGBOTTOM
 10
0.0
 20
0.0
 30
0.0
  9
$UCSORGLEFT
 10
0.0
 20
0.0
 30
0.0
  9
$UCSORGRIGHT
 10
0.0
 20
0.0
 30
0.0
  9
$UCSORGFRONT
 10
0.0
 20
0.0
 30
0.0
  9
$UCSORGBACK
 10
0.0
 20
0.0
 30
0.0
  9
$PUCSBASE
  2

  9
$PUCSNAME
  2

  9
$PUCSORG
 10
0.0
 20
0.0
 30
0.0
  9
$PUCSXDIR
 10
1.0
 20
0.0
 30
0.0
  9
$PUCSYDIR
 10
0.0
 20
1.0
 30
0.0
  9
$PUCSORTHOREF
  2

  9
$PUCSORTHOVIEW
 70
     0
  9
$PUCSORGTOP
 10
0.0
 20
0.0
 30
0.0
  9
$PUCSORGBOTTOM
 10
0.0
 20
0.0
 30
0.0
  9
$PUCSORGLEFT
 10
0.0
 20
0.0
 30
0.0
  9
$PUCSORGRIGHT
 10
0.0
 20
0.0
 30
0.0
  9
$PUCSORGFRONT
 10
0.0
 20
0.0
 30
0.0
  9
$PUCSORGBACK
 10
0.0
 20
0.0
 30
0.0
  9
$USERI1
 70
     0
  9
$USERI2
 70
     0
  9
$USERI3
 70
     0
  9
$USERI4
 70
     0
  9
$USERI5
 70
     0
  9
$USERR1
 40
0.0
  9
$USERR2
 40
0.0
  9
$USERR3
 40
0.0
  9
$USERR4
 40
0.0
  9
$USERR5
 40
0.0
  9
$WORLDVIEW
 70
     1
  9
$SHADEDGE
 70
     3
  9
$SHADEDIF
 70
    70
  9
$TILEMODE
 70
     1
  9
$MAXACTVP
 70
    64
  9
$PINSBASE
 10
0.0
 20
0.0
 30
0.0
  9
$PLIMCHECK
 70
     0
  9
$PEXTMIN
 10
1.0000000000E+20
 20
1.0000000000E+20
 30
1.0000000000E+20
  9
$PEXTMAX
 10
-1.0000000000E+20
 20
-1.0000000000E+20
 30
-1.0000000000E+20
  9
$PLIMMIN
 10
0.0
 20
0.0
  9
$PLIMMAX
 10
420.0
 20
297.0
  9
$UNITMODE
 70
     0
  9
$VISRETAIN
 70
     1
  9
$PLINEGEN
 70
     0
  9
$PSLTSCALE
 70
     1
  9
$TREEDEPTH
 70
  3020
  9
$CMLSTYLE
  2
Standard
  9
$CMLJUST
 70
     0
  9
$CMLSCALE
 40
20.0
  9
$PROXYGRAPHICS
 70
     1
  9
$MEASUREMENT
 70
     1
  9
$CELWEIGHT
370
    -1
  9
$ENDCAPS
280
     0
  9
$JOINSTYLE
280
     0
  9
$LWDISPLAY
290
     1
  9
$INSUNITS
 70
     4
  9
$HYPERLINKBASE
  1

  9
$STYLESHEET
  1

  9
$XEDIT
290
     1
  9
$CEPSNTYPE
380
     0
  9
$PSTYLEMODE
290
     1
  9
$FINGERPRINTGUID
  2
{8A8A2E9D-3B5A-460E-94B9-1931B660F225}
  9
$VERSIONGUID
  2
{FAEB1C32-E019-11D5-929B-00C0DF256EC4}
  9
$EXTNAMES
290
     1
  9
$PSVPSCALE
 40
0.0
  9
$OLESTARTUP
290
     0
  0
ENDSEC
  0
SECTION
  2
CLASSES
  0
CLASS
  1
ACDBDICTIONARYWDFLT
  2
AcDbDictionaryWithDefault
  3
ObjectDBX Classes
 90
        0
280
     0
281
     0
  0
CLASS
  1
VISUALSTYLE
  2
AcDbVisualStyle
  3
ObjectDBX Classes
 90
     4095
280
     0
281
     0
  0
CLASS
  1
DICTIONARYVAR
  2
AcDbDictionaryVar
  3
ObjectDBX Classes
 90
        0
280
     0
281
     0
  0
CLASS
  1
ACDBPLACEHOLDER
  2
AcDbPlaceHolder
  3
ObjectDBX Classes
 90
        0
280
     0
281
     0
  0
CLASS
  1
LAYOUT
  2
AcDbLayout
  3
ObjectDBX Classes
 90
        0
280
     0
281
     0
  0
ENDSEC
  0
SECTION
  2
TABLES
  0
TABLE
  2
VPORT
  5
8
330
0
100
AcDbSymbolTable
 70
     1
  0
VPORT
  5
29
330
8
100
AcDbSymbolTableRecord
100
AcDbViewportTableRecord
  2
*Active
 70
     0
 10
0.0
 20
0.0
 11
1.0
 21
1.0
 12
148.5
 22
105.0
 13
0.0
 23
0.0
 14
10.0
 24
10.0
 15
10.0
 25
10.0
 16
0.0
 26
0.0
 36
1.0
 17
0.0
 27
0.0
 37
0.0
 40
210.0
 41
1.4142857143
 42
50.0
 43
0.0
 44
0.0
 50
0.0
 51
0.0
 71
     0
 72
  2000
 73
     1
 74
     3
 75
     0
 76
     0
 77
     0
 78
     0
281
     0
 65
     1
110
0.0
120
0.0
130
0.0
111
1.0
121
0.0
131
0.0
112
0.0
122
1.0
132
0.0
 79
     0
146
0.0
  0
ENDTAB
  0
TABLE
  2
LTYPE
  5
5
330
0
100
AcDbSymbolTable
 70
     6
  0
LTYPE
  5
14
330
5
100
AcDbSymbolTableRecord
100
AcDbLinetypeTableRecord
  2
ByBlock
 70
     0
  3

 72
    65
 73
     0
 40
0.0
  0
LTYPE
  5
15
330
5
100
AcDbSymbolTableRecord
100
AcDbLinetypeTableRecord
  2
ByLayer
 70
     0
  3

 72
    65
 73
     0
 40
0.0
  0
LTYPE
  5
16
330
5
100
AcDbSymbolTableRecord
100
AcDbLinetypeTableRecord
  2
Continuous
 70
     0
  3
Solid line
 72
    65
 73
     0
 40
0.0
  0
LTYPE
  5
3B
330
5
100
AcDbSymbolTableRecord
100
AcDbLinetypeTableRecord
  2
HIDDEN
 70
     0
  3
Hidden __ __ __ __ __ __ __ __ __ __ __ __ __ __
 72
    65
 73
     2
 40
1.905
 49
1.27
 74
     0
 49
-0.635
 74
     0
  0
LTYPE
  5
3C
330
5
100
AcDbSymbolTableRecord
100
AcDbLinetypeTableRecord
  2
PHANTOM
 70
     0
  3
Phantom ______  __  __  ______  __  __  ______
 72
    65
 73
     6
 40
12.7
 49
6.35
 74
     0
 49
-1.27
 74
     0
 49
1.27
 74
     0
 49
-1.27
 74
     0
 49
1.27
 74
     0
 49
-1.27
 74
     0
  0
LTYPE
  5
3D
330
5
100
AcDbSymbolTableRecord
100
AcDbLinetypeTableRecord
  2
CENTER
 70
     0
  3
Center ____ _ ____ _ ____ _ ____ _ ____ _ ____
 72
    65
 73
     4
 40
10.16
 49
6.35
 74
     0
 49
-1.27
 74
     0
 49
1.27
 74
     0
 49
-1.27
 74
     0
  0
LTYPE
  5
3E
330
5
100
AcDbSymbolTableRecord
100
AcDbLinetypeTableRecord
  2
CENTERX2
 70
     0
  3
Center (2x) ________  __  ________  __  _____
 72
    65
 73
     4
 40
20.32
 49
12.7
 74
     0
 49
-2.54
 74
     0
 49
2.54
 74
     0
 49
-2.54
 74
     0
  0
LTYPE
  5
3F
330
5
100
AcDbSymbolTableRecord
100
AcDbLinetypeTableRecord
  2
DOT2
 70
     0
  3
Dot (.5x) ........................................
 72
    65
 73
     2
 40
0.635
 49
0.0
 74
     0
 49
-0.635
 74
     0
  0
ENDTAB
  0
TABLE
  2
LAYER
  5
2
330
0
100
AcDbSymbolTable
 70
     5
  0
LAYER
  5
10
330
2
100
AcDbSymbolTableRecord
100
AcDbLayerTableRecord
  2
0
 70
     0
 62
     7
  6
Continuous
370
    -3
390
F
  0
LAYER
  5
40
330
2
100
AcDbSymbolTableRecord
100
AcDbLayerTableRecord
  2
FORMAT
 70
     0
 62
     7
  6
Continuous
370
    -3
390
F
  0
LAYER
  5
41
330
2
100
AcDbSymbolTableRecord
100
AcDbLayerTableRecord
  2
VERMASSUNG
 70
     0
 62
     7
  6
Continuous
370
    -3
390
F
  0
LAYER
  5
42
330
2
100
AcDbSymbolTableRecord
100
AcDbLayerTableRecord
  2
KOPF_DÜNN
 70
     0
 62
     7
  6
Continuous
370
    -3
390
F
  0
LAYER
  5
43
330
2
100
AcDbSymbolTableRecord
100
AcDbLayerTableRecord
  2
KOPF_DICK
 70
     0
 62
     7
  6
Continuous
370
    15
390
F
  0
ENDTAB
  0
TABLE
  2
STYLE
  5
3
330
0
100
AcDbSymbolTable
 70
     3
  0
STYLE
  5
11
330
3
100
AcDbSymbolTableRecord
100
AcDbTextStyleTableRecord
  2
Standard
 70
     0
 40
0.0
 41
1.0
 50
0.0
 71
     0
 42
2.5
  3
txt
  4

  0
STYLE
  5
44
330
3
100
AcDbSymbolTableRecord
100
AcDbTextStyleTableRecord
  2
SLDTEXTSTYLE0
 70
     0
 40
0.0
 41
0.7
 50
0.0
 71
     0
 42
0.2
  3
TXT
  4

  0
STYLE
  5
48
330
3
100
AcDbSymbolTableRecord
100
AcDbTextStyleTableRecord
  2
SLDTEXTSTYLE1
 70
     0
 40
0.0
 41
0.6473684211
 50
0.0
 71
     0
 42
0.2
  3
TXT
  4

  0
ENDTAB
  0
TABLE
  2
VIEW
  5
6
330
0
100
AcDbSymbolTable
 70
     0
  0
ENDTAB
  0
TABLE
  2
UCS
  5
7
330
0
100
AcDbSymbolTable
 70
     0
  0
ENDTAB
  0
TABLE
  2
APPID
  5
9
330
0
100
AcDbSymbolTable
 70
     1
  0
APPID
  5
12
330
9
100
AcDbSymbolTableRecord
100
AcDbRegAppTableRecord
  2
ACAD
 70
     0
  0
ENDTAB
  0
TABLE
  2
DIMSTYLE
  5
A
330
0
100
AcDbSymbolTable
 70
     5
100
AcDbDimStyleTable
  0
DIMSTYLE
105
27
330
A
100
AcDbSymbolTableRecord
100
AcDbDimStyleTableRecord
  2
ISO-25
 70
     0
 41
2.5
 42
0.625
 43
3.75
 44
1.25
 73
     0
 74
     0
 77
     1
 78
     8
140
2.5
141
2.5
143
0.0393700787
147
0.625
171
     3
172
     1
271
     2
272
     2
274
     3
278
    44
283
     0
284
     8
340
11
  0
DIMSTYLE
105
1DA
102
{ACAD_REACTORS
330
1D9
330
209
330
213
330
21D
330
227
102
}
330
A
100
AcDbSymbolTableRecord
100
AcDbDimStyleTableRecord
  2
SLDDIMSTYLE0
 70
     0
 41
3.0
 44
0.0
 45
0.000000001
 73
     0
 74
     0
 77
     1
 78
    12
140
2.0
147
0.5
173
     1
271
     2
272
     3
284
    12
340
44
  0
DIMSTYLE
105
1E7
102
{ACAD_REACTORS
330
1E6
102
}
330
A
100
AcDbSymbolTableRecord
100
AcDbDimStyleTableRecord
  2
SLDDIMSTYLE1
 70
     0
 41
3.0
 44
0.0
 45
0.000000001
 73
     0
 74
     0
 77
     1
 78
    12
140
2.0
147
0.5
173
     1
271
     2
272
     2
284
    12
340
44
  0
DIMSTYLE
105
1F2
102
{ACAD_REACTORS
330
1F1
102
}
330
A
100
AcDbSymbolTableRecord
100
AcDbDimStyleTableRecord
  2
SLDDIMSTYLE2
 70
     0
 41
3.0
 44
0.0
 45
0.000000001
 73
     0
 74
     0
 77
     1
 78
    12
140
2.0
147
0.5
173
     1
271
     2
272
     2
284
    12
340
44
  0
DIMSTYLE
105
1FE
102
{ACAD_REACTORS
330
1FD
102
}
330
A
100
AcDbSymbolTableRecord
100
AcDbDimStyleTableRecord
  2
SLDDIMSTYLE3
 70
     0
 41
3.0
 44
0.0
 45
0.000000001
 73
     0
 74
     0
 77
     1
 78
    12
140
2.0
147
0.5
173
     1
271
     2
272
     3
284
    12
340
44
  0
ENDTAB
  0
TABLE
  2
BLOCK_RECORD
  5
1
330
0
100
AcDbSymbolTable
 70
     9
  0
BLOCK_RECORD
  5
1F
330
1
100
AcDbSymbolTableRecord
100
AcDbBlockTableRecord
  2
*Model_Space
340
22
  0
BLOCK_RECORD
  5
1B
330
1
100
AcDbSymbolTableRecord
100
AcDbBlockTableRecord
  2
*Paper_Space
340
1E
  0
BLOCK_RECORD
  5
23
330
1
100
AcDbSymbolTableRecord
100
AcDbBlockTableRecord
  2
*Paper_Space0
340
26
  0
BLOCK_RECORD
  5
1DB
330
1
100
AcDbSymbolTableRecord
100
AcDbBlockTableRecord
  2
*D1
340
0
  0
BLOCK_RECORD
  5
1E8
330
1
100
AcDbSymbolTableRecord
100
AcDbBlockTableRecord
  2
*D2
340
0
  0
BLOCK_RECORD
  5
1F3
330
1
100
AcDbSymbolTableRecord
100
AcDbBlockTableRecord
  2
*D3
340
0
  0
BLOCK_RECORD
  5
1FF
330
1
100
AcDbSymbolTableRecord
100
AcDbBlockTableRecord
  2
*D4
340
0
  0
BLOCK_RECORD
  5
20A
330
1
100
AcDbSymbolTableRecord
100
AcDbBlockTableRecord
  2
*D5
340
0
  0
BLOCK_RECORD
  5
214
330
1
100
AcDbSymbolTableRecord
100
AcDbBlockTableRecord
  2
*D6
340
0
  0
BLOCK_RECORD
  5
21E
330
1
100
AcDbSymbolTableRecord
100
AcDbBlockTableRecord
  2
*D7
340
0
  0
BLOCK_RECORD
  5
228
330
1
100
AcDbSymbolTableRecord
100
AcDbBlockTableRecord
  2
*D8
340
0
  0
ENDTAB
  0
ENDSEC
  0
SECTION
  2
BLOCKS
  0
BLOCK
  5
20
330
1F
100
AcDbEntity
  8
0
100
AcDbBlockBegin
  2
*Model_Space
 70
     0
 10
0.0
 20
0.0
 30
0.0
  3
*Model_Space
  1

  0
ENDBLK
  5
21
330
1F
100
AcDbEntity
  8
0
100
AcDbBlockEnd
  0
BLOCK
  5
1C
330
1B
100
AcDbEntity
 67
     1
  8
0
100
AcDbBlockBegin
  2
*Paper_Space
 70
     0
 10
0.0
 20
0.0
 30
0.0
  3
*Paper_Space
  1

  0
ENDBLK
  5
1D
330
1B
100
AcDbEntity
 67
     1
  8
0
100
AcDbBlockEnd
  0
BLOCK
  5
24
330
23
100
AcDbEntity
  8
0
100
AcDbBlockBegin
  2
*Paper_Space0
 70
     0
 10
0.0
 20
0.0
 30
0.0
  3
*Paper_Space0
  1

  0
ENDBLK
  5
25
330
23
100
AcDbEntity
  8
0
100
AcDbBlockEnd
  0
BLOCK
  5
1DC
330
1DB
100
AcDbEntity
  8
0
100
AcDbBlockBegin
  2
*D1
 70
     1
 10
0.0
 20
0.0
 30
0.0
  3
*D1
  1

  0
SOLID
  5
1DE
330
1DB
100
AcDbEntity
  8
VERMASSUNG
100
AcDbTrace
 10
46.3894907909
 20
135.455687974
 30
0.0
 11
45.9394907909
 21
132.455687974
 31
0.0
 12
46.8394907909
 22
132.455687974
 32
0.0
 13
46.8394907909
 23
132.455687974
 33
0.0
  0
SOLID
  5
1DF
330
1DB
100
AcDbEntity
  8
VERMASSUNG
100
AcDbTrace
 10
46.3894907909
 20
72.455687974
 30
0.0
 11
46.8394907909
 21
75.455687974
 31
0.0
 12
45.9394907909
 22
75.455687974
 32
0.0
 13
45.9394907909
 23
75.455687974
 33
0.0
  0
LINE
  5
1E0
330
1DB
100
AcDbEntity
  8
VERMASSUNG
100
AcDbLine
 10
83.8394297046
 20
135.455687974
 30
0.0
 11
45.3894907909
 21
135.455687974
 31
0.0
  0
LINE
  5
1E1
330
1DB
100
AcDbEntity
  8
VERMASSUNG
100
AcDbLine
 10
83.8394297046
 20
72.455687974
 30
0.0
 11
45.3894907909
 21
72.455687974
 31
0.0
  0
LINE
  5
1E2
330
1DB
100
AcDbEntity
  8
VERMASSUNG
100
AcDbLine
 10
46.3894907909
 20
135.455687974
 30
0.0
 11
46.3894907909
 21
72.455687974
 31
0.0
  0
MTEXT
  5
1E3
330
1DB
100
AcDbEntity
  8
VERMASSUNG
100
AcDbMText
 10
43.6113553019
 20
96.2521462622
 30
0.0
 40
2.0
 41
0.0
 71
     1
 72
     1
  1
HSK A 
  7
SLDTEXTSTYLE0
 11
-7.044195017643634E-15
 21
1.0
 31
0.0
 73
     1
 44
1.0
  0
MTEXT
  5
1E4
330
1DB
100
AcDbEntity
  8
VERMASSUNG
100
AcDbMText
 10
43.8113553114
 20
105.2521468061
 30
0.0
 40
2.0
 41
0.0
 71
     1
 72
     1
  1
%%c
  7
SLDTEXTSTYLE0
 11
-7.044195017643634E-15
 21
1.0
 31
0.0
 73
     1
 44
1.0
  0
MTEXT
  5
1E5
330
1DB
100
AcDbEntity
  8
VERMASSUNG
100
AcDbMText
 10
43.8113554278
 20
108.8604734561
 30
0.0
 40
2.0
 41
0.0
 71
     1
 72
     1
  1
63
  7
SLDTEXTSTYLE0
 11
-7.044195017643634E-15
 21
1.0
 31
0.0
 73
     1
 44
1.0
  0
ENDBLK
  5
1DD
330
1DB
100
AcDbEntity
  8
0
100
AcDbBlockEnd
  0
BLOCK
  5
1E9
330
1E8
100
AcDbEntity
  8
0
100
AcDbBlockBegin
  2
*D2
 70
     1
 10
0.0
 20
0.0
 30
0.0
  3
*D2
  1

  0
SOLID
  5
1EB
330
1E8
100
AcDbEntity
  8
VERMASSUNG
100
AcDbTrace
 10
197.0394297046
 20
134.8209100758
 30
0.0
 11
200.0394297046
 21
134.3709100758
 31
0.0
 12
200.0394297046
 22
135.2709100758
 32
0.0
 13
200.0394297046
 23
135.2709100758
 33
0.0
  0
SOLID
  5
1EC
330
1E8
100
AcDbEntity
  8
VERMASSUNG
100
AcDbTrace
 10
243.5394297046
 20
134.8209100758
 30
0.0
 11
240.5394297046
 21
135.2709100758
 31
0.0
 12
240.5394297046
 22
134.3709100758
 32
0.0
 13
240.5394297046
 23
134.3709100758
 33
0.0
  0
LINE
  5
1ED
330
1E8
100
AcDbEntity
  8
VERMASSUNG
100
AcDbLine
 10
197.0394297046
 20
110.855687974
 30
0.0
 11
197.0394297046
 21
135.8209100758
 31
0.0
  0
LINE
  5
1EE
330
1E8
100
AcDbEntity
  8
VERMASSUNG
100
AcDbLine
 10
243.5394297046
 20
115.6069069907
 30
0.0
 11
243.5394297046
 21
135.8209100758
 31
0.0
  0
LINE
  5
1EF
330
1E8
100
AcDbEntity
  8
VERMASSUNG
100
AcDbLine
 10
197.0394297046
 20
134.8209100758
 30
0.0
 11
243.5394297046
 21
134.8209100758
 31
0.0
  0
MTEXT
  5
1F0
330
1E8
100
AcDbEntity
  8
VERMASSUNG
100
AcDbMText
 10
217.7900429223
 20
137.399045439
 30
0.0
 40
2.0
 41
0.0
 71
     1
 72
     1
  1
46.5
  7
SLDTEXTSTYLE0
 73
     1
 44
1.0
  0
ENDBLK
  5
1EA
330
1E8
100
AcDbEntity
  8
0
100
AcDbBlockEnd
  0
BLOCK
  5
1F4
330
1F3
100
AcDbEntity
  8
0
100
AcDbBlockBegin
  2
*D3
 70
     1
 10
0.0
 20
0.0
 30
0.0
  3
*D3
  1

  0
SOLID
  5
1F6
330
1F3
100
AcDbEntity
  8
VERMASSUNG
100
AcDbTrace
 10
250.1463705309
 20
96.955687974
 30
0.0
 11
250.5963705309
 21
99.955687974
 31
0.0
 12
249.6963705309
 22
99.955687974
 32
0.0
 13
249.6963705309
 23
99.955687974
 33
0.0
  0
SOLID
  5
1F7
330
1F3
100
AcDbEntity
  8
VERMASSUNG
100
AcDbTrace
 10
250.1463705309
 20
110.955687974
 30
0.0
 11
249.6963705309
 21
107.955687974
 31
0.0
 12
250.5963705309
 22
107.955687974
 32
0.0
 13
250.5963705309
 23
107.955687974
 33
0.0
  0
LINE
  5
1F8
330
1F3
100
AcDbEntity
  8
VERMASSUNG
100
AcDbLine
 10
240.0394297046
 20
96.955687974
 30
0.0
 11
251.1463705309
 21
96.955687974
 31
0.0
  0
LINE
  5
1F9
330
1F3
100
AcDbEntity
  8
VERMASSUNG
100
AcDbLine
 10
240.0394297046
 20
110.955687974
 30
0.0
 11
251.1463705309
 21
110.955687974
 31
0.0
  0
LINE
  5
1FA
330
1F3
100
AcDbEntity
  8
VERMASSUNG
100
AcDbLine
 10
250.1463705309
 20
96.955687974
 30
0.0
 11
250.1463705309
 21
110.955687974
 31
0.0
  0
MTEXT
  5
1FB
330
1F3
100
AcDbEntity
  8
VERMASSUNG
100
AcDbMText
 10
247.5682350513
 20
100.8517605634
 30
0.0
 40
2.0
 41
0.0
 71
     1
 72
     1
  1
%%c
  7
SLDTEXTSTYLE0
 11
6.123233995736766E-17
 21
1.0
 31
0.0
 73
     1
 44
1.0
  0
MTEXT
  5
1FC
330
1F3
100
AcDbEntity
  8
VERMASSUNG
100
AcDbMText
 10
247.5682351677
 20
104.4604387866
 30
0.0
 40
2.0
 41
0.0
 71
     1
 72
     1
  1
14
  7
SLDTEXTSTYLE0
 11
6.123233995736766E-17
 21
1.0
 31
0.0
 73
     1
 44
1.0
  0
ENDBLK
  5
1F5
330
1F3
100
AcDbEntity
  8
0
100
AcDbBlockEnd
  0
BLOCK
  5
200
330
1FF
100
AcDbEntity
  8
0
100
AcDbBlockBegin
  2
*D4
 70
     1
 10
0.0
 20
0.0
 30
0.0
  3
*D4
  1

  0
SOLID
  5
202
330
1FF
100
AcDbEntity
  8
VERMASSUNG
100
AcDbTrace
 10
256.1463705309
 20
90.455687974
 30
0.0
 11
256.5963705309
 21
93.455687974
 31
0.0
 12
255.6963705309
 22
93.455687974
 32
0.0
 13
255.6963705309
 23
93.455687974
 33
0.0
  0
SOLID
  5
203
330
1FF
100
AcDbEntity
  8
VERMASSUNG
100
AcDbTrace
 10
256.1463705309
 20
117.455687974
 30
0.0
 11
255.6963705309
 21
114.455687974
 31
0.0
 12
256.5963705309
 22
114.455687974
 32
0.0
 13
256.5963705309
 23
114.455687974
 33
0.0
  0
LINE
  5
204
330
1FF
100
AcDbEntity
  8
VERMASSUNG
100
AcDbLine
 10
243.5394297046
 20
90.455687974
 30
0.0
 11
257.1463705309
 21
90.455687974
 31
0.0
  0
LINE
  5
205
330
1FF
100
AcDbEntity
  8
VERMASSUNG
100
AcDbLine
 10
243.5394297046
 20
117.455687974
 30
0.0
 11
257.1463705309
 21
117.455687974
 31
0.0
  0
LINE
  5
206
330
1FF
100
AcDbEntity
  8
VERMASSUNG
100
AcDbLine
 10
256.1463705309
 20
90.455687974
 30
0.0
 11
256.1463705309
 21
117.455687974
 31
0.0
  0
MTEXT
  5
207
330
1FF
100
AcDbEntity
  8
VERMASSUNG
100
AcDbMText
 10
253.5682350513
 20
100.7519707476
 30
0.0
 40
2.0
 41
0.0
 71
     1
 72
     1
  1
%%c
  7
SLDTEXTSTYLE0
 11
6.123233995736766E-17
 21
1.0
 31
0.0
 73
     1
 44
1.0
  0
MTEXT
  5
208
330
1FF
100
AcDbEntity
  8
VERMASSUNG
100
AcDbMText
 10
253.5682351677
 20
104.3606489707
 30
0.0
 40
2.0
 41
0.0
 71
     1
 72
     1
  1
27
  7
SLDTEXTSTYLE0
 11
6.123233995736766E-17
 21
1.0
 31
0.0
 73
     1
 44
1.0
  0
ENDBLK
  5
201
330
1FF
100
AcDbEntity
  8
0
100
AcDbBlockEnd
  0
BLOCK
  5
20B
330
20A
100
AcDbEntity
  8
0
100
AcDbBlockBegin
  2
*D5
 70
     1
 10
0.0
 20
0.0
 30
0.0
  3
*D5
  1

  0
SOLID
  5
20D
330
20A
100
AcDbEntity
  8
VERMASSUNG
100
AcDbTrace
 10
83.5394297046
 20
146.8209100758
 30
0.0
 11
86.5394297046
 21
146.3709100758
 31
0.0
 12
86.5394297046
 22
147.2709100758
 32
0.0
 13
86.5394297046
 23
147.2709100758
 33
0.0
  0
SOLID
  5
20E
330
20A
100
AcDbEntity
  8
VERMASSUNG
100
AcDbTrace
 10
243.5394297046
 20
146.8209100758
 30
0.0
 11
240.5394297046
 21
147.2709100758
 31
0.0
 12
240.5394297046
 22
146.3709100758
 32
0.0
 13
240.5394297046
 23
146.3709100758
 33
0.0
  0
LINE
  5
20F
330
20A
100
AcDbEntity
  8
VERMASSUNG
100
AcDbLine
 10
83.5394297046
 20
135.155687974
 30
0.0
 11
83.5394297046
 21
147.8209100758
 31
0.0
  0
LINE
  5
210
330
20A
100
AcDbEntity
  8
VERMASSUNG
100
AcDbLine
 10
243.5394297046
 20
115.6069069907
 30
0.0
 11
243.5394297046
 21
147.8209100758
 31
0.0
  0
LINE
  5
211
330
20A
100
AcDbEntity
  8
VERMASSUNG
100
AcDbLine
 10
83.5394297046
 20
146.8209100758
 30
0.0
 11
243.5394297046
 21
146.8209100758
 31
0.0
  0
MTEXT
  5
212
330
20A
100
AcDbEntity
  8
VERMASSUNG
100
AcDbMText
 10
161.6399421639
 20
149.399045439
 30
0.0
 40
2.0
 41
0.0
 71
     1
 72
     1
  1
160
  7
SLDTEXTSTYLE0
 73
     1
 44
1.0
  0
ENDBLK
  5
20C
330
20A
100
AcDbEntity
  8
0
100
AcDbBlockEnd
  0
BLOCK
  5
215
330
214
100
AcDbEntity
  8
0
100
AcDbBlockBegin
  2
*D6
 70
     1
 10
0.0
 20
0.0
 30
0.0
  3
*D6
  1

  0
SOLID
  5
217
330
214
100
AcDbEntity
  8
VERMASSUNG
100
AcDbTrace
 10
109.4894297046
 20
140.8209100758
 30
0.0
 11
112.4894297046
 21
140.3709100758
 31
0.0
 12
112.4894297046
 22
141.2709100758
 32
0.0
 13
112.4894297046
 23
141.2709100758
 33
0.0
  0
SOLID
  5
218
330
214
100
AcDbEntity
  8
VERMASSUNG
100
AcDbTrace
 10
243.5394297046
 20
140.8209100758
 30
0.0
 11
240.5394297046
 21
141.2709100758
 31
0.0
 12
240.5394297046
 22
140.3709100758
 32
0.0
 13
240.5394297046
 23
140.3709100758
 33
0.0
  0
LINE
  5
219
330
214
100
AcDbEntity
  8
VERMASSUNG
100
AcDbLine
 10
109.4894297046
 20
133.8021282978
 30
0.0
 11
109.4894297046
 21
141.8209100758
 31
0.0
  0
LINE
  5
21A
330
214
100
AcDbEntity
  8
VERMASSUNG
100
AcDbLine
 10
243.5394297046
 20
115.6069069907
 30
0.0
 11
243.5394297046
 21
141.8209100758
 31
0.0
  0
LINE
  5
21B
330
214
100
AcDbEntity
  8
VERMASSUNG
100
AcDbLine
 10
109.4894297046
 20
140.8209100758
 30
0.0
 11
243.5394297046
 21
140.8209100758
 31
0.0
  0
MTEXT
  5
21C
330
214
100
AcDbEntity
  8
VERMASSUNG
100
AcDbMText
 10
172.8152444391
 20
143.399045439
 30
0.0
 40
2.0
 41
0.0
 71
     1
 72
     1
  1
134.05
  7
SLDTEXTSTYLE0
 73
     1
 44
1.0
  0
ENDBLK
  5
216
330
214
100
AcDbEntity
  8
0
100
AcDbBlockEnd
  0
BLOCK
  5
21F
330
21E
100
AcDbEntity
  8
0
100
AcDbBlockBegin
  2
*D7
 70
     1
 10
0.0
 20
0.0
 30
0.0
  3
*D7
  1

  0
SOLID
  5
221
330
21E
100
AcDbEntity
  8
VERMASSUNG
100
AcDbTrace
 10
51.6394297046
 20
152.8209100758
 30
0.0
 11
54.6394297046
 21
152.3709100758
 31
0.0
 12
54.6394297046
 22
153.2709100758
 32
0.0
 13
54.6394297046
 23
153.2709100758
 33
0.0
  0
SOLID
  5
222
330
21E
100
AcDbEntity
  8
VERMASSUNG
100
AcDbTrace
 10
243.5394297046
 20
152.8209100758
 30
0.0
 11
240.5394297046
 21
153.2709100758
 31
0.0
 12
240.5394297046
 22
152.3709100758
 32
0.0
 13
240.5394297046
 23
152.3709100758
 33
0.0
  0
LINE
  5
223
330
21E
100
AcDbEntity
  8
VERMASSUNG
100
AcDbLine
 10
51.6394297046
 20
123.6463657205
 30
0.0
 11
51.6394297046
 21
153.8209100758
 31
0.0
  0
LINE
  5
224
330
21E
100
AcDbEntity
  8
VERMASSUNG
100
AcDbLine
 10
243.5394297046
 20
115.6069069907
 30
0.0
 11
243.5394297046
 21
153.8209100758
 31
0.0
  0
LINE
  5
225
330
21E
100
AcDbEntity
  8
VERMASSUNG
100
AcDbLine
 10
51.6394297046
 20
152.8209100758
 30
0.0
 11
243.5394297046
 21
152.8209100758
 31
0.0
  0
MTEXT
  5
226
330
21E
100
AcDbEntity
  8
VERMASSUNG
100
AcDbMText
 10
144.8904632907
 20
155.399045439
 30
0.0
 40
2.0
 41
0.0
 71
     1
 72
     1
  1
191.9
  7
SLDTEXTSTYLE0
 73
     1
 44
1.0
  0
ENDBLK
  5
220
330
21E
100
AcDbEntity
  8
0
100
AcDbBlockEnd
  0
BLOCK
  5
229
330
228
100
AcDbEntity
  8
0
100
AcDbBlockBegin
  2
*D8
 70
     1
 10
0.0
 20
0.0
 30
0.0
  3
*D8
  1

  0
SOLID
  5
22B
330
228
100
AcDbEntity
  8
VERMASSUNG
100
AcDbTrace
 10
262.1463705309
 20
120.955687974
 30
0.0
 11
261.6963705309
 21
117.955687974
 31
0.0
 12
262.5963705309
 22
117.955687974
 32
0.0
 13
262.5963705309
 23
117.955687974
 33
0.0
  0
SOLID
  5
22C
330
228
100
AcDbEntity
  8
VERMASSUNG
100
AcDbTrace
 10
262.1463705309
 20
86.955687974
 30
0.0
 11
262.5963705309
 21
89.955687974
 31
0.0
 12
261.6963705309
 22
89.955687974
 32
0.0
 13
261.6963705309
 23
89.955687974
 33
0.0
  0
LINE
  5
22D
330
228
100
AcDbEntity
  8
VERMASSUNG
100
AcDbLine
 10
199.0677131279
 20
120.955687974
 30
0.0
 11
263.1463705309
 21
120.955687974
 31
0.0
  0
LINE
  5
22E
330
228
100
AcDbEntity
  8
VERMASSUNG
100
AcDbLine
 10
199.0677131279
 20
86.955687974
 30
0.0
 11
263.1463705309
 21
86.955687974
 31
0.0
  0
LINE
  5
22F
330
228
100
AcDbEntity
  8
VERMASSUNG
100
AcDbLine
 10
262.1463705309
 20
120.955687974
 30
0.0
 11
262.1463705309
 21
86.955687974
 31
0.0
  0
MTEXT
  5
230
330
228
100
AcDbEntity
  8
VERMASSUNG
100
AcDbMText
 10
259.5682350513
 20
100.6521809317
 30
0.0
 40
2.0
 41
0.0
 71
     1
 72
     1
  1
%%c
  7
SLDTEXTSTYLE0
 11
-7.044195017643634E-15
 21
1.0
 31
0.0
 73
     1
 44
1.0
  0
MTEXT
  5
231
330
228
100
AcDbEntity
  8
VERMASSUNG
100
AcDbMText
 10
259.5682351677
 20
104.2608591549
 30
0.0
 40
2.0
 41
0.0
 71
     1
 72
     1
  1
34
  7
SLDTEXTSTYLE0
 11
-7.044195017643634E-15
 21
1.0
 31
0.0
 73
     1
 44
1.0
  0
ENDBLK
  5
22A
330
228
100
AcDbEntity
  8
0
100
AcDbBlockEnd
  0
ENDSEC
  0
SECTION
  2
ENTITIES
  0
MTEXT
  5
45
330
1F
100
AcDbEntity
  8
KOPF_DÜNN
100
AcDbMText
 10
13.8892156294
 20
23.8442973028
 30
0.0
 40
3.0
 41
0.0
 71
     1
 72
     1
  1
HA6.S14.K21.160
  7
SLDTEXTSTYLE0
 73
     1
 44
1.0
  0
MTEXT
  5
46
330
1F
100
AcDbEntity
  8
VERMASSUNG
100
AcDbMText
 10
13.9329988022
 20
28.8834360957
 30
0.0
 40
3.0
 41
0.0
 71
     1
 72
     1
  1
Schrumpffutter_Heat shrink chuck
  7
SLDTEXTSTYLE0
 73
     1
 44
1.0
  0
MTEXT
  5
47
330
1F
100
AcDbEntity
  8
VERMASSUNG
100
AcDbMText
 10
98.8601118557
 20
13.8365368179
 30
0.0
 40
2.0
 41
0.0
 71
     1
 72
     1
  1
Datum: 27.04.2011
  7
SLDTEXTSTYLE0
 73
     1
 44
1.0
  0
MTEXT
  5
49
330
1F
100
AcDbEntity
  8
VERMASSUNG
100
AcDbMText
 10
13.933048693
 20
18.0482802738
 30
0.0
 40
2.0
 41
0.0
 71
     1
 72
     1
  1
DIN 69 893 HSK A 63
  7
SLDTEXTSTYLE1
 73
     1
 44
1.0
  0
MTEXT
  5
4A
330
1F
100
AcDbEntity
  8
VERMASSUNG
100
AcDbMText
 10
13.9808475933
 20
13.9090973692
 30
0.0
 40
2.0
 41
0.0
 71
     1
 72
     1
  1
Gewicht: 1460g
  7
SLDTEXTSTYLE0
 73
     1
 44
1.0
  0
ARC
  5
4B
330
1F
100
AcDbEntity
  8
0
  6
Continuous
 62
     7
370
    15
100
AcDbCircle
 10
83.8394297046
 20
72.755687974
 30
0.0
 40
0.2999999999999972
100
AcDbArc
 50
180.0
 51
270.0
  0
ARC
  5
4C
330
1F
100
AcDbEntity
  8
0
  6
Continuous
 62
     7
370
    15
100
AcDbCircle
 10
83.8394297046
 20
135.155687974
 30
0.0
 40
0.2999999999999972
100
AcDbArc
 50
90.0
 51
180.0
  0
LINE
  5
4D
330
1F
100
AcDbEntity
  8
0
  6
Continuous
 62
     7
370
    15
100
AcDbLine
 10
83.8394297046
 20
72.455687974
 30
0.0
 11
88.4894297046
 21
72.455687974
 31
0.0
  0
LINE
  5
4E
330
1F
100
AcDbEntity
  8
0
  6
Continuous
 62
     7
370
    15
100
AcDbLine
 10
88.5174180636
 20
135.455687974
 30
0.0
 11
83.8394297046
 21
135.455687974
 31
0.0
  0
ARC
  5
4F
330
1F
100
AcDbEntity
  8
0
  6
Continuous
 62
     7
370
    15
100
AcDbCircle
 10
83.0394229519
 20
79.3852503596
 30
0.0
 40
0.6000067526677361
100
AcDbArc
 50
33.5571153394
 51
90.0
  0
ARC
  5
50
330
1F
100
AcDbEntity
  8
0
  6
Continuous
 62
     7
370
    15
100
AcDbCircle
 10
83.0394229519
 20
128.5261255884
 30
0.0
 40
0.6000067526677125
100
AcDbArc
 50
270.0
 51
326.4428846606
  0
LINE
  5
51
330
1F
100
AcDbEntity
  8
0
  6
Continuous
 62
     7
370
    15
100
AcDbLine
 10
70.3090077021
 20
127.6134724428
 30
0.0
 11
57.7394297046
 21
126.9837340662
 31
0.0
  0
LINE
  5
52
330
1F
100
AcDbEntity
  8
0
  6
Continuous
 62
     7
370
    15
100
AcDbLine
 10
81.5394297046
 20
128.1761188357
 30
0.0
 11
78.720819912
 21
128.0349059203
 31
0.0
  0
LINE
  5
53
330
1F
100
AcDbEntity
  8
0
  6
Continuous
 62
     7
370
    15
100
AcDbLine
 10
78.7210418222
 20
79.87645891
 30
0.0
 11
81.5394297046
 21
79.7352571123
 31
0.0
  0
LINE
  5
54
330
1F
100
AcDbEntity
  8
0
  6
Continuous
 62
     7
370
    15
100
AcDbLine
 10
61.7394297046
 20
80.7272410802
 30
0.0
 11
70.3097064738
 21
80.2978684966
 31
0.0
  0
LINE
  5
55
330
1F
100
AcDbEntity
  8
0
  6
Continuous
 62
     7
370
    15
100
AcDbLine
 10
81.5394297046
 20
79.7352571123
 30
0.0
 11
82.3961424779
 21
79.964812608
 31
0.0
  0
LINE
  5
56
330
1F
100
AcDbEntity
  8
0
  6
Continuous
 62
     7
370
    15
100
AcDbLine
 10
82.3961424779
 20
127.9465633399
 30
0.0
 11
81.5394297046
 21
128.1761188357
 31
0.0
  0
ARC
  5
57
330
1F
100
AcDbEntity
  8
0
  6
Continuous
 62
     7
370
    15
100
AcDbCircle
 10
82.551433905
 20
79.3852571123
 30
0.0
 40
0.5999999999999801
100
AcDbArc
 50
90.0
 51
105.0
  0
ARC
  5
58
330
1F
100
AcDbEntity
  8
0
  6
Continuous
 62
     7
370
    15
100
AcDbCircle
 10
82.551433905
 20
128.5261188357
 30
0.0
 40
0.5999999999999943
100
AcDbArc
 50
255.0
 51
270.0
  0
LINE
  5
59
330
1F
100
AcDbEntity
  8
0
  6
Continuous
 62
     7
370
    15
100
AcDbLine
 10
82.551433905
 20
79.9852571123
 30
0.0
 11
83.0394229519
 21
79.9852571123
 31
0.0
  0
LINE
  5
5A
330
1F
100
AcDbEntity
  8
0
  6
Continuous
 62
     7
370
    15
100
AcDbLine
 10
83.0394229519
 20
127.9261188357
 30
0.0
 11
82.551433905
 21
127.9261188357
 31
0.0
  0
ARC
  5
5B
330
1F
100
AcDbEntity
  8
0
  6
Continuous
 62
     7
370
    15
100
AcDbCircle
 10
112.4894297046
 20
80.9397291725
 30
0.0
 40
3.000000000000014
100
AcDbArc
 50
104.3250519401
 51
180.0
  0
ARC
  5
5C
330
1F
100
AcDbEntity
  8
0
  6
Continuous
 62
     7
370
    15
100
AcDbCircle
 10
112.4894297046
 20
126.9716467755
 30
0.0
 40
3.000000000000014
100
AcDbArc
 50
180.0
 51
255.6749480599
  0
ARC
  5
5D
330
1F
100
AcDbEntity
  8
0
  6
Continuous
 62
     7
370
    15
100
AcDbCircle
 10
136.4894297046
 20
-13.044312026
 30
0.0
 40
100.0
100
AcDbArc
 50
90.0
 51
104.3250519401
  0
ARC
  5
5E
330
1F
100
AcDbEntity
  8
0
  6
Continuous
 62
     7
370
    15
100
AcDbCircle
 10
136.4894297046
 20
220.955687974
 30
0.0
 40
100.0
100
AcDbArc
 50
255.6749480599
 51
270.0
  0
LINE
  5
5F
330
1F
100
AcDbEntity
  8
0
  6
Continuous
 62
     7
370
    15
100
AcDbLine
 10
158.9882076347
 20
86.955687974
 30
0.0
 11
199.0677131279
 21
86.955687974
 31
0.0
  0
LINE
  5
60
330
1F
100
AcDbEntity
  8
0
  6
Continuous
 62
     7
370
    15
100
AcDbLine
 10
136.4894297046
 20
86.955687974
 30
0.0
 11
151.9997846086
 21
86.955687974
 31
0.0
  0
LINE
  5
61
330
1F
100
AcDbEntity
  8
0
  6
Continuous
 62
     7
370
    15
100
AcDbLine
 10
151.9914273066
 20
120.955687974
 30
0.0
 11
136.4894297046
 21
120.955687974
 31
0.0
  0
LINE
  5
62
330
1F
100
AcDbEntity
  8
0
  6
Continuous
 62
     7
370
    15
100
AcDbLine
 10
199.0677131279
 20
120.955687974
 30
0.0
 11
158.9854363345
 21
120.955687974
 31
0.0
  0
LINE
  5
63
330
1F
100
AcDbEntity
  8
0
  6
Continuous
 62
     7
370
    15
100
AcDbLine
 10
199.0677131279
 20
86.955687974
 30
0.0
 11
241.696347896
 21
90.3106342898
 31
0.0
  0
LINE
  5
64
330
1F
100
AcDbEntity
  8
0
  6
Continuous
 62
     7
370
    15
100
AcDbLine
 10
241.696347896
 20
117.6007416581
 30
0.0
 11
199.0677131279
 21
120.955687974
 31
0.0
  0
ARC
  5
65
330
1F
100
AcDbEntity
  8
0
  6
Continuous
 62
     7
370
    15
100
AcDbCircle
 10
241.5394297046
 20
92.3044689573
 30
0.0
 40
2.0
100
AcDbArc
 50
274.5
 51
0.0
  0
ARC
  5
66
330
1F
100
AcDbEntity
  8
0
  6
Continuous
 62
     7
370
    15
100
AcDbCircle
 10
241.5394297046
 20
115.6069069907
 30
0.0
 40
2.0
100
AcDbArc
 50
0.0
 51
85.5
  0
LINE
  5
67
330
1F
100
AcDbEntity
  8
0
  6
Continuous
 62
     7
370
    15
100
AcDbLine
 10
52.930389816
 20
83.085687974
 30
0.0
 11
60.3394297046
 21
83.085687974
 31
0.0
  0
ARC
  5
68
330
1F
100
AcDbEntity
  8
0
  6
Continuous
 62
     7
370
    15
100
AcDbCircle
 10
60.3394297046
 20
81.685687974
 30
0.0
 40
1.399999999999991
100
AcDbArc
 50
42.2465410162
 51
90.0
  0
LINE
  5
69
330
1F
100
AcDbEntity
  8
0
  6
Continuous
 62
     7
370
    15
100
AcDbLine
 10
51.6509859307
 20
84.2241317479
 30
0.0
 11
52.7805931627
 21
83.0945245158
 31
0.0
  0
LINE
  5
6A
330
1F
100
AcDbEntity
  8
0
  6
Continuous
 62
     7
370
    15
100
AcDbLine
 10
52.7805931627
 20
124.8168514322
 30
0.0
 11
51.6505973238
 21
123.6868555932
 31
0.0
  0
ARC
  5
6B
330
1F
100
AcDbEntity
  8
0
  6
Continuous
 62
     7
370
    15
100
AcDbCircle
 10
56.3394297046
 20
126.225687974
 30
0.0
 40
1.399999999999991
100
AcDbArc
 50
270.0
 51
301.7485287426
  0
LINE
  5
6C
330
1F
100
AcDbEntity
  8
0
  6
Continuous
 62
     7
370
    15
100
AcDbLine
 10
56.3394297046
 20
124.825687974
 30
0.0
 11
52.9370851087
 21
124.825687974
 31
0.0
  0
LINE
  5
6D
330
1F
100
AcDbEntity
  8
0
  6
Continuous
 62
     7
370
    15
100
AcDbLine
 10
243.5578621881
 20
115.1754046755
 30
0.0
 11
243.5394297046
 21
115.210439064
 31
0.0
  0
LINE
  5
6E
330
1F
100
AcDbEntity
  8
0
  6
Continuous
 62
     7
370
    15
100
AcDbLine
 10
243.5394297046
 20
92.5913197136
 30
0.0
 11
243.6167519117
 21
92.7382850561
 31
0.0
  0
LINE
  5
6F
330
1F
100
AcDbEntity
  8
0
  6
Continuous
 62
     7
370
    15
100
AcDbLine
 10
109.4894297046
 20
74.3954105734
 30
0.0
 11
109.4894297046
 21
123.805687974
 31
0.0
  0
SPLINE
  5
70
330
1F
100
AcDbEntity
  8
0
  6
Continuous
 62
     7
370
    15
100
AcDbSpline
210
0.0
220
0.0
230
1.0
 70
     8
 71
     3
 72
    10
 73
     6
 74
     0
 42
0.00000001
 43
0.00000001
 40
0.0
 40
0.0
 40
0.0
 40
0.0
 40
0.5
 40
0.5
 40
1.0
 40
1.0
 40
1.0
 40
1.0
 10
109.4894297045584
 20
74.39541057340514
 30
0.0
 10
109.4894297045584
 20
74.23552330521146
 30
0.0
 10
109.4281200533226
 20
74.07439604969687
 30
0.0
 10
109.2090204157875
 20
73.84029705134203
 30
0.0
 10
109.050972209474
 20
73.76877027775082
 30
0.0
 10
108.8894297045584
 20
73.76877027775082
 30
0.0
  0
SPLINE
  5
71
330
1F
100
AcDbEntity
  8
0
  6
Continuous
 62
     7
370
    15
100
AcDbSpline
210
0.0
220
0.0
230
1.0
 70
    24
 71
     3
 72
    12
 73
     8
 74
     0
 42
0.00000001
 43
0.00000001
 40
0.0
 40
0.0
 40
0.0
 40
0.0
 40
0.2500000000000013
 40
0.2500000000000013
 40
0.5000000000000027
 40
0.5000000000000027
 40
1.0
 40
1.0
 40
1.0
 40
1.0
 10
108.8894297045584
 20
123.805687973998
 30
0.0
 10
108.9796687722455
 20
123.805687973998
 30
0.0
 10
109.070566886352
 20
123.805687973998
 30
0.0
 10
109.2251639228405
 20
123.805687973998
 30
0.0
 10
109.2901423389486
 20
123.805687973998
 30
0.0
 10
109.4419773668848
 20
123.805687973998
 30
0.0
 10
109.4894297045584
 20
123.805687973998
 30
0.0
 10
109.4894297045584
 20
123.805687973998
 30
0.0
  0
LINE
  5
72
330
1F
100
AcDbEntity
  8
0
  6
Continuous
 62
     7
370
    15
100
AcDbLine
 10
83.5394297046
 20
72.755687974
 30
0.0
 11
83.5394297046
 21
135.155687974
 31
0.0
  0
LINE
  5
73
330
1F
100
AcDbEntity
  8
0
  6
Continuous
 62
     7
370
    15
100
AcDbLine
 10
108.8894297046
 20
73.7687702778
 30
0.0
 11
104.931362536
 21
73.7687702778
 31
0.0
  0
LINE
  5
74
330
1F
100
AcDbEntity
  8
0
  6
Continuous
 62
     7
370
    15
100
AcDbLine
 10
104.931362536
 20
73.7687702778
 30
0.0
 11
104.931362536
 21
123.805687974
 31
0.0
  0
LINE
  5
75
330
1F
100
AcDbEntity
  8
0
  6
Continuous
 62
     7
370
    15
100
AcDbLine
 10
104.931362536
 20
123.805687974
 30
0.0
 11
108.8894297046
 21
123.805687974
 31
0.0
  0
SPLINE
  5
76
330
1F
100
AcDbEntity
  8
0
  6
Continuous
 62
     7
370
    15
100
AcDbSpline
210
0.0
220
0.0
230
1.0
 70
     8
 71
     3
 72
    70
 73
    66
 74
     0
 42
0.00000001
 43
0.00000001
 40
-0.0312499999999998
 40
-0.0312499999999998
 40
0.0
 40
0.0
 40
0.03125
 40
0.03125
 40
0.0625000000000001
 40
0.0625000000000001
 40
0.0937500000000001
 40
0.0937500000000001
 40
0.1250000000000002
 40
0.1250000000000002
 40
0.1562500000000002
 40
0.1562500000000002
 40
0.1875000000000003
 40
0.1875000000000003
 40
0.2187500000000003
 40
0.2187500000000003
 40
0.2500000000000004
 40
0.2500000000000004
 40
0.2812500000000004
 40
0.2812500000000004
 40
0.3125000000000005
 40
0.3125000000000005
 40
0.3437500000000006
 40
0.3437500000000006
 40
0.3750000000000006
 40
0.3750000000000006
 40
0.4062500000000006
 40
0.4062500000000006
 40
0.4375000000000007
 40
0.4375000000000007
 40
0.4687500000000007
 40
0.4687500000000007
 40
0.5000000000000008
 40
0.5000000000000008
 40
0.5312500000000009
 40
0.5312500000000009
 40
0.5625000000000011
 40
0.5625000000000011
 40
0.5937500000000012
 40
0.5937500000000012
 40
0.6250000000000014
 40
0.6250000000000014
 40
0.6562500000000016
 40
0.6562500000000016
 40
0.6875000000000018
 40
0.6875000000000018
 40
0.7187500000000016
 40
0.7187500000000016
 40
0.7500000000000014
 40
0.7500000000000014
 40
0.7812500000000012
 40
0.7812500000000012
 40
0.812500000000001
 40
0.812500000000001
 40
0.8437500000000009
 40
0.8437500000000009
 40
0.8750000000000007
 40
0.8750000000000007
 40
0.9062500000000006
 40
0.9062500000000006
 40
0.9375000000000003
 40
0.9375000000000003
 40
0.9687500000000002
 40
0.9687500000000002
 40
1.0
 40
1.0
 40
1.03125
 40
1.03125
 10
91.27488436589829
 20
114.5765948599813
 30
0.0
 10
91.80397504321856
 20
114.5765948599813
 30
0.0
 10
92.06404571059568
 20
114.6012721547665
 30
0.0
 10
92.57562039043108
 20
114.6977438278084
 30
0.0
 10
92.82979567417128
 20
114.7707247437885
 30
0.0
 10
93.31406630423298
 20
114.9604653467271
 30
0.0
 10
93.54370739611414
 20
115.0763260051208
 30
0.0
 10
93.97831174434764
 20
115.3489438510785
 30
0.0
 10
94.18387752099424
 20
115.5069829331323
 30
0.0
 10
94.55243466158949
 20
115.850525784103
 30
0.0
 10
94.71791564432496
 20
116.0372882282046
 30
0.0
 10
95.01034015376007
 20
116.4408314026014
 30
0.0
 10
95.13444113038658
 20
116.6543283990306
 30
0.0
 10
95.3340203271363
 20
117.0937117129531
 30
0.0
 10
95.41095391299456
 20
117.3228517000987
 30
0.0
 10
95.51381097151493
 20
117.7888258228587
 30
0.0
 10
95.53928388097405
 20
118.0217082685349
 30
0.0
 10
95.53957429154184
 20
118.4871058036147
 30
0.0
 10
95.51354965776609
 20
118.721981561009
 30
0.0
 10
95.4114013732741
 20
119.1734747082553
 30
0.0
 10
95.33582492569093
 20
119.3915211836667
 30
0.0
 10
95.135327394546
 20
119.8126157087045
 30
0.0
 10
95.01019855303764
 20
120.0145370932228
 30
0.0
 10
94.72083975201603
 20
120.3865665757417
 30
0.0
 10
94.55542876496057
 20
120.5591948793221
 30
0.0
 10
94.18243820681275
 20
120.8765128838681
 30
0.0
 10
93.98070517372365
 20
121.0162998173697
 30
0.0
 10
93.54784592289577
 20
121.2604760709215
 30
0.0
 10
93.3139273900064
 20
121.365705581963
 30
0.0
 10
92.82974365486378
 20
121.5338627283382
 30
0.0
 10
92.58042802890827
 20
121.597113618932
 30
0.0
 10
92.06739550448054
 20
121.6826928280346
 30
0.0
 10
91.8021016815759
 20
121.704564992957
 30
0.0
 10
91.27976706170615
 20
121.704728642601
 30
0.0
 10
91.02001339922442
 20
121.683726950505
 30
0.0
 10
90.50340158357918
 20
121.5983245954273
 30
0.0
 10
90.25103554307891
 20
121.5343184121404
 30
0.0
 10
89.76951042154607
 20
121.3675038920992
 30
0.0
 10
89.53665968943251
 20
121.2633707287
 30
0.0
 10
89.09956984099375
 20
121.0173840762051
 30
0.0
 10
88.89824885233658
 20
120.8776342452562
 30
0.0
 10
88.52916282703667
 20
120.5644961755316
 30
0.0
 10
88.36017807598498
 20
120.3890400162615
 30
0.0
 10
88.06972201932577
 20
120.0161997521613
 30
0.0
 10
87.94665020796363
 20
119.8180779420504
 30
0.0
 10
87.74531396654162
 20
119.3973665993167
 30
0.0
 10
87.66810142059938
 20
119.1753765786491
 30
0.0
 10
87.56589787769931
 20
118.7255116389408
 30
0.0
 10
87.53966952624701
 20
118.495256225824
 30
0.0
 10
87.5391931269299
 20
118.023940283275
 30
0.0
 10
87.56493553942788
 20
117.7907028675608
 30
0.0
 10
87.66624631579172
 20
117.3290263280628
 30
0.0
 10
87.74307895518265
 20
117.0981289409506
 30
0.0
 10
87.94348279439784
 20
116.6558529271589
 30
0.0
 10
88.06615429268987
 20
116.444790495873
 30
0.0
 10
88.35610158185412
 20
116.0432919851404
 30
0.0
 10
88.52467256121935
 20
115.8523854630645
 30
0.0
 10
88.89294215533252
 20
115.5086601310674
 30
0.0
 10
89.09400401260282
 20
115.3535229448533
 30
0.0
 10
89.53103493118775
 20
115.0784455847736
 30
0.0
 10
89.76318314431737
 20
114.9613293553516
 30
0.0
 10
90.24419342581622
 20
114.772402870287
 30
0.0
 10
90.49629350864666
 20
114.6993278998927
 30
0.0
 10
91.01336299490566
 20
114.6012758407582
 30
0.0
 10
91.27488436589829
 20
114.5765948599813
 30
0.0
 10
91.80397504321856
 20
114.5765948599813
 30
0.0
  0
LINE
  5
77
330
1F
100
AcDbEntity
  8
0
  6
Continuous
 62
     7
370
    15
100
AcDbLine
 10
88.4894297046
 20
123.805687974
 30
0.0
 11
98.1474968731
 21
123.805687974
 31
0.0
  0
LINE
  5
78
330
1F
100
AcDbEntity
  8
0
  6
Continuous
 62
     7
370
    15
100
AcDbLine
 10
98.1474968731
 20
73.7687702778
 30
0.0
 11
98.1474968731
 21
123.805687974
 31
0.0
  0
LINE
  5
79
330
1F
100
AcDbEntity
  8
0
  6
Continuous
 62
     7
370
    15
100
AcDbLine
 10
98.1474968731
 20
73.7687702778
 30
0.0
 11
96.4894297046
 21
73.7687702778
 31
0.0
  0
SPLINE
  5
7A
330
1F
100
AcDbEntity
  8
0
  6
Continuous
 62
     7
370
    15
100
AcDbSpline
210
0.0
220
0.0
230
1.0
 70
     8
 71
     3
 72
    28
 73
    24
 74
     0
 42
0.00000001
 43
0.00000001
 40
0.0
 40
0.0
 40
0.0
 40
0.0
 40
0.1250000000000001
 40
0.1250000000000001
 40
0.1875000000000001
 40
0.1875000000000001
 40
0.2500000000000001
 40
0.2500000000000001
 40
0.3750000000000001
 40
0.3750000000000001
 40
0.4375000000000003
 40
0.4375000000000003
 40
0.5000000000000003
 40
0.5000000000000003
 40
0.6250000000000002
 40
0.6250000000000002
 40
0.75
 40
0.75
 40
0.8125000000000001
 40
0.8125000000000001
 40
0.8750000000000001
 40
0.8750000000000001
 40
1.0
 40
1.0
 40
1.0
 40
1.0
 10
96.48942970455842
 20
73.7687702777508
 30
0.0
 10
95.95772194706548
 20
73.7687702777508
 30
0.0
 10
95.43548338175516
 20
73.75298556380059
 30
0.0
 10
94.66561289548014
 20
73.7079901497244
 30
0.0
 10
94.41125332328882
 20
73.68943515464868
 30
0.0
 10
93.9071317425903
 20
73.64558243220218
 30
0.0
 10
93.65740892516239
 20
73.62023782524997
 30
0.0
 10
92.93181897371596
 20
73.53683574749986
 30
0.0
 10
92.47345871213443
 20
73.47097018834877
 30
0.0
 10
91.82296076874056
 20
73.36199984785699
 30
0.0
 10
91.6112787179481
 20
73.32376021209033
 30
0.0
 10
91.20720722881009
 20
73.24600147467098
 30
0.0
 10
91.01470071498923
 20
73.20650051249564
 30
0.0
 10
90.46486574396795
 20
73.08759277012963
 30
0.0
 10
90.13493696565914
 20
73.00777508870502
 30
0.0
 10
89.55046569709044
 20
72.85443192690896
 30
0.0
 10
89.30418855907702
 20
72.7830981736397
 30
0.0
 10
89.00434576637895
 20
72.68915466656509
 30
0.0
 10
88.91588890930677
 20
72.65996087320514
 30
0.0
 10
88.76252755600164
 20
72.60649429894175
 30
0.0
 10
88.69743934177541
 20
72.58213496466658
 30
0.0
 10
88.54184532583461
 20
72.51854481922182
 30
0.0
 10
88.48942970455842
 20
72.48844188413256
 30
0.0
 10
88.48942970455842
 20
72.47156499113566
 30
0.0
  0
LINE
  5
7B
330
1F
100
AcDbEntity
  8
0
  6
Continuous
 62
     7
370
    15
100
AcDbLine
 10
88.4894297046
 20
72.4715649911
 30
0.0
 11
88.4894297046
 21
72.455687974
 31
0.0
  0
SPLINE
  5
7C
330
1F
100
AcDbEntity
  8
0
  6
Continuous
 62
     7
370
    15
100
AcDbSpline
210
0.0
220
0.0
230
1.0
 70
     8
 71
     3
 72
    17
 73
    13
 74
     0
 42
0.00000001
 43
0.00000001
 40
0.0
 40
0.0
 40
0.0
 40
0.0
 40
0.1034796923964057
 40
0.2100239188807852
 40
0.3134862136955586
 40
0.4198361274354886
 40
0.5254127712915686
 40
0.6339610695419797
 40
0.7409508756305039
 40
0.8511696089308182
 40
0.9558996534551946
 40
1.0
 40
1.0
 40
1.0
 40
1.0
 10
96.48942970455842
 20
134.4228834471622
 30
0.0
 10
96.05418135544838
 20
134.4283316436955
 30
0.0
 10
95.17079484888342
 20
134.4393893842073
 30
0.0
 10
93.88996726365474
 20
134.5257477771089
 30
0.0
 10
92.67255072778069
 20
134.6536179536467
 30
0.0
 10
91.56474487553415
 20
134.8125632522399
 30
0.0
 10
90.57650607158594
 20
134.9870569399554
 30
0.0
 10
89.75178251405441
 20
135.1562227905953
 30
0.0
 10
89.10282901339511
 20
135.3041065731236
 30
0.0
 10
88.68579419793338
 20
135.4058971573544
 30
0.0
 10
88.48719748496886
 20
135.4562486799576
 30
0.0
 10
88.51051020640215
 20
135.4503429957352
 30
0.0
 10
88.51741806363967
 20
135.4485930660406
 30
0.0
  0
LINE
  5
7D
330
1F
100
AcDbEntity
  8
0
  6
Continuous
 62
     7
370
    15
100
AcDbLine
 10
98.1474968731
 20
134.4228834472
 30
0.0
 11
96.4894297046
 21
134.4228834472
 31
0.0
  0
LINE
  5
7E
330
1F
100
AcDbEntity
  8
0
  6
Continuous
 62
     7
370
    15
100
AcDbLine
 10
98.1474968731
 20
128.4143776364
 30
0.0
 11
98.1474968731
 21
134.4228834472
 31
0.0
  0
LINE
  5
7F
330
1F
100
AcDbEntity
  8
0
  6
Continuous
 62
     7
370
    15
100
AcDbLine
 10
95.7350500502
 20
128.4143776364
 30
0.0
 11
98.1474968731
 21
128.4143776364
 31
0.0
  0
SPLINE
  5
80
330
1F
100
AcDbEntity
  8
0
  6
Continuous
 62
     7
370
    15
100
AcDbSpline
210
0.0
220
0.0
230
1.0
 70
     8
 71
     3
 72
    20
 73
    16
 74
     0
 42
0.00000001
 43
0.00000001
 40
0.0
 40
0.0
 40
0.0
 40
0.0
 40
0.25
 40
0.25
 40
0.375
 40
0.375
 40
0.5
 40
0.5
 40
0.625
 40
0.625
 40
0.75
 40
0.75
 40
0.875
 40
0.875
 40
1.0
 40
1.0
 40
1.0
 40
1.0
 10
88.48942970455842
 20
123.805687973998
 30
0.0
 10
88.73780343884648
 20
124.4595504022954
 30
0.0
 10
89.05737353119176
 20
125.0633361842925
 30
0.0
 10
89.67967976439644
 20
125.8901749204611
 30
0.0
 10
89.91110402482718
 20
126.152603558414
 30
0.0
 10
90.4323183644769
 20
126.649266212519
 30
0.0
 10
90.71893884711197
 20
126.8798530915405
 30
0.0
 10
91.33842358841959
 20
127.2964073161232
 30
0.0
 10
91.67272396790655
 20
127.4839051180907
 30
0.0
 10
92.39798444053133
 20
127.8153020957271
 30
0.0
 10
92.77989949792182
 20
127.9548060832224
 30
0.0
 10
93.5746876740935
 20
128.1802595906933
 30
0.0
 10
93.98884586829986
 20
128.2668857022369
 30
0.0
 10
94.85439220888125
 20
128.3848664910911
 30
0.0
 10
95.29227982389308
 20
128.4143776363654
 30
0.0
 10
95.7350500502477
 20
128.4143776363654
 30
0.0
  0
SPLINE
  5
81
330
1F
100
AcDbEntity
  8
0
  6
Continuous
 62
     7
370
    15
100
AcDbSpline
210
0.0
220
0.0
230
1.0
 70
     8
 71
     3
 72
    70
 73
    66
 74
     0
 42
0.00000001
 43
0.00000001
 40
-0.03125
 40
-0.03125
 40
0.0
 40
0.0
 40
0.0312499999999998
 40
0.0312499999999998
 40
0.0624999999999997
 40
0.0624999999999997
 40
0.0937499999999995
 40
0.0937499999999995
 40
0.1249999999999994
 40
0.1249999999999994
 40
0.1562499999999992
 40
0.1562499999999992
 40
0.1874999999999991
 40
0.1874999999999991
 40
0.2187499999999989
 40
0.2187499999999989
 40
0.2499999999999988
 40
0.2499999999999988
 40
0.2812499999999988
 40
0.2812499999999988
 40
0.3124999999999988
 40
0.3124999999999988
 40
0.3437499999999988
 40
0.3437499999999988
 40
0.3749999999999988
 40
0.3749999999999988
 40
0.4062499999999988
 40
0.4062499999999988
 40
0.4374999999999988
 40
0.4374999999999988
 40
0.4687499999999989
 40
0.4687499999999989
 40
0.4999999999999989
 40
0.4999999999999989
 40
0.5312499999999991
 40
0.5312499999999991
 40
0.5624999999999992
 40
0.5624999999999992
 40
0.5937499999999994
 40
0.5937499999999994
 40
0.6249999999999996
 40
0.6249999999999996
 40
0.6562499999999998
 40
0.6562499999999998
 40
0.6875
 40
0.6875
 40
0.7187500000000001
 40
0.7187500000000001
 40
0.7500000000000003
 40
0.7500000000000003
 40
0.7812500000000003
 40
0.7812500000000003
 40
0.8125000000000002
 40
0.8125000000000002
 40
0.8437500000000002
 40
0.8437500000000002
 40
0.8750000000000001
 40
0.8750000000000001
 40
0.9062500000000001
 40
0.9062500000000001
 40
0.9375000000000001
 40
0.9375000000000001
 40
0.96875
 40
0.96875
 40
1.0
 40
1.0
 40
1.03125
 40
1.03125
 10
91.27488436589829
 20
129.0146513687771
 30
0.0
 10
91.80397504321857
 20
129.0146513687771
 30
0.0
 10
92.06404571059568
 20
129.0305518091919
 30
0.0
 10
92.5756203904311
 20
129.0924961593662
 30
0.0
 10
92.82979567417128
 20
129.1392983934575
 30
0.0
 10
93.31406630423298
 20
129.2602753769126
 30
0.0
 10
93.54370739611414
 20
129.3338777047194
 30
0.0
 10
93.97831174434764
 20
129.5057019756975
 30
0.0
 10
94.18387752099424
 20
129.604705398625
 30
0.0
 10
94.55243466158949
 20
129.8178018125378
 30
0.0
 10
94.71791564432496
 20
129.9327015286675
 30
0.0
 10
95.01034015376008
 20
130.1780684273577
 30
0.0
 10
95.13444113038658
 20
130.306508327828
 30
0.0
 10
95.3340203271363
 20
130.567400475914
 30
0.0
 10
95.41095391299456
 20
130.7017816472534
 30
0.0
 10
95.51381097151493
 20
130.9711015983597
 30
0.0
 10
95.53928388097405
 20
131.1037828625778
 30
0.0
 10
95.53957429154184
 20
131.3649693367089
 30
0.0
 10
95.51354965776609
 20
131.4947343748736
 30
0.0
 10
95.4114013732741
 20
131.7403170091463
 30
0.0
 10
95.33582492569093
 20
131.8569785464552
 30
0.0
 10
95.135327394546
 20
132.0788837366097
 30
0.0
 10
95.01019855303764
 20
132.1834949905327
 30
0.0
 10
94.72083975201603
 20
132.3735414021408
 30
0.0
 10
94.55542876496057
 20
132.4603010735904
 30
0.0
 10
94.18243820681275
 20
132.617805449342
 30
0.0
 10
93.98070517372365
 20
132.6861307141292
 30
0.0
 10
93.54784592289577
 20
132.8043604377484
 30
0.0
 10
93.3139273900064
 20
132.8546553538523
 30
0.0
 10
92.82974365486378
 20
132.9345208907419
 30
0.0
 10
92.58042802890827
 20
132.9642620185415
 30
0.0
 10
92.06739550448054
 20
133.0044147600497
 30
0.0
 10
91.8021016815759
 20
133.0146130294596
 30
0.0
 10
91.27976706170617
 20
133.0146894878443
 30
0.0
 10
91.02001339922442
 20
133.0048984762353
 30
0.0
 10
90.50340158357919
 20
132.9648316374965
 30
0.0
 10
90.25103554307891
 20
132.9347344706397
 30
0.0
 10
89.76951042154607
 20
132.8555122608095
 30
0.0
 10
89.53665968943251
 20
132.8057547813461
 30
0.0
 10
89.09956984099375
 20
132.6866628388957
 30
0.0
 10
88.89824885233658
 20
132.6183475773484
 30
0.0
 10
88.52916282703667
 20
132.4629466104149
 30
0.0
 10
88.36017807598498
 20
132.374794268348
 30
0.0
 10
88.06972201932577
 20
132.1843548792316
 30
0.0
 10
87.94665020796363
 20
132.0817303015326
 30
0.0
 10
87.74531396654162
 20
131.8600899549245
 30
0.0
 10
87.66810142059938
 20
131.741335879377
 30
0.0
 10
87.56589787769931
 20
131.4966699404593
 30
0.0
 10
87.53966952624701
 20
131.3695132150107
 30
0.0
 10
87.5391931269299
 20
131.1050650691552
 30
0.0
 10
87.56493553942788
 20
130.972164388898
 30
0.0
 10
87.66624631579172
 20
130.705372115416
 30
0.0
 10
87.74307895518265
 20
130.5700082139474
 30
0.0
 10
87.94348279439784
 20
130.3074284186448
 30
0.0
 10
88.06615429268987
 20
130.1804532588911
 30
0.0
 10
88.35610158185413
 20
129.9363738728086
 30
0.0
 10
88.52467256121936
 20
129.8189487480548
 30
0.0
 10
88.89294215533252
 20
129.6057522871064
 30
0.0
 10
89.09400401260284
 20
129.5085781686815
 30
0.0
 10
89.53103493118775
 20
129.3352232814673
 30
0.0
 10
89.76318314431738
 20
129.2608237298106
 30
0.0
 10
90.24419342581623
 20
129.140370850306
 30
0.0
 10
90.49629350864666
 20
129.09351247504
 30
0.0
 10
91.01336299490568
 20
129.0305549780562
 30
0.0
 10
91.27488436589829
 20
129.0146513687771
 30
0.0
 10
91.80397504321857
 20
129.0146513687771
 30
0.0
  0
LINE
  5
82
330
1F
100
AcDbEntity
  8
0
  6
Continuous
 62
     7
370
    15
100
AcDbLine
 10
99.6294297046
 20
76.4578508149
 30
0.0
 11
99.6294297046
 21
123.805687974
 31
0.0
  0
SPLINE
  5
83
330
1F
100
AcDbEntity
  8
0
  6
Continuous
 62
     7
370
    15
100
AcDbSpline
210
0.0
220
0.0
230
1.0
 70
     8
 71
     3
 72
     8
 73
     4
 74
     0
 42
0.00000001
 43
0.00000001
 40
0.0
 40
0.0
 40
0.0
 40
0.0
 40
1.0
 40
1.0
 40
1.0
 40
1.0
 10
99.62942970455843
 20
76.4578508149431
 30
0.0
 10
99.13709058177724
 20
75.5605807807364
 30
0.0
 10
98.64297653373511
 20
74.66429636568417
 30
0.0
 10
98.14749687306937
 20
73.76877027775082
 30
0.0
  0
SPLINE
  5
84
330
1F
100
AcDbEntity
  8
0
  6
Continuous
 62
     7
370
    15
100
AcDbSpline
210
0.0
220
0.0
230
1.0
 70
    24
 71
     3
 72
     8
 73
     4
 74
     0
 42
0.00000001
 43
0.00000001
 40
0.0
 40
0.0
 40
0.0
 40
0.0
 40
1.0
 40
1.0
 40
1.0
 40
1.0
 10
98.14749687306934
 20
123.805687973998
 30
0.0
 10
98.65417698121989
 20
123.805687973998
 30
0.0
 10
99.14947771019352
 20
123.805687973998
 30
0.0
 10
99.62942970455843
 20
123.805687973998
 30
0.0
  0
SPLINE
  5
85
330
1F
100
AcDbEntity
  8
0
  6
Continuous
 62
     7
370
    15
100
AcDbSpline
210
0.0
220
0.0
230
1.0
 70
     8
 71
     3
 72
     8
 73
     4
 74
     0
 42
0.00000001
 43
0.00000001
 40
0.0
 40
0.0
 40
0.0
 40
0.0
 40
1.0
 40
1.0
 40
1.0
 40
1.0
 10
104.9313625360475
 20
73.76877027775082
 30
0.0
 10
104.4358828753818
 20
74.66429636568418
 30
0.0
 10
103.9417688273396
 20
75.56058078073643
 30
0.0
 10
103.4494297045584
 20
76.45785081494313
 30
0.0
  0
LINE
  5
86
330
1F
100
AcDbEntity
  8
0
  6
Continuous
 62
     7
370
    15
100
AcDbLine
 10
103.4494297046
 20
76.4578508149
 30
0.0
 11
103.4494297046
 21
123.805687974
 31
0.0
  0
SPLINE
  5
87
330
1F
100
AcDbEntity
  8
0
  6
Continuous
 62
     7
370
    15
100
AcDbSpline
210
0.0
220
0.0
230
1.0
 70
    24
 71
     3
 72
     8
 73
     4
 74
     0
 42
0.00000001
 43
0.00000001
 40
0.0
 40
0.0
 40
0.0
 40
0.0
 40
1.0
 40
1.0
 40
1.0
 40
1.0
 10
103.4494297045584
 20
123.805687973998
 30
0.0
 10
103.9293816989233
 20
123.805687973998
 30
0.0
 10
104.4246824278969
 20
123.805687973998
 30
0.0
 10
104.9313625360475
 20
123.805687973998
 30
0.0
  0
ARC
  5
88
330
1F
100
AcDbEntity
  8
0
  6
Continuous
 62
     7
370
    15
100
AcDbCircle
 10
91.5367061204
 20
115.8629062143
 30
0.0
 40
4.113520338565314
100
AcDbArc
 50
19.6206971925
 51
159.0963838037
  0
SPLINE
  5
89
330
1F
100
AcDbEntity
  8
0
  6
Continuous
 62
     7
370
    15
100
AcDbSpline
210
0.0
220
0.0
230
1.0
 70
    24
 71
     3
 72
    14
 73
    10
 74
     0
 42
0.00000001
 43
0.00000001
 40
0.0
 40
0.0
 40
0.0
 40
0.0
 40
0.4999999999999989
 40
0.4999999999999989
 40
0.7499999999999994
 40
0.7499999999999994
 40
0.8749999999999997
 40
0.8749999999999997
 40
1.0
 40
1.0
 40
1.0
 40
1.0
 10
103.3517549022261
 20
77.55568797399798
 30
0.0
 10
103.3049701971779
 20
77.55568797399798
 30
0.0
 10
103.2429190003983
 20
77.55568797399798
 30
0.0
 10
103.0995273618476
 20
77.55568797399798
 30
0.0
 10
103.0433837082965
 20
77.55568797399798
 30
0.0
 10
102.9304326861604
 20
77.55568797399796
 30
0.0
 10
102.8874319241222
 20
77.55568797399798
 30
0.0
 10
102.7833692138158
 20
77.55568797399798
 30
0.0
 10
102.7180369754589
 20
77.55568797399796
 30
0.0
 10
102.6494297045584
 20
77.55568797399798
 30
0.0
  0
SPLINE
  5
8A
330
1F
100
AcDbEntity
  8
0
  6
Continuous
 62
     7
370
    15
100
AcDbSpline
210
0.0
220
0.0
230
1.0
 70
    24
 71
     3
 72
    12
 73
     8
 74
     0
 42
0.00000001
 43
0.00000001
 40
0.0
 40
0.0
 40
0.0
 40
0.0
 40
0.4999999999999983
 40
0.4999999999999983
 40
0.7499999999999991
 40
0.7499999999999991
 40
1.0
 40
1.0
 40
1.0
 40
1.0
 10
103.0551321728675
 20
130.355687973998
 30
0.0
 10
103.0120466232565
 20
130.355687973998
 30
0.0
 10
102.962894421506
 20
130.355687973998
 30
0.0
 10
102.8664218272189
 20
130.355687973998
 30
0.0
 10
102.8303202420842
 20
130.355687973998
 30
0.0
 10
102.7472144842235
 20
130.355687973998
 30
0.0
 10
102.6992178872562
 20
130.355687973998
 30
0.0
 10
102.6494297045584
 20
130.355687973998
 30
0.0
  0
SPLINE
  5
8B
330
1F
100
AcDbEntity
  8
0
  6
Continuous
 62
     7
370
    15
100
AcDbSpline
210
0.0
220
0.0
230
1.0
 70
     8
 71
     3
 72
    10
 73
     6
 74
     0
 42
0.00000001
 43
0.00000001
 40
0.0
 40
0.0
 40
0.0
 40
0.0
 40
0.5
 40
0.5
 40
1.0
 40
1.0
 40
1.0
 40
1.0
 10
103.4494297045584
 20
131.0753418250337
 30
0.0
 10
103.4494297045584
 20
130.9315717672157
 30
0.0
 10
103.4133806458395
 20
130.7891524047206
 30
0.0
 10
103.2778717850655
 20
130.5392581113634
 30
0.0
 10
103.1779957919694
 20
130.4312277751152
 30
0.0
 10
103.0551321728674
 20
130.3556879739979
 30
0.0
  0
SPLINE
  5
8C
330
1F
100
AcDbEntity
  8
0
  6
Continuous
 62
     7
370
    15
100
AcDbSpline
210
0.0
220
0.0
230
1.0
 70
     8
 71
     3
 72
    10
 73
     6
 74
     0
 42
0.00000001
 43
0.00000001
 40
0.0
 40
0.0
 40
0.0
 40
0.0
 40
0.5
 40
0.5
 40
1.0
 40
1.0
 40
1.0
 40
1.0
 10
103.4232820813983
 20
123.805687973998
 30
0.0
 10
103.43197172431
 20
123.8525668233162
 30
0.0
 10
103.4385107890605
 20
123.8999892887174
 30
0.0
 10
103.4472694234535
 20
123.9959260873043
 30
0.0
 10
103.4494297045584
 20
124.0438413753148
 30
0.0
 10
103.4494297045584
 20
124.0915546054593
 30
0.0
  0
SPLINE
  5
8D
330
1F
100
AcDbEntity
  8
0
  6
Continuous
 62
     7
370
    15
100
AcDbSpline
210
0.0
220
0.0
230
1.0
 70
     8
 71
     3
 72
    10
 73
     6
 74
     0
 42
0.00000001
 43
0.00000001
 40
0.0
 40
0.0
 40
0.0
 40
0.0
 40
0.5
 40
0.5
 40
1.0
 40
1.0
 40
1.0
 40
1.0
 10
100.0237272362494
 20
130.355687973998
 30
0.0
 10
99.90218697258084
 20
130.4304141412098
 30
0.0
 10
99.80085261223192
 20
130.5393591571265
 30
0.0
 10
99.6652136693435
 20
130.7897896378881
 30
0.0
 10
99.62942970455843
 20
130.9322089999871
 30
0.0
 10
99.62942970455843
 20
131.0753418250337
 30
0.0
  0
SPLINE
  5
8E
330
1F
100
AcDbEntity
  8
0
  6
Continuous
 62
     7
370
    15
100
AcDbSpline
210
0.0
220
0.0
230
1.0
 70
    24
 71
     3
 72
    12
 73
     8
 74
     0
 42
0.00000001
 43
0.00000001
 40
0.0
 40
0.0
 40
0.0
 40
0.0
 40
0.2500000000000021
 40
0.2500000000000021
 40
0.5000000000000041
 40
0.5000000000000041
 40
1.0
 40
1.0
 40
1.0
 40
1.0
 10
100.4294297045584
 20
130.355687973998
 30
0.0
 10
100.3795530222407
 20
130.355687973998
 30
0.0
 10
100.3315498288375
 20
130.355687973998
 30
0.0
 10
100.2485017261254
 20
130.355687973998
 30
0.0
 10
100.2123721466576
 20
130.355687973998
 30
0.0
 10
100.1164601157133
 20
130.355687973998
 30
0.0
 10
100.0667014477445
 20
130.355687973998
 30
0.0
 10
100.0237272362494
 20
130.355687973998
 30
0.0
  0
SPLINE
  5
8F
330
1F
100
AcDbEntity
  8
0
  6
Continuous
 62
     7
370
    15
100
AcDbSpline
210
0.0
220
0.0
230
1.0
 70
    24
 71
     3
 72
    14
 73
    10
 74
     0
 42
0.00000001
 43
0.00000001
 40
0.0
 40
0.0
 40
0.0
 40
0.0
 40
0.1249999999999991
 40
0.1249999999999991
 40
0.2499999999999982
 40
0.2499999999999982
 40
0.4999999999999998
 40
0.4999999999999998
 40
1.0
 40
1.0
 40
1.0
 40
1.0
 10
100.4294297045584
 20
77.55568797399798
 30
0.0
 10
100.360991856672
 20
77.55568797399798
 30
0.0
 10
100.2954418179069
 20
77.55568797399798
 30
0.0
 10
100.191015178499
 20
77.55568797399798
 30
0.0
 10
100.1484705687375
 20
77.55568797399798
 30
0.0
 10
100.0358611081973
 20
77.55568797399796
 30
0.0
 10
99.98032206117772
 20
77.55568797399798
 30
0.0
 10
99.83771036571395
 20
77.55568797399796
 30
0.0
 10
99.77430501071825
 20
77.55568797399796
 30
0.0
 10
99.72710450689071
 20
77.55568797399798
 30
0.0
  0
SPLINE
  5
90
330
1F
100
AcDbEntity
  8
0
  6
Continuous
 62
     7
370
    15
100
AcDbSpline
210
0.0
220
0.0
230
1.0
 70
     8
 71
     3
 72
    10
 73
     6
 74
     0
 42
0.00000001
 43
0.00000001
 40
0.0
 40
0.0
 40
0.0
 40
0.0
 40
0.5
 40
0.5
 40
1.0
 40
1.0
 40
1.0
 40
1.0
 10
99.62942970455843
 20
124.0915546054593
 30
0.0
 10
99.62942970455842
 20
124.043783097466
 30
0.0
 10
99.63159094815558
 20
123.9960733754044
 30
0.0
 10
99.64026232201576
 20
123.9007782578561
 30
0.0
 10
99.64679150497173
 20
123.8530856938895
 30
0.0
 10
99.65557732771856
 20
123.805687973998
 30
0.0
  0
LINE
  5
91
330
1F
100
AcDbEntity
  8
0
  6
Continuous
 62
     7
370
    15
100
AcDbLine
 10
102.6494297046
 20
130.355687974
 30
0.0
 11
100.4294297046
 21
130.355687974
 31
0.0
  0
LINE
  5
92
330
1F
100
AcDbEntity
  8
0
  6
Continuous
 62
     7
370
    15
100
AcDbLine
 10
102.6494297046
 20
77.555687974
 30
0.0
 11
100.4294297046
 21
77.555687974
 31
0.0
  0
LINE
  5
93
330
1F
100
AcDbEntity
  8
0
  6
Continuous
 62
     7
370
    15
100
AcDbLine
 10
61.7394297046
 20
80.7272410802
 30
0.0
 11
61.7394297046
 21
81.9919504428
 31
0.0
  0
SPLINE
  5
94
330
1F
100
AcDbEntity
  8
0
  6
Continuous
 62
     7
370
    15
100
AcDbSpline
210
0.0
220
0.0
230
1.0
 70
     8
 71
     3
 72
    14
 73
    10
 74
     0
 42
0.00000001
 43
0.00000001
 40
0.0
 40
0.0
 40
0.0
 40
0.0
 40
0.25
 40
0.25
 40
0.5
 40
0.5
 40
0.75
 40
0.75
 40
1.0
 40
1.0
 40
1.0
 40
1.0
 10
60.96114258664272
 20
83.12253665043802
 30
0.0
 10
61.0177692618448
 20
83.01483919660116
 30
0.0
 10
61.11229192213452
 20
82.91204961488184
 30
0.0
 10
61.29533689769676
 20
82.7136923026617
 30
0.0
 10
61.38696347465147
 20
82.61763279398345
 30
0.0
 10
61.54581679234467
 20
82.4301037512742
 30
0.0
 10
61.61370739996637
 20
82.33869477849063
 30
0.0
 10
61.71062442567396
 20
82.1603185575805
 30
0.0
 10
61.73942970455901
 20
82.07309665133432
 30
0.0
 10
61.73942970455901
 20
81.99195044280006
 30
0.0
  0
SPLINE
  5
95
330
1F
100
AcDbEntity
  8
0
  6
Continuous
 62
     7
370
    15
100
AcDbSpline
210
0.0
220
0.0
230
1.0
 70
     8
 71
     3
 72
    14
 73
    10
 74
     0
 42
0.00000001
 43
0.00000001
 40
0.0
 40
0.0
 40
0.0
 40
0.0
 40
0.1250000000000004
 40
0.1250000000000004
 40
0.2500000000000009
 40
0.2500000000000009
 40
0.5000000000000018
 40
0.5000000000000018
 40
1.0
 40
1.0
 40
1.0
 40
1.0
 10
60.33942970455844
 20
83.56921851271733
 30
0.0
 10
60.3879741132156
 20
83.57496682599763
 30
0.0
 10
60.4408894680005
 20
83.57186593734139
 30
0.0
 10
60.53618481298354
 20
83.54967109317906
 30
0.0
 10
60.57643581026851
 20
83.53243886608321
 30
0.0
 10
60.68070582378146
 20
83.47611094963115
 30
0.0
 10
60.73102779893479
 20
83.43192460368535
 30
0.0
 10
60.85871074646015
 20
83.3009167048347
 30
0.0
 10
60.91479619352243
 20
83.21068218460442
 30
0.0
 10
60.96114258664417
 20
83.12253665043855
 30
0.0
  0
SPLINE
  5
96
330
1F
100
AcDbEntity
  8
0
  6
Continuous
 62
     7
370
    15
100
AcDbSpline
210
0.0
220
0.0
230
1.0
 70
     8
 71
     3
 72
     8
 73
     4
 74
     0
 42
0.00000001
 43
0.00000001
 40
0.0
 40
0.0
 40
0.0
 40
0.0
 40
1.0
 40
1.0
 40
1.0
 40
1.0
 10
58.07090461161216
 20
83.25937322613453
 30
0.0
 10
58.80548163809512
 20
83.37799823720349
 30
0.0
 10
59.56895670749079
 20
83.47798410933977
 30
0.0
 10
60.33942970455844
 20
83.56921851271733
 30
0.0
  0
SPLINE
  5
97
330
1F
100
AcDbEntity
  8
0
  6
Continuous
 62
     7
370
    15
100
AcDbSpline
210
0.0
220
0.0
230
1.0
 70
     8
 71
     3
 72
    14
 73
    10
 74
     0
 42
0.00000001
 43
0.00000001
 40
0.0
 40
0.0
 40
0.0
 40
0.0
 40
0.5000000000000001
 40
0.5000000000000001
 40
0.7500000000000002
 40
0.7500000000000002
 40
0.8750000000000001
 40
0.8750000000000001
 40
1.0
 40
1.0
 40
1.0
 40
1.0
 10
52.78942970455844
 20
83.0857502086029
 30
0.0
 10
53.68157583511201
 20
83.08502798240225
 30
0.0
 10
54.57155227090558
 20
83.08961418885971
 30
0.0
 10
55.89814743798117
 20
83.11733919325125
 30
0.0
 10
56.3389943664799
 20
83.12994573087542
 30
0.0
 10
56.99543460390232
 20
83.16096187888286
 30
0.0
 10
57.2134482604942
 20
83.17330505150964
 30
0.0
 10
57.64615711417695
 20
83.20632910667291
 30
0.0
 10
57.86143357934174
 20
83.22554627181137
 30
0.0
 10
58.07090461161214
 20
83.25937322613454
 30
0.0
  0
SPLINE
  5
98
330
1F
100
AcDbEntity
  8
0
  6
Continuous
 62
     7
370
    15
100
AcDbSpline
210
0.0
220
0.0
230
1.0
 70
     8
 71
     3
 72
     8
 73
     4
 74
     0
 42
0.00000001
 43
0.00000001
 40
0.0000005163856712
 40
0.0000005163856712
 40
0.0000005163856712
 40
0.0000005163856712
 40
0.000026289209185
 40
0.000026289209185
 40
0.000026289209185
 40
0.000026289209185
 10
52.77938477413975
 20
83.09573408171077
 30
0.0
 10
52.78271251235122
 20
83.09239983483795
 30
0.0
 10
52.78606096533052
 20
83.08907187755892
 30
0.0
 10
52.78942970455841
 20
83.08575020860289
 30
0.0
  0
SPLINE
  5
99
330
1F
100
AcDbEntity
  8
0
  6
Continuous
 62
     7
370
    15
100
AcDbSpline
210
0.0
220
0.0
230
1.0
 70
     8
 71
     3
 72
     8
 73
     4
 74
     0
 42
0.00000001
 43
0.00000001
 40
0.0000005099763573
 40
0.0000005099763573
 40
0.0000005099763573
 40
0.0000005099763573
 40
0.0000262827998699
 40
0.0000262827998699
 40
0.0000262827998699
 40
0.0000262827998699
 10
52.78942970455841
 20
124.8256257393931
 30
0.0
 10
52.78606096533067
 20
124.8223040704372
 30
0.0
 10
52.78271251235153
 20
124.8189761131583
 30
0.0
 10
52.77938477414021
 20
124.8156418662856
 30
0.0
  0
SPLINE
  5
9A
330
1F
100
AcDbEntity
  8
0
  6
Continuous
 62
     7
370
    15
100
AcDbSpline
210
0.0
220
0.0
230
1.0
 70
     8
 71
     3
 72
    10
 73
     6
 74
     0
 42
0.00000001
 43
0.00000001
 40
0.0
 40
0.0
 40
0.0
 40
0.0
 40
0.5
 40
0.5
 40
1.0
 40
1.0
 40
1.0
 40
1.0
 10
56.33942970455843
 20
124.7787753658257
 30
0.0
 10
55.75184415746784
 20
124.7998408860621
 30
0.0
 10
55.16109776400746
 20
124.8105993719343
 30
0.0
 10
53.97707859870859
 20
124.82396415247
 30
0.0
 10
53.38366461050313
 20
124.8261067951346
 30
0.0
 10
52.78942970455842
 20
124.825625739393
 30
0.0
  0
SPLINE
  5
9B
330
1F
100
AcDbEntity
  8
0
  6
Continuous
 62
     7
370
    15
100
AcDbSpline
210
0.0
220
0.0
230
1.0
 70
     8
 71
     3
 72
    18
 73
    14
 74
     0
 42
0.00000001
 43
0.00000001
 40
0.0
 40
0.0
 40
0.0
 40
0.0
 40
0.2499999999999984
 40
0.2499999999999984
 40
0.4999999999999976
 40
0.4999999999999976
 40
0.7499999999999967
 40
0.7499999999999967
 40
0.8749999999999979
 40
0.8749999999999979
 40
0.937499999999999
 40
0.937499999999999
 40
1.0
 40
1.0
 40
1.0
 40
1.0
 10
57.73942970455845
 20
125.799795646361
 30
0.0
 10
57.73942970455845
 20
125.7165887375038
 30
0.0
 10
57.70358060462018
 20
125.6278520821902
 30
0.0
 10
57.57870886858624
 20
125.44572689163
 30
0.0
 10
57.48830845093838
 20
125.3505968430033
 30
0.0
 10
57.26606579619619
 20
125.161415333879
 30
0.0
 10
57.13630100975044
 20
125.0664701657843
 30
0.0
 10
56.89566355243891
 20
124.9281914582044
 30
0.0
 10
56.80789625430148
 20
124.882481024902
 30
0.0
 10
56.65337216709465
 20
124.8246577196805
 30
0.0
 10
56.59676128103991
 20
124.8069429556427
 30
0.0
 10
56.47271725013332
 20
124.7824036524097
 30
0.0
 10
56.40500257511502
 20
124.7764245138715
 30
0.0
 10
56.33942970455843
 20
124.7787753658257
 30
0.0
  0
LINE
  5
9C
330
1F
100
AcDbEntity
  8
0
  6
Continuous
 62
     7
370
    15
100
AcDbLine
 10
57.7394297046
 20
125.7997956464
 30
0.0
 11
57.7394297046
 21
126.9837340662
 31
0.0
  0
LINE
  5
9D
330
1F
100
AcDbEntity
  8
0
  6
Continuous
 62
     7
370
    15
100
AcDbLine
 10
81.5394297046
 20
79.7352571123
 30
0.0
 11
81.5394297046
 21
128.1761188357
 31
0.0
  0
SPLINE
  5
9E
330
1F
100
AcDbEntity
  8
0
  6
Continuous
 62
     7
370
    15
100
AcDbSpline
210
0.0
220
0.0
230
1.0
 70
     8
 71
     3
 72
    18
 73
    14
 74
     0
 42
0.00000001
 43
0.00000001
 40
0.0
 40
0.0
 40
0.0
 40
0.0
 40
0.0010671296451831
 40
0.1270947795731633
 40
0.2524053457512758
 40
0.3766468878987075
 40
0.4391415999050405
 40
0.5008278021400039
 40
0.5624255708808992
 40
0.6253162439161173
 40
0.7499985144706733
 40
0.8752758950341271
 40
0.9999999999999999
 40
0.9999999999999999
 40
0.9999999999999999
 40
0.9999999999999999
 10
70.30973054463111
 20
80.29834895108162
 30
0.0
 10
70.3088187119926
 20
80.29823417254501
 30
0.0
 10
70.20021975335575
 20
80.284564087679
 30
0.0
 10
70.5878608210054
 20
80.33548358829475
 30
0.0
 10
71.45382550284084
 20
80.43506676134102
 30
0.0
 10
72.65422942760954
 20
80.50419064448518
 30
0.0
 10
73.71180534209958
 20
80.50814287362304
 30
0.0
 10
74.53893942900514
 20
80.48065393516862
 30
0.0
 10
75.36421129664089
 20
80.42211375876148
 30
0.0
 10
76.41857651663902
 20
80.30859259902486
 30
0.0
 10
77.58041279811515
 20
80.12544177477677
 30
0.0
 10
78.5326475794984
 20
79.9208385651417
 30
0.0
 10
78.65835264030632
 20
79.89155321436564
 30
0.0
 10
78.72106607245153
 20
79.87694294452497
 30
0.0
  0
SPLINE
  5
9F
330
1F
100
AcDbEntity
  8
0
  6
Continuous
 62
     7
370
    15
100
AcDbSpline
210
0.0
220
0.0
230
1.0
 70
     8
 71
     3
 72
    18
 73
    14
 74
     0
 42
0.00000001
 43
0.00000001
 40
0.0
 40
0.0
 40
0.0
 40
0.0
 40
0.1249080880615186
 40
0.2505384005827851
 40
0.3748721824256792
 40
0.4374907636253189
 40
0.4990776247952343
 40
0.5607931517551704
 40
0.6233901319009026
 40
0.747819101704548
 40
0.8731940972834111
 40
0.9991614619872062
 40
1.0
 40
1.0
 40
1.0
 40
1.0
 10
78.72084687545717
 20
128.0343677293156
 30
0.0
 10
78.65708929785673
 20
128.0197023184746
 30
0.0
 10
78.52920549333334
 20
127.9902867006948
 30
0.0
 10
77.57717514594717
 20
127.7853316477253
 30
0.0
 10
76.41669586987395
 20
127.6020782416152
 30
0.0
 10
75.3644313935463
 20
127.4890506205807
 30
0.0
 10
74.54020429122794
 20
127.4307869777983
 30
0.0
 10
73.71260048856023
 20
127.4033405920665
 30
0.0
 10
72.65378345781889
 20
127.4073253793038
 30
0.0
 10
71.45156353154425
 20
127.4764150015703
 30
0.0
 10
70.58638471281799
 20
127.5760406088312
 30
0.0
 10
70.20023151076619
 20
127.6268582033199
 30
0.0
 10
70.30831192394545
 20
127.6131849673767
 30
0.0
 10
70.30902663464069
 20
127.6130945494399
 30
0.0
  0
SPLINE
  5
A0
330
1F
100
AcDbEntity
  8
0
  6
Continuous
 62
     7
370
    15
100
AcDbSpline
210
0.0
220
0.0
230
1.0
 70
     8
 71
     3
 72
     8
 73
     4
 74
     0
 42
0.00000001
 43
0.00000001
 40
0.0
 40
0.0
 40
0.0
 40
0.0
 40
1.0
 40
1.0
 40
1.0
 40
1.0
 10
51.63942970455776
 20
84.26501022752048
 30
0.0
 10
51.63942970455776
 20
84.25361339910616
 30
0.0
 10
51.64099872086739
 20
84.24402798748824
 30
0.0
 10
51.64373618233582
 20
84.23655090872852
 30
0.0
  0
SPLINE
  5
A1
330
1F
100
AcDbEntity
  8
0
  6
Continuous
 62
     7
370
    15
100
AcDbSpline
210
0.0
220
0.0
230
1.0
 70
     8
 71
     3
 72
    12
 73
     8
 74
     0
 42
0.00000001
 43
0.00000001
 40
0.0
 40
0.0
 40
0.0
 40
0.0
 40
0.0839988866763469
 40
0.391088562517671
 40
0.701250540050432
 40
0.8502953555952002
 40
1.0
 40
1.0
 40
1.0
 40
1.0
 10
51.65198616560586
 20
84.22513198280448
 30
0.0
 10
51.65300713694321
 20
84.22352562963646
 30
0.0
 10
51.65776065485872
 20
84.21604664537571
 30
0.0
 10
51.67155252112232
 20
84.21787381398018
 30
0.0
 10
51.68604425438886
 20
84.23274489488172
 30
0.0
 10
51.69635567315866
 20
84.25623719766729
 30
0.0
 10
51.70017779668069
 20
84.27282380743856
 30
0.0
 10
51.70209307928182
 20
84.28113542921726
 30
0.0
  0
LINE
  5
A2
330
1F
100
AcDbEntity
  8
0
  6
Continuous
 62
     7
370
    15
100
AcDbLine
 10
51.6394297046
 20
84.2650102275
 30
0.0
 11
51.6394297046
 21
123.6463657205
 31
0.0
  0
SPLINE
  5
A3
330
1F
100
AcDbEntity
  8
0
  6
Continuous
 62
     7
370
    15
100
AcDbSpline
210
0.0
220
0.0
230
1.0
 70
     8
 71
     3
 72
    10
 73
     6
 74
     0
 42
0.00000001
 43
0.00000001
 40
0.0
 40
0.0
 40
0.0
 40
0.0
 40
0.5
 40
0.5
 40
1.0
 40
1.0
 40
1.0
 40
1.0
 10
51.70209307928184
 20
123.6302405187787
 30
0.0
 10
51.69318879017308
 20
123.6759820379919
 30
0.0
 10
51.6766734099801
 20
123.6931728774609
 30
0.0
 10
51.64956546391849
 20
123.6928496005252
 30
0.0
 10
51.63942970455842
 20
123.6749720582287
 30
0.0
 10
51.63942970455842
 20
123.6463657204761
 30
0.0
  0
SPLINE
  5
A4
330
1F
100
AcDbEntity
  8
0
  6
Continuous
 62
     7
370
    15
100
AcDbSpline
210
0.0
220
0.0
230
1.0
 70
     8
 71
     3
 72
    26
 73
    22
 74
     0
 42
0.00000001
 43
0.00000001
 40
0.0
 40
0.0
 40
0.0
 40
0.0
 40
0.2499999999999942
 40
0.2499999999999942
 40
0.3749999999999899
 40
0.3749999999999899
 40
0.4374999999999888
 40
0.4374999999999888
 40
0.4687499999999888
 40
0.4687499999999888
 40
0.4999999999999888
 40
0.4999999999999888
 40
0.5312499999999887
 40
0.5312499999999887
 40
0.5624999999999887
 40
0.5624999999999887
 40
0.6249999999999912
 40
0.6249999999999912
 40
0.7499999999999942
 40
0.7499999999999942
 40
1.0
 40
1.0
 40
1.0
 40
1.0
 10
52.46358335066295
 20
124.3458073075958
 30
0.0
 10
52.42498282779448
 20
124.2280326112404
 30
0.0
 10
52.3786858252402
 20
124.1036429250784
 30
0.0
 10
52.28474647680628
 20
123.8984235927249
 30
0.0
 10
52.24943500989282
 20
123.8268507262785
 30
0.0
 10
52.18325503414714
 20
123.710897493678
 30
0.0
 10
52.1587166674789
 20
123.6703129588678
 30
0.0
 10
52.1153439219251
 20
123.6061712769961
 30
0.0
 10
52.09983552049993
 20
123.584304851711
 30
0.0
 10
52.06479287591289
 20
123.5387105833678
 30
0.0
 10
52.04524258519311
 20
123.5150402924004
 30
0.0
 10
52.00331530482249
 20
123.4704237330605
 30
0.0
 10
51.98066319459085
 20
123.4495437205425
 30
0.0
 10
51.93968948050423
 20
123.4186703067917
 30
0.0
 10
51.92209018060883
 20
123.4088314369593
 30
0.0
 10
51.87746319475269
 20
123.3898418212632
 30
0.0
 10
51.85690397209935
 20
123.3895174966097
 30
0.0
 10
51.80577853260268
 20
123.3987409374859
 30
0.0
 10
51.78486711961415
 20
123.4199878337029
 30
0.0
 10
51.73341721205321
 20
123.4939567125337
 30
0.0
 10
51.71575191274864
 20
123.5600748058484
 30
0.0
 10
51.70209307928184
 20
123.6302405187787
 30
0.0
  0
SPLINE
  5
A5
330
1F
100
AcDbEntity
  8
0
  6
Continuous
 62
     7
370
    15
100
AcDbSpline
210
0.0
220
0.0
230
1.0
 70
     8
 71
     3
 72
    10
 73
     6
 74
     0
 42
0.00000001
 43
0.00000001
 40
0.0
 40
0.0
 40
0.0
 40
0.0
 40
0.5
 40
0.5
 40
1.0
 40
1.0
 40
1.0
 40
1.0
 10
52.77938477414024
 20
124.8156418662856
 30
0.0
 10
52.71182551922199
 20
124.7479504734759
 30
0.0
 10
52.6481888638855
 20
124.6732433087222
 30
0.0
 10
52.53796810931363
 20
124.5142771762956
 30
0.0
 10
52.49115181609101
 20
124.4299219102876
 30
0.0
 10
52.46358335066295
 20
124.3458073075958
 30
0.0
  0
SPLINE
  5
A6
330
1F
100
AcDbEntity
  8
0
  6
Continuous
 62
     7
370
    15
100
AcDbSpline
210
0.0
220
0.0
230
1.0
 70
     8
 71
     3
 72
    10
 73
     6
 74
     0
 42
0.00000001
 43
0.00000001
 40
0.0
 40
0.0
 40
0.0
 40
0.0
 40
0.5
 40
0.5
 40
1.0
 40
1.0
 40
1.0
 40
1.0
 10
52.46358335066298
 20
83.5655686404
 30
0.0
 10
52.49106076541619
 20
83.48173184393441
 30
0.0
 10
52.53776939570384
 20
83.39742135634756
 30
0.0
 10
52.64804785844581
 20
83.23830012586473
 30
0.0
 10
52.71193539705743
 20
83.16331538177664
 30
0.0
 10
52.77938477413976
 20
83.09573408171077
 30
0.0
  0
SPLINE
  5
A7
330
1F
100
AcDbEntity
  8
0
  6
Continuous
 62
     7
370
    15
100
AcDbSpline
210
0.0
220
0.0
230
1.0
 70
     8
 71
     3
 72
    24
 73
    20
 74
     0
 42
0.00000001
 43
0.00000001
 40
0.0
 40
0.0
 40
0.0
 40
0.0
 40
0.2499999999999893
 40
0.2499999999999893
 40
0.3749999999999847
 40
0.3749999999999847
 40
0.4374999999999823
 40
0.4374999999999823
 40
0.4687499999999816
 40
0.4687499999999816
 40
0.4999999999999808
 40
0.4999999999999808
 40
0.5624999999999839
 40
0.5624999999999839
 40
0.624999999999987
 40
0.624999999999987
 40
0.7499999999999907
 40
0.7499999999999907
 40
1.0
 40
1.0
 40
1.0
 40
1.0
 10
51.70209307928184
 20
84.28113542921723
 30
0.0
 10
51.71584619795205
 20
84.35178548720751
 30
0.0
 10
51.73361876535792
 20
84.41838359997243
 30
0.0
 10
51.7858698569133
 20
84.49248162020565
 30
0.0
 10
51.80690493249483
 20
84.5137394273672
 30
0.0
 10
51.85980534012327
 20
84.52188535351343
 30
0.0
 10
51.88091101300118
 20
84.52094555011767
 30
0.0
 10
51.92696318167913
 20
84.49992955854033
 30
0.0
 10
51.94533365366252
 20
84.48902075243272
 30
0.0
 10
51.98688528872823
 20
84.45638584148534
 30
0.0
 10
52.00945196148515
 20
84.43489386111398
 30
0.0
 10
52.07223297794519
 20
84.36642791752766
 30
0.0
 10
52.10536273891306
 20
84.32035345932258
 30
0.0
 10
52.16228042539808
 20
84.23534557098792
 30
0.0
 10
52.18646645090183
 20
84.19506526980652
 30
0.0
 10
52.25167440128162
 20
84.08012904334059
 30
0.0
 10
52.28639046147288
 20
84.00954605819356
 30
0.0
 10
52.37960573180375
 20
83.80534029911496
 30
0.0
 10
52.42527826716442
 20
83.68244191678758
 30
0.0
 10
52.46358335066298
 20
83.56556864040002
 30
0.0
  0
SPLINE
  5
A8
330
1F
100
AcDbEntity
  8
0
  6
Continuous
 62
     7
370
    15
100
AcDbSpline
210
0.0
220
0.0
230
1.0
 70
     8
 71
     3
 72
     8
 73
     4
 74
     0
 42
0.00000001
 43
0.00000001
 40
0.0
 40
0.0
 40
0.0
 40
0.0
 40
1.0
 40
1.0
 40
1.0
 40
1.0
 10
104.9313625360475
 20
134.4228834471622
 30
0.0
 10
104.4362225066832
 20
133.5362037989819
 30
0.0
 10
103.9421398014042
 20
132.6489411632959
 30
0.0
 10
103.4494297045584
 20
131.7609221651695
 30
0.0
  0
LINE
  5
A9
330
1F
100
AcDbEntity
  8
0
  6
Continuous
 62
     7
370
    15
100
AcDbLine
 10
104.931362536
 20
128.4143776364
 30
0.0
 11
104.931362536
 21
134.4228834472
 31
0.0
  0
SPLINE
  5
AA
330
1F
100
AcDbEntity
  8
0
  6
Continuous
 62
     7
370
    15
100
AcDbSpline
210
0.0
220
0.0
230
1.0
 70
     8
 71
     3
 72
     8
 73
     4
 74
     0
 42
0.00000001
 43
0.00000001
 40
0.0
 40
0.0
 40
0.0
 40
0.0
 40
1.0
 40
1.0
 40
1.0
 40
1.0
 10
103.4494297045584
 20
125.0058316415813
 30
0.0
 10
103.9287078551483
 20
126.1468428714339
 30
0.0
 10
104.4242756942882
 20
127.2832272822017
 30
0.0
 10
104.9313625360475
 20
128.4143776363654
 30
0.0
  0
LINE
  5
AB
330
1F
100
AcDbEntity
  8
0
  6
Continuous
 62
     7
370
    15
100
AcDbLine
 10
103.4494297046
 20
125.0058316416
 30
0.0
 11
103.4494297046
 21
131.7609221652
 31
0.0
  0
LINE
  5
AC
330
1F
100
AcDbEntity
  8
0
  6
Continuous
 62
     7
370
    15
100
AcDbLine
 10
108.8894297046
 20
134.4228834472
 30
0.0
 11
104.931362536
 21
134.4228834472
 31
0.0
  0
LINE
  5
AD
330
1F
100
AcDbEntity
  8
0
  6
Continuous
 62
     7
370
    15
100
AcDbLine
 10
104.931362536
 20
128.4143776364
 30
0.0
 11
108.8894297046
 21
128.4143776364
 31
0.0
  0
LINE
  5
AE
330
1F
100
AcDbEntity
  8
0
  6
Continuous
 62
     7
370
    15
100
AcDbLine
 10
103.4494297046
 20
124.0915546055
 30
0.0
 11
103.4494297046
 21
125.0058316416
 31
0.0
  0
SPLINE
  5
AF
330
1F
100
AcDbEntity
  8
0
  6
Continuous
 62
     7
370
    15
100
AcDbSpline
210
0.0
220
0.0
230
1.0
 70
     8
 71
     3
 72
    12
 73
     8
 74
     0
 42
0.00000001
 43
0.00000001
 40
0.0
 40
0.0
 40
0.0
 40
0.0
 40
0.25
 40
0.25
 40
0.5
 40
0.5
 40
1.0
 40
1.0
 40
1.0
 40
1.0
 10
108.8894297045584
 20
128.4143776363654
 30
0.0
 10
108.9806294263841
 20
128.4143776363654
 30
0.0
 10
109.0712244355201
 20
128.3861579377775
 30
0.0
 10
109.2246371619667
 20
128.2917149305294
 30
0.0
 10
109.2898460292904
 20
128.2254279538241
 30
0.0
 10
109.4426305586304
 20
127.9998031305358
 30
0.0
 10
109.4894297045584
 20
127.8173768675032
 30
0.0
 10
109.4894297045584
 20
127.6366402352564
 30
0.0
  0
LINE
  5
B0
330
1F
100
AcDbEntity
  8
0
  6
Continuous
 62
     7
370
    15
100
AcDbLine
 10
109.4894297046
 20
127.6366402353
 30
0.0
 11
109.4894297046
 21
123.805687974
 31
0.0
  0
SPLINE
  5
B1
330
1F
100
AcDbEntity
  8
0
  6
Continuous
 62
     7
370
    15
100
AcDbSpline
210
0.0
220
0.0
230
1.0
 70
     8
 71
     3
 72
     8
 73
     4
 74
     0
 42
0.00000001
 43
0.00000001
 40
0.0
 40
0.0
 40
0.0
 40
0.0
 40
1.0
 40
1.0
 40
1.0
 40
1.0
 10
98.14749687306937
 20
128.4143776363654
 30
0.0
 10
98.65458371482865
 20
127.2832272822017
 30
0.0
 10
99.15015155396858
 20
126.1468428714339
 30
0.0
 10
99.62942970455843
 20
125.0058316415813
 30
0.0
  0
LINE
  5
B2
330
1F
100
AcDbEntity
  8
0
  6
Continuous
 62
     7
370
    15
100
AcDbLine
 10
99.6294297046
 20
125.0058316416
 30
0.0
 11
99.6294297046
 21
124.0915546055
 31
0.0
  0
SPLINE
  5
B3
330
1F
100
AcDbEntity
  8
0
  6
Continuous
 62
     7
370
    15
100
AcDbSpline
210
0.0
220
0.0
230
1.0
 70
     8
 71
     3
 72
     8
 73
     4
 74
     0
 42
0.00000001
 43
0.00000001
 40
0.0
 40
0.0
 40
0.0
 40
0.0
 40
1.0
 40
1.0
 40
1.0
 40
1.0
 10
99.62942970455843
 20
131.7609221651696
 30
0.0
 10
99.13671960771266
 20
132.6489411632959
 30
0.0
 10
98.6426369024337
 20
133.5362037989819
 30
0.0
 10
98.14749687306937
 20
134.4228834471622
 30
0.0
  0
LINE
  5
B4
330
1F
100
AcDbEntity
  8
0
  6
Continuous
 62
     7
370
    15
100
AcDbLine
 10
99.6294297046
 20
125.0058316416
 30
0.0
 11
99.6294297046
 21
131.7609221652
 31
0.0
  0
SPLINE
  5
B5
330
1F
100
AcDbEntity
  8
0
  6
Continuous
 62
     7
370
    15
100
AcDbSpline
210
0.0
220
0.0
230
1.0
 70
     8
 71
     3
 72
    10
 73
     6
 74
     0
 42
0.00000001
 43
0.00000001
 40
0.0
 40
0.0
 40
0.0
 40
0.0
 40
0.5
 40
0.5
 40
1.0
 40
1.0
 40
1.0
 40
1.0
 10
109.4894297045584
 20
133.8021282977619
 30
0.0
 10
109.4894297045584
 20
133.9625335641127
 30
0.0
 10
109.4271918734516
 20
134.1215953771013
 30
0.0
 10
109.208056949709
 20
134.3525078427316
 30
0.0
 10
109.0504682547171
 20
134.4228834471622
 30
0.0
 10
108.8894297045584
 20
134.4228834471622
 30
0.0
  0
LINE
  5
B6
330
1F
100
AcDbEntity
  8
0
  6
Continuous
 62
     7
370
    15
100
AcDbLine
 10
109.4894297046
 20
127.6366402353
 30
0.0
 11
109.4894297046
 21
133.8021282978
 31
0.0
  0
ARC
  5
B7
330
1F
100
AcDbEntity
  8
0
  6
Continuous
 62
     7
370
    15
100
AcDbCircle
 10
91.5392914827
 20
122.7161874692
 30
0.0
 40
7.197617454957316
100
AcDbArc
 50
70.7484472317
 51
109.2065859885
  0
SPLINE
  5
B8
330
1F
100
AcDbEntity
  8
0
  6
Continuous
 62
     7
370
    15
100
AcDbSpline
210
0.0
220
0.0
230
1.0
 70
     8
 71
     3
 72
    38
 73
    34
 74
     0
 42
0.00000001
 43
0.00000001
 40
0.0
 40
0.0
 40
0.0
 40
0.0
 40
0.0243208979560744
 40
0.0473799132081337
 40
0.0888475391294997
 40
0.1314017766657836
 40
0.1752837264461912
 40
0.2201672177764208
 40
0.2449667220494248
 40
0.2952350516663531
 40
0.3207312097038181
 40
0.348949128402843
 40
0.3773377769464653
 40
0.4062470988988764
 40
0.4353299804538554
 40
0.4660218609004281
 40
0.4969160715291895
 40
0.5284451678034526
 40
0.5601930863509453
 40
0.5917026910558334
 40
0.623435758549037
 40
0.655891338146718
 40
0.6886059836357523
 40
0.7192590636760023
 40
0.7501542143202127
 40
0.7818713260908919
 40
0.8139017885740919
 40
0.8370711838718149
 40
0.8841384907673572
 40
0.90811366732972
 40
0.9312885507753393
 40
0.9785837128808639
 40
1.0
 40
1.0
 40
1.0
 40
1.0
 10
151.9997846086041
 20
86.95725730888678
 30
0.0
 10
151.997744542043
 20
86.95694926119516
 30
0.0
 10
151.9937702571798
 20
86.95634914877667
 30
0.0
 10
152.0423694393159
 20
86.96369196746748
 30
0.0
 10
152.137824536769
 20
86.97790999685698
 30
0.0
 10
152.3207257199185
 20
87.00409688591151
 30
0.0
 10
152.5679356943024
 20
87.03732636406932
 30
0.0
 10
152.8275408861396
 20
87.06924235358703
 30
0.0
 10
153.1323139836452
 20
87.10332262107212
 30
0.0
 10
153.4132686325217
 20
87.13130671958271
 30
0.0
 10
153.7233301333553
 20
87.15760837788073
 30
0.0
 10
153.9779283619742
 20
87.1764791351086
 30
0.0
 10
154.251919800456
 20
87.19353435393776
 30
0.0
 10
154.5359574052198
 20
87.20767038894552
 30
0.0
 10
154.8332896723337
 20
87.21859551743023
 30
0.0
 10
155.1414347314614
 20
87.22568936460891
 30
0.0
 10
155.4601855423438
 20
87.22845272109996
 30
0.0
 10
155.7827691575482
 20
87.22653095322462
 30
0.0
 10
156.1054483540954
 20
87.21984177895388
 30
0.0
 10
156.4245421410971
 20
87.20857785933299
 30
0.0
 10
156.7394216793695
 20
87.19297982594104
 30
0.0
 10
157.0490796078242
 20
87.1733103378495
 30
0.0
 10
157.3435010591957
 20
87.15061171802111
 30
0.0
 10
157.6192268690565
 20
87.12592422970107
 30
0.0
 10
157.876213878824
 20
87.1000030344884
 30
0.0
 10
158.1178691942847
 20
87.07305655408271
 30
0.0
 10
158.3190724464268
 20
87.04865011834012
 30
0.0
 10
158.5313490983447
 20
87.02134242967286
 30
0.0
 10
158.6958321058752
 20
86.99869958056951
 30
0.0
 10
158.8226627688942
 20
86.98049485236926
 30
0.0
 10
158.922452252057
 20
86.96583321118884
 30
0.0
 10
158.9822450925062
 20
86.95677791102963
 30
0.0
 10
158.9867908065635
 20
86.95608820909025
 30
0.0
 10
158.9882076347415
 20
86.95587323975215
 30
0.0
  0
SPLINE
  5
B9
330
1F
100
AcDbEntity
  8
0
  6
Continuous
 62
     7
370
    15
100
AcDbSpline
210
0.0
220
0.0
230
1.0
 70
     8
 71
     3
 72
     9
 73
     5
 74
     0
 42
0.00000001
 43
0.00000001
 40
0.0
 40
0.0
 40
0.0
 40
0.0
 40
0.1502522562427188
 40
1.0
 40
1.0
 40
1.0
 40
1.0
 10
153.4607290926706
 20
87.13459280596844
 30
0.0
 10
153.4444844123145
 20
87.13319298664481
 30
0.0
 10
153.3363683629298
 20
87.1238765253907
 30
0.0
 10
153.2373181903425
 20
87.11360007426806
 30
0.0
 10
153.1531505296677
 20
87.10486768311277
 30
0.0
  0
SPLINE
  5
BA
330
1F
100
AcDbEntity
  8
0
  6
Continuous
 62
     7
370
    15
100
AcDbSpline
210
0.0
220
0.0
230
1.0
 70
     8
 71
     3
 72
    66
 73
    62
 74
     0
 42
0.00000001
 43
0.00000001
 40
-0.0624999999999999
 40
-0.0624999999999999
 40
0.0
 40
0.0
 40
0.0625000000000001
 40
0.0625000000000001
 40
0.0937500000000002
 40
0.0937500000000002
 40
0.1250000000000002
 40
0.1250000000000002
 40
0.1562500000000003
 40
0.1562500000000003
 40
0.1875000000000004
 40
0.1875000000000004
 40
0.2187500000000004
 40
0.2187500000000004
 40
0.2500000000000005
 40
0.2500000000000005
 40
0.2812500000000006
 40
0.2812500000000006
 40
0.3125000000000006
 40
0.3125000000000006
 40
0.3437500000000006
 40
0.3437500000000006
 40
0.3750000000000006
 40
0.3750000000000006
 40
0.4062500000000006
 40
0.4062500000000006
 40
0.4375000000000006
 40
0.4375000000000006
 40
0.4687500000000007
 40
0.4687500000000007
 40
0.5000000000000007
 40
0.5000000000000007
 40
0.5312500000000007
 40
0.5312500000000007
 40
0.5625000000000006
 40
0.5625000000000006
 40
0.5937500000000006
 40
0.5937500000000006
 40
0.6250000000000004
 40
0.6250000000000004
 40
0.6562500000000004
 40
0.6562500000000004
 40
0.6875000000000004
 40
0.6875000000000004
 40
0.7187500000000003
 40
0.7187500000000003
 40
0.7500000000000003
 40
0.7500000000000003
 40
0.7812500000000003
 40
0.7812500000000003
 40
0.8125000000000002
 40
0.8125000000000002
 40
0.8437500000000002
 40
0.8437500000000002
 40
0.8750000000000001
 40
0.8750000000000001
 40
0.9062500000000001
 40
0.9062500000000001
 40
0.9375000000000001
 40
0.9375000000000001
 40
1.0
 40
1.0
 40
1.0625
 40
1.0625
 10
152.8140275241655
 20
105.9384234743286
 30
0.0
 10
153.4922735364539
 20
106.4673291912377
 30
0.0
 10
153.8710679291594
 20
106.6631025544563
 30
0.0
 10
154.4839478647824
 20
106.8610859378689
 30
0.0
 10
154.6914018280366
 20
106.9093830819683
 30
0.0
 10
155.1123345244745
 20
106.9723928281151
 30
0.0
 10
155.3273817429037
 20
106.9870462473802
 30
0.0
 10
155.7563146642066
 20
106.9813946667882
 30
0.0
 10
155.9681351597272
 20
106.961396587005
 30
0.0
 10
156.3865900977893
 20
106.887679593931
 30
0.0
 10
156.594570924107
 20
106.8334855044527
 30
0.0
 10
156.9988321581013
 20
106.6908088001193
 30
0.0
 10
157.1922887985848
 20
106.6035943103721
 30
0.0
 10
157.5617429585707
 20
106.3969863720747
 30
0.0
 10
157.7386828839004
 20
106.2768692921128
 30
0.0
 10
158.0689107694528
 20
106.0033678424751
 30
0.0
 10
158.2184340016346
 20
105.8533713171082
 30
0.0
 10
158.485027823196
 20
105.5255973094071
 30
0.0
 10
158.6031810124888
 20
105.345780004944
 30
0.0
 10
158.7963027605156
 20
104.9625984346646
 30
0.0
 10
158.8696503160352
 20
104.7635229456283
 30
0.0
 10
158.9679040561312
 20
104.3496928171867
 30
0.0
 10
158.992245555634
 20
104.131967359399
 30
0.0
 10
158.9860754598852
 20
103.7048701276703
 30
0.0
 10
158.956483116586
 20
103.4921089047747
 30
0.0
 10
158.8451545873838
 20
103.074967703916
 30
0.0
 10
158.7654116835873
 20
102.8768449507719
 30
0.0
 10
158.562132568405
 20
102.4995213419394
 30
0.0
 10
158.4385411396671
 20
102.3215131124708
 30
0.0
 10
158.160929652266
 20
101.9977627630516
 30
0.0
 10
158.0041835163596
 20
101.8487353739212
 30
0.0
 10
157.6676635393284
 20
101.5842571800021
 30
0.0
 10
157.488615708205
 20
101.4687964736738
 30
0.0
 10
157.1102964100936
 20
101.2690755535746
 30
0.0
 10
156.910576547544
 20
101.1851009122706
 30
0.0
 10
156.5049516652142
 20
101.0530200710707
 30
0.0
 10
156.2973873895579
 20
101.003937643811
 30
0.0
 10
155.8727721796888
 20
100.9394770391425
 30
0.0
 10
155.6570709099822
 20
100.924633764017
 30
0.0
 10
155.2308265378295
 20
100.9295065015878
 30
0.0
 10
155.0185691468738
 20
100.9489221059822
 30
0.0
 10
154.5958336402829
 20
101.0227523550487
 30
0.0
 10
154.3866409080659
 20
101.0773073860565
 30
0.0
 10
153.9855083819512
 20
101.21839027556
 30
0.0
 10
153.7916698129168
 20
101.3051738221978
 30
0.0
 10
153.4182870205628
 20
101.5134952398176
 30
0.0
 10
153.2393824780135
 20
101.6352698083496
 30
0.0
 10
152.9127360835677
 20
101.9055946233983
 30
0.0
 10
152.7628493874901
 20
102.0551635431466
 30
0.0
 10
152.4930117863333
 20
102.3866482302612
 30
0.0
 10
152.3740604315539
 20
102.5684689483211
 30
0.0
 10
152.1823519719991
 20
102.9495241130573
 30
0.0
 10
152.1071542580997
 20
103.1536882727912
 30
0.0
 10
152.0092577760114
 20
103.5717618924259
 30
0.0
 10
151.9862021750237
 20
103.783731656273
 30
0.0
 10
151.9933751036869
 20
104.2137140617676
 30
0.0
 10
152.024365794323
 20
104.4291814363706
 30
0.0
 10
152.1358885318757
 20
104.8420362684112
 30
0.0
 10
152.2178761610375
 20
105.0443718140662
 30
0.0
 10
152.5245716685984
 20
105.6086700319157
 30
0.0
 10
152.8140275241655
 20
105.9384234743286
 30
0.0
 10
153.4922735364539
 20
106.4673291912377
 30
0.0
  0
SPLINE
  5
BB
330
1F
100
AcDbEntity
  8
0
  6
Continuous
 62
     7
370
    15
100
AcDbSpline
210
0.0
220
0.0
230
1.0
 70
     8
 71
     3
 72
    37
 73
    33
 74
     0
 42
0.00000001
 43
0.00000001
 40
0.0
 40
0.0
 40
0.0
 40
0.0
 40
0.0392058559256644
 40
0.0617684858998892
 40
0.1033196420333151
 40
0.1459245603787731
 40
0.190616465018286
 40
0.2363173866122235
 40
0.2617032916316646
 40
0.3131651543937189
 40
0.3392707038908881
 40
0.36801460365693
 40
0.4263520034369533
 40
0.4559948816373636
 40
0.4869441974064599
 40
0.5181002245742917
 40
0.5499076812319711
 40
0.5819408635235285
 40
0.6134346431867627
 40
0.6451549346315995
 40
0.6776128471923774
 40
0.7103377807265624
 40
0.7406318727841446
 40
0.7711708857670379
 40
0.8025481414164807
 40
0.8342477007652913
 40
0.8568131322000918
 40
0.9026586442509197
 40
0.9260128391630553
 40
0.9485831324200872
 40
0.9946198415690859
 40
1.0
 40
1.0
 40
1.0
 40
1.0
 10
158.9854363344633
 20
120.9550841224583
 30
0.0
 10
158.9813084513173
 20
120.9544525341803
 30
0.0
 10
158.9748050072301
 20
120.9534574723274
 30
0.0
 10
158.90154908566
 20
120.9424617489442
 30
0.0
 10
158.7857828057415
 20
120.9254176616701
 30
0.0
 10
158.5810843979671
 20
120.8966559735087
 30
0.0
 10
158.3115899316266
 20
120.8613920928604
 30
0.0
 10
158.0324920990898
 20
120.8283691510126
 30
0.0
 10
157.7075267598937
 20
120.7937934040665
 30
0.0
 10
157.409939796979
 20
120.7660433437174
 30
0.0
 10
157.0842130872355
 20
120.7407730368118
 30
0.0
 10
156.72530026646
 20
120.716971641267
 30
0.0
 10
156.3384141700402
 20
120.6985132025094
 30
0.0
 10
155.9358207771726
 20
120.6874942961937
 30
0.0
 10
155.6222470113169
 20
120.6833137536984
 30
0.0
 10
155.3004134673787
 20
120.6837053147154
 30
0.0
 10
154.9761325773628
 20
120.6888761432598
 30
0.0
 10
154.6542894717188
 20
120.6987668788556
 30
0.0
 10
154.3386275821252
 20
120.7130175397242
 30
0.0
 10
154.0297467292904
 20
120.731263320119
 30
0.0
 10
153.7277752947548
 20
120.7532032730663
 30
0.0
 10
153.4437728836074
 20
120.7775551761817
 30
0.0
 10
153.1809997611693
 20
120.8031910286089
 30
0.0
 10
152.939273166521
 20
120.8293372805632
 30
0.0
 10
152.7145406302786
 20
120.8558628505087
 30
0.0
 10
152.5311073471472
 20
120.8791576753531
 30
0.0
 10
152.3422162746465
 20
120.9043796263335
 30
0.0
 10
152.2010084656925
 20
120.9243520028342
 30
0.0
 10
152.0971938559254
 20
120.9395331401734
 30
0.0
 10
152.0213779935301
 20
120.950821493732
 30
0.0
 10
151.9852989992734
 20
120.9563148296881
 30
0.0
 10
151.9908467962272
 20
120.9554730977817
 30
0.0
 10
151.9914273066309
 20
120.9553850206345
 30
0.0
  0
LINE
  5
BC
330
1F
100
AcDbEntity
  8
0
  6
Continuous
 62
     7
370
    15
100
AcDbLine
 10
153.072867321
 20
120.8152972828
 30
0.0
 11
153.153150529
 21
120.8065082649
 31
0.0
  0
LINE
  5
BD
330
1F
100
AcDbEntity
  8
0
  6
Continuous
 62
     7
370
    15
100
AcDbLine
 10
199.0677131279
 20
86.955687974
 30
0.0
 11
199.0677131279
 21
120.955687974
 31
0.0
  0
CIRCLE
  5
BE
330
1F
100
AcDbEntity
  8
0
  6
Continuous
 62
     7
370
    15
100
AcDbCircle
 10
155.4894297046
 20
103.955687974
 30
0.0
 40
2.5
  0
LINE
  5
BF
330
1F
100
AcDbEntity
  8
0
  6
Continuous
 62
     7
370
    15
100
AcDbLine
 10
243.5394297046
 20
92.3044689573
 30
0.0
 11
243.5394297046
 21
115.6069069907
 31
0.0
  0
LINE
  5
C0
330
1F
100
AcDbEntity
  8
0
  6
Continuous
 62
     7
370
    15
100
AcDbLine
 10
243.5578621881
 20
115.1754046755
 30
0.0
 11
243.5394297046
 21
114.7062666429
 31
0.0
  0
LINE
  5
C1
330
1F
100
AcDbEntity
  8
0
  6
Continuous
 62
     7
370
    15
100
AcDbLine
 10
243.6103375637
 20
92.9015411145
 30
0.0
 11
243.6167519117
 21
92.7382850561
 31
0.0
  0
LINE
  5
C2
330
1F
100
AcDbEntity
  8
0
  6
Continuous
 62
     7
370
    15
100
AcDbLine
 10
243.5394297046
 20
94.706266643
 30
0.0
 11
243.6103375637
 21
92.9015411145
 31
0.0
  0
LINE
  5
C3
330
1F
100
AcDbEntity
  8
0
  6
HIDDEN
 62
     7
370
     0
100
AcDbLine
 10
181.5394297046
 20
98.955687974
 30
0.0
 11
181.5394297046
 21
108.955687974
 31
0.0
  0
LINE
  5
C4
330
1F
100
AcDbEntity
  8
0
  6
HIDDEN
 62
     7
370
     0
100
AcDbLine
 10
197.5394297046
 20
99.455687974
 30
0.0
 11
197.5394297046
 21
108.455687974
 31
0.0
  0
LINE
  5
C5
330
1F
100
AcDbEntity
  8
0
  6
HIDDEN
 62
     7
370
     0
100
AcDbLine
 10
181.0394297046
 20
99.455687974
 30
0.0
 11
181.0394297046
 21
108.455687974
 31
0.0
  0
LINE
  5
C6
330
1F
100
AcDbEntity
  8
0
  6
HIDDEN
 62
     7
370
     0
100
AcDbLine
 10
201.0394297046
 20
102.3969627754
 30
0.0
 11
199.0394297046
 21
102.3969627754
 31
0.0
  0
LINE
  5
C7
330
1F
100
AcDbEntity
  8
0
  6
HIDDEN
 62
     7
370
     0
100
AcDbLine
 10
201.0394297046
 20
99.455687974
 30
0.0
 11
201.0394297046
 21
102.3969627754
 31
0.0
  0
LINE
  5
C8
330
1F
100
AcDbEntity
  8
0
  6
HIDDEN
 62
     7
370
     0
100
AcDbLine
 10
199.0394297046
 20
103.5311909965
 30
0.0
 11
201.0394297046
 21
103.5311909965
 31
0.0
  0
LINE
  5
C9
330
1F
100
AcDbEntity
  8
0
  6
HIDDEN
 62
     7
370
     0
100
AcDbLine
 10
201.0394297046
 20
105.5144131726
 30
0.0
 11
199.0394297046
 21
105.5144131726
 31
0.0
  0
LINE
  5
CA
330
1F
100
AcDbEntity
  8
0
  6
HIDDEN
 62
     7
370
     0
100
AcDbLine
 10
201.0394297046
 20
104.3801849515
 30
0.0
 11
201.0394297046
 21
108.455687974
 31
0.0
  0
LINE
  5
CB
330
1F
100
AcDbEntity
  8
0
  6
HIDDEN
 62
     7
370
     0
100
AcDbLine
 10
199.0394297046
 20
104.3801849515
 30
0.0
 11
201.0394297046
 21
104.3801849515
 31
0.0
  0
LINE
  5
CC
330
1F
100
AcDbEntity
  8
0
  6
HIDDEN
 62
     7
370
     0
100
AcDbLine
 10
199.0394297046
 20
102.3969627754
 30
0.0
 11
199.0394297046
 21
104.3801849515
 31
0.0
  0
LINE
  5
CD
330
1F
100
AcDbEntity
  8
0
  6
HIDDEN
 62
     7
370
     0
100
AcDbLine
 10
199.0394297046
 20
104.6487921098
 30
0.0
 11
199.0394297046
 21
104.3801849515
 31
0.0
  0
LINE
  5
CE
330
1F
100
AcDbEntity
  8
0
  6
HIDDEN
 62
     7
370
     0
100
AcDbLine
 10
199.0394297046
 20
102.6655699337
 30
0.0
 11
201.0394297046
 21
102.6655699337
 31
0.0
  0
LINE
  5
CF
330
1F
100
AcDbEntity
  8
0
  6
HIDDEN
 62
     7
370
     0
100
AcDbLine
 10
201.0394297046
 20
102.6655699337
 30
0.0
 11
201.0394297046
 21
102.3969627754
 31
0.0
  0
LINE
  5
D0
330
1F
100
AcDbEntity
  8
0
  6
HIDDEN
 62
     7
370
     0
100
AcDbLine
 10
201.0394297046
 20
104.6487921098
 30
0.0
 11
199.0394297046
 21
104.6487921098
 31
0.0
  0
LINE
  5
D1
330
1F
100
AcDbEntity
  8
0
  6
HIDDEN
 62
     7
370
     0
100
AcDbLine
 10
195.0394297046
 20
104.9153515663
 30
0.0
 11
195.0394297046
 21
103.5825542837
 31
0.0
  0
LINE
  5
D2
330
1F
100
AcDbEntity
  8
0
  6
HIDDEN
 62
     7
370
     0
100
AcDbLine
 10
187.0394297045
 20
103.5825542837
 30
0.0
 11
187.0394297045
 21
104.9153515663
 31
0.0
  0
LINE
  5
D3
330
1F
100
AcDbEntity
  8
0
  6
HIDDEN
 62
     7
370
     0
100
AcDbLine
 10
195.0394297046
 20
103.5825542837
 30
0.0
 11
195.0394297046
 21
102.4363238462
 31
0.0
  0
LINE
  5
D4
330
1F
100
AcDbEntity
  8
0
  6
HIDDEN
 62
     7
370
     0
100
AcDbLine
 10
195.0394297046
 20
103.5825542837
 30
0.0
 11
199.0394297046
 21
103.5825542837
 31
0.0
  0
LINE
  5
D5
330
1F
100
AcDbEntity
  8
0
  6
HIDDEN
 62
     7
370
     0
100
AcDbLine
 10
187.0394297045
 20
102.4363238462
 30
0.0
 11
187.0394297045
 21
103.5825542837
 31
0.0
  0
LINE
  5
D6
330
1F
100
AcDbEntity
  8
0
  6
HIDDEN
 62
     7
370
     0
100
AcDbLine
 10
187.0394297045
 20
103.5825542837
 30
0.0
 11
181.0394297046
 21
103.5825542837
 31
0.0
  0
LINE
  5
D7
330
1F
100
AcDbEntity
  8
0
  6
HIDDEN
 62
     7
370
     0
100
AcDbLine
 10
195.0394297046
 20
106.2481488489
 30
0.0
 11
195.0394297046
 21
104.9153515663
 31
0.0
  0
LINE
  5
D8
330
1F
100
AcDbEntity
  8
0
  6
HIDDEN
 62
     7
370
     0
100
AcDbLine
 10
187.0394297045
 20
104.9153515663
 30
0.0
 11
187.0394297045
 21
106.2481488489
 31
0.0
  0
LINE
  5
D9
330
1F
100
AcDbEntity
  8
0
  6
HIDDEN
 62
     7
370
     0
100
AcDbLine
 10
187.0394297045
 20
101.2900934088
 30
0.0
 11
187.0394297045
 21
102.4363238462
 31
0.0
  0
LINE
  5
DA
330
1F
100
AcDbEntity
  8
0
  6
HIDDEN
 62
     7
370
     0
100
AcDbLine
 10
195.0394297046
 20
102.4363238462
 30
0.0
 11
195.0394297046
 21
101.2900934088
 31
0.0
  0
LINE
  5
DB
330
1F
100
AcDbEntity
  8
0
  6
HIDDEN
 62
     7
370
     0
100
AcDbLine
 10
195.0394297046
 20
106.4347156941
 30
0.0
 11
195.0394297046
 21
106.2481488489
 31
0.0
  0
LINE
  5
DC
330
1F
100
AcDbEntity
  8
0
  6
HIDDEN
 62
     7
370
     0
100
AcDbLine
 10
195.0394297046
 20
106.2481488489
 30
0.0
 11
201.0394297046
 21
106.2481488489
 31
0.0
  0
LINE
  5
DD
330
1F
100
AcDbEntity
  8
0
  6
HIDDEN
 62
     7
370
     0
100
AcDbLine
 10
187.0394297045
 20
106.2481488489
 30
0.0
 11
187.0394297045
 21
106.4347156941
 31
0.0
  0
LINE
  5
DE
330
1F
100
AcDbEntity
  8
0
  6
HIDDEN
 62
     7
370
     0
100
AcDbLine
 10
187.0394297045
 20
106.2481488489
 30
0.0
 11
181.0394297045
 21
106.2481488489
 31
0.0
  0
LINE
  5
DF
330
1F
100
AcDbEntity
  8
0
  6
HIDDEN
 62
     7
370
     0
100
AcDbLine
 10
187.0394297045
 20
101.6632270991
 30
0.0
 11
181.0394297045
 21
101.6632270991
 31
0.0
  0
LINE
  5
E0
330
1F
100
AcDbEntity
  8
0
  6
HIDDEN
 62
     7
370
     0
100
AcDbLine
 10
187.0394297045
 20
101.2900934088
 30
0.0
 11
181.0394297045
 21
101.2900934088
 31
0.0
  0
LINE
  5
E1
330
1F
100
AcDbEntity
  8
0
  6
HIDDEN
 62
     7
370
     0
100
AcDbLine
 10
195.0394297046
 20
101.6632270991
 30
0.0
 11
201.0394297046
 21
101.6632270991
 31
0.0
  0
LINE
  5
E2
330
1F
100
AcDbEntity
  8
0
  6
HIDDEN
 62
     7
370
     0
100
AcDbLine
 10
195.0394297046
 20
101.2900934088
 30
0.0
 11
201.0394297046
 21
101.2900934088
 31
0.0
  0
LINE
  5
E3
330
1F
100
AcDbEntity
  8
0
  6
HIDDEN
 62
     7
370
     0
100
AcDbLine
 10
187.0394297045
 20
106.4347156941
 30
0.0
 11
187.0394297045
 21
106.6212825392
 31
0.0
  0
LINE
  5
E4
330
1F
100
AcDbEntity
  8
0
  6
HIDDEN
 62
     7
370
     0
100
AcDbLine
 10
195.0394297046
 20
106.6212825392
 30
0.0
 11
195.0394297046
 21
106.4347156941
 31
0.0
  0
LINE
  5
E5
330
1F
100
AcDbEntity
  8
0
  6
HIDDEN
 62
     7
370
     0
100
AcDbLine
 10
199.0394297046
 20
105.2458060143
 30
0.0
 11
201.0394297046
 21
105.2458060143
 31
0.0
  0
LINE
  5
E6
330
1F
100
AcDbEntity
  8
0
  6
HIDDEN
 62
     7
370
     0
100
AcDbLine
 10
199.0394297046
 20
104.6487921098
 30
0.0
 11
199.0394297046
 21
105.2458060143
 31
0.0
  0
LINE
  5
E7
330
1F
100
AcDbEntity
  8
0
  6
HIDDEN
 62
     7
370
     0
100
AcDbLine
 10
195.0394297046
 20
104.3288216643
 30
0.0
 11
199.0394297046
 21
104.3288216643
 31
0.0
  0
LINE
  5
E8
330
1F
100
AcDbEntity
  8
0
  6
HIDDEN
 62
     7
370
     0
100
AcDbLine
 10
195.0394297046
 20
106.6212825392
 30
0.0
 11
201.0394297046
 21
106.6212825392
 31
0.0
  0
LINE
  5
E9
330
1F
100
AcDbEntity
  8
0
  6
HIDDEN
 62
     7
370
     0
100
AcDbLine
 10
187.0394297045
 20
104.3288216643
 30
0.0
 11
181.0394297045
 21
104.3288216643
 31
0.0
  0
LINE
  5
EA
330
1F
100
AcDbEntity
  8
0
  6
HIDDEN
 62
     7
370
     0
100
AcDbLine
 10
187.0394297045
 20
106.6212825392
 30
0.0
 11
181.0394297045
 21
106.6212825392
 31
0.0
  0
LINE
  5
EB
330
1F
100
AcDbEntity
  8
0
  6
HIDDEN
 62
     7
370
     0
100
AcDbLine
 10
201.0394297046
 20
103.2625838382
 30
0.0
 11
199.0394297046
 21
103.2625838382
 31
0.0
  0
LINE
  5
EC
330
1F
100
AcDbEntity
  8
0
  6
HIDDEN
 62
     7
370
     0
100
AcDbLine
 10
201.0394297046
 20
103.2625838382
 30
0.0
 11
201.0394297046
 21
102.6655699337
 31
0.0
  0
LINE
  5
ED
330
1F
100
AcDbEntity
  8
0
  6
HIDDEN
 62
     7
370
     0
100
AcDbLine
 10
199.0394297046
 20
105.5144131726
 30
0.0
 11
199.0394297046
 21
105.2458060143
 31
0.0
  0
LINE
  5
EE
330
1F
100
AcDbEntity
  8
0
  6
HIDDEN
 62
     7
370
     0
100
AcDbLine
 10
201.0394297046
 20
103.5311909965
 30
0.0
 11
201.0394297046
 21
103.2625838382
 31
0.0
  0
LINE
  5
EF
330
1F
100
AcDbEntity
  8
0
  6
HIDDEN
 62
     7
370
     0
100
AcDbLine
 10
98.1474968731
 20
128.4143776364
 30
0.0
 11
98.1474968731
 21
123.805687974
 31
0.0
  0
ARC
  5
F0
330
1F
100
AcDbEntity
  8
0
  6
HIDDEN
 62
     7
370
     0
100
AcDbCircle
 10
91.8204021764
 20
116.452142921
 30
0.0
 40
3.677290312352996
100
AcDbArc
 50
265.6179031648
 51
12.4383822962
  0
ARC
  5
F1
330
1F
100
AcDbEntity
  8
0
  6
HIDDEN
 62
     7
370
     0
100
AcDbCircle
 10
91.2553401483
 20
116.4445634126
 30
0.0
 40
3.66997298196394
100
AcDbArc
 50
166.0291606888
 51
274.4396600647
  0
LINE
  5
F2
330
1F
100
AcDbEntity
  8
0
  6
HIDDEN
 62
     7
370
     0
100
AcDbLine
 10
54.5707105136
 20
124.8172634381
 30
0.0
 11
52.930318106
 21
124.8249643326
 31
0.0
  0
LINE
  5
F3
330
1F
100
AcDbEntity
  8
0
  6
HIDDEN
 62
     7
370
     0
100
AcDbLine
 10
71.5345799091
 20
80.4310883512
 30
0.0
 11
71.00043448
 21
80.3764737517
 31
0.0
  0
LINE
  5
F4
330
1F
100
AcDbEntity
  8
0
  6
HIDDEN
 62
     7
370
     0
100
AcDbLine
 10
70.760643283
 20
127.5592383419
 30
0.0
 11
71.5344871888
 21
127.480271004
 31
0.0
  0
SPLINE
  5
F5
330
1F
100
AcDbEntity
  8
0
  6
HIDDEN
 62
     7
370
     0
100
AcDbSpline
210
0.0
220
0.0
230
1.0
 70
     8
 71
     3
 72
    15
 73
    11
 74
     0
 42
0.00000001
 43
0.00000001
 40
0.0
 40
0.0
 40
0.0
 40
0.0
 40
0.110072588692132
 40
0.2209193734147121
 40
0.3341941649114025
 40
0.448303519393223
 40
0.5583990715890395
 40
0.7822971689737802
 40
0.8963603647916926
 40
1.0
 40
1.0
 40
1.0
 40
1.0
 10
77.29443170616003
 20
123.7932164498144
 30
0.0
 10
77.36202569262419
 20
123.802284703906
 30
0.0
 10
77.49768908814974
 20
123.8204849936938
 30
0.0
 10
77.67813451272316
 20
123.8412060490158
 30
0.0
 10
77.840283287539
 20
123.8579457343798
 30
0.0
 10
77.97833443310559
 20
123.8705278461941
 30
0.0
 10
78.12997515046764
 20
123.8829066460776
 30
0.0
 10
78.23142080417192
 20
123.8898639314082
 30
0.0
 10
78.28283451778812
 20
123.8931605725659
 30
0.0
 10
78.28678932634782
 20
123.8934058774451
 30
0.0
 10
78.28867205297345
 20
123.8935226573146
 30
0.0
  0
SPLINE
  5
F6
330
1F
100
AcDbEntity
  8
0
  6
HIDDEN
 62
     7
370
     0
100
AcDbSpline
210
0.0
220
0.0
230
1.0
 70
     8
 71
     3
 72
    17
 73
    13
 74
     0
 42
0.00000001
 43
0.00000001
 40
0.0
 40
0.0
 40
0.0
 40
0.0
 40
0.007026850021131
 40
0.1183631929415051
 40
0.232113419828284
 40
0.3466983210643472
 40
0.4574106626582204
 40
0.5688954169322241
 40
0.682824119935849
 40
0.7976023978524978
 40
0.8985035916333007
 40
1.0
 40
1.0
 40
1.0
 40
1.0
 10
78.288669653743
 20
84.0178534422464
 30
0.0
 10
78.28892155658862
 20
84.01783753434054
 30
0.0
 10
78.29316471319939
 20
84.01756957493828
 30
0.0
 10
78.27724483322078
 20
84.01856644338858
 30
0.0
 10
78.23822899488482
 20
84.02108299266904
 30
0.0
 10
78.16977685625925
 20
84.025780602657
 30
0.0
 10
78.07702488605004
 20
84.03273046929355
 30
0.0
 10
77.95973331483529
 20
84.04245995385944
 30
0.0
 10
77.8168966725802
 20
84.05570696078712
 30
0.0
 10
77.65534728217429
 20
84.07269404929316
 30
0.0
 10
77.4815439413391
 20
84.09298668974661
 30
0.0
 10
77.35692461215712
 20
84.10975212733427
 30
0.0
 10
77.29443170616003
 20
84.11815949818153
 30
0.0
  0
SPLINE
  5
F7
330
1F
100
AcDbEntity
  8
0
  6
HIDDEN
 62
     7
370
     0
100
AcDbSpline
210
0.0
220
0.0
230
1.0
 70
     8
 71
     3
 72
    30
 73
    26
 74
     0
 42
0.00000001
 43
0.00000001
 40
0.0
 40
0.0
 40
0.0
 40
0.0
 40
0.0156161600804321
 40
0.0849748372628066
 40
0.1203204532886729
 40
0.1543185190912384
 40
0.2234436946573996
 40
0.2586467089786589
 40
0.2931107206686994
 40
0.3631864361325587
 40
0.3988795186727313
 40
0.433675062830971
 40
0.4687145712104796
 40
0.5045294144990531
 40
0.5406151111978519
 40
0.5750767863722904
 40
0.645203364963026
 40
0.6809575734718843
 40
0.7149323277721671
 40
0.7840330582955255
 40
0.8192378401372471
 40
0.8533347063218395
 40
0.9226550151093981
 40
0.9579547149334475
 40
1.0
 40
1.0
 40
1.0
 40
1.0
 10
70.792547085744
 20
123.9551037061058
 30
0.0
 10
70.79194934665891
 20
123.9552159589875
 30
0.0
 10
70.78869676848227
 20
123.9558267794649
 30
0.0
 10
70.83901767093059
 20
123.9463676450077
 30
0.0
 10
70.93932269997188
 20
123.9280628089115
 30
0.0
 10
71.07393968804158
 20
123.9040795035378
 30
0.0
 10
71.25599833307164
 20
123.8729807093913
 30
0.0
 10
71.48292090673691
 20
123.837061565349
 30
0.0
 10
71.73950731211427
 20
123.7987425442099
 30
0.0
 10
72.03754397058698
 20
123.7584974089017
 30
0.0
 10
72.37009322458671
 20
123.7198363854993
 30
0.0
 10
72.63529092999097
 20
123.6924337267681
 30
0.0
 10
72.91434875524993
 20
123.6673888901559
 30
0.0
 10
73.2087997711441
 20
123.6452211928604
 30
0.0
 10
73.51166470446034
 20
123.6270591055904
 30
0.0
 10
73.92205069132909
 20
123.608801000596
 30
0.0
 10
74.3428915302839
 20
123.5999537665916
 30
0.0
 10
74.76279544751286
 20
123.6014191610328
 30
0.0
 10
75.17740996836656
 20
123.6094625542001
 30
0.0
 10
75.5836310878424
 20
123.6269693397993
 30
0.0
 10
75.97316158756436
 20
123.6525346528272
 30
0.0
 10
76.34998228880274
 20
123.6827188885414
 30
0.0
 10
76.70311944850668
 20
123.7186164633888
 30
0.0
 10
77.04487093632831
 20
123.7594347412475
 30
0.0
 10
77.20654469733788
 20
123.7813196548139
 30
0.0
 10
77.29443170616003
 20
123.7932164498144
 30
0.0
  0
SPLINE
  5
F8
330
1F
100
AcDbEntity
  8
0
  6
HIDDEN
 62
     7
370
     0
100
AcDbSpline
210
0.0
220
0.0
230
1.0
 70
     8
 71
     3
 72
    32
 73
    28
 74
     0
 42
0.00000001
 43
0.00000001
 40
0.0
 40
0.0
 40
0.0
 40
0.0
 40
0.0346246159901392
 40
0.0694870388940023
 40
0.1051007609549318
 40
0.1409753874086758
 40
0.1756005721189327
 40
0.2104692408125609
 40
0.246112285470817
 40
0.2820258067991321
 40
0.3162663828049037
 40
0.3859338563640311
 40
0.4214461814158481
 40
0.4553763558770598
 40
0.5243713305904967
 40
0.5595124638219118
 40
0.593798734303577
 40
0.6635059787021124
 40
0.6990055363805017
 40
0.7337623601246063
 40
0.7687606633024604
 40
0.8045245907686108
 40
0.8405553812432468
 40
0.875170121130555
 40
0.9456085132854553
 40
0.9815233266320907
 40
1.0
 40
1.0
 40
1.0
 40
1.0
 10
77.29443170616003
 20
84.11815949818153
 30
0.0
 10
77.2224334043136
 20
84.12794744108984
 30
0.0
 10
77.07794230578044
 20
84.14759055192626
 30
0.0
 10
76.83662237152197
 20
84.17703977054798
 30
0.0
 10
76.57732412053635
 20
84.20559015263841
 30
0.0
 10
76.30333670140371
 20
84.23202137159322
 30
0.0
 10
76.01870892038218
 20
84.25547384894455
 30
0.0
 10
75.72412396141404
 20
84.27547130540317
 30
0.0
 10
75.41719305244573
 20
84.29162698390688
 30
0.0
 10
75.10546158669325
 20
84.30306897160239
 30
0.0
 10
74.68819603800785
 20
84.31176009930023
 30
0.0
 10
74.26755304465027
 20
84.31047204284005
 30
0.0
 10
73.8541494914848
 20
84.29924423147256
 30
0.0
 10
73.44930552841751
 20
84.2819459593917
 30
0.0
 10
73.05866744385536
 20
84.25623031562347
 30
0.0
 10
72.68988636581408
 20
84.22413700472656
 30
0.0
 10
72.33646858356566
 20
84.18857879622412
 30
0.0
 10
72.01102749324475
 20
84.14933033988852
 30
0.0
 10
71.7216502875274
 20
84.10969882251618
 30
0.0
 10
71.5237364105521
 20
84.08056307937393
 30
0.0
 10
71.3464094465146
 20
84.05282884706118
 30
0.0
 10
71.1898001180021
 20
84.0270483028068
 30
0.0
 10
71.0581525982994
 20
84.00444166607262
 30
0.0
 10
70.91629140272767
 20
83.97925562076597
 30
0.0
 10
70.82747281491204
 20
83.96281007164235
 30
0.0
 10
70.79064987636164
 20
83.95591724082618
 30
0.0
 10
70.79206602353483
 20
83.95618222673536
 30
0.0
 10
70.792547085744
 20
83.95627224189009
 30
0.0
  0
LINE
  5
F9
330
1F
100
AcDbEntity
  8
0
  6
HIDDEN
 62
     7
370
     0
100
AcDbLine
 10
64.5434043008
 20
86.955687974
 30
0.0
 11
64.5434043008
 21
120.955687974
 31
0.0
  0
LWPOLYLINE
  5
FA
330
1F
100
AcDbEntity
  8
0
  6
HIDDEN
 62
     7
370
     0
100
AcDbPolyline
 90
       12
 70
   128
 43
0.0
 10
91.5394297046
 20
125.9012903886
 10
92.4618931875
 20
125.9552006475
 10
93.3346264254
 20
126.114025108
 10
94.1105801433
 20
126.3692015024
 10
94.7479224756
 20
126.7069732052
 10
95.2122941321
 20
127.1091308566
 10
95.4786607166
 20
127.5539940333
 10
95.5326623376
 20
128.0175800465
 10
95.3713877538
 20
128.4748968541
 10
95.0035313197
 20
128.9012903886
 10
94.4489242709
 20
129.2737736644
 10
93.9124627808
 20
129.5113147688
  0
LWPOLYLINE
  5
FB
330
1F
100
AcDbEntity
  8
0
  6
HIDDEN
 62
     7
370
     0
100
AcDbPolyline
 90
       12
 70
   128
 43
0.0
 10
89.1714538555
 20
129.5131751843
 10
88.6299351383
 20
129.2737736644
 10
88.0753280894
 20
128.9012903886
 10
87.7074716553
 20
128.4748968541
 10
87.5461970715
 20
128.0175800465
 10
87.6001986925
 20
127.5539940333
 10
87.866565277
 20
127.1091308566
 10
88.3309369335
 20
126.7069732052
 10
88.9682792658
 20
126.3692015024
 10
89.7442329838
 20
126.114025108
 10
90.6169662216
 20
125.9552006475
 10
91.5394297046
 20
125.9012903886
  0
SPLINE
  5
FC
330
1F
100
AcDbEntity
  8
0
  6
HIDDEN
 62
     7
370
     0
100
AcDbSpline
210
0.0
220
0.0
230
1.0
 70
     8
 71
     3
 72
    11
 73
     7
 74
     0
 42
0.00000001
 43
0.00000001
 40
0.0
 40
0.0
 40
0.0
 40
0.0
 40
0.000577986501074
 40
0.000577986501074
 40
0.000577986501074
 40
0.0011559733324211
 40
0.0011559733324211
 40
0.0011559733324211
 40
0.0011559733324211
 10
51.63942970455844
 20
105.9555285926246
 30
0.0
 10
51.80609695936447
 20
105.9535449531499
 30
0.0
 10
51.97276338904214
 20
105.9515073460157
 30
0.0
 10
52.13942972749395
 20
105.949395882479
 30
0.0
 10
52.30609615632034
 20
105.9472844177973
 30
0.0
 10
52.472762529958
 20
105.945098854512
 30
0.0
 10
52.63942970455841
 20
105.9428162770513
 30
0.0
  0
SPLINE
  5
FD
330
1F
100
AcDbEntity
  8
0
  6
HIDDEN
 62
     7
370
     0
100
AcDbSpline
210
0.0
220
0.0
230
1.0
 70
     8
 71
     3
 72
    11
 73
     7
 74
     0
 42
0.00000001
 43
0.00000001
 40
0.0
 40
0.0
 40
0.0
 40
0.0
 40
0.0005782382535738
 40
0.0005782382535738
 40
0.0005782382535738
 40
0.0011564766069466
 40
0.0011564766069466
 40
0.0011564766069466
 40
0.0011564766069466
 10
52.63942970455842
 20
101.9589876717813
 30
0.0
 10
52.47277575058978
 20
101.9585500940195
 30
0.0
 10
52.30611507838781
 20
101.9580700293468
 30
0.0
 10
52.13944818972238
 20
101.9575504899772
 30
0.0
 10
51.97278127132635
 20
101.9570309505149
 30
0.0
 10
51.80610814149314
 20
101.9564721214927
 30
0.0
 10
51.63942970455844
 20
101.9558865779093
 30
0.0
  0
LINE
  5
FE
330
1F
100
AcDbEntity
  8
0
  6
HIDDEN
 62
     7
370
     0
100
AcDbLine
 10
91.1992556731
 20
86.955687974
 30
0.0
 11
91.1992556731
 21
120.955687974
 31
0.0
  0
LINE
  5
FF
330
1F
100
AcDbEntity
  8
0
  6
HIDDEN
 62
     7
370
     0
100
AcDbLine
 10
93.4894297046
 20
88.230687974
 30
0.0
 11
93.4894297046
 21
119.680687974
 31
0.0
  0
SPLINE
  5
100
330
1F
100
AcDbEntity
  8
0
  6
HIDDEN
 62
     7
370
     0
100
AcDbSpline
210
0.0
220
0.0
230
1.0
 70
     8
 71
     3
 72
    16
 73
    12
 74
     0
 42
0.00000001
 43
0.00000001
 40
0.0
 40
0.0
 40
0.0
 40
0.0
 40
0.1249999999999985
 40
0.1249999999999985
 40
0.249999999999997
 40
0.249999999999997
 40
0.499999999999998
 40
0.499999999999998
 40
0.749999999999999
 40
0.749999999999999
 40
1.0
 40
1.0
 40
1.0
 40
1.0
 10
60.33942970455844
 20
88.1541975379663
 30
0.0
 10
60.43455145922426
 20
88.1541975379663
 30
0.0
 10
60.52788152795234
 20
88.1503817045735
 30
0.0
 10
60.71114328869033
 20
88.13561115184369
 30
0.0
 10
60.80202100424734
 20
88.12445310386812
 30
0.0
 10
61.05882270176707
 20
88.0819818337264
 30
0.0
 10
61.21389006663907
 20
88.0409356365236
 30
0.0
 10
61.4676365281937
 20
87.9457895199417
 30
0.0
 10
61.56850697986156
 20
87.89102678586013
 30
0.0
 10
61.70375339455641
 20
87.77976566195625
 30
0.0
 10
61.73942970455843
 20
87.72259592462757
 30
0.0
 10
61.73942970455843
 20
87.66817435159383
 30
0.0
  0
SPLINE
  5
101
330
1F
100
AcDbEntity
  8
0
  6
HIDDEN
 62
     7
370
     0
100
AcDbSpline
210
0.0
220
0.0
230
1.0
 70
     8
 71
     3
 72
     8
 73
     4
 74
     0
 42
0.00000001
 43
0.00000001
 40
0.0
 40
0.0
 40
0.0
 40
0.0
 40
1.0
 40
1.0
 40
1.0
 40
1.0
 10
52.93942970449903
 20
90.29900048404856
 30
0.0
 10
52.93942970450094
 20
89.41510334173161
 30
0.0
 10
52.92594907859212
 20
88.70052009666966
 30
0.0
 10
52.92459771040103
 20
88.1541975379663
 30
0.0
  0
LINE
  5
102
330
1F
100
AcDbEntity
  8
0
  6
HIDDEN
 62
     7
370
     0
100
AcDbLine
 10
52.6394297046
 20
94.3548611893
 30
0.0
 11
52.6394297046
 21
91.3239107433
 31
0.0
  0
LINE
  5
103
330
1F
100
AcDbEntity
  8
0
  6
HIDDEN
 62
     7
370
     0
100
AcDbLine
 10
52.9394297045
 20
107.5603215956
 30
0.0
 11
52.9394297045
 21
95.7227015983
 31
0.0
  0
SPLINE
  5
104
330
1F
100
AcDbEntity
  8
0
  6
HIDDEN
 62
     7
370
     0
100
AcDbSpline
210
0.0
220
0.0
230
1.0
 70
     8
 71
     3
 72
     8
 73
     4
 74
     0
 42
0.00000001
 43
0.00000001
 40
0.0
 40
0.0
 40
0.0
 40
0.0
 40
1.0
 40
1.0
 40
1.0
 40
1.0
 10
52.63942970455842
 20
113.5626272871653
 30
0.0
 10
52.82046116919003
 20
113.1305198037851
 30
0.0
 10
52.93942970446653
 20
112.6763744002445
 30
0.0
 10
52.93942970446082
 20
112.1886743496099
 30
0.0
  0
LINE
  5
105
330
1F
100
AcDbEntity
  8
0
  6
HIDDEN
 62
     7
370
     0
100
AcDbLine
 10
52.6394297046
 20
116.5958302876
 30
0.0
 11
52.6394297046
 21
113.5626272872
 31
0.0
  0
SPLINE
  5
106
330
1F
100
AcDbEntity
  8
0
  6
HIDDEN
 62
     7
370
     0
100
AcDbSpline
210
0.0
220
0.0
230
1.0
 70
     8
 71
     3
 72
    10
 73
     6
 74
     0
 42
0.00000001
 43
0.00000001
 40
0.0
 40
0.0
 40
0.0
 40
0.0
 40
0.5
 40
0.5
 40
1.0
 40
1.0
 40
1.0
 40
1.0
 10
52.93942970457005
 20
117.6123754639178
 30
0.0
 10
52.93942970456828
 20
117.4477391183468
 30
0.0
 10
52.91227103415284
 20
117.280583895583
 30
0.0
 10
52.80650604012871
 20
116.9419608899667
 30
0.0
 10
52.73009125263042
 20
116.7696891138344
 30
0.0
 10
52.63942970455842
 20
116.5958302876065
 30
0.0
  0
SPLINE
  5
107
330
1F
100
AcDbEntity
  8
0
  6
HIDDEN
 62
     7
370
     0
100
AcDbSpline
210
0.0
220
0.0
230
1.0
 70
     8
 71
     3
 72
    18
 73
    14
 74
     0
 42
0.00000001
 43
0.00000001
 40
0.0
 40
0.0
 40
0.0
 40
0.0
 40
0.2499999999999999
 40
0.2499999999999999
 40
0.3749999999999992
 40
0.3749999999999992
 40
0.4999999999999984
 40
0.4999999999999984
 40
0.6249999999999978
 40
0.6249999999999978
 40
0.749999999999997
 40
0.749999999999997
 40
1.0
 40
1.0
 40
1.0
 40
1.0
 10
57.73942970455843
 20
120.2432015964021
 30
0.0
 10
57.73942970455842
 20
120.1887270758499
 30
0.0
 10
57.70451901316626
 20
120.1323460164974
 30
0.0
 10
57.60250971183321
 20
120.0482691756439
 30
0.0
 10
57.5608733571551
 20
120.020935471653
 30
0.0
 10
57.46246756166634
 20
119.9679815560541
 30
0.0
 10
57.40492434996207
 20
119.9420942023369
 30
0.0
 10
57.2776261763891
 20
119.8943166575036
 30
0.0
 10
57.20803887163164
 20
119.8723687393257
 30
0.0
 10
57.0566046264767
 20
119.832936174413
 30
0.0
 10
56.97392072338274
 20
119.8153799251871
 30
0.0
 10
56.71780926134469
 20
119.7729411597666
 30
0.0
 10
56.5298942574567
 20
119.7571784100296
 30
0.0
 10
56.33942970455843
 20
119.7571784100296
 30
0.0
  0
LINE
  5
108
330
1F
100
AcDbEntity
  8
0
  6
HIDDEN
 62
     7
370
     0
100
AcDbLine
 10
56.3394297046
 20
119.75717841
 30
0.0
 11
52.9394297046
 21
119.75717841
 31
0.0
  0
LINE
  5
109
330
1F
100
AcDbEntity
  8
0
  6
HIDDEN
 62
     7
370
     0
100
AcDbLine
 10
52.8704607179
 20
88.154197538
 30
0.0
 11
60.3394297046
 21
88.154197538
 31
0.0
  0
SPLINE
  5
10A
330
1F
100
AcDbEntity
  8
0
  6
HIDDEN
 62
     7
370
     0
100
AcDbSpline
210
0.0
220
0.0
230
1.0
 70
     8
 71
     3
 72
    22
 73
    18
 74
     0
 42
0.00000001
 43
0.00000001
 40
0.0
 40
0.0
 40
0.0
 40
0.0
 40
0.1250000000000001
 40
0.1250000000000001
 40
0.2500000000000001
 40
0.2500000000000001
 40
0.5
 40
0.5
 40
0.5625
 40
0.5625
 40
0.6249999999999999
 40
0.6249999999999999
 40
0.75
 40
0.75
 40
0.875
 40
0.875
 40
1.0
 40
1.0
 40
1.0
 40
1.0
 10
52.8704607179163
 20
88.1541975379663
 30
0.0
 10
52.85737832518794
 20
88.40930324811399
 30
0.0
 10
52.84415876174814
 20
88.70246150721789
 30
0.0
 10
52.82171158395402
 20
89.3647619728427
 30
0.0
 10
52.81223311692955
 20
89.73503589345408
 30
0.0
 10
52.79303515599301
 20
90.95759269656786
 30
0.0
 10
52.7941489289899
 20
91.89473162269974
 30
0.0
 10
52.81305972194297
 20
93.21460285221472
 30
0.0
 10
52.81768924980196
 20
93.48610476119103
 30
0.0
 10
52.82817046954792
 20
94.04448959599333
 30
0.0
 10
52.83396573083235
 20
94.33161245193294
 30
0.0
 10
52.85227495173728
 20
95.20420170630463
 30
0.0
 10
52.86630988601766
 20
95.8046573826605
 30
0.0
 10
52.89576705815448
 20
97.04213187515654
 30
0.0
 10
52.91132274913604
 20
97.6791480318
 30
0.0
 10
52.93511729913293
 20
98.99063662948457
 30
0.0
 10
52.94313635127828
 20
99.66675924114509
 30
0.0
 10
52.93942970455842
 20
100.3510543524299
 30
0.0
  0
LINE
  5
10B
330
1F
100
AcDbEntity
  8
0
  6
HIDDEN
 62
     7
370
     0
100
AcDbLine
 10
52.9394297046
 20
107.5603215956
 30
0.0
 11
52.9394297046
 21
119.75717841
 31
0.0
  0
SPLINE
  5
10C
330
1F
100
AcDbEntity
  8
0
  6
HIDDEN
 62
     7
370
     0
100
AcDbSpline
210
0.0
220
0.0
230
1.0
 70
     8
 71
     3
 72
    10
 73
     6
 74
     0
 42
0.00000001
 43
0.00000001
 40
0.0
 40
0.0
 40
0.0
 40
0.0
 40
0.5
 40
0.5
 40
1.0
 40
1.0
 40
1.0
 40
1.0
 10
52.93942970455839
 20
100.3510543524148
 30
0.0
 10
52.93942970455823
 20
100.6249695004891
 30
0.0
 10
52.91367047468989
 20
100.895911079219
 30
0.0
 10
52.81046454195665
 20
101.4316021608218
 30
0.0
 10
52.73312637808195
 20
101.6973489643438
 30
0.0
 10
52.63942970455842
 20
101.9589876717813
 30
0.0
  0
SPLINE
  5
10D
330
1F
100
AcDbEntity
  8
0
  6
HIDDEN
 62
     7
370
     0
100
AcDbSpline
210
0.0
220
0.0
230
1.0
 70
     8
 71
     3
 72
    10
 73
     6
 74
     0
 42
0.00000001
 43
0.00000001
 40
0.0
 40
0.0
 40
0.0
 40
0.0
 40
0.5
 40
0.5
 40
1.0
 40
1.0
 40
1.0
 40
1.0
 10
52.6394297045584
 20
105.9428162770513
 30
0.0
 10
52.73266028488038
 20
106.206710083619
 30
0.0
 10
52.80768989638812
 20
106.4728903926849
 30
0.0
 10
52.91275699433356
 20
107.0112129644361
 30
0.0
 10
52.93942970456889
 20
107.283961079016
 30
0.0
 10
52.93942970457008
 20
107.5603215955651
 30
0.0
  0
LINE
  5
10E
330
1F
100
AcDbEntity
  8
0
  6
HIDDEN
 62
     7
370
     0
100
AcDbLine
 10
52.6394297046
 20
101.9589876718
 30
0.0
 11
52.6394297046
 21
105.9428162771
 31
0.0
  0
LINE
  5
10F
330
1F
100
AcDbEntity
  8
0
  6
HIDDEN
 62
     7
370
     0
100
AcDbLine
 10
52.7894297046
 20
85.965687974
 30
0.0
 11
52.7894297046
 21
83.0857502086
 31
0.0
  0
LINE
  5
110
330
1F
100
AcDbEntity
  8
0
  6
HIDDEN
 62
     7
370
     0
100
AcDbLine
 10
61.7394297046
 20
85.965687974
 30
0.0
 11
61.7394297046
 21
81.9919504428
 31
0.0
  0
LINE
  5
111
330
1F
100
AcDbEntity
  8
0
  6
HIDDEN
 62
     7
370
     0
100
AcDbLine
 10
52.7894297046
 20
121.945687974
 30
0.0
 11
52.7894297046
 21
124.8256257394
 31
0.0
  0
LINE
  5
112
330
1F
100
AcDbEntity
  8
0
  6
HIDDEN
 62
     7
370
     0
100
AcDbLine
 10
57.7394297046
 20
121.945687974
 30
0.0
 11
57.7394297046
 21
125.7997956464
 31
0.0
  0
LINE
  5
113
330
1F
100
AcDbEntity
  8
0
  6
HIDDEN
 62
     7
370
     0
100
AcDbLine
 10
105.3394297046
 20
94.455687974
 30
0.0
 11
105.3394297046
 21
113.455687974
 31
0.0
  0
LINE
  5
114
330
1F
100
AcDbEntity
  8
0
  6
HIDDEN
 62
     7
370
     0
100
AcDbLine
 10
102.3394297046
 20
94.455687974
 30
0.0
 11
102.3394297046
 21
113.455687974
 31
0.0
  0
LINE
  5
115
330
1F
100
AcDbEntity
  8
0
  6
HIDDEN
 62
     7
370
     0
100
AcDbLine
 10
109.4894297046
 20
77.555687974
 30
0.0
 11
103.3517549022
 21
77.555687974
 31
0.0
  0
LINE
  5
116
330
1F
100
AcDbEntity
  8
0
  6
HIDDEN
 62
     7
370
     0
100
AcDbLine
 10
93.9894297046
 20
95.455687974
 30
0.0
 11
93.9894297046
 21
112.455687974
 31
0.0
  0
LINE
  5
117
330
1F
100
AcDbEntity
  8
0
  6
HIDDEN
 62
     7
370
     0
100
AcDbLine
 10
99.7271045069
 20
77.555687974
 30
0.0
 11
96.4894297046
 21
77.555687974
 31
0.0
  0
LINE
  5
118
330
1F
100
AcDbEntity
  8
0
  6
HIDDEN
 62
     7
370
     0
100
AcDbLine
 10
88.4894297046
 20
72.4715649911
 30
0.0
 11
88.4894297046
 21
77.555687974
 31
0.0
  0
LINE
  5
119
330
1F
100
AcDbEntity
  8
0
  6
HIDDEN
 62
     7
370
     0
100
AcDbLine
 10
96.4894297046
 20
77.555687974
 30
0.0
 11
88.4894297046
 21
77.555687974
 31
0.0
  0
LINE
  5
11A
330
1F
100
AcDbEntity
  8
0
  6
HIDDEN
 62
     7
370
     0
100
AcDbLine
 10
109.4894297046
 20
130.355687974
 30
0.0
 11
103.0551321729
 21
130.355687974
 31
0.0
  0
LINE
  5
11B
330
1F
100
AcDbEntity
  8
0
  6
HIDDEN
 62
     7
370
     0
100
AcDbLine
 10
100.0237272362
 20
130.355687974
 30
0.0
 11
96.4894297046
 21
130.355687974
 31
0.0
  0
LINE
  5
11C
330
1F
100
AcDbEntity
  8
0
  6
HIDDEN
 62
     7
370
     0
100
AcDbLine
 10
96.4894297046
 20
130.355687974
 30
0.0
 11
88.4894297046
 21
130.355687974
 31
0.0
  0
LINE
  5
11D
330
1F
100
AcDbEntity
  8
0
  6
HIDDEN
 62
     7
370
     0
100
AcDbLine
 10
240.0394297046
 20
96.955687974
 30
0.0
 11
240.0394297046
 21
110.955687974
 31
0.0
  0
SPLINE
  5
11E
330
1F
100
AcDbEntity
  8
0
  6
HIDDEN
 62
     7
370
     0
100
AcDbSpline
210
0.0
220
0.0
230
1.0
 70
     8
 71
     3
 72
    11
 73
     7
 74
     0
 42
0.00000001
 43
0.00000001
 40
0.0
 40
0.0
 40
0.0
 40
0.0
 40
0.0008203708524183
 40
0.0008203708524183
 40
0.0008203708524183
 40
0.0016409967870155
 40
0.0016409967870155
 40
0.0016409967870155
 40
0.0016409967870155
 10
52.78942970455844
 20
88.10365522335525
 30
0.0
 10
52.59827140425977
 20
88.06247619473612
 30
0.0
 10
52.40684433418759
 20
88.02372222250611
 30
0.0
 10
52.21519871066696
 20
87.98735446322756
 30
0.0
 10
52.02349330558651
 20
87.95097535946154
 30
0.0
 10
51.83155435352756
 20
87.91698110869397
 30
0.0
 10
51.63942970645674
 20
87.88533298330277
 30
0.0
  0
ELLIPSE
  5
11F
330
1F
100
AcDbEntity
  8
0
  6
HIDDEN
 62
     7
370
     0
100
AcDbEllipse
 10
47.3969978404
 20
103.955687974
 30
0.0
 11
20.19992452871469
 21
-1.421085471520200E-14
 31
0.0
210
0.0
220
0.0
230
1.0
 40
0.8164965809
 41
1.300566354878296
 42
1.35919869738188
  0
SPLINE
  5
120
330
1F
100
AcDbEntity
  8
0
  6
HIDDEN
 62
     7
370
     0
100
AcDbSpline
210
0.0
220
0.0
230
1.0
 70
     8
 71
     3
 72
    17
 73
    13
 74
     0
 42
0.00000001
 43
0.00000001
 40
0.0
 40
0.0
 40
0.0
 40
0.0
 40
0.1043025956217601
 40
0.2116708500337189
 40
0.3159620851095612
 40
0.4232028482697039
 40
0.5288831268346659
 40
0.6375699075572948
 40
0.7441536164000473
 40
0.8539110597696937
 40
0.9589982147449163
 40
1.0
 40
1.0
 40
1.0
 40
1.0
 10
199.0394297045584
 20
111.0999164137947
 30
0.0
 10
199.121567889296
 20
111.1007436288204
 30
0.0
 10
199.2882584618555
 20
111.1024223723512
 30
0.0
 10
199.5300266255251
 20
111.1155466079578
 30
0.0
 10
199.7598945320631
 20
111.135015081236
 30
0.0
 10
199.9684634158881
 20
111.1591891122689
 30
0.0
 10
200.1537891767666
 20
111.1856505422581
 30
0.0
 10
200.3073955940588
 20
111.2111470013341
 30
0.0
 10
200.4275937465979
 20
111.2333204393448
 30
0.0
 10
200.5042916309335
 20
111.2484754119537
 30
0.0
 10
200.5403890211554
 20
111.2558840551011
 30
0.0
 10
200.5356379758891
 20
111.2549103066859
 30
0.0
 10
200.5343045324578
 20
111.2546370113677
 30
0.0
  0
LINE
  5
121
330
1F
100
AcDbEntity
  8
0
  6
HIDDEN
 62
     7
370
     0
100
AcDbLine
 10
199.1342336151
 20
111.1015432844
 30
0.0
 11
199.0054871652
 21
111.1003745804
 31
0.0
  0
SPLINE
  5
122
330
1F
100
AcDbEntity
  8
0
  6
HIDDEN
 62
     7
370
     0
100
AcDbSpline
210
0.0
220
0.0
230
1.0
 70
     8
 71
     3
 72
    17
 73
    13
 74
     0
 42
0.00000001
 43
0.00000001
 40
0.0
 40
0.0
 40
0.0
 40
0.0
 40
0.0897779929250635
 40
0.1967557210371693
 40
0.3004980630009108
 40
0.4071526566071295
 40
0.5126562397305795
 40
0.6211505272676895
 40
0.7277613119585733
 40
0.8375364165894013
 40
0.9180772694486306
 40
1.0
 40
1.0
 40
1.0
 40
1.0
 10
197.5417921074626
 20
111.255204563827
 30
0.0
 10
197.5437417214019
 20
111.2548005599397
 30
0.0
 10
197.5480144577805
 20
111.2539151527975
 30
0.0
 10
197.6041954288536
 20
111.2425277829448
 30
0.0
 10
197.6987542491129
 20
111.2243477084577
 30
0.0
 10
197.8302869848648
 20
111.2010184218661
 30
0.0
 10
197.9968999347801
 20
111.1748356861678
 30
0.0
 10
198.1928490434405
 20
111.1488989078293
 30
0.0
 10
198.4157446921603
 20
111.1258128490849
 30
0.0
 10
198.636468579992
 20
111.1102408272962
 30
0.0
 10
198.8470462817879
 20
111.1014309205885
 30
0.0
 10
198.9749392875188
 20
111.1004241039758
 30
0.0
 10
199.0394297045584
 20
111.0999164137947
 30
0.0
  0
SPLINE
  5
123
330
1F
100
AcDbEntity
  8
0
  6
HIDDEN
 62
     7
370
     0
100
AcDbSpline
210
0.0
220
0.0
230
1.0
 70
     8
 71
     3
 72
    38
 73
    34
 74
     0
 42
0.00000001
 43
0.00000001
 40
0.0
 40
0.0
 40
0.0
 40
0.0
 40
0.0259994652908119
 40
0.0521824390237815
 40
0.0789420269894946
 40
0.1058995711609821
 40
0.1318984414191539
 40
0.1847619198640074
 40
0.2116842599737543
 40
0.2380145179048533
 40
0.2915520821463049
 40
0.3188223041101003
 40
0.3453862455935885
 40
0.3721376688411672
 40
0.3994863375147823
 40
0.4270442167230947
 40
0.4532355164926918
 40
0.5065355132777768
 40
0.5337119584412404
 40
0.559503285078187
 40
0.6119540616661151
 40
0.6386718240092718
 40
0.6646590295870058
 40
0.7174870187833169
 40
0.7443853859407129
 40
0.770855206491771
 40
0.8246884555135378
 40
0.8521181207271875
 40
0.8786144360326859
 40
0.9325351190323358
 40
0.9600308404078538
 40
0.9860637532117721
 40
1.0
 40
1.0
 40
1.0
 40
1.0
 10
200.5394297045585
 20
96.65568797399797
 30
0.0
 10
200.538460981111
 20
96.65588734559489
 30
0.0
 10
200.5365166968089
 20
96.6562874959858
 30
0.0
 10
200.5206687747198
 20
96.65952896515708
 30
0.0
 10
200.4950428064982
 20
96.66469987677046
 30
0.0
 10
200.4590190530941
 20
96.67182234508556
 30
0.0
 10
200.3982695228529
 20
96.68350189707736
 30
0.0
 10
200.3185888290498
 20
96.69810032037793
 30
0.0
 10
200.2214769572216
 20
96.7144657187207
 30
0.0
 10
200.1128340055002
 20
96.73164341170474
 30
0.0
 10
199.9881864749853
 20
96.74928303035792
 30
0.0
 10
199.8504280257403
 20
96.76583576016029
 30
0.0
 10
199.7411823414819
 20
96.777360346892
 30
0.0
 10
199.6267925051503
 20
96.7876730503957
 30
0.0
 10
199.5066152030696
 20
96.79655224580763
 30
0.0
 10
199.3837111269461
 20
96.80352339852547
 30
0.0
 10
199.2181843026977
 20
96.8100596645541
 30
0.0
 10
199.0496564762843
 20
96.81233036292959
 30
0.0
 10
198.8825620052863
 20
96.81009737195855
 30
0.0
 10
198.7183318026052
 20
96.80505191268874
 30
0.0
 10
198.5584551294369
 20
96.79602036280694
 30
0.0
 10
198.4059177178199
 20
96.78371725541747
 30
0.0
 10
198.2587456045472
 20
96.76956182556829
 30
0.0
 10
198.1213982443898
 20
96.75320675378198
 30
0.0
 10
197.9969074397613
 20
96.73597873242032
 30
0.0
 10
197.8809715563733
 20
96.71851712902335
 30
0.0
 10
197.780222277784
 20
96.70155920837031
 30
0.0
 10
197.6978977745626
 20
96.68666680782869
 30
0.0
 10
197.6283309390126
 20
96.67355598433427
 30
0.0
 10
197.5777937273848
 20
96.66350316838174
 30
0.0
 10
197.5506590612896
 20
96.6579931583045
 30
0.0
 10
197.5383864252253
 20
96.6554748310401
 30
0.0
 10
197.542161720095
 20
96.65624794192894
 30
0.0
 10
197.5434780710401
 20
96.65651750636941
 30
0.0
  0
LINE
  5
124
330
1F
100
AcDbEntity
  8
0
  6
HIDDEN
 62
     7
370
     0
100
AcDbLine
 10
197.0394297046
 20
97.055687974
 30
0.0
 11
197.0394297046
 21
110.8556879028
 31
0.0
  0
LINE
  5
125
330
1F
100
AcDbEntity
  8
0
  6
HIDDEN
 62
     7
370
     0
100
AcDbLine
 10
207.5394297046
 20
96.955687974
 30
0.0
 11
207.5394297046
 21
110.955687974
 31
0.0
  0
LINE
  5
126
330
1F
100
AcDbEntity
  8
0
  6
HIDDEN
 62
     7
370
     0
100
AcDbLine
 10
61.7394297046
 20
85.965687974
 30
0.0
 11
61.7394297046
 21
87.6681743516
 31
0.0
  0
LINE
  5
127
330
1F
100
AcDbEntity
  8
0
  6
HIDDEN
 62
     7
370
     0
100
AcDbLine
 10
52.7894297046
 20
85.965687974
 30
0.0
 11
52.7894297046
 21
88.1036552234
 31
0.0
  0
LINE
  5
128
330
1F
100
AcDbEntity
  8
0
  6
HIDDEN
 62
     7
370
     0
100
AcDbLine
 10
52.8704607179
 20
88.154197538
 30
0.0
 11
52.7894297046
 21
88.1036552234
 31
0.0
  0
LINE
  5
129
330
1F
100
AcDbEntity
  8
0
  6
HIDDEN
 62
     7
370
     0
100
AcDbLine
 10
52.7894297046
 20
121.945687974
 30
0.0
 11
52.7894297046
 21
119.8503124229
 31
0.0
  0
SPLINE
  5
12A
330
1F
100
AcDbEntity
  8
0
  6
HIDDEN
 62
     7
370
     0
100
AcDbSpline
210
0.0
220
0.0
230
1.0
 70
     8
 71
     3
 72
     8
 73
     4
 74
     0
 42
0.00000001
 43
0.00000001
 40
0.0
 40
0.0
 40
0.0
 40
0.0
 40
1.0
 40
1.0
 40
1.0
 40
1.0
 10
52.78942970455842
 20
119.8503124229452
 30
0.0
 10
52.83943520237472
 20
119.8192766494295
 30
0.0
 10
52.88943527191192
 20
119.7882320051057
 30
0.0
 10
52.93942970457011
 20
119.7571784100296
 30
0.0
  0
LINE
  5
12B
330
1F
100
AcDbEntity
  8
0
  6
HIDDEN
 62
     7
370
     0
100
AcDbLine
 10
57.7394297046
 20
121.945687974
 30
0.0
 11
57.7394297046
 21
120.2432015964
 31
0.0
  0
LINE
  5
12C
330
1F
100
AcDbEntity
  8
0
  6
HIDDEN
 62
     7
370
     0
100
AcDbLine
 10
196.5394297046
 20
99.455687974
 30
0.0
 11
196.5394297046
 21
108.455687974
 31
0.0
  0
LINE
  5
12D
330
1F
100
AcDbEntity
  8
0
  6
HIDDEN
 62
     7
370
     0
100
AcDbLine
 10
166.5394297046
 20
99.455687974
 30
0.0
 11
166.5394297046
 21
108.455687974
 31
0.0
  0
LINE
  5
12E
330
1F
100
AcDbEntity
  8
0
  6
HIDDEN
 62
     7
370
     0
100
AcDbLine
 10
166.3591715189
 20
99.755687974
 30
0.0
 11
166.3591715189
 21
108.155687974
 31
0.0
  0
SPLINE
  5
12F
330
1F
100
AcDbEntity
  8
0
  6
HIDDEN
 62
     7
370
     0
100
AcDbSpline
210
0.0
220
0.0
230
1.0
 70
     8
 71
     3
 72
    20
 73
    16
 74
     0
 42
0.00000001
 43
0.00000001
 40
0.0
 40
0.0
 40
0.0
 40
0.0
 40
0.1119595197697403
 40
0.1774767634657198
 40
0.2490961890178592
 40
0.329842231515121
 40
0.3986125823958296
 40
0.4998893016460016
 40
0.6138510292917251
 40
0.6790150176695212
 40
0.7495394203319203
 40
0.8296829944361284
 40
0.898124628546775
 40
0.9995320175861881
 40
0.9999999999999999
 40
0.9999999999999999
 40
0.9999999999999999
 40
0.9999999999999999
 10
78.28827015442137
 20
80.35569421223006
 30
0.0
 10
78.24494641612175
 20
80.3691235302711
 30
0.0
 10
78.1762701939437
 20
80.39041150923329
 30
0.0
 10
77.73109106789028
 20
80.49372232087836
 30
0.0
 10
77.20453278420851
 20
80.60702555093692
 30
0.0
 10
76.51910776305161
 20
80.72995841872803
 30
0.0
 10
75.62579036574313
 20
80.85199287791026
 30
0.0
 10
74.51243097866366
 20
80.96972918569672
 30
0.0
 10
73.4016568980857
 20
80.98170468806242
 30
0.0
 10
72.51690859616907
 20
80.95464639793329
 30
0.0
 10
71.84971200145536
 20
80.90671433353029
 30
0.0
 10
71.30843949917531
 20
80.85042082116945
 30
0.0
 10
70.92085954015353
 20
80.80533791053573
 30
0.0
 10
70.7269230201352
 20
80.76646473583013
 30
0.0
 10
70.79002548034674
 20
80.77717079306917
 30
0.0
 10
70.79031535258207
 20
80.7772199732237
 30
0.0
  0
LINE
  5
130
330
1F
100
AcDbEntity
  8
0
  6
HIDDEN
 62
     7
370
     0
100
AcDbLine
 10
71.699441619
 20
80.8880261177
 30
0.0
 11
71.8832869301
 21
80.90621546
 31
0.0
  0
LINE
  5
131
330
1F
100
AcDbEntity
  8
0
  6
HIDDEN
 62
     7
370
     0
100
AcDbLine
 10
71.8832842316
 20
127.0050910568
 30
0.0
 11
71.7092109513
 21
127.0223005827
 31
0.0
  0
SPLINE
  5
132
330
1F
100
AcDbEntity
  8
0
  6
HIDDEN
 62
     7
370
     0
100
AcDbSpline
210
0.0
220
0.0
230
1.0
 70
     8
 71
     3
 72
    20
 73
    16
 74
     0
 42
0.00000001
 43
0.00000001
 40
0.0
 40
0.0
 40
0.0
 40
0.0
 40
0.0004889684280482
 40
0.1018319933902445
 40
0.1702475582132129
 40
0.2503692056770098
 40
0.3209568221784361
 40
0.3861816196705448
 40
0.5002554836816774
 40
0.6012243489286591
 40
0.6697680558629565
 40
0.750240190758037
 40
0.8220490693851168
 40
0.8877204546109287
 40
1.0
 40
1.0
 40
1.0
 40
1.0
 10
70.79034873734366
 20
127.1340894281905
 30
0.0
 10
70.79004509634672
 20
127.1341410153406
 30
0.0
 10
70.72680917717474
 20
127.1448844949538
 30
0.0
 10
70.92001321097406
 20
127.1060285042969
 30
0.0
 10
71.30696026587243
 20
127.0610050138918
 30
0.0
 10
71.8479671892013
 20
127.0047420517986
 30
0.0
 10
72.51546745066587
 20
126.9568108592045
 30
0.0
 10
73.40129530201725
 20
126.9297374034759
 30
0.0
 10
74.51210187410403
 20
126.9415634070531
 30
0.0
 10
75.6241722401288
 20
127.059012482207
 30
0.0
 10
76.51527254632849
 20
127.1807168704471
 30
0.0
 10
77.20075699715339
 20
127.3035379160243
 30
0.0
 10
77.72874489670025
 20
127.4169761677096
 30
0.0
 10
78.17612884818429
 20
127.5207167233504
 30
0.0
 10
78.24493931453527
 20
127.5421395166239
 30
0.0
 10
78.28835582184549
 20
127.5556563972685
 30
0.0
  0
LINE
  5
133
330
1F
100
AcDbEntity
  8
0
  6
HIDDEN
 62
     7
370
     0
100
AcDbLine
 10
155.4894297046
 20
120.3783377048
 30
0.0
 11
157.9894297046
 21
120.3783377048
 31
0.0
  0
LINE
  5
134
330
1F
100
AcDbEntity
  8
0
  6
HIDDEN
 62
     7
370
     0
100
AcDbLine
 10
152.9894297046
 20
120.3783377048
 30
0.0
 11
155.4894297046
 21
120.3783377048
 31
0.0
  0
LINE
  5
135
330
1F
100
AcDbEntity
  8
0
  6
HIDDEN
 62
     7
370
     0
100
AcDbLine
 10
157.9894297046
 20
87.5330382432
 30
0.0
 11
152.9894297046
 21
87.5330382432
 31
0.0
  0
LINE
  5
136
330
1F
100
AcDbEntity
  8
0
  6
HIDDEN
 62
     7
370
     0
100
AcDbLine
 10
155.4894297046
 20
110.955687974
 30
0.0
 11
157.9894297046
 21
110.955687974
 31
0.0
  0
LINE
  5
137
330
1F
100
AcDbEntity
  8
0
  6
HIDDEN
 62
     7
370
     0
100
AcDbLine
 10
152.9894297046
 20
110.955687974
 30
0.0
 11
155.4894297046
 21
110.955687974
 31
0.0
  0
LINE
  5
138
330
1F
100
AcDbEntity
  8
0
  6
HIDDEN
 62
     7
370
     0
100
AcDbLine
 10
157.9894297046
 20
96.955687974
 30
0.0
 11
152.9894297046
 21
96.955687974
 31
0.0
  0
LINE
  5
139
330
1F
100
AcDbEntity
  8
0
  6
HIDDEN
 62
     7
370
     0
100
AcDbLine
 10
199.0394297046
 20
89.955687974
 30
0.0
 11
200.5394297046
 21
89.955687974
 31
0.0
  0
LINE
  5
13A
330
1F
100
AcDbEntity
  8
0
  6
HIDDEN
 62
     7
370
     0
100
AcDbLine
 10
197.5394297046
 20
89.955687974
 30
0.0
 11
199.0394297046
 21
89.955687974
 31
0.0
  0
LWPOLYLINE
  5
13B
330
1F
100
AcDbEntity
  8
0
  6
HIDDEN
 62
     7
370
     0
100
AcDbPolyline
 90
       27
 70
   128
 43
0.0
 10
200.5379874281
 20
91.0169256884
 10
200.5329713832
 20
91.022758534
 10
200.5070126401
 20
91.0530968013
 10
200.4660597765
 20
91.1014985138
 10
200.4103081799
 20
91.1685983659
 10
200.3179213624
 20
91.2835991619
 10
200.209870721
 20
91.4265330543
 10
200.098356261
 20
91.5897210861
 10
199.9901175935
 20
91.7791833373
 10
199.9353867028
 20
91.9027499205
 10
199.8930942359
 20
92.03757804
 10
199.8730169174
 20
92.1541287501
 10
199.8693923527
 20
92.2764944024
 10
199.882759393
 20
92.3944956807
 10
199.9113653168
 20
92.5115071179
 10
199.9779321428
 20
92.6841352616
 10
200.0620797867
 20
92.8465127676
 10
200.1240517429
 20
92.9496500107
 10
200.1874129611
 20
93.0469508198
 10
200.2513180605
 20
93.1394155066
 10
200.3132118242
 20
93.2250360992
 10
200.3952227271
 20
93.3340701853
 10
200.4648294757
 20
93.4236010992
 10
200.5063821659
 20
93.4759930514
 10
200.532340033
 20
93.508376183
 10
200.5394297046
 20
93.5171778209
 10
200.5394297046
 20
93.5171778209
  0
SPLINE
  5
13C
330
1F
100
AcDbEntity
  8
0
  6
HIDDEN
 62
     7
370
     0
100
AcDbSpline
210
0.0
220
0.0
230
1.0
 70
     8
 71
     3
 72
    12
 73
     8
 74
     0
 42
0.00000001
 43
0.00000001
 40
0.0
 40
0.0
 40
0.0
 40
0.0
 40
0.2108217565167968
 40
0.4231650852547815
 40
0.63968252938798
 40
0.8574789741078468
 40
1.0
 40
1.0
 40
1.0
 40
1.0
 10
197.6201186181021
 20
90.99869400961737
 30
0.0
 10
197.6096116222545
 20
91.00363688392451
 30
0.0
 10
197.5885217980015
 20
91.01355830694152
 30
0.0
 10
197.5652442672192
 20
91.0219476249037
 30
0.0
 10
197.5489220097787
 20
91.02709142042578
 30
0.0
 10
197.5401993115881
 20
91.02944007494837
 30
0.0
 10
197.5403118533503
 20
91.02940892526809
 30
0.0
 10
197.5403563684481
 20
91.02939660423247
 30
0.0
  0
SPLINE
  5
13D
330
1F
100
AcDbEntity
  8
0
  6
HIDDEN
 62
     7
370
     0
100
AcDbSpline
210
0.0
220
0.0
230
1.0
 70
     8
 71
     3
 72
    38
 73
    34
 74
     0
 42
0.00000001
 43
0.00000001
 40
0.0
 40
0.0
 40
0.0
 40
0.0
 40
0.0309460390774549
 40
0.0941245544065699
 40
0.1263675341730393
 40
0.1572973231718236
 40
0.2199190717764402
 40
0.2516468911019621
 40
0.2767096587655725
 40
0.3273611089658168
 40
0.3530497424241917
 40
0.3703243854042799
 40
0.4053422057142462
 40
0.4231614120169624
 40
0.4404443668441584
 40
0.4757216932240421
 40
0.4937512056919856
 40
0.5154492273268103
 40
0.5596125248327845
 40
0.5820493317718536
 40
0.6155721030713645
 40
0.6493432879014622
 40
0.6838159661176845
 40
0.7185190444906115
 40
0.7526072935499935
 40
0.7869549032114934
 40
0.8222295912841409
 40
0.857884542321908
 40
0.8814373646634815
 40
0.9292760772238882
 40
0.9536419706348892
 40
0.9772002935879777
 40
0.9999999999999999
 40
0.9999999999999999
 40
0.9999999999999999
 40
0.9999999999999999
 10
197.6201186181021
 20
90.99869400961728
 30
0.0
 10
197.6321013280328
 20
91.01399333756821
 30
0.0
 10
197.6685475830763
 20
91.06052731959085
 30
0.0
 10
197.7302256245195
 20
91.1412228958965
 30
0.0
 10
197.7974480859621
 20
91.2327055714358
 30
0.0
 10
197.8675265518868
 20
91.33124899569516
 30
0.0
 10
197.9400606460418
 20
91.43938751444914
 30
0.0
 10
198.0077991841771
 20
91.55131607232686
 30
0.0
 10
198.0666095101463
 20
91.65698145401252
 30
0.0
 10
198.1179617159792
 20
91.7633287016211
 30
0.0
 10
198.1570032774663
 20
91.86781675932762
 30
0.0
 10
198.184176107337
 20
91.95773551626078
 30
0.0
 10
198.2016295169079
 20
92.04176143290104
 30
0.0
 10
198.2097643852804
 20
92.1275119583852
 30
0.0
 10
198.2113225835685
 20
92.21410665517546
 30
0.0
 10
198.2025747225977
 20
92.30083510576391
 30
0.0
 10
198.1834313736005
 20
92.39015590098306
 30
0.0
 10
198.1549023004631
 20
92.48735254764034
 30
0.0
 10
198.1147581590068
 20
92.58422581419516
 30
0.0
 10
198.0627209941433
 20
92.6872878479545
 30
0.0
 10
198.0125000520449
 20
92.77497074159088
 30
0.0
 10
197.9530741166138
 20
92.86823103704604
 30
0.0
 10
197.8922537568893
 20
92.95645211835249
 30
0.0
 10
197.8321061780184
 20
93.03867561891678
 30
0.0
 10
197.7742639670999
 20
93.11430112882034
 30
0.0
 10
197.7196076598086
 20
93.18336192499301
 30
0.0
 10
197.6690667906293
 20
93.24553190098331
 30
0.0
 10
197.6294524253636
 20
93.29325696157959
 30
0.0
 10
197.5912791904097
 20
93.33867355905912
 30
0.0
 10
197.5648766567393
 20
93.36965753323325
 30
0.0
 10
197.548660175697
 20
93.38857656074318
 30
0.0
 10
197.5400931368561
 20
93.39853769341289
 30
0.0
 10
197.5413978794018
 20
93.39702066666291
 30
0.0
 10
197.5420395750777
 20
93.39627456582575
 30
0.0
  0
SPLINE
  5
13E
330
1F
100
AcDbEntity
  8
0
  6
HIDDEN
 62
     7
370
     0
100
AcDbSpline
210
0.0
220
0.0
230
1.0
 70
     8
 71
     3
 72
    22
 73
    18
 74
     0
 42
0.00000001
 43
0.00000001
 40
0.0
 40
0.0
 40
0.0
 40
0.0
 40
0.0836965930242273
 40
0.1670177960041905
 40
0.224378204392941
 40
0.2833808346619318
 40
0.342058377304078
 40
0.4022069630162791
 40
0.4682450800091921
 40
0.5349527300534802
 40
0.5919667990292496
 40
0.692271894956228
 40
0.7987371056483189
 40
0.8950805466715691
 40
0.9428649521336959
 40
0.9925617047372549
 40
1.0
 40
1.0
 40
1.0
 40
1.0
 10
200.5394297045585
 20
114.394198127074
 30
0.0
 10
200.5312278840294
 20
114.4043143508226
 30
0.0
 10
200.514861029197
 20
114.4245014257481
 30
0.0
 10
200.410289326856
 20
114.5565103735285
 30
0.0
 10
200.2953192018043
 20
114.7092516469577
 30
0.0
 10
200.1824993443176
 20
114.8687178153627
 30
0.0
 10
200.065760194558
 20
115.0521918388952
 30
0.0
 10
199.953678370406
 20
115.2657564413535
 30
0.0
 10
199.8678089385294
 20
115.5180015778056
 30
0.0
 10
199.8633749579337
 20
115.7904450358591
 30
0.0
 10
199.9543038626176
 20
116.0874019873953
 30
0.0
 10
200.1303322822372
 20
116.383259500717
 30
0.0
 10
200.3346661572952
 20
116.6526276111475
 30
0.0
 10
200.4680824298501
 20
116.8126532723791
 30
0.0
 10
200.5225448710765
 20
116.87652221644
 30
0.0
 10
200.5456171573169
 20
116.903350224203
 30
0.0
 10
200.537294085712
 20
116.893635045084
 30
0.0
 10
200.5362105220082
 20
116.8923702457443
 30
0.0
  0
SPLINE
  5
13F
330
1F
100
AcDbEntity
  8
0
  6
HIDDEN
 62
     7
370
     0
100
AcDbSpline
210
0.0
220
0.0
230
1.0
 70
     8
 71
     3
 72
     9
 73
     5
 74
     0
 42
0.00000001
 43
0.00000001
 40
0.0
 40
0.0
 40
0.0
 40
0.0
 40
0.7583660542386246
 40
1.0
 40
1.0
 40
1.0
 40
1.0
 10
197.5482080544907
 20
116.8845756376012
 30
0.0
 10
197.5522572460965
 20
116.8844088343166
 30
0.0
 10
197.5575966090376
 20
116.8841888834318
 30
0.0
 10
197.607951231894
 20
116.9071369149705
 30
0.0
 10
197.6201186181021
 20
116.9126819383786
 30
0.0
  0
SPLINE
  5
140
330
1F
100
AcDbEntity
  8
0
  6
HIDDEN
 62
     7
370
     0
100
AcDbSpline
210
0.0
220
0.0
230
1.0
 70
     8
 71
     3
 72
    18
 73
    14
 74
     0
 42
0.00000001
 43
0.00000001
 40
0.0
 40
0.0
 40
0.0
 40
0.0
 40
0.0497226809531758
 40
0.139689907469239
 40
0.2366940928656777
 40
0.3526984891169554
 40
0.4655348618063919
 40
0.5364304697075628
 40
0.607811268881724
 40
0.6935784526814078
 40
0.8319885370687606
 40
0.975428225821422
 40
1.0
 40
1.0
 40
1.0
 40
1.0
 10
197.549829357686
 20
114.5241683968077
 30
0.0
 10
197.5479616100664
 20
114.5219892822644
 30
0.0
 10
197.5427143971817
 20
114.5158673213588
 30
0.0
 10
197.6189322033206
 20
114.6047775215349
 30
0.0
 10
197.7607180117081
 20
114.7769056485517
 30
0.0
 10
197.9557533031224
 20
115.0361354834154
 30
0.0
 10
198.1303066482781
 20
115.3314905807946
 30
0.0
 10
198.2179226918415
 20
115.6314821404552
 30
0.0
 10
198.2066952169453
 20
115.9177295189911
 30
0.0
 10
198.0816533680036
 20
116.2531324906094
 30
0.0
 10
197.8622959376522
 20
116.5964392357891
 30
0.0
 10
197.6937901091493
 20
116.8186687275547
 30
0.0
 10
197.6295183938488
 20
116.9006867542658
 30
0.0
 10
197.6201186181021
 20
116.9126819383786
 30
0.0
  0
LINE
  5
141
330
1F
100
AcDbEntity
  8
0
  6
HIDDEN
 62
     7
370
     0
100
AcDbLine
 10
200.5394297046
 20
118.455687974
 30
0.0
 11
197.5394297046
 21
118.455687974
 31
0.0
  0
LINE
  5
142
330
1F
100
AcDbEntity
  8
0
  6
HIDDEN
 62
     7
370
     0
100
AcDbLine
 10
197.5258192678
 20
114.5126032036
 30
0.0
 11
197.6201186181
 21
116.9126819384
 31
0.0
  0
LINE
  5
143
330
1F
100
AcDbEntity
  8
0
  6
HIDDEN
 62
     7
370
     0
100
AcDbLine
 10
197.5258192678
 20
93.3987727444
 30
0.0
 11
197.6201186181
 21
90.9986940096
 31
0.0
  0
SPLINE
  5
144
330
1F
100
AcDbEntity
  8
0
  6
HIDDEN
 62
     7
370
     0
100
AcDbSpline
210
0.0
220
0.0
230
1.0
 70
     8
 71
     3
 72
     8
 73
     4
 74
     0
 42
0.00000001
 43
0.00000001
 40
0.0
 40
0.0
 40
0.0
 40
0.0
 40
0.0001590976913668
 40
0.0001590976913668
 40
0.0001590976913668
 40
0.0001590976913668
 10
52.92459771040104
 20
88.15419753796631
 30
0.0
 10
52.87954624102161
 20
88.12621865434348
 30
0.0
 10
52.83449020373193
 20
88.09824712466899
 30
0.0
 10
52.78942970455842
 20
88.07028278601668
 30
0.0
  0
SPLINE
  5
145
330
1F
100
AcDbEntity
  8
0
  6
HIDDEN
 62
     7
370
     0
100
AcDbSpline
210
0.0
220
0.0
230
1.0
 70
     8
 71
     3
 72
    11
 73
     7
 74
     0
 42
0.00000001
 43
0.00000001
 40
0.0
 40
0.0
 40
0.0
 40
0.0
 40
0.0008212909311379
 40
0.0008212909311379
 40
0.0008212909311379
 40
0.0016428257242906
 40
0.0016428257242906
 40
0.0016428257242906
 40
0.0016428257242906
 10
52.78942970455844
 20
88.07028278601669
 30
0.0
 10
52.59828468307613
 20
88.02699659718152
 30
0.0
 10
52.40686634739959
 20
87.98606008756202
 30
0.0
 10
52.21522027273846
 20
87.94745831619365
 30
0.0
 10
52.02351719119687
 20
87.90884506237478
 30
0.0
 10
51.83157206791147
 20
87.87256485310743
 30
0.0
 10
51.63942970455844
 20
87.83859794677504
 30
0.0
  0
LINE
  5
146
330
1F
100
AcDbEntity
  8
0
  6
HIDDEN
 62
     7
370
     0
100
AcDbLine
 10
99.6294297046
 20
124.0915546055
 30
0.0
 11
99.6294297046
 21
123.805687974
 31
0.0
  0
LINE
  5
147
330
1F
100
AcDbEntity
  8
0
  6
HIDDEN
 62
     7
370
     0
100
AcDbLine
 10
103.4494297046
 20
124.1368339866
 30
0.0
 11
103.4494297046
 21
123.805687974
 31
0.0
  0
LINE
  5
148
330
1F
100
AcDbEntity
  8
0
  6
HIDDEN
 62
     7
370
     0
100
AcDbLine
 10
104.931362536
 20
128.4143776364
 30
0.0
 11
104.931362536
 21
123.805687974
 31
0.0
  0
SPLINE
  5
149
330
1F
100
AcDbEntity
  8
0
  6
HIDDEN
 62
     7
370
     0
100
AcDbSpline
210
0.0
220
0.0
230
1.0
 70
     8
 71
     3
 72
    24
 73
    20
 74
     0
 42
0.00000001
 43
0.00000001
 40
0.0
 40
0.0
 40
0.0
 40
0.0
 40
0.2500000000000047
 40
0.2500000000000047
 40
0.3750000000000068
 40
0.3750000000000068
 40
0.437500000000008
 40
0.437500000000008
 40
0.4687500000000068
 40
0.4687500000000068
 40
0.5000000000000056
 40
0.5000000000000056
 40
0.5625000000000058
 40
0.5625000000000058
 40
0.625000000000006
 40
0.625000000000006
 40
0.7500000000000029
 40
0.7500000000000029
 40
1.0
 40
1.0
 40
1.0
 40
1.0
 10
51.70209307928184
 20
84.28113542921723
 30
0.0
 10
51.71584619795208
 20
84.35178548720751
 30
0.0
 10
51.73361876535792
 20
84.41838359997242
 30
0.0
 10
51.78586985691329
 20
84.49248162020562
 30
0.0
 10
51.80690493249485
 20
84.51373942736717
 30
0.0
 10
51.85980534012327
 20
84.52188535351343
 30
0.0
 10
51.88091101300117
 20
84.52094555011766
 30
0.0
 10
51.92696318167911
 20
84.49992955854034
 30
0.0
 10
51.94533365366249
 20
84.48902075243272
 30
0.0
 10
51.9868852887282
 20
84.45638584148537
 30
0.0
 10
52.00945196148511
 20
84.43489386111402
 30
0.0
 10
52.07223297794516
 20
84.3664279175277
 30
0.0
 10
52.10536273891304
 20
84.32035345932262
 30
0.0
 10
52.16228042539807
 20
84.23534557098793
 30
0.0
 10
52.18646645090185
 20
84.19506526980655
 30
0.0
 10
52.25167440128162
 20
84.08012904334059
 30
0.0
 10
52.28639046147286
 20
84.00954605819358
 30
0.0
 10
52.37960573180375
 20
83.80534029911496
 30
0.0
 10
52.42527826716442
 20
83.68244191678758
 30
0.0
 10
52.46358335066298
 20
83.56556864040002
 30
0.0
  0
SPLINE
  5
14A
330
1F
100
AcDbEntity
  8
0
  6
HIDDEN
 62
     7
370
     0
100
AcDbSpline
210
0.0
220
0.0
230
1.0
 70
     8
 71
     3
 72
    11
 73
     7
 74
     0
 42
0.00000001
 43
0.00000001
 40
0.0
 40
0.0
 40
0.0
 40
0.0
 40
0.0005781862223845
 40
0.0005781862223845
 40
0.0005781862223845
 40
0.001156372472366
 40
0.001156372472366
 40
0.001156372472366
 40
0.001156372472366
 10
52.63942970455842
 20
116.5958302876065
 30
0.0
 10
52.47276915028318
 20
116.6603597991112
 30
0.0
 10
52.30610585337682
 20
116.7248625030501
 30
0.0
 10
52.13943926954656
 20
116.7893489515822
 30
0.0
 10
51.97277267728747
 20
116.8538354033755
 30
0.0
 10
51.80610281166143
 20
116.9183054122052
 30
0.0
 10
51.63942970455841
 20
116.9827611790421
 30
0.0
  0
SPLINE
  5
14B
330
1F
100
AcDbEntity
  8
0
  6
HIDDEN
 62
     7
370
     0
100
AcDbSpline
210
0.0
220
0.0
230
1.0
 70
     8
 71
     3
 72
    11
 73
     7
 74
     0
 42
0.00000001
 43
0.00000001
 40
0.0
 40
0.0
 40
0.0
 40
0.0
 40
0.0005778746105039
 40
0.0005778746105039
 40
0.0005778746105039
 40
0.0011557494857088
 40
0.0011557494857088
 40
0.0011557494857088
 40
0.0011557494857088
 10
51.63942970455842
 20
90.92846611154725
 30
0.0
 10
51.80609658097152
 20
90.99427823831475
 30
0.0
 10
51.97276330053283
 20
91.06013671852709
 30
0.0
 10
52.13942994858142
 20
91.1260442915346
 30
0.0
 10
52.30609667310006
 20
91.19195189478184
 30
0.0
 10
52.47276336752076
 20
91.25790900324937
 30
0.0
 10
52.63942970455842
 20
91.32391074325498
 30
0.0
  0
SPLINE
  5
14C
330
1F
100
AcDbEntity
  8
0
  6
HIDDEN
 62
     7
370
     0
100
AcDbSpline
210
0.0
220
0.0
230
1.0
 70
     8
 71
     3
 72
    11
 73
     7
 74
     0
 42
0.00000001
 43
0.00000001
 40
0.0000000000000007
 40
0.0000000000000007
 40
0.0000000000000007
 40
0.0000000000000007
 40
0.0005780486062694
 40
0.0005780486062694
 40
0.0005780486062694
 40
0.0011560973513978
 40
0.0011560973513978
 40
0.0011560973513978
 40
0.0011560973513978
 10
51.6394297045584
 20
113.9365024672851
 30
0.0
 10
51.80609956060358
 20
113.8741306058606
 30
0.0
 10
51.97276726468802
 20
113.8117767456502
 30
0.0
 10
52.13943356914167
 20
113.7494571855481
 30
0.0
 10
52.30609990983542
 20
113.6871376118951
 30
0.0
 10
52.47276486646405
 20
113.6248524076562
 30
0.0
 10
52.63942970455842
 20
113.5626272871653
 30
0.0
  0
SPLINE
  5
14D
330
1F
100
AcDbEntity
  8
0
  6
HIDDEN
 62
     7
370
     0
100
AcDbSpline
210
0.0
220
0.0
230
1.0
 70
     8
 71
     3
 72
    11
 73
     7
 74
     0
 42
0.00000001
 43
0.00000001
 40
0.0
 40
0.0
 40
0.0
 40
0.0
 40
0.0005782401583395
 40
0.0005782401583395
 40
0.0005782401583395
 40
0.0011564805960715
 40
0.0011564805960715
 40
0.0011564805960715
 40
0.0011564805960715
 10
52.63942970455842
 20
94.35486118934791
 30
0.0
 10
52.47277875420969
 20
94.29143573139146
 30
0.0
 10
52.30611916162712
 20
94.22808020784379
 30
0.0
 10
52.13945210919856
 20
94.16478262360408
 30
0.0
 10
51.97278497263474
 20
94.1014850074111
 30
0.0
 10
51.80611036518862
 20
94.03824521258332
 30
0.0
 10
51.63942970455842
 20
93.9750452060596
 30
0.0
  0
CIRCLE
  5
14E
330
1F
100
AcDbEntity
  8
0
  6
HIDDEN
 62
     7
370
     0
100
AcDbCircle
 10
90.5394297046
 20
103.955687974
 30
0.0
 40
5.0
  0
LINE
  5
14F
330
1F
100
AcDbEntity
  8
0
  6
HIDDEN
 62
     7
370
     0
100
AcDbLine
 10
243.4070526709
 20
115.4620464197
 30
0.0
 11
243.2892732237
 21
112.464359311
 31
0.0
  0
LINE
  5
150
330
1F
100
AcDbEntity
  8
0
  6
HIDDEN
 62
     7
370
     0
100
AcDbLine
 10
238.0731148671
 20
115.6716174068
 30
0.0
 11
237.9553354198
 21
112.6739302981
 31
0.0
  0
LINE
  5
151
330
1F
100
AcDbEntity
  8
0
  6
HIDDEN
 62
     7
370
     0
100
AcDbLine
 10
243.5394297046
 20
114.7062666429
 30
0.0
 11
243.4621074974
 21
112.7382850561
 31
0.0
  0
LINE
  5
152
330
1F
100
AcDbEntity
  8
0
  6
HIDDEN
 62
     7
370
     0
100
AcDbLine
 10
237.5538704411
 20
115.1916327966
 30
0.0
 11
237.4753508095
 21
113.1931747241
 31
0.0
  0
LINE
  5
153
330
1F
100
AcDbEntity
  8
0
  6
HIDDEN
 62
     7
370
     0
100
AcDbLine
 10
241.5115267703
 20
114.0353644973
 30
0.0
 11
241.4820819084
 21
113.2859427201
 31
0.0
  0
LINE
  5
154
330
1F
100
AcDbEntity
  8
0
  6
HIDDEN
 62
     7
370
     0
100
AcDbLine
 10
241.5409716321
 20
114.7847862745
 30
0.0
 11
241.5115267703
 21
114.0353644973
 31
0.0
  0
LINE
  5
155
330
1F
100
AcDbEntity
  8
0
  6
HIDDEN
 62
     7
370
     0
100
AcDbLine
 10
241.5115267703
 20
114.0353644973
 30
0.0
 11
243.5099848427
 21
113.9568448658
 31
0.0
  0
LINE
  5
156
330
1F
100
AcDbEntity
  8
0
  6
HIDDEN
 62
     7
370
     0
100
AcDbLine
 10
241.4820819084
 20
113.2859427201
 30
0.0
 11
243.4805399809
 21
113.2074230886
 31
0.0
  0
LINE
  5
157
330
1F
100
AcDbEntity
  8
0
  6
HIDDEN
 62
     7
370
     0
100
AcDbLine
 10
241.5409716321
 20
114.7847862745
 30
0.0
 11
243.5394297046
 21
114.706266643
 31
0.0
  0
LINE
  5
158
330
1F
100
AcDbEntity
  8
0
  6
HIDDEN
 62
     7
370
     0
100
AcDbLine
 10
243.4580526676
 20
92.6524502718
 30
0.0
 11
243.4659423946
 21
92.4516433118
 31
0.0
  0
LINE
  5
159
330
1F
100
AcDbEntity
  8
0
  6
HIDDEN
 62
     7
370
     0
100
AcDbLine
 10
243.3481629473
 20
95.4493304205
 30
0.0
 11
243.4580526676
 21
92.6524502718
 31
0.0
  0
LINE
  5
15A
330
1F
100
AcDbEntity
  8
0
  6
HIDDEN
 62
     7
370
     0
100
AcDbLine
 10
238.1241148637
 20
92.4428792847
 30
0.0
 11
238.1320045907
 21
92.2420723247
 31
0.0
  0
LINE
  5
15B
330
1F
100
AcDbEntity
  8
0
  6
HIDDEN
 62
     7
370
     0
100
AcDbLine
 10
238.0142251434
 20
95.2397594335
 30
0.0
 11
238.1241148637
 21
92.4428792847
 31
0.0
  0
LINE
  5
15C
330
1F
100
AcDbEntity
  8
0
  6
HIDDEN
 62
     7
370
     0
100
AcDbLine
 10
237.6075003467
 20
92.8559282416
 30
0.0
 11
237.6127601647
 21
92.722056935
 31
0.0
  0
LINE
  5
15D
330
1F
100
AcDbEntity
  8
0
  6
HIDDEN
 62
     7
370
     0
100
AcDbLine
 10
237.5342405332
 20
94.7205150075
 30
0.0
 11
237.6075003467
 21
92.8559282416
 31
0.0
  0
LINE
  5
15E
330
1F
100
AcDbEntity
  8
0
  6
HIDDEN
 62
     7
370
     0
100
AcDbLine
 10
243.5209972211
 20
95.1754046755
 30
0.0
 11
243.5394297046
 21
94.706266643
 31
0.0
  0
LINE
  5
15F
330
1F
100
AcDbEntity
  8
0
  6
HIDDEN
 62
     7
370
     0
100
AcDbLine
 10
241.5704164939
 20
93.8783252343
 30
0.0
 11
241.5998613557
 21
93.1289034571
 31
0.0
  0
LINE
  5
160
330
1F
100
AcDbEntity
  8
0
  6
HIDDEN
 62
     7
370
     0
100
AcDbLine
 10
241.5704164939
 20
93.8783252343
 30
0.0
 11
241.5409716321
 21
94.6277470114
 31
0.0
  0
LINE
  5
161
330
1F
100
AcDbEntity
  8
0
  6
HIDDEN
 62
     7
370
     0
100
AcDbLine
 10
241.5704164939
 20
93.8783252343
 30
0.0
 11
243.5688745664
 21
93.9568448658
 31
0.0
  0
LINE
  5
162
330
1F
100
AcDbEntity
  8
0
  6
HIDDEN
 62
     7
370
     0
100
AcDbLine
 10
241.5998613557
 20
93.1289034571
 30
0.0
 11
243.5983194282
 21
93.2074230886
 31
0.0
  0
LINE
  5
163
330
1F
100
AcDbEntity
  8
0
  6
HIDDEN
 62
     7
370
     0
100
AcDbLine
 10
241.5409716321
 20
94.6277470114
 30
0.0
 11
243.5394297046
 21
94.706266643
 31
0.0
  0
LINE
  5
164
330
1F
100
AcDbEntity
  8
0
  6
HIDDEN
 62
     7
370
     0
100
AcDbLine
 10
181.5394297046
 20
98.955687974
 30
0.0
 11
197.0394297046
 21
98.955687974
 31
0.0
  0
LINE
  5
165
330
1F
100
AcDbEntity
  8
0
  6
HIDDEN
 62
     7
370
     0
100
AcDbLine
 10
197.0394297046
 20
108.955687974
 30
0.0
 11
181.5394297046
 21
108.955687974
 31
0.0
  0
LINE
  5
166
330
1F
100
AcDbEntity
  8
0
  6
HIDDEN
 62
     7
370
     0
100
AcDbLine
 10
197.0394297046
 20
98.955687974
 30
0.0
 11
197.5394297046
 21
99.455687974
 31
0.0
  0
LINE
  5
167
330
1F
100
AcDbEntity
  8
0
  6
HIDDEN
 62
     7
370
     0
100
AcDbLine
 10
197.5394297046
 20
108.455687974
 30
0.0
 11
197.0394297046
 21
108.955687974
 31
0.0
  0
LINE
  5
168
330
1F
100
AcDbEntity
  8
0
  6
HIDDEN
 62
     7
370
     0
100
AcDbLine
 10
181.5394297046
 20
108.955687974
 30
0.0
 11
181.0394297046
 21
108.455687974
 31
0.0
  0
LINE
  5
169
330
1F
100
AcDbEntity
  8
0
  6
HIDDEN
 62
     7
370
     0
100
AcDbLine
 10
181.0394297046
 20
99.455687974
 30
0.0
 11
181.5394297046
 21
98.955687974
 31
0.0
  0
LINE
  5
16A
330
1F
100
AcDbEntity
  8
0
  6
HIDDEN
 62
     7
370
     0
100
AcDbLine
 10
197.5394297046
 20
99.455687974
 30
0.0
 11
201.0394297046
 21
99.455687974
 31
0.0
  0
LINE
  5
16B
330
1F
100
AcDbEntity
  8
0
  6
HIDDEN
 62
     7
370
     0
100
AcDbLine
 10
201.0394297046
 20
108.455687974
 30
0.0
 11
197.5394297046
 21
108.455687974
 31
0.0
  0
LINE
  5
16C
330
1F
100
AcDbEntity
  8
0
  6
HIDDEN
 62
     7
370
     0
100
AcDbLine
 10
187.0394297045
 20
101.455687974
 30
0.0
 11
195.0394297046
 21
101.455687974
 31
0.0
  0
LINE
  5
16D
330
1F
100
AcDbEntity
  8
0
  6
HIDDEN
 62
     7
370
     0
100
AcDbLine
 10
195.0394297046
 20
106.455687974
 30
0.0
 11
187.0394297045
 21
106.455687974
 31
0.0
  0
LINE
  5
16E
330
1F
100
AcDbEntity
  8
0
  6
HIDDEN
 62
     7
370
     0
100
AcDbLine
 10
87.5394297046
 20
118.2563184797
 30
0.0
 11
87.5394297046
 21
116.3496286169
 31
0.0
  0
LINE
  5
16F
330
1F
100
AcDbEntity
  8
0
  6
HIDDEN
 62
     7
370
     0
100
AcDbLine
 10
95.5394297046
 20
116.3496286169
 30
0.0
 11
95.5394297046
 21
118.2535231237
 31
0.0
  0
LINE
  5
170
330
1F
100
AcDbEntity
  8
0
  6
HIDDEN
 62
     7
370
     0
100
AcDbLine
 10
83.5394297046
 20
78.631756828
 30
0.0
 11
83.6335904801
 21
79.3017455592
 31
0.0
  0
LINE
  5
171
330
1F
100
AcDbEntity
  8
0
  6
HIDDEN
 62
     7
370
     0
100
AcDbLine
 10
83.6335904801
 20
128.6096303888
 30
0.0
 11
83.5394297046
 21
129.27961912
 31
0.0
  0
ARC
  5
172
330
1F
100
AcDbEntity
  8
0
  6
HIDDEN
 62
     7
370
     0
100
AcDbCircle
 10
83.0394229519
 20
79.3852503596
 30
0.0
 40
0.6000067526677242
100
AcDbArc
 50
352.0
 51
0.0
  0
ARC
  5
173
330
1F
100
AcDbEntity
  8
0
  6
HIDDEN
 62
     7
370
     0
100
AcDbCircle
 10
83.0394229519
 20
79.3852503596
 30
0.0
 40
0.6000067526677361
100
AcDbArc
 50
0.0
 51
33.5571153394
  0
ARC
  5
174
330
1F
100
AcDbEntity
  8
0
  6
HIDDEN
 62
     7
370
     0
100
AcDbCircle
 10
83.0394229519
 20
128.5261255884
 30
0.0
 40
0.6000067526677222
100
AcDbArc
 50
348.75
 51
8.0
  0
LWPOLYLINE
  5
175
330
1F
100
AcDbEntity
  8
0
  6
HIDDEN
 62
     7
370
     0
100
AcDbPolyline
 90
        3
 70
   128
 43
0.0
 10
83.627900743
 20
128.4090700778
 10
83.59375691
 20
128.2965129448
 10
83.5394297046
 20
128.1944610734
  0
LINE
  5
176
330
1F
100
AcDbEntity
  8
0
  6
HIDDEN
 62
     7
370
     0
100
AcDbLine
 10
83.6394297046
 20
79.3852503596
 30
0.0
 11
83.6394297046
 21
128.5261255884
 31
0.0
  0
ARC
  5
177
330
1F
100
AcDbEntity
  8
0
  6
HIDDEN
 62
     7
370
     0
100
AcDbCircle
 10
77.2944317062
 20
91.955687974
 30
0.0
 40
8.000000000000016
100
AcDbArc
 50
277.1234766433
 51
321.3178125465
  0
ARC
  5
178
330
1F
100
AcDbEntity
  8
0
  6
HIDDEN
 62
     7
370
     0
100
AcDbCircle
 10
77.2944317062
 20
115.955687974
 30
0.0
 40
8.000000000000016
100
AcDbArc
 50
38.6821874535
 51
82.8557416614
  0
LINE
  5
179
330
1F
100
AcDbEntity
  8
0
  6
HIDDEN
 62
     7
370
     0
100
AcDbLine
 10
66.6218652699
 20
83.955687974
 30
0.0
 11
70.7925470857
 21
83.955687974
 31
0.0
  0
LINE
  5
17A
330
1F
100
AcDbEntity
  8
0
  6
HIDDEN
 62
     7
370
     0
100
AcDbLine
 10
70.7925470857
 20
123.955687974
 30
0.0
 11
66.6218652699
 21
123.955687974
 31
0.0
  0
ARC
  5
17B
330
1F
100
AcDbEntity
  8
0
  6
HIDDEN
 62
     7
370
     0
100
AcDbCircle
 10
66.6218652699
 20
84.555687974
 30
0.0
 40
0.6000000000000085
100
AcDbArc
 50
210.0
 51
270.0
  0
ARC
  5
17C
330
1F
100
AcDbEntity
  8
0
  6
HIDDEN
 62
     7
370
     0
100
AcDbCircle
 10
66.6218652699
 20
123.355687974
 30
0.0
 40
0.5999999999999962
100
AcDbArc
 50
90.0
 51
150.0
  0
LINE
  5
17D
330
1F
100
AcDbEntity
  8
0
  6
HIDDEN
 62
     7
370
     0
100
AcDbLine
 10
66.1022500276
 20
123.655687974
 30
0.0
 11
64.5434043008
 21
120.955687974
 31
0.0
  0
LINE
  5
17E
330
1F
100
AcDbEntity
  8
0
  6
HIDDEN
 62
     7
370
     0
100
AcDbLine
 10
64.5434043008
 20
86.955687974
 30
0.0
 11
66.1022500276
 21
84.255687974
 31
0.0
  0
LINE
  5
17F
330
1F
100
AcDbEntity
  8
0
  6
HIDDEN
 62
     7
370
     0
100
AcDbLine
 10
87.5394297046
 20
131.235354212
 30
0.0
 11
87.5394297046
 21
127.9012903886
 31
0.0
  0
LINE
  5
180
330
1F
100
AcDbEntity
  8
0
  6
HIDDEN
 62
     7
370
     0
100
AcDbLine
 10
95.5394297046
 20
127.9012903886
 30
0.0
 11
95.5394297046
 21
131.2300218332
 31
0.0
  0
ARC
  5
181
330
1F
100
AcDbEntity
  8
0
  6
HIDDEN
 62
     7
370
     0
100
AcDbCircle
 10
91.9894297046
 20
88.230687974
 30
0.0
 40
1.500000000000001
100
AcDbArc
 50
238.2116693829
 51
0.0
  0
ARC
  5
182
330
1F
100
AcDbEntity
  8
0
  6
HIDDEN
 62
     7
370
     0
100
AcDbCircle
 10
91.9894297046
 20
119.680687974
 30
0.0
 40
1.5
100
AcDbArc
 50
0.0
 51
121.7883306171
  0
LINE
  5
183
330
1F
100
AcDbEntity
  8
0
  6
HIDDEN
 62
     7
370
     0
100
AcDbLine
 10
83.5394297046
 20
86.955687974
 30
0.0
 11
91.1992556731
 21
86.955687974
 31
0.0
  0
LINE
  5
184
330
1F
100
AcDbEntity
  8
0
  6
HIDDEN
 62
     7
370
     0
100
AcDbLine
 10
91.1992556731
 20
120.955687974
 30
0.0
 11
83.5394297046
 21
120.955687974
 31
0.0
  0
LINE
  5
185
330
1F
100
AcDbEntity
  8
0
  6
HIDDEN
 62
     7
370
     0
100
AcDbLine
 10
61.7394297046
 20
86.955687974
 30
0.0
 11
64.5434043008
 21
86.955687974
 31
0.0
  0
LINE
  5
186
330
1F
100
AcDbEntity
  8
0
  6
HIDDEN
 62
     7
370
     0
100
AcDbLine
 10
64.5434043008
 20
120.955687974
 30
0.0
 11
57.7394297046
 21
120.955687974
 31
0.0
  0
LINE
  5
187
330
1F
100
AcDbEntity
  8
0
  6
HIDDEN
 62
     7
370
     0
100
AcDbLine
 10
102.3394297046
 20
94.455687974
 30
0.0
 11
105.3394297046
 21
94.455687974
 31
0.0
  0
LINE
  5
188
330
1F
100
AcDbEntity
  8
0
  6
HIDDEN
 62
     7
370
     0
100
AcDbLine
 10
105.3394297046
 20
113.455687974
 30
0.0
 11
102.3394297046
 21
113.455687974
 31
0.0
  0
LINE
  5
189
330
1F
100
AcDbEntity
  8
0
  6
HIDDEN
 62
     7
370
     0
100
AcDbLine
 10
93.4894297046
 20
94.955687974
 30
0.0
 11
93.9894297046
 21
95.455687974
 31
0.0
  0
LINE
  5
18A
330
1F
100
AcDbEntity
  8
0
  6
HIDDEN
 62
     7
370
     0
100
AcDbLine
 10
93.9894297046
 20
112.455687974
 30
0.0
 11
93.4894297046
 21
112.955687974
 31
0.0
  0
LINE
  5
18B
330
1F
100
AcDbEntity
  8
0
  6
HIDDEN
 62
     7
370
     0
100
AcDbLine
 10
93.9894297046
 20
95.455687974
 30
0.0
 11
102.3394297046
 21
95.455687974
 31
0.0
  0
LINE
  5
18C
330
1F
100
AcDbEntity
  8
0
  6
HIDDEN
 62
     7
370
     0
100
AcDbLine
 10
102.3394297046
 20
112.455687974
 30
0.0
 11
93.9894297046
 21
112.455687974
 31
0.0
  0
ARC
  5
18D
330
1F
100
AcDbEntity
  8
0
  6
HIDDEN
 62
     7
370
     0
100
AcDbCircle
 10
243.0394297046
 20
95.9189937259
 30
0.0
 40
0.5
100
AcDbArc
 50
0.0
 51
80.0
  0
ARC
  5
18E
330
1F
100
AcDbEntity
  8
0
  6
HIDDEN
 62
     7
370
     0
100
AcDbCircle
 10
243.0394297046
 20
111.9923822221
 30
0.0
 40
0.5
100
AcDbArc
 50
280.0
 51
0.0
  0
LINE
  5
18F
330
1F
100
AcDbEntity
  8
0
  6
HIDDEN
 62
     7
370
     0
100
AcDbLine
 10
88.4894297046
 20
135.455687974
 30
0.0
 11
88.4894297046
 21
130.355687974
 31
0.0
  0
LINE
  5
190
330
1F
100
AcDbEntity
  8
0
  6
HIDDEN
 62
     7
370
     0
100
AcDbLine
 10
243.1262537934
 20
111.4999783456
 30
0.0
 11
240.0394297046
 21
110.955687974
 31
0.0
  0
LINE
  5
191
330
1F
100
AcDbEntity
  8
0
  6
HIDDEN
 62
     7
370
     0
100
AcDbLine
 10
240.0394297046
 20
96.955687974
 30
0.0
 11
243.1262537934
 21
96.4113976024
 31
0.0
  0
LINE
  5
192
330
1F
100
AcDbEntity
  8
0
  6
HIDDEN
 62
     7
370
     0
100
AcDbLine
 10
200.5394297046
 20
96.655687974
 30
0.0
 11
206.6446556864
 21
96.655687974
 31
0.0
  0
LINE
  5
193
330
1F
100
AcDbEntity
  8
0
  6
HIDDEN
 62
     7
370
     0
100
AcDbLine
 10
197.4394297046
 20
96.655687974
 30
0.0
 11
197.543478071
 21
96.655687974
 31
0.0
  0
LINE
  5
194
330
1F
100
AcDbEntity
  8
0
  6
HIDDEN
 62
     7
370
     0
100
AcDbLine
 10
197.5417921075
 20
111.255687974
 30
0.0
 11
197.4394297046
 21
111.255687974
 31
0.0
  0
LINE
  5
195
330
1F
100
AcDbEntity
  8
0
  6
HIDDEN
 62
     7
370
     0
100
AcDbLine
 10
206.6446556864
 20
111.255687974
 30
0.0
 11
200.5343045325
 21
111.255687974
 31
0.0
  0
ARC
  5
196
330
1F
100
AcDbEntity
  8
0
  6
HIDDEN
 62
     7
370
     0
100
AcDbCircle
 10
206.6446556864
 20
97.055687974
 30
0.0
 40
0.4000000000000074
100
AcDbArc
 50
270.0
 51
290.0
  0
ARC
  5
197
330
1F
100
AcDbEntity
  8
0
  6
HIDDEN
 62
     7
370
     0
100
AcDbCircle
 10
206.6446556864
 20
110.855687974
 30
0.0
 40
0.4000000000000074
100
AcDbArc
 50
70.0
 51
90.0
  0
ARC
  5
198
330
1F
100
AcDbEntity
  8
0
  6
HIDDEN
 62
     7
370
     0
100
AcDbCircle
 10
197.4394297046
 20
97.055687974
 30
0.0
 40
0.4000000000000057
100
AcDbArc
 50
180.0
 51
270.0
  0
ARC
  5
199
330
1F
100
AcDbEntity
  8
0
  6
HIDDEN
 62
     7
370
     0
100
AcDbCircle
 10
197.4394297046
 20
110.855687974
 30
0.0
 40
0.4000000000000057
100
AcDbArc
 50
90.0
 51
180.0
  0
LINE
  5
19A
330
1F
100
AcDbEntity
  8
0
  6
HIDDEN
 62
     7
370
     0
100
AcDbLine
 10
206.7814637438
 20
96.6798109257
 30
0.0
 11
207.5394297046
 21
96.955687974
 31
0.0
  0
LINE
  5
19B
330
1F
100
AcDbEntity
  8
0
  6
HIDDEN
 62
     7
370
     0
100
AcDbLine
 10
207.5394297046
 20
110.955687974
 30
0.0
 11
206.7814637438
 21
111.2315650223
 31
0.0
  0
LINE
  5
19C
330
1F
100
AcDbEntity
  8
0
  6
HIDDEN
 62
     7
370
     0
100
AcDbLine
 10
207.5394297046
 20
96.955687974
 30
0.0
 11
240.0394297046
 21
96.955687974
 31
0.0
  0
LINE
  5
19D
330
1F
100
AcDbEntity
  8
0
  6
HIDDEN
 62
     7
370
     0
100
AcDbLine
 10
240.0394297046
 20
110.955687974
 30
0.0
 11
207.5394297046
 21
110.955687974
 31
0.0
  0
LINE
  5
19E
330
1F
100
AcDbEntity
  8
0
  6
HIDDEN
 62
     7
370
     0
100
AcDbLine
 10
197.0394297046
 20
108.955687974
 30
0.0
 11
196.5394297046
 21
108.455687974
 31
0.0
  0
LINE
  5
19F
330
1F
100
AcDbEntity
  8
0
  6
HIDDEN
 62
     7
370
     0
100
AcDbLine
 10
196.5394297046
 20
99.455687974
 30
0.0
 11
197.0394297046
 21
98.955687974
 31
0.0
  0
LINE
  5
1A0
330
1F
100
AcDbEntity
  8
0
  6
HIDDEN
 62
     7
370
     0
100
AcDbLine
 10
166.5394297046
 20
99.455687974
 30
0.0
 11
196.5394297046
 21
99.455687974
 31
0.0
  0
LINE
  5
1A1
330
1F
100
AcDbEntity
  8
0
  6
HIDDEN
 62
     7
370
     0
100
AcDbLine
 10
196.5394297046
 20
108.455687974
 30
0.0
 11
166.5394297046
 21
108.455687974
 31
0.0
  0
LINE
  5
1A2
330
1F
100
AcDbEntity
  8
0
  6
HIDDEN
 62
     7
370
     0
100
AcDbLine
 10
166.5394297046
 20
108.455687974
 30
0.0
 11
166.3591715189
 21
108.155687974
 31
0.0
  0
LINE
  5
1A3
330
1F
100
AcDbEntity
  8
0
  6
HIDDEN
 62
     7
370
     0
100
AcDbLine
 10
166.3591715189
 20
99.755687974
 30
0.0
 11
166.5394297046
 21
99.455687974
 31
0.0
  0
LINE
  5
1A4
330
1F
100
AcDbEntity
  8
0
  6
HIDDEN
 62
     7
370
     0
100
AcDbLine
 10
78.723867535
 20
79.8763166404
 30
0.0
 11
78.2894353855
 21
80.3553826596
 31
0.0
  0
LINE
  5
1A5
330
1F
100
AcDbEntity
  8
0
  6
HIDDEN
 62
     7
370
     0
100
AcDbLine
 10
70.7894320605
 20
80.7770706187
 30
0.0
 11
70.3069983171
 21
80.2980046432
 31
0.0
  0
LINE
  5
1A6
330
1F
100
AcDbEntity
  8
0
  6
HIDDEN
 62
     7
370
     0
100
AcDbLine
 10
70.3068763889
 20
127.6133660143
 30
0.0
 11
70.7894271399
 21
127.1342457564
 31
0.0
  0
LINE
  5
1A7
330
1F
100
AcDbEntity
  8
0
  6
HIDDEN
 62
     7
370
     0
100
AcDbLine
 10
78.2894295866
 20
127.5559435341
 30
0.0
 11
78.7239719769
 21
128.0350637847
 31
0.0
  0
LINE
  5
1A8
330
1F
100
AcDbEntity
  8
0
  6
HIDDEN
 62
     7
370
     0
100
AcDbLine
 10
105.3394297046
 20
99.755687974
 30
0.0
 11
166.3591715189
 21
99.755687974
 31
0.0
  0
LINE
  5
1A9
330
1F
100
AcDbEntity
  8
0
  6
HIDDEN
 62
     7
370
     0
100
AcDbLine
 10
166.3591715189
 20
108.155687974
 30
0.0
 11
105.3394297046
 21
108.155687974
 31
0.0
  0
LINE
  5
1AA
330
1F
100
AcDbEntity
  8
0
  6
HIDDEN
 62
     7
370
     0
100
AcDbLine
 10
78.2894297046
 20
80.2553231141
 30
0.0
 11
78.2894297046
 21
84.0178517834
 31
0.0
  0
LINE
  5
1AB
330
1F
100
AcDbEntity
  8
0
  6
HIDDEN
 62
     7
370
     0
100
AcDbLine
 10
70.7894297046
 20
83.9562722352
 30
0.0
 11
70.7894297046
 21
80.7773938565
 31
0.0
  0
LINE
  5
1AC
330
1F
100
AcDbEntity
  8
0
  6
HIDDEN
 62
     7
370
     0
100
AcDbLine
 10
78.2894297046
 20
123.8935241646
 30
0.0
 11
78.2894297046
 21
127.6559740348
 31
0.0
  0
LINE
  5
1AD
330
1F
100
AcDbEntity
  8
0
  6
HIDDEN
 62
     7
370
     0
100
AcDbLine
 10
70.7894297046
 20
127.1339905652
 30
0.0
 11
70.7894297046
 21
123.9551037128
 31
0.0
  0
LINE
  5
1AE
330
1F
100
AcDbEntity
  8
0
  6
HIDDEN
 62
     7
370
     0
100
AcDbLine
 10
151.9894297046
 20
120.955687974
 30
0.0
 11
152.9894297046
 21
120.3783377048
 31
0.0
  0
LINE
  5
1AF
330
1F
100
AcDbEntity
  8
0
  6
HIDDEN
 62
     7
370
     0
100
AcDbLine
 10
157.9894297046
 20
120.3783377048
 30
0.0
 11
158.9894297046
 21
120.955687974
 31
0.0
  0
LINE
  5
1B0
330
1F
100
AcDbEntity
  8
0
  6
HIDDEN
 62
     7
370
     0
100
AcDbLine
 10
158.9894297046
 20
86.955687974
 30
0.0
 11
157.9894297046
 21
87.5330382432
 31
0.0
  0
LINE
  5
1B1
330
1F
100
AcDbEntity
  8
0
  6
HIDDEN
 62
     7
370
     0
100
AcDbLine
 10
152.9894297046
 20
87.5330382432
 30
0.0
 11
151.9894297046
 21
86.955687974
 31
0.0
  0
LINE
  5
1B2
330
1F
100
AcDbEntity
  8
0
  6
HIDDEN
 62
     7
370
     0
100
AcDbLine
 10
152.9894297046
 20
120.3783377048
 30
0.0
 11
152.9894297046
 21
110.955687974
 31
0.0
  0
LINE
  5
1B3
330
1F
100
AcDbEntity
  8
0
  6
HIDDEN
 62
     7
370
     0
100
AcDbLine
 10
157.9894297046
 20
110.955687974
 30
0.0
 11
157.9894297046
 21
120.3783377048
 31
0.0
  0
LINE
  5
1B4
330
1F
100
AcDbEntity
  8
0
  6
HIDDEN
 62
     7
370
     0
100
AcDbLine
 10
152.9894297046
 20
110.955687974
 30
0.0
 11
155.4894297046
 21
109.4535364264
 31
0.0
  0
LINE
  5
1B5
330
1F
100
AcDbEntity
  8
0
  6
HIDDEN
 62
     7
370
     0
100
AcDbLine
 10
155.4894297046
 20
109.4535364264
 30
0.0
 11
157.9894297046
 21
110.955687974
 31
0.0
  0
LINE
  5
1B6
330
1F
100
AcDbEntity
  8
0
  6
HIDDEN
 62
     7
370
     0
100
AcDbLine
 10
157.9894297046
 20
87.5330382432
 30
0.0
 11
157.9894297046
 21
96.955687974
 31
0.0
  0
LINE
  5
1B7
330
1F
100
AcDbEntity
  8
0
  6
HIDDEN
 62
     7
370
     0
100
AcDbLine
 10
152.9894297046
 20
96.955687974
 30
0.0
 11
152.9894297046
 21
87.5330382432
 31
0.0
  0
LINE
  5
1B8
330
1F
100
AcDbEntity
  8
0
  6
HIDDEN
 62
     7
370
     0
100
AcDbLine
 10
157.9894297046
 20
96.955687974
 30
0.0
 11
155.4894297046
 21
98.4578395216
 31
0.0
  0
LINE
  5
1B9
330
1F
100
AcDbEntity
  8
0
  6
HIDDEN
 62
     7
370
     0
100
AcDbLine
 10
155.4894297046
 20
98.4578395216
 30
0.0
 11
152.9894297046
 21
96.955687974
 31
0.0
  0
LINE
  5
1BA
330
1F
100
AcDbEntity
  8
0
  6
HIDDEN
 62
     7
370
     0
100
AcDbLine
 10
197.5394297046
 20
89.955687974
 30
0.0
 11
199.0394297046
 21
89.0543970455
 31
0.0
  0
LINE
  5
1BB
330
1F
100
AcDbEntity
  8
0
  6
HIDDEN
 62
     7
370
     0
100
AcDbLine
 10
199.0394297046
 20
89.0543970455
 30
0.0
 11
200.5394297046
 21
89.955687974
 31
0.0
  0
LINE
  5
1BC
330
1F
100
AcDbEntity
  8
0
  6
HIDDEN
 62
     7
370
     0
100
AcDbLine
 10
197.5394297046
 20
91.0293966042
 30
0.0
 11
197.5394297046
 21
89.955687974
 31
0.0
  0
LINE
  5
1BD
330
1F
100
AcDbEntity
  8
0
  6
HIDDEN
 62
     7
370
     0
100
AcDbLine
 10
197.5394297046
 20
96.6565162615
 30
0.0
 11
197.5394297046
 21
93.3962745658
 31
0.0
  0
LINE
  5
1BE
330
1F
100
AcDbEntity
  8
0
  6
HIDDEN
 62
     7
370
     0
100
AcDbLine
 10
200.5394297046
 20
93.5171778209
 30
0.0
 11
200.5394297046
 21
96.655687974
 31
0.0
  0
LINE
  5
1BF
330
1F
100
AcDbEntity
  8
0
  6
HIDDEN
 62
     7
370
     0
100
AcDbLine
 10
200.5394297046
 20
89.955687974
 30
0.0
 11
200.5394297046
 21
91.0169256884
 31
0.0
  0
LINE
  5
1C0
330
1F
100
AcDbEntity
  8
0
  6
HIDDEN
 62
     7
370
     0
100
AcDbLine
 10
197.5394297046
 20
114.5241683968
 30
0.0
 11
197.5394297046
 21
111.2552062058
 31
0.0
  0
LINE
  5
1C1
330
1F
100
AcDbEntity
  8
0
  6
HIDDEN
 62
     7
370
     0
100
AcDbLine
 10
197.5394297046
 20
118.455687974
 30
0.0
 11
197.5394297046
 21
116.8845756376
 31
0.0
  0
LINE
  5
1C2
330
1F
100
AcDbEntity
  8
0
  6
HIDDEN
 62
     7
370
     0
100
AcDbLine
 10
200.5394297046
 20
116.8923702457
 30
0.0
 11
200.5394297046
 21
118.455687974
 31
0.0
  0
LINE
  5
1C3
330
1F
100
AcDbEntity
  8
0
  6
HIDDEN
 62
     7
370
     0
100
AcDbLine
 10
200.5394297046
 20
111.2546374419
 30
0.0
 11
200.5394297046
 21
114.3941981271
 31
0.0
  0
LINE
  5
1C4
330
1F
100
AcDbEntity
  8
0
  6
HIDDEN
 62
     7
370
     0
100
AcDbLine
 10
200.5380562193
 20
91.01519496
 30
0.0
 11
243.5394297046
 21
92.7047235257
 31
0.0
  0
LINE
  5
1C5
330
1F
100
AcDbEntity
  8
0
  6
HIDDEN
 62
     7
370
     0
100
AcDbLine
 10
243.5394297046
 20
95.2066524223
 30
0.0
 11
200.5394297046
 21
93.5171778209
 31
0.0
  0
LINE
  5
1C6
330
1F
100
AcDbEntity
  8
0
  6
HIDDEN
 62
     7
370
     0
100
AcDbLine
 10
200.5394297046
 20
114.3941981271
 30
0.0
 11
243.5394297046
 21
112.7047235257
 31
0.0
  0
LINE
  5
1C7
330
1F
100
AcDbEntity
  8
0
  6
HIDDEN
 62
     7
370
     0
100
AcDbLine
 10
243.5394297046
 20
115.2066524223
 30
0.0
 11
200.5363750079
 21
116.8962470429
 31
0.0
  0
LINE
  5
1C8
330
1F
100
AcDbEntity
  8
0
  6
HIDDEN
 62
     7
370
     0
100
AcDbLine
 10
197.5433961412
 20
116.8877820551
 30
0.0
 11
196.8243973159
 21
115.7911265954
 31
0.0
  0
LINE
  5
1C9
330
1F
100
AcDbEntity
  8
0
  6
HIDDEN
 62
     7
370
     0
100
AcDbLine
 10
196.8243973159
 20
115.7911265954
 30
0.0
 11
197.5258192678
 21
114.5126032036
 31
0.0
  0
LINE
  5
1CA
330
1F
100
AcDbEntity
  8
0
  6
HIDDEN
 62
     7
370
     0
100
AcDbLine
 10
197.5258192678
 20
93.3987727444
 30
0.0
 11
196.8243973159
 21
92.1202493526
 31
0.0
  0
LINE
  5
1CB
330
1F
100
AcDbEntity
  8
0
  6
HIDDEN
 62
     7
370
     0
100
AcDbLine
 10
196.8243973159
 20
92.1202493526
 30
0.0
 11
197.539821613
 21
91.0290459544
 31
0.0
  0
LINE
  5
1CC
330
1F
100
AcDbEntity
  8
0
  6
HIDDEN
 62
     7
370
     0
100
AcDbLine
 10
52.9370851087
 20
124.825687974
 30
0.0
 11
52.930318106
 21
124.825687974
 31
0.0
  0
LINE
  5
1CD
330
1F
100
AcDbEntity
  8
0
  6
HIDDEN
 62
     7
370
     0
100
AcDbLine
 10
243.4070526709
 20
115.4620464197
 30
0.0
 11
238.0731148671
 21
115.6716174068
 31
0.0
  0
LINE
  5
1CE
330
1F
100
AcDbEntity
  8
0
  6
HIDDEN
 62
     7
370
     0
100
AcDbLine
 10
237.9553354198
 20
112.6739302981
 30
0.0
 11
243.2892732237
 21
112.464359311
 31
0.0
  0
LINE
  5
1CF
330
1F
100
AcDbEntity
  8
0
  6
HIDDEN
 62
     7
370
     0
100
AcDbLine
 10
243.2892732237
 20
112.464359311
 30
0.0
 11
243.4621074974
 21
112.7382850561
 31
0.0
  0
LINE
  5
1D0
330
1F
100
AcDbEntity
  8
0
  6
HIDDEN
 62
     7
370
     0
100
AcDbLine
 10
243.5394297046
 20
115.210439064
 30
0.0
 11
243.4070526709
 21
115.4620464197
 31
0.0
  0
LINE
  5
1D1
330
1F
100
AcDbEntity
  8
0
  6
HIDDEN
 62
     7
370
     0
100
AcDbLine
 10
238.0731148671
 20
115.6716174068
 30
0.0
 11
237.5538704411
 21
115.1916327966
 31
0.0
  0
LINE
  5
1D2
330
1F
100
AcDbEntity
  8
0
  6
HIDDEN
 62
     7
370
     0
100
AcDbLine
 10
237.4753508095
 20
113.1931747241
 30
0.0
 11
237.9553354198
 21
112.6739302981
 31
0.0
  0
LINE
  5
1D3
330
1F
100
AcDbEntity
  8
0
  6
HIDDEN
 62
     7
370
     0
100
AcDbLine
 10
243.3481629473
 20
95.4493304205
 30
0.0
 11
238.0142251434
 21
95.2397594335
 31
0.0
  0
LINE
  5
1D4
330
1F
100
AcDbEntity
  8
0
  6
HIDDEN
 62
     7
370
     0
100
AcDbLine
 10
238.1320045907
 20
92.2420723247
 30
0.0
 11
243.4659423946
 21
92.4516433118
 31
0.0
  0
LINE
  5
1D5
330
1F
100
AcDbEntity
  8
0
  6
HIDDEN
 62
     7
370
     0
100
AcDbLine
 10
238.0142251434
 20
95.2397594335
 30
0.0
 11
237.5342405332
 21
94.7205150075
 31
0.0
  0
LINE
  5
1D6
330
1F
100
AcDbEntity
  8
0
  6
HIDDEN
 62
     7
370
     0
100
AcDbLine
 10
237.6127601647
 20
92.722056935
 30
0.0
 11
238.1320045907
 21
92.2420723247
 31
0.0
  0
LINE
  5
1D7
330
1F
100
AcDbEntity
  8
0
  6
HIDDEN
 62
     7
370
     0
100
AcDbLine
 10
243.4659423946
 20
92.4516433118
 30
0.0
 11
243.5394297046
 21
92.5913197136
 31
0.0
  0
LINE
  5
1D8
330
1F
100
AcDbEntity
  8
0
  6
HIDDEN
 62
     7
370
     0
100
AcDbLine
 10
243.5209972211
 20
95.1754046755
 30
0.0
 11
243.3481629473
 21
95.4493304205
 31
0.0
  0
DIMENSION
  5
1D9
330
1F
100
AcDbEntity
  8
VERMASSUNG
100
AcDbDimension
  2
*D1
 10
46.3894907909
 20
72.455687974
 30
0.0
 11
46.3894907909
 21
103.955687974
 31
0.0
 70
   160
  1
HSK A %%c<>
 71
     2
 42
-1.0
  3
SLDDIMSTYLE0
100
AcDbAlignedDimension
 13
83.8394297046
 23
135.455687974
 33
0.0
 14
83.8394297046
 24
72.455687974
 34
0.0
 50
90.0
100
AcDbRotatedDimension
  0
DIMENSION
  5
1E6
330
1F
100
AcDbEntity
  8
VERMASSUNG
100
AcDbDimension
  2
*D2
 10
243.5394297046
 20
134.8209100758
 30
0.0
 11
220.2894297046
 21
134.8209100758
 31
0.0
 70
   160
 71
     2
 42
-1.0
  3
SLDDIMSTYLE1
100
AcDbAlignedDimension
 13
197.0394297046
 23
110.855687974
 33
0.0
 14
243.5394297046
 24
115.6069069907
 34
0.0
 50
0.0
100
AcDbRotatedDimension
  0
DIMENSION
  5
1F1
330
1F
100
AcDbEntity
  8
VERMASSUNG
100
AcDbDimension
  2
*D3
 10
250.1463705309
 20
110.955687974
 30
0.0
 11
250.1463705309
 21
103.955687974
 31
0.0
 70
   160
  1
%%c<>
 71
     2
 42
-1.0
  3
SLDDIMSTYLE2
100
AcDbAlignedDimension
 13
240.0394297046
 23
96.955687974
 33
0.0
 14
240.0394297046
 24
110.955687974
 34
0.0
 50
90.0
100
AcDbRotatedDimension
  0
DIMENSION
  5
1FD
330
1F
100
AcDbEntity
  8
VERMASSUNG
100
AcDbDimension
  2
*D4
 10
256.1463705309
 20
117.455687974
 30
0.0
 11
256.1463705309
 21
103.955687974
 31
0.0
 70
   160
  1
%%c<>
 71
     2
 42
-1.0
  3
SLDDIMSTYLE3
100
AcDbAlignedDimension
 13
243.5394297046
 23
90.455687974
 33
0.0
 14
243.5394297046
 24
117.455687974
 34
0.0
 50
90.0
100
AcDbRotatedDimension
  0
DIMENSION
  5
209
330
1F
100
AcDbEntity
  8
VERMASSUNG
100
AcDbDimension
  2
*D5
 10
243.5394297046
 20
146.8209100758
 30
0.0
 11
163.5394297046
 21
146.8209100758
 31
0.0
 70
   160
 71
     2
 42
-1.0
  3
SLDDIMSTYLE0
100
AcDbAlignedDimension
 13
83.5394297046
 23
135.155687974
 33
0.0
 14
243.5394297046
 24
115.6069069907
 34
0.0
100
AcDbRotatedDimension
  0
DIMENSION
  5
213
330
1F
100
AcDbEntity
  8
VERMASSUNG
100
AcDbDimension
  2
*D6
 10
243.5394297046
 20
140.8209100758
 30
0.0
 11
176.5144297046
 21
140.8209100758
 31
0.0
 70
   160
 71
     2
 42
-1.0
  3
SLDDIMSTYLE0
100
AcDbAlignedDimension
 13
109.4894297046
 23
133.8021282978
 33
0.0
 14
243.5394297046
 24
115.6069069907
 34
0.0
100
AcDbRotatedDimension
  0
DIMENSION
  5
21D
330
1F
100
AcDbEntity
  8
VERMASSUNG
100
AcDbDimension
  2
*D7
 10
243.5394297046
 20
152.8209100758
 30
0.0
 11
147.5894297046
 21
152.8209100758
 31
0.0
 70
   160
 71
     2
 42
-1.0
  3
SLDDIMSTYLE0
100
AcDbAlignedDimension
 13
51.6394297046
 23
123.6463657205
 33
0.0
 14
243.5394297046
 24
115.6069069907
 34
0.0
100
AcDbRotatedDimension
  0
DIMENSION
  5
227
330
1F
100
AcDbEntity
  8
VERMASSUNG
100
AcDbDimension
  2
*D8
 10
262.1463705309
 20
86.955687974
 30
0.0
 11
262.1463705309
 21
103.955687974
 31
0.0
 70
   160
  1
%%c<>
 71
     2
 42
-1.0
  3
SLDDIMSTYLE0
100
AcDbAlignedDimension
 13
199.0677131279
 23
120.955687974
 33
0.0
 14
199.0677131279
 24
86.955687974
 34
0.0
 50
90.0
100
AcDbRotatedDimension
  0
LINE
  5
232
330
1F
100
AcDbEntity
  8
VERMASSUNG
  6
CENTERX2
370
     0
100
AcDbLine
 10
49.4941258622
 20
103.955687974
 30
0.0
 11
245.0408450704
 21
103.955687974
 31
0.0
  0
OLE2FRAME
  5
233
330
1F
100
AcDbEntity
  8
0
100
AcDbOle2Frame
 70
     2
  3
Bitmap Image
 10
13.8511154363
 20
38.264191557
 30
0.0
 11
51.6290888628
 21
31.9806341108
 31
0.0
 71
     2
 72
     0
 73
     1
 90
    12928
310
80552BED0767C5B32B40DDAF6807D121434000000000000000006FFBDDFB85D0
310
4940DDAF6807D121434000000000000000006FFBDDFB85D04940416F4BD60AFB
310
3F4000000000000000002BED0767C5B32B40416F4BD60AFB3F40000000000000
310
0000000000000100000000010000010000000100000000000100000000320000
310
D0CF11E0A1B11AE1000000000000000000000000000000003E000300FEFF0900
310
0600000000000000000000000100000001000000000000000010000002000000
310
01000000FEFFFFFF0000000000000000FFFFFFFFFFFFFFFFFFFFFFFFFFFFFFFF
310
FFFFFFFFFFFFFFFFFFFFFFFFFFFFFFFFFFFFFFFFFFFFFFFFFFFFFFFFFFFFFFFF
310
FFFFFFFFFFFFFFFFFFFFFFFFFFFFFFFFFFFFFFFFFFFFFFFFFFFFFFFFFFFFFFFF
310
FFFFFFFFFFFFFFFFFFFFFFFFFFFFFFFFFFFFFFFFFFFFFFFFFFFFFFFFFFFFFFFF
310
FFFFFFFFFFFFFFFFFFFFFFFFFFFFFFFFFFFFFFFFFFFFFFFFFFFFFFFFFFFFFFFF
310
FFFFFFFFFFFFFFFFFFFFFFFFFFFFFFFFFFFFFFFFFFFFFFFFFFFFFFFFFFFFFFFF
310
FFFFFFFFFFFFFFFFFFFFFFFFFFFFFFFFFFFFFFFFFFFFFFFFFFFFFFFFFFFFFFFF
310
FFFFFFFFFFFFFFFFFFFFFFFFFFFFFFFFFFFFFFFFFFFFFFFFFFFFFFFFFFFFFFFF
310
FFFFFFFFFFFFFFFFFFFFFFFFFFFFFFFFFFFFFFFFFFFFFFFFFFFFFFFFFFFFFFFF
310
FFFFFFFFFFFFFFFFFFFFFFFFFFFFFFFFFFFFFFFFFFFFFFFFFFFFFFFFFFFFFFFF
310
FFFFFFFFFFFFFFFFFFFFFFFFFFFFFFFFFFFFFFFFFFFFFFFFFFFFFFFFFFFFFFFF
310
FFFFFFFFFFFFFFFFFFFFFFFFFFFFFFFFFFFFFFFFFFFFFFFFFFFFFFFFFFFFFFFF
310
FFFFFFFFFFFFFFFFFFFFFFFFFFFFFFFFFFFFFFFFFFFFFFFFFFFFFFFFFFFFFFFF
310
FFFFFFFFFFFFFFFFFFFFFFFFFFFFFFFFFFFFFFFFFFFFFFFFFFFFFFFFFFFFFFFF
310
FDFFFFFFFEFFFFFFFEFFFFFFFEFFFFFF05000000060000000700000008000000
310
090000000A0000000B0000000C0000000D0000000E0000000F00000010000000
310
11000000120000001300000014000000150000001600000017000000FEFFFFFF
310
FFFFFFFFFFFFFFFFFFFFFFFFFFFFFFFFFFFFFFFFFFFFFFFFFFFFFFFFFFFFFFFF
310
FFFFFFFFFFFFFFFFFFFFFFFFFFFFFFFFFFFFFFFFFFFFFFFFFFFFFFFFFFFFFFFF
310
FFFFFFFFFFFFFFFFFFFFFFFFFFFFFFFFFFFFFFFFFFFFFFFFFFFFFFFFFFFFFFFF
310
FFFFFFFFFFFFFFFFFFFFFFFFFFFFFFFFFFFFFFFFFFFFFFFFFFFFFFFFFFFFFFFF
310
FFFFFFFFFFFFFFFFFFFFFFFFFFFFFFFFFFFFFFFFFFFFFFFFFFFFFFFFFFFFFFFF
310
FFFFFFFFFFFFFFFFFFFFFFFFFFFFFFFFFFFFFFFFFFFFFFFFFFFFFFFFFFFFFFFF
310
FFFFFFFFFFFFFFFFFFFFFFFFFFFFFFFFFFFFFFFFFFFFFFFFFFFFFFFFFFFFFFFF
310
FFFFFFFFFFFFFFFFFFFFFFFFFFFFFFFFFFFFFFFFFFFFFFFFFFFFFFFFFFFFFFFF
310
FFFFFFFFFFFFFFFFFFFFFFFFFFFFFFFFFFFFFFFFFFFFFFFFFFFFFFFFFFFFFFFF
310
FFFFFFFFFFFFFFFFFFFFFFFFFFFFFFFFFFFFFFFFFFFFFFFFFFFFFFFFFFFFFFFF
310
FFFFFFFFFFFFFFFFFFFFFFFFFFFFFFFFFFFFFFFFFFFFFFFFFFFFFFFFFFFFFFFF
310
FFFFFFFFFFFFFFFFFFFFFFFFFFFFFFFFFFFFFFFFFFFFFFFFFFFFFFFFFFFFFFFF
310
FFFFFFFFFFFFFFFFFFFFFFFFFFFFFFFFFFFFFFFFFFFFFFFFFFFFFFFFFFFFFFFF
310
52006F006F007400200045006E00740072007900000000000000000000000000
310
0000000000000000000000000000000000000000000000000000000000000000
310
16000500FFFFFFFFFFFFFFFF020000000A00030000000000C000000000000046
310
00000000000000000000000000A60DD2C504CC0103000000C000000000000000
310
01004F006C006500000000000000000000000000000000000000000000000000
310
0000000000000000000000000000000000000000000000000000000000000000
310
0A000200FFFFFFFFFFFFFFFFFFFFFFFF00000000000000000000000000000000
310
0000000000000000000000000000000000000000000000001400000000000000
310
010043006F006D0070004F0062006A0000000000000000000000000000000000
310
0000000000000000000000000000000000000000000000000000000000000000
310
120002010100000003000000FFFFFFFF00000000000000000000000000000000
310
0000000000000000000000000000000000000000010000004D00000000000000
310
01004F006C006500310030004E00610074006900760065000000000000000000
310
0000000000000000000000000000000000000000000000000000000000000000
310
1A000200FFFFFFFFFFFFFFFFFFFFFFFF00000000000000000000000000000000
310
0000000000000000000000000000000000000000040000002426000000000000
310
FEFFFFFF02000000FEFFFFFFFFFFFFFFFFFFFFFFFFFFFFFFFFFFFFFFFFFFFFFF
310
FFFFFFFFFFFFFFFFFFFFFFFFFFFFFFFFFFFFFFFFFFFFFFFFFFFFFFFFFFFFFFFF
310
FFFFFFFFFFFFFFFFFFFFFFFFFFFFFFFFFFFFFFFFFFFFFFFFFFFFFFFFFFFFFFFF
310
FFFFFFFFFFFFFFFFFFFFFFFFFFFFFFFFFFFFFFFFFFFFFFFFFFFFFFFFFFFFFFFF
310
FFFFFFFFFFFFFFFFFFFFFFFFFFFFFFFFFFFFFFFFFFFFFFFFFFFFFFFFFFFFFFFF
310
FFFFFFFFFFFFFFFFFFFFFFFFFFFFFFFFFFFFFFFFFFFFFFFFFFFFFFFFFFFFFFFF
310
FFFFFFFFFFFFFFFFFFFFFFFFFFFFFFFFFFFFFFFFFFFFFFFFFFFFFFFFFFFFFFFF
310
FFFFFFFFFFFFFFFFFFFFFFFFFFFFFFFFFFFFFFFFFFFFFFFFFFFFFFFFFFFFFFFF
310
FFFFFFFFFFFFFFFFFFFFFFFFFFFFFFFFFFFFFFFFFFFFFFFFFFFFFFFFFFFFFFFF
310
FFFFFFFFFFFFFFFFFFFFFFFFFFFFFFFFFFFFFFFFFFFFFFFFFFFFFFFFFFFFFFFF
310
FFFFFFFFFFFFFFFFFFFFFFFFFFFFFFFFFFFFFFFFFFFFFFFFFFFFFFFFFFFFFFFF
310
FFFFFFFFFFFFFFFFFFFFFFFFFFFFFFFFFFFFFFFFFFFFFFFFFFFFFFFFFFFFFFFF
310
FFFFFFFFFFFFFFFFFFFFFFFFFFFFFFFFFFFFFFFFFFFFFFFFFFFFFFFFFFFFFFFF
310
FFFFFFFFFFFFFFFFFFFFFFFFFFFFFFFFFFFFFFFFFFFFFFFFFFFFFFFFFFFFFFFF
310
FFFFFFFFFFFFFFFFFFFFFFFFFFFFFFFFFFFFFFFFFFFFFFFFFFFFFFFFFFFFFFFF
310
FFFFFFFFFFFFFFFFFFFFFFFFFFFFFFFFFFFFFFFFFFFFFFFFFFFFFFFFFFFFFFFF
310
0100000200000000000000000000000000000000000000000000000000000000
310
00000000000000003800000041000000840EB703000000000A0E200300000000
310
0100FEFF030A0000FFFFFFFF0A00030000000000C00000000000004607000000
310
5042727573680007000000504272757368000700000050427275736800F439B2
310
7100000000000000000000000000000000000000000000000000C70600000000
310
425D000000000000000000000000000000000000000000003800000041000000
310
840EB70300000000120F23020000000000000000000000000000000000000000
310
0000C70600000000435D00000000000000000000000000000000000000000000
310
3800000041000000840EB70300000000DC0E0402000000000000000000000000
310
00000000000000000000C706000000003D5D0000000000000000000000000000
310
00000000000000003800000041000000840EB703000000004A0FBA0200000000
310
000000000000000000000000000000000000C706000000003E5D000000000000
310
000000000000000000000000000000003800000041000000840EB70300000000
310
CC0E130200000000000000000000000000000000000000000000C70600000000
310
3F5D000000000000000000000000000000000000000000003800000041000000
310
840EB70300000000420FEC010000000000000000000000000000000000000000
310
20260000424D0E260000000000003E00000028000000B40200006E0000000100
310
01000000000000000000130B0000130B00000200000002000000000000FFFFFF
310
FFFFFFFFFFFFFFFFFFFFFFFFFFFFFFFFFFFFFFFFFFFFFFFFFFFFFFFFFFFFFFFF
310
FFFFFFFFFFFFFFFFFFFFFFFFFFFFFFFFFFFFFFFFFFFFFFFFFFFFFFFFFFFFFFFF
310
FFFFFFFFFFFFFFFFFFFFFFFFFFFFFFFFFFFFFFFFFFFFFFFFF000FFFFFFFFFFFF
310
FFFFFFFFFFFFFFFFFFFFFFFFFFFFFFFFFFFFFFFFFFFFFFFFFFFFFFFFFFFFFFFF
310
FFFFFFFFFFFFFFFFFFFFFFFFFFFFFFFFFFFFFFFFFFFFFFFFFFFFFFFFFFFFFFFF
310
FFFFFFFFFFFFFFFFFFFFFFFFFFFFFFFFF000FFFFFFFFFFFFFFFFFFFFFFFFFFFF
310
FFFFFFFFFFFFFFFFFFFFFFFFFFFFFFFFFFFFFFFFFFFFFFFFFFFFFFFFFFFFFFFF
310
FFFFFFFFFFFFFFFFFFFFFFFFFFFFFFFFFFFFFFFFFFFFFFFFFFFFFFFFFFFFFFFF
310
FFFFFFFFFFFFFFFFF000FFFFFFFFFFFFFFFFFFFFFFFFFFFFFFFFFFFFFFFFFFFF
310
FFFFFFFFFFFFFFFFFFFFFFFFFFFFFFFFFFFFFFFFFFFFFFFFFFFFFFFFFFFFFFFF
310
FFFFFFFFFFFFFFFFFFFFFFFFFFFFFFFFFFFFFFFFFFFFFFFFFFFFFFFFFFFFFFFF
310
F000FFFFFFFFFFFFFFFFFFFFFFFFFFFFFFFFFFFFFFFFFFFFFFFFFFFFFFFFFFFF
310
FFFFFFFFFFFFFFFFFFFFFFFFFFFFFFFFFFFFFFFFFFFFFFFFFFFFFFFFFFFFFFFF
310
FFFFFFFFFFFFFFFFFFFFFFFFFFFFFFFFFFFFFFFFFFFFFFFFF000FFFFFFFFFFFF
310
FFFFFFFFFFFFFFFFFFFFFFFFFFFFFFFFFFFFFFFFFFFFFFFFFFFFFFFFFFFFFFFF
310
FFFFFFFFFFFFFFFFFFFFFFFFFFFFFFFFFFFFFFFFFFFFFFFFFFFFFFFFFFFFFFFF
310
FFFFFFFFFFFFFFFFFFFFFFFFFFFFFFFFF000FFFFFFFFFFFFFFFFFFFFFFFFFFFF
310
FFFFFFFFFFFFFFFFFFFFFFFFFFFFFFFFFFFFFFFFFFFFFFFFFFFFFFFFFFFFFFFF
310
FFFFFFFFFFFFFFFFFFFFFFFFFFFFFFFFFFFFFFFFFFFFFFFFFFFFFFFFFFFFFFFF
310
FFFFFFFFFFFFFFFFF000FFFFFFFFFFFFFFFFFFFFFFFFFFFFFFFFFFFFFFFFFFFF
310
FFFFFFFFFFFFFFFFFFFFFFFFFFFFFFFFFFFFFFFFFFFFFFFFFFFFFFFFFFFFFFFF
310
FFFFFFFFFFFFFFFFFFFFFFFFFFFFFFFFFFFFFFFFFFFFFFFFFFFFFFFFFFFFFFFF
310
F000FFFFFFFFFFFFFFFFFFFFFFFFFFFFFFFFFFFFFFFFFFFFFFFFFFFFFFFFFFFF
310
FFFFFFFFFFFFFFFFFFFFFFFFFFFFFFFFFFFFFFFFFFFFFFFFFFFFFFFFFFFFFFFF
310
FFFFFFFFFFFFFFFFFFFFFFFFFFFFFFFFFFFFFFFFFFFFFFFFF000FFFFFFFFFFFF
310
FFFFFFFFFFFFFFFFFFFFFFFFFFFFFFFFFFFFFFFFFFFFFFFFFFFFFFFFFFFFFFFF
310
FFFFFFFFFFFFFFFFFFFFFFFFFFFFFFFFFFFFFFFFFFFFFFFFFFFFFFFFFFFFFFFF
310
FFFFFFFFFFFFFFFFFFFFFFFFFFFFFFFFF000FFFFFFFFFFFFFFFFFFFFFFFFFFFF
310
FFFFFFFFFFFFFFFFFFFFFFFFFFFFFFFFFFFFFFFFFFFFFFFFFFFFFFFFFFFFFFFF
310
FFFFFFFFFFFFFFFFFFFFFFFFFFFFFFFFFFFFFFFFFFFFFFFFFFFFFFFFFFFFFFFF
310
FFFFFFFFFFFFFFFFF000FFFFFFFFFFFFFFFFFFFFFFFFFFFFFFFFFFFFFFFFFFFF
310
FFFFFFFFFFFFFFFFFFFFFFFFFFFFFFFFFFFFFFFFFFFFFFFFFFFFFFFFFFFFFFFF
310
FFFFFFFFFFFFFFFFFFFFFFFFFFFFFFFFFFFFFFFFFFFFFFFFFFFFFFFFFFFFFFFF
310
F000FFFFFFFFFFFFFFFFFFFFFFFFFFFFFFFFFFFFFFFFFFFFFFFFFFFFFFFFFFFF
310
FFFFFFFFFFFFFFFFFFFFFFFFFFFFFFFFFFFFFFFFFFFFFFFFFFFFFFFFFFFFFFFF
310
FFFFFFFFFFFFFFFFFFFFFFFFFFFFFFFFFFFFFFFFFFFFFFFFF000FFFFFFFFFFFF
310
FFFFFFFFFFFFFFFFFFFFFFFFFFFFFFFFFFFFFFFFFFFFFFFFFFFFFFFFFFFFFFFF
310
FFFFFFFFFFFFFFFFFFFFFFFFFFFFFFFFFFFFFFFFFFFFFFFFFFFFFFFFFFFFFFFF
310
FFFFFFFFFFFFFFFFFFFFFFFFFFFFFFFFF000FFFFFFFFFFFFFFFFFFFFFFFFFFFF
310
FFFFFFFFFFFFFFFFFFFFFFFFFFFFFFFFFFFFFFFFFFFFFFFFFFFFFFFFFFFFFFFF
310
FFFFFFFFFFFFFFFFFFFFFFFFFFFFFFFFFFFFFFFFFFFFFFFFFFFFFFFFFFFFFFFF
310
FFFFFFFFFFFFFFFFF000FFFFFFFFFFFFFFFFFFFFFFFFFFFFFFFFFFFFFFFFFFFF
310
FFFFFFFFFFFFFFFFFFFFFFFFFFFFFFFFFFFFFFFFFFFFFFFFFFFFFFFFFFFFFFFF
310
FFFFFFFFFFFFFFFFFFFFFFFFFFFFFFFFFFFFFFFFFFFFFFFFFFFFFFFFFFFFFFFF
310
F000FFFFFFFFFFFFFFFFFFFFFFFFFFFFFFFFFFFFFFFFFFFFFFFFFFFFFFFFFFFF
310
FFFFFFFFFFFFFFFFFFFFFFFFFFFFFFFFFFFFFFFFFFFFFFFFFFFFFFFFFFFFFFFF
310
FFFFFFFFFFFFFFFFFFFFFFFFFFFFFFFFFFFFFFFFFFFFFFFFF000FFFFFFFFFFFF
310
FFFFFFFFFFFFFFFFFFFFFFFFFFFFFFFFFFFFFFFFFFFFFFFFFFFFFFFFFFFFFFFF
310
FFFFFFFFFFFFFFFFFFFFFFFFFFFFFFFFFFFFFFFFFFFFFFFFFFFFFFFFFFFFFFFF
310
FFFFFFFFFFFFFFFFFFFFFFFFFFFFFFFFF000FFFFFFFFFFFFFFFFFFFFFFFFFFFF
310
FFFFFFFFFFFFFFFFFFFFFFFFFFFFFFFFFFFFFFFFFFFFFFFFFFFFFFFFFFFFFFFF
310
FFFFFFFFFFFFFFFFFFFFFFFFFFFFFFFFFFFFFFFFFFFFFFFFFFFFFFFFFFFFFFFF
310
FFFFFFFFFFFFFFFFF000FFFFF80003FFFFFFFFFFFFFFFFFFFFFFFFFFFFFFFFFF
310
FFFFF00007FFFFFFFFFF00007FFFFFF800000000000000007FFFFFFFFFFFFFFF
310
FFFFFFFC001FFFFFFFFFFFFFFC001FFFFFFFFFFFFFFFFFFFFFFFFFFE0007FFFF
310
F000FFFF8000007FFFFFFFF8000FFFFFC0007FFFFF80007FFFFF0000007FFFFF
310
FFF8000007FFFFF800000000000000007FFFFFF0001FFFFFFFFFFFC00001FFFF
310
FFFFFFFFC00001FFFFFFFF000000000003FFFFE000007FFFF000FFFE0000000F
310
FFFFFFF0000FFFFF80007FFFFF80007FFFFC0000001FFFFFFFC0000001FFFFF8
310
00000000000000007FFFFFF0001FFFFFFFFFFE0000003FFFFFFFFFFE0000003F
310
FFFFFF000000000003FFFF0000000FFFF000FFF800000003FFFFFFF00007FFFF
310
80007FFFFF80007FFFF000000007FFFFFF000000003FFFF80000000000000000
310
7FFFFFF0001FFFFFFFFFF80000000FFFFFFFFFF80000000FFFFFFF0000000000
310
03FFFC00000003FFF000FFE000000000FFFFFFF00007FFFF80003FFFFF80007F
310
FFC000000001FFFFFC000000001FFFF800000000000000007FFFFFF0001FFFFF
310
FFFFE000000003FFFFFFFFE000000003FFFFFF000000000003FFF000000000FF
310
F000FF80000000007FFFFFF00007FFFF80003FFFFF80007FFF8000000000FFFF
310
F80000000007FFF800000000000000007FFFFFF0001FFFFFFFFFC000000001FF
310
FFFFFFC000000001FFFFFF000000000003FFC0000000007FF000FF0000000000
310
3FFFFFE00007FFFF00003FFFFF80007FFE00000000003FFFF00000000003FFF8
310
00000000000000007FFFFFF0001FFFFFFFFF8000000000FFFFFFFF8000000000
310
FFFFFF000000000003FF80000000003FF000FE00000000001FFFFFE00003FFFF
310
00003FFFFF80007FFC00000000001FFFE00000000001FFF8000001FFFE000000
310
7FFFFFF0001FFFFFFFFE00000000003FFFFFFE00000000003FFFFF0000000000
310
03FF00000000001FF000FC00000000000FFFFFE00003FFFF00001FFFFF80007F
310
F800000000001FFFC00000000000FFF8000001FFFE0000007FFFFFF0001FFFFF
310
FFFC00000000001FFFFFFC00000000001FFFFF000000000003FE00000000000F
310
F000F8000000000007FFFFE00003FFFF00001FFFFF80007FF800000000000FFF
310
800000000000FFF8000001FFFE0000007FFFFFF0001FFFFFFFF800000000000F
310
FFFFF800000000000FFFFF000000000003FC000000000007F000F80000000000
310
03FFFFC00003FFFE00001FFFFF80007FF0000000000007FF0000000000007FF8
310
000001FFFE0000007FFFFFF0001FFFFFFFF0000000000007FFFFF00000000000
310
07FFFF000000000003F8000000000003F000F0000000000003FFFFC00001FFFE
310
00001FFFFF80007FE0000000000007FE0000000000003FF8000001FFFE000000
310
7FFFFFF0001FFFFFFFF0000000000007FFFFF0000000000007FFFF0000000000
310
03F800001F800003F000E00001FFF00001FFFFC00001FFFE00000FFFFF80007F
310
E00001FFE00003FE00001FFF00003FF8000001FFFE0000007FFFFFF0001FFFFF
310
FFE000003E000003FFFFE000003E000003FFFF000000000003F00001FFF80001
310
F000E00007FFFC0001FFFFC00001FFFE00000FFFFF80007FC0000FFFFC0003FC
310
0000FFFFC0001FF8000001FFFE0000007FFFFFF0001FFFFFFFC00003FFE00001
310
FFFFC00003FFE00001FFFF0001FFFFFFFFF00007FFFE0001F000E0000FFFFF00
310
00FFFF800001FFFC00000FFFFF80007FC0001FFFFE0001FC0001FFFFE0001FF8
310
000001FFFE0000007FFFFFF0001FFFFFFF80000FFFF80000FFFF80000FFFF800
310
00FFFF0003FFFFFFFFE0000FFFFF8000F000C0003FFFFF8000FFFF800000FFFC
310
000007FFFF80007F80003FFFFF0001FC0003FFFFF0001FF8000001FFFE000000
310
7FFFFFF0001FFFFFFF80003FFFFE0000FFFF80003FFFFE0000FFFF0003FFFFFF
310
FFE0003FFFFF8000F000C0003FFFFF8000FFFF800000FFFC000007FFFF80007F
310
80007FFFFF8001F80007FFFFF8000FF8000001FFFE0000007FFFFFF0001FFFFF
310
FF00007FFFFF00007FFF00007FFFFF00007FFF0003FFFFFFFFE0003FFFFFC000
310
F000C0007FFFFFC000FFFF000000FFFC000007FFFF80007F8000FFFFFF8000F8
310
000FFFFFF8000FF8000001FFFE0000007FFFFFF0001FFFFFFF0000FFFFFF8000
310
7FFF0000FFFFFF80007FFF0003FFFFFFFFC0007FFFFFC00070008000FFFFFFC0
310
00FFFF000000FFF8000007FFFF80007F8000FFFFFF8000F8000FFFFFF8000FF8
310
000001FFFE0000007FFFFFF0001FFFFFFE0001FFFFFFC0003FFE0001FFFFFFC0
310
003FFF0003FFFFFFFFC0007FFFFFE00070008000FFFFFFC0007FFF0000007FF8
310
000003FFFF80007F0001FFFFFF8000F8000FFFFFF8000FF8000001FFFE000000
310
7FFFFFF0001FFFFFFE0001FFFFFFC0003FFE0001FFFFFFC0003FFF0003FFFFFF
310
FFC000FFFFFFE00070008000FFFFFFC0007FFF0000007FF8000003FFFF80007F
310
0001FFFFFF8000F8001FFFFFF8000FF8000001FFFE0000007FFFFFF0001FFFFF
310
FE0003FFFFFFE0003FFE0003FFFFFFE0003FFF0003FFFFFFFFC000FFFFFFE000
310
70008000FFFFFFC0007FFE0000007FF8000003FFFF80007F0001FFFFFF8000F0
310
001FFFFFF8000FF8000001FFFE0000007FFFFFF0001FFFFFFC0003FFFFFFE000
310
1FFC0003FFFFFFE0001FFF0003FFFFFFFFC000FFFFFFC00070008000FFFFFF80
310
007FFE0000007FF0000003FFFF80007F0001FFFFFF0000F0001FFFFFF8000FF8
310
000001FFFE0000007FFFFFF0001FFFFFFC0007FFFFFFF0001FFC0007FFFFFFF0
310
001FFF0003FFFFFFFFC000FFFFFFC00070008001FFFFFF0000FFFE0000003FF0
310
000001FFFF80007F0001FFFFFF0000F8001FFFFFF0000FF8000001FFFE000000
310
7FFFFFF0001FFFFFFC0007FFFFFFF0001FFC0007FFFFFFF0001FFF0003FFFFFF
310
FFC001FFFFFF80007000FFFFFFFFFE0000FFFE0008003FF0008001FFFF80007F
310
FFFFFFFFFC0000FFFFFFFFFFE0000FF8000001FFFE0000007FFFFFF0001FFFFF
310
F8000FFFFFFFF8000FF8000FFFFFFFF8000FFF0003FFFFFFFFFFFFFFFFFF0000
310
7000FFFFFFFFFC0000FFFC0008003FF0008001FFFF80007FFFFFFFFFF80001FF
310
FFFFFFFF80000FF8000001FFFE0000007FFFFFF0001FFFFFF8000FFFFFFFF800
310
0FF8000FFFFFFFF8000FFF0003FFFFFFFFFFFFFFFFFE0000F000FFFFFFFFE000
310
00FFFC000C003FE000C001FFFF80007FFFFFFFFFC00001FFFFFFFFFE00001FF8
310
000001FFFE0000007FFFFFF0001FFFFFF8000FFFFFFFF8000FF8000FFFFFFFF8
310
000FFF0003FFFFFFFFFFFFFFFFF00000F000FFFFFFFE000001FFFC000C001FE0
310
00C000FFFF80007FFFFFFFFE000001FFFFFFFFE000001FF80FFFFFFFFFFFFFC0
310
7FFFFFF0001FFFFFF8000FFFFFFFF8000FF8000FFFFFFFF8000FFF0003FFFFFF
310
FFFFFFFFFF800000F000FFFFFFC0000001FFFC001C001FE001C000FFFF80007F
310
FFFFFF80000003FFFFFFF80000001FF80FFFFFFFFFFFFFC07FFFFFF0001FFFFF
310
F8001FFFFFFFFC000FF8001FFFFFFFFC000FFF0003FFFFFFFFFFFFFFF0000001
310
F000FFFFF800000001FFF8001C001FE001C000FFFF80007FFFFFF800000003FF
310
FFFF800000003FF80FFFFFFFFFFFFFC07FFFFFF0001FFFFFF8001FFFFFFFFC00
310
0FF8001FFFFFFFFC000FFF0003FFFFFFFFFFFFFE00000001F000FFFFC0000000
310
03FFF8001E001FC001E000FFFF80007FFFFF8000000007FFFFFC000000003FF8
310
0FFFFFFFFFFFFFC07FFFFFF0001FFFFFF8001FFFFFFFFC000FF8001FFFFFFFFC
310
000FFF0003FFFFFFFFFFFFE000000003F000FFFE0000000007FFF8001E000FC0
310
01E0007FFF80007FFFFE0000000007FFFFE0000000007FF80FFFFFFFFFFFFFC0
310
7FFFFFF0001FFFFFF0001FFFFFFFFC0007F0001FFFFFFFFC0007FF0003FFFFFF
310
FFFFFF0000000003F000FFF80000000007FFF8001E000FC003E0007FFF80007F
310
FFF0000000000FFFFF8000000000FFF80FFFFFFFFFFFFFC07FFFFFF0001FFFFF
310
F0001FFFFFFFFC0007F0001FFFFFFFFC0007FF0003FFFFFFFFFFFC0000000007
310
F000FFE0000000000FFFF0003E000FC003E0007FFF80007FFFC0000000001FFF
310
FE0000000001FFF80FFFFFFFFFFFFFC07FFFFFF0001FFFFFF0001FFFFFFFFC00
310
07F0001FFFFFFFFC0007FF0003FFFFFFFFFFF0000000000FF000FFC000000000
310
1FFFF0003F000F8003F0003FFF80007FFF80000000003FFFF80000000003FFF8
310
0FFFFFFFFFFFFFC07FFFFFF0001FFFFFF0001FFFFFFFFC0007F0001FFFFFFFFC
310
0007FF0003FFFFFFFFFFE0000000001FF000FF00000000007FFFF0003F000780
310
03F0003FFF80007FFF00000000007FFFF00000000007FFF80FFFFFFFFFFFFFC0
310
7FFFFFF0001FFFFFF0001FFFFFFFFC0007F0001FFFFFFFFC0007FF0003FFFFFF
310
FFFF80000000007FF000FE0000000000FFFFE0003F00078007F0003FFF80007F
310
FE0000000001FFFFE0000000001FFFF80FFFFFFFFFFFFFC07FFFFFF0001FFFFF
310
F0001FFFFFFFFC0007F0001FFFFFFFFC0007FF0003FFFFFFFFFF0000000000FF
310
F000FC0000000003FFFFE0007F00078007F0003FFF80007FFC0000000007FFFF
310
C0000000007FFFF80FFFFFFFFFFFFFC07FFFFFF0001FFFFFF8001FFFFFFFFC00
310
0FF8001FFFFFFFFC000FFF0003FFFFFFFFFE0000000003FFF000FC000000000F
310
FFFFE0007F80070007F8001FFF80007FF8000000001FFFFF8000000001FFFFF8
310
0FFFFFFFFFFFFFC07FFFFFF0001FFFFFF8001FFFFFFFFC000FF8001FFFFFFFFC
310
000FFF0003FFFFFFFFFC000000000FFFF000F8000000007FFFFFE0007F800700
310
07F8001FFF80007FF000000000FFFFFF800000000FFFFFF80FFFFFFFFFFFFFC0
310
7FFFFFF0001FFFFFF8000FFFFFFFF8000FF8000FFFFFFFF8000FFF0003FFFFFF
310
FFFC000000007FFFF000F800000007FFFFFFC0007F8003000FF8001FFF80007F
310
F000000007FFFFFF000000007FFFFFF80FFFFFFFFFFFFFC07FFFFFF0001FFFFF
310
F8000FFFFFFFF8000FF8000FFFFFFFF8000FFF0003FFFFFFFFF80000000FFFFF
310
F000F0000000FFFFFFFFC000FF8003000FF8001FFF80007FE0000000FFFFFFFF
310
0000000FFFFFFFF8000001FFFE0000007FFFFFF0001FFFFFF8000FFFFFFFF800
310
0FF8000FFFFFFFF8000FFF0003FFFFFFFFF8000000FFFFFFF000F000000FFFFF
310
FFFFC000FFC002000FF8000FFF80007FE000001FFFFFFFFE000001FFFFFFFFF8
310
000001FFFE0000007FFFFFF0001FFFFFF8000FFFFFFFF8000FF8000FFFFFFFF8
310
000FFF0003FFFFFFFFF000001FFFFFFFF000E00000FFFFFFFFFFC000FFC00200
310
0FFC000FFF80007FE00001FFFFFFFFFE00001FFFFFFFFFF8000001FFFE000000
310
7FFFFFF0001FFFFFFC000FFFFFFFF8001FFC000FFFFFFFF8001FFF0003FFFFFF
310
FFF00001FFFFFFFFF000E00007FFFFFFFFFF8000FFC000001FFC000FFF80007F
310
C0000FFFFFFFFFFE0000FFFFFFFFFFF8000001FFFE0000007FFFFFF0001FFFFF
310
FC0007FFFFFFF0001FFC0007FFFFFFF0001FFF0003FFFFFFFFF00007FFFFFFFF
310
F000E0001FFFFFFFFFFF8000FFC000001FFC000FFF80007FC0003FFFFFFFFFFE
310
0001FFFFFFFFFFF8000001FFFE0000007FFFFFF0001FFFFFFC0007FFFFFFF000
310
1FFC0007FFFFFFF0001FFF0003FFFFFFFFF0001FFFFFFFFFF000E0003FFFFF00
310
03FF8001FFE000001FFC0007FF80007FC0007FFFFF0007FC0003FFFFF0003FF8
310
000001FFFE0000007FFFFFF0001FFFFFFC0003FFFFFFE0001FFC0003FFFFFFE0
310
001FFF0003FFFFFFFFF0003FFFFFFFFFF000E0003FFFFF0001FF8001FFE00000
310
1FFE0007FF80007FC0007FFFFE0003FC0007FFFFE0003FF8000001FFFE000000
310
7FFFFFF0001FFFFFFE0003FFFFFFE0003FFE0003FFFFFFE0003FFF0003FFFFFF
310
FFF0003FFFFF8001F000E0003FFFFF0001FF0001FFE000001FFE0007FF80007F
310
C0007FFFFE0003FC0007FFFFE0003FF8000001FFFE0000007FFFFFF0001FFFFF
310
FE0001FFFFFFC0003FFE0001FFFFFFC0003FFF0003FFFFFFFFF0003FFFFF0001
310
F000E0003FFFFF0003FF0001FFE000003FFE0007FF80007FC0007FFFFE0003FC
310
0007FFFFE0003FF8000001FFFE0000007FFFFFF0001FFFFFFF0001FFFFFFC000
310
7FFF0001FFFFFFC0007FFF0003FFFFFFFFF0003FFFFF0001F000E0003FFFFE00
310
03FF0003FFF000003FFE0003FF80007FC0007FFFFC0003FE0007FFFFE0003FF8
310
000001FFFE0000007FFFFFF0001FFFFFFF0000FFFFFF80007FFF0000FFFFFF80
310
007FFF0003FFFFFFFFF0003FFFFF0001F000E0003FFFFE0003FF0003FFF00000
310
3FFF0003FF80007FC0007FFFFC0007FE0007FFFFC0003FF8000001FFFE000000
310
7FFFFFF0001FFFFFFF80007FFFFF0000FFFF80007FFFFF0000FFFF0003FFFFFF
310
FFF0003FFFFF0003F000E0003FFFFC0003FE0003FFF000003FFF0003FF80007F
310
E0003FFFF80007FE0003FFFFC0007FF8000001FFFE0000007FFFFFF0001FFFFF
310
FF80003FFFFE0000FFFF80003FFFFE0000FFFF0003FFFFFFFFF0001FFFFE0003
310
F000F0001FFFF80003FE0003FFF000007FFF0001FF80007FE0003FFFF00007FE
310
0001FFFF80007FF8000001FFFE0000007FFFFFF0001FFFFFFFC0000FFFF80001
310
FFFFC0000FFFF80001FFFF0003FFFFFFFFF0001FFFFC0003F000F0000FFFF000
310
07FE0007FFF800007FFF0001FF80007FE0001FFFE00007FF0000FFFE00007FF8
310
000001FFFE0000007FFFFFF0001FFFFFFFC00003FFE00001FFFFC00003FFE000
310
01FFFF0003FFFFFFFFF8000FFFF80003F000F00003FFC00007FC0007FFF80000
310
7FFF8001FF80007FF00007FF80000FFF00007FF80000FFF8000001FFFE000000
310
7F80000000000001FFE000003E000003FFFFE000003E000003FFFF0003FFFFFF
310
FFF80003FFE00007F000F800000000000FFC0007FFF800007FFF8001FF80007F
310
F000000000000FFF000000000000FFF8000001FFFE0000007F80000000000001
310
FFF0000000000007FFFFF0000000000007FFFF0003FFFFFFFFFC00007E000007
310
F000F800000000000FFC0007FFF80000FFFF8000FF80007FF800000000001FFF
310
800000000001FFF8000001FFFE0000007F80000000000001FFF800000000000F
310
FFFFF800000000000FFFFF0003FFFFFFFFFC00000000000FF000FC0000000000
310
1FFC0007FFFC0000FFFF8000FF80007FF800000000003FFFC00000000001FFF8
310
000001FFFE0000007F80000000000001FFF800000000000FFFFFF80000000000
310
0FFFFF0003FFFFFFFFFE00000000001FF000FE00000000003FF8000FFFFC0000
310
FFFF8000FF80007FFC00000000003FFFC00000000003FFF8000001FFFE000000
310
7F80000000000001FFFC00000000001FFFFFFC00000000001FFFFF0003FFFFFF
310
FFFF00000000001FF000FF00000000003FF8000FFFFC0000FFFFC000FF80007F
310
FE00000000007FFFE00000000007FFF8000001FFFE0000007F80000000000001
310
FFFE00000000003FFFFFFE00000000003FFFFF0003FFFFFFFFFF80000000003F
310
F000FF80000000007FF8000FFFFC0001FFFFC0007F80007FFF0000000000FFFF
310
F0000000000FFFF800000000000000007F80000000000001FFFF8000000000FF
310
FFFFFF8000000000FFFFFF0003FFFFFFFFFFC0000000007FF000FFC000000000
310
FFF8000FFFFE0001FFFFC0007F80007FFF8000000001FFFFF8000000001FFFF8
310
00000000000000007F80000000000001FFFFC000000001FFFFFFFFC000000001
310
FFFFFF0003FFFFFFFFFFE000000000FFF000FFE000000003FFF0001FFFFE0001
310
FFFFC0007F80007FFFC000000007FFFFFE000000003FFFF80000000000000000
310
7F80000000000001FFFFE000000003FFFFFFFFE000000003FFFFFF0003FFFFFF
310
FFFFF000000003FFF000FFF80000000FFFF0001FFFFE0001FFFFE0007F80007F
310
FFF00000000FFFFFFF00000000FFFFF800000000000000007F80000000000001
310
FFFFF80000000FFFFFFFFFF80000000FFFFFFF0003FFFFFFFFFFFC0000000FFF
310
F000FFFE0000003FFFF0001FFFFE0003FFFFE0003F80007FFFFC0000003FFFFF
310
FFC0000003FFFFF800000000000000007F80000000000001FFFFFE0000003FFF
310
FFFFFFFE0000003FFFFFFF0003FFFFFFFFFFFF0000003FFFF000FFFF800000FF
310
FFF0001FFFFF0003FFFFE0003F80007FFFFF000001FFFFFFFFF800001FFFFFF8
310
00000000000000007F80000000000001FFFFFFC00001FFFFFFFFFFFFC00001FF
310
FFFFFF0003FFFFFFFFFFFFC00000FFFFF000FFFFF8000FFFFFFFFFFFFFFFFFFF
310
FFFFFFFFFFFFFFFFFFFFF0001FFFFFFFFFFF0000FFFFFFF80000000000000000
310
7FFFFFFFFFFFFFFFFFFFFFFC001FFFFFFFFFFFFFFC001FFFFFFFFFFFFFFFFFFF
310
FFFFFFFC001FFFFFF000FFFFFFFFFFFFFFFFFFFFFFFFFFFFFFFFFFFFFFFFFFFF
310
FFFFFFFFFFFFFFFFFFFFFFFFFFFFFFFFFFFFFFFFFFFFFFFFFFFFFFFFFFFFFFFF
310
FFFFFFFFFFFFFFFFFFFFFFFFFFFFFFFFFFFFFFFFFFFFFFFFFFFFFFFFFFFFFFFF
310
F000FFFFFFFFFFFFFFFFFFFFFFFFFFFFFFFFFFFFFFFFFFFFFFFFFFFFFFFFFFFF
310
FFFFFFFFFFFFFFFFFFFFFFFFFFFFFFFFFFFFFFFFFFFFFFFFFFFFFFFFFFFFFFFF
310
FFFFFFFFFFFFFFFFFFFFFFFFFFFFFFFFFFFFFFFFFFFFFFFFF000FFFFFFFFFFFF
310
FFFFFFFFFFFFFFFFFFFFFFFFFFFFFFFFFFFFFFFFFFFFFFFFFFFFFFFFFFFFFFFF
310
FFFFFFFFFFFFFFFFFFFFFFFFFFFFFFFFFFFFFFFFFFFFFFFFFFFFFFFFFFFFFFFF
310
FFFFFFFFFFFFFFFFFFFFFFFFFFFFFFFFF000FFFFFFFFFFFFFFFFFFFFFFFFFFFF
310
FFFFFFFFFFFFFFFFFFFFFFFFFFFFFFFFFFFFFFFFFFFFFFFFFFFFFFFFFFFFFFFF
310
FFFFFFFFFFFFFFFFFFFFFFFFFFFFFFFFFFFFFFFFFFFFFFFFFFFFFFFFFFFFFFFF
310
FFFFFFFFFFFFFFFFF000FFFFFFFFFFFFFFFFFFFFFFFFFFFFFFFFFFFFFFFFFFFF
310
FFFFFFFFFFFFFFFFFFFFFFFFFFFFFFFFFFFFFFFFFFFFFFFFFFFFFFFFFFFFFFFF
310
FFFFFFFFFFFFFFFFFFFFFFFFFFFFFFFFFFFFFFFFFFFFFFFFFFFFFFFFFFFFFFFF
310
F000FFFFFFFFFFFFFFFFFFFFFFFFFFFFFFFFFFFFFFFFFFFFFFFFFFFFFFFFFFFF
310
FFFFFFFFFFFFFFFFFFFFFFFFFFFFFFFFFFFFFFFFFFFFFFFFFFFFFFFFFFFFFFFF
310
FFFFFFFFFFFFFFFFFFFFFFFFFFFFFFFFFFFFFFFFFFFFFFFFF000FFFFFFFFFFFF
310
FFFFFFFFFFFFFFFFFFFFFFFFFFFFFFFFFFFFFFFFFFFFFFFFFFFFFFFFFFFFFFFF
310
FFFFFFFFFFFFFFFFFFFFFFFFFFFFFFFFFFFFFFFFFFFFFFFFFFFFFFFFFFFFFFFF
310
FFFFFFFFFFFFFFFFFFFFFFFFFFFFFFFFF000FFFFFFFFFFFFFFFFFFFFFFFFFFFF
310
FFFFFFFFFFFFFFFFFFFFFFFFFFFFFFFFFFFFFFFFFFFFFFFFFFFFFFFFFFFFFFFF
310
FFFFFFFFFFFFFFFFFFFFFFFFFFFFFFFFFFFFFFFFFFFFFFFFFFFFFFFFFFFFFFFF
310
FFFFFFFFFFFFFFFFF000FFFFFFFFFFFFFFFFFFFFFFFFFFFFFFFFFFFFFFFFFFFF
310
FFFFFFFFFFFFFFFFFFFFFFFFFFFFFFFFFFFFFFFFFFFFFFFFFFFFFFFFFFFFFFFF
310
FFFFFFFFFFFFFFFFFFFFFFFFFFFFFFFFFFFFFFFFFFFFFFFFFFFFFFFFFFFFFFFF
310
F000FFFFFFFFFFFFFFFFFFFFFFFFFFFFFFFFFFFFFFFFFFFFFFFFFFFFFFFFFFFF
310
FFFFFFFFFFFFFFFFFFFFFFFFFFFFFFFFFFFFFFFFFFFFFFFFFFFFFFFFFFFFFFFF
310
FFFFFFFFFFFFFFFFFFFFFFFFFFFFFFFFFFFFFFFFFFFFFFFFF000FFFFFFFFFFFF
310
FFFFFFFFFFFFFFFFFFFFFFFFFFFFFFFFFFFFFFFFFFFFFFFFFFFFFFFFFFFFFFFF
310
FFFFFFFFFFFFFFFFFFFFFFFFFFFFFFFFFFFFFFFFFFFFFFFFFFFFFFFFFFFFFFFF
310
FFFFFFFFFFFFFFFFFFFFFFFFFFFFFFFFF000FFFFFFFFFFFFFFFFFFFFFFFFFFFF
310
FFFFFFFFFFFFFFFFFFFFFFFFFFFFFFFFFFFFFFFFFFFFFFFFFFFFFFFFFFFFFFFF
310
FFFFFFFFFFFFFFFFFFFFFFFFFFFFFFFFFFFFFFFFFFFFFFFFFFFFFFFFFFFFFFFF
310
FFFFFFFFFFFFFFFFF000FFFFFFFFFFFFFFFFFFFFFFFFFFFFFFFFFFFFFFFFFFFF
310
FFFFFFFFFFFFFFFFFFFFFFFFFFFFFFFFFFFFFFFFFFFFFFFFFFFFFFFFFFFFFFFF
310
FFFFFFFFFFFFFFFFFFFFFFFFFFFFFFFFFFFFFFFFFFFFFFFFFFFFFFFFFFFFFFFF
310
F000FFFFFFFFFFFFFFFFFFFFFFFFFFFFFFFFFFFFFFFFFFFFFFFFFFFFFFFFFFFF
310
FFFFFFFFFFFFFFFFFFFFFFFFFFFFFFFFFFFFFFFFFFFFFFFFFFFFFFFFFFFFFFFF
310
FFFFFFFFFFFFFFFFFFFFFFFFFFFFFFFFFFFFFFFFFFFFFFFFF000FFFFFFFFFFFF
310
FFFFFFFFFFFFFFFFFFFFFFFFFFFFFFFFFFFFFFFFFFFFFFFFFFFFFFFFFFFFFFFF
310
FFFFFFFFFFFFFFFFFFFFFFFFFFFFFFFFFFFFFFFFFFFFFFFFFFFFFFFFFFFFFFFF
310
FFFFFFFFFFFFFFFFFFFFFFFFFFFFFFFFF000FFFFFFFFFFFFFFFFFFFFFFFFFFFF
310
FFFFFFFFFFFFFFFFFFFFFFFFFFFFFFFFFFFFFFFFFFFFFFFFFFFFFFFFFFFFFFFF
310
FFFFFFFFFFFFFFFFFFFFFFFFFFFFFFFFFFFFFFFFFFFFFFFFFFFFFFFFFFFFFFFF
310
FFFFFFFFFFFFFFFFF000FFFFFFFFFFFFFFFFFFFFFFFFFFFFFFFFFFFFFFFFFFFF
310
FFFFFFFFFFFFFFFFFFFFFFFFFFFFFFFFFFFFFFFFFFFFFFFFFFFFFFFFFFFFFFFF
310
FFFFFFFFFFFFFFFFFFFFFFFFFFFFFFFFFFFFFFFFFFFFFFFFFFFFFFFFFFFFFFFF
310
F000FFFFFFFFFFFFFFFFFFFFFFFFFFFFFFFFFFFFFFFFFFFFFFFFFFFFFFFFFFFF
310
FFFFFFFFFFFFFFFFFFFFFFFFFFFFFFFFFFFFFFFFFFFFFFFFFFFFFFFFFFFFFFFF
310
FFFFFFFFFFFFFFFFFFFFFFFFFFFFFFFFFFFFFFFFFFFFFFFFF000FFFFFFFFFFFF
310
FFFFFFFFFFFFFFFFFFFFFFFFFFFFFFFFFFFFFFFFFFFFFFFFFFFFFFFFFFFFFFFF
310
FFFFFFFFFFFFFFFFFFFFFFFFFFFFFFFFFFFFFFFFFFFFFFFFFFFFFFFFFFFFFFFF
310
FFFFFFFFFFFFFFFFFFFFFFFFFFFFFFFFF000FFFFFFFFFFFFFFFFFFFFFFFFFFFF
310
FFFFFFFFFFFFFFFFFFFFFFFFFFFFFFFFFFFFFFFFFFFFFFFFFFFFFFFFFFFFFFFF
310
FFFFFFFFFFFFFFFFFFFFFFFFFFFFFFFFFFFFFFFFFFFFFFFFFFFFFFFFFFFFFFFF
310
FFFFFFFFFFFFFFFFF000FFFFFFFFFFFFFFFFFFFFFFFFFFFFFFFFFFFFFFFFFFFF
310
FFFFFFFFFFFFFFFFFFFFFFFFFFFFFFFFFFFFFFFFFFFFFFFFFFFFFFFFFFFFFFFF
310
FFFFFFFFFFFFFFFFFFFFFFFFFFFFFFFFFFFFFFFFFFFFFFFFFFFFFFFFFFFFFFFF
310
F000FFFFFFFFFFFFFFFFFFFFFFFFFFFFFFFFFFFFFFFFFFFFFFFFFFFFFFFFFFFF
310
FFFFFFFFFFFFFFFFFFFFFFFFFFFFFFFFFFFFFFFFFFFFFFFFFFFFFFFFFFFFFFFF
310
FFFFFFFFFFFFFFFFFFFFFFFFFFFFFFFFFFFFFFFFFFFFFFFFF000FFFFFFFFFFFF
310
FFFFFFFFFFFFFFFFFFFFFFFFFFFFFFFFFFFFFFFFFFFFFFFFFFFFFFFFFFFFFFFF
310
FFFFFFFFFFFFFFFFFFFFFFFFFFFFFFFFFFFFFFFFFFFFFFFFFFFFFFFFFFFFFFFF
310
FFFFFFFFFFFFFFFFFFFFFFFFFFFFFFFFF0000000000000000000000000000000
310
0000000001000000010000000100000001000000010000000100000001000000
310
0100000001000000010000000000000001000000010000000100000001000000
310
0100000001000000010000000100000001000000010000000100000001000000
310
0100000001000000010000000000000001000000000000000100000001000000
310
0100000001000000010000000100000000000000010000000000000001000000
310
0000000001000000010000000100000001000000010000000100000001000000
310
0000000001000000000000000100000001000000010000000100000001000000
310
0100000001000000010000000000000001000000000000000100000000000000
310
0100000000000000010000000000000001000000000000000100000000000000
310
0100000000000000010000000000000001000000000000000100000000000000
310
0100000000000000010000000000000001000000000000000100000000000000
310
0100000000000000010000000000000001000000000000000100000000000000
310
0100000000000000010000000000000001000000000000000100000000000000
310
0100000000000000010000000000000001000000000000000100000000000000
310
0100000000000000010000000000000001000000000000000100000000000000
  1
OLE
  0
ENDSEC
  0
SECTION
  2
OBJECTS
  0
DICTIONARY
  5
C
330
0
100
AcDbDictionary
281
     1
  3
ACAD_GROUP
350
D
  3
ACAD_LAYOUT
350
1A
  3
ACAD_MLEADERSTYLE
350
235
  3
ACAD_MLINESTYLE
350
17
  3
ACAD_PLOTSETTINGS
350
19
  3
ACAD_PLOTSTYLENAME
350
E
  3
ACAD_TABLESTYLE
350
234
  3
ACAD_VISUALSTYLE
350
2A
  3
AcDbVariableDictionary
350
236
  0
DICTIONARY
  5
D
102
{ACAD_REACTORS
330
C
102
}
330
C
100
AcDbDictionary
281
     1
  0
DICTIONARY
  5
1A
102
{ACAD_REACTORS
330
C
102
}
330
C
100
AcDbDictionary
281
     1
  3
Layout1
350
1E
  3
Layout2
350
26
  3
Model
350
22
  0
DICTIONARY
  5
235
102
{ACAD_REACTORS
330
C
102
}
330
C
100
AcDbDictionary
281
     1
  0
DICTIONARY
  5
17
102
{ACAD_REACTORS
330
C
102
}
330
C
100
AcDbDictionary
281
     1
  3
Standard
350
18
  0
DICTIONARY
  5
19
102
{ACAD_REACTORS
330
C
102
}
330
C
100
AcDbDictionary
281
     1
  0
ACDBDICTIONARYWDFLT
  5
E
102
{ACAD_REACTORS
330
C
102
}
330
C
100
AcDbDictionary
281
     1
  3
Normal
350
F
100
AcDbDictionaryWithDefault
340
F
  0
DICTIONARY
  5
234
102
{ACAD_REACTORS
330
C
102
}
330
C
100
AcDbDictionary
281
     1
  0
DICTIONARY
  5
2A
102
{ACAD_REACTORS
330
C
102
}
330
C
100
AcDbDictionary
281
     1
  3
2dWireframe
350
2F
  3
3D Hidden
350
31
  3
3dWireframe
350
30
  3
Basic
350
32
  3
Brighten
350
36
  3
ColorChange
350
3A
  3
Conceptual
350
34
  3
Dim
350
35
  3
Facepattern
350
39
  3
Flat
350
2B
  3
FlatWithEdges
350
2C
  3
Gouraud
350
2D
  3
GouraudWithEdges
350
2E
  3
Linepattern
350
38
  3
Realistic
350
33
  3
Thicken
350
37
  0
DICTIONARY
  5
236
102
{ACAD_REACTORS
330
C
102
}
330
C
100
AcDbDictionary
281
     1
  3
PSOLHEIGHT
350
238
  3
PSOLWIDTH
350
237
  0
LAYOUT
  5
1E
102
{ACAD_REACTORS
330
1A
102
}
330
1A
100
AcDbPlotSettings
  1

  2
none_device
  4

  6

 40
0.0
 41
0.0
 42
0.0
 43
0.0
 44
0.0
 45
0.0
 46
0.0
 47
0.0
 48
0.0
 49
0.0
140
0.0
141
0.0
142
1.0
143
1.0
 70
   688
 72
     0
 73
     0
 74
     5
  7

 75
    16
147
1.0
148
0.0
149
0.0
100
AcDbLayout
  1
Layout1
 70
     1
 71
     1
 10
0.0
 20
0.0
 11
420.0
 21
297.0
 12
0.0
 22
0.0
 32
0.0
 14
1.0000000000E+20
 24
1.0000000000E+20
 34
1.0000000000E+20
 15
-1.0000000000E+20
 25
-1.0000000000E+20
 35
-1.0000000000E+20
146
0.0
 13
0.0
 23
0.0
 33
0.0
 16
1.0
 26
0.0
 36
0.0
 17
0.0
 27
1.0
 37
0.0
 76
     0
330
1B
  0
LAYOUT
  5
26
102
{ACAD_REACTORS
330
1A
102
}
330
1A
100
AcDbPlotSettings
  1

  2
none_device
  4

  6

 40
0.0
 41
0.0
 42
0.0
 43
0.0
 44
0.0
 45
0.0
 46
0.0
 47
0.0
 48
0.0
 49
0.0
140
0.0
141
0.0
142
1.0
143
1.0
 70
   688
 72
     0
 73
     0
 74
     5
  7

 75
    16
147
1.0
148
0.0
149
0.0
100
AcDbLayout
  1
Layout2
 70
     1
 71
     2
 10
0.0
 20
0.0
 11
0.0
 21
0.0
 12
0.0
 22
0.0
 32
0.0
 14
0.0
 24
0.0
 34
0.0
 15
0.0
 25
0.0
 35
0.0
146
0.0
 13
0.0
 23
0.0
 33
0.0
 16
1.0
 26
0.0
 36
0.0
 17
0.0
 27
1.0
 37
0.0
 76
     0
330
23
  0
LAYOUT
  5
22
102
{ACAD_REACTORS
330
1A
102
}
330
1A
100
AcDbPlotSettings
  1

  2
none_device
  4

  6

 40
0.0
 41
0.0
 42
0.0
 43
0.0
 44
0.0
 45
0.0
 46
0.0
 47
0.0
 48
0.0
 49
0.0
140
0.0
141
0.0
142
1.0
143
1.0
 70
  1712
 72
     0
 73
     0
 74
     0
  7

 75
     0
147
1.0
148
0.0
149
0.0
100
AcDbLayout
  1
Model
 70
     1
 71
     0
 10
0.0
 20
0.0
 11
297.0
 21
210.0
 12
0.0
 22
0.0
 32
0.0
 14
0.0
 24
0.0
 34
0.0
 15
297.0
 25
210.0
 35
0.0
146
0.0
 13
0.0
 23
0.0
 33
0.0
 16
1.0
 26
0.0
 36
0.0
 17
0.0
 27
1.0
 37
0.0
 76
     0
330
1F
331
29
  0
MLINESTYLE
  5
18
102
{ACAD_REACTORS
330
17
102
}
330
17
100
AcDbMlineStyle
  2
Standard
 70
     0
  3

 62
   256
 51
90.0
 52
90.0
 71
     2
 49
0.5
 62
   256
  6
BYLAYER
 49
-0.5
 62
   256
  6
BYLAYER
  0
ACDBPLACEHOLDER
  5
F
102
{ACAD_REACTORS
330
E
102
}
330
E
  0
VISUALSTYLE
  5
2F
102
{ACAD_REACTORS
330
2A
102
}
330
2A
100
AcDbVisualStyle
  2
2dWireframe
 70
     4
 71
     0
 72
     2
 73
     0
 90
        0
 40
-0.6
 41
-30.0
 62
     5
 63
     7
 74
     1
 91
        4
 64
     7
 65
   257
 75
     1
175
     1
 42
1.0
 92
        0
 66
   257
 43
1.0
 76
     1
 77
     6
 78
     2
 67
     7
 79
     5
170
     0
171
     0
290
     0
174
     0
 93
        1
 44
0.0
173
     0
291
     0
 45
0.0
1001
ACAD
1000
AcDbSavedByObjectVersion
1070
     0
  0
VISUALSTYLE
  5
31
102
{ACAD_REACTORS
330
2A
102
}
330
2A
100
AcDbVisualStyle
  2
3D Hidden
 70
     6
 71
     1
 72
     2
 73
     2
 90
        0
 40
-0.6
 41
-30.0
 62
     5
 63
     7
 74
     2
 91
        2
 64
     7
 65
   257
 75
     2
175
     1
 42
40.0
 92
        0
 66
   257
 43
1.0
 76
     1
 77
     6
 78
     2
 67
     7
 79
     3
170
     0
171
     0
290
     0
174
     0
 93
        1
 44
0.0
173
     0
291
     0
 45
0.0
1001
ACAD
1000
AcDbSavedByObjectVersion
1070
     0
  0
VISUALSTYLE
  5
30
102
{ACAD_REACTORS
330
2A
102
}
330
2A
100
AcDbVisualStyle
  2
3dWireframe
 70
     5
 71
     0
 72
     2
 73
     0
 90
        0
 40
-0.6
 41
-30.0
 62
     5
 63
     7
 74
     1
 91
        4
 64
     7
 65
   257
 75
     1
175
     1
 42
1.0
 92
        0
 66
   257
 43
1.0
 76
     1
 77
     6
 78
     2
 67
     7
 79
     5
170
     0
171
     0
290
     0
174
     0
 93
        1
 44
0.0
173
     0
291
     0
 45
0.0
1001
ACAD
1000
AcDbSavedByObjectVersion
1070
     0
  0
VISUALSTYLE
  5
32
102
{ACAD_REACTORS
330
2A
102
}
330
2A
100
AcDbVisualStyle
  2
Basic
 70
     7
 71
     1
 72
     0
 73
     1
 90
        0
 40
-0.6
 41
-30.0
 62
     5
 63
     7
 74
     0
 91
        4
 64
     7
 65
   257
 75
     1
175
     1
 42
1.0
 92
        8
 66
     7
 43
1.0
 76
     1
 77
     6
 78
     2
 67
     7
 79
     5
170
     0
171
     0
290
     0
174
     0
 93
        1
 44
0.0
173
     0
291
     1
 45
0.0
1001
ACAD
1000
AcDbSavedByObjectVersion
1070
     0
  0
VISUALSTYLE
  5
36
102
{ACAD_REACTORS
330
2A
102
}
330
2A
100
AcDbVisualStyle
  2
Brighten
 70
    12
 71
     2
 72
     2
 73
     0
 90
        0
 40
-0.6
 41
-30.0
 62
     5
 63
     7
 74
     1
 91
        4
 64
     7
 65
   257
 75
     1
175
     1
 42
1.0
 92
        8
 66
     7
 43
1.0
 76
     1
 77
     6
 78
     2
 67
     7
 79
     5
170
     0
171
     0
290
     0
174
     0
 93
        1
 44
50.0
173
     0
291
     1
 45
0.0
1001
ACAD
1000
AcDbSavedByObjectVersion
1070
     0
  0
VISUALSTYLE
  5
3A
102
{ACAD_REACTORS
330
2A
102
}
330
2A
100
AcDbVisualStyle
  2
ColorChange
 70
    16
 71
     2
 72
     2
 73
     3
 90
        0
 40
-0.6
 41
-30.0
 62
     5
 63
     8
 74
     1
 91
        4
 64
     7
 65
   257
 75
     1
175
     1
 42
1.0
 92
        8
 66
     8
 43
1.0
 76
     1
 77
     6
 78
     2
 67
     7
 79
     5
170
     0
171
     0
290
     0
174
     0
 93
        1
 44
0.0
173
     0
291
     1
 45
0.0
1001
ACAD
1000
AcDbSavedByObjectVersion
1070
     0
  0
VISUALSTYLE
  5
34
102
{ACAD_REACTORS
330
2A
102
}
330
2A
100
AcDbVisualStyle
  2
Conceptual
 70
     9
 71
     3
 72
     2
 73
     0
 90
        0
 40
-0.6
 41
-30.0
 62
     5
 63
     7
 74
     2
 91
        2
 64
     7
 65
   257
 75
     1
175
     1
 42
40.0
 92
        8
 66
     7
 43
1.0
 76
     1
 77
     6
 78
     2
 67
     7
 79
     3
170
     0
171
     0
290
     0
174
     0
 93
        1
 44
0.0
173
     0
291
     0
 45
0.0
1001
ACAD
1000
AcDbSavedByObjectVersion
1070
     0
  0
VISUALSTYLE
  5
35
102
{ACAD_REACTORS
330
2A
102
}
330
2A
100
AcDbVisualStyle
  2
Dim
 70
    11
 71
     2
 72
     2
 73
     0
 90
        0
 40
-0.6
 41
-30.0
 62
     5
 63
     7
 74
     1
 91
        4
 64
     7
 65
   257
 75
     1
175
     1
 42
1.0
 92
        8
 66
     7
 43
1.0
 76
     1
 77
     6
 78
     2
 67
     7
 79
     5
170
     0
171
     0
290
     0
174
     0
 93
        1
 44
-50.0
173
     0
291
     1
 45
0.0
1001
ACAD
1000
AcDbSavedByObjectVersion
1070
     0
  0
VISUALSTYLE
  5
39
102
{ACAD_REACTORS
330
2A
102
}
330
2A
100
AcDbVisualStyle
  2
Facepattern
 70
    15
 71
     2
 72
     2
 73
     0
 90
        0
 40
-0.6
 41
-30.0
 62
     5
 63
     7
 74
     1
 91
        4
 64
     7
 65
   257
 75
     1
175
     1
 42
1.0
 92
        8
 66
     7
 43
1.0
 76
     1
 77
     6
 78
     2
 67
     7
 79
     5
170
     0
171
     0
290
     0
174
     0
 93
        1
 44
0.0
173
     0
291
     1
 45
0.0
1001
ACAD
1000
AcDbSavedByObjectVersion
1070
     0
  0
VISUALSTYLE
  5
2B
102
{ACAD_REACTORS
330
2A
102
}
330
2A
100
AcDbVisualStyle
  2
Flat
 70
     0
 71
     2
 72
     1
 73
     1
 90
        2
 40
-0.6
 41
30.0
 62
     5
 63
     7
 74
     0
 91
        4
 64
     7
 65
   257
 75
     1
175
     1
 42
1.0
 92
        8
 66
     7
 43
1.0
 76
     1
 77
     6
 78
     2
 67
     7
 79
     5
170
     0
171
     0
290
     0
174
     0
 93
       13
 44
0.0
173
     0
291
     1
 45
0.0
1001
ACAD
1000
AcDbSavedByObjectVersion
1070
     0
  0
VISUALSTYLE
  5
2C
102
{ACAD_REACTORS
330
2A
102
}
330
2A
100
AcDbVisualStyle
  2
FlatWithEdges
 70
     1
 71
     2
 72
     1
 73
     1
 90
        2
 40
-0.6
 41
30.0
 62
     5
 63
     7
 74
     1
 91
        4
 64
     7
 65
   257
 75
     1
175
     1
 42
1.0
 92
        0
 66
   257
 43
1.0
 76
     1
 77
     6
 78
     2
 67
     7
 79
     5
170
     0
171
     0
290
     0
174
     0
 93
       13
 44
0.0
173
     0
291
     1
 45
0.0
1001
ACAD
1000
AcDbSavedByObjectVersion
1070
     0
  0
VISUALSTYLE
  5
2D
102
{ACAD_REACTORS
330
2A
102
}
330
2A
100
AcDbVisualStyle
  2
Gouraud
 70
     2
 71
     2
 72
     2
 73
     1
 90
        2
 40
-0.6
 41
30.0
 62
     5
 63
     7
 74
     0
 91
        4
 64
     7
 65
   257
 75
     1
175
     1
 42
1.0
 92
        0
 66
     7
 43
1.0
 76
     1
 77
     6
 78
     2
 67
     7
 79
     5
170
     0
171
     0
290
     0
174
     0
 93
       13
 44
0.0
173
     0
291
     1
 45
0.0
1001
ACAD
1000
AcDbSavedByObjectVersion
1070
     0
  0
VISUALSTYLE
  5
2E
102
{ACAD_REACTORS
330
2A
102
}
330
2A
100
AcDbVisualStyle
  2
GouraudWithEdges
 70
     3
 71
     2
 72
     2
 73
     1
 90
        2
 40
-0.6
 41
30.0
 62
     5
 63
     7
 74
     1
 91
        4
 64
     7
 65
   257
 75
     1
175
     1
 42
1.0
 92
        0
 66
   257
 43
1.0
 76
     1
 77
     6
 78
     2
 67
     7
 79
     5
170
     0
171
     0
290
     0
174
     0
 93
       13
 44
0.0
173
     0
291
     1
 45
0.0
1001
ACAD
1000
AcDbSavedByObjectVersion
1070
     0
  0
VISUALSTYLE
  5
38
102
{ACAD_REACTORS
330
2A
102
}
330
2A
100
AcDbVisualStyle
  2
Linepattern
 70
    14
 71
     2
 72
     2
 73
     0
 90
        0
 40
-0.6
 41
-30.0
 62
     5
 63
     7
 74
     1
 91
        4
 64
     7
 65
   257
 75
     7
175
     7
 42
1.0
 92
        8
 66
     7
 43
1.0
 76
     1
 77
     6
 78
     2
 67
     7
 79
     5
170
     0
171
     0
290
     0
174
     0
 93
        1
 44
0.0
173
     0
291
     1
 45
0.0
1001
ACAD
1000
AcDbSavedByObjectVersion
1070
     0
  0
VISUALSTYLE
  5
33
102
{ACAD_REACTORS
330
2A
102
}
330
2A
100
AcDbVisualStyle
  2
Realistic
 70
     8
 71
     2
 72
     2
 73
     0
 90
        0
 40
-0.6
 41
-30.0
 62
     5
 63
     7
 74
     1
 91
        0
 64
     7
 65
   257
 75
     1
175
     1
 42
1.0
 92
        8
 66
     8
 43
1.0
 76
     1
 77
     6
 78
     2
 67
     7
 79
     5
170
     0
171
     0
290
     0
174
     0
 93
       13
 44
0.0
173
     0
291
     0
 45
0.0
1001
ACAD
1000
AcDbSavedByObjectVersion
1070
     0
  0
VISUALSTYLE
  5
37
102
{ACAD_REACTORS
330
2A
102
}
330
2A
100
AcDbVisualStyle
  2
Thicken
 70
    13
 71
     2
 72
     2
 73
     0
 90
        0
 40
-0.6
 41
-30.0
 62
     5
 63
     7
 74
     1
 91
        4
 64
     7
 65
   257
 75
     1
175
     1
 42
1.0
 92
       12
 66
     7
 43
1.0
 76
     1
 77
     6
 78
     2
 67
     7
 79
     5
170
     0
171
     0
290
     0
174
     0
 93
        1
 44
0.0
173
     0
291
     1
 45
0.0
1001
ACAD
1000
AcDbSavedByObjectVersion
1070
     0
  0
DICTIONARYVAR
  5
238
102
{ACAD_REACTORS
330
236
102
}
330
236
100
DictionaryVariables
280
     0
  1
80.000000
  0
DICTIONARYVAR
  5
237
102
{ACAD_REACTORS
330
236
102
}
330
236
100
DictionaryVariables
280
     0
  1
5.000000
  0
ENDSEC
  0
EOF
