  0
SECTION
  2
HEADER
  9
$ACADVER
  1
AC1015
  9
$ACADMAINTVER
 70
     6
  9
$DWGCODEPAGE
  3
ANSI_1252
  9
$INSBASE
 10
0.0
 20
0.0
 30
0.0
  9
$EXTMIN
 10
0.0
 20
0.0
 30
0.0
  9
$EXTMAX
 10
297.0
 20
210.0
 30
0.0
  9
$LIMMIN
 10
0.0
 20
0.0
  9
$LIMMAX
 10
297.0
 20
210.0
  9
$ORTHOMODE
 70
     0
  9
$REGENMODE
 70
     1
  9
$FILLMODE
 70
     1
  9
$QTEXTMODE
 70
     0
  9
$MIRRTEXT
 70
     1
  9
$LTSCALE
 40
1.0
  9
$ATTMODE
 70
     1
  9
$TEXTSIZE
 40
2.0
  9
$TRACEWID
 40
1.0
  9
$TEXTSTYLE
  7
Standard
  9
$CLAYER
  8
0
  9
$CELTYPE
  6
ByLayer
  9
$CECOLOR
 62
   256
  9
$CELTSCALE
 40
1.0
  9
$DISPSILH
 70
     0
  9
$DIMSCALE
 40
1.0
  9
$DIMASZ
 40
3.0
  9
$DIMEXO
 40
0.0
  9
$DIMDLI
 40
3.75
  9
$DIMRND
 40
0.0
  9
$DIMDLE
 40
0.0
  9
$DIMEXE
 40
1.0
  9
$DIMTP
 40
0.0
  9
$DIMTM
 40
0.0
  9
$DIMTXT
 40
2.0
  9
$DIMCEN
 40
2.5
  9
$DIMTSZ
 40
0.0
  9
$DIMTOL
 70
     0
  9
$DIMLIM
 70
     0
  9
$DIMTIH
 70
     1
  9
$DIMTOH
 70
     1
  9
$DIMSE1
 70
     0
  9
$DIMSE2
 70
     0
  9
$DIMTAD
 70
     1
  9
$DIMZIN
 70
     0
  9
$DIMBLK
  1

  9
$DIMASO
 70
     1
  9
$DIMSHO
 70
     1
  9
$DIMPOST
  1

  9
$DIMAPOST
  1

  9
$DIMALT
 70
     0
  9
$DIMALTD
 70
     3
  9
$DIMALTF
 40
0.0393700787
  9
$DIMLFAC
 40
1.0
  9
$DIMTOFL
 70
     1
  9
$DIMTVP
 40
0.0
  9
$DIMTIX
 70
     0
  9
$DIMSOXD
 70
     0
  9
$DIMSAH
 70
     0
  9
$DIMBLK1
  1

  9
$DIMBLK2
  1

  9
$DIMSTYLE
  2
ISO-25
  9
$DIMCLRD
 70
     0
  9
$DIMCLRE
 70
     0
  9
$DIMCLRT
 70
     0
  9
$DIMTFAC
 40
1.0
  9
$DIMGAP
 40
1.524
  9
$DIMJUST
 70
     0
  9
$DIMSD1
 70
     0
  9
$DIMSD2
 70
     0
  9
$DIMTOLJ
 70
     0
  9
$DIMTZIN
 70
     0
  9
$DIMALTZ
 70
     0
  9
$DIMALTTZ
 70
     0
  9
$DIMUPT
 70
     0
  9
$DIMDEC
 70
     2
  9
$DIMTDEC
 70
     3
  9
$DIMALTU
 70
     2
  9
$DIMALTTD
 70
     3
  9
$DIMTXSTY
  7
Standard
  9
$DIMAUNIT
 70
     0
  9
$DIMADEC
 70
     2
  9
$DIMALTRND
 40
0.0
  9
$DIMAZIN
 70
     0
  9
$DIMDSEP
 70
    44
  9
$DIMATFIT
 70
     3
  9
$DIMFRAC
 70
     0
  9
$DIMLDRBLK
  1

  9
$DIMLUNIT
 70
     2
  9
$DIMLWD
 70
    -2
  9
$DIMLWE
 70
    -2
  9
$DIMTMOVE
 70
     0
  9
$LUNITS
 70
     2
  9
$LUPREC
 70
     2
  9
$SKETCHINC
 40
1.0
  9
$FILLETRAD
 40
10.0
  9
$AUNITS
 70
     0
  9
$AUPREC
 70
     2
  9
$MENU
  1
.
  9
$ELEVATION
 40
0.0
  9
$PELEVATION
 40
0.0
  9
$THICKNESS
 40
0.0
  9
$LIMCHECK
 70
     0
  9
$CHAMFERA
 40
10.0
  9
$CHAMFERB
 40
10.0
  9
$CHAMFERC
 40
20.0
  9
$CHAMFERD
 40
0.0
  9
$SKPOLY
 70
     0
  9
$TDCREATE
 40
2455679.37117978
  9
$TDUCREATE
 40
2455679.287846447
  9
$TDUPDATE
 40
2455679.371179792
  9
$TDUUPDATE
 40
2455679.287846458
  9
$TDINDWG
 40
0.0000000116
  9
$TDUSRTIMER
 40
0.0000000116
  9
$USRTIMER
 70
     1
  9
$ANGBASE
 50
0.0
  9
$ANGDIR
 70
     0
  9
$PDMODE
 70
     0
  9
$PDSIZE
 40
-1.0
  9
$PLINEWID
 40
0.0
  9
$SPLFRAME
 70
     0
  9
$SPLINETYPE
 70
     6
  9
$SPLINESEGS
 70
     8
  9
$HANDSEED
  5
1B5
  9
$SURFTAB1
 70
     6
  9
$SURFTAB2
 70
     6
  9
$SURFTYPE
 70
     6
  9
$SURFU
 70
     6
  9
$SURFV
 70
     6
  9
$UCSBASE
  2

  9
$UCSNAME
  2

  9
$UCSORG
 10
0.0
 20
0.0
 30
0.0
  9
$UCSXDIR
 10
1.0
 20
0.0
 30
0.0
  9
$UCSYDIR
 10
0.0
 20
1.0
 30
0.0
  9
$UCSORTHOREF
  2

  9
$UCSORTHOVIEW
 70
     0
  9
$UCSORGTOP
 10
0.0
 20
0.0
 30
0.0
  9
$UCSORGBOTTOM
 10
0.0
 20
0.0
 30
0.0
  9
$UCSORGLEFT
 10
0.0
 20
0.0
 30
0.0
  9
$UCSORGRIGHT
 10
0.0
 20
0.0
 30
0.0
  9
$UCSORGFRONT
 10
0.0
 20
0.0
 30
0.0
  9
$UCSORGBACK
 10
0.0
 20
0.0
 30
0.0
  9
$PUCSBASE
  2

  9
$PUCSNAME
  2

  9
$PUCSORG
 10
0.0
 20
0.0
 30
0.0
  9
$PUCSXDIR
 10
1.0
 20
0.0
 30
0.0
  9
$PUCSYDIR
 10
0.0
 20
1.0
 30
0.0
  9
$PUCSORTHOREF
  2

  9
$PUCSORTHOVIEW
 70
     0
  9
$PUCSORGTOP
 10
0.0
 20
0.0
 30
0.0
  9
$PUCSORGBOTTOM
 10
0.0
 20
0.0
 30
0.0
  9
$PUCSORGLEFT
 10
0.0
 20
0.0
 30
0.0
  9
$PUCSORGRIGHT
 10
0.0
 20
0.0
 30
0.0
  9
$PUCSORGFRONT
 10
0.0
 20
0.0
 30
0.0
  9
$PUCSORGBACK
 10
0.0
 20
0.0
 30
0.0
  9
$USERI1
 70
     0
  9
$USERI2
 70
     0
  9
$USERI3
 70
     0
  9
$USERI4
 70
     0
  9
$USERI5
 70
     0
  9
$USERR1
 40
0.0
  9
$USERR2
 40
0.0
  9
$USERR3
 40
0.0
  9
$USERR4
 40
0.0
  9
$USERR5
 40
0.0
  9
$WORLDVIEW
 70
     1
  9
$SHADEDGE
 70
     3
  9
$SHADEDIF
 70
    70
  9
$TILEMODE
 70
     1
  9
$MAXACTVP
 70
    64
  9
$PINSBASE
 10
0.0
 20
0.0
 30
0.0
  9
$PLIMCHECK
 70
     0
  9
$PEXTMIN
 10
1.0000000000E+20
 20
1.0000000000E+20
 30
1.0000000000E+20
  9
$PEXTMAX
 10
-1.0000000000E+20
 20
-1.0000000000E+20
 30
-1.0000000000E+20
  9
$PLIMMIN
 10
0.0
 20
0.0
  9
$PLIMMAX
 10
420.0
 20
297.0
  9
$UNITMODE
 70
     0
  9
$VISRETAIN
 70
     1
  9
$PLINEGEN
 70
     0
  9
$PSLTSCALE
 70
     1
  9
$TREEDEPTH
 70
  3020
  9
$CMLSTYLE
  2
Standard
  9
$CMLJUST
 70
     0
  9
$CMLSCALE
 40
20.0
  9
$PROXYGRAPHICS
 70
     1
  9
$MEASUREMENT
 70
     1
  9
$CELWEIGHT
370
    -1
  9
$ENDCAPS
280
     0
  9
$JOINSTYLE
280
     0
  9
$LWDISPLAY
290
     1
  9
$INSUNITS
 70
     4
  9
$HYPERLINKBASE
  1

  9
$STYLESHEET
  1

  9
$XEDIT
290
     1
  9
$CEPSNTYPE
380
     0
  9
$PSTYLEMODE
290
     1
  9
$FINGERPRINTGUID
  2
{BB11A2A3-14DB-40C4-BC6E-28D9E9343671}
  9
$VERSIONGUID
  2
{FAEB1C32-E019-11D5-929B-00C0DF256EC4}
  9
$EXTNAMES
290
     1
  9
$PSVPSCALE
 40
0.0
  9
$OLESTARTUP
290
     0
  0
ENDSEC
  0
SECTION
  2
CLASSES
  0
CLASS
  1
ACDBDICTIONARYWDFLT
  2
AcDbDictionaryWithDefault
  3
ObjectDBX Classes
 90
        0
280
     0
281
     0
  0
CLASS
  1
VISUALSTYLE
  2
AcDbVisualStyle
  3
ObjectDBX Classes
 90
     4095
280
     0
281
     0
  0
CLASS
  1
DICTIONARYVAR
  2
AcDbDictionaryVar
  3
ObjectDBX Classes
 90
        0
280
     0
281
     0
  0
CLASS
  1
ACDBPLACEHOLDER
  2
AcDbPlaceHolder
  3
ObjectDBX Classes
 90
        0
280
     0
281
     0
  0
CLASS
  1
LAYOUT
  2
AcDbLayout
  3
ObjectDBX Classes
 90
        0
280
     0
281
     0
  0
ENDSEC
  0
SECTION
  2
TABLES
  0
TABLE
  2
VPORT
  5
8
330
0
100
AcDbSymbolTable
 70
     1
  0
VPORT
  5
29
330
8
100
AcDbSymbolTableRecord
100
AcDbViewportTableRecord
  2
*Active
 70
     0
 10
0.0
 20
0.0
 11
1.0
 21
1.0
 12
148.5
 22
105.0
 13
0.0
 23
0.0
 14
10.0
 24
10.0
 15
10.0
 25
10.0
 16
0.0
 26
0.0
 36
1.0
 17
0.0
 27
0.0
 37
0.0
 40
210.0
 41
1.4142857143
 42
50.0
 43
0.0
 44
0.0
 50
0.0
 51
0.0
 71
     0
 72
  2000
 73
     1
 74
     3
 75
     0
 76
     0
 77
     0
 78
     0
281
     0
 65
     1
110
0.0
120
0.0
130
0.0
111
1.0
121
0.0
131
0.0
112
0.0
122
1.0
132
0.0
 79
     0
146
0.0
  0
ENDTAB
  0
TABLE
  2
LTYPE
  5
5
330
0
100
AcDbSymbolTable
 70
     6
  0
LTYPE
  5
14
330
5
100
AcDbSymbolTableRecord
100
AcDbLinetypeTableRecord
  2
ByBlock
 70
     0
  3

 72
    65
 73
     0
 40
0.0
  0
LTYPE
  5
15
330
5
100
AcDbSymbolTableRecord
100
AcDbLinetypeTableRecord
  2
ByLayer
 70
     0
  3

 72
    65
 73
     0
 40
0.0
  0
LTYPE
  5
16
330
5
100
AcDbSymbolTableRecord
100
AcDbLinetypeTableRecord
  2
Continuous
 70
     0
  3
Solid line
 72
    65
 73
     0
 40
0.0
  0
LTYPE
  5
3B
330
5
100
AcDbSymbolTableRecord
100
AcDbLinetypeTableRecord
  2
HIDDEN
 70
     0
  3
Hidden __ __ __ __ __ __ __ __ __ __ __ __ __ __
 72
    65
 73
     2
 40
1.905
 49
1.27
 74
     0
 49
-0.635
 74
     0
  0
LTYPE
  5
3C
330
5
100
AcDbSymbolTableRecord
100
AcDbLinetypeTableRecord
  2
PHANTOM
 70
     0
  3
Phantom ______  __  __  ______  __  __  ______
 72
    65
 73
     6
 40
12.7
 49
6.35
 74
     0
 49
-1.27
 74
     0
 49
1.27
 74
     0
 49
-1.27
 74
     0
 49
1.27
 74
     0
 49
-1.27
 74
     0
  0
LTYPE
  5
3D
330
5
100
AcDbSymbolTableRecord
100
AcDbLinetypeTableRecord
  2
CENTER
 70
     0
  3
Center ____ _ ____ _ ____ _ ____ _ ____ _ ____
 72
    65
 73
     4
 40
10.16
 49
6.35
 74
     0
 49
-1.27
 74
     0
 49
1.27
 74
     0
 49
-1.27
 74
     0
  0
LTYPE
  5
3E
330
5
100
AcDbSymbolTableRecord
100
AcDbLinetypeTableRecord
  2
CENTERX2
 70
     0
  3
Center (2x) ________  __  ________  __  _____
 72
    65
 73
     4
 40
20.32
 49
12.7
 74
     0
 49
-2.54
 74
     0
 49
2.54
 74
     0
 49
-2.54
 74
     0
  0
LTYPE
  5
3F
330
5
100
AcDbSymbolTableRecord
100
AcDbLinetypeTableRecord
  2
DOT2
 70
     0
  3
Dot (.5x) ........................................
 72
    65
 73
     2
 40
0.635
 49
0.0
 74
     0
 49
-0.635
 74
     0
  0
ENDTAB
  0
TABLE
  2
LAYER
  5
2
330
0
100
AcDbSymbolTable
 70
     5
  0
LAYER
  5
10
330
2
100
AcDbSymbolTableRecord
100
AcDbLayerTableRecord
  2
0
 70
     0
 62
     7
  6
Continuous
370
    -3
390
F
  0
LAYER
  5
40
330
2
100
AcDbSymbolTableRecord
100
AcDbLayerTableRecord
  2
FORMAT
 70
     0
 62
     7
  6
Continuous
370
    -3
390
F
  0
LAYER
  5
41
330
2
100
AcDbSymbolTableRecord
100
AcDbLayerTableRecord
  2
VERMASSUNG
 70
     0
 62
     7
  6
Continuous
370
    -3
390
F
  0
LAYER
  5
42
330
2
100
AcDbSymbolTableRecord
100
AcDbLayerTableRecord
  2
KOPF_DÜNN
 70
     0
 62
     7
  6
Continuous
370
    -3
390
F
  0
LAYER
  5
43
330
2
100
AcDbSymbolTableRecord
100
AcDbLayerTableRecord
  2
KOPF_DICK
 70
     0
 62
     7
  6
Continuous
370
    15
390
F
  0
ENDTAB
  0
TABLE
  2
STYLE
  5
3
330
0
100
AcDbSymbolTable
 70
     3
  0
STYLE
  5
11
330
3
100
AcDbSymbolTableRecord
100
AcDbTextStyleTableRecord
  2
Standard
 70
     0
 40
0.0
 41
1.0
 50
0.0
 71
     0
 42
2.5
  3
txt
  4

  0
STYLE
  5
44
330
3
100
AcDbSymbolTableRecord
100
AcDbTextStyleTableRecord
  2
SLDTEXTSTYLE0
 70
     0
 40
0.0
 41
0.7
 50
0.0
 71
     0
 42
0.2
  3
TXT
  4

  0
STYLE
  5
48
330
3
100
AcDbSymbolTableRecord
100
AcDbTextStyleTableRecord
  2
SLDTEXTSTYLE1
 70
     0
 40
0.0
 41
0.6473684211
 50
0.0
 71
     0
 42
0.2
  3
TXT
  4

  0
ENDTAB
  0
TABLE
  2
VIEW
  5
6
330
0
100
AcDbSymbolTable
 70
     0
  0
ENDTAB
  0
TABLE
  2
UCS
  5
7
330
0
100
AcDbSymbolTable
 70
     0
  0
ENDTAB
  0
TABLE
  2
APPID
  5
9
330
0
100
AcDbSymbolTable
 70
     1
  0
APPID
  5
12
330
9
100
AcDbSymbolTableRecord
100
AcDbRegAppTableRecord
  2
ACAD
 70
     0
  0
ENDTAB
  0
TABLE
  2
DIMSTYLE
  5
A
330
0
100
AcDbSymbolTable
 70
     5
100
AcDbDimStyleTable
  0
DIMSTYLE
105
27
330
A
100
AcDbSymbolTableRecord
100
AcDbDimStyleTableRecord
  2
ISO-25
 70
     0
 41
2.5
 42
0.625
 43
3.75
 44
1.25
 73
     0
 74
     0
 77
     1
 78
     8
140
2.5
141
2.5
143
0.0393700787
147
0.625
171
     3
172
     1
271
     2
272
     2
274
     3
278
    44
283
     0
284
     8
340
11
  0
DIMSTYLE
105
156
102
{ACAD_REACTORS
330
155
330
190
330
19A
330
1A4
102
}
330
A
100
AcDbSymbolTableRecord
100
AcDbDimStyleTableRecord
  2
SLDDIMSTYLE0
 70
     0
 41
3.0
 44
0.0
 45
0.000000001
 73
     0
 74
     0
 77
     1
 78
    12
140
2.0
147
0.5
173
     1
271
     2
272
     3
284
    12
340
44
  0
DIMSTYLE
105
163
102
{ACAD_REACTORS
330
162
102
}
330
A
100
AcDbSymbolTableRecord
100
AcDbDimStyleTableRecord
  2
SLDDIMSTYLE1
 70
     0
 41
3.0
 44
0.0
 45
0.000000001
 73
     0
 74
     0
 77
     1
 78
    12
140
2.0
147
0.5
173
     1
271
     2
272
     2
284
    12
340
44
  0
DIMSTYLE
105
16E
102
{ACAD_REACTORS
330
16D
102
}
330
A
100
AcDbSymbolTableRecord
100
AcDbDimStyleTableRecord
  2
SLDDIMSTYLE2
 70
     0
 41
3.0
 44
0.0
 45
0.000000001
 73
     0
 74
     0
 77
     1
 78
    12
140
2.0
147
0.5
173
     1
271
     2
272
     2
284
    12
340
44
  0
DIMSTYLE
105
17A
102
{ACAD_REACTORS
330
179
330
185
102
}
330
A
100
AcDbSymbolTableRecord
100
AcDbDimStyleTableRecord
  2
SLDDIMSTYLE3
 70
     0
 41
3.0
 44
0.0
 45
0.000000001
 73
     0
 74
     0
 77
     1
 78
    12
140
2.0
147
0.5
173
     1
271
     2
272
     3
284
    12
340
44
  0
ENDTAB
  0
TABLE
  2
BLOCK_RECORD
  5
1
330
0
100
AcDbSymbolTable
 70
     9
  0
BLOCK_RECORD
  5
1F
330
1
100
AcDbSymbolTableRecord
100
AcDbBlockTableRecord
  2
*Model_Space
340
22
  0
BLOCK_RECORD
  5
1B
330
1
100
AcDbSymbolTableRecord
100
AcDbBlockTableRecord
  2
*Paper_Space
340
1E
  0
BLOCK_RECORD
  5
23
330
1
100
AcDbSymbolTableRecord
100
AcDbBlockTableRecord
  2
*Paper_Space0
340
26
  0
BLOCK_RECORD
  5
157
330
1
100
AcDbSymbolTableRecord
100
AcDbBlockTableRecord
  2
*D1
340
0
  0
BLOCK_RECORD
  5
164
330
1
100
AcDbSymbolTableRecord
100
AcDbBlockTableRecord
  2
*D2
340
0
  0
BLOCK_RECORD
  5
16F
330
1
100
AcDbSymbolTableRecord
100
AcDbBlockTableRecord
  2
*D3
340
0
  0
BLOCK_RECORD
  5
17B
330
1
100
AcDbSymbolTableRecord
100
AcDbBlockTableRecord
  2
*D4
340
0
  0
BLOCK_RECORD
  5
186
330
1
100
AcDbSymbolTableRecord
100
AcDbBlockTableRecord
  2
*D5
340
0
  0
BLOCK_RECORD
  5
191
330
1
100
AcDbSymbolTableRecord
100
AcDbBlockTableRecord
  2
*D6
340
0
  0
BLOCK_RECORD
  5
19B
330
1
100
AcDbSymbolTableRecord
100
AcDbBlockTableRecord
  2
*D7
340
0
  0
BLOCK_RECORD
  5
1A5
330
1
100
AcDbSymbolTableRecord
100
AcDbBlockTableRecord
  2
*D8
340
0
  0
ENDTAB
  0
ENDSEC
  0
SECTION
  2
BLOCKS
  0
BLOCK
  5
20
330
1F
100
AcDbEntity
  8
0
100
AcDbBlockBegin
  2
*Model_Space
 70
     0
 10
0.0
 20
0.0
 30
0.0
  3
*Model_Space
  1

  0
ENDBLK
  5
21
330
1F
100
AcDbEntity
  8
0
100
AcDbBlockEnd
  0
BLOCK
  5
1C
330
1B
100
AcDbEntity
 67
     1
  8
0
100
AcDbBlockBegin
  2
*Paper_Space
 70
     0
 10
0.0
 20
0.0
 30
0.0
  3
*Paper_Space
  1

  0
ENDBLK
  5
1D
330
1B
100
AcDbEntity
 67
     1
  8
0
100
AcDbBlockEnd
  0
BLOCK
  5
24
330
23
100
AcDbEntity
  8
0
100
AcDbBlockBegin
  2
*Paper_Space0
 70
     0
 10
0.0
 20
0.0
 30
0.0
  3
*Paper_Space0
  1

  0
ENDBLK
  5
25
330
23
100
AcDbEntity
  8
0
100
AcDbBlockEnd
  0
BLOCK
  5
158
330
157
100
AcDbEntity
  8
0
100
AcDbBlockBegin
  2
*D1
 70
     1
 10
0.0
 20
0.0
 30
0.0
  3
*D1
  1

  0
SOLID
  5
15A
330
157
100
AcDbEntity
  8
VERMASSUNG
100
AcDbTrace
 10
81.6640303359
 20
140.3291440953
 30
0.0
 11
81.2140303359
 21
137.3291440953
 31
0.0
 12
82.1140303359
 22
137.3291440953
 32
0.0
 13
82.1140303359
 23
137.3291440953
 33
0.0
  0
SOLID
  5
15B
330
157
100
AcDbEntity
  8
VERMASSUNG
100
AcDbTrace
 10
81.6640303359
 20
77.3291440953
 30
0.0
 11
82.1140303359
 21
80.3291440953
 31
0.0
 12
81.2140303359
 22
80.3291440953
 32
0.0
 13
81.2140303359
 23
80.3291440953
 33
0.0
  0
LINE
  5
15C
330
157
100
AcDbEntity
  8
VERMASSUNG
100
AcDbLine
 10
119.5905825821
 20
140.3291440953
 30
0.0
 11
80.6640303359
 21
140.3291440953
 31
0.0
  0
LINE
  5
15D
330
157
100
AcDbEntity
  8
VERMASSUNG
100
AcDbLine
 10
119.5905825821
 20
77.3291440953
 30
0.0
 11
80.6640303359
 21
77.3291440953
 31
0.0
  0
LINE
  5
15E
330
157
100
AcDbEntity
  8
VERMASSUNG
100
AcDbLine
 10
81.6640303359
 20
140.3291440953
 30
0.0
 11
81.6640303359
 21
77.3291440953
 31
0.0
  0
MTEXT
  5
15F
330
157
100
AcDbEntity
  8
VERMASSUNG
100
AcDbMText
 10
78.8858948468
 20
101.1256023835
 30
0.0
 40
2.0
 41
0.0
 71
     1
 72
     1
  1
HSK A 
  7
SLDTEXTSTYLE0
 11
-7.044195017643634E-15
 21
1.0
 31
0.0
 73
     1
 44
1.0
  0
MTEXT
  5
160
330
157
100
AcDbEntity
  8
VERMASSUNG
100
AcDbMText
 10
79.0858948563
 20
110.1256029274
 30
0.0
 40
2.0
 41
0.0
 71
     1
 72
     1
  1
%%c
  7
SLDTEXTSTYLE0
 11
-7.044195017643634E-15
 21
1.0
 31
0.0
 73
     1
 44
1.0
  0
MTEXT
  5
161
330
157
100
AcDbEntity
  8
VERMASSUNG
100
AcDbMText
 10
79.0858949727
 20
113.7339295775
 30
0.0
 40
2.0
 41
0.0
 71
     1
 72
     1
  1
63
  7
SLDTEXTSTYLE0
 11
-7.044195017643634E-15
 21
1.0
 31
0.0
 73
     1
 44
1.0
  0
ENDBLK
  5
159
330
157
100
AcDbEntity
  8
0
100
AcDbBlockEnd
  0
BLOCK
  5
165
330
164
100
AcDbEntity
  8
0
100
AcDbBlockBegin
  2
*D2
 70
     1
 10
0.0
 20
0.0
 30
0.0
  3
*D2
  1

  0
SOLID
  5
167
330
164
100
AcDbEntity
  8
VERMASSUNG
100
AcDbTrace
 10
162.7905825821
 20
142.0150595883
 30
0.0
 11
165.7905825821
 21
141.5650595883
 31
0.0
 12
165.7905825821
 22
142.4650595883
 32
0.0
 13
165.7905825821
 23
142.4650595883
 33
0.0
  0
SOLID
  5
168
330
164
100
AcDbEntity
  8
VERMASSUNG
100
AcDbTrace
 10
209.2905825821
 20
142.0150595883
 30
0.0
 11
206.2905825821
 21
142.4650595883
 31
0.0
 12
206.2905825821
 22
141.5650595883
 32
0.0
 13
206.2905825821
 23
141.5650595883
 33
0.0
  0
LINE
  5
169
330
164
100
AcDbEntity
  8
VERMASSUNG
100
AcDbLine
 10
162.7905825821
 20
114.7291440953
 30
0.0
 11
162.7905825821
 21
143.0150595883
 31
0.0
  0
LINE
  5
16A
330
164
100
AcDbEntity
  8
VERMASSUNG
100
AcDbLine
 10
209.2905825821
 20
118.980363112
 30
0.0
 11
209.2905825821
 21
143.0150595883
 31
0.0
  0
LINE
  5
16B
330
164
100
AcDbEntity
  8
VERMASSUNG
100
AcDbLine
 10
162.7905825821
 20
142.0150595883
 30
0.0
 11
209.2905825821
 21
142.0150595883
 31
0.0
  0
MTEXT
  5
16C
330
164
100
AcDbEntity
  8
VERMASSUNG
100
AcDbMText
 10
183.5411957998
 20
144.5931949514
 30
0.0
 40
2.0
 41
0.0
 71
     1
 72
     1
  1
46.5
  7
SLDTEXTSTYLE0
 73
     1
 44
1.0
  0
ENDBLK
  5
166
330
164
100
AcDbEntity
  8
0
100
AcDbBlockEnd
  0
BLOCK
  5
170
330
16F
100
AcDbEntity
  8
0
100
AcDbBlockBegin
  2
*D3
 70
     1
 10
0.0
 20
0.0
 30
0.0
  3
*D3
  1

  0
SOLID
  5
172
330
16F
100
AcDbEntity
  8
VERMASSUNG
100
AcDbTrace
 10
215.6356446371
 20
102.8291440953
 30
0.0
 11
216.0856446371
 21
105.8291440953
 31
0.0
 12
215.1856446371
 22
105.8291440953
 32
0.0
 13
215.1856446371
 23
105.8291440953
 33
0.0
  0
SOLID
  5
173
330
16F
100
AcDbEntity
  8
VERMASSUNG
100
AcDbTrace
 10
215.6356446371
 20
114.8291440953
 30
0.0
 11
215.1856446371
 21
111.8291440953
 31
0.0
 12
216.0856446371
 22
111.8291440953
 32
0.0
 13
216.0856446371
 23
111.8291440953
 33
0.0
  0
LINE
  5
174
330
16F
100
AcDbEntity
  8
VERMASSUNG
100
AcDbLine
 10
205.7905825821
 20
102.8291440953
 30
0.0
 11
216.6356446371
 21
102.8291440953
 31
0.0
  0
LINE
  5
175
330
16F
100
AcDbEntity
  8
VERMASSUNG
100
AcDbLine
 10
205.7905825821
 20
114.8291440953
 30
0.0
 11
216.6356446371
 21
114.8291440953
 31
0.0
  0
LINE
  5
176
330
16F
100
AcDbEntity
  8
VERMASSUNG
100
AcDbLine
 10
215.6356446371
 20
102.8291440953
 30
0.0
 11
215.6356446371
 21
114.8291440953
 31
0.0
  0
MTEXT
  5
177
330
16F
100
AcDbEntity
  8
VERMASSUNG
100
AcDbMText
 10
213.0575091575
 20
105.8250065005
 30
0.0
 40
2.0
 41
0.0
 71
     1
 72
     1
  1
%%c
  7
SLDTEXTSTYLE0
 11
6.123233995736766E-17
 21
1.0
 31
0.0
 73
     1
 44
1.0
  0
MTEXT
  5
178
330
16F
100
AcDbEntity
  8
VERMASSUNG
100
AcDbMText
 10
213.0575092739
 20
109.4336847237
 30
0.0
 40
2.0
 41
0.0
 71
     1
 72
     1
  1
12
  7
SLDTEXTSTYLE0
 11
6.123233995736766E-17
 21
1.0
 31
0.0
 73
     1
 44
1.0
  0
ENDBLK
  5
171
330
16F
100
AcDbEntity
  8
0
100
AcDbBlockEnd
  0
BLOCK
  5
17C
330
17B
100
AcDbEntity
  8
0
100
AcDbBlockBegin
  2
*D4
 70
     1
 10
0.0
 20
0.0
 30
0.0
  3
*D4
  1

  0
SOLID
  5
17E
330
17B
100
AcDbEntity
  8
VERMASSUNG
100
AcDbTrace
 10
221.6356446371
 20
96.8291440953
 30
0.0
 11
222.0856446371
 21
99.8291440953
 31
0.0
 12
221.1856446371
 22
99.8291440953
 32
0.0
 13
221.1856446371
 23
99.8291440953
 33
0.0
  0
SOLID
  5
17F
330
17B
100
AcDbEntity
  8
VERMASSUNG
100
AcDbTrace
 10
221.6356446371
 20
120.8291440953
 30
0.0
 11
221.1856446371
 21
117.8291440953
 31
0.0
 12
222.0856446371
 22
117.8291440953
 32
0.0
 13
222.0856446371
 23
117.8291440953
 33
0.0
  0
LINE
  5
180
330
17B
100
AcDbEntity
  8
VERMASSUNG
100
AcDbLine
 10
209.2905825821
 20
96.8291440953
 30
0.0
 11
222.6356446371
 21
96.8291440953
 31
0.0
  0
LINE
  5
181
330
17B
100
AcDbEntity
  8
VERMASSUNG
100
AcDbLine
 10
209.2905825821
 20
120.8291440953
 30
0.0
 11
222.6356446371
 21
120.8291440953
 31
0.0
  0
LINE
  5
182
330
17B
100
AcDbEntity
  8
VERMASSUNG
100
AcDbLine
 10
221.6356446371
 20
96.8291440953
 30
0.0
 11
221.6356446371
 21
120.8291440953
 31
0.0
  0
MTEXT
  5
183
330
17B
100
AcDbEntity
  8
VERMASSUNG
100
AcDbMText
 10
219.0575091575
 20
105.5256370531
 30
0.0
 40
2.0
 41
0.0
 71
     1
 72
     1
  1
%%c
  7
SLDTEXTSTYLE0
 11
6.123233995736766E-17
 21
1.0
 31
0.0
 73
     1
 44
1.0
  0
MTEXT
  5
184
330
17B
100
AcDbEntity
  8
VERMASSUNG
100
AcDbMText
 10
219.0575092739
 20
109.1343152763
 30
0.0
 40
2.0
 41
0.0
 71
     1
 72
     1
  1
24
  7
SLDTEXTSTYLE0
 11
6.123233995736766E-17
 21
1.0
 31
0.0
 73
     1
 44
1.0
  0
ENDBLK
  5
17D
330
17B
100
AcDbEntity
  8
0
100
AcDbBlockEnd
  0
BLOCK
  5
187
330
186
100
AcDbEntity
  8
0
100
AcDbBlockBegin
  2
*D5
 70
     1
 10
0.0
 20
0.0
 30
0.0
  3
*D5
  1

  0
SOLID
  5
189
330
186
100
AcDbEntity
  8
VERMASSUNG
100
AcDbTrace
 10
227.6356446371
 20
93.8291440953
 30
0.0
 11
228.0856446371
 21
96.8291440953
 31
0.0
 12
227.1856446371
 22
96.8291440953
 32
0.0
 13
227.1856446371
 23
96.8291440953
 33
0.0
  0
SOLID
  5
18A
330
186
100
AcDbEntity
  8
VERMASSUNG
100
AcDbTrace
 10
227.6356446371
 20
123.8291440953
 30
0.0
 11
227.1856446371
 21
120.8291440953
 31
0.0
 12
228.0856446371
 22
120.8291440953
 32
0.0
 13
228.0856446371
 23
120.8291440953
 33
0.0
  0
LINE
  5
18B
330
186
100
AcDbEntity
  8
VERMASSUNG
100
AcDbLine
 10
148.2405825821
 20
93.8291440953
 30
0.0
 11
228.6356446371
 21
93.8291440953
 31
0.0
  0
LINE
  5
18C
330
186
100
AcDbEntity
  8
VERMASSUNG
100
AcDbLine
 10
148.2405825821
 20
123.8291440953
 30
0.0
 11
228.6356446371
 21
123.8291440953
 31
0.0
  0
LINE
  5
18D
330
186
100
AcDbEntity
  8
VERMASSUNG
100
AcDbLine
 10
227.6356446371
 20
93.8291440953
 30
0.0
 11
227.6356446371
 21
123.8291440953
 31
0.0
  0
MTEXT
  5
18E
330
186
100
AcDbEntity
  8
VERMASSUNG
100
AcDbMText
 10
225.0575091575
 20
105.6254268689
 30
0.0
 40
2.0
 41
0.0
 71
     1
 72
     1
  1
%%c
  7
SLDTEXTSTYLE0
 11
6.123233995736766E-17
 21
1.0
 31
0.0
 73
     1
 44
1.0
  0
MTEXT
  5
18F
330
186
100
AcDbEntity
  8
VERMASSUNG
100
AcDbMText
 10
225.0575092739
 20
109.2341050921
 30
0.0
 40
2.0
 41
0.0
 71
     1
 72
     1
  1
30
  7
SLDTEXTSTYLE0
 11
6.123233995736766E-17
 21
1.0
 31
0.0
 73
     1
 44
1.0
  0
ENDBLK
  5
188
330
186
100
AcDbEntity
  8
0
100
AcDbBlockEnd
  0
BLOCK
  5
192
330
191
100
AcDbEntity
  8
0
100
AcDbBlockBegin
  2
*D6
 70
     1
 10
0.0
 20
0.0
 30
0.0
  3
*D6
  1

  0
SOLID
  5
194
330
191
100
AcDbEntity
  8
VERMASSUNG
100
AcDbTrace
 10
119.2905825821
 20
154.0150595883
 30
0.0
 11
122.2905825821
 21
153.5650595883
 31
0.0
 12
122.2905825821
 22
154.4650595883
 32
0.0
 13
122.2905825821
 23
154.4650595883
 33
0.0
  0
SOLID
  5
195
330
191
100
AcDbEntity
  8
VERMASSUNG
100
AcDbTrace
 10
209.2905825821
 20
154.0150595883
 30
0.0
 11
206.2905825821
 21
154.4650595883
 31
0.0
 12
206.2905825821
 22
153.5650595883
 32
0.0
 13
206.2905825821
 23
153.5650595883
 33
0.0
  0
LINE
  5
196
330
191
100
AcDbEntity
  8
VERMASSUNG
100
AcDbLine
 10
119.2905825821
 20
140.0291440953
 30
0.0
 11
119.2905825821
 21
155.0150595883
 31
0.0
  0
LINE
  5
197
330
191
100
AcDbEntity
  8
VERMASSUNG
100
AcDbLine
 10
209.2905825821
 20
118.980363112
 30
0.0
 11
209.2905825821
 21
155.0150595883
 31
0.0
  0
LINE
  5
198
330
191
100
AcDbEntity
  8
VERMASSUNG
100
AcDbLine
 10
119.2905825821
 20
154.0150595883
 30
0.0
 11
209.2905825821
 21
154.0150595883
 31
0.0
  0
MTEXT
  5
199
330
191
100
AcDbEntity
  8
VERMASSUNG
100
AcDbMText
 10
162.8912044672
 20
156.5931949514
 30
0.0
 40
2.0
 41
0.0
 71
     1
 72
     1
  1
90
  7
SLDTEXTSTYLE0
 73
     1
 44
1.0
  0
ENDBLK
  5
193
330
191
100
AcDbEntity
  8
0
100
AcDbBlockEnd
  0
BLOCK
  5
19C
330
19B
100
AcDbEntity
  8
0
100
AcDbBlockBegin
  2
*D7
 70
     1
 10
0.0
 20
0.0
 30
0.0
  3
*D7
  1

  0
SOLID
  5
19E
330
19B
100
AcDbEntity
  8
VERMASSUNG
100
AcDbTrace
 10
145.2405825821
 20
148.0150595883
 30
0.0
 11
148.2405825821
 21
147.5650595883
 31
0.0
 12
148.2405825821
 22
148.4650595883
 32
0.0
 13
148.2405825821
 23
148.4650595883
 33
0.0
  0
SOLID
  5
19F
330
19B
100
AcDbEntity
  8
VERMASSUNG
100
AcDbTrace
 10
209.2905825821
 20
148.0150595883
 30
0.0
 11
206.2905825821
 21
148.4650595883
 31
0.0
 12
206.2905825821
 22
147.5650595883
 32
0.0
 13
206.2905825821
 23
147.5650595883
 33
0.0
  0
LINE
  5
1A0
330
19B
100
AcDbEntity
  8
VERMASSUNG
100
AcDbLine
 10
145.2405825821
 20
138.6755844191
 30
0.0
 11
145.2405825821
 21
149.0150595883
 31
0.0
  0
LINE
  5
1A1
330
19B
100
AcDbEntity
  8
VERMASSUNG
100
AcDbLine
 10
209.2905825821
 20
118.980363112
 30
0.0
 11
209.2905825821
 21
149.0150595883
 31
0.0
  0
LINE
  5
1A2
330
19B
100
AcDbEntity
  8
VERMASSUNG
100
AcDbLine
 10
145.2405825821
 20
148.0150595883
 30
0.0
 11
209.2905825821
 21
148.0150595883
 31
0.0
  0
MTEXT
  5
1A3
330
19B
100
AcDbEntity
  8
VERMASSUNG
100
AcDbMText
 10
174.0665067424
 20
150.5931949514
 30
0.0
 40
2.0
 41
0.0
 71
     1
 72
     1
  1
64.05
  7
SLDTEXTSTYLE0
 73
     1
 44
1.0
  0
ENDBLK
  5
19D
330
19B
100
AcDbEntity
  8
0
100
AcDbBlockEnd
  0
BLOCK
  5
1A6
330
1A5
100
AcDbEntity
  8
0
100
AcDbBlockBegin
  2
*D8
 70
     1
 10
0.0
 20
0.0
 30
0.0
  3
*D8
  1

  0
SOLID
  5
1A8
330
1A5
100
AcDbEntity
  8
VERMASSUNG
100
AcDbTrace
 10
87.3905825821
 20
160.0150595883
 30
0.0
 11
90.3905825821
 21
159.5650595883
 31
0.0
 12
90.3905825821
 22
160.4650595883
 32
0.0
 13
90.3905825821
 23
160.4650595883
 33
0.0
  0
SOLID
  5
1A9
330
1A5
100
AcDbEntity
  8
VERMASSUNG
100
AcDbTrace
 10
209.2905825821
 20
160.0150595883
 30
0.0
 11
206.2905825821
 21
160.4650595883
 31
0.0
 12
206.2905825821
 22
159.5650595883
 32
0.0
 13
206.2905825821
 23
159.5650595883
 33
0.0
  0
LINE
  5
1AA
330
1A5
100
AcDbEntity
  8
VERMASSUNG
100
AcDbLine
 10
87.3905825821
 20
128.5198218418
 30
0.0
 11
87.3905825821
 21
161.0150595883
 31
0.0
  0
LINE
  5
1AB
330
1A5
100
AcDbEntity
  8
VERMASSUNG
100
AcDbLine
 10
209.2905825821
 20
118.980363112
 30
0.0
 11
209.2905825821
 21
161.0150595883
 31
0.0
  0
LINE
  5
1AC
330
1A5
100
AcDbEntity
  8
VERMASSUNG
100
AcDbLine
 10
87.3905825821
 20
160.0150595883
 30
0.0
 11
209.2905825821
 21
160.0150595883
 31
0.0
  0
MTEXT
  5
1AD
330
1A5
100
AcDbEntity
  8
VERMASSUNG
100
AcDbMText
 10
145.6416161682
 20
162.5931949514
 30
0.0
 40
2.0
 41
0.0
 71
     1
 72
     1
  1
121.9
  7
SLDTEXTSTYLE0
 73
     1
 44
1.0
  0
ENDBLK
  5
1A7
330
1A5
100
AcDbEntity
  8
0
100
AcDbBlockEnd
  0
ENDSEC
  0
SECTION
  2
ENTITIES
  0
MTEXT
  5
45
330
1F
100
AcDbEntity
  8
KOPF_DÜNN
100
AcDbMText
 10
13.8892156294
 20
23.8442973028
 30
0.0
 40
3.0
 41
0.0
 71
     1
 72
     1
  1
HA6.S12.K01.090
  7
SLDTEXTSTYLE0
 73
     1
 44
1.0
  0
MTEXT
  5
46
330
1F
100
AcDbEntity
  8
VERMASSUNG
100
AcDbMText
 10
13.9329988022
 20
28.8834360957
 30
0.0
 40
3.0
 41
0.0
 71
     1
 72
     1
  1
Schrumpffutter_Heat shrink chuck
  7
SLDTEXTSTYLE0
 73
     1
 44
1.0
  0
MTEXT
  5
47
330
1F
100
AcDbEntity
  8
VERMASSUNG
100
AcDbMText
 10
98.8601118557
 20
13.8365368179
 30
0.0
 40
2.0
 41
0.0
 71
     1
 72
     1
  1
Datum: 27.04.2011
  7
SLDTEXTSTYLE0
 73
     1
 44
1.0
  0
MTEXT
  5
49
330
1F
100
AcDbEntity
  8
VERMASSUNG
100
AcDbMText
 10
13.933048693
 20
18.0482802738
 30
0.0
 40
2.0
 41
0.0
 71
     1
 72
     1
  1
DIN 69 893 HSK A 63
  7
SLDTEXTSTYLE1
 73
     1
 44
1.0
  0
MTEXT
  5
4A
330
1F
100
AcDbEntity
  8
VERMASSUNG
100
AcDbMText
 10
13.9808475933
 20
13.9090973692
 30
0.0
 40
2.0
 41
0.0
 71
     1
 72
     1
  1
Gewicht: 908.45g
  7
SLDTEXTSTYLE0
 73
     1
 44
1.0
  0
ARC
  5
4B
330
1F
100
AcDbEntity
  8
0
  6
Continuous
 62
     7
370
    15
100
AcDbCircle
 10
119.5905825821
 20
77.6291440953
 30
0.0
 40
0.2999999999999972
100
AcDbArc
 50
180.0
 51
270.0
  0
ARC
  5
4C
330
1F
100
AcDbEntity
  8
0
  6
Continuous
 62
     7
370
    15
100
AcDbCircle
 10
119.5905825821
 20
140.0291440953
 30
0.0
 40
0.2999999999999972
100
AcDbArc
 50
90.0
 51
180.0
  0
LINE
  5
4D
330
1F
100
AcDbEntity
  8
0
  6
Continuous
 62
     7
370
    15
100
AcDbLine
 10
119.5905825821
 20
77.3291440953
 30
0.0
 11
124.2405825821
 21
77.3291440953
 31
0.0
  0
LINE
  5
4E
330
1F
100
AcDbEntity
  8
0
  6
Continuous
 62
     7
370
    15
100
AcDbLine
 10
124.2685709411
 20
140.3291440953
 30
0.0
 11
119.5905825821
 21
140.3291440953
 31
0.0
  0
ARC
  5
4F
330
1F
100
AcDbEntity
  8
0
  6
Continuous
 62
     7
370
    15
100
AcDbCircle
 10
118.7905758294
 20
84.258706481
 30
0.0
 40
0.6000067526677164
100
AcDbArc
 50
33.5571153394
 51
90.0
  0
ARC
  5
50
330
1F
100
AcDbEntity
  8
0
  6
Continuous
 62
     7
370
    15
100
AcDbCircle
 10
118.7905758294
 20
133.3995817097
 30
0.0
 40
0.6000067526677242
100
AcDbArc
 50
270.0
 51
326.4428846606
  0
LINE
  5
51
330
1F
100
AcDbEntity
  8
0
  6
Continuous
 62
     7
370
    15
100
AcDbLine
 10
106.0590737832
 20
132.4868741154
 30
0.0
 11
93.4905825821
 21
131.8571901875
 31
0.0
  0
LINE
  5
52
330
1F
100
AcDbEntity
  8
0
  6
Continuous
 62
     7
370
    15
100
AcDbLine
 10
117.2905825821
 20
133.0495749571
 30
0.0
 11
114.4735809247
 21
132.9084426095
 31
0.0
  0
LINE
  5
53
330
1F
100
AcDbEntity
  8
0
  6
Continuous
 62
     7
370
    15
100
AcDbLine
 10
114.4736370148
 20
84.7498427711
 30
0.0
 11
117.2905825821
 21
84.6087132336
 31
0.0
  0
LINE
  5
54
330
1F
100
AcDbEntity
  8
0
  6
Continuous
 62
     7
370
    15
100
AcDbLine
 10
97.4905825821
 20
85.6006972016
 30
0.0
 11
106.0594763019
 21
85.171393909
 31
0.0
  0
LINE
  5
55
330
1F
100
AcDbEntity
  8
0
  6
Continuous
 62
     7
370
    15
100
AcDbLine
 10
117.2905825821
 20
84.6087132336
 30
0.0
 11
118.1472953554
 21
84.8382687294
 31
0.0
  0
LINE
  5
56
330
1F
100
AcDbEntity
  8
0
  6
Continuous
 62
     7
370
    15
100
AcDbLine
 10
118.1472953554
 20
132.8200194613
 30
0.0
 11
117.2905825821
 21
133.0495749571
 31
0.0
  0
ARC
  5
57
330
1F
100
AcDbEntity
  8
0
  6
Continuous
 62
     7
370
    15
100
AcDbCircle
 10
118.3025867825
 20
84.2587132336
 30
0.0
 40
0.6000000000000085
100
AcDbArc
 50
90.0
 51
105.0
  0
ARC
  5
58
330
1F
100
AcDbEntity
  8
0
  6
Continuous
 62
     7
370
    15
100
AcDbCircle
 10
118.3025867825
 20
133.3995749571
 30
0.0
 40
0.5999999999999971
100
AcDbArc
 50
255.0
 51
270.0
  0
LINE
  5
59
330
1F
100
AcDbEntity
  8
0
  6
Continuous
 62
     7
370
    15
100
AcDbLine
 10
118.3025867825
 20
84.8587132336
 30
0.0
 11
118.7905758294
 21
84.8587132336
 31
0.0
  0
LINE
  5
5A
330
1F
100
AcDbEntity
  8
0
  6
Continuous
 62
     7
370
    15
100
AcDbLine
 10
118.7905758294
 20
132.7995749571
 30
0.0
 11
118.3025867825
 21
132.7995749571
 31
0.0
  0
ARC
  5
5B
330
1F
100
AcDbEntity
  8
0
  6
Continuous
 62
     7
370
    15
100
AcDbCircle
 10
148.2405825821
 20
90.8291440953
 30
0.0
 40
3.0
100
AcDbArc
 50
90.0
 51
180.0
  0
ARC
  5
5C
330
1F
100
AcDbEntity
  8
0
  6
Continuous
 62
     7
370
    15
100
AcDbCircle
 10
148.2405825821
 20
126.8291440953
 30
0.0
 40
3.0
100
AcDbArc
 50
180.0
 51
270.0
  0
LINE
  5
5D
330
1F
100
AcDbEntity
  8
0
  6
Continuous
 62
     7
370
    15
100
AcDbLine
 10
171.1719683735
 20
93.8291440953
 30
0.0
 11
207.4475007735
 21
96.6840904112
 31
0.0
  0
LINE
  5
5E
330
1F
100
AcDbEntity
  8
0
  6
Continuous
 62
     7
370
    15
100
AcDbLine
 10
207.4475007735
 20
120.9741977795
 30
0.0
 11
171.1719683735
 21
123.8291440953
 31
0.0
  0
LINE
  5
5F
330
1F
100
AcDbEntity
  8
0
  6
Continuous
 62
     7
370
    15
100
AcDbLine
 10
148.2405825821
 20
93.8291440953
 30
0.0
 11
171.1719683735
 21
93.8291440953
 31
0.0
  0
LINE
  5
60
330
1F
100
AcDbEntity
  8
0
  6
Continuous
 62
     7
370
    15
100
AcDbLine
 10
171.1719683735
 20
123.8291440953
 30
0.0
 11
148.2405825821
 21
123.8291440953
 31
0.0
  0
ARC
  5
61
330
1F
100
AcDbEntity
  8
0
  6
Continuous
 62
     7
370
    15
100
AcDbCircle
 10
207.2905825821
 20
98.6779250787
 30
0.0
 40
2.000000000000028
100
AcDbArc
 50
274.5
 51
0.0
  0
ARC
  5
62
330
1F
100
AcDbEntity
  8
0
  6
Continuous
 62
     7
370
    15
100
AcDbCircle
 10
207.2905825821
 20
118.980363112
 30
0.0
 40
2.000000000000028
100
AcDbArc
 50
0.0
 51
85.5
  0
LINE
  5
63
330
1F
100
AcDbEntity
  8
0
  6
Continuous
 62
     7
370
    15
100
AcDbLine
 10
88.6850017085
 20
87.9591440953
 30
0.0
 11
96.0905825821
 21
87.9591440953
 31
0.0
  0
ARC
  5
64
330
1F
100
AcDbEntity
  8
0
  6
Continuous
 62
     7
370
    15
100
AcDbCircle
 10
96.0905825821
 20
86.5591440953
 30
0.0
 40
1.399999999999995
100
AcDbArc
 50
42.2210104152
 51
90.0
  0
LINE
  5
65
330
1F
100
AcDbEntity
  8
0
  6
Continuous
 62
     7
370
    15
100
AcDbLine
 10
87.4017430172
 20
89.0979836602
 30
0.0
 11
88.5317460402
 21
87.9679806372
 31
0.0
  0
LINE
  5
66
330
1F
100
AcDbEntity
  8
0
  6
Continuous
 62
     7
370
    15
100
AcDbLine
 10
88.5317460402
 20
129.6903075535
 30
0.0
 11
87.4004833554
 21
128.5590448687
 31
0.0
  0
ARC
  5
67
330
1F
100
AcDbEntity
  8
0
  6
Continuous
 62
     7
370
    15
100
AcDbCircle
 10
92.0905825821
 20
131.0991440953
 30
0.0
 40
1.400000000000034
100
AcDbArc
 50
270.0
 51
301.7485287426
  0
LINE
  5
68
330
1F
100
AcDbEntity
  8
0
  6
Continuous
 62
     7
370
    15
100
AcDbLine
 10
92.0905825821
 20
129.6991440953
 30
0.0
 11
88.6648483159
 21
129.6991440953
 31
0.0
  0
LINE
  5
69
330
1F
100
AcDbEntity
  8
0
  6
Continuous
 62
     7
370
    15
100
AcDbLine
 10
140.6825154135
 20
78.6422263991
 30
0.0
 11
140.6825154135
 21
128.6791440953
 31
0.0
  0
SPLINE
  5
6A
330
1F
100
AcDbEntity
  8
0
  6
Continuous
 62
     7
370
    15
100
AcDbSpline
210
0.0
220
0.0
230
1.0
 70
     8
 71
     3
 72
     8
 73
     4
 74
     0
 42
0.00000001
 43
0.00000001
 40
0.0
 40
0.0
 40
0.0
 40
0.0
 40
1.0
 40
1.0
 40
1.0
 40
1.0
 10
140.6825154135481
 20
78.64222639909426
 30
0.0
 10
140.1870357528824
 20
79.53775248702762
 30
0.0
 10
139.6929217048403
 20
80.43403690207987
 30
0.0
 10
139.2005825820591
 20
81.33130693628657
 30
0.0
  0
LINE
  5
6B
330
1F
100
AcDbEntity
  8
0
  6
Continuous
 62
     7
370
    15
100
AcDbLine
 10
139.2005825821
 20
81.3313069363
 30
0.0
 11
139.2005825821
 21
128.6791440953
 31
0.0
  0
SPLINE
  5
6C
330
1F
100
AcDbEntity
  8
0
  6
Continuous
 62
     7
370
    15
100
AcDbSpline
210
0.0
220
0.0
230
1.0
 70
    24
 71
     3
 72
     8
 73
     4
 74
     0
 42
0.00000001
 43
0.00000001
 40
0.0
 40
0.0
 40
0.0
 40
0.0
 40
1.0
 40
1.0
 40
1.0
 40
1.0
 10
139.2005825820591
 20
128.6791440953414
 30
0.0
 10
139.680534576424
 20
128.6791440953414
 30
0.0
 10
140.1758353053976
 20
128.6791440953414
 30
0.0
 10
140.6825154135482
 20
128.6791440953414
 30
0.0
  0
LINE
  5
6D
330
1F
100
AcDbEntity
  8
0
  6
Continuous
 62
     7
370
    15
100
AcDbLine
 10
119.2905825821
 20
77.6291440953
 30
0.0
 11
119.2905825821
 21
140.0291440953
 31
0.0
  0
LINE
  5
6E
330
1F
100
AcDbEntity
  8
0
  6
Continuous
 62
     7
370
    15
100
AcDbLine
 10
144.6405825821
 20
78.6422263991
 30
0.0
 11
140.6825154135
 21
78.6422263991
 31
0.0
  0
LINE
  5
6F
330
1F
100
AcDbEntity
  8
0
  6
Continuous
 62
     7
370
    15
100
AcDbLine
 10
140.6825154135
 20
128.6791440953
 30
0.0
 11
144.6405825821
 21
128.6791440953
 31
0.0
  0
LINE
  5
70
330
1F
100
AcDbEntity
  8
0
  6
Continuous
 62
     7
370
    15
100
AcDbLine
 10
145.2405825821
 20
79.2688666947
 30
0.0
 11
145.2405825821
 21
128.6791440953
 31
0.0
  0
SPLINE
  5
71
330
1F
100
AcDbEntity
  8
0
  6
Continuous
 62
     7
370
    15
100
AcDbSpline
210
0.0
220
0.0
230
1.0
 70
     8
 71
     3
 72
    10
 73
     6
 74
     0
 42
0.00000001
 43
0.00000001
 40
0.0
 40
0.0
 40
0.0
 40
0.0
 40
0.5
 40
0.5
 40
1.0
 40
1.0
 40
1.0
 40
1.0
 10
145.2405825820591
 20
79.26886669474857
 30
0.0
 10
145.2405825820591
 20
79.10897942655491
 30
0.0
 10
145.1792729308233
 20
78.94785217104031
 30
0.0
 10
144.9601732932882
 20
78.71375317268547
 30
0.0
 10
144.8021250869747
 20
78.64222639909426
 30
0.0
 10
144.6405825820591
 20
78.64222639909426
 30
0.0
  0
SPLINE
  5
72
330
1F
100
AcDbEntity
  8
0
  6
Continuous
 62
     7
370
    15
100
AcDbSpline
210
0.0
220
0.0
230
1.0
 70
    24
 71
     3
 72
    12
 73
     8
 74
     0
 42
0.00000001
 43
0.00000001
 40
0.0
 40
0.0
 40
0.0
 40
0.0
 40
0.2500000000000033
 40
0.2500000000000033
 40
0.5000000000000067
 40
0.5000000000000067
 40
1.0
 40
1.0
 40
1.0
 40
1.0
 10
144.6405825820591
 20
128.6791440953414
 30
0.0
 10
144.7308216497461
 20
128.6791440953414
 30
0.0
 10
144.8217197638526
 20
128.6791440953414
 30
0.0
 10
144.9763168003412
 20
128.6791440953414
 30
0.0
 10
145.0412952164493
 20
128.6791440953414
 30
0.0
 10
145.1931302443855
 20
128.6791440953414
 30
0.0
 10
145.2405825820591
 20
128.6791440953414
 30
0.0
 10
145.2405825820591
 20
128.6791440953414
 30
0.0
  0
LINE
  5
73
330
1F
100
AcDbEntity
  8
0
  6
Continuous
 62
     7
370
    15
100
AcDbLine
 10
124.2405825821
 20
128.6791440953
 30
0.0
 11
133.8986497506
 21
128.6791440953
 31
0.0
  0
LINE
  5
74
330
1F
100
AcDbEntity
  8
0
  6
Continuous
 62
     7
370
    15
100
AcDbLine
 10
133.8986497506
 20
78.6422263991
 30
0.0
 11
133.8986497506
 21
128.6791440953
 31
0.0
  0
LINE
  5
75
330
1F
100
AcDbEntity
  8
0
  6
Continuous
 62
     7
370
    15
100
AcDbLine
 10
133.8986497506
 20
78.6422263991
 30
0.0
 11
132.2405825821
 21
78.6422263991
 31
0.0
  0
SPLINE
  5
76
330
1F
100
AcDbEntity
  8
0
  6
Continuous
 62
     7
370
    15
100
AcDbSpline
210
0.0
220
0.0
230
1.0
 70
     8
 71
     3
 72
    28
 73
    24
 74
     0
 42
0.00000001
 43
0.00000001
 40
0.0
 40
0.0
 40
0.0
 40
0.0
 40
0.1250000000000001
 40
0.1250000000000001
 40
0.1875000000000001
 40
0.1875000000000001
 40
0.2500000000000001
 40
0.2500000000000001
 40
0.3749999999999999
 40
0.3749999999999999
 40
0.4375
 40
0.4375
 40
0.4999999999999999
 40
0.4999999999999999
 40
0.6249999999999999
 40
0.6249999999999999
 40
0.7499999999999997
 40
0.7499999999999997
 40
0.8124999999999998
 40
0.8124999999999998
 40
0.8749999999999998
 40
0.8749999999999998
 40
1.0
 40
1.0
 40
1.0
 40
1.0
 10
132.2405825820591
 20
78.64222639909426
 30
0.0
 10
131.7088748245662
 20
78.64222639909427
 30
0.0
 10
131.1866362592558
 20
78.62644168514404
 30
0.0
 10
130.4167657729808
 20
78.58144627106783
 30
0.0
 10
130.1624062007895
 20
78.56289127599211
 30
0.0
 10
129.658284620091
 20
78.5190385535456
 30
0.0
 10
129.4085618026631
 20
78.49369394659341
 30
0.0
 10
128.6829718512166
 20
78.4102918688433
 30
0.0
 10
128.2246115896351
 20
78.34442630969221
 30
0.0
 10
127.5741136462412
 20
78.23545596920043
 30
0.0
 10
127.3624315954488
 20
78.19721633343377
 30
0.0
 10
126.9583601063108
 20
78.11945759601441
 30
0.0
 10
126.7658535924899
 20
78.07995663383907
 30
0.0
 10
126.2160186214686
 20
77.96104889147307
 30
0.0
 10
125.8860898431598
 20
77.88123121004845
 30
0.0
 10
125.3016185745911
 20
77.7278880482524
 30
0.0
 10
125.0553414365777
 20
77.65655429498314
 30
0.0
 10
124.7554986438796
 20
77.56261078790853
 30
0.0
 10
124.6670417868074
 20
77.53341699454859
 30
0.0
 10
124.5136804335023
 20
77.47995042028519
 30
0.0
 10
124.4485922192761
 20
77.45559108600999
 30
0.0
 10
124.2929982033353
 20
77.39200094056525
 30
0.0
 10
124.2405825820591
 20
77.36189800547601
 30
0.0
 10
124.2405825820591
 20
77.34502111247909
 30
0.0
  0
LINE
  5
77
330
1F
100
AcDbEntity
  8
0
  6
Continuous
 62
     7
370
    15
100
AcDbLine
 10
124.2405825821
 20
77.3450211125
 30
0.0
 11
124.2405825821
 21
77.3291440953
 31
0.0
  0
SPLINE
  5
78
330
1F
100
AcDbEntity
  8
0
  6
Continuous
 62
     7
370
    15
100
AcDbSpline
210
0.0
220
0.0
230
1.0
 70
     8
 71
     3
 72
    17
 73
    13
 74
     0
 42
0.00000001
 43
0.00000001
 40
0.0
 40
0.0
 40
0.0
 40
0.0
 40
0.1034796923964056
 40
0.210023918880785
 40
0.3134862136955583
 40
0.4198361274354882
 40
0.5254127712915682
 40
0.633961069541979
 40
0.7409508756305031
 40
0.8511696089308174
 40
0.9558996534551937
 40
1.0
 40
1.0
 40
1.0
 40
1.0
 10
132.2405825820591
 20
139.2963395685057
 30
0.0
 10
131.8053342329491
 20
139.301787765039
 30
0.0
 10
130.9219477263841
 20
139.3128455055508
 30
0.0
 10
129.6411201411554
 20
139.3992038984524
 30
0.0
 10
128.4237036052814
 20
139.5270740749902
 30
0.0
 10
127.3158977530348
 20
139.6860193735833
 30
0.0
 10
126.3276589490866
 20
139.8605130612989
 30
0.0
 10
125.5029353915551
 20
140.0296789119387
 30
0.0
 10
124.8539818908958
 20
140.1775626944671
 30
0.0
 10
124.436947075434
 20
140.2793532786979
 30
0.0
 10
124.2383503624695
 20
140.3297048013011
 30
0.0
 10
124.2616630839028
 20
140.3237991170787
 30
0.0
 10
124.2685709411403
 20
140.3220491873841
 30
0.0
  0
LINE
  5
79
330
1F
100
AcDbEntity
  8
0
  6
Continuous
 62
     7
370
    15
100
AcDbLine
 10
133.8986497506
 20
139.2963395685
 30
0.0
 11
132.2405825821
 21
139.2963395685
 31
0.0
  0
LINE
  5
7A
330
1F
100
AcDbEntity
  8
0
  6
Continuous
 62
     7
370
    15
100
AcDbLine
 10
133.8986497506
 20
133.2878337577
 30
0.0
 11
133.8986497506
 21
139.2963395685
 31
0.0
  0
LINE
  5
7B
330
1F
100
AcDbEntity
  8
0
  6
Continuous
 62
     7
370
    15
100
AcDbLine
 10
131.4862029277
 20
133.2878337577
 30
0.0
 11
133.8986497506
 21
133.2878337577
 31
0.0
  0
SPLINE
  5
7C
330
1F
100
AcDbEntity
  8
0
  6
Continuous
 62
     7
370
    15
100
AcDbSpline
210
0.0
220
0.0
230
1.0
 70
     8
 71
     3
 72
    20
 73
    16
 74
     0
 42
0.00000001
 43
0.00000001
 40
0.0
 40
0.0
 40
0.0
 40
0.0
 40
0.2499999999999997
 40
0.2499999999999997
 40
0.3749999999999997
 40
0.3749999999999997
 40
0.4999999999999998
 40
0.4999999999999998
 40
0.6249999999999998
 40
0.6249999999999998
 40
0.7499999999999999
 40
0.7499999999999999
 40
0.8749999999999999
 40
0.8749999999999999
 40
1.0
 40
1.0
 40
1.0
 40
1.0
 10
124.2405825820591
 20
128.6791440953414
 30
0.0
 10
124.4889563163472
 20
129.3330065236388
 30
0.0
 10
124.8085264086924
 20
129.936792305636
 30
0.0
 10
125.4308326418971
 20
130.7636310418046
 30
0.0
 10
125.6622569023279
 20
131.0260596797575
 30
0.0
 10
126.1834712419776
 20
131.5227223338624
 30
0.0
 10
126.4700917246127
 20
131.753309212884
 30
0.0
 10
127.0895764659203
 20
132.1698634374666
 30
0.0
 10
127.4238768454072
 20
132.3573612394341
 30
0.0
 10
128.149137318032
 20
132.6887582170706
 30
0.0
 10
128.5310523754225
 20
132.8282622045658
 30
0.0
 10
129.3258405515942
 20
133.0537157120368
 30
0.0
 10
129.7399987458006
 20
133.1403418235804
 30
0.0
 10
130.6055450863819
 20
133.2583226124345
 30
0.0
 10
131.0434327013937
 20
133.2878337577089
 30
0.0
 10
131.4862029277484
 20
133.2878337577089
 30
0.0
  0
SPLINE
  5
7D
330
1F
100
AcDbEntity
  8
0
  6
Continuous
 62
     7
370
    15
100
AcDbSpline
210
0.0
220
0.0
230
1.0
 70
     8
 71
     3
 72
    70
 73
    66
 74
     0
 42
0.00000001
 43
0.00000001
 40
-0.0312500000000002
 40
-0.0312500000000002
 40
0.0
 40
0.0
 40
0.0312499999999995
 40
0.0312499999999995
 40
0.0624999999999991
 40
0.0624999999999991
 40
0.0937499999999988
 40
0.0937499999999988
 40
0.1249999999999985
 40
0.1249999999999985
 40
0.1562499999999982
 40
0.1562499999999982
 40
0.1874999999999979
 40
0.1874999999999979
 40
0.2187499999999976
 40
0.2187499999999976
 40
0.2499999999999973
 40
0.2499999999999973
 40
0.2812499999999973
 40
0.2812499999999973
 40
0.3124999999999972
 40
0.3124999999999972
 40
0.3437499999999971
 40
0.3437499999999971
 40
0.3749999999999971
 40
0.3749999999999971
 40
0.406249999999997
 40
0.406249999999997
 40
0.4374999999999969
 40
0.4374999999999969
 40
0.4687499999999968
 40
0.4687499999999968
 40
0.4999999999999968
 40
0.4999999999999968
 40
0.5312499999999969
 40
0.5312499999999969
 40
0.562499999999997
 40
0.562499999999997
 40
0.5937499999999971
 40
0.5937499999999971
 40
0.6249999999999971
 40
0.6249999999999971
 40
0.6562499999999972
 40
0.6562499999999972
 40
0.6874999999999973
 40
0.6874999999999973
 40
0.7187499999999974
 40
0.7187499999999974
 40
0.7499999999999976
 40
0.7499999999999976
 40
0.7812499999999979
 40
0.7812499999999979
 40
0.8124999999999982
 40
0.8124999999999982
 40
0.8437499999999986
 40
0.8437499999999986
 40
0.8749999999999988
 40
0.8749999999999988
 40
0.9062499999999991
 40
0.9062499999999991
 40
0.9374999999999994
 40
0.9374999999999994
 40
0.9687499999999998
 40
0.9687499999999998
 40
1.0
 40
1.0
 40
1.03125
 40
1.03125
 10
123.2905825820591
 20
122.8941335304171
 30
0.0
 10
123.2905825820591
 20
123.365556143857
 30
0.0
 10
123.316567657443
 20
123.5957697037732
 30
0.0
 10
123.4183325600271
 20
124.0458324918353
 30
0.0
 10
123.4953669458331
 20
124.2679934323264
 30
0.0
 10
123.6962332332702
 20
124.6887776497988
 30
0.0
 10
123.8191122818616
 20
124.8870449474431
 30
0.0
 10
124.1093769439253
 20
125.2603318359096
 30
0.0
 10
124.2781505197772
 20
125.4358428814247
 30
0.0
 10
124.6467885410636
 20
125.7491422317275
 30
0.0
 10
124.847981589016
 20
125.8890745222702
 30
0.0
 10
125.2851191142702
 20
126.1355312812617
 30
0.0
 10
125.5175337818936
 20
126.2396616192117
 30
0.0
 10
125.9987180040059
 20
126.4067835978959
 30
0.0
 10
126.2510530099639
 20
126.4709953646559
 30
0.0
 10
126.7674978756517
 20
126.5567803111888
 30
0.0
 10
127.027203123704
 20
126.5779816177846
 30
0.0
 10
127.5495101808571
 20
126.5782237001899
 30
0.0
 10
127.8148164961711
 20
126.5565626583426
 30
0.0
 10
128.3280225863004
 20
126.4713691686207
 30
0.0
 10
128.5774900246121
 20
126.4082929528584
 30
0.0
 10
129.0620926341039
 20
126.240405547314
 30
0.0
 10
129.2959622928884
 20
126.1354094453663
 30
0.0
 10
129.7291046141437
 20
125.8915416680966
 30
0.0
 10
129.9312815299095
 20
125.7516833314069
 30
0.0
 10
130.3045563222192
 20
125.4346216324635
 30
0.0
 10
130.469878616369
 20
125.2623785697439
 30
0.0
 10
130.7595936037043
 20
124.8906105677319
 30
0.0
 10
130.8849968693349
 20
124.6886572722474
 30
0.0
 10
131.0858123173469
 20
124.2679482321112
 30
0.0
 10
131.1615968744528
 20
124.0500464858149
 30
0.0
 10
131.2642065931851
 20
123.598729930572
 30
0.0
 10
131.2904841260433
 20
123.3638806789933
 30
0.0
 10
131.2906804728647
 20
122.8984884140452
 30
0.0
 10
131.2654472266471
 20
122.6655765822523
 30
0.0
 10
131.1630467407299
 20
122.1994765119418
 30
0.0
 10
131.0863584436707
 20
121.970323892266
 30
0.0
 10
130.8871423333543
 20
121.5306539801702
 30
0.0
 10
130.7630356993498
 20
121.3167665595061
 30
0.0
 10
130.4711593513482
 20
120.9132838373625
 30
0.0
 10
130.3058870471664
 20
120.7264108799849
 30
0.0
 10
129.9375039439827
 20
120.3824628565589
 30
0.0
 10
129.7319940373551
 20
120.2242307449265
 30
0.0
 10
129.2978896934229
 20
119.9514413957097
 30
0.0
 10
129.0684044057955
 20
119.8354023257903
 30
0.0
 10
128.584191728435
 20
119.6452217701905
 30
0.0
 10
128.330198402663
 20
119.5720732491376
 30
0.0
 10
127.8188202665368
 20
119.4751869610888
 30
0.0
 10
127.5586902424697
 20
119.4502788136765
 30
0.0
 10
127.0296860285778
 20
119.4498262336389
 30
0.0
 10
126.7695982977907
 20
119.4742732416786
 30
0.0
 10
126.2578807750819
 20
119.5703153719934
 30
0.0
 10
126.0035696573487
 20
119.6431060329845
 30
0.0
 10
125.5191918113832
 20
119.8324140488687
 30
0.0
 10
125.2894270546204
 20
119.948082356725
 30
0.0
 10
124.8544649977472
 20
120.2204106723928
 30
0.0
 10
124.6487887356174
 20
120.3782653663401
 30
0.0
 10
124.2799458904914
 20
120.721478282633
 30
0.0
 10
124.1142621728371
 20
120.9081274192119
 30
0.0
 10
123.8213607558369
 20
121.3115906166233
 30
0.0
 10
123.6971500239112
 20
121.5248528759787
 30
0.0
 10
123.4971414719895
 20
121.9641001995473
 30
0.0
 10
123.4200039224032
 20
122.1930412026165
 30
0.0
 10
123.3165708921324
 20
122.6596035146343
 30
0.0
 10
123.2905825820591
 20
122.8941335304171
 30
0.0
 10
123.2905825820591
 20
123.365556143857
 30
0.0
  0
SPLINE
  5
7E
330
1F
100
AcDbEntity
  8
0
  6
Continuous
 62
     7
370
    15
100
AcDbSpline
210
0.0
220
0.0
230
1.0
 70
     8
 71
     3
 72
    70
 73
    66
 74
     0
 42
0.00000001
 43
0.00000001
 40
-0.0312499999999998
 40
-0.0312499999999998
 40
0.0
 40
0.0
 40
0.0312500000000001
 40
0.0312500000000001
 40
0.0625000000000001
 40
0.0625000000000001
 40
0.0937500000000002
 40
0.0937500000000002
 40
0.1250000000000002
 40
0.1250000000000002
 40
0.1562500000000003
 40
0.1562500000000003
 40
0.1875000000000003
 40
0.1875000000000003
 40
0.2187500000000004
 40
0.2187500000000004
 40
0.2500000000000004
 40
0.2500000000000004
 40
0.2812500000000007
 40
0.2812500000000007
 40
0.312500000000001
 40
0.312500000000001
 40
0.3437500000000013
 40
0.3437500000000013
 40
0.3750000000000016
 40
0.3750000000000016
 40
0.4062500000000018
 40
0.4062500000000018
 40
0.4375000000000021
 40
0.4375000000000021
 40
0.4687500000000024
 40
0.4687500000000024
 40
0.5000000000000027
 40
0.5000000000000027
 40
0.5312500000000027
 40
0.5312500000000027
 40
0.5625000000000026
 40
0.5625000000000026
 40
0.5937500000000026
 40
0.5937500000000026
 40
0.6250000000000024
 40
0.6250000000000024
 40
0.6562500000000024
 40
0.6562500000000024
 40
0.6875000000000023
 40
0.6875000000000023
 40
0.7187500000000023
 40
0.7187500000000023
 40
0.7500000000000022
 40
0.7500000000000022
 40
0.781250000000002
 40
0.781250000000002
 40
0.8125000000000017
 40
0.8125000000000017
 40
0.8437500000000013
 40
0.8437500000000013
 40
0.8750000000000011
 40
0.8750000000000011
 40
0.9062500000000008
 40
0.9062500000000008
 40
0.9375000000000006
 40
0.9375000000000006
 40
0.9687500000000002
 40
0.9687500000000002
 40
1.0
 40
1.0
 40
1.03125
 40
1.03125
 10
123.2905825820591
 20
135.9766718225318
 30
0.0
 10
123.2905825820591
 20
136.2412168065707
 30
0.0
 10
123.316567657443
 20
136.3683689007256
 30
0.0
 10
123.4183325600271
 20
136.6131778964634
 30
0.0
 10
123.4953669458331
 20
136.7320398955365
 30
0.0
 10
123.6962332332702
 20
136.953749721882
 30
0.0
 10
123.8191122818616
 20
137.0564650608074
 30
0.0
 10
124.1093769439253
 20
137.2471570813853
 30
0.0
 10
124.2781505197772
 20
137.3353467786962
 30
0.0
 10
124.6467885410636
 20
137.4908458947933
 30
0.0
 10
124.847981589016
 20
137.5592585522574
 30
0.0
 10
125.2851191142702
 20
137.6785891716025
 30
0.0
 10
125.5175337818936
 20
137.7283488637848
 30
0.0
 10
125.9987180040059
 20
137.8077228408575
 30
0.0
 10
126.2510530099639
 20
137.8379185250974
 30
0.0
 10
126.7674978756517
 20
137.8781664129403
 30
0.0
 10
127.027203123704
 20
137.888050697723
 30
0.0
 10
127.5495101808571
 20
137.8881638005051
 30
0.0
 10
127.8148164961711
 20
137.8780641947738
 30
0.0
 10
128.3280225863004
 20
137.8380940047975
 30
0.0
 10
128.5774900246121
 20
137.8084368410262
 30
0.0
 10
129.0620926341039
 20
137.7287050140657
 30
0.0
 10
129.2959622928884
 20
137.6785259607526
 30
0.0
 10
129.7291046141437
 20
137.5604572861664
 30
0.0
 10
129.9312815299095
 20
137.4921041257657
 30
0.0
 10
130.3045563222192
 20
137.3347436136613
 30
0.0
 10
130.469878616369
 20
137.248188196593
 30
0.0
 10
130.7595936037043
 20
137.0583007763491
 30
0.0
 10
130.8849968693349
 20
136.9536867558977
 30
0.0
 10
131.0858123173469
 20
136.7320156189564
 30
0.0
 10
131.1615968744528
 20
136.6154493344115
 30
0.0
 10
131.2642065931851
 20
136.3699995107394
 30
0.0
 10
131.2904841260433
 20
136.2402689552621
 30
0.0
 10
131.2906804728647
 20
135.9791232209588
 30
0.0
 10
131.2654472266471
 20
135.8464440589259
 30
0.0
 10
131.1630467407299
 20
135.5770868056108
 30
0.0
 10
131.0863584436707
 20
135.4427153672642
 30
0.0
 10
130.8871423333543
 20
135.1816832373601
 30
0.0
 10
130.7630356993498
 20
135.0530206000663
 30
0.0
 10
130.4711593513482
 20
134.8077128787282
 30
0.0
 10
130.3058870471664
 20
134.6927562709987
 30
0.0
 10
129.9375039439827
 20
134.4794250913137
 30
0.0
 10
129.7319940373551
 20
134.3803069037777
 30
0.0
 10
129.2978896934229
 20
134.2083846415066
 30
0.0
 10
129.0684044057956
 20
134.1346731527189
 30
0.0
 10
128.584191728435
 20
134.0134206813923
 30
0.0
 10
128.3301984026631
 20
133.9665123507083
 30
0.0
 10
127.8188202665368
 20
133.9043031173334
 30
0.0
 10
127.5586902424697
 20
133.8882541256811
 30
0.0
 10
127.0296860285778
 20
133.887962839887
 30
0.0
 10
126.7695982977907
 20
133.9037150805336
 30
0.0
 10
126.257880775082
 20
133.9653849583312
 30
0.0
 10
126.0035696573487
 20
134.0120666341713
 30
0.0
 10
125.5191918113832
 20
134.1327729226286
 30
0.0
 10
125.2894270546204
 20
134.20625713707
 30
0.0
 10
124.8544649977472
 20
134.3779095845937
 30
0.0
 10
124.6487887356174
 20
134.4768044648912
 30
0.0
 10
124.2799458904914
 20
134.68971357851
 30
0.0
 10
124.1142621728371
 20
134.8045545281941
 30
0.0
 10
123.8213607558369
 20
135.0498965343539
 30
0.0
 10
123.6971500239112
 20
135.1782086140354
 30
0.0
 10
123.4971414719895
 20
135.4390500419418
 30
0.0
 10
123.4200039224032
 20
135.573333314024
 30
0.0
 10
123.3165708921324
 20
135.8430258951647
 30
0.0
 10
123.2905825820591
 20
135.9766718225318
 30
0.0
 10
123.2905825820591
 20
136.2412168065707
 30
0.0
  0
LINE
  5
7F
330
1F
100
AcDbEntity
  8
0
  6
Continuous
 62
     7
370
    15
100
AcDbLine
 10
135.3805825821
 20
81.3313069363
 30
0.0
 11
135.3805825821
 21
128.6791440953
 31
0.0
  0
SPLINE
  5
80
330
1F
100
AcDbEntity
  8
0
  6
Continuous
 62
     7
370
    15
100
AcDbSpline
210
0.0
220
0.0
230
1.0
 70
     8
 71
     3
 72
     8
 73
     4
 74
     0
 42
0.00000001
 43
0.00000001
 40
0.0
 40
0.0
 40
0.0
 40
0.0
 40
1.0
 40
1.0
 40
1.0
 40
1.0
 10
135.3805825820591
 20
81.33130693628655
 30
0.0
 10
134.8882434592779
 20
80.43403690207985
 30
0.0
 10
134.3941294112358
 20
79.5377524870276
 30
0.0
 10
133.89864975057
 20
78.64222639909426
 30
0.0
  0
SPLINE
  5
81
330
1F
100
AcDbEntity
  8
0
  6
Continuous
 62
     7
370
    15
100
AcDbSpline
210
0.0
220
0.0
230
1.0
 70
    24
 71
     3
 72
     8
 73
     4
 74
     0
 42
0.00000001
 43
0.00000001
 40
0.0
 40
0.0
 40
0.0
 40
0.0
 40
1.0
 40
1.0
 40
1.0
 40
1.0
 10
133.89864975057
 20
128.6791440953414
 30
0.0
 10
134.4053298587206
 20
128.6791440953414
 30
0.0
 10
134.9006305876942
 20
128.6791440953414
 30
0.0
 10
135.3805825820591
 20
128.6791440953414
 30
0.0
  0
ARC
  5
82
330
1F
100
AcDbEntity
  8
0
  6
Continuous
 62
     7
370
    15
100
AcDbCircle
 10
127.461132444
 20
120.8934203537
 30
0.0
 40
3.897423869608943
100
AcDbArc
 50
17.8340523279
 51
92.5080435124
  0
ARC
  5
83
330
1F
100
AcDbEntity
  8
0
  6
Continuous
 62
     7
370
    15
100
AcDbCircle
 10
127.166865694
 20
120.8243624332
 30
0.0
 40
3.96467915018641
100
AcDbArc
 50
88.2118082806
 51
161.0804191551
  0
SPLINE
  5
84
330
1F
100
AcDbEntity
  8
0
  6
Continuous
 62
     7
370
    15
100
AcDbSpline
210
0.0
220
0.0
230
1.0
 70
    24
 71
     3
 72
    14
 73
    10
 74
     0
 42
0.00000001
 43
0.00000001
 40
0.0
 40
0.0
 40
0.0
 40
0.0
 40
0.5000000000000013
 40
0.5000000000000013
 40
0.750000000000002
 40
0.750000000000002
 40
0.875000000000001
 40
0.875000000000001
 40
1.0
 40
1.0
 40
1.0
 40
1.0
 10
139.1029077797268
 20
82.42914409534141
 30
0.0
 10
139.0561230746786
 20
82.42914409534141
 30
0.0
 10
138.994071877899
 20
82.42914409534143
 30
0.0
 10
138.8506802393484
 20
82.42914409534141
 30
0.0
 10
138.7945365857972
 20
82.42914409534141
 30
0.0
 10
138.681585563661
 20
82.42914409534141
 30
0.0
 10
138.6385848016229
 20
82.42914409534141
 30
0.0
 10
138.5345220913164
 20
82.42914409534141
 30
0.0
 10
138.4691898529595
 20
82.42914409534143
 30
0.0
 10
138.4005825820591
 20
82.42914409534141
 30
0.0
  0
SPLINE
  5
85
330
1F
100
AcDbEntity
  8
0
  6
Continuous
 62
     7
370
    15
100
AcDbSpline
210
0.0
220
0.0
230
1.0
 70
    24
 71
     3
 72
    12
 73
     8
 74
     0
 42
0.00000001
 43
0.00000001
 40
0.0
 40
0.0
 40
0.0
 40
0.0
 40
0.5000000000000017
 40
0.5000000000000017
 40
0.7500000000000008
 40
0.7500000000000008
 40
1.0
 40
1.0
 40
1.0
 40
1.0
 10
138.8062850503681
 20
135.2291440953414
 30
0.0
 10
138.7631995007572
 20
135.2291440953414
 30
0.0
 10
138.7140472990079
 20
135.2291440953414
 30
0.0
 10
138.6175747047199
 20
135.2291440953414
 30
0.0
 10
138.5814731195854
 20
135.2291440953414
 30
0.0
 10
138.4983673617241
 20
135.2291440953414
 30
0.0
 10
138.4503707647578
 20
135.2291440953414
 30
0.0
 10
138.4005825820591
 20
135.2291440953414
 30
0.0
  0
SPLINE
  5
86
330
1F
100
AcDbEntity
  8
0
  6
Continuous
 62
     7
370
    15
100
AcDbSpline
210
0.0
220
0.0
230
1.0
 70
     8
 71
     3
 72
    10
 73
     6
 74
     0
 42
0.00000001
 43
0.00000001
 40
0.0
 40
0.0
 40
0.0
 40
0.0
 40
0.5
 40
0.5
 40
1.0
 40
1.0
 40
1.0
 40
1.0
 10
139.2005825820591
 20
135.9487979463772
 30
0.0
 10
139.2005825820591
 20
135.8050278885592
 30
0.0
 10
139.1645335233402
 20
135.662608526064
 30
0.0
 10
139.0290246625662
 20
135.4127142327068
 30
0.0
 10
138.92914866947
 20
135.3046838964586
 30
0.0
 10
138.8062850503681
 20
135.2291440953414
 30
0.0
  0
SPLINE
  5
87
330
1F
100
AcDbEntity
  8
0
  6
Continuous
 62
     7
370
    15
100
AcDbSpline
210
0.0
220
0.0
230
1.0
 70
     8
 71
     3
 72
    10
 73
     6
 74
     0
 42
0.00000001
 43
0.00000001
 40
0.0
 40
0.0
 40
0.0
 40
0.0
 40
0.5
 40
0.5
 40
1.0
 40
1.0
 40
1.0
 40
1.0
 10
139.174434958899
 20
128.6791440953414
 30
0.0
 10
139.1831246018106
 20
128.7260229446596
 30
0.0
 10
139.1896636665611
 20
128.7734454100608
 30
0.0
 10
139.1984223009542
 20
128.8693822086476
 30
0.0
 10
139.2005825820591
 20
128.9172974966581
 30
0.0
 10
139.2005825820591
 20
128.9650107268026
 30
0.0
  0
SPLINE
  5
88
330
1F
100
AcDbEntity
  8
0
  6
Continuous
 62
     7
370
    15
100
AcDbSpline
210
0.0
220
0.0
230
1.0
 70
     8
 71
     3
 72
    10
 73
     6
 74
     0
 42
0.00000001
 43
0.00000001
 40
0.0
 40
0.0
 40
0.0
 40
0.0
 40
0.5
 40
0.5
 40
1.0
 40
1.0
 40
1.0
 40
1.0
 10
135.77488011375
 20
135.2291440953414
 30
0.0
 10
135.6533398500816
 20
135.3038702625532
 30
0.0
 10
135.5520054897326
 20
135.41281527847
 30
0.0
 10
135.4163665468442
 20
135.6632457592316
 30
0.0
 10
135.3805825820591
 20
135.8056651213305
 30
0.0
 10
135.3805825820591
 20
135.9487979463772
 30
0.0
  0
SPLINE
  5
89
330
1F
100
AcDbEntity
  8
0
  6
Continuous
 62
     7
370
    15
100
AcDbSpline
210
0.0
220
0.0
230
1.0
 70
    24
 71
     3
 72
    12
 73
     8
 74
     0
 42
0.00000001
 43
0.00000001
 40
0.0
 40
0.0
 40
0.0
 40
0.0
 40
0.2500000000000037
 40
0.2500000000000037
 40
0.5000000000000074
 40
0.5000000000000074
 40
1.0
 40
1.0
 40
1.0
 40
1.0
 10
136.1805825820591
 20
135.2291440953414
 30
0.0
 10
136.1307058997416
 20
135.2291440953414
 30
0.0
 10
136.082702706338
 20
135.2291440953414
 30
0.0
 10
135.9996546036261
 20
135.2291440953414
 30
0.0
 10
135.9635250241582
 20
135.2291440953414
 30
0.0
 10
135.867612993214
 20
135.2291440953414
 30
0.0
 10
135.8178543252452
 20
135.2291440953414
 30
0.0
 10
135.77488011375
 20
135.2291440953414
 30
0.0
  0
SPLINE
  5
8A
330
1F
100
AcDbEntity
  8
0
  6
Continuous
 62
     7
370
    15
100
AcDbSpline
210
0.0
220
0.0
230
1.0
 70
    24
 71
     3
 72
    14
 73
    10
 74
     0
 42
0.00000001
 43
0.00000001
 40
0.0
 40
0.0
 40
0.0
 40
0.0
 40
0.1249999999999991
 40
0.1249999999999991
 40
0.2499999999999982
 40
0.2499999999999982
 40
0.4999999999999998
 40
0.4999999999999998
 40
1.0
 40
1.0
 40
1.0
 40
1.0
 10
136.1805825820591
 20
82.42914409534141
 30
0.0
 10
136.1121447341726
 20
82.42914409534141
 30
0.0
 10
136.0465946954076
 20
82.42914409534143
 30
0.0
 10
135.9421680559996
 20
82.42914409534143
 30
0.0
 10
135.8996234462383
 20
82.42914409534143
 30
0.0
 10
135.787013985698
 20
82.42914409534141
 30
0.0
 10
135.7314749386785
 20
82.42914409534141
 30
0.0
 10
135.5888632432147
 20
82.42914409534141
 30
0.0
 10
135.5254578882189
 20
82.42914409534141
 30
0.0
 10
135.4782573843914
 20
82.42914409534141
 30
0.0
  0
SPLINE
  5
8B
330
1F
100
AcDbEntity
  8
0
  6
Continuous
 62
     7
370
    15
100
AcDbSpline
210
0.0
220
0.0
230
1.0
 70
     8
 71
     3
 72
    10
 73
     6
 74
     0
 42
0.00000001
 43
0.00000001
 40
0.0
 40
0.0
 40
0.0
 40
0.0
 40
0.5
 40
0.5
 40
1.0
 40
1.0
 40
1.0
 40
1.0
 10
135.3805825820591
 20
128.9650107268028
 30
0.0
 10
135.3805825820591
 20
128.9172392188095
 30
0.0
 10
135.3827438256562
 20
128.8695294967478
 30
0.0
 10
135.3914151995164
 20
128.7742343791996
 30
0.0
 10
135.3979443824724
 20
128.7265418152329
 30
0.0
 10
135.4067302052192
 20
128.6791440953414
 30
0.0
  0
LINE
  5
8C
330
1F
100
AcDbEntity
  8
0
  6
Continuous
 62
     7
370
    15
100
AcDbLine
 10
138.4005825821
 20
135.2291440953
 30
0.0
 11
136.1805825821
 21
135.2291440953
 31
0.0
  0
LINE
  5
8D
330
1F
100
AcDbEntity
  8
0
  6
Continuous
 62
     7
370
    15
100
AcDbLine
 10
138.4005825821
 20
82.4291440953
 30
0.0
 11
136.1805825821
 21
82.4291440953
 31
0.0
  0
LINE
  5
8E
330
1F
100
AcDbEntity
  8
0
  6
Continuous
 62
     7
370
    15
100
AcDbLine
 10
97.4905825821
 20
85.6006972016
 30
0.0
 11
97.4905825821
 21
86.8654065641
 31
0.0
  0
SPLINE
  5
8F
330
1F
100
AcDbEntity
  8
0
  6
Continuous
 62
     7
370
    15
100
AcDbSpline
210
0.0
220
0.0
230
1.0
 70
     8
 71
     3
 72
    14
 73
    10
 74
     0
 42
0.00000001
 43
0.00000001
 40
0.0
 40
0.0
 40
0.0
 40
0.0
 40
0.25
 40
0.25
 40
0.5
 40
0.5
 40
0.75
 40
0.75
 40
1.0
 40
1.0
 40
1.0
 40
1.0
 10
96.7122954641434
 20
87.99599277178147
 30
0.0
 10
96.76892213934546
 20
87.88829531794461
 30
0.0
 10
96.86344479963519
 20
87.78550573622529
 30
0.0
 10
97.04648977519741
 20
87.58714842400514
 30
0.0
 10
97.13811635215214
 20
87.4910889153269
 30
0.0
 10
97.29696966984534
 20
87.30355987261765
 30
0.0
 10
97.36486027746705
 20
87.21215089983409
 30
0.0
 10
97.46177730317463
 20
87.03377467892393
 30
0.0
 10
97.49058258205967
 20
86.94655277267776
 30
0.0
 10
97.49058258205967
 20
86.86540656414351
 30
0.0
  0
SPLINE
  5
90
330
1F
100
AcDbEntity
  8
0
  6
Continuous
 62
     7
370
    15
100
AcDbSpline
210
0.0
220
0.0
230
1.0
 70
     8
 71
     3
 72
    14
 73
    10
 74
     0
 42
0.00000001
 43
0.00000001
 40
0.0
 40
0.0
 40
0.0
 40
0.0
 40
0.1249999999999975
 40
0.1249999999999975
 40
0.249999999999995
 40
0.249999999999995
 40
0.4999999999999953
 40
0.4999999999999953
 40
1.0
 40
1.0
 40
1.0
 40
1.0
 10
96.0905825820591
 20
88.4426746340608
 30
0.0
 10
96.13912699071626
 20
88.44842294734109
 30
0.0
 10
96.19204234550118
 20
88.44532205868484
 30
0.0
 10
96.28733769048422
 20
88.42312721452251
 30
0.0
 10
96.32758868776916
 20
88.40589498742665
 30
0.0
 10
96.43185870128214
 20
88.34956707097459
 30
0.0
 10
96.48218067643546
 20
88.30538072502878
 30
0.0
 10
96.60986362396085
 20
88.17437282617817
 30
0.0
 10
96.6659490710231
 20
88.08413830594787
 30
0.0
 10
96.71229546414483
 20
87.995992771782
 30
0.0
  0
SPLINE
  5
91
330
1F
100
AcDbEntity
  8
0
  6
Continuous
 62
     7
370
    15
100
AcDbSpline
210
0.0
220
0.0
230
1.0
 70
     8
 71
     3
 72
     8
 73
     4
 74
     0
 42
0.00000001
 43
0.00000001
 40
0.0
 40
0.0
 40
0.0
 40
0.0
 40
1.0
 40
1.0
 40
1.0
 40
1.0
 10
93.82205748911288
 20
88.132829347478
 30
0.0
 10
94.55663451559583
 20
88.25145435854695
 30
0.0
 10
95.32010958499149
 20
88.35144023068322
 30
0.0
 10
96.0905825820591
 20
88.44267463406078
 30
0.0
  0
SPLINE
  5
92
330
1F
100
AcDbEntity
  8
0
  6
Continuous
 62
     7
370
    15
100
AcDbSpline
210
0.0
220
0.0
230
1.0
 70
     8
 71
     3
 72
    14
 73
    10
 74
     0
 42
0.00000001
 43
0.00000001
 40
0.0
 40
0.0
 40
0.0
 40
0.0
 40
0.500000000000001
 40
0.500000000000001
 40
0.7500000000000004
 40
0.7500000000000004
 40
0.8750000000000003
 40
0.8750000000000003
 40
1.0
 40
1.0
 40
1.0
 40
1.0
 10
88.5405825820591
 20
87.95920632994634
 30
0.0
 10
89.43272871261269
 20
87.95848410374569
 30
0.0
 10
90.32270514840627
 20
87.96307031020316
 30
0.0
 10
91.64930031548188
 20
87.99079531459469
 30
0.0
 10
92.09014724398062
 20
88.00340185221886
 30
0.0
 10
92.74658748140304
 20
88.03441800022632
 30
0.0
 10
92.96460113799492
 20
88.0467611728531
 30
0.0
 10
93.3973099916777
 20
88.07978522801638
 30
0.0
 10
93.61258645684248
 20
88.0990023931548
 30
0.0
 10
93.8220574891129
 20
88.132829347478
 30
0.0
  0
SPLINE
  5
93
330
1F
100
AcDbEntity
  8
0
  6
Continuous
 62
     7
370
    15
100
AcDbSpline
210
0.0
220
0.0
230
1.0
 70
     8
 71
     3
 72
     8
 73
     4
 74
     0
 42
0.00000001
 43
0.00000001
 40
0.0000005163856998
 40
0.0000005163856998
 40
0.0000005163856998
 40
0.0000005163856998
 40
0.000026289209185
 40
0.000026289209185
 40
0.000026289209185
 40
0.000026289209185
 10
88.53053765165149
 20
87.96919020304313
 30
0.0
 10
88.53386538985933
 20
87.96585595617401
 30
0.0
 10
88.53721384283492
 20
87.9625279988987
 30
0.0
 10
88.54058258205907
 20
87.95920632994633
 30
0.0
  0
SPLINE
  5
94
330
1F
100
AcDbEntity
  8
0
  6
Continuous
 62
     7
370
    15
100
AcDbSpline
210
0.0
220
0.0
230
1.0
 70
     8
 71
     3
 72
     8
 73
     4
 74
     0
 42
0.00000001
 43
0.00000001
 40
0.0000005099763573
 40
0.0000005099763573
 40
0.0000005099763573
 40
0.0000005099763573
 40
0.0000262827998699
 40
0.0000262827998699
 40
0.0000262827998699
 40
0.0000262827998699
 10
88.54058258205907
 20
129.6990818607365
 30
0.0
 10
88.53721384283133
 20
129.6957601917806
 30
0.0
 10
88.5338653898522
 20
129.6924322345017
 30
0.0
 10
88.53053765164086
 20
129.6890979876291
 30
0.0
  0
SPLINE
  5
95
330
1F
100
AcDbEntity
  8
0
  6
Continuous
 62
     7
370
    15
100
AcDbSpline
210
0.0
220
0.0
230
1.0
 70
     8
 71
     3
 72
    10
 73
     6
 74
     0
 42
0.00000001
 43
0.00000001
 40
0.0
 40
0.0
 40
0.0
 40
0.0
 40
0.5
 40
0.5
 40
1.0
 40
1.0
 40
1.0
 40
1.0
 10
92.0905825820591
 20
129.6522314871691
 30
0.0
 10
91.50299703496852
 20
129.6732970074056
 30
0.0
 10
90.91225064150812
 20
129.6840554932778
 30
0.0
 10
89.72823147620927
 20
129.6974202738135
 30
0.0
 10
89.1348174880038
 20
129.699562916478
 30
0.0
 10
88.5405825820591
 20
129.6990818607365
 30
0.0
  0
SPLINE
  5
96
330
1F
100
AcDbEntity
  8
0
  6
Continuous
 62
     7
370
    15
100
AcDbSpline
210
0.0
220
0.0
230
1.0
 70
     8
 71
     3
 72
    18
 73
    14
 74
     0
 42
0.00000001
 43
0.00000001
 40
0.0
 40
0.0
 40
0.0
 40
0.0
 40
0.2500000000000009
 40
0.2500000000000009
 40
0.500000000000001
 40
0.500000000000001
 40
0.7500000000000011
 40
0.7500000000000011
 40
0.875000000000001
 40
0.875000000000001
 40
0.9375000000000006
 40
0.9375000000000006
 40
1.0
 40
1.0
 40
1.0
 40
1.0
 10
93.49058258205912
 20
130.6732517677044
 30
0.0
 10
93.49058258205912
 20
130.5900448588472
 30
0.0
 10
93.45473348212084
 20
130.5013082035337
 30
0.0
 10
93.32986174608693
 20
130.3191830129734
 30
0.0
 10
93.23946132843905
 20
130.2240529643468
 30
0.0
 10
93.01721867369687
 20
130.0348714552225
 30
0.0
 10
92.88745388725111
 20
129.9399262871277
 30
0.0
 10
92.64681642993959
 20
129.8016475795478
 30
0.0
 10
92.55904913180214
 20
129.7559371462454
 30
0.0
 10
92.40452504459535
 20
129.698113841024
 30
0.0
 10
92.34791415854059
 20
129.6803990769861
 30
0.0
 10
92.22387012763399
 20
129.6558597737532
 30
0.0
 10
92.15615545261569
 20
129.6498806352149
 30
0.0
 10
92.0905825820591
 20
129.6522314871691
 30
0.0
  0
LINE
  5
97
330
1F
100
AcDbEntity
  8
0
  6
Continuous
 62
     7
370
    15
100
AcDbLine
 10
93.4905825821
 20
130.6732517677
 30
0.0
 11
93.4905825821
 21
131.8571901875
 31
0.0
  0
LINE
  5
98
330
1F
100
AcDbEntity
  8
0
  6
Continuous
 62
     7
370
    15
100
AcDbLine
 10
117.2905825821
 20
84.6087132336
 30
0.0
 11
117.2905825821
 21
133.0495749571
 31
0.0
  0
SPLINE
  5
99
330
1F
100
AcDbEntity
  8
0
  6
Continuous
 62
     7
370
    15
100
AcDbSpline
210
0.0
220
0.0
230
1.0
 70
     8
 71
     3
 72
    24
 73
    20
 74
     0
 42
0.00000001
 43
0.00000001
 40
0.0
 40
0.0
 40
0.0
 40
0.0
 40
0.0010489762969682
 40
0.0637843125639766
 40
0.1272220590447888
 40
0.1903788924487598
 40
0.252674865369363
 40
0.3146354154424954
 40
0.377089199714964
 40
0.4393540298504154
 40
0.5008133242537826
 40
0.562184510458698
 40
0.624843845111553
 40
0.6874304766616532
 40
0.7496743174679398
 40
0.8119848426977657
 40
0.8750960525413161
 40
0.9384412526965076
 40
0.9999999999999999
 40
0.9999999999999999
 40
0.9999999999999999
 40
0.9999999999999999
 10
106.0594884140348
 20
85.17163566676128
 30
0.0
 10
106.0590419539306
 20
85.17157738094237
 30
0.0
 10
106.0318943902368
 20
85.16803323899985
 30
0.0
 10
106.1275061678505
 20
85.1808669836826
 30
0.0
 10
106.3610664257449
 20
85.21011366888278
 30
0.0
 10
106.7566207330622
 20
85.25672799194562
 30
0.0
 10
107.2836610368997
 20
85.30691113360497
 30
0.0
 10
107.9271914488895
 20
85.35128759605459
 30
0.0
 10
108.6658653041286
 20
85.3782323769928
 30
0.0
 10
109.4633798095619
 20
85.38170422769959
 30
0.0
 10
110.2899586920046
 20
85.35407698366934
 30
0.0
 10
111.1154817096154
 20
85.295598094696
 30
0.0
 10
111.9076082576166
 20
85.21015306533594
 30
0.0
 10
112.6401805316225
 20
85.1084188254996
 30
0.0
 10
113.2758207683505
 20
85.00057570352665
 30
0.0
 10
113.7977318753599
 20
84.89894554678756
 30
0.0
 10
114.1793606524755
 20
84.81646039010933
 30
0.0
 10
114.4301751227093
 20
84.76031118375971
 30
0.0
 10
114.4592966786936
 20
84.75346172514595
 30
0.0
 10
114.4736491995098
 20
84.7500859784178
 30
0.0
  0
SPLINE
  5
9A
330
1F
100
AcDbEntity
  8
0
  6
Continuous
 62
     7
370
    15
100
AcDbSpline
210
0.0
220
0.0
230
1.0
 70
     8
 71
     3
 72
    24
 73
    20
 74
     0
 42
0.00000001
 43
0.00000001
 40
0.0
 40
0.0
 40
0.0
 40
0.0
 40
0.0614384276250176
 40
0.1250736755369651
 40
0.1884253490729237
 40
0.2508623904037427
 40
0.3129665632511172
 40
0.3753451453465143
 40
0.4377328972324873
 40
0.4990927322917189
 40
0.5605807588447405
 40
0.6229469893028771
 40
0.6854686282025979
 40
0.7475477813740068
 40
0.8098225060804932
 40
0.8730684085990272
 40
0.9364041844536292
 40
0.9991757196257863
 40
1.0
 40
1.0
 40
1.0
 40
1.0
 10
114.4735944287068
 20
132.9081730697988
 30
0.0
 10
114.4589937044034
 20
132.9048050129462
 30
0.0
 10
114.4292701856754
 20
132.8979484694725
 30
0.0
 10
114.1765323700268
 20
132.8416098489465
 30
0.0
 10
113.7935364535772
 20
132.7587527668165
 30
0.0
 10
113.2711808691401
 20
132.6568457368652
 30
0.0
 10
112.6363963911402
 20
132.5490065978214
 30
0.0
 10
111.9061727869675
 20
132.4475396458463
 30
0.0
 10
111.1157042017335
 20
132.3624799321556
 30
0.0
 10
110.2912206869054
 20
132.3042756382692
 30
0.0
 10
109.4641842280219
 20
132.2766921994426
 30
0.0
 10
108.6658599603702
 20
132.2801851769354
 30
0.0
 10
107.9260359960809
 20
132.3071410967885
 30
0.0
 10
107.2817817631058
 20
132.3514950387877
 30
0.0
 10
106.7543745078898
 20
132.4017004885456
 30
0.0
 10
106.3597099057396
 20
132.448310343744
 30
0.0
 10
106.1271806265513
 20
132.4775059362914
 30
0.0
 10
106.0318005940028
 20
132.4902840052326
 30
0.0
 10
106.0587342309037
 20
132.4867297467248
 30
0.0
 10
106.059083324128
 20
132.4866836791415
 30
0.0
  0
SPLINE
  5
9B
330
1F
100
AcDbEntity
  8
0
  6
Continuous
 62
     7
370
    15
100
AcDbSpline
210
0.0
220
0.0
230
1.0
 70
     8
 71
     3
 72
    10
 73
     6
 74
     0
 42
0.00000001
 43
0.00000001
 40
0.0
 40
0.0
 40
0.0
 40
0.0
 40
0.0840381716606348
 40
0.7011125076933074
 40
1.0
 40
1.0
 40
1.0
 40
1.0
 10
87.40412954459477
 20
89.10037018765809
 30
0.0
 10
87.40480410192968
 20
89.09816456082218
 30
0.0
 10
87.41043178962587
 20
89.07976348745997
 30
0.0
 10
87.43675326975273
 20
89.09399805018315
 30
0.0
 10
87.44918828659743
 20
89.13968382573412
 30
0.0
 10
87.4532459567825
 20
89.15459155056068
 30
0.0
  0
LINE
  5
9C
330
1F
100
AcDbEntity
  8
0
  6
Continuous
 62
     7
370
    15
100
AcDbLine
 10
87.3905825821
 20
89.1384663489
 30
0.0
 11
87.3905825821
 21
128.5198218418
 31
0.0
  0
SPLINE
  5
9D
330
1F
100
AcDbEntity
  8
0
  6
Continuous
 62
     7
370
    15
100
AcDbSpline
210
0.0
220
0.0
230
1.0
 70
     8
 71
     3
 72
    10
 73
     6
 74
     0
 42
0.00000001
 43
0.00000001
 40
0.0
 40
0.0
 40
0.0
 40
0.0
 40
0.3981552638809415
 40
0.8068145697130351
 40
1.0
 40
1.0
 40
1.0
 40
1.0
 10
87.4532459567825
 20
128.5036966401221
 30
0.0
 10
87.44758245205803
 20
128.522538424673
 30
0.0
 10
87.43610602931075
 20
128.5607190734653
 30
0.0
 10
87.41259180133653
 20
128.574302357333
 30
0.0
 10
87.40757584551874
 20
128.5586020632128
 30
0.0
 10
87.40596577979113
 20
128.5535624443656
 30
0.0
  0
SPLINE
  5
9E
330
1F
100
AcDbEntity
  8
0
  6
Continuous
 62
     7
370
    15
100
AcDbSpline
210
0.0
220
0.0
230
1.0
 70
     8
 71
     3
 72
    26
 73
    22
 74
     0
 42
0.00000001
 43
0.00000001
 40
0.0
 40
0.0
 40
0.0
 40
0.0
 40
0.2500000000000165
 40
0.2500000000000165
 40
0.3750000000000256
 40
0.3750000000000256
 40
0.4375000000000291
 40
0.4375000000000291
 40
0.4687500000000291
 40
0.4687500000000291
 40
0.5000000000000292
 40
0.5000000000000292
 40
0.5312500000000293
 40
0.5312500000000293
 40
0.5625000000000293
 40
0.5625000000000293
 40
0.625000000000026
 40
0.625000000000026
 40
0.7500000000000173
 40
0.7500000000000173
 40
1.0
 40
1.0
 40
1.0
 40
1.0
 10
88.21473622816362
 20
129.2192634289393
 30
0.0
 10
88.17613570529514
 20
129.1014887325838
 30
0.0
 10
88.12983870274088
 20
128.9770990464219
 30
0.0
 10
88.03589935430695
 20
128.7718797140684
 30
0.0
 10
88.0005878873935
 20
128.700306847622
 30
0.0
 10
87.93440791164784
 20
128.5843536150215
 30
0.0
 10
87.90986954497959
 20
128.5437690802113
 30
0.0
 10
87.8664967994258
 20
128.4796273983395
 30
0.0
 10
87.8509883980006
 20
128.4577609730545
 30
0.0
 10
87.81594575341359
 20
128.4121667047113
 30
0.0
 10
87.79639546269381
 20
128.3884964137439
 30
0.0
 10
87.75446818232321
 20
128.3438798544039
 30
0.0
 10
87.73181607209158
 20
128.322999841886
 30
0.0
 10
87.69084235800493
 20
128.2921264281352
 30
0.0
 10
87.6732430581095
 20
128.2822875583028
 30
0.0
 10
87.62861607225337
 20
128.2632979426066
 30
0.0
 10
87.60805684960002
 20
128.2629736179532
 30
0.0
 10
87.55693141010336
 20
128.2721970588294
 30
0.0
 10
87.53601999711483
 20
128.2934439550463
 30
0.0
 10
87.48457008955388
 20
128.3674128338771
 30
0.0
 10
87.46690479024933
 20
128.4335309271919
 30
0.0
 10
87.4532459567825
 20
128.5036966401221
 30
0.0
  0
SPLINE
  5
9F
330
1F
100
AcDbEntity
  8
0
  6
Continuous
 62
     7
370
    15
100
AcDbSpline
210
0.0
220
0.0
230
1.0
 70
     8
 71
     3
 72
    10
 73
     6
 74
     0
 42
0.00000001
 43
0.00000001
 40
0.0
 40
0.0
 40
0.0
 40
0.0
 40
0.5
 40
0.5
 40
1.0
 40
1.0
 40
1.0
 40
1.0
 10
88.53053765164088
 20
129.6890979876291
 30
0.0
 10
88.46297839672263
 20
129.6214065948193
 30
0.0
 10
88.39934174138615
 20
129.5466994300657
 30
0.0
 10
88.28912098681431
 20
129.387733297639
 30
0.0
 10
88.24230469359168
 20
129.303378031631
 30
0.0
 10
88.21473622816362
 20
129.2192634289393
 30
0.0
  0
SPLINE
  5
A0
330
1F
100
AcDbEntity
  8
0
  6
Continuous
 62
     7
370
    15
100
AcDbSpline
210
0.0
220
0.0
230
1.0
 70
     8
 71
     3
 72
    10
 73
     6
 74
     0
 42
0.00000001
 43
0.00000001
 40
0.0
 40
0.0
 40
0.0
 40
0.0
 40
0.5
 40
0.5
 40
1.0
 40
1.0
 40
1.0
 40
1.0
 10
88.21473622816364
 20
88.43902476174345
 30
0.0
 10
88.24221364291762
 20
88.35518796527556
 30
0.0
 10
88.28892227320704
 20
88.27087747768641
 30
0.0
 10
88.39920073595299
 20
88.11175624719972
 30
0.0
 10
88.46308827456689
 20
88.03677150311006
 30
0.0
 10
88.5305376516515
 20
87.96919020304313
 30
0.0
  0
SPLINE
  5
A1
330
1F
100
AcDbEntity
  8
0
  6
Continuous
 62
     7
370
    15
100
AcDbSpline
210
0.0
220
0.0
230
1.0
 70
     8
 71
     3
 72
    24
 73
    20
 74
     0
 42
0.00000001
 43
0.00000001
 40
0.0
 40
0.0
 40
0.0
 40
0.0
 40
0.25
 40
0.25
 40
0.374999999999999
 40
0.374999999999999
 40
0.4374999999999993
 40
0.4374999999999993
 40
0.4687499999999994
 40
0.4687499999999994
 40
0.4999999999999995
 40
0.4999999999999995
 40
0.5624999999999971
 40
0.5624999999999971
 40
0.6249999999999947
 40
0.6249999999999947
 40
0.7499999999999947
 40
0.7499999999999947
 40
1.0
 40
1.0
 40
1.0
 40
1.0
 10
87.4532459567825
 20
89.15459155056068
 30
0.0
 10
87.46699907545275
 20
89.22524160855097
 30
0.0
 10
87.4847716428586
 20
89.29183972131588
 30
0.0
 10
87.53702273441397
 20
89.36593774154909
 30
0.0
 10
87.5580578099955
 20
89.38719554871065
 30
0.0
 10
87.61095821762396
 20
89.39534147485689
 30
0.0
 10
87.63206389050188
 20
89.39440167146113
 30
0.0
 10
87.67811605917983
 20
89.37338567988377
 30
0.0
 10
87.69648653116323
 20
89.36247687377616
 30
0.0
 10
87.73803816622893
 20
89.32984196282878
 30
0.0
 10
87.76060483898584
 20
89.30834998245743
 30
0.0
 10
87.82338585544586
 20
89.23988403887111
 30
0.0
 10
87.85651561641374
 20
89.19380958066601
 30
0.0
 10
87.91343330289878
 20
89.10880169233134
 30
0.0
 10
87.93761932840255
 20
89.06852139114996
 30
0.0
 10
88.0028272787823
 20
88.95358516468401
 30
0.0
 10
88.03754333897353
 20
88.88300217953702
 30
0.0
 10
88.13075860930442
 20
88.67879642045841
 30
0.0
 10
88.1764311446651
 20
88.55589803813105
 30
0.0
 10
88.21473622816364
 20
88.43902476174348
 30
0.0
  0
LINE
  5
A2
330
1F
100
AcDbEntity
  8
0
  6
Continuous
 62
     7
370
    15
100
AcDbLine
 10
144.6405825821
 20
139.2963395685
 30
0.0
 11
140.6825154135
 21
139.2963395685
 31
0.0
  0
LINE
  5
A3
330
1F
100
AcDbEntity
  8
0
  6
Continuous
 62
     7
370
    15
100
AcDbLine
 10
140.6825154135
 20
133.2878337577
 30
0.0
 11
144.6405825821
 21
133.2878337577
 31
0.0
  0
LINE
  5
A4
330
1F
100
AcDbEntity
  8
0
  6
Continuous
 62
     7
370
    15
100
AcDbLine
 10
140.6825154135
 20
133.2878337577
 30
0.0
 11
140.6825154135
 21
139.2963395685
 31
0.0
  0
SPLINE
  5
A5
330
1F
100
AcDbEntity
  8
0
  6
Continuous
 62
     7
370
    15
100
AcDbSpline
210
0.0
220
0.0
230
1.0
 70
     8
 71
     3
 72
     8
 73
     4
 74
     0
 42
0.00000001
 43
0.00000001
 40
0.0
 40
0.0
 40
0.0
 40
0.0
 40
1.0
 40
1.0
 40
1.0
 40
1.0
 10
140.6825154135481
 20
139.2963395685057
 30
0.0
 10
140.1873753841838
 20
138.4096599203254
 30
0.0
 10
139.6932926789048
 20
137.5223972846394
 30
0.0
 10
139.2005825820591
 20
136.634378286513
 30
0.0
  0
SPLINE
  5
A6
330
1F
100
AcDbEntity
  8
0
  6
Continuous
 62
     7
370
    15
100
AcDbSpline
210
0.0
220
0.0
230
1.0
 70
     8
 71
     3
 72
     8
 73
     4
 74
     0
 42
0.00000001
 43
0.00000001
 40
0.0
 40
0.0
 40
0.0
 40
0.0
 40
1.0
 40
1.0
 40
1.0
 40
1.0
 10
139.2005825820591
 20
129.8792877629247
 30
0.0
 10
139.6798607326489
 20
131.0202989927773
 30
0.0
 10
140.1754285717889
 20
132.1566834035452
 30
0.0
 10
140.6825154135481
 20
133.2878337577089
 30
0.0
  0
LINE
  5
A7
330
1F
100
AcDbEntity
  8
0
  6
Continuous
 62
     7
370
    15
100
AcDbLine
 10
139.2005825821
 20
129.8792877629
 30
0.0
 11
139.2005825821
 21
136.6343782865
 31
0.0
  0
SPLINE
  5
A8
330
1F
100
AcDbEntity
  8
0
  6
Continuous
 62
     7
370
    15
100
AcDbSpline
210
0.0
220
0.0
230
1.0
 70
     8
 71
     3
 72
    10
 73
     6
 74
     0
 42
0.00000001
 43
0.00000001
 40
0.0
 40
0.0
 40
0.0
 40
0.0
 40
0.5
 40
0.5
 40
1.0
 40
1.0
 40
1.0
 40
1.0
 10
145.2405825820591
 20
138.6755844191053
 30
0.0
 10
145.2405825820591
 20
138.8359896854561
 30
0.0
 10
145.1783447509522
 20
138.9950514984447
 30
0.0
 10
144.9592098272097
 20
139.225963964075
 30
0.0
 10
144.8016211322178
 20
139.2963395685057
 30
0.0
 10
144.6405825820591
 20
139.2963395685057
 30
0.0
  0
SPLINE
  5
A9
330
1F
100
AcDbEntity
  8
0
  6
Continuous
 62
     7
370
    15
100
AcDbSpline
210
0.0
220
0.0
230
1.0
 70
     8
 71
     3
 72
    12
 73
     8
 74
     0
 42
0.00000001
 43
0.00000001
 40
0.0
 40
0.0
 40
0.0
 40
0.0
 40
0.250000000000002
 40
0.250000000000002
 40
0.500000000000004
 40
0.500000000000004
 40
1.0
 40
1.0
 40
1.0
 40
1.0
 10
144.6405825820591
 20
133.2878337577089
 30
0.0
 10
144.7317823038848
 20
133.2878337577089
 30
0.0
 10
144.8223773130208
 20
133.259614059121
 30
0.0
 10
144.9757900394674
 20
133.1651710518729
 30
0.0
 10
145.0409989067911
 20
133.0988840751676
 30
0.0
 10
145.193783436131
 20
132.8732592518793
 30
0.0
 10
145.2405825820591
 20
132.6908329888467
 30
0.0
 10
145.2405825820591
 20
132.5100963565998
 30
0.0
  0
LINE
  5
AA
330
1F
100
AcDbEntity
  8
0
  6
Continuous
 62
     7
370
    15
100
AcDbLine
 10
145.2405825821
 20
132.5100963566
 30
0.0
 11
145.2405825821
 21
138.6755844191
 31
0.0
  0
LINE
  5
AB
330
1F
100
AcDbEntity
  8
0
  6
Continuous
 62
     7
370
    15
100
AcDbLine
 10
139.2005825821
 20
128.9650107268
 30
0.0
 11
139.2005825821
 21
129.8792877629
 31
0.0
  0
LINE
  5
AC
330
1F
100
AcDbEntity
  8
0
  6
Continuous
 62
     7
370
    15
100
AcDbLine
 10
145.2405825821
 20
132.5100963566
 30
0.0
 11
145.2405825821
 21
128.6791440953
 31
0.0
  0
SPLINE
  5
AD
330
1F
100
AcDbEntity
  8
0
  6
Continuous
 62
     7
370
    15
100
AcDbSpline
210
0.0
220
0.0
230
1.0
 70
     8
 71
     3
 72
     8
 73
     4
 74
     0
 42
0.00000001
 43
0.00000001
 40
0.0
 40
0.0
 40
0.0
 40
0.0
 40
1.0
 40
1.0
 40
1.0
 40
1.0
 10
135.3805825820591
 20
136.634378286513
 30
0.0
 10
134.8878724852133
 20
137.5223972846394
 30
0.0
 10
134.3937897799344
 20
138.4096599203254
 30
0.0
 10
133.89864975057
 20
139.2963395685057
 30
0.0
  0
SPLINE
  5
AE
330
1F
100
AcDbEntity
  8
0
  6
Continuous
 62
     7
370
    15
100
AcDbSpline
210
0.0
220
0.0
230
1.0
 70
     8
 71
     3
 72
     8
 73
     4
 74
     0
 42
0.00000001
 43
0.00000001
 40
0.0
 40
0.0
 40
0.0
 40
0.0
 40
1.0
 40
1.0
 40
1.0
 40
1.0
 10
133.89864975057
 20
133.2878337577089
 30
0.0
 10
134.4057365923293
 20
132.1566834035452
 30
0.0
 10
134.9013044314692
 20
131.0202989927774
 30
0.0
 10
135.3805825820591
 20
129.8792877629247
 30
0.0
  0
LINE
  5
AF
330
1F
100
AcDbEntity
  8
0
  6
Continuous
 62
     7
370
    15
100
AcDbLine
 10
135.3805825821
 20
129.8792877629
 30
0.0
 11
135.3805825821
 21
136.6343782865
 31
0.0
  0
LINE
  5
B0
330
1F
100
AcDbEntity
  8
0
  6
Continuous
 62
     7
370
    15
100
AcDbLine
 10
135.3805825821
 20
129.8792877629
 30
0.0
 11
135.3805825821
 21
128.9650107268
 31
0.0
  0
ARC
  5
B1
330
1F
100
AcDbEntity
  8
0
  6
Continuous
 62
     7
370
    15
100
AcDbCircle
 10
127.3857443415
 20
127.9416384629
 30
0.0
 40
6.833770653381841
100
AcDbArc
 50
70.4285722556
 51
90.7978821197
  0
ARC
  5
B2
330
1F
100
AcDbEntity
  8
0
  6
Continuous
 62
     7
370
    15
100
AcDbCircle
 10
127.1952976859
 20
127.9428398916
 30
0.0
 40
6.832571057369655
100
AcDbArc
 50
89.2009451013
 51
109.5897667579
  0
LINE
  5
B3
330
1F
100
AcDbEntity
  8
0
  6
Continuous
 62
     7
370
    15
100
AcDbLine
 10
171.1719683735
 20
93.8291440953
 30
0.0
 11
171.1719683735
 21
123.8291440953
 31
0.0
  0
LINE
  5
B4
330
1F
100
AcDbEntity
  8
0
  6
Continuous
 62
     7
370
    15
100
AcDbLine
 10
209.2905825821
 20
98.6779250787
 30
0.0
 11
209.2905825821
 21
118.9803630583
 31
0.0
  0
LINE
  5
B5
330
1F
100
AcDbEntity
  8
0
  6
HIDDEN
 62
     7
370
     0
100
AcDbLine
 10
162.2905825821
 20
103.8291440953
 30
0.0
 11
162.2905825821
 21
113.8291440953
 31
0.0
  0
LINE
  5
B6
330
1F
100
AcDbEntity
  8
0
  6
HIDDEN
 62
     7
370
     0
100
AcDbLine
 10
146.7905825821
 20
103.8291440953
 30
0.0
 11
146.7905825821
 21
113.8291440953
 31
0.0
  0
LINE
  5
B7
330
1F
100
AcDbEntity
  8
0
  6
HIDDEN
 62
     7
370
     0
100
AcDbLine
 10
146.2905825821
 20
104.3291440953
 30
0.0
 11
146.2905825821
 21
113.3291440953
 31
0.0
  0
LINE
  5
B8
330
1F
100
AcDbEntity
  8
0
  6
HIDDEN
 62
     7
370
     0
100
AcDbLine
 10
166.2905825821
 20
107.8291440953
 30
0.0
 11
164.2905825821
 21
107.8291440953
 31
0.0
  0
LINE
  5
B9
330
1F
100
AcDbEntity
  8
0
  6
HIDDEN
 62
     7
370
     0
100
AcDbLine
 10
166.2905825821
 20
104.3291440953
 30
0.0
 11
166.2905825821
 21
107.8291440953
 31
0.0
  0
LINE
  5
BA
330
1F
100
AcDbEntity
  8
0
  6
HIDDEN
 62
     7
370
     0
100
AcDbLine
 10
166.2905825821
 20
109.8291440953
 30
0.0
 11
166.2905825821
 21
113.3291440953
 31
0.0
  0
LINE
  5
BB
330
1F
100
AcDbEntity
  8
0
  6
HIDDEN
 62
     7
370
     0
100
AcDbLine
 10
164.2905825821
 20
109.8291440953
 30
0.0
 11
166.2905825821
 21
109.8291440953
 31
0.0
  0
LINE
  5
BC
330
1F
100
AcDbEntity
  8
0
  6
HIDDEN
 62
     7
370
     0
100
AcDbLine
 10
164.2905825821
 20
107.8291440953
 30
0.0
 11
164.2905825821
 21
109.8291440953
 31
0.0
  0
LINE
  5
BD
330
1F
100
AcDbEntity
  8
0
  6
HIDDEN
 62
     7
370
     0
100
AcDbLine
 10
160.2905825821
 20
108.8291440953
 30
0.0
 11
164.2905825821
 21
108.8291440953
 31
0.0
  0
LINE
  5
BE
330
1F
100
AcDbEntity
  8
0
  6
HIDDEN
 62
     7
370
     0
100
AcDbLine
 10
160.2905825821
 20
110.0791440953
 30
0.0
 11
160.2905825821
 21
108.8291440953
 31
0.0
  0
LINE
  5
BF
330
1F
100
AcDbEntity
  8
0
  6
HIDDEN
 62
     7
370
     0
100
AcDbLine
 10
160.2905825821
 20
108.8291440953
 30
0.0
 11
160.2905825821
 21
107.5791440953
 31
0.0
  0
LINE
  5
C0
330
1F
100
AcDbEntity
  8
0
  6
HIDDEN
 62
     7
370
     0
100
AcDbLine
 10
152.290582582
 20
108.8291440953
 30
0.0
 11
146.2905825821
 21
108.8291440953
 31
0.0
  0
LINE
  5
C1
330
1F
100
AcDbEntity
  8
0
  6
HIDDEN
 62
     7
370
     0
100
AcDbLine
 10
152.290582582
 20
108.8291440953
 30
0.0
 11
152.290582582
 21
110.0791440953
 31
0.0
  0
LINE
  5
C2
330
1F
100
AcDbEntity
  8
0
  6
HIDDEN
 62
     7
370
     0
100
AcDbLine
 10
152.290582582
 20
107.5791440953
 30
0.0
 11
152.290582582
 21
108.8291440953
 31
0.0
  0
LINE
  5
C3
330
1F
100
AcDbEntity
  8
0
  6
HIDDEN
 62
     7
370
     0
100
AcDbLine
 10
160.2905825821
 20
111.3291440953
 30
0.0
 11
160.2905825821
 21
110.0791440953
 31
0.0
  0
LINE
  5
C4
330
1F
100
AcDbEntity
  8
0
  6
HIDDEN
 62
     7
370
     0
100
AcDbLine
 10
160.2905825821
 20
107.5791440953
 30
0.0
 11
160.2905825821
 21
106.3291440953
 31
0.0
  0
LINE
  5
C5
330
1F
100
AcDbEntity
  8
0
  6
HIDDEN
 62
     7
370
     0
100
AcDbLine
 10
152.290582582
 20
106.3291440953
 30
0.0
 11
152.290582582
 21
107.5791440953
 31
0.0
  0
LINE
  5
C6
330
1F
100
AcDbEntity
  8
0
  6
HIDDEN
 62
     7
370
     0
100
AcDbLine
 10
152.290582582
 20
110.0791440953
 30
0.0
 11
152.290582582
 21
111.3291440953
 31
0.0
  0
LINE
  5
C7
330
1F
100
AcDbEntity
  8
0
  6
HIDDEN
 62
     7
370
     0
100
AcDbLine
 10
152.290582582
 20
106.3291440953
 30
0.0
 11
146.290582582
 21
106.3291440953
 31
0.0
  0
LINE
  5
C8
330
1F
100
AcDbEntity
  8
0
  6
HIDDEN
 62
     7
370
     0
100
AcDbLine
 10
160.2905825821
 20
111.3291440953
 30
0.0
 11
166.2905825821
 21
111.3291440953
 31
0.0
  0
LINE
  5
C9
330
1F
100
AcDbEntity
  8
0
  6
HIDDEN
 62
     7
370
     0
100
AcDbLine
 10
152.290582582
 20
111.3291440953
 30
0.0
 11
146.290582582
 21
111.3291440953
 31
0.0
  0
LINE
  5
CA
330
1F
100
AcDbEntity
  8
0
  6
HIDDEN
 62
     7
370
     0
100
AcDbLine
 10
160.2905825821
 20
106.3291440953
 30
0.0
 11
166.2905825821
 21
106.3291440953
 31
0.0
  0
LINE
  5
CB
330
1F
100
AcDbEntity
  8
0
  6
HIDDEN
 62
     7
370
     0
100
AcDbLine
 10
133.8986497506
 20
133.2878337577
 30
0.0
 11
133.8986497506
 21
128.6791440953
 31
0.0
  0
LWPOLYLINE
  5
CC
330
1F
100
AcDbEntity
  8
0
  6
HIDDEN
 62
     7
370
     0
100
AcDbPolyline
 90
       21
 70
   128
 43
0.0
 10
131.1712755174
 20
122.0870497745
 10
131.2137237037
 20
121.9183917371
 10
131.2905825821
 20
121.2230847382
 10
131.2137237037
 20
120.5277777393
 10
130.9861007121
 20
119.8591909985
 10
130.6164610313
 20
119.2430179292
 10
130.1190097068
 20
118.7029377169
 10
129.5128635141
 20
118.2597053413
 10
128.8213163115
 20
117.9303539741
 10
128.0709438701
 20
117.7275404036
 10
127.2905825821
 20
117.6590586415
 10
126.510221294
 20
117.7275404036
 10
125.7598488526
 20
117.9303539741
 10
125.06830165
 20
118.2597053413
 10
124.4621554573
 20
118.7029377169
 10
123.9647041328
 20
119.2430179292
 10
123.595064452
 20
119.8591909985
 10
123.3674414604
 20
120.5277777393
 10
123.2905825821
 20
121.2230847382
 10
123.3674414604
 20
121.9183917371
 10
123.416379902
 20
122.1098728719
  0
LINE
  5
CD
330
1F
100
AcDbEntity
  8
0
  6
HIDDEN
 62
     7
370
     0
100
AcDbLine
 10
107.2857327866
 20
85.3045444725
 30
0.0
 11
107.0368679679
 21
85.281281506
 31
0.0
  0
LINE
  5
CE
330
1F
100
AcDbEntity
  8
0
  6
HIDDEN
 62
     7
370
     0
100
AcDbLine
 10
106.9043072067
 20
132.3892304236
 30
0.0
 11
107.2856400663
 21
132.3537271253
 31
0.0
  0
SPLINE
  5
CF
330
1F
100
AcDbEntity
  8
0
  6
HIDDEN
 62
     7
370
     0
100
AcDbSpline
210
0.0
220
0.0
230
1.0
 70
     8
 71
     3
 72
    15
 73
    11
 74
     0
 42
0.00000001
 43
0.00000001
 40
0.0
 40
0.0
 40
0.0
 40
0.0
 40
0.1100576356031887
 40
0.2208893620642086
 40
0.3341487654606238
 40
0.4482426184688524
 40
0.5583232144561896
 40
0.7821908958381419
 40
0.8962385964530019
 40
1.0
 40
1.0
 40
1.0
 40
1.0
 10
113.0455845836607
 20
128.6666725711579
 30
0.0
 10
113.1131785697413
 20
128.6757408252247
 30
0.0
 10
113.2488419644969
 20
128.6939411149628
 30
0.0
 10
113.4292873949182
 20
128.7146621706621
 30
0.0
 10
113.5914361469529
 20
128.7314018545565
 30
0.0
 10
113.7294873776217
 20
128.7439839718605
 30
0.0
 10
113.8811276830952
 20
128.7563627451744
 30
0.0
 10
113.9825758913368
 20
128.7633201952901
 30
0.0
 10
114.0339994964254
 20
128.7666174683945
 30
0.0
 10
114.0379545531836
 20
128.7668627831636
 30
0.0
 10
114.0398386904051
 20
128.7669796479056
 30
0.0
  0
SPLINE
  5
D0
330
1F
100
AcDbEntity
  8
0
  6
HIDDEN
 62
     7
370
     0
100
AcDbSpline
210
0.0
220
0.0
230
1.0
 70
     8
 71
     3
 72
    17
 73
    13
 74
     0
 42
0.00000001
 43
0.00000001
 40
0.0
 40
0.0
 40
0.0
 40
0.0
 40
0.0069255624480367
 40
0.1182732621588454
 40
0.2320350920627053
 40
0.3466316814562576
 40
0.4573553161897203
 40
0.5688514423927611
 40
0.6827917666188058
 40
0.7975817524182046
 40
0.8984932385589183
 40
1.0
 40
1.0
 40
1.0
 40
1.0
 10
114.0398328679065
 20
88.8913089105983
 30
0.0
 10
114.0400809205819
 20
88.89129324576649
 30
0.0
 10
114.0443171106861
 20
88.89102572514686
 30
0.0
 10
114.0283947533369
 20
88.89202275045822
 30
0.0
 10
113.9893826794191
 20
88.8945390633301
 30
0.0
 10
113.9209295250524
 20
88.89923673710746
 30
0.0
 10
113.8281778190481
 20
88.90618658715171
 30
0.0
 10
113.710886177057
 20
88.91591607616239
 30
0.0
 10
113.5680495542629
 20
88.92916308186794
 30
0.0
 10
113.4065001587064
 20
88.94615017069742
 30
0.0
 10
113.2326968190704
 20
88.96644281107558
 30
0.0
 10
113.1080774897348
 20
88.9832082486729
 30
0.0
 10
113.0455845836607
 20
88.99161561952495
 30
0.0
  0
SPLINE
  5
D1
330
1F
100
AcDbEntity
  8
0
  6
HIDDEN
 62
     7
370
     0
100
AcDbSpline
210
0.0
220
0.0
230
1.0
 70
     8
 71
     3
 72
    32
 73
    28
 74
     0
 42
0.00000001
 43
0.00000001
 40
0.0
 40
0.0
 40
0.0
 40
0.0
 40
0.0346246159901393
 40
0.0694870388940023
 40
0.105100760954932
 40
0.1409753874086758
 40
0.1756005721189328
 40
0.210469240812561
 40
0.2461122854708169
 40
0.2820258067991321
 40
0.3162663828049037
 40
0.3859338563640312
 40
0.4214461814158482
 40
0.4553763558770598
 40
0.5243713305904967
 40
0.5595124638219118
 40
0.593798734303577
 40
0.6635059787021123
 40
0.6990055363805018
 40
0.7337623601246063
 40
0.7687606633024604
 40
0.8045245907686109
 40
0.8405553812432468
 40
0.875170121130555
 40
0.9456085132854553
 40
0.9815233266320907
 40
1.0
 40
1.0
 40
1.0
 40
1.0
 10
113.0455845836607
 20
88.99161561952495
 30
0.0
 10
112.9735862818143
 20
89.00140356243327
 30
0.0
 10
112.8290951832811
 20
89.02104667326971
 30
0.0
 10
112.5877752490227
 20
89.05049589189143
 30
0.0
 10
112.328476998037
 20
89.07904627398185
 30
0.0
 10
112.0544895789044
 20
89.10547749293669
 30
0.0
 10
111.7698617978829
 20
89.12892997028798
 30
0.0
 10
111.4752768389147
 20
89.1489274267466
 30
0.0
 10
111.1683459299464
 20
89.16508310525035
 30
0.0
 10
110.8566144641939
 20
89.17652509294582
 30
0.0
 10
110.4393489155085
 20
89.18521622064368
 30
0.0
 10
110.0187059221509
 20
89.18392816418348
 30
0.0
 10
109.6053023689855
 20
89.17270035281601
 30
0.0
 10
109.2004584059182
 20
89.15540208073513
 30
0.0
 10
108.809820321356
 20
89.12968643696692
 30
0.0
 10
108.4410392433147
 20
89.09759312607001
 30
0.0
 10
108.0876214610663
 20
89.06203491756756
 30
0.0
 10
107.7621803707454
 20
89.02278646123196
 30
0.0
 10
107.4728031650281
 20
88.98315494385963
 30
0.0
 10
107.2748892880528
 20
88.95401920071738
 30
0.0
 10
107.0975623240153
 20
88.92628496840463
 30
0.0
 10
106.9409529955028
 20
88.90050442415024
 30
0.0
 10
106.8093054758001
 20
88.87789778741606
 30
0.0
 10
106.6674442802283
 20
88.8527117421094
 30
0.0
 10
106.5786256924127
 20
88.83626619298579
 30
0.0
 10
106.5418027538623
 20
88.82937336216962
 30
0.0
 10
106.5432189010355
 20
88.82963834807882
 30
0.0
 10
106.5436999632447
 20
88.82972836323353
 30
0.0
  0
SPLINE
  5
D2
330
1F
100
AcDbEntity
  8
0
  6
HIDDEN
 62
     7
370
     0
100
AcDbSpline
210
0.0
220
0.0
230
1.0
 70
     8
 71
     3
 72
    30
 73
    26
 74
     0
 42
0.00000001
 43
0.00000001
 40
0.0
 40
0.0
 40
0.0
 40
0.0
 40
0.0156161600804337
 40
0.0849748372628082
 40
0.1203204532886746
 40
0.15431851909124
 40
0.2234436946574013
 40
0.2586467089786606
 40
0.2931107206687011
 40
0.3631864361325603
 40
0.3988795186727328
 40
0.4336750628309723
 40
0.4687145712104809
 40
0.5045294144990544
 40
0.5406151111978532
 40
0.5750767863722916
 40
0.6452033649630275
 40
0.6809575734718859
 40
0.7149323277721685
 40
0.784033058295527
 40
0.8192378401372485
 40
0.8533347063218409
 40
0.9226550151093995
 40
0.9579547149334489
 40
1.0
 40
1.0
 40
1.0
 40
1.0
 10
106.5436999632447
 20
128.8285598274493
 30
0.0
 10
106.5431022241596
 20
128.828672080331
 30
0.0
 10
106.5398496459829
 20
128.8292829008083
 30
0.0
 10
106.5901705484313
 20
128.8198237663512
 30
0.0
 10
106.6904755774726
 20
128.801518930255
 30
0.0
 10
106.8250925655422
 20
128.7775356248813
 30
0.0
 10
107.0071512105723
 20
128.7464368307348
 30
0.0
 10
107.2340737842376
 20
128.7105176866924
 30
0.0
 10
107.490660189615
 20
128.6721986655534
 30
0.0
 10
107.7886968480877
 20
128.6319535302451
 30
0.0
 10
108.1212461020874
 20
128.5932925068428
 30
0.0
 10
108.3864438074917
 20
128.5658898481116
 30
0.0
 10
108.6655016327506
 20
128.5408450114994
 30
0.0
 10
108.9599526486448
 20
128.5186773142038
 30
0.0
 10
109.262817581961
 20
128.5005152269338
 30
0.0
 10
109.6732035688298
 20
128.4822571219395
 30
0.0
 10
110.0940444077846
 20
128.473409887935
 30
0.0
 10
110.5139483250135
 20
128.4748752823762
 30
0.0
 10
110.9285628458672
 20
128.4829186755435
 30
0.0
 10
111.3347839653431
 20
128.5004254611428
 30
0.0
 10
111.7243144650651
 20
128.5259907741707
 30
0.0
 10
112.1011351663034
 20
128.5561750098848
 30
0.0
 10
112.4542723260074
 20
128.5920725847323
 30
0.0
 10
112.796023813829
 20
128.6328908625909
 30
0.0
 10
112.9576975748386
 20
128.6547757761574
 30
0.0
 10
113.0455845836607
 20
128.6666725711579
 30
0.0
  0
LINE
  5
D3
330
1F
100
AcDbEntity
  8
0
  6
HIDDEN
 62
     7
370
     0
100
AcDbLine
 10
100.2945571783
 20
91.8291440953
 30
0.0
 11
100.2945571783
 21
125.8291440953
 31
0.0
  0
LWPOLYLINE
  5
D4
330
1F
100
AcDbEntity
  8
0
  6
HIDDEN
 62
     7
370
     0
100
AcDbPolyline
 90
       27
 70
   128
 43
0.0
 10
129.6749327456
 20
134.3805854105
 10
130.1190097068
 20
134.1889600724
 10
130.6164610313
 20
133.885886976
 10
130.9861007121
 20
133.5401133747
 10
131.2137237037
 20
133.164927154
 10
131.2905825821
 20
132.77474651
 10
131.2137237037
 20
132.3845658659
 10
130.9861007121
 20
132.0093796453
 10
130.6164610313
 20
131.6636060439
 10
130.1190097068
 20
131.3605329476
 10
129.5128635141
 20
131.1118072854
 10
128.8213163115
 20
130.926987445
 10
128.0709438701
 20
130.8131759492
 10
127.2905825821
 20
130.77474651
 10
126.510221294
 20
130.8131759492
 10
125.7598488526
 20
130.926987445
 10
125.06830165
 20
131.1118072854
 10
124.4621554573
 20
131.3605329476
 10
123.9647041328
 20
131.6636060439
 10
123.595064452
 20
132.0093796453
 10
123.3674414604
 20
132.3845658659
 10
123.2905825821
 20
132.77474651
 10
123.3674414604
 20
133.164927154
 10
123.595064452
 20
133.5401133747
 10
123.9647041328
 20
133.885886976
 10
124.4621554573
 20
134.1889600724
 10
124.9044506502
 20
134.3799236345
  0
SPLINE
  5
D5
330
1F
100
AcDbEntity
  8
0
  6
HIDDEN
 62
     7
370
     0
100
AcDbSpline
210
0.0
220
0.0
230
1.0
 70
     8
 71
     3
 72
    11
 73
     7
 74
     0
 42
0.00000001
 43
0.00000001
 40
0.0
 40
0.0
 40
0.0
 40
0.0
 40
0.0005779865010845
 40
0.0005779865010845
 40
0.0005779865010845
 40
0.0011559733324421
 40
0.0011559733324421
 40
0.0011559733324421
 40
0.0011559733324421
 10
87.39058258205912
 20
110.8289847034952
 30
0.0
 10
87.55724983686508
 20
110.8270010641542
 30
0.0
 10
87.72391626654274
 20
110.8249634571517
 30
0.0
 10
87.89058260499456
 20
110.8228519937452
 30
0.0
 10
88.05724903382097
 20
110.8207405291939
 30
0.0
 10
88.22391540745866
 20
110.8185549660376
 30
0.0
 10
88.39058258205911
 20
110.816272388706
 30
0.0
  0
SPLINE
  5
D6
330
1F
100
AcDbEntity
  8
0
  6
HIDDEN
 62
     7
370
     0
100
AcDbSpline
210
0.0
220
0.0
230
1.0
 70
     8
 71
     3
 72
     8
 73
     4
 74
     0
 42
0.00000001
 43
0.00000001
 40
0.0
 40
0.0
 40
0.0
 40
0.0
 40
0.0011564765856722
 40
0.0011564765856722
 40
0.0011564765856722
 40
0.0011564765856722
 10
88.3905825820591
 20
106.8324437931252
 30
0.0
 10
88.05727465149026
 20
106.8315686375419
 30
0.0
 10
87.72393941909806
 20
106.8305137862904
 30
0.0
 10
87.39058258205911
 20
106.8293426992528
 30
0.0
  0
LINE
  5
D7
330
1F
100
AcDbEntity
  8
0
  6
HIDDEN
 62
     7
370
     0
100
AcDbLine
 10
126.9504085506
 20
91.8291440953
 30
0.0
 11
126.9504085506
 21
125.8291440953
 31
0.0
  0
LINE
  5
D8
330
1F
100
AcDbEntity
  8
0
  6
HIDDEN
 62
     7
370
     0
100
AcDbLine
 10
129.2405825821
 20
93.1041440953
 30
0.0
 11
129.2405825821
 21
124.5541440945
 31
0.0
  0
SPLINE
  5
D9
330
1F
100
AcDbEntity
  8
0
  6
HIDDEN
 62
     7
370
     0
100
AcDbSpline
210
0.0
220
0.0
230
1.0
 70
     8
 71
     3
 72
    16
 73
    12
 74
     0
 42
0.00000001
 43
0.00000001
 40
0.0
 40
0.0
 40
0.0
 40
0.0
 40
0.124999999999998
 40
0.124999999999998
 40
0.249999999999996
 40
0.249999999999996
 40
0.4999999999999973
 40
0.4999999999999973
 40
0.7499999999999987
 40
0.7499999999999987
 40
1.0
 40
1.0
 40
1.0
 40
1.0
 10
96.0905825820591
 20
93.02765365930976
 30
0.0
 10
96.18570433672494
 20
93.02765365930976
 30
0.0
 10
96.279034405453
 20
93.02383782591696
 30
0.0
 10
96.46229616619101
 20
93.00906727318714
 30
0.0
 10
96.55317388174801
 20
92.99790922521156
 30
0.0
 10
96.80997557926776
 20
92.95543795506984
 30
0.0
 10
96.96504294413974
 20
92.91439175786705
 30
0.0
 10
97.21878940569437
 20
92.81924564128516
 30
0.0
 10
97.31965985736223
 20
92.76448290720357
 30
0.0
 10
97.45490627205706
 20
92.65322178329971
 30
0.0
 10
97.4905825820591
 20
92.59605204597102
 30
0.0
 10
97.4905825820591
 20
92.54163047293729
 30
0.0
  0
LINE
  5
DA
330
1F
100
AcDbEntity
  8
0
  6
HIDDEN
 62
     7
370
     0
100
AcDbLine
 10
88.5405825821
 20
93.0276536593
 30
0.0
 11
88.6216135954
 21
93.0276536593
 31
0.0
  0
LINE
  5
DB
330
1F
100
AcDbEntity
  8
0
  6
HIDDEN
 62
     7
370
     0
100
AcDbLine
 10
88.3905825821
 20
93.0880005537
 30
0.0
 11
88.5405825821
 21
93.0276536593
 31
0.0
  0
LINE
  5
DC
330
1F
100
AcDbEntity
  8
0
  6
HIDDEN
 62
     7
370
     0
100
AcDbLine
 10
88.3905825821
 20
94.3597907138
 30
0.0
 11
88.3905825821
 21
93.0880005537
 31
0.0
  0
SPLINE
  5
DD
330
1F
100
AcDbEntity
  8
0
  6
HIDDEN
 62
     7
370
     0
100
AcDbSpline
210
0.0
220
0.0
230
1.0
 70
     8
 71
     3
 72
     8
 73
     4
 74
     0
 42
0.00000001
 43
0.00000001
 40
0.0
 40
0.0
 40
0.0
 40
0.0
 40
1.0
 40
1.0
 40
1.0
 40
1.0
 10
88.69058258545293
 20
95.27525135545959
 30
0.0
 10
88.69058258545304
 20
94.93764215949983
 30
0.0
 10
88.57913096427902
 20
94.6350605434996
 30
0.0
 10
88.3905825820591
 20
94.35979071382394
 30
0.0
  0
LINE
  5
DE
330
1F
100
AcDbEntity
  8
0
  6
HIDDEN
 62
     7
370
     0
100
AcDbLine
 10
88.6905825855
 20
112.4337777169
 30
0.0
 11
88.6905825855
 21
95.2752513555
 31
0.0
  0
SPLINE
  5
DF
330
1F
100
AcDbEntity
  8
0
  6
HIDDEN
 62
     7
370
     0
100
AcDbSpline
210
0.0
220
0.0
230
1.0
 70
     8
 71
     3
 72
    10
 73
     6
 74
     0
 42
0.00000001
 43
0.00000001
 40
0.0
 40
0.0
 40
0.0
 40
0.0
 40
0.5
 40
0.5
 40
1.0
 40
1.0
 40
1.0
 40
1.0
 10
88.39058258205911
 20
123.2988197295894
 30
0.0
 10
88.48247351151203
 20
123.1609056526103
 30
0.0
 10
88.5583007408231
 20
123.0164191137294
 30
0.0
 10
88.66272184454009
 20
122.7119592279289
 30
0.0
 10
88.69058258545316
 20
122.5519012213856
 30
0.0
 10
88.69058258545293
 20
122.3830368352222
 30
0.0
  0
LINE
  5
E0
330
1F
100
AcDbEntity
  8
0
  6
HIDDEN
 62
     7
370
     0
100
AcDbLine
 10
88.3905825821
 20
124.570287637
 30
0.0
 11
88.3905825821
 21
123.2988197296
 31
0.0
  0
LINE
  5
E1
330
1F
100
AcDbEntity
  8
0
  6
HIDDEN
 62
     7
370
     0
100
AcDbLine
 10
88.5405825821
 20
124.6306345314
 30
0.0
 11
88.3905825821
 21
124.570287637
 31
0.0
  0
LINE
  5
E2
330
1F
100
AcDbEntity
  8
0
  6
HIDDEN
 62
     7
370
     0
100
AcDbLine
 10
88.6905825855
 20
124.6306345314
 30
0.0
 11
88.5405825821
 21
124.6306345314
 31
0.0
  0
SPLINE
  5
E3
330
1F
100
AcDbEntity
  8
0
  6
HIDDEN
 62
     7
370
     0
100
AcDbSpline
210
0.0
220
0.0
230
1.0
 70
     8
 71
     3
 72
    18
 73
    14
 74
     0
 42
0.00000001
 43
0.00000001
 40
0.0
 40
0.0
 40
0.0
 40
0.0
 40
0.2500000000000033
 40
0.2500000000000033
 40
0.3750000000000029
 40
0.3750000000000029
 40
0.5000000000000026
 40
0.5000000000000026
 40
0.6250000000000022
 40
0.6250000000000022
 40
0.7500000000000018
 40
0.7500000000000018
 40
1.0
 40
1.0
 40
1.0
 40
1.0
 10
93.49058258205912
 20
125.1166577177456
 30
0.0
 10
93.4905825820591
 20
125.0621831971934
 30
0.0
 10
93.45567189066692
 20
125.0058021378408
 30
0.0
 10
93.35366258933388
 20
124.9217252969874
 30
0.0
 10
93.31202623465576
 20
124.8943915929965
 30
0.0
 10
93.21362043916702
 20
124.8414376773975
 30
0.0
 10
93.15607722746275
 20
124.8155503236803
 30
0.0
 10
93.02877905388979
 20
124.767772778847
 30
0.0
 10
92.95919174913232
 20
124.7458248606691
 30
0.0
 10
92.80775750397737
 20
124.7063922957564
 30
0.0
 10
92.72507360088342
 20
124.6888360465306
 30
0.0
 10
92.46896213884537
 20
124.6463972811101
 30
0.0
 10
92.28104713495739
 20
124.6306345313731
 30
0.0
 10
92.0905825820591
 20
124.6306345313731
 30
0.0
  0
LINE
  5
E4
330
1F
100
AcDbEntity
  8
0
  6
HIDDEN
 62
     7
370
     0
100
AcDbLine
 10
92.0905825821
 20
124.6306345314
 30
0.0
 11
88.6905825855
 21
124.6306345314
 31
0.0
  0
LINE
  5
E5
330
1F
100
AcDbEntity
  8
0
  6
HIDDEN
 62
     7
370
     0
100
AcDbLine
 10
88.6216135954
 20
93.0276536593
 30
0.0
 11
96.0905825821
 21
93.0276536593
 31
0.0
  0
SPLINE
  5
E6
330
1F
100
AcDbEntity
  8
0
  6
HIDDEN
 62
     7
370
     0
100
AcDbSpline
210
0.0
220
0.0
230
1.0
 70
     8
 71
     3
 72
    22
 73
    18
 74
     0
 42
0.00000001
 43
0.00000001
 40
0.0
 40
0.0
 40
0.0
 40
0.0
 40
0.1249999999999998
 40
0.1249999999999998
 40
0.2499999999999995
 40
0.2499999999999995
 40
0.4999999999999992
 40
0.4999999999999992
 40
0.5624999999999993
 40
0.5624999999999993
 40
0.6249999999999994
 40
0.6249999999999994
 40
0.7499999999999996
 40
0.7499999999999996
 40
0.8749999999999998
 40
0.8749999999999998
 40
1.0
 40
1.0
 40
1.0
 40
1.0
 10
88.62161359541702
 20
93.02765365930976
 30
0.0
 10
88.60853120268867
 20
93.28275936945742
 30
0.0
 10
88.59531163924883
 20
93.57591762856134
 30
0.0
 10
88.57286446145471
 20
94.23821809418614
 30
0.0
 10
88.56338599443023
 20
94.60849201479752
 30
0.0
 10
88.54418803349368
 20
95.83104881791132
 30
0.0
 10
88.54530180649057
 20
96.76818774404317
 30
0.0
 10
88.56421259944365
 20
98.08805897355818
 30
0.0
 10
88.56884212730264
 20
98.3595608825345
 30
0.0
 10
88.57932334704861
 20
98.91794571733679
 30
0.0
 10
88.58511860833303
 20
99.20506857327639
 30
0.0
 10
88.60342782923797
 20
100.0776578276481
 30
0.0
 10
88.61746276351833
 20
100.6781135040039
 30
0.0
 10
88.64691993565513
 20
101.9155879965
 30
0.0
 10
88.66247562663672
 20
102.5526041531435
 30
0.0
 10
88.68627017663361
 20
103.864092750828
 30
0.0
 10
88.69428922877898
 20
104.5402153624885
 30
0.0
 10
88.6905825820591
 20
105.2245104737733
 30
0.0
  0
LINE
  5
E7
330
1F
100
AcDbEntity
  8
0
  6
HIDDEN
 62
     7
370
     0
100
AcDbLine
 10
88.6905825855
 20
112.4337777169
 30
0.0
 11
88.6905825855
 21
124.6306345314
 31
0.0
  0
SPLINE
  5
E8
330
1F
100
AcDbEntity
  8
0
  6
HIDDEN
 62
     7
370
     0
100
AcDbSpline
210
0.0
220
0.0
230
1.0
 70
     8
 71
     3
 72
    10
 73
     6
 74
     0
 42
0.00000001
 43
0.00000001
 40
0.0
 40
0.0
 40
0.0
 40
0.0
 40
0.5
 40
0.5
 40
1.0
 40
1.0
 40
1.0
 40
1.0
 10
88.6905825820591
 20
105.2245104737582
 30
0.0
 10
88.69058258205892
 20
105.4984256218326
 30
0.0
 10
88.6648233521912
 20
105.7693672005627
 30
0.0
 10
88.56161741945809
 20
106.3050582821655
 30
0.0
 10
88.48427925558286
 20
106.5708050856876
 30
0.0
 10
88.3905825820591
 20
106.8324437931251
 30
0.0
  0
SPLINE
  5
E9
330
1F
100
AcDbEntity
  8
0
  6
HIDDEN
 62
     7
370
     0
100
AcDbSpline
210
0.0
220
0.0
230
1.0
 70
     8
 71
     3
 72
    10
 73
     6
 74
     0
 42
0.00000001
 43
0.00000001
 40
0.0
 40
0.0
 40
0.0
 40
0.0
 40
0.5
 40
0.5
 40
1.0
 40
1.0
 40
1.0
 40
1.0
 10
88.3905825820591
 20
110.816272388706
 30
0.0
 10
88.48381316345011
 20
111.0801661967761
 30
0.0
 10
88.55884277568686
 20
111.3463465074143
 30
0.0
 10
88.663909874865
 20
111.8846690823725
 30
0.0
 10
88.6905825854512
 20
112.1574171986181
 30
0.0
 10
88.69058258545238
 20
112.4337777169085
 30
0.0
  0
LINE
  5
EA
330
1F
100
AcDbEntity
  8
0
  6
HIDDEN
 62
     7
370
     0
100
AcDbLine
 10
88.3905825821
 20
106.8324437931
 30
0.0
 11
88.3905825821
 21
110.8162723887
 31
0.0
  0
LINE
  5
EB
330
1F
100
AcDbEntity
  8
0
  6
HIDDEN
 62
     7
370
     0
100
AcDbLine
 10
88.5405825821
 20
90.8391440953
 30
0.0
 11
88.5405825821
 21
87.9592063299
 31
0.0
  0
LINE
  5
EC
330
1F
100
AcDbEntity
  8
0
  6
HIDDEN
 62
     7
370
     0
100
AcDbLine
 10
97.4905825821
 20
90.8391440953
 30
0.0
 11
97.4905825821
 21
86.8654065641
 31
0.0
  0
LINE
  5
ED
330
1F
100
AcDbEntity
  8
0
  6
HIDDEN
 62
     7
370
     0
100
AcDbLine
 10
88.5405825821
 20
126.8191440953
 30
0.0
 11
88.5405825821
 21
129.6990818607
 31
0.0
  0
LINE
  5
EE
330
1F
100
AcDbEntity
  8
0
  6
HIDDEN
 62
     7
370
     0
100
AcDbLine
 10
93.4905825821
 20
126.8191440953
 30
0.0
 11
93.4905825821
 21
130.6732517677
 31
0.0
  0
LINE
  5
EF
330
1F
100
AcDbEntity
  8
0
  6
HIDDEN
 62
     7
370
     0
100
AcDbLine
 10
138.0905825821
 20
99.3291440953
 30
0.0
 11
138.0905825821
 21
118.3291440953
 31
0.0
  0
LINE
  5
F0
330
1F
100
AcDbEntity
  8
0
  6
HIDDEN
 62
     7
370
     0
100
AcDbLine
 10
141.0905825821
 20
99.3291440953
 30
0.0
 11
141.0905825821
 21
118.3291440953
 31
0.0
  0
LINE
  5
F1
330
1F
100
AcDbEntity
  8
0
  6
HIDDEN
 62
     7
370
     0
100
AcDbLine
 10
129.7405825821
 20
100.3291440953
 30
0.0
 11
129.7405825821
 21
117.3291440953
 31
0.0
  0
LINE
  5
F2
330
1F
100
AcDbEntity
  8
0
  6
HIDDEN
 62
     7
370
     0
100
AcDbLine
 10
135.4782573844
 20
82.4291440953
 30
0.0
 11
132.2405825821
 21
82.4291440953
 31
0.0
  0
LINE
  5
F3
330
1F
100
AcDbEntity
  8
0
  6
HIDDEN
 62
     7
370
     0
100
AcDbLine
 10
145.2405825821
 20
82.4291440953
 30
0.0
 11
139.1029077797
 21
82.4291440953
 31
0.0
  0
LINE
  5
F4
330
1F
100
AcDbEntity
  8
0
  6
HIDDEN
 62
     7
370
     0
100
AcDbLine
 10
124.2405825821
 20
77.3450211125
 30
0.0
 11
124.2405825821
 21
82.4291440953
 31
0.0
  0
LINE
  5
F5
330
1F
100
AcDbEntity
  8
0
  6
HIDDEN
 62
     7
370
     0
100
AcDbLine
 10
132.2405825821
 20
82.4291440953
 30
0.0
 11
124.2405825821
 21
82.4291440953
 31
0.0
  0
LINE
  5
F6
330
1F
100
AcDbEntity
  8
0
  6
HIDDEN
 62
     7
370
     0
100
AcDbLine
 10
132.2405825821
 20
135.2291440953
 30
0.0
 11
124.2405825821
 21
135.2291440953
 31
0.0
  0
LINE
  5
F7
330
1F
100
AcDbEntity
  8
0
  6
HIDDEN
 62
     7
370
     0
100
AcDbLine
 10
145.2405825821
 20
135.2291440953
 30
0.0
 11
138.8062850504
 21
135.2291440953
 31
0.0
  0
LINE
  5
F8
330
1F
100
AcDbEntity
  8
0
  6
HIDDEN
 62
     7
370
     0
100
AcDbLine
 10
135.7748801138
 20
135.2291440953
 30
0.0
 11
132.2405825821
 21
135.2291440953
 31
0.0
  0
SPLINE
  5
F9
330
1F
100
AcDbEntity
  8
0
  6
HIDDEN
 62
     7
370
     0
100
AcDbSpline
210
0.0
220
0.0
230
1.0
 70
     8
 71
     3
 72
    11
 73
     7
 74
     0
 42
0.00000001
 43
0.00000001
 40
0.0
 40
0.0
 40
0.0
 40
0.0
 40
0.0008203708524183
 40
0.0008203708524183
 40
0.0008203708524183
 40
0.0016409967870154
 40
0.0016409967870154
 40
0.0016409967870154
 40
0.0016409967870154
 10
88.5405825820591
 20
92.97711134469868
 30
0.0
 10
88.34942428176045
 20
92.93593231607954
 30
0.0
 10
88.15799721168827
 20
92.89717834384956
 30
0.0
 10
87.96635158816764
 20
92.860810584571
 30
0.0
 10
87.77464618308719
 20
92.82443148080498
 30
0.0
 10
87.58270723102822
 20
92.79043723003743
 30
0.0
 10
87.39058258395741
 20
92.75878910464621
 30
0.0
  0
ELLIPSE
  5
FA
330
1F
100
AcDbEntity
  8
0
  6
HIDDEN
 62
     7
370
     0
100
AcDbEllipse
 10
83.1481507135
 20
108.8291440953
 30
0.0
 11
20.19992453366628
 21
-1.421085471520200E-14
 31
0.0
210
0.0
220
0.0
230
1.0
 40
0.8164965809
 41
1.300566354718001
 42
1.359198697209604
  0
LINE
  5
FB
330
1F
100
AcDbEntity
  8
0
  6
HIDDEN
 62
     7
370
     0
100
AcDbLine
 10
205.7905825821
 20
102.8291440953
 30
0.0
 11
205.7905825821
 21
114.8291440953
 31
0.0
  0
LINE
  5
FC
330
1F
100
AcDbEntity
  8
0
  6
HIDDEN
 62
     7
370
     0
100
AcDbLine
 10
162.7905825821
 20
102.9291440953
 30
0.0
 11
162.7905825821
 21
114.729143891
 31
0.0
  0
LINE
  5
FD
330
1F
100
AcDbEntity
  8
0
  6
HIDDEN
 62
     7
370
     0
100
AcDbLine
 10
173.2905825821
 20
102.8291440953
 30
0.0
 11
173.2905825821
 21
114.8291440953
 31
0.0
  0
LINE
  5
FE
330
1F
100
AcDbEntity
  8
0
  6
HIDDEN
 62
     7
370
     0
100
AcDbLine
 10
97.4905825821
 20
90.8391440953
 30
0.0
 11
97.4905825821
 21
92.5416304729
 31
0.0
  0
LINE
  5
FF
330
1F
100
AcDbEntity
  8
0
  6
HIDDEN
 62
     7
370
     0
100
AcDbLine
 10
88.5405825821
 20
90.8391440953
 30
0.0
 11
88.5405825821
 21
92.9771113447
 31
0.0
  0
LINE
  5
100
330
1F
100
AcDbEntity
  8
0
  6
HIDDEN
 62
     7
370
     0
100
AcDbLine
 10
88.6216135954
 20
93.0276536593
 30
0.0
 11
88.5405825821
 21
92.9771113447
 31
0.0
  0
LINE
  5
101
330
1F
100
AcDbEntity
  8
0
  6
HIDDEN
 62
     7
370
     0
100
AcDbLine
 10
88.5405825821
 20
126.8191440953
 30
0.0
 11
88.5405825821
 21
124.7237685464
 31
0.0
  0
SPLINE
  5
102
330
1F
100
AcDbEntity
  8
0
  6
HIDDEN
 62
     7
370
     0
100
AcDbSpline
210
0.0
220
0.0
230
1.0
 70
     8
 71
     3
 72
     8
 73
     4
 74
     0
 42
0.00000001
 43
0.00000001
 40
0.0
 40
0.0
 40
0.0
 40
0.0
 40
1.0
 40
1.0
 40
1.0
 40
1.0
 10
88.5405825820591
 20
124.7237685464001
 30
0.0
 10
88.59058808100283
 20
124.6927327721809
 30
0.0
 10
88.64058815166726
 20
124.6616881271534
 30
0.0
 10
88.69058258545238
 20
124.6306345313731
 30
0.0
  0
LINE
  5
103
330
1F
100
AcDbEntity
  8
0
  6
HIDDEN
 62
     7
370
     0
100
AcDbLine
 10
93.4905825821
 20
126.8191440953
 30
0.0
 11
93.4905825821
 21
125.1166577177
 31
0.0
  0
SPLINE
  5
104
330
1F
100
AcDbEntity
  8
0
  6
HIDDEN
 62
     7
370
     0
100
AcDbSpline
210
0.0
220
0.0
230
1.0
 70
     8
 71
     3
 72
    20
 73
    16
 74
     0
 42
0.00000001
 43
0.00000001
 40
0.0
 40
0.0
 40
0.0
 40
0.0
 40
0.1118786265049743
 40
0.1773979209782918
 40
0.2490195883149203
 40
0.3297681582649938
 40
0.398540661747315
 40
0.4998205511014719
 40
0.6137858459097115
 40
0.6789518740049469
 40
0.7494784841685466
 40
0.829624566858395
 40
0.8980683432783392
 40
0.9994789065239679
 40
1.0
 40
1.0
 40
1.0
 40
1.0
 10
114.0392505121769
 20
85.22919639746193
 30
0.0
 10
113.9959510371475
 20
85.24261735973474
 30
0.0
 10
113.9272941623749
 20
85.26389801788277
 30
0.0
 10
113.4822389593504
 20
85.36717949199085
 30
0.0
 10
112.9556872508965
 20
85.48048133752428
 30
0.0
 10
112.2702602734418
 20
85.60341461807555
 30
0.0
 10
111.3769433783686
 20
85.72544896818565
 30
0.0
 10
110.2635838454141
 20
85.84318532534239
 30
0.0
 10
109.152809645727
 20
85.85516078173715
 30
0.0
 10
108.2680617560967
 20
85.82810257352064
 30
0.0
 10
107.6008636307766
 20
85.78017021799911
 30
0.0
 10
107.0595974067849
 20
85.7238778962443
 30
0.0
 10
106.6719935823028
 20
85.67879046070098
 30
0.0
 10
106.4780772553142
 20
85.63992045893208
 30
0.0
 10
106.541243545535
 20
85.65063796255028
 30
0.0
 10
106.5415664632899
 20
85.65069275241041
 30
0.0
  0
LINE
  5
105
330
1F
100
AcDbEntity
  8
0
  6
HIDDEN
 62
     7
370
     0
100
AcDbLine
 10
107.4505944944
 20
85.7614822388
 30
0.0
 11
107.6344398076
 21
85.7796715813
 31
0.0
  0
SPLINE
  5
106
330
1F
100
AcDbEntity
  8
0
  6
HIDDEN
 62
     7
370
     0
100
AcDbSpline
210
0.0
220
0.0
230
1.0
 70
     8
 71
     3
 72
    27
 73
    23
 74
     0
 42
0.00000001
 43
0.00000001
 40
0.0
 40
0.0
 40
0.0
 40
0.0
 40
0.0007986999129755
 40
0.0456811098062206
 40
0.1022626474327435
 40
0.1705405831873291
 40
0.2091321680402227
 40
0.2506593131535931
 40
0.3211049311521734
 40
0.3861985183258232
 40
0.4266775765746998
 40
0.4648087432206025
 40
0.5006129789986397
 40
0.5452046424632403
 40
0.6016987708532744
 40
0.6701045909406717
 40
0.7088418334435883
 40
0.7505704846124637
 40
0.8222349079646762
 40
0.8877741844866202
 40
0.9472478050798236
 40
1.0
 40
1.0
 40
1.0
 40
1.0
 10
106.5412430292134
 20
132.0075599673142
 30
0.0
 10
106.5410234437727
 20
132.0076073018276
 30
0.0
 10
106.528464400677
 20
132.0103145678115
 30
0.0
 10
106.577543985372
 20
131.9984818991144
 30
0.0
 10
106.7226446223797
 20
131.9750385903829
 30
0.0
 10
106.9956979811107
 20
131.9411341665144
 30
0.0
 10
107.3242242695037
 20
131.9075654137022
 30
0.0
 10
107.7169520854148
 20
131.8693820634895
 30
0.0
 10
108.2666800387215
 20
131.8304133959835
 30
0.0
 10
108.8927026898034
 20
131.8109522902366
 30
0.0
 10
109.4358941992902
 20
131.8087666126141
 30
0.0
 10
109.8809630963364
 20
131.8172814937523
 30
0.0
 10
110.3474108926936
 20
131.8370648906769
 30
0.0
 10
110.8846515421006
 20
131.8812272762525
 30
0.0
 10
111.5328649715471
 20
131.953642895929
 30
0.0
 10
112.1184036068344
 20
132.034544990451
 30
0.0
 10
112.5993732086256
 20
132.1127109756993
 30
0.0
 10
113.0447881600086
 20
132.1974831285534
 30
0.0
 10
113.4832875337044
 20
132.2912660830229
 30
0.0
 10
113.8223140483196
 20
132.3691701687687
 30
0.0
 10
114.0096638673189
 20
132.4193642345673
 30
0.0
 10
114.0301541216645
 20
132.426030950121
 30
0.0
 10
114.0397856479427
 20
132.4291646665192
 30
0.0
  0
ELLIPSE
  5
107
330
1F
100
AcDbEntity
  8
0
  6
HIDDEN
 62
     7
370
     0
100
AcDbEllipse
 10
83.2981507177
 20
108.8291440953
 30
0.0
 11
19.9401169077032
 21
-1.421085471520200E-14
 31
0.0
210
0.0
220
0.0
230
1.0
 40
0.8164965809
 41
1.312549137476568
 42
1.364091388456586
  0
LINE
  5
108
330
1F
100
AcDbEntity
  8
0
  6
HIDDEN
 62
     7
370
     0
100
AcDbLine
 10
88.5405825821
 20
124.7237685464
 30
0.0
 11
88.5405825821
 21
124.6306345314
 31
0.0
  0
LINE
  5
109
330
1F
100
AcDbEntity
  8
0
  6
HIDDEN
 62
     7
370
     0
100
AcDbLine
 10
88.5405825821
 20
92.9771113447
 30
0.0
 11
88.5405825821
 21
93.0276536593
 31
0.0
  0
ELLIPSE
  5
10A
330
1F
100
AcDbEntity
  8
0
  6
HIDDEN
 62
     7
370
     0
100
AcDbEllipse
 10
83.2981507177
 20
108.8291440953
 30
0.0
 11
19.9401169077032
 21
-1.421085471520200E-14
 31
0.0
210
0.0
220
0.0
230
1.0
 40
0.8164965809
 41
4.919093918723013
 42
4.970636169703032
  0
LWPOLYLINE
  5
10B
330
1F
100
AcDbEntity
  8
0
  6
HIDDEN
 62
     7
370
     0
100
AcDbPolyline
 90
        3
 70
   128
 43
0.0
 10
87.3905825821
 20
123.8217863487
 10
87.8905928177
 20
123.5603106655
 10
88.3905825821
 20
123.2988197296
  0
SPLINE
  5
10C
330
1F
100
AcDbEntity
  8
0
  6
HIDDEN
 62
     7
370
     0
100
AcDbSpline
210
0.0
220
0.0
230
1.0
 70
     8
 71
     3
 72
    11
 73
     7
 74
     0
 42
0.00000001
 43
0.00000001
 40
0.0
 40
0.0
 40
0.0
 40
0.0
 40
0.00057812925479
 40
0.00057812925479
 40
0.00057812925479
 40
0.0011562593522365
 40
0.0011562593522365
 40
0.0011562593522365
 40
0.0011562593522365
 10
88.3905825820591
 20
94.35979071382394
 30
0.0
 10
88.2239344181186
 20
94.27243770779518
 30
0.0
 10
88.05727661121203
 20
94.1851495311585
 30
0.0
 10
87.89060986239217
 20
94.0979250690917
 30
0.0
 10
87.72394287007457
 20
94.01070047959124
 30
0.0
 10
87.55726687413392
 20
93.92353959006448
 30
0.0
 10
87.39058258205908
 20
93.8364407379274
 30
0.0
  0
LINE
  5
10D
330
1F
100
AcDbEntity
  8
0
  6
HIDDEN
 62
     7
370
     0
100
AcDbLine
 10
135.3805825821
 20
128.9650107268
 30
0.0
 11
135.3805825821
 21
128.6791440953
 31
0.0
  0
LINE
  5
10E
330
1F
100
AcDbEntity
  8
0
  6
HIDDEN
 62
     7
370
     0
100
AcDbLine
 10
139.2005825821
 20
128.9650107268
 30
0.0
 11
139.2005825821
 21
128.6791440953
 31
0.0
  0
LINE
  5
10F
330
1F
100
AcDbEntity
  8
0
  6
HIDDEN
 62
     7
370
     0
100
AcDbLine
 10
140.6825154135
 20
133.2878337577
 30
0.0
 11
140.6825154135
 21
128.6791440953
 31
0.0
  0
CIRCLE
  5
110
330
1F
100
AcDbEntity
  8
0
  6
HIDDEN
 62
     7
370
     0
100
AcDbCircle
 10
126.2905825821
 20
108.8291440953
 30
0.0
 40
5.0
  0
LINE
  5
111
330
1F
100
AcDbEntity
  8
0
  6
HIDDEN
 62
     7
370
     0
100
AcDbLine
 10
162.2905825821
 20
103.8291440953
 30
0.0
 11
162.7905825821
 21
104.3291440953
 31
0.0
  0
LINE
  5
112
330
1F
100
AcDbEntity
  8
0
  6
HIDDEN
 62
     7
370
     0
100
AcDbLine
 10
162.7905825821
 20
113.3291440953
 30
0.0
 11
162.2905825821
 21
113.8291440953
 31
0.0
  0
LINE
  5
113
330
1F
100
AcDbEntity
  8
0
  6
HIDDEN
 62
     7
370
     0
100
AcDbLine
 10
146.7905825821
 20
103.8291440953
 30
0.0
 11
162.2905825821
 21
103.8291440953
 31
0.0
  0
LINE
  5
114
330
1F
100
AcDbEntity
  8
0
  6
HIDDEN
 62
     7
370
     0
100
AcDbLine
 10
162.2905825821
 20
113.8291440953
 30
0.0
 11
146.7905825821
 21
113.8291440953
 31
0.0
  0
LINE
  5
115
330
1F
100
AcDbEntity
  8
0
  6
HIDDEN
 62
     7
370
     0
100
AcDbLine
 10
146.7905825821
 20
113.8291440953
 30
0.0
 11
146.2905825821
 21
113.3291440953
 31
0.0
  0
LINE
  5
116
330
1F
100
AcDbEntity
  8
0
  6
HIDDEN
 62
     7
370
     0
100
AcDbLine
 10
146.2905825821
 20
104.3291440953
 30
0.0
 11
146.7905825821
 21
103.8291440953
 31
0.0
  0
LINE
  5
117
330
1F
100
AcDbEntity
  8
0
  6
HIDDEN
 62
     7
370
     0
100
AcDbLine
 10
162.7905825821
 20
104.3291440953
 30
0.0
 11
166.2905825821
 21
104.3291440953
 31
0.0
  0
LINE
  5
118
330
1F
100
AcDbEntity
  8
0
  6
HIDDEN
 62
     7
370
     0
100
AcDbLine
 10
166.2905825821
 20
113.3291440953
 30
0.0
 11
162.7905825821
 21
113.3291440953
 31
0.0
  0
LINE
  5
119
330
1F
100
AcDbEntity
  8
0
  6
HIDDEN
 62
     7
370
     0
100
AcDbLine
 10
152.290582582
 20
106.3291440953
 30
0.0
 11
160.2905825821
 21
106.3291440953
 31
0.0
  0
LINE
  5
11A
330
1F
100
AcDbEntity
  8
0
  6
HIDDEN
 62
     7
370
     0
100
AcDbLine
 10
160.2905825821
 20
111.3291440953
 30
0.0
 11
152.290582582
 21
111.3291440953
 31
0.0
  0
LINE
  5
11B
330
1F
100
AcDbEntity
  8
0
  6
HIDDEN
 62
     7
370
     0
100
AcDbLine
 10
131.2905825821
 20
121.2230847382
 30
0.0
 11
131.2905825821
 21
123.1291634174
 31
0.0
  0
LINE
  5
11C
330
1F
100
AcDbEntity
  8
0
  6
HIDDEN
 62
     7
370
     0
100
AcDbLine
 10
123.2905825821
 20
123.1298448371
 30
0.0
 11
123.2905825821
 21
121.2230847382
 31
0.0
  0
LINE
  5
11D
330
1F
100
AcDbEntity
  8
0
  6
HIDDEN
 62
     7
370
     0
100
AcDbLine
 10
119.2905825821
 20
83.5052129494
 30
0.0
 11
119.3847433576
 21
84.1752016806
 31
0.0
  0
LINE
  5
11E
330
1F
100
AcDbEntity
  8
0
  6
HIDDEN
 62
     7
370
     0
100
AcDbLine
 10
119.3847433576
 20
133.4830865101
 30
0.0
 11
119.2905825821
 21
134.1530752413
 31
0.0
  0
ARC
  5
11F
330
1F
100
AcDbEntity
  8
0
  6
HIDDEN
 62
     7
370
     0
100
AcDbCircle
 10
118.7905758294
 20
84.258706481
 30
0.0
 40
0.6000067526677242
100
AcDbArc
 50
352.0
 51
0.0
  0
ARC
  5
120
330
1F
100
AcDbEntity
  8
0
  6
HIDDEN
 62
     7
370
     0
100
AcDbCircle
 10
118.7905758294
 20
84.258706481
 30
0.0
 40
0.6000067526677242
100
AcDbArc
 50
0.0
 51
33.5571153394
  0
ARC
  5
121
330
1F
100
AcDbEntity
  8
0
  6
HIDDEN
 62
     7
370
     0
100
AcDbCircle
 10
118.7905758294
 20
133.3995817097
 30
0.0
 40
0.6000067526677262
100
AcDbArc
 50
348.75
 51
8.0
  0
LWPOLYLINE
  5
122
330
1F
100
AcDbEntity
  8
0
  6
HIDDEN
 62
     7
370
     0
100
AcDbPolyline
 90
        3
 70
   128
 43
0.0
 10
119.3790536206
 20
133.2825261991
 10
119.3449097875
 20
133.1699690662
 10
119.2905825821
 20
133.0679171947
  0
LINE
  5
123
330
1F
100
AcDbEntity
  8
0
  6
HIDDEN
 62
     7
370
     0
100
AcDbLine
 10
119.3905825821
 20
84.258706481
 30
0.0
 11
119.3905825821
 21
133.3995817097
 31
0.0
  0
ARC
  5
124
330
1F
100
AcDbEntity
  8
0
  6
HIDDEN
 62
     7
370
     0
100
AcDbCircle
 10
113.0455845837
 20
96.8291440953
 30
0.0
 40
7.999999999999991
100
AcDbArc
 50
277.130298537
 51
321.3178125465
  0
ARC
  5
125
330
1F
100
AcDbEntity
  8
0
  6
HIDDEN
 62
     7
370
     0
100
AcDbCircle
 10
113.0455845837
 20
120.8291440953
 30
0.0
 40
7.999999999999983
100
AcDbArc
 50
38.6821874535
 51
82.8514228101
  0
ARC
  5
126
330
1F
100
AcDbEntity
  8
0
  6
HIDDEN
 62
     7
370
     0
100
AcDbCircle
 10
102.3730181474
 20
89.4291440953
 30
0.0
 40
0.5999999999999962
100
AcDbArc
 50
210.0
 51
270.0
  0
ARC
  5
127
330
1F
100
AcDbEntity
  8
0
  6
HIDDEN
 62
     7
370
     0
100
AcDbCircle
 10
102.3730181474
 20
128.2291440953
 30
0.0
 40
0.6000000000000032
100
AcDbArc
 50
90.0
 51
150.0
  0
LINE
  5
128
330
1F
100
AcDbEntity
  8
0
  6
HIDDEN
 62
     7
370
     0
100
AcDbLine
 10
102.3730181474
 20
88.8291440953
 30
0.0
 11
106.5436999632
 21
88.8291440953
 31
0.0
  0
LINE
  5
129
330
1F
100
AcDbEntity
  8
0
  6
HIDDEN
 62
     7
370
     0
100
AcDbLine
 10
106.5436999632
 20
128.8291440953
 30
0.0
 11
102.3730181474
 21
128.8291440953
 31
0.0
  0
LINE
  5
12A
330
1F
100
AcDbEntity
  8
0
  6
HIDDEN
 62
     7
370
     0
100
AcDbLine
 10
101.8534029051
 20
128.5291440953
 30
0.0
 11
100.2945571783
 21
125.8291440953
 31
0.0
  0
LINE
  5
12B
330
1F
100
AcDbEntity
  8
0
  6
HIDDEN
 62
     7
370
     0
100
AcDbLine
 10
100.2945571783
 20
91.8291440953
 30
0.0
 11
101.8534029051
 21
89.1291440953
 31
0.0
  0
LINE
  5
12C
330
1F
100
AcDbEntity
  8
0
  6
HIDDEN
 62
     7
370
     0
100
AcDbLine
 10
131.2905825821
 20
132.77474651
 30
0.0
 11
131.2905825821
 21
136.1076444486
 31
0.0
  0
LINE
  5
12D
330
1F
100
AcDbEntity
  8
0
  6
HIDDEN
 62
     7
370
     0
100
AcDbLine
 10
123.2905825821
 20
136.1089443146
 30
0.0
 11
123.2905825821
 21
132.77474651
 31
0.0
  0
ARC
  5
12E
330
1F
100
AcDbEntity
  8
0
  6
HIDDEN
 62
     7
370
     0
100
AcDbCircle
 10
127.7405825821
 20
93.1041440953
 30
0.0
 40
1.500000000000004
100
AcDbArc
 50
238.2116693829
 51
0.0
  0
ARC
  5
12F
330
1F
100
AcDbEntity
  8
0
  6
HIDDEN
 62
     7
370
     0
100
AcDbCircle
 10
127.7405825821
 20
124.5541440953
 30
0.0
 40
1.500000000000004
100
AcDbArc
 50
0.0
 51
121.7883306171
  0
LINE
  5
130
330
1F
100
AcDbEntity
  8
0
  6
HIDDEN
 62
     7
370
     0
100
AcDbLine
 10
97.4905825821
 20
91.8291440953
 30
0.0
 11
100.2945571783
 21
91.8291440953
 31
0.0
  0
LINE
  5
131
330
1F
100
AcDbEntity
  8
0
  6
HIDDEN
 62
     7
370
     0
100
AcDbLine
 10
100.2945571783
 20
125.8291440953
 30
0.0
 11
93.4905825821
 21
125.8291440953
 31
0.0
  0
LINE
  5
132
330
1F
100
AcDbEntity
  8
0
  6
HIDDEN
 62
     7
370
     0
100
AcDbLine
 10
119.2905825821
 20
91.8291440953
 30
0.0
 11
126.9504085506
 21
91.8291440953
 31
0.0
  0
LINE
  5
133
330
1F
100
AcDbEntity
  8
0
  6
HIDDEN
 62
     7
370
     0
100
AcDbLine
 10
126.9504085506
 20
125.8291440953
 30
0.0
 11
119.2905825821
 21
125.8291440953
 31
0.0
  0
LINE
  5
134
330
1F
100
AcDbEntity
  8
0
  6
HIDDEN
 62
     7
370
     0
100
AcDbLine
 10
138.0905825821
 20
99.3291440953
 30
0.0
 11
141.0905825821
 21
99.3291440953
 31
0.0
  0
LINE
  5
135
330
1F
100
AcDbEntity
  8
0
  6
HIDDEN
 62
     7
370
     0
100
AcDbLine
 10
141.0905825821
 20
118.3291440953
 30
0.0
 11
138.0905825821
 21
118.3291440953
 31
0.0
  0
LINE
  5
136
330
1F
100
AcDbEntity
  8
0
  6
HIDDEN
 62
     7
370
     0
100
AcDbLine
 10
129.2405825821
 20
99.8291440953
 30
0.0
 11
129.7405825821
 21
100.3291440953
 31
0.0
  0
LINE
  5
137
330
1F
100
AcDbEntity
  8
0
  6
HIDDEN
 62
     7
370
     0
100
AcDbLine
 10
129.7405825821
 20
117.3291440953
 30
0.0
 11
129.2405825821
 21
117.8291440953
 31
0.0
  0
LINE
  5
138
330
1F
100
AcDbEntity
  8
0
  6
HIDDEN
 62
     7
370
     0
100
AcDbLine
 10
129.7405825821
 20
100.3291440953
 30
0.0
 11
138.0905825821
 21
100.3291440953
 31
0.0
  0
LINE
  5
139
330
1F
100
AcDbEntity
  8
0
  6
HIDDEN
 62
     7
370
     0
100
AcDbLine
 10
138.0905825821
 20
117.3291440953
 30
0.0
 11
129.7405825821
 21
117.3291440953
 31
0.0
  0
LINE
  5
13A
330
1F
100
AcDbEntity
  8
0
  6
HIDDEN
 62
     7
370
     0
100
AcDbLine
 10
124.2405825821
 20
140.3291440953
 30
0.0
 11
124.2405825821
 21
135.2291440953
 31
0.0
  0
ARC
  5
13B
330
1F
100
AcDbEntity
  8
0
  6
HIDDEN
 62
     7
370
     0
100
AcDbCircle
 10
208.7905825821
 20
101.7924498473
 30
0.0
 40
0.5
100
AcDbArc
 50
0.0
 51
80.0
  0
ARC
  5
13C
330
1F
100
AcDbEntity
  8
0
  6
HIDDEN
 62
     7
370
     0
100
AcDbCircle
 10
208.7905825821
 20
115.8658383434
 30
0.0
 40
0.5
100
AcDbArc
 50
280.0
 51
0.0
  0
LINE
  5
13D
330
1F
100
AcDbEntity
  8
0
  6
HIDDEN
 62
     7
370
     0
100
AcDbLine
 10
208.8774066709
 20
115.3734344669
 30
0.0
 11
205.7905825821
 21
114.8291440953
 31
0.0
  0
LINE
  5
13E
330
1F
100
AcDbEntity
  8
0
  6
HIDDEN
 62
     7
370
     0
100
AcDbLine
 10
205.7905825821
 20
102.8291440953
 30
0.0
 11
208.8774066709
 21
102.2848537238
 31
0.0
  0
ARC
  5
13F
330
1F
100
AcDbEntity
  8
0
  6
HIDDEN
 62
     7
370
     0
100
AcDbCircle
 10
163.1905825821
 20
102.9291440953
 30
0.0
 40
0.4000000000000341
100
AcDbArc
 50
180.0
 51
270.0
  0
ARC
  5
140
330
1F
100
AcDbEntity
  8
0
  6
HIDDEN
 62
     7
370
     0
100
AcDbCircle
 10
163.1905825821
 20
114.7291440953
 30
0.0
 40
0.4000000000000341
100
AcDbArc
 50
90.0
 51
180.0
  0
LINE
  5
141
330
1F
100
AcDbEntity
  8
0
  6
HIDDEN
 62
     7
370
     0
100
AcDbLine
 10
163.1905825821
 20
102.5291440953
 30
0.0
 11
172.3958085639
 21
102.5291440953
 31
0.0
  0
LINE
  5
142
330
1F
100
AcDbEntity
  8
0
  6
HIDDEN
 62
     7
370
     0
100
AcDbLine
 10
172.3958085639
 20
115.1291440953
 30
0.0
 11
163.1905825821
 21
115.1291440953
 31
0.0
  0
ARC
  5
143
330
1F
100
AcDbEntity
  8
0
  6
HIDDEN
 62
     7
370
     0
100
AcDbCircle
 10
172.3958085639
 20
102.9291440953
 30
0.0
 40
0.4000000000000074
100
AcDbArc
 50
270.0
 51
290.0
  0
ARC
  5
144
330
1F
100
AcDbEntity
  8
0
  6
HIDDEN
 62
     7
370
     0
100
AcDbCircle
 10
172.3958085639
 20
114.7291440953
 30
0.0
 40
0.4000000000000074
100
AcDbArc
 50
70.0
 51
90.0
  0
LINE
  5
145
330
1F
100
AcDbEntity
  8
0
  6
HIDDEN
 62
     7
370
     0
100
AcDbLine
 10
172.5326166213
 20
102.553267047
 30
0.0
 11
173.2905825821
 21
102.8291440953
 31
0.0
  0
LINE
  5
146
330
1F
100
AcDbEntity
  8
0
  6
HIDDEN
 62
     7
370
     0
100
AcDbLine
 10
173.2905825821
 20
114.8291440953
 30
0.0
 11
172.5326166213
 21
115.1050211437
 31
0.0
  0
LINE
  5
147
330
1F
100
AcDbEntity
  8
0
  6
HIDDEN
 62
     7
370
     0
100
AcDbLine
 10
173.2905825821
 20
102.8291440953
 30
0.0
 11
205.7905825821
 21
102.8291440953
 31
0.0
  0
LINE
  5
148
330
1F
100
AcDbEntity
  8
0
  6
HIDDEN
 62
     7
370
     0
100
AcDbLine
 10
205.7905825821
 20
114.8291440953
 30
0.0
 11
173.2905825821
 21
114.8291440953
 31
0.0
  0
LINE
  5
149
330
1F
100
AcDbEntity
  8
0
  6
HIDDEN
 62
     7
370
     0
100
AcDbLine
 10
162.7905825821
 20
113.8291440953
 30
0.0
 11
162.2905825821
 21
113.3291440953
 31
0.0
  0
LINE
  5
14A
330
1F
100
AcDbEntity
  8
0
  6
HIDDEN
 62
     7
370
     0
100
AcDbLine
 10
162.2905825821
 20
104.3291440953
 30
0.0
 11
162.7905825821
 21
103.8291440953
 31
0.0
  0
LINE
  5
14B
330
1F
100
AcDbEntity
  8
0
  6
HIDDEN
 62
     7
370
     0
100
AcDbLine
 10
141.0905825821
 20
104.3291440953
 30
0.0
 11
162.2905825821
 21
104.3291440953
 31
0.0
  0
LINE
  5
14C
330
1F
100
AcDbEntity
  8
0
  6
HIDDEN
 62
     7
370
     0
100
AcDbLine
 10
162.2905825821
 20
113.3291440953
 30
0.0
 11
141.0905825821
 21
113.3291440953
 31
0.0
  0
LINE
  5
14D
330
1F
100
AcDbEntity
  8
0
  6
HIDDEN
 62
     7
370
     0
100
AcDbLine
 10
114.4750204125
 20
84.7497727618
 30
0.0
 11
114.040588263
 21
85.2288387809
 31
0.0
  0
LINE
  5
14E
330
1F
100
AcDbEntity
  8
0
  6
HIDDEN
 62
     7
370
     0
100
AcDbLine
 10
106.540584938
 20
85.65052674
 30
0.0
 11
106.0581511946
 21
85.1714607646
 31
0.0
  0
LINE
  5
14F
330
1F
100
AcDbEntity
  8
0
  6
HIDDEN
 62
     7
370
     0
100
AcDbLine
 10
106.0580292664
 20
132.4868221357
 30
0.0
 11
106.5405800174
 21
132.0077018778
 31
0.0
  0
LINE
  5
150
330
1F
100
AcDbEntity
  8
0
  6
HIDDEN
 62
     7
370
     0
100
AcDbLine
 10
114.0405824641
 20
132.4293996554
 30
0.0
 11
114.4751248544
 21
132.908519906
 31
0.0
  0
LINE
  5
151
330
1F
100
AcDbEntity
  8
0
  6
HIDDEN
 62
     7
370
     0
100
AcDbLine
 10
114.0405825821
 20
85.2293226826
 30
0.0
 11
114.0405825821
 21
88.8913079047
 31
0.0
  0
LINE
  5
152
330
1F
100
AcDbEntity
  8
0
  6
HIDDEN
 62
     7
370
     0
100
AcDbLine
 10
106.5405825821
 20
88.8297283566
 30
0.0
 11
106.5405825821
 21
85.6508499778
 31
0.0
  0
LINE
  5
153
330
1F
100
AcDbEntity
  8
0
  6
HIDDEN
 62
     7
370
     0
100
AcDbLine
 10
114.0405825821
 20
128.766980286
 30
0.0
 11
114.0405825821
 21
132.4291083494
 31
0.0
  0
LINE
  5
154
330
1F
100
AcDbEntity
  8
0
  6
HIDDEN
 62
     7
370
     0
100
AcDbLine
 10
106.5405825821
 20
132.0075580985
 30
0.0
 11
106.5405825821
 21
128.8285598341
 31
0.0
  0
DIMENSION
  5
155
330
1F
100
AcDbEntity
  8
VERMASSUNG
100
AcDbDimension
  2
*D1
 10
81.6640303359
 20
77.3291440953
 30
0.0
 11
81.6640303359
 21
108.8291440953
 31
0.0
 70
   160
  1
HSK A %%c<>
 71
     2
 42
-1.0
  3
SLDDIMSTYLE0
100
AcDbAlignedDimension
 13
119.5905825821
 23
140.3291440953
 33
0.0
 14
119.5905825821
 24
77.3291440953
 34
0.0
 50
90.0
100
AcDbRotatedDimension
  0
DIMENSION
  5
162
330
1F
100
AcDbEntity
  8
VERMASSUNG
100
AcDbDimension
  2
*D2
 10
209.2905825821
 20
142.0150595883
 30
0.0
 11
186.0405825821
 21
142.0150595883
 31
0.0
 70
   160
 71
     2
 42
-1.0
  3
SLDDIMSTYLE1
100
AcDbAlignedDimension
 13
162.7905825821
 23
114.7291440953
 33
0.0
 14
209.2905825821
 24
118.980363112
 34
0.0
100
AcDbRotatedDimension
  0
DIMENSION
  5
16D
330
1F
100
AcDbEntity
  8
VERMASSUNG
100
AcDbDimension
  2
*D3
 10
215.6356446371
 20
114.8291440953
 30
0.0
 11
215.6356446371
 21
108.8291440953
 31
0.0
 70
   160
  1
%%c<>
 71
     2
 42
-1.0
  3
SLDDIMSTYLE2
100
AcDbAlignedDimension
 13
205.7905825821
 23
102.8291440953
 33
0.0
 14
205.7905825821
 24
114.8291440953
 34
0.0
 50
90.0
100
AcDbRotatedDimension
  0
DIMENSION
  5
179
330
1F
100
AcDbEntity
  8
VERMASSUNG
100
AcDbDimension
  2
*D4
 10
221.6356446371
 20
120.8291440953
 30
0.0
 11
221.6356446371
 21
108.8291440953
 31
0.0
 70
   160
  1
%%c<>
 71
     2
 42
-1.0
  3
SLDDIMSTYLE3
100
AcDbAlignedDimension
 13
209.2905825821
 23
96.8291440953
 33
0.0
 14
209.2905825821
 24
120.8291440953
 34
0.0
 50
90.0
100
AcDbRotatedDimension
  0
DIMENSION
  5
185
330
1F
100
AcDbEntity
  8
VERMASSUNG
100
AcDbDimension
  2
*D5
 10
227.6356446371
 20
123.8291440953
 30
0.0
 11
227.6356446371
 21
108.8291440953
 31
0.0
 70
   160
  1
%%c<>
 71
     2
 42
-1.0
  3
SLDDIMSTYLE3
100
AcDbAlignedDimension
 13
148.2405825821
 23
93.8291440953
 33
0.0
 14
148.2405825821
 24
123.8291440953
 34
0.0
 50
90.0
100
AcDbRotatedDimension
  0
DIMENSION
  5
190
330
1F
100
AcDbEntity
  8
VERMASSUNG
100
AcDbDimension
  2
*D6
 10
209.2905825821
 20
154.0150595883
 30
0.0
 11
164.2905825821
 21
154.0150595883
 31
0.0
 70
   160
 71
     2
 42
-1.0
  3
SLDDIMSTYLE0
100
AcDbAlignedDimension
 13
119.2905825821
 23
140.0291440953
 33
0.0
 14
209.2905825821
 24
118.980363112
 34
0.0
100
AcDbRotatedDimension
  0
DIMENSION
  5
19A
330
1F
100
AcDbEntity
  8
VERMASSUNG
100
AcDbDimension
  2
*D7
 10
209.2905825821
 20
148.0150595883
 30
0.0
 11
177.2655825821
 21
148.0150595883
 31
0.0
 70
   160
 71
     2
 42
-1.0
  3
SLDDIMSTYLE0
100
AcDbAlignedDimension
 13
145.2405825821
 23
138.6755844191
 33
0.0
 14
209.2905825821
 24
118.980363112
 34
0.0
100
AcDbRotatedDimension
  0
DIMENSION
  5
1A4
330
1F
100
AcDbEntity
  8
VERMASSUNG
100
AcDbDimension
  2
*D8
 10
209.2905825821
 20
160.0150595883
 30
0.0
 11
148.3405825821
 21
160.0150595883
 31
0.0
 70
   160
 71
     2
 42
-1.0
  3
SLDDIMSTYLE0
100
AcDbAlignedDimension
 13
87.3905825821
 23
128.5198218418
 33
0.0
 14
209.2905825821
 24
118.980363112
 34
0.0
100
AcDbRotatedDimension
  0
LINE
  5
1AE
330
1F
100
AcDbEntity
  8
VERMASSUNG
  6
CENTERX2
370
     0
100
AcDbLine
 10
83.7526543879
 20
108.8291440953
 30
0.0
 11
211.2905825821
 21
108.8291440953
 31
0.0
  0
OLE2FRAME
  5
1AF
330
1F
100
AcDbEntity
  8
0
100
AcDbOle2Frame
 70
     2
  3
Bitmap Image
 10
13.8511154363
 20
38.264191557
 30
0.0
 11
51.6290888628
 21
31.9806341108
 31
0.0
 71
     2
 72
     0
 73
     1
 90
    12928
310
80552BED0767C5B32B40DDAF6807D121434000000000000000006FFBDDFB85D0
310
4940DDAF6807D121434000000000000000006FFBDDFB85D04940416F4BD60AFB
310
3F4000000000000000002BED0767C5B32B40416F4BD60AFB3F40000000000000
310
0000000000000100000000010000010000000100000000000100000000320000
310
D0CF11E0A1B11AE1000000000000000000000000000000003E000300FEFF0900
310
0600000000000000000000000100000001000000000000000010000002000000
310
01000000FEFFFFFF0000000000000000FFFFFFFFFFFFFFFFFFFFFFFFFFFFFFFF
310
FFFFFFFFFFFFFFFFFFFFFFFFFFFFFFFFFFFFFFFFFFFFFFFFFFFFFFFFFFFFFFFF
310
FFFFFFFFFFFFFFFFFFFFFFFFFFFFFFFFFFFFFFFFFFFFFFFFFFFFFFFFFFFFFFFF
310
FFFFFFFFFFFFFFFFFFFFFFFFFFFFFFFFFFFFFFFFFFFFFFFFFFFFFFFFFFFFFFFF
310
FFFFFFFFFFFFFFFFFFFFFFFFFFFFFFFFFFFFFFFFFFFFFFFFFFFFFFFFFFFFFFFF
310
FFFFFFFFFFFFFFFFFFFFFFFFFFFFFFFFFFFFFFFFFFFFFFFFFFFFFFFFFFFFFFFF
310
FFFFFFFFFFFFFFFFFFFFFFFFFFFFFFFFFFFFFFFFFFFFFFFFFFFFFFFFFFFFFFFF
310
FFFFFFFFFFFFFFFFFFFFFFFFFFFFFFFFFFFFFFFFFFFFFFFFFFFFFFFFFFFFFFFF
310
FFFFFFFFFFFFFFFFFFFFFFFFFFFFFFFFFFFFFFFFFFFFFFFFFFFFFFFFFFFFFFFF
310
FFFFFFFFFFFFFFFFFFFFFFFFFFFFFFFFFFFFFFFFFFFFFFFFFFFFFFFFFFFFFFFF
310
FFFFFFFFFFFFFFFFFFFFFFFFFFFFFFFFFFFFFFFFFFFFFFFFFFFFFFFFFFFFFFFF
310
FFFFFFFFFFFFFFFFFFFFFFFFFFFFFFFFFFFFFFFFFFFFFFFFFFFFFFFFFFFFFFFF
310
FFFFFFFFFFFFFFFFFFFFFFFFFFFFFFFFFFFFFFFFFFFFFFFFFFFFFFFFFFFFFFFF
310
FFFFFFFFFFFFFFFFFFFFFFFFFFFFFFFFFFFFFFFFFFFFFFFFFFFFFFFFFFFFFFFF
310
FDFFFFFFFEFFFFFFFEFFFFFFFEFFFFFF05000000060000000700000008000000
310
090000000A0000000B0000000C0000000D0000000E0000000F00000010000000
310
11000000120000001300000014000000150000001600000017000000FEFFFFFF
310
FFFFFFFFFFFFFFFFFFFFFFFFFFFFFFFFFFFFFFFFFFFFFFFFFFFFFFFFFFFFFFFF
310
FFFFFFFFFFFFFFFFFFFFFFFFFFFFFFFFFFFFFFFFFFFFFFFFFFFFFFFFFFFFFFFF
310
FFFFFFFFFFFFFFFFFFFFFFFFFFFFFFFFFFFFFFFFFFFFFFFFFFFFFFFFFFFFFFFF
310
FFFFFFFFFFFFFFFFFFFFFFFFFFFFFFFFFFFFFFFFFFFFFFFFFFFFFFFFFFFFFFFF
310
FFFFFFFFFFFFFFFFFFFFFFFFFFFFFFFFFFFFFFFFFFFFFFFFFFFFFFFFFFFFFFFF
310
FFFFFFFFFFFFFFFFFFFFFFFFFFFFFFFFFFFFFFFFFFFFFFFFFFFFFFFFFFFFFFFF
310
FFFFFFFFFFFFFFFFFFFFFFFFFFFFFFFFFFFFFFFFFFFFFFFFFFFFFFFFFFFFFFFF
310
FFFFFFFFFFFFFFFFFFFFFFFFFFFFFFFFFFFFFFFFFFFFFFFFFFFFFFFFFFFFFFFF
310
FFFFFFFFFFFFFFFFFFFFFFFFFFFFFFFFFFFFFFFFFFFFFFFFFFFFFFFFFFFFFFFF
310
FFFFFFFFFFFFFFFFFFFFFFFFFFFFFFFFFFFFFFFFFFFFFFFFFFFFFFFFFFFFFFFF
310
FFFFFFFFFFFFFFFFFFFFFFFFFFFFFFFFFFFFFFFFFFFFFFFFFFFFFFFFFFFFFFFF
310
FFFFFFFFFFFFFFFFFFFFFFFFFFFFFFFFFFFFFFFFFFFFFFFFFFFFFFFFFFFFFFFF
310
FFFFFFFFFFFFFFFFFFFFFFFFFFFFFFFFFFFFFFFFFFFFFFFFFFFFFFFFFFFFFFFF
310
52006F006F007400200045006E00740072007900000000000000000000000000
310
0000000000000000000000000000000000000000000000000000000000000000
310
16000500FFFFFFFFFFFFFFFF020000000A00030000000000C000000000000046
310
000000000000000000000000A070D5F4A704CC0103000000C000000000000000
310
01004F006C006500000000000000000000000000000000000000000000000000
310
0000000000000000000000000000000000000000000000000000000000000000
310
0A000200FFFFFFFFFFFFFFFFFFFFFFFF00000000000000000000000000000000
310
0000000000000000000000000000000000000000000000001400000000000000
310
010043006F006D0070004F0062006A0000000000000000000000000000000000
310
0000000000000000000000000000000000000000000000000000000000000000
310
120002010100000003000000FFFFFFFF00000000000000000000000000000000
310
0000000000000000000000000000000000000000010000004D00000000000000
310
01004F006C006500310030004E00610074006900760065000000000000000000
310
0000000000000000000000000000000000000000000000000000000000000000
310
1A000200FFFFFFFFFFFFFFFFFFFFFFFF00000000000000000000000000000000
310
0000000000000000000000000000000000000000040000002426000000000000
310
FEFFFFFF02000000FEFFFFFFFFFFFFFFFFFFFFFFFFFFFFFFFFFFFFFFFFFFFFFF
310
FFFFFFFFFFFFFFFFFFFFFFFFFFFFFFFFFFFFFFFFFFFFFFFFFFFFFFFFFFFFFFFF
310
FFFFFFFFFFFFFFFFFFFFFFFFFFFFFFFFFFFFFFFFFFFFFFFFFFFFFFFFFFFFFFFF
310
FFFFFFFFFFFFFFFFFFFFFFFFFFFFFFFFFFFFFFFFFFFFFFFFFFFFFFFFFFFFFFFF
310
FFFFFFFFFFFFFFFFFFFFFFFFFFFFFFFFFFFFFFFFFFFFFFFFFFFFFFFFFFFFFFFF
310
FFFFFFFFFFFFFFFFFFFFFFFFFFFFFFFFFFFFFFFFFFFFFFFFFFFFFFFFFFFFFFFF
310
FFFFFFFFFFFFFFFFFFFFFFFFFFFFFFFFFFFFFFFFFFFFFFFFFFFFFFFFFFFFFFFF
310
FFFFFFFFFFFFFFFFFFFFFFFFFFFFFFFFFFFFFFFFFFFFFFFFFFFFFFFFFFFFFFFF
310
FFFFFFFFFFFFFFFFFFFFFFFFFFFFFFFFFFFFFFFFFFFFFFFFFFFFFFFFFFFFFFFF
310
FFFFFFFFFFFFFFFFFFFFFFFFFFFFFFFFFFFFFFFFFFFFFFFFFFFFFFFFFFFFFFFF
310
FFFFFFFFFFFFFFFFFFFFFFFFFFFFFFFFFFFFFFFFFFFFFFFFFFFFFFFFFFFFFFFF
310
FFFFFFFFFFFFFFFFFFFFFFFFFFFFFFFFFFFFFFFFFFFFFFFFFFFFFFFFFFFFFFFF
310
FFFFFFFFFFFFFFFFFFFFFFFFFFFFFFFFFFFFFFFFFFFFFFFFFFFFFFFFFFFFFFFF
310
FFFFFFFFFFFFFFFFFFFFFFFFFFFFFFFFFFFFFFFFFFFFFFFFFFFFFFFFFFFFFFFF
310
FFFFFFFFFFFFFFFFFFFFFFFFFFFFFFFFFFFFFFFFFFFFFFFFFFFFFFFFFFFFFFFF
310
FFFFFFFFFFFFFFFFFFFFFFFFFFFFFFFFFFFFFFFFFFFFFFFFFFFFFFFFFFFFFFFF
310
0100000200000000000000000000000000000000000000002E00820000000004
310
A805250000000000E0722800000000006C15700000000000D615590000000000
310
0100FEFF030A0000FFFFFFFF0A00030000000000C00000000000004607000000
310
5042727573680007000000504272757368000700000050427275736800F439B2
310
710000000000000000000000000000000613A50000000000C812A30000000000
310
86121A00000000007A126800000000004212820000000000AA11610000000000
310
F811730000000000F21130000000000016116D0100000000D410880100000000
310
D010530100000000820610000000000058061700000000000406350000000000
310
FE0A04000000000036090200000000005C0B0A0000000000780B0D0000000000
310
AE0B020000000000DC0B020000000000EA0B0200000000007007020000000000
310
8007020000000000C207020000000000D407020000000000FE07020000000000
310
CC06080000000000C60B020000000000960C0A00000000002E09030000000000
310
DC060300000000000100000000000000010000000000000016009A0000000004
310
2804250000000000D053EE0D000000001804250000000000B015B40900000000
310
0804250000000000D06A5E3100000000F80325000000000050962C0000000000
310
E8032500000000000036033100000000D80325000000000000C80C3100000000
310
20260000424D0E260000000000003E00000028000000B40200006E0000000100
310
01000000000000000000130B0000130B00000200000002000000000000FFFFFF
310
FFFFFFFFFFFFFFFFFFFFFFFFFFFFFFFFFFFFFFFFFFFFFFFFFFFFFFFFFFFFFFFF
310
FFFFFFFFFFFFFFFFFFFFFFFFFFFFFFFFFFFFFFFFFFFFFFFFFFFFFFFFFFFFFFFF
310
FFFFFFFFFFFFFFFFFFFFFFFFFFFFFFFFFFFFFFFFFFFFFFFFF000FFFFFFFFFFFF
310
FFFFFFFFFFFFFFFFFFFFFFFFFFFFFFFFFFFFFFFFFFFFFFFFFFFFFFFFFFFFFFFF
310
FFFFFFFFFFFFFFFFFFFFFFFFFFFFFFFFFFFFFFFFFFFFFFFFFFFFFFFFFFFFFFFF
310
FFFFFFFFFFFFFFFFFFFFFFFFFFFFFFFFF000FFFFFFFFFFFFFFFFFFFFFFFFFFFF
310
FFFFFFFFFFFFFFFFFFFFFFFFFFFFFFFFFFFFFFFFFFFFFFFFFFFFFFFFFFFFFFFF
310
FFFFFFFFFFFFFFFFFFFFFFFFFFFFFFFFFFFFFFFFFFFFFFFFFFFFFFFFFFFFFFFF
310
FFFFFFFFFFFFFFFFF000FFFFFFFFFFFFFFFFFFFFFFFFFFFFFFFFFFFFFFFFFFFF
310
FFFFFFFFFFFFFFFFFFFFFFFFFFFFFFFFFFFFFFFFFFFFFFFFFFFFFFFFFFFFFFFF
310
FFFFFFFFFFFFFFFFFFFFFFFFFFFFFFFFFFFFFFFFFFFFFFFFFFFFFFFFFFFFFFFF
310
F000FFFFFFFFFFFFFFFFFFFFFFFFFFFFFFFFFFFFFFFFFFFFFFFFFFFFFFFFFFFF
310
FFFFFFFFFFFFFFFFFFFFFFFFFFFFFFFFFFFFFFFFFFFFFFFFFFFFFFFFFFFFFFFF
310
FFFFFFFFFFFFFFFFFFFFFFFFFFFFFFFFFFFFFFFFFFFFFFFFF000FFFFFFFFFFFF
310
FFFFFFFFFFFFFFFFFFFFFFFFFFFFFFFFFFFFFFFFFFFFFFFFFFFFFFFFFFFFFFFF
310
FFFFFFFFFFFFFFFFFFFFFFFFFFFFFFFFFFFFFFFFFFFFFFFFFFFFFFFFFFFFFFFF
310
FFFFFFFFFFFFFFFFFFFFFFFFFFFFFFFFF000FFFFFFFFFFFFFFFFFFFFFFFFFFFF
310
FFFFFFFFFFFFFFFFFFFFFFFFFFFFFFFFFFFFFFFFFFFFFFFFFFFFFFFFFFFFFFFF
310
FFFFFFFFFFFFFFFFFFFFFFFFFFFFFFFFFFFFFFFFFFFFFFFFFFFFFFFFFFFFFFFF
310
FFFFFFFFFFFFFFFFF000FFFFFFFFFFFFFFFFFFFFFFFFFFFFFFFFFFFFFFFFFFFF
310
FFFFFFFFFFFFFFFFFFFFFFFFFFFFFFFFFFFFFFFFFFFFFFFFFFFFFFFFFFFFFFFF
310
FFFFFFFFFFFFFFFFFFFFFFFFFFFFFFFFFFFFFFFFFFFFFFFFFFFFFFFFFFFFFFFF
310
F000FFFFFFFFFFFFFFFFFFFFFFFFFFFFFFFFFFFFFFFFFFFFFFFFFFFFFFFFFFFF
310
FFFFFFFFFFFFFFFFFFFFFFFFFFFFFFFFFFFFFFFFFFFFFFFFFFFFFFFFFFFFFFFF
310
FFFFFFFFFFFFFFFFFFFFFFFFFFFFFFFFFFFFFFFFFFFFFFFFF000FFFFFFFFFFFF
310
FFFFFFFFFFFFFFFFFFFFFFFFFFFFFFFFFFFFFFFFFFFFFFFFFFFFFFFFFFFFFFFF
310
FFFFFFFFFFFFFFFFFFFFFFFFFFFFFFFFFFFFFFFFFFFFFFFFFFFFFFFFFFFFFFFF
310
FFFFFFFFFFFFFFFFFFFFFFFFFFFFFFFFF000FFFFFFFFFFFFFFFFFFFFFFFFFFFF
310
FFFFFFFFFFFFFFFFFFFFFFFFFFFFFFFFFFFFFFFFFFFFFFFFFFFFFFFFFFFFFFFF
310
FFFFFFFFFFFFFFFFFFFFFFFFFFFFFFFFFFFFFFFFFFFFFFFFFFFFFFFFFFFFFFFF
310
FFFFFFFFFFFFFFFFF000FFFFFFFFFFFFFFFFFFFFFFFFFFFFFFFFFFFFFFFFFFFF
310
FFFFFFFFFFFFFFFFFFFFFFFFFFFFFFFFFFFFFFFFFFFFFFFFFFFFFFFFFFFFFFFF
310
FFFFFFFFFFFFFFFFFFFFFFFFFFFFFFFFFFFFFFFFFFFFFFFFFFFFFFFFFFFFFFFF
310
F000FFFFFFFFFFFFFFFFFFFFFFFFFFFFFFFFFFFFFFFFFFFFFFFFFFFFFFFFFFFF
310
FFFFFFFFFFFFFFFFFFFFFFFFFFFFFFFFFFFFFFFFFFFFFFFFFFFFFFFFFFFFFFFF
310
FFFFFFFFFFFFFFFFFFFFFFFFFFFFFFFFFFFFFFFFFFFFFFFFF000FFFFFFFFFFFF
310
FFFFFFFFFFFFFFFFFFFFFFFFFFFFFFFFFFFFFFFFFFFFFFFFFFFFFFFFFFFFFFFF
310
FFFFFFFFFFFFFFFFFFFFFFFFFFFFFFFFFFFFFFFFFFFFFFFFFFFFFFFFFFFFFFFF
310
FFFFFFFFFFFFFFFFFFFFFFFFFFFFFFFFF000FFFFFFFFFFFFFFFFFFFFFFFFFFFF
310
FFFFFFFFFFFFFFFFFFFFFFFFFFFFFFFFFFFFFFFFFFFFFFFFFFFFFFFFFFFFFFFF
310
FFFFFFFFFFFFFFFFFFFFFFFFFFFFFFFFFFFFFFFFFFFFFFFFFFFFFFFFFFFFFFFF
310
FFFFFFFFFFFFFFFFF000FFFFFFFFFFFFFFFFFFFFFFFFFFFFFFFFFFFFFFFFFFFF
310
FFFFFFFFFFFFFFFFFFFFFFFFFFFFFFFFFFFFFFFFFFFFFFFFFFFFFFFFFFFFFFFF
310
FFFFFFFFFFFFFFFFFFFFFFFFFFFFFFFFFFFFFFFFFFFFFFFFFFFFFFFFFFFFFFFF
310
F000FFFFFFFFFFFFFFFFFFFFFFFFFFFFFFFFFFFFFFFFFFFFFFFFFFFFFFFFFFFF
310
FFFFFFFFFFFFFFFFFFFFFFFFFFFFFFFFFFFFFFFFFFFFFFFFFFFFFFFFFFFFFFFF
310
FFFFFFFFFFFFFFFFFFFFFFFFFFFFFFFFFFFFFFFFFFFFFFFFF000FFFFFFFFFFFF
310
FFFFFFFFFFFFFFFFFFFFFFFFFFFFFFFFFFFFFFFFFFFFFFFFFFFFFFFFFFFFFFFF
310
FFFFFFFFFFFFFFFFFFFFFFFFFFFFFFFFFFFFFFFFFFFFFFFFFFFFFFFFFFFFFFFF
310
FFFFFFFFFFFFFFFFFFFFFFFFFFFFFFFFF000FFFFFFFFFFFFFFFFFFFFFFFFFFFF
310
FFFFFFFFFFFFFFFFFFFFFFFFFFFFFFFFFFFFFFFFFFFFFFFFFFFFFFFFFFFFFFFF
310
FFFFFFFFFFFFFFFFFFFFFFFFFFFFFFFFFFFFFFFFFFFFFFFFFFFFFFFFFFFFFFFF
310
FFFFFFFFFFFFFFFFF000FFFFF80003FFFFFFFFFFFFFFFFFFFFFFFFFFFFFFFFFF
310
FFFFF00007FFFFFFFFFF00007FFFFFF800000000000000007FFFFFFFFFFFFFFF
310
FFFFFFFC001FFFFFFFFFFFFFFC001FFFFFFFFFFFFFFFFFFFFFFFFFFE0007FFFF
310
F000FFFF8000007FFFFFFFF8000FFFFFC0007FFFFF80007FFFFF0000007FFFFF
310
FFF8000007FFFFF800000000000000007FFFFFF0001FFFFFFFFFFFC00001FFFF
310
FFFFFFFFC00001FFFFFFFF000000000003FFFFE000007FFFF000FFFE0000000F
310
FFFFFFF0000FFFFF80007FFFFF80007FFFFC0000001FFFFFFFC0000001FFFFF8
310
00000000000000007FFFFFF0001FFFFFFFFFFE0000003FFFFFFFFFFE0000003F
310
FFFFFF000000000003FFFF0000000FFFF000FFF800000003FFFFFFF00007FFFF
310
80007FFFFF80007FFFF000000007FFFFFF000000003FFFF80000000000000000
310
7FFFFFF0001FFFFFFFFFF80000000FFFFFFFFFF80000000FFFFFFF0000000000
310
03FFFC00000003FFF000FFE000000000FFFFFFF00007FFFF80003FFFFF80007F
310
FFC000000001FFFFFC000000001FFFF800000000000000007FFFFFF0001FFFFF
310
FFFFE000000003FFFFFFFFE000000003FFFFFF000000000003FFF000000000FF
310
F000FF80000000007FFFFFF00007FFFF80003FFFFF80007FFF8000000000FFFF
310
F80000000007FFF800000000000000007FFFFFF0001FFFFFFFFFC000000001FF
310
FFFFFFC000000001FFFFFF000000000003FFC0000000007FF000FF0000000000
310
3FFFFFE00007FFFF00003FFFFF80007FFE00000000003FFFF00000000003FFF8
310
00000000000000007FFFFFF0001FFFFFFFFF8000000000FFFFFFFF8000000000
310
FFFFFF000000000003FF80000000003FF000FE00000000001FFFFFE00003FFFF
310
00003FFFFF80007FFC00000000001FFFE00000000001FFF8000001FFFE000000
310
7FFFFFF0001FFFFFFFFE00000000003FFFFFFE00000000003FFFFF0000000000
310
03FF00000000001FF000FC00000000000FFFFFE00003FFFF00001FFFFF80007F
310
F800000000001FFFC00000000000FFF8000001FFFE0000007FFFFFF0001FFFFF
310
FFFC00000000001FFFFFFC00000000001FFFFF000000000003FE00000000000F
310
F000F8000000000007FFFFE00003FFFF00001FFFFF80007FF800000000000FFF
310
800000000000FFF8000001FFFE0000007FFFFFF0001FFFFFFFF800000000000F
310
FFFFF800000000000FFFFF000000000003FC000000000007F000F80000000000
310
03FFFFC00003FFFE00001FFFFF80007FF0000000000007FF0000000000007FF8
310
000001FFFE0000007FFFFFF0001FFFFFFFF0000000000007FFFFF00000000000
310
07FFFF000000000003F8000000000003F000F0000000000003FFFFC00001FFFE
310
00001FFFFF80007FE0000000000007FE0000000000003FF8000001FFFE000000
310
7FFFFFF0001FFFFFFFF0000000000007FFFFF0000000000007FFFF0000000000
310
03F800001F800003F000E00001FFF00001FFFFC00001FFFE00000FFFFF80007F
310
E00001FFE00003FE00001FFF00003FF8000001FFFE0000007FFFFFF0001FFFFF
310
FFE000003E000003FFFFE000003E000003FFFF000000000003F00001FFF80001
310
F000E00007FFFC0001FFFFC00001FFFE00000FFFFF80007FC0000FFFFC0003FC
310
0000FFFFC0001FF8000001FFFE0000007FFFFFF0001FFFFFFFC00003FFE00001
310
FFFFC00003FFE00001FFFF0001FFFFFFFFF00007FFFE0001F000E0000FFFFF00
310
00FFFF800001FFFC00000FFFFF80007FC0001FFFFE0001FC0001FFFFE0001FF8
310
000001FFFE0000007FFFFFF0001FFFFFFF80000FFFF80000FFFF80000FFFF800
310
00FFFF0003FFFFFFFFE0000FFFFF8000F000C0003FFFFF8000FFFF800000FFFC
310
000007FFFF80007F80003FFFFF0001FC0003FFFFF0001FF8000001FFFE000000
310
7FFFFFF0001FFFFFFF80003FFFFE0000FFFF80003FFFFE0000FFFF0003FFFFFF
310
FFE0003FFFFF8000F000C0003FFFFF8000FFFF800000FFFC000007FFFF80007F
310
80007FFFFF8001F80007FFFFF8000FF8000001FFFE0000007FFFFFF0001FFFFF
310
FF00007FFFFF00007FFF00007FFFFF00007FFF0003FFFFFFFFE0003FFFFFC000
310
F000C0007FFFFFC000FFFF000000FFFC000007FFFF80007F8000FFFFFF8000F8
310
000FFFFFF8000FF8000001FFFE0000007FFFFFF0001FFFFFFF0000FFFFFF8000
310
7FFF0000FFFFFF80007FFF0003FFFFFFFFC0007FFFFFC00070008000FFFFFFC0
310
00FFFF000000FFF8000007FFFF80007F8000FFFFFF8000F8000FFFFFF8000FF8
310
000001FFFE0000007FFFFFF0001FFFFFFE0001FFFFFFC0003FFE0001FFFFFFC0
310
003FFF0003FFFFFFFFC0007FFFFFE00070008000FFFFFFC0007FFF0000007FF8
310
000003FFFF80007F0001FFFFFF8000F8000FFFFFF8000FF8000001FFFE000000
310
7FFFFFF0001FFFFFFE0001FFFFFFC0003FFE0001FFFFFFC0003FFF0003FFFFFF
310
FFC000FFFFFFE00070008000FFFFFFC0007FFF0000007FF8000003FFFF80007F
310
0001FFFFFF8000F8001FFFFFF8000FF8000001FFFE0000007FFFFFF0001FFFFF
310
FE0003FFFFFFE0003FFE0003FFFFFFE0003FFF0003FFFFFFFFC000FFFFFFE000
310
70008000FFFFFFC0007FFE0000007FF8000003FFFF80007F0001FFFFFF8000F0
310
001FFFFFF8000FF8000001FFFE0000007FFFFFF0001FFFFFFC0003FFFFFFE000
310
1FFC0003FFFFFFE0001FFF0003FFFFFFFFC000FFFFFFC00070008000FFFFFF80
310
007FFE0000007FF0000003FFFF80007F0001FFFFFF0000F0001FFFFFF8000FF8
310
000001FFFE0000007FFFFFF0001FFFFFFC0007FFFFFFF0001FFC0007FFFFFFF0
310
001FFF0003FFFFFFFFC000FFFFFFC00070008001FFFFFF0000FFFE0000003FF0
310
000001FFFF80007F0001FFFFFF0000F8001FFFFFF0000FF8000001FFFE000000
310
7FFFFFF0001FFFFFFC0007FFFFFFF0001FFC0007FFFFFFF0001FFF0003FFFFFF
310
FFC001FFFFFF80007000FFFFFFFFFE0000FFFE0008003FF0008001FFFF80007F
310
FFFFFFFFFC0000FFFFFFFFFFE0000FF8000001FFFE0000007FFFFFF0001FFFFF
310
F8000FFFFFFFF8000FF8000FFFFFFFF8000FFF0003FFFFFFFFFFFFFFFFFF0000
310
7000FFFFFFFFFC0000FFFC0008003FF0008001FFFF80007FFFFFFFFFF80001FF
310
FFFFFFFF80000FF8000001FFFE0000007FFFFFF0001FFFFFF8000FFFFFFFF800
310
0FF8000FFFFFFFF8000FFF0003FFFFFFFFFFFFFFFFFE0000F000FFFFFFFFE000
310
00FFFC000C003FE000C001FFFF80007FFFFFFFFFC00001FFFFFFFFFE00001FF8
310
000001FFFE0000007FFFFFF0001FFFFFF8000FFFFFFFF8000FF8000FFFFFFFF8
310
000FFF0003FFFFFFFFFFFFFFFFF00000F000FFFFFFFE000001FFFC000C001FE0
310
00C000FFFF80007FFFFFFFFE000001FFFFFFFFE000001FF80FFFFFFFFFFFFFC0
310
7FFFFFF0001FFFFFF8000FFFFFFFF8000FF8000FFFFFFFF8000FFF0003FFFFFF
310
FFFFFFFFFF800000F000FFFFFFC0000001FFFC001C001FE001C000FFFF80007F
310
FFFFFF80000003FFFFFFF80000001FF80FFFFFFFFFFFFFC07FFFFFF0001FFFFF
310
F8001FFFFFFFFC000FF8001FFFFFFFFC000FFF0003FFFFFFFFFFFFFFF0000001
310
F000FFFFF800000001FFF8001C001FE001C000FFFF80007FFFFFF800000003FF
310
FFFF800000003FF80FFFFFFFFFFFFFC07FFFFFF0001FFFFFF8001FFFFFFFFC00
310
0FF8001FFFFFFFFC000FFF0003FFFFFFFFFFFFFE00000001F000FFFFC0000000
310
03FFF8001E001FC001E000FFFF80007FFFFF8000000007FFFFFC000000003FF8
310
0FFFFFFFFFFFFFC07FFFFFF0001FFFFFF8001FFFFFFFFC000FF8001FFFFFFFFC
310
000FFF0003FFFFFFFFFFFFE000000003F000FFFE0000000007FFF8001E000FC0
310
01E0007FFF80007FFFFE0000000007FFFFE0000000007FF80FFFFFFFFFFFFFC0
310
7FFFFFF0001FFFFFF0001FFFFFFFFC0007F0001FFFFFFFFC0007FF0003FFFFFF
310
FFFFFF0000000003F000FFF80000000007FFF8001E000FC003E0007FFF80007F
310
FFF0000000000FFFFF8000000000FFF80FFFFFFFFFFFFFC07FFFFFF0001FFFFF
310
F0001FFFFFFFFC0007F0001FFFFFFFFC0007FF0003FFFFFFFFFFFC0000000007
310
F000FFE0000000000FFFF0003E000FC003E0007FFF80007FFFC0000000001FFF
310
FE0000000001FFF80FFFFFFFFFFFFFC07FFFFFF0001FFFFFF0001FFFFFFFFC00
310
07F0001FFFFFFFFC0007FF0003FFFFFFFFFFF0000000000FF000FFC000000000
310
1FFFF0003F000F8003F0003FFF80007FFF80000000003FFFF80000000003FFF8
310
0FFFFFFFFFFFFFC07FFFFFF0001FFFFFF0001FFFFFFFFC0007F0001FFFFFFFFC
310
0007FF0003FFFFFFFFFFE0000000001FF000FF00000000007FFFF0003F000780
310
03F0003FFF80007FFF00000000007FFFF00000000007FFF80FFFFFFFFFFFFFC0
310
7FFFFFF0001FFFFFF0001FFFFFFFFC0007F0001FFFFFFFFC0007FF0003FFFFFF
310
FFFF80000000007FF000FE0000000000FFFFE0003F00078007F0003FFF80007F
310
FE0000000001FFFFE0000000001FFFF80FFFFFFFFFFFFFC07FFFFFF0001FFFFF
310
F0001FFFFFFFFC0007F0001FFFFFFFFC0007FF0003FFFFFFFFFF0000000000FF
310
F000FC0000000003FFFFE0007F00078007F0003FFF80007FFC0000000007FFFF
310
C0000000007FFFF80FFFFFFFFFFFFFC07FFFFFF0001FFFFFF8001FFFFFFFFC00
310
0FF8001FFFFFFFFC000FFF0003FFFFFFFFFE0000000003FFF000FC000000000F
310
FFFFE0007F80070007F8001FFF80007FF8000000001FFFFF8000000001FFFFF8
310
0FFFFFFFFFFFFFC07FFFFFF0001FFFFFF8001FFFFFFFFC000FF8001FFFFFFFFC
310
000FFF0003FFFFFFFFFC000000000FFFF000F8000000007FFFFFE0007F800700
310
07F8001FFF80007FF000000000FFFFFF800000000FFFFFF80FFFFFFFFFFFFFC0
310
7FFFFFF0001FFFFFF8000FFFFFFFF8000FF8000FFFFFFFF8000FFF0003FFFFFF
310
FFFC000000007FFFF000F800000007FFFFFFC0007F8003000FF8001FFF80007F
310
F000000007FFFFFF000000007FFFFFF80FFFFFFFFFFFFFC07FFFFFF0001FFFFF
310
F8000FFFFFFFF8000FF8000FFFFFFFF8000FFF0003FFFFFFFFF80000000FFFFF
310
F000F0000000FFFFFFFFC000FF8003000FF8001FFF80007FE0000000FFFFFFFF
310
0000000FFFFFFFF8000001FFFE0000007FFFFFF0001FFFFFF8000FFFFFFFF800
310
0FF8000FFFFFFFF8000FFF0003FFFFFFFFF8000000FFFFFFF000F000000FFFFF
310
FFFFC000FFC002000FF8000FFF80007FE000001FFFFFFFFE000001FFFFFFFFF8
310
000001FFFE0000007FFFFFF0001FFFFFF8000FFFFFFFF8000FF8000FFFFFFFF8
310
000FFF0003FFFFFFFFF000001FFFFFFFF000E00000FFFFFFFFFFC000FFC00200
310
0FFC000FFF80007FE00001FFFFFFFFFE00001FFFFFFFFFF8000001FFFE000000
310
7FFFFFF0001FFFFFFC000FFFFFFFF8001FFC000FFFFFFFF8001FFF0003FFFFFF
310
FFF00001FFFFFFFFF000E00007FFFFFFFFFF8000FFC000001FFC000FFF80007F
310
C0000FFFFFFFFFFE0000FFFFFFFFFFF8000001FFFE0000007FFFFFF0001FFFFF
310
FC0007FFFFFFF0001FFC0007FFFFFFF0001FFF0003FFFFFFFFF00007FFFFFFFF
310
F000E0001FFFFFFFFFFF8000FFC000001FFC000FFF80007FC0003FFFFFFFFFFE
310
0001FFFFFFFFFFF8000001FFFE0000007FFFFFF0001FFFFFFC0007FFFFFFF000
310
1FFC0007FFFFFFF0001FFF0003FFFFFFFFF0001FFFFFFFFFF000E0003FFFFF00
310
03FF8001FFE000001FFC0007FF80007FC0007FFFFF0007FC0003FFFFF0003FF8
310
000001FFFE0000007FFFFFF0001FFFFFFC0003FFFFFFE0001FFC0003FFFFFFE0
310
001FFF0003FFFFFFFFF0003FFFFFFFFFF000E0003FFFFF0001FF8001FFE00000
310
1FFE0007FF80007FC0007FFFFE0003FC0007FFFFE0003FF8000001FFFE000000
310
7FFFFFF0001FFFFFFE0003FFFFFFE0003FFE0003FFFFFFE0003FFF0003FFFFFF
310
FFF0003FFFFF8001F000E0003FFFFF0001FF0001FFE000001FFE0007FF80007F
310
C0007FFFFE0003FC0007FFFFE0003FF8000001FFFE0000007FFFFFF0001FFFFF
310
FE0001FFFFFFC0003FFE0001FFFFFFC0003FFF0003FFFFFFFFF0003FFFFF0001
310
F000E0003FFFFF0003FF0001FFE000003FFE0007FF80007FC0007FFFFE0003FC
310
0007FFFFE0003FF8000001FFFE0000007FFFFFF0001FFFFFFF0001FFFFFFC000
310
7FFF0001FFFFFFC0007FFF0003FFFFFFFFF0003FFFFF0001F000E0003FFFFE00
310
03FF0003FFF000003FFE0003FF80007FC0007FFFFC0003FE0007FFFFE0003FF8
310
000001FFFE0000007FFFFFF0001FFFFFFF0000FFFFFF80007FFF0000FFFFFF80
310
007FFF0003FFFFFFFFF0003FFFFF0001F000E0003FFFFE0003FF0003FFF00000
310
3FFF0003FF80007FC0007FFFFC0007FE0007FFFFC0003FF8000001FFFE000000
310
7FFFFFF0001FFFFFFF80007FFFFF0000FFFF80007FFFFF0000FFFF0003FFFFFF
310
FFF0003FFFFF0003F000E0003FFFFC0003FE0003FFF000003FFF0003FF80007F
310
E0003FFFF80007FE0003FFFFC0007FF8000001FFFE0000007FFFFFF0001FFFFF
310
FF80003FFFFE0000FFFF80003FFFFE0000FFFF0003FFFFFFFFF0001FFFFE0003
310
F000F0001FFFF80003FE0003FFF000007FFF0001FF80007FE0003FFFF00007FE
310
0001FFFF80007FF8000001FFFE0000007FFFFFF0001FFFFFFFC0000FFFF80001
310
FFFFC0000FFFF80001FFFF0003FFFFFFFFF0001FFFFC0003F000F0000FFFF000
310
07FE0007FFF800007FFF0001FF80007FE0001FFFE00007FF0000FFFE00007FF8
310
000001FFFE0000007FFFFFF0001FFFFFFFC00003FFE00001FFFFC00003FFE000
310
01FFFF0003FFFFFFFFF8000FFFF80003F000F00003FFC00007FC0007FFF80000
310
7FFF8001FF80007FF00007FF80000FFF00007FF80000FFF8000001FFFE000000
310
7F80000000000001FFE000003E000003FFFFE000003E000003FFFF0003FFFFFF
310
FFF80003FFE00007F000F800000000000FFC0007FFF800007FFF8001FF80007F
310
F000000000000FFF000000000000FFF8000001FFFE0000007F80000000000001
310
FFF0000000000007FFFFF0000000000007FFFF0003FFFFFFFFFC00007E000007
310
F000F800000000000FFC0007FFF80000FFFF8000FF80007FF800000000001FFF
310
800000000001FFF8000001FFFE0000007F80000000000001FFF800000000000F
310
FFFFF800000000000FFFFF0003FFFFFFFFFC00000000000FF000FC0000000000
310
1FFC0007FFFC0000FFFF8000FF80007FF800000000003FFFC00000000001FFF8
310
000001FFFE0000007F80000000000001FFF800000000000FFFFFF80000000000
310
0FFFFF0003FFFFFFFFFE00000000001FF000FE00000000003FF8000FFFFC0000
310
FFFF8000FF80007FFC00000000003FFFC00000000003FFF8000001FFFE000000
310
7F80000000000001FFFC00000000001FFFFFFC00000000001FFFFF0003FFFFFF
310
FFFF00000000001FF000FF00000000003FF8000FFFFC0000FFFFC000FF80007F
310
FE00000000007FFFE00000000007FFF8000001FFFE0000007F80000000000001
310
FFFE00000000003FFFFFFE00000000003FFFFF0003FFFFFFFFFF80000000003F
310
F000FF80000000007FF8000FFFFC0001FFFFC0007F80007FFF0000000000FFFF
310
F0000000000FFFF800000000000000007F80000000000001FFFF8000000000FF
310
FFFFFF8000000000FFFFFF0003FFFFFFFFFFC0000000007FF000FFC000000000
310
FFF8000FFFFE0001FFFFC0007F80007FFF8000000001FFFFF8000000001FFFF8
310
00000000000000007F80000000000001FFFFC000000001FFFFFFFFC000000001
310
FFFFFF0003FFFFFFFFFFE000000000FFF000FFE000000003FFF0001FFFFE0001
310
FFFFC0007F80007FFFC000000007FFFFFE000000003FFFF80000000000000000
310
7F80000000000001FFFFE000000003FFFFFFFFE000000003FFFFFF0003FFFFFF
310
FFFFF000000003FFF000FFF80000000FFFF0001FFFFE0001FFFFE0007F80007F
310
FFF00000000FFFFFFF00000000FFFFF800000000000000007F80000000000001
310
FFFFF80000000FFFFFFFFFF80000000FFFFFFF0003FFFFFFFFFFFC0000000FFF
310
F000FFFE0000003FFFF0001FFFFE0003FFFFE0003F80007FFFFC0000003FFFFF
310
FFC0000003FFFFF800000000000000007F80000000000001FFFFFE0000003FFF
310
FFFFFFFE0000003FFFFFFF0003FFFFFFFFFFFF0000003FFFF000FFFF800000FF
310
FFF0001FFFFF0003FFFFE0003F80007FFFFF000001FFFFFFFFF800001FFFFFF8
310
00000000000000007F80000000000001FFFFFFC00001FFFFFFFFFFFFC00001FF
310
FFFFFF0003FFFFFFFFFFFFC00000FFFFF000FFFFF8000FFFFFFFFFFFFFFFFFFF
310
FFFFFFFFFFFFFFFFFFFFF0001FFFFFFFFFFF0000FFFFFFF80000000000000000
310
7FFFFFFFFFFFFFFFFFFFFFFC001FFFFFFFFFFFFFFC001FFFFFFFFFFFFFFFFFFF
310
FFFFFFFC001FFFFFF000FFFFFFFFFFFFFFFFFFFFFFFFFFFFFFFFFFFFFFFFFFFF
310
FFFFFFFFFFFFFFFFFFFFFFFFFFFFFFFFFFFFFFFFFFFFFFFFFFFFFFFFFFFFFFFF
310
FFFFFFFFFFFFFFFFFFFFFFFFFFFFFFFFFFFFFFFFFFFFFFFFFFFFFFFFFFFFFFFF
310
F000FFFFFFFFFFFFFFFFFFFFFFFFFFFFFFFFFFFFFFFFFFFFFFFFFFFFFFFFFFFF
310
FFFFFFFFFFFFFFFFFFFFFFFFFFFFFFFFFFFFFFFFFFFFFFFFFFFFFFFFFFFFFFFF
310
FFFFFFFFFFFFFFFFFFFFFFFFFFFFFFFFFFFFFFFFFFFFFFFFF000FFFFFFFFFFFF
310
FFFFFFFFFFFFFFFFFFFFFFFFFFFFFFFFFFFFFFFFFFFFFFFFFFFFFFFFFFFFFFFF
310
FFFFFFFFFFFFFFFFFFFFFFFFFFFFFFFFFFFFFFFFFFFFFFFFFFFFFFFFFFFFFFFF
310
FFFFFFFFFFFFFFFFFFFFFFFFFFFFFFFFF000FFFFFFFFFFFFFFFFFFFFFFFFFFFF
310
FFFFFFFFFFFFFFFFFFFFFFFFFFFFFFFFFFFFFFFFFFFFFFFFFFFFFFFFFFFFFFFF
310
FFFFFFFFFFFFFFFFFFFFFFFFFFFFFFFFFFFFFFFFFFFFFFFFFFFFFFFFFFFFFFFF
310
FFFFFFFFFFFFFFFFF000FFFFFFFFFFFFFFFFFFFFFFFFFFFFFFFFFFFFFFFFFFFF
310
FFFFFFFFFFFFFFFFFFFFFFFFFFFFFFFFFFFFFFFFFFFFFFFFFFFFFFFFFFFFFFFF
310
FFFFFFFFFFFFFFFFFFFFFFFFFFFFFFFFFFFFFFFFFFFFFFFFFFFFFFFFFFFFFFFF
310
F000FFFFFFFFFFFFFFFFFFFFFFFFFFFFFFFFFFFFFFFFFFFFFFFFFFFFFFFFFFFF
310
FFFFFFFFFFFFFFFFFFFFFFFFFFFFFFFFFFFFFFFFFFFFFFFFFFFFFFFFFFFFFFFF
310
FFFFFFFFFFFFFFFFFFFFFFFFFFFFFFFFFFFFFFFFFFFFFFFFF000FFFFFFFFFFFF
310
FFFFFFFFFFFFFFFFFFFFFFFFFFFFFFFFFFFFFFFFFFFFFFFFFFFFFFFFFFFFFFFF
310
FFFFFFFFFFFFFFFFFFFFFFFFFFFFFFFFFFFFFFFFFFFFFFFFFFFFFFFFFFFFFFFF
310
FFFFFFFFFFFFFFFFFFFFFFFFFFFFFFFFF000FFFFFFFFFFFFFFFFFFFFFFFFFFFF
310
FFFFFFFFFFFFFFFFFFFFFFFFFFFFFFFFFFFFFFFFFFFFFFFFFFFFFFFFFFFFFFFF
310
FFFFFFFFFFFFFFFFFFFFFFFFFFFFFFFFFFFFFFFFFFFFFFFFFFFFFFFFFFFFFFFF
310
FFFFFFFFFFFFFFFFF000FFFFFFFFFFFFFFFFFFFFFFFFFFFFFFFFFFFFFFFFFFFF
310
FFFFFFFFFFFFFFFFFFFFFFFFFFFFFFFFFFFFFFFFFFFFFFFFFFFFFFFFFFFFFFFF
310
FFFFFFFFFFFFFFFFFFFFFFFFFFFFFFFFFFFFFFFFFFFFFFFFFFFFFFFFFFFFFFFF
310
F000FFFFFFFFFFFFFFFFFFFFFFFFFFFFFFFFFFFFFFFFFFFFFFFFFFFFFFFFFFFF
310
FFFFFFFFFFFFFFFFFFFFFFFFFFFFFFFFFFFFFFFFFFFFFFFFFFFFFFFFFFFFFFFF
310
FFFFFFFFFFFFFFFFFFFFFFFFFFFFFFFFFFFFFFFFFFFFFFFFF000FFFFFFFFFFFF
310
FFFFFFFFFFFFFFFFFFFFFFFFFFFFFFFFFFFFFFFFFFFFFFFFFFFFFFFFFFFFFFFF
310
FFFFFFFFFFFFFFFFFFFFFFFFFFFFFFFFFFFFFFFFFFFFFFFFFFFFFFFFFFFFFFFF
310
FFFFFFFFFFFFFFFFFFFFFFFFFFFFFFFFF000FFFFFFFFFFFFFFFFFFFFFFFFFFFF
310
FFFFFFFFFFFFFFFFFFFFFFFFFFFFFFFFFFFFFFFFFFFFFFFFFFFFFFFFFFFFFFFF
310
FFFFFFFFFFFFFFFFFFFFFFFFFFFFFFFFFFFFFFFFFFFFFFFFFFFFFFFFFFFFFFFF
310
FFFFFFFFFFFFFFFFF000FFFFFFFFFFFFFFFFFFFFFFFFFFFFFFFFFFFFFFFFFFFF
310
FFFFFFFFFFFFFFFFFFFFFFFFFFFFFFFFFFFFFFFFFFFFFFFFFFFFFFFFFFFFFFFF
310
FFFFFFFFFFFFFFFFFFFFFFFFFFFFFFFFFFFFFFFFFFFFFFFFFFFFFFFFFFFFFFFF
310
F000FFFFFFFFFFFFFFFFFFFFFFFFFFFFFFFFFFFFFFFFFFFFFFFFFFFFFFFFFFFF
310
FFFFFFFFFFFFFFFFFFFFFFFFFFFFFFFFFFFFFFFFFFFFFFFFFFFFFFFFFFFFFFFF
310
FFFFFFFFFFFFFFFFFFFFFFFFFFFFFFFFFFFFFFFFFFFFFFFFF000FFFFFFFFFFFF
310
FFFFFFFFFFFFFFFFFFFFFFFFFFFFFFFFFFFFFFFFFFFFFFFFFFFFFFFFFFFFFFFF
310
FFFFFFFFFFFFFFFFFFFFFFFFFFFFFFFFFFFFFFFFFFFFFFFFFFFFFFFFFFFFFFFF
310
FFFFFFFFFFFFFFFFFFFFFFFFFFFFFFFFF000FFFFFFFFFFFFFFFFFFFFFFFFFFFF
310
FFFFFFFFFFFFFFFFFFFFFFFFFFFFFFFFFFFFFFFFFFFFFFFFFFFFFFFFFFFFFFFF
310
FFFFFFFFFFFFFFFFFFFFFFFFFFFFFFFFFFFFFFFFFFFFFFFFFFFFFFFFFFFFFFFF
310
FFFFFFFFFFFFFFFFF000FFFFFFFFFFFFFFFFFFFFFFFFFFFFFFFFFFFFFFFFFFFF
310
FFFFFFFFFFFFFFFFFFFFFFFFFFFFFFFFFFFFFFFFFFFFFFFFFFFFFFFFFFFFFFFF
310
FFFFFFFFFFFFFFFFFFFFFFFFFFFFFFFFFFFFFFFFFFFFFFFFFFFFFFFFFFFFFFFF
310
F000FFFFFFFFFFFFFFFFFFFFFFFFFFFFFFFFFFFFFFFFFFFFFFFFFFFFFFFFFFFF
310
FFFFFFFFFFFFFFFFFFFFFFFFFFFFFFFFFFFFFFFFFFFFFFFFFFFFFFFFFFFFFFFF
310
FFFFFFFFFFFFFFFFFFFFFFFFFFFFFFFFFFFFFFFFFFFFFFFFF000FFFFFFFFFFFF
310
FFFFFFFFFFFFFFFFFFFFFFFFFFFFFFFFFFFFFFFFFFFFFFFFFFFFFFFFFFFFFFFF
310
FFFFFFFFFFFFFFFFFFFFFFFFFFFFFFFFFFFFFFFFFFFFFFFFFFFFFFFFFFFFFFFF
310
FFFFFFFFFFFFFFFFFFFFFFFFFFFFFFFFF000FFFFFFFFFFFFFFFFFFFFFFFFFFFF
310
FFFFFFFFFFFFFFFFFFFFFFFFFFFFFFFFFFFFFFFFFFFFFFFFFFFFFFFFFFFFFFFF
310
FFFFFFFFFFFFFFFFFFFFFFFFFFFFFFFFFFFFFFFFFFFFFFFFFFFFFFFFFFFFFFFF
310
FFFFFFFFFFFFFFFFF000FFFFFFFFFFFFFFFFFFFFFFFFFFFFFFFFFFFFFFFFFFFF
310
FFFFFFFFFFFFFFFFFFFFFFFFFFFFFFFFFFFFFFFFFFFFFFFFFFFFFFFFFFFFFFFF
310
FFFFFFFFFFFFFFFFFFFFFFFFFFFFFFFFFFFFFFFFFFFFFFFFFFFFFFFFFFFFFFFF
310
F000FFFFFFFFFFFFFFFFFFFFFFFFFFFFFFFFFFFFFFFFFFFFFFFFFFFFFFFFFFFF
310
FFFFFFFFFFFFFFFFFFFFFFFFFFFFFFFFFFFFFFFFFFFFFFFFFFFFFFFFFFFFFFFF
310
FFFFFFFFFFFFFFFFFFFFFFFFFFFFFFFFFFFFFFFFFFFFFFFFF000FFFFFFFFFFFF
310
FFFFFFFFFFFFFFFFFFFFFFFFFFFFFFFFFFFFFFFFFFFFFFFFFFFFFFFFFFFFFFFF
310
FFFFFFFFFFFFFFFFFFFFFFFFFFFFFFFFFFFFFFFFFFFFFFFFFFFFFFFFFFFFFFFF
310
FFFFFFFFFFFFFFFFFFFFFFFFFFFFFFFFF0000000000000000000000000000000
310
0000000001000000000000000100000001000000010000000100000001000000
310
0100000001000000010000000000000001000000010000000100000001000000
310
0100000001000000010000000100000000000000010000000000000001000000
310
0000000001000000000000000100000000000000010000000000000001000000
310
0000000001000000000000000100000000000000010000000000000001000000
310
0000000001000000000000000100000001000000010000000100000001000000
310
0100000001000000010000000000000001000000010000000100000001000000
310
0100000001000000010000000100000000000000010000000000000001000000
310
0000000001000000010000000100000001000000010000000100000001000000
310
0100000000000000010000000100000001000000010000000100000001000000
310
0100000001000000000000000100000000000000010000000000000001000000
310
0100000001000000010000000100000001000000010000000100000000000000
310
0100000001000000010000000100000001000000010000000100000001000000
310
0000000001000000000000000100000000000000010000000000000001000000
310
0000000001000000000000000100000000000000010000000000000001000000
  1
OLE
  0
ENDSEC
  0
SECTION
  2
OBJECTS
  0
DICTIONARY
  5
C
330
0
100
AcDbDictionary
281
     1
  3
ACAD_GROUP
350
D
  3
ACAD_LAYOUT
350
1A
  3
ACAD_MLEADERSTYLE
350
1B1
  3
ACAD_MLINESTYLE
350
17
  3
ACAD_PLOTSETTINGS
350
19
  3
ACAD_PLOTSTYLENAME
350
E
  3
ACAD_TABLESTYLE
350
1B0
  3
ACAD_VISUALSTYLE
350
2A
  3
AcDbVariableDictionary
350
1B2
  0
DICTIONARY
  5
D
102
{ACAD_REACTORS
330
C
102
}
330
C
100
AcDbDictionary
281
     1
  0
DICTIONARY
  5
1A
102
{ACAD_REACTORS
330
C
102
}
330
C
100
AcDbDictionary
281
     1
  3
Layout1
350
1E
  3
Layout2
350
26
  3
Model
350
22
  0
DICTIONARY
  5
1B1
102
{ACAD_REACTORS
330
C
102
}
330
C
100
AcDbDictionary
281
     1
  0
DICTIONARY
  5
17
102
{ACAD_REACTORS
330
C
102
}
330
C
100
AcDbDictionary
281
     1
  3
Standard
350
18
  0
DICTIONARY
  5
19
102
{ACAD_REACTORS
330
C
102
}
330
C
100
AcDbDictionary
281
     1
  0
ACDBDICTIONARYWDFLT
  5
E
102
{ACAD_REACTORS
330
C
102
}
330
C
100
AcDbDictionary
281
     1
  3
Normal
350
F
100
AcDbDictionaryWithDefault
340
F
  0
DICTIONARY
  5
1B0
102
{ACAD_REACTORS
330
C
102
}
330
C
100
AcDbDictionary
281
     1
  0
DICTIONARY
  5
2A
102
{ACAD_REACTORS
330
C
102
}
330
C
100
AcDbDictionary
281
     1
  3
2dWireframe
350
2F
  3
3D Hidden
350
31
  3
3dWireframe
350
30
  3
Basic
350
32
  3
Brighten
350
36
  3
ColorChange
350
3A
  3
Conceptual
350
34
  3
Dim
350
35
  3
Facepattern
350
39
  3
Flat
350
2B
  3
FlatWithEdges
350
2C
  3
Gouraud
350
2D
  3
GouraudWithEdges
350
2E
  3
Linepattern
350
38
  3
Realistic
350
33
  3
Thicken
350
37
  0
DICTIONARY
  5
1B2
102
{ACAD_REACTORS
330
C
102
}
330
C
100
AcDbDictionary
281
     1
  3
PSOLHEIGHT
350
1B4
  3
PSOLWIDTH
350
1B3
  0
LAYOUT
  5
1E
102
{ACAD_REACTORS
330
1A
102
}
330
1A
100
AcDbPlotSettings
  1

  2
none_device
  4

  6

 40
0.0
 41
0.0
 42
0.0
 43
0.0
 44
0.0
 45
0.0
 46
0.0
 47
0.0
 48
0.0
 49
0.0
140
0.0
141
0.0
142
1.0
143
1.0
 70
   688
 72
     0
 73
     0
 74
     5
  7

 75
    16
147
1.0
148
0.0
149
0.0
100
AcDbLayout
  1
Layout1
 70
     1
 71
     1
 10
0.0
 20
0.0
 11
420.0
 21
297.0
 12
0.0
 22
0.0
 32
0.0
 14
1.0000000000E+20
 24
1.0000000000E+20
 34
1.0000000000E+20
 15
-1.0000000000E+20
 25
-1.0000000000E+20
 35
-1.0000000000E+20
146
0.0
 13
0.0
 23
0.0
 33
0.0
 16
1.0
 26
0.0
 36
0.0
 17
0.0
 27
1.0
 37
0.0
 76
     0
330
1B
  0
LAYOUT
  5
26
102
{ACAD_REACTORS
330
1A
102
}
330
1A
100
AcDbPlotSettings
  1

  2
none_device
  4

  6

 40
0.0
 41
0.0
 42
0.0
 43
0.0
 44
0.0
 45
0.0
 46
0.0
 47
0.0
 48
0.0
 49
0.0
140
0.0
141
0.0
142
1.0
143
1.0
 70
   688
 72
     0
 73
     0
 74
     5
  7

 75
    16
147
1.0
148
0.0
149
0.0
100
AcDbLayout
  1
Layout2
 70
     1
 71
     2
 10
0.0
 20
0.0
 11
0.0
 21
0.0
 12
0.0
 22
0.0
 32
0.0
 14
0.0
 24
0.0
 34
0.0
 15
0.0
 25
0.0
 35
0.0
146
0.0
 13
0.0
 23
0.0
 33
0.0
 16
1.0
 26
0.0
 36
0.0
 17
0.0
 27
1.0
 37
0.0
 76
     0
330
23
  0
LAYOUT
  5
22
102
{ACAD_REACTORS
330
1A
102
}
330
1A
100
AcDbPlotSettings
  1

  2
none_device
  4

  6

 40
0.0
 41
0.0
 42
0.0
 43
0.0
 44
0.0
 45
0.0
 46
0.0
 47
0.0
 48
0.0
 49
0.0
140
0.0
141
0.0
142
1.0
143
1.0
 70
  1712
 72
     0
 73
     0
 74
     0
  7

 75
     0
147
1.0
148
0.0
149
0.0
100
AcDbLayout
  1
Model
 70
     1
 71
     0
 10
0.0
 20
0.0
 11
297.0
 21
210.0
 12
0.0
 22
0.0
 32
0.0
 14
0.0
 24
0.0
 34
0.0
 15
297.0
 25
210.0
 35
0.0
146
0.0
 13
0.0
 23
0.0
 33
0.0
 16
1.0
 26
0.0
 36
0.0
 17
0.0
 27
1.0
 37
0.0
 76
     0
330
1F
331
29
  0
MLINESTYLE
  5
18
102
{ACAD_REACTORS
330
17
102
}
330
17
100
AcDbMlineStyle
  2
Standard
 70
     0
  3

 62
   256
 51
90.0
 52
90.0
 71
     2
 49
0.5
 62
   256
  6
BYLAYER
 49
-0.5
 62
   256
  6
BYLAYER
  0
ACDBPLACEHOLDER
  5
F
102
{ACAD_REACTORS
330
E
102
}
330
E
  0
VISUALSTYLE
  5
2F
102
{ACAD_REACTORS
330
2A
102
}
330
2A
100
AcDbVisualStyle
  2
2dWireframe
 70
     4
 71
     0
 72
     2
 73
     0
 90
        0
 40
-0.6
 41
-30.0
 62
     5
 63
     7
 74
     1
 91
        4
 64
     7
 65
   257
 75
     1
175
     1
 42
1.0
 92
        0
 66
   257
 43
1.0
 76
     1
 77
     6
 78
     2
 67
     7
 79
     5
170
     0
171
     0
290
     0
174
     0
 93
        1
 44
0.0
173
     0
291
     0
 45
0.0
1001
ACAD
1000
AcDbSavedByObjectVersion
1070
     0
  0
VISUALSTYLE
  5
31
102
{ACAD_REACTORS
330
2A
102
}
330
2A
100
AcDbVisualStyle
  2
3D Hidden
 70
     6
 71
     1
 72
     2
 73
     2
 90
        0
 40
-0.6
 41
-30.0
 62
     5
 63
     7
 74
     2
 91
        2
 64
     7
 65
   257
 75
     2
175
     1
 42
40.0
 92
        0
 66
   257
 43
1.0
 76
     1
 77
     6
 78
     2
 67
     7
 79
     3
170
     0
171
     0
290
     0
174
     0
 93
        1
 44
0.0
173
     0
291
     0
 45
0.0
1001
ACAD
1000
AcDbSavedByObjectVersion
1070
     0
  0
VISUALSTYLE
  5
30
102
{ACAD_REACTORS
330
2A
102
}
330
2A
100
AcDbVisualStyle
  2
3dWireframe
 70
     5
 71
     0
 72
     2
 73
     0
 90
        0
 40
-0.6
 41
-30.0
 62
     5
 63
     7
 74
     1
 91
        4
 64
     7
 65
   257
 75
     1
175
     1
 42
1.0
 92
        0
 66
   257
 43
1.0
 76
     1
 77
     6
 78
     2
 67
     7
 79
     5
170
     0
171
     0
290
     0
174
     0
 93
        1
 44
0.0
173
     0
291
     0
 45
0.0
1001
ACAD
1000
AcDbSavedByObjectVersion
1070
     0
  0
VISUALSTYLE
  5
32
102
{ACAD_REACTORS
330
2A
102
}
330
2A
100
AcDbVisualStyle
  2
Basic
 70
     7
 71
     1
 72
     0
 73
     1
 90
        0
 40
-0.6
 41
-30.0
 62
     5
 63
     7
 74
     0
 91
        4
 64
     7
 65
   257
 75
     1
175
     1
 42
1.0
 92
        8
 66
     7
 43
1.0
 76
     1
 77
     6
 78
     2
 67
     7
 79
     5
170
     0
171
     0
290
     0
174
     0
 93
        1
 44
0.0
173
     0
291
     1
 45
0.0
1001
ACAD
1000
AcDbSavedByObjectVersion
1070
     0
  0
VISUALSTYLE
  5
36
102
{ACAD_REACTORS
330
2A
102
}
330
2A
100
AcDbVisualStyle
  2
Brighten
 70
    12
 71
     2
 72
     2
 73
     0
 90
        0
 40
-0.6
 41
-30.0
 62
     5
 63
     7
 74
     1
 91
        4
 64
     7
 65
   257
 75
     1
175
     1
 42
1.0
 92
        8
 66
     7
 43
1.0
 76
     1
 77
     6
 78
     2
 67
     7
 79
     5
170
     0
171
     0
290
     0
174
     0
 93
        1
 44
50.0
173
     0
291
     1
 45
0.0
1001
ACAD
1000
AcDbSavedByObjectVersion
1070
     0
  0
VISUALSTYLE
  5
3A
102
{ACAD_REACTORS
330
2A
102
}
330
2A
100
AcDbVisualStyle
  2
ColorChange
 70
    16
 71
     2
 72
     2
 73
     3
 90
        0
 40
-0.6
 41
-30.0
 62
     5
 63
     8
 74
     1
 91
        4
 64
     7
 65
   257
 75
     1
175
     1
 42
1.0
 92
        8
 66
     8
 43
1.0
 76
     1
 77
     6
 78
     2
 67
     7
 79
     5
170
     0
171
     0
290
     0
174
     0
 93
        1
 44
0.0
173
     0
291
     1
 45
0.0
1001
ACAD
1000
AcDbSavedByObjectVersion
1070
     0
  0
VISUALSTYLE
  5
34
102
{ACAD_REACTORS
330
2A
102
}
330
2A
100
AcDbVisualStyle
  2
Conceptual
 70
     9
 71
     3
 72
     2
 73
     0
 90
        0
 40
-0.6
 41
-30.0
 62
     5
 63
     7
 74
     2
 91
        2
 64
     7
 65
   257
 75
     1
175
     1
 42
40.0
 92
        8
 66
     7
 43
1.0
 76
     1
 77
     6
 78
     2
 67
     7
 79
     3
170
     0
171
     0
290
     0
174
     0
 93
        1
 44
0.0
173
     0
291
     0
 45
0.0
1001
ACAD
1000
AcDbSavedByObjectVersion
1070
     0
  0
VISUALSTYLE
  5
35
102
{ACAD_REACTORS
330
2A
102
}
330
2A
100
AcDbVisualStyle
  2
Dim
 70
    11
 71
     2
 72
     2
 73
     0
 90
        0
 40
-0.6
 41
-30.0
 62
     5
 63
     7
 74
     1
 91
        4
 64
     7
 65
   257
 75
     1
175
     1
 42
1.0
 92
        8
 66
     7
 43
1.0
 76
     1
 77
     6
 78
     2
 67
     7
 79
     5
170
     0
171
     0
290
     0
174
     0
 93
        1
 44
-50.0
173
     0
291
     1
 45
0.0
1001
ACAD
1000
AcDbSavedByObjectVersion
1070
     0
  0
VISUALSTYLE
  5
39
102
{ACAD_REACTORS
330
2A
102
}
330
2A
100
AcDbVisualStyle
  2
Facepattern
 70
    15
 71
     2
 72
     2
 73
     0
 90
        0
 40
-0.6
 41
-30.0
 62
     5
 63
     7
 74
     1
 91
        4
 64
     7
 65
   257
 75
     1
175
     1
 42
1.0
 92
        8
 66
     7
 43
1.0
 76
     1
 77
     6
 78
     2
 67
     7
 79
     5
170
     0
171
     0
290
     0
174
     0
 93
        1
 44
0.0
173
     0
291
     1
 45
0.0
1001
ACAD
1000
AcDbSavedByObjectVersion
1070
     0
  0
VISUALSTYLE
  5
2B
102
{ACAD_REACTORS
330
2A
102
}
330
2A
100
AcDbVisualStyle
  2
Flat
 70
     0
 71
     2
 72
     1
 73
     1
 90
        2
 40
-0.6
 41
30.0
 62
     5
 63
     7
 74
     0
 91
        4
 64
     7
 65
   257
 75
     1
175
     1
 42
1.0
 92
        8
 66
     7
 43
1.0
 76
     1
 77
     6
 78
     2
 67
     7
 79
     5
170
     0
171
     0
290
     0
174
     0
 93
       13
 44
0.0
173
     0
291
     1
 45
0.0
1001
ACAD
1000
AcDbSavedByObjectVersion
1070
     0
  0
VISUALSTYLE
  5
2C
102
{ACAD_REACTORS
330
2A
102
}
330
2A
100
AcDbVisualStyle
  2
FlatWithEdges
 70
     1
 71
     2
 72
     1
 73
     1
 90
        2
 40
-0.6
 41
30.0
 62
     5
 63
     7
 74
     1
 91
        4
 64
     7
 65
   257
 75
     1
175
     1
 42
1.0
 92
        0
 66
   257
 43
1.0
 76
     1
 77
     6
 78
     2
 67
     7
 79
     5
170
     0
171
     0
290
     0
174
     0
 93
       13
 44
0.0
173
     0
291
     1
 45
0.0
1001
ACAD
1000
AcDbSavedByObjectVersion
1070
     0
  0
VISUALSTYLE
  5
2D
102
{ACAD_REACTORS
330
2A
102
}
330
2A
100
AcDbVisualStyle
  2
Gouraud
 70
     2
 71
     2
 72
     2
 73
     1
 90
        2
 40
-0.6
 41
30.0
 62
     5
 63
     7
 74
     0
 91
        4
 64
     7
 65
   257
 75
     1
175
     1
 42
1.0
 92
        0
 66
     7
 43
1.0
 76
     1
 77
     6
 78
     2
 67
     7
 79
     5
170
     0
171
     0
290
     0
174
     0
 93
       13
 44
0.0
173
     0
291
     1
 45
0.0
1001
ACAD
1000
AcDbSavedByObjectVersion
1070
     0
  0
VISUALSTYLE
  5
2E
102
{ACAD_REACTORS
330
2A
102
}
330
2A
100
AcDbVisualStyle
  2
GouraudWithEdges
 70
     3
 71
     2
 72
     2
 73
     1
 90
        2
 40
-0.6
 41
30.0
 62
     5
 63
     7
 74
     1
 91
        4
 64
     7
 65
   257
 75
     1
175
     1
 42
1.0
 92
        0
 66
   257
 43
1.0
 76
     1
 77
     6
 78
     2
 67
     7
 79
     5
170
     0
171
     0
290
     0
174
     0
 93
       13
 44
0.0
173
     0
291
     1
 45
0.0
1001
ACAD
1000
AcDbSavedByObjectVersion
1070
     0
  0
VISUALSTYLE
  5
38
102
{ACAD_REACTORS
330
2A
102
}
330
2A
100
AcDbVisualStyle
  2
Linepattern
 70
    14
 71
     2
 72
     2
 73
     0
 90
        0
 40
-0.6
 41
-30.0
 62
     5
 63
     7
 74
     1
 91
        4
 64
     7
 65
   257
 75
     7
175
     7
 42
1.0
 92
        8
 66
     7
 43
1.0
 76
     1
 77
     6
 78
     2
 67
     7
 79
     5
170
     0
171
     0
290
     0
174
     0
 93
        1
 44
0.0
173
     0
291
     1
 45
0.0
1001
ACAD
1000
AcDbSavedByObjectVersion
1070
     0
  0
VISUALSTYLE
  5
33
102
{ACAD_REACTORS
330
2A
102
}
330
2A
100
AcDbVisualStyle
  2
Realistic
 70
     8
 71
     2
 72
     2
 73
     0
 90
        0
 40
-0.6
 41
-30.0
 62
     5
 63
     7
 74
     1
 91
        0
 64
     7
 65
   257
 75
     1
175
     1
 42
1.0
 92
        8
 66
     8
 43
1.0
 76
     1
 77
     6
 78
     2
 67
     7
 79
     5
170
     0
171
     0
290
     0
174
     0
 93
       13
 44
0.0
173
     0
291
     0
 45
0.0
1001
ACAD
1000
AcDbSavedByObjectVersion
1070
     0
  0
VISUALSTYLE
  5
37
102
{ACAD_REACTORS
330
2A
102
}
330
2A
100
AcDbVisualStyle
  2
Thicken
 70
    13
 71
     2
 72
     2
 73
     0
 90
        0
 40
-0.6
 41
-30.0
 62
     5
 63
     7
 74
     1
 91
        4
 64
     7
 65
   257
 75
     1
175
     1
 42
1.0
 92
       12
 66
     7
 43
1.0
 76
     1
 77
     6
 78
     2
 67
     7
 79
     5
170
     0
171
     0
290
     0
174
     0
 93
        1
 44
0.0
173
     0
291
     1
 45
0.0
1001
ACAD
1000
AcDbSavedByObjectVersion
1070
     0
  0
DICTIONARYVAR
  5
1B4
102
{ACAD_REACTORS
330
1B2
102
}
330
1B2
100
DictionaryVariables
280
     0
  1
80.000000
  0
DICTIONARYVAR
  5
1B3
102
{ACAD_REACTORS
330
1B2
102
}
330
1B2
100
DictionaryVariables
280
     0
  1
5.000000
  0
ENDSEC
  0
EOF
