  0
SECTION
  2
HEADER
  9
$ACADVER
  1
AC1015
  9
$ACADMAINTVER
 70
     6
  9
$DWGCODEPAGE
  3
ANSI_1252
  9
$INSBASE
 10
0.0
 20
0.0
 30
0.0
  9
$EXTMIN
 10
0.0
 20
0.0
 30
0.0
  9
$EXTMAX
 10
297.0
 20
210.0
 30
0.0
  9
$LIMMIN
 10
0.0
 20
0.0
  9
$LIMMAX
 10
297.0
 20
210.0
  9
$ORTHOMODE
 70
     0
  9
$REGENMODE
 70
     1
  9
$FILLMODE
 70
     1
  9
$QTEXTMODE
 70
     0
  9
$MIRRTEXT
 70
     1
  9
$LTSCALE
 40
1.0
  9
$ATTMODE
 70
     1
  9
$TEXTSIZE
 40
2.0
  9
$TRACEWID
 40
1.0
  9
$TEXTSTYLE
  7
Standard
  9
$CLAYER
  8
0
  9
$CELTYPE
  6
ByLayer
  9
$CECOLOR
 62
   256
  9
$CELTSCALE
 40
1.0
  9
$DISPSILH
 70
     0
  9
$DIMSCALE
 40
1.0
  9
$DIMASZ
 40
3.0
  9
$DIMEXO
 40
0.0
  9
$DIMDLI
 40
3.75
  9
$DIMRND
 40
0.0
  9
$DIMDLE
 40
0.0
  9
$DIMEXE
 40
1.0
  9
$DIMTP
 40
0.0
  9
$DIMTM
 40
0.0
  9
$DIMTXT
 40
2.0
  9
$DIMCEN
 40
2.5
  9
$DIMTSZ
 40
0.0
  9
$DIMTOL
 70
     0
  9
$DIMLIM
 70
     0
  9
$DIMTIH
 70
     1
  9
$DIMTOH
 70
     1
  9
$DIMSE1
 70
     0
  9
$DIMSE2
 70
     0
  9
$DIMTAD
 70
     1
  9
$DIMZIN
 70
     0
  9
$DIMBLK
  1

  9
$DIMASO
 70
     1
  9
$DIMSHO
 70
     1
  9
$DIMPOST
  1

  9
$DIMAPOST
  1

  9
$DIMALT
 70
     0
  9
$DIMALTD
 70
     3
  9
$DIMALTF
 40
0.0393700787
  9
$DIMLFAC
 40
1.0
  9
$DIMTOFL
 70
     1
  9
$DIMTVP
 40
0.0
  9
$DIMTIX
 70
     0
  9
$DIMSOXD
 70
     0
  9
$DIMSAH
 70
     0
  9
$DIMBLK1
  1

  9
$DIMBLK2
  1

  9
$DIMSTYLE
  2
ISO-25
  9
$DIMCLRD
 70
     0
  9
$DIMCLRE
 70
     0
  9
$DIMCLRT
 70
     0
  9
$DIMTFAC
 40
1.0
  9
$DIMGAP
 40
1.524
  9
$DIMJUST
 70
     0
  9
$DIMSD1
 70
     0
  9
$DIMSD2
 70
     0
  9
$DIMTOLJ
 70
     0
  9
$DIMTZIN
 70
     0
  9
$DIMALTZ
 70
     0
  9
$DIMALTTZ
 70
     0
  9
$DIMUPT
 70
     0
  9
$DIMDEC
 70
     2
  9
$DIMTDEC
 70
     3
  9
$DIMALTU
 70
     2
  9
$DIMALTTD
 70
     3
  9
$DIMTXSTY
  7
Standard
  9
$DIMAUNIT
 70
     0
  9
$DIMADEC
 70
     2
  9
$DIMALTRND
 40
0.0
  9
$DIMAZIN
 70
     0
  9
$DIMDSEP
 70
    44
  9
$DIMATFIT
 70
     3
  9
$DIMFRAC
 70
     0
  9
$DIMLDRBLK
  1

  9
$DIMLUNIT
 70
     2
  9
$DIMLWD
 70
    -2
  9
$DIMLWE
 70
    -2
  9
$DIMTMOVE
 70
     0
  9
$LUNITS
 70
     2
  9
$LUPREC
 70
     2
  9
$SKETCHINC
 40
1.0
  9
$FILLETRAD
 40
10.0
  9
$AUNITS
 70
     0
  9
$AUPREC
 70
     2
  9
$MENU
  1
.
  9
$ELEVATION
 40
0.0
  9
$PELEVATION
 40
0.0
  9
$THICKNESS
 40
0.0
  9
$LIMCHECK
 70
     0
  9
$CHAMFERA
 40
10.0
  9
$CHAMFERB
 40
10.0
  9
$CHAMFERC
 40
20.0
  9
$CHAMFERD
 40
0.0
  9
$SKPOLY
 70
     0
  9
$TDCREATE
 40
2455679.363079271
  9
$TDUCREATE
 40
2455679.279745937
  9
$TDUPDATE
 40
2455679.363079282
  9
$TDUUPDATE
 40
2455679.279745949
  9
$TDINDWG
 40
0.0000000116
  9
$TDUSRTIMER
 40
0.0000000116
  9
$USRTIMER
 70
     1
  9
$ANGBASE
 50
0.0
  9
$ANGDIR
 70
     0
  9
$PDMODE
 70
     0
  9
$PDSIZE
 40
-1.0
  9
$PLINEWID
 40
0.0
  9
$SPLFRAME
 70
     0
  9
$SPLINETYPE
 70
     6
  9
$SPLINESEGS
 70
     8
  9
$HANDSEED
  5
1BC
  9
$SURFTAB1
 70
     6
  9
$SURFTAB2
 70
     6
  9
$SURFTYPE
 70
     6
  9
$SURFU
 70
     6
  9
$SURFV
 70
     6
  9
$UCSBASE
  2

  9
$UCSNAME
  2

  9
$UCSORG
 10
0.0
 20
0.0
 30
0.0
  9
$UCSXDIR
 10
1.0
 20
0.0
 30
0.0
  9
$UCSYDIR
 10
0.0
 20
1.0
 30
0.0
  9
$UCSORTHOREF
  2

  9
$UCSORTHOVIEW
 70
     0
  9
$UCSORGTOP
 10
0.0
 20
0.0
 30
0.0
  9
$UCSORGBOTTOM
 10
0.0
 20
0.0
 30
0.0
  9
$UCSORGLEFT
 10
0.0
 20
0.0
 30
0.0
  9
$UCSORGRIGHT
 10
0.0
 20
0.0
 30
0.0
  9
$UCSORGFRONT
 10
0.0
 20
0.0
 30
0.0
  9
$UCSORGBACK
 10
0.0
 20
0.0
 30
0.0
  9
$PUCSBASE
  2

  9
$PUCSNAME
  2

  9
$PUCSORG
 10
0.0
 20
0.0
 30
0.0
  9
$PUCSXDIR
 10
1.0
 20
0.0
 30
0.0
  9
$PUCSYDIR
 10
0.0
 20
1.0
 30
0.0
  9
$PUCSORTHOREF
  2

  9
$PUCSORTHOVIEW
 70
     0
  9
$PUCSORGTOP
 10
0.0
 20
0.0
 30
0.0
  9
$PUCSORGBOTTOM
 10
0.0
 20
0.0
 30
0.0
  9
$PUCSORGLEFT
 10
0.0
 20
0.0
 30
0.0
  9
$PUCSORGRIGHT
 10
0.0
 20
0.0
 30
0.0
  9
$PUCSORGFRONT
 10
0.0
 20
0.0
 30
0.0
  9
$PUCSORGBACK
 10
0.0
 20
0.0
 30
0.0
  9
$USERI1
 70
     0
  9
$USERI2
 70
     0
  9
$USERI3
 70
     0
  9
$USERI4
 70
     0
  9
$USERI5
 70
     0
  9
$USERR1
 40
0.0
  9
$USERR2
 40
0.0
  9
$USERR3
 40
0.0
  9
$USERR4
 40
0.0
  9
$USERR5
 40
0.0
  9
$WORLDVIEW
 70
     1
  9
$SHADEDGE
 70
     3
  9
$SHADEDIF
 70
    70
  9
$TILEMODE
 70
     1
  9
$MAXACTVP
 70
    64
  9
$PINSBASE
 10
0.0
 20
0.0
 30
0.0
  9
$PLIMCHECK
 70
     0
  9
$PEXTMIN
 10
1.0000000000E+20
 20
1.0000000000E+20
 30
1.0000000000E+20
  9
$PEXTMAX
 10
-1.0000000000E+20
 20
-1.0000000000E+20
 30
-1.0000000000E+20
  9
$PLIMMIN
 10
0.0
 20
0.0
  9
$PLIMMAX
 10
420.0
 20
297.0
  9
$UNITMODE
 70
     0
  9
$VISRETAIN
 70
     1
  9
$PLINEGEN
 70
     0
  9
$PSLTSCALE
 70
     1
  9
$TREEDEPTH
 70
  3020
  9
$CMLSTYLE
  2
Standard
  9
$CMLJUST
 70
     0
  9
$CMLSCALE
 40
20.0
  9
$PROXYGRAPHICS
 70
     1
  9
$MEASUREMENT
 70
     1
  9
$CELWEIGHT
370
    -1
  9
$ENDCAPS
280
     0
  9
$JOINSTYLE
280
     0
  9
$LWDISPLAY
290
     1
  9
$INSUNITS
 70
     4
  9
$HYPERLINKBASE
  1

  9
$STYLESHEET
  1

  9
$XEDIT
290
     1
  9
$CEPSNTYPE
380
     0
  9
$PSTYLEMODE
290
     1
  9
$FINGERPRINTGUID
  2
{250B60EB-5CDA-411C-ADF7-C5145D5E2BD2}
  9
$VERSIONGUID
  2
{FAEB1C32-E019-11D5-929B-00C0DF256EC4}
  9
$EXTNAMES
290
     1
  9
$PSVPSCALE
 40
0.0
  9
$OLESTARTUP
290
     0
  0
ENDSEC
  0
SECTION
  2
CLASSES
  0
CLASS
  1
ACDBDICTIONARYWDFLT
  2
AcDbDictionaryWithDefault
  3
ObjectDBX Classes
 90
        0
280
     0
281
     0
  0
CLASS
  1
VISUALSTYLE
  2
AcDbVisualStyle
  3
ObjectDBX Classes
 90
     4095
280
     0
281
     0
  0
CLASS
  1
DICTIONARYVAR
  2
AcDbDictionaryVar
  3
ObjectDBX Classes
 90
        0
280
     0
281
     0
  0
CLASS
  1
ACDBPLACEHOLDER
  2
AcDbPlaceHolder
  3
ObjectDBX Classes
 90
        0
280
     0
281
     0
  0
CLASS
  1
LAYOUT
  2
AcDbLayout
  3
ObjectDBX Classes
 90
        0
280
     0
281
     0
  0
ENDSEC
  0
SECTION
  2
TABLES
  0
TABLE
  2
VPORT
  5
8
330
0
100
AcDbSymbolTable
 70
     1
  0
VPORT
  5
29
330
8
100
AcDbSymbolTableRecord
100
AcDbViewportTableRecord
  2
*Active
 70
     0
 10
0.0
 20
0.0
 11
1.0
 21
1.0
 12
148.5
 22
105.0
 13
0.0
 23
0.0
 14
10.0
 24
10.0
 15
10.0
 25
10.0
 16
0.0
 26
0.0
 36
1.0
 17
0.0
 27
0.0
 37
0.0
 40
210.0
 41
1.4142857143
 42
50.0
 43
0.0
 44
0.0
 50
0.0
 51
0.0
 71
     0
 72
  2000
 73
     1
 74
     3
 75
     0
 76
     0
 77
     0
 78
     0
281
     0
 65
     1
110
0.0
120
0.0
130
0.0
111
1.0
121
0.0
131
0.0
112
0.0
122
1.0
132
0.0
 79
     0
146
0.0
  0
ENDTAB
  0
TABLE
  2
LTYPE
  5
5
330
0
100
AcDbSymbolTable
 70
     6
  0
LTYPE
  5
14
330
5
100
AcDbSymbolTableRecord
100
AcDbLinetypeTableRecord
  2
ByBlock
 70
     0
  3

 72
    65
 73
     0
 40
0.0
  0
LTYPE
  5
15
330
5
100
AcDbSymbolTableRecord
100
AcDbLinetypeTableRecord
  2
ByLayer
 70
     0
  3

 72
    65
 73
     0
 40
0.0
  0
LTYPE
  5
16
330
5
100
AcDbSymbolTableRecord
100
AcDbLinetypeTableRecord
  2
Continuous
 70
     0
  3
Solid line
 72
    65
 73
     0
 40
0.0
  0
LTYPE
  5
3B
330
5
100
AcDbSymbolTableRecord
100
AcDbLinetypeTableRecord
  2
HIDDEN
 70
     0
  3
Hidden __ __ __ __ __ __ __ __ __ __ __ __ __ __
 72
    65
 73
     2
 40
1.905
 49
1.27
 74
     0
 49
-0.635
 74
     0
  0
LTYPE
  5
3C
330
5
100
AcDbSymbolTableRecord
100
AcDbLinetypeTableRecord
  2
PHANTOM
 70
     0
  3
Phantom ______  __  __  ______  __  __  ______
 72
    65
 73
     6
 40
12.7
 49
6.35
 74
     0
 49
-1.27
 74
     0
 49
1.27
 74
     0
 49
-1.27
 74
     0
 49
1.27
 74
     0
 49
-1.27
 74
     0
  0
LTYPE
  5
3D
330
5
100
AcDbSymbolTableRecord
100
AcDbLinetypeTableRecord
  2
CENTER
 70
     0
  3
Center ____ _ ____ _ ____ _ ____ _ ____ _ ____
 72
    65
 73
     4
 40
10.16
 49
6.35
 74
     0
 49
-1.27
 74
     0
 49
1.27
 74
     0
 49
-1.27
 74
     0
  0
LTYPE
  5
3E
330
5
100
AcDbSymbolTableRecord
100
AcDbLinetypeTableRecord
  2
CENTERX2
 70
     0
  3
Center (2x) ________  __  ________  __  _____
 72
    65
 73
     4
 40
20.32
 49
12.7
 74
     0
 49
-2.54
 74
     0
 49
2.54
 74
     0
 49
-2.54
 74
     0
  0
LTYPE
  5
3F
330
5
100
AcDbSymbolTableRecord
100
AcDbLinetypeTableRecord
  2
DOT2
 70
     0
  3
Dot (.5x) ........................................
 72
    65
 73
     2
 40
0.635
 49
0.0
 74
     0
 49
-0.635
 74
     0
  0
ENDTAB
  0
TABLE
  2
LAYER
  5
2
330
0
100
AcDbSymbolTable
 70
     5
  0
LAYER
  5
10
330
2
100
AcDbSymbolTableRecord
100
AcDbLayerTableRecord
  2
0
 70
     0
 62
     7
  6
Continuous
370
    -3
390
F
  0
LAYER
  5
40
330
2
100
AcDbSymbolTableRecord
100
AcDbLayerTableRecord
  2
FORMAT
 70
     0
 62
     7
  6
Continuous
370
    -3
390
F
  0
LAYER
  5
41
330
2
100
AcDbSymbolTableRecord
100
AcDbLayerTableRecord
  2
VERMASSUNG
 70
     0
 62
     7
  6
Continuous
370
    -3
390
F
  0
LAYER
  5
42
330
2
100
AcDbSymbolTableRecord
100
AcDbLayerTableRecord
  2
KOPF_DÜNN
 70
     0
 62
     7
  6
Continuous
370
    -3
390
F
  0
LAYER
  5
43
330
2
100
AcDbSymbolTableRecord
100
AcDbLayerTableRecord
  2
KOPF_DICK
 70
     0
 62
     7
  6
Continuous
370
    15
390
F
  0
ENDTAB
  0
TABLE
  2
STYLE
  5
3
330
0
100
AcDbSymbolTable
 70
     3
  0
STYLE
  5
11
330
3
100
AcDbSymbolTableRecord
100
AcDbTextStyleTableRecord
  2
Standard
 70
     0
 40
0.0
 41
1.0
 50
0.0
 71
     0
 42
2.5
  3
txt
  4

  0
STYLE
  5
44
330
3
100
AcDbSymbolTableRecord
100
AcDbTextStyleTableRecord
  2
SLDTEXTSTYLE0
 70
     0
 40
0.0
 41
0.7
 50
0.0
 71
     0
 42
0.2
  3
TXT
  4

  0
STYLE
  5
48
330
3
100
AcDbSymbolTableRecord
100
AcDbTextStyleTableRecord
  2
SLDTEXTSTYLE1
 70
     0
 40
0.0
 41
0.6473684211
 50
0.0
 71
     0
 42
0.2
  3
TXT
  4

  0
ENDTAB
  0
TABLE
  2
VIEW
  5
6
330
0
100
AcDbSymbolTable
 70
     0
  0
ENDTAB
  0
TABLE
  2
UCS
  5
7
330
0
100
AcDbSymbolTable
 70
     0
  0
ENDTAB
  0
TABLE
  2
APPID
  5
9
330
0
100
AcDbSymbolTable
 70
     1
  0
APPID
  5
12
330
9
100
AcDbSymbolTableRecord
100
AcDbRegAppTableRecord
  2
ACAD
 70
     0
  0
ENDTAB
  0
TABLE
  2
DIMSTYLE
  5
A
330
0
100
AcDbSymbolTable
 70
     5
100
AcDbDimStyleTable
  0
DIMSTYLE
105
27
330
A
100
AcDbSymbolTableRecord
100
AcDbDimStyleTableRecord
  2
ISO-25
 70
     0
 41
2.5
 42
0.625
 43
3.75
 44
1.25
 73
     0
 74
     0
 77
     1
 78
     8
140
2.5
141
2.5
143
0.0393700787
147
0.625
171
     3
172
     1
271
     2
272
     2
274
     3
278
    44
283
     0
284
     8
340
11
  0
DIMSTYLE
105
15D
102
{ACAD_REACTORS
330
15C
330
197
330
1A1
330
1AB
102
}
330
A
100
AcDbSymbolTableRecord
100
AcDbDimStyleTableRecord
  2
SLDDIMSTYLE0
 70
     0
 41
3.0
 44
0.0
 45
0.000000001
 73
     0
 74
     0
 77
     1
 78
    12
140
2.0
147
0.5
173
     1
271
     2
272
     3
284
    12
340
44
  0
DIMSTYLE
105
16A
102
{ACAD_REACTORS
330
169
102
}
330
A
100
AcDbSymbolTableRecord
100
AcDbDimStyleTableRecord
  2
SLDDIMSTYLE1
 70
     0
 41
3.0
 44
0.0
 45
0.000000001
 73
     0
 74
     0
 77
     1
 78
    12
140
2.0
147
0.5
173
     1
271
     2
272
     2
284
    12
340
44
  0
DIMSTYLE
105
175
102
{ACAD_REACTORS
330
174
102
}
330
A
100
AcDbSymbolTableRecord
100
AcDbDimStyleTableRecord
  2
SLDDIMSTYLE2
 70
     0
 41
3.0
 44
0.0
 45
0.000000001
 73
     0
 74
     0
 77
     1
 78
    12
140
2.0
147
0.5
173
     1
271
     2
272
     2
284
    12
340
44
  0
DIMSTYLE
105
181
102
{ACAD_REACTORS
330
180
330
18C
102
}
330
A
100
AcDbSymbolTableRecord
100
AcDbDimStyleTableRecord
  2
SLDDIMSTYLE3
 70
     0
 41
3.0
 44
0.0
 45
0.000000001
 73
     0
 74
     0
 77
     1
 78
    12
140
2.0
147
0.5
173
     1
271
     2
272
     3
284
    12
340
44
  0
ENDTAB
  0
TABLE
  2
BLOCK_RECORD
  5
1
330
0
100
AcDbSymbolTable
 70
     9
  0
BLOCK_RECORD
  5
1F
330
1
100
AcDbSymbolTableRecord
100
AcDbBlockTableRecord
  2
*Model_Space
340
22
  0
BLOCK_RECORD
  5
1B
330
1
100
AcDbSymbolTableRecord
100
AcDbBlockTableRecord
  2
*Paper_Space
340
1E
  0
BLOCK_RECORD
  5
23
330
1
100
AcDbSymbolTableRecord
100
AcDbBlockTableRecord
  2
*Paper_Space0
340
26
  0
BLOCK_RECORD
  5
15E
330
1
100
AcDbSymbolTableRecord
100
AcDbBlockTableRecord
  2
*D1
340
0
  0
BLOCK_RECORD
  5
16B
330
1
100
AcDbSymbolTableRecord
100
AcDbBlockTableRecord
  2
*D2
340
0
  0
BLOCK_RECORD
  5
176
330
1
100
AcDbSymbolTableRecord
100
AcDbBlockTableRecord
  2
*D3
340
0
  0
BLOCK_RECORD
  5
182
330
1
100
AcDbSymbolTableRecord
100
AcDbBlockTableRecord
  2
*D4
340
0
  0
BLOCK_RECORD
  5
18D
330
1
100
AcDbSymbolTableRecord
100
AcDbBlockTableRecord
  2
*D5
340
0
  0
BLOCK_RECORD
  5
198
330
1
100
AcDbSymbolTableRecord
100
AcDbBlockTableRecord
  2
*D6
340
0
  0
BLOCK_RECORD
  5
1A2
330
1
100
AcDbSymbolTableRecord
100
AcDbBlockTableRecord
  2
*D7
340
0
  0
BLOCK_RECORD
  5
1AC
330
1
100
AcDbSymbolTableRecord
100
AcDbBlockTableRecord
  2
*D8
340
0
  0
ENDTAB
  0
ENDSEC
  0
SECTION
  2
BLOCKS
  0
BLOCK
  5
20
330
1F
100
AcDbEntity
  8
0
100
AcDbBlockBegin
  2
*Model_Space
 70
     0
 10
0.0
 20
0.0
 30
0.0
  3
*Model_Space
  1

  0
ENDBLK
  5
21
330
1F
100
AcDbEntity
  8
0
100
AcDbBlockEnd
  0
BLOCK
  5
1C
330
1B
100
AcDbEntity
 67
     1
  8
0
100
AcDbBlockBegin
  2
*Paper_Space
 70
     0
 10
0.0
 20
0.0
 30
0.0
  3
*Paper_Space
  1

  0
ENDBLK
  5
1D
330
1B
100
AcDbEntity
 67
     1
  8
0
100
AcDbBlockEnd
  0
BLOCK
  5
24
330
23
100
AcDbEntity
  8
0
100
AcDbBlockBegin
  2
*Paper_Space0
 70
     0
 10
0.0
 20
0.0
 30
0.0
  3
*Paper_Space0
  1

  0
ENDBLK
  5
25
330
23
100
AcDbEntity
  8
0
100
AcDbBlockEnd
  0
BLOCK
  5
15F
330
15E
100
AcDbEntity
  8
0
100
AcDbBlockBegin
  2
*D1
 70
     1
 10
0.0
 20
0.0
 30
0.0
  3
*D1
  1

  0
SOLID
  5
161
330
15E
100
AcDbEntity
  8
VERMASSUNG
100
AcDbTrace
 10
87.2336944745
 20
140.5612134345
 30
0.0
 11
86.7836944745
 21
137.5612134345
 31
0.0
 12
87.6836944745
 22
137.5612134345
 32
0.0
 13
87.6836944745
 23
137.5612134345
 33
0.0
  0
SOLID
  5
162
330
15E
100
AcDbEntity
  8
VERMASSUNG
100
AcDbTrace
 10
87.2336944745
 20
77.5612134345
 30
0.0
 11
87.6836944745
 21
80.5612134345
 31
0.0
 12
86.7836944745
 22
80.5612134345
 32
0.0
 13
86.7836944745
 23
80.5612134345
 33
0.0
  0
LINE
  5
163
330
15E
100
AcDbEntity
  8
VERMASSUNG
100
AcDbLine
 10
122.9660972083
 20
140.5612134345
 30
0.0
 11
86.2336944745
 21
140.5612134345
 31
0.0
  0
LINE
  5
164
330
15E
100
AcDbEntity
  8
VERMASSUNG
100
AcDbLine
 10
122.9660972083
 20
77.5612134345
 30
0.0
 11
86.2336944745
 21
77.5612134345
 31
0.0
  0
LINE
  5
165
330
15E
100
AcDbEntity
  8
VERMASSUNG
100
AcDbLine
 10
87.2336944745
 20
140.5612134345
 30
0.0
 11
87.2336944745
 21
77.5612134345
 31
0.0
  0
MTEXT
  5
166
330
15E
100
AcDbEntity
  8
VERMASSUNG
100
AcDbMText
 10
84.4555589855
 20
101.3576717226
 30
0.0
 40
2.0
 41
0.0
 71
     1
 72
     1
  1
HSK A 
  7
SLDTEXTSTYLE0
 11
-7.044195017643634E-15
 21
1.0
 31
0.0
 73
     1
 44
1.0
  0
MTEXT
  5
167
330
15E
100
AcDbEntity
  8
VERMASSUNG
100
AcDbMText
 10
84.655558995
 20
110.3576722665
 30
0.0
 40
2.0
 41
0.0
 71
     1
 72
     1
  1
%%c
  7
SLDTEXTSTYLE0
 11
-7.044195017643634E-15
 21
1.0
 31
0.0
 73
     1
 44
1.0
  0
MTEXT
  5
168
330
15E
100
AcDbEntity
  8
VERMASSUNG
100
AcDbMText
 10
84.6555591114
 20
113.9659989166
 30
0.0
 40
2.0
 41
0.0
 71
     1
 72
     1
  1
63
  7
SLDTEXTSTYLE0
 11
-7.044195017643634E-15
 21
1.0
 31
0.0
 73
     1
 44
1.0
  0
ENDBLK
  5
160
330
15E
100
AcDbEntity
  8
0
100
AcDbBlockEnd
  0
BLOCK
  5
16C
330
16B
100
AcDbEntity
  8
0
100
AcDbBlockBegin
  2
*D2
 70
     1
 10
0.0
 20
0.0
 30
0.0
  3
*D2
  1

  0
SOLID
  5
16E
330
16B
100
AcDbEntity
  8
VERMASSUNG
100
AcDbTrace
 10
166.1660972083
 20
144.5612134345
 30
0.0
 11
169.1660972083
 21
144.1112134345
 31
0.0
 12
169.1660972083
 22
145.0112134345
 32
0.0
 13
169.1660972083
 23
145.0112134345
 33
0.0
  0
SOLID
  5
16F
330
16B
100
AcDbEntity
  8
VERMASSUNG
100
AcDbTrace
 10
202.6660972083
 20
144.5612134345
 30
0.0
 11
199.6660972083
 21
145.0112134345
 31
0.0
 12
199.6660972083
 22
144.1112134345
 32
0.0
 13
199.6660972083
 23
144.1112134345
 33
0.0
  0
LINE
  5
170
330
16B
100
AcDbEntity
  8
VERMASSUNG
100
AcDbLine
 10
166.1660972083
 20
112.9612134345
 30
0.0
 11
166.1660972083
 21
145.5612134345
 31
0.0
  0
LINE
  5
171
330
16B
100
AcDbEntity
  8
VERMASSUNG
100
AcDbLine
 10
202.6660972083
 20
117.7124324511
 30
0.0
 11
202.6660972083
 21
145.5612134345
 31
0.0
  0
LINE
  5
172
330
16B
100
AcDbEntity
  8
VERMASSUNG
100
AcDbLine
 10
166.1660972083
 20
144.5612134345
 30
0.0
 11
202.6660972083
 21
144.5612134345
 31
0.0
  0
MTEXT
  5
173
330
16B
100
AcDbEntity
  8
VERMASSUNG
100
AcDbMText
 10
182.0165002419
 20
147.1393487976
 30
0.0
 40
2.0
 41
0.0
 71
     1
 72
     1
  1
36.5
  7
SLDTEXTSTYLE0
 73
     1
 44
1.0
  0
ENDBLK
  5
16D
330
16B
100
AcDbEntity
  8
0
100
AcDbBlockEnd
  0
BLOCK
  5
177
330
176
100
AcDbEntity
  8
0
100
AcDbBlockBegin
  2
*D3
 70
     1
 10
0.0
 20
0.0
 30
0.0
  3
*D3
  1

  0
SOLID
  5
179
330
176
100
AcDbEntity
  8
VERMASSUNG
100
AcDbTrace
 10
209.9983748646
 20
105.0612134345
 30
0.0
 11
210.4483748646
 21
108.0612134345
 31
0.0
 12
209.5483748646
 22
108.0612134345
 32
0.0
 13
209.5483748646
 23
108.0612134345
 33
0.0
  0
SOLID
  5
17A
330
176
100
AcDbEntity
  8
VERMASSUNG
100
AcDbTrace
 10
209.9983748646
 20
113.0612134345
 30
0.0
 11
209.5483748646
 21
110.0612134345
 31
0.0
 12
210.4483748646
 22
110.0612134345
 32
0.0
 13
210.4483748646
 23
110.0612134345
 33
0.0
  0
LINE
  5
17B
330
176
100
AcDbEntity
  8
VERMASSUNG
100
AcDbLine
 10
199.1660972083
 20
105.0612134345
 30
0.0
 11
210.9983748646
 21
105.0612134345
 31
0.0
  0
LINE
  5
17C
330
176
100
AcDbEntity
  8
VERMASSUNG
100
AcDbLine
 10
199.1660972083
 20
113.0612134345
 30
0.0
 11
210.9983748646
 21
113.0612134345
 31
0.0
  0
LINE
  5
17D
330
176
100
AcDbEntity
  8
VERMASSUNG
100
AcDbLine
 10
209.9983748646
 20
105.0612134345
 30
0.0
 11
209.9983748646
 21
113.0612134345
 31
0.0
  0
MTEXT
  5
17E
330
176
100
AcDbEntity
  8
VERMASSUNG
100
AcDbMText
 10
207.420239385
 20
106.5571852654
 30
0.0
 40
2.0
 41
0.0
 71
     1
 72
     1
  1
%%c
  7
SLDTEXTSTYLE0
 11
6.123233995736766E-17
 21
1.0
 31
0.0
 73
     1
 44
1.0
  0
MTEXT
  5
17F
330
176
100
AcDbEntity
  8
VERMASSUNG
100
AcDbMText
 10
207.4202395014
 20
110.1658634886
 30
0.0
 40
2.0
 41
0.0
 71
     1
 72
     1
  1
8
  7
SLDTEXTSTYLE0
 11
6.123233995736766E-17
 21
1.0
 31
0.0
 73
     1
 44
1.0
  0
ENDBLK
  5
178
330
176
100
AcDbEntity
  8
0
100
AcDbBlockEnd
  0
BLOCK
  5
183
330
182
100
AcDbEntity
  8
0
100
AcDbBlockBegin
  2
*D4
 70
     1
 10
0.0
 20
0.0
 30
0.0
  3
*D4
  1

  0
SOLID
  5
185
330
182
100
AcDbEntity
  8
VERMASSUNG
100
AcDbTrace
 10
215.9983748646
 20
98.5612134345
 30
0.0
 11
216.4483748646
 21
101.5612134345
 31
0.0
 12
215.5483748646
 22
101.5612134345
 32
0.0
 13
215.5483748646
 23
101.5612134345
 33
0.0
  0
SOLID
  5
186
330
182
100
AcDbEntity
  8
VERMASSUNG
100
AcDbTrace
 10
215.9983748646
 20
119.5612134345
 30
0.0
 11
215.5483748646
 21
116.5612134345
 31
0.0
 12
216.4483748646
 22
116.5612134345
 32
0.0
 13
216.4483748646
 23
116.5612134345
 33
0.0
  0
LINE
  5
187
330
182
100
AcDbEntity
  8
VERMASSUNG
100
AcDbLine
 10
202.6660972083
 20
98.5612134345
 30
0.0
 11
216.9983748646
 21
98.5612134345
 31
0.0
  0
LINE
  5
188
330
182
100
AcDbEntity
  8
VERMASSUNG
100
AcDbLine
 10
202.6660972083
 20
119.5612134345
 30
0.0
 11
216.9983748646
 21
119.5612134345
 31
0.0
  0
LINE
  5
189
330
182
100
AcDbEntity
  8
VERMASSUNG
100
AcDbLine
 10
215.9983748646
 20
98.5612134345
 30
0.0
 11
215.9983748646
 21
119.5612134345
 31
0.0
  0
MTEXT
  5
18A
330
182
100
AcDbEntity
  8
VERMASSUNG
100
AcDbMText
 10
213.420239385
 20
106.0570758397
 30
0.0
 40
2.0
 41
0.0
 71
     1
 72
     1
  1
%%c
  7
SLDTEXTSTYLE0
 11
6.123233995736766E-17
 21
1.0
 31
0.0
 73
     1
 44
1.0
  0
MTEXT
  5
18B
330
182
100
AcDbEntity
  8
VERMASSUNG
100
AcDbMText
 10
213.4202395014
 20
109.6657540628
 30
0.0
 40
2.0
 41
0.0
 71
     1
 72
     1
  1
21
  7
SLDTEXTSTYLE0
 11
6.123233995736766E-17
 21
1.0
 31
0.0
 73
     1
 44
1.0
  0
ENDBLK
  5
184
330
182
100
AcDbEntity
  8
0
100
AcDbBlockEnd
  0
BLOCK
  5
18E
330
18D
100
AcDbEntity
  8
0
100
AcDbBlockBegin
  2
*D5
 70
     1
 10
0.0
 20
0.0
 30
0.0
  3
*D5
  1

  0
SOLID
  5
190
330
18D
100
AcDbEntity
  8
VERMASSUNG
100
AcDbTrace
 10
221.9983748646
 20
96.0612134345
 30
0.0
 11
222.4483748646
 21
99.0612134345
 31
0.0
 12
221.5483748646
 22
99.0612134345
 32
0.0
 13
221.5483748646
 23
99.0612134345
 33
0.0
  0
SOLID
  5
191
330
18D
100
AcDbEntity
  8
VERMASSUNG
100
AcDbTrace
 10
221.9983748646
 20
122.0612134345
 30
0.0
 11
221.5483748646
 21
119.0612134345
 31
0.0
 12
222.4483748646
 22
119.0612134345
 32
0.0
 13
222.4483748646
 23
119.0612134345
 33
0.0
  0
LINE
  5
192
330
18D
100
AcDbEntity
  8
VERMASSUNG
100
AcDbLine
 10
151.6160972083
 20
96.0612134345
 30
0.0
 11
222.9983748646
 21
96.0612134345
 31
0.0
  0
LINE
  5
193
330
18D
100
AcDbEntity
  8
VERMASSUNG
100
AcDbLine
 10
151.6160972083
 20
122.0612134345
 30
0.0
 11
222.9983748646
 21
122.0612134345
 31
0.0
  0
LINE
  5
194
330
18D
100
AcDbEntity
  8
VERMASSUNG
100
AcDbLine
 10
221.9983748646
 20
96.0612134345
 30
0.0
 11
221.9983748646
 21
122.0612134345
 31
0.0
  0
MTEXT
  5
195
330
18D
100
AcDbEntity
  8
VERMASSUNG
100
AcDbMText
 10
219.420239385
 20
105.857496208
 30
0.0
 40
2.0
 41
0.0
 71
     1
 72
     1
  1
%%c
  7
SLDTEXTSTYLE0
 11
6.123233995736766E-17
 21
1.0
 31
0.0
 73
     1
 44
1.0
  0
MTEXT
  5
196
330
18D
100
AcDbEntity
  8
VERMASSUNG
100
AcDbMText
 10
219.4202395014
 20
109.4661744312
 30
0.0
 40
2.0
 41
0.0
 71
     1
 72
     1
  1
26
  7
SLDTEXTSTYLE0
 11
6.123233995736766E-17
 21
1.0
 31
0.0
 73
     1
 44
1.0
  0
ENDBLK
  5
18F
330
18D
100
AcDbEntity
  8
0
100
AcDbBlockEnd
  0
BLOCK
  5
199
330
198
100
AcDbEntity
  8
0
100
AcDbBlockBegin
  2
*D6
 70
     1
 10
0.0
 20
0.0
 30
0.0
  3
*D6
  1

  0
SOLID
  5
19B
330
198
100
AcDbEntity
  8
VERMASSUNG
100
AcDbTrace
 10
122.6660972083
 20
156.5612134345
 30
0.0
 11
125.6660972083
 21
156.1112134345
 31
0.0
 12
125.6660972083
 22
157.0112134345
 32
0.0
 13
125.6660972083
 23
157.0112134345
 33
0.0
  0
SOLID
  5
19C
330
198
100
AcDbEntity
  8
VERMASSUNG
100
AcDbTrace
 10
202.6660972083
 20
156.5612134345
 30
0.0
 11
199.6660972083
 21
157.0112134345
 31
0.0
 12
199.6660972083
 22
156.1112134345
 32
0.0
 13
199.6660972083
 23
156.1112134345
 33
0.0
  0
LINE
  5
19D
330
198
100
AcDbEntity
  8
VERMASSUNG
100
AcDbLine
 10
122.6660972083
 20
140.2612134345
 30
0.0
 11
122.6660972083
 21
157.5612134345
 31
0.0
  0
LINE
  5
19E
330
198
100
AcDbEntity
  8
VERMASSUNG
100
AcDbLine
 10
202.6660972083
 20
117.7124324511
 30
0.0
 11
202.6660972083
 21
157.5612134345
 31
0.0
  0
LINE
  5
19F
330
198
100
AcDbEntity
  8
VERMASSUNG
100
AcDbLine
 10
122.6660972083
 20
156.5612134345
 30
0.0
 11
202.6660972083
 21
156.5612134345
 31
0.0
  0
MTEXT
  5
1A0
330
198
100
AcDbEntity
  8
VERMASSUNG
100
AcDbMText
 10
161.2667190934
 20
159.1393487976
 30
0.0
 40
2.0
 41
0.0
 71
     1
 72
     1
  1
80
  7
SLDTEXTSTYLE0
 73
     1
 44
1.0
  0
ENDBLK
  5
19A
330
198
100
AcDbEntity
  8
0
100
AcDbBlockEnd
  0
BLOCK
  5
1A3
330
1A2
100
AcDbEntity
  8
0
100
AcDbBlockBegin
  2
*D7
 70
     1
 10
0.0
 20
0.0
 30
0.0
  3
*D7
  1

  0
SOLID
  5
1A5
330
1A2
100
AcDbEntity
  8
VERMASSUNG
100
AcDbTrace
 10
148.6160972083
 20
150.5612134345
 30
0.0
 11
151.6160972083
 21
150.1112134345
 31
0.0
 12
151.6160972083
 22
151.0112134345
 32
0.0
 13
151.6160972083
 23
151.0112134345
 33
0.0
  0
SOLID
  5
1A6
330
1A2
100
AcDbEntity
  8
VERMASSUNG
100
AcDbTrace
 10
202.6660972083
 20
150.5612134345
 30
0.0
 11
199.6660972083
 21
151.0112134345
 31
0.0
 12
199.6660972083
 22
150.1112134345
 32
0.0
 13
199.6660972083
 23
150.1112134345
 33
0.0
  0
LINE
  5
1A7
330
1A2
100
AcDbEntity
  8
VERMASSUNG
100
AcDbLine
 10
148.6160972083
 20
138.9076537582
 30
0.0
 11
148.6160972083
 21
151.5612134345
 31
0.0
  0
LINE
  5
1A8
330
1A2
100
AcDbEntity
  8
VERMASSUNG
100
AcDbLine
 10
202.6660972083
 20
117.7124324511
 30
0.0
 11
202.6660972083
 21
151.5612134345
 31
0.0
  0
LINE
  5
1A9
330
1A2
100
AcDbEntity
  8
VERMASSUNG
100
AcDbLine
 10
148.6160972083
 20
150.5612134345
 30
0.0
 11
202.6660972083
 21
150.5612134345
 31
0.0
  0
MTEXT
  5
1AA
330
1A2
100
AcDbEntity
  8
VERMASSUNG
100
AcDbMText
 10
172.4420213686
 20
153.1393487976
 30
0.0
 40
2.0
 41
0.0
 71
     1
 72
     1
  1
54.05
  7
SLDTEXTSTYLE0
 73
     1
 44
1.0
  0
ENDBLK
  5
1A4
330
1A2
100
AcDbEntity
  8
0
100
AcDbBlockEnd
  0
BLOCK
  5
1AD
330
1AC
100
AcDbEntity
  8
0
100
AcDbBlockBegin
  2
*D8
 70
     1
 10
0.0
 20
0.0
 30
0.0
  3
*D8
  1

  0
SOLID
  5
1AF
330
1AC
100
AcDbEntity
  8
VERMASSUNG
100
AcDbTrace
 10
202.6660972083
 20
162.5612134345
 30
0.0
 11
199.6660972083
 21
163.0112134345
 31
0.0
 12
199.6660972083
 22
162.1112134345
 32
0.0
 13
199.6660972083
 23
162.1112134345
 33
0.0
  0
SOLID
  5
1B0
330
1AC
100
AcDbEntity
  8
VERMASSUNG
100
AcDbTrace
 10
90.7660972083
 20
162.5612134345
 30
0.0
 11
93.7660972083
 21
162.1112134345
 31
0.0
 12
93.7660972083
 22
163.0112134345
 32
0.0
 13
93.7660972083
 23
163.0112134345
 33
0.0
  0
LINE
  5
1B1
330
1AC
100
AcDbEntity
  8
VERMASSUNG
100
AcDbLine
 10
202.6660972083
 20
117.7124324511
 30
0.0
 11
202.6660972083
 21
163.5612134345
 31
0.0
  0
LINE
  5
1B2
330
1AC
100
AcDbEntity
  8
VERMASSUNG
100
AcDbLine
 10
90.7660972083
 20
128.7518911809
 30
0.0
 11
90.7660972083
 21
163.5612134345
 31
0.0
  0
LINE
  5
1B3
330
1AC
100
AcDbEntity
  8
VERMASSUNG
100
AcDbLine
 10
202.6660972083
 20
162.5612134345
 30
0.0
 11
90.7660972083
 21
162.5612134345
 31
0.0
  0
MTEXT
  5
1B4
330
1AC
100
AcDbEntity
  8
VERMASSUNG
100
AcDbMText
 10
144.216710426
 20
165.1393487976
 30
0.0
 40
2.0
 41
0.0
 71
     1
 72
     1
  1
111.9
  7
SLDTEXTSTYLE0
 73
     1
 44
1.0
  0
ENDBLK
  5
1AE
330
1AC
100
AcDbEntity
  8
0
100
AcDbBlockEnd
  0
ENDSEC
  0
SECTION
  2
ENTITIES
  0
MTEXT
  5
45
330
1F
100
AcDbEntity
  8
KOPF_DÜNN
100
AcDbMText
 10
13.8892156294
 20
23.8442973028
 30
0.0
 40
3.0
 41
0.0
 71
     1
 72
     1
  1
HA6.S08.K01.080
  7
SLDTEXTSTYLE0
 73
     1
 44
1.0
  0
MTEXT
  5
46
330
1F
100
AcDbEntity
  8
VERMASSUNG
100
AcDbMText
 10
13.9329988022
 20
28.8834360957
 30
0.0
 40
3.0
 41
0.0
 71
     1
 72
     1
  1
Schrumpffutter_Heat shrink chuck
  7
SLDTEXTSTYLE0
 73
     1
 44
1.0
  0
MTEXT
  5
47
330
1F
100
AcDbEntity
  8
VERMASSUNG
100
AcDbMText
 10
98.8601118557
 20
13.8365368179
 30
0.0
 40
2.0
 41
0.0
 71
     1
 72
     1
  1
Datum: 27.04.2011
  7
SLDTEXTSTYLE0
 73
     1
 44
1.0
  0
MTEXT
  5
49
330
1F
100
AcDbEntity
  8
VERMASSUNG
100
AcDbMText
 10
13.933048693
 20
18.0482802738
 30
0.0
 40
2.0
 41
0.0
 71
     1
 72
     1
  1
DIN 69 893 HSK A 63
  7
SLDTEXTSTYLE1
 73
     1
 44
1.0
  0
MTEXT
  5
4A
330
1F
100
AcDbEntity
  8
VERMASSUNG
100
AcDbMText
 10
13.9808475933
 20
13.9090973692
 30
0.0
 40
2.0
 41
0.0
 71
     1
 72
     1
  1
Gewicht: 820.59g
  7
SLDTEXTSTYLE0
 73
     1
 44
1.0
  0
ARC
  5
4B
330
1F
100
AcDbEntity
  8
0
  6
Continuous
 62
     7
370
    15
100
AcDbCircle
 10
122.9660972083
 20
77.8612134345
 30
0.0
 40
0.2999999999999972
100
AcDbArc
 50
180.0
 51
270.0
  0
ARC
  5
4C
330
1F
100
AcDbEntity
  8
0
  6
Continuous
 62
     7
370
    15
100
AcDbCircle
 10
122.9660972083
 20
140.2612134345
 30
0.0
 40
0.2999999999999829
100
AcDbArc
 50
90.0
 51
180.0
  0
LINE
  5
4D
330
1F
100
AcDbEntity
  8
0
  6
Continuous
 62
     7
370
    15
100
AcDbLine
 10
122.9660972083
 20
77.5612134345
 30
0.0
 11
127.6160972083
 21
77.5612134345
 31
0.0
  0
LINE
  5
4E
330
1F
100
AcDbEntity
  8
0
  6
Continuous
 62
     7
370
    15
100
AcDbLine
 10
127.6254052951
 20
140.5612134345
 30
0.0
 11
122.9660972083
 21
140.5612134345
 31
0.0
  0
ARC
  5
4F
330
1F
100
AcDbEntity
  8
0
  6
Continuous
 62
     7
370
    15
100
AcDbCircle
 10
122.1660904556
 20
84.4907758201
 30
0.0
 40
0.6000067526677282
100
AcDbArc
 50
33.5571153394
 51
90.0
  0
ARC
  5
50
330
1F
100
AcDbEntity
  8
0
  6
Continuous
 62
     7
370
    15
100
AcDbCircle
 10
122.1660904556
 20
133.6316510488
 30
0.0
 40
0.6000067526677282
100
AcDbArc
 50
270.0
 51
326.4428846606
  0
LINE
  5
51
330
1F
100
AcDbEntity
  8
0
  6
Continuous
 62
     7
370
    15
100
AcDbLine
 10
120.6660972083
 20
84.8407825727
 30
0.0
 11
121.5228099817
 21
85.0703380685
 31
0.0
  0
LINE
  5
52
330
1F
100
AcDbEntity
  8
0
  6
Continuous
 62
     7
370
    15
100
AcDbLine
 10
121.5228099817
 20
133.0520888004
 30
0.0
 11
120.6660972083
 21
133.2816442962
 31
0.0
  0
LINE
  5
53
330
1F
100
AcDbEntity
  8
0
  6
Continuous
 62
     7
370
    15
100
AcDbLine
 10
109.4345884095
 20
132.7189434546
 30
0.0
 11
96.8660972083
 21
132.0892595266
 31
0.0
  0
LINE
  5
54
330
1F
100
AcDbEntity
  8
0
  6
Continuous
 62
     7
370
    15
100
AcDbLine
 10
120.6660972083
 20
133.2816442962
 30
0.0
 11
117.8490955509
 21
133.1405119486
 31
0.0
  0
LINE
  5
55
330
1F
100
AcDbEntity
  8
0
  6
Continuous
 62
     7
370
    15
100
AcDbLine
 10
117.849151641
 20
84.9819121102
 30
0.0
 11
120.6660972083
 21
84.8407825727
 31
0.0
  0
LINE
  5
56
330
1F
100
AcDbEntity
  8
0
  6
Continuous
 62
     7
370
    15
100
AcDbLine
 10
100.8660972083
 20
85.8327665407
 30
0.0
 11
109.4349909281
 21
85.4034632481
 31
0.0
  0
ARC
  5
57
330
1F
100
AcDbEntity
  8
0
  6
Continuous
 62
     7
370
    15
100
AcDbCircle
 10
121.6781014087
 20
84.4907825727
 30
0.0
 40
0.6000000000000085
100
AcDbArc
 50
90.0
 51
105.0
  0
ARC
  5
58
330
1F
100
AcDbEntity
  8
0
  6
Continuous
 62
     7
370
    15
100
AcDbCircle
 10
121.6781014087
 20
133.6316442962
 30
0.0
 40
0.5999999999999971
100
AcDbArc
 50
255.0
 51
270.0
  0
LINE
  5
59
330
1F
100
AcDbEntity
  8
0
  6
Continuous
 62
     7
370
    15
100
AcDbLine
 10
121.6781014087
 20
85.0907825727
 30
0.0
 11
122.1660904556
 21
85.0907825727
 31
0.0
  0
LINE
  5
5A
330
1F
100
AcDbEntity
  8
0
  6
Continuous
 62
     7
370
    15
100
AcDbLine
 10
122.1660904556
 20
133.0316442962
 30
0.0
 11
121.6781014087
 21
133.0316442962
 31
0.0
  0
ARC
  5
5B
330
1F
100
AcDbEntity
  8
0
  6
Continuous
 62
     7
370
    15
100
AcDbCircle
 10
151.6160972083
 20
93.0612134345
 30
0.0
 40
3.0
100
AcDbArc
 50
90.0
 51
180.0
  0
ARC
  5
5C
330
1F
100
AcDbEntity
  8
0
  6
Continuous
 62
     7
370
    15
100
AcDbCircle
 10
151.6160972083
 20
125.0612134345
 30
0.0
 40
2.999999999999986
100
AcDbArc
 50
180.0
 51
270.0
  0
LINE
  5
5D
330
1F
100
AcDbEntity
  8
0
  6
Continuous
 62
     7
370
    15
100
AcDbLine
 10
151.6160972083
 20
96.0612134345
 30
0.0
 11
170.9005853678
 21
96.0612134345
 31
0.0
  0
LINE
  5
5E
330
1F
100
AcDbEntity
  8
0
  6
Continuous
 62
     7
370
    15
100
AcDbLine
 10
170.9005853678
 20
122.0612134345
 30
0.0
 11
151.6160972083
 21
122.0612134345
 31
0.0
  0
LINE
  5
5F
330
1F
100
AcDbEntity
  8
0
  6
Continuous
 62
     7
370
    15
100
AcDbLine
 10
170.9005853678
 20
96.0612134345
 30
0.0
 11
200.8230153997
 21
98.4161597503
 31
0.0
  0
LINE
  5
60
330
1F
100
AcDbEntity
  8
0
  6
Continuous
 62
     7
370
    15
100
AcDbLine
 10
200.8230153997
 20
119.7062671186
 30
0.0
 11
170.9005853678
 21
122.0612134345
 31
0.0
  0
LINE
  5
61
330
1F
100
AcDbEntity
  8
0
  6
Continuous
 62
     7
370
    15
100
AcDbLine
 10
92.0605163347
 20
88.1912134345
 30
0.0
 11
99.4660972083
 21
88.1912134345
 31
0.0
  0
ARC
  5
62
330
1F
100
AcDbEntity
  8
0
  6
Continuous
 62
     7
370
    15
100
AcDbCircle
 10
200.6660972083
 20
100.4099944178
 30
0.0
 40
2.000000000000019
100
AcDbArc
 50
274.5
 51
0.0
  0
ARC
  5
63
330
1F
100
AcDbEntity
  8
0
  6
Continuous
 62
     7
370
    15
100
AcDbCircle
 10
200.6660972083
 20
117.7124324511
 30
0.0
 40
2.000000000000004
100
AcDbArc
 50
0.0
 51
85.5
  0
ARC
  5
64
330
1F
100
AcDbEntity
  8
0
  6
Continuous
 62
     7
370
    15
100
AcDbCircle
 10
99.4660972083
 20
86.7912134345
 30
0.0
 40
1.399999999999991
100
AcDbArc
 50
42.2210104152
 51
90.0
  0
LINE
  5
65
330
1F
100
AcDbEntity
  8
0
  6
Continuous
 62
     7
370
    15
100
AcDbLine
 10
90.7776534344
 20
89.3296572083
 30
0.0
 11
91.9072606665
 21
88.2000499763
 31
0.0
  0
LINE
  5
66
330
1F
100
AcDbEntity
  8
0
  6
Continuous
 62
     7
370
    15
100
AcDbLine
 10
91.9072606665
 20
129.9223768926
 30
0.0
 11
90.7759979817
 21
128.7911142078
 31
0.0
  0
ARC
  5
67
330
1F
100
AcDbEntity
  8
0
  6
Continuous
 62
     7
370
    15
100
AcDbCircle
 10
95.4660972083
 20
131.3312134345
 30
0.0
 40
1.400000000000016
100
AcDbArc
 50
270.0
 51
302.5610026528
  0
LINE
  5
68
330
1F
100
AcDbEntity
  8
0
  6
Continuous
 62
     7
370
    15
100
AcDbLine
 10
95.4660972083
 20
129.9312134345
 30
0.0
 11
92.0403629422
 21
129.9312134345
 31
0.0
  0
LINE
  5
69
330
1F
100
AcDbEntity
  8
0
  6
Continuous
 62
     7
370
    15
100
AcDbLine
 10
122.6660972083
 20
77.8612134345
 30
0.0
 11
122.6660972083
 21
140.2612134284
 31
0.0
  0
LINE
  5
6A
330
1F
100
AcDbEntity
  8
0
  6
Continuous
 62
     7
370
    15
100
AcDbLine
 10
148.0160972083
 20
78.8742957382
 30
0.0
 11
144.0580300398
 21
78.8742957382
 31
0.0
  0
LINE
  5
6B
330
1F
100
AcDbEntity
  8
0
  6
Continuous
 62
     7
370
    15
100
AcDbLine
 10
144.0580300398
 20
78.8742957382
 30
0.0
 11
144.0580300398
 21
128.9112134345
 31
0.0
  0
LINE
  5
6C
330
1F
100
AcDbEntity
  8
0
  6
Continuous
 62
     7
370
    15
100
AcDbLine
 10
144.0580300398
 20
128.9112134345
 30
0.0
 11
148.0160972083
 21
128.9112134345
 31
0.0
  0
LINE
  5
6D
330
1F
100
AcDbEntity
  8
0
  6
Continuous
 62
     7
370
    15
100
AcDbLine
 10
148.6160972083
 20
79.5009360339
 30
0.0
 11
148.6160972083
 21
128.9112134345
 31
0.0
  0
SPLINE
  5
6E
330
1F
100
AcDbEntity
  8
0
  6
Continuous
 62
     7
370
    15
100
AcDbSpline
210
0.0
220
0.0
230
1.0
 70
     8
 71
     3
 72
    10
 73
     6
 74
     0
 42
0.00000001
 43
0.00000001
 40
0.0
 40
0.0
 40
0.0
 40
0.0
 40
0.5
 40
0.5
 40
1.0
 40
1.0
 40
1.0
 40
1.0
 10
148.6160972082779
 20
79.50093603386011
 30
0.0
 10
148.6160972082779
 20
79.34104876566646
 30
0.0
 10
148.554787557042
 20
79.17992151015186
 30
0.0
 10
148.3356879195069
 20
78.94582251179702
 30
0.0
 10
148.1776397131935
 20
78.8742957382058
 30
0.0
 10
148.0160972082778
 20
78.8742957382058
 30
0.0
  0
SPLINE
  5
6F
330
1F
100
AcDbEntity
  8
0
  6
Continuous
 62
     7
370
    15
100
AcDbSpline
210
0.0
220
0.0
230
1.0
 70
    24
 71
     3
 72
    12
 73
     8
 74
     0
 42
0.00000001
 43
0.00000001
 40
0.0
 40
0.0
 40
0.0
 40
0.0
 40
0.2500000000000033
 40
0.2500000000000033
 40
0.5000000000000067
 40
0.5000000000000067
 40
1.0
 40
1.0
 40
1.0
 40
1.0
 10
148.0160972082778
 20
128.911213434453
 30
0.0
 10
148.1063362759649
 20
128.911213434453
 30
0.0
 10
148.1972343900714
 20
128.911213434453
 30
0.0
 10
148.35183142656
 20
128.911213434453
 30
0.0
 10
148.416809842668
 20
128.911213434453
 30
0.0
 10
148.5686448706043
 20
128.911213434453
 30
0.0
 10
148.6160972082779
 20
128.911213434453
 30
0.0
 10
148.6160972082779
 20
128.911213434453
 30
0.0
  0
LINE
  5
70
330
1F
100
AcDbEntity
  8
0
  6
Continuous
 62
     7
370
    15
100
AcDbLine
 10
127.6160972083
 20
128.9112134345
 30
0.0
 11
137.2741643768
 21
128.9112134345
 31
0.0
  0
LINE
  5
71
330
1F
100
AcDbEntity
  8
0
  6
Continuous
 62
     7
370
    15
100
AcDbLine
 10
137.2741643768
 20
78.8742957382
 30
0.0
 11
137.2741643768
 21
128.9112134345
 31
0.0
  0
LINE
  5
72
330
1F
100
AcDbEntity
  8
0
  6
Continuous
 62
     7
370
    15
100
AcDbLine
 10
137.2741643768
 20
78.8742957382
 30
0.0
 11
135.6160972083
 21
78.8742957382
 31
0.0
  0
SPLINE
  5
73
330
1F
100
AcDbEntity
  8
0
  6
Continuous
 62
     7
370
    15
100
AcDbSpline
210
0.0
220
0.0
230
1.0
 70
     8
 71
     3
 72
    28
 73
    24
 74
     0
 42
0.00000001
 43
0.00000001
 40
0.0
 40
0.0
 40
0.0
 40
0.0
 40
0.1250000000000001
 40
0.1250000000000001
 40
0.1875000000000001
 40
0.1875000000000001
 40
0.2500000000000001
 40
0.2500000000000001
 40
0.3749999999999999
 40
0.3749999999999999
 40
0.4375
 40
0.4375
 40
0.4999999999999999
 40
0.4999999999999999
 40
0.6249999999999999
 40
0.6249999999999999
 40
0.7499999999999997
 40
0.7499999999999997
 40
0.8124999999999998
 40
0.8124999999999998
 40
0.8749999999999998
 40
0.8749999999999998
 40
1.0
 40
1.0
 40
1.0
 40
1.0
 10
135.6160972082779
 20
78.8742957382058
 30
0.0
 10
135.0843894507849
 20
78.87429573820582
 30
0.0
 10
134.5621508854746
 20
78.85851102425559
 30
0.0
 10
133.7922803991996
 20
78.81351561017938
 30
0.0
 10
133.5379208270083
 20
78.79496061510366
 30
0.0
 10
133.0337992463098
 20
78.75110789265715
 30
0.0
 10
132.7840764288818
 20
78.72576328570494
 30
0.0
 10
132.0584864774354
 20
78.64236120795483
 30
0.0
 10
131.6001262158539
 20
78.57649564880376
 30
0.0
 10
130.94962827246
 20
78.46752530831196
 30
0.0
 10
130.7379462216675
 20
78.42928567254532
 30
0.0
 10
130.3338747325295
 20
78.35152693512596
 30
0.0
 10
130.1413682187087
 20
78.31202597295062
 30
0.0
 10
129.5915332476874
 20
78.19311823058462
 30
0.0
 10
129.2616044693786
 20
78.11330054916
 30
0.0
 10
128.6771332008099
 20
77.95995738736394
 30
0.0
 10
128.4308560627965
 20
77.88862363409469
 30
0.0
 10
128.1310132700984
 20
77.79468012702007
 30
0.0
 10
128.0425564130262
 20
77.76548633366014
 30
0.0
 10
127.8891950597211
 20
77.71201975939674
 30
0.0
 10
127.8241068454948
 20
77.68766042512154
 30
0.0
 10
127.668512829554
 20
77.6240702796768
 30
0.0
 10
127.6160972082779
 20
77.59396734458755
 30
0.0
 10
127.6160972082778
 20
77.57709045159064
 30
0.0
  0
LINE
  5
74
330
1F
100
AcDbEntity
  8
0
  6
Continuous
 62
     7
370
    15
100
AcDbLine
 10
127.6160972083
 20
77.5770904516
 30
0.0
 11
127.6160972083
 21
77.5612134345
 31
0.0
  0
SPLINE
  5
75
330
1F
100
AcDbEntity
  8
0
  6
Continuous
 62
     7
370
    15
100
AcDbSpline
210
0.0
220
0.0
230
1.0
 70
     8
 71
     3
 72
    22
 73
    18
 74
     0
 42
0.00000001
 43
0.00000001
 40
0.0
 40
0.0
 40
0.0
 40
0.0
 40
0.0515773377536172
 40
0.1565264849943629
 40
0.2100197540385886
 40
0.2615951369298746
 40
0.3664424119934943
 40
0.4198226601719804
 40
0.4724528789006786
 40
0.5794488992297344
 40
0.6339397336480286
 40
0.6872670452602943
 40
0.7409741315029978
 40
0.7958968813361827
 40
0.8512481408256359
 40
0.9034470736265863
 40
1.0
 40
1.0
 40
1.0
 40
1.0
 10
135.6160972082779
 20
139.5284089076172
 30
0.0
 10
135.3992870122754
 20
139.5298055286857
 30
0.0
 10
134.7413131933606
 20
139.5340439829419
 30
0.0
 10
133.8662182160297
 20
139.5735763072962
 30
0.0
 10
133.0213927211729
 20
139.6365495541382
 30
0.0
 10
132.2016674375686
 20
139.7145635873933
 30
0.0
 10
131.4258774595402
 20
139.8114467152684
 30
0.0
 10
130.7083889982337
 20
139.9197061271844
 30
0.0
 10
130.0291242510617
 20
140.0334244994889
 30
0.0
 10
129.4208092731527
 20
140.1499246844297
 30
0.0
 10
128.9007173324296
 20
140.2590249358467
 30
0.0
 10
128.5568271547135
 20
140.3350288335768
 30
0.0
 10
128.2618734269859
 20
140.4030622894984
 30
0.0
 10
128.0160991396447
 20
140.4617753402569
 30
0.0
 10
127.8301968306713
 20
140.5073907201906
 30
0.0
 10
127.6586002249476
 20
140.5503501717512
 30
0.0
 10
127.6384709497713
 20
140.5555111935533
 30
0.0
 10
127.6254052950976
 20
140.5588611466955
 30
0.0
  0
LINE
  5
76
330
1F
100
AcDbEntity
  8
0
  6
Continuous
 62
     7
370
    15
100
AcDbLine
 10
137.2741643768
 20
139.5284089076
 30
0.0
 11
135.6160972083
 21
139.5284089076
 31
0.0
  0
LINE
  5
77
330
1F
100
AcDbEntity
  8
0
  6
Continuous
 62
     7
370
    15
100
AcDbLine
 10
137.2741643768
 20
133.5199030968
 30
0.0
 11
137.2741643768
 21
139.5284089076
 31
0.0
  0
LINE
  5
78
330
1F
100
AcDbEntity
  8
0
  6
Continuous
 62
     7
370
    15
100
AcDbLine
 10
134.861717554
 20
133.5199030968
 30
0.0
 11
137.2741643768
 21
133.5199030968
 31
0.0
  0
SPLINE
  5
79
330
1F
100
AcDbEntity
  8
0
  6
Continuous
 62
     7
370
    15
100
AcDbSpline
210
0.0
220
0.0
230
1.0
 70
     8
 71
     3
 72
    20
 73
    16
 74
     0
 42
0.00000001
 43
0.00000001
 40
0.0
 40
0.0
 40
0.0
 40
0.0
 40
0.2499999999999997
 40
0.2499999999999997
 40
0.3749999999999997
 40
0.3749999999999997
 40
0.4999999999999998
 40
0.4999999999999998
 40
0.6249999999999998
 40
0.6249999999999998
 40
0.7499999999999999
 40
0.7499999999999999
 40
0.8749999999999999
 40
0.8749999999999999
 40
1.0
 40
1.0
 40
1.0
 40
1.0
 10
127.6160972082778
 20
128.911213434453
 30
0.0
 10
127.8644709425659
 20
129.5650758627504
 30
0.0
 10
128.1840410349112
 20
130.1688616447475
 30
0.0
 10
128.8063472681159
 20
130.9957003809161
 30
0.0
 10
129.0377715285466
 20
131.2581290188691
 30
0.0
 10
129.5589858681963
 20
131.754791672974
 30
0.0
 10
129.8456063508314
 20
131.9853785519956
 30
0.0
 10
130.465091092139
 20
132.4019327765781
 30
0.0
 10
130.799391471626
 20
132.5894305785457
 30
0.0
 10
131.5246519442508
 20
132.9208275561821
 30
0.0
 10
131.9065670016412
 20
133.0603315436774
 30
0.0
 10
132.701355177813
 20
133.2857850511483
 30
0.0
 10
133.1155133720193
 20
133.3724111626919
 30
0.0
 10
133.9810597126007
 20
133.4903919515461
 30
0.0
 10
134.4189473276125
 20
133.5199030968204
 30
0.0
 10
134.8617175539671
 20
133.5199030968204
 30
0.0
  0
SPLINE
  5
7A
330
1F
100
AcDbEntity
  8
0
  6
Continuous
 62
     7
370
    15
100
AcDbSpline
210
0.0
220
0.0
230
1.0
 70
     8
 71
     3
 72
    70
 73
    66
 74
     0
 42
0.00000001
 43
0.00000001
 40
-0.03125
 40
-0.03125
 40
0.0
 40
0.0
 40
0.0312499999999998
 40
0.0312499999999998
 40
0.0624999999999996
 40
0.0624999999999996
 40
0.0937499999999996
 40
0.0937499999999996
 40
0.1249999999999996
 40
0.1249999999999996
 40
0.1562499999999996
 40
0.1562499999999996
 40
0.1874999999999996
 40
0.1874999999999996
 40
0.2187499999999996
 40
0.2187499999999996
 40
0.2499999999999996
 40
0.2499999999999996
 40
0.2812499999999996
 40
0.2812499999999996
 40
0.3124999999999995
 40
0.3124999999999995
 40
0.3437499999999995
 40
0.3437499999999995
 40
0.3749999999999995
 40
0.3749999999999995
 40
0.4062499999999995
 40
0.4062499999999995
 40
0.4374999999999994
 40
0.4374999999999994
 40
0.4687499999999994
 40
0.4687499999999994
 40
0.4999999999999994
 40
0.4999999999999994
 40
0.5312499999999993
 40
0.5312499999999993
 40
0.5624999999999994
 40
0.5624999999999994
 40
0.5937499999999994
 40
0.5937499999999994
 40
0.6249999999999994
 40
0.6249999999999994
 40
0.6562499999999996
 40
0.6562499999999996
 40
0.6874999999999996
 40
0.6874999999999996
 40
0.7187499999999997
 40
0.7187499999999997
 40
0.7499999999999997
 40
0.7499999999999997
 40
0.7812499999999997
 40
0.7812499999999997
 40
0.8124999999999998
 40
0.8124999999999998
 40
0.8437499999999998
 40
0.8437499999999998
 40
0.8749999999999998
 40
0.8749999999999998
 40
0.9062499999999999
 40
0.9062499999999999
 40
0.9374999999999999
 40
0.9374999999999999
 40
0.96875
 40
0.96875
 40
1.0
 40
1.0
 40
1.03125
 40
1.03125
 10
126.6660972082779
 20
123.1262028695287
 30
0.0
 10
126.6660972082779
 20
123.5976254829686
 30
0.0
 10
126.6920822836618
 20
123.8278390428847
 30
0.0
 10
126.7938471862459
 20
124.2779018309468
 30
0.0
 10
126.8708815720519
 20
124.5000627714379
 30
0.0
 10
127.071747859489
 20
124.9208469889104
 30
0.0
 10
127.1946269080803
 20
125.1191142865546
 30
0.0
 10
127.4848915701441
 20
125.4924011750212
 30
0.0
 10
127.653665145996
 20
125.6679122205362
 30
0.0
 10
128.0223031672823
 20
125.981211570839
 30
0.0
 10
128.2234962152348
 20
126.1211438613817
 30
0.0
 10
128.660633740489
 20
126.3676006203733
 30
0.0
 10
128.8930484081123
 20
126.4717309583232
 30
0.0
 10
129.3742326302247
 20
126.6388529370074
 30
0.0
 10
129.6265676361827
 20
126.7030647037675
 30
0.0
 10
130.1430125018704
 20
126.7888496503004
 30
0.0
 10
130.4027177499228
 20
126.8100509568962
 30
0.0
 10
130.9250248070759
 20
126.8102930393014
 30
0.0
 10
131.1903311223899
 20
126.7886319974542
 30
0.0
 10
131.7035372125191
 20
126.7034385077323
 30
0.0
 10
131.9530046508309
 20
126.64036229197
 30
0.0
 10
132.4376072603227
 20
126.4724748864256
 30
0.0
 10
132.6714769191072
 20
126.3674787844779
 30
0.0
 10
133.1046192403624
 20
126.1236110072082
 30
0.0
 10
133.3067961561283
 20
125.9837526705184
 30
0.0
 10
133.6800709484379
 20
125.666690971575
 30
0.0
 10
133.8453932425878
 20
125.4944479088554
 30
0.0
 10
134.1351082299231
 20
125.1226799068435
 30
0.0
 10
134.2605114955537
 20
124.920726611359
 30
0.0
 10
134.4613269435657
 20
124.5000175712227
 30
0.0
 10
134.5371115006716
 20
124.2821158249264
 30
0.0
 10
134.6397212194038
 20
123.8307992696835
 30
0.0
 10
134.665998752262
 20
123.5959500181049
 30
0.0
 10
134.6661950990835
 20
123.1305577531568
 30
0.0
 10
134.6409618528658
 20
122.8976459213638
 30
0.0
 10
134.5385613669487
 20
122.4315458510533
 30
0.0
 10
134.4618730698895
 20
122.2023932313775
 30
0.0
 10
134.2626569595731
 20
121.7627233192818
 30
0.0
 10
134.1385503255686
 20
121.5488358986176
 30
0.0
 10
133.846673977567
 20
121.145353176474
 30
0.0
 10
133.6814016733851
 20
120.9584802190964
 30
0.0
 10
133.3130185702015
 20
120.6145321956704
 30
0.0
 10
133.1075086635739
 20
120.456300084038
 30
0.0
 10
132.6734043196417
 20
120.1835107348213
 30
0.0
 10
132.4439190320143
 20
120.0674716649018
 30
0.0
 10
131.9597063546537
 20
119.8772911093021
 30
0.0
 10
131.7057130288818
 20
119.8041425882492
 30
0.0
 10
131.1943348927556
 20
119.7072563002004
 30
0.0
 10
130.9342048686885
 20
119.682348152788
 30
0.0
 10
130.4052006547966
 20
119.6818955727504
 30
0.0
 10
130.1451129240095
 20
119.7063425807901
 30
0.0
 10
129.6333954013007
 20
119.8023847111049
 30
0.0
 10
129.3790842835675
 20
119.8751753720961
 30
0.0
 10
128.8947064376019
 20
120.0644833879803
 30
0.0
 10
128.6649416808392
 20
120.1801516958365
 30
0.0
 10
128.2299796239659
 20
120.4524800115043
 30
0.0
 10
128.0243033618362
 20
120.6103347054516
 30
0.0
 10
127.6554605167101
 20
120.9535476217445
 30
0.0
 10
127.4897767990558
 20
121.1401967583235
 30
0.0
 10
127.1968753820557
 20
121.5436599557348
 30
0.0
 10
127.07266465013
 20
121.7569222150902
 30
0.0
 10
126.8726560982083
 20
122.1961695386589
 30
0.0
 10
126.7955185486219
 20
122.425110541728
 30
0.0
 10
126.6920855183511
 20
122.8916728537459
 30
0.0
 10
126.6660972082779
 20
123.1262028695287
 30
0.0
 10
126.6660972082779
 20
123.5976254829686
 30
0.0
  0
SPLINE
  5
7B
330
1F
100
AcDbEntity
  8
0
  6
Continuous
 62
     7
370
    15
100
AcDbSpline
210
0.0
220
0.0
230
1.0
 70
     8
 71
     3
 72
    70
 73
    66
 74
     0
 42
0.00000001
 43
0.00000001
 40
-0.03125
 40
-0.03125
 40
0.0
 40
0.0
 40
0.03125
 40
0.03125
 40
0.0624999999999999
 40
0.0624999999999999
 40
0.0937499999999999
 40
0.0937499999999999
 40
0.1249999999999999
 40
0.1249999999999999
 40
0.1562499999999999
 40
0.1562499999999999
 40
0.1874999999999998
 40
0.1874999999999998
 40
0.2187499999999998
 40
0.2187499999999998
 40
0.2499999999999998
 40
0.2499999999999998
 40
0.2812499999999999
 40
0.2812499999999999
 40
0.3125000000000002
 40
0.3125000000000002
 40
0.3437500000000003
 40
0.3437500000000003
 40
0.3750000000000006
 40
0.3750000000000006
 40
0.4062500000000007
 40
0.4062500000000007
 40
0.4375000000000009
 40
0.4375000000000009
 40
0.4687500000000011
 40
0.4687500000000011
 40
0.5000000000000013
 40
0.5000000000000013
 40
0.5312500000000012
 40
0.5312500000000012
 40
0.562500000000001
 40
0.562500000000001
 40
0.5937500000000009
 40
0.5937500000000009
 40
0.6250000000000008
 40
0.6250000000000008
 40
0.6562500000000007
 40
0.6562500000000007
 40
0.6875000000000004
 40
0.6875000000000004
 40
0.7187500000000003
 40
0.7187500000000003
 40
0.7500000000000002
 40
0.7500000000000002
 40
0.7812500000000002
 40
0.7812500000000002
 40
0.8125000000000001
 40
0.8125000000000001
 40
0.8437500000000001
 40
0.8437500000000001
 40
0.8750000000000001
 40
0.8750000000000001
 40
0.9062500000000001
 40
0.9062500000000001
 40
0.9375
 40
0.9375
 40
0.96875
 40
0.96875
 40
1.0
 40
1.0
 40
1.03125
 40
1.03125
 10
126.6660972082779
 20
136.2087411616433
 30
0.0
 10
126.6660972082779
 20
136.4732861456822
 30
0.0
 10
126.6920822836618
 20
136.6004382398371
 30
0.0
 10
126.7938471862459
 20
136.845247235575
 30
0.0
 10
126.8708815720519
 20
136.964109234648
 30
0.0
 10
127.071747859489
 20
137.1858190609935
 30
0.0
 10
127.1946269080804
 20
137.288534399919
 30
0.0
 10
127.4848915701441
 20
137.4792264204968
 30
0.0
 10
127.653665145996
 20
137.5674161178078
 30
0.0
 10
128.0223031672823
 20
137.7229152339048
 30
0.0
 10
128.2234962152348
 20
137.7913278913689
 30
0.0
 10
128.660633740489
 20
137.9106585107141
 30
0.0
 10
128.8930484081123
 20
137.9604182028963
 30
0.0
 10
129.3742326302247
 20
138.0397921799691
 30
0.0
 10
129.6265676361827
 20
138.0699878642089
 30
0.0
 10
130.1430125018705
 20
138.1102357520518
 30
0.0
 10
130.4027177499228
 20
138.1201200368346
 30
0.0
 10
130.9250248070759
 20
138.1202331396166
 30
0.0
 10
131.1903311223899
 20
138.1101335338854
 30
0.0
 10
131.7035372125191
 20
138.070163343909
 30
0.0
 10
131.9530046508309
 20
138.0405061801378
 30
0.0
 10
132.4376072603227
 20
137.9607743531772
 30
0.0
 10
132.6714769191072
 20
137.9105952998641
 30
0.0
 10
133.1046192403624
 20
137.792526625278
 30
0.0
 10
133.3067961561283
 20
137.7241734648773
 30
0.0
 10
133.6800709484379
 20
137.5668129527729
 30
0.0
 10
133.8453932425878
 20
137.4802575357045
 30
0.0
 10
134.1351082299231
 20
137.2903701154607
 30
0.0
 10
134.2605114955537
 20
137.1857560950093
 30
0.0
 10
134.4613269435657
 20
136.9640849580679
 30
0.0
 10
134.5371115006716
 20
136.847518673523
 30
0.0
 10
134.6397212194038
 20
136.6020688498509
 30
0.0
 10
134.665998752262
 20
136.4723382943737
 30
0.0
 10
134.6661950990834
 20
136.2111925600703
 30
0.0
 10
134.6409618528658
 20
136.0785133980375
 30
0.0
 10
134.5385613669487
 20
135.8091561447224
 30
0.0
 10
134.4618730698895
 20
135.6747847063757
 30
0.0
 10
134.2626569595731
 20
135.4137525764716
 30
0.0
 10
134.1385503255686
 20
135.2850899391778
 30
0.0
 10
133.846673977567
 20
135.0397822178397
 30
0.0
 10
133.6814016733851
 20
134.9248256101103
 30
0.0
 10
133.3130185702015
 20
134.7114944304253
 30
0.0
 10
133.1075086635739
 20
134.6123762428892
 30
0.0
 10
132.6734043196417
 20
134.4404539806182
 30
0.0
 10
132.4439190320143
 20
134.3667424918305
 30
0.0
 10
131.9597063546537
 20
134.2454900205038
 30
0.0
 10
131.7057130288818
 20
134.1985816898199
 30
0.0
 10
131.1943348927556
 20
134.136372456445
 30
0.0
 10
130.9342048686885
 20
134.1203234647926
 30
0.0
 10
130.4052006547966
 20
134.1200321789986
 30
0.0
 10
130.1451129240095
 20
134.1357844196451
 30
0.0
 10
129.6333954013007
 20
134.1974542974427
 30
0.0
 10
129.3790842835675
 20
134.2441359732829
 30
0.0
 10
128.8947064376019
 20
134.3648422617401
 30
0.0
 10
128.6649416808392
 20
134.4383264761815
 30
0.0
 10
128.2299796239659
 20
134.6099789237053
 30
0.0
 10
128.0243033618362
 20
134.7088738040027
 30
0.0
 10
127.6554605167101
 20
134.9217829176216
 30
0.0
 10
127.4897767990558
 20
135.0366238673057
 30
0.0
 10
127.1968753820557
 20
135.2819658734655
 30
0.0
 10
127.07266465013
 20
135.4102779531469
 30
0.0
 10
126.8726560982083
 20
135.6711193810533
 30
0.0
 10
126.7955185486219
 20
135.8054026531356
 30
0.0
 10
126.6920855183511
 20
136.0750952342762
 30
0.0
 10
126.6660972082779
 20
136.2087411616433
 30
0.0
 10
126.6660972082779
 20
136.4732861456822
 30
0.0
  0
SPLINE
  5
7C
330
1F
100
AcDbEntity
  8
0
  6
Continuous
 62
     7
370
    15
100
AcDbSpline
210
0.0
220
0.0
230
1.0
 70
     8
 71
     3
 72
     8
 73
     4
 74
     0
 42
0.00000001
 43
0.00000001
 40
0.0
 40
0.0
 40
0.0
 40
0.0
 40
1.0
 40
1.0
 40
1.0
 40
1.0
 10
144.0580300397669
 20
78.8742957382058
 30
0.0
 10
143.5625503791012
 20
79.76982182613916
 30
0.0
 10
143.068436331059
 20
80.66610624119141
 30
0.0
 10
142.5760972082778
 20
81.56337627539811
 30
0.0
  0
LINE
  5
7D
330
1F
100
AcDbEntity
  8
0
  6
Continuous
 62
     7
370
    15
100
AcDbLine
 10
142.5760972083
 20
81.5633762754
 30
0.0
 11
142.5760972083
 21
128.9112134345
 31
0.0
  0
SPLINE
  5
7E
330
1F
100
AcDbEntity
  8
0
  6
Continuous
 62
     7
370
    15
100
AcDbSpline
210
0.0
220
0.0
230
1.0
 70
    24
 71
     3
 72
     8
 73
     4
 74
     0
 42
0.00000001
 43
0.00000001
 40
0.0
 40
0.0
 40
0.0
 40
0.0
 40
1.0
 40
1.0
 40
1.0
 40
1.0
 10
142.5760972082778
 20
128.911213434453
 30
0.0
 10
143.0560492026428
 20
128.911213434453
 30
0.0
 10
143.5513499316164
 20
128.911213434453
 30
0.0
 10
144.0580300397669
 20
128.911213434453
 30
0.0
  0
LINE
  5
7F
330
1F
100
AcDbEntity
  8
0
  6
Continuous
 62
     7
370
    15
100
AcDbLine
 10
138.7560972083
 20
81.5633762754
 30
0.0
 11
138.7560972083
 21
128.9112134345
 31
0.0
  0
SPLINE
  5
80
330
1F
100
AcDbEntity
  8
0
  6
Continuous
 62
     7
370
    15
100
AcDbSpline
210
0.0
220
0.0
230
1.0
 70
     8
 71
     3
 72
     8
 73
     4
 74
     0
 42
0.00000001
 43
0.00000001
 40
0.0
 40
0.0
 40
0.0
 40
0.0
 40
1.0
 40
1.0
 40
1.0
 40
1.0
 10
138.7560972082779
 20
81.5633762753981
 30
0.0
 10
138.2637580854967
 20
80.6661062411914
 30
0.0
 10
137.7696440374546
 20
79.76982182613915
 30
0.0
 10
137.2741643767888
 20
78.8742957382058
 30
0.0
  0
SPLINE
  5
81
330
1F
100
AcDbEntity
  8
0
  6
Continuous
 62
     7
370
    15
100
AcDbSpline
210
0.0
220
0.0
230
1.0
 70
    24
 71
     3
 72
     8
 73
     4
 74
     0
 42
0.00000001
 43
0.00000001
 40
0.0
 40
0.0
 40
0.0
 40
0.0
 40
1.0
 40
1.0
 40
1.0
 40
1.0
 10
137.2741643767888
 20
128.911213434453
 30
0.0
 10
137.7808444849394
 20
128.911213434453
 30
0.0
 10
138.276145213913
 20
128.911213434453
 30
0.0
 10
138.7560972082779
 20
128.911213434453
 30
0.0
  0
ARC
  5
82
330
1F
100
AcDbEntity
  8
0
  6
Continuous
 62
     7
370
    15
100
AcDbCircle
 10
130.8291264912
 20
121.112271779
 30
0.0
 40
3.910308396343904
100
AcDbArc
 50
18.6034682283
 51
92.3894785612
  0
ARC
  5
83
330
1F
100
AcDbEntity
  8
0
  6
Continuous
 62
     7
370
    15
100
AcDbCircle
 10
130.5486443769
 20
121.0426852006
 30
0.0
 40
3.978229184175179
100
AcDbArc
 50
88.3081594227
 51
160.0239935182
  0
SPLINE
  5
84
330
1F
100
AcDbEntity
  8
0
  6
Continuous
 62
     7
370
    15
100
AcDbSpline
210
0.0
220
0.0
230
1.0
 70
     8
 71
     3
 72
    10
 73
     6
 74
     0
 42
0.00000001
 43
0.00000001
 40
0.0
 40
0.0
 40
0.0
 40
0.0
 40
0.5
 40
0.5
 40
1.0
 40
1.0
 40
1.0
 40
1.0
 10
139.1503947399688
 20
135.461213434453
 30
0.0
 10
139.0288544763003
 20
135.5359396016647
 30
0.0
 10
138.9275201159514
 20
135.6448846175815
 30
0.0
 10
138.791881173063
 20
135.8953150983431
 30
0.0
 10
138.7560972082779
 20
136.037734460442
 30
0.0
 10
138.7560972082779
 20
136.1808672854887
 30
0.0
  0
SPLINE
  5
85
330
1F
100
AcDbEntity
  8
0
  6
Continuous
 62
     7
370
    15
100
AcDbSpline
210
0.0
220
0.0
230
1.0
 70
    24
 71
     3
 72
    12
 73
     8
 74
     0
 42
0.00000001
 43
0.00000001
 40
0.0
 40
0.0
 40
0.0
 40
0.0
 40
0.2500000000000037
 40
0.2500000000000037
 40
0.5000000000000074
 40
0.5000000000000074
 40
1.0
 40
1.0
 40
1.0
 40
1.0
 10
139.5560972082779
 20
135.461213434453
 30
0.0
 10
139.5062205259604
 20
135.461213434453
 30
0.0
 10
139.4582173325568
 20
135.461213434453
 30
0.0
 10
139.3751692298449
 20
135.461213434453
 30
0.0
 10
139.339039650377
 20
135.461213434453
 30
0.0
 10
139.2431276194328
 20
135.461213434453
 30
0.0
 10
139.193368951464
 20
135.461213434453
 30
0.0
 10
139.1503947399688
 20
135.461213434453
 30
0.0
  0
SPLINE
  5
86
330
1F
100
AcDbEntity
  8
0
  6
Continuous
 62
     7
370
    15
100
AcDbSpline
210
0.0
220
0.0
230
1.0
 70
    24
 71
     3
 72
    14
 73
    10
 74
     0
 42
0.00000001
 43
0.00000001
 40
0.0
 40
0.0
 40
0.0
 40
0.0
 40
0.1249999999999991
 40
0.1249999999999991
 40
0.2499999999999982
 40
0.2499999999999982
 40
0.4999999999999998
 40
0.4999999999999998
 40
1.0
 40
1.0
 40
1.0
 40
1.0
 10
139.5560972082779
 20
82.66121343445296
 30
0.0
 10
139.4876593603914
 20
82.66121343445296
 30
0.0
 10
139.4221093216264
 20
82.66121343445297
 30
0.0
 10
139.3176826822184
 20
82.66121343445297
 30
0.0
 10
139.275138072457
 20
82.66121343445297
 30
0.0
 10
139.1625286119167
 20
82.66121343445296
 30
0.0
 10
139.1069895648972
 20
82.66121343445296
 30
0.0
 10
138.9643778694334
 20
82.66121343445296
 30
0.0
 10
138.9009725144377
 20
82.66121343445296
 30
0.0
 10
138.8537720106101
 20
82.66121343445296
 30
0.0
  0
SPLINE
  5
87
330
1F
100
AcDbEntity
  8
0
  6
Continuous
 62
     7
370
    15
100
AcDbSpline
210
0.0
220
0.0
230
1.0
 70
     8
 71
     3
 72
    10
 73
     6
 74
     0
 42
0.00000001
 43
0.00000001
 40
0.0
 40
0.0
 40
0.0
 40
0.0
 40
0.5
 40
0.5
 40
1.0
 40
1.0
 40
1.0
 40
1.0
 10
138.7560972082779
 20
129.1970800659143
 30
0.0
 10
138.7560972082779
 20
129.149308557921
 30
0.0
 10
138.758258451875
 20
129.1015988358594
 30
0.0
 10
138.7669298257352
 20
129.0063037183111
 30
0.0
 10
138.7734590086912
 20
128.9586111543445
 30
0.0
 10
138.782244831438
 20
128.911213434453
 30
0.0
  0
SPLINE
  5
88
330
1F
100
AcDbEntity
  8
0
  6
Continuous
 62
     7
370
    15
100
AcDbSpline
210
0.0
220
0.0
230
1.0
 70
    24
 71
     3
 72
    14
 73
    10
 74
     0
 42
0.00000001
 43
0.00000001
 40
0.0
 40
0.0
 40
0.0
 40
0.0
 40
0.5000000000000013
 40
0.5000000000000013
 40
0.750000000000002
 40
0.750000000000002
 40
0.875000000000001
 40
0.875000000000001
 40
1.0
 40
1.0
 40
1.0
 40
1.0
 10
142.4784224059456
 20
82.66121343445296
 30
0.0
 10
142.4316377008974
 20
82.66121343445296
 30
0.0
 10
142.3695865041177
 20
82.66121343445297
 30
0.0
 10
142.2261948655672
 20
82.66121343445296
 30
0.0
 10
142.170051212016
 20
82.66121343445296
 30
0.0
 10
142.0571001898798
 20
82.66121343445296
 30
0.0
 10
142.0140994278416
 20
82.66121343445296
 30
0.0
 10
141.9100367175352
 20
82.66121343445296
 30
0.0
 10
141.8447044791783
 20
82.66121343445297
 30
0.0
 10
141.7760972082779
 20
82.66121343445296
 30
0.0
  0
SPLINE
  5
89
330
1F
100
AcDbEntity
  8
0
  6
Continuous
 62
     7
370
    15
100
AcDbSpline
210
0.0
220
0.0
230
1.0
 70
    24
 71
     3
 72
    12
 73
     8
 74
     0
 42
0.00000001
 43
0.00000001
 40
0.0
 40
0.0
 40
0.0
 40
0.0
 40
0.5000000000000017
 40
0.5000000000000017
 40
0.7500000000000008
 40
0.7500000000000008
 40
1.0
 40
1.0
 40
1.0
 40
1.0
 10
142.1817996765869
 20
135.461213434453
 30
0.0
 10
142.138714126976
 20
135.461213434453
 30
0.0
 10
142.0895619252266
 20
135.461213434453
 30
0.0
 10
141.9930893309387
 20
135.461213434453
 30
0.0
 10
141.9569877458041
 20
135.461213434453
 30
0.0
 10
141.8738819879429
 20
135.461213434453
 30
0.0
 10
141.8258853909766
 20
135.461213434453
 30
0.0
 10
141.7760972082779
 20
135.461213434453
 30
0.0
  0
SPLINE
  5
8A
330
1F
100
AcDbEntity
  8
0
  6
Continuous
 62
     7
370
    15
100
AcDbSpline
210
0.0
220
0.0
230
1.0
 70
     8
 71
     3
 72
    10
 73
     6
 74
     0
 42
0.00000001
 43
0.00000001
 40
0.0
 40
0.0
 40
0.0
 40
0.0
 40
0.5
 40
0.5
 40
1.0
 40
1.0
 40
1.0
 40
1.0
 10
142.5760972082778
 20
136.1808672854887
 30
0.0
 10
142.5760972082778
 20
136.0370972276707
 30
0.0
 10
142.540048149559
 20
135.8946778651756
 30
0.0
 10
142.404539288785
 20
135.6447835718183
 30
0.0
 10
142.3046632956888
 20
135.5367532355702
 30
0.0
 10
142.1817996765869
 20
135.4612134344529
 30
0.0
  0
SPLINE
  5
8B
330
1F
100
AcDbEntity
  8
0
  6
Continuous
 62
     7
370
    15
100
AcDbSpline
210
0.0
220
0.0
230
1.0
 70
     8
 71
     3
 72
    10
 73
     6
 74
     0
 42
0.00000001
 43
0.00000001
 40
0.0
 40
0.0
 40
0.0
 40
0.0
 40
0.5
 40
0.5
 40
1.0
 40
1.0
 40
1.0
 40
1.0
 10
142.5499495851177
 20
128.911213434453
 30
0.0
 10
142.5586392280294
 20
128.9580922837711
 30
0.0
 10
142.5651782927799
 20
129.0055147491724
 30
0.0
 10
142.5739369271729
 20
129.1014515477591
 30
0.0
 10
142.5760972082778
 20
129.1493668357696
 30
0.0
 10
142.5760972082779
 20
129.1970800659142
 30
0.0
  0
LINE
  5
8C
330
1F
100
AcDbEntity
  8
0
  6
Continuous
 62
     7
370
    15
100
AcDbLine
 10
141.7760972083
 20
135.4612134345
 30
0.0
 11
139.5560972083
 21
135.4612134345
 31
0.0
  0
LINE
  5
8D
330
1F
100
AcDbEntity
  8
0
  6
Continuous
 62
     7
370
    15
100
AcDbLine
 10
141.7760972083
 20
82.6612134345
 30
0.0
 11
139.5560972083
 21
82.6612134345
 31
0.0
  0
LINE
  5
8E
330
1F
100
AcDbEntity
  8
0
  6
Continuous
 62
     7
370
    15
100
AcDbLine
 10
120.6660972083
 20
84.8407825727
 30
0.0
 11
120.6660972083
 21
133.2816442962
 31
0.0
  0
LINE
  5
8F
330
1F
100
AcDbEntity
  8
0
  6
Continuous
 62
     7
370
    15
100
AcDbLine
 10
100.8660972083
 20
85.8327665407
 30
0.0
 11
100.8660972083
 21
87.0974759033
 31
0.0
  0
SPLINE
  5
90
330
1F
100
AcDbEntity
  8
0
  6
Continuous
 62
     7
370
    15
100
AcDbSpline
210
0.0
220
0.0
230
1.0
 70
     8
 71
     3
 72
    14
 73
    10
 74
     0
 42
0.00000001
 43
0.00000001
 40
0.0
 40
0.0
 40
0.0
 40
0.0
 40
0.25
 40
0.25
 40
0.5
 40
0.5
 40
0.75
 40
0.75
 40
1.0
 40
1.0
 40
1.0
 40
1.0
 10
100.0878100903622
 20
88.228062110893
 30
0.0
 10
100.1444367655642
 20
88.12036465705616
 30
0.0
 10
100.2389594258539
 20
88.01757507533684
 30
0.0
 10
100.4220044014162
 20
87.81921776311668
 30
0.0
 10
100.5136309783709
 20
87.72315825443843
 30
0.0
 10
100.6724842960641
 20
87.53562921172919
 30
0.0
 10
100.7403749036858
 20
87.44422023894563
 30
0.0
 10
100.8372919293934
 20
87.26584401803548
 30
0.0
 10
100.8660972082784
 20
87.17862211178931
 30
0.0
 10
100.8660972082784
 20
87.09747590325506
 30
0.0
  0
SPLINE
  5
91
330
1F
100
AcDbEntity
  8
0
  6
Continuous
 62
     7
370
    15
100
AcDbSpline
210
0.0
220
0.0
230
1.0
 70
     8
 71
     3
 72
    14
 73
    10
 74
     0
 42
0.00000001
 43
0.00000001
 40
0.0
 40
0.0
 40
0.0
 40
0.0
 40
0.1249999999999975
 40
0.1249999999999975
 40
0.249999999999995
 40
0.249999999999995
 40
0.4999999999999953
 40
0.4999999999999953
 40
1.0
 40
1.0
 40
1.0
 40
1.0
 10
99.46609720827787
 20
88.67474397317234
 30
0.0
 10
99.51464161693504
 20
88.68049228645262
 30
0.0
 10
99.56755697171994
 20
88.67739139779638
 30
0.0
 10
99.662852316703
 20
88.65519655363406
 30
0.0
 10
99.70310331398794
 20
88.6379643265382
 30
0.0
 10
99.80737332750091
 20
88.58163641008613
 30
0.0
 10
99.85769530265424
 20
88.53745006414033
 30
0.0
 10
99.98537825017961
 20
88.40644216528972
 30
0.0
 10
100.0414636972419
 20
88.31620764505942
 30
0.0
 10
100.0878100903636
 20
88.22806211089355
 30
0.0
  0
SPLINE
  5
92
330
1F
100
AcDbEntity
  8
0
  6
Continuous
 62
     7
370
    15
100
AcDbSpline
210
0.0
220
0.0
230
1.0
 70
     8
 71
     3
 72
     8
 73
     4
 74
     0
 42
0.00000001
 43
0.00000001
 40
0.0
 40
0.0
 40
0.0
 40
0.0
 40
1.0
 40
1.0
 40
1.0
 40
1.0
 10
97.19757211533164
 20
88.36489868658954
 30
0.0
 10
97.93214914181459
 20
88.4835236976585
 30
0.0
 10
98.69562421121026
 20
88.58350956979477
 30
0.0
 10
99.46609720827787
 20
88.67474397317233
 30
0.0
  0
SPLINE
  5
93
330
1F
100
AcDbEntity
  8
0
  6
Continuous
 62
     7
370
    15
100
AcDbSpline
210
0.0
220
0.0
230
1.0
 70
     8
 71
     3
 72
    14
 73
    10
 74
     0
 42
0.00000001
 43
0.00000001
 40
0.0
 40
0.0
 40
0.0
 40
0.0
 40
0.500000000000001
 40
0.500000000000001
 40
0.7500000000000004
 40
0.7500000000000004
 40
0.8750000000000003
 40
0.8750000000000003
 40
1.0
 40
1.0
 40
1.0
 40
1.0
 10
91.91609720827788
 20
88.19127566905789
 30
0.0
 10
92.80824333883145
 20
88.19055344285724
 30
0.0
 10
93.69821977462504
 20
88.19513964931471
 30
0.0
 10
95.02481494170064
 20
88.22286465370624
 30
0.0
 10
95.4656618701994
 20
88.2354711913304
 30
0.0
 10
96.1221021076218
 20
88.26648733933787
 30
0.0
 10
96.34011576421368
 20
88.27883051196464
 30
0.0
 10
96.77282461789646
 20
88.31185456712792
 30
0.0
 10
96.98810108306125
 20
88.33107173226635
 30
0.0
 10
97.19757211533165
 20
88.36489868658954
 30
0.0
  0
SPLINE
  5
94
330
1F
100
AcDbEntity
  8
0
  6
Continuous
 62
     7
370
    15
100
AcDbSpline
210
0.0
220
0.0
230
1.0
 70
     8
 71
     3
 72
     8
 73
     4
 74
     0
 42
0.00000001
 43
0.00000001
 40
0.0000005163856998
 40
0.0000005163856998
 40
0.0000005163856998
 40
0.0000005163856998
 40
0.000026289209185
 40
0.000026289209185
 40
0.000026289209185
 40
0.000026289209185
 10
91.90605227787026
 20
88.20125954215467
 30
0.0
 10
91.9093800160781
 20
88.19792529528556
 30
0.0
 10
91.91272846905369
 20
88.19459733801024
 30
0.0
 10
91.91609720827785
 20
88.19127566905787
 30
0.0
  0
SPLINE
  5
95
330
1F
100
AcDbEntity
  8
0
  6
Continuous
 62
     7
370
    15
100
AcDbSpline
210
0.0
220
0.0
230
1.0
 70
     8
 71
     3
 72
     8
 73
     4
 74
     0
 42
0.00000001
 43
0.00000001
 40
0.0000005099763573
 40
0.0000005099763573
 40
0.0000005099763573
 40
0.0000005099763573
 40
0.0000262827998699
 40
0.0000262827998699
 40
0.0000262827998699
 40
0.0000262827998699
 10
91.91609720827785
 20
129.931151199848
 30
0.0
 10
91.91272846905011
 20
129.9278295308922
 30
0.0
 10
91.90938001607097
 20
129.9245015736133
 30
0.0
 10
91.90605227785963
 20
129.9211673267406
 30
0.0
  0
SPLINE
  5
96
330
1F
100
AcDbEntity
  8
0
  6
Continuous
 62
     7
370
    15
100
AcDbSpline
210
0.0
220
0.0
230
1.0
 70
     8
 71
     3
 72
    10
 73
     6
 74
     0
 42
0.00000001
 43
0.00000001
 40
0.0
 40
0.0
 40
0.0
 40
0.0
 40
0.5
 40
0.5
 40
1.0
 40
1.0
 40
1.0
 40
1.0
 10
95.46609720827787
 20
129.8843008262807
 30
0.0
 10
94.87851166118729
 20
129.9053663465171
 30
0.0
 10
94.2877652677269
 20
129.9161248323894
 30
0.0
 10
93.10374610242803
 20
129.929489612925
 30
0.0
 10
92.51033211422258
 20
129.9316322555896
 30
0.0
 10
91.91609720827788
 20
129.931151199848
 30
0.0
  0
SPLINE
  5
97
330
1F
100
AcDbEntity
  8
0
  6
Continuous
 62
     7
370
    15
100
AcDbSpline
210
0.0
220
0.0
230
1.0
 70
     8
 71
     3
 72
    18
 73
    14
 74
     0
 42
0.00000001
 43
0.00000001
 40
0.0
 40
0.0
 40
0.0
 40
0.0
 40
0.2500000000000009
 40
0.2500000000000009
 40
0.500000000000001
 40
0.500000000000001
 40
0.7500000000000011
 40
0.7500000000000011
 40
0.875000000000001
 40
0.875000000000001
 40
0.9375000000000006
 40
0.9375000000000006
 40
1.0
 40
1.0
 40
1.0
 40
1.0
 10
96.86609720827788
 20
130.905321106816
 30
0.0
 10
96.86609720827788
 20
130.8221141979587
 30
0.0
 10
96.8302481083396
 20
130.7333775426452
 30
0.0
 10
96.7053763723057
 20
130.551252352085
 30
0.0
 10
96.61497595465782
 20
130.4561223034583
 30
0.0
 10
96.39273329991565
 20
130.266940794334
 30
0.0
 10
96.26296851346989
 20
130.1719956262393
 30
0.0
 10
96.02233105615836
 20
130.0337169186594
 30
0.0
 10
95.93456375802091
 20
129.988006485357
 30
0.0
 10
95.7800396708141
 20
129.9301831801355
 30
0.0
 10
95.72342878475935
 20
129.9124684160977
 30
0.0
 10
95.59938475385276
 20
129.8879291128647
 30
0.0
 10
95.53167007883447
 20
129.8819499743265
 30
0.0
 10
95.46609720827787
 20
129.8843008262807
 30
0.0
  0
LINE
  5
98
330
1F
100
AcDbEntity
  8
0
  6
Continuous
 62
     7
370
    15
100
AcDbLine
 10
96.8660972083
 20
130.9053211068
 30
0.0
 11
96.8660972083
 21
132.0892595266
 31
0.0
  0
SPLINE
  5
99
330
1F
100
AcDbEntity
  8
0
  6
Continuous
 62
     7
370
    15
100
AcDbSpline
210
0.0
220
0.0
230
1.0
 70
     8
 71
     3
 72
    24
 73
    20
 74
     0
 42
0.00000001
 43
0.00000001
 40
0.0
 40
0.0
 40
0.0
 40
0.0
 40
0.0010489762969682
 40
0.0637843125639766
 40
0.1272220590447888
 40
0.1903788924487598
 40
0.252674865369363
 40
0.3146354154424954
 40
0.377089199714964
 40
0.4393540298504154
 40
0.5008133242537826
 40
0.562184510458698
 40
0.624843845111553
 40
0.6874304766616532
 40
0.7496743174679398
 40
0.8119848426977657
 40
0.8750960525413161
 40
0.9384412526965076
 40
0.9999999999999999
 40
0.9999999999999999
 40
0.9999999999999999
 40
0.9999999999999999
 10
109.4350030402535
 20
85.40370500587282
 30
0.0
 10
109.4345565801493
 20
85.40364672005391
 30
0.0
 10
109.4074090164556
 20
85.4001025781114
 30
0.0
 10
109.5030207940693
 20
85.41293632279415
 30
0.0
 10
109.7365810519637
 20
85.44218300799433
 30
0.0
 10
110.1321353592809
 20
85.48879733105717
 30
0.0
 10
110.6591756631185
 20
85.53898047271652
 30
0.0
 10
111.3027060751083
 20
85.58335693516614
 30
0.0
 10
112.0413799303473
 20
85.61030171610435
 30
0.0
 10
112.8388944357806
 20
85.61377356681113
 30
0.0
 10
113.6654733182234
 20
85.58614632278089
 30
0.0
 10
114.4909963358342
 20
85.52766743380755
 30
0.0
 10
115.2831228838353
 20
85.44222240444749
 30
0.0
 10
116.0156951578412
 20
85.34048816461114
 30
0.0
 10
116.6513353945692
 20
85.2326450426382
 30
0.0
 10
117.1732465015787
 20
85.1310148858991
 30
0.0
 10
117.5548752786943
 20
85.04852972922087
 30
0.0
 10
117.8056897489281
 20
84.99238052287126
 30
0.0
 10
117.8348113049124
 20
84.9855310642575
 30
0.0
 10
117.8491638257286
 20
84.98215531752933
 30
0.0
  0
SPLINE
  5
9A
330
1F
100
AcDbEntity
  8
0
  6
Continuous
 62
     7
370
    15
100
AcDbSpline
210
0.0
220
0.0
230
1.0
 70
     8
 71
     3
 72
    24
 73
    20
 74
     0
 42
0.00000001
 43
0.00000001
 40
0.0
 40
0.0
 40
0.0
 40
0.0
 40
0.0614384276250176
 40
0.1250736755369651
 40
0.1884253490729237
 40
0.2508623904037427
 40
0.3129665632511172
 40
0.3753451453465143
 40
0.4377328972324873
 40
0.4990927322917189
 40
0.5605807588447405
 40
0.6229469893028771
 40
0.6854686282025979
 40
0.7475477813740068
 40
0.8098225060804932
 40
0.8730684085990272
 40
0.9364041844536292
 40
0.9991757196257863
 40
1.0
 40
1.0
 40
1.0
 40
1.0
 10
117.8491090549256
 20
133.1402424089104
 30
0.0
 10
117.8345083306222
 20
133.1368743520578
 30
0.0
 10
117.8047848118942
 20
133.130017808584
 30
0.0
 10
117.5520469962456
 20
133.073679188058
 30
0.0
 10
117.1690510797959
 20
132.9908221059281
 30
0.0
 10
116.6466954953588
 20
132.8889150759768
 30
0.0
 10
116.0119110173589
 20
132.7810759369329
 30
0.0
 10
115.2816874131863
 20
132.6796089849578
 30
0.0
 10
114.4912188279522
 20
132.5945492712671
 30
0.0
 10
113.6667353131241
 20
132.5363449773808
 30
0.0
 10
112.8396988542406
 20
132.5087615385541
 30
0.0
 10
112.0413745865889
 20
132.5122545160469
 30
0.0
 10
111.3015506222997
 20
132.5392104359001
 30
0.0
 10
110.6572963893246
 20
132.5835643778993
 30
0.0
 10
110.1298891341086
 20
132.6337698276571
 30
0.0
 10
109.7352245319584
 20
132.6803796828556
 30
0.0
 10
109.5026952527701
 20
132.7095752754029
 30
0.0
 10
109.4073152202215
 20
132.7223533443442
 30
0.0
 10
109.4342488571225
 20
132.7187990858364
 30
0.0
 10
109.4345979503468
 20
132.718753018253
 30
0.0
  0
SPLINE
  5
9B
330
1F
100
AcDbEntity
  8
0
  6
Continuous
 62
     7
370
    15
100
AcDbSpline
210
0.0
220
0.0
230
1.0
 70
     8
 71
     3
 72
     8
 73
     4
 74
     0
 42
0.00000001
 43
0.00000001
 40
0.0
 40
0.0
 40
0.0
 40
0.0
 40
1.0
 40
1.0
 40
1.0
 40
1.0
 10
90.7660972082772
 20
89.37053568797546
 30
0.0
 10
90.76609720827719
 20
89.35913885956114
 30
0.0
 10
90.76766622458685
 20
89.34955344794324
 30
0.0
 10
90.77040368605526
 20
89.34207636918352
 30
0.0
  0
SPLINE
  5
9C
330
1F
100
AcDbEntity
  8
0
  6
Continuous
 62
     7
370
    15
100
AcDbSpline
210
0.0
220
0.0
230
1.0
 70
     8
 71
     3
 72
    12
 73
     8
 74
     0
 42
0.00000001
 43
0.00000001
 40
0.0
 40
0.0
 40
0.0
 40
0.0
 40
0.0839988866763638
 40
0.3910885625176665
 40
0.701250540050408
 40
0.8502953555951863
 40
1.0
 40
1.0
 40
1.0
 40
1.0
 10
90.77865366932531
 20
89.33065744325947
 30
0.0
 10
90.77967464066265
 20
89.32905109009145
 30
0.0
 10
90.78442815857817
 20
89.32157210583071
 30
0.0
 10
90.79822002484178
 20
89.32339927443515
 30
0.0
 10
90.81271175810832
 20
89.33827035533673
 30
0.0
 10
90.82302317687808
 20
89.36176265812226
 30
0.0
 10
90.82684530040014
 20
89.37834926789354
 30
0.0
 10
90.82876058300127
 20
89.38666088967223
 30
0.0
  0
LINE
  5
9D
330
1F
100
AcDbEntity
  8
0
  6
Continuous
 62
     7
370
    15
100
AcDbLine
 10
90.7660972083
 20
89.370535688
 30
0.0
 11
90.7660972083
 21
128.7518911809
 31
0.0
  0
SPLINE
  5
9E
330
1F
100
AcDbEntity
  8
0
  6
Continuous
 62
     7
370
    15
100
AcDbSpline
210
0.0
220
0.0
230
1.0
 70
     8
 71
     3
 72
    10
 73
     6
 74
     0
 42
0.00000001
 43
0.00000001
 40
0.0
 40
0.0
 40
0.0
 40
0.0
 40
0.3981552638809415
 40
0.8068145697130351
 40
1.0
 40
1.0
 40
1.0
 40
1.0
 10
90.82876058300127
 20
128.7357659792337
 30
0.0
 10
90.82309707827679
 20
128.7546077637846
 30
0.0
 10
90.81162065552951
 20
128.7927884125769
 30
0.0
 10
90.7881064275553
 20
128.8063716964446
 30
0.0
 10
90.78309047173751
 20
128.7906714023244
 30
0.0
 10
90.7814804060099
 20
128.7856317834772
 30
0.0
  0
SPLINE
  5
9F
330
1F
100
AcDbEntity
  8
0
  6
Continuous
 62
     7
370
    15
100
AcDbSpline
210
0.0
220
0.0
230
1.0
 70
     8
 71
     3
 72
    26
 73
    22
 74
     0
 42
0.00000001
 43
0.00000001
 40
0.0
 40
0.0
 40
0.0
 40
0.0
 40
0.2500000000000165
 40
0.2500000000000165
 40
0.3750000000000256
 40
0.3750000000000256
 40
0.4375000000000291
 40
0.4375000000000291
 40
0.4687500000000291
 40
0.4687500000000291
 40
0.5000000000000292
 40
0.5000000000000292
 40
0.5312500000000293
 40
0.5312500000000293
 40
0.5625000000000293
 40
0.5625000000000293
 40
0.625000000000026
 40
0.625000000000026
 40
0.7500000000000173
 40
0.7500000000000173
 40
1.0
 40
1.0
 40
1.0
 40
1.0
 10
91.59025085438238
 20
129.4513327680508
 30
0.0
 10
91.55165033151391
 20
129.3335580716954
 30
0.0
 10
91.50535332895964
 20
129.2091683855334
 30
0.0
 10
91.41141398052571
 20
129.00394905318
 30
0.0
 10
91.37610251361227
 20
128.9323761867335
 30
0.0
 10
91.3099225378666
 20
128.816422954133
 30
0.0
 10
91.28538417119836
 20
128.7758384193228
 30
0.0
 10
91.24201142564458
 20
128.7116967374511
 30
0.0
 10
91.22650302421937
 20
128.689830312166
 30
0.0
 10
91.19146037963236
 20
128.6442360438228
 30
0.0
 10
91.17191008891258
 20
128.6205657528554
 30
0.0
 10
91.12998280854198
 20
128.5759491935155
 30
0.0
 10
91.10733069831034
 20
128.5550691809975
 30
0.0
 10
91.06635698422369
 20
128.5241957672467
 30
0.0
 10
91.04875768432827
 20
128.5143568974143
 30
0.0
 10
91.00413069847212
 20
128.4953672817182
 30
0.0
 10
90.98357147581879
 20
128.4950429570647
 30
0.0
 10
90.93244603632212
 20
128.5042663979409
 30
0.0
 10
90.9115346233336
 20
128.5255132941579
 30
0.0
 10
90.86008471577266
 20
128.5994821729887
 30
0.0
 10
90.8424194164681
 20
128.6656002663034
 30
0.0
 10
90.82876058300127
 20
128.7357659792337
 30
0.0
  0
SPLINE
  5
A0
330
1F
100
AcDbEntity
  8
0
  6
Continuous
 62
     7
370
    15
100
AcDbSpline
210
0.0
220
0.0
230
1.0
 70
     8
 71
     3
 72
    10
 73
     6
 74
     0
 42
0.00000001
 43
0.00000001
 40
0.0
 40
0.0
 40
0.0
 40
0.0
 40
0.5
 40
0.5
 40
1.0
 40
1.0
 40
1.0
 40
1.0
 10
91.90605227785966
 20
129.9211673267406
 30
0.0
 10
91.8384930229414
 20
129.8534759339308
 30
0.0
 10
91.77485636760493
 20
129.7787687691772
 30
0.0
 10
91.66463561303307
 20
129.6198026367506
 30
0.0
 10
91.61781931981045
 20
129.5354473707426
 30
0.0
 10
91.59025085438238
 20
129.4513327680508
 30
0.0
  0
SPLINE
  5
A1
330
1F
100
AcDbEntity
  8
0
  6
Continuous
 62
     7
370
    15
100
AcDbSpline
210
0.0
220
0.0
230
1.0
 70
     8
 71
     3
 72
    10
 73
     6
 74
     0
 42
0.00000001
 43
0.00000001
 40
0.0
 40
0.0
 40
0.0
 40
0.0
 40
0.5
 40
0.5
 40
1.0
 40
1.0
 40
1.0
 40
1.0
 10
91.5902508543824
 20
88.671094100855
 30
0.0
 10
91.61772826913639
 20
88.5872573043871
 30
0.0
 10
91.6644368994258
 20
88.50294681679796
 30
0.0
 10
91.77471536217176
 20
88.34382558631127
 30
0.0
 10
91.83860290078566
 20
88.2688408422216
 30
0.0
 10
91.90605227787027
 20
88.20125954215467
 30
0.0
  0
SPLINE
  5
A2
330
1F
100
AcDbEntity
  8
0
  6
Continuous
 62
     7
370
    15
100
AcDbSpline
210
0.0
220
0.0
230
1.0
 70
     8
 71
     3
 72
    24
 73
    20
 74
     0
 42
0.00000001
 43
0.00000001
 40
0.0
 40
0.0
 40
0.0
 40
0.0
 40
0.25
 40
0.25
 40
0.374999999999999
 40
0.374999999999999
 40
0.4374999999999993
 40
0.4374999999999993
 40
0.4687499999999994
 40
0.4687499999999994
 40
0.4999999999999995
 40
0.4999999999999995
 40
0.5624999999999971
 40
0.5624999999999971
 40
0.6249999999999947
 40
0.6249999999999947
 40
0.7499999999999947
 40
0.7499999999999947
 40
1.0
 40
1.0
 40
1.0
 40
1.0
 10
90.82876058300127
 20
89.38666088967223
 30
0.0
 10
90.8425137016715
 20
89.45731094766252
 30
0.0
 10
90.86028626907736
 20
89.52390906042743
 30
0.0
 10
90.91253736063274
 20
89.59800708066064
 30
0.0
 10
90.93357243621428
 20
89.6192648878222
 30
0.0
 10
90.98647284384273
 20
89.62741081396844
 30
0.0
 10
91.00757851672064
 20
89.62647101057267
 30
0.0
 10
91.0536306853986
 20
89.60545501899531
 30
0.0
 10
91.07200115738199
 20
89.5945462128877
 30
0.0
 10
91.1135527924477
 20
89.56191130194033
 30
0.0
 10
91.13611946520462
 20
89.54041932156898
 30
0.0
 10
91.19890048166462
 20
89.47195337798266
 30
0.0
 10
91.23203024263252
 20
89.42587891977756
 30
0.0
 10
91.28894792911754
 20
89.34087103144289
 30
0.0
 10
91.31313395462132
 20
89.3005907302615
 30
0.0
 10
91.37834190500108
 20
89.18565450379556
 30
0.0
 10
91.41305796519231
 20
89.11507151864856
 30
0.0
 10
91.50627323552318
 20
88.91086575956996
 30
0.0
 10
91.55194577088386
 20
88.7879673772426
 30
0.0
 10
91.5902508543824
 20
88.67109410085503
 30
0.0
  0
SPLINE
  5
A3
330
1F
100
AcDbEntity
  8
0
  6
Continuous
 62
     7
370
    15
100
AcDbSpline
210
0.0
220
0.0
230
1.0
 70
     8
 71
     3
 72
     8
 73
     4
 74
     0
 42
0.00000001
 43
0.00000001
 40
0.0
 40
0.0
 40
0.0
 40
0.0
 40
1.0
 40
1.0
 40
1.0
 40
1.0
 10
144.0580300397669
 20
139.5284089076172
 30
0.0
 10
143.5628900104026
 20
138.641729259437
 30
0.0
 10
143.0688073051236
 20
137.754466623751
 30
0.0
 10
142.5760972082778
 20
136.8664476256245
 30
0.0
  0
LINE
  5
A4
330
1F
100
AcDbEntity
  8
0
  6
Continuous
 62
     7
370
    15
100
AcDbLine
 10
144.0580300398
 20
133.5199030968
 30
0.0
 11
144.0580300398
 21
139.5284089076
 31
0.0
  0
SPLINE
  5
A5
330
1F
100
AcDbEntity
  8
0
  6
Continuous
 62
     7
370
    15
100
AcDbSpline
210
0.0
220
0.0
230
1.0
 70
     8
 71
     3
 72
     8
 73
     4
 74
     0
 42
0.00000001
 43
0.00000001
 40
0.0
 40
0.0
 40
0.0
 40
0.0
 40
1.0
 40
1.0
 40
1.0
 40
1.0
 10
142.5760972082778
 20
130.1113571020363
 30
0.0
 10
143.0553753588677
 20
131.2523683318889
 30
0.0
 10
143.5509431980076
 20
132.3887527426567
 30
0.0
 10
144.0580300397669
 20
133.5199030968204
 30
0.0
  0
LINE
  5
A6
330
1F
100
AcDbEntity
  8
0
  6
Continuous
 62
     7
370
    15
100
AcDbLine
 10
142.5760972083
 20
130.111357102
 30
0.0
 11
142.5760972083
 21
136.8664476256
 31
0.0
  0
SPLINE
  5
A7
330
1F
100
AcDbEntity
  8
0
  6
Continuous
 62
     7
370
    15
100
AcDbSpline
210
0.0
220
0.0
230
1.0
 70
     8
 71
     3
 72
     8
 73
     4
 74
     0
 42
0.00000001
 43
0.00000001
 40
0.0
 40
0.0
 40
0.0
 40
0.0
 40
1.0
 40
1.0
 40
1.0
 40
1.0
 10
138.7560972082779
 20
136.8664476256246
 30
0.0
 10
138.2633871114321
 20
137.754466623751
 30
0.0
 10
137.7693044061531
 20
138.641729259437
 30
0.0
 10
137.2741643767888
 20
139.5284089076172
 30
0.0
  0
LINE
  5
A8
330
1F
100
AcDbEntity
  8
0
  6
Continuous
 62
     7
370
    15
100
AcDbLine
 10
138.7560972083
 20
130.111357102
 30
0.0
 11
138.7560972083
 21
136.8664476256
 31
0.0
  0
SPLINE
  5
A9
330
1F
100
AcDbEntity
  8
0
  6
Continuous
 62
     7
370
    15
100
AcDbSpline
210
0.0
220
0.0
230
1.0
 70
     8
 71
     3
 72
     8
 73
     4
 74
     0
 42
0.00000001
 43
0.00000001
 40
0.0
 40
0.0
 40
0.0
 40
0.0
 40
1.0
 40
1.0
 40
1.0
 40
1.0
 10
137.2741643767888
 20
133.5199030968204
 30
0.0
 10
137.7812512185481
 20
132.3887527426567
 30
0.0
 10
138.276819057688
 20
131.2523683318889
 30
0.0
 10
138.7560972082779
 20
130.1113571020363
 30
0.0
  0
LINE
  5
AA
330
1F
100
AcDbEntity
  8
0
  6
Continuous
 62
     7
370
    15
100
AcDbLine
 10
138.7560972083
 20
130.111357102
 30
0.0
 11
138.7560972083
 21
129.1970800659
 31
0.0
  0
LINE
  5
AB
330
1F
100
AcDbEntity
  8
0
  6
Continuous
 62
     7
370
    15
100
AcDbLine
 10
148.0160972083
 20
139.5284089076
 30
0.0
 11
144.0580300398
 21
139.5284089076
 31
0.0
  0
LINE
  5
AC
330
1F
100
AcDbEntity
  8
0
  6
Continuous
 62
     7
370
    15
100
AcDbLine
 10
144.0580300398
 20
133.5199030968
 30
0.0
 11
148.0160972083
 21
133.5199030968
 31
0.0
  0
SPLINE
  5
AD
330
1F
100
AcDbEntity
  8
0
  6
Continuous
 62
     7
370
    15
100
AcDbSpline
210
0.0
220
0.0
230
1.0
 70
     8
 71
     3
 72
    12
 73
     8
 74
     0
 42
0.00000001
 43
0.00000001
 40
0.0
 40
0.0
 40
0.0
 40
0.0
 40
0.250000000000002
 40
0.250000000000002
 40
0.500000000000004
 40
0.500000000000004
 40
1.0
 40
1.0
 40
1.0
 40
1.0
 10
148.0160972082778
 20
133.5199030968204
 30
0.0
 10
148.1072969301035
 20
133.5199030968204
 30
0.0
 10
148.1978919392396
 20
133.4916833982325
 30
0.0
 10
148.3513046656862
 20
133.3972403909845
 30
0.0
 10
148.4165135330099
 20
133.3309534142791
 30
0.0
 10
148.5692980623498
 20
133.1053285909908
 30
0.0
 10
148.6160972082779
 20
132.9229023279582
 30
0.0
 10
148.6160972082779
 20
132.7421656957113
 30
0.0
  0
LINE
  5
AE
330
1F
100
AcDbEntity
  8
0
  6
Continuous
 62
     7
370
    15
100
AcDbLine
 10
142.5760972083
 20
129.1970800659
 30
0.0
 11
142.5760972083
 21
130.111357102
 31
0.0
  0
LINE
  5
AF
330
1F
100
AcDbEntity
  8
0
  6
Continuous
 62
     7
370
    15
100
AcDbLine
 10
148.6160972083
 20
132.7421656957
 30
0.0
 11
148.6160972083
 21
128.9112134345
 31
0.0
  0
SPLINE
  5
B0
330
1F
100
AcDbEntity
  8
0
  6
Continuous
 62
     7
370
    15
100
AcDbSpline
210
0.0
220
0.0
230
1.0
 70
     8
 71
     3
 72
    10
 73
     6
 74
     0
 42
0.00000001
 43
0.00000001
 40
0.0
 40
0.0
 40
0.0
 40
0.0
 40
0.5
 40
0.5
 40
1.0
 40
1.0
 40
1.0
 40
1.0
 10
148.6160972082779
 20
138.9076537582169
 30
0.0
 10
148.6160972082779
 20
139.0680590245677
 30
0.0
 10
148.553859377171
 20
139.2271208375562
 30
0.0
 10
148.3347244534284
 20
139.4580333031866
 30
0.0
 10
148.1771357584366
 20
139.5284089076172
 30
0.0
 10
148.0160972082778
 20
139.5284089076172
 30
0.0
  0
LINE
  5
B1
330
1F
100
AcDbEntity
  8
0
  6
Continuous
 62
     7
370
    15
100
AcDbLine
 10
148.6160972083
 20
132.7421656957
 30
0.0
 11
148.6160972083
 21
138.9076537582
 31
0.0
  0
ARC
  5
B2
330
1F
100
AcDbEntity
  8
0
  6
Continuous
 62
     7
370
    15
100
AcDbCircle
 10
130.7574903601
 20
128.151293132
 30
0.0
 40
6.856131885626043
100
AcDbArc
 50
70.448950334
 51
90.7637829985
  0
ARC
  5
B3
330
1F
100
AcDbEntity
  8
0
  6
Continuous
 62
     7
370
    15
100
AcDbCircle
 10
130.5738326852
 20
128.1600739561
 30
0.0
 40
6.847363528547652
100
AcDbArc
 50
89.2279469712
 51
109.685070272
  0
LINE
  5
B4
330
1F
100
AcDbEntity
  8
0
  6
Continuous
 62
     7
370
    15
100
AcDbLine
 10
170.9005853678
 20
96.0612134345
 30
0.0
 11
170.9005853678
 21
122.0612134345
 31
0.0
  0
LINE
  5
B5
330
1F
100
AcDbEntity
  8
0
  6
Continuous
 62
     7
370
    15
100
AcDbLine
 10
202.6660972083
 20
100.4099944178
 30
0.0
 11
202.6660972083
 21
117.7124323701
 31
0.0
  0
LINE
  5
B6
330
1F
100
AcDbEntity
  8
0
  6
HIDDEN
 62
     7
370
     0
100
AcDbLine
 10
165.6660972083
 20
106.0612134345
 30
0.0
 11
165.6660972083
 21
112.0612134345
 31
0.0
  0
LINE
  5
B7
330
1F
100
AcDbEntity
  8
0
  6
HIDDEN
 62
     7
370
     0
100
AcDbLine
 10
153.1660972083
 20
106.0612134345
 30
0.0
 11
153.1660972083
 21
112.0612134345
 31
0.0
  0
LINE
  5
B8
330
1F
100
AcDbEntity
  8
0
  6
HIDDEN
 62
     7
370
     0
100
AcDbLine
 10
152.6660972083
 20
106.5612134345
 30
0.0
 11
152.6660972083
 21
111.5612134345
 31
0.0
  0
LINE
  5
B9
330
1F
100
AcDbEntity
  8
0
  6
HIDDEN
 62
     7
370
     0
100
AcDbLine
 10
168.6660972083
 20
108.0612134345
 30
0.0
 11
166.6660972083
 21
108.0612134345
 31
0.0
  0
LINE
  5
BA
330
1F
100
AcDbEntity
  8
0
  6
HIDDEN
 62
     7
370
     0
100
AcDbLine
 10
168.6660972083
 20
106.5612134345
 30
0.0
 11
168.6660972083
 21
108.0612134345
 31
0.0
  0
LINE
  5
BB
330
1F
100
AcDbEntity
  8
0
  6
HIDDEN
 62
     7
370
     0
100
AcDbLine
 10
168.6660972083
 20
110.0612134345
 30
0.0
 11
168.6660972083
 21
111.5612134345
 31
0.0
  0
LINE
  5
BC
330
1F
100
AcDbEntity
  8
0
  6
HIDDEN
 62
     7
370
     0
100
AcDbLine
 10
166.6660972083
 20
110.0612134345
 30
0.0
 11
168.6660972083
 21
110.0612134345
 31
0.0
  0
LINE
  5
BD
330
1F
100
AcDbEntity
  8
0
  6
HIDDEN
 62
     7
370
     0
100
AcDbLine
 10
166.6660972083
 20
108.0612134345
 30
0.0
 11
166.6660972083
 21
110.0612134345
 31
0.0
  0
LINE
  5
BE
330
1F
100
AcDbEntity
  8
0
  6
HIDDEN
 62
     7
370
     0
100
AcDbLine
 10
157.1660972082
 20
109.0612134345
 30
0.0
 11
152.6660972083
 21
109.0612134345
 31
0.0
  0
LINE
  5
BF
330
1F
100
AcDbEntity
  8
0
  6
HIDDEN
 62
     7
370
     0
100
AcDbLine
 10
164.1660972083
 20
109.0612134345
 30
0.0
 11
166.6660972083
 21
109.0612134345
 31
0.0
  0
LINE
  5
C0
330
1F
100
AcDbEntity
  8
0
  6
HIDDEN
 62
     7
370
     0
100
AcDbLine
 10
164.1660972083
 20
109.0612134345
 30
0.0
 11
164.1660972083
 21
108.3112134345
 31
0.0
  0
LINE
  5
C1
330
1F
100
AcDbEntity
  8
0
  6
HIDDEN
 62
     7
370
     0
100
AcDbLine
 10
164.1660972083
 20
109.8112134345
 30
0.0
 11
164.1660972083
 21
109.0612134345
 31
0.0
  0
LINE
  5
C2
330
1F
100
AcDbEntity
  8
0
  6
HIDDEN
 62
     7
370
     0
100
AcDbLine
 10
157.1660972082
 20
109.0612134345
 30
0.0
 11
157.1660972082
 21
109.8112134345
 31
0.0
  0
LINE
  5
C3
330
1F
100
AcDbEntity
  8
0
  6
HIDDEN
 62
     7
370
     0
100
AcDbLine
 10
157.1660972082
 20
108.3112134345
 30
0.0
 11
157.1660972082
 21
109.0612134345
 31
0.0
  0
LINE
  5
C4
330
1F
100
AcDbEntity
  8
0
  6
HIDDEN
 62
     7
370
     0
100
AcDbLine
 10
157.1660972082
 20
107.5612134345
 30
0.0
 11
157.1660972082
 21
108.3112134345
 31
0.0
  0
LINE
  5
C5
330
1F
100
AcDbEntity
  8
0
  6
HIDDEN
 62
     7
370
     0
100
AcDbLine
 10
164.1660972083
 20
110.5612134345
 30
0.0
 11
164.1660972083
 21
109.8112134345
 31
0.0
  0
LINE
  5
C6
330
1F
100
AcDbEntity
  8
0
  6
HIDDEN
 62
     7
370
     0
100
AcDbLine
 10
164.1660972083
 20
108.3112134345
 30
0.0
 11
164.1660972083
 21
107.5612134345
 31
0.0
  0
LINE
  5
C7
330
1F
100
AcDbEntity
  8
0
  6
HIDDEN
 62
     7
370
     0
100
AcDbLine
 10
157.1660972082
 20
109.8112134345
 30
0.0
 11
157.1660972082
 21
110.5612134345
 31
0.0
  0
LINE
  5
C8
330
1F
100
AcDbEntity
  8
0
  6
HIDDEN
 62
     7
370
     0
100
AcDbLine
 10
164.1660972083
 20
110.5612134345
 30
0.0
 11
168.6660972083
 21
110.5612134345
 31
0.0
  0
LINE
  5
C9
330
1F
100
AcDbEntity
  8
0
  6
HIDDEN
 62
     7
370
     0
100
AcDbLine
 10
157.1660972082
 20
110.5612134345
 30
0.0
 11
152.6660972082
 21
110.5612134345
 31
0.0
  0
LINE
  5
CA
330
1F
100
AcDbEntity
  8
0
  6
HIDDEN
 62
     7
370
     0
100
AcDbLine
 10
164.1660972083
 20
107.5612134345
 30
0.0
 11
168.6660972083
 21
107.5612134345
 31
0.0
  0
LINE
  5
CB
330
1F
100
AcDbEntity
  8
0
  6
HIDDEN
 62
     7
370
     0
100
AcDbLine
 10
157.1660972082
 20
107.5612134345
 30
0.0
 11
152.6660972082
 21
107.5612134345
 31
0.0
  0
LINE
  5
CC
330
1F
100
AcDbEntity
  8
0
  6
HIDDEN
 62
     7
370
     0
100
AcDbLine
 10
137.2741643768
 20
133.5199030968
 30
0.0
 11
137.2741643768
 21
128.9112134345
 31
0.0
  0
LWPOLYLINE
  5
CD
330
1F
100
AcDbEntity
  8
0
  6
HIDDEN
 62
     7
370
     0
100
AcDbPolyline
 90
       22
 70
   128
 43
0.0
 10
134.5351177585
 20
122.3597253776
 10
134.5533434816
 20
122.295405076
 10
134.661566565
 20
121.6247372671
 10
134.6253829758
 20
120.9479402798
 10
134.4461004831
 20
120.2894753207
 10
134.1301988234
 20
119.673141029
 10
133.6890955057
 20
119.1212133318
 10
133.1387331532
 20
118.6536403342
 10
132.4990032952
 20
118.2873213426
 10
131.7930274356
 20
118.0354960797
 10
131.0463213815
 20
117.9072661667
 10
130.2858730351
 20
117.9072661667
 10
129.5391669809
 20
118.0354960797
 10
128.8331911214
 20
118.2873213426
 10
128.1934612634
 20
118.6536403342
 10
127.6430989109
 20
119.1212133318
 10
127.2019955931
 20
119.673141029
 10
126.8860939334
 20
120.2894753207
 10
126.7068114408
 20
120.9479402798
 10
126.6706278515
 20
121.6247372671
 10
126.778850935
 20
122.295405076
 10
126.8097623092
 20
122.4017541193
  0
LINE
  5
CE
330
1F
100
AcDbEntity
  8
0
  6
HIDDEN
 62
     7
370
     0
100
AcDbLine
 10
110.6612474128
 20
85.5366138116
 30
0.0
 11
110.4123825941
 21
85.5133508451
 31
0.0
  0
LINE
  5
CF
330
1F
100
AcDbEntity
  8
0
  6
HIDDEN
 62
     7
370
     0
100
AcDbLine
 10
110.2798218329
 20
132.6212997627
 30
0.0
 11
110.6611546926
 21
132.5857964644
 31
0.0
  0
SPLINE
  5
D0
330
1F
100
AcDbEntity
  8
0
  6
HIDDEN
 62
     7
370
     0
100
AcDbSpline
210
0.0
220
0.0
230
1.0
 70
     8
 71
     3
 72
    16
 73
    12
 74
     0
 42
0.00000001
 43
0.00000001
 40
0.0
 40
0.0
 40
0.0
 40
0.0
 40
0.1100417907225431
 40
0.2208575608578806
 40
0.3341006584185492
 40
0.4481780854562087
 40
0.5582428332573183
 40
0.6698643873484095
 40
0.7822752859270423
 40
0.8963065672158441
 40
1.0
 40
1.0
 40
1.0
 40
1.0
 10
116.4210992098795
 20
128.8987419102694
 30
0.0
 10
116.488693035939
 20
128.9078101616087
 30
0.0
 10
116.6243561095271
 20
128.9260104458723
 30
0.0
 10
116.8048039794192
 20
128.9467315431532
 30
0.0
 10
116.9669432280906
 20
128.9634710650595
 30
0.0
 10
117.1050299600175
 20
128.976053787495
 30
0.0
 10
117.2185571080636
 20
128.9853296072266
 30
0.0
 10
117.307286017629
 20
128.9918858075811
 30
0.0
 10
117.3709237602788
 20
128.9962170917894
 30
0.0
 10
117.4095412018496
 20
128.9986874882747
 30
0.0
 10
117.4134746179829
 20
128.9989321331965
 30
0.0
 10
117.4153479442297
 20
128.9990486476302
 30
0.0
  0
SPLINE
  5
D1
330
1F
100
AcDbEntity
  8
0
  6
HIDDEN
 62
     7
370
     0
100
AcDbSpline
210
0.0
220
0.0
230
1.0
 70
     8
 71
     3
 72
    16
 73
    12
 74
     0
 42
0.00000001
 43
0.00000001
 40
0.0
 40
0.0
 40
0.0
 40
0.0
 40
0.0069683241345898
 40
0.1183279149244993
 40
0.2321018937180224
 40
0.3467107211471399
 40
0.4574461803143571
 40
0.5689542134473081
 40
0.6829067056248387
 40
0.7977089501130534
 40
1.0
 40
1.0
 40
1.0
 40
1.0
 10
117.4153432362498
 20
89.12337851868995
 30
0.0
 10
117.4155928739284
 20
89.12336275387074
 30
0.0
 10
117.419831928459
 20
89.12309505418435
 30
0.0
 10
117.4039111133843
 20
89.12409184996034
 30
0.0
 10
117.3648951073396
 20
89.12660901413993
 30
0.0
 10
117.2964511229698
 20
89.1313038903047
 30
0.0
 10
117.2036676312166
 20
89.13826377840967
 30
0.0
 10
117.0864950191244
 20
89.14795558120531
 30
0.0
 10
116.9432029107787
 20
89.16134682510167
 30
0.0
 10
116.7341381301841
 20
89.18287380994502
 30
0.0
 10
116.5430223532
 20
89.20778973536477
 30
0.0
 10
116.4210992098795
 20
89.2236849586365
 30
0.0
  0
SPLINE
  5
D2
330
1F
100
AcDbEntity
  8
0
  6
HIDDEN
 62
     7
370
     0
100
AcDbSpline
210
0.0
220
0.0
230
1.0
 70
     8
 71
     3
 72
    32
 73
    28
 74
     0
 42
0.00000001
 43
0.00000001
 40
0.0
 40
0.0
 40
0.0
 40
0.0
 40
0.0346239305784003
 40
0.0694856633630166
 40
0.1050986804323536
 40
0.1409725967297708
 40
0.1755970960170308
 40
0.2104650744677736
 40
0.2461074135539813
 40
0.2820202239560262
 40
0.3509369157952861
 40
0.3859282994925113
 40
0.4214399215599407
 40
0.489717036405698
 40
0.5243644040068604
 40
0.5595048416018171
 40
0.6284941694825993
 40
0.6634978652371093
 40
0.6989967201838478
 40
0.7337528558990941
 40
0.7687504662678829
 40
0.804513685769049
 40
0.8405437629960127
 40
0.910216981903595
 40
0.9455973632566557
 40
0.9815114656514446
 40
1.0
 40
1.0
 40
1.0
 40
1.0
 10
116.4210992098795
 20
89.2236849586365
 30
0.0
 10
116.3491009051121
 20
89.23347290137524
 30
0.0
 10
116.204609800717
 20
89.25311601187128
 30
0.0
 10
115.9632899109727
 20
89.28256523307766
 30
0.0
 10
115.7039914866412
 20
89.311115605103
 30
0.0
 10
115.4300047150741
 20
89.33754686165784
 30
0.0
 10
115.1453745896409
 20
89.36099920288399
 30
0.0
 10
114.8507984379859
 20
89.38099717072765
 30
0.0
 10
114.543833807277
 20
89.39715089122285
 30
0.0
 10
114.1300915392823
 20
89.41235292211209
 30
0.0
 10
113.709231726046
 20
89.41780869158633
 30
0.0
 10
113.2912509528458
 20
89.41318942754218
 30
0.0
 10
112.8787977638882
 20
89.40201571364136
 30
0.0
 10
112.4764750914584
 20
89.3815810174402
 30
0.0
 10
112.0939040138757
 20
89.3537908189375
 30
0.0
 10
111.7241314197092
 20
89.3216296406725
 30
0.0
 10
111.3787631946125
 20
89.28432220315787
 30
0.0
 10
111.0660255144129
 20
89.24503692000496
 30
0.0
 10
110.8482974024996
 20
89.21522239782756
 30
0.0
 10
110.6504076385612
 20
89.18608878205099
 30
0.0
 10
110.4730824933224
 20
89.15835523634063
 30
0.0
 10
110.3164408888671
 20
89.13256968732546
 30
0.0
 10
110.1415869413588
 20
89.10254023808392
 30
0.0
 10
110.0149410784981
 20
89.07957746652616
 30
0.0
 10
109.9453238904151
 20
89.06668838820704
 30
0.0
 10
109.9134246801708
 20
89.06071509148548
 30
0.0
 10
109.922899638118
 20
89.06248582212332
 30
0.0
 10
109.9261196674391
 20
89.06308759836395
 30
0.0
  0
SPLINE
  5
D3
330
1F
100
AcDbEntity
  8
0
  6
HIDDEN
 62
     7
370
     0
100
AcDbSpline
210
0.0
220
0.0
230
1.0
 70
     8
 71
     3
 72
    30
 73
    26
 74
     0
 42
0.00000001
 43
0.00000001
 40
0.0
 40
0.0
 40
0.0
 40
0.0
 40
0.0501295436075413
 40
0.0849645869476773
 40
0.120310272050844
 40
0.1887226296272166
 40
0.2234350577734725
 40
0.2586381408933402
 40
0.327989180089662
 40
0.3631798593913006
 40
0.3988730116878407
 40
0.4336686238483539
 40
0.4687082007069248
 40
0.5045231139898276
 40
0.5406088812122951
 40
0.6099754147819895
 40
0.6451997353264738
 40
0.6809540137111606
 40
0.7493278060998901
 40
0.7840312587819452
 40
0.8192361094257294
 40
0.8878451716853011
 40
0.922654863951113
 40
0.957954632762727
 40
1.0
 40
1.0
 40
1.0
 40
1.0
 10
109.9261196674391
 20
129.059339270542
 30
0.0
 10
109.9268636387547
 20
129.0591939278673
 30
0.0
 10
109.9281245960861
 20
129.0589475864999
 30
0.0
 10
109.9906734718719
 20
129.0473290404063
 30
0.0
 10
110.0908845229069
 20
129.0290502354032
 30
0.0
 10
110.242478125906
 20
129.0022343206799
 30
0.0
 10
110.4389162287587
 20
128.969600866677
 30
0.0
 10
110.6665505963109
 20
128.9335701069311
 30
0.0
 10
110.9378806076553
 20
128.8940767166151
 30
0.0
 10
111.2466848637195
 20
128.8544366005619
 30
0.0
 10
111.4967755276909
 20
128.8253595836497
 30
0.0
 10
111.7619562134896
 20
128.7979598430991
 30
0.0
 10
112.0410102895334
 20
128.7729139723042
 30
0.0
 10
112.3354941810113
 20
128.7507475160788
 30
0.0
 10
112.7375808583523
 20
128.7266200373438
 30
0.0
 10
113.1538286601286
 20
128.7112430301139
 30
0.0
 10
113.5742753809762
 20
128.7058562927444
 30
0.0
 10
113.9926765776383
 20
128.7072866796177
 30
0.0
 10
114.4069846140807
 20
128.718679996885
 30
0.0
 10
114.8070336514398
 20
128.7388532109719
 30
0.0
 10
115.1969179206144
 20
128.7644191550454
 30
0.0
 10
115.5677406798243
 20
128.7969905894255
 30
0.0
 10
115.9100462446386
 20
128.8337397845489
 30
0.0
 10
116.171586401532
 20
128.8649622896246
 30
0.0
 10
116.333229091498
 20
128.8868458505657
 30
0.0
 10
116.4210992098795
 20
128.8987419102694
 30
0.0
  0
LINE
  5
D4
330
1F
100
AcDbEntity
  8
0
  6
HIDDEN
 62
     7
370
     0
100
AcDbLine
 10
103.6700718045
 20
92.0612134345
 30
0.0
 11
103.6700718045
 21
126.0612134345
 31
0.0
  0
LWPOLYLINE
  5
D5
330
1F
100
AcDbEntity
  8
0
  6
HIDDEN
 62
     7
370
     0
100
AcDbPolyline
 90
       28
 70
   128
 43
0.0
 10
133.0518716247
 20
134.6121258218
 10
133.4264132542
 20
134.4542839253
 10
133.9244010165
 20
134.1669296682
 10
134.3046251897
 20
133.8376458751
 10
134.5533434816
 20
133.4783337201
 10
134.661566565
 20
133.1019796807
 10
134.6253829758
 20
132.7221861725
 10
134.4461004831
 20
132.3526799225
 10
134.1301988234
 20
132.0068158491
 10
133.6890955057
 20
131.6970943812
 10
133.1387331532
 20
131.4347096596
 10
132.4990032952
 20
131.2291449518
 10
131.7930274356
 20
131.0878299019
 10
131.0463213815
 20
131.0158720039
 10
130.2858730351
 20
131.0158720039
 10
129.5391669809
 20
131.0878299019
 10
128.8331911214
 20
131.2291449518
 10
128.1934612634
 20
131.4347096596
 10
127.6430989109
 20
131.6970943812
 10
127.2019955931
 20
132.0068158491
 10
126.8860939334
 20
132.3526799225
 10
126.7068114408
 20
132.7221861725
 10
126.6706278515
 20
133.1019796807
 10
126.778850935
 20
133.4783337201
 10
127.0275692269
 20
133.8376458751
 10
127.4077934001
 20
134.1669296682
 10
127.9057811623
 20
134.4542839253
 10
128.2672987923
 20
134.6072662669
  0
SPLINE
  5
D6
330
1F
100
AcDbEntity
  8
0
  6
HIDDEN
 62
     7
370
     0
100
AcDbSpline
210
0.0
220
0.0
230
1.0
 70
     8
 71
     3
 72
    11
 73
     7
 74
     0
 42
0.00000001
 43
0.00000001
 40
0.0
 40
0.0
 40
0.0
 40
0.0
 40
0.0005779865010845
 40
0.0005779865010845
 40
0.0005779865010845
 40
0.0011559733324421
 40
0.0011559733324421
 40
0.0011559733324421
 40
0.0011559733324421
 10
90.76609720827788
 20
111.0610540426068
 30
0.0
 10
90.93276446308384
 20
111.0590704032658
 30
0.0
 10
91.09943089276152
 20
111.0570327962632
 30
0.0
 10
91.26609723121334
 20
111.0549213328568
 30
0.0
 10
91.43276366003973
 20
111.0528098683054
 30
0.0
 10
91.59943003367744
 20
111.0506243051491
 30
0.0
 10
91.76609720827787
 20
111.0483417278175
 30
0.0
  0
SPLINE
  5
D7
330
1F
100
AcDbEntity
  8
0
  6
HIDDEN
 62
     7
370
     0
100
AcDbSpline
210
0.0
220
0.0
230
1.0
 70
     8
 71
     3
 72
     8
 73
     4
 74
     0
 42
0.00000001
 43
0.00000001
 40
0.0
 40
0.0
 40
0.0
 40
0.0
 40
0.0011564765856722
 40
0.0011564765856722
 40
0.0011564765856722
 40
0.0011564765856722
 10
91.76609720827786
 20
107.0645131322367
 30
0.0
 10
91.43278927770902
 20
107.0636379766534
 30
0.0
 10
91.09945404531683
 20
107.0625831254019
 30
0.0
 10
90.76609720827787
 20
107.0614120383644
 30
0.0
  0
LINE
  5
D8
330
1F
100
AcDbEntity
  8
0
  6
HIDDEN
 62
     7
370
     0
100
AcDbLine
 10
130.3259231768
 20
92.0612134345
 30
0.0
 11
130.3259231768
 21
126.0612134345
 31
0.0
  0
LINE
  5
D9
330
1F
100
AcDbEntity
  8
0
  6
HIDDEN
 62
     7
370
     0
100
AcDbLine
 10
132.6160972083
 20
93.3362134345
 30
0.0
 11
132.6160972083
 21
124.7862134333
 31
0.0
  0
SPLINE
  5
DA
330
1F
100
AcDbEntity
  8
0
  6
HIDDEN
 62
     7
370
     0
100
AcDbSpline
210
0.0
220
0.0
230
1.0
 70
     8
 71
     3
 72
    16
 73
    12
 74
     0
 42
0.00000001
 43
0.00000001
 40
0.0
 40
0.0
 40
0.0
 40
0.0
 40
0.124999999999998
 40
0.124999999999998
 40
0.249999999999996
 40
0.249999999999996
 40
0.4999999999999973
 40
0.4999999999999973
 40
0.7499999999999987
 40
0.7499999999999987
 40
1.0
 40
1.0
 40
1.0
 40
1.0
 10
99.46609720827787
 20
93.25972299842131
 30
0.0
 10
99.5612189629437
 20
93.25972299842131
 30
0.0
 10
99.65454903167178
 20
93.2559071650285
 30
0.0
 10
99.83781079240977
 20
93.24113661229869
 30
0.0
 10
99.92868850796678
 20
93.2299785643231
 30
0.0
 10
100.1854902054865
 20
93.18750729418139
 30
0.0
 10
100.3405575703585
 20
93.1464610969786
 30
0.0
 10
100.5943040319131
 20
93.05131498039671
 30
0.0
 10
100.695174483581
 20
92.99655224631512
 30
0.0
 10
100.8304208982758
 20
92.88529112241126
 30
0.0
 10
100.8660972082779
 20
92.82812138508257
 30
0.0
 10
100.8660972082779
 20
92.77369981204883
 30
0.0
  0
LINE
  5
DB
330
1F
100
AcDbEntity
  8
0
  6
HIDDEN
 62
     7
370
     0
100
AcDbLine
 10
91.9160972083
 20
93.2597229984
 30
0.0
 11
91.9971282216
 21
93.2597229984
 31
0.0
  0
LINE
  5
DC
330
1F
100
AcDbEntity
  8
0
  6
HIDDEN
 62
     7
370
     0
100
AcDbLine
 10
91.7660972083
 20
93.3200698928
 30
0.0
 11
91.9160972083
 21
93.2597229984
 31
0.0
  0
LINE
  5
DD
330
1F
100
AcDbEntity
  8
0
  6
HIDDEN
 62
     7
370
     0
100
AcDbLine
 10
91.7660972083
 20
94.5918600529
 30
0.0
 11
91.7660972083
 21
93.3200698928
 31
0.0
  0
SPLINE
  5
DE
330
1F
100
AcDbEntity
  8
0
  6
HIDDEN
 62
     7
370
     0
100
AcDbSpline
210
0.0
220
0.0
230
1.0
 70
     8
 71
     3
 72
     8
 73
     4
 74
     0
 42
0.00000001
 43
0.00000001
 40
0.0
 40
0.0
 40
0.0
 40
0.0
 40
1.0
 40
1.0
 40
1.0
 40
1.0
 10
92.06609721167169
 20
95.50732069457113
 30
0.0
 10
92.0660972116718
 20
95.16971149861138
 30
0.0
 10
91.95464559049779
 20
94.86712988261115
 30
0.0
 10
91.76609720827786
 20
94.59186005293549
 30
0.0
  0
LINE
  5
DF
330
1F
100
AcDbEntity
  8
0
  6
HIDDEN
 62
     7
370
     0
100
AcDbLine
 10
92.0660972117
 20
112.665847056
 30
0.0
 11
92.0660972117
 21
95.5073206946
 31
0.0
  0
SPLINE
  5
E0
330
1F
100
AcDbEntity
  8
0
  6
HIDDEN
 62
     7
370
     0
100
AcDbSpline
210
0.0
220
0.0
230
1.0
 70
     8
 71
     3
 72
    10
 73
     6
 74
     0
 42
0.00000001
 43
0.00000001
 40
0.0
 40
0.0
 40
0.0
 40
0.0
 40
0.5
 40
0.5
 40
1.0
 40
1.0
 40
1.0
 40
1.0
 10
91.76609720827787
 20
123.5308890687009
 30
0.0
 10
91.8579881377308
 20
123.3929749917218
 30
0.0
 10
91.93381536704187
 20
123.2484884528409
 30
0.0
 10
92.03823647075886
 20
122.9440285670405
 30
0.0
 10
92.06609721167193
 20
122.7839705604972
 30
0.0
 10
92.06609721167169
 20
122.6151061743338
 30
0.0
  0
LINE
  5
E1
330
1F
100
AcDbEntity
  8
0
  6
HIDDEN
 62
     7
370
     0
100
AcDbLine
 10
91.7660972083
 20
124.8023569761
 30
0.0
 11
91.7660972083
 21
123.5308890687
 31
0.0
  0
LINE
  5
E2
330
1F
100
AcDbEntity
  8
0
  6
HIDDEN
 62
     7
370
     0
100
AcDbLine
 10
91.9160972083
 20
124.8627038705
 30
0.0
 11
91.7660972083
 21
124.8023569761
 31
0.0
  0
LINE
  5
E3
330
1F
100
AcDbEntity
  8
0
  6
HIDDEN
 62
     7
370
     0
100
AcDbLine
 10
92.0660972117
 20
124.8627038705
 30
0.0
 11
91.9160972083
 21
124.8627038705
 31
0.0
  0
SPLINE
  5
E4
330
1F
100
AcDbEntity
  8
0
  6
HIDDEN
 62
     7
370
     0
100
AcDbSpline
210
0.0
220
0.0
230
1.0
 70
     8
 71
     3
 72
    18
 73
    14
 74
     0
 42
0.00000001
 43
0.00000001
 40
0.0
 40
0.0
 40
0.0
 40
0.0
 40
0.2500000000000033
 40
0.2500000000000033
 40
0.3750000000000029
 40
0.3750000000000029
 40
0.5000000000000026
 40
0.5000000000000026
 40
0.6250000000000022
 40
0.6250000000000022
 40
0.7500000000000018
 40
0.7500000000000018
 40
1.0
 40
1.0
 40
1.0
 40
1.0
 10
96.86609720827788
 20
125.3487270568571
 30
0.0
 10
96.86609720827786
 20
125.2942525363049
 30
0.0
 10
96.83118651688568
 20
125.2378714769524
 30
0.0
 10
96.72917721555264
 20
125.1537946360989
 30
0.0
 10
96.68754086087452
 20
125.126460932108
 30
0.0
 10
96.58913506538579
 20
125.073507016509
 30
0.0
 10
96.53159185368152
 20
125.0476196627919
 30
0.0
 10
96.40429368010855
 20
124.9998421179586
 30
0.0
 10
96.33470637535109
 20
124.9778941997807
 30
0.0
 10
96.18327213019613
 20
124.938461634868
 30
0.0
 10
96.10058822710218
 20
124.9209053856421
 30
0.0
 10
95.84447676506413
 20
124.8784666202216
 30
0.0
 10
95.65656176117615
 20
124.8627038704846
 30
0.0
 10
95.46609720827787
 20
124.8627038704846
 30
0.0
  0
LINE
  5
E5
330
1F
100
AcDbEntity
  8
0
  6
HIDDEN
 62
     7
370
     0
100
AcDbLine
 10
95.4660972083
 20
124.8627038705
 30
0.0
 11
92.0660972117
 21
124.8627038705
 31
0.0
  0
LINE
  5
E6
330
1F
100
AcDbEntity
  8
0
  6
HIDDEN
 62
     7
370
     0
100
AcDbLine
 10
91.9971282216
 20
93.2597229984
 30
0.0
 11
99.4660972083
 21
93.2597229984
 31
0.0
  0
SPLINE
  5
E7
330
1F
100
AcDbEntity
  8
0
  6
HIDDEN
 62
     7
370
     0
100
AcDbSpline
210
0.0
220
0.0
230
1.0
 70
     8
 71
     3
 72
    22
 73
    18
 74
     0
 42
0.00000001
 43
0.00000001
 40
0.0
 40
0.0
 40
0.0
 40
0.0
 40
0.1249999999999998
 40
0.1249999999999998
 40
0.2499999999999995
 40
0.2499999999999995
 40
0.4999999999999992
 40
0.4999999999999992
 40
0.5624999999999993
 40
0.5624999999999993
 40
0.6249999999999994
 40
0.6249999999999994
 40
0.7499999999999996
 40
0.7499999999999996
 40
0.8749999999999998
 40
0.8749999999999998
 40
1.0
 40
1.0
 40
1.0
 40
1.0
 10
91.99712822163579
 20
93.25972299842131
 30
0.0
 10
91.98404582890743
 20
93.51482870856897
 30
0.0
 10
91.9708262654676
 20
93.80798696767289
 30
0.0
 10
91.94837908767347
 20
94.47028743329768
 30
0.0
 10
91.93890062064901
 20
94.84056135390907
 30
0.0
 10
91.91970265971244
 20
96.06311815702287
 30
0.0
 10
91.92081643270934
 20
97.00025708315472
 30
0.0
 10
91.93972722566242
 20
98.32012831266971
 30
0.0
 10
91.94435675352142
 20
98.59163022164603
 30
0.0
 10
91.95483797326739
 20
99.15001505644834
 30
0.0
 10
91.96063323455179
 20
99.43713791238794
 30
0.0
 10
91.97894245545673
 20
100.3097271667596
 30
0.0
 10
91.99297738973709
 20
100.9101828431155
 30
0.0
 10
92.02243456187391
 20
102.1476573356116
 30
0.0
 10
92.0379902528555
 20
102.784673492255
 30
0.0
 10
92.06178480285237
 20
104.0961620899396
 30
0.0
 10
92.06980385499774
 20
104.7722847016001
 30
0.0
 10
92.06609720827787
 20
105.4565798128849
 30
0.0
  0
LINE
  5
E8
330
1F
100
AcDbEntity
  8
0
  6
HIDDEN
 62
     7
370
     0
100
AcDbLine
 10
92.0660972117
 20
112.665847056
 30
0.0
 11
92.0660972117
 21
124.8627038705
 31
0.0
  0
SPLINE
  5
E9
330
1F
100
AcDbEntity
  8
0
  6
HIDDEN
 62
     7
370
     0
100
AcDbSpline
210
0.0
220
0.0
230
1.0
 70
     8
 71
     3
 72
    10
 73
     6
 74
     0
 42
0.00000001
 43
0.00000001
 40
0.0
 40
0.0
 40
0.0
 40
0.0
 40
0.5
 40
0.5
 40
1.0
 40
1.0
 40
1.0
 40
1.0
 10
92.06609720827787
 20
105.4565798128698
 30
0.0
 10
92.06609720827768
 20
105.7304949609442
 30
0.0
 10
92.04033797840998
 20
106.0014365396742
 30
0.0
 10
91.93713204567686
 20
106.5371276212771
 30
0.0
 10
91.85979388180162
 20
106.8028744247991
 30
0.0
 10
91.76609720827786
 20
107.0645131322367
 30
0.0
  0
SPLINE
  5
EA
330
1F
100
AcDbEntity
  8
0
  6
HIDDEN
 62
     7
370
     0
100
AcDbSpline
210
0.0
220
0.0
230
1.0
 70
     8
 71
     3
 72
    10
 73
     6
 74
     0
 42
0.00000001
 43
0.00000001
 40
0.0
 40
0.0
 40
0.0
 40
0.0
 40
0.5
 40
0.5
 40
1.0
 40
1.0
 40
1.0
 40
1.0
 10
91.76609720827786
 20
111.0483417278175
 30
0.0
 10
91.85932778966888
 20
111.3122355358876
 30
0.0
 10
91.93435740190563
 20
111.5784158465259
 30
0.0
 10
92.03942450108377
 20
112.116738421484
 30
0.0
 10
92.06609721166996
 20
112.3894865377296
 30
0.0
 10
92.06609721167113
 20
112.6658470560201
 30
0.0
  0
LINE
  5
EB
330
1F
100
AcDbEntity
  8
0
  6
HIDDEN
 62
     7
370
     0
100
AcDbLine
 10
91.7660972083
 20
107.0645131322
 30
0.0
 11
91.7660972083
 21
111.0483417278
 31
0.0
  0
LINE
  5
EC
330
1F
100
AcDbEntity
  8
0
  6
HIDDEN
 62
     7
370
     0
100
AcDbLine
 10
91.9160972083
 20
91.0712134345
 30
0.0
 11
91.9160972083
 21
88.1912756691
 31
0.0
  0
LINE
  5
ED
330
1F
100
AcDbEntity
  8
0
  6
HIDDEN
 62
     7
370
     0
100
AcDbLine
 10
100.8660972083
 20
91.0712134345
 30
0.0
 11
100.8660972083
 21
87.0974759033
 31
0.0
  0
LINE
  5
EE
330
1F
100
AcDbEntity
  8
0
  6
HIDDEN
 62
     7
370
     0
100
AcDbLine
 10
91.9160972083
 20
127.0512134345
 30
0.0
 11
91.9160972083
 21
129.9311511998
 31
0.0
  0
LINE
  5
EF
330
1F
100
AcDbEntity
  8
0
  6
HIDDEN
 62
     7
370
     0
100
AcDbLine
 10
96.8660972083
 20
127.0512134345
 30
0.0
 11
96.8660972083
 21
130.9053211068
 31
0.0
  0
LINE
  5
F0
330
1F
100
AcDbEntity
  8
0
  6
HIDDEN
 62
     7
370
     0
100
AcDbLine
 10
141.4660972083
 20
99.5612134345
 30
0.0
 11
141.4660972083
 21
118.5612134345
 31
0.0
  0
LINE
  5
F1
330
1F
100
AcDbEntity
  8
0
  6
HIDDEN
 62
     7
370
     0
100
AcDbLine
 10
144.4660972083
 20
99.5612134345
 30
0.0
 11
144.4660972083
 21
118.5612134345
 31
0.0
  0
LINE
  5
F2
330
1F
100
AcDbEntity
  8
0
  6
HIDDEN
 62
     7
370
     0
100
AcDbLine
 10
133.1160972083
 20
100.5612134345
 30
0.0
 11
133.1160972083
 21
117.5612134345
 31
0.0
  0
LINE
  5
F3
330
1F
100
AcDbEntity
  8
0
  6
HIDDEN
 62
     7
370
     0
100
AcDbLine
 10
127.6160972083
 20
77.5770904516
 30
0.0
 11
127.6160972083
 21
82.6612134345
 31
0.0
  0
LINE
  5
F4
330
1F
100
AcDbEntity
  8
0
  6
HIDDEN
 62
     7
370
     0
100
AcDbLine
 10
135.6160972083
 20
82.6612134345
 30
0.0
 11
127.6160972083
 21
82.6612134345
 31
0.0
  0
LINE
  5
F5
330
1F
100
AcDbEntity
  8
0
  6
HIDDEN
 62
     7
370
     0
100
AcDbLine
 10
138.8537720106
 20
82.6612134345
 30
0.0
 11
135.6160972083
 21
82.6612134345
 31
0.0
  0
LINE
  5
F6
330
1F
100
AcDbEntity
  8
0
  6
HIDDEN
 62
     7
370
     0
100
AcDbLine
 10
148.6160972083
 20
82.6612134345
 30
0.0
 11
142.4784224059
 21
82.6612134345
 31
0.0
  0
LINE
  5
F7
330
1F
100
AcDbEntity
  8
0
  6
HIDDEN
 62
     7
370
     0
100
AcDbLine
 10
148.6160972083
 20
135.4612134345
 30
0.0
 11
142.1817996766
 21
135.4612134345
 31
0.0
  0
LINE
  5
F8
330
1F
100
AcDbEntity
  8
0
  6
HIDDEN
 62
     7
370
     0
100
AcDbLine
 10
135.6160972083
 20
135.4612134345
 30
0.0
 11
127.6160972083
 21
135.4612134345
 31
0.0
  0
LINE
  5
F9
330
1F
100
AcDbEntity
  8
0
  6
HIDDEN
 62
     7
370
     0
100
AcDbLine
 10
139.15039474
 20
135.4612134345
 30
0.0
 11
135.6160972083
 21
135.4612134345
 31
0.0
  0
SPLINE
  5
FA
330
1F
100
AcDbEntity
  8
0
  6
HIDDEN
 62
     7
370
     0
100
AcDbSpline
210
0.0
220
0.0
230
1.0
 70
     8
 71
     3
 72
    11
 73
     7
 74
     0
 42
0.00000001
 43
0.00000001
 40
0.0
 40
0.0
 40
0.0
 40
0.0
 40
0.0008203708524183
 40
0.0008203708524183
 40
0.0008203708524183
 40
0.0016409967870154
 40
0.0016409967870154
 40
0.0016409967870154
 40
0.0016409967870154
 10
91.91609720827788
 20
93.20918068381023
 30
0.0
 10
91.72493890797921
 20
93.16800165519109
 30
0.0
 10
91.53351183790703
 20
93.12924768296111
 30
0.0
 10
91.3418662143864
 20
93.09287992368255
 30
0.0
 10
91.15016080930594
 20
93.05650081991652
 30
0.0
 10
90.95822185724698
 20
93.02250656914897
 30
0.0
 10
90.76609721017617
 20
92.99085844375776
 30
0.0
  0
ELLIPSE
  5
FB
330
1F
100
AcDbEntity
  8
0
  6
HIDDEN
 62
     7
370
     0
100
AcDbEllipse
 10
86.5236653397
 20
109.0612134345
 30
0.0
 11
20.19992453366628
 21
-1.421085471520200E-14
 31
0.0
210
0.0
220
0.0
230
1.0
 40
0.8164965809
 41
1.300566354718001
 42
1.359198697209605
  0
LINE
  5
FC
330
1F
100
AcDbEntity
  8
0
  6
HIDDEN
 62
     7
370
     0
100
AcDbLine
 10
91.9160972083
 20
91.0712134345
 30
0.0
 11
91.9160972083
 21
93.2091806838
 31
0.0
  0
LINE
  5
FD
330
1F
100
AcDbEntity
  8
0
  6
HIDDEN
 62
     7
370
     0
100
AcDbLine
 10
91.9971282216
 20
93.2597229984
 30
0.0
 11
91.9160972083
 21
93.2091806838
 31
0.0
  0
LINE
  5
FE
330
1F
100
AcDbEntity
  8
0
  6
HIDDEN
 62
     7
370
     0
100
AcDbLine
 10
100.8660972083
 20
91.0712134345
 30
0.0
 11
100.8660972083
 21
92.773699812
 31
0.0
  0
LINE
  5
FF
330
1F
100
AcDbEntity
  8
0
  6
HIDDEN
 62
     7
370
     0
100
AcDbLine
 10
91.9160972083
 20
127.0512134345
 30
0.0
 11
91.9160972083
 21
124.9558378855
 31
0.0
  0
SPLINE
  5
100
330
1F
100
AcDbEntity
  8
0
  6
HIDDEN
 62
     7
370
     0
100
AcDbSpline
210
0.0
220
0.0
230
1.0
 70
     8
 71
     3
 72
     8
 73
     4
 74
     0
 42
0.00000001
 43
0.00000001
 40
0.0
 40
0.0
 40
0.0
 40
0.0
 40
1.0
 40
1.0
 40
1.0
 40
1.0
 10
91.91609720827788
 20
124.9558378855116
 30
0.0
 10
91.96610270722161
 20
124.9248021112925
 30
0.0
 10
92.01610277788602
 20
124.8937574662649
 30
0.0
 10
92.06609721167113
 20
124.8627038704846
 30
0.0
  0
LINE
  5
101
330
1F
100
AcDbEntity
  8
0
  6
HIDDEN
 62
     7
370
     0
100
AcDbLine
 10
96.8660972083
 20
127.0512134345
 30
0.0
 11
96.8660972083
 21
125.3487270569
 31
0.0
  0
LINE
  5
102
330
1F
100
AcDbEntity
  8
0
  6
HIDDEN
 62
     7
370
     0
100
AcDbLine
 10
199.1660972083
 20
105.0612134345
 30
0.0
 11
199.1660972083
 21
113.0612134345
 31
0.0
  0
SPLINE
  5
103
330
1F
100
AcDbEntity
  8
0
  6
HIDDEN
 62
     7
370
     0
100
AcDbSpline
210
0.0
220
0.0
230
1.0
 70
     8
 71
     3
 72
    20
 73
    16
 74
     0
 42
0.00000001
 43
0.00000001
 40
0.0
 40
0.0
 40
0.0
 40
0.0
 40
0.1118532753367727
 40
0.1773727969001436
 40
0.2489947124776664
 40
0.3297435623025036
 40
0.3985163041505095
 40
0.4997965445410392
 40
0.6137622343533015
 40
0.6789284883141681
 40
0.7494553429231908
 40
0.8296017033995806
 40
0.8980457170458405
 40
0.9994566317807579
 40
1.0
 40
1.0
 40
1.0
 40
1.0
 10
117.4147125249057
 20
85.4612797847158
 30
0.0
 10
117.3714204503157
 20
85.47469819854447
 30
0.0
 10
117.3027694758089
 20
85.49597662408534
 30
0.0
 10
116.8577520639909
 20
85.59924915146419
 30
0.0
 10
116.3312023620311
 20
85.71255057446992
 30
0.0
 10
115.6457747878172
 20
85.83548398103031
 30
0.0
 10
114.7524580450573
 20
85.957518297674
 30
0.0
 10
113.6390984729212
 20
86.07525467090574
 30
0.0
 10
112.5283242166722
 20
86.08723010943281
 30
0.0
 10
111.6435765008986
 20
86.06017193532303
 30
0.0
 10
110.9763777337937
 20
86.01223945784612
 30
0.0
 10
110.4351141411625
 20
85.95594763507404
 30
0.0
 10
110.0475003143802
 20
85.9108583030933
 30
0.0
 10
109.8535924433006
 20
85.87198962951896
 30
0.0
 10
109.916785507119
 20
85.8827119343215
 30
0.0
 10
109.9171222963304
 20
85.8827690791466
 30
0.0
  0
LINE
  5
104
330
1F
100
AcDbEntity
  8
0
  6
HIDDEN
 62
     7
370
     0
100
AcDbLine
 10
110.8261091206
 20
85.9935515779
 30
0.0
 11
111.0099544338
 21
86.0117409204
 31
0.0
  0
SPLINE
  5
105
330
1F
100
AcDbEntity
  8
0
  6
HIDDEN
 62
     7
370
     0
100
AcDbSpline
210
0.0
220
0.0
230
1.0
 70
     8
 71
     3
 72
    27
 73
    23
 74
     0
 42
0.00000001
 43
0.00000001
 40
0.0
 40
0.0
 40
0.0
 40
0.0
 40
0.0008086698272164
 40
0.0456911818206492
 40
0.1022728481609739
 40
0.170550939236766
 40
0.2091426118792428
 40
0.2506698514601189
 40
0.3211156297110305
 40
0.3862093649620112
 40
0.4266885152941663
 40
0.4648197686822756
 40
0.5006240859091298
 40
0.5452158508125173
 40
0.6017101077175113
 40
0.670116083417031
 40
0.7088534140408783
 40
0.7505821601356528
 40
0.8222467465127807
 40
0.8877861721259266
 40
0.9472599280119505
 40
0.9999999999999999
 40
0.9999999999999999
 40
0.9999999999999999
 40
0.9999999999999999
 10
109.9167657453971
 20
132.2396275646634
 30
0.0
 10
109.9165433759364
 20
132.2396755000149
 30
0.0
 10
109.9039791338706
 20
132.2423839266073
 30
0.0
 10
109.9530557729596
 20
132.230551896203
 30
0.0
 10
110.0981602907128
 20
132.2071076879388
 30
0.0
 10
110.3712124478594
 20
132.17320354259
 30
0.0
 10
110.6997389302383
 20
132.1396347448132
 30
0.0
 10
111.0924666944816
 20
132.1014514065767
 30
0.0
 10
111.6421946701293
 20
132.0624827338925
 30
0.0
 10
112.2682173152277
 20
132.0430216295316
 30
0.0
 10
112.8114088256703
 20
132.0408359516897
 30
0.0
 10
113.2564777225065
 20
132.0493508328701
 30
0.0
 10
113.7229255189651
 20
132.0691342297958
 30
0.0
 10
114.2601661681011
 20
132.1132966153105
 30
0.0
 10
114.9083795988897
 20
132.1857122353273
 30
0.0
 10
115.4939182288798
 20
132.2666143284948
 30
0.0
 10
115.9748878433513
 20
132.3447803169876
 30
0.0
 10
116.4203027403729
 20
132.4295524559318
 30
0.0
 10
116.8588024597894
 20
132.523335498864
 30
0.0
 10
117.1978277166485
 20
132.6012392627759
 30
0.0
 10
117.3851686520241
 20
132.6514309001262
 30
0.0
 10
117.4056584341867
 20
132.6580973395463
 30
0.0
 10
117.4152885538141
 20
132.6612305406996
 30
0.0
  0
LINE
  5
106
330
1F
100
AcDbEntity
  8
0
  6
HIDDEN
 62
     7
370
     0
100
AcDbLine
 10
166.1660972083
 20
105.1612134345
 30
0.0
 11
166.1660972083
 21
112.9612130404
 31
0.0
  0
LINE
  5
107
330
1F
100
AcDbEntity
  8
0
  6
HIDDEN
 62
     7
370
     0
100
AcDbLine
 10
176.6660972083
 20
105.0612134345
 30
0.0
 11
176.6660972083
 21
113.0612134345
 31
0.0
  0
LINE
  5
108
330
1F
100
AcDbEntity
  8
0
  6
HIDDEN
 62
     7
370
     0
100
AcDbLine
 10
150.7660972083
 20
104.8612134345
 30
0.0
 11
150.7660972083
 21
113.2612134345
 31
0.0
  0
LINE
  5
109
330
1F
100
AcDbEntity
  8
0
  6
HIDDEN
 62
     7
370
     0
100
AcDbLine
 10
151.7875602606
 20
106.5612134345
 30
0.0
 11
151.7875602606
 21
111.5612134345
 31
0.0
  0
ELLIPSE
  5
10A
330
1F
100
AcDbEntity
  8
0
  6
HIDDEN
 62
     7
370
     0
100
AcDbEllipse
 10
86.6736653439
 20
109.0612134345
 30
0.0
 11
19.94011690770319
 21
-1.421085471520200E-14
 31
0.0
210
0.0
220
0.0
230
1.0
 40
0.8164965809
 41
1.312549137476568
 42
1.364091388456586
  0
LINE
  5
10B
330
1F
100
AcDbEntity
  8
0
  6
HIDDEN
 62
     7
370
     0
100
AcDbLine
 10
91.9160972083
 20
124.9558378855
 30
0.0
 11
91.9160972083
 21
124.8627038705
 31
0.0
  0
LINE
  5
10C
330
1F
100
AcDbEntity
  8
0
  6
HIDDEN
 62
     7
370
     0
100
AcDbLine
 10
91.9160972083
 20
93.2091806838
 30
0.0
 11
91.9160972083
 21
93.2597229984
 31
0.0
  0
ELLIPSE
  5
10D
330
1F
100
AcDbEntity
  8
0
  6
HIDDEN
 62
     7
370
     0
100
AcDbEllipse
 10
86.6736653439
 20
109.0612134345
 30
0.0
 11
19.9401169077032
 21
-1.421085471520200E-14
 31
0.0
210
0.0
220
0.0
230
1.0
 40
0.8164965809
 41
4.919093918723012
 42
4.970636169703031
  0
SPLINE
  5
10E
330
1F
100
AcDbEntity
  8
0
  6
HIDDEN
 62
     7
370
     0
100
AcDbSpline
210
0.0
220
0.0
230
1.0
 70
     8
 71
     3
 72
    11
 73
     7
 74
     0
 42
0.00000001
 43
0.00000001
 40
0.0
 40
0.0
 40
0.0
 40
0.0
 40
0.00057812925479
 40
0.00057812925479
 40
0.00057812925479
 40
0.0011562593522365
 40
0.0011562593522365
 40
0.0011562593522365
 40
0.0011562593522365
 10
91.76609720827786
 20
94.59186005293549
 30
0.0
 10
91.59944904433736
 20
94.50450704690671
 30
0.0
 10
91.43279123743079
 20
94.41721887027005
 30
0.0
 10
91.26612448861093
 20
94.32999440820325
 30
0.0
 10
91.09945749629334
 20
94.24276981870278
 30
0.0
 10
90.93278150035268
 20
94.15560892917603
 30
0.0
 10
90.76609720827784
 20
94.06851007703895
 30
0.0
  0
LWPOLYLINE
  5
10F
330
1F
100
AcDbEntity
  8
0
  6
HIDDEN
 62
     7
370
     0
100
AcDbPolyline
 90
        3
 70
   128
 43
0.0
 10
90.7660972083
 20
124.0538556878
 10
91.266107444
 20
123.7923800046
 10
91.7660972083
 20
123.5308890687
  0
LINE
  5
110
330
1F
100
AcDbEntity
  8
0
  6
HIDDEN
 62
     7
370
     0
100
AcDbLine
 10
138.7560972083
 20
129.1970800659
 30
0.0
 11
138.7560972083
 21
128.9112134345
 31
0.0
  0
LINE
  5
111
330
1F
100
AcDbEntity
  8
0
  6
HIDDEN
 62
     7
370
     0
100
AcDbLine
 10
142.5760972083
 20
129.1970800659
 30
0.0
 11
142.5760972083
 21
128.9112134345
 31
0.0
  0
LINE
  5
112
330
1F
100
AcDbEntity
  8
0
  6
HIDDEN
 62
     7
370
     0
100
AcDbLine
 10
144.0580300398
 20
133.5199030968
 30
0.0
 11
144.0580300398
 21
128.9112134345
 31
0.0
  0
CIRCLE
  5
113
330
1F
100
AcDbEntity
  8
0
  6
HIDDEN
 62
     7
370
     0
100
AcDbCircle
 10
129.6660972083
 20
109.0612134345
 30
0.0
 40
5.000000000000014
  0
LINE
  5
114
330
1F
100
AcDbEntity
  8
0
  6
HIDDEN
 62
     7
370
     0
100
AcDbLine
 10
165.6660972083
 20
106.0612134345
 30
0.0
 11
166.1660972083
 21
106.5612134345
 31
0.0
  0
LINE
  5
115
330
1F
100
AcDbEntity
  8
0
  6
HIDDEN
 62
     7
370
     0
100
AcDbLine
 10
166.1660972083
 20
111.5612134345
 30
0.0
 11
165.6660972083
 21
112.0612134345
 31
0.0
  0
LINE
  5
116
330
1F
100
AcDbEntity
  8
0
  6
HIDDEN
 62
     7
370
     0
100
AcDbLine
 10
153.1660972083
 20
106.0612134345
 30
0.0
 11
165.6660972083
 21
106.0612134345
 31
0.0
  0
LINE
  5
117
330
1F
100
AcDbEntity
  8
0
  6
HIDDEN
 62
     7
370
     0
100
AcDbLine
 10
165.6660972083
 20
112.0612134345
 30
0.0
 11
153.1660972083
 21
112.0612134345
 31
0.0
  0
LINE
  5
118
330
1F
100
AcDbEntity
  8
0
  6
HIDDEN
 62
     7
370
     0
100
AcDbLine
 10
153.1660972083
 20
112.0612134345
 30
0.0
 11
152.6660972083
 21
111.5612134345
 31
0.0
  0
LINE
  5
119
330
1F
100
AcDbEntity
  8
0
  6
HIDDEN
 62
     7
370
     0
100
AcDbLine
 10
152.6660972083
 20
106.5612134345
 30
0.0
 11
153.1660972083
 21
106.0612134345
 31
0.0
  0
LINE
  5
11A
330
1F
100
AcDbEntity
  8
0
  6
HIDDEN
 62
     7
370
     0
100
AcDbLine
 10
166.1660972083
 20
106.5612134345
 30
0.0
 11
168.6660972083
 21
106.5612134345
 31
0.0
  0
LINE
  5
11B
330
1F
100
AcDbEntity
  8
0
  6
HIDDEN
 62
     7
370
     0
100
AcDbLine
 10
168.6660972083
 20
111.5612134345
 30
0.0
 11
166.1660972083
 21
111.5612134345
 31
0.0
  0
LINE
  5
11C
330
1F
100
AcDbEntity
  8
0
  6
HIDDEN
 62
     7
370
     0
100
AcDbLine
 10
157.1660972082
 20
107.5612134345
 30
0.0
 11
164.1660972083
 21
107.5612134345
 31
0.0
  0
LINE
  5
11D
330
1F
100
AcDbEntity
  8
0
  6
HIDDEN
 62
     7
370
     0
100
AcDbLine
 10
164.1660972083
 20
110.5612134345
 30
0.0
 11
157.1660972082
 21
110.5612134345
 31
0.0
  0
LINE
  5
11E
330
1F
100
AcDbEntity
  8
0
  6
HIDDEN
 62
     7
370
     0
100
AcDbLine
 10
134.6660972083
 20
121.4551540773
 30
0.0
 11
134.6660972083
 21
123.3590464147
 31
0.0
  0
LINE
  5
11F
330
1F
100
AcDbEntity
  8
0
  6
HIDDEN
 62
     7
370
     0
100
AcDbLine
 10
126.6660972083
 20
123.3619141762
 30
0.0
 11
126.6660972083
 21
121.4551540773
 31
0.0
  0
LINE
  5
120
330
1F
100
AcDbEntity
  8
0
  6
HIDDEN
 62
     7
370
     0
100
AcDbLine
 10
122.6660972083
 20
83.7372822885
 30
0.0
 11
122.7602579838
 21
84.4072710197
 31
0.0
  0
LINE
  5
121
330
1F
100
AcDbEntity
  8
0
  6
HIDDEN
 62
     7
370
     0
100
AcDbLine
 10
122.7602579838
 20
133.7151558492
 30
0.0
 11
122.6660972083
 21
134.3851445804
 31
0.0
  0
ARC
  5
122
330
1F
100
AcDbEntity
  8
0
  6
HIDDEN
 62
     7
370
     0
100
AcDbCircle
 10
122.1660904556
 20
84.4907758201
 30
0.0
 40
0.6000067526677363
100
AcDbArc
 50
352.0
 51
0.0
  0
ARC
  5
123
330
1F
100
AcDbEntity
  8
0
  6
HIDDEN
 62
     7
370
     0
100
AcDbCircle
 10
122.1660904556
 20
84.4907758201
 30
0.0
 40
0.6000067526677282
100
AcDbArc
 50
0.0
 51
33.5571153394
  0
ARC
  5
124
330
1F
100
AcDbEntity
  8
0
  6
HIDDEN
 62
     7
370
     0
100
AcDbCircle
 10
122.1660904556
 20
133.6316510488
 30
0.0
 40
0.6000067526677363
100
AcDbArc
 50
348.75
 51
8.0
  0
LWPOLYLINE
  5
125
330
1F
100
AcDbEntity
  8
0
  6
HIDDEN
 62
     7
370
     0
100
AcDbPolyline
 90
        3
 70
   128
 43
0.0
 10
122.7545682468
 20
133.5145955383
 10
122.7204244138
 20
133.4020384053
 10
122.6660972083
 20
133.2999865338
  0
LINE
  5
126
330
1F
100
AcDbEntity
  8
0
  6
HIDDEN
 62
     7
370
     0
100
AcDbLine
 10
122.7660972083
 20
84.4907758201
 30
0.0
 11
122.7660972083
 21
133.6316510488
 31
0.0
  0
ARC
  5
127
330
1F
100
AcDbEntity
  8
0
  6
HIDDEN
 62
     7
370
     0
100
AcDbCircle
 10
105.7485327736
 20
89.6612134345
 30
0.0
 40
0.5999999999999962
100
AcDbArc
 50
210.0
 51
270.0
  0
ARC
  5
128
330
1F
100
AcDbEntity
  8
0
  6
HIDDEN
 62
     7
370
     0
100
AcDbCircle
 10
105.7485327736
 20
128.4612134345
 30
0.0
 40
0.6000000000000227
100
AcDbArc
 50
90.0
 51
150.0
  0
ARC
  5
129
330
1F
100
AcDbEntity
  8
0
  6
HIDDEN
 62
     7
370
     0
100
AcDbCircle
 10
116.4210992099
 20
97.0612134345
 30
0.0
 40
7.999999999999996
100
AcDbArc
 50
277.1325488762
 51
321.3178125465
  0
ARC
  5
12A
330
1F
100
AcDbEntity
  8
0
  6
HIDDEN
 62
     7
370
     0
100
AcDbCircle
 10
116.4210992099
 20
121.0612134345
 30
0.0
 40
8.000000000000007
100
AcDbArc
 50
38.6821874535
 51
82.8563149266
  0
LINE
  5
12B
330
1F
100
AcDbEntity
  8
0
  6
HIDDEN
 62
     7
370
     0
100
AcDbLine
 10
105.7485327736
 20
89.0612134345
 30
0.0
 11
109.9261196674
 21
89.0612134345
 31
0.0
  0
LINE
  5
12C
330
1F
100
AcDbEntity
  8
0
  6
HIDDEN
 62
     7
370
     0
100
AcDbLine
 10
109.9261196674
 20
129.0612134345
 30
0.0
 11
105.7485327736
 21
129.0612134345
 31
0.0
  0
LINE
  5
12D
330
1F
100
AcDbEntity
  8
0
  6
HIDDEN
 62
     7
370
     0
100
AcDbLine
 10
105.2289175313
 20
128.7612134345
 30
0.0
 11
103.6700718045
 21
126.0612134345
 31
0.0
  0
LINE
  5
12E
330
1F
100
AcDbEntity
  8
0
  6
HIDDEN
 62
     7
370
     0
100
AcDbLine
 10
103.6700718045
 20
92.0612134345
 30
0.0
 11
105.2289175313
 21
89.3612134345
 31
0.0
  0
LINE
  5
12F
330
1F
100
AcDbEntity
  8
0
  6
HIDDEN
 62
     7
370
     0
100
AcDbLine
 10
134.6660972083
 20
133.0068158491
 30
0.0
 11
134.6660972083
 21
136.3397137877
 31
0.0
  0
LINE
  5
130
330
1F
100
AcDbEntity
  8
0
  6
HIDDEN
 62
     7
370
     0
100
AcDbLine
 10
126.6660972083
 20
136.3410136537
 30
0.0
 11
126.6660972083
 21
133.0068158491
 31
0.0
  0
ARC
  5
131
330
1F
100
AcDbEntity
  8
0
  6
HIDDEN
 62
     7
370
     0
100
AcDbCircle
 10
131.1160972083
 20
93.3362134345
 30
0.0
 40
1.500000000000004
100
AcDbArc
 50
238.2116693829
 51
0.0
  0
ARC
  5
132
330
1F
100
AcDbEntity
  8
0
  6
HIDDEN
 62
     7
370
     0
100
AcDbCircle
 10
131.1160972083
 20
124.7862134345
 30
0.0
 40
1.500000000000028
100
AcDbArc
 50
0.0
 51
121.7883306171
  0
LINE
  5
133
330
1F
100
AcDbEntity
  8
0
  6
HIDDEN
 62
     7
370
     0
100
AcDbLine
 10
100.8660972083
 20
92.0612134345
 30
0.0
 11
103.6700718045
 21
92.0612134345
 31
0.0
  0
LINE
  5
134
330
1F
100
AcDbEntity
  8
0
  6
HIDDEN
 62
     7
370
     0
100
AcDbLine
 10
103.6700718045
 20
126.0612134345
 30
0.0
 11
96.8660972083
 21
126.0612134345
 31
0.0
  0
LINE
  5
135
330
1F
100
AcDbEntity
  8
0
  6
HIDDEN
 62
     7
370
     0
100
AcDbLine
 10
122.6660972083
 20
92.0612134345
 30
0.0
 11
130.3259231768
 21
92.0612134345
 31
0.0
  0
LINE
  5
136
330
1F
100
AcDbEntity
  8
0
  6
HIDDEN
 62
     7
370
     0
100
AcDbLine
 10
130.3259231768
 20
126.0612134345
 30
0.0
 11
122.6660972083
 21
126.0612134345
 31
0.0
  0
LINE
  5
137
330
1F
100
AcDbEntity
  8
0
  6
HIDDEN
 62
     7
370
     0
100
AcDbLine
 10
141.4660972083
 20
99.5612134345
 30
0.0
 11
144.4660972083
 21
99.5612134345
 31
0.0
  0
LINE
  5
138
330
1F
100
AcDbEntity
  8
0
  6
HIDDEN
 62
     7
370
     0
100
AcDbLine
 10
144.4660972083
 20
118.5612134345
 30
0.0
 11
141.4660972083
 21
118.5612134345
 31
0.0
  0
LINE
  5
139
330
1F
100
AcDbEntity
  8
0
  6
HIDDEN
 62
     7
370
     0
100
AcDbLine
 10
132.6160972083
 20
100.0612134345
 30
0.0
 11
133.1160972083
 21
100.5612134345
 31
0.0
  0
LINE
  5
13A
330
1F
100
AcDbEntity
  8
0
  6
HIDDEN
 62
     7
370
     0
100
AcDbLine
 10
133.1160972083
 20
117.5612134345
 30
0.0
 11
132.6160972083
 21
118.0612134345
 31
0.0
  0
LINE
  5
13B
330
1F
100
AcDbEntity
  8
0
  6
HIDDEN
 62
     7
370
     0
100
AcDbLine
 10
133.1160972083
 20
100.5612134345
 30
0.0
 11
141.4660972083
 21
100.5612134345
 31
0.0
  0
LINE
  5
13C
330
1F
100
AcDbEntity
  8
0
  6
HIDDEN
 62
     7
370
     0
100
AcDbLine
 10
141.4660972083
 20
117.5612134345
 30
0.0
 11
133.1160972083
 21
117.5612134345
 31
0.0
  0
LINE
  5
13D
330
1F
100
AcDbEntity
  8
0
  6
HIDDEN
 62
     7
370
     0
100
AcDbLine
 10
127.6160972083
 20
140.5612134345
 30
0.0
 11
127.6160972083
 21
135.4612134345
 31
0.0
  0
ARC
  5
13E
330
1F
100
AcDbEntity
  8
0
  6
HIDDEN
 62
     7
370
     0
100
AcDbCircle
 10
202.1660972083
 20
104.0245191864
 30
0.0
 40
0.5
100
AcDbArc
 50
0.0
 51
80.0
  0
ARC
  5
13F
330
1F
100
AcDbEntity
  8
0
  6
HIDDEN
 62
     7
370
     0
100
AcDbCircle
 10
202.1660972083
 20
114.0979076825
 30
0.0
 40
0.5
100
AcDbArc
 50
280.0
 51
0.0
  0
LINE
  5
140
330
1F
100
AcDbEntity
  8
0
  6
HIDDEN
 62
     7
370
     0
100
AcDbLine
 10
202.2529212971
 20
113.605503806
 30
0.0
 11
199.1660972083
 21
113.0612134345
 31
0.0
  0
LINE
  5
141
330
1F
100
AcDbEntity
  8
0
  6
HIDDEN
 62
     7
370
     0
100
AcDbLine
 10
199.1660972083
 20
105.0612134345
 30
0.0
 11
202.2529212971
 21
104.5169230629
 31
0.0
  0
LINE
  5
142
330
1F
100
AcDbEntity
  8
0
  6
HIDDEN
 62
     7
370
     0
100
AcDbLine
 10
117.8505350388
 20
84.9818421009
 30
0.0
 11
117.4161028893
 21
85.46090812
 31
0.0
  0
LINE
  5
143
330
1F
100
AcDbEntity
  8
0
  6
HIDDEN
 62
     7
370
     0
100
AcDbLine
 10
109.9160995642
 20
85.8825960791
 30
0.0
 11
109.4336658208
 21
85.4035301037
 31
0.0
  0
LINE
  5
144
330
1F
100
AcDbEntity
  8
0
  6
HIDDEN
 62
     7
370
     0
100
AcDbLine
 10
109.4335438926
 20
132.7188914748
 30
0.0
 11
109.9160946436
 21
132.2397712169
 31
0.0
  0
LINE
  5
145
330
1F
100
AcDbEntity
  8
0
  6
HIDDEN
 62
     7
370
     0
100
AcDbLine
 10
117.4160970903
 20
132.6614689945
 30
0.0
 11
117.8506394806
 21
133.1405892451
 31
0.0
  0
ARC
  5
146
330
1F
100
AcDbEntity
  8
0
  6
HIDDEN
 62
     7
370
     0
100
AcDbCircle
 10
175.7713231902
 20
105.1612134345
 30
0.0
 40
0.4000000000000171
100
AcDbArc
 50
270.0
 51
290.0
  0
ARC
  5
147
330
1F
100
AcDbEntity
  8
0
  6
HIDDEN
 62
     7
370
     0
100
AcDbCircle
 10
175.7713231902
 20
112.9612134345
 30
0.0
 40
0.4000000000000171
100
AcDbArc
 50
70.0
 51
90.0
  0
LINE
  5
148
330
1F
100
AcDbEntity
  8
0
  6
HIDDEN
 62
     7
370
     0
100
AcDbLine
 10
166.5660972083
 20
104.7612134345
 30
0.0
 11
175.7713231902
 21
104.7612134345
 31
0.0
  0
LINE
  5
149
330
1F
100
AcDbEntity
  8
0
  6
HIDDEN
 62
     7
370
     0
100
AcDbLine
 10
175.7713231902
 20
113.3612134345
 30
0.0
 11
166.5660972083
 21
113.3612134345
 31
0.0
  0
ARC
  5
14A
330
1F
100
AcDbEntity
  8
0
  6
HIDDEN
 62
     7
370
     0
100
AcDbCircle
 10
166.5660972083
 20
105.1612134345
 30
0.0
 40
0.4000000000000057
100
AcDbArc
 50
180.0
 51
270.0
  0
ARC
  5
14B
330
1F
100
AcDbEntity
  8
0
  6
HIDDEN
 62
     7
370
     0
100
AcDbCircle
 10
166.5660972083
 20
112.9612134345
 30
0.0
 40
0.4000000000000057
100
AcDbArc
 50
90.0
 51
180.0
  0
LINE
  5
14C
330
1F
100
AcDbEntity
  8
0
  6
HIDDEN
 62
     7
370
     0
100
AcDbLine
 10
175.9081312475
 20
104.7853363861
 30
0.0
 11
176.6660972083
 21
105.0612134345
 31
0.0
  0
LINE
  5
14D
330
1F
100
AcDbEntity
  8
0
  6
HIDDEN
 62
     7
370
     0
100
AcDbLine
 10
176.6660972083
 20
113.0612134345
 30
0.0
 11
175.9081312475
 21
113.3370904828
 31
0.0
  0
LINE
  5
14E
330
1F
100
AcDbEntity
  8
0
  6
HIDDEN
 62
     7
370
     0
100
AcDbLine
 10
150.7660972083
 20
104.8612134345
 30
0.0
 11
151.7875602606
 21
106.5612134345
 31
0.0
  0
LINE
  5
14F
330
1F
100
AcDbEntity
  8
0
  6
HIDDEN
 62
     7
370
     0
100
AcDbLine
 10
151.7875602606
 20
111.5612134345
 30
0.0
 11
150.7660972083
 21
113.2612134345
 31
0.0
  0
LINE
  5
150
330
1F
100
AcDbEntity
  8
0
  6
HIDDEN
 62
     7
370
     0
100
AcDbLine
 10
144.4660972083
 20
104.8612134345
 30
0.0
 11
150.7660972083
 21
104.8612134345
 31
0.0
  0
LINE
  5
151
330
1F
100
AcDbEntity
  8
0
  6
HIDDEN
 62
     7
370
     0
100
AcDbLine
 10
150.7660972083
 20
113.2612134345
 30
0.0
 11
144.4660972083
 21
113.2612134345
 31
0.0
  0
LINE
  5
152
330
1F
100
AcDbEntity
  8
0
  6
HIDDEN
 62
     7
370
     0
100
AcDbLine
 10
176.6660972083
 20
105.0612134345
 30
0.0
 11
199.1660972083
 21
105.0612134345
 31
0.0
  0
LINE
  5
153
330
1F
100
AcDbEntity
  8
0
  6
HIDDEN
 62
     7
370
     0
100
AcDbLine
 10
199.1660972083
 20
113.0612134345
 30
0.0
 11
176.6660972083
 21
113.0612134345
 31
0.0
  0
LINE
  5
154
330
1F
100
AcDbEntity
  8
0
  6
HIDDEN
 62
     7
370
     0
100
AcDbLine
 10
117.4160972083
 20
85.4613920217
 30
0.0
 11
117.4160972083
 21
89.1233772438
 31
0.0
  0
LINE
  5
155
330
1F
100
AcDbEntity
  8
0
  6
HIDDEN
 62
     7
370
     0
100
AcDbLine
 10
109.9160972083
 20
89.0630849817
 30
0.0
 11
109.9160972083
 21
85.8829193169
 31
0.0
  0
LINE
  5
156
330
1F
100
AcDbEntity
  8
0
  6
HIDDEN
 62
     7
370
     0
100
AcDbLine
 10
117.4160972083
 20
128.9990496251
 30
0.0
 11
117.4160972083
 21
132.6611776885
 31
0.0
  0
LINE
  5
157
330
1F
100
AcDbEntity
  8
0
  6
HIDDEN
 62
     7
370
     0
100
AcDbLine
 10
109.9160972083
 20
132.2396274376
 30
0.0
 11
109.9160972083
 21
129.0593418872
 31
0.0
  0
LINE
  5
158
330
1F
100
AcDbEntity
  8
0
  6
HIDDEN
 62
     7
370
     0
100
AcDbLine
 10
166.1660972083
 20
112.0612134345
 30
0.0
 11
165.6660972083
 21
111.5612134345
 31
0.0
  0
LINE
  5
159
330
1F
100
AcDbEntity
  8
0
  6
HIDDEN
 62
     7
370
     0
100
AcDbLine
 10
165.6660972083
 20
106.5612134345
 30
0.0
 11
166.1660972083
 21
106.0612134345
 31
0.0
  0
LINE
  5
15A
330
1F
100
AcDbEntity
  8
0
  6
HIDDEN
 62
     7
370
     0
100
AcDbLine
 10
151.7875602606
 20
106.5612134345
 30
0.0
 11
165.6660972083
 21
106.5612134345
 31
0.0
  0
LINE
  5
15B
330
1F
100
AcDbEntity
  8
0
  6
HIDDEN
 62
     7
370
     0
100
AcDbLine
 10
165.6660972083
 20
111.5612134345
 30
0.0
 11
151.7875602606
 21
111.5612134345
 31
0.0
  0
DIMENSION
  5
15C
330
1F
100
AcDbEntity
  8
VERMASSUNG
100
AcDbDimension
  2
*D1
 10
87.2336944745
 20
77.5612134345
 30
0.0
 11
87.2336944745
 21
109.0612134345
 31
0.0
 70
   160
  1
HSK A %%c<>
 71
     2
 42
-1.0
  3
SLDDIMSTYLE0
100
AcDbAlignedDimension
 13
122.9660972083
 23
140.5612134345
 33
0.0
 14
122.9660972083
 24
77.5612134345
 34
0.0
 50
90.0
100
AcDbRotatedDimension
  0
DIMENSION
  5
169
330
1F
100
AcDbEntity
  8
VERMASSUNG
100
AcDbDimension
  2
*D2
 10
202.6660972083
 20
144.5612134345
 30
0.0
 11
184.4160972083
 21
144.5612134345
 31
0.0
 70
   160
 71
     2
 42
-1.0
  3
SLDDIMSTYLE1
100
AcDbAlignedDimension
 13
166.1660972083
 23
112.9612134345
 33
0.0
 14
202.6660972083
 24
117.7124324511
 34
0.0
100
AcDbRotatedDimension
  0
DIMENSION
  5
174
330
1F
100
AcDbEntity
  8
VERMASSUNG
100
AcDbDimension
  2
*D3
 10
209.9983748646
 20
113.0612134345
 30
0.0
 11
209.9983748646
 21
109.0612134345
 31
0.0
 70
   160
  1
%%c<>
 71
     2
 42
-1.0
  3
SLDDIMSTYLE2
100
AcDbAlignedDimension
 13
199.1660972083
 23
105.0612134345
 33
0.0
 14
199.1660972083
 24
113.0612134345
 34
0.0
 50
90.0
100
AcDbRotatedDimension
  0
DIMENSION
  5
180
330
1F
100
AcDbEntity
  8
VERMASSUNG
100
AcDbDimension
  2
*D4
 10
215.9983748646
 20
119.5612134345
 30
0.0
 11
215.9983748646
 21
109.0612134345
 31
0.0
 70
   160
  1
%%c<>
 71
     2
 42
-1.0
  3
SLDDIMSTYLE3
100
AcDbAlignedDimension
 13
202.6660972083
 23
98.5612134345
 33
0.0
 14
202.6660972083
 24
119.5612134345
 34
0.0
 50
90.0
100
AcDbRotatedDimension
  0
DIMENSION
  5
18C
330
1F
100
AcDbEntity
  8
VERMASSUNG
100
AcDbDimension
  2
*D5
 10
221.9983748646
 20
122.0612134345
 30
0.0
 11
221.9983748646
 21
109.0612134345
 31
0.0
 70
   160
  1
%%c<>
 71
     2
 42
-1.0
  3
SLDDIMSTYLE3
100
AcDbAlignedDimension
 13
151.6160972083
 23
96.0612134345
 33
0.0
 14
151.6160972083
 24
122.0612134345
 34
0.0
 50
90.0
100
AcDbRotatedDimension
  0
DIMENSION
  5
197
330
1F
100
AcDbEntity
  8
VERMASSUNG
100
AcDbDimension
  2
*D6
 10
202.6660972083
 20
156.5612134345
 30
0.0
 11
162.6660972083
 21
156.5612134345
 31
0.0
 70
   160
 71
     2
 42
-1.0
  3
SLDDIMSTYLE0
100
AcDbAlignedDimension
 13
122.6660972083
 23
140.2612134345
 33
0.0
 14
202.6660972083
 24
117.7124324511
 34
0.0
100
AcDbRotatedDimension
  0
DIMENSION
  5
1A1
330
1F
100
AcDbEntity
  8
VERMASSUNG
100
AcDbDimension
  2
*D7
 10
202.6660972083
 20
150.5612134345
 30
0.0
 11
175.6410972083
 21
150.5612134345
 31
0.0
 70
   160
 71
     2
 42
-1.0
  3
SLDDIMSTYLE0
100
AcDbAlignedDimension
 13
148.6160972083
 23
138.9076537582
 33
0.0
 14
202.6660972083
 24
117.7124324511
 34
0.0
100
AcDbRotatedDimension
  0
DIMENSION
  5
1AB
330
1F
100
AcDbEntity
  8
VERMASSUNG
100
AcDbDimension
  2
*D8
 10
90.7660972083
 20
162.5612134345
 30
0.0
 11
146.7160972083
 21
162.5612134345
 31
0.0
 70
   160
 71
     2
 42
-1.0
  3
SLDDIMSTYLE0
100
AcDbAlignedDimension
 13
202.6660972083
 23
117.7124324511
 33
0.0
 14
90.7660972083
 24
128.7518911809
 34
0.0
100
AcDbRotatedDimension
  0
LINE
  5
1B5
330
1F
100
AcDbEntity
  8
VERMASSUNG
  6
CENTERX2
370
     0
100
AcDbLine
 10
89.0902491874
 20
109.0612134345
 30
0.0
 11
204.4287107259
 21
109.0612134345
 31
0.0
  0
OLE2FRAME
  5
1B6
330
1F
100
AcDbEntity
  8
0
100
AcDbOle2Frame
 70
     2
  3
Bitmap Image
 10
13.8511154363
 20
38.264191557
 30
0.0
 11
51.6290888628
 21
31.9806341108
 31
0.0
 71
     2
 72
     0
 73
     1
 90
    12928
310
80552BED0767C5B32B40DDAF6807D121434000000000000000006FFBDDFB85D0
310
4940DDAF6807D121434000000000000000006FFBDDFB85D04940416F4BD60AFB
310
3F4000000000000000002BED0767C5B32B40416F4BD60AFB3F40000000000000
310
0000000000000100000000010000010000000100000000000100000000320000
310
D0CF11E0A1B11AE1000000000000000000000000000000003E000300FEFF0900
310
0600000000000000000000000100000001000000000000000010000002000000
310
01000000FEFFFFFF0000000000000000FFFFFFFFFFFFFFFFFFFFFFFFFFFFFFFF
310
FFFFFFFFFFFFFFFFFFFFFFFFFFFFFFFFFFFFFFFFFFFFFFFFFFFFFFFFFFFFFFFF
310
FFFFFFFFFFFFFFFFFFFFFFFFFFFFFFFFFFFFFFFFFFFFFFFFFFFFFFFFFFFFFFFF
310
FFFFFFFFFFFFFFFFFFFFFFFFFFFFFFFFFFFFFFFFFFFFFFFFFFFFFFFFFFFFFFFF
310
FFFFFFFFFFFFFFFFFFFFFFFFFFFFFFFFFFFFFFFFFFFFFFFFFFFFFFFFFFFFFFFF
310
FFFFFFFFFFFFFFFFFFFFFFFFFFFFFFFFFFFFFFFFFFFFFFFFFFFFFFFFFFFFFFFF
310
FFFFFFFFFFFFFFFFFFFFFFFFFFFFFFFFFFFFFFFFFFFFFFFFFFFFFFFFFFFFFFFF
310
FFFFFFFFFFFFFFFFFFFFFFFFFFFFFFFFFFFFFFFFFFFFFFFFFFFFFFFFFFFFFFFF
310
FFFFFFFFFFFFFFFFFFFFFFFFFFFFFFFFFFFFFFFFFFFFFFFFFFFFFFFFFFFFFFFF
310
FFFFFFFFFFFFFFFFFFFFFFFFFFFFFFFFFFFFFFFFFFFFFFFFFFFFFFFFFFFFFFFF
310
FFFFFFFFFFFFFFFFFFFFFFFFFFFFFFFFFFFFFFFFFFFFFFFFFFFFFFFFFFFFFFFF
310
FFFFFFFFFFFFFFFFFFFFFFFFFFFFFFFFFFFFFFFFFFFFFFFFFFFFFFFFFFFFFFFF
310
FFFFFFFFFFFFFFFFFFFFFFFFFFFFFFFFFFFFFFFFFFFFFFFFFFFFFFFFFFFFFFFF
310
FFFFFFFFFFFFFFFFFFFFFFFFFFFFFFFFFFFFFFFFFFFFFFFFFFFFFFFFFFFFFFFF
310
FDFFFFFFFEFFFFFFFEFFFFFFFEFFFFFF05000000060000000700000008000000
310
090000000A0000000B0000000C0000000D0000000E0000000F00000010000000
310
11000000120000001300000014000000150000001600000017000000FEFFFFFF
310
FFFFFFFFFFFFFFFFFFFFFFFFFFFFFFFFFFFFFFFFFFFFFFFFFFFFFFFFFFFFFFFF
310
FFFFFFFFFFFFFFFFFFFFFFFFFFFFFFFFFFFFFFFFFFFFFFFFFFFFFFFFFFFFFFFF
310
FFFFFFFFFFFFFFFFFFFFFFFFFFFFFFFFFFFFFFFFFFFFFFFFFFFFFFFFFFFFFFFF
310
FFFFFFFFFFFFFFFFFFFFFFFFFFFFFFFFFFFFFFFFFFFFFFFFFFFFFFFFFFFFFFFF
310
FFFFFFFFFFFFFFFFFFFFFFFFFFFFFFFFFFFFFFFFFFFFFFFFFFFFFFFFFFFFFFFF
310
FFFFFFFFFFFFFFFFFFFFFFFFFFFFFFFFFFFFFFFFFFFFFFFFFFFFFFFFFFFFFFFF
310
FFFFFFFFFFFFFFFFFFFFFFFFFFFFFFFFFFFFFFFFFFFFFFFFFFFFFFFFFFFFFFFF
310
FFFFFFFFFFFFFFFFFFFFFFFFFFFFFFFFFFFFFFFFFFFFFFFFFFFFFFFFFFFFFFFF
310
FFFFFFFFFFFFFFFFFFFFFFFFFFFFFFFFFFFFFFFFFFFFFFFFFFFFFFFFFFFFFFFF
310
FFFFFFFFFFFFFFFFFFFFFFFFFFFFFFFFFFFFFFFFFFFFFFFFFFFFFFFFFFFFFFFF
310
FFFFFFFFFFFFFFFFFFFFFFFFFFFFFFFFFFFFFFFFFFFFFFFFFFFFFFFFFFFFFFFF
310
FFFFFFFFFFFFFFFFFFFFFFFFFFFFFFFFFFFFFFFFFFFFFFFFFFFFFFFFFFFFFFFF
310
FFFFFFFFFFFFFFFFFFFFFFFFFFFFFFFFFFFFFFFFFFFFFFFFFFFFFFFFFFFFFFFF
310
52006F006F007400200045006E00740072007900000000000000000000000000
310
0000000000000000000000000000000000000000000000000000000000000000
310
16000500FFFFFFFFFFFFFFFF020000000A00030000000000C000000000000046
310
000000000000000000000000F053A953A604CC0103000000C000000000000000
310
01004F006C006500000000000000000000000000000000000000000000000000
310
0000000000000000000000000000000000000000000000000000000000000000
310
0A000200FFFFFFFFFFFFFFFFFFFFFFFF00000000000000000000000000000000
310
0000000000000000000000000000000000000000000000001400000000000000
310
010043006F006D0070004F0062006A0000000000000000000000000000000000
310
0000000000000000000000000000000000000000000000000000000000000000
310
120002010100000003000000FFFFFFFF00000000000000000000000000000000
310
0000000000000000000000000000000000000000010000004D00000000000000
310
01004F006C006500310030004E00610074006900760065000000000000000000
310
0000000000000000000000000000000000000000000000000000000000000000
310
1A000200FFFFFFFFFFFFFFFFFFFFFFFF00000000000000000000000000000000
310
0000000000000000000000000000000000000000040000002426000000000000
310
FEFFFFFF02000000FEFFFFFFFFFFFFFFFFFFFFFFFFFFFFFFFFFFFFFFFFFFFFFF
310
FFFFFFFFFFFFFFFFFFFFFFFFFFFFFFFFFFFFFFFFFFFFFFFFFFFFFFFFFFFFFFFF
310
FFFFFFFFFFFFFFFFFFFFFFFFFFFFFFFFFFFFFFFFFFFFFFFFFFFFFFFFFFFFFFFF
310
FFFFFFFFFFFFFFFFFFFFFFFFFFFFFFFFFFFFFFFFFFFFFFFFFFFFFFFFFFFFFFFF
310
FFFFFFFFFFFFFFFFFFFFFFFFFFFFFFFFFFFFFFFFFFFFFFFFFFFFFFFFFFFFFFFF
310
FFFFFFFFFFFFFFFFFFFFFFFFFFFFFFFFFFFFFFFFFFFFFFFFFFFFFFFFFFFFFFFF
310
FFFFFFFFFFFFFFFFFFFFFFFFFFFFFFFFFFFFFFFFFFFFFFFFFFFFFFFFFFFFFFFF
310
FFFFFFFFFFFFFFFFFFFFFFFFFFFFFFFFFFFFFFFFFFFFFFFFFFFFFFFFFFFFFFFF
310
FFFFFFFFFFFFFFFFFFFFFFFFFFFFFFFFFFFFFFFFFFFFFFFFFFFFFFFFFFFFFFFF
310
FFFFFFFFFFFFFFFFFFFFFFFFFFFFFFFFFFFFFFFFFFFFFFFFFFFFFFFFFFFFFFFF
310
FFFFFFFFFFFFFFFFFFFFFFFFFFFFFFFFFFFFFFFFFFFFFFFFFFFFFFFFFFFFFFFF
310
FFFFFFFFFFFFFFFFFFFFFFFFFFFFFFFFFFFFFFFFFFFFFFFFFFFFFFFFFFFFFFFF
310
FFFFFFFFFFFFFFFFFFFFFFFFFFFFFFFFFFFFFFFFFFFFFFFFFFFFFFFFFFFFFFFF
310
FFFFFFFFFFFFFFFFFFFFFFFFFFFFFFFFFFFFFFFFFFFFFFFFFFFFFFFFFFFFFFFF
310
FFFFFFFFFFFFFFFFFFFFFFFFFFFFFFFFFFFFFFFFFFFFFFFFFFFFFFFFFFFFFFFF
310
FFFFFFFFFFFFFFFFFFFFFFFFFFFFFFFFFFFFFFFFFFFFFFFFFFFFFFFFFFFFFFFF
310
0100000200000000000000000000000000000000500260012003E003B0024004
310
B002F00180030003B002800350023001B0028003800380033001500250024004
310
0100FEFF030A0000FFFFFFFF0A00030000000000C00000000000004607000000
310
5042727573680007000000504272757368000700000050427275736800F439B2
310
7100000000000000000000000003200320032003200320032003B002E0032003
310
200320032003800320032003B002B002B002B002B002B00280035002B002B002
310
B002B002F001F001500250028003B002B002B002B002B002B002B0028003B002
310
B002B002B002B002B002B00200000000EE080200000000003C00900000000004
310
8806250000000000102C2700000000003E090200000000001209020000000000
310
58071F00000000005E071100000000006407040000000000D006030000000000
310
700B030000000000D806040000000000DA06030000000000BE0CF00000000000
310
C40C920000000000180C930000000000440CEE0000000000B80A050000000000
310
00180500000000000C180500000000009618020000000000C217060000000000
310
CC17060000000000D01706000000000062162F00000000003C162F0000000000
310
52162D0000000000C4155E00000000006C15700000000000D615590000000000
310
0015A30000000000E4148F0000000000CA148700000000004C14710000000000
310
20260000424D0E260000000000003E00000028000000B40200006E0000000100
310
01000000000000000000130B0000130B00000200000002000000000000FFFFFF
310
FFFFFFFFFFFFFFFFFFFFFFFFFFFFFFFFFFFFFFFFFFFFFFFFFFFFFFFFFFFFFFFF
310
FFFFFFFFFFFFFFFFFFFFFFFFFFFFFFFFFFFFFFFFFFFFFFFFFFFFFFFFFFFFFFFF
310
FFFFFFFFFFFFFFFFFFFFFFFFFFFFFFFFFFFFFFFFFFFFFFFFF000FFFFFFFFFFFF
310
FFFFFFFFFFFFFFFFFFFFFFFFFFFFFFFFFFFFFFFFFFFFFFFFFFFFFFFFFFFFFFFF
310
FFFFFFFFFFFFFFFFFFFFFFFFFFFFFFFFFFFFFFFFFFFFFFFFFFFFFFFFFFFFFFFF
310
FFFFFFFFFFFFFFFFFFFFFFFFFFFFFFFFF000FFFFFFFFFFFFFFFFFFFFFFFFFFFF
310
FFFFFFFFFFFFFFFFFFFFFFFFFFFFFFFFFFFFFFFFFFFFFFFFFFFFFFFFFFFFFFFF
310
FFFFFFFFFFFFFFFFFFFFFFFFFFFFFFFFFFFFFFFFFFFFFFFFFFFFFFFFFFFFFFFF
310
FFFFFFFFFFFFFFFFF000FFFFFFFFFFFFFFFFFFFFFFFFFFFFFFFFFFFFFFFFFFFF
310
FFFFFFFFFFFFFFFFFFFFFFFFFFFFFFFFFFFFFFFFFFFFFFFFFFFFFFFFFFFFFFFF
310
FFFFFFFFFFFFFFFFFFFFFFFFFFFFFFFFFFFFFFFFFFFFFFFFFFFFFFFFFFFFFFFF
310
F000FFFFFFFFFFFFFFFFFFFFFFFFFFFFFFFFFFFFFFFFFFFFFFFFFFFFFFFFFFFF
310
FFFFFFFFFFFFFFFFFFFFFFFFFFFFFFFFFFFFFFFFFFFFFFFFFFFFFFFFFFFFFFFF
310
FFFFFFFFFFFFFFFFFFFFFFFFFFFFFFFFFFFFFFFFFFFFFFFFF000FFFFFFFFFFFF
310
FFFFFFFFFFFFFFFFFFFFFFFFFFFFFFFFFFFFFFFFFFFFFFFFFFFFFFFFFFFFFFFF
310
FFFFFFFFFFFFFFFFFFFFFFFFFFFFFFFFFFFFFFFFFFFFFFFFFFFFFFFFFFFFFFFF
310
FFFFFFFFFFFFFFFFFFFFFFFFFFFFFFFFF000FFFFFFFFFFFFFFFFFFFFFFFFFFFF
310
FFFFFFFFFFFFFFFFFFFFFFFFFFFFFFFFFFFFFFFFFFFFFFFFFFFFFFFFFFFFFFFF
310
FFFFFFFFFFFFFFFFFFFFFFFFFFFFFFFFFFFFFFFFFFFFFFFFFFFFFFFFFFFFFFFF
310
FFFFFFFFFFFFFFFFF000FFFFFFFFFFFFFFFFFFFFFFFFFFFFFFFFFFFFFFFFFFFF
310
FFFFFFFFFFFFFFFFFFFFFFFFFFFFFFFFFFFFFFFFFFFFFFFFFFFFFFFFFFFFFFFF
310
FFFFFFFFFFFFFFFFFFFFFFFFFFFFFFFFFFFFFFFFFFFFFFFFFFFFFFFFFFFFFFFF
310
F000FFFFFFFFFFFFFFFFFFFFFFFFFFFFFFFFFFFFFFFFFFFFFFFFFFFFFFFFFFFF
310
FFFFFFFFFFFFFFFFFFFFFFFFFFFFFFFFFFFFFFFFFFFFFFFFFFFFFFFFFFFFFFFF
310
FFFFFFFFFFFFFFFFFFFFFFFFFFFFFFFFFFFFFFFFFFFFFFFFF000FFFFFFFFFFFF
310
FFFFFFFFFFFFFFFFFFFFFFFFFFFFFFFFFFFFFFFFFFFFFFFFFFFFFFFFFFFFFFFF
310
FFFFFFFFFFFFFFFFFFFFFFFFFFFFFFFFFFFFFFFFFFFFFFFFFFFFFFFFFFFFFFFF
310
FFFFFFFFFFFFFFFFFFFFFFFFFFFFFFFFF000FFFFFFFFFFFFFFFFFFFFFFFFFFFF
310
FFFFFFFFFFFFFFFFFFFFFFFFFFFFFFFFFFFFFFFFFFFFFFFFFFFFFFFFFFFFFFFF
310
FFFFFFFFFFFFFFFFFFFFFFFFFFFFFFFFFFFFFFFFFFFFFFFFFFFFFFFFFFFFFFFF
310
FFFFFFFFFFFFFFFFF000FFFFFFFFFFFFFFFFFFFFFFFFFFFFFFFFFFFFFFFFFFFF
310
FFFFFFFFFFFFFFFFFFFFFFFFFFFFFFFFFFFFFFFFFFFFFFFFFFFFFFFFFFFFFFFF
310
FFFFFFFFFFFFFFFFFFFFFFFFFFFFFFFFFFFFFFFFFFFFFFFFFFFFFFFFFFFFFFFF
310
F000FFFFFFFFFFFFFFFFFFFFFFFFFFFFFFFFFFFFFFFFFFFFFFFFFFFFFFFFFFFF
310
FFFFFFFFFFFFFFFFFFFFFFFFFFFFFFFFFFFFFFFFFFFFFFFFFFFFFFFFFFFFFFFF
310
FFFFFFFFFFFFFFFFFFFFFFFFFFFFFFFFFFFFFFFFFFFFFFFFF000FFFFFFFFFFFF
310
FFFFFFFFFFFFFFFFFFFFFFFFFFFFFFFFFFFFFFFFFFFFFFFFFFFFFFFFFFFFFFFF
310
FFFFFFFFFFFFFFFFFFFFFFFFFFFFFFFFFFFFFFFFFFFFFFFFFFFFFFFFFFFFFFFF
310
FFFFFFFFFFFFFFFFFFFFFFFFFFFFFFFFF000FFFFFFFFFFFFFFFFFFFFFFFFFFFF
310
FFFFFFFFFFFFFFFFFFFFFFFFFFFFFFFFFFFFFFFFFFFFFFFFFFFFFFFFFFFFFFFF
310
FFFFFFFFFFFFFFFFFFFFFFFFFFFFFFFFFFFFFFFFFFFFFFFFFFFFFFFFFFFFFFFF
310
FFFFFFFFFFFFFFFFF000FFFFFFFFFFFFFFFFFFFFFFFFFFFFFFFFFFFFFFFFFFFF
310
FFFFFFFFFFFFFFFFFFFFFFFFFFFFFFFFFFFFFFFFFFFFFFFFFFFFFFFFFFFFFFFF
310
FFFFFFFFFFFFFFFFFFFFFFFFFFFFFFFFFFFFFFFFFFFFFFFFFFFFFFFFFFFFFFFF
310
F000FFFFFFFFFFFFFFFFFFFFFFFFFFFFFFFFFFFFFFFFFFFFFFFFFFFFFFFFFFFF
310
FFFFFFFFFFFFFFFFFFFFFFFFFFFFFFFFFFFFFFFFFFFFFFFFFFFFFFFFFFFFFFFF
310
FFFFFFFFFFFFFFFFFFFFFFFFFFFFFFFFFFFFFFFFFFFFFFFFF000FFFFFFFFFFFF
310
FFFFFFFFFFFFFFFFFFFFFFFFFFFFFFFFFFFFFFFFFFFFFFFFFFFFFFFFFFFFFFFF
310
FFFFFFFFFFFFFFFFFFFFFFFFFFFFFFFFFFFFFFFFFFFFFFFFFFFFFFFFFFFFFFFF
310
FFFFFFFFFFFFFFFFFFFFFFFFFFFFFFFFF000FFFFFFFFFFFFFFFFFFFFFFFFFFFF
310
FFFFFFFFFFFFFFFFFFFFFFFFFFFFFFFFFFFFFFFFFFFFFFFFFFFFFFFFFFFFFFFF
310
FFFFFFFFFFFFFFFFFFFFFFFFFFFFFFFFFFFFFFFFFFFFFFFFFFFFFFFFFFFFFFFF
310
FFFFFFFFFFFFFFFFF000FFFFF80003FFFFFFFFFFFFFFFFFFFFFFFFFFFFFFFFFF
310
FFFFF00007FFFFFFFFFF00007FFFFFF800000000000000007FFFFFFFFFFFFFFF
310
FFFFFFFC001FFFFFFFFFFFFFFC001FFFFFFFFFFFFFFFFFFFFFFFFFFE0007FFFF
310
F000FFFF8000007FFFFFFFF8000FFFFFC0007FFFFF80007FFFFF0000007FFFFF
310
FFF8000007FFFFF800000000000000007FFFFFF0001FFFFFFFFFFFC00001FFFF
310
FFFFFFFFC00001FFFFFFFF000000000003FFFFE000007FFFF000FFFE0000000F
310
FFFFFFF0000FFFFF80007FFFFF80007FFFFC0000001FFFFFFFC0000001FFFFF8
310
00000000000000007FFFFFF0001FFFFFFFFFFE0000003FFFFFFFFFFE0000003F
310
FFFFFF000000000003FFFF0000000FFFF000FFF800000003FFFFFFF00007FFFF
310
80007FFFFF80007FFFF000000007FFFFFF000000003FFFF80000000000000000
310
7FFFFFF0001FFFFFFFFFF80000000FFFFFFFFFF80000000FFFFFFF0000000000
310
03FFFC00000003FFF000FFE000000000FFFFFFF00007FFFF80003FFFFF80007F
310
FFC000000001FFFFFC000000001FFFF800000000000000007FFFFFF0001FFFFF
310
FFFFE000000003FFFFFFFFE000000003FFFFFF000000000003FFF000000000FF
310
F000FF80000000007FFFFFF00007FFFF80003FFFFF80007FFF8000000000FFFF
310
F80000000007FFF800000000000000007FFFFFF0001FFFFFFFFFC000000001FF
310
FFFFFFC000000001FFFFFF000000000003FFC0000000007FF000FF0000000000
310
3FFFFFE00007FFFF00003FFFFF80007FFE00000000003FFFF00000000003FFF8
310
00000000000000007FFFFFF0001FFFFFFFFF8000000000FFFFFFFF8000000000
310
FFFFFF000000000003FF80000000003FF000FE00000000001FFFFFE00003FFFF
310
00003FFFFF80007FFC00000000001FFFE00000000001FFF8000001FFFE000000
310
7FFFFFF0001FFFFFFFFE00000000003FFFFFFE00000000003FFFFF0000000000
310
03FF00000000001FF000FC00000000000FFFFFE00003FFFF00001FFFFF80007F
310
F800000000001FFFC00000000000FFF8000001FFFE0000007FFFFFF0001FFFFF
310
FFFC00000000001FFFFFFC00000000001FFFFF000000000003FE00000000000F
310
F000F8000000000007FFFFE00003FFFF00001FFFFF80007FF800000000000FFF
310
800000000000FFF8000001FFFE0000007FFFFFF0001FFFFFFFF800000000000F
310
FFFFF800000000000FFFFF000000000003FC000000000007F000F80000000000
310
03FFFFC00003FFFE00001FFFFF80007FF0000000000007FF0000000000007FF8
310
000001FFFE0000007FFFFFF0001FFFFFFFF0000000000007FFFFF00000000000
310
07FFFF000000000003F8000000000003F000F0000000000003FFFFC00001FFFE
310
00001FFFFF80007FE0000000000007FE0000000000003FF8000001FFFE000000
310
7FFFFFF0001FFFFFFFF0000000000007FFFFF0000000000007FFFF0000000000
310
03F800001F800003F000E00001FFF00001FFFFC00001FFFE00000FFFFF80007F
310
E00001FFE00003FE00001FFF00003FF8000001FFFE0000007FFFFFF0001FFFFF
310
FFE000003E000003FFFFE000003E000003FFFF000000000003F00001FFF80001
310
F000E00007FFFC0001FFFFC00001FFFE00000FFFFF80007FC0000FFFFC0003FC
310
0000FFFFC0001FF8000001FFFE0000007FFFFFF0001FFFFFFFC00003FFE00001
310
FFFFC00003FFE00001FFFF0001FFFFFFFFF00007FFFE0001F000E0000FFFFF00
310
00FFFF800001FFFC00000FFFFF80007FC0001FFFFE0001FC0001FFFFE0001FF8
310
000001FFFE0000007FFFFFF0001FFFFFFF80000FFFF80000FFFF80000FFFF800
310
00FFFF0003FFFFFFFFE0000FFFFF8000F000C0003FFFFF8000FFFF800000FFFC
310
000007FFFF80007F80003FFFFF0001FC0003FFFFF0001FF8000001FFFE000000
310
7FFFFFF0001FFFFFFF80003FFFFE0000FFFF80003FFFFE0000FFFF0003FFFFFF
310
FFE0003FFFFF8000F000C0003FFFFF8000FFFF800000FFFC000007FFFF80007F
310
80007FFFFF8001F80007FFFFF8000FF8000001FFFE0000007FFFFFF0001FFFFF
310
FF00007FFFFF00007FFF00007FFFFF00007FFF0003FFFFFFFFE0003FFFFFC000
310
F000C0007FFFFFC000FFFF000000FFFC000007FFFF80007F8000FFFFFF8000F8
310
000FFFFFF8000FF8000001FFFE0000007FFFFFF0001FFFFFFF0000FFFFFF8000
310
7FFF0000FFFFFF80007FFF0003FFFFFFFFC0007FFFFFC00070008000FFFFFFC0
310
00FFFF000000FFF8000007FFFF80007F8000FFFFFF8000F8000FFFFFF8000FF8
310
000001FFFE0000007FFFFFF0001FFFFFFE0001FFFFFFC0003FFE0001FFFFFFC0
310
003FFF0003FFFFFFFFC0007FFFFFE00070008000FFFFFFC0007FFF0000007FF8
310
000003FFFF80007F0001FFFFFF8000F8000FFFFFF8000FF8000001FFFE000000
310
7FFFFFF0001FFFFFFE0001FFFFFFC0003FFE0001FFFFFFC0003FFF0003FFFFFF
310
FFC000FFFFFFE00070008000FFFFFFC0007FFF0000007FF8000003FFFF80007F
310
0001FFFFFF8000F8001FFFFFF8000FF8000001FFFE0000007FFFFFF0001FFFFF
310
FE0003FFFFFFE0003FFE0003FFFFFFE0003FFF0003FFFFFFFFC000FFFFFFE000
310
70008000FFFFFFC0007FFE0000007FF8000003FFFF80007F0001FFFFFF8000F0
310
001FFFFFF8000FF8000001FFFE0000007FFFFFF0001FFFFFFC0003FFFFFFE000
310
1FFC0003FFFFFFE0001FFF0003FFFFFFFFC000FFFFFFC00070008000FFFFFF80
310
007FFE0000007FF0000003FFFF80007F0001FFFFFF0000F0001FFFFFF8000FF8
310
000001FFFE0000007FFFFFF0001FFFFFFC0007FFFFFFF0001FFC0007FFFFFFF0
310
001FFF0003FFFFFFFFC000FFFFFFC00070008001FFFFFF0000FFFE0000003FF0
310
000001FFFF80007F0001FFFFFF0000F8001FFFFFF0000FF8000001FFFE000000
310
7FFFFFF0001FFFFFFC0007FFFFFFF0001FFC0007FFFFFFF0001FFF0003FFFFFF
310
FFC001FFFFFF80007000FFFFFFFFFE0000FFFE0008003FF0008001FFFF80007F
310
FFFFFFFFFC0000FFFFFFFFFFE0000FF8000001FFFE0000007FFFFFF0001FFFFF
310
F8000FFFFFFFF8000FF8000FFFFFFFF8000FFF0003FFFFFFFFFFFFFFFFFF0000
310
7000FFFFFFFFFC0000FFFC0008003FF0008001FFFF80007FFFFFFFFFF80001FF
310
FFFFFFFF80000FF8000001FFFE0000007FFFFFF0001FFFFFF8000FFFFFFFF800
310
0FF8000FFFFFFFF8000FFF0003FFFFFFFFFFFFFFFFFE0000F000FFFFFFFFE000
310
00FFFC000C003FE000C001FFFF80007FFFFFFFFFC00001FFFFFFFFFE00001FF8
310
000001FFFE0000007FFFFFF0001FFFFFF8000FFFFFFFF8000FF8000FFFFFFFF8
310
000FFF0003FFFFFFFFFFFFFFFFF00000F000FFFFFFFE000001FFFC000C001FE0
310
00C000FFFF80007FFFFFFFFE000001FFFFFFFFE000001FF80FFFFFFFFFFFFFC0
310
7FFFFFF0001FFFFFF8000FFFFFFFF8000FF8000FFFFFFFF8000FFF0003FFFFFF
310
FFFFFFFFFF800000F000FFFFFFC0000001FFFC001C001FE001C000FFFF80007F
310
FFFFFF80000003FFFFFFF80000001FF80FFFFFFFFFFFFFC07FFFFFF0001FFFFF
310
F8001FFFFFFFFC000FF8001FFFFFFFFC000FFF0003FFFFFFFFFFFFFFF0000001
310
F000FFFFF800000001FFF8001C001FE001C000FFFF80007FFFFFF800000003FF
310
FFFF800000003FF80FFFFFFFFFFFFFC07FFFFFF0001FFFFFF8001FFFFFFFFC00
310
0FF8001FFFFFFFFC000FFF0003FFFFFFFFFFFFFE00000001F000FFFFC0000000
310
03FFF8001E001FC001E000FFFF80007FFFFF8000000007FFFFFC000000003FF8
310
0FFFFFFFFFFFFFC07FFFFFF0001FFFFFF8001FFFFFFFFC000FF8001FFFFFFFFC
310
000FFF0003FFFFFFFFFFFFE000000003F000FFFE0000000007FFF8001E000FC0
310
01E0007FFF80007FFFFE0000000007FFFFE0000000007FF80FFFFFFFFFFFFFC0
310
7FFFFFF0001FFFFFF0001FFFFFFFFC0007F0001FFFFFFFFC0007FF0003FFFFFF
310
FFFFFF0000000003F000FFF80000000007FFF8001E000FC003E0007FFF80007F
310
FFF0000000000FFFFF8000000000FFF80FFFFFFFFFFFFFC07FFFFFF0001FFFFF
310
F0001FFFFFFFFC0007F0001FFFFFFFFC0007FF0003FFFFFFFFFFFC0000000007
310
F000FFE0000000000FFFF0003E000FC003E0007FFF80007FFFC0000000001FFF
310
FE0000000001FFF80FFFFFFFFFFFFFC07FFFFFF0001FFFFFF0001FFFFFFFFC00
310
07F0001FFFFFFFFC0007FF0003FFFFFFFFFFF0000000000FF000FFC000000000
310
1FFFF0003F000F8003F0003FFF80007FFF80000000003FFFF80000000003FFF8
310
0FFFFFFFFFFFFFC07FFFFFF0001FFFFFF0001FFFFFFFFC0007F0001FFFFFFFFC
310
0007FF0003FFFFFFFFFFE0000000001FF000FF00000000007FFFF0003F000780
310
03F0003FFF80007FFF00000000007FFFF00000000007FFF80FFFFFFFFFFFFFC0
310
7FFFFFF0001FFFFFF0001FFFFFFFFC0007F0001FFFFFFFFC0007FF0003FFFFFF
310
FFFF80000000007FF000FE0000000000FFFFE0003F00078007F0003FFF80007F
310
FE0000000001FFFFE0000000001FFFF80FFFFFFFFFFFFFC07FFFFFF0001FFFFF
310
F0001FFFFFFFFC0007F0001FFFFFFFFC0007FF0003FFFFFFFFFF0000000000FF
310
F000FC0000000003FFFFE0007F00078007F0003FFF80007FFC0000000007FFFF
310
C0000000007FFFF80FFFFFFFFFFFFFC07FFFFFF0001FFFFFF8001FFFFFFFFC00
310
0FF8001FFFFFFFFC000FFF0003FFFFFFFFFE0000000003FFF000FC000000000F
310
FFFFE0007F80070007F8001FFF80007FF8000000001FFFFF8000000001FFFFF8
310
0FFFFFFFFFFFFFC07FFFFFF0001FFFFFF8001FFFFFFFFC000FF8001FFFFFFFFC
310
000FFF0003FFFFFFFFFC000000000FFFF000F8000000007FFFFFE0007F800700
310
07F8001FFF80007FF000000000FFFFFF800000000FFFFFF80FFFFFFFFFFFFFC0
310
7FFFFFF0001FFFFFF8000FFFFFFFF8000FF8000FFFFFFFF8000FFF0003FFFFFF
310
FFFC000000007FFFF000F800000007FFFFFFC0007F8003000FF8001FFF80007F
310
F000000007FFFFFF000000007FFFFFF80FFFFFFFFFFFFFC07FFFFFF0001FFFFF
310
F8000FFFFFFFF8000FF8000FFFFFFFF8000FFF0003FFFFFFFFF80000000FFFFF
310
F000F0000000FFFFFFFFC000FF8003000FF8001FFF80007FE0000000FFFFFFFF
310
0000000FFFFFFFF8000001FFFE0000007FFFFFF0001FFFFFF8000FFFFFFFF800
310
0FF8000FFFFFFFF8000FFF0003FFFFFFFFF8000000FFFFFFF000F000000FFFFF
310
FFFFC000FFC002000FF8000FFF80007FE000001FFFFFFFFE000001FFFFFFFFF8
310
000001FFFE0000007FFFFFF0001FFFFFF8000FFFFFFFF8000FF8000FFFFFFFF8
310
000FFF0003FFFFFFFFF000001FFFFFFFF000E00000FFFFFFFFFFC000FFC00200
310
0FFC000FFF80007FE00001FFFFFFFFFE00001FFFFFFFFFF8000001FFFE000000
310
7FFFFFF0001FFFFFFC000FFFFFFFF8001FFC000FFFFFFFF8001FFF0003FFFFFF
310
FFF00001FFFFFFFFF000E00007FFFFFFFFFF8000FFC000001FFC000FFF80007F
310
C0000FFFFFFFFFFE0000FFFFFFFFFFF8000001FFFE0000007FFFFFF0001FFFFF
310
FC0007FFFFFFF0001FFC0007FFFFFFF0001FFF0003FFFFFFFFF00007FFFFFFFF
310
F000E0001FFFFFFFFFFF8000FFC000001FFC000FFF80007FC0003FFFFFFFFFFE
310
0001FFFFFFFFFFF8000001FFFE0000007FFFFFF0001FFFFFFC0007FFFFFFF000
310
1FFC0007FFFFFFF0001FFF0003FFFFFFFFF0001FFFFFFFFFF000E0003FFFFF00
310
03FF8001FFE000001FFC0007FF80007FC0007FFFFF0007FC0003FFFFF0003FF8
310
000001FFFE0000007FFFFFF0001FFFFFFC0003FFFFFFE0001FFC0003FFFFFFE0
310
001FFF0003FFFFFFFFF0003FFFFFFFFFF000E0003FFFFF0001FF8001FFE00000
310
1FFE0007FF80007FC0007FFFFE0003FC0007FFFFE0003FF8000001FFFE000000
310
7FFFFFF0001FFFFFFE0003FFFFFFE0003FFE0003FFFFFFE0003FFF0003FFFFFF
310
FFF0003FFFFF8001F000E0003FFFFF0001FF0001FFE000001FFE0007FF80007F
310
C0007FFFFE0003FC0007FFFFE0003FF8000001FFFE0000007FFFFFF0001FFFFF
310
FE0001FFFFFFC0003FFE0001FFFFFFC0003FFF0003FFFFFFFFF0003FFFFF0001
310
F000E0003FFFFF0003FF0001FFE000003FFE0007FF80007FC0007FFFFE0003FC
310
0007FFFFE0003FF8000001FFFE0000007FFFFFF0001FFFFFFF0001FFFFFFC000
310
7FFF0001FFFFFFC0007FFF0003FFFFFFFFF0003FFFFF0001F000E0003FFFFE00
310
03FF0003FFF000003FFE0003FF80007FC0007FFFFC0003FE0007FFFFE0003FF8
310
000001FFFE0000007FFFFFF0001FFFFFFF0000FFFFFF80007FFF0000FFFFFF80
310
007FFF0003FFFFFFFFF0003FFFFF0001F000E0003FFFFE0003FF0003FFF00000
310
3FFF0003FF80007FC0007FFFFC0007FE0007FFFFC0003FF8000001FFFE000000
310
7FFFFFF0001FFFFFFF80007FFFFF0000FFFF80007FFFFF0000FFFF0003FFFFFF
310
FFF0003FFFFF0003F000E0003FFFFC0003FE0003FFF000003FFF0003FF80007F
310
E0003FFFF80007FE0003FFFFC0007FF8000001FFFE0000007FFFFFF0001FFFFF
310
FF80003FFFFE0000FFFF80003FFFFE0000FFFF0003FFFFFFFFF0001FFFFE0003
310
F000F0001FFFF80003FE0003FFF000007FFF0001FF80007FE0003FFFF00007FE
310
0001FFFF80007FF8000001FFFE0000007FFFFFF0001FFFFFFFC0000FFFF80001
310
FFFFC0000FFFF80001FFFF0003FFFFFFFFF0001FFFFC0003F000F0000FFFF000
310
07FE0007FFF800007FFF0001FF80007FE0001FFFE00007FF0000FFFE00007FF8
310
000001FFFE0000007FFFFFF0001FFFFFFFC00003FFE00001FFFFC00003FFE000
310
01FFFF0003FFFFFFFFF8000FFFF80003F000F00003FFC00007FC0007FFF80000
310
7FFF8001FF80007FF00007FF80000FFF00007FF80000FFF8000001FFFE000000
310
7F80000000000001FFE000003E000003FFFFE000003E000003FFFF0003FFFFFF
310
FFF80003FFE00007F000F800000000000FFC0007FFF800007FFF8001FF80007F
310
F000000000000FFF000000000000FFF8000001FFFE0000007F80000000000001
310
FFF0000000000007FFFFF0000000000007FFFF0003FFFFFFFFFC00007E000007
310
F000F800000000000FFC0007FFF80000FFFF8000FF80007FF800000000001FFF
310
800000000001FFF8000001FFFE0000007F80000000000001FFF800000000000F
310
FFFFF800000000000FFFFF0003FFFFFFFFFC00000000000FF000FC0000000000
310
1FFC0007FFFC0000FFFF8000FF80007FF800000000003FFFC00000000001FFF8
310
000001FFFE0000007F80000000000001FFF800000000000FFFFFF80000000000
310
0FFFFF0003FFFFFFFFFE00000000001FF000FE00000000003FF8000FFFFC0000
310
FFFF8000FF80007FFC00000000003FFFC00000000003FFF8000001FFFE000000
310
7F80000000000001FFFC00000000001FFFFFFC00000000001FFFFF0003FFFFFF
310
FFFF00000000001FF000FF00000000003FF8000FFFFC0000FFFFC000FF80007F
310
FE00000000007FFFE00000000007FFF8000001FFFE0000007F80000000000001
310
FFFE00000000003FFFFFFE00000000003FFFFF0003FFFFFFFFFF80000000003F
310
F000FF80000000007FF8000FFFFC0001FFFFC0007F80007FFF0000000000FFFF
310
F0000000000FFFF800000000000000007F80000000000001FFFF8000000000FF
310
FFFFFF8000000000FFFFFF0003FFFFFFFFFFC0000000007FF000FFC000000000
310
FFF8000FFFFE0001FFFFC0007F80007FFF8000000001FFFFF8000000001FFFF8
310
00000000000000007F80000000000001FFFFC000000001FFFFFFFFC000000001
310
FFFFFF0003FFFFFFFFFFE000000000FFF000FFE000000003FFF0001FFFFE0001
310
FFFFC0007F80007FFFC000000007FFFFFE000000003FFFF80000000000000000
310
7F80000000000001FFFFE000000003FFFFFFFFE000000003FFFFFF0003FFFFFF
310
FFFFF000000003FFF000FFF80000000FFFF0001FFFFE0001FFFFE0007F80007F
310
FFF00000000FFFFFFF00000000FFFFF800000000000000007F80000000000001
310
FFFFF80000000FFFFFFFFFF80000000FFFFFFF0003FFFFFFFFFFFC0000000FFF
310
F000FFFE0000003FFFF0001FFFFE0003FFFFE0003F80007FFFFC0000003FFFFF
310
FFC0000003FFFFF800000000000000007F80000000000001FFFFFE0000003FFF
310
FFFFFFFE0000003FFFFFFF0003FFFFFFFFFFFF0000003FFFF000FFFF800000FF
310
FFF0001FFFFF0003FFFFE0003F80007FFFFF000001FFFFFFFFF800001FFFFFF8
310
00000000000000007F80000000000001FFFFFFC00001FFFFFFFFFFFFC00001FF
310
FFFFFF0003FFFFFFFFFFFFC00000FFFFF000FFFFF8000FFFFFFFFFFFFFFFFFFF
310
FFFFFFFFFFFFFFFFFFFFF0001FFFFFFFFFFF0000FFFFFFF80000000000000000
310
7FFFFFFFFFFFFFFFFFFFFFFC001FFFFFFFFFFFFFFC001FFFFFFFFFFFFFFFFFFF
310
FFFFFFFC001FFFFFF000FFFFFFFFFFFFFFFFFFFFFFFFFFFFFFFFFFFFFFFFFFFF
310
FFFFFFFFFFFFFFFFFFFFFFFFFFFFFFFFFFFFFFFFFFFFFFFFFFFFFFFFFFFFFFFF
310
FFFFFFFFFFFFFFFFFFFFFFFFFFFFFFFFFFFFFFFFFFFFFFFFFFFFFFFFFFFFFFFF
310
F000FFFFFFFFFFFFFFFFFFFFFFFFFFFFFFFFFFFFFFFFFFFFFFFFFFFFFFFFFFFF
310
FFFFFFFFFFFFFFFFFFFFFFFFFFFFFFFFFFFFFFFFFFFFFFFFFFFFFFFFFFFFFFFF
310
FFFFFFFFFFFFFFFFFFFFFFFFFFFFFFFFFFFFFFFFFFFFFFFFF000FFFFFFFFFFFF
310
FFFFFFFFFFFFFFFFFFFFFFFFFFFFFFFFFFFFFFFFFFFFFFFFFFFFFFFFFFFFFFFF
310
FFFFFFFFFFFFFFFFFFFFFFFFFFFFFFFFFFFFFFFFFFFFFFFFFFFFFFFFFFFFFFFF
310
FFFFFFFFFFFFFFFFFFFFFFFFFFFFFFFFF000FFFFFFFFFFFFFFFFFFFFFFFFFFFF
310
FFFFFFFFFFFFFFFFFFFFFFFFFFFFFFFFFFFFFFFFFFFFFFFFFFFFFFFFFFFFFFFF
310
FFFFFFFFFFFFFFFFFFFFFFFFFFFFFFFFFFFFFFFFFFFFFFFFFFFFFFFFFFFFFFFF
310
FFFFFFFFFFFFFFFFF000FFFFFFFFFFFFFFFFFFFFFFFFFFFFFFFFFFFFFFFFFFFF
310
FFFFFFFFFFFFFFFFFFFFFFFFFFFFFFFFFFFFFFFFFFFFFFFFFFFFFFFFFFFFFFFF
310
FFFFFFFFFFFFFFFFFFFFFFFFFFFFFFFFFFFFFFFFFFFFFFFFFFFFFFFFFFFFFFFF
310
F000FFFFFFFFFFFFFFFFFFFFFFFFFFFFFFFFFFFFFFFFFFFFFFFFFFFFFFFFFFFF
310
FFFFFFFFFFFFFFFFFFFFFFFFFFFFFFFFFFFFFFFFFFFFFFFFFFFFFFFFFFFFFFFF
310
FFFFFFFFFFFFFFFFFFFFFFFFFFFFFFFFFFFFFFFFFFFFFFFFF000FFFFFFFFFFFF
310
FFFFFFFFFFFFFFFFFFFFFFFFFFFFFFFFFFFFFFFFFFFFFFFFFFFFFFFFFFFFFFFF
310
FFFFFFFFFFFFFFFFFFFFFFFFFFFFFFFFFFFFFFFFFFFFFFFFFFFFFFFFFFFFFFFF
310
FFFFFFFFFFFFFFFFFFFFFFFFFFFFFFFFF000FFFFFFFFFFFFFFFFFFFFFFFFFFFF
310
FFFFFFFFFFFFFFFFFFFFFFFFFFFFFFFFFFFFFFFFFFFFFFFFFFFFFFFFFFFFFFFF
310
FFFFFFFFFFFFFFFFFFFFFFFFFFFFFFFFFFFFFFFFFFFFFFFFFFFFFFFFFFFFFFFF
310
FFFFFFFFFFFFFFFFF000FFFFFFFFFFFFFFFFFFFFFFFFFFFFFFFFFFFFFFFFFFFF
310
FFFFFFFFFFFFFFFFFFFFFFFFFFFFFFFFFFFFFFFFFFFFFFFFFFFFFFFFFFFFFFFF
310
FFFFFFFFFFFFFFFFFFFFFFFFFFFFFFFFFFFFFFFFFFFFFFFFFFFFFFFFFFFFFFFF
310
F000FFFFFFFFFFFFFFFFFFFFFFFFFFFFFFFFFFFFFFFFFFFFFFFFFFFFFFFFFFFF
310
FFFFFFFFFFFFFFFFFFFFFFFFFFFFFFFFFFFFFFFFFFFFFFFFFFFFFFFFFFFFFFFF
310
FFFFFFFFFFFFFFFFFFFFFFFFFFFFFFFFFFFFFFFFFFFFFFFFF000FFFFFFFFFFFF
310
FFFFFFFFFFFFFFFFFFFFFFFFFFFFFFFFFFFFFFFFFFFFFFFFFFFFFFFFFFFFFFFF
310
FFFFFFFFFFFFFFFFFFFFFFFFFFFFFFFFFFFFFFFFFFFFFFFFFFFFFFFFFFFFFFFF
310
FFFFFFFFFFFFFFFFFFFFFFFFFFFFFFFFF000FFFFFFFFFFFFFFFFFFFFFFFFFFFF
310
FFFFFFFFFFFFFFFFFFFFFFFFFFFFFFFFFFFFFFFFFFFFFFFFFFFFFFFFFFFFFFFF
310
FFFFFFFFFFFFFFFFFFFFFFFFFFFFFFFFFFFFFFFFFFFFFFFFFFFFFFFFFFFFFFFF
310
FFFFFFFFFFFFFFFFF000FFFFFFFFFFFFFFFFFFFFFFFFFFFFFFFFFFFFFFFFFFFF
310
FFFFFFFFFFFFFFFFFFFFFFFFFFFFFFFFFFFFFFFFFFFFFFFFFFFFFFFFFFFFFFFF
310
FFFFFFFFFFFFFFFFFFFFFFFFFFFFFFFFFFFFFFFFFFFFFFFFFFFFFFFFFFFFFFFF
310
F000FFFFFFFFFFFFFFFFFFFFFFFFFFFFFFFFFFFFFFFFFFFFFFFFFFFFFFFFFFFF
310
FFFFFFFFFFFFFFFFFFFFFFFFFFFFFFFFFFFFFFFFFFFFFFFFFFFFFFFFFFFFFFFF
310
FFFFFFFFFFFFFFFFFFFFFFFFFFFFFFFFFFFFFFFFFFFFFFFFF000FFFFFFFFFFFF
310
FFFFFFFFFFFFFFFFFFFFFFFFFFFFFFFFFFFFFFFFFFFFFFFFFFFFFFFFFFFFFFFF
310
FFFFFFFFFFFFFFFFFFFFFFFFFFFFFFFFFFFFFFFFFFFFFFFFFFFFFFFFFFFFFFFF
310
FFFFFFFFFFFFFFFFFFFFFFFFFFFFFFFFF000FFFFFFFFFFFFFFFFFFFFFFFFFFFF
310
FFFFFFFFFFFFFFFFFFFFFFFFFFFFFFFFFFFFFFFFFFFFFFFFFFFFFFFFFFFFFFFF
310
FFFFFFFFFFFFFFFFFFFFFFFFFFFFFFFFFFFFFFFFFFFFFFFFFFFFFFFFFFFFFFFF
310
FFFFFFFFFFFFFFFFF000FFFFFFFFFFFFFFFFFFFFFFFFFFFFFFFFFFFFFFFFFFFF
310
FFFFFFFFFFFFFFFFFFFFFFFFFFFFFFFFFFFFFFFFFFFFFFFFFFFFFFFFFFFFFFFF
310
FFFFFFFFFFFFFFFFFFFFFFFFFFFFFFFFFFFFFFFFFFFFFFFFFFFFFFFFFFFFFFFF
310
F000FFFFFFFFFFFFFFFFFFFFFFFFFFFFFFFFFFFFFFFFFFFFFFFFFFFFFFFFFFFF
310
FFFFFFFFFFFFFFFFFFFFFFFFFFFFFFFFFFFFFFFFFFFFFFFFFFFFFFFFFFFFFFFF
310
FFFFFFFFFFFFFFFFFFFFFFFFFFFFFFFFFFFFFFFFFFFFFFFFF000FFFFFFFFFFFF
310
FFFFFFFFFFFFFFFFFFFFFFFFFFFFFFFFFFFFFFFFFFFFFFFFFFFFFFFFFFFFFFFF
310
FFFFFFFFFFFFFFFFFFFFFFFFFFFFFFFFFFFFFFFFFFFFFFFFFFFFFFFFFFFFFFFF
310
FFFFFFFFFFFFFFFFFFFFFFFFFFFFFFFFF000FFFFFFFFFFFFFFFFFFFFFFFFFFFF
310
FFFFFFFFFFFFFFFFFFFFFFFFFFFFFFFFFFFFFFFFFFFFFFFFFFFFFFFFFFFFFFFF
310
FFFFFFFFFFFFFFFFFFFFFFFFFFFFFFFFFFFFFFFFFFFFFFFFFFFFFFFFFFFFFFFF
310
FFFFFFFFFFFFFFFFF000FFFFFFFFFFFFFFFFFFFFFFFFFFFFFFFFFFFFFFFFFFFF
310
FFFFFFFFFFFFFFFFFFFFFFFFFFFFFFFFFFFFFFFFFFFFFFFFFFFFFFFFFFFFFFFF
310
FFFFFFFFFFFFFFFFFFFFFFFFFFFFFFFFFFFFFFFFFFFFFFFFFFFFFFFFFFFFFFFF
310
F000FFFFFFFFFFFFFFFFFFFFFFFFFFFFFFFFFFFFFFFFFFFFFFFFFFFFFFFFFFFF
310
FFFFFFFFFFFFFFFFFFFFFFFFFFFFFFFFFFFFFFFFFFFFFFFFFFFFFFFFFFFFFFFF
310
FFFFFFFFFFFFFFFFFFFFFFFFFFFFFFFFFFFFFFFFFFFFFFFFF000FFFFFFFFFFFF
310
FFFFFFFFFFFFFFFFFFFFFFFFFFFFFFFFFFFFFFFFFFFFFFFFFFFFFFFFFFFFFFFF
310
FFFFFFFFFFFFFFFFFFFFFFFFFFFFFFFFFFFFFFFFFFFFFFFFFFFFFFFFFFFFFFFF
310
FFFFFFFFFFFFFFFFFFFFFFFFFFFFFFFFF0000000000000000000000000000000
310
00000000000000000000000042006C00610063006B0000000000000000000000
310
0000000000000000000000000000000000000000000000000000000000000000
310
0000000000000000000000000000FFFFFFFFFFFFFFFFFFFFFFFFFFFFFFFFFFFF
310
FFFFFFFFFFFFFFFFFFFFFFFFFFFFFFFFFFFFFFFFFFFFFFFFFFFFFFFFFFFFFFFF
310
FFFFFFFFFFFFFFFFFFFFFFFF6476000800000000FFFFFFFF20FF202026000000
310
1E00000008000000060000000000000011000000200000008403000000000000
310
6000000060000000200002FB200020000000002B00FFFFFF40002200E8030000
310
A80400001C020000AF0000804A20004000000000000000000100000000000000
310
616C000800000000E40100007001000002000000270000001100000000000000
310
00000000BC0200000000000003020122420065006C006C00200047006F007400
310
680069006300200053007400640020004C006900670068007400000000000000
310
00000000000000000000000000000000420065006C006C0047006F0074006800
310
690063005300740064002D0042006F006C006400000000000000000000000000
310
0000000000000000000000000000000000000000000000000000000000000000
310
0000000000000000000000000000000000000000000000000000000000000000
  1
OLE
  0
ENDSEC
  0
SECTION
  2
OBJECTS
  0
DICTIONARY
  5
C
330
0
100
AcDbDictionary
281
     1
  3
ACAD_GROUP
350
D
  3
ACAD_LAYOUT
350
1A
  3
ACAD_MLEADERSTYLE
350
1B8
  3
ACAD_MLINESTYLE
350
17
  3
ACAD_PLOTSETTINGS
350
19
  3
ACAD_PLOTSTYLENAME
350
E
  3
ACAD_TABLESTYLE
350
1B7
  3
ACAD_VISUALSTYLE
350
2A
  3
AcDbVariableDictionary
350
1B9
  0
DICTIONARY
  5
D
102
{ACAD_REACTORS
330
C
102
}
330
C
100
AcDbDictionary
281
     1
  0
DICTIONARY
  5
1A
102
{ACAD_REACTORS
330
C
102
}
330
C
100
AcDbDictionary
281
     1
  3
Layout1
350
1E
  3
Layout2
350
26
  3
Model
350
22
  0
DICTIONARY
  5
1B8
102
{ACAD_REACTORS
330
C
102
}
330
C
100
AcDbDictionary
281
     1
  0
DICTIONARY
  5
17
102
{ACAD_REACTORS
330
C
102
}
330
C
100
AcDbDictionary
281
     1
  3
Standard
350
18
  0
DICTIONARY
  5
19
102
{ACAD_REACTORS
330
C
102
}
330
C
100
AcDbDictionary
281
     1
  0
ACDBDICTIONARYWDFLT
  5
E
102
{ACAD_REACTORS
330
C
102
}
330
C
100
AcDbDictionary
281
     1
  3
Normal
350
F
100
AcDbDictionaryWithDefault
340
F
  0
DICTIONARY
  5
1B7
102
{ACAD_REACTORS
330
C
102
}
330
C
100
AcDbDictionary
281
     1
  0
DICTIONARY
  5
2A
102
{ACAD_REACTORS
330
C
102
}
330
C
100
AcDbDictionary
281
     1
  3
2dWireframe
350
2F
  3
3D Hidden
350
31
  3
3dWireframe
350
30
  3
Basic
350
32
  3
Brighten
350
36
  3
ColorChange
350
3A
  3
Conceptual
350
34
  3
Dim
350
35
  3
Facepattern
350
39
  3
Flat
350
2B
  3
FlatWithEdges
350
2C
  3
Gouraud
350
2D
  3
GouraudWithEdges
350
2E
  3
Linepattern
350
38
  3
Realistic
350
33
  3
Thicken
350
37
  0
DICTIONARY
  5
1B9
102
{ACAD_REACTORS
330
C
102
}
330
C
100
AcDbDictionary
281
     1
  3
PSOLHEIGHT
350
1BB
  3
PSOLWIDTH
350
1BA
  0
LAYOUT
  5
1E
102
{ACAD_REACTORS
330
1A
102
}
330
1A
100
AcDbPlotSettings
  1

  2
none_device
  4

  6

 40
0.0
 41
0.0
 42
0.0
 43
0.0
 44
0.0
 45
0.0
 46
0.0
 47
0.0
 48
0.0
 49
0.0
140
0.0
141
0.0
142
1.0
143
1.0
 70
   688
 72
     0
 73
     0
 74
     5
  7

 75
    16
147
1.0
148
0.0
149
0.0
100
AcDbLayout
  1
Layout1
 70
     1
 71
     1
 10
0.0
 20
0.0
 11
420.0
 21
297.0
 12
0.0
 22
0.0
 32
0.0
 14
1.0000000000E+20
 24
1.0000000000E+20
 34
1.0000000000E+20
 15
-1.0000000000E+20
 25
-1.0000000000E+20
 35
-1.0000000000E+20
146
0.0
 13
0.0
 23
0.0
 33
0.0
 16
1.0
 26
0.0
 36
0.0
 17
0.0
 27
1.0
 37
0.0
 76
     0
330
1B
  0
LAYOUT
  5
26
102
{ACAD_REACTORS
330
1A
102
}
330
1A
100
AcDbPlotSettings
  1

  2
none_device
  4

  6

 40
0.0
 41
0.0
 42
0.0
 43
0.0
 44
0.0
 45
0.0
 46
0.0
 47
0.0
 48
0.0
 49
0.0
140
0.0
141
0.0
142
1.0
143
1.0
 70
   688
 72
     0
 73
     0
 74
     5
  7

 75
    16
147
1.0
148
0.0
149
0.0
100
AcDbLayout
  1
Layout2
 70
     1
 71
     2
 10
0.0
 20
0.0
 11
0.0
 21
0.0
 12
0.0
 22
0.0
 32
0.0
 14
0.0
 24
0.0
 34
0.0
 15
0.0
 25
0.0
 35
0.0
146
0.0
 13
0.0
 23
0.0
 33
0.0
 16
1.0
 26
0.0
 36
0.0
 17
0.0
 27
1.0
 37
0.0
 76
     0
330
23
  0
LAYOUT
  5
22
102
{ACAD_REACTORS
330
1A
102
}
330
1A
100
AcDbPlotSettings
  1

  2
none_device
  4

  6

 40
0.0
 41
0.0
 42
0.0
 43
0.0
 44
0.0
 45
0.0
 46
0.0
 47
0.0
 48
0.0
 49
0.0
140
0.0
141
0.0
142
1.0
143
1.0
 70
  1712
 72
     0
 73
     0
 74
     0
  7

 75
     0
147
1.0
148
0.0
149
0.0
100
AcDbLayout
  1
Model
 70
     1
 71
     0
 10
0.0
 20
0.0
 11
297.0
 21
210.0
 12
0.0
 22
0.0
 32
0.0
 14
0.0
 24
0.0
 34
0.0
 15
297.0
 25
210.0
 35
0.0
146
0.0
 13
0.0
 23
0.0
 33
0.0
 16
1.0
 26
0.0
 36
0.0
 17
0.0
 27
1.0
 37
0.0
 76
     0
330
1F
331
29
  0
MLINESTYLE
  5
18
102
{ACAD_REACTORS
330
17
102
}
330
17
100
AcDbMlineStyle
  2
Standard
 70
     0
  3

 62
   256
 51
90.0
 52
90.0
 71
     2
 49
0.5
 62
   256
  6
BYLAYER
 49
-0.5
 62
   256
  6
BYLAYER
  0
ACDBPLACEHOLDER
  5
F
102
{ACAD_REACTORS
330
E
102
}
330
E
  0
VISUALSTYLE
  5
2F
102
{ACAD_REACTORS
330
2A
102
}
330
2A
100
AcDbVisualStyle
  2
2dWireframe
 70
     4
 71
     0
 72
     2
 73
     0
 90
        0
 40
-0.6
 41
-30.0
 62
     5
 63
     7
 74
     1
 91
        4
 64
     7
 65
   257
 75
     1
175
     1
 42
1.0
 92
        0
 66
   257
 43
1.0
 76
     1
 77
     6
 78
     2
 67
     7
 79
     5
170
     0
171
     0
290
     0
174
     0
 93
        1
 44
0.0
173
     0
291
     0
 45
0.0
1001
ACAD
1000
AcDbSavedByObjectVersion
1070
     0
  0
VISUALSTYLE
  5
31
102
{ACAD_REACTORS
330
2A
102
}
330
2A
100
AcDbVisualStyle
  2
3D Hidden
 70
     6
 71
     1
 72
     2
 73
     2
 90
        0
 40
-0.6
 41
-30.0
 62
     5
 63
     7
 74
     2
 91
        2
 64
     7
 65
   257
 75
     2
175
     1
 42
40.0
 92
        0
 66
   257
 43
1.0
 76
     1
 77
     6
 78
     2
 67
     7
 79
     3
170
     0
171
     0
290
     0
174
     0
 93
        1
 44
0.0
173
     0
291
     0
 45
0.0
1001
ACAD
1000
AcDbSavedByObjectVersion
1070
     0
  0
VISUALSTYLE
  5
30
102
{ACAD_REACTORS
330
2A
102
}
330
2A
100
AcDbVisualStyle
  2
3dWireframe
 70
     5
 71
     0
 72
     2
 73
     0
 90
        0
 40
-0.6
 41
-30.0
 62
     5
 63
     7
 74
     1
 91
        4
 64
     7
 65
   257
 75
     1
175
     1
 42
1.0
 92
        0
 66
   257
 43
1.0
 76
     1
 77
     6
 78
     2
 67
     7
 79
     5
170
     0
171
     0
290
     0
174
     0
 93
        1
 44
0.0
173
     0
291
     0
 45
0.0
1001
ACAD
1000
AcDbSavedByObjectVersion
1070
     0
  0
VISUALSTYLE
  5
32
102
{ACAD_REACTORS
330
2A
102
}
330
2A
100
AcDbVisualStyle
  2
Basic
 70
     7
 71
     1
 72
     0
 73
     1
 90
        0
 40
-0.6
 41
-30.0
 62
     5
 63
     7
 74
     0
 91
        4
 64
     7
 65
   257
 75
     1
175
     1
 42
1.0
 92
        8
 66
     7
 43
1.0
 76
     1
 77
     6
 78
     2
 67
     7
 79
     5
170
     0
171
     0
290
     0
174
     0
 93
        1
 44
0.0
173
     0
291
     1
 45
0.0
1001
ACAD
1000
AcDbSavedByObjectVersion
1070
     0
  0
VISUALSTYLE
  5
36
102
{ACAD_REACTORS
330
2A
102
}
330
2A
100
AcDbVisualStyle
  2
Brighten
 70
    12
 71
     2
 72
     2
 73
     0
 90
        0
 40
-0.6
 41
-30.0
 62
     5
 63
     7
 74
     1
 91
        4
 64
     7
 65
   257
 75
     1
175
     1
 42
1.0
 92
        8
 66
     7
 43
1.0
 76
     1
 77
     6
 78
     2
 67
     7
 79
     5
170
     0
171
     0
290
     0
174
     0
 93
        1
 44
50.0
173
     0
291
     1
 45
0.0
1001
ACAD
1000
AcDbSavedByObjectVersion
1070
     0
  0
VISUALSTYLE
  5
3A
102
{ACAD_REACTORS
330
2A
102
}
330
2A
100
AcDbVisualStyle
  2
ColorChange
 70
    16
 71
     2
 72
     2
 73
     3
 90
        0
 40
-0.6
 41
-30.0
 62
     5
 63
     8
 74
     1
 91
        4
 64
     7
 65
   257
 75
     1
175
     1
 42
1.0
 92
        8
 66
     8
 43
1.0
 76
     1
 77
     6
 78
     2
 67
     7
 79
     5
170
     0
171
     0
290
     0
174
     0
 93
        1
 44
0.0
173
     0
291
     1
 45
0.0
1001
ACAD
1000
AcDbSavedByObjectVersion
1070
     0
  0
VISUALSTYLE
  5
34
102
{ACAD_REACTORS
330
2A
102
}
330
2A
100
AcDbVisualStyle
  2
Conceptual
 70
     9
 71
     3
 72
     2
 73
     0
 90
        0
 40
-0.6
 41
-30.0
 62
     5
 63
     7
 74
     2
 91
        2
 64
     7
 65
   257
 75
     1
175
     1
 42
40.0
 92
        8
 66
     7
 43
1.0
 76
     1
 77
     6
 78
     2
 67
     7
 79
     3
170
     0
171
     0
290
     0
174
     0
 93
        1
 44
0.0
173
     0
291
     0
 45
0.0
1001
ACAD
1000
AcDbSavedByObjectVersion
1070
     0
  0
VISUALSTYLE
  5
35
102
{ACAD_REACTORS
330
2A
102
}
330
2A
100
AcDbVisualStyle
  2
Dim
 70
    11
 71
     2
 72
     2
 73
     0
 90
        0
 40
-0.6
 41
-30.0
 62
     5
 63
     7
 74
     1
 91
        4
 64
     7
 65
   257
 75
     1
175
     1
 42
1.0
 92
        8
 66
     7
 43
1.0
 76
     1
 77
     6
 78
     2
 67
     7
 79
     5
170
     0
171
     0
290
     0
174
     0
 93
        1
 44
-50.0
173
     0
291
     1
 45
0.0
1001
ACAD
1000
AcDbSavedByObjectVersion
1070
     0
  0
VISUALSTYLE
  5
39
102
{ACAD_REACTORS
330
2A
102
}
330
2A
100
AcDbVisualStyle
  2
Facepattern
 70
    15
 71
     2
 72
     2
 73
     0
 90
        0
 40
-0.6
 41
-30.0
 62
     5
 63
     7
 74
     1
 91
        4
 64
     7
 65
   257
 75
     1
175
     1
 42
1.0
 92
        8
 66
     7
 43
1.0
 76
     1
 77
     6
 78
     2
 67
     7
 79
     5
170
     0
171
     0
290
     0
174
     0
 93
        1
 44
0.0
173
     0
291
     1
 45
0.0
1001
ACAD
1000
AcDbSavedByObjectVersion
1070
     0
  0
VISUALSTYLE
  5
2B
102
{ACAD_REACTORS
330
2A
102
}
330
2A
100
AcDbVisualStyle
  2
Flat
 70
     0
 71
     2
 72
     1
 73
     1
 90
        2
 40
-0.6
 41
30.0
 62
     5
 63
     7
 74
     0
 91
        4
 64
     7
 65
   257
 75
     1
175
     1
 42
1.0
 92
        8
 66
     7
 43
1.0
 76
     1
 77
     6
 78
     2
 67
     7
 79
     5
170
     0
171
     0
290
     0
174
     0
 93
       13
 44
0.0
173
     0
291
     1
 45
0.0
1001
ACAD
1000
AcDbSavedByObjectVersion
1070
     0
  0
VISUALSTYLE
  5
2C
102
{ACAD_REACTORS
330
2A
102
}
330
2A
100
AcDbVisualStyle
  2
FlatWithEdges
 70
     1
 71
     2
 72
     1
 73
     1
 90
        2
 40
-0.6
 41
30.0
 62
     5
 63
     7
 74
     1
 91
        4
 64
     7
 65
   257
 75
     1
175
     1
 42
1.0
 92
        0
 66
   257
 43
1.0
 76
     1
 77
     6
 78
     2
 67
     7
 79
     5
170
     0
171
     0
290
     0
174
     0
 93
       13
 44
0.0
173
     0
291
     1
 45
0.0
1001
ACAD
1000
AcDbSavedByObjectVersion
1070
     0
  0
VISUALSTYLE
  5
2D
102
{ACAD_REACTORS
330
2A
102
}
330
2A
100
AcDbVisualStyle
  2
Gouraud
 70
     2
 71
     2
 72
     2
 73
     1
 90
        2
 40
-0.6
 41
30.0
 62
     5
 63
     7
 74
     0
 91
        4
 64
     7
 65
   257
 75
     1
175
     1
 42
1.0
 92
        0
 66
     7
 43
1.0
 76
     1
 77
     6
 78
     2
 67
     7
 79
     5
170
     0
171
     0
290
     0
174
     0
 93
       13
 44
0.0
173
     0
291
     1
 45
0.0
1001
ACAD
1000
AcDbSavedByObjectVersion
1070
     0
  0
VISUALSTYLE
  5
2E
102
{ACAD_REACTORS
330
2A
102
}
330
2A
100
AcDbVisualStyle
  2
GouraudWithEdges
 70
     3
 71
     2
 72
     2
 73
     1
 90
        2
 40
-0.6
 41
30.0
 62
     5
 63
     7
 74
     1
 91
        4
 64
     7
 65
   257
 75
     1
175
     1
 42
1.0
 92
        0
 66
   257
 43
1.0
 76
     1
 77
     6
 78
     2
 67
     7
 79
     5
170
     0
171
     0
290
     0
174
     0
 93
       13
 44
0.0
173
     0
291
     1
 45
0.0
1001
ACAD
1000
AcDbSavedByObjectVersion
1070
     0
  0
VISUALSTYLE
  5
38
102
{ACAD_REACTORS
330
2A
102
}
330
2A
100
AcDbVisualStyle
  2
Linepattern
 70
    14
 71
     2
 72
     2
 73
     0
 90
        0
 40
-0.6
 41
-30.0
 62
     5
 63
     7
 74
     1
 91
        4
 64
     7
 65
   257
 75
     7
175
     7
 42
1.0
 92
        8
 66
     7
 43
1.0
 76
     1
 77
     6
 78
     2
 67
     7
 79
     5
170
     0
171
     0
290
     0
174
     0
 93
        1
 44
0.0
173
     0
291
     1
 45
0.0
1001
ACAD
1000
AcDbSavedByObjectVersion
1070
     0
  0
VISUALSTYLE
  5
33
102
{ACAD_REACTORS
330
2A
102
}
330
2A
100
AcDbVisualStyle
  2
Realistic
 70
     8
 71
     2
 72
     2
 73
     0
 90
        0
 40
-0.6
 41
-30.0
 62
     5
 63
     7
 74
     1
 91
        0
 64
     7
 65
   257
 75
     1
175
     1
 42
1.0
 92
        8
 66
     8
 43
1.0
 76
     1
 77
     6
 78
     2
 67
     7
 79
     5
170
     0
171
     0
290
     0
174
     0
 93
       13
 44
0.0
173
     0
291
     0
 45
0.0
1001
ACAD
1000
AcDbSavedByObjectVersion
1070
     0
  0
VISUALSTYLE
  5
37
102
{ACAD_REACTORS
330
2A
102
}
330
2A
100
AcDbVisualStyle
  2
Thicken
 70
    13
 71
     2
 72
     2
 73
     0
 90
        0
 40
-0.6
 41
-30.0
 62
     5
 63
     7
 74
     1
 91
        4
 64
     7
 65
   257
 75
     1
175
     1
 42
1.0
 92
       12
 66
     7
 43
1.0
 76
     1
 77
     6
 78
     2
 67
     7
 79
     5
170
     0
171
     0
290
     0
174
     0
 93
        1
 44
0.0
173
     0
291
     1
 45
0.0
1001
ACAD
1000
AcDbSavedByObjectVersion
1070
     0
  0
DICTIONARYVAR
  5
1BB
102
{ACAD_REACTORS
330
1B9
102
}
330
1B9
100
DictionaryVariables
280
     0
  1
80.000000
  0
DICTIONARYVAR
  5
1BA
102
{ACAD_REACTORS
330
1B9
102
}
330
1B9
100
DictionaryVariables
280
     0
  1
5.000000
  0
ENDSEC
  0
EOF
