  0
SECTION
  2
HEADER
  9
$ACADVER
  1
AC1015
  9
$ACADMAINTVER
 70
     6
  9
$DWGCODEPAGE
  3
ANSI_1252
  9
$INSBASE
 10
0.0
 20
0.0
 30
0.0
  9
$EXTMIN
 10
0.0
 20
0.0
 30
0.0
  9
$EXTMAX
 10
297.0
 20
210.0
 30
0.0
  9
$LIMMIN
 10
0.0
 20
0.0
  9
$LIMMAX
 10
297.0
 20
210.0
  9
$ORTHOMODE
 70
     0
  9
$REGENMODE
 70
     1
  9
$FILLMODE
 70
     1
  9
$QTEXTMODE
 70
     0
  9
$MIRRTEXT
 70
     1
  9
$LTSCALE
 40
1.0
  9
$ATTMODE
 70
     1
  9
$TEXTSIZE
 40
2.0
  9
$TRACEWID
 40
1.0
  9
$TEXTSTYLE
  7
Standard
  9
$CLAYER
  8
0
  9
$CELTYPE
  6
ByLayer
  9
$CECOLOR
 62
   256
  9
$CELTSCALE
 40
1.0
  9
$DISPSILH
 70
     0
  9
$DIMSCALE
 40
1.0
  9
$DIMASZ
 40
3.0
  9
$DIMEXO
 40
0.0
  9
$DIMDLI
 40
3.75
  9
$DIMRND
 40
0.0
  9
$DIMDLE
 40
0.0
  9
$DIMEXE
 40
1.0
  9
$DIMTP
 40
0.0
  9
$DIMTM
 40
0.0
  9
$DIMTXT
 40
2.0
  9
$DIMCEN
 40
2.5
  9
$DIMTSZ
 40
0.0
  9
$DIMTOL
 70
     0
  9
$DIMLIM
 70
     0
  9
$DIMTIH
 70
     1
  9
$DIMTOH
 70
     1
  9
$DIMSE1
 70
     0
  9
$DIMSE2
 70
     0
  9
$DIMTAD
 70
     1
  9
$DIMZIN
 70
     0
  9
$DIMBLK
  1

  9
$DIMASO
 70
     1
  9
$DIMSHO
 70
     1
  9
$DIMPOST
  1

  9
$DIMAPOST
  1

  9
$DIMALT
 70
     0
  9
$DIMALTD
 70
     3
  9
$DIMALTF
 40
0.0393700787
  9
$DIMLFAC
 40
1.0
  9
$DIMTOFL
 70
     1
  9
$DIMTVP
 40
0.0
  9
$DIMTIX
 70
     0
  9
$DIMSOXD
 70
     0
  9
$DIMSAH
 70
     0
  9
$DIMBLK1
  1

  9
$DIMBLK2
  1

  9
$DIMSTYLE
  2
ISO-25
  9
$DIMCLRD
 70
     0
  9
$DIMCLRE
 70
     0
  9
$DIMCLRT
 70
     0
  9
$DIMTFAC
 40
1.0
  9
$DIMGAP
 40
1.524
  9
$DIMJUST
 70
     0
  9
$DIMSD1
 70
     0
  9
$DIMSD2
 70
     0
  9
$DIMTOLJ
 70
     0
  9
$DIMTZIN
 70
     0
  9
$DIMALTZ
 70
     0
  9
$DIMALTTZ
 70
     0
  9
$DIMUPT
 70
     0
  9
$DIMDEC
 70
     2
  9
$DIMTDEC
 70
     3
  9
$DIMALTU
 70
     2
  9
$DIMALTTD
 70
     3
  9
$DIMTXSTY
  7
Standard
  9
$DIMAUNIT
 70
     0
  9
$DIMADEC
 70
     2
  9
$DIMALTRND
 40
0.0
  9
$DIMAZIN
 70
     0
  9
$DIMDSEP
 70
    44
  9
$DIMATFIT
 70
     3
  9
$DIMFRAC
 70
     0
  9
$DIMLDRBLK
  1

  9
$DIMLUNIT
 70
     2
  9
$DIMLWD
 70
    -2
  9
$DIMLWE
 70
    -2
  9
$DIMTMOVE
 70
     0
  9
$LUNITS
 70
     2
  9
$LUPREC
 70
     2
  9
$SKETCHINC
 40
1.0
  9
$FILLETRAD
 40
10.0
  9
$AUNITS
 70
     0
  9
$AUPREC
 70
     2
  9
$MENU
  1
.
  9
$ELEVATION
 40
0.0
  9
$PELEVATION
 40
0.0
  9
$THICKNESS
 40
0.0
  9
$LIMCHECK
 70
     0
  9
$CHAMFERA
 40
10.0
  9
$CHAMFERB
 40
10.0
  9
$CHAMFERC
 40
20.0
  9
$CHAMFERD
 40
0.0
  9
$SKPOLY
 70
     0
  9
$TDCREATE
 40
2455679.488255695
  9
$TDUCREATE
 40
2455679.404922361
  9
$TDUPDATE
 40
2455679.488255706
  9
$TDUUPDATE
 40
2455679.404922373
  9
$TDINDWG
 40
0.0000000116
  9
$TDUSRTIMER
 40
0.0000000116
  9
$USRTIMER
 70
     1
  9
$ANGBASE
 50
0.0
  9
$ANGDIR
 70
     0
  9
$PDMODE
 70
     0
  9
$PDSIZE
 40
-1.0
  9
$PLINEWID
 40
0.0
  9
$SPLFRAME
 70
     0
  9
$SPLINETYPE
 70
     6
  9
$SPLINESEGS
 70
     8
  9
$HANDSEED
  5
210
  9
$SURFTAB1
 70
     6
  9
$SURFTAB2
 70
     6
  9
$SURFTYPE
 70
     6
  9
$SURFU
 70
     6
  9
$SURFV
 70
     6
  9
$UCSBASE
  2

  9
$UCSNAME
  2

  9
$UCSORG
 10
0.0
 20
0.0
 30
0.0
  9
$UCSXDIR
 10
1.0
 20
0.0
 30
0.0
  9
$UCSYDIR
 10
0.0
 20
1.0
 30
0.0
  9
$UCSORTHOREF
  2

  9
$UCSORTHOVIEW
 70
     0
  9
$UCSORGTOP
 10
0.0
 20
0.0
 30
0.0
  9
$UCSORGBOTTOM
 10
0.0
 20
0.0
 30
0.0
  9
$UCSORGLEFT
 10
0.0
 20
0.0
 30
0.0
  9
$UCSORGRIGHT
 10
0.0
 20
0.0
 30
0.0
  9
$UCSORGFRONT
 10
0.0
 20
0.0
 30
0.0
  9
$UCSORGBACK
 10
0.0
 20
0.0
 30
0.0
  9
$PUCSBASE
  2

  9
$PUCSNAME
  2

  9
$PUCSORG
 10
0.0
 20
0.0
 30
0.0
  9
$PUCSXDIR
 10
1.0
 20
0.0
 30
0.0
  9
$PUCSYDIR
 10
0.0
 20
1.0
 30
0.0
  9
$PUCSORTHOREF
  2

  9
$PUCSORTHOVIEW
 70
     0
  9
$PUCSORGTOP
 10
0.0
 20
0.0
 30
0.0
  9
$PUCSORGBOTTOM
 10
0.0
 20
0.0
 30
0.0
  9
$PUCSORGLEFT
 10
0.0
 20
0.0
 30
0.0
  9
$PUCSORGRIGHT
 10
0.0
 20
0.0
 30
0.0
  9
$PUCSORGFRONT
 10
0.0
 20
0.0
 30
0.0
  9
$PUCSORGBACK
 10
0.0
 20
0.0
 30
0.0
  9
$USERI1
 70
     0
  9
$USERI2
 70
     0
  9
$USERI3
 70
     0
  9
$USERI4
 70
     0
  9
$USERI5
 70
     0
  9
$USERR1
 40
0.0
  9
$USERR2
 40
0.0
  9
$USERR3
 40
0.0
  9
$USERR4
 40
0.0
  9
$USERR5
 40
0.0
  9
$WORLDVIEW
 70
     1
  9
$SHADEDGE
 70
     3
  9
$SHADEDIF
 70
    70
  9
$TILEMODE
 70
     1
  9
$MAXACTVP
 70
    64
  9
$PINSBASE
 10
0.0
 20
0.0
 30
0.0
  9
$PLIMCHECK
 70
     0
  9
$PEXTMIN
 10
1.0000000000E+20
 20
1.0000000000E+20
 30
1.0000000000E+20
  9
$PEXTMAX
 10
-1.0000000000E+20
 20
-1.0000000000E+20
 30
-1.0000000000E+20
  9
$PLIMMIN
 10
0.0
 20
0.0
  9
$PLIMMAX
 10
420.0
 20
297.0
  9
$UNITMODE
 70
     0
  9
$VISRETAIN
 70
     1
  9
$PLINEGEN
 70
     0
  9
$PSLTSCALE
 70
     1
  9
$TREEDEPTH
 70
  3020
  9
$CMLSTYLE
  2
Standard
  9
$CMLJUST
 70
     0
  9
$CMLSCALE
 40
20.0
  9
$PROXYGRAPHICS
 70
     1
  9
$MEASUREMENT
 70
     1
  9
$CELWEIGHT
370
    -1
  9
$ENDCAPS
280
     0
  9
$JOINSTYLE
280
     0
  9
$LWDISPLAY
290
     1
  9
$INSUNITS
 70
     4
  9
$HYPERLINKBASE
  1

  9
$STYLESHEET
  1

  9
$XEDIT
290
     1
  9
$CEPSNTYPE
380
     0
  9
$PSTYLEMODE
290
     1
  9
$FINGERPRINTGUID
  2
{2945FF4D-7016-43BA-9724-55E2750ACDE3}
  9
$VERSIONGUID
  2
{FAEB1C32-E019-11D5-929B-00C0DF256EC4}
  9
$EXTNAMES
290
     1
  9
$PSVPSCALE
 40
0.0
  9
$OLESTARTUP
290
     0
  0
ENDSEC
  0
SECTION
  2
CLASSES
  0
CLASS
  1
ACDBDICTIONARYWDFLT
  2
AcDbDictionaryWithDefault
  3
ObjectDBX Classes
 90
        0
280
     0
281
     0
  0
CLASS
  1
VISUALSTYLE
  2
AcDbVisualStyle
  3
ObjectDBX Classes
 90
     4095
280
     0
281
     0
  0
CLASS
  1
DICTIONARYVAR
  2
AcDbDictionaryVar
  3
ObjectDBX Classes
 90
        0
280
     0
281
     0
  0
CLASS
  1
ACDBPLACEHOLDER
  2
AcDbPlaceHolder
  3
ObjectDBX Classes
 90
        0
280
     0
281
     0
  0
CLASS
  1
LAYOUT
  2
AcDbLayout
  3
ObjectDBX Classes
 90
        0
280
     0
281
     0
  0
ENDSEC
  0
SECTION
  2
TABLES
  0
TABLE
  2
VPORT
  5
8
330
0
100
AcDbSymbolTable
 70
     1
  0
VPORT
  5
29
330
8
100
AcDbSymbolTableRecord
100
AcDbViewportTableRecord
  2
*Active
 70
     0
 10
0.0
 20
0.0
 11
1.0
 21
1.0
 12
148.5
 22
105.0
 13
0.0
 23
0.0
 14
10.0
 24
10.0
 15
10.0
 25
10.0
 16
0.0
 26
0.0
 36
1.0
 17
0.0
 27
0.0
 37
0.0
 40
210.0
 41
1.4142857143
 42
50.0
 43
0.0
 44
0.0
 50
0.0
 51
0.0
 71
     0
 72
  2000
 73
     1
 74
     3
 75
     0
 76
     0
 77
     0
 78
     0
281
     0
 65
     1
110
0.0
120
0.0
130
0.0
111
1.0
121
0.0
131
0.0
112
0.0
122
1.0
132
0.0
 79
     0
146
0.0
  0
ENDTAB
  0
TABLE
  2
LTYPE
  5
5
330
0
100
AcDbSymbolTable
 70
     6
  0
LTYPE
  5
14
330
5
100
AcDbSymbolTableRecord
100
AcDbLinetypeTableRecord
  2
ByBlock
 70
     0
  3

 72
    65
 73
     0
 40
0.0
  0
LTYPE
  5
15
330
5
100
AcDbSymbolTableRecord
100
AcDbLinetypeTableRecord
  2
ByLayer
 70
     0
  3

 72
    65
 73
     0
 40
0.0
  0
LTYPE
  5
16
330
5
100
AcDbSymbolTableRecord
100
AcDbLinetypeTableRecord
  2
Continuous
 70
     0
  3
Solid line
 72
    65
 73
     0
 40
0.0
  0
LTYPE
  5
3B
330
5
100
AcDbSymbolTableRecord
100
AcDbLinetypeTableRecord
  2
HIDDEN
 70
     0
  3
Hidden __ __ __ __ __ __ __ __ __ __ __ __ __ __
 72
    65
 73
     2
 40
1.905
 49
1.27
 74
     0
 49
-0.635
 74
     0
  0
LTYPE
  5
3C
330
5
100
AcDbSymbolTableRecord
100
AcDbLinetypeTableRecord
  2
PHANTOM
 70
     0
  3
Phantom ______  __  __  ______  __  __  ______
 72
    65
 73
     6
 40
12.7
 49
6.35
 74
     0
 49
-1.27
 74
     0
 49
1.27
 74
     0
 49
-1.27
 74
     0
 49
1.27
 74
     0
 49
-1.27
 74
     0
  0
LTYPE
  5
3D
330
5
100
AcDbSymbolTableRecord
100
AcDbLinetypeTableRecord
  2
CENTER
 70
     0
  3
Center ____ _ ____ _ ____ _ ____ _ ____ _ ____
 72
    65
 73
     4
 40
10.16
 49
6.35
 74
     0
 49
-1.27
 74
     0
 49
1.27
 74
     0
 49
-1.27
 74
     0
  0
LTYPE
  5
3E
330
5
100
AcDbSymbolTableRecord
100
AcDbLinetypeTableRecord
  2
CENTERX2
 70
     0
  3
Center (2x) ________  __  ________  __  _____
 72
    65
 73
     4
 40
20.32
 49
12.7
 74
     0
 49
-2.54
 74
     0
 49
2.54
 74
     0
 49
-2.54
 74
     0
  0
LTYPE
  5
3F
330
5
100
AcDbSymbolTableRecord
100
AcDbLinetypeTableRecord
  2
DOT2
 70
     0
  3
Dot (.5x) ........................................
 72
    65
 73
     2
 40
0.635
 49
0.0
 74
     0
 49
-0.635
 74
     0
  0
ENDTAB
  0
TABLE
  2
LAYER
  5
2
330
0
100
AcDbSymbolTable
 70
     5
  0
LAYER
  5
10
330
2
100
AcDbSymbolTableRecord
100
AcDbLayerTableRecord
  2
0
 70
     0
 62
     7
  6
Continuous
370
    -3
390
F
  0
LAYER
  5
40
330
2
100
AcDbSymbolTableRecord
100
AcDbLayerTableRecord
  2
FORMAT
 70
     0
 62
     7
  6
Continuous
370
    -3
390
F
  0
LAYER
  5
41
330
2
100
AcDbSymbolTableRecord
100
AcDbLayerTableRecord
  2
VERMASSUNG
 70
     0
 62
     7
  6
Continuous
370
    -3
390
F
  0
LAYER
  5
42
330
2
100
AcDbSymbolTableRecord
100
AcDbLayerTableRecord
  2
KOPF_DÜNN
 70
     0
 62
     7
  6
Continuous
370
    -3
390
F
  0
LAYER
  5
43
330
2
100
AcDbSymbolTableRecord
100
AcDbLayerTableRecord
  2
KOPF_DICK
 70
     0
 62
     7
  6
Continuous
370
    15
390
F
  0
ENDTAB
  0
TABLE
  2
STYLE
  5
3
330
0
100
AcDbSymbolTable
 70
     3
  0
STYLE
  5
11
330
3
100
AcDbSymbolTableRecord
100
AcDbTextStyleTableRecord
  2
Standard
 70
     0
 40
0.0
 41
1.0
 50
0.0
 71
     0
 42
2.5
  3
txt
  4

  0
STYLE
  5
44
330
3
100
AcDbSymbolTableRecord
100
AcDbTextStyleTableRecord
  2
SLDTEXTSTYLE0
 70
     0
 40
0.0
 41
0.7
 50
0.0
 71
     0
 42
0.2
  3
TXT
  4

  0
STYLE
  5
48
330
3
100
AcDbSymbolTableRecord
100
AcDbTextStyleTableRecord
  2
SLDTEXTSTYLE1
 70
     0
 40
0.0
 41
0.6473684211
 50
0.0
 71
     0
 42
0.2
  3
TXT
  4

  0
ENDTAB
  0
TABLE
  2
VIEW
  5
6
330
0
100
AcDbSymbolTable
 70
     0
  0
ENDTAB
  0
TABLE
  2
UCS
  5
7
330
0
100
AcDbSymbolTable
 70
     0
  0
ENDTAB
  0
TABLE
  2
APPID
  5
9
330
0
100
AcDbSymbolTable
 70
     1
  0
APPID
  5
12
330
9
100
AcDbSymbolTableRecord
100
AcDbRegAppTableRecord
  2
ACAD
 70
     0
  0
ENDTAB
  0
TABLE
  2
DIMSTYLE
  5
A
330
0
100
AcDbSymbolTable
 70
     4
100
AcDbDimStyleTable
  0
DIMSTYLE
105
27
330
A
100
AcDbSymbolTableRecord
100
AcDbDimStyleTableRecord
  2
ISO-25
 70
     0
 41
2.5
 42
0.625
 43
3.75
 44
1.25
 73
     0
 74
     0
 77
     1
 78
     8
140
2.5
141
2.5
143
0.0393700787
147
0.625
171
     3
172
     1
271
     2
272
     2
274
     3
278
    44
283
     0
284
     8
340
11
  0
DIMSTYLE
105
1B0
102
{ACAD_REACTORS
330
1AF
330
1D3
330
1EB
330
1F5
330
1FF
102
}
330
A
100
AcDbSymbolTableRecord
100
AcDbDimStyleTableRecord
  2
SLDDIMSTYLE0
 70
     0
 41
3.0
 44
0.0
 45
0.000000001
 73
     0
 74
     0
 77
     1
 78
    12
140
2.0
147
0.5
173
     1
271
     2
272
     3
284
    12
340
44
  0
DIMSTYLE
105
1BD
102
{ACAD_REACTORS
330
1BC
330
1C8
102
}
330
A
100
AcDbSymbolTableRecord
100
AcDbDimStyleTableRecord
  2
SLDDIMSTYLE1
 70
     0
 41
3.0
 44
0.0
 45
0.000000001
 73
     0
 74
     0
 77
     1
 78
    12
140
2.0
147
0.5
173
     1
271
     2
272
     3
284
    12
340
44
  0
DIMSTYLE
105
1DE
102
{ACAD_REACTORS
330
1DD
102
}
330
A
100
AcDbSymbolTableRecord
100
AcDbDimStyleTableRecord
  2
SLDDIMSTYLE2
 70
     0
 41
3.0
 44
0.0
 45
0.000000001
 73
     0
 74
     0
 77
     1
 78
    12
140
2.0
147
0.5
173
     1
271
     2
272
     3
284
    12
340
44
  0
ENDTAB
  0
TABLE
  2
BLOCK_RECORD
  5
1
330
0
100
AcDbSymbolTable
 70
     9
  0
BLOCK_RECORD
  5
1F
330
1
100
AcDbSymbolTableRecord
100
AcDbBlockTableRecord
  2
*Model_Space
340
22
  0
BLOCK_RECORD
  5
1B
330
1
100
AcDbSymbolTableRecord
100
AcDbBlockTableRecord
  2
*Paper_Space
340
1E
  0
BLOCK_RECORD
  5
23
330
1
100
AcDbSymbolTableRecord
100
AcDbBlockTableRecord
  2
*Paper_Space0
340
26
  0
BLOCK_RECORD
  5
1B1
330
1
100
AcDbSymbolTableRecord
100
AcDbBlockTableRecord
  2
*D1
340
0
  0
BLOCK_RECORD
  5
1BE
330
1
100
AcDbSymbolTableRecord
100
AcDbBlockTableRecord
  2
*D2
340
0
  0
BLOCK_RECORD
  5
1C9
330
1
100
AcDbSymbolTableRecord
100
AcDbBlockTableRecord
  2
*D3
340
0
  0
BLOCK_RECORD
  5
1D4
330
1
100
AcDbSymbolTableRecord
100
AcDbBlockTableRecord
  2
*D4
340
0
  0
BLOCK_RECORD
  5
1DF
330
1
100
AcDbSymbolTableRecord
100
AcDbBlockTableRecord
  2
*D5
340
0
  0
BLOCK_RECORD
  5
1EC
330
1
100
AcDbSymbolTableRecord
100
AcDbBlockTableRecord
  2
*D6
340
0
  0
BLOCK_RECORD
  5
1F6
330
1
100
AcDbSymbolTableRecord
100
AcDbBlockTableRecord
  2
*D7
340
0
  0
BLOCK_RECORD
  5
200
330
1
100
AcDbSymbolTableRecord
100
AcDbBlockTableRecord
  2
*D8
340
0
  0
ENDTAB
  0
ENDSEC
  0
SECTION
  2
BLOCKS
  0
BLOCK
  5
20
330
1F
100
AcDbEntity
  8
0
100
AcDbBlockBegin
  2
*Model_Space
 70
     0
 10
0.0
 20
0.0
 30
0.0
  3
*Model_Space
  1

  0
ENDBLK
  5
21
330
1F
100
AcDbEntity
  8
0
100
AcDbBlockEnd
  0
BLOCK
  5
1C
330
1B
100
AcDbEntity
 67
     1
  8
0
100
AcDbBlockBegin
  2
*Paper_Space
 70
     0
 10
0.0
 20
0.0
 30
0.0
  3
*Paper_Space
  1

  0
ENDBLK
  5
1D
330
1B
100
AcDbEntity
 67
     1
  8
0
100
AcDbBlockEnd
  0
BLOCK
  5
24
330
23
100
AcDbEntity
  8
0
100
AcDbBlockBegin
  2
*Paper_Space0
 70
     0
 10
0.0
 20
0.0
 30
0.0
  3
*Paper_Space0
  1

  0
ENDBLK
  5
25
330
23
100
AcDbEntity
  8
0
100
AcDbBlockEnd
  0
BLOCK
  5
1B2
330
1B1
100
AcDbEntity
  8
0
100
AcDbBlockBegin
  2
*D1
 70
     1
 10
0.0
 20
0.0
 30
0.0
  3
*D1
  1

  0
SOLID
  5
1B4
330
1B1
100
AcDbEntity
  8
VERMASSUNG
100
AcDbTrace
 10
61.4739978332
 20
136.3839653304
 30
0.0
 11
61.0239978332
 21
133.3839653304
 31
0.0
 12
61.9239978332
 22
133.3839653304
 32
0.0
 13
61.9239978332
 23
133.3839653304
 33
0.0
  0
SOLID
  5
1B5
330
1B1
100
AcDbEntity
  8
VERMASSUNG
100
AcDbTrace
 10
61.4739978332
 20
73.3839653304
 30
0.0
 11
61.9239978332
 21
76.3839653304
 31
0.0
 12
61.0239978332
 22
76.3839653304
 32
0.0
 13
61.0239978332
 23
76.3839653304
 33
0.0
  0
LINE
  5
1B6
330
1B1
100
AcDbEntity
  8
VERMASSUNG
100
AcDbLine
 10
99.767707061
 20
136.3839653304
 30
0.0
 11
60.4739978332
 21
136.3839653304
 31
0.0
  0
LINE
  5
1B7
330
1B1
100
AcDbEntity
  8
VERMASSUNG
100
AcDbLine
 10
99.767707061
 20
73.3839653304
 30
0.0
 11
60.4739978332
 21
73.3839653304
 31
0.0
  0
LINE
  5
1B8
330
1B1
100
AcDbEntity
  8
VERMASSUNG
100
AcDbLine
 10
61.4739978332
 20
136.3839653304
 30
0.0
 11
61.4739978332
 21
73.3839653304
 31
0.0
  0
MTEXT
  5
1B9
330
1B1
100
AcDbEntity
  8
VERMASSUNG
100
AcDbMText
 10
58.6958623441
 20
97.1804236186
 30
0.0
 40
2.0
 41
0.0
 71
     1
 72
     1
  1
HSK A 
  7
SLDTEXTSTYLE0
 11
-7.044195017643634E-15
 21
1.0
 31
0.0
 73
     1
 44
1.0
  0
MTEXT
  5
1BA
330
1B1
100
AcDbEntity
  8
VERMASSUNG
100
AcDbMText
 10
58.8958623536
 20
106.1804241625
 30
0.0
 40
2.0
 41
0.0
 71
     1
 72
     1
  1
%%c
  7
SLDTEXTSTYLE0
 11
-7.044195017643634E-15
 21
1.0
 31
0.0
 73
     1
 44
1.0
  0
MTEXT
  5
1BB
330
1B1
100
AcDbEntity
  8
VERMASSUNG
100
AcDbMText
 10
58.89586247
 20
109.7887508126
 30
0.0
 40
2.0
 41
0.0
 71
     1
 72
     1
  1
63
  7
SLDTEXTSTYLE0
 11
-7.044195017643634E-15
 21
1.0
 31
0.0
 73
     1
 44
1.0
  0
ENDBLK
  5
1B3
330
1B1
100
AcDbEntity
  8
0
100
AcDbBlockEnd
  0
BLOCK
  5
1BF
330
1BE
100
AcDbEntity
  8
0
100
AcDbBlockBegin
  2
*D2
 70
     1
 10
0.0
 20
0.0
 30
0.0
  3
*D2
  1

  0
SOLID
  5
1C1
330
1BE
100
AcDbEntity
  8
VERMASSUNG
100
AcDbTrace
 10
245.5775967813
 20
94.3839653304
 30
0.0
 11
246.0275967813
 21
97.3839653304
 31
0.0
 12
245.1275967813
 22
97.3839653304
 32
0.0
 13
245.1275967813
 23
97.3839653304
 33
0.0
  0
SOLID
  5
1C2
330
1BE
100
AcDbEntity
  8
VERMASSUNG
100
AcDbTrace
 10
245.5775967813
 20
115.3839653304
 30
0.0
 11
245.1275967813
 21
112.3839653304
 31
0.0
 12
246.0275967813
 22
112.3839653304
 32
0.0
 13
246.0275967813
 23
112.3839653304
 33
0.0
  0
LINE
  5
1C3
330
1BE
100
AcDbEntity
  8
VERMASSUNG
100
AcDbLine
 10
229.467707061
 20
94.3839653304
 30
0.0
 11
246.5775967813
 21
94.3839653304
 31
0.0
  0
LINE
  5
1C4
330
1BE
100
AcDbEntity
  8
VERMASSUNG
100
AcDbLine
 10
229.467707061
 20
115.3839653304
 30
0.0
 11
246.5775967813
 21
115.3839653304
 31
0.0
  0
LINE
  5
1C5
330
1BE
100
AcDbEntity
  8
VERMASSUNG
100
AcDbLine
 10
245.5775967813
 20
94.3839653304
 30
0.0
 11
245.5775967813
 21
115.3839653304
 31
0.0
  0
MTEXT
  5
1C6
330
1BE
100
AcDbEntity
  8
VERMASSUNG
100
AcDbMText
 10
242.9994613018
 20
101.8798277356
 30
0.0
 40
2.0
 41
0.0
 71
     1
 72
     1
  1
%%c
  7
SLDTEXTSTYLE0
 11
3.391901413832837E-15
 21
1.0
 31
0.0
 73
     1
 44
1.0
  0
MTEXT
  5
1C7
330
1BE
100
AcDbEntity
  8
VERMASSUNG
100
AcDbMText
 10
242.9994614182
 20
105.4885059588
 30
0.0
 40
2.0
 41
0.0
 71
     1
 72
     1
  1
21
  7
SLDTEXTSTYLE0
 11
3.391901413832837E-15
 21
1.0
 31
0.0
 73
     1
 44
1.0
  0
ENDBLK
  5
1C0
330
1BE
100
AcDbEntity
  8
0
100
AcDbBlockEnd
  0
BLOCK
  5
1CA
330
1C9
100
AcDbEntity
  8
0
100
AcDbBlockBegin
  2
*D3
 70
     1
 10
0.0
 20
0.0
 30
0.0
  3
*D3
  1

  0
SOLID
  5
1CC
330
1C9
100
AcDbEntity
  8
VERMASSUNG
100
AcDbTrace
 10
251.5775967813
 20
91.3839653304
 30
0.0
 11
252.0275967813
 21
94.3839653304
 31
0.0
 12
251.1275967813
 22
94.3839653304
 32
0.0
 13
251.1275967813
 23
94.3839653304
 33
0.0
  0
SOLID
  5
1CD
330
1C9
100
AcDbEntity
  8
VERMASSUNG
100
AcDbTrace
 10
251.5775967813
 20
118.3839653304
 30
0.0
 11
251.1275967813
 21
115.3839653304
 31
0.0
 12
252.0275967813
 22
115.3839653304
 32
0.0
 13
252.0275967813
 23
115.3839653304
 33
0.0
  0
LINE
  5
1CE
330
1C9
100
AcDbEntity
  8
VERMASSUNG
100
AcDbLine
 10
161.417707061
 20
91.3839653304
 30
0.0
 11
252.5775967813
 21
91.3839653304
 31
0.0
  0
LINE
  5
1CF
330
1C9
100
AcDbEntity
  8
VERMASSUNG
100
AcDbLine
 10
161.417707061
 20
118.3839653304
 30
0.0
 11
252.5775967813
 21
118.3839653304
 31
0.0
  0
LINE
  5
1D0
330
1C9
100
AcDbEntity
  8
VERMASSUNG
100
AcDbLine
 10
251.5775967813
 20
91.3839653304
 30
0.0
 11
251.5775967813
 21
118.3839653304
 31
0.0
  0
MTEXT
  5
1D1
330
1C9
100
AcDbEntity
  8
VERMASSUNG
100
AcDbMText
 10
248.9994613018
 20
101.680248104
 30
0.0
 40
2.0
 41
0.0
 71
     1
 72
     1
  1
%%c
  7
SLDTEXTSTYLE0
 11
3.391901413832837E-15
 21
1.0
 31
0.0
 73
     1
 44
1.0
  0
MTEXT
  5
1D2
330
1C9
100
AcDbEntity
  8
VERMASSUNG
100
AcDbMText
 10
248.9994614182
 20
105.2889263272
 30
0.0
 40
2.0
 41
0.0
 71
     1
 72
     1
  1
27
  7
SLDTEXTSTYLE0
 11
3.391901413832837E-15
 21
1.0
 31
0.0
 73
     1
 44
1.0
  0
ENDBLK
  5
1CB
330
1C9
100
AcDbEntity
  8
0
100
AcDbBlockEnd
  0
BLOCK
  5
1D5
330
1D4
100
AcDbEntity
  8
0
100
AcDbBlockBegin
  2
*D4
 70
     1
 10
0.0
 20
0.0
 30
0.0
  3
*D4
  1

  0
SOLID
  5
1D7
330
1D4
100
AcDbEntity
  8
VERMASSUNG
100
AcDbTrace
 10
99.467707061
 20
150.4502877572
 30
0.0
 11
102.467707061
 21
150.0002877572
 31
0.0
 12
102.467707061
 22
150.9002877572
 32
0.0
 13
102.467707061
 23
150.9002877572
 33
0.0
  0
SOLID
  5
1D8
330
1D4
100
AcDbEntity
  8
VERMASSUNG
100
AcDbTrace
 10
229.467707061
 20
150.4502877572
 30
0.0
 11
226.467707061
 21
150.9002877572
 31
0.0
 12
226.467707061
 22
150.0002877572
 32
0.0
 13
226.467707061
 23
150.0002877572
 33
0.0
  0
LINE
  5
1D9
330
1D4
100
AcDbEntity
  8
VERMASSUNG
100
AcDbLine
 10
99.467707061
 20
104.8839653304
 30
0.0
 11
99.467707061
 21
151.4502877572
 31
0.0
  0
LINE
  5
1DA
330
1D4
100
AcDbEntity
  8
VERMASSUNG
100
AcDbLine
 10
229.467707061
 20
104.8839653304
 30
0.0
 11
229.467707061
 21
151.4502877572
 31
0.0
  0
LINE
  5
1DB
330
1D4
100
AcDbEntity
  8
VERMASSUNG
100
AcDbLine
 10
99.467707061
 20
150.4502877572
 30
0.0
 11
229.467707061
 21
150.4502877572
 31
0.0
  0
MTEXT
  5
1DC
330
1D4
100
AcDbEntity
  8
VERMASSUNG
100
AcDbMText
 10
162.5682195204
 20
153.0284231203
 30
0.0
 40
2.0
 41
0.0
 71
     1
 72
     1
  1
130
  7
SLDTEXTSTYLE0
 73
     1
 44
1.0
  0
ENDBLK
  5
1D6
330
1D4
100
AcDbEntity
  8
0
100
AcDbBlockEnd
  0
BLOCK
  5
1E0
330
1DF
100
AcDbEntity
  8
0
100
AcDbBlockBegin
  2
*D5
 70
     1
 10
0.0
 20
0.0
 30
0.0
  3
*D5
  1

  0
SOLID
  5
1E2
330
1DF
100
AcDbEntity
  8
VERMASSUNG
100
AcDbTrace
 10
239.5775967813
 20
107.8839653304
 30
0.0
 11
240.0275967813
 21
110.8839653304
 31
0.0
 12
239.1275967813
 22
110.8839653304
 32
0.0
 13
239.1275967813
 23
110.8839653304
 33
0.0
  0
SOLID
  5
1E3
330
1DF
100
AcDbEntity
  8
VERMASSUNG
100
AcDbTrace
 10
239.5775967813
 20
101.8839653304
 30
0.0
 11
239.1275967813
 21
98.8839653304
 31
0.0
 12
240.0275967813
 22
98.8839653304
 32
0.0
 13
240.0275967813
 23
98.8839653304
 33
0.0
  0
LINE
  5
1E4
330
1DF
100
AcDbEntity
  8
VERMASSUNG
100
AcDbLine
 10
225.967707061
 20
107.8839653304
 30
0.0
 11
240.5775967813
 21
107.8839653304
 31
0.0
  0
LINE
  5
1E5
330
1DF
100
AcDbEntity
  8
VERMASSUNG
100
AcDbLine
 10
225.967707061
 20
101.8839653304
 30
0.0
 11
240.5775967813
 21
101.8839653304
 31
0.0
  0
LINE
  5
1E6
330
1DF
100
AcDbEntity
  8
VERMASSUNG
100
AcDbLine
 10
239.5775967813
 20
107.8839653304
 30
0.0
 11
239.5775967813
 21
113.8839653304
 31
0.0
  0
LINE
  5
1E7
330
1DF
100
AcDbEntity
  8
VERMASSUNG
100
AcDbLine
 10
239.5775967813
 20
107.8839653304
 30
0.0
 11
239.5775967813
 21
101.8839653304
 31
0.0
  0
LINE
  5
1E8
330
1DF
100
AcDbEntity
  8
VERMASSUNG
100
AcDbLine
 10
239.5775967813
 20
101.8839653304
 30
0.0
 11
239.5775967813
 21
95.8839653304
 31
0.0
  0
MTEXT
  5
1E9
330
1DF
100
AcDbEntity
  8
VERMASSUNG
100
AcDbMText
 10
236.9994613018
 20
102.3799371614
 30
0.0
 40
2.0
 41
0.0
 71
     1
 72
     1
  1
%%c
  7
SLDTEXTSTYLE0
 11
-7.044195017643634E-15
 21
1.0
 31
0.0
 73
     1
 44
1.0
  0
MTEXT
  5
1EA
330
1DF
100
AcDbEntity
  8
VERMASSUNG
100
AcDbMText
 10
236.9994614182
 20
105.9886153846
 30
0.0
 40
2.0
 41
0.0
 71
     1
 72
     1
  1
6
  7
SLDTEXTSTYLE0
 11
-7.044195017643634E-15
 21
1.0
 31
0.0
 73
     1
 44
1.0
  0
ENDBLK
  5
1E1
330
1DF
100
AcDbEntity
  8
0
100
AcDbBlockEnd
  0
BLOCK
  5
1ED
330
1EC
100
AcDbEntity
  8
0
100
AcDbBlockBegin
  2
*D6
 70
     1
 10
0.0
 20
0.0
 30
0.0
  3
*D6
  1

  0
SOLID
  5
1EF
330
1EC
100
AcDbEntity
  8
VERMASSUNG
100
AcDbTrace
 10
229.467707061
 20
138.4502877572
 30
0.0
 11
226.467707061
 21
138.9002877572
 31
0.0
 12
226.467707061
 22
138.0002877572
 32
0.0
 13
226.467707061
 23
138.0002877572
 33
0.0
  0
SOLID
  5
1F0
330
1EC
100
AcDbEntity
  8
VERMASSUNG
100
AcDbTrace
 10
192.967707061
 20
138.4502877572
 30
0.0
 11
195.967707061
 21
138.0002877572
 31
0.0
 12
195.967707061
 22
138.9002877572
 32
0.0
 13
195.967707061
 23
138.9002877572
 33
0.0
  0
LINE
  5
1F1
330
1EC
100
AcDbEntity
  8
VERMASSUNG
100
AcDbLine
 10
229.467707061
 20
113.5351843471
 30
0.0
 11
229.467707061
 21
139.4502877572
 31
0.0
  0
LINE
  5
1F2
330
1EC
100
AcDbEntity
  8
VERMASSUNG
100
AcDbLine
 10
192.967707061
 20
107.7839653304
 30
0.0
 11
192.967707061
 21
139.4502877572
 31
0.0
  0
LINE
  5
1F3
330
1EC
100
AcDbEntity
  8
VERMASSUNG
100
AcDbLine
 10
229.467707061
 20
138.4502877572
 30
0.0
 11
192.967707061
 21
138.4502877572
 31
0.0
  0
MTEXT
  5
1F4
330
1EC
100
AcDbEntity
  8
VERMASSUNG
100
AcDbMText
 10
208.8181100946
 20
141.0284231203
 30
0.0
 40
2.0
 41
0.0
 71
     1
 72
     1
  1
36.5
  7
SLDTEXTSTYLE0
 73
     1
 44
1.0
  0
ENDBLK
  5
1EE
330
1EC
100
AcDbEntity
  8
0
100
AcDbBlockEnd
  0
BLOCK
  5
1F7
330
1F6
100
AcDbEntity
  8
0
100
AcDbBlockBegin
  2
*D7
 70
     1
 10
0.0
 20
0.0
 30
0.0
  3
*D7
  1

  0
SOLID
  5
1F9
330
1F6
100
AcDbEntity
  8
VERMASSUNG
100
AcDbTrace
 10
125.417707061
 20
144.4502877572
 30
0.0
 11
128.417707061
 21
144.0002877572
 31
0.0
 12
128.417707061
 22
144.9002877572
 32
0.0
 13
128.417707061
 23
144.9002877572
 33
0.0
  0
SOLID
  5
1FA
330
1F6
100
AcDbEntity
  8
VERMASSUNG
100
AcDbTrace
 10
229.467707061
 20
144.4502877572
 30
0.0
 11
226.467707061
 21
144.9002877572
 31
0.0
 12
226.467707061
 22
144.0002877572
 32
0.0
 13
226.467707061
 23
144.0002877572
 33
0.0
  0
LINE
  5
1FB
330
1F6
100
AcDbEntity
  8
VERMASSUNG
100
AcDbLine
 10
125.417707061
 20
134.7304056542
 30
0.0
 11
125.417707061
 21
145.4502877572
 31
0.0
  0
LINE
  5
1FC
330
1F6
100
AcDbEntity
  8
VERMASSUNG
100
AcDbLine
 10
229.467707061
 20
113.5351843471
 30
0.0
 11
229.467707061
 21
145.4502877572
 31
0.0
  0
LINE
  5
1FD
330
1F6
100
AcDbEntity
  8
VERMASSUNG
100
AcDbLine
 10
125.417707061
 20
144.4502877572
 30
0.0
 11
229.467707061
 21
144.4502877572
 31
0.0
  0
MTEXT
  5
1FE
330
1F6
100
AcDbEntity
  8
VERMASSUNG
100
AcDbMText
 10
173.7435217956
 20
147.0284231203
 30
0.0
 40
2.0
 41
0.0
 71
     1
 72
     1
  1
104.05
  7
SLDTEXTSTYLE0
 73
     1
 44
1.0
  0
ENDBLK
  5
1F8
330
1F6
100
AcDbEntity
  8
0
100
AcDbBlockEnd
  0
BLOCK
  5
201
330
200
100
AcDbEntity
  8
0
100
AcDbBlockBegin
  2
*D8
 70
     1
 10
0.0
 20
0.0
 30
0.0
  3
*D8
  1

  0
SOLID
  5
203
330
200
100
AcDbEntity
  8
VERMASSUNG
100
AcDbTrace
 10
67.567707061
 20
156.4502877572
 30
0.0
 11
70.567707061
 21
156.0002877572
 31
0.0
 12
70.567707061
 22
156.9002877572
 32
0.0
 13
70.567707061
 23
156.9002877572
 33
0.0
  0
SOLID
  5
204
330
200
100
AcDbEntity
  8
VERMASSUNG
100
AcDbTrace
 10
229.467707061
 20
156.4502877572
 30
0.0
 11
226.467707061
 21
156.9002877572
 31
0.0
 12
226.467707061
 22
156.0002877572
 32
0.0
 13
226.467707061
 23
156.0002877572
 33
0.0
  0
LINE
  5
205
330
200
100
AcDbEntity
  8
VERMASSUNG
100
AcDbLine
 10
67.567707061
 20
124.5746430769
 30
0.0
 11
67.567707061
 21
157.4502877572
 31
0.0
  0
LINE
  5
206
330
200
100
AcDbEntity
  8
VERMASSUNG
100
AcDbLine
 10
229.467707061
 20
113.5351843471
 30
0.0
 11
229.467707061
 21
157.4502877572
 31
0.0
  0
LINE
  5
207
330
200
100
AcDbEntity
  8
VERMASSUNG
100
AcDbLine
 10
67.567707061
 20
156.4502877572
 30
0.0
 11
229.467707061
 21
156.4502877572
 31
0.0
  0
MTEXT
  5
208
330
200
100
AcDbEntity
  8
VERMASSUNG
100
AcDbMText
 10
145.8187406471
 20
159.0284231203
 30
0.0
 40
2.0
 41
0.0
 71
     1
 72
     1
  1
161.9
  7
SLDTEXTSTYLE0
 73
     1
 44
1.0
  0
ENDBLK
  5
202
330
200
100
AcDbEntity
  8
0
100
AcDbBlockEnd
  0
ENDSEC
  0
SECTION
  2
ENTITIES
  0
MTEXT
  5
45
330
1F
100
AcDbEntity
  8
KOPF_DÜNN
100
AcDbMText
 10
13.8892156294
 20
23.8442973028
 30
0.0
 40
3.0
 41
0.0
 71
     1
 72
     1
  1
HA6.S06.K21.130
  7
SLDTEXTSTYLE0
 73
     1
 44
1.0
  0
MTEXT
  5
46
330
1F
100
AcDbEntity
  8
VERMASSUNG
100
AcDbMText
 10
13.9329988022
 20
28.8834360957
 30
0.0
 40
3.0
 41
0.0
 71
     1
 72
     1
  1
Schrumpffutter_Heat shrink chuck
  7
SLDTEXTSTYLE0
 73
     1
 44
1.0
  0
MTEXT
  5
47
330
1F
100
AcDbEntity
  8
VERMASSUNG
100
AcDbMText
 10
98.8601118557
 20
13.8365368179
 30
0.0
 40
2.0
 41
0.0
 71
     1
 72
     1
  1
Datum: 27.04.2011
  7
SLDTEXTSTYLE0
 73
     1
 44
1.0
  0
MTEXT
  5
49
330
1F
100
AcDbEntity
  8
VERMASSUNG
100
AcDbMText
 10
13.933048693
 20
18.0482802738
 30
0.0
 40
2.0
 41
0.0
 71
     1
 72
     1
  1
DIN 69 893 HSK A 63
  7
SLDTEXTSTYLE1
 73
     1
 44
1.0
  0
MTEXT
  5
4A
330
1F
100
AcDbEntity
  8
VERMASSUNG
100
AcDbMText
 10
13.9808475933
 20
13.9090973692
 30
0.0
 40
2.0
 41
0.0
 71
     1
 72
     1
  1
Gewicht: 1055g
  7
SLDTEXTSTYLE0
 73
     1
 44
1.0
  0
LINE
  5
4B
330
1F
100
AcDbEntity
  8
0
  6
Continuous
 62
     7
370
    15
100
AcDbLine
 10
99.767707061
 20
73.3839653304
 30
0.0
 11
104.417707061
 21
73.3839653304
 31
0.0
  0
LINE
  5
4C
330
1F
100
AcDbEntity
  8
0
  6
Continuous
 62
     7
370
    15
100
AcDbLine
 10
104.4456954201
 20
136.3839653304
 30
0.0
 11
99.767707061
 21
136.3839653304
 31
0.0
  0
ARC
  5
4D
330
1F
100
AcDbEntity
  8
0
  6
Continuous
 62
     7
370
    15
100
AcDbCircle
 10
99.767707061
 20
73.6839653304
 30
0.0
 40
0.2999999999999972
100
AcDbArc
 50
180.0
 51
270.0
  0
ARC
  5
4E
330
1F
100
AcDbEntity
  8
0
  6
Continuous
 62
     7
370
    15
100
AcDbCircle
 10
99.767707061
 20
136.0839653304
 30
0.0
 40
0.3000000000000114
100
AcDbArc
 50
90.0
 51
180.0
  0
ARC
  5
4F
330
1F
100
AcDbEntity
  8
0
  6
Continuous
 62
     7
370
    15
100
AcDbCircle
 10
98.9677003083
 20
80.3185377361
 30
0.0
 40
0.6000067526677242
100
AcDbArc
 50
33.5571153394
 51
90.0
  0
ARC
  5
50
330
1F
100
AcDbEntity
  8
0
  6
Continuous
 62
     7
370
    15
100
AcDbCircle
 10
98.9677003083
 20
129.4493929248
 30
0.0
 40
0.6000067526677242
100
AcDbArc
 50
270.0
 51
326.4428846606
  0
LINE
  5
51
330
1F
100
AcDbEntity
  8
0
  6
Continuous
 62
     7
370
    15
100
AcDbLine
 10
97.4519547277
 20
80.6643236638
 30
0.0
 11
98.3244198344
 21
80.8980999845
 31
0.0
  0
LINE
  5
52
330
1F
100
AcDbEntity
  8
0
  6
Continuous
 62
     7
370
    15
100
AcDbLine
 10
98.3244198344
 20
128.8698306764
 30
0.0
 11
97.4519547277
 21
129.1036069971
 31
0.0
  0
LINE
  5
53
330
1F
100
AcDbEntity
  8
0
  6
Continuous
 62
     7
370
    15
100
AcDbLine
 10
86.2372818422
 20
128.5417496381
 30
0.0
 11
73.667707061
 21
127.9120114226
 31
0.0
  0
LINE
  5
54
330
1F
100
AcDbEntity
  8
0
  6
Continuous
 62
     7
370
    15
100
AcDbLine
 10
97.4519547277
 20
129.1036069971
 30
0.0
 11
94.6491008509
 21
128.9631834562
 31
0.0
  0
LINE
  5
55
330
1F
100
AcDbEntity
  8
0
  6
Continuous
 62
     7
370
    15
100
AcDbLine
 10
94.6493223001
 20
80.80473611
 30
0.0
 11
97.4519547277
 21
80.6643236638
 31
0.0
  0
LINE
  5
56
330
1F
100
AcDbEntity
  8
0
  6
Continuous
 62
     7
370
    15
100
AcDbLine
 10
77.667707061
 20
81.6555184367
 30
0.0
 11
86.2379807888
 21
81.2261460054
 31
0.0
  0
ARC
  5
57
330
1F
100
AcDbEntity
  8
0
  6
Continuous
 62
     7
370
    15
100
AcDbCircle
 10
98.4797112614
 20
80.3185444888
 30
0.0
 40
0.6000000000000109
100
AcDbArc
 50
90.0
 51
105.0
  0
ARC
  5
58
330
1F
100
AcDbEntity
  8
0
  6
Continuous
 62
     7
370
    15
100
AcDbCircle
 10
98.4797112614
 20
129.4493861721
 30
0.0
 40
0.5999999999999971
100
AcDbArc
 50
255.0
 51
270.0
  0
LINE
  5
59
330
1F
100
AcDbEntity
  8
0
  6
Continuous
 62
     7
370
    15
100
AcDbLine
 10
98.4797112614
 20
80.9185444888
 30
0.0
 11
98.9677003083
 21
80.9185444888
 31
0.0
  0
LINE
  5
5A
330
1F
100
AcDbEntity
  8
0
  6
Continuous
 62
     7
370
    15
100
AcDbLine
 10
98.9677003083
 20
128.8493861721
 30
0.0
 11
98.4797112614
 21
128.8493861721
 31
0.0
  0
ARC
  5
5B
330
1F
100
AcDbEntity
  8
0
  6
Continuous
 62
     7
370
    15
100
AcDbCircle
 10
128.417707061
 20
85.3680065289
 30
0.0
 40
3.000000000000003
100
AcDbArc
 50
104.3250519401
 51
180.0
  0
ARC
  5
5C
330
1F
100
AcDbEntity
  8
0
  6
Continuous
 62
     7
370
    15
100
AcDbCircle
 10
128.417707061
 20
124.399924132
 30
0.0
 40
3.000000000000003
100
AcDbArc
 50
180.0
 51
255.6749480599
  0
ARC
  5
5D
330
1F
100
AcDbEntity
  8
0
  6
Continuous
 62
     7
370
    15
100
AcDbCircle
 10
152.417707061
 20
-8.6160346696
 30
0.0
 40
100.0
100
AcDbArc
 50
90.0
 51
104.3250519401
  0
ARC
  5
5E
330
1F
100
AcDbEntity
  8
0
  6
Continuous
 62
     7
370
    15
100
AcDbCircle
 10
152.417707061
 20
218.3839653304
 30
0.0
 40
100.0
100
AcDbArc
 50
255.6749480599
 51
270.0
  0
LINE
  5
5F
330
1F
100
AcDbEntity
  8
0
  6
Continuous
 62
     7
370
    15
100
AcDbLine
 10
191.3490928525
 20
91.3839653304
 30
0.0
 11
227.6246252525
 21
94.2389116463
 31
0.0
  0
LINE
  5
60
330
1F
100
AcDbEntity
  8
0
  6
Continuous
 62
     7
370
    15
100
AcDbLine
 10
227.6246252525
 20
115.5290190146
 30
0.0
 11
191.3490928525
 21
118.3839653304
 31
0.0
  0
LINE
  5
61
330
1F
100
AcDbEntity
  8
0
  6
Continuous
 62
     7
370
    15
100
AcDbLine
 10
164.908669555
 20
91.3839653304
 30
0.0
 11
191.3490928525
 21
91.3839653304
 31
0.0
  0
LINE
  5
62
330
1F
100
AcDbEntity
  8
0
  6
Continuous
 62
     7
370
    15
100
AcDbLine
 10
152.417707061
 20
91.3839653304
 30
0.0
 11
157.9277748058
 21
91.3839653304
 31
0.0
  0
LINE
  5
63
330
1F
100
AcDbEntity
  8
0
  6
Continuous
 62
     7
370
    15
100
AcDbLine
 10
157.9204717021
 20
118.3839653304
 30
0.0
 11
152.417707061
 21
118.3839653304
 31
0.0
  0
LINE
  5
64
330
1F
100
AcDbEntity
  8
0
  6
Continuous
 62
     7
370
    15
100
AcDbLine
 10
191.3490928525
 20
118.3839653304
 30
0.0
 11
164.9126890252
 21
118.3839653304
 31
0.0
  0
LINE
  5
65
330
1F
100
AcDbEntity
  8
0
  6
Continuous
 62
     7
370
    15
100
AcDbLine
 10
68.851043701
 20
84.0139653304
 30
0.0
 11
76.267707061
 21
84.0139653304
 31
0.0
  0
ARC
  5
66
330
1F
100
AcDbEntity
  8
0
  6
Continuous
 62
     7
370
    15
100
AcDbCircle
 10
227.467707061
 20
96.2327463138
 30
0.0
 40
1.999999999999988
100
AcDbArc
 50
274.5
 51
0.0
  0
ARC
  5
67
330
1F
100
AcDbEntity
  8
0
  6
Continuous
 62
     7
370
    15
100
AcDbCircle
 10
227.467707061
 20
113.5351843471
 30
0.0
 40
1.999999999999988
100
AcDbArc
 50
0.0
 51
85.5
  0
ARC
  5
68
330
1F
100
AcDbEntity
  8
0
  6
Continuous
 62
     7
370
    15
100
AcDbCircle
 10
76.267707061
 20
82.6139653304
 30
0.0
 40
1.399999999999997
100
AcDbArc
 50
42.2465410162
 51
90.0
  0
LINE
  5
69
330
1F
100
AcDbEntity
  8
0
  6
Continuous
 62
     7
370
    15
100
AcDbLine
 10
67.5788674961
 20
85.1528048953
 30
0.0
 11
68.7088705192
 21
84.0228018723
 31
0.0
  0
LINE
  5
6A
330
1F
100
AcDbEntity
  8
0
  6
Continuous
 62
     7
370
    15
100
AcDbLine
 10
68.7088705192
 20
125.7451287886
 30
0.0
 11
67.5776078344
 21
124.6138661038
 31
0.0
  0
ARC
  5
6B
330
1F
100
AcDbEntity
  8
0
  6
Continuous
 62
     7
370
    15
100
AcDbCircle
 10
72.267707061
 20
127.1539653304
 30
0.0
 40
1.399999999999996
100
AcDbArc
 50
270.0
 51
301.7485287426
  0
LINE
  5
6C
330
1F
100
AcDbEntity
  8
0
  6
Continuous
 62
     7
370
    15
100
AcDbLine
 10
72.267707061
 20
125.7539653304
 30
0.0
 11
68.8585954624
 21
125.7539653304
 31
0.0
  0
LINE
  5
6D
330
1F
100
AcDbEntity
  8
0
  6
Continuous
 62
     7
370
    15
100
AcDbLine
 10
229.467707061
 20
97.0195970701
 30
0.0
 11
229.5450292681
 21
97.1665624125
 31
0.0
  0
LINE
  5
6E
330
1F
100
AcDbEntity
  8
0
  6
Continuous
 62
     7
370
    15
100
AcDbLine
 10
229.5450292681
 20
112.6013682484
 30
0.0
 11
229.467707061
 21
112.7483335908
 31
0.0
  0
SPLINE
  5
6F
330
1F
100
AcDbEntity
  8
0
  6
Continuous
 62
     7
370
    15
100
AcDbSpline
210
0.0
220
0.0
230
1.0
 70
     8
 71
     3
 72
    70
 73
    66
 74
     0
 42
0.00000001
 43
0.00000001
 40
-0.0312499999999998
 40
-0.0312499999999998
 40
0.0
 40
0.0
 40
0.0312500000000003
 40
0.0312500000000003
 40
0.0625000000000006
 40
0.0625000000000006
 40
0.0937500000000009
 40
0.0937500000000009
 40
0.1250000000000012
 40
0.1250000000000012
 40
0.1562500000000014
 40
0.1562500000000014
 40
0.1875000000000017
 40
0.1875000000000017
 40
0.2187500000000021
 40
0.2187500000000021
 40
0.2500000000000023
 40
0.2500000000000023
 40
0.2812500000000024
 40
0.2812500000000024
 40
0.3125000000000026
 40
0.3125000000000026
 40
0.3437500000000027
 40
0.3437500000000027
 40
0.3750000000000028
 40
0.3750000000000028
 40
0.4062500000000029
 40
0.4062500000000029
 40
0.4375000000000031
 40
0.4375000000000031
 40
0.4687500000000032
 40
0.4687500000000032
 40
0.5000000000000033
 40
0.5000000000000033
 40
0.5312500000000032
 40
0.5312500000000032
 40
0.562500000000003
 40
0.562500000000003
 40
0.5937500000000029
 40
0.5937500000000029
 40
0.6250000000000027
 40
0.6250000000000027
 40
0.6562500000000026
 40
0.6562500000000026
 40
0.6875000000000024
 40
0.6875000000000024
 40
0.7187500000000022
 40
0.7187500000000022
 40
0.7500000000000021
 40
0.7500000000000021
 40
0.7812500000000019
 40
0.7812500000000019
 40
0.8125000000000016
 40
0.8125000000000016
 40
0.8437500000000013
 40
0.8437500000000013
 40
0.875000000000001
 40
0.875000000000001
 40
0.9062500000000008
 40
0.9062500000000008
 40
0.9375000000000006
 40
0.9375000000000006
 40
0.9687500000000002
 40
0.9687500000000002
 40
1.0
 40
1.0
 40
1.03125
 40
1.03125
 10
107.2031617223448
 20
129.9429287252235
 30
0.0
 10
107.7322523996651
 20
129.9429287252235
 30
0.0
 10
107.9923230670422
 20
129.9588291656382
 30
0.0
 10
108.5038977468776
 20
130.0207735158125
 30
0.0
 10
108.7580730306178
 20
130.0675757499038
 30
0.0
 10
109.2423436606795
 20
130.1885527333589
 30
0.0
 10
109.4719847525607
 20
130.2621550611657
 30
0.0
 10
109.9065891007942
 20
130.4339793321438
 30
0.0
 10
110.1121548774408
 20
130.5329827550713
 30
0.0
 10
110.480712018036
 20
130.7460791689841
 30
0.0
 10
110.6461930007715
 20
130.8609788851138
 30
0.0
 10
110.9386175102066
 20
131.1063457838041
 30
0.0
 10
111.0627184868331
 20
131.2347856842744
 30
0.0
 10
111.2622976835828
 20
131.4956778323603
 30
0.0
 10
111.3392312694411
 20
131.6300590036998
 30
0.0
 10
111.4420883279615
 20
131.8993789548061
 30
0.0
 10
111.4675612374206
 20
132.0320602190242
 30
0.0
 10
111.4678516479884
 20
132.2932466931552
 30
0.0
 10
111.4418270142126
 20
132.4230117313199
 30
0.0
 10
111.3396787297206
 20
132.6685943655926
 30
0.0
 10
111.2641022821375
 20
132.7852559029015
 30
0.0
 10
111.0636047509926
 20
133.0071610930561
 30
0.0
 10
110.9384759094842
 20
133.1117723469791
 30
0.0
 10
110.6491171084626
 20
133.3018187585871
 30
0.0
 10
110.4837061214071
 20
133.3885784300368
 30
0.0
 10
110.1107155632593
 20
133.5460828057883
 30
0.0
 10
109.9089825301702
 20
133.6144080705756
 30
0.0
 10
109.4761232793423
 20
133.7326377941947
 30
0.0
 10
109.242204746453
 20
133.7829327102986
 30
0.0
 10
108.7580210113103
 20
133.8627982471882
 30
0.0
 10
108.5087053853548
 20
133.8925393749878
 30
0.0
 10
107.9956728609271
 20
133.932692116496
 30
0.0
 10
107.7303790380225
 20
133.9428903859059
 30
0.0
 10
107.2080444181527
 20
133.9429668442906
 30
0.0
 10
106.948290755671
 20
133.9331758326816
 30
0.0
 10
106.4316789400257
 20
133.8931089939428
 30
0.0
 10
106.1793128995255
 20
133.863011827086
 30
0.0
 10
105.6977877779926
 20
133.7837896172558
 30
0.0
 10
105.4649370458791
 20
133.7340321377924
 30
0.0
 10
105.0278471974403
 20
133.614940195342
 30
0.0
 10
104.8265262087831
 20
133.5466249337948
 30
0.0
 10
104.4574401834832
 20
133.3912239668612
 30
0.0
 10
104.2884554324315
 20
133.3030716247943
 30
0.0
 10
103.9979993757723
 20
133.112632235678
 30
0.0
 10
103.8749275644102
 20
133.0100076579789
 30
0.0
 10
103.6735913229882
 20
132.7883673113708
 30
0.0
 10
103.5963787770459
 20
132.6696132358233
 30
0.0
 10
103.4941752341459
 20
132.4249472969056
 30
0.0
 10
103.4679468826936
 20
132.2977905714571
 30
0.0
 10
103.4674704833765
 20
132.0333424256015
 30
0.0
 10
103.4932128958744
 20
131.9004417453444
 30
0.0
 10
103.5945236722383
 20
131.6336494718623
 30
0.0
 10
103.6713563116292
 20
131.4982855703937
 30
0.0
 10
103.8717601508444
 20
131.2357057750912
 30
0.0
 10
103.9944316491364
 20
131.1087306153374
 30
0.0
 10
104.2843789383007
 20
130.864651229255
 30
0.0
 10
104.4529499176659
 20
130.7472261045011
 30
0.0
 10
104.8212195117791
 20
130.5340296435527
 30
0.0
 10
105.0222813690494
 20
130.4368555251278
 30
0.0
 10
105.4593122876343
 20
130.2635006379136
 30
0.0
 10
105.6914605007639
 20
130.189101086257
 30
0.0
 10
106.1724707822628
 20
130.0686482067523
 30
0.0
 10
106.4245708650932
 20
130.0217898314863
 30
0.0
 10
106.9416403513522
 20
129.9588323345026
 30
0.0
 10
107.2031617223448
 20
129.9429287252235
 30
0.0
 10
107.7322523996651
 20
129.9429287252235
 30
0.0
  0
LINE
  5
70
330
1F
100
AcDbEntity
  8
0
  6
Continuous
 62
     7
370
    15
100
AcDbLine
 10
104.417707061
 20
124.7339653304
 30
0.0
 11
114.0757742295
 21
124.7339653304
 31
0.0
  0
LINE
  5
71
330
1F
100
AcDbEntity
  8
0
  6
Continuous
 62
     7
370
    15
100
AcDbLine
 10
114.0757742295
 20
74.6970476342
 30
0.0
 11
114.0757742295
 21
124.7339653304
 31
0.0
  0
LINE
  5
72
330
1F
100
AcDbEntity
  8
0
  6
Continuous
 62
     7
370
    15
100
AcDbLine
 10
114.0757742295
 20
74.6970476342
 30
0.0
 11
112.417707061
 21
74.6970476342
 31
0.0
  0
SPLINE
  5
73
330
1F
100
AcDbEntity
  8
0
  6
Continuous
 62
     7
370
    15
100
AcDbSpline
210
0.0
220
0.0
230
1.0
 70
     8
 71
     3
 72
    28
 73
    24
 74
     0
 42
0.00000001
 43
0.00000001
 40
0.0
 40
0.0
 40
0.0
 40
0.0
 40
0.1250000000000001
 40
0.1250000000000001
 40
0.1875000000000001
 40
0.1875000000000001
 40
0.2500000000000001
 40
0.2500000000000001
 40
0.3749999999999999
 40
0.3749999999999999
 40
0.4375
 40
0.4375
 40
0.4999999999999999
 40
0.4999999999999999
 40
0.6249999999999999
 40
0.6249999999999999
 40
0.7499999999999997
 40
0.7499999999999997
 40
0.8124999999999998
 40
0.8124999999999998
 40
0.8749999999999998
 40
0.8749999999999998
 40
1.0
 40
1.0
 40
1.0
 40
1.0
 10
112.417707061005
 20
74.69704763419713
 30
0.0
 10
111.8859993035121
 20
74.69704763419713
 30
0.0
 10
111.3637607382017
 20
74.68126292024692
 30
0.0
 10
110.5938902519267
 20
74.63626750617073
 30
0.0
 10
110.3395306797354
 20
74.61771251109498
 30
0.0
 10
109.8354090990369
 20
74.57385978864848
 30
0.0
 10
109.5856862816089
 20
74.54851518169627
 30
0.0
 10
108.8600963301625
 20
74.46511310394618
 30
0.0
 10
108.401736068581
 20
74.3992475447951
 30
0.0
 10
107.7512381251871
 20
74.2902772043033
 30
0.0
 10
107.5395560743947
 20
74.25203756853665
 30
0.0
 10
107.1354845852566
 20
74.17427883111729
 30
0.0
 10
106.9429780714358
 20
74.13477786894192
 30
0.0
 10
106.3931431004145
 20
74.01587012657595
 30
0.0
 10
106.0632143221057
 20
73.93605244515133
 30
0.0
 10
105.478743053537
 20
73.78270928335527
 30
0.0
 10
105.2324659155236
 20
73.71137553008603
 30
0.0
 10
104.9326231228255
 20
73.61743202301139
 30
0.0
 10
104.8441662657533
 20
73.58823822965147
 30
0.0
 10
104.6908049124482
 20
73.53477165538804
 30
0.0
 10
104.625716698222
 20
73.51041232111287
 30
0.0
 10
104.4701226822812
 20
73.44682217566815
 30
0.0
 10
104.417707061005
 20
73.41671924057889
 30
0.0
 10
104.417707061005
 20
73.39984234758195
 30
0.0
  0
LINE
  5
74
330
1F
100
AcDbEntity
  8
0
  6
Continuous
 62
     7
370
    15
100
AcDbLine
 10
104.417707061
 20
73.3998423476
 30
0.0
 11
104.417707061
 21
73.3839653304
 31
0.0
  0
SPLINE
  5
75
330
1F
100
AcDbEntity
  8
0
  6
Continuous
 62
     7
370
    15
100
AcDbSpline
210
0.0
220
0.0
230
1.0
 70
     8
 71
     3
 72
    17
 73
    13
 74
     0
 42
0.00000001
 43
0.00000001
 40
0.0
 40
0.0
 40
0.0
 40
0.0
 40
0.1034796923964056
 40
0.210023918880785
 40
0.3134862136955583
 40
0.4198361274354882
 40
0.5254127712915682
 40
0.633961069541979
 40
0.7409508756305031
 40
0.8511696089308174
 40
0.9558996534551937
 40
1.0
 40
1.0
 40
1.0
 40
1.0
 10
112.417707061005
 20
135.3511608036085
 30
0.0
 10
111.9824587118949
 20
135.3566090001419
 30
0.0
 10
111.09907220533
 20
135.3676667406537
 30
0.0
 10
109.8182446201013
 20
135.4540251335553
 30
0.0
 10
108.6008280842273
 20
135.581895310093
 30
0.0
 10
107.4930222319807
 20
135.7408406086862
 30
0.0
 10
106.5047834280325
 20
135.9153342964018
 30
0.0
 10
105.680059870501
 20
136.0845001470416
 30
0.0
 10
105.0311063698417
 20
136.23238392957
 30
0.0
 10
104.6140715543799
 20
136.3341745138007
 30
0.0
 10
104.4154748414154
 20
136.3845260364039
 30
0.0
 10
104.4387875628487
 20
136.3786203521816
 30
0.0
 10
104.4456954200862
 20
136.376870422487
 30
0.0
  0
LINE
  5
76
330
1F
100
AcDbEntity
  8
0
  6
Continuous
 62
     7
370
    15
100
AcDbLine
 10
114.0757742295
 20
135.3511608036
 30
0.0
 11
112.417707061
 21
135.3511608036
 31
0.0
  0
LINE
  5
77
330
1F
100
AcDbEntity
  8
0
  6
Continuous
 62
     7
370
    15
100
AcDbLine
 10
114.0757742295
 20
129.3426549928
 30
0.0
 11
114.0757742295
 21
135.3511608036
 31
0.0
  0
LINE
  5
78
330
1F
100
AcDbEntity
  8
0
  6
Continuous
 62
     7
370
    15
100
AcDbLine
 10
111.6633274067
 20
129.3426549928
 30
0.0
 11
114.0757742295
 21
129.3426549928
 31
0.0
  0
SPLINE
  5
79
330
1F
100
AcDbEntity
  8
0
  6
Continuous
 62
     7
370
    15
100
AcDbSpline
210
0.0
220
0.0
230
1.0
 70
     8
 71
     3
 72
    20
 73
    16
 74
     0
 42
0.00000001
 43
0.00000001
 40
0.0
 40
0.0
 40
0.0
 40
0.0
 40
0.2500000000000003
 40
0.2500000000000003
 40
0.3750000000000001
 40
0.3750000000000001
 40
0.4999999999999999
 40
0.4999999999999999
 40
0.6249999999999999
 40
0.6249999999999999
 40
0.7499999999999999
 40
0.7499999999999999
 40
0.875
 40
0.875
 40
1.0
 40
1.0
 40
1.0
 40
1.0
 10
104.417707061005
 20
124.7339653304443
 30
0.0
 10
104.6660807952931
 20
125.3878277587417
 30
0.0
 10
104.9856508876383
 20
125.9916135407388
 30
0.0
 10
105.607957120843
 20
126.8184522769074
 30
0.0
 10
105.8393813812737
 20
127.0808809148604
 30
0.0
 10
106.3605957209235
 20
127.5775435689653
 30
0.0
 10
106.6472162035585
 20
127.8081304479869
 30
0.0
 10
107.2667009448661
 20
128.2246846725695
 30
0.0
 10
107.6010013243531
 20
128.412182474537
 30
0.0
 10
108.3262617969779
 20
128.7435794521734
 30
0.0
 10
108.7081768543684
 20
128.8830834396687
 30
0.0
 10
109.5029650305401
 20
129.1085369471396
 30
0.0
 10
109.9171232247464
 20
129.1951630586833
 30
0.0
 10
110.7826695653278
 20
129.3131438475374
 30
0.0
 10
111.2205571803396
 20
129.3426549928118
 30
0.0
 10
111.6633274066943
 20
129.3426549928118
 30
0.0
  0
SPLINE
  5
7A
330
1F
100
AcDbEntity
  8
0
  6
Continuous
 62
     7
370
    15
100
AcDbSpline
210
0.0
220
0.0
230
1.0
 70
     8
 71
     3
 72
    70
 73
    66
 74
     0
 42
0.00000001
 43
0.00000001
 40
-0.0312500000000002
 40
-0.0312500000000002
 40
0.0
 40
0.0
 40
0.0312499999999999
 40
0.0312499999999999
 40
0.0624999999999999
 40
0.0624999999999999
 40
0.0937499999999998
 40
0.0937499999999998
 40
0.1249999999999998
 40
0.1249999999999998
 40
0.1562499999999997
 40
0.1562499999999997
 40
0.1874999999999997
 40
0.1874999999999997
 40
0.2187499999999996
 40
0.2187499999999996
 40
0.2499999999999996
 40
0.2499999999999996
 40
0.2812499999999995
 40
0.2812499999999995
 40
0.3124999999999994
 40
0.3124999999999994
 40
0.3437499999999994
 40
0.3437499999999994
 40
0.3749999999999993
 40
0.3749999999999993
 40
0.4062499999999993
 40
0.4062499999999993
 40
0.4374999999999992
 40
0.4374999999999992
 40
0.4687499999999992
 40
0.4687499999999992
 40
0.4999999999999991
 40
0.4999999999999991
 40
0.5312499999999991
 40
0.5312499999999991
 40
0.562499999999999
 40
0.562499999999999
 40
0.5937499999999989
 40
0.5937499999999989
 40
0.6249999999999989
 40
0.6249999999999989
 40
0.6562499999999989
 40
0.6562499999999989
 40
0.6874999999999988
 40
0.6874999999999988
 40
0.7187499999999987
 40
0.7187499999999987
 40
0.7499999999999987
 40
0.7499999999999987
 40
0.7812499999999988
 40
0.7812499999999988
 40
0.812499999999999
 40
0.812499999999999
 40
0.8437499999999991
 40
0.8437499999999991
 40
0.8749999999999993
 40
0.8749999999999993
 40
0.9062499999999994
 40
0.9062499999999994
 40
0.9374999999999997
 40
0.9374999999999997
 40
0.9687499999999998
 40
0.9687499999999998
 40
1.0
 40
1.0
 40
1.03125
 40
1.03125
 10
107.2031617223448
 20
115.5048722164276
 30
0.0
 10
107.7322523996651
 20
115.5048722164276
 30
0.0
 10
107.9923230670422
 20
115.5295495112128
 30
0.0
 10
108.5038977468776
 20
115.6260211842547
 30
0.0
 10
108.7580730306178
 20
115.6990021002348
 30
0.0
 10
109.2423436606795
 20
115.8887427031734
 30
0.0
 10
109.4719847525607
 20
116.0046033615672
 30
0.0
 10
109.9065891007942
 20
116.2772212075249
 30
0.0
 10
110.1121548774408
 20
116.4352602895786
 30
0.0
 10
110.480712018036
 20
116.7788031405493
 30
0.0
 10
110.6461930007715
 20
116.965565584651
 30
0.0
 10
110.9386175102066
 20
117.3691087590478
 30
0.0
 10
111.0627184868331
 20
117.5826057554769
 30
0.0
 10
111.2622976835828
 20
118.0219890693994
 30
0.0
 10
111.3392312694411
 20
118.251129056545
 30
0.0
 10
111.4420883279615
 20
118.7171031793051
 30
0.0
 10
111.4675612374206
 20
118.9499856249812
 30
0.0
 10
111.4678516479884
 20
119.4153831600611
 30
0.0
 10
111.4418270142126
 20
119.6502589174554
 30
0.0
 10
111.3396787297206
 20
120.1017520647016
 30
0.0
 10
111.2641022821375
 20
120.319798540113
 30
0.0
 10
111.0636047509926
 20
120.7408930651508
 30
0.0
 10
110.9384759094842
 20
120.9428144496691
 30
0.0
 10
110.6491171084626
 20
121.3148439321881
 30
0.0
 10
110.4837061214071
 20
121.4874722357684
 30
0.0
 10
110.1107155632593
 20
121.8047902403144
 30
0.0
 10
109.9089825301702
 20
121.944577173816
 30
0.0
 10
109.4761232793423
 20
122.1887534273679
 30
0.0
 10
109.242204746453
 20
122.2939829384093
 30
0.0
 10
108.7580210113103
 20
122.4621400847845
 30
0.0
 10
108.5087053853548
 20
122.5253909753783
 30
0.0
 10
107.9956728609271
 20
122.6109701844809
 30
0.0
 10
107.7303790380225
 20
122.6328423494033
 30
0.0
 10
107.2080444181527
 20
122.6330059990473
 30
0.0
 10
106.948290755671
 20
122.6120043069513
 30
0.0
 10
106.4316789400257
 20
122.5266019518736
 30
0.0
 10
106.1793128995255
 20
122.4625957685867
 30
0.0
 10
105.6977877779926
 20
122.2957812485455
 30
0.0
 10
105.4649370458791
 20
122.1916480851464
 30
0.0
 10
105.0278471974403
 20
121.9456614326514
 30
0.0
 10
104.8265262087831
 20
121.8059116017025
 30
0.0
 10
104.4574401834832
 20
121.4927735319779
 30
0.0
 10
104.2884554324315
 20
121.3173173727078
 30
0.0
 10
103.9979993757723
 20
120.9444771086076
 30
0.0
 10
103.8749275644102
 20
120.7463552984967
 30
0.0
 10
103.6735913229882
 20
120.325643955763
 30
0.0
 10
103.5963787770459
 20
120.1036539350955
 30
0.0
 10
103.4941752341459
 20
119.6537889953871
 30
0.0
 10
103.4679468826936
 20
119.4235335822704
 30
0.0
 10
103.4674704833765
 20
118.9522176397213
 30
0.0
 10
103.4932128958744
 20
118.7189802240072
 30
0.0
 10
103.5945236722383
 20
118.2573036845091
 30
0.0
 10
103.6713563116292
 20
118.0264062973969
 30
0.0
 10
103.8717601508444
 20
117.5841302836053
 30
0.0
 10
103.9944316491364
 20
117.3730678523194
 30
0.0
 10
104.2843789383007
 20
116.9715693415867
 30
0.0
 10
104.4529499176659
 20
116.7806628195108
 30
0.0
 10
104.8212195117791
 20
116.4369374875137
 30
0.0
 10
105.0222813690494
 20
116.2818003012996
 30
0.0
 10
105.4593122876343
 20
116.0067229412199
 30
0.0
 10
105.6914605007639
 20
115.8896067117979
 30
0.0
 10
106.1724707822628
 20
115.7006802267333
 30
0.0
 10
106.4245708650932
 20
115.6276052563391
 30
0.0
 10
106.9416403513522
 20
115.5295531972045
 30
0.0
 10
107.2031617223448
 20
115.5048722164276
 30
0.0
 10
107.7322523996651
 20
115.5048722164276
 30
0.0
  0
LINE
  5
7B
330
1F
100
AcDbEntity
  8
0
  6
Continuous
 62
     7
370
    15
100
AcDbLine
 10
120.8596398925
 20
74.6970476342
 30
0.0
 11
120.8596398925
 21
124.7339653304
 31
0.0
  0
SPLINE
  5
7C
330
1F
100
AcDbEntity
  8
0
  6
Continuous
 62
     7
370
    15
100
AcDbSpline
210
0.0
220
0.0
230
1.0
 70
     8
 71
     3
 72
     8
 73
     4
 74
     0
 42
0.00000001
 43
0.00000001
 40
0.0
 40
0.0
 40
0.0
 40
0.0
 40
1.0
 40
1.0
 40
1.0
 40
1.0
 10
120.859639892494
 20
74.69704763419713
 30
0.0
 10
120.3641602318283
 20
75.59257372213048
 30
0.0
 10
119.8700461837862
 20
76.48885813718273
 30
0.0
 10
119.377707061005
 20
77.38612817138943
 30
0.0
  0
LINE
  5
7D
330
1F
100
AcDbEntity
  8
0
  6
Continuous
 62
     7
370
    15
100
AcDbLine
 10
119.377707061
 20
77.3861281714
 30
0.0
 11
119.377707061
 21
124.7339653304
 31
0.0
  0
SPLINE
  5
7E
330
1F
100
AcDbEntity
  8
0
  6
Continuous
 62
     7
370
    15
100
AcDbSpline
210
0.0
220
0.0
230
1.0
 70
    24
 71
     3
 72
     8
 73
     4
 74
     0
 42
0.00000001
 43
0.00000001
 40
0.0
 40
0.0
 40
0.0
 40
0.0
 40
1.0
 40
1.0
 40
1.0
 40
1.0
 10
119.377707061005
 20
124.7339653304443
 30
0.0
 10
119.8576590553699
 20
124.7339653304443
 30
0.0
 10
120.3529597843435
 20
124.7339653304443
 30
0.0
 10
120.8596398924941
 20
124.7339653304443
 30
0.0
  0
LINE
  5
7F
330
1F
100
AcDbEntity
  8
0
  6
Continuous
 62
     7
370
    15
100
AcDbLine
 10
125.417707061
 20
75.3236879299
 30
0.0
 11
125.417707061
 21
124.7339653304
 31
0.0
  0
SPLINE
  5
80
330
1F
100
AcDbEntity
  8
0
  6
Continuous
 62
     7
370
    15
100
AcDbSpline
210
0.0
220
0.0
230
1.0
 70
     8
 71
     3
 72
    10
 73
     6
 74
     0
 42
0.00000001
 43
0.00000001
 40
0.0
 40
0.0
 40
0.0
 40
0.0
 40
0.5
 40
0.5
 40
1.0
 40
1.0
 40
1.0
 40
1.0
 10
125.417707061005
 20
75.32368792985145
 30
0.0
 10
125.417707061005
 20
75.16380066165779
 30
0.0
 10
125.3563974097691
 20
75.00267340614317
 30
0.0
 10
125.1372977722341
 20
74.76857440778835
 30
0.0
 10
124.9792495659206
 20
74.69704763419713
 30
0.0
 10
124.817707061005
 20
74.69704763419713
 30
0.0
  0
SPLINE
  5
81
330
1F
100
AcDbEntity
  8
0
  6
Continuous
 62
     7
370
    15
100
AcDbSpline
210
0.0
220
0.0
230
1.0
 70
    24
 71
     3
 72
    12
 73
     8
 74
     0
 42
0.00000001
 43
0.00000001
 40
0.0
 40
0.0
 40
0.0
 40
0.0
 40
0.2500000000000033
 40
0.2500000000000033
 40
0.5000000000000067
 40
0.5000000000000067
 40
1.0
 40
1.0
 40
1.0
 40
1.0
 10
124.817707061005
 20
124.7339653304443
 30
0.0
 10
124.907946128692
 20
124.7339653304443
 30
0.0
 10
124.9988442427985
 20
124.7339653304443
 30
0.0
 10
125.1534412792871
 20
124.7339653304443
 30
0.0
 10
125.2184196953952
 20
124.7339653304443
 30
0.0
 10
125.3702547233314
 20
124.7339653304443
 30
0.0
 10
125.417707061005
 20
124.7339653304443
 30
0.0
 10
125.417707061005
 20
124.7339653304443
 30
0.0
  0
LINE
  5
82
330
1F
100
AcDbEntity
  8
0
  6
Continuous
 62
     7
370
    15
100
AcDbLine
 10
115.557707061
 20
77.3861281714
 30
0.0
 11
115.557707061
 21
124.7339653304
 31
0.0
  0
SPLINE
  5
83
330
1F
100
AcDbEntity
  8
0
  6
Continuous
 62
     7
370
    15
100
AcDbSpline
210
0.0
220
0.0
230
1.0
 70
     8
 71
     3
 72
     8
 73
     4
 74
     0
 42
0.00000001
 43
0.00000001
 40
0.0
 40
0.0
 40
0.0
 40
0.0
 40
1.0
 40
1.0
 40
1.0
 40
1.0
 10
115.557707061005
 20
77.38612817138943
 30
0.0
 10
115.0653679382238
 20
76.48885813718273
 30
0.0
 10
114.5712538901817
 20
75.5925737221305
 30
0.0
 10
114.0757742295159
 20
74.69704763419713
 30
0.0
  0
SPLINE
  5
84
330
1F
100
AcDbEntity
  8
0
  6
Continuous
 62
     7
370
    15
100
AcDbSpline
210
0.0
220
0.0
230
1.0
 70
    24
 71
     3
 72
     8
 73
     4
 74
     0
 42
0.00000001
 43
0.00000001
 40
0.0
 40
0.0
 40
0.0
 40
0.0
 40
1.0
 40
1.0
 40
1.0
 40
1.0
 10
114.0757742295159
 20
124.7339653304443
 30
0.0
 10
114.5824543376665
 20
124.7339653304443
 30
0.0
 10
115.0777550666401
 20
124.7339653304443
 30
0.0
 10
115.557707061005
 20
124.7339653304443
 30
0.0
  0
LINE
  5
85
330
1F
100
AcDbEntity
  8
0
  6
Continuous
 62
     7
370
    15
100
AcDbLine
 10
124.817707061
 20
74.6970476342
 30
0.0
 11
120.8596398925
 21
74.6970476342
 31
0.0
  0
LINE
  5
86
330
1F
100
AcDbEntity
  8
0
  6
Continuous
 62
     7
370
    15
100
AcDbLine
 10
120.8596398925
 20
124.7339653304
 30
0.0
 11
124.817707061
 21
124.7339653304
 31
0.0
  0
LINE
  5
87
330
1F
100
AcDbEntity
  8
0
  6
Continuous
 62
     7
370
    15
100
AcDbLine
 10
99.467707061
 20
73.6839653304
 30
0.0
 11
99.467707061
 21
136.0839653267
 31
0.0
  0
ARC
  5
88
330
1F
100
AcDbEntity
  8
0
  6
Continuous
 62
     7
370
    15
100
AcDbCircle
 10
107.4654511207
 20
116.7850267828
 30
0.0
 40
4.112708064274986
100
AcDbArc
 50
19.1552479729
 51
159.8574241332
  0
SPLINE
  5
89
330
1F
100
AcDbEntity
  8
0
  6
Continuous
 62
     7
370
    15
100
AcDbSpline
210
0.0
220
0.0
230
1.0
 70
    24
 71
     3
 72
    14
 73
    10
 74
     0
 42
0.00000001
 43
0.00000001
 40
0.0
 40
0.0
 40
0.0
 40
0.0
 40
0.4999999999999969
 40
0.4999999999999969
 40
0.7499999999999953
 40
0.7499999999999953
 40
0.8749999999999977
 40
0.8749999999999977
 40
1.0
 40
1.0
 40
1.0
 40
1.0
 10
119.2800322586727
 20
78.4839653304443
 30
0.0
 10
119.2328220994429
 20
78.48396533044429
 30
0.0
 10
119.1695876258992
 20
78.48396533044429
 30
0.0
 10
119.0257756951713
 20
78.48396533044429
 30
0.0
 10
118.9704506206949
 20
78.4839653304443
 30
0.0
 10
118.8585394474599
 20
78.48396533044429
 30
0.0
 10
118.8157523610189
 20
78.4839653304443
 30
0.0
 10
118.7113870279853
 20
78.48396533044429
 30
0.0
 10
118.6471632336836
 20
78.4839653304443
 30
0.0
 10
118.5777070610605
 20
78.4839653304443
 30
0.0
  0
SPLINE
  5
8A
330
1F
100
AcDbEntity
  8
0
  6
Continuous
 62
     7
370
    15
100
AcDbSpline
210
0.0
220
0.0
230
1.0
 70
    24
 71
     3
 72
    12
 73
     8
 74
     0
 42
0.00000001
 43
0.00000001
 40
0.0
 40
0.0
 40
0.0
 40
0.0
 40
0.4999999999999967
 40
0.4999999999999967
 40
0.7499999999999983
 40
0.7499999999999983
 40
1.0
 40
1.0
 40
1.0
 40
1.0
 10
118.9834095293142
 20
131.2839653304443
 30
0.0
 10
118.9399713415113
 20
131.2839653304443
 30
0.0
 10
118.8907770932132
 20
131.2839653304443
 30
0.0
 10
118.7940583358322
 20
131.2839653304443
 30
0.0
 10
118.7578708543305
 20
131.2839653304443
 30
0.0
 10
118.6749929958058
 20
131.2839653304443
 30
0.0
 10
118.6270395484991
 20
131.2839653304443
 30
0.0
 10
118.577707061005
 20
131.2839653304443
 30
0.0
  0
SPLINE
  5
8B
330
1F
100
AcDbEntity
  8
0
  6
Continuous
 62
     7
370
    15
100
AcDbSpline
210
0.0
220
0.0
230
1.0
 70
     8
 71
     3
 72
    10
 73
     6
 74
     0
 42
0.00000001
 43
0.00000001
 40
0.0
 40
0.0
 40
0.0
 40
0.0
 40
0.5
 40
0.5
 40
1.0
 40
1.0
 40
1.0
 40
1.0
 10
119.377707061005
 20
132.0036191814801
 30
0.0
 10
119.377707061005
 20
131.8598491236623
 30
0.0
 10
119.3416580022862
 20
131.7174297611673
 30
0.0
 10
119.2061491415126
 20
131.4675354678104
 30
0.0
 10
119.1062731484167
 20
131.3595051315623
 30
0.0
 10
118.9834095293151
 20
131.2839653304449
 30
0.0
  0
SPLINE
  5
8C
330
1F
100
AcDbEntity
  8
0
  6
Continuous
 62
     7
370
    15
100
AcDbSpline
210
0.0
220
0.0
230
1.0
 70
     8
 71
     3
 72
     9
 73
     5
 74
     0
 42
0.00000001
 43
0.00000001
 40
0.0
 40
0.0
 40
0.0
 40
0.0
 40
0.5
 40
1.0
 40
1.0
 40
1.0
 40
1.0
 10
119.3515594378449
 20
124.7339653304443
 30
0.0
 10
119.3602980077272
 20
124.7811081307797
 30
0.0
 10
119.3733172940636
 20
124.8759042124502
 30
0.0
 10
119.377707061005
 20
124.9716884840106
 30
0.0
 10
119.377707061005
 20
125.0198319619057
 30
0.0
  0
SPLINE
  5
8D
330
1F
100
AcDbEntity
  8
0
  6
Continuous
 62
     7
370
    15
100
AcDbSpline
210
0.0
220
0.0
230
1.0
 70
     8
 71
     3
 72
    10
 73
     6
 74
     0
 42
0.00000001
 43
0.00000001
 40
0.0
 40
0.0
 40
0.0
 40
0.0
 40
0.5
 40
0.5
 40
1.0
 40
1.0
 40
1.0
 40
1.0
 10
115.9520045926959
 20
131.2839653304443
 30
0.0
 10
115.8304643290274
 20
131.3586914976561
 30
0.0
 10
115.7291299686785
 20
131.4676365135728
 30
0.0
 10
115.5934910257901
 20
131.7180669943344
 30
0.0
 10
115.557707061005
 20
131.8604863564334
 30
0.0
 10
115.557707061005
 20
132.0036191814801
 30
0.0
  0
SPLINE
  5
8E
330
1F
100
AcDbEntity
  8
0
  6
Continuous
 62
     7
370
    15
100
AcDbSpline
210
0.0
220
0.0
230
1.0
 70
    24
 71
     3
 72
    12
 73
     8
 74
     0
 42
0.00000001
 43
0.00000001
 40
0.0
 40
0.0
 40
0.0
 40
0.0
 40
0.2499999999999992
 40
0.2499999999999992
 40
0.4999999999999983
 40
0.4999999999999983
 40
1.0
 40
1.0
 40
1.0
 40
1.0
 10
116.357707061005
 20
131.2839653304443
 30
0.0
 10
116.3078303786876
 20
131.2839653304443
 30
0.0
 10
116.2598271852839
 20
131.2839653304443
 30
0.0
 10
116.176779082572
 20
131.2839653304443
 30
0.0
 10
116.1406495031041
 20
131.2839653304443
 30
0.0
 10
116.0447374721599
 20
131.2839653304443
 30
0.0
 10
115.9949788041911
 20
131.2839653304443
 30
0.0
 10
115.9520045926959
 20
131.2839653304443
 30
0.0
  0
SPLINE
  5
8F
330
1F
100
AcDbEntity
  8
0
  6
Continuous
 62
     7
370
    15
100
AcDbSpline
210
0.0
220
0.0
230
1.0
 70
    24
 71
     3
 72
    14
 73
    10
 74
     0
 42
0.00000001
 43
0.00000001
 40
0.0
 40
0.0
 40
0.0
 40
0.0
 40
0.1249999999999999
 40
0.1249999999999999
 40
0.2499999999999998
 40
0.2499999999999998
 40
0.4999999999999996
 40
0.4999999999999996
 40
1.0
 40
1.0
 40
1.0
 40
1.0
 10
116.357707061005
 20
78.4839653304443
 30
0.0
 10
116.2892692131185
 20
78.48396533044429
 30
0.0
 10
116.2237191743535
 20
78.48396533044429
 30
0.0
 10
116.1192925349455
 20
78.48396533044429
 30
0.0
 10
116.0767479251841
 20
78.4839653304443
 30
0.0
 10
115.9641384646439
 20
78.4839653304443
 30
0.0
 10
115.9085994176244
 20
78.4839653304443
 30
0.0
 10
115.7659877221606
 20
78.4839653304443
 30
0.0
 10
115.7025823671648
 20
78.4839653304443
 30
0.0
 10
115.6553818633373
 20
78.4839653304443
 30
0.0
  0
SPLINE
  5
90
330
1F
100
AcDbEntity
  8
0
  6
Continuous
 62
     7
370
    15
100
AcDbSpline
210
0.0
220
0.0
230
1.0
 70
     8
 71
     3
 72
    10
 73
     6
 74
     0
 42
0.00000001
 43
0.00000001
 40
0.0
 40
0.0
 40
0.0
 40
0.0
 40
0.5
 40
0.5
 40
1.0
 40
1.0
 40
1.0
 40
1.0
 10
115.557707061005
 20
125.0198319619057
 30
0.0
 10
115.557707061005
 20
124.9720604539124
 30
0.0
 10
115.5598683046021
 20
124.9243507318507
 30
0.0
 10
115.5685396784623
 20
124.8290556143024
 30
0.0
 10
115.5750688614183
 20
124.7813630503358
 30
0.0
 10
115.5838546841651
 20
124.7339653304443
 30
0.0
  0
LINE
  5
91
330
1F
100
AcDbEntity
  8
0
  6
Continuous
 62
     7
370
    15
100
AcDbLine
 10
118.577707061
 20
131.2839653304
 30
0.0
 11
116.357707061
 21
131.2839653304
 31
0.0
  0
LINE
  5
92
330
1F
100
AcDbEntity
  8
0
  6
Continuous
 62
     7
370
    15
100
AcDbLine
 10
118.577707061
 20
78.4839653304
 30
0.0
 11
116.357707061
 21
78.4839653304
 31
0.0
  0
LINE
  5
93
330
1F
100
AcDbEntity
  8
0
  6
Continuous
 62
     7
370
    15
100
AcDbLine
 10
97.4519547277
 20
80.6643236638
 30
0.0
 11
97.4519547277
 21
129.1036069971
 31
0.0
  0
LINE
  5
94
330
1F
100
AcDbEntity
  8
0
  6
Continuous
 62
     7
370
    15
100
AcDbLine
 10
77.667707061
 20
81.6555184367
 30
0.0
 11
77.667707061
 21
82.9202277992
 31
0.0
  0
SPLINE
  5
95
330
1F
100
AcDbEntity
  8
0
  6
Continuous
 62
     7
370
    15
100
AcDbSpline
210
0.0
220
0.0
230
1.0
 70
     8
 71
     3
 72
    14
 73
    10
 74
     0
 42
0.00000001
 43
0.00000001
 40
0.0
 40
0.0
 40
0.0
 40
0.0
 40
0.25
 40
0.25
 40
0.5
 40
0.5
 40
0.75
 40
0.75
 40
1.0
 40
1.0
 40
1.0
 40
1.0
 10
76.88941994308925
 20
84.05081400688435
 30
0.0
 10
76.94604661829132
 20
83.94311655304749
 30
0.0
 10
77.04056927858105
 20
83.84032697132818
 30
0.0
 10
77.22361425414331
 20
83.64196965910801
 30
0.0
 10
77.31524083109802
 20
83.54591015042978
 30
0.0
 10
77.47409414879122
 20
83.35838110772052
 30
0.0
 10
77.54198475641292
 20
83.26697213493698
 30
0.0
 10
77.6389017821205
 20
83.08859591402681
 30
0.0
 10
77.66770706100556
 20
83.00137400778064
 30
0.0
 10
77.66770706100554
 20
82.92022779924639
 30
0.0
  0
SPLINE
  5
96
330
1F
100
AcDbEntity
  8
0
  6
Continuous
 62
     7
370
    15
100
AcDbSpline
210
0.0
220
0.0
230
1.0
 70
     8
 71
     3
 72
    14
 73
    10
 74
     0
 42
0.00000001
 43
0.00000001
 40
0.0
 40
0.0
 40
0.0
 40
0.0
 40
0.1250000000000015
 40
0.1250000000000015
 40
0.2500000000000029
 40
0.2500000000000029
 40
0.5000000000000032
 40
0.5000000000000032
 40
1.0
 40
1.0
 40
1.0
 40
1.0
 10
76.26770706100498
 20
84.49749586916363
 30
0.0
 10
76.31625146966213
 20
84.50324418244392
 30
0.0
 10
76.36916682444702
 20
84.50014329378769
 30
0.0
 10
76.46446216943006
 20
84.47794844962536
 30
0.0
 10
76.50471316671505
 20
84.46071622252951
 30
0.0
 10
76.60898318022801
 20
84.40438830607746
 30
0.0
 10
76.65930515538133
 20
84.36020196013166
 30
0.0
 10
76.7869881029067
 20
84.22919406128105
 30
0.0
 10
76.84307354996898
 20
84.13895954105075
 30
0.0
 10
76.8894199430907
 20
84.05081400688488
 30
0.0
  0
SPLINE
  5
97
330
1F
100
AcDbEntity
  8
0
  6
Continuous
 62
     7
370
    15
100
AcDbSpline
210
0.0
220
0.0
230
1.0
 70
     8
 71
     3
 72
     8
 73
     4
 74
     0
 42
0.00000001
 43
0.00000001
 40
0.0
 40
0.0
 40
0.0
 40
0.0
 40
1.0
 40
1.0
 40
1.0
 40
1.0
 10
73.99918196805888
 20
84.18765058258087
 30
0.0
 10
74.7337589945418
 20
84.30627559364983
 30
0.0
 10
75.49723406393741
 20
84.4062614657861
 30
0.0
 10
76.26770706100498
 20
84.49749586916363
 30
0.0
  0
SPLINE
  5
98
330
1F
100
AcDbEntity
  8
0
  6
Continuous
 62
     7
370
    15
100
AcDbSpline
210
0.0
220
0.0
230
1.0
 70
     8
 71
     3
 72
    14
 73
    10
 74
     0
 42
0.00000001
 43
0.00000001
 40
0.0
 40
0.0
 40
0.0
 40
0.0
 40
0.4999999999999982
 40
0.4999999999999982
 40
0.7499999999999982
 40
0.7499999999999982
 40
0.8749999999999991
 40
0.8749999999999991
 40
1.0
 40
1.0
 40
1.0
 40
1.0
 10
68.71770706100497
 20
84.01402756504922
 30
0.0
 10
69.60985319155857
 20
84.01330533884857
 30
0.0
 10
70.49982962735218
 20
84.01789154530603
 30
0.0
 10
71.82642479442782
 20
84.04561654969758
 30
0.0
 10
72.26727172292658
 20
84.05822308732175
 30
0.0
 10
72.92371196034901
 20
84.08923923532919
 30
0.0
 10
73.1417256169409
 20
84.10158240795597
 30
0.0
 10
73.57443447062367
 20
84.13460646311923
 30
0.0
 10
73.78971093578848
 20
84.15382362825767
 30
0.0
 10
73.99918196805889
 20
84.18765058258086
 30
0.0
  0
SPLINE
  5
99
330
1F
100
AcDbEntity
  8
0
  6
Continuous
 62
     7
370
    15
100
AcDbSpline
210
0.0
220
0.0
230
1.0
 70
     8
 71
     3
 72
     8
 73
     4
 74
     0
 42
0.00000001
 43
0.00000001
 40
0.0000005163856998
 40
0.0000005163856998
 40
0.0000005163856998
 40
0.0000005163856998
 40
0.000026289209185
 40
0.000026289209185
 40
0.000026289209185
 40
0.000026289209185
 10
68.70766213059737
 20
84.02401143814599
 30
0.0
 10
68.7109898688052
 20
84.02067719127689
 30
0.0
 10
68.7143383217808
 20
84.01734923400157
 30
0.0
 10
68.71770706100496
 20
84.01402756504922
 30
0.0
  0
SPLINE
  5
9A
330
1F
100
AcDbEntity
  8
0
  6
Continuous
 62
     7
370
    15
100
AcDbSpline
210
0.0
220
0.0
230
1.0
 70
     8
 71
     3
 72
     8
 73
     4
 74
     0
 42
0.00000001
 43
0.00000001
 40
0.0000005099763573
 40
0.0000005099763573
 40
0.0000005099763573
 40
0.0000005099763573
 40
0.0000262827998699
 40
0.0000262827998699
 40
0.0000262827998699
 40
0.0000262827998699
 10
68.71770706100496
 20
125.7539030958394
 30
0.0
 10
68.71433832177722
 20
125.7505814268835
 30
0.0
 10
68.71098986879807
 20
125.7472534696046
 30
0.0
 10
68.70766213058674
 20
125.7439192227319
 30
0.0
  0
SPLINE
  5
9B
330
1F
100
AcDbEntity
  8
0
  6
Continuous
 62
     7
370
    15
100
AcDbSpline
210
0.0
220
0.0
230
1.0
 70
     8
 71
     3
 72
    10
 73
     6
 74
     0
 42
0.00000001
 43
0.00000001
 40
0.0
 40
0.0
 40
0.0
 40
0.0
 40
0.5
 40
0.5
 40
1.0
 40
1.0
 40
1.0
 40
1.0
 10
72.26770706100498
 20
125.707052722272
 30
0.0
 10
71.68012151391439
 20
125.7281182425085
 30
0.0
 10
71.08937512045401
 20
125.7388767283807
 30
0.0
 10
69.90535595515514
 20
125.7522415089163
 30
0.0
 10
69.31194196694968
 20
125.7543841515809
 30
0.0
 10
68.71770706100497
 20
125.7539030958394
 30
0.0
  0
SPLINE
  5
9C
330
1F
100
AcDbEntity
  8
0
  6
Continuous
 62
     7
370
    15
100
AcDbSpline
210
0.0
220
0.0
230
1.0
 70
     8
 71
     3
 72
    18
 73
    14
 74
     0
 42
0.00000001
 43
0.00000001
 40
0.0
 40
0.0
 40
0.0
 40
0.0
 40
0.2499999999999995
 40
0.2499999999999995
 40
0.499999999999999
 40
0.499999999999999
 40
0.7499999999999984
 40
0.7499999999999984
 40
0.8749999999999992
 40
0.8749999999999992
 40
0.9374999999999997
 40
0.9374999999999997
 40
1.0
 40
1.0
 40
1.0
 40
1.0
 10
73.66770706100499
 20
126.7280730028073
 30
0.0
 10
73.667707061005
 20
126.6448660939501
 30
0.0
 10
73.63185796106671
 20
126.5561294386365
 30
0.0
 10
73.5069862250328
 20
126.3740042480763
 30
0.0
 10
73.41658580738495
 20
126.2788741994497
 30
0.0
 10
73.19434315264276
 20
126.0896926903253
 30
0.0
 10
73.06457836619698
 20
125.9947475222306
 30
0.0
 10
72.82394090888548
 20
125.8564688146507
 30
0.0
 10
72.73617361074803
 20
125.8107583813483
 30
0.0
 10
72.5816495235412
 20
125.7529350761268
 30
0.0
 10
72.52503863748646
 20
125.735220312089
 30
0.0
 10
72.40099460657987
 20
125.710681008856
 30
0.0
 10
72.33327993156158
 20
125.7047018703178
 30
0.0
 10
72.26770706100498
 20
125.707052722272
 30
0.0
  0
LINE
  5
9D
330
1F
100
AcDbEntity
  8
0
  6
Continuous
 62
     7
370
    15
100
AcDbLine
 10
73.667707061
 20
126.7280730028
 30
0.0
 11
73.667707061
 21
127.9120114226
 31
0.0
  0
SPLINE
  5
9E
330
1F
100
AcDbEntity
  8
0
  6
Continuous
 62
     7
370
    15
100
AcDbSpline
210
0.0
220
0.0
230
1.0
 70
     8
 71
     3
 72
    18
 73
    14
 74
     0
 42
0.00000001
 43
0.00000001
 40
0.0
 40
0.0
 40
0.0
 40
0.0
 40
0.0010655908135293
 40
0.1270932442222498
 40
0.252403821323001
 40
0.3766453754199033
 40
0.4391400916978724
 40
0.5008262944158753
 40
0.5624240613471703
 40
0.625314731653857
 40
0.7499969917139813
 40
0.8752743618592034
 40
1.0
 40
1.0
 40
1.0
 40
1.0
 10
86.23800482516435
 20
81.2266257719014
 30
0.0
 10
86.23709429643807
 20
81.22651115766519
 30
0.0
 10
86.12849534052414
 20
81.2128410932016
 30
0.0
 10
86.51613228751005
 20
81.26375996478676
 30
0.0
 10
87.38208885394135
 20
81.36334265683892
 30
0.0
 10
88.58248919216128
 20
81.43246723509445
 30
0.0
 10
89.64006335846578
 20
81.43642034681243
 30
0.0
 10
90.46719694388734
 20
81.40893215717851
 30
0.0
 10
91.29246911039769
 20
81.35039268852168
 30
0.0
 10
92.34683570115716
 20
81.23687227913787
 30
0.0
 10
93.50867570071881
 20
81.05372173496862
 30
0.0
 10
94.46091957304938
 20
80.84911705712103
 30
0.0
 10
94.5866300122
 20
80.81983045473281
 30
0.0
 10
94.64934651649936
 20
80.80521946986154
 30
0.0
  0
SPLINE
  5
9F
330
1F
100
AcDbEntity
  8
0
  6
Continuous
 62
     7
370
    15
100
AcDbSpline
210
0.0
220
0.0
230
1.0
 70
     8
 71
     3
 72
    18
 73
    14
 74
     0
 42
0.00000001
 43
0.00000001
 40
0.0
 40
0.0
 40
0.0
 40
0.0
 40
0.1248923132163079
 40
0.2505399251702271
 40
0.3748736960321571
 40
0.4374922746933254
 40
0.4990791346244269
 40
0.5607946627364865
 40
0.6233916480318961
 40
0.7478206298632604
 40
0.8731956351447472
 40
0.9991630028880246
 40
0.9999999999999999
 40
0.9999999999999999
 40
0.9999999999999999
 40
0.9999999999999999
 10
94.64912777696823
 20
128.9626460117591
 30
0.0
 10
94.58538393905272
 20
128.9479840034144
 30
0.0
 10
94.45751076599556
 20
128.9185713167652
 30
0.0
 10
93.50550243882117
 20
128.7136167448748
 30
0.0
 10
92.34495502446744
 20
128.5303532500131
 30
0.0
 10
91.29268921168419
 20
128.4173264076314
 30
0.0
 10
90.46846179783597
 20
128.3590634671411
 30
0.0
 10
89.64085852296975
 20
128.3316178284899
 30
0.0
 10
88.58204307795597
 20
128.3356035192152
 30
0.0
 10
87.37982797360144
 20
128.4046936914149
 30
0.0
 10
86.51465215420731
 20
128.5043194215832
 30
0.0
 10
86.12851585389656
 20
128.5551348688032
 30
0.0
 10
86.23658739121551
 20
128.5414627106394
 30
0.0
 10
86.2373007386206
 20
128.5413724648745
 30
0.0
  0
SPLINE
  5
A0
330
1F
100
AcDbEntity
  8
0
  6
Continuous
 62
     7
370
    15
100
AcDbSpline
210
0.0
220
0.0
230
1.0
 70
     8
 71
     3
 72
    10
 73
     6
 74
     0
 42
0.00000001
 43
0.00000001
 40
0.0
 40
0.0
 40
0.0
 40
0.0
 40
0.5
 40
0.5
 40
1.0
 40
1.0
 40
1.0
 40
1.0
 10
67.56770706100431
 20
85.1932875839668
 30
0.0
 10
67.56770706100427
 20
85.1644133191074
 30
0.0
 10
67.57790097076538
 20
85.14690976272887
 30
0.0
 10
67.60465157557354
 20
85.14637819990112
 30
0.0
 10
67.62153902750488
 20
85.16404565708068
 30
0.0
 10
67.6303704357284
 20
85.20941278566355
 30
0.0
  0
LINE
  5
A1
330
1F
100
AcDbEntity
  8
0
  6
Continuous
 62
     7
370
    15
100
AcDbLine
 10
67.567707061
 20
85.193287584
 30
0.0
 11
67.567707061
 21
124.5746430769
 31
0.0
  0
SPLINE
  5
A2
330
1F
100
AcDbEntity
  8
0
  6
Continuous
 62
     7
370
    15
100
AcDbSpline
210
0.0
220
0.0
230
1.0
 70
     8
 71
     3
 72
    10
 73
     6
 74
     0
 42
0.00000001
 43
0.00000001
 40
0.0
 40
0.0
 40
0.0
 40
0.0
 40
0.5
 40
0.5
 40
1.0
 40
1.0
 40
1.0
 40
1.0
 10
67.6303704357284
 20
124.558517875225
 30
0.0
 10
67.62146614661962
 20
124.6042593944382
 30
0.0
 10
67.60495076642664
 20
124.6214502339072
 30
0.0
 10
67.57784282036502
 20
124.6211269569715
 30
0.0
 10
67.56770706100498
 20
124.603249414675
 30
0.0
 10
67.56770706100498
 20
124.5746430769224
 30
0.0
  0
SPLINE
  5
A3
330
1F
100
AcDbEntity
  8
0
  6
Continuous
 62
     7
370
    15
100
AcDbSpline
210
0.0
220
0.0
230
1.0
 70
     8
 71
     3
 72
    26
 73
    22
 74
     0
 42
0.00000001
 43
0.00000001
 40
0.0
 40
0.0
 40
0.0
 40
0.0
 40
0.2499999999999984
 40
0.2499999999999984
 40
0.3749999999999983
 40
0.3749999999999983
 40
0.4374999999999977
 40
0.4374999999999977
 40
0.4687499999999983
 40
0.4687499999999983
 40
0.4999999999999988
 40
0.4999999999999988
 40
0.5312499999999993
 40
0.5312499999999993
 40
0.5624999999999999
 40
0.5624999999999999
 40
0.6249999999999989
 40
0.6249999999999989
 40
0.7500000000000001
 40
0.7500000000000001
 40
1.0
 40
1.0
 40
1.0
 40
1.0
 10
68.39186070710949
 20
125.2740846640421
 30
0.0
 10
68.35326018424101
 20
125.1563099676867
 30
0.0
 10
68.30696318168674
 20
125.0319202815248
 30
0.0
 10
68.21302383325282
 20
124.8267009491713
 30
0.0
 10
68.17771236633935
 20
124.7551280827248
 30
0.0
 10
68.11153239059368
 20
124.6391748501244
 30
0.0
 10
68.08699402392543
 20
124.5985903153141
 30
0.0
 10
68.04362127837166
 20
124.5344486334424
 30
0.0
 10
68.0281128769465
 20
124.5125822081574
 30
0.0
 10
67.99307023235949
 20
124.4669879398142
 30
0.0
 10
67.97351994163967
 20
124.4433176488468
 30
0.0
 10
67.93159266126905
 20
124.3987010895068
 30
0.0
 10
67.90894055103742
 20
124.3778210769889
 30
0.0
 10
67.86796683695079
 20
124.3469476632381
 30
0.0
 10
67.85036753705536
 20
124.3371087934057
 30
0.0
 10
67.80574055119924
 20
124.3181191777095
 30
0.0
 10
67.78518132854589
 20
124.3177948530561
 30
0.0
 10
67.73405588904924
 20
124.3270182939323
 30
0.0
 10
67.71314447606069
 20
124.3482651901493
 30
0.0
 10
67.66169456849977
 20
124.42223406898
 30
0.0
 10
67.64402926919522
 20
124.4883521622948
 30
0.0
 10
67.6303704357284
 20
124.558517875225
 30
0.0
  0
SPLINE
  5
A4
330
1F
100
AcDbEntity
  8
0
  6
Continuous
 62
     7
370
    15
100
AcDbSpline
210
0.0
220
0.0
230
1.0
 70
     8
 71
     3
 72
    10
 73
     6
 74
     0
 42
0.00000001
 43
0.00000001
 40
0.0
 40
0.0
 40
0.0
 40
0.0
 40
0.5
 40
0.5
 40
1.0
 40
1.0
 40
1.0
 40
1.0
 10
68.70766213058677
 20
125.7439192227319
 30
0.0
 10
68.64010287566852
 20
125.6762278299222
 30
0.0
 10
68.57646622033204
 20
125.6015206651685
 30
0.0
 10
68.46624546576017
 20
125.4425545327419
 30
0.0
 10
68.41942917253755
 20
125.3581992667339
 30
0.0
 10
68.39186070710949
 20
125.2740846640421
 30
0.0
  0
SPLINE
  5
A5
330
1F
100
AcDbEntity
  8
0
  6
Continuous
 62
     7
370
    15
100
AcDbSpline
210
0.0
220
0.0
230
1.0
 70
     8
 71
     3
 72
    10
 73
     6
 74
     0
 42
0.00000001
 43
0.00000001
 40
0.0
 40
0.0
 40
0.0
 40
0.0
 40
0.5
 40
0.5
 40
1.0
 40
1.0
 40
1.0
 40
1.0
 10
68.39186070710952
 20
84.49384599684635
 30
0.0
 10
68.41933812186349
 20
84.41000920037844
 30
0.0
 10
68.4660467521529
 20
84.3256987127893
 30
0.0
 10
68.57632521489889
 20
84.16657748230259
 30
0.0
 10
68.64021275351277
 20
84.09159273821292
 30
0.0
 10
68.7076621305974
 20
84.02401143814599
 30
0.0
  0
SPLINE
  5
A6
330
1F
100
AcDbEntity
  8
0
  6
Continuous
 62
     7
370
    15
100
AcDbSpline
210
0.0
220
0.0
230
1.0
 70
     8
 71
     3
 72
    24
 73
    20
 74
     0
 42
0.00000001
 43
0.00000001
 40
0.0
 40
0.0
 40
0.0
 40
0.0
 40
0.2499999999999951
 40
0.2499999999999951
 40
0.3749999999999913
 40
0.3749999999999913
 40
0.4374999999999885
 40
0.4374999999999885
 40
0.4687499999999882
 40
0.4687499999999882
 40
0.499999999999988
 40
0.499999999999988
 40
0.56249999999999
 40
0.56249999999999
 40
0.624999999999992
 40
0.624999999999992
 40
0.7499999999999958
 40
0.7499999999999958
 40
1.0
 40
1.0
 40
1.0
 40
1.0
 10
67.6303704357284
 20
85.20941278566355
 30
0.0
 10
67.64412355439859
 20
85.28006284365382
 30
0.0
 10
67.66189612180447
 20
85.34666095641875
 30
0.0
 10
67.71414721335984
 20
85.42075897665194
 30
0.0
 10
67.7351822889414
 20
85.4420167838135
 30
0.0
 10
67.78808269656983
 20
85.45016270995974
 30
0.0
 10
67.80918836944777
 20
85.44922290656397
 30
0.0
 10
67.85524053812573
 20
85.42820691498663
 30
0.0
 10
67.8736110101091
 20
85.41729810887901
 30
0.0
 10
67.9151626451748
 20
85.38466319793163
 30
0.0
 10
67.93772931793171
 20
85.36317121756028
 30
0.0
 10
68.00051033439175
 20
85.29470527397396
 30
0.0
 10
68.03364009535963
 20
85.24863081576889
 30
0.0
 10
68.09055778184462
 20
85.1636229274342
 30
0.0
 10
68.11474380734839
 20
85.12334262625282
 30
0.0
 10
68.17995175772818
 20
85.00840639978688
 30
0.0
 10
68.21466781791943
 20
84.93782341463988
 30
0.0
 10
68.30788308825029
 20
84.73361765556128
 30
0.0
 10
68.35355562361097
 20
84.61071927323393
 30
0.0
 10
68.39186070710952
 20
84.49384599684635
 30
0.0
  0
LINE
  5
A7
330
1F
100
AcDbEntity
  8
0
  6
Continuous
 62
     7
370
    15
100
AcDbLine
 10
119.377707061
 20
125.0198319619
 30
0.0
 11
119.377707061
 21
125.934108998
 31
0.0
  0
SPLINE
  5
A8
330
1F
100
AcDbEntity
  8
0
  6
Continuous
 62
     7
370
    15
100
AcDbSpline
210
0.0
220
0.0
230
1.0
 70
     8
 71
     3
 72
     8
 73
     4
 74
     0
 42
0.00000001
 43
0.00000001
 40
0.0
 40
0.0
 40
0.0
 40
0.0
 40
1.0
 40
1.0
 40
1.0
 40
1.0
 10
119.377707061005
 20
125.9341089980276
 30
0.0
 10
119.8569852115948
 20
127.0751202278802
 30
0.0
 10
120.3525530507348
 20
128.2115046386481
 30
0.0
 10
120.859639892494
 20
129.3426549928117
 30
0.0
  0
LINE
  5
A9
330
1F
100
AcDbEntity
  8
0
  6
Continuous
 62
     7
370
    15
100
AcDbLine
 10
120.8596398925
 20
129.3426549928
 30
0.0
 11
124.817707061
 21
129.3426549928
 31
0.0
  0
SPLINE
  5
AA
330
1F
100
AcDbEntity
  8
0
  6
Continuous
 62
     7
370
    15
100
AcDbSpline
210
0.0
220
0.0
230
1.0
 70
     8
 71
     3
 72
    12
 73
     8
 74
     0
 42
0.00000001
 43
0.00000001
 40
0.0
 40
0.0
 40
0.0
 40
0.0
 40
0.250000000000002
 40
0.250000000000002
 40
0.500000000000004
 40
0.500000000000004
 40
1.0
 40
1.0
 40
1.0
 40
1.0
 10
124.817707061005
 20
129.3426549928118
 30
0.0
 10
124.9089067828306
 20
129.3426549928118
 30
0.0
 10
124.9995017919667
 20
129.3144352942238
 30
0.0
 10
125.1529145184133
 20
129.2199922869758
 30
0.0
 10
125.218123385737
 20
129.1537053102704
 30
0.0
 10
125.3709079150769
 20
128.9280804869821
 30
0.0
 10
125.417707061005
 20
128.7456542239496
 30
0.0
 10
125.417707061005
 20
128.5649175917027
 30
0.0
  0
LINE
  5
AB
330
1F
100
AcDbEntity
  8
0
  6
Continuous
 62
     7
370
    15
100
AcDbLine
 10
125.417707061
 20
128.5649175917
 30
0.0
 11
125.417707061
 21
124.7339653304
 31
0.0
  0
LINE
  5
AC
330
1F
100
AcDbEntity
  8
0
  6
Continuous
 62
     7
370
    15
100
AcDbLine
 10
124.817707061
 20
135.3511608036
 30
0.0
 11
120.8596398925
 21
135.3511608036
 31
0.0
  0
LINE
  5
AD
330
1F
100
AcDbEntity
  8
0
  6
Continuous
 62
     7
370
    15
100
AcDbLine
 10
120.8596398925
 20
129.3426549928
 30
0.0
 11
120.8596398925
 21
135.3511608036
 31
0.0
  0
SPLINE
  5
AE
330
1F
100
AcDbEntity
  8
0
  6
Continuous
 62
     7
370
    15
100
AcDbSpline
210
0.0
220
0.0
230
1.0
 70
     8
 71
     3
 72
     8
 73
     4
 74
     0
 42
0.00000001
 43
0.00000001
 40
0.0
 40
0.0
 40
0.0
 40
0.0
 40
1.0
 40
1.0
 40
1.0
 40
1.0
 10
120.859639892494
 20
135.3511608036085
 30
0.0
 10
120.3644998631297
 20
134.4644811554283
 30
0.0
 10
119.8704171578507
 20
133.5772185197423
 30
0.0
 10
119.377707061005
 20
132.6891995216159
 30
0.0
  0
LINE
  5
AF
330
1F
100
AcDbEntity
  8
0
  6
Continuous
 62
     7
370
    15
100
AcDbLine
 10
119.377707061
 20
125.934108998
 30
0.0
 11
119.377707061
 21
132.6891995216
 31
0.0
  0
SPLINE
  5
B0
330
1F
100
AcDbEntity
  8
0
  6
Continuous
 62
     7
370
    15
100
AcDbSpline
210
0.0
220
0.0
230
1.0
 70
     8
 71
     3
 72
     8
 73
     4
 74
     0
 42
0.00000001
 43
0.00000001
 40
0.0
 40
0.0
 40
0.0
 40
0.0
 40
1.0
 40
1.0
 40
1.0
 40
1.0
 10
115.557707061005
 20
132.6891995216159
 30
0.0
 10
115.0649969641592
 20
133.5772185197423
 30
0.0
 10
114.5709142588803
 20
134.4644811554283
 30
0.0
 10
114.0757742295159
 20
135.3511608036085
 30
0.0
  0
SPLINE
  5
B1
330
1F
100
AcDbEntity
  8
0
  6
Continuous
 62
     7
370
    15
100
AcDbSpline
210
0.0
220
0.0
230
1.0
 70
     8
 71
     3
 72
     8
 73
     4
 74
     0
 42
0.00000001
 43
0.00000001
 40
0.0
 40
0.0
 40
0.0
 40
0.0
 40
1.0
 40
1.0
 40
1.0
 40
1.0
 10
114.0757742295159
 20
129.3426549928117
 30
0.0
 10
114.5828610712752
 20
128.2115046386481
 30
0.0
 10
115.0784289104151
 20
127.0751202278802
 30
0.0
 10
115.557707061005
 20
125.9341089980277
 30
0.0
  0
LINE
  5
B2
330
1F
100
AcDbEntity
  8
0
  6
Continuous
 62
     7
370
    15
100
AcDbLine
 10
115.557707061
 20
125.934108998
 30
0.0
 11
115.557707061
 21
132.6891995216
 31
0.0
  0
SPLINE
  5
B3
330
1F
100
AcDbEntity
  8
0
  6
Continuous
 62
     7
370
    15
100
AcDbSpline
210
0.0
220
0.0
230
1.0
 70
     8
 71
     3
 72
    10
 73
     6
 74
     0
 42
0.00000001
 43
0.00000001
 40
0.0
 40
0.0
 40
0.0
 40
0.0
 40
0.5
 40
0.5
 40
1.0
 40
1.0
 40
1.0
 40
1.0
 10
125.417707061005
 20
134.7304056542082
 30
0.0
 10
125.417707061005
 20
134.890810920559
 30
0.0
 10
125.3554692298981
 20
135.0498727335476
 30
0.0
 10
125.1363343061556
 20
135.2807851991779
 30
0.0
 10
124.9787456111637
 20
135.3511608036085
 30
0.0
 10
124.817707061005
 20
135.3511608036085
 30
0.0
  0
LINE
  5
B4
330
1F
100
AcDbEntity
  8
0
  6
Continuous
 62
     7
370
    15
100
AcDbLine
 10
125.417707061
 20
128.5649175917
 30
0.0
 11
125.417707061
 21
134.7304056542
 31
0.0
  0
LINE
  5
B5
330
1F
100
AcDbEntity
  8
0
  6
Continuous
 62
     7
370
    15
100
AcDbLine
 10
115.557707061
 20
125.934108998
 30
0.0
 11
115.557707061
 21
125.0198319619
 31
0.0
  0
ARC
  5
B6
330
1F
100
AcDbEntity
  8
0
  6
Continuous
 62
     7
370
    15
100
AcDbCircle
 10
107.4675569827
 20
123.6142504064
 30
0.0
 40
7.226153047390269
100
AcDbArc
 50
70.8273481302
 51
109.12768509
  0
LINE
  5
B7
330
1F
100
AcDbEntity
  8
0
  6
Continuous
 62
     7
370
    15
100
AcDbLine
 10
191.3490928525
 20
91.3839653304
 30
0.0
 11
191.3490928525
 21
118.3839653304
 31
0.0
  0
LINE
  5
B8
330
1F
100
AcDbEntity
  8
0
  6
Continuous
 62
     7
370
    15
100
AcDbLine
 10
159.0992905288
 20
118.2049693333
 30
0.0
 11
159.3604201495
 21
118.1762261847
 31
0.0
  0
SPLINE
  5
B9
330
1F
100
AcDbEntity
  8
0
  6
Continuous
 62
     7
370
    15
100
AcDbSpline
210
0.0
220
0.0
230
1.0
 70
     8
 71
     3
 72
    27
 73
    23
 74
     0
 42
0.00000001
 43
0.00000001
 40
0.0
 40
0.0
 40
0.0
 40
0.0
 40
0.0066324463199048
 40
0.0503257898579116
 40
0.0895616574519562
 40
0.1297896901112754
 40
0.1721019713339674
 40
0.2153307034058526
 40
0.264575739997883
 40
0.3148755333188339
 40
0.3723282392559413
 40
0.4311526801535396
 40
0.494422587448362
 40
0.5594219556735502
 40
0.6244813071159886
 40
0.6915121987255471
 40
0.7548529546570374
 40
0.8205145121820749
 40
0.8653933692977778
 40
0.9114808892919185
 40
0.9564119844006921
 40
1.0
 40
1.0
 40
1.0
 40
1.0
 10
164.9126890252426
 20
118.3830700822777
 30
0.0
 10
164.9142891394256
 20
118.3833555274651
 30
0.0
 10
164.9264305132479
 20
118.3855214333504
 30
0.0
 10
164.8748559378587
 20
118.3762807715938
 30
0.0
 10
164.7606466908298
 20
118.356269458142
 30
0.0
 10
164.5817814631727
 20
118.3260752784465
 30
0.0
 10
164.3437053438207
 20
118.2881988586767
 30
0.0
 10
164.0369684890734
 20
118.2432930037836
 30
0.0
 10
163.6643936366812
 20
118.194860102282
 30
0.0
 10
163.2107702658606
 20
118.1452808606648
 30
0.0
 10
162.6912483009069
 20
118.101538401285
 30
0.0
 10
162.1016390130479
 20
118.0695347280288
 30
0.0
 10
161.469758332201
 20
118.056311996128
 30
0.0
 10
160.8152435003644
 20
118.0661693211262
 30
0.0
 10
160.1647644853223
 20
118.0992778603464
 30
0.0
 10
159.5553066628079
 20
118.1511926503683
 30
0.0
 10
159.0002984193434
 20
118.2152198875643
 30
0.0
 10
158.5774388645474
 20
118.274854424706
 30
0.0
 10
158.2706105847322
 20
118.3232143397974
 30
0.0
 10
158.0706510060249
 20
118.3569176429075
 30
0.0
 10
157.9408148815958
 20
118.3798090547206
 30
0.0
 10
157.9271838216436
 20
118.3822641138767
 30
0.0
 10
157.9204717020903
 20
118.3834730184391
 30
0.0
  0
SPLINE
  5
BA
330
1F
100
AcDbEntity
  8
0
  6
Continuous
 62
     7
370
    15
100
AcDbSpline
210
0.0
220
0.0
230
1.0
 70
     8
 71
     3
 72
    58
 73
    54
 74
     0
 42
0.00000001
 43
0.00000001
 40
-0.0312499999999997
 40
-0.0312499999999997
 40
0.0
 40
0.0
 40
0.0625000000000012
 40
0.0625000000000012
 40
0.1250000000000025
 40
0.1250000000000025
 40
0.1875000000000037
 40
0.1875000000000037
 40
0.2500000000000049
 40
0.2500000000000049
 40
0.2812500000000048
 40
0.2812500000000048
 40
0.3125000000000046
 40
0.3125000000000046
 40
0.3437500000000044
 40
0.3437500000000044
 40
0.3750000000000042
 40
0.3750000000000042
 40
0.4062500000000041
 40
0.4062500000000041
 40
0.4375000000000039
 40
0.4375000000000039
 40
0.4687500000000037
 40
0.4687500000000037
 40
0.5000000000000036
 40
0.5000000000000036
 40
0.5625000000000032
 40
0.5625000000000032
 40
0.5937500000000041
 40
0.5937500000000041
 40
0.6250000000000039
 40
0.6250000000000039
 40
0.6562500000000038
 40
0.6562500000000038
 40
0.6875000000000036
 40
0.6875000000000036
 40
0.7500000000000022
 40
0.7500000000000022
 40
0.781250000000002
 40
0.781250000000002
 40
0.8125000000000018
 40
0.8125000000000018
 40
0.8437500000000014
 40
0.8437500000000014
 40
0.8750000000000012
 40
0.8750000000000012
 40
0.9062500000000009
 40
0.9062500000000009
 40
0.9375000000000007
 40
0.9375000000000007
 40
0.9687500000000003
 40
0.9687500000000003
 40
1.0
 40
1.0
 40
1.062500000000001
 40
1.062500000000001
 10
158.9295722159308
 20
106.9481171443448
 30
0.0
 10
159.438727158
 20
107.3289159334544
 30
0.0
 10
159.8142643446296
 20
107.5154759891848
 30
0.0
 10
160.6240203644188
 20
107.7679224796588
 30
0.0
 10
161.0413635992201
 20
107.8278138742821
 30
0.0
 10
161.8903129711989
 20
107.8177849412212
 30
0.0
 10
162.3036760746572
 20
107.7486280507873
 30
0.0
 10
163.1074947280631
 20
107.4767265577747
 30
0.0
 10
163.4767675690219
 20
107.281495498399
 30
0.0
 10
163.9736368934605
 20
106.8889314971548
 30
0.0
 10
164.1267634020669
 20
106.7427816165203
 30
0.0
 10
164.3986209495532
 20
106.4242285050819
 30
0.0
 10
164.5198728396159
 20
106.2483843051947
 30
0.0
 10
164.7171893559385
 20
105.875939046357
 30
0.0
 10
164.7930769318397
 20
105.6811621209729
 30
0.0
 10
164.895298683435
 20
105.2728918221277
 30
0.0
 10
164.9205805185013
 20
105.0582187552798
 30
0.0
 10
164.9142943479086
 20
104.637532724346
 30
0.0
 10
164.8830200922254
 20
104.4251754616334
 30
0.0
 10
164.7683256279309
 20
104.0172888489631
 30
0.0
 10
164.6862527240858
 20
103.8231264670802
 30
0.0
 10
164.4764671018753
 20
103.4527498577414
 30
0.0
 10
164.3521619229523
 20
103.2825650202288
 30
0.0
 10
164.0705311053918
 20
102.9690045586983
 30
0.0
 10
163.9123772980611
 20
102.8255155693692
 30
0.0
 10
163.4086235388045
 20
102.4463727907014
 30
0.0
 10
163.0240600553579
 20
102.2541303860104
 30
0.0
 10
162.4221090865186
 20
102.0653250301209
 30
0.0
 10
162.2146021754657
 20
102.0180506023058
 30
0.0
 10
161.7948626651381
 20
101.956773875436
 30
0.0
 10
161.5847825753542
 20
101.9428460323763
 30
0.0
 10
161.1642147831791
 20
101.947306112445
 30
0.0
 10
160.952605608671
 20
101.9658896732006
 30
0.0
 10
160.533930540746
 20
102.0364169763336
 30
0.0
 10
160.330051761756
 20
102.0876289676354
 30
0.0
 10
159.7345544493464
 20
102.2887540489237
 30
0.0
 10
159.353455314961
 20
102.4903228512391
 30
0.0
 10
158.8627618282518
 20
102.8783286725055
 30
0.0
 10
158.7111083661411
 20
103.0223682627269
 30
0.0
 10
158.4355348434865
 20
103.3450780497203
 30
0.0
 10
158.3156018879271
 20
103.5194715222503
 30
0.0
 10
158.118388713515
 20
103.8916426374967
 30
0.0
 10
158.0402102729614
 20
104.0929696811711
 30
0.0
 10
157.9390029650584
 20
104.5018499083867
 30
0.0
 10
157.9143781690363
 20
104.7114551144546
 30
0.0
 10
157.9217521451169
 20
105.1396570708849
 30
0.0
 10
157.9534920418009
 20
105.3484618857359
 30
0.0
 10
158.0691824233431
 20
105.7562359639872
 30
0.0
 10
158.1535876917472
 20
105.9538696063506
 30
0.0
 10
158.3626684101642
 20
106.3204502743542
 30
0.0
 10
158.4895915807082
 20
106.4934635634605
 30
0.0
 10
158.7725700675305
 20
106.80639187719
 30
0.0
 10
158.9295722159308
 20
106.9481171443448
 30
0.0
 10
159.438727158
 20
107.3289159334544
 30
0.0
  0
LINE
  5
BB
330
1F
100
AcDbEntity
  8
0
  6
Continuous
 62
     7
370
    15
100
AcDbLine
 10
159.0992905291
 20
91.5629613276
 30
0.0
 11
159.0230619045
 21
91.5528288158
 31
0.0
  0
SPLINE
  5
BC
330
1F
100
AcDbEntity
  8
0
  6
Continuous
 62
     7
370
    15
100
AcDbSpline
210
0.0
220
0.0
230
1.0
 70
     8
 71
     3
 72
    27
 73
    23
 74
     0
 42
0.00000001
 43
0.00000001
 40
0.0
 40
0.0
 40
0.0
 40
0.0
 40
0.0262582291798484
 40
0.0656182729654226
 40
0.1060502771061856
 40
0.1469534708778859
 40
0.1887696942066964
 40
0.2356878247278944
 40
0.283599949604172
 40
0.3386998708622893
 40
0.3950627714065692
 40
0.4570402614341036
 40
0.520652457717768
 40
0.5855409720278292
 40
0.652332497837776
 40
0.7166458132954441
 40
0.7831561530587439
 40
0.8310029358319977
 40
0.8801293960106613
 40
0.9280395577194698
 40
0.9778152120606914
 40
1.0
 40
1.0
 40
1.0
 40
1.0
 10
157.9277748057511
 20
91.38576403253734
 30
0.0
 10
157.9266113341211
 20
91.38555754397376
 30
0.0
 10
157.9237038646767
 20
91.3850415372455
 30
0.0
 10
158.0007795624516
 20
91.39876528664433
 30
0.0
 10
158.1397429078389
 20
91.4228013087002
 30
0.0
 10
158.3430563454025
 20
91.45638475596279
 30
0.0
 10
158.6091864072111
 20
91.4974600179249
 30
0.0
 10
158.9398049134745
 20
91.54381424556384
 30
0.0
 10
159.3488314014056
 20
91.59374344310855
 30
0.0
 10
159.8254945275979
 20
91.64126358035445
 30
0.0
 10
160.3793362885691
 20
91.68138938145489
 30
0.0
 10
160.9855741066404
 20
91.70636352866532
 30
0.0
 10
161.6315323854477
 20
91.71044082218955
 30
0.0
 10
162.2881591645302
 20
91.69096955270965
 30
0.0
 10
162.9229485669446
 20
91.64952520160355
 30
0.0
 10
163.5184640315867
 20
91.5912300796121
 30
0.0
 10
163.9981344452213
 20
91.53045183490055
 30
0.0
 10
164.3691609299071
 20
91.47598357507209
 30
0.0
 10
164.6362079410951
 20
91.4329335530642
 30
0.0
 10
164.8236036282966
 20
91.40076569961272
 30
0.0
 10
164.9145862985434
 20
91.38452421567393
 30
0.0
 10
164.910063801964
 20
91.38533153935506
 30
0.0
 10
164.9086695550084
 20
91.38558043033038
 30
0.0
  0
LINE
  5
BD
330
1F
100
AcDbEntity
  8
0
  6
Continuous
 62
     7
370
    15
100
AcDbLine
 10
159.2751329021
 20
91.5833217695
 30
0.0
 11
159.0992905291
 21
91.5629613276
 31
0.0
  0
CIRCLE
  5
BE
330
1F
100
AcDbEntity
  8
0
  6
Continuous
 62
     7
370
    15
100
AcDbCircle
 10
161.417707061
 20
104.8839653304
 30
0.0
 40
2.500000000000028
  0
LINE
  5
BF
330
1F
100
AcDbEntity
  8
0
  6
Continuous
 62
     7
370
    15
100
AcDbLine
 10
229.467707061
 20
96.2327463138
 30
0.0
 11
229.467707061
 21
113.5351843471
 31
0.0
  0
LINE
  5
C0
330
1F
100
AcDbEntity
  8
0
  6
Continuous
 62
     7
370
    15
100
AcDbLine
 10
229.467707061
 20
99.1345439994
 30
0.0
 11
229.5450292681
 21
97.1665624125
 31
0.0
  0
LINE
  5
C1
330
1F
100
AcDbEntity
  8
0
  6
Continuous
 62
     7
370
    15
100
AcDbLine
 10
229.5450292681
 20
112.6013682484
 30
0.0
 11
229.467707061
 21
110.6333866615
 31
0.0
  0
LINE
  5
C2
330
1F
100
AcDbEntity
  8
0
  6
HIDDEN
 62
     7
370
     0
100
AcDbLine
 10
114.0757742295
 20
129.3426549928
 30
0.0
 11
114.0757742295
 21
124.7339653304
 31
0.0
  0
ARC
  5
C3
330
1F
100
AcDbEntity
  8
0
  6
HIDDEN
 62
     7
370
     0
100
AcDbCircle
 10
107.7685596482
 20
117.3651042812
 30
0.0
 40
3.6635982219728
100
AcDbArc
 50
265.2895990822
 51
12.123397413
  0
ARC
  5
C4
330
1F
100
AcDbEntity
  8
0
  6
HIDDEN
 62
     7
370
     0
100
AcDbCircle
 10
107.1867871096
 20
117.3788269574
 30
0.0
 40
3.67569763775744
100
AcDbArc
 50
167.0705505165
 51
274.3831782294
  0
LINE
  5
C5
330
1F
100
AcDbEntity
  8
0
  6
HIDDEN
 62
     7
370
     0
100
AcDbLine
 10
87.4628717718
 20
81.3593667275
 30
0.0
 11
86.9287985997
 21
81.3047597894
 31
0.0
  0
LINE
  5
C6
330
1F
100
AcDbEntity
  8
0
  6
HIDDEN
 62
     7
370
     0
100
AcDbLine
 10
86.6906823262
 20
128.4873369309
 30
0.0
 11
87.4627790522
 21
128.4085473405
 31
0.0
  0
SPLINE
  5
C7
330
1F
100
AcDbEntity
  8
0
  6
HIDDEN
 62
     7
370
     0
100
AcDbSpline
210
0.0
220
0.0
230
1.0
 70
     8
 71
     3
 72
    22
 73
    18
 74
     0
 42
0.00000001
 43
0.00000001
 40
0.0
 40
0.0
 40
0.0
 40
0.0
 40
0.0694705033055671
 40
0.1409377255045836
 40
0.2104135489148409
 40
0.2819466223559928
 40
0.3506518733998511
 40
0.4213897814436842
 40
0.4894670043894696
 40
0.5594810940348489
 40
0.6282706827033763
 40
0.6989997382187422
 40
0.7687375408512294
 40
0.8405098102584769
 40
0.9099666189318132
 40
0.9814998892127892
 40
0.9999999999999999
 40
0.9999999999999999
 40
0.9999999999999999
 40
0.9999999999999999
 10
93.22270906260657
 20
85.04643685462783
 30
0.0
 10
93.07453520814722
 20
85.06616319443715
 30
0.0
 10
92.77392869123611
 20
85.10618284785792
 30
0.0
 10
92.23903382855534
 20
85.16155651138779
 30
0.0
 10
91.6533952758866
 20
85.2060128965156
 30
0.0
 10
91.03916261631323
 20
85.23369787196778
 30
0.0
 10
90.40524597094499
 20
85.24195112543761
 30
0.0
 10
89.78309727037319
 20
85.22997107055716
 30
0.0
 10
89.17709980051252
 20
85.19922031679619
 30
0.0
 10
88.61261087938603
 20
85.15375434604599
 30
0.0
 10
88.09323464180437
 20
85.09767319424641
 30
0.0
 10
87.64036914412291
 20
85.037683031928
 30
0.0
 10
87.26165400045726
 20
84.97970311756909
 30
0.0
 10
86.97356887938214
 20
84.93078430942256
 30
0.0
 10
86.79111098282952
 20
84.89774894689683
 30
0.0
 10
86.71045303149543
 20
84.88260915064116
 30
0.0
 10
86.72474291019431
 20
84.88528110401418
 30
0.0
 10
86.72767920266637
 20
84.88583013852596
 30
0.0
  0
SPLINE
  5
C8
330
1F
100
AcDbEntity
  8
0
  6
HIDDEN
 62
     7
370
     0
100
AcDbSpline
210
0.0
220
0.0
230
1.0
 70
     8
 71
     3
 72
    30
 73
    26
 74
     0
 42
0.00000001
 43
0.00000001
 40
0.0
 40
0.0
 40
0.0
 40
0.0
 40
0.0156161600804325
 40
0.0849748372628069
 40
0.1203204532886731
 40
0.1543185190912385
 40
0.2234436946573996
 40
0.2586467089786588
 40
0.2931107206686991
 40
0.3631864361325585
 40
0.3988795186727309
 40
0.4336750628309705
 40
0.468714571210479
 40
0.5045294144990524
 40
0.5406151111978513
 40
0.5750767863722898
 40
0.6452033649630257
 40
0.680957573471884
 40
0.7149323277721664
 40
0.7840330582955247
 40
0.8192378401372464
 40
0.8533347063218388
 40
0.9226550151093972
 40
0.9579547149334465
 40
1.0
 40
1.0
 40
1.0
 40
1.0
 10
86.72082444219056
 20
124.8833810625522
 30
0.0
 10
86.72022670310547
 20
124.8834933154339
 30
0.0
 10
86.71697412492881
 20
124.8841041359112
 30
0.0
 10
86.76729502737714
 20
124.874645001454
 30
0.0
 10
86.86760005641842
 20
124.8563401653579
 30
0.0
 10
87.00221704448813
 20
124.8323568599841
 30
0.0
 10
87.18427568951817
 20
124.8012580658377
 30
0.0
 10
87.41119826318346
 20
124.7653389217953
 30
0.0
 10
87.66778466856081
 20
124.7270199006562
 30
0.0
 10
87.96582132703352
 20
124.686774765348
 30
0.0
 10
88.29837058103327
 20
124.6481137419457
 30
0.0
 10
88.56356828643752
 20
124.6207110832145
 30
0.0
 10
88.84262611169648
 20
124.5956662466023
 30
0.0
 10
89.13707712759064
 20
124.5734985493067
 30
0.0
 10
89.4399420609069
 20
124.5553364620367
 30
0.0
 10
89.85032804777563
 20
124.5370783570423
 30
0.0
 10
90.27116888673045
 20
124.5282311230379
 30
0.0
 10
90.69107280395941
 20
124.5296965174791
 30
0.0
 10
91.10568732481312
 20
124.5377399106464
 30
0.0
 10
91.51190844428896
 20
124.5552466962456
 30
0.0
 10
91.90143894401092
 20
124.5808120092735
 30
0.0
 10
92.27825964524929
 20
124.6109962449877
 30
0.0
 10
92.63139680495325
 20
124.6468938198352
 30
0.0
 10
92.97314829277485
 20
124.6877120976938
 30
0.0
 10
93.13482205378443
 20
124.7095970112603
 30
0.0
 10
93.22270906260657
 20
124.7214938062608
 30
0.0
  0
SPLINE
  5
C9
330
1F
100
AcDbEntity
  8
0
  6
HIDDEN
 62
     7
370
     0
100
AcDbSpline
210
0.0
220
0.0
230
1.0
 70
     8
 71
     3
 72
    15
 73
    11
 74
     0
 42
0.00000001
 43
0.00000001
 40
0.0
 40
0.0
 40
0.0
 40
0.0
 40
0.110073497728565
 40
0.2209211978812899
 40
0.3341969248598623
 40
0.448307221715818
 40
0.5584036831377116
 40
0.7823036295888746
 40
0.8963677673997197
 40
1.0
 40
1.0
 40
1.0
 40
1.0
 10
93.22270906260657
 20
124.7214938062608
 30
0.0
 10
93.29030304909406
 20
124.7305620603539
 30
0.0
 10
93.42596644466647
 20
124.7487623501446
 30
0.0
 10
93.60641186888418
 20
124.7694834054437
 30
0.0
 10
93.76856064508569
 20
124.7862230908971
 30
0.0
 10
93.90661178547585
 20
124.7988052023775
 30
0.0
 10
94.05825252789148
 20
124.8111840038771
 30
0.0
 10
94.1596980262131
 20
124.8181412791845
 30
0.0
 10
94.21111113872155
 20
124.8214378819386
 30
0.0
 10
94.2150659321995
 20
124.821683186217
 30
0.0
 10
94.21694857303922
 20
124.8217999609248
 30
0.0
  0
SPLINE
  5
CA
330
1F
100
AcDbEntity
  8
0
  6
HIDDEN
 62
     7
370
     0
100
AcDbSpline
210
0.0
220
0.0
230
1.0
 70
     8
 71
     3
 72
    17
 73
    13
 74
     0
 42
0.00000001
 43
0.00000001
 40
0.0
 40
0.0
 40
0.0
 40
0.0
 40
0.0069728710572644
 40
0.118315266327022
 40
0.2320716767842104
 40
0.3466628069643739
 40
0.4573811669863257
 40
0.5688719816774952
 40
0.6828068779536608
 40
0.7975913953265497
 40
0.8984980741921117
 40
1.0
 40
1.0
 40
1.0
 40
1.0
 10
94.21695251914703
 20
84.94613045067878
 30
0.0
 10
94.21720236936937
 20
84.94611467236165
 30
0.0
 10
94.2214418132595
 20
84.9458469468036
 30
0.0
 10
94.20552061424492
 20
84.94684389877273
 30
0.0
 10
94.1665067812446
 20
84.94936032211645
 30
0.0
 10
94.0980541015256
 20
84.95405796608551
 30
0.0
 10
94.00530227206048
 20
84.96100782388324
 30
0.0
 10
93.8880106631426
 20
84.9707373108169
 30
0.0
 10
93.74517403125456
 20
84.98398431709353
 30
0.0
 10
93.58362463810485
 20
85.00097140577188
 30
0.0
 10
93.40982129790851
 20
85.02126404618522
 30
0.0
 10
93.28520196864469
 20
85.03802948377803
 30
0.0
 10
93.22270906260657
 20
85.04643685462783
 30
0.0
  0
LINE
  5
CB
330
1F
100
AcDbEntity
  8
0
  6
HIDDEN
 62
     7
370
     0
100
AcDbLine
 10
80.4716816572
 20
87.8839653304
 30
0.0
 11
80.4716816572
 21
121.8839653304
 31
0.0
  0
LWPOLYLINE
  5
CC
330
1F
100
AcDbEntity
  8
0
  6
HIDDEN
 62
     7
370
     0
100
AcDbPolyline
 90
       13
 70
   128
 43
0.0
 10
107.467707061
 20
126.8295677451
 10
108.3275888218
 20
126.8763266337
 10
109.1472634672
 20
127.0144169057
 10
109.8884039218
 20
127.2373816137
 10
110.5163552815
 20
127.5347951755
 10
111.0017552388
 20
127.8927508637
 10
111.3219070311
 20
128.294511068
 10
111.4618407164
 20
128.7212899279
 10
111.4150131512
 20
129.1531317382
 10
111.1836139403
 20
129.5698440558
 10
110.7784630536
 20
129.9519418758
 10
110.2185048964
 20
130.2815587289
 10
109.8407401373
 20
130.4395921253
  0
LWPOLYLINE
  5
CD
330
1F
100
AcDbEntity
  8
0
  6
HIDDEN
 62
     7
370
     0
100
AcDbPolyline
 90
       13
 70
   128
 43
0.0
 10
105.099731212
 20
130.4414525408
 10
104.7169092256
 20
130.2815587289
 10
104.1569510684
 20
129.9519418758
 10
103.7518001817
 20
129.5698440558
 10
103.5204009708
 20
129.1531317382
 10
103.4735734056
 20
128.7212899279
 10
103.6135070909
 20
128.294511068
 10
103.9336588832
 20
127.8927508637
 10
104.4190588405
 20
127.5347951755
 10
105.0470102002
 20
127.2373816137
 10
105.7881506548
 20
127.0144169057
 10
106.6078253002
 20
126.8763266337
 10
107.467707061
 20
126.8295677451
  0
LINE
  5
CE
330
1F
100
AcDbEntity
  8
0
  6
HIDDEN
 62
     7
370
     0
100
AcDbLine
 10
107.1275330295
 20
87.8839653304
 30
0.0
 11
107.1275330295
 21
121.8839653304
 31
0.0
  0
LINE
  5
CF
330
1F
100
AcDbEntity
  8
0
  6
HIDDEN
 62
     7
370
     0
100
AcDbLine
 10
109.417707061
 20
89.1589653304
 30
0.0
 11
109.417707061
 21
120.6089653295
 31
0.0
  0
SPLINE
  5
D0
330
1F
100
AcDbEntity
  8
0
  6
HIDDEN
 62
     7
370
     0
100
AcDbSpline
210
0.0
220
0.0
230
1.0
 70
     8
 71
     3
 72
    18
 73
    14
 74
     0
 42
0.00000001
 43
0.00000001
 40
0.0
 40
0.0
 40
0.0
 40
0.0
 40
0.2500000000000033
 40
0.2500000000000033
 40
0.3750000000000029
 40
0.3750000000000029
 40
0.5000000000000026
 40
0.5000000000000026
 40
0.6250000000000022
 40
0.6250000000000022
 40
0.7500000000000018
 40
0.7500000000000018
 40
1.0
 40
1.0
 40
1.0
 40
1.0
 10
73.66770706100498
 20
121.1714789528484
 30
0.0
 10
73.66770706100498
 20
121.1170044322962
 30
0.0
 10
73.63279636961282
 20
121.0606233729437
 30
0.0
 10
73.53078706827975
 20
120.9765465320903
 30
0.0
 10
73.48915071360166
 20
120.9492128280993
 30
0.0
 10
73.3907449181129
 20
120.8962589125004
 30
0.0
 10
73.33320170640862
 20
120.8703715587832
 30
0.0
 10
73.20590353283566
 20
120.8225940139499
 30
0.0
 10
73.1363162280782
 20
120.800646095772
 30
0.0
 10
72.98488198292324
 20
120.7612135308593
 30
0.0
 10
72.9021980798293
 20
120.7436572816335
 30
0.0
 10
72.64608661779124
 20
120.7012185162129
 30
0.0
 10
72.45817161390326
 20
120.685455766476
 30
0.0
 10
72.26770706100498
 20
120.685455766476
 30
0.0
  0
LINE
  5
D1
330
1F
100
AcDbEntity
  8
0
  6
HIDDEN
 62
     7
370
     0
100
AcDbLine
 10
72.267707061
 20
120.6854557665
 30
0.0
 11
68.717707061
 21
120.6854557665
 31
0.0
  0
LINE
  5
D2
330
1F
100
AcDbEntity
  8
0
  6
HIDDEN
 62
     7
370
     0
100
AcDbLine
 10
68.717707061
 20
89.0824748944
 30
0.0
 11
76.267707061
 21
89.0824748944
 31
0.0
  0
SPLINE
  5
D3
330
1F
100
AcDbEntity
  8
0
  6
HIDDEN
 62
     7
370
     0
100
AcDbSpline
210
0.0
220
0.0
230
1.0
 70
     8
 71
     3
 72
    16
 73
    12
 74
     0
 42
0.00000001
 43
0.00000001
 40
0.0
 40
0.0
 40
0.0
 40
0.0
 40
0.124999999999998
 40
0.124999999999998
 40
0.249999999999996
 40
0.249999999999996
 40
0.4999999999999973
 40
0.4999999999999973
 40
0.7499999999999987
 40
0.7499999999999987
 40
1.0
 40
1.0
 40
1.0
 40
1.0
 10
76.26770706100498
 20
89.08247489441264
 30
0.0
 10
76.36282881567081
 20
89.08247489441264
 30
0.0
 10
76.45615888439889
 20
89.07865906101983
 30
0.0
 10
76.6394206451369
 20
89.06388850829003
 30
0.0
 10
76.7302983606939
 20
89.05273046031445
 30
0.0
 10
76.98710005821363
 20
89.01025919017272
 30
0.0
 10
77.14216742308564
 20
88.96921299296991
 30
0.0
 10
77.39591388464025
 20
88.87406687638803
 30
0.0
 10
77.49678433630811
 20
88.81930414230646
 30
0.0
 10
77.63203075100294
 20
88.70804301840258
 30
0.0
 10
77.66770706100498
 20
88.65087328107388
 30
0.0
 10
77.66770706100498
 20
88.59645170804018
 30
0.0
  0
LINE
  5
D4
330
1F
100
AcDbEntity
  8
0
  6
HIDDEN
 62
     7
370
     0
100
AcDbLine
 10
68.717707061
 20
89.0824748944
 30
0.0
 11
68.717707061
 21
120.6854557665
 31
0.0
  0
LINE
  5
D5
330
1F
100
AcDbEntity
  8
0
  6
HIDDEN
 62
     7
370
     0
100
AcDbLine
 10
68.717707061
 20
86.8939653304
 30
0.0
 11
68.717707061
 21
84.014027565
 31
0.0
  0
LINE
  5
D6
330
1F
100
AcDbEntity
  8
0
  6
HIDDEN
 62
     7
370
     0
100
AcDbLine
 10
77.667707061
 20
86.8939653304
 30
0.0
 11
77.667707061
 21
82.9202277992
 31
0.0
  0
LINE
  5
D7
330
1F
100
AcDbEntity
  8
0
  6
HIDDEN
 62
     7
370
     0
100
AcDbLine
 10
68.717707061
 20
122.8739653304
 30
0.0
 11
68.717707061
 21
125.7539030958
 31
0.0
  0
LINE
  5
D8
330
1F
100
AcDbEntity
  8
0
  6
HIDDEN
 62
     7
370
     0
100
AcDbLine
 10
73.667707061
 20
122.8739653304
 30
0.0
 11
73.667707061
 21
126.7280730028
 31
0.0
  0
LINE
  5
D9
330
1F
100
AcDbEntity
  8
0
  6
HIDDEN
 62
     7
370
     0
100
AcDbLine
 10
118.767707061
 20
95.3839653304
 30
0.0
 11
118.767707061
 21
114.3839653304
 31
0.0
  0
LINE
  5
DA
330
1F
100
AcDbEntity
  8
0
  6
HIDDEN
 62
     7
370
     0
100
AcDbLine
 10
121.267707061
 20
95.3839653304
 30
0.0
 11
121.267707061
 21
114.3839653304
 31
0.0
  0
LINE
  5
DB
330
1F
100
AcDbEntity
  8
0
  6
HIDDEN
 62
     7
370
     0
100
AcDbLine
 10
109.917707061
 20
96.3839653304
 30
0.0
 11
109.917707061
 21
113.3839653304
 31
0.0
  0
LINE
  5
DC
330
1F
100
AcDbEntity
  8
0
  6
HIDDEN
 62
     7
370
     0
100
AcDbLine
 10
104.417707061
 20
73.3998423476
 30
0.0
 11
104.417707061
 21
78.4839653304
 31
0.0
  0
LINE
  5
DD
330
1F
100
AcDbEntity
  8
0
  6
HIDDEN
 62
     7
370
     0
100
AcDbLine
 10
112.417707061
 20
78.4839653304
 30
0.0
 11
104.417707061
 21
78.4839653304
 31
0.0
  0
LINE
  5
DE
330
1F
100
AcDbEntity
  8
0
  6
HIDDEN
 62
     7
370
     0
100
AcDbLine
 10
125.417707061
 20
78.4839653304
 30
0.0
 11
119.2800322587
 21
78.4839653304
 31
0.0
  0
LINE
  5
DF
330
1F
100
AcDbEntity
  8
0
  6
HIDDEN
 62
     7
370
     0
100
AcDbLine
 10
115.6553818633
 20
78.4839653304
 30
0.0
 11
112.417707061
 21
78.4839653304
 31
0.0
  0
LINE
  5
E0
330
1F
100
AcDbEntity
  8
0
  6
HIDDEN
 62
     7
370
     0
100
AcDbLine
 10
112.417707061
 20
131.2839653304
 30
0.0
 11
104.417707061
 21
131.2839653304
 31
0.0
  0
LINE
  5
E1
330
1F
100
AcDbEntity
  8
0
  6
HIDDEN
 62
     7
370
     0
100
AcDbLine
 10
125.417707061
 20
131.2839653304
 30
0.0
 11
118.9834095293
 21
131.2839653304
 31
0.0
  0
LINE
  5
E2
330
1F
100
AcDbEntity
  8
0
  6
HIDDEN
 62
     7
370
     0
100
AcDbLine
 10
115.9520045927
 20
131.2839653304
 30
0.0
 11
112.417707061
 21
131.2839653304
 31
0.0
  0
ELLIPSE
  5
E3
330
1F
100
AcDbEntity
  8
0
  6
HIDDEN
 62
     7
370
     0
100
AcDbEllipse
 10
63.4002751967
 20
104.8839653304
 30
0.0
 11
20.07002071827083
 21
-1.421085471520200E-14
 31
0.0
210
0.0
220
0.0
230
1.0
 40
0.8164965809
 41
4.921555463185716
 42
4.980534842098416
  0
ELLIPSE
  5
E4
330
1F
100
AcDbEntity
  8
0
  6
HIDDEN
 62
     7
370
     0
100
AcDbEllipse
 10
63.4002751967
 20
104.8839653304
 30
0.0
 11
20.07002071827082
 21
-1.421085471520200E-14
 31
0.0
210
0.0
220
0.0
230
1.0
 40
0.8164965809
 41
1.302650465081183
 42
1.361629843993883
  0
LINE
  5
E5
330
1F
100
AcDbEntity
  8
0
  6
HIDDEN
 62
     7
370
     0
100
AcDbLine
 10
68.717707061
 20
86.8939653304
 30
0.0
 11
68.717707061
 21
89.0824748944
 31
0.0
  0
LINE
  5
E6
330
1F
100
AcDbEntity
  8
0
  6
HIDDEN
 62
     7
370
     0
100
AcDbLine
 10
77.667707061
 20
86.8939653304
 30
0.0
 11
77.667707061
 21
88.596451708
 31
0.0
  0
LINE
  5
E7
330
1F
100
AcDbEntity
  8
0
  6
HIDDEN
 62
     7
370
     0
100
AcDbLine
 10
68.717707061
 20
122.8739653304
 30
0.0
 11
68.717707061
 21
120.6854557665
 31
0.0
  0
LINE
  5
E8
330
1F
100
AcDbEntity
  8
0
  6
HIDDEN
 62
     7
370
     0
100
AcDbLine
 10
73.667707061
 20
122.8739653304
 30
0.0
 11
73.667707061
 21
121.1714789528
 31
0.0
  0
SPLINE
  5
E9
330
1F
100
AcDbEntity
  8
0
  6
HIDDEN
 62
     7
370
     0
100
AcDbSpline
210
0.0
220
0.0
230
1.0
 70
     8
 71
     3
 72
    20
 73
    16
 74
     0
 42
0.00000001
 43
0.00000001
 40
0.0
 40
0.0
 40
0.0
 40
0.0
 40
0.1119603591875449
 40
0.1774778843251572
 40
0.2490974965417939
 40
0.3298431145084333
 40
0.3986132923288614
 40
0.4998904218696682
 40
0.6138518672981023
 40
0.6790158594749947
 40
0.7495403621024533
 40
0.8296834742296775
 40
0.8981249235998714
 40
0.999532775643777
 40
1.0
 40
1.0
 40
1.0
 40
1.0
 10
94.21654754690223
 20
81.28397119898119
 30
0.0
 10
94.1732230784407
 20
81.29740095520403
 30
0.0
 10
94.10454577999452
 20
81.31868960360359
 30
0.0
 10
93.65936089700466
 20
81.42200114052682
 30
0.0
 10
93.13279925244859
 20
81.53530463357403
 30
0.0
 10
92.44737290434524
 20
81.65823737979804
 30
0.0
 10
91.55405416845663
 20
81.78027152376563
 30
0.0
 10
90.44069306970306
 20
81.89800682651774
 30
0.0
 10
89.32991865510343
 20
81.90998132237753
 30
0.0
 10
88.44517214197613
 20
81.88292244663583
 30
0.0
 10
87.77797852106947
 20
81.8349901828804
 30
0.0
 10
87.23670979975316
 20
81.77869675532544
 30
0.0
 10
86.84913281619835
 20
81.73361408462307
 30
0.0
 10
86.65519845954364
 20
81.69474135073264
 30
0.0
 10
86.7183018631199
 20
81.70544755275839
 30
0.0
 10
86.71859127097267
 20
81.70549665405505
 30
0.0
  0
LINE
  5
EA
330
1F
100
AcDbEntity
  8
0
  6
HIDDEN
 62
     7
370
     0
100
AcDbLine
 10
87.6277561107
 20
81.8163066393
 30
0.0
 11
87.8115766783
 21
81.8344934135
 31
0.0
  0
LINE
  5
EB
330
1F
100
AcDbEntity
  8
0
  6
HIDDEN
 62
     7
370
     0
100
AcDbLine
 10
87.8115739798
 20
127.9333678163
 30
0.0
 11
87.6375421466
 21
127.9505731305
 31
0.0
  0
SPLINE
  5
EC
330
1F
100
AcDbEntity
  8
0
  6
HIDDEN
 62
     7
370
     0
100
AcDbSpline
210
0.0
220
0.0
230
1.0
 70
     8
 71
     3
 72
    20
 73
    16
 74
     0
 42
0.00000001
 43
0.00000001
 40
0.0
 40
0.0
 40
0.0
 40
0.0
 40
0.0004882116040886
 40
0.1018316989916489
 40
0.1702470788758169
 40
0.2503682642297437
 40
0.3209559819271918
 40
0.3861807840297647
 40
0.500254366191457
 40
0.6012236398607284
 40
0.669767174801346
 40
0.7502388875657732
 40
0.8220479536142423
 40
0.8877196206541487
 40
1.0
 40
1.0
 40
1.0
 40
1.0
 10
86.71862466790171
 20
128.0623674589719
 30
0.0
 10
86.7183214914918
 20
128.0624189671219
 30
0.0
 10
86.65508463137583
 20
128.0731625921879
 30
0.0
 10
86.8482864954122
 20
128.0343070431431
 30
0.0
 10
87.23523057098308
 20
127.9892837936363
 30
0.0
 10
87.77623370781615
 20
127.9330209168645
 30
0.0
 10
88.44373099357834
 20
127.8850895248555
 30
0.0
 10
89.3295570577819
 20
127.8580154827173
 30
0.0
 10
90.44036395682134
 20
127.8698404795213
 30
0.0
 10
91.55243602438374
 20
127.9872885484626
 30
0.0
 10
92.44353766590727
 20
128.1089926206363
 30
0.0
 10
93.12902344772348
 20
128.2318135448242
 30
0.0
 10
93.65701471445395
 20
128.3452520602724
 30
0.0
 10
94.10440442540327
 20
128.4489933398214
 30
0.0
 10
94.17321597743228
 20
128.4704168076464
 30
0.0
 10
94.21663322001034
 20
128.4839341295496
 30
0.0
  0
LINE
  5
ED
330
1F
100
AcDbEntity
  8
0
  6
HIDDEN
 62
     7
370
     0
100
AcDbLine
 10
153.567707061
 20
100.6839653304
 30
0.0
 11
153.567707061
 21
109.0839653304
 31
0.0
  0
LINE
  5
EE
330
1F
100
AcDbEntity
  8
0
  6
HIDDEN
 62
     7
370
     0
100
AcDbLine
 10
154.0483955562
 20
101.4839653304
 30
0.0
 11
154.0483955562
 21
108.2839653304
 31
0.0
  0
LINE
  5
EF
330
1F
100
AcDbEntity
  8
0
  6
HIDDEN
 62
     7
370
     0
100
AcDbLine
 10
225.967707061
 20
101.8839653304
 30
0.0
 11
225.967707061
 21
107.8839653304
 31
0.0
  0
LINE
  5
F0
330
1F
100
AcDbEntity
  8
0
  6
HIDDEN
 62
     7
370
     0
100
AcDbLine
 10
177.567707061
 20
101.4839653304
 30
0.0
 11
177.567707061
 21
108.2839653304
 31
0.0
  0
LINE
  5
F1
330
1F
100
AcDbEntity
  8
0
  6
HIDDEN
 62
     7
370
     0
100
AcDbLine
 10
178.3488258657
 20
102.7839653304
 30
0.0
 11
178.3488258657
 21
106.9839653304
 31
0.0
  0
ARC
  5
F2
330
1F
100
AcDbEntity
  8
0
  6
HIDDEN
 62
     7
370
     0
100
AcDbCircle
 10
194.9678377064
 20
111.2758814681
 30
0.0
 40
3.436503089342106
100
AcDbArc
 50
244.1935033454
 51
295.8777360606
  0
SPLINE
  5
F3
330
1F
100
AcDbEntity
  8
0
  6
HIDDEN
 62
     7
370
     0
100
AcDbSpline
210
0.0
220
0.0
230
1.0
 70
     8
 71
     3
 72
    27
 73
    23
 74
     0
 42
0.00000001
 43
0.00000001
 40
0.0
 40
0.0
 40
0.0
 40
0.0
 40
0.0493586139300487
 40
0.1002323018768668
 40
0.1495702843187632
 40
0.2002087704685742
 40
0.2521676674845281
 40
0.3054638423439676
 40
0.360422887359836
 40
0.4171466436260194
 40
0.4690138396459235
 40
0.5227149136556948
 40
0.5698398307008395
 40
0.6182817012845857
 40
0.6665902065725959
 40
0.7160567440479421
 40
0.7692498342890085
 40
0.8238840201435468
 40
0.8786078794321204
 40
0.9351642300516555
 40
0.9859157616871026
 40
1.0
 40
1.0
 40
1.0
 40
1.0
 10
196.467707061005
 20
101.5839653304443
 30
0.0
 10
196.4641159520129
 20
101.5856055332181
 30
0.0
 10
196.4568235041117
 20
101.5889362851673
 30
0.0
 10
196.3984829606186
 20
101.6150796924428
 30
0.0
 10
196.3071791476548
 20
101.6542454547416
 30
0.0
 10
196.1822315840755
 20
101.7044360066969
 30
0.0
 10
196.0238796534192
 20
101.7620158626957
 30
0.0
 10
195.8328087888439
 20
101.8220450989161
 30
0.0
 10
195.6101606097628
 20
101.8781736690977
 30
0.0
 10
195.3678104507522
 20
101.9209281754556
 30
0.0
 10
195.1134867956368
 20
101.9445666758977
 30
0.0
 10
194.8689640879953
 20
101.9462283425315
 30
0.0
 10
194.633620866558
 20
101.9284046300373
 30
0.0
 10
194.416084999268
 20
101.8957022381071
 30
0.0
 10
194.2098355546776
 20
101.8504646446652
 30
0.0
 10
194.0163619821923
 20
101.7961524128587
 30
0.0
 10
193.8395926975649
 20
101.7368076449031
 30
0.0
 10
193.6881105869138
 20
101.6789341687478
 30
0.0
 10
193.5689218002092
 20
101.6291089589496
 30
0.0
 10
193.4965270106169
 20
101.5970734163102
 30
0.0
 10
193.4649767312459
 20
101.5827277933239
 30
0.0
 10
193.4705937088779
 20
101.5852745831069
 30
0.0
 10
193.4718138818107
 20
101.5858278208376
 30
0.0
  0
LINE
  5
F4
330
1F
100
AcDbEntity
  8
0
  6
HIDDEN
 62
     7
370
     0
100
AcDbLine
 10
192.967707061
 20
101.9839653304
 30
0.0
 11
192.967707061
 21
107.7839653304
 31
0.0
  0
LINE
  5
F5
330
1F
100
AcDbEntity
  8
0
  6
HIDDEN
 62
     7
370
     0
100
AcDbLine
 10
207.467707061
 20
101.8839653304
 30
0.0
 11
207.467707061
 21
107.8839653304
 31
0.0
  0
LINE
  5
F6
330
1F
100
AcDbEntity
  8
0
  6
HIDDEN
 62
     7
370
     0
100
AcDbLine
 10
163.917707061
 20
91.9613155996
 30
0.0
 11
158.917707061
 21
91.9613155996
 31
0.0
  0
LINE
  5
F7
330
1F
100
AcDbEntity
  8
0
  6
HIDDEN
 62
     7
370
     0
100
AcDbLine
 10
158.917707061
 20
117.8066150613
 30
0.0
 11
163.917707061
 21
117.8066150613
 31
0.0
  0
LINE
  5
F8
330
1F
100
AcDbEntity
  8
0
  6
HIDDEN
 62
     7
370
     0
100
AcDbLine
 10
158.917707061
 20
110.3839653304
 30
0.0
 11
163.917707061
 21
110.3839653304
 31
0.0
  0
LINE
  5
F9
330
1F
100
AcDbEntity
  8
0
  6
HIDDEN
 62
     7
370
     0
100
AcDbLine
 10
192.567707061
 20
102.7839653304
 30
0.0
 11
192.567707061
 21
106.9839653304
 31
0.0
  0
LINE
  5
FA
330
1F
100
AcDbEntity
  8
0
  6
HIDDEN
 62
     7
370
     0
100
AcDbLine
 10
163.917707061
 20
99.3839653304
 30
0.0
 11
158.917707061
 21
99.3839653304
 31
0.0
  0
LINE
  5
FB
330
1F
100
AcDbEntity
  8
0
  6
HIDDEN
 62
     7
370
     0
100
AcDbLine
 10
193.467707061
 20
94.8839653304
 30
0.0
 11
196.467707061
 21
94.8839653304
 31
0.0
  0
SPLINE
  5
FC
330
1F
100
AcDbEntity
  8
0
  6
HIDDEN
 62
     7
370
     0
100
AcDbSpline
210
0.0
220
0.0
230
1.0
 70
     8
 71
     3
 72
     9
 73
     5
 74
     0
 42
0.00000001
 43
0.00000001
 40
0.0
 40
0.0
 40
0.0
 40
0.0
 40
0.9127674511739255
 40
1.0
 40
1.0
 40
1.0
 40
1.0
 10
193.5410416128522
 20
95.81052714827305
 30
0.0
 10
193.4977305912047
 20
95.82703599962308
 30
0.0
 10
193.4502803654197
 20
95.84512259038483
 30
0.0
 10
193.4714478954533
 20
95.8374601178547
 30
0.0
 10
193.4732943930505
 20
95.83679170084558
 30
0.0
  0
SPLINE
  5
FD
330
1F
100
AcDbEntity
  8
0
  6
HIDDEN
 62
     7
370
     0
100
AcDbSpline
210
0.0
220
0.0
230
1.0
 70
     8
 71
     3
 72
    17
 73
    13
 74
     0
 42
0.00000001
 43
0.00000001
 40
0.0
 40
0.0
 40
0.0
 40
0.0
 40
0.1236628338233872
 40
0.2464323737451542
 40
0.3531987520651153
 40
0.4234332315585017
 40
0.4941244379417764
 40
0.5801597051227672
 40
0.7140608633124406
 40
0.8512841765221739
 40
0.947321322132537
 40
1.0
 40
1.0
 40
1.0
 40
1.0
 10
193.5410416128521
 20
95.81052714827305
 30
0.0
 10
193.5946896523128
 20
95.87924644521767
 30
0.0
 10
193.7015981979307
 20
96.0161886366957
 30
0.0
 10
193.9165760175798
 20
96.32530376024461
 30
0.0
 10
194.0791353959837
 20
96.63474681577269
 30
0.0
 10
194.1506100890312
 20
96.93389823551136
 30
0.0
 10
194.1243882487386
 20
97.21915767051016
 30
0.0
 10
193.9868665519868
 20
97.54146166109527
 30
0.0
 10
193.7632015437111
 20
97.86371175456438
 30
0.0
 10
193.5695970872466
 20
98.10162096612824
 30
0.0
 10
193.4721611048491
 20
98.21532889096756
 30
0.0
 10
193.4766452066733
 20
98.21009241145661
 30
0.0
 10
193.4782335820727
 20
98.20823752600553
 30
0.0
  0
LWPOLYLINE
  5
FE
330
1F
100
AcDbEntity
  8
0
  6
HIDDEN
 62
     7
370
     0
100
AcDbPolyline
 90
       14
 70
   128
 43
0.0
 10
196.4644878785
 20
95.8401841288
 10
196.4352899965
 20
95.8742752278
 10
196.3385855363
 20
95.9897767925
 10
196.1381480775
 20
96.2477114808
 10
195.9183949499
 20
96.6003617639
 10
195.8213715923
 20
96.8587564665
 10
195.7976697092
 20
97.0976728289
 10
195.8396426732
 20
97.3326855444
 10
195.9903571432
 20
97.6676911942
 10
196.2414891806
 20
98.0462145257
 10
196.3931068322
 20
98.2447795258
 10
196.4606173894
 20
98.3295546096
 10
196.467707061
 20
98.3383562474
 10
196.467707061
 20
98.3383562474
  0
SPLINE
  5
FF
330
1F
100
AcDbEntity
  8
0
  6
HIDDEN
 62
     7
370
     0
100
AcDbSpline
210
0.0
220
0.0
230
1.0
 70
     8
 71
     3
 72
    24
 73
    20
 74
     0
 42
0.00000001
 43
0.00000001
 40
0.0
 40
0.0
 40
0.0
 40
0.0
 40
0.0178834150856248
 40
0.0947824758137345
 40
0.1739291751090584
 40
0.2323008649736363
 40
0.2923457840261341
 40
0.3519518085526583
 40
0.4131825738578089
 40
0.4768817076942712
 40
0.5411332413246881
 40
0.6119252377292761
 40
0.6670459126106059
 40
0.7236609251247463
 40
0.7812409350149184
 40
0.8404702576738257
 40
0.884397179558812
 40
0.9294911198696753
 40
1.0
 40
1.0
 40
1.0
 40
1.0
 10
196.4649537293306
 20
111.4329906816006
 30
0.0
 10
196.4655788506371
 20
111.4322155455028
 30
0.0
 10
196.4688920067002
 20
111.4281073078927
 30
0.0
 10
196.4237717275646
 20
111.483996910622
 30
0.0
 10
196.3257887430488
 20
111.6085129593224
 30
0.0
 10
196.2085098188452
 20
111.7651839766851
 30
0.0
 10
196.093021893304
 20
111.9303979616938
 30
0.0
 10
195.9746377440668
 20
112.1207962775963
 30
0.0
 10
195.8658167300537
 20
112.3384294517754
 30
0.0
 10
195.7905005135299
 20
112.5908962452919
 30
0.0
 10
195.7980951630634
 20
112.8757341242718
 30
0.0
 10
195.8894647362061
 20
113.1223959178772
 30
0.0
 10
196.0048422617304
 20
113.3277399538111
 30
0.0
 10
196.1193831954517
 20
113.4969853799138
 30
0.0
 10
196.2330630471986
 20
113.6478665799013
 30
0.0
 10
196.3268943456026
 20
113.7644350147692
 30
0.0
 10
196.3961376699104
 20
113.8476245536732
 30
0.0
 10
196.4529430869964
 20
113.9144328294206
 30
0.0
 10
196.4621136927728
 20
113.9250361159929
 30
0.0
 10
196.467707061005
 20
113.9315033099512
 30
0.0
  0
LINE
  5
100
330
1F
100
AcDbEntity
  8
0
  6
HIDDEN
 62
     7
370
     0
100
AcDbLine
 10
196.467707061
 20
114.8839653304
 30
0.0
 11
193.467707061
 21
114.8839653304
 31
0.0
  0
SPLINE
  5
101
330
1F
100
AcDbEntity
  8
0
  6
HIDDEN
 62
     7
370
     0
100
AcDbSpline
210
0.0
220
0.0
230
1.0
 70
     8
 71
     3
 72
     9
 73
     5
 74
     0
 42
0.00000001
 43
0.00000001
 40
0.0
 40
0.0
 40
0.0
 40
0.0
 40
0.8686297856463198
 40
1.0
 40
1.0
 40
1.0
 40
1.0
 10
193.4732943930505
 20
113.931138960043
 30
0.0
 10
193.4802354694316
 20
113.9318863036563
 30
0.0
 10
193.4882263033817
 20
113.9327466743522
 30
0.0
 10
193.5349089089518
 20
113.9545404585181
 30
0.0
 10
193.5410416128522
 20
113.9574035126155
 30
0.0
  0
SPLINE
  5
102
330
1F
100
AcDbEntity
  8
0
  6
HIDDEN
 62
     7
370
     0
100
AcDbSpline
210
0.0
220
0.0
230
1.0
 70
     8
 71
     3
 72
    18
 73
    14
 74
     0
 42
0.00000001
 43
0.00000001
 40
0.0
 40
0.0
 40
0.0
 40
0.0
 40
0.0436851008200685
 40
0.1331062150213221
 40
0.2286361550735858
 40
0.3424058656598623
 40
0.4800379438377291
 40
0.5477351870960446
 40
0.6156935661253599
 40
0.7077714222414166
 40
0.8521770586267641
 40
0.9725051515401276
 40
1.0
 40
1.0
 40
1.0
 40
1.0
 10
193.4782335820727
 20
111.559693134883
 30
0.0
 10
193.4758786648777
 20
111.5569486605393
 30
0.0
 10
193.4687033554783
 20
111.5485863909036
 30
0.0
 10
193.5405188877563
 20
111.6322805540086
 30
0.0
 10
193.6779743105587
 20
111.7984344114013
 30
0.0
 10
193.8846132296854
 20
112.0714980679668
 30
0.0
 10
194.0773891579139
 20
112.3922702148728
 30
0.0
 10
194.1508014802507
 20
112.7243556071953
 30
0.0
 10
194.120969587713
 20
113.009322534844
 30
0.0
 10
193.9775689662435
 20
113.3475285148074
 30
0.0
 10
193.7609254159712
 20
113.671206343289
 30
0.0
 10
193.6064886761302
 20
113.8741053104518
 30
0.0
 10
193.5513055859988
 20
113.9443399698476
 30
0.0
 10
193.5410416128522
 20
113.9574035126156
 30
0.0
  0
LINE
  5
103
330
1F
100
AcDbEntity
  8
0
  6
HIDDEN
 62
     7
370
     0
100
AcDbLine
 10
193.4463869866
 20
98.2196482584
 30
0.0
 11
193.5410416129
 21
95.8105271483
 31
0.0
  0
LINE
  5
104
330
1F
100
AcDbEntity
  8
0
  6
HIDDEN
 62
     7
370
     0
100
AcDbLine
 10
193.4463869866
 20
111.5482824025
 30
0.0
 11
193.5410416129
 21
113.9574035126
 31
0.0
  0
LINE
  5
105
330
1F
100
AcDbEntity
  8
0
  6
HIDDEN
 62
     7
370
     0
100
AcDbLine
 10
115.557707061
 20
125.0280399984
 30
0.0
 11
115.557707061
 21
124.7339653304
 31
0.0
  0
LINE
  5
106
330
1F
100
AcDbEntity
  8
0
  6
HIDDEN
 62
     7
370
     0
100
AcDbLine
 10
119.377707061
 20
125.0280399984
 30
0.0
 11
119.377707061
 21
124.7339653304
 31
0.0
  0
LINE
  5
107
330
1F
100
AcDbEntity
  8
0
  6
HIDDEN
 62
     7
370
     0
100
AcDbLine
 10
120.8596398925
 20
129.3426549928
 30
0.0
 11
120.8596398925
 21
124.7339653304
 31
0.0
  0
SPLINE
  5
108
330
1F
100
AcDbEntity
  8
0
  6
HIDDEN
 62
     7
370
     0
100
AcDbSpline
210
0.0
220
0.0
230
1.0
 70
     8
 71
     3
 72
    24
 73
    20
 74
     0
 42
0.00000001
 43
0.00000001
 40
0.0
 40
0.0
 40
0.0
 40
0.0
 40
0.2499999999999951
 40
0.2499999999999951
 40
0.3749999999999913
 40
0.3749999999999913
 40
0.4374999999999885
 40
0.4374999999999885
 40
0.4687499999999882
 40
0.4687499999999882
 40
0.499999999999988
 40
0.499999999999988
 40
0.56249999999999
 40
0.56249999999999
 40
0.624999999999992
 40
0.624999999999992
 40
0.7499999999999958
 40
0.7499999999999958
 40
1.0
 40
1.0
 40
1.0
 40
1.0
 10
67.6303704357284
 20
85.20941278566355
 30
0.0
 10
67.64412355439859
 20
85.28006284365382
 30
0.0
 10
67.66189612180447
 20
85.34666095641875
 30
0.0
 10
67.71414721335984
 20
85.42075897665194
 30
0.0
 10
67.7351822889414
 20
85.4420167838135
 30
0.0
 10
67.78808269656983
 20
85.45016270995974
 30
0.0
 10
67.80918836944777
 20
85.44922290656397
 30
0.0
 10
67.85524053812573
 20
85.42820691498663
 30
0.0
 10
67.8736110101091
 20
85.41729810887901
 30
0.0
 10
67.9151626451748
 20
85.38466319793163
 30
0.0
 10
67.93772931793171
 20
85.36317121756028
 30
0.0
 10
68.00051033439175
 20
85.29470527397396
 30
0.0
 10
68.03364009535963
 20
85.24863081576889
 30
0.0
 10
68.09055778184462
 20
85.1636229274342
 30
0.0
 10
68.11474380734839
 20
85.12334262625282
 30
0.0
 10
68.17995175772818
 20
85.00840639978688
 30
0.0
 10
68.21466781791943
 20
84.93782341463988
 30
0.0
 10
68.30788308825029
 20
84.73361765556128
 30
0.0
 10
68.35355562361097
 20
84.61071927323393
 30
0.0
 10
68.39186070710952
 20
84.49384599684635
 30
0.0
  0
CIRCLE
  5
109
330
1F
100
AcDbEntity
  8
0
  6
HIDDEN
 62
     7
370
     0
100
AcDbCircle
 10
106.467707061
 20
104.8839653304
 30
0.0
 40
5.000000000000014
  0
LINE
  5
10A
330
1F
100
AcDbEntity
  8
0
  6
HIDDEN
 62
     7
370
     0
100
AcDbLine
 10
229.2843300307
 20
99.676800817
 30
0.0
 11
229.394219751
 21
96.8799206683
 31
0.0
  0
LINE
  5
10B
330
1F
100
AcDbEntity
  8
0
  6
HIDDEN
 62
     7
370
     0
100
AcDbLine
 10
229.2764403038
 20
99.877607777
 30
0.0
 11
229.2843300307
 21
99.676800817
 31
0.0
  0
LINE
  5
10C
330
1F
100
AcDbEntity
  8
0
  6
HIDDEN
 62
     7
370
     0
100
AcDbLine
 10
223.9503922268
 20
99.4672298299
 30
0.0
 11
224.0602819471
 21
96.6703496812
 31
0.0
  0
LINE
  5
10D
330
1F
100
AcDbEntity
  8
0
  6
HIDDEN
 62
     7
370
     0
100
AcDbLine
 10
223.9425024999
 20
99.6680367899
 30
0.0
 11
223.9503922268
 21
99.4672298299
 31
0.0
  0
LINE
  5
10E
330
1F
100
AcDbEntity
  8
0
  6
HIDDEN
 62
     7
370
     0
100
AcDbLine
 10
223.4677777076
 20
99.0149210572
 30
0.0
 11
223.5410375211
 21
97.1503342914
 31
0.0
  0
LINE
  5
10F
330
1F
100
AcDbEntity
  8
0
  6
HIDDEN
 62
     7
370
     0
100
AcDbLine
 10
223.4625178896
 20
99.1487923639
 30
0.0
 11
223.4677777076
 21
99.0149210572
 31
0.0
  0
LINE
  5
110
330
1F
100
AcDbEntity
  8
0
  6
HIDDEN
 62
     7
370
     0
100
AcDbLine
 10
229.4556889255
 20
99.4404259734
 30
0.0
 11
229.467707061
 21
99.1345439994
 31
0.0
  0
LINE
  5
111
330
1F
100
AcDbEntity
  8
0
  6
HIDDEN
 62
     7
370
     0
100
AcDbLine
 10
229.4492745775
 20
99.6036820319
 30
0.0
 11
229.4556889255
 21
99.4404259734
 31
0.0
  0
LINE
  5
112
330
1F
100
AcDbEntity
  8
0
  6
HIDDEN
 62
     7
370
     0
100
AcDbLine
 10
227.4986938503
 20
98.3066025907
 30
0.0
 11
227.4692489885
 21
99.0560243679
 31
0.0
  0
LINE
  5
113
330
1F
100
AcDbEntity
  8
0
  6
HIDDEN
 62
     7
370
     0
100
AcDbLine
 10
227.4986938503
 20
98.3066025907
 30
0.0
 11
229.4971519228
 21
98.3851222222
 31
0.0
  0
LINE
  5
114
330
1F
100
AcDbEntity
  8
0
  6
HIDDEN
 62
     7
370
     0
100
AcDbLine
 10
227.4986938503
 20
98.3066025907
 30
0.0
 11
227.5281387122
 21
97.5571808135
 31
0.0
  0
LINE
  5
115
330
1F
100
AcDbEntity
  8
0
  6
HIDDEN
 62
     7
370
     0
100
AcDbLine
 10
227.4692489885
 20
99.0560243679
 30
0.0
 11
229.467707061
 21
99.1345439994
 31
0.0
  0
LINE
  5
116
330
1F
100
AcDbEntity
  8
0
  6
HIDDEN
 62
     7
370
     0
100
AcDbLine
 10
227.5281387122
 20
97.5571808135
 30
0.0
 11
229.5265967846
 21
97.635700445
 31
0.0
  0
LINE
  5
117
330
1F
100
AcDbEntity
  8
0
  6
HIDDEN
 62
     7
370
     0
100
AcDbLine
 10
224.0602819471
 20
113.0975809797
 30
0.0
 11
223.9425024999
 21
110.099893871
 31
0.0
  0
LINE
  5
118
330
1F
100
AcDbEntity
  8
0
  6
HIDDEN
 62
     7
370
     0
100
AcDbLine
 10
223.5410375211
 20
112.6175963695
 30
0.0
 11
223.4625178896
 21
110.619138297
 31
0.0
  0
LINE
  5
119
330
1F
100
AcDbEntity
  8
0
  6
HIDDEN
 62
     7
370
     0
100
AcDbLine
 10
229.394219751
 20
112.8880099926
 30
0.0
 11
229.2764403038
 21
109.8903228839
 31
0.0
  0
LINE
  5
11A
330
1F
100
AcDbEntity
  8
0
  6
HIDDEN
 62
     7
370
     0
100
AcDbLine
 10
229.467707061
 20
110.6333866615
 30
0.0
 11
229.4492745775
 21
110.164248629
 31
0.0
  0
LINE
  5
11B
330
1F
100
AcDbEntity
  8
0
  6
HIDDEN
 62
     7
370
     0
100
AcDbLine
 10
227.4986938503
 20
111.4613280702
 30
0.0
 11
227.4692489885
 21
110.711906293
 31
0.0
  0
LINE
  5
11C
330
1F
100
AcDbEntity
  8
0
  6
HIDDEN
 62
     7
370
     0
100
AcDbLine
 10
227.5281387122
 20
112.2107498474
 30
0.0
 11
227.4986938503
 21
111.4613280702
 31
0.0
  0
LINE
  5
11D
330
1F
100
AcDbEntity
  8
0
  6
HIDDEN
 62
     7
370
     0
100
AcDbLine
 10
227.4986938503
 20
111.4613280702
 30
0.0
 11
229.4971519228
 21
111.3828084387
 31
0.0
  0
LINE
  5
11E
330
1F
100
AcDbEntity
  8
0
  6
HIDDEN
 62
     7
370
     0
100
AcDbLine
 10
227.4692489885
 20
110.711906293
 30
0.0
 11
229.467707061
 21
110.6333866615
 31
0.0
  0
LINE
  5
11F
330
1F
100
AcDbEntity
  8
0
  6
HIDDEN
 62
     7
370
     0
100
AcDbLine
 10
227.5281387122
 20
112.2107498474
 30
0.0
 11
229.5265967846
 21
112.1322302159
 31
0.0
  0
LINE
  5
120
330
1F
100
AcDbEntity
  8
0
  6
HIDDEN
 62
     7
370
     0
100
AcDbLine
 10
192.167707061
 20
102.3839653304
 30
0.0
 11
192.167707061
 21
107.3839653304
 31
0.0
  0
LINE
  5
121
330
1F
100
AcDbEntity
  8
0
  6
HIDDEN
 62
     7
370
     0
100
AcDbLine
 10
180.967707061
 20
102.3839653304
 30
0.0
 11
180.967707061
 21
107.3839653304
 31
0.0
  0
LINE
  5
122
330
1F
100
AcDbEntity
  8
0
  6
HIDDEN
 62
     7
370
     0
100
AcDbLine
 10
192.567707061
 20
102.7839653304
 30
0.0
 11
192.567707061
 21
106.9839653304
 31
0.0
  0
LINE
  5
123
330
1F
100
AcDbEntity
  8
0
  6
HIDDEN
 62
     7
370
     0
100
AcDbLine
 10
180.567707061
 20
102.7839653304
 30
0.0
 11
180.567707061
 21
106.9839653304
 31
0.0
  0
LINE
  5
124
330
1F
100
AcDbEntity
  8
0
  6
HIDDEN
 62
     7
370
     0
100
AcDbLine
 10
194.567707061
 20
103.8839653304
 30
0.0
 11
193.567707061
 21
103.8839653304
 31
0.0
  0
LINE
  5
125
330
1F
100
AcDbEntity
  8
0
  6
HIDDEN
 62
     7
370
     0
100
AcDbLine
 10
194.567707061
 20
102.7839653304
 30
0.0
 11
194.567707061
 21
103.8839653304
 31
0.0
  0
LINE
  5
126
330
1F
100
AcDbEntity
  8
0
  6
HIDDEN
 62
     7
370
     0
100
AcDbLine
 10
194.567707061
 20
105.8839653304
 30
0.0
 11
194.567707061
 21
106.9839653304
 31
0.0
  0
LINE
  5
127
330
1F
100
AcDbEntity
  8
0
  6
HIDDEN
 62
     7
370
     0
100
AcDbLine
 10
193.567707061
 20
105.8839653304
 30
0.0
 11
194.567707061
 21
105.8839653304
 31
0.0
  0
LINE
  5
128
330
1F
100
AcDbEntity
  8
0
  6
HIDDEN
 62
     7
370
     0
100
AcDbLine
 10
193.567707061
 20
103.8839653304
 30
0.0
 11
193.567707061
 21
105.8839653304
 31
0.0
  0
LINE
  5
129
330
1F
100
AcDbEntity
  8
0
  6
HIDDEN
 62
     7
370
     0
100
AcDbLine
 10
190.567707061
 20
104.8839653304
 30
0.0
 11
193.567707061
 21
104.8839653304
 31
0.0
  0
LINE
  5
12A
330
1F
100
AcDbEntity
  8
0
  6
HIDDEN
 62
     7
370
     0
100
AcDbLine
 10
184.5677070609
 20
104.8839653304
 30
0.0
 11
180.567707061
 21
104.8839653304
 31
0.0
  0
LINE
  5
12B
330
1F
100
AcDbEntity
  8
0
  6
HIDDEN
 62
     7
370
     0
100
AcDbLine
 10
190.567707061
 20
104.8839653304
 30
0.0
 11
190.567707061
 21
104.2589653304
 31
0.0
  0
LINE
  5
12C
330
1F
100
AcDbEntity
  8
0
  6
HIDDEN
 62
     7
370
     0
100
AcDbLine
 10
190.567707061
 20
105.5089653304
 30
0.0
 11
190.567707061
 21
104.8839653304
 31
0.0
  0
LINE
  5
12D
330
1F
100
AcDbEntity
  8
0
  6
HIDDEN
 62
     7
370
     0
100
AcDbLine
 10
184.5677070609
 20
104.8839653304
 30
0.0
 11
184.5677070609
 21
105.5089653304
 31
0.0
  0
LINE
  5
12E
330
1F
100
AcDbEntity
  8
0
  6
HIDDEN
 62
     7
370
     0
100
AcDbLine
 10
184.5677070609
 20
104.2589653304
 30
0.0
 11
184.5677070609
 21
104.8839653304
 31
0.0
  0
LINE
  5
12F
330
1F
100
AcDbEntity
  8
0
  6
HIDDEN
 62
     7
370
     0
100
AcDbLine
 10
190.567707061
 20
104.2589653304
 30
0.0
 11
190.567707061
 21
103.6339653304
 31
0.0
  0
LINE
  5
130
330
1F
100
AcDbEntity
  8
0
  6
HIDDEN
 62
     7
370
     0
100
AcDbLine
 10
184.5677070609
 20
105.5089653304
 30
0.0
 11
184.5677070609
 21
106.1339653304
 31
0.0
  0
LINE
  5
131
330
1F
100
AcDbEntity
  8
0
  6
HIDDEN
 62
     7
370
     0
100
AcDbLine
 10
184.5677070609
 20
103.6339653304
 30
0.0
 11
184.5677070609
 21
104.2589653304
 31
0.0
  0
LINE
  5
132
330
1F
100
AcDbEntity
  8
0
  6
HIDDEN
 62
     7
370
     0
100
AcDbLine
 10
190.567707061
 20
106.1339653304
 30
0.0
 11
190.567707061
 21
105.5089653304
 31
0.0
  0
LINE
  5
133
330
1F
100
AcDbEntity
  8
0
  6
HIDDEN
 62
     7
370
     0
100
AcDbLine
 10
184.5677070609
 20
103.6339653304
 30
0.0
 11
180.5677070609
 21
103.6339653304
 31
0.0
  0
LINE
  5
134
330
1F
100
AcDbEntity
  8
0
  6
HIDDEN
 62
     7
370
     0
100
AcDbLine
 10
190.567707061
 20
106.1339653304
 30
0.0
 11
194.567707061
 21
106.1339653304
 31
0.0
  0
LINE
  5
135
330
1F
100
AcDbEntity
  8
0
  6
HIDDEN
 62
     7
370
     0
100
AcDbLine
 10
184.5677070609
 20
106.1339653304
 30
0.0
 11
180.5677070609
 21
106.1339653304
 31
0.0
  0
LINE
  5
136
330
1F
100
AcDbEntity
  8
0
  6
HIDDEN
 62
     7
370
     0
100
AcDbLine
 10
190.567707061
 20
103.6339653304
 30
0.0
 11
194.567707061
 21
103.6339653304
 31
0.0
  0
LINE
  5
137
330
1F
100
AcDbEntity
  8
0
  6
HIDDEN
 62
     7
370
     0
100
AcDbLine
 10
103.467707061
 20
119.1846304345
 30
0.0
 11
103.467707061
 21
117.2779059733
 31
0.0
  0
LINE
  5
138
330
1F
100
AcDbEntity
  8
0
  6
HIDDEN
 62
     7
370
     0
100
AcDbLine
 10
111.467707061
 20
117.2779059733
 30
0.0
 11
111.467707061
 21
119.1839097906
 31
0.0
  0
LINE
  5
139
330
1F
100
AcDbEntity
  8
0
  6
HIDDEN
 62
     7
370
     0
100
AcDbLine
 10
99.467707061
 20
79.5650442045
 30
0.0
 11
99.5618678365
 21
80.2350329357
 31
0.0
  0
LINE
  5
13A
330
1F
100
AcDbEntity
  8
0
  6
HIDDEN
 62
     7
370
     0
100
AcDbLine
 10
99.5618678365
 20
129.5328977252
 30
0.0
 11
99.467707061
 21
130.2028864564
 31
0.0
  0
ARC
  5
13B
330
1F
100
AcDbEntity
  8
0
  6
HIDDEN
 62
     7
370
     0
100
AcDbCircle
 10
98.9677003083
 20
80.3185377361
 30
0.0
 40
0.60000675266771
100
AcDbArc
 50
352.0
 51
0.0
  0
ARC
  5
13C
330
1F
100
AcDbEntity
  8
0
  6
HIDDEN
 62
     7
370
     0
100
AcDbCircle
 10
98.9677003083
 20
80.3185377361
 30
0.0
 40
0.6000067526677242
100
AcDbArc
 50
0.0
 51
33.5571153394
  0
ARC
  5
13D
330
1F
100
AcDbEntity
  8
0
  6
HIDDEN
 62
     7
370
     0
100
AcDbCircle
 10
98.9677003083
 20
129.4493929248
 30
0.0
 40
0.6000067526677081
100
AcDbArc
 50
348.75
 51
8.0
  0
LWPOLYLINE
  5
13E
330
1F
100
AcDbEntity
  8
0
  6
HIDDEN
 62
     7
370
     0
100
AcDbPolyline
 90
        3
 70
   128
 43
0.0
 10
99.5561780995
 20
129.3323374142
 10
99.5220342665
 20
129.2197802812
 10
99.467707061
 20
129.1177284098
  0
LINE
  5
13F
330
1F
100
AcDbEntity
  8
0
  6
HIDDEN
 62
     7
370
     0
100
AcDbLine
 10
99.567707061
 20
80.3185377361
 30
0.0
 11
99.567707061
 21
129.4493929248
 31
0.0
  0
LINE
  5
140
330
1F
100
AcDbEntity
  8
0
  6
HIDDEN
 62
     7
370
     0
100
AcDbLine
 10
82.5501426263
 20
84.8839653304
 30
0.0
 11
86.7276792027
 21
84.8839653304
 31
0.0
  0
LINE
  5
141
330
1F
100
AcDbEntity
  8
0
  6
HIDDEN
 62
     7
370
     0
100
AcDbLine
 10
86.7208244422
 20
124.8839653304
 30
0.0
 11
82.5501426263
 21
124.8839653304
 31
0.0
  0
ARC
  5
142
330
1F
100
AcDbEntity
  8
0
  6
HIDDEN
 62
     7
370
     0
100
AcDbCircle
 10
82.5501426263
 20
85.4839653304
 30
0.0
 40
0.6000000000000155
100
AcDbArc
 50
210.0
 51
270.0
  0
ARC
  5
143
330
1F
100
AcDbEntity
  8
0
  6
HIDDEN
 62
     7
370
     0
100
AcDbCircle
 10
82.5501426263
 20
124.2839653304
 30
0.0
 40
0.6000000000000155
100
AcDbArc
 50
90.0
 51
150.0
  0
ARC
  5
144
330
1F
100
AcDbEntity
  8
0
  6
HIDDEN
 62
     7
370
     0
100
AcDbCircle
 10
93.2227090626
 20
92.8839653304
 30
0.0
 40
8.000000000000016
100
AcDbArc
 50
277.1438661295
 51
321.3178125465
  0
ARC
  5
145
330
1F
100
AcDbEntity
  8
0
  6
HIDDEN
 62
     7
370
     0
100
AcDbCircle
 10
93.2227090626
 20
116.8839653304
 30
0.0
 40
8.000000000000025
100
AcDbArc
 50
38.6821874535
 51
82.8732855887
  0
LINE
  5
146
330
1F
100
AcDbEntity
  8
0
  6
HIDDEN
 62
     7
370
     0
100
AcDbLine
 10
82.030527384
 20
124.5839653304
 30
0.0
 11
80.4716816572
 21
121.8839653304
 31
0.0
  0
LINE
  5
147
330
1F
100
AcDbEntity
  8
0
  6
HIDDEN
 62
     7
370
     0
100
AcDbLine
 10
80.4716816572
 20
87.8839653304
 30
0.0
 11
82.030527384
 21
85.1839653304
 31
0.0
  0
LINE
  5
148
330
1F
100
AcDbEntity
  8
0
  6
HIDDEN
 62
     7
370
     0
100
AcDbLine
 10
103.467707061
 20
132.1636315684
 30
0.0
 11
103.467707061
 21
128.8295677451
 31
0.0
  0
LINE
  5
149
330
1F
100
AcDbEntity
  8
0
  6
HIDDEN
 62
     7
370
     0
100
AcDbLine
 10
111.467707061
 20
128.8295677451
 30
0.0
 11
111.467707061
 21
132.1582991896
 31
0.0
  0
ARC
  5
14A
330
1F
100
AcDbEntity
  8
0
  6
HIDDEN
 62
     7
370
     0
100
AcDbCircle
 10
107.917707061
 20
89.1589653304
 30
0.0
 40
1.5
100
AcDbArc
 50
238.2116693829
 51
0.0
  0
ARC
  5
14B
330
1F
100
AcDbEntity
  8
0
  6
HIDDEN
 62
     7
370
     0
100
AcDbCircle
 10
107.917707061
 20
120.6089653304
 30
0.0
 40
1.500000000000001
100
AcDbArc
 50
0.0
 51
121.7883306171
  0
LINE
  5
14C
330
1F
100
AcDbEntity
  8
0
  6
HIDDEN
 62
     7
370
     0
100
AcDbLine
 10
99.467707061
 20
87.8839653304
 30
0.0
 11
107.1275330295
 21
87.8839653304
 31
0.0
  0
LINE
  5
14D
330
1F
100
AcDbEntity
  8
0
  6
HIDDEN
 62
     7
370
     0
100
AcDbLine
 10
107.1275330295
 20
121.8839653304
 30
0.0
 11
99.467707061
 21
121.8839653304
 31
0.0
  0
LINE
  5
14E
330
1F
100
AcDbEntity
  8
0
  6
HIDDEN
 62
     7
370
     0
100
AcDbLine
 10
77.667707061
 20
87.8839653304
 30
0.0
 11
80.4716816572
 21
87.8839653304
 31
0.0
  0
LINE
  5
14F
330
1F
100
AcDbEntity
  8
0
  6
HIDDEN
 62
     7
370
     0
100
AcDbLine
 10
80.4716816572
 20
121.8839653304
 30
0.0
 11
73.667707061
 21
121.8839653304
 31
0.0
  0
LINE
  5
150
330
1F
100
AcDbEntity
  8
0
  6
HIDDEN
 62
     7
370
     0
100
AcDbLine
 10
118.767707061
 20
95.3839653304
 30
0.0
 11
121.267707061
 21
95.3839653304
 31
0.0
  0
LINE
  5
151
330
1F
100
AcDbEntity
  8
0
  6
HIDDEN
 62
     7
370
     0
100
AcDbLine
 10
121.267707061
 20
114.3839653304
 30
0.0
 11
118.767707061
 21
114.3839653304
 31
0.0
  0
LINE
  5
152
330
1F
100
AcDbEntity
  8
0
  6
HIDDEN
 62
     7
370
     0
100
AcDbLine
 10
109.417707061
 20
95.8839653304
 30
0.0
 11
109.917707061
 21
96.3839653304
 31
0.0
  0
LINE
  5
153
330
1F
100
AcDbEntity
  8
0
  6
HIDDEN
 62
     7
370
     0
100
AcDbLine
 10
109.917707061
 20
113.3839653304
 30
0.0
 11
109.417707061
 21
113.8839653304
 31
0.0
  0
LINE
  5
154
330
1F
100
AcDbEntity
  8
0
  6
HIDDEN
 62
     7
370
     0
100
AcDbLine
 10
109.917707061
 20
96.3839653304
 30
0.0
 11
118.767707061
 21
96.3839653304
 31
0.0
  0
LINE
  5
155
330
1F
100
AcDbEntity
  8
0
  6
HIDDEN
 62
     7
370
     0
100
AcDbLine
 10
118.767707061
 20
113.3839653304
 30
0.0
 11
109.917707061
 21
113.3839653304
 31
0.0
  0
LINE
  5
156
330
1F
100
AcDbEntity
  8
0
  6
HIDDEN
 62
     7
370
     0
100
AcDbLine
 10
104.417707061
 20
136.3839653304
 30
0.0
 11
104.417707061
 21
131.2839653304
 31
0.0
  0
LINE
  5
157
330
1F
100
AcDbEntity
  8
0
  6
HIDDEN
 62
     7
370
     0
100
AcDbLine
 10
94.6521440805
 20
80.8045940386
 30
0.0
 11
94.2177127318
 21
81.2836596668
 31
0.0
  0
LINE
  5
158
330
1F
100
AcDbEntity
  8
0
  6
HIDDEN
 62
     7
370
     0
100
AcDbLine
 10
86.7177094102
 20
81.7053475412
 30
0.0
 11
86.2352765046
 21
81.2262819566
 31
0.0
  0
LINE
  5
159
330
1F
100
AcDbEntity
  8
0
  6
HIDDEN
 62
     7
370
     0
100
AcDbLine
 10
86.2351545923
 20
128.5416434123
 30
0.0
 11
86.7177045035
 21
128.0625235455
 31
0.0
  0
LINE
  5
15A
330
1F
100
AcDbEntity
  8
0
  6
HIDDEN
 62
     7
370
     0
100
AcDbLine
 10
94.2177069444
 20
128.4842212421
 30
0.0
 11
94.6522485351
 21
128.9633411016
 31
0.0
  0
LINE
  5
15B
330
1F
100
AcDbEntity
  8
0
  6
HIDDEN
 62
     7
370
     0
100
AcDbLine
 10
153.567707061
 20
100.6839653304
 30
0.0
 11
154.0483955562
 21
101.4839653304
 31
0.0
  0
LINE
  5
15C
330
1F
100
AcDbEntity
  8
0
  6
HIDDEN
 62
     7
370
     0
100
AcDbLine
 10
154.0483955562
 20
108.2839653304
 30
0.0
 11
153.567707061
 21
109.0839653304
 31
0.0
  0
LINE
  5
15D
330
1F
100
AcDbEntity
  8
0
  6
HIDDEN
 62
     7
370
     0
100
AcDbLine
 10
121.267707061
 20
100.6839653304
 30
0.0
 11
153.567707061
 21
100.6839653304
 31
0.0
  0
LINE
  5
15E
330
1F
100
AcDbEntity
  8
0
  6
HIDDEN
 62
     7
370
     0
100
AcDbLine
 10
153.567707061
 20
109.0839653304
 30
0.0
 11
121.267707061
 21
109.0839653304
 31
0.0
  0
ARC
  5
15F
330
1F
100
AcDbEntity
  8
0
  6
HIDDEN
 62
     7
370
     0
100
AcDbCircle
 10
228.967707061
 20
100.8472710824
 30
0.0
 40
0.5
100
AcDbArc
 50
360.0
 51
80.0
  0
ARC
  5
160
330
1F
100
AcDbEntity
  8
0
  6
HIDDEN
 62
     7
370
     0
100
AcDbCircle
 10
228.967707061
 20
108.9206595785
 30
0.0
 40
0.5
100
AcDbArc
 50
280.0
 51
0.0
  0
LINE
  5
161
330
1F
100
AcDbEntity
  8
0
  6
HIDDEN
 62
     7
370
     0
100
AcDbLine
 10
94.217707061
 20
81.2841435572
 30
0.0
 11
94.217707061
 21
84.9461291398
 31
0.0
  0
LINE
  5
162
330
1F
100
AcDbEntity
  8
0
  6
HIDDEN
 62
     7
370
     0
100
AcDbLine
 10
86.717707061
 20
84.885827576
 30
0.0
 11
86.717707061
 21
81.7056703163
 31
0.0
  0
LINE
  5
163
330
1F
100
AcDbEntity
  8
0
  6
HIDDEN
 62
     7
370
     0
100
AcDbLine
 10
94.217707061
 20
124.8218015211
 30
0.0
 11
94.217707061
 21
128.4836678367
 31
0.0
  0
LINE
  5
164
330
1F
100
AcDbEntity
  8
0
  6
HIDDEN
 62
     7
370
     0
100
AcDbLine
 10
86.717707061
 20
128.0622688195
 30
0.0
 11
86.717707061
 21
124.8833810692
 31
0.0
  0
LINE
  5
165
330
1F
100
AcDbEntity
  8
0
  6
HIDDEN
 62
     7
370
     0
100
AcDbLine
 10
229.0545311498
 20
108.428255702
 30
0.0
 11
225.967707061
 21
107.8839653304
 31
0.0
  0
LINE
  5
166
330
1F
100
AcDbEntity
  8
0
  6
HIDDEN
 62
     7
370
     0
100
AcDbLine
 10
225.967707061
 20
101.8839653304
 30
0.0
 11
229.0545311498
 21
101.3396749589
 31
0.0
  0
LINE
  5
167
330
1F
100
AcDbEntity
  8
0
  6
HIDDEN
 62
     7
370
     0
100
AcDbLine
 10
177.567707061
 20
101.4839653304
 30
0.0
 11
178.3488258657
 21
102.7839653304
 31
0.0
  0
LINE
  5
168
330
1F
100
AcDbEntity
  8
0
  6
HIDDEN
 62
     7
370
     0
100
AcDbLine
 10
178.3488258657
 20
106.9839653304
 30
0.0
 11
177.567707061
 21
108.2839653304
 31
0.0
  0
LINE
  5
169
330
1F
100
AcDbEntity
  8
0
  6
HIDDEN
 62
     7
370
     0
100
AcDbLine
 10
154.0483955562
 20
101.4839653304
 30
0.0
 11
177.567707061
 21
101.4839653304
 31
0.0
  0
LINE
  5
16A
330
1F
100
AcDbEntity
  8
0
  6
HIDDEN
 62
     7
370
     0
100
AcDbLine
 10
177.567707061
 20
108.2839653304
 30
0.0
 11
154.0483955562
 21
108.2839653304
 31
0.0
  0
ARC
  5
16B
330
1F
100
AcDbEntity
  8
0
  6
HIDDEN
 62
     7
370
     0
100
AcDbCircle
 10
206.5729330429
 20
101.9839653304
 30
0.0
 40
0.4000000000000074
100
AcDbArc
 50
270.0
 51
290.0
  0
ARC
  5
16C
330
1F
100
AcDbEntity
  8
0
  6
HIDDEN
 62
     7
370
     0
100
AcDbCircle
 10
206.5729330429
 20
107.7839653304
 30
0.0
 40
0.4000000000000074
100
AcDbArc
 50
70.0
 51
90.0
  0
LINE
  5
16D
330
1F
100
AcDbEntity
  8
0
  6
HIDDEN
 62
     7
370
     0
100
AcDbLine
 10
196.467707061
 20
101.5839653304
 30
0.0
 11
206.5729330429
 21
101.5839653304
 31
0.0
  0
LINE
  5
16E
330
1F
100
AcDbEntity
  8
0
  6
HIDDEN
 62
     7
370
     0
100
AcDbLine
 10
193.367707061
 20
101.5839653304
 30
0.0
 11
193.4718138818
 21
101.5839653304
 31
0.0
  0
LINE
  5
16F
330
1F
100
AcDbEntity
  8
0
  6
HIDDEN
 62
     7
370
     0
100
AcDbLine
 10
193.4718138818
 20
108.1839653304
 30
0.0
 11
193.367707061
 21
108.1839653304
 31
0.0
  0
LINE
  5
170
330
1F
100
AcDbEntity
  8
0
  6
HIDDEN
 62
     7
370
     0
100
AcDbLine
 10
206.5729330429
 20
108.1839653304
 30
0.0
 11
196.467707061
 21
108.1839653304
 31
0.0
  0
ARC
  5
171
330
1F
100
AcDbEntity
  8
0
  6
HIDDEN
 62
     7
370
     0
100
AcDbCircle
 10
193.367707061
 20
101.9839653304
 30
0.0
 40
0.4000000000000057
100
AcDbArc
 50
180.0
 51
270.0
  0
ARC
  5
172
330
1F
100
AcDbEntity
  8
0
  6
HIDDEN
 62
     7
370
     0
100
AcDbCircle
 10
193.367707061
 20
107.7839653304
 30
0.0
 40
0.4000000000000057
100
AcDbArc
 50
90.0
 51
180.0
  0
LINE
  5
173
330
1F
100
AcDbEntity
  8
0
  6
HIDDEN
 62
     7
370
     0
100
AcDbLine
 10
206.7097411002
 20
101.6080882821
 30
0.0
 11
207.467707061
 21
101.8839653304
 31
0.0
  0
LINE
  5
174
330
1F
100
AcDbEntity
  8
0
  6
HIDDEN
 62
     7
370
     0
100
AcDbLine
 10
207.467707061
 20
107.8839653304
 30
0.0
 11
206.7097411002
 21
108.1598423788
 31
0.0
  0
LINE
  5
175
330
1F
100
AcDbEntity
  8
0
  6
HIDDEN
 62
     7
370
     0
100
AcDbLine
 10
164.917707061
 20
91.3839653304
 30
0.0
 11
163.917707061
 21
91.9613155996
 31
0.0
  0
LINE
  5
176
330
1F
100
AcDbEntity
  8
0
  6
HIDDEN
 62
     7
370
     0
100
AcDbLine
 10
158.917707061
 20
91.9613155996
 30
0.0
 11
157.917707061
 21
91.3839653304
 31
0.0
  0
LINE
  5
177
330
1F
100
AcDbEntity
  8
0
  6
HIDDEN
 62
     7
370
     0
100
AcDbLine
 10
157.917707061
 20
118.3839653304
 30
0.0
 11
158.917707061
 21
117.8066150613
 31
0.0
  0
LINE
  5
178
330
1F
100
AcDbEntity
  8
0
  6
HIDDEN
 62
     7
370
     0
100
AcDbLine
 10
163.917707061
 20
117.8066150613
 30
0.0
 11
164.917707061
 21
118.3839653304
 31
0.0
  0
LINE
  5
179
330
1F
100
AcDbEntity
  8
0
  6
HIDDEN
 62
     7
370
     0
100
AcDbLine
 10
207.467707061
 20
101.8839653304
 30
0.0
 11
225.967707061
 21
101.8839653304
 31
0.0
  0
LINE
  5
17A
330
1F
100
AcDbEntity
  8
0
  6
HIDDEN
 62
     7
370
     0
100
AcDbLine
 10
225.967707061
 20
107.8839653304
 30
0.0
 11
207.467707061
 21
107.8839653304
 31
0.0
  0
LINE
  5
17B
330
1F
100
AcDbEntity
  8
0
  6
HIDDEN
 62
     7
370
     0
100
AcDbLine
 10
158.917707061
 20
110.3839653304
 30
0.0
 11
161.417707061
 21
108.8818137829
 31
0.0
  0
LINE
  5
17C
330
1F
100
AcDbEntity
  8
0
  6
HIDDEN
 62
     7
370
     0
100
AcDbLine
 10
161.417707061
 20
108.8818137829
 30
0.0
 11
163.917707061
 21
110.3839653304
 31
0.0
  0
LINE
  5
17D
330
1F
100
AcDbEntity
  8
0
  6
HIDDEN
 62
     7
370
     0
100
AcDbLine
 10
158.917707061
 20
117.8066150613
 30
0.0
 11
158.917707061
 21
110.3839653304
 31
0.0
  0
LINE
  5
17E
330
1F
100
AcDbEntity
  8
0
  6
HIDDEN
 62
     7
370
     0
100
AcDbLine
 10
163.917707061
 20
110.3839653304
 30
0.0
 11
163.917707061
 21
117.8066150613
 31
0.0
  0
LINE
  5
17F
330
1F
100
AcDbEntity
  8
0
  6
HIDDEN
 62
     7
370
     0
100
AcDbLine
 10
192.967707061
 20
107.3839653304
 30
0.0
 11
192.567707061
 21
106.9839653304
 31
0.0
  0
LINE
  5
180
330
1F
100
AcDbEntity
  8
0
  6
HIDDEN
 62
     7
370
     0
100
AcDbLine
 10
192.567707061
 20
102.7839653304
 30
0.0
 11
192.967707061
 21
102.3839653304
 31
0.0
  0
LINE
  5
181
330
1F
100
AcDbEntity
  8
0
  6
HIDDEN
 62
     7
370
     0
100
AcDbLine
 10
163.917707061
 20
99.3839653304
 30
0.0
 11
161.417707061
 21
100.886116878
 31
0.0
  0
LINE
  5
182
330
1F
100
AcDbEntity
  8
0
  6
HIDDEN
 62
     7
370
     0
100
AcDbLine
 10
161.417707061
 20
100.886116878
 30
0.0
 11
158.917707061
 21
99.3839653304
 31
0.0
  0
LINE
  5
183
330
1F
100
AcDbEntity
  8
0
  6
HIDDEN
 62
     7
370
     0
100
AcDbLine
 10
163.917707061
 20
91.9613155996
 30
0.0
 11
163.917707061
 21
99.3839653304
 31
0.0
  0
LINE
  5
184
330
1F
100
AcDbEntity
  8
0
  6
HIDDEN
 62
     7
370
     0
100
AcDbLine
 10
158.917707061
 20
99.3839653304
 30
0.0
 11
158.917707061
 21
91.9613155996
 31
0.0
  0
LINE
  5
185
330
1F
100
AcDbEntity
  8
0
  6
HIDDEN
 62
     7
370
     0
100
AcDbLine
 10
178.3488258657
 20
102.7839653304
 30
0.0
 11
192.567707061
 21
102.7839653304
 31
0.0
  0
LINE
  5
186
330
1F
100
AcDbEntity
  8
0
  6
HIDDEN
 62
     7
370
     0
100
AcDbLine
 10
192.567707061
 20
106.9839653304
 30
0.0
 11
178.3488258657
 21
106.9839653304
 31
0.0
  0
LINE
  5
187
330
1F
100
AcDbEntity
  8
0
  6
HIDDEN
 62
     7
370
     0
100
AcDbLine
 10
196.467707061
 20
98.3383562474
 30
0.0
 11
196.467707061
 21
101.5839653304
 31
0.0
  0
LINE
  5
188
330
1F
100
AcDbEntity
  8
0
  6
HIDDEN
 62
     7
370
     0
100
AcDbLine
 10
196.467707061
 20
94.8839653304
 30
0.0
 11
196.467707061
 21
95.8401841288
 31
0.0
  0
LINE
  5
189
330
1F
100
AcDbEntity
  8
0
  6
HIDDEN
 62
     7
370
     0
100
AcDbLine
 10
193.467707061
 20
95.8367917008
 30
0.0
 11
193.467707061
 21
94.8839653304
 31
0.0
  0
LINE
  5
18A
330
1F
100
AcDbEntity
  8
0
  6
HIDDEN
 62
     7
370
     0
100
AcDbLine
 10
193.467707061
 20
101.5858256094
 30
0.0
 11
193.467707061
 21
98.208237526
 31
0.0
  0
LINE
  5
18B
330
1F
100
AcDbEntity
  8
0
  6
HIDDEN
 62
     7
370
     0
100
AcDbLine
 10
196.467707061
 20
113.93150331
 30
0.0
 11
196.467707061
 21
114.8839653304
 31
0.0
  0
LINE
  5
18C
330
1F
100
AcDbEntity
  8
0
  6
HIDDEN
 62
     7
370
     0
100
AcDbLine
 10
196.467707061
 20
108.1839653304
 30
0.0
 11
196.467707061
 21
111.4329906816
 31
0.0
  0
LINE
  5
18D
330
1F
100
AcDbEntity
  8
0
  6
HIDDEN
 62
     7
370
     0
100
AcDbLine
 10
193.467707061
 20
111.5596931349
 30
0.0
 11
193.467707061
 21
108.1821050515
 31
0.0
  0
LINE
  5
18E
330
1F
100
AcDbEntity
  8
0
  6
HIDDEN
 62
     7
370
     0
100
AcDbLine
 10
193.467707061
 20
114.8839653304
 30
0.0
 11
193.467707061
 21
113.93113896
 31
0.0
  0
LINE
  5
18F
330
1F
100
AcDbEntity
  8
0
  6
HIDDEN
 62
     7
370
     0
100
AcDbLine
 10
196.467707061
 20
114.8839653304
 30
0.0
 11
194.967707061
 21
115.785256259
 31
0.0
  0
LINE
  5
190
330
1F
100
AcDbEntity
  8
0
  6
HIDDEN
 62
     7
370
     0
100
AcDbLine
 10
194.967707061
 20
115.785256259
 30
0.0
 11
193.467707061
 21
114.8839653304
 31
0.0
  0
LINE
  5
191
330
1F
100
AcDbEntity
  8
0
  6
HIDDEN
 62
     7
370
     0
100
AcDbLine
 10
196.4646523643
 20
95.8363073316
 30
0.0
 11
229.467707061
 21
97.1330008822
 31
0.0
  0
LINE
  5
192
330
1F
100
AcDbEntity
  8
0
  6
HIDDEN
 62
     7
370
     0
100
AcDbLine
 10
229.467707061
 20
99.6349297787
 30
0.0
 11
196.467707061
 21
98.3383562474
 31
0.0
  0
LINE
  5
193
330
1F
100
AcDbEntity
  8
0
  6
HIDDEN
 62
     7
370
     0
100
AcDbLine
 10
196.4648241313
 20
111.4296876841
 30
0.0
 11
229.467707061
 21
110.1330008822
 31
0.0
  0
LINE
  5
194
330
1F
100
AcDbEntity
  8
0
  6
HIDDEN
 62
     7
370
     0
100
AcDbLine
 10
229.467707061
 20
112.6349297787
 30
0.0
 11
196.467707061
 21
113.93150331
 31
0.0
  0
LINE
  5
195
330
1F
100
AcDbEntity
  8
0
  6
HIDDEN
 62
     7
370
     0
100
AcDbLine
 10
193.4463869866
 20
98.2196482584
 30
0.0
 11
192.7449650348
 21
96.9411248666
 31
0.0
  0
LINE
  5
196
330
1F
100
AcDbEntity
  8
0
  6
HIDDEN
 62
     7
370
     0
100
AcDbLine
 10
192.7449650348
 20
96.9411248666
 30
0.0
 11
193.4703125358
 21
95.8347860671
 31
0.0
  0
LINE
  5
197
330
1F
100
AcDbEntity
  8
0
  6
HIDDEN
 62
     7
370
     0
100
AcDbLine
 10
193.4703125358
 20
113.9331445938
 30
0.0
 11
192.7449650348
 21
112.8268057943
 31
0.0
  0
LINE
  5
198
330
1F
100
AcDbEntity
  8
0
  6
HIDDEN
 62
     7
370
     0
100
AcDbLine
 10
192.7449650348
 20
112.8268057943
 30
0.0
 11
193.4463869866
 21
111.5482824025
 31
0.0
  0
LINE
  5
199
330
1F
100
AcDbEntity
  8
0
  6
HIDDEN
 62
     7
370
     0
100
AcDbLine
 10
229.2764403038
 20
99.877607777
 30
0.0
 11
223.9425024999
 21
99.6680367899
 31
0.0
  0
LINE
  5
19A
330
1F
100
AcDbEntity
  8
0
  6
HIDDEN
 62
     7
370
     0
100
AcDbLine
 10
224.0602819471
 20
96.6703496812
 30
0.0
 11
229.394219751
 21
96.8799206683
 31
0.0
  0
LINE
  5
19B
330
1F
100
AcDbEntity
  8
0
  6
HIDDEN
 62
     7
370
     0
100
AcDbLine
 10
223.9425024999
 20
99.6680367899
 30
0.0
 11
223.4625178896
 21
99.1487923639
 31
0.0
  0
LINE
  5
19C
330
1F
100
AcDbEntity
  8
0
  6
HIDDEN
 62
     7
370
     0
100
AcDbLine
 10
223.5410375211
 20
97.1503342914
 30
0.0
 11
224.0602819471
 21
96.6703496812
 31
0.0
  0
LINE
  5
19D
330
1F
100
AcDbEntity
  8
0
  6
HIDDEN
 62
     7
370
     0
100
AcDbLine
 10
229.394219751
 20
96.8799206683
 30
0.0
 11
229.467707061
 21
97.0195970701
 31
0.0
  0
LINE
  5
19E
330
1F
100
AcDbEntity
  8
0
  6
HIDDEN
 62
     7
370
     0
100
AcDbLine
 10
229.4492745775
 20
99.6036820319
 30
0.0
 11
229.2764403038
 21
99.877607777
 31
0.0
  0
LINE
  5
19F
330
1F
100
AcDbEntity
  8
0
  6
HIDDEN
 62
     7
370
     0
100
AcDbLine
 10
224.0602819471
 20
113.0975809797
 30
0.0
 11
223.5410375211
 21
112.6175963695
 31
0.0
  0
LINE
  5
1A0
330
1F
100
AcDbEntity
  8
0
  6
HIDDEN
 62
     7
370
     0
100
AcDbLine
 10
223.4625178896
 20
110.619138297
 30
0.0
 11
223.9425024999
 21
110.099893871
 31
0.0
  0
LINE
  5
1A1
330
1F
100
AcDbEntity
  8
0
  6
HIDDEN
 62
     7
370
     0
100
AcDbLine
 10
229.394219751
 20
112.8880099926
 30
0.0
 11
224.0602819471
 21
113.0975809797
 31
0.0
  0
LINE
  5
1A2
330
1F
100
AcDbEntity
  8
0
  6
HIDDEN
 62
     7
370
     0
100
AcDbLine
 10
223.9425024999
 20
110.099893871
 30
0.0
 11
229.2764403038
 21
109.8903228839
 31
0.0
  0
LINE
  5
1A3
330
1F
100
AcDbEntity
  8
0
  6
HIDDEN
 62
     7
370
     0
100
AcDbLine
 10
229.2764403038
 20
109.8903228839
 30
0.0
 11
229.4492745775
 21
110.164248629
 31
0.0
  0
LINE
  5
1A4
330
1F
100
AcDbEntity
  8
0
  6
HIDDEN
 62
     7
370
     0
100
AcDbLine
 10
229.467707061
 20
112.7483335908
 30
0.0
 11
229.394219751
 21
112.8880099926
 31
0.0
  0
LINE
  5
1A5
330
1F
100
AcDbEntity
  8
0
  6
HIDDEN
 62
     7
370
     0
100
AcDbLine
 10
180.967707061
 20
102.3839653304
 30
0.0
 11
192.167707061
 21
102.3839653304
 31
0.0
  0
LINE
  5
1A6
330
1F
100
AcDbEntity
  8
0
  6
HIDDEN
 62
     7
370
     0
100
AcDbLine
 10
192.167707061
 20
107.3839653304
 30
0.0
 11
180.967707061
 21
107.3839653304
 31
0.0
  0
LINE
  5
1A7
330
1F
100
AcDbEntity
  8
0
  6
HIDDEN
 62
     7
370
     0
100
AcDbLine
 10
192.167707061
 20
102.3839653304
 30
0.0
 11
192.567707061
 21
102.7839653304
 31
0.0
  0
LINE
  5
1A8
330
1F
100
AcDbEntity
  8
0
  6
HIDDEN
 62
     7
370
     0
100
AcDbLine
 10
192.567707061
 20
106.9839653304
 30
0.0
 11
192.167707061
 21
107.3839653304
 31
0.0
  0
LINE
  5
1A9
330
1F
100
AcDbEntity
  8
0
  6
HIDDEN
 62
     7
370
     0
100
AcDbLine
 10
180.967707061
 20
107.3839653304
 30
0.0
 11
180.567707061
 21
106.9839653304
 31
0.0
  0
LINE
  5
1AA
330
1F
100
AcDbEntity
  8
0
  6
HIDDEN
 62
     7
370
     0
100
AcDbLine
 10
180.567707061
 20
102.7839653304
 30
0.0
 11
180.967707061
 21
102.3839653304
 31
0.0
  0
LINE
  5
1AB
330
1F
100
AcDbEntity
  8
0
  6
HIDDEN
 62
     7
370
     0
100
AcDbLine
 10
192.567707061
 20
102.7839653304
 30
0.0
 11
194.567707061
 21
102.7839653304
 31
0.0
  0
LINE
  5
1AC
330
1F
100
AcDbEntity
  8
0
  6
HIDDEN
 62
     7
370
     0
100
AcDbLine
 10
194.567707061
 20
106.9839653304
 30
0.0
 11
192.567707061
 21
106.9839653304
 31
0.0
  0
LINE
  5
1AD
330
1F
100
AcDbEntity
  8
0
  6
HIDDEN
 62
     7
370
     0
100
AcDbLine
 10
184.5677070609
 20
103.6339653304
 30
0.0
 11
190.567707061
 21
103.6339653304
 31
0.0
  0
LINE
  5
1AE
330
1F
100
AcDbEntity
  8
0
  6
HIDDEN
 62
     7
370
     0
100
AcDbLine
 10
190.567707061
 20
106.1339653304
 30
0.0
 11
184.5677070609
 21
106.1339653304
 31
0.0
  0
DIMENSION
  5
1AF
330
1F
100
AcDbEntity
  8
VERMASSUNG
100
AcDbDimension
  2
*D1
 10
61.4739978332
 20
73.3839653304
 30
0.0
 11
61.4739978332
 21
104.8839653304
 31
0.0
 70
   160
  1
HSK A %%c<>
 71
     2
 42
-1.0
  3
SLDDIMSTYLE0
100
AcDbAlignedDimension
 13
99.767707061
 23
136.3839653304
 33
0.0
 14
99.767707061
 24
73.3839653304
 34
0.0
 50
90.0
100
AcDbRotatedDimension
  0
DIMENSION
  5
1BC
330
1F
100
AcDbEntity
  8
VERMASSUNG
100
AcDbDimension
  2
*D2
 10
245.5775967813
 20
115.3839653304
 30
0.0
 11
245.5775967813
 21
104.8839653304
 31
0.0
 70
   160
  1
%%c<>
 71
     2
 42
-1.0
  3
SLDDIMSTYLE1
100
AcDbAlignedDimension
 13
229.467707061
 23
94.3839653304
 33
0.0
 14
229.467707061
 24
115.3839653304
 34
0.0
 50
90.0
100
AcDbRotatedDimension
  0
DIMENSION
  5
1C8
330
1F
100
AcDbEntity
  8
VERMASSUNG
100
AcDbDimension
  2
*D3
 10
251.5775967813
 20
118.3839653304
 30
0.0
 11
251.5775967813
 21
104.8839653304
 31
0.0
 70
   160
  1
%%c<>
 71
     2
 42
-1.0
  3
SLDDIMSTYLE1
100
AcDbAlignedDimension
 13
161.417707061
 23
91.3839653304
 33
0.0
 14
161.417707061
 24
118.3839653304
 34
0.0
 50
90.0
100
AcDbRotatedDimension
  0
DIMENSION
  5
1D3
330
1F
100
AcDbEntity
  8
VERMASSUNG
100
AcDbDimension
  2
*D4
 10
229.467707061
 20
150.4502877572
 30
0.0
 11
164.467707061
 21
150.4502877572
 31
0.0
 70
   160
 71
     2
 42
-1.0
  3
SLDDIMSTYLE0
100
AcDbAlignedDimension
 13
99.467707061
 23
104.8839653304
 33
0.0
 14
229.467707061
 24
104.8839653304
 34
0.0
100
AcDbRotatedDimension
  0
DIMENSION
  5
1DD
330
1F
100
AcDbEntity
  8
VERMASSUNG
100
AcDbDimension
  2
*D5
 10
239.5775967813
 20
101.8839653304
 30
0.0
 11
239.5775967813
 21
104.8839653304
 31
0.0
 70
   160
  1
%%c<>
 71
     2
 42
-1.0
  3
SLDDIMSTYLE2
100
AcDbAlignedDimension
 13
225.967707061
 23
107.8839653304
 33
0.0
 14
225.967707061
 24
101.8839653304
 34
0.0
 50
90.0
100
AcDbRotatedDimension
  0
DIMENSION
  5
1EB
330
1F
100
AcDbEntity
  8
VERMASSUNG
100
AcDbDimension
  2
*D6
 10
192.967707061
 20
138.4502877572
 30
0.0
 11
211.217707061
 21
138.4502877572
 31
0.0
 70
   160
 71
     2
 42
-1.0
  3
SLDDIMSTYLE0
100
AcDbAlignedDimension
 13
229.467707061
 23
113.5351843471
 33
0.0
 14
192.967707061
 24
107.7839653304
 34
0.0
100
AcDbRotatedDimension
  0
DIMENSION
  5
1F5
330
1F
100
AcDbEntity
  8
VERMASSUNG
100
AcDbDimension
  2
*D7
 10
229.467707061
 20
144.4502877572
 30
0.0
 11
177.442707061
 21
144.4502877572
 31
0.0
 70
   160
 71
     2
 42
-1.0
  3
SLDDIMSTYLE0
100
AcDbAlignedDimension
 13
125.417707061
 23
134.7304056542
 33
0.0
 14
229.467707061
 24
113.5351843471
 34
0.0
100
AcDbRotatedDimension
  0
DIMENSION
  5
1FF
330
1F
100
AcDbEntity
  8
VERMASSUNG
100
AcDbDimension
  2
*D8
 10
229.467707061
 20
156.4502877572
 30
0.0
 11
148.517707061
 21
156.4502877572
 31
0.0
 70
   160
 71
     2
 42
-1.0
  3
SLDDIMSTYLE0
100
AcDbAlignedDimension
 13
67.567707061
 23
124.5746430769
 33
0.0
 14
229.467707061
 24
113.5351843471
 34
0.0
100
AcDbRotatedDimension
  0
LINE
  5
209
330
1F
100
AcDbEntity
  8
VERMASSUNG
  6
CENTERX2
370
     0
100
AcDbLine
 10
63.7946912243
 20
104.8839653304
 30
0.0
 11
231.467707061
 21
104.8839653304
 31
0.0
  0
OLE2FRAME
  5
20A
330
1F
100
AcDbEntity
  8
0
100
AcDbOle2Frame
 70
     2
  3
Bitmap Image
 10
13.8511154363
 20
38.264191557
 30
0.0
 11
51.6290888628
 21
31.9806341108
 31
0.0
 71
     2
 72
     0
 73
     1
 90
    12928
310
80552BED0767C5B32B40DDAF6807D121434000000000000000006FFBDDFB85D0
310
4940DDAF6807D121434000000000000000006FFBDDFB85D04940416F4BD60AFB
310
3F4000000000000000002BED0767C5B32B40416F4BD60AFB3F40000000000000
310
0000000000000100000000010000010000000100000000000100000000320000
310
D0CF11E0A1B11AE1000000000000000000000000000000003E000300FEFF0900
310
0600000000000000000000000100000001000000000000000010000002000000
310
01000000FEFFFFFF0000000000000000FFFFFFFFFFFFFFFFFFFFFFFFFFFFFFFF
310
FFFFFFFFFFFFFFFFFFFFFFFFFFFFFFFFFFFFFFFFFFFFFFFFFFFFFFFFFFFFFFFF
310
FFFFFFFFFFFFFFFFFFFFFFFFFFFFFFFFFFFFFFFFFFFFFFFFFFFFFFFFFFFFFFFF
310
FFFFFFFFFFFFFFFFFFFFFFFFFFFFFFFFFFFFFFFFFFFFFFFFFFFFFFFFFFFFFFFF
310
FFFFFFFFFFFFFFFFFFFFFFFFFFFFFFFFFFFFFFFFFFFFFFFFFFFFFFFFFFFFFFFF
310
FFFFFFFFFFFFFFFFFFFFFFFFFFFFFFFFFFFFFFFFFFFFFFFFFFFFFFFFFFFFFFFF
310
FFFFFFFFFFFFFFFFFFFFFFFFFFFFFFFFFFFFFFFFFFFFFFFFFFFFFFFFFFFFFFFF
310
FFFFFFFFFFFFFFFFFFFFFFFFFFFFFFFFFFFFFFFFFFFFFFFFFFFFFFFFFFFFFFFF
310
FFFFFFFFFFFFFFFFFFFFFFFFFFFFFFFFFFFFFFFFFFFFFFFFFFFFFFFFFFFFFFFF
310
FFFFFFFFFFFFFFFFFFFFFFFFFFFFFFFFFFFFFFFFFFFFFFFFFFFFFFFFFFFFFFFF
310
FFFFFFFFFFFFFFFFFFFFFFFFFFFFFFFFFFFFFFFFFFFFFFFFFFFFFFFFFFFFFFFF
310
FFFFFFFFFFFFFFFFFFFFFFFFFFFFFFFFFFFFFFFFFFFFFFFFFFFFFFFFFFFFFFFF
310
FFFFFFFFFFFFFFFFFFFFFFFFFFFFFFFFFFFFFFFFFFFFFFFFFFFFFFFFFFFFFFFF
310
FFFFFFFFFFFFFFFFFFFFFFFFFFFFFFFFFFFFFFFFFFFFFFFFFFFFFFFFFFFFFFFF
310
FDFFFFFFFEFFFFFFFEFFFFFFFEFFFFFF05000000060000000700000008000000
310
090000000A0000000B0000000C0000000D0000000E0000000F00000010000000
310
11000000120000001300000014000000150000001600000017000000FEFFFFFF
310
FFFFFFFFFFFFFFFFFFFFFFFFFFFFFFFFFFFFFFFFFFFFFFFFFFFFFFFFFFFFFFFF
310
FFFFFFFFFFFFFFFFFFFFFFFFFFFFFFFFFFFFFFFFFFFFFFFFFFFFFFFFFFFFFFFF
310
FFFFFFFFFFFFFFFFFFFFFFFFFFFFFFFFFFFFFFFFFFFFFFFFFFFFFFFFFFFFFFFF
310
FFFFFFFFFFFFFFFFFFFFFFFFFFFFFFFFFFFFFFFFFFFFFFFFFFFFFFFFFFFFFFFF
310
FFFFFFFFFFFFFFFFFFFFFFFFFFFFFFFFFFFFFFFFFFFFFFFFFFFFFFFFFFFFFFFF
310
FFFFFFFFFFFFFFFFFFFFFFFFFFFFFFFFFFFFFFFFFFFFFFFFFFFFFFFFFFFFFFFF
310
FFFFFFFFFFFFFFFFFFFFFFFFFFFFFFFFFFFFFFFFFFFFFFFFFFFFFFFFFFFFFFFF
310
FFFFFFFFFFFFFFFFFFFFFFFFFFFFFFFFFFFFFFFFFFFFFFFFFFFFFFFFFFFFFFFF
310
FFFFFFFFFFFFFFFFFFFFFFFFFFFFFFFFFFFFFFFFFFFFFFFFFFFFFFFFFFFFFFFF
310
FFFFFFFFFFFFFFFFFFFFFFFFFFFFFFFFFFFFFFFFFFFFFFFFFFFFFFFFFFFFFFFF
310
FFFFFFFFFFFFFFFFFFFFFFFFFFFFFFFFFFFFFFFFFFFFFFFFFFFFFFFFFFFFFFFF
310
FFFFFFFFFFFFFFFFFFFFFFFFFFFFFFFFFFFFFFFFFFFFFFFFFFFFFFFFFFFFFFFF
310
FFFFFFFFFFFFFFFFFFFFFFFFFFFFFFFFFFFFFFFFFFFFFFFFFFFFFFFFFFFFFFFF
310
52006F006F007400200045006E00740072007900000000000000000000000000
310
0000000000000000000000000000000000000000000000000000000000000000
310
16000500FFFFFFFFFFFFFFFF020000000A00030000000000C000000000000046
310
00000000000000000000000080761382BF04CC0103000000C000000000000000
310
01004F006C006500000000000000000000000000000000000000000000000000
310
0000000000000000000000000000000000000000000000000000000000000000
310
0A000200FFFFFFFFFFFFFFFFFFFFFFFF00000000000000000000000000000000
310
0000000000000000000000000000000000000000000000001400000000000000
310
010043006F006D0070004F0062006A0000000000000000000000000000000000
310
0000000000000000000000000000000000000000000000000000000000000000
310
120002010100000003000000FFFFFFFF00000000000000000000000000000000
310
0000000000000000000000000000000000000000010000004D00000000000000
310
01004F006C006500310030004E00610074006900760065000000000000000000
310
0000000000000000000000000000000000000000000000000000000000000000
310
1A000200FFFFFFFFFFFFFFFFFFFFFFFF00000000000000000000000000000000
310
0000000000000000000000000000000000000000040000002426000000000000
310
FEFFFFFF02000000FEFFFFFFFFFFFFFFFFFFFFFFFFFFFFFFFFFFFFFFFFFFFFFF
310
FFFFFFFFFFFFFFFFFFFFFFFFFFFFFFFFFFFFFFFFFFFFFFFFFFFFFFFFFFFFFFFF
310
FFFFFFFFFFFFFFFFFFFFFFFFFFFFFFFFFFFFFFFFFFFFFFFFFFFFFFFFFFFFFFFF
310
FFFFFFFFFFFFFFFFFFFFFFFFFFFFFFFFFFFFFFFFFFFFFFFFFFFFFFFFFFFFFFFF
310
FFFFFFFFFFFFFFFFFFFFFFFFFFFFFFFFFFFFFFFFFFFFFFFFFFFFFFFFFFFFFFFF
310
FFFFFFFFFFFFFFFFFFFFFFFFFFFFFFFFFFFFFFFFFFFFFFFFFFFFFFFFFFFFFFFF
310
FFFFFFFFFFFFFFFFFFFFFFFFFFFFFFFFFFFFFFFFFFFFFFFFFFFFFFFFFFFFFFFF
310
FFFFFFFFFFFFFFFFFFFFFFFFFFFFFFFFFFFFFFFFFFFFFFFFFFFFFFFFFFFFFFFF
310
FFFFFFFFFFFFFFFFFFFFFFFFFFFFFFFFFFFFFFFFFFFFFFFFFFFFFFFFFFFFFFFF
310
FFFFFFFFFFFFFFFFFFFFFFFFFFFFFFFFFFFFFFFFFFFFFFFFFFFFFFFFFFFFFFFF
310
FFFFFFFFFFFFFFFFFFFFFFFFFFFFFFFFFFFFFFFFFFFFFFFFFFFFFFFFFFFFFFFF
310
FFFFFFFFFFFFFFFFFFFFFFFFFFFFFFFFFFFFFFFFFFFFFFFFFFFFFFFFFFFFFFFF
310
FFFFFFFFFFFFFFFFFFFFFFFFFFFFFFFFFFFFFFFFFFFFFFFFFFFFFFFFFFFFFFFF
310
FFFFFFFFFFFFFFFFFFFFFFFFFFFFFFFFFFFFFFFFFFFFFFFFFFFFFFFFFFFFFFFF
310
FFFFFFFFFFFFFFFFFFFFFFFFFFFFFFFFFFFFFFFFFFFFFFFFFFFFFFFFFFFFFFFF
310
FFFFFFFFFFFFFFFFFFFFFFFFFFFFFFFFFFFFFFFFFFFFFFFFFFFFFFFFFFFFFFFF
310
0100000200000000000000000000000000000000000000000000000000000000
310
00000000000000003800000041000000921F3F0000000000C81F180000000000
310
0100FEFF030A0000FFFFFFFF0A00030000000000C00000000000004607000000
310
5042727573680007000000504272757368000700000050427275736800F439B2
310
7100000000000000000000000000000000000000000000000000C70600000000
310
425D000000000000000000000000000000000000000000003800000041000000
310
921F3F0000000000C61F18000000000000000000000000000000000000000000
310
0000C70600000000435D00000000000000000000000000000000000000000000
310
3800000041000000921F3F0000000000E81F1700000000000000000000000000
310
00000000000000000000C706000000003D5D0000000000000000000000000000
310
00000000000000003800000041000000921F3F0000000000E61F170000000000
310
000000000000000000000000000000000000C706000000003E5D000000000000
310
000000000000000000000000000000003800000041000000921F3F0000000000
310
C21F1A0000000000000000000000000000000000000000000000C70600000000
310
3F5D000000000000000000000000000000000000000000003800000041000000
310
921F3F0000000000CA1F17000000000000000000000000000000000000000000
310
20260000424D0E260000000000003E00000028000000B40200006E0000000100
310
01000000000000000000130B0000130B00000200000002000000000000FFFFFF
310
FFFFFFFFFFFFFFFFFFFFFFFFFFFFFFFFFFFFFFFFFFFFFFFFFFFFFFFFFFFFFFFF
310
FFFFFFFFFFFFFFFFFFFFFFFFFFFFFFFFFFFFFFFFFFFFFFFFFFFFFFFFFFFFFFFF
310
FFFFFFFFFFFFFFFFFFFFFFFFFFFFFFFFFFFFFFFFFFFFFFFFF000FFFFFFFFFFFF
310
FFFFFFFFFFFFFFFFFFFFFFFFFFFFFFFFFFFFFFFFFFFFFFFFFFFFFFFFFFFFFFFF
310
FFFFFFFFFFFFFFFFFFFFFFFFFFFFFFFFFFFFFFFFFFFFFFFFFFFFFFFFFFFFFFFF
310
FFFFFFFFFFFFFFFFFFFFFFFFFFFFFFFFF000FFFFFFFFFFFFFFFFFFFFFFFFFFFF
310
FFFFFFFFFFFFFFFFFFFFFFFFFFFFFFFFFFFFFFFFFFFFFFFFFFFFFFFFFFFFFFFF
310
FFFFFFFFFFFFFFFFFFFFFFFFFFFFFFFFFFFFFFFFFFFFFFFFFFFFFFFFFFFFFFFF
310
FFFFFFFFFFFFFFFFF000FFFFFFFFFFFFFFFFFFFFFFFFFFFFFFFFFFFFFFFFFFFF
310
FFFFFFFFFFFFFFFFFFFFFFFFFFFFFFFFFFFFFFFFFFFFFFFFFFFFFFFFFFFFFFFF
310
FFFFFFFFFFFFFFFFFFFFFFFFFFFFFFFFFFFFFFFFFFFFFFFFFFFFFFFFFFFFFFFF
310
F000FFFFFFFFFFFFFFFFFFFFFFFFFFFFFFFFFFFFFFFFFFFFFFFFFFFFFFFFFFFF
310
FFFFFFFFFFFFFFFFFFFFFFFFFFFFFFFFFFFFFFFFFFFFFFFFFFFFFFFFFFFFFFFF
310
FFFFFFFFFFFFFFFFFFFFFFFFFFFFFFFFFFFFFFFFFFFFFFFFF000FFFFFFFFFFFF
310
FFFFFFFFFFFFFFFFFFFFFFFFFFFFFFFFFFFFFFFFFFFFFFFFFFFFFFFFFFFFFFFF
310
FFFFFFFFFFFFFFFFFFFFFFFFFFFFFFFFFFFFFFFFFFFFFFFFFFFFFFFFFFFFFFFF
310
FFFFFFFFFFFFFFFFFFFFFFFFFFFFFFFFF000FFFFFFFFFFFFFFFFFFFFFFFFFFFF
310
FFFFFFFFFFFFFFFFFFFFFFFFFFFFFFFFFFFFFFFFFFFFFFFFFFFFFFFFFFFFFFFF
310
FFFFFFFFFFFFFFFFFFFFFFFFFFFFFFFFFFFFFFFFFFFFFFFFFFFFFFFFFFFFFFFF
310
FFFFFFFFFFFFFFFFF000FFFFFFFFFFFFFFFFFFFFFFFFFFFFFFFFFFFFFFFFFFFF
310
FFFFFFFFFFFFFFFFFFFFFFFFFFFFFFFFFFFFFFFFFFFFFFFFFFFFFFFFFFFFFFFF
310
FFFFFFFFFFFFFFFFFFFFFFFFFFFFFFFFFFFFFFFFFFFFFFFFFFFFFFFFFFFFFFFF
310
F000FFFFFFFFFFFFFFFFFFFFFFFFFFFFFFFFFFFFFFFFFFFFFFFFFFFFFFFFFFFF
310
FFFFFFFFFFFFFFFFFFFFFFFFFFFFFFFFFFFFFFFFFFFFFFFFFFFFFFFFFFFFFFFF
310
FFFFFFFFFFFFFFFFFFFFFFFFFFFFFFFFFFFFFFFFFFFFFFFFF000FFFFFFFFFFFF
310
FFFFFFFFFFFFFFFFFFFFFFFFFFFFFFFFFFFFFFFFFFFFFFFFFFFFFFFFFFFFFFFF
310
FFFFFFFFFFFFFFFFFFFFFFFFFFFFFFFFFFFFFFFFFFFFFFFFFFFFFFFFFFFFFFFF
310
FFFFFFFFFFFFFFFFFFFFFFFFFFFFFFFFF000FFFFFFFFFFFFFFFFFFFFFFFFFFFF
310
FFFFFFFFFFFFFFFFFFFFFFFFFFFFFFFFFFFFFFFFFFFFFFFFFFFFFFFFFFFFFFFF
310
FFFFFFFFFFFFFFFFFFFFFFFFFFFFFFFFFFFFFFFFFFFFFFFFFFFFFFFFFFFFFFFF
310
FFFFFFFFFFFFFFFFF000FFFFFFFFFFFFFFFFFFFFFFFFFFFFFFFFFFFFFFFFFFFF
310
FFFFFFFFFFFFFFFFFFFFFFFFFFFFFFFFFFFFFFFFFFFFFFFFFFFFFFFFFFFFFFFF
310
FFFFFFFFFFFFFFFFFFFFFFFFFFFFFFFFFFFFFFFFFFFFFFFFFFFFFFFFFFFFFFFF
310
F000FFFFFFFFFFFFFFFFFFFFFFFFFFFFFFFFFFFFFFFFFFFFFFFFFFFFFFFFFFFF
310
FFFFFFFFFFFFFFFFFFFFFFFFFFFFFFFFFFFFFFFFFFFFFFFFFFFFFFFFFFFFFFFF
310
FFFFFFFFFFFFFFFFFFFFFFFFFFFFFFFFFFFFFFFFFFFFFFFFF000FFFFFFFFFFFF
310
FFFFFFFFFFFFFFFFFFFFFFFFFFFFFFFFFFFFFFFFFFFFFFFFFFFFFFFFFFFFFFFF
310
FFFFFFFFFFFFFFFFFFFFFFFFFFFFFFFFFFFFFFFFFFFFFFFFFFFFFFFFFFFFFFFF
310
FFFFFFFFFFFFFFFFFFFFFFFFFFFFFFFFF000FFFFFFFFFFFFFFFFFFFFFFFFFFFF
310
FFFFFFFFFFFFFFFFFFFFFFFFFFFFFFFFFFFFFFFFFFFFFFFFFFFFFFFFFFFFFFFF
310
FFFFFFFFFFFFFFFFFFFFFFFFFFFFFFFFFFFFFFFFFFFFFFFFFFFFFFFFFFFFFFFF
310
FFFFFFFFFFFFFFFFF000FFFFFFFFFFFFFFFFFFFFFFFFFFFFFFFFFFFFFFFFFFFF
310
FFFFFFFFFFFFFFFFFFFFFFFFFFFFFFFFFFFFFFFFFFFFFFFFFFFFFFFFFFFFFFFF
310
FFFFFFFFFFFFFFFFFFFFFFFFFFFFFFFFFFFFFFFFFFFFFFFFFFFFFFFFFFFFFFFF
310
F000FFFFFFFFFFFFFFFFFFFFFFFFFFFFFFFFFFFFFFFFFFFFFFFFFFFFFFFFFFFF
310
FFFFFFFFFFFFFFFFFFFFFFFFFFFFFFFFFFFFFFFFFFFFFFFFFFFFFFFFFFFFFFFF
310
FFFFFFFFFFFFFFFFFFFFFFFFFFFFFFFFFFFFFFFFFFFFFFFFF000FFFFFFFFFFFF
310
FFFFFFFFFFFFFFFFFFFFFFFFFFFFFFFFFFFFFFFFFFFFFFFFFFFFFFFFFFFFFFFF
310
FFFFFFFFFFFFFFFFFFFFFFFFFFFFFFFFFFFFFFFFFFFFFFFFFFFFFFFFFFFFFFFF
310
FFFFFFFFFFFFFFFFFFFFFFFFFFFFFFFFF000FFFFFFFFFFFFFFFFFFFFFFFFFFFF
310
FFFFFFFFFFFFFFFFFFFFFFFFFFFFFFFFFFFFFFFFFFFFFFFFFFFFFFFFFFFFFFFF
310
FFFFFFFFFFFFFFFFFFFFFFFFFFFFFFFFFFFFFFFFFFFFFFFFFFFFFFFFFFFFFFFF
310
FFFFFFFFFFFFFFFFF000FFFFF80003FFFFFFFFFFFFFFFFFFFFFFFFFFFFFFFFFF
310
FFFFF00007FFFFFFFFFF00007FFFFFF800000000000000007FFFFFFFFFFFFFFF
310
FFFFFFFC001FFFFFFFFFFFFFFC001FFFFFFFFFFFFFFFFFFFFFFFFFFE0007FFFF
310
F000FFFF8000007FFFFFFFF8000FFFFFC0007FFFFF80007FFFFF0000007FFFFF
310
FFF8000007FFFFF800000000000000007FFFFFF0001FFFFFFFFFFFC00001FFFF
310
FFFFFFFFC00001FFFFFFFF000000000003FFFFE000007FFFF000FFFE0000000F
310
FFFFFFF0000FFFFF80007FFFFF80007FFFFC0000001FFFFFFFC0000001FFFFF8
310
00000000000000007FFFFFF0001FFFFFFFFFFE0000003FFFFFFFFFFE0000003F
310
FFFFFF000000000003FFFF0000000FFFF000FFF800000003FFFFFFF00007FFFF
310
80007FFFFF80007FFFF000000007FFFFFF000000003FFFF80000000000000000
310
7FFFFFF0001FFFFFFFFFF80000000FFFFFFFFFF80000000FFFFFFF0000000000
310
03FFFC00000003FFF000FFE000000000FFFFFFF00007FFFF80003FFFFF80007F
310
FFC000000001FFFFFC000000001FFFF800000000000000007FFFFFF0001FFFFF
310
FFFFE000000003FFFFFFFFE000000003FFFFFF000000000003FFF000000000FF
310
F000FF80000000007FFFFFF00007FFFF80003FFFFF80007FFF8000000000FFFF
310
F80000000007FFF800000000000000007FFFFFF0001FFFFFFFFFC000000001FF
310
FFFFFFC000000001FFFFFF000000000003FFC0000000007FF000FF0000000000
310
3FFFFFE00007FFFF00003FFFFF80007FFE00000000003FFFF00000000003FFF8
310
00000000000000007FFFFFF0001FFFFFFFFF8000000000FFFFFFFF8000000000
310
FFFFFF000000000003FF80000000003FF000FE00000000001FFFFFE00003FFFF
310
00003FFFFF80007FFC00000000001FFFE00000000001FFF8000001FFFE000000
310
7FFFFFF0001FFFFFFFFE00000000003FFFFFFE00000000003FFFFF0000000000
310
03FF00000000001FF000FC00000000000FFFFFE00003FFFF00001FFFFF80007F
310
F800000000001FFFC00000000000FFF8000001FFFE0000007FFFFFF0001FFFFF
310
FFFC00000000001FFFFFFC00000000001FFFFF000000000003FE00000000000F
310
F000F8000000000007FFFFE00003FFFF00001FFFFF80007FF800000000000FFF
310
800000000000FFF8000001FFFE0000007FFFFFF0001FFFFFFFF800000000000F
310
FFFFF800000000000FFFFF000000000003FC000000000007F000F80000000000
310
03FFFFC00003FFFE00001FFFFF80007FF0000000000007FF0000000000007FF8
310
000001FFFE0000007FFFFFF0001FFFFFFFF0000000000007FFFFF00000000000
310
07FFFF000000000003F8000000000003F000F0000000000003FFFFC00001FFFE
310
00001FFFFF80007FE0000000000007FE0000000000003FF8000001FFFE000000
310
7FFFFFF0001FFFFFFFF0000000000007FFFFF0000000000007FFFF0000000000
310
03F800001F800003F000E00001FFF00001FFFFC00001FFFE00000FFFFF80007F
310
E00001FFE00003FE00001FFF00003FF8000001FFFE0000007FFFFFF0001FFFFF
310
FFE000003E000003FFFFE000003E000003FFFF000000000003F00001FFF80001
310
F000E00007FFFC0001FFFFC00001FFFE00000FFFFF80007FC0000FFFFC0003FC
310
0000FFFFC0001FF8000001FFFE0000007FFFFFF0001FFFFFFFC00003FFE00001
310
FFFFC00003FFE00001FFFF0001FFFFFFFFF00007FFFE0001F000E0000FFFFF00
310
00FFFF800001FFFC00000FFFFF80007FC0001FFFFE0001FC0001FFFFE0001FF8
310
000001FFFE0000007FFFFFF0001FFFFFFF80000FFFF80000FFFF80000FFFF800
310
00FFFF0003FFFFFFFFE0000FFFFF8000F000C0003FFFFF8000FFFF800000FFFC
310
000007FFFF80007F80003FFFFF0001FC0003FFFFF0001FF8000001FFFE000000
310
7FFFFFF0001FFFFFFF80003FFFFE0000FFFF80003FFFFE0000FFFF0003FFFFFF
310
FFE0003FFFFF8000F000C0003FFFFF8000FFFF800000FFFC000007FFFF80007F
310
80007FFFFF8001F80007FFFFF8000FF8000001FFFE0000007FFFFFF0001FFFFF
310
FF00007FFFFF00007FFF00007FFFFF00007FFF0003FFFFFFFFE0003FFFFFC000
310
F000C0007FFFFFC000FFFF000000FFFC000007FFFF80007F8000FFFFFF8000F8
310
000FFFFFF8000FF8000001FFFE0000007FFFFFF0001FFFFFFF0000FFFFFF8000
310
7FFF0000FFFFFF80007FFF0003FFFFFFFFC0007FFFFFC00070008000FFFFFFC0
310
00FFFF000000FFF8000007FFFF80007F8000FFFFFF8000F8000FFFFFF8000FF8
310
000001FFFE0000007FFFFFF0001FFFFFFE0001FFFFFFC0003FFE0001FFFFFFC0
310
003FFF0003FFFFFFFFC0007FFFFFE00070008000FFFFFFC0007FFF0000007FF8
310
000003FFFF80007F0001FFFFFF8000F8000FFFFFF8000FF8000001FFFE000000
310
7FFFFFF0001FFFFFFE0001FFFFFFC0003FFE0001FFFFFFC0003FFF0003FFFFFF
310
FFC000FFFFFFE00070008000FFFFFFC0007FFF0000007FF8000003FFFF80007F
310
0001FFFFFF8000F8001FFFFFF8000FF8000001FFFE0000007FFFFFF0001FFFFF
310
FE0003FFFFFFE0003FFE0003FFFFFFE0003FFF0003FFFFFFFFC000FFFFFFE000
310
70008000FFFFFFC0007FFE0000007FF8000003FFFF80007F0001FFFFFF8000F0
310
001FFFFFF8000FF8000001FFFE0000007FFFFFF0001FFFFFFC0003FFFFFFE000
310
1FFC0003FFFFFFE0001FFF0003FFFFFFFFC000FFFFFFC00070008000FFFFFF80
310
007FFE0000007FF0000003FFFF80007F0001FFFFFF0000F0001FFFFFF8000FF8
310
000001FFFE0000007FFFFFF0001FFFFFFC0007FFFFFFF0001FFC0007FFFFFFF0
310
001FFF0003FFFFFFFFC000FFFFFFC00070008001FFFFFF0000FFFE0000003FF0
310
000001FFFF80007F0001FFFFFF0000F8001FFFFFF0000FF8000001FFFE000000
310
7FFFFFF0001FFFFFFC0007FFFFFFF0001FFC0007FFFFFFF0001FFF0003FFFFFF
310
FFC001FFFFFF80007000FFFFFFFFFE0000FFFE0008003FF0008001FFFF80007F
310
FFFFFFFFFC0000FFFFFFFFFFE0000FF8000001FFFE0000007FFFFFF0001FFFFF
310
F8000FFFFFFFF8000FF8000FFFFFFFF8000FFF0003FFFFFFFFFFFFFFFFFF0000
310
7000FFFFFFFFFC0000FFFC0008003FF0008001FFFF80007FFFFFFFFFF80001FF
310
FFFFFFFF80000FF8000001FFFE0000007FFFFFF0001FFFFFF8000FFFFFFFF800
310
0FF8000FFFFFFFF8000FFF0003FFFFFFFFFFFFFFFFFE0000F000FFFFFFFFE000
310
00FFFC000C003FE000C001FFFF80007FFFFFFFFFC00001FFFFFFFFFE00001FF8
310
000001FFFE0000007FFFFFF0001FFFFFF8000FFFFFFFF8000FF8000FFFFFFFF8
310
000FFF0003FFFFFFFFFFFFFFFFF00000F000FFFFFFFE000001FFFC000C001FE0
310
00C000FFFF80007FFFFFFFFE000001FFFFFFFFE000001FF80FFFFFFFFFFFFFC0
310
7FFFFFF0001FFFFFF8000FFFFFFFF8000FF8000FFFFFFFF8000FFF0003FFFFFF
310
FFFFFFFFFF800000F000FFFFFFC0000001FFFC001C001FE001C000FFFF80007F
310
FFFFFF80000003FFFFFFF80000001FF80FFFFFFFFFFFFFC07FFFFFF0001FFFFF
310
F8001FFFFFFFFC000FF8001FFFFFFFFC000FFF0003FFFFFFFFFFFFFFF0000001
310
F000FFFFF800000001FFF8001C001FE001C000FFFF80007FFFFFF800000003FF
310
FFFF800000003FF80FFFFFFFFFFFFFC07FFFFFF0001FFFFFF8001FFFFFFFFC00
310
0FF8001FFFFFFFFC000FFF0003FFFFFFFFFFFFFE00000001F000FFFFC0000000
310
03FFF8001E001FC001E000FFFF80007FFFFF8000000007FFFFFC000000003FF8
310
0FFFFFFFFFFFFFC07FFFFFF0001FFFFFF8001FFFFFFFFC000FF8001FFFFFFFFC
310
000FFF0003FFFFFFFFFFFFE000000003F000FFFE0000000007FFF8001E000FC0
310
01E0007FFF80007FFFFE0000000007FFFFE0000000007FF80FFFFFFFFFFFFFC0
310
7FFFFFF0001FFFFFF0001FFFFFFFFC0007F0001FFFFFFFFC0007FF0003FFFFFF
310
FFFFFF0000000003F000FFF80000000007FFF8001E000FC003E0007FFF80007F
310
FFF0000000000FFFFF8000000000FFF80FFFFFFFFFFFFFC07FFFFFF0001FFFFF
310
F0001FFFFFFFFC0007F0001FFFFFFFFC0007FF0003FFFFFFFFFFFC0000000007
310
F000FFE0000000000FFFF0003E000FC003E0007FFF80007FFFC0000000001FFF
310
FE0000000001FFF80FFFFFFFFFFFFFC07FFFFFF0001FFFFFF0001FFFFFFFFC00
310
07F0001FFFFFFFFC0007FF0003FFFFFFFFFFF0000000000FF000FFC000000000
310
1FFFF0003F000F8003F0003FFF80007FFF80000000003FFFF80000000003FFF8
310
0FFFFFFFFFFFFFC07FFFFFF0001FFFFFF0001FFFFFFFFC0007F0001FFFFFFFFC
310
0007FF0003FFFFFFFFFFE0000000001FF000FF00000000007FFFF0003F000780
310
03F0003FFF80007FFF00000000007FFFF00000000007FFF80FFFFFFFFFFFFFC0
310
7FFFFFF0001FFFFFF0001FFFFFFFFC0007F0001FFFFFFFFC0007FF0003FFFFFF
310
FFFF80000000007FF000FE0000000000FFFFE0003F00078007F0003FFF80007F
310
FE0000000001FFFFE0000000001FFFF80FFFFFFFFFFFFFC07FFFFFF0001FFFFF
310
F0001FFFFFFFFC0007F0001FFFFFFFFC0007FF0003FFFFFFFFFF0000000000FF
310
F000FC0000000003FFFFE0007F00078007F0003FFF80007FFC0000000007FFFF
310
C0000000007FFFF80FFFFFFFFFFFFFC07FFFFFF0001FFFFFF8001FFFFFFFFC00
310
0FF8001FFFFFFFFC000FFF0003FFFFFFFFFE0000000003FFF000FC000000000F
310
FFFFE0007F80070007F8001FFF80007FF8000000001FFFFF8000000001FFFFF8
310
0FFFFFFFFFFFFFC07FFFFFF0001FFFFFF8001FFFFFFFFC000FF8001FFFFFFFFC
310
000FFF0003FFFFFFFFFC000000000FFFF000F8000000007FFFFFE0007F800700
310
07F8001FFF80007FF000000000FFFFFF800000000FFFFFF80FFFFFFFFFFFFFC0
310
7FFFFFF0001FFFFFF8000FFFFFFFF8000FF8000FFFFFFFF8000FFF0003FFFFFF
310
FFFC000000007FFFF000F800000007FFFFFFC0007F8003000FF8001FFF80007F
310
F000000007FFFFFF000000007FFFFFF80FFFFFFFFFFFFFC07FFFFFF0001FFFFF
310
F8000FFFFFFFF8000FF8000FFFFFFFF8000FFF0003FFFFFFFFF80000000FFFFF
310
F000F0000000FFFFFFFFC000FF8003000FF8001FFF80007FE0000000FFFFFFFF
310
0000000FFFFFFFF8000001FFFE0000007FFFFFF0001FFFFFF8000FFFFFFFF800
310
0FF8000FFFFFFFF8000FFF0003FFFFFFFFF8000000FFFFFFF000F000000FFFFF
310
FFFFC000FFC002000FF8000FFF80007FE000001FFFFFFFFE000001FFFFFFFFF8
310
000001FFFE0000007FFFFFF0001FFFFFF8000FFFFFFFF8000FF8000FFFFFFFF8
310
000FFF0003FFFFFFFFF000001FFFFFFFF000E00000FFFFFFFFFFC000FFC00200
310
0FFC000FFF80007FE00001FFFFFFFFFE00001FFFFFFFFFF8000001FFFE000000
310
7FFFFFF0001FFFFFFC000FFFFFFFF8001FFC000FFFFFFFF8001FFF0003FFFFFF
310
FFF00001FFFFFFFFF000E00007FFFFFFFFFF8000FFC000001FFC000FFF80007F
310
C0000FFFFFFFFFFE0000FFFFFFFFFFF8000001FFFE0000007FFFFFF0001FFFFF
310
FC0007FFFFFFF0001FFC0007FFFFFFF0001FFF0003FFFFFFFFF00007FFFFFFFF
310
F000E0001FFFFFFFFFFF8000FFC000001FFC000FFF80007FC0003FFFFFFFFFFE
310
0001FFFFFFFFFFF8000001FFFE0000007FFFFFF0001FFFFFFC0007FFFFFFF000
310
1FFC0007FFFFFFF0001FFF0003FFFFFFFFF0001FFFFFFFFFF000E0003FFFFF00
310
03FF8001FFE000001FFC0007FF80007FC0007FFFFF0007FC0003FFFFF0003FF8
310
000001FFFE0000007FFFFFF0001FFFFFFC0003FFFFFFE0001FFC0003FFFFFFE0
310
001FFF0003FFFFFFFFF0003FFFFFFFFFF000E0003FFFFF0001FF8001FFE00000
310
1FFE0007FF80007FC0007FFFFE0003FC0007FFFFE0003FF8000001FFFE000000
310
7FFFFFF0001FFFFFFE0003FFFFFFE0003FFE0003FFFFFFE0003FFF0003FFFFFF
310
FFF0003FFFFF8001F000E0003FFFFF0001FF0001FFE000001FFE0007FF80007F
310
C0007FFFFE0003FC0007FFFFE0003FF8000001FFFE0000007FFFFFF0001FFFFF
310
FE0001FFFFFFC0003FFE0001FFFFFFC0003FFF0003FFFFFFFFF0003FFFFF0001
310
F000E0003FFFFF0003FF0001FFE000003FFE0007FF80007FC0007FFFFE0003FC
310
0007FFFFE0003FF8000001FFFE0000007FFFFFF0001FFFFFFF0001FFFFFFC000
310
7FFF0001FFFFFFC0007FFF0003FFFFFFFFF0003FFFFF0001F000E0003FFFFE00
310
03FF0003FFF000003FFE0003FF80007FC0007FFFFC0003FE0007FFFFE0003FF8
310
000001FFFE0000007FFFFFF0001FFFFFFF0000FFFFFF80007FFF0000FFFFFF80
310
007FFF0003FFFFFFFFF0003FFFFF0001F000E0003FFFFE0003FF0003FFF00000
310
3FFF0003FF80007FC0007FFFFC0007FE0007FFFFC0003FF8000001FFFE000000
310
7FFFFFF0001FFFFFFF80007FFFFF0000FFFF80007FFFFF0000FFFF0003FFFFFF
310
FFF0003FFFFF0003F000E0003FFFFC0003FE0003FFF000003FFF0003FF80007F
310
E0003FFFF80007FE0003FFFFC0007FF8000001FFFE0000007FFFFFF0001FFFFF
310
FF80003FFFFE0000FFFF80003FFFFE0000FFFF0003FFFFFFFFF0001FFFFE0003
310
F000F0001FFFF80003FE0003FFF000007FFF0001FF80007FE0003FFFF00007FE
310
0001FFFF80007FF8000001FFFE0000007FFFFFF0001FFFFFFFC0000FFFF80001
310
FFFFC0000FFFF80001FFFF0003FFFFFFFFF0001FFFFC0003F000F0000FFFF000
310
07FE0007FFF800007FFF0001FF80007FE0001FFFE00007FF0000FFFE00007FF8
310
000001FFFE0000007FFFFFF0001FFFFFFFC00003FFE00001FFFFC00003FFE000
310
01FFFF0003FFFFFFFFF8000FFFF80003F000F00003FFC00007FC0007FFF80000
310
7FFF8001FF80007FF00007FF80000FFF00007FF80000FFF8000001FFFE000000
310
7F80000000000001FFE000003E000003FFFFE000003E000003FFFF0003FFFFFF
310
FFF80003FFE00007F000F800000000000FFC0007FFF800007FFF8001FF80007F
310
F000000000000FFF000000000000FFF8000001FFFE0000007F80000000000001
310
FFF0000000000007FFFFF0000000000007FFFF0003FFFFFFFFFC00007E000007
310
F000F800000000000FFC0007FFF80000FFFF8000FF80007FF800000000001FFF
310
800000000001FFF8000001FFFE0000007F80000000000001FFF800000000000F
310
FFFFF800000000000FFFFF0003FFFFFFFFFC00000000000FF000FC0000000000
310
1FFC0007FFFC0000FFFF8000FF80007FF800000000003FFFC00000000001FFF8
310
000001FFFE0000007F80000000000001FFF800000000000FFFFFF80000000000
310
0FFFFF0003FFFFFFFFFE00000000001FF000FE00000000003FF8000FFFFC0000
310
FFFF8000FF80007FFC00000000003FFFC00000000003FFF8000001FFFE000000
310
7F80000000000001FFFC00000000001FFFFFFC00000000001FFFFF0003FFFFFF
310
FFFF00000000001FF000FF00000000003FF8000FFFFC0000FFFFC000FF80007F
310
FE00000000007FFFE00000000007FFF8000001FFFE0000007F80000000000001
310
FFFE00000000003FFFFFFE00000000003FFFFF0003FFFFFFFFFF80000000003F
310
F000FF80000000007FF8000FFFFC0001FFFFC0007F80007FFF0000000000FFFF
310
F0000000000FFFF800000000000000007F80000000000001FFFF8000000000FF
310
FFFFFF8000000000FFFFFF0003FFFFFFFFFFC0000000007FF000FFC000000000
310
FFF8000FFFFE0001FFFFC0007F80007FFF8000000001FFFFF8000000001FFFF8
310
00000000000000007F80000000000001FFFFC000000001FFFFFFFFC000000001
310
FFFFFF0003FFFFFFFFFFE000000000FFF000FFE000000003FFF0001FFFFE0001
310
FFFFC0007F80007FFFC000000007FFFFFE000000003FFFF80000000000000000
310
7F80000000000001FFFFE000000003FFFFFFFFE000000003FFFFFF0003FFFFFF
310
FFFFF000000003FFF000FFF80000000FFFF0001FFFFE0001FFFFE0007F80007F
310
FFF00000000FFFFFFF00000000FFFFF800000000000000007F80000000000001
310
FFFFF80000000FFFFFFFFFF80000000FFFFFFF0003FFFFFFFFFFFC0000000FFF
310
F000FFFE0000003FFFF0001FFFFE0003FFFFE0003F80007FFFFC0000003FFFFF
310
FFC0000003FFFFF800000000000000007F80000000000001FFFFFE0000003FFF
310
FFFFFFFE0000003FFFFFFF0003FFFFFFFFFFFF0000003FFFF000FFFF800000FF
310
FFF0001FFFFF0003FFFFE0003F80007FFFFF000001FFFFFFFFF800001FFFFFF8
310
00000000000000007F80000000000001FFFFFFC00001FFFFFFFFFFFFC00001FF
310
FFFFFF0003FFFFFFFFFFFFC00000FFFFF000FFFFF8000FFFFFFFFFFFFFFFFFFF
310
FFFFFFFFFFFFFFFFFFFFF0001FFFFFFFFFFF0000FFFFFFF80000000000000000
310
7FFFFFFFFFFFFFFFFFFFFFFC001FFFFFFFFFFFFFFC001FFFFFFFFFFFFFFFFFFF
310
FFFFFFFC001FFFFFF000FFFFFFFFFFFFFFFFFFFFFFFFFFFFFFFFFFFFFFFFFFFF
310
FFFFFFFFFFFFFFFFFFFFFFFFFFFFFFFFFFFFFFFFFFFFFFFFFFFFFFFFFFFFFFFF
310
FFFFFFFFFFFFFFFFFFFFFFFFFFFFFFFFFFFFFFFFFFFFFFFFFFFFFFFFFFFFFFFF
310
F000FFFFFFFFFFFFFFFFFFFFFFFFFFFFFFFFFFFFFFFFFFFFFFFFFFFFFFFFFFFF
310
FFFFFFFFFFFFFFFFFFFFFFFFFFFFFFFFFFFFFFFFFFFFFFFFFFFFFFFFFFFFFFFF
310
FFFFFFFFFFFFFFFFFFFFFFFFFFFFFFFFFFFFFFFFFFFFFFFFF000FFFFFFFFFFFF
310
FFFFFFFFFFFFFFFFFFFFFFFFFFFFFFFFFFFFFFFFFFFFFFFFFFFFFFFFFFFFFFFF
310
FFFFFFFFFFFFFFFFFFFFFFFFFFFFFFFFFFFFFFFFFFFFFFFFFFFFFFFFFFFFFFFF
310
FFFFFFFFFFFFFFFFFFFFFFFFFFFFFFFFF000FFFFFFFFFFFFFFFFFFFFFFFFFFFF
310
FFFFFFFFFFFFFFFFFFFFFFFFFFFFFFFFFFFFFFFFFFFFFFFFFFFFFFFFFFFFFFFF
310
FFFFFFFFFFFFFFFFFFFFFFFFFFFFFFFFFFFFFFFFFFFFFFFFFFFFFFFFFFFFFFFF
310
FFFFFFFFFFFFFFFFF000FFFFFFFFFFFFFFFFFFFFFFFFFFFFFFFFFFFFFFFFFFFF
310
FFFFFFFFFFFFFFFFFFFFFFFFFFFFFFFFFFFFFFFFFFFFFFFFFFFFFFFFFFFFFFFF
310
FFFFFFFFFFFFFFFFFFFFFFFFFFFFFFFFFFFFFFFFFFFFFFFFFFFFFFFFFFFFFFFF
310
F000FFFFFFFFFFFFFFFFFFFFFFFFFFFFFFFFFFFFFFFFFFFFFFFFFFFFFFFFFFFF
310
FFFFFFFFFFFFFFFFFFFFFFFFFFFFFFFFFFFFFFFFFFFFFFFFFFFFFFFFFFFFFFFF
310
FFFFFFFFFFFFFFFFFFFFFFFFFFFFFFFFFFFFFFFFFFFFFFFFF000FFFFFFFFFFFF
310
FFFFFFFFFFFFFFFFFFFFFFFFFFFFFFFFFFFFFFFFFFFFFFFFFFFFFFFFFFFFFFFF
310
FFFFFFFFFFFFFFFFFFFFFFFFFFFFFFFFFFFFFFFFFFFFFFFFFFFFFFFFFFFFFFFF
310
FFFFFFFFFFFFFFFFFFFFFFFFFFFFFFFFF000FFFFFFFFFFFFFFFFFFFFFFFFFFFF
310
FFFFFFFFFFFFFFFFFFFFFFFFFFFFFFFFFFFFFFFFFFFFFFFFFFFFFFFFFFFFFFFF
310
FFFFFFFFFFFFFFFFFFFFFFFFFFFFFFFFFFFFFFFFFFFFFFFFFFFFFFFFFFFFFFFF
310
FFFFFFFFFFFFFFFFF000FFFFFFFFFFFFFFFFFFFFFFFFFFFFFFFFFFFFFFFFFFFF
310
FFFFFFFFFFFFFFFFFFFFFFFFFFFFFFFFFFFFFFFFFFFFFFFFFFFFFFFFFFFFFFFF
310
FFFFFFFFFFFFFFFFFFFFFFFFFFFFFFFFFFFFFFFFFFFFFFFFFFFFFFFFFFFFFFFF
310
F000FFFFFFFFFFFFFFFFFFFFFFFFFFFFFFFFFFFFFFFFFFFFFFFFFFFFFFFFFFFF
310
FFFFFFFFFFFFFFFFFFFFFFFFFFFFFFFFFFFFFFFFFFFFFFFFFFFFFFFFFFFFFFFF
310
FFFFFFFFFFFFFFFFFFFFFFFFFFFFFFFFFFFFFFFFFFFFFFFFF000FFFFFFFFFFFF
310
FFFFFFFFFFFFFFFFFFFFFFFFFFFFFFFFFFFFFFFFFFFFFFFFFFFFFFFFFFFFFFFF
310
FFFFFFFFFFFFFFFFFFFFFFFFFFFFFFFFFFFFFFFFFFFFFFFFFFFFFFFFFFFFFFFF
310
FFFFFFFFFFFFFFFFFFFFFFFFFFFFFFFFF000FFFFFFFFFFFFFFFFFFFFFFFFFFFF
310
FFFFFFFFFFFFFFFFFFFFFFFFFFFFFFFFFFFFFFFFFFFFFFFFFFFFFFFFFFFFFFFF
310
FFFFFFFFFFFFFFFFFFFFFFFFFFFFFFFFFFFFFFFFFFFFFFFFFFFFFFFFFFFFFFFF
310
FFFFFFFFFFFFFFFFF000FFFFFFFFFFFFFFFFFFFFFFFFFFFFFFFFFFFFFFFFFFFF
310
FFFFFFFFFFFFFFFFFFFFFFFFFFFFFFFFFFFFFFFFFFFFFFFFFFFFFFFFFFFFFFFF
310
FFFFFFFFFFFFFFFFFFFFFFFFFFFFFFFFFFFFFFFFFFFFFFFFFFFFFFFFFFFFFFFF
310
F000FFFFFFFFFFFFFFFFFFFFFFFFFFFFFFFFFFFFFFFFFFFFFFFFFFFFFFFFFFFF
310
FFFFFFFFFFFFFFFFFFFFFFFFFFFFFFFFFFFFFFFFFFFFFFFFFFFFFFFFFFFFFFFF
310
FFFFFFFFFFFFFFFFFFFFFFFFFFFFFFFFFFFFFFFFFFFFFFFFF000FFFFFFFFFFFF
310
FFFFFFFFFFFFFFFFFFFFFFFFFFFFFFFFFFFFFFFFFFFFFFFFFFFFFFFFFFFFFFFF
310
FFFFFFFFFFFFFFFFFFFFFFFFFFFFFFFFFFFFFFFFFFFFFFFFFFFFFFFFFFFFFFFF
310
FFFFFFFFFFFFFFFFFFFFFFFFFFFFFFFFF000FFFFFFFFFFFFFFFFFFFFFFFFFFFF
310
FFFFFFFFFFFFFFFFFFFFFFFFFFFFFFFFFFFFFFFFFFFFFFFFFFFFFFFFFFFFFFFF
310
FFFFFFFFFFFFFFFFFFFFFFFFFFFFFFFFFFFFFFFFFFFFFFFFFFFFFFFFFFFFFFFF
310
FFFFFFFFFFFFFFFFF000FFFFFFFFFFFFFFFFFFFFFFFFFFFFFFFFFFFFFFFFFFFF
310
FFFFFFFFFFFFFFFFFFFFFFFFFFFFFFFFFFFFFFFFFFFFFFFFFFFFFFFFFFFFFFFF
310
FFFFFFFFFFFFFFFFFFFFFFFFFFFFFFFFFFFFFFFFFFFFFFFFFFFFFFFFFFFFFFFF
310
F000FFFFFFFFFFFFFFFFFFFFFFFFFFFFFFFFFFFFFFFFFFFFFFFFFFFFFFFFFFFF
310
FFFFFFFFFFFFFFFFFFFFFFFFFFFFFFFFFFFFFFFFFFFFFFFFFFFFFFFFFFFFFFFF
310
FFFFFFFFFFFFFFFFFFFFFFFFFFFFFFFFFFFFFFFFFFFFFFFFF000FFFFFFFFFFFF
310
FFFFFFFFFFFFFFFFFFFFFFFFFFFFFFFFFFFFFFFFFFFFFFFFFFFFFFFFFFFFFFFF
310
FFFFFFFFFFFFFFFFFFFFFFFFFFFFFFFFFFFFFFFFFFFFFFFFFFFFFFFFFFFFFFFF
310
FFFFFFFFFFFFFFFFFFFFFFFFFFFFFFFFF000FFFFFFFFFFFFFFFFFFFFFFFFFFFF
310
FFFFFFFFFFFFFFFFFFFFFFFFFFFFFFFFFFFFFFFFFFFFFFFFFFFFFFFFFFFFFFFF
310
FFFFFFFFFFFFFFFFFFFFFFFFFFFFFFFFFFFFFFFFFFFFFFFFFFFFFFFFFFFFFFFF
310
FFFFFFFFFFFFFFFFF000FFFFFFFFFFFFFFFFFFFFFFFFFFFFFFFFFFFFFFFFFFFF
310
FFFFFFFFFFFFFFFFFFFFFFFFFFFFFFFFFFFFFFFFFFFFFFFFFFFFFFFFFFFFFFFF
310
FFFFFFFFFFFFFFFFFFFFFFFFFFFFFFFFFFFFFFFFFFFFFFFFFFFFFFFFFFFFFFFF
310
F000FFFFFFFFFFFFFFFFFFFFFFFFFFFFFFFFFFFFFFFFFFFFFFFFFFFFFFFFFFFF
310
FFFFFFFFFFFFFFFFFFFFFFFFFFFFFFFFFFFFFFFFFFFFFFFFFFFFFFFFFFFFFFFF
310
FFFFFFFFFFFFFFFFFFFFFFFFFFFFFFFFFFFFFFFFFFFFFFFFF000FFFFFFFFFFFF
310
FFFFFFFFFFFFFFFFFFFFFFFFFFFFFFFFFFFFFFFFFFFFFFFFFFFFFFFFFFFFFFFF
310
FFFFFFFFFFFFFFFFFFFFFFFFFFFFFFFFFFFFFFFFFFFFFFFFFFFFFFFFFFFFFFFF
310
FFFFFFFFFFFFFFFFFFFFFFFFFFFFFFFFF0000000000000000000000000000000
310
00000000000000000000000042006C00610063006B0000000000000000000000
310
0000000000000000000000000000000000000000000000000000000000000000
310
0000000000000000000000000000FFFFFFFFFFFFFFFFFFFFFFFFFFFFFFFFFFFF
310
FFFFFFFFFFFFFFFFFFFFFFFFFFFFFFFFFFFFFFFFFFFFFFFFFFFFFFFFFFFFFFFF
310
FFFFFFFFFFFFFFFFFFFFFFFF6476000800000000FFFFFFFF20FF202026000000
310
1E00000008000000060000000000000011000000200000008403000000000000
310
6000000060000000200002FB200020000000002B00FFFFFF40002200E8030000
310
A80400001C020000AF0000804A20004000000000000000000100000000000000
310
616C000800000000E40100007001000002000000270000001100000000000000
310
00000000BC0200000000000003020122420065006C006C00200047006F007400
310
680069006300200053007400640020004C006900670068007400000000000000
310
00000000000000000000000000000000420065006C006C0047006F0074006800
310
690063005300740064002D0042006F006C006400000000000000000000000000
310
0000000000000000000000000000000000000000000000000000000000000000
310
0000000000000000000000000000000000000000000000000000000000000000
  1
OLE
  0
ENDSEC
  0
SECTION
  2
OBJECTS
  0
DICTIONARY
  5
C
330
0
100
AcDbDictionary
281
     1
  3
ACAD_GROUP
350
D
  3
ACAD_LAYOUT
350
1A
  3
ACAD_MLEADERSTYLE
350
20C
  3
ACAD_MLINESTYLE
350
17
  3
ACAD_PLOTSETTINGS
350
19
  3
ACAD_PLOTSTYLENAME
350
E
  3
ACAD_TABLESTYLE
350
20B
  3
ACAD_VISUALSTYLE
350
2A
  3
AcDbVariableDictionary
350
20D
  0
DICTIONARY
  5
D
102
{ACAD_REACTORS
330
C
102
}
330
C
100
AcDbDictionary
281
     1
  0
DICTIONARY
  5
1A
102
{ACAD_REACTORS
330
C
102
}
330
C
100
AcDbDictionary
281
     1
  3
Layout1
350
1E
  3
Layout2
350
26
  3
Model
350
22
  0
DICTIONARY
  5
20C
102
{ACAD_REACTORS
330
C
102
}
330
C
100
AcDbDictionary
281
     1
  0
DICTIONARY
  5
17
102
{ACAD_REACTORS
330
C
102
}
330
C
100
AcDbDictionary
281
     1
  3
Standard
350
18
  0
DICTIONARY
  5
19
102
{ACAD_REACTORS
330
C
102
}
330
C
100
AcDbDictionary
281
     1
  0
ACDBDICTIONARYWDFLT
  5
E
102
{ACAD_REACTORS
330
C
102
}
330
C
100
AcDbDictionary
281
     1
  3
Normal
350
F
100
AcDbDictionaryWithDefault
340
F
  0
DICTIONARY
  5
20B
102
{ACAD_REACTORS
330
C
102
}
330
C
100
AcDbDictionary
281
     1
  0
DICTIONARY
  5
2A
102
{ACAD_REACTORS
330
C
102
}
330
C
100
AcDbDictionary
281
     1
  3
2dWireframe
350
2F
  3
3D Hidden
350
31
  3
3dWireframe
350
30
  3
Basic
350
32
  3
Brighten
350
36
  3
ColorChange
350
3A
  3
Conceptual
350
34
  3
Dim
350
35
  3
Facepattern
350
39
  3
Flat
350
2B
  3
FlatWithEdges
350
2C
  3
Gouraud
350
2D
  3
GouraudWithEdges
350
2E
  3
Linepattern
350
38
  3
Realistic
350
33
  3
Thicken
350
37
  0
DICTIONARY
  5
20D
102
{ACAD_REACTORS
330
C
102
}
330
C
100
AcDbDictionary
281
     1
  3
PSOLHEIGHT
350
20F
  3
PSOLWIDTH
350
20E
  0
LAYOUT
  5
1E
102
{ACAD_REACTORS
330
1A
102
}
330
1A
100
AcDbPlotSettings
  1

  2
none_device
  4

  6

 40
0.0
 41
0.0
 42
0.0
 43
0.0
 44
0.0
 45
0.0
 46
0.0
 47
0.0
 48
0.0
 49
0.0
140
0.0
141
0.0
142
1.0
143
1.0
 70
   688
 72
     0
 73
     0
 74
     5
  7

 75
    16
147
1.0
148
0.0
149
0.0
100
AcDbLayout
  1
Layout1
 70
     1
 71
     1
 10
0.0
 20
0.0
 11
420.0
 21
297.0
 12
0.0
 22
0.0
 32
0.0
 14
1.0000000000E+20
 24
1.0000000000E+20
 34
1.0000000000E+20
 15
-1.0000000000E+20
 25
-1.0000000000E+20
 35
-1.0000000000E+20
146
0.0
 13
0.0
 23
0.0
 33
0.0
 16
1.0
 26
0.0
 36
0.0
 17
0.0
 27
1.0
 37
0.0
 76
     0
330
1B
  0
LAYOUT
  5
26
102
{ACAD_REACTORS
330
1A
102
}
330
1A
100
AcDbPlotSettings
  1

  2
none_device
  4

  6

 40
0.0
 41
0.0
 42
0.0
 43
0.0
 44
0.0
 45
0.0
 46
0.0
 47
0.0
 48
0.0
 49
0.0
140
0.0
141
0.0
142
1.0
143
1.0
 70
   688
 72
     0
 73
     0
 74
     5
  7

 75
    16
147
1.0
148
0.0
149
0.0
100
AcDbLayout
  1
Layout2
 70
     1
 71
     2
 10
0.0
 20
0.0
 11
0.0
 21
0.0
 12
0.0
 22
0.0
 32
0.0
 14
0.0
 24
0.0
 34
0.0
 15
0.0
 25
0.0
 35
0.0
146
0.0
 13
0.0
 23
0.0
 33
0.0
 16
1.0
 26
0.0
 36
0.0
 17
0.0
 27
1.0
 37
0.0
 76
     0
330
23
  0
LAYOUT
  5
22
102
{ACAD_REACTORS
330
1A
102
}
330
1A
100
AcDbPlotSettings
  1

  2
none_device
  4

  6

 40
0.0
 41
0.0
 42
0.0
 43
0.0
 44
0.0
 45
0.0
 46
0.0
 47
0.0
 48
0.0
 49
0.0
140
0.0
141
0.0
142
1.0
143
1.0
 70
  1712
 72
     0
 73
     0
 74
     0
  7

 75
     0
147
1.0
148
0.0
149
0.0
100
AcDbLayout
  1
Model
 70
     1
 71
     0
 10
0.0
 20
0.0
 11
297.0
 21
210.0
 12
0.0
 22
0.0
 32
0.0
 14
0.0
 24
0.0
 34
0.0
 15
297.0
 25
210.0
 35
0.0
146
0.0
 13
0.0
 23
0.0
 33
0.0
 16
1.0
 26
0.0
 36
0.0
 17
0.0
 27
1.0
 37
0.0
 76
     0
330
1F
331
29
  0
MLINESTYLE
  5
18
102
{ACAD_REACTORS
330
17
102
}
330
17
100
AcDbMlineStyle
  2
Standard
 70
     0
  3

 62
   256
 51
90.0
 52
90.0
 71
     2
 49
0.5
 62
   256
  6
BYLAYER
 49
-0.5
 62
   256
  6
BYLAYER
  0
ACDBPLACEHOLDER
  5
F
102
{ACAD_REACTORS
330
E
102
}
330
E
  0
VISUALSTYLE
  5
2F
102
{ACAD_REACTORS
330
2A
102
}
330
2A
100
AcDbVisualStyle
  2
2dWireframe
 70
     4
 71
     0
 72
     2
 73
     0
 90
        0
 40
-0.6
 41
-30.0
 62
     5
 63
     7
 74
     1
 91
        4
 64
     7
 65
   257
 75
     1
175
     1
 42
1.0
 92
        0
 66
   257
 43
1.0
 76
     1
 77
     6
 78
     2
 67
     7
 79
     5
170
     0
171
     0
290
     0
174
     0
 93
        1
 44
0.0
173
     0
291
     0
 45
0.0
1001
ACAD
1000
AcDbSavedByObjectVersion
1070
     0
  0
VISUALSTYLE
  5
31
102
{ACAD_REACTORS
330
2A
102
}
330
2A
100
AcDbVisualStyle
  2
3D Hidden
 70
     6
 71
     1
 72
     2
 73
     2
 90
        0
 40
-0.6
 41
-30.0
 62
     5
 63
     7
 74
     2
 91
        2
 64
     7
 65
   257
 75
     2
175
     1
 42
40.0
 92
        0
 66
   257
 43
1.0
 76
     1
 77
     6
 78
     2
 67
     7
 79
     3
170
     0
171
     0
290
     0
174
     0
 93
        1
 44
0.0
173
     0
291
     0
 45
0.0
1001
ACAD
1000
AcDbSavedByObjectVersion
1070
     0
  0
VISUALSTYLE
  5
30
102
{ACAD_REACTORS
330
2A
102
}
330
2A
100
AcDbVisualStyle
  2
3dWireframe
 70
     5
 71
     0
 72
     2
 73
     0
 90
        0
 40
-0.6
 41
-30.0
 62
     5
 63
     7
 74
     1
 91
        4
 64
     7
 65
   257
 75
     1
175
     1
 42
1.0
 92
        0
 66
   257
 43
1.0
 76
     1
 77
     6
 78
     2
 67
     7
 79
     5
170
     0
171
     0
290
     0
174
     0
 93
        1
 44
0.0
173
     0
291
     0
 45
0.0
1001
ACAD
1000
AcDbSavedByObjectVersion
1070
     0
  0
VISUALSTYLE
  5
32
102
{ACAD_REACTORS
330
2A
102
}
330
2A
100
AcDbVisualStyle
  2
Basic
 70
     7
 71
     1
 72
     0
 73
     1
 90
        0
 40
-0.6
 41
-30.0
 62
     5
 63
     7
 74
     0
 91
        4
 64
     7
 65
   257
 75
     1
175
     1
 42
1.0
 92
        8
 66
     7
 43
1.0
 76
     1
 77
     6
 78
     2
 67
     7
 79
     5
170
     0
171
     0
290
     0
174
     0
 93
        1
 44
0.0
173
     0
291
     1
 45
0.0
1001
ACAD
1000
AcDbSavedByObjectVersion
1070
     0
  0
VISUALSTYLE
  5
36
102
{ACAD_REACTORS
330
2A
102
}
330
2A
100
AcDbVisualStyle
  2
Brighten
 70
    12
 71
     2
 72
     2
 73
     0
 90
        0
 40
-0.6
 41
-30.0
 62
     5
 63
     7
 74
     1
 91
        4
 64
     7
 65
   257
 75
     1
175
     1
 42
1.0
 92
        8
 66
     7
 43
1.0
 76
     1
 77
     6
 78
     2
 67
     7
 79
     5
170
     0
171
     0
290
     0
174
     0
 93
        1
 44
50.0
173
     0
291
     1
 45
0.0
1001
ACAD
1000
AcDbSavedByObjectVersion
1070
     0
  0
VISUALSTYLE
  5
3A
102
{ACAD_REACTORS
330
2A
102
}
330
2A
100
AcDbVisualStyle
  2
ColorChange
 70
    16
 71
     2
 72
     2
 73
     3
 90
        0
 40
-0.6
 41
-30.0
 62
     5
 63
     8
 74
     1
 91
        4
 64
     7
 65
   257
 75
     1
175
     1
 42
1.0
 92
        8
 66
     8
 43
1.0
 76
     1
 77
     6
 78
     2
 67
     7
 79
     5
170
     0
171
     0
290
     0
174
     0
 93
        1
 44
0.0
173
     0
291
     1
 45
0.0
1001
ACAD
1000
AcDbSavedByObjectVersion
1070
     0
  0
VISUALSTYLE
  5
34
102
{ACAD_REACTORS
330
2A
102
}
330
2A
100
AcDbVisualStyle
  2
Conceptual
 70
     9
 71
     3
 72
     2
 73
     0
 90
        0
 40
-0.6
 41
-30.0
 62
     5
 63
     7
 74
     2
 91
        2
 64
     7
 65
   257
 75
     1
175
     1
 42
40.0
 92
        8
 66
     7
 43
1.0
 76
     1
 77
     6
 78
     2
 67
     7
 79
     3
170
     0
171
     0
290
     0
174
     0
 93
        1
 44
0.0
173
     0
291
     0
 45
0.0
1001
ACAD
1000
AcDbSavedByObjectVersion
1070
     0
  0
VISUALSTYLE
  5
35
102
{ACAD_REACTORS
330
2A
102
}
330
2A
100
AcDbVisualStyle
  2
Dim
 70
    11
 71
     2
 72
     2
 73
     0
 90
        0
 40
-0.6
 41
-30.0
 62
     5
 63
     7
 74
     1
 91
        4
 64
     7
 65
   257
 75
     1
175
     1
 42
1.0
 92
        8
 66
     7
 43
1.0
 76
     1
 77
     6
 78
     2
 67
     7
 79
     5
170
     0
171
     0
290
     0
174
     0
 93
        1
 44
-50.0
173
     0
291
     1
 45
0.0
1001
ACAD
1000
AcDbSavedByObjectVersion
1070
     0
  0
VISUALSTYLE
  5
39
102
{ACAD_REACTORS
330
2A
102
}
330
2A
100
AcDbVisualStyle
  2
Facepattern
 70
    15
 71
     2
 72
     2
 73
     0
 90
        0
 40
-0.6
 41
-30.0
 62
     5
 63
     7
 74
     1
 91
        4
 64
     7
 65
   257
 75
     1
175
     1
 42
1.0
 92
        8
 66
     7
 43
1.0
 76
     1
 77
     6
 78
     2
 67
     7
 79
     5
170
     0
171
     0
290
     0
174
     0
 93
        1
 44
0.0
173
     0
291
     1
 45
0.0
1001
ACAD
1000
AcDbSavedByObjectVersion
1070
     0
  0
VISUALSTYLE
  5
2B
102
{ACAD_REACTORS
330
2A
102
}
330
2A
100
AcDbVisualStyle
  2
Flat
 70
     0
 71
     2
 72
     1
 73
     1
 90
        2
 40
-0.6
 41
30.0
 62
     5
 63
     7
 74
     0
 91
        4
 64
     7
 65
   257
 75
     1
175
     1
 42
1.0
 92
        8
 66
     7
 43
1.0
 76
     1
 77
     6
 78
     2
 67
     7
 79
     5
170
     0
171
     0
290
     0
174
     0
 93
       13
 44
0.0
173
     0
291
     1
 45
0.0
1001
ACAD
1000
AcDbSavedByObjectVersion
1070
     0
  0
VISUALSTYLE
  5
2C
102
{ACAD_REACTORS
330
2A
102
}
330
2A
100
AcDbVisualStyle
  2
FlatWithEdges
 70
     1
 71
     2
 72
     1
 73
     1
 90
        2
 40
-0.6
 41
30.0
 62
     5
 63
     7
 74
     1
 91
        4
 64
     7
 65
   257
 75
     1
175
     1
 42
1.0
 92
        0
 66
   257
 43
1.0
 76
     1
 77
     6
 78
     2
 67
     7
 79
     5
170
     0
171
     0
290
     0
174
     0
 93
       13
 44
0.0
173
     0
291
     1
 45
0.0
1001
ACAD
1000
AcDbSavedByObjectVersion
1070
     0
  0
VISUALSTYLE
  5
2D
102
{ACAD_REACTORS
330
2A
102
}
330
2A
100
AcDbVisualStyle
  2
Gouraud
 70
     2
 71
     2
 72
     2
 73
     1
 90
        2
 40
-0.6
 41
30.0
 62
     5
 63
     7
 74
     0
 91
        4
 64
     7
 65
   257
 75
     1
175
     1
 42
1.0
 92
        0
 66
     7
 43
1.0
 76
     1
 77
     6
 78
     2
 67
     7
 79
     5
170
     0
171
     0
290
     0
174
     0
 93
       13
 44
0.0
173
     0
291
     1
 45
0.0
1001
ACAD
1000
AcDbSavedByObjectVersion
1070
     0
  0
VISUALSTYLE
  5
2E
102
{ACAD_REACTORS
330
2A
102
}
330
2A
100
AcDbVisualStyle
  2
GouraudWithEdges
 70
     3
 71
     2
 72
     2
 73
     1
 90
        2
 40
-0.6
 41
30.0
 62
     5
 63
     7
 74
     1
 91
        4
 64
     7
 65
   257
 75
     1
175
     1
 42
1.0
 92
        0
 66
   257
 43
1.0
 76
     1
 77
     6
 78
     2
 67
     7
 79
     5
170
     0
171
     0
290
     0
174
     0
 93
       13
 44
0.0
173
     0
291
     1
 45
0.0
1001
ACAD
1000
AcDbSavedByObjectVersion
1070
     0
  0
VISUALSTYLE
  5
38
102
{ACAD_REACTORS
330
2A
102
}
330
2A
100
AcDbVisualStyle
  2
Linepattern
 70
    14
 71
     2
 72
     2
 73
     0
 90
        0
 40
-0.6
 41
-30.0
 62
     5
 63
     7
 74
     1
 91
        4
 64
     7
 65
   257
 75
     7
175
     7
 42
1.0
 92
        8
 66
     7
 43
1.0
 76
     1
 77
     6
 78
     2
 67
     7
 79
     5
170
     0
171
     0
290
     0
174
     0
 93
        1
 44
0.0
173
     0
291
     1
 45
0.0
1001
ACAD
1000
AcDbSavedByObjectVersion
1070
     0
  0
VISUALSTYLE
  5
33
102
{ACAD_REACTORS
330
2A
102
}
330
2A
100
AcDbVisualStyle
  2
Realistic
 70
     8
 71
     2
 72
     2
 73
     0
 90
        0
 40
-0.6
 41
-30.0
 62
     5
 63
     7
 74
     1
 91
        0
 64
     7
 65
   257
 75
     1
175
     1
 42
1.0
 92
        8
 66
     8
 43
1.0
 76
     1
 77
     6
 78
     2
 67
     7
 79
     5
170
     0
171
     0
290
     0
174
     0
 93
       13
 44
0.0
173
     0
291
     0
 45
0.0
1001
ACAD
1000
AcDbSavedByObjectVersion
1070
     0
  0
VISUALSTYLE
  5
37
102
{ACAD_REACTORS
330
2A
102
}
330
2A
100
AcDbVisualStyle
  2
Thicken
 70
    13
 71
     2
 72
     2
 73
     0
 90
        0
 40
-0.6
 41
-30.0
 62
     5
 63
     7
 74
     1
 91
        4
 64
     7
 65
   257
 75
     1
175
     1
 42
1.0
 92
       12
 66
     7
 43
1.0
 76
     1
 77
     6
 78
     2
 67
     7
 79
     5
170
     0
171
     0
290
     0
174
     0
 93
        1
 44
0.0
173
     0
291
     1
 45
0.0
1001
ACAD
1000
AcDbSavedByObjectVersion
1070
     0
  0
DICTIONARYVAR
  5
20F
102
{ACAD_REACTORS
330
20D
102
}
330
20D
100
DictionaryVariables
280
     0
  1
80.000000
  0
DICTIONARYVAR
  5
20E
102
{ACAD_REACTORS
330
20D
102
}
330
20D
100
DictionaryVariables
280
     0
  1
5.000000
  0
ENDSEC
  0
EOF
