  0
SECTION
  2
HEADER
  9
$ACADVER
  1
AC1015
  9
$ACADMAINTVER
 70
     6
  9
$DWGCODEPAGE
  3
ANSI_1252
  9
$INSBASE
 10
0.0
 20
0.0
 30
0.0
  9
$EXTMIN
 10
0.0
 20
0.0
 30
0.0
  9
$EXTMAX
 10
297.0
 20
210.0
 30
0.0
  9
$LIMMIN
 10
0.0
 20
0.0
  9
$LIMMAX
 10
297.0
 20
210.0
  9
$ORTHOMODE
 70
     0
  9
$REGENMODE
 70
     1
  9
$FILLMODE
 70
     1
  9
$QTEXTMODE
 70
     0
  9
$MIRRTEXT
 70
     1
  9
$LTSCALE
 40
1.0
  9
$ATTMODE
 70
     1
  9
$TEXTSIZE
 40
2.0
  9
$TRACEWID
 40
1.0
  9
$TEXTSTYLE
  7
Standard
  9
$CLAYER
  8
0
  9
$CELTYPE
  6
ByLayer
  9
$CECOLOR
 62
   256
  9
$CELTSCALE
 40
1.0
  9
$DISPSILH
 70
     0
  9
$DIMSCALE
 40
1.0
  9
$DIMASZ
 40
3.0
  9
$DIMEXO
 40
0.0
  9
$DIMDLI
 40
3.75
  9
$DIMRND
 40
0.0
  9
$DIMDLE
 40
0.0
  9
$DIMEXE
 40
1.0
  9
$DIMTP
 40
0.0
  9
$DIMTM
 40
0.0
  9
$DIMTXT
 40
2.0
  9
$DIMCEN
 40
2.5
  9
$DIMTSZ
 40
0.0
  9
$DIMTOL
 70
     0
  9
$DIMLIM
 70
     0
  9
$DIMTIH
 70
     1
  9
$DIMTOH
 70
     1
  9
$DIMSE1
 70
     0
  9
$DIMSE2
 70
     0
  9
$DIMTAD
 70
     1
  9
$DIMZIN
 70
     0
  9
$DIMBLK
  1

  9
$DIMASO
 70
     1
  9
$DIMSHO
 70
     1
  9
$DIMPOST
  1

  9
$DIMAPOST
  1

  9
$DIMALT
 70
     0
  9
$DIMALTD
 70
     3
  9
$DIMALTF
 40
0.0393700787
  9
$DIMLFAC
 40
1.0
  9
$DIMTOFL
 70
     1
  9
$DIMTVP
 40
0.0
  9
$DIMTIX
 70
     0
  9
$DIMSOXD
 70
     0
  9
$DIMSAH
 70
     0
  9
$DIMBLK1
  1

  9
$DIMBLK2
  1

  9
$DIMSTYLE
  2
ISO-25
  9
$DIMCLRD
 70
     0
  9
$DIMCLRE
 70
     0
  9
$DIMCLRT
 70
     0
  9
$DIMTFAC
 40
1.0
  9
$DIMGAP
 40
1.524
  9
$DIMJUST
 70
     0
  9
$DIMSD1
 70
     0
  9
$DIMSD2
 70
     0
  9
$DIMTOLJ
 70
     0
  9
$DIMTZIN
 70
     0
  9
$DIMALTZ
 70
     0
  9
$DIMALTTZ
 70
     0
  9
$DIMUPT
 70
     0
  9
$DIMDEC
 70
     2
  9
$DIMTDEC
 70
     3
  9
$DIMALTU
 70
     2
  9
$DIMALTTD
 70
     3
  9
$DIMTXSTY
  7
Standard
  9
$DIMAUNIT
 70
     0
  9
$DIMADEC
 70
     2
  9
$DIMALTRND
 40
0.0
  9
$DIMAZIN
 70
     0
  9
$DIMDSEP
 70
    44
  9
$DIMATFIT
 70
     3
  9
$DIMFRAC
 70
     0
  9
$DIMLDRBLK
  1

  9
$DIMLUNIT
 70
     2
  9
$DIMLWD
 70
    -2
  9
$DIMLWE
 70
    -2
  9
$DIMTMOVE
 70
     0
  9
$LUNITS
 70
     2
  9
$LUPREC
 70
     2
  9
$SKETCHINC
 40
1.0
  9
$FILLETRAD
 40
10.0
  9
$AUNITS
 70
     0
  9
$AUPREC
 70
     2
  9
$MENU
  1
.
  9
$ELEVATION
 40
0.0
  9
$PELEVATION
 40
0.0
  9
$THICKNESS
 40
0.0
  9
$LIMCHECK
 70
     0
  9
$CHAMFERA
 40
10.0
  9
$CHAMFERB
 40
10.0
  9
$CHAMFERC
 40
20.0
  9
$CHAMFERD
 40
0.0
  9
$SKPOLY
 70
     0
  9
$TDCREATE
 40
2455630.462827118
  9
$TDUCREATE
 40
2455630.421160452
  9
$TDUPDATE
 40
2455630.46282713
  9
$TDUUPDATE
 40
2455630.421160463
  9
$TDINDWG
 40
0.0000000116
  9
$TDUSRTIMER
 40
0.0000000116
  9
$USRTIMER
 70
     1
  9
$ANGBASE
 50
0.0
  9
$ANGDIR
 70
     0
  9
$PDMODE
 70
     0
  9
$PDSIZE
 40
-1.0
  9
$PLINEWID
 40
0.0
  9
$SPLFRAME
 70
     0
  9
$SPLINETYPE
 70
     6
  9
$SPLINESEGS
 70
     8
  9
$HANDSEED
  5
197
  9
$SURFTAB1
 70
     6
  9
$SURFTAB2
 70
     6
  9
$SURFTYPE
 70
     6
  9
$SURFU
 70
     6
  9
$SURFV
 70
     6
  9
$UCSBASE
  2

  9
$UCSNAME
  2

  9
$UCSORG
 10
0.0
 20
0.0
 30
0.0
  9
$UCSXDIR
 10
1.0
 20
0.0
 30
0.0
  9
$UCSYDIR
 10
0.0
 20
1.0
 30
0.0
  9
$UCSORTHOREF
  2

  9
$UCSORTHOVIEW
 70
     0
  9
$UCSORGTOP
 10
0.0
 20
0.0
 30
0.0
  9
$UCSORGBOTTOM
 10
0.0
 20
0.0
 30
0.0
  9
$UCSORGLEFT
 10
0.0
 20
0.0
 30
0.0
  9
$UCSORGRIGHT
 10
0.0
 20
0.0
 30
0.0
  9
$UCSORGFRONT
 10
0.0
 20
0.0
 30
0.0
  9
$UCSORGBACK
 10
0.0
 20
0.0
 30
0.0
  9
$PUCSBASE
  2

  9
$PUCSNAME
  2

  9
$PUCSORG
 10
0.0
 20
0.0
 30
0.0
  9
$PUCSXDIR
 10
1.0
 20
0.0
 30
0.0
  9
$PUCSYDIR
 10
0.0
 20
1.0
 30
0.0
  9
$PUCSORTHOREF
  2

  9
$PUCSORTHOVIEW
 70
     0
  9
$PUCSORGTOP
 10
0.0
 20
0.0
 30
0.0
  9
$PUCSORGBOTTOM
 10
0.0
 20
0.0
 30
0.0
  9
$PUCSORGLEFT
 10
0.0
 20
0.0
 30
0.0
  9
$PUCSORGRIGHT
 10
0.0
 20
0.0
 30
0.0
  9
$PUCSORGFRONT
 10
0.0
 20
0.0
 30
0.0
  9
$PUCSORGBACK
 10
0.0
 20
0.0
 30
0.0
  9
$USERI1
 70
     0
  9
$USERI2
 70
     0
  9
$USERI3
 70
     0
  9
$USERI4
 70
     0
  9
$USERI5
 70
     0
  9
$USERR1
 40
0.0
  9
$USERR2
 40
0.0
  9
$USERR3
 40
0.0
  9
$USERR4
 40
0.0
  9
$USERR5
 40
0.0
  9
$WORLDVIEW
 70
     1
  9
$SHADEDGE
 70
     3
  9
$SHADEDIF
 70
    70
  9
$TILEMODE
 70
     1
  9
$MAXACTVP
 70
    64
  9
$PINSBASE
 10
0.0
 20
0.0
 30
0.0
  9
$PLIMCHECK
 70
     0
  9
$PEXTMIN
 10
1.0000000000E+20
 20
1.0000000000E+20
 30
1.0000000000E+20
  9
$PEXTMAX
 10
-1.0000000000E+20
 20
-1.0000000000E+20
 30
-1.0000000000E+20
  9
$PLIMMIN
 10
0.0
 20
0.0
  9
$PLIMMAX
 10
420.0
 20
297.0
  9
$UNITMODE
 70
     0
  9
$VISRETAIN
 70
     1
  9
$PLINEGEN
 70
     0
  9
$PSLTSCALE
 70
     1
  9
$TREEDEPTH
 70
  3020
  9
$CMLSTYLE
  2
Standard
  9
$CMLJUST
 70
     0
  9
$CMLSCALE
 40
20.0
  9
$PROXYGRAPHICS
 70
     1
  9
$MEASUREMENT
 70
     1
  9
$CELWEIGHT
370
    -1
  9
$ENDCAPS
280
     0
  9
$JOINSTYLE
280
     0
  9
$LWDISPLAY
290
     1
  9
$INSUNITS
 70
     4
  9
$HYPERLINKBASE
  1

  9
$STYLESHEET
  1

  9
$XEDIT
290
     1
  9
$CEPSNTYPE
380
     0
  9
$PSTYLEMODE
290
     1
  9
$FINGERPRINTGUID
  2
{ED981022-8853-41A0-9C3A-FD131FBCDCFC}
  9
$VERSIONGUID
  2
{FAEB1C32-E019-11D5-929B-00C0DF256EC4}
  9
$EXTNAMES
290
     1
  9
$PSVPSCALE
 40
0.0
  9
$OLESTARTUP
290
     0
  0
ENDSEC
  0
SECTION
  2
CLASSES
  0
CLASS
  1
ACDBDICTIONARYWDFLT
  2
AcDbDictionaryWithDefault
  3
ObjectDBX Classes
 90
        0
280
     0
281
     0
  0
CLASS
  1
VISUALSTYLE
  2
AcDbVisualStyle
  3
ObjectDBX Classes
 90
     4095
280
     0
281
     0
  0
CLASS
  1
DICTIONARYVAR
  2
AcDbDictionaryVar
  3
ObjectDBX Classes
 90
        0
280
     0
281
     0
  0
CLASS
  1
ACDBPLACEHOLDER
  2
AcDbPlaceHolder
  3
ObjectDBX Classes
 90
        0
280
     0
281
     0
  0
CLASS
  1
LAYOUT
  2
AcDbLayout
  3
ObjectDBX Classes
 90
        0
280
     0
281
     0
  0
ENDSEC
  0
SECTION
  2
TABLES
  0
TABLE
  2
VPORT
  5
8
330
0
100
AcDbSymbolTable
 70
     1
  0
VPORT
  5
29
330
8
100
AcDbSymbolTableRecord
100
AcDbViewportTableRecord
  2
*Active
 70
     0
 10
0.0
 20
0.0
 11
1.0
 21
1.0
 12
148.5
 22
105.0
 13
0.0
 23
0.0
 14
10.0
 24
10.0
 15
10.0
 25
10.0
 16
0.0
 26
0.0
 36
1.0
 17
0.0
 27
0.0
 37
0.0
 40
210.0
 41
1.4142857143
 42
50.0
 43
0.0
 44
0.0
 50
0.0
 51
0.0
 71
     0
 72
  2000
 73
     1
 74
     3
 75
     0
 76
     0
 77
     0
 78
     0
281
     0
 65
     1
110
0.0
120
0.0
130
0.0
111
1.0
121
0.0
131
0.0
112
0.0
122
1.0
132
0.0
 79
     0
146
0.0
  0
ENDTAB
  0
TABLE
  2
LTYPE
  5
5
330
0
100
AcDbSymbolTable
 70
     6
  0
LTYPE
  5
14
330
5
100
AcDbSymbolTableRecord
100
AcDbLinetypeTableRecord
  2
ByBlock
 70
     0
  3

 72
    65
 73
     0
 40
0.0
  0
LTYPE
  5
15
330
5
100
AcDbSymbolTableRecord
100
AcDbLinetypeTableRecord
  2
ByLayer
 70
     0
  3

 72
    65
 73
     0
 40
0.0
  0
LTYPE
  5
16
330
5
100
AcDbSymbolTableRecord
100
AcDbLinetypeTableRecord
  2
Continuous
 70
     0
  3
Solid line
 72
    65
 73
     0
 40
0.0
  0
LTYPE
  5
3B
330
5
100
AcDbSymbolTableRecord
100
AcDbLinetypeTableRecord
  2
HIDDEN
 70
     0
  3
Hidden __ __ __ __ __ __ __ __ __ __ __ __ __ __
 72
    65
 73
     2
 40
1.905
 49
1.27
 74
     0
 49
-0.635
 74
     0
  0
LTYPE
  5
3C
330
5
100
AcDbSymbolTableRecord
100
AcDbLinetypeTableRecord
  2
PHANTOM
 70
     0
  3
Phantom ______  __  __  ______  __  __  ______
 72
    65
 73
     6
 40
12.7
 49
6.35
 74
     0
 49
-1.27
 74
     0
 49
1.27
 74
     0
 49
-1.27
 74
     0
 49
1.27
 74
     0
 49
-1.27
 74
     0
  0
LTYPE
  5
3D
330
5
100
AcDbSymbolTableRecord
100
AcDbLinetypeTableRecord
  2
CENTER
 70
     0
  3
Center ____ _ ____ _ ____ _ ____ _ ____ _ ____
 72
    65
 73
     4
 40
10.16
 49
6.35
 74
     0
 49
-1.27
 74
     0
 49
1.27
 74
     0
 49
-1.27
 74
     0
  0
LTYPE
  5
3E
330
5
100
AcDbSymbolTableRecord
100
AcDbLinetypeTableRecord
  2
CENTERX2
 70
     0
  3
Center (2x) ________  __  ________  __  _____
 72
    65
 73
     4
 40
20.32
 49
12.7
 74
     0
 49
-2.54
 74
     0
 49
2.54
 74
     0
 49
-2.54
 74
     0
  0
LTYPE
  5
3F
330
5
100
AcDbSymbolTableRecord
100
AcDbLinetypeTableRecord
  2
DOT2
 70
     0
  3
Dot (.5x) ........................................
 72
    65
 73
     2
 40
0.635
 49
0.0
 74
     0
 49
-0.635
 74
     0
  0
ENDTAB
  0
TABLE
  2
LAYER
  5
2
330
0
100
AcDbSymbolTable
 70
     5
  0
LAYER
  5
10
330
2
100
AcDbSymbolTableRecord
100
AcDbLayerTableRecord
  2
0
 70
     0
 62
     7
  6
Continuous
370
    -3
390
F
  0
LAYER
  5
40
330
2
100
AcDbSymbolTableRecord
100
AcDbLayerTableRecord
  2
FORMAT
 70
     0
 62
     7
  6
Continuous
370
    -3
390
F
  0
LAYER
  5
41
330
2
100
AcDbSymbolTableRecord
100
AcDbLayerTableRecord
  2
VERMASSUNG
 70
     0
 62
     7
  6
Continuous
370
    -3
390
F
  0
LAYER
  5
42
330
2
100
AcDbSymbolTableRecord
100
AcDbLayerTableRecord
  2
KOPF_DÜNN
 70
     0
 62
     7
  6
Continuous
370
    -3
390
F
  0
LAYER
  5
43
330
2
100
AcDbSymbolTableRecord
100
AcDbLayerTableRecord
  2
KOPF_DICK
 70
     0
 62
     7
  6
Continuous
370
    15
390
F
  0
ENDTAB
  0
TABLE
  2
STYLE
  5
3
330
0
100
AcDbSymbolTable
 70
     3
  0
STYLE
  5
11
330
3
100
AcDbSymbolTableRecord
100
AcDbTextStyleTableRecord
  2
Standard
 70
     0
 40
0.0
 41
1.0
 50
0.0
 71
     0
 42
2.5
  3
txt
  4

  0
STYLE
  5
44
330
3
100
AcDbSymbolTableRecord
100
AcDbTextStyleTableRecord
  2
SLDTEXTSTYLE0
 70
     0
 40
0.0
 41
0.7
 50
0.0
 71
     0
 42
0.2
  3
TXT
  4

  0
STYLE
  5
48
330
3
100
AcDbSymbolTableRecord
100
AcDbTextStyleTableRecord
  2
SLDTEXTSTYLE1
 70
     0
 40
0.0
 41
0.6473684211
 50
0.0
 71
     0
 42
0.2
  3
TXT
  4

  0
ENDTAB
  0
TABLE
  2
VIEW
  5
6
330
0
100
AcDbSymbolTable
 70
     0
  0
ENDTAB
  0
TABLE
  2
UCS
  5
7
330
0
100
AcDbSymbolTable
 70
     0
  0
ENDTAB
  0
TABLE
  2
APPID
  5
9
330
0
100
AcDbSymbolTable
 70
     1
  0
APPID
  5
12
330
9
100
AcDbSymbolTableRecord
100
AcDbRegAppTableRecord
  2
ACAD
 70
     0
  0
ENDTAB
  0
TABLE
  2
DIMSTYLE
  5
A
330
0
100
AcDbSymbolTable
 70
     5
100
AcDbDimStyleTable
  0
DIMSTYLE
105
27
330
A
100
AcDbSymbolTableRecord
100
AcDbDimStyleTableRecord
  2
ISO-25
 70
     0
 41
2.5
 42
0.625
 43
3.75
 44
1.25
 73
     0
 74
     0
 77
     1
 78
     8
140
2.5
141
2.5
143
0.0393700787
147
0.625
171
     3
172
     1
271
     2
272
     2
274
     3
278
    44
283
     0
284
     8
340
11
  0
DIMSTYLE
105
13A
102
{ACAD_REACTORS
330
139
102
}
330
A
100
AcDbSymbolTableRecord
100
AcDbDimStyleTableRecord
  2
SLDDIMSTYLE0
 70
     0
 41
3.0
 44
0.0
 45
0.000000001
 73
     0
 74
     0
 77
     1
 78
    12
140
2.0
147
0.5
173
     1
271
     2
272
     3
284
    12
340
44
  0
DIMSTYLE
105
146
102
{ACAD_REACTORS
330
145
102
}
330
A
100
AcDbSymbolTableRecord
100
AcDbDimStyleTableRecord
  2
SLDDIMSTYLE1
 70
     0
 41
3.0
 44
0.0
 45
0.000000001
 73
     0
 74
     0
 77
     1
 78
    12
140
2.0
147
0.5
173
     1
271
     2
272
     2
284
    12
340
44
  0
DIMSTYLE
105
151
102
{ACAD_REACTORS
330
150
330
15B
330
165
330
17D
102
}
330
A
100
AcDbSymbolTableRecord
100
AcDbDimStyleTableRecord
  2
SLDDIMSTYLE2
 70
     0
 41
3.0
 44
0.0
 45
0.000000001
 73
     0
 74
     0
 77
     1
 78
    12
140
2.0
147
0.5
173
     1
271
     2
272
     3
284
    12
340
44
  0
DIMSTYLE
105
170
102
{ACAD_REACTORS
330
16F
102
}
330
A
100
AcDbSymbolTableRecord
100
AcDbDimStyleTableRecord
  2
SLDDIMSTYLE3
 70
     0
 41
3.0
 44
0.0
 45
0.000000001
 73
     0
 74
     0
 77
     1
 78
    12
140
2.0
147
0.5
173
     1
271
     2
272
     3
284
    12
340
44
  0
ENDTAB
  0
TABLE
  2
BLOCK_RECORD
  5
1
330
0
100
AcDbSymbolTable
 70
     8
  0
BLOCK_RECORD
  5
1F
330
1
100
AcDbSymbolTableRecord
100
AcDbBlockTableRecord
  2
*Model_Space
340
22
  0
BLOCK_RECORD
  5
1B
330
1
100
AcDbSymbolTableRecord
100
AcDbBlockTableRecord
  2
*Paper_Space
340
1E
  0
BLOCK_RECORD
  5
23
330
1
100
AcDbSymbolTableRecord
100
AcDbBlockTableRecord
  2
*Paper_Space0
340
26
  0
BLOCK_RECORD
  5
13B
330
1
100
AcDbSymbolTableRecord
100
AcDbBlockTableRecord
  2
*D1
340
0
  0
BLOCK_RECORD
  5
147
330
1
100
AcDbSymbolTableRecord
100
AcDbBlockTableRecord
  2
*D2
340
0
  0
BLOCK_RECORD
  5
152
330
1
100
AcDbSymbolTableRecord
100
AcDbBlockTableRecord
  2
*D3
340
0
  0
BLOCK_RECORD
  5
15C
330
1
100
AcDbSymbolTableRecord
100
AcDbBlockTableRecord
  2
*D4
340
0
  0
BLOCK_RECORD
  5
166
330
1
100
AcDbSymbolTableRecord
100
AcDbBlockTableRecord
  2
*D5
340
0
  0
BLOCK_RECORD
  5
171
330
1
100
AcDbSymbolTableRecord
100
AcDbBlockTableRecord
  2
*D6
340
0
  0
BLOCK_RECORD
  5
17E
330
1
100
AcDbSymbolTableRecord
100
AcDbBlockTableRecord
  2
*D7
340
0
  0
ENDTAB
  0
ENDSEC
  0
SECTION
  2
BLOCKS
  0
BLOCK
  5
20
330
1F
100
AcDbEntity
  8
0
100
AcDbBlockBegin
  2
*Model_Space
 70
     0
 10
0.0
 20
0.0
 30
0.0
  3
*Model_Space
  1

  0
ENDBLK
  5
21
330
1F
100
AcDbEntity
  8
0
100
AcDbBlockEnd
  0
BLOCK
  5
1C
330
1B
100
AcDbEntity
 67
     1
  8
0
100
AcDbBlockBegin
  2
*Paper_Space
 70
     0
 10
0.0
 20
0.0
 30
0.0
  3
*Paper_Space
  1

  0
ENDBLK
  5
1D
330
1B
100
AcDbEntity
 67
     1
  8
0
100
AcDbBlockEnd
  0
BLOCK
  5
24
330
23
100
AcDbEntity
  8
0
100
AcDbBlockBegin
  2
*Paper_Space0
 70
     0
 10
0.0
 20
0.0
 30
0.0
  3
*Paper_Space0
  1

  0
ENDBLK
  5
25
330
23
100
AcDbEntity
  8
0
100
AcDbBlockEnd
  0
BLOCK
  5
13C
330
13B
100
AcDbEntity
  8
0
100
AcDbBlockBegin
  2
*D1
 70
     1
 10
0.0
 20
0.0
 30
0.0
  3
*D1
  1

  0
SOLID
  5
13E
330
13B
100
AcDbEntity
  8
VERMASSUNG
100
AcDbTrace
 10
226.2737303506
 20
104.7184274194
 30
0.0
 11
226.7237303506
 21
107.7184274194
 31
0.0
 12
225.8237303506
 22
107.7184274194
 32
0.0
 13
225.8237303506
 23
107.7184274194
 33
0.0
  0
SOLID
  5
13F
330
13B
100
AcDbEntity
  8
VERMASSUNG
100
AcDbTrace
 10
226.2737303506
 20
118.7184274194
 30
0.0
 11
225.8237303506
 21
115.7184274194
 31
0.0
 12
226.7237303506
 22
115.7184274194
 32
0.0
 13
226.7237303506
 23
115.7184274194
 33
0.0
  0
LINE
  5
140
330
13B
100
AcDbEntity
  8
VERMASSUNG
100
AcDbLine
 10
213.1955309534
 20
104.7184274194
 30
0.0
 11
227.2737303506
 21
104.7184274194
 31
0.0
  0
LINE
  5
141
330
13B
100
AcDbEntity
  8
VERMASSUNG
100
AcDbLine
 10
213.1955309534
 20
118.7184274194
 30
0.0
 11
227.2737303506
 21
118.7184274194
 31
0.0
  0
LINE
  5
142
330
13B
100
AcDbEntity
  8
VERMASSUNG
100
AcDbLine
 10
226.2737303506
 20
104.7184274194
 30
0.0
 11
226.2737303506
 21
118.7184274194
 31
0.0
  0
MTEXT
  5
143
330
13B
100
AcDbEntity
  8
VERMASSUNG
100
AcDbMText
 10
223.695594871
 20
108.6145139516
 30
0.0
 40
2.0
 41
0.0
 71
     1
 72
     1
  1
%%c
  7
SLDTEXTSTYLE0
 11
3.391901413832837E-15
 21
1.0
 31
0.0
 73
     1
 44
1.0
  0
MTEXT
  5
144
330
13B
100
AcDbEntity
  8
VERMASSUNG
100
AcDbMText
 10
223.6955949875
 20
112.2229202419
 30
0.0
 40
2.0
 41
0.0
 71
     1
 72
     1
  1
14
  7
SLDTEXTSTYLE0
 11
3.391901413832837E-15
 21
1.0
 31
0.0
 73
     1
 44
1.0
  0
ENDBLK
  5
13D
330
13B
100
AcDbEntity
  8
0
100
AcDbBlockEnd
  0
BLOCK
  5
148
330
147
100
AcDbEntity
  8
0
100
AcDbBlockBegin
  2
*D2
 70
     1
 10
0.0
 20
0.0
 30
0.0
  3
*D2
  1

  0
SOLID
  5
14A
330
147
100
AcDbEntity
  8
VERMASSUNG
100
AcDbTrace
 10
176.6955309534
 20
144.6997983871
 30
0.0
 11
179.6955309534
 21
144.2497983871
 31
0.0
 12
179.6955309534
 22
145.1497983871
 32
0.0
 13
179.6955309534
 23
145.1497983871
 33
0.0
  0
SOLID
  5
14B
330
147
100
AcDbEntity
  8
VERMASSUNG
100
AcDbTrace
 10
213.1955309534
 20
144.6997983871
 30
0.0
 11
210.1955309534
 21
145.1497983871
 31
0.0
 12
210.1955309534
 22
144.2497983871
 32
0.0
 13
210.1955309534
 23
144.2497983871
 33
0.0
  0
LINE
  5
14C
330
147
100
AcDbEntity
  8
VERMASSUNG
100
AcDbLine
 10
176.6955309534
 20
111.7184274194
 30
0.0
 11
176.6955309534
 21
145.6997983871
 31
0.0
  0
LINE
  5
14D
330
147
100
AcDbEntity
  8
VERMASSUNG
100
AcDbLine
 10
213.1955309534
 20
111.7184274194
 30
0.0
 11
213.1955309534
 21
145.6997983871
 31
0.0
  0
LINE
  5
14E
330
147
100
AcDbEntity
  8
VERMASSUNG
100
AcDbLine
 10
176.6955309534
 20
144.6997983871
 30
0.0
 11
213.1955309534
 21
144.6997983871
 31
0.0
  0
MTEXT
  5
14F
330
147
100
AcDbEntity
  8
VERMASSUNG
100
AcDbMText
 10
192.5464415986
 20
147.2779337502
 30
0.0
 40
2.0
 41
0.0
 71
     1
 72
     1
  1
36.5
  7
SLDTEXTSTYLE0
 73
     1
 44
1.0
  0
ENDBLK
  5
149
330
147
100
AcDbEntity
  8
0
100
AcDbBlockEnd
  0
BLOCK
  5
153
330
152
100
AcDbEntity
  8
0
100
AcDbBlockBegin
  2
*D3
 70
     1
 10
0.0
 20
0.0
 30
0.0
  3
*D3
  1

  0
SOLID
  5
155
330
152
100
AcDbEntity
  8
VERMASSUNG
100
AcDbTrace
 10
133.1955309534
 20
156.6997983871
 30
0.0
 11
136.1955309534
 21
156.2497983871
 31
0.0
 12
136.1955309534
 22
157.1497983871
 32
0.0
 13
136.1955309534
 23
157.1497983871
 33
0.0
  0
SOLID
  5
156
330
152
100
AcDbEntity
  8
VERMASSUNG
100
AcDbTrace
 10
213.1955309534
 20
156.6997983871
 30
0.0
 11
210.1955309534
 21
157.1497983871
 31
0.0
 12
210.1955309534
 22
156.2497983871
 32
0.0
 13
210.1955309534
 23
156.2497983871
 33
0.0
  0
LINE
  5
157
330
152
100
AcDbEntity
  8
VERMASSUNG
100
AcDbLine
 10
133.1955309534
 20
111.7184274194
 30
0.0
 11
133.1955309534
 21
157.6997983871
 31
0.0
  0
LINE
  5
158
330
152
100
AcDbEntity
  8
VERMASSUNG
100
AcDbLine
 10
213.1955309534
 20
111.7184274194
 30
0.0
 11
213.1955309534
 21
157.6997983871
 31
0.0
  0
LINE
  5
159
330
152
100
AcDbEntity
  8
VERMASSUNG
100
AcDbLine
 10
133.1955309534
 20
156.6997983871
 30
0.0
 11
213.1955309534
 21
156.6997983871
 31
0.0
  0
MTEXT
  5
15A
330
152
100
AcDbEntity
  8
VERMASSUNG
100
AcDbMText
 10
171.7956549857
 20
159.2779337502
 30
0.0
 40
2.0
 41
0.0
 71
     1
 72
     1
  1
80
  7
SLDTEXTSTYLE0
 73
     1
 44
1.0
  0
ENDBLK
  5
154
330
152
100
AcDbEntity
  8
0
100
AcDbBlockEnd
  0
BLOCK
  5
15D
330
15C
100
AcDbEntity
  8
0
100
AcDbBlockBegin
  2
*D4
 70
     1
 10
0.0
 20
0.0
 30
0.0
  3
*D4
  1

  0
SOLID
  5
15F
330
15C
100
AcDbEntity
  8
VERMASSUNG
100
AcDbTrace
 10
159.1455309534
 20
150.6997983871
 30
0.0
 11
162.1455309534
 21
150.2497983871
 31
0.0
 12
162.1455309534
 22
151.1497983871
 32
0.0
 13
162.1455309534
 23
151.1497983871
 33
0.0
  0
SOLID
  5
160
330
15C
100
AcDbEntity
  8
VERMASSUNG
100
AcDbTrace
 10
213.1955309534
 20
150.6997983871
 30
0.0
 11
210.1955309534
 21
151.1497983871
 31
0.0
 12
210.1955309534
 22
150.2497983871
 32
0.0
 13
210.1955309534
 23
150.2497983871
 33
0.0
  0
LINE
  5
161
330
15C
100
AcDbEntity
  8
VERMASSUNG
100
AcDbLine
 10
159.1455309534
 20
141.5648677431
 30
0.0
 11
159.1455309534
 21
151.6997983871
 31
0.0
  0
LINE
  5
162
330
15C
100
AcDbEntity
  8
VERMASSUNG
100
AcDbLine
 10
213.1955309534
 20
117.7940369277
 30
0.0
 11
213.1955309534
 21
151.6997983871
 31
0.0
  0
LINE
  5
163
330
15C
100
AcDbEntity
  8
VERMASSUNG
100
AcDbLine
 10
159.1455309534
 20
150.6997983871
 30
0.0
 11
213.1955309534
 21
150.6997983871
 31
0.0
  0
MTEXT
  5
164
330
15C
100
AcDbEntity
  8
VERMASSUNG
100
AcDbMText
 10
182.9713379696
 20
153.2779337502
 30
0.0
 40
2.0
 41
0.0
 71
     1
 72
     1
  1
54.05
  7
SLDTEXTSTYLE0
 73
     1
 44
1.0
  0
ENDBLK
  5
15E
330
15C
100
AcDbEntity
  8
0
100
AcDbBlockEnd
  0
BLOCK
  5
167
330
166
100
AcDbEntity
  8
0
100
AcDbBlockBegin
  2
*D5
 70
     1
 10
0.0
 20
0.0
 30
0.0
  3
*D5
  1

  0
SOLID
  5
169
330
166
100
AcDbEntity
  8
VERMASSUNG
100
AcDbTrace
 10
101.2955309534
 20
162.6997983871
 30
0.0
 11
104.2955309534
 21
162.2497983871
 31
0.0
 12
104.2955309534
 22
163.1497983871
 32
0.0
 13
104.2955309534
 23
163.1497983871
 33
0.0
  0
SOLID
  5
16A
330
166
100
AcDbEntity
  8
VERMASSUNG
100
AcDbTrace
 10
213.1955309534
 20
162.6997983871
 30
0.0
 11
210.1955309534
 21
163.1497983871
 31
0.0
 12
210.1955309534
 22
162.2497983871
 32
0.0
 13
210.1955309534
 23
162.2497983871
 33
0.0
  0
LINE
  5
16B
330
166
100
AcDbEntity
  8
VERMASSUNG
100
AcDbLine
 10
101.2955309534
 20
131.4091051658
 30
0.0
 11
101.2955309534
 21
163.6997983871
 31
0.0
  0
LINE
  5
16C
330
166
100
AcDbEntity
  8
VERMASSUNG
100
AcDbLine
 10
213.1955309534
 20
117.7940369277
 30
0.0
 11
213.1955309534
 21
163.6997983871
 31
0.0
  0
LINE
  5
16D
330
166
100
AcDbEntity
  8
VERMASSUNG
100
AcDbLine
 10
101.2955309534
 20
162.6997983871
 30
0.0
 11
213.1955309534
 21
162.6997983871
 31
0.0
  0
MTEXT
  5
16E
330
166
100
AcDbEntity
  8
VERMASSUNG
100
AcDbMText
 10
154.7462759534
 20
165.2779337502
 30
0.0
 40
2.0
 41
0.0
 71
     1
 72
     1
  1
111.9
  7
SLDTEXTSTYLE0
 73
     1
 44
1.0
  0
ENDBLK
  5
168
330
166
100
AcDbEntity
  8
0
100
AcDbBlockEnd
  0
BLOCK
  5
172
330
171
100
AcDbEntity
  8
0
100
AcDbBlockBegin
  2
*D6
 70
     1
 10
0.0
 20
0.0
 30
0.0
  3
*D6
  1

  0
SOLID
  5
174
330
171
100
AcDbEntity
  8
VERMASSUNG
100
AcDbTrace
 10
220.2737303506
 20
114.7184274194
 30
0.0
 11
220.7237303506
 21
117.7184274194
 31
0.0
 12
219.8237303506
 22
117.7184274194
 32
0.0
 13
219.8237303506
 23
117.7184274194
 33
0.0
  0
SOLID
  5
175
330
171
100
AcDbEntity
  8
VERMASSUNG
100
AcDbTrace
 10
220.2737303506
 20
108.7184274194
 30
0.0
 11
219.8237303506
 21
105.7184274194
 31
0.0
 12
220.7237303506
 22
105.7184274194
 32
0.0
 13
220.7237303506
 23
105.7184274194
 33
0.0
  0
LINE
  5
176
330
171
100
AcDbEntity
  8
VERMASSUNG
100
AcDbLine
 10
209.6955309534
 20
114.7184274194
 30
0.0
 11
221.2737303506
 21
114.7184274194
 31
0.0
  0
LINE
  5
177
330
171
100
AcDbEntity
  8
VERMASSUNG
100
AcDbLine
 10
209.6955309534
 20
108.7184274194
 30
0.0
 11
221.2737303506
 21
108.7184274194
 31
0.0
  0
LINE
  5
178
330
171
100
AcDbEntity
  8
VERMASSUNG
100
AcDbLine
 10
220.2737303506
 20
114.7184274194
 30
0.0
 11
220.2737303506
 21
120.7184274194
 31
0.0
  0
LINE
  5
179
330
171
100
AcDbEntity
  8
VERMASSUNG
100
AcDbLine
 10
220.2737303506
 20
114.7184274194
 30
0.0
 11
220.2737303506
 21
108.7184274194
 31
0.0
  0
LINE
  5
17A
330
171
100
AcDbEntity
  8
VERMASSUNG
100
AcDbLine
 10
220.2737303506
 20
108.7184274194
 30
0.0
 11
220.2737303506
 21
102.7184274194
 31
0.0
  0
MTEXT
  5
17B
330
171
100
AcDbEntity
  8
VERMASSUNG
100
AcDbMText
 10
217.695594871
 20
109.2142862903
 30
0.0
 40
2.0
 41
0.0
 71
     1
 72
     1
  1
%%c
  7
SLDTEXTSTYLE0
 11
-7.044195017643634E-15
 21
1.0
 31
0.0
 73
     1
 44
1.0
  0
MTEXT
  5
17C
330
171
100
AcDbEntity
  8
VERMASSUNG
100
AcDbMText
 10
217.6955949875
 20
112.8226925806
 30
0.0
 40
2.0
 41
0.0
 71
     1
 72
     1
  1
6
  7
SLDTEXTSTYLE0
 11
-7.044195017643634E-15
 21
1.0
 31
0.0
 73
     1
 44
1.0
  0
ENDBLK
  5
173
330
171
100
AcDbEntity
  8
0
100
AcDbBlockEnd
  0
BLOCK
  5
17F
330
17E
100
AcDbEntity
  8
0
100
AcDbBlockBegin
  2
*D7
 70
     1
 10
0.0
 20
0.0
 30
0.0
  3
*D7
  1

  0
SOLID
  5
181
330
17E
100
AcDbEntity
  8
VERMASSUNG
100
AcDbTrace
 10
95.8519596774
 20
143.2184274194
 30
0.0
 11
95.4019596774
 21
140.2184274194
 31
0.0
 12
96.3019596774
 22
140.2184274194
 32
0.0
 13
96.3019596774
 23
140.2184274194
 33
0.0
  0
SOLID
  5
182
330
17E
100
AcDbEntity
  8
VERMASSUNG
100
AcDbTrace
 10
95.8519596774
 20
80.2184274194
 30
0.0
 11
96.3019596774
 21
83.2184274194
 31
0.0
 12
95.4019596774
 22
83.2184274194
 32
0.0
 13
95.4019596774
 23
83.2184274194
 33
0.0
  0
LINE
  5
183
330
17E
100
AcDbEntity
  8
VERMASSUNG
100
AcDbLine
 10
133.4955309534
 20
143.2184274194
 30
0.0
 11
94.8519596774
 21
143.2184274194
 31
0.0
  0
LINE
  5
184
330
17E
100
AcDbEntity
  8
VERMASSUNG
100
AcDbLine
 10
133.4955309534
 20
80.2184274194
 30
0.0
 11
94.8519596774
 21
80.2184274194
 31
0.0
  0
LINE
  5
185
330
17E
100
AcDbEntity
  8
VERMASSUNG
100
AcDbLine
 10
95.8519596774
 20
143.2184274194
 30
0.0
 11
95.8519596774
 21
80.2184274194
 31
0.0
  0
MTEXT
  5
186
330
17E
100
AcDbEntity
  8
VERMASSUNG
100
AcDbMText
 10
93.0738241884
 20
104.0142234677
 30
0.0
 40
2.0
 41
0.0
 71
     1
 72
     1
  1
HSK A 
  7
SLDTEXTSTYLE0
 11
-7.044195017643634E-15
 21
1.0
 31
0.0
 73
     1
 44
1.0
  0
MTEXT
  5
187
330
17E
100
AcDbEntity
  8
VERMASSUNG
100
AcDbMText
 10
93.2738241979
 20
113.0142240116
 30
0.0
 40
2.0
 41
0.0
 71
     1
 72
     1
  1
%%c
  7
SLDTEXTSTYLE0
 11
-7.044195017643634E-15
 21
1.0
 31
0.0
 73
     1
 44
1.0
  0
MTEXT
  5
188
330
17E
100
AcDbEntity
  8
VERMASSUNG
100
AcDbMText
 10
93.2738243143
 20
116.6228794355
 30
0.0
 40
2.0
 41
0.0
 71
     1
 72
     1
  1
63
  7
SLDTEXTSTYLE0
 11
-7.044195017643634E-15
 21
1.0
 31
0.0
 73
     1
 44
1.0
  0
ENDBLK
  5
180
330
17E
100
AcDbEntity
  8
0
100
AcDbBlockEnd
  0
ENDSEC
  0
SECTION
  2
ENTITIES
  0
MTEXT
  5
45
330
1F
100
AcDbEntity
  8
KOPF_DÜNN
100
AcDbMText
 10
13.8892156294
 20
23.8442973028
 30
0.0
 40
3.0
 41
0.0
 71
     1
 72
     1
  1
HA6.S06.K05.080
  7
SLDTEXTSTYLE0
 73
     1
 44
1.0
  0
MTEXT
  5
46
330
1F
100
AcDbEntity
  8
VERMASSUNG
100
AcDbMText
 10
13.9329988022
 20
28.8834360957
 30
0.0
 40
3.0
 41
0.0
 71
     1
 72
     1
  1
Schrumpffutter_Heat shrink chuck
  7
SLDTEXTSTYLE0
 73
     1
 44
1.0
  0
MTEXT
  5
47
330
1F
100
AcDbEntity
  8
VERMASSUNG
100
AcDbMText
 10
98.8601118557
 20
13.8365368179
 30
0.0
 40
2.0
 41
0.0
 71
     1
 72
     1
  1
Datum: 09.03.2011
  7
SLDTEXTSTYLE0
 73
     1
 44
1.0
  0
MTEXT
  5
49
330
1F
100
AcDbEntity
  8
VERMASSUNG
100
AcDbMText
 10
13.933048693
 20
18.0482802738
 30
0.0
 40
2.0
 41
0.0
 71
     1
 72
     1
  1
DIN 69 893 HSK A 63
  7
SLDTEXTSTYLE1
 73
     1
 44
1.0
  0
MTEXT
  5
4A
330
1F
100
AcDbEntity
  8
VERMASSUNG
100
AcDbMText
 10
13.9808475933
 20
13.9090973692
 30
0.0
 40
2.0
 41
0.0
 71
     1
 72
     1
  1
Gewicht: 748g
  7
SLDTEXTSTYLE0
 73
     1
 44
1.0
  0
LINE
  5
4B
330
1F
100
AcDbEntity
  8
0
  6
Continuous
 62
     7
370
    15
100
AcDbLine
 10
133.4955309534
 20
80.2184274194
 30
0.0
 11
138.1455309534
 21
80.2184274194
 31
0.0
  0
LINE
  5
4C
330
1F
100
AcDbEntity
  8
0
  6
Continuous
 62
     7
370
    15
100
AcDbLine
 10
138.1548390402
 20
143.2184274194
 30
0.0
 11
133.4955309534
 21
143.2184274194
 31
0.0
  0
ARC
  5
4D
330
1F
100
AcDbEntity
  8
0
  6
Continuous
 62
     7
370
    15
100
AcDbCircle
 10
133.4955309534
 20
80.5184274194
 30
0.0
 40
0.3000000000000114
100
AcDbArc
 50
180.0
 51
270.0
  0
ARC
  5
4E
330
1F
100
AcDbEntity
  8
0
  6
Continuous
 62
     7
370
    15
100
AcDbCircle
 10
133.4955309534
 20
142.9184274194
 30
0.0
 40
0.3000000000000114
100
AcDbArc
 50
90.0
 51
180.0
  0
ARC
  5
4F
330
1F
100
AcDbEntity
  8
0
  6
Continuous
 62
     7
370
    15
100
AcDbCircle
 10
132.6955242008
 20
87.147989805
 30
0.0
 40
0.6000067526677282
100
AcDbArc
 50
33.5571153394
 51
90.0
  0
ARC
  5
50
330
1F
100
AcDbEntity
  8
0
  6
Continuous
 62
     7
370
    15
100
AcDbCircle
 10
132.6955242008
 20
136.2888650337
 30
0.0
 40
0.6000067526677282
100
AcDbArc
 50
270.0
 51
326.4428846606
  0
LINE
  5
51
330
1F
100
AcDbEntity
  8
0
  6
Continuous
 62
     7
370
    15
100
AcDbLine
 10
131.1955309534
 20
87.4979965576
 30
0.0
 11
132.0522437268
 21
87.7275520534
 31
0.0
  0
LINE
  5
52
330
1F
100
AcDbEntity
  8
0
  6
Continuous
 62
     7
370
    15
100
AcDbLine
 10
132.0522437268
 20
135.7093027853
 30
0.0
 11
131.1955309534
 21
135.9388582811
 31
0.0
  0
LINE
  5
53
330
1F
100
AcDbEntity
  8
0
  6
Continuous
 62
     7
370
    15
100
AcDbLine
 10
119.9640221546
 20
135.3761574395
 30
0.0
 11
107.3955309534
 21
134.7464735115
 31
0.0
  0
LINE
  5
54
330
1F
100
AcDbEntity
  8
0
  6
Continuous
 62
     7
370
    15
100
AcDbLine
 10
131.1955309534
 20
135.9388582811
 30
0.0
 11
128.3785292961
 21
135.7977259335
 31
0.0
  0
LINE
  5
55
330
1F
100
AcDbEntity
  8
0
  6
Continuous
 62
     7
370
    15
100
AcDbLine
 10
128.3785853861
 20
87.6391260951
 30
0.0
 11
131.1955309534
 21
87.4979965576
 31
0.0
  0
LINE
  5
56
330
1F
100
AcDbEntity
  8
0
  6
Continuous
 62
     7
370
    15
100
AcDbLine
 10
111.3955309534
 20
88.4899805256
 30
0.0
 11
119.9644246733
 21
88.060677233
 31
0.0
  0
ARC
  5
57
330
1F
100
AcDbEntity
  8
0
  6
Continuous
 62
     7
370
    15
100
AcDbCircle
 10
132.2075351539
 20
87.1479965576
 30
0.0
 40
0.6000000000000085
100
AcDbArc
 50
90.0
 51
105.0
  0
ARC
  5
58
330
1F
100
AcDbEntity
  8
0
  6
Continuous
 62
     7
370
    15
100
AcDbCircle
 10
132.2075351539
 20
136.2888582811
 30
0.0
 40
0.5999999999999943
100
AcDbArc
 50
255.0
 51
270.0
  0
LINE
  5
59
330
1F
100
AcDbEntity
  8
0
  6
Continuous
 62
     7
370
    15
100
AcDbLine
 10
132.2075351539
 20
87.7479965576
 30
0.0
 11
132.6955242008
 21
87.7479965576
 31
0.0
  0
LINE
  5
5A
330
1F
100
AcDbEntity
  8
0
  6
Continuous
 62
     7
370
    15
100
AcDbLine
 10
132.6955242008
 20
135.6888582811
 30
0.0
 11
132.2075351539
 21
135.6888582811
 31
0.0
  0
ARC
  5
5B
330
1F
100
AcDbEntity
  8
0
  6
Continuous
 62
     7
370
    15
100
AcDbCircle
 10
169.1455309534
 20
91.2206952489
 30
0.0
 40
10.0
100
AcDbArc
 50
94.5
 51
180.0
  0
ARC
  5
5C
330
1F
100
AcDbEntity
  8
0
  6
Continuous
 62
     7
370
    15
100
AcDbCircle
 10
169.1455309534
 20
132.2161595898
 30
0.0
 40
9.999999999999993
100
AcDbArc
 50
183.56882431
 51
265.5
  0
LINE
  5
5D
330
1F
100
AcDbEntity
  8
0
  6
Continuous
 62
     7
370
    15
100
AcDbLine
 10
102.5899500799
 20
90.8484274194
 30
0.0
 11
109.9955309534
 21
90.8484274194
 31
0.0
  0
LINE
  5
5E
330
1F
100
AcDbEntity
  8
0
  6
Continuous
 62
     7
370
    15
100
AcDbLine
 10
168.3609399962
 20
101.1898685862
 30
0.0
 11
212.2739900492
 21
104.6459005773
 31
0.0
  0
LINE
  5
5F
330
1F
100
AcDbEntity
  8
0
  6
Continuous
 62
     7
370
    15
100
AcDbLine
 10
212.2739900492
 20
118.7909542614
 30
0.0
 11
168.3609399962
 21
122.2469862525
 31
0.0
  0
ARC
  5
60
330
1F
100
AcDbEntity
  8
0
  6
Continuous
 62
     7
370
    15
100
AcDbCircle
 10
109.9955309534
 20
89.4484274194
 30
0.0
 40
1.399999999999991
100
AcDbArc
 50
42.2465410162
 51
90.0
  0
LINE
  5
61
330
1F
100
AcDbEntity
  8
0
  6
Continuous
 62
     7
370
    15
100
AcDbLine
 10
101.3066913885
 20
91.9872669842
 30
0.0
 11
102.4366944116
 21
90.8572639612
 31
0.0
  0
LINE
  5
62
330
1F
100
AcDbEntity
  8
0
  6
Continuous
 62
     7
370
    15
100
AcDbLine
 10
102.4366944116
 20
132.5795908775
 30
0.0
 11
101.3066985726
 21
131.4495950385
 31
0.0
  0
ARC
  5
63
330
1F
100
AcDbEntity
  8
0
  6
Continuous
 62
     7
370
    15
100
AcDbCircle
 10
105.9955309534
 20
133.9884274194
 30
0.0
 40
1.400000000000008
100
AcDbArc
 50
270.0
 51
301.7485287426
  0
LINE
  5
64
330
1F
100
AcDbEntity
  8
0
  6
Continuous
 62
     7
370
    15
100
AcDbLine
 10
105.9955309534
 20
132.5884274194
 30
0.0
 11
102.5931863575
 21
132.5884274194
 31
0.0
  0
ARC
  5
65
330
1F
100
AcDbEntity
  8
0
  6
Continuous
 62
     7
370
    15
100
AcDbCircle
 10
212.1955309534
 20
105.642817911
 30
0.0
 40
1.0
100
AcDbArc
 50
274.5
 51
0.0
  0
ARC
  5
66
330
1F
100
AcDbEntity
  8
0
  6
Continuous
 62
     7
370
    15
100
AcDbCircle
 10
212.1955309534
 20
117.7940369277
 30
0.0
 40
1.0
100
AcDbArc
 50
0.0
 51
85.5
  0
SPLINE
  5
67
330
1F
100
AcDbEntity
  8
0
  6
Continuous
 62
     7
370
    15
100
AcDbSpline
210
0.0
220
0.0
230
1.0
 70
     8
 71
     3
 72
    70
 73
    66
 74
     0
 42
0.00000001
 43
0.00000001
 40
-0.0312499999999998
 40
-0.0312499999999998
 40
0.0
 40
0.0
 40
0.0312500000000001
 40
0.0312500000000001
 40
0.0625000000000002
 40
0.0625000000000002
 40
0.0937500000000003
 40
0.0937500000000003
 40
0.1250000000000004
 40
0.1250000000000004
 40
0.1562500000000005
 40
0.1562500000000005
 40
0.1875000000000006
 40
0.1875000000000006
 40
0.2187500000000007
 40
0.2187500000000007
 40
0.2500000000000008
 40
0.2500000000000008
 40
0.2812500000000009
 40
0.2812500000000009
 40
0.3125000000000011
 40
0.3125000000000011
 40
0.3437500000000012
 40
0.3437500000000012
 40
0.3750000000000012
 40
0.3750000000000012
 40
0.4062500000000013
 40
0.4062500000000013
 40
0.4375000000000014
 40
0.4375000000000014
 40
0.4687500000000016
 40
0.4687500000000016
 40
0.5000000000000017
 40
0.5000000000000017
 40
0.5312500000000018
 40
0.5312500000000018
 40
0.5625000000000019
 40
0.5625000000000019
 40
0.593750000000002
 40
0.593750000000002
 40
0.6250000000000021
 40
0.6250000000000021
 40
0.6562500000000022
 40
0.6562500000000022
 40
0.6875000000000023
 40
0.6875000000000023
 40
0.7187500000000021
 40
0.7187500000000021
 40
0.7500000000000018
 40
0.7500000000000018
 40
0.7812500000000016
 40
0.7812500000000016
 40
0.8125000000000013
 40
0.8125000000000013
 40
0.8437500000000011
 40
0.8437500000000011
 40
0.8750000000000009
 40
0.8750000000000009
 40
0.9062500000000007
 40
0.9062500000000007
 40
0.9375000000000004
 40
0.9375000000000004
 40
0.9687500000000002
 40
0.9687500000000002
 40
1.0
 40
1.0
 40
1.03125
 40
1.03125
 10
140.9309856147687
 20
122.3393343053382
 30
0.0
 10
141.460076292089
 20
122.3393343053382
 30
0.0
 10
141.7201469594661
 20
122.3640116001233
 30
0.0
 10
142.2317216393015
 20
122.4604832731653
 30
0.0
 10
142.4858969230417
 20
122.5334641891453
 30
0.0
 10
142.9701675531034
 20
122.7232047920839
 30
0.0
 10
143.1998086449845
 20
122.8390654504777
 30
0.0
 10
143.634412993218
 20
123.1116832964354
 30
0.0
 10
143.8399787698646
 20
123.2697223784891
 30
0.0
 10
144.2085359104599
 20
123.6132652294598
 30
0.0
 10
144.3740168931953
 20
123.8000276735615
 30
0.0
 10
144.6664414026305
 20
124.2035708479583
 30
0.0
 10
144.7905423792569
 20
124.4170678443875
 30
0.0
 10
144.9901215760067
 20
124.8564511583099
 30
0.0
 10
145.0670551618649
 20
125.0855911454556
 30
0.0
 10
145.1699122203853
 20
125.5515652682156
 30
0.0
 10
145.1953851298444
 20
125.7844477138918
 30
0.0
 10
145.1956755404122
 20
126.2498452489716
 30
0.0
 10
145.1696509066365
 20
126.4847210063659
 30
0.0
 10
145.0675026221445
 20
126.9362141536121
 30
0.0
 10
144.9919261745613
 20
127.1542606290235
 30
0.0
 10
144.7914286434164
 20
127.5753551540613
 30
0.0
 10
144.666299801908
 20
127.7772765385797
 30
0.0
 10
144.3769410008864
 20
128.1493060210986
 30
0.0
 10
144.211530013831
 20
128.3219343246789
 30
0.0
 10
143.8385394556831
 20
128.6392523292249
 30
0.0
 10
143.636806422594
 20
128.7790392627266
 30
0.0
 10
143.2039471717661
 20
129.0232155162784
 30
0.0
 10
142.9700286388768
 20
129.1284450273199
 30
0.0
 10
142.4858449037341
 20
129.296602173695
 30
0.0
 10
142.2365292777786
 20
129.3598530642888
 30
0.0
 10
141.7234967533509
 20
129.4454322733914
 30
0.0
 10
141.4582029304463
 20
129.4673044383138
 30
0.0
 10
140.9358683105765
 20
129.4674680879578
 30
0.0
 10
140.6761146480948
 20
129.4464663958618
 30
0.0
 10
140.1595028324495
 20
129.3610640407841
 30
0.0
 10
139.9071367919493
 20
129.2970578574972
 30
0.0
 10
139.4256116704165
 20
129.130243337456
 30
0.0
 10
139.1927609383029
 20
129.0261101740568
 30
0.0
 10
138.7556710898641
 20
128.7801235215619
 30
0.0
 10
138.5543501012069
 20
128.640373690613
 30
0.0
 10
138.185264075907
 20
128.3272356208884
 30
0.0
 10
138.0162793248554
 20
128.1517794616184
 30
0.0
 10
137.7258232681962
 20
127.7789391975181
 30
0.0
 10
137.602751456834
 20
127.5808173874072
 30
0.0
 10
137.401415215412
 20
127.1601060446735
 30
0.0
 10
137.3242026694698
 20
126.938116024006
 30
0.0
 10
137.2219991265697
 20
126.4882510842976
 30
0.0
 10
137.1957707751174
 20
126.2579956711809
 30
0.0
 10
137.1952943758003
 20
125.7866797286318
 30
0.0
 10
137.2210367882982
 20
125.5534423129177
 30
0.0
 10
137.3223475646621
 20
125.0917657734196
 30
0.0
 10
137.399180204053
 20
124.8608683863074
 30
0.0
 10
137.5995840432682
 20
124.4185923725158
 30
0.0
 10
137.7222555415603
 20
124.2075299412299
 30
0.0
 10
138.0122028307245
 20
123.8060314304972
 30
0.0
 10
138.1807738100897
 20
123.6151249084213
 30
0.0
 10
138.5490434042029
 20
123.2713995764242
 30
0.0
 10
138.7501052614732
 20
123.1162623902102
 30
0.0
 10
139.1871361800581
 20
122.8411850301304
 30
0.0
 10
139.4192843931877
 20
122.7240688007084
 30
0.0
 10
139.9002946746866
 20
122.5351423156439
 30
0.0
 10
140.152394757517
 20
122.4620673452496
 30
0.0
 10
140.669464243776
 20
122.364015286115
 30
0.0
 10
140.9309856147687
 20
122.3393343053382
 30
0.0
 10
141.460076292089
 20
122.3393343053382
 30
0.0
  0
LINE
  5
68
330
1F
100
AcDbEntity
  8
0
  6
Continuous
 62
     7
370
    15
100
AcDbLine
 10
138.1455309534
 20
131.5684274194
 30
0.0
 11
147.8035981219
 21
131.5684274194
 31
0.0
  0
LINE
  5
69
330
1F
100
AcDbEntity
  8
0
  6
Continuous
 62
     7
370
    15
100
AcDbLine
 10
147.8035981219
 20
81.5315097231
 30
0.0
 11
147.8035981219
 21
131.5684274194
 31
0.0
  0
LINE
  5
6A
330
1F
100
AcDbEntity
  8
0
  6
Continuous
 62
     7
370
    15
100
AcDbLine
 10
147.8035981219
 20
81.5315097231
 30
0.0
 11
146.1455309534
 21
81.5315097231
 31
0.0
  0
SPLINE
  5
6B
330
1F
100
AcDbEntity
  8
0
  6
Continuous
 62
     7
370
    15
100
AcDbSpline
210
0.0
220
0.0
230
1.0
 70
     8
 71
     3
 72
    28
 73
    24
 74
     0
 42
0.00000001
 43
0.00000001
 40
0.0
 40
0.0
 40
0.0
 40
0.0
 40
0.1250000000000001
 40
0.1250000000000001
 40
0.1875000000000001
 40
0.1875000000000001
 40
0.2500000000000001
 40
0.2500000000000001
 40
0.3749999999999999
 40
0.3749999999999999
 40
0.4375
 40
0.4375
 40
0.4999999999999999
 40
0.4999999999999999
 40
0.6249999999999999
 40
0.6249999999999999
 40
0.7499999999999997
 40
0.7499999999999997
 40
0.8124999999999998
 40
0.8124999999999998
 40
0.8749999999999998
 40
0.8749999999999998
 40
1.0
 40
1.0
 40
1.0
 40
1.0
 10
146.1455309534288
 20
81.53150972310765
 30
0.0
 10
145.6138231959359
 20
81.53150972310766
 30
0.0
 10
145.0915846306255
 20
81.51572500915744
 30
0.0
 10
144.3217141443505
 20
81.47072959508122
 30
0.0
 10
144.0673545721592
 20
81.4521746000055
 30
0.0
 10
143.5632329914607
 20
81.40832187755899
 30
0.0
 10
143.3135101740328
 20
81.3829772706068
 30
0.0
 10
142.5879202225863
 20
81.2995751928567
 30
0.0
 10
142.1295599610048
 20
81.2337096337056
 30
0.0
 10
141.4790620176109
 20
81.12473929321382
 30
0.0
 10
141.2673799668185
 20
81.08649965744716
 30
0.0
 10
140.8633084776805
 20
81.0087409200278
 30
0.0
 10
140.6708019638596
 20
80.96923995785247
 30
0.0
 10
140.1209669928383
 20
80.85033221548646
 30
0.0
 10
139.7910382145295
 20
80.77051453406185
 30
0.0
 10
139.2065669459608
 20
80.61717137226579
 30
0.0
 10
138.9602898079474
 20
80.54583761899653
 30
0.0
 10
138.6604470152493
 20
80.45189411192192
 30
0.0
 10
138.5719901581772
 20
80.42270031856198
 30
0.0
 10
138.418628804872
 20
80.36923374429858
 30
0.0
 10
138.3535405906458
 20
80.3448744100234
 30
0.0
 10
138.197946574705
 20
80.28128426457864
 30
0.0
 10
138.1455309534288
 20
80.2511813294894
 30
0.0
 10
138.1455309534288
 20
80.2343044364925
 30
0.0
  0
LINE
  5
6C
330
1F
100
AcDbEntity
  8
0
  6
Continuous
 62
     7
370
    15
100
AcDbLine
 10
138.1455309534
 20
80.2343044365
 30
0.0
 11
138.1455309534
 21
80.2184274194
 31
0.0
  0
SPLINE
  5
6D
330
1F
100
AcDbEntity
  8
0
  6
Continuous
 62
     7
370
    15
100
AcDbSpline
210
0.0
220
0.0
230
1.0
 70
     8
 71
     3
 72
    22
 73
    18
 74
     0
 42
0.00000001
 43
0.00000001
 40
0.0
 40
0.0
 40
0.0
 40
0.0
 40
0.0515773377536172
 40
0.1565264849943629
 40
0.2100197540385886
 40
0.2615951369298746
 40
0.3664424119934943
 40
0.4198226601719804
 40
0.4724528789006786
 40
0.5794488992297344
 40
0.6339397336480286
 40
0.6872670452602943
 40
0.7409741315029978
 40
0.7958968813361827
 40
0.8512481408256359
 40
0.9034470736265863
 40
1.0
 40
1.0
 40
1.0
 40
1.0
 10
146.1455309534288
 20
142.1856228925191
 30
0.0
 10
145.9287207574263
 20
142.1870195135876
 30
0.0
 10
145.2707469385116
 20
142.1912579678438
 30
0.0
 10
144.3956519611806
 20
142.2307902921981
 30
0.0
 10
143.5508264663238
 20
142.29376353904
 30
0.0
 10
142.7311011827196
 20
142.3717775722951
 30
0.0
 10
141.9553112046912
 20
142.4686607001703
 30
0.0
 10
141.2378227433847
 20
142.5769201120862
 30
0.0
 10
140.5585579962126
 20
142.6906384843907
 30
0.0
 10
139.9502430183037
 20
142.8071386693315
 30
0.0
 10
139.4301510775805
 20
142.9162389207486
 30
0.0
 10
139.0862608998644
 20
142.9922428184786
 30
0.0
 10
138.7913071721368
 20
143.0602762744002
 30
0.0
 10
138.5455328847957
 20
143.1189893251588
 30
0.0
 10
138.3596305758223
 20
143.1646047050925
 30
0.0
 10
138.1880339700986
 20
143.207564156653
 30
0.0
 10
138.1679046949223
 20
143.2127251784551
 30
0.0
 10
138.1548390402486
 20
143.2160751315974
 30
0.0
  0
LINE
  5
6E
330
1F
100
AcDbEntity
  8
0
  6
Continuous
 62
     7
370
    15
100
AcDbLine
 10
147.8035981219
 20
142.1856228925
 30
0.0
 11
146.1455309534
 21
142.1856228925
 31
0.0
  0
LINE
  5
6F
330
1F
100
AcDbEntity
  8
0
  6
Continuous
 62
     7
370
    15
100
AcDbLine
 10
147.8035981219
 20
136.1771170817
 30
0.0
 11
147.8035981219
 21
142.1856228925
 31
0.0
  0
LINE
  5
70
330
1F
100
AcDbEntity
  8
0
  6
Continuous
 62
     7
370
    15
100
AcDbLine
 10
145.3911512991
 20
136.1771170817
 30
0.0
 11
147.8035981219
 21
136.1771170817
 31
0.0
  0
SPLINE
  5
71
330
1F
100
AcDbEntity
  8
0
  6
Continuous
 62
     7
370
    15
100
AcDbSpline
210
0.0
220
0.0
230
1.0
 70
     8
 71
     3
 72
    20
 73
    16
 74
     0
 42
0.00000001
 43
0.00000001
 40
0.0
 40
0.0
 40
0.0
 40
0.0
 40
0.2499999999999997
 40
0.2499999999999997
 40
0.3749999999999997
 40
0.3749999999999997
 40
0.4999999999999998
 40
0.4999999999999998
 40
0.6249999999999998
 40
0.6249999999999998
 40
0.7499999999999999
 40
0.7499999999999999
 40
0.8749999999999999
 40
0.8749999999999999
 40
1.0
 40
1.0
 40
1.0
 40
1.0
 10
138.1455309534288
 20
131.5684274193548
 30
0.0
 10
138.3939046877168
 20
132.2222898476522
 30
0.0
 10
138.7134747800621
 20
132.8260756296494
 30
0.0
 10
139.3357810132668
 20
133.652914365818
 30
0.0
 10
139.5672052736976
 20
133.9153430037709
 30
0.0
 10
140.0884196133473
 20
134.4120056578759
 30
0.0
 10
140.3750400959823
 20
134.6425925368974
 30
0.0
 10
140.99452483729
 20
135.05914676148
 30
0.0
 10
141.3288252167769
 20
135.2466445634475
 30
0.0
 10
142.0540856894017
 20
135.5780415410839
 30
0.0
 10
142.4360007467922
 20
135.7175455285792
 30
0.0
 10
143.2307889229639
 20
135.9429990360502
 30
0.0
 10
143.6449471171702
 20
136.0296251475938
 30
0.0
 10
144.5104934577516
 20
136.1476059364479
 30
0.0
 10
144.9483810727635
 20
136.1771170817223
 30
0.0
 10
145.3911512991181
 20
136.1771170817223
 30
0.0
  0
SPLINE
  5
72
330
1F
100
AcDbEntity
  8
0
  6
Continuous
 62
     7
370
    15
100
AcDbSpline
210
0.0
220
0.0
230
1.0
 70
     8
 71
     3
 72
    70
 73
    66
 74
     0
 42
0.00000001
 43
0.00000001
 40
-0.03125
 40
-0.03125
 40
0.0
 40
0.0
 40
0.0312500000000002
 40
0.0312500000000002
 40
0.0625000000000004
 40
0.0625000000000004
 40
0.0937500000000005
 40
0.0937500000000005
 40
0.1250000000000007
 40
0.1250000000000007
 40
0.1562500000000009
 40
0.1562500000000009
 40
0.1875000000000011
 40
0.1875000000000011
 40
0.2187500000000013
 40
0.2187500000000013
 40
0.2500000000000014
 40
0.2500000000000014
 40
0.2812500000000014
 40
0.2812500000000014
 40
0.3125000000000014
 40
0.3125000000000014
 40
0.3437500000000015
 40
0.3437500000000015
 40
0.3750000000000015
 40
0.3750000000000015
 40
0.4062500000000015
 40
0.4062500000000015
 40
0.4375000000000015
 40
0.4375000000000015
 40
0.4687500000000016
 40
0.4687500000000016
 40
0.5000000000000016
 40
0.5000000000000016
 40
0.5312500000000014
 40
0.5312500000000014
 40
0.5625000000000012
 40
0.5625000000000012
 40
0.5937500000000011
 40
0.5937500000000011
 40
0.6250000000000009
 40
0.6250000000000009
 40
0.6562500000000008
 40
0.6562500000000008
 40
0.6875000000000007
 40
0.6875000000000007
 40
0.7187500000000004
 40
0.7187500000000004
 40
0.7500000000000003
 40
0.7500000000000003
 40
0.7812500000000003
 40
0.7812500000000003
 40
0.8125000000000002
 40
0.8125000000000002
 40
0.8437500000000002
 40
0.8437500000000002
 40
0.8750000000000001
 40
0.8750000000000001
 40
0.9062500000000001
 40
0.9062500000000001
 40
0.9375000000000001
 40
0.9375000000000001
 40
0.96875
 40
0.96875
 40
1.0
 40
1.0
 40
1.03125
 40
1.03125
 10
140.9309856147687
 20
136.777390814134
 30
0.0
 10
141.460076292089
 20
136.777390814134
 30
0.0
 10
141.7201469594661
 20
136.7932912545488
 30
0.0
 10
142.2317216393015
 20
136.855235604723
 30
0.0
 10
142.4858969230417
 20
136.9020378388143
 30
0.0
 10
142.9701675531034
 20
137.0230148222694
 30
0.0
 10
143.1998086449845
 20
137.0966171500763
 30
0.0
 10
143.634412993218
 20
137.2684414210544
 30
0.0
 10
143.8399787698646
 20
137.3674448439818
 30
0.0
 10
144.2085359104599
 20
137.5805412578946
 30
0.0
 10
144.3740168931953
 20
137.6954409740243
 30
0.0
 10
144.6664414026305
 20
137.9408078727146
 30
0.0
 10
144.7905423792569
 20
138.0692477731849
 30
0.0
 10
144.9901215760067
 20
138.3301399212708
 30
0.0
 10
145.0670551618649
 20
138.4645210926103
 30
0.0
 10
145.1699122203853
 20
138.7338410437166
 30
0.0
 10
145.1953851298444
 20
138.8665223079347
 30
0.0
 10
145.1956755404122
 20
139.1277087820657
 30
0.0
 10
145.1696509066365
 20
139.2574738202305
 30
0.0
 10
145.0675026221445
 20
139.5030564545031
 30
0.0
 10
144.9919261745613
 20
139.619717991812
 30
0.0
 10
144.7914286434164
 20
139.8416231819666
 30
0.0
 10
144.666299801908
 20
139.9462344358896
 30
0.0
 10
144.3769410008864
 20
140.1362808474976
 30
0.0
 10
144.211530013831
 20
140.2230405189473
 30
0.0
 10
143.8385394556831
 20
140.3805448946988
 30
0.0
 10
143.636806422594
 20
140.4488701594861
 30
0.0
 10
143.2039471717661
 20
140.5670998831052
 30
0.0
 10
142.9700286388768
 20
140.6173947992091
 30
0.0
 10
142.4858449037342
 20
140.6972603360987
 30
0.0
 10
142.2365292777787
 20
140.7270014638983
 30
0.0
 10
141.7234967533509
 20
140.7671542054066
 30
0.0
 10
141.4582029304463
 20
140.7773524748164
 30
0.0
 10
140.9358683105765
 20
140.7774289332012
 30
0.0
 10
140.6761146480948
 20
140.7676379215921
 30
0.0
 10
140.1595028324496
 20
140.7275710828533
 30
0.0
 10
139.9071367919493
 20
140.6974739159966
 30
0.0
 10
139.4256116704165
 20
140.6182517061663
 30
0.0
 10
139.1927609383029
 20
140.5684942267029
 30
0.0
 10
138.7556710898641
 20
140.4494022842526
 30
0.0
 10
138.5543501012069
 20
140.3810870227053
 30
0.0
 10
138.1852640759071
 20
140.2256860557717
 30
0.0
 10
138.0162793248554
 20
140.1375337137048
 30
0.0
 10
137.7258232681962
 20
139.9470943245885
 30
0.0
 10
137.602751456834
 20
139.8444697468894
 30
0.0
 10
137.401415215412
 20
139.6228294002813
 30
0.0
 10
137.3242026694698
 20
139.5040753247338
 30
0.0
 10
137.2219991265697
 20
139.2594093858161
 30
0.0
 10
137.1957707751174
 20
139.1322526603676
 30
0.0
 10
137.1952943758003
 20
138.867804514512
 30
0.0
 10
137.2210367882982
 20
138.7349038342549
 30
0.0
 10
137.3223475646621
 20
138.4681115607728
 30
0.0
 10
137.399180204053
 20
138.3327476593043
 30
0.0
 10
137.5995840432682
 20
138.0701678640017
 30
0.0
 10
137.7222555415603
 20
137.9431927042479
 30
0.0
 10
138.0122028307245
 20
137.6991133181655
 30
0.0
 10
138.1807738100897
 20
137.5816881934117
 30
0.0
 10
138.5490434042029
 20
137.3684917324632
 30
0.0
 10
138.7501052614732
 20
137.2713176140383
 30
0.0
 10
139.1871361800581
 20
137.0979627268242
 30
0.0
 10
139.4192843931877
 20
137.0235631751675
 30
0.0
 10
139.9002946746866
 20
136.9031102956628
 30
0.0
 10
140.152394757517
 20
136.8562519203968
 30
0.0
 10
140.669464243776
 20
136.7932944234131
 30
0.0
 10
140.9309856147687
 20
136.777390814134
 30
0.0
 10
141.460076292089
 20
136.777390814134
 30
0.0
  0
LINE
  5
73
330
1F
100
AcDbEntity
  8
0
  6
Continuous
 62
     7
370
    15
100
AcDbLine
 10
154.5874637849
 20
81.5315097231
 30
0.0
 11
154.5874637849
 21
131.5684274194
 31
0.0
  0
SPLINE
  5
74
330
1F
100
AcDbEntity
  8
0
  6
Continuous
 62
     7
370
    15
100
AcDbSpline
210
0.0
220
0.0
230
1.0
 70
     8
 71
     3
 72
     8
 73
     4
 74
     0
 42
0.00000001
 43
0.00000001
 40
0.0
 40
0.0
 40
0.0
 40
0.0
 40
1.0
 40
1.0
 40
1.0
 40
1.0
 10
154.5874637849179
 20
81.53150972310765
 30
0.0
 10
154.0919841242521
 20
82.42703581104101
 30
0.0
 10
153.59787007621
 20
83.32332022609326
 30
0.0
 10
153.1055309534288
 20
84.22059026029996
 30
0.0
  0
LINE
  5
75
330
1F
100
AcDbEntity
  8
0
  6
Continuous
 62
     7
370
    15
100
AcDbLine
 10
153.1055309534
 20
84.2205902603
 30
0.0
 11
153.1055309534
 21
131.5684274194
 31
0.0
  0
SPLINE
  5
76
330
1F
100
AcDbEntity
  8
0
  6
Continuous
 62
     7
370
    15
100
AcDbSpline
210
0.0
220
0.0
230
1.0
 70
    24
 71
     3
 72
     8
 73
     4
 74
     0
 42
0.00000001
 43
0.00000001
 40
0.0
 40
0.0
 40
0.0
 40
0.0
 40
1.0
 40
1.0
 40
1.0
 40
1.0
 10
153.1055309534288
 20
131.5684274193548
 30
0.0
 10
153.5854829477937
 20
131.5684274193548
 30
0.0
 10
154.0807836767673
 20
131.5684274193548
 30
0.0
 10
154.5874637849179
 20
131.5684274193548
 30
0.0
  0
LINE
  5
77
330
1F
100
AcDbEntity
  8
0
  6
Continuous
 62
     7
370
    15
100
AcDbLine
 10
159.1455309534
 20
82.1581500188
 30
0.0
 11
159.1455309534
 21
131.5684274194
 31
0.0
  0
SPLINE
  5
78
330
1F
100
AcDbEntity
  8
0
  6
Continuous
 62
     7
370
    15
100
AcDbSpline
210
0.0
220
0.0
230
1.0
 70
     8
 71
     3
 72
    10
 73
     6
 74
     0
 42
0.00000001
 43
0.00000001
 40
0.0
 40
0.0
 40
0.0
 40
0.0
 40
0.5
 40
0.5
 40
1.0
 40
1.0
 40
1.0
 40
1.0
 10
159.1455309534288
 20
82.15815001876196
 30
0.0
 10
159.1455309534288
 20
81.9982627505683
 30
0.0
 10
159.084221302193
 20
81.8371354950537
 30
0.0
 10
158.8651216646579
 20
81.60303649669886
 30
0.0
 10
158.7070734583444
 20
81.53150972310765
 30
0.0
 10
158.5455309534288
 20
81.53150972310765
 30
0.0
  0
SPLINE
  5
79
330
1F
100
AcDbEntity
  8
0
  6
Continuous
 62
     7
370
    15
100
AcDbSpline
210
0.0
220
0.0
230
1.0
 70
    24
 71
     3
 72
    12
 73
     8
 74
     0
 42
0.00000001
 43
0.00000001
 40
0.0
 40
0.0
 40
0.0
 40
0.0
 40
0.2500000000000033
 40
0.2500000000000033
 40
0.5000000000000067
 40
0.5000000000000067
 40
1.0
 40
1.0
 40
1.0
 40
1.0
 10
158.5455309534288
 20
131.5684274193548
 30
0.0
 10
158.6357700211158
 20
131.5684274193548
 30
0.0
 10
158.7266681352223
 20
131.5684274193548
 30
0.0
 10
158.8812651717109
 20
131.5684274193548
 30
0.0
 10
158.946243587819
 20
131.5684274193548
 30
0.0
 10
159.0980786157552
 20
131.5684274193548
 30
0.0
 10
159.1455309534288
 20
131.5684274193548
 30
0.0
 10
159.1455309534288
 20
131.5684274193548
 30
0.0
  0
LINE
  5
7A
330
1F
100
AcDbEntity
  8
0
  6
Continuous
 62
     7
370
    15
100
AcDbLine
 10
158.5455309534
 20
81.5315097231
 30
0.0
 11
154.5874637849
 21
81.5315097231
 31
0.0
  0
LINE
  5
7B
330
1F
100
AcDbEntity
  8
0
  6
Continuous
 62
     7
370
    15
100
AcDbLine
 10
154.5874637849
 20
131.5684274194
 30
0.0
 11
158.5455309534
 21
131.5684274194
 31
0.0
  0
LINE
  5
7C
330
1F
100
AcDbEntity
  8
0
  6
Continuous
 62
     7
370
    15
100
AcDbLine
 10
133.1955309534
 20
80.5184274194
 30
0.0
 11
133.1955309534
 21
142.9184274133
 31
0.0
  0
LINE
  5
7D
330
1F
100
AcDbEntity
  8
0
  6
Continuous
 62
     7
370
    15
100
AcDbLine
 10
149.2855309534
 20
84.2205902603
 30
0.0
 11
149.2855309534
 21
131.5684274194
 31
0.0
  0
SPLINE
  5
7E
330
1F
100
AcDbEntity
  8
0
  6
Continuous
 62
     7
370
    15
100
AcDbSpline
210
0.0
220
0.0
230
1.0
 70
     8
 71
     3
 72
     8
 73
     4
 74
     0
 42
0.00000001
 43
0.00000001
 40
0.0
 40
0.0
 40
0.0
 40
0.0
 40
1.0
 40
1.0
 40
1.0
 40
1.0
 10
149.2855309534288
 20
84.22059026029994
 30
0.0
 10
148.7931918306476
 20
83.32332022609324
 30
0.0
 10
148.2990777826055
 20
82.427035811041
 30
0.0
 10
147.8035981219398
 20
81.53150972310765
 30
0.0
  0
SPLINE
  5
7F
330
1F
100
AcDbEntity
  8
0
  6
Continuous
 62
     7
370
    15
100
AcDbSpline
210
0.0
220
0.0
230
1.0
 70
    24
 71
     3
 72
     8
 73
     4
 74
     0
 42
0.00000001
 43
0.00000001
 40
0.0
 40
0.0
 40
0.0
 40
0.0
 40
1.0
 40
1.0
 40
1.0
 40
1.0
 10
147.8035981219398
 20
131.5684274193548
 30
0.0
 10
148.3102782300903
 20
131.5684274193548
 30
0.0
 10
148.8055789590639
 20
131.5684274193548
 30
0.0
 10
149.2855309534288
 20
131.5684274193548
 30
0.0
  0
ARC
  5
80
330
1F
100
AcDbEntity
  8
0
  6
Continuous
 62
     7
370
    15
100
AcDbCircle
 10
141.1959704434
 20
123.6195471075
 30
0.0
 40
4.11351562594736
100
AcDbArc
 50
19.9276889788
 51
160.2671456463
  0
SPLINE
  5
81
330
1F
100
AcDbEntity
  8
0
  6
Continuous
 62
     7
370
    15
100
AcDbSpline
210
0.0
220
0.0
230
1.0
 70
    24
 71
     3
 72
    14
 73
    10
 74
     0
 42
0.00000001
 43
0.00000001
 40
0.0
 40
0.0
 40
0.0
 40
0.0
 40
0.5000000000000013
 40
0.5000000000000013
 40
0.750000000000002
 40
0.750000000000002
 40
0.875000000000001
 40
0.875000000000001
 40
1.0
 40
1.0
 40
1.0
 40
1.0
 10
153.0078561510965
 20
85.3184274193548
 30
0.0
 10
152.9610714460483
 20
85.3184274193548
 30
0.0
 10
152.8990202492687
 20
85.31842741935482
 30
0.0
 10
152.7556286107181
 20
85.3184274193548
 30
0.0
 10
152.6994849571669
 20
85.3184274193548
 30
0.0
 10
152.5865339350307
 20
85.3184274193548
 30
0.0
 10
152.5435331729926
 20
85.3184274193548
 30
0.0
 10
152.4394704626861
 20
85.3184274193548
 30
0.0
 10
152.3741382243292
 20
85.31842741935482
 30
0.0
 10
152.3055309534288
 20
85.3184274193548
 30
0.0
  0
SPLINE
  5
82
330
1F
100
AcDbEntity
  8
0
  6
Continuous
 62
     7
370
    15
100
AcDbSpline
210
0.0
220
0.0
230
1.0
 70
    24
 71
     3
 72
    12
 73
     8
 74
     0
 42
0.00000001
 43
0.00000001
 40
0.0
 40
0.0
 40
0.0
 40
0.0
 40
0.5000000000000017
 40
0.5000000000000017
 40
0.7500000000000008
 40
0.7500000000000008
 40
1.0
 40
1.0
 40
1.0
 40
1.0
 10
152.7112334217378
 20
138.1184274193548
 30
0.0
 10
152.6681478721269
 20
138.1184274193548
 30
0.0
 10
152.6189956703776
 20
138.1184274193548
 30
0.0
 10
152.5225230760897
 20
138.1184274193548
 30
0.0
 10
152.4864214909551
 20
138.1184274193548
 30
0.0
 10
152.4033157330938
 20
138.1184274193548
 30
0.0
 10
152.3553191361275
 20
138.1184274193548
 30
0.0
 10
152.3055309534288
 20
138.1184274193548
 30
0.0
  0
SPLINE
  5
83
330
1F
100
AcDbEntity
  8
0
  6
Continuous
 62
     7
370
    15
100
AcDbSpline
210
0.0
220
0.0
230
1.0
 70
     8
 71
     3
 72
    10
 73
     6
 74
     0
 42
0.00000001
 43
0.00000001
 40
0.0
 40
0.0
 40
0.0
 40
0.0
 40
0.5
 40
0.5
 40
1.0
 40
1.0
 40
1.0
 40
1.0
 10
153.1055309534288
 20
138.8380812703906
 30
0.0
 10
153.1055309534288
 20
138.6943112125726
 30
0.0
 10
153.0694818947099
 20
138.5518918500774
 30
0.0
 10
152.9339730339359
 20
138.3019975567202
 30
0.0
 10
152.8340970408397
 20
138.193967220472
 30
0.0
 10
152.7112334217378
 20
138.1184274193548
 30
0.0
  0
SPLINE
  5
84
330
1F
100
AcDbEntity
  8
0
  6
Continuous
 62
     7
370
    15
100
AcDbSpline
210
0.0
220
0.0
230
1.0
 70
     8
 71
     3
 72
    10
 73
     6
 74
     0
 42
0.00000001
 43
0.00000001
 40
0.0
 40
0.0
 40
0.0
 40
0.0
 40
0.5
 40
0.5
 40
1.0
 40
1.0
 40
1.0
 40
1.0
 10
153.0793833302687
 20
131.5684274193548
 30
0.0
 10
153.0880729731803
 20
131.615306268673
 30
0.0
 10
153.0946120379308
 20
131.6627287340742
 30
0.0
 10
153.1033706723238
 20
131.758665532661
 30
0.0
 10
153.1055309534288
 20
131.8065808206715
 30
0.0
 10
153.1055309534288
 20
131.854294050816
 30
0.0
  0
SPLINE
  5
85
330
1F
100
AcDbEntity
  8
0
  6
Continuous
 62
     7
370
    15
100
AcDbSpline
210
0.0
220
0.0
230
1.0
 70
     8
 71
     3
 72
    10
 73
     6
 74
     0
 42
0.00000001
 43
0.00000001
 40
0.0
 40
0.0
 40
0.0
 40
0.0
 40
0.5
 40
0.5
 40
1.0
 40
1.0
 40
1.0
 40
1.0
 10
149.6798284851197
 20
138.1184274193548
 30
0.0
 10
149.5582882214512
 20
138.1931535865666
 30
0.0
 10
149.4569538611023
 20
138.3020986024833
 30
0.0
 10
149.3213149182139
 20
138.5525290832449
 30
0.0
 10
149.2855309534288
 20
138.6949484453439
 30
0.0
 10
149.2855309534288
 20
138.8380812703906
 30
0.0
  0
SPLINE
  5
86
330
1F
100
AcDbEntity
  8
0
  6
Continuous
 62
     7
370
    15
100
AcDbSpline
210
0.0
220
0.0
230
1.0
 70
    24
 71
     3
 72
    12
 73
     8
 74
     0
 42
0.00000001
 43
0.00000001
 40
0.0
 40
0.0
 40
0.0
 40
0.0
 40
0.2500000000000037
 40
0.2500000000000037
 40
0.5000000000000074
 40
0.5000000000000074
 40
1.0
 40
1.0
 40
1.0
 40
1.0
 10
150.0855309534288
 20
138.1184274193548
 30
0.0
 10
150.0356542711114
 20
138.1184274193548
 30
0.0
 10
149.9876510777078
 20
138.1184274193548
 30
0.0
 10
149.9046029749958
 20
138.1184274193548
 30
0.0
 10
149.868473395528
 20
138.1184274193548
 30
0.0
 10
149.7725613645837
 20
138.1184274193548
 30
0.0
 10
149.7228026966149
 20
138.1184274193548
 30
0.0
 10
149.6798284851197
 20
138.1184274193548
 30
0.0
  0
SPLINE
  5
87
330
1F
100
AcDbEntity
  8
0
  6
Continuous
 62
     7
370
    15
100
AcDbSpline
210
0.0
220
0.0
230
1.0
 70
    24
 71
     3
 72
    14
 73
    10
 74
     0
 42
0.00000001
 43
0.00000001
 40
0.0
 40
0.0
 40
0.0
 40
0.0
 40
0.1249999999999991
 40
0.1249999999999991
 40
0.2499999999999982
 40
0.2499999999999982
 40
0.4999999999999998
 40
0.4999999999999998
 40
1.0
 40
1.0
 40
1.0
 40
1.0
 10
150.0855309534288
 20
85.3184274193548
 30
0.0
 10
150.0170931055423
 20
85.3184274193548
 30
0.0
 10
149.9515430667773
 20
85.31842741935482
 30
0.0
 10
149.8471164273693
 20
85.31842741935482
 30
0.0
 10
149.8045718176079
 20
85.31842741935482
 30
0.0
 10
149.6919623570677
 20
85.3184274193548
 30
0.0
 10
149.6364233100482
 20
85.3184274193548
 30
0.0
 10
149.4938116145844
 20
85.3184274193548
 30
0.0
 10
149.4304062595886
 20
85.3184274193548
 30
0.0
 10
149.3832057557611
 20
85.3184274193548
 30
0.0
  0
SPLINE
  5
88
330
1F
100
AcDbEntity
  8
0
  6
Continuous
 62
     7
370
    15
100
AcDbSpline
210
0.0
220
0.0
230
1.0
 70
     8
 71
     3
 72
    10
 73
     6
 74
     0
 42
0.00000001
 43
0.00000001
 40
0.0
 40
0.0
 40
0.0
 40
0.0
 40
0.5
 40
0.5
 40
1.0
 40
1.0
 40
1.0
 40
1.0
 10
149.2855309534288
 20
131.8542940508162
 30
0.0
 10
149.2855309534288
 20
131.8065225428229
 30
0.0
 10
149.287692197026
 20
131.7588128207612
 30
0.0
 10
149.2963635708861
 20
131.6635177032129
 30
0.0
 10
149.3028927538421
 20
131.6158251392463
 30
0.0
 10
149.3116785765889
 20
131.5684274193548
 30
0.0
  0
LINE
  5
89
330
1F
100
AcDbEntity
  8
0
  6
Continuous
 62
     7
370
    15
100
AcDbLine
 10
152.3055309534
 20
138.1184274194
 30
0.0
 11
150.0855309534
 21
138.1184274194
 31
0.0
  0
LINE
  5
8A
330
1F
100
AcDbEntity
  8
0
  6
Continuous
 62
     7
370
    15
100
AcDbLine
 10
152.3055309534
 20
85.3184274194
 30
0.0
 11
150.0855309534
 21
85.3184274194
 31
0.0
  0
LINE
  5
8B
330
1F
100
AcDbEntity
  8
0
  6
Continuous
 62
     7
370
    15
100
AcDbLine
 10
131.1955309534
 20
87.4979965576
 30
0.0
 11
131.1955309534
 21
135.9388582811
 31
0.0
  0
LINE
  5
8C
330
1F
100
AcDbEntity
  8
0
  6
Continuous
 62
     7
370
    15
100
AcDbLine
 10
111.3955309534
 20
88.4899805256
 30
0.0
 11
111.3955309534
 21
89.7546898882
 31
0.0
  0
SPLINE
  5
8D
330
1F
100
AcDbEntity
  8
0
  6
Continuous
 62
     7
370
    15
100
AcDbSpline
210
0.0
220
0.0
230
1.0
 70
     8
 71
     3
 72
    14
 73
    10
 74
     0
 42
0.00000001
 43
0.00000001
 40
0.0
 40
0.0
 40
0.0
 40
0.0
 40
0.25
 40
0.25
 40
0.5
 40
0.5
 40
0.75
 40
0.75
 40
1.0
 40
1.0
 40
1.0
 40
1.0
 10
110.6172438355131
 20
90.88527609579486
 30
0.0
 10
110.6738705107152
 20
90.777578641958
 30
0.0
 10
110.7683931710049
 20
90.67478906023868
 30
0.0
 10
110.9514381465671
 20
90.47643174801853
 30
0.0
 10
111.0430647235219
 20
90.38037223934029
 30
0.0
 10
111.201918041215
 20
90.19284319663105
 30
0.0
 10
111.2698086488367
 20
90.10143422384748
 30
0.0
 10
111.3667256745443
 20
89.92305800293732
 30
0.0
 10
111.3955309534294
 20
89.83583609669115
 30
0.0
 10
111.3955309534294
 20
89.7546898881569
 30
0.0
  0
SPLINE
  5
8E
330
1F
100
AcDbEntity
  8
0
  6
Continuous
 62
     7
370
    15
100
AcDbSpline
210
0.0
220
0.0
230
1.0
 70
     8
 71
     3
 72
    14
 73
    10
 74
     0
 42
0.00000001
 43
0.00000001
 40
0.0
 40
0.0
 40
0.0
 40
0.0
 40
0.1249999999999975
 40
0.1249999999999975
 40
0.249999999999995
 40
0.249999999999995
 40
0.4999999999999953
 40
0.4999999999999953
 40
1.0
 40
1.0
 40
1.0
 40
1.0
 10
109.9955309534288
 20
91.33195795807418
 30
0.0
 10
110.044075362086
 20
91.33770627135448
 30
0.0
 10
110.0969907168709
 20
91.33460538269823
 30
0.0
 10
110.1922860618539
 20
91.3124105385359
 30
0.0
 10
110.2325370591389
 20
91.29517831144004
 30
0.0
 10
110.3368070726518
 20
91.23885039498798
 30
0.0
 10
110.3871290478052
 20
91.19466404904219
 30
0.0
 10
110.5148119953305
 20
91.06365615019156
 30
0.0
 10
110.5708974423928
 20
90.97342162996127
 30
0.0
 10
110.6172438355146
 20
90.88527609579539
 30
0.0
  0
SPLINE
  5
8F
330
1F
100
AcDbEntity
  8
0
  6
Continuous
 62
     7
370
    15
100
AcDbSpline
210
0.0
220
0.0
230
1.0
 70
     8
 71
     3
 72
     8
 73
     4
 74
     0
 42
0.00000001
 43
0.00000001
 40
0.0
 40
0.0
 40
0.0
 40
0.0
 40
1.0
 40
1.0
 40
1.0
 40
1.0
 10
107.7270058604826
 20
91.0221126714914
 30
0.0
 10
108.4615828869655
 20
91.14073768256034
 30
0.0
 10
109.2250579563612
 20
91.24072355469661
 30
0.0
 10
109.9955309534288
 20
91.33195795807417
 30
0.0
  0
SPLINE
  5
90
330
1F
100
AcDbEntity
  8
0
  6
Continuous
 62
     7
370
    15
100
AcDbSpline
210
0.0
220
0.0
230
1.0
 70
     8
 71
     3
 72
    14
 73
    10
 74
     0
 42
0.00000001
 43
0.00000001
 40
0.0
 40
0.0
 40
0.0
 40
0.0
 40
0.500000000000001
 40
0.500000000000001
 40
0.7500000000000004
 40
0.7500000000000004
 40
0.8750000000000003
 40
0.8750000000000003
 40
1.0
 40
1.0
 40
1.0
 40
1.0
 10
102.4455309534288
 20
90.84848965395973
 30
0.0
 10
103.3376770839824
 20
90.8477674277591
 30
0.0
 10
104.227653519776
 20
90.85235363421656
 30
0.0
 10
105.5542486868516
 20
90.88007863860808
 30
0.0
 10
105.9950956153503
 20
90.89268517623225
 30
0.0
 10
106.6515358527727
 20
90.92370132423972
 30
0.0
 10
106.8695495093646
 20
90.93604449686649
 30
0.0
 10
107.3022583630474
 20
90.96906855202977
 30
0.0
 10
107.5175348282122
 20
90.9882857171682
 30
0.0
 10
107.7270058604826
 20
91.0221126714914
 30
0.0
  0
SPLINE
  5
91
330
1F
100
AcDbEntity
  8
0
  6
Continuous
 62
     7
370
    15
100
AcDbSpline
210
0.0
220
0.0
230
1.0
 70
     8
 71
     3
 72
     8
 73
     4
 74
     0
 42
0.00000001
 43
0.00000001
 40
0.0000005163856998
 40
0.0000005163856998
 40
0.0000005163856998
 40
0.0000005163856998
 40
0.000026289209185
 40
0.000026289209185
 40
0.000026289209185
 40
0.000026289209185
 10
102.4354860230212
 20
90.85847352705652
 30
0.0
 10
102.438813761229
 20
90.8551392801874
 30
0.0
 10
102.4421622142046
 20
90.85181132291208
 30
0.0
 10
102.4455309534288
 20
90.84848965395972
 30
0.0
  0
SPLINE
  5
92
330
1F
100
AcDbEntity
  8
0
  6
Continuous
 62
     7
370
    15
100
AcDbSpline
210
0.0
220
0.0
230
1.0
 70
     8
 71
     3
 72
     8
 73
     4
 74
     0
 42
0.00000001
 43
0.00000001
 40
0.0000005099763573
 40
0.0000005099763573
 40
0.0000005099763573
 40
0.0000005099763573
 40
0.0000262827998699
 40
0.0000262827998699
 40
0.0000262827998699
 40
0.0000262827998699
 10
102.4455309534288
 20
132.5883651847499
 30
0.0
 10
102.442162214201
 20
132.585043515794
 30
0.0
 10
102.4388137612219
 20
132.5817155585151
 30
0.0
 10
102.4354860230106
 20
132.5783813116425
 30
0.0
  0
SPLINE
  5
93
330
1F
100
AcDbEntity
  8
0
  6
Continuous
 62
     7
370
    15
100
AcDbSpline
210
0.0
220
0.0
230
1.0
 70
     8
 71
     3
 72
    10
 73
     6
 74
     0
 42
0.00000001
 43
0.00000001
 40
0.0
 40
0.0
 40
0.0
 40
0.0
 40
0.5
 40
0.5
 40
1.0
 40
1.0
 40
1.0
 40
1.0
 10
105.9955309534288
 20
132.5415148111825
 30
0.0
 10
105.4079454063382
 20
132.562580331419
 30
0.0
 10
104.8171990128778
 20
132.5733388172912
 30
0.0
 10
103.633179847579
 20
132.5867035978268
 30
0.0
 10
103.0397658593735
 20
132.5888462404914
 30
0.0
 10
102.4455309534288
 20
132.5883651847499
 30
0.0
  0
SPLINE
  5
94
330
1F
100
AcDbEntity
  8
0
  6
Continuous
 62
     7
370
    15
100
AcDbSpline
210
0.0
220
0.0
230
1.0
 70
     8
 71
     3
 72
    18
 73
    14
 74
     0
 42
0.00000001
 43
0.00000001
 40
0.0
 40
0.0
 40
0.0
 40
0.0
 40
0.2500000000000009
 40
0.2500000000000009
 40
0.500000000000001
 40
0.500000000000001
 40
0.7500000000000011
 40
0.7500000000000011
 40
0.875000000000001
 40
0.875000000000001
 40
0.9375000000000006
 40
0.9375000000000006
 40
1.0
 40
1.0
 40
1.0
 40
1.0
 10
107.3955309534288
 20
133.5625350917178
 30
0.0
 10
107.3955309534288
 20
133.4793281828606
 30
0.0
 10
107.3596818534905
 20
133.390591527547
 30
0.0
 10
107.2348101174566
 20
133.2084663369868
 30
0.0
 10
107.1444096998087
 20
133.1133362883602
 30
0.0
 10
106.9221670450666
 20
132.9241547792359
 30
0.0
 10
106.7924022586208
 20
132.8292096111412
 30
0.0
 10
106.5517648013093
 20
132.6909309035612
 30
0.0
 10
106.4639975031718
 20
132.6452204702588
 30
0.0
 10
106.309473415965
 20
132.5873971650374
 30
0.0
 10
106.2528625299103
 20
132.5696824009995
 30
0.0
 10
106.1288184990037
 20
132.5451430977666
 30
0.0
 10
106.0611038239854
 20
132.5391639592283
 30
0.0
 10
105.9955309534288
 20
132.5415148111825
 30
0.0
  0
LINE
  5
95
330
1F
100
AcDbEntity
  8
0
  6
Continuous
 62
     7
370
    15
100
AcDbLine
 10
107.3955309534
 20
133.5625350917
 30
0.0
 11
107.3955309534
 21
134.7464735115
 31
0.0
  0
SPLINE
  5
96
330
1F
100
AcDbEntity
  8
0
  6
Continuous
 62
     7
370
    15
100
AcDbSpline
210
0.0
220
0.0
230
1.0
 70
     8
 71
     3
 72
    24
 73
    20
 74
     0
 42
0.00000001
 43
0.00000001
 40
0.0
 40
0.0
 40
0.0
 40
0.0
 40
0.0010489762969682
 40
0.0637843125639766
 40
0.1272220590447888
 40
0.1903788924487598
 40
0.252674865369363
 40
0.3146354154424954
 40
0.377089199714964
 40
0.4393540298504154
 40
0.5008133242537826
 40
0.562184510458698
 40
0.624843845111553
 40
0.6874304766616532
 40
0.7496743174679398
 40
0.8119848426977657
 40
0.8750960525413161
 40
0.9384412526965076
 40
0.9999999999999999
 40
0.9999999999999999
 40
0.9999999999999999
 40
0.9999999999999999
 10
119.9644367854045
 20
88.06091899077467
 30
0.0
 10
119.9639903253003
 20
88.06086070495577
 30
0.0
 10
119.9368427616065
 20
88.05731656301325
 30
0.0
 10
120.0324545392202
 20
88.070150307696
 30
0.0
 10
120.2660147971146
 20
88.09939699289617
 30
0.0
 10
120.6615691044319
 20
88.14601131595902
 30
0.0
 10
121.1886094082694
 20
88.19619445761836
 30
0.0
 10
121.8321398202592
 20
88.24057092006798
 30
0.0
 10
122.5708136754983
 20
88.26751570100619
 30
0.0
 10
123.3683281809316
 20
88.27098755171298
 30
0.0
 10
124.1949070633743
 20
88.24336030768274
 30
0.0
 10
125.0204300809851
 20
88.1848814187094
 30
0.0
 10
125.8125566289863
 20
88.09943638934934
 30
0.0
 10
126.5451289029922
 20
87.997702149513
 30
0.0
 10
127.1807691397202
 20
87.88985902754004
 30
0.0
 10
127.7026802467297
 20
87.78822887080095
 30
0.0
 10
128.0843090238452
 20
87.70574371412272
 30
0.0
 10
128.335123494079
 20
87.6495945077731
 30
0.0
 10
128.3642450500633
 20
87.64274504915934
 30
0.0
 10
128.3785975708795
 20
87.63936930243119
 30
0.0
  0
SPLINE
  5
97
330
1F
100
AcDbEntity
  8
0
  6
Continuous
 62
     7
370
    15
100
AcDbSpline
210
0.0
220
0.0
230
1.0
 70
     8
 71
     3
 72
    24
 73
    20
 74
     0
 42
0.00000001
 43
0.00000001
 40
0.0
 40
0.0
 40
0.0
 40
0.0
 40
0.0614384276250176
 40
0.1250736755369651
 40
0.1884253490729237
 40
0.2508623904037427
 40
0.3129665632511172
 40
0.3753451453465143
 40
0.4377328972324873
 40
0.4990927322917189
 40
0.5605807588447405
 40
0.6229469893028771
 40
0.6854686282025979
 40
0.7475477813740068
 40
0.8098225060804932
 40
0.8730684085990272
 40
0.9364041844536292
 40
0.9991757196257863
 40
1.0
 40
1.0
 40
1.0
 40
1.0
 10
128.3785428000766
 20
135.7974563938122
 30
0.0
 10
128.3639420757731
 20
135.7940883369596
 30
0.0
 10
128.3342185570451
 20
135.7872317934858
 30
0.0
 10
128.0814807413965
 20
135.7308931729599
 30
0.0
 10
127.6984848249469
 20
135.6480360908299
 30
0.0
 10
127.1761292405098
 20
135.5461290608786
 30
0.0
 10
126.5413447625099
 20
135.4382899218348
 30
0.0
 10
125.8111211583372
 20
135.3368229698597
 30
0.0
 10
125.0206525731032
 20
135.251763256169
 30
0.0
 10
124.1961690582751
 20
135.1935589622826
 30
0.0
 10
123.3691325993916
 20
135.1659755234559
 30
0.0
 10
122.5708083317399
 20
135.1694685009488
 30
0.0
 10
121.8309843674506
 20
135.1964244208019
 30
0.0
 10
121.1867301344755
 20
135.2407783628011
 30
0.0
 10
120.6593228792595
 20
135.290983812559
 30
0.0
 10
120.2646582771093
 20
135.3375936677574
 30
0.0
 10
120.032128997921
 20
135.3667892603048
 30
0.0
 10
119.9367489653725
 20
135.379567329246
 30
0.0
 10
119.9636826022734
 20
135.3760130707382
 30
0.0
 10
119.9640316954977
 20
135.3759670031549
 30
0.0
  0
SPLINE
  5
98
330
1F
100
AcDbEntity
  8
0
  6
Continuous
 62
     7
370
    15
100
AcDbSpline
210
0.0
220
0.0
230
1.0
 70
     8
 71
     3
 72
    10
 73
     6
 74
     0
 42
0.00000001
 43
0.00000001
 40
0.0
 40
0.0
 40
0.0
 40
0.0
 40
0.0840381716606348
 40
0.7011125076933074
 40
1.0
 40
1.0
 40
1.0
 40
1.0
 10
101.3090779159645
 20
91.98965351167148
 30
0.0
 10
101.3097524732994
 20
91.98744788483557
 30
0.0
 10
101.3153801609956
 20
91.96904681147336
 30
0.0
 10
101.3417016411224
 20
91.98328137419654
 30
0.0
 10
101.3541366579671
 20
92.02896714974753
 30
0.0
 10
101.3581943281522
 20
92.04387487457407
 30
0.0
  0
LINE
  5
99
330
1F
100
AcDbEntity
  8
0
  6
Continuous
 62
     7
370
    15
100
AcDbLine
 10
101.2955309534
 20
92.0277496729
 30
0.0
 11
101.2955309534
 21
131.4091051658
 31
0.0
  0
SPLINE
  5
9A
330
1F
100
AcDbEntity
  8
0
  6
Continuous
 62
     7
370
    15
100
AcDbSpline
210
0.0
220
0.0
230
1.0
 70
     8
 71
     3
 72
    10
 73
     6
 74
     0
 42
0.00000001
 43
0.00000001
 40
0.0
 40
0.0
 40
0.0
 40
0.0
 40
0.5
 40
0.5
 40
1.0
 40
1.0
 40
1.0
 40
1.0
 10
101.3581943281522
 20
131.3929799641355
 30
0.0
 10
101.3492900390435
 20
131.4387214833487
 30
0.0
 10
101.3327746588505
 20
131.4559123228177
 30
0.0
 10
101.3056667127889
 20
131.455589045882
 30
0.0
 10
101.2955309534288
 20
131.4377115035856
 30
0.0
 10
101.2955309534288
 20
131.409105165833
 30
0.0
  0
SPLINE
  5
9B
330
1F
100
AcDbEntity
  8
0
  6
Continuous
 62
     7
370
    15
100
AcDbSpline
210
0.0
220
0.0
230
1.0
 70
     8
 71
     3
 72
    26
 73
    22
 74
     0
 42
0.00000001
 43
0.00000001
 40
0.0
 40
0.0
 40
0.0
 40
0.0
 40
0.2500000000000165
 40
0.2500000000000165
 40
0.3750000000000256
 40
0.3750000000000256
 40
0.4375000000000291
 40
0.4375000000000291
 40
0.4687500000000291
 40
0.4687500000000291
 40
0.5000000000000292
 40
0.5000000000000292
 40
0.5312500000000293
 40
0.5312500000000293
 40
0.5625000000000293
 40
0.5625000000000293
 40
0.625000000000026
 40
0.625000000000026
 40
0.7500000000000173
 40
0.7500000000000173
 40
1.0
 40
1.0
 40
1.0
 40
1.0
 10
102.1196845995333
 20
132.1085467529526
 30
0.0
 10
102.0810840766648
 20
131.9907720565972
 30
0.0
 10
102.0347870741106
 20
131.8663823704353
 30
0.0
 10
101.9408477256767
 20
131.6611630380818
 30
0.0
 10
101.9055362587632
 20
131.5895901716354
 30
0.0
 10
101.8393562830175
 20
131.4736369390349
 30
0.0
 10
101.8148179163493
 20
131.4330524042246
 30
0.0
 10
101.7714451707955
 20
131.3689107223529
 30
0.0
 10
101.7559367693703
 20
131.3470442970679
 30
0.0
 10
101.7208941247833
 20
131.3014500287247
 30
0.0
 10
101.7013438340635
 20
131.2777797377572
 30
0.0
 10
101.6594165536929
 20
131.2331631784173
 30
0.0
 10
101.6367644434613
 20
131.2122831658994
 30
0.0
 10
101.5957907293746
 20
131.1814097521486
 30
0.0
 10
101.5781914294792
 20
131.1715708823162
 30
0.0
 10
101.5335644436231
 20
131.15258126662
 30
0.0
 10
101.5130052209697
 20
131.1522569419666
 30
0.0
 10
101.4618797814731
 20
131.1614803828428
 30
0.0
 10
101.4409683684845
 20
131.1827272790597
 30
0.0
 10
101.3895184609236
 20
131.2566961578905
 30
0.0
 10
101.371853161619
 20
131.3228142512053
 30
0.0
 10
101.3581943281522
 20
131.3929799641355
 30
0.0
  0
SPLINE
  5
9C
330
1F
100
AcDbEntity
  8
0
  6
Continuous
 62
     7
370
    15
100
AcDbSpline
210
0.0
220
0.0
230
1.0
 70
     8
 71
     3
 72
    10
 73
     6
 74
     0
 42
0.00000001
 43
0.00000001
 40
0.0
 40
0.0
 40
0.0
 40
0.0
 40
0.5
 40
0.5
 40
1.0
 40
1.0
 40
1.0
 40
1.0
 10
102.4354860230106
 20
132.5783813116425
 30
0.0
 10
102.3679267680923
 20
132.5106899188327
 30
0.0
 10
102.3042901127559
 20
132.435982754079
 30
0.0
 10
102.194069358184
 20
132.2770166216524
 30
0.0
 10
102.1472530649614
 20
132.1926613556444
 30
0.0
 10
102.1196845995333
 20
132.1085467529526
 30
0.0
  0
SPLINE
  5
9D
330
1F
100
AcDbEntity
  8
0
  6
Continuous
 62
     7
370
    15
100
AcDbSpline
210
0.0
220
0.0
230
1.0
 70
     8
 71
     3
 72
    10
 73
     6
 74
     0
 42
0.00000001
 43
0.00000001
 40
0.0
 40
0.0
 40
0.0
 40
0.0
 40
0.5
 40
0.5
 40
1.0
 40
1.0
 40
1.0
 40
1.0
 10
102.1196845995334
 20
91.32830808575685
 30
0.0
 10
102.1471620142873
 20
91.24447128928895
 30
0.0
 10
102.1938706445767
 20
91.1601608016998
 30
0.0
 10
102.3041491073227
 20
91.00103957121311
 30
0.0
 10
102.3680366459366
 20
90.92605482712347
 30
0.0
 10
102.4354860230212
 20
90.85847352705652
 30
0.0
  0
SPLINE
  5
9E
330
1F
100
AcDbEntity
  8
0
  6
Continuous
 62
     7
370
    15
100
AcDbSpline
210
0.0
220
0.0
230
1.0
 70
     8
 71
     3
 72
    24
 73
    20
 74
     0
 42
0.00000001
 43
0.00000001
 40
0.0
 40
0.0
 40
0.0
 40
0.0
 40
0.25
 40
0.25
 40
0.374999999999999
 40
0.374999999999999
 40
0.4374999999999993
 40
0.4374999999999993
 40
0.4687499999999994
 40
0.4687499999999994
 40
0.4999999999999995
 40
0.4999999999999995
 40
0.5624999999999971
 40
0.5624999999999971
 40
0.6249999999999947
 40
0.6249999999999947
 40
0.7499999999999947
 40
0.7499999999999947
 40
1.0
 40
1.0
 40
1.0
 40
1.0
 10
101.3581943281522
 20
92.04387487457407
 30
0.0
 10
101.3719474468224
 20
92.11452493256436
 30
0.0
 10
101.3897200142283
 20
92.18112304532927
 30
0.0
 10
101.4419711057837
 20
92.25522106556248
 30
0.0
 10
101.4630061813652
 20
92.27647887272404
 30
0.0
 10
101.5159065889936
 20
92.28462479887028
 30
0.0
 10
101.5370122618716
 20
92.28368499547452
 30
0.0
 10
101.5830644305495
 20
92.26266900389716
 30
0.0
 10
101.6014349025329
 20
92.25176019778955
 30
0.0
 10
101.6429865375986
 20
92.21912528684217
 30
0.0
 10
101.6655532103555
 20
92.19763330647082
 30
0.0
 10
101.7283342268156
 20
92.1291673628845
 30
0.0
 10
101.7614639877835
 20
92.0830929046794
 30
0.0
 10
101.8183816742685
 20
91.99808501634473
 30
0.0
 10
101.8425676997722
 20
91.95780471516335
 30
0.0
 10
101.907775650152
 20
91.8428684886974
 30
0.0
 10
101.9424917103432
 20
91.7722855035504
 30
0.0
 10
102.0357069806741
 20
91.5680797444718
 30
0.0
 10
102.0813795160348
 20
91.44518136214444
 30
0.0
 10
102.1196845995333
 20
91.32830808575687
 30
0.0
  0
SPLINE
  5
9F
330
1F
100
AcDbEntity
  8
0
  6
Continuous
 62
     7
370
    15
100
AcDbSpline
210
0.0
220
0.0
230
1.0
 70
     8
 71
     3
 72
    10
 73
     6
 74
     0
 42
0.00000001
 43
0.00000001
 40
0.0
 40
0.0
 40
0.0
 40
0.0
 40
0.5
 40
0.5
 40
1.0
 40
1.0
 40
1.0
 40
1.0
 10
159.1455309534288
 20
141.5648677431187
 30
0.0
 10
159.1455309534288
 20
141.7252730094695
 30
0.0
 10
159.0832931223219
 20
141.8843348224581
 30
0.0
 10
158.8641581985794
 20
142.1152472880885
 30
0.0
 10
158.7065695035875
 20
142.1856228925191
 30
0.0
 10
158.5455309534288
 20
142.1856228925191
 30
0.0
  0
SPLINE
  5
A0
330
1F
100
AcDbEntity
  8
0
  6
Continuous
 62
     7
370
    15
100
AcDbSpline
210
0.0
220
0.0
230
1.0
 70
     8
 71
     3
 72
    12
 73
     8
 74
     0
 42
0.00000001
 43
0.00000001
 40
0.0
 40
0.0
 40
0.0
 40
0.0
 40
0.250000000000002
 40
0.250000000000002
 40
0.500000000000004
 40
0.500000000000004
 40
1.0
 40
1.0
 40
1.0
 40
1.0
 10
158.5455309534288
 20
136.1771170817223
 30
0.0
 10
158.6367306752545
 20
136.1771170817223
 30
0.0
 10
158.7273256843905
 20
136.1488973831344
 30
0.0
 10
158.8807384108371
 20
136.0544543758863
 30
0.0
 10
158.9459472781608
 20
135.988167399181
 30
0.0
 10
159.0987318075007
 20
135.7625425758927
 30
0.0
 10
159.1455309534288
 20
135.5801163128601
 30
0.0
 10
159.1455309534288
 20
135.3993796806132
 30
0.0
  0
LINE
  5
A1
330
1F
100
AcDbEntity
  8
0
  6
Continuous
 62
     7
370
    15
100
AcDbLine
 10
159.1455309534
 20
135.3993796806
 30
0.0
 11
159.1455309534
 21
141.5648677431
 31
0.0
  0
LINE
  5
A2
330
1F
100
AcDbEntity
  8
0
  6
Continuous
 62
     7
370
    15
100
AcDbLine
 10
158.5455309534
 20
142.1856228925
 30
0.0
 11
154.5874637849
 21
142.1856228925
 31
0.0
  0
LINE
  5
A3
330
1F
100
AcDbEntity
  8
0
  6
Continuous
 62
     7
370
    15
100
AcDbLine
 10
154.5874637849
 20
136.1771170817
 30
0.0
 11
158.5455309534
 21
136.1771170817
 31
0.0
  0
LINE
  5
A4
330
1F
100
AcDbEntity
  8
0
  6
Continuous
 62
     7
370
    15
100
AcDbLine
 10
154.5874637849
 20
136.1771170817
 30
0.0
 11
154.5874637849
 21
142.1856228925
 31
0.0
  0
SPLINE
  5
A5
330
1F
100
AcDbEntity
  8
0
  6
Continuous
 62
     7
370
    15
100
AcDbSpline
210
0.0
220
0.0
230
1.0
 70
     8
 71
     3
 72
     8
 73
     4
 74
     0
 42
0.00000001
 43
0.00000001
 40
0.0
 40
0.0
 40
0.0
 40
0.0
 40
1.0
 40
1.0
 40
1.0
 40
1.0
 10
153.1055309534288
 20
132.7685710869381
 30
0.0
 10
153.5848091040186
 20
133.9095823167907
 30
0.0
 10
154.0803769431586
 20
135.0459667275586
 30
0.0
 10
154.5874637849179
 20
136.1771170817223
 30
0.0
  0
LINE
  5
A6
330
1F
100
AcDbEntity
  8
0
  6
Continuous
 62
     7
370
    15
100
AcDbLine
 10
153.1055309534
 20
131.8542940508
 30
0.0
 11
153.1055309534
 21
132.7685710869
 31
0.0
  0
LINE
  5
A7
330
1F
100
AcDbEntity
  8
0
  6
Continuous
 62
     7
370
    15
100
AcDbLine
 10
159.1455309534
 20
135.3993796806
 30
0.0
 11
159.1455309534
 21
131.5684274194
 31
0.0
  0
SPLINE
  5
A8
330
1F
100
AcDbEntity
  8
0
  6
Continuous
 62
     7
370
    15
100
AcDbSpline
210
0.0
220
0.0
230
1.0
 70
     8
 71
     3
 72
     8
 73
     4
 74
     0
 42
0.00000001
 43
0.00000001
 40
0.0
 40
0.0
 40
0.0
 40
0.0
 40
1.0
 40
1.0
 40
1.0
 40
1.0
 10
154.5874637849179
 20
142.1856228925191
 30
0.0
 10
154.0923237555535
 20
141.2989432443388
 30
0.0
 10
153.5982410502746
 20
140.4116806086528
 30
0.0
 10
153.1055309534288
 20
139.5236616105264
 30
0.0
  0
LINE
  5
A9
330
1F
100
AcDbEntity
  8
0
  6
Continuous
 62
     7
370
    15
100
AcDbLine
 10
153.1055309534
 20
132.7685710869
 30
0.0
 11
153.1055309534
 21
139.5236616105
 31
0.0
  0
SPLINE
  5
AA
330
1F
100
AcDbEntity
  8
0
  6
Continuous
 62
     7
370
    15
100
AcDbSpline
210
0.0
220
0.0
230
1.0
 70
     8
 71
     3
 72
     8
 73
     4
 74
     0
 42
0.00000001
 43
0.00000001
 40
0.0
 40
0.0
 40
0.0
 40
0.0
 40
1.0
 40
1.0
 40
1.0
 40
1.0
 10
147.8035981219398
 20
136.1771170817223
 30
0.0
 10
148.310684963699
 20
135.0459667275586
 30
0.0
 10
148.8062528028389
 20
133.9095823167908
 30
0.0
 10
149.2855309534288
 20
132.7685710869382
 30
0.0
  0
LINE
  5
AB
330
1F
100
AcDbEntity
  8
0
  6
Continuous
 62
     7
370
    15
100
AcDbLine
 10
149.2855309534
 20
132.7685710869
 30
0.0
 11
149.2855309534
 21
131.8542940508
 31
0.0
  0
SPLINE
  5
AC
330
1F
100
AcDbEntity
  8
0
  6
Continuous
 62
     7
370
    15
100
AcDbSpline
210
0.0
220
0.0
230
1.0
 70
     8
 71
     3
 72
     8
 73
     4
 74
     0
 42
0.00000001
 43
0.00000001
 40
0.0
 40
0.0
 40
0.0
 40
0.0
 40
1.0
 40
1.0
 40
1.0
 40
1.0
 10
149.2855309534288
 20
139.5236616105264
 30
0.0
 10
148.792820856583
 20
140.4116806086528
 30
0.0
 10
148.2987381513041
 20
141.2989432443388
 30
0.0
 10
147.8035981219398
 20
142.1856228925191
 30
0.0
  0
LINE
  5
AD
330
1F
100
AcDbEntity
  8
0
  6
Continuous
 62
     7
370
    15
100
AcDbLine
 10
149.2855309534
 20
132.7685710869
 30
0.0
 11
149.2855309534
 21
139.5236616105
 31
0.0
  0
ARC
  5
AE
330
1F
100
AcDbEntity
  8
0
  6
Continuous
 62
     7
370
    15
100
AcDbCircle
 10
141.1957499609
 20
130.415947965
 30
0.0
 40
7.256646355660941
100
AcDbArc
 50
70.7833625546
 51
109.2738084064
  0
LINE
  5
AF
330
1F
100
AcDbEntity
  8
0
  6
Continuous
 62
     7
370
    15
100
AcDbLine
 10
213.1955309534
 20
105.642817911
 30
0.0
 11
213.1955309534
 21
117.7940367633
 31
0.0
  0
LINE
  5
B0
330
1F
100
AcDbEntity
  8
0
  6
HIDDEN
 62
     7
370
     0
100
AcDbLine
 10
147.8035981219
 20
136.1771170817
 30
0.0
 11
147.8035981219
 21
131.5684274194
 31
0.0
  0
ARC
  5
B1
330
1F
100
AcDbEntity
  8
0
  6
HIDDEN
 62
     7
370
     0
100
AcDbCircle
 10
141.4798736244
 20
124.2111365266
 30
0.0
 40
3.673814741019614
100
AcDbArc
 50
265.5610324774
 51
12.7441595169
  0
ARC
  5
B2
330
1F
100
AcDbEntity
  8
0
  6
HIDDEN
 62
     7
370
     0
100
AcDbCircle
 10
140.9116466521
 20
124.2122706842
 30
0.0
 40
3.674910060392157
100
AcDbArc
 50
167.4880641152
 51
274.4304738935
  0
LINE
  5
B3
330
1F
100
AcDbEntity
  8
0
  6
HIDDEN
 62
     7
370
     0
100
AcDbLine
 10
121.190681158
 20
88.1938277965
 30
0.0
 11
120.9418163393
 21
88.17056483
 31
0.0
  0
LINE
  5
B4
330
1F
100
AcDbEntity
  8
0
  6
HIDDEN
 62
     7
370
     0
100
AcDbLine
 10
120.8092555781
 20
135.2785137476
 30
0.0
 11
121.1905884377
 21
135.2430104493
 31
0.0
  0
SPLINE
  5
B5
330
1F
100
AcDbEntity
  8
0
  6
HIDDEN
 62
     7
370
     0
100
AcDbSpline
210
0.0
220
0.0
230
1.0
 70
     8
 71
     3
 72
    15
 73
    11
 74
     0
 42
0.00000001
 43
0.00000001
 40
0.0
 40
0.0
 40
0.0
 40
0.0
 40
0.1100634733676295
 40
0.2209010786530317
 40
0.3341664896445957
 40
0.4482663945095116
 40
0.5583528294791724
 40
0.7822323854283246
 40
0.8962861354518198
 40
1.0
 40
1.0
 40
1.0
 40
1.0
 10
126.9505329550304
 20
131.5559558951713
 30
0.0
 10
127.0181269412607
 20
131.5650241492478
 30
0.0
 10
127.1537903363168
 20
131.5832244390052
 30
0.0
 10
127.3342357644557
 20
131.6039454945573
 30
0.0
 10
127.4963845253815
 20
131.6206851790253
 30
0.0
 10
127.6344357228365
 20
131.6332672941867
 30
0.0
 10
127.7860761890625
 20
131.6456460778702
 30
0.0
 10
127.8875234003159
 20
131.6526034636734
 30
0.0
 10
127.9389431429096
 20
131.6559004900103
 30
0.0
 10
127.9428981027444
 20
131.6561458009169
 30
0.0
 10
127.9447816893806
 20
131.6562626325321
 30
0.0
  0
SPLINE
  5
B6
330
1F
100
AcDbEntity
  8
0
  6
HIDDEN
 62
     7
370
     0
100
AcDbSpline
210
0.0
220
0.0
230
1.0
 70
     8
 71
     3
 72
    17
 73
    13
 74
     0
 42
0.00000001
 43
0.00000001
 40
0.0
 40
0.0
 40
0.0
 40
0.0
 40
0.0069672873018476
 40
0.1183103086458422
 40
0.2320673587511869
 40
0.3466591332731054
 40
0.4573781158603664
 40
0.5688695574603297
 40
0.6828050943882709
 40
0.7975902571903241
 40
0.898497503450473
 40
1.0
 40
1.0
 40
1.0
 40
1.0
 10
127.9447769814007
 20
91.7805925035918
 30
0.0
 10
127.9450266193922
 20
91.7805767386735
 30
0.0
 10
127.9492656792366
 20
91.78030903730442
 30
0.0
 10
127.9333443436174
 20
91.781305997923
 30
0.0
 10
127.8943307181631
 20
91.78382240823265
 30
0.0
 10
127.8258779824426
 20
91.78852005571869
 30
0.0
 10
127.7331261675441
 20
91.79546991260159
 30
0.0
 10
127.6158345547241
 20
91.80519939978032
 30
0.0
 10
127.4729979239089
 20
91.81844640598958
 30
0.0
 10
127.3114485304753
 20
91.83543349468573
 30
0.0
 10
127.137645190345
 20
91.85572613509494
 30
0.0
 10
127.0130258610728
 20
91.87249157268828
 30
0.0
 10
126.9505329550304
 20
91.88089894353834
 30
0.0
  0
SPLINE
  5
B7
330
1F
100
AcDbEntity
  8
0
  6
HIDDEN
 62
     7
370
     0
100
AcDbSpline
210
0.0
220
0.0
230
1.0
 70
     8
 71
     3
 72
    32
 73
    28
 74
     0
 42
0.00000001
 43
0.00000001
 40
0.0
 40
0.0
 40
0.0
 40
0.0
 40
0.0346246159901393
 40
0.0694870388940023
 40
0.105100760954932
 40
0.1409753874086758
 40
0.1756005721189328
 40
0.210469240812561
 40
0.2461122854708169
 40
0.2820258067991321
 40
0.3162663828049037
 40
0.3859338563640312
 40
0.4214461814158482
 40
0.4553763558770598
 40
0.5243713305904967
 40
0.5595124638219118
 40
0.593798734303577
 40
0.6635059787021123
 40
0.6990055363805018
 40
0.7337623601246063
 40
0.7687606633024604
 40
0.8045245907686109
 40
0.8405553812432468
 40
0.875170121130555
 40
0.9456085132854553
 40
0.9815233266320907
 40
1.0
 40
1.0
 40
1.0
 40
1.0
 10
126.9505329550304
 20
91.88089894353834
 30
0.0
 10
126.878534653184
 20
91.89068688644666
 30
0.0
 10
126.7340435546508
 20
91.9103299972831
 30
0.0
 10
126.4927236203924
 20
91.93977921590482
 30
0.0
 10
126.2334253694067
 20
91.96832959799524
 30
0.0
 10
125.9594379502741
 20
91.99476081695008
 30
0.0
 10
125.6748101692526
 20
92.01821329430138
 30
0.0
 10
125.3802252102844
 20
92.03821075075999
 30
0.0
 10
125.0732943013161
 20
92.05436642926374
 30
0.0
 10
124.7615628355636
 20
92.06580841695921
 30
0.0
 10
124.3442972868782
 20
92.07449954465707
 30
0.0
 10
123.9236542935206
 20
92.07321148819688
 30
0.0
 10
123.5102507403552
 20
92.0619836768294
 30
0.0
 10
123.1054067772879
 20
92.04468540474852
 30
0.0
 10
122.7147686927257
 20
92.01896976098031
 30
0.0
 10
122.3459876146844
 20
91.9868764500834
 30
0.0
 10
121.992569832436
 20
91.95131824158095
 30
0.0
 10
121.6671287421151
 20
91.91206978524535
 30
0.0
 10
121.3777515363978
 20
91.87243826787302
 30
0.0
 10
121.1798376594225
 20
91.84330252473077
 30
0.0
 10
121.002510695385
 20
91.81556829241802
 30
0.0
 10
120.8459013668725
 20
91.78978774816363
 30
0.0
 10
120.7142538471698
 20
91.76718111142945
 30
0.0
 10
120.5723926515981
 20
91.7419950661228
 30
0.0
 10
120.4835740637824
 20
91.72554951699918
 30
0.0
 10
120.446751125232
 20
91.71865668618301
 30
0.0
 10
120.4481672724052
 20
91.71892167209221
 30
0.0
 10
120.4486483346144
 20
91.71901168724692
 30
0.0
  0
SPLINE
  5
B8
330
1F
100
AcDbEntity
  8
0
  6
HIDDEN
 62
     7
370
     0
100
AcDbSpline
210
0.0
220
0.0
230
1.0
 70
     8
 71
     3
 72
    30
 73
    26
 74
     0
 42
0.00000001
 43
0.00000001
 40
0.0
 40
0.0
 40
0.0
 40
0.0
 40
0.0156161600804337
 40
0.0849748372628082
 40
0.1203204532886746
 40
0.15431851909124
 40
0.2234436946574013
 40
0.2586467089786606
 40
0.2931107206687011
 40
0.3631864361325603
 40
0.3988795186727328
 40
0.4336750628309723
 40
0.4687145712104809
 40
0.5045294144990544
 40
0.5406151111978532
 40
0.5750767863722916
 40
0.6452033649630275
 40
0.6809575734718859
 40
0.7149323277721685
 40
0.784033058295527
 40
0.8192378401372485
 40
0.8533347063218409
 40
0.9226550151093995
 40
0.9579547149334489
 40
1.0
 40
1.0
 40
1.0
 40
1.0
 10
120.4486483346144
 20
131.7178431514627
 30
0.0
 10
120.4480505955293
 20
131.7179554043444
 30
0.0
 10
120.4447980173526
 20
131.7185662248217
 30
0.0
 10
120.495118919801
 20
131.7091070903646
 30
0.0
 10
120.5954239488423
 20
131.6908022542684
 30
0.0
 10
120.7300409369119
 20
131.6668189488946
 30
0.0
 10
120.912099581942
 20
131.6357201547482
 30
0.0
 10
121.1390221556073
 20
131.5998010107058
 30
0.0
 10
121.3956085609847
 20
131.5614819895668
 30
0.0
 10
121.6936452194574
 20
131.5212368542585
 30
0.0
 10
122.0261944734571
 20
131.4825758308562
 30
0.0
 10
122.2913921788614
 20
131.455173172125
 30
0.0
 10
122.5704500041203
 20
131.4301283355128
 30
0.0
 10
122.8649010200145
 20
131.4079606382172
 30
0.0
 10
123.1677659533307
 20
131.3897985509472
 30
0.0
 10
123.5781519401995
 20
131.3715404459528
 30
0.0
 10
123.9989927791543
 20
131.3626932119484
 30
0.0
 10
124.4188966963832
 20
131.3641586063896
 30
0.0
 10
124.833511217237
 20
131.3722019995569
 30
0.0
 10
125.2397323367128
 20
131.3897087851562
 30
0.0
 10
125.6292628364348
 20
131.4152740981841
 30
0.0
 10
126.0060835376731
 20
131.4454583338982
 30
0.0
 10
126.3592206973771
 20
131.4813559087457
 30
0.0
 10
126.7009721851987
 20
131.5221741866043
 30
0.0
 10
126.8626459462082
 20
131.5440591001708
 30
0.0
 10
126.9505329550304
 20
131.5559558951713
 30
0.0
  0
LINE
  5
B9
330
1F
100
AcDbEntity
  8
0
  6
HIDDEN
 62
     7
370
     0
100
AcDbLine
 10
114.1995055496
 20
94.7184274194
 30
0.0
 11
114.1995055496
 21
128.7184274194
 31
0.0
  0
LWPOLYLINE
  5
BA
330
1F
100
AcDbEntity
  8
0
  6
HIDDEN
 62
     7
370
     0
100
AcDbPolyline
 90
       15
 70
   128
 43
0.0
 10
141.1955309534
 20
133.664029834
 10
141.9525359309
 20
133.7001724395
 10
142.6821807761
 20
133.807293968
 10
143.3580942233
 20
133.9815227683
 10
143.9558469994
 20
134.2165617578
 10
144.4538347616
 20
134.5039160149
 10
144.8340589348
 20
134.833199808
 10
145.0827772267
 20
135.192511963
 10
145.1910003102
 20
135.5688660023
 10
145.154816721
 20
135.9486595105
 10
144.9755342283
 20
136.3181657606
 10
144.6596325686
 20
136.664029834
 10
144.2185292508
 20
136.9737513019
 10
143.6681668983
 20
137.2361360235
 10
143.5842087772
 20
137.268260043
  0
LWPOLYLINE
  5
BB
330
1F
100
AcDbEntity
  8
0
  6
HIDDEN
 62
     7
370
     0
100
AcDbPolyline
 90
       15
 70
   128
 43
0.0
 10
138.8004549504
 20
137.2658733766
 10
138.7228950085
 20
137.2361360235
 10
138.172532656
 20
136.9737513019
 10
137.7314293383
 20
136.664029834
 10
137.4155276786
 20
136.3181657606
 10
137.2362451859
 20
135.9486595105
 10
137.2000615967
 20
135.5688660023
 10
137.3082846801
 20
135.192511963
 10
137.557002972
 20
134.833199808
 10
137.9372271452
 20
134.5039160149
 10
138.4352149075
 20
134.2165617578
 10
139.0329676836
 20
133.9815227683
 10
139.7088811308
 20
133.807293968
 10
140.438525976
 20
133.7001724395
 10
141.1955309534
 20
133.664029834
  0
SPLINE
  5
BC
330
1F
100
AcDbEntity
  8
0
  6
HIDDEN
 62
     7
370
     0
100
AcDbSpline
210
0.0
220
0.0
230
1.0
 70
     8
 71
     3
 72
    11
 73
     7
 74
     0
 42
0.00000001
 43
0.00000001
 40
0.0
 40
0.0
 40
0.0
 40
0.0
 40
0.0005779865010845
 40
0.0005779865010845
 40
0.0005779865010845
 40
0.0011559733324421
 40
0.0011559733324421
 40
0.0011559733324421
 40
0.0011559733324421
 10
101.2955309534288
 20
113.7182680275086
 30
0.0
 10
101.4621982082348
 20
113.7162843881676
 30
0.0
 10
101.6288646379124
 20
113.7142467811651
 30
0.0
 10
101.7955309763643
 20
113.7121353177587
 30
0.0
 10
101.9621974051907
 20
113.7100238532073
 30
0.0
 10
102.1288637788284
 20
113.707838290051
 30
0.0
 10
102.2955309534288
 20
113.7055557127193
 30
0.0
  0
SPLINE
  5
BD
330
1F
100
AcDbEntity
  8
0
  6
HIDDEN
 62
     7
370
     0
100
AcDbSpline
210
0.0
220
0.0
230
1.0
 70
     8
 71
     3
 72
     8
 73
     4
 74
     0
 42
0.00000001
 43
0.00000001
 40
0.0
 40
0.0
 40
0.0
 40
0.0
 40
0.0011564765856722
 40
0.0011564765856722
 40
0.0011564765856722
 40
0.0011564765856722
 10
102.2955309534288
 20
109.7217271171385
 30
0.0
 10
101.96222302286
 20
109.7208519615553
 30
0.0
 10
101.6288877904677
 20
109.7197971103038
 30
0.0
 10
101.2955309534288
 20
109.7186260232662
 30
0.0
  0
LINE
  5
BE
330
1F
100
AcDbEntity
  8
0
  6
HIDDEN
 62
     7
370
     0
100
AcDbLine
 10
140.855356922
 20
94.7184274194
 30
0.0
 11
140.855356922
 21
128.7184274194
 31
0.0
  0
LINE
  5
BF
330
1F
100
AcDbEntity
  8
0
  6
HIDDEN
 62
     7
370
     0
100
AcDbLine
 10
143.1455309534
 20
95.9934274194
 30
0.0
 11
143.1455309534
 21
127.4434274182
 31
0.0
  0
SPLINE
  5
C0
330
1F
100
AcDbEntity
  8
0
  6
HIDDEN
 62
     7
370
     0
100
AcDbSpline
210
0.0
220
0.0
230
1.0
 70
     8
 71
     3
 72
    16
 73
    12
 74
     0
 42
0.00000001
 43
0.00000001
 40
0.0
 40
0.0
 40
0.0
 40
0.0
 40
0.124999999999998
 40
0.124999999999998
 40
0.249999999999996
 40
0.249999999999996
 40
0.4999999999999973
 40
0.4999999999999973
 40
0.7499999999999987
 40
0.7499999999999987
 40
1.0
 40
1.0
 40
1.0
 40
1.0
 10
109.9955309534288
 20
95.91693698332315
 30
0.0
 10
110.0906527080946
 20
95.91693698332315
 30
0.0
 10
110.1839827768227
 20
95.91312114993035
 30
0.0
 10
110.3672445375607
 20
95.89835059720053
 30
0.0
 10
110.4581222531177
 20
95.88719254922495
 30
0.0
 10
110.7149239506375
 20
95.84472127908323
 30
0.0
 10
110.8699913155095
 20
95.80367508188044
 30
0.0
 10
111.1237377770641
 20
95.70852896529856
 30
0.0
 10
111.2246082287319
 20
95.65376623121696
 30
0.0
 10
111.3598546434268
 20
95.5425051073131
 30
0.0
 10
111.3955309534288
 20
95.48533536998441
 30
0.0
 10
111.3955309534288
 20
95.43091379695068
 30
0.0
  0
SPLINE
  5
C1
330
1F
100
AcDbEntity
  8
0
  6
HIDDEN
 62
     7
370
     0
100
AcDbSpline
210
0.0
220
0.0
230
1.0
 70
     8
 71
     3
 72
     8
 73
     4
 74
     0
 42
0.00000001
 43
0.00000001
 40
0.0
 40
0.0
 40
0.0
 40
0.0
 40
1.0
 40
1.0
 40
1.0
 40
1.0
 10
102.595530956744
 20
98.06173992940539
 30
0.0
 10
102.5955309567459
 20
97.17784278708847
 30
0.0
 10
102.5820503308361
 20
96.46325954202652
 30
0.0
 10
102.5806989626468
 20
95.91693698332315
 30
0.0
  0
SPLINE
  5
C2
330
1F
100
AcDbEntity
  8
0
  6
HIDDEN
 62
     7
370
     0
100
AcDbSpline
210
0.0
220
0.0
230
1.0
 70
     8
 71
     3
 72
    10
 73
     6
 74
     0
 42
0.00000001
 43
0.00000001
 40
0.0
 40
0.0
 40
0.0
 40
0.0
 40
0.5
 40
0.5
 40
1.0
 40
1.0
 40
1.0
 40
1.0
 10
102.2955309534288
 20
99.08665019510859
 30
0.0
 10
102.3869220691217
 20
98.91201140749118
 30
0.0
 10
102.4595739028548
 20
98.7384095802356
 30
0.0
 10
102.5670727958629
 20
98.39479616122888
 30
0.0
 10
102.5955309567384
 20
98.22647033469744
 30
0.0
 10
102.595530956744
 20
98.06173992946488
 30
0.0
  0
LINE
  5
C3
330
1F
100
AcDbEntity
  8
0
  6
HIDDEN
 62
     7
370
     0
100
AcDbLine
 10
102.2955309534
 20
102.117600627
 30
0.0
 11
102.2955309534
 21
99.0866501951
 31
0.0
  0
SPLINE
  5
C4
330
1F
100
AcDbEntity
  8
0
  6
HIDDEN
 62
     7
370
     0
100
AcDbSpline
210
0.0
220
0.0
230
1.0
 70
     8
 71
     3
 72
    10
 73
     6
 74
     0
 42
0.00000001
 43
0.00000001
 40
0.0
 40
0.0
 40
0.0
 40
0.0
 40
0.5
 40
0.5
 40
1.0
 40
1.0
 40
1.0
 40
1.0
 10
102.5955309566165
 20
103.485441043712
 30
0.0
 10
102.5955309566165
 20
103.2434570761052
 30
0.0
 10
102.5673809275459
 20
103.0091146471402
 30
0.0
 10
102.4637910134035
 20
102.5537396248625
 30
0.0
 10
102.387162303812
 20
102.3321350617551
 30
0.0
 10
102.2955309534288
 20
102.1176006269572
 30
0.0
  0
LINE
  5
C5
330
1F
100
AcDbEntity
  8
0
  6
HIDDEN
 62
     7
370
     0
100
AcDbLine
 10
102.5955309566
 20
115.3230610409
 30
0.0
 11
102.5955309566
 21
103.4854410437
 31
0.0
  0
SPLINE
  5
C6
330
1F
100
AcDbEntity
  8
0
  6
HIDDEN
 62
     7
370
     0
100
AcDbSpline
210
0.0
220
0.0
230
1.0
 70
     8
 71
     3
 72
     8
 73
     4
 74
     0
 42
0.00000001
 43
0.00000001
 40
0.0
 40
0.0
 40
0.0
 40
0.0
 40
1.0
 40
1.0
 40
1.0
 40
1.0
 10
102.2955309534288
 20
121.3253667404231
 30
0.0
 10
102.4765624199877
 20
120.8932592547605
 30
0.0
 10
102.5955309566222
 20
120.4391138486608
 30
0.0
 10
102.5955309566165
 20
119.9514137949667
 30
0.0
  0
LINE
  5
C7
330
1F
100
AcDbEntity
  8
0
  6
HIDDEN
 62
     7
370
     0
100
AcDbLine
 10
102.2955309534
 20
124.3585697264
 30
0.0
 11
102.2955309534
 21
121.3253667404
 31
0.0
  0
SPLINE
  5
C8
330
1F
100
AcDbEntity
  8
0
  6
HIDDEN
 62
     7
370
     0
100
AcDbSpline
210
0.0
220
0.0
230
1.0
 70
     8
 71
     3
 72
    10
 73
     6
 74
     0
 42
0.00000001
 43
0.00000001
 40
0.0
 40
0.0
 40
0.0
 40
0.0
 40
0.5
 40
0.5
 40
1.0
 40
1.0
 40
1.0
 40
1.0
 10
102.595530956822
 20
125.3751149092746
 30
0.0
 10
102.5955309568202
 20
125.2104785626686
 30
0.0
 10
102.5683722860647
 20
125.0433233388381
 30
0.0
 10
102.4626072907463
 20
124.7047003310365
 30
0.0
 10
102.3861925024492
 20
124.5324285537455
 30
0.0
 10
102.2955309534288
 20
124.3585697264015
 30
0.0
  0
SPLINE
  5
C9
330
1F
100
AcDbEntity
  8
0
  6
HIDDEN
 62
     7
370
     0
100
AcDbSpline
210
0.0
220
0.0
230
1.0
 70
     8
 71
     3
 72
    18
 73
    14
 74
     0
 42
0.00000001
 43
0.00000001
 40
0.0
 40
0.0
 40
0.0
 40
0.0
 40
0.2500000000000033
 40
0.2500000000000033
 40
0.3750000000000029
 40
0.3750000000000029
 40
0.5000000000000026
 40
0.5000000000000026
 40
0.6250000000000022
 40
0.6250000000000022
 40
0.7500000000000018
 40
0.7500000000000018
 40
1.0
 40
1.0
 40
1.0
 40
1.0
 10
107.3955309534288
 20
128.0059410417589
 30
0.0
 10
107.3955309534288
 20
127.9514665212068
 30
0.0
 10
107.3606202620366
 20
127.8950854618542
 30
0.0
 10
107.2586109607036
 20
127.8110086210008
 30
0.0
 10
107.2169746060255
 20
127.7836749170099
 30
0.0
 10
107.1185688105367
 20
127.7307210014109
 30
0.0
 10
107.0610255988324
 20
127.7048336476937
 30
0.0
 10
106.9337274252595
 20
127.6570561028604
 30
0.0
 10
106.864140120502
 20
127.6351081846826
 30
0.0
 10
106.7127058753471
 20
127.5956756197698
 30
0.0
 10
106.6300219722531
 20
127.578119370544
 30
0.0
 10
106.3739105102151
 20
127.5356806051235
 30
0.0
 10
106.1859955063271
 20
127.5199178553865
 30
0.0
 10
105.9955309534288
 20
127.5199178553865
 30
0.0
  0
LINE
  5
CA
330
1F
100
AcDbEntity
  8
0
  6
HIDDEN
 62
     7
370
     0
100
AcDbLine
 10
105.9955309534
 20
127.5199178554
 30
0.0
 11
102.5955309568
 21
127.5199178554
 31
0.0
  0
LINE
  5
CB
330
1F
100
AcDbEntity
  8
0
  6
HIDDEN
 62
     7
370
     0
100
AcDbLine
 10
102.5265619668
 20
95.9169369833
 30
0.0
 11
109.9955309534
 21
95.9169369833
 31
0.0
  0
SPLINE
  5
CC
330
1F
100
AcDbEntity
  8
0
  6
HIDDEN
 62
     7
370
     0
100
AcDbSpline
210
0.0
220
0.0
230
1.0
 70
     8
 71
     3
 72
    22
 73
    18
 74
     0
 42
0.00000001
 43
0.00000001
 40
0.0
 40
0.0
 40
0.0
 40
0.0
 40
0.1249999999999998
 40
0.1249999999999998
 40
0.2499999999999995
 40
0.2499999999999995
 40
0.4999999999999992
 40
0.4999999999999992
 40
0.5624999999999993
 40
0.5624999999999993
 40
0.6249999999999994
 40
0.6249999999999994
 40
0.7499999999999996
 40
0.7499999999999996
 40
0.8749999999999998
 40
0.8749999999999998
 40
1.0
 40
1.0
 40
1.0
 40
1.0
 10
102.5265619667867
 20
95.91693698332315
 30
0.0
 10
102.5134795740584
 20
96.17204269347083
 30
0.0
 10
102.5002600106185
 20
96.46520095257473
 30
0.0
 10
102.4778128328244
 20
97.12750141819953
 30
0.0
 10
102.4683343657999
 20
97.49777533881092
 30
0.0
 10
102.4491364048634
 20
98.72033214192471
 30
0.0
 10
102.4502501778603
 20
99.65747106805657
 30
0.0
 10
102.4691609708133
 20
100.9773422975716
 30
0.0
 10
102.4737904986724
 20
101.2488442065479
 30
0.0
 10
102.4842717184183
 20
101.8072290413502
 30
0.0
 10
102.4900669797027
 20
102.0943518972898
 30
0.0
 10
102.5083762006077
 20
102.9669411516615
 30
0.0
 10
102.522411134888
 20
103.5673968280173
 30
0.0
 10
102.5518683070248
 20
104.8048713205134
 30
0.0
 10
102.5674239980064
 20
105.4418874771569
 30
0.0
 10
102.5912185480033
 20
106.7533760748414
 30
0.0
 10
102.5992376001487
 20
107.4294986865019
 30
0.0
 10
102.5955309534288
 20
108.1137937977867
 30
0.0
  0
LINE
  5
CD
330
1F
100
AcDbEntity
  8
0
  6
HIDDEN
 62
     7
370
     0
100
AcDbLine
 10
102.5955309568
 20
115.3230610409
 30
0.0
 11
102.5955309568
 21
127.5199178554
 31
0.0
  0
SPLINE
  5
CE
330
1F
100
AcDbEntity
  8
0
  6
HIDDEN
 62
     7
370
     0
100
AcDbSpline
210
0.0
220
0.0
230
1.0
 70
     8
 71
     3
 72
    10
 73
     6
 74
     0
 42
0.00000001
 43
0.00000001
 40
0.0
 40
0.0
 40
0.0
 40
0.0
 40
0.5
 40
0.5
 40
1.0
 40
1.0
 40
1.0
 40
1.0
 10
102.5955309534288
 20
108.1137937977716
 30
0.0
 10
102.5955309534286
 20
108.387708945846
 30
0.0
 10
102.5697717235609
 20
108.6586505245761
 30
0.0
 10
102.4665657908278
 20
109.1943416061789
 30
0.0
 10
102.3892276269526
 20
109.4600884097009
 30
0.0
 10
102.2955309534288
 20
109.7217271171385
 30
0.0
  0
SPLINE
  5
CF
330
1F
100
AcDbEntity
  8
0
  6
HIDDEN
 62
     7
370
     0
100
AcDbSpline
210
0.0
220
0.0
230
1.0
 70
     8
 71
     3
 72
    10
 73
     6
 74
     0
 42
0.00000001
 43
0.00000001
 40
0.0
 40
0.0
 40
0.0
 40
0.0
 40
0.5
 40
0.5
 40
1.0
 40
1.0
 40
1.0
 40
1.0
 10
102.2955309534288
 20
113.7055557127193
 30
0.0
 10
102.3887615348198
 20
113.9694495207895
 30
0.0
 10
102.4637911470566
 20
114.2356298314277
 30
0.0
 10
102.5688582462347
 20
114.7739524063859
 30
0.0
 10
102.5955309568209
 20
115.0467005226315
 30
0.0
 10
102.5955309568221
 20
115.3230610409219
 30
0.0
  0
LINE
  5
D0
330
1F
100
AcDbEntity
  8
0
  6
HIDDEN
 62
     7
370
     0
100
AcDbLine
 10
102.2955309534
 20
109.7217271171
 30
0.0
 11
102.2955309534
 21
113.7055557127
 31
0.0
  0
LINE
  5
D1
330
1F
100
AcDbEntity
  8
0
  6
HIDDEN
 62
     7
370
     0
100
AcDbLine
 10
102.4455309534
 20
93.7284274194
 30
0.0
 11
102.4455309534
 21
90.848489654
 31
0.0
  0
LINE
  5
D2
330
1F
100
AcDbEntity
  8
0
  6
HIDDEN
 62
     7
370
     0
100
AcDbLine
 10
111.3955309534
 20
93.7284274194
 30
0.0
 11
111.3955309534
 21
89.7546898882
 31
0.0
  0
LINE
  5
D3
330
1F
100
AcDbEntity
  8
0
  6
HIDDEN
 62
     7
370
     0
100
AcDbLine
 10
102.4455309534
 20
129.7084274194
 30
0.0
 11
102.4455309534
 21
132.5883651847
 31
0.0
  0
LINE
  5
D4
330
1F
100
AcDbEntity
  8
0
  6
HIDDEN
 62
     7
370
     0
100
AcDbLine
 10
107.3955309534
 20
129.7084274194
 30
0.0
 11
107.3955309534
 21
133.5625350917
 31
0.0
  0
LINE
  5
D5
330
1F
100
AcDbEntity
  8
0
  6
HIDDEN
 62
     7
370
     0
100
AcDbLine
 10
151.9955309534
 20
102.2184274194
 30
0.0
 11
151.9955309534
 21
121.2184274194
 31
0.0
  0
LINE
  5
D6
330
1F
100
AcDbEntity
  8
0
  6
HIDDEN
 62
     7
370
     0
100
AcDbLine
 10
154.9955309534
 20
102.2184274194
 30
0.0
 11
154.9955309534
 21
121.2184274194
 31
0.0
  0
LINE
  5
D7
330
1F
100
AcDbEntity
  8
0
  6
HIDDEN
 62
     7
370
     0
100
AcDbLine
 10
143.6455309534
 20
103.2184274194
 30
0.0
 11
143.6455309534
 21
120.2184274194
 31
0.0
  0
LINE
  5
D8
330
1F
100
AcDbEntity
  8
0
  6
HIDDEN
 62
     7
370
     0
100
AcDbLine
 10
159.1455309534
 20
85.3184274194
 30
0.0
 11
153.0078561511
 21
85.3184274194
 31
0.0
  0
LINE
  5
D9
330
1F
100
AcDbEntity
  8
0
  6
HIDDEN
 62
     7
370
     0
100
AcDbLine
 10
138.1455309534
 20
80.2343044365
 30
0.0
 11
138.1455309534
 21
85.3184274194
 31
0.0
  0
LINE
  5
DA
330
1F
100
AcDbEntity
  8
0
  6
HIDDEN
 62
     7
370
     0
100
AcDbLine
 10
146.1455309534
 20
85.3184274194
 30
0.0
 11
138.1455309534
 21
85.3184274194
 31
0.0
  0
LINE
  5
DB
330
1F
100
AcDbEntity
  8
0
  6
HIDDEN
 62
     7
370
     0
100
AcDbLine
 10
149.3832057558
 20
85.3184274194
 30
0.0
 11
146.1455309534
 21
85.3184274194
 31
0.0
  0
LINE
  5
DC
330
1F
100
AcDbEntity
  8
0
  6
HIDDEN
 62
     7
370
     0
100
AcDbLine
 10
146.1455309534
 20
138.1184274194
 30
0.0
 11
138.1455309534
 21
138.1184274194
 31
0.0
  0
LINE
  5
DD
330
1F
100
AcDbEntity
  8
0
  6
HIDDEN
 62
     7
370
     0
100
AcDbLine
 10
149.6798284851
 20
138.1184274194
 30
0.0
 11
146.1455309534
 21
138.1184274194
 31
0.0
  0
LINE
  5
DE
330
1F
100
AcDbEntity
  8
0
  6
HIDDEN
 62
     7
370
     0
100
AcDbLine
 10
159.1455309534
 20
138.1184274194
 30
0.0
 11
152.7112334217
 21
138.1184274194
 31
0.0
  0
SPLINE
  5
DF
330
1F
100
AcDbEntity
  8
0
  6
HIDDEN
 62
     7
370
     0
100
AcDbSpline
210
0.0
220
0.0
230
1.0
 70
     8
 71
     3
 72
    11
 73
     7
 74
     0
 42
0.00000001
 43
0.00000001
 40
0.0
 40
0.0
 40
0.0
 40
0.0
 40
0.0008203708524183
 40
0.0008203708524183
 40
0.0008203708524183
 40
0.0016409967870154
 40
0.0016409967870154
 40
0.0016409967870154
 40
0.0016409967870154
 10
102.4455309534288
 20
95.86639466871208
 30
0.0
 10
102.2543726531301
 20
95.82521564009295
 30
0.0
 10
102.062945583058
 20
95.78646166786295
 30
0.0
 10
101.8712999595373
 20
95.75009390858439
 30
0.0
 10
101.6795945544569
 20
95.71371480481837
 30
0.0
 10
101.4876556023979
 20
95.67972055405082
 30
0.0
 10
101.2955309553271
 20
95.6480724286596
 30
0.0
  0
ELLIPSE
  5
E0
330
1F
100
AcDbEntity
  8
0
  6
HIDDEN
 62
     7
370
     0
100
AcDbEllipse
 10
97.0530990848
 20
111.7184274194
 30
0.0
 11
20.19992453366628
 21
-1.421085471520200E-14
 31
0.0
210
0.0
220
0.0
230
1.0
 40
0.8164965809
 41
1.300566354718001
 42
1.359198697209605
  0
LINE
  5
E1
330
1F
100
AcDbEntity
  8
0
  6
HIDDEN
 62
     7
370
     0
100
AcDbLine
 10
102.4455309534
 20
93.7284274194
 30
0.0
 11
102.4455309534
 21
95.8663946687
 31
0.0
  0
LINE
  5
E2
330
1F
100
AcDbEntity
  8
0
  6
HIDDEN
 62
     7
370
     0
100
AcDbLine
 10
102.5265619668
 20
95.9169369833
 30
0.0
 11
102.4455309534
 21
95.8663946687
 31
0.0
  0
LINE
  5
E3
330
1F
100
AcDbEntity
  8
0
  6
HIDDEN
 62
     7
370
     0
100
AcDbLine
 10
111.3955309534
 20
93.7284274194
 30
0.0
 11
111.3955309534
 21
95.430913797
 31
0.0
  0
LINE
  5
E4
330
1F
100
AcDbEntity
  8
0
  6
HIDDEN
 62
     7
370
     0
100
AcDbLine
 10
107.3955309534
 20
129.7084274194
 30
0.0
 11
107.3955309534
 21
128.0059410418
 31
0.0
  0
LINE
  5
E5
330
1F
100
AcDbEntity
  8
0
  6
HIDDEN
 62
     7
370
     0
100
AcDbLine
 10
102.4455309534
 20
129.7084274194
 30
0.0
 11
102.4455309534
 21
127.6130518704
 31
0.0
  0
SPLINE
  5
E6
330
1F
100
AcDbEntity
  8
0
  6
HIDDEN
 62
     7
370
     0
100
AcDbSpline
210
0.0
220
0.0
230
1.0
 70
     8
 71
     3
 72
     8
 73
     4
 74
     0
 42
0.00000001
 43
0.00000001
 40
0.0
 40
0.0
 40
0.0
 40
0.0
 40
1.0
 40
1.0
 40
1.0
 40
1.0
 10
102.4455309534288
 20
127.6130518704134
 30
0.0
 10
102.4955364523725
 20
127.5820160961943
 30
0.0
 10
102.5455365230369
 20
127.5509714511668
 30
0.0
 10
102.5955309568221
 20
127.5199178553865
 30
0.0
  0
SPLINE
  5
E7
330
1F
100
AcDbEntity
  8
0
  6
HIDDEN
 62
     7
370
     0
100
AcDbSpline
210
0.0
220
0.0
230
1.0
 70
     8
 71
     3
 72
    20
 73
    16
 74
     0
 42
0.00000001
 43
0.00000001
 40
0.0
 40
0.0
 40
0.0
 40
0.0
 40
0.1118532753367727
 40
0.1773727969001436
 40
0.2489947124776664
 40
0.3297435623025036
 40
0.3985163041505095
 40
0.4997965445410392
 40
0.6137622343533015
 40
0.6789284883141681
 40
0.7494553429231908
 40
0.8296017033995806
 40
0.8980457170458405
 40
0.9994566317807579
 40
1.0
 40
1.0
 40
1.0
 40
1.0
 10
127.9441462700566
 20
88.11849376961764
 30
0.0
 10
127.9008541954666
 20
88.13191218344632
 30
0.0
 10
127.8322032209599
 20
88.15319060898719
 30
0.0
 10
127.3871858091419
 20
88.25646313636604
 30
0.0
 10
126.8606361071821
 20
88.36976455937176
 30
0.0
 10
126.1752085329681
 20
88.49269796593215
 30
0.0
 10
125.2818917902083
 20
88.61473228257584
 30
0.0
 10
124.1685322180721
 20
88.73246865580758
 30
0.0
 10
123.0577579618231
 20
88.74444409433465
 30
0.0
 10
122.1730102460496
 20
88.71738592022488
 30
0.0
 10
121.5058114789446
 20
88.66945344274798
 30
0.0
 10
120.9645478863135
 20
88.61316161997588
 30
0.0
 10
120.5769340595312
 20
88.56807228799515
 30
0.0
 10
120.3830261884515
 20
88.52920361442081
 30
0.0
 10
120.4462192522699
 20
88.53992591922335
 30
0.0
 10
120.4465560414813
 20
88.53998306404846
 30
0.0
  0
LINE
  5
E8
330
1F
100
AcDbEntity
  8
0
  6
HIDDEN
 62
     7
370
     0
100
AcDbLine
 10
121.3555428658
 20
88.6507655628
 30
0.0
 11
121.5393881789
 21
88.6689549053
 31
0.0
  0
SPLINE
  5
E9
330
1F
100
AcDbEntity
  8
0
  6
HIDDEN
 62
     7
370
     0
100
AcDbSpline
210
0.0
220
0.0
230
1.0
 70
     8
 71
     3
 72
    27
 73
    23
 74
     0
 42
0.00000001
 43
0.00000001
 40
0.0
 40
0.0
 40
0.0
 40
0.0
 40
0.0008086698272164
 40
0.0456911818206492
 40
0.1022728481609739
 40
0.170550939236766
 40
0.2091426118792428
 40
0.2506698514601189
 40
0.3211156297110305
 40
0.3862093649620112
 40
0.4266885152941663
 40
0.4648197686822756
 40
0.5006240859091298
 40
0.5452158508125173
 40
0.6017101077175113
 40
0.670116083417031
 40
0.7088534140408783
 40
0.7505821601356528
 40
0.8222467465127807
 40
0.8877861721259266
 40
0.9472599280119505
 40
0.9999999999999999
 40
0.9999999999999999
 40
0.9999999999999999
 40
0.9999999999999999
 10
120.4461994905481
 20
134.8968415495652
 30
0.0
 10
120.4459771210874
 20
134.8968894849168
 30
0.0
 10
120.4334128790216
 20
134.8995979115092
 30
0.0
 10
120.4824895181106
 20
134.8877658811048
 30
0.0
 10
120.6275940358638
 20
134.8643216728406
 30
0.0
 10
120.9006461930103
 20
134.8304175274919
 30
0.0
 10
121.2291726753892
 20
134.796848729715
 30
0.0
 10
121.6219004396326
 20
134.7586653914786
 30
0.0
 10
122.1716284152802
 20
134.7196967187944
 30
0.0
 10
122.7976510603786
 20
134.7002356144334
 30
0.0
 10
123.3408425708212
 20
134.6980499365915
 30
0.0
 10
123.7859114676575
 20
134.7065648177719
 30
0.0
 10
124.252359264116
 20
134.7263482146976
 30
0.0
 10
124.789599913252
 20
134.7705106002123
 30
0.0
 10
125.4378133440406
 20
134.8429262202291
 30
0.0
 10
126.0233519740307
 20
134.9238283133966
 30
0.0
 10
126.5043215885023
 20
135.0019943018894
 30
0.0
 10
126.9497364855239
 20
135.0867664408337
 30
0.0
 10
127.3882362049404
 20
135.1805494837659
 30
0.0
 10
127.7272614617994
 20
135.2584532476778
 30
0.0
 10
127.914602397175
 20
135.3086448850281
 30
0.0
 10
127.9350921793376
 20
135.3153113244481
 30
0.0
 10
127.944722298965
 20
135.3184445256014
 30
0.0
  0
LINE
  5
EA
330
1F
100
AcDbEntity
  8
0
  6
HIDDEN
 62
     7
370
     0
100
AcDbLine
 10
159.2955309534
 20
107.5184274194
 30
0.0
 11
159.2955309534
 21
115.9184274194
 31
0.0
  0
LINE
  5
EB
330
1F
100
AcDbEntity
  8
0
  6
HIDDEN
 62
     7
370
     0
100
AcDbLine
 10
160.5573382534
 20
109.6184274194
 30
0.0
 11
160.5573382534
 21
113.8184274194
 31
0.0
  0
LINE
  5
EC
330
1F
100
AcDbEntity
  8
0
  6
HIDDEN
 62
     7
370
     0
100
AcDbLine
 10
209.6955309534
 20
108.7184274194
 30
0.0
 11
209.6955309534
 21
114.7184274194
 31
0.0
  0
LINE
  5
ED
330
1F
100
AcDbEntity
  8
0
  6
HIDDEN
 62
     7
370
     0
100
AcDbLine
 10
176.6955309534
 20
108.8184274194
 30
0.0
 11
176.6955309534
 21
114.6184274194
 31
0.0
  0
LINE
  5
EE
330
1F
100
AcDbEntity
  8
0
  6
HIDDEN
 62
     7
370
     0
100
AcDbLine
 10
191.1955309534
 20
108.7184274194
 30
0.0
 11
191.1955309534
 21
114.7184274194
 31
0.0
  0
LINE
  5
EF
330
1F
100
AcDbEntity
  8
0
  6
HIDDEN
 62
     7
370
     0
100
AcDbLine
 10
176.2955309534
 20
109.6184274194
 30
0.0
 11
176.2955309534
 21
113.8184274194
 31
0.0
  0
SPLINE
  5
F0
330
1F
100
AcDbEntity
  8
0
  6
HIDDEN
 62
     7
370
     0
100
AcDbSpline
210
0.0
220
0.0
230
1.0
 70
     8
 71
     3
 72
     8
 73
     4
 74
     0
 42
0.00000001
 43
0.00000001
 40
0.0
 40
0.0
 40
0.0
 40
0.0
 40
0.000159097695343
 40
0.000159097695343
 40
0.000159097695343
 40
0.000159097695343
 10
102.5806989626468
 20
95.91693698332315
 30
0.0
 10
102.5356474921425
 20
95.88895809899937
 30
0.0
 10
102.4905914537277
 20
95.8609865686243
 30
0.0
 10
102.4455309534288
 20
95.83302222927179
 30
0.0
  0
SPLINE
  5
F1
330
1F
100
AcDbEntity
  8
0
  6
HIDDEN
 62
     7
370
     0
100
AcDbSpline
210
0.0
220
0.0
230
1.0
 70
     8
 71
     3
 72
    11
 73
     7
 74
     0
 42
0.00000001
 43
0.00000001
 40
0.0
 40
0.0
 40
0.0
 40
0.0
 40
0.0008212909311456
 40
0.0008212909311456
 40
0.0008212909311456
 40
0.001642825724306
 40
0.001642825724306
 40
0.001642825724306
 40
0.001642825724306
 10
102.4455309534288
 20
95.83302222927179
 30
0.0
 10
102.2543859319466
 20
95.78973604041924
 30
0.0
 10
102.0629675962702
 20
95.74879953078195
 30
0.0
 10
101.871321521609
 20
95.71019775939537
 30
0.0
 10
101.6796184400674
 20
95.67158450555829
 30
0.0
 10
101.4876733167819
 20
95.63530429627228
 30
0.0
 10
101.2955309534287
 20
95.60133738992077
 30
0.0
  0
LINE
  5
F2
330
1F
100
AcDbEntity
  8
0
  6
HIDDEN
 62
     7
370
     0
100
AcDbLine
 10
149.2855309534
 20
131.9042131097
 30
0.0
 11
149.2855309534
 21
131.5684274194
 31
0.0
  0
LINE
  5
F3
330
1F
100
AcDbEntity
  8
0
  6
HIDDEN
 62
     7
370
     0
100
AcDbLine
 10
153.1055309534
 20
131.9042131097
 30
0.0
 11
153.1055309534
 21
131.5684274194
 31
0.0
  0
LINE
  5
F4
330
1F
100
AcDbEntity
  8
0
  6
HIDDEN
 62
     7
370
     0
100
AcDbLine
 10
154.5874637849
 20
136.1771170817
 30
0.0
 11
154.5874637849
 21
131.5684274194
 31
0.0
  0
SPLINE
  5
F5
330
1F
100
AcDbEntity
  8
0
  6
HIDDEN
 62
     7
370
     0
100
AcDbSpline
210
0.0
220
0.0
230
1.0
 70
     8
 71
     3
 72
    11
 73
     7
 74
     0
 42
0.00000001
 43
0.00000001
 40
0.0
 40
0.0
 40
0.0
 40
0.0
 40
0.0005781862223978
 40
0.0005781862223978
 40
0.0005781862223978
 40
0.0011563724723928
 40
0.0011563724723928
 40
0.0011563724723928
 40
0.0011563724723928
 10
102.2955309534288
 20
124.3585697264016
 30
0.0
 10
102.1288703991532
 20
124.4230992378151
 30
0.0
 10
101.9622071022467
 20
124.4876019416589
 30
0.0
 10
101.7955405184165
 20
124.5520883900926
 30
0.0
 10
101.6288739261574
 20
124.6165748417875
 30
0.0
 10
101.4622040605315
 20
124.6810448505156
 30
0.0
 10
101.2955309534288
 20
124.7455006172482
 30
0.0
  0
SPLINE
  5
F6
330
1F
100
AcDbEntity
  8
0
  6
HIDDEN
 62
     7
370
     0
100
AcDbSpline
210
0.0
220
0.0
230
1.0
 70
     8
 71
     3
 72
    11
 73
     7
 74
     0
 42
0.00000001
 43
0.00000001
 40
0.0
 40
0.0
 40
0.0
 40
0.0
 40
0.0005778746105108
 40
0.0005778746105108
 40
0.0005778746105108
 40
0.0011557494857226
 40
0.0011557494857226
 40
0.0011557494857226
 40
0.0011557494857226
 10
101.2955309534288
 20
98.69120556386491
 30
0.0
 10
101.4621978298421
 20
98.75701769055878
 30
0.0
 10
101.6288645494036
 20
98.82287617069638
 30
0.0
 10
101.7955311974522
 20
98.88878374362702
 30
0.0
 10
101.9621979219709
 20
98.95469134679738
 30
0.0
 10
102.1288646163915
 20
99.02064845518589
 30
0.0
 10
102.2955309534288
 20
99.08665019510859
 30
0.0
  0
SPLINE
  5
F7
330
1F
100
AcDbEntity
  8
0
  6
HIDDEN
 62
     7
370
     0
100
AcDbSpline
210
0.0
220
0.0
230
1.0
 70
     8
 71
     3
 72
    11
 73
     7
 74
     0
 42
0.00000001
 43
0.00000001
 40
0.0000000000000006
 40
0.0000000000000006
 40
0.0000000000000006
 40
0.0000000000000006
 40
0.0005780486062768
 40
0.0005780486062768
 40
0.0005780486062768
 40
0.0011560973514127
 40
0.0011560973514127
 40
0.0011560973514127
 40
0.0011560973514127
 10
101.2955309534288
 20
121.6992419210466
 30
0.0
 10
101.4622008094737
 20
121.6368700595321
 30
0.0
 10
101.628868513558
 20
121.5745161992344
 30
0.0
 10
101.7955348180116
 20
121.5121966390483
 30
0.0
 10
101.9622011587053
 20
121.4498770653114
 30
0.0
 10
102.1288661153341
 20
121.3875918609918
 30
0.0
 10
102.2955309534288
 20
121.3253667404231
 30
0.0
  0
SPLINE
  5
F8
330
1F
100
AcDbEntity
  8
0
  6
HIDDEN
 62
     7
370
     0
100
AcDbSpline
210
0.0
220
0.0
230
1.0
 70
     8
 71
     3
 72
    11
 73
     7
 74
     0
 42
0.00000001
 43
0.00000001
 40
0.0
 40
0.0
 40
0.0
 40
0.0
 40
0.0005782401583533
 40
0.0005782401583533
 40
0.0005782401583533
 40
0.0011564805960993
 40
0.0011564805960993
 40
0.0011564805960993
 40
0.0011564805960993
 10
102.2955309534288
 20
102.1176006269572
 30
0.0
 10
102.1288800030799
 20
102.0541751688964
 30
0.0
 10
101.9622204104972
 20
101.9908196452411
 30
0.0
 10
101.7955533580687
 20
101.9275220608911
 30
0.0
 10
101.6288862215049
 20
101.8642244445879
 30
0.0
 10
101.4622116140588
 20
101.8009846496472
 30
0.0
 10
101.2955309534288
 20
101.7377846430083
 30
0.0
  0
CIRCLE
  5
F9
330
1F
100
AcDbEntity
  8
0
  6
HIDDEN
 62
     7
370
     0
100
AcDbCircle
 10
140.1955309534
 20
111.7184274194
 30
0.0
 40
5.0
  0
LINE
  5
FA
330
1F
100
AcDbEntity
  8
0
  6
HIDDEN
 62
     7
370
     0
100
AcDbLine
 10
137.1955309534
 20
126.0190925234
 30
0.0
 11
137.1955309534
 21
124.1123680622
 31
0.0
  0
LINE
  5
FB
330
1F
100
AcDbEntity
  8
0
  6
HIDDEN
 62
     7
370
     0
100
AcDbLine
 10
145.1955309534
 20
124.1123680622
 30
0.0
 11
145.1955309534
 21
126.0183718795
 31
0.0
  0
LINE
  5
FC
330
1F
100
AcDbEntity
  8
0
  6
HIDDEN
 62
     7
370
     0
100
AcDbLine
 10
133.1955309534
 20
86.3944962734
 30
0.0
 11
133.289691729
 21
87.0644850046
 31
0.0
  0
LINE
  5
FD
330
1F
100
AcDbEntity
  8
0
  6
HIDDEN
 62
     7
370
     0
100
AcDbLine
 10
133.289691729
 20
136.3723698341
 30
0.0
 11
133.1955309534
 21
137.0423585653
 31
0.0
  0
ARC
  5
FE
330
1F
100
AcDbEntity
  8
0
  6
HIDDEN
 62
     7
370
     0
100
AcDbCircle
 10
132.6955242008
 20
87.147989805
 30
0.0
 40
0.6000067526677363
100
AcDbArc
 50
352.0
 51
0.0
  0
ARC
  5
FF
330
1F
100
AcDbEntity
  8
0
  6
HIDDEN
 62
     7
370
     0
100
AcDbCircle
 10
132.6955242008
 20
87.147989805
 30
0.0
 40
0.6000067526677282
100
AcDbArc
 50
0.0
 51
33.5571153394
  0
ARC
  5
100
330
1F
100
AcDbEntity
  8
0
  6
HIDDEN
 62
     7
370
     0
100
AcDbCircle
 10
132.6955242008
 20
136.2888650337
 30
0.0
 40
0.6000067526677363
100
AcDbArc
 50
348.75
 51
8.0
  0
LWPOLYLINE
  5
101
330
1F
100
AcDbEntity
  8
0
  6
HIDDEN
 62
     7
370
     0
100
AcDbPolyline
 90
        3
 70
   128
 43
0.0
 10
133.2840019919
 20
136.1718095232
 10
133.2498581589
 20
136.0592523902
 10
133.1955309534
 20
135.9572005187
  0
LINE
  5
102
330
1F
100
AcDbEntity
  8
0
  6
HIDDEN
 62
     7
370
     0
100
AcDbLine
 10
133.2955309534
 20
87.147989805
 30
0.0
 11
133.2955309534
 21
136.2888650337
 31
0.0
  0
LINE
  5
103
330
1F
100
AcDbEntity
  8
0
  6
HIDDEN
 62
     7
370
     0
100
AcDbLine
 10
159.1649234918
 20
131.5936849346
 30
0.0
 11
159.1455309534
 21
132.2161595898
 31
0.0
  0
ARC
  5
104
330
1F
100
AcDbEntity
  8
0
  6
HIDDEN
 62
     7
370
     0
100
AcDbCircle
 10
126.950532955
 20
99.7184274194
 30
0.0
 40
7.999999999999996
100
AcDbArc
 50
277.1325488762
 51
321.3178125465
  0
ARC
  5
105
330
1F
100
AcDbEntity
  8
0
  6
HIDDEN
 62
     7
370
     0
100
AcDbCircle
 10
126.950532955
 20
123.7184274194
 30
0.0
 40
7.999999999999996
100
AcDbArc
 50
38.6821874535
 51
82.8563149266
  0
LINE
  5
106
330
1F
100
AcDbEntity
  8
0
  6
HIDDEN
 62
     7
370
     0
100
AcDbLine
 10
116.2779665187
 20
91.7184274194
 30
0.0
 11
120.4486483346
 21
91.7184274194
 31
0.0
  0
LINE
  5
107
330
1F
100
AcDbEntity
  8
0
  6
HIDDEN
 62
     7
370
     0
100
AcDbLine
 10
120.4486483346
 20
131.7184274194
 30
0.0
 11
116.2779665187
 21
131.7184274194
 31
0.0
  0
ARC
  5
108
330
1F
100
AcDbEntity
  8
0
  6
HIDDEN
 62
     7
370
     0
100
AcDbCircle
 10
116.2779665187
 20
92.3184274194
 30
0.0
 40
0.5999999999999962
100
AcDbArc
 50
210.0
 51
270.0
  0
ARC
  5
109
330
1F
100
AcDbEntity
  8
0
  6
HIDDEN
 62
     7
370
     0
100
AcDbCircle
 10
116.2779665187
 20
131.1184274194
 30
0.0
 40
0.5999999999999943
100
AcDbArc
 50
90.0
 51
150.0
  0
LINE
  5
10A
330
1F
100
AcDbEntity
  8
0
  6
HIDDEN
 62
     7
370
     0
100
AcDbLine
 10
115.7583512765
 20
131.4184274194
 30
0.0
 11
114.1995055496
 21
128.7184274194
 31
0.0
  0
LINE
  5
10B
330
1F
100
AcDbEntity
  8
0
  6
HIDDEN
 62
     7
370
     0
100
AcDbLine
 10
114.1995055496
 20
94.7184274194
 30
0.0
 11
115.7583512765
 21
92.0184274194
 31
0.0
  0
LINE
  5
10C
330
1F
100
AcDbEntity
  8
0
  6
HIDDEN
 62
     7
370
     0
100
AcDbLine
 10
137.1955309534
 20
138.9981596565
 30
0.0
 11
137.1955309534
 21
135.664029834
 31
0.0
  0
LINE
  5
10D
330
1F
100
AcDbEntity
  8
0
  6
HIDDEN
 62
     7
370
     0
100
AcDbLine
 10
145.1955309534
 20
135.664029834
 30
0.0
 11
145.1955309534
 21
138.9967849672
 31
0.0
  0
ARC
  5
10E
330
1F
100
AcDbEntity
  8
0
  6
HIDDEN
 62
     7
370
     0
100
AcDbCircle
 10
141.6455309534
 20
95.9934274194
 30
0.0
 40
1.5
100
AcDbArc
 50
238.2116693829
 51
0.0
  0
ARC
  5
10F
330
1F
100
AcDbEntity
  8
0
  6
HIDDEN
 62
     7
370
     0
100
AcDbCircle
 10
141.6455309534
 20
127.4434274194
 30
0.0
 40
1.500000000000001
100
AcDbArc
 50
0.0
 51
121.7883306171
  0
LINE
  5
110
330
1F
100
AcDbEntity
  8
0
  6
HIDDEN
 62
     7
370
     0
100
AcDbLine
 10
111.3955309534
 20
94.7184274194
 30
0.0
 11
114.1995055496
 21
94.7184274194
 31
0.0
  0
LINE
  5
111
330
1F
100
AcDbEntity
  8
0
  6
HIDDEN
 62
     7
370
     0
100
AcDbLine
 10
114.1995055496
 20
128.7184274194
 30
0.0
 11
107.3955309534
 21
128.7184274194
 31
0.0
  0
LINE
  5
112
330
1F
100
AcDbEntity
  8
0
  6
HIDDEN
 62
     7
370
     0
100
AcDbLine
 10
133.1955309534
 20
94.7184274194
 30
0.0
 11
140.855356922
 21
94.7184274194
 31
0.0
  0
LINE
  5
113
330
1F
100
AcDbEntity
  8
0
  6
HIDDEN
 62
     7
370
     0
100
AcDbLine
 10
140.855356922
 20
128.7184274194
 30
0.0
 11
133.1955309534
 21
128.7184274194
 31
0.0
  0
LINE
  5
114
330
1F
100
AcDbEntity
  8
0
  6
HIDDEN
 62
     7
370
     0
100
AcDbLine
 10
151.9955309534
 20
102.2184274194
 30
0.0
 11
154.9955309534
 21
102.2184274194
 31
0.0
  0
LINE
  5
115
330
1F
100
AcDbEntity
  8
0
  6
HIDDEN
 62
     7
370
     0
100
AcDbLine
 10
154.9955309534
 20
121.2184274194
 30
0.0
 11
151.9955309534
 21
121.2184274194
 31
0.0
  0
LINE
  5
116
330
1F
100
AcDbEntity
  8
0
  6
HIDDEN
 62
     7
370
     0
100
AcDbLine
 10
143.1455309534
 20
102.7184274194
 30
0.0
 11
143.6455309534
 21
103.2184274194
 31
0.0
  0
LINE
  5
117
330
1F
100
AcDbEntity
  8
0
  6
HIDDEN
 62
     7
370
     0
100
AcDbLine
 10
143.6455309534
 20
120.2184274194
 30
0.0
 11
143.1455309534
 21
120.7184274194
 31
0.0
  0
LINE
  5
118
330
1F
100
AcDbEntity
  8
0
  6
HIDDEN
 62
     7
370
     0
100
AcDbLine
 10
143.6455309534
 20
103.2184274194
 30
0.0
 11
151.9955309534
 21
103.2184274194
 31
0.0
  0
LINE
  5
119
330
1F
100
AcDbEntity
  8
0
  6
HIDDEN
 62
     7
370
     0
100
AcDbLine
 10
151.9955309534
 20
120.2184274194
 30
0.0
 11
143.6455309534
 21
120.2184274194
 31
0.0
  0
LINE
  5
11A
330
1F
100
AcDbEntity
  8
0
  6
HIDDEN
 62
     7
370
     0
100
AcDbLine
 10
138.1455309534
 20
143.2184274194
 30
0.0
 11
138.1455309534
 21
138.1184274194
 31
0.0
  0
LINE
  5
11B
330
1F
100
AcDbEntity
  8
0
  6
HIDDEN
 62
     7
370
     0
100
AcDbLine
 10
128.3799687839
 20
87.6390560858
 30
0.0
 11
127.9455366344
 21
88.1181221049
 31
0.0
  0
LINE
  5
11C
330
1F
100
AcDbEntity
  8
0
  6
HIDDEN
 62
     7
370
     0
100
AcDbLine
 10
120.4455333093
 20
88.539810064
 30
0.0
 11
119.963099566
 21
88.0607440886
 31
0.0
  0
LINE
  5
11D
330
1F
100
AcDbEntity
  8
0
  6
HIDDEN
 62
     7
370
     0
100
AcDbLine
 10
119.9629776377
 20
135.3761054597
 30
0.0
 11
120.4455283887
 21
134.8969852018
 31
0.0
  0
LINE
  5
11E
330
1F
100
AcDbEntity
  8
0
  6
HIDDEN
 62
     7
370
     0
100
AcDbLine
 10
127.9455308354
 20
135.3186829794
 30
0.0
 11
128.3800732258
 21
135.79780323
 31
0.0
  0
LINE
  5
11F
330
1F
100
AcDbEntity
  8
0
  6
HIDDEN
 62
     7
370
     0
100
AcDbLine
 10
159.2955309534
 20
107.5184274194
 30
0.0
 11
160.5573382534
 21
109.6184274194
 31
0.0
  0
LINE
  5
120
330
1F
100
AcDbEntity
  8
0
  6
HIDDEN
 62
     7
370
     0
100
AcDbLine
 10
160.5573382534
 20
113.8184274194
 30
0.0
 11
159.2955309534
 21
115.9184274194
 31
0.0
  0
LINE
  5
121
330
1F
100
AcDbEntity
  8
0
  6
HIDDEN
 62
     7
370
     0
100
AcDbLine
 10
154.9955309534
 20
107.5184274194
 30
0.0
 11
159.2955309534
 21
107.5184274194
 31
0.0
  0
LINE
  5
122
330
1F
100
AcDbEntity
  8
0
  6
HIDDEN
 62
     7
370
     0
100
AcDbLine
 10
159.2955309534
 20
115.9184274194
 30
0.0
 11
154.9955309534
 21
115.9184274194
 31
0.0
  0
ARC
  5
123
330
1F
100
AcDbEntity
  8
0
  6
HIDDEN
 62
     7
370
     0
100
AcDbCircle
 10
212.6955309534
 20
107.6817331713
 30
0.0
 40
0.5
100
AcDbArc
 50
360.0
 51
80.0
  0
ARC
  5
124
330
1F
100
AcDbEntity
  8
0
  6
HIDDEN
 62
     7
370
     0
100
AcDbCircle
 10
212.6955309534
 20
115.7551216674
 30
0.0
 40
0.5000000000000105
100
AcDbArc
 50
280.0
 51
0.0
  0
LINE
  5
125
330
1F
100
AcDbEntity
  8
0
  6
HIDDEN
 62
     7
370
     0
100
AcDbLine
 10
127.9455309534
 20
88.1186060066
 30
0.0
 11
127.9455309534
 21
91.7805912287
 31
0.0
  0
LINE
  5
126
330
1F
100
AcDbEntity
  8
0
  6
HIDDEN
 62
     7
370
     0
100
AcDbLine
 10
120.4455309534
 20
91.7190116806
 30
0.0
 11
120.4455309534
 21
88.5401333018
 31
0.0
  0
LINE
  5
127
330
1F
100
AcDbEntity
  8
0
  6
HIDDEN
 62
     7
370
     0
100
AcDbLine
 10
127.9455309534
 20
131.65626361
 30
0.0
 11
127.9455309534
 21
135.3183916734
 31
0.0
  0
LINE
  5
128
330
1F
100
AcDbEntity
  8
0
  6
HIDDEN
 62
     7
370
     0
100
AcDbLine
 10
120.4455309534
 20
134.8968414225
 30
0.0
 11
120.4455309534
 21
131.7178431581
 31
0.0
  0
LINE
  5
129
330
1F
100
AcDbEntity
  8
0
  6
HIDDEN
 62
     7
370
     0
100
AcDbLine
 10
212.7823550423
 20
115.2627177909
 30
0.0
 11
209.6955309534
 21
114.7184274194
 31
0.0
  0
LINE
  5
12A
330
1F
100
AcDbEntity
  8
0
  6
HIDDEN
 62
     7
370
     0
100
AcDbLine
 10
209.6955309534
 20
108.7184274194
 30
0.0
 11
212.7823550423
 21
108.1741370478
 31
0.0
  0
LINE
  5
12B
330
1F
100
AcDbEntity
  8
0
  6
HIDDEN
 62
     7
370
     0
100
AcDbLine
 10
177.0955309534
 20
108.4184274194
 30
0.0
 11
190.3007569353
 21
108.4184274194
 31
0.0
  0
LINE
  5
12C
330
1F
100
AcDbEntity
  8
0
  6
HIDDEN
 62
     7
370
     0
100
AcDbLine
 10
190.3007569353
 20
115.0184274194
 30
0.0
 11
177.0955309534
 21
115.0184274194
 31
0.0
  0
ARC
  5
12D
330
1F
100
AcDbEntity
  8
0
  6
HIDDEN
 62
     7
370
     0
100
AcDbCircle
 10
177.0955309534
 20
108.8184274194
 30
0.0
 40
0.3999999999999915
100
AcDbArc
 50
180.0
 51
270.0
  0
ARC
  5
12E
330
1F
100
AcDbEntity
  8
0
  6
HIDDEN
 62
     7
370
     0
100
AcDbCircle
 10
177.0955309534
 20
114.6184274194
 30
0.0
 40
0.3999999999999915
100
AcDbArc
 50
90.0
 51
180.0
  0
ARC
  5
12F
330
1F
100
AcDbEntity
  8
0
  6
HIDDEN
 62
     7
370
     0
100
AcDbCircle
 10
190.3007569353
 20
108.8184274194
 30
0.0
 40
0.3999999999999915
100
AcDbArc
 50
270.0
 51
290.0
  0
ARC
  5
130
330
1F
100
AcDbEntity
  8
0
  6
HIDDEN
 62
     7
370
     0
100
AcDbCircle
 10
190.3007569353
 20
114.6184274194
 30
0.0
 40
0.3999999999999915
100
AcDbArc
 50
70.0
 51
90.0
  0
LINE
  5
131
330
1F
100
AcDbEntity
  8
0
  6
HIDDEN
 62
     7
370
     0
100
AcDbLine
 10
190.4375649926
 20
108.442550371
 30
0.0
 11
191.1955309534
 21
108.7184274194
 31
0.0
  0
LINE
  5
132
330
1F
100
AcDbEntity
  8
0
  6
HIDDEN
 62
     7
370
     0
100
AcDbLine
 10
191.1955309534
 20
114.7184274194
 30
0.0
 11
190.4375649926
 21
114.9943044677
 31
0.0
  0
LINE
  5
133
330
1F
100
AcDbEntity
  8
0
  6
HIDDEN
 62
     7
370
     0
100
AcDbLine
 10
191.1955309534
 20
108.7184274194
 30
0.0
 11
209.6955309534
 21
108.7184274194
 31
0.0
  0
LINE
  5
134
330
1F
100
AcDbEntity
  8
0
  6
HIDDEN
 62
     7
370
     0
100
AcDbLine
 10
209.6955309534
 20
114.7184274194
 30
0.0
 11
191.1955309534
 21
114.7184274194
 31
0.0
  0
LINE
  5
135
330
1F
100
AcDbEntity
  8
0
  6
HIDDEN
 62
     7
370
     0
100
AcDbLine
 10
176.6955309534
 20
114.2184274194
 30
0.0
 11
176.2955309534
 21
113.8184274194
 31
0.0
  0
LINE
  5
136
330
1F
100
AcDbEntity
  8
0
  6
HIDDEN
 62
     7
370
     0
100
AcDbLine
 10
176.2955309534
 20
109.6184274194
 30
0.0
 11
176.6955309534
 21
109.2184274194
 31
0.0
  0
LINE
  5
137
330
1F
100
AcDbEntity
  8
0
  6
HIDDEN
 62
     7
370
     0
100
AcDbLine
 10
160.5573382534
 20
109.6184274194
 30
0.0
 11
176.2955309534
 21
109.6184274194
 31
0.0
  0
LINE
  5
138
330
1F
100
AcDbEntity
  8
0
  6
HIDDEN
 62
     7
370
     0
100
AcDbLine
 10
176.2955309534
 20
113.8184274194
 30
0.0
 11
160.5573382534
 21
113.8184274194
 31
0.0
  0
DIMENSION
  5
139
330
1F
100
AcDbEntity
  8
VERMASSUNG
100
AcDbDimension
  2
*D1
 10
226.2737303506
 20
118.7184274194
 30
0.0
 11
226.2737303506
 21
111.7184274194
 31
0.0
 70
   160
  1
%%c<>
 71
     2
 42
-1.0
  3
SLDDIMSTYLE0
100
AcDbAlignedDimension
 13
213.1955309534
 23
104.7184274194
 33
0.0
 14
213.1955309534
 24
118.7184274194
 34
0.0
 50
90.0
100
AcDbRotatedDimension
  0
DIMENSION
  5
145
330
1F
100
AcDbEntity
  8
VERMASSUNG
100
AcDbDimension
  2
*D2
 10
213.1955309534
 20
144.6997983871
 30
0.0
 11
194.9455309534
 21
144.6997983871
 31
0.0
 70
   160
 71
     2
 42
-1.0
  3
SLDDIMSTYLE1
100
AcDbAlignedDimension
 13
176.6955309534
 23
111.7184274194
 33
0.0
 14
213.1955309534
 24
111.7184274194
 34
0.0
100
AcDbRotatedDimension
  0
DIMENSION
  5
150
330
1F
100
AcDbEntity
  8
VERMASSUNG
100
AcDbDimension
  2
*D3
 10
213.1955309534
 20
156.6997983871
 30
0.0
 11
173.1955309534
 21
156.6997983871
 31
0.0
 70
   160
 71
     2
 42
-1.0
  3
SLDDIMSTYLE2
100
AcDbAlignedDimension
 13
133.1955309534
 23
111.7184274194
 33
0.0
 14
213.1955309534
 24
111.7184274194
 34
0.0
100
AcDbRotatedDimension
  0
DIMENSION
  5
15B
330
1F
100
AcDbEntity
  8
VERMASSUNG
100
AcDbDimension
  2
*D4
 10
213.1955309534
 20
150.6997983871
 30
0.0
 11
186.1705309534
 21
150.6997983871
 31
0.0
 70
   160
 71
     2
 42
-1.0
  3
SLDDIMSTYLE2
100
AcDbAlignedDimension
 13
159.1455309534
 23
141.5648677431
 33
0.0
 14
213.1955309534
 24
117.7940369277
 34
0.0
100
AcDbRotatedDimension
  0
DIMENSION
  5
165
330
1F
100
AcDbEntity
  8
VERMASSUNG
100
AcDbDimension
  2
*D5
 10
213.1955309534
 20
162.6997983871
 30
0.0
 11
157.2455309534
 21
162.6997983871
 31
0.0
 70
   160
 71
     2
 42
-1.0
  3
SLDDIMSTYLE2
100
AcDbAlignedDimension
 13
101.2955309534
 23
131.4091051658
 33
0.0
 14
213.1955309534
 24
117.7940369277
 34
0.0
100
AcDbRotatedDimension
  0
DIMENSION
  5
16F
330
1F
100
AcDbEntity
  8
VERMASSUNG
100
AcDbDimension
  2
*D6
 10
220.2737303506
 20
108.7184274194
 30
0.0
 11
220.2737303506
 21
111.7184274194
 31
0.0
 70
   160
  1
%%c<>
 71
     2
 42
-1.0
  3
SLDDIMSTYLE3
100
AcDbAlignedDimension
 13
209.6955309534
 23
114.7184274194
 33
0.0
 14
209.6955309534
 24
108.7184274194
 34
0.0
 50
90.0
100
AcDbRotatedDimension
  0
DIMENSION
  5
17D
330
1F
100
AcDbEntity
  8
VERMASSUNG
100
AcDbDimension
  2
*D7
 10
95.8519596774
 20
80.2184274194
 30
0.0
 11
95.8519596774
 21
111.7184274194
 31
0.0
 70
   160
  1
HSK A %%c<>
 71
     2
 42
-1.0
  3
SLDDIMSTYLE2
100
AcDbAlignedDimension
 13
133.4955309534
 23
143.2184274194
 33
0.0
 14
133.4955309534
 24
80.2184274194
 34
0.0
 50
90.0
100
AcDbRotatedDimension
  0
LINE
  5
189
330
1F
100
AcDbEntity
  8
0
  6
HIDDEN
 62
     7
370
     0
100
AcDbLine
 10
151.9955309534
 20
120.7184274194
 30
0.0
 11
143.1455309534
 21
120.7184274194
 31
0.0
  0
LINE
  5
18A
330
1F
100
AcDbEntity
  8
0
  6
HIDDEN
 62
     7
370
     0
100
AcDbLine
 10
143.1455309534
 20
102.7184274194
 30
0.0
 11
151.9955309534
 21
102.7184274194
 31
0.0
  0
LINE
  5
18B
330
1F
100
AcDbEntity
  8
0
  6
HIDDEN
 62
     7
370
     0
100
AcDbLine
 10
160.3169940058
 20
109.2184274194
 30
0.0
 11
176.6955309534
 21
109.2184274194
 31
0.0
  0
LINE
  5
18C
330
1F
100
AcDbEntity
  8
0
  6
HIDDEN
 62
     7
370
     0
100
AcDbLine
 10
176.6955309534
 20
114.2184274194
 30
0.0
 11
160.3169940058
 21
114.2184274194
 31
0.0
  0
LINE
  5
18D
330
1F
100
AcDbEntity
  8
0
  6
HIDDEN
 62
     7
370
     0
100
AcDbLine
 10
160.3169940058
 20
111.7184274194
 30
0.0
 11
160.3169940058
 21
112.3167165801
 31
0.0
  0
LINE
  5
18E
330
1F
100
AcDbEntity
  8
0
  6
HIDDEN
 62
     7
370
     0
100
AcDbLine
 10
160.3169940058
 20
112.3167165801
 30
0.0
 11
160.3169940058
 21
114.2184274194
 31
0.0
  0
LINE
  5
18F
330
1F
100
AcDbEntity
  8
0
  6
HIDDEN
 62
     7
370
     0
100
AcDbLine
 10
160.3169940058
 20
109.2184274194
 30
0.0
 11
160.3169940058
 21
111.7184274194
 31
0.0
  0
LINE
  5
190
330
1F
100
AcDbEntity
  8
VERMASSUNG
  6
CENTERX2
370
     0
100
AcDbLine
 10
97.3177983871
 20
111.7184274194
 30
0.0
 11
214.2739900492
 21
111.7184274194
 31
0.0
  0
OLE2FRAME
  5
191
330
1F
100
AcDbEntity
  8
0
100
AcDbOle2Frame
 70
     2
  3
Bitmap Image
 10
13.8511154363
 20
38.264191557
 30
0.0
 11
51.6290888628
 21
31.9806341108
 31
0.0
 71
     2
 72
     0
 73
     1
 90
    12928
310
80552BED0767C5B32B40DDAF6807D121434000000000000000006FFBDDFB85D0
310
4940DDAF6807D121434000000000000000006FFBDDFB85D04940416F4BD60AFB
310
3F4000000000000000002BED0767C5B32B40416F4BD60AFB3F40000000000000
310
0000000000000100000000010000010000000100000000000100000000320000
310
D0CF11E0A1B11AE1000000000000000000000000000000003E000300FEFF0900
310
0600000000000000000000000100000001000000000000000010000002000000
310
01000000FEFFFFFF0000000000000000FFFFFFFFFFFFFFFFFFFFFFFFFFFFFFFF
310
FFFFFFFFFFFFFFFFFFFFFFFFFFFFFFFFFFFFFFFFFFFFFFFFFFFFFFFFFFFFFFFF
310
FFFFFFFFFFFFFFFFFFFFFFFFFFFFFFFFFFFFFFFFFFFFFFFFFFFFFFFFFFFFFFFF
310
FFFFFFFFFFFFFFFFFFFFFFFFFFFFFFFFFFFFFFFFFFFFFFFFFFFFFFFFFFFFFFFF
310
FFFFFFFFFFFFFFFFFFFFFFFFFFFFFFFFFFFFFFFFFFFFFFFFFFFFFFFFFFFFFFFF
310
FFFFFFFFFFFFFFFFFFFFFFFFFFFFFFFFFFFFFFFFFFFFFFFFFFFFFFFFFFFFFFFF
310
FFFFFFFFFFFFFFFFFFFFFFFFFFFFFFFFFFFFFFFFFFFFFFFFFFFFFFFFFFFFFFFF
310
FFFFFFFFFFFFFFFFFFFFFFFFFFFFFFFFFFFFFFFFFFFFFFFFFFFFFFFFFFFFFFFF
310
FFFFFFFFFFFFFFFFFFFFFFFFFFFFFFFFFFFFFFFFFFFFFFFFFFFFFFFFFFFFFFFF
310
FFFFFFFFFFFFFFFFFFFFFFFFFFFFFFFFFFFFFFFFFFFFFFFFFFFFFFFFFFFFFFFF
310
FFFFFFFFFFFFFFFFFFFFFFFFFFFFFFFFFFFFFFFFFFFFFFFFFFFFFFFFFFFFFFFF
310
FFFFFFFFFFFFFFFFFFFFFFFFFFFFFFFFFFFFFFFFFFFFFFFFFFFFFFFFFFFFFFFF
310
FFFFFFFFFFFFFFFFFFFFFFFFFFFFFFFFFFFFFFFFFFFFFFFFFFFFFFFFFFFFFFFF
310
FFFFFFFFFFFFFFFFFFFFFFFFFFFFFFFFFFFFFFFFFFFFFFFFFFFFFFFFFFFFFFFF
310
FDFFFFFFFEFFFFFFFEFFFFFFFEFFFFFF05000000060000000700000008000000
310
090000000A0000000B0000000C0000000D0000000E0000000F00000010000000
310
11000000120000001300000014000000150000001600000017000000FEFFFFFF
310
FFFFFFFFFFFFFFFFFFFFFFFFFFFFFFFFFFFFFFFFFFFFFFFFFFFFFFFFFFFFFFFF
310
FFFFFFFFFFFFFFFFFFFFFFFFFFFFFFFFFFFFFFFFFFFFFFFFFFFFFFFFFFFFFFFF
310
FFFFFFFFFFFFFFFFFFFFFFFFFFFFFFFFFFFFFFFFFFFFFFFFFFFFFFFFFFFFFFFF
310
FFFFFFFFFFFFFFFFFFFFFFFFFFFFFFFFFFFFFFFFFFFFFFFFFFFFFFFFFFFFFFFF
310
FFFFFFFFFFFFFFFFFFFFFFFFFFFFFFFFFFFFFFFFFFFFFFFFFFFFFFFFFFFFFFFF
310
FFFFFFFFFFFFFFFFFFFFFFFFFFFFFFFFFFFFFFFFFFFFFFFFFFFFFFFFFFFFFFFF
310
FFFFFFFFFFFFFFFFFFFFFFFFFFFFFFFFFFFFFFFFFFFFFFFFFFFFFFFFFFFFFFFF
310
FFFFFFFFFFFFFFFFFFFFFFFFFFFFFFFFFFFFFFFFFFFFFFFFFFFFFFFFFFFFFFFF
310
FFFFFFFFFFFFFFFFFFFFFFFFFFFFFFFFFFFFFFFFFFFFFFFFFFFFFFFFFFFFFFFF
310
FFFFFFFFFFFFFFFFFFFFFFFFFFFFFFFFFFFFFFFFFFFFFFFFFFFFFFFFFFFFFFFF
310
FFFFFFFFFFFFFFFFFFFFFFFFFFFFFFFFFFFFFFFFFFFFFFFFFFFFFFFFFFFFFFFF
310
FFFFFFFFFFFFFFFFFFFFFFFFFFFFFFFFFFFFFFFFFFFFFFFFFFFFFFFFFFFFFFFF
310
FFFFFFFFFFFFFFFFFFFFFFFFFFFFFFFFFFFFFFFFFFFFFFFFFFFFFFFFFFFFFFFF
310
52006F006F007400200045006E00740072007900000000000000000000000000
310
0000000000000000000000000000000000000000000000000000000000000000
310
16000500FFFFFFFFFFFFFFFF020000000A00030000000000C000000000000046
310
00000000000000000000000050A308A841DECB0103000000C000000000000000
310
01004F006C006500000000000000000000000000000000000000000000000000
310
0000000000000000000000000000000000000000000000000000000000000000
310
0A000200FFFFFFFFFFFFFFFFFFFFFFFF00000000000000000000000000000000
310
0000000000000000000000000000000000000000000000001400000000000000
310
010043006F006D0070004F0062006A0000000000000000000000000000000000
310
0000000000000000000000000000000000000000000000000000000000000000
310
120002010100000003000000FFFFFFFF00000000000000000000000000000000
310
0000000000000000000000000000000000000000010000004D00000000000000
310
01004F006C006500310030004E00610074006900760065000000000000000000
310
0000000000000000000000000000000000000000000000000000000000000000
310
1A000200FFFFFFFFFFFFFFFFFFFFFFFF00000000000000000000000000000000
310
0000000000000000000000000000000000000000040000002426000000000000
310
FEFFFFFF02000000FEFFFFFFFFFFFFFFFFFFFFFFFFFFFFFFFFFFFFFFFFFFFFFF
310
FFFFFFFFFFFFFFFFFFFFFFFFFFFFFFFFFFFFFFFFFFFFFFFFFFFFFFFFFFFFFFFF
310
FFFFFFFFFFFFFFFFFFFFFFFFFFFFFFFFFFFFFFFFFFFFFFFFFFFFFFFFFFFFFFFF
310
FFFFFFFFFFFFFFFFFFFFFFFFFFFFFFFFFFFFFFFFFFFFFFFFFFFFFFFFFFFFFFFF
310
FFFFFFFFFFFFFFFFFFFFFFFFFFFFFFFFFFFFFFFFFFFFFFFFFFFFFFFFFFFFFFFF
310
FFFFFFFFFFFFFFFFFFFFFFFFFFFFFFFFFFFFFFFFFFFFFFFFFFFFFFFFFFFFFFFF
310
FFFFFFFFFFFFFFFFFFFFFFFFFFFFFFFFFFFFFFFFFFFFFFFFFFFFFFFFFFFFFFFF
310
FFFFFFFFFFFFFFFFFFFFFFFFFFFFFFFFFFFFFFFFFFFFFFFFFFFFFFFFFFFFFFFF
310
FFFFFFFFFFFFFFFFFFFFFFFFFFFFFFFFFFFFFFFFFFFFFFFFFFFFFFFFFFFFFFFF
310
FFFFFFFFFFFFFFFFFFFFFFFFFFFFFFFFFFFFFFFFFFFFFFFFFFFFFFFFFFFFFFFF
310
FFFFFFFFFFFFFFFFFFFFFFFFFFFFFFFFFFFFFFFFFFFFFFFFFFFFFFFFFFFFFFFF
310
FFFFFFFFFFFFFFFFFFFFFFFFFFFFFFFFFFFFFFFFFFFFFFFFFFFFFFFFFFFFFFFF
310
FFFFFFFFFFFFFFFFFFFFFFFFFFFFFFFFFFFFFFFFFFFFFFFFFFFFFFFFFFFFFFFF
310
FFFFFFFFFFFFFFFFFFFFFFFFFFFFFFFFFFFFFFFFFFFFFFFFFFFFFFFFFFFFFFFF
310
FFFFFFFFFFFFFFFFFFFFFFFFFFFFFFFFFFFFFFFFFFFFFFFFFFFFFFFFFFFFFFFF
310
FFFFFFFFFFFFFFFFFFFFFFFFFFFFFFFFFFFFFFFFFFFFFFFFFFFFFFFFFFFFFFFF
310
0100000200000000000000000000000000000000000000000000000000000000
310
000000000000000038000000410000007E12C100000000007C12760000000000
310
0100FEFF030A0000FFFFFFFF0A00030000000000C00000000000004607000000
310
5042727573680007000000504272757368000700000050427275736800F439B2
310
7100000000000000000000000000000000000000000000000000C70600000000
310
425D000000000000000000000000000000000000000000003800000041000000
310
7E12C10000000000A21263000000000000000000000000000000000000000000
310
0000C70600000000435D00000000000000000000000000000000000000000000
310
38000000410000007E12C1000000000044128300000000000000000000000000
310
00000000000000000000C706000000003D5D0000000000000000000000000000
310
000000000000000038000000410000007E12C100000000008A12740000000000
310
000000000000000000000000000000000000C706000000003E5D000000000000
310
0000000000000000000000000000000038000000410000007E12C10000000000
310
8C12790000000000000000000000000000000000000000000000C70600000000
310
3F5D000000000000000000000000000000000000000000003800000041000000
310
7E12C100000000003A1299000000000000000000000000000000000000000000
310
20260000424D0E260000000000003E00000028000000B40200006E0000000100
310
01000000000000000000130B0000130B00000200000002000000000000FFFFFF
310
FFFFFFFFFFFFFFFFFFFFFFFFFFFFFFFFFFFFFFFFFFFFFFFFFFFFFFFFFFFFFFFF
310
FFFFFFFFFFFFFFFFFFFFFFFFFFFFFFFFFFFFFFFFFFFFFFFFFFFFFFFFFFFFFFFF
310
FFFFFFFFFFFFFFFFFFFFFFFFFFFFFFFFFFFFFFFFFFFFFFFFF000FFFFFFFFFFFF
310
FFFFFFFFFFFFFFFFFFFFFFFFFFFFFFFFFFFFFFFFFFFFFFFFFFFFFFFFFFFFFFFF
310
FFFFFFFFFFFFFFFFFFFFFFFFFFFFFFFFFFFFFFFFFFFFFFFFFFFFFFFFFFFFFFFF
310
FFFFFFFFFFFFFFFFFFFFFFFFFFFFFFFFF000FFFFFFFFFFFFFFFFFFFFFFFFFFFF
310
FFFFFFFFFFFFFFFFFFFFFFFFFFFFFFFFFFFFFFFFFFFFFFFFFFFFFFFFFFFFFFFF
310
FFFFFFFFFFFFFFFFFFFFFFFFFFFFFFFFFFFFFFFFFFFFFFFFFFFFFFFFFFFFFFFF
310
FFFFFFFFFFFFFFFFF000FFFFFFFFFFFFFFFFFFFFFFFFFFFFFFFFFFFFFFFFFFFF
310
FFFFFFFFFFFFFFFFFFFFFFFFFFFFFFFFFFFFFFFFFFFFFFFFFFFFFFFFFFFFFFFF
310
FFFFFFFFFFFFFFFFFFFFFFFFFFFFFFFFFFFFFFFFFFFFFFFFFFFFFFFFFFFFFFFF
310
F000FFFFFFFFFFFFFFFFFFFFFFFFFFFFFFFFFFFFFFFFFFFFFFFFFFFFFFFFFFFF
310
FFFFFFFFFFFFFFFFFFFFFFFFFFFFFFFFFFFFFFFFFFFFFFFFFFFFFFFFFFFFFFFF
310
FFFFFFFFFFFFFFFFFFFFFFFFFFFFFFFFFFFFFFFFFFFFFFFFF000FFFFFFFFFFFF
310
FFFFFFFFFFFFFFFFFFFFFFFFFFFFFFFFFFFFFFFFFFFFFFFFFFFFFFFFFFFFFFFF
310
FFFFFFFFFFFFFFFFFFFFFFFFFFFFFFFFFFFFFFFFFFFFFFFFFFFFFFFFFFFFFFFF
310
FFFFFFFFFFFFFFFFFFFFFFFFFFFFFFFFF000FFFFFFFFFFFFFFFFFFFFFFFFFFFF
310
FFFFFFFFFFFFFFFFFFFFFFFFFFFFFFFFFFFFFFFFFFFFFFFFFFFFFFFFFFFFFFFF
310
FFFFFFFFFFFFFFFFFFFFFFFFFFFFFFFFFFFFFFFFFFFFFFFFFFFFFFFFFFFFFFFF
310
FFFFFFFFFFFFFFFFF000FFFFFFFFFFFFFFFFFFFFFFFFFFFFFFFFFFFFFFFFFFFF
310
FFFFFFFFFFFFFFFFFFFFFFFFFFFFFFFFFFFFFFFFFFFFFFFFFFFFFFFFFFFFFFFF
310
FFFFFFFFFFFFFFFFFFFFFFFFFFFFFFFFFFFFFFFFFFFFFFFFFFFFFFFFFFFFFFFF
310
F000FFFFFFFFFFFFFFFFFFFFFFFFFFFFFFFFFFFFFFFFFFFFFFFFFFFFFFFFFFFF
310
FFFFFFFFFFFFFFFFFFFFFFFFFFFFFFFFFFFFFFFFFFFFFFFFFFFFFFFFFFFFFFFF
310
FFFFFFFFFFFFFFFFFFFFFFFFFFFFFFFFFFFFFFFFFFFFFFFFF000FFFFFFFFFFFF
310
FFFFFFFFFFFFFFFFFFFFFFFFFFFFFFFFFFFFFFFFFFFFFFFFFFFFFFFFFFFFFFFF
310
FFFFFFFFFFFFFFFFFFFFFFFFFFFFFFFFFFFFFFFFFFFFFFFFFFFFFFFFFFFFFFFF
310
FFFFFFFFFFFFFFFFFFFFFFFFFFFFFFFFF000FFFFFFFFFFFFFFFFFFFFFFFFFFFF
310
FFFFFFFFFFFFFFFFFFFFFFFFFFFFFFFFFFFFFFFFFFFFFFFFFFFFFFFFFFFFFFFF
310
FFFFFFFFFFFFFFFFFFFFFFFFFFFFFFFFFFFFFFFFFFFFFFFFFFFFFFFFFFFFFFFF
310
FFFFFFFFFFFFFFFFF000FFFFFFFFFFFFFFFFFFFFFFFFFFFFFFFFFFFFFFFFFFFF
310
FFFFFFFFFFFFFFFFFFFFFFFFFFFFFFFFFFFFFFFFFFFFFFFFFFFFFFFFFFFFFFFF
310
FFFFFFFFFFFFFFFFFFFFFFFFFFFFFFFFFFFFFFFFFFFFFFFFFFFFFFFFFFFFFFFF
310
F000FFFFFFFFFFFFFFFFFFFFFFFFFFFFFFFFFFFFFFFFFFFFFFFFFFFFFFFFFFFF
310
FFFFFFFFFFFFFFFFFFFFFFFFFFFFFFFFFFFFFFFFFFFFFFFFFFFFFFFFFFFFFFFF
310
FFFFFFFFFFFFFFFFFFFFFFFFFFFFFFFFFFFFFFFFFFFFFFFFF000FFFFFFFFFFFF
310
FFFFFFFFFFFFFFFFFFFFFFFFFFFFFFFFFFFFFFFFFFFFFFFFFFFFFFFFFFFFFFFF
310
FFFFFFFFFFFFFFFFFFFFFFFFFFFFFFFFFFFFFFFFFFFFFFFFFFFFFFFFFFFFFFFF
310
FFFFFFFFFFFFFFFFFFFFFFFFFFFFFFFFF000FFFFFFFFFFFFFFFFFFFFFFFFFFFF
310
FFFFFFFFFFFFFFFFFFFFFFFFFFFFFFFFFFFFFFFFFFFFFFFFFFFFFFFFFFFFFFFF
310
FFFFFFFFFFFFFFFFFFFFFFFFFFFFFFFFFFFFFFFFFFFFFFFFFFFFFFFFFFFFFFFF
310
FFFFFFFFFFFFFFFFF000FFFFFFFFFFFFFFFFFFFFFFFFFFFFFFFFFFFFFFFFFFFF
310
FFFFFFFFFFFFFFFFFFFFFFFFFFFFFFFFFFFFFFFFFFFFFFFFFFFFFFFFFFFFFFFF
310
FFFFFFFFFFFFFFFFFFFFFFFFFFFFFFFFFFFFFFFFFFFFFFFFFFFFFFFFFFFFFFFF
310
F000FFFFFFFFFFFFFFFFFFFFFFFFFFFFFFFFFFFFFFFFFFFFFFFFFFFFFFFFFFFF
310
FFFFFFFFFFFFFFFFFFFFFFFFFFFFFFFFFFFFFFFFFFFFFFFFFFFFFFFFFFFFFFFF
310
FFFFFFFFFFFFFFFFFFFFFFFFFFFFFFFFFFFFFFFFFFFFFFFFF000FFFFFFFFFFFF
310
FFFFFFFFFFFFFFFFFFFFFFFFFFFFFFFFFFFFFFFFFFFFFFFFFFFFFFFFFFFFFFFF
310
FFFFFFFFFFFFFFFFFFFFFFFFFFFFFFFFFFFFFFFFFFFFFFFFFFFFFFFFFFFFFFFF
310
FFFFFFFFFFFFFFFFFFFFFFFFFFFFFFFFF000FFFFFFFFFFFFFFFFFFFFFFFFFFFF
310
FFFFFFFFFFFFFFFFFFFFFFFFFFFFFFFFFFFFFFFFFFFFFFFFFFFFFFFFFFFFFFFF
310
FFFFFFFFFFFFFFFFFFFFFFFFFFFFFFFFFFFFFFFFFFFFFFFFFFFFFFFFFFFFFFFF
310
FFFFFFFFFFFFFFFFF000FFFFF80003FFFFFFFFFFFFFFFFFFFFFFFFFFFFFFFFFF
310
FFFFF00007FFFFFFFFFF00007FFFFFF800000000000000007FFFFFFFFFFFFFFF
310
FFFFFFFC001FFFFFFFFFFFFFFC001FFFFFFFFFFFFFFFFFFFFFFFFFFE0007FFFF
310
F000FFFF8000007FFFFFFFF8000FFFFFC0007FFFFF80007FFFFF0000007FFFFF
310
FFF8000007FFFFF800000000000000007FFFFFF0001FFFFFFFFFFFC00001FFFF
310
FFFFFFFFC00001FFFFFFFF000000000003FFFFE000007FFFF000FFFE0000000F
310
FFFFFFF0000FFFFF80007FFFFF80007FFFFC0000001FFFFFFFC0000001FFFFF8
310
00000000000000007FFFFFF0001FFFFFFFFFFE0000003FFFFFFFFFFE0000003F
310
FFFFFF000000000003FFFF0000000FFFF000FFF800000003FFFFFFF00007FFFF
310
80007FFFFF80007FFFF000000007FFFFFF000000003FFFF80000000000000000
310
7FFFFFF0001FFFFFFFFFF80000000FFFFFFFFFF80000000FFFFFFF0000000000
310
03FFFC00000003FFF000FFE000000000FFFFFFF00007FFFF80003FFFFF80007F
310
FFC000000001FFFFFC000000001FFFF800000000000000007FFFFFF0001FFFFF
310
FFFFE000000003FFFFFFFFE000000003FFFFFF000000000003FFF000000000FF
310
F000FF80000000007FFFFFF00007FFFF80003FFFFF80007FFF8000000000FFFF
310
F80000000007FFF800000000000000007FFFFFF0001FFFFFFFFFC000000001FF
310
FFFFFFC000000001FFFFFF000000000003FFC0000000007FF000FF0000000000
310
3FFFFFE00007FFFF00003FFFFF80007FFE00000000003FFFF00000000003FFF8
310
00000000000000007FFFFFF0001FFFFFFFFF8000000000FFFFFFFF8000000000
310
FFFFFF000000000003FF80000000003FF000FE00000000001FFFFFE00003FFFF
310
00003FFFFF80007FFC00000000001FFFE00000000001FFF8000001FFFE000000
310
7FFFFFF0001FFFFFFFFE00000000003FFFFFFE00000000003FFFFF0000000000
310
03FF00000000001FF000FC00000000000FFFFFE00003FFFF00001FFFFF80007F
310
F800000000001FFFC00000000000FFF8000001FFFE0000007FFFFFF0001FFFFF
310
FFFC00000000001FFFFFFC00000000001FFFFF000000000003FE00000000000F
310
F000F8000000000007FFFFE00003FFFF00001FFFFF80007FF800000000000FFF
310
800000000000FFF8000001FFFE0000007FFFFFF0001FFFFFFFF800000000000F
310
FFFFF800000000000FFFFF000000000003FC000000000007F000F80000000000
310
03FFFFC00003FFFE00001FFFFF80007FF0000000000007FF0000000000007FF8
310
000001FFFE0000007FFFFFF0001FFFFFFFF0000000000007FFFFF00000000000
310
07FFFF000000000003F8000000000003F000F0000000000003FFFFC00001FFFE
310
00001FFFFF80007FE0000000000007FE0000000000003FF8000001FFFE000000
310
7FFFFFF0001FFFFFFFF0000000000007FFFFF0000000000007FFFF0000000000
310
03F800001F800003F000E00001FFF00001FFFFC00001FFFE00000FFFFF80007F
310
E00001FFE00003FE00001FFF00003FF8000001FFFE0000007FFFFFF0001FFFFF
310
FFE000003E000003FFFFE000003E000003FFFF000000000003F00001FFF80001
310
F000E00007FFFC0001FFFFC00001FFFE00000FFFFF80007FC0000FFFFC0003FC
310
0000FFFFC0001FF8000001FFFE0000007FFFFFF0001FFFFFFFC00003FFE00001
310
FFFFC00003FFE00001FFFF0001FFFFFFFFF00007FFFE0001F000E0000FFFFF00
310
00FFFF800001FFFC00000FFFFF80007FC0001FFFFE0001FC0001FFFFE0001FF8
310
000001FFFE0000007FFFFFF0001FFFFFFF80000FFFF80000FFFF80000FFFF800
310
00FFFF0003FFFFFFFFE0000FFFFF8000F000C0003FFFFF8000FFFF800000FFFC
310
000007FFFF80007F80003FFFFF0001FC0003FFFFF0001FF8000001FFFE000000
310
7FFFFFF0001FFFFFFF80003FFFFE0000FFFF80003FFFFE0000FFFF0003FFFFFF
310
FFE0003FFFFF8000F000C0003FFFFF8000FFFF800000FFFC000007FFFF80007F
310
80007FFFFF8001F80007FFFFF8000FF8000001FFFE0000007FFFFFF0001FFFFF
310
FF00007FFFFF00007FFF00007FFFFF00007FFF0003FFFFFFFFE0003FFFFFC000
310
F000C0007FFFFFC000FFFF000000FFFC000007FFFF80007F8000FFFFFF8000F8
310
000FFFFFF8000FF8000001FFFE0000007FFFFFF0001FFFFFFF0000FFFFFF8000
310
7FFF0000FFFFFF80007FFF0003FFFFFFFFC0007FFFFFC00070008000FFFFFFC0
310
00FFFF000000FFF8000007FFFF80007F8000FFFFFF8000F8000FFFFFF8000FF8
310
000001FFFE0000007FFFFFF0001FFFFFFE0001FFFFFFC0003FFE0001FFFFFFC0
310
003FFF0003FFFFFFFFC0007FFFFFE00070008000FFFFFFC0007FFF0000007FF8
310
000003FFFF80007F0001FFFFFF8000F8000FFFFFF8000FF8000001FFFE000000
310
7FFFFFF0001FFFFFFE0001FFFFFFC0003FFE0001FFFFFFC0003FFF0003FFFFFF
310
FFC000FFFFFFE00070008000FFFFFFC0007FFF0000007FF8000003FFFF80007F
310
0001FFFFFF8000F8001FFFFFF8000FF8000001FFFE0000007FFFFFF0001FFFFF
310
FE0003FFFFFFE0003FFE0003FFFFFFE0003FFF0003FFFFFFFFC000FFFFFFE000
310
70008000FFFFFFC0007FFE0000007FF8000003FFFF80007F0001FFFFFF8000F0
310
001FFFFFF8000FF8000001FFFE0000007FFFFFF0001FFFFFFC0003FFFFFFE000
310
1FFC0003FFFFFFE0001FFF0003FFFFFFFFC000FFFFFFC00070008000FFFFFF80
310
007FFE0000007FF0000003FFFF80007F0001FFFFFF0000F0001FFFFFF8000FF8
310
000001FFFE0000007FFFFFF0001FFFFFFC0007FFFFFFF0001FFC0007FFFFFFF0
310
001FFF0003FFFFFFFFC000FFFFFFC00070008001FFFFFF0000FFFE0000003FF0
310
000001FFFF80007F0001FFFFFF0000F8001FFFFFF0000FF8000001FFFE000000
310
7FFFFFF0001FFFFFFC0007FFFFFFF0001FFC0007FFFFFFF0001FFF0003FFFFFF
310
FFC001FFFFFF80007000FFFFFFFFFE0000FFFE0008003FF0008001FFFF80007F
310
FFFFFFFFFC0000FFFFFFFFFFE0000FF8000001FFFE0000007FFFFFF0001FFFFF
310
F8000FFFFFFFF8000FF8000FFFFFFFF8000FFF0003FFFFFFFFFFFFFFFFFF0000
310
7000FFFFFFFFFC0000FFFC0008003FF0008001FFFF80007FFFFFFFFFF80001FF
310
FFFFFFFF80000FF8000001FFFE0000007FFFFFF0001FFFFFF8000FFFFFFFF800
310
0FF8000FFFFFFFF8000FFF0003FFFFFFFFFFFFFFFFFE0000F000FFFFFFFFE000
310
00FFFC000C003FE000C001FFFF80007FFFFFFFFFC00001FFFFFFFFFE00001FF8
310
000001FFFE0000007FFFFFF0001FFFFFF8000FFFFFFFF8000FF8000FFFFFFFF8
310
000FFF0003FFFFFFFFFFFFFFFFF00000F000FFFFFFFE000001FFFC000C001FE0
310
00C000FFFF80007FFFFFFFFE000001FFFFFFFFE000001FF80FFFFFFFFFFFFFC0
310
7FFFFFF0001FFFFFF8000FFFFFFFF8000FF8000FFFFFFFF8000FFF0003FFFFFF
310
FFFFFFFFFF800000F000FFFFFFC0000001FFFC001C001FE001C000FFFF80007F
310
FFFFFF80000003FFFFFFF80000001FF80FFFFFFFFFFFFFC07FFFFFF0001FFFFF
310
F8001FFFFFFFFC000FF8001FFFFFFFFC000FFF0003FFFFFFFFFFFFFFF0000001
310
F000FFFFF800000001FFF8001C001FE001C000FFFF80007FFFFFF800000003FF
310
FFFF800000003FF80FFFFFFFFFFFFFC07FFFFFF0001FFFFFF8001FFFFFFFFC00
310
0FF8001FFFFFFFFC000FFF0003FFFFFFFFFFFFFE00000001F000FFFFC0000000
310
03FFF8001E001FC001E000FFFF80007FFFFF8000000007FFFFFC000000003FF8
310
0FFFFFFFFFFFFFC07FFFFFF0001FFFFFF8001FFFFFFFFC000FF8001FFFFFFFFC
310
000FFF0003FFFFFFFFFFFFE000000003F000FFFE0000000007FFF8001E000FC0
310
01E0007FFF80007FFFFE0000000007FFFFE0000000007FF80FFFFFFFFFFFFFC0
310
7FFFFFF0001FFFFFF0001FFFFFFFFC0007F0001FFFFFFFFC0007FF0003FFFFFF
310
FFFFFF0000000003F000FFF80000000007FFF8001E000FC003E0007FFF80007F
310
FFF0000000000FFFFF8000000000FFF80FFFFFFFFFFFFFC07FFFFFF0001FFFFF
310
F0001FFFFFFFFC0007F0001FFFFFFFFC0007FF0003FFFFFFFFFFFC0000000007
310
F000FFE0000000000FFFF0003E000FC003E0007FFF80007FFFC0000000001FFF
310
FE0000000001FFF80FFFFFFFFFFFFFC07FFFFFF0001FFFFFF0001FFFFFFFFC00
310
07F0001FFFFFFFFC0007FF0003FFFFFFFFFFF0000000000FF000FFC000000000
310
1FFFF0003F000F8003F0003FFF80007FFF80000000003FFFF80000000003FFF8
310
0FFFFFFFFFFFFFC07FFFFFF0001FFFFFF0001FFFFFFFFC0007F0001FFFFFFFFC
310
0007FF0003FFFFFFFFFFE0000000001FF000FF00000000007FFFF0003F000780
310
03F0003FFF80007FFF00000000007FFFF00000000007FFF80FFFFFFFFFFFFFC0
310
7FFFFFF0001FFFFFF0001FFFFFFFFC0007F0001FFFFFFFFC0007FF0003FFFFFF
310
FFFF80000000007FF000FE0000000000FFFFE0003F00078007F0003FFF80007F
310
FE0000000001FFFFE0000000001FFFF80FFFFFFFFFFFFFC07FFFFFF0001FFFFF
310
F0001FFFFFFFFC0007F0001FFFFFFFFC0007FF0003FFFFFFFFFF0000000000FF
310
F000FC0000000003FFFFE0007F00078007F0003FFF80007FFC0000000007FFFF
310
C0000000007FFFF80FFFFFFFFFFFFFC07FFFFFF0001FFFFFF8001FFFFFFFFC00
310
0FF8001FFFFFFFFC000FFF0003FFFFFFFFFE0000000003FFF000FC000000000F
310
FFFFE0007F80070007F8001FFF80007FF8000000001FFFFF8000000001FFFFF8
310
0FFFFFFFFFFFFFC07FFFFFF0001FFFFFF8001FFFFFFFFC000FF8001FFFFFFFFC
310
000FFF0003FFFFFFFFFC000000000FFFF000F8000000007FFFFFE0007F800700
310
07F8001FFF80007FF000000000FFFFFF800000000FFFFFF80FFFFFFFFFFFFFC0
310
7FFFFFF0001FFFFFF8000FFFFFFFF8000FF8000FFFFFFFF8000FFF0003FFFFFF
310
FFFC000000007FFFF000F800000007FFFFFFC0007F8003000FF8001FFF80007F
310
F000000007FFFFFF000000007FFFFFF80FFFFFFFFFFFFFC07FFFFFF0001FFFFF
310
F8000FFFFFFFF8000FF8000FFFFFFFF8000FFF0003FFFFFFFFF80000000FFFFF
310
F000F0000000FFFFFFFFC000FF8003000FF8001FFF80007FE0000000FFFFFFFF
310
0000000FFFFFFFF8000001FFFE0000007FFFFFF0001FFFFFF8000FFFFFFFF800
310
0FF8000FFFFFFFF8000FFF0003FFFFFFFFF8000000FFFFFFF000F000000FFFFF
310
FFFFC000FFC002000FF8000FFF80007FE000001FFFFFFFFE000001FFFFFFFFF8
310
000001FFFE0000007FFFFFF0001FFFFFF8000FFFFFFFF8000FF8000FFFFFFFF8
310
000FFF0003FFFFFFFFF000001FFFFFFFF000E00000FFFFFFFFFFC000FFC00200
310
0FFC000FFF80007FE00001FFFFFFFFFE00001FFFFFFFFFF8000001FFFE000000
310
7FFFFFF0001FFFFFFC000FFFFFFFF8001FFC000FFFFFFFF8001FFF0003FFFFFF
310
FFF00001FFFFFFFFF000E00007FFFFFFFFFF8000FFC000001FFC000FFF80007F
310
C0000FFFFFFFFFFE0000FFFFFFFFFFF8000001FFFE0000007FFFFFF0001FFFFF
310
FC0007FFFFFFF0001FFC0007FFFFFFF0001FFF0003FFFFFFFFF00007FFFFFFFF
310
F000E0001FFFFFFFFFFF8000FFC000001FFC000FFF80007FC0003FFFFFFFFFFE
310
0001FFFFFFFFFFF8000001FFFE0000007FFFFFF0001FFFFFFC0007FFFFFFF000
310
1FFC0007FFFFFFF0001FFF0003FFFFFFFFF0001FFFFFFFFFF000E0003FFFFF00
310
03FF8001FFE000001FFC0007FF80007FC0007FFFFF0007FC0003FFFFF0003FF8
310
000001FFFE0000007FFFFFF0001FFFFFFC0003FFFFFFE0001FFC0003FFFFFFE0
310
001FFF0003FFFFFFFFF0003FFFFFFFFFF000E0003FFFFF0001FF8001FFE00000
310
1FFE0007FF80007FC0007FFFFE0003FC0007FFFFE0003FF8000001FFFE000000
310
7FFFFFF0001FFFFFFE0003FFFFFFE0003FFE0003FFFFFFE0003FFF0003FFFFFF
310
FFF0003FFFFF8001F000E0003FFFFF0001FF0001FFE000001FFE0007FF80007F
310
C0007FFFFE0003FC0007FFFFE0003FF8000001FFFE0000007FFFFFF0001FFFFF
310
FE0001FFFFFFC0003FFE0001FFFFFFC0003FFF0003FFFFFFFFF0003FFFFF0001
310
F000E0003FFFFF0003FF0001FFE000003FFE0007FF80007FC0007FFFFE0003FC
310
0007FFFFE0003FF8000001FFFE0000007FFFFFF0001FFFFFFF0001FFFFFFC000
310
7FFF0001FFFFFFC0007FFF0003FFFFFFFFF0003FFFFF0001F000E0003FFFFE00
310
03FF0003FFF000003FFE0003FF80007FC0007FFFFC0003FE0007FFFFE0003FF8
310
000001FFFE0000007FFFFFF0001FFFFFFF0000FFFFFF80007FFF0000FFFFFF80
310
007FFF0003FFFFFFFFF0003FFFFF0001F000E0003FFFFE0003FF0003FFF00000
310
3FFF0003FF80007FC0007FFFFC0007FE0007FFFFC0003FF8000001FFFE000000
310
7FFFFFF0001FFFFFFF80007FFFFF0000FFFF80007FFFFF0000FFFF0003FFFFFF
310
FFF0003FFFFF0003F000E0003FFFFC0003FE0003FFF000003FFF0003FF80007F
310
E0003FFFF80007FE0003FFFFC0007FF8000001FFFE0000007FFFFFF0001FFFFF
310
FF80003FFFFE0000FFFF80003FFFFE0000FFFF0003FFFFFFFFF0001FFFFE0003
310
F000F0001FFFF80003FE0003FFF000007FFF0001FF80007FE0003FFFF00007FE
310
0001FFFF80007FF8000001FFFE0000007FFFFFF0001FFFFFFFC0000FFFF80001
310
FFFFC0000FFFF80001FFFF0003FFFFFFFFF0001FFFFC0003F000F0000FFFF000
310
07FE0007FFF800007FFF0001FF80007FE0001FFFE00007FF0000FFFE00007FF8
310
000001FFFE0000007FFFFFF0001FFFFFFFC00003FFE00001FFFFC00003FFE000
310
01FFFF0003FFFFFFFFF8000FFFF80003F000F00003FFC00007FC0007FFF80000
310
7FFF8001FF80007FF00007FF80000FFF00007FF80000FFF8000001FFFE000000
310
7F80000000000001FFE000003E000003FFFFE000003E000003FFFF0003FFFFFF
310
FFF80003FFE00007F000F800000000000FFC0007FFF800007FFF8001FF80007F
310
F000000000000FFF000000000000FFF8000001FFFE0000007F80000000000001
310
FFF0000000000007FFFFF0000000000007FFFF0003FFFFFFFFFC00007E000007
310
F000F800000000000FFC0007FFF80000FFFF8000FF80007FF800000000001FFF
310
800000000001FFF8000001FFFE0000007F80000000000001FFF800000000000F
310
FFFFF800000000000FFFFF0003FFFFFFFFFC00000000000FF000FC0000000000
310
1FFC0007FFFC0000FFFF8000FF80007FF800000000003FFFC00000000001FFF8
310
000001FFFE0000007F80000000000001FFF800000000000FFFFFF80000000000
310
0FFFFF0003FFFFFFFFFE00000000001FF000FE00000000003FF8000FFFFC0000
310
FFFF8000FF80007FFC00000000003FFFC00000000003FFF8000001FFFE000000
310
7F80000000000001FFFC00000000001FFFFFFC00000000001FFFFF0003FFFFFF
310
FFFF00000000001FF000FF00000000003FF8000FFFFC0000FFFFC000FF80007F
310
FE00000000007FFFE00000000007FFF8000001FFFE0000007F80000000000001
310
FFFE00000000003FFFFFFE00000000003FFFFF0003FFFFFFFFFF80000000003F
310
F000FF80000000007FF8000FFFFC0001FFFFC0007F80007FFF0000000000FFFF
310
F0000000000FFFF800000000000000007F80000000000001FFFF8000000000FF
310
FFFFFF8000000000FFFFFF0003FFFFFFFFFFC0000000007FF000FFC000000000
310
FFF8000FFFFE0001FFFFC0007F80007FFF8000000001FFFFF8000000001FFFF8
310
00000000000000007F80000000000001FFFFC000000001FFFFFFFFC000000001
310
FFFFFF0003FFFFFFFFFFE000000000FFF000FFE000000003FFF0001FFFFE0001
310
FFFFC0007F80007FFFC000000007FFFFFE000000003FFFF80000000000000000
310
7F80000000000001FFFFE000000003FFFFFFFFE000000003FFFFFF0003FFFFFF
310
FFFFF000000003FFF000FFF80000000FFFF0001FFFFE0001FFFFE0007F80007F
310
FFF00000000FFFFFFF00000000FFFFF800000000000000007F80000000000001
310
FFFFF80000000FFFFFFFFFF80000000FFFFFFF0003FFFFFFFFFFFC0000000FFF
310
F000FFFE0000003FFFF0001FFFFE0003FFFFE0003F80007FFFFC0000003FFFFF
310
FFC0000003FFFFF800000000000000007F80000000000001FFFFFE0000003FFF
310
FFFFFFFE0000003FFFFFFF0003FFFFFFFFFFFF0000003FFFF000FFFF800000FF
310
FFF0001FFFFF0003FFFFE0003F80007FFFFF000001FFFFFFFFF800001FFFFFF8
310
00000000000000007F80000000000001FFFFFFC00001FFFFFFFFFFFFC00001FF
310
FFFFFF0003FFFFFFFFFFFFC00000FFFFF000FFFFF8000FFFFFFFFFFFFFFFFFFF
310
FFFFFFFFFFFFFFFFFFFFF0001FFFFFFFFFFF0000FFFFFFF80000000000000000
310
7FFFFFFFFFFFFFFFFFFFFFFC001FFFFFFFFFFFFFFC001FFFFFFFFFFFFFFFFFFF
310
FFFFFFFC001FFFFFF000FFFFFFFFFFFFFFFFFFFFFFFFFFFFFFFFFFFFFFFFFFFF
310
FFFFFFFFFFFFFFFFFFFFFFFFFFFFFFFFFFFFFFFFFFFFFFFFFFFFFFFFFFFFFFFF
310
FFFFFFFFFFFFFFFFFFFFFFFFFFFFFFFFFFFFFFFFFFFFFFFFFFFFFFFFFFFFFFFF
310
F000FFFFFFFFFFFFFFFFFFFFFFFFFFFFFFFFFFFFFFFFFFFFFFFFFFFFFFFFFFFF
310
FFFFFFFFFFFFFFFFFFFFFFFFFFFFFFFFFFFFFFFFFFFFFFFFFFFFFFFFFFFFFFFF
310
FFFFFFFFFFFFFFFFFFFFFFFFFFFFFFFFFFFFFFFFFFFFFFFFF000FFFFFFFFFFFF
310
FFFFFFFFFFFFFFFFFFFFFFFFFFFFFFFFFFFFFFFFFFFFFFFFFFFFFFFFFFFFFFFF
310
FFFFFFFFFFFFFFFFFFFFFFFFFFFFFFFFFFFFFFFFFFFFFFFFFFFFFFFFFFFFFFFF
310
FFFFFFFFFFFFFFFFFFFFFFFFFFFFFFFFF000FFFFFFFFFFFFFFFFFFFFFFFFFFFF
310
FFFFFFFFFFFFFFFFFFFFFFFFFFFFFFFFFFFFFFFFFFFFFFFFFFFFFFFFFFFFFFFF
310
FFFFFFFFFFFFFFFFFFFFFFFFFFFFFFFFFFFFFFFFFFFFFFFFFFFFFFFFFFFFFFFF
310
FFFFFFFFFFFFFFFFF000FFFFFFFFFFFFFFFFFFFFFFFFFFFFFFFFFFFFFFFFFFFF
310
FFFFFFFFFFFFFFFFFFFFFFFFFFFFFFFFFFFFFFFFFFFFFFFFFFFFFFFFFFFFFFFF
310
FFFFFFFFFFFFFFFFFFFFFFFFFFFFFFFFFFFFFFFFFFFFFFFFFFFFFFFFFFFFFFFF
310
F000FFFFFFFFFFFFFFFFFFFFFFFFFFFFFFFFFFFFFFFFFFFFFFFFFFFFFFFFFFFF
310
FFFFFFFFFFFFFFFFFFFFFFFFFFFFFFFFFFFFFFFFFFFFFFFFFFFFFFFFFFFFFFFF
310
FFFFFFFFFFFFFFFFFFFFFFFFFFFFFFFFFFFFFFFFFFFFFFFFF000FFFFFFFFFFFF
310
FFFFFFFFFFFFFFFFFFFFFFFFFFFFFFFFFFFFFFFFFFFFFFFFFFFFFFFFFFFFFFFF
310
FFFFFFFFFFFFFFFFFFFFFFFFFFFFFFFFFFFFFFFFFFFFFFFFFFFFFFFFFFFFFFFF
310
FFFFFFFFFFFFFFFFFFFFFFFFFFFFFFFFF000FFFFFFFFFFFFFFFFFFFFFFFFFFFF
310
FFFFFFFFFFFFFFFFFFFFFFFFFFFFFFFFFFFFFFFFFFFFFFFFFFFFFFFFFFFFFFFF
310
FFFFFFFFFFFFFFFFFFFFFFFFFFFFFFFFFFFFFFFFFFFFFFFFFFFFFFFFFFFFFFFF
310
FFFFFFFFFFFFFFFFF000FFFFFFFFFFFFFFFFFFFFFFFFFFFFFFFFFFFFFFFFFFFF
310
FFFFFFFFFFFFFFFFFFFFFFFFFFFFFFFFFFFFFFFFFFFFFFFFFFFFFFFFFFFFFFFF
310
FFFFFFFFFFFFFFFFFFFFFFFFFFFFFFFFFFFFFFFFFFFFFFFFFFFFFFFFFFFFFFFF
310
F000FFFFFFFFFFFFFFFFFFFFFFFFFFFFFFFFFFFFFFFFFFFFFFFFFFFFFFFFFFFF
310
FFFFFFFFFFFFFFFFFFFFFFFFFFFFFFFFFFFFFFFFFFFFFFFFFFFFFFFFFFFFFFFF
310
FFFFFFFFFFFFFFFFFFFFFFFFFFFFFFFFFFFFFFFFFFFFFFFFF000FFFFFFFFFFFF
310
FFFFFFFFFFFFFFFFFFFFFFFFFFFFFFFFFFFFFFFFFFFFFFFFFFFFFFFFFFFFFFFF
310
FFFFFFFFFFFFFFFFFFFFFFFFFFFFFFFFFFFFFFFFFFFFFFFFFFFFFFFFFFFFFFFF
310
FFFFFFFFFFFFFFFFFFFFFFFFFFFFFFFFF000FFFFFFFFFFFFFFFFFFFFFFFFFFFF
310
FFFFFFFFFFFFFFFFFFFFFFFFFFFFFFFFFFFFFFFFFFFFFFFFFFFFFFFFFFFFFFFF
310
FFFFFFFFFFFFFFFFFFFFFFFFFFFFFFFFFFFFFFFFFFFFFFFFFFFFFFFFFFFFFFFF
310
FFFFFFFFFFFFFFFFF000FFFFFFFFFFFFFFFFFFFFFFFFFFFFFFFFFFFFFFFFFFFF
310
FFFFFFFFFFFFFFFFFFFFFFFFFFFFFFFFFFFFFFFFFFFFFFFFFFFFFFFFFFFFFFFF
310
FFFFFFFFFFFFFFFFFFFFFFFFFFFFFFFFFFFFFFFFFFFFFFFFFFFFFFFFFFFFFFFF
310
F000FFFFFFFFFFFFFFFFFFFFFFFFFFFFFFFFFFFFFFFFFFFFFFFFFFFFFFFFFFFF
310
FFFFFFFFFFFFFFFFFFFFFFFFFFFFFFFFFFFFFFFFFFFFFFFFFFFFFFFFFFFFFFFF
310
FFFFFFFFFFFFFFFFFFFFFFFFFFFFFFFFFFFFFFFFFFFFFFFFF000FFFFFFFFFFFF
310
FFFFFFFFFFFFFFFFFFFFFFFFFFFFFFFFFFFFFFFFFFFFFFFFFFFFFFFFFFFFFFFF
310
FFFFFFFFFFFFFFFFFFFFFFFFFFFFFFFFFFFFFFFFFFFFFFFFFFFFFFFFFFFFFFFF
310
FFFFFFFFFFFFFFFFFFFFFFFFFFFFFFFFF000FFFFFFFFFFFFFFFFFFFFFFFFFFFF
310
FFFFFFFFFFFFFFFFFFFFFFFFFFFFFFFFFFFFFFFFFFFFFFFFFFFFFFFFFFFFFFFF
310
FFFFFFFFFFFFFFFFFFFFFFFFFFFFFFFFFFFFFFFFFFFFFFFFFFFFFFFFFFFFFFFF
310
FFFFFFFFFFFFFFFFF000FFFFFFFFFFFFFFFFFFFFFFFFFFFFFFFFFFFFFFFFFFFF
310
FFFFFFFFFFFFFFFFFFFFFFFFFFFFFFFFFFFFFFFFFFFFFFFFFFFFFFFFFFFFFFFF
310
FFFFFFFFFFFFFFFFFFFFFFFFFFFFFFFFFFFFFFFFFFFFFFFFFFFFFFFFFFFFFFFF
310
F000FFFFFFFFFFFFFFFFFFFFFFFFFFFFFFFFFFFFFFFFFFFFFFFFFFFFFFFFFFFF
310
FFFFFFFFFFFFFFFFFFFFFFFFFFFFFFFFFFFFFFFFFFFFFFFFFFFFFFFFFFFFFFFF
310
FFFFFFFFFFFFFFFFFFFFFFFFFFFFFFFFFFFFFFFFFFFFFFFFF000FFFFFFFFFFFF
310
FFFFFFFFFFFFFFFFFFFFFFFFFFFFFFFFFFFFFFFFFFFFFFFFFFFFFFFFFFFFFFFF
310
FFFFFFFFFFFFFFFFFFFFFFFFFFFFFFFFFFFFFFFFFFFFFFFFFFFFFFFFFFFFFFFF
310
FFFFFFFFFFFFFFFFFFFFFFFFFFFFFFFFF000FFFFFFFFFFFFFFFFFFFFFFFFFFFF
310
FFFFFFFFFFFFFFFFFFFFFFFFFFFFFFFFFFFFFFFFFFFFFFFFFFFFFFFFFFFFFFFF
310
FFFFFFFFFFFFFFFFFFFFFFFFFFFFFFFFFFFFFFFFFFFFFFFFFFFFFFFFFFFFFFFF
310
FFFFFFFFFFFFFFFFF000FFFFFFFFFFFFFFFFFFFFFFFFFFFFFFFFFFFFFFFFFFFF
310
FFFFFFFFFFFFFFFFFFFFFFFFFFFFFFFFFFFFFFFFFFFFFFFFFFFFFFFFFFFFFFFF
310
FFFFFFFFFFFFFFFFFFFFFFFFFFFFFFFFFFFFFFFFFFFFFFFFFFFFFFFFFFFFFFFF
310
F000FFFFFFFFFFFFFFFFFFFFFFFFFFFFFFFFFFFFFFFFFFFFFFFFFFFFFFFFFFFF
310
FFFFFFFFFFFFFFFFFFFFFFFFFFFFFFFFFFFFFFFFFFFFFFFFFFFFFFFFFFFFFFFF
310
FFFFFFFFFFFFFFFFFFFFFFFFFFFFFFFFFFFFFFFFFFFFFFFFF000FFFFFFFFFFFF
310
FFFFFFFFFFFFFFFFFFFFFFFFFFFFFFFFFFFFFFFFFFFFFFFFFFFFFFFFFFFFFFFF
310
FFFFFFFFFFFFFFFFFFFFFFFFFFFFFFFFFFFFFFFFFFFFFFFFFFFFFFFFFFFFFFFF
310
FFFFFFFFFFFFFFFFFFFFFFFFFFFFFFFFF0000000000000000000000000000000
310
00000000FFFFFF7FFFFFFF7FFFFFFF7FFFFFFF7FFFFFFF7FFFFFFF7FFFFFFF7F
310
FFFFFF7FFFFFFF7FFFFFFF7FFFFFFF7FFFFFFF7FFFFFFF7FFFFFFF7FFFFFFF7F
310
FFFFFF7FFFFFFF7FFFFFFF7FFFFFFF7FFFFFFF7FFFFFFF7FFFFFFF7FFFFFFF7F
310
FFFFFF7FFFFFFF7FFFFFFF7FFFFFFF7FFFFFFF7FFFFFFF7FFFFFFF7FFFFFFF7F
310
FFFFFF7FFFFFFF7FFFFFFF7FFFFFFF7FFFFFFF7FFFFFFF7FFFFFFF7FFFFFFF7F
310
FFFFFF7FFFFFFF7FFFFFFF7FFFFFFF7FFFFFFF7FFFFFFF7FFFFFFF7FFFFFFF7F
310
FFFFFF7FFFFFFF7FFFFFFF7FFFFFFF7F8030304B00C33D4B0A98084B68FBE34A
310
68CBB74A546A9D4AA680764AA176734AD6FC5A4A80D7F54780763648E1D06848
310
80FA6D4854AE7948ED1D7A4827749D480020C447004C2548005F9648002E1349
310
003FA049FFFFFF7FFFFFFF7FFFFFFF7FFFFFFF7FFFFFFF7FFFFFFF7FFFFFFF7F
310
FFFFFF7FFFFFFF7FFFFFFF7FFFFFFF7FFFFFFF7FFFFFFF7FFFFFFF7FFFFFFF7F
310
FFFFFF7FFFFFFF7FFFFFFF7FFFFFFF7FFFFFFF7FFFFFFF7FFFFFFF7FFFFFFF7F
310
FFFFFF7FFFFFFF7FFFFFFF7FFFFFFF7FFFFFFF7FFFFFFF7FFFFFFF7FFFFFFF7F
310
FFFFFF7FFFFFFF7FFFFFFF7FFFFFFF7FFFFFFF7FFFFFFF7FFFFFFF7FFFFFFF7F
310
FFFFFF7FFFFFFF7FFFFFFF7FFFFFFF7FFFFFFF7FFFFFFF7FFFFFFF7FFFFFFF7F
  1
OLE
  0
ENDSEC
  0
SECTION
  2
OBJECTS
  0
DICTIONARY
  5
C
330
0
100
AcDbDictionary
281
     1
  3
ACAD_GROUP
350
D
  3
ACAD_LAYOUT
350
1A
  3
ACAD_MLEADERSTYLE
350
193
  3
ACAD_MLINESTYLE
350
17
  3
ACAD_PLOTSETTINGS
350
19
  3
ACAD_PLOTSTYLENAME
350
E
  3
ACAD_TABLESTYLE
350
192
  3
ACAD_VISUALSTYLE
350
2A
  3
AcDbVariableDictionary
350
194
  0
DICTIONARY
  5
D
102
{ACAD_REACTORS
330
C
102
}
330
C
100
AcDbDictionary
281
     1
  0
DICTIONARY
  5
1A
102
{ACAD_REACTORS
330
C
102
}
330
C
100
AcDbDictionary
281
     1
  3
Layout1
350
1E
  3
Layout2
350
26
  3
Model
350
22
  0
DICTIONARY
  5
193
102
{ACAD_REACTORS
330
C
102
}
330
C
100
AcDbDictionary
281
     1
  0
DICTIONARY
  5
17
102
{ACAD_REACTORS
330
C
102
}
330
C
100
AcDbDictionary
281
     1
  3
Standard
350
18
  0
DICTIONARY
  5
19
102
{ACAD_REACTORS
330
C
102
}
330
C
100
AcDbDictionary
281
     1
  0
ACDBDICTIONARYWDFLT
  5
E
102
{ACAD_REACTORS
330
C
102
}
330
C
100
AcDbDictionary
281
     1
  3
Normal
350
F
100
AcDbDictionaryWithDefault
340
F
  0
DICTIONARY
  5
192
102
{ACAD_REACTORS
330
C
102
}
330
C
100
AcDbDictionary
281
     1
  0
DICTIONARY
  5
2A
102
{ACAD_REACTORS
330
C
102
}
330
C
100
AcDbDictionary
281
     1
  3
2dWireframe
350
2F
  3
3D Hidden
350
31
  3
3dWireframe
350
30
  3
Basic
350
32
  3
Brighten
350
36
  3
ColorChange
350
3A
  3
Conceptual
350
34
  3
Dim
350
35
  3
Facepattern
350
39
  3
Flat
350
2B
  3
FlatWithEdges
350
2C
  3
Gouraud
350
2D
  3
GouraudWithEdges
350
2E
  3
Linepattern
350
38
  3
Realistic
350
33
  3
Thicken
350
37
  0
DICTIONARY
  5
194
102
{ACAD_REACTORS
330
C
102
}
330
C
100
AcDbDictionary
281
     1
  3
PSOLHEIGHT
350
196
  3
PSOLWIDTH
350
195
  0
LAYOUT
  5
1E
102
{ACAD_REACTORS
330
1A
102
}
330
1A
100
AcDbPlotSettings
  1

  2
none_device
  4

  6

 40
0.0
 41
0.0
 42
0.0
 43
0.0
 44
0.0
 45
0.0
 46
0.0
 47
0.0
 48
0.0
 49
0.0
140
0.0
141
0.0
142
1.0
143
1.0
 70
   688
 72
     0
 73
     0
 74
     5
  7

 75
    16
147
1.0
148
0.0
149
0.0
100
AcDbLayout
  1
Layout1
 70
     1
 71
     1
 10
0.0
 20
0.0
 11
420.0
 21
297.0
 12
0.0
 22
0.0
 32
0.0
 14
1.0000000000E+20
 24
1.0000000000E+20
 34
1.0000000000E+20
 15
-1.0000000000E+20
 25
-1.0000000000E+20
 35
-1.0000000000E+20
146
0.0
 13
0.0
 23
0.0
 33
0.0
 16
1.0
 26
0.0
 36
0.0
 17
0.0
 27
1.0
 37
0.0
 76
     0
330
1B
  0
LAYOUT
  5
26
102
{ACAD_REACTORS
330
1A
102
}
330
1A
100
AcDbPlotSettings
  1

  2
none_device
  4

  6

 40
0.0
 41
0.0
 42
0.0
 43
0.0
 44
0.0
 45
0.0
 46
0.0
 47
0.0
 48
0.0
 49
0.0
140
0.0
141
0.0
142
1.0
143
1.0
 70
   688
 72
     0
 73
     0
 74
     5
  7

 75
    16
147
1.0
148
0.0
149
0.0
100
AcDbLayout
  1
Layout2
 70
     1
 71
     2
 10
0.0
 20
0.0
 11
0.0
 21
0.0
 12
0.0
 22
0.0
 32
0.0
 14
0.0
 24
0.0
 34
0.0
 15
0.0
 25
0.0
 35
0.0
146
0.0
 13
0.0
 23
0.0
 33
0.0
 16
1.0
 26
0.0
 36
0.0
 17
0.0
 27
1.0
 37
0.0
 76
     0
330
23
  0
LAYOUT
  5
22
102
{ACAD_REACTORS
330
1A
102
}
330
1A
100
AcDbPlotSettings
  1

  2
none_device
  4

  6

 40
0.0
 41
0.0
 42
0.0
 43
0.0
 44
0.0
 45
0.0
 46
0.0
 47
0.0
 48
0.0
 49
0.0
140
0.0
141
0.0
142
1.0
143
1.0
 70
  1712
 72
     0
 73
     0
 74
     0
  7

 75
     0
147
1.0
148
0.0
149
0.0
100
AcDbLayout
  1
Model
 70
     1
 71
     0
 10
0.0
 20
0.0
 11
297.0
 21
210.0
 12
0.0
 22
0.0
 32
0.0
 14
0.0
 24
0.0
 34
0.0
 15
297.0
 25
210.0
 35
0.0
146
0.0
 13
0.0
 23
0.0
 33
0.0
 16
1.0
 26
0.0
 36
0.0
 17
0.0
 27
1.0
 37
0.0
 76
     0
330
1F
331
29
  0
MLINESTYLE
  5
18
102
{ACAD_REACTORS
330
17
102
}
330
17
100
AcDbMlineStyle
  2
Standard
 70
     0
  3

 62
   256
 51
90.0
 52
90.0
 71
     2
 49
0.5
 62
   256
  6
BYLAYER
 49
-0.5
 62
   256
  6
BYLAYER
  0
ACDBPLACEHOLDER
  5
F
102
{ACAD_REACTORS
330
E
102
}
330
E
  0
VISUALSTYLE
  5
2F
102
{ACAD_REACTORS
330
2A
102
}
330
2A
100
AcDbVisualStyle
  2
2dWireframe
 70
     4
 71
     0
 72
     2
 73
     0
 90
        0
 40
-0.6
 41
-30.0
 62
     5
 63
     7
 74
     1
 91
        4
 64
     7
 65
   257
 75
     1
175
     1
 42
1.0
 92
        0
 66
   257
 43
1.0
 76
     1
 77
     6
 78
     2
 67
     7
 79
     5
170
     0
171
     0
290
     0
174
     0
 93
        1
 44
0.0
173
     0
291
     0
 45
0.0
1001
ACAD
1000
AcDbSavedByObjectVersion
1070
     0
  0
VISUALSTYLE
  5
31
102
{ACAD_REACTORS
330
2A
102
}
330
2A
100
AcDbVisualStyle
  2
3D Hidden
 70
     6
 71
     1
 72
     2
 73
     2
 90
        0
 40
-0.6
 41
-30.0
 62
     5
 63
     7
 74
     2
 91
        2
 64
     7
 65
   257
 75
     2
175
     1
 42
40.0
 92
        0
 66
   257
 43
1.0
 76
     1
 77
     6
 78
     2
 67
     7
 79
     3
170
     0
171
     0
290
     0
174
     0
 93
        1
 44
0.0
173
     0
291
     0
 45
0.0
1001
ACAD
1000
AcDbSavedByObjectVersion
1070
     0
  0
VISUALSTYLE
  5
30
102
{ACAD_REACTORS
330
2A
102
}
330
2A
100
AcDbVisualStyle
  2
3dWireframe
 70
     5
 71
     0
 72
     2
 73
     0
 90
        0
 40
-0.6
 41
-30.0
 62
     5
 63
     7
 74
     1
 91
        4
 64
     7
 65
   257
 75
     1
175
     1
 42
1.0
 92
        0
 66
   257
 43
1.0
 76
     1
 77
     6
 78
     2
 67
     7
 79
     5
170
     0
171
     0
290
     0
174
     0
 93
        1
 44
0.0
173
     0
291
     0
 45
0.0
1001
ACAD
1000
AcDbSavedByObjectVersion
1070
     0
  0
VISUALSTYLE
  5
32
102
{ACAD_REACTORS
330
2A
102
}
330
2A
100
AcDbVisualStyle
  2
Basic
 70
     7
 71
     1
 72
     0
 73
     1
 90
        0
 40
-0.6
 41
-30.0
 62
     5
 63
     7
 74
     0
 91
        4
 64
     7
 65
   257
 75
     1
175
     1
 42
1.0
 92
        8
 66
     7
 43
1.0
 76
     1
 77
     6
 78
     2
 67
     7
 79
     5
170
     0
171
     0
290
     0
174
     0
 93
        1
 44
0.0
173
     0
291
     1
 45
0.0
1001
ACAD
1000
AcDbSavedByObjectVersion
1070
     0
  0
VISUALSTYLE
  5
36
102
{ACAD_REACTORS
330
2A
102
}
330
2A
100
AcDbVisualStyle
  2
Brighten
 70
    12
 71
     2
 72
     2
 73
     0
 90
        0
 40
-0.6
 41
-30.0
 62
     5
 63
     7
 74
     1
 91
        4
 64
     7
 65
   257
 75
     1
175
     1
 42
1.0
 92
        8
 66
     7
 43
1.0
 76
     1
 77
     6
 78
     2
 67
     7
 79
     5
170
     0
171
     0
290
     0
174
     0
 93
        1
 44
50.0
173
     0
291
     1
 45
0.0
1001
ACAD
1000
AcDbSavedByObjectVersion
1070
     0
  0
VISUALSTYLE
  5
3A
102
{ACAD_REACTORS
330
2A
102
}
330
2A
100
AcDbVisualStyle
  2
ColorChange
 70
    16
 71
     2
 72
     2
 73
     3
 90
        0
 40
-0.6
 41
-30.0
 62
     5
 63
     8
 74
     1
 91
        4
 64
     7
 65
   257
 75
     1
175
     1
 42
1.0
 92
        8
 66
     8
 43
1.0
 76
     1
 77
     6
 78
     2
 67
     7
 79
     5
170
     0
171
     0
290
     0
174
     0
 93
        1
 44
0.0
173
     0
291
     1
 45
0.0
1001
ACAD
1000
AcDbSavedByObjectVersion
1070
     0
  0
VISUALSTYLE
  5
34
102
{ACAD_REACTORS
330
2A
102
}
330
2A
100
AcDbVisualStyle
  2
Conceptual
 70
     9
 71
     3
 72
     2
 73
     0
 90
        0
 40
-0.6
 41
-30.0
 62
     5
 63
     7
 74
     2
 91
        2
 64
     7
 65
   257
 75
     1
175
     1
 42
40.0
 92
        8
 66
     7
 43
1.0
 76
     1
 77
     6
 78
     2
 67
     7
 79
     3
170
     0
171
     0
290
     0
174
     0
 93
        1
 44
0.0
173
     0
291
     0
 45
0.0
1001
ACAD
1000
AcDbSavedByObjectVersion
1070
     0
  0
VISUALSTYLE
  5
35
102
{ACAD_REACTORS
330
2A
102
}
330
2A
100
AcDbVisualStyle
  2
Dim
 70
    11
 71
     2
 72
     2
 73
     0
 90
        0
 40
-0.6
 41
-30.0
 62
     5
 63
     7
 74
     1
 91
        4
 64
     7
 65
   257
 75
     1
175
     1
 42
1.0
 92
        8
 66
     7
 43
1.0
 76
     1
 77
     6
 78
     2
 67
     7
 79
     5
170
     0
171
     0
290
     0
174
     0
 93
        1
 44
-50.0
173
     0
291
     1
 45
0.0
1001
ACAD
1000
AcDbSavedByObjectVersion
1070
     0
  0
VISUALSTYLE
  5
39
102
{ACAD_REACTORS
330
2A
102
}
330
2A
100
AcDbVisualStyle
  2
Facepattern
 70
    15
 71
     2
 72
     2
 73
     0
 90
        0
 40
-0.6
 41
-30.0
 62
     5
 63
     7
 74
     1
 91
        4
 64
     7
 65
   257
 75
     1
175
     1
 42
1.0
 92
        8
 66
     7
 43
1.0
 76
     1
 77
     6
 78
     2
 67
     7
 79
     5
170
     0
171
     0
290
     0
174
     0
 93
        1
 44
0.0
173
     0
291
     1
 45
0.0
1001
ACAD
1000
AcDbSavedByObjectVersion
1070
     0
  0
VISUALSTYLE
  5
2B
102
{ACAD_REACTORS
330
2A
102
}
330
2A
100
AcDbVisualStyle
  2
Flat
 70
     0
 71
     2
 72
     1
 73
     1
 90
        2
 40
-0.6
 41
30.0
 62
     5
 63
     7
 74
     0
 91
        4
 64
     7
 65
   257
 75
     1
175
     1
 42
1.0
 92
        8
 66
     7
 43
1.0
 76
     1
 77
     6
 78
     2
 67
     7
 79
     5
170
     0
171
     0
290
     0
174
     0
 93
       13
 44
0.0
173
     0
291
     1
 45
0.0
1001
ACAD
1000
AcDbSavedByObjectVersion
1070
     0
  0
VISUALSTYLE
  5
2C
102
{ACAD_REACTORS
330
2A
102
}
330
2A
100
AcDbVisualStyle
  2
FlatWithEdges
 70
     1
 71
     2
 72
     1
 73
     1
 90
        2
 40
-0.6
 41
30.0
 62
     5
 63
     7
 74
     1
 91
        4
 64
     7
 65
   257
 75
     1
175
     1
 42
1.0
 92
        0
 66
   257
 43
1.0
 76
     1
 77
     6
 78
     2
 67
     7
 79
     5
170
     0
171
     0
290
     0
174
     0
 93
       13
 44
0.0
173
     0
291
     1
 45
0.0
1001
ACAD
1000
AcDbSavedByObjectVersion
1070
     0
  0
VISUALSTYLE
  5
2D
102
{ACAD_REACTORS
330
2A
102
}
330
2A
100
AcDbVisualStyle
  2
Gouraud
 70
     2
 71
     2
 72
     2
 73
     1
 90
        2
 40
-0.6
 41
30.0
 62
     5
 63
     7
 74
     0
 91
        4
 64
     7
 65
   257
 75
     1
175
     1
 42
1.0
 92
        0
 66
     7
 43
1.0
 76
     1
 77
     6
 78
     2
 67
     7
 79
     5
170
     0
171
     0
290
     0
174
     0
 93
       13
 44
0.0
173
     0
291
     1
 45
0.0
1001
ACAD
1000
AcDbSavedByObjectVersion
1070
     0
  0
VISUALSTYLE
  5
2E
102
{ACAD_REACTORS
330
2A
102
}
330
2A
100
AcDbVisualStyle
  2
GouraudWithEdges
 70
     3
 71
     2
 72
     2
 73
     1
 90
        2
 40
-0.6
 41
30.0
 62
     5
 63
     7
 74
     1
 91
        4
 64
     7
 65
   257
 75
     1
175
     1
 42
1.0
 92
        0
 66
   257
 43
1.0
 76
     1
 77
     6
 78
     2
 67
     7
 79
     5
170
     0
171
     0
290
     0
174
     0
 93
       13
 44
0.0
173
     0
291
     1
 45
0.0
1001
ACAD
1000
AcDbSavedByObjectVersion
1070
     0
  0
VISUALSTYLE
  5
38
102
{ACAD_REACTORS
330
2A
102
}
330
2A
100
AcDbVisualStyle
  2
Linepattern
 70
    14
 71
     2
 72
     2
 73
     0
 90
        0
 40
-0.6
 41
-30.0
 62
     5
 63
     7
 74
     1
 91
        4
 64
     7
 65
   257
 75
     7
175
     7
 42
1.0
 92
        8
 66
     7
 43
1.0
 76
     1
 77
     6
 78
     2
 67
     7
 79
     5
170
     0
171
     0
290
     0
174
     0
 93
        1
 44
0.0
173
     0
291
     1
 45
0.0
1001
ACAD
1000
AcDbSavedByObjectVersion
1070
     0
  0
VISUALSTYLE
  5
33
102
{ACAD_REACTORS
330
2A
102
}
330
2A
100
AcDbVisualStyle
  2
Realistic
 70
     8
 71
     2
 72
     2
 73
     0
 90
        0
 40
-0.6
 41
-30.0
 62
     5
 63
     7
 74
     1
 91
        0
 64
     7
 65
   257
 75
     1
175
     1
 42
1.0
 92
        8
 66
     8
 43
1.0
 76
     1
 77
     6
 78
     2
 67
     7
 79
     5
170
     0
171
     0
290
     0
174
     0
 93
       13
 44
0.0
173
     0
291
     0
 45
0.0
1001
ACAD
1000
AcDbSavedByObjectVersion
1070
     0
  0
VISUALSTYLE
  5
37
102
{ACAD_REACTORS
330
2A
102
}
330
2A
100
AcDbVisualStyle
  2
Thicken
 70
    13
 71
     2
 72
     2
 73
     0
 90
        0
 40
-0.6
 41
-30.0
 62
     5
 63
     7
 74
     1
 91
        4
 64
     7
 65
   257
 75
     1
175
     1
 42
1.0
 92
       12
 66
     7
 43
1.0
 76
     1
 77
     6
 78
     2
 67
     7
 79
     5
170
     0
171
     0
290
     0
174
     0
 93
        1
 44
0.0
173
     0
291
     1
 45
0.0
1001
ACAD
1000
AcDbSavedByObjectVersion
1070
     0
  0
DICTIONARYVAR
  5
196
102
{ACAD_REACTORS
330
194
102
}
330
194
100
DictionaryVariables
280
     0
  1
80.000000
  0
DICTIONARYVAR
  5
195
102
{ACAD_REACTORS
330
194
102
}
330
194
100
DictionaryVariables
280
     0
  1
5.000000
  0
ENDSEC
  0
EOF
