  0
SECTION
  2
HEADER
  9
$ACADVER
  1
AC1015
  9
$ACADMAINTVER
 70
     6
  9
$DWGCODEPAGE
  3
ANSI_1252
  9
$INSBASE
 10
0.0
 20
0.0
 30
0.0
  9
$EXTMIN
 10
0.0
 20
0.0
 30
0.0
  9
$EXTMAX
 10
297.0
 20
210.0
 30
0.0
  9
$LIMMIN
 10
0.0
 20
0.0
  9
$LIMMAX
 10
297.0
 20
210.0
  9
$ORTHOMODE
 70
     0
  9
$REGENMODE
 70
     1
  9
$FILLMODE
 70
     1
  9
$QTEXTMODE
 70
     0
  9
$MIRRTEXT
 70
     1
  9
$LTSCALE
 40
1.0
  9
$ATTMODE
 70
     1
  9
$TEXTSIZE
 40
2.0
  9
$TRACEWID
 40
1.0
  9
$TEXTSTYLE
  7
Standard
  9
$CLAYER
  8
0
  9
$CELTYPE
  6
ByLayer
  9
$CECOLOR
 62
   256
  9
$CELTSCALE
 40
1.0
  9
$DISPSILH
 70
     0
  9
$DIMSCALE
 40
1.0
  9
$DIMASZ
 40
3.0
  9
$DIMEXO
 40
0.0
  9
$DIMDLI
 40
3.75
  9
$DIMRND
 40
0.0
  9
$DIMDLE
 40
0.0
  9
$DIMEXE
 40
1.0
  9
$DIMTP
 40
0.0
  9
$DIMTM
 40
0.0
  9
$DIMTXT
 40
2.0
  9
$DIMCEN
 40
2.5
  9
$DIMTSZ
 40
0.0
  9
$DIMTOL
 70
     0
  9
$DIMLIM
 70
     0
  9
$DIMTIH
 70
     1
  9
$DIMTOH
 70
     1
  9
$DIMSE1
 70
     0
  9
$DIMSE2
 70
     0
  9
$DIMTAD
 70
     1
  9
$DIMZIN
 70
     0
  9
$DIMBLK
  1

  9
$DIMASO
 70
     1
  9
$DIMSHO
 70
     1
  9
$DIMPOST
  1

  9
$DIMAPOST
  1

  9
$DIMALT
 70
     0
  9
$DIMALTD
 70
     3
  9
$DIMALTF
 40
0.0393700787
  9
$DIMLFAC
 40
1.0
  9
$DIMTOFL
 70
     1
  9
$DIMTVP
 40
0.0
  9
$DIMTIX
 70
     0
  9
$DIMSOXD
 70
     0
  9
$DIMSAH
 70
     0
  9
$DIMBLK1
  1

  9
$DIMBLK2
  1

  9
$DIMSTYLE
  2
ISO-25
  9
$DIMCLRD
 70
     0
  9
$DIMCLRE
 70
     0
  9
$DIMCLRT
 70
     0
  9
$DIMTFAC
 40
1.0
  9
$DIMGAP
 40
1.524
  9
$DIMJUST
 70
     0
  9
$DIMSD1
 70
     0
  9
$DIMSD2
 70
     0
  9
$DIMTOLJ
 70
     0
  9
$DIMTZIN
 70
     0
  9
$DIMALTZ
 70
     0
  9
$DIMALTTZ
 70
     0
  9
$DIMUPT
 70
     0
  9
$DIMDEC
 70
     2
  9
$DIMTDEC
 70
     3
  9
$DIMALTU
 70
     2
  9
$DIMALTTD
 70
     3
  9
$DIMTXSTY
  7
Standard
  9
$DIMAUNIT
 70
     0
  9
$DIMADEC
 70
     2
  9
$DIMALTRND
 40
0.0
  9
$DIMAZIN
 70
     0
  9
$DIMDSEP
 70
    44
  9
$DIMATFIT
 70
     3
  9
$DIMFRAC
 70
     0
  9
$DIMLDRBLK
  1

  9
$DIMLUNIT
 70
     2
  9
$DIMLWD
 70
    -2
  9
$DIMLWE
 70
    -2
  9
$DIMTMOVE
 70
     0
  9
$LUNITS
 70
     2
  9
$LUPREC
 70
     2
  9
$SKETCHINC
 40
1.0
  9
$FILLETRAD
 40
10.0
  9
$AUNITS
 70
     0
  9
$AUPREC
 70
     2
  9
$MENU
  1
.
  9
$ELEVATION
 40
0.0
  9
$PELEVATION
 40
0.0
  9
$THICKNESS
 40
0.0
  9
$LIMCHECK
 70
     0
  9
$CHAMFERA
 40
10.0
  9
$CHAMFERB
 40
10.0
  9
$CHAMFERC
 40
20.0
  9
$CHAMFERD
 40
0.0
  9
$SKPOLY
 70
     0
  9
$TDCREATE
 40
2455630.472767083
  9
$TDUCREATE
 40
2455630.431100416
  9
$TDUPDATE
 40
2455630.472767095
  9
$TDUUPDATE
 40
2455630.431100428
  9
$TDINDWG
 40
0.0000000116
  9
$TDUSRTIMER
 40
0.0000000116
  9
$USRTIMER
 70
     1
  9
$ANGBASE
 50
0.0
  9
$ANGDIR
 70
     0
  9
$PDMODE
 70
     0
  9
$PDSIZE
 40
-1.0
  9
$PLINEWID
 40
0.0
  9
$SPLFRAME
 70
     0
  9
$SPLINETYPE
 70
     6
  9
$SPLINESEGS
 70
     8
  9
$HANDSEED
  5
186
  9
$SURFTAB1
 70
     6
  9
$SURFTAB2
 70
     6
  9
$SURFTYPE
 70
     6
  9
$SURFU
 70
     6
  9
$SURFV
 70
     6
  9
$UCSBASE
  2

  9
$UCSNAME
  2

  9
$UCSORG
 10
0.0
 20
0.0
 30
0.0
  9
$UCSXDIR
 10
1.0
 20
0.0
 30
0.0
  9
$UCSYDIR
 10
0.0
 20
1.0
 30
0.0
  9
$UCSORTHOREF
  2

  9
$UCSORTHOVIEW
 70
     0
  9
$UCSORGTOP
 10
0.0
 20
0.0
 30
0.0
  9
$UCSORGBOTTOM
 10
0.0
 20
0.0
 30
0.0
  9
$UCSORGLEFT
 10
0.0
 20
0.0
 30
0.0
  9
$UCSORGRIGHT
 10
0.0
 20
0.0
 30
0.0
  9
$UCSORGFRONT
 10
0.0
 20
0.0
 30
0.0
  9
$UCSORGBACK
 10
0.0
 20
0.0
 30
0.0
  9
$PUCSBASE
  2

  9
$PUCSNAME
  2

  9
$PUCSORG
 10
0.0
 20
0.0
 30
0.0
  9
$PUCSXDIR
 10
1.0
 20
0.0
 30
0.0
  9
$PUCSYDIR
 10
0.0
 20
1.0
 30
0.0
  9
$PUCSORTHOREF
  2

  9
$PUCSORTHOVIEW
 70
     0
  9
$PUCSORGTOP
 10
0.0
 20
0.0
 30
0.0
  9
$PUCSORGBOTTOM
 10
0.0
 20
0.0
 30
0.0
  9
$PUCSORGLEFT
 10
0.0
 20
0.0
 30
0.0
  9
$PUCSORGRIGHT
 10
0.0
 20
0.0
 30
0.0
  9
$PUCSORGFRONT
 10
0.0
 20
0.0
 30
0.0
  9
$PUCSORGBACK
 10
0.0
 20
0.0
 30
0.0
  9
$USERI1
 70
     0
  9
$USERI2
 70
     0
  9
$USERI3
 70
     0
  9
$USERI4
 70
     0
  9
$USERI5
 70
     0
  9
$USERR1
 40
0.0
  9
$USERR2
 40
0.0
  9
$USERR3
 40
0.0
  9
$USERR4
 40
0.0
  9
$USERR5
 40
0.0
  9
$WORLDVIEW
 70
     1
  9
$SHADEDGE
 70
     3
  9
$SHADEDIF
 70
    70
  9
$TILEMODE
 70
     1
  9
$MAXACTVP
 70
    64
  9
$PINSBASE
 10
0.0
 20
0.0
 30
0.0
  9
$PLIMCHECK
 70
     0
  9
$PEXTMIN
 10
1.0000000000E+20
 20
1.0000000000E+20
 30
1.0000000000E+20
  9
$PEXTMAX
 10
-1.0000000000E+20
 20
-1.0000000000E+20
 30
-1.0000000000E+20
  9
$PLIMMIN
 10
0.0
 20
0.0
  9
$PLIMMAX
 10
420.0
 20
297.0
  9
$UNITMODE
 70
     0
  9
$VISRETAIN
 70
     1
  9
$PLINEGEN
 70
     0
  9
$PSLTSCALE
 70
     1
  9
$TREEDEPTH
 70
  3020
  9
$CMLSTYLE
  2
Standard
  9
$CMLJUST
 70
     0
  9
$CMLSCALE
 40
20.0
  9
$PROXYGRAPHICS
 70
     1
  9
$MEASUREMENT
 70
     1
  9
$CELWEIGHT
370
    -1
  9
$ENDCAPS
280
     0
  9
$JOINSTYLE
280
     0
  9
$LWDISPLAY
290
     1
  9
$INSUNITS
 70
     4
  9
$HYPERLINKBASE
  1

  9
$STYLESHEET
  1

  9
$XEDIT
290
     1
  9
$CEPSNTYPE
380
     0
  9
$PSTYLEMODE
290
     1
  9
$FINGERPRINTGUID
  2
{6F3CB416-41F7-4127-B924-E872ACAD6F4F}
  9
$VERSIONGUID
  2
{FAEB1C32-E019-11D5-929B-00C0DF256EC4}
  9
$EXTNAMES
290
     1
  9
$PSVPSCALE
 40
0.0
  9
$OLESTARTUP
290
     0
  0
ENDSEC
  0
SECTION
  2
CLASSES
  0
CLASS
  1
ACDBDICTIONARYWDFLT
  2
AcDbDictionaryWithDefault
  3
ObjectDBX Classes
 90
        0
280
     0
281
     0
  0
CLASS
  1
VISUALSTYLE
  2
AcDbVisualStyle
  3
ObjectDBX Classes
 90
     4095
280
     0
281
     0
  0
CLASS
  1
DICTIONARYVAR
  2
AcDbDictionaryVar
  3
ObjectDBX Classes
 90
        0
280
     0
281
     0
  0
CLASS
  1
ACDBPLACEHOLDER
  2
AcDbPlaceHolder
  3
ObjectDBX Classes
 90
        0
280
     0
281
     0
  0
CLASS
  1
LAYOUT
  2
AcDbLayout
  3
ObjectDBX Classes
 90
        0
280
     0
281
     0
  0
ENDSEC
  0
SECTION
  2
TABLES
  0
TABLE
  2
VPORT
  5
8
330
0
100
AcDbSymbolTable
 70
     1
  0
VPORT
  5
29
330
8
100
AcDbSymbolTableRecord
100
AcDbViewportTableRecord
  2
*Active
 70
     0
 10
0.0
 20
0.0
 11
1.0
 21
1.0
 12
148.5
 22
105.0
 13
0.0
 23
0.0
 14
10.0
 24
10.0
 15
10.0
 25
10.0
 16
0.0
 26
0.0
 36
1.0
 17
0.0
 27
0.0
 37
0.0
 40
210.0
 41
1.4142857143
 42
50.0
 43
0.0
 44
0.0
 50
0.0
 51
0.0
 71
     0
 72
  2000
 73
     1
 74
     3
 75
     0
 76
     0
 77
     0
 78
     0
281
     0
 65
     1
110
0.0
120
0.0
130
0.0
111
1.0
121
0.0
131
0.0
112
0.0
122
1.0
132
0.0
 79
     0
146
0.0
  0
ENDTAB
  0
TABLE
  2
LTYPE
  5
5
330
0
100
AcDbSymbolTable
 70
     6
  0
LTYPE
  5
14
330
5
100
AcDbSymbolTableRecord
100
AcDbLinetypeTableRecord
  2
ByBlock
 70
     0
  3

 72
    65
 73
     0
 40
0.0
  0
LTYPE
  5
15
330
5
100
AcDbSymbolTableRecord
100
AcDbLinetypeTableRecord
  2
ByLayer
 70
     0
  3

 72
    65
 73
     0
 40
0.0
  0
LTYPE
  5
16
330
5
100
AcDbSymbolTableRecord
100
AcDbLinetypeTableRecord
  2
Continuous
 70
     0
  3
Solid line
 72
    65
 73
     0
 40
0.0
  0
LTYPE
  5
3B
330
5
100
AcDbSymbolTableRecord
100
AcDbLinetypeTableRecord
  2
HIDDEN
 70
     0
  3
Hidden __ __ __ __ __ __ __ __ __ __ __ __ __ __
 72
    65
 73
     2
 40
1.905
 49
1.27
 74
     0
 49
-0.635
 74
     0
  0
LTYPE
  5
3C
330
5
100
AcDbSymbolTableRecord
100
AcDbLinetypeTableRecord
  2
PHANTOM
 70
     0
  3
Phantom ______  __  __  ______  __  __  ______
 72
    65
 73
     6
 40
12.7
 49
6.35
 74
     0
 49
-1.27
 74
     0
 49
1.27
 74
     0
 49
-1.27
 74
     0
 49
1.27
 74
     0
 49
-1.27
 74
     0
  0
LTYPE
  5
3D
330
5
100
AcDbSymbolTableRecord
100
AcDbLinetypeTableRecord
  2
CENTER
 70
     0
  3
Center ____ _ ____ _ ____ _ ____ _ ____ _ ____
 72
    65
 73
     4
 40
10.16
 49
6.35
 74
     0
 49
-1.27
 74
     0
 49
1.27
 74
     0
 49
-1.27
 74
     0
  0
LTYPE
  5
3E
330
5
100
AcDbSymbolTableRecord
100
AcDbLinetypeTableRecord
  2
CENTERX2
 70
     0
  3
Center (2x) ________  __  ________  __  _____
 72
    65
 73
     4
 40
20.32
 49
12.7
 74
     0
 49
-2.54
 74
     0
 49
2.54
 74
     0
 49
-2.54
 74
     0
  0
LTYPE
  5
3F
330
5
100
AcDbSymbolTableRecord
100
AcDbLinetypeTableRecord
  2
DOT2
 70
     0
  3
Dot (.5x) ........................................
 72
    65
 73
     2
 40
0.635
 49
0.0
 74
     0
 49
-0.635
 74
     0
  0
ENDTAB
  0
TABLE
  2
LAYER
  5
2
330
0
100
AcDbSymbolTable
 70
     5
  0
LAYER
  5
10
330
2
100
AcDbSymbolTableRecord
100
AcDbLayerTableRecord
  2
0
 70
     0
 62
     7
  6
Continuous
370
    -3
390
F
  0
LAYER
  5
40
330
2
100
AcDbSymbolTableRecord
100
AcDbLayerTableRecord
  2
FORMAT
 70
     0
 62
     7
  6
Continuous
370
    -3
390
F
  0
LAYER
  5
41
330
2
100
AcDbSymbolTableRecord
100
AcDbLayerTableRecord
  2
VERMASSUNG
 70
     0
 62
     7
  6
Continuous
370
    -3
390
F
  0
LAYER
  5
42
330
2
100
AcDbSymbolTableRecord
100
AcDbLayerTableRecord
  2
KOPF_DÜNN
 70
     0
 62
     7
  6
Continuous
370
    -3
390
F
  0
LAYER
  5
43
330
2
100
AcDbSymbolTableRecord
100
AcDbLayerTableRecord
  2
KOPF_DICK
 70
     0
 62
     7
  6
Continuous
370
    15
390
F
  0
ENDTAB
  0
TABLE
  2
STYLE
  5
3
330
0
100
AcDbSymbolTable
 70
     3
  0
STYLE
  5
11
330
3
100
AcDbSymbolTableRecord
100
AcDbTextStyleTableRecord
  2
Standard
 70
     0
 40
0.0
 41
1.0
 50
0.0
 71
     0
 42
2.5
  3
txt
  4

  0
STYLE
  5
44
330
3
100
AcDbSymbolTableRecord
100
AcDbTextStyleTableRecord
  2
SLDTEXTSTYLE0
 70
     0
 40
0.0
 41
0.7
 50
0.0
 71
     0
 42
0.2
  3
TXT
  4

  0
STYLE
  5
48
330
3
100
AcDbSymbolTableRecord
100
AcDbTextStyleTableRecord
  2
SLDTEXTSTYLE1
 70
     0
 40
0.0
 41
0.6473684211
 50
0.0
 71
     0
 42
0.2
  3
TXT
  4

  0
ENDTAB
  0
TABLE
  2
VIEW
  5
6
330
0
100
AcDbSymbolTable
 70
     0
  0
ENDTAB
  0
TABLE
  2
UCS
  5
7
330
0
100
AcDbSymbolTable
 70
     0
  0
ENDTAB
  0
TABLE
  2
APPID
  5
9
330
0
100
AcDbSymbolTable
 70
     1
  0
APPID
  5
12
330
9
100
AcDbSymbolTableRecord
100
AcDbRegAppTableRecord
  2
ACAD
 70
     0
  0
ENDTAB
  0
TABLE
  2
DIMSTYLE
  5
A
330
0
100
AcDbSymbolTable
 70
     4
100
AcDbDimStyleTable
  0
DIMSTYLE
105
27
330
A
100
AcDbSymbolTableRecord
100
AcDbDimStyleTableRecord
  2
ISO-25
 70
     0
 41
2.5
 42
0.625
 43
3.75
 44
1.25
 73
     0
 74
     0
 77
     1
 78
     8
140
2.5
141
2.5
143
0.0393700787
147
0.625
171
     3
172
     1
271
     2
272
     2
274
     3
278
    44
283
     0
284
     8
340
11
  0
DIMSTYLE
105
12D
102
{ACAD_REACTORS
330
12C
102
}
330
A
100
AcDbSymbolTableRecord
100
AcDbDimStyleTableRecord
  2
SLDDIMSTYLE0
 70
     0
 41
3.0
 44
0.0
 45
0.000000001
 73
     0
 74
     0
 77
     1
 78
    12
140
2.0
147
0.5
173
     1
271
     2
272
     2
284
    12
340
44
  0
DIMSTYLE
105
13C
102
{ACAD_REACTORS
330
13B
102
}
330
A
100
AcDbSymbolTableRecord
100
AcDbDimStyleTableRecord
  2
SLDDIMSTYLE1
 70
     0
 41
3.0
 44
0.0
 45
0.000000001
 73
     0
 74
     0
 77
     1
 78
    12
140
2.0
147
0.5
173
     1
271
     2
272
     3
284
    12
340
44
  0
DIMSTYLE
105
149
102
{ACAD_REACTORS
330
148
330
153
330
15D
330
167
330
171
102
}
330
A
100
AcDbSymbolTableRecord
100
AcDbDimStyleTableRecord
  2
SLDDIMSTYLE2
 70
     0
 41
3.0
 44
0.0
 45
0.000000001
 73
     0
 74
     0
 77
     1
 78
    12
140
2.0
147
0.5
173
     1
271
     2
272
     3
284
    12
340
44
  0
ENDTAB
  0
TABLE
  2
BLOCK_RECORD
  5
1
330
0
100
AcDbSymbolTable
 70
     8
  0
BLOCK_RECORD
  5
1F
330
1
100
AcDbSymbolTableRecord
100
AcDbBlockTableRecord
  2
*Model_Space
340
22
  0
BLOCK_RECORD
  5
1B
330
1
100
AcDbSymbolTableRecord
100
AcDbBlockTableRecord
  2
*Paper_Space
340
1E
  0
BLOCK_RECORD
  5
23
330
1
100
AcDbSymbolTableRecord
100
AcDbBlockTableRecord
  2
*Paper_Space0
340
26
  0
BLOCK_RECORD
  5
12E
330
1
100
AcDbSymbolTableRecord
100
AcDbBlockTableRecord
  2
*D1
340
0
  0
BLOCK_RECORD
  5
13D
330
1
100
AcDbSymbolTableRecord
100
AcDbBlockTableRecord
  2
*D2
340
0
  0
BLOCK_RECORD
  5
14A
330
1
100
AcDbSymbolTableRecord
100
AcDbBlockTableRecord
  2
*D3
340
0
  0
BLOCK_RECORD
  5
154
330
1
100
AcDbSymbolTableRecord
100
AcDbBlockTableRecord
  2
*D4
340
0
  0
BLOCK_RECORD
  5
15E
330
1
100
AcDbSymbolTableRecord
100
AcDbBlockTableRecord
  2
*D5
340
0
  0
BLOCK_RECORD
  5
168
330
1
100
AcDbSymbolTableRecord
100
AcDbBlockTableRecord
  2
*D6
340
0
  0
BLOCK_RECORD
  5
172
330
1
100
AcDbSymbolTableRecord
100
AcDbBlockTableRecord
  2
*D7
340
0
  0
ENDTAB
  0
ENDSEC
  0
SECTION
  2
BLOCKS
  0
BLOCK
  5
20
330
1F
100
AcDbEntity
  8
0
100
AcDbBlockBegin
  2
*Model_Space
 70
     0
 10
0.0
 20
0.0
 30
0.0
  3
*Model_Space
  1

  0
ENDBLK
  5
21
330
1F
100
AcDbEntity
  8
0
100
AcDbBlockEnd
  0
BLOCK
  5
1C
330
1B
100
AcDbEntity
 67
     1
  8
0
100
AcDbBlockBegin
  2
*Paper_Space
 70
     0
 10
0.0
 20
0.0
 30
0.0
  3
*Paper_Space
  1

  0
ENDBLK
  5
1D
330
1B
100
AcDbEntity
 67
     1
  8
0
100
AcDbBlockEnd
  0
BLOCK
  5
24
330
23
100
AcDbEntity
  8
0
100
AcDbBlockBegin
  2
*Paper_Space0
 70
     0
 10
0.0
 20
0.0
 30
0.0
  3
*Paper_Space0
  1

  0
ENDBLK
  5
25
330
23
100
AcDbEntity
  8
0
100
AcDbBlockEnd
  0
BLOCK
  5
12F
330
12E
100
AcDbEntity
  8
0
100
AcDbBlockBegin
  2
*D1
 70
     1
 10
0.0
 20
0.0
 30
0.0
  3
*D1
  1

  0
SOLID
  5
131
330
12E
100
AcDbEntity
  8
VERMASSUNG
100
AcDbTrace
 10
218.9218746106
 20
111.1956532258
 30
0.0
 11
218.4718746106
 21
108.1956532258
 31
0.0
 12
219.3718746106
 22
108.1956532258
 32
0.0
 13
219.3718746106
 23
108.1956532258
 33
0.0
  0
SOLID
  5
132
330
12E
100
AcDbEntity
  8
VERMASSUNG
100
AcDbTrace
 10
218.9218746106
 20
114.1956532258
 30
0.0
 11
219.3718746106
 21
117.1956532258
 31
0.0
 12
218.4718746106
 22
117.1956532258
 32
0.0
 13
218.4718746106
 23
117.1956532258
 33
0.0
  0
LINE
  5
133
330
12E
100
AcDbEntity
  8
VERMASSUNG
100
AcDbLine
 10
213.139837405
 20
111.1956532258
 30
0.0
 11
219.9218746106
 21
111.1956532258
 31
0.0
  0
LINE
  5
134
330
12E
100
AcDbEntity
  8
VERMASSUNG
100
AcDbLine
 10
213.139837405
 20
114.1956532258
 30
0.0
 11
219.9218746106
 21
114.1956532258
 31
0.0
  0
LINE
  5
135
330
12E
100
AcDbEntity
  8
VERMASSUNG
100
AcDbLine
 10
218.9218746106
 20
111.1956532258
 30
0.0
 11
218.9218746106
 21
105.1956532258
 31
0.0
  0
LINE
  5
136
330
12E
100
AcDbEntity
  8
VERMASSUNG
100
AcDbLine
 10
218.9218746106
 20
111.1956532258
 30
0.0
 11
218.9218746106
 21
114.1956532258
 31
0.0
  0
LINE
  5
137
330
12E
100
AcDbEntity
  8
VERMASSUNG
100
AcDbLine
 10
218.9218746106
 20
114.1956532258
 30
0.0
 11
218.9218746106
 21
128.7423473387
 31
0.0
  0
MTEXT
  5
138
330
12E
100
AcDbEntity
  8
VERMASSUNG
100
AcDbMText
 10
216.3437391311
 20
120.9470204032
 30
0.0
 40
2.0
 41
0.0
 71
     1
 72
     1
  1
%%c
  7
SLDTEXTSTYLE0
 11
3.391901413832837E-15
 21
1.0
 31
0.0
 73
     1
 44
1.0
  0
MTEXT
  5
139
330
12E
100
AcDbEntity
  8
VERMASSUNG
100
AcDbMText
 10
216.3437392475
 20
124.5554266935
 30
0.0
 40
2.0
 41
0.0
 71
     1
 72
     1
  1
3
  7
SLDTEXTSTYLE0
 11
3.391901413832837E-15
 21
1.0
 31
0.0
 73
     1
 44
1.0
  0
MTEXT
  5
13A
330
12E
100
AcDbEntity
  8
VERMASSUNG
100
AcDbMText
 10
216.3437392475
 20
125.9553026613
 30
0.0
 40
2.0
 41
0.0
 71
     1
 72
     1
  1
 
  7
SLDTEXTSTYLE0
 11
3.391901413832837E-15
 21
1.0
 31
0.0
 73
     1
 44
1.0
  0
ENDBLK
  5
130
330
12E
100
AcDbEntity
  8
0
100
AcDbBlockEnd
  0
BLOCK
  5
13E
330
13D
100
AcDbEntity
  8
0
100
AcDbBlockBegin
  2
*D2
 70
     1
 10
0.0
 20
0.0
 30
0.0
  3
*D2
  1

  0
SOLID
  5
140
330
13D
100
AcDbEntity
  8
VERMASSUNG
100
AcDbTrace
 10
224.9218746106
 20
107.6956532258
 30
0.0
 11
225.3718746106
 21
110.6956532258
 31
0.0
 12
224.4718746106
 22
110.6956532258
 32
0.0
 13
224.4718746106
 23
110.6956532258
 33
0.0
  0
SOLID
  5
141
330
13D
100
AcDbEntity
  8
VERMASSUNG
100
AcDbTrace
 10
224.9218746106
 20
117.6956532258
 30
0.0
 11
224.4718746106
 21
114.6956532258
 31
0.0
 12
225.3718746106
 22
114.6956532258
 32
0.0
 13
225.3718746106
 23
114.6956532258
 33
0.0
  0
LINE
  5
142
330
13D
100
AcDbEntity
  8
VERMASSUNG
100
AcDbLine
 10
213.439837405
 20
107.6956532258
 30
0.0
 11
225.9218746106
 21
107.6956532258
 31
0.0
  0
LINE
  5
143
330
13D
100
AcDbEntity
  8
VERMASSUNG
100
AcDbLine
 10
213.439837405
 20
117.6956532258
 30
0.0
 11
225.9218746106
 21
117.6956532258
 31
0.0
  0
LINE
  5
144
330
13D
100
AcDbEntity
  8
VERMASSUNG
100
AcDbLine
 10
224.9218746106
 20
107.6956532258
 30
0.0
 11
224.9218746106
 21
117.6956532258
 31
0.0
  0
MTEXT
  5
145
330
13D
100
AcDbEntity
  8
VERMASSUNG
100
AcDbMText
 10
222.3437391311
 20
109.0921330645
 30
0.0
 40
2.0
 41
0.0
 71
     1
 72
     1
  1
%%c
  7
SLDTEXTSTYLE0
 11
3.391901413832837E-15
 21
1.0
 31
0.0
 73
     1
 44
1.0
  0
MTEXT
  5
146
330
13D
100
AcDbEntity
  8
VERMASSUNG
100
AcDbMText
 10
222.3437392475
 20
112.7005393548
 30
0.0
 40
2.0
 41
0.0
 71
     1
 72
     1
  1
10
  7
SLDTEXTSTYLE0
 11
3.391901413832837E-15
 21
1.0
 31
0.0
 73
     1
 44
1.0
  0
MTEXT
  5
147
330
13D
100
AcDbEntity
  8
VERMASSUNG
100
AcDbMText
 10
222.3437392475
 20
115.0996287097
 30
0.0
 40
2.0
 41
0.0
 71
     1
 72
     1
  1
 
  7
SLDTEXTSTYLE0
 11
3.391901413832837E-15
 21
1.0
 31
0.0
 73
     1
 44
1.0
  0
ENDBLK
  5
13F
330
13D
100
AcDbEntity
  8
0
100
AcDbBlockEnd
  0
BLOCK
  5
14B
330
14A
100
AcDbEntity
  8
0
100
AcDbBlockBegin
  2
*D3
 70
     1
 10
0.0
 20
0.0
 30
0.0
  3
*D3
  1

  0
SOLID
  5
14D
330
14A
100
AcDbEntity
  8
VERMASSUNG
100
AcDbTrace
 10
204.439837405
 20
142.1956532258
 30
0.0
 11
207.439837405
 21
141.7456532258
 31
0.0
 12
207.439837405
 22
142.6456532258
 32
0.0
 13
207.439837405
 23
142.6456532258
 33
0.0
  0
SOLID
  5
14E
330
14A
100
AcDbEntity
  8
VERMASSUNG
100
AcDbTrace
 10
213.439837405
 20
142.1956532258
 30
0.0
 11
210.439837405
 21
142.6456532258
 31
0.0
 12
210.439837405
 22
141.7456532258
 32
0.0
 13
210.439837405
 23
141.7456532258
 33
0.0
  0
LINE
  5
14F
330
14A
100
AcDbEntity
  8
VERMASSUNG
100
AcDbLine
 10
204.439837405
 20
112.6956532258
 30
0.0
 11
204.439837405
 21
143.1956532258
 31
0.0
  0
LINE
  5
150
330
14A
100
AcDbEntity
  8
VERMASSUNG
100
AcDbLine
 10
213.439837405
 20
112.6956532258
 30
0.0
 11
213.439837405
 21
143.1956532258
 31
0.0
  0
LINE
  5
151
330
14A
100
AcDbEntity
  8
VERMASSUNG
100
AcDbLine
 10
204.439837405
 20
142.1956532258
 30
0.0
 11
213.439837405
 21
142.1956532258
 31
0.0
  0
MTEXT
  5
152
330
14A
100
AcDbEntity
  8
VERMASSUNG
100
AcDbMText
 10
208.2398994212
 20
144.7737885889
 30
0.0
 40
2.0
 41
0.0
 71
     1
 72
     1
  1
9
  7
SLDTEXTSTYLE0
 73
     1
 44
1.0
  0
ENDBLK
  5
14C
330
14A
100
AcDbEntity
  8
0
100
AcDbBlockEnd
  0
BLOCK
  5
155
330
154
100
AcDbEntity
  8
0
100
AcDbBlockBegin
  2
*D4
 70
     1
 10
0.0
 20
0.0
 30
0.0
  3
*D4
  1

  0
SOLID
  5
157
330
154
100
AcDbEntity
  8
VERMASSUNG
100
AcDbTrace
 10
133.439837405
 20
154.1956532258
 30
0.0
 11
136.439837405
 21
153.7456532258
 31
0.0
 12
136.439837405
 22
154.6456532258
 32
0.0
 13
136.439837405
 23
154.6456532258
 33
0.0
  0
SOLID
  5
158
330
154
100
AcDbEntity
  8
VERMASSUNG
100
AcDbTrace
 10
213.439837405
 20
154.1956532258
 30
0.0
 11
210.439837405
 21
154.6456532258
 31
0.0
 12
210.439837405
 22
153.7456532258
 32
0.0
 13
210.439837405
 23
153.7456532258
 33
0.0
  0
LINE
  5
159
330
154
100
AcDbEntity
  8
VERMASSUNG
100
AcDbLine
 10
133.439837405
 20
112.6956532258
 30
0.0
 11
133.439837405
 21
155.1956532258
 31
0.0
  0
LINE
  5
15A
330
154
100
AcDbEntity
  8
VERMASSUNG
100
AcDbLine
 10
213.439837405
 20
112.6956532258
 30
0.0
 11
213.439837405
 21
155.1956532258
 31
0.0
  0
LINE
  5
15B
330
154
100
AcDbEntity
  8
VERMASSUNG
100
AcDbLine
 10
133.439837405
 20
154.1956532258
 30
0.0
 11
213.439837405
 21
154.1956532258
 31
0.0
  0
MTEXT
  5
15C
330
154
100
AcDbEntity
  8
VERMASSUNG
100
AcDbMText
 10
172.0399614373
 20
156.7737885889
 30
0.0
 40
2.0
 41
0.0
 71
     1
 72
     1
  1
80
  7
SLDTEXTSTYLE0
 73
     1
 44
1.0
  0
ENDBLK
  5
156
330
154
100
AcDbEntity
  8
0
100
AcDbBlockEnd
  0
BLOCK
  5
15F
330
15E
100
AcDbEntity
  8
0
100
AcDbBlockBegin
  2
*D5
 70
     1
 10
0.0
 20
0.0
 30
0.0
  3
*D5
  1

  0
SOLID
  5
161
330
15E
100
AcDbEntity
  8
VERMASSUNG
100
AcDbTrace
 10
213.439837405
 20
148.1956532258
 30
0.0
 11
210.439837405
 21
148.6456532258
 31
0.0
 12
210.439837405
 22
147.7456532258
 32
0.0
 13
210.439837405
 23
147.7456532258
 33
0.0
  0
SOLID
  5
162
330
15E
100
AcDbEntity
  8
VERMASSUNG
100
AcDbTrace
 10
159.389837405
 20
148.1956532258
 30
0.0
 11
162.389837405
 21
147.7456532258
 31
0.0
 12
162.389837405
 22
148.6456532258
 32
0.0
 13
162.389837405
 23
148.6456532258
 33
0.0
  0
LINE
  5
163
330
15E
100
AcDbEntity
  8
VERMASSUNG
100
AcDbLine
 10
213.439837405
 20
117.23345798
 30
0.0
 11
213.439837405
 21
149.1956532258
 31
0.0
  0
LINE
  5
164
330
15E
100
AcDbEntity
  8
VERMASSUNG
100
AcDbLine
 10
159.389837405
 20
142.5420935496
 30
0.0
 11
159.389837405
 21
149.1956532258
 31
0.0
  0
LINE
  5
165
330
15E
100
AcDbEntity
  8
VERMASSUNG
100
AcDbLine
 10
213.439837405
 20
148.1956532258
 30
0.0
 11
159.389837405
 21
148.1956532258
 31
0.0
  0
MTEXT
  5
166
330
15E
100
AcDbEntity
  8
VERMASSUNG
100
AcDbMText
 10
183.2156444212
 20
150.7737885889
 30
0.0
 40
2.0
 41
0.0
 71
     1
 72
     1
  1
54.05
  7
SLDTEXTSTYLE0
 73
     1
 44
1.0
  0
ENDBLK
  5
160
330
15E
100
AcDbEntity
  8
0
100
AcDbBlockEnd
  0
BLOCK
  5
169
330
168
100
AcDbEntity
  8
0
100
AcDbBlockBegin
  2
*D6
 70
     1
 10
0.0
 20
0.0
 30
0.0
  3
*D6
  1

  0
SOLID
  5
16B
330
168
100
AcDbEntity
  8
VERMASSUNG
100
AcDbTrace
 10
101.539837405
 20
160.1956532258
 30
0.0
 11
104.539837405
 21
159.7456532258
 31
0.0
 12
104.539837405
 22
160.6456532258
 32
0.0
 13
104.539837405
 23
160.6456532258
 33
0.0
  0
SOLID
  5
16C
330
168
100
AcDbEntity
  8
VERMASSUNG
100
AcDbTrace
 10
213.439837405
 20
160.1956532258
 30
0.0
 11
210.439837405
 21
160.6456532258
 31
0.0
 12
210.439837405
 22
159.7456532258
 32
0.0
 13
210.439837405
 23
159.7456532258
 33
0.0
  0
LINE
  5
16D
330
168
100
AcDbEntity
  8
VERMASSUNG
100
AcDbLine
 10
101.539837405
 20
132.3863309723
 30
0.0
 11
101.539837405
 21
161.1956532258
 31
0.0
  0
LINE
  5
16E
330
168
100
AcDbEntity
  8
VERMASSUNG
100
AcDbLine
 10
213.439837405
 20
117.23345798
 30
0.0
 11
213.439837405
 21
161.1956532258
 31
0.0
  0
LINE
  5
16F
330
168
100
AcDbEntity
  8
VERMASSUNG
100
AcDbLine
 10
101.539837405
 20
160.1956532258
 30
0.0
 11
213.439837405
 21
160.1956532258
 31
0.0
  0
MTEXT
  5
170
330
168
100
AcDbEntity
  8
VERMASSUNG
100
AcDbMText
 10
154.990582405
 20
162.7737885889
 30
0.0
 40
2.0
 41
0.0
 71
     1
 72
     1
  1
111.9
  7
SLDTEXTSTYLE0
 73
     1
 44
1.0
  0
ENDBLK
  5
16A
330
168
100
AcDbEntity
  8
0
100
AcDbBlockEnd
  0
BLOCK
  5
173
330
172
100
AcDbEntity
  8
0
100
AcDbBlockBegin
  2
*D7
 70
     1
 10
0.0
 20
0.0
 30
0.0
  3
*D7
  1

  0
SOLID
  5
175
330
172
100
AcDbEntity
  8
VERMASSUNG
100
AcDbTrace
 10
95.8014390352
 20
144.1956532258
 30
0.0
 11
95.3514390352
 21
141.1956532258
 31
0.0
 12
96.2514390352
 22
141.1956532258
 32
0.0
 13
96.2514390352
 23
141.1956532258
 33
0.0
  0
SOLID
  5
176
330
172
100
AcDbEntity
  8
VERMASSUNG
100
AcDbTrace
 10
95.8014390352
 20
81.1956532258
 30
0.0
 11
96.2514390352
 21
84.1956532258
 31
0.0
 12
95.3514390352
 22
84.1956532258
 32
0.0
 13
95.3514390352
 23
84.1956532258
 33
0.0
  0
LINE
  5
177
330
172
100
AcDbEntity
  8
VERMASSUNG
100
AcDbLine
 10
133.739837405
 20
144.1956532258
 30
0.0
 11
94.8014390352
 21
144.1956532258
 31
0.0
  0
LINE
  5
178
330
172
100
AcDbEntity
  8
VERMASSUNG
100
AcDbLine
 10
133.739837405
 20
81.1956532258
 30
0.0
 11
94.8014390352
 21
81.1956532258
 31
0.0
  0
LINE
  5
179
330
172
100
AcDbEntity
  8
VERMASSUNG
100
AcDbLine
 10
95.8014390352
 20
144.1956532258
 30
0.0
 11
95.8014390352
 21
81.1956532258
 31
0.0
  0
MTEXT
  5
17A
330
172
100
AcDbEntity
  8
VERMASSUNG
100
AcDbMText
 10
93.0233035462
 20
104.9914492742
 30
0.0
 40
2.0
 41
0.0
 71
     1
 72
     1
  1
HSK A 
  7
SLDTEXTSTYLE0
 11
-7.044195017643634E-15
 21
1.0
 31
0.0
 73
     1
 44
1.0
  0
MTEXT
  5
17B
330
172
100
AcDbEntity
  8
VERMASSUNG
100
AcDbMText
 10
93.2233035557
 20
113.9914498181
 30
0.0
 40
2.0
 41
0.0
 71
     1
 72
     1
  1
%%c
  7
SLDTEXTSTYLE0
 11
-7.044195017643634E-15
 21
1.0
 31
0.0
 73
     1
 44
1.0
  0
MTEXT
  5
17C
330
172
100
AcDbEntity
  8
VERMASSUNG
100
AcDbMText
 10
93.2233036721
 20
117.6001052419
 30
0.0
 40
2.0
 41
0.0
 71
     1
 72
     1
  1
63
  7
SLDTEXTSTYLE0
 11
-7.044195017643634E-15
 21
1.0
 31
0.0
 73
     1
 44
1.0
  0
ENDBLK
  5
174
330
172
100
AcDbEntity
  8
0
100
AcDbBlockEnd
  0
ENDSEC
  0
SECTION
  2
ENTITIES
  0
MTEXT
  5
45
330
1F
100
AcDbEntity
  8
KOPF_DÜNN
100
AcDbMText
 10
13.8892156294
 20
23.8442973028
 30
0.0
 40
3.0
 41
0.0
 71
     1
 72
     1
  1
HA6.S03.K01.080
  7
SLDTEXTSTYLE0
 73
     1
 44
1.0
  0
MTEXT
  5
46
330
1F
100
AcDbEntity
  8
VERMASSUNG
100
AcDbMText
 10
13.9329988022
 20
28.8834360957
 30
0.0
 40
3.0
 41
0.0
 71
     1
 72
     1
  1
Schrumpffutter_Heat shrink chuck
  7
SLDTEXTSTYLE0
 73
     1
 44
1.0
  0
MTEXT
  5
47
330
1F
100
AcDbEntity
  8
VERMASSUNG
100
AcDbMText
 10
98.8601118557
 20
13.8365368179
 30
0.0
 40
2.0
 41
0.0
 71
     1
 72
     1
  1
Datum: 09.03.2011
  7
SLDTEXTSTYLE0
 73
     1
 44
1.0
  0
MTEXT
  5
49
330
1F
100
AcDbEntity
  8
VERMASSUNG
100
AcDbMText
 10
13.933048693
 20
18.0482802738
 30
0.0
 40
2.0
 41
0.0
 71
     1
 72
     1
  1
DIN 69 893 HSK A 63
  7
SLDTEXTSTYLE1
 73
     1
 44
1.0
  0
MTEXT
  5
4A
330
1F
100
AcDbEntity
  8
VERMASSUNG
100
AcDbMText
 10
13.9808475933
 20
13.9090973692
 30
0.0
 40
2.0
 41
0.0
 71
     1
 72
     1
  1
Gewicht: 698g
  7
SLDTEXTSTYLE0
 73
     1
 44
1.0
  0
LINE
  5
4B
330
1F
100
AcDbEntity
  8
0
  6
Continuous
 62
     7
370
    15
100
AcDbLine
 10
133.739837405
 20
81.1956532258
 30
0.0
 11
138.389837405
 21
81.1956532258
 31
0.0
  0
LINE
  5
4C
330
1F
100
AcDbEntity
  8
0
  6
Continuous
 62
     7
370
    15
100
AcDbLine
 10
138.4178257641
 20
144.1956532258
 30
0.0
 11
133.739837405
 21
144.1956532258
 31
0.0
  0
ARC
  5
4D
330
1F
100
AcDbEntity
  8
0
  6
Continuous
 62
     7
370
    15
100
AcDbCircle
 10
133.739837405
 20
81.4956532258
 30
0.0
 40
0.3000000000000114
100
AcDbArc
 50
180.0
 51
270.0
  0
ARC
  5
4E
330
1F
100
AcDbEntity
  8
0
  6
Continuous
 62
     7
370
    15
100
AcDbCircle
 10
133.739837405
 20
143.8956532258
 30
0.0
 40
0.2999999999999829
100
AcDbArc
 50
90.0
 51
180.0
  0
ARC
  5
4F
330
1F
100
AcDbEntity
  8
0
  6
Continuous
 62
     7
370
    15
100
AcDbCircle
 10
132.9398306524
 20
88.1252156114
 30
0.0
 40
0.6000067526677242
100
AcDbArc
 50
33.5571153394
 51
90.0
  0
ARC
  5
50
330
1F
100
AcDbEntity
  8
0
  6
Continuous
 62
     7
370
    15
100
AcDbCircle
 10
132.9398306524
 20
137.2660908402
 30
0.0
 40
0.6000067526677242
100
AcDbArc
 50
270.0
 51
326.4428846606
  0
LINE
  5
51
330
1F
100
AcDbEntity
  8
0
  6
Continuous
 62
     7
370
    15
100
AcDbLine
 10
131.439837405
 20
88.4752223641
 30
0.0
 11
132.2965501784
 21
88.7047778599
 31
0.0
  0
LINE
  5
52
330
1F
100
AcDbEntity
  8
0
  6
Continuous
 62
     7
370
    15
100
AcDbLine
 10
132.2965501784
 20
136.6865285918
 30
0.0
 11
131.439837405
 21
136.9160840875
 31
0.0
  0
LINE
  5
53
330
1F
100
AcDbEntity
  8
0
  6
Continuous
 62
     7
370
    15
100
AcDbLine
 10
120.2083286062
 20
136.3533832459
 30
0.0
 11
107.639837405
 21
135.723699318
 31
0.0
  0
LINE
  5
54
330
1F
100
AcDbEntity
  8
0
  6
Continuous
 62
     7
370
    15
100
AcDbLine
 10
131.439837405
 20
136.9160840875
 30
0.0
 11
128.6228357477
 21
136.77495174
 31
0.0
  0
LINE
  5
55
330
1F
100
AcDbEntity
  8
0
  6
Continuous
 62
     7
370
    15
100
AcDbLine
 10
128.6228918378
 20
88.6163519015
 30
0.0
 11
131.439837405
 21
88.4752223641
 31
0.0
  0
LINE
  5
56
330
1F
100
AcDbEntity
  8
0
  6
Continuous
 62
     7
370
    15
100
AcDbLine
 10
111.639837405
 20
89.467206332
 30
0.0
 11
120.2087311249
 21
89.0379030394
 31
0.0
  0
ARC
  5
57
330
1F
100
AcDbEntity
  8
0
  6
Continuous
 62
     7
370
    15
100
AcDbCircle
 10
132.4518416055
 20
88.1252223641
 30
0.0
 40
0.6000000000000145
100
AcDbArc
 50
90.0
 51
105.0
  0
ARC
  5
58
330
1F
100
AcDbEntity
  8
0
  6
Continuous
 62
     7
370
    15
100
AcDbCircle
 10
132.4518416055
 20
137.2660840875
 30
0.0
 40
0.6000000000000282
100
AcDbArc
 50
255.0
 51
270.0
  0
LINE
  5
59
330
1F
100
AcDbEntity
  8
0
  6
Continuous
 62
     7
370
    15
100
AcDbLine
 10
132.4518416055
 20
88.7252223641
 30
0.0
 11
132.9398306524
 21
88.7252223641
 31
0.0
  0
LINE
  5
5A
330
1F
100
AcDbEntity
  8
0
  6
Continuous
 62
     7
370
    15
100
AcDbLine
 10
132.9398306524
 20
136.6660840875
 30
0.0
 11
132.4518416055
 21
136.6660840875
 31
0.0
  0
ARC
  5
5B
330
1F
100
AcDbEntity
  8
0
  6
Continuous
 62
     7
370
    15
100
AcDbCircle
 10
169.389837405
 20
94.1979210554
 30
0.0
 40
9.999999999999991
100
AcDbArc
 50
94.5
 51
180.0
  0
ARC
  5
5C
330
1F
100
AcDbEntity
  8
0
  6
Continuous
 62
     7
370
    15
100
AcDbCircle
 10
169.389837405
 20
131.1933853963
 30
0.0
 40
10.00000000000002
100
AcDbArc
 50
180.0
 51
265.5
  0
LINE
  5
5D
330
1F
100
AcDbEntity
  8
0
  6
Continuous
 62
     7
370
    15
100
AcDbLine
 10
102.823174045
 20
91.8256532258
 30
0.0
 11
110.239837405
 21
91.8256532258
 31
0.0
  0
ARC
  5
5E
330
1F
100
AcDbEntity
  8
0
  6
Continuous
 62
     7
370
    15
100
AcDbCircle
 10
110.239837405
 20
90.4256532258
 30
0.0
 40
1.399999999999997
100
AcDbArc
 50
42.2465410162
 51
90.0
  0
LINE
  5
5F
330
1F
100
AcDbEntity
  8
0
  6
Continuous
 62
     7
370
    15
100
AcDbLine
 10
101.5509978402
 20
92.9644927907
 30
0.0
 11
102.6810008632
 21
91.8344897676
 31
0.0
  0
LINE
  5
60
330
1F
100
AcDbEntity
  8
0
  6
Continuous
 62
     7
370
    15
100
AcDbLine
 10
102.6810008632
 20
133.556816684
 30
0.0
 11
101.5497381784
 21
132.4255539992
 31
0.0
  0
ARC
  5
61
330
1F
100
AcDbEntity
  8
0
  6
Continuous
 62
     7
370
    15
100
AcDbCircle
 10
106.239837405
 20
134.9656532258
 30
0.0
 40
1.4
100
AcDbArc
 50
270.0
 51
302.5610026528
  0
LINE
  5
62
330
1F
100
AcDbEntity
  8
0
  6
Continuous
 62
     7
370
    15
100
AcDbLine
 10
106.239837405
 20
133.5656532258
 30
0.0
 11
102.8307258065
 21
133.5656532258
 31
0.0
  0
LINE
  5
63
330
1F
100
AcDbEntity
  8
0
  6
Continuous
 62
     7
370
    15
100
AcDbLine
 10
168.6052464478
 20
104.1670943927
 30
0.0
 11
212.9790669529
 21
107.6593898048
 31
0.0
  0
LINE
  5
64
330
1F
100
AcDbEntity
  8
0
  6
Continuous
 62
     7
370
    15
100
AcDbLine
 10
212.9790669529
 20
117.7319166468
 30
0.0
 11
168.6052464478
 21
121.2242120589
 31
0.0
  0
ARC
  5
65
330
1F
100
AcDbEntity
  8
0
  6
Continuous
 62
     7
370
    15
100
AcDbCircle
 10
212.939837405
 20
108.1578484716
 30
0.0
 40
0.5
100
AcDbArc
 50
274.5
 51
0.0
  0
ARC
  5
66
330
1F
100
AcDbEntity
  8
0
  6
Continuous
 62
     7
370
    15
100
AcDbCircle
 10
212.939837405
 20
117.23345798
 30
0.0
 40
0.5
100
AcDbArc
 50
0.0
 51
85.5
  0
SPLINE
  5
67
330
1F
100
AcDbEntity
  8
0
  6
Continuous
 62
     7
370
    15
100
AcDbSpline
210
0.0
220
0.0
230
1.0
 70
     8
 71
     3
 72
    70
 73
    66
 74
     0
 42
0.00000001
 43
0.00000001
 40
-0.0312499999999999
 40
-0.0312499999999999
 40
0.0
 40
0.0
 40
0.0312500000000001
 40
0.0312500000000001
 40
0.0625000000000002
 40
0.0625000000000002
 40
0.0937500000000003
 40
0.0937500000000003
 40
0.1250000000000004
 40
0.1250000000000004
 40
0.1562500000000006
 40
0.1562500000000006
 40
0.1875000000000007
 40
0.1875000000000007
 40
0.2187500000000008
 40
0.2187500000000008
 40
0.2500000000000009
 40
0.2500000000000009
 40
0.281250000000001
 40
0.281250000000001
 40
0.3125000000000011
 40
0.3125000000000011
 40
0.3437500000000012
 40
0.3437500000000012
 40
0.3750000000000013
 40
0.3750000000000013
 40
0.4062500000000014
 40
0.4062500000000014
 40
0.4375000000000016
 40
0.4375000000000016
 40
0.4687500000000017
 40
0.4687500000000017
 40
0.5000000000000018
 40
0.5000000000000018
 40
0.5312500000000017
 40
0.5312500000000017
 40
0.5625000000000016
 40
0.5625000000000016
 40
0.5937500000000014
 40
0.5937500000000014
 40
0.6250000000000013
 40
0.6250000000000013
 40
0.6562500000000012
 40
0.6562500000000012
 40
0.6875000000000011
 40
0.6875000000000011
 40
0.718750000000001
 40
0.718750000000001
 40
0.7500000000000009
 40
0.7500000000000009
 40
0.7812500000000008
 40
0.7812500000000008
 40
0.8125000000000007
 40
0.8125000000000007
 40
0.8437500000000006
 40
0.8437500000000006
 40
0.8750000000000004
 40
0.8750000000000004
 40
0.9062500000000003
 40
0.9062500000000003
 40
0.9375000000000002
 40
0.9375000000000002
 40
0.9687500000000001
 40
0.9687500000000001
 40
1.0
 40
1.0
 40
1.03125
 40
1.03125
 10
141.1752920663815
 20
123.3165601117898
 30
0.0
 10
141.7043827437018
 20
123.3165601117898
 30
0.0
 10
141.9644534110789
 20
123.3412374065749
 30
0.0
 10
142.4760280909143
 20
123.4377090796169
 30
0.0
 10
142.7302033746545
 20
123.5106899955969
 30
0.0
 10
143.2144740047162
 20
123.7004305985356
 30
0.0
 10
143.4441150965974
 20
123.8162912569293
 30
0.0
 10
143.8787194448308
 20
124.088909102887
 30
0.0
 10
144.0842852214774
 20
124.2469481849407
 30
0.0
 10
144.4528423620727
 20
124.5904910359114
 30
0.0
 10
144.6183233448082
 20
124.7772534800131
 30
0.0
 10
144.9107478542433
 20
125.1807966544099
 30
0.0
 10
145.0348488308697
 20
125.3942936508391
 30
0.0
 10
145.2344280276195
 20
125.8336769647616
 30
0.0
 10
145.3113616134777
 20
126.0628169519072
 30
0.0
 10
145.4142186719981
 20
126.5287910746672
 30
0.0
 10
145.4396915814573
 20
126.7616735203434
 30
0.0
 10
145.439981992025
 20
127.2270710554232
 30
0.0
 10
145.4139573582493
 20
127.4619468128175
 30
0.0
 10
145.3118090737573
 20
127.9134399600638
 30
0.0
 10
145.2362326261741
 20
128.1314864354752
 30
0.0
 10
145.0357350950292
 20
128.552580960513
 30
0.0
 10
144.9106062535208
 20
128.7545023450313
 30
0.0
 10
144.6212474524992
 20
129.1265318275502
 30
0.0
 10
144.4558364654438
 20
129.2991601311305
 30
0.0
 10
144.0828459072959
 20
129.6164781356766
 30
0.0
 10
143.8811128742068
 20
129.7562650691782
 30
0.0
 10
143.4482536233789
 20
130.00044132273
 30
0.0
 10
143.2143350904896
 20
130.1056708337715
 30
0.0
 10
142.730151355347
 20
130.2738279801466
 30
0.0
 10
142.4808357293915
 20
130.3370788707405
 30
0.0
 10
141.9678032049638
 20
130.422658079843
 30
0.0
 10
141.7025093820591
 20
130.4445302447655
 30
0.0
 10
141.1801747621894
 20
130.4446938944094
 30
0.0
 10
140.9204210997076
 20
130.4236922023134
 30
0.0
 10
140.4038092840624
 20
130.3382898472358
 30
0.0
 10
140.1514432435621
 20
130.2742836639488
 30
0.0
 10
139.6699181220293
 20
130.1074691439076
 30
0.0
 10
139.4370673899157
 20
130.0033359805085
 30
0.0
 10
138.9999775414769
 20
129.7573493280135
 30
0.0
 10
138.7986565528198
 20
129.6175994970646
 30
0.0
 10
138.4295705275199
 20
129.3044614273401
 30
0.0
 10
138.2605857764682
 20
129.12900526807
 30
0.0
 10
137.970129719809
 20
128.7561650039698
 30
0.0
 10
137.8470579084468
 20
128.5580431938588
 30
0.0
 10
137.6457216670248
 20
128.1373318511251
 30
0.0
 10
137.5685091210826
 20
127.9153418304576
 30
0.0
 10
137.4663055781825
 20
127.4654768907492
 30
0.0
 10
137.4400772267302
 20
127.2352214776325
 30
0.0
 10
137.4396008274131
 20
126.7639055350834
 30
0.0
 10
137.465343239911
 20
126.5306681193693
 30
0.0
 10
137.5666540162749
 20
126.0689915798712
 30
0.0
 10
137.6434866556659
 20
125.8380941927591
 30
0.0
 10
137.843890494881
 20
125.3958181789674
 30
0.0
 10
137.9665619931731
 20
125.1847557476815
 30
0.0
 10
138.2565092823373
 20
124.7832572369488
 30
0.0
 10
138.4250802617026
 20
124.5923507148729
 30
0.0
 10
138.7933498558157
 20
124.2486253828758
 30
0.0
 10
138.994411713086
 20
124.0934881966617
 30
0.0
 10
139.431442631671
 20
123.818410836582
 30
0.0
 10
139.6635908448006
 20
123.70129460716
 30
0.0
 10
140.1446011262994
 20
123.5123681220955
 30
0.0
 10
140.3967012091298
 20
123.4392931517012
 30
0.0
 10
140.9137706953888
 20
123.3412410925667
 30
0.0
 10
141.1752920663815
 20
123.3165601117898
 30
0.0
 10
141.7043827437018
 20
123.3165601117898
 30
0.0
  0
SPLINE
  5
68
330
1F
100
AcDbEntity
  8
0
  6
Continuous
 62
     7
370
    15
100
AcDbSpline
210
0.0
220
0.0
230
1.0
 70
     8
 71
     3
 72
    70
 73
    66
 74
     0
 42
0.00000001
 43
0.00000001
 40
-0.0312500000000001
 40
-0.0312500000000001
 40
0.0
 40
0.0
 40
0.0312499999999998
 40
0.0312499999999998
 40
0.0624999999999996
 40
0.0624999999999996
 40
0.0937499999999995
 40
0.0937499999999995
 40
0.1249999999999993
 40
0.1249999999999993
 40
0.1562499999999991
 40
0.1562499999999991
 40
0.1874999999999989
 40
0.1874999999999989
 40
0.2187499999999987
 40
0.2187499999999987
 40
0.2499999999999986
 40
0.2499999999999986
 40
0.2812499999999986
 40
0.2812499999999986
 40
0.3124999999999985
 40
0.3124999999999985
 40
0.3437499999999985
 40
0.3437499999999985
 40
0.3749999999999985
 40
0.3749999999999985
 40
0.4062499999999985
 40
0.4062499999999985
 40
0.4374999999999984
 40
0.4374999999999984
 40
0.4687499999999984
 40
0.4687499999999984
 40
0.4999999999999984
 40
0.4999999999999984
 40
0.5312499999999984
 40
0.5312499999999984
 40
0.5624999999999986
 40
0.5624999999999986
 40
0.5937499999999986
 40
0.5937499999999986
 40
0.6249999999999986
 40
0.6249999999999986
 40
0.6562499999999987
 40
0.6562499999999987
 40
0.6874999999999987
 40
0.6874999999999987
 40
0.7187499999999988
 40
0.7187499999999988
 40
0.7499999999999988
 40
0.7499999999999988
 40
0.7812499999999989
 40
0.7812499999999989
 40
0.8124999999999991
 40
0.8124999999999991
 40
0.8437499999999992
 40
0.8437499999999992
 40
0.8749999999999993
 40
0.8749999999999993
 40
0.9062499999999996
 40
0.9062499999999996
 40
0.9374999999999997
 40
0.9374999999999997
 40
0.9687499999999999
 40
0.9687499999999999
 40
1.0
 40
1.0
 40
1.03125
 40
1.03125
 10
141.1752920663815
 20
137.7546166205856
 30
0.0
 10
141.7043827437018
 20
137.7546166205856
 30
0.0
 10
141.9644534110789
 20
137.7705170610004
 30
0.0
 10
142.4760280909143
 20
137.8324614111746
 30
0.0
 10
142.7302033746545
 20
137.879263645266
 30
0.0
 10
143.2144740047162
 20
138.000240628721
 30
0.0
 10
143.4441150965974
 20
138.0738429565279
 30
0.0
 10
143.8787194448308
 20
138.245667227506
 30
0.0
 10
144.0842852214774
 20
138.3446706504334
 30
0.0
 10
144.4528423620727
 20
138.5577670643463
 30
0.0
 10
144.6183233448082
 20
138.6726667804759
 30
0.0
 10
144.9107478542433
 20
138.9180336791662
 30
0.0
 10
145.0348488308697
 20
139.0464735796365
 30
0.0
 10
145.2344280276195
 20
139.3073657277224
 30
0.0
 10
145.3113616134777
 20
139.4417468990619
 30
0.0
 10
145.4142186719981
 20
139.7110668501682
 30
0.0
 10
145.4396915814573
 20
139.8437481143863
 30
0.0
 10
145.439981992025
 20
140.1049345885174
 30
0.0
 10
145.4139573582493
 20
140.2346996266821
 30
0.0
 10
145.3118090737573
 20
140.4802822609547
 30
0.0
 10
145.2362326261741
 20
140.5969437982636
 30
0.0
 10
145.0357350950292
 20
140.8188489884182
 30
0.0
 10
144.9106062535208
 20
140.9234602423412
 30
0.0
 10
144.6212474524992
 20
141.1135066539493
 30
0.0
 10
144.4558364654438
 20
141.2002663253989
 30
0.0
 10
144.082845907296
 20
141.3577707011504
 30
0.0
 10
143.8811128742068
 20
141.4260959659377
 30
0.0
 10
143.4482536233789
 20
141.5443256895569
 30
0.0
 10
143.2143350904896
 20
141.5946206056607
 30
0.0
 10
142.730151355347
 20
141.6744861425504
 30
0.0
 10
142.4808357293915
 20
141.7042272703499
 30
0.0
 10
141.9678032049638
 20
141.7443800118582
 30
0.0
 10
141.7025093820591
 20
141.754578281268
 30
0.0
 10
141.1801747621894
 20
141.7546547396528
 30
0.0
 10
140.9204210997076
 20
141.7448637280437
 30
0.0
 10
140.4038092840624
 20
141.7047968893049
 30
0.0
 10
140.1514432435621
 20
141.6746997224482
 30
0.0
 10
139.6699181220293
 20
141.5954775126179
 30
0.0
 10
139.4370673899157
 20
141.5457200331546
 30
0.0
 10
138.9999775414769
 20
141.4266280907042
 30
0.0
 10
138.7986565528198
 20
141.3583128291569
 30
0.0
 10
138.4295705275199
 20
141.2029118622234
 30
0.0
 10
138.2605857764682
 20
141.1147595201564
 30
0.0
 10
137.970129719809
 20
140.9243201310401
 30
0.0
 10
137.8470579084468
 20
140.821695553341
 30
0.0
 10
137.6457216670248
 20
140.6000552067329
 30
0.0
 10
137.5685091210826
 20
140.4813011311854
 30
0.0
 10
137.4663055781825
 20
140.2366351922678
 30
0.0
 10
137.4400772267302
 20
140.1094784668192
 30
0.0
 10
137.4396008274131
 20
139.8450303209636
 30
0.0
 10
137.465343239911
 20
139.7121296407065
 30
0.0
 10
137.5666540162749
 20
139.4453373672244
 30
0.0
 10
137.6434866556659
 20
139.3099734657559
 30
0.0
 10
137.843890494881
 20
139.0473936704533
 30
0.0
 10
137.9665619931731
 20
138.9204185106996
 30
0.0
 10
138.2565092823373
 20
138.6763391246171
 30
0.0
 10
138.4250802617026
 20
138.5589139998633
 30
0.0
 10
138.7933498558157
 20
138.3457175389148
 30
0.0
 10
138.994411713086
 20
138.2485434204899
 30
0.0
 10
139.431442631671
 20
138.0751885332758
 30
0.0
 10
139.6635908448006
 20
138.0007889816191
 30
0.0
 10
140.1446011262994
 20
137.8803361021144
 30
0.0
 10
140.3967012091298
 20
137.8334777268484
 30
0.0
 10
140.9137706953888
 20
137.7705202298647
 30
0.0
 10
141.1752920663815
 20
137.7546166205856
 30
0.0
 10
141.7043827437018
 20
137.7546166205856
 30
0.0
  0
LINE
  5
69
330
1F
100
AcDbEntity
  8
0
  6
Continuous
 62
     7
370
    15
100
AcDbLine
 10
138.389837405
 20
132.5456532258
 30
0.0
 11
148.0479045736
 21
132.5456532258
 31
0.0
  0
LINE
  5
6A
330
1F
100
AcDbEntity
  8
0
  6
Continuous
 62
     7
370
    15
100
AcDbLine
 10
148.0479045736
 20
82.5087355296
 30
0.0
 11
148.0479045736
 21
132.5456532258
 31
0.0
  0
LINE
  5
6B
330
1F
100
AcDbEntity
  8
0
  6
Continuous
 62
     7
370
    15
100
AcDbLine
 10
148.0479045736
 20
82.5087355296
 30
0.0
 11
146.389837405
 21
82.5087355296
 31
0.0
  0
SPLINE
  5
6C
330
1F
100
AcDbEntity
  8
0
  6
Continuous
 62
     7
370
    15
100
AcDbSpline
210
0.0
220
0.0
230
1.0
 70
     8
 71
     3
 72
    28
 73
    24
 74
     0
 42
0.00000001
 43
0.00000001
 40
0.0
 40
0.0
 40
0.0
 40
0.0
 40
0.1249999999999999
 40
0.1249999999999999
 40
0.1874999999999998
 40
0.1874999999999998
 40
0.2499999999999997
 40
0.2499999999999997
 40
0.3749999999999993
 40
0.3749999999999993
 40
0.4374999999999993
 40
0.4374999999999993
 40
0.4999999999999992
 40
0.4999999999999992
 40
0.6249999999999992
 40
0.6249999999999992
 40
0.7499999999999992
 40
0.7499999999999992
 40
0.8124999999999993
 40
0.8124999999999993
 40
0.8749999999999996
 40
0.8749999999999996
 40
1.0
 40
1.0
 40
1.0
 40
1.0
 10
146.3898374050416
 20
82.50873552955926
 30
0.0
 10
145.8581296475487
 20
82.50873552955926
 30
0.0
 10
145.3358910822384
 20
82.49295081560903
 30
0.0
 10
144.5660205959634
 20
82.44795540153284
 30
0.0
 10
144.311661023772
 20
82.4294004064571
 30
0.0
 10
143.8075394430735
 20
82.38554768401062
 30
0.0
 10
143.5578166256456
 20
82.36020307705842
 30
0.0
 10
142.8322266741992
 20
82.2768009993083
 30
0.0
 10
142.3738664126176
 20
82.21093544015721
 30
0.0
 10
141.7233684692237
 20
82.10196509966543
 30
0.0
 10
141.5116864184313
 20
82.06372546389879
 30
0.0
 10
141.1076149292933
 20
81.98596672647943
 30
0.0
 10
140.9151084154724
 20
81.9464657643041
 30
0.0
 10
140.3652734444512
 20
81.82755802193807
 30
0.0
 10
140.0353446661424
 20
81.74774034051345
 30
0.0
 10
139.4508733975736
 20
81.5943971787174
 30
0.0
 10
139.2045962595602
 20
81.52306342544814
 30
0.0
 10
138.9047534668622
 20
81.42911991837353
 30
0.0
 10
138.81629660979
 20
81.3999261250136
 30
0.0
 10
138.6629352564848
 20
81.3464595507502
 30
0.0
 10
138.5978470422586
 20
81.32210021647501
 30
0.0
 10
138.4422530263178
 20
81.25851007103027
 30
0.0
 10
138.3898374050416
 20
81.22840713594101
 30
0.0
 10
138.3898374050416
 20
81.21153024294408
 30
0.0
  0
LINE
  5
6D
330
1F
100
AcDbEntity
  8
0
  6
Continuous
 62
     7
370
    15
100
AcDbLine
 10
138.389837405
 20
81.2115302429
 30
0.0
 11
138.389837405
 21
81.1956532258
 31
0.0
  0
SPLINE
  5
6E
330
1F
100
AcDbEntity
  8
0
  6
Continuous
 62
     7
370
    15
100
AcDbSpline
210
0.0
220
0.0
230
1.0
 70
     8
 71
     3
 72
    17
 73
    13
 74
     0
 42
0.00000001
 43
0.00000001
 40
0.0
 40
0.0
 40
0.0
 40
0.0
 40
0.1034796923964057
 40
0.210023918880785
 40
0.3134862136955584
 40
0.4198361274354883
 40
0.5254127712915682
 40
0.6339610695419793
 40
0.7409508756305033
 40
0.8511696089308177
 40
0.955899653455194
 40
1.0
 40
1.0
 40
1.0
 40
1.0
 10
146.3898374050416
 20
143.1628486989707
 30
0.0
 10
145.9545890559316
 20
143.168296895504
 30
0.0
 10
145.0712025493666
 20
143.1793546360158
 30
0.0
 10
143.7903749641379
 20
143.2657130289174
 30
0.0
 10
142.5729584282639
 20
143.3935832054551
 30
0.0
 10
141.4651525760173
 20
143.5525285040483
 30
0.0
 10
140.4769137720691
 20
143.7270221917639
 30
0.0
 10
139.6521902145376
 20
143.8961880424038
 30
0.0
 10
139.0032367138783
 20
144.0440718249321
 30
0.0
 10
138.5862018984166
 20
144.1458624091629
 30
0.0
 10
138.387605185452
 20
144.1962139317661
 30
0.0
 10
138.4109179068853
 20
144.1903082475437
 30
0.0
 10
138.4178257641229
 20
144.1885583178491
 30
0.0
  0
LINE
  5
6F
330
1F
100
AcDbEntity
  8
0
  6
Continuous
 62
     7
370
    15
100
AcDbLine
 10
148.0479045736
 20
143.162848699
 30
0.0
 11
146.389837405
 21
143.162848699
 31
0.0
  0
LINE
  5
70
330
1F
100
AcDbEntity
  8
0
  6
Continuous
 62
     7
370
    15
100
AcDbLine
 10
148.0479045736
 20
137.1543428882
 30
0.0
 11
148.0479045736
 21
143.162848699
 31
0.0
  0
LINE
  5
71
330
1F
100
AcDbEntity
  8
0
  6
Continuous
 62
     7
370
    15
100
AcDbLine
 10
145.6354577507
 20
137.1543428882
 30
0.0
 11
148.0479045736
 21
137.1543428882
 31
0.0
  0
SPLINE
  5
72
330
1F
100
AcDbEntity
  8
0
  6
Continuous
 62
     7
370
    15
100
AcDbSpline
210
0.0
220
0.0
230
1.0
 70
     8
 71
     3
 72
    20
 73
    16
 74
     0
 42
0.00000001
 43
0.00000001
 40
0.0
 40
0.0
 40
0.0
 40
0.0
 40
0.2499999999999995
 40
0.2499999999999995
 40
0.3749999999999996
 40
0.3749999999999996
 40
0.4999999999999997
 40
0.4999999999999997
 40
0.6249999999999998
 40
0.6249999999999998
 40
0.7499999999999998
 40
0.7499999999999998
 40
0.8749999999999999
 40
0.8749999999999999
 40
1.0
 40
1.0
 40
1.0
 40
1.0
 10
138.3898374050416
 20
132.5456532258064
 30
0.0
 10
138.6382111393297
 20
133.1995156541038
 30
0.0
 10
138.9577812316749
 20
133.803301436101
 30
0.0
 10
139.5800874648796
 20
134.6301401722696
 30
0.0
 10
139.8115117253104
 20
134.8925688102225
 30
0.0
 10
140.3327260649601
 20
135.3892314643275
 30
0.0
 10
140.6193465475952
 20
135.619818343349
 30
0.0
 10
141.2388312889028
 20
136.0363725679316
 30
0.0
 10
141.5731316683897
 20
136.2238703698991
 30
0.0
 10
142.2983921410145
 20
136.5552673475355
 30
0.0
 10
142.680307198405
 20
136.6947713350308
 30
0.0
 10
143.4750953745767
 20
136.9202248425018
 30
0.0
 10
143.8892535687831
 20
137.0068509540454
 30
0.0
 10
144.7547999093645
 20
137.1248317428995
 30
0.0
 10
145.1926875243763
 20
137.1543428881739
 30
0.0
 10
145.6354577507309
 20
137.1543428881739
 30
0.0
  0
LINE
  5
73
330
1F
100
AcDbEntity
  8
0
  6
Continuous
 62
     7
370
    15
100
AcDbLine
 10
154.8317702365
 20
82.5087355296
 30
0.0
 11
154.8317702365
 21
132.5456532258
 31
0.0
  0
SPLINE
  5
74
330
1F
100
AcDbEntity
  8
0
  6
Continuous
 62
     7
370
    15
100
AcDbSpline
210
0.0
220
0.0
230
1.0
 70
     8
 71
     3
 72
     8
 73
     4
 74
     0
 42
0.00000001
 43
0.00000001
 40
0.0
 40
0.0
 40
0.0
 40
0.0
 40
1.0
 40
1.0
 40
1.0
 40
1.0
 10
154.8317702365307
 20
82.50873552955926
 30
0.0
 10
154.3362905758649
 20
83.40426161749262
 30
0.0
 10
153.8421765278228
 20
84.30054603254486
 30
0.0
 10
153.3498374050416
 20
85.19781606675156
 30
0.0
  0
LINE
  5
75
330
1F
100
AcDbEntity
  8
0
  6
Continuous
 62
     7
370
    15
100
AcDbLine
 10
153.349837405
 20
85.1978160668
 30
0.0
 11
153.349837405
 21
132.5456532258
 31
0.0
  0
SPLINE
  5
76
330
1F
100
AcDbEntity
  8
0
  6
Continuous
 62
     7
370
    15
100
AcDbSpline
210
0.0
220
0.0
230
1.0
 70
    24
 71
     3
 72
     8
 73
     4
 74
     0
 42
0.00000001
 43
0.00000001
 40
0.0
 40
0.0
 40
0.0
 40
0.0
 40
1.0
 40
1.0
 40
1.0
 40
1.0
 10
153.3498374050416
 20
132.5456532258064
 30
0.0
 10
153.8297893994065
 20
132.5456532258064
 30
0.0
 10
154.3250901283801
 20
132.5456532258064
 30
0.0
 10
154.8317702365307
 20
132.5456532258064
 30
0.0
  0
LINE
  5
77
330
1F
100
AcDbEntity
  8
0
  6
Continuous
 62
     7
370
    15
100
AcDbLine
 10
133.439837405
 20
81.4956532258
 30
0.0
 11
133.439837405
 21
143.8956532197
 31
0.0
  0
LINE
  5
78
330
1F
100
AcDbEntity
  8
0
  6
Continuous
 62
     7
370
    15
100
AcDbLine
 10
159.389837405
 20
83.1353758252
 30
0.0
 11
159.389837405
 21
132.5456532258
 31
0.0
  0
SPLINE
  5
79
330
1F
100
AcDbEntity
  8
0
  6
Continuous
 62
     7
370
    15
100
AcDbSpline
210
0.0
220
0.0
230
1.0
 70
     8
 71
     3
 72
    10
 73
     6
 74
     0
 42
0.00000001
 43
0.00000001
 40
0.0
 40
0.0
 40
0.0
 40
0.0
 40
0.5
 40
0.5
 40
1.0
 40
1.0
 40
1.0
 40
1.0
 10
159.3898374050416
 20
83.13537582521357
 30
0.0
 10
159.3898374050416
 20
82.97548855701991
 30
0.0
 10
159.3285277538058
 20
82.81436130150531
 30
0.0
 10
159.1094281162707
 20
82.58026230315048
 30
0.0
 10
158.9513799099572
 20
82.50873552955926
 30
0.0
 10
158.7898374050416
 20
82.50873552955926
 30
0.0
  0
SPLINE
  5
7A
330
1F
100
AcDbEntity
  8
0
  6
Continuous
 62
     7
370
    15
100
AcDbSpline
210
0.0
220
0.0
230
1.0
 70
    24
 71
     3
 72
    12
 73
     8
 74
     0
 42
0.00000001
 43
0.00000001
 40
0.0
 40
0.0
 40
0.0
 40
0.0
 40
0.2500000000000033
 40
0.2500000000000033
 40
0.5000000000000067
 40
0.5000000000000067
 40
1.0
 40
1.0
 40
1.0
 40
1.0
 10
158.7898374050416
 20
132.5456532258064
 30
0.0
 10
158.8800764727286
 20
132.5456532258064
 30
0.0
 10
158.9709745868352
 20
132.5456532258064
 30
0.0
 10
159.1255716233237
 20
132.5456532258064
 30
0.0
 10
159.1905500394318
 20
132.5456532258064
 30
0.0
 10
159.342385067368
 20
132.5456532258064
 30
0.0
 10
159.3898374050416
 20
132.5456532258064
 30
0.0
 10
159.3898374050416
 20
132.5456532258064
 30
0.0
  0
LINE
  5
7B
330
1F
100
AcDbEntity
  8
0
  6
Continuous
 62
     7
370
    15
100
AcDbLine
 10
158.789837405
 20
82.5087355296
 30
0.0
 11
154.8317702365
 21
82.5087355296
 31
0.0
  0
LINE
  5
7C
330
1F
100
AcDbEntity
  8
0
  6
Continuous
 62
     7
370
    15
100
AcDbLine
 10
154.8317702365
 20
132.5456532258
 30
0.0
 11
158.789837405
 21
132.5456532258
 31
0.0
  0
LINE
  5
7D
330
1F
100
AcDbEntity
  8
0
  6
Continuous
 62
     7
370
    15
100
AcDbLine
 10
149.529837405
 20
85.1978160668
 30
0.0
 11
149.529837405
 21
132.5456532258
 31
0.0
  0
SPLINE
  5
7E
330
1F
100
AcDbEntity
  8
0
  6
Continuous
 62
     7
370
    15
100
AcDbSpline
210
0.0
220
0.0
230
1.0
 70
     8
 71
     3
 72
     8
 73
     4
 74
     0
 42
0.00000001
 43
0.00000001
 40
0.0
 40
0.0
 40
0.0
 40
0.0
 40
1.0
 40
1.0
 40
1.0
 40
1.0
 10
149.5298374050416
 20
85.19781606675156
 30
0.0
 10
149.0374982822604
 20
84.30054603254486
 30
0.0
 10
148.5433842342183
 20
83.40426161749261
 30
0.0
 10
148.0479045735526
 20
82.50873552955926
 30
0.0
  0
SPLINE
  5
7F
330
1F
100
AcDbEntity
  8
0
  6
Continuous
 62
     7
370
    15
100
AcDbSpline
210
0.0
220
0.0
230
1.0
 70
    24
 71
     3
 72
     8
 73
     4
 74
     0
 42
0.00000001
 43
0.00000001
 40
0.0
 40
0.0
 40
0.0
 40
0.0
 40
1.0
 40
1.0
 40
1.0
 40
1.0
 10
148.0479045735526
 20
132.5456532258064
 30
0.0
 10
148.5545846817031
 20
132.5456532258064
 30
0.0
 10
149.0498854106767
 20
132.5456532258064
 30
0.0
 10
149.5298374050416
 20
132.5456532258064
 30
0.0
  0
ARC
  5
80
330
1F
100
AcDbEntity
  8
0
  6
Continuous
 62
     7
370
    15
100
AcDbCircle
 10
141.4405610647
 20
124.593016919
 30
0.0
 40
4.116629623993975
100
AcDbArc
 50
20.4674424054
 51
159.8582239994
  0
SPLINE
  5
81
330
1F
100
AcDbEntity
  8
0
  6
Continuous
 62
     7
370
    15
100
AcDbSpline
210
0.0
220
0.0
230
1.0
 70
     8
 71
     3
 72
    10
 73
     6
 74
     0
 42
0.00000001
 43
0.00000001
 40
0.0
 40
0.0
 40
0.0
 40
0.0
 40
0.5
 40
0.5
 40
1.0
 40
1.0
 40
1.0
 40
1.0
 10
149.9241349367326
 20
139.0956532258064
 30
0.0
 10
149.802594673064
 20
139.1703793930182
 30
0.0
 10
149.7012603127151
 20
139.279324408935
 30
0.0
 10
149.5656213698267
 20
139.5297548896966
 30
0.0
 10
149.5298374050416
 20
139.6721742517955
 30
0.0
 10
149.5298374050416
 20
139.8153070768422
 30
0.0
  0
SPLINE
  5
82
330
1F
100
AcDbEntity
  8
0
  6
Continuous
 62
     7
370
    15
100
AcDbSpline
210
0.0
220
0.0
230
1.0
 70
    24
 71
     3
 72
    12
 73
     8
 74
     0
 42
0.00000001
 43
0.00000001
 40
0.0
 40
0.0
 40
0.0
 40
0.0
 40
0.2499999999999971
 40
0.2499999999999971
 40
0.4999999999999942
 40
0.4999999999999942
 40
1.0
 40
1.0
 40
1.0
 40
1.0
 10
150.3298374050416
 20
139.0956532258064
 30
0.0
 10
150.2799607227242
 20
139.0956532258064
 30
0.0
 10
150.2319575293206
 20
139.0956532258064
 30
0.0
 10
150.1489094266086
 20
139.0956532258064
 30
0.0
 10
150.1127798471408
 20
139.0956532258064
 30
0.0
 10
150.0168678161965
 20
139.0956532258064
 30
0.0
 10
149.9671091482278
 20
139.0956532258064
 30
0.0
 10
149.9241349367326
 20
139.0956532258064
 30
0.0
  0
SPLINE
  5
83
330
1F
100
AcDbEntity
  8
0
  6
Continuous
 62
     7
370
    15
100
AcDbSpline
210
0.0
220
0.0
230
1.0
 70
    24
 71
     3
 72
    14
 73
    10
 74
     0
 42
0.00000001
 43
0.00000001
 40
0.0
 40
0.0
 40
0.0
 40
0.0
 40
0.1250000000000017
 40
0.1250000000000017
 40
0.2500000000000034
 40
0.2500000000000034
 40
0.5000000000000032
 40
0.5000000000000032
 40
1.0
 40
1.0
 40
1.0
 40
1.0
 10
150.3298374050416
 20
86.29565322580643
 30
0.0
 10
150.2613995571552
 20
86.29565322580643
 30
0.0
 10
150.1958495183901
 20
86.29565322580643
 30
0.0
 10
150.0914228789822
 20
86.29565322580643
 30
0.0
 10
150.0488782692208
 20
86.29565322580643
 30
0.0
 10
149.9362688086805
 20
86.29565322580643
 30
0.0
 10
149.880729761661
 20
86.29565322580642
 30
0.0
 10
149.7381180661972
 20
86.29565322580643
 30
0.0
 10
149.6747127112014
 20
86.29565322580643
 30
0.0
 10
149.6275122073739
 20
86.29565322580643
 30
0.0
  0
SPLINE
  5
84
330
1F
100
AcDbEntity
  8
0
  6
Continuous
 62
     7
370
    15
100
AcDbSpline
210
0.0
220
0.0
230
1.0
 70
     8
 71
     3
 72
    10
 73
     6
 74
     0
 42
0.00000001
 43
0.00000001
 40
0.0
 40
0.0
 40
0.0
 40
0.0
 40
0.5
 40
0.5
 40
1.0
 40
1.0
 40
1.0
 40
1.0
 10
149.5298374050416
 20
132.8315198572678
 30
0.0
 10
149.5298374050416
 20
132.7837483492745
 30
0.0
 10
149.5319986486388
 20
132.7360386272128
 30
0.0
 10
149.5406700224989
 20
132.6407435096645
 30
0.0
 10
149.5471992054549
 20
132.5930509456979
 30
0.0
 10
149.5559850282017
 20
132.5456532258064
 30
0.0
  0
SPLINE
  5
85
330
1F
100
AcDbEntity
  8
0
  6
Continuous
 62
     7
370
    15
100
AcDbSpline
210
0.0
220
0.0
230
1.0
 70
    24
 71
     3
 72
    14
 73
    10
 74
     0
 42
0.00000001
 43
0.00000001
 40
0.0
 40
0.0
 40
0.0
 40
0.0
 40
0.4999999999999984
 40
0.4999999999999984
 40
0.7499999999999992
 40
0.7499999999999992
 40
0.8749999999999996
 40
0.8749999999999996
 40
1.0
 40
1.0
 40
1.0
 40
1.0
 10
153.2521626027093
 20
86.29565322580643
 30
0.0
 10
153.2053778976611
 20
86.29565322580643
 30
0.0
 10
153.1433267008815
 20
86.29565322580643
 30
0.0
 10
152.9999350623309
 20
86.29565322580642
 30
0.0
 10
152.9437914087797
 20
86.29565322580643
 30
0.0
 10
152.8308403866436
 20
86.29565322580643
 30
0.0
 10
152.7878396246054
 20
86.29565322580643
 30
0.0
 10
152.6837769142989
 20
86.29565322580643
 30
0.0
 10
152.618444675942
 20
86.29565322580643
 30
0.0
 10
152.5498374050416
 20
86.29565322580643
 30
0.0
  0
SPLINE
  5
86
330
1F
100
AcDbEntity
  8
0
  6
Continuous
 62
     7
370
    15
100
AcDbSpline
210
0.0
220
0.0
230
1.0
 70
    24
 71
     3
 72
    12
 73
     8
 74
     0
 42
0.00000001
 43
0.00000001
 40
0.0
 40
0.0
 40
0.0
 40
0.0
 40
0.5000000000000074
 40
0.5000000000000074
 40
0.7500000000000037
 40
0.7500000000000037
 40
1.0
 40
1.0
 40
1.0
 40
1.0
 10
152.9555398733506
 20
139.0956532258064
 30
0.0
 10
152.9124543237397
 20
139.0956532258064
 30
0.0
 10
152.8633021219904
 20
139.0956532258064
 30
0.0
 10
152.7668295277025
 20
139.0956532258064
 30
0.0
 10
152.7307279425679
 20
139.0956532258064
 30
0.0
 10
152.6476221847066
 20
139.0956532258064
 30
0.0
 10
152.5996255877403
 20
139.0956532258064
 30
0.0
 10
152.5498374050416
 20
139.0956532258064
 30
0.0
  0
SPLINE
  5
87
330
1F
100
AcDbEntity
  8
0
  6
Continuous
 62
     7
370
    15
100
AcDbSpline
210
0.0
220
0.0
230
1.0
 70
     8
 71
     3
 72
    10
 73
     6
 74
     0
 42
0.00000001
 43
0.00000001
 40
0.0
 40
0.0
 40
0.0
 40
0.0
 40
0.5
 40
0.5
 40
1.0
 40
1.0
 40
1.0
 40
1.0
 10
153.3498374050416
 20
139.8153070768422
 30
0.0
 10
153.3498374050416
 20
139.6715370190242
 30
0.0
 10
153.3137883463227
 20
139.529117656529
 30
0.0
 10
153.1782794855487
 20
139.2792233631718
 30
0.0
 10
153.0784034924526
 20
139.1711930269236
 30
0.0
 10
152.9555398733506
 20
139.0956532258064
 30
0.0
  0
SPLINE
  5
88
330
1F
100
AcDbEntity
  8
0
  6
Continuous
 62
     7
370
    15
100
AcDbSpline
210
0.0
220
0.0
230
1.0
 70
     8
 71
     3
 72
    10
 73
     6
 74
     0
 42
0.00000001
 43
0.00000001
 40
0.0
 40
0.0
 40
0.0
 40
0.0
 40
0.5
 40
0.5
 40
1.0
 40
1.0
 40
1.0
 40
1.0
 10
153.3236897818815
 20
132.5456532258064
 30
0.0
 10
153.3323794247931
 20
132.5925320751246
 30
0.0
 10
153.3389184895437
 20
132.6399545405258
 30
0.0
 10
153.3476771239367
 20
132.7358913391126
 30
0.0
 10
153.3498374050416
 20
132.7838066271231
 30
0.0
 10
153.3498374050416
 20
132.8315198572676
 30
0.0
  0
LINE
  5
89
330
1F
100
AcDbEntity
  8
0
  6
Continuous
 62
     7
370
    15
100
AcDbLine
 10
152.549837405
 20
139.0956532258
 30
0.0
 11
150.329837405
 21
139.0956532258
 31
0.0
  0
LINE
  5
8A
330
1F
100
AcDbEntity
  8
0
  6
Continuous
 62
     7
370
    15
100
AcDbLine
 10
152.549837405
 20
86.2956532258
 30
0.0
 11
150.329837405
 21
86.2956532258
 31
0.0
  0
LINE
  5
8B
330
1F
100
AcDbEntity
  8
0
  6
Continuous
 62
     7
370
    15
100
AcDbLine
 10
131.439837405
 20
88.4752223641
 30
0.0
 11
131.439837405
 21
136.9160840875
 31
0.0
  0
LINE
  5
8C
330
1F
100
AcDbEntity
  8
0
  6
Continuous
 62
     7
370
    15
100
AcDbLine
 10
111.639837405
 20
89.467206332
 30
0.0
 11
111.639837405
 21
90.7319156946
 31
0.0
  0
SPLINE
  5
8D
330
1F
100
AcDbEntity
  8
0
  6
Continuous
 62
     7
370
    15
100
AcDbSpline
210
0.0
220
0.0
230
1.0
 70
     8
 71
     3
 72
    14
 73
    10
 74
     0
 42
0.00000001
 43
0.00000001
 40
0.0
 40
0.0
 40
0.0
 40
0.0
 40
0.25
 40
0.25
 40
0.5
 40
0.5
 40
0.75
 40
0.75
 40
1.0
 40
1.0
 40
1.0
 40
1.0
 10
110.8615502871259
 20
91.86250190224646
 30
0.0
 10
110.918176962328
 20
91.75480444840962
 30
0.0
 10
111.0126996226177
 20
91.6520148666903
 30
0.0
 10
111.1957445981799
 20
91.45365755447014
 30
0.0
 10
111.2873711751347
 20
91.3575980457919
 30
0.0
 10
111.4462244928279
 20
91.17006900308265
 30
0.0
 10
111.5141151004496
 20
91.0786600302991
 30
0.0
 10
111.6110321261571
 20
90.90028380938894
 30
0.0
 10
111.6398374050422
 20
90.81306190314277
 30
0.0
 10
111.6398374050422
 20
90.7319156946085
 30
0.0
  0
SPLINE
  5
8E
330
1F
100
AcDbEntity
  8
0
  6
Continuous
 62
     7
370
    15
100
AcDbSpline
210
0.0
220
0.0
230
1.0
 70
     8
 71
     3
 72
    14
 73
    10
 74
     0
 42
0.00000001
 43
0.00000001
 40
0.0
 40
0.0
 40
0.0
 40
0.0
 40
0.125
 40
0.125
 40
0.25
 40
0.25
 40
0.5
 40
0.5
 40
1.0
 40
1.0
 40
1.0
 40
1.0
 10
110.2398374050416
 20
92.3091837645258
 30
0.0
 10
110.2883818136988
 20
92.31493207780608
 30
0.0
 10
110.3412971684837
 20
92.31183118914984
 30
0.0
 10
110.4365925134667
 20
92.28963634498751
 30
0.0
 10
110.4768435107517
 20
92.27240411789165
 30
0.0
 10
110.5811135242646
 20
92.21607620143959
 30
0.0
 10
110.631435499418
 20
92.17188985549379
 30
0.0
 10
110.7591184469433
 20
92.04088195664318
 30
0.0
 10
110.8152038940056
 20
91.95064743641288
 30
0.0
 10
110.8615502871274
 20
91.862501902247
 30
0.0
  0
SPLINE
  5
8F
330
1F
100
AcDbEntity
  8
0
  6
Continuous
 62
     7
370
    15
100
AcDbSpline
210
0.0
220
0.0
230
1.0
 70
     8
 71
     3
 72
     8
 73
     4
 74
     0
 42
0.00000001
 43
0.00000001
 40
0.0
 40
0.0
 40
0.0
 40
0.0
 40
1.0
 40
1.0
 40
1.0
 40
1.0
 10
107.9713123120953
 20
91.99933847794298
 30
0.0
 10
108.7058893385783
 20
92.11796348901196
 30
0.0
 10
109.469364407974
 20
92.21794936114824
 30
0.0
 10
110.2398374050416
 20
92.3091837645258
 30
0.0
  0
SPLINE
  5
90
330
1F
100
AcDbEntity
  8
0
  6
Continuous
 62
     7
370
    15
100
AcDbSpline
210
0.0
220
0.0
230
1.0
 70
     8
 71
     3
 72
    14
 73
    10
 74
     0
 42
0.00000001
 43
0.00000001
 40
0.0
 40
0.0
 40
0.0
 40
0.0
 40
0.5000000000000002
 40
0.5000000000000002
 40
0.7500000000000002
 40
0.7500000000000002
 40
0.8750000000000001
 40
0.8750000000000001
 40
1.0
 40
1.0
 40
1.0
 40
1.0
 10
102.6898374050416
 20
91.82571546041135
 30
0.0
 10
103.5819835355952
 20
91.8249932342107
 30
0.0
 10
104.4719599713888
 20
91.82957944066817
 30
0.0
 10
105.7985551384644
 20
91.8573044450597
 30
0.0
 10
106.2394020669631
 20
91.86991098268388
 30
0.0
 10
106.8958423043855
 20
91.90092713069131
 30
0.0
 10
107.1138559609774
 20
91.9132703033181
 30
0.0
 10
107.5465648146602
 20
91.94629435848137
 30
0.0
 10
107.7618412798249
 20
91.96551152361981
 30
0.0
 10
107.9713123120953
 20
91.99933847794298
 30
0.0
  0
SPLINE
  5
91
330
1F
100
AcDbEntity
  8
0
  6
Continuous
 62
     7
370
    15
100
AcDbSpline
210
0.0
220
0.0
230
1.0
 70
     8
 71
     3
 72
     8
 73
     4
 74
     0
 42
0.00000001
 43
0.00000001
 40
0.0000005163856998
 40
0.0000005163856998
 40
0.0000005163856998
 40
0.0000005163856998
 40
0.000026289209185
 40
0.000026289209185
 40
0.000026289209185
 40
0.000026289209185
 10
102.679792474634
 20
91.83569933350813
 30
0.0
 10
102.6831202128418
 20
91.83236508663902
 30
0.0
 10
102.6864686658174
 20
91.8290371293637
 30
0.0
 10
102.6898374050416
 20
91.82571546041133
 30
0.0
  0
SPLINE
  5
92
330
1F
100
AcDbEntity
  8
0
  6
Continuous
 62
     7
370
    15
100
AcDbSpline
210
0.0
220
0.0
230
1.0
 70
     8
 71
     3
 72
     8
 73
     4
 74
     0
 42
0.00000001
 43
0.00000001
 40
0.0000005099763573
 40
0.0000005099763573
 40
0.0000005099763573
 40
0.0000005099763573
 40
0.0000262827998699
 40
0.0000262827998699
 40
0.0000262827998699
 40
0.0000262827998699
 10
102.6898374050416
 20
133.5655909912015
 30
0.0
 10
102.6864686658138
 20
133.5622693222456
 30
0.0
 10
102.6831202128347
 20
133.5589413649667
 30
0.0
 10
102.6797924746234
 20
133.5556071180941
 30
0.0
  0
SPLINE
  5
93
330
1F
100
AcDbEntity
  8
0
  6
Continuous
 62
     7
370
    15
100
AcDbSpline
210
0.0
220
0.0
230
1.0
 70
     8
 71
     3
 72
    10
 73
     6
 74
     0
 42
0.00000001
 43
0.00000001
 40
0.0
 40
0.0
 40
0.0
 40
0.0
 40
0.5
 40
0.5
 40
1.0
 40
1.0
 40
1.0
 40
1.0
 10
106.2398374050416
 20
133.5187406176342
 30
0.0
 10
105.652251857951
 20
133.5398061378706
 30
0.0
 10
105.0615054644906
 20
133.5505646237428
 30
0.0
 10
103.8774862991918
 20
133.5639294042785
 30
0.0
 10
103.2840723109863
 20
133.566072046943
 30
0.0
 10
102.6898374050416
 20
133.5655909912015
 30
0.0
  0
SPLINE
  5
94
330
1F
100
AcDbEntity
  8
0
  6
Continuous
 62
     7
370
    15
100
AcDbSpline
210
0.0
220
0.0
230
1.0
 70
     8
 71
     3
 72
    18
 73
    14
 74
     0
 42
0.00000001
 43
0.00000001
 40
0.0
 40
0.0
 40
0.0
 40
0.0
 40
0.2500000000000008
 40
0.2500000000000008
 40
0.5000000000000009
 40
0.5000000000000009
 40
0.7500000000000009
 40
0.7500000000000009
 40
0.875000000000001
 40
0.875000000000001
 40
0.9375000000000006
 40
0.9375000000000006
 40
1.0
 40
1.0
 40
1.0
 40
1.0
 10
107.6398374050416
 20
134.5397608981694
 30
0.0
 10
107.6398374050416
 20
134.4565539893122
 30
0.0
 10
107.6039883051034
 20
134.3678173339986
 30
0.0
 10
107.4791165690694
 20
134.1856921434384
 30
0.0
 10
107.3887161514216
 20
134.0905620948118
 30
0.0
 10
107.1664734966794
 20
133.9013805856875
 30
0.0
 10
107.0367087102336
 20
133.8064354175928
 30
0.0
 10
106.7960712529221
 20
133.6681567100128
 30
0.0
 10
106.7083039547847
 20
133.6224462767104
 30
0.0
 10
106.5537798675778
 20
133.564622971489
 30
0.0
 10
106.4971689815231
 20
133.5469082074511
 30
0.0
 10
106.3731249506165
 20
133.5223689042182
 30
0.0
 10
106.3054102755982
 20
133.5163897656799
 30
0.0
 10
106.2398374050416
 20
133.5187406176342
 30
0.0
  0
LINE
  5
95
330
1F
100
AcDbEntity
  8
0
  6
Continuous
 62
     7
370
    15
100
AcDbLine
 10
107.639837405
 20
134.5397608982
 30
0.0
 11
107.639837405
 21
135.723699318
 31
0.0
  0
SPLINE
  5
96
330
1F
100
AcDbEntity
  8
0
  6
Continuous
 62
     7
370
    15
100
AcDbSpline
210
0.0
220
0.0
230
1.0
 70
     8
 71
     3
 72
    24
 73
    20
 74
     0
 42
0.00000001
 43
0.00000001
 40
0.0
 40
0.0
 40
0.0
 40
0.0
 40
0.0010489762969674
 40
0.063784312564273
 40
0.1272220590447891
 40
0.1903788924481314
 40
0.2526748653693291
 40
0.3146354154417449
 40
0.3770891997149608
 40
0.4393540298504058
 40
0.5008133242537801
 40
0.5621845104587826
 40
0.6248438451115548
 40
0.6874304766616359
 40
0.7496743174679346
 40
0.811984842697577
 40
0.8750960525413127
 40
0.9384412526964334
 40
1.0
 40
1.0
 40
1.0
 40
1.0
 10
120.2087432370173
 20
89.03814479722627
 30
0.0
 10
120.2082967769131
 20
89.03808651140737
 30
0.0
 10
120.1811492132193
 20
89.0345423694649
 30
0.0
 10
120.2767609908335
 20
89.0473761141476
 30
0.0
 10
120.5103212487264
 20
89.07662279934786
 30
0.0
 10
120.9058755560464
 20
89.1232371224101
 30
0.0
 10
121.4329158598779
 20
89.17342026406962
 30
0.0
 10
122.0764462718676
 20
89.21779672651995
 30
0.0
 10
122.8151201271083
 20
89.24474150745765
 30
0.0
 10
123.6126346325442
 20
89.24821335816465
 30
0.0
 10
124.4392135149875
 20
89.2205861141343
 30
0.0
 10
125.2647365325983
 20
89.16210722516107
 30
0.0
 10
126.0568630805994
 20
89.0766621958009
 30
0.0
 10
126.7894353546044
 20
88.97492795596455
 30
0.0
 10
127.4250755913324
 20
88.86708483399178
 30
0.0
 10
127.9469866983421
 20
88.76545467725265
 30
0.0
 10
128.3286154754576
 20
88.68296952057442
 30
0.0
 10
128.5794299456921
 20
88.62682031422473
 30
0.0
 10
128.6085515016762
 20
88.61997085561097
 30
0.0
 10
128.6229040224923
 20
88.61659510888279
 30
0.0
  0
SPLINE
  5
97
330
1F
100
AcDbEntity
  8
0
  6
Continuous
 62
     7
370
    15
100
AcDbSpline
210
0.0
220
0.0
230
1.0
 70
     8
 71
     3
 72
    24
 73
    20
 74
     0
 42
0.00000001
 43
0.00000001
 40
0.0
 40
0.0
 40
0.0
 40
0.0
 40
0.061438427625136
 40
0.1250736755369642
 40
0.188425349073017
 40
0.2508623904037474
 40
0.3129665632511812
 40
0.3753451453465141
 40
0.437732897232486
 40
0.4990927322917273
 40
0.5605807588448529
 40
0.6229469893028879
 40
0.6854686282027366
 40
0.7475477813740222
 40
0.8098225060807238
 40
0.8730684085990467
 40
0.936404184453311
 40
0.9991757196257862
 40
1.0
 40
1.0
 40
1.0
 40
1.0
 10
128.6228492516894
 20
136.7746822002638
 30
0.0
 10
128.6082485273857
 20
136.7713141434112
 30
0.0
 10
128.5785250086571
 20
136.7644575999373
 30
0.0
 10
128.325787193009
 20
136.7081189794114
 30
0.0
 10
127.94279127656
 20
136.6252618972814
 30
0.0
 10
127.4204356921221
 20
136.5233548673301
 30
0.0
 10
126.785651214122
 20
136.4155157282864
 30
0.0
 10
126.0554276099498
 20
136.3140487763113
 30
0.0
 10
125.2649590247161
 20
136.2289890626205
 30
0.0
 10
124.4404755098874
 20
136.1707847687342
 30
0.0
 10
123.6134390510039
 20
136.1432013299075
 30
0.0
 10
122.8151147833517
 20
136.1466943074004
 30
0.0
 10
122.0752908190629
 20
136.1736502272535
 30
0.0
 10
121.4310365860873
 20
136.2180041692529
 30
0.0
 10
120.9036293308718
 20
136.2682096190107
 30
0.0
 10
120.5089647287219
 20
136.3148194742089
 30
0.0
 10
120.276435449537
 20
136.3440150667564
 30
0.0
 10
120.1810554169848
 20
136.3567931356978
 30
0.0
 10
120.2079890538862
 20
136.3532388771898
 30
0.0
 10
120.2083381471105
 20
136.3531928096065
 30
0.0
  0
SPLINE
  5
98
330
1F
100
AcDbEntity
  8
0
  6
Continuous
 62
     7
370
    15
100
AcDbSpline
210
0.0
220
0.0
230
1.0
 70
     8
 71
     3
 72
    10
 73
     6
 74
     0
 42
0.00000001
 43
0.00000001
 40
0.0
 40
0.0
 40
0.0
 40
0.0
 40
0.0840381716606348
 40
0.7011125076933074
 40
1.0
 40
1.0
 40
1.0
 40
1.0
 10
101.5533843675773
 20
92.96687931812309
 30
0.0
 10
101.5540589249122
 20
92.96467369128719
 30
0.0
 10
101.5596866126084
 20
92.94627261792498
 30
0.0
 10
101.5860080927352
 20
92.96050718064815
 30
0.0
 10
101.5984431095799
 20
93.00619295619913
 30
0.0
 10
101.602500779765
 20
93.0211006810257
 30
0.0
  0
LINE
  5
99
330
1F
100
AcDbEntity
  8
0
  6
Continuous
 62
     7
370
    15
100
AcDbLine
 10
101.539837405
 20
93.0049754793
 30
0.0
 11
101.539837405
 21
132.3863309723
 31
0.0
  0
SPLINE
  5
9A
330
1F
100
AcDbEntity
  8
0
  6
Continuous
 62
     7
370
    15
100
AcDbSpline
210
0.0
220
0.0
230
1.0
 70
     8
 71
     3
 72
    10
 73
     6
 74
     0
 42
0.00000001
 43
0.00000001
 40
0.0
 40
0.0
 40
0.0
 40
0.0
 40
0.3981552638809415
 40
0.8068145697130351
 40
1.0
 40
1.0
 40
1.0
 40
1.0
 10
101.602500779765
 20
132.3702057705871
 30
0.0
 10
101.5968372750405
 20
132.389047555138
 30
0.0
 10
101.5853608522933
 20
132.4272282039304
 30
0.0
 10
101.561846624319
 20
132.440811487798
 30
0.0
 10
101.5568306685012
 20
132.4251111936778
 30
0.0
 10
101.5552206027737
 20
132.4200715748306
 30
0.0
  0
SPLINE
  5
9B
330
1F
100
AcDbEntity
  8
0
  6
Continuous
 62
     7
370
    15
100
AcDbSpline
210
0.0
220
0.0
230
1.0
 70
     8
 71
     3
 72
    26
 73
    22
 74
     0
 42
0.00000001
 43
0.00000001
 40
0.0
 40
0.0
 40
0.0
 40
0.0
 40
0.2500000000000165
 40
0.2500000000000165
 40
0.3750000000000256
 40
0.3750000000000256
 40
0.4375000000000291
 40
0.4375000000000291
 40
0.4687500000000291
 40
0.4687500000000291
 40
0.5000000000000292
 40
0.5000000000000292
 40
0.5312500000000293
 40
0.5312500000000293
 40
0.5625000000000293
 40
0.5625000000000293
 40
0.625000000000026
 40
0.625000000000026
 40
0.7500000000000173
 40
0.7500000000000173
 40
1.0
 40
1.0
 40
1.0
 40
1.0
 10
102.3639910511461
 20
133.0857725594043
 30
0.0
 10
102.3253905282777
 20
132.9679978630488
 30
0.0
 10
102.2790935257234
 20
132.8436081768869
 30
0.0
 10
102.1851541772895
 20
132.6383888445334
 30
0.0
 10
102.149842710376
 20
132.566815978087
 30
0.0
 10
102.0836627346304
 20
132.4508627454865
 30
0.0
 10
102.0591243679621
 20
132.4102782106763
 30
0.0
 10
102.0157516224083
 20
132.3461365288045
 30
0.0
 10
102.0002432209831
 20
132.3242701035195
 30
0.0
 10
101.9652005763961
 20
132.2786758351763
 30
0.0
 10
101.9456502856763
 20
132.2550055442088
 30
0.0
 10
101.9037230053057
 20
132.2103889848689
 30
0.0
 10
101.8810708950741
 20
132.189508972351
 30
0.0
 10
101.8400971809874
 20
132.1586355586002
 30
0.0
 10
101.822497881092
 20
132.1487966887678
 30
0.0
 10
101.7778708952359
 20
132.1298070730716
 30
0.0
 10
101.7573116725825
 20
132.1294827484182
 30
0.0
 10
101.7061862330859
 20
132.1387061892944
 30
0.0
 10
101.6852748200973
 20
132.1599530855113
 30
0.0
 10
101.6338249125364
 20
132.2339219643421
 30
0.0
 10
101.6161596132319
 20
132.3000400576569
 30
0.0
 10
101.602500779765
 20
132.3702057705872
 30
0.0
  0
SPLINE
  5
9C
330
1F
100
AcDbEntity
  8
0
  6
Continuous
 62
     7
370
    15
100
AcDbSpline
210
0.0
220
0.0
230
1.0
 70
     8
 71
     3
 72
    10
 73
     6
 74
     0
 42
0.00000001
 43
0.00000001
 40
0.0
 40
0.0
 40
0.0
 40
0.0
 40
0.5
 40
0.5
 40
1.0
 40
1.0
 40
1.0
 40
1.0
 10
102.6797924746234
 20
133.5556071180941
 30
0.0
 10
102.6122332197052
 20
133.4879157252843
 30
0.0
 10
102.5485965643687
 20
133.4132085605306
 30
0.0
 10
102.4383758097968
 20
133.254242428104
 30
0.0
 10
102.3915595165742
 20
133.169887162096
 30
0.0
 10
102.3639910511461
 20
133.0857725594043
 30
0.0
  0
SPLINE
  5
9D
330
1F
100
AcDbEntity
  8
0
  6
Continuous
 62
     7
370
    15
100
AcDbSpline
210
0.0
220
0.0
230
1.0
 70
     8
 71
     3
 72
    10
 73
     6
 74
     0
 42
0.00000001
 43
0.00000001
 40
0.0
 40
0.0
 40
0.0
 40
0.0
 40
0.5
 40
0.5
 40
1.0
 40
1.0
 40
1.0
 40
1.0
 10
102.3639910511462
 20
92.30553389220846
 30
0.0
 10
102.3914684659001
 20
92.22169709574058
 30
0.0
 10
102.4381770961895
 20
92.13738660815143
 30
0.0
 10
102.5484555589355
 20
91.97826537766473
 30
0.0
 10
102.6123430975494
 20
91.90328063357506
 30
0.0
 10
102.679792474634
 20
91.83569933350813
 30
0.0
  0
SPLINE
  5
9E
330
1F
100
AcDbEntity
  8
0
  6
Continuous
 62
     7
370
    15
100
AcDbSpline
210
0.0
220
0.0
230
1.0
 70
     8
 71
     3
 72
    24
 73
    20
 74
     0
 42
0.00000001
 43
0.00000001
 40
0.0
 40
0.0
 40
0.0
 40
0.0
 40
0.2499999999999952
 40
0.2499999999999952
 40
0.3749999999999937
 40
0.3749999999999937
 40
0.4374999999999931
 40
0.4374999999999931
 40
0.468749999999992
 40
0.468749999999992
 40
0.4999999999999909
 40
0.4999999999999909
 40
0.5624999999999933
 40
0.5624999999999933
 40
0.6249999999999958
 40
0.6249999999999958
 40
0.7499999999999981
 40
0.7499999999999981
 40
1.0
 40
1.0
 40
1.0
 40
1.0
 10
101.602500779765
 20
93.02110068102567
 30
0.0
 10
101.6162538984352
 20
93.09175073901596
 30
0.0
 10
101.6340264658411
 20
93.1583488517809
 30
0.0
 10
101.6862775573965
 20
93.23244687201408
 30
0.0
 10
101.707312632978
 20
93.25370467917566
 30
0.0
 10
101.7602130406064
 20
93.2618506053219
 30
0.0
 10
101.7813187134844
 20
93.26091080192613
 30
0.0
 10
101.8273708821623
 20
93.23989481034879
 30
0.0
 10
101.8457413541457
 20
93.22898600424118
 30
0.0
 10
101.8872929892114
 20
93.19635109329381
 30
0.0
 10
101.9098596619683
 20
93.17485911292245
 30
0.0
 10
101.9726406784284
 20
93.10639316933613
 30
0.0
 10
102.0057704393962
 20
93.06031871113105
 30
0.0
 10
102.0626881258813
 20
92.97531082279636
 30
0.0
 10
102.086874151385
 20
92.93503052161498
 30
0.0
 10
102.1520821017648
 20
92.82009429514903
 30
0.0
 10
102.186798161956
 20
92.74951131000203
 30
0.0
 10
102.2800134322869
 20
92.54530555092343
 30
0.0
 10
102.3256859676476
 20
92.42240716859605
 30
0.0
 10
102.3639910511462
 20
92.30553389220847
 30
0.0
  0
SPLINE
  5
9F
330
1F
100
AcDbEntity
  8
0
  6
Continuous
 62
     7
370
    15
100
AcDbSpline
210
0.0
220
0.0
230
1.0
 70
     8
 71
     3
 72
     8
 73
     4
 74
     0
 42
0.00000001
 43
0.00000001
 40
0.0
 40
0.0
 40
0.0
 40
0.0
 40
1.0
 40
1.0
 40
1.0
 40
1.0
 10
154.8317702365307
 20
143.1628486989707
 30
0.0
 10
154.3366302071663
 20
142.2761690507904
 30
0.0
 10
153.8425475018874
 20
141.3889064151044
 30
0.0
 10
153.3498374050416
 20
140.500887416978
 30
0.0
  0
LINE
  5
A0
330
1F
100
AcDbEntity
  8
0
  6
Continuous
 62
     7
370
    15
100
AcDbLine
 10
154.8317702365
 20
137.1543428882
 30
0.0
 11
154.8317702365
 21
143.162848699
 31
0.0
  0
SPLINE
  5
A1
330
1F
100
AcDbEntity
  8
0
  6
Continuous
 62
     7
370
    15
100
AcDbSpline
210
0.0
220
0.0
230
1.0
 70
     8
 71
     3
 72
     8
 73
     4
 74
     0
 42
0.00000001
 43
0.00000001
 40
0.0
 40
0.0
 40
0.0
 40
0.0
 40
1.0
 40
1.0
 40
1.0
 40
1.0
 10
153.3498374050416
 20
133.7457968933897
 30
0.0
 10
153.8291155556314
 20
134.8868081232423
 30
0.0
 10
154.3246833947714
 20
136.0231925340102
 30
0.0
 10
154.8317702365307
 20
137.1543428881739
 30
0.0
  0
LINE
  5
A2
330
1F
100
AcDbEntity
  8
0
  6
Continuous
 62
     7
370
    15
100
AcDbLine
 10
153.349837405
 20
133.7457968934
 30
0.0
 11
153.349837405
 21
140.500887417
 31
0.0
  0
LINE
  5
A3
330
1F
100
AcDbEntity
  8
0
  6
Continuous
 62
     7
370
    15
100
AcDbLine
 10
153.349837405
 20
132.8315198573
 30
0.0
 11
153.349837405
 21
133.7457968934
 31
0.0
  0
LINE
  5
A4
330
1F
100
AcDbEntity
  8
0
  6
Continuous
 62
     7
370
    15
100
AcDbLine
 10
154.8317702365
 20
137.1543428882
 30
0.0
 11
158.789837405
 21
137.1543428882
 31
0.0
  0
SPLINE
  5
A5
330
1F
100
AcDbEntity
  8
0
  6
Continuous
 62
     7
370
    15
100
AcDbSpline
210
0.0
220
0.0
230
1.0
 70
     8
 71
     3
 72
    12
 73
     8
 74
     0
 42
0.00000001
 43
0.00000001
 40
0.0
 40
0.0
 40
0.0
 40
0.0
 40
0.250000000000002
 40
0.250000000000002
 40
0.500000000000004
 40
0.500000000000004
 40
1.0
 40
1.0
 40
1.0
 40
1.0
 10
158.7898374050416
 20
137.1543428881739
 30
0.0
 10
158.8810371268673
 20
137.1543428881739
 30
0.0
 10
158.9716321360033
 20
137.126123189586
 30
0.0
 10
159.1250448624499
 20
137.0316801823379
 30
0.0
 10
159.1902537297736
 20
136.9653932056326
 30
0.0
 10
159.3430382591136
 20
136.7397683823442
 30
0.0
 10
159.3898374050416
 20
136.5573421193117
 30
0.0
 10
159.3898374050416
 20
136.3766054870648
 30
0.0
  0
LINE
  5
A6
330
1F
100
AcDbEntity
  8
0
  6
Continuous
 62
     7
370
    15
100
AcDbLine
 10
159.389837405
 20
136.3766054871
 30
0.0
 11
159.389837405
 21
132.5456532258
 31
0.0
  0
SPLINE
  5
A7
330
1F
100
AcDbEntity
  8
0
  6
Continuous
 62
     7
370
    15
100
AcDbSpline
210
0.0
220
0.0
230
1.0
 70
     8
 71
     3
 72
     8
 73
     4
 74
     0
 42
0.00000001
 43
0.00000001
 40
0.0
 40
0.0
 40
0.0
 40
0.0
 40
1.0
 40
1.0
 40
1.0
 40
1.0
 10
148.0479045735526
 20
137.1543428881739
 30
0.0
 10
148.5549914153118
 20
136.0231925340102
 30
0.0
 10
149.0505592544518
 20
134.8868081232424
 30
0.0
 10
149.5298374050416
 20
133.7457968933898
 30
0.0
  0
LINE
  5
A8
330
1F
100
AcDbEntity
  8
0
  6
Continuous
 62
     7
370
    15
100
AcDbLine
 10
149.529837405
 20
133.7457968934
 30
0.0
 11
149.529837405
 21
132.8315198573
 31
0.0
  0
LINE
  5
A9
330
1F
100
AcDbEntity
  8
0
  6
Continuous
 62
     7
370
    15
100
AcDbLine
 10
158.789837405
 20
143.162848699
 30
0.0
 11
154.8317702365
 21
143.162848699
 31
0.0
  0
SPLINE
  5
AA
330
1F
100
AcDbEntity
  8
0
  6
Continuous
 62
     7
370
    15
100
AcDbSpline
210
0.0
220
0.0
230
1.0
 70
     8
 71
     3
 72
    10
 73
     6
 74
     0
 42
0.00000001
 43
0.00000001
 40
0.0
 40
0.0
 40
0.0
 40
0.0
 40
0.5
 40
0.5
 40
1.0
 40
1.0
 40
1.0
 40
1.0
 10
159.3898374050416
 20
142.5420935495703
 30
0.0
 10
159.3898374050416
 20
142.7024988159212
 30
0.0
 10
159.3275995739347
 20
142.8615606289097
 30
0.0
 10
159.1084646501922
 20
143.0924730945401
 30
0.0
 10
158.9508759552003
 20
143.1628486989707
 30
0.0
 10
158.7898374050416
 20
143.1628486989707
 30
0.0
  0
LINE
  5
AB
330
1F
100
AcDbEntity
  8
0
  6
Continuous
 62
     7
370
    15
100
AcDbLine
 10
159.389837405
 20
136.3766054871
 30
0.0
 11
159.389837405
 21
142.5420935496
 31
0.0
  0
SPLINE
  5
AC
330
1F
100
AcDbEntity
  8
0
  6
Continuous
 62
     7
370
    15
100
AcDbSpline
210
0.0
220
0.0
230
1.0
 70
     8
 71
     3
 72
     8
 73
     4
 74
     0
 42
0.00000001
 43
0.00000001
 40
0.0
 40
0.0
 40
0.0
 40
0.0
 40
1.0
 40
1.0
 40
1.0
 40
1.0
 10
149.5298374050416
 20
140.500887416978
 30
0.0
 10
149.0371273081959
 20
141.3889064151044
 30
0.0
 10
148.5430446029169
 20
142.2761690507904
 30
0.0
 10
148.0479045735526
 20
143.1628486989707
 30
0.0
  0
LINE
  5
AD
330
1F
100
AcDbEntity
  8
0
  6
Continuous
 62
     7
370
    15
100
AcDbLine
 10
149.529837405
 20
133.7457968934
 30
0.0
 11
149.529837405
 21
140.500887417
 31
0.0
  0
ARC
  5
AE
330
1F
100
AcDbEntity
  8
0
  6
Continuous
 62
     7
370
    15
100
AcDbCircle
 10
141.4398191698
 20
131.3682536799
 30
0.0
 40
7.272642495560536
100
AcDbArc
 50
71.0363310653
 51
108.9587325501
  0
LINE
  5
AF
330
1F
100
AcDbEntity
  8
0
  6
Continuous
 62
     7
370
    15
100
AcDbLine
 10
213.439837405
 20
108.1578484716
 30
0.0
 11
213.439837405
 21
117.2334577037
 31
0.0
  0
LINE
  5
B0
330
1F
100
AcDbEntity
  8
0
  6
HIDDEN
 62
     7
370
     0
100
AcDbLine
 10
148.0479045736
 20
137.1543428882
 30
0.0
 11
148.0479045736
 21
132.5456532258
 31
0.0
  0
ARC
  5
B1
330
1F
100
AcDbEntity
  8
0
  6
HIDDEN
 62
     7
370
     0
100
AcDbCircle
 10
141.7253471994
 20
125.1854691833
 30
0.0
 40
3.671020863978369
100
AcDbArc
 50
265.5393762652
 51
13.3403080176
  0
ARC
  5
B2
330
1F
100
AcDbEntity
  8
0
  6
HIDDEN
 62
     7
370
     0
100
AcDbCircle
 10
141.1550864728
 20
125.1873511784
 30
0.0
 40
3.672838249779617
100
AcDbArc
 50
167.0481068397
 51
274.4465380918
  0
LINE
  5
B3
330
1F
100
AcDbEntity
  8
0
  6
HIDDEN
 62
     7
370
     0
100
AcDbLine
 10
121.4349876096
 20
89.171053603
 30
0.0
 11
121.1861227906
 21
89.1477906364
 31
0.0
  0
LINE
  5
B4
330
1F
100
AcDbEntity
  8
0
  6
HIDDEN
 62
     7
370
     0
100
AcDbLine
 10
121.0535620298
 20
136.255739554
 30
0.0
 11
121.4348948893
 21
136.2202362558
 31
0.0
  0
SPLINE
  5
B5
330
1F
100
AcDbEntity
  8
0
  6
HIDDEN
 62
     7
370
     0
100
AcDbSpline
210
0.0
220
0.0
230
1.0
 70
     8
 71
     3
 72
    12
 73
     8
 74
     0
 42
0.00000001
 43
0.00000001
 40
0.0
 40
0.0
 40
0.0
 40
0.0
 40
0.2208188061601852
 40
0.4480900429463158
 40
0.6689432265833899
 40
0.8961370690003194
 40
1.0
 40
1.0
 40
1.0
 40
1.0
 10
127.1948394066432
 20
132.5331817016229
 30
0.0
 10
127.3268826221777
 20
132.5502387894774
 30
0.0
 10
127.5948274188574
 20
132.5848513814129
 30
0.0
 10
127.8899833970461
 20
132.6118233185973
 30
0.0
 10
128.0910761213704
 20
132.6273330771598
 30
0.0
 10
128.1884080285104
 20
132.6334423309856
 30
0.0
 10
128.1797493541907
 20
132.6328970734345
 30
0.0
 10
128.1770328554943
 20
132.6327260089768
 30
0.0
  0
SPLINE
  5
B6
330
1F
100
AcDbEntity
  8
0
  6
HIDDEN
 62
     7
370
     0
100
AcDbSpline
210
0.0
220
0.0
230
1.0
 70
     8
 71
     3
 72
    17
 73
    13
 74
     0
 42
0.00000001
 43
0.00000001
 40
0.0
 40
0.0
 40
0.0
 40
0.0
 40
0.0069672873018476
 40
0.1183103086458422
 40
0.2320673587511869
 40
0.3466591332731054
 40
0.4573781158603664
 40
0.5688695574603297
 40
0.6828050943882709
 40
0.7975902571903241
 40
0.898497503450473
 40
1.0
 40
1.0
 40
1.0
 40
1.0
 10
128.1890834330135
 20
92.7578183100434
 30
0.0
 10
128.1893330710051
 20
92.75780254512512
 30
0.0
 10
128.1935721308494
 20
92.75753484375603
 30
0.0
 10
128.1776507952302
 20
92.75853180437463
 30
0.0
 10
128.1386371697759
 20
92.76104821468427
 30
0.0
 10
128.0701844340554
 20
92.76574586217029
 30
0.0
 10
127.9774326191569
 20
92.77269571905319
 30
0.0
 10
127.8601410063369
 20
92.78242520623193
 30
0.0
 10
127.7173043755218
 20
92.79567221244118
 30
0.0
 10
127.5557549820881
 20
92.81265930113736
 30
0.0
 10
127.3819516419579
 20
92.83295194154654
 30
0.0
 10
127.2573323126856
 20
92.84971737913989
 30
0.0
 10
127.1948394066432
 20
92.85812474998995
 30
0.0
  0
SPLINE
  5
B7
330
1F
100
AcDbEntity
  8
0
  6
HIDDEN
 62
     7
370
     0
100
AcDbSpline
210
0.0
220
0.0
230
1.0
 70
     8
 71
     3
 72
    32
 73
    28
 74
     0
 42
0.00000001
 43
0.00000001
 40
0.0
 40
0.0
 40
0.0
 40
0.0
 40
0.0346246159901393
 40
0.0694870388940024
 40
0.105100760954932
 40
0.1409753874086759
 40
0.175600572118933
 40
0.2104692408125612
 40
0.2461122854708171
 40
0.2820258067991323
 40
0.3162663828049038
 40
0.3859338563640314
 40
0.4214461814158482
 40
0.4553763558770599
 40
0.5243713305904969
 40
0.559512463821912
 40
0.5937987343035772
 40
0.6635059787021125
 40
0.6990055363805019
 40
0.7337623601246064
 40
0.7687606633024605
 40
0.8045245907686109
 40
0.8405553812432469
 40
0.8751701211305551
 40
0.9456085132854554
 40
0.9815233266320909
 40
1.0
 40
1.0
 40
1.0
 40
1.0
 10
127.1948394066432
 20
92.85812474998995
 30
0.0
 10
127.1228411047968
 20
92.86791269289827
 30
0.0
 10
126.9783500062636
 20
92.88755580373471
 30
0.0
 10
126.7370300720052
 20
92.91700502235643
 30
0.0
 10
126.4777318210195
 20
92.94555540444685
 30
0.0
 10
126.2037444018869
 20
92.97198662340168
 30
0.0
 10
125.9191166208654
 20
92.995439100753
 30
0.0
 10
125.6245316618972
 20
93.01543655721159
 30
0.0
 10
125.3176007529289
 20
93.03159223571534
 30
0.0
 10
125.0058692871764
 20
93.04303422341084
 30
0.0
 10
124.588603738491
 20
93.05172535110869
 30
0.0
 10
124.1679607451335
 20
93.05043729464849
 30
0.0
 10
123.754557191968
 20
93.03920948328101
 30
0.0
 10
123.3497132289007
 20
93.02191121120013
 30
0.0
 10
122.9590751443385
 20
92.99619556743193
 30
0.0
 10
122.5902940662973
 20
92.96410225653501
 30
0.0
 10
122.2368762840488
 20
92.92854404803256
 30
0.0
 10
121.9114351937279
 20
92.88929559169696
 30
0.0
 10
121.6220579880106
 20
92.84966407432462
 30
0.0
 10
121.4241441110353
 20
92.82052833118237
 30
0.0
 10
121.2468171469978
 20
92.79279409886963
 30
0.0
 10
121.0902078184853
 20
92.76701355461523
 30
0.0
 10
120.9585602987826
 20
92.74440691788108
 30
0.0
 10
120.8166991032109
 20
92.71922087257441
 30
0.0
 10
120.7278805153952
 20
92.70277532345081
 30
0.0
 10
120.6910575768448
 20
92.69588249263461
 30
0.0
 10
120.692473724018
 20
92.69614747854382
 30
0.0
 10
120.6929547862272
 20
92.69623749369855
 30
0.0
  0
SPLINE
  5
B8
330
1F
100
AcDbEntity
  8
0
  6
HIDDEN
 62
     7
370
     0
100
AcDbSpline
210
0.0
220
0.0
230
1.0
 70
     8
 71
     3
 72
    22
 73
    18
 74
     0
 42
0.00000001
 43
0.00000001
 40
0.0
 40
0.0
 40
0.0
 40
0.0
 40
0.0499040281125887
 40
0.1203075863893547
 40
0.1885125365560134
 40
0.2586444168297192
 40
0.327783940729316
 40
0.3988873214655101
 40
0.4686969488930339
 40
0.5405663748364756
 40
0.6097087891223016
 40
0.6809159691092502
 40
0.7490773369981714
 40
0.8192056085539695
 40
0.8876078379088252
 40
0.9579332867310425
 40
1.0
 40
1.0
 40
1.0
 40
1.0
 10
120.699809546703
 20
132.6937884177248
 30
0.0
 10
120.7010604807285
 20
132.693549387329
 30
0.0
 10
120.7040762062928
 20
132.6929731378543
 30
0.0
 10
120.8289695333463
 20
132.6697751030308
 30
0.0
 10
121.0534513612239
 20
132.6300950667132
 30
0.0
 10
121.3724795234014
 20
132.577883645314
 30
0.0
 10
121.7800147543981
 20
132.5185538336418
 30
0.0
 10
122.261801308231
 20
132.4590790571258
 30
0.0
 10
122.8122209900263
 20
132.4054727007638
 30
0.0
 10
123.4051158759745
 20
132.3649987822894
 30
0.0
 10
124.0320684462917
 20
132.3417995339231
 30
0.0
 10
124.6602794201197
 20
132.3388214307082
 30
0.0
 10
125.2845395125968
 20
132.3559557564075
 30
0.0
 10
125.8771578024251
 20
132.3906416120976
 30
0.0
 10
126.4339838859532
 20
132.4395979757614
 30
0.0
 10
126.8717907305861
 20
132.4894981403845
 30
0.0
 10
127.106857437359
 20
132.5212845293763
 30
0.0
 10
127.1948394066432
 20
132.5331817016229
 30
0.0
  0
LINE
  5
B9
330
1F
100
AcDbEntity
  8
0
  6
HIDDEN
 62
     7
370
     0
100
AcDbLine
 10
114.4438120013
 20
95.6956532258
 30
0.0
 11
114.4438120013
 21
129.6956532258
 31
0.0
  0
LWPOLYLINE
  5
BA
330
1F
100
AcDbEntity
  8
0
  6
HIDDEN
 62
     7
370
     0
100
AcDbPolyline
 90
       15
 70
   128
 43
0.0
 10
141.439837405
 20
134.6325953864
 10
142.1968423825
 20
134.6687379919
 10
142.9264872277
 20
134.7758595204
 10
143.6024006749
 20
134.9500883207
 10
144.200153451
 20
135.1851273102
 10
144.6981412132
 20
135.4724815673
 10
145.0783653865
 20
135.8017653604
 10
145.3270836783
 20
136.1610775154
 10
145.4353067618
 20
136.5374315548
 10
145.3991231726
 20
136.917225063
 10
145.2198406799
 20
137.286731313
 10
144.9039390202
 20
137.6325953864
 10
144.4628357025
 20
137.9423168543
 10
143.9124733499
 20
138.2047015759
 10
143.803199175
 20
138.2461722473
  0
LWPOLYLINE
  5
BB
330
1F
100
AcDbEntity
  8
0
  6
HIDDEN
 62
     7
370
     0
100
AcDbPolyline
 90
       15
 70
   128
 43
0.0
 10
139.0770317485
 20
138.2463758415
 10
138.9672014602
 20
138.2047015759
 10
138.4168391076
 20
137.9423168543
 10
137.9757357899
 20
137.6325953864
 10
137.6598341302
 20
137.286731313
 10
137.4805516375
 20
136.917225063
 10
137.4443680483
 20
136.5374315548
 10
137.5525911317
 20
136.1610775154
 10
137.8013094236
 20
135.8017653604
 10
138.1815335968
 20
135.4724815673
 10
138.6795213591
 20
135.1851273102
 10
139.2772741352
 20
134.9500883207
 10
139.9531875824
 20
134.7758595204
 10
140.6828324276
 20
134.6687379919
 10
141.439837405
 20
134.6325953864
  0
SPLINE
  5
BC
330
1F
100
AcDbEntity
  8
0
  6
HIDDEN
 62
     7
370
     0
100
AcDbSpline
210
0.0
220
0.0
230
1.0
 70
     8
 71
     3
 72
     8
 73
     4
 74
     0
 42
0.00000001
 43
0.00000001
 40
0.0
 40
0.0
 40
0.0
 40
0.0
 40
0.0011559732291307
 40
0.0011559732291307
 40
0.0011559732291307
 40
0.0011559732291307
 10
101.5398374050416
 20
114.6954938444331
 30
0.0
 10
101.8731719801089
 20
114.6915265646336
 30
0.0
 10
102.2065031711357
 20
114.6873466820627
 30
0.0
 10
102.5398374050416
 20
114.6827815286546
 30
0.0
  0
SPLINE
  5
BD
330
1F
100
AcDbEntity
  8
0
  6
HIDDEN
 62
     7
370
     0
100
AcDbSpline
210
0.0
220
0.0
230
1.0
 70
     8
 71
     3
 72
     8
 73
     4
 74
     0
 42
0.00000001
 43
0.00000001
 40
0.0
 40
0.0
 40
0.0
 40
0.0
 40
0.0011564765856723
 40
0.0011564765856723
 40
0.0011564765856723
 40
0.0011564765856723
 10
102.5398374050416
 20
110.6989529235893
 30
0.0
 10
102.2065294744728
 20
110.6980777680063
 30
0.0
 10
101.8731942420806
 20
110.697022916755
 30
0.0
 10
101.5398374050416
 20
110.6958518297178
 30
0.0
  0
LINE
  5
BE
330
1F
100
AcDbEntity
  8
0
  6
HIDDEN
 62
     7
370
     0
100
AcDbLine
 10
141.0996633736
 20
95.6956532258
 30
0.0
 11
141.0996633736
 21
129.6956532258
 31
0.0
  0
LINE
  5
BF
330
1F
100
AcDbEntity
  8
0
  6
HIDDEN
 62
     7
370
     0
100
AcDbLine
 10
143.389837405
 20
96.9706532258
 30
0.0
 11
143.389837405
 21
128.4206532246
 31
0.0
  0
SPLINE
  5
C0
330
1F
100
AcDbEntity
  8
0
  6
HIDDEN
 62
     7
370
     0
100
AcDbSpline
210
0.0
220
0.0
230
1.0
 70
     8
 71
     3
 72
    16
 73
    12
 74
     0
 42
0.00000001
 43
0.00000001
 40
0.0
 40
0.0
 40
0.0
 40
0.0
 40
0.124999999999998
 40
0.124999999999998
 40
0.249999999999996
 40
0.249999999999996
 40
0.4999999999999973
 40
0.4999999999999973
 40
0.7499999999999987
 40
0.7499999999999987
 40
1.0
 40
1.0
 40
1.0
 40
1.0
 10
110.2398374050416
 20
96.89416278977477
 30
0.0
 10
110.3349591597075
 20
96.89416278977477
 30
0.0
 10
110.4282892284355
 20
96.89034695638196
 30
0.0
 10
110.6115509891735
 20
96.87557640365216
 30
0.0
 10
110.7024287047305
 20
96.86441835567658
 30
0.0
 10
110.9592304022503
 20
96.82194708553484
 30
0.0
 10
111.1142977671223
 20
96.78090088833206
 30
0.0
 10
111.3680442286769
 20
96.68575477175017
 30
0.0
 10
111.4689146803447
 20
96.63099203766859
 30
0.0
 10
111.6041610950396
 20
96.5197309137647
 30
0.0
 10
111.6398374050416
 20
96.46256117643603
 30
0.0
 10
111.6398374050416
 20
96.4081396034023
 30
0.0
  0
SPLINE
  5
C1
330
1F
100
AcDbEntity
  8
0
  6
HIDDEN
 62
     7
370
     0
100
AcDbSpline
210
0.0
220
0.0
230
1.0
 70
     8
 71
     3
 72
     8
 73
     4
 74
     0
 42
0.00000001
 43
0.00000001
 40
0.0
 40
0.0
 40
0.0
 40
0.0
 40
1.0
 40
1.0
 40
1.0
 40
1.0
 10
102.8398374051342
 20
99.038965735857
 30
0.0
 10
102.8398374051362
 20
98.15506859354008
 30
0.0
 10
102.8263567792256
 20
97.44048534847813
 30
0.0
 10
102.8250054110345
 20
96.89416278977477
 30
0.0
  0
SPLINE
  5
C2
330
1F
100
AcDbEntity
  8
0
  6
HIDDEN
 62
     7
370
     0
100
AcDbSpline
210
0.0
220
0.0
230
1.0
 70
     8
 71
     3
 72
    10
 73
     6
 74
     0
 42
0.00000001
 43
0.00000001
 40
0.0
 40
0.0
 40
0.0
 40
0.0
 40
0.5
 40
0.5
 40
1.0
 40
1.0
 40
1.0
 40
1.0
 10
102.5398374050416
 20
100.0638759952868
 30
0.0
 10
102.6312285197091
 20
99.88923720871867
 30
0.0
 10
102.7038803527692
 20
99.71563538254927
 30
0.0
 10
102.8113792446226
 20
99.3720219656624
 30
0.0
 10
102.8398374051286
 20
99.20369614015554
 30
0.0
 10
102.8398374051342
 20
99.03896573591649
 30
0.0
  0
LINE
  5
C3
330
1F
100
AcDbEntity
  8
0
  6
HIDDEN
 62
     7
370
     0
100
AcDbLine
 10
102.539837405
 20
103.0948264408
 30
0.0
 11
102.539837405
 21
100.0638759953
 31
0.0
  0
SPLINE
  5
C4
330
1F
100
AcDbEntity
  8
0
  6
HIDDEN
 62
     7
370
     0
100
AcDbSpline
210
0.0
220
0.0
230
1.0
 70
     8
 71
     3
 72
    10
 73
     6
 74
     0
 42
0.00000001
 43
0.00000001
 40
0.0
 40
0.0
 40
0.0
 40
0.0
 40
0.5
 40
0.5
 40
1.0
 40
1.0
 40
1.0
 40
1.0
 10
102.8398374051282
 20
104.4626668501636
 30
0.0
 10
102.8398374051281
 20
104.2206828839492
 30
0.0
 10
102.8116873763697
 20
103.9863404562906
 30
0.0
 10
102.7080974633545
 20
103.5309654364822
 30
0.0
 10
102.6314687545609
 20
103.3093608745647
 30
0.0
 10
102.5398374050416
 20
103.0948264408253
 30
0.0
  0
LINE
  5
C5
330
1F
100
AcDbEntity
  8
0
  6
HIDDEN
 62
     7
370
     0
100
AcDbLine
 10
102.8398374051
 20
116.3002868474
 30
0.0
 11
102.8398374051
 21
104.4626668501
 31
0.0
  0
SPLINE
  5
C6
330
1F
100
AcDbEntity
  8
0
  6
HIDDEN
 62
     7
370
     0
100
AcDbSpline
210
0.0
220
0.0
230
1.0
 70
     8
 71
     3
 72
     8
 73
     4
 74
     0
 42
0.00000001
 43
0.00000001
 40
0.0
 40
0.0
 40
0.0
 40
0.0
 40
1.0
 40
1.0
 40
1.0
 40
1.0
 10
102.5398374050416
 20
122.302592539312
 30
0.0
 10
102.7208688697804
 20
121.8704850558375
 30
0.0
 10
102.8398374051338
 20
121.4163396521886
 30
0.0
 10
102.8398374051281
 20
120.9286396014184
 30
0.0
  0
LINE
  5
C7
330
1F
100
AcDbEntity
  8
0
  6
HIDDEN
 62
     7
370
     0
100
AcDbLine
 10
102.539837405
 20
125.3357955393
 30
0.0
 11
102.539837405
 21
122.3025925393
 31
0.0
  0
SPLINE
  5
C8
330
1F
100
AcDbEntity
  8
0
  6
HIDDEN
 62
     7
370
     0
100
AcDbSpline
210
0.0
220
0.0
230
1.0
 70
     8
 71
     3
 72
    10
 73
     6
 74
     0
 42
0.00000001
 43
0.00000001
 40
0.0
 40
0.0
 40
0.0
 40
0.0
 40
0.5
 40
0.5
 40
1.0
 40
1.0
 40
1.0
 40
1.0
 10
102.8398374051472
 20
126.3523407157263
 30
0.0
 10
102.8398374051454
 20
126.1877043701329
 30
0.0
 10
102.8126787347204
 20
126.0205491473464
 30
0.0
 10
102.7069137406607
 20
125.6819261416841
 30
0.0
 10
102.6304989531399
 20
125.5096543655273
 30
0.0
 10
102.5398374050417
 20
125.3357955392768
 30
0.0
  0
SPLINE
  5
C9
330
1F
100
AcDbEntity
  8
0
  6
HIDDEN
 62
     7
370
     0
100
AcDbSpline
210
0.0
220
0.0
230
1.0
 70
     8
 71
     3
 72
    18
 73
    14
 74
     0
 42
0.00000001
 43
0.00000001
 40
0.0
 40
0.0
 40
0.0
 40
0.0
 40
0.2500000000000033
 40
0.2500000000000033
 40
0.3750000000000029
 40
0.3750000000000029
 40
0.5000000000000026
 40
0.5000000000000026
 40
0.6250000000000022
 40
0.6250000000000022
 40
0.7500000000000018
 40
0.7500000000000018
 40
1.0
 40
1.0
 40
1.0
 40
1.0
 10
107.6398374050416
 20
128.9831668482105
 30
0.0
 10
107.6398374050416
 20
128.9286923276584
 30
0.0
 10
107.6049267136494
 20
128.8723112683059
 30
0.0
 10
107.5029174123164
 20
128.7882344274524
 30
0.0
 10
107.4612810576383
 20
128.7609007234615
 30
0.0
 10
107.3628752621495
 20
128.7079468078625
 30
0.0
 10
107.3053320504453
 20
128.6820594541453
 30
0.0
 10
107.1780338768723
 20
128.6342819093121
 30
0.0
 10
107.1084465721148
 20
128.6123339911342
 30
0.0
 10
106.9570123269599
 20
128.5729014262215
 30
0.0
 10
106.8743284238659
 20
128.5553451769956
 30
0.0
 10
106.6182169618279
 20
128.5129064115751
 30
0.0
 10
106.4303019579399
 20
128.4971436618381
 30
0.0
 10
106.2398374050416
 20
128.4971436618381
 30
0.0
  0
LINE
  5
CA
330
1F
100
AcDbEntity
  8
0
  6
HIDDEN
 62
     7
370
     0
100
AcDbLine
 10
106.239837405
 20
128.4971436618
 30
0.0
 11
102.8398374051
 21
128.4971436618
 31
0.0
  0
LINE
  5
CB
330
1F
100
AcDbEntity
  8
0
  6
HIDDEN
 62
     7
370
     0
100
AcDbLine
 10
102.7708684184
 20
96.8941627898
 30
0.0
 11
110.239837405
 21
96.8941627898
 31
0.0
  0
SPLINE
  5
CC
330
1F
100
AcDbEntity
  8
0
  6
HIDDEN
 62
     7
370
     0
100
AcDbSpline
210
0.0
220
0.0
230
1.0
 70
     8
 71
     3
 72
    22
 73
    18
 74
     0
 42
0.00000001
 43
0.00000001
 40
0.0
 40
0.0
 40
0.0
 40
0.0
 40
0.1249999999999998
 40
0.1249999999999998
 40
0.2499999999999996
 40
0.2499999999999996
 40
0.4999999999999992
 40
0.4999999999999992
 40
0.5624999999999992
 40
0.5624999999999992
 40
0.6249999999999992
 40
0.6249999999999992
 40
0.7499999999999994
 40
0.7499999999999994
 40
0.8749999999999998
 40
0.8749999999999998
 40
1.0
 40
1.0
 40
1.0
 40
1.0
 10
102.7708684183995
 20
96.89416278977477
 30
0.0
 10
102.7577860256712
 20
97.14926849992243
 30
0.0
 10
102.7445664622313
 20
97.44242675902635
 30
0.0
 10
102.7221192844372
 20
98.10472722465114
 30
0.0
 10
102.7126408174127
 20
98.47500114526251
 30
0.0
 10
102.6934428564762
 20
99.69755794837631
 30
0.0
 10
102.6945566294731
 20
100.6346968745082
 30
0.0
 10
102.7134674224262
 20
101.9545681040232
 30
0.0
 10
102.7180969502852
 20
102.2260700129995
 30
0.0
 10
102.7285781700311
 20
102.7844548478018
 30
0.0
 10
102.7343734313155
 20
103.0715777037414
 30
0.0
 10
102.7526826522205
 20
103.9441669581131
 30
0.0
 10
102.7667175865008
 20
104.5446226344689
 30
0.0
 10
102.7961747586377
 20
105.782097126965
 30
0.0
 10
102.8117304496192
 20
106.4191132836085
 30
0.0
 10
102.8355249996161
 20
107.730601881293
 30
0.0
 10
102.8435440517615
 20
108.4067244929535
 30
0.0
 10
102.8398374050416
 20
109.0910196042383
 30
0.0
  0
LINE
  5
CD
330
1F
100
AcDbEntity
  8
0
  6
HIDDEN
 62
     7
370
     0
100
AcDbLine
 10
102.8398374051
 20
116.3002868474
 30
0.0
 11
102.8398374051
 21
128.4971436618
 31
0.0
  0
SPLINE
  5
CE
330
1F
100
AcDbEntity
  8
0
  6
HIDDEN
 62
     7
370
     0
100
AcDbSpline
210
0.0
220
0.0
230
1.0
 70
     8
 71
     3
 72
    10
 73
     6
 74
     0
 42
0.00000001
 43
0.00000001
 40
0.0
 40
0.0
 40
0.0
 40
0.0
 40
0.5
 40
0.5
 40
1.0
 40
1.0
 40
1.0
 40
1.0
 10
102.8398374050416
 20
109.0910196042232
 30
0.0
 10
102.8398374050414
 20
109.3649347522975
 30
0.0
 10
102.8140781751736
 20
109.6358763310274
 30
0.0
 10
102.7108722424404
 20
110.17156741263
 30
0.0
 10
102.6335340785653
 20
110.4373142161518
 30
0.0
 10
102.5398374050416
 20
110.6989529235892
 30
0.0
  0
SPLINE
  5
CF
330
1F
100
AcDbEntity
  8
0
  6
HIDDEN
 62
     7
370
     0
100
AcDbSpline
210
0.0
220
0.0
230
1.0
 70
     8
 71
     3
 72
    10
 73
     6
 74
     0
 42
0.00000001
 43
0.00000001
 40
0.0
 40
0.0
 40
0.0
 40
0.0
 40
0.5
 40
0.5
 40
1.0
 40
1.0
 40
1.0
 40
1.0
 10
102.5398374050416
 20
114.6827815286546
 30
0.0
 10
102.6330679853929
 20
114.946675335253
 30
0.0
 10
102.7080975969217
 20
115.2128556443515
 30
0.0
 10
102.8131646949014
 20
115.7511782161704
 30
0.0
 10
102.839837405146
 20
116.0239263307862
 30
0.0
 10
102.8398374051472
 20
116.3002868473735
 30
0.0
  0
LINE
  5
D0
330
1F
100
AcDbEntity
  8
0
  6
HIDDEN
 62
     7
370
     0
100
AcDbLine
 10
102.539837405
 20
110.6989529236
 30
0.0
 11
102.539837405
 21
114.6827815287
 31
0.0
  0
LINE
  5
D1
330
1F
100
AcDbEntity
  8
0
  6
HIDDEN
 62
     7
370
     0
100
AcDbLine
 10
102.689837405
 20
94.7056532258
 30
0.0
 11
102.689837405
 21
91.8257154604
 31
0.0
  0
LINE
  5
D2
330
1F
100
AcDbEntity
  8
0
  6
HIDDEN
 62
     7
370
     0
100
AcDbLine
 10
111.639837405
 20
94.7056532258
 30
0.0
 11
111.639837405
 21
90.7319156946
 31
0.0
  0
LINE
  5
D3
330
1F
100
AcDbEntity
  8
0
  6
HIDDEN
 62
     7
370
     0
100
AcDbLine
 10
102.689837405
 20
130.6856532258
 30
0.0
 11
102.689837405
 21
133.5655909912
 31
0.0
  0
LINE
  5
D4
330
1F
100
AcDbEntity
  8
0
  6
HIDDEN
 62
     7
370
     0
100
AcDbLine
 10
107.639837405
 20
130.6856532258
 30
0.0
 11
107.639837405
 21
134.5397608982
 31
0.0
  0
LINE
  5
D5
330
1F
100
AcDbEntity
  8
0
  6
HIDDEN
 62
     7
370
     0
100
AcDbLine
 10
155.239837405
 20
103.1956532258
 30
0.0
 11
155.239837405
 21
122.1956532258
 31
0.0
  0
LINE
  5
D6
330
1F
100
AcDbEntity
  8
0
  6
HIDDEN
 62
     7
370
     0
100
AcDbLine
 10
152.239837405
 20
103.1956532258
 30
0.0
 11
152.239837405
 21
122.1956532258
 31
0.0
  0
LINE
  5
D7
330
1F
100
AcDbEntity
  8
0
  6
HIDDEN
 62
     7
370
     0
100
AcDbLine
 10
143.889837405
 20
104.1956532258
 30
0.0
 11
143.889837405
 21
121.1956532258
 31
0.0
  0
LINE
  5
D8
330
1F
100
AcDbEntity
  8
0
  6
HIDDEN
 62
     7
370
     0
100
AcDbLine
 10
159.389837405
 20
86.2956532258
 30
0.0
 11
153.2521626027
 21
86.2956532258
 31
0.0
  0
LINE
  5
D9
330
1F
100
AcDbEntity
  8
0
  6
HIDDEN
 62
     7
370
     0
100
AcDbLine
 10
138.389837405
 20
81.2115302429
 30
0.0
 11
138.389837405
 21
86.2956532258
 31
0.0
  0
LINE
  5
DA
330
1F
100
AcDbEntity
  8
0
  6
HIDDEN
 62
     7
370
     0
100
AcDbLine
 10
146.389837405
 20
86.2956532258
 30
0.0
 11
138.389837405
 21
86.2956532258
 31
0.0
  0
LINE
  5
DB
330
1F
100
AcDbEntity
  8
0
  6
HIDDEN
 62
     7
370
     0
100
AcDbLine
 10
149.6275122074
 20
86.2956532258
 30
0.0
 11
146.389837405
 21
86.2956532258
 31
0.0
  0
LINE
  5
DC
330
1F
100
AcDbEntity
  8
0
  6
HIDDEN
 62
     7
370
     0
100
AcDbLine
 10
149.9241349367
 20
139.0956532258
 30
0.0
 11
146.389837405
 21
139.0956532258
 31
0.0
  0
LINE
  5
DD
330
1F
100
AcDbEntity
  8
0
  6
HIDDEN
 62
     7
370
     0
100
AcDbLine
 10
146.389837405
 20
139.0956532258
 30
0.0
 11
138.389837405
 21
139.0956532258
 31
0.0
  0
LINE
  5
DE
330
1F
100
AcDbEntity
  8
0
  6
HIDDEN
 62
     7
370
     0
100
AcDbLine
 10
159.389837405
 20
139.0956532258
 30
0.0
 11
152.9555398734
 21
139.0956532258
 31
0.0
  0
SPLINE
  5
DF
330
1F
100
AcDbEntity
  8
0
  6
HIDDEN
 62
     7
370
     0
100
AcDbSpline
210
0.0
220
0.0
230
1.0
 70
     8
 71
     3
 72
    11
 73
     7
 74
     0
 42
0.00000001
 43
0.00000001
 40
0.0
 40
0.0
 40
0.0
 40
0.0
 40
0.0008203708524183
 40
0.0008203708524183
 40
0.0008203708524183
 40
0.0016409967870154
 40
0.0016409967870154
 40
0.0016409967870154
 40
0.0016409967870154
 10
102.6898374050416
 20
96.84362047516369
 30
0.0
 10
102.498679104743
 20
96.80244144654455
 30
0.0
 10
102.3072520346708
 20
96.76368747431457
 30
0.0
 10
102.1156064111502
 20
96.72731971503602
 30
0.0
 10
101.9239010060697
 20
96.69094061127
 30
0.0
 10
101.7319620540107
 20
96.65694636050243
 30
0.0
 10
101.5398374069399
 20
96.6252982351112
 30
0.0
  0
ELLIPSE
  5
E0
330
1F
100
AcDbEntity
  8
0
  6
HIDDEN
 62
     7
370
     0
100
AcDbEllipse
 10
97.2974055423
 20
112.6956532258
 30
0.0
 11
20.19992452771987
 21
-1.421085471520200E-14
 31
0.0
210
0.0
220
0.0
230
1.0
 40
0.816496581
 41
1.300566354937427
 42
1.359198697443033
  0
LINE
  5
E1
330
1F
100
AcDbEntity
  8
0
  6
HIDDEN
 62
     7
370
     0
100
AcDbLine
 10
111.639837405
 20
94.7056532258
 30
0.0
 11
111.639837405
 21
96.4081396034
 31
0.0
  0
LINE
  5
E2
330
1F
100
AcDbEntity
  8
0
  6
HIDDEN
 62
     7
370
     0
100
AcDbLine
 10
102.689837405
 20
94.7056532258
 30
0.0
 11
102.689837405
 21
96.8436204752
 31
0.0
  0
LINE
  5
E3
330
1F
100
AcDbEntity
  8
0
  6
HIDDEN
 62
     7
370
     0
100
AcDbLine
 10
102.7708684184
 20
96.8941627898
 30
0.0
 11
102.689837405
 21
96.8436204752
 31
0.0
  0
LINE
  5
E4
330
1F
100
AcDbEntity
  8
0
  6
HIDDEN
 62
     7
370
     0
100
AcDbLine
 10
107.639837405
 20
130.6856532258
 30
0.0
 11
107.639837405
 21
128.9831668482
 31
0.0
  0
LINE
  5
E5
330
1F
100
AcDbEntity
  8
0
  6
HIDDEN
 62
     7
370
     0
100
AcDbLine
 10
102.689837405
 20
130.6856532258
 30
0.0
 11
102.689837405
 21
128.5902776748
 31
0.0
  0
SPLINE
  5
E6
330
1F
100
AcDbEntity
  8
0
  6
HIDDEN
 62
     7
370
     0
100
AcDbSpline
210
0.0
220
0.0
230
1.0
 70
     8
 71
     3
 72
     8
 73
     4
 74
     0
 42
0.00000001
 43
0.00000001
 40
0.0
 40
0.0
 40
0.0
 40
0.0
 40
1.0
 40
1.0
 40
1.0
 40
1.0
 10
102.6898374050416
 20
128.5902776748052
 30
0.0
 10
102.7398429028892
 20
128.5592419012723
 30
0.0
 10
102.7898429724577
 20
128.5281972569314
 30
0.0
 10
102.8398374051472
 20
128.4971436618381
 30
0.0
  0
SPLINE
  5
E7
330
1F
100
AcDbEntity
  8
0
  6
HIDDEN
 62
     7
370
     0
100
AcDbSpline
210
0.0
220
0.0
230
1.0
 70
     8
 71
     3
 72
    20
 73
    16
 74
     0
 42
0.00000001
 43
0.00000001
 40
0.0
 40
0.0
 40
0.0
 40
0.0
 40
0.1118532753329773
 40
0.1773727968972756
 40
0.2489947124776251
 40
0.3297435623080844
 40
0.3985163041579624
 40
0.4997965445409745
 40
0.6137622343445995
 40
0.6789284883076249
 40
0.7494553429231268
 40
0.8296017034142377
 40
0.8980457170654099
 40
0.9994566317807292
 40
1.0
 40
1.0
 40
1.0
 40
1.0
 10
128.1884527216697
 20
89.0957195760692
 30
0.0
 10
128.1451606470825
 20
89.10913798989856
 30
0.0
 10
128.076509672579
 20
89.13041641544088
 30
0.0
 10
127.6314922607703
 20
89.23368894281906
 30
0.0
 10
127.1049425587901
 20
89.3469903658246
 30
0.0
 10
126.4195149845375
 20
89.4699237723855
 30
0.0
 10
125.5261982417683
 20
89.59195808902699
 30
0.0
 10
124.4128386696892
 20
89.70969446226063
 30
0.0
 10
123.3020644134966
 20
89.72166990077804
 30
0.0
 10
122.4173166977119
 20
89.69461172667039
 30
0.0
 10
121.7501179305278
 20
89.64667924919823
 30
0.0
 10
121.2088543378445
 20
89.59038742642969
 30
0.0
 10
120.8212405111118
 20
89.54529809445435
 30
0.0
 10
120.6273326400822
 20
89.50642942087296
 30
0.0
 10
120.6905257038827
 20
89.51715172567498
 30
0.0
 10
120.6908624930941
 20
89.51720887050008
 30
0.0
  0
LINE
  5
E8
330
1F
100
AcDbEntity
  8
0
  6
HIDDEN
 62
     7
370
     0
100
AcDbLine
 10
121.5998493194
 20
89.6279913695
 30
0.0
 11
121.7836946305
 21
89.6461807118
 31
0.0
  0
SPLINE
  5
E9
330
1F
100
AcDbEntity
  8
0
  6
HIDDEN
 62
     7
370
     0
100
AcDbSpline
210
0.0
220
0.0
230
1.0
 70
     8
 71
     3
 72
    27
 73
    23
 74
     0
 42
0.00000001
 43
0.00000001
 40
0.0
 40
0.0
 40
0.0
 40
0.0
 40
0.0008086698272076
 40
0.0456911818186814
 40
0.1022728481583512
 40
0.1705509392347903
 40
0.2091426118780818
 40
0.2506698514600983
 40
0.3211156297100197
 40
0.3862093649606682
 40
0.4266885152929669
 40
0.464819768681512
 40
0.5006240859090926
 40
0.5452158508169909
 40
0.6017101077234818
 40
0.6701160834215031
 40
0.7088534140434741
 40
0.7505821601356245
 40
0.8222467465098726
 40
0.887786172122064
 40
0.9472599280090751
 40
0.9999999999999999
 40
0.9999999999999999
 40
0.9999999999999999
 40
0.9999999999999999
 10
120.6905059421609
 20
135.8740673560168
 30
0.0
 10
120.6902835727002
 20
135.8741152913684
 30
0.0
 10
120.6777193306344
 20
135.8768237179612
 30
0.0
 10
120.7267959697216
 20
135.8649916875578
 30
0.0
 10
120.8719004874679
 20
135.8415474792938
 30
0.0
 10
121.1449526446118
 20
135.8076433339448
 30
0.0
 10
121.4734791269941
 20
135.7740745361673
 30
0.0
 10
121.8662068912393
 20
135.7358911979307
 30
0.0
 10
122.4159348668855
 20
135.6969225252468
 30
0.0
 10
123.0419575119786
 20
135.6774614208863
 30
0.0
 10
123.5851490224216
 20
135.6752757430443
 30
0.0
 10
124.0302179192628
 20
135.6837906242243
 30
0.0
 10
124.4966657157437
 20
135.7035740211501
 30
0.0
 10
125.0339063649065
 20
135.7477364066642
 30
0.0
 10
125.6821197957102
 20
135.8201520266814
 30
0.0
 10
126.2676584256887
 20
135.9010541198493
 30
0.0
 10
126.7486280401368
 20
135.9792201083417
 30
0.0
 10
127.1940429371345
 20
136.063992247286
 30
0.0
 10
127.6325426565372
 20
136.1577752902188
 30
0.0
 10
127.9715679133987
 20
136.2356790541304
 30
0.0
 10
128.1589088487849
 20
136.2858706914801
 30
0.0
 10
128.1793986309494
 20
136.2925371308998
 30
0.0
 10
128.1890287505778
 20
136.2956703320531
 30
0.0
  0
LINE
  5
EA
330
1F
100
AcDbEntity
  8
0
  6
HIDDEN
 62
     7
370
     0
100
AcDbLine
 10
187.439837405
 20
108.4956532258
 30
0.0
 11
187.439837405
 21
116.8956532258
 31
0.0
  0
LINE
  5
EB
330
1F
100
AcDbEntity
  8
0
  6
HIDDEN
 62
     7
370
     0
100
AcDbLine
 10
188.3110853026
 20
109.9456532258
 30
0.0
 11
188.3110853026
 21
115.4456532258
 31
0.0
  0
LINE
  5
EC
330
1F
100
AcDbEntity
  8
0
  6
HIDDEN
 62
     7
370
     0
100
AcDbLine
 10
203.6887616313
 20
109.9456532258
 30
0.0
 11
203.6887616313
 21
115.4456532258
 31
0.0
  0
LINE
  5
ED
330
1F
100
AcDbEntity
  8
0
  6
HIDDEN
 62
     7
370
     0
100
AcDbLine
 10
204.439837405
 20
111.1956532258
 30
0.0
 11
204.439837405
 21
114.1956532258
 31
0.0
  0
SPLINE
  5
EE
330
1F
100
AcDbEntity
  8
0
  6
HIDDEN
 62
     7
370
     0
100
AcDbSpline
210
0.0
220
0.0
230
1.0
 70
     8
 71
     3
 72
     8
 73
     4
 74
     0
 42
0.00000001
 43
0.00000001
 40
0.0
 40
0.0
 40
0.0
 40
0.0
 40
0.0001590976915385
 40
0.0001590976915385
 40
0.0001590976915385
 40
0.0001590976915385
 10
102.8250054110345
 20
96.89416278977477
 30
0.0
 10
102.779953941605
 20
96.8661839061241
 30
0.0
 10
102.7348979042652
 20
96.8382123764218
 30
0.0
 10
102.6898374050416
 20
96.8102480377417
 30
0.0
  0
SPLINE
  5
EF
330
1F
100
AcDbEntity
  8
0
  6
HIDDEN
 62
     7
370
     0
100
AcDbSpline
210
0.0
220
0.0
230
1.0
 70
     8
 71
     3
 72
    11
 73
     7
 74
     0
 42
0.00000001
 43
0.00000001
 40
0.0
 40
0.0
 40
0.0
 40
0.0
 40
0.000821290931132
 40
0.000821290931132
 40
0.000821290931132
 40
0.0016428257242788
 40
0.0016428257242788
 40
0.0016428257242788
 40
0.0016428257242788
 10
102.6898374050416
 20
96.8102480377417
 30
0.0
 10
102.4986923835592
 20
96.76696184892006
 30
0.0
 10
102.3072740478826
 20
96.72602533931429
 30
0.0
 10
102.1156279732215
 20
96.68742356795983
 30
0.0
 10
101.9239248916799
 20
96.64881031415487
 30
0.0
 10
101.7319797683945
 20
96.61253010490162
 30
0.0
 10
101.5398374050416
 20
96.57856319858351
 30
0.0
  0
LINE
  5
F0
330
1F
100
AcDbEntity
  8
0
  6
HIDDEN
 62
     7
370
     0
100
AcDbLine
 10
149.529837405
 20
132.8814389162
 30
0.0
 11
149.529837405
 21
132.5456532258
 31
0.0
  0
LINE
  5
F1
330
1F
100
AcDbEntity
  8
0
  6
HIDDEN
 62
     7
370
     0
100
AcDbLine
 10
153.349837405
 20
132.8814389161
 30
0.0
 11
153.349837405
 21
132.5456532258
 31
0.0
  0
LINE
  5
F2
330
1F
100
AcDbEntity
  8
0
  6
HIDDEN
 62
     7
370
     0
100
AcDbLine
 10
154.8317702365
 20
137.1543428882
 30
0.0
 11
154.8317702365
 21
132.5456532258
 31
0.0
  0
SPLINE
  5
F3
330
1F
100
AcDbEntity
  8
0
  6
HIDDEN
 62
     7
370
     0
100
AcDbSpline
210
0.0
220
0.0
230
1.0
 70
     8
 71
     3
 72
     8
 73
     4
 74
     0
 42
0.00000001
 43
0.00000001
 40
0.0
 40
0.0
 40
0.0
 40
0.0
 40
0.0011563724678166
 40
0.0011563724678166
 40
0.0011563724678166
 40
0.0011563724678166
 10
102.5398374050416
 20
125.3357955392768
 30
0.0
 10
102.2065162898445
 20
125.4648545649037
 30
0.0
 10
101.8731836090365
 20
125.5938149010774
 30
0.0
 10
101.5398374050416
 20
125.7227264308504
 30
0.0
  0
SPLINE
  5
F4
330
1F
100
AcDbEntity
  8
0
  6
HIDDEN
 62
     7
370
     0
100
AcDbSpline
210
0.0
220
0.0
230
1.0
 70
     8
 71
     3
 72
     8
 73
     4
 74
     0
 42
0.00000001
 43
0.00000001
 40
0.0
 40
0.0
 40
0.0
 40
0.0
 40
0.0011557494192775
 40
0.0011557494192775
 40
0.0011557494192775
 40
0.0011557494192775
 10
101.5398374050416
 20
99.66843136335557
 30
0.0
 10
101.8731712150557
 20
99.80005563955046
 30
0.0
 10
102.2065048267184
 20
99.93187255312391
 30
0.0
 10
102.5398374050416
 20
100.0638759952868
 30
0.0
  0
SPLINE
  5
F5
330
1F
100
AcDbEntity
  8
0
  6
HIDDEN
 62
     7
370
     0
100
AcDbSpline
210
0.0
220
0.0
230
1.0
 70
     8
 71
     3
 72
     8
 73
     4
 74
     0
 42
0.00000001
 43
0.00000001
 40
0.0000000000000006
 40
0.0000000000000006
 40
0.0000000000000006
 40
0.0000000000000006
 40
0.0011560973009451
 40
0.0011560973009451
 40
0.0011560973009451
 40
0.0011560973009451
 10
101.5398374050416
 20
122.6764677190936
 30
0.0
 10
101.8731771426283
 20
122.5517239868203
 30
0.0
 10
102.206507775837
 20
122.4270427626433
 30
0.0
 10
102.5398374050416
 20
122.302592539312
 30
0.0
  0
SPLINE
  5
F6
330
1F
100
AcDbEntity
  8
0
  6
HIDDEN
 62
     7
370
     0
100
AcDbSpline
210
0.0
220
0.0
230
1.0
 70
     8
 71
     3
 72
     8
 73
     4
 74
     0
 42
0.00000001
 43
0.00000001
 40
0.0
 40
0.0
 40
0.0
 40
0.0
 40
0.0011564805411644
 40
0.0011564805411644
 40
0.0011564805411644
 40
0.0011564805411644
 10
102.5398374050416
 20
103.0948264408253
 30
0.0
 10
102.2065354396401
 20
102.967975500391
 30
0.0
 10
101.8731986227335
 20
102.8414104315288
 30
0.0
 10
101.5398374050416
 20
102.7150104578681
 30
0.0
  0
CIRCLE
  5
F7
330
1F
100
AcDbEntity
  8
0
  6
HIDDEN
 62
     7
370
     0
100
AcDbCircle
 10
140.439837405
 20
112.6956532258
 30
0.0
 40
5.0
  0
LINE
  5
F8
330
1F
100
AcDbEntity
  8
0
  6
HIDDEN
 62
     7
370
     0
100
AcDbLine
 10
137.439837405
 20
126.9962837315
 30
0.0
 11
137.439837405
 21
125.0895938687
 31
0.0
  0
LINE
  5
F9
330
1F
100
AcDbEntity
  8
0
  6
HIDDEN
 62
     7
370
     0
100
AcDbLine
 10
145.439837405
 20
125.0895938687
 30
0.0
 11
145.439837405
 21
126.9934883756
 31
0.0
  0
LINE
  5
FA
330
1F
100
AcDbEntity
  8
0
  6
HIDDEN
 62
     7
370
     0
100
AcDbLine
 10
133.439837405
 20
87.3717220798
 30
0.0
 11
133.5339981806
 21
88.041710811
 31
0.0
  0
LINE
  5
FB
330
1F
100
AcDbEntity
  8
0
  6
HIDDEN
 62
     7
370
     0
100
AcDbLine
 10
133.5339981806
 20
137.3495956406
 30
0.0
 11
133.439837405
 21
138.0195843718
 31
0.0
  0
ARC
  5
FC
330
1F
100
AcDbEntity
  8
0
  6
HIDDEN
 62
     7
370
     0
100
AcDbCircle
 10
132.9398306524
 20
88.1252156114
 30
0.0
 40
0.6000067526677062
100
AcDbArc
 50
352.0
 51
0.0
  0
ARC
  5
FD
330
1F
100
AcDbEntity
  8
0
  6
HIDDEN
 62
     7
370
     0
100
AcDbCircle
 10
132.9398306524
 20
88.1252156114
 30
0.0
 40
0.6000067526677045
100
AcDbArc
 50
0.0
 51
33.5571153394
  0
ARC
  5
FE
330
1F
100
AcDbEntity
  8
0
  6
HIDDEN
 62
     7
370
     0
100
AcDbCircle
 10
132.9398306524
 20
137.2660908402
 30
0.0
 40
0.6000067526677042
100
AcDbArc
 50
348.75
 51
8.0
  0
LWPOLYLINE
  5
FF
330
1F
100
AcDbEntity
  8
0
  6
HIDDEN
 62
     7
370
     0
100
AcDbPolyline
 90
        3
 70
   128
 43
0.0
 10
133.5283084435
 20
137.1490353296
 10
133.4941646105
 20
137.0364781966
 10
133.439837405
 20
136.9344263252
  0
LINE
  5
100
330
1F
100
AcDbEntity
  8
0
  6
HIDDEN
 62
     7
370
     0
100
AcDbLine
 10
133.539837405
 20
88.1252156114
 30
0.0
 11
133.539837405
 21
137.2660908402
 31
0.0
  0
ARC
  5
101
330
1F
100
AcDbEntity
  8
0
  6
HIDDEN
 62
     7
370
     0
100
AcDbCircle
 10
127.1948394066
 20
100.6956532258
 30
0.0
 40
8.000000000000004
100
AcDbArc
 50
277.1325488762
 51
321.3178125465
  0
ARC
  5
102
330
1F
100
AcDbEntity
  8
0
  6
HIDDEN
 62
     7
370
     0
100
AcDbCircle
 10
127.1948394066
 20
124.6956532258
 30
0.0
 40
8.00000000000002
100
AcDbArc
 50
38.6821874535
 51
82.9419580958
  0
ARC
  5
103
330
1F
100
AcDbEntity
  8
0
  6
HIDDEN
 62
     7
370
     0
100
AcDbCircle
 10
116.5222729703
 20
93.2956532258
 30
0.0
 40
0.6000000000000032
100
AcDbArc
 50
210.0
 51
270.0
  0
ARC
  5
104
330
1F
100
AcDbEntity
  8
0
  6
HIDDEN
 62
     7
370
     0
100
AcDbCircle
 10
116.5222729703
 20
132.0956532258
 30
0.0
 40
0.5999999999999943
100
AcDbArc
 50
90.0
 51
150.0
  0
LINE
  5
105
330
1F
100
AcDbEntity
  8
0
  6
HIDDEN
 62
     7
370
     0
100
AcDbLine
 10
116.5222729703
 20
92.6956532258
 30
0.0
 11
120.6929547862
 21
92.6956532258
 31
0.0
  0
LINE
  5
106
330
1F
100
AcDbEntity
  8
0
  6
HIDDEN
 62
     7
370
     0
100
AcDbLine
 10
120.6998095467
 20
132.6956532258
 30
0.0
 11
116.5222729703
 21
132.6956532258
 31
0.0
  0
LINE
  5
107
330
1F
100
AcDbEntity
  8
0
  6
HIDDEN
 62
     7
370
     0
100
AcDbLine
 10
116.0026577281
 20
132.3956532258
 30
0.0
 11
114.4438120013
 21
129.6956532258
 31
0.0
  0
LINE
  5
108
330
1F
100
AcDbEntity
  8
0
  6
HIDDEN
 62
     7
370
     0
100
AcDbLine
 10
114.4438120013
 20
95.6956532258
 30
0.0
 11
116.0026577281
 21
92.9956532258
 31
0.0
  0
LINE
  5
109
330
1F
100
AcDbEntity
  8
0
  6
HIDDEN
 62
     7
370
     0
100
AcDbLine
 10
137.439837405
 20
139.9753194638
 30
0.0
 11
137.439837405
 21
136.6325953864
 31
0.0
  0
LINE
  5
10A
330
1F
100
AcDbEntity
  8
0
  6
HIDDEN
 62
     7
370
     0
100
AcDbLine
 10
145.439837405
 20
136.6325953864
 30
0.0
 11
145.439837405
 21
139.969987085
 31
0.0
  0
ARC
  5
10B
330
1F
100
AcDbEntity
  8
0
  6
HIDDEN
 62
     7
370
     0
100
AcDbCircle
 10
141.889837405
 20
96.9706532258
 30
0.0
 40
1.500000000000004
100
AcDbArc
 50
238.2116693829
 51
0.0
  0
ARC
  5
10C
330
1F
100
AcDbEntity
  8
0
  6
HIDDEN
 62
     7
370
     0
100
AcDbCircle
 10
141.889837405
 20
128.4206532258
 30
0.0
 40
1.5
100
AcDbArc
 50
0.0
 51
121.7883306171
  0
LINE
  5
10D
330
1F
100
AcDbEntity
  8
0
  6
HIDDEN
 62
     7
370
     0
100
AcDbLine
 10
133.439837405
 20
95.6956532258
 30
0.0
 11
141.0996633736
 21
95.6956532258
 31
0.0
  0
LINE
  5
10E
330
1F
100
AcDbEntity
  8
0
  6
HIDDEN
 62
     7
370
     0
100
AcDbLine
 10
141.0996633736
 20
129.6956532258
 30
0.0
 11
133.439837405
 21
129.6956532258
 31
0.0
  0
LINE
  5
10F
330
1F
100
AcDbEntity
  8
0
  6
HIDDEN
 62
     7
370
     0
100
AcDbLine
 10
111.639837405
 20
95.6956532258
 30
0.0
 11
114.4438120013
 21
95.6956532258
 31
0.0
  0
LINE
  5
110
330
1F
100
AcDbEntity
  8
0
  6
HIDDEN
 62
     7
370
     0
100
AcDbLine
 10
114.4438120013
 20
129.6956532258
 30
0.0
 11
107.639837405
 21
129.6956532258
 31
0.0
  0
LINE
  5
111
330
1F
100
AcDbEntity
  8
0
  6
HIDDEN
 62
     7
370
     0
100
AcDbLine
 10
152.239837405
 20
103.1956532258
 30
0.0
 11
155.239837405
 21
103.1956532258
 31
0.0
  0
LINE
  5
112
330
1F
100
AcDbEntity
  8
0
  6
HIDDEN
 62
     7
370
     0
100
AcDbLine
 10
155.239837405
 20
122.1956532258
 30
0.0
 11
152.239837405
 21
122.1956532258
 31
0.0
  0
LINE
  5
113
330
1F
100
AcDbEntity
  8
0
  6
HIDDEN
 62
     7
370
     0
100
AcDbLine
 10
143.389837405
 20
103.6956532258
 30
0.0
 11
143.889837405
 21
104.1956532258
 31
0.0
  0
LINE
  5
114
330
1F
100
AcDbEntity
  8
0
  6
HIDDEN
 62
     7
370
     0
100
AcDbLine
 10
143.889837405
 20
121.1956532258
 30
0.0
 11
143.389837405
 21
121.6956532258
 31
0.0
  0
LINE
  5
115
330
1F
100
AcDbEntity
  8
0
  6
HIDDEN
 62
     7
370
     0
100
AcDbLine
 10
143.889837405
 20
104.1956532258
 30
0.0
 11
152.239837405
 21
104.1956532258
 31
0.0
  0
LINE
  5
116
330
1F
100
AcDbEntity
  8
0
  6
HIDDEN
 62
     7
370
     0
100
AcDbLine
 10
152.239837405
 20
121.1956532258
 30
0.0
 11
143.889837405
 21
121.1956532258
 31
0.0
  0
LINE
  5
117
330
1F
100
AcDbEntity
  8
0
  6
HIDDEN
 62
     7
370
     0
100
AcDbLine
 10
138.389837405
 20
144.1956532258
 30
0.0
 11
138.389837405
 21
139.0956532258
 31
0.0
  0
LINE
  5
118
330
1F
100
AcDbEntity
  8
0
  6
HIDDEN
 62
     7
370
     0
100
AcDbLine
 10
128.6242752355
 20
88.6162818923
 30
0.0
 11
128.189843086
 21
89.0953479114
 31
0.0
  0
LINE
  5
119
330
1F
100
AcDbEntity
  8
0
  6
HIDDEN
 62
     7
370
     0
100
AcDbLine
 10
120.6898397609
 20
89.5170358705
 30
0.0
 11
120.2074060176
 21
89.0379698951
 31
0.0
  0
LINE
  5
11A
330
1F
100
AcDbEntity
  8
0
  6
HIDDEN
 62
     7
370
     0
100
AcDbLine
 10
120.2072840894
 20
136.3533312661
 30
0.0
 11
120.6898348403
 21
135.8742110082
 31
0.0
  0
LINE
  5
11B
330
1F
100
AcDbEntity
  8
0
  6
HIDDEN
 62
     7
370
     0
100
AcDbLine
 10
128.189837287
 20
136.2959087859
 30
0.0
 11
128.6243796774
 21
136.7750290365
 31
0.0
  0
LINE
  5
11C
330
1F
100
AcDbEntity
  8
0
  6
HIDDEN
 62
     7
370
     0
100
AcDbLine
 10
187.439837405
 20
108.4956532258
 30
0.0
 11
188.3110853026
 21
109.9456532258
 31
0.0
  0
LINE
  5
11D
330
1F
100
AcDbEntity
  8
0
  6
HIDDEN
 62
     7
370
     0
100
AcDbLine
 10
188.3110853026
 20
115.4456532258
 30
0.0
 11
187.439837405
 21
116.8956532258
 31
0.0
  0
LINE
  5
11E
330
1F
100
AcDbEntity
  8
0
  6
HIDDEN
 62
     7
370
     0
100
AcDbLine
 10
155.239837405
 20
108.4956532258
 30
0.0
 11
187.439837405
 21
108.4956532258
 31
0.0
  0
LINE
  5
11F
330
1F
100
AcDbEntity
  8
0
  6
HIDDEN
 62
     7
370
     0
100
AcDbLine
 10
187.439837405
 20
116.8956532258
 30
0.0
 11
155.239837405
 21
116.8956532258
 31
0.0
  0
LINE
  5
120
330
1F
100
AcDbEntity
  8
0
  6
HIDDEN
 62
     7
370
     0
100
AcDbLine
 10
128.189837405
 20
132.6327260518
 30
0.0
 11
128.189837405
 21
136.2956174798
 31
0.0
  0
LINE
  5
121
330
1F
100
AcDbEntity
  8
0
  6
HIDDEN
 62
     7
370
     0
100
AcDbLine
 10
120.689837405
 20
135.874067229
 30
0.0
 11
120.689837405
 21
132.6937909802
 31
0.0
  0
LINE
  5
122
330
1F
100
AcDbEntity
  8
0
  6
HIDDEN
 62
     7
370
     0
100
AcDbLine
 10
128.189837405
 20
89.0958318131
 30
0.0
 11
128.189837405
 21
92.7578170352
 31
0.0
  0
LINE
  5
123
330
1F
100
AcDbEntity
  8
0
  6
HIDDEN
 62
     7
370
     0
100
AcDbLine
 10
120.689837405
 20
92.696237487
 30
0.0
 11
120.689837405
 21
89.5173591083
 31
0.0
  0
LINE
  5
124
330
1F
100
AcDbEntity
  8
0
  6
HIDDEN
 62
     7
370
     0
100
AcDbLine
 10
188.3110853026
 20
109.9456532258
 30
0.0
 11
203.6887616313
 21
109.9456532258
 31
0.0
  0
LINE
  5
125
330
1F
100
AcDbEntity
  8
0
  6
HIDDEN
 62
     7
370
     0
100
AcDbLine
 10
203.6887616313
 20
115.4456532258
 30
0.0
 11
188.3110853026
 21
115.4456532258
 31
0.0
  0
LINE
  5
126
330
1F
100
AcDbEntity
  8
0
  6
HIDDEN
 62
     7
370
     0
100
AcDbLine
 10
203.6887616313
 20
109.9456532258
 30
0.0
 11
204.439837405
 21
111.1956532258
 31
0.0
  0
LINE
  5
127
330
1F
100
AcDbEntity
  8
0
  6
HIDDEN
 62
     7
370
     0
100
AcDbLine
 10
204.439837405
 20
114.1956532258
 30
0.0
 11
203.6887616313
 21
115.4456532258
 31
0.0
  0
ARC
  5
128
330
1F
100
AcDbEntity
  8
0
  6
HIDDEN
 62
     7
370
     0
100
AcDbCircle
 10
213.139837405
 20
110.8956532258
 30
0.0
 40
0.2999999999999972
100
AcDbArc
 50
0.0
 51
90.0
  0
ARC
  5
129
330
1F
100
AcDbEntity
  8
0
  6
HIDDEN
 62
     7
370
     0
100
AcDbCircle
 10
213.139837405
 20
114.4956532258
 30
0.0
 40
0.2999999999999972
100
AcDbArc
 50
270.0
 51
0.0
  0
LINE
  5
12A
330
1F
100
AcDbEntity
  8
0
  6
HIDDEN
 62
     7
370
     0
100
AcDbLine
 10
204.439837405
 20
111.1956532258
 30
0.0
 11
213.139837405
 21
111.1956532258
 31
0.0
  0
LINE
  5
12B
330
1F
100
AcDbEntity
  8
0
  6
HIDDEN
 62
     7
370
     0
100
AcDbLine
 10
213.139837405
 20
114.1956532258
 30
0.0
 11
204.439837405
 21
114.1956532258
 31
0.0
  0
DIMENSION
  5
12C
330
1F
100
AcDbEntity
  8
VERMASSUNG
100
AcDbDimension
  2
*D1
 10
218.9218746106
 20
114.1956532258
 30
0.0
 11
218.9218746106
 21
124.050933871
 31
0.0
 70
   160
  1
%%c<> 
 71
     2
 42
-1.0
  3
SLDDIMSTYLE0
100
AcDbAlignedDimension
 13
213.139837405
 23
111.1956532258
 33
0.0
 14
213.139837405
 24
114.1956532258
 34
0.0
 50
90.0
100
AcDbRotatedDimension
  0
DIMENSION
  5
13B
330
1F
100
AcDbEntity
  8
VERMASSUNG
100
AcDbDimension
  2
*D2
 10
224.9218746106
 20
117.6956532258
 30
0.0
 11
224.9218746106
 21
112.6956532258
 31
0.0
 70
   160
  1
%%c<> 
 71
     2
 42
-1.0
  3
SLDDIMSTYLE1
100
AcDbAlignedDimension
 13
213.439837405
 23
107.6956532258
 33
0.0
 14
213.439837405
 24
117.6956532258
 34
0.0
 50
90.0
100
AcDbRotatedDimension
  0
DIMENSION
  5
148
330
1F
100
AcDbEntity
  8
VERMASSUNG
100
AcDbDimension
  2
*D3
 10
213.439837405
 20
142.1956532258
 30
0.0
 11
208.939837405
 21
142.1956532258
 31
0.0
 70
   160
 71
     2
 42
-1.0
  3
SLDDIMSTYLE2
100
AcDbAlignedDimension
 13
204.439837405
 23
112.6956532258
 33
0.0
 14
213.439837405
 24
112.6956532258
 34
0.0
100
AcDbRotatedDimension
  0
DIMENSION
  5
153
330
1F
100
AcDbEntity
  8
VERMASSUNG
100
AcDbDimension
  2
*D4
 10
213.439837405
 20
154.1956532258
 30
0.0
 11
173.439837405
 21
154.1956532258
 31
0.0
 70
   160
 71
     2
 42
-1.0
  3
SLDDIMSTYLE2
100
AcDbAlignedDimension
 13
133.439837405
 23
112.6956532258
 33
0.0
 14
213.439837405
 24
112.6956532258
 34
0.0
100
AcDbRotatedDimension
  0
DIMENSION
  5
15D
330
1F
100
AcDbEntity
  8
VERMASSUNG
100
AcDbDimension
  2
*D5
 10
159.389837405
 20
148.1956532258
 30
0.0
 11
186.414837405
 21
148.1956532258
 31
0.0
 70
   160
 71
     2
 42
-1.0
  3
SLDDIMSTYLE2
100
AcDbAlignedDimension
 13
213.439837405
 23
117.23345798
 33
0.0
 14
159.389837405
 24
142.5420935496
 34
0.0
100
AcDbRotatedDimension
  0
DIMENSION
  5
167
330
1F
100
AcDbEntity
  8
VERMASSUNG
100
AcDbDimension
  2
*D6
 10
213.439837405
 20
160.1956532258
 30
0.0
 11
157.489837405
 21
160.1956532258
 31
0.0
 70
   160
 71
     2
 42
-1.0
  3
SLDDIMSTYLE2
100
AcDbAlignedDimension
 13
101.539837405
 23
132.3863309723
 33
0.0
 14
213.439837405
 24
117.23345798
 34
0.0
100
AcDbRotatedDimension
  0
DIMENSION
  5
171
330
1F
100
AcDbEntity
  8
VERMASSUNG
100
AcDbDimension
  2
*D7
 10
95.8014390352
 20
81.1956532258
 30
0.0
 11
95.8014390352
 21
112.6956532258
 31
0.0
 70
   160
  1
HSK A %%c<>
 71
     2
 42
-1.0
  3
SLDDIMSTYLE2
100
AcDbAlignedDimension
 13
133.739837405
 23
144.1956532258
 33
0.0
 14
133.739837405
 24
81.1956532258
 34
0.0
 50
90.0
100
AcDbRotatedDimension
  0
LINE
  5
17D
330
1F
100
AcDbEntity
  8
0
  6
HIDDEN
 62
     7
370
     0
100
AcDbLine
 10
152.239837405
 20
121.6956532258
 30
0.0
 11
143.389837405
 21
121.6956532258
 31
0.0
  0
LINE
  5
17E
330
1F
100
AcDbEntity
  8
0
  6
HIDDEN
 62
     7
370
     0
100
AcDbLine
 10
143.389837405
 20
103.6956532258
 30
0.0
 11
152.239837405
 21
103.6956532258
 31
0.0
  0
LINE
  5
17F
330
1F
100
AcDbEntity
  8
VERMASSUNG
  6
CENTERX2
370
     0
100
AcDbLine
 10
99.0279435484
 20
112.6956532258
 30
0.0
 11
214.9790669529
 21
112.6956532258
 31
0.0
  0
OLE2FRAME
  5
180
330
1F
100
AcDbEntity
  8
0
100
AcDbOle2Frame
 70
     2
  3
Bitmap Image
 10
13.8511154363
 20
38.264191557
 30
0.0
 11
51.6290888628
 21
31.9806341108
 31
0.0
 71
     2
 72
     0
 73
     1
 90
    12928
310
80552BED0767C5B32B40DDAF6807D121434000000000000000006FFBDDFB85D0
310
4940DDAF6807D121434000000000000000006FFBDDFB85D04940416F4BD60AFB
310
3F4000000000000000002BED0767C5B32B40416F4BD60AFB3F40000000000000
310
0000000000000100000000010000010000000100000000000100000000320000
310
D0CF11E0A1B11AE1000000000000000000000000000000003E000300FEFF0900
310
0600000000000000000000000100000001000000000000000010000002000000
310
01000000FEFFFFFF0000000000000000FFFFFFFFFFFFFFFFFFFFFFFFFFFFFFFF
310
FFFFFFFFFFFFFFFFFFFFFFFFFFFFFFFFFFFFFFFFFFFFFFFFFFFFFFFFFFFFFFFF
310
FFFFFFFFFFFFFFFFFFFFFFFFFFFFFFFFFFFFFFFFFFFFFFFFFFFFFFFFFFFFFFFF
310
FFFFFFFFFFFFFFFFFFFFFFFFFFFFFFFFFFFFFFFFFFFFFFFFFFFFFFFFFFFFFFFF
310
FFFFFFFFFFFFFFFFFFFFFFFFFFFFFFFFFFFFFFFFFFFFFFFFFFFFFFFFFFFFFFFF
310
FFFFFFFFFFFFFFFFFFFFFFFFFFFFFFFFFFFFFFFFFFFFFFFFFFFFFFFFFFFFFFFF
310
FFFFFFFFFFFFFFFFFFFFFFFFFFFFFFFFFFFFFFFFFFFFFFFFFFFFFFFFFFFFFFFF
310
FFFFFFFFFFFFFFFFFFFFFFFFFFFFFFFFFFFFFFFFFFFFFFFFFFFFFFFFFFFFFFFF
310
FFFFFFFFFFFFFFFFFFFFFFFFFFFFFFFFFFFFFFFFFFFFFFFFFFFFFFFFFFFFFFFF
310
FFFFFFFFFFFFFFFFFFFFFFFFFFFFFFFFFFFFFFFFFFFFFFFFFFFFFFFFFFFFFFFF
310
FFFFFFFFFFFFFFFFFFFFFFFFFFFFFFFFFFFFFFFFFFFFFFFFFFFFFFFFFFFFFFFF
310
FFFFFFFFFFFFFFFFFFFFFFFFFFFFFFFFFFFFFFFFFFFFFFFFFFFFFFFFFFFFFFFF
310
FFFFFFFFFFFFFFFFFFFFFFFFFFFFFFFFFFFFFFFFFFFFFFFFFFFFFFFFFFFFFFFF
310
FFFFFFFFFFFFFFFFFFFFFFFFFFFFFFFFFFFFFFFFFFFFFFFFFFFFFFFFFFFFFFFF
310
FDFFFFFFFEFFFFFFFEFFFFFFFEFFFFFF05000000060000000700000008000000
310
090000000A0000000B0000000C0000000D0000000E0000000F00000010000000
310
11000000120000001300000014000000150000001600000017000000FEFFFFFF
310
FFFFFFFFFFFFFFFFFFFFFFFFFFFFFFFFFFFFFFFFFFFFFFFFFFFFFFFFFFFFFFFF
310
FFFFFFFFFFFFFFFFFFFFFFFFFFFFFFFFFFFFFFFFFFFFFFFFFFFFFFFFFFFFFFFF
310
FFFFFFFFFFFFFFFFFFFFFFFFFFFFFFFFFFFFFFFFFFFFFFFFFFFFFFFFFFFFFFFF
310
FFFFFFFFFFFFFFFFFFFFFFFFFFFFFFFFFFFFFFFFFFFFFFFFFFFFFFFFFFFFFFFF
310
FFFFFFFFFFFFFFFFFFFFFFFFFFFFFFFFFFFFFFFFFFFFFFFFFFFFFFFFFFFFFFFF
310
FFFFFFFFFFFFFFFFFFFFFFFFFFFFFFFFFFFFFFFFFFFFFFFFFFFFFFFFFFFFFFFF
310
FFFFFFFFFFFFFFFFFFFFFFFFFFFFFFFFFFFFFFFFFFFFFFFFFFFFFFFFFFFFFFFF
310
FFFFFFFFFFFFFFFFFFFFFFFFFFFFFFFFFFFFFFFFFFFFFFFFFFFFFFFFFFFFFFFF
310
FFFFFFFFFFFFFFFFFFFFFFFFFFFFFFFFFFFFFFFFFFFFFFFFFFFFFFFFFFFFFFFF
310
FFFFFFFFFFFFFFFFFFFFFFFFFFFFFFFFFFFFFFFFFFFFFFFFFFFFFFFFFFFFFFFF
310
FFFFFFFFFFFFFFFFFFFFFFFFFFFFFFFFFFFFFFFFFFFFFFFFFFFFFFFFFFFFFFFF
310
FFFFFFFFFFFFFFFFFFFFFFFFFFFFFFFFFFFFFFFFFFFFFFFFFFFFFFFFFFFFFFFF
310
FFFFFFFFFFFFFFFFFFFFFFFFFFFFFFFFFFFFFFFFFFFFFFFFFFFFFFFFFFFFFFFF
310
52006F006F007400200045006E00740072007900000000000000000000000000
310
0000000000000000000000000000000000000000000000000000000000000000
310
16000500FFFFFFFFFFFFFFFF020000000A00030000000000C000000000000046
310
0000000000000000000000001064EFA743DECB0103000000C000000000000000
310
01004F006C006500000000000000000000000000000000000000000000000000
310
0000000000000000000000000000000000000000000000000000000000000000
310
0A000200FFFFFFFFFFFFFFFFFFFFFFFF00000000000000000000000000000000
310
0000000000000000000000000000000000000000000000001400000000000000
310
010043006F006D0070004F0062006A0000000000000000000000000000000000
310
0000000000000000000000000000000000000000000000000000000000000000
310
120002010100000003000000FFFFFFFF00000000000000000000000000000000
310
0000000000000000000000000000000000000000010000004D00000000000000
310
01004F006C006500310030004E00610074006900760065000000000000000000
310
0000000000000000000000000000000000000000000000000000000000000000
310
1A000200FFFFFFFFFFFFFFFFFFFFFFFF00000000000000000000000000000000
310
0000000000000000000000000000000000000000040000002426000000000000
310
FEFFFFFF02000000FEFFFFFFFFFFFFFFFFFFFFFFFFFFFFFFFFFFFFFFFFFFFFFF
310
FFFFFFFFFFFFFFFFFFFFFFFFFFFFFFFFFFFFFFFFFFFFFFFFFFFFFFFFFFFFFFFF
310
FFFFFFFFFFFFFFFFFFFFFFFFFFFFFFFFFFFFFFFFFFFFFFFFFFFFFFFFFFFFFFFF
310
FFFFFFFFFFFFFFFFFFFFFFFFFFFFFFFFFFFFFFFFFFFFFFFFFFFFFFFFFFFFFFFF
310
FFFFFFFFFFFFFFFFFFFFFFFFFFFFFFFFFFFFFFFFFFFFFFFFFFFFFFFFFFFFFFFF
310
FFFFFFFFFFFFFFFFFFFFFFFFFFFFFFFFFFFFFFFFFFFFFFFFFFFFFFFFFFFFFFFF
310
FFFFFFFFFFFFFFFFFFFFFFFFFFFFFFFFFFFFFFFFFFFFFFFFFFFFFFFFFFFFFFFF
310
FFFFFFFFFFFFFFFFFFFFFFFFFFFFFFFFFFFFFFFFFFFFFFFFFFFFFFFFFFFFFFFF
310
FFFFFFFFFFFFFFFFFFFFFFFFFFFFFFFFFFFFFFFFFFFFFFFFFFFFFFFFFFFFFFFF
310
FFFFFFFFFFFFFFFFFFFFFFFFFFFFFFFFFFFFFFFFFFFFFFFFFFFFFFFFFFFFFFFF
310
FFFFFFFFFFFFFFFFFFFFFFFFFFFFFFFFFFFFFFFFFFFFFFFFFFFFFFFFFFFFFFFF
310
FFFFFFFFFFFFFFFFFFFFFFFFFFFFFFFFFFFFFFFFFFFFFFFFFFFFFFFFFFFFFFFF
310
FFFFFFFFFFFFFFFFFFFFFFFFFFFFFFFFFFFFFFFFFFFFFFFFFFFFFFFFFFFFFFFF
310
FFFFFFFFFFFFFFFFFFFFFFFFFFFFFFFFFFFFFFFFFFFFFFFFFFFFFFFFFFFFFFFF
310
FFFFFFFFFFFFFFFFFFFFFFFFFFFFFFFFFFFFFFFFFFFFFFFFFFFFFFFFFFFFFFFF
310
FFFFFFFFFFFFFFFFFFFFFFFFFFFFFFFFFFFFFFFFFFFFFFFFFFFFFFFFFFFFFFFF
310
0100000200000000000000000000000000000000000000000000000000000000
310
000000000000000038000000410000008C0F800200000000B00F870200000000
310
0100FEFF030A0000FFFFFFFF0A00030000000000C00000000000004607000000
310
5042727573680007000000504272757368000700000050427275736800F439B2
310
7100000000000000000000000000000000000000000000000000C70600000000
310
425D000000000000000000000000000000000000000000003800000041000000
310
8C0F800200000000781035010000000000000000000000000000000000000000
310
0000C70600000000435D00000000000000000000000000000000000000000000
310
38000000410000008C0F80020000000090104D01000000000000000000000000
310
00000000000000000000C706000000003D5D0000000000000000000000000000
310
000000000000000038000000410000008C0F8002000000007010300100000000
310
000000000000000000000000000000000000C706000000003E5D000000000000
310
0000000000000000000000000000000038000000410000008C0F800200000000
310
6E10530100000000000000000000000000000000000000000000C70600000000
310
3F5D000000000000000000000000000000000000000000003800000041000000
310
8C0F800200000000381068010000000000000000000000000000000000000000
310
20260000424D0E260000000000003E00000028000000B40200006E0000000100
310
01000000000000000000130B0000130B00000200000002000000000000FFFFFF
310
FFFFFFFFFFFFFFFFFFFFFFFFFFFFFFFFFFFFFFFFFFFFFFFFFFFFFFFFFFFFFFFF
310
FFFFFFFFFFFFFFFFFFFFFFFFFFFFFFFFFFFFFFFFFFFFFFFFFFFFFFFFFFFFFFFF
310
FFFFFFFFFFFFFFFFFFFFFFFFFFFFFFFFFFFFFFFFFFFFFFFFF000FFFFFFFFFFFF
310
FFFFFFFFFFFFFFFFFFFFFFFFFFFFFFFFFFFFFFFFFFFFFFFFFFFFFFFFFFFFFFFF
310
FFFFFFFFFFFFFFFFFFFFFFFFFFFFFFFFFFFFFFFFFFFFFFFFFFFFFFFFFFFFFFFF
310
FFFFFFFFFFFFFFFFFFFFFFFFFFFFFFFFF000FFFFFFFFFFFFFFFFFFFFFFFFFFFF
310
FFFFFFFFFFFFFFFFFFFFFFFFFFFFFFFFFFFFFFFFFFFFFFFFFFFFFFFFFFFFFFFF
310
FFFFFFFFFFFFFFFFFFFFFFFFFFFFFFFFFFFFFFFFFFFFFFFFFFFFFFFFFFFFFFFF
310
FFFFFFFFFFFFFFFFF000FFFFFFFFFFFFFFFFFFFFFFFFFFFFFFFFFFFFFFFFFFFF
310
FFFFFFFFFFFFFFFFFFFFFFFFFFFFFFFFFFFFFFFFFFFFFFFFFFFFFFFFFFFFFFFF
310
FFFFFFFFFFFFFFFFFFFFFFFFFFFFFFFFFFFFFFFFFFFFFFFFFFFFFFFFFFFFFFFF
310
F000FFFFFFFFFFFFFFFFFFFFFFFFFFFFFFFFFFFFFFFFFFFFFFFFFFFFFFFFFFFF
310
FFFFFFFFFFFFFFFFFFFFFFFFFFFFFFFFFFFFFFFFFFFFFFFFFFFFFFFFFFFFFFFF
310
FFFFFFFFFFFFFFFFFFFFFFFFFFFFFFFFFFFFFFFFFFFFFFFFF000FFFFFFFFFFFF
310
FFFFFFFFFFFFFFFFFFFFFFFFFFFFFFFFFFFFFFFFFFFFFFFFFFFFFFFFFFFFFFFF
310
FFFFFFFFFFFFFFFFFFFFFFFFFFFFFFFFFFFFFFFFFFFFFFFFFFFFFFFFFFFFFFFF
310
FFFFFFFFFFFFFFFFFFFFFFFFFFFFFFFFF000FFFFFFFFFFFFFFFFFFFFFFFFFFFF
310
FFFFFFFFFFFFFFFFFFFFFFFFFFFFFFFFFFFFFFFFFFFFFFFFFFFFFFFFFFFFFFFF
310
FFFFFFFFFFFFFFFFFFFFFFFFFFFFFFFFFFFFFFFFFFFFFFFFFFFFFFFFFFFFFFFF
310
FFFFFFFFFFFFFFFFF000FFFFFFFFFFFFFFFFFFFFFFFFFFFFFFFFFFFFFFFFFFFF
310
FFFFFFFFFFFFFFFFFFFFFFFFFFFFFFFFFFFFFFFFFFFFFFFFFFFFFFFFFFFFFFFF
310
FFFFFFFFFFFFFFFFFFFFFFFFFFFFFFFFFFFFFFFFFFFFFFFFFFFFFFFFFFFFFFFF
310
F000FFFFFFFFFFFFFFFFFFFFFFFFFFFFFFFFFFFFFFFFFFFFFFFFFFFFFFFFFFFF
310
FFFFFFFFFFFFFFFFFFFFFFFFFFFFFFFFFFFFFFFFFFFFFFFFFFFFFFFFFFFFFFFF
310
FFFFFFFFFFFFFFFFFFFFFFFFFFFFFFFFFFFFFFFFFFFFFFFFF000FFFFFFFFFFFF
310
FFFFFFFFFFFFFFFFFFFFFFFFFFFFFFFFFFFFFFFFFFFFFFFFFFFFFFFFFFFFFFFF
310
FFFFFFFFFFFFFFFFFFFFFFFFFFFFFFFFFFFFFFFFFFFFFFFFFFFFFFFFFFFFFFFF
310
FFFFFFFFFFFFFFFFFFFFFFFFFFFFFFFFF000FFFFFFFFFFFFFFFFFFFFFFFFFFFF
310
FFFFFFFFFFFFFFFFFFFFFFFFFFFFFFFFFFFFFFFFFFFFFFFFFFFFFFFFFFFFFFFF
310
FFFFFFFFFFFFFFFFFFFFFFFFFFFFFFFFFFFFFFFFFFFFFFFFFFFFFFFFFFFFFFFF
310
FFFFFFFFFFFFFFFFF000FFFFFFFFFFFFFFFFFFFFFFFFFFFFFFFFFFFFFFFFFFFF
310
FFFFFFFFFFFFFFFFFFFFFFFFFFFFFFFFFFFFFFFFFFFFFFFFFFFFFFFFFFFFFFFF
310
FFFFFFFFFFFFFFFFFFFFFFFFFFFFFFFFFFFFFFFFFFFFFFFFFFFFFFFFFFFFFFFF
310
F000FFFFFFFFFFFFFFFFFFFFFFFFFFFFFFFFFFFFFFFFFFFFFFFFFFFFFFFFFFFF
310
FFFFFFFFFFFFFFFFFFFFFFFFFFFFFFFFFFFFFFFFFFFFFFFFFFFFFFFFFFFFFFFF
310
FFFFFFFFFFFFFFFFFFFFFFFFFFFFFFFFFFFFFFFFFFFFFFFFF000FFFFFFFFFFFF
310
FFFFFFFFFFFFFFFFFFFFFFFFFFFFFFFFFFFFFFFFFFFFFFFFFFFFFFFFFFFFFFFF
310
FFFFFFFFFFFFFFFFFFFFFFFFFFFFFFFFFFFFFFFFFFFFFFFFFFFFFFFFFFFFFFFF
310
FFFFFFFFFFFFFFFFFFFFFFFFFFFFFFFFF000FFFFFFFFFFFFFFFFFFFFFFFFFFFF
310
FFFFFFFFFFFFFFFFFFFFFFFFFFFFFFFFFFFFFFFFFFFFFFFFFFFFFFFFFFFFFFFF
310
FFFFFFFFFFFFFFFFFFFFFFFFFFFFFFFFFFFFFFFFFFFFFFFFFFFFFFFFFFFFFFFF
310
FFFFFFFFFFFFFFFFF000FFFFFFFFFFFFFFFFFFFFFFFFFFFFFFFFFFFFFFFFFFFF
310
FFFFFFFFFFFFFFFFFFFFFFFFFFFFFFFFFFFFFFFFFFFFFFFFFFFFFFFFFFFFFFFF
310
FFFFFFFFFFFFFFFFFFFFFFFFFFFFFFFFFFFFFFFFFFFFFFFFFFFFFFFFFFFFFFFF
310
F000FFFFFFFFFFFFFFFFFFFFFFFFFFFFFFFFFFFFFFFFFFFFFFFFFFFFFFFFFFFF
310
FFFFFFFFFFFFFFFFFFFFFFFFFFFFFFFFFFFFFFFFFFFFFFFFFFFFFFFFFFFFFFFF
310
FFFFFFFFFFFFFFFFFFFFFFFFFFFFFFFFFFFFFFFFFFFFFFFFF000FFFFFFFFFFFF
310
FFFFFFFFFFFFFFFFFFFFFFFFFFFFFFFFFFFFFFFFFFFFFFFFFFFFFFFFFFFFFFFF
310
FFFFFFFFFFFFFFFFFFFFFFFFFFFFFFFFFFFFFFFFFFFFFFFFFFFFFFFFFFFFFFFF
310
FFFFFFFFFFFFFFFFFFFFFFFFFFFFFFFFF000FFFFFFFFFFFFFFFFFFFFFFFFFFFF
310
FFFFFFFFFFFFFFFFFFFFFFFFFFFFFFFFFFFFFFFFFFFFFFFFFFFFFFFFFFFFFFFF
310
FFFFFFFFFFFFFFFFFFFFFFFFFFFFFFFFFFFFFFFFFFFFFFFFFFFFFFFFFFFFFFFF
310
FFFFFFFFFFFFFFFFF000FFFFF80003FFFFFFFFFFFFFFFFFFFFFFFFFFFFFFFFFF
310
FFFFF00007FFFFFFFFFF00007FFFFFF800000000000000007FFFFFFFFFFFFFFF
310
FFFFFFFC001FFFFFFFFFFFFFFC001FFFFFFFFFFFFFFFFFFFFFFFFFFE0007FFFF
310
F000FFFF8000007FFFFFFFF8000FFFFFC0007FFFFF80007FFFFF0000007FFFFF
310
FFF8000007FFFFF800000000000000007FFFFFF0001FFFFFFFFFFFC00001FFFF
310
FFFFFFFFC00001FFFFFFFF000000000003FFFFE000007FFFF000FFFE0000000F
310
FFFFFFF0000FFFFF80007FFFFF80007FFFFC0000001FFFFFFFC0000001FFFFF8
310
00000000000000007FFFFFF0001FFFFFFFFFFE0000003FFFFFFFFFFE0000003F
310
FFFFFF000000000003FFFF0000000FFFF000FFF800000003FFFFFFF00007FFFF
310
80007FFFFF80007FFFF000000007FFFFFF000000003FFFF80000000000000000
310
7FFFFFF0001FFFFFFFFFF80000000FFFFFFFFFF80000000FFFFFFF0000000000
310
03FFFC00000003FFF000FFE000000000FFFFFFF00007FFFF80003FFFFF80007F
310
FFC000000001FFFFFC000000001FFFF800000000000000007FFFFFF0001FFFFF
310
FFFFE000000003FFFFFFFFE000000003FFFFFF000000000003FFF000000000FF
310
F000FF80000000007FFFFFF00007FFFF80003FFFFF80007FFF8000000000FFFF
310
F80000000007FFF800000000000000007FFFFFF0001FFFFFFFFFC000000001FF
310
FFFFFFC000000001FFFFFF000000000003FFC0000000007FF000FF0000000000
310
3FFFFFE00007FFFF00003FFFFF80007FFE00000000003FFFF00000000003FFF8
310
00000000000000007FFFFFF0001FFFFFFFFF8000000000FFFFFFFF8000000000
310
FFFFFF000000000003FF80000000003FF000FE00000000001FFFFFE00003FFFF
310
00003FFFFF80007FFC00000000001FFFE00000000001FFF8000001FFFE000000
310
7FFFFFF0001FFFFFFFFE00000000003FFFFFFE00000000003FFFFF0000000000
310
03FF00000000001FF000FC00000000000FFFFFE00003FFFF00001FFFFF80007F
310
F800000000001FFFC00000000000FFF8000001FFFE0000007FFFFFF0001FFFFF
310
FFFC00000000001FFFFFFC00000000001FFFFF000000000003FE00000000000F
310
F000F8000000000007FFFFE00003FFFF00001FFFFF80007FF800000000000FFF
310
800000000000FFF8000001FFFE0000007FFFFFF0001FFFFFFFF800000000000F
310
FFFFF800000000000FFFFF000000000003FC000000000007F000F80000000000
310
03FFFFC00003FFFE00001FFFFF80007FF0000000000007FF0000000000007FF8
310
000001FFFE0000007FFFFFF0001FFFFFFFF0000000000007FFFFF00000000000
310
07FFFF000000000003F8000000000003F000F0000000000003FFFFC00001FFFE
310
00001FFFFF80007FE0000000000007FE0000000000003FF8000001FFFE000000
310
7FFFFFF0001FFFFFFFF0000000000007FFFFF0000000000007FFFF0000000000
310
03F800001F800003F000E00001FFF00001FFFFC00001FFFE00000FFFFF80007F
310
E00001FFE00003FE00001FFF00003FF8000001FFFE0000007FFFFFF0001FFFFF
310
FFE000003E000003FFFFE000003E000003FFFF000000000003F00001FFF80001
310
F000E00007FFFC0001FFFFC00001FFFE00000FFFFF80007FC0000FFFFC0003FC
310
0000FFFFC0001FF8000001FFFE0000007FFFFFF0001FFFFFFFC00003FFE00001
310
FFFFC00003FFE00001FFFF0001FFFFFFFFF00007FFFE0001F000E0000FFFFF00
310
00FFFF800001FFFC00000FFFFF80007FC0001FFFFE0001FC0001FFFFE0001FF8
310
000001FFFE0000007FFFFFF0001FFFFFFF80000FFFF80000FFFF80000FFFF800
310
00FFFF0003FFFFFFFFE0000FFFFF8000F000C0003FFFFF8000FFFF800000FFFC
310
000007FFFF80007F80003FFFFF0001FC0003FFFFF0001FF8000001FFFE000000
310
7FFFFFF0001FFFFFFF80003FFFFE0000FFFF80003FFFFE0000FFFF0003FFFFFF
310
FFE0003FFFFF8000F000C0003FFFFF8000FFFF800000FFFC000007FFFF80007F
310
80007FFFFF8001F80007FFFFF8000FF8000001FFFE0000007FFFFFF0001FFFFF
310
FF00007FFFFF00007FFF00007FFFFF00007FFF0003FFFFFFFFE0003FFFFFC000
310
F000C0007FFFFFC000FFFF000000FFFC000007FFFF80007F8000FFFFFF8000F8
310
000FFFFFF8000FF8000001FFFE0000007FFFFFF0001FFFFFFF0000FFFFFF8000
310
7FFF0000FFFFFF80007FFF0003FFFFFFFFC0007FFFFFC00070008000FFFFFFC0
310
00FFFF000000FFF8000007FFFF80007F8000FFFFFF8000F8000FFFFFF8000FF8
310
000001FFFE0000007FFFFFF0001FFFFFFE0001FFFFFFC0003FFE0001FFFFFFC0
310
003FFF0003FFFFFFFFC0007FFFFFE00070008000FFFFFFC0007FFF0000007FF8
310
000003FFFF80007F0001FFFFFF8000F8000FFFFFF8000FF8000001FFFE000000
310
7FFFFFF0001FFFFFFE0001FFFFFFC0003FFE0001FFFFFFC0003FFF0003FFFFFF
310
FFC000FFFFFFE00070008000FFFFFFC0007FFF0000007FF8000003FFFF80007F
310
0001FFFFFF8000F8001FFFFFF8000FF8000001FFFE0000007FFFFFF0001FFFFF
310
FE0003FFFFFFE0003FFE0003FFFFFFE0003FFF0003FFFFFFFFC000FFFFFFE000
310
70008000FFFFFFC0007FFE0000007FF8000003FFFF80007F0001FFFFFF8000F0
310
001FFFFFF8000FF8000001FFFE0000007FFFFFF0001FFFFFFC0003FFFFFFE000
310
1FFC0003FFFFFFE0001FFF0003FFFFFFFFC000FFFFFFC00070008000FFFFFF80
310
007FFE0000007FF0000003FFFF80007F0001FFFFFF0000F0001FFFFFF8000FF8
310
000001FFFE0000007FFFFFF0001FFFFFFC0007FFFFFFF0001FFC0007FFFFFFF0
310
001FFF0003FFFFFFFFC000FFFFFFC00070008001FFFFFF0000FFFE0000003FF0
310
000001FFFF80007F0001FFFFFF0000F8001FFFFFF0000FF8000001FFFE000000
310
7FFFFFF0001FFFFFFC0007FFFFFFF0001FFC0007FFFFFFF0001FFF0003FFFFFF
310
FFC001FFFFFF80007000FFFFFFFFFE0000FFFE0008003FF0008001FFFF80007F
310
FFFFFFFFFC0000FFFFFFFFFFE0000FF8000001FFFE0000007FFFFFF0001FFFFF
310
F8000FFFFFFFF8000FF8000FFFFFFFF8000FFF0003FFFFFFFFFFFFFFFFFF0000
310
7000FFFFFFFFFC0000FFFC0008003FF0008001FFFF80007FFFFFFFFFF80001FF
310
FFFFFFFF80000FF8000001FFFE0000007FFFFFF0001FFFFFF8000FFFFFFFF800
310
0FF8000FFFFFFFF8000FFF0003FFFFFFFFFFFFFFFFFE0000F000FFFFFFFFE000
310
00FFFC000C003FE000C001FFFF80007FFFFFFFFFC00001FFFFFFFFFE00001FF8
310
000001FFFE0000007FFFFFF0001FFFFFF8000FFFFFFFF8000FF8000FFFFFFFF8
310
000FFF0003FFFFFFFFFFFFFFFFF00000F000FFFFFFFE000001FFFC000C001FE0
310
00C000FFFF80007FFFFFFFFE000001FFFFFFFFE000001FF80FFFFFFFFFFFFFC0
310
7FFFFFF0001FFFFFF8000FFFFFFFF8000FF8000FFFFFFFF8000FFF0003FFFFFF
310
FFFFFFFFFF800000F000FFFFFFC0000001FFFC001C001FE001C000FFFF80007F
310
FFFFFF80000003FFFFFFF80000001FF80FFFFFFFFFFFFFC07FFFFFF0001FFFFF
310
F8001FFFFFFFFC000FF8001FFFFFFFFC000FFF0003FFFFFFFFFFFFFFF0000001
310
F000FFFFF800000001FFF8001C001FE001C000FFFF80007FFFFFF800000003FF
310
FFFF800000003FF80FFFFFFFFFFFFFC07FFFFFF0001FFFFFF8001FFFFFFFFC00
310
0FF8001FFFFFFFFC000FFF0003FFFFFFFFFFFFFE00000001F000FFFFC0000000
310
03FFF8001E001FC001E000FFFF80007FFFFF8000000007FFFFFC000000003FF8
310
0FFFFFFFFFFFFFC07FFFFFF0001FFFFFF8001FFFFFFFFC000FF8001FFFFFFFFC
310
000FFF0003FFFFFFFFFFFFE000000003F000FFFE0000000007FFF8001E000FC0
310
01E0007FFF80007FFFFE0000000007FFFFE0000000007FF80FFFFFFFFFFFFFC0
310
7FFFFFF0001FFFFFF0001FFFFFFFFC0007F0001FFFFFFFFC0007FF0003FFFFFF
310
FFFFFF0000000003F000FFF80000000007FFF8001E000FC003E0007FFF80007F
310
FFF0000000000FFFFF8000000000FFF80FFFFFFFFFFFFFC07FFFFFF0001FFFFF
310
F0001FFFFFFFFC0007F0001FFFFFFFFC0007FF0003FFFFFFFFFFFC0000000007
310
F000FFE0000000000FFFF0003E000FC003E0007FFF80007FFFC0000000001FFF
310
FE0000000001FFF80FFFFFFFFFFFFFC07FFFFFF0001FFFFFF0001FFFFFFFFC00
310
07F0001FFFFFFFFC0007FF0003FFFFFFFFFFF0000000000FF000FFC000000000
310
1FFFF0003F000F8003F0003FFF80007FFF80000000003FFFF80000000003FFF8
310
0FFFFFFFFFFFFFC07FFFFFF0001FFFFFF0001FFFFFFFFC0007F0001FFFFFFFFC
310
0007FF0003FFFFFFFFFFE0000000001FF000FF00000000007FFFF0003F000780
310
03F0003FFF80007FFF00000000007FFFF00000000007FFF80FFFFFFFFFFFFFC0
310
7FFFFFF0001FFFFFF0001FFFFFFFFC0007F0001FFFFFFFFC0007FF0003FFFFFF
310
FFFF80000000007FF000FE0000000000FFFFE0003F00078007F0003FFF80007F
310
FE0000000001FFFFE0000000001FFFF80FFFFFFFFFFFFFC07FFFFFF0001FFFFF
310
F0001FFFFFFFFC0007F0001FFFFFFFFC0007FF0003FFFFFFFFFF0000000000FF
310
F000FC0000000003FFFFE0007F00078007F0003FFF80007FFC0000000007FFFF
310
C0000000007FFFF80FFFFFFFFFFFFFC07FFFFFF0001FFFFFF8001FFFFFFFFC00
310
0FF8001FFFFFFFFC000FFF0003FFFFFFFFFE0000000003FFF000FC000000000F
310
FFFFE0007F80070007F8001FFF80007FF8000000001FFFFF8000000001FFFFF8
310
0FFFFFFFFFFFFFC07FFFFFF0001FFFFFF8001FFFFFFFFC000FF8001FFFFFFFFC
310
000FFF0003FFFFFFFFFC000000000FFFF000F8000000007FFFFFE0007F800700
310
07F8001FFF80007FF000000000FFFFFF800000000FFFFFF80FFFFFFFFFFFFFC0
310
7FFFFFF0001FFFFFF8000FFFFFFFF8000FF8000FFFFFFFF8000FFF0003FFFFFF
310
FFFC000000007FFFF000F800000007FFFFFFC0007F8003000FF8001FFF80007F
310
F000000007FFFFFF000000007FFFFFF80FFFFFFFFFFFFFC07FFFFFF0001FFFFF
310
F8000FFFFFFFF8000FF8000FFFFFFFF8000FFF0003FFFFFFFFF80000000FFFFF
310
F000F0000000FFFFFFFFC000FF8003000FF8001FFF80007FE0000000FFFFFFFF
310
0000000FFFFFFFF8000001FFFE0000007FFFFFF0001FFFFFF8000FFFFFFFF800
310
0FF8000FFFFFFFF8000FFF0003FFFFFFFFF8000000FFFFFFF000F000000FFFFF
310
FFFFC000FFC002000FF8000FFF80007FE000001FFFFFFFFE000001FFFFFFFFF8
310
000001FFFE0000007FFFFFF0001FFFFFF8000FFFFFFFF8000FF8000FFFFFFFF8
310
000FFF0003FFFFFFFFF000001FFFFFFFF000E00000FFFFFFFFFFC000FFC00200
310
0FFC000FFF80007FE00001FFFFFFFFFE00001FFFFFFFFFF8000001FFFE000000
310
7FFFFFF0001FFFFFFC000FFFFFFFF8001FFC000FFFFFFFF8001FFF0003FFFFFF
310
FFF00001FFFFFFFFF000E00007FFFFFFFFFF8000FFC000001FFC000FFF80007F
310
C0000FFFFFFFFFFE0000FFFFFFFFFFF8000001FFFE0000007FFFFFF0001FFFFF
310
FC0007FFFFFFF0001FFC0007FFFFFFF0001FFF0003FFFFFFFFF00007FFFFFFFF
310
F000E0001FFFFFFFFFFF8000FFC000001FFC000FFF80007FC0003FFFFFFFFFFE
310
0001FFFFFFFFFFF8000001FFFE0000007FFFFFF0001FFFFFFC0007FFFFFFF000
310
1FFC0007FFFFFFF0001FFF0003FFFFFFFFF0001FFFFFFFFFF000E0003FFFFF00
310
03FF8001FFE000001FFC0007FF80007FC0007FFFFF0007FC0003FFFFF0003FF8
310
000001FFFE0000007FFFFFF0001FFFFFFC0003FFFFFFE0001FFC0003FFFFFFE0
310
001FFF0003FFFFFFFFF0003FFFFFFFFFF000E0003FFFFF0001FF8001FFE00000
310
1FFE0007FF80007FC0007FFFFE0003FC0007FFFFE0003FF8000001FFFE000000
310
7FFFFFF0001FFFFFFE0003FFFFFFE0003FFE0003FFFFFFE0003FFF0003FFFFFF
310
FFF0003FFFFF8001F000E0003FFFFF0001FF0001FFE000001FFE0007FF80007F
310
C0007FFFFE0003FC0007FFFFE0003FF8000001FFFE0000007FFFFFF0001FFFFF
310
FE0001FFFFFFC0003FFE0001FFFFFFC0003FFF0003FFFFFFFFF0003FFFFF0001
310
F000E0003FFFFF0003FF0001FFE000003FFE0007FF80007FC0007FFFFE0003FC
310
0007FFFFE0003FF8000001FFFE0000007FFFFFF0001FFFFFFF0001FFFFFFC000
310
7FFF0001FFFFFFC0007FFF0003FFFFFFFFF0003FFFFF0001F000E0003FFFFE00
310
03FF0003FFF000003FFE0003FF80007FC0007FFFFC0003FE0007FFFFE0003FF8
310
000001FFFE0000007FFFFFF0001FFFFFFF0000FFFFFF80007FFF0000FFFFFF80
310
007FFF0003FFFFFFFFF0003FFFFF0001F000E0003FFFFE0003FF0003FFF00000
310
3FFF0003FF80007FC0007FFFFC0007FE0007FFFFC0003FF8000001FFFE000000
310
7FFFFFF0001FFFFFFF80007FFFFF0000FFFF80007FFFFF0000FFFF0003FFFFFF
310
FFF0003FFFFF0003F000E0003FFFFC0003FE0003FFF000003FFF0003FF80007F
310
E0003FFFF80007FE0003FFFFC0007FF8000001FFFE0000007FFFFFF0001FFFFF
310
FF80003FFFFE0000FFFF80003FFFFE0000FFFF0003FFFFFFFFF0001FFFFE0003
310
F000F0001FFFF80003FE0003FFF000007FFF0001FF80007FE0003FFFF00007FE
310
0001FFFF80007FF8000001FFFE0000007FFFFFF0001FFFFFFFC0000FFFF80001
310
FFFFC0000FFFF80001FFFF0003FFFFFFFFF0001FFFFC0003F000F0000FFFF000
310
07FE0007FFF800007FFF0001FF80007FE0001FFFE00007FF0000FFFE00007FF8
310
000001FFFE0000007FFFFFF0001FFFFFFFC00003FFE00001FFFFC00003FFE000
310
01FFFF0003FFFFFFFFF8000FFFF80003F000F00003FFC00007FC0007FFF80000
310
7FFF8001FF80007FF00007FF80000FFF00007FF80000FFF8000001FFFE000000
310
7F80000000000001FFE000003E000003FFFFE000003E000003FFFF0003FFFFFF
310
FFF80003FFE00007F000F800000000000FFC0007FFF800007FFF8001FF80007F
310
F000000000000FFF000000000000FFF8000001FFFE0000007F80000000000001
310
FFF0000000000007FFFFF0000000000007FFFF0003FFFFFFFFFC00007E000007
310
F000F800000000000FFC0007FFF80000FFFF8000FF80007FF800000000001FFF
310
800000000001FFF8000001FFFE0000007F80000000000001FFF800000000000F
310
FFFFF800000000000FFFFF0003FFFFFFFFFC00000000000FF000FC0000000000
310
1FFC0007FFFC0000FFFF8000FF80007FF800000000003FFFC00000000001FFF8
310
000001FFFE0000007F80000000000001FFF800000000000FFFFFF80000000000
310
0FFFFF0003FFFFFFFFFE00000000001FF000FE00000000003FF8000FFFFC0000
310
FFFF8000FF80007FFC00000000003FFFC00000000003FFF8000001FFFE000000
310
7F80000000000001FFFC00000000001FFFFFFC00000000001FFFFF0003FFFFFF
310
FFFF00000000001FF000FF00000000003FF8000FFFFC0000FFFFC000FF80007F
310
FE00000000007FFFE00000000007FFF8000001FFFE0000007F80000000000001
310
FFFE00000000003FFFFFFE00000000003FFFFF0003FFFFFFFFFF80000000003F
310
F000FF80000000007FF8000FFFFC0001FFFFC0007F80007FFF0000000000FFFF
310
F0000000000FFFF800000000000000007F80000000000001FFFF8000000000FF
310
FFFFFF8000000000FFFFFF0003FFFFFFFFFFC0000000007FF000FFC000000000
310
FFF8000FFFFE0001FFFFC0007F80007FFF8000000001FFFFF8000000001FFFF8
310
00000000000000007F80000000000001FFFFC000000001FFFFFFFFC000000001
310
FFFFFF0003FFFFFFFFFFE000000000FFF000FFE000000003FFF0001FFFFE0001
310
FFFFC0007F80007FFFC000000007FFFFFE000000003FFFF80000000000000000
310
7F80000000000001FFFFE000000003FFFFFFFFE000000003FFFFFF0003FFFFFF
310
FFFFF000000003FFF000FFF80000000FFFF0001FFFFE0001FFFFE0007F80007F
310
FFF00000000FFFFFFF00000000FFFFF800000000000000007F80000000000001
310
FFFFF80000000FFFFFFFFFF80000000FFFFFFF0003FFFFFFFFFFFC0000000FFF
310
F000FFFE0000003FFFF0001FFFFE0003FFFFE0003F80007FFFFC0000003FFFFF
310
FFC0000003FFFFF800000000000000007F80000000000001FFFFFE0000003FFF
310
FFFFFFFE0000003FFFFFFF0003FFFFFFFFFFFF0000003FFFF000FFFF800000FF
310
FFF0001FFFFF0003FFFFE0003F80007FFFFF000001FFFFFFFFF800001FFFFFF8
310
00000000000000007F80000000000001FFFFFFC00001FFFFFFFFFFFFC00001FF
310
FFFFFF0003FFFFFFFFFFFFC00000FFFFF000FFFFF8000FFFFFFFFFFFFFFFFFFF
310
FFFFFFFFFFFFFFFFFFFFF0001FFFFFFFFFFF0000FFFFFFF80000000000000000
310
7FFFFFFFFFFFFFFFFFFFFFFC001FFFFFFFFFFFFFFC001FFFFFFFFFFFFFFFFFFF
310
FFFFFFFC001FFFFFF000FFFFFFFFFFFFFFFFFFFFFFFFFFFFFFFFFFFFFFFFFFFF
310
FFFFFFFFFFFFFFFFFFFFFFFFFFFFFFFFFFFFFFFFFFFFFFFFFFFFFFFFFFFFFFFF
310
FFFFFFFFFFFFFFFFFFFFFFFFFFFFFFFFFFFFFFFFFFFFFFFFFFFFFFFFFFFFFFFF
310
F000FFFFFFFFFFFFFFFFFFFFFFFFFFFFFFFFFFFFFFFFFFFFFFFFFFFFFFFFFFFF
310
FFFFFFFFFFFFFFFFFFFFFFFFFFFFFFFFFFFFFFFFFFFFFFFFFFFFFFFFFFFFFFFF
310
FFFFFFFFFFFFFFFFFFFFFFFFFFFFFFFFFFFFFFFFFFFFFFFFF000FFFFFFFFFFFF
310
FFFFFFFFFFFFFFFFFFFFFFFFFFFFFFFFFFFFFFFFFFFFFFFFFFFFFFFFFFFFFFFF
310
FFFFFFFFFFFFFFFFFFFFFFFFFFFFFFFFFFFFFFFFFFFFFFFFFFFFFFFFFFFFFFFF
310
FFFFFFFFFFFFFFFFFFFFFFFFFFFFFFFFF000FFFFFFFFFFFFFFFFFFFFFFFFFFFF
310
FFFFFFFFFFFFFFFFFFFFFFFFFFFFFFFFFFFFFFFFFFFFFFFFFFFFFFFFFFFFFFFF
310
FFFFFFFFFFFFFFFFFFFFFFFFFFFFFFFFFFFFFFFFFFFFFFFFFFFFFFFFFFFFFFFF
310
FFFFFFFFFFFFFFFFF000FFFFFFFFFFFFFFFFFFFFFFFFFFFFFFFFFFFFFFFFFFFF
310
FFFFFFFFFFFFFFFFFFFFFFFFFFFFFFFFFFFFFFFFFFFFFFFFFFFFFFFFFFFFFFFF
310
FFFFFFFFFFFFFFFFFFFFFFFFFFFFFFFFFFFFFFFFFFFFFFFFFFFFFFFFFFFFFFFF
310
F000FFFFFFFFFFFFFFFFFFFFFFFFFFFFFFFFFFFFFFFFFFFFFFFFFFFFFFFFFFFF
310
FFFFFFFFFFFFFFFFFFFFFFFFFFFFFFFFFFFFFFFFFFFFFFFFFFFFFFFFFFFFFFFF
310
FFFFFFFFFFFFFFFFFFFFFFFFFFFFFFFFFFFFFFFFFFFFFFFFF000FFFFFFFFFFFF
310
FFFFFFFFFFFFFFFFFFFFFFFFFFFFFFFFFFFFFFFFFFFFFFFFFFFFFFFFFFFFFFFF
310
FFFFFFFFFFFFFFFFFFFFFFFFFFFFFFFFFFFFFFFFFFFFFFFFFFFFFFFFFFFFFFFF
310
FFFFFFFFFFFFFFFFFFFFFFFFFFFFFFFFF000FFFFFFFFFFFFFFFFFFFFFFFFFFFF
310
FFFFFFFFFFFFFFFFFFFFFFFFFFFFFFFFFFFFFFFFFFFFFFFFFFFFFFFFFFFFFFFF
310
FFFFFFFFFFFFFFFFFFFFFFFFFFFFFFFFFFFFFFFFFFFFFFFFFFFFFFFFFFFFFFFF
310
FFFFFFFFFFFFFFFFF000FFFFFFFFFFFFFFFFFFFFFFFFFFFFFFFFFFFFFFFFFFFF
310
FFFFFFFFFFFFFFFFFFFFFFFFFFFFFFFFFFFFFFFFFFFFFFFFFFFFFFFFFFFFFFFF
310
FFFFFFFFFFFFFFFFFFFFFFFFFFFFFFFFFFFFFFFFFFFFFFFFFFFFFFFFFFFFFFFF
310
F000FFFFFFFFFFFFFFFFFFFFFFFFFFFFFFFFFFFFFFFFFFFFFFFFFFFFFFFFFFFF
310
FFFFFFFFFFFFFFFFFFFFFFFFFFFFFFFFFFFFFFFFFFFFFFFFFFFFFFFFFFFFFFFF
310
FFFFFFFFFFFFFFFFFFFFFFFFFFFFFFFFFFFFFFFFFFFFFFFFF000FFFFFFFFFFFF
310
FFFFFFFFFFFFFFFFFFFFFFFFFFFFFFFFFFFFFFFFFFFFFFFFFFFFFFFFFFFFFFFF
310
FFFFFFFFFFFFFFFFFFFFFFFFFFFFFFFFFFFFFFFFFFFFFFFFFFFFFFFFFFFFFFFF
310
FFFFFFFFFFFFFFFFFFFFFFFFFFFFFFFFF000FFFFFFFFFFFFFFFFFFFFFFFFFFFF
310
FFFFFFFFFFFFFFFFFFFFFFFFFFFFFFFFFFFFFFFFFFFFFFFFFFFFFFFFFFFFFFFF
310
FFFFFFFFFFFFFFFFFFFFFFFFFFFFFFFFFFFFFFFFFFFFFFFFFFFFFFFFFFFFFFFF
310
FFFFFFFFFFFFFFFFF000FFFFFFFFFFFFFFFFFFFFFFFFFFFFFFFFFFFFFFFFFFFF
310
FFFFFFFFFFFFFFFFFFFFFFFFFFFFFFFFFFFFFFFFFFFFFFFFFFFFFFFFFFFFFFFF
310
FFFFFFFFFFFFFFFFFFFFFFFFFFFFFFFFFFFFFFFFFFFFFFFFFFFFFFFFFFFFFFFF
310
F000FFFFFFFFFFFFFFFFFFFFFFFFFFFFFFFFFFFFFFFFFFFFFFFFFFFFFFFFFFFF
310
FFFFFFFFFFFFFFFFFFFFFFFFFFFFFFFFFFFFFFFFFFFFFFFFFFFFFFFFFFFFFFFF
310
FFFFFFFFFFFFFFFFFFFFFFFFFFFFFFFFFFFFFFFFFFFFFFFFF000FFFFFFFFFFFF
310
FFFFFFFFFFFFFFFFFFFFFFFFFFFFFFFFFFFFFFFFFFFFFFFFFFFFFFFFFFFFFFFF
310
FFFFFFFFFFFFFFFFFFFFFFFFFFFFFFFFFFFFFFFFFFFFFFFFFFFFFFFFFFFFFFFF
310
FFFFFFFFFFFFFFFFFFFFFFFFFFFFFFFFF000FFFFFFFFFFFFFFFFFFFFFFFFFFFF
310
FFFFFFFFFFFFFFFFFFFFFFFFFFFFFFFFFFFFFFFFFFFFFFFFFFFFFFFFFFFFFFFF
310
FFFFFFFFFFFFFFFFFFFFFFFFFFFFFFFFFFFFFFFFFFFFFFFFFFFFFFFFFFFFFFFF
310
FFFFFFFFFFFFFFFFF000FFFFFFFFFFFFFFFFFFFFFFFFFFFFFFFFFFFFFFFFFFFF
310
FFFFFFFFFFFFFFFFFFFFFFFFFFFFFFFFFFFFFFFFFFFFFFFFFFFFFFFFFFFFFFFF
310
FFFFFFFFFFFFFFFFFFFFFFFFFFFFFFFFFFFFFFFFFFFFFFFFFFFFFFFFFFFFFFFF
310
F000FFFFFFFFFFFFFFFFFFFFFFFFFFFFFFFFFFFFFFFFFFFFFFFFFFFFFFFFFFFF
310
FFFFFFFFFFFFFFFFFFFFFFFFFFFFFFFFFFFFFFFFFFFFFFFFFFFFFFFFFFFFFFFF
310
FFFFFFFFFFFFFFFFFFFFFFFFFFFFFFFFFFFFFFFFFFFFFFFFF000FFFFFFFFFFFF
310
FFFFFFFFFFFFFFFFFFFFFFFFFFFFFFFFFFFFFFFFFFFFFFFFFFFFFFFFFFFFFFFF
310
FFFFFFFFFFFFFFFFFFFFFFFFFFFFFFFFFFFFFFFFFFFFFFFFFFFFFFFFFFFFFFFF
310
FFFFFFFFFFFFFFFFFFFFFFFFFFFFFFFFF000FFFFFFFFFFFFFFFFFFFFFFFFFFFF
310
FFFFFFFFFFFFFFFFFFFFFFFFFFFFFFFFFFFFFFFFFFFFFFFFFFFFFFFFFFFFFFFF
310
FFFFFFFFFFFFFFFFFFFFFFFFFFFFFFFFFFFFFFFFFFFFFFFFFFFFFFFFFFFFFFFF
310
FFFFFFFFFFFFFFFFF000FFFFFFFFFFFFFFFFFFFFFFFFFFFFFFFFFFFFFFFFFFFF
310
FFFFFFFFFFFFFFFFFFFFFFFFFFFFFFFFFFFFFFFFFFFFFFFFFFFFFFFFFFFFFFFF
310
FFFFFFFFFFFFFFFFFFFFFFFFFFFFFFFFFFFFFFFFFFFFFFFFFFFFFFFFFFFFFFFF
310
F000FFFFFFFFFFFFFFFFFFFFFFFFFFFFFFFFFFFFFFFFFFFFFFFFFFFFFFFFFFFF
310
FFFFFFFFFFFFFFFFFFFFFFFFFFFFFFFFFFFFFFFFFFFFFFFFFFFFFFFFFFFFFFFF
310
FFFFFFFFFFFFFFFFFFFFFFFFFFFFFFFFFFFFFFFFFFFFFFFFF000FFFFFFFFFFFF
310
FFFFFFFFFFFFFFFFFFFFFFFFFFFFFFFFFFFFFFFFFFFFFFFFFFFFFFFFFFFFFFFF
310
FFFFFFFFFFFFFFFFFFFFFFFFFFFFFFFFFFFFFFFFFFFFFFFFFFFFFFFFFFFFFFFF
310
FFFFFFFFFFFFFFFFFFFFFFFFFFFFFFFFF0000000000000000000000000000000
310
00000000E633139F0D3A9A26D7CAA3834E9756570719792BFF12C41FF47E6FD0
310
118DC143FAA94C2D93EB23391E2D03A11CC935E67C7CA905FA23E15C16025568
310
21501C1A15B7D0280E990A2D648A43A9420BA5E210ABD042AC38F42AB4D02B0E
310
C90A2D248B43B5420BD5E210AED042B838B42BB4D02E0EF90A2DE48B43C1420B
310
05E310B1D042C438742CB4D0310E290B2DA48C43CD420B35E310B4B885A07168
310
5ADC42D3C42512B296D479343CCB7C162DD770AE449AF273FEEAA2AF2637B1B5
310
4E533F9204351B238BA275C4D7CB53A91B23225A1B2325A4B5ADB004348D4C68
310
FE2C6B9CF6B75CCA224A8DCE49A2546E9C5AA9EB357650C6CC182B6ABB10B183
310
927948D83216095BC62261CB58246C198B842D6391575EE8D58F0B5BC62261CB
310
58246C198BB4BC90AF6BF5E37C3FB0BC737BB0FC3DB7C7F525BBD14DBD5F6B24
310
6DB5BCADB0D6CF149676D26FEFFA607189F43B29BC7B122F5ED566D02A158EFC
310
75F92B5A6ED991D29597B73AFB17ACB7A49E2EC89B2E28ED74B1D5FBC74399A8
310
D4FDA12D49EC7EF91DA0D4EEDFE535F6A67634D6A91DAC533B58A776B04EED60
310
9DDAC13AB583756A076B664770D2DC3685EBD49EB0CCE856AE537BB23C32B527
310
CBD54BA32BBE57DE3EFC9C93C2D93714DE9E493AE574CF04D63D1358F74C60DD
  1
OLE
  0
ENDSEC
  0
SECTION
  2
OBJECTS
  0
DICTIONARY
  5
C
330
0
100
AcDbDictionary
281
     1
  3
ACAD_GROUP
350
D
  3
ACAD_LAYOUT
350
1A
  3
ACAD_MLEADERSTYLE
350
182
  3
ACAD_MLINESTYLE
350
17
  3
ACAD_PLOTSETTINGS
350
19
  3
ACAD_PLOTSTYLENAME
350
E
  3
ACAD_TABLESTYLE
350
181
  3
ACAD_VISUALSTYLE
350
2A
  3
AcDbVariableDictionary
350
183
  0
DICTIONARY
  5
D
102
{ACAD_REACTORS
330
C
102
}
330
C
100
AcDbDictionary
281
     1
  0
DICTIONARY
  5
1A
102
{ACAD_REACTORS
330
C
102
}
330
C
100
AcDbDictionary
281
     1
  3
Layout1
350
1E
  3
Layout2
350
26
  3
Model
350
22
  0
DICTIONARY
  5
182
102
{ACAD_REACTORS
330
C
102
}
330
C
100
AcDbDictionary
281
     1
  0
DICTIONARY
  5
17
102
{ACAD_REACTORS
330
C
102
}
330
C
100
AcDbDictionary
281
     1
  3
Standard
350
18
  0
DICTIONARY
  5
19
102
{ACAD_REACTORS
330
C
102
}
330
C
100
AcDbDictionary
281
     1
  0
ACDBDICTIONARYWDFLT
  5
E
102
{ACAD_REACTORS
330
C
102
}
330
C
100
AcDbDictionary
281
     1
  3
Normal
350
F
100
AcDbDictionaryWithDefault
340
F
  0
DICTIONARY
  5
181
102
{ACAD_REACTORS
330
C
102
}
330
C
100
AcDbDictionary
281
     1
  0
DICTIONARY
  5
2A
102
{ACAD_REACTORS
330
C
102
}
330
C
100
AcDbDictionary
281
     1
  3
2dWireframe
350
2F
  3
3D Hidden
350
31
  3
3dWireframe
350
30
  3
Basic
350
32
  3
Brighten
350
36
  3
ColorChange
350
3A
  3
Conceptual
350
34
  3
Dim
350
35
  3
Facepattern
350
39
  3
Flat
350
2B
  3
FlatWithEdges
350
2C
  3
Gouraud
350
2D
  3
GouraudWithEdges
350
2E
  3
Linepattern
350
38
  3
Realistic
350
33
  3
Thicken
350
37
  0
DICTIONARY
  5
183
102
{ACAD_REACTORS
330
C
102
}
330
C
100
AcDbDictionary
281
     1
  3
PSOLHEIGHT
350
185
  3
PSOLWIDTH
350
184
  0
LAYOUT
  5
1E
102
{ACAD_REACTORS
330
1A
102
}
330
1A
100
AcDbPlotSettings
  1

  2
none_device
  4

  6

 40
0.0
 41
0.0
 42
0.0
 43
0.0
 44
0.0
 45
0.0
 46
0.0
 47
0.0
 48
0.0
 49
0.0
140
0.0
141
0.0
142
1.0
143
1.0
 70
   688
 72
     0
 73
     0
 74
     5
  7

 75
    16
147
1.0
148
0.0
149
0.0
100
AcDbLayout
  1
Layout1
 70
     1
 71
     1
 10
0.0
 20
0.0
 11
420.0
 21
297.0
 12
0.0
 22
0.0
 32
0.0
 14
1.0000000000E+20
 24
1.0000000000E+20
 34
1.0000000000E+20
 15
-1.0000000000E+20
 25
-1.0000000000E+20
 35
-1.0000000000E+20
146
0.0
 13
0.0
 23
0.0
 33
0.0
 16
1.0
 26
0.0
 36
0.0
 17
0.0
 27
1.0
 37
0.0
 76
     0
330
1B
  0
LAYOUT
  5
26
102
{ACAD_REACTORS
330
1A
102
}
330
1A
100
AcDbPlotSettings
  1

  2
none_device
  4

  6

 40
0.0
 41
0.0
 42
0.0
 43
0.0
 44
0.0
 45
0.0
 46
0.0
 47
0.0
 48
0.0
 49
0.0
140
0.0
141
0.0
142
1.0
143
1.0
 70
   688
 72
     0
 73
     0
 74
     5
  7

 75
    16
147
1.0
148
0.0
149
0.0
100
AcDbLayout
  1
Layout2
 70
     1
 71
     2
 10
0.0
 20
0.0
 11
0.0
 21
0.0
 12
0.0
 22
0.0
 32
0.0
 14
0.0
 24
0.0
 34
0.0
 15
0.0
 25
0.0
 35
0.0
146
0.0
 13
0.0
 23
0.0
 33
0.0
 16
1.0
 26
0.0
 36
0.0
 17
0.0
 27
1.0
 37
0.0
 76
     0
330
23
  0
LAYOUT
  5
22
102
{ACAD_REACTORS
330
1A
102
}
330
1A
100
AcDbPlotSettings
  1

  2
none_device
  4

  6

 40
0.0
 41
0.0
 42
0.0
 43
0.0
 44
0.0
 45
0.0
 46
0.0
 47
0.0
 48
0.0
 49
0.0
140
0.0
141
0.0
142
1.0
143
1.0
 70
  1712
 72
     0
 73
     0
 74
     0
  7

 75
     0
147
1.0
148
0.0
149
0.0
100
AcDbLayout
  1
Model
 70
     1
 71
     0
 10
0.0
 20
0.0
 11
297.0
 21
210.0
 12
0.0
 22
0.0
 32
0.0
 14
0.0
 24
0.0
 34
0.0
 15
297.0
 25
210.0
 35
0.0
146
0.0
 13
0.0
 23
0.0
 33
0.0
 16
1.0
 26
0.0
 36
0.0
 17
0.0
 27
1.0
 37
0.0
 76
     0
330
1F
331
29
  0
MLINESTYLE
  5
18
102
{ACAD_REACTORS
330
17
102
}
330
17
100
AcDbMlineStyle
  2
Standard
 70
     0
  3

 62
   256
 51
90.0
 52
90.0
 71
     2
 49
0.5
 62
   256
  6
BYLAYER
 49
-0.5
 62
   256
  6
BYLAYER
  0
ACDBPLACEHOLDER
  5
F
102
{ACAD_REACTORS
330
E
102
}
330
E
  0
VISUALSTYLE
  5
2F
102
{ACAD_REACTORS
330
2A
102
}
330
2A
100
AcDbVisualStyle
  2
2dWireframe
 70
     4
 71
     0
 72
     2
 73
     0
 90
        0
 40
-0.6
 41
-30.0
 62
     5
 63
     7
 74
     1
 91
        4
 64
     7
 65
   257
 75
     1
175
     1
 42
1.0
 92
        0
 66
   257
 43
1.0
 76
     1
 77
     6
 78
     2
 67
     7
 79
     5
170
     0
171
     0
290
     0
174
     0
 93
        1
 44
0.0
173
     0
291
     0
 45
0.0
1001
ACAD
1000
AcDbSavedByObjectVersion
1070
     0
  0
VISUALSTYLE
  5
31
102
{ACAD_REACTORS
330
2A
102
}
330
2A
100
AcDbVisualStyle
  2
3D Hidden
 70
     6
 71
     1
 72
     2
 73
     2
 90
        0
 40
-0.6
 41
-30.0
 62
     5
 63
     7
 74
     2
 91
        2
 64
     7
 65
   257
 75
     2
175
     1
 42
40.0
 92
        0
 66
   257
 43
1.0
 76
     1
 77
     6
 78
     2
 67
     7
 79
     3
170
     0
171
     0
290
     0
174
     0
 93
        1
 44
0.0
173
     0
291
     0
 45
0.0
1001
ACAD
1000
AcDbSavedByObjectVersion
1070
     0
  0
VISUALSTYLE
  5
30
102
{ACAD_REACTORS
330
2A
102
}
330
2A
100
AcDbVisualStyle
  2
3dWireframe
 70
     5
 71
     0
 72
     2
 73
     0
 90
        0
 40
-0.6
 41
-30.0
 62
     5
 63
     7
 74
     1
 91
        4
 64
     7
 65
   257
 75
     1
175
     1
 42
1.0
 92
        0
 66
   257
 43
1.0
 76
     1
 77
     6
 78
     2
 67
     7
 79
     5
170
     0
171
     0
290
     0
174
     0
 93
        1
 44
0.0
173
     0
291
     0
 45
0.0
1001
ACAD
1000
AcDbSavedByObjectVersion
1070
     0
  0
VISUALSTYLE
  5
32
102
{ACAD_REACTORS
330
2A
102
}
330
2A
100
AcDbVisualStyle
  2
Basic
 70
     7
 71
     1
 72
     0
 73
     1
 90
        0
 40
-0.6
 41
-30.0
 62
     5
 63
     7
 74
     0
 91
        4
 64
     7
 65
   257
 75
     1
175
     1
 42
1.0
 92
        8
 66
     7
 43
1.0
 76
     1
 77
     6
 78
     2
 67
     7
 79
     5
170
     0
171
     0
290
     0
174
     0
 93
        1
 44
0.0
173
     0
291
     1
 45
0.0
1001
ACAD
1000
AcDbSavedByObjectVersion
1070
     0
  0
VISUALSTYLE
  5
36
102
{ACAD_REACTORS
330
2A
102
}
330
2A
100
AcDbVisualStyle
  2
Brighten
 70
    12
 71
     2
 72
     2
 73
     0
 90
        0
 40
-0.6
 41
-30.0
 62
     5
 63
     7
 74
     1
 91
        4
 64
     7
 65
   257
 75
     1
175
     1
 42
1.0
 92
        8
 66
     7
 43
1.0
 76
     1
 77
     6
 78
     2
 67
     7
 79
     5
170
     0
171
     0
290
     0
174
     0
 93
        1
 44
50.0
173
     0
291
     1
 45
0.0
1001
ACAD
1000
AcDbSavedByObjectVersion
1070
     0
  0
VISUALSTYLE
  5
3A
102
{ACAD_REACTORS
330
2A
102
}
330
2A
100
AcDbVisualStyle
  2
ColorChange
 70
    16
 71
     2
 72
     2
 73
     3
 90
        0
 40
-0.6
 41
-30.0
 62
     5
 63
     8
 74
     1
 91
        4
 64
     7
 65
   257
 75
     1
175
     1
 42
1.0
 92
        8
 66
     8
 43
1.0
 76
     1
 77
     6
 78
     2
 67
     7
 79
     5
170
     0
171
     0
290
     0
174
     0
 93
        1
 44
0.0
173
     0
291
     1
 45
0.0
1001
ACAD
1000
AcDbSavedByObjectVersion
1070
     0
  0
VISUALSTYLE
  5
34
102
{ACAD_REACTORS
330
2A
102
}
330
2A
100
AcDbVisualStyle
  2
Conceptual
 70
     9
 71
     3
 72
     2
 73
     0
 90
        0
 40
-0.6
 41
-30.0
 62
     5
 63
     7
 74
     2
 91
        2
 64
     7
 65
   257
 75
     1
175
     1
 42
40.0
 92
        8
 66
     7
 43
1.0
 76
     1
 77
     6
 78
     2
 67
     7
 79
     3
170
     0
171
     0
290
     0
174
     0
 93
        1
 44
0.0
173
     0
291
     0
 45
0.0
1001
ACAD
1000
AcDbSavedByObjectVersion
1070
     0
  0
VISUALSTYLE
  5
35
102
{ACAD_REACTORS
330
2A
102
}
330
2A
100
AcDbVisualStyle
  2
Dim
 70
    11
 71
     2
 72
     2
 73
     0
 90
        0
 40
-0.6
 41
-30.0
 62
     5
 63
     7
 74
     1
 91
        4
 64
     7
 65
   257
 75
     1
175
     1
 42
1.0
 92
        8
 66
     7
 43
1.0
 76
     1
 77
     6
 78
     2
 67
     7
 79
     5
170
     0
171
     0
290
     0
174
     0
 93
        1
 44
-50.0
173
     0
291
     1
 45
0.0
1001
ACAD
1000
AcDbSavedByObjectVersion
1070
     0
  0
VISUALSTYLE
  5
39
102
{ACAD_REACTORS
330
2A
102
}
330
2A
100
AcDbVisualStyle
  2
Facepattern
 70
    15
 71
     2
 72
     2
 73
     0
 90
        0
 40
-0.6
 41
-30.0
 62
     5
 63
     7
 74
     1
 91
        4
 64
     7
 65
   257
 75
     1
175
     1
 42
1.0
 92
        8
 66
     7
 43
1.0
 76
     1
 77
     6
 78
     2
 67
     7
 79
     5
170
     0
171
     0
290
     0
174
     0
 93
        1
 44
0.0
173
     0
291
     1
 45
0.0
1001
ACAD
1000
AcDbSavedByObjectVersion
1070
     0
  0
VISUALSTYLE
  5
2B
102
{ACAD_REACTORS
330
2A
102
}
330
2A
100
AcDbVisualStyle
  2
Flat
 70
     0
 71
     2
 72
     1
 73
     1
 90
        2
 40
-0.6
 41
30.0
 62
     5
 63
     7
 74
     0
 91
        4
 64
     7
 65
   257
 75
     1
175
     1
 42
1.0
 92
        8
 66
     7
 43
1.0
 76
     1
 77
     6
 78
     2
 67
     7
 79
     5
170
     0
171
     0
290
     0
174
     0
 93
       13
 44
0.0
173
     0
291
     1
 45
0.0
1001
ACAD
1000
AcDbSavedByObjectVersion
1070
     0
  0
VISUALSTYLE
  5
2C
102
{ACAD_REACTORS
330
2A
102
}
330
2A
100
AcDbVisualStyle
  2
FlatWithEdges
 70
     1
 71
     2
 72
     1
 73
     1
 90
        2
 40
-0.6
 41
30.0
 62
     5
 63
     7
 74
     1
 91
        4
 64
     7
 65
   257
 75
     1
175
     1
 42
1.0
 92
        0
 66
   257
 43
1.0
 76
     1
 77
     6
 78
     2
 67
     7
 79
     5
170
     0
171
     0
290
     0
174
     0
 93
       13
 44
0.0
173
     0
291
     1
 45
0.0
1001
ACAD
1000
AcDbSavedByObjectVersion
1070
     0
  0
VISUALSTYLE
  5
2D
102
{ACAD_REACTORS
330
2A
102
}
330
2A
100
AcDbVisualStyle
  2
Gouraud
 70
     2
 71
     2
 72
     2
 73
     1
 90
        2
 40
-0.6
 41
30.0
 62
     5
 63
     7
 74
     0
 91
        4
 64
     7
 65
   257
 75
     1
175
     1
 42
1.0
 92
        0
 66
     7
 43
1.0
 76
     1
 77
     6
 78
     2
 67
     7
 79
     5
170
     0
171
     0
290
     0
174
     0
 93
       13
 44
0.0
173
     0
291
     1
 45
0.0
1001
ACAD
1000
AcDbSavedByObjectVersion
1070
     0
  0
VISUALSTYLE
  5
2E
102
{ACAD_REACTORS
330
2A
102
}
330
2A
100
AcDbVisualStyle
  2
GouraudWithEdges
 70
     3
 71
     2
 72
     2
 73
     1
 90
        2
 40
-0.6
 41
30.0
 62
     5
 63
     7
 74
     1
 91
        4
 64
     7
 65
   257
 75
     1
175
     1
 42
1.0
 92
        0
 66
   257
 43
1.0
 76
     1
 77
     6
 78
     2
 67
     7
 79
     5
170
     0
171
     0
290
     0
174
     0
 93
       13
 44
0.0
173
     0
291
     1
 45
0.0
1001
ACAD
1000
AcDbSavedByObjectVersion
1070
     0
  0
VISUALSTYLE
  5
38
102
{ACAD_REACTORS
330
2A
102
}
330
2A
100
AcDbVisualStyle
  2
Linepattern
 70
    14
 71
     2
 72
     2
 73
     0
 90
        0
 40
-0.6
 41
-30.0
 62
     5
 63
     7
 74
     1
 91
        4
 64
     7
 65
   257
 75
     7
175
     7
 42
1.0
 92
        8
 66
     7
 43
1.0
 76
     1
 77
     6
 78
     2
 67
     7
 79
     5
170
     0
171
     0
290
     0
174
     0
 93
        1
 44
0.0
173
     0
291
     1
 45
0.0
1001
ACAD
1000
AcDbSavedByObjectVersion
1070
     0
  0
VISUALSTYLE
  5
33
102
{ACAD_REACTORS
330
2A
102
}
330
2A
100
AcDbVisualStyle
  2
Realistic
 70
     8
 71
     2
 72
     2
 73
     0
 90
        0
 40
-0.6
 41
-30.0
 62
     5
 63
     7
 74
     1
 91
        0
 64
     7
 65
   257
 75
     1
175
     1
 42
1.0
 92
        8
 66
     8
 43
1.0
 76
     1
 77
     6
 78
     2
 67
     7
 79
     5
170
     0
171
     0
290
     0
174
     0
 93
       13
 44
0.0
173
     0
291
     0
 45
0.0
1001
ACAD
1000
AcDbSavedByObjectVersion
1070
     0
  0
VISUALSTYLE
  5
37
102
{ACAD_REACTORS
330
2A
102
}
330
2A
100
AcDbVisualStyle
  2
Thicken
 70
    13
 71
     2
 72
     2
 73
     0
 90
        0
 40
-0.6
 41
-30.0
 62
     5
 63
     7
 74
     1
 91
        4
 64
     7
 65
   257
 75
     1
175
     1
 42
1.0
 92
       12
 66
     7
 43
1.0
 76
     1
 77
     6
 78
     2
 67
     7
 79
     5
170
     0
171
     0
290
     0
174
     0
 93
        1
 44
0.0
173
     0
291
     1
 45
0.0
1001
ACAD
1000
AcDbSavedByObjectVersion
1070
     0
  0
DICTIONARYVAR
  5
185
102
{ACAD_REACTORS
330
183
102
}
330
183
100
DictionaryVariables
280
     0
  1
80.000000
  0
DICTIONARYVAR
  5
184
102
{ACAD_REACTORS
330
183
102
}
330
183
100
DictionaryVariables
280
     0
  1
5.000000
  0
ENDSEC
  0
EOF
