  0
SECTION
  2
HEADER
  9
$ACADVER
  1
AC1015
  9
$ACADMAINTVER
 70
     6
  9
$DWGCODEPAGE
  3
ANSI_1252
  9
$INSBASE
 10
0.0
 20
0.0
 30
0.0
  9
$EXTMIN
 10
0.0
 20
0.0
 30
0.0
  9
$EXTMAX
 10
297.0
 20
210.0
 30
0.0
  9
$LIMMIN
 10
0.0
 20
0.0
  9
$LIMMAX
 10
297.0
 20
210.0
  9
$ORTHOMODE
 70
     0
  9
$REGENMODE
 70
     1
  9
$FILLMODE
 70
     1
  9
$QTEXTMODE
 70
     0
  9
$MIRRTEXT
 70
     1
  9
$LTSCALE
 40
1.0
  9
$ATTMODE
 70
     1
  9
$TEXTSIZE
 40
2.0
  9
$TRACEWID
 40
1.0
  9
$TEXTSTYLE
  7
Standard
  9
$CLAYER
  8
0
  9
$CELTYPE
  6
ByLayer
  9
$CECOLOR
 62
   256
  9
$CELTSCALE
 40
1.0
  9
$DISPSILH
 70
     0
  9
$DIMSCALE
 40
1.0
  9
$DIMASZ
 40
3.0
  9
$DIMEXO
 40
0.0
  9
$DIMDLI
 40
3.75
  9
$DIMRND
 40
0.0
  9
$DIMDLE
 40
0.0
  9
$DIMEXE
 40
1.0
  9
$DIMTP
 40
0.0
  9
$DIMTM
 40
0.0
  9
$DIMTXT
 40
2.0
  9
$DIMCEN
 40
2.5
  9
$DIMTSZ
 40
0.0
  9
$DIMTOL
 70
     0
  9
$DIMLIM
 70
     0
  9
$DIMTIH
 70
     1
  9
$DIMTOH
 70
     1
  9
$DIMSE1
 70
     0
  9
$DIMSE2
 70
     0
  9
$DIMTAD
 70
     1
  9
$DIMZIN
 70
     0
  9
$DIMBLK
  1

  9
$DIMASO
 70
     1
  9
$DIMSHO
 70
     1
  9
$DIMPOST
  1

  9
$DIMAPOST
  1

  9
$DIMALT
 70
     0
  9
$DIMALTD
 70
     3
  9
$DIMALTF
 40
0.0393700787
  9
$DIMLFAC
 40
1.0
  9
$DIMTOFL
 70
     1
  9
$DIMTVP
 40
0.0
  9
$DIMTIX
 70
     0
  9
$DIMSOXD
 70
     0
  9
$DIMSAH
 70
     0
  9
$DIMBLK1
  1

  9
$DIMBLK2
  1

  9
$DIMSTYLE
  2
ISO-25
  9
$DIMCLRD
 70
     0
  9
$DIMCLRE
 70
     0
  9
$DIMCLRT
 70
     0
  9
$DIMTFAC
 40
1.0
  9
$DIMGAP
 40
1.524
  9
$DIMJUST
 70
     0
  9
$DIMSD1
 70
     0
  9
$DIMSD2
 70
     0
  9
$DIMTOLJ
 70
     0
  9
$DIMTZIN
 70
     0
  9
$DIMALTZ
 70
     0
  9
$DIMALTTZ
 70
     0
  9
$DIMUPT
 70
     0
  9
$DIMDEC
 70
     2
  9
$DIMTDEC
 70
     3
  9
$DIMALTU
 70
     2
  9
$DIMALTTD
 70
     3
  9
$DIMTXSTY
  7
Standard
  9
$DIMAUNIT
 70
     0
  9
$DIMADEC
 70
     2
  9
$DIMALTRND
 40
0.0
  9
$DIMAZIN
 70
     0
  9
$DIMDSEP
 70
    44
  9
$DIMATFIT
 70
     3
  9
$DIMFRAC
 70
     0
  9
$DIMLDRBLK
  1

  9
$DIMLUNIT
 70
     2
  9
$DIMLWD
 70
    -2
  9
$DIMLWE
 70
    -2
  9
$DIMTMOVE
 70
     0
  9
$LUNITS
 70
     2
  9
$LUPREC
 70
     2
  9
$SKETCHINC
 40
1.0
  9
$FILLETRAD
 40
10.0
  9
$AUNITS
 70
     0
  9
$AUPREC
 70
     2
  9
$MENU
  1
.
  9
$ELEVATION
 40
0.0
  9
$PELEVATION
 40
0.0
  9
$THICKNESS
 40
0.0
  9
$LIMCHECK
 70
     0
  9
$CHAMFERA
 40
10.0
  9
$CHAMFERB
 40
10.0
  9
$CHAMFERC
 40
20.0
  9
$CHAMFERD
 40
0.0
  9
$SKPOLY
 70
     0
  9
$TDCREATE
 40
2456043.690676898
  9
$TDUCREATE
 40
2456043.607343565
  9
$TDUPDATE
 40
2456043.690678519
  9
$TDUUPDATE
 40
2456043.607345185
  9
$TDINDWG
 40
0.0000000116
  9
$TDUSRTIMER
 40
0.0000000116
  9
$USRTIMER
 70
     1
  9
$ANGBASE
 50
0.0
  9
$ANGDIR
 70
     0
  9
$PDMODE
 70
     0
  9
$PDSIZE
 40
-1.0
  9
$PLINEWID
 40
0.0
  9
$SPLFRAME
 70
     0
  9
$SPLINETYPE
 70
     6
  9
$SPLINESEGS
 70
     8
  9
$HANDSEED
  5
2E8
  9
$SURFTAB1
 70
     6
  9
$SURFTAB2
 70
     6
  9
$SURFTYPE
 70
     6
  9
$SURFU
 70
     6
  9
$SURFV
 70
     6
  9
$UCSBASE
  2

  9
$UCSNAME
  2

  9
$UCSORG
 10
0.0
 20
0.0
 30
0.0
  9
$UCSXDIR
 10
1.0
 20
0.0
 30
0.0
  9
$UCSYDIR
 10
0.0
 20
1.0
 30
0.0
  9
$UCSORTHOREF
  2

  9
$UCSORTHOVIEW
 70
     0
  9
$UCSORGTOP
 10
0.0
 20
0.0
 30
0.0
  9
$UCSORGBOTTOM
 10
0.0
 20
0.0
 30
0.0
  9
$UCSORGLEFT
 10
0.0
 20
0.0
 30
0.0
  9
$UCSORGRIGHT
 10
0.0
 20
0.0
 30
0.0
  9
$UCSORGFRONT
 10
0.0
 20
0.0
 30
0.0
  9
$UCSORGBACK
 10
0.0
 20
0.0
 30
0.0
  9
$PUCSBASE
  2

  9
$PUCSNAME
  2

  9
$PUCSORG
 10
0.0
 20
0.0
 30
0.0
  9
$PUCSXDIR
 10
1.0
 20
0.0
 30
0.0
  9
$PUCSYDIR
 10
0.0
 20
1.0
 30
0.0
  9
$PUCSORTHOREF
  2

  9
$PUCSORTHOVIEW
 70
     0
  9
$PUCSORGTOP
 10
0.0
 20
0.0
 30
0.0
  9
$PUCSORGBOTTOM
 10
0.0
 20
0.0
 30
0.0
  9
$PUCSORGLEFT
 10
0.0
 20
0.0
 30
0.0
  9
$PUCSORGRIGHT
 10
0.0
 20
0.0
 30
0.0
  9
$PUCSORGFRONT
 10
0.0
 20
0.0
 30
0.0
  9
$PUCSORGBACK
 10
0.0
 20
0.0
 30
0.0
  9
$USERI1
 70
     0
  9
$USERI2
 70
     0
  9
$USERI3
 70
     0
  9
$USERI4
 70
     0
  9
$USERI5
 70
     0
  9
$USERR1
 40
0.0
  9
$USERR2
 40
0.0
  9
$USERR3
 40
0.0
  9
$USERR4
 40
0.0
  9
$USERR5
 40
0.0
  9
$WORLDVIEW
 70
     1
  9
$SHADEDGE
 70
     3
  9
$SHADEDIF
 70
    70
  9
$TILEMODE
 70
     1
  9
$MAXACTVP
 70
    64
  9
$PINSBASE
 10
0.0
 20
0.0
 30
0.0
  9
$PLIMCHECK
 70
     0
  9
$PEXTMIN
 10
1.0000000000E+20
 20
1.0000000000E+20
 30
1.0000000000E+20
  9
$PEXTMAX
 10
-1.0000000000E+20
 20
-1.0000000000E+20
 30
-1.0000000000E+20
  9
$PLIMMIN
 10
0.0
 20
0.0
  9
$PLIMMAX
 10
420.0
 20
297.0
  9
$UNITMODE
 70
     0
  9
$VISRETAIN
 70
     1
  9
$PLINEGEN
 70
     0
  9
$PSLTSCALE
 70
     1
  9
$TREEDEPTH
 70
  3020
  9
$CMLSTYLE
  2
Standard
  9
$CMLJUST
 70
     0
  9
$CMLSCALE
 40
20.0
  9
$PROXYGRAPHICS
 70
     1
  9
$MEASUREMENT
 70
     1
  9
$CELWEIGHT
370
    -1
  9
$ENDCAPS
280
     0
  9
$JOINSTYLE
280
     0
  9
$LWDISPLAY
290
     1
  9
$INSUNITS
 70
     4
  9
$HYPERLINKBASE
  1

  9
$STYLESHEET
  1

  9
$XEDIT
290
     1
  9
$CEPSNTYPE
380
     0
  9
$PSTYLEMODE
290
     1
  9
$FINGERPRINTGUID
  2
{9866BDDE-89BB-4B90-861A-9C03C59D60CE}
  9
$VERSIONGUID
  2
{FAEB1C32-E019-11D5-929B-00C0DF256EC4}
  9
$EXTNAMES
290
     1
  9
$PSVPSCALE
 40
0.0
  9
$OLESTARTUP
290
     0
  0
ENDSEC
  0
SECTION
  2
CLASSES
  0
CLASS
  1
ACDBDICTIONARYWDFLT
  2
AcDbDictionaryWithDefault
  3
ObjectDBX Classes
 90
        0
280
     0
281
     0
  0
CLASS
  1
VISUALSTYLE
  2
AcDbVisualStyle
  3
ObjectDBX Classes
 90
     4095
280
     0
281
     0
  0
CLASS
  1
MATERIAL
  2
AcDbMaterial
  3
ObjectDBX Classes
 90
     1153
280
     0
281
     0
  0
CLASS
  1
ACDBPLACEHOLDER
  2
AcDbPlaceHolder
  3
ObjectDBX Classes
 90
        0
280
     0
281
     0
  0
CLASS
  1
LAYOUT
  2
AcDbLayout
  3
ObjectDBX Classes
 90
        0
280
     0
281
     0
  0
ENDSEC
  0
SECTION
  2
TABLES
  0
TABLE
  2
VPORT
  5
8
330
0
100
AcDbSymbolTable
 70
     1
  0
VPORT
  5
29
330
8
100
AcDbSymbolTableRecord
100
AcDbViewportTableRecord
  2
*Active
 70
     0
 10
0.0
 20
0.0
 11
1.0
 21
1.0
 12
148.5
 22
105.0
 13
0.0
 23
0.0
 14
10.0
 24
10.0
 15
10.0
 25
10.0
 16
0.0
 26
0.0
 36
1.0
 17
0.0
 27
0.0
 37
0.0
 40
210.0
 41
1.4142857143
 42
50.0
 43
0.0
 44
0.0
 50
0.0
 51
0.0
 71
     0
 72
  2000
 73
     1
 74
     3
 75
     0
 76
     0
 77
     0
 78
     0
281
     0
 65
     1
110
0.0
120
0.0
130
0.0
111
1.0
121
0.0
131
0.0
112
0.0
122
1.0
132
0.0
 79
     0
146
0.0
  0
ENDTAB
  0
TABLE
  2
LTYPE
  5
5
330
0
100
AcDbSymbolTable
 70
     6
  0
LTYPE
  5
14
330
5
100
AcDbSymbolTableRecord
100
AcDbLinetypeTableRecord
  2
ByBlock
 70
     0
  3

 72
    65
 73
     0
 40
0.0
  0
LTYPE
  5
15
330
5
100
AcDbSymbolTableRecord
100
AcDbLinetypeTableRecord
  2
ByLayer
 70
     0
  3

 72
    65
 73
     0
 40
0.0
  0
LTYPE
  5
16
330
5
100
AcDbSymbolTableRecord
100
AcDbLinetypeTableRecord
  2
Continuous
 70
     0
  3
Solid line
 72
    65
 73
     0
 40
0.0
  0
LTYPE
  5
3F
330
5
100
AcDbSymbolTableRecord
100
AcDbLinetypeTableRecord
  2
HIDDEN
 70
     0
  3
Hidden __ __ __ __ __ __ __ __ __ __ __ __ __ __
 72
    65
 73
     2
 40
1.905
 49
1.27
 74
     0
 49
-0.635
 74
     0
  0
LTYPE
  5
40
330
5
100
AcDbSymbolTableRecord
100
AcDbLinetypeTableRecord
  2
PHANTOM
 70
     0
  3
Phantom ______  __  __  ______  __  __  ______
 72
    65
 73
     6
 40
12.7
 49
6.35
 74
     0
 49
-1.27
 74
     0
 49
1.27
 74
     0
 49
-1.27
 74
     0
 49
1.27
 74
     0
 49
-1.27
 74
     0
  0
LTYPE
  5
41
330
5
100
AcDbSymbolTableRecord
100
AcDbLinetypeTableRecord
  2
CENTER
 70
     0
  3
Center ____ _ ____ _ ____ _ ____ _ ____ _ ____
 72
    65
 73
     4
 40
10.16
 49
6.35
 74
     0
 49
-1.27
 74
     0
 49
1.27
 74
     0
 49
-1.27
 74
     0
  0
LTYPE
  5
42
330
5
100
AcDbSymbolTableRecord
100
AcDbLinetypeTableRecord
  2
CENTERX2
 70
     0
  3
Center (2x) ________  __  ________  __  _____
 72
    65
 73
     4
 40
20.32
 49
12.7
 74
     0
 49
-2.54
 74
     0
 49
2.54
 74
     0
 49
-2.54
 74
     0
  0
LTYPE
  5
43
330
5
100
AcDbSymbolTableRecord
100
AcDbLinetypeTableRecord
  2
DOT2
 70
     0
  3
Dot (.5x) ........................................
 72
    65
 73
     2
 40
0.635
 49
0.0
 74
     0
 49
-0.635
 74
     0
  0
ENDTAB
  0
TABLE
  2
LAYER
  5
2
330
0
100
AcDbSymbolTable
 70
     5
  0
LAYER
  5
10
330
2
100
AcDbSymbolTableRecord
100
AcDbLayerTableRecord
  2
0
 70
     0
 62
     7
  6
Continuous
370
    -3
390
F
  0
LAYER
  5
44
330
2
100
AcDbSymbolTableRecord
100
AcDbLayerTableRecord
  2
FORMAT
 70
     0
 62
     7
  6
Continuous
370
    -3
390
F
  0
LAYER
  5
45
330
2
100
AcDbSymbolTableRecord
100
AcDbLayerTableRecord
  2
VERMASSUNG
 70
     0
 62
     7
  6
Continuous
370
    -3
390
F
  0
LAYER
  5
46
330
2
100
AcDbSymbolTableRecord
100
AcDbLayerTableRecord
  2
KOPF_DÜNN
 70
     0
 62
     7
  6
Continuous
370
    -3
390
F
  0
LAYER
  5
47
330
2
100
AcDbSymbolTableRecord
100
AcDbLayerTableRecord
  2
KOPF_DICK
 70
     0
 62
     7
  6
Continuous
370
    15
390
F
  0
ENDTAB
  0
TABLE
  2
STYLE
  5
3
330
0
100
AcDbSymbolTable
 70
     3
  0
STYLE
  5
11
330
3
100
AcDbSymbolTableRecord
100
AcDbTextStyleTableRecord
  2
Standard
 70
     0
 40
0.0
 41
1.0
 50
0.0
 71
     0
 42
2.0
  3
txt
  4

  0
STYLE
  5
48
330
3
100
AcDbSymbolTableRecord
100
AcDbTextStyleTableRecord
  2
SLDTEXTSTYLE0
 70
     0
 40
0.0
 41
0.7
 50
0.0
 71
     0
 42
0.2
  3
TXT
  4

  0
STYLE
  5
4C
330
3
100
AcDbSymbolTableRecord
100
AcDbTextStyleTableRecord
  2
SLDTEXTSTYLE1
 70
     0
 40
0.0
 41
0.6526315789
 50
0.0
 71
     0
 42
0.2
  3
TXT
  4

  0
ENDTAB
  0
TABLE
  2
VIEW
  5
6
330
0
100
AcDbSymbolTable
 70
     0
  0
ENDTAB
  0
TABLE
  2
UCS
  5
7
330
0
100
AcDbSymbolTable
 70
     0
  0
ENDTAB
  0
TABLE
  2
APPID
  5
9
330
0
100
AcDbSymbolTable
 70
     1
  0
APPID
  5
12
330
9
100
AcDbSymbolTableRecord
100
AcDbRegAppTableRecord
  2
ACAD
 70
     0
  0
ENDTAB
  0
TABLE
  2
DIMSTYLE
  5
A
330
0
100
AcDbSymbolTable
 70
     3
100
AcDbDimStyleTable
  0
DIMSTYLE
105
27
330
A
100
AcDbSymbolTableRecord
100
AcDbDimStyleTableRecord
  2
ISO-25
 70
     0
 41
2.5
 42
0.625
 43
3.75
 44
1.25
 73
     0
 74
     0
 77
     1
 78
     8
140
2.5
141
2.5
143
0.0393700787
147
0.625
171
     3
172
     1
178
     0
271
     2
272
     2
274
     3
278
    44
283
     0
284
     8
340
11
  0
DIMSTYLE
105
229
102
{ACAD_REACTORS
330
228
330
235
330
23F
330
249
330
2D0
102
}
330
A
100
AcDbSymbolTableRecord
100
AcDbDimStyleTableRecord
  2
SLDDIMSTYLE0
 70
     0
 41
3.0
 44
0.0
 45
0.000000001
 73
     0
 74
     0
 77
     1
 78
    12
 79
     3
140
2.0
147
0.5
173
     1
178
     0
271
     2
272
     3
276
     2
284
    12
340
48
  0
DIMSTYLE
105
254
102
{ACAD_REACTORS
330
253
102
}
330
A
100
AcDbSymbolTableRecord
100
AcDbDimStyleTableRecord
  2
SLDDIMSTYLE1
 70
     0
 41
3.0
 44
0.0
 73
     0
 74
     0
 77
     1
 78
    12
 79
     3
140
2.0
147
0.5
173
     1
178
     0
272
     3
276
     2
284
    12
340
48
  0
ENDTAB
  0
TABLE
  2
BLOCK_RECORD
  5
1
330
0
100
AcDbSymbolTable
 70
     8
  0
BLOCK_RECORD
  5
1F
330
1
100
AcDbSymbolTableRecord
100
AcDbBlockTableRecord
  2
*Model_Space
340
22
  0
BLOCK_RECORD
  5
1B
330
1
100
AcDbSymbolTableRecord
100
AcDbBlockTableRecord
  2
*Paper_Space
340
1E
  0
BLOCK_RECORD
  5
23
330
1
100
AcDbSymbolTableRecord
100
AcDbBlockTableRecord
  2
*Paper_Space0
340
26
  0
BLOCK_RECORD
  5
22A
330
1
100
AcDbSymbolTableRecord
100
AcDbBlockTableRecord
  2
_D
340
0
  0
BLOCK_RECORD
  5
236
330
1
100
AcDbSymbolTableRecord
100
AcDbBlockTableRecord
  2
_D_1
340
0
  0
BLOCK_RECORD
  5
240
330
1
100
AcDbSymbolTableRecord
100
AcDbBlockTableRecord
  2
_D_2
340
0
  0
BLOCK_RECORD
  5
24A
330
1
100
AcDbSymbolTableRecord
100
AcDbBlockTableRecord
  2
_D_3
340
0
  0
BLOCK_RECORD
  5
255
330
1
100
AcDbSymbolTableRecord
100
AcDbBlockTableRecord
  2
_D_4
340
0
  0
BLOCK_RECORD
  5
2D1
330
1
100
AcDbSymbolTableRecord
100
AcDbBlockTableRecord
  2
_D_5
340
0
  0
BLOCK_RECORD
  5
2DB
330
1
100
AcDbSymbolTableRecord
100
AcDbBlockTableRecord
  2
SW_CENTERMARKSYMBOL_0
340
0
102
{BLKREFS
331
2E6
102
}
  0
ENDTAB
  0
ENDSEC
  0
SECTION
  2
BLOCKS
  0
BLOCK
  5
20
330
1F
100
AcDbEntity
  8
0
100
AcDbBlockBegin
  2
*Model_Space
 70
     0
 10
0.0
 20
0.0
 30
0.0
  3
*Model_Space
  1

  0
ENDBLK
  5
21
330
1F
100
AcDbEntity
  8
0
100
AcDbBlockEnd
  0
BLOCK
  5
1C
330
1B
100
AcDbEntity
 67
     1
  8
0
100
AcDbBlockBegin
  2
*Paper_Space
 70
     0
 10
0.0
 20
0.0
 30
0.0
  3
*Paper_Space
  1

  0
ENDBLK
  5
1D
330
1B
100
AcDbEntity
 67
     1
  8
0
100
AcDbBlockEnd
  0
BLOCK
  5
24
330
23
100
AcDbEntity
  8
0
100
AcDbBlockBegin
  2
*Paper_Space0
 70
     0
 10
0.0
 20
0.0
 30
0.0
  3
*Paper_Space0
  1

  0
ENDBLK
  5
25
330
23
100
AcDbEntity
  8
0
100
AcDbBlockEnd
  0
BLOCK
  5
22B
330
22A
100
AcDbEntity
  8
0
100
AcDbBlockBegin
  2
_D
 70
     0
 10
0.0
 20
0.0
 30
0.0
  3
_D
  1

  0
SOLID
  5
22D
330
22A
100
AcDbEntity
  8
VERMASSUNG
100
AcDbTrace
 10
155.2524719923
 20
140.8517143966
 30
0.0
 11
154.8024719923
 21
137.8517143966
 31
0.0
 12
155.7024719923
 22
137.8517143966
 32
0.0
 13
155.7024719923
 23
137.8517143966
 33
0.0
  0
SOLID
  5
22E
330
22A
100
AcDbEntity
  8
VERMASSUNG
100
AcDbTrace
 10
155.2524719923
 20
77.8517143966
 30
0.0
 11
155.7024719923
 21
80.8517143966
 31
0.0
 12
154.8024719923
 22
80.8517143966
 32
0.0
 13
154.8024719923
 23
80.8517143966
 33
0.0
  0
LINE
  5
22F
330
22A
100
AcDbEntity
  8
VERMASSUNG
100
AcDbLine
 10
193.2146893193
 20
140.8517143966
 30
0.0
 11
154.2524719923
 21
140.8517143966
 31
0.0
  0
LINE
  5
230
330
22A
100
AcDbEntity
  8
VERMASSUNG
100
AcDbLine
 10
193.2146893193
 20
77.8517143966
 30
0.0
 11
154.2524719923
 21
77.8517143966
 31
0.0
  0
LINE
  5
231
330
22A
100
AcDbEntity
  8
VERMASSUNG
100
AcDbLine
 10
155.2524719923
 20
140.8517143966
 30
0.0
 11
155.2524719923
 21
77.8517143966
 31
0.0
  0
MTEXT
  5
232
330
22A
100
AcDbEntity
  8
VERMASSUNG
100
AcDbMText
 10
152.4743365033
 20
103.1484892322
 30
0.0
 40
2.0
 41
0.0
 71
     1
 72
     1
  1
HSK
  7
SLDTEXTSTYLE0
 11
-7.044195017643634E-15
 21
1.0
 31
0.0
 73
     1
 44
1.0
  0
MTEXT
  5
233
330
22A
100
AcDbEntity
  8
VERMASSUNG
100
AcDbMText
 10
152.6743365128
 20
109.1484892844
 30
0.0
 40
2.0
 41
0.0
 71
     1
 72
     1
  1
%%c
  7
SLDTEXTSTYLE0
 11
-7.044195017643634E-15
 21
1.0
 31
0.0
 73
     1
 44
1.0
  0
MTEXT
  5
234
330
22A
100
AcDbEntity
  8
VERMASSUNG
100
AcDbMText
 10
152.6743366292
 20
112.7565339487
 30
0.0
 40
2.0
 41
0.0
 71
     1
 72
     1
  1
63
  7
SLDTEXTSTYLE0
 11
-7.044195017643634E-15
 21
1.0
 31
0.0
 73
     1
 44
1.0
  0
ENDBLK
  5
22C
330
22A
100
AcDbEntity
  8
0
100
AcDbBlockEnd
  0
BLOCK
  5
237
330
236
100
AcDbEntity
  8
0
100
AcDbBlockBegin
  2
_D_1
 70
     0
 10
0.0
 20
0.0
 30
0.0
  3
_D_1
  1

  0
SOLID
  5
239
330
236
100
AcDbEntity
  8
VERMASSUNG
100
AcDbTrace
 10
270.1746563538
 20
154.3517143966
 30
0.0
 11
269.7246563538
 21
151.3517143966
 31
0.0
 12
270.6246563538
 22
151.3517143966
 32
0.0
 13
270.6246563538
 23
151.3517143966
 33
0.0
  0
SOLID
  5
23A
330
236
100
AcDbEntity
  8
VERMASSUNG
100
AcDbTrace
 10
270.1746563538
 20
109.3517143966
 30
0.0
 11
270.6246563538
 21
112.3517143966
 31
0.0
 12
269.7246563538
 22
112.3517143966
 32
0.0
 13
269.7246563538
 23
112.3517143966
 33
0.0
  0
LINE
  5
23B
330
236
100
AcDbEntity
  8
VERMASSUNG
100
AcDbLine
 10
262.9146893193
 20
154.3517143966
 30
0.0
 11
271.1746563538
 21
154.3517143966
 31
0.0
  0
LINE
  5
23C
330
236
100
AcDbEntity
  8
VERMASSUNG
100
AcDbLine
 10
260.7818978102
 20
109.3517143966
 30
0.0
 11
271.1746563538
 21
109.3517143966
 31
0.0
  0
LINE
  5
23D
330
236
100
AcDbEntity
  8
VERMASSUNG
100
AcDbLine
 10
270.1746563538
 20
154.3517143966
 30
0.0
 11
270.1746563538
 21
109.3517143966
 31
0.0
  0
MTEXT
  5
23E
330
236
100
AcDbEntity
  8
VERMASSUNG
100
AcDbMText
 10
267.5965209907
 20
130.3523698389
 30
0.0
 40
2.0
 41
0.0
 71
     1
 72
     1
  1
45
  7
SLDTEXTSTYLE0
 11
-7.044195017643634E-15
 21
1.0
 31
0.0
 73
     1
 44
1.0
  0
ENDBLK
  5
238
330
236
100
AcDbEntity
  8
0
100
AcDbBlockEnd
  0
BLOCK
  5
241
330
240
100
AcDbEntity
  8
0
100
AcDbBlockBegin
  2
_D_2
 70
     0
 10
0.0
 20
0.0
 30
0.0
  3
_D_2
  1

  0
SOLID
  5
243
330
240
100
AcDbEntity
  8
VERMASSUNG
100
AcDbTrace
 10
262.9146893193
 20
159.1955919308
 30
0.0
 11
259.9146893193
 21
159.6455919308
 31
0.0
 12
259.9146893193
 22
158.7455919308
 32
0.0
 13
259.9146893193
 23
158.7455919308
 33
0.0
  0
SOLID
  5
244
330
240
100
AcDbEntity
  8
VERMASSUNG
100
AcDbTrace
 10
192.9146893193
 20
159.1955919308
 30
0.0
 11
195.9146893193
 21
158.7455919308
 31
0.0
 12
195.9146893193
 22
159.6455919308
 32
0.0
 13
195.9146893193
 23
159.6455919308
 33
0.0
  0
LINE
  5
245
330
240
100
AcDbEntity
  8
VERMASSUNG
100
AcDbLine
 10
262.9146893193
 20
154.3517143966
 30
0.0
 11
262.9146893193
 21
160.1955919308
 31
0.0
  0
LINE
  5
246
330
240
100
AcDbEntity
  8
VERMASSUNG
100
AcDbLine
 10
192.9146893193
 20
140.5517143966
 30
0.0
 11
192.9146893193
 21
160.1955919308
 31
0.0
  0
LINE
  5
247
330
240
100
AcDbEntity
  8
VERMASSUNG
100
AcDbLine
 10
262.9146893193
 20
159.1955919308
 30
0.0
 11
192.9146893193
 21
159.1955919308
 31
0.0
  0
MTEXT
  5
248
330
240
100
AcDbEntity
  8
VERMASSUNG
100
AcDbMText
 10
226.5154865132
 20
161.7737272939
 30
0.0
 40
2.0
 41
0.0
 71
     1
 72
     1
  1
70
  7
SLDTEXTSTYLE0
 73
     1
 44
1.0
  0
ENDBLK
  5
242
330
240
100
AcDbEntity
  8
0
100
AcDbBlockEnd
  0
BLOCK
  5
24B
330
24A
100
AcDbEntity
  8
0
100
AcDbBlockBegin
  2
_D_3
 70
     0
 10
0.0
 20
0.0
 30
0.0
  3
_D_3
  1

  0
SOLID
  5
24D
330
24A
100
AcDbEntity
  8
VERMASSUNG
100
AcDbTrace
 10
161.0146893193
 20
165.1955919308
 30
0.0
 11
164.0146893193
 21
164.7455919308
 31
0.0
 12
164.0146893193
 22
165.6455919308
 32
0.0
 13
164.0146893193
 23
165.6455919308
 33
0.0
  0
SOLID
  5
24E
330
24A
100
AcDbEntity
  8
VERMASSUNG
100
AcDbTrace
 10
262.9146893193
 20
165.1955919308
 30
0.0
 11
259.9146893193
 21
165.6455919308
 31
0.0
 12
259.9146893193
 22
164.7455919308
 32
0.0
 13
259.9146893193
 23
164.7455919308
 33
0.0
  0
LINE
  5
24F
330
24A
100
AcDbEntity
  8
VERMASSUNG
100
AcDbLine
 10
161.0146893193
 20
129.0423921431
 30
0.0
 11
161.0146893193
 21
166.1955919308
 31
0.0
  0
LINE
  5
250
330
24A
100
AcDbEntity
  8
VERMASSUNG
100
AcDbLine
 10
262.9146893193
 20
154.3517143966
 30
0.0
 11
262.9146893193
 21
166.1955919308
 31
0.0
  0
LINE
  5
251
330
24A
100
AcDbEntity
  8
VERMASSUNG
100
AcDbLine
 10
161.0146893193
 20
165.1955919308
 30
0.0
 11
262.9146893193
 21
165.1955919308
 31
0.0
  0
MTEXT
  5
252
330
24A
100
AcDbEntity
  8
VERMASSUNG
100
AcDbMText
 10
209.2664254586
 20
167.7737272939
 30
0.0
 40
2.0
 41
0.0
 71
     1
 72
     1
  1
101.9
  7
SLDTEXTSTYLE0
 73
     1
 44
1.0
  0
ENDBLK
  5
24C
330
24A
100
AcDbEntity
  8
0
100
AcDbBlockEnd
  0
BLOCK
  5
256
330
255
100
AcDbEntity
  8
0
100
AcDbBlockBegin
  2
_D_4
 70
     0
 10
0.0
 20
0.0
 30
0.0
  3
_D_4
  1

  0
ARC
  5
258
330
255
100
AcDbEntity
  8
VERMASSUNG
100
AcDbCircle
 10
262.9146893193
 20
157.6559812838
 30
0.0
 40
35.57279159181144
100
AcDbArc
 50
264.9722024819
 51
270.0
  0
ARC
  5
259
330
255
100
AcDbEntity
  8
VERMASSUNG
100
AcDbCircle
 10
262.9146893193
 20
157.6559812838
 30
0.0
 40
35.57279159181144
100
AcDbArc
 50
250.9323770425
 51
264.9722024819
  0
ARC
  5
25A
330
255
100
AcDbEntity
  8
VERMASSUNG
100
AcDbCircle
 10
262.9146893193
 20
157.6559812838
 30
0.0
 40
35.57279159181143
100
AcDbArc
 50
270.0
 51
279.6326149943
  0
SOLID
  5
25B
330
255
100
AcDbEntity
  8
VERMASSUNG
100
AcDbTrace
 10
259.7971238536
 20
122.2200632457
 30
0.0
 11
256.8806225444
 21
123.0546410514
 31
0.0
 12
256.7641132214
 22
122.1622142602
 32
0.0
 13
256.7641132214
 23
122.1622142602
 33
0.0
  0
SOLID
  5
25C
330
255
100
AcDbEntity
  8
VERMASSUNG
100
AcDbTrace
 10
262.9146893193
 20
122.083189692
 30
0.0
 11
265.9309599961
 21
121.7597531385
 31
0.0
 12
265.8931103977
 22
122.6589569017
 32
0.0
 13
265.8931103977
 23
122.6589569017
 33
0.0
  0
MTEXT
  5
25D
330
255
100
AcDbEntity
  8
VERMASSUNG
100
AcDbMText
 10
253.4352630294
 20
126.0256892129
 30
0.0
 40
2.0
 41
0.0
 71
     1
 72
     1
  1
5°
  7
SLDTEXTSTYLE0
 11
0.9684592940281062
 21
-0.2491718198564642
 31
0.0
 73
     1
 44
1.0
  0
ENDBLK
  5
257
330
255
100
AcDbEntity
  8
0
100
AcDbBlockEnd
  0
BLOCK
  5
2D2
330
2D1
100
AcDbEntity
  8
0
100
AcDbBlockBegin
  2
_D_5
 70
     0
 10
0.0
 20
0.0
 30
0.0
  3
_D_5
  1

  0
SOLID
  5
2D4
330
2D1
100
AcDbEntity
  8
VERMASSUNG
100
AcDbTrace
 10
41.8690510949
 20
74.3096908072
 30
0.0
 11
42.3190510949
 21
77.3096908072
 31
0.0
 12
41.4190510949
 22
77.3096908072
 32
0.0
 13
41.4190510949
 23
77.3096908072
 33
0.0
  0
SOLID
  5
2D5
330
2D1
100
AcDbEntity
  8
VERMASSUNG
100
AcDbTrace
 10
41.8690510949
 20
154.3096908072
 30
0.0
 11
41.4190510949
 21
151.3096908072
 31
0.0
 12
42.3190510949
 22
151.3096908072
 32
0.0
 13
42.3190510949
 23
151.3096908072
 33
0.0
  0
LINE
  5
2D6
330
2D1
100
AcDbEntity
  8
VERMASSUNG
100
AcDbLine
 10
86.8309489051
 20
74.3096908072
 30
0.0
 11
40.8690510949
 21
74.3096908072
 31
0.0
  0
LINE
  5
2D7
330
2D1
100
AcDbEntity
  8
VERMASSUNG
100
AcDbLine
 10
86.8309489051
 20
154.3096908072
 30
0.0
 11
40.8690510949
 21
154.3096908072
 31
0.0
  0
LINE
  5
2D8
330
2D1
100
AcDbEntity
  8
VERMASSUNG
100
AcDbLine
 10
41.8690510949
 20
74.3096908072
 30
0.0
 11
41.8690510949
 21
154.3096908072
 31
0.0
  0
MTEXT
  5
2D9
330
2D1
100
AcDbEntity
  8
VERMASSUNG
100
AcDbMText
 10
39.2909156153
 20
111.1079364735
 30
0.0
 40
2.0
 41
0.0
 71
     1
 72
     1
  1
%%c
  7
SLDTEXTSTYLE0
 11
6.123233995736766E-17
 21
1.0
 31
0.0
 73
     1
 44
1.0
  0
MTEXT
  5
2DA
330
2D1
100
AcDbEntity
  8
VERMASSUNG
100
AcDbMText
 10
39.2909157318
 20
114.7130395286
 30
0.0
 40
2.0
 41
0.0
 71
     1
 72
     1
  1
80
  7
SLDTEXTSTYLE0
 11
6.123233995736766E-17
 21
1.0
 31
0.0
 73
     1
 44
1.0
  0
ENDBLK
  5
2D3
330
2D1
100
AcDbEntity
  8
0
100
AcDbBlockEnd
  0
BLOCK
  5
2DC
330
2DB
100
AcDbEntity
  8
0
100
AcDbBlockBegin
  2
SW_CENTERMARKSYMBOL_0
 70
     0
 10
0.0
 20
0.0
 30
0.0
  3
SW_CENTERMARKSYMBOL_0
  1

  0
LINE
  5
2DE
330
2DB
100
AcDbEntity
  8
VERMASSUNG
 62
     0
100
AcDbLine
 10
0.0
 20
0.0
 30
0.0
 11
0.0
 21
2.5
 31
0.0
  0
LINE
  5
2DF
330
2DB
100
AcDbEntity
  8
VERMASSUNG
 62
     0
100
AcDbLine
 10
0.0
 20
0.0
 30
0.0
 11
-2.5
 21
0.0
 31
0.0
  0
LINE
  5
2E0
330
2DB
100
AcDbEntity
  8
VERMASSUNG
 62
     0
100
AcDbLine
 10
0.0
 20
0.0
 30
0.0
 11
0.0
 21
-2.5
 31
0.0
  0
LINE
  5
2E1
330
2DB
100
AcDbEntity
  8
VERMASSUNG
 62
     0
100
AcDbLine
 10
0.0
 20
0.0
 30
0.0
 11
2.5
 21
0.0
 31
0.0
  0
LINE
  5
2E2
330
2DB
100
AcDbEntity
  8
VERMASSUNG
 62
     0
100
AcDbLine
 10
0.0
 20
5.0
 30
0.0
 11
0.0
 21
46.0154388881
 31
0.0
  0
LINE
  5
2E3
330
2DB
100
AcDbEntity
  8
VERMASSUNG
 62
     0
100
AcDbLine
 10
-5.0
 20
0.0
 30
0.0
 11
-34.0
 21
0.0
 31
0.0
  0
LINE
  5
2E4
330
2DB
100
AcDbEntity
  8
VERMASSUNG
 62
     0
100
AcDbLine
 10
0.0
 20
-5.0
 30
0.0
 11
0.0
 21
-34.0
 31
0.0
  0
LINE
  5
2E5
330
2DB
100
AcDbEntity
  8
VERMASSUNG
 62
     0
100
AcDbLine
 10
5.0
 20
0.0
 30
0.0
 11
34.0
 21
0.0
 31
0.0
  0
ENDBLK
  5
2DD
330
2DB
100
AcDbEntity
  8
0
100
AcDbBlockEnd
  0
ENDSEC
  0
SECTION
  2
ENTITIES
  0
MTEXT
  5
49
330
1F
100
AcDbEntity
  8
KOPF_DÜNN
100
AcDbMText
 10
13.8892156294
 20
23.8442973028
 30
0.0
 40
3.0
 41
0.0
 71
     1
 72
     1
  1
HA6.PWE.RLA.070
  7
SLDTEXTSTYLE0
 73
     1
 44
1.0
  0
MTEXT
  5
4A
330
1F
100
AcDbEntity
  8
VERMASSUNG
100
AcDbMText
 10
13.9329988022
 20
28.8834360957
 30
0.0
 40
3.0
 41
0.0
 71
     1
 72
     1
  1
Klemmhalter rechts_Turning tool right 95° /80° /95°
  7
SLDTEXTSTYLE0
 73
     1
 44
1.0
  0
MTEXT
  5
4B
330
1F
100
AcDbEntity
  8
VERMASSUNG
100
AcDbMText
 10
98.8601118557
 20
13.8365368179
 30
0.0
 40
2.0
 41
0.0
 71
     1
 72
     1
  1
Datum: 19.01.2010
  7
SLDTEXTSTYLE0
 73
     1
 44
1.0
  0
MTEXT
  5
4D
330
1F
100
AcDbEntity
  8
VERMASSUNG
100
AcDbMText
 10
13.933048693
 20
18.0482802738
 30
0.0
 40
2.0
 41
0.0
 71
     1
 72
     1
  1
DIN 69893 HSK 63 A ICTM / WN.. 08 04..
  7
SLDTEXTSTYLE1
 73
     1
 44
1.0
  0
MTEXT
  5
4E
330
1F
100
AcDbEntity
  8
VERMASSUNG
100
AcDbMText
 10
13.9808475933
 20
13.9090973692
 30
0.0
 40
2.0
 41
0.0
 71
     1
 72
     1
  1
Gewicht: 1162g
  7
SLDTEXTSTYLE0
 73
     1
 44
1.0
  0
LINE
  5
4F
330
1F
100
AcDbEntity
  8
0
  6
Continuous
 62
     7
370
    15
100
AcDbLine
 10
257.1745239069
 20
145.2767674566
 30
0.0
 11
257.56223722
 21
145.8625991584
 31
0.0
  0
LINE
  5
50
330
1F
100
AcDbEntity
  8
0
  6
Continuous
 62
     7
370
    15
100
AcDbLine
 10
253.6463014652
 20
148.4617230238
 30
0.0
 11
253.5373814275
 21
148.2971545995
 31
0.0
  0
LINE
  5
51
330
1F
100
AcDbEntity
  8
0
  6
Continuous
 62
     7
370
    15
100
AcDbLine
 10
258.2116596271
 20
137.7802260907
 30
0.0
 11
258.7092093994
 21
138.4390623064
 31
0.0
  0
LINE
  5
52
330
1F
100
AcDbEntity
  8
0
  6
Continuous
 62
     7
370
    15
100
AcDbLine
 10
246.7959955205
 20
150.3127005638
 30
0.0
 11
246.3248208036
 21
149.6887963952
 31
0.0
  0
LINE
  5
53
330
1F
100
AcDbEntity
  8
0
  6
Continuous
 62
     7
370
    15
100
AcDbLine
 10
193.2146893336
 20
77.8517138899
 30
0.0
 11
197.8646892925
 21
77.8517138899
 31
0.0
  0
LINE
  5
54
330
1F
100
AcDbEntity
  8
0
  6
Continuous
 62
     7
370
    15
100
AcDbLine
 10
197.8926778642
 20
140.8517149032
 30
0.0
 11
193.2146893336
 21
140.8517149032
 31
0.0
  0
ARC
  5
55
330
1F
100
AcDbEntity
  8
0
  6
Continuous
 62
     7
370
    15
100
AcDbCircle
 10
193.2146893193
 20
78.1517143966
 30
0.0
 40
0.3000000000000114
100
AcDbArc
 50
180.0
 51
270.0
  0
ARC
  5
56
330
1F
100
AcDbEntity
  8
0
  6
Continuous
 62
     7
370
    15
100
AcDbCircle
 10
193.2146893193
 20
140.5517143966
 30
0.0
 40
0.3000000000000114
100
AcDbArc
 50
90.0
 51
180.0
  0
ARC
  5
57
330
1F
100
AcDbEntity
  8
0
  6
Continuous
 62
     7
370
    15
100
AcDbCircle
 10
219.8646893193
 20
82.3517143966
 30
0.0
 40
1.000000000000025
100
AcDbArc
 50
90.0
 51
143.1139143113
  0
ARC
  5
58
330
1F
100
AcDbEntity
  8
0
  6
Continuous
 62
     7
370
    15
100
AcDbCircle
 10
219.8646893193
 20
136.3517143966
 30
0.0
 40
1.0
100
AcDbArc
 50
216.8997990048
 51
270.0
  0
LINE
  5
59
330
1F
100
AcDbEntity
  8
0
  6
Continuous
 62
     7
370
    15
100
AcDbLine
 10
219.8646891733
 20
83.3517138601
 30
0.0
 11
234.147360908
 21
83.3517138601
 31
0.0
  0
LINE
  5
5A
330
1F
100
AcDbEntity
  8
0
  6
Continuous
 62
     7
370
    15
100
AcDbLine
 10
234.147360908
 20
135.351714933
 30
0.0
 11
219.8646891733
 21
135.351714933
 31
0.0
  0
ARC
  5
5B
330
1F
100
AcDbEntity
  8
0
  6
Continuous
 62
     7
370
    15
100
AcDbCircle
 10
192.4146893193
 20
84.7812835349
 30
0.0
 40
0.6000000000000085
100
AcDbArc
 50
33.5573097619
 51
90.0
  0
ARC
  5
5C
330
1F
100
AcDbEntity
  8
0
  6
Continuous
 62
     7
370
    15
100
AcDbCircle
 10
192.4146893193
 20
133.9221452583
 30
0.0
 40
0.6000000000000019
100
AcDbArc
 50
270.0
 51
326.4426902381
  0
LINE
  5
5D
330
1F
100
AcDbEntity
  8
0
  6
Continuous
 62
     7
370
    15
100
AcDbLine
 10
190.9146892243
 20
85.1312831731
 30
0.0
 11
191.7714021505
 21
85.3608392866
 31
0.0
  0
LINE
  5
5E
330
1F
100
AcDbEntity
  8
0
  6
Continuous
 62
     7
370
    15
100
AcDbLine
 10
191.7714021505
 20
133.3425895066
 30
0.0
 11
190.9146892243
 21
133.5721456201
 31
0.0
  0
LINE
  5
5F
330
1F
100
AcDbEntity
  8
0
  6
Continuous
 62
     7
370
    15
100
AcDbLine
 10
179.6831808855
 20
133.0094442458
 30
0.0
 11
167.1146884431
 21
132.3797602893
 31
0.0
  0
LINE
  5
60
330
1F
100
AcDbEntity
  8
0
  6
Continuous
 62
     7
370
    15
100
AcDbLine
 10
190.9146892243
 20
133.5721456201
 30
0.0
 11
188.0976877977
 21
133.4310129971
 31
0.0
  0
LINE
  5
61
330
1F
100
AcDbEntity
  8
0
  6
Continuous
 62
     7
370
    15
100
AcDbLine
 10
188.0977436771
 20
85.2724139334
 30
0.0
 11
190.9146892243
 21
85.1312831731
 31
0.0
  0
LINE
  5
62
330
1F
100
AcDbEntity
  8
0
  6
Continuous
 62
     7
370
    15
100
AcDbLine
 10
171.1146890988
 20
86.1232683749
 30
0.0
 11
179.6835832168
 21
85.6939640583
 31
0.0
  0
ARC
  5
63
330
1F
100
AcDbEntity
  8
0
  6
Continuous
 62
     7
370
    15
100
AcDbCircle
 10
191.9266935198
 20
84.7812835349
 30
0.0
 40
0.6000000000000145
100
AcDbArc
 50
90.0
 51
105.0
  0
ARC
  5
64
330
1F
100
AcDbEntity
  8
0
  6
Continuous
 62
     7
370
    15
100
AcDbCircle
 10
191.9266935198
 20
133.9221452583
 30
0.0
 40
0.6000000000000208
100
AcDbArc
 50
255.0
 51
270.0
  0
LINE
  5
65
330
1F
100
AcDbEntity
  8
0
  6
Continuous
 62
     7
370
    15
100
AcDbLine
 10
191.9266935541
 20
85.3812836797
 30
0.0
 11
192.4146892956
 21
85.3812836797
 31
0.0
  0
LINE
  5
66
330
1F
100
AcDbEntity
  8
0
  6
Continuous
 62
     7
370
    15
100
AcDbLine
 10
192.4146892956
 20
133.3221451135
 30
0.0
 11
191.9266935541
 21
133.3221451135
 31
0.0
  0
ARC
  5
67
330
1F
100
AcDbEntity
  8
0
  6
Continuous
 62
     7
370
    15
100
AcDbCircle
 10
234.1473623313
 20
136.3517143966
 30
0.0
 40
1.0
100
AcDbArc
 50
270.0
 51
345.0
  0
ARC
  5
68
330
1F
100
AcDbEntity
  8
0
  6
Continuous
 62
     7
370
    15
100
AcDbCircle
 10
234.1473623313
 20
82.3517143966
 30
0.0
 40
0.9999999999999858
100
AcDbArc
 50
15.0
 51
90.0
  0
LINE
  5
69
330
1F
100
AcDbEntity
  8
0
  6
Continuous
 62
     7
370
    15
100
AcDbLine
 10
237.6295983662
 20
145.4838898719
 30
0.0
 11
235.1132877042
 21
136.0928949655
 31
0.0
  0
LINE
  5
6A
330
1F
100
AcDbEntity
  8
0
  6
Continuous
 62
     7
370
    15
100
AcDbLine
 10
235.1132877042
 20
82.6105338276
 30
0.0
 11
235.1826377084
 21
82.3517136962
 31
0.0
  0
LINE
  5
6B
330
1F
100
AcDbEntity
  8
0
  6
Continuous
 62
     7
370
    15
100
AcDbLine
 10
235.1826377084
 20
82.3517136962
 30
0.0
 11
236.3044492771
 21
82.3517136962
 31
0.0
  0
LINE
  5
6C
330
1F
100
AcDbEntity
  8
0
  6
Continuous
 62
     7
370
    15
100
AcDbLine
 10
162.1646884699
 20
88.5392141284
 30
0.0
 11
169.7146896143
 21
88.5392141284
 31
0.0
  0
ARC
  5
6D
330
1F
100
AcDbEntity
  8
0
  6
Continuous
 62
     7
370
    15
100
AcDbCircle
 10
169.7146893193
 20
87.1392143966
 30
0.0
 40
1.399999999999996
100
AcDbArc
 50
37.6443616934
 51
90.0
  0
LINE
  5
6E
330
1F
100
AcDbEntity
  8
0
  6
Continuous
 62
     7
370
    15
100
AcDbLine
 10
162.1558520814
 20
130.212878132
 30
0.0
 11
161.0245913138
 21
129.0816155017
 31
0.0
  0
LINE
  5
6F
330
1F
100
AcDbEntity
  8
0
  6
Continuous
 62
     7
370
    15
100
AcDbLine
 10
161.012107866
 20
89.6917947323
 30
0.0
 11
162.1646884699
 21
88.5392141284
 31
0.0
  0
ARC
  5
70
330
1F
100
AcDbEntity
  8
0
  6
Continuous
 62
     7
370
    15
100
AcDbCircle
 10
165.7146893193
 20
131.6217143966
 30
0.0
 40
1.400000000000015
100
AcDbArc
 50
270.0
 51
301.7485287426
  0
LINE
  5
71
330
1F
100
AcDbEntity
  8
0
  6
Continuous
 62
     7
370
    15
100
AcDbLine
 10
165.7146889587
 20
130.2217145206
 30
0.0
 11
162.2889548411
 21
130.2217145206
 31
0.0
  0
LINE
  5
72
330
1F
100
AcDbEntity
  8
0
  6
Continuous
 62
     7
370
    15
100
AcDbLine
 10
254.097609209
 20
149.064050311
 30
0.0
 11
254.3838046362
 21
149.16483804
 31
0.0
  0
LWPOLYLINE
  5
73
330
1F
100
AcDbEntity
  8
0
  6
Continuous
 62
     7
370
    15
100
AcDbPolyline
 90
        3
 70
   128
 43
0.0
 10
257.9379327466
 20
146.9779510738
 10
257.9776443412
 20
146.682598883
 10
257.967787223
 20
146.1412694992
  0
CIRCLE
  5
74
330
1F
100
AcDbEntity
  8
0
  6
Continuous
 62
     7
370
    15
100
AcDbCircle
 10
244.9557720239
 20
136.7538732103
 30
0.0
 40
3.477078519029482
  0
CIRCLE
  5
75
330
1F
100
AcDbEntity
  8
0
  6
Continuous
 62
     7
370
    15
100
AcDbCircle
 10
244.9767709362
 20
136.7589931917
 30
0.0
 40
1.986413679477192
  0
SPLINE
  5
76
330
1F
100
AcDbEntity
  8
0
  6
Continuous
 62
     7
370
    15
100
AcDbSpline
210
0.0
220
0.0
230
1.0
 70
     8
 71
     3
 72
    11
 73
     7
 74
     0
 42
0.00000001
 43
0.00000001
 12
1.0
 22
0.0
 32
0.0
 13
1.0
 23
0.0
 33
0.0
 40
0.0
 40
0.0
 40
0.0
 40
0.0
 40
0.1081101987594456
 40
0.4711585270484194
 40
0.8135804130118935
 40
0.9999999999999999
 40
0.9999999999999999
 40
0.9999999999999999
 40
0.9999999999999999
 10
243.9170427490998
 20
135.3913780988325
 30
0.0
 10
243.9717833186672
 20
135.378593225638
 30
0.0
 10
244.2103499518168
 20
135.3228750594344
 30
0.0
 10
244.6754548800246
 20
135.2312738246872
 30
0.0
 10
245.2200055096882
 20
135.1620137760535
 30
0.0
 10
245.5178501083949
 20
135.1366557863455
 30
0.0
 10
245.6228420008946
 20
135.1277169526685
 30
0.0
  0
SPLINE
  5
77
330
1F
100
AcDbEntity
  8
0
  6
Continuous
 62
     7
370
    15
100
AcDbSpline
210
0.0
220
0.0
230
1.0
 70
     8
 71
     3
 72
    10
 73
     6
 74
     0
 42
0.00000001
 43
0.00000001
 12
1.0
 22
0.0
 32
0.0
 13
1.0
 23
0.0
 33
0.0
 40
0.0
 40
0.0
 40
0.0
 40
0.0
 40
0.4391165658578908
 40
0.751365873465492
 40
1.0
 40
1.0
 40
1.0
 40
1.0
 10
245.6228420008946
 20
135.1277169526685
 30
0.0
 10
245.7639247688876
 20
135.304767083736
 30
0.0
 10
246.0053294104932
 20
135.607714949337
 30
0.0
 10
246.3911291485114
 20
136.0942905885766
 30
0.0
 10
246.5936029792706
 20
136.3503066388272
 30
0.0
 10
246.6833576430608
 20
136.4637960435022
 30
0.0
  0
SPLINE
  5
78
330
1F
100
AcDbEntity
  8
0
  6
Continuous
 62
     7
370
    15
100
AcDbSpline
210
0.0
220
0.0
230
1.0
 70
     8
 71
     3
 72
    10
 73
     6
 74
     0
 42
0.00000001
 43
0.00000001
 12
1.0
 22
0.0
 32
0.0
 13
1.0
 23
0.0
 33
0.0
 40
0.0
 40
0.0
 40
0.0
 40
0.0
 40
0.4391169946409251
 40
0.7513675874438898
 40
0.9999999999999999
 40
0.9999999999999999
 40
0.9999999999999999
 40
0.9999999999999999
 10
246.6833576430608
 20
136.4637960435022
 30
0.0
 10
246.5802408333147
 20
136.67859131037
 30
0.0
 10
246.4037989522002
 20
137.046124800147
 30
0.0
 10
246.1821900744866
 20
137.6265842805267
 30
0.0
 10
246.0823374510057
 20
137.9293307147425
 30
0.0
 10
246.0380740334321
 20
138.0635344178547
 30
0.0
  0
SPLINE
  5
79
330
1F
100
AcDbEntity
  8
0
  6
Continuous
 62
     7
370
    15
100
AcDbSpline
210
0.0
220
0.0
230
1.0
 70
     8
 71
     3
 72
    11
 73
     7
 74
     0
 42
0.00000001
 43
0.00000001
 12
1.0
 22
0.0
 32
0.0
 13
1.0
 23
0.0
 33
0.0
 40
0.0
 40
0.0
 40
0.0
 40
0.0
 40
0.186419696775668
 40
0.5288416218425289
 40
0.8918899915903573
 40
1.0
 40
1.0
 40
1.0
 40
1.0
 10
246.0380740334321
 20
138.0635344178547
 30
0.0
 10
245.9330821549584
 20
138.0724740115496
 30
0.0
 10
245.6352376875941
 20
138.097834149507
 30
0.0
 10
245.0906867714043
 20
138.1670921349598
 30
0.0
 10
244.6255824116469
 20
138.2586962052326
 30
0.0
 10
244.3870153666274
 20
138.3144113927672
 30
0.0
 10
244.3322747816373
 20
138.3271955640186
 30
0.0
  0
SPLINE
  5
7A
330
1F
100
AcDbEntity
  8
0
  6
Continuous
 62
     7
370
    15
100
AcDbSpline
210
0.0
220
0.0
230
1.0
 70
     8
 71
     3
 72
    10
 73
     6
 74
     0
 42
0.00000001
 43
0.00000001
 12
1.0
 22
0.0
 32
0.0
 13
1.0
 23
0.0
 33
0.0
 40
0.0
 40
0.0
 40
0.0
 40
0.0
 40
0.4391161474734563
 40
0.7513664519109307
 40
1.0
 40
1.0
 40
1.0
 40
1.0
 10
244.3322747816373
 20
138.3271955640186
 30
0.0
 10
244.1697149752777
 20
138.1217063839156
 30
0.0
 10
243.8915608112131
 20
137.7700962756369
 30
0.0
 10
243.5220953715429
 20
137.3051510659977
 30
0.0
 10
243.3486469068594
 20
137.0875684271199
 30
0.0
 10
243.2717591394711
 20
136.9911164731849
 30
0.0
  0
SPLINE
  5
7B
330
1F
100
AcDbEntity
  8
0
  6
Continuous
 62
     7
370
    15
100
AcDbSpline
210
0.0
220
0.0
230
1.0
 70
     8
 71
     3
 72
    10
 73
     6
 74
     0
 42
0.00000001
 43
0.00000001
 12
1.0
 22
0.0
 32
0.0
 13
1.0
 23
0.0
 33
0.0
 40
0.0
 40
0.0
 40
0.0
 40
0.0
 40
0.439116105235037
 40
0.7513677327912792
 40
1.0
 40
1.0
 40
1.0
 40
1.0
 10
243.2717591394711
 20
136.9911164731849
 30
0.0
 10
243.353397104584
 20
136.7478820671333
 30
0.0
 10
243.4930871137304
 20
136.3316857991463
 30
0.0
 10
243.7310337927416
 20
135.7728569835269
 30
0.0
 10
243.8599125388422
 20
135.50854433275
 30
0.0
 10
243.9170427490998
 20
135.3913780988325
 30
0.0
  0
LINE
  5
7C
330
1F
100
AcDbEntity
  8
0
  6
Continuous
 62
     7
370
    15
100
AcDbLine
 10
243.9421698322
 20
137.8106412233
 30
0.0
 11
244.3322747816
 21
138.327195564
 31
0.0
  0
LINE
  5
7D
330
1F
100
AcDbEntity
  8
0
  6
Continuous
 62
     7
370
    15
100
AcDbLine
 10
243.9421698322
 20
137.8106412233
 30
0.0
 11
243.4119120111
 21
137.1426016779
 31
0.0
  0
LINE
  5
7E
330
1F
100
AcDbEntity
  8
0
  6
Continuous
 62
     7
370
    15
100
AcDbLine
 10
246.2932526936
 20
135.9472398401
 30
0.0
 11
245.9706090261
 21
136.7471099586
 31
0.0
  0
LINE
  5
7F
330
1F
100
AcDbEntity
  8
0
  6
Continuous
 62
     7
370
    15
100
AcDbLine
 10
245.9706090261
 20
136.7471099586
 30
0.0
 11
245.647969084
 21
137.5469800771
 31
0.0
  0
LINE
  5
80
330
1F
100
AcDbEntity
  8
0
  6
Continuous
 62
     7
370
    15
100
AcDbLine
 10
245.647969084
 20
137.5469800771
 30
0.0
 11
246.0380740334
 21
138.0635344179
 31
0.0
  0
LINE
  5
81
330
1F
100
AcDbEntity
  8
0
  6
Continuous
 62
     7
370
    15
100
AcDbLine
 10
245.647969084
 20
137.5469800771
 30
0.0
 11
244.7950675954
 21
137.6788106502
 31
0.0
  0
LINE
  5
82
330
1F
100
AcDbEntity
  8
0
  6
Continuous
 62
     7
370
    15
100
AcDbLine
 10
244.7950675954
 20
137.6788106502
 30
0.0
 11
243.9421698322
 21
137.8106412233
 31
0.0
  0
ARC
  5
83
330
1F
100
AcDbEntity
  8
0
  6
Continuous
 62
     7
370
    15
100
AcDbCircle
 10
244.6059550445
 20
136.1911260563
 30
0.0
 40
1.473566621944802
100
AcDbArc
 50
326.50175819
 51
22.1668413625
  0
ARC
  5
84
330
1F
100
AcDbEntity
  8
0
  6
Continuous
 62
     7
370
    15
100
AcDbCircle
 10
244.5642518544
 20
136.2221665517
 30
0.0
 40
1.474817933189358
100
AcDbArc
 50
80.9959334047
 51
141.3837773517
  0
ARC
  5
85
330
1F
100
AcDbEntity
  8
0
  6
Continuous
 62
     7
370
    15
100
AcDbCircle
 10
244.5619767845
 20
136.1772663935
 30
0.0
 40
1.519528374515405
100
AcDbArc
 50
22.0251436031
 51
81.1761714704
  0
ELLIPSE
  5
86
330
1F
100
AcDbEntity
  8
0
  6
Continuous
 62
     7
370
    15
100
AcDbEllipse
 10
255.6042695701
 20
147.1621612679
 30
0.0
 11
1.895184197371662
 21
-1.389650252276056
 31
0.0
210
0.0
220
0.0
230
1.0
 40
0.9861321518
 41
1.41076412384055
 42
3.290169263066633
  0
ELLIPSE
  5
87
330
1F
100
AcDbEntity
  8
0
  6
Continuous
 62
     7
370
    15
100
AcDbEllipse
 10
255.6042695701
 20
147.1621612679
 30
0.0
 11
1.895184197371662
 21
-1.389650252276056
 31
0.0
210
0.0
220
0.0
230
1.0
 40
0.9861321518
 41
5.842599442262968
 42
7.693949431020162
  0
SPLINE
  5
88
330
1F
100
AcDbEntity
  8
0
  6
Continuous
 62
     7
370
    15
100
AcDbSpline
210
0.0
220
0.0
230
1.0
 70
     8
 71
     3
 72
     9
 73
     5
 74
     0
 42
0.00000001
 43
0.00000001
 12
1.0
 22
0.0
 32
0.0
 13
1.0
 23
0.0
 33
0.0
 40
0.0
 40
0.0
 40
0.0
 40
0.0
 40
0.2259718772995659
 40
0.9999999999999999
 40
0.9999999999999999
 40
0.9999999999999999
 40
0.9999999999999999
 10
257.275143997841
 20
145.3095015824903
 30
0.0
 10
257.3087807528896
 20
145.3474390364699
 30
0.0
 10
257.4576344750896
 20
145.5153247682387
 30
0.0
 10
257.5495915889451
 20
145.7933516678389
 30
0.0
 10
257.6207689811517
 20
146.0085523069967
 30
0.0
  0
ARC
  5
89
330
1F
100
AcDbEntity
  8
0
  6
Continuous
 62
     7
370
    15
100
AcDbCircle
 10
258.394218017
 20
138.6789719908
 30
0.0
 40
0.395461427299528
100
AcDbArc
 50
234.0118138377
 51
334.2953225808
  0
LINE
  5
8A
330
1F
100
AcDbEntity
  8
0
  6
Continuous
 62
     7
370
    15
100
AcDbLine
 10
251.4729447533
 20
143.1204129697
 30
0.0
 11
258.1618375947
 21
138.3589890541
 31
0.0
  0
LINE
  5
8B
330
1F
100
AcDbEntity
  8
0
  6
Continuous
 62
     7
370
    15
100
AcDbLine
 10
246.7893309762
 20
149.8492073954
 30
0.0
 11
251.4729447533
 21
143.1204129697
 31
0.0
  0
ARC
  5
8C
330
1F
100
AcDbEntity
  8
0
  6
Continuous
 62
     7
370
    15
100
AcDbCircle
 10
247.1092222038
 20
150.0760345604
 30
0.0
 40
0.3921491556088563
100
AcDbArc
 50
114.4239044232
 51
215.3395352636
  0
LINE
  5
8D
330
1F
100
AcDbEntity
  8
0
  6
Continuous
 62
     7
370
    15
100
AcDbLine
 10
254.3476506938
 20
153.7610229791
 30
0.0
 11
246.9470746686
 21
150.4330907704
 31
0.0
  0
LINE
  5
8E
330
1F
100
AcDbEntity
  8
0
  6
Continuous
 62
     7
370
    15
100
AcDbLine
 10
262.4822057654
 20
154.3506731034
 30
0.0
 11
254.3476506938
 21
153.7610229791
 31
0.0
  0
ARC
  5
8F
330
1F
100
AcDbEntity
  8
0
  6
Continuous
 62
     7
370
    15
100
AcDbCircle
 10
262.5110851198
 20
153.9482627747
 30
0.0
 40
0.4034452748288228
100
AcDbArc
 50
355.3058710169
 51
94.1048478293
  0
LINE
  5
90
330
1F
100
AcDbEntity
  8
0
  6
Continuous
 62
     7
370
    15
100
AcDbLine
 10
262.2014902403
 20
145.8258901478
 30
0.0
 11
262.9131771495
 21
153.9152462722
 31
0.0
  0
LINE
  5
91
330
1F
100
AcDbEntity
  8
0
  6
Continuous
 62
     7
370
    15
100
AcDbLine
 10
258.7505452205
 20
138.5074474604
 30
0.0
 11
262.2014902403
 21
145.8258901478
 31
0.0
  0
ARC
  5
92
330
1F
100
AcDbEntity
  8
0
  6
Continuous
 62
     7
370
    15
100
AcDbCircle
 10
258.3940063995
 20
138.6790396953
 30
0.0
 40
0.3756974670756671
100
AcDbArc
 50
234.0127164959
 51
334.2942022858
  0
LINE
  5
93
330
1F
100
AcDbEntity
  8
0
  6
Continuous
 62
     7
370
    15
100
AcDbLine
 10
258.7325222661
 20
138.5160808207
 30
0.0
 11
262.1819846203
 21
145.8313812257
 31
0.0
  0
LINE
  5
94
330
1F
100
AcDbEntity
  8
0
  6
Continuous
 62
     7
370
    15
100
AcDbLine
 10
262.1819846203
 20
145.8313812257
 30
0.0
 11
262.8933586051
 21
153.9172616542
 31
0.0
  0
ARC
  5
95
330
1F
100
AcDbEntity
  8
0
  6
Continuous
 62
     7
370
    15
100
AcDbCircle
 10
262.5113750999
 20
153.9486315077
 30
0.0
 40
0.3832694430454719
100
AcDbArc
 50
355.3052008295
 51
94.1045807376
  0
LINE
  5
96
330
1F
100
AcDbEntity
  8
0
  6
Continuous
 62
     7
370
    15
100
AcDbLine
 10
262.4839417507
 20
154.330917889
 30
0.0
 11
254.3528772761
 21
153.7415210844
 31
0.0
  0
LINE
  5
97
330
1F
100
AcDbEntity
  8
0
  6
Continuous
 62
     7
370
    15
100
AcDbLine
 10
254.3528772761
 20
153.7415210844
 30
0.0
 11
246.9554826488
 21
150.4150193871
 31
0.0
  0
ARC
  5
98
330
1F
100
AcDbEntity
  8
0
  6
Continuous
 62
     7
370
    15
100
AcDbCircle
 10
247.1095254497
 20
150.0758117391
 30
0.0
 40
0.3725466587904077
100
AcDbArc
 50
114.4240042934
 51
215.338720033
  0
LINE
  5
99
330
1F
100
AcDbEntity
  8
0
  6
Continuous
 62
     7
370
    15
100
AcDbLine
 10
246.8056216707
 20
149.860327387
 30
0.0
 11
251.4872275163
 21
143.1344237865
 31
0.0
  0
LINE
  5
9A
330
1F
100
AcDbEntity
  8
0
  6
Continuous
 62
     7
370
    15
100
AcDbLine
 10
251.4872275163
 20
143.1344237865
 30
0.0
 11
258.1732444336
 21
138.3750450553
 31
0.0
  0
LINE
  5
9B
330
1F
100
AcDbEntity
  8
0
  6
Continuous
 62
     7
370
    15
100
AcDbLine
 10
251.669472443
 20
143.3074560703
 30
0.0
 11
251.4872275163
 21
143.1344237865
 31
0.0
  0
LINE
  5
9C
330
1F
100
AcDbEntity
  8
0
  6
Continuous
 62
     7
370
    15
100
AcDbLine
 10
258.0921001603
 20
139.4935783685
 30
0.0
 11
258.3670787384
 21
138.6497572751
 31
0.0
  0
LINE
  5
9D
330
1F
100
AcDbEntity
  8
0
  6
Continuous
 62
     7
370
    15
100
AcDbLine
 10
254.7093614806
 20
139.8035858513
 30
0.0
 11
257.6642803718
 21
137.700154701
 31
0.0
  0
LINE
  5
9E
330
1F
100
AcDbEntity
  8
0
  6
Continuous
 62
     7
370
    15
100
AcDbLine
 10
251.3383611907
 20
142.9422062577
 30
0.0
 11
251.4729447533
 21
143.1204129697
 31
0.0
  0
LINE
  5
9F
330
1F
100
AcDbEntity
  8
0
  6
Continuous
 62
     7
370
    15
100
AcDbLine
 10
247.9480787982
 20
149.7425970377
 30
0.0
 11
247.0922641327
 21
150.0412721873
 31
0.0
  0
ARC
  5
A0
330
1F
100
AcDbEntity
  8
0
  6
Continuous
 62
     7
370
    15
100
AcDbCircle
 10
259.273835457
 20
146.6393641277
 30
0.0
 40
0.9762519816590579
100
AcDbArc
 50
334.7716622562
 51
354.9922814996
  0
LINE
  5
A1
330
1F
100
AcDbEntity
  8
0
  6
Continuous
 62
     7
370
    15
100
AcDbLine
 10
258.2421846558
 20
142.1625737787
 30
0.0
 11
260.1569689681
 21
146.2232594133
 31
0.0
  0
ARC
  5
A2
330
1F
100
AcDbEntity
  8
0
  6
Continuous
 62
     7
370
    15
100
AcDbCircle
 10
257.3513648812
 20
142.5913922983
 30
0.0
 40
0.9886582795201964
100
AcDbArc
 50
234.0118717845
 51
334.2949913331
  0
LINE
  5
A3
330
1F
100
AcDbEntity
  8
0
  6
Continuous
 62
     7
370
    15
100
AcDbLine
 10
253.0590355267
 20
144.433335656
 30
0.0
 11
256.7704118659
 21
141.7914305569
 31
0.0
  0
ARC
  5
A4
330
1F
100
AcDbEntity
  8
0
  6
Continuous
 62
     7
370
    15
100
AcDbCircle
 10
253.6470497938
 20
145.2595740756
 30
0.0
 40
1.01411572534561
100
AcDbArc
 50
214.8490743486
 51
234.5614448422
  0
LINE
  5
A5
330
1F
100
AcDbEntity
  8
0
  6
Continuous
 62
     7
370
    15
100
AcDbLine
 10
250.2160727848
 20
148.4136071743
 30
0.0
 11
252.8148054947
 21
144.6800914348
 31
0.0
  0
ARC
  5
A6
330
1F
100
AcDbEntity
  8
0
  6
Continuous
 62
     7
370
    15
100
AcDbCircle
 10
251.015818959
 20
148.9806725779
 30
0.0
 40
0.9803862070853667
100
AcDbArc
 50
114.424473953
 51
215.3388036319
  0
LINE
  5
A7
330
1F
100
AcDbEntity
  8
0
  6
Continuous
 62
     7
370
    15
100
AcDbLine
 10
254.7166891267
 20
151.7198432923
 30
0.0
 11
250.6104357411
 21
149.8733211995
 31
0.0
  0
ARC
  5
A8
330
1F
100
AcDbEntity
  8
0
  6
Continuous
 62
     7
370
    15
100
AcDbCircle
 10
255.121247246
 20
150.8191290913
 30
0.0
 40
0.9873972573921564
100
AcDbArc
 50
94.1195424543
 51
114.1873559496
  0
LINE
  5
A9
330
1F
100
AcDbEntity
  8
0
  6
Continuous
 62
     7
370
    15
100
AcDbLine
 10
259.5638282468
 20
152.1311451436
 30
0.0
 11
255.0503149499
 21
151.8039752484
 31
0.0
  0
ARC
  5
AA
330
1F
100
AcDbEntity
  8
0
  6
Continuous
 62
     7
370
    15
100
AcDbCircle
 10
259.6360269782
 20
151.125133424
 30
0.0
 40
1.008599145713446
100
AcDbArc
 50
355.305001712
 51
94.1049247528
  0
LINE
  5
AB
330
1F
100
AcDbEntity
  8
0
  6
Continuous
 62
     7
370
    15
100
AcDbLine
 10
260.2463610341
 20
146.5541471482
 30
0.0
 11
260.6412418057
 21
151.0425780655
 31
0.0
  0
CIRCLE
  5
AC
330
1F
100
AcDbEntity
  8
0
  6
Continuous
 62
     7
370
    15
100
AcDbCircle
 10
256.0134863689
 20
147.5307808758
 30
0.0
 40
2.559761644392034
  0
SPLINE
  5
AD
330
1F
100
AcDbEntity
  8
0
  6
Continuous
 62
     7
370
    15
100
AcDbSpline
210
0.0
220
0.0
230
1.0
 70
     8
 71
     3
 72
    11
 73
     7
 74
     0
 42
0.00000001
 43
0.00000001
 12
1.0
 22
0.0
 32
0.0
 13
1.0
 23
0.0
 33
0.0
 40
0.0
 40
0.0
 40
0.0
 40
0.0
 40
0.0048794943872053
 40
0.3156494453395722
 40
0.6571806037172211
 40
1.0
 40
1.0
 40
1.0
 40
1.0
 10
257.7332056929399
 20
140.9215529204477
 30
0.0
 10
257.7336275727395
 20
140.9193319321941
 30
0.0
 10
257.7609185406523
 20
140.7756584991048
 30
0.0
 10
257.8260960751086
 20
140.4627690790712
 30
0.0
 10
257.9479219898229
 20
139.9631672229849
 30
0.0
 10
258.0439804958579
 20
139.6503043002403
 30
0.0
 10
258.0921001602937
 20
139.4935783685316
 30
0.0
  0
LINE
  5
AE
330
1F
100
AcDbEntity
  8
0
  6
Continuous
 62
     7
370
    15
100
AcDbLine
 10
261.8932224681
 20
145.8856326283
 30
0.0
 11
262.1819846203
 21
145.8313812257
 31
0.0
  0
ARC
  5
AF
330
1F
100
AcDbEntity
  8
0
  6
Continuous
 62
     7
370
    15
100
AcDbCircle
 10
257.8968730458
 20
138.0211349379
 30
0.0
 40
0.396393320440204
100
AcDbArc
 50
234.0716966272
 51
322.5728626307
  0
SPLINE
  5
B0
330
1F
100
AcDbEntity
  8
0
  6
Continuous
 62
     7
370
    15
100
AcDbSpline
210
0.0
220
0.0
230
1.0
 70
     8
 71
     3
 72
    11
 73
     7
 74
     0
 42
0.00000001
 43
0.00000001
 12
1.0
 22
0.0
 32
0.0
 13
1.0
 23
0.0
 33
0.0
 40
0.0
 40
0.0
 40
0.0
 40
0.0
 40
0.3219794415146021
 40
0.6440230292779613
 40
0.9911783216423674
 40
1.0
 40
1.0
 40
1.0
 40
1.0
 10
251.6694724430371
 20
143.3074560702909
 30
0.0
 10
251.7709082906851
 20
143.4045088397693
 30
0.0
 10
251.9738001945046
 20
143.5986337140322
 30
0.0
 10
252.3464567750288
 20
143.9643513553159
 30
0.0
 10
252.598078821093
 20
144.2153732974392
 30
0.0
 10
252.7206147306941
 20
144.3389223444588
 30
0.0
 10
252.7236513664056
 20
144.341984087335
 30
0.0
  0
SPLINE
  5
B1
330
1F
100
AcDbEntity
  8
0
  6
Continuous
 62
     7
370
    15
100
AcDbSpline
210
0.0
220
0.0
230
1.0
 70
     8
 71
     3
 72
    11
 73
     7
 74
     0
 42
0.00000001
 43
0.00000001
 12
1.0
 22
0.0
 32
0.0
 13
1.0
 23
0.0
 33
0.0
 40
0.0
 40
0.0
 40
0.0
 40
0.0
 40
0.3428193858031253
 40
0.6843508062670725
 40
0.9951187502595676
 40
1.0
 40
1.0
 40
1.0
 40
1.0
 10
247.9480787982274
 20
149.74259703766
 30
0.0
 10
248.1063237179406
 20
149.6908151834039
 30
0.0
 10
248.4222190344778
 20
149.5874460182469
 30
0.0
 10
248.9191111063126
 20
149.4619879309877
 30
0.0
 10
249.2276148060203
 20
149.3971869460065
 30
0.0
 10
249.3686641841088
 20
149.3708735287786
 30
0.0
 10
249.3708453943063
 20
149.3704666138757
 30
0.0
  0
LINE
  5
B2
330
1F
100
AcDbEntity
  8
0
  6
Continuous
 62
     7
370
    15
100
AcDbLine
 10
254.4089168181
 20
153.4474056901
 30
0.0
 11
254.3528772761
 21
153.7415210844
 31
0.0
  0
LWPOLYLINE
  5
B3
330
1F
100
AcDbEntity
  8
0
  6
Continuous
 62
     7
370
    15
100
AcDbPolyline
 90
        3
 70
   128
 43
0.0
 10
257.98045321
 20
147.5636821927
 10
257.7429361512
 20
148.1358569802
 10
257.5423292686
 20
148.4399002732
  0
ARC
  5
B4
330
1F
100
AcDbEntity
  8
0
  6
Continuous
 62
     7
370
    15
100
AcDbCircle
 10
255.461984315
 20
146.9395241543
 30
0.0
 40
2.52482216129825
100
AcDbArc
 50
99.8839870297
 51
133.4037076101
  0
ARC
  5
B5
330
1F
100
AcDbEntity
  8
0
  6
Continuous
 62
     7
370
    15
100
AcDbCircle
 10
255.5449262982
 20
146.8743645228
 30
0.0
 40
2.531195406948617
100
AcDbArc
 50
332.4976435811
 51
15.8028972995
  0
SPLINE
  5
B6
330
1F
100
AcDbEntity
  8
0
  6
Continuous
 62
     7
370
    15
100
AcDbSpline
210
0.0
220
0.0
230
1.0
 70
     8
 71
     3
 72
    11
 73
     7
 74
     0
 42
0.00000001
 43
0.00000001
 12
1.0
 22
0.0
 32
0.0
 13
1.0
 23
0.0
 33
0.0
 40
0.0
 40
0.0
 40
0.0
 40
0.0
 40
0.008822546968545
 40
0.3559977118558212
 40
0.6780411650834448
 40
1.0
 40
1.0
 40
1.0
 40
1.0
 10
260.4551114012529
 20
146.2916669190992
 30
0.0
 10
260.4586958741191
 20
146.2902750365228
 30
0.0
 10
260.6033325808579
 20
146.2341113216496
 30
0.0
 10
260.9181028953359
 20
146.1258918636707
 30
0.0
 10
261.4265190759736
 20
145.9823656184071
 30
0.0
 10
261.7376682984631
 20
145.9178741337342
 30
0.0
 10
261.8932224680711
 20
145.8856326283087
 30
0.0
  0
LINE
  5
B7
330
1F
100
AcDbEntity
  8
0
  6
Continuous
 62
     7
370
    15
100
AcDbLine
 10
261.805074649
 20
153.2369901181
 30
0.0
 11
262.4939478804
 21
153.9251965226
 31
0.0
  0
SPLINE
  5
B8
330
1F
100
AcDbEntity
  8
0
  6
Continuous
 62
     7
370
    15
100
AcDbSpline
210
0.0
220
0.0
230
1.0
 70
     8
 71
     3
 72
    11
 73
     7
 74
     0
 42
0.00000001
 43
0.00000001
 12
1.0
 22
0.0
 32
0.0
 13
1.0
 23
0.0
 33
0.0
 40
0.0
 40
0.0
 40
0.0
 40
0.0
 40
0.3224834454487671
 40
0.6449235643942726
 40
0.9911773483314535
 40
1.0
 40
1.0
 40
1.0
 40
1.0
 10
254.4089168180753
 20
153.447405690061
 30
0.0
 10
254.4415489138778
 20
153.2893068184797
 30
0.0
 10
254.5068087212746
 20
152.9731303163184
 30
0.0
 10
254.6434265745226
 20
152.4649906411063
 30
0.0
 10
254.7432131414143
 20
152.1546794171771
 30
0.0
 10
254.7940264585246
 20
152.013575518996
 30
0.0
 10
254.7952890266705
 20
152.0100694836248
 30
0.0
  0
SPLINE
  5
B9
330
1F
100
AcDbEntity
  8
0
  6
Continuous
 62
     7
370
    15
100
AcDbSpline
210
0.0
220
0.0
230
1.0
 70
     8
 71
     3
 72
    11
 73
     7
 74
     0
 42
0.00000001
 43
0.00000001
 12
1.0
 22
0.0
 32
0.0
 13
1.0
 23
0.0
 33
0.0
 40
0.0
 40
0.0
 40
0.0
 40
0.0
 40
0.004883200527621
 40
0.3156504434092375
 40
0.657177751432313
 40
1.0
 40
1.0
 40
1.0
 40
1.0
 10
260.7940383126069
 20
152.2511143923868
 30
0.0
 10
260.7954135390642
 20
152.2524187976485
 30
0.0
 10
260.8843082790183
 20
152.3367356502724
 30
0.0
 10
261.0862816078655
 20
152.5302395646753
 30
0.0
 10
261.4345610693993
 20
152.8688481366264
 30
0.0
 10
261.6814144221266
 20
153.1141214205515
 30
0.0
 10
261.8050746490289
 20
153.236990118133
 30
0.0
  0
LINE
  5
BA
330
1F
100
AcDbEntity
  8
0
  6
Continuous
 62
     7
370
    15
100
AcDbLine
 10
254.7093614806
 20
139.8035858513
 30
0.0
 11
257.0817567279
 21
138.1148204894
 31
0.0
  0
LINE
  5
BB
330
1F
100
AcDbEntity
  8
0
  6
Continuous
 62
     7
370
    15
100
AcDbLine
 10
254.4109769036
 20
139.0668184252
 30
0.0
 11
256.6155589988
 21
137.497508222
 31
0.0
  0
ARC
  5
BC
330
1F
100
AcDbEntity
  8
0
  6
Continuous
 62
     7
370
    15
100
AcDbCircle
 10
257.1972895275
 20
138.3012084054
 30
0.0
 40
0.9921413169749642
100
AcDbArc
 50
234.1024034742
 51
317.1112990859
  0
LINE
  5
BD
330
1F
100
AcDbEntity
  8
0
  6
Continuous
 62
     7
370
    15
100
AcDbLine
 10
197.8646892925
 20
129.2017151357
 30
0.0
 11
207.5227567797
 21
129.2017151357
 31
0.0
  0
LINE
  5
BE
330
1F
100
AcDbEntity
  8
0
  6
Continuous
 62
     7
370
    15
100
AcDbLine
 10
207.5227567797
 20
79.1647967638
 30
0.0
 11
207.5227567797
 21
129.2017151357
 31
0.0
  0
LINE
  5
BF
330
1F
100
AcDbEntity
  8
0
  6
Continuous
 62
     7
370
    15
100
AcDbLine
 10
207.5227567797
 20
79.1647967638
 30
0.0
 11
205.8646896725
 21
79.1647967638
 31
0.0
  0
SPLINE
  5
C0
330
1F
100
AcDbEntity
  8
0
  6
Continuous
 62
     7
370
    15
100
AcDbSpline
210
0.0
220
0.0
230
1.0
 70
     8
 71
     3
 72
    28
 73
    24
 74
     0
 42
0.00000001
 43
0.00000001
 12
1.0
 22
0.0
 32
0.0
 13
1.0
 23
0.0
 33
0.0
 40
0.0
 40
0.0
 40
0.0
 40
0.0
 40
0.1249999999999999
 40
0.1249999999999999
 40
0.1874999999999997
 40
0.1874999999999997
 40
0.2499999999999994
 40
0.2499999999999994
 40
0.3749999999999992
 40
0.3749999999999992
 40
0.4374999999999993
 40
0.4374999999999993
 40
0.4999999999999993
 40
0.4999999999999993
 40
0.6249999999999994
 40
0.6249999999999994
 40
0.7499999999999997
 40
0.7499999999999997
 40
0.8124999999999998
 40
0.8124999999999998
 40
0.8749999999999999
 40
0.8749999999999999
 40
1.0
 40
1.0
 40
1.0
 40
1.0
 10
205.8646893193055
 20
79.16479670033583
 30
0.0
 10
205.3329815618126
 20
79.16479670033583
 30
0.0
 10
204.8107429965022
 20
79.14901198638559
 30
0.0
 10
204.0408725102272
 20
79.10401657230938
 30
0.0
 10
203.7865129380359
 20
79.08546157723366
 30
0.0
 10
203.2823913573374
 20
79.04160885478719
 30
0.0
 10
203.0326685399095
 20
79.01626424783498
 30
0.0
 10
202.3070785884631
 20
78.93286217008486
 30
0.0
 10
201.8487183268815
 20
78.86699661093377
 30
0.0
 10
201.1982203834876
 20
78.75802627044199
 30
0.0
 10
200.9865383326952
 20
78.71978663467533
 30
0.0
 10
200.5824668435572
 20
78.64202789725599
 30
0.0
 10
200.3899603297363
 20
78.60252693508063
 30
0.0
 10
199.840125358715
 20
78.48361919271463
 30
0.0
 10
199.5101965804062
 20
78.40380151129001
 30
0.0
 10
198.9257253118375
 20
78.25045834949395
 30
0.0
 10
198.6794481738241
 20
78.1791245962247
 30
0.0
 10
198.379605381126
 20
78.08518108915008
 30
0.0
 10
198.2911485240539
 20
78.05598729579015
 30
0.0
 10
198.1377871707487
 20
78.00252072152674
 30
0.0
 10
198.0726989565225
 20
77.97816138725157
 30
0.0
 10
197.9171049405817
 20
77.91457124180684
 30
0.0
 10
197.8646893193055
 20
77.88446830671755
 30
0.0
 10
197.8646893193055
 20
77.86759141372063
 30
0.0
  0
LINE
  5
C1
330
1F
100
AcDbEntity
  8
0
  6
Continuous
 62
     7
370
    15
100
AcDbLine
 10
197.8646892925
 20
77.8675910772
 30
0.0
 11
197.8646892925
 21
77.8517138899
 31
0.0
  0
SPLINE
  5
C2
330
1F
100
AcDbEntity
  8
0
  6
Continuous
 62
     7
370
    15
100
AcDbSpline
210
0.0
220
0.0
230
1.0
 70
     8
 71
     3
 72
    17
 73
    13
 74
     0
 42
0.00000001
 43
0.00000001
 12
1.0
 22
0.0
 32
0.0
 13
1.0
 23
0.0
 33
0.0
 40
0.0
 40
0.0
 40
0.0
 40
0.0
 40
0.1034797280380778
 40
0.2100239090909901
 40
0.3134862262879433
 40
0.4198361712144981
 40
0.5254127947779869
 40
0.6339610881168427
 40
0.7409508662120068
 40
0.8511696072047016
 40
0.9558996557845765
 40
1.0
 40
1.0
 40
1.0
 40
1.0
 10
205.864689672463
 20
139.8189098329414
 30
0.0
 10
205.4294411807371
 20
139.8243578245791
 30
0.0
 10
204.5460547301601
 20
139.8354151449077
 30
0.0
 10
203.2652268679373
 20
139.9217739052827
 30
0.0
 10
202.0478106724954
 20
140.0496450484158
 30
0.0
 10
200.9400040561696
 20
140.2085894557342
 30
0.0
 10
199.9517655768408
 20
140.3830840287188
 30
0.0
 10
199.127042477025
 20
140.5522504619057
 30
0.0
 10
198.4780888195263
 20
140.7001312703734
 30
0.0
 10
198.0610535160467
 20
140.801922021896
 30
0.0
 10
197.8624567731687
 20
140.8522789215304
 30
0.0
 10
197.8857698901566
 20
140.8463693165549
 30
0.0
 10
197.892677864157
 20
140.8446182252039
 30
0.0
  0
LINE
  5
C3
330
1F
100
AcDbEntity
  8
0
  6
Continuous
 62
     7
370
    15
100
AcDbLine
 10
207.5227567797
 20
139.8189098329
 30
0.0
 11
205.8646896725
 21
139.8189098329
 31
0.0
  0
LINE
  5
C4
330
1F
100
AcDbEntity
  8
0
  6
Continuous
 62
     7
370
    15
100
AcDbLine
 10
207.5227567797
 20
133.8104040117
 30
0.0
 11
207.5227567797
 21
139.8189098329
 31
0.0
  0
LINE
  5
C5
330
1F
100
AcDbEntity
  8
0
  6
Continuous
 62
     7
370
    15
100
AcDbLine
 10
205.1103100051
 20
133.8104040117
 30
0.0
 11
207.5227567797
 21
133.8104040117
 31
0.0
  0
SPLINE
  5
C6
330
1F
100
AcDbEntity
  8
0
  6
Continuous
 62
     7
370
    15
100
AcDbSpline
210
0.0
220
0.0
230
1.0
 70
     8
 71
     3
 72
    20
 73
    16
 74
     0
 42
0.00000001
 43
0.00000001
 12
1.0
 22
0.0
 32
0.0
 13
1.0
 23
0.0
 33
0.0
 40
0.0
 40
0.0
 40
0.0
 40
0.0
 40
0.2499999999999994
 40
0.2499999999999994
 40
0.3749999999999994
 40
0.3749999999999994
 40
0.4999999999999996
 40
0.4999999999999996
 40
0.6249999999999996
 40
0.6249999999999996
 40
0.7499999999999997
 40
0.7499999999999997
 40
0.8749999999999999
 40
0.8749999999999999
 40
1.0
 40
1.0
 40
1.0
 40
1.0
 10
197.8646893193055
 20
129.201714396583
 30
0.0
 10
198.1130630535936
 20
129.8555768248804
 30
0.0
 10
198.4326331459388
 20
130.4593626068775
 30
0.0
 10
199.0549393791435
 20
131.2862013430461
 30
0.0
 10
199.2863636395743
 20
131.548629980999
 30
0.0
 10
199.807577979224
 20
132.045292635104
 30
0.0
 10
200.0941984618591
 20
132.2758795141255
 30
0.0
 10
200.7136832031667
 20
132.6924337387082
 30
0.0
 10
201.0479835826536
 20
132.8799315406756
 30
0.0
 10
201.7732440552784
 20
133.2113285183121
 30
0.0
 10
202.1551591126689
 20
133.3508325058073
 30
0.0
 10
202.9499472888406
 20
133.5762860132783
 30
0.0
 10
203.364105483047
 20
133.6629121248219
 30
0.0
 10
204.2296518236283
 20
133.780892913676
 30
0.0
 10
204.6675394386401
 20
133.8104040589504
 30
0.0
 10
205.1103096649948
 20
133.8104040589504
 30
0.0
  0
LINE
  5
C7
330
1F
100
AcDbEntity
  8
0
  6
Continuous
 62
     7
370
    15
100
AcDbLine
 10
209.0046893676
 20
81.8538770766
 30
0.0
 11
209.0046893676
 21
129.2017151357
 31
0.0
  0
SPLINE
  5
C8
330
1F
100
AcDbEntity
  8
0
  6
Continuous
 62
     7
370
    15
100
AcDbSpline
210
0.0
220
0.0
230
1.0
 70
     8
 71
     3
 72
     8
 73
     4
 74
     0
 42
0.00000001
 43
0.00000001
 12
1.0
 22
0.0
 32
0.0
 13
1.0
 23
0.0
 33
0.0
 40
0.0
 40
0.0
 40
0.0
 40
0.0
 40
1.0
 40
1.0
 40
1.0
 40
1.0
 10
209.0046893193055
 20
81.8538772375281
 30
0.0
 10
208.5123501965243
 20
80.9566072033214
 30
0.0
 10
208.0182361484822
 20
80.06032278826918
 30
0.0
 10
207.5227564878165
 20
79.16479670033583
 30
0.0
  0
SPLINE
  5
C9
330
1F
100
AcDbEntity
  8
0
  6
Continuous
 62
     7
370
    15
100
AcDbSpline
210
0.0
220
0.0
230
1.0
 70
    24
 71
     3
 72
     8
 73
     4
 74
     0
 42
0.00000001
 43
0.00000001
 12
1.0
 22
0.0
 32
0.0
 13
1.0
 23
0.0
 33
0.0
 40
0.0
 40
0.0
 40
0.0
 40
0.0
 40
1.0
 40
1.0
 40
1.0
 40
1.0
 10
207.5227564878165
 20
129.201714396583
 30
0.0
 10
208.029436595967
 20
129.201714396583
 30
0.0
 10
208.5247373249406
 20
129.201714396583
 30
0.0
 10
209.0046893193055
 20
129.201714396583
 30
0.0
  0
LINE
  5
CA
330
1F
100
AcDbEntity
  8
0
  6
Continuous
 62
     7
370
    15
100
AcDbLine
 10
214.3066212405
 20
79.1647967638
 30
0.0
 11
214.3066212405
 21
129.2017151357
 31
0.0
  0
SPLINE
  5
CB
330
1F
100
AcDbEntity
  8
0
  6
Continuous
 62
     7
370
    15
100
AcDbSpline
210
0.0
220
0.0
230
1.0
 70
     8
 71
     3
 72
     8
 73
     4
 74
     0
 42
0.00000001
 43
0.00000001
 12
1.0
 22
0.0
 32
0.0
 13
1.0
 23
0.0
 33
0.0
 40
0.0
 40
0.0
 40
0.0
 40
0.0
 40
1.0
 40
1.0
 40
1.0
 40
1.0
 10
214.3066221507945
 20
79.16479670033581
 30
0.0
 10
213.8111424901288
 20
80.06032278826916
 30
0.0
 10
213.3170284420867
 20
80.9566072033214
 30
0.0
 10
212.8246893193055
 20
81.85387723752808
 30
0.0
  0
LINE
  5
CC
330
1F
100
AcDbEntity
  8
0
  6
Continuous
 62
     7
370
    15
100
AcDbLine
 10
212.824689584
 20
81.8538770766
 30
0.0
 11
212.824689584
 21
129.2017151357
 31
0.0
  0
SPLINE
  5
CD
330
1F
100
AcDbEntity
  8
0
  6
Continuous
 62
     7
370
    15
100
AcDbSpline
210
0.0
220
0.0
230
1.0
 70
    24
 71
     3
 72
     8
 73
     4
 74
     0
 42
0.00000001
 43
0.00000001
 12
1.0
 22
0.0
 32
0.0
 13
1.0
 23
0.0
 33
0.0
 40
0.0
 40
0.0
 40
0.0
 40
0.0
 40
1.0
 40
1.0
 40
1.0
 40
1.0
 10
212.8246893193055
 20
129.201714396583
 30
0.0
 10
213.3046413136704
 20
129.201714396583
 30
0.0
 10
213.799942042644
 20
129.201714396583
 30
0.0
 10
214.3066221507945
 20
129.201714396583
 30
0.0
  0
LINE
  5
CE
330
1F
100
AcDbEntity
  8
0
  6
Continuous
 62
     7
370
    15
100
AcDbLine
 10
218.8646890094
 20
79.7914371581
 30
0.0
 11
218.8646890094
 21
129.2017151357
 31
0.0
  0
SPLINE
  5
CF
330
1F
100
AcDbEntity
  8
0
  6
Continuous
 62
     7
370
    15
100
AcDbSpline
210
0.0
220
0.0
230
1.0
 70
     8
 71
     3
 72
    10
 73
     6
 74
     0
 42
0.00000001
 43
0.00000001
 12
1.0
 22
0.0
 32
0.0
 13
1.0
 23
0.0
 33
0.0
 40
0.0
 40
0.0
 40
0.0
 40
0.0
 40
0.5
 40
0.5
 40
1.0
 40
1.0
 40
1.0
 40
1.0
 10
218.8646893193055
 20
79.79143699599014
 30
0.0
 10
218.8646893193055
 20
79.63154972779648
 30
0.0
 10
218.8033796680697
 20
79.4704224722819
 30
0.0
 10
218.5842800305346
 20
79.23632347392704
 30
0.0
 10
218.4262318242211
 20
79.16479670033583
 30
0.0
 10
218.2646893193055
 20
79.16479670033583
 30
0.0
  0
SPLINE
  5
D0
330
1F
100
AcDbEntity
  8
0
  6
Continuous
 62
     7
370
    15
100
AcDbSpline
210
0.0
220
0.0
230
1.0
 70
    24
 71
     3
 72
    12
 73
     8
 74
     0
 42
0.00000001
 43
0.00000001
 12
1.0
 22
0.0
 32
0.0
 13
1.0
 23
0.0
 33
0.0
 40
0.0
 40
0.0
 40
0.0
 40
0.0
 40
0.2499999999999993
 40
0.2499999999999993
 40
0.4999999999999987
 40
0.4999999999999987
 40
1.0
 40
1.0
 40
1.0
 40
1.0
 10
218.2646893193055
 20
129.201714396583
 30
0.0
 10
218.3549283869926
 20
129.201714396583
 30
0.0
 10
218.445826501099
 20
129.201714396583
 30
0.0
 10
218.6004235375876
 20
129.201714396583
 30
0.0
 10
218.6654019536957
 20
129.201714396583
 30
0.0
 10
218.8172369816319
 20
129.201714396583
 30
0.0
 10
218.8646893193055
 20
129.201714396583
 30
0.0
 10
218.8646893193055
 20
129.201714396583
 30
0.0
  0
LINE
  5
D1
330
1F
100
AcDbEntity
  8
0
  6
Continuous
 62
     7
370
    15
100
AcDbLine
 10
192.9146893193
 20
78.151715243
 30
0.0
 11
192.9146893193
 21
140.5517135502
 31
0.0
  0
LINE
  5
D2
330
1F
100
AcDbEntity
  8
0
  6
Continuous
 62
     7
370
    15
100
AcDbLine
 10
218.2646900286
 20
79.1647967638
 30
0.0
 11
214.3066212405
 21
79.1647967638
 31
0.0
  0
LINE
  5
D3
330
1F
100
AcDbEntity
  8
0
  6
Continuous
 62
     7
370
    15
100
AcDbLine
 10
214.3066212405
 20
129.2017151357
 30
0.0
 11
218.2646900286
 21
129.2017151357
 31
0.0
  0
SPLINE
  5
D4
330
1F
100
AcDbEntity
  8
0
  6
Continuous
 62
     7
370
    15
100
AcDbSpline
210
0.0
220
0.0
230
1.0
 70
    24
 71
     3
 72
    14
 73
    10
 74
     0
 42
0.00000001
 43
0.00000001
 12
1.0
 22
0.0
 32
0.0
 13
1.0
 23
0.0
 33
0.0
 40
0.0
 40
0.0
 40
0.0
 40
0.0
 40
0.5000000000000016
 40
0.5000000000000016
 40
0.7500000000000008
 40
0.7500000000000008
 40
0.8750000000000003
 40
0.8750000000000003
 40
1.0
 40
1.0
 40
1.0
 40
1.0
 10
212.7270145169732
 20
82.95171439658296
 30
0.0
 10
212.680229811925
 20
82.95171439658294
 30
0.0
 10
212.6181786151454
 20
82.95171439658294
 30
0.0
 10
212.4747869765948
 20
82.95171439658296
 30
0.0
 10
212.4186433230436
 20
82.95171439658296
 30
0.0
 10
212.3056923009074
 20
82.95171439658294
 30
0.0
 10
212.2626915388693
 20
82.95171439658294
 30
0.0
 10
212.1586288285629
 20
82.95171439658294
 30
0.0
 10
212.0932965902059
 20
82.95171439658294
 30
0.0
 10
212.0246893193055
 20
82.95171439658296
 30
0.0
  0
SPLINE
  5
D5
330
1F
100
AcDbEntity
  8
0
  6
Continuous
 62
     7
370
    15
100
AcDbSpline
210
0.0
220
0.0
230
1.0
 70
    24
 71
     3
 72
    12
 73
     8
 74
     0
 42
0.00000001
 43
0.00000001
 12
1.0
 22
0.0
 32
0.0
 13
1.0
 23
0.0
 33
0.0
 40
0.0
 40
0.0
 40
0.0
 40
0.0
 40
0.4999999999999983
 40
0.4999999999999983
 40
0.7499999999999991
 40
0.7499999999999991
 40
1.0
 40
1.0
 40
1.0
 40
1.0
 10
212.4303917876145
 20
135.751714396583
 30
0.0
 10
212.3873062380038
 20
135.751714396583
 30
0.0
 10
212.3381540362567
 20
135.751714396583
 30
0.0
 10
212.2416814419671
 20
135.751714396583
 30
0.0
 10
212.2055798568329
 20
135.751714396583
 30
0.0
 10
212.1224740989703
 20
135.751714396583
 30
0.0
 10
212.0744775020063
 20
135.751714396583
 30
0.0
 10
212.0246893193055
 20
135.751714396583
 30
0.0
  0
SPLINE
  5
D6
330
1F
100
AcDbEntity
  8
0
  6
Continuous
 62
     7
370
    15
100
AcDbSpline
210
0.0
220
0.0
230
1.0
 70
     8
 71
     3
 72
    10
 73
     6
 74
     0
 42
0.00000001
 43
0.00000001
 12
1.0
 22
0.0
 32
0.0
 13
1.0
 23
0.0
 33
0.0
 40
0.0
 40
0.0
 40
0.0
 40
0.0
 40
0.5
 40
0.5
 40
1.0
 40
1.0
 40
1.0
 40
1.0
 10
212.8246893193055
 20
136.4713682476188
 30
0.0
 10
212.8246893193055
 20
136.3275981898007
 30
0.0
 10
212.7886402605866
 20
136.1851788273056
 30
0.0
 10
212.6531313998126
 20
135.9352845339484
 30
0.0
 10
212.5532554067164
 20
135.8272541977002
 30
0.0
 10
212.4303917876145
 20
135.751714396583
 30
0.0
  0
SPLINE
  5
D7
330
1F
100
AcDbEntity
  8
0
  6
Continuous
 62
     7
370
    15
100
AcDbSpline
210
0.0
220
0.0
230
1.0
 70
     8
 71
     3
 72
    10
 73
     6
 74
     0
 42
0.00000001
 43
0.00000001
 12
1.0
 22
0.0
 32
0.0
 13
1.0
 23
0.0
 33
0.0
 40
0.0
 40
0.0
 40
0.0
 40
0.0
 40
0.5
 40
0.5
 40
1.0
 40
1.0
 40
1.0
 40
1.0
 10
212.7985416961454
 20
129.201714396583
 30
0.0
 10
212.807231339057
 20
129.2485932459011
 30
0.0
 10
212.8137704038075
 20
129.2960157113024
 30
0.0
 10
212.8225290382006
 20
129.3919525098891
 30
0.0
 10
212.8246893193055
 20
129.4398677978996
 30
0.0
 10
212.8246893193055
 20
129.4875810280441
 30
0.0
  0
SPLINE
  5
D8
330
1F
100
AcDbEntity
  8
0
  6
Continuous
 62
     7
370
    15
100
AcDbSpline
210
0.0
220
0.0
230
1.0
 70
     8
 71
     3
 72
    10
 73
     6
 74
     0
 42
0.00000001
 43
0.00000001
 12
1.0
 22
0.0
 32
0.0
 13
1.0
 23
0.0
 33
0.0
 40
0.0
 40
0.0
 40
0.0
 40
0.0
 40
0.5
 40
0.5
 40
1.0
 40
1.0
 40
1.0
 40
1.0
 10
209.3989868509964
 20
135.751714396583
 30
0.0
 10
209.2774465873279
 20
135.8264405637947
 30
0.0
 10
209.176112226979
 20
135.9353855797115
 30
0.0
 10
209.0404732840906
 20
136.1858160604731
 30
0.0
 10
209.0046893193055
 20
136.328235422572
 30
0.0
 10
209.0046893193055
 20
136.4713682476188
 30
0.0
  0
SPLINE
  5
D9
330
1F
100
AcDbEntity
  8
0
  6
Continuous
 62
     7
370
    15
100
AcDbSpline
210
0.0
220
0.0
230
1.0
 70
    24
 71
     3
 72
    12
 73
     8
 74
     0
 42
0.00000001
 43
0.00000001
 12
1.0
 22
0.0
 32
0.0
 13
1.0
 23
0.0
 33
0.0
 40
0.0
 40
0.0
 40
0.0
 40
0.0
 40
0.2500000000000021
 40
0.2500000000000021
 40
0.5000000000000041
 40
0.5000000000000041
 40
1.0
 40
1.0
 40
1.0
 40
1.0
 10
209.8046893193055
 20
135.751714396583
 30
0.0
 10
209.7553459574959
 20
135.751714396583
 30
0.0
 10
209.7066552591943
 20
135.751714396583
 30
0.0
 10
209.6238041616238
 20
135.751714396583
 30
0.0
 10
209.5876041940032
 20
135.751714396583
 30
0.0
 10
209.4918542774539
 20
135.751714396583
 30
0.0
 10
209.4419723076417
 20
135.751714396583
 30
0.0
 10
209.3989868509964
 20
135.751714396583
 30
0.0
  0
SPLINE
  5
DA
330
1F
100
AcDbEntity
  8
0
  6
Continuous
 62
     7
370
    15
100
AcDbSpline
210
0.0
220
0.0
230
1.0
 70
    24
 71
     3
 72
    14
 73
    10
 74
     0
 42
0.00000001
 43
0.00000001
 12
1.0
 22
0.0
 32
0.0
 13
1.0
 23
0.0
 33
0.0
 40
0.0
 40
0.0
 40
0.0
 40
0.0
 40
0.1250000000000004
 40
0.1250000000000004
 40
0.2500000000000007
 40
0.2500000000000007
 40
0.5000000000000014
 40
0.5000000000000014
 40
1.0
 40
1.0
 40
1.0
 40
1.0
 10
209.8046893193055
 20
82.95171439658296
 30
0.0
 10
209.7353425975743
 20
82.95171439658296
 30
0.0
 10
209.6701445441904
 20
82.95171439658296
 30
0.0
 10
209.5657653515634
 20
82.95171439658296
 30
0.0
 10
209.5228629805544
 20
82.95171439658296
 30
0.0
 10
209.4105373229497
 20
82.95171439658296
 30
0.0
 10
209.3553136285959
 20
82.95171439658296
 30
0.0
 10
209.2112562498284
 20
82.95171439658294
 30
0.0
 10
209.1491755529969
 20
82.95171439658296
 30
0.0
 10
209.1023641216378
 20
82.95171439658296
 30
0.0
  0
SPLINE
  5
DB
330
1F
100
AcDbEntity
  8
0
  6
Continuous
 62
     7
370
    15
100
AcDbSpline
210
0.0
220
0.0
230
1.0
 70
     8
 71
     3
 72
     9
 73
     5
 74
     0
 42
0.00000001
 43
0.00000001
 12
1.0
 22
0.0
 32
0.0
 13
1.0
 23
0.0
 33
0.0
 40
0.0
 40
0.0
 40
0.0
 40
0.0
 40
0.5
 40
1.0
 40
1.0
 40
1.0
 40
1.0
 10
209.0046893193055
 20
129.4875810280444
 30
0.0
 10
209.0046893193055
 20
129.4393489759216
 30
0.0
 10
209.0090952940106
 20
129.343478962482
 30
0.0
 10
209.0221144741045
 20
129.2487703324987
 30
0.0
 10
209.0308369424656
 20
129.201714396583
 30
0.0
  0
LINE
  5
DC
330
1F
100
AcDbEntity
  8
0
  6
Continuous
 62
     7
370
    15
100
AcDbLine
 10
212.0246890803
 20
135.7517142535
 30
0.0
 11
209.8046898712
 21
135.7517142535
 31
0.0
  0
LINE
  5
DD
330
1F
100
AcDbEntity
  8
0
  6
Continuous
 62
     7
370
    15
100
AcDbLine
 10
212.0246890803
 20
82.9517145396
 30
0.0
 11
209.8046898712
 21
82.9517145396
 31
0.0
  0
LINE
  5
DE
330
1F
100
AcDbEntity
  8
0
  6
Continuous
 62
     7
370
    15
100
AcDbLine
 10
219.0646886696
 20
135.7517142535
 30
0.0
 11
219.0260015299
 21
135.7517142535
 31
0.0
  0
LINE
  5
DF
330
1F
100
AcDbEntity
  8
0
  6
Continuous
 62
     7
370
    15
100
AcDbLine
 10
219.0646886696
 20
82.9517145396
 30
0.0
 11
219.02183293
 21
82.9517145396
 31
0.0
  0
ELLIPSE
  5
E0
330
1F
100
AcDbEntity
  8
0
  6
Continuous
 62
     7
370
    15
100
AcDbEllipse
 10
319.6311198634
 20
109.3517143966
 30
0.0
 11
247.373182929499
 21
-3.65811588828916
 31
0.0
210
0.0
220
0.0
230
1.0
 40
0.1040588589
 41
1.925176555360023
 42
1.925743430619038
  0
SPLINE
  5
E1
330
1F
100
AcDbEntity
  8
0
  6
Continuous
 62
     7
370
    15
100
AcDbSpline
210
0.0
220
0.0
230
1.0
 70
     8
 71
     3
 72
    16
 73
    12
 74
     0
 42
0.00000001
 43
0.00000001
 12
1.0
 22
0.0
 32
0.0
 13
1.0
 23
0.0
 33
0.0
 40
0.0
 40
0.0
 40
0.0
 40
0.0
 40
0.2500000000000003
 40
0.2500000000000003
 40
0.5000000000000006
 40
0.5000000000000006
 40
0.7500000000000009
 40
0.7500000000000009
 40
0.8750000000000004
 40
0.8750000000000004
 40
1.0
 40
1.0
 40
1.0
 40
1.0
 10
234.0157850888995
 20
134.7598383162966
 30
0.0
 10
233.3799624558121
 20
134.744726406188
 30
0.0
 10
232.7740851778925
 20
134.7079751074304
 30
0.0
 10
231.6212226503204
 20
134.5799124655299
 30
0.0
 10
231.104831204948
 20
134.4915994353715
 30
0.0
 10
230.1905228512108
 20
134.2488705321317
 30
0.0
 10
229.8134721092721
 20
134.0995181959004
 30
0.0
 10
229.359767864208
 20
133.8236718164262
 30
0.0
 10
229.2292240654116
 20
133.7240172568594
 30
0.0
 10
229.0090470013048
 20
133.5107476543452
 30
0.0
 10
228.9188291258936
 20
133.3967726185981
 30
0.0
 10
228.847400910771
 20
133.2749065228699
 30
0.0
  0
ELLIPSE
  5
E2
330
1F
100
AcDbEntity
  8
0
  6
Continuous
 62
     7
370
    15
100
AcDbEllipse
 10
232.441336814
 20
109.3517143966
 30
0.0
 11
-1.042831651421551
 21
25.99853192068937
 31
0.0
210
0.0
220
0.0
230
1.0
 40
0.2649452246
 41
0.3917755977661336
 42
2.449310647313272
  0
SPLINE
  5
E3
330
1F
100
AcDbEntity
  8
0
  6
Continuous
 62
     7
370
    15
100
AcDbSpline
210
0.0
220
0.0
230
1.0
 70
     8
 71
     3
 72
    20
 73
    16
 74
     0
 42
0.00000001
 43
0.00000001
 12
1.0
 22
0.0
 32
0.0
 13
1.0
 23
0.0
 33
0.0
 40
0.0
 40
0.0
 40
0.0
 40
0.0
 40
0.249999999999999
 40
0.249999999999999
 40
0.3749999999999992
 40
0.3749999999999992
 40
0.4999999999999993
 40
0.4999999999999993
 40
0.6249999999999994
 40
0.6249999999999994
 40
0.7499999999999997
 40
0.7499999999999997
 40
0.8749999999999998
 40
0.8749999999999998
 40
1.0
 40
1.0
 40
1.0
 40
1.0
 10
228.847400910771
 20
89.16191067702404
 30
0.0
 10
228.9903488145153
 20
88.76952782726255
 30
0.0
 10
229.2069460264188
 20
88.413723936712
 30
0.0
 10
229.6579525897945
 20
87.93085592279687
 30
0.0
 10
229.8303179685914
 20
87.77840415493682
 30
0.0
 10
230.2082918280399
 20
87.50014334376716
 30
0.0
 10
230.4150824843599
 20
87.37283791979526
 30
0.0
 10
230.8657449641771
 20
87.14034938734936
 30
0.0
 10
231.1121959958465
 20
87.034298296016
 30
0.0
 10
231.6324704854186
 20
86.84869592239149
 30
0.0
 10
231.9046255535412
 20
86.76930968156344
 30
0.0
 10
232.4727992601671
 20
86.63497931820996
 30
0.0
 10
232.7700359039203
 20
86.57986484481397
 30
0.0
 10
233.3846420477572
 20
86.49471045880078
 30
0.0
 10
233.6974411918883
 20
86.46517782212977
 30
0.0
 10
234.0157850888995
 20
86.4482983189176
 30
0.0
  0
ELLIPSE
  5
E4
330
1F
100
AcDbEntity
  8
0
  6
Continuous
 62
     7
370
    15
100
AcDbEllipse
 10
319.6311198634
 20
109.3517143966
 30
0.0
 11
247.373182929499
 21
-3.65811588828916
 31
0.0
210
0.0
220
0.0
230
1.0
 40
0.1040588589
 41
4.360519486349281
 42
4.361086361608296
  0
ELLIPSE
  5
E5
330
1F
100
AcDbEntity
  8
0
  6
Continuous
 62
     7
370
    15
100
AcDbEllipse
 10
227.8607296104
 20
122.845424111
 30
0.0
 11
0.2326802956778523
 21
3.496204983988562
 31
0.0
210
0.0
220
0.0
230
1.0
 40
0.2082684553
 41
0.0
 42
6.283185307179586
  0
LINE
  5
E6
330
1F
100
AcDbEntity
  8
0
  6
Continuous
 62
     7
370
    15
100
AcDbLine
 10
190.9146892243
 20
85.1312831731
 30
0.0
 11
190.9146892243
 21
133.5721456201
 31
0.0
  0
LINE
  5
E7
330
1F
100
AcDbEntity
  8
0
  6
Continuous
 62
     7
370
    15
100
AcDbLine
 10
171.1146890988
 20
86.1232683749
 30
0.0
 11
171.1146890988
 21
87.4065656901
 31
0.0
  0
SPLINE
  5
E8
330
1F
100
AcDbEntity
  8
0
  6
Continuous
 62
     7
370
    15
100
AcDbSpline
210
0.0
220
0.0
230
1.0
 70
     8
 71
     3
 72
    14
 73
    10
 74
     0
 42
0.00000001
 43
0.00000001
 12
1.0
 22
0.0
 32
0.0
 13
1.0
 23
0.0
 33
0.0
 40
0.0
 40
0.0
 40
0.0
 40
0.0
 40
0.25
 40
0.25
 40
0.5
 40
0.5
 40
0.75
 40
0.75
 40
1.0
 40
1.0
 40
1.0
 40
1.0
 10
170.4930850825657
 20
88.48734317929974
 30
0.0
 10
170.5315214673867
 20
88.38471878158819
 30
0.0
 10
170.6003228607785
 20
88.28552235814863
 30
0.0
 10
170.7436088729375
 20
88.09463032882213
 30
0.0
 10
170.8187909280444
 20
88.00237306278922
 30
0.0
 10
170.9509782166946
 20
87.82276574097422
 30
0.0
 10
171.0084954121644
 20
87.73545618652986
 30
0.0
 10
171.0905402104567
 20
87.56552235301413
 30
0.0
 10
171.1146893193055
 20
87.48362001114296
 30
0.0
 10
171.1146893193055
 20
87.40656613730705
 30
0.0
  0
SPLINE
  5
E9
330
1F
100
AcDbEntity
  8
0
  6
Continuous
 62
     7
370
    15
100
AcDbSpline
210
0.0
220
0.0
230
1.0
 70
     8
 71
     3
 72
    18
 73
    14
 74
     0
 42
0.00000001
 43
0.00000001
 12
1.0
 22
0.0
 32
0.0
 13
1.0
 23
0.0
 33
0.0
 40
0.0
 40
0.0
 40
0.0
 40
0.0
 40
0.0624999999999997
 40
0.0624999999999997
 40
0.1249999999999994
 40
0.1249999999999994
 40
0.2500000000000005
 40
0.2500000000000005
 40
0.5000000000000003
 40
0.5000000000000003
 40
0.7500000000000001
 40
0.7500000000000001
 40
1.0
 40
1.0
 40
1.0
 40
1.0
 10
169.7146893193055
 20
89.20562563078636
 30
0.0
 10
169.7512615296559
 20
89.20940303431381
 30
0.0
 10
169.7899120030914
 20
89.20884600643068
 30
0.0
 10
169.8640034968052
 20
89.19878680126881
 30
0.0
 10
169.8993537905593
 20
89.18943291984424
 30
0.0
 10
169.9939480879487
 20
89.1550484934104
 30
0.0
 10
170.0440862610877
 20
89.12433675874759
 30
0.0
 10
170.1732795326689
 20
89.02840744870954
 30
0.0
 10
170.23155967741
 20
88.9598919545923
 30
0.0
 10
170.3317547738334
 20
88.82332000465968
 30
0.0
 10
170.3717700252801
 20
88.75455510215677
 30
0.0
 10
170.4401694460979
 20
88.6195196730491
 30
0.0
 10
170.4685311699598
 20
88.55290164699596
 30
0.0
 10
170.4930850825657
 20
88.48734317929974
 30
0.0
  0
SPLINE
  5
EA
330
1F
100
AcDbEntity
  8
0
  6
Continuous
 62
     7
370
    15
100
AcDbSpline
210
0.0
220
0.0
230
1.0
 70
     8
 71
     3
 72
    10
 73
     6
 74
     0
 42
0.00000001
 43
0.00000001
 12
1.0
 22
0.0
 32
0.0
 13
1.0
 23
0.0
 33
0.0
 40
0.0
 40
0.0
 40
0.0
 40
0.0
 40
0.5
 40
0.5
 40
1.0
 40
1.0
 40
1.0
 40
1.0
 10
165.8010874581835
 20
88.70943197441473
 30
0.0
 10
166.4287151138909
 20
88.81270553315032
 30
0.0
 10
167.0799158589223
 20
88.90153064490185
 30
0.0
 10
168.3886205629346
 20
89.0636383517722
 30
0.0
 10
169.0496650002258
 20
89.13693781605878
 30
0.0
 10
169.7146893193054
 20
89.20562563078646
 30
0.0
  0
SPLINE
  5
EB
330
1F
100
AcDbEntity
  8
0
  6
Continuous
 62
     7
370
    15
100
AcDbSpline
210
0.0
220
0.0
230
1.0
 70
     8
 71
     3
 72
    14
 73
    10
 74
     0
 42
0.00000001
 43
0.00000001
 12
1.0
 22
0.0
 32
0.0
 13
1.0
 23
0.0
 33
0.0
 40
0.0
 40
0.0
 40
0.0
 40
0.0
 40
0.5000000000000016
 40
0.5000000000000016
 40
0.7500000000000008
 40
0.7500000000000008
 40
0.8750000000000003
 40
0.8750000000000003
 40
1.0
 40
1.0
 40
1.0
 40
1.0
 10
162.1646893193055
 20
88.54508283805541
 30
0.0
 10
162.7807662230608
 20
88.55080895828456
 30
0.0
 10
163.3948982191767
 20
88.56069932368656
 30
0.0
 10
164.3087948496902
 20
88.59133429135636
 30
0.0
 10
164.6122337772378
 20
88.60412774899434
 30
0.0
 10
165.0633703928753
 20
88.63205357695374
 30
0.0
 10
165.2130766424179
 20
88.6428231971135
 30
0.0
 10
165.5099177786659
 20
88.66995591271304
 30
0.0
 10
165.6573033311692
 20
88.68577288554027
 30
0.0
 10
165.8010874581835
 20
88.70943197441476
 30
0.0
  0
SPLINE
  5
EC
330
1F
100
AcDbEntity
  8
0
  6
Continuous
 62
     7
370
    15
100
AcDbSpline
210
0.0
220
0.0
230
1.0
 70
     8
 71
     3
 72
     8
 73
     4
 74
     0
 42
0.00000001
 43
0.00000001
 12
1.0
 22
0.0
 32
0.0
 13
1.0
 23
0.0
 33
0.0
 40
0.0000005954826279
 40
0.0000005954826279
 40
0.0000005954826279
 40
0.0000005954826279
 40
0.0000302093805348
 40
0.0000302093805348
 40
0.0000302093805348
 40
0.0000302093805348
 10
162.1546443888959
 20
88.55689796770729
 30
0.0
 10
162.1579604162161
 20
88.55295118811149
 30
0.0
 10
162.1613089676084
 20
88.54901279698156
 30
0.0
 10
162.1646893193054
 20
88.5450828380554
 30
0.0
  0
SPLINE
  5
ED
330
1F
100
AcDbEntity
  8
0
  6
Continuous
 62
     7
370
    15
100
AcDbSpline
210
0.0
220
0.0
230
1.0
 70
     8
 71
     3
 72
     8
 73
     4
 74
     0
 42
0.00000001
 43
0.00000001
 12
1.0
 22
0.0
 32
0.0
 13
1.0
 23
0.0
 33
0.0
 40
0.0000005099763573
 40
0.0000005099763573
 40
0.0000005099763573
 40
0.0000005099763573
 40
0.0000262827998699
 40
0.0000262827998699
 40
0.0000262827998699
 40
0.0000262827998699
 10
162.1646893193055
 20
130.221652161978
 30
0.0
 10
162.1613205800777
 20
130.2183304930221
 30
0.0
 10
162.1579721270986
 20
130.2150025357433
 30
0.0
 10
162.1546443888872
 20
130.2116682888706
 30
0.0
  0
SPLINE
  5
EE
330
1F
100
AcDbEntity
  8
0
  6
Continuous
 62
     7
370
    15
100
AcDbSpline
210
0.0
220
0.0
230
1.0
 70
     8
 71
     3
 72
    10
 73
     6
 74
     0
 42
0.00000001
 43
0.00000001
 12
1.0
 22
0.0
 32
0.0
 13
1.0
 23
0.0
 33
0.0
 40
0.0
 40
0.0
 40
0.0
 40
0.0
 40
0.5
 40
0.5
 40
1.0
 40
1.0
 40
1.0
 40
1.0
 10
165.7146893193055
 20
130.1748017884107
 30
0.0
 10
165.1271037722149
 20
130.1958673086471
 30
0.0
 10
164.5363573787545
 20
130.2066257945193
 30
0.0
 10
163.3523382134557
 20
130.219990575055
 30
0.0
 10
162.7589242252502
 20
130.2221332177196
 30
0.0
 10
162.1646893193055
 20
130.221652161978
 30
0.0
  0
SPLINE
  5
EF
330
1F
100
AcDbEntity
  8
0
  6
Continuous
 62
     7
370
    15
100
AcDbSpline
210
0.0
220
0.0
230
1.0
 70
     8
 71
     3
 72
    18
 73
    14
 74
     0
 42
0.00000001
 43
0.00000001
 12
1.0
 22
0.0
 32
0.0
 13
1.0
 23
0.0
 33
0.0
 40
0.0
 40
0.0
 40
0.0
 40
0.0
 40
0.2499999999999999
 40
0.2499999999999999
 40
0.4999999999999998
 40
0.4999999999999998
 40
0.7499999999999997
 40
0.7499999999999997
 40
0.8749999999999991
 40
0.8749999999999991
 40
0.9374999999999996
 40
0.9374999999999996
 40
1.0
 40
1.0
 40
1.0
 40
1.0
 10
167.1146893193055
 20
131.1958220689459
 30
0.0
 10
167.1146893193055
 20
131.1126151600887
 30
0.0
 10
167.0788402193673
 20
131.0238785047752
 30
0.0
 10
166.9539684833333
 20
130.8417533142149
 30
0.0
 10
166.8635680656855
 20
130.7466232655883
 30
0.0
 10
166.6413254109433
 20
130.557441756464
 30
0.0
 10
166.5115606244975
 20
130.4624965883693
 30
0.0
 10
166.270923167186
 20
130.3242178807893
 30
0.0
 10
166.1831558690485
 20
130.278507447487
 30
0.0
 10
166.0286317818417
 20
130.2206841422655
 30
0.0
 10
165.972020895787
 20
130.2029693782276
 30
0.0
 10
165.8479768648804
 20
130.1784300749947
 30
0.0
 10
165.7802621898621
 20
130.1724509364565
 30
0.0
 10
165.7146893193055
 20
130.1748017884107
 30
0.0
  0
LINE
  5
F0
330
1F
100
AcDbEntity
  8
0
  6
Continuous
 62
     7
370
    15
100
AcDbLine
 10
167.1146884431
 20
131.1958220543
 30
0.0
 11
167.1146884431
 21
132.3797602893
 31
0.0
  0
SPLINE
  5
F1
330
1F
100
AcDbEntity
  8
0
  6
Continuous
 62
     7
370
    15
100
AcDbSpline
210
0.0
220
0.0
230
1.0
 70
     8
 71
     3
 72
    24
 73
    20
 74
     0
 42
0.00000001
 43
0.00000001
 12
1.0
 22
0.0
 32
0.0
 13
1.0
 23
0.0
 33
0.0
 40
0.0
 40
0.0
 40
0.0
 40
0.0
 40
0.0010489815523775
 40
0.0637843212772741
 40
0.1272220630088516
 40
0.1903789073370505
 40
0.2526748662763491
 40
0.3146354150030102
 40
0.3770891884518245
 40
0.4393540587943444
 40
0.5008133488401828
 40
0.5621845177353679
 40
0.6248438462901906
 40
0.6874304788646655
 40
0.7496743245911356
 40
0.811984857412469
 40
0.8750960476811308
 40
0.9384412548145236
 40
1.0
 40
1.0
 40
1.0
 40
1.0
 10
179.6835953240324
 20
85.6942062021364
 30
0.0
 10
179.6831486582817
 20
85.69414755716991
 30
0.0
 10
179.655988722358
 20
85.69058159418923
 30
0.0
 10
179.7516186454899
 20
85.70344620366444
 30
0.0
 10
179.9851718215104
 20
85.7326806860045
 30
0.0
 10
180.3807277737448
 20
85.77929989674591
 30
0.0
 10
180.9077677741148
 20
85.82948069617107
 30
0.0
 10
181.551298215951
 20
85.87385936961412
 30
0.0
 10
182.2899720502208
 20
85.90080256612492
 30
0.0
 10
183.0874867203397
 20
85.90427431442706
 30
0.0
 10
183.9140657701042
 20
85.87664886813363
 30
0.0
 10
184.7395885915229
 20
85.81816772515499
 30
0.0
 10
185.5317150624385
 20
85.73272466175641
 30
0.0
 10
186.2642874412759
 20
85.6309894932639
 30
0.0
 10
186.8999276230966
 20
85.52314584221597
 30
0.0
 10
187.4218385536428
 20
85.42151444694115
 30
0.0
 10
187.8034673912818
 20
85.33903248264863
 30
0.0
 10
188.0542820672151
 20
85.28288037514173
 30
0.0
 10
188.0834033829224
 20
85.27603152422886
 30
0.0
 10
188.0977557842661
 20
85.27265607725275
 30
0.0
  0
SPLINE
  5
F2
330
1F
100
AcDbEntity
  8
0
  6
Continuous
 62
     7
370
    15
100
AcDbSpline
210
0.0
220
0.0
230
1.0
 70
     8
 71
     3
 72
    24
 73
    20
 74
     0
 42
0.00000001
 43
0.00000001
 12
1.0
 22
0.0
 32
0.0
 13
1.0
 23
0.0
 33
0.0
 40
0.0
 40
0.0
 40
0.0
 40
0.0
 40
0.061438429114026
 40
0.1250736777967296
 40
0.1884253375120635
 40
0.2508623992448768
 40
0.3129665476325514
 40
0.3753451442328022
 40
0.4377328732174486
 40
0.499092717251918
 40
0.560580729454827
 40
0.622946985474185
 40
0.6854686070210457
 40
0.7475477863222202
 40
0.8098225081553685
 40
0.873068419947611
 40
0.936404185690527
 40
0.9991757203144552
 40
1.0
 40
1.0
 40
1.0
 40
1.0
 10
188.0977013018955
 20
133.4307429135908
 30
0.0
 10
188.0831004934433
 20
133.4273747557178
 30
0.0
 10
188.0533768035922
 20
133.4205180066334
 30
0.0
 10
187.8006388036063
 20
133.3641801867373
 30
0.0
 10
187.4176435045852
 20
133.2813223738521
 30
0.0
 10
186.8952875477022
 20
133.179415625631
 30
0.0
 10
186.2605032030006
 20
133.071577055742
 30
0.0
 10
185.5302794663864
 20
132.970110802513
 30
0.0
 10
184.7398113714753
 20
132.8850487239458
 30
0.0
 10
183.9153276440176
 20
132.8268473669892
 30
0.0
 10
183.0882912635375
 20
132.7992629193046
 30
0.0
 10
182.2899668045471
 20
132.8027568478388
 30
0.0
 10
181.5501430535475
 20
132.8297105065125
 30
0.0
 10
180.9058881820879
 20
132.8740660071259
 30
0.0
 10
180.3784813249903
 20
132.9242711908486
 30
0.0
 10
179.9838160846772
 20
132.9708786508938
 30
0.0
 10
179.751287399089
 20
133.0000818277322
 30
0.0
 10
179.6559081704228
 20
133.0128399664494
 30
0.0
 10
179.6828411147496
 20
133.0093001365306
 30
0.0
 10
179.6831901987124
 20
133.0092542559971
 30
0.0
  0
SPLINE
  5
F3
330
1F
100
AcDbEntity
  8
0
  6
Continuous
 62
     7
370
    15
100
AcDbSpline
210
0.0
220
0.0
230
1.0
 70
     8
 71
     3
 72
     9
 73
     5
 74
     0
 42
0.00000001
 43
0.00000001
 12
1.0
 22
0.0
 32
0.0
 13
1.0
 23
0.0
 33
0.0
 40
0.0
 40
0.0
 40
0.0
 40
0.0
 40
0.5865081526888636
 40
1.0
 40
1.0
 40
1.0
 40
1.0
 10
161.0212087501813
 20
89.70089561651838
 30
0.0
 10
161.0252091867632
 20
89.69509514430452
 30
0.0
 10
161.0320299556879
 20
89.68520530357976
 30
0.0
 10
161.0411836667911
 20
89.73927130910691
 30
0.0
 10
161.0449686517049
 20
89.76162716160906
 30
0.0
  0
LINE
  5
F4
330
1F
100
AcDbEntity
  8
0
  6
Continuous
 62
     7
370
    15
100
AcDbLine
 10
161.0146894922
 20
89.6985542716
 30
0.0
 11
161.0146894922
 21
129.0423919202
 31
0.0
  0
SPLINE
  5
F5
330
1F
100
AcDbEntity
  8
0
  6
Continuous
 62
     7
370
    15
100
AcDbSpline
210
0.0
220
0.0
230
1.0
 70
     8
 71
     3
 72
    10
 73
     6
 74
     0
 42
0.00000001
 43
0.00000001
 12
1.0
 22
0.0
 32
0.0
 13
1.0
 23
0.0
 33
0.0
 40
0.0
 40
0.0
 40
0.0
 40
0.0
 40
0.5
 40
0.5
 40
1.0
 40
1.0
 40
1.0
 40
1.0
 10
161.0773526940289
 20
129.0262669413637
 30
0.0
 10
161.0684484049201
 20
129.0720084605769
 30
0.0
 10
161.0519330247271
 20
129.0891993000459
 30
0.0
 10
161.0248250786655
 20
129.0888760231101
 30
0.0
 10
161.0146893193055
 20
129.0709984808137
 30
0.0
 10
161.0146893193055
 20
129.0423921430611
 30
0.0
  0
SPLINE
  5
F6
330
1F
100
AcDbEntity
  8
0
  6
Continuous
 62
     7
370
    15
100
AcDbSpline
210
0.0
220
0.0
230
1.0
 70
     8
 71
     3
 72
    26
 73
    22
 74
     0
 42
0.00000001
 43
0.00000001
 12
1.0
 22
0.0
 32
0.0
 13
1.0
 23
0.0
 33
0.0
 40
0.0
 40
0.0
 40
0.0
 40
0.0
 40
0.2499999999999963
 40
0.2499999999999963
 40
0.3749999999999933
 40
0.3749999999999933
 40
0.4374999999999948
 40
0.4374999999999948
 40
0.4687499999999951
 40
0.4687499999999951
 40
0.4999999999999954
 40
0.4999999999999954
 40
0.5312499999999958
 40
0.5312499999999958
 40
0.5624999999999961
 40
0.5624999999999961
 40
0.6249999999999973
 40
0.6249999999999973
 40
0.7499999999999982
 40
0.7499999999999982
 40
1.0
 40
1.0
 40
1.0
 40
1.0
 10
161.83884296541
 20
129.7418337301808
 30
0.0
 10
161.8002424425415
 20
129.6240590338253
 30
0.0
 10
161.7539454399873
 20
129.4996693476634
 30
0.0
 10
161.6600060915533
 20
129.2944500153099
 30
0.0
 10
161.6246946246399
 20
129.2228771488634
 30
0.0
 10
161.5585146488942
 20
129.106923916263
 30
0.0
 10
161.5339762822259
 20
129.0663393814527
 30
0.0
 10
161.4906035366721
 20
129.002197699581
 30
0.0
 10
161.4750951352469
 20
128.9803312742959
 30
0.0
 10
161.4400524906599
 20
128.9347370059527
 30
0.0
 10
161.4205021999401
 20
128.9110667149853
 30
0.0
 10
161.3785749195695
 20
128.8664501556454
 30
0.0
 10
161.3559228093379
 20
128.8455701431275
 30
0.0
 10
161.3149490952513
 20
128.8146967293767
 30
0.0
 10
161.2973497953559
 20
128.8048578595443
 30
0.0
 10
161.2527228094997
 20
128.7858682438482
 30
0.0
 10
161.2321635868464
 20
128.7855439191947
 30
0.0
 10
161.1810381473497
 20
128.794767360071
 30
0.0
 10
161.1601267343612
 20
128.8160142562879
 30
0.0
 10
161.1086768268002
 20
128.8899831351187
 30
0.0
 10
161.0910115274957
 20
128.9561012284334
 30
0.0
 10
161.0773526940289
 20
129.0262669413637
 30
0.0
  0
SPLINE
  5
F7
330
1F
100
AcDbEntity
  8
0
  6
Continuous
 62
     7
370
    15
100
AcDbSpline
210
0.0
220
0.0
230
1.0
 70
     8
 71
     3
 72
    10
 73
     6
 74
     0
 42
0.00000001
 43
0.00000001
 12
1.0
 22
0.0
 32
0.0
 13
1.0
 23
0.0
 33
0.0
 40
0.0
 40
0.0
 40
0.0
 40
0.0
 40
0.5
 40
0.5
 40
1.0
 40
1.0
 40
1.0
 40
1.0
 10
162.1546443888873
 20
130.2116682888706
 30
0.0
 10
162.087085133969
 20
130.1439768960608
 30
0.0
 10
162.0234484786325
 20
130.0692697313072
 30
0.0
 10
161.9132277240607
 20
129.9103035988806
 30
0.0
 10
161.8664114308381
 20
129.8259483328726
 30
0.0
 10
161.83884296541
 20
129.7418337301808
 30
0.0
  0
SPLINE
  5
F8
330
1F
100
AcDbEntity
  8
0
  6
Continuous
 62
     7
370
    15
100
AcDbSpline
210
0.0
220
0.0
230
1.0
 70
     8
 71
     3
 72
     8
 73
     4
 74
     0
 42
0.00000001
 43
0.00000001
 12
1.0
 22
0.0
 32
0.0
 13
1.0
 23
0.0
 33
0.0
 40
0.0
 40
0.0
 40
0.0
 40
0.0
 40
1.0
 40
1.0
 40
1.0
 40
1.0
 10
161.9535988895046
 20
88.90779209361735
 30
0.0
 10
161.9893125478745
 20
88.78456058835755
 30
0.0
 10
162.0649805868228
 20
88.66361701141057
 30
0.0
 10
162.1546443888959
 20
88.5568979677073
 30
0.0
  0
SPLINE
  5
F9
330
1F
100
AcDbEntity
  8
0
  6
Continuous
 62
     7
370
    15
100
AcDbSpline
210
0.0
220
0.0
230
1.0
 70
     8
 71
     3
 72
    26
 73
    22
 74
     0
 42
0.00000001
 43
0.00000001
 12
1.0
 22
0.0
 32
0.0
 13
1.0
 23
0.0
 33
0.0
 40
0.0
 40
0.0
 40
0.0
 40
0.0
 40
0.2500000000000089
 40
0.2500000000000089
 40
0.3750000000000142
 40
0.3750000000000142
 40
0.4375000000000163
 40
0.4375000000000163
 40
0.4687500000000181
 40
0.4687500000000181
 40
0.5000000000000199
 40
0.5000000000000199
 40
0.5312500000000182
 40
0.5312500000000182
 40
0.5625000000000165
 40
0.5625000000000165
 40
0.6250000000000124
 40
0.6250000000000124
 40
0.7500000000000087
 40
0.7500000000000087
 40
1.0
 40
1.0
 40
1.0
 40
1.0
 10
161.0449669349141
 20
89.76162683635613
 30
0.0
 10
161.0556909683066
 20
89.86458787684512
 30
0.0
 10
161.0704239589012
 20
89.96358656632617
 30
0.0
 10
161.1227775181482
 20
90.08218224639131
 30
0.0
 10
161.1444828008678
 20
90.11789254634009
 30
0.0
 10
161.2033383082332
 20
90.14287197916185
 30
0.0
 10
161.2268005420804
 20
90.1472574269254
 30
0.0
 10
161.282921918741
 20
90.12750459348129
 30
0.0
 10
161.3057092288716
 20
90.11584820267089
 30
0.0
 10
161.3609617814028
 20
90.07406785323367
 30
0.0
 10
161.3923680141436
 20
90.04379626585765
 30
0.0
 10
161.4473018347641
 20
89.98215386694363
 30
0.0
 10
161.4717256529636
 20
89.9507122146368
 30
0.0
 10
161.5151407589508
 20
89.89097737722304
 30
0.0
 10
161.5347153215191
 20
89.86181236735038
 30
0.0
 10
161.5883480054671
 20
89.77797709161732
 30
0.0
 10
161.6181253535193
 20
89.7259444736411
 30
0.0
 10
161.6996594134921
 20
89.57487879967373
 30
0.0
 10
161.7429022081661
 20
89.48168775780299
 30
0.0
 10
161.8559567978208
 20
89.21730121880861
 30
0.0
 10
161.9099677953
 20
89.05834304975876
 30
0.0
 10
161.953598889504
 20
88.9077920936179
 30
0.0
  0
SPLINE
  5
FA
330
1F
100
AcDbEntity
  8
0
  6
Continuous
 62
     7
370
    15
100
AcDbSpline
210
0.0
220
0.0
230
1.0
 70
     8
 71
     3
 72
    10
 73
     6
 74
     0
 42
0.00000001
 43
0.00000001
 12
1.0
 22
0.0
 32
0.0
 13
1.0
 23
0.0
 33
0.0
 40
0.0
 40
0.0
 40
0.0
 40
0.0
 40
0.5
 40
0.5
 40
1.0
 40
1.0
 40
1.0
 40
1.0
 10
218.8646893193055
 20
139.1981547203468
 30
0.0
 10
218.8646893193055
 20
139.3585599866977
 30
0.0
 10
218.8024514881986
 20
139.5176217996863
 30
0.0
 10
218.5833165644561
 20
139.7485342653166
 30
0.0
 10
218.4257278694642
 20
139.8189098697472
 30
0.0
 10
218.2646893193055
 20
139.8189098697472
 30
0.0
  0
SPLINE
  5
FB
330
1F
100
AcDbEntity
  8
0
  6
Continuous
 62
     7
370
    15
100
AcDbSpline
210
0.0
220
0.0
230
1.0
 70
     8
 71
     3
 72
    12
 73
     8
 74
     0
 42
0.00000001
 43
0.00000001
 12
1.0
 22
0.0
 32
0.0
 13
1.0
 23
0.0
 33
0.0
 40
0.0
 40
0.0
 40
0.0
 40
0.0
 40
0.2500000000000013
 40
0.2500000000000013
 40
0.5000000000000027
 40
0.5000000000000027
 40
1.0
 40
1.0
 40
1.0
 40
1.0
 10
218.2646893193055
 20
133.8104040589504
 30
0.0
 10
218.3558890411311
 20
133.8104040589504
 30
0.0
 10
218.4464840502672
 20
133.7821843603625
 30
0.0
 10
218.5998967767138
 20
133.6877413531144
 30
0.0
 10
218.6651056440375
 20
133.6214543764091
 30
0.0
 10
218.8178901733774
 20
133.3958295531208
 30
0.0
 10
218.8646893193055
 20
133.2134032900883
 30
0.0
 10
218.8646893193055
 20
133.0326666578413
 30
0.0
  0
LINE
  5
FC
330
1F
100
AcDbEntity
  8
0
  6
Continuous
 62
     7
370
    15
100
AcDbLine
 10
218.8646890094
 20
133.0326658429
 30
0.0
 11
218.8646890094
 21
139.1981553973
 31
0.0
  0
SPLINE
  5
FD
330
1F
100
AcDbEntity
  8
0
  6
Continuous
 62
     7
370
    15
100
AcDbSpline
210
0.0
220
0.0
230
1.0
 70
     8
 71
     3
 72
     8
 73
     4
 74
     0
 42
0.00000001
 43
0.00000001
 12
1.0
 22
0.0
 32
0.0
 13
1.0
 23
0.0
 33
0.0
 40
0.0
 40
0.0
 40
0.0
 40
0.0
 40
1.0
 40
1.0
 40
1.0
 40
1.0
 10
214.3066221507945
 20
139.8189098697472
 30
0.0
 10
213.8114821214302
 20
138.932230221567
 30
0.0
 10
213.3173994161512
 20
138.044967585881
 30
0.0
 10
212.8246893193055
 20
137.1569485877546
 30
0.0
  0
LINE
  5
FE
330
1F
100
AcDbEntity
  8
0
  6
Continuous
 62
     7
370
    15
100
AcDbLine
 10
214.3066212405
 20
133.8104040117
 30
0.0
 11
214.3066212405
 21
139.8189098329
 31
0.0
  0
SPLINE
  5
FF
330
1F
100
AcDbEntity
  8
0
  6
Continuous
 62
     7
370
    15
100
AcDbSpline
210
0.0
220
0.0
230
1.0
 70
     8
 71
     3
 72
     8
 73
     4
 74
     0
 42
0.00000001
 43
0.00000001
 12
1.0
 22
0.0
 32
0.0
 13
1.0
 23
0.0
 33
0.0
 40
0.0
 40
0.0
 40
0.0
 40
0.0
 40
1.0
 40
1.0
 40
1.0
 40
1.0
 10
212.8246893193055
 20
130.4018580641663
 30
0.0
 10
213.3039674698953
 20
131.5428692940189
 30
0.0
 10
213.7995353090353
 20
132.6792537047867
 30
0.0
 10
214.3066221507945
 20
133.8104040589504
 30
0.0
  0
LINE
  5
100
330
1F
100
AcDbEntity
  8
0
  6
Continuous
 62
     7
370
    15
100
AcDbLine
 10
212.824689584
 20
130.4018583835
 30
0.0
 11
212.824689584
 21
137.1569477708
 31
0.0
  0
LINE
  5
101
330
1F
100
AcDbEntity
  8
0
  6
Continuous
 62
     7
370
    15
100
AcDbLine
 10
218.2646900286
 20
139.8189098329
 30
0.0
 11
214.3066212405
 21
139.8189098329
 31
0.0
  0
LINE
  5
102
330
1F
100
AcDbEntity
  8
0
  6
Continuous
 62
     7
370
    15
100
AcDbLine
 10
214.3066212405
 20
133.8104040117
 30
0.0
 11
218.2646900286
 21
133.8104040117
 31
0.0
  0
LINE
  5
103
330
1F
100
AcDbEntity
  8
0
  6
Continuous
 62
     7
370
    15
100
AcDbLine
 10
212.824689584
 20
129.4875808747
 30
0.0
 11
212.824689584
 21
130.4018583835
 31
0.0
  0
LINE
  5
104
330
1F
100
AcDbEntity
  8
0
  6
Continuous
 62
     7
370
    15
100
AcDbLine
 10
218.8646890094
 20
133.0326658429
 30
0.0
 11
218.8646890094
 21
129.2017151357
 31
0.0
  0
SPLINE
  5
105
330
1F
100
AcDbEntity
  8
0
  6
Continuous
 62
     7
370
    15
100
AcDbSpline
210
0.0
220
0.0
230
1.0
 70
     8
 71
     3
 72
     8
 73
     4
 74
     0
 42
0.00000001
 43
0.00000001
 12
1.0
 22
0.0
 32
0.0
 13
1.0
 23
0.0
 33
0.0
 40
0.0
 40
0.0
 40
0.0
 40
0.0
 40
1.0
 40
1.0
 40
1.0
 40
1.0
 10
207.5227564878164
 20
133.8104040589504
 30
0.0
 10
208.0298433295757
 20
132.6792537047867
 30
0.0
 10
208.5254111687156
 20
131.5428692940189
 30
0.0
 10
209.0046893193055
 20
130.4018580641663
 30
0.0
  0
LINE
  5
106
330
1F
100
AcDbEntity
  8
0
  6
Continuous
 62
     7
370
    15
100
AcDbLine
 10
209.0046893676
 20
130.4018583835
 30
0.0
 11
209.0046893676
 21
129.4875808747
 31
0.0
  0
SPLINE
  5
107
330
1F
100
AcDbEntity
  8
0
  6
Continuous
 62
     7
370
    15
100
AcDbSpline
210
0.0
220
0.0
230
1.0
 70
     8
 71
     3
 72
     8
 73
     4
 74
     0
 42
0.00000001
 43
0.00000001
 12
1.0
 22
0.0
 32
0.0
 13
1.0
 23
0.0
 33
0.0
 40
0.0
 40
0.0
 40
0.0
 40
0.0
 40
1.0
 40
1.0
 40
1.0
 40
1.0
 10
209.0046893193055
 20
137.1569485877546
 30
0.0
 10
208.5119792224597
 20
138.044967585881
 30
0.0
 10
208.0178965171808
 20
138.9322302215669
 30
0.0
 10
207.5227564878165
 20
139.8189098697472
 30
0.0
  0
LINE
  5
108
330
1F
100
AcDbEntity
  8
0
  6
Continuous
 62
     7
370
    15
100
AcDbLine
 10
209.0046893676
 20
130.4018583835
 30
0.0
 11
209.0046893676
 21
137.1569477708
 31
0.0
  0
CIRCLE
  5
109
330
1F
100
AcDbEntity
  8
0
  6
Continuous
 62
     7
370
    15
100
AcDbCircle
 10
245.05378755
 20
136.779579594
 30
0.0
 40
3.481308589892978
  0
LINE
  5
10A
330
1F
100
AcDbEntity
  8
0
  6
Continuous
 62
     7
370
    15
100
AcDbLine
 10
246.7177383472
 20
149.865486914
 30
0.0
 11
250.7632434239
 21
144.0534417273
 31
0.0
  0
ARC
  5
10B
330
1F
100
AcDbEntity
  8
0
  6
Continuous
 62
     7
370
    15
100
AcDbCircle
 10
252.7589881466
 20
144.3815364092
 30
0.0
 40
2.022533836243423
100
AcDbArc
 50
189.3357547806
 51
260.0741883151
  0
LINE
  5
10C
330
1F
100
AcDbEntity
  8
0
  6
Continuous
 62
     7
370
    15
100
AcDbLine
 10
252.4103581776
 20
142.3892763198
 30
0.0
 11
255.0444550683
 21
140.5142222286
 31
0.0
  0
LINE
  5
10D
330
1F
100
AcDbEntity
  8
0
  6
Continuous
 62
     7
370
    15
100
AcDbLine
 10
255.0444550683
 20
140.5142222286
 30
0.0
 11
254.5514650513
 21
139.4687344075
 31
0.0
  0
ARC
  5
10E
330
1F
100
AcDbEntity
  8
0
  6
Continuous
 62
     7
370
    15
100
AcDbCircle
 10
256.4533786163
 20
138.5811727735
 30
0.0
 40
2.098818920929962
100
AcDbArc
 50
154.9830577785
 51
333.8336313469
  0
LINE
  5
10F
330
1F
100
AcDbEntity
  8
0
  6
Continuous
 62
     7
370
    15
100
AcDbLine
 10
258.3371050526
 20
137.6556374819
 30
0.0
 11
258.702056842
 21
138.4295814426
 31
0.0
  0
LINE
  5
110
330
1F
100
AcDbEntity
  8
0
  6
Continuous
 62
     7
370
    15
100
AcDbLine
 10
261.7987714578
 20
144.9718263687
 30
0.0
 11
259.1030023863
 21
114.3303334468
 31
0.0
  0
LINE
  5
111
330
1F
100
AcDbEntity
  8
0
  6
Continuous
 62
     7
370
    15
100
AcDbLine
 10
259.1030023863
 20
114.3303334468
 30
0.0
 11
238.3876092603
 21
85.1752397359
 31
0.0
  0
ELLIPSE
  5
112
330
1F
100
AcDbEntity
  8
0
  6
Continuous
 62
     7
370
    15
100
AcDbEllipse
 10
319.6311198634
 20
109.3517143966
 30
0.0
 11
256.8875361190952
 21
-3.798812653223351
 31
0.0
210
0.0
220
0.0
230
1.0
 40
0.1040588589
 41
4.378962081795605
 42
4.392142583209318
  0
SPLINE
  5
113
330
1F
100
AcDbEntity
  8
0
  6
Continuous
 62
     7
370
    15
100
AcDbSpline
210
0.0
220
0.0
230
1.0
 70
     8
 71
     3
 72
     8
 73
     4
 74
     0
 42
0.00000001
 43
0.00000001
 12
1.0
 22
0.0
 32
0.0
 13
1.0
 23
0.0
 33
0.0
 40
0.0
 40
0.0
 40
0.0
 40
0.0
 40
1.0
 40
1.0
 40
1.0
 40
1.0
 10
235.1826385117367
 20
85.33577540952083
 30
0.0
 10
235.1595068487641
 20
85.42747112560963
 30
0.0
 10
235.1363899202352
 20
85.51917042635074
 30
0.0
 10
235.1132881576156
 20
85.61087341671282
 30
0.0
  0
SPLINE
  5
114
330
1F
100
AcDbEntity
  8
0
  6
Continuous
 62
     7
370
    15
100
AcDbSpline
210
0.0
220
0.0
230
1.0
 70
     8
 71
     3
 72
    10
 73
     6
 74
     0
 42
0.00000001
 43
0.00000001
 12
1.0
 22
0.0
 32
0.0
 13
1.0
 23
0.0
 33
0.0
 40
0.0
 40
0.0
 40
0.0
 40
0.0
 40
0.5
 40
0.5
 40
1.0
 40
1.0
 40
1.0
 40
1.0
 10
234.1473623313265
 20
86.44132612685864
 30
0.0
 10
234.3756616141889
 20
86.42923634619127
 30
0.0
 10
234.5927790807461
 20
86.33508386944546
 30
0.0
 10
234.9368298680733
 20
86.0326922205001
 30
0.0
 10
235.0576018702325
 20
85.83192144492082
 30
0.0
 10
235.1132881576156
 20
85.61087341671283
 30
0.0
  0
SPLINE
  5
115
330
1F
100
AcDbEntity
  8
0
  6
Continuous
 62
     7
370
    15
100
AcDbSpline
210
0.0
220
0.0
230
1.0
 70
     8
 71
     3
 72
    12
 73
     8
 74
     0
 42
0.00000001
 43
0.00000001
 12
1.0
 22
0.0
 32
0.0
 13
1.0
 23
0.0
 33
0.0
 40
0.0
 40
0.0
 40
0.0
 40
0.0
 40
0.2499999999999971
 40
0.2499999999999971
 40
0.4999999999999941
 40
0.4999999999999941
 40
1.0
 40
1.0
 40
1.0
 40
1.0
 10
235.1132881576156
 20
135.5651553659756
 30
0.0
 10
235.0854312794525
 20
135.4553917956933
 30
0.0
 10
235.0419532519819
 20
135.3526812030329
 30
0.0
 10
234.9239469973506
 20
135.1612792399381
 30
0.0
 10
234.8508535032568
 20
135.0755927413001
 30
0.0
 10
234.5950501243505
 20
134.8578151143358
 30
0.0
 10
234.3757963339685
 20
134.7683751629503
 30
0.0
 10
234.1473623313273
 20
134.7629611681388
 30
0.0
  0
SPLINE
  5
116
330
1F
100
AcDbEntity
  8
0
  6
Continuous
 62
     7
370
    15
100
AcDbSpline
210
0.0
220
0.0
230
1.0
 70
     8
 71
     3
 72
     8
 73
     4
 74
     0
 42
0.00000001
 43
0.00000001
 12
1.0
 22
0.0
 32
0.0
 13
1.0
 23
0.0
 33
0.0
 40
0.0
 40
0.0
 40
0.0
 40
0.0
 40
1.0
 40
1.0
 40
1.0
 40
1.0
 10
235.1132881576156
 20
135.5651553659756
 30
0.0
 10
235.9838316307675
 20
138.9953301019777
 30
0.0
 10
236.8743854192398
 20
142.4200512421275
 30
0.0
 10
237.7721814187088
 20
145.8427985956966
 30
0.0
  0
LINE
  5
117
330
1F
100
AcDbEntity
  8
0
  6
Continuous
 62
     7
370
    15
100
AcDbLine
 10
237.7721801271
 20
145.8427992405
 30
0.0
 11
246.7177383472
 21
149.865486914
 31
0.0
  0
LINE
  5
118
330
1F
100
AcDbEntity
  8
0
  6
Continuous
 62
     7
370
    15
100
AcDbLine
 10
235.1826377084
 20
85.3357755334
 30
0.0
 11
235.1826377084
 21
82.3517136962
 31
0.0
  0
LINE
  5
119
330
1F
100
AcDbEntity
  8
0
  6
Continuous
 62
     7
370
    15
100
AcDbLine
 10
237.6732103397
 20
145.4722036363
 30
0.0
 11
237.7721801271
 21
145.8427992405
 31
0.0
  0
ELLIPSE
  5
11A
330
1F
100
AcDbEntity
  8
0
  6
Continuous
 62
     7
370
    15
100
AcDbEllipse
 10
255.5241346621
 20
109.3517143966
 30
0.0
 11
19.22008094637954
 21
26.99988807479864
 31
0.0
210
0.0
220
0.0
230
1.0
 40
0.0040448756
 41
3.144472021887273
 42
3.605883564116032
  0
LINE
  5
11B
330
1F
100
AcDbEntity
  8
0
  6
Continuous
 62
     7
370
    15
100
AcDbLine
 10
162.1646884699
 20
88.5392141284
 30
0.0
 11
162.1646884699
 21
88.5450833232
 31
0.0
  0
LINE
  5
11C
330
1F
100
AcDbEntity
  8
0
  6
Continuous
 62
     7
370
    15
100
AcDbLine
 10
257.568383949
 20
136.7930986674
 30
0.0
 11
257.9632423689
 21
137.630467558
 31
0.0
  0
LINE
  5
11D
330
1F
100
AcDbEntity
  8
0
  6
HIDDEN
 62
     7
370
     0
100
AcDbLine
 10
197.8646892925
 20
77.8517138899
 30
0.0
 11
197.8646892925
 21
77.8675910772
 31
0.0
  0
SPLINE
  5
11E
330
1F
100
AcDbEntity
  8
0
  6
HIDDEN
 62
     7
370
     0
100
AcDbSpline
210
0.0
220
0.0
230
1.0
 70
     8
 71
     3
 72
    30
 73
    26
 74
     0
 42
0.00000001
 43
0.00000001
 12
1.0
 22
0.0
 32
0.0
 13
1.0
 23
0.0
 33
0.0
 40
0.0
 40
0.0
 40
0.0
 40
0.0
 40
0.1249999999999998
 40
0.1249999999999998
 40
0.1874999999999997
 40
0.1874999999999997
 40
0.2499999999999997
 40
0.2499999999999997
 40
0.3749999999999994
 40
0.3749999999999994
 40
0.4374999999999994
 40
0.4374999999999994
 40
0.4999999999999993
 40
0.4999999999999993
 40
0.6249999999999992
 40
0.6249999999999992
 40
0.6874999999999992
 40
0.6874999999999992
 40
0.7499999999999992
 40
0.7499999999999992
 40
0.8124999999999993
 40
0.8124999999999993
 40
0.8749999999999993
 40
0.8749999999999993
 40
1.0
 40
1.0
 40
1.0
 40
1.0
 10
197.8646893193055
 20
77.86759141372063
 30
0.0
 10
197.8646893193055
 20
77.88447033172923
 30
0.0
 10
197.9171068852839
 20
77.91448789655395
 30
0.0
 10
198.0704863651862
 20
77.97729828582703
 30
0.0
 10
198.134167485854
 20
78.00120219305394
 30
0.0
 10
198.2871223533056
 20
78.05463748549631
 30
0.0
 10
198.3766946520749
 20
78.08424435366389
 30
0.0
 10
198.6779186849281
 20
78.17869405237833
 30
0.0
 10
198.9232336810122
 20
78.24972144620753
 30
0.0
 10
199.3573306620824
 20
78.36373573291331
 30
0.0
 10
199.5140003511861
 20
78.40319098405388
 30
0.0
 10
199.8459935150285
 20
78.48271242682455
 30
0.0
 10
200.0206990440209
 20
78.52264856932533
 30
0.0
 10
200.5703687266125
 20
78.64158497215347
 30
0.0
 10
200.9706196893238
 20
78.71974973603734
 30
0.0
 10
201.6242065559613
 20
78.82945917630624
 30
0.0
 10
201.8498826756384
 20
78.86454001301463
 30
0.0
 10
202.3095944967696
 20
78.92978029239426
 30
0.0
 10
202.5446478308127
 20
78.960115108439
 30
0.0
 10
203.0251551131118
 20
79.01545348766082
 30
0.0
 10
203.2706086410259
 20
79.04045816422092
 30
0.0
 10
203.7722240658333
 20
79.08433797311163
 30
0.0
 10
204.0297164484338
 20
79.10328165787392
 30
0.0
 10
204.8077929648699
 20
79.14900138514409
 30
0.0
 10
205.3329552421148
 20
79.16479670033583
 30
0.0
 10
205.8646893193055
 20
79.16479670033583
 30
0.0
  0
LINE
  5
11F
330
1F
100
AcDbEntity
  8
0
  6
HIDDEN
 62
     7
370
     0
100
AcDbLine
 10
205.8646896725
 20
79.1647967638
 30
0.0
 11
207.5227567797
 21
79.1647967638
 31
0.0
  0
LINE
  5
120
330
1F
100
AcDbEntity
  8
0
  6
HIDDEN
 62
     7
370
     0
100
AcDbLine
 10
207.5227567797
 20
139.8189098329
 30
0.0
 11
207.5227567797
 21
79.1647967638
 31
0.0
  0
LINE
  5
121
330
1F
100
AcDbEntity
  8
0
  6
HIDDEN
 62
     7
370
     0
100
AcDbLine
 10
205.8646896725
 20
139.8189098329
 30
0.0
 11
207.5227567797
 21
139.8189098329
 31
0.0
  0
SPLINE
  5
122
330
1F
100
AcDbEntity
  8
0
  6
HIDDEN
 62
     7
370
     0
100
AcDbSpline
210
0.0
220
0.0
230
1.0
 70
     8
 71
     3
 72
    17
 73
    13
 74
     0
 42
0.00000001
 43
0.00000001
 12
1.0
 22
0.0
 32
0.0
 13
1.0
 23
0.0
 33
0.0
 40
0.0
 40
0.0
 40
0.0
 40
0.0
 40
0.0638118530465205
 40
0.1662333895307372
 40
0.2715772228763146
 40
0.3750121495313972
 40
0.481289232822485
 40
0.5875618040019402
 40
0.6968792013763269
 40
0.8035874989287674
 40
0.9135588298793159
 40
1.0
 40
1.0
 40
1.0
 40
1.0
 10
197.892677864157
 20
140.8446182252039
 30
0.0
 10
197.8894807151341
 20
140.8454225385369
 30
0.0
 10
197.881151965951
 20
140.8475178190408
 30
0.0
 10
198.112787438985
 20
140.7890411181196
 30
0.0
 10
198.5478884827807
 20
140.6837327417104
 30
0.0
 10
199.193890586443
 20
140.5379210321961
 30
0.0
 10
200.018162091605
 20
140.3704703740518
 30
0.0
 10
201.0206943247117
 20
140.195496457561
 30
0.0
 10
202.163442077565
 20
140.0349101462641
 30
0.0
 10
203.428776130996
 20
139.9075584393383
 30
0.0
 10
204.6755162702237
 20
139.8314726023425
 30
0.0
 10
205.5012737057096
 20
139.8227490636023
 30
0.0
 10
205.864689672463
 20
139.8189098329414
 30
0.0
  0
SPLINE
  5
123
330
1F
100
AcDbEntity
  8
0
  6
HIDDEN
 62
     7
370
     0
100
AcDbSpline
210
0.0
220
0.0
230
1.0
 70
     8
 71
     3
 72
    76
 73
    72
 74
     0
 42
0.00000001
 43
0.00000001
 12
1.0
 22
0.0
 32
0.0
 13
1.0
 23
0.0
 33
0.0
 40
-0.0312500000000002
 40
-0.0312500000000002
 40
0.0
 40
0.0
 40
0.0312499999999999
 40
0.0312499999999999
 40
0.0468749999999998
 40
0.0468749999999998
 40
0.0624999999999997
 40
0.0624999999999997
 40
0.0937499999999996
 40
0.0937499999999996
 40
0.1249999999999994
 40
0.1249999999999994
 40
0.1562499999999992
 40
0.1562499999999992
 40
0.1874999999999991
 40
0.1874999999999991
 40
0.2187499999999989
 40
0.2187499999999989
 40
0.2499999999999987
 40
0.2499999999999987
 40
0.2812499999999985
 40
0.2812499999999985
 40
0.3124999999999983
 40
0.3124999999999983
 40
0.3281249999999983
 40
0.3281249999999983
 40
0.3437499999999983
 40
0.3437499999999983
 40
0.3749999999999983
 40
0.3749999999999983
 40
0.4062499999999982
 40
0.4062499999999982
 40
0.4374999999999982
 40
0.4374999999999982
 40
0.4687499999999982
 40
0.4687499999999982
 40
0.4999999999999982
 40
0.4999999999999982
 40
0.5312499999999982
 40
0.5312499999999982
 40
0.5624999999999982
 40
0.5624999999999982
 40
0.5937499999999981
 40
0.5937499999999981
 40
0.6249999999999981
 40
0.6249999999999981
 40
0.6562499999999981
 40
0.6562499999999981
 40
0.6874999999999981
 40
0.6874999999999981
 40
0.7031249999999981
 40
0.7031249999999981
 40
0.7187499999999982
 40
0.7187499999999982
 40
0.7499999999999983
 40
0.7499999999999983
 40
0.7812499999999986
 40
0.7812499999999986
 40
0.8124999999999988
 40
0.8124999999999988
 40
0.843749999999999
 40
0.843749999999999
 40
0.8749999999999992
 40
0.8749999999999992
 40
0.9062499999999994
 40
0.9062499999999994
 40
0.9374999999999996
 40
0.9374999999999996
 40
0.9687499999999998
 40
0.9687499999999998
 40
1.0
 40
1.0
 40
1.03125
 40
1.03125
 10
194.9146893193055
 20
109.682598392377
 30
0.0
 10
194.9146893193055
 20
109.0208304007889
 30
0.0
 10
194.9472097970899
 20
108.695579232693
 30
0.0
 10
195.0427030413719
 20
108.2157825118039
 30
0.0
 10
195.0823778767831
 20
108.0572068280103
 30
0.0
 10
195.1777644901187
 20
107.7428244422172
 30
0.0
 10
195.2337087315294
 20
107.5867048186331
 30
0.0
 10
195.422071754979
 20
107.1327642587311
 30
0.0
 10
195.5756840313974
 20
106.8457840127241
 30
0.0
 10
195.9385118251815
 20
106.3026708559848
 30
0.0
 10
196.149346926764
 20
106.0459315644408
 30
0.0
 10
196.6098464967814
 20
105.5855469302099
 30
0.0
 10
196.8612094376993
 20
105.3787701134561
 30
0.0
 10
197.4075561320527
 20
105.0132459057926
 30
0.0
 10
197.6977707717707
 20
104.8582463470778
 30
0.0
 10
198.2991575880723
 20
104.6087153259836
 30
0.0
 10
198.6147872811627
 20
104.5124370522949
 30
0.0
 10
199.2604276824423
 20
104.3837880450519
 30
0.0
 10
199.5851834382557
 20
104.3519017859354
 30
0.0
 10
200.238483468647
 20
104.3515286384246
 30
0.0
 10
200.5703558094777
 20
104.3841081246706
 30
0.0
 10
201.2120070430814
 20
104.511882029377
 30
0.0
 10
201.5239319600145
 20
104.6064144736741
 30
0.0
 10
201.9784215605314
 20
104.7945340682129
 30
0.0
 10
202.1282848683654
 20
104.8654170494336
 30
0.0
 10
202.417370102288
 20
105.020033655768
 30
0.0
 10
202.5572310165961
 20
105.1039562545059
 30
0.0
 10
202.9631074603003
 20
105.3751517779817
 30
0.0
 10
203.2161456067899
 20
105.5822517834229
 30
0.0
 10
203.6820451629533
 20
106.0478542364801
 30
0.0
 10
203.8885512374491
 20
106.2997730888674
 30
0.0
 10
204.2506568008488
 20
106.8406767048683
 30
0.0
 10
204.4075159146639
 20
107.1332195476197
 30
0.0
 10
204.6584660315265
 20
107.7380872043773
 30
0.0
 10
204.7532771308575
 20
108.0497340358239
 30
0.0
 10
204.8816989936506
 20
108.6914873410455
 30
0.0
 10
204.9145622801418
 20
109.0232151599248
 30
0.0
 10
204.9148156062504
 20
109.6763349251857
 30
0.0
 10
204.8832596056811
 20
110.0012681315288
 30
0.0
 10
204.7550183842567
 20
110.6477951379819
 30
0.0
 10
204.6592123355983
 20
110.9628030918428
 30
0.0
 10
204.4100788245042
 20
111.5647617599884
 30
0.0
 10
204.2546187028095
 20
111.856237930264
 30
0.0
 10
203.8901644484497
 20
112.4018328667607
 30
0.0
 10
203.6837315410139
 20
112.6533099817658
 30
0.0
 10
203.223262458496
 20
113.1146330058206
 30
0.0
 10
202.9664654504401
 20
113.3257563067669
 30
0.0
 10
202.4244202366056
 20
113.6884870884829
 30
0.0
 10
202.1376506566701
 20
113.8423759918685
 30
0.0
 10
201.6833434807845
 20
114.0313257185605
 30
0.0
 10
201.527203180011
 20
114.0873985145803
 30
0.0
 10
201.2133572186649
 20
114.182901280113
 30
0.0
 10
201.0549704309711
 20
114.2226819231405
 30
0.0
 10
200.5754941910277
 20
114.3185644602658
 30
0.0
 10
200.2492542466009
 20
114.3514399082653
 30
0.0
 10
199.5883796493229
 20
114.3519854774364
 30
0.0
 10
199.263243301978
 20
114.3198189588229
 30
0.0
 10
198.6231608014915
 20
114.1930364208357
 30
0.0
 10
198.3048398774237
 20
114.0967686670444
 30
0.0
 10
197.6999235985846
 20
113.8463743456193
 30
0.0
 10
197.4127746849331
 20
113.6930601838977
 30
0.0
 10
196.8688231312601
 20
113.3303522598779
 30
0.0
 10
196.6121771815335
 20
113.1199131871441
 30
0.0
 10
196.1515866281206
 20
112.6600321988678
 30
0.0
 10
195.9444377421297
 20
112.4087503991749
 30
0.0
 10
195.5779064987164
 20
111.861830225435
 30
0.0
 10
195.4232223112119
 20
111.5726900738187
 30
0.0
 10
195.1731226578737
 20
110.9714533998994
 30
0.0
 10
195.0764358833806
 20
110.6554777062586
 30
0.0
 10
194.9472143084243
 20
110.009503948162
 30
0.0
 10
194.9146893193055
 20
109.682598392377
 30
0.0
 10
194.9146893193055
 20
109.0208304007889
 30
0.0
  0
LINE
  5
124
330
1F
100
AcDbEntity
  8
0
  6
HIDDEN
 62
     7
370
     0
100
AcDbLine
 10
192.9146893193
 20
140.5517135502
 30
0.0
 11
192.9146893193
 21
78.151715243
 31
0.0
  0
SPLINE
  5
125
330
1F
100
AcDbEntity
  8
0
  6
HIDDEN
 62
     7
370
     0
100
AcDbSpline
210
0.0
220
0.0
230
1.0
 70
     8
 71
     3
 72
    10
 73
     6
 74
     0
 42
0.00000001
 43
0.00000001
 12
1.0
 22
0.0
 32
0.0
 13
1.0
 23
0.0
 33
0.0
 40
0.0
 40
0.0
 40
0.0
 40
0.0
 40
0.5
 40
0.5
 40
1.0
 40
1.0
 40
1.0
 40
1.0
 10
212.8246893193055
 20
82.54731876825363
 30
0.0
 10
212.8246893193055
 20
82.6175551286244
 30
0.0
 10
212.816406707215
 20
82.68754923012189
 30
0.0
 10
212.7833067641564
 20
82.82450849468081
 30
0.0
 10
212.7589693721979
 20
82.88981640393608
 30
0.0
 10
212.7270145169732
 20
82.95171439658297
 30
0.0
  0
LINE
  5
126
330
1F
100
AcDbEntity
  8
0
  6
HIDDEN
 62
     7
370
     0
100
AcDbLine
 10
212.824689584
 20
129.4875808747
 30
0.0
 11
212.824689584
 21
136.471367696
 31
0.0
  0
SPLINE
  5
127
330
1F
100
AcDbEntity
  8
0
  6
HIDDEN
 62
     7
370
     0
100
AcDbSpline
210
0.0
220
0.0
230
1.0
 70
    24
 71
     3
 72
    10
 73
     6
 74
     0
 42
0.00000001
 43
0.00000001
 12
1.0
 22
0.0
 32
0.0
 13
1.0
 23
0.0
 33
0.0
 40
0.0
 40
0.0
 40
0.0
 40
0.0
 40
0.5
 40
0.5
 40
1.0
 40
1.0
 40
1.0
 40
1.0
 10
212.7985416961454
 20
129.201714396583
 30
0.0
 10
212.807219471053
 20
129.201714396583
 30
0.0
 10
212.8137724950599
 20
129.201714396583
 30
0.0
 10
212.8225071045569
 20
129.201714396583
 30
0.0
 10
212.8246893193055
 20
129.201714396583
 30
0.0
 10
212.8246893193055
 20
129.201714396583
 30
0.0
  0
LINE
  5
128
330
1F
100
AcDbEntity
  8
0
  6
HIDDEN
 62
     7
370
     0
100
AcDbLine
 10
212.824689584
 20
82.5473193766
 30
0.0
 11
212.824689584
 21
129.2017151357
 31
0.0
  0
SPLINE
  5
129
330
1F
100
AcDbEntity
  8
0
  6
HIDDEN
 62
     7
370
     0
100
AcDbSpline
210
0.0
220
0.0
230
1.0
 70
     8
 71
     3
 72
    10
 73
     6
 74
     0
 42
0.00000001
 43
0.00000001
 12
1.0
 22
0.0
 32
0.0
 13
1.0
 23
0.0
 33
0.0
 40
0.0
 40
0.0
 40
0.0
 40
0.0
 40
0.5
 40
0.5
 40
1.0
 40
1.0
 40
1.0
 40
1.0
 10
209.1023641216378
 20
82.951714396583
 30
0.0
 10
209.0702089340158
 20
82.8894283510669
 30
0.0
 10
209.0455527028216
 20
82.8228979261977
 30
0.0
 10
209.0127399458961
 20
82.68603929583526
 30
0.0
 10
209.0046893193055
 20
82.61698170065692
 30
0.0
 10
209.0046893193055
 20
82.54731876825363
 30
0.0
  0
SPLINE
  5
12A
330
1F
100
AcDbEntity
  8
0
  6
HIDDEN
 62
     7
370
     0
100
AcDbSpline
210
0.0
220
0.0
230
1.0
 70
    24
 71
     3
 72
    10
 73
     6
 74
     0
 42
0.00000001
 43
0.00000001
 12
1.0
 22
0.0
 32
0.0
 13
1.0
 23
0.0
 33
0.0
 40
0.0
 40
0.0
 40
0.0
 40
0.0
 40
0.5
 40
0.5
 40
1.0
 40
1.0
 40
1.0
 40
1.0
 10
209.0046893193055
 20
129.201714396583
 30
0.0
 10
209.0046893193055
 20
129.201714396583
 30
0.0
 10
209.0069111777902
 20
129.201714396583
 30
0.0
 10
209.0156478495138
 20
129.201714396583
 30
0.0
 10
209.0221593633081
 20
129.201714396583
 30
0.0
 10
209.0308369424656
 20
129.201714396583
 30
0.0
  0
LINE
  5
12B
330
1F
100
AcDbEntity
  8
0
  6
HIDDEN
 62
     7
370
     0
100
AcDbLine
 10
209.0046893676
 20
129.4875808747
 30
0.0
 11
209.0046893676
 21
136.471367696
 31
0.0
  0
LINE
  5
12C
330
1F
100
AcDbEntity
  8
0
  6
HIDDEN
 62
     7
370
     0
100
AcDbLine
 10
209.0046893676
 20
82.5473193766
 30
0.0
 11
209.0046893676
 21
129.2017151357
 31
0.0
  0
SPLINE
  5
12D
330
1F
100
AcDbEntity
  8
0
  6
HIDDEN
 62
     7
370
     0
100
AcDbSpline
210
0.0
220
0.0
230
1.0
 70
    24
 71
     3
 72
    18
 73
    14
 74
     0
 42
0.00000001
 43
0.00000001
 12
1.0
 22
0.0
 32
0.0
 13
1.0
 23
0.0
 33
0.0
 40
0.0
 40
0.0
 40
0.0
 40
0.0
 40
0.5
 40
0.5
 40
0.75
 40
0.75
 40
0.875
 40
0.875
 40
0.9375
 40
0.9375
 40
0.96875
 40
0.96875
 40
1.0
 40
1.0
 40
1.0
 40
1.0
 10
218.8646893193055
 20
135.751714396583
 30
0.0
 10
218.8646893193055
 20
135.751714396583
 30
0.0
 10
218.9205384775273
 20
135.751714396583
 30
0.0
 10
218.9962558816673
 20
135.751714396583
 30
0.0
 10
219.0204452322695
 20
135.751714396583
 30
0.0
 10
219.0461889913592
 20
135.751714396583
 30
0.0
 10
219.0530346345916
 20
135.751714396583
 30
0.0
 10
219.0599744463704
 20
135.751714396583
 30
0.0
 10
219.0617368860055
 20
135.751714396583
 30
0.0
 10
219.0635050557105
 20
135.751714396583
 30
0.0
 10
219.0639488499956
 20
135.751714396583
 30
0.0
 10
219.0645410189929
 20
135.751714396583
 30
0.0
 10
219.0646893870506
 20
135.751714396583
 30
0.0
 10
219.0646893192806
 20
135.751714396583
 30
0.0
  0
SPLINE
  5
12E
330
1F
100
AcDbEntity
  8
0
  6
HIDDEN
 62
     7
370
     0
100
AcDbSpline
210
0.0
220
0.0
230
1.0
 70
    24
 71
     3
 72
     9
 73
     5
 74
     0
 42
0.00000001
 43
0.00000001
 12
1.0
 22
0.0
 32
0.0
 13
1.0
 23
0.0
 33
0.0
 40
0.0
 40
0.0
 40
0.0
 40
0.0
 40
0.1196303892575842
 40
1.0
 40
1.0
 40
1.0
 40
1.0
 10
219.0260015298653
 20
135.7517142535318
 30
0.0
 10
219.0218766863786
 20
135.7517142535318
 30
0.0
 10
218.987396789487
 20
135.7517142535318
 30
0.0
 10
218.9221395233492
 20
135.7517142535318
 30
0.0
 10
218.8646890093613
 20
135.7517142535318
 30
0.0
  0
LINE
  5
12F
330
1F
100
AcDbEntity
  8
0
  6
HIDDEN
 62
     7
370
     0
100
AcDbLine
 10
218.8646890094
 20
135.7517142535
 30
0.0
 11
218.8646890094
 21
82.9517145396
 31
0.0
  0
SPLINE
  5
130
330
1F
100
AcDbEntity
  8
0
  6
HIDDEN
 62
     7
370
     0
100
AcDbSpline
210
0.0
220
0.0
230
1.0
 70
    24
 71
     3
 72
    18
 73
    14
 74
     0
 42
0.00000001
 43
0.00000001
 12
1.0
 22
0.0
 32
0.0
 13
1.0
 23
0.0
 33
0.0
 40
0.0
 40
0.0
 40
0.0
 40
0.0
 40
0.5
 40
0.5
 40
0.7500000000000001
 40
0.7500000000000001
 40
0.8750000000000001
 40
0.8750000000000001
 40
0.9375000000000001
 40
0.9375000000000001
 40
0.9687500000000001
 40
0.9687500000000001
 40
1.0
 40
1.0
 40
1.0
 40
1.0
 10
218.8646893193055
 20
82.95171439658296
 30
0.0
 10
218.8646893193055
 20
82.95171439658297
 30
0.0
 10
218.920538503409
 20
82.95171439658296
 30
0.0
 10
218.9962559229835
 20
82.95171439658296
 30
0.0
 10
219.0204452748951
 20
82.95171439658296
 30
0.0
 10
219.0461890253883
 20
82.95171439658296
 30
0.0
 10
219.0530346640386
 20
82.95171439658296
 30
0.0
 10
219.059974466457
 20
82.95171439658296
 30
0.0
 10
219.0617369025641
 20
82.95171439658296
 30
0.0
 10
219.0635050664365
 20
82.95171439658296
 30
0.0
 10
219.0639488586878
 20
82.95171439658296
 30
0.0
 10
219.064541023455
 20
82.95171439658294
 30
0.0
 10
219.0646893891617
 20
82.95171439658294
 30
0.0
 10
219.064689319279
 20
82.95171439658296
 30
0.0
  0
SPLINE
  5
131
330
1F
100
AcDbEntity
  8
0
  6
HIDDEN
 62
     7
370
     0
100
AcDbSpline
210
0.0
220
0.0
230
1.0
 70
    24
 71
     3
 72
     9
 73
     5
 74
     0
 42
0.00000001
 43
0.00000001
 12
1.0
 22
0.0
 32
0.0
 13
1.0
 23
0.0
 33
0.0
 40
0.0
 40
0.0
 40
0.0
 40
0.0
 40
0.0839883245416438
 40
1.0
 40
1.0
 40
1.0
 40
1.0
 10
219.0218329300214
 20
82.95171453963411
 30
0.0
 10
219.0190203563862
 20
82.95171453963411
 30
0.0
 10
218.9855326823502
 20
82.95171453963411
 30
0.0
 10
218.9224622561431
 20
82.95171453963411
 30
0.0
 10
218.8646890093613
 20
82.95171453963411
 30
0.0
  0
LINE
  5
132
330
1F
100
AcDbEntity
  8
0
  6
HIDDEN
 62
     7
370
     0
100
AcDbLine
 10
218.8646890094
 20
82.9517145396
 30
0.0
 11
218.8646890094
 21
135.7517142535
 31
0.0
  0
SPLINE
  5
133
330
1F
100
AcDbEntity
  8
0
  6
HIDDEN
 62
     7
370
     0
100
AcDbSpline
210
0.0
220
0.0
230
1.0
 70
     8
 71
     3
 72
    70
 73
    66
 74
     0
 42
0.00000001
 43
0.00000001
 12
1.0
 22
0.0
 32
0.0
 13
1.0
 23
0.0
 33
0.0
 40
-0.0312500000000006
 40
-0.0312500000000006
 40
0.0
 40
0.0
 40
0.03125
 40
0.03125
 40
0.0624999999999999
 40
0.0624999999999999
 40
0.0937499999999999
 40
0.0937499999999999
 40
0.1249999999999999
 40
0.1249999999999999
 40
0.1562499999999998
 40
0.1562499999999998
 40
0.1874999999999998
 40
0.1874999999999998
 40
0.2187499999999998
 40
0.2187499999999998
 40
0.2499999999999997
 40
0.2499999999999997
 40
0.2812499999999997
 40
0.2812499999999997
 40
0.3124999999999997
 40
0.3124999999999997
 40
0.3437499999999996
 40
0.3437499999999996
 40
0.3749999999999996
 40
0.3749999999999996
 40
0.4062499999999996
 40
0.4062499999999996
 40
0.4374999999999995
 40
0.4374999999999995
 40
0.4687499999999995
 40
0.4687499999999995
 40
0.4999999999999994
 40
0.4999999999999994
 40
0.5312499999999994
 40
0.5312499999999994
 40
0.5624999999999993
 40
0.5624999999999993
 40
0.5937499999999993
 40
0.5937499999999993
 40
0.6249999999999993
 40
0.6249999999999993
 40
0.6562499999999992
 40
0.6562499999999992
 40
0.6874999999999992
 40
0.6874999999999992
 40
0.7187499999999992
 40
0.7187499999999992
 40
0.7499999999999991
 40
0.7499999999999991
 40
0.7812499999999991
 40
0.7812499999999991
 40
0.8124999999999991
 40
0.8124999999999991
 40
0.8437499999999991
 40
0.8437499999999991
 40
0.874999999999999
 40
0.874999999999999
 40
0.906249999999999
 40
0.906249999999999
 40
0.937499999999999
 40
0.937499999999999
 40
0.9687499999999994
 40
0.9687499999999994
 40
1.0
 40
1.0
 40
1.03125
 40
1.03125
 10
223.1130607105395
 20
100.2998195404428
 30
0.0
 10
222.7163179280715
 20
100.2998195404428
 30
0.0
 10
222.5212947605022
 20
100.2814243597807
 30
0.0
 10
222.1376607280561
 20
100.2094937188597
 30
0.0
 10
221.9470493870283
 20
100.1550757634429
 30
0.0
 10
221.5838278740611
 20
100.0135278182752
 30
0.0
 10
221.4115826892248
 20
99.92707569551463
 30
0.0
 10
221.0856020674442
 20
99.72357859041641
 30
0.0
 10
220.9313872315055
 20
99.60555547987279
 30
0.0
 10
220.6549116720821
 20
99.34888678684526
 30
0.0
 10
220.5307881791689
 20
99.20930955329659
 30
0.0
 10
220.311471360716
 20
98.9076071218613
 30
0.0
 10
220.2183736746085
 20
98.74787496785939
 30
0.0
 10
220.0687013868203
 20
98.41905408016241
 30
0.0
 10
220.0110224267858
 20
98.24753123518411
 30
0.0
 10
219.9338941284399
 20
97.89846427099856
 30
0.0
 10
219.9147978039454
 20
97.7239250406268
 30
0.0
 10
219.9145817476193
 20
97.37494695717561
 30
0.0
 10
219.9340909944751
 20
97.19872607054845
 30
0.0
 10
220.0106856532382
 20
96.85973258857304
 30
0.0
 10
220.0673563211059
 20
96.69592207615104
 30
0.0
 10
220.2176905160583
 20
96.37940444056112
 30
0.0
 10
220.3115521883526
 20
96.22747040194734
 30
0.0
 10
220.5285892639249
 20
95.94744912681277
 30
0.0
 10
220.6525813521225
 20
95.81751378108022
 30
0.0
 10
220.9324422721368
 20
95.5783593436046
 30
0.0
 10
221.0837887012412
 20
95.4729759265818
 30
0.0
 10
221.4084678840497
 20
95.28887037908392
 30
0.0
 10
221.5838783101519
 20
95.20951509252772
 30
0.0
 10
221.9470872269597
 20
95.08263854476354
 30
0.0
 10
222.1340756269444
 20
95.0349159074743
 30
0.0
 10
222.5187684117759
 20
94.9703500194144
 30
0.0
 10
222.7177148844545
 20
94.95384168498818
 30
0.0
 10
223.1094302992178
 20
94.95371945410066
 30
0.0
 10
223.3042023209322
 20
94.96957161180886
 30
0.0
 10
223.6915240527118
 20
95.03399229020876
 30
0.0
 10
223.8808783295739
 20
95.08230475233889
 30
0.0
 10
224.2420167818941
 20
95.20814054201281
 30
0.0
 10
224.4165706708568
 20
95.28663199104767
 30
0.0
 10
224.7445380850598
 20
95.47216051137839
 30
0.0
 10
224.8955630927633
 20
95.57751834467685
 30
0.0
 10
225.172385261351
 20
95.81341784996422
 30
0.0
 10
225.2991361480586
 20
95.94554486869879
 30
0.0
 10
225.5170418757101
 20
96.22623195465057
 30
0.0
 10
225.6093363215659
 20
96.37527568765455
 30
0.0
 10
225.7602891560825
 20
96.69147225499448
 30
0.0
 10
225.8182143719523
 20
96.85831477809104
 30
0.0
 10
225.8948506576764
 20
97.19609994393839
 30
0.0
 10
225.9145046481923
 20
97.36878573214037
 30
0.0
 10
225.9148714254208
 20
97.72219393171844
 30
0.0
 10
225.8955622458973
 20
97.89709046814608
 30
0.0
 10
225.8196046622017
 20
98.24288535101577
 30
0.0
 10
225.7620262659949
 20
98.41567878194907
 30
0.0
 10
225.611701624283
 20
98.74675048661658
 30
0.0
 10
225.519692474148
 20
98.90462348872927
 30
0.0
 10
225.3022801349288
 20
99.20474858700663
 30
0.0
 10
225.1758120598562
 20
99.34746674881542
 30
0.0
 10
224.8995200239575
 20
99.60430590998767
 30
0.0
 10
224.7487116316679
 20
99.72013482639704
 30
0.0
 10
224.4210454878538
 20
99.92540118012444
 30
0.0
 10
224.2467544778245
 20
100.0128847646987
 30
0.0
 10
223.8859813016152
 20
100.1538241936908
 30
0.0
 10
223.6970710719246
 20
100.2082796673821
 30
0.0
 10
223.3092013794117
 20
100.2814216947987
 30
0.0
 10
223.1130607105395
 20
100.2998195404428
 30
0.0
 10
222.7163179280715
 20
100.2998195404428
 30
0.0
  0
LINE
  5
134
330
1F
100
AcDbEntity
  8
0
  6
HIDDEN
 62
     7
370
     0
100
AcDbLine
 10
192.9146893193
 20
84.0277907194
 30
0.0
 11
192.9146893193
 21
134.6756380738
 31
0.0
  0
LINE
  5
135
330
1F
100
AcDbEntity
  8
0
  6
HIDDEN
 62
     7
370
     0
100
AcDbLine
 10
197.8646892925
 20
129.2017151357
 30
0.0
 11
205.1103100051
 21
129.2017151357
 31
0.0
  0
LINE
  5
136
330
1F
100
AcDbEntity
  8
0
  6
HIDDEN
 62
     7
370
     0
100
AcDbLine
 10
190.9146892243
 20
133.5721456201
 30
0.0
 11
190.9146892243
 21
85.1312831731
 31
0.0
  0
SPLINE
  5
137
330
1F
100
AcDbEntity
  8
0
  6
HIDDEN
 62
     7
370
     0
100
AcDbSpline
210
0.0
220
0.0
230
1.0
 70
     8
 71
     3
 72
    14
 73
    10
 74
     0
 42
0.00000001
 43
0.00000001
 12
1.0
 22
0.0
 32
0.0
 13
1.0
 23
0.0
 33
0.0
 40
0.0
 40
0.0
 40
0.0
 40
0.0
 40
0.5000000000000011
 40
0.5000000000000011
 40
0.7500000000000003
 40
0.7500000000000003
 40
0.8750000000000001
 40
0.8750000000000001
 40
1.0
 40
1.0
 40
1.0
 40
1.0
 10
162.1646893193055
 20
88.5450828380554
 30
0.0
 10
162.7807662230608
 20
88.55080895828453
 30
0.0
 10
163.3948982191767
 20
88.56069932368656
 30
0.0
 10
164.3087948496902
 20
88.59133429135633
 30
0.0
 10
164.6122337772378
 20
88.60412774899432
 30
0.0
 10
165.0633703928753
 20
88.6320535769537
 30
0.0
 10
165.2130766424179
 20
88.64282319711346
 30
0.0
 10
165.5099177786659
 20
88.66995591271298
 30
0.0
 10
165.6573033311692
 20
88.68577288554022
 30
0.0
 10
165.8010874581835
 20
88.70943197441468
 30
0.0
  0
SPLINE
  5
138
330
1F
100
AcDbEntity
  8
0
  6
HIDDEN
 62
     7
370
     0
100
AcDbSpline
210
0.0
220
0.0
230
1.0
 70
     8
 71
     3
 72
    10
 73
     6
 74
     0
 42
0.00000001
 43
0.00000001
 12
1.0
 22
0.0
 32
0.0
 13
1.0
 23
0.0
 33
0.0
 40
0.0
 40
0.0
 40
0.0
 40
0.0
 40
0.5
 40
0.5
 40
1.0
 40
1.0
 40
1.0
 40
1.0
 10
165.8010874581835
 20
88.70943197441471
 30
0.0
 10
166.4287151138909
 20
88.81270553315032
 30
0.0
 10
167.0799158589222
 20
88.90153064490184
 30
0.0
 10
168.3886205629345
 20
89.06363835177218
 30
0.0
 10
169.0496650002256
 20
89.13693781605876
 30
0.0
 10
169.7146893193052
 20
89.20562563078644
 30
0.0
  0
SPLINE
  5
139
330
1F
100
AcDbEntity
  8
0
  6
HIDDEN
 62
     7
370
     0
100
AcDbSpline
210
0.0
220
0.0
230
1.0
 70
     8
 71
     3
 72
    18
 73
    14
 74
     0
 42
0.00000001
 43
0.00000001
 12
1.0
 22
0.0
 32
0.0
 13
1.0
 23
0.0
 33
0.0
 40
0.0
 40
0.0
 40
0.0
 40
0.0
 40
0.0625000000000007
 40
0.0625000000000007
 40
0.1250000000000014
 40
0.1250000000000014
 40
0.2500000000000016
 40
0.2500000000000016
 40
0.5000000000000011
 40
0.5000000000000011
 40
0.7500000000000006
 40
0.7500000000000006
 40
1.0
 40
1.0
 40
1.0
 40
1.0
 10
169.7146893193054
 20
89.20562563078633
 30
0.0
 10
169.7512615296558
 20
89.20940303431378
 30
0.0
 10
169.7899120030912
 20
89.20884600643066
 30
0.0
 10
169.8640034968051
 20
89.19878680126881
 30
0.0
 10
169.8993537905592
 20
89.18943291984424
 30
0.0
 10
169.9939480879487
 20
89.15504849341043
 30
0.0
 10
170.0440862610876
 20
89.12433675874759
 30
0.0
 10
170.1732795326688
 20
89.02840744870957
 30
0.0
 10
170.2315596774099
 20
88.95989195459232
 30
0.0
 10
170.3317547738334
 20
88.82332000465969
 30
0.0
 10
170.3717700252801
 20
88.75455510215679
 30
0.0
 10
170.4401694460979
 20
88.6195196730491
 30
0.0
 10
170.4685311699598
 20
88.55290164699595
 30
0.0
 10
170.4930850825657
 20
88.48734317929974
 30
0.0
  0
SPLINE
  5
13A
330
1F
100
AcDbEntity
  8
0
  6
HIDDEN
 62
     7
370
     0
100
AcDbSpline
210
0.0
220
0.0
230
1.0
 70
     8
 71
     3
 72
    14
 73
    10
 74
     0
 42
0.00000001
 43
0.00000001
 12
1.0
 22
0.0
 32
0.0
 13
1.0
 23
0.0
 33
0.0
 40
0.0
 40
0.0
 40
0.0
 40
0.0
 40
0.25
 40
0.25
 40
0.5
 40
0.5
 40
0.75
 40
0.75
 40
1.0
 40
1.0
 40
1.0
 40
1.0
 10
170.4930850825658
 20
88.48734317929974
 30
0.0
 10
170.5315214673867
 20
88.38471878158819
 30
0.0
 10
170.6003228607786
 20
88.28552235814863
 30
0.0
 10
170.7436088729376
 20
88.09463032882213
 30
0.0
 10
170.8187909280445
 20
88.00237306278922
 30
0.0
 10
170.9509782166946
 20
87.82276574097422
 30
0.0
 10
171.0084954121644
 20
87.73545618652986
 30
0.0
 10
171.0905402104567
 20
87.56552235301413
 30
0.0
 10
171.1146893193055
 20
87.48362001114296
 30
0.0
 10
171.1146893193055
 20
87.40656613730705
 30
0.0
  0
LINE
  5
13B
330
1F
100
AcDbEntity
  8
0
  6
HIDDEN
 62
     7
370
     0
100
AcDbLine
 10
171.1146890988
 20
87.4065656901
 30
0.0
 11
171.1146890988
 21
86.1232683749
 31
0.0
  0
LINE
  5
13C
330
1F
100
AcDbEntity
  8
0
  6
HIDDEN
 62
     7
370
     0
100
AcDbLine
 10
167.1146884431
 20
132.3797602893
 30
0.0
 11
167.1146884431
 21
131.1958220543
 31
0.0
  0
SPLINE
  5
13D
330
1F
100
AcDbEntity
  8
0
  6
HIDDEN
 62
     7
370
     0
100
AcDbSpline
210
0.0
220
0.0
230
1.0
 70
     8
 71
     3
 72
    18
 73
    14
 74
     0
 42
0.00000001
 43
0.00000001
 12
1.0
 22
0.0
 32
0.0
 13
1.0
 23
0.0
 33
0.0
 40
0.0
 40
0.0
 40
0.0
 40
0.0
 40
0.250000000000001
 40
0.250000000000001
 40
0.500000000000002
 40
0.500000000000002
 40
0.750000000000003
 40
0.750000000000003
 40
0.8750000000000023
 40
0.8750000000000023
 40
0.9375000000000012
 40
0.9375000000000012
 40
1.0
 40
1.0
 40
1.0
 40
1.0
 10
167.1146893193055
 20
131.1958220689459
 30
0.0
 10
167.1146893193055
 20
131.1126151600887
 30
0.0
 10
167.0788402193673
 20
131.0238785047752
 30
0.0
 10
166.9539684833333
 20
130.8417533142149
 30
0.0
 10
166.8635680656855
 20
130.7466232655883
 30
0.0
 10
166.6413254109433
 20
130.557441756464
 30
0.0
 10
166.5115606244975
 20
130.4624965883693
 30
0.0
 10
166.270923167186
 20
130.3242178807893
 30
0.0
 10
166.1831558690485
 20
130.278507447487
 30
0.0
 10
166.0286317818417
 20
130.2206841422655
 30
0.0
 10
165.972020895787
 20
130.2029693782276
 30
0.0
 10
165.8479768648804
 20
130.1784300749947
 30
0.0
 10
165.7802621898621
 20
130.1724509364565
 30
0.0
 10
165.7146893193055
 20
130.1748017884107
 30
0.0
  0
SPLINE
  5
13E
330
1F
100
AcDbEntity
  8
0
  6
HIDDEN
 62
     7
370
     0
100
AcDbSpline
210
0.0
220
0.0
230
1.0
 70
     8
 71
     3
 72
    10
 73
     6
 74
     0
 42
0.00000001
 43
0.00000001
 12
1.0
 22
0.0
 32
0.0
 13
1.0
 23
0.0
 33
0.0
 40
0.0
 40
0.0
 40
0.0
 40
0.0
 40
0.5
 40
0.5
 40
1.0
 40
1.0
 40
1.0
 40
1.0
 10
165.7146893193055
 20
130.1748017884107
 30
0.0
 10
165.1271037722149
 20
130.1958673086471
 30
0.0
 10
164.5363573787545
 20
130.2066257945193
 30
0.0
 10
163.3523382134556
 20
130.219990575055
 30
0.0
 10
162.7589242252502
 20
130.2221332177196
 30
0.0
 10
162.1646893193055
 20
130.221652161978
 30
0.0
  0
SPLINE
  5
13F
330
1F
100
AcDbEntity
  8
0
  6
HIDDEN
 62
     7
370
     0
100
AcDbSpline
210
0.0
220
0.0
230
1.0
 70
     8
 71
     3
 72
     8
 73
     4
 74
     0
 42
0.00000001
 43
0.00000001
 12
1.0
 22
0.0
 32
0.0
 13
1.0
 23
0.0
 33
0.0
 40
0.0000005099763571
 40
0.0000005099763571
 40
0.0000005099763571
 40
0.0000005099763571
 40
0.0000262827998697
 40
0.0000262827998697
 40
0.0000262827998697
 40
0.0000262827998697
 10
162.1646893193055
 20
130.221652161978
 30
0.0
 10
162.1613205800777
 20
130.2183304930221
 30
0.0
 10
162.1579721270986
 20
130.2150025357433
 30
0.0
 10
162.1546443888873
 20
130.2116682888706
 30
0.0
  0
SPLINE
  5
140
330
1F
100
AcDbEntity
  8
0
  6
HIDDEN
 62
     7
370
     0
100
AcDbSpline
210
0.0
220
0.0
230
1.0
 70
     8
 71
     3
 72
     8
 73
     4
 74
     0
 42
0.00000001
 43
0.00000001
 12
1.0
 22
0.0
 32
0.0
 13
1.0
 23
0.0
 33
0.0
 40
0.0000005954826279
 40
0.0000005954826279
 40
0.0000005954826279
 40
0.0000005954826279
 40
0.0000302093805348
 40
0.0000302093805348
 40
0.0000302093805348
 40
0.0000302093805348
 10
162.1546443888959
 20
88.55689796770729
 30
0.0
 10
162.1579604162161
 20
88.55295118811149
 30
0.0
 10
162.1613089676084
 20
88.54901279698156
 30
0.0
 10
162.1646893193054
 20
88.5450828380554
 30
0.0
  0
SPLINE
  5
141
330
1F
100
AcDbEntity
  8
0
  6
HIDDEN
 62
     7
370
     0
100
AcDbSpline
210
0.0
220
0.0
230
1.0
 70
     8
 71
     3
 72
    12
 73
     8
 74
     0
 42
0.00000001
 43
0.00000001
 12
1.0
 22
0.0
 32
0.0
 13
1.0
 23
0.0
 33
0.0
 40
0.0
 40
0.0
 40
0.0
 40
0.0
 40
0.1192153572537782
 40
0.2486291370015994
 40
0.5007187166807885
 40
0.753705439744719
 40
0.9999999999999999
 40
0.9999999999999999
 40
0.9999999999999999
 40
0.9999999999999999
 10
180.9098398183513
 20
85.82711524675977
 30
0.0
 10
180.8276969544554
 20
85.8193795238197
 30
0.0
 10
180.6563842156291
 20
85.80324631612754
 30
0.0
 10
180.2900306031713
 20
85.770270022151
 30
0.0
 10
179.9852673420117
 20
85.73209325248804
 30
0.0
 10
179.7268884083516
 20
85.70021578691157
 30
0.0
 10
179.6978968216686
 20
85.69619141672224
 30
0.0
 10
179.6835953240324
 20
85.6942062021364
 30
0.0
  0
SPLINE
  5
142
330
1F
100
AcDbEntity
  8
0
  6
HIDDEN
 62
     7
370
     0
100
AcDbSpline
210
0.0
220
0.0
230
1.0
 70
     8
 71
     3
 72
    20
 73
    16
 74
     0
 42
0.00000001
 43
0.00000001
 12
1.0
 22
0.0
 32
0.0
 13
1.0
 23
0.0
 33
0.0
 40
0.0
 40
0.0
 40
0.0
 40
0.0
 40
0.001437142555551
 40
0.0850458965237325
 40
0.1697599737566609
 40
0.2540983572194236
 40
0.337329559157597
 40
0.4202346543774696
 40
0.5035601673255862
 40
0.5868465303357372
 40
0.6687599864841126
 40
0.7507345960013674
 40
0.8338925311456853
 40
0.9172624283936205
 40
1.0
 40
1.0
 40
1.0
 40
1.0
 10
188.0977557842661
 20
85.27265607725275
 30
0.0
 10
188.0982088643315
 20
85.27255261763722
 30
0.0
 10
188.1250208185191
 20
85.26643017994142
 30
0.0
 10
188.0289827850393
 20
85.2884963670902
 30
0.0
 10
187.7959413772981
 20
85.34038697275479
 30
0.0
 10
187.4021549845588
 20
85.42543996528016
 30
0.0
 10
186.8776967235208
 20
85.5271981337861
 30
0.0
 10
186.2387335414481
 20
85.63509332706839
 30
0.0
 10
185.5055682641564
 20
85.73614010606958
 30
0.0
 10
184.7130052673138
 20
85.82054923584887
 30
0.0
 10
183.8882563767384
 20
85.87795146141974
 30
0.0
 10
183.0615390548348
 20
85.90470918899504
 30
0.0
 10
182.2672316220207
 20
85.90027498537233
 30
0.0
 10
181.523801949384
 20
85.87295840705642
 30
0.0
 10
181.113973827556
 20
85.84235747039695
 30
0.0
 10
180.9098398183513
 20
85.82711524675977
 30
0.0
  0
SPLINE
  5
143
330
1F
100
AcDbEntity
  8
0
  6
HIDDEN
 62
     7
370
     0
100
AcDbSpline
210
0.0
220
0.0
230
1.0
 70
     8
 71
     3
 72
    20
 73
    16
 74
     0
 42
0.00000001
 43
0.00000001
 12
1.0
 22
0.0
 32
0.0
 13
1.0
 23
0.0
 33
0.0
 40
0.0
 40
0.0
 40
0.0
 40
0.0
 40
0.0828182200643154
 40
0.1661936689022571
 40
0.2493852920304393
 40
0.3315154858705138
 40
0.413380769036991
 40
0.4968356030727598
 40
0.5800413963872413
 40
0.6629790193136592
 40
0.7460493153741201
 40
0.8302847929446943
 40
0.9148461955451018
 40
0.9984038503992553
 40
0.9999999999999999
 40
0.9999999999999999
 40
0.9999999999999999
 40
0.9999999999999999
 10
180.9097466860939
 20
132.8762967825998
 30
0.0
 10
181.114398509472
 20
132.8611075448412
 30
0.0
 10
181.5250791223654
 20
132.8306268710355
 30
0.0
 10
182.2688043544439
 20
132.8033134532793
 30
0.0
 10
183.0637638510673
 20
132.798901347681
 30
0.0
 10
183.8908924831834
 20
132.8255694708135
 30
0.0
 10
184.7166342058744
 20
132.883033568997
 30
0.0
 10
185.5089113192694
 20
132.9676208268247
 30
0.0
 10
186.2417344104038
 20
133.0687963840083
 30
0.0
 10
186.8796443978438
 20
133.176580203356
 30
0.0
 10
187.4034989690024
 20
133.2781878117893
 30
0.0
 10
187.7966429606185
 20
133.3630794113166
 30
0.0
 10
188.029308553329
 20
133.4149087412481
 30
0.0
 10
188.1253707056705
 20
133.4370280923519
 30
0.0
 10
188.0982104031194
 20
133.4308585572897
 30
0.0
 10
188.0977013018955
 20
133.4307429135908
 30
0.0
  0
SPLINE
  5
144
330
1F
100
AcDbEntity
  8
0
  6
HIDDEN
 62
     7
370
     0
100
AcDbSpline
210
0.0
220
0.0
230
1.0
 70
     8
 71
     3
 72
    12
 73
     8
 74
     0
 42
0.00000001
 43
0.00000001
 12
1.0
 22
0.0
 32
0.0
 13
1.0
 23
0.0
 33
0.0
 40
0.0
 40
0.0
 40
0.0
 40
0.0
 40
0.24684126657015
 40
0.4995707768295318
 40
0.7516701332889744
 40
0.8176861283293371
 40
1.0
 40
1.0
 40
1.0
 40
1.0
 10
179.6831901987124
 20
133.0092542559971
 30
0.0
 10
179.6973036233828
 20
133.0072357604788
 30
0.0
 10
179.7258671396224
 20
133.0031506194969
 30
0.0
 10
179.9866574526411
 20
132.9711525610903
 30
0.0
 10
180.2535461266515
 20
132.9368858728172
 30
0.0
 10
180.612222727554
 20
132.9041934021209
 30
0.0
 10
180.7837893344323
 20
132.888106871214
 30
0.0
 10
180.9097466860939
 20
132.8762967825998
 30
0.0
  0
LINE
  5
145
330
1F
100
AcDbEntity
  8
0
  6
HIDDEN
 62
     7
370
     0
100
AcDbLine
 10
161.0146894922
 20
89.6985542716
 30
0.0
 11
161.0212087502
 21
89.7008956165
 31
0.0
  0
LWPOLYLINE
  5
146
330
1F
100
AcDbEntity
  8
0
  6
HIDDEN
 62
     7
370
     0
100
AcDbPolyline
 90
       26
 70
   128
 43
0.0
 10
218.8171096017
 20
118.0784621031
 10
219.01294625
 20
118.1488747464
 10
219.3014830221
 20
118.0980319844
 10
219.6645907928
 20
117.9291310475
 10
220.0794540216
 20
117.6527824939
 10
220.5200049897
 20
117.2863517643
 10
220.9585629274
 20
116.852862084
 10
221.3675718625
 20
116.3795513787
 10
221.7213328798
 20
115.8961600379
 10
221.9976153095
 20
115.4330612847
 10
222.1790611615
 20
115.0193524302
 10
222.2542691846
 20
114.6810294815
 10
222.2185138484
 20
114.4393494108
 10
222.0740415026
 20
114.3094988295
 10
221.82993068
 20
114.2996361234
 10
221.5015184005
 20
114.4103810878
 10
221.1094409098
 20
114.6347753459
 10
220.6783335527
 20
114.9587196053
 10
220.2352847775
 20
115.3618584142
 10
219.8081336786
 20
115.8188621269
 10
219.4237172474
 20
116.3010148087
 10
219.1061921288
 20
116.7780214676
 10
218.875509115
 20
117.2199093492
 10
218.7461633106
 20
117.5989138649
 10
218.7262795736
 20
117.8912206308
 10
218.8171096017
 20
118.0784621031
  0
SPLINE
  5
147
330
1F
100
AcDbEntity
  8
0
  6
HIDDEN
 62
     7
370
     0
100
AcDbSpline
210
0.0
220
0.0
230
1.0
 70
     8
 71
     3
 72
    10
 73
     6
 74
     0
 42
0.00000001
 43
0.00000001
 12
1.0
 22
0.0
 32
0.0
 13
1.0
 23
0.0
 33
0.0
 40
0.0
 40
0.0
 40
0.0
 40
0.0
 40
0.5
 40
0.5
 40
1.0
 40
1.0
 40
1.0
 40
1.0
 10
225.0800696134026
 20
117.3182552629243
 30
0.0
 10
224.9258306890836
 20
117.2021175944203
 30
0.0
 10
224.7711340618513
 20
117.077281588323
 30
0.0
 10
224.4628622587011
 20
116.8038638812338
 30
0.0
 10
224.3085091039084
 20
116.6542586072436
 30
0.0
 10
224.1580120972097
 20
116.4990159740938
 30
0.0
  0
SPLINE
  5
148
330
1F
100
AcDbEntity
  8
0
  6
HIDDEN
 62
     7
370
     0
100
AcDbSpline
210
0.0
220
0.0
230
1.0
 70
     8
 71
     3
 72
    80
 73
    76
 74
     0
 42
0.00000001
 43
0.00000001
 12
1.0
 22
0.0
 32
0.0
 13
1.0
 23
0.0
 33
0.0
 40
0.0
 40
0.0
 40
0.0
 40
0.0
 40
0.0156249999999995
 40
0.0156249999999995
 40
0.0312499999999991
 40
0.0312499999999991
 40
0.0468749999999988
 40
0.0468749999999988
 40
0.0624999999999986
 40
0.0624999999999986
 40
0.0937499999999983
 40
0.0937499999999983
 40
0.124999999999998
 40
0.124999999999998
 40
0.1562499999999977
 40
0.1562499999999977
 40
0.1874999999999974
 40
0.1874999999999974
 40
0.2187499999999972
 40
0.2187499999999972
 40
0.2499999999999969
 40
0.2499999999999969
 40
0.2656249999999971
 40
0.2656249999999971
 40
0.2812499999999972
 40
0.2812499999999972
 40
0.3124999999999974
 40
0.3124999999999974
 40
0.3437499999999977
 40
0.3437499999999977
 40
0.3749999999999979
 40
0.3749999999999979
 40
0.4374999999999988
 40
0.4374999999999988
 40
0.468749999999999
 40
0.468749999999999
 40
0.4843749999999992
 40
0.4843749999999992
 40
0.4999999999999993
 40
0.4999999999999993
 40
0.5156249999999994
 40
0.5156249999999994
 40
0.5312499999999996
 40
0.5312499999999996
 40
0.5624999999999998
 40
0.5624999999999998
 40
0.5937500000000001
 40
0.5937500000000001
 40
0.6250000000000004
 40
0.6250000000000004
 40
0.6562500000000008
 40
0.6562500000000008
 40
0.687500000000001
 40
0.687500000000001
 40
0.7187500000000013
 40
0.7187500000000013
 40
0.7500000000000011
 40
0.7500000000000011
 40
0.7812500000000009
 40
0.7812500000000009
 40
0.8125000000000006
 40
0.8125000000000006
 40
0.8750000000000003
 40
0.8750000000000003
 40
0.9062500000000002
 40
0.9062500000000002
 40
0.9375
 40
0.9375
 40
0.953125
 40
0.953125
 40
0.96875
 40
0.96875
 40
0.984375
 40
0.984375
 40
1.0
 40
1.0
 40
1.0
 40
1.0
 10
224.158012097164
 20
116.4990159741409
 30
0.0
 10
224.1910113648856
 20
116.4756036049457
 30
0.0
 10
224.2115269692585
 20
116.444351880843
 30
0.0
 10
224.2110192336474
 20
116.3567140977931
 30
0.0
 10
224.1900524039355
 20
116.3027415730866
 30
0.0
 10
224.1249035118575
 20
116.189531176558
 30
0.0
 10
224.0822484628227
 20
116.1316960097373
 30
0.0
 10
223.9869759576245
 20
116.0176409828423
 30
0.0
 10
223.9338940466926
 20
115.961169054152
 30
0.0
 10
223.766795393651
 20
115.7989922707165
 30
0.0
 10
223.6444297394603
 20
115.6995526493622
 30
0.0
 10
223.3846133309329
 20
115.5218105535578
 30
0.0
 10
223.2468833052814
 20
115.4433867833731
 30
0.0
 10
222.9554272302863
 20
115.3124441679547
 30
0.0
 10
222.8045452993422
 20
115.26129904616
 30
0.0
 10
222.4944193253997
 20
115.1937023730156
 30
0.0
 10
222.3328243913459
 20
115.1770911921675
 30
0.0
 10
222.0090915315376
 20
115.1887483783544
 30
0.0
 10
221.8477119143659
 20
115.2163878184155
 30
0.0
 10
221.5275407048065
 20
115.3264230283585
 30
0.0
 10
221.376951895295
 20
115.4060888738259
 30
0.0
 10
221.1666856696613
 20
115.5655230952177
 30
0.0
 10
221.0986797036625
 20
115.6260735792018
 30
0.0
 10
220.973087490912
 20
115.7567420382336
 30
0.0
 10
220.9150059539896
 20
115.8270701397084
 30
0.0
 10
220.7543217856277
 20
116.0523702179698
 30
0.0
 10
220.6657317829234
 20
116.2223529587685
 30
0.0
 10
220.5310714490968
 20
116.5764110578255
 30
0.0
 10
220.4833962370766
 20
116.763980388286
 30
0.0
 10
220.424512376432
 20
117.1378404501967
 30
0.0
 10
220.4123362616948
 20
117.3264293736021
 30
0.0
 10
220.4204940983311
 20
117.8964719863081
 30
0.0
 10
220.4823786040021
 20
118.2609641932748
 30
0.0
 10
220.6495283725675
 20
118.7926179417806
 30
0.0
 10
220.7175171801207
 20
118.966253267661
 30
0.0
 10
220.8457261225796
 20
119.2180505623462
 30
0.0
 10
220.8926143312495
 20
119.2999774289777
 30
0.0
 10
220.9995235341536
 20
119.4571765429808
 30
0.0
 10
221.0604189515128
 20
119.5328205960594
 30
0.0
 10
221.1940781150355
 20
119.6596697063739
 30
0.0
 10
221.2650238142864
 20
119.7086295230923
 30
0.0
 10
221.4043176388687
 20
119.7799505183799
 30
0.0
 10
221.4720285901605
 20
119.8033536180292
 30
0.0
 10
221.6762446846191
 20
119.8557706506998
 30
0.0
 10
221.8111351709271
 20
119.8666884167107
 30
0.0
 10
222.0883250613364
 20
119.8668199443153
 30
0.0
 10
222.2307532767044
 20
119.8548353034561
 30
0.0
 10
222.5282606726464
 20
119.8100725274366
 30
0.0
 10
222.6823195092225
 20
119.7771253238945
 30
0.0
 10
222.9964224524651
 20
119.6911300733834
 30
0.0
 10
223.1573940652737
 20
119.6379729116957
 30
0.0
 10
223.4900890099124
 20
119.5072052608349
 30
0.0
 10
223.6563883610856
 20
119.4316825981747
 30
0.0
 10
223.9883012790985
 20
119.25762648234
 30
0.0
 10
224.1540550276445
 20
119.1585431763379
 30
0.0
 10
224.46409943604
 20
118.9456561082099
 30
0.0
 10
224.6119651594353
 20
118.8291454718547
 30
0.0
 10
224.869421630045
 20
118.5944090963742
 30
0.0
 10
224.9829607143472
 20
118.4726875361482
 30
0.0
 10
225.1665854522445
 20
118.2387203595595
 30
0.0
 10
225.2390239417234
 20
118.1238447258581
 30
0.0
 10
225.3972521072346
 20
117.8034504015818
 30
0.0
 10
225.4283425808007
 20
117.6159404797313
 30
0.0
 10
225.400015332234
 20
117.3881755709629
 30
0.0
 10
225.3781968205448
 20
117.3204013219065
 30
0.0
 10
225.3145984215223
 20
117.2026976250372
 30
0.0
 10
225.2729069413236
 20
117.1531714844218
 30
0.0
 10
225.2029447252239
 20
117.1003866518466
 30
0.0
 10
225.1783311211347
 20
117.0863605898748
 30
0.0
 10
225.1297449804405
 20
117.0701424037228
 30
0.0
 10
225.1058238758469
 20
117.067750803801
 30
0.0
 10
225.0671414601708
 20
117.0865953259483
 30
0.0
 10
225.0533742220989
 20
117.1088936151208
 30
0.0
 10
225.0508004486759
 20
117.1912846683259
 30
0.0
 10
225.0621350701396
 20
117.2502083149136
 30
0.0
 10
225.080069613271
 20
117.3182552628583
 30
0.0
  0
SPLINE
  5
149
330
1F
100
AcDbEntity
  8
0
  6
HIDDEN
 62
     7
370
     0
100
AcDbSpline
210
0.0
220
0.0
230
1.0
 70
    11
 71
     3
 72
    56
 73
    52
 74
     0
 42
0.00000001
 43
0.00000001
 12
1.0
 22
0.0
 32
0.0
 13
1.0
 23
0.0
 33
0.0
 40
0.0
 40
0.0
 40
0.0
 40
0.0
 40
0.0625000000000003
 40
0.0625000000000003
 40
0.0937500000000003
 40
0.0937500000000003
 40
0.1250000000000004
 40
0.1250000000000004
 40
0.1562500000000005
 40
0.1562500000000005
 40
0.1875000000000006
 40
0.1875000000000006
 40
0.2187500000000007
 40
0.2187500000000007
 40
0.2500000000000007
 40
0.2500000000000007
 40
0.3125000000000006
 40
0.3125000000000006
 40
0.3437500000000006
 40
0.3437500000000006
 40
0.3750000000000006
 40
0.3750000000000006
 40
0.4062500000000005
 40
0.4062500000000005
 40
0.4375000000000005
 40
0.4375000000000005
 40
0.4687500000000005
 40
0.4687500000000005
 40
0.5000000000000006
 40
0.5000000000000006
 40
0.5625000000000006
 40
0.5625000000000006
 40
0.6250000000000007
 40
0.6250000000000007
 40
0.6875000000000007
 40
0.6875000000000007
 40
0.7187500000000008
 40
0.7187500000000008
 40
0.7500000000000008
 40
0.7500000000000008
 40
0.7812500000000008
 40
0.7812500000000008
 40
0.8125000000000008
 40
0.8125000000000008
 40
0.8750000000000007
 40
0.8750000000000007
 40
0.9375000000000004
 40
0.9375000000000004
 40
0.9687500000000003
 40
0.9687500000000003
 40
1.0
 40
1.0
 40
1.0
 40
1.0
 10
186.6696913209071
 20
89.51418592076651
 30
0.0
 10
186.4139040103593
 20
89.54970922466005
 30
0.0
 10
186.123714203416
 20
89.58525309362828
 30
0.0
 10
185.6370611051253
 20
89.63172479353716
 30
0.0
 10
185.4667152629641
 20
89.64597070676867
 30
0.0
 10
185.119741852873
 20
89.67025862096708
 30
0.0
 10
184.9418039556383
 20
89.6804349672891
 30
0.0
 10
184.5768846780785
 20
89.696110294893
 30
0.0
 10
184.3885500859832
 20
89.70159725610588
 30
0.0
 10
184.0146632335277
 20
89.70705725038161
 30
0.0
 10
183.8279730193578
 20
89.70711547364077
 30
0.0
 10
183.4550945284386
 20
89.70193133166399
 30
0.0
 10
183.2673902855162
 20
89.69661585319255
 30
0.0
 10
182.9004713859686
 20
89.68111347216926
 30
0.0
 10
182.7220216439041
 20
89.67101406440857
 30
0.0
 10
182.2012327405434
 20
89.63488222275465
 30
0.0
 10
181.8703490208725
 20
89.60245300173658
 30
0.0
 10
181.4338474625409
 20
89.55092651036948
 30
0.0
 10
181.2970619234883
 20
89.5332018993255
 30
0.0
 10
181.0413373140345
 20
89.49780757281621
 30
0.0
 10
180.9237135859289
 20
89.4803110514356
 30
0.0
 10
180.7136441327403
 20
89.4476086554471
 30
0.0
 10
180.6203092940553
 20
89.43227684650104
 30
0.0
 10
180.4573635833761
 20
89.40468068715224
 30
0.0
 10
180.3876606205263
 20
89.39239400403862
 30
0.0
 10
180.2770375541942
 20
89.37254901225216
 30
0.0
 10
180.2353558825837
 20
89.3648628997255
 30
0.0
 10
180.1791807422085
 20
89.35444551934823
 30
0.0
 10
180.1647424664479
 20
89.35172436167177
 30
0.0
 10
180.1645834713453
 20
89.3516945500912
 30
0.0
 10
180.2202428090821
 20
89.36235668023916
 30
0.0
 10
180.4430675696165
 20
89.40233735197414
 30
0.0
 10
180.6049798552102
 20
89.43067360360646
 30
0.0
 10
181.0287714139459
 20
89.4966845125665
 30
0.0
 10
181.2836178364932
 20
89.53314438535773
 30
0.0
 10
181.7222614966069
 20
89.58499590834408
 30
0.0
 10
181.8789590328864
 20
89.60188354240405
 30
0.0
 10
182.202158982665
 20
89.63257696302499
 30
0.0
 10
182.3698324640853
 20
89.64653676996885
 30
0.0
 10
182.717417330274
 20
89.67073619912003
 30
0.0
 10
182.8989808110929
 20
89.68103314795083
 30
0.0
 10
183.2651670859018
 20
89.69653909481274
 30
0.0
 10
183.4498245017441
 20
89.70180507670973
 30
0.0
 10
184.0084209083025
 20
89.70972789996523
 30
0.0
 10
184.3907552497731
 20
89.7040137765916
 30
0.0
 10
185.1180523941414
 20
89.67295469042932
 30
0.0
 10
185.4737464682414
 20
89.64726605437937
 30
0.0
 10
185.9570587451924
 20
89.60119404417128
 30
0.0
 10
186.1107563524089
 20
89.58459188575497
 30
0.0
 10
186.403178577252
 20
89.54997203054069
 30
0.0
 10
186.5417938004572
 20
89.5319481095023
 30
0.0
 10
186.6696913209071
 20
89.51418592076651
 30
0.0
  0
SPLINE
  5
14A
330
1F
100
AcDbEntity
  8
0
  6
HIDDEN
 62
     7
370
     0
100
AcDbSpline
210
0.0
220
0.0
230
1.0
 70
    11
 71
     3
 72
    56
 73
    52
 74
     0
 42
0.00000001
 43
0.00000001
 12
1.0
 22
0.0
 32
0.0
 13
1.0
 23
0.0
 33
0.0
 40
0.0
 40
0.0
 40
0.0
 40
0.0
 40
0.0624999999999999
 40
0.0624999999999999
 40
0.0937499999999998
 40
0.0937499999999998
 40
0.1249999999999997
 40
0.1249999999999997
 40
0.1562499999999996
 40
0.1562499999999996
 40
0.1874999999999994
 40
0.1874999999999994
 40
0.2187499999999993
 40
0.2187499999999993
 40
0.2499999999999992
 40
0.2499999999999992
 40
0.3124999999999989
 40
0.3124999999999989
 40
0.3437499999999988
 40
0.3437499999999988
 40
0.3749999999999988
 40
0.3749999999999988
 40
0.4062499999999987
 40
0.4062499999999987
 40
0.4374999999999987
 40
0.4374999999999987
 40
0.4687499999999987
 40
0.4687499999999987
 40
0.4999999999999986
 40
0.4999999999999986
 40
0.5624999999999984
 40
0.5624999999999984
 40
0.6249999999999984
 40
0.6249999999999984
 40
0.6874999999999983
 40
0.6874999999999983
 40
0.7187499999999983
 40
0.7187499999999983
 40
0.7499999999999984
 40
0.7499999999999984
 40
0.7812499999999986
 40
0.7812499999999986
 40
0.8124999999999986
 40
0.8124999999999986
 40
0.874999999999999
 40
0.874999999999999
 40
0.9374999999999996
 40
0.9374999999999996
 40
0.9687499999999997
 40
0.9687499999999997
 40
1.0
 40
1.0
 40
1.0
 40
1.0
 10
186.6696913209071
 20
129.1892428723994
 30
0.0
 10
186.4139040103594
 20
129.1537195685059
 30
0.0
 10
186.1237142034161
 20
129.1181756995376
 30
0.0
 10
185.6370611051253
 20
129.0717039996287
 30
0.0
 10
185.4667152629641
 20
129.0574580863972
 30
0.0
 10
185.1197418528731
 20
129.0331701721989
 30
0.0
 10
184.9418039556383
 20
129.0229938258768
 30
0.0
 10
184.5768846780785
 20
129.0073184982729
 30
0.0
 10
184.3885500859832
 20
129.00183153706
 30
0.0
 10
184.0146632335277
 20
128.9963715427843
 30
0.0
 10
183.8279730193578
 20
128.9963133195251
 30
0.0
 10
183.4550945284386
 20
129.0014974615019
 30
0.0
 10
183.2673902855162
 20
129.0068129399734
 30
0.0
 10
182.9004713859686
 20
129.0223153209967
 30
0.0
 10
182.7220216439042
 20
129.0324147287573
 30
0.0
 10
182.2012327405434
 20
129.0685465704113
 30
0.0
 10
181.8703490208725
 20
129.1009757914293
 30
0.0
 10
181.4338474625409
 20
129.1525022827964
 30
0.0
 10
181.2970619234883
 20
129.1702268938404
 30
0.0
 10
181.0413373140345
 20
129.2056212203497
 30
0.0
 10
180.9237135859289
 20
129.2231177417303
 30
0.0
 10
180.7136441327403
 20
129.2558201377188
 30
0.0
 10
180.6203092940553
 20
129.2711519466649
 30
0.0
 10
180.4573635833761
 20
129.2987481060136
 30
0.0
 10
180.3876606205263
 20
129.3110347891273
 30
0.0
 10
180.2770375541942
 20
129.3308797809137
 30
0.0
 10
180.2353558825837
 20
129.3385658934404
 30
0.0
 10
180.1791807422085
 20
129.3489832738177
 30
0.0
 10
180.1647424664479
 20
129.3517044314941
 30
0.0
 10
180.1645834713453
 20
129.3517342430747
 30
0.0
 10
180.2202428090821
 20
129.3410721129268
 30
0.0
 10
180.4430675696165
 20
129.3010914411918
 30
0.0
 10
180.6049798552102
 20
129.2727551895595
 30
0.0
 10
181.0287714139459
 20
129.2067442805994
 30
0.0
 10
181.2836178364932
 20
129.1702844078082
 30
0.0
 10
181.7222614966069
 20
129.1184328848218
 30
0.0
 10
181.8789590328864
 20
129.1015452507619
 30
0.0
 10
182.202158982665
 20
129.0708518301409
 30
0.0
 10
182.3698324640853
 20
129.0568920231971
 30
0.0
 10
182.717417330274
 20
129.0326925940459
 30
0.0
 10
182.8989808110929
 20
129.0223956452151
 30
0.0
 10
183.2651670859018
 20
129.0068896983532
 30
0.0
 10
183.4498245017441
 20
129.0016237164562
 30
0.0
 10
184.0084209083025
 20
128.9937008932007
 30
0.0
 10
184.3907552497731
 20
128.9994150165743
 30
0.0
 10
185.1180523941414
 20
129.0304741027366
 30
0.0
 10
185.4737464682414
 20
129.0561627387865
 30
0.0
 10
185.9570587451924
 20
129.1022347489946
 30
0.0
 10
186.1107563524089
 20
129.118836907411
 30
0.0
 10
186.403178577252
 20
129.1534567626252
 30
0.0
 10
186.5417938004572
 20
129.1714806836636
 30
0.0
 10
186.6696913209071
 20
129.1892428723994
 30
0.0
  0
SPLINE
  5
14B
330
1F
100
AcDbEntity
  8
0
  6
HIDDEN
 62
     7
370
     0
100
AcDbSpline
210
0.0
220
0.0
230
1.0
 70
    11
 71
     3
 72
    22
 73
    18
 74
     0
 42
0.00000001
 43
0.00000001
 12
1.0
 22
0.0
 32
0.0
 13
1.0
 23
0.0
 33
0.0
 40
0.0
 40
0.0
 40
0.0
 40
0.0
 40
0.125
 40
0.125
 40
0.2500000000000001
 40
0.2500000000000001
 40
0.3750000000000001
 40
0.3750000000000001
 40
0.5000000000000001
 40
0.5000000000000001
 40
0.6250000000000001
 40
0.6250000000000001
 40
0.7500000000000002
 40
0.7500000000000002
 40
0.8750000000000002
 40
0.8750000000000002
 40
1.0
 40
1.0
 40
1.0
 40
1.0
 10
186.6696913209071
 20
129.1892428723994
 30
0.0
 10
186.8286341498762
 20
129.2113165804464
 30
0.0
 10
186.9693256977665
 20
129.2280003984341
 30
0.0
 10
187.215311935229
 20
129.2542220933163
 30
0.0
 10
187.3213500179103
 20
129.2638013991617
 30
0.0
 10
187.4918420584773
 20
129.2778806662408
 30
0.0
 10
187.555894757941
 20
129.2823872424879
 30
0.0
 10
187.642398809034
 20
129.2882514123258
 30
0.0
 10
187.6646323043942
 20
129.2895933448441
 30
0.0
 10
187.6647461104061
 20
129.2896004845936
 30
0.0
 10
187.6432881819208
 20
129.2883078491074
 30
0.0
 10
187.5573023890419
 20
129.2824864195971
 30
0.0
 10
187.4919882422923
 20
129.2778869503213
 30
0.0
 10
187.3229824083569
 20
129.2639419295115
 30
0.0
 10
187.2190233704811
 20
129.2545895426531
 30
0.0
 10
186.9715129242421
 20
129.2282610721867
 30
0.0
 10
186.8286288341585
 20
129.2113158422087
 30
0.0
 10
186.6696913209074
 20
129.1892428723995
 30
0.0
  0
SPLINE
  5
14C
330
1F
100
AcDbEntity
  8
0
  6
HIDDEN
 62
     7
370
     0
100
AcDbSpline
210
0.0
220
0.0
230
1.0
 70
    11
 71
     3
 72
    22
 73
    18
 74
     0
 42
0.00000001
 43
0.00000001
 12
1.0
 22
0.0
 32
0.0
 13
1.0
 23
0.0
 33
0.0
 40
0.0
 40
0.0
 40
0.0
 40
0.0
 40
0.1249999999999999
 40
0.1249999999999999
 40
0.2499999999999999
 40
0.2499999999999999
 40
0.3749999999999999
 40
0.3749999999999999
 40
0.4999999999999999
 40
0.4999999999999999
 40
0.6249999999999999
 40
0.6249999999999999
 40
0.7499999999999999
 40
0.7499999999999999
 40
0.8749999999999999
 40
0.8749999999999999
 40
1.0
 40
1.0
 40
1.0
 40
1.0
 10
186.6696913209071
 20
89.5141859207665
 30
0.0
 10
186.8286341498762
 20
89.49211221271943
 30
0.0
 10
186.9693256977665
 20
89.47542839473184
 30
0.0
 10
187.215311935229
 20
89.44920669984954
 30
0.0
 10
187.3213500179103
 20
89.43962739400423
 30
0.0
 10
187.4918420584773
 20
89.42554812692508
 30
0.0
 10
187.555894757941
 20
89.42104155067804
 30
0.0
 10
187.642398809034
 20
89.41517738084012
 30
0.0
 10
187.6646323043942
 20
89.41383544832182
 30
0.0
 10
187.6647461104061
 20
89.41382830857232
 30
0.0
 10
187.6432881819208
 20
89.41512094405854
 30
0.0
 10
187.5573023890418
 20
89.42094237356875
 30
0.0
 10
187.4919882422923
 20
89.4255418428446
 30
0.0
 10
187.3229824083569
 20
89.43948686365444
 30
0.0
 10
187.2190233704811
 20
89.44883925051276
 30
0.0
 10
186.9715129242421
 20
89.47516772097919
 30
0.0
 10
186.8286288341584
 20
89.49211295095719
 30
0.0
 10
186.6696913209074
 20
89.51418592076641
 30
0.0
  0
LINE
  5
14D
330
1F
100
AcDbEntity
  8
0
  6
HIDDEN
 62
     7
370
     0
100
AcDbLine
 10
192.9146893193
 20
92.3517134727
 30
0.0
 11
192.9146893193
 21
126.3330292643
 31
0.0
  0
LINE
  5
14E
330
1F
100
AcDbEntity
  8
0
  6
HIDDEN
 62
     7
370
     0
100
AcDbLine
 10
212.7985417713
 20
129.2017151357
 30
0.0
 11
218.8646890094
 21
129.2017151357
 31
0.0
  0
LINE
  5
14F
330
1F
100
AcDbEntity
  8
0
  6
HIDDEN
 62
     7
370
     0
100
AcDbLine
 10
205.1103100051
 20
129.2017151357
 30
0.0
 11
209.0308371802
 21
129.2017151357
 31
0.0
  0
LINE
  5
150
330
1F
100
AcDbEntity
  8
0
  6
HIDDEN
 62
     7
370
     0
100
AcDbLine
 10
173.918664815
 20
126.3517153205
 30
0.0
 11
173.918664815
 21
92.3517134727
 31
0.0
  0
SPLINE
  5
151
330
1F
100
AcDbEntity
  8
0
  6
HIDDEN
 62
     7
370
     0
100
AcDbSpline
210
0.0
220
0.0
230
1.0
 70
     8
 71
     3
 72
    64
 73
    60
 74
     0
 42
0.00000001
 43
0.00000001
 12
1.0
 22
0.0
 32
0.0
 13
1.0
 23
0.0
 33
0.0
 40
-0.031249999999999
 40
-0.031249999999999
 40
0.0
 40
0.0
 40
0.0312499999999999
 40
0.0312499999999999
 40
0.0624999999999998
 40
0.0624999999999998
 40
0.1249999999999996
 40
0.1249999999999996
 40
0.1562499999999997
 40
0.1562499999999997
 40
0.1874999999999999
 40
0.1874999999999999
 40
0.21875
 40
0.21875
 40
0.2500000000000001
 40
0.2500000000000001
 40
0.2812500000000003
 40
0.2812500000000003
 40
0.3125000000000004
 40
0.3125000000000004
 40
0.3750000000000011
 40
0.3750000000000011
 40
0.4062500000000016
 40
0.4062500000000016
 40
0.4375000000000021
 40
0.4375000000000021
 40
0.4687500000000027
 40
0.4687500000000027
 40
0.5000000000000032
 40
0.5000000000000032
 40
0.5312500000000038
 40
0.5312500000000038
 40
0.5625000000000043
 40
0.5625000000000043
 40
0.5937500000000042
 40
0.5937500000000042
 40
0.6250000000000041
 40
0.6250000000000041
 40
0.6562500000000041
 40
0.6562500000000041
 40
0.687500000000004
 40
0.687500000000004
 40
0.7187500000000039
 40
0.7187500000000039
 40
0.7500000000000038
 40
0.7500000000000038
 40
0.7812500000000037
 40
0.7812500000000037
 40
0.8125000000000036
 40
0.8125000000000036
 40
0.8750000000000028
 40
0.8750000000000028
 40
0.9062500000000024
 40
0.9062500000000024
 40
0.937500000000002
 40
0.937500000000002
 40
0.968750000000001
 40
0.968750000000001
 40
1.0
 40
1.0
 40
1.03125
 40
1.03125
 10
223.0843490086078
 20
113.1114066069408
 30
0.0
 10
222.7450296300032
 20
113.1114066069408
 30
0.0
 10
222.5793431051701
 20
113.1020138868191
 30
0.0
 10
222.2551070289959
 20
113.0648200602004
 30
0.0
 10
222.0953001932679
 20
113.036491844438
 30
0.0
 10
221.6461253709258
 20
112.9244714316025
 30
0.0
 10
221.3767001548616
 20
112.8118588870262
 30
0.0
 10
221.0386651436645
 20
112.5832359087689
 30
0.0
 10
220.9351089792653
 20
112.4956274692268
 30
0.0
 10
220.7547214886278
 20
112.3011869807837
 30
0.0
 10
220.677575154565
 20
112.1946456732837
 30
0.0
 10
220.5500547437874
 20
111.9598765325134
 30
0.0
 10
220.4995311837473
 20
111.8298240596893
 30
0.0
 10
220.4326103558207
 20
111.5581192244151
 30
0.0
 10
220.4152512931824
 20
111.4155426470984
 30
0.0
 10
220.4141539165743
 20
111.1159231369737
 30
0.0
 10
220.4308798380475
 20
110.9608471603055
 30
0.0
 10
220.4962841229475
 20
110.6530786875147
 30
0.0
 10
220.5457699746791
 20
110.4968083131303
 30
0.0
 10
220.7363823896279
 20
110.0431235206552
 30
0.0
 10
220.9209781857767
 20
109.7554554857069
 30
0.0
 10
221.2581943299823
 20
109.383537437659
 30
0.0
 10
221.3822222733684
 20
109.2677867680517
 30
0.0
 10
221.6480531417929
 20
109.0615338570313
 30
0.0
 10
221.7884702660206
 20
108.9717457892266
 30
0.0
 10
222.0861037484738
 20
108.8215115974514
 30
0.0
 10
222.245667972763
 20
108.7606143973156
 30
0.0
 10
222.5712791517715
 20
108.6786986041336
 30
0.0
 10
222.7373913873038
 20
108.6570170110365
 30
0.0
 10
223.076890434518
 20
108.6557589329825
 30
0.0
 10
223.2435638403758
 20
108.6762880466291
 30
0.0
 10
223.5694688886483
 20
108.755890688534
 30
0.0
 10
223.7295592978497
 20
108.8156994967494
 30
0.0
 10
224.0299055249922
 20
108.9651688402973
 30
0.0
 10
224.1731689739472
 20
109.0559577958985
 30
0.0
 10
224.44030787123
 20
109.2617618814079
 30
0.0
 10
224.5632673281512
 20
109.3757115921212
 30
0.0
 10
224.7897793097644
 20
109.6237764516981
 30
0.0
 10
224.8936260222034
 20
109.758861514945
 30
0.0
 10
225.0737826007855
 20
110.0382843382473
 30
0.0
 10
225.1512802986094
 20
110.1837046320904
 30
0.0
 10
225.2797584570772
 20
110.4859152613899
 30
0.0
 10
225.3299832730706
 20
110.6422302791264
 30
0.0
 10
225.3967600938417
 20
110.9491423152169
 30
0.0
 10
225.4142967951943
 20
111.1018812791577
 30
0.0
 10
225.4150689421113
 20
111.4049438311883
 30
0.0
 10
225.3983023633435
 20
111.5487925175168
 30
0.0
 10
225.3323960594368
 20
111.8223903396165
 30
0.0
 10
225.2824424882994
 20
111.9528971971851
 30
0.0
 10
225.0913649860262
 20
112.3083004068567
 30
0.0
 10
224.906062859949
 20
112.5048020369031
 30
0.0
 10
224.5670734815658
 20
112.7346972389123
 30
0.0
 10
224.4418665684534
 20
112.8018766816446
 30
0.0
 10
224.1763338943306
 20
112.9148344579042
 30
0.0
 10
224.0355390982951
 20
112.9612237546807
 30
0.0
 10
223.735476045299
 20
113.0362286648858
 30
0.0
 10
223.5752478035777
 20
113.0646696711281
 30
0.0
 10
223.2509604336573
 20
113.1019459727501
 30
0.0
 10
223.0843490086078
 20
113.1114066069408
 30
0.0
 10
222.7450296300032
 20
113.1114066069408
 30
0.0
  0
ARC
  5
152
330
1F
100
AcDbEntity
  8
0
  6
HIDDEN
 62
     7
370
     0
100
AcDbCircle
 10
223.0898122818
 20
118.6297938916
 30
0.0
 40
2.383540462069729
100
AcDbArc
 50
296.6254764464
 51
326.6159609103
  0
LINE
  5
153
330
1F
100
AcDbEntity
  8
0
  6
HIDDEN
 62
     7
370
     0
100
AcDbLine
 10
161.0146894922
 20
93.3217790664
 30
0.0
 11
161.0146894922
 21
125.3816497267
 31
0.0
  0
LINE
  5
154
330
1F
100
AcDbEntity
  8
0
  6
HIDDEN
 62
     7
370
     0
100
AcDbLine
 10
200.5745152813
 20
126.3517153205
 30
0.0
 11
200.5745152813
 21
92.3517134727
 31
0.0
  0
LINE
  5
155
330
1F
100
AcDbEntity
  8
0
  6
HIDDEN
 62
     7
370
     0
100
AcDbLine
 10
202.8646891807
 20
125.0767142267
 30
0.0
 11
202.8646891807
 21
93.6267145665
 31
0.0
  0
LINE
  5
156
330
1F
100
AcDbEntity
  8
0
  6
HIDDEN
 62
     7
370
     0
100
AcDbLine
 10
162.1646884699
 20
93.5502231808
 30
0.0
 11
169.7146896143
 21
93.5502231808
 31
0.0
  0
LINE
  5
157
330
1F
100
AcDbEntity
  8
0
  6
HIDDEN
 62
     7
370
     0
100
AcDbLine
 10
162.1646884699
 20
125.1532056124
 30
0.0
 11
162.1646884699
 21
93.5502231808
 31
0.0
  0
LINE
  5
158
330
1F
100
AcDbEntity
  8
0
  6
HIDDEN
 62
     7
370
     0
100
AcDbLine
 10
165.7146889587
 20
125.1532056124
 30
0.0
 11
162.1646884699
 21
125.1532056124
 31
0.0
  0
SPLINE
  5
159
330
1F
100
AcDbEntity
  8
0
  6
HIDDEN
 62
     7
370
     0
100
AcDbSpline
210
0.0
220
0.0
230
1.0
 70
     8
 71
     3
 72
    18
 73
    14
 74
     0
 42
0.00000001
 43
0.00000001
 12
1.0
 22
0.0
 32
0.0
 13
1.0
 23
0.0
 33
0.0
 40
0.0
 40
0.0
 40
0.0
 40
0.0
 40
0.2499999999999983
 40
0.2499999999999983
 40
0.3749999999999987
 40
0.3749999999999987
 40
0.4999999999999992
 40
0.4999999999999992
 40
0.6249999999999997
 40
0.6249999999999997
 40
0.7500000000000001
 40
0.7500000000000001
 40
1.0
 40
1.0
 40
1.0
 40
1.0
 10
167.1146893193055
 20
125.6392280189871
 30
0.0
 10
167.1146893193055
 20
125.5847534984349
 30
0.0
 10
167.0797786279133
 20
125.5283724390824
 30
0.0
 10
166.9777693265803
 20
125.4442955982289
 30
0.0
 10
166.9361329719022
 20
125.416961894238
 30
0.0
 10
166.8377271764134
 20
125.364007978639
 30
0.0
 10
166.7801839647092
 20
125.3381206249218
 30
0.0
 10
166.6528857911362
 20
125.2903430800886
 30
0.0
 10
166.5832984863787
 20
125.2683951619107
 30
0.0
 10
166.4318642412238
 20
125.228962596998
 30
0.0
 10
166.3491803381298
 20
125.2114063477721
 30
0.0
 10
166.0930688760917
 20
125.1689675823516
 30
0.0
 10
165.9051538722038
 20
125.1532048326146
 30
0.0
 10
165.7146893193055
 20
125.1532048326146
 30
0.0
  0
LINE
  5
15A
330
1F
100
AcDbEntity
  8
0
  6
HIDDEN
 62
     7
370
     0
100
AcDbLine
 10
167.1146884431
 20
125.6392274738
 30
0.0
 11
167.1146884431
 21
126.3517153205
 31
0.0
  0
SPLINE
  5
15B
330
1F
100
AcDbEntity
  8
0
  6
HIDDEN
 62
     7
370
     0
100
AcDbSpline
210
0.0
220
0.0
230
1.0
 70
     8
 71
     3
 72
    18
 73
    14
 74
     0
 42
0.00000001
 43
0.00000001
 12
1.0
 22
0.0
 32
0.0
 13
1.0
 23
0.0
 33
0.0
 40
0.0
 40
0.0
 40
0.0
 40
0.0
 40
0.2500000000000021
 40
0.2500000000000021
 40
0.3750000000000023
 40
0.3750000000000023
 40
0.5000000000000026
 40
0.5000000000000026
 40
0.6250000000000028
 40
0.6250000000000028
 40
0.750000000000003
 40
0.750000000000003
 40
1.0
 40
1.0
 40
1.0
 40
1.0
 10
167.1146893193055
 20
125.6392280189871
 30
0.0
 10
167.1146893193055
 20
125.5847534984349
 30
0.0
 10
167.0797786279133
 20
125.5283724390824
 30
0.0
 10
166.9777693265803
 20
125.4442955982289
 30
0.0
 10
166.9361329719022
 20
125.416961894238
 30
0.0
 10
166.8377271764134
 20
125.364007978639
 30
0.0
 10
166.7801839647091
 20
125.3381206249218
 30
0.0
 10
166.6528857911362
 20
125.2903430800886
 30
0.0
 10
166.5832984863787
 20
125.2683951619107
 30
0.0
 10
166.4318642412237
 20
125.228962596998
 30
0.0
 10
166.3491803381298
 20
125.2114063477721
 30
0.0
 10
166.0930688760918
 20
125.1689675823516
 30
0.0
 10
165.9051538722038
 20
125.1532048326146
 30
0.0
 10
165.7146893193055
 20
125.1532048326146
 30
0.0
  0
SPLINE
  5
15C
330
1F
100
AcDbEntity
  8
0
  6
HIDDEN
 62
     7
370
     0
100
AcDbSpline
210
0.0
220
0.0
230
1.0
 70
     8
 71
     3
 72
    16
 73
    12
 74
     0
 42
0.00000001
 43
0.00000001
 12
1.0
 22
0.0
 32
0.0
 13
1.0
 23
0.0
 33
0.0
 40
0.0
 40
0.0
 40
0.0
 40
0.0
 40
0.1249999999999998
 40
0.1249999999999998
 40
0.2499999999999995
 40
0.2499999999999995
 40
0.4999999999999997
 40
0.4999999999999997
 40
0.7499999999999998
 40
0.7499999999999998
 40
1.0
 40
1.0
 40
1.0
 40
1.0
 10
169.7146893193055
 20
93.55022396055129
 30
0.0
 10
169.8098110739713
 20
93.55022396055129
 30
0.0
 10
169.9031411426994
 20
93.54640812715849
 30
0.0
 10
170.0864029034374
 20
93.53163757442869
 30
0.0
 10
170.1772806189944
 20
93.5204795264531
 30
0.0
 10
170.4340823165141
 20
93.47800825631138
 30
0.0
 10
170.5891496813861
 20
93.4369620591086
 30
0.0
 10
170.8428961429408
 20
93.3418159425267
 30
0.0
 10
170.9437665946086
 20
93.28705320844513
 30
0.0
 10
171.0790130093035
 20
93.17579208454124
 30
0.0
 10
171.1146893193055
 20
93.11862234721256
 30
0.0
 10
171.1146893193055
 20
93.06420077417883
 30
0.0
  0
LINE
  5
15D
330
1F
100
AcDbEntity
  8
0
  6
HIDDEN
 62
     7
370
     0
100
AcDbLine
 10
171.1146890988
 20
93.0642013193
 30
0.0
 11
171.1146890988
 21
92.3517134727
 31
0.0
  0
SPLINE
  5
15E
330
1F
100
AcDbEntity
  8
0
  6
HIDDEN
 62
     7
370
     0
100
AcDbSpline
210
0.0
220
0.0
230
1.0
 70
     8
 71
     3
 72
    16
 73
    12
 74
     0
 42
0.00000001
 43
0.00000001
 12
1.0
 22
0.0
 32
0.0
 13
1.0
 23
0.0
 33
0.0
 40
0.0
 40
0.0
 40
0.0
 40
0.0
 40
0.1249999999999985
 40
0.1249999999999985
 40
0.249999999999997
 40
0.249999999999997
 40
0.499999999999998
 40
0.499999999999998
 40
0.749999999999999
 40
0.749999999999999
 40
1.0
 40
1.0
 40
1.0
 40
1.0
 10
169.7146893193055
 20
93.55022396055129
 30
0.0
 10
169.8098110739713
 20
93.55022396055129
 30
0.0
 10
169.9031411426994
 20
93.5464081271585
 30
0.0
 10
170.0864029034374
 20
93.53163757442869
 30
0.0
 10
170.1772806189944
 20
93.5204795264531
 30
0.0
 10
170.4340823165141
 20
93.47800825631138
 30
0.0
 10
170.5891496813861
 20
93.43696205910858
 30
0.0
 10
170.8428961429408
 20
93.3418159425267
 30
0.0
 10
170.9437665946086
 20
93.28705320844513
 30
0.0
 10
171.0790130093035
 20
93.17579208454126
 30
0.0
 10
171.1146893193055
 20
93.11862234721256
 30
0.0
 10
171.1146893193055
 20
93.06420077417884
 30
0.0
  0
LINE
  5
15F
330
1F
100
AcDbEntity
  8
0
  6
HIDDEN
 62
     7
370
     0
100
AcDbLine
 10
162.1646884699
 20
93.5502231808
 30
0.0
 11
162.1646884699
 21
125.1532056124
 31
0.0
  0
LINE
  5
160
330
1F
100
AcDbEntity
  8
0
  6
HIDDEN
 62
     7
370
     0
100
AcDbLine
 10
258.702056842
 20
138.4295814426
 30
0.0
 11
261.801468568
 21
145.0025339366
 31
0.0
  0
LINE
  5
161
330
1F
100
AcDbEntity
  8
0
  6
HIDDEN
 62
     7
370
     0
100
AcDbLine
 10
261.801468568
 20
145.0025339366
 30
0.0
 11
261.7987714578
 21
144.9718263687
 31
0.0
  0
LINE
  5
162
330
1F
100
AcDbEntity
  8
0
  6
HIDDEN
 62
     7
370
     0
100
AcDbLine
 10
235.1826377084
 20
82.3517136962
 30
0.0
 11
235.1826377084
 21
109.3517143966
 31
0.0
  0
SPLINE
  5
163
330
1F
100
AcDbEntity
  8
0
  6
HIDDEN
 62
     7
370
     0
100
AcDbSpline
210
0.0
220
0.0
230
1.0
 70
     8
 71
     3
 72
    12
 73
     8
 74
     0
 42
0.00000001
 43
0.00000001
 12
1.0
 22
0.0
 32
0.0
 13
1.0
 23
0.0
 33
0.0
 40
0.0
 40
0.0
 40
0.0
 40
0.0
 40
0.5
 40
0.5
 40
0.75
 40
0.75
 40
1.0
 40
1.0
 40
1.0
 40
1.0
 10
237.4915192672097
 20
132.5801611112904
 30
0.0
 10
236.8196714904651
 20
128.7355369131132
 30
0.0
 10
236.2396632662523
 20
124.8823430333644
 30
0.0
 10
235.6230797679765
 20
119.0789044020612
 30
0.0
 10
235.4604206623877
 20
117.1404247153149
 30
0.0
 10
235.2400576757092
 20
113.2536718179163
 30
0.0
 10
235.1826385117367
 20
111.3053720398978
 30
0.0
 10
235.1826385117367
 20
109.351714396583
 30
0.0
  0
SPLINE
  5
164
330
1F
100
AcDbEntity
  8
0
  6
HIDDEN
 62
     7
370
     0
100
AcDbSpline
210
0.0
220
0.0
230
1.0
 70
     8
 71
     3
 72
    14
 73
    10
 74
     0
 42
0.00000001
 43
0.00000001
 12
1.0
 22
0.0
 32
0.0
 13
1.0
 23
0.0
 33
0.0
 40
0.0
 40
0.0
 40
0.0
 40
0.0
 40
0.25
 40
0.25
 40
0.5
 40
0.5
 40
0.75
 40
0.75
 40
1.0
 40
1.0
 40
1.0
 40
1.0
 10
237.6667043414014
 20
133.5707310682155
 30
0.0
 10
237.6461509672537
 20
133.4950136700527
 30
0.0
 10
237.6260837240108
 20
133.4135563044557
 30
0.0
 10
237.5897843096461
 20
133.2491772735718
 30
0.0
 10
237.5733079631844
 20
133.165537172396
 30
0.0
 10
237.5436331634491
 20
132.9954530829093
 30
0.0
 10
237.530522545561
 20
132.909207712625
 30
0.0
 10
237.5084155708798
 20
132.7423537434039
 30
0.0
 10
237.4992077798617
 20
132.6605882473171
 30
0.0
 10
237.4915192672097
 20
132.5801611112904
 30
0.0
  0
SPLINE
  5
165
330
1F
100
AcDbEntity
  8
0
  6
HIDDEN
 62
     7
370
     0
100
AcDbSpline
210
0.0
220
0.0
230
1.0
 70
     8
 71
     3
 72
     8
 73
     4
 74
     0
 42
0.00000001
 43
0.00000001
 12
1.0
 22
0.0
 32
0.0
 13
1.0
 23
0.0
 33
0.0
 40
0.0
 40
0.0
 40
0.0
 40
0.0
 40
1.0
 40
1.0
 40
1.0
 40
1.0
 10
239.2911594660258
 20
141.9569375918348
 30
0.0
 10
238.7149257076296
 20
139.1647778703586
 30
0.0
 10
238.1675303001801
 20
136.3699272006161
 30
0.0
 10
237.6667043414014
 20
133.5707310682155
 30
0.0
  0
LINE
  5
166
330
1F
100
AcDbEntity
  8
0
  6
HIDDEN
 62
     7
370
     0
100
AcDbLine
 10
239.2911597957
 20
144.0082204283
 30
0.0
 11
239.2911597957
 21
141.9569377543
 31
0.0
  0
SPLINE
  5
167
330
1F
100
AcDbEntity
  8
0
  6
HIDDEN
 62
     7
370
     0
100
AcDbSpline
210
0.0
220
0.0
230
1.0
 70
     8
 71
     3
 72
    11
 73
     7
 74
     0
 42
0.00000001
 43
0.00000001
 12
1.0
 22
0.0
 32
0.0
 13
1.0
 23
0.0
 33
0.0
 40
0.0
 40
0.0
 40
0.0
 40
0.0
 40
0.2848688355985265
 40
0.5696811923448513
 40
0.8580559132153605
 40
1.0
 40
1.0
 40
1.0
 40
1.0
 10
239.2911597956944
 20
144.0082204283346
 30
0.0
 10
238.9696694912744
 20
144.0683172447375
 30
0.0
 10
238.3267526219563
 20
144.1884989625888
 30
0.0
 10
237.7426286829792
 20
144.5515628436918
 30
0.0
 10
237.5048438253792
 20
144.9712828949692
 30
0.0
 10
237.631448709958
 20
145.3479552569607
 30
0.0
 10
237.6732103397179
 20
145.4722036362757
 30
0.0
  0
ELLIPSE
  5
168
330
1F
100
AcDbEntity
  8
0
  6
HIDDEN
 62
     7
370
     0
100
AcDbEllipse
 10
255.5241346621
 20
109.3517143966
 30
0.0
 11
19.22008094637954
 21
26.99988807479864
 31
0.0
210
0.0
220
0.0
230
1.0
 40
0.0040448756
 41
1.57367569508937
 42
3.144472021887273
  0
LINE
  5
169
330
1F
100
AcDbEntity
  8
0
  6
HIDDEN
 62
     7
370
     0
100
AcDbLine
 10
162.1646884699
 20
91.3617138506
 30
0.0
 11
162.1646884699
 21
88.5392141284
 31
0.0
  0
LINE
  5
16A
330
1F
100
AcDbEntity
  8
0
  6
HIDDEN
 62
     7
370
     0
100
AcDbLine
 10
171.1146890988
 20
91.3617138506
 30
0.0
 11
171.1146890988
 21
87.4065656901
 31
0.0
  0
LINE
  5
16B
330
1F
100
AcDbEntity
  8
0
  6
HIDDEN
 62
     7
370
     0
100
AcDbLine
 10
162.1646884699
 20
127.3417149426
 30
0.0
 11
162.1646884699
 21
130.2216530533
 31
0.0
  0
LINE
  5
16C
330
1F
100
AcDbEntity
  8
0
  6
HIDDEN
 62
     7
370
     0
100
AcDbLine
 10
161.0146894922
 20
127.3417149426
 30
0.0
 11
161.0146894922
 21
129.0423919202
 31
0.0
  0
LINE
  5
16D
330
1F
100
AcDbEntity
  8
0
  6
HIDDEN
 62
     7
370
     0
100
AcDbLine
 10
161.0146894922
 20
91.3617138506
 30
0.0
 11
161.0146894922
 21
89.6985542716
 31
0.0
  0
LINE
  5
16E
330
1F
100
AcDbEntity
  8
0
  6
HIDDEN
 62
     7
370
     0
100
AcDbLine
 10
167.1146884431
 20
127.3417149426
 30
0.0
 11
167.1146884431
 21
131.1958220543
 31
0.0
  0
LINE
  5
16F
330
1F
100
AcDbEntity
  8
0
  6
HIDDEN
 62
     7
370
     0
100
AcDbLine
 10
212.2146900614
 20
118.8517140911
 30
0.0
 11
212.2146900614
 21
99.8517147021
 31
0.0
  0
LINE
  5
170
330
1F
100
AcDbEntity
  8
0
  6
HIDDEN
 62
     7
370
     0
100
AcDbLine
 10
214.7146895398
 20
118.8517140911
 30
0.0
 11
214.7146895398
 21
99.8517147021
 31
0.0
  0
LINE
  5
171
330
1F
100
AcDbEntity
  8
0
  6
HIDDEN
 62
     7
370
     0
100
AcDbLine
 10
203.3646892627
 20
117.8517148585
 30
0.0
 11
203.3646892627
 21
100.8517139346
 31
0.0
  0
LINE
  5
172
330
1F
100
AcDbEntity
  8
0
  6
HIDDEN
 62
     7
370
     0
100
AcDbLine
 10
202.8646891807
 20
100.351714784
 30
0.0
 11
202.8646891807
 21
118.3517140092
 31
0.0
  0
LINE
  5
173
330
1F
100
AcDbEntity
  8
0
  6
HIDDEN
 62
     7
370
     0
100
AcDbLine
 10
218.8646890094
 20
82.9517145396
 30
0.0
 11
212.727014335
 21
82.9517145396
 31
0.0
  0
LINE
  5
174
330
1F
100
AcDbEntity
  8
0
  6
HIDDEN
 62
     7
370
     0
100
AcDbLine
 10
212.824689584
 20
81.8538770766
 30
0.0
 11
212.824689584
 21
82.5473193766
 31
0.0
  0
LINE
  5
175
330
1F
100
AcDbEntity
  8
0
  6
HIDDEN
 62
     7
370
     0
100
AcDbLine
 10
218.8646890094
 20
82.9517145396
 30
0.0
 11
218.8646890094
 21
79.7914371581
 31
0.0
  0
LINE
  5
176
330
1F
100
AcDbEntity
  8
0
  6
HIDDEN
 62
     7
370
     0
100
AcDbLine
 10
197.8646892925
 20
77.8675910772
 30
0.0
 11
197.8646892925
 21
82.9517145396
 31
0.0
  0
LINE
  5
177
330
1F
100
AcDbEntity
  8
0
  6
HIDDEN
 62
     7
370
     0
100
AcDbLine
 10
205.8646896725
 20
82.9517145396
 30
0.0
 11
197.8646892925
 21
82.9517145396
 31
0.0
  0
LINE
  5
178
330
1F
100
AcDbEntity
  8
0
  6
HIDDEN
 62
     7
370
     0
100
AcDbLine
 10
209.1023646166
 20
82.9517145396
 30
0.0
 11
205.8646896725
 21
82.9517145396
 31
0.0
  0
LINE
  5
179
330
1F
100
AcDbEntity
  8
0
  6
HIDDEN
 62
     7
370
     0
100
AcDbLine
 10
209.0046893676
 20
82.5473193766
 30
0.0
 11
209.0046893676
 21
81.8538770766
 31
0.0
  0
LINE
  5
17A
330
1F
100
AcDbEntity
  8
0
  6
HIDDEN
 62
     7
370
     0
100
AcDbLine
 10
212.2146900614
 20
100.8517139346
 30
0.0
 11
212.2146900614
 21
117.8327326418
 31
0.0
  0
LINE
  5
17B
330
1F
100
AcDbEntity
  8
0
  6
HIDDEN
 62
     7
370
     0
100
AcDbLine
 10
218.8646890094
 20
135.7517142535
 30
0.0
 11
212.4303918202
 21
135.7517142535
 31
0.0
  0
LINE
  5
17C
330
1F
100
AcDbEntity
  8
0
  6
HIDDEN
 62
     7
370
     0
100
AcDbLine
 10
212.824689584
 20
137.1569477708
 30
0.0
 11
212.824689584
 21
136.471367696
 31
0.0
  0
LINE
  5
17D
330
1F
100
AcDbEntity
  8
0
  6
HIDDEN
 62
     7
370
     0
100
AcDbLine
 10
218.8646890094
 20
135.7517142535
 30
0.0
 11
218.8646890094
 21
139.1981553973
 31
0.0
  0
LINE
  5
17E
330
1F
100
AcDbEntity
  8
0
  6
HIDDEN
 62
     7
370
     0
100
AcDbLine
 10
209.3989871313
 20
135.7517142535
 30
0.0
 11
205.8646896725
 21
135.7517142535
 31
0.0
  0
LINE
  5
17F
330
1F
100
AcDbEntity
  8
0
  6
HIDDEN
 62
     7
370
     0
100
AcDbLine
 10
209.0046893676
 20
136.471367696
 30
0.0
 11
209.0046893676
 21
137.1569477708
 31
0.0
  0
LINE
  5
180
330
1F
100
AcDbEntity
  8
0
  6
HIDDEN
 62
     7
370
     0
100
AcDbLine
 10
205.8646896725
 20
135.7517142535
 30
0.0
 11
197.8646892925
 21
135.7517142535
 31
0.0
  0
ELLIPSE
  5
181
330
1F
100
AcDbEntity
  8
0
  6
HIDDEN
 62
     7
370
     0
100
AcDbEllipse
 10
156.847257455
 20
109.3517143966
 30
0.0
 11
20.07002071827054
 21
-1.421085471520200E-14
 31
0.0
210
0.0
220
0.0
230
1.0
 40
0.8164965809
 41
1.302650465081199
 42
1.361629843993898
  0
LINE
  5
182
330
1F
100
AcDbEntity
  8
0
  6
HIDDEN
 62
     7
370
     0
100
AcDbLine
 10
161.0146894922
 20
127.3417149426
 30
0.0
 11
161.0146894922
 21
125.3816497267
 31
0.0
  0
ELLIPSE
  5
183
330
1F
100
AcDbEntity
  8
0
  6
HIDDEN
 62
     7
370
     0
100
AcDbEllipse
 10
156.847257455
 20
109.3517143966
 30
0.0
 11
20.07002071827054
 21
-4.263256414560601E-14
 31
0.0
210
0.0
220
0.0
230
1.0
 40
0.8164965809
 41
4.921555463185705
 42
4.980534842098404
  0
LINE
  5
184
330
1F
100
AcDbEntity
  8
0
  6
HIDDEN
 62
     7
370
     0
100
AcDbLine
 10
161.0146894922
 20
91.3617138506
 30
0.0
 11
161.0146894922
 21
93.3217790664
 31
0.0
  0
LINE
  5
185
330
1F
100
AcDbEntity
  8
0
  6
HIDDEN
 62
     7
370
     0
100
AcDbLine
 10
162.1646884699
 20
91.3617138506
 30
0.0
 11
162.1646884699
 21
93.5502231808
 31
0.0
  0
LINE
  5
186
330
1F
100
AcDbEntity
  8
0
  6
HIDDEN
 62
     7
370
     0
100
AcDbLine
 10
162.1646884699
 20
127.3417149426
 30
0.0
 11
162.1646884699
 21
125.1532056124
 31
0.0
  0
LINE
  5
187
330
1F
100
AcDbEntity
  8
0
  6
HIDDEN
 62
     7
370
     0
100
AcDbLine
 10
167.1146884431
 20
127.3417149426
 30
0.0
 11
167.1146884431
 21
125.6392274738
 31
0.0
  0
LINE
  5
188
330
1F
100
AcDbEntity
  8
0
  6
HIDDEN
 62
     7
370
     0
100
AcDbLine
 10
171.1146890988
 20
91.3617138506
 30
0.0
 11
171.1146890988
 21
93.0642013193
 31
0.0
  0
LINE
  5
189
330
1F
100
AcDbEntity
  8
0
  6
HIDDEN
 62
     7
370
     0
100
AcDbLine
 10
259.1030023863
 20
114.3303334468
 30
0.0
 11
255.6297130753
 21
109.7311932174
 31
0.0
  0
CIRCLE
  5
18A
330
1F
100
AcDbEntity
  8
0
  6
HIDDEN
 62
     7
370
     0
100
AcDbCircle
 10
244.5751100983
 20
136.1457419388
 30
0.0
 40
3.481308589892978
  0
SPLINE
  5
18B
330
1F
100
AcDbEntity
  8
0
  6
HIDDEN
 62
     7
370
     0
100
AcDbSpline
210
0.0
220
0.0
230
1.0
 70
    11
 71
     3
 72
    34
 73
    30
 74
     0
 42
0.00000001
 43
0.00000001
 12
1.0
 22
0.0
 32
0.0
 13
1.0
 23
0.0
 33
0.0
 40
0.0
 40
0.0
 40
0.0
 40
0.0
 40
0.0127738749552077
 40
0.0481304964038526
 40
0.0807424858551617
 40
0.1375890904944477
 40
0.1884518708083117
 40
0.2226712072711235
 40
0.2626938332483097
 40
0.2986558257968668
 40
0.3315197710940394
 40
0.3878459600245748
 40
0.3881724735883181
 40
0.4440925970965102
 40
0.4768435525200083
 40
0.5126448808424556
 40
0.5530084569633601
 40
0.5873855765908397
 40
0.6380120863306967
 40
0.6949796216269846
 40
0.7275539778414385
 40
0.7628079274891264
 40
0.802870340802942
 40
0.8370831496037213
 40
0.8877749714173939
 40
0.8880392089768882
 40
0.938839779186675
 40
0.9729712642355882
 40
0.9999999999999999
 40
0.9999999999999999
 40
0.9999999999999999
 40
0.9999999999999999
 10
181.0747016091872
 20
86.28405190418852
 30
0.0
 10
181.1338951152921
 20
86.2901413179791
 30
0.0
 10
181.3569294602111
 20
86.3130855310372
 30
0.0
 10
181.880282451041
 20
86.34972683388845
 30
0.0
 10
182.7530454511294
 20
86.37741360671555
 30
0.0
 10
183.8678835362173
 20
86.36685501733801
 30
0.0
 10
184.9809493104543
 20
86.25071313641237
 30
0.0
 10
185.8753906092426
 20
86.12912191717649
 30
0.0
 10
186.5592255444162
 20
86.00736220646262
 30
0.0
 10
187.0999757991877
 20
85.89100745793415
 30
0.0
 10
187.5134068064409
 20
85.7975082355357
 30
0.0
 10
187.7415436527062
 20
85.73093078989052
 30
0.0
 10
187.5870329651587
 20
85.77210576080567
 30
0.0
 10
187.5601438271339
 20
85.78462830954378
 30
0.0
 10
187.1043535256711
 20
85.89017066513766
 30
0.0
 10
186.5804290501777
 20
86.002917074218
 30
0.0
 10
185.894219470077
 20
86.12601668337331
 30
0.0
 10
185.001106822257
 20
86.24800836420943
 30
0.0
 10
183.8876700777361
 20
86.3657602376963
 30
0.0
 10
182.7769193310005
 20
86.37772908857552
 30
0.0
 10
181.892167429846
 20
86.35067456227168
 30
0.0
 10
181.2249715914302
 20
86.30274049501185
 30
0.0
 10
180.6836987494021
 20
86.24644676776526
 30
0.0
 10
180.2961191157437
 20
86.20136241841247
 30
0.0
 10
180.1021119949274
 20
86.16248687188758
 30
0.0
 10
180.2284155137516
 20
86.1839004443395
 30
0.0
 10
180.2575798108426
 20
86.19382099384421
 30
0.0
 10
180.6290828761804
 20
86.24144400119556
 30
0.0
 10
180.9381254271627
 20
86.27099315175327
 30
0.0
 10
181.0747016091872
 20
86.28405190418852
 30
0.0
  0
SPLINE
  5
18C
330
1F
100
AcDbEntity
  8
0
  6
HIDDEN
 62
     7
370
     0
100
AcDbSpline
210
0.0
220
0.0
230
1.0
 70
     8
 71
     3
 72
    38
 73
    34
 74
     0
 42
0.00000001
 43
0.00000001
 12
1.0
 22
0.0
 32
0.0
 13
1.0
 23
0.0
 33
0.0
 40
-0.0939221400677788
 40
-0.065775259775378
 40
-0.0344739496007942
 40
0.0
 40
0.0323124298479836
 40
0.0609695982577461
 40
0.0859698687835549
 40
0.1073131755946561
 40
0.125001929016961
 40
0.1562358721977444
 40
0.1978507372990771
 40
0.2498168793248351
 40
0.278262948030722
 40
0.3049884159832859
 40
0.330004216891384
 40
0.3533239044418168
 40
0.3749644360933808
 40
0.4060267838322921
 40
0.4476555976010198
 40
0.4998320869201298
 40
0.5286685248934816
 40
0.5555536435543464
 40
0.5805015705746597
 40
0.6035302879119625
 40
0.6246629693429201
 40
0.6685312637103242
 40
0.7183269153555463
 40
0.7652375706113131
 40
0.7915712044406463
 40
0.812293703571044
 40
0.8615656629637487
 40
0.9060778599322212
 40
0.934224740224622
 40
0.9655260503992058
 40
1.0
 40
1.032312429847984
 40
1.060969598257746
 40
1.085969868783555
 10
181.8549544834869
 20
132.3547184226104
 30
0.0
 10
181.2508862649775
 20
132.3992519278263
 30
0.0
 10
180.7755712021314
 20
132.4473273140593
 30
0.0
 10
180.4559723761315
 20
132.4834900533252
 30
0.0
 10
180.2689779704175
 20
132.5098801875136
 30
0.0
 10
180.1806723108651
 20
132.5259497973108
 30
0.0
 10
180.1512588149959
 20
132.5337734825608
 30
0.0
 10
180.2233908850647
 20
132.515605983977
 30
0.0
 10
180.5445028872592
 20
132.4709994040144
 30
0.0
 10
181.1165303774738
 20
132.4102608753437
 30
0.0
 10
181.76706272523
 20
132.3609167123237
 30
0.0
 10
182.3169388539715
 20
132.3385542518443
 30
0.0
 10
182.8723767197496
 20
132.3300720419399
 30
0.0
 10
183.4131522673861
 20
132.3365231280884
 30
0.0
 10
184.0110821621854
 20
132.3600015046901
 30
0.0
 10
184.7507480193523
 20
132.4269213755273
 30
0.0
 10
185.6827976526252
 20
132.5430228094625
 30
0.0
 10
186.4721343862988
 20
132.6783376940538
 30
0.0
 10
187.0110640741362
 20
132.793449518121
 30
0.0
 10
187.3251684140321
 20
132.863223594672
 30
0.0
 10
187.5304487823979
 20
132.9137836801679
 30
0.0
 10
187.6415187684888
 20
132.9444618200746
 30
0.0
 10
187.6877902702928
 20
132.9591888373308
 30
0.0
 10
187.5618254019465
 20
132.9213292437435
 30
0.0
 10
187.0915798730734
 20
132.8108434593174
 30
0.0
 10
186.4383819094849
 20
132.6711392409412
 30
0.0
 10
185.8343629539689
 20
132.5680126347959
 30
0.0
 10
185.1600249043305
 20
132.4685766090264
 30
0.0
 10
184.2746754213431
 20
132.3751062747509
 30
0.0
 10
183.3051965307308
 20
132.3280977686782
 30
0.0
 10
182.5168609534638
 20
132.3317819837787
 30
0.0
 10
181.8549544834869
 20
132.3547184226104
 30
0.0
 10
181.2508862649775
 20
132.3992519278263
 30
0.0
 10
180.7755712021314
 20
132.4473273140593
 30
0.0
  0
LINE
  5
18D
330
1F
100
AcDbEntity
  8
0
  6
HIDDEN
 62
     7
370
     0
100
AcDbLine
 10
227.0146891345
 20
113.5517142468
 30
0.0
 11
227.0146891345
 21
105.1517145463
 31
0.0
  0
SPLINE
  5
18E
330
1F
100
AcDbEntity
  8
0
  6
HIDDEN
 62
     7
370
     0
100
AcDbSpline
210
0.0
220
0.0
230
1.0
 70
     8
 71
     3
 72
    64
 73
    60
 74
     0
 42
0.00000001
 43
0.00000001
 12
1.0
 22
0.0
 32
0.0
 13
1.0
 23
0.0
 33
0.0
 40
-0.0312499999999999
 40
-0.0312499999999999
 40
0.0
 40
0.0
 40
0.03125
 40
0.03125
 40
0.0624999999999999
 40
0.0624999999999999
 40
0.1250000000000004
 40
0.1250000000000004
 40
0.1562500000000007
 40
0.1562500000000007
 40
0.1875000000000009
 40
0.1875000000000009
 40
0.2187500000000012
 40
0.2187500000000012
 40
0.2500000000000015
 40
0.2500000000000015
 40
0.2812500000000018
 40
0.2812500000000018
 40
0.3125000000000021
 40
0.3125000000000021
 40
0.3750000000000027
 40
0.3750000000000027
 40
0.4062500000000026
 40
0.4062500000000026
 40
0.4375000000000024
 40
0.4375000000000024
 40
0.4687500000000023
 40
0.4687500000000023
 40
0.5000000000000021
 40
0.5000000000000021
 40
0.531250000000002
 40
0.531250000000002
 40
0.5625000000000018
 40
0.5625000000000018
 40
0.5937500000000017
 40
0.5937500000000017
 40
0.6250000000000016
 40
0.6250000000000016
 40
0.6562500000000013
 40
0.6562500000000013
 40
0.6875000000000012
 40
0.6875000000000012
 40
0.7187500000000011
 40
0.7187500000000011
 40
0.7500000000000009
 40
0.7500000000000009
 40
0.7812500000000009
 40
0.7812500000000009
 40
0.8125000000000009
 40
0.8125000000000009
 40
0.8750000000000006
 40
0.8750000000000006
 40
0.9062500000000004
 40
0.9062500000000004
 40
0.9375000000000003
 40
0.9375000000000003
 40
0.9687500000000001
 40
0.9687500000000001
 40
1.0
 40
1.0
 40
1.03125
 40
1.03125
 10
222.7450296300032
 20
110.0470548071669
 30
0.0
 10
223.0843490086077
 20
110.0470548071669
 30
0.0
 10
223.2500355334409
 20
110.0260168472711
 30
0.0
 10
223.5742716096151
 20
109.9458920534009
 30
0.0
 10
223.7340784453431
 20
109.885825427724
 30
0.0
 10
224.1832532676852
 20
109.661240908082
 30
0.0
 10
224.4526784837495
 20
109.4491998298858
 30
0.0
 10
224.7907134949465
 20
109.0784418308201
 30
0.0
 10
224.8942696593457
 20
108.9437122399791
 30
0.0
 10
225.0746571499833
 20
108.6636435762017
 30
0.0
 10
225.151803484046
 20
108.5185105453425
 30
0.0
 10
225.2793238948236
 20
108.2185186732435
 30
0.0
 10
225.3298474548638
 20
108.0617296775636
 30
0.0
 10
225.3967682827903
 20
107.7543417321363
 30
0.0
 10
225.4141273454287
 20
107.6023261754006
 30
0.0
 10
225.4152247220368
 20
107.3021135737935
 30
0.0
 10
225.3984988005636
 20
107.156134885312
 30
0.0
 10
225.3330945156636
 20
106.8832640910746
 30
0.0
 10
225.2836086639319
 20
106.7532139647226
 30
0.0
 10
225.0929962489831
 20
106.3971517711966
 30
0.0
 10
224.9084004528343
 20
106.2009405151276
 30
0.0
 10
224.5711843086287
 20
105.9711636782419
 30
0.0
 10
224.4471563652426
 20
105.904163704137
 30
0.0
 10
224.1813254968181
 20
105.7903701515343
 30
0.0
 10
224.0409083725905
 20
105.7438846142078
 30
0.0
 10
223.7432748901372
 20
105.668826699691
 30
0.0
 10
223.583710665848
 20
105.6400556723669
 30
0.0
 10
223.2580994868395
 20
105.6019948261936
 30
0.0
 10
223.0919872513072
 20
105.5923128176061
 30
0.0
 10
222.7524882040929
 20
105.5917441974659
 30
0.0
 10
222.5858147982352
 20
105.6009043778065
 30
0.0
 10
222.2599097499627
 20
105.6378338365447
 30
0.0
 10
222.0998193407613
 20
105.6660174911929
 30
0.0
 10
221.7994731136188
 20
105.7405117029624
 30
0.0
 10
221.6562096646638
 20
105.7874123122956
 30
0.0
 10
221.389070767381
 20
105.9007275861712
 30
0.0
 10
221.2661113104598
 20
105.9665204764078
 30
0.0
 10
221.0395993288466
 20
106.1194070425344
 30
0.0
 10
220.9357526164076
 20
106.207240368343
 30
0.0
 10
220.7555960378256
 20
106.4011674231651
 30
0.0
 10
220.6780983400016
 20
106.5078366651228
 30
0.0
 10
220.5496201815338
 20
106.7443355688554
 30
0.0
 10
220.4993953655405
 20
106.8740637805288
 30
0.0
 10
220.4326185447694
 20
107.145368885145
 30
0.0
 10
220.4150818434167
 20
107.2885732264919
 30
0.0
 10
220.4143096964997
 20
107.5912184609265
 30
0.0
 10
220.4310762752675
 20
107.7441871425265
 30
0.0
 10
220.4969825791742
 20
108.0529463017623
 30
0.0
 10
220.5469361503116
 20
108.2099127263353
 30
0.0
 10
220.7380136525849
 20
108.6631384799877
 30
0.0
 10
220.923315778662
 20
108.9514200276477
 30
0.0
 10
221.2623051570452
 20
109.3239806945963
 30
0.0
 10
221.3875120701576
 20
109.4402355170698
 30
0.0
 10
221.6530447442804
 20
109.6452592477132
 30
0.0
 10
221.7938395403159
 20
109.7349492822687
 30
0.0
 10
222.093902593312
 20
109.8852727276331
 30
0.0
 10
222.2541308350333
 20
109.9455721445931
 30
0.0
 10
222.5784182049537
 20
110.025866500327
 30
0.0
 10
222.7450296300032
 20
110.0470548071669
 30
0.0
 10
223.0843490086077
 20
110.0470548071669
 30
0.0
  0
LINE
  5
18F
330
1F
100
AcDbEntity
  8
0
  6
HIDDEN
 62
     7
370
     0
100
AcDbLine
 10
214.7146895398
 20
105.1517145463
 30
0.0
 11
214.7146895398
 21
113.5326966399
 31
0.0
  0
ARC
  5
190
330
1F
100
AcDbEntity
  8
0
  6
HIDDEN
 62
     7
370
     0
100
AcDbCircle
 10
255.489629434
 20
137.305026551
 30
0.0
 40
2.098820605144519
100
AcDbArc
 50
154.9830912248
 51
333.8336418311
  0
LINE
  5
191
330
1F
100
AcDbEntity
  8
0
  6
HIDDEN
 62
     7
370
     0
100
AcDbLine
 10
257.3733575513
 20
136.3794908614
 30
0.0
 11
257.568383949
 21
136.7930986674
 31
0.0
  0
LINE
  5
192
330
1F
100
AcDbEntity
  8
0
  6
HIDDEN
 62
     7
370
     0
100
AcDbLine
 10
257.9632423689
 20
137.630467558
 30
0.0
 11
260.8377210666
 21
143.7263873161
 31
0.0
  0
LINE
  5
193
330
1F
100
AcDbEntity
  8
0
  6
HIDDEN
 62
     7
370
     0
100
AcDbLine
 10
261.801468568
 20
145.0025339366
 30
0.0
 11
260.8377210666
 21
143.7263873161
 31
0.0
  0
LINE
  5
194
330
1F
100
AcDbEntity
  8
0
  6
HIDDEN
 62
     7
370
     0
100
AcDbLine
 10
252.3937955369
 20
142.3673418106
 30
0.0
 11
252.4103581776
 21
142.3892763198
 31
0.0
  0
LINE
  5
195
330
1F
100
AcDbEntity
  8
0
  6
HIDDEN
 62
     7
370
     0
100
AcDbLine
 10
254.0807038416
 20
139.2380756081
 30
0.0
 11
255.0444550683
 21
140.5142222286
 31
0.0
  0
ELLIPSE
  5
196
330
1F
100
AcDbEntity
  8
0
  6
HIDDEN
 62
     7
370
     0
100
AcDbEllipse
 10
251.0127438929
 20
142.5110417776
 30
0.0
 11
-1.334428566009308
 21
2.209358540186116
 31
0.0
210
0.0
220
0.0
230
1.0
 40
0.2605793844
 41
5.303806342098884
 42
6.387077430388263
  0
SPLINE
  5
197
330
1F
100
AcDbEntity
  8
0
  6
HIDDEN
 62
     7
370
     0
100
AcDbSpline
210
0.0
220
0.0
230
1.0
 70
     8
 71
     3
 72
    36
 73
    32
 74
     0
 42
0.00000001
 43
0.00000001
 12
1.0
 22
0.0
 32
0.0
 13
1.0
 23
0.0
 33
0.0
 40
0.0
 40
0.0
 40
0.0
 40
0.0
 40
0.1250000000000021
 40
0.1250000000000021
 40
0.2500000000000041
 40
0.2500000000000041
 40
0.3125000000000054
 40
0.3125000000000054
 40
0.3750000000000067
 40
0.3750000000000067
 40
0.4062500000000068
 40
0.4062500000000068
 40
0.4375000000000068
 40
0.4375000000000068
 40
0.4687500000000069
 40
0.4687500000000069
 40
0.500000000000007
 40
0.500000000000007
 40
0.5312500000000071
 40
0.5312500000000071
 40
0.5625000000000071
 40
0.5625000000000071
 40
0.625000000000006
 40
0.625000000000006
 40
0.6875000000000051
 40
0.6875000000000051
 40
0.7500000000000041
 40
0.7500000000000041
 40
0.875000000000002
 40
0.875000000000002
 40
1.0
 40
1.0
 40
1.0
 40
1.0
 10
244.3906198786351
 20
139.2403264662965
 30
0.0
 10
244.4457538916743
 20
139.3133318170671
 30
0.0
 10
244.5693497779167
 20
139.3742872001718
 30
0.0
 10
244.8942886602686
 20
139.4699059669509
 30
0.0
 10
245.098660506754
 20
139.5043753777712
 30
0.0
 10
245.4545861190093
 20
139.5137571702172
 30
0.0
 10
245.5818797988981
 20
139.5098185078694
 30
0.0
 10
245.8577651181107
 20
139.4796298423769
 30
0.0
 10
246.0075737180406
 20
139.4532983535148
 30
0.0
 10
246.2490150860265
 20
139.3853054343519
 30
0.0
 10
246.3324128850813
 20
139.357851425561
 30
0.0
 10
246.5070966012907
 20
139.2890635213277
 30
0.0
 10
246.5993923777808
 20
139.247250049758
 30
0.0
 10
246.7897208240818
 20
139.1446625343294
 30
0.0
 10
246.8892905566122
 20
139.0829130875344
 30
0.0
 10
247.087252328227
 20
138.9370593574475
 30
0.0
 10
247.1871262557741
 20
138.8514920124309
 30
0.0
 10
247.3726143818387
 20
138.663597309795
 30
0.0
 10
247.457758064365
 20
138.5617651063127
 30
0.0
 10
247.6043826219591
 20
138.358484641106
 30
0.0
 10
247.6663810574861
 20
138.2570270058334
 30
0.0
 10
247.8244190564391
 20
137.9620122891874
 30
0.0
 10
247.8927612212138
 20
137.7807360036522
 30
0.0
 10
247.9942750248938
 20
137.4410440465894
 30
0.0
 10
248.0260962321599
 20
137.28402696166
 30
0.0
 10
248.0683503733636
 20
136.9931801470596
 30
0.0
 10
248.0787529887751
 20
136.8582806722424
 30
0.0
 10
248.0897465618313
 20
136.4791846347517
 30
0.0
 10
248.0702216849321
 20
136.2584052834295
 30
0.0
 10
248.0059720929705
 20
135.9002834935044
 30
0.0
 10
247.9615676943738
 20
135.760305923898
 30
0.0
 10
247.9067857599023
 20
135.6877667757113
 30
0.0
  0
ELLIPSE
  5
198
330
1F
100
AcDbEntity
  8
0
  6
HIDDEN
 62
     7
370
     0
100
AcDbEllipse
 10
251.0127438929
 20
142.5110417776
 30
0.0
 11
2.137853599931617
 21
-1.378829910960491
 31
0.0
210
0.0
220
0.0
230
1.0
 40
0.2825155173
 41
6.26224394604476
 42
7.345515034334079
  0
SPLINE
  5
199
330
1F
100
AcDbEntity
  8
0
  6
HIDDEN
 62
     7
370
     0
100
AcDbSpline
210
0.0
220
0.0
230
1.0
 70
     8
 71
     3
 72
    14
 73
    10
 74
     0
 42
0.00000001
 43
0.00000001
 12
1.0
 22
0.0
 32
0.0
 13
1.0
 23
0.0
 33
0.0
 40
0.0
 40
0.0
 40
0.0
 40
0.0
 40
0.25
 40
0.25
 40
0.5
 40
0.5
 40
0.75
 40
0.75
 40
1.0
 40
1.0
 40
1.0
 40
1.0
 10
250.746678105806
 20
144.0315075775823
 30
0.0
 10
250.7785458287705
 20
143.823840433849
 30
0.0
 10
250.8423842963353
 20
143.6272870054109
 30
0.0
 10
251.0316988532589
 20
143.2543515760568
 30
0.0
 10
251.1539836265235
 20
143.0852817963151
 30
0.0
 10
251.4477293878512
 20
142.7880382764131
 30
0.0
 10
251.6166433309722
 20
142.6629711870321
 30
0.0
 10
251.9858525270338
 20
142.4696788929468
 30
0.0
 10
252.1862111669753
 20
142.4016328267944
 30
0.0
 10
252.3937939660428
 20
142.3673433690687
 30
0.0
  0
LINE
  5
19A
330
1F
100
AcDbEntity
  8
0
  6
HIDDEN
 62
     7
370
     0
100
AcDbLine
 10
250.7466770579
 20
144.031507218
 30
0.0
 11
250.7632434239
 21
144.0534417273
 31
0.0
  0
LINE
  5
19B
330
1F
100
AcDbEntity
  8
0
  6
HIDDEN
 62
     7
370
     0
100
AcDbLine
 10
245.7539871206
 20
148.5893402935
 30
0.0
 11
246.7177383472
 21
149.865486914
 31
0.0
  0
ELLIPSE
  5
19C
330
1F
100
AcDbEntity
  8
0
  6
HIDDEN
 62
     7
370
     0
100
AcDbEllipse
 10
241.7081058061
 20
132.3982316701
 30
0.0
 11
2.570105550204374
 21
3.403188827857576
 31
0.0
210
0.0
220
0.0
230
1.0
 40
0.9848432766
 41
2.167382853099693
 42
8.213378447853017
  0
LINE
  5
19D
330
1F
100
AcDbEntity
  8
0
  6
HIDDEN
 62
     7
370
     0
100
AcDbLine
 10
243.9974568655
 20
138.7197219522
 30
0.0
 11
244.3906202783
 21
139.2403256835
 31
0.0
  0
ELLIPSE
  5
19E
330
1F
100
AcDbEntity
  8
0
  6
HIDDEN
 62
     7
370
     0
100
AcDbEllipse
 10
243.648027281
 20
134.9669662847
 30
0.0
 11
3.167078026784169
 21
-2.762841112032562
 31
0.0
210
0.0
220
0.0
230
1.0
 40
0.8543839535
 41
0.8476007917787168
 42
2.122724633017114
  0
LINE
  5
19F
330
1F
100
AcDbEntity
  8
0
  6
HIDDEN
 62
     7
370
     0
100
AcDbLine
 10
247.9067839553
 20
135.6877659203
 30
0.0
 11
247.5136242677
 21
135.167162189
 31
0.0
  0
CIRCLE
  5
1A0
330
1F
100
AcDbEntity
  8
0
  6
HIDDEN
 62
     7
370
     0
100
AcDbCircle
 10
244.5412525262
 20
136.0911282139
 30
0.0
 40
4.178172097102935
  0
LINE
  5
1A1
330
1F
100
AcDbEntity
  8
0
  6
HIDDEN
 62
     7
370
     0
100
AcDbLine
 10
197.8646892925
 20
82.9517145396
 30
0.0
 11
205.8646896725
 21
82.9517145396
 31
0.0
  0
LINE
  5
1A2
330
1F
100
AcDbEntity
  8
0
  6
HIDDEN
 62
     7
370
     0
100
AcDbLine
 10
253.1419716646
 20
141.1198687495
 30
0.0
 11
252.545914041
 21
140.3306008072
 31
0.0
  0
LINE
  5
1A3
330
1F
100
AcDbEntity
  8
0
  6
HIDDEN
 62
     7
370
     0
100
AcDbLine
 10
251.6860201825
 20
146.4892190636
 30
0.0
 11
249.0297466387
 21
143.8831587077
 31
0.0
  0
LINE
  5
1A4
330
1F
100
AcDbEntity
  8
0
  6
HIDDEN
 62
     7
370
     0
100
AcDbLine
 10
251.4338925351
 20
146.1553659977
 30
0.0
 11
251.6860201825
 21
146.4892190636
 31
0.0
  0
LINE
  5
1A5
330
1F
100
AcDbEntity
  8
0
  6
HIDDEN
 62
     7
370
     0
100
AcDbLine
 10
246.8084417154
 20
141.3559292198
 30
0.0
 11
243.9974568655
 21
138.7197219522
 31
0.0
  0
LINE
  5
1A6
330
1F
100
AcDbEntity
  8
0
  6
HIDDEN
 62
     7
370
     0
100
AcDbLine
 10
249.0297466387
 20
143.8831587077
 30
0.0
 11
249.6258042623
 21
144.6724285127
 31
0.0
  0
LWPOLYLINE
  5
1A7
330
1F
100
AcDbEntity
  8
0
  6
HIDDEN
 62
     7
370
     0
100
AcDbPolyline
 90
       26
 70
   128
 43
0.0
 10
222.9146886488
 20
103.5437940375
 10
223.5364135225
 20
103.4738125966
 10
224.1190731396
 20
103.2682655134
 10
224.6260553469
 20
102.9400674381
 10
225.025510775
 20
102.5098406465
 10
225.2923309674
 20
102.0046181732
 10
225.4097558429
 20
101.4561450795
 10
225.3704056014
 20
100.8988826291
 10
225.1767575611
 20
100.3678471537
 10
224.8409710695
 20
99.8964051471
 10
224.3841536214
 20
99.5141791866
 10
223.8350011279
 20
99.2451852874
 10
223.2280228158
 20
99.1063260229
 10
222.6013563444
 20
99.1063260229
 10
221.9943780323
 20
99.2451852874
 10
221.4452255388
 20
99.5141791866
 10
220.988406228
 20
99.8964051471
 10
220.652621599
 20
100.3678471537
 10
220.4589716961
 20
100.8988826291
 10
220.4196233173
 20
101.4561450795
 10
220.5370481928
 20
102.0046181732
 10
220.8038702478
 20
102.5098406465
 10
221.2033219506
 20
102.9400674381
 10
221.7103060206
 20
103.2682655134
 10
222.292963775
 20
103.4738125966
 10
222.9146886488
 20
103.5437940375
  0
LINE
  5
1A8
330
1F
100
AcDbEntity
  8
0
  6
HIDDEN
 62
     7
370
     0
100
AcDbLine
 10
167.1146884431
 20
127.3417149426
 30
0.0
 11
167.1146884431
 21
131.1958220543
 31
0.0
  0
LINE
  5
1A9
330
1F
100
AcDbEntity
  8
0
  6
HIDDEN
 62
     7
370
     0
100
AcDbLine
 10
171.1146890988
 20
91.3617138506
 30
0.0
 11
171.1146890988
 21
87.4065656901
 31
0.0
  0
ARC
  5
1AA
330
1F
100
AcDbEntity
  8
0
  6
HIDDEN
 62
     7
370
     0
100
AcDbCircle
 10
255.0084317817
 20
146.2612421321
 30
0.0
 40
3.330224063887634
100
AcDbArc
 50
273.3354099331
 51
176.0746365387
  0
ELLIPSE
  5
1AB
330
1F
100
AcDbEntity
  8
0
  6
HIDDEN
 62
     7
370
     0
100
AcDbEllipse
 10
1305.3609059911
 20
93.6425281232
 30
0.0
 11
1290.168539687494
 21
-18.93515783530871
 31
0.0
210
0.0
220
0.0
230
1.0
 40
0.0576670926
 41
2.514079832351467
 42
2.524706176615841
  0
LINE
  5
1AC
330
1F
100
AcDbEntity
  8
0
  6
HIDDEN
 62
     7
370
     0
100
AcDbLine
 10
252.545914041
 20
140.3306008072
 30
0.0
 11
255.2021875848
 21
142.9366593004
 31
0.0
  0
LINE
  5
1AD
330
1F
100
AcDbEntity
  8
0
  6
HIDDEN
 62
     7
370
     0
100
AcDbLine
 10
245.7539871206
 20
148.5893402935
 30
0.0
 11
249.0297466387
 21
143.8831587077
 31
0.0
  0
LINE
  5
1AE
330
1F
100
AcDbEntity
  8
0
  6
HIDDEN
 62
     7
370
     0
100
AcDbLine
 10
252.545914041
 20
140.3306008072
 30
0.0
 11
254.0807038416
 21
139.2380756081
 31
0.0
  0
LINE
  5
1AF
330
1F
100
AcDbEntity
  8
0
  6
HIDDEN
 62
     7
370
     0
100
AcDbLine
 10
254.0807038416
 20
139.2380756081
 30
0.0
 11
253.5877138247
 21
138.192587787
 31
0.0
  0
LINE
  5
1B0
330
1F
100
AcDbEntity
  8
0
  6
HIDDEN
 62
     7
370
     0
100
AcDbLine
 10
253.6233015229
 20
152.128056878
 30
0.0
 11
245.7539871206
 21
148.5893402935
 31
0.0
  0
LINE
  5
1B1
330
1F
100
AcDbEntity
  8
0
  6
HIDDEN
 62
     7
370
     0
100
AcDbLine
 10
260.8377210666
 20
143.7263873161
 30
0.0
 11
261.6230793168
 21
152.6532259525
 31
0.0
  0
SPLINE
  5
1B2
330
1F
100
AcDbEntity
  8
0
  6
HIDDEN
 62
     7
370
     0
100
AcDbSpline
210
0.0
220
0.0
230
1.0
 70
     8
 71
     3
 72
    10
 73
     6
 74
     0
 42
0.00000001
 43
0.00000001
 12
1.0
 22
0.0
 32
0.0
 13
1.0
 23
0.0
 33
0.0
 40
0.0
 40
0.0
 40
0.0
 40
0.0
 40
0.5
 40
0.5
 40
1.0
 40
1.0
 40
1.0
 40
1.0
 10
162.1546443888873
 20
130.2116682888706
 30
0.0
 10
162.0870851339691
 20
130.1439768960608
 30
0.0
 10
162.0234484786325
 20
130.0692697313072
 30
0.0
 10
161.9132277240607
 20
129.9103035988806
 30
0.0
 10
161.8664114308381
 20
129.8259483328726
 30
0.0
 10
161.83884296541
 20
129.7418337301808
 30
0.0
  0
LINE
  5
1B3
330
1F
100
AcDbEntity
  8
0
  6
HIDDEN
 62
     7
370
     0
100
AcDbLine
 10
162.1646884699
 20
127.3417149426
 30
0.0
 11
162.1646884699
 21
130.2216530533
 31
0.0
  0
LINE
  5
1B4
330
1F
100
AcDbEntity
  8
0
  6
HIDDEN
 62
     7
370
     0
100
AcDbLine
 10
161.0146894922
 20
127.3417149426
 30
0.0
 11
161.0146894922
 21
129.0423919202
 31
0.0
  0
SPLINE
  5
1B5
330
1F
100
AcDbEntity
  8
0
  6
HIDDEN
 62
     7
370
     0
100
AcDbSpline
210
0.0
220
0.0
230
1.0
 70
     8
 71
     3
 72
    10
 73
     6
 74
     0
 42
0.00000001
 43
0.00000001
 12
1.0
 22
0.0
 32
0.0
 13
1.0
 23
0.0
 33
0.0
 40
0.0
 40
0.0
 40
0.0
 40
0.0
 40
0.5
 40
0.5
 40
1.0
 40
1.0
 40
1.0
 40
1.0
 10
161.0773526940289
 20
129.0262669413637
 30
0.0
 10
161.0684484049202
 20
129.0720084605769
 30
0.0
 10
161.0519330247271
 20
129.0891993000459
 30
0.0
 10
161.0248250786655
 20
129.0888760231101
 30
0.0
 10
161.0146893193055
 20
129.0709984808137
 30
0.0
 10
161.0146893193055
 20
129.0423921430611
 30
0.0
  0
LINE
  5
1B6
330
1F
100
AcDbEntity
  8
0
  6
HIDDEN
 62
     7
370
     0
100
AcDbLine
 10
161.0146894922
 20
125.3816497267
 30
0.0
 11
161.0146894922
 21
93.3217790664
 31
0.0
  0
LINE
  5
1B7
330
1F
100
AcDbEntity
  8
0
  6
HIDDEN
 62
     7
370
     0
100
AcDbLine
 10
162.1646884699
 20
91.3617138506
 30
0.0
 11
162.1646884699
 21
88.5450833232
 31
0.0
  0
SPLINE
  5
1B8
330
1F
100
AcDbEntity
  8
0
  6
HIDDEN
 62
     7
370
     0
100
AcDbSpline
210
0.0
220
0.0
230
1.0
 70
     8
 71
     3
 72
     8
 73
     4
 74
     0
 42
0.00000001
 43
0.00000001
 12
1.0
 22
0.0
 32
0.0
 13
1.0
 23
0.0
 33
0.0
 40
0.0
 40
0.0
 40
0.0
 40
0.0
 40
1.0
 40
1.0
 40
1.0
 40
1.0
 10
161.9535988895046
 20
88.90779209361735
 30
0.0
 10
161.9893125478746
 20
88.78456058835755
 30
0.0
 10
162.0649805868228
 20
88.66361701141055
 30
0.0
 10
162.1546443888959
 20
88.5568979677073
 30
0.0
  0
SPLINE
  5
1B9
330
1F
100
AcDbEntity
  8
0
  6
HIDDEN
 62
     7
370
     0
100
AcDbSpline
210
0.0
220
0.0
230
1.0
 70
     8
 71
     3
 72
    10
 73
     6
 74
     0
 42
0.00000001
 43
0.00000001
 12
1.0
 22
0.0
 32
0.0
 13
1.0
 23
0.0
 33
0.0
 40
0.0
 40
0.0
 40
0.0
 40
0.0
 40
0.5
 40
0.5
 40
1.0
 40
1.0
 40
1.0
 40
1.0
 10
161.014689319305
 20
89.69855387163005
 30
0.0
 10
161.014689319305
 20
89.68503734576231
 30
0.0
 10
161.0200088799332
 20
89.68086657340501
 30
0.0
 10
161.0331371122149
 20
89.6989976167926
 30
0.0
 10
161.0408297668689
 20
89.72190604185454
 30
0.0
 10
161.0449669349141
 20
89.7616268363561
 30
0.0
  0
LINE
  5
1BA
330
1F
100
AcDbEntity
  8
0
  6
HIDDEN
 62
     7
370
     0
100
AcDbLine
 10
161.0146894922
 20
91.3617138506
 30
0.0
 11
161.0146894922
 21
89.6985542716
 31
0.0
  0
SPLINE
  5
1BB
330
1F
100
AcDbEntity
  8
0
  6
HIDDEN
 62
     7
370
     0
100
AcDbSpline
210
0.0
220
0.0
230
1.0
 70
     8
 71
     3
 72
    12
 73
     8
 74
     0
 42
0.00000001
 43
0.00000001
 12
1.0
 22
0.0
 32
0.0
 13
1.0
 23
0.0
 33
0.0
 40
0.0
 40
0.0
 40
0.0
 40
0.0
 40
0.2500000000000005
 40
0.2500000000000005
 40
0.500000000000001
 40
0.500000000000001
 40
1.0
 40
1.0
 40
1.0
 40
1.0
 10
254.9500601627001
 20
142.602804595027
 30
0.0
 10
254.9213848360955
 20
142.5648343446891
 30
0.0
 10
254.8684844764346
 20
142.5254896689533
 30
0.0
 10
254.7355844786193
 20
142.448785288139
 30
0.0
 10
254.6550893769263
 20
142.4111731770686
 30
0.0
 10
254.3834878914198
 20
142.3052801387246
 30
0.0
 10
254.1626072385057
 20
142.2431472822656
 30
0.0
 10
253.9092236603305
 20
142.2068033016042
 30
0.0
  0
ARC
  5
1BC
330
1F
100
AcDbEntity
  8
0
  6
HIDDEN
 62
     7
370
     0
100
AcDbCircle
 10
254.4287805042
 20
145.4947044188
 30
0.0
 40
3.32869735670494
100
AcDbArc
 50
261.0203455465
 51
188.3897538484
  0
SPLINE
  5
1BD
330
1F
100
AcDbEntity
  8
0
  6
HIDDEN
 62
     7
370
     0
100
AcDbSpline
210
0.0
220
0.0
230
1.0
 70
     8
 71
     3
 72
    12
 73
     8
 74
     0
 42
0.00000001
 43
0.00000001
 12
1.0
 22
0.0
 32
0.0
 13
1.0
 23
0.0
 33
0.0
 40
0.0
 40
0.0
 40
0.0
 40
0.0
 40
0.5000000000000007
 40
0.5000000000000007
 40
0.7500000000000003
 40
0.7500000000000003
 40
1.0
 40
1.0
 40
1.0
 40
1.0
 10
251.1357072081289
 20
145.0090268263133
 30
0.0
 10
251.1575914962229
 20
145.2796925256236
 30
0.0
 10
251.2041130662314
 20
145.5162018846715
 30
0.0
 10
251.285750752848
 20
145.8141404863956
 30
0.0
 10
251.3151013971134
 20
145.9036584095211
 30
0.0
 10
251.374770938929
 20
146.0550879487251
 30
0.0
 10
251.4051617277068
 20
146.1173182583472
 30
0.0
 10
251.433894281433
 20
146.1553642856121
 30
0.0
  0
LINE
  5
1BE
330
1F
100
AcDbEntity
  8
0
  6
HIDDEN
 62
     7
370
     0
100
AcDbLine
 10
255.2021875848
 20
142.9366593004
 30
0.0
 11
254.9500599374
 21
142.6028062345
 31
0.0
  0
SPLINE
  5
1BF
330
1F
100
AcDbEntity
  8
0
  6
HIDDEN
 62
     7
370
     0
100
AcDbSpline
210
0.0
220
0.0
230
1.0
 70
     8
 71
     3
 72
    10
 73
     6
 74
     0
 42
0.00000001
 43
0.00000001
 12
1.0
 22
0.0
 32
0.0
 13
1.0
 23
0.0
 33
0.0
 40
0.0
 40
0.0
 40
0.0
 40
0.0
 40
0.5
 40
0.5
 40
1.0
 40
1.0
 40
1.0
 40
1.0
 10
209.0046893193055
 20
136.4713682476187
 30
0.0
 10
209.0046893193055
 20
136.3277558960607
 30
0.0
 10
209.0408565944033
 20
136.1847824823421
 30
0.0
 10
209.1766125381573
 20
135.9347898556284
 30
0.0
 10
209.2768822287802
 20
135.8267875463496
 30
0.0
 10
209.3989868509965
 20
135.7517143965829
 30
0.0
  0
LINE
  5
1C0
330
1F
100
AcDbEntity
  8
0
  6
HIDDEN
 62
     7
370
     0
100
AcDbLine
 10
209.0046893676
 20
136.471367696
 30
0.0
 11
209.0046893676
 21
82.5473193766
 31
0.0
  0
SPLINE
  5
1C1
330
1F
100
AcDbEntity
  8
0
  6
HIDDEN
 62
     7
370
     0
100
AcDbSpline
210
0.0
220
0.0
230
1.0
 70
     8
 71
     3
 72
    10
 73
     6
 74
     0
 42
0.00000001
 43
0.00000001
 12
1.0
 22
0.0
 32
0.0
 13
1.0
 23
0.0
 33
0.0
 40
0.0
 40
0.0
 40
0.0
 40
0.0
 40
0.5
 40
0.5
 40
1.0
 40
1.0
 40
1.0
 40
1.0
 10
209.0046893193055
 20
82.54731876825363
 30
0.0
 10
209.0046893193055
 20
82.61755512862415
 30
0.0
 10
209.0129719313959
 20
82.68754923012139
 30
0.0
 10
209.0460718744543
 20
82.82450849467988
 30
0.0
 10
209.0704092664126
 20
82.88981640393494
 30
0.0
 10
209.1023641216371
 20
82.95171439658168
 30
0.0
  0
SPLINE
  5
1C2
330
1F
100
AcDbEntity
  8
0
  6
HIDDEN
 62
     7
370
     0
100
AcDbSpline
210
0.0
220
0.0
230
1.0
 70
    24
 71
     3
 72
    12
 73
     8
 74
     0
 42
0.00000001
 43
0.00000001
 12
1.0
 22
0.0
 32
0.0
 13
1.0
 23
0.0
 33
0.0
 40
0.0
 40
0.0
 40
0.0
 40
0.0
 40
0.5
 40
0.5
 40
0.75
 40
0.75
 40
1.0
 40
1.0
 40
1.0
 40
1.0
 10
209.3989868509965
 20
135.751714396583
 30
0.0
 10
209.44211019943
 20
135.751714396583
 30
0.0
 10
209.4918497867303
 20
135.751714396583
 30
0.0
 10
209.5883707635522
 20
135.751714396583
 30
0.0
 10
209.6239358944039
 20
135.751714396583
 30
0.0
 10
209.7072842250268
 20
135.751714396583
 30
0.0
 10
209.7557541247171
 20
135.751714396583
 30
0.0
 10
209.8046893193067
 20
135.751714396583
 30
0.0
  0
SPLINE
  5
1C3
330
1F
100
AcDbEntity
  8
0
  6
HIDDEN
 62
     7
370
     0
100
AcDbSpline
210
0.0
220
0.0
230
1.0
 70
    24
 71
     3
 72
    14
 73
    10
 74
     0
 42
0.00000001
 43
0.00000001
 12
1.0
 22
0.0
 32
0.0
 13
1.0
 23
0.0
 33
0.0
 40
0.0
 40
0.0
 40
0.0
 40
0.0
 40
0.5000000000000016
 40
0.5000000000000016
 40
0.7500000000000008
 40
0.7500000000000008
 40
0.8750000000000003
 40
0.8750000000000003
 40
1.0
 40
1.0
 40
1.0
 40
1.0
 10
209.1023641216377
 20
82.95171439658296
 30
0.0
 10
209.1495706094775
 20
82.95171439658296
 30
0.0
 10
209.2129106129068
 20
82.95171439658296
 30
0.0
 10
209.3559737191626
 20
82.95171439658296
 30
0.0
 10
209.4120543694337
 20
82.95171439658296
 30
0.0
 10
209.523489719343
 20
82.95171439658294
 30
0.0
 10
209.565434510016
 20
82.95171439658294
 30
0.0
 10
209.6704309530362
 20
82.95171439658294
 30
0.0
 10
209.7359948901169
 20
82.95171439658296
 30
0.0
 10
209.8046893193053
 20
82.95171439658296
 30
0.0
  0
LINE
  5
1C4
330
1F
100
AcDbEntity
  8
0
  6
HIDDEN
 62
     7
370
     0
100
AcDbLine
 10
212.824689584
 20
136.471367696
 30
0.0
 11
212.824689584
 21
82.5473193766
 31
0.0
  0
SPLINE
  5
1C5
330
1F
100
AcDbEntity
  8
0
  6
HIDDEN
 62
     7
370
     0
100
AcDbSpline
210
0.0
220
0.0
230
1.0
 70
     8
 71
     3
 72
    10
 73
     6
 74
     0
 42
0.00000001
 43
0.00000001
 12
1.0
 22
0.0
 32
0.0
 13
1.0
 23
0.0
 33
0.0
 40
0.0
 40
0.0
 40
0.0
 40
0.0
 40
0.5
 40
0.5
 40
1.0
 40
1.0
 40
1.0
 40
1.0
 10
212.4303917876145
 20
135.751714396583
 30
0.0
 10
212.5517043107123
 20
135.8263005428712
 30
0.0
 10
212.6531326729374
 20
135.9351248540225
 30
0.0
 10
212.7890762391976
 20
136.1861453726442
 30
0.0
 10
212.8246893193055
 20
136.3287280657835
 30
0.0
 10
212.8246893193055
 20
136.4713682476188
 30
0.0
  0
SPLINE
  5
1C6
330
1F
100
AcDbEntity
  8
0
  6
HIDDEN
 62
     7
370
     0
100
AcDbSpline
210
0.0
220
0.0
230
1.0
 70
     8
 71
     3
 72
    10
 73
     6
 74
     0
 42
0.00000001
 43
0.00000001
 12
1.0
 22
0.0
 32
0.0
 13
1.0
 23
0.0
 33
0.0
 40
0.0
 40
0.0
 40
0.0
 40
0.0
 40
0.5
 40
0.5
 40
1.0
 40
1.0
 40
1.0
 40
1.0
 10
212.7270145169732
 20
82.95171439658297
 30
0.0
 10
212.7591697045952
 20
82.88942835106684
 30
0.0
 10
212.7838259357895
 20
82.82289792619758
 30
0.0
 10
212.8166386927149
 20
82.6860392958351
 30
0.0
 10
212.8246893193055
 20
82.61698170065674
 30
0.0
 10
212.8246893193055
 20
82.5473187682534
 30
0.0
  0
SPLINE
  5
1C7
330
1F
100
AcDbEntity
  8
0
  6
HIDDEN
 62
     7
370
     0
100
AcDbSpline
210
0.0
220
0.0
230
1.0
 70
    24
 71
     3
 72
    12
 73
     8
 74
     0
 42
0.00000001
 43
0.00000001
 12
1.0
 22
0.0
 32
0.0
 13
1.0
 23
0.0
 33
0.0
 40
0.0
 40
0.0
 40
0.0
 40
0.0
 40
0.2499999999999963
 40
0.2499999999999963
 40
0.4999999999999926
 40
0.4999999999999926
 40
1.0
 40
1.0
 40
1.0
 40
1.0
 10
212.0246893193055
 20
135.751714396583
 30
0.0
 10
212.0742244255235
 20
135.751714396583
 30
0.0
 10
212.122629314125
 20
135.751714396583
 30
0.0
 10
212.2055158633026
 20
135.751714396583
 30
0.0
 10
212.2420305847709
 20
135.751714396583
 30
0.0
 10
212.3383634231256
 20
135.751714396583
 30
0.0
 10
212.3871159707882
 20
135.751714396583
 30
0.0
 10
212.4303917876189
 20
135.751714396583
 30
0.0
  0
SPLINE
  5
1C8
330
1F
100
AcDbEntity
  8
0
  6
HIDDEN
 62
     7
370
     0
100
AcDbSpline
210
0.0
220
0.0
230
1.0
 70
    24
 71
     3
 72
    14
 73
    10
 74
     0
 42
0.00000001
 43
0.00000001
 12
1.0
 22
0.0
 32
0.0
 13
1.0
 23
0.0
 33
0.0
 40
0.0
 40
0.0
 40
0.0
 40
0.0
 40
0.1250000000000001
 40
0.1250000000000001
 40
0.2500000000000002
 40
0.2500000000000002
 40
0.5000000000000003
 40
0.5000000000000003
 40
1.0
 40
1.0
 40
1.0
 40
1.0
 10
212.0246893193055
 20
82.95171439658296
 30
0.0
 10
212.0937859516495
 20
82.95171439658297
 30
0.0
 10
212.1587791172574
 20
82.95171439658296
 30
0.0
 10
212.2631003159026
 20
82.95171439658296
 30
0.0
 10
212.305880690011
 20
82.95171439658296
 30
0.0
 10
212.4182183496573
 20
82.95171439658296
 30
0.0
 10
212.4732655317997
 20
82.95171439658296
 30
0.0
 10
212.6171423055697
 20
82.95171439658294
 30
0.0
 10
212.6801716188448
 20
82.95171439658296
 30
0.0
 10
212.7270145169732
 20
82.95171439658296
 30
0.0
  0
LINE
  5
1C9
330
1F
100
AcDbEntity
  8
0
  6
HIDDEN
 62
     7
370
     0
100
AcDbLine
 10
209.8046898712
 20
135.7517142535
 30
0.0
 11
212.0246890803
 21
135.7517142535
 31
0.0
  0
LINE
  5
1CA
330
1F
100
AcDbEntity
  8
0
  6
HIDDEN
 62
     7
370
     0
100
AcDbLine
 10
209.8046898712
 20
82.9517145396
 30
0.0
 11
212.0246890803
 21
82.9517145396
 31
0.0
  0
SPLINE
  5
1CB
330
1F
100
AcDbEntity
  8
0
  6
HIDDEN
 62
     7
370
     0
100
AcDbSpline
210
0.0
220
0.0
230
1.0
 70
     8
 71
     3
 72
    12
 73
     8
 74
     0
 42
0.00000001
 43
0.00000001
 12
1.0
 22
0.0
 32
0.0
 13
1.0
 23
0.0
 33
0.0
 40
0.0
 40
0.0
 40
0.0
 40
0.0
 40
0.25
 40
0.25
 40
0.5
 40
0.5
 40
1.0
 40
1.0
 40
1.0
 40
1.0
 10
218.2646893193055
 20
139.8189098697472
 30
0.0
 10
218.3441822683538
 20
139.8189098697472
 30
0.0
 10
218.4252657697093
 20
139.8019071197864
 30
0.0
 10
218.5716961668471
 20
139.7378465786747
 30
0.0
 10
218.6382447767208
 20
139.6906879630361
 30
0.0
 10
218.8025346506945
 20
139.5174659303439
 30
0.0
 10
218.8646893193056
 20
139.3573568401096
 30
0.0
 10
218.8646893193055
 20
139.1981547203463
 30
0.0
  0
SPLINE
  5
1CC
330
1F
100
AcDbEntity
  8
0
  6
HIDDEN
 62
     7
370
     0
100
AcDbSpline
210
0.0
220
0.0
230
1.0
 70
     8
 71
     3
 72
    12
 73
     8
 74
     0
 42
0.00000001
 43
0.00000001
 12
1.0
 22
0.0
 32
0.0
 13
1.0
 23
0.0
 33
0.0
 40
0.0
 40
0.0
 40
0.0
 40
0.0
 40
0.2500000000000019
 40
0.2500000000000019
 40
0.5000000000000039
 40
0.5000000000000039
 40
1.0
 40
1.0
 40
1.0
 40
1.0
 10
218.2646893193055
 20
79.16479670033583
 30
0.0
 10
218.3445703240526
 20
79.16479670033581
 30
0.0
 10
218.4251644543232
 20
79.18191378660167
 30
0.0
 10
218.5717799001681
 20
79.24664989807677
 30
0.0
 10
218.6382810929121
 20
79.29410714095711
 30
0.0
 10
218.8040159940493
 20
79.47093158349658
 30
0.0
 10
218.8646893193055
 20
79.6312080907023
 30
0.0
 10
218.8646893193055
 20
79.79143699599008
 30
0.0
  0
LINE
  5
1CD
330
1F
100
AcDbEntity
  8
0
  6
HIDDEN
 62
     7
370
     0
100
AcDbLine
 10
218.8646890094
 20
139.1981553973
 30
0.0
 11
218.8646890094
 21
79.7914371581
 31
0.0
  0
SPLINE
  5
1CE
330
1F
100
AcDbEntity
  8
0
  6
HIDDEN
 62
     7
370
     0
100
AcDbSpline
210
0.0
220
0.0
230
1.0
 70
     8
 71
     3
 72
     8
 73
     4
 74
     0
 42
0.00000001
 43
0.00000001
 12
1.0
 22
0.0
 32
0.0
 13
1.0
 23
0.0
 33
0.0
 40
0.0
 40
0.0
 40
0.0
 40
0.0
 40
1.0
 40
1.0
 40
1.0
 40
1.0
 10
212.8246893193055
 20
137.1569485877546
 30
0.0
 10
213.3173994161512
 20
138.044967585881
 30
0.0
 10
213.8114821214302
 20
138.932230221567
 30
0.0
 10
214.3066221507945
 20
139.8189098697472
 30
0.0
  0
LINE
  5
1CF
330
1F
100
AcDbEntity
  8
0
  6
HIDDEN
 62
     7
370
     0
100
AcDbLine
 10
214.3066212405
 20
139.8189098329
 30
0.0
 11
218.2646900286
 21
139.8189098329
 31
0.0
  0
SPLINE
  5
1D0
330
1F
100
AcDbEntity
  8
0
  6
HIDDEN
 62
     7
370
     0
100
AcDbSpline
210
0.0
220
0.0
230
1.0
 70
     8
 71
     3
 72
     8
 73
     4
 74
     0
 42
0.00000001
 43
0.00000001
 12
1.0
 22
0.0
 32
0.0
 13
1.0
 23
0.0
 33
0.0
 40
0.0
 40
0.0
 40
0.0
 40
0.0
 40
1.0
 40
1.0
 40
1.0
 40
1.0
 10
207.5227564878165
 20
139.8189098697472
 30
0.0
 10
208.0178965171808
 20
138.9322302215669
 30
0.0
 10
208.5119792224597
 20
138.044967585881
 30
0.0
 10
209.0046893193055
 20
137.1569485877546
 30
0.0
  0
LINE
  5
1D1
330
1F
100
AcDbEntity
  8
0
  6
HIDDEN
 62
     7
370
     0
100
AcDbLine
 10
212.824689584
 20
137.1569477708
 30
0.0
 11
212.824689584
 21
81.8538770766
 31
0.0
  0
LINE
  5
1D2
330
1F
100
AcDbEntity
  8
0
  6
HIDDEN
 62
     7
370
     0
100
AcDbLine
 10
214.3066212405
 20
139.8189098329
 30
0.0
 11
214.3066212405
 21
79.1647967638
 31
0.0
  0
LINE
  5
1D3
330
1F
100
AcDbEntity
  8
0
  6
HIDDEN
 62
     7
370
     0
100
AcDbLine
 10
209.0046893676
 20
137.1569477708
 30
0.0
 11
209.0046893676
 21
81.8538770766
 31
0.0
  0
ELLIPSE
  5
1D4
330
1F
100
AcDbEntity
  8
0
  6
HIDDEN
 62
     7
370
     0
100
AcDbEllipse
 10
174.9833108641
 20
116.2562022702
 30
0.0
 11
79.23619243418102
 21
36.60232621463051
 31
0.0
210
0.0
220
0.0
230
1.0
 40
0.0340458134
 41
5.643371776149186
 42
6.143711022632883
  0
ELLIPSE
  5
1D5
330
1F
100
AcDbEntity
  8
0
  6
HIDDEN
 62
     7
370
     0
100
AcDbEllipse
 10
258.1430207938
 20
109.7432153863
 30
0.0
 11
4.512492412125369
 21
43.9792010179977
 31
0.0
210
0.0
220
0.0
230
1.0
 40
0.0908886837
 41
0.2304733725144812
 42
0.6806139838437284
  0
SPLINE
  5
1D6
330
1F
100
AcDbEntity
  8
0
  6
HIDDEN
 62
     7
370
     0
100
AcDbSpline
210
0.0
220
0.0
230
1.0
 70
     8
 71
     3
 72
    26
 73
    22
 74
     0
 42
0.00000001
 43
0.00000001
 12
1.0
 22
0.0
 32
0.0
 13
1.0
 23
0.0
 33
0.0
 40
0.0
 40
0.0
 40
0.0
 40
0.0
 40
0.2499999999999882
 40
0.2499999999999882
 40
0.3749999999999808
 40
0.3749999999999808
 40
0.4374999999999771
 40
0.4374999999999771
 40
0.4687499999999777
 40
0.4687499999999777
 40
0.4999999999999784
 40
0.4999999999999784
 40
0.531249999999979
 40
0.531249999999979
 40
0.5624999999999796
 40
0.5624999999999796
 40
0.6249999999999828
 40
0.6249999999999828
 40
0.7499999999999888
 40
0.7499999999999888
 40
1.0
 40
1.0
 40
1.0
 40
1.0
 10
161.83884296541
 20
129.7418337301808
 30
0.0
 10
161.8002424425415
 20
129.6240590338253
 30
0.0
 10
161.7539454399873
 20
129.4996693476634
 30
0.0
 10
161.6600060915534
 20
129.2944500153099
 30
0.0
 10
161.6246946246399
 20
129.2228771488635
 30
0.0
 10
161.5585146488942
 20
129.106923916263
 30
0.0
 10
161.533976282226
 20
129.0663393814528
 30
0.0
 10
161.4906035366721
 20
129.002197699581
 30
0.0
 10
161.475095135247
 20
128.980331274296
 30
0.0
 10
161.4400524906599
 20
128.9347370059527
 30
0.0
 10
161.4205021999401
 20
128.9110667149853
 30
0.0
 10
161.3785749195695
 20
128.8664501556454
 30
0.0
 10
161.3559228093379
 20
128.8455701431275
 30
0.0
 10
161.3149490952513
 20
128.8146967293767
 30
0.0
 10
161.2973497953558
 20
128.8048578595443
 30
0.0
 10
161.2527228094997
 20
128.7858682438481
 30
0.0
 10
161.2321635868464
 20
128.7855439191947
 30
0.0
 10
161.1810381473497
 20
128.7947673600709
 30
0.0
 10
161.1601267343612
 20
128.8160142562879
 30
0.0
 10
161.1086768268003
 20
128.8899831351187
 30
0.0
 10
161.0910115274957
 20
128.9561012284334
 30
0.0
 10
161.0773526940289
 20
129.0262669413637
 30
0.0
  0
SPLINE
  5
1D7
330
1F
100
AcDbEntity
  8
0
  6
HIDDEN
 62
     7
370
     0
100
AcDbSpline
210
0.0
220
0.0
230
1.0
 70
     8
 71
     3
 72
    26
 73
    22
 74
     0
 42
0.00000001
 43
0.00000001
 12
1.0
 22
0.0
 32
0.0
 13
1.0
 23
0.0
 33
0.0
 40
0.0
 40
0.0
 40
0.0
 40
0.0
 40
0.2499999999999958
 40
0.2499999999999958
 40
0.3749999999999938
 40
0.3749999999999938
 40
0.437499999999993
 40
0.437499999999993
 40
0.4687499999999931
 40
0.4687499999999931
 40
0.4999999999999932
 40
0.4999999999999932
 40
0.5312499999999933
 40
0.5312499999999933
 40
0.5624999999999936
 40
0.5624999999999936
 40
0.6249999999999963
 40
0.6249999999999963
 40
0.7499999999999977
 40
0.7499999999999977
 40
1.0
 40
1.0
 40
1.0
 40
1.0
 10
161.0449669349141
 20
89.76162683635611
 30
0.0
 10
161.0556909683066
 20
89.8645878768451
 30
0.0
 10
161.0704239589012
 20
89.96358656632617
 30
0.0
 10
161.1227775181482
 20
90.0821822463913
 30
0.0
 10
161.1444828008678
 20
90.1178925463401
 30
0.0
 10
161.2033383082332
 20
90.14287197916185
 30
0.0
 10
161.2268005420804
 20
90.14725742692539
 30
0.0
 10
161.282921918741
 20
90.12750459348126
 30
0.0
 10
161.3057092288716
 20
90.11584820267085
 30
0.0
 10
161.3609617814029
 20
90.07406785323361
 30
0.0
 10
161.3923680141436
 20
90.0437962658576
 30
0.0
 10
161.4473018347641
 20
89.9821538669436
 30
0.0
 10
161.4717256529636
 20
89.95071221463677
 30
0.0
 10
161.5151407589508
 20
89.89097737722301
 30
0.0
 10
161.5347153215191
 20
89.86181236735035
 30
0.0
 10
161.5883480054671
 20
89.77797709161727
 30
0.0
 10
161.6181253535192
 20
89.72594447364108
 30
0.0
 10
161.6996594134921
 20
89.57487879967371
 30
0.0
 10
161.7429022081661
 20
89.48168775780297
 30
0.0
 10
161.8559567978208
 20
89.21730121880861
 30
0.0
 10
161.9099677953
 20
89.05834304975876
 30
0.0
 10
161.953598889504
 20
88.9077920936179
 30
0.0
  0
LINE
  5
1D8
330
1F
100
AcDbEntity
  8
0
  6
HIDDEN
 62
     7
370
     0
100
AcDbLine
 10
161.0146894922
 20
129.0423919202
 30
0.0
 11
161.0146894922
 21
89.6985542716
 31
0.0
  0
SPLINE
  5
1D9
330
1F
100
AcDbEntity
  8
0
  6
HIDDEN
 62
     7
370
     0
100
AcDbSpline
210
0.0
220
0.0
230
1.0
 70
     8
 71
     3
 72
     8
 73
     4
 74
     0
 42
0.00000001
 43
0.00000001
 12
1.0
 22
0.0
 32
0.0
 13
1.0
 23
0.0
 33
0.0
 40
0.0
 40
0.0
 40
0.0
 40
0.0
 40
1.0
 40
1.0
 40
1.0
 40
1.0
 10
207.5227564878165
 20
79.16479670033581
 30
0.0
 10
208.0182361484822
 20
80.06032278826916
 30
0.0
 10
208.5123501965243
 20
80.9566072033214
 30
0.0
 10
209.0046893193055
 20
81.8538772375281
 30
0.0
  0
SPLINE
  5
1DA
330
1F
100
AcDbEntity
  8
0
  6
HIDDEN
 62
     7
370
     0
100
AcDbSpline
210
0.0
220
0.0
230
1.0
 70
     8
 71
     3
 72
     8
 73
     4
 74
     0
 42
0.00000001
 43
0.00000001
 12
1.0
 22
0.0
 32
0.0
 13
1.0
 23
0.0
 33
0.0
 40
0.0
 40
0.0
 40
0.0
 40
0.0
 40
1.0
 40
1.0
 40
1.0
 40
1.0
 10
212.8246893193055
 20
81.8538772375281
 30
0.0
 10
213.3170284420867
 20
80.9566072033214
 30
0.0
 10
213.8111424901288
 20
80.06032278826916
 30
0.0
 10
214.3066221507945
 20
79.16479670033583
 30
0.0
  0
LINE
  5
1DB
330
1F
100
AcDbEntity
  8
0
  6
HIDDEN
 62
     7
370
     0
100
AcDbLine
 10
214.3066212405
 20
79.1647967638
 30
0.0
 11
218.2646900286
 21
79.1647967638
 31
0.0
  0
ELLIPSE
  5
1DC
330
1F
100
AcDbEntity
  8
0
  6
HIDDEN
 62
     7
370
     0
100
AcDbEllipse
 10
251.1693723655
 20
142.2804021388
 30
0.0
 11
2.219475038682532
 21
2.141201758675777
 31
0.0
210
0.0
220
0.0
230
1.0
 40
0.8103652656
 41
5.384719722770165
 42
7.202395580435207
  0
LWPOLYLINE
  5
1DD
330
1F
100
AcDbEntity
  8
0
  6
HIDDEN
 62
     7
370
     0
100
AcDbPolyline
 90
       13
 70
   128
 43
0.0
 10
250.3246053924
 20
137.8033713193
 10
250.5873948206
 20
138.1665275187
 10
250.7124677171
 20
138.6259861977
 10
250.6912968923
 20
139.1504362912
 10
250.5253240337
 20
139.7041355015
 10
250.225866573
 20
140.2493522258
 10
249.8133242001
 20
140.7489304186
 10
249.315815406
 20
141.1688227893
 10
248.7672440578
 20
141.4804172457
 10
248.2049934437
 20
141.6624759079
 10
247.6673781742
 20
141.7025935591
 10
247.1910402049
 20
141.5980358363
 10
246.8084417154
 20
141.3559292198
  0
LINE
  5
1DE
330
1F
100
AcDbEntity
  8
0
  6
HIDDEN
 62
     7
370
     0
100
AcDbLine
 10
247.5136242677
 20
135.167162189
 30
0.0
 11
250.3246053924
 21
137.8033713193
 31
0.0
  0
LWPOLYLINE
  5
1DF
330
1F
100
AcDbEntity
  8
0
  6
HIDDEN
 62
     7
370
     0
100
AcDbPolyline
 90
       29
 70
   128
 43
0.0
 10
222.9146886488
 20
103.8529051223
 10
223.582251357
 20
103.7858866842
 10
224.2163404693
 20
103.5881929786
 10
224.7851587703
 20
103.2697360718
 10
225.2601854374
 20
102.8464858175
 10
225.6175972392
 20
102.3396651947
 10
225.8394718041
 20
101.7746881337
 10
225.9146891405
 20
101.1798850016
 10
225.8394718041
 20
100.5850828008
 10
225.6175972392
 20
100.0201052741
 10
225.2601854374
 20
99.513285117
 10
224.7851587703
 20
99.0900343971
 10
224.2163404693
 20
98.7715779559
 10
223.582251357
 20
98.5738842503
 10
222.9146886488
 20
98.5068662779
 10
222.2471259405
 20
98.5738842503
 10
221.6130386909
 20
98.7715779559
 10
221.0442203899
 20
99.0900343971
 10
220.5691955854
 20
99.513285117
 10
220.211781921
 20
100.0201052741
 10
219.9899054934
 20
100.5850828008
 10
219.9146900197
 20
101.1798850016
 10
219.9899054934
 20
101.7746881337
 10
220.211781921
 20
102.3396651947
 10
220.5691955854
 20
102.8464858175
 10
221.0442203899
 20
103.2697360718
 10
221.6130386909
 20
103.5881929786
 10
222.2471259405
 20
103.7858866842
 10
222.9146886488
 20
103.8529051223
  0
CIRCLE
  5
1E0
330
1F
100
AcDbEntity
  8
0
  6
HIDDEN
 62
     7
370
     0
100
AcDbCircle
 10
199.9146893193
 20
109.3517143966
 30
0.0
 40
4.999999999999986
  0
SPLINE
  5
1E1
330
1F
100
AcDbEntity
  8
0
  6
HIDDEN
 62
     7
370
     0
100
AcDbSpline
210
0.0
220
0.0
230
1.0
 70
     8
 71
     3
 72
     8
 73
     4
 74
     0
 42
0.00000001
 43
0.00000001
 12
1.0
 22
0.0
 32
0.0
 13
1.0
 23
0.0
 33
0.0
 40
0.0
 40
0.0
 40
0.0
 40
0.0
 40
1.0
 40
1.0
 40
1.0
 40
1.0
 10
239.2911594660023
 20
141.956937591837
 30
0.0
 10
245.9046190056493
 20
142.7081703127412
 30
0.0
 10
252.5192248560313
 20
143.4490189458461
 30
0.0
 10
259.1347423039854
 20
144.18134231644
 30
0.0
  0
LINE
  5
1E2
330
1F
100
AcDbEntity
  8
0
  6
HIDDEN
 62
     7
370
     0
100
AcDbLine
 10
259.1347418596
 20
144.1813421191
 30
0.0
 11
255.6297130753
 21
109.7311932174
 31
0.0
  0
LINE
  5
1E3
330
1F
100
AcDbEntity
  8
0
  6
HIDDEN
 62
     7
370
     0
100
AcDbLine
 10
255.6297130753
 20
109.7311932174
 30
0.0
 11
255.3595810999
 21
109.3517143966
 31
0.0
  0
LINE
  5
1E4
330
1F
100
AcDbEntity
  8
0
  6
HIDDEN
 62
     7
370
     0
100
AcDbLine
 10
192.9146893193
 20
84.0277907194
 30
0.0
 11
193.0088501571
 21
84.6977804543
 31
0.0
  0
LINE
  5
1E5
330
1F
100
AcDbEntity
  8
0
  6
HIDDEN
 62
     7
370
     0
100
AcDbLine
 10
193.0088501571
 20
134.0056483389
 30
0.0
 11
192.9146893193
 21
134.6756380738
 31
0.0
  0
ARC
  5
1E6
330
1F
100
AcDbEntity
  8
0
  6
HIDDEN
 62
     7
370
     0
100
AcDbCircle
 10
192.4146893193
 20
84.7812835349
 30
0.0
 40
0.6000000000000227
100
AcDbArc
 50
352.0
 51
0.0
  0
ARC
  5
1E7
330
1F
100
AcDbEntity
  8
0
  6
HIDDEN
 62
     7
370
     0
100
AcDbCircle
 10
192.4146893193
 20
84.7812835349
 30
0.0
 40
0.6000000000000227
100
AcDbArc
 50
0.0
 51
33.5573097619
  0
ARC
  5
1E8
330
1F
100
AcDbEntity
  8
0
  6
HIDDEN
 62
     7
370
     0
100
AcDbCircle
 10
192.4146893193
 20
133.9221452583
 30
0.0
 40
0.6000000000000212
100
AcDbArc
 50
348.75
 51
8.0
  0
LWPOLYLINE
  5
1E9
330
1F
100
AcDbEntity
  8
0
  6
HIDDEN
 62
     7
370
     0
100
AcDbPolyline
 90
        3
 70
   128
 43
0.0
 10
193.0031604892
 20
133.8050917477
 10
192.9690170394
 20
133.6925358267
 10
192.9146893193
 20
133.5904833616
  0
LINE
  5
1EA
330
1F
100
AcDbEntity
  8
0
  6
HIDDEN
 62
     7
370
     0
100
AcDbLine
 10
193.0146893168
 20
84.7812828363
 30
0.0
 11
193.0146893168
 21
133.9221459569
 31
0.0
  0
LINE
  5
1EB
330
1F
100
AcDbEntity
  8
0
  6
HIDDEN
 62
     7
370
     0
100
AcDbLine
 10
193.0146893168
 20
84.7812828363
 30
0.0
 11
193.0146893168
 21
133.9221459569
 31
0.0
  0
LINE
  5
1EC
330
1F
100
AcDbEntity
  8
0
  6
HIDDEN
 62
     7
370
     0
100
AcDbLine
 10
227.9359981288
 20
126.2744658382
 30
0.0
 11
218.8171096017
 21
118.0784621031
 31
0.0
  0
LINE
  5
1ED
330
1F
100
AcDbEntity
  8
0
  6
HIDDEN
 62
     7
370
     0
100
AcDbLine
 10
225.2571530511
 20
117.1439544053
 30
0.0
 11
227.7854591479
 21
119.4163824187
 31
0.0
  0
LINE
  5
1EE
330
1F
100
AcDbEntity
  8
0
  6
HIDDEN
 62
     7
370
     0
100
AcDbLine
 10
222.1594549586
 20
114.3597627745
 30
0.0
 11
223.8025184591
 21
115.8365381637
 31
0.0
  0
LINE
  5
1EF
330
1F
100
AcDbEntity
  8
0
  6
HIDDEN
 62
     7
370
     0
100
AcDbLine
 10
218.7717895825
 20
117.4998509453
 30
0.0
 11
219.4261014332
 21
115.2644299657
 31
0.0
  0
LINE
  5
1F0
330
1F
100
AcDbEntity
  8
0
  6
HIDDEN
 62
     7
370
     0
100
AcDbLine
 10
219.4261014332
 20
115.2644299657
 30
0.0
 11
221.5793043246
 21
114.3762043432
 31
0.0
  0
ARC
  5
1F1
330
1F
100
AcDbEntity
  8
0
  6
HIDDEN
 62
     7
370
     0
100
AcDbCircle
 10
175.9971248846
 20
89.9517143966
 30
0.0
 40
0.6000000000000084
100
AcDbArc
 50
210.0
 51
270.0
  0
ARC
  5
1F2
330
1F
100
AcDbEntity
  8
0
  6
HIDDEN
 62
     7
370
     0
100
AcDbCircle
 10
175.9971248846
 20
128.7517143966
 30
0.0
 40
0.6000000000000227
100
AcDbArc
 50
90.0
 51
150.0
  0
LINE
  5
1F3
330
1F
100
AcDbEntity
  8
0
  6
HIDDEN
 62
     7
370
     0
100
AcDbLine
 10
175.9971253444
 20
89.3517148436
 30
0.0
 11
180.1887968426
 21
89.3517148436
 31
0.0
  0
LINE
  5
1F4
330
1F
100
AcDbEntity
  8
0
  6
HIDDEN
 62
     7
370
     0
100
AcDbLine
 10
180.1887968426
 20
129.3517139495
 30
0.0
 11
175.9971253444
 21
129.3517139495
 31
0.0
  0
ARC
  5
1F5
330
1F
100
AcDbEntity
  8
0
  6
HIDDEN
 62
     7
370
     0
100
AcDbCircle
 10
186.6696913209
 20
97.3517143966
 30
0.0
 40
7.999999999999984
100
AcDbArc
 50
276.8735034913
 51
321.3178125465
  0
ARC
  5
1F6
330
1F
100
AcDbEntity
  8
0
  6
HIDDEN
 62
     7
370
     0
100
AcDbCircle
 10
186.6696913209
 20
121.3517143966
 30
0.0
 40
7.999999999999996
100
AcDbArc
 50
38.6821874535
 51
83.1160781044
  0
LINE
  5
1F7
330
1F
100
AcDbEntity
  8
0
  6
HIDDEN
 62
     7
370
     0
100
AcDbLine
 10
175.4775088151
 20
129.0517144592
 30
0.0
 11
173.918664815
 21
126.3517153205
 31
0.0
  0
LINE
  5
1F8
330
1F
100
AcDbEntity
  8
0
  6
HIDDEN
 62
     7
370
     0
100
AcDbLine
 10
173.918664815
 20
92.3517134727
 30
0.0
 11
175.4775088151
 21
89.651714334
 31
0.0
  0
LINE
  5
1F9
330
1F
100
AcDbEntity
  8
0
  6
HIDDEN
 62
     7
370
     0
100
AcDbLine
 10
225.4146881272
 20
111.258121113
 30
0.0
 11
225.4146881272
 21
117.5622896047
 31
0.0
  0
LINE
  5
1FA
330
1F
100
AcDbEntity
  8
0
  6
HIDDEN
 62
     7
370
     0
100
AcDbLine
 10
220.4146891703
 20
117.4674325378
 30
0.0
 11
220.4146891703
 21
111.2548272579
 31
0.0
  0
ARC
  5
1FB
330
1F
100
AcDbEntity
  8
0
  6
HIDDEN
 62
     7
370
     0
100
AcDbCircle
 10
201.3646893193
 20
93.6267143966
 30
0.0
 40
1.500000000000004
100
AcDbArc
 50
238.2116693829
 51
0.0
  0
ARC
  5
1FC
330
1F
100
AcDbEntity
  8
0
  6
HIDDEN
 62
     7
370
     0
100
AcDbCircle
 10
201.3646893193
 20
125.0767143966
 30
0.0
 40
1.5
100
AcDbArc
 50
0.0
 51
121.7883306171
  0
LINE
  5
1FD
330
1F
100
AcDbEntity
  8
0
  6
HIDDEN
 62
     7
370
     0
100
AcDbLine
 10
192.9146893193
 20
92.3517134727
 30
0.0
 11
200.5745152813
 21
92.3517134727
 31
0.0
  0
LINE
  5
1FE
330
1F
100
AcDbEntity
  8
0
  6
HIDDEN
 62
     7
370
     0
100
AcDbLine
 10
200.5745152813
 20
126.3517153205
 30
0.0
 11
192.9146893193
 21
126.3517153205
 31
0.0
  0
LINE
  5
1FF
330
1F
100
AcDbEntity
  8
0
  6
HIDDEN
 62
     7
370
     0
100
AcDbLine
 10
171.1146890988
 20
92.3517134727
 30
0.0
 11
173.918664815
 21
92.3517134727
 31
0.0
  0
LINE
  5
200
330
1F
100
AcDbEntity
  8
0
  6
HIDDEN
 62
     7
370
     0
100
AcDbLine
 10
173.918664815
 20
126.3517153205
 30
0.0
 11
167.1146884431
 21
126.3517153205
 31
0.0
  0
LINE
  5
201
330
1F
100
AcDbEntity
  8
0
  6
HIDDEN
 62
     7
370
     0
100
AcDbLine
 10
212.2146900614
 20
99.8517147021
 30
0.0
 11
214.7146895398
 21
99.8517147021
 31
0.0
  0
LINE
  5
202
330
1F
100
AcDbEntity
  8
0
  6
HIDDEN
 62
     7
370
     0
100
AcDbLine
 10
214.7146895398
 20
118.8517140911
 30
0.0
 11
212.2146900614
 21
118.8517140911
 31
0.0
  0
LINE
  5
203
330
1F
100
AcDbEntity
  8
0
  6
HIDDEN
 62
     7
370
     0
100
AcDbLine
 10
202.8646891807
 20
100.351714784
 30
0.0
 11
203.3646892627
 21
100.8517139346
 31
0.0
  0
LINE
  5
204
330
1F
100
AcDbEntity
  8
0
  6
HIDDEN
 62
     7
370
     0
100
AcDbLine
 10
203.3646892627
 20
117.8517148585
 30
0.0
 11
202.8646891807
 21
118.3517140092
 31
0.0
  0
LINE
  5
205
330
1F
100
AcDbEntity
  8
0
  6
HIDDEN
 62
     7
370
     0
100
AcDbLine
 10
203.3646892627
 20
100.8517139346
 30
0.0
 11
212.2146900614
 21
100.8517139346
 31
0.0
  0
LINE
  5
206
330
1F
100
AcDbEntity
  8
0
  6
HIDDEN
 62
     7
370
     0
100
AcDbLine
 10
212.2146900614
 20
117.8517148585
 30
0.0
 11
203.3646892627
 21
117.8517148585
 31
0.0
  0
LINE
  5
207
330
1F
100
AcDbEntity
  8
0
  6
HIDDEN
 62
     7
370
     0
100
AcDbLine
 10
197.8646892925
 20
140.8517149032
 30
0.0
 11
197.8646892925
 21
135.7517142535
 31
0.0
  0
LINE
  5
208
330
1F
100
AcDbEntity
  8
0
  6
HIDDEN
 62
     7
370
     0
100
AcDbLine
 10
242.2125585248
 20
138.8738353492
 30
0.0
 11
241.7338810732
 21
138.239997694
 31
0.0
  0
LINE
  5
209
330
1F
100
AcDbEntity
  8
0
  6
HIDDEN
 62
     7
370
     0
100
AcDbLine
 10
247.3198942711
 20
134.0214137674
 30
0.0
 11
247.7985717227
 21
134.6552514226
 31
0.0
  0
LINE
  5
20A
330
1F
100
AcDbEntity
  8
0
  6
HIDDEN
 62
     7
370
     0
100
AcDbLine
 10
188.0991271568
 20
85.2723431529
 30
0.0
 11
187.664694978
 21
85.7514098973
 31
0.0
  0
LINE
  5
20B
330
1F
100
AcDbEntity
  8
0
  6
HIDDEN
 62
     7
370
     0
100
AcDbLine
 10
180.1646914204
 20
86.1730978579
 30
0.0
 11
179.6822579448
 21
85.6940311135
 31
0.0
  0
LINE
  5
20C
330
1F
100
AcDbEntity
  8
0
  6
HIDDEN
 62
     7
370
     0
100
AcDbLine
 10
179.6821359416
 20
133.0093920917
 30
0.0
 11
180.1646867638
 21
132.5302713306
 31
0.0
  0
LINE
  5
20D
330
1F
100
AcDbEntity
  8
0
  6
HIDDEN
 62
     7
370
     0
100
AcDbLine
 10
187.6646893901
 20
132.9519704671
 30
0.0
 11
188.0992314649
 21
133.4310893656
 31
0.0
  0
LINE
  5
20E
330
1F
100
AcDbEntity
  8
0
  6
HIDDEN
 62
     7
370
     0
100
AcDbLine
 10
214.7146895398
 20
105.1517145463
 30
0.0
 11
227.0146891345
 21
105.1517145463
 31
0.0
  0
LINE
  5
20F
330
1F
100
AcDbEntity
  8
0
  6
HIDDEN
 62
     7
370
     0
100
AcDbLine
 10
227.0146891345
 20
113.5517142468
 30
0.0
 11
214.7146895398
 21
113.5517142468
 31
0.0
  0
LINE
  5
210
330
1F
100
AcDbEntity
  8
0
  6
HIDDEN
 62
     7
370
     0
100
AcDbLine
 10
227.0146891345
 20
105.1517145463
 30
0.0
 11
229.5383050908
 21
109.3517143966
 31
0.0
  0
LINE
  5
211
330
1F
100
AcDbEntity
  8
0
  6
HIDDEN
 62
     7
370
     0
100
AcDbLine
 10
229.5383050908
 20
109.3517143966
 30
0.0
 11
227.0146891345
 21
113.5517142468
 31
0.0
  0
LINE
  5
212
330
1F
100
AcDbEntity
  8
0
  6
HIDDEN
 62
     7
370
     0
100
AcDbLine
 10
187.6646893901
 20
129.2871155531
 30
0.0
 11
187.6646893901
 21
132.9516780318
 31
0.0
  0
LINE
  5
213
330
1F
100
AcDbEntity
  8
0
  6
HIDDEN
 62
     7
370
     0
100
AcDbLine
 10
180.1646895577
 20
132.5301279069
 30
0.0
 11
180.1646895577
 21
129.3473367334
 31
0.0
  0
LINE
  5
214
330
1F
100
AcDbEntity
  8
0
  6
HIDDEN
 62
     7
370
     0
100
AcDbLine
 10
187.6646893901
 20
85.7518923224
 30
0.0
 11
187.6646893901
 21
89.41631324
 31
0.0
  0
LINE
  5
215
330
1F
100
AcDbEntity
  8
0
  6
HIDDEN
 62
     7
370
     0
100
AcDbLine
 10
180.1646895577
 20
89.3560920597
 30
0.0
 11
180.1646895577
 21
86.1734200955
 31
0.0
  0
LINE
  5
216
330
1F
100
AcDbEntity
  8
0
  6
HIDDEN
 62
     7
370
     0
100
AcDbLine
 10
257.1563370396
 20
136.0204641462
 30
0.0
 11
258.1200919916
 21
137.2966107668
 31
0.0
  0
LINE
  5
217
330
1F
100
AcDbEntity
  8
0
  6
HIDDEN
 62
     7
370
     0
100
AcDbLine
 10
249.6416292955
 20
144.6909953595
 30
0.0
 11
244.4125771393
 21
139.2652571888
 31
0.0
  0
LINE
  5
218
330
1F
100
AcDbEntity
  8
0
  6
HIDDEN
 62
     7
370
     0
100
AcDbLine
 10
241.1313153674
 20
138.6036419065
 30
0.0
 11
238.356499361
 21
134.9293824972
 31
0.0
  0
LINE
  5
219
330
1F
100
AcDbEntity
  8
0
  6
HIDDEN
 62
     7
370
     0
100
AcDbLine
 10
245.0597122182
 20
129.8670799227
 30
0.0
 11
247.8345319499
 21
133.541339332
 31
0.0
  0
LINE
  5
21A
330
1F
100
AcDbEntity
  8
0
  6
HIDDEN
 62
     7
370
     0
100
AcDbLine
 10
225.4146881272
 20
101.316278124
 30
0.0
 11
225.4146881272
 21
107.4486015353
 31
0.0
  0
LINE
  5
21B
330
1F
100
AcDbEntity
  8
0
  6
HIDDEN
 62
     7
370
     0
100
AcDbLine
 10
220.4146891703
 20
107.4453076801
 30
0.0
 11
220.4146891703
 21
101.316278124
 31
0.0
  0
ARC
  5
21C
330
1F
100
AcDbEntity
  8
0
  6
HIDDEN
 62
     7
370
     0
100
AcDbCircle
 10
165.7146893193
 20
131.6217143966
 30
0.0
 40
1.400000000000006
100
AcDbArc
 50
270.0
 51
301.7485287426
  0
ARC
  5
21D
330
1F
100
AcDbEntity
  8
0
  6
HIDDEN
 62
     7
370
     0
100
AcDbCircle
 10
169.7146893193
 20
87.1392143966
 30
0.0
 40
1.400000000000006
100
AcDbArc
 50
37.6443616934
 51
90.0
  0
LINE
  5
21E
330
1F
100
AcDbEntity
  8
0
  6
HIDDEN
 62
     7
370
     0
100
AcDbLine
 10
162.1558520814
 20
130.212878132
 30
0.0
 11
161.0245913138
 21
129.0816155017
 31
0.0
  0
LINE
  5
21F
330
1F
100
AcDbEntity
  8
0
  6
HIDDEN
 62
     7
370
     0
100
AcDbLine
 10
165.7146889587
 20
130.2217145206
 30
0.0
 11
162.2889548411
 21
130.2217145206
 31
0.0
  0
LINE
  5
220
330
1F
100
AcDbEntity
  8
0
  6
HIDDEN
 62
     7
370
     0
100
AcDbLine
 10
162.1646884699
 20
88.5392141284
 30
0.0
 11
169.7146896143
 21
88.5392141284
 31
0.0
  0
LINE
  5
221
330
1F
100
AcDbEntity
  8
0
  6
HIDDEN
 62
     7
370
     0
100
AcDbLine
 10
161.012107866
 20
89.6917947323
 30
0.0
 11
162.1646884699
 21
88.5392141284
 31
0.0
  0
LINE
  5
222
330
1F
100
AcDbEntity
  8
0
  6
HIDDEN
 62
     7
370
     0
100
AcDbLine
 10
252.3389443626
 20
148.2703325094
 30
0.0
 11
251.7535857727
 21
147.4952337087
 31
0.0
  0
LINE
  5
223
330
1F
100
AcDbEntity
  8
0
  6
HIDDEN
 62
     7
370
     0
100
AcDbLine
 10
257.1001969148
 20
143.4574437083
 30
0.0
 11
257.68555923
 21
144.2325462342
 31
0.0
  0
LINE
  5
224
330
1F
100
AcDbEntity
  8
0
  6
HIDDEN
 62
     7
370
     0
100
AcDbLine
 10
250.3666154911
 20
137.8448114486
 30
0.0
 11
254.9313142766
 21
142.581203276
 31
0.0
  0
LINE
  5
225
330
1F
100
AcDbEntity
  8
0
  6
HIDDEN
 62
     7
370
     0
100
AcDbLine
 10
225.9146891405
 20
97.5479691045
 30
0.0
 11
225.9146891405
 21
101.1798850016
 31
0.0
  0
LINE
  5
226
330
1F
100
AcDbEntity
  8
0
  6
HIDDEN
 62
     7
370
     0
100
AcDbLine
 10
219.9146900197
 20
101.1798850016
 30
0.0
 11
219.9146900197
 21
97.5499211566
 31
0.0
  0
LINE
  5
227
330
1F
100
AcDbEntity
  8
VERMASSUNG
100
AcDbLine
 10
262.9146893193
 20
154.3517143966
 30
0.0
 11
262.9146893193
 21
120.6138710401
 31
0.0
  0
DIMENSION
  5
228
330
1F
100
AcDbEntity
  8
VERMASSUNG
100
AcDbDimension
  2
_D
 10
155.2524719923
 20
77.8517143966
 30
0.0
 11
155.2524719923
 21
109.3517143966
 31
0.0
 70
   160
  1
HSK %%c<>
 71
     2
 42
-1.0
  3
SLDDIMSTYLE0
100
AcDbAlignedDimension
 13
193.2146893193
 23
140.8517143966
 33
0.0
 14
193.2146893193
 24
77.8517143966
 34
0.0
 50
90.0
100
AcDbRotatedDimension
  0
DIMENSION
  5
235
330
1F
100
AcDbEntity
  8
VERMASSUNG
100
AcDbDimension
  2
_D_1
 10
270.1746563538
 20
109.3517143966
 30
0.0
 11
270.1746563538
 21
131.8517143966
 31
0.0
 70
   160
  1
<>
 71
     2
 42
-1.0
  3
SLDDIMSTYLE0
100
AcDbAlignedDimension
 13
262.9146893193
 23
154.3517143966
 33
0.0
 14
260.7818978102
 24
109.3517143966
 34
0.0
 50
90.0
100
AcDbRotatedDimension
  0
DIMENSION
  5
23F
330
1F
100
AcDbEntity
  8
VERMASSUNG
100
AcDbDimension
  2
_D_2
 10
192.9146893193
 20
159.1955919308
 30
0.0
 11
227.9146893193
 21
159.1955919308
 31
0.0
 70
   160
  1
<>
 71
     2
 42
-1.0
  3
SLDDIMSTYLE0
100
AcDbAlignedDimension
 13
262.9146893193
 23
154.3517143966
 33
0.0
 14
192.9146893193
 24
140.5517143966
 34
0.0
100
AcDbRotatedDimension
  0
DIMENSION
  5
249
330
1F
100
AcDbEntity
  8
VERMASSUNG
100
AcDbDimension
  2
_D_3
 10
262.9146893193
 20
165.1955919308
 30
0.0
 11
211.9646893193
 21
165.1955919308
 31
0.0
 70
   160
  1
<>
 71
     2
 42
-1.0
  3
SLDDIMSTYLE0
100
AcDbAlignedDimension
 13
161.0146893193
 23
129.0423921431
 33
0.0
 14
262.9146893193
 24
154.3517143966
 34
0.0
 50
0.0
100
AcDbRotatedDimension
  0
DIMENSION
  5
253
330
1F
100
AcDbEntity
  8
VERMASSUNG
100
AcDbDimension
  2
_D_4
 10
262.9146893193
 20
154.3517143966
 30
0.0
 11
254.050952101
 21
123.2051806522
 31
0.0
 70
   162
  1
<>
 71
     1
 42
-1.0
  3
SLDDIMSTYLE1
100
AcDb2LineAngularDimension
 13
259.1030047016
 23
114.3303333752
 33
0.0
 14
261.8014700801
 24
145.002535461
 34
0.0
 15
262.9146893193
 25
109.3517143966
 35
0.0
 16
261.354404986
 26
122.117424554
 36
0.0
  0
LINE
  5
25E
330
1F
100
AcDbEntity
  8
VERMASSUNG
  6
CENTERX2
370
     0
100
AcDbLine
 10
156.8535766423
 20
109.3517143966
 30
0.0
 11
260.7818978102
 21
109.3517143966
 31
0.0
  0
LINE
  5
25F
330
1F
100
AcDbEntity
  8
0
  6
Continuous
 62
     7
370
    15
100
AcDbLine
 10
91.4765745001
 20
153.6928352655
 30
0.0
 11
86.7887206077
 21
154.3516714812
 31
0.0
  0
LINE
  5
260
330
1F
100
AcDbEntity
  8
0
  6
Continuous
 62
     7
370
    15
100
AcDbLine
 10
84.0925448174
 20
138.2840157242
 30
0.0
 11
84.4143752074
 21
138.238785112
 31
0.0
  0
LINE
  5
261
330
1F
100
AcDbEntity
  8
0
  6
Continuous
 62
     7
370
    15
100
AcDbLine
 10
84.431263811
 20
141.6231927217
 30
0.0
 11
84.5731109912
 21
141.2621450366
 31
0.0
  0
SPLINE
  5
262
330
1F
100
AcDbEntity
  8
0
  6
Continuous
 62
     7
370
    15
100
AcDbSpline
210
0.0
220
0.0
230
1.0
 70
     8
 71
     3
 72
     9
 73
     5
 74
     0
 42
0.00000001
 43
0.00000001
 12
1.0
 22
0.0
 32
0.0
 13
1.0
 23
0.0
 33
0.0
 40
0.0
 40
0.0
 40
0.0
 40
0.0
 40
0.2996536381873616
 40
0.9999999999999999
 40
0.9999999999999999
 40
0.9999999999999999
 40
0.9999999999999999
 10
85.95974064154841
 20
152.2941489459146
 30
0.0
 10
85.94818862020315
 20
152.2623709828691
 30
0.0
 10
85.90963737345335
 20
152.1563220016594
 30
0.0
 10
85.822980726406
 20
152.0528865896528
 30
0.0
 10
85.7622910589195
 20
151.9804459751714
 30
0.0
  0
LINE
  5
263
330
1F
100
AcDbEntity
  8
0
  6
Continuous
 62
     7
370
    15
100
AcDbLine
 10
85.8015124286
 20
152.0209920348
 30
0.0
 11
85.6265670918
 21
151.7925758601
 31
0.0
  0
LINE
  5
264
330
1F
100
AcDbEntity
  8
0
  6
Continuous
 62
     7
370
    15
100
AcDbLine
 10
95.7922986308
 20
153.025673026
 30
0.0
 11
91.4900363023
 21
153.6303174437
 31
0.0
  0
LINE
  5
265
330
1F
100
AcDbEntity
  8
0
  6
Continuous
 62
     7
370
    15
100
AcDbLine
 10
96.053075471
 20
152.6821602822
 30
0.0
 11
95.8024072061
 21
153.0186583043
 31
0.0
  0
LWPOLYLINE
  5
266
330
1F
100
AcDbEntity
  8
0
  6
Continuous
 62
     7
370
    15
100
AcDbPolyline
 90
       31
 70
   128
 43
0.0
 10
83.295813256
 20
140.1896656246
 10
83.3446669458
 20
140.0040455849
 10
83.3681001859
 20
139.6768440248
 10
83.3650887544
 20
139.222360471
 10
83.3357644333
 20
138.6604600341
 10
83.2814087225
 20
138.0156979651
 10
83.2043971932
 20
137.3162542225
 10
83.108095645
 20
136.5926985384
 10
82.9967129575
 20
135.8766530396
 10
82.8751171539
 20
135.1994120271
 10
82.7486221278
 20
134.5905766578
 10
82.6227571415
 20
134.0767529548
 10
82.503022586
 20
133.6803969682
 10
82.3946510973
 20
133.4188350232
 10
82.3023793819
 20
133.3034963102
 10
82.2302405322
 20
133.3394211472
 10
82.1813870752
 20
133.5250411869
 10
82.1579536023
 20
133.8522427471
 10
82.1609650338
 20
134.3067263008
 10
82.1902895877
 20
134.8686267377
 10
82.2446452985
 20
135.5133888067
 10
82.3216568278
 20
136.2128325493
 10
82.4179579104
 20
136.9363882334
 10
82.5293408307
 20
137.6524337323
 10
82.6509366343
 20
138.3296747447
 10
82.7774311947
 20
138.9385101141
 10
82.9032966467
 20
139.452333817
 10
83.023031435
 20
139.8486898036
 10
83.1314026909
 20
140.1102517487
 10
83.2236741735
 20
140.2255904616
 10
83.295813256
 20
140.1896656246
  0
LWPOLYLINE
  5
267
330
1F
100
AcDbEntity
  8
0
  6
Continuous
 62
     7
370
    15
100
AcDbPolyline
 90
       23
 70
   128
 43
0.0
 10
83.0674762437
 20
138.7217559607
 10
83.1019873331
 20
138.5567013861
 10
83.1090379106
 20
138.2464573474
 10
83.0880568428
 20
137.8161583782
 10
83.0407435606
 20
137.30066202
 10
82.9709316204
 20
136.7417325021
 10
82.8842762457
 20
136.1846525909
 10
82.7877982119
 20
135.6745504529
 10
82.689313178
 20
135.2527544589
 10
82.5967997844
 20
134.9534329713
 10
82.5177533152
 20
134.8008376301
 10
82.4585775444
 20
134.8073308111
 10
82.4240664551
 20
134.9723853857
 10
82.4170158776
 20
135.2826294244
 10
82.4379971782
 20
135.7129283936
 10
82.4853102276
 20
136.2284247519
 10
82.5551221678
 20
136.7873542697
 10
82.6417775424
 20
137.344434181
 10
82.7382555763
 20
137.8545363189
 10
82.8367406102
 20
138.2763323129
 10
82.9292540038
 20
138.5756538005
 10
83.0083002402
 20
138.7282491417
 10
83.0674762437
 20
138.7217559607
  0
LINE
  5
268
330
1F
100
AcDbEntity
  8
0
  6
Continuous
 62
     7
370
    15
100
AcDbLine
 10
83.0259150425
 20
137.1719141246
 30
0.0
 11
82.8829211714
 21
136.9911164732
 31
0.0
  0
LINE
  5
269
330
1F
100
AcDbEntity
  8
0
  6
Continuous
 62
     7
370
    15
100
AcDbLine
 10
82.8829211714
 20
136.9911164732
 30
0.0
 11
82.9548313813
 21
136.6548233421
 31
0.0
  0
LINE
  5
26A
330
1F
100
AcDbEntity
  8
0
  6
Continuous
 62
     7
370
    15
100
AcDbLine
 10
83.0020885514
 20
136.9743694306
 30
0.0
 11
82.8829211714
 21
136.9911164732
 31
0.0
  0
ELLIPSE
  5
26B
330
1F
100
AcDbEntity
  8
0
  6
Continuous
 62
     7
370
    15
100
AcDbEllipse
 10
85.3695407503
 20
147.1621612679
 30
0.0
 11
0.3276187943153985
 21
2.328679888184553
 31
0.0
210
0.0
220
0.0
230
1.0
 40
0.1045283628
 41
0.3692499247519942
 42
1.13933089486809
  0
LWPOLYLINE
  5
26C
330
1F
100
AcDbEntity
  8
0
  6
Continuous
 62
     7
370
    15
100
AcDbPolyline
 90
        9
 70
   128
 43
0.0
 10
84.0788636888
 20
138.3589890541
 10
84.0809375113
 20
138.3163940848
 10
84.086200648
 20
138.2910434843
 10
84.0944037372
 20
138.2841386587
 10
84.1051579518
 20
138.2960074336
 10
84.1179531599
 20
138.3260854275
 10
84.1321830703
 20
138.3729477168
 10
84.1471731728
 20
138.4343721659
 10
84.1622124026
 20
138.5074474604
  0
LINE
  5
26D
330
1F
100
AcDbEntity
  8
0
  6
Continuous
 62
     7
370
    15
100
AcDbLine
 10
84.0380980699
 20
143.1204129697
 30
0.0
 11
84.0788636888
 21
138.3589890541
 31
0.0
  0
LINE
  5
26E
330
1F
100
AcDbEntity
  8
0
  6
Continuous
 62
     7
370
    15
100
AcDbLine
 10
84.4866630687
 20
149.8492073954
 30
0.0
 11
84.0380980699
 21
143.1204129697
 31
0.0
  0
ARC
  5
26F
330
1F
100
AcDbEntity
  8
0
  6
Continuous
 62
     7
370
    15
100
AcDbCircle
 10
87.1845651766
 20
149.6929815108
 30
0.0
 40
2.702421564276519
100
AcDbArc
 50
164.1053798222
 51
176.6859067638
  0
LINE
  5
270
330
1F
100
AcDbEntity
  8
0
  6
Continuous
 62
     7
370
    15
100
AcDbLine
 10
85.8386515938
 20
153.7610229791
 30
0.0
 11
84.585465218
 21
150.4330907704
 31
0.0
  0
LINE
  5
271
330
1F
100
AcDbEntity
  8
0
  6
Continuous
 62
     7
370
    15
100
AcDbLine
 10
86.7849001333
 20
154.3506731034
 30
0.0
 11
85.8386515938
 21
153.7610229791
 31
0.0
  0
ARC
  5
272
330
1F
100
AcDbEntity
  8
0
  6
Continuous
 62
     7
370
    15
100
AcDbCircle
 10
85.8937677432
 20
154.1643126335
 30
0.0
 40
0.9104104357135032
100
AcDbArc
 50
344.1228344748
 51
11.8119027808
  0
LINE
  5
273
330
1F
100
AcDbEntity
  8
0
  6
Continuous
 62
     7
370
    15
100
AcDbLine
 10
85.5570258172
 20
145.8258901478
 30
0.0
 11
86.7694463996
 21
153.9152462722
 31
0.0
  0
LINE
  5
274
330
1F
100
AcDbEntity
  8
0
  6
Continuous
 62
     7
370
    15
100
AcDbLine
 10
84.1622124026
 20
138.5074474604
 30
0.0
 11
85.5570258172
 21
145.8258901478
 31
0.0
  0
LWPOLYLINE
  5
275
330
1F
100
AcDbEntity
  8
0
  6
Continuous
 62
     7
370
    15
100
AcDbPolyline
 90
        9
 70
   128
 43
0.0
 10
84.0823312355
 20
138.3750450553
 10
84.0843014484
 20
138.334580952
 10
84.0893012537
 20
138.3104988129
 10
84.0970943282
 20
138.3039385767
 10
84.107310704
 20
138.3152131678
 10
84.1194663262
 20
138.3437861444
 10
84.1329847062
 20
138.3883052261
 10
84.147225094
 20
138.446660036
 10
84.1615125137
 20
138.5160808207
  0
LINE
  5
276
330
1F
100
AcDbEntity
  8
0
  6
Continuous
 62
     7
370
    15
100
AcDbLine
 10
84.1615125137
 20
138.5160808207
 30
0.0
 11
85.5557268551
 21
145.8313812257
 31
0.0
  0
LINE
  5
277
330
1F
100
AcDbEntity
  8
0
  6
Continuous
 62
     7
370
    15
100
AcDbLine
 10
85.5557268551
 20
145.8313812257
 30
0.0
 11
86.7676266462
 21
153.9172616542
 31
0.0
  0
ARC
  5
278
330
1F
100
AcDbEntity
  8
0
  6
Continuous
 62
     7
370
    15
100
AcDbCircle
 10
85.9357297726
 20
154.1538750964
 30
0.0
 40
0.8648920910784568
100
AcDbArc
 50
344.1228480226
 51
11.8118960457
  0
LINE
  5
279
330
1F
100
AcDbEntity
  8
0
  6
Continuous
 62
     7
370
    15
100
AcDbLine
 10
86.7823076951
 20
154.330917889
 30
0.0
 11
85.8364655469
 21
153.7415210844
 31
0.0
  0
LINE
  5
27A
330
1F
100
AcDbEntity
  8
0
  6
Continuous
 62
     7
370
    15
100
AcDbLine
 10
85.8364655469
 20
153.7415210844
 30
0.0
 11
84.5838174755
 21
150.4150193871
 31
0.0
  0
ARC
  5
27B
330
1F
100
AcDbEntity
  8
0
  6
Continuous
 62
     7
370
    15
100
AcDbCircle
 10
87.0529737422
 20
149.7119137795
 30
0.0
 40
2.567311855835985
100
AcDbArc
 50
164.1054100517
 51
176.6859434293
  0
LINE
  5
27C
330
1F
100
AcDbEntity
  8
0
  6
Continuous
 62
     7
370
    15
100
AcDbLine
 10
84.489955294
 20
149.860327387
 30
0.0
 11
84.0415830789
 21
143.1344237865
 31
0.0
  0
LINE
  5
27D
330
1F
100
AcDbEntity
  8
0
  6
Continuous
 62
     7
370
    15
100
AcDbLine
 10
84.0415830789
 20
143.1344237865
 30
0.0
 11
84.0823312355
 21
138.3750450553
 31
0.0
  0
LINE
  5
27E
330
1F
100
AcDbEntity
  8
0
  6
Continuous
 62
     7
370
    15
100
AcDbLine
 10
90.2448799061
 20
145.1670539321
 30
0.0
 11
85.5570258172
 21
145.8258901478
 31
0.0
  0
LINE
  5
27F
330
1F
100
AcDbEntity
  8
0
  6
Continuous
 62
     7
370
    15
100
AcDbLine
 10
90.2448799061
 20
145.1670539321
 30
0.0
 11
91.4573003138
 21
153.2564100565
 31
0.0
  0
LINE
  5
280
330
1F
100
AcDbEntity
  8
0
  6
Continuous
 62
     7
370
    15
100
AcDbLine
 10
90.0958715538
 20
144.3852235318
 30
0.0
 11
90.2448799061
 21
145.1670539321
 31
0.0
  0
ARC
  5
281
330
1F
100
AcDbEntity
  8
0
  6
Continuous
 62
     7
370
    15
100
AcDbCircle
 10
76.9941778454
 20
147.8151467006
 30
0.0
 40
8.551173563417523
100
AcDbArc
 50
349.2712239948
 51
351.5199469138
  0
LINE
  5
282
330
1F
100
AcDbEntity
  8
0
  6
Continuous
 62
     7
370
    15
100
AcDbLine
 10
84.6219511768
 20
142.1625737787
 30
0.0
 11
85.3958719708
 21
146.2232594133
 31
0.0
  0
LWPOLYLINE
  5
283
330
1F
100
AcDbEntity
  8
0
  6
Continuous
 62
     7
370
    15
100
AcDbPolyline
 90
        9
 70
   128
 43
0.0
 10
84.4135796251
 20
141.7914305569
 10
84.418764065
 20
141.6849431337
 10
84.4319217904
 20
141.6215684951
 10
84.4524295135
 20
141.6043054999
 10
84.4793149336
 20
141.6339737118
 10
84.5113033029
 20
141.7091686965
 10
84.5468781954
 20
141.8263253511
 10
84.584352986
 20
141.9798855425
 10
84.6219511768
 20
142.1625737787
  0
LINE
  5
284
330
1F
100
AcDbEntity
  8
0
  6
Continuous
 62
     7
370
    15
100
AcDbLine
 10
84.3909605937
 20
144.433335656
 30
0.0
 11
84.4135796251
 21
141.7914305569
 31
0.0
  0
ARC
  5
285
330
1F
100
AcDbEntity
  8
0
  6
Continuous
 62
     7
370
    15
100
AcDbCircle
 10
87.7789151309
 20
144.4366259295
 30
0.0
 40
3.38795613490772
100
AcDbArc
 50
175.8790552139
 51
180.0556438176
  0
LINE
  5
286
330
1F
100
AcDbEntity
  8
0
  6
Continuous
 62
     7
370
    15
100
AcDbLine
 10
84.6486072587
 20
148.4136071743
 30
0.0
 11
84.3997182856
 21
144.6800914348
 31
0.0
  0
ARC
  5
287
330
1F
100
AcDbEntity
  8
0
  6
Continuous
 62
     7
370
    15
100
AcDbCircle
 10
91.3934905385
 20
148.0230258118
 30
0.0
 40
6.756182669123229
100
AcDbArc
 50
164.1054946626
 51
176.6858285485
  0
LINE
  5
288
330
1F
100
AcDbEntity
  8
0
  6
Continuous
 62
     7
370
    15
100
AcDbLine
 10
85.5909512211
 20
151.7198432923
 30
0.0
 11
84.8956130976
 21
149.8733211995
 31
0.0
  0
ARC
  5
289
330
1F
100
AcDbEntity
  8
0
  6
Continuous
 62
     7
370
    15
100
AcDbCircle
 10
85.7781542307
 20
151.6700675682
 30
0.0
 40
0.1937074844828736
100
AcDbArc
 50
136.2678396048
 51
165.1100459186
  0
LINE
  5
28A
330
1F
100
AcDbEntity
  8
0
  6
Continuous
 62
     7
370
    15
100
AcDbLine
 10
86.1632171618
 20
152.1311451436
 30
0.0
 11
85.6381852245
 21
151.8039752484
 31
0.0
  0
ARC
  5
28B
330
1F
100
AcDbEntity
  8
0
  6
Continuous
 62
     7
370
    15
100
AcDbCircle
 10
83.9354159957
 20
151.6652429328
 30
0.0
 40
2.275997123392884
100
AcDbArc
 50
344.1226541899
 51
11.8120819182
  0
LINE
  5
28C
330
1F
100
AcDbEntity
  8
0
  6
Continuous
 62
     7
370
    15
100
AcDbLine
 10
85.4518636661
 20
146.5541471482
 30
0.0
 11
86.1245828164
 21
151.0425780655
 31
0.0
  0
LWPOLYLINE
  5
28D
330
1F
100
AcDbEntity
  8
0
  6
Continuous
 62
     7
370
    15
100
AcDbPolyline
 90
       27
 70
   128
 43
0.0
 10
85.4986499362
 20
148.2225184084
 10
85.553853849
 20
148.7946894706
 10
85.5852728309
 20
149.2956367077
 10
85.5910811406
 20
149.6962432505
 10
85.5709410571
 20
149.97322976
 10
85.5260231365
 20
150.1104955317
 10
85.4589377595
 20
150.1000684441
 10
85.3735837918
 20
149.9425482691
 10
85.2749215737
 20
149.6470917703
 10
85.168685142
 20
149.2308725358
 10
85.0610484667
 20
148.7180788756
 10
84.9582670089
 20
148.1385093869
 10
84.8663141551
 20
147.5258481444
 10
84.7905336013
 20
146.9157014729
 10
84.7353299214
 20
146.3435266853
 10
84.703910823
 20
145.8425794483
 10
84.6981026298
 20
145.4419729055
 10
84.7182427133
 20
145.1649863959
 10
84.7631606339
 20
145.0277206243
 10
84.8302458944
 20
145.0381514372
 10
84.9155999786
 20
145.1956678868
 10
85.0142620802
 20
145.4911243857
 10
85.120498512
 20
145.9073436202
 10
85.2281351872
 20
146.4201410056
 10
85.330916645
 20
146.9997104944
 10
85.4228696153
 20
147.6123717369
 10
85.4986499362
 20
148.2225184084
  0
ARC
  5
28E
330
1F
100
AcDbEntity
  8
0
  6
Continuous
 62
     7
370
    15
100
AcDbCircle
 10
90.4427889162
 20
153.5198529283
 30
0.0
 40
1.048158157202732
100
AcDbArc
 50
345.4432470879
 51
9.4992430742
  0
LINE
  5
28F
330
1F
100
AcDbEntity
  8
0
  6
Continuous
 62
     7
370
    15
100
AcDbLine
 10
85.9645084311
 20
153.4474056901
 30
0.0
 11
85.8364655469
 21
153.7415210844
 31
0.0
  0
LINE
  5
290
330
1F
100
AcDbEntity
  8
0
  6
Continuous
 62
     7
370
    15
100
AcDbLine
 10
84.2486742949
 20
143.3074560703
 30
0.0
 11
84.0415830789
 21
143.1344237865
 31
0.0
  0
LINE
  5
291
330
1F
100
AcDbEntity
  8
0
  6
Continuous
 62
     7
370
    15
100
AcDbLine
 10
84.6029501008
 20
141.1612567247
 30
0.0
 11
84.6015647585
 21
141.2059266807
 31
0.0
  0
SPLINE
  5
292
330
1F
100
AcDbEntity
  8
0
  6
Continuous
 62
     7
370
    15
100
AcDbSpline
210
0.0
220
0.0
230
1.0
 70
     8
 71
     3
 72
    10
 73
     6
 74
     0
 42
0.00000001
 43
0.00000001
 12
1.0
 22
0.0
 32
0.0
 13
1.0
 23
0.0
 33
0.0
 40
0.0
 40
0.0
 40
0.0
 40
0.0
 40
0.3388937488816369
 40
0.6777419664923715
 40
1.0
 40
1.0
 40
1.0
 40
1.0
 10
85.96450843105383
 20
153.447405690061
 30
0.0
 10
86.01492862726165
 20
153.289789511742
 30
0.0
 10
86.11576224559066
 20
152.9745783312542
 30
0.0
 10
86.06864816546245
 20
152.4796193284694
 30
0.0
 10
85.9081815447606
 20
152.2067871057355
 30
0.0
 10
85.829961655683
 20
152.0737942994703
 30
0.0
  0
LINE
  5
293
330
1F
100
AcDbEntity
  8
0
  6
Continuous
 62
     7
370
    15
100
AcDbLine
 10
84.9169909088
 20
149.9300908984
 30
0.0
 11
84.7685779045
 21
150.0412721873
 31
0.0
  0
LINE
  5
294
330
1F
100
AcDbEntity
  8
0
  6
Continuous
 62
     7
370
    15
100
AcDbLine
 10
85.905462638
 20
152.269472623
 30
0.0
 11
85.8020656342
 21
152.0353120507
 31
0.0
  0
LINE
  5
295
330
1F
100
AcDbEntity
  8
0
  6
Continuous
 62
     7
370
    15
100
AcDbLine
 10
84.2486742949
 20
143.3074560703
 30
0.0
 11
84.3990437752
 21
143.4892241598
 31
0.0
  0
LINE
  5
296
330
1F
100
AcDbEntity
  8
0
  6
Continuous
 62
     7
370
    15
100
AcDbLine
 10
90.2448799061
 20
145.1670539321
 30
0.0
 11
91.3517120825
 21
152.5519166828
 31
0.0
  0
LINE
  5
297
330
1F
100
AcDbEntity
  8
0
  6
Continuous
 62
     7
370
    15
100
AcDbLine
 10
94.6372807557
 20
144.5497435273
 30
0.0
 11
95.7441129321
 21
151.934606278
 31
0.0
  0
LINE
  5
298
330
1F
100
AcDbEntity
  8
0
  6
Continuous
 62
     7
370
    15
100
AcDbLine
 10
94.6372807557
 20
144.5497435273
 30
0.0
 11
90.2448799061
 21
145.1670539321
 31
0.0
  0
LINE
  5
299
330
1F
100
AcDbEntity
  8
0
  6
Continuous
 62
     7
370
    15
100
AcDbLine
 10
94.9132483984
 20
144.5905764342
 30
0.0
 11
94.6372807557
 21
144.5497435273
 31
0.0
  0
LINE
  5
29A
330
1F
100
AcDbEntity
  8
0
  6
Continuous
 62
     7
370
    15
100
AcDbLine
 10
96.0122695724
 20
151.9233223737
 30
0.0
 11
94.9132483984
 21
144.5905764342
 31
0.0
  0
LINE
  5
29B
330
1F
100
AcDbEntity
  8
0
  6
Continuous
 62
     7
370
    15
100
AcDbLine
 10
94.4882724034
 20
143.7679131271
 30
0.0
 11
94.6372807557
 21
144.5497435273
 31
0.0
  0
LINE
  5
29C
330
1F
100
AcDbEntity
  8
0
  6
Continuous
 62
     7
370
    15
100
AcDbLine
 10
94.9132483984
 20
144.5905764342
 30
0.0
 11
94.7494622851
 21
143.7312041165
 31
0.0
  0
ARC
  5
29D
330
1F
100
AcDbEntity
  8
0
  6
Continuous
 62
     7
370
    15
100
AcDbCircle
 10
93.207779456
 20
152.5932179139
 30
0.0
 40
2.620449730342421
100
AcDbArc
 50
345.4434549335
 51
9.4990280684
  0
ARC
  5
29E
330
1F
100
AcDbEntity
  8
0
  6
Continuous
 62
     7
370
    15
100
AcDbCircle
 10
93.9336682744
 20
152.4156135943
 30
0.0
 40
2.136102526042444
100
AcDbArc
 50
346.6757059099
 51
7.1681543684
  0
LINE
  5
29F
330
1F
100
AcDbEntity
  8
0
  6
Continuous
 62
     7
370
    15
100
AcDbLine
 10
113.8309496055
 20
144.1813421191
 30
0.0
 11
113.8309496055
 21
109.7311932174
 31
0.0
  0
LINE
  5
2A0
330
1F
100
AcDbEntity
  8
0
  6
Continuous
 62
     7
370
    15
100
AcDbLine
 10
81.106366084
 20
114.3303334468
 30
0.0
 11
113.8309496055
 21
109.7311932174
 31
0.0
  0
LINE
  5
2A1
330
1F
100
AcDbEntity
  8
0
  6
Continuous
 62
     7
370
    15
100
AcDbLine
 10
85.7034705878
 20
145.0025339366
 30
0.0
 11
81.106366084
 21
114.3303334468
 31
0.0
  0
LINE
  5
2A2
330
1F
100
AcDbEntity
  8
0
  6
Continuous
 62
     7
370
    15
100
AcDbLine
 10
85.7034705878
 20
145.0025339366
 30
0.0
 11
94.7837256426
 21
143.7263873161
 31
0.0
  0
LINE
  5
2A3
330
1F
100
AcDbEntity
  8
0
  6
Continuous
 62
     7
370
    15
100
AcDbLine
 10
94.7837256426
 20
143.7263873161
 30
0.0
 11
96.1216664473
 21
152.6532259525
 31
0.0
  0
ELLIPSE
  5
2A4
330
1F
100
AcDbEntity
  8
0
  6
Continuous
 62
     7
370
    15
100
AcDbEllipse
 10
86.477557871
 20
109.7432153863
 30
0.0
 11
-29.47065537618526
 21
32.64879307733926
 31
0.0
210
0.0
220
0.0
230
1.0
 40
0.999928102
 41
4.87765144785219
 42
5.327792059181432
  0
LWPOLYLINE
  5
2A5
330
1F
100
AcDbEntity
  8
0
  6
Continuous
 62
     7
370
    15
100
AcDbPolyline
 90
       31
 70
   128
 43
0.0
 10
82.2759209732
 20
133.2986050041
 10
82.3618894974
 20
133.3637584687
 10
82.4653897034
 20
133.5775417031
 10
82.5818981575
 20
133.9306116791
 10
82.7063228535
 20
134.4075401069
 10
82.8332257988
 20
134.9874783994
 10
82.9570605019
 20
135.6450852693
 10
83.0724150473
 20
136.3516163767
 10
83.1742479531
 20
137.076194653
 10
83.2581084287
 20
137.787153268
 10
83.3203314869
 20
138.4534177126
 10
83.3581976658
 20
139.0458711178
 10
83.3700520052
 20
139.5386189909
 10
83.3553764569
 20
139.9101254285
 10
83.3148124693
 20
140.1441556157
 10
83.250132815
 20
140.2304817678
 10
83.164164058
 20
140.1653283031
 10
83.0606638519
 20
139.9515450687
 10
82.9441556307
 20
139.5984750928
 10
82.8197309347
 20
139.1215466649
 10
82.6928279894
 20
138.5416065098
 10
82.5689932863
 20
137.8840015025
 10
82.4536387408
 20
137.1774703951
 10
82.3518060679
 20
136.4528921188
 10
82.2679455923
 20
135.7419335039
 10
82.2057225341
 20
135.0756690593
 10
82.1678558896
 20
134.483215654
 10
82.1560015502
 20
133.9904677809
 10
82.1706773313
 20
133.6189613433
 10
82.211241086
 20
133.3849311561
 10
82.2759209732
 20
133.2986050041
  0
LWPOLYLINE
  5
2A6
330
1F
100
AcDbEntity
  8
0
  6
Continuous
 62
     7
370
    15
100
AcDbPolyline
 90
       12
 70
   128
 43
0.0
 10
84.073402646
 20
138.9968574734
 10
84.0587205785
 20
138.9046621264
 10
83.9750456689
 20
138.3128457458
 10
83.9120044438
 20
137.7412278892
 10
83.8747047419
 20
137.2361195029
 10
83.8661677735
 20
136.8384410382
 10
83.8870857442
 20
136.5804106684
 10
83.9357636469
 20
136.4829309971
 10
84.0082577961
 20
136.5539015026
 10
84.0986955045
 20
136.7875703366
 10
84.1997495918
 20
137.165009299
 10
84.3032337325
 20
137.6556374819
  0
LINE
  5
2A7
330
1F
100
AcDbEntity
  8
0
  6
Continuous
 62
     7
370
    15
100
AcDbLine
 10
81.106366084
 20
114.3303334468
 30
0.0
 11
74.8102119724
 21
85.1752397359
 31
0.0
  0
ARC
  5
2A8
330
1F
100
AcDbEntity
  8
0
  6
Continuous
 62
     7
370
    15
100
AcDbCircle
 10
86.8309489051
 20
109.3517143966
 30
0.0
 40
27.00000000000002
100
AcDbArc
 50
242.8078789088
 51
243.5630660116
  0
SPLINE
  5
2A9
330
1F
100
AcDbEntity
  8
0
  6
Continuous
 62
     7
370
    15
100
AcDbSpline
210
0.0
220
0.0
230
1.0
 70
     8
 71
     3
 72
     8
 73
     4
 74
     0
 42
0.00000001
 43
0.00000001
 12
1.0
 22
0.0
 32
0.0
 13
1.0
 23
0.0
 33
0.0
 40
0.0
 40
0.0
 40
0.0
 40
0.0
 40
1.0
 40
1.0
 40
1.0
 40
1.0
 10
74.49260725925983
 20
85.33577540952083
 30
0.0
 10
74.50303912284481
 20
85.42747112560963
 30
0.0
 10
74.51347305409175
 20
85.51917042635074
 30
0.0
 10
74.52390911354756
 20
85.61087341671282
 30
0.0
  0
SPLINE
  5
2AA
330
1F
100
AcDbEntity
  8
0
  6
Continuous
 62
     7
370
    15
100
AcDbSpline
210
0.0
220
0.0
230
1.0
 70
     8
 71
     3
 72
    10
 73
     6
 74
     0
 42
0.00000001
 43
0.00000001
 12
1.0
 22
0.0
 32
0.0
 13
1.0
 23
0.0
 33
0.0
 40
0.0
 40
0.0
 40
0.0
 40
0.0
 40
0.5
 40
0.5
 40
1.0
 40
1.0
 40
1.0
 40
1.0
 10
74.53810101170103
 20
86.44132612685864
 30
0.0
 10
74.56063294015136
 20
86.42923634619127
 30
0.0
 10
74.57044490262923
 20
86.33508386944546
 30
0.0
 10
74.56446309953918
 20
86.0326922205001
 30
0.0
 10
74.54906500383925
 20
85.83192144492082
 30
0.0
 10
74.52390911354756
 20
85.61087341671283
 30
0.0
  0
LINE
  5
2AB
330
1F
100
AcDbEntity
  8
0
  6
Continuous
 62
     7
370
    15
100
AcDbLine
 10
74.5251156553
 20
86.4482983189
 30
0.0
 11
74.5381010117
 21
86.4413261269
 31
0.0
  0
LINE
  5
2AC
330
1F
100
AcDbEntity
  8
0
  6
Continuous
 62
     7
370
    15
100
AcDbLine
 10
81.3292639346
 20
134.7629611681
 30
0.0
 11
81.3148598122
 21
134.7598383163
 31
0.0
  0
SPLINE
  5
2AD
330
1F
100
AcDbEntity
  8
0
  6
Continuous
 62
     7
370
    15
100
AcDbSpline
210
0.0
220
0.0
230
1.0
 70
     8
 71
     3
 72
    12
 73
     8
 74
     0
 42
0.00000001
 43
0.00000001
 12
1.0
 22
0.0
 32
0.0
 13
1.0
 23
0.0
 33
0.0
 40
0.0
 40
0.0
 40
0.0
 40
0.0
 40
0.2499999999999971
 40
0.2499999999999971
 40
0.4999999999999941
 40
0.4999999999999941
 40
1.0
 40
1.0
 40
1.0
 40
1.0
 10
81.54452559565557
 20
135.5651553659756
 30
0.0
 10
81.52614268207947
 20
135.4553917956933
 30
0.0
 10
81.50709301552389
 20
135.3526812030329
 30
0.0
 10
81.46766837575646
 20
135.1612792399381
 30
0.0
 10
81.44786798822057
 20
135.0755927413001
 30
0.0
 10
81.39011109593245
 20
134.8578151143358
 30
0.0
 10
81.35427015702757
 20
134.7683751629503
 30
0.0
 10
81.32926393458696
 20
134.7629611681388
 30
0.0
  0
SPLINE
  5
2AE
330
1F
100
AcDbEntity
  8
0
  6
Continuous
 62
     7
370
    15
100
AcDbSpline
210
0.0
220
0.0
230
1.0
 70
     8
 71
     3
 72
     8
 73
     4
 74
     0
 42
0.00000001
 43
0.00000001
 12
1.0
 22
0.0
 32
0.0
 13
1.0
 23
0.0
 33
0.0
 40
0.0
 40
0.0
 40
0.0
 40
0.0
 40
1.0
 40
1.0
 40
1.0
 40
1.0
 10
81.54452559565559
 20
135.5651553659756
 30
0.0
 10
82.1190022235634
 20
138.9953301019777
 30
0.0
 10
82.69483623649195
 20
142.4200512421275
 30
0.0
 10
83.27116151947628
 20
145.8427985956966
 30
0.0
  0
LINE
  5
2AF
330
1F
100
AcDbEntity
  8
0
  6
Continuous
 62
     7
370
    15
100
AcDbLine
 10
83.2711616131
 20
145.8427992405
 30
0.0
 11
84.4235976292
 21
148.9031811
 31
0.0
  0
LINE
  5
2B0
330
1F
100
AcDbEntity
  8
0
  6
Continuous
 62
     7
370
    15
100
AcDbLine
 10
84.3032337325
 20
137.6556374819
 30
0.0
 11
85.7034705878
 21
145.0025339366
 31
0.0
  0
ELLIPSE
  5
2B1
330
1F
100
AcDbEntity
  8
0
  6
Continuous
 62
     7
370
    15
100
AcDbEllipse
 10
198.607617278
 20
93.6425281232
 30
0.0
 11
134.2825547494898
 21
-18.87218233046251
 31
0.0
210
0.0
220
0.0
230
1.0
 40
0.5541767355
 41
2.513233481501484
 42
2.513858188321309
  0
ARC
  5
2B2
330
1F
100
AcDbEntity
  8
0
  6
Continuous
 62
     7
370
    15
100
AcDbCircle
 10
86.8309489051
 20
109.3517143966
 30
0.0
 40
27.00000000000001
100
AcDbArc
 50
243.5630660116
 51
0.0
  0
LINE
  5
2B3
330
1F
100
AcDbEntity
  8
0
  6
Continuous
 62
     7
370
    15
100
AcDbLine
 10
113.8309496055
 20
109.7311932174
 30
0.0
 11
113.8309496055
 21
109.3517143966
 31
0.0
  0
SPLINE
  5
2B4
330
1F
100
AcDbEntity
  8
0
  6
Continuous
 62
     7
370
    15
100
AcDbSpline
210
0.0
220
0.0
230
1.0
 70
     8
 71
     3
 72
    16
 73
    12
 74
     0
 42
0.00000001
 43
0.00000001
 12
1.0
 22
0.0
 32
0.0
 13
1.0
 23
0.0
 33
0.0
 40
0.0
 40
0.0
 40
0.0
 40
0.0
 40
0.2500000000000003
 40
0.2500000000000003
 40
0.5000000000000006
 40
0.5000000000000006
 40
0.7500000000000009
 40
0.7500000000000009
 40
0.8750000000000004
 40
0.8750000000000004
 40
1.0
 40
1.0
 40
1.0
 40
1.0
 10
81.31485981223999
 20
134.7598383162966
 30
0.0
 10
81.24525156657161
 20
134.744726406188
 30
0.0
 10
81.07452736219328
 20
134.7079751074304
 30
0.0
 10
80.53695427449537
 20
134.5799124655299
 30
0.0
 10
80.18376694837484
 20
134.4915994353715
 30
0.0
 10
79.32558654932991
 20
134.2488705321317
 30
0.0
 10
78.83963884053368
 20
134.0995181959004
 30
0.0
 10
78.04448161723968
 20
133.8236718164262
 30
0.0
 10
77.7712012613823
 20
133.7240172568594
 30
0.0
 10
77.21693381611567
 20
133.5107476543452
 30
0.0
 10
76.93488878163245
 20
133.3967726185981
 30
0.0
 10
76.64856811824234
 20
133.2749065228699
 30
0.0
  0
SPLINE
  5
2B5
330
1F
100
AcDbEntity
  8
0
  6
Continuous
 62
     7
370
    15
100
AcDbSpline
210
0.0
220
0.0
230
1.0
 70
     8
 71
     3
 72
    20
 73
    16
 74
     0
 42
0.00000001
 43
0.00000001
 12
1.0
 22
0.0
 32
0.0
 13
1.0
 23
0.0
 33
0.0
 40
0.0
 40
0.0
 40
0.0
 40
0.0
 40
0.249999999999999
 40
0.249999999999999
 40
0.3749999999999992
 40
0.3749999999999992
 40
0.4999999999999993
 40
0.4999999999999993
 40
0.6249999999999994
 40
0.6249999999999994
 40
0.7499999999999997
 40
0.7499999999999997
 40
0.8749999999999998
 40
0.8749999999999998
 40
1.0
 40
1.0
 40
1.0
 40
1.0
 10
70.44889086084402
 20
89.16191067702404
 30
0.0
 10
70.93247678748398
 20
88.76952782726255
 30
0.0
 10
71.40651164095846
 20
88.413723936712
 30
0.0
 10
72.09239403703066
 20
87.93085592279687
 30
0.0
 10
72.31694700376707
 20
87.77840415493682
 30
0.0
 10
72.7393624614819
 20
87.50014334376716
 30
0.0
 10
72.93931014550706
 20
87.37283791979526
 30
0.0
 10
73.31414813585299
 20
87.14034938734936
 30
0.0
 10
73.49054265627781
 20
87.034298296016
 30
0.0
 10
73.80606273133009
 20
86.84869592239149
 30
0.0
 10
73.94476613052744
 20
86.76930968156344
 30
0.0
 10
74.18307728210952
 20
86.63497931820996
 30
0.0
 10
74.28301087949914
 20
86.57986484481397
 30
0.0
 10
74.43880414759599
 20
86.49471045880078
 30
0.0
 10
74.49369979925726
 20
86.46517782212977
 30
0.0
 10
74.52511565525036
 20
86.4482983189176
 30
0.0
  0
ELLIPSE
  5
2B6
330
1F
100
AcDbEntity
  8
0
  6
Continuous
 62
     7
370
    15
100
AcDbEllipse
 10
71.464304388
 20
122.845424111
 30
0.0
 11
2.351434439160542
 21
3.183140960885169
 31
0.0
210
0.0
220
0.0
230
1.0
 40
0.6153106124
 41
0.0
 42
6.283185307179586
  0
ARC
  5
2B7
330
1F
100
AcDbEntity
  8
0
  6
Continuous
 62
     7
370
    15
100
AcDbCircle
 10
86.8309489051
 20
109.3517143966
 30
0.0
 40
26.0
100
AcDbArc
 50
113.0559627304
 51
230.9440372696
  0
SPLINE
  5
2B8
330
1F
100
AcDbEntity
  8
0
  6
Continuous
 62
     7
370
    15
100
AcDbSpline
210
0.0
220
0.0
230
1.0
 70
     8
 71
     3
 72
    12
 73
     8
 74
     0
 42
0.00000001
 43
0.00000001
 12
1.0
 22
0.0
 32
0.0
 13
1.0
 23
0.0
 33
0.0
 40
0.0
 40
0.0
 40
0.0
 40
0.0
 40
0.0379212121712781
 40
0.1473361512155606
 40
0.2570888004244644
 40
0.4447329606420869
 40
1.0
 40
1.0
 40
1.0
 40
1.0
 10
70.55266895985521
 20
119.3949862138499
 30
0.0
 10
70.54986448943393
 20
119.4166635369915
 30
0.0
 10
70.53896821649298
 20
119.5008869353866
 30
0.0
 10
70.5757852521629
 20
119.6254876702191
 30
0.0
 10
70.7010952133176
 20
119.7663019728
 30
0.0
 10
71.09440688418123
 20
119.8975668777302
 30
0.0
 10
71.41815804952348
 20
119.8521403159216
 30
0.0
 10
71.66013629829801
 20
119.8181875736583
 30
0.0
  0
LINE
  5
2B9
330
1F
100
AcDbEntity
  8
0
  6
Continuous
 62
     7
370
    15
100
AcDbLine
 10
81.5758672143
 20
135.7517142535
 30
0.0
 11
81.1705602864
 21
135.7517142535
 31
0.0
  0
SPLINE
  5
2BA
330
1F
100
AcDbEntity
  8
0
  6
Continuous
 62
     7
370
    15
100
AcDbSpline
210
0.0
220
0.0
230
1.0
 70
    24
 71
     3
 72
    10
 73
     6
 74
     0
 42
0.00000001
 43
0.00000001
 12
1.0
 22
0.0
 32
0.0
 13
1.0
 23
0.0
 33
0.0
 40
0.0
 40
0.0
 40
0.0
 40
0.0
 40
0.5
 40
0.5
 40
1.0
 40
1.0
 40
1.0
 40
1.0
 10
77.83094890510954
 20
79.79143699599014
 30
0.0
 10
77.83094890510954
 20
79.63154972779648
 30
0.0
 10
77.83094890510954
 20
79.4704224722819
 30
0.0
 10
77.83094890510954
 20
79.23632347392704
 30
0.0
 10
77.83094890510954
 20
79.16479670033583
 30
0.0
 10
77.83094890510954
 20
79.16479670033583
 30
0.0
  0
ARC
  5
2BB
330
1F
100
AcDbEntity
  8
0
  6
Continuous
 62
     7
370
    15
100
AcDbCircle
 10
86.8309489051
 20
109.3517143966
 30
0.0
 40
31.50000000000001
100
AcDbArc
 50
140.9381656697
 51
253.398450401
  0
SPLINE
  5
2BC
330
1F
100
AcDbEntity
  8
0
  6
Continuous
 62
     7
370
    15
100
AcDbSpline
210
0.0
220
0.0
230
1.0
 70
    24
 71
     3
 72
    12
 73
     8
 74
     0
 42
0.00000001
 43
0.00000001
 12
1.0
 22
0.0
 32
0.0
 13
1.0
 23
0.0
 33
0.0
 40
0.0
 40
0.0
 40
0.0
 40
0.0
 40
0.2499999999999993
 40
0.2499999999999993
 40
0.4999999999999987
 40
0.4999999999999987
 40
1.0
 40
1.0
 40
1.0
 40
1.0
 10
62.37225924274193
 20
129.201714396583
 30
0.0
 10
62.37225924274193
 20
129.201714396583
 30
0.0
 10
62.40008896304541
 20
129.201714396583
 30
0.0
 10
62.49523142430206
 20
129.201714396583
 30
0.0
 10
62.56165424060244
 20
129.201714396583
 30
0.0
 10
62.78585367212256
 20
129.201714396583
 30
0.0
 10
62.96984007466816
 20
129.201714396583
 30
0.0
 10
63.14999664385114
 20
129.201714396583
 30
0.0
  0
SPLINE
  5
2BD
330
1F
100
AcDbEntity
  8
0
  6
Continuous
 62
     7
370
    15
100
AcDbSpline
210
0.0
220
0.0
230
1.0
 70
    24
 71
     3
 72
    10
 73
     6
 74
     0
 42
0.00000001
 43
0.00000001
 12
1.0
 22
0.0
 32
0.0
 13
1.0
 23
0.0
 33
0.0
 40
0.0
 40
0.0
 40
0.0
 40
0.0
 40
0.5
 40
0.5
 40
1.0
 40
1.0
 40
1.0
 40
1.0
 10
78.83094890510952
 20
139.1981547203468
 30
0.0
 10
78.83094890510952
 20
139.3585599866977
 30
0.0
 10
78.83094890510952
 20
139.5176217996863
 30
0.0
 10
78.83094890510952
 20
139.7485342653166
 30
0.0
 10
78.83094890510952
 20
139.8189098697472
 30
0.0
 10
78.83094890510952
 20
139.8189098697472
 30
0.0
  0
SPLINE
  5
2BE
330
1F
100
AcDbEntity
  8
0
  6
Continuous
 62
     7
370
    15
100
AcDbSpline
210
0.0
220
0.0
230
1.0
 70
    24
 71
     3
 72
    12
 73
     8
 74
     0
 42
0.00000001
 43
0.00000001
 12
1.0
 22
0.0
 32
0.0
 13
1.0
 23
0.0
 33
0.0
 40
0.0
 40
0.0
 40
0.0
 40
0.0
 40
0.2500000000000013
 40
0.2500000000000013
 40
0.5000000000000027
 40
0.5000000000000027
 40
1.0
 40
1.0
 40
1.0
 40
1.0
 10
66.98094890510953
 20
133.8104040589504
 30
0.0
 10
66.98094890510953
 20
133.8104040589504
 30
0.0
 10
66.98094890510953
 20
133.7821843603625
 30
0.0
 10
66.98094890510951
 20
133.6877413531144
 30
0.0
 10
66.98094890510951
 20
133.6214543764091
 30
0.0
 10
66.98094890510953
 20
133.3958295531208
 30
0.0
 10
66.98094890510953
 20
133.2134032900883
 30
0.0
 10
66.98094890510953
 20
133.0326666578413
 30
0.0
  0
ARC
  5
2BF
330
1F
100
AcDbEntity
  8
0
  6
Continuous
 62
     7
370
    15
100
AcDbCircle
 10
86.8309489051
 20
109.3517143966
 30
0.0
 40
31.50000000000001
100
AcDbArc
 50
104.7124579609
 51
129.0618343303
  0
ARC
  5
2C0
330
1F
100
AcDbEntity
  8
0
  6
Continuous
 62
     7
370
    15
100
AcDbCircle
 10
86.8309489051
 20
109.3517143966
 30
0.0
 40
31.5
100
AcDbArc
 50
286.601549599
 51
31.0027191339
  0
SPLINE
  5
2C1
330
1F
100
AcDbEntity
  8
0
  6
Continuous
 62
     7
370
    15
100
AcDbSpline
210
0.0
220
0.0
230
1.0
 70
    24
 71
     3
 72
    12
 73
     8
 74
     0
 42
0.00000001
 43
0.00000001
 12
1.0
 22
0.0
 32
0.0
 13
1.0
 23
0.0
 33
0.0
 40
0.0
 40
0.0
 40
0.0
 40
0.0
 40
0.2500000000000019
 40
0.2500000000000019
 40
0.5000000000000039
 40
0.5000000000000039
 40
1.0
 40
1.0
 40
1.0
 40
1.0
 10
95.83094890510954
 20
79.16479670033583
 30
0.0
 10
95.83094890510954
 20
79.16479670033581
 30
0.0
 10
95.83094890510954
 20
79.18191378660167
 30
0.0
 10
95.83094890510954
 20
79.24664989807677
 30
0.0
 10
95.83094890510954
 20
79.29410714095711
 30
0.0
 10
95.83094890510954
 20
79.47093158349658
 30
0.0
 10
95.83094890510954
 20
79.6312080907023
 30
0.0
 10
95.83094890510954
 20
79.79143699599008
 30
0.0
  0
LINE
  5
2C2
330
1F
100
AcDbEntity
  8
0
  6
Continuous
 62
     7
370
    15
100
AcDbLine
 10
95.8309485177
 20
79.7914371581
 30
0.0
 11
95.8309485177
 21
82.9517145396
 31
0.0
  0
LINE
  5
2C3
330
1F
100
AcDbEntity
  8
0
  6
Continuous
 62
     7
370
    15
100
AcDbLine
 10
95.8309485177
 20
82.9517145396
 30
0.0
 11
92.4913375238
 21
82.9517145396
 31
0.0
  0
LINE
  5
2C4
330
1F
100
AcDbEntity
  8
0
  6
Continuous
 62
     7
370
    15
100
AcDbLine
 10
78.8309485251
 20
135.7517142535
 30
0.0
 11
78.8309485251
 21
139.1981553973
 31
0.0
  0
LINE
  5
2C5
330
1F
100
AcDbEntity
  8
0
  6
Continuous
 62
     7
370
    15
100
AcDbLine
 10
77.8309492925
 20
82.9517145396
 30
0.0
 11
77.8309492925
 21
79.7914371581
 31
0.0
  0
LINE
  5
2C6
330
1F
100
AcDbEntity
  8
0
  6
Continuous
 62
     7
370
    15
100
AcDbLine
 10
66.980948166
 20
133.0326658429
 30
0.0
 11
66.980948166
 21
129.2017151357
 31
0.0
  0
LINE
  5
2C7
330
1F
100
AcDbEntity
  8
0
  6
Continuous
 62
     7
370
    15
100
AcDbLine
 10
63.1499974588
 20
129.2017151357
 30
0.0
 11
66.980948166
 21
129.2017151357
 31
0.0
  0
LINE
  5
2C8
330
1F
100
AcDbEntity
  8
0
  6
Continuous
 62
     7
370
    15
100
AcDbLine
 10
81.1705602864
 20
135.7517142535
 30
0.0
 11
78.8309485251
 21
135.7517142535
 31
0.0
  0
LINE
  5
2C9
330
1F
100
AcDbEntity
  8
0
  6
Continuous
 62
     7
370
    15
100
AcDbLine
 10
81.1705602864
 20
82.9517145396
 30
0.0
 11
77.8309492925
 21
82.9517145396
 31
0.0
  0
SPLINE
  5
2CA
330
1F
100
AcDbEntity
  8
0
  6
Continuous
 62
     7
370
    15
100
AcDbSpline
210
0.0
220
0.0
230
1.0
 70
     8
 71
     3
 72
    30
 73
    26
 74
     0
 42
0.00000001
 43
0.00000001
 12
1.0
 22
0.0
 32
0.0
 13
1.0
 23
0.0
 33
0.0
 40
0.0
 40
0.0
 40
0.0
 40
0.0
 40
0.1249999999999998
 40
0.1249999999999998
 40
0.1874999999999997
 40
0.1874999999999997
 40
0.2499999999999997
 40
0.2499999999999997
 40
0.3749999999999994
 40
0.3749999999999994
 40
0.4374999999999994
 40
0.4374999999999994
 40
0.4999999999999993
 40
0.4999999999999993
 40
0.6249999999999992
 40
0.6249999999999992
 40
0.6874999999999992
 40
0.6874999999999992
 40
0.7499999999999992
 40
0.7499999999999992
 40
0.8124999999999993
 40
0.8124999999999993
 40
0.8749999999999993
 40
0.8749999999999993
 40
1.0
 40
1.0
 40
1.0
 40
1.0
 10
87.83094890510955
 20
77.86759141372063
 30
0.0
 10
88.36236683551013
 20
77.88447033172923
 30
0.0
 10
88.88402603308431
 20
77.91448789655395
 30
0.0
 10
89.65266782024334
 20
77.97729828582703
 30
0.0
 10
89.90655761940836
 20
78.00120219305394
 30
0.0
 10
90.40963039535444
 20
78.05463748549631
 30
0.0
 10
90.65909424357108
 20
78.08424435366389
 30
0.0
 10
91.38400514116795
 20
78.17869405237833
 30
0.0
 10
91.84188247806011
 20
78.24972144620753
 30
0.0
 10
92.49164970354298
 20
78.36373573291331
 30
0.0
 10
92.70303640695313
 20
78.40319098405388
 30
0.0
 10
93.10767021772328
 20
78.48271242682455
 30
0.0
 10
93.3004106892245
 20
78.52264856932533
 30
0.0
 10
93.85084156560144
 20
78.64158497215347
 30
0.0
 10
94.18102494288206
 20
78.71974973603734
 30
0.0
 10
94.61970075953249
 20
78.82945917630624
 30
0.0
 10
94.75549931801902
 20
78.86454001301463
 30
0.0
 10
95.00237635086519
 20
78.92978029239426
 30
0.0
 10
95.1141548881932
 20
78.960115108439
 30
0.0
 10
95.31458507806681
 20
79.01545348766082
 30
0.0
 10
95.40323742127032
 20
79.04045816422092
 30
0.0
 10
95.55690496895141
 20
79.08433797311163
 30
0.0
 10
95.62215267320326
 20
79.10328165787392
 30
0.0
 10
95.77845772656752
 20
79.14900138514409
 30
0.0
 10
95.83094890510954
 20
79.16479670033583
 30
0.0
 10
95.83094890510954
 20
79.16479670033583
 30
0.0
  0
SPLINE
  5
2CB
330
1F
100
AcDbEntity
  8
0
  6
Continuous
 62
     7
370
    15
100
AcDbSpline
210
0.0
220
0.0
230
1.0
 70
     8
 71
     3
 72
    28
 73
    24
 74
     0
 42
0.00000001
 43
0.00000001
 12
1.0
 22
0.0
 32
0.0
 13
1.0
 23
0.0
 33
0.0
 40
0.0
 40
0.0
 40
0.0
 40
0.0
 40
0.1249999999999999
 40
0.1249999999999999
 40
0.1874999999999997
 40
0.1874999999999997
 40
0.2499999999999994
 40
0.2499999999999994
 40
0.3749999999999992
 40
0.3749999999999992
 40
0.4374999999999993
 40
0.4374999999999993
 40
0.4999999999999993
 40
0.4999999999999993
 40
0.6249999999999994
 40
0.6249999999999994
 40
0.7499999999999997
 40
0.7499999999999997
 40
0.8124999999999998
 40
0.8124999999999998
 40
0.8749999999999999
 40
0.8749999999999999
 40
1.0
 40
1.0
 40
1.0
 40
1.0
 10
77.83094890510954
 20
79.16479670033583
 30
0.0
 10
77.83094890510954
 20
79.16479670033583
 30
0.0
 10
77.88342524742774
 20
79.14901198638559
 30
0.0
 10
78.03722219498464
 20
79.10401657230938
 30
0.0
 10
78.10109717001865
 20
79.08546157723366
 30
0.0
 10
78.25459343867517
 20
79.04160885478719
 30
0.0
 10
78.34440841406887
 20
79.01626424783498
 30
0.0
 10
78.64638720911975
 20
78.93286217008486
 30
0.0
 10
78.89234064317549
 20
78.86699661093377
 30
0.0
 10
79.32770782260387
 20
78.75802627044199
 30
0.0
 10
79.48492300477622
 20
78.71978663467533
 30
0.0
 10
79.81708762531866
 20
78.64202789725599
 30
0.0
 10
79.99189489092156
 20
78.60252693508063
 30
0.0
 10
80.54195408150738
 20
78.48361919271463
 30
0.0
 10
80.94257746590284
 20
78.40380151129001
 30
0.0
 10
81.81516357725157
 20
78.25045834949395
 30
0.0
 10
82.27529902485313
 20
78.1791245962247
 30
0.0
 10
82.99526511881932
 20
78.08518108915008
 30
0.0
 10
83.24053882885383
 20
78.05598729579015
 30
0.0
 10
83.74199516528267
 20
78.00252072152674
 30
0.0
 10
83.9994265346552
 20
77.97816138725157
 30
0.0
 10
84.77536633051969
 20
77.91457124180684
 30
0.0
 10
85.29959473042571
 20
77.88446830671755
 30
0.0
 10
85.83094890510954
 20
77.86759141372063
 30
0.0
  0
SPLINE
  5
2CC
330
1F
100
AcDbEntity
  8
0
  6
Continuous
 62
     7
370
    15
100
AcDbSpline
210
0.0
220
0.0
230
1.0
 70
     8
 71
     3
 72
    13
 73
     9
 74
     0
 42
0.00000001
 43
0.00000001
 12
1.0
 22
0.0
 32
0.0
 13
1.0
 23
0.0
 33
0.0
 40
0.0
 40
0.0
 40
0.0
 40
0.0
 40
0.1682063634580393
 40
0.3364287739718486
 40
0.5044647818154905
 40
0.6725225534901139
 40
0.8440263792704035
 40
1.0
 40
1.0
 40
1.0
 40
1.0
 10
78.83094852512993
 20
139.8189098329414
 30
0.0
 10
78.85257934315975
 20
139.8247321661044
 30
0.0
 10
78.89584304282113
 20
139.8363773878868
 30
0.0
 10
79.23271227382253
 20
139.9225135390594
 30
0.0
 10
79.76202413290477
 20
140.0507839267114
 30
0.0
 10
80.488878289699
 20
140.2097402377578
 30
0.0
 10
81.35777357131802
 20
140.3796991194664
 30
0.0
 10
82.0497261737115
 20
140.4842474884649
 30
0.0
 10
82.3792949849955
 20
140.5340426356663
 30
0.0
  0
SPLINE
  5
2CD
330
1F
100
AcDbEntity
  8
0
  6
Continuous
 62
     7
370
    15
100
AcDbSpline
210
0.0
220
0.0
230
1.0
 70
     8
 71
     3
 72
    20
 73
    16
 74
     0
 42
0.00000001
 43
0.00000001
 12
1.0
 22
0.0
 32
0.0
 13
1.0
 23
0.0
 33
0.0
 40
0.0
 40
0.0
 40
0.0
 40
0.0
 40
0.2499999999999994
 40
0.2499999999999994
 40
0.3749999999999994
 40
0.3749999999999994
 40
0.4999999999999996
 40
0.4999999999999996
 40
0.6249999999999996
 40
0.6249999999999996
 40
0.7499999999999997
 40
0.7499999999999997
 40
0.8749999999999999
 40
0.8749999999999999
 40
1.0
 40
1.0
 40
1.0
 40
1.0
 10
62.3722592427421
 20
129.201714396583
 30
0.0
 10
62.90291601057678
 20
129.8555768248804
 30
0.0
 10
63.43664400683829
 20
130.4593626068775
 30
0.0
 10
64.21961632482706
 20
131.2862013430461
 30
0.0
 10
64.47759992492374
 20
131.548629980999
 30
0.0
 10
64.98199518133154
 20
132.045292635104
 30
0.0
 10
65.22477360375956
 20
132.2758795141255
 30
0.0
 10
65.67545368327262
 20
132.6924337387082
 30
0.0
 10
65.8849175492639
 20
132.8799315406756
 30
0.0
 10
66.26320606585196
 20
133.2113285183121
 30
0.0
 10
66.42695375203643
 20
133.3508325058073
 30
0.0
 10
66.69513955423587
 20
133.5762860132783
 30
0.0
 10
66.8003639623226
 20
133.6629121248219
 30
0.0
 10
66.94442318763613
 20
133.780892913676
 30
0.0
 10
66.98094890510953
 20
133.8104040589504
 30
0.0
 10
66.98094890510953
 20
133.8104040589504
 30
0.0
  0
ARC
  5
2CE
330
1F
100
AcDbEntity
  8
0
  6
Continuous
 62
     7
370
    15
100
AcDbCircle
 10
86.8309489051
 20
109.3517143966
 30
0.0
 40
31.5
100
AcDbArc
 50
268.180780706
 51
271.819219294
  0
CIRCLE
  5
2CF
330
1F
100
AcDbEntity
  8
VERMASSUNG
  6
CENTERX2
100
AcDbCircle
 10
86.8309489051
 20
114.3096908072
 30
0.0
 40
39.99999999999999
  0
DIMENSION
  5
2D0
330
1F
100
AcDbEntity
  8
VERMASSUNG
100
AcDbDimension
  2
_D_5
 10
41.8690510949
 20
154.3096908072
 30
0.0
 11
41.8690510949
 21
114.3096908072
 31
0.0
 70
   160
  1
%%c<>
 71
     2
 42
-1.0
  3
SLDDIMSTYLE0
100
AcDbAlignedDimension
 13
86.8309489051
 23
74.3096908072
 33
0.0
 14
86.8309489051
 24
154.3096908072
 34
0.0
 50
90.0
100
AcDbRotatedDimension
  0
INSERT
  5
2E6
330
1F
100
AcDbEntity
  8
VERMASSUNG
100
AcDbBlockReference
  2
SW_CENTERMARKSYMBOL_0
 10
86.8309489051
 20
109.3517143966
 30
0.0
  0
OLE2FRAME
  5
2E7
330
1F
100
AcDbEntity
  8
0
100
AcDbOle2Frame
 70
     2
  3
Paintbrush-Bild
 10
13.8511154363
 20
38.264191557
 30
0.0
 11
51.6290888628
 21
31.9806341108
 31
0.0
 71
     2
 72
     0
 73
     1
 90
    12928
310
80552BED0767C5B32B40DDAF6807D121434000000000000000006FFBDDFB85D0
310
4940DDAF6807D121434000000000000000006FFBDDFB85D04940416F4BD60AFB
310
3F4000000000000000002BED0767C5B32B40416F4BD60AFB3F40000000000000
310
0000000000000100000000010000010000000100000000000100000000320000
310
D0CF11E0A1B11AE1000000000000000000000000000000003E000300FEFF0900
310
0600000000000000000000000100000001000000000000000010000002000000
310
01000000FEFFFFFF0000000000000000FFFFFFFFFFFFFFFFFFFFFFFFFFFFFFFF
310
FFFFFFFFFFFFFFFFFFFFFFFFFFFFFFFFFFFFFFFFFFFFFFFFFFFFFFFFFFFFFFFF
310
FFFFFFFFFFFFFFFFFFFFFFFFFFFFFFFFFFFFFFFFFFFFFFFFFFFFFFFFFFFFFFFF
310
FFFFFFFFFFFFFFFFFFFFFFFFFFFFFFFFFFFFFFFFFFFFFFFFFFFFFFFFFFFFFFFF
310
FFFFFFFFFFFFFFFFFFFFFFFFFFFFFFFFFFFFFFFFFFFFFFFFFFFFFFFFFFFFFFFF
310
FFFFFFFFFFFFFFFFFFFFFFFFFFFFFFFFFFFFFFFFFFFFFFFFFFFFFFFFFFFFFFFF
310
FFFFFFFFFFFFFFFFFFFFFFFFFFFFFFFFFFFFFFFFFFFFFFFFFFFFFFFFFFFFFFFF
310
FFFFFFFFFFFFFFFFFFFFFFFFFFFFFFFFFFFFFFFFFFFFFFFFFFFFFFFFFFFFFFFF
310
FFFFFFFFFFFFFFFFFFFFFFFFFFFFFFFFFFFFFFFFFFFFFFFFFFFFFFFFFFFFFFFF
310
FFFFFFFFFFFFFFFFFFFFFFFFFFFFFFFFFFFFFFFFFFFFFFFFFFFFFFFFFFFFFFFF
310
FFFFFFFFFFFFFFFFFFFFFFFFFFFFFFFFFFFFFFFFFFFFFFFFFFFFFFFFFFFFFFFF
310
FFFFFFFFFFFFFFFFFFFFFFFFFFFFFFFFFFFFFFFFFFFFFFFFFFFFFFFFFFFFFFFF
310
FFFFFFFFFFFFFFFFFFFFFFFFFFFFFFFFFFFFFFFFFFFFFFFFFFFFFFFFFFFFFFFF
310
FFFFFFFFFFFFFFFFFFFFFFFFFFFFFFFFFFFFFFFFFFFFFFFFFFFFFFFFFFFFFFFF
310
FDFFFFFFFEFFFFFFFEFFFFFFFEFFFFFF05000000060000000700000008000000
310
090000000A0000000B0000000C0000000D0000000E0000000F00000010000000
310
11000000120000001300000014000000150000001600000017000000FEFFFFFF
310
FFFFFFFFFFFFFFFFFFFFFFFFFFFFFFFFFFFFFFFFFFFFFFFFFFFFFFFFFFFFFFFF
310
FFFFFFFFFFFFFFFFFFFFFFFFFFFFFFFFFFFFFFFFFFFFFFFFFFFFFFFFFFFFFFFF
310
FFFFFFFFFFFFFFFFFFFFFFFFFFFFFFFFFFFFFFFFFFFFFFFFFFFFFFFFFFFFFFFF
310
FFFFFFFFFFFFFFFFFFFFFFFFFFFFFFFFFFFFFFFFFFFFFFFFFFFFFFFFFFFFFFFF
310
FFFFFFFFFFFFFFFFFFFFFFFFFFFFFFFFFFFFFFFFFFFFFFFFFFFFFFFFFFFFFFFF
310
FFFFFFFFFFFFFFFFFFFFFFFFFFFFFFFFFFFFFFFFFFFFFFFFFFFFFFFFFFFFFFFF
310
FFFFFFFFFFFFFFFFFFFFFFFFFFFFFFFFFFFFFFFFFFFFFFFFFFFFFFFFFFFFFFFF
310
FFFFFFFFFFFFFFFFFFFFFFFFFFFFFFFFFFFFFFFFFFFFFFFFFFFFFFFFFFFFFFFF
310
FFFFFFFFFFFFFFFFFFFFFFFFFFFFFFFFFFFFFFFFFFFFFFFFFFFFFFFFFFFFFFFF
310
FFFFFFFFFFFFFFFFFFFFFFFFFFFFFFFFFFFFFFFFFFFFFFFFFFFFFFFFFFFFFFFF
310
FFFFFFFFFFFFFFFFFFFFFFFFFFFFFFFFFFFFFFFFFFFFFFFFFFFFFFFFFFFFFFFF
310
FFFFFFFFFFFFFFFFFFFFFFFFFFFFFFFFFFFFFFFFFFFFFFFFFFFFFFFFFFFFFFFF
310
FFFFFFFFFFFFFFFFFFFFFFFFFFFFFFFFFFFFFFFFFFFFFFFFFFFFFFFFFFFFFFFF
310
52006F006F007400200045006E00740072007900000000000000000000000000
310
0000000000000000000000000000000000000000000000000000000000000000
310
16000500FFFFFFFFFFFFFFFF020000000A00030000000000C000000000000046
310
00000000000000000000000000F0CC88F022CD0103000000C000000000000000
310
01004F006C006500000000000000000000000000000000000000000000000000
310
0000000000000000000000000000000000000000000000000000000000000000
310
0A000200FFFFFFFFFFFFFFFFFFFFFFFF00000000000000000000000000000000
310
0000000000000000000000000000000000000000000000001400000000000000
310
010043006F006D0070004F0062006A0000000000000000000000000000000000
310
0000000000000000000000000000000000000000000000000000000000000000
310
120002010100000003000000FFFFFFFF00000000000000000000000000000000
310
0000000000000000000000000000000000000000010000004D00000000000000
310
01004F006C006500310030004E00610074006900760065000000000000000000
310
0000000000000000000000000000000000000000000000000000000000000000
310
1A000200FFFFFFFFFFFFFFFFFFFFFFFF00000000000000000000000000000000
310
0000000000000000000000000000000000000000040000002426000000000000
310
FEFFFFFF02000000FEFFFFFFFFFFFFFFFFFFFFFFFFFFFFFFFFFFFFFFFFFFFFFF
310
FFFFFFFFFFFFFFFFFFFFFFFFFFFFFFFFFFFFFFFFFFFFFFFFFFFFFFFFFFFFFFFF
310
FFFFFFFFFFFFFFFFFFFFFFFFFFFFFFFFFFFFFFFFFFFFFFFFFFFFFFFFFFFFFFFF
310
FFFFFFFFFFFFFFFFFFFFFFFFFFFFFFFFFFFFFFFFFFFFFFFFFFFFFFFFFFFFFFFF
310
FFFFFFFFFFFFFFFFFFFFFFFFFFFFFFFFFFFFFFFFFFFFFFFFFFFFFFFFFFFFFFFF
310
FFFFFFFFFFFFFFFFFFFFFFFFFFFFFFFFFFFFFFFFFFFFFFFFFFFFFFFFFFFFFFFF
310
FFFFFFFFFFFFFFFFFFFFFFFFFFFFFFFFFFFFFFFFFFFFFFFFFFFFFFFFFFFFFFFF
310
FFFFFFFFFFFFFFFFFFFFFFFFFFFFFFFFFFFFFFFFFFFFFFFFFFFFFFFFFFFFFFFF
310
FFFFFFFFFFFFFFFFFFFFFFFFFFFFFFFFFFFFFFFFFFFFFFFFFFFFFFFFFFFFFFFF
310
FFFFFFFFFFFFFFFFFFFFFFFFFFFFFFFFFFFFFFFFFFFFFFFFFFFFFFFFFFFFFFFF
310
FFFFFFFFFFFFFFFFFFFFFFFFFFFFFFFFFFFFFFFFFFFFFFFFFFFFFFFFFFFFFFFF
310
FFFFFFFFFFFFFFFFFFFFFFFFFFFFFFFFFFFFFFFFFFFFFFFFFFFFFFFFFFFFFFFF
310
FFFFFFFFFFFFFFFFFFFFFFFFFFFFFFFFFFFFFFFFFFFFFFFFFFFFFFFFFFFFFFFF
310
FFFFFFFFFFFFFFFFFFFFFFFFFFFFFFFFFFFFFFFFFFFFFFFFFFFFFFFFFFFFFFFF
310
FFFFFFFFFFFFFFFFFFFFFFFFFFFFFFFFFFFFFFFFFFFFFFFFFFFFFFFFFFFFFFFF
310
FFFFFFFFFFFFFFFFFFFFFFFFFFFFFFFFFFFFFFFFFFFFFFFFFFFFFFFFFFFFFFFF
310
0100000200000000000000000000000000000000000000000000000000000000
310
0000000000000000000000000000000000000000000000000000000000000000
310
0100FEFF030A0000FFFFFFFF0A00030000000000C00000000000004607000000
310
5042727573680007000000504272757368000700000050427275736800F439B2
310
7100000000000000000000000000000000000000000000000000000000000000
310
0000000000000000000000000000000000000000000000000000000000000000
310
0000000000000000000000000000000000000000000000000000000000000000
310
0000000000000000000000000000000000000000000000000000000000000000
310
0000000000000000000000000000000000000000000000000000000000000000
310
0000000000000000000000000000000000000000000000000000000000000000
310
0000000000000000000000000000000000000000000000000000000000000000
310
0000000000000000000000000000000000000000000000000000000000000000
310
0000000000000000000000000000000000000000000000000000000000000000
310
0000000000000000000000000000000000000000000000000000000000000000
310
0000000000000000000000000000000000000000000000000000000000000000
310
0000000000000000000000000000000000000000000000000000000000000000
310
20260000424D0E260000000000003E00000028000000B40200006E0000000100
310
01000000000000000000130B0000130B00000200000002000000000000FFFFFF
310
FFFFFFFFFFFFFFFFFFFFFFFFFFFFFFFFFFFFFFFFFFFFFFFFFFFFFFFFFFFFFFFF
310
FFFFFFFFFFFFFFFFFFFFFFFFFFFFFFFFFFFFFFFFFFFFFFFFFFFFFFFFFFFFFFFF
310
FFFFFFFFFFFFFFFFFFFFFFFFFFFFFFFFFFFFFFFFFFFFFFFFF000FFFFFFFFFFFF
310
FFFFFFFFFFFFFFFFFFFFFFFFFFFFFFFFFFFFFFFFFFFFFFFFFFFFFFFFFFFFFFFF
310
FFFFFFFFFFFFFFFFFFFFFFFFFFFFFFFFFFFFFFFFFFFFFFFFFFFFFFFFFFFFFFFF
310
FFFFFFFFFFFFFFFFFFFFFFFFFFFFFFFFF000FFFFFFFFFFFFFFFFFFFFFFFFFFFF
310
FFFFFFFFFFFFFFFFFFFFFFFFFFFFFFFFFFFFFFFFFFFFFFFFFFFFFFFFFFFFFFFF
310
FFFFFFFFFFFFFFFFFFFFFFFFFFFFFFFFFFFFFFFFFFFFFFFFFFFFFFFFFFFFFFFF
310
FFFFFFFFFFFFFFFFF000FFFFFFFFFFFFFFFFFFFFFFFFFFFFFFFFFFFFFFFFFFFF
310
FFFFFFFFFFFFFFFFFFFFFFFFFFFFFFFFFFFFFFFFFFFFFFFFFFFFFFFFFFFFFFFF
310
FFFFFFFFFFFFFFFFFFFFFFFFFFFFFFFFFFFFFFFFFFFFFFFFFFFFFFFFFFFFFFFF
310
F000FFFFFFFFFFFFFFFFFFFFFFFFFFFFFFFFFFFFFFFFFFFFFFFFFFFFFFFFFFFF
310
FFFFFFFFFFFFFFFFFFFFFFFFFFFFFFFFFFFFFFFFFFFFFFFFFFFFFFFFFFFFFFFF
310
FFFFFFFFFFFFFFFFFFFFFFFFFFFFFFFFFFFFFFFFFFFFFFFFF000FFFFFFFFFFFF
310
FFFFFFFFFFFFFFFFFFFFFFFFFFFFFFFFFFFFFFFFFFFFFFFFFFFFFFFFFFFFFFFF
310
FFFFFFFFFFFFFFFFFFFFFFFFFFFFFFFFFFFFFFFFFFFFFFFFFFFFFFFFFFFFFFFF
310
FFFFFFFFFFFFFFFFFFFFFFFFFFFFFFFFF000FFFFFFFFFFFFFFFFFFFFFFFFFFFF
310
FFFFFFFFFFFFFFFFFFFFFFFFFFFFFFFFFFFFFFFFFFFFFFFFFFFFFFFFFFFFFFFF
310
FFFFFFFFFFFFFFFFFFFFFFFFFFFFFFFFFFFFFFFFFFFFFFFFFFFFFFFFFFFFFFFF
310
FFFFFFFFFFFFFFFFF000FFFFFFFFFFFFFFFFFFFFFFFFFFFFFFFFFFFFFFFFFFFF
310
FFFFFFFFFFFFFFFFFFFFFFFFFFFFFFFFFFFFFFFFFFFFFFFFFFFFFFFFFFFFFFFF
310
FFFFFFFFFFFFFFFFFFFFFFFFFFFFFFFFFFFFFFFFFFFFFFFFFFFFFFFFFFFFFFFF
310
F000FFFFFFFFFFFFFFFFFFFFFFFFFFFFFFFFFFFFFFFFFFFFFFFFFFFFFFFFFFFF
310
FFFFFFFFFFFFFFFFFFFFFFFFFFFFFFFFFFFFFFFFFFFFFFFFFFFFFFFFFFFFFFFF
310
FFFFFFFFFFFFFFFFFFFFFFFFFFFFFFFFFFFFFFFFFFFFFFFFF000FFFFFFFFFFFF
310
FFFFFFFFFFFFFFFFFFFFFFFFFFFFFFFFFFFFFFFFFFFFFFFFFFFFFFFFFFFFFFFF
310
FFFFFFFFFFFFFFFFFFFFFFFFFFFFFFFFFFFFFFFFFFFFFFFFFFFFFFFFFFFFFFFF
310
FFFFFFFFFFFFFFFFFFFFFFFFFFFFFFFFF000FFFFFFFFFFFFFFFFFFFFFFFFFFFF
310
FFFFFFFFFFFFFFFFFFFFFFFFFFFFFFFFFFFFFFFFFFFFFFFFFFFFFFFFFFFFFFFF
310
FFFFFFFFFFFFFFFFFFFFFFFFFFFFFFFFFFFFFFFFFFFFFFFFFFFFFFFFFFFFFFFF
310
FFFFFFFFFFFFFFFFF000FFFFFFFFFFFFFFFFFFFFFFFFFFFFFFFFFFFFFFFFFFFF
310
FFFFFFFFFFFFFFFFFFFFFFFFFFFFFFFFFFFFFFFFFFFFFFFFFFFFFFFFFFFFFFFF
310
FFFFFFFFFFFFFFFFFFFFFFFFFFFFFFFFFFFFFFFFFFFFFFFFFFFFFFFFFFFFFFFF
310
F000FFFFFFFFFFFFFFFFFFFFFFFFFFFFFFFFFFFFFFFFFFFFFFFFFFFFFFFFFFFF
310
FFFFFFFFFFFFFFFFFFFFFFFFFFFFFFFFFFFFFFFFFFFFFFFFFFFFFFFFFFFFFFFF
310
FFFFFFFFFFFFFFFFFFFFFFFFFFFFFFFFFFFFFFFFFFFFFFFFF000FFFFFFFFFFFF
310
FFFFFFFFFFFFFFFFFFFFFFFFFFFFFFFFFFFFFFFFFFFFFFFFFFFFFFFFFFFFFFFF
310
FFFFFFFFFFFFFFFFFFFFFFFFFFFFFFFFFFFFFFFFFFFFFFFFFFFFFFFFFFFFFFFF
310
FFFFFFFFFFFFFFFFFFFFFFFFFFFFFFFFF000FFFFFFFFFFFFFFFFFFFFFFFFFFFF
310
FFFFFFFFFFFFFFFFFFFFFFFFFFFFFFFFFFFFFFFFFFFFFFFFFFFFFFFFFFFFFFFF
310
FFFFFFFFFFFFFFFFFFFFFFFFFFFFFFFFFFFFFFFFFFFFFFFFFFFFFFFFFFFFFFFF
310
FFFFFFFFFFFFFFFFF000FFFFFFFFFFFFFFFFFFFFFFFFFFFFFFFFFFFFFFFFFFFF
310
FFFFFFFFFFFFFFFFFFFFFFFFFFFFFFFFFFFFFFFFFFFFFFFFFFFFFFFFFFFFFFFF
310
FFFFFFFFFFFFFFFFFFFFFFFFFFFFFFFFFFFFFFFFFFFFFFFFFFFFFFFFFFFFFFFF
310
F000FFFFFFFFFFFFFFFFFFFFFFFFFFFFFFFFFFFFFFFFFFFFFFFFFFFFFFFFFFFF
310
FFFFFFFFFFFFFFFFFFFFFFFFFFFFFFFFFFFFFFFFFFFFFFFFFFFFFFFFFFFFFFFF
310
FFFFFFFFFFFFFFFFFFFFFFFFFFFFFFFFFFFFFFFFFFFFFFFFF000FFFFFFFFFFFF
310
FFFFFFFFFFFFFFFFFFFFFFFFFFFFFFFFFFFFFFFFFFFFFFFFFFFFFFFFFFFFFFFF
310
FFFFFFFFFFFFFFFFFFFFFFFFFFFFFFFFFFFFFFFFFFFFFFFFFFFFFFFFFFFFFFFF
310
FFFFFFFFFFFFFFFFFFFFFFFFFFFFFFFFF000FFFFFFFFFFFFFFFFFFFFFFFFFFFF
310
FFFFFFFFFFFFFFFFFFFFFFFFFFFFFFFFFFFFFFFFFFFFFFFFFFFFFFFFFFFFFFFF
310
FFFFFFFFFFFFFFFFFFFFFFFFFFFFFFFFFFFFFFFFFFFFFFFFFFFFFFFFFFFFFFFF
310
FFFFFFFFFFFFFFFFF000FFFFF80003FFFFFFFFFFFFFFFFFFFFFFFFFFFFFFFFFF
310
FFFFF00007FFFFFFFFFF00007FFFFFF800000000000000007FFFFFFFFFFFFFFF
310
FFFFFFFC001FFFFFFFFFFFFFFC001FFFFFFFFFFFFFFFFFFFFFFFFFFE0007FFFF
310
F000FFFF8000007FFFFFFFF8000FFFFFC0007FFFFF80007FFFFF0000007FFFFF
310
FFF8000007FFFFF800000000000000007FFFFFF0001FFFFFFFFFFFC00001FFFF
310
FFFFFFFFC00001FFFFFFFF000000000003FFFFE000007FFFF000FFFE0000000F
310
FFFFFFF0000FFFFF80007FFFFF80007FFFFC0000001FFFFFFFC0000001FFFFF8
310
00000000000000007FFFFFF0001FFFFFFFFFFE0000003FFFFFFFFFFE0000003F
310
FFFFFF000000000003FFFF0000000FFFF000FFF800000003FFFFFFF00007FFFF
310
80007FFFFF80007FFFF000000007FFFFFF000000003FFFF80000000000000000
310
7FFFFFF0001FFFFFFFFFF80000000FFFFFFFFFF80000000FFFFFFF0000000000
310
03FFFC00000003FFF000FFE000000000FFFFFFF00007FFFF80003FFFFF80007F
310
FFC000000001FFFFFC000000001FFFF800000000000000007FFFFFF0001FFFFF
310
FFFFE000000003FFFFFFFFE000000003FFFFFF000000000003FFF000000000FF
310
F000FF80000000007FFFFFF00007FFFF80003FFFFF80007FFF8000000000FFFF
310
F80000000007FFF800000000000000007FFFFFF0001FFFFFFFFFC000000001FF
310
FFFFFFC000000001FFFFFF000000000003FFC0000000007FF000FF0000000000
310
3FFFFFE00007FFFF00003FFFFF80007FFE00000000003FFFF00000000003FFF8
310
00000000000000007FFFFFF0001FFFFFFFFF8000000000FFFFFFFF8000000000
310
FFFFFF000000000003FF80000000003FF000FE00000000001FFFFFE00003FFFF
310
00003FFFFF80007FFC00000000001FFFE00000000001FFF8000001FFFE000000
310
7FFFFFF0001FFFFFFFFE00000000003FFFFFFE00000000003FFFFF0000000000
310
03FF00000000001FF000FC00000000000FFFFFE00003FFFF00001FFFFF80007F
310
F800000000001FFFC00000000000FFF8000001FFFE0000007FFFFFF0001FFFFF
310
FFFC00000000001FFFFFFC00000000001FFFFF000000000003FE00000000000F
310
F000F8000000000007FFFFE00003FFFF00001FFFFF80007FF800000000000FFF
310
800000000000FFF8000001FFFE0000007FFFFFF0001FFFFFFFF800000000000F
310
FFFFF800000000000FFFFF000000000003FC000000000007F000F80000000000
310
03FFFFC00003FFFE00001FFFFF80007FF0000000000007FF0000000000007FF8
310
000001FFFE0000007FFFFFF0001FFFFFFFF0000000000007FFFFF00000000000
310
07FFFF000000000003F8000000000003F000F0000000000003FFFFC00001FFFE
310
00001FFFFF80007FE0000000000007FE0000000000003FF8000001FFFE000000
310
7FFFFFF0001FFFFFFFF0000000000007FFFFF0000000000007FFFF0000000000
310
03F800001F800003F000E00001FFF00001FFFFC00001FFFE00000FFFFF80007F
310
E00001FFE00003FE00001FFF00003FF8000001FFFE0000007FFFFFF0001FFFFF
310
FFE000003E000003FFFFE000003E000003FFFF000000000003F00001FFF80001
310
F000E00007FFFC0001FFFFC00001FFFE00000FFFFF80007FC0000FFFFC0003FC
310
0000FFFFC0001FF8000001FFFE0000007FFFFFF0001FFFFFFFC00003FFE00001
310
FFFFC00003FFE00001FFFF0001FFFFFFFFF00007FFFE0001F000E0000FFFFF00
310
00FFFF800001FFFC00000FFFFF80007FC0001FFFFE0001FC0001FFFFE0001FF8
310
000001FFFE0000007FFFFFF0001FFFFFFF80000FFFF80000FFFF80000FFFF800
310
00FFFF0003FFFFFFFFE0000FFFFF8000F000C0003FFFFF8000FFFF800000FFFC
310
000007FFFF80007F80003FFFFF0001FC0003FFFFF0001FF8000001FFFE000000
310
7FFFFFF0001FFFFFFF80003FFFFE0000FFFF80003FFFFE0000FFFF0003FFFFFF
310
FFE0003FFFFF8000F000C0003FFFFF8000FFFF800000FFFC000007FFFF80007F
310
80007FFFFF8001F80007FFFFF8000FF8000001FFFE0000007FFFFFF0001FFFFF
310
FF00007FFFFF00007FFF00007FFFFF00007FFF0003FFFFFFFFE0003FFFFFC000
310
F000C0007FFFFFC000FFFF000000FFFC000007FFFF80007F8000FFFFFF8000F8
310
000FFFFFF8000FF8000001FFFE0000007FFFFFF0001FFFFFFF0000FFFFFF8000
310
7FFF0000FFFFFF80007FFF0003FFFFFFFFC0007FFFFFC00070008000FFFFFFC0
310
00FFFF000000FFF8000007FFFF80007F8000FFFFFF8000F8000FFFFFF8000FF8
310
000001FFFE0000007FFFFFF0001FFFFFFE0001FFFFFFC0003FFE0001FFFFFFC0
310
003FFF0003FFFFFFFFC0007FFFFFE00070008000FFFFFFC0007FFF0000007FF8
310
000003FFFF80007F0001FFFFFF8000F8000FFFFFF8000FF8000001FFFE000000
310
7FFFFFF0001FFFFFFE0001FFFFFFC0003FFE0001FFFFFFC0003FFF0003FFFFFF
310
FFC000FFFFFFE00070008000FFFFFFC0007FFF0000007FF8000003FFFF80007F
310
0001FFFFFF8000F8001FFFFFF8000FF8000001FFFE0000007FFFFFF0001FFFFF
310
FE0003FFFFFFE0003FFE0003FFFFFFE0003FFF0003FFFFFFFFC000FFFFFFE000
310
70008000FFFFFFC0007FFE0000007FF8000003FFFF80007F0001FFFFFF8000F0
310
001FFFFFF8000FF8000001FFFE0000007FFFFFF0001FFFFFFC0003FFFFFFE000
310
1FFC0003FFFFFFE0001FFF0003FFFFFFFFC000FFFFFFC00070008000FFFFFF80
310
007FFE0000007FF0000003FFFF80007F0001FFFFFF0000F0001FFFFFF8000FF8
310
000001FFFE0000007FFFFFF0001FFFFFFC0007FFFFFFF0001FFC0007FFFFFFF0
310
001FFF0003FFFFFFFFC000FFFFFFC00070008001FFFFFF0000FFFE0000003FF0
310
000001FFFF80007F0001FFFFFF0000F8001FFFFFF0000FF8000001FFFE000000
310
7FFFFFF0001FFFFFFC0007FFFFFFF0001FFC0007FFFFFFF0001FFF0003FFFFFF
310
FFC001FFFFFF80007000FFFFFFFFFE0000FFFE0008003FF0008001FFFF80007F
310
FFFFFFFFFC0000FFFFFFFFFFE0000FF8000001FFFE0000007FFFFFF0001FFFFF
310
F8000FFFFFFFF8000FF8000FFFFFFFF8000FFF0003FFFFFFFFFFFFFFFFFF0000
310
7000FFFFFFFFFC0000FFFC0008003FF0008001FFFF80007FFFFFFFFFF80001FF
310
FFFFFFFF80000FF8000001FFFE0000007FFFFFF0001FFFFFF8000FFFFFFFF800
310
0FF8000FFFFFFFF8000FFF0003FFFFFFFFFFFFFFFFFE0000F000FFFFFFFFE000
310
00FFFC000C003FE000C001FFFF80007FFFFFFFFFC00001FFFFFFFFFE00001FF8
310
000001FFFE0000007FFFFFF0001FFFFFF8000FFFFFFFF8000FF8000FFFFFFFF8
310
000FFF0003FFFFFFFFFFFFFFFFF00000F000FFFFFFFE000001FFFC000C001FE0
310
00C000FFFF80007FFFFFFFFE000001FFFFFFFFE000001FF80FFFFFFFFFFFFFC0
310
7FFFFFF0001FFFFFF8000FFFFFFFF8000FF8000FFFFFFFF8000FFF0003FFFFFF
310
FFFFFFFFFF800000F000FFFFFFC0000001FFFC001C001FE001C000FFFF80007F
310
FFFFFF80000003FFFFFFF80000001FF80FFFFFFFFFFFFFC07FFFFFF0001FFFFF
310
F8001FFFFFFFFC000FF8001FFFFFFFFC000FFF0003FFFFFFFFFFFFFFF0000001
310
F000FFFFF800000001FFF8001C001FE001C000FFFF80007FFFFFF800000003FF
310
FFFF800000003FF80FFFFFFFFFFFFFC07FFFFFF0001FFFFFF8001FFFFFFFFC00
310
0FF8001FFFFFFFFC000FFF0003FFFFFFFFFFFFFE00000001F000FFFFC0000000
310
03FFF8001E001FC001E000FFFF80007FFFFF8000000007FFFFFC000000003FF8
310
0FFFFFFFFFFFFFC07FFFFFF0001FFFFFF8001FFFFFFFFC000FF8001FFFFFFFFC
310
000FFF0003FFFFFFFFFFFFE000000003F000FFFE0000000007FFF8001E000FC0
310
01E0007FFF80007FFFFE0000000007FFFFE0000000007FF80FFFFFFFFFFFFFC0
310
7FFFFFF0001FFFFFF0001FFFFFFFFC0007F0001FFFFFFFFC0007FF0003FFFFFF
310
FFFFFF0000000003F000FFF80000000007FFF8001E000FC003E0007FFF80007F
310
FFF0000000000FFFFF8000000000FFF80FFFFFFFFFFFFFC07FFFFFF0001FFFFF
310
F0001FFFFFFFFC0007F0001FFFFFFFFC0007FF0003FFFFFFFFFFFC0000000007
310
F000FFE0000000000FFFF0003E000FC003E0007FFF80007FFFC0000000001FFF
310
FE0000000001FFF80FFFFFFFFFFFFFC07FFFFFF0001FFFFFF0001FFFFFFFFC00
310
07F0001FFFFFFFFC0007FF0003FFFFFFFFFFF0000000000FF000FFC000000000
310
1FFFF0003F000F8003F0003FFF80007FFF80000000003FFFF80000000003FFF8
310
0FFFFFFFFFFFFFC07FFFFFF0001FFFFFF0001FFFFFFFFC0007F0001FFFFFFFFC
310
0007FF0003FFFFFFFFFFE0000000001FF000FF00000000007FFFF0003F000780
310
03F0003FFF80007FFF00000000007FFFF00000000007FFF80FFFFFFFFFFFFFC0
310
7FFFFFF0001FFFFFF0001FFFFFFFFC0007F0001FFFFFFFFC0007FF0003FFFFFF
310
FFFF80000000007FF000FE0000000000FFFFE0003F00078007F0003FFF80007F
310
FE0000000001FFFFE0000000001FFFF80FFFFFFFFFFFFFC07FFFFFF0001FFFFF
310
F0001FFFFFFFFC0007F0001FFFFFFFFC0007FF0003FFFFFFFFFF0000000000FF
310
F000FC0000000003FFFFE0007F00078007F0003FFF80007FFC0000000007FFFF
310
C0000000007FFFF80FFFFFFFFFFFFFC07FFFFFF0001FFFFFF8001FFFFFFFFC00
310
0FF8001FFFFFFFFC000FFF0003FFFFFFFFFE0000000003FFF000FC000000000F
310
FFFFE0007F80070007F8001FFF80007FF8000000001FFFFF8000000001FFFFF8
310
0FFFFFFFFFFFFFC07FFFFFF0001FFFFFF8001FFFFFFFFC000FF8001FFFFFFFFC
310
000FFF0003FFFFFFFFFC000000000FFFF000F8000000007FFFFFE0007F800700
310
07F8001FFF80007FF000000000FFFFFF800000000FFFFFF80FFFFFFFFFFFFFC0
310
7FFFFFF0001FFFFFF8000FFFFFFFF8000FF8000FFFFFFFF8000FFF0003FFFFFF
310
FFFC000000007FFFF000F800000007FFFFFFC0007F8003000FF8001FFF80007F
310
F000000007FFFFFF000000007FFFFFF80FFFFFFFFFFFFFC07FFFFFF0001FFFFF
310
F8000FFFFFFFF8000FF8000FFFFFFFF8000FFF0003FFFFFFFFF80000000FFFFF
310
F000F0000000FFFFFFFFC000FF8003000FF8001FFF80007FE0000000FFFFFFFF
310
0000000FFFFFFFF8000001FFFE0000007FFFFFF0001FFFFFF8000FFFFFFFF800
310
0FF8000FFFFFFFF8000FFF0003FFFFFFFFF8000000FFFFFFF000F000000FFFFF
310
FFFFC000FFC002000FF8000FFF80007FE000001FFFFFFFFE000001FFFFFFFFF8
310
000001FFFE0000007FFFFFF0001FFFFFF8000FFFFFFFF8000FF8000FFFFFFFF8
310
000FFF0003FFFFFFFFF000001FFFFFFFF000E00000FFFFFFFFFFC000FFC00200
310
0FFC000FFF80007FE00001FFFFFFFFFE00001FFFFFFFFFF8000001FFFE000000
310
7FFFFFF0001FFFFFFC000FFFFFFFF8001FFC000FFFFFFFF8001FFF0003FFFFFF
310
FFF00001FFFFFFFFF000E00007FFFFFFFFFF8000FFC000001FFC000FFF80007F
310
C0000FFFFFFFFFFE0000FFFFFFFFFFF8000001FFFE0000007FFFFFF0001FFFFF
310
FC0007FFFFFFF0001FFC0007FFFFFFF0001FFF0003FFFFFFFFF00007FFFFFFFF
310
F000E0001FFFFFFFFFFF8000FFC000001FFC000FFF80007FC0003FFFFFFFFFFE
310
0001FFFFFFFFFFF8000001FFFE0000007FFFFFF0001FFFFFFC0007FFFFFFF000
310
1FFC0007FFFFFFF0001FFF0003FFFFFFFFF0001FFFFFFFFFF000E0003FFFFF00
310
03FF8001FFE000001FFC0007FF80007FC0007FFFFF0007FC0003FFFFF0003FF8
310
000001FFFE0000007FFFFFF0001FFFFFFC0003FFFFFFE0001FFC0003FFFFFFE0
310
001FFF0003FFFFFFFFF0003FFFFFFFFFF000E0003FFFFF0001FF8001FFE00000
310
1FFE0007FF80007FC0007FFFFE0003FC0007FFFFE0003FF8000001FFFE000000
310
7FFFFFF0001FFFFFFE0003FFFFFFE0003FFE0003FFFFFFE0003FFF0003FFFFFF
310
FFF0003FFFFF8001F000E0003FFFFF0001FF0001FFE000001FFE0007FF80007F
310
C0007FFFFE0003FC0007FFFFE0003FF8000001FFFE0000007FFFFFF0001FFFFF
310
FE0001FFFFFFC0003FFE0001FFFFFFC0003FFF0003FFFFFFFFF0003FFFFF0001
310
F000E0003FFFFF0003FF0001FFE000003FFE0007FF80007FC0007FFFFE0003FC
310
0007FFFFE0003FF8000001FFFE0000007FFFFFF0001FFFFFFF0001FFFFFFC000
310
7FFF0001FFFFFFC0007FFF0003FFFFFFFFF0003FFFFF0001F000E0003FFFFE00
310
03FF0003FFF000003FFE0003FF80007FC0007FFFFC0003FE0007FFFFE0003FF8
310
000001FFFE0000007FFFFFF0001FFFFFFF0000FFFFFF80007FFF0000FFFFFF80
310
007FFF0003FFFFFFFFF0003FFFFF0001F000E0003FFFFE0003FF0003FFF00000
310
3FFF0003FF80007FC0007FFFFC0007FE0007FFFFC0003FF8000001FFFE000000
310
7FFFFFF0001FFFFFFF80007FFFFF0000FFFF80007FFFFF0000FFFF0003FFFFFF
310
FFF0003FFFFF0003F000E0003FFFFC0003FE0003FFF000003FFF0003FF80007F
310
E0003FFFF80007FE0003FFFFC0007FF8000001FFFE0000007FFFFFF0001FFFFF
310
FF80003FFFFE0000FFFF80003FFFFE0000FFFF0003FFFFFFFFF0001FFFFE0003
310
F000F0001FFFF80003FE0003FFF000007FFF0001FF80007FE0003FFFF00007FE
310
0001FFFF80007FF8000001FFFE0000007FFFFFF0001FFFFFFFC0000FFFF80001
310
FFFFC0000FFFF80001FFFF0003FFFFFFFFF0001FFFFC0003F000F0000FFFF000
310
07FE0007FFF800007FFF0001FF80007FE0001FFFE00007FF0000FFFE00007FF8
310
000001FFFE0000007FFFFFF0001FFFFFFFC00003FFE00001FFFFC00003FFE000
310
01FFFF0003FFFFFFFFF8000FFFF80003F000F00003FFC00007FC0007FFF80000
310
7FFF8001FF80007FF00007FF80000FFF00007FF80000FFF8000001FFFE000000
310
7F80000000000001FFE000003E000003FFFFE000003E000003FFFF0003FFFFFF
310
FFF80003FFE00007F000F800000000000FFC0007FFF800007FFF8001FF80007F
310
F000000000000FFF000000000000FFF8000001FFFE0000007F80000000000001
310
FFF0000000000007FFFFF0000000000007FFFF0003FFFFFFFFFC00007E000007
310
F000F800000000000FFC0007FFF80000FFFF8000FF80007FF800000000001FFF
310
800000000001FFF8000001FFFE0000007F80000000000001FFF800000000000F
310
FFFFF800000000000FFFFF0003FFFFFFFFFC00000000000FF000FC0000000000
310
1FFC0007FFFC0000FFFF8000FF80007FF800000000003FFFC00000000001FFF8
310
000001FFFE0000007F80000000000001FFF800000000000FFFFFF80000000000
310
0FFFFF0003FFFFFFFFFE00000000001FF000FE00000000003FF8000FFFFC0000
310
FFFF8000FF80007FFC00000000003FFFC00000000003FFF8000001FFFE000000
310
7F80000000000001FFFC00000000001FFFFFFC00000000001FFFFF0003FFFFFF
310
FFFF00000000001FF000FF00000000003FF8000FFFFC0000FFFFC000FF80007F
310
FE00000000007FFFE00000000007FFF8000001FFFE0000007F80000000000001
310
FFFE00000000003FFFFFFE00000000003FFFFF0003FFFFFFFFFF80000000003F
310
F000FF80000000007FF8000FFFFC0001FFFFC0007F80007FFF0000000000FFFF
310
F0000000000FFFF800000000000000007F80000000000001FFFF8000000000FF
310
FFFFFF8000000000FFFFFF0003FFFFFFFFFFC0000000007FF000FFC000000000
310
FFF8000FFFFE0001FFFFC0007F80007FFF8000000001FFFFF8000000001FFFF8
310
00000000000000007F80000000000001FFFFC000000001FFFFFFFFC000000001
310
FFFFFF0003FFFFFFFFFFE000000000FFF000FFE000000003FFF0001FFFFE0001
310
FFFFC0007F80007FFFC000000007FFFFFE000000003FFFF80000000000000000
310
7F80000000000001FFFFE000000003FFFFFFFFE000000003FFFFFF0003FFFFFF
310
FFFFF000000003FFF000FFF80000000FFFF0001FFFFE0001FFFFE0007F80007F
310
FFF00000000FFFFFFF00000000FFFFF800000000000000007F80000000000001
310
FFFFF80000000FFFFFFFFFF80000000FFFFFFF0003FFFFFFFFFFFC0000000FFF
310
F000FFFE0000003FFFF0001FFFFE0003FFFFE0003F80007FFFFC0000003FFFFF
310
FFC0000003FFFFF800000000000000007F80000000000001FFFFFE0000003FFF
310
FFFFFFFE0000003FFFFFFF0003FFFFFFFFFFFF0000003FFFF000FFFF800000FF
310
FFF0001FFFFF0003FFFFE0003F80007FFFFF000001FFFFFFFFF800001FFFFFF8
310
00000000000000007F80000000000001FFFFFFC00001FFFFFFFFFFFFC00001FF
310
FFFFFF0003FFFFFFFFFFFFC00000FFFFF000FFFFF8000FFFFFFFFFFFFFFFFFFF
310
FFFFFFFFFFFFFFFFFFFFF0001FFFFFFFFFFF0000FFFFFFF80000000000000000
310
7FFFFFFFFFFFFFFFFFFFFFFC001FFFFFFFFFFFFFFC001FFFFFFFFFFFFFFFFFFF
310
FFFFFFFC001FFFFFF000FFFFFFFFFFFFFFFFFFFFFFFFFFFFFFFFFFFFFFFFFFFF
310
FFFFFFFFFFFFFFFFFFFFFFFFFFFFFFFFFFFFFFFFFFFFFFFFFFFFFFFFFFFFFFFF
310
FFFFFFFFFFFFFFFFFFFFFFFFFFFFFFFFFFFFFFFFFFFFFFFFFFFFFFFFFFFFFFFF
310
F000FFFFFFFFFFFFFFFFFFFFFFFFFFFFFFFFFFFFFFFFFFFFFFFFFFFFFFFFFFFF
310
FFFFFFFFFFFFFFFFFFFFFFFFFFFFFFFFFFFFFFFFFFFFFFFFFFFFFFFFFFFFFFFF
310
FFFFFFFFFFFFFFFFFFFFFFFFFFFFFFFFFFFFFFFFFFFFFFFFF000FFFFFFFFFFFF
310
FFFFFFFFFFFFFFFFFFFFFFFFFFFFFFFFFFFFFFFFFFFFFFFFFFFFFFFFFFFFFFFF
310
FFFFFFFFFFFFFFFFFFFFFFFFFFFFFFFFFFFFFFFFFFFFFFFFFFFFFFFFFFFFFFFF
310
FFFFFFFFFFFFFFFFFFFFFFFFFFFFFFFFF000FFFFFFFFFFFFFFFFFFFFFFFFFFFF
310
FFFFFFFFFFFFFFFFFFFFFFFFFFFFFFFFFFFFFFFFFFFFFFFFFFFFFFFFFFFFFFFF
310
FFFFFFFFFFFFFFFFFFFFFFFFFFFFFFFFFFFFFFFFFFFFFFFFFFFFFFFFFFFFFFFF
310
FFFFFFFFFFFFFFFFF000FFFFFFFFFFFFFFFFFFFFFFFFFFFFFFFFFFFFFFFFFFFF
310
FFFFFFFFFFFFFFFFFFFFFFFFFFFFFFFFFFFFFFFFFFFFFFFFFFFFFFFFFFFFFFFF
310
FFFFFFFFFFFFFFFFFFFFFFFFFFFFFFFFFFFFFFFFFFFFFFFFFFFFFFFFFFFFFFFF
310
F000FFFFFFFFFFFFFFFFFFFFFFFFFFFFFFFFFFFFFFFFFFFFFFFFFFFFFFFFFFFF
310
FFFFFFFFFFFFFFFFFFFFFFFFFFFFFFFFFFFFFFFFFFFFFFFFFFFFFFFFFFFFFFFF
310
FFFFFFFFFFFFFFFFFFFFFFFFFFFFFFFFFFFFFFFFFFFFFFFFF000FFFFFFFFFFFF
310
FFFFFFFFFFFFFFFFFFFFFFFFFFFFFFFFFFFFFFFFFFFFFFFFFFFFFFFFFFFFFFFF
310
FFFFFFFFFFFFFFFFFFFFFFFFFFFFFFFFFFFFFFFFFFFFFFFFFFFFFFFFFFFFFFFF
310
FFFFFFFFFFFFFFFFFFFFFFFFFFFFFFFFF000FFFFFFFFFFFFFFFFFFFFFFFFFFFF
310
FFFFFFFFFFFFFFFFFFFFFFFFFFFFFFFFFFFFFFFFFFFFFFFFFFFFFFFFFFFFFFFF
310
FFFFFFFFFFFFFFFFFFFFFFFFFFFFFFFFFFFFFFFFFFFFFFFFFFFFFFFFFFFFFFFF
310
FFFFFFFFFFFFFFFFF000FFFFFFFFFFFFFFFFFFFFFFFFFFFFFFFFFFFFFFFFFFFF
310
FFFFFFFFFFFFFFFFFFFFFFFFFFFFFFFFFFFFFFFFFFFFFFFFFFFFFFFFFFFFFFFF
310
FFFFFFFFFFFFFFFFFFFFFFFFFFFFFFFFFFFFFFFFFFFFFFFFFFFFFFFFFFFFFFFF
310
F000FFFFFFFFFFFFFFFFFFFFFFFFFFFFFFFFFFFFFFFFFFFFFFFFFFFFFFFFFFFF
310
FFFFFFFFFFFFFFFFFFFFFFFFFFFFFFFFFFFFFFFFFFFFFFFFFFFFFFFFFFFFFFFF
310
FFFFFFFFFFFFFFFFFFFFFFFFFFFFFFFFFFFFFFFFFFFFFFFFF000FFFFFFFFFFFF
310
FFFFFFFFFFFFFFFFFFFFFFFFFFFFFFFFFFFFFFFFFFFFFFFFFFFFFFFFFFFFFFFF
310
FFFFFFFFFFFFFFFFFFFFFFFFFFFFFFFFFFFFFFFFFFFFFFFFFFFFFFFFFFFFFFFF
310
FFFFFFFFFFFFFFFFFFFFFFFFFFFFFFFFF000FFFFFFFFFFFFFFFFFFFFFFFFFFFF
310
FFFFFFFFFFFFFFFFFFFFFFFFFFFFFFFFFFFFFFFFFFFFFFFFFFFFFFFFFFFFFFFF
310
FFFFFFFFFFFFFFFFFFFFFFFFFFFFFFFFFFFFFFFFFFFFFFFFFFFFFFFFFFFFFFFF
310
FFFFFFFFFFFFFFFFF000FFFFFFFFFFFFFFFFFFFFFFFFFFFFFFFFFFFFFFFFFFFF
310
FFFFFFFFFFFFFFFFFFFFFFFFFFFFFFFFFFFFFFFFFFFFFFFFFFFFFFFFFFFFFFFF
310
FFFFFFFFFFFFFFFFFFFFFFFFFFFFFFFFFFFFFFFFFFFFFFFFFFFFFFFFFFFFFFFF
310
F000FFFFFFFFFFFFFFFFFFFFFFFFFFFFFFFFFFFFFFFFFFFFFFFFFFFFFFFFFFFF
310
FFFFFFFFFFFFFFFFFFFFFFFFFFFFFFFFFFFFFFFFFFFFFFFFFFFFFFFFFFFFFFFF
310
FFFFFFFFFFFFFFFFFFFFFFFFFFFFFFFFFFFFFFFFFFFFFFFFF000FFFFFFFFFFFF
310
FFFFFFFFFFFFFFFFFFFFFFFFFFFFFFFFFFFFFFFFFFFFFFFFFFFFFFFFFFFFFFFF
310
FFFFFFFFFFFFFFFFFFFFFFFFFFFFFFFFFFFFFFFFFFFFFFFFFFFFFFFFFFFFFFFF
310
FFFFFFFFFFFFFFFFFFFFFFFFFFFFFFFFF000FFFFFFFFFFFFFFFFFFFFFFFFFFFF
310
FFFFFFFFFFFFFFFFFFFFFFFFFFFFFFFFFFFFFFFFFFFFFFFFFFFFFFFFFFFFFFFF
310
FFFFFFFFFFFFFFFFFFFFFFFFFFFFFFFFFFFFFFFFFFFFFFFFFFFFFFFFFFFFFFFF
310
FFFFFFFFFFFFFFFFF000FFFFFFFFFFFFFFFFFFFFFFFFFFFFFFFFFFFFFFFFFFFF
310
FFFFFFFFFFFFFFFFFFFFFFFFFFFFFFFFFFFFFFFFFFFFFFFFFFFFFFFFFFFFFFFF
310
FFFFFFFFFFFFFFFFFFFFFFFFFFFFFFFFFFFFFFFFFFFFFFFFFFFFFFFFFFFFFFFF
310
F000FFFFFFFFFFFFFFFFFFFFFFFFFFFFFFFFFFFFFFFFFFFFFFFFFFFFFFFFFFFF
310
FFFFFFFFFFFFFFFFFFFFFFFFFFFFFFFFFFFFFFFFFFFFFFFFFFFFFFFFFFFFFFFF
310
FFFFFFFFFFFFFFFFFFFFFFFFFFFFFFFFFFFFFFFFFFFFFFFFF000FFFFFFFFFFFF
310
FFFFFFFFFFFFFFFFFFFFFFFFFFFFFFFFFFFFFFFFFFFFFFFFFFFFFFFFFFFFFFFF
310
FFFFFFFFFFFFFFFFFFFFFFFFFFFFFFFFFFFFFFFFFFFFFFFFFFFFFFFFFFFFFFFF
310
FFFFFFFFFFFFFFFFFFFFFFFFFFFFFFFFF000FFFFFFFFFFFFFFFFFFFFFFFFFFFF
310
FFFFFFFFFFFFFFFFFFFFFFFFFFFFFFFFFFFFFFFFFFFFFFFFFFFFFFFFFFFFFFFF
310
FFFFFFFFFFFFFFFFFFFFFFFFFFFFFFFFFFFFFFFFFFFFFFFFFFFFFFFFFFFFFFFF
310
FFFFFFFFFFFFFFFFF000FFFFFFFFFFFFFFFFFFFFFFFFFFFFFFFFFFFFFFFFFFFF
310
FFFFFFFFFFFFFFFFFFFFFFFFFFFFFFFFFFFFFFFFFFFFFFFFFFFFFFFFFFFFFFFF
310
FFFFFFFFFFFFFFFFFFFFFFFFFFFFFFFFFFFFFFFFFFFFFFFFFFFFFFFFFFFFFFFF
310
F000FFFFFFFFFFFFFFFFFFFFFFFFFFFFFFFFFFFFFFFFFFFFFFFFFFFFFFFFFFFF
310
FFFFFFFFFFFFFFFFFFFFFFFFFFFFFFFFFFFFFFFFFFFFFFFFFFFFFFFFFFFFFFFF
310
FFFFFFFFFFFFFFFFFFFFFFFFFFFFFFFFFFFFFFFFFFFFFFFFF000FFFFFFFFFFFF
310
FFFFFFFFFFFFFFFFFFFFFFFFFFFFFFFFFFFFFFFFFFFFFFFFFFFFFFFFFFFFFFFF
310
FFFFFFFFFFFFFFFFFFFFFFFFFFFFFFFFFFFFFFFFFFFFFFFFFFFFFFFFFFFFFFFF
310
FFFFFFFFFFFFFFFFFFFFFFFFFFFFFFFFF0000000000000000000000000000000
310
0000000000000000000000000000000000000000000000000000000000000000
310
0000000000000000000000000000000000000000000000000000000000000000
310
0000000000000000000000000000000000000000000000000000000000000000
310
0000000000000000000000000000000000000000000000000000000000000000
310
0000000000000000000000000000000000000000000000000000000000000000
310
0000000000000000000000000000000000000000000000000000000000000000
310
0000000000000000000000000000000000000000000000000000000000000000
310
0000000000000000000000000000000000000000000000000000000000000000
310
0000000000000000000000000000000000000000000000000000000000000000
310
0000000000000000000000000000000000000000000000000000000000000000
310
0000000000000000000000000000000000000000000000000000000000000000
310
0000000000000000000000000000000000000000000000000000000000000000
310
0000000000000000000000000000000000000000000000000000000000000000
310
0000000000000000000000000000000000000000000000000000000000000000
310
0000000000000000000000000000000000000000000000000000000000000000
  1
OLE
  0
ENDSEC
  0
SECTION
  2
OBJECTS
  0
DICTIONARY
  5
C
330
0
100
AcDbDictionary
281
     1
  3
ACAD_GROUP
350
D
  3
ACAD_LAYOUT
350
1A
  3
ACAD_MLINESTYLE
350
17
  3
ACAD_PLOTSETTINGS
350
19
  3
ACAD_PLOTSTYLENAME
350
E
  0
DICTIONARY
  5
D
102
{ACAD_REACTORS
330
C
102
}
330
C
100
AcDbDictionary
281
     1
  0
DICTIONARY
  5
1A
102
{ACAD_REACTORS
330
C
102
}
330
C
100
AcDbDictionary
281
     1
  3
Layout1
350
1E
  3
Layout2
350
26
  3
Model
350
22
  0
DICTIONARY
  5
17
102
{ACAD_REACTORS
330
C
102
}
330
C
100
AcDbDictionary
281
     1
  3
Standard
350
18
  0
DICTIONARY
  5
19
102
{ACAD_REACTORS
330
C
102
}
330
C
100
AcDbDictionary
281
     1
  0
ACDBDICTIONARYWDFLT
  5
E
102
{ACAD_REACTORS
330
C
102
}
330
C
100
AcDbDictionary
281
     1
  3
Normal
350
F
100
AcDbDictionaryWithDefault
340
F
  0
LAYOUT
  5
1E
102
{ACAD_REACTORS
330
1A
102
}
330
1A
100
AcDbPlotSettings
  1

  2
none_device
  4

  6

 40
0.0
 41
0.0
 42
0.0
 43
0.0
 44
0.0
 45
0.0
 46
0.0
 47
0.0
 48
0.0
 49
0.0
140
0.0
141
0.0
142
1.0
143
1.0
 70
   688
 72
     0
 73
     0
 74
     5
  7

 75
    16
147
1.0
148
0.0
149
0.0
100
AcDbLayout
  1
Layout1
 70
     1
 71
     1
 10
0.0
 20
0.0
 11
420.0
 21
297.0
 12
0.0
 22
0.0
 32
0.0
 14
1.0000000000E+20
 24
1.0000000000E+20
 34
1.0000000000E+20
 15
-1.0000000000E+20
 25
-1.0000000000E+20
 35
-1.0000000000E+20
146
0.0
 13
0.0
 23
0.0
 33
0.0
 16
1.0
 26
0.0
 36
0.0
 17
0.0
 27
1.0
 37
0.0
 76
     0
330
1B
  0
LAYOUT
  5
26
102
{ACAD_REACTORS
330
1A
102
}
330
1A
100
AcDbPlotSettings
  1

  2
none_device
  4

  6

 40
0.0
 41
0.0
 42
0.0
 43
0.0
 44
0.0
 45
0.0
 46
0.0
 47
0.0
 48
0.0
 49
0.0
140
0.0
141
0.0
142
1.0
143
1.0
 70
   688
 72
     0
 73
     0
 74
     5
  7

 75
    16
147
1.0
148
0.0
149
0.0
100
AcDbLayout
  1
Layout2
 70
     1
 71
     2
 10
0.0
 20
0.0
 11
0.0
 21
0.0
 12
0.0
 22
0.0
 32
0.0
 14
0.0
 24
0.0
 34
0.0
 15
0.0
 25
0.0
 35
0.0
146
0.0
 13
0.0
 23
0.0
 33
0.0
 16
1.0
 26
0.0
 36
0.0
 17
0.0
 27
1.0
 37
0.0
 76
     0
330
23
  0
LAYOUT
  5
22
102
{ACAD_REACTORS
330
1A
102
}
330
1A
100
AcDbPlotSettings
  1

  2
none_device
  4

  6

 40
0.0
 41
0.0
 42
0.0
 43
0.0
 44
0.0
 45
0.0
 46
0.0
 47
0.0
 48
0.0
 49
0.0
140
0.0
141
0.0
142
1.0
143
1.0
 70
  1712
 72
     0
 73
     0
 74
     0
  7

 75
     0
147
1.0
148
0.0
149
0.0
100
AcDbLayout
  1
Model
 70
     1
 71
     0
 10
0.0
 20
0.0
 11
297.0
 21
210.0
 12
0.0
 22
0.0
 32
0.0
 14
0.0
 24
0.0
 34
0.0
 15
297.0
 25
210.0
 35
0.0
146
0.0
 13
0.0
 23
0.0
 33
0.0
 16
1.0
 26
0.0
 36
0.0
 17
0.0
 27
1.0
 37
0.0
 76
     0
330
1F
331
29
  0
MLINESTYLE
  5
18
102
{ACAD_REACTORS
330
17
102
}
330
17
100
AcDbMlineStyle
  2
Standard
 70
     0
  3

 62
   256
 51
90.0
 52
90.0
 71
     2
 49
0.5
 62
   256
  6
BYLAYER
 49
-0.5
 62
   256
  6
BYLAYER
  0
ACDBPLACEHOLDER
  5
F
102
{ACAD_REACTORS
330
E
102
}
330
E
  0
ENDSEC
  0
EOF
