  0
SECTION
  2
HEADER
  9
$ACADVER
  1
AC1015
  9
$ACADMAINTVER
 70
     6
  9
$DWGCODEPAGE
  3
ANSI_1252
  9
$INSBASE
 10
0.0
 20
0.0
 30
0.0
  9
$EXTMIN
 10
0.0
 20
0.0
 30
0.0
  9
$EXTMAX
 10
297.0
 20
210.0
 30
0.0
  9
$LIMMIN
 10
0.0
 20
0.0
  9
$LIMMAX
 10
297.0
 20
210.0
  9
$ORTHOMODE
 70
     0
  9
$REGENMODE
 70
     1
  9
$FILLMODE
 70
     1
  9
$QTEXTMODE
 70
     0
  9
$MIRRTEXT
 70
     1
  9
$LTSCALE
 40
1.0
  9
$ATTMODE
 70
     1
  9
$TEXTSIZE
 40
2.0
  9
$TRACEWID
 40
1.0
  9
$TEXTSTYLE
  7
Standard
  9
$CLAYER
  8
0
  9
$CELTYPE
  6
ByLayer
  9
$CECOLOR
 62
   256
  9
$CELTSCALE
 40
1.0
  9
$DISPSILH
 70
     0
  9
$DIMSCALE
 40
1.0
  9
$DIMASZ
 40
3.0
  9
$DIMEXO
 40
0.0
  9
$DIMDLI
 40
3.75
  9
$DIMRND
 40
0.0
  9
$DIMDLE
 40
0.0
  9
$DIMEXE
 40
1.0
  9
$DIMTP
 40
0.0
  9
$DIMTM
 40
0.0
  9
$DIMTXT
 40
2.0
  9
$DIMCEN
 40
2.5
  9
$DIMTSZ
 40
0.0
  9
$DIMTOL
 70
     0
  9
$DIMLIM
 70
     0
  9
$DIMTIH
 70
     1
  9
$DIMTOH
 70
     1
  9
$DIMSE1
 70
     0
  9
$DIMSE2
 70
     0
  9
$DIMTAD
 70
     1
  9
$DIMZIN
 70
     0
  9
$DIMBLK
  1

  9
$DIMASO
 70
     1
  9
$DIMSHO
 70
     1
  9
$DIMPOST
  1

  9
$DIMAPOST
  1

  9
$DIMALT
 70
     0
  9
$DIMALTD
 70
     3
  9
$DIMALTF
 40
0.0393700787
  9
$DIMLFAC
 40
1.0
  9
$DIMTOFL
 70
     1
  9
$DIMTVP
 40
0.0
  9
$DIMTIX
 70
     0
  9
$DIMSOXD
 70
     0
  9
$DIMSAH
 70
     0
  9
$DIMBLK1
  1

  9
$DIMBLK2
  1

  9
$DIMSTYLE
  2
ISO-25
  9
$DIMCLRD
 70
     0
  9
$DIMCLRE
 70
     0
  9
$DIMCLRT
 70
     0
  9
$DIMTFAC
 40
1.0
  9
$DIMGAP
 40
1.524
  9
$DIMJUST
 70
     0
  9
$DIMSD1
 70
     0
  9
$DIMSD2
 70
     0
  9
$DIMTOLJ
 70
     0
  9
$DIMTZIN
 70
     0
  9
$DIMALTZ
 70
     0
  9
$DIMALTTZ
 70
     0
  9
$DIMUPT
 70
     0
  9
$DIMDEC
 70
     2
  9
$DIMTDEC
 70
     3
  9
$DIMALTU
 70
     2
  9
$DIMALTTD
 70
     3
  9
$DIMTXSTY
  7
Standard
  9
$DIMAUNIT
 70
     0
  9
$DIMADEC
 70
     2
  9
$DIMALTRND
 40
0.0
  9
$DIMAZIN
 70
     0
  9
$DIMDSEP
 70
    44
  9
$DIMATFIT
 70
     3
  9
$DIMFRAC
 70
     0
  9
$DIMLDRBLK
  1

  9
$DIMLUNIT
 70
     2
  9
$DIMLWD
 70
    -2
  9
$DIMLWE
 70
    -2
  9
$DIMTMOVE
 70
     0
  9
$LUNITS
 70
     2
  9
$LUPREC
 70
     2
  9
$SKETCHINC
 40
1.0
  9
$FILLETRAD
 40
10.0
  9
$AUNITS
 70
     0
  9
$AUPREC
 70
     2
  9
$MENU
  1
.
  9
$ELEVATION
 40
0.0
  9
$PELEVATION
 40
0.0
  9
$THICKNESS
 40
0.0
  9
$LIMCHECK
 70
     0
  9
$CHAMFERA
 40
10.0
  9
$CHAMFERB
 40
10.0
  9
$CHAMFERC
 40
20.0
  9
$CHAMFERD
 40
0.0
  9
$SKPOLY
 70
     0
  9
$TDCREATE
 40
2455581.360873322
  9
$TDUCREATE
 40
2455581.319206655
  9
$TDUPDATE
 40
2455581.360873333
  9
$TDUUPDATE
 40
2455581.319206667
  9
$TDINDWG
 40
0.0000000116
  9
$TDUSRTIMER
 40
0.0000000116
  9
$USRTIMER
 70
     1
  9
$ANGBASE
 50
0.0
  9
$ANGDIR
 70
     0
  9
$PDMODE
 70
     0
  9
$PDSIZE
 40
-1.0
  9
$PLINEWID
 40
0.0
  9
$SPLFRAME
 70
     0
  9
$SPLINETYPE
 70
     6
  9
$SPLINESEGS
 70
     8
  9
$HANDSEED
  5
314
  9
$SURFTAB1
 70
     6
  9
$SURFTAB2
 70
     6
  9
$SURFTYPE
 70
     6
  9
$SURFU
 70
     6
  9
$SURFV
 70
     6
  9
$UCSBASE
  2

  9
$UCSNAME
  2

  9
$UCSORG
 10
0.0
 20
0.0
 30
0.0
  9
$UCSXDIR
 10
1.0
 20
0.0
 30
0.0
  9
$UCSYDIR
 10
0.0
 20
1.0
 30
0.0
  9
$UCSORTHOREF
  2

  9
$UCSORTHOVIEW
 70
     0
  9
$UCSORGTOP
 10
0.0
 20
0.0
 30
0.0
  9
$UCSORGBOTTOM
 10
0.0
 20
0.0
 30
0.0
  9
$UCSORGLEFT
 10
0.0
 20
0.0
 30
0.0
  9
$UCSORGRIGHT
 10
0.0
 20
0.0
 30
0.0
  9
$UCSORGFRONT
 10
0.0
 20
0.0
 30
0.0
  9
$UCSORGBACK
 10
0.0
 20
0.0
 30
0.0
  9
$PUCSBASE
  2

  9
$PUCSNAME
  2

  9
$PUCSORG
 10
0.0
 20
0.0
 30
0.0
  9
$PUCSXDIR
 10
1.0
 20
0.0
 30
0.0
  9
$PUCSYDIR
 10
0.0
 20
1.0
 30
0.0
  9
$PUCSORTHOREF
  2

  9
$PUCSORTHOVIEW
 70
     0
  9
$PUCSORGTOP
 10
0.0
 20
0.0
 30
0.0
  9
$PUCSORGBOTTOM
 10
0.0
 20
0.0
 30
0.0
  9
$PUCSORGLEFT
 10
0.0
 20
0.0
 30
0.0
  9
$PUCSORGRIGHT
 10
0.0
 20
0.0
 30
0.0
  9
$PUCSORGFRONT
 10
0.0
 20
0.0
 30
0.0
  9
$PUCSORGBACK
 10
0.0
 20
0.0
 30
0.0
  9
$USERI1
 70
     0
  9
$USERI2
 70
     0
  9
$USERI3
 70
     0
  9
$USERI4
 70
     0
  9
$USERI5
 70
     0
  9
$USERR1
 40
0.0
  9
$USERR2
 40
0.0
  9
$USERR3
 40
0.0
  9
$USERR4
 40
0.0
  9
$USERR5
 40
0.0
  9
$WORLDVIEW
 70
     1
  9
$SHADEDGE
 70
     3
  9
$SHADEDIF
 70
    70
  9
$TILEMODE
 70
     1
  9
$MAXACTVP
 70
    64
  9
$PINSBASE
 10
0.0
 20
0.0
 30
0.0
  9
$PLIMCHECK
 70
     0
  9
$PEXTMIN
 10
1.0000000000E+20
 20
1.0000000000E+20
 30
1.0000000000E+20
  9
$PEXTMAX
 10
-1.0000000000E+20
 20
-1.0000000000E+20
 30
-1.0000000000E+20
  9
$PLIMMIN
 10
0.0
 20
0.0
  9
$PLIMMAX
 10
420.0
 20
297.0
  9
$UNITMODE
 70
     0
  9
$VISRETAIN
 70
     1
  9
$PLINEGEN
 70
     0
  9
$PSLTSCALE
 70
     1
  9
$TREEDEPTH
 70
  3020
  9
$CMLSTYLE
  2
Standard
  9
$CMLJUST
 70
     0
  9
$CMLSCALE
 40
20.0
  9
$PROXYGRAPHICS
 70
     1
  9
$MEASUREMENT
 70
     1
  9
$CELWEIGHT
370
    -1
  9
$ENDCAPS
280
     0
  9
$JOINSTYLE
280
     0
  9
$LWDISPLAY
290
     1
  9
$INSUNITS
 70
     4
  9
$HYPERLINKBASE
  1

  9
$STYLESHEET
  1

  9
$XEDIT
290
     1
  9
$CEPSNTYPE
380
     0
  9
$PSTYLEMODE
290
     1
  9
$FINGERPRINTGUID
  2
{55E450B9-92AF-41C4-8CD7-3F3F1D81C2A2}
  9
$VERSIONGUID
  2
{FAEB1C32-E019-11D5-929B-00C0DF256EC4}
  9
$EXTNAMES
290
     1
  9
$PSVPSCALE
 40
0.0
  9
$OLESTARTUP
290
     0
  0
ENDSEC
  0
SECTION
  2
CLASSES
  0
CLASS
  1
ACDBDICTIONARYWDFLT
  2
AcDbDictionaryWithDefault
  3
ObjectDBX Classes
 90
        0
280
     0
281
     0
  0
CLASS
  1
VISUALSTYLE
  2
AcDbVisualStyle
  3
ObjectDBX Classes
 90
     4095
280
     0
281
     0
  0
CLASS
  1
DICTIONARYVAR
  2
AcDbDictionaryVar
  3
ObjectDBX Classes
 90
        0
280
     0
281
     0
  0
CLASS
  1
ACDBPLACEHOLDER
  2
AcDbPlaceHolder
  3
ObjectDBX Classes
 90
        0
280
     0
281
     0
  0
CLASS
  1
LAYOUT
  2
AcDbLayout
  3
ObjectDBX Classes
 90
        0
280
     0
281
     0
  0
ENDSEC
  0
SECTION
  2
TABLES
  0
TABLE
  2
VPORT
  5
8
330
0
100
AcDbSymbolTable
 70
     1
  0
VPORT
  5
29
330
8
100
AcDbSymbolTableRecord
100
AcDbViewportTableRecord
  2
*Active
 70
     0
 10
0.0
 20
0.0
 11
1.0
 21
1.0
 12
148.5
 22
105.0
 13
0.0
 23
0.0
 14
10.0
 24
10.0
 15
10.0
 25
10.0
 16
0.0
 26
0.0
 36
1.0
 17
0.0
 27
0.0
 37
0.0
 40
210.0
 41
1.4142857143
 42
50.0
 43
0.0
 44
0.0
 50
0.0
 51
0.0
 71
     0
 72
  2000
 73
     1
 74
     3
 75
     0
 76
     0
 77
     0
 78
     0
281
     0
 65
     1
110
0.0
120
0.0
130
0.0
111
1.0
121
0.0
131
0.0
112
0.0
122
1.0
132
0.0
 79
     0
146
0.0
  0
ENDTAB
  0
TABLE
  2
LTYPE
  5
5
330
0
100
AcDbSymbolTable
 70
     6
  0
LTYPE
  5
14
330
5
100
AcDbSymbolTableRecord
100
AcDbLinetypeTableRecord
  2
ByBlock
 70
     0
  3

 72
    65
 73
     0
 40
0.0
  0
LTYPE
  5
15
330
5
100
AcDbSymbolTableRecord
100
AcDbLinetypeTableRecord
  2
ByLayer
 70
     0
  3

 72
    65
 73
     0
 40
0.0
  0
LTYPE
  5
16
330
5
100
AcDbSymbolTableRecord
100
AcDbLinetypeTableRecord
  2
Continuous
 70
     0
  3
Solid line
 72
    65
 73
     0
 40
0.0
  0
LTYPE
  5
3B
330
5
100
AcDbSymbolTableRecord
100
AcDbLinetypeTableRecord
  2
HIDDEN
 70
     0
  3
Hidden __ __ __ __ __ __ __ __ __ __ __ __ __ __
 72
    65
 73
     2
 40
1.905
 49
1.27
 74
     0
 49
-0.635
 74
     0
  0
LTYPE
  5
3C
330
5
100
AcDbSymbolTableRecord
100
AcDbLinetypeTableRecord
  2
PHANTOM
 70
     0
  3
Phantom ______  __  __  ______  __  __  ______
 72
    65
 73
     6
 40
12.7
 49
6.35
 74
     0
 49
-1.27
 74
     0
 49
1.27
 74
     0
 49
-1.27
 74
     0
 49
1.27
 74
     0
 49
-1.27
 74
     0
  0
LTYPE
  5
3D
330
5
100
AcDbSymbolTableRecord
100
AcDbLinetypeTableRecord
  2
CENTER
 70
     0
  3
Center ____ _ ____ _ ____ _ ____ _ ____ _ ____
 72
    65
 73
     4
 40
10.16
 49
6.35
 74
     0
 49
-1.27
 74
     0
 49
1.27
 74
     0
 49
-1.27
 74
     0
  0
LTYPE
  5
3E
330
5
100
AcDbSymbolTableRecord
100
AcDbLinetypeTableRecord
  2
CENTERX2
 70
     0
  3
Center (2x) ________  __  ________  __  _____
 72
    65
 73
     4
 40
20.32
 49
12.7
 74
     0
 49
-2.54
 74
     0
 49
2.54
 74
     0
 49
-2.54
 74
     0
  0
LTYPE
  5
3F
330
5
100
AcDbSymbolTableRecord
100
AcDbLinetypeTableRecord
  2
DOT2
 70
     0
  3
Dot (.5x) ........................................
 72
    65
 73
     2
 40
0.635
 49
0.0
 74
     0
 49
-0.635
 74
     0
  0
ENDTAB
  0
TABLE
  2
LAYER
  5
2
330
0
100
AcDbSymbolTable
 70
     5
  0
LAYER
  5
10
330
2
100
AcDbSymbolTableRecord
100
AcDbLayerTableRecord
  2
0
 70
     0
 62
     7
  6
Continuous
370
    -3
390
F
  0
LAYER
  5
40
330
2
100
AcDbSymbolTableRecord
100
AcDbLayerTableRecord
  2
FORMAT
 70
     0
 62
     7
  6
Continuous
370
    -3
390
F
  0
LAYER
  5
41
330
2
100
AcDbSymbolTableRecord
100
AcDbLayerTableRecord
  2
VERMASSUNG
 70
     0
 62
     7
  6
Continuous
370
    -3
390
F
  0
LAYER
  5
42
330
2
100
AcDbSymbolTableRecord
100
AcDbLayerTableRecord
  2
KOPF_DÜNN
 70
     0
 62
     7
  6
Continuous
370
    -3
390
F
  0
LAYER
  5
43
330
2
100
AcDbSymbolTableRecord
100
AcDbLayerTableRecord
  2
KOPF_DICK
 70
     0
 62
     7
  6
Continuous
370
    15
390
F
  0
ENDTAB
  0
TABLE
  2
STYLE
  5
3
330
0
100
AcDbSymbolTable
 70
     3
  0
STYLE
  5
11
330
3
100
AcDbSymbolTableRecord
100
AcDbTextStyleTableRecord
  2
Standard
 70
     0
 40
0.0
 41
1.0
 50
0.0
 71
     0
 42
2.5
  3
txt
  4

  0
STYLE
  5
44
330
3
100
AcDbSymbolTableRecord
100
AcDbTextStyleTableRecord
  2
SLDTEXTSTYLE0
 70
     0
 40
0.0
 41
0.7
 50
0.0
 71
     0
 42
0.2
  3
TXT
  4

  0
STYLE
  5
48
330
3
100
AcDbSymbolTableRecord
100
AcDbTextStyleTableRecord
  2
SLDTEXTSTYLE1
 70
     0
 40
0.0
 41
0.6526315789
 50
0.0
 71
     0
 42
0.2
  3
TXT
  4

  0
ENDTAB
  0
TABLE
  2
VIEW
  5
6
330
0
100
AcDbSymbolTable
 70
     0
  0
ENDTAB
  0
TABLE
  2
UCS
  5
7
330
0
100
AcDbSymbolTable
 70
     0
  0
ENDTAB
  0
TABLE
  2
APPID
  5
9
330
0
100
AcDbSymbolTable
 70
     1
  0
APPID
  5
12
330
9
100
AcDbSymbolTableRecord
100
AcDbRegAppTableRecord
  2
ACAD
 70
     0
  0
ENDTAB
  0
TABLE
  2
DIMSTYLE
  5
A
330
0
100
AcDbSymbolTable
 70
     4
100
AcDbDimStyleTable
  0
DIMSTYLE
105
27
330
A
100
AcDbSymbolTableRecord
100
AcDbDimStyleTableRecord
  2
ISO-25
 70
     0
 41
2.5
 42
0.625
 43
3.75
 44
1.25
 73
     0
 74
     0
 77
     1
 78
     8
140
2.5
141
2.5
143
0.0393700787
147
0.625
171
     3
172
     1
271
     2
272
     2
274
     3
278
    44
283
     0
284
     8
340
11
  0
DIMSTYLE
105
247
102
{ACAD_REACTORS
330
246
330
251
330
25B
330
270
102
}
330
A
100
AcDbSymbolTableRecord
100
AcDbDimStyleTableRecord
  2
SLDDIMSTYLE0
 70
     0
 41
3.0
 44
0.0
 45
0.000000001
 73
     0
 74
     0
 77
     1
 78
    12
140
2.0
147
0.5
173
     1
271
     2
272
     3
284
    12
340
44
  0
DIMSTYLE
105
266
102
{ACAD_REACTORS
330
265
102
}
330
A
100
AcDbSymbolTableRecord
100
AcDbDimStyleTableRecord
  2
SLDDIMSTYLE1
 70
     0
 41
3.0
 44
0.0
 73
     0
 74
     0
 77
     1
 78
    12
140
2.0
147
0.5
173
     1
272
     3
284
    12
340
44
  0
DIMSTYLE
105
2F7
102
{ACAD_REACTORS
330
2F6
102
}
330
A
100
AcDbSymbolTableRecord
100
AcDbDimStyleTableRecord
  2
SLDDIMSTYLE2
 70
     0
 41
3.0
 44
0.0
 45
0.000000001
 73
     0
 74
     0
 77
     1
 78
    12
140
2.0
147
0.5
173
     1
271
     2
272
     3
284
    12
340
44
  0
ENDTAB
  0
TABLE
  2
BLOCK_RECORD
  5
1
330
0
100
AcDbSymbolTable
 70
     8
  0
BLOCK_RECORD
  5
1F
330
1
100
AcDbSymbolTableRecord
100
AcDbBlockTableRecord
  2
*Model_Space
340
22
  0
BLOCK_RECORD
  5
1B
330
1
100
AcDbSymbolTableRecord
100
AcDbBlockTableRecord
  2
*Paper_Space
340
1E
  0
BLOCK_RECORD
  5
23
330
1
100
AcDbSymbolTableRecord
100
AcDbBlockTableRecord
  2
*Paper_Space0
340
26
  0
BLOCK_RECORD
  5
248
330
1
100
AcDbSymbolTableRecord
100
AcDbBlockTableRecord
  2
*D1
340
0
  0
BLOCK_RECORD
  5
252
330
1
100
AcDbSymbolTableRecord
100
AcDbBlockTableRecord
  2
*D2
340
0
  0
BLOCK_RECORD
  5
25C
330
1
100
AcDbSymbolTableRecord
100
AcDbBlockTableRecord
  2
*D3
340
0
  0
BLOCK_RECORD
  5
267
330
1
100
AcDbSymbolTableRecord
100
AcDbBlockTableRecord
  2
*D4
340
0
  0
BLOCK_RECORD
  5
271
330
1
100
AcDbSymbolTableRecord
100
AcDbBlockTableRecord
  2
*D5
340
0
  0
BLOCK_RECORD
  5
2F8
330
1
100
AcDbSymbolTableRecord
100
AcDbBlockTableRecord
  2
*D6
340
0
  0
BLOCK_RECORD
  5
302
330
1
100
AcDbSymbolTableRecord
100
AcDbBlockTableRecord
  2
SW_CENTERMARKSYMBOL_0
340
0
102
{BLKREFS
331
30D
102
}
  0
ENDTAB
  0
ENDSEC
  0
SECTION
  2
BLOCKS
  0
BLOCK
  5
20
330
1F
100
AcDbEntity
  8
0
100
AcDbBlockBegin
  2
*Model_Space
 70
     0
 10
0.0
 20
0.0
 30
0.0
  3
*Model_Space
  1

  0
ENDBLK
  5
21
330
1F
100
AcDbEntity
  8
0
100
AcDbBlockEnd
  0
BLOCK
  5
1C
330
1B
100
AcDbEntity
 67
     1
  8
0
100
AcDbBlockBegin
  2
*Paper_Space
 70
     0
 10
0.0
 20
0.0
 30
0.0
  3
*Paper_Space
  1

  0
ENDBLK
  5
1D
330
1B
100
AcDbEntity
 67
     1
  8
0
100
AcDbBlockEnd
  0
BLOCK
  5
24
330
23
100
AcDbEntity
  8
0
100
AcDbBlockBegin
  2
*Paper_Space0
 70
     0
 10
0.0
 20
0.0
 30
0.0
  3
*Paper_Space0
  1

  0
ENDBLK
  5
25
330
23
100
AcDbEntity
  8
0
100
AcDbBlockEnd
  0
BLOCK
  5
249
330
248
100
AcDbEntity
  8
0
100
AcDbBlockBegin
  2
*D1
 70
     1
 10
0.0
 20
0.0
 30
0.0
  3
*D1
  1

  0
SOLID
  5
24B
330
248
100
AcDbEntity
  8
VERMASSUNG
100
AcDbTrace
 10
271.1419363591
 20
75.0663229021
 30
0.0
 11
271.5919363591
 21
78.0663229021
 31
0.0
 12
270.6919363591
 22
78.0663229021
 32
0.0
 13
270.6919363591
 23
78.0663229021
 33
0.0
  0
SOLID
  5
24C
330
248
100
AcDbEntity
  8
VERMASSUNG
100
AcDbTrace
 10
271.1419363591
 20
120.0663229021
 30
0.0
 11
270.6919363591
 21
117.0663229021
 31
0.0
 12
271.5919363591
 22
117.0663229021
 32
0.0
 13
271.5919363591
 23
117.0663229021
 33
0.0
  0
LINE
  5
24D
330
248
100
AcDbEntity
  8
VERMASSUNG
100
AcDbLine
 10
264.8907687226
 20
75.0663229021
 30
0.0
 11
272.1419363591
 21
75.0663229021
 31
0.0
  0
LINE
  5
24E
330
248
100
AcDbEntity
  8
VERMASSUNG
100
AcDbLine
 10
262.7474452555
 20
120.0663229021
 30
0.0
 11
272.1419363591
 21
120.0663229021
 31
0.0
  0
LINE
  5
24F
330
248
100
AcDbEntity
  8
VERMASSUNG
100
AcDbLine
 10
271.1419363591
 20
75.0663229021
 30
0.0
 11
271.1419363591
 21
120.0663229021
 31
0.0
  0
MTEXT
  5
250
330
248
100
AcDbEntity
  8
VERMASSUNG
100
AcDbMText
 10
268.563800996
 20
96.066364508
 30
0.0
 40
2.0
 41
0.0
 71
     1
 72
     1
  1
45
  7
SLDTEXTSTYLE0
 11
6.123233995736766E-17
 21
1.0
 31
0.0
 73
     1
 44
1.0
  0
ENDBLK
  5
24A
330
248
100
AcDbEntity
  8
0
100
AcDbBlockEnd
  0
BLOCK
  5
253
330
252
100
AcDbEntity
  8
0
100
AcDbBlockBegin
  2
*D2
 70
     1
 10
0.0
 20
0.0
 30
0.0
  3
*D2
  1

  0
SOLID
  5
255
330
252
100
AcDbEntity
  8
VERMASSUNG
100
AcDbTrace
 10
264.8907687226
 20
158.3744908247
 30
0.0
 11
261.8907687226
 21
158.8244908247
 31
0.0
 12
261.8907687226
 22
157.9244908247
 32
0.0
 13
261.8907687226
 23
157.9244908247
 33
0.0
  0
SOLID
  5
256
330
252
100
AcDbEntity
  8
VERMASSUNG
100
AcDbTrace
 10
194.8907687226
 20
158.3744908247
 30
0.0
 11
197.8907687226
 21
157.9244908247
 31
0.0
 12
197.8907687226
 22
158.8244908247
 32
0.0
 13
197.8907687226
 23
158.8244908247
 33
0.0
  0
LINE
  5
257
330
252
100
AcDbEntity
  8
VERMASSUNG
100
AcDbLine
 10
264.8907687226
 20
75.0663229021
 30
0.0
 11
264.8907687226
 21
159.3744908247
 31
0.0
  0
LINE
  5
258
330
252
100
AcDbEntity
  8
VERMASSUNG
100
AcDbLine
 10
194.8907687226
 20
151.2663229021
 30
0.0
 11
194.8907687226
 21
159.3744908247
 31
0.0
  0
LINE
  5
259
330
252
100
AcDbEntity
  8
VERMASSUNG
100
AcDbLine
 10
264.8907687226
 20
158.3744908247
 30
0.0
 11
194.8907687226
 21
158.3744908247
 31
0.0
  0
MTEXT
  5
25A
330
252
100
AcDbEntity
  8
VERMASSUNG
100
AcDbMText
 10
228.491544635
 20
160.9526261878
 30
0.0
 40
2.0
 41
0.0
 71
     1
 72
     1
  1
70
  7
SLDTEXTSTYLE0
 73
     1
 44
1.0
  0
ENDBLK
  5
254
330
252
100
AcDbEntity
  8
0
100
AcDbBlockEnd
  0
BLOCK
  5
25D
330
25C
100
AcDbEntity
  8
0
100
AcDbBlockBegin
  2
*D3
 70
     1
 10
0.0
 20
0.0
 30
0.0
  3
*D3
  1

  0
SOLID
  5
25F
330
25C
100
AcDbEntity
  8
VERMASSUNG
100
AcDbTrace
 10
264.8907687226
 20
164.3744908247
 30
0.0
 11
261.8907687226
 21
164.8244908247
 31
0.0
 12
261.8907687226
 22
163.9244908247
 32
0.0
 13
261.8907687226
 23
163.9244908247
 33
0.0
  0
SOLID
  5
260
330
25C
100
AcDbEntity
  8
VERMASSUNG
100
AcDbTrace
 10
162.9907687226
 20
164.3744908247
 30
0.0
 11
165.9907687226
 21
163.9244908247
 31
0.0
 12
165.9907687226
 22
164.8244908247
 32
0.0
 13
165.9907687226
 23
164.8244908247
 33
0.0
  0
LINE
  5
261
330
25C
100
AcDbEntity
  8
VERMASSUNG
100
AcDbLine
 10
264.8907687226
 20
75.0663229021
 30
0.0
 11
264.8907687226
 21
165.3744908247
 31
0.0
  0
LINE
  5
262
330
25C
100
AcDbEntity
  8
VERMASSUNG
100
AcDbLine
 10
162.9907687226
 20
140.0423834068
 30
0.0
 11
162.9907687226
 21
165.3744908247
 31
0.0
  0
LINE
  5
263
330
25C
100
AcDbEntity
  8
VERMASSUNG
100
AcDbLine
 10
264.8907687226
 20
164.3744908247
 30
0.0
 11
162.9907687226
 21
164.3744908247
 31
0.0
  0
MTEXT
  5
264
330
25C
100
AcDbEntity
  8
VERMASSUNG
100
AcDbMText
 10
211.2418263868
 20
166.9526261878
 30
0.0
 40
2.0
 41
0.0
 71
     1
 72
     1
  1
101.9
  7
SLDTEXTSTYLE0
 73
     1
 44
1.0
  0
ENDBLK
  5
25E
330
25C
100
AcDbEntity
  8
0
100
AcDbBlockEnd
  0
BLOCK
  5
268
330
267
100
AcDbEntity
  8
0
100
AcDbBlockBegin
  2
*D4
 70
     1
 10
0.0
 20
0.0
 30
0.0
  3
*D4
  1

  0
ARC
  5
26A
330
267
100
AcDbEntity
  8
VERMASSUNG
100
AcDbCircle
 10
264.8907687226
 20
71.7637811508
 30
0.0
 40
40.05173272971278
100
AcDbArc
 50
90.0
 51
95.0277975181
  0
ARC
  5
26B
330
267
100
AcDbEntity
  8
VERMASSUNG
100
AcDbCircle
 10
264.8907687226
 20
71.7637811508
 30
0.0
 40
40.05173272971278
100
AcDbArc
 50
81.4387284952
 51
90.0
  0
ARC
  5
26C
330
267
100
AcDbEntity
  8
VERMASSUNG
100
AcDbCircle
 10
264.8907687226
 20
71.7637811508
 30
0.0
 40
40.05173272971278
100
AcDbArc
 50
95.0277975181
 51
105.0650897939
  0
SOLID
  5
26D
330
267
100
AcDbEntity
  8
VERMASSUNG
100
AcDbTrace
 10
264.8907687226
 20
111.8155138805
 30
0.0
 11
267.8718549995
 21
111.2537091017
 31
0.0
 12
267.9054907464
 22
112.1530803468
 32
0.0
 13
267.9054907464
 23
112.1530803468
 33
0.0
  0
SOLID
  5
26E
330
267
100
AcDbEntity
  8
VERMASSUNG
100
AcDbTrace
 10
261.3806731351
 20
111.6614066894
 30
0.0
 11
258.3479668651
 21
111.7334669424
 31
0.0
 12
258.4602932282
 22
110.8405040159
 32
0.0
 13
258.4602932282
 23
110.8405040159
 33
0.0
  0
MTEXT
  5
26F
330
267
100
AcDbEntity
  8
VERMASSUNG
100
AcDbMText
 10
255.5229344649
 20
113.3719366309
 30
0.0
 40
2.0
 41
0.0
 71
     1
 72
     1
  1
5°
  7
SLDTEXTSTYLE0
 11
0.9818200722176348
 21
0.189813976805077
 31
0.0
 73
     1
 44
1.0
  0
ENDBLK
  5
269
330
267
100
AcDbEntity
  8
0
100
AcDbBlockEnd
  0
BLOCK
  5
272
330
271
100
AcDbEntity
  8
0
100
AcDbBlockBegin
  2
*D5
 70
     1
 10
0.0
 20
0.0
 30
0.0
  3
*D5
  1

  0
SOLID
  5
274
330
271
100
AcDbEntity
  8
VERMASSUNG
100
AcDbTrace
 10
157.099270073
 20
151.5663229021
 30
0.0
 11
156.649270073
 21
148.5663229021
 31
0.0
 12
157.549270073
 22
148.5663229021
 32
0.0
 13
157.549270073
 23
148.5663229021
 33
0.0
  0
SOLID
  5
275
330
271
100
AcDbEntity
  8
VERMASSUNG
100
AcDbTrace
 10
157.099270073
 20
88.5663229021
 30
0.0
 11
157.549270073
 21
91.5663229021
 31
0.0
 12
156.649270073
 22
91.5663229021
 32
0.0
 13
156.649270073
 23
91.5663229021
 33
0.0
  0
LINE
  5
276
330
271
100
AcDbEntity
  8
VERMASSUNG
100
AcDbLine
 10
195.1907687226
 20
151.5663229021
 30
0.0
 11
156.099270073
 21
151.5663229021
 31
0.0
  0
LINE
  5
277
330
271
100
AcDbEntity
  8
VERMASSUNG
100
AcDbLine
 10
195.1907687226
 20
88.5663229021
 30
0.0
 11
156.099270073
 21
88.5663229021
 31
0.0
  0
LINE
  5
278
330
271
100
AcDbEntity
  8
VERMASSUNG
100
AcDbLine
 10
157.099270073
 20
151.5663229021
 30
0.0
 11
157.099270073
 21
88.5663229021
 31
0.0
  0
MTEXT
  5
279
330
271
100
AcDbEntity
  8
VERMASSUNG
100
AcDbMText
 10
154.3211345839
 20
113.862563778
 30
0.0
 40
2.0
 41
0.0
 71
     1
 72
     1
  1
HSK 
  7
SLDTEXTSTYLE0
 11
-7.044195017643634E-15
 21
1.0
 31
0.0
 73
     1
 44
1.0
  0
MTEXT
  5
27A
330
271
100
AcDbEntity
  8
VERMASSUNG
100
AcDbMText
 10
154.5211345934
 20
119.8625638302
 30
0.0
 40
2.0
 41
0.0
 71
     1
 72
     1
  1
%%c
  7
SLDTEXTSTYLE0
 11
-7.044195017643634E-15
 21
1.0
 31
0.0
 73
     1
 44
1.0
  0
MTEXT
  5
27B
330
271
100
AcDbEntity
  8
VERMASSUNG
100
AcDbMText
 10
154.5211347099
 20
123.471633851
 30
0.0
 40
2.0
 41
0.0
 71
     1
 72
     1
  1
63
  7
SLDTEXTSTYLE0
 11
-7.044195017643634E-15
 21
1.0
 31
0.0
 73
     1
 44
1.0
  0
ENDBLK
  5
273
330
271
100
AcDbEntity
  8
0
100
AcDbBlockEnd
  0
BLOCK
  5
2F9
330
2F8
100
AcDbEntity
  8
0
100
AcDbBlockBegin
  2
*D6
 70
     1
 10
0.0
 20
0.0
 30
0.0
  3
*D6
  1

  0
SOLID
  5
2FB
330
2F8
100
AcDbEntity
  8
VERMASSUNG
100
AcDbTrace
 10
38.8395620438
 20
75.1083464915
 30
0.0
 11
39.2895620438
 21
78.1083464915
 31
0.0
 12
38.3895620438
 22
78.1083464915
 32
0.0
 13
38.3895620438
 23
78.1083464915
 33
0.0
  0
SOLID
  5
2FC
330
2F8
100
AcDbEntity
  8
VERMASSUNG
100
AcDbTrace
 10
38.8395620438
 20
155.1083464915
 30
0.0
 11
38.3895620438
 21
152.1083464915
 31
0.0
 12
39.2895620438
 22
152.1083464915
 32
0.0
 13
39.2895620438
 23
152.1083464915
 33
0.0
  0
LINE
  5
2FD
330
2F8
100
AcDbEntity
  8
VERMASSUNG
100
AcDbLine
 10
86.3395620438
 20
75.1083464915
 30
0.0
 11
37.8395620438
 21
75.1083464915
 31
0.0
  0
LINE
  5
2FE
330
2F8
100
AcDbEntity
  8
VERMASSUNG
100
AcDbLine
 10
86.3395620438
 20
155.1083464915
 30
0.0
 11
37.8395620438
 21
155.1083464915
 31
0.0
  0
LINE
  5
2FF
330
2F8
100
AcDbEntity
  8
VERMASSUNG
100
AcDbLine
 10
38.8395620438
 20
75.1083464915
 30
0.0
 11
38.8395620438
 21
155.1083464915
 31
0.0
  0
MTEXT
  5
300
330
2F8
100
AcDbEntity
  8
VERMASSUNG
100
AcDbMText
 10
36.2614265643
 20
111.9045041558
 30
0.0
 40
2.0
 41
0.0
 71
     1
 72
     1
  1
%%c
  7
SLDTEXTSTYLE0
 11
6.123233995736766E-17
 21
1.0
 31
0.0
 73
     1
 44
1.0
  0
MTEXT
  5
301
330
2F8
100
AcDbEntity
  8
VERMASSUNG
100
AcDbMText
 10
36.2614266807
 20
115.5137406521
 30
0.0
 40
2.0
 41
0.0
 71
     1
 72
     1
  1
80
  7
SLDTEXTSTYLE0
 11
6.123233995736766E-17
 21
1.0
 31
0.0
 73
     1
 44
1.0
  0
ENDBLK
  5
2FA
330
2F8
100
AcDbEntity
  8
0
100
AcDbBlockEnd
  0
BLOCK
  5
303
330
302
100
AcDbEntity
  8
0
100
AcDbBlockBegin
  2
SW_CENTERMARKSYMBOL_0
 70
     0
 10
0.0
 20
0.0
 30
0.0
  3
SW_CENTERMARKSYMBOL_0
  1

  0
LINE
  5
305
330
302
100
AcDbEntity
  8
VERMASSUNG
 62
     0
100
AcDbLine
 10
0.0
 20
0.0
 30
0.0
 11
0.0
 21
2.5
 31
0.0
  0
LINE
  5
306
330
302
100
AcDbEntity
  8
VERMASSUNG
 62
     0
100
AcDbLine
 10
0.0
 20
0.0
 30
0.0
 11
-2.5
 21
0.0
 31
0.0
  0
LINE
  5
307
330
302
100
AcDbEntity
  8
VERMASSUNG
 62
     0
100
AcDbLine
 10
0.0
 20
0.0
 30
0.0
 11
0.0
 21
-2.5
 31
0.0
  0
LINE
  5
308
330
302
100
AcDbEntity
  8
VERMASSUNG
 62
     0
100
AcDbLine
 10
0.0
 20
0.0
 30
0.0
 11
2.5
 21
0.0
 31
0.0
  0
LINE
  5
309
330
302
100
AcDbEntity
  8
VERMASSUNG
 62
     0
100
AcDbLine
 10
0.0
 20
5.0
 30
0.0
 11
0.0
 21
34.0
 31
0.0
  0
LINE
  5
30A
330
302
100
AcDbEntity
  8
VERMASSUNG
 62
     0
100
AcDbLine
 10
-5.0
 20
0.0
 30
0.0
 11
-34.0
 21
0.0
 31
0.0
  0
LINE
  5
30B
330
302
100
AcDbEntity
  8
VERMASSUNG
 62
     0
100
AcDbLine
 10
0.0
 20
-5.0
 30
0.0
 11
0.0
 21
-46.2693885956
 31
0.0
  0
LINE
  5
30C
330
302
100
AcDbEntity
  8
VERMASSUNG
 62
     0
100
AcDbLine
 10
5.0
 20
0.0
 30
0.0
 11
34.0
 21
0.0
 31
0.0
  0
ENDBLK
  5
304
330
302
100
AcDbEntity
  8
0
100
AcDbBlockEnd
  0
ENDSEC
  0
SECTION
  2
ENTITIES
  0
MTEXT
  5
45
330
1F
100
AcDbEntity
  8
KOPF_DÜNN
100
AcDbMText
 10
13.8892156294
 20
23.8442973028
 30
0.0
 40
3.0
 41
0.0
 71
     1
 72
     1
  1
HA6.PWE.LLA.070
  7
SLDTEXTSTYLE0
 73
     1
 44
1.0
  0
MTEXT
  5
46
330
1F
100
AcDbEntity
  8
VERMASSUNG
100
AcDbMText
 10
13.9329988022
 20
28.8834360957
 30
0.0
 40
3.0
 41
0.0
 71
     1
 72
     1
  1
Klemmhalter links_Turning tool left 95° /80° /95°
  7
SLDTEXTSTYLE0
 73
     1
 44
1.0
  0
MTEXT
  5
47
330
1F
100
AcDbEntity
  8
VERMASSUNG
100
AcDbMText
 10
98.8601118557
 20
13.8365368179
 30
0.0
 40
2.0
 41
0.0
 71
     1
 72
     1
  1
Datum: 19.01.2011
  7
SLDTEXTSTYLE0
 73
     1
 44
1.0
  0
MTEXT
  5
49
330
1F
100
AcDbEntity
  8
VERMASSUNG
100
AcDbMText
 10
13.933048693
 20
18.0482802738
 30
0.0
 40
2.0
 41
0.0
 71
     1
 72
     1
  1
DIN 69893 HSK 63 A ICTM / WN.. 08 04..
  7
SLDTEXTSTYLE1
 73
     1
 44
1.0
  0
MTEXT
  5
4A
330
1F
100
AcDbEntity
  8
VERMASSUNG
100
AcDbMText
 10
13.9808475933
 20
13.9090973692
 30
0.0
 40
2.0
 41
0.0
 71
     1
 72
     1
  1
Gewicht: 1161g
  7
SLDTEXTSTYLE0
 73
     1
 44
1.0
  0
SPLINE
  5
4B
330
1F
100
AcDbEntity
  8
0
  6
Continuous
 62
     7
370
    15
100
AcDbSpline
210
0.0
220
0.0
230
1.0
 70
     8
 71
     3
 72
    10
 73
     6
 74
     0
 42
0.00000001
 43
0.00000001
 40
0.0
 40
0.0
 40
0.0
 40
0.0
 40
0.3097209217742865
 40
0.9457209545676756
 40
1.0
 40
1.0
 40
1.0
 40
1.0
 10
259.9350410027535
 20
83.14629906197142
 30
0.0
 10
259.9440706013319
 20
83.04858415454308
 30
0.0
 10
259.9716421342397
 20
82.75021543279442
 30
0.0
 10
259.9317342700568
 20
82.42332761152352
 30
0.0
 10
259.8497243588407
 20
82.21733863524808
 30
0.0
 10
259.8432756342057
 20
82.20114100539878
 30
0.0
  0
LINE
  5
4C
330
1F
100
AcDbEntity
  8
0
  6
Continuous
 62
     7
370
    15
100
AcDbLine
 10
255.5134618678
 20
81.1208835323
 30
0.0
 11
255.6223791839
 21
80.9563130472
 31
0.0
  0
LINE
  5
4D
330
1F
100
AcDbEntity
  8
0
  6
Continuous
 62
     7
370
    15
100
AcDbLine
 10
259.5383187629
 20
83.5554390145
 30
0.0
 11
259.1506003483
 21
84.1412687968
 31
0.0
  0
LINE
  5
4E
330
1F
100
AcDbEntity
  8
0
  6
Continuous
 62
     7
370
    15
100
AcDbLine
 10
260.6852917612
 20
90.9789759061
 30
0.0
 11
260.1877362761
 21
91.6378108198
 31
0.0
  0
LINE
  5
4F
330
1F
100
AcDbEntity
  8
0
  6
Continuous
 62
     7
370
    15
100
AcDbLine
 10
248.3010705213
 20
79.7290143397
 30
0.0
 11
248.7720747124
 21
79.1053371522
 31
0.0
  0
LINE
  5
50
330
1F
100
AcDbEntity
  8
0
  6
Continuous
 62
     7
370
    15
100
AcDbLine
 10
195.1907687226
 20
88.5663229021
 30
0.0
 11
199.8407687226
 21
88.5663229021
 31
0.0
  0
LINE
  5
51
330
1F
100
AcDbEntity
  8
0
  6
Continuous
 62
     7
370
    15
100
AcDbLine
 10
199.8500768094
 20
151.5663229021
 30
0.0
 11
195.1907687226
 21
151.5663229021
 31
0.0
  0
ARC
  5
52
330
1F
100
AcDbEntity
  8
0
  6
Continuous
 62
     7
370
    15
100
AcDbCircle
 10
195.1907687226
 20
88.8663229021
 30
0.0
 40
0.3000000000000114
100
AcDbArc
 50
180.0
 51
270.0
  0
ARC
  5
53
330
1F
100
AcDbEntity
  8
0
  6
Continuous
 62
     7
370
    15
100
AcDbCircle
 10
195.1907687226
 20
151.2663229021
 30
0.0
 40
0.3000000000000114
100
AcDbArc
 50
90.0
 51
180.0
  0
ARC
  5
54
330
1F
100
AcDbEntity
  8
0
  6
Continuous
 62
     7
370
    15
100
AcDbCircle
 10
221.8407687226
 20
93.0663229021
 30
0.0
 40
1.000000000000003
100
AcDbArc
 50
90.0
 51
143.1139143113
  0
ARC
  5
55
330
1F
100
AcDbEntity
  8
0
  6
Continuous
 62
     7
370
    15
100
AcDbCircle
 10
221.8407687226
 20
147.0663229021
 30
0.0
 40
1.0
100
AcDbArc
 50
216.9001379522
 51
270.0
  0
LINE
  5
56
330
1F
100
AcDbEntity
  8
0
  6
Continuous
 62
     7
370
    15
100
AcDbLine
 10
221.8407687226
 20
94.0663229021
 30
0.0
 11
236.1234417346
 21
94.0663229021
 31
0.0
  0
LINE
  5
57
330
1F
100
AcDbEntity
  8
0
  6
Continuous
 62
     7
370
    15
100
AcDbLine
 10
236.1234417346
 20
146.0663229021
 30
0.0
 11
221.8407687226
 21
146.0663229021
 31
0.0
  0
ARC
  5
58
330
1F
100
AcDbEntity
  8
0
  6
Continuous
 62
     7
370
    15
100
AcDbCircle
 10
194.3907687226
 20
95.4958920404
 30
0.0
 40
0.6000000000000097
100
AcDbArc
 50
33.5573097619
 51
90.0
  0
ARC
  5
59
330
1F
100
AcDbEntity
  8
0
  6
Continuous
 62
     7
370
    15
100
AcDbCircle
 10
194.3907687226
 20
144.6367537638
 30
0.0
 40
0.6000000000000227
100
AcDbArc
 50
270.0
 51
326.4426902381
  0
LINE
  5
5A
330
1F
100
AcDbEntity
  8
0
  6
Continuous
 62
     7
370
    15
100
AcDbLine
 10
181.6592599238
 20
143.7240529222
 30
0.0
 11
169.0907687226
 21
143.0943689943
 31
0.0
  0
LINE
  5
5B
330
1F
100
AcDbEntity
  8
0
  6
Continuous
 62
     7
370
    15
100
AcDbLine
 10
192.8907687226
 20
144.2867537638
 30
0.0
 11
190.0737670653
 21
144.1456214163
 31
0.0
  0
LINE
  5
5C
330
1F
100
AcDbEntity
  8
0
  6
Continuous
 62
     7
370
    15
100
AcDbLine
 10
190.0738231553
 20
95.9870215778
 30
0.0
 11
192.8907687226
 21
95.8458920404
 31
0.0
  0
LINE
  5
5D
330
1F
100
AcDbEntity
  8
0
  6
Continuous
 62
     7
370
    15
100
AcDbLine
 10
173.0907687226
 20
96.8378760083
 30
0.0
 11
181.6596624425
 21
96.4085727158
 31
0.0
  0
LINE
  5
5E
330
1F
100
AcDbEntity
  8
0
  6
Continuous
 62
     7
370
    15
100
AcDbLine
 10
192.8907687226
 20
95.8458920404
 30
0.0
 11
193.747481496
 21
96.0754475362
 31
0.0
  0
LINE
  5
5F
330
1F
100
AcDbEntity
  8
0
  6
Continuous
 62
     7
370
    15
100
AcDbLine
 10
193.747481496
 20
144.0571982681
 30
0.0
 11
192.8907687226
 21
144.2867537638
 31
0.0
  0
ARC
  5
60
330
1F
100
AcDbEntity
  8
0
  6
Continuous
 62
     7
370
    15
100
AcDbCircle
 10
193.9027729231
 20
95.4958920404
 30
0.0
 40
0.6000000000000356
100
AcDbArc
 50
90.0
 51
105.0
  0
ARC
  5
61
330
1F
100
AcDbEntity
  8
0
  6
Continuous
 62
     7
370
    15
100
AcDbCircle
 10
193.9027729231
 20
144.6367537638
 30
0.0
 40
0.6000000000000356
100
AcDbArc
 50
255.0
 51
270.0
  0
LINE
  5
62
330
1F
100
AcDbEntity
  8
0
  6
Continuous
 62
     7
370
    15
100
AcDbLine
 10
193.9027729231
 20
96.0958920404
 30
0.0
 11
194.3907687226
 21
96.0958920404
 31
0.0
  0
LINE
  5
63
330
1F
100
AcDbEntity
  8
0
  6
Continuous
 62
     7
370
    15
100
AcDbLine
 10
194.3907687226
 20
144.0367537638
 30
0.0
 11
193.9027729231
 21
144.0367537638
 31
0.0
  0
ARC
  5
64
330
1F
100
AcDbEntity
  8
0
  6
Continuous
 62
     7
370
    15
100
AcDbCircle
 10
236.1234417346
 20
147.0663229021
 30
0.0
 40
1.0
100
AcDbArc
 50
270.0
 51
345.0
  0
ARC
  5
65
330
1F
100
AcDbEntity
  8
0
  6
Continuous
 62
     7
370
    15
100
AcDbCircle
 10
236.1234417346
 20
93.0663229021
 30
0.0
 40
1.0
100
AcDbArc
 50
15.0
 51
90.0
  0
LINE
  5
66
330
1F
100
AcDbEntity
  8
0
  6
Continuous
 62
     7
370
    15
100
AcDbLine
 10
238.2805272523
 20
147.0663229021
 30
0.0
 11
237.158717915
 21
147.0663229021
 31
0.0
  0
LINE
  5
67
330
1F
100
AcDbEntity
  8
0
  6
Continuous
 62
     7
370
    15
100
AcDbLine
 10
237.158717915
 20
147.0663229021
 30
0.0
 11
237.0893675609
 21
146.807503857
 31
0.0
  0
LINE
  5
68
330
1F
100
AcDbEntity
  8
0
  6
Continuous
 62
     7
370
    15
100
AcDbLine
 10
237.0893675609
 20
93.3251419472
 30
0.0
 11
239.5969506442
 21
83.9667144764
 31
0.0
  0
LINE
  5
69
330
1F
100
AcDbEntity
  8
0
  6
Continuous
 62
     7
370
    15
100
AcDbLine
 10
164.1407687226
 20
99.1963229021
 30
0.0
 11
171.6907687226
 21
99.1963229021
 31
0.0
  0
ARC
  5
6A
330
1F
100
AcDbEntity
  8
0
  6
Continuous
 62
     7
370
    15
100
AcDbCircle
 10
171.6907687226
 20
97.7963229021
 30
0.0
 40
1.4
100
AcDbArc
 50
40.9606100928
 51
90.0
  0
ARC
  5
6B
330
1F
100
AcDbEntity
  8
0
  6
Continuous
 62
     7
370
    15
100
AcDbCircle
 10
167.6907687226
 20
142.3363229021
 30
0.0
 40
1.399999999999977
100
AcDbArc
 50
270.0
 51
301.7485287426
  0
LINE
  5
6C
330
1F
100
AcDbEntity
  8
0
  6
Continuous
 62
     7
370
    15
100
AcDbLine
 10
167.6907687226
 20
140.9363229021
 30
0.0
 11
164.2884241267
 21
140.9363229021
 31
0.0
  0
LINE
  5
6D
330
1F
100
AcDbEntity
  8
0
  6
Continuous
 62
     7
370
    15
100
AcDbLine
 10
164.1236374033
 20
140.9264321303
 30
0.0
 11
163.2421332919
 21
140.4174954943
 31
0.0
  0
LINE
  5
6E
330
1F
100
AcDbEntity
  8
0
  6
Continuous
 62
     7
370
    15
100
AcDbLine
 10
164.1305121325
 20
99.2022445472
 30
0.0
 11
164.1407687226
 21
99.1963229021
 31
0.0
  0
LINE
  5
6F
330
1F
100
AcDbEntity
  8
0
  6
Continuous
 62
     7
370
    15
100
AcDbLine
 10
163.2163913967
 20
99.7300124001
 30
0.0
 11
164.1305121325
 21
99.2022445472
 31
0.0
  0
CIRCLE
  5
70
330
1F
100
AcDbEntity
  8
0
  6
Continuous
 62
     7
370
    15
100
AcDbCircle
 10
247.0333224925
 20
92.6421583536
 30
0.0
 40
3.477471370029468
  0
CIRCLE
  5
71
330
1F
100
AcDbEntity
  8
0
  6
Continuous
 62
     7
370
    15
100
AcDbCircle
 10
247.010832942
 20
92.6460717944
 30
0.0
 40
1.988027546741913
  0
SPLINE
  5
72
330
1F
100
AcDbEntity
  8
0
  6
Continuous
 62
     7
370
    15
100
AcDbSpline
210
0.0
220
0.0
230
1.0
 70
     8
 71
     3
 72
    11
 73
     7
 74
     0
 42
0.00000001
 43
0.00000001
 40
0.0
 40
0.0
 40
0.0
 40
0.0
 40
0.1081100880371161
 40
0.4711580666043574
 40
0.8135808430836187
 40
0.9999999999999999
 40
0.9999999999999999
 40
0.9999999999999999
 40
0.9999999999999999
 10
245.853878683384
 20
91.35427458624967
 30
0.0
 10
245.9083563443305
 20
91.3492329037754
 30
0.0
 10
246.1457771981166
 20
91.32726058453919
 30
0.0
 10
246.6086997153149
 20
91.2709640639076
 30
0.0
 10
247.1508137127395
 20
91.17499883826288
 30
0.0
 10
247.4473638089452
 20
91.11260711619425
 30
0.0
 10
247.551899049869
 20
91.09061375392076
 30
0.0
  0
SPLINE
  5
73
330
1F
100
AcDbEntity
  8
0
  6
Continuous
 62
     7
370
    15
100
AcDbSpline
210
0.0
220
0.0
230
1.0
 70
     8
 71
     3
 72
    10
 73
     6
 74
     0
 42
0.00000001
 43
0.00000001
 40
0.0
 40
0.0
 40
0.0
 40
0.0
 40
0.4391165375904102
 40
0.7513669429073453
 40
1.0
 40
1.0
 40
1.0
 40
1.0
 10
247.551899049869
 20
91.09061375392076
 30
0.0
 10
247.6986239459752
 20
91.29610330976936
 30
0.0
 10
247.9496831232055
 20
91.64771397837362
 30
0.0
 10
248.3495205213646
 20
92.11265798846782
 30
0.0
 10
248.558979281573
 20
92.33024077303367
 30
0.0
 10
248.6518298920399
 20
92.42669266816517
 30
0.0
  0
SPLINE
  5
74
330
1F
100
AcDbEntity
  8
0
  6
Continuous
 62
     7
370
    15
100
AcDbSpline
210
0.0
220
0.0
230
1.0
 70
     8
 71
     3
 72
    10
 73
     6
 74
     0
 42
0.00000001
 43
0.00000001
 40
0.0
 40
0.0
 40
0.0
 40
0.0
 40
0.4391165375904126
 40
0.7513669429073495
 40
1.0
 40
1.0
 40
1.0
 40
1.0
 10
248.6518298920399
 20
92.42669266816517
 30
0.0
 10
248.5554700822775
 20
92.66992730478003
 30
0.0
 10
248.390589988994
 20
93.08612311996237
 30
0.0
 10
248.1857861941993
 20
93.64495304764685
 30
0.0
 10
248.0942966216396
 20
93.9092657121787
 30
0.0
 10
248.0537403677257
 20
94.0264324147385
 30
0.0
  0
SPLINE
  5
75
330
1F
100
AcDbEntity
  8
0
  6
Continuous
 62
     7
370
    15
100
AcDbSpline
210
0.0
220
0.0
230
1.0
 70
     8
 71
     3
 72
    11
 73
     7
 74
     0
 42
0.00000001
 43
0.00000001
 40
0.0
 40
0.0
 40
0.0
 40
0.0
 40
0.1864191569163862
 40
0.5288419333956521
 40
0.8918899119628826
 40
1.0
 40
1.0
 40
1.0
 40
1.0
 10
248.0537403677257
 20
94.0264324147385
 30
0.0
 10
247.9492051268018
 20
94.048425777012
 30
0.0
 10
247.6526550305962
 20
94.11081749908062
 30
0.0
 10
247.1105410331715
 20
94.20678272472533
 30
0.0
 10
246.6476185159733
 20
94.26307924535693
 30
0.0
 10
246.4101976621871
 20
94.28505156459315
 30
0.0
 10
246.3557200012407
 20
94.29009324706742
 30
0.0
  0
SPLINE
  5
76
330
1F
100
AcDbEntity
  8
0
  6
Continuous
 62
     7
370
    15
100
AcDbSpline
210
0.0
220
0.0
230
1.0
 70
     8
 71
     3
 72
    10
 73
     6
 74
     0
 42
0.00000001
 43
0.00000001
 40
0.0
 40
0.0
 40
0.0
 40
0.0
 40
0.4391165375904105
 40
0.7513669429073482
 40
0.9999999999999999
 40
0.9999999999999999
 40
0.9999999999999999
 40
0.9999999999999999
 10
246.3557200012407
 20
94.29009324706742
 30
0.0
 10
246.1875177380239
 20
94.11304280952534
 30
0.0
 10
245.8997089003136
 20
93.81009396882267
 30
0.0
 10
245.5162064637998
 20
93.323520123732
 30
0.0
 10
245.3357731359683
 20
93.06750349850874
 30
0.0
 10
245.2557891590698
 20
92.954014332823
 30
0.0
  0
SPLINE
  5
77
330
1F
100
AcDbEntity
  8
0
  6
Continuous
 62
     7
370
    15
100
AcDbSpline
210
0.0
220
0.0
230
1.0
 70
     8
 71
     3
 72
    10
 73
     6
 74
     0
 42
0.00000001
 43
0.00000001
 40
0.0
 40
0.0
 40
0.0
 40
0.0
 40
0.4391165375904144
 40
0.7513669429073543
 40
1.0
 40
1.0
 40
1.0
 40
1.0
 10
245.2557891590698
 20
92.954014332823
 30
0.0
 10
245.3306716017215
 20
92.73921881451469
 30
0.0
 10
245.4588020345251
 20
92.37168482723396
 30
0.0
 10
245.679940790965
 20
91.79122506455292
 30
0.0
 10
245.8004557959017
 20
91.4884785593637
 30
0.0
 10
245.853878683384
 20
91.35427458624967
 30
0.0
  0
LINE
  5
78
330
1F
100
AcDbEntity
  8
0
  6
Continuous
 62
     7
370
    15
100
AcDbLine
 10
248.2617243563
 20
92.9432484185
 30
0.0
 11
248.651829892
 21
92.4266926682
 31
0.0
  0
LINE
  5
79
330
1F
100
AcDbEntity
  8
0
  6
Continuous
 62
     7
370
    15
100
AcDbLine
 10
248.2617243563
 20
92.9432484185
 30
0.0
 11
247.9626795941
 21
93.7431182918
 31
0.0
  0
LINE
  5
7A
330
1F
100
AcDbEntity
  8
0
  6
Continuous
 62
     7
370
    15
100
AcDbLine
 10
247.9626795941
 20
93.7431182918
 30
0.0
 11
247.8403052171
 21
94.0704391141
 31
0.0
  0
LINE
  5
7B
330
1F
100
AcDbEntity
  8
0
  6
Continuous
 62
     7
370
    15
100
AcDbLine
 10
247.1617935141
 20
91.6071695043
 30
0.0
 11
247.5518990499
 21
91.0906137539
 31
0.0
  0
LINE
  5
7C
330
1F
100
AcDbEntity
  8
0
  6
Continuous
 62
     7
370
    15
100
AcDbLine
 10
247.1617935141
 20
91.6071695043
 30
0.0
 11
247.7117589352
 21
92.2752089614
 31
0.0
  0
LINE
  5
7D
330
1F
100
AcDbEntity
  8
0
  6
Continuous
 62
     7
370
    15
100
AcDbLine
 10
247.7117589352
 20
92.2752089614
 30
0.0
 11
248.2617243563
 21
92.9432484185
 31
0.0
  0
LINE
  5
7E
330
1F
100
AcDbEntity
  8
0
  6
Continuous
 62
     7
370
    15
100
AcDbLine
 10
245.6630749266
 20
91.8398836684
 30
0.0
 11
246.3127833309
 21
91.7389999204
 31
0.0
  0
LINE
  5
7F
330
1F
100
AcDbEntity
  8
0
  6
Continuous
 62
     7
370
    15
100
AcDbLine
 10
246.3127833309
 20
91.7389999204
 30
0.0
 11
247.1617935141
 21
91.6071695043
 31
0.0
  0
ARC
  5
80
330
1F
100
AcDbEntity
  8
0
  6
Continuous
 62
     7
370
    15
100
AcDbCircle
 10
246.56481224
 20
93.2266656224
 30
0.0
 40
1.490220285511209
100
AcDbArc
 50
320.3223884057
 51
20.2771320803
  0
ARC
  5
81
330
1F
100
AcDbEntity
  8
0
  6
Continuous
 62
     7
370
    15
100
AcDbCircle
 10
246.5411071688
 20
93.2363766861
 30
0.0
 40
1.514684440153693
100
AcDbArc
 50
261.3301752497
 51
320.6121736669
  0
ARC
  5
82
330
1F
100
AcDbEntity
  8
0
  6
Continuous
 62
     7
370
    15
100
AcDbCircle
 10
246.5361275123
 20
93.1902146171
 30
0.0
 40
1.468300622871906
100
AcDbArc
 50
226.5198472858
 51
261.2507375623
  0
ARC
  5
83
330
1F
100
AcDbEntity
  8
0
  6
Continuous
 62
     7
370
    15
100
AcDbCircle
 10
246.5985459823
 20
93.2333181342
 30
0.0
 40
1.45628181055054
100
AcDbArc
 50
20.4915792222
 51
35.9387851982
  0
ELLIPSE
  5
84
330
1F
100
AcDbEntity
  8
0
  6
Continuous
 62
     7
370
    15
100
AcDbEllipse
 10
257.5803489734
 20
82.2558760308
 30
0.0
 11
1.895184197371634
 21
1.38965025227617
 31
0.0
210
0.0
220
0.0
230
1.0
 40
0.9861321518
 41
4.872421183339009
 42
6.7237711736252
  0
ELLIPSE
  5
85
330
1F
100
AcDbEntity
  8
0
  6
Continuous
 62
     7
370
    15
100
AcDbEllipse
 10
257.5803489734
 20
82.2558760308
 30
0.0
 11
1.895184197371634
 21
1.38965025227617
 31
0.0
210
0.0
220
0.0
230
1.0
 40
0.9861321518
 41
2.993016042735297
 42
4.872421183339017
  0
SPLINE
  5
86
330
1F
100
AcDbEntity
  8
0
  6
Continuous
 62
     7
370
    15
100
AcDbSpline
210
0.0
220
0.0
230
1.0
 70
     8
 71
     3
 72
    10
 73
     6
 74
     0
 42
0.00000001
 43
0.00000001
 40
0.0
 40
0.0
 40
0.0
 40
0.0
 40
0.3302573363796937
 40
0.7694302675143587
 40
1.0
 40
1.0
 40
1.0
 40
1.0
 10
259.5324721123264
 20
83.60056681164394
 30
0.0
 10
259.5094365780172
 20
83.66534000458354
 30
0.0
 10
259.4557686186005
 20
83.81624794721282
 30
0.0
 10
259.3551334353335
 20
83.9898904065109
 30
0.0
 10
259.2814462803232
 20
84.0843448714332
 30
0.0
 10
259.2560782867023
 20
84.1168623470133
 30
0.0
  0
LWPOLYLINE
  5
87
330
1F
100
AcDbEntity
  8
0
  6
Continuous
 62
     7
370
    15
100
AcDbPolyline
 90
        3
 70
   128
 43
0.0
 10
255.8963414826
 20
80.617593066
 10
255.6964108258
 20
80.6768227655
 10
255.684388637
 20
80.6808634568
  0
LINE
  5
88
330
1F
100
AcDbEntity
  8
0
  6
Continuous
 62
     7
370
    15
100
AcDbLine
 10
260.1493259906
 20
91.0429915625
 30
0.0
 11
253.463305102
 21
86.283612766
 31
0.0
  0
LINE
  5
89
330
1F
100
AcDbEntity
  8
0
  6
Continuous
 62
     7
370
    15
100
AcDbLine
 10
260.3431582101
 20
90.7682802418
 30
0.0
 11
260.1493259906
 21
91.0429915625
 31
0.0
  0
LINE
  5
8A
330
1F
100
AcDbEntity
  8
0
  6
Continuous
 62
     7
370
    15
100
AcDbLine
 10
260.068180298
 20
89.9244585859
 30
0.0
 11
260.3431582101
 21
90.7682802418
 31
0.0
  0
LINE
  5
8B
330
1F
100
AcDbEntity
  8
0
  6
Continuous
 62
     7
370
    15
100
AcDbLine
 10
253.6455518738
 20
86.1105828695
 30
0.0
 11
253.463305102
 21
86.283612766
 31
0.0
  0
ARC
  5
8C
330
1F
100
AcDbEntity
  8
0
  6
Continuous
 62
     7
370
    15
100
AcDbCircle
 10
264.48716959
 20
75.4697698549
 30
0.0
 40
0.4034391422339086
100
AcDbArc
 50
265.894863421
 51
4.6951137195
  0
LINE
  5
8D
330
1F
100
AcDbEntity
  8
0
  6
Continuous
 62
     7
370
    15
100
AcDbLine
 10
256.3237297186
 20
75.6570136874
 30
0.0
 11
264.4582886467
 21
75.0673657886
 31
0.0
  0
LINE
  5
8E
330
1F
100
AcDbEntity
  8
0
  6
Continuous
 62
     7
370
    15
100
AcDbLine
 10
248.9231541938
 20
78.9849448795
 30
0.0
 11
256.3237297186
 21
75.6570136874
 31
0.0
  0
ARC
  5
8F
330
1F
100
AcDbEntity
  8
0
  6
Continuous
 62
     7
370
    15
100
AcDbCircle
 10
249.0853066322
 20
79.342003704
 30
0.0
 40
0.392153563511846
100
AcDbArc
 50
144.6610271937
 51
245.5756012451
  0
LINE
  5
90
330
1F
100
AcDbEntity
  8
0
  6
Continuous
 62
     7
370
    15
100
AcDbLine
 10
253.4490234683
 20
86.2976244062
 30
0.0
 11
248.7654095822
 21
79.5688302782
 31
0.0
  0
LINE
  5
91
330
1F
100
AcDbEntity
  8
0
  6
Continuous
 62
     7
370
    15
100
AcDbLine
 10
260.1379173041
 20
91.0590482821
 30
0.0
 11
253.4490234683
 21
86.2976244062
 31
0.0
  0
ARC
  5
92
330
1F
100
AcDbEntity
  8
0
  6
Continuous
 62
     7
370
    15
100
AcDbCircle
 10
260.3702985364
 20
90.7390607033
 30
0.0
 40
0.3954656593102024
100
AcDbArc
 50
25.7051263171
 51
125.9878859011
  0
LINE
  5
93
330
1F
100
AcDbEntity
  8
0
  6
Continuous
 62
     7
370
    15
100
AcDbLine
 10
264.1775732512
 20
83.5921478342
 30
0.0
 11
260.7266282092
 21
90.910589861
 31
0.0
  0
LINE
  5
94
330
1F
100
AcDbEntity
  8
0
  6
Continuous
 62
     7
370
    15
100
AcDbLine
 10
264.8892549402
 20
75.5027927662
 30
0.0
 11
264.1775732512
 21
83.5921478342
 31
0.0
  0
ARC
  5
95
330
1F
100
AcDbEntity
  8
0
  6
Continuous
 62
     7
370
    15
100
AcDbCircle
 10
264.4874591087
 20
75.4694050056
 30
0.0
 40
0.3832671851222259
100
AcDbArc
 50
265.894863421
 51
4.6951137195
  0
LINE
  5
96
330
1F
100
AcDbEntity
  8
0
  6
Continuous
 62
     7
370
    15
100
AcDbLine
 10
264.8694401914
 20
75.5007767713
 30
0.0
 11
264.1580641769
 21
83.58665738
 31
0.0
  0
LINE
  5
97
330
1F
100
AcDbEntity
  8
0
  6
Continuous
 62
     7
370
    15
100
AcDbLine
 10
264.1580641769
 20
83.58665738
 30
0.0
 11
260.7086013502
 21
90.9019560623
 31
0.0
  0
ARC
  5
98
330
1F
100
AcDbEntity
  8
0
  6
Continuous
 62
     7
370
    15
100
AcDbCircle
 10
260.370088161
 20
90.7390033622
 30
0.0
 40
0.3756923764909692
100
AcDbArc
 50
25.7051263567
 51
125.9878858277
  0
LINE
  5
99
330
1F
100
AcDbEntity
  8
0
  6
Continuous
 62
     7
370
    15
100
AcDbLine
 10
253.463305102
 20
86.283612766
 30
0.0
 11
248.7817028751
 21
79.5577087227
 31
0.0
  0
ARC
  5
9A
330
1F
100
AcDbEntity
  8
0
  6
Continuous
 62
     7
370
    15
100
AcDbCircle
 10
249.0856050726
 20
79.3422234772
 30
0.0
 40
0.3725458853361963
100
AcDbArc
 50
144.6610271937
 51
245.5756012451
  0
LINE
  5
9B
330
1F
100
AcDbEntity
  8
0
  6
Continuous
 62
     7
370
    15
100
AcDbLine
 10
248.9315602561
 20
79.003017594
 30
0.0
 11
256.3289571593
 21
75.6765157818
 31
0.0
  0
LINE
  5
9C
330
1F
100
AcDbEntity
  8
0
  6
Continuous
 62
     7
370
    15
100
AcDbLine
 10
256.3289571593
 20
75.6765157818
 30
0.0
 11
264.4600222126
 21
75.0871211426
 31
0.0
  0
LINE
  5
9D
330
1F
100
AcDbEntity
  8
0
  6
Continuous
 62
     7
370
    15
100
AcDbLine
 10
253.3146114876
 20
86.4756051709
 30
0.0
 11
253.4490234683
 21
86.2976244062
 31
0.0
  0
LINE
  5
9E
330
1F
100
AcDbEntity
  8
0
  6
Continuous
 62
     7
370
    15
100
AcDbLine
 10
259.640361819
 20
91.7178831958
 30
0.0
 11
256.6854898158
 21
89.6144863635
 31
0.0
  0
SPLINE
  5
9F
330
1F
100
AcDbEntity
  8
0
  6
Continuous
 62
     7
370
    15
100
AcDbSpline
210
0.0
220
0.0
230
1.0
 70
     8
 71
     3
 72
    11
 73
     7
 74
     0
 42
0.00000001
 43
0.00000001
 40
0.0
 40
0.0
 40
0.0
 40
0.0
 40
0.0048811438300559
 40
0.3156500457815659
 40
0.6571801970775951
 40
1.0
 40
1.0
 40
1.0
 40
1.0
 10
259.7092837046831
 20
88.49648270475804
 30
0.0
 10
259.7097050576891
 20
88.49870473526965
 30
0.0
 10
259.7369527890132
 20
88.64239729118364
 30
0.0
 10
259.8021927824444
 20
88.95525960254155
 30
0.0
 10
259.9239921827067
 20
89.45487280075537
 30
0.0
 10
260.0200572482947
 20
89.76773346308829
 30
0.0
 10
260.0681802979854
 20
89.92445858587381
 30
0.0
  0
LINE
  5
A0
330
1F
100
AcDbEntity
  8
0
  6
Continuous
 62
     7
370
    15
100
AcDbLine
 10
249.0683426159
 20
79.3767655205
 30
0.0
 11
248.7817028751
 21
79.5577087227
 31
0.0
  0
LINE
  5
A1
330
1F
100
AcDbEntity
  8
0
  6
Continuous
 62
     7
370
    15
100
AcDbLine
 10
249.9241568685
 20
79.6754402082
 30
0.0
 11
249.0683426159
 21
79.3767655205
 31
0.0
  0
LINE
  5
A2
330
1F
100
AcDbEntity
  8
0
  6
Continuous
 62
     7
370
    15
100
AcDbLine
 10
260.3431582101
 20
90.7682802418
 30
0.0
 11
260.7086013502
 21
90.9019560623
 31
0.0
  0
LINE
  5
A3
330
1F
100
AcDbEntity
  8
0
  6
Continuous
 62
     7
370
    15
100
AcDbLine
 10
263.8693040163
 20
83.5324038556
 30
0.0
 11
264.1580641769
 21
83.58665738
 31
0.0
  0
ARC
  5
A4
330
1F
100
AcDbEntity
  8
0
  6
Continuous
 62
     7
370
    15
100
AcDbCircle
 10
259.8729519256
 20
91.3969072387
 30
0.0
 40
0.396388348345825
100
AcDbArc
 50
37.4267288511
 51
125.9283658729
  0
SPLINE
  5
A5
330
1F
100
AcDbEntity
  8
0
  6
Continuous
 62
     7
370
    15
100
AcDbSpline
210
0.0
220
0.0
230
1.0
 70
     8
 71
     3
 72
    11
 73
     7
 74
     0
 42
0.00000001
 43
0.00000001
 40
0.0
 40
0.0
 40
0.0
 40
0.0
 40
0.3224837050121974
 40
0.6449232485211719
 40
0.9911766421304135
 40
1.0
 40
1.0
 40
1.0
 40
1.0
 10
253.6455518737571
 20
86.11058286946573
 30
0.0
 10
253.7471592073535
 20
86.01336445903559
 30
0.0
 10
253.9503599602536
 20
85.81894095144067
 30
0.0
 10
254.3230998143775
 20
85.45313896706445
 30
0.0
 10
254.5744504102234
 20
85.20234183699382
 30
0.0
 10
254.6966943037032
 20
85.07911519555655
 30
0.0
 10
254.6997319613787
 20
85.0760531174229
 30
0.0
  0
SPLINE
  5
A6
330
1F
100
AcDbEntity
  8
0
  6
Continuous
 62
     7
370
    15
100
AcDbSpline
210
0.0
220
0.0
230
1.0
 70
     8
 71
     3
 72
    11
 73
     7
 74
     0
 42
0.00000001
 43
0.00000001
 40
0.0
 40
0.0
 40
0.0
 40
0.0
 40
0.3428198029224139
 40
0.6843499542184596
 40
0.9951188561699893
 40
1.0
 40
1.0
 40
1.0
 40
1.0
 10
249.9241568684602
 20
79.67544020819214
 30
0.0
 10
250.0824028080262
 20
79.72722008129604
 30
0.0
 10
250.3982993827694
 20
79.83058503713004
 30
0.0
 10
250.8951877859035
 20
79.95606332368199
 30
0.0
 10
251.203700757301
 20
80.02082247897823
 30
0.0
 10
251.3447450422758
 20
80.04716383316475
 30
0.0
 10
251.3469261205001
 20
80.04757117015131
 30
0.0
  0
LINE
  5
A7
330
1F
100
AcDbEntity
  8
0
  6
Continuous
 62
     7
370
    15
100
AcDbLine
 10
258.7464903083
 20
87.6266084676
 30
0.0
 11
255.0351158217
 21
84.984702717
 31
0.0
  0
ARC
  5
A8
330
1F
100
AcDbEntity
  8
0
  6
Continuous
 62
     7
370
    15
100
AcDbCircle
 10
261.2499149556
 20
82.7786686223
 30
0.0
 40
0.97625220991331
100
AcDbArc
 50
5.007917509
 51
25.2287109298
  0
LINE
  5
A9
330
1F
100
AcDbEntity
  8
0
  6
Continuous
 62
     7
370
    15
100
AcDbLine
 10
262.6173214905
 20
78.3754598591
 30
0.0
 11
262.2224404641
 21
82.8638889996
 31
0.0
  0
ARC
  5
AA
330
1F
100
AcDbEntity
  8
0
  6
Continuous
 62
     7
370
    15
100
AcDbCircle
 10
261.612108115
 20
78.292902581
 30
0.0
 40
1.008597855584762
100
AcDbArc
 50
265.894863421
 51
4.6951137195
  0
LINE
  5
AB
330
1F
100
AcDbEntity
  8
0
  6
Continuous
 62
     7
370
    15
100
AcDbLine
 10
257.0263949723
 20
77.6140622315
 30
0.0
 11
261.5399057567
 21
77.2868924152
 31
0.0
  0
ARC
  5
AC
330
1F
100
AcDbEntity
  8
0
  6
Continuous
 62
     7
370
    15
100
AcDbCircle
 10
257.097330669
 20
78.5989167954
 30
0.0
 40
0.9874058866859237
100
AcDbArc
 50
245.8127164438
 51
265.8802957743
  0
LINE
  5
AD
330
1F
100
AcDbEntity
  8
0
  6
Continuous
 62
     7
370
    15
100
AcDbLine
 10
252.5865146394
 20
79.5447176011
 30
0.0
 11
256.6927701521
 21
77.6981942114
 31
0.0
  0
ARC
  5
AE
330
1F
100
AcDbEntity
  8
0
  6
Continuous
 62
     7
370
    15
100
AcDbCircle
 10
252.9918957354
 20
80.4373646621
 30
0.0
 40
0.9803839087796375
100
AcDbArc
 50
144.6610271937
 51
245.5756012451
  0
LINE
  5
AF
330
1F
100
AcDbEntity
  8
0
  6
Continuous
 62
     7
370
    15
100
AcDbLine
 10
254.7908855029
 20
84.7379445102
 30
0.0
 11
252.1921531104
 21
81.0044310977
 31
0.0
  0
ARC
  5
B0
330
1F
100
AcDbEntity
  8
0
  6
Continuous
 62
     7
370
    15
100
AcDbCircle
 10
255.6231667045
 20
84.158432791
 30
0.0
 40
1.014162625652181
100
AcDbArc
 50
125.4392084678
 51
145.1507687801
  0
ARC
  5
B1
330
1F
100
AcDbEntity
  8
0
  6
Continuous
 62
     7
370
    15
100
AcDbCircle
 10
259.3274433889
 20
86.8266395206
 30
0.0
 40
0.9886641482756148
100
AcDbArc
 50
25.7051263171
 51
125.9878859011
  0
LINE
  5
B2
330
1F
100
AcDbEntity
  8
0
  6
Continuous
 62
     7
370
    15
100
AcDbLine
 10
262.133045963
 20
83.1947791861
 30
0.0
 11
260.2182675711
 21
87.2554624149
 31
0.0
  0
CIRCLE
  5
B3
330
1F
100
AcDbEntity
  8
0
  6
Continuous
 62
     7
370
    15
100
AcDbCircle
 10
258.0075593686
 20
81.8649025215
 30
0.0
 40
2.550803993288066
  0
LINE
  5
B4
330
1F
100
AcDbEntity
  8
0
  6
Continuous
 62
     7
370
    15
100
AcDbLine
 10
249.0683426159
 20
79.3767655205
 30
0.0
 11
248.9315602561
 21
79.003017594
 31
0.0
  0
LINE
  5
B5
330
1F
100
AcDbEntity
  8
0
  6
Continuous
 62
     7
370
    15
100
AcDbLine
 10
256.384998004
 20
75.9706320993
 30
0.0
 11
256.3289571593
 21
75.6765157818
 31
0.0
  0
ARC
  5
B6
330
1F
100
AcDbEntity
  8
0
  6
Continuous
 62
     7
370
    15
100
AcDbCircle
 10
257.4394868902
 20
82.4813531337
 30
0.0
 40
2.527863215755296
100
AcDbArc
 50
226.6171159698
 51
260.0953213465
  0
ARC
  5
B7
330
1F
100
AcDbEntity
  8
0
  6
Continuous
 62
     7
370
    15
100
AcDbCircle
 10
257.4931581598
 20
82.5400585208
 30
0.0
 40
2.557583243417881
100
AcDbArc
 50
322.3597493977
 51
27.286041507
  0
SPLINE
  5
B8
330
1F
100
AcDbEntity
  8
0
  6
Continuous
 62
     7
370
    15
100
AcDbSpline
210
0.0
220
0.0
230
1.0
 70
     8
 71
     3
 72
    11
 73
     7
 74
     0
 42
0.00000001
 43
0.00000001
 40
0.0
 40
0.0
 40
0.0
 40
0.0
 40
0.0088233741927932
 40
0.355998315295589
 40
0.6780419869442634
 40
1.0
 40
1.0
 40
1.0
 40
1.0
 10
262.43119065998
 20
83.12636925520755
 30
0.0
 10
262.434775670659
 20
83.12776125798003
 30
0.0
 10
262.5794207615445
 20
83.1839246520579
 30
0.0
 10
262.8941803493582
 20
83.29214742019103
 30
0.0
 10
263.4026015673351
 20
83.43567074958516
 30
0.0
 10
263.7137503285904
 20
83.50016234624691
 30
0.0
 10
263.8693040162869
 20
83.53240385556774
 30
0.0
  0
LINE
  5
B9
330
1F
100
AcDbEntity
  8
0
  6
Continuous
 62
     7
370
    15
100
AcDbLine
 10
264.4700271406
 20
75.4928392215
 30
0.0
 11
264.8694401914
 21
75.5007767713
 31
0.0
  0
LINE
  5
BA
330
1F
100
AcDbEntity
  8
0
  6
Continuous
 62
     7
370
    15
100
AcDbLine
 10
263.7811505698
 20
76.1810469699
 30
0.0
 11
264.4700271406
 21
75.4928392215
 31
0.0
  0
LINE
  5
BB
330
1F
100
AcDbEntity
  8
0
  6
Continuous
 62
     7
370
    15
100
AcDbLine
 10
264.4700271406
 20
75.4928392215
 30
0.0
 11
264.4600222126
 21
75.0871211426
 31
0.0
  0
SPLINE
  5
BC
330
1F
100
AcDbEntity
  8
0
  6
Continuous
 62
     7
370
    15
100
AcDbSpline
210
0.0
220
0.0
230
1.0
 70
     8
 71
     3
 72
    11
 73
     7
 74
     0
 42
0.00000001
 43
0.00000001
 40
0.0
 40
0.0
 40
0.0
 40
0.0
 40
0.3219798907253691
 40
0.6440235861688346
 40
0.9911766261994245
 40
1.0
 40
1.0
 40
1.0
 40
1.0
 10
256.3849980039631
 20
75.97063209928287
 30
0.0
 10
256.4175707206949
 20
76.12847291337513
 30
0.0
 10
256.4827226088879
 20
76.44418581987526
 30
0.0
 10
256.6193009475443
 20
76.95233527425695
 30
0.0
 10
256.7191468395113
 20
77.26299993792745
 30
0.0
 10
256.7701069580989
 20
77.4044608198304
 30
0.0
 10
256.7713700759847
 20
77.40796712584027
 30
0.0
  0
SPLINE
  5
BD
330
1F
100
AcDbEntity
  8
0
  6
Continuous
 62
     7
370
    15
100
AcDbSpline
210
0.0
220
0.0
230
1.0
 70
     8
 71
     3
 72
    11
 73
     7
 74
     0
 42
0.00000001
 43
0.00000001
 40
0.0
 40
0.0
 40
0.0
 40
0.0
 40
0.0048811438300704
 40
0.3156500457815783
 40
0.6571801970776079
 40
1.0
 40
1.0
 40
1.0
 40
1.0
 10
262.7701190160234
 20
77.16692267785774
 30
0.0
 10
262.7714929249713
 20
77.16561886047975
 30
0.0
 10
262.8603398095152
 20
77.0813046035392
 30
0.0
 10
263.0623828828132
 20
76.88779576207166
 30
0.0
 10
263.4106377361303
 20
76.54919311793071
 30
0.0
 10
263.6574912274642
 20
76.30391642654185
 30
0.0
 10
263.7811505697761
 20
76.1810469699355
 30
0.0
  0
LINE
  5
BE
330
1F
100
AcDbEntity
  8
0
  6
Continuous
 62
     7
370
    15
100
AcDbLine
 10
259.0578341094
 20
91.303216524
 30
0.0
 11
256.6854898158
 21
89.6144863635
 31
0.0
  0
LINE
  5
BF
330
1F
100
AcDbEntity
  8
0
  6
Continuous
 62
     7
370
    15
100
AcDbLine
 10
264.3297199537
 20
76.8661198717
 30
0.0
 11
263.680017766
 21
84.2509827479
 31
0.0
  0
LINE
  5
C0
330
1F
100
AcDbEntity
  8
0
  6
Continuous
 62
     7
370
    15
100
AcDbLine
 10
258.5916371633
 20
91.9205282289
 30
0.0
 11
256.387156328
 21
90.3512900349
 31
0.0
  0
ARC
  5
C1
330
1F
100
AcDbEntity
  8
0
  6
Continuous
 62
     7
370
    15
100
AcDbCircle
 10
259.1730667452
 20
91.1137558079
 30
0.0
 40
0.9944556793005983
100
AcDbArc
 50
43.0065995994
 51
125.779764245
  0
LINE
  5
C2
330
1F
100
AcDbEntity
  8
0
  6
Continuous
 62
     7
370
    15
100
AcDbLine
 10
199.8407687226
 20
139.9163229021
 30
0.0
 11
209.4988358911
 21
139.9163229021
 31
0.0
  0
LINE
  5
C3
330
1F
100
AcDbEntity
  8
0
  6
Continuous
 62
     7
370
    15
100
AcDbLine
 10
209.4988358911
 20
89.8794052059
 30
0.0
 11
209.4988358911
 21
139.9163229021
 31
0.0
  0
LINE
  5
C4
330
1F
100
AcDbEntity
  8
0
  6
Continuous
 62
     7
370
    15
100
AcDbLine
 10
209.4988358911
 20
89.8794052059
 30
0.0
 11
207.8407687226
 21
89.8794052059
 31
0.0
  0
SPLINE
  5
C5
330
1F
100
AcDbEntity
  8
0
  6
Continuous
 62
     7
370
    15
100
AcDbSpline
210
0.0
220
0.0
230
1.0
 70
     8
 71
     3
 72
    28
 73
    24
 74
     0
 42
0.00000001
 43
0.00000001
 40
0.0
 40
0.0
 40
0.0
 40
0.0
 40
0.125
 40
0.125
 40
0.1875
 40
0.1875
 40
0.25
 40
0.25
 40
0.375
 40
0.375
 40
0.4374999999999998
 40
0.4374999999999998
 40
0.4999999999999998
 40
0.4999999999999998
 40
0.6249999999999998
 40
0.6249999999999998
 40
0.7499999999999998
 40
0.7499999999999998
 40
0.8124999999999999
 40
0.8124999999999999
 40
0.875
 40
0.875
 40
1.0
 40
1.0
 40
1.0
 40
1.0
 10
207.8407687226066
 20
89.8794052058748
 30
0.0
 10
207.3090609651136
 20
89.8794052058748
 30
0.0
 10
206.7868223998033
 20
89.86362049192459
 30
0.0
 10
206.0169519135283
 20
89.81862507784837
 30
0.0
 10
205.762592341337
 20
89.80007008277265
 30
0.0
 10
205.2584707606385
 20
89.75621736032615
 30
0.0
 10
205.0087479432106
 20
89.73087275337394
 30
0.0
 10
204.2831579917641
 20
89.64747067562384
 30
0.0
 10
203.8247977301826
 20
89.58160511647276
 30
0.0
 10
203.1742997867887
 20
89.47263477598095
 30
0.0
 10
202.9626177359963
 20
89.4343951402143
 30
0.0
 10
202.5585462468583
 20
89.35663640279495
 30
0.0
 10
202.3660397330374
 20
89.31713544061962
 30
0.0
 10
201.8162047620161
 20
89.19822769825362
 30
0.0
 10
201.4862759837073
 20
89.11841001682899
 30
0.0
 10
200.9018047151386
 20
88.96506685503293
 30
0.0
 10
200.6555275771252
 20
88.89373310176369
 30
0.0
 10
200.3556847844271
 20
88.79978959468906
 30
0.0
 10
200.2672279273549
 20
88.77059580132912
 30
0.0
 10
200.1138665740498
 20
88.71712922706571
 30
0.0
 10
200.0487783598236
 20
88.69276989279054
 30
0.0
 10
199.8931843438828
 20
88.6291797473458
 30
0.0
 10
199.8407687226066
 20
88.59907681225657
 30
0.0
 10
199.8407687226066
 20
88.58219991925964
 30
0.0
  0
LINE
  5
C6
330
1F
100
AcDbEntity
  8
0
  6
Continuous
 62
     7
370
    15
100
AcDbLine
 10
199.8407687226
 20
88.5821999193
 30
0.0
 11
199.8407687226
 21
88.5663229021
 31
0.0
  0
SPLINE
  5
C7
330
1F
100
AcDbEntity
  8
0
  6
Continuous
 62
     7
370
    15
100
AcDbSpline
210
0.0
220
0.0
230
1.0
 70
     8
 71
     3
 72
    22
 73
    18
 74
     0
 42
0.00000001
 43
0.00000001
 40
0.0
 40
0.0
 40
0.0
 40
0.0
 40
0.0515773377536172
 40
0.1565264849943628
 40
0.2100197540385882
 40
0.2615951369298744
 40
0.3664424119934938
 40
0.4198226601719798
 40
0.4724528789006779
 40
0.5794488992297335
 40
0.6339397336480277
 40
0.6872670452602936
 40
0.7409741315029974
 40
0.7958968813361823
 40
0.8512481408256357
 40
0.9034470736265856
 40
1.0
 40
1.0
 40
1.0
 40
1.0
 10
207.8407687226066
 20
150.5335183752861
 30
0.0
 10
207.6239585266041
 20
150.5349149963546
 30
0.0
 10
206.9659847076894
 20
150.5391534506109
 30
0.0
 10
206.0908897303584
 20
150.5786857749652
 30
0.0
 10
205.2460642355016
 20
150.641659021807
 30
0.0
 10
204.4263389518973
 20
150.7196730550623
 30
0.0
 10
203.650548973869
 20
150.8165561829374
 30
0.0
 10
202.9330605125625
 20
150.9248155948533
 30
0.0
 10
202.2537957653904
 20
151.0385339671579
 30
0.0
 10
201.6454807874815
 20
151.1550341520987
 30
0.0
 10
201.1253888467583
 20
151.2641344035157
 30
0.0
 10
200.7814986690422
 20
151.3401383012457
 30
0.0
 10
200.4865449413146
 20
151.4081717571673
 30
0.0
 10
200.2407706539735
 20
151.4668848079259
 30
0.0
 10
200.054868345
 20
151.5125001878595
 30
0.0
 10
199.8832717392763
 20
151.5554596394202
 30
0.0
 10
199.8631424641001
 20
151.5606206612222
 30
0.0
 10
199.8500768094264
 20
151.5639706143645
 30
0.0
  0
LINE
  5
C8
330
1F
100
AcDbEntity
  8
0
  6
Continuous
 62
     7
370
    15
100
AcDbLine
 10
209.4988358911
 20
150.5335183753
 30
0.0
 11
207.8407687226
 21
150.5335183753
 31
0.0
  0
LINE
  5
C9
330
1F
100
AcDbEntity
  8
0
  6
Continuous
 62
     7
370
    15
100
AcDbLine
 10
209.4988358911
 20
144.5250125645
 30
0.0
 11
209.4988358911
 21
150.5335183753
 31
0.0
  0
LINE
  5
CA
330
1F
100
AcDbEntity
  8
0
  6
Continuous
 62
     7
370
    15
100
AcDbLine
 10
207.0863890683
 20
144.5250125645
 30
0.0
 11
209.4988358911
 21
144.5250125645
 31
0.0
  0
SPLINE
  5
CB
330
1F
100
AcDbEntity
  8
0
  6
Continuous
 62
     7
370
    15
100
AcDbSpline
210
0.0
220
0.0
230
1.0
 70
     8
 71
     3
 72
    20
 73
    16
 74
     0
 42
0.00000001
 43
0.00000001
 40
0.0
 40
0.0
 40
0.0
 40
0.0
 40
0.2499999999999995
 40
0.2499999999999995
 40
0.3749999999999996
 40
0.3749999999999996
 40
0.4999999999999997
 40
0.4999999999999997
 40
0.6249999999999998
 40
0.6249999999999998
 40
0.7499999999999998
 40
0.7499999999999998
 40
0.8749999999999999
 40
0.8749999999999999
 40
1.0
 40
1.0
 40
1.0
 40
1.0
 10
199.8407687226066
 20
139.9163229021219
 30
0.0
 10
200.0891424568946
 20
140.5701853304193
 30
0.0
 10
200.4087125492399
 20
141.1739711124165
 30
0.0
 10
201.0310187824446
 20
142.0008098485851
 30
0.0
 10
201.2624430428754
 20
142.263238486538
 30
0.0
 10
201.7836573825251
 20
142.7599011406429
 30
0.0
 10
202.0702778651601
 20
142.9904880196645
 30
0.0
 10
202.6897626064678
 20
143.4070422442471
 30
0.0
 10
203.0240629859547
 20
143.5945400462146
 30
0.0
 10
203.7493234585795
 20
143.925937023851
 30
0.0
 10
204.13123851597
 20
144.0654410113463
 30
0.0
 10
204.9260266921416
 20
144.2908945188173
 30
0.0
 10
205.340184886348
 20
144.3775206303609
 30
0.0
 10
206.2057312269294
 20
144.495501419215
 30
0.0
 10
206.6436188419412
 20
144.5250125644893
 30
0.0
 10
207.0863890682959
 20
144.5250125644893
 30
0.0
  0
LINE
  5
CC
330
1F
100
AcDbEntity
  8
0
  6
Continuous
 62
     7
370
    15
100
AcDbLine
 10
216.2827015541
 20
89.8794052059
 30
0.0
 11
216.2827015541
 21
139.9163229021
 31
0.0
  0
SPLINE
  5
CD
330
1F
100
AcDbEntity
  8
0
  6
Continuous
 62
     7
370
    15
100
AcDbSpline
210
0.0
220
0.0
230
1.0
 70
     8
 71
     3
 72
     8
 73
     4
 74
     0
 42
0.00000001
 43
0.00000001
 40
0.0
 40
0.0
 40
0.0
 40
0.0
 40
1.0
 40
1.0
 40
1.0
 40
1.0
 10
216.2827015540956
 20
89.87940520587479
 30
0.0
 10
215.7872218934299
 20
90.77493129380812
 30
0.0
 10
215.2931078453877
 20
91.67121570886037
 30
0.0
 10
214.8007687226066
 20
92.56848574306706
 30
0.0
  0
LINE
  5
CE
330
1F
100
AcDbEntity
  8
0
  6
Continuous
 62
     7
370
    15
100
AcDbLine
 10
214.8007687226
 20
92.5684857431
 30
0.0
 11
214.8007687226
 21
139.9163229021
 31
0.0
  0
SPLINE
  5
CF
330
1F
100
AcDbEntity
  8
0
  6
Continuous
 62
     7
370
    15
100
AcDbSpline
210
0.0
220
0.0
230
1.0
 70
    24
 71
     3
 72
     8
 73
     4
 74
     0
 42
0.00000001
 43
0.00000001
 40
0.0
 40
0.0
 40
0.0
 40
0.0
 40
1.0
 40
1.0
 40
1.0
 40
1.0
 10
214.8007687226066
 20
139.9163229021219
 30
0.0
 10
215.2807207169715
 20
139.9163229021219
 30
0.0
 10
215.7760214459451
 20
139.9163229021219
 30
0.0
 10
216.2827015540956
 20
139.9163229021219
 30
0.0
  0
LINE
  5
D0
330
1F
100
AcDbEntity
  8
0
  6
Continuous
 62
     7
370
    15
100
AcDbLine
 10
220.2407687226
 20
89.8794052059
 30
0.0
 11
216.2827015541
 21
89.8794052059
 31
0.0
  0
LINE
  5
D1
330
1F
100
AcDbEntity
  8
0
  6
Continuous
 62
     7
370
    15
100
AcDbLine
 10
216.2827015541
 20
139.9163229021
 30
0.0
 11
220.2407687226
 21
139.9163229021
 31
0.0
  0
LINE
  5
D2
330
1F
100
AcDbEntity
  8
0
  6
Continuous
 62
     7
370
    15
100
AcDbLine
 10
210.9807687226
 20
92.5684857431
 30
0.0
 11
210.9807687226
 21
139.9163229021
 31
0.0
  0
SPLINE
  5
D3
330
1F
100
AcDbEntity
  8
0
  6
Continuous
 62
     7
370
    15
100
AcDbSpline
210
0.0
220
0.0
230
1.0
 70
     8
 71
     3
 72
     8
 73
     4
 74
     0
 42
0.00000001
 43
0.00000001
 40
0.0
 40
0.0
 40
0.0
 40
0.0
 40
1.0
 40
1.0
 40
1.0
 40
1.0
 10
210.9807687226066
 20
92.56848574306709
 30
0.0
 10
210.4884295998254
 20
91.67121570886039
 30
0.0
 10
209.9943155517833
 20
90.77493129380814
 30
0.0
 10
209.4988358911175
 20
89.87940520587479
 30
0.0
  0
SPLINE
  5
D4
330
1F
100
AcDbEntity
  8
0
  6
Continuous
 62
     7
370
    15
100
AcDbSpline
210
0.0
220
0.0
230
1.0
 70
    24
 71
     3
 72
     8
 73
     4
 74
     0
 42
0.00000001
 43
0.00000001
 40
0.0
 40
0.0
 40
0.0
 40
0.0
 40
1.0
 40
1.0
 40
1.0
 40
1.0
 10
209.4988358911175
 20
139.9163229021219
 30
0.0
 10
210.0055159992681
 20
139.9163229021219
 30
0.0
 10
210.5008167282417
 20
139.9163229021219
 30
0.0
 10
210.9807687226066
 20
139.9163229021219
 30
0.0
  0
LINE
  5
D5
330
1F
100
AcDbEntity
  8
0
  6
Continuous
 62
     7
370
    15
100
AcDbLine
 10
220.8407687226
 20
90.5060455015
 30
0.0
 11
220.8407687226
 21
139.9163229021
 31
0.0
  0
SPLINE
  5
D6
330
1F
100
AcDbEntity
  8
0
  6
Continuous
 62
     7
370
    15
100
AcDbSpline
210
0.0
220
0.0
230
1.0
 70
     8
 71
     3
 72
    10
 73
     6
 74
     0
 42
0.00000001
 43
0.00000001
 40
0.0
 40
0.0
 40
0.0
 40
0.0
 40
0.5
 40
0.5
 40
1.0
 40
1.0
 40
1.0
 40
1.0
 10
220.8407687226066
 20
90.50604550152912
 30
0.0
 10
220.8407687226066
 20
90.34615823333544
 30
0.0
 10
220.7794590713708
 20
90.18503097782086
 30
0.0
 10
220.5603594338357
 20
89.950931979466
 30
0.0
 10
220.4023112275222
 20
89.87940520587478
 30
0.0
 10
220.2407687226066
 20
89.87940520587478
 30
0.0
  0
SPLINE
  5
D7
330
1F
100
AcDbEntity
  8
0
  6
Continuous
 62
     7
370
    15
100
AcDbSpline
210
0.0
220
0.0
230
1.0
 70
    24
 71
     3
 72
    12
 73
     8
 74
     0
 42
0.00000001
 43
0.00000001
 40
0.0
 40
0.0
 40
0.0
 40
0.0
 40
0.25
 40
0.25
 40
0.5
 40
0.5
 40
1.0
 40
1.0
 40
1.0
 40
1.0
 10
220.2407687226066
 20
139.9163229021219
 30
0.0
 10
220.3310077902936
 20
139.9163229021219
 30
0.0
 10
220.4219059044001
 20
139.9163229021219
 30
0.0
 10
220.5765029408886
 20
139.9163229021219
 30
0.0
 10
220.6414813569968
 20
139.9163229021219
 30
0.0
 10
220.793316384933
 20
139.9163229021219
 30
0.0
 10
220.8407687226066
 20
139.9163229021219
 30
0.0
 10
220.8407687226066
 20
139.9163229021219
 30
0.0
  0
LINE
  5
D8
330
1F
100
AcDbEntity
  8
0
  6
Continuous
 62
     7
370
    15
100
AcDbLine
 10
194.8907687226
 20
88.8663229021
 30
0.0
 11
194.8907687226
 21
151.2663229021
 31
0.0
  0
SPLINE
  5
D9
330
1F
100
AcDbEntity
  8
0
  6
Continuous
 62
     7
370
    15
100
AcDbSpline
210
0.0
220
0.0
230
1.0
 70
    24
 71
     3
 72
    14
 73
    10
 74
     0
 42
0.00000001
 43
0.00000001
 40
0.0
 40
0.0
 40
0.0
 40
0.0
 40
0.4999999999999942
 40
0.4999999999999942
 40
0.749999999999994
 40
0.749999999999994
 40
0.874999999999997
 40
0.874999999999997
 40
1.0
 40
1.0
 40
1.0
 40
1.0
 10
214.7030939202743
 20
93.66632290212193
 30
0.0
 10
214.6563092152261
 20
93.66632290212193
 30
0.0
 10
214.5942580184465
 20
93.66632290212193
 30
0.0
 10
214.4508663798959
 20
93.66632290212195
 30
0.0
 10
214.3947227263447
 20
93.66632290212193
 30
0.0
 10
214.2817717042085
 20
93.66632290212193
 30
0.0
 10
214.2387709421704
 20
93.66632290212193
 30
0.0
 10
214.1347082318639
 20
93.66632290212193
 30
0.0
 10
214.069375993507
 20
93.66632290212193
 30
0.0
 10
214.0007687226066
 20
93.66632290212193
 30
0.0
  0
SPLINE
  5
DA
330
1F
100
AcDbEntity
  8
0
  6
Continuous
 62
     7
370
    15
100
AcDbSpline
210
0.0
220
0.0
230
1.0
 70
    24
 71
     3
 72
    12
 73
     8
 74
     0
 42
0.00000001
 43
0.00000001
 40
0.0
 40
0.0
 40
0.0
 40
0.0
 40
0.4999999999999942
 40
0.4999999999999942
 40
0.7499999999999971
 40
0.7499999999999971
 40
1.0
 40
1.0
 40
1.0
 40
1.0
 10
214.4064711909156
 20
146.4663229021219
 30
0.0
 10
214.3633856413048
 20
146.4663229021219
 30
0.0
 10
214.3142334395577
 20
146.4663229021219
 30
0.0
 10
214.2177608452681
 20
146.4663229021219
 30
0.0
 10
214.1816592601339
 20
146.4663229021219
 30
0.0
 10
214.0985535022713
 20
146.4663229021219
 30
0.0
 10
214.0505569053074
 20
146.4663229021219
 30
0.0
 10
214.0007687226066
 20
146.4663229021219
 30
0.0
  0
SPLINE
  5
DB
330
1F
100
AcDbEntity
  8
0
  6
Continuous
 62
     7
370
    15
100
AcDbSpline
210
0.0
220
0.0
230
1.0
 70
     8
 71
     3
 72
    10
 73
     6
 74
     0
 42
0.00000001
 43
0.00000001
 40
0.0
 40
0.0
 40
0.0
 40
0.0
 40
0.5
 40
0.5
 40
1.0
 40
1.0
 40
1.0
 40
1.0
 10
214.8007687226066
 20
147.1859767531577
 30
0.0
 10
214.8007687226066
 20
147.0422066953397
 30
0.0
 10
214.7647196638877
 20
146.8997873328445
 30
0.0
 10
214.6292108031137
 20
146.6498930394873
 30
0.0
 10
214.5293348100175
 20
146.5418627032391
 30
0.0
 10
214.4064711909156
 20
146.4663229021219
 30
0.0
  0
SPLINE
  5
DC
330
1F
100
AcDbEntity
  8
0
  6
Continuous
 62
     7
370
    15
100
AcDbSpline
210
0.0
220
0.0
230
1.0
 70
     8
 71
     3
 72
    10
 73
     6
 74
     0
 42
0.00000001
 43
0.00000001
 40
0.0
 40
0.0
 40
0.0
 40
0.0
 40
0.5
 40
0.5
 40
1.0
 40
1.0
 40
1.0
 40
1.0
 10
214.7746210994464
 20
139.9163229021219
 30
0.0
 10
214.7833107423581
 20
139.9632017514401
 30
0.0
 10
214.7898498071086
 20
140.0106242168413
 30
0.0
 10
214.7986084415017
 20
140.1065610154281
 30
0.0
 10
214.8007687226066
 20
140.1544763034386
 30
0.0
 10
214.8007687226066
 20
140.2021895335831
 30
0.0
  0
SPLINE
  5
DD
330
1F
100
AcDbEntity
  8
0
  6
Continuous
 62
     7
370
    15
100
AcDbSpline
210
0.0
220
0.0
230
1.0
 70
     8
 71
     3
 72
    10
 73
     6
 74
     0
 42
0.00000001
 43
0.00000001
 40
0.0
 40
0.0
 40
0.0
 40
0.0
 40
0.5
 40
0.5
 40
1.0
 40
1.0
 40
1.0
 40
1.0
 10
211.3750662542975
 20
146.4663229021219
 30
0.0
 10
211.253525990629
 20
146.5410490693337
 30
0.0
 10
211.1521916302801
 20
146.6499940852505
 30
0.0
 10
211.0165526873917
 20
146.900424566012
 30
0.0
 10
210.9807687226066
 20
147.042843928111
 30
0.0
 10
210.9807687226066
 20
147.1859767531577
 30
0.0
  0
SPLINE
  5
DE
330
1F
100
AcDbEntity
  8
0
  6
Continuous
 62
     7
370
    15
100
AcDbSpline
210
0.0
220
0.0
230
1.0
 70
    24
 71
     3
 72
    12
 73
     8
 74
     0
 42
0.00000001
 43
0.00000001
 40
0.0
 40
0.0
 40
0.0
 40
0.0
 40
0.2500000000000008
 40
0.2500000000000008
 40
0.5000000000000017
 40
0.5000000000000017
 40
1.0
 40
1.0
 40
1.0
 40
1.0
 10
211.7807687226066
 20
146.4663229021219
 30
0.0
 10
211.7314253607969
 20
146.4663229021219
 30
0.0
 10
211.6827346624954
 20
146.4663229021219
 30
0.0
 10
211.599883564925
 20
146.4663229021219
 30
0.0
 10
211.5636835973044
 20
146.4663229021219
 30
0.0
 10
211.467933680755
 20
146.4663229021219
 30
0.0
 10
211.4180517109428
 20
146.4663229021219
 30
0.0
 10
211.3750662542976
 20
146.4663229021219
 30
0.0
  0
SPLINE
  5
DF
330
1F
100
AcDbEntity
  8
0
  6
Continuous
 62
     7
370
    15
100
AcDbSpline
210
0.0
220
0.0
230
1.0
 70
    24
 71
     3
 72
    14
 73
    10
 74
     0
 42
0.00000001
 43
0.00000001
 40
0.0
 40
0.0
 40
0.0
 40
0.0
 40
0.1250000000000004
 40
0.1250000000000004
 40
0.2500000000000008
 40
0.2500000000000008
 40
0.5000000000000016
 40
0.5000000000000016
 40
1.0
 40
1.0
 40
1.0
 40
1.0
 10
211.7807687226066
 20
93.66632290212193
 30
0.0
 10
211.7114220008754
 20
93.66632290212193
 30
0.0
 10
211.6462239474915
 20
93.66632290212193
 30
0.0
 10
211.5418447548645
 20
93.66632290212193
 30
0.0
 10
211.4989423838555
 20
93.66632290212193
 30
0.0
 10
211.3866167262508
 20
93.66632290212193
 30
0.0
 10
211.331393031897
 20
93.66632290212193
 30
0.0
 10
211.1873356531295
 20
93.66632290212195
 30
0.0
 10
211.125254956298
 20
93.66632290212193
 30
0.0
 10
211.0784435249389
 20
93.66632290212193
 30
0.0
  0
SPLINE
  5
E0
330
1F
100
AcDbEntity
  8
0
  6
Continuous
 62
     7
370
    15
100
AcDbSpline
210
0.0
220
0.0
230
1.0
 70
     8
 71
     3
 72
     9
 73
     5
 74
     0
 42
0.00000001
 43
0.00000001
 40
0.0
 40
0.0
 40
0.0
 40
0.0
 40
0.5
 40
1.0
 40
1.0
 40
1.0
 40
1.0
 10
210.9807687226066
 20
140.2021895335833
 30
0.0
 10
210.9807687226066
 20
140.1539574814606
 30
0.0
 10
210.9851746973117
 20
140.058087468021
 30
0.0
 10
210.9981938774056
 20
139.9633788380377
 30
0.0
 10
211.0069163457667
 20
139.9163229021219
 30
0.0
  0
LINE
  5
E1
330
1F
100
AcDbEntity
  8
0
  6
Continuous
 62
     7
370
    15
100
AcDbLine
 10
214.0007687226
 20
146.4663229021
 30
0.0
 11
211.7807687226
 21
146.4663229021
 31
0.0
  0
LINE
  5
E2
330
1F
100
AcDbEntity
  8
0
  6
Continuous
 62
     7
370
    15
100
AcDbLine
 10
214.0007687226
 20
93.6663229021
 30
0.0
 11
211.7807687226
 21
93.6663229021
 31
0.0
  0
LINE
  5
E3
330
1F
100
AcDbEntity
  8
0
  6
Continuous
 62
     7
370
    15
100
AcDbLine
 10
221.0407676348
 20
146.4663229021
 30
0.0
 11
220.9998897894
 21
146.4663229021
 31
0.0
  0
LINE
  5
E4
330
1F
100
AcDbEntity
  8
0
  6
Continuous
 62
     7
370
    15
100
AcDbLine
 10
221.0407676001
 20
93.6663229021
 30
0.0
 11
220.998426075
 21
93.6663229021
 31
0.0
  0
ELLIPSE
  5
E5
330
1F
100
AcDbEntity
  8
0
  6
Continuous
 62
     7
370
    15
100
AcDbEllipse
 10
234.417858999
 20
120.0663229021
 30
0.0
 11
1.042831651421523
 21
25.99853192068939
 31
0.0
210
0.0
220
0.0
230
0.9999999999999999
 40
0.2649452246
 41
0.6923561993135913
 42
2.74974286278659
  0
SPLINE
  5
E6
330
1F
100
AcDbEntity
  8
0
  6
Continuous
 62
     7
370
    15
100
AcDbSpline
210
0.0
220
0.0
230
1.0
 70
     8
 71
     3
 72
    16
 73
    12
 74
     0
 42
0.00000001
 43
0.00000001
 40
0.0
 40
0.0
 40
0.0
 40
0.0
 40
0.2499999999999999
 40
0.2499999999999999
 40
0.4999999999999998
 40
0.4999999999999998
 40
0.7499999999999999
 40
0.7499999999999999
 40
0.8749999999999999
 40
0.8749999999999999
 40
1.0
 40
1.0
 40
1.0
 40
1.0
 10
235.9918644922006
 20
94.65857272584208
 30
0.0
 10
235.3560309458163
 20
94.6736899887855
 30
0.0
 10
234.7501448895692
 20
94.71045470597726
 30
0.0
 10
233.5972687565863
 20
94.83856093515256
 30
0.0
 10
233.0808777761171
 20
94.92690231360909
 30
0.0
 10
232.1665708356571
 20
95.16970255912995
 30
0.0
 10
231.7895283599248
 20
95.31909406776333
 30
0.0
 10
231.3358322050965
 20
95.59500715647738
 30
0.0
 10
231.2052928723164
 20
95.69468351317464
 30
0.0
 10
230.9851219891202
 20
95.90799846176967
 30
0.0
 10
230.8949066916543
 20
96.02199665451231
 30
0.0
 10
230.8234803140721
 20
96.14388630343339
 30
0.0
  0
ELLIPSE
  5
E7
330
1F
100
AcDbEntity
  8
0
  6
Continuous
 62
     7
370
    15
100
AcDbEllipse
 10
321.6229216005
 20
120.0663229021
 30
0.0
 11
247.3731829294816
 21
3.658115888289146
 31
0.0
210
0.0
220
0.0
230
0.9999999999999999
 40
0.1040588589
 41
4.357374131981988
 42
4.357941021395416
  0
ELLIPSE
  5
E8
330
1F
100
AcDbEntity
  8
0
  6
Continuous
 62
     7
370
    15
100
AcDbEllipse
 10
321.6229216005
 20
120.0663229021
 30
0.0
 11
247.3731829294816
 21
3.658115888289146
 31
0.0
210
0.0
220
0.0
230
0.9999999999999999
 40
0.1040588589
 41
1.922166675995472
 42
1.9227335654089
  0
SPLINE
  5
E9
330
1F
100
AcDbEntity
  8
0
  6
Continuous
 62
     7
370
    15
100
AcDbSpline
210
0.0
220
0.0
230
1.0
 70
     8
 71
     3
 72
    20
 73
    16
 74
     0
 42
0.00000001
 43
0.00000001
 40
0.0
 40
0.0
 40
0.0
 40
0.0
 40
0.2499999999999995
 40
0.2499999999999995
 40
0.3749999999999996
 40
0.3749999999999996
 40
0.4999999999999997
 40
0.4999999999999997
 40
0.6249999999999998
 40
0.6249999999999998
 40
0.7499999999999998
 40
0.7499999999999998
 40
0.8749999999999999
 40
0.8749999999999999
 40
1.0
 40
1.0
 40
1.0
 40
1.0
 10
230.8234803140721
 20
140.2549111314737
 30
0.0
 10
230.9664245855712
 20
140.6473374217152
 30
0.0
 10
231.183015529358
 20
141.0031846171402
 30
0.0
 10
231.634012246305
 20
141.4861156525781
 30
0.0
 10
231.8063747855597
 20
141.6385886317348
 30
0.0
 10
232.1843438984233
 20
141.9168893588242
 30
0.0
 10
232.3911325191715
 20
142.0442136606297
 30
0.0
 10
232.8417919318701
 20
142.2767375681059
 30
0.0
 10
233.0882415210195
 20
142.3828052288023
 30
0.0
 10
233.6085193555444
 20
142.5684387186128
 30
0.0
 10
233.8806765606749
 20
142.6478384125265
 30
0.0
 10
234.4488554061156
 20
142.7821916933193
 30
0.0
 10
234.7460938358698
 20
142.8373155074937
 30
0.0
 10
235.360710370714
 20
142.9224850813825
 30
0.0
 10
235.6735149426166
 20
142.9520229206236
 30
0.0
 10
235.9918644922006
 20
142.9689052737447
 30
0.0
  0
ELLIPSE
  5
EA
330
1F
100
AcDbEntity
  8
0
  6
Continuous
 62
     7
370
    15
100
AcDbEllipse
 10
229.8372917679
 20
106.5721792911
 30
0.0
 11
-0.2326802956778238
 21
3.496204983988591
 31
0.0
210
0.0
220
0.0
230
1.0
 40
0.2082684553
 41
0.0
 42
6.283185307179586
  0
LINE
  5
EB
330
1F
100
AcDbEntity
  8
0
  6
Continuous
 62
     7
370
    15
100
AcDbLine
 10
173.0907687226
 20
96.8378760083
 30
0.0
 11
173.0907687226
 21
98.092007194
 31
0.0
  0
SPLINE
  5
EC
330
1F
100
AcDbEntity
  8
0
  6
Continuous
 62
     7
370
    15
100
AcDbSpline
210
0.0
220
0.0
230
1.0
 70
     8
 71
     3
 72
    12
 73
     8
 74
     0
 42
0.00000001
 43
0.00000001
 40
0.0
 40
0.0
 40
0.0
 40
0.0
 40
0.2499999999999993
 40
0.2499999999999993
 40
0.4999999999999987
 40
0.4999999999999987
 40
1.0
 40
1.0
 40
1.0
 40
1.0
 10
172.3660960697397
 20
99.20683001409589
 30
0.0
 10
172.4149366400747
 20
99.1009303668246
 30
0.0
 10
172.4999835552747
 20
98.99899680541711
 30
0.0
 10
172.6696349638382
 20
98.80249060017888
 30
0.0
 10
172.7560969625644
 20
98.70746323857996
 30
0.0
 10
172.9814901674814
 20
98.43018474422095
 30
0.0
 10
173.0907687226066
 20
98.25546737141019
 30
0.0
 10
173.0907687226066
 20
98.09200719396483
 30
0.0
  0
SPLINE
  5
ED
330
1F
100
AcDbEntity
  8
0
  6
Continuous
 62
     7
370
    15
100
AcDbSpline
210
0.0
220
0.0
230
1.0
 70
     8
 71
     3
 72
    14
 73
    10
 74
     0
 42
0.00000001
 43
0.00000001
 40
0.0
 40
0.0
 40
0.0
 40
0.0
 40
0.1250000000000038
 40
0.1250000000000038
 40
0.2500000000000076
 40
0.2500000000000076
 40
0.5000000000000052
 40
0.5000000000000052
 40
1.0
 40
1.0
 40
1.0
 40
1.0
 10
171.6907687226066
 20
99.74341947657005
 30
0.0
 10
171.7475434778271
 20
99.74988792970876
 30
0.0
 10
171.8102265787564
 20
99.74403062649992
 30
0.0
 10
171.9161143532944
 20
99.7141343051621
 30
0.0
 10
171.9600186108956
 20
99.69225936320714
 30
0.0
 10
172.0724518590532
 20
99.62288807654032
 30
0.0
 10
172.1255800629155
 20
99.57038902233897
 30
0.0
 10
172.2605675246557
 20
99.41510601402067
 30
0.0
 10
172.3188282361355
 20
99.30931954018632
 30
0.0
 10
172.366096069754
 20
99.20683001409672
 30
0.0
  0
SPLINE
  5
EE
330
1F
100
AcDbEntity
  8
0
  6
Continuous
 62
     7
370
    15
100
AcDbSpline
210
0.0
220
0.0
230
1.0
 70
     8
 71
     3
 72
    10
 73
     6
 74
     0
 42
0.00000001
 43
0.00000001
 40
0.0
 40
0.0
 40
0.0
 40
0.0
 40
0.5
 40
0.5
 40
1.0
 40
1.0
 40
1.0
 40
1.0
 10
168.9186423458915
 20
99.37000815425861
 30
0.0
 10
169.365583287116
 20
99.44373361393765
 30
0.0
 10
169.8256951756583
 20
99.51006226581785
 30
0.0
 10
170.7525848794029
 20
99.63309173465126
 30
0.0
 10
171.2202886114387
 20
99.68981680510161
 30
0.0
 10
171.6907687226065
 20
99.74341947657005
 30
0.0
  0
SPLINE
  5
EF
330
1F
100
AcDbEntity
  8
0
  6
Continuous
 62
     7
370
    15
100
AcDbSpline
210
0.0
220
0.0
230
1.0
 70
     8
 71
     3
 72
    14
 73
    10
 74
     0
 42
0.00000001
 43
0.00000001
 40
0.0
 40
0.0
 40
0.0
 40
0.0
 40
0.5000000000000003
 40
0.5000000000000003
 40
0.7500000000000003
 40
0.7500000000000003
 40
0.8750000000000002
 40
0.8750000000000002
 40
1.0
 40
1.0
 40
1.0
 40
1.0
 10
164.1407687226066
 20
99.19658736923105
 30
0.0
 10
164.9486657467046
 20
99.19799960125626
 30
0.0
 10
165.7544299150309
 20
99.20439257897344
 30
0.0
 10
166.9548705860391
 20
99.23344439060823
 30
0.0
 10
167.3536894393328
 20
99.24627732638194
 30
0.0
 10
167.9472177894814
 20
99.27673550794744
 30
0.0
 10
168.1442806878795
 20
99.28874813820937
 30
0.0
 10
168.5352197227288
 20
99.32038960548788
 30
0.0
 10
168.7295947745523
 20
99.33882367816202
 30
0.0
 10
168.9186423458916
 20
99.37000815425861
 30
0.0
  0
SPLINE
  5
F0
330
1F
100
AcDbEntity
  8
0
  6
Continuous
 62
     7
370
    15
100
AcDbSpline
210
0.0
220
0.0
230
1.0
 70
     8
 71
     3
 72
     8
 73
     4
 74
     0
 42
0.00000001
 43
0.00000001
 40
0.0000003409637668
 40
0.0000003409637668
 40
0.0000003409637668
 40
0.0000003409637668
 40
0.000017415394438
 40
0.000017415394438
 40
0.000017415394438
 40
0.000017415394438
 10
164.1307237921884
 20
99.20258316702274
 30
0.0
 10
164.1340624429467
 20
99.20058093192536
 30
0.0
 10
164.1374108181264
 20
99.19858234015518
 30
0.0
 10
164.1407687226066
 20
99.19658736923101
 30
0.0
  0
SPLINE
  5
F1
330
1F
100
AcDbEntity
  8
0
  6
Continuous
 62
     7
370
    15
100
AcDbSpline
210
0.0
220
0.0
230
1.0
 70
     8
 71
     3
 72
     8
 73
     4
 74
     0
 42
0.00000001
 43
0.00000001
 40
0.0000003292049707
 40
0.0000003292049707
 40
0.0000003292049707
 40
0.0000003292049707
 40
0.0000169050949325
 40
0.0000169050949325
 40
0.0000169050949325
 40
0.0000169050949325
 10
164.1407687226066
 20
140.936260667517
 30
0.0
 10
164.1374121404698
 20
140.9343486734201
 30
0.0
 10
164.1340637763443
 20
140.932433383165
 30
0.0
 10
164.1307237921752
 20
140.9305147745497
 30
0.0
  0
SPLINE
  5
F2
330
1F
100
AcDbEntity
  8
0
  6
Continuous
 62
     7
370
    15
100
AcDbSpline
210
0.0
220
0.0
230
1.0
 70
     8
 71
     3
 72
    10
 73
     6
 74
     0
 42
0.00000001
 43
0.00000001
 40
0.0
 40
0.0
 40
0.0
 40
0.0
 40
0.5
 40
0.5
 40
1.0
 40
1.0
 40
1.0
 40
1.0
 10
167.6907687226066
 20
140.8894102939496
 30
0.0
 10
167.103183175516
 20
140.9104758141861
 30
0.0
 10
166.5124367820556
 20
140.9212343000583
 30
0.0
 10
165.3284176167567
 20
140.934599080594
 30
0.0
 10
164.7350036285513
 20
140.9367417232585
 30
0.0
 10
164.1407687226066
 20
140.936260667517
 30
0.0
  0
SPLINE
  5
F3
330
1F
100
AcDbEntity
  8
0
  6
Continuous
 62
     7
370
    15
100
AcDbSpline
210
0.0
220
0.0
230
1.0
 70
     8
 71
     3
 72
    18
 73
    14
 74
     0
 42
0.00000001
 43
0.00000001
 40
0.0
 40
0.0
 40
0.0
 40
0.0
 40
0.2500000000000007
 40
0.2500000000000007
 40
0.5000000000000006
 40
0.5000000000000006
 40
0.7500000000000004
 40
0.7500000000000004
 40
0.8749999999999998
 40
0.8749999999999998
 40
0.9374999999999999
 40
0.9374999999999999
 40
1.0
 40
1.0
 40
1.0
 40
1.0
 10
169.0907687226066
 20
141.9104305744849
 30
0.0
 10
169.0907687226066
 20
141.8272236656277
 30
0.0
 10
169.0549196226684
 20
141.7384870103142
 30
0.0
 10
168.9300478866345
 20
141.5563618197539
 30
0.0
 10
168.8396474689866
 20
141.4612317711273
 30
0.0
 10
168.6174048142444
 20
141.2720502620029
 30
0.0
 10
168.4876400277986
 20
141.1771050939082
 30
0.0
 10
168.2470025704871
 20
141.0388263863283
 30
0.0
 10
168.1592352723497
 20
140.9931159530259
 30
0.0
 10
168.0047111851429
 20
140.9352926478044
 30
0.0
 10
167.9481002990881
 20
140.9175778837666
 30
0.0
 10
167.8240562681815
 20
140.8930385805336
 30
0.0
 10
167.7563415931632
 20
140.8870594419954
 30
0.0
 10
167.6907687226066
 20
140.8894102939496
 30
0.0
  0
LINE
  5
F4
330
1F
100
AcDbEntity
  8
0
  6
Continuous
 62
     7
370
    15
100
AcDbLine
 10
169.0907687226
 20
141.9104305745
 30
0.0
 11
169.0907687226
 21
143.0943689943
 31
0.0
  0
LINE
  5
F5
330
1F
100
AcDbEntity
  8
0
  6
Continuous
 62
     7
370
    15
100
AcDbLine
 10
192.8907687226
 20
95.8458920404
 30
0.0
 11
192.8907687226
 21
144.2867537638
 31
0.0
  0
SPLINE
  5
F6
330
1F
100
AcDbEntity
  8
0
  6
Continuous
 62
     7
370
    15
100
AcDbSpline
210
0.0
220
0.0
230
1.0
 70
     8
 71
     3
 72
    24
 73
    20
 74
     0
 42
0.00000001
 43
0.00000001
 40
0.0
 40
0.0
 40
0.0
 40
0.0
 40
0.0010489762969676
 40
0.0637843125636785
 40
0.1272220590447881
 40
0.1903788924483969
 40
0.2526748653693582
 40
0.3146354154422257
 40
0.3770891997149646
 40
0.4393540298503556
 40
0.5008133242537848
 40
0.562184510459622
 40
0.6248438451115927
 40
0.6874304766625545
 40
0.7496743174679398
 40
0.8119848426976358
 40
0.8750960525413143
 40
0.9384412526964341
 40
1.0
 40
1.0
 40
1.0
 40
1.0
 10
181.6596745545823
 20
96.40881447354178
 30
0.0
 10
181.6592280944781
 20
96.40875618772289
 30
0.0
 10
181.6320805307841
 20
96.40521204578044
 30
0.0
 10
181.727692308398
 20
96.41804579046307
 30
0.0
 10
181.9612525662912
 20
96.44729247566316
 30
0.0
 10
182.356806873609
 20
96.49390679872602
 30
0.0
 10
182.8838471774453
 20
96.5440899403853
 30
0.0
 10
183.5273775894356
 20
96.58846640283517
 30
0.0
 10
184.2660514446747
 20
96.61541118377323
 30
0.0
 10
185.063565950109
 20
96.61888303448022
 30
0.0
 10
185.8901448325558
 20
96.59125579044954
 30
0.0
 10
186.7156678501677
 20
96.53277690147682
 30
0.0
 10
187.5077943981715
 20
96.4473318721155
 30
0.0
 10
188.2403666721708
 20
96.34559763227922
 30
0.0
 10
188.8760069089007
 20
96.23775451030683
 30
0.0
 10
189.3979180159069
 20
96.1361243535681
 30
0.0
 10
189.7795467930227
 20
96.0536391968899
 30
0.0
 10
190.030361263257
 20
95.99748999054023
 30
0.0
 10
190.0594828192411
 20
95.99064053192649
 30
0.0
 10
190.0738353400573
 20
95.9872647851983
 30
0.0
  0
SPLINE
  5
F7
330
1F
100
AcDbEntity
  8
0
  6
Continuous
 62
     7
370
    15
100
AcDbSpline
210
0.0
220
0.0
230
1.0
 70
     8
 71
     3
 72
    24
 73
    20
 74
     0
 42
0.00000001
 43
0.00000001
 40
0.0
 40
0.0
 40
0.0
 40
0.0
 40
0.0614384276250092
 40
0.1250736755369638
 40
0.1884253490728547
 40
0.250862390403747
 40
0.3129665632511464
 40
0.3753451453465217
 40
0.4377328972327366
 40
0.4990927322917388
 40
0.5605807588449762
 40
0.6229469893028906
 40
0.6854686282028752
 40
0.747547781374035
 40
0.8098225060807762
 40
0.8730684085990467
 40
0.9364041844530124
 40
0.9991757196257864
 40
1.0
 40
1.0
 40
1.0
 40
1.0
 10
190.0737805692543
 20
144.1453518765793
 30
0.0
 10
190.0591798449507
 20
144.1419838197267
 30
0.0
 10
190.0294563262223
 20
144.1351272762529
 30
0.0
 10
189.7767185105745
 20
144.078788655727
 30
0.0
 10
189.3937225941252
 20
143.995931573597
 30
0.0
 10
188.8713670096876
 20
143.8940245436457
 30
0.0
 10
188.2365825316876
 20
143.7861854046018
 30
0.0
 10
187.5063589275139
 20
143.6847184526266
 30
0.0
 10
186.7158903422801
 20
143.5996587389359
 30
0.0
 10
185.8914068274508
 20
143.5414544450496
 30
0.0
 10
185.0643703685685
 20
143.5138710062232
 30
0.0
 10
184.2660461009157
 20
143.5173639837159
 30
0.0
 10
183.5262221366268
 20
143.5443199035689
 30
0.0
 10
182.8819679036516
 20
143.5886738455684
 30
0.0
 10
182.3545606484379
 20
143.6388792953263
 30
0.0
 10
181.959896046287
 20
143.6854891505244
 30
0.0
 10
181.7273667671024
 20
143.7146847430718
 30
0.0
 10
181.6319867345494
 20
143.7274628120135
 30
0.0
 10
181.6589203714512
 20
143.7239085535053
 30
0.0
 10
181.6592694646755
 20
143.723862485922
 30
0.0
  0
SPLINE
  5
F8
330
1F
100
AcDbEntity
  8
0
  6
Continuous
 62
     7
370
    15
100
AcDbSpline
210
0.0
220
0.0
230
1.0
 70
     8
 71
     3
 72
    22
 73
    18
 74
     0
 42
0.00000001
 43
0.00000001
 40
0.0
 40
0.0
 40
0.0
 40
0.0
 40
0.1250000000000025
 40
0.1250000000000025
 40
0.2500000000000049
 40
0.2500000000000049
 40
0.3125000000000073
 40
0.3125000000000073
 40
0.3750000000000097
 40
0.3750000000000097
 40
0.5000000000000074
 40
0.5000000000000074
 40
0.6250000000000052
 40
0.6250000000000052
 40
0.750000000000003
 40
0.750000000000003
 40
1.0
 40
1.0
 40
1.0
 40
1.0
 10
164.1307237921757
 20
140.9305147745506
 30
0.0
 10
164.0701040712993
 20
140.8956925979033
 30
0.0
 10
164.0079147313328
 20
140.8571887942027
 30
0.0
 10
163.8741852651034
 20
140.771254306404
 30
0.0
 10
163.8019307233911
 20
140.7229477052018
 30
0.0
 10
163.6800327825554
 20
140.6465959870319
 30
0.0
 10
163.6362262294033
 20
140.6201815264249
 30
0.0
 10
163.5498310602284
 20
140.5716726018943
 30
0.0
 10
163.5074910839367
 20
140.5497384791679
 30
0.0
 10
163.3935203375677
 20
140.4933686892233
 30
0.0
 10
163.3351016115775
 20
140.4670118646896
 30
0.0
 10
163.23519404039
 20
140.4148720401855
 30
0.0
 10
163.1937800495946
 20
140.3897114504729
 30
0.0
 10
163.1217550817173
 20
140.3346046071459
 30
0.0
 10
163.0914065404044
 20
140.304748203651
 30
0.0
 10
163.0179148103723
 20
140.2073415016583
 30
0.0
 10
162.9907687226066
 20
140.131009817848
 30
0.0
 10
162.9907687226066
 20
140.0423834067778
 30
0.0
  0
SPLINE
  5
F9
330
1F
100
AcDbEntity
  8
0
  6
Continuous
 62
     7
370
    15
100
AcDbSpline
210
0.0
220
0.0
230
1.0
 70
     8
 71
     3
 72
    22
 73
    18
 74
     0
 42
0.00000001
 43
0.00000001
 40
0.0
 40
0.0
 40
0.0
 40
0.0
 40
0.2499999999999959
 40
0.2499999999999959
 40
0.3749999999999952
 40
0.3749999999999952
 40
0.4999999999999946
 40
0.4999999999999946
 40
0.6249999999999939
 40
0.6249999999999939
 40
0.6874999999999942
 40
0.6874999999999942
 40
0.7499999999999944
 40
0.7499999999999944
 40
0.8749999999999972
 40
0.8749999999999972
 40
1.0
 40
1.0
 40
1.0
 40
1.0
 10
162.9907687226064
 20
100.0775004632513
 30
0.0
 10
162.9907687226064
 20
99.9894365204447
 30
0.0
 10
163.0190193035538
 20
99.91275522513673
 30
0.0
 10
163.0940151040826
 20
99.81876123811763
 30
0.0
 10
163.124751708747
 20
99.79051458507784
 30
0.0
 10
163.1974083669658
 20
99.73923540911962
 30
0.0
 10
163.239257824765
 20
99.71623401133469
 30
0.0
 10
163.3394615587161
 20
99.66933581193233
 30
0.0
 10
163.3972415224149
 20
99.64649399067868
 30
0.0
 10
163.5119667903307
 20
99.59315973768199
 30
0.0
 10
163.5556424747116
 20
99.57128264049835
 30
0.0
 10
163.6440411889269
 20
99.52147909353256
 30
0.0
 10
163.688179092216
 20
99.49400516773198
 30
0.0
 10
163.8094428765322
 20
99.41501685083692
 30
0.0
 10
163.8785760249
 20
99.36633219254959
 30
0.0
 10
164.0092812582829
 20
99.27835665913737
 30
0.0
 10
164.0708917608071
 20
99.23846526486747
 30
0.0
 10
164.1307237921885
 20
99.2025831670227
 30
0.0
  0
LINE
  5
FA
330
1F
100
AcDbEntity
  8
0
  6
Continuous
 62
     7
370
    15
100
AcDbLine
 10
162.9907687226
 20
100.0775004633
 30
0.0
 11
162.9907687226
 21
140.0423834068
 31
0.0
  0
LINE
  5
FB
330
1F
100
AcDbEntity
  8
0
  6
Continuous
 62
     7
370
    15
100
AcDbLine
 10
214.8007687226
 20
140.2021895336
 30
0.0
 11
214.8007687226
 21
141.1164665697
 31
0.0
  0
SPLINE
  5
FC
330
1F
100
AcDbEntity
  8
0
  6
Continuous
 62
     7
370
    15
100
AcDbSpline
210
0.0
220
0.0
230
1.0
 70
     8
 71
     3
 72
     8
 73
     4
 74
     0
 42
0.00000001
 43
0.00000001
 40
0.0
 40
0.0
 40
0.0
 40
0.0
 40
1.0
 40
1.0
 40
1.0
 40
1.0
 10
214.8007687226066
 20
141.1164665697052
 30
0.0
 10
215.2800468731964
 20
142.2574777995578
 30
0.0
 10
215.7756147123363
 20
143.3938622103257
 30
0.0
 10
216.2827015540956
 20
144.5250125644893
 30
0.0
  0
LINE
  5
FD
330
1F
100
AcDbEntity
  8
0
  6
Continuous
 62
     7
370
    15
100
AcDbLine
 10
216.2827015541
 20
144.5250125645
 30
0.0
 11
220.2407687226
 21
144.5250125645
 31
0.0
  0
SPLINE
  5
FE
330
1F
100
AcDbEntity
  8
0
  6
Continuous
 62
     7
370
    15
100
AcDbSpline
210
0.0
220
0.0
230
1.0
 70
     8
 71
     3
 72
    12
 73
     8
 74
     0
 42
0.00000001
 43
0.00000001
 40
0.0
 40
0.0
 40
0.0
 40
0.0
 40
0.2499999999999967
 40
0.2499999999999967
 40
0.4999999999999933
 40
0.4999999999999933
 40
1.0
 40
1.0
 40
1.0
 40
1.0
 10
220.2407687226066
 20
144.5250125644893
 30
0.0
 10
220.3319684444322
 20
144.5250125644893
 30
0.0
 10
220.4225634535682
 20
144.4967928659015
 30
0.0
 10
220.5759761800149
 20
144.4023498586534
 30
0.0
 10
220.6411850473386
 20
144.336062881948
 30
0.0
 10
220.7939695766785
 20
144.1104380586597
 30
0.0
 10
220.8407687226066
 20
143.9280117956271
 30
0.0
 10
220.8407687226066
 20
143.7472751633803
 30
0.0
  0
LINE
  5
FF
330
1F
100
AcDbEntity
  8
0
  6
Continuous
 62
     7
370
    15
100
AcDbLine
 10
220.8407687226
 20
143.7472751634
 30
0.0
 11
220.8407687226
 21
139.9163229021
 31
0.0
  0
SPLINE
  5
100
330
1F
100
AcDbEntity
  8
0
  6
Continuous
 62
     7
370
    15
100
AcDbSpline
210
0.0
220
0.0
230
1.0
 70
     8
 71
     3
 72
     8
 73
     4
 74
     0
 42
0.00000001
 43
0.00000001
 40
0.0
 40
0.0
 40
0.0
 40
0.0
 40
1.0
 40
1.0
 40
1.0
 40
1.0
 10
209.4988358911175
 20
144.5250125644893
 30
0.0
 10
210.0059227328768
 20
143.3938622103257
 30
0.0
 10
210.5014905720168
 20
142.2574777995578
 30
0.0
 10
210.9807687226066
 20
141.1164665697052
 30
0.0
  0
LINE
  5
101
330
1F
100
AcDbEntity
  8
0
  6
Continuous
 62
     7
370
    15
100
AcDbLine
 10
210.9807687226
 20
141.1164665697
 30
0.0
 11
210.9807687226
 21
140.2021895336
 31
0.0
  0
SPLINE
  5
102
330
1F
100
AcDbEntity
  8
0
  6
Continuous
 62
     7
370
    15
100
AcDbSpline
210
0.0
220
0.0
230
1.0
 70
     8
 71
     3
 72
    10
 73
     6
 74
     0
 42
0.00000001
 43
0.00000001
 40
0.0
 40
0.0
 40
0.0
 40
0.0
 40
0.5
 40
0.5
 40
1.0
 40
1.0
 40
1.0
 40
1.0
 10
220.8407687226066
 20
149.9127632258858
 30
0.0
 10
220.8407687226066
 20
150.0731684922366
 30
0.0
 10
220.7785308914997
 20
150.2322303052252
 30
0.0
 10
220.5593959677572
 20
150.4631427708555
 30
0.0
 10
220.4018072727653
 20
150.5335183752862
 30
0.0
 10
220.2407687226066
 20
150.5335183752862
 30
0.0
  0
LINE
  5
103
330
1F
100
AcDbEntity
  8
0
  6
Continuous
 62
     7
370
    15
100
AcDbLine
 10
220.8407687226
 20
143.7472751634
 30
0.0
 11
220.8407687226
 21
149.9127632259
 31
0.0
  0
SPLINE
  5
104
330
1F
100
AcDbEntity
  8
0
  6
Continuous
 62
     7
370
    15
100
AcDbSpline
210
0.0
220
0.0
230
1.0
 70
     8
 71
     3
 72
     8
 73
     4
 74
     0
 42
0.00000001
 43
0.00000001
 40
0.0
 40
0.0
 40
0.0
 40
0.0
 40
1.0
 40
1.0
 40
1.0
 40
1.0
 10
210.9807687226066
 20
147.8715570932935
 30
0.0
 10
210.4880586257608
 20
148.7595760914199
 30
0.0
 10
209.9939759204819
 20
149.6468387271059
 30
0.0
 10
209.4988358911176
 20
150.5335183752861
 30
0.0
  0
LINE
  5
105
330
1F
100
AcDbEntity
  8
0
  6
Continuous
 62
     7
370
    15
100
AcDbLine
 10
210.9807687226
 20
141.1164665697
 30
0.0
 11
210.9807687226
 21
147.8715570933
 31
0.0
  0
SPLINE
  5
106
330
1F
100
AcDbEntity
  8
0
  6
Continuous
 62
     7
370
    15
100
AcDbSpline
210
0.0
220
0.0
230
1.0
 70
     8
 71
     3
 72
     8
 73
     4
 74
     0
 42
0.00000001
 43
0.00000001
 40
0.0
 40
0.0
 40
0.0
 40
0.0
 40
1.0
 40
1.0
 40
1.0
 40
1.0
 10
216.2827015540956
 20
150.5335183752862
 30
0.0
 10
215.7875615247313
 20
149.6468387271059
 30
0.0
 10
215.2934788194523
 20
148.7595760914199
 30
0.0
 10
214.8007687226066
 20
147.8715570932935
 30
0.0
  0
LINE
  5
107
330
1F
100
AcDbEntity
  8
0
  6
Continuous
 62
     7
370
    15
100
AcDbLine
 10
216.2827015541
 20
144.5250125645
 30
0.0
 11
216.2827015541
 21
150.5335183753
 31
0.0
  0
LINE
  5
108
330
1F
100
AcDbEntity
  8
0
  6
Continuous
 62
     7
370
    15
100
AcDbLine
 10
214.8007687226
 20
141.1164665697
 30
0.0
 11
214.8007687226
 21
147.8715570933
 31
0.0
  0
LINE
  5
109
330
1F
100
AcDbEntity
  8
0
  6
Continuous
 62
     7
370
    15
100
AcDbLine
 10
220.2407687226
 20
150.5335183753
 30
0.0
 11
216.2827015541
 21
150.5335183753
 31
0.0
  0
SPLINE
  5
10A
330
1F
100
AcDbEntity
  8
0
  6
Continuous
 62
     7
370
    15
100
AcDbSpline
210
0.0
220
0.0
230
1.0
 70
     8
 71
     3
 72
    12
 73
     8
 74
     0
 42
0.00000001
 43
0.00000001
 40
0.0
 40
0.0
 40
0.0
 40
0.0
 40
0.2500000000000012
 40
0.2500000000000012
 40
0.5000000000000024
 40
0.5000000000000024
 40
1.0
 40
1.0
 40
1.0
 40
1.0
 10
237.0893675609167
 20
93.85322833821874
 30
0.0
 10
237.0615109711856
 20
93.9629935043624
 30
0.0
 10
237.0180335176706
 20
94.0657059427181
 30
0.0
 10
236.9000288049791
 20
94.2571120154612
 30
0.0
 10
236.8269358456066
 20
94.34280124808258
 30
0.0
 10
236.5711341723835
 20
94.56058652244266
 30
0.0
 10
236.3518788019107
 20
94.65003292407614
 30
0.0
 10
236.1234417346284
 20
94.6554488203084
 30
0.0
  0
SPLINE
  5
10B
330
1F
100
AcDbEntity
  8
0
  6
Continuous
 62
     7
370
    15
100
AcDbSpline
210
0.0
220
0.0
230
1.0
 70
     8
 71
     3
 72
    10
 73
     6
 74
     0
 42
0.00000001
 43
0.00000001
 40
0.0
 40
0.0
 40
0.0
 40
0.0
 40
0.5
 40
0.5
 40
1.0
 40
1.0
 40
1.0
 40
1.0
 10
236.1234417346276
 20
142.9758785194952
 30
0.0
 10
236.3517439991618
 20
142.9879702857676
 30
0.0
 10
236.5688633113747
 20
143.0821293098091
 30
0.0
 10
236.9129116871204
 20
143.3845311427871
 30
0.0
 10
237.0336818614719
 20
143.5853063574945
 30
0.0
 10
237.0893675609167
 20
143.8063575138938
 30
0.0
  0
SPLINE
  5
10C
330
1F
100
AcDbEntity
  8
0
  6
Continuous
 62
     7
370
    15
100
AcDbSpline
210
0.0
220
0.0
230
1.0
 70
     8
 71
     3
 72
     8
 73
     4
 74
     0
 42
0.00000001
 43
0.00000001
 40
0.0
 40
0.0
 40
0.0
 40
0.0
 40
1.0
 40
1.0
 40
1.0
 40
1.0
 10
237.1587179150377
 20
144.081462245262
 30
0.0
 10
237.1355862462731
 20
143.9897642891359
 30
0.0
 10
237.112469317688
 20
143.8980627470159
 30
0.0
 10
237.0893675609167
 20
143.8063575138938
 30
0.0
  0
ELLIPSE
  5
10D
330
1F
100
AcDbEntity
  8
0
  6
Continuous
 62
     7
370
    15
100
AcDbEllipse
 10
321.6229216005
 20
120.0663229021
 30
0.0
 11
256.887536119077
 21
3.798812653223351
 31
0.0
210
0.0
220
0.0
230
0.9999999999999999
 40
0.1040588589
 41
1.891105014178103
 42
1.90428803097253
  0
LINE
  5
10E
330
1F
100
AcDbEntity
  8
0
  6
Continuous
 62
     7
370
    15
100
AcDbLine
 10
261.0792558902
 20
115.087476455
 30
0.0
 11
240.3642298726
 21
144.2420478272
 31
0.0
  0
LINE
  5
10F
330
1F
100
AcDbEntity
  8
0
  6
Continuous
 62
     7
370
    15
100
AcDbLine
 10
263.7750344123
 20
84.4458146183
 30
0.0
 11
261.0792558902
 21
115.087476455
 31
0.0
  0
LINE
  5
110
330
1F
100
AcDbEntity
  8
0
  6
Continuous
 62
     7
370
    15
100
AcDbLine
 10
260.3133581322
 20
91.7621722381
 30
0.0
 11
260.6783045168
 21
90.9882280212
 31
0.0
  0
ARC
  5
111
330
1F
100
AcDbEntity
  8
0
  6
Continuous
 62
     7
370
    15
100
AcDbCircle
 10
258.4296308909
 20
90.8366378937
 30
0.0
 40
2.098819225720633
100
AcDbArc
 50
26.166335755
 51
205.0169901361
  0
LINE
  5
112
330
1F
100
AcDbEntity
  8
0
  6
Continuous
 62
     7
370
    15
100
AcDbLine
 10
257.0207072892
 20
88.9035884454
 30
0.0
 11
256.527717792
 21
89.9490745403
 31
0.0
  0
LINE
  5
113
330
1F
100
AcDbEntity
  8
0
  6
Continuous
 62
     7
370
    15
100
AcDbLine
 10
254.3866101281
 20
87.0285320576
 30
0.0
 11
257.0207072892
 21
88.9035884454
 31
0.0
  0
ARC
  5
114
330
1F
100
AcDbEntity
  8
0
  6
Continuous
 62
     7
370
    15
100
AcDbCircle
 10
254.7352328825
 20
85.0362775457
 30
0.0
 40
2.02252709869909
100
AcDbArc
 50
99.9256375959
 51
170.6643395446
  0
LINE
  5
115
330
1F
100
AcDbEntity
  8
0
  6
Continuous
 62
     7
370
    15
100
AcDbLine
 10
248.6939896438
 20
79.5523243243
 30
0.0
 11
252.7394942679
 21
85.3643678491
 31
0.0
  0
LINE
  5
116
330
1F
100
AcDbEntity
  8
0
  6
Continuous
 62
     7
370
    15
100
AcDbLine
 10
239.7483545875
 20
83.5750463189
 30
0.0
 11
248.6939896438
 21
79.5523243243
 31
0.0
  0
SPLINE
  5
117
330
1F
100
AcDbEntity
  8
0
  6
Continuous
 62
     7
370
    15
100
AcDbSpline
210
0.0
220
0.0
230
1.0
 70
     8
 71
     3
 72
     8
 73
     4
 74
     0
 42
0.00000001
 43
0.00000001
 40
0.0
 40
0.0
 40
0.0
 40
0.0
 40
1.0
 40
1.0
 40
1.0
 40
1.0
 10
237.0893675609167
 20
93.85322833821876
 30
0.0
 10
237.9599354040488
 20
90.42287218683605
 30
0.0
 10
238.8505224199891
 20
86.99797197212453
 30
0.0
 10
239.7483545875006
 20
83.57504631892581
 30
0.0
  0
CIRCLE
  5
118
330
1F
100
AcDbEntity
  8
0
  6
Continuous
 62
     7
370
    15
100
AcDbCircle
 10
247.0369774675
 20
92.6379414547
 30
0.0
 40
3.976779848559021
  0
ELLIPSE
  5
119
330
1F
100
AcDbEntity
  8
0
  6
Continuous
 62
     7
370
    15
100
AcDbEllipse
 10
257.5002140654
 20
120.0663229021
 30
0.0
 11
-19.22008094635825
 21
26.99988807476801
 31
0.0
210
0.0
220
0.0
230
1.0
 40
0.0040448756
 41
5.818832106451196
 42
6.280305938888719
  0
LINE
  5
11A
330
1F
100
AcDbEntity
  8
0
  6
Continuous
 62
     7
370
    15
100
AcDbLine
 10
237.158717915
 20
147.0663229021
 30
0.0
 11
237.158717915
 21
144.0814622453
 31
0.0
  0
SPLINE
  5
11B
330
1F
100
AcDbEntity
  8
0
  6
Continuous
 62
     7
370
    15
100
AcDbSpline
210
0.0
220
0.0
230
1.0
 70
     8
 71
     3
 72
     9
 73
     5
 74
     0
 42
0.00000001
 43
0.00000001
 40
0.0
 40
0.0
 40
0.0
 40
0.0
 40
0.9422411506121371
 40
1.0
 40
1.0
 40
1.0
 40
1.0
 10
239.7483545875024
 20
83.57504631892174
 30
0.0
 10
239.6769442414478
 20
83.710083395473
 30
0.0
 10
239.6011564815857
 20
83.8533981684094
 30
0.0
 10
239.6016316245605
 20
83.96171957498956
 30
0.0
 10
239.601659068272
 20
83.96797609479769
 30
0.0
  0
LINE
  5
11C
330
1F
100
AcDbEntity
  8
0
  6
Continuous
 62
     7
370
    15
100
AcDbLine
 10
259.9393203058
 20
91.7875703469
 30
0.0
 11
259.5445469672
 21
92.6247687831
 31
0.0
  0
LINE
  5
11D
330
1F
100
AcDbEntity
  8
0
  6
HIDDEN
 62
     7
370
     0
100
AcDbLine
 10
199.8407687226
 20
88.5663229021
 30
0.0
 11
199.8407687226
 21
88.5821999193
 31
0.0
  0
SPLINE
  5
11E
330
1F
100
AcDbEntity
  8
0
  6
HIDDEN
 62
     7
370
     0
100
AcDbSpline
210
0.0
220
0.0
230
1.0
 70
     8
 71
     3
 72
    30
 73
    26
 74
     0
 42
0.00000001
 43
0.00000001
 40
0.0
 40
0.0
 40
0.0
 40
0.0
 40
0.1250000000000001
 40
0.1250000000000001
 40
0.1875000000000001
 40
0.1875000000000001
 40
0.2500000000000001
 40
0.2500000000000001
 40
0.3750000000000001
 40
0.3750000000000001
 40
0.4375000000000002
 40
0.4375000000000002
 40
0.5000000000000002
 40
0.5000000000000002
 40
0.625
 40
0.625
 40
0.6875
 40
0.6875
 40
0.7500000000000001
 40
0.7500000000000001
 40
0.8125000000000001
 40
0.8125000000000001
 40
0.8750000000000002
 40
0.8750000000000002
 40
1.0
 40
1.0
 40
1.0
 40
1.0
 10
199.8407687226066
 20
88.58219991925964
 30
0.0
 10
199.8407687226066
 20
88.59907883726824
 30
0.0
 10
199.893186288585
 20
88.62909640209291
 30
0.0
 10
200.0465657684873
 20
88.69190679136602
 30
0.0
 10
200.1102468891551
 20
88.71581069859292
 30
0.0
 10
200.2632017566067
 20
88.76924599103532
 30
0.0
 10
200.352774055376
 20
88.79885285920285
 30
0.0
 10
200.6539980882291
 20
88.89330255791731
 30
0.0
 10
200.8993130843133
 20
88.96432995174652
 30
0.0
 10
201.3334100653835
 20
89.07834423845229
 30
0.0
 10
201.4900797544872
 20
89.11779948959285
 30
0.0
 10
201.8220729183296
 20
89.19732093236351
 30
0.0
 10
201.996778447322
 20
89.23725707486429
 30
0.0
 10
202.5464481299136
 20
89.35619347769247
 30
0.0
 10
202.9466990926249
 20
89.4343582415763
 30
0.0
 10
203.6002859592624
 20
89.5440676818452
 30
0.0
 10
203.8259620789395
 20
89.5791485185536
 30
0.0
 10
204.2856739000707
 20
89.64438879793323
 30
0.0
 10
204.5207272341138
 20
89.67472361397796
 30
0.0
 10
205.0012345164129
 20
89.73006199319981
 30
0.0
 10
205.246688044327
 20
89.7550666697599
 30
0.0
 10
205.7483034691344
 20
89.79894647865058
 30
0.0
 10
206.0057958517349
 20
89.81789016341288
 30
0.0
 10
206.783872368171
 20
89.86360989068307
 30
0.0
 10
207.3090346454159
 20
89.87940520587482
 30
0.0
 10
207.8407687226066
 20
89.87940520587482
 30
0.0
  0
LINE
  5
11F
330
1F
100
AcDbEntity
  8
0
  6
HIDDEN
 62
     7
370
     0
100
AcDbLine
 10
207.8407687226
 20
89.8794052059
 30
0.0
 11
209.4988358911
 21
89.8794052059
 31
0.0
  0
LINE
  5
120
330
1F
100
AcDbEntity
  8
0
  6
HIDDEN
 62
     7
370
     0
100
AcDbLine
 10
209.4988358911
 20
150.5335183753
 30
0.0
 11
209.4988358911
 21
89.8794052059
 31
0.0
  0
LINE
  5
121
330
1F
100
AcDbEntity
  8
0
  6
HIDDEN
 62
     7
370
     0
100
AcDbLine
 10
207.8407687226
 20
150.5335183753
 30
0.0
 11
209.4988358911
 21
150.5335183753
 31
0.0
  0
SPLINE
  5
122
330
1F
100
AcDbEntity
  8
0
  6
HIDDEN
 62
     7
370
     0
100
AcDbSpline
210
0.0
220
0.0
230
1.0
 70
     8
 71
     3
 72
    25
 73
    21
 74
     0
 42
0.00000001
 43
0.00000001
 40
0.0
 40
0.0
 40
0.0
 40
0.0
 40
0.0096954484161335
 40
0.0638723670571633
 40
0.1149132352558335
 40
0.2187086766718962
 40
0.2715756034874441
 40
0.3231260839945235
 40
0.4278949850124156
 40
0.4812219986595044
 40
0.5341835201216116
 40
0.5875068490135945
 40
0.6419755691237957
 40
0.6968440163015757
 40
0.750015339735879
 40
0.8035698063150644
 40
0.858352681512226
 40
0.9135688588974585
 40
0.9566773926894001
 40
1.0
 40
1.0
 40
1.0
 40
1.0
 10
199.8500768094264
 20
151.5639706143645
 30
0.0
 10
199.8469054855832
 20
151.5647718495266
 30
0.0
 10
199.8260132120261
 20
151.5700502837128
 30
0.0
 10
199.877168932852
 20
151.5570777773731
 30
0.0
 10
199.9906006974715
 20
151.528488470383
 30
0.0
 10
200.22272571404
 20
151.470885337595
 30
0.0
 10
200.5508427836605
 20
151.3931446335512
 30
0.0
 10
200.9460741366022
 20
151.302762609946
 30
0.0
 10
201.4361104583939
 20
151.1973375657424
 30
0.0
 10
202.013398319223
 20
151.0847241359368
 30
0.0
 10
202.4902536521189
 20
150.998487250301
 30
0.0
 10
203.0078769235265
 20
150.9129225641086
 30
0.0
 10
203.5666218482705
 20
150.8300750314587
 30
0.0
 10
204.156518190648
 20
150.7535249781865
 30
0.0
 10
204.7701813137666
 20
150.6857870362072
 30
0.0
 10
205.4061687097795
 20
150.6283606215801
 30
0.0
 10
206.0689180764033
 20
150.5824606713785
 30
0.0
 10
206.7024567911382
 20
150.5528522370144
 30
0.0
 10
207.295124332265
 20
150.5363519165646
 30
0.0
 10
207.6585871830125
 20
150.5344644473465
 30
0.0
 10
207.8407687226066
 20
150.5335183752861
 30
0.0
  0
SPLINE
  5
123
330
1F
100
AcDbEntity
  8
0
  6
HIDDEN
 62
     7
370
     0
100
AcDbSpline
210
0.0
220
0.0
230
1.0
 70
     8
 71
     3
 72
    76
 73
    72
 74
     0
 42
0.00000001
 43
0.00000001
 40
-0.03125
 40
-0.03125
 40
0.0
 40
0.0
 40
0.03125
 40
0.03125
 40
0.0468749999999999
 40
0.0468749999999999
 40
0.0624999999999999
 40
0.0624999999999999
 40
0.0937499999999999
 40
0.0937499999999999
 40
0.1249999999999999
 40
0.1249999999999999
 40
0.1562499999999999
 40
0.1562499999999999
 40
0.1875
 40
0.1875
 40
0.21875
 40
0.21875
 40
0.25
 40
0.25
 40
0.28125
 40
0.28125
 40
0.3125
 40
0.3125
 40
0.328125
 40
0.328125
 40
0.34375
 40
0.34375
 40
0.3749999999999999
 40
0.3749999999999999
 40
0.4062499999999999
 40
0.4062499999999999
 40
0.4374999999999998
 40
0.4374999999999998
 40
0.4687499999999998
 40
0.4687499999999998
 40
0.4999999999999998
 40
0.4999999999999998
 40
0.5312499999999998
 40
0.5312499999999998
 40
0.5624999999999997
 40
0.5624999999999997
 40
0.5937499999999997
 40
0.5937499999999997
 40
0.6249999999999996
 40
0.6249999999999996
 40
0.6562499999999996
 40
0.6562499999999996
 40
0.6874999999999996
 40
0.6874999999999996
 40
0.7031249999999996
 40
0.7031249999999996
 40
0.7187499999999994
 40
0.7187499999999994
 40
0.7499999999999996
 40
0.7499999999999996
 40
0.7812499999999997
 40
0.7812499999999997
 40
0.8124999999999997
 40
0.8124999999999997
 40
0.8437499999999998
 40
0.8437499999999998
 40
0.8749999999999998
 40
0.8749999999999998
 40
0.9062499999999999
 40
0.9062499999999999
 40
0.9375
 40
0.9375
 40
0.96875
 40
0.96875
 40
1.0
 40
1.0
 40
1.03125
 40
1.03125
 10
196.8907687226066
 20
120.397206897916
 30
0.0
 10
196.8907687226066
 20
119.7354389063279
 30
0.0
 10
196.923289200391
 20
119.410187738232
 30
0.0
 10
197.018782444673
 20
118.9303910173429
 30
0.0
 10
197.0584572800842
 20
118.7718153335492
 30
0.0
 10
197.1538438934198
 20
118.4574329477562
 30
0.0
 10
197.2097881348305
 20
118.301313324172
 30
0.0
 10
197.3981511582801
 20
117.8473727642701
 30
0.0
 10
197.5517634346985
 20
117.5603925182631
 30
0.0
 10
197.9145912284826
 20
117.0172793615238
 30
0.0
 10
198.1254263300651
 20
116.7605400699798
 30
0.0
 10
198.5859259000825
 20
116.3001554357489
 30
0.0
 10
198.8372888410003
 20
116.093378618995
 30
0.0
 10
199.3836355353538
 20
115.7278544113316
 30
0.0
 10
199.6738501750717
 20
115.5728548526168
 30
0.0
 10
200.2752369913734
 20
115.3233238315226
 30
0.0
 10
200.5908666844638
 20
115.2270455578339
 30
0.0
 10
201.2365070857434
 20
115.0983965505909
 30
0.0
 10
201.5612628415567
 20
115.0665102914743
 30
0.0
 10
202.2145628719481
 20
115.0661371439636
 30
0.0
 10
202.5464352127788
 20
115.0987166302096
 30
0.0
 10
203.1880864463824
 20
115.226490534916
 30
0.0
 10
203.5000113633156
 20
115.3210229792131
 30
0.0
 10
203.9545009638325
 20
115.5091425737518
 30
0.0
 10
204.1043642716664
 20
115.5800255549726
 30
0.0
 10
204.3934495055891
 20
115.734642161307
 30
0.0
 10
204.5333104198971
 20
115.8185647600449
 30
0.0
 10
204.9391868636013
 20
116.0897602835206
 30
0.0
 10
205.1922250100909
 20
116.2968602889618
 30
0.0
 10
205.6581245662543
 20
116.7624627420191
 30
0.0
 10
205.8646306407501
 20
117.0143815944064
 30
0.0
 10
206.2267362041498
 20
117.5552852104073
 30
0.0
 10
206.383595317965
 20
117.8478280531587
 30
0.0
 10
206.6345454348276
 20
118.4526957099162
 30
0.0
 10
206.7293565341586
 20
118.7643425413629
 30
0.0
 10
206.8577783969517
 20
119.4060958465845
 30
0.0
 10
206.8906416834429
 20
119.7378236654638
 30
0.0
 10
206.8908950095514
 20
120.3909434307247
 30
0.0
 10
206.8593390089822
 20
120.7158766370677
 30
0.0
 10
206.7310977875578
 20
121.3624036435208
 30
0.0
 10
206.6352917388994
 20
121.6774115973817
 30
0.0
 10
206.3861582278053
 20
122.2793702655274
 30
0.0
 10
206.2306981061106
 20
122.5708464358029
 30
0.0
 10
205.8662438517508
 20
123.1164413722996
 30
0.0
 10
205.659810944315
 20
123.3679184873047
 30
0.0
 10
205.1993418617971
 20
123.8292415113595
 30
0.0
 10
204.9425448537412
 20
124.0403648123059
 30
0.0
 10
204.4004996399067
 20
124.4030955940219
 30
0.0
 10
204.1137300599712
 20
124.5569844974075
 30
0.0
 10
203.6594228840855
 20
124.7459342240995
 30
0.0
 10
203.5032825833121
 20
124.8020070201192
 30
0.0
 10
203.1894366219659
 20
124.897509785652
 30
0.0
 10
203.0310498342722
 20
124.9372904286795
 30
0.0
 10
202.5515735943288
 20
125.0331729658048
 30
0.0
 10
202.225333649902
 20
125.0660484138043
 30
0.0
 10
201.564459052624
 20
125.0665939829753
 30
0.0
 10
201.2393227052791
 20
125.0344274643619
 30
0.0
 10
200.5992402047926
 20
124.9076449263747
 30
0.0
 10
200.2809192807248
 20
124.8113771725834
 30
0.0
 10
199.6760030018856
 20
124.5609828511582
 30
0.0
 10
199.3888540882342
 20
124.4076686894367
 30
0.0
 10
198.8449025345612
 20
124.0449607654168
 30
0.0
 10
198.5882565848346
 20
123.834521692683
 30
0.0
 10
198.1276660314217
 20
123.3746407044067
 30
0.0
 10
197.9205171454308
 20
123.1233589047139
 30
0.0
 10
197.5539859020174
 20
122.5764387309739
 30
0.0
 10
197.3993017145129
 20
122.2872985793576
 30
0.0
 10
197.1492020611747
 20
121.6860619054383
 30
0.0
 10
197.0525152866816
 20
121.3700862117976
 30
0.0
 10
196.9232937117254
 20
120.724112453701
 30
0.0
 10
196.8907687226066
 20
120.397206897916
 30
0.0
 10
196.8907687226066
 20
119.7354389063279
 30
0.0
  0
LINE
  5
124
330
1F
100
AcDbEntity
  8
0
  6
HIDDEN
 62
     7
370
     0
100
AcDbLine
 10
194.8907687226
 20
151.2663228975
 30
0.0
 11
194.8907687226
 21
88.8663229021
 31
0.0
  0
SPLINE
  5
125
330
1F
100
AcDbEntity
  8
0
  6
HIDDEN
 62
     7
370
     0
100
AcDbSpline
210
0.0
220
0.0
230
1.0
 70
     8
 71
     3
 72
    10
 73
     6
 74
     0
 42
0.00000001
 43
0.00000001
 40
0.0
 40
0.0
 40
0.0
 40
0.0
 40
0.5
 40
0.5
 40
1.0
 40
1.0
 40
1.0
 40
1.0
 10
214.8007687226066
 20
93.26192727379261
 30
0.0
 10
214.8007687226066
 20
93.33216363416338
 30
0.0
 10
214.7924861105161
 20
93.40215773566086
 30
0.0
 10
214.7593861674575
 20
93.53911700021979
 30
0.0
 10
214.735048775499
 20
93.60442490947506
 30
0.0
 10
214.7030939202743
 20
93.66632290212196
 30
0.0
  0
LINE
  5
126
330
1F
100
AcDbEntity
  8
0
  6
HIDDEN
 62
     7
370
     0
100
AcDbLine
 10
214.8007687226
 20
140.2021895336
 30
0.0
 11
214.8007687226
 21
147.1859767532
 31
0.0
  0
SPLINE
  5
127
330
1F
100
AcDbEntity
  8
0
  6
HIDDEN
 62
     7
370
     0
100
AcDbSpline
210
0.0
220
0.0
230
1.0
 70
    24
 71
     3
 72
    10
 73
     6
 74
     0
 42
0.00000001
 43
0.00000001
 40
0.0
 40
0.0
 40
0.0
 40
0.0
 40
0.5
 40
0.5
 40
1.0
 40
1.0
 40
1.0
 40
1.0
 10
214.7746210994465
 20
139.9163229021219
 30
0.0
 10
214.7832988743541
 20
139.9163229021219
 30
0.0
 10
214.789851898361
 20
139.9163229021219
 30
0.0
 10
214.798586507858
 20
139.9163229021219
 30
0.0
 10
214.8007687226066
 20
139.9163229021219
 30
0.0
 10
214.8007687226066
 20
139.9163229021219
 30
0.0
  0
LINE
  5
128
330
1F
100
AcDbEntity
  8
0
  6
HIDDEN
 62
     7
370
     0
100
AcDbLine
 10
214.8007687226
 20
93.2619272738
 30
0.0
 11
214.8007687226
 21
139.9163229021
 31
0.0
  0
SPLINE
  5
129
330
1F
100
AcDbEntity
  8
0
  6
HIDDEN
 62
     7
370
     0
100
AcDbSpline
210
0.0
220
0.0
230
1.0
 70
     8
 71
     3
 72
    10
 73
     6
 74
     0
 42
0.00000001
 43
0.00000001
 40
0.0
 40
0.0
 40
0.0
 40
0.0
 40
0.5
 40
0.5
 40
1.0
 40
1.0
 40
1.0
 40
1.0
 10
211.0784435249389
 20
93.66632290212198
 30
0.0
 10
211.0462883373169
 20
93.60403685660587
 30
0.0
 10
211.0216321061227
 20
93.53750643173666
 30
0.0
 10
210.9888193491972
 20
93.40064780137422
 30
0.0
 10
210.9807687226066
 20
93.33159020619591
 30
0.0
 10
210.9807687226066
 20
93.26192727379261
 30
0.0
  0
SPLINE
  5
12A
330
1F
100
AcDbEntity
  8
0
  6
HIDDEN
 62
     7
370
     0
100
AcDbSpline
210
0.0
220
0.0
230
1.0
 70
    24
 71
     3
 72
    10
 73
     6
 74
     0
 42
0.00000001
 43
0.00000001
 40
0.0
 40
0.0
 40
0.0
 40
0.0
 40
0.5
 40
0.5
 40
1.0
 40
1.0
 40
1.0
 40
1.0
 10
210.9807687226066
 20
139.9163229021219
 30
0.0
 10
210.9807687226066
 20
139.9163229021219
 30
0.0
 10
210.9829905810913
 20
139.9163229021219
 30
0.0
 10
210.9917272528149
 20
139.9163229021219
 30
0.0
 10
210.9982387666092
 20
139.9163229021219
 30
0.0
 10
211.0069163457667
 20
139.9163229021219
 30
0.0
  0
LINE
  5
12B
330
1F
100
AcDbEntity
  8
0
  6
HIDDEN
 62
     7
370
     0
100
AcDbLine
 10
210.9807687226
 20
140.2021895336
 30
0.0
 11
210.9807687226
 21
147.1859767532
 31
0.0
  0
LINE
  5
12C
330
1F
100
AcDbEntity
  8
0
  6
HIDDEN
 62
     7
370
     0
100
AcDbLine
 10
210.9807687226
 20
93.2619272738
 30
0.0
 11
210.9807687226
 21
139.9163229021
 31
0.0
  0
SPLINE
  5
12D
330
1F
100
AcDbEntity
  8
0
  6
HIDDEN
 62
     7
370
     0
100
AcDbSpline
210
0.0
220
0.0
230
1.0
 70
    24
 71
     3
 72
    18
 73
    14
 74
     0
 42
0.00000001
 43
0.00000001
 40
0.0
 40
0.0
 40
0.0
 40
0.0
 40
0.5000000000000001
 40
0.5000000000000001
 40
0.75
 40
0.75
 40
0.8750000000000001
 40
0.8750000000000001
 40
0.9375000000000001
 40
0.9375000000000001
 40
0.9687500000000001
 40
0.9687500000000001
 40
1.0
 40
1.0
 40
1.0
 40
1.0
 10
220.8407687226066
 20
146.4663229021219
 30
0.0
 10
220.8407687226066
 20
146.4663229021219
 30
0.0
 10
220.8966178883697
 20
146.4663229021219
 30
0.0
 10
220.9723352970069
 20
146.4663229021219
 30
0.0
 10
220.9965246479906
 20
146.4663229021219
 30
0.0
 10
221.0222684045755
 20
146.4663229021219
 30
0.0
 10
221.0291140464729
 20
146.4663229021219
 30
0.0
 10
221.0360538555242
 20
146.4663229021219
 30
0.0
 10
221.0378162941314
 20
146.4663229021219
 30
0.0
 10
221.0395844621369
 20
146.4663229021219
 30
0.0
 10
221.0400282558294
 20
146.4663229021219
 30
0.0
 10
221.0406204235942
 20
146.4663229021219
 30
0.0
 10
221.0407687909668
 20
146.4663229021219
 30
0.0
 10
221.0407687225812
 20
146.4663229021219
 30
0.0
  0
SPLINE
  5
12E
330
1F
100
AcDbEntity
  8
0
  6
HIDDEN
 62
     7
370
     0
100
AcDbSpline
210
0.0
220
0.0
230
1.0
 70
    24
 71
     3
 72
    10
 73
     6
 74
     0
 42
0.00000001
 43
0.00000001
 40
0.0
 40
0.0
 40
0.0
 40
0.0
 40
0.101238108270756
 40
0.5505893132942556
 40
1.0
 40
1.0
 40
1.0
 40
1.0
 10
220.9998897894329
 20
146.4663229021219
 30
0.0
 10
220.9967922328366
 20
146.4663229021219
 30
0.0
 10
220.9799459919459
 20
146.4663229021219
 30
0.0
 10
220.8778616789527
 20
146.4663229021218
 30
0.0
 10
220.8531335869052
 20
146.4663229021219
 30
0.0
 10
220.8407687226066
 20
146.4663229021219
 30
0.0
  0
LINE
  5
12F
330
1F
100
AcDbEntity
  8
0
  6
HIDDEN
 62
     7
370
     0
100
AcDbLine
 10
220.8407687226
 20
146.4663229021
 30
0.0
 11
220.8407687226
 21
93.6663229021
 31
0.0
  0
SPLINE
  5
130
330
1F
100
AcDbEntity
  8
0
  6
HIDDEN
 62
     7
370
     0
100
AcDbSpline
210
0.0
220
0.0
230
1.0
 70
    24
 71
     3
 72
    18
 73
    14
 74
     0
 42
0.00000001
 43
0.00000001
 40
0.0
 40
0.0
 40
0.0
 40
0.0
 40
0.4999999999999999
 40
0.4999999999999999
 40
0.7499999999999999
 40
0.7499999999999999
 40
0.875
 40
0.875
 40
0.9375
 40
0.9375
 40
0.96875
 40
0.96875
 40
1.0
 40
1.0
 40
1.0
 40
1.0
 10
220.8407687226066
 20
93.66632290212193
 30
0.0
 10
220.8407687226066
 20
93.66632290212193
 30
0.0
 10
220.8966179151108
 20
93.66632290212193
 30
0.0
 10
220.972335339695
 20
93.66632290212193
 30
0.0
 10
220.9965246920315
 20
93.66632290212193
 30
0.0
 10
221.0222684397345
 20
93.66632290212195
 30
0.0
 10
221.0291140768976
 20
93.66632290212195
 30
0.0
 10
221.0360538762779
 20
93.66632290212193
 30
0.0
 10
221.0378163112398
 20
93.66632290212193
 30
0.0
 10
221.0395844732191
 20
93.66632290212193
 30
0.0
 10
221.0400282648102
 20
93.66632290212193
 30
0.0
 10
221.0406204282044
 20
93.66632290212193
 30
0.0
 10
221.040768793148
 20
93.66632290212193
 30
0.0
 10
221.0407687225796
 20
93.66632290212193
 30
0.0
  0
SPLINE
  5
131
330
1F
100
AcDbEntity
  8
0
  6
HIDDEN
 62
     7
370
     0
100
AcDbSpline
210
0.0
220
0.0
230
1.0
 70
    24
 71
     3
 72
    10
 73
     6
 74
     0
 42
0.00000001
 43
0.00000001
 40
0.0
 40
0.0
 40
0.0
 40
0.0
 40
0.0885241162290325
 40
0.544231896555937
 40
0.9999999999999999
 40
0.9999999999999999
 40
0.9999999999999999
 40
0.9999999999999999
 10
220.9984260749765
 20
93.66632290212195
 30
0.0
 10
220.9957121834324
 20
93.66632290212195
 30
0.0
 10
220.9790276187618
 20
93.66632290212193
 30
0.0
 10
220.8776713752247
 20
93.66632290212195
 30
0.0
 10
220.8530701495304
 20
93.66632290212196
 30
0.0
 10
220.8407687226066
 20
93.66632290212195
 30
0.0
  0
LINE
  5
132
330
1F
100
AcDbEntity
  8
0
  6
HIDDEN
 62
     7
370
     0
100
AcDbLine
 10
220.8407687226
 20
93.6663229021
 30
0.0
 11
220.8407687226
 21
146.4663229021
 31
0.0
  0
SPLINE
  5
133
330
1F
100
AcDbEntity
  8
0
  6
HIDDEN
 62
     7
370
     0
100
AcDbSpline
210
0.0
220
0.0
230
1.0
 70
     8
 71
     3
 72
    70
 73
    66
 74
     0
 42
0.00000001
 43
0.00000001
 40
-0.03125
 40
-0.03125
 40
0.0
 40
0.0
 40
0.03125
 40
0.03125
 40
0.0625
 40
0.0625
 40
0.09375
 40
0.09375
 40
0.125
 40
0.125
 40
0.15625
 40
0.15625
 40
0.1875
 40
0.1875
 40
0.21875
 40
0.21875
 40
0.25
 40
0.25
 40
0.28125
 40
0.28125
 40
0.3125
 40
0.3125
 40
0.34375
 40
0.34375
 40
0.375
 40
0.375
 40
0.40625
 40
0.40625
 40
0.4375
 40
0.4375
 40
0.46875
 40
0.46875
 40
0.5
 40
0.5
 40
0.53125
 40
0.53125
 40
0.5625
 40
0.5625
 40
0.59375
 40
0.59375
 40
0.625
 40
0.625
 40
0.65625
 40
0.65625
 40
0.6875
 40
0.6875
 40
0.71875
 40
0.71875
 40
0.75
 40
0.75
 40
0.78125
 40
0.78125
 40
0.8125
 40
0.8125
 40
0.84375
 40
0.84375
 40
0.875
 40
0.875
 40
0.90625
 40
0.90625
 40
0.9375
 40
0.9375
 40
0.96875
 40
0.96875
 40
1.0
 40
1.0
 40
1.03125
 40
1.03125
 10
224.6923973313726
 20
129.1182177582621
 30
0.0
 10
225.0891401138406
 20
129.1182177582621
 30
0.0
 10
225.2841632814099
 20
129.1366129389242
 30
0.0
 10
225.667797313856
 20
129.2085435798452
 30
0.0
 10
225.8584086548838
 20
129.262961535262
 30
0.0
 10
226.221630167851
 20
129.4045094804297
 30
0.0
 10
226.3938753526874
 20
129.4909616031902
 30
0.0
 10
226.7198559744679
 20
129.6944587082885
 30
0.0
 10
226.8740708104066
 20
129.8124818188321
 30
0.0
 10
227.15054636983
 20
130.0691505118596
 30
0.0
 10
227.2746698627433
 20
130.2087277454083
 30
0.0
 10
227.493986681196
 20
130.5104301768436
 30
0.0
 10
227.5870843673036
 20
130.6701623308455
 30
0.0
 10
227.7367566550917
 20
130.9989832185425
 30
0.0
 10
227.7944356151263
 20
131.1705060635208
 30
0.0
 10
227.8715639134722
 20
131.5195730277063
 30
0.0
 10
227.8906602379667
 20
131.6941122580781
 30
0.0
 10
227.8908762942928
 20
132.0430903415293
 30
0.0
 10
227.871367047437
 20
132.2193112281564
 30
0.0
 10
227.7947723886739
 20
132.5583047101318
 30
0.0
 10
227.7381017208062
 20
132.7221152225538
 30
0.0
 10
227.5877675258538
 20
133.0386328581438
 30
0.0
 10
227.4939058535595
 20
133.1905668967575
 30
0.0
 10
227.2768687779872
 20
133.4705881718921
 30
0.0
 10
227.1528766897897
 20
133.6005235176247
 30
0.0
 10
226.8730157697753
 20
133.8396779551003
 30
0.0
 10
226.7216693406709
 20
133.9450613721231
 30
0.0
 10
226.3969901578624
 20
134.129166919621
 30
0.0
 10
226.2215797317602
 20
134.2085222061772
 30
0.0
 10
225.8583708149524
 20
134.3353987539413
 30
0.0
 10
225.6713824149677
 20
134.3831213912306
 30
0.0
 10
225.2866896301362
 20
134.4476872792905
 30
0.0
 10
225.0877431574577
 20
134.4641956137167
 30
0.0
 10
224.6960277426943
 20
134.4643178446042
 30
0.0
 10
224.5012557209799
 20
134.448465686896
 30
0.0
 10
224.1139339892003
 20
134.3840450084961
 30
0.0
 10
223.9245797123382
 20
134.335732546366
 30
0.0
 10
223.5634412600181
 20
134.2098967566921
 30
0.0
 10
223.3888873710554
 20
134.1314053076572
 30
0.0
 10
223.0609199568523
 20
133.9458767873265
 30
0.0
 10
222.9098949491488
 20
133.8405189540281
 30
0.0
 10
222.6330727805612
 20
133.6046194487407
 30
0.0
 10
222.5063218938536
 20
133.4724924300061
 30
0.0
 10
222.288416166202
 20
133.1918053440543
 30
0.0
 10
222.1961217203462
 20
133.0427616110503
 30
0.0
 10
222.0451688858296
 20
132.7265650437104
 30
0.0
 10
221.9872436699598
 20
132.5597225206139
 30
0.0
 10
221.9106073842357
 20
132.2219373547665
 30
0.0
 10
221.8909533937198
 20
132.0492515665645
 30
0.0
 10
221.8905866164913
 20
131.6958433669865
 30
0.0
 10
221.9098957960148
 20
131.5209468305588
 30
0.0
 10
221.9858533797104
 20
131.1751519476891
 30
0.0
 10
222.0434317759172
 20
131.0023585167558
 30
0.0
 10
222.1937564176291
 20
130.6712868120883
 30
0.0
 10
222.2857655677641
 20
130.5134138099756
 30
0.0
 10
222.5031779069833
 20
130.2132887116983
 30
0.0
 10
222.6296459820559
 20
130.0705705498895
 30
0.0
 10
222.9059380179546
 20
129.8137313887172
 30
0.0
 10
223.0567464102442
 20
129.6979024723078
 30
0.0
 10
223.3844125540583
 20
129.4926361185804
 30
0.0
 10
223.5587035640877
 20
129.4051525340062
 30
0.0
 10
223.9194767402969
 20
129.2642131050141
 30
0.0
 10
224.1083869699875
 20
129.2097576313228
 30
0.0
 10
224.4962566625004
 20
129.1366156039062
 30
0.0
 10
224.6923973313726
 20
129.1182177582621
 30
0.0
 10
225.0891401138406
 20
129.1182177582621
 30
0.0
  0
LINE
  5
134
330
1F
100
AcDbEntity
  8
0
  6
HIDDEN
 62
     7
370
     0
100
AcDbLine
 10
194.8907687226
 20
94.742398981
 30
0.0
 11
194.8907687226
 21
145.3712020297
 31
0.0
  0
LINE
  5
135
330
1F
100
AcDbEntity
  8
0
  6
HIDDEN
 62
     7
370
     0
100
AcDbLine
 10
199.8407687226
 20
139.9163229021
 30
0.0
 11
207.0863890683
 21
139.9163229021
 31
0.0
  0
LWPOLYLINE
  5
136
330
1F
100
AcDbEntity
  8
0
  6
HIDDEN
 62
     7
370
     0
100
AcDbPolyline
 90
        2
 70
   128
 43
0.0
 10
214.8007687226
 20
139.9163229021
 10
214.8007687226
 20
139.9163229021
  0
LWPOLYLINE
  5
137
330
1F
100
AcDbEntity
  8
0
  6
HIDDEN
 62
     7
370
     0
100
AcDbPolyline
 90
        2
 70
   128
 43
0.0
 10
220.8407687226
 20
139.9163229021
 10
220.8407687226
 20
139.9163229021
  0
LWPOLYLINE
  5
138
330
1F
100
AcDbEntity
  8
0
  6
HIDDEN
 62
     7
370
     0
100
AcDbPolyline
 90
        2
 70
   128
 43
0.0
 10
210.9807687226
 20
139.9163229021
 10
210.9807687226
 20
139.9163229021
  0
SPLINE
  5
139
330
1F
100
AcDbEntity
  8
0
  6
HIDDEN
 62
     7
370
     0
100
AcDbSpline
210
0.0
220
0.0
230
1.0
 70
     8
 71
     3
 72
    14
 73
    10
 74
     0
 42
0.00000001
 43
0.00000001
 40
0.0
 40
0.0
 40
0.0
 40
0.0
 40
0.5
 40
0.5
 40
0.749999999999999
 40
0.749999999999999
 40
0.8749999999999996
 40
0.8749999999999996
 40
1.0
 40
1.0
 40
1.0
 40
1.0
 10
164.1407687226066
 20
99.19658736923104
 30
0.0
 10
164.9486657467046
 20
99.19799960125624
 30
0.0
 10
165.7544299150309
 20
99.20439257897341
 30
0.0
 10
166.9548705860391
 20
99.23344439060818
 30
0.0
 10
167.3536894393328
 20
99.24627732638191
 30
0.0
 10
167.9472177894815
 20
99.2767355079474
 30
0.0
 10
168.1442806878795
 20
99.28874813820931
 30
0.0
 10
168.5352197227288
 20
99.32038960548782
 30
0.0
 10
168.7295947745524
 20
99.33882367816194
 30
0.0
 10
168.9186423458917
 20
99.37000815425853
 30
0.0
  0
SPLINE
  5
13A
330
1F
100
AcDbEntity
  8
0
  6
HIDDEN
 62
     7
370
     0
100
AcDbSpline
210
0.0
220
0.0
230
1.0
 70
     8
 71
     3
 72
    10
 73
     6
 74
     0
 42
0.00000001
 43
0.00000001
 40
0.0
 40
0.0
 40
0.0
 40
0.0
 40
0.5
 40
0.5
 40
1.0
 40
1.0
 40
1.0
 40
1.0
 10
168.9186423458916
 20
99.37000815425861
 30
0.0
 10
169.365583287116
 20
99.44373361393764
 30
0.0
 10
169.8256951756583
 20
99.51006226581785
 30
0.0
 10
170.7525848794029
 20
99.63309173465125
 30
0.0
 10
171.2202886114386
 20
99.6898168051016
 30
0.0
 10
171.6907687226065
 20
99.74341947657004
 30
0.0
  0
SPLINE
  5
13B
330
1F
100
AcDbEntity
  8
0
  6
HIDDEN
 62
     7
370
     0
100
AcDbSpline
210
0.0
220
0.0
230
1.0
 70
     8
 71
     3
 72
    14
 73
    10
 74
     0
 42
0.00000001
 43
0.00000001
 40
0.0
 40
0.0
 40
0.0
 40
0.0
 40
0.1249999999999996
 40
0.1249999999999996
 40
0.2499999999999992
 40
0.2499999999999992
 40
0.4999999999999984
 40
0.4999999999999984
 40
1.0
 40
1.0
 40
1.0
 40
1.0
 10
171.6907687226065
 20
99.74341947657001
 30
0.0
 10
171.7475434778271
 20
99.74988792970873
 30
0.0
 10
171.8102265787564
 20
99.7440306264999
 30
0.0
 10
171.9161143532944
 20
99.7141343051621
 30
0.0
 10
171.9600186108956
 20
99.69225936320714
 30
0.0
 10
172.0724518590532
 20
99.62288807654033
 30
0.0
 10
172.1255800629155
 20
99.57038902233899
 30
0.0
 10
172.2605675246557
 20
99.41510601402068
 30
0.0
 10
172.3188282361355
 20
99.30931954018634
 30
0.0
 10
172.366096069754
 20
99.20683001409674
 30
0.0
  0
SPLINE
  5
13C
330
1F
100
AcDbEntity
  8
0
  6
HIDDEN
 62
     7
370
     0
100
AcDbSpline
210
0.0
220
0.0
230
1.0
 70
     8
 71
     3
 72
    12
 73
     8
 74
     0
 42
0.00000001
 43
0.00000001
 40
0.0
 40
0.0
 40
0.0
 40
0.0
 40
0.2500000000000001
 40
0.2500000000000001
 40
0.5000000000000002
 40
0.5000000000000002
 40
1.0
 40
1.0
 40
1.0
 40
1.0
 10
172.3660960697396
 20
99.20683001409589
 30
0.0
 10
172.4149366400747
 20
99.10093036682463
 30
0.0
 10
172.4999835552746
 20
98.99899680541711
 30
0.0
 10
172.6696349638381
 20
98.80249060017888
 30
0.0
 10
172.7560969625644
 20
98.70746323857998
 30
0.0
 10
172.9814901674813
 20
98.43018474422097
 30
0.0
 10
173.0907687226066
 20
98.25546737141022
 30
0.0
 10
173.0907687226066
 20
98.09200719396485
 30
0.0
  0
LINE
  5
13D
330
1F
100
AcDbEntity
  8
0
  6
HIDDEN
 62
     7
370
     0
100
AcDbLine
 10
173.0907687226
 20
98.092007194
 30
0.0
 11
173.0907687226
 21
96.8378760083
 31
0.0
  0
LINE
  5
13E
330
1F
100
AcDbEntity
  8
0
  6
HIDDEN
 62
     7
370
     0
100
AcDbLine
 10
169.0907687226
 20
143.0943689943
 30
0.0
 11
169.0907687226
 21
141.9104305745
 31
0.0
  0
SPLINE
  5
13F
330
1F
100
AcDbEntity
  8
0
  6
HIDDEN
 62
     7
370
     0
100
AcDbSpline
210
0.0
220
0.0
230
1.0
 70
     8
 71
     3
 72
    18
 73
    14
 74
     0
 42
0.00000001
 43
0.00000001
 40
0.0
 40
0.0
 40
0.0
 40
0.0
 40
0.2499999999999983
 40
0.2499999999999983
 40
0.4999999999999972
 40
0.4999999999999972
 40
0.7499999999999961
 40
0.7499999999999961
 40
0.8749999999999969
 40
0.8749999999999969
 40
0.9374999999999984
 40
0.9374999999999984
 40
1.0
 40
1.0
 40
1.0
 40
1.0
 10
169.0907687226066
 20
141.9104305744849
 30
0.0
 10
169.0907687226066
 20
141.8272236656277
 30
0.0
 10
169.0549196226683
 20
141.7384870103141
 30
0.0
 10
168.9300478866344
 20
141.5563618197539
 30
0.0
 10
168.8396474689865
 20
141.4612317711273
 30
0.0
 10
168.6174048142444
 20
141.2720502620029
 30
0.0
 10
168.4876400277986
 20
141.1771050939082
 30
0.0
 10
168.2470025704871
 20
141.0388263863283
 30
0.0
 10
168.1592352723497
 20
140.9931159530259
 30
0.0
 10
168.0047111851428
 20
140.9352926478045
 30
0.0
 10
167.9481002990881
 20
140.9175778837666
 30
0.0
 10
167.8240562681815
 20
140.8930385805337
 30
0.0
 10
167.7563415931632
 20
140.8870594419954
 30
0.0
 10
167.6907687226066
 20
140.8894102939497
 30
0.0
  0
SPLINE
  5
140
330
1F
100
AcDbEntity
  8
0
  6
HIDDEN
 62
     7
370
     0
100
AcDbSpline
210
0.0
220
0.0
230
1.0
 70
     8
 71
     3
 72
    10
 73
     6
 74
     0
 42
0.00000001
 43
0.00000001
 40
0.0
 40
0.0
 40
0.0
 40
0.0
 40
0.5
 40
0.5
 40
1.0
 40
1.0
 40
1.0
 40
1.0
 10
167.6907687226066
 20
140.8894102939496
 30
0.0
 10
167.103183175516
 20
140.9104758141861
 30
0.0
 10
166.5124367820556
 20
140.9212343000583
 30
0.0
 10
165.3284176167567
 20
140.934599080594
 30
0.0
 10
164.7350036285513
 20
140.9367417232585
 30
0.0
 10
164.1407687226066
 20
140.936260667517
 30
0.0
  0
SPLINE
  5
141
330
1F
100
AcDbEntity
  8
0
  6
HIDDEN
 62
     7
370
     0
100
AcDbSpline
210
0.0
220
0.0
230
1.0
 70
     8
 71
     3
 72
     8
 73
     4
 74
     0
 42
0.00000001
 43
0.00000001
 40
0.0000003292049692
 40
0.0000003292049692
 40
0.0000003292049692
 40
0.0000003292049692
 40
0.000016905094931
 40
0.000016905094931
 40
0.000016905094931
 40
0.000016905094931
 10
164.1407687226066
 20
140.936260667517
 30
0.0
 10
164.1374121404698
 20
140.9343486734201
 30
0.0
 10
164.1340637763443
 20
140.932433383165
 30
0.0
 10
164.1307237921752
 20
140.9305147745497
 30
0.0
  0
SPLINE
  5
142
330
1F
100
AcDbEntity
  8
0
  6
HIDDEN
 62
     7
370
     0
100
AcDbSpline
210
0.0
220
0.0
230
1.0
 70
     8
 71
     3
 72
     8
 73
     4
 74
     0
 42
0.00000001
 43
0.00000001
 40
0.0000003409637668
 40
0.0000003409637668
 40
0.0000003409637668
 40
0.0000003409637668
 40
0.000017415394438
 40
0.000017415394438
 40
0.000017415394438
 40
0.000017415394438
 10
164.1307237921884
 20
99.20258316702274
 30
0.0
 10
164.1340624429467
 20
99.20058093192537
 30
0.0
 10
164.1374108181264
 20
99.1985823401552
 30
0.0
 10
164.1407687226066
 20
99.19658736923103
 30
0.0
  0
LINE
  5
143
330
1F
100
AcDbEntity
  8
0
  6
HIDDEN
 62
     7
370
     0
100
AcDbLine
 10
192.8907687226
 20
144.2867537638
 30
0.0
 11
192.8907687226
 21
95.8458920404
 31
0.0
  0
SPLINE
  5
144
330
1F
100
AcDbEntity
  8
0
  6
HIDDEN
 62
     7
370
     0
100
AcDbSpline
210
0.0
220
0.0
230
1.0
 70
     8
 71
     3
 72
    12
 73
     8
 74
     0
 42
0.00000001
 43
0.00000001
 40
0.0
 40
0.0
 40
0.0
 40
0.0
 40
0.1192152782091002
 40
0.2486291495149585
 40
0.50071869543888
 40
0.7537054055439842
 40
1.0
 40
1.0
 40
1.0
 40
1.0
 10
182.8859189271782
 20
96.54172327930016
 30
0.0
 10
182.8037762291085
 20
96.53398732780079
 30
0.0
 10
182.6324637139112
 20
96.51785363192832
 30
0.0
 10
182.2661097501785
 20
96.48487893613961
 30
0.0
 10
181.9613467279219
 20
96.44670143411153
 30
0.0
 10
181.7029682694384
 20
96.41482547697453
 30
0.0
 10
181.6739762614334
 20
96.41080015689701
 30
0.0
 10
181.6596745545823
 20
96.40881447354178
 30
0.0
  0
SPLINE
  5
145
330
1F
100
AcDbEntity
  8
0
  6
HIDDEN
 62
     7
370
     0
100
AcDbSpline
210
0.0
220
0.0
230
1.0
 70
     8
 71
     3
 72
    20
 73
    16
 74
     0
 42
0.00000001
 43
0.00000001
 40
0.0
 40
0.0
 40
0.0
 40
0.0
 40
0.0014371417843427
 40
0.0850458908086342
 40
0.1697599742259441
 40
0.2540983643787711
 40
0.337329535554865
 40
0.4202346307100778
 40
0.5035601638150926
 40
0.5868465105665922
 40
0.6687600060933067
 40
0.7507345792016868
 40
0.8338925024192404
 40
0.9172623649586593
 40
1.0
 40
1.0
 40
1.0
 40
1.0
 10
190.0738353400573
 20
95.9872647851983
 30
0.0
 10
190.0742883098347
 20
95.98716095936963
 30
0.0
 10
190.1010937500846
 20
95.9810168473648
 30
0.0
 10
190.005065238632
 20
96.00311366946977
 30
0.0
 10
189.7720197014645
 20
96.05499329939013
 30
0.0
 10
189.3782346356208
 20
96.14005043746913
 30
0.0
 10
188.8537762572454
 20
96.2418056866679
 30
0.0
 10
188.2148129470189
 20
96.3497018909197
 30
0.0
 10
187.4816476936281
 20
96.45074780636936
 30
0.0
 10
186.6890844807117
 20
96.5351569618104
 30
0.0
 10
185.8643356869391
 20
96.5925605831029
 30
0.0
 10
185.0376184289248
 20
96.61931865543801
 30
0.0
 10
184.2433110686611
 20
96.6148833941177
 30
0.0
 10
183.4998816301161
 20
96.58756791242587
 30
0.0
 10
183.0900532074408
 20
96.55696599867422
 30
0.0
 10
182.8859189271782
 20
96.54172327930016
 30
0.0
  0
SPLINE
  5
146
330
1F
100
AcDbEntity
  8
0
  6
HIDDEN
 62
     7
370
     0
100
AcDbSpline
210
0.0
220
0.0
230
1.0
 70
     8
 71
     3
 72
    20
 73
    16
 74
     0
 42
0.00000001
 43
0.00000001
 40
0.0
 40
0.0
 40
0.0
 40
0.0
 40
0.0828182133813295
 40
0.16619368811573
 40
0.2493852825370401
 40
0.3315155124772279
 40
0.4133807586231846
 40
0.496835608114876
 40
0.5800413781711404
 40
0.6629790154186294
 40
0.7460493132171998
 40
0.8302847957804698
 40
0.9148461952092953
 40
0.9984038487566718
 40
1.0
 40
1.0
 40
1.0
 40
1.0
 10
182.8858262068963
 20
143.5909059321037
 30
0.0
 10
183.090477963596
 20
143.5757158949367
 30
0.0
 10
183.5011585233017
 20
143.5452336109521
 30
0.0
 10
184.2448838150052
 20
143.517923135743
 30
0.0
 10
185.0398432996837
 20
143.5135102587548
 30
0.0
 10
185.8669719382464
 20
143.5401785512371
 30
0.0
 10
186.6927136737459
 20
143.5976425534629
 30
0.0
 10
187.4849906706807
 20
143.6822300794946
 30
0.0
 10
188.2178141285444
 20
143.7834036765817
 30
0.0
 10
188.8557236206114
 20
143.8911892370959
 30
0.0
 10
189.3795785825667
 20
143.9927966092696
 30
0.0
 10
189.7727230678051
 20
144.0776866386436
 30
0.0
 10
190.0053856579564
 20
144.1295218998822
 30
0.0
 10
190.1014558987843
 20
144.1516242167673
 30
0.0
 10
190.0742897800212
 20
144.1454672841719
 30
0.0
 10
190.0737805692543
 20
144.1453518765793
 30
0.0
  0
SPLINE
  5
147
330
1F
100
AcDbEntity
  8
0
  6
HIDDEN
 62
     7
370
     0
100
AcDbSpline
210
0.0
220
0.0
230
1.0
 70
     8
 71
     3
 72
    12
 73
     8
 74
     0
 42
0.00000001
 43
0.00000001
 40
0.0
 40
0.0
 40
0.0
 40
0.0
 40
0.2468412763863432
 40
0.4995707343914294
 40
0.7516700890846413
 40
0.8176861511893334
 40
1.0
 40
1.0
 40
1.0
 40
1.0
 10
181.6592694646755
 20
143.723862485922
 30
0.0
 10
181.6733830816897
 20
143.7218440052144
 30
0.0
 10
181.701946983643
 20
143.7177588947168
 30
0.0
 10
181.9627364928683
 20
143.6857608165732
 30
0.0
 10
182.2296249069865
 20
143.651494019472
 30
0.0
 10
182.5883023772322
 20
143.6188021090508
 30
0.0
 10
182.7598689318311
 20
143.6027158312871
 30
0.0
 10
182.8858262068963
 20
143.5909059321037
 30
0.0
  0
LWPOLYLINE
  5
148
330
1F
100
AcDbEntity
  8
0
  6
HIDDEN
 62
     7
370
     0
100
AcDbPolyline
 90
       26
 70
   128
 43
0.0
 10
224.1355344746
 20
115.0582747073
 10
224.2263645214
 20
114.8710329569
 10
224.2064814602
 20
114.5787265017
 10
224.077134617
 20
114.1997220312
 10
223.8464513295
 20
113.7578337903
 10
223.5289262772
 20
113.2808272422
 10
223.1445107267
 20
112.7986744627
 10
222.7173589211
 20
112.3416708842
 10
222.2743103791
 20
111.9385317222
 10
221.84320347
 20
111.6145876929
 10
221.4511262265
 20
111.3901933911
 10
221.1227143038
 20
111.2794483359
 10
220.8786030307
 20
111.2893110467
 10
220.7341308163
 20
111.4191618128
 10
220.6983753812
 20
111.6608416332
 10
220.7735833709
 20
111.9991648758
 10
220.9550291907
 20
112.4128734472
 10
221.2313119326
 20
112.8759725161
 10
221.5850717357
 20
113.3593638651
 10
221.9940805706
 20
113.8326742378
 10
222.4326389079
 20
114.2661638027
 10
222.8731905144
 20
114.6325948164
 10
223.2880539125
 20
114.9089430705
 10
223.651161709
 20
115.0778445878
 10
223.9396985058
 20
115.128686665
 10
224.1355344746
 20
115.0582747073
  0
SPLINE
  5
149
330
1F
100
AcDbEntity
  8
0
  6
HIDDEN
 62
     7
370
     0
100
AcDbSpline
210
0.0
220
0.0
230
1.0
 70
     8
 71
     3
 72
    82
 73
    78
 74
     0
 42
0.00000001
 43
0.00000001
 40
0.0
 40
0.0
 40
0.0
 40
0.0
 40
0.0156249999999997
 40
0.0156249999999997
 40
0.0312499999999994
 40
0.0312499999999994
 40
0.0468749999999991
 40
0.0468749999999991
 40
0.0624999999999988
 40
0.0624999999999988
 40
0.0937499999999982
 40
0.0937499999999982
 40
0.1249999999999976
 40
0.1249999999999976
 40
0.1562499999999971
 40
0.1562499999999971
 40
0.1874999999999967
 40
0.1874999999999967
 40
0.2187499999999964
 40
0.2187499999999964
 40
0.249999999999996
 40
0.249999999999996
 40
0.2812499999999956
 40
0.2812499999999956
 40
0.3124999999999958
 40
0.3124999999999958
 40
0.3437499999999959
 40
0.3437499999999959
 40
0.374999999999996
 40
0.374999999999996
 40
0.4062499999999962
 40
0.4062499999999962
 40
0.4374999999999963
 40
0.4374999999999963
 40
0.4687499999999964
 40
0.4687499999999964
 40
0.4843749999999967
 40
0.4843749999999967
 40
0.4999999999999969
 40
0.4999999999999969
 40
0.5156249999999971
 40
0.5156249999999971
 40
0.5312499999999974
 40
0.5312499999999974
 40
0.5624999999999976
 40
0.5624999999999976
 40
0.5937499999999978
 40
0.5937499999999978
 40
0.624999999999998
 40
0.624999999999998
 40
0.6562499999999981
 40
0.6562499999999981
 40
0.6874999999999983
 40
0.6874999999999983
 40
0.7187499999999986
 40
0.7187499999999986
 40
0.7499999999999987
 40
0.7499999999999987
 40
0.7812499999999989
 40
0.7812499999999989
 40
0.8124999999999991
 40
0.8124999999999991
 40
0.8437499999999993
 40
0.8437499999999993
 40
0.8749999999999994
 40
0.8749999999999994
 40
0.9062499999999997
 40
0.9062499999999997
 40
0.9374999999999999
 40
0.9374999999999999
 40
0.9531249999999999
 40
0.9531249999999999
 40
0.9687499999999999
 40
0.9687499999999999
 40
0.984375
 40
0.984375
 40
1.0
 40
1.0
 40
1.0
 40
1.0
 10
227.0561490165526
 20
112.0997820359012
 30
0.0
 10
227.0380679561739
 20
112.1683848971746
 30
0.0
 10
227.0266782189725
 20
112.227599916906
 30
0.0
 10
227.0297326859096
 20
112.3105726739754
 30
0.0
 10
227.043897064517
 20
112.332203331381
 30
0.0
 10
227.0829679751539
 20
112.350353425146
 30
0.0
 10
227.1069060085212
 20
112.3476996074857
 30
0.0
 10
227.1554060338158
 20
112.331171378227
 30
0.0
 10
227.1802335684782
 20
112.3169051946365
 30
0.0
 10
227.2504383204494
 20
112.263422050693
 30
0.0
 10
227.2917582293436
 20
112.213799471726
 30
0.0
 10
227.3548020019287
 20
112.0961917421949
 30
0.0
 10
227.376863178106
 20
112.0272062585733
 30
0.0
 10
227.3951242247129
 20
111.8731556927244
 30
0.0
 10
227.3915672114185
 20
111.788503893828
 30
0.0
 10
227.3532064575743
 20
111.6027390463928
 30
0.0
 10
227.3177212857769
 20
111.5005141377548
 30
0.0
 10
227.2101733586768
 20
111.2857895068131
 30
0.0
 10
227.1369384003827
 20
111.1708849817085
 30
0.0
 10
226.9500757664553
 20
110.9351566935377
 30
0.0
 10
226.836797128483
 20
110.8146881346356
 30
0.0
 10
226.5739213325328
 20
110.5771107123927
 30
0.0
 10
226.4287084818931
 20
110.4636301556191
 30
0.0
 10
226.1123254290524
 20
110.2482260668133
 30
0.0
 10
225.9488206719242
 20
110.1514439268997
 30
0.0
 10
225.6125387645963
 20
109.9768011046576
 30
0.0
 10
225.4454766263351
 20
109.9019596086498
 30
0.0
 10
225.1157420309611
 20
109.7739258788938
 30
0.0
 10
224.9512795885984
 20
109.7202964370619
 30
0.0
 10
224.6361201453097
 20
109.63573163478
 30
0.0
 10
224.4840729256767
 20
109.6041125519786
 30
0.0
 10
224.1880251464425
 20
109.561288280405
 30
0.0
 10
224.0434697786582
 20
109.5499803194146
 30
0.0
 10
223.7641158178784
 20
109.5528190620624
 30
0.0
 10
223.6284187259274
 20
109.5655166239005
 30
0.0
 10
223.4239445193312
 20
109.6227434319408
 30
0.0
 10
223.3548447510733
 20
109.6487411476398
 30
0.0
 10
223.2158681193598
 20
109.7258285317131
 30
0.0
 10
223.1447155578416
 20
109.7792380446984
 30
0.0
 10
223.014992535813
 20
109.9103390974902
 30
0.0
 10
222.9555574633781
 20
109.9878393636639
 30
0.0
 10
222.8518570506441
 20
110.1463884787877
 30
0.0
 10
222.8057290322299
 20
110.2295812309093
 30
0.0
 10
222.6816502343048
 20
110.4804785531593
 30
0.0
 10
222.6160588615958
 20
110.6518572999716
 30
0.0
 10
222.5080312794022
 20
111.0039390613906
 30
0.0
 10
222.46600702795
 20
111.1859676568915
 30
0.0
 10
222.4082863251419
 20
111.5527195176665
 30
0.0
 10
222.3923733088684
 20
111.7375592269876
 30
0.0
 10
222.3893914762821
 20
112.1109237436408
 30
0.0
 10
222.4026945961782
 20
112.3016459881821
 30
0.0
 10
222.4642204428222
 20
112.6751086932165
 30
0.0
 10
222.5118728947714
 20
112.8576441955698
 30
0.0
 10
222.6495792179042
 20
113.2121609966684
 30
0.0
 10
222.7370275933403
 20
113.3770220002277
 30
0.0
 10
222.9534667238169
 20
113.6762167523241
 30
0.0
 10
223.0803777600412
 20
113.8064604685954
 30
0.0
 10
223.360883940855
 20
114.0165797768092
 30
0.0
 10
223.5155760749085
 20
114.0968468713426
 30
0.0
 10
223.8318557746071
 20
114.2032238765821
 30
0.0
 10
223.9959309057025
 20
114.2304902512856
 30
0.0
 10
224.3166726939302
 20
114.2403635323443
 30
0.0
 10
224.4773839919445
 20
114.2233750908631
 30
0.0
 10
224.7877360860238
 20
114.1546223456934
 30
0.0
 10
224.9368128655378
 20
114.103448155608
 30
0.0
 10
225.2240499295367
 20
113.97391772268
 30
0.0
 10
225.3631400982749
 20
113.8947814773143
 30
0.0
 10
225.6236666124933
 20
113.7160906357563
 30
0.0
 10
225.7455377392521
 20
113.6166433388833
 30
0.0
 10
225.9109792885894
 20
113.4557986750441
 30
0.0
 10
225.9632030352936
 20
113.4002306081449
 30
0.0
 10
226.0584023613695
 20
113.2862410015058
 30
0.0
 10
226.1016055191811
 20
113.2275635000108
 30
0.0
 10
226.1663130772003
 20
113.1148397035367
 30
0.0
 10
226.187199153187
 20
113.0608652812058
 30
0.0
 10
226.1875088892957
 20
112.9734938769577
 30
0.0
 10
226.1669455631915
 20
112.9423306732718
 30
0.0
 10
226.1340915006486
 20
112.9190213244731
 30
0.0
  0
SPLINE
  5
14A
330
1F
100
AcDbEntity
  8
0
  6
HIDDEN
 62
     7
370
     0
100
AcDbSpline
210
0.0
220
0.0
230
1.0
 70
     8
 71
     3
 72
    10
 73
     6
 74
     0
 42
0.00000001
 43
0.00000001
 40
0.0
 40
0.0
 40
0.0
 40
0.0
 40
0.5
 40
0.5
 40
1.0
 40
1.0
 40
1.0
 40
1.0
 10
226.1340915006332
 20
112.9190213244858
 30
0.0
 10
226.2830708747775
 20
112.7653441794463
 30
0.0
 10
226.4339111769235
 20
112.6189069661805
 30
0.0
 10
226.7418520572583
 20
112.3452481366465
 30
0.0
 10
226.9000007763188
 20
112.2173573667821
 30
0.0
 10
227.0561490165752
 20
112.0997820358781
 30
0.0
  0
SPLINE
  5
14B
330
1F
100
AcDbEntity
  8
0
  6
HIDDEN
 62
     7
370
     0
100
AcDbSpline
210
0.0
220
0.0
230
1.0
 70
    11
 71
     3
 72
    22
 73
    18
 74
     0
 42
0.00000001
 43
0.00000001
 40
0.0
 40
0.0
 40
0.0
 40
0.0
 40
0.1249999999999999
 40
0.1249999999999999
 40
0.2499999999999999
 40
0.2499999999999999
 40
0.3749999999999999
 40
0.3749999999999999
 40
0.4999999999999999
 40
0.4999999999999999
 40
0.6249999999999999
 40
0.6249999999999999
 40
0.7499999999999999
 40
0.7499999999999999
 40
0.8749999999999999
 40
0.8749999999999999
 40
1.0
 40
1.0
 40
1.0
 40
1.0
 10
188.6457707242082
 20
139.9038513779384
 30
0.0
 10
188.8047135531773
 20
139.9259250859854
 30
0.0
 10
188.9454051010676
 20
139.942608903973
 30
0.0
 10
189.19139133853
 20
139.9688305988553
 30
0.0
 10
189.2974294212113
 20
139.9784099047006
 30
0.0
 10
189.4679214617784
 20
139.9924891717798
 30
0.0
 10
189.5319741612421
 20
139.9969957480268
 30
0.0
 10
189.6184782123351
 20
140.0028599178647
 30
0.0
 10
189.6407117076952
 20
140.004201850383
 30
0.0
 10
189.6408255137071
 20
140.0042089901326
 30
0.0
 10
189.6193675852219
 20
140.0029163546463
 30
0.0
 10
189.5333817923429
 20
139.9970949251361
 30
0.0
 10
189.4680676455934
 20
139.9924954558603
 30
0.0
 10
189.299061811658
 20
139.9785504350504
 30
0.0
 10
189.1951027737822
 20
139.9691980481921
 30
0.0
 10
188.9475923275432
 20
139.9428695777257
 30
0.0
 10
188.8047082374596
 20
139.9259243477477
 30
0.0
 10
188.6457707242085
 20
139.9038513779385
 30
0.0
  0
SPLINE
  5
14C
330
1F
100
AcDbEntity
  8
0
  6
HIDDEN
 62
     7
370
     0
100
AcDbSpline
210
0.0
220
0.0
230
1.0
 70
    11
 71
     3
 72
    22
 73
    18
 74
     0
 42
0.00000001
 43
0.00000001
 40
0.0
 40
0.0
 40
0.0
 40
0.0
 40
0.125
 40
0.125
 40
0.2500000000000001
 40
0.2500000000000001
 40
0.3750000000000001
 40
0.3750000000000001
 40
0.5
 40
0.5
 40
0.625
 40
0.625
 40
0.75
 40
0.75
 40
0.8750000000000001
 40
0.8750000000000001
 40
1.0
 40
1.0
 40
1.0
 40
1.0
 10
188.6457707242082
 20
100.2287944263055
 30
0.0
 10
188.8047135531773
 20
100.2067207182584
 30
0.0
 10
188.9454051010676
 20
100.1900369002708
 30
0.0
 10
189.1913913385301
 20
100.1638152053885
 30
0.0
 10
189.2974294212113
 20
100.1542358995432
 30
0.0
 10
189.4679214617784
 20
100.140156632464
 30
0.0
 10
189.5319741612421
 20
100.135650056217
 30
0.0
 10
189.6184782123351
 20
100.1297858863791
 30
0.0
 10
189.6407117076952
 20
100.1284439538608
 30
0.0
 10
189.6408255137071
 20
100.1284368141113
 30
0.0
 10
189.6193675852219
 20
100.1297294495975
 30
0.0
 10
189.5333817923429
 20
100.1355508791077
 30
0.0
 10
189.4680676455934
 20
100.1401503483836
 30
0.0
 10
189.299061811658
 20
100.1540953691934
 30
0.0
 10
189.1951027737821
 20
100.1634477560517
 30
0.0
 10
188.9475923275432
 20
100.1897762265181
 30
0.0
 10
188.8047082374595
 20
100.2067214564962
 30
0.0
 10
188.6457707242085
 20
100.2287944263054
 30
0.0
  0
LINE
  5
14D
330
1F
100
AcDbEntity
  8
0
  6
HIDDEN
 62
     7
370
     0
100
AcDbLine
 10
194.8907687226
 20
103.0663229021
 30
0.0
 11
194.8907687226
 21
137.0663229021
 31
0.0
  0
SPLINE
  5
14E
330
1F
100
AcDbEntity
  8
0
  6
HIDDEN
 62
     7
370
     0
100
AcDbSpline
210
0.0
220
0.0
230
1.0
 70
    11
 71
     3
 72
    56
 73
    52
 74
     0
 42
0.00000001
 43
0.00000001
 40
0.0
 40
0.0
 40
0.0
 40
0.0
 40
0.0625000000000002
 40
0.0625000000000002
 40
0.0937500000000004
 40
0.0937500000000004
 40
0.1250000000000005
 40
0.1250000000000005
 40
0.1562500000000007
 40
0.1562500000000007
 40
0.1875000000000008
 40
0.1875000000000008
 40
0.218750000000001
 40
0.218750000000001
 40
0.2500000000000011
 40
0.2500000000000011
 40
0.3125000000000011
 40
0.3125000000000011
 40
0.3437500000000011
 40
0.3437500000000011
 40
0.3750000000000011
 40
0.3750000000000011
 40
0.4062500000000012
 40
0.4062500000000012
 40
0.4375000000000012
 40
0.4375000000000012
 40
0.4687500000000012
 40
0.4687500000000012
 40
0.5000000000000011
 40
0.5000000000000011
 40
0.5625000000000011
 40
0.5625000000000011
 40
0.6250000000000011
 40
0.6250000000000011
 40
0.6875000000000011
 40
0.6875000000000011
 40
0.718750000000001
 40
0.718750000000001
 40
0.7500000000000009
 40
0.7500000000000009
 40
0.7812500000000009
 40
0.7812500000000009
 40
0.8125000000000008
 40
0.8125000000000008
 40
0.8750000000000006
 40
0.8750000000000006
 40
0.9375000000000003
 40
0.9375000000000003
 40
0.9687500000000002
 40
0.9687500000000002
 40
1.0
 40
1.0
 40
1.0
 40
1.0
 10
188.6457707242082
 20
100.2287944263055
 30
0.0
 10
188.3899834136604
 20
100.264317730199
 30
0.0
 10
188.0997936067171
 20
100.2998615991673
 30
0.0
 10
187.6131405084263
 20
100.3463332990761
 30
0.0
 10
187.4427946662651
 20
100.3605792123077
 30
0.0
 10
187.0958212561741
 20
100.384867126506
 30
0.0
 10
186.9178833589394
 20
100.3950434728281
 30
0.0
 10
186.5529640813796
 20
100.410718800432
 30
0.0
 10
186.3646294892843
 20
100.4162057616448
 30
0.0
 10
185.9907426368288
 20
100.4216657559206
 30
0.0
 10
185.8040524226589
 20
100.4217239791798
 30
0.0
 10
185.4311739317396
 20
100.416539837203
 30
0.0
 10
185.2434696888173
 20
100.4112243587315
 30
0.0
 10
184.8765507892697
 20
100.3957219777082
 30
0.0
 10
184.6981010472052
 20
100.3856225699475
 30
0.0
 10
184.1773121438445
 20
100.3494907282936
 30
0.0
 10
183.8464284241735
 20
100.3170615072756
 30
0.0
 10
183.409926865842
 20
100.2655350159085
 30
0.0
 10
183.2731413267894
 20
100.2478104048645
 30
0.0
 10
183.0174167173356
 20
100.2124160783552
 30
0.0
 10
182.89979298923
 20
100.1949195569746
 30
0.0
 10
182.6897235360414
 20
100.1622171609861
 30
0.0
 10
182.5963886973563
 20
100.14688535204
 30
0.0
 10
182.4334429866772
 20
100.1192891926912
 30
0.0
 10
182.3637400238273
 20
100.1070025095776
 30
0.0
 10
182.2531169574953
 20
100.0871575177911
 30
0.0
 10
182.2114352858848
 20
100.0794714052645
 30
0.0
 10
182.1552601455096
 20
100.0690540248872
 30
0.0
 10
182.140821869749
 20
100.0663328672108
 30
0.0
 10
182.1406628746464
 20
100.0663030556302
 30
0.0
 10
182.1963222123832
 20
100.0769651857781
 30
0.0
 10
182.4191469729176
 20
100.1169458575131
 30
0.0
 10
182.5810592585113
 20
100.1452821091454
 30
0.0
 10
183.004850817247
 20
100.2112930181055
 30
0.0
 10
183.2596972397943
 20
100.2477528908967
 30
0.0
 10
183.698340899908
 20
100.2996044138831
 30
0.0
 10
183.8550384361875
 20
100.316492047943
 30
0.0
 10
184.1782383859661
 20
100.347185468564
 30
0.0
 10
184.3459118673863
 20
100.3611452755078
 30
0.0
 10
184.693496733575
 20
100.385344704659
 30
0.0
 10
184.875060214394
 20
100.3956416534898
 30
0.0
 10
185.2412464892029
 20
100.4111476003517
 30
0.0
 10
185.4259039050451
 20
100.4164135822487
 30
0.0
 10
185.9845003116036
 20
100.4243364055042
 30
0.0
 10
186.3668346530741
 20
100.4186222821306
 30
0.0
 10
187.0941317974425
 20
100.3875631959683
 30
0.0
 10
187.4498258715425
 20
100.3618745599183
 30
0.0
 10
187.9331381484935
 20
100.3158025497103
 30
0.0
 10
188.08683575571
 20
100.299200391294
 30
0.0
 10
188.3792579805531
 20
100.2645805360797
 30
0.0
 10
188.5178732037583
 20
100.2465566150413
 30
0.0
 10
188.6457707242082
 20
100.2287944263055
 30
0.0
  0
SPLINE
  5
14F
330
1F
100
AcDbEntity
  8
0
  6
HIDDEN
 62
     7
370
     0
100
AcDbSpline
210
0.0
220
0.0
230
1.0
 70
    11
 71
     3
 72
    56
 73
    52
 74
     0
 42
0.00000001
 43
0.00000001
 40
0.0
 40
0.0
 40
0.0
 40
0.0
 40
0.0624999999999996
 40
0.0624999999999996
 40
0.0937499999999994
 40
0.0937499999999994
 40
0.1249999999999993
 40
0.1249999999999993
 40
0.1562499999999992
 40
0.1562499999999992
 40
0.187499999999999
 40
0.187499999999999
 40
0.2187499999999989
 40
0.2187499999999989
 40
0.2499999999999987
 40
0.2499999999999987
 40
0.3124999999999987
 40
0.3124999999999987
 40
0.3437499999999987
 40
0.3437499999999987
 40
0.3749999999999987
 40
0.3749999999999987
 40
0.4062499999999987
 40
0.4062499999999987
 40
0.4374999999999987
 40
0.4374999999999987
 40
0.4687499999999988
 40
0.4687499999999988
 40
0.4999999999999988
 40
0.4999999999999988
 40
0.5624999999999988
 40
0.5624999999999988
 40
0.6249999999999989
 40
0.6249999999999989
 40
0.6874999999999989
 40
0.6874999999999989
 40
0.7187499999999989
 40
0.7187499999999989
 40
0.7499999999999989
 40
0.7499999999999989
 40
0.781249999999999
 40
0.781249999999999
 40
0.812499999999999
 40
0.812499999999999
 40
0.8749999999999992
 40
0.8749999999999992
 40
0.9374999999999996
 40
0.9374999999999996
 40
0.9687499999999998
 40
0.9687499999999998
 40
1.0
 40
1.0
 40
1.0
 40
1.0
 10
188.6457707242082
 20
139.9038513779384
 30
0.0
 10
188.3899834136604
 20
139.8683280740448
 30
0.0
 10
188.0997936067171
 20
139.8327842050766
 30
0.0
 10
187.6131405084264
 20
139.7863125051677
 30
0.0
 10
187.4427946662652
 20
139.7720665919362
 30
0.0
 10
187.0958212561741
 20
139.7477786777378
 30
0.0
 10
186.9178833589394
 20
139.7376023314158
 30
0.0
 10
186.5529640813796
 20
139.7219270038119
 30
0.0
 10
186.3646294892843
 20
139.716440042599
 30
0.0
 10
185.9907426368288
 20
139.7109800483233
 30
0.0
 10
185.8040524226589
 20
139.7109218250641
 30
0.0
 10
185.4311739317397
 20
139.7161059670409
 30
0.0
 10
185.2434696888173
 20
139.7214214455123
 30
0.0
 10
184.8765507892698
 20
139.7369238265356
 30
0.0
 10
184.6981010472053
 20
139.7470232342963
 30
0.0
 10
184.1773121438445
 20
139.7831550759502
 30
0.0
 10
183.8464284241736
 20
139.8155842969683
 30
0.0
 10
183.409926865842
 20
139.8671107883354
 30
0.0
 10
183.2731413267894
 20
139.8848353993794
 30
0.0
 10
183.0174167173356
 20
139.9202297258887
 30
0.0
 10
182.89979298923
 20
139.9377262472693
 30
0.0
 10
182.6897235360414
 20
139.9704286432578
 30
0.0
 10
182.5963886973563
 20
139.9857604522038
 30
0.0
 10
182.4334429866772
 20
140.0133566115526
 30
0.0
 10
182.3637400238273
 20
140.0256432946663
 30
0.0
 10
182.2531169574953
 20
140.0454882864527
 30
0.0
 10
182.2114352858848
 20
140.0531743989794
 30
0.0
 10
182.1552601455096
 20
140.0635917793566
 30
0.0
 10
182.140821869749
 20
140.0663129370331
 30
0.0
 10
182.1406628746464
 20
140.0663427486137
 30
0.0
 10
182.1963222123832
 20
140.0556806184657
 30
0.0
 10
182.4191469729176
 20
140.0156999467307
 30
0.0
 10
182.5810592585112
 20
139.9873636950985
 30
0.0
 10
183.004850817247
 20
139.9213527861384
 30
0.0
 10
183.2596972397943
 20
139.8848929133472
 30
0.0
 10
183.698340899908
 20
139.8330413903608
 30
0.0
 10
183.8550384361875
 20
139.8161537563008
 30
0.0
 10
184.1782383859661
 20
139.7854603356799
 30
0.0
 10
184.3459118673863
 20
139.7715005287361
 30
0.0
 10
184.693496733575
 20
139.7473010995849
 30
0.0
 10
184.875060214394
 20
139.7370041507541
 30
0.0
 10
185.2412464892029
 20
139.7214982038921
 30
0.0
 10
185.4259039050451
 20
139.7162322219952
 30
0.0
 10
185.9845003116036
 20
139.7083093987397
 30
0.0
 10
186.3668346530741
 20
139.7140235221133
 30
0.0
 10
187.0941317974425
 20
139.7450826082756
 30
0.0
 10
187.4498258715425
 20
139.7707712443255
 30
0.0
 10
187.9331381484935
 20
139.8168432545336
 30
0.0
 10
188.08683575571
 20
139.8334454129499
 30
0.0
 10
188.3792579805531
 20
139.8680652681642
 30
0.0
 10
188.5178732037583
 20
139.8860891892026
 30
0.0
 10
188.6457707242082
 20
139.9038513779384
 30
0.0
  0
LINE
  5
150
330
1F
100
AcDbEntity
  8
0
  6
HIDDEN
 62
     7
370
     0
100
AcDbLine
 10
214.7746210994
 20
139.9163229021
 30
0.0
 11
220.8407687226
 21
139.9163229021
 31
0.0
  0
LINE
  5
151
330
1F
100
AcDbEntity
  8
0
  6
HIDDEN
 62
     7
370
     0
100
AcDbLine
 10
207.0863890683
 20
139.9163229021
 30
0.0
 11
211.0069163458
 21
139.9163229021
 31
0.0
  0
LINE
  5
152
330
1F
100
AcDbEntity
  8
0
  6
HIDDEN
 62
     7
370
     0
100
AcDbLine
 10
175.8947433188
 20
137.0663229021
 30
0.0
 11
175.8947433188
 21
103.0663229021
 31
0.0
  0
SPLINE
  5
153
330
1F
100
AcDbEntity
  8
0
  6
HIDDEN
 62
     7
370
     0
100
AcDbSpline
210
0.0
220
0.0
230
1.0
 70
     8
 71
     3
 72
    64
 73
    60
 74
     0
 42
0.00000001
 43
0.00000001
 40
-0.0312500000000001
 40
-0.0312500000000001
 40
0.0
 40
0.0
 40
0.0312499999999997
 40
0.0312499999999997
 40
0.0624999999999993
 40
0.0624999999999993
 40
0.1249999999999993
 40
0.1249999999999993
 40
0.1562499999999993
 40
0.1562499999999993
 40
0.1874999999999993
 40
0.1874999999999993
 40
0.2187499999999993
 40
0.2187499999999993
 40
0.2499999999999993
 40
0.2499999999999993
 40
0.2812499999999993
 40
0.2812499999999993
 40
0.3124999999999993
 40
0.3124999999999993
 40
0.3749999999999993
 40
0.3749999999999993
 40
0.4062499999999993
 40
0.4062499999999993
 40
0.4374999999999993
 40
0.4374999999999993
 40
0.4687499999999993
 40
0.4687499999999993
 40
0.4999999999999993
 40
0.4999999999999993
 40
0.5312499999999993
 40
0.5312499999999993
 40
0.5624999999999993
 40
0.5624999999999993
 40
0.5937499999999993
 40
0.5937499999999993
 40
0.6249999999999993
 40
0.6249999999999993
 40
0.6562499999999993
 40
0.6562499999999993
 40
0.6874999999999993
 40
0.6874999999999993
 40
0.7187499999999993
 40
0.7187499999999993
 40
0.7499999999999993
 40
0.7499999999999993
 40
0.7812499999999993
 40
0.7812499999999993
 40
0.8124999999999993
 40
0.8124999999999993
 40
0.8749999999999996
 40
0.8749999999999996
 40
0.9062499999999997
 40
0.9062499999999997
 40
0.9374999999999998
 40
0.9374999999999998
 40
0.9687499999999999
 40
0.9687499999999999
 40
1.0
 40
1.0
 40
1.03125
 40
1.03125
 10
224.7211090333043
 20
116.3066306917641
 30
0.0
 10
225.0604284119089
 20
116.3066306917641
 30
0.0
 10
225.226114936742
 20
116.3160234118858
 30
0.0
 10
225.5503510129162
 20
116.3532172385045
 30
0.0
 10
225.7101578486441
 20
116.3815454542669
 30
0.0
 10
226.1593326709863
 20
116.4935658671024
 30
0.0
 10
226.4287578870505
 20
116.6061784116787
 30
0.0
 10
226.7667928982476
 20
116.834801389936
 30
0.0
 10
226.8703490626468
 20
116.9224098294781
 30
0.0
 10
227.0507365532843
 20
117.1168503179212
 30
0.0
 10
227.1278828873471
 20
117.2233916254212
 30
0.0
 10
227.2554032981247
 20
117.4581607661915
 30
0.0
 10
227.3059268581648
 20
117.5882132390155
 30
0.0
 10
227.3728476860914
 20
117.8599180742898
 30
0.0
 10
227.3902067487297
 20
118.0024946516065
 30
0.0
 10
227.3913041253379
 20
118.3021141617311
 30
0.0
 10
227.3745782038646
 20
118.4571901383994
 30
0.0
 10
227.3091739189646
 20
118.7649586111902
 30
0.0
 10
227.259688067233
 20
118.9212289855746
 30
0.0
 10
227.0690756522842
 20
119.3749137780497
 30
0.0
 10
226.8844798561354
 20
119.662581812998
 30
0.0
 10
226.5472637119297
 20
120.0344998610459
 30
0.0
 10
226.4232357685437
 20
120.1502505306532
 30
0.0
 10
226.1574049001192
 20
120.3565034416736
 30
0.0
 10
226.0169877758916
 20
120.4462915094783
 30
0.0
 10
225.7193542934383
 20
120.5965257012535
 30
0.0
 10
225.5597900691491
 20
120.6574229013893
 30
0.0
 10
225.2341788901406
 20
120.7393386945713
 30
0.0
 10
225.0680666546083
 20
120.7610202876684
 30
0.0
 10
224.728567607394
 20
120.7622783657224
 30
0.0
 10
224.5618942015363
 20
120.7417492520758
 30
0.0
 10
224.2359891532638
 20
120.6621466101709
 30
0.0
 10
224.0758987440624
 20
120.6023378019555
 30
0.0
 10
223.7755525169199
 20
120.4528684584076
 30
0.0
 10
223.6322890679649
 20
120.3620795028064
 30
0.0
 10
223.3651501706821
 20
120.156275417297
 30
0.0
 10
223.2421907137609
 20
120.0423257065837
 30
0.0
 10
223.0156787321478
 20
119.7942608470067
 30
0.0
 10
222.9118320197087
 20
119.6591757837599
 30
0.0
 10
222.7316754411266
 20
119.3797529604576
 30
0.0
 10
222.6541777433027
 20
119.2343326666145
 30
0.0
 10
222.5256995848349
 20
118.9321220373149
 30
0.0
 10
222.4754747688416
 20
118.7758070195785
 30
0.0
 10
222.4086979480705
 20
118.4688949834879
 30
0.0
 10
222.3911612467178
 20
118.3161560195472
 30
0.0
 10
222.3903890998008
 20
118.0130934675166
 30
0.0
 10
222.4071556785686
 20
117.8692447811881
 30
0.0
 10
222.4730619824753
 20
117.5956469590884
 30
0.0
 10
222.5230155536127
 20
117.4651401015198
 30
0.0
 10
222.7140930558859
 20
117.1097368918482
 30
0.0
 10
222.8993951819631
 20
116.9132352618018
 30
0.0
 10
223.2383845603463
 20
116.6833400597926
 30
0.0
 10
223.3635914734587
 20
116.6161606170603
 30
0.0
 10
223.6291241475815
 20
116.5032028408007
 30
0.0
 10
223.769918943617
 20
116.4568135440242
 30
0.0
 10
224.0699819966131
 20
116.3818086338191
 30
0.0
 10
224.2302102383344
 20
116.3533676275768
 30
0.0
 10
224.5544976082548
 20
116.3160913259548
 30
0.0
 10
224.7211090333043
 20
116.3066306917641
 30
0.0
 10
225.0604284119089
 20
116.3066306917641
 30
0.0
  0
ARC
  5
154
330
1F
100
AcDbEntity
  8
0
  6
HIDDEN
 62
     7
370
     0
100
AcDbCircle
 10
225.0658969687
 20
110.7882539672
 30
0.0
 40
2.383528705301598
100
AcDbArc
 50
33.3839180848
 51
63.3745142453
  0
LINE
  5
155
330
1F
100
AcDbEntity
  8
0
  6
HIDDEN
 62
     7
370
     0
100
AcDbLine
 10
162.9907687226
 20
103.7958089085
 30
0.0
 11
162.9907687226
 21
136.3124155799
 31
0.0
  0
LINE
  5
156
330
1F
100
AcDbEntity
  8
0
  6
HIDDEN
 62
     7
370
     0
100
AcDbLine
 10
202.5505946911
 20
137.0663229021
 30
0.0
 11
202.5505946911
 21
103.0663229021
 31
0.0
  0
LINE
  5
157
330
1F
100
AcDbEntity
  8
0
  6
HIDDEN
 62
     7
370
     0
100
AcDbLine
 10
204.8407687226
 20
135.7913229021
 30
0.0
 11
204.8407687226
 21
104.3413229021
 31
0.0
  0
LWPOLYLINE
  5
158
330
1F
100
AcDbEntity
  8
0
  6
HIDDEN
 62
     7
370
     0
100
AcDbPolyline
 90
        2
 70
   128
 43
0.0
 10
204.8407687226
 20
104.3413229021
 10
204.8407687226
 20
104.3413229021
  0
LINE
  5
159
330
1F
100
AcDbEntity
  8
0
  6
HIDDEN
 62
     7
370
     0
100
AcDbLine
 10
164.1407687226
 20
104.2421374965
 30
0.0
 11
171.6907687226
 21
104.2421374965
 31
0.0
  0
LINE
  5
15A
330
1F
100
AcDbEntity
  8
0
  6
HIDDEN
 62
     7
370
     0
100
AcDbLine
 10
164.1407687226
 20
135.8678133382
 30
0.0
 11
164.1407687226
 21
104.2421374965
 31
0.0
  0
LINE
  5
15B
330
1F
100
AcDbEntity
  8
0
  6
HIDDEN
 62
     7
370
     0
100
AcDbLine
 10
167.6907687226
 20
135.8678133382
 30
0.0
 11
164.1407687226
 21
135.8678133382
 31
0.0
  0
SPLINE
  5
15C
330
1F
100
AcDbEntity
  8
0
  6
HIDDEN
 62
     7
370
     0
100
AcDbSpline
210
0.0
220
0.0
230
1.0
 70
     8
 71
     3
 72
    18
 73
    14
 74
     0
 42
0.00000001
 43
0.00000001
 40
0.0
 40
0.0
 40
0.0
 40
0.0
 40
0.2499999999999989
 40
0.2499999999999989
 40
0.374999999999999
 40
0.374999999999999
 40
0.4999999999999991
 40
0.4999999999999991
 40
0.6249999999999992
 40
0.6249999999999992
 40
0.7499999999999993
 40
0.7499999999999993
 40
1.0
 40
1.0
 40
1.0
 40
1.0
 10
169.0907687226066
 20
136.353836524526
 30
0.0
 10
169.0907687226066
 20
136.2993620039739
 30
0.0
 10
169.0558580312144
 20
136.2429809446214
 30
0.0
 10
168.9538487298813
 20
136.1589041037679
 30
0.0
 10
168.9122123752032
 20
136.131570399777
 30
0.0
 10
168.8138065797145
 20
136.078616484178
 30
0.0
 10
168.7562633680102
 20
136.0527291304608
 30
0.0
 10
168.6289651944373
 20
136.0049515856276
 30
0.0
 10
168.5593778896798
 20
135.9830036674497
 30
0.0
 10
168.4079436445249
 20
135.943571102537
 30
0.0
 10
168.3252597414309
 20
135.9260148533111
 30
0.0
 10
168.0691482793928
 20
135.8835760878906
 30
0.0
 10
167.8812332755049
 20
135.8678133381536
 30
0.0
 10
167.6907687226066
 20
135.8678133381536
 30
0.0
  0
LINE
  5
15D
330
1F
100
AcDbEntity
  8
0
  6
HIDDEN
 62
     7
370
     0
100
AcDbLine
 10
169.0907687226
 20
136.3538365245
 30
0.0
 11
169.0907687226
 21
137.0663229021
 31
0.0
  0
SPLINE
  5
15E
330
1F
100
AcDbEntity
  8
0
  6
HIDDEN
 62
     7
370
     0
100
AcDbSpline
210
0.0
220
0.0
230
1.0
 70
     8
 71
     3
 72
    18
 73
    14
 74
     0
 42
0.00000001
 43
0.00000001
 40
0.0
 40
0.0
 40
0.0
 40
0.0
 40
0.2499999999999978
 40
0.2499999999999978
 40
0.3749999999999973
 40
0.3749999999999973
 40
0.4999999999999969
 40
0.4999999999999969
 40
0.6249999999999964
 40
0.6249999999999964
 40
0.749999999999996
 40
0.749999999999996
 40
1.0
 40
1.0
 40
1.0
 40
1.0
 10
169.0907687226066
 20
136.353836524526
 30
0.0
 10
169.0907687226066
 20
136.2993620039738
 30
0.0
 10
169.0558580312144
 20
136.2429809446214
 30
0.0
 10
168.9538487298813
 20
136.1589041037679
 30
0.0
 10
168.9122123752032
 20
136.131570399777
 30
0.0
 10
168.8138065797145
 20
136.078616484178
 30
0.0
 10
168.7562633680102
 20
136.0527291304608
 30
0.0
 10
168.6289651944372
 20
136.0049515856275
 30
0.0
 10
168.5593778896798
 20
135.9830036674497
 30
0.0
 10
168.4079436445248
 20
135.943571102537
 30
0.0
 10
168.3252597414309
 20
135.9260148533111
 30
0.0
 10
168.0691482793928
 20
135.8835760878906
 30
0.0
 10
167.8812332755049
 20
135.8678133381536
 30
0.0
 10
167.6907687226066
 20
135.8678133381536
 30
0.0
  0
LINE
  5
15F
330
1F
100
AcDbEntity
  8
0
  6
HIDDEN
 62
     7
370
     0
100
AcDbLine
 10
167.6907687226
 20
135.8678133382
 30
0.0
 11
164.1407687226
 21
135.8678133382
 31
0.0
  0
LINE
  5
160
330
1F
100
AcDbEntity
  8
0
  6
HIDDEN
 62
     7
370
     0
100
AcDbLine
 10
164.1407687226
 20
104.2421374965
 30
0.0
 11
171.6907687226
 21
104.2421374965
 31
0.0
  0
SPLINE
  5
161
330
1F
100
AcDbEntity
  8
0
  6
HIDDEN
 62
     7
370
     0
100
AcDbSpline
210
0.0
220
0.0
230
1.0
 70
     8
 71
     3
 72
    16
 73
    12
 74
     0
 42
0.00000001
 43
0.00000001
 40
0.0
 40
0.0
 40
0.0
 40
0.0
 40
0.1250000000000002
 40
0.1250000000000002
 40
0.2500000000000003
 40
0.2500000000000003
 40
0.5000000000000002
 40
0.5000000000000002
 40
0.7500000000000001
 40
0.7500000000000001
 40
1.0
 40
1.0
 40
1.0
 40
1.0
 10
171.6907687226066
 20
104.2421374965473
 30
0.0
 10
171.7858293123697
 20
104.2421374965473
 30
0.0
 10
171.8791037353006
 20
104.2383668249914
 30
0.0
 10
172.0622639285696
 20
104.2237703160247
 30
0.0
 10
172.1530983217014
 20
104.2127437014662
 30
0.0
 10
172.4098368108932
 20
104.1707629075629
 30
0.0
 10
172.5649129990586
 20
104.1301846257879
 30
0.0
 10
172.8187489101171
 20
104.0361113731375
 30
0.0
 10
172.9197019254288
 20
103.9819561329817
 30
0.0
 10
173.0550503803022
 20
103.8719781013787
 30
0.0
 10
173.0907687226066
 20
103.8154731147645
 30
0.0
 10
173.0907687226066
 20
103.761727115964
 30
0.0
  0
LINE
  5
162
330
1F
100
AcDbEntity
  8
0
  6
HIDDEN
 62
     7
370
     0
100
AcDbLine
 10
173.0907687226
 20
103.761727116
 30
0.0
 11
173.0907687226
 21
103.0663229021
 31
0.0
  0
SPLINE
  5
163
330
1F
100
AcDbEntity
  8
0
  6
HIDDEN
 62
     7
370
     0
100
AcDbSpline
210
0.0
220
0.0
230
1.0
 70
     8
 71
     3
 72
    16
 73
    12
 74
     0
 42
0.00000001
 43
0.00000001
 40
0.0
 40
0.0
 40
0.0
 40
0.0
 40
0.1249999999999984
 40
0.1249999999999984
 40
0.2499999999999968
 40
0.2499999999999968
 40
0.4999999999999979
 40
0.4999999999999979
 40
0.7499999999999989
 40
0.7499999999999989
 40
1.0
 40
1.0
 40
1.0
 40
1.0
 10
171.6907687226066
 20
104.2421374965473
 30
0.0
 10
171.7858293123697
 20
104.2421374965473
 30
0.0
 10
171.8791037353006
 20
104.2383668249914
 30
0.0
 10
172.0622639285696
 20
104.2237703160247
 30
0.0
 10
172.1530983217014
 20
104.2127437014662
 30
0.0
 10
172.4098368108931
 20
104.1707629075629
 30
0.0
 10
172.5649129990586
 20
104.1301846257879
 30
0.0
 10
172.8187489101171
 20
104.0361113731375
 30
0.0
 10
172.9197019254287
 20
103.9819561329817
 30
0.0
 10
173.0550503803022
 20
103.8719781013786
 30
0.0
 10
173.0907687226066
 20
103.8154731147645
 30
0.0
 10
173.0907687226066
 20
103.761727115964
 30
0.0
  0
LINE
  5
164
330
1F
100
AcDbEntity
  8
0
  6
HIDDEN
 62
     7
370
     0
100
AcDbLine
 10
164.1407687226
 20
104.2421374965
 30
0.0
 11
164.1407687226
 21
135.8678133382
 31
0.0
  0
LINE
  5
165
330
1F
100
AcDbEntity
  8
0
  6
HIDDEN
 62
     7
370
     0
100
AcDbLine
 10
263.7777212687
 20
84.4152743692
 30
0.0
 11
263.7750344123
 21
84.4458146183
 31
0.0
  0
LINE
  5
166
330
1F
100
AcDbEntity
  8
0
  6
HIDDEN
 62
     7
370
     0
100
AcDbLine
 10
260.6783045168
 20
90.9882280212
 30
0.0
 11
263.7777212687
 21
84.4152743692
 31
0.0
  0
ELLIPSE
  5
167
330
1F
100
AcDbEntity
  8
0
  6
HIDDEN
 62
     7
370
     0
100
AcDbEllipse
 10
257.5002140654
 20
120.0663229021
 30
0.0
 11
-19.22008094635825
 21
26.99988807476801
 31
0.0
210
0.0
220
0.0
230
1.0
 40
0.0040448756
 41
6.280305938888719
 42
7.851102265680001
  0
LINE
  5
168
330
1F
100
AcDbEntity
  8
0
  6
HIDDEN
 62
     7
370
     0
100
AcDbLine
 10
237.158717915
 20
120.0663229021
 30
0.0
 11
237.158717915
 21
147.0663229021
 31
0.0
  0
LINE
  5
169
330
1F
100
AcDbEntity
  8
0
  6
HIDDEN
 62
     7
370
     0
100
AcDbLine
 10
241.1574863163
 20
87.9947028842
 30
0.0
 11
241.1574863163
 21
85.3929103886
 31
0.0
  0
SPLINE
  5
16A
330
1F
100
AcDbEntity
  8
0
  6
HIDDEN
 62
     7
370
     0
100
AcDbSpline
210
0.0
220
0.0
230
1.0
 70
     8
 71
     3
 72
     8
 73
     4
 74
     0
 42
0.00000001
 43
0.00000001
 40
0.0
 40
0.0
 40
0.0
 40
0.0
 40
1.0
 40
1.0
 40
1.0
 40
1.0
 10
239.642783744702
 20
95.84730623049126
 30
0.0
 10
240.1120581547015
 20
93.22445673461364
 30
0.0
 10
240.621879149033
 20
90.60765631246814
 30
0.0
 10
241.1574863162937
 20
87.9947028841912
 30
0.0
  0
SPLINE
  5
16B
330
1F
100
AcDbEntity
  8
0
  6
HIDDEN
 62
     7
370
     0
100
AcDbSpline
210
0.0
220
0.0
230
1.0
 70
     8
 71
     3
 72
    14
 73
    10
 74
     0
 42
0.00000001
 43
0.00000001
 40
0.0
 40
0.0
 40
0.0
 40
0.0
 40
0.25
 40
0.25
 40
0.5
 40
0.5
 40
0.75
 40
0.75
 40
1.0
 40
1.0
 40
1.0
 40
1.0
 10
239.4675986705104
 20
96.83787618741648
 30
0.0
 10
239.4753046790357
 20
96.75726603250789
 30
0.0
 10
239.4845297043939
 20
96.67539214793031
 30
0.0
 10
239.5066460111689
 20
96.5085264057911
 30
0.0
 10
239.519737382602
 20
96.4224332590874
 30
0.0
 10
239.5493985154212
 20
96.25244495781138
 30
0.0
 10
239.5658658250988
 20
96.16885360859773
 30
0.0
 10
239.6021420438056
 20
96.00457332270915
 30
0.0
 10
239.6221563376318
 20
95.92329636150012
 30
0.0
 10
239.6427837447017
 20
95.8473062304901
 30
0.0
  0
SPLINE
  5
16C
330
1F
100
AcDbEntity
  8
0
  6
HIDDEN
 62
     7
370
     0
100
AcDbSpline
210
0.0
220
0.0
230
1.0
 70
     8
 71
     3
 72
    12
 73
     8
 74
     0
 42
0.00000001
 43
0.00000001
 40
0.0
 40
0.0
 40
0.0
 40
0.0
 40
0.25
 40
0.25
 40
0.5
 40
0.5
 40
1.0
 40
1.0
 40
1.0
 40
1.0
 10
237.1587179150377
 20
120.0663229021219
 30
0.0
 10
237.1587179150377
 20
118.1230056107607
 30
0.0
 10
237.2155817569834
 20
116.1752511845656
 30
0.0
 10
237.4366678175141
 20
112.2735647364346
 30
0.0
 10
237.5999090911427
 20
110.3305834707783
 30
0.0
 10
238.217649794206
 20
104.5207382877127
 30
0.0
 10
238.7974856866375
 20
100.6725730971747
 30
0.0
 10
239.4675986705104
 20
96.83787618741648
 30
0.0
  0
SPLINE
  5
16D
330
1F
100
AcDbEntity
  8
0
  6
HIDDEN
 62
     7
370
     0
100
AcDbSpline
210
0.0
220
0.0
230
1.0
 70
     8
 71
     3
 72
    11
 73
     7
 74
     0
 42
0.00000001
 43
0.00000001
 40
0.0
 40
0.0
 40
0.0
 40
0.0
 40
0.2771231453980801
 40
0.5650576129881364
 40
0.8548717367470243
 40
1.0
 40
1.0
 40
1.0
 40
1.0
 10
239.601659068272
 20
83.96797609479769
 30
0.0
 10
239.5735737070396
 20
84.17971786614275
 30
0.0
 10
239.5163072987968
 20
84.61146202707977
 30
0.0
 10
239.9253223182098
 20
85.03505754222641
 30
0.0
 10
240.5208811761501
 20
85.27546633465715
 30
0.0
 10
240.9982136512747
 20
85.36352698232734
 30
0.0
 10
241.1574863162937
 20
85.39291038858742
 30
0.0
  0
LINE
  5
16E
330
1F
100
AcDbEntity
  8
0
  6
HIDDEN
 62
     7
370
     0
100
AcDbLine
 10
164.1407687226
 20
102.0763229021
 30
0.0
 11
164.1407687226
 21
99.1965873692
 31
0.0
  0
LINE
  5
16F
330
1F
100
AcDbEntity
  8
0
  6
HIDDEN
 62
     7
370
     0
100
AcDbLine
 10
173.0907687226
 20
102.0763229021
 30
0.0
 11
173.0907687226
 21
98.092007194
 31
0.0
  0
LINE
  5
170
330
1F
100
AcDbEntity
  8
0
  6
HIDDEN
 62
     7
370
     0
100
AcDbLine
 10
169.0907687226
 20
138.0563229021
 30
0.0
 11
169.0907687226
 21
141.9104305745
 31
0.0
  0
LINE
  5
171
330
1F
100
AcDbEntity
  8
0
  6
HIDDEN
 62
     7
370
     0
100
AcDbLine
 10
164.1407687226
 20
138.0563229021
 30
0.0
 11
164.1407687226
 21
140.9362606675
 31
0.0
  0
LINE
  5
172
330
1F
100
AcDbEntity
  8
0
  6
HIDDEN
 62
     7
370
     0
100
AcDbLine
 10
162.9907687226
 20
138.0563229021
 30
0.0
 11
162.9907687226
 21
140.0423834068
 31
0.0
  0
LINE
  5
173
330
1F
100
AcDbEntity
  8
0
  6
HIDDEN
 62
     7
370
     0
100
AcDbLine
 10
162.9907687226
 20
102.0763229021
 30
0.0
 11
162.9907687226
 21
100.0775004633
 31
0.0
  0
LINE
  5
174
330
1F
100
AcDbEntity
  8
0
  6
HIDDEN
 62
     7
370
     0
100
AcDbLine
 10
216.6907687226
 20
129.5663229021
 30
0.0
 11
216.6907687226
 21
110.5663229021
 31
0.0
  0
LINE
  5
175
330
1F
100
AcDbEntity
  8
0
  6
HIDDEN
 62
     7
370
     0
100
AcDbLine
 10
214.1907687226
 20
129.5663229021
 30
0.0
 11
214.1907687226
 21
110.5663229021
 31
0.0
  0
LWPOLYLINE
  5
176
330
1F
100
AcDbEntity
  8
0
  6
HIDDEN
 62
     7
370
     0
100
AcDbPolyline
 90
        2
 70
   128
 43
0.0
 10
220.8407687226
 20
93.6663229021
 10
220.8407687226
 20
93.6663229021
  0
LINE
  5
177
330
1F
100
AcDbEntity
  8
0
  6
HIDDEN
 62
     7
370
     0
100
AcDbLine
 10
199.8407687226
 20
88.5821999193
 30
0.0
 11
199.8407687226
 21
93.6663229021
 31
0.0
  0
LINE
  5
178
330
1F
100
AcDbEntity
  8
0
  6
HIDDEN
 62
     7
370
     0
100
AcDbLine
 10
207.8407687226
 20
93.6663229021
 30
0.0
 11
199.8407687226
 21
93.6663229021
 31
0.0
  0
LINE
  5
179
330
1F
100
AcDbEntity
  8
0
  6
HIDDEN
 62
     7
370
     0
100
AcDbLine
 10
211.0784435249
 20
93.6663229021
 30
0.0
 11
207.8407687226
 21
93.6663229021
 31
0.0
  0
LINE
  5
17A
330
1F
100
AcDbEntity
  8
0
  6
HIDDEN
 62
     7
370
     0
100
AcDbLine
 10
210.9807687226
 20
93.2619272738
 30
0.0
 11
210.9807687226
 21
92.5684857431
 31
0.0
  0
LINE
  5
17B
330
1F
100
AcDbEntity
  8
0
  6
HIDDEN
 62
     7
370
     0
100
AcDbLine
 10
220.8407687226
 20
93.6663229021
 30
0.0
 11
214.7030939203
 21
93.6663229021
 31
0.0
  0
LINE
  5
17C
330
1F
100
AcDbEntity
  8
0
  6
HIDDEN
 62
     7
370
     0
100
AcDbLine
 10
214.8007687226
 20
92.5684857431
 30
0.0
 11
214.8007687226
 21
93.2619272738
 31
0.0
  0
LINE
  5
17D
330
1F
100
AcDbEntity
  8
0
  6
HIDDEN
 62
     7
370
     0
100
AcDbLine
 10
220.8407687226
 20
93.6663229021
 30
0.0
 11
220.8407687226
 21
90.5060455015
 31
0.0
  0
LINE
  5
17E
330
1F
100
AcDbEntity
  8
0
  6
HIDDEN
 62
     7
370
     0
100
AcDbLine
 10
205.3407687226
 20
128.5663229021
 30
0.0
 11
205.3407687226
 21
111.5663229021
 31
0.0
  0
LINE
  5
17F
330
1F
100
AcDbEntity
  8
0
  6
HIDDEN
 62
     7
370
     0
100
AcDbLine
 10
204.8407687226
 20
111.0663229021
 30
0.0
 11
204.8407687226
 21
129.0663229021
 31
0.0
  0
LINE
  5
180
330
1F
100
AcDbEntity
  8
0
  6
HIDDEN
 62
     7
370
     0
100
AcDbLine
 10
214.1907687226
 20
111.5663229021
 30
0.0
 11
214.1907687226
 21
128.5473413704
 31
0.0
  0
LWPOLYLINE
  5
181
330
1F
100
AcDbEntity
  8
0
  6
HIDDEN
 62
     7
370
     0
100
AcDbPolyline
 90
        2
 70
   128
 43
0.0
 10
220.8407687226
 20
146.4663229021
 10
220.8407687226
 20
146.4663229021
  0
LINE
  5
182
330
1F
100
AcDbEntity
  8
0
  6
HIDDEN
 62
     7
370
     0
100
AcDbLine
 10
220.8407687226
 20
146.4663229021
 30
0.0
 11
214.4064711909
 21
146.4663229021
 31
0.0
  0
LINE
  5
183
330
1F
100
AcDbEntity
  8
0
  6
HIDDEN
 62
     7
370
     0
100
AcDbLine
 10
214.8007687226
 20
147.8715570933
 30
0.0
 11
214.8007687226
 21
147.1859767532
 31
0.0
  0
LINE
  5
184
330
1F
100
AcDbEntity
  8
0
  6
HIDDEN
 62
     7
370
     0
100
AcDbLine
 10
220.8407687226
 20
146.4663229021
 30
0.0
 11
220.8407687226
 21
149.9127632259
 31
0.0
  0
LINE
  5
185
330
1F
100
AcDbEntity
  8
0
  6
HIDDEN
 62
     7
370
     0
100
AcDbLine
 10
211.3750662543
 20
146.4663229021
 30
0.0
 11
207.8407687226
 21
146.4663229021
 31
0.0
  0
LINE
  5
186
330
1F
100
AcDbEntity
  8
0
  6
HIDDEN
 62
     7
370
     0
100
AcDbLine
 10
210.9807687226
 20
147.1859767532
 30
0.0
 11
210.9807687226
 21
147.8715570933
 31
0.0
  0
LINE
  5
187
330
1F
100
AcDbEntity
  8
0
  6
HIDDEN
 62
     7
370
     0
100
AcDbLine
 10
207.8407687226
 20
146.4663229021
 30
0.0
 11
199.8407687226
 21
146.4663229021
 31
0.0
  0
SPLINE
  5
188
330
1F
100
AcDbEntity
  8
0
  6
HIDDEN
 62
     7
370
     0
100
AcDbSpline
210
0.0
220
0.0
230
1.0
 70
     8
 71
     3
 72
     8
 73
     4
 74
     0
 42
0.00000001
 43
0.00000001
 40
0.0000002438860713
 40
0.0000002438860713
 40
0.0000002438860713
 40
0.0000002438860713
 40
0.0014006025853533
 40
0.0014006025853533
 40
0.0014006025853533
 40
0.0014006025853533
 10
164.1407687226066
 20
135.8678133381536
 30
0.0
 10
163.7579816500416
 20
136.0178848661294
 30
0.0
 10
163.3746282500855
 20
136.1660420680468
 30
0.0
 10
162.9907687226066
 20
136.31241557985
 30
0.0
  0
LINE
  5
189
330
1F
100
AcDbEntity
  8
0
  6
HIDDEN
 62
     7
370
     0
100
AcDbLine
 10
162.9907687226
 20
138.0563229021
 30
0.0
 11
162.9907687226
 21
136.3124155799
 31
0.0
  0
SPLINE
  5
18A
330
1F
100
AcDbEntity
  8
0
  6
HIDDEN
 62
     7
370
     0
100
AcDbSpline
210
0.0
220
0.0
230
1.0
 70
     8
 71
     3
 72
     8
 73
     4
 74
     0
 42
0.00000001
 43
0.00000001
 40
0.0000002432968744
 40
0.0000002432968744
 40
0.0000002432968744
 40
0.0000002432968744
 40
0.0014011510532366
 40
0.0014011510532366
 40
0.0014011510532366
 40
0.0014011510532366
 10
162.9907687226066
 20
103.7958089085067
 30
0.0
 10
163.3746331893432
 20
103.9427478209689
 30
0.0
 10
163.7579868111668
 20
104.0914801807869
 30
0.0
 10
164.1407687226066
 20
104.2421374965474
 30
0.0
  0
LINE
  5
18B
330
1F
100
AcDbEntity
  8
0
  6
HIDDEN
 62
     7
370
     0
100
AcDbLine
 10
162.9907687226
 20
102.0763229021
 30
0.0
 11
162.9907687226
 21
103.7958089085
 31
0.0
  0
LINE
  5
18C
330
1F
100
AcDbEntity
  8
0
  6
HIDDEN
 62
     7
370
     0
100
AcDbLine
 10
169.0907687226
 20
138.0563229021
 30
0.0
 11
169.0907687226
 21
136.3538365245
 31
0.0
  0
LINE
  5
18D
330
1F
100
AcDbEntity
  8
0
  6
HIDDEN
 62
     7
370
     0
100
AcDbLine
 10
164.1407687226
 20
138.0563229021
 30
0.0
 11
164.1407687226
 21
135.8678133382
 31
0.0
  0
LINE
  5
18E
330
1F
100
AcDbEntity
  8
0
  6
HIDDEN
 62
     7
370
     0
100
AcDbLine
 10
164.1407687226
 20
102.0763229021
 30
0.0
 11
164.1407687226
 21
104.2421374965
 31
0.0
  0
LINE
  5
18F
330
1F
100
AcDbEntity
  8
0
  6
HIDDEN
 62
     7
370
     0
100
AcDbLine
 10
173.0907687226
 20
102.0763229021
 30
0.0
 11
173.0907687226
 21
103.761727116
 31
0.0
  0
LINE
  5
190
330
1F
100
AcDbEntity
  8
0
  6
HIDDEN
 62
     7
370
     0
100
AcDbLine
 10
257.6057900107
 20
119.6868440857
 30
0.0
 11
261.0792558902
 21
115.087476455
 31
0.0
  0
CIRCLE
  5
191
330
1F
100
AcDbEntity
  8
0
  6
HIDDEN
 62
     7
370
     0
100
AcDbCircle
 10
246.9816587196
 20
92.7152303817
 30
0.0
 40
3.473570495174231
  0
SPLINE
  5
192
330
1F
100
AcDbEntity
  8
0
  6
HIDDEN
 62
     7
370
     0
100
AcDbSpline
210
0.0
220
0.0
230
1.0
 70
    11
 71
     3
 72
    34
 73
    30
 74
     0
 42
0.00000001
 43
0.00000001
 40
0.0
 40
0.0
 40
0.0
 40
0.0
 40
0.0127738756313284
 40
0.0481305018861229
 40
0.0807425016923869
 40
0.1375890913626786
 40
0.188451873119214
 40
0.2226712138150555
 40
0.2626938372949055
 40
0.2986558359810446
 40
0.3315197765429399
 40
0.3878459718944411
 40
0.3881705426429958
 40
0.4440926113325727
 40
0.4768435653244539
 40
0.5126448960710509
 40
0.5530084671478221
 40
0.5873855940015954
 40
0.6380121006395832
 40
0.6949796268749187
 40
0.7275539945507914
 40
0.7628079420080924
 40
0.8028703493977615
 40
0.8370831563378048
 40
0.8877749825785495
 40
0.888037537224875
 40
0.938839794626327
 40
0.9729712758707622
 40
1.0
 40
1.0
 40
1.0
 40
1.0
 10
183.0507806350953
 20
96.9986610455829
 30
0.0
 10
183.1099742876926
 20
97.00474994937625
 30
0.0
 10
183.3330091981775
 20
97.02769224222203
 30
0.0
 10
183.8563616427041
 20
97.06433699469297
 30
0.0
 10
184.729125112365
 20
97.09202102142744
 30
0.0
 10
185.8439630125325
 20
97.081465444996
 30
0.0
 10
186.9570283873611
 20
96.9653203538402
 30
0.0
 10
187.8514699428231
 20
96.84372957214158
 30
0.0
 10
188.5353045832987
 20
96.72197098435305
 30
0.0
 10
189.0760560576125
 20
96.60561207144599
 30
0.0
 10
189.4894826194699
 20
96.51213003190644
 30
0.0
 10
189.7176326986183
 20
96.44549581181292
 30
0.0
 10
189.5631082720602
 20
96.4867556847322
 30
0.0
 10
189.5362319332707
 20
96.49922648395163
 30
0.0
 10
189.0804323668703
 20
96.60477965881397
 30
0.0
 10
188.5565086870722
 20
96.71752581226505
 30
0.0
 10
187.8702989706157
 20
96.84062460086288
 30
0.0
 10
186.9771861362989
 20
96.96261580572968
 30
0.0
 10
185.8637496215875
 20
97.08036842341627
 30
0.0
 10
184.7529990128607
 20
97.09233895674683
 30
0.0
 10
183.8682468807124
 20
97.06528149075847
 30
0.0
 10
183.2010514660682
 20
97.01734912501998
 30
0.0
 10
182.6597775468742
 20
96.96105612452114
 30
0.0
 10
182.2722020207367
 20
96.91597146979136
 30
0.0
 10
182.0781855534082
 20
96.87709107538065
 30
0.0
 10
182.2044968027523
 20
96.89851233688145
 30
0.0
 10
182.2336532794567
 20
96.90842967527317
 30
0.0
 10
182.6051629614398
 20
96.956050819929
 30
0.0
 10
182.9142047946101
 20
96.98560158289551
 30
0.0
 10
183.0507806350953
 20
96.9986610455829
 30
0.0
  0
SPLINE
  5
193
330
1F
100
AcDbEntity
  8
0
  6
HIDDEN
 62
     7
370
     0
100
AcDbSpline
210
0.0
220
0.0
230
1.0
 70
     8
 71
     3
 72
    38
 73
    34
 74
     0
 42
0.00000001
 43
0.00000001
 40
-0.0939221400677788
 40
-0.0657752597753779
 40
-0.0344739496007943
 40
0.0
 40
0.0323124298479836
 40
0.0609695982577461
 40
0.0859698687835549
 40
0.1073131755946561
 40
0.125001929016961
 40
0.1562358721977444
 40
0.197850737299077
 40
0.249816879324835
 40
0.278262948030722
 40
0.3049884159832859
 40
0.330004216891384
 40
0.3533239044418168
 40
0.3749644360933809
 40
0.406026783832292
 40
0.4476555976010198
 40
0.4998320869201298
 40
0.5286685248934816
 40
0.5555536435543466
 40
0.5805015705746597
 40
0.6035302879119625
 40
0.6246629693429201
 40
0.6685312637103243
 40
0.7183269153555463
 40
0.765237570611313
 40
0.7915712044406463
 40
0.812293703571044
 40
0.8615656629637487
 40
0.9060778599322212
 40
0.9342247402246221
 40
0.9655260503992057
 40
1.0
 40
1.032312429847984
 40
1.060969598257746
 40
1.085969868783555
 10
183.831033886788
 20
143.0693269281494
 30
0.0
 10
183.2269656682786
 20
143.1138604333652
 30
0.0
 10
182.7516506054324
 20
143.1619358195982
 30
0.0
 10
182.4320517794326
 20
143.1980985588641
 30
0.0
 10
182.2450573737186
 20
143.2244886930525
 30
0.0
 10
182.1567517141662
 20
143.2405583028498
 30
0.0
 10
182.1273382182969
 20
143.2483819880997
 30
0.0
 10
182.1994702883657
 20
143.230214489516
 30
0.0
 10
182.5205822905603
 20
143.1856079095533
 30
0.0
 10
183.0926097807749
 20
143.1248693808826
 30
0.0
 10
183.7431421285311
 20
143.0755252178627
 30
0.0
 10
184.2930182572725
 20
143.0531627573833
 30
0.0
 10
184.8484561230507
 20
143.0446805474788
 30
0.0
 10
185.3892316706872
 20
143.0511316336274
 30
0.0
 10
185.9871615654865
 20
143.0746100102291
 30
0.0
 10
186.7268274226534
 20
143.1415298810663
 30
0.0
 10
187.6588770559263
 20
143.2576313150014
 30
0.0
 10
188.4482137895999
 20
143.3929461995927
 30
0.0
 10
188.9871434774373
 20
143.5080580236599
 30
0.0
 10
189.3012478173332
 20
143.5778321002109
 30
0.0
 10
189.506528185699
 20
143.6283921857068
 30
0.0
 10
189.6175981717899
 20
143.6590703256135
 30
0.0
 10
189.6638696735939
 20
143.6737973428697
 30
0.0
 10
189.5379048052476
 20
143.6359377492824
 30
0.0
 10
189.0676592763745
 20
143.5254519648563
 30
0.0
 10
188.4144613127859
 20
143.3857477464801
 30
0.0
 10
187.8104423572699
 20
143.2826211403348
 30
0.0
 10
187.1361043076316
 20
143.1831851145654
 30
0.0
 10
186.2507548246442
 20
143.0897147802898
 30
0.0
 10
185.2812759340319
 20
143.0427062742171
 30
0.0
 10
184.4929403567648
 20
143.0463904893176
 30
0.0
 10
183.831033886788
 20
143.0693269281494
 30
0.0
 10
183.2269656682786
 20
143.1138604333652
 30
0.0
 10
182.7516506054324
 20
143.1619358195982
 30
0.0
  0
LINE
  5
194
330
1F
100
AcDbEntity
  8
0
  6
HIDDEN
 62
     7
370
     0
100
AcDbLine
 10
228.9907687226
 20
124.2663229021
 30
0.0
 11
228.9907687226
 21
115.8663229021
 31
0.0
  0
SPLINE
  5
195
330
1F
100
AcDbEntity
  8
0
  6
HIDDEN
 62
     7
370
     0
100
AcDbSpline
210
0.0
220
0.0
230
1.0
 70
     8
 71
     3
 72
    64
 73
    60
 74
     0
 42
0.00000001
 43
0.00000001
 40
-0.0312499999999996
 40
-0.0312499999999996
 40
0.0
 40
0.0
 40
0.0312499999999999
 40
0.0312499999999999
 40
0.0624999999999997
 40
0.0624999999999997
 40
0.125
 40
0.125
 40
0.1562500000000002
 40
0.1562500000000002
 40
0.1875000000000004
 40
0.1875000000000004
 40
0.2187500000000005
 40
0.2187500000000005
 40
0.2500000000000007
 40
0.2500000000000007
 40
0.2812500000000009
 40
0.2812500000000009
 40
0.3125000000000011
 40
0.3125000000000011
 40
0.3750000000000015
 40
0.3750000000000015
 40
0.4062500000000014
 40
0.4062500000000014
 40
0.4375000000000014
 40
0.4375000000000014
 40
0.4687500000000014
 40
0.4687500000000014
 40
0.5000000000000014
 40
0.5000000000000014
 40
0.5312500000000014
 40
0.5312500000000014
 40
0.5625000000000013
 40
0.5625000000000013
 40
0.5937500000000013
 40
0.5937500000000013
 40
0.6250000000000013
 40
0.6250000000000013
 40
0.6562500000000013
 40
0.6562500000000013
 40
0.6875000000000012
 40
0.6875000000000012
 40
0.7187500000000012
 40
0.7187500000000012
 40
0.7500000000000012
 40
0.7500000000000012
 40
0.7812500000000012
 40
0.7812500000000012
 40
0.8125000000000011
 40
0.8125000000000011
 40
0.8750000000000006
 40
0.8750000000000006
 40
0.9062500000000008
 40
0.9062500000000008
 40
0.9375000000000009
 40
0.9375000000000009
 40
0.9687500000000004
 40
0.9687500000000004
 40
1.0
 40
1.0
 40
1.03125
 40
1.03125
 10
225.0604284119088
 20
119.3709824915379
 30
0.0
 10
224.7211090333043
 20
119.3709824915379
 30
0.0
 10
224.5554225084712
 20
119.3920204514338
 30
0.0
 10
224.231186432297
 20
119.472145245304
 30
0.0
 10
224.071379596569
 20
119.5322118709809
 30
0.0
 10
223.6222047742269
 20
119.7567963906229
 30
0.0
 10
223.3527795581627
 20
119.9688374688191
 30
0.0
 10
223.0147445469656
 20
120.3395954678848
 30
0.0
 10
222.9111883825664
 20
120.4743250587258
 30
0.0
 10
222.7308008919289
 20
120.7543937225032
 30
0.0
 10
222.6536545578661
 20
120.8995267533624
 30
0.0
 10
222.5261341470885
 20
121.1995186254614
 30
0.0
 10
222.4756105870484
 20
121.3563076211413
 30
0.0
 10
222.4086897591218
 20
121.6636955665686
 30
0.0
 10
222.3913306964835
 20
121.8157111233043
 30
0.0
 10
222.3902333198753
 20
122.1159237249114
 30
0.0
 10
222.4069592413485
 20
122.2619024133929
 30
0.0
 10
222.4723635262486
 20
122.5347732076303
 30
0.0
 10
222.5218493779802
 20
122.6648233339823
 30
0.0
 10
222.712461792929
 20
123.0208855275083
 30
0.0
 10
222.8970575890779
 20
123.2170967835773
 30
0.0
 10
223.2342737332835
 20
123.446873620463
 30
0.0
 10
223.3583016766695
 20
123.5138735945678
 30
0.0
 10
223.624132545094
 20
123.6276671471706
 30
0.0
 10
223.7645496693217
 20
123.6741526844971
 30
0.0
 10
224.0621831517749
 20
123.7492105990139
 30
0.0
 10
224.2217473760641
 20
123.777981626338
 30
0.0
 10
224.5473585550726
 20
123.8160424725113
 30
0.0
 10
224.713470790605
 20
123.8257244810988
 30
0.0
 10
225.0529698378192
 20
123.8262931012389
 30
0.0
 10
225.219643243677
 20
123.8171329208984
 30
0.0
 10
225.5455482919494
 20
123.7802034621602
 30
0.0
 10
225.7056387011508
 20
123.752019807512
 30
0.0
 10
226.0059849282933
 20
123.6775255957425
 30
0.0
 10
226.1492483772483
 20
123.6306249864093
 30
0.0
 10
226.4163872745311
 20
123.5173097125337
 30
0.0
 10
226.5393467314523
 20
123.4515168222971
 30
0.0
 10
226.7658587130654
 20
123.2986302561705
 30
0.0
 10
226.8697054255045
 20
123.2107969303619
 30
0.0
 10
227.0498620040865
 20
123.0168698755398
 30
0.0
 10
227.1273597019105
 20
122.910200633582
 30
0.0
 10
227.2558378603783
 20
122.6737017298495
 30
0.0
 10
227.3060626763717
 20
122.543973518176
 30
0.0
 10
227.3728394971428
 20
122.2726684135599
 30
0.0
 10
227.3903761984954
 20
122.129464072213
 30
0.0
 10
227.3911483454123
 20
121.8268188377784
 30
0.0
 10
227.3743817666446
 20
121.6738501561784
 30
0.0
 10
227.3084754627378
 20
121.3650909969425
 30
0.0
 10
227.2585218916005
 20
121.2081245723695
 30
0.0
 10
227.0674443893272
 20
120.7548988187172
 30
0.0
 10
226.8821422632501
 20
120.4666172710572
 30
0.0
 10
226.5431528848669
 20
120.0940566041086
 30
0.0
 10
226.4179459717545
 20
119.9778017816351
 30
0.0
 10
226.1524132976317
 20
119.7727780509917
 30
0.0
 10
226.0116185015962
 20
119.6830880164362
 30
0.0
 10
225.7115554486001
 20
119.5327645710718
 30
0.0
 10
225.5513272068788
 20
119.4724651541118
 30
0.0
 10
225.2270398369584
 20
119.3921707983779
 30
0.0
 10
225.0604284119088
 20
119.3709824915379
 30
0.0
 10
224.7211090333043
 20
119.3709824915379
 30
0.0
  0
LINE
  5
196
330
1F
100
AcDbEntity
  8
0
  6
HIDDEN
 62
     7
370
     0
100
AcDbLine
 10
216.6907687226
 20
115.8663229021
 30
0.0
 11
216.6907687226
 21
124.2473049769
 31
0.0
  0
CIRCLE
  5
197
330
1F
100
AcDbEntity
  8
0
  6
HIDDEN
 62
     7
370
     0
100
AcDbCircle
 10
246.4822220978
 20
93.2530497637
 30
0.0
 40
3.473570495174146
  0
ARC
  5
198
330
1F
100
AcDbEntity
  8
0
  6
HIDDEN
 62
     7
370
     0
100
AcDbCircle
 10
257.4669058991
 20
92.1105080704
 30
0.0
 40
2.098848907103843
100
AcDbArc
 50
26.2421205959
 51
204.9412052952
  0
LINE
  5
199
330
1F
100
AcDbEntity
  8
0
  6
HIDDEN
 62
     7
370
     0
100
AcDbLine
 10
262.813797052
 20
85.6916484562
 30
0.0
 11
259.9393203058
 21
91.7875703469
 31
0.0
  0
LINE
  5
19A
330
1F
100
AcDbEntity
  8
0
  6
HIDDEN
 62
     7
370
     0
100
AcDbLine
 10
259.5445469672
 20
92.6247687831
 30
0.0
 11
259.3494339155
 21
93.0385463251
 31
0.0
  0
LINE
  5
19B
330
1F
100
AcDbEntity
  8
0
  6
HIDDEN
 62
     7
370
     0
100
AcDbLine
 10
262.813797052
 20
85.6916484562
 30
0.0
 11
263.7777212687
 21
84.4152743692
 31
0.0
  0
LINE
  5
19C
330
1F
100
AcDbEntity
  8
0
  6
HIDDEN
 62
     7
370
     0
100
AcDbLine
 10
254.3698733693
 20
87.0506939296
 30
0.0
 11
254.3866101281
 21
87.0285320576
 31
0.0
  0
LINE
  5
19D
330
1F
100
AcDbEntity
  8
0
  6
HIDDEN
 62
     7
370
     0
100
AcDbLine
 10
256.0567830725
 20
90.1799625324
 30
0.0
 11
257.0207072892
 21
88.9035884454
 31
0.0
  0
ELLIPSE
  5
19E
330
1F
100
AcDbEntity
  8
0
  6
HIDDEN
 62
     7
370
     0
100
AcDbEllipse
 10
252.9888232962
 20
86.9069955211
 30
0.0
 11
1.334428566009222
 21
2.20935854018613
 31
0.0
210
0.0
220
0.0
230
1.0
 40
0.2605793844
 41
3.037700530381073
 42
4.120971618670571
  0
SPLINE
  5
19F
330
1F
100
AcDbEntity
  8
0
  6
HIDDEN
 62
     7
370
     0
100
AcDbSpline
210
0.0
220
0.0
230
1.0
 70
     8
 71
     3
 72
    38
 73
    34
 74
     0
 42
0.00000001
 43
0.00000001
 40
0.0
 40
0.0
 40
0.0
 40
0.0
 40
0.125
 40
0.125
 40
0.1874999999999999
 40
0.1874999999999999
 40
0.2499999999999998
 40
0.2499999999999998
 40
0.3124999999999997
 40
0.3124999999999997
 40
0.3749999999999996
 40
0.3749999999999996
 40
0.4062499999999998
 40
0.4062499999999998
 40
0.4375000000000001
 40
0.4375000000000001
 40
0.4687500000000004
 40
0.4687500000000004
 40
0.5000000000000007
 40
0.5000000000000007
 40
0.5312500000000009
 40
0.5312500000000009
 40
0.5625000000000011
 40
0.5625000000000011
 40
0.6250000000000013
 40
0.6250000000000013
 40
0.6875000000000014
 40
0.6875000000000014
 40
0.7500000000000016
 40
0.7500000000000016
 40
0.8750000000000008
 40
0.8750000000000008
 40
1.0
 40
1.0
 40
1.0
 40
1.0
 10
249.8828651632033
 20
93.73027052299348
 30
0.0
 10
249.9376965361717
 20
93.65766591113717
 30
0.0
 10
249.9822397167464
 20
93.51730562073433
 30
0.0
 10
250.0305140069983
 20
93.24732394203703
 30
0.0
 10
250.0432715114591
 20
93.14641700569389
 30
0.0
 10
250.0590480811461
 20
92.92812647455871
 30
0.0
 10
250.0621716664296
 20
92.81049796652455
 30
0.0
 10
250.0547089303473
 20
92.55787735208281
 30
0.0
 10
250.0442437453462
 20
92.42296031299743
 30
0.0
 10
250.0017558865689
 20
92.13174629346321
 30
0.0
 10
249.9695993067047
 20
91.97407971195359
 30
0.0
 10
249.8937413135193
 20
91.7208222111696
 30
0.0
 10
249.8638152389849
 20
91.63350927949134
 30
0.0
 10
249.7904135806241
 20
91.45100851347492
 30
0.0
 10
249.746639766137
 20
91.35529038785361
 30
0.0
 10
249.6414574112208
 20
91.15933678677402
 30
0.0
 10
249.578734506154
 20
91.05692937939052
 30
0.0
 10
249.4322865152388
 20
90.85435536465297
 30
0.0
 10
249.3462613963221
 20
90.75178265027972
 30
0.0
 10
249.1619851069989
 20
90.5655061636589
 30
0.0
 10
249.0614037527782
 20
90.47938833737865
 30
0.0
 10
248.8628765816908
 20
90.33346007011598
 30
0.0
 10
248.7634024615054
 20
90.27198651240158
 30
0.0
 10
248.4798567596644
 20
90.11944489569855
 30
0.0
 10
248.3035555299866
 20
90.05470399407464
 30
0.0
 10
247.9819728909469
 20
89.9643906842386
 30
0.0
 10
247.8329348399146
 20
89.93823945395103
 30
0.0
 10
247.556101448869
 20
89.90808465536784
 30
0.0
 10
247.4289007865345
 20
89.9042674499732
 30
0.0
 10
247.0740366109126
 20
89.91379991436955
 30
0.0
 10
246.8715925578739
 20
89.94778936516254
 30
0.0
 10
246.5445358848855
 20
90.0439946231005
 30
0.0
 10
246.4214637186205
 20
90.10519485380466
 30
0.0
 10
246.3666992819363
 20
90.17771083240825
 30
0.0
  0
ELLIPSE
  5
1A0
330
1F
100
AcDbEntity
  8
0
  6
HIDDEN
 62
     7
370
     0
100
AcDbEllipse
 10
252.9888232962
 20
86.9069955211
 30
0.0
 11
2.137853599931617
 21
1.378829910960419
 31
0.0
210
0.0
220
0.0
230
1.0
 40
0.2825155173
 41
5.220855580025209
 42
6.304126668314597
  0
SPLINE
  5
1A1
330
1F
100
AcDbEntity
  8
0
  6
HIDDEN
 62
     7
370
     0
100
AcDbSpline
210
0.0
220
0.0
230
1.0
 70
     8
 71
     3
 72
    14
 73
    10
 74
     0
 42
0.00000001
 43
0.00000001
 40
0.0
 40
0.0
 40
0.0
 40
0.0
 40
0.25
 40
0.25
 40
0.5
 40
0.5
 40
0.75
 40
0.75
 40
1.0
 40
1.0
 40
1.0
 40
1.0
 10
254.3698733693441
 20
87.05069392963617
 30
0.0
 10
254.1622578371918
 20
87.01639906491276
 30
0.0
 10
253.9659070530282
 20
86.95007017242905
 30
0.0
 10
253.5942538663266
 20
86.75623160390693
 30
0.0
 10
253.4262369089295
 20
86.63199490685516
 30
0.0
 10
253.1320317909913
 20
86.33520200633338
 30
0.0
 10
253.0089258987603
 20
86.16522673111771
 30
0.0
 10
252.8201263021574
 20
85.79473460468596
 30
0.0
 10
252.7546202077421
 20
85.59416412363396
 30
0.0
 10
252.7227575091072
 20
85.38652972112271
 30
0.0
  0
LINE
  5
1A2
330
1F
100
AcDbEntity
  8
0
  6
HIDDEN
 62
     7
370
     0
100
AcDbLine
 10
252.7227575091
 20
85.3865297211
 30
0.0
 11
252.7394942679
 21
85.3643678491
 31
0.0
  0
LINE
  5
1A3
330
1F
100
AcDbEntity
  8
0
  6
HIDDEN
 62
     7
370
     0
100
AcDbLine
 10
248.6939896438
 20
79.5523243243
 30
0.0
 11
247.7300654271
 21
80.8286984113
 31
0.0
  0
LWPOLYLINE
  5
1A4
330
1F
100
AcDbEntity
  8
0
  6
HIDDEN
 62
     7
370
     0
100
AcDbPolyline
 90
        2
 70
   128
 43
0.0
 10
199.8407687226
 20
93.6663229021
 10
199.8407687226
 20
93.6663229021
  0
LINE
  5
1A5
330
1F
100
AcDbEntity
  8
0
  6
HIDDEN
 62
     7
370
     0
100
AcDbLine
 10
249.48970229
 20
94.2508746271
 30
0.0
 11
249.8828651632
 21
93.730270523
 31
0.0
  0
ELLIPSE
  5
1A6
330
1F
100
AcDbEntity
  8
0
  6
HIDDEN
 62
     7
370
     0
100
AcDbEllipse
 10
245.6241066843
 20
94.451071014
 30
0.0
 11
3.167078026784026
 21
2.762841112032675
 31
0.0
210
0.0
220
0.0
230
0.9999999999999998
 40
0.8543839535
 41
4.160460674162443
 42
5.435584515400839
  0
LINE
  5
1A7
330
1F
100
AcDbEntity
  8
0
  6
HIDDEN
 62
     7
370
     0
100
AcDbLine
 10
246.3666992819
 20
90.1777108324
 30
0.0
 11
245.9735364088
 21
90.6983149366
 31
0.0
  0
ELLIPSE
  5
1A8
330
1F
100
AcDbEntity
  8
0
  6
HIDDEN
 62
     7
370
     0
100
AcDbEllipse
 10
243.6841852094
 20
97.0198056286
 30
0.0
 11
2.570105550204659
 21
-3.403188827857363
 31
0.0
210
0.0
220
0.0
230
1.0
 40
0.9848432766
 41
4.352992166505612
 42
10.39898776125889
  0
CIRCLE
  5
1A9
330
1F
100
AcDbEntity
  8
0
  6
HIDDEN
 62
     7
370
     0
100
AcDbCircle
 10
246.4277045977
 20
93.3107334966
 30
0.0
 40
4.166306364324674
  0
LINE
  5
1AA
330
1F
100
AcDbEntity
  8
0
  6
HIDDEN
 62
     7
370
     0
100
AcDbLine
 10
199.8407687226
 20
88.5821999193
 30
0.0
 11
199.8407687226
 21
93.6663229021
 31
0.0
  0
LINE
  5
1AB
330
1F
100
AcDbEntity
  8
0
  6
HIDDEN
 62
     7
370
     0
100
AcDbLine
 10
199.8407687226
 20
93.6663229021
 30
0.0
 11
207.8407687226
 21
93.6663229021
 31
0.0
  0
LINE
  5
1AC
330
1F
100
AcDbEntity
  8
0
  6
HIDDEN
 62
     7
370
     0
100
AcDbLine
 10
254.5219928954
 20
89.0874371055
 30
0.0
 11
255.1180512261
 21
88.2981702788
 31
0.0
  0
LINE
  5
1AD
330
1F
100
AcDbEntity
  8
0
  6
HIDDEN
 62
     7
370
     0
100
AcDbLine
 10
245.9735364088
 20
90.6983149366
 30
0.0
 11
248.7845195579
 21
88.0621071095
 31
0.0
  0
LINE
  5
1AE
330
1F
100
AcDbEntity
  8
0
  6
HIDDEN
 62
     7
370
     0
100
AcDbLine
 10
253.6621013236
 20
82.9288198126
 30
0.0
 11
253.4099736847
 21
83.2626730131
 31
0.0
  0
LINE
  5
1AF
330
1F
100
AcDbEntity
  8
0
  6
HIDDEN
 62
     7
370
     0
100
AcDbLine
 10
251.0058270141
 20
85.5348774149
 30
0.0
 11
253.6621013236
 21
82.9288198126
 31
0.0
  0
LINE
  5
1B0
330
1F
100
AcDbEntity
  8
0
  6
HIDDEN
 62
     7
370
     0
100
AcDbLine
 10
251.6018853449
 20
84.7456105882
 30
0.0
 11
251.0058270141
 21
85.5348774149
 31
0.0
  0
LWPOLYLINE
  5
1B1
330
1F
100
AcDbEntity
  8
0
  6
HIDDEN
 62
     7
370
     0
100
AcDbPolyline
 90
       26
 70
   128
 43
0.0
 10
224.8907687226
 20
125.8742430806
 10
225.5124934405
 20
125.9442246016
 10
226.0951529079
 20
126.1497719683
 10
226.6021364874
 20
126.4779698837
 10
227.0015885364
 20
126.9081964657
 10
227.2684100133
 20
127.4134189959
 10
227.3858355437
 20
127.9618924847
 10
227.3464868494
 20
128.5191543256
 10
227.1528363538
 20
129.0501897077
 10
226.8170518295
 20
129.5216317249
 10
226.3602318533
 20
129.9038579415
 10
225.8110801043
 20
130.1728516785
 10
225.2041018065
 20
130.3117110701
 10
224.5774356387
 20
130.3117110701
 10
223.9704573409
 20
130.1728516785
 10
223.4213055919
 20
129.9038579415
 10
222.9644856157
 20
129.5216317249
 10
222.6287010914
 20
129.0501897077
 10
222.4350505958
 20
128.5191543256
 10
222.3957019015
 20
127.9618924847
 10
222.5131274319
 20
127.4134189959
 10
222.7799489089
 20
126.9081964657
 10
223.1794009578
 20
126.4779698837
 10
223.6863845374
 20
126.1497719683
 10
224.2690440047
 20
125.9442246016
 10
224.8907687226
 20
125.8742430806
  0
LINE
  5
1B2
330
1F
100
AcDbEntity
  8
0
  6
HIDDEN
 62
     7
370
     0
100
AcDbLine
 10
173.0907687226
 20
102.0763229021
 30
0.0
 11
173.0907687226
 21
103.761727116
 31
0.0
  0
LINE
  5
1B3
330
1F
100
AcDbEntity
  8
0
  6
HIDDEN
 62
     7
370
     0
100
AcDbLine
 10
169.0907687226
 20
138.0563229021
 30
0.0
 11
169.0907687226
 21
136.3538365245
 31
0.0
  0
LINE
  5
1B4
330
1F
100
AcDbEntity
  8
0
  6
HIDDEN
 62
     7
370
     0
100
AcDbLine
 10
173.0907687226
 20
102.0763229021
 30
0.0
 11
173.0907687226
 21
98.092007194
 31
0.0
  0
LINE
  5
1B5
330
1F
100
AcDbEntity
  8
0
  6
HIDDEN
 62
     7
370
     0
100
AcDbLine
 10
169.0907687226
 20
138.0563229021
 30
0.0
 11
169.0907687226
 21
141.9104305745
 31
0.0
  0
LWPOLYLINE
  5
1B6
330
1F
100
AcDbEntity
  8
0
  6
HIDDEN
 62
     7
370
     0
100
AcDbPolyline
 90
        2
 70
   128
 43
0.0
 10
220.8407687226
 20
146.4663229021
 10
220.8407687226
 20
146.4663229021
  0
LWPOLYLINE
  5
1B7
330
1F
100
AcDbEntity
  8
0
  6
HIDDEN
 62
     7
370
     0
100
AcDbPolyline
 90
        2
 70
   128
 43
0.0
 10
220.8407687226
 20
93.6663229021
 10
220.8407687226
 20
93.6663229021
  0
ARC
  5
1B8
330
1F
100
AcDbEntity
  8
0
  6
HIDDEN
 62
     7
370
     0
100
AcDbCircle
 10
256.9852743676
 20
83.1560429489
 30
0.0
 40
3.330932217028059
100
AcDbArc
 50
183.911531124
 51
86.6784460165
  0
LINE
  5
1B9
330
1F
100
AcDbEntity
  8
0
  6
HIDDEN
 62
     7
370
     0
100
AcDbLine
 10
263.0545510712
 20
77.1963191277
 30
0.0
 11
263.5194106039
 21
77.6713011134
 31
0.0
  0
ELLIPSE
  5
1BA
330
1F
100
AcDbEntity
  8
0
  6
HIDDEN
 62
     7
370
     0
100
AcDbEllipse
 10
1297.0218540977
 20
135.6246227115
 30
0.0
 11
1277.776493054098
 21
18.75328596997798
 31
0.0
210
0.0
220
0.0
230
1.0
 40
0.0576670926
 41
3.75736708731529
 42
3.768766408068642
  0
LINE
  5
1BB
330
1F
100
AcDbEntity
  8
0
  6
HIDDEN
 62
     7
370
     0
100
AcDbLine
 10
257.1782672048
 20
86.4813795031
 30
0.0
 11
254.5219928954
 21
89.0874371055
 31
0.0
  0
LINE
  5
1BC
330
1F
100
AcDbEntity
  8
0
  6
HIDDEN
 62
     7
370
     0
100
AcDbLine
 10
251.0058270141
 20
85.5348774149
 30
0.0
 11
247.7300654271
 21
80.8286984113
 31
0.0
  0
LINE
  5
1BD
330
1F
100
AcDbEntity
  8
0
  6
HIDDEN
 62
     7
370
     0
100
AcDbLine
 10
256.0567830725
 20
90.1799625324
 30
0.0
 11
254.5219928954
 21
89.0874371055
 31
0.0
  0
LINE
  5
1BE
330
1F
100
AcDbEntity
  8
0
  6
HIDDEN
 62
     7
370
     0
100
AcDbLine
 10
255.5637935753
 20
91.2254486273
 30
0.0
 11
256.0567830725
 21
90.1799625324
 31
0.0
  0
LINE
  5
1BF
330
1F
100
AcDbEntity
  8
0
  6
HIDDEN
 62
     7
370
     0
100
AcDbLine
 10
247.7300654271
 20
80.8286984113
 30
0.0
 11
254.5638217698
 21
77.7556575625
 31
0.0
  0
LINE
  5
1C0
330
1F
100
AcDbEntity
  8
0
  6
HIDDEN
 62
     7
370
     0
100
AcDbLine
 10
263.5194073308
 20
77.6713042872
 30
0.0
 11
262.813797052
 21
85.6916484562
 31
0.0
  0
LINE
  5
1C1
330
1F
100
AcDbEntity
  8
0
  6
HIDDEN
 62
     7
370
     0
100
AcDbLine
 10
164.1407687226
 20
102.0763229021
 30
0.0
 11
164.1407687226
 21
99.1965873692
 31
0.0
  0
LINE
  5
1C2
330
1F
100
AcDbEntity
  8
0
  6
HIDDEN
 62
     7
370
     0
100
AcDbLine
 10
164.1407687226
 20
102.0763229021
 30
0.0
 11
164.1407687226
 21
104.2421374965
 31
0.0
  0
SPLINE
  5
1C3
330
1F
100
AcDbEntity
  8
0
  6
HIDDEN
 62
     7
370
     0
100
AcDbSpline
210
0.0
220
0.0
230
1.0
 70
     8
 71
     3
 72
    22
 73
    18
 74
     0
 42
0.00000001
 43
0.00000001
 40
0.0
 40
0.0
 40
0.0
 40
0.0
 40
0.2499999999999994
 40
0.2499999999999994
 40
0.3749999999999984
 40
0.3749999999999984
 40
0.4999999999999973
 40
0.4999999999999973
 40
0.6249999999999963
 40
0.6249999999999963
 40
0.6874999999999959
 40
0.6874999999999959
 40
0.7499999999999954
 40
0.7499999999999954
 40
0.8749999999999978
 40
0.8749999999999978
 40
1.0
 40
1.0
 40
1.0
 40
1.0
 10
162.9907687226064
 20
100.0775004632513
 30
0.0
 10
162.9907687226064
 20
99.9894365204447
 30
0.0
 10
163.0190193035538
 20
99.91275522513673
 30
0.0
 10
163.0940151040826
 20
99.81876123811763
 30
0.0
 10
163.124751708747
 20
99.79051458507784
 30
0.0
 10
163.1974083669658
 20
99.73923540911962
 30
0.0
 10
163.239257824765
 20
99.71623401133468
 30
0.0
 10
163.3394615587161
 20
99.66933581193231
 30
0.0
 10
163.3972415224149
 20
99.64649399067866
 30
0.0
 10
163.5119667903307
 20
99.59315973768199
 30
0.0
 10
163.5556424747116
 20
99.57128264049835
 30
0.0
 10
163.6440411889269
 20
99.52147909353256
 30
0.0
 10
163.688179092216
 20
99.49400516773198
 30
0.0
 10
163.8094428765322
 20
99.41501685083692
 30
0.0
 10
163.8785760248999
 20
99.36633219254959
 30
0.0
 10
164.0092812582829
 20
99.27835665913737
 30
0.0
 10
164.0708917608071
 20
99.23846526486746
 30
0.0
 10
164.1307237921885
 20
99.20258316702268
 30
0.0
  0
LINE
  5
1C4
330
1F
100
AcDbEntity
  8
0
  6
HIDDEN
 62
     7
370
     0
100
AcDbLine
 10
162.9907687226
 20
102.0763229021
 30
0.0
 11
162.9907687226
 21
100.0775004633
 31
0.0
  0
SPLINE
  5
1C5
330
1F
100
AcDbEntity
  8
0
  6
HIDDEN
 62
     7
370
     0
100
AcDbSpline
210
0.0
220
0.0
230
1.0
 70
     8
 71
     3
 72
     8
 73
     4
 74
     0
 42
0.00000001
 43
0.00000001
 40
0.0000002438860713
 40
0.0000002438860713
 40
0.0000002438860713
 40
0.0000002438860713
 40
0.0014006025853533
 40
0.0014006025853533
 40
0.0014006025853533
 40
0.0014006025853533
 10
164.1407687226066
 20
135.8678133381536
 30
0.0
 10
163.7579816500416
 20
136.0178848661294
 30
0.0
 10
163.3746282500855
 20
136.1660420680468
 30
0.0
 10
162.9907687226066
 20
136.31241557985
 30
0.0
  0
SPLINE
  5
1C6
330
1F
100
AcDbEntity
  8
0
  6
HIDDEN
 62
     7
370
     0
100
AcDbSpline
210
0.0
220
0.0
230
1.0
 70
     8
 71
     3
 72
     8
 73
     4
 74
     0
 42
0.00000001
 43
0.00000001
 40
0.0000002432968744
 40
0.0000002432968744
 40
0.0000002432968744
 40
0.0000002432968744
 40
0.0014011510532366
 40
0.0014011510532366
 40
0.0014011510532366
 40
0.0014011510532366
 10
162.9907687226066
 20
103.7958089085067
 30
0.0
 10
163.3746331893432
 20
103.9427478209689
 30
0.0
 10
163.7579868111668
 20
104.0914801807868
 30
0.0
 10
164.1407687226066
 20
104.2421374965473
 30
0.0
  0
LINE
  5
1C7
330
1F
100
AcDbEntity
  8
0
  6
HIDDEN
 62
     7
370
     0
100
AcDbLine
 10
162.9907687226
 20
136.3124155798
 30
0.0
 11
162.9907687226
 21
103.7958089085
 31
0.0
  0
LINE
  5
1C8
330
1F
100
AcDbEntity
  8
0
  6
HIDDEN
 62
     7
370
     0
100
AcDbLine
 10
162.9907687226
 20
102.0763229021
 30
0.0
 11
162.9907687226
 21
103.7958089085
 31
0.0
  0
LINE
  5
1C9
330
1F
100
AcDbEntity
  8
0
  6
HIDDEN
 62
     7
370
     0
100
AcDbLine
 10
164.1407687226
 20
138.0563229021
 30
0.0
 11
164.1407687226
 21
140.9362606675
 31
0.0
  0
LINE
  5
1CA
330
1F
100
AcDbEntity
  8
0
  6
HIDDEN
 62
     7
370
     0
100
AcDbLine
 10
164.1407687226
 20
138.0563229021
 30
0.0
 11
164.1407687226
 21
135.8678133382
 31
0.0
  0
LINE
  5
1CB
330
1F
100
AcDbEntity
  8
0
  6
HIDDEN
 62
     7
370
     0
100
AcDbLine
 10
162.9907687226
 20
138.0563229021
 30
0.0
 11
162.9907687226
 21
136.3124155798
 31
0.0
  0
LINE
  5
1CC
330
1F
100
AcDbEntity
  8
0
  6
HIDDEN
 62
     7
370
     0
100
AcDbLine
 10
162.9907687226
 20
138.0563229021
 30
0.0
 11
162.9907687226
 21
140.0423834068
 31
0.0
  0
SPLINE
  5
1CD
330
1F
100
AcDbEntity
  8
0
  6
HIDDEN
 62
     7
370
     0
100
AcDbSpline
210
0.0
220
0.0
230
1.0
 70
     8
 71
     3
 72
    22
 73
    18
 74
     0
 42
0.00000001
 43
0.00000001
 40
0.0
 40
0.0
 40
0.0
 40
0.0
 40
0.1249999999999945
 40
0.1249999999999945
 40
0.249999999999989
 40
0.249999999999989
 40
0.3124999999999866
 40
0.3124999999999866
 40
0.3749999999999842
 40
0.3749999999999842
 40
0.4999999999999869
 40
0.4999999999999869
 40
0.6249999999999896
 40
0.6249999999999896
 40
0.7499999999999923
 40
0.7499999999999923
 40
1.0
 40
1.0
 40
1.0
 40
1.0
 10
164.1307237921757
 20
140.9305147745506
 30
0.0
 10
164.0701040712993
 20
140.8956925979033
 30
0.0
 10
164.0079147313328
 20
140.8571887942027
 30
0.0
 10
163.8741852651034
 20
140.771254306404
 30
0.0
 10
163.8019307233911
 20
140.7229477052018
 30
0.0
 10
163.6800327825554
 20
140.6465959870319
 30
0.0
 10
163.6362262294033
 20
140.6201815264249
 30
0.0
 10
163.5498310602284
 20
140.5716726018943
 30
0.0
 10
163.5074910839367
 20
140.5497384791679
 30
0.0
 10
163.3935203375677
 20
140.4933686892233
 30
0.0
 10
163.3351016115774
 20
140.4670118646896
 30
0.0
 10
163.2351940403899
 20
140.4148720401855
 30
0.0
 10
163.1937800495946
 20
140.3897114504729
 30
0.0
 10
163.1217550817173
 20
140.3346046071459
 30
0.0
 10
163.0914065404044
 20
140.3047482036509
 30
0.0
 10
163.0179148103723
 20
140.2073415016582
 30
0.0
 10
162.9907687226066
 20
140.1310098178479
 30
0.0
 10
162.9907687226066
 20
140.0423834067778
 30
0.0
  0
SPLINE
  5
1CE
330
1F
100
AcDbEntity
  8
0
  6
HIDDEN
 62
     7
370
     0
100
AcDbSpline
210
0.0
220
0.0
230
1.0
 70
     8
 71
     3
 72
    12
 73
     8
 74
     0
 42
0.00000001
 43
0.00000001
 40
0.0
 40
0.0
 40
0.0
 40
0.0
 40
0.2499999999999993
 40
0.2499999999999993
 40
0.4999999999999986
 40
0.4999999999999986
 40
1.0
 40
1.0
 40
1.0
 40
1.0
 10
253.4099736847342
 20
83.26267301309244
 30
0.0
 10
253.3812983581296
 20
83.30064326343029
 30
0.0
 10
253.350945945661
 20
83.36276926718241
 30
0.0
 10
253.2914488984959
 20
83.5136363503422
 30
0.0
 10
253.2621234858869
 20
83.60294777849789
 30
0.0
 10
253.1804327839456
 20
83.90071725762519
 30
0.0
 10
253.1336390337528
 20
84.13873889014029
 30
0.0
 10
253.1117866114301
 20
84.40901047239139
 30
0.0
  0
ARC
  5
1CF
330
1F
100
AcDbEntity
  8
0
  6
HIDDEN
 62
     7
370
     0
100
AcDbCircle
 10
256.4060133621
 20
83.9221945629
 30
0.0
 40
3.330002945172002
100
AcDbArc
 50
171.5937561418
 51
98.9962209987
  0
SPLINE
  5
1D0
330
1F
100
AcDbEntity
  8
0
  6
HIDDEN
 62
     7
370
     0
100
AcDbSpline
210
0.0
220
0.0
230
1.0
 70
     8
 71
     3
 72
    12
 73
     8
 74
     0
 42
0.00000001
 43
0.00000001
 40
0.0
 40
0.0
 40
0.0
 40
0.0
 40
0.4999999999999999
 40
0.4999999999999999
 40
0.7499999999999999
 40
0.7499999999999999
 40
1.0
 40
1.0
 40
1.0
 40
1.0
 10
255.8853030636315
 20
87.21123399710059
 30
0.0
 10
256.1390561323387
 20
87.17483701870016
 30
0.0
 10
256.3585339332279
 20
87.1130740609344
 30
0.0
 10
256.630309830874
 20
87.00724168142871
 30
0.0
 10
256.7110021380373
 20
86.96959682920422
 30
0.0
 10
256.8444128325699
 20
86.89267169494752
 30
0.0
 10
256.8974070122749
 20
86.85327873094278
 30
0.0
 10
256.9261395660011
 20
86.81523270367786
 30
0.0
  0
LINE
  5
1D1
330
1F
100
AcDbEntity
  8
0
  6
HIDDEN
 62
     7
370
     0
100
AcDbLine
 10
256.926139566
 20
86.8152327037
 30
0.0
 11
257.1782672048
 21
86.4813795031
 31
0.0
  0
SPLINE
  5
1D2
330
1F
100
AcDbEntity
  8
0
  6
HIDDEN
 62
     7
370
     0
100
AcDbSpline
210
0.0
220
0.0
230
1.0
 70
     8
 71
     3
 72
    10
 73
     6
 74
     0
 42
0.00000001
 43
0.00000001
 40
0.0
 40
0.0
 40
0.0
 40
0.0
 40
0.5
 40
0.5
 40
1.0
 40
1.0
 40
1.0
 40
1.0
 10
210.9807687226066
 20
147.1859767531577
 30
0.0
 10
210.9807687226066
 20
147.0423644015996
 30
0.0
 10
211.0169359977044
 20
146.8993909878811
 30
0.0
 10
211.1526919414584
 20
146.6493983611673
 30
0.0
 10
211.2529616320813
 20
146.5413960518885
 30
0.0
 10
211.3750662542976
 20
146.4663229021218
 30
0.0
  0
LINE
  5
1D3
330
1F
100
AcDbEntity
  8
0
  6
HIDDEN
 62
     7
370
     0
100
AcDbLine
 10
210.9807687226
 20
147.1859767532
 30
0.0
 11
210.9807687226
 21
93.2619272738
 31
0.0
  0
SPLINE
  5
1D4
330
1F
100
AcDbEntity
  8
0
  6
HIDDEN
 62
     7
370
     0
100
AcDbSpline
210
0.0
220
0.0
230
1.0
 70
     8
 71
     3
 72
    10
 73
     6
 74
     0
 42
0.00000001
 43
0.00000001
 40
0.0
 40
0.0
 40
0.0
 40
0.0
 40
0.5
 40
0.5
 40
1.0
 40
1.0
 40
1.0
 40
1.0
 10
210.9807687226066
 20
93.2619272737926
 30
0.0
 10
210.9807687226066
 20
93.33216363416312
 30
0.0
 10
210.989051334697
 20
93.40215773566038
 30
0.0
 10
211.0221512777554
 20
93.53911700021885
 30
0.0
 10
211.0464886697137
 20
93.60442490947393
 30
0.0
 10
211.0784435249382
 20
93.66632290212067
 30
0.0
  0
SPLINE
  5
1D5
330
1F
100
AcDbEntity
  8
0
  6
HIDDEN
 62
     7
370
     0
100
AcDbSpline
210
0.0
220
0.0
230
1.0
 70
    24
 71
     3
 72
    12
 73
     8
 74
     0
 42
0.00000001
 43
0.00000001
 40
0.0
 40
0.0
 40
0.0
 40
0.0
 40
0.4999999999999926
 40
0.4999999999999926
 40
0.7499999999999962
 40
0.7499999999999962
 40
1.0
 40
1.0
 40
1.0
 40
1.0
 10
211.3750662542976
 20
146.4663229021219
 30
0.0
 10
211.4181896027312
 20
146.4663229021219
 30
0.0
 10
211.4679291900314
 20
146.4663229021219
 30
0.0
 10
211.5644501668534
 20
146.4663229021219
 30
0.0
 10
211.600015297705
 20
146.4663229021219
 30
0.0
 10
211.683363628328
 20
146.4663229021219
 30
0.0
 10
211.7318335280182
 20
146.4663229021219
 30
0.0
 10
211.7807687226078
 20
146.4663229021219
 30
0.0
  0
SPLINE
  5
1D6
330
1F
100
AcDbEntity
  8
0
  6
HIDDEN
 62
     7
370
     0
100
AcDbSpline
210
0.0
220
0.0
230
1.0
 70
    24
 71
     3
 72
    14
 73
    10
 74
     0
 42
0.00000001
 43
0.00000001
 40
0.0
 40
0.0
 40
0.0
 40
0.0
 40
0.5000000000000016
 40
0.5000000000000016
 40
0.7500000000000008
 40
0.7500000000000008
 40
0.8750000000000003
 40
0.8750000000000003
 40
1.0
 40
1.0
 40
1.0
 40
1.0
 10
211.0784435249388
 20
93.66632290212193
 30
0.0
 10
211.1256500127786
 20
93.66632290212195
 30
0.0
 10
211.188990016208
 20
93.66632290212193
 30
0.0
 10
211.3320531224638
 20
93.66632290212195
 30
0.0
 10
211.3881337727348
 20
93.66632290212193
 30
0.0
 10
211.4995691226442
 20
93.66632290212193
 30
0.0
 10
211.5415139133171
 20
93.66632290212193
 30
0.0
 10
211.6465103563373
 20
93.66632290212195
 30
0.0
 10
211.712074293418
 20
93.66632290212193
 30
0.0
 10
211.7807687226065
 20
93.66632290212193
 30
0.0
  0
LINE
  5
1D7
330
1F
100
AcDbEntity
  8
0
  6
HIDDEN
 62
     7
370
     0
100
AcDbLine
 10
214.8007687226
 20
147.1859767532
 30
0.0
 11
214.8007687226
 21
93.2619272738
 31
0.0
  0
SPLINE
  5
1D8
330
1F
100
AcDbEntity
  8
0
  6
HIDDEN
 62
     7
370
     0
100
AcDbSpline
210
0.0
220
0.0
230
1.0
 70
     8
 71
     3
 72
    10
 73
     6
 74
     0
 42
0.00000001
 43
0.00000001
 40
0.0
 40
0.0
 40
0.0
 40
0.0
 40
0.5
 40
0.5
 40
1.0
 40
1.0
 40
1.0
 40
1.0
 10
214.4064711909156
 20
146.4663229021219
 30
0.0
 10
214.5277837140134
 20
146.5409090484101
 30
0.0
 10
214.6292120762385
 20
146.6497333595615
 30
0.0
 10
214.7651556424987
 20
146.9007538781832
 30
0.0
 10
214.8007687226066
 20
147.0433365713225
 30
0.0
 10
214.8007687226066
 20
147.1859767531577
 30
0.0
  0
SPLINE
  5
1D9
330
1F
100
AcDbEntity
  8
0
  6
HIDDEN
 62
     7
370
     0
100
AcDbSpline
210
0.0
220
0.0
230
1.0
 70
     8
 71
     3
 72
    10
 73
     6
 74
     0
 42
0.00000001
 43
0.00000001
 40
0.0
 40
0.0
 40
0.0
 40
0.0
 40
0.5
 40
0.5
 40
1.0
 40
1.0
 40
1.0
 40
1.0
 10
214.7030939202743
 20
93.66632290212193
 30
0.0
 10
214.7352491078963
 20
93.6040368566058
 30
0.0
 10
214.7599053390905
 20
93.53750643173657
 30
0.0
 10
214.792718096016
 20
93.40064780137405
 30
0.0
 10
214.8007687226066
 20
93.3315902061957
 30
0.0
 10
214.8007687226066
 20
93.26192727379237
 30
0.0
  0
SPLINE
  5
1DA
330
1F
100
AcDbEntity
  8
0
  6
HIDDEN
 62
     7
370
     0
100
AcDbSpline
210
0.0
220
0.0
230
1.0
 70
    24
 71
     3
 72
    12
 73
     8
 74
     0
 42
0.00000001
 43
0.00000001
 40
0.0
 40
0.0
 40
0.0
 40
0.0
 40
0.2500000000000029
 40
0.2500000000000029
 40
0.5000000000000058
 40
0.5000000000000058
 40
1.0
 40
1.0
 40
1.0
 40
1.0
 10
214.0007687226066
 20
146.4663229021219
 30
0.0
 10
214.0503038288246
 20
146.4663229021219
 30
0.0
 10
214.098708717426
 20
146.4663229021219
 30
0.0
 10
214.1815952666036
 20
146.4663229021219
 30
0.0
 10
214.2181099880719
 20
146.4663229021219
 30
0.0
 10
214.3144428264266
 20
146.4663229021219
 30
0.0
 10
214.3631953740893
 20
146.4663229021219
 30
0.0
 10
214.40647119092
 20
146.4663229021219
 30
0.0
  0
SPLINE
  5
1DB
330
1F
100
AcDbEntity
  8
0
  6
HIDDEN
 62
     7
370
     0
100
AcDbSpline
210
0.0
220
0.0
230
1.0
 70
    24
 71
     3
 72
    14
 73
    10
 74
     0
 42
0.00000001
 43
0.00000001
 40
0.0
 40
0.0
 40
0.0
 40
0.0
 40
0.125
 40
0.125
 40
0.25
 40
0.25
 40
0.5
 40
0.5
 40
1.0
 40
1.0
 40
1.0
 40
1.0
 10
214.0007687226066
 20
93.66632290212193
 30
0.0
 10
214.0698653549505
 20
93.66632290212195
 30
0.0
 10
214.1348585205585
 20
93.66632290212193
 30
0.0
 10
214.2391797192036
 20
93.66632290212193
 30
0.0
 10
214.2819600933121
 20
93.66632290212195
 30
0.0
 10
214.3942977529584
 20
93.66632290212193
 30
0.0
 10
214.4493449351007
 20
93.66632290212193
 30
0.0
 10
214.5932217088708
 20
93.66632290212193
 30
0.0
 10
214.6562510221459
 20
93.66632290212193
 30
0.0
 10
214.7030939202743
 20
93.66632290212193
 30
0.0
  0
LINE
  5
1DC
330
1F
100
AcDbEntity
  8
0
  6
HIDDEN
 62
     7
370
     0
100
AcDbLine
 10
211.7807687226
 20
146.4663229021
 30
0.0
 11
214.0007687226
 21
146.4663229021
 31
0.0
  0
LINE
  5
1DD
330
1F
100
AcDbEntity
  8
0
  6
HIDDEN
 62
     7
370
     0
100
AcDbLine
 10
211.7807687226
 20
93.6663229021
 30
0.0
 11
214.0007687226
 21
93.6663229021
 31
0.0
  0
LINE
  5
1DE
330
1F
100
AcDbEntity
  8
0
  6
HIDDEN
 62
     7
370
     0
100
AcDbLine
 10
214.8007687226
 20
147.1859767532
 30
0.0
 11
214.8007687226
 21
147.8715570933
 31
0.0
  0
SPLINE
  5
1DF
330
1F
100
AcDbEntity
  8
0
  6
HIDDEN
 62
     7
370
     0
100
AcDbSpline
210
0.0
220
0.0
230
1.0
 70
     8
 71
     3
 72
     8
 73
     4
 74
     0
 42
0.00000001
 43
0.00000001
 40
0.0
 40
0.0
 40
0.0
 40
0.0
 40
1.0
 40
1.0
 40
1.0
 40
1.0
 10
214.8007687226066
 20
147.8715570932935
 30
0.0
 10
215.2934788194523
 20
148.7595760914199
 30
0.0
 10
215.7875615247313
 20
149.6468387271059
 30
0.0
 10
216.2827015540956
 20
150.5335183752862
 30
0.0
  0
LINE
  5
1E0
330
1F
100
AcDbEntity
  8
0
  6
HIDDEN
 62
     7
370
     0
100
AcDbLine
 10
216.2827015541
 20
150.5335183753
 30
0.0
 11
220.2407687226
 21
150.5335183753
 31
0.0
  0
SPLINE
  5
1E1
330
1F
100
AcDbEntity
  8
0
  6
HIDDEN
 62
     7
370
     0
100
AcDbSpline
210
0.0
220
0.0
230
1.0
 70
     8
 71
     3
 72
    12
 73
     8
 74
     0
 42
0.00000001
 43
0.00000001
 40
0.0
 40
0.0
 40
0.0
 40
0.0
 40
0.25
 40
0.25
 40
0.5
 40
0.5
 40
1.0
 40
1.0
 40
1.0
 40
1.0
 10
220.2407687226066
 20
150.5335183752861
 30
0.0
 10
220.3202616716548
 20
150.5335183752861
 30
0.0
 10
220.4013451730104
 20
150.5165156253254
 30
0.0
 10
220.5477755701482
 20
150.4524550842137
 30
0.0
 10
220.6143241800219
 20
150.4052964685751
 30
0.0
 10
220.7786140539956
 20
150.2320744358828
 30
0.0
 10
220.8407687226068
 20
150.0719653456486
 30
0.0
 10
220.8407687226066
 20
149.9127632258852
 30
0.0
  0
LINE
  5
1E2
330
1F
100
AcDbEntity
  8
0
  6
HIDDEN
 62
     7
370
     0
100
AcDbLine
 10
220.8407687226
 20
149.9127632259
 30
0.0
 11
220.8407687226
 21
146.4663229021
 31
0.0
  0
LINE
  5
1E3
330
1F
100
AcDbEntity
  8
0
  6
HIDDEN
 62
     7
370
     0
100
AcDbLine
 10
214.4064711909
 20
146.4663229021
 30
0.0
 11
220.8407687226
 21
146.4663229021
 31
0.0
  0
SPLINE
  5
1E4
330
1F
100
AcDbEntity
  8
0
  6
HIDDEN
 62
     7
370
     0
100
AcDbSpline
210
0.0
220
0.0
230
1.0
 70
     8
 71
     3
 72
     8
 73
     4
 74
     0
 42
0.00000001
 43
0.00000001
 40
0.0
 40
0.0
 40
0.0
 40
0.0
 40
1.0
 40
1.0
 40
1.0
 40
1.0
 10
209.4988358911176
 20
150.5335183752861
 30
0.0
 10
209.9939759204819
 20
149.6468387271059
 30
0.0
 10
210.4880586257608
 20
148.7595760914199
 30
0.0
 10
210.9807687226066
 20
147.8715570932935
 30
0.0
  0
LINE
  5
1E5
330
1F
100
AcDbEntity
  8
0
  6
HIDDEN
 62
     7
370
     0
100
AcDbLine
 10
210.9807687226
 20
147.8715570933
 30
0.0
 11
210.9807687226
 21
147.1859767532
 31
0.0
  0
LINE
  5
1E6
330
1F
100
AcDbEntity
  8
0
  6
HIDDEN
 62
     7
370
     0
100
AcDbLine
 10
207.8407687226
 20
146.4663229021
 30
0.0
 11
211.3750662543
 21
146.4663229021
 31
0.0
  0
SPLINE
  5
1E7
330
1F
100
AcDbEntity
  8
0
  6
HIDDEN
 62
     7
370
     0
100
AcDbSpline
210
0.0
220
0.0
230
1.0
 70
     8
 71
     3
 72
    12
 73
     8
 74
     0
 42
0.00000001
 43
0.00000001
 40
0.0
 40
0.0
 40
0.0
 40
0.0
 40
0.2500000000000019
 40
0.2500000000000019
 40
0.5000000000000039
 40
0.5000000000000039
 40
1.0
 40
1.0
 40
1.0
 40
1.0
 10
220.2407687226066
 20
89.87940520587476
 30
0.0
 10
220.3206497273537
 20
89.87940520587476
 30
0.0
 10
220.4012438576243
 20
89.89652229214062
 30
0.0
 10
220.5478593034692
 20
89.96125840361572
 30
0.0
 10
220.6143604962132
 20
90.00871564649607
 30
0.0
 10
220.7800953973504
 20
90.18554008903556
 30
0.0
 10
220.8407687226066
 20
90.34581659624129
 30
0.0
 10
220.8407687226066
 20
90.50604550152907
 30
0.0
  0
LINE
  5
1E8
330
1F
100
AcDbEntity
  8
0
  6
HIDDEN
 62
     7
370
     0
100
AcDbLine
 10
220.8407687226
 20
149.9127632259
 30
0.0
 11
220.8407687226
 21
90.5060455015
 31
0.0
  0
LINE
  5
1E9
330
1F
100
AcDbEntity
  8
0
  6
HIDDEN
 62
     7
370
     0
100
AcDbLine
 10
216.2827015541
 20
150.5335183753
 30
0.0
 11
216.2827015541
 21
89.8794052059
 31
0.0
  0
LINE
  5
1EA
330
1F
100
AcDbEntity
  8
0
  6
HIDDEN
 62
     7
370
     0
100
AcDbLine
 10
210.9807687226
 20
147.8715570933
 30
0.0
 11
210.9807687226
 21
92.5684857431
 31
0.0
  0
LINE
  5
1EB
330
1F
100
AcDbEntity
  8
0
  6
HIDDEN
 62
     7
370
     0
100
AcDbLine
 10
214.8007687226
 20
147.8715570933
 30
0.0
 11
214.8007687226
 21
92.5684857431
 31
0.0
  0
LINE
  5
1EC
330
1F
100
AcDbEntity
  8
0
  6
HIDDEN
 62
     7
370
     0
100
AcDbLine
 10
162.9907687226
 20
140.0423834068
 30
0.0
 11
162.9907687226
 21
100.0775004633
 31
0.0
  0
ELLIPSE
  5
1ED
330
1F
100
AcDbEntity
  8
0
  6
HIDDEN
 62
     7
370
     0
100
AcDbEllipse
 10
176.7902507827
 20
113.239857373
 30
0.0
 11
78.34080473649001
 21
-36.18871127942631
 31
0.0
210
0.0
220
0.0
230
1.0
 40
0.0340458134
 41
0.1371539629383245
 42
0.6224338492038728
  0
LINE
  5
1EE
330
1F
100
AcDbEntity
  8
0
  6
HIDDEN
 62
     7
370
     0
100
AcDbLine
 10
214.8007687226
 20
93.2619272738
 30
0.0
 11
214.8007687226
 21
92.5684857431
 31
0.0
  0
SPLINE
  5
1EF
330
1F
100
AcDbEntity
  8
0
  6
HIDDEN
 62
     7
370
     0
100
AcDbSpline
210
0.0
220
0.0
230
1.0
 70
     8
 71
     3
 72
     8
 73
     4
 74
     0
 42
0.00000001
 43
0.00000001
 40
0.0
 40
0.0
 40
0.0
 40
0.0
 40
1.0
 40
1.0
 40
1.0
 40
1.0
 10
214.8007687226066
 20
92.56848574306706
 30
0.0
 10
215.2931078453877
 20
91.67121570886036
 30
0.0
 10
215.7872218934299
 20
90.77493129380812
 30
0.0
 10
216.2827015540956
 20
89.87940520587478
 30
0.0
  0
LINE
  5
1F0
330
1F
100
AcDbEntity
  8
0
  6
HIDDEN
 62
     7
370
     0
100
AcDbLine
 10
216.2827015541
 20
89.8794052059
 30
0.0
 11
220.2407687226
 21
89.8794052059
 31
0.0
  0
LINE
  5
1F1
330
1F
100
AcDbEntity
  8
0
  6
HIDDEN
 62
     7
370
     0
100
AcDbLine
 10
220.8407687226
 20
90.5060455015
 30
0.0
 11
220.8407687226
 21
93.6663229021
 31
0.0
  0
LINE
  5
1F2
330
1F
100
AcDbEntity
  8
0
  6
HIDDEN
 62
     7
370
     0
100
AcDbLine
 10
214.7030939203
 20
93.6663229021
 30
0.0
 11
220.8407687226
 21
93.6663229021
 31
0.0
  0
LINE
  5
1F3
330
1F
100
AcDbEntity
  8
0
  6
HIDDEN
 62
     7
370
     0
100
AcDbLine
 10
210.9807687226
 20
92.5684857431
 30
0.0
 11
210.9807687226
 21
93.2619272738
 31
0.0
  0
SPLINE
  5
1F4
330
1F
100
AcDbEntity
  8
0
  6
HIDDEN
 62
     7
370
     0
100
AcDbSpline
210
0.0
220
0.0
230
1.0
 70
     8
 71
     3
 72
     8
 73
     4
 74
     0
 42
0.00000001
 43
0.00000001
 40
0.0
 40
0.0
 40
0.0
 40
0.0
 40
1.0
 40
1.0
 40
1.0
 40
1.0
 10
209.4988358911176
 20
89.87940520587479
 30
0.0
 10
209.9943155517833
 20
90.77493129380815
 30
0.0
 10
210.4884295998254
 20
91.67121570886039
 30
0.0
 10
210.9807687226066
 20
92.56848574306709
 30
0.0
  0
LINE
  5
1F5
330
1F
100
AcDbEntity
  8
0
  6
HIDDEN
 62
     7
370
     0
100
AcDbLine
 10
207.8407687226
 20
93.6663229021
 30
0.0
 11
211.0784435249
 21
93.6663229021
 31
0.0
  0
SPLINE
  5
1F6
330
1F
100
AcDbEntity
  8
0
  6
HIDDEN
 62
     7
370
     0
100
AcDbSpline
210
0.0
220
0.0
230
1.0
 70
     8
 71
     3
 72
    42
 73
    38
 74
     0
 42
0.00000001
 43
0.00000001
 40
0.0
 40
0.0
 40
0.0
 40
0.0
 40
0.0340136616888815
 40
0.0677089968191603
 40
0.1010858216925707
 40
0.1341439549999476
 40
0.1668832178289997
 40
0.1993034336724651
 40
0.2314044284366531
 40
0.2631860304504676
 40
0.294648070474841
 40
0.3257903817126807
 40
0.3566127998193332
 40
0.387115162913597
 40
0.4172973115893214
 40
0.4471590889276417
 40
0.4767003405098669
 40
0.5059209144310892
 40
0.534820661314563
 40
0.5633994343268651
 40
0.5916570891939694
 40
0.6195934842182003
 40
0.6472084802962201
 40
0.6745019409380576
 40
0.7014737322872905
 40
0.7281237231424524
 40
0.7544517849797479
 40
0.7804577919771961
 40
0.8061416210402795
 40
0.8315031518292517
 40
0.8565422667881925
 40
0.8812588511759883
 40
0.9056527930993535
 40
0.9297239835480796
 40
0.9534723164327118
 40
0.9768976886248001
 40
1.0
 40
1.0
 40
1.0
 40
1.0
 10
260.5663293009139
 20
85.80485402917182
 30
0.0
 10
260.5966253420402
 20
85.66358010981331
 30
0.0
 10
260.6569338901469
 20
85.38235442338267
 30
0.0
 10
260.7465794150683
 20
84.97287167767182
 30
0.0
 10
260.835086168887
 20
84.57482014369369
 30
0.0
 10
260.9224267672203
 20
84.18879501130021
 30
0.0
 10
261.0086084445535
 20
83.81445984989975
 30
0.0
 10
261.0936292913576
 20
83.45171823551931
 30
0.0
 10
261.1774898130503
 20
83.1004046471285
 30
0.0
 10
261.2601898774149
 20
82.76036644493537
 30
0.0
 10
261.3417295206314
 20
82.43144256469081
 30
0.0
 10
261.4221087344806
 20
82.11346947588846
 30
0.0
 10
261.5013275225185
 20
81.8062799349955
 30
0.0
 10
261.5793858852529
 20
81.5097036331045
 30
0.0
 10
261.6562838240584
 20
81.22356733616404
 30
0.0
 10
261.7320213401467
 20
80.9476951516012
 30
0.0
 10
261.8065984348423
 20
80.68190875405779
 30
0.0
 10
261.8800151095133
 20
80.42602761434685
 30
0.0
 10
261.9522713655937
 20
80.17986921998175
 30
0.0
 10
262.0233672045823
 20
79.94324929034707
 30
0.0
 10
262.093302628047
 20
79.71598198571397
 30
0.0
 10
262.16207763763
 20
79.49788011031552
 30
0.0
 10
262.2296922350487
 20
79.28875530950472
 30
0.0
 10
262.2961464221119
 20
79.08841826083946
 30
0.0
 10
262.3614402006816
 20
78.89667885986967
 30
0.0
 10
262.4255735728373
 20
78.71334639795599
 30
0.0
 10
262.4885465403005
 20
78.53822974212902
 30
0.0
 10
262.5503591065676
 20
78.37113748054698
 30
0.0
 10
262.6110112691276
 20
78.21187816734856
 30
0.0
 10
262.6705030479962
 20
78.06026017707454
 30
0.0
 10
262.7288343812619
 20
77.91609296285395
 30
0.0
 10
262.7860055075264
 20
77.7791831494899
 30
0.0
 10
262.8420155661964
 20
77.64934950669382
 30
0.0
 10
262.8968677191547
 20
77.52636880975697
 30
0.0
 10
262.9505504153341
 20
77.41017450949786
 30
0.0
 10
263.0031059073996
 20
77.3001307835206
 30
0.0
 10
263.0375275226666
 20
77.23135744140372
 30
0.0
 10
263.0546188285939
 20
77.19720953112576
 30
0.0
  0
SPLINE
  5
1F7
330
1F
100
AcDbEntity
  8
0
  6
HIDDEN
 62
     7
370
     0
100
AcDbSpline
210
0.0
220
0.0
230
1.0
 70
     8
 71
     3
 72
    30
 73
    26
 74
     0
 42
0.00000001
 43
0.00000001
 40
0.0
 40
0.0
 40
0.0
 40
0.0
 40
0.0332683229150297
 40
0.0665077914307261
 40
0.099726405095032
 40
0.1329321785282188
 40
0.1661331356493479
 40
0.1993373038691233
 40
0.2325527082701002
 40
0.2657873657953254
 40
0.2990492794664106
 40
0.3323464326518057
 40
0.3656867834055977
 40
0.3990782588965852
 40
0.4325287499466404
 40
0.4660461056964547
 40
0.4996381284157645
 40
0.5625633923630206
 40
0.6252757682530724
 40
0.6878270380551363
 40
0.7502693845441821
 40
0.8126552638230533
 40
0.8750372744420581
 40
0.9374680247296661
 40
1.0
 40
1.0
 40
1.0
 40
1.0
 10
263.5193995068129
 20
77.67131464726937
 30
0.0
 10
263.4944222917794
 20
77.72102049205171
 30
0.0
 10
263.4444895250388
 20
77.82038907056751
 30
0.0
 10
263.3686070301113
 20
77.98215553509331
 30
0.0
 10
263.2920546641896
 20
78.15313398133573
 30
0.0
 10
263.2147588471466
 20
78.33424103489041
 30
0.0
 10
263.136739294928
 20
78.52523125786851
 30
0.0
 10
263.0579907442429
 20
78.72617034492616
 30
0.0
 10
262.9785146230514
 20
78.93704064615912
 30
0.0
 10
262.8983105668682
 20
79.15784683529897
 30
0.0
 10
262.8173786925366
 20
79.38858759208556
 30
0.0
 10
262.7357189866021
 20
79.6292632035712
 30
0.0
 10
262.6533314767922
 20
79.87987348846971
 30
0.0
 10
262.570216157641
 20
80.14041849549994
 30
0.0
 10
262.4863731161442
 20
80.4108977887531
 30
0.0
 10
262.4018021020325
 20
80.6913126150425
 30
0.0
 10
262.2917478087557
 20
81.06592581821639
 30
0.0
 10
262.1558052043578
 20
81.54553426490439
 30
0.0
 10
261.9934450520278
 20
82.14438959204465
 30
0.0
 10
261.8299341336519
 20
82.77333530816087
 30
0.0
 10
261.6652721940528
 20
83.43241809901778
 30
0.0
 10
261.4994641373654
 20
84.12145438896259
 30
0.0
 10
261.3324926014474
 20
84.84112508851076
 30
0.0
 10
261.1644242689457
 20
85.58887999250832
 30
0.0
 10
261.0516052024748
 20
86.11188930580447
 30
0.0
 10
260.9951499751814
 20
86.373605792054
 30
0.0
  0
ELLIPSE
  5
1F8
330
1F
100
AcDbEntity
  8
0
  6
HIDDEN
 62
     7
370
     0
100
AcDbEllipse
 10
253.1454517688
 20
87.1376351599
 30
0.0
 11
2.21947503868256
 21
-2.141201758675734
 31
0.0
210
0.0
220
0.0
230
1.0
 40
0.8103652656
 41
5.363975033923989
 42
7.181650891589068
  0
LWPOLYLINE
  5
1F9
330
1F
100
AcDbEntity
  8
0
  6
HIDDEN
 62
     7
370
     0
100
AcDbPolyline
 90
       13
 70
   128
 43
0.0
 10
248.7845195579
 20
88.0621071095
 10
249.1671204878
 20
87.8200005574
 10
249.6434582436
 20
87.7154437027
 10
250.1810711945
 20
87.7555619223
 10
250.7433219063
 20
87.9376212259
 10
251.2918939221
 20
88.2492145727
 10
251.7894029657
 20
88.6691073911
 10
252.2019446179
 20
89.1686846795
 10
252.5014048469
 20
89.7139010712
 10
252.6673759329
 20
90.2676009701
 10
252.6885472207
 20
90.7920506432
 10
252.563475922
 20
91.251509712
 10
252.3006854392
 20
91.6146668001
  0
LINE
  5
1FA
330
1F
100
AcDbEntity
  8
0
  6
HIDDEN
 62
     7
370
     0
100
AcDbLine
 10
252.3006854392
 20
91.6146668001
 30
0.0
 11
249.48970229
 21
94.2508746271
 31
0.0
  0
LWPOLYLINE
  5
1FB
330
1F
100
AcDbEntity
  8
0
  6
HIDDEN
 62
     7
370
     0
100
AcDbPolyline
 90
       29
 70
   128
 43
0.0
 10
224.8907687226
 20
125.5651323249
 10
225.5583315245
 20
125.6321505063
 10
226.19241994
 20
125.8298444793
 10
226.7612381282
 20
126.1483010423
 10
227.23626317
 20
126.5715514538
 10
227.5936753263
 20
127.0783721706
 10
227.8155524592
 20
127.6433490857
 10
227.8907687226
 20
128.2381518974
 10
227.8155524592
 20
128.8329547092
 10
227.5936753263
 20
129.3979316243
 10
227.23626317
 20
129.9047523411
 10
226.7612381282
 20
130.3280027525
 10
226.19241994
 20
130.6464593156
 10
225.5583315245
 20
130.8441532885
 10
224.8907687226
 20
130.91117147
 10
224.2232059207
 20
130.8441532885
 10
223.5891175053
 20
130.6464593156
 10
223.020299317
 20
130.3280027525
 10
222.5452742752
 20
129.9047523411
 10
222.1878621189
 20
129.3979316243
 10
221.9659849861
 20
128.8329547092
 10
221.8907687226
 20
128.2381518974
 10
221.9659849861
 20
127.6433490857
 10
222.1878621189
 20
127.0783721706
 10
222.5452742752
 20
126.5715514538
 10
223.020299317
 20
126.1483010423
 10
223.5891175053
 20
125.8298444793
 10
224.2232059207
 20
125.6321505063
 10
224.8907687226
 20
125.5651323249
  0
CIRCLE
  5
1FC
330
1F
100
AcDbEntity
  8
0
  6
HIDDEN
 62
     7
370
     0
100
AcDbCircle
 10
201.8907687226
 20
120.0663229021
 30
0.0
 40
5.0
  0
LINE
  5
1FD
330
1F
100
AcDbEntity
  8
0
  6
HIDDEN
 62
     7
370
     0
100
AcDbLine
 10
260.9953384435
 20
86.3738573123
 30
0.0
 11
260.5665740245
 21
85.8037626217
 31
0.0
  0
SPLINE
  5
1FE
330
1F
100
AcDbEntity
  8
0
  6
HIDDEN
 62
     7
370
     0
100
AcDbSpline
210
0.0
220
0.0
230
1.0
 70
     8
 71
     3
 72
     8
 73
     4
 74
     0
 42
0.00000001
 43
0.00000001
 40
0.0
 40
0.0
 40
0.0
 40
0.0
 40
1.0
 40
1.0
 40
1.0
 40
1.0
 10
241.1574863162936
 20
87.99470288419117
 30
0.0
 10
247.6259817133841
 20
87.25493955772966
 30
0.0
 10
254.0956383852758
 20
86.52561214404999
 30
0.0
 10
260.5662137825587
 20
85.80485198290896
 30
0.0
  0
LINE
  5
1FF
330
1F
100
AcDbEntity
  8
0
  6
HIDDEN
 62
     7
370
     0
100
AcDbLine
 10
260.995149975
 20
86.373605792
 30
0.0
 11
257.6057900107
 21
119.6868440857
 31
0.0
  0
LINE
  5
200
330
1F
100
AcDbEntity
  8
0
  6
HIDDEN
 62
     7
370
     0
100
AcDbLine
 10
257.6057900107
 20
119.6868440857
 30
0.0
 11
257.3356617143
 21
120.0663229021
 31
0.0
  0
LINE
  5
201
330
1F
100
AcDbEntity
  8
0
  6
HIDDEN
 62
     7
370
     0
100
AcDbLine
 10
194.8907687226
 20
94.742398981
 30
0.0
 11
194.9849295639
 21
95.4123881798
 31
0.0
  0
LINE
  5
202
330
1F
100
AcDbEntity
  8
0
  6
HIDDEN
 62
     7
370
     0
100
AcDbLine
 10
194.9849295639
 20
144.7202576244
 30
0.0
 11
194.8907687226
 21
145.3902468232
 31
0.0
  0
ARC
  5
203
330
1F
100
AcDbEntity
  8
0
  6
HIDDEN
 62
     7
370
     0
100
AcDbCircle
 10
194.3907687226
 20
95.4958920404
 30
0.0
 40
0.6000000000000374
100
AcDbArc
 50
352.0
 51
0.0
  0
ARC
  5
204
330
1F
100
AcDbEntity
  8
0
  6
HIDDEN
 62
     7
370
     0
100
AcDbCircle
 10
194.3907687226
 20
95.4958920404
 30
0.0
 40
0.6000000000000227
100
AcDbArc
 50
0.0
 51
33.5573097619
  0
ARC
  5
205
330
1F
100
AcDbEntity
  8
0
  6
HIDDEN
 62
     7
370
     0
100
AcDbCircle
 10
194.3907687226
 20
144.6367537638
 30
0.0
 40
0.6000000000000414
100
AcDbArc
 50
348.75
 51
8.0
  0
LWPOLYLINE
  5
206
330
1F
100
AcDbEntity
  8
0
  6
HIDDEN
 62
     7
370
     0
100
AcDbPolyline
 90
        3
 70
   128
 43
0.0
 10
194.9792398908
 20
144.5196995706
 10
194.9450964421
 20
144.4071437044
 10
194.8907687226
 20
144.3050912848
  0
LINE
  5
207
330
1F
100
AcDbEntity
  8
0
  6
HIDDEN
 62
     7
370
     0
100
AcDbLine
 10
194.9907687226
 20
95.4958920404
 30
0.0
 11
194.9907687226
 21
144.6367537638
 31
0.0
  0
LINE
  5
208
330
1F
100
AcDbEntity
  8
0
  6
HIDDEN
 62
     7
370
     0
100
AcDbLine
 10
194.9907687226
 20
95.4958920404
 30
0.0
 11
194.9907687226
 21
144.6367537638
 31
0.0
  0
LINE
  5
209
330
1F
100
AcDbEntity
  8
0
  6
HIDDEN
 62
     7
370
     0
100
AcDbLine
 10
225.780299437
 20
113.5799697515
 30
0.0
 11
224.1355344746
 21
115.0582747073
 31
0.0
  0
LINE
  5
20A
330
1F
100
AcDbEntity
  8
0
  6
HIDDEN
 62
     7
370
     0
100
AcDbLine
 10
229.7620224999
 20
110.0012207685
 30
0.0
 11
227.2274094614
 21
112.2793158772
 31
0.0
  0
LINE
  5
20B
330
1F
100
AcDbEntity
  8
0
  6
HIDDEN
 62
     7
370
     0
100
AcDbLine
 10
220.7931892282
 20
111.3395749004
 30
0.0
 11
229.9125610358
 21
103.1431378137
 31
0.0
  0
LINE
  5
20C
330
1F
100
AcDbEntity
  8
0
  6
HIDDEN
 62
     7
370
     0
100
AcDbLine
 10
223.5553836186
 20
115.0418330222
 30
0.0
 11
221.4021803058
 21
114.1536072531
 31
0.0
  0
LINE
  5
20D
330
1F
100
AcDbEntity
  8
0
  6
HIDDEN
 62
     7
370
     0
100
AcDbLine
 10
221.4021803058
 20
114.1536072531
 30
0.0
 11
220.7478687328
 21
111.9181865123
 31
0.0
  0
ARC
  5
20E
330
1F
100
AcDbEntity
  8
0
  6
HIDDEN
 62
     7
370
     0
100
AcDbCircle
 10
188.6457707242
 20
108.0663229021
 30
0.0
 40
7.999999999999996
100
AcDbArc
 50
277.1300516402
 51
321.3178125465
  0
ARC
  5
20F
330
1F
100
AcDbEntity
  8
0
  6
HIDDEN
 62
     7
370
     0
100
AcDbCircle
 10
188.6457707242
 20
132.0663229021
 30
0.0
 40
8.000000000000009
100
AcDbArc
 50
38.6821874535
 51
82.852026459
  0
LINE
  5
210
330
1F
100
AcDbEntity
  8
0
  6
HIDDEN
 62
     7
370
     0
100
AcDbLine
 10
177.9732042879
 20
100.0663229021
 30
0.0
 11
182.1438861038
 21
100.0663229021
 31
0.0
  0
LINE
  5
211
330
1F
100
AcDbEntity
  8
0
  6
HIDDEN
 62
     7
370
     0
100
AcDbLine
 10
182.1438861038
 20
140.0663229021
 30
0.0
 11
177.9732042879
 21
140.0663229021
 31
0.0
  0
ARC
  5
212
330
1F
100
AcDbEntity
  8
0
  6
HIDDEN
 62
     7
370
     0
100
AcDbCircle
 10
177.9732042879
 20
100.6663229021
 30
0.0
 40
0.600000000000026
100
AcDbArc
 50
210.0
 51
270.0
  0
ARC
  5
213
330
1F
100
AcDbEntity
  8
0
  6
HIDDEN
 62
     7
370
     0
100
AcDbCircle
 10
177.9732042879
 20
139.4663229021
 30
0.0
 40
0.6000000000000402
100
AcDbArc
 50
90.0
 51
150.0
  0
LINE
  5
214
330
1F
100
AcDbEntity
  8
0
  6
HIDDEN
 62
     7
370
     0
100
AcDbLine
 10
177.4535890456
 20
139.7663229021
 30
0.0
 11
175.8947433188
 21
137.0663229021
 31
0.0
  0
LINE
  5
215
330
1F
100
AcDbEntity
  8
0
  6
HIDDEN
 62
     7
370
     0
100
AcDbLine
 10
175.8947433188
 20
103.0663229021
 30
0.0
 11
177.4535890456
 21
100.3663229021
 31
0.0
  0
LINE
  5
216
330
1F
100
AcDbEntity
  8
0
  6
HIDDEN
 62
     7
370
     0
100
AcDbLine
 10
227.3907687226
 20
111.8669613447
 30
0.0
 11
227.3907687226
 21
118.1601787819
 31
0.0
  0
LINE
  5
217
330
1F
100
AcDbEntity
  8
0
  6
HIDDEN
 62
     7
370
     0
100
AcDbLine
 10
222.3907687226
 20
118.1597390738
 30
0.0
 11
222.3907687226
 21
111.9521570763
 31
0.0
  0
ARC
  5
218
330
1F
100
AcDbEntity
  8
0
  6
HIDDEN
 62
     7
370
     0
100
AcDbCircle
 10
203.3407687226
 20
104.3413229021
 30
0.0
 40
1.5
100
AcDbArc
 50
238.2116693829
 51
0.0
  0
ARC
  5
219
330
1F
100
AcDbEntity
  8
0
  6
HIDDEN
 62
     7
370
     0
100
AcDbCircle
 10
203.3407687226
 20
135.7913229021
 30
0.0
 40
1.5
100
AcDbArc
 50
0.0
 51
121.7883306171
  0
LINE
  5
21A
330
1F
100
AcDbEntity
  8
0
  6
HIDDEN
 62
     7
370
     0
100
AcDbLine
 10
194.8907687226
 20
103.0663229021
 30
0.0
 11
202.5505946911
 21
103.0663229021
 31
0.0
  0
LINE
  5
21B
330
1F
100
AcDbEntity
  8
0
  6
HIDDEN
 62
     7
370
     0
100
AcDbLine
 10
202.5505946911
 20
137.0663229021
 30
0.0
 11
194.8907687226
 21
137.0663229021
 31
0.0
  0
LINE
  5
21C
330
1F
100
AcDbEntity
  8
0
  6
HIDDEN
 62
     7
370
     0
100
AcDbLine
 10
173.0907687226
 20
103.0663229021
 30
0.0
 11
175.8947433188
 21
103.0663229021
 31
0.0
  0
LINE
  5
21D
330
1F
100
AcDbEntity
  8
0
  6
HIDDEN
 62
     7
370
     0
100
AcDbLine
 10
175.8947433188
 20
137.0663229021
 30
0.0
 11
169.0907687226
 21
137.0663229021
 31
0.0
  0
LINE
  5
21E
330
1F
100
AcDbEntity
  8
0
  6
HIDDEN
 62
     7
370
     0
100
AcDbLine
 10
214.1907687226
 20
110.5663229021
 30
0.0
 11
216.6907687226
 21
110.5663229021
 31
0.0
  0
LINE
  5
21F
330
1F
100
AcDbEntity
  8
0
  6
HIDDEN
 62
     7
370
     0
100
AcDbLine
 10
216.6907687226
 20
129.5663229021
 30
0.0
 11
214.1907687226
 21
129.5663229021
 31
0.0
  0
LINE
  5
220
330
1F
100
AcDbEntity
  8
0
  6
HIDDEN
 62
     7
370
     0
100
AcDbLine
 10
204.8407687226
 20
111.0663229021
 30
0.0
 11
205.3407687226
 21
111.5663229021
 31
0.0
  0
LINE
  5
221
330
1F
100
AcDbEntity
  8
0
  6
HIDDEN
 62
     7
370
     0
100
AcDbLine
 10
205.3407687226
 20
128.5663229021
 30
0.0
 11
204.8407687226
 21
129.0663229021
 31
0.0
  0
LINE
  5
222
330
1F
100
AcDbEntity
  8
0
  6
HIDDEN
 62
     7
370
     0
100
AcDbLine
 10
205.3407687226
 20
111.5663229021
 30
0.0
 11
214.1907687226
 21
111.5663229021
 31
0.0
  0
LINE
  5
223
330
1F
100
AcDbEntity
  8
0
  6
HIDDEN
 62
     7
370
     0
100
AcDbLine
 10
214.1907687226
 20
128.5663229021
 30
0.0
 11
205.3407687226
 21
128.5663229021
 31
0.0
  0
LINE
  5
224
330
1F
100
AcDbEntity
  8
0
  6
HIDDEN
 62
     7
370
     0
100
AcDbLine
 10
199.8407687226
 20
151.5663229021
 30
0.0
 11
199.8407687226
 21
146.4663229021
 31
0.0
  0
LINE
  5
225
330
1F
100
AcDbEntity
  8
0
  6
HIDDEN
 62
     7
370
     0
100
AcDbLine
 10
190.0752065531
 20
95.9869515686
 30
0.0
 11
189.6407744036
 21
96.4660175877
 31
0.0
  0
LINE
  5
226
330
1F
100
AcDbEntity
  8
0
  6
HIDDEN
 62
     7
370
     0
100
AcDbLine
 10
182.1407710785
 20
96.8877055468
 30
0.0
 11
181.6583373352
 21
96.4086395714
 31
0.0
  0
LINE
  5
227
330
1F
100
AcDbEntity
  8
0
  6
HIDDEN
 62
     7
370
     0
100
AcDbLine
 10
181.6582154069
 20
143.7240009424
 30
0.0
 11
182.1407661579
 21
143.2448806845
 31
0.0
  0
LINE
  5
228
330
1F
100
AcDbEntity
  8
0
  6
HIDDEN
 62
     7
370
     0
100
AcDbLine
 10
189.6407686046
 20
143.6665784622
 30
0.0
 11
190.0753109949
 21
144.1456987128
 31
0.0
  0
LINE
  5
229
330
1F
100
AcDbEntity
  8
0
  6
HIDDEN
 62
     7
370
     0
100
AcDbLine
 10
216.6907687226
 20
115.8663229021
 30
0.0
 11
228.9907687226
 21
115.8663229021
 31
0.0
  0
LINE
  5
22A
330
1F
100
AcDbEntity
  8
0
  6
HIDDEN
 62
     7
370
     0
100
AcDbLine
 10
228.9907687226
 20
124.2663229021
 30
0.0
 11
216.6907687226
 21
124.2663229021
 31
0.0
  0
LINE
  5
22B
330
1F
100
AcDbEntity
  8
0
  6
HIDDEN
 62
     7
370
     0
100
AcDbLine
 10
228.9907687226
 20
115.8663229021
 30
0.0
 11
231.5143833225
 21
120.0663229021
 31
0.0
  0
LINE
  5
22C
330
1F
100
AcDbEntity
  8
0
  6
HIDDEN
 62
     7
370
     0
100
AcDbLine
 10
231.5143833225
 20
120.0663229021
 30
0.0
 11
228.9907687226
 21
124.2663229021
 31
0.0
  0
LINE
  5
22D
330
1F
100
AcDbEntity
  8
0
  6
HIDDEN
 62
     7
370
     0
100
AcDbLine
 10
249.7225599748
 20
94.8317644571
 30
0.0
 11
249.3273335697
 21
95.3551009739
 31
0.0
  0
LINE
  5
22E
330
1F
100
AcDbEntity
  8
0
  6
HIDDEN
 62
     7
370
     0
100
AcDbLine
 10
243.7413208426
 20
91.1365156882
 30
0.0
 11
244.1365472477
 21
90.6131791715
 31
0.0
  0
LINE
  5
22F
330
1F
100
AcDbEntity
  8
0
  6
HIDDEN
 62
     7
370
     0
100
AcDbLine
 10
189.6407687226
 20
140.0041590928
 30
0.0
 11
189.6407687226
 21
143.6662871561
 31
0.0
  0
LINE
  5
230
330
1F
100
AcDbEntity
  8
0
  6
HIDDEN
 62
     7
370
     0
100
AcDbLine
 10
182.1407687226
 20
143.2447369053
 30
0.0
 11
182.1407687226
 21
140.0657386409
 31
0.0
  0
LINE
  5
231
330
1F
100
AcDbEntity
  8
0
  6
HIDDEN
 62
     7
370
     0
100
AcDbLine
 10
189.6407687226
 20
96.4665014894
 30
0.0
 11
189.6407687226
 21
100.1284867115
 31
0.0
  0
LINE
  5
232
330
1F
100
AcDbEntity
  8
0
  6
HIDDEN
 62
     7
370
     0
100
AcDbLine
 10
182.1407687226
 20
100.0669071634
 30
0.0
 11
182.1407687226
 21
96.8880287846
 31
0.0
  0
LINE
  5
233
330
1F
100
AcDbEntity
  8
0
  6
HIDDEN
 62
     7
370
     0
100
AcDbLine
 10
260.0963417802
 20
92.1211989749
 30
0.0
 11
259.1324175635
 21
93.3975730619
 31
0.0
  0
LINE
  5
234
330
1F
100
AcDbEntity
  8
0
  6
HIDDEN
 62
     7
370
     0
100
AcDbLine
 10
246.3852839124
 20
90.1562781393
 30
0.0
 11
251.6177085687
 21
84.7270431681
 31
0.0
  0
LINE
  5
235
330
1F
100
AcDbEntity
  8
0
  6
HIDDEN
 62
     7
370
     0
100
AcDbLine
 10
249.8419699164
 20
95.835175378
 30
0.0
 11
247.0357928457
 21
99.5509568
 31
0.0
  0
LINE
  5
236
330
1F
100
AcDbEntity
  8
0
  6
HIDDEN
 62
     7
370
     0
100
AcDbLine
 10
240.3325775732
 20
94.4886544572
 30
0.0
 11
243.1387546439
 21
90.7728730353
 31
0.0
  0
LINE
  5
237
330
1F
100
AcDbEntity
  8
0
  6
HIDDEN
 62
     7
370
     0
100
AcDbLine
 10
227.3907687226
 20
121.9729067304
 30
0.0
 11
227.3907687226
 21
128.1017593911
 31
0.0
  0
LINE
  5
238
330
1F
100
AcDbEntity
  8
0
  6
HIDDEN
 62
     7
370
     0
100
AcDbLine
 10
222.3907687226
 20
128.1017593911
 30
0.0
 11
222.3907687226
 21
121.9724670223
 31
0.0
  0
ARC
  5
239
330
1F
100
AcDbEntity
  8
0
  6
HIDDEN
 62
     7
370
     0
100
AcDbCircle
 10
171.6907687226
 20
97.7963229021
 30
0.0
 40
1.399999999999997
100
AcDbArc
 50
40.9606100928
 51
90.0
  0
ARC
  5
23A
330
1F
100
AcDbEntity
  8
0
  6
HIDDEN
 62
     7
370
     0
100
AcDbCircle
 10
167.6907687226
 20
142.3363229021
 30
0.0
 40
1.400000000000015
100
AcDbArc
 50
270.0
 51
301.7485287426
  0
LINE
  5
23B
330
1F
100
AcDbEntity
  8
0
  6
HIDDEN
 62
     7
370
     0
100
AcDbLine
 10
164.1407687226
 20
99.1963229021
 30
0.0
 11
171.6907687226
 21
99.1963229021
 31
0.0
  0
LINE
  5
23C
330
1F
100
AcDbEntity
  8
0
  6
HIDDEN
 62
     7
370
     0
100
AcDbLine
 10
164.1305610063
 20
99.2022163299
 30
0.0
 11
164.1407687226
 21
99.1963229021
 31
0.0
  0
LINE
  5
23D
330
1F
100
AcDbEntity
  8
0
  6
HIDDEN
 62
     7
370
     0
100
AcDbLine
 10
163.2122925366
 20
99.7323788781
 30
0.0
 11
163.2163913967
 21
99.7300124001
 31
0.0
  0
LINE
  5
23E
330
1F
100
AcDbEntity
  8
0
  6
HIDDEN
 62
     7
370
     0
100
AcDbLine
 10
164.2884241267
 20
140.9363229021
 30
0.0
 11
164.281657124
 21
140.9363229021
 31
0.0
  0
LINE
  5
23F
330
1F
100
AcDbEntity
  8
0
  6
HIDDEN
 62
     7
370
     0
100
AcDbLine
 10
164.1243088782
 20
140.9268198065
 30
0.0
 11
164.1236374033
 21
140.9264321303
 31
0.0
  0
LINE
  5
240
330
1F
100
AcDbEntity
  8
0
  6
HIDDEN
 62
     7
370
     0
100
AcDbLine
 10
259.6616372666
 20
85.1854928567
 30
0.0
 11
259.0762778723
 21
85.9605927551
 31
0.0
  0
LINE
  5
241
330
1F
100
AcDbEntity
  8
0
  6
HIDDEN
 62
     7
370
     0
100
AcDbLine
 10
253.7296656906
 20
81.9228039817
 30
0.0
 11
254.3150250849
 21
81.1477040833
 31
0.0
  0
LINE
  5
242
330
1F
100
AcDbEntity
  8
0
  6
HIDDEN
 62
     7
370
     0
100
AcDbLine
 10
256.9059540539
 20
86.8383264934
 30
0.0
 11
252.3426951074
 21
91.5732260251
 31
0.0
  0
LINE
  5
243
330
1F
100
AcDbEntity
  8
0
  6
HIDDEN
 62
     7
370
     0
100
AcDbLine
 10
227.8907687226
 20
128.2381518974
 30
0.0
 11
227.8907687226
 21
131.8695630022
 31
0.0
  0
LINE
  5
244
330
1F
100
AcDbEntity
  8
0
  6
HIDDEN
 62
     7
370
     0
100
AcDbLine
 10
221.8907687226
 20
131.8700720226
 30
0.0
 11
221.8907687226
 21
128.2381518974
 31
0.0
  0
LINE
  5
245
330
1F
100
AcDbEntity
  8
VERMASSUNG
100
AcDbLine
 10
264.8907687226
 20
120.0663229021
 30
0.0
 11
264.8907687226
 21
75.0663229021
 31
0.0
  0
DIMENSION
  5
246
330
1F
100
AcDbEntity
  8
VERMASSUNG
100
AcDbDimension
  2
*D1
 10
271.1419363591
 20
120.0663229021
 30
0.0
 11
271.1419363591
 21
97.5663229021
 31
0.0
 70
   160
 71
     2
 42
-1.0
  3
SLDDIMSTYLE0
100
AcDbAlignedDimension
 13
264.8907687226
 23
75.0663229021
 33
0.0
 14
262.7474452555
 24
120.0663229021
 34
0.0
 50
90.0
100
AcDbRotatedDimension
  0
DIMENSION
  5
251
330
1F
100
AcDbEntity
  8
VERMASSUNG
100
AcDbDimension
  2
*D2
 10
194.8907687226
 20
158.3744908247
 30
0.0
 11
229.8907687226
 21
158.3744908247
 31
0.0
 70
   160
 71
     2
 42
-1.0
  3
SLDDIMSTYLE0
100
AcDbAlignedDimension
 13
264.8907687226
 23
75.0663229021
 33
0.0
 14
194.8907687226
 24
151.2663229021
 34
0.0
100
AcDbRotatedDimension
  0
DIMENSION
  5
25B
330
1F
100
AcDbEntity
  8
VERMASSUNG
100
AcDbDimension
  2
*D3
 10
162.9907687226
 20
164.3744908247
 30
0.0
 11
213.9407687226
 21
164.3744908247
 31
0.0
 70
   160
 71
     2
 42
-1.0
  3
SLDDIMSTYLE0
100
AcDbAlignedDimension
 13
264.8907687226
 23
75.0663229021
 33
0.0
 14
162.9907687226
 24
140.0423834068
 34
0.0
100
AcDbRotatedDimension
  0
DIMENSION
  5
265
330
1F
100
AcDbEntity
  8
VERMASSUNG
100
AcDbDimension
  2
*D4
 10
261.0792558902
 20
115.087476455
 30
0.0
 11
257.2883900552
 21
111.0873762719
 31
0.0
 70
   162
 71
     1
 42
-1.0
  3
SLDDIMSTYLE1
100
AcDb2LineAngularDimension
 13
264.8907687226
 23
120.0663229021
 33
0.0
 14
264.8907687226
 24
75.0663229021
 34
0.0
 15
263.7777212687
 25
84.4152743692
 35
0.0
 16
263.1340302631
 26
111.7769685349
 36
0.0
  0
DIMENSION
  5
270
330
1F
100
AcDbEntity
  8
VERMASSUNG
100
AcDbDimension
  2
*D5
 10
157.099270073
 20
88.5663229021
 30
0.0
 11
157.099270073
 21
120.0663229021
 31
0.0
 70
   160
  1
HSK %%c<>
 71
     2
 42
-1.0
  3
SLDDIMSTYLE0
100
AcDbAlignedDimension
 13
195.1907687226
 23
151.5663229021
 33
0.0
 14
195.1907687226
 24
88.5663229021
 34
0.0
 50
90.0
100
AcDbRotatedDimension
  0
LINE
  5
27C
330
1F
100
AcDbEntity
  8
VERMASSUNG
  6
CENTERX2
370
     0
100
AcDbLine
 10
160.5389781022
 20
120.0663229021
 30
0.0
 11
262.7474452555
 21
120.0663229021
 31
0.0
  0
LINE
  5
27D
330
1F
100
AcDbEntity
  8
0
  6
Continuous
 62
     7
370
    15
100
AcDbLine
 10
81.9185474386
 20
96.3242239518
 30
0.0
 11
81.7475354903
 21
96.0946560734
 31
0.0
  0
LINE
  5
27E
330
1F
100
AcDbEntity
  8
0
  6
Continuous
 62
     7
370
    15
100
AcDbLine
 10
82.7163512437
 20
89.201173795
 30
0.0
 11
82.9440159621
 21
89.0276362682
 31
0.0
  0
LINE
  5
27F
330
1F
100
AcDbEntity
  8
0
  6
Continuous
 62
     7
370
    15
100
AcDbLine
 10
86.2973337475
 20
75.066365642
 30
0.0
 11
90.9851877443
 21
75.7252005557
 31
0.0
  0
LINE
  5
280
330
1F
100
AcDbEntity
  8
0
  6
Continuous
 62
     7
370
    15
100
AcDbLine
 10
83.9213699322
 20
91.1790239823
 30
0.0
 11
83.6011579089
 21
91.1340211173
 31
0.0
  0
LINE
  5
281
330
1F
100
AcDbEntity
  8
0
  6
Continuous
 62
     7
370
    15
100
AcDbLine
 10
84.0817240198
 20
88.15589105
 30
0.0
 11
83.9398770017
 21
87.7948448924
 31
0.0
  0
SPLINE
  5
282
330
1F
100
AcDbEntity
  8
0
  6
Continuous
 62
     7
370
    15
100
AcDbSpline
210
0.0
220
0.0
230
1.0
 70
     8
 71
     3
 72
     9
 73
     5
 74
     0
 42
0.00000001
 43
0.00000001
 40
0.0
 40
0.0
 40
0.0
 40
0.0
 40
0.2241883807805256
 40
1.0
 40
1.0
 40
1.0
 40
1.0
 10
85.30619365740684
 20
77.39535911730049
 30
0.0
 10
85.32365617639653
 20
77.37660690837251
 30
0.0
 10
85.40154834426392
 20
77.2929620340811
 30
0.0
 10
85.44119360945409
 20
77.19666718622359
 30
0.0
 10
85.47195086683566
 20
77.12196052438476
 30
0.0
  0
SPLINE
  5
283
330
1F
100
AcDbEntity
  8
0
  6
Continuous
 62
     7
370
    15
100
AcDbSpline
210
0.0
220
0.0
230
1.0
 70
     8
 71
     3
 72
     9
 73
     5
 74
     0
 42
0.00000001
 43
0.00000001
 40
0.0
 40
0.0
 40
0.0
 40
0.0
 40
0.4417508165891089
 40
1.0
 40
1.0
 40
1.0
 40
1.0
 10
85.34783907290021
 20
77.33760037749937
 30
0.0
 10
85.37215754103555
 20
77.305329442807
 30
0.0
 10
85.42720773499582
 20
77.23227709410608
 30
0.0
 10
85.43716362160238
 20
77.19744054197363
 30
0.0
 10
85.44272148717062
 20
77.17799306519285
 30
0.0
  0
LINE
  5
284
330
1F
100
AcDbEntity
  8
0
  6
Continuous
 62
     7
370
    15
100
AcDbLine
 10
85.135180205
 20
77.6254608851
 30
0.0
 11
85.3101256121
 21
77.397044933
 31
0.0
  0
LINE
  5
285
330
1F
100
AcDbEntity
  8
0
  6
Continuous
 62
     7
370
    15
100
AcDbLine
 10
90.9986495706
 20
75.7877202377
 30
0.0
 11
95.3009118263
 21
76.3923637662
 31
0.0
  0
LINE
  5
286
330
1F
100
AcDbEntity
  8
0
  6
Continuous
 62
     7
370
    15
100
AcDbLine
 10
95.3110204413
 20
76.3993776614
 30
0.0
 11
95.5616889095
 21
76.7358771223
 31
0.0
  0
LWPOLYLINE
  5
287
330
1F
100
AcDbEntity
  8
0
  6
Continuous
 62
     7
370
    15
100
AcDbPolyline
 90
       31
 70
   128
 43
0.0
 10
81.850793368
 20
96.0783882372
 10
81.9512401369
 20
95.8927686116
 10
82.0656191809
 20
95.5655671974
 10
82.1889315869
 20
95.1110842665
 10
82.315788011
 20
94.5491829038
 10
82.4406442188
 20
93.9044208951
 10
82.5580433949
 20
93.2049774342
 10
82.662854632
 20
92.4814215566
 10
82.7504971759
 20
91.7653761262
 10
82.8171406271
 20
91.0881357642
 10
82.8598723469
 20
90.4792991242
 10
82.8768247541
 20
89.9654752889
 10
82.8672569472
 20
89.5691208255
 10
82.8315870851
 20
89.307558326
 10
82.7713741122
 20
89.1922193266
 10
82.6892496242
 20
89.2281446953
 10
82.5888028553
 20
89.4137643209
 10
82.4744238113
 20
89.7409657351
 10
82.3511114053
 20
90.195448666
 10
82.2242549812
 20
90.7573500287
 10
82.0993987733
 20
91.4021120373
 10
81.9819995972
 20
92.1015554982
 10
81.8771883602
 20
92.8251113758
 10
81.7895458162
 20
93.5411568063
 10
81.722902365
 20
94.2183971683
 10
81.6801706452
 20
94.8272338083
 10
81.6632182381
 20
95.3410576436
 10
81.672786045
 20
95.737412107
 10
81.708455907
 20
95.9989746065
 10
81.76866888
 20
96.1143136058
 10
81.850793368
 20
96.0783882372
  0
LWPOLYLINE
  5
288
330
1F
100
AcDbEntity
  8
0
  6
Continuous
 62
     7
370
    15
100
AcDbPolyline
 90
       23
 70
   128
 43
0.0
 10
82.0304625657
 20
94.6104789068
 10
82.1108506085
 20
94.4454247697
 10
82.20413373
 20
94.1351806252
 10
82.3027546864
 20
93.7048806088
 10
82.3987237944
 20
93.1893850688
 10
82.4842662077
 20
92.6304563881
 10
82.5524517885
 20
92.0733756442
 10
82.5977565468
 20
91.563274206
 10
82.6165101603
 20
91.1414774582
 10
82.6071933229
 20
90.842156865
 10
82.5705608294
 20
90.6895616005
 10
82.5095804264
 20
90.6960540257
 10
82.4291923836
 20
90.8611081628
 10
82.3359092622
 20
91.1713523073
 10
82.2372883057
 20
91.6016523236
 10
82.1413191977
 20
92.1171478636
 10
82.0557767845
 20
92.6760765444
 10
81.9875912036
 20
93.2331572883
 10
81.9422864454
 20
93.7432587265
 10
81.9235328318
 20
94.1650554742
 10
81.9328496692
 20
94.4643760675
 10
81.9694821628
 20
94.6169713319
 10
82.0304625657
 20
94.6104789068
  0
LINE
  5
289
330
1F
100
AcDbEntity
  8
0
  6
Continuous
 62
     7
370
    15
100
AcDbLine
 10
82.402611355
 20
93.1559240904
 30
0.0
 11
82.3166312929
 21
92.9540143328
 31
0.0
  0
LINE
  5
28A
330
1F
100
AcDbEntity
  8
0
  6
Continuous
 62
     7
370
    15
100
AcDbLine
 10
82.3166312929
 20
92.9540143328
 30
0.0
 11
82.4777645872
 21
92.6471765714
 31
0.0
  0
LINE
  5
28B
330
1F
100
AcDbEntity
  8
0
  6
Continuous
 62
     7
370
    15
100
AcDbLine
 10
82.6098736965
 20
91.3549680321
 30
0.0
 11
82.6049395725
 21
91.3542745862
 31
0.0
  0
LINE
  5
28C
330
1F
100
AcDbEntity
  8
0
  6
Continuous
 62
     7
370
    15
100
AcDbLine
 10
82.4342898434
 20
92.9705501637
 30
0.0
 11
82.3166312929
 21
92.9540143328
 31
0.0
  0
ELLIPSE
  5
28D
330
1F
100
AcDbEntity
  8
0
  6
Continuous
 62
     7
370
    15
100
AcDbEllipse
 10
84.878153889
 20
82.2558760308
 30
0.0
 11
-0.3276187943153985
 21
2.328679888184524
 31
0.0
210
0.0
220
0.0
230
0.9999999999999998
 40
0.1045283628
 41
2.002261758721748
 42
2.772342728837158
  0
ARC
  5
28E
330
1F
100
AcDbEntity
  8
0
  6
Continuous
 62
     7
370
    15
100
AcDbCircle
 10
85.402393801
 20
75.253726799
 30
0.0
 40
0.9103978998330828
100
AcDbArc
 50
348.1878974803
 51
15.8773641343
  0
LINE
  5
28F
330
1F
100
AcDbEntity
  8
0
  6
Continuous
 62
     7
370
    15
100
AcDbLine
 10
85.3472647233
 20
75.6570136874
 30
0.0
 11
86.293513271
 21
75.0673657886
 31
0.0
  0
LINE
  5
290
330
1F
100
AcDbEntity
  8
0
  6
Continuous
 62
     7
370
    15
100
AcDbLine
 10
84.0940784659
 20
78.9849448795
 30
0.0
 11
85.3472647233
 21
75.6570136874
 31
0.0
  0
ARC
  5
291
330
1F
100
AcDbEntity
  8
0
  6
Continuous
 62
     7
370
    15
100
AcDbCircle
 10
86.6932161788
 20
79.7250607082
 30
0.0
 40
2.702459674088469
100
AcDbArc
 50
183.3141429784
 51
195.8945349115
  0
LINE
  5
292
330
1F
100
AcDbEntity
  8
0
  6
Continuous
 62
     7
370
    15
100
AcDbLine
 10
83.546711269
 20
86.2976244062
 30
0.0
 11
83.9952761604
 21
79.5688302782
 31
0.0
  0
LINE
  5
293
330
1F
100
AcDbEntity
  8
0
  6
Continuous
 62
     7
370
    15
100
AcDbLine
 10
83.5874769433
 20
91.0590482821
 30
0.0
 11
83.546711269
 21
86.2976244062
 31
0.0
  0
LWPOLYLINE
  5
294
330
1F
100
AcDbEntity
  8
0
  6
Continuous
 62
     7
370
    15
100
AcDbPolyline
 90
        9
 70
   128
 43
0.0
 10
83.6708255142
 20
90.910589861
 10
83.6557862453
 20
90.9836652307
 10
83.6407963237
 20
91.0450900243
 10
83.6265663911
 20
91.0919522162
 10
83.6137710602
 20
91.122030164
 10
83.6030169318
 20
91.1338979331
 10
83.5948138373
 20
91.1269928962
 10
83.5895506691
 20
91.1016424073
 10
83.5874769433
 20
91.0590482821
  0
LINE
  5
295
330
1F
100
AcDbEntity
  8
0
  6
Continuous
 62
     7
370
    15
100
AcDbLine
 10
85.0656389533
 20
83.5921478342
 30
0.0
 11
83.6708255142
 21
90.910589861
 31
0.0
  0
LINE
  5
296
330
1F
100
AcDbEntity
  8
0
  6
Continuous
 62
     7
370
    15
100
AcDbLine
 10
86.2780595363
 20
75.5027927662
 30
0.0
 11
85.0656389533
 21
83.5921478342
 31
0.0
  0
ARC
  5
297
330
1F
100
AcDbEntity
  8
0
  6
Continuous
 62
     7
370
    15
100
AcDbCircle
 10
85.4443573362
 20
75.2641641025
 30
0.0
 40
0.8648780048415243
100
AcDbArc
 50
348.1878974803
 51
15.8773641343
  0
LINE
  5
298
330
1F
100
AcDbEntity
  8
0
  6
Continuous
 62
     7
370
    15
100
AcDbLine
 10
86.2762397847
 20
75.5007767713
 30
0.0
 11
85.0643399485
 21
83.58665738
 31
0.0
  0
LINE
  5
299
330
1F
100
AcDbEntity
  8
0
  6
Continuous
 62
     7
370
    15
100
AcDbLine
 10
85.0643399485
 20
83.58665738
 30
0.0
 11
83.6701255959
 21
90.9019560623
 31
0.0
  0
LWPOLYLINE
  5
29A
330
1F
100
AcDbEntity
  8
0
  6
Continuous
 62
     7
370
    15
100
AcDbPolyline
 90
        9
 70
   128
 43
0.0
 10
83.6701255959
 20
90.9019560623
 10
83.6558382905
 20
90.9713776635
 10
83.6415978649
 20
91.0297312174
 10
83.628079429
 20
91.0742502996
 10
83.6159238646
 20
91.10282435
 10
83.6057074426
 20
91.1140987306
 10
83.5979145028
 20
91.1075389456
 10
83.592914493
 20
91.0834559812
 10
83.5909444534
 20
91.0429915625
  0
LINE
  5
29B
330
1F
100
AcDbEntity
  8
0
  6
Continuous
 62
     7
370
    15
100
AcDbLine
 10
83.5909444534
 20
91.0429915625
 30
0.0
 11
83.5501962884
 21
86.283612766
 31
0.0
  0
LINE
  5
29C
330
1F
100
AcDbEntity
  8
0
  6
Continuous
 62
     7
370
    15
100
AcDbLine
 10
83.5501962884
 20
86.283612766
 30
0.0
 11
83.9985685167
 21
79.5577087227
 31
0.0
  0
ARC
  5
29D
330
1F
100
AcDbEntity
  8
0
  6
Continuous
 62
     7
370
    15
100
AcDbCircle
 10
86.5616115341
 20
79.7061276312
 30
0.0
 40
2.567336690381123
100
AcDbArc
 50
183.3141429784
 51
195.8945349115
  0
LINE
  5
29E
330
1F
100
AcDbEntity
  8
0
  6
Continuous
 62
     7
370
    15
100
AcDbLine
 10
84.0924307069
 20
79.003017594
 30
0.0
 11
85.3450787082
 21
75.6765157818
 31
0.0
  0
LINE
  5
29F
330
1F
100
AcDbEntity
  8
0
  6
Continuous
 62
     7
370
    15
100
AcDbLine
 10
85.3450787082
 20
75.6765157818
 30
0.0
 11
86.2909208327
 21
75.0871211426
 31
0.0
  0
LINE
  5
2A0
330
1F
100
AcDbEntity
  8
0
  6
Continuous
 62
     7
370
    15
100
AcDbLine
 10
89.7534929502
 20
84.2509827479
 30
0.0
 11
85.0656389533
 21
83.5921478342
 31
0.0
  0
LINE
  5
2A1
330
1F
100
AcDbEntity
  8
0
  6
Continuous
 62
     7
370
    15
100
AcDbLine
 10
90.9659135332
 20
76.1616276799
 30
0.0
 11
89.7534929502
 21
84.2509827479
 31
0.0
  0
ARC
  5
2A2
330
1F
100
AcDbEntity
  8
0
  6
Continuous
 62
     7
370
    15
100
AcDbCircle
 10
76.5014444693
 20
81.602674257
 30
0.0
 40
8.552537111677383
100
AcDbArc
 50
8.4801486886
 51
10.7285292014
  0
LINE
  5
2A3
330
1F
100
AcDbEntity
  8
0
  6
Continuous
 62
     7
370
    15
100
AcDbLine
 10
85.6331959529
 20
78.3754598591
 30
0.0
 11
84.9604768264
 21
82.8638889996
 31
0.0
  0
ARC
  5
2A4
330
1F
100
AcDbEntity
  8
0
  6
Continuous
 62
     7
370
    15
100
AcDbCircle
 10
83.4440316146
 20
77.7527949411
 30
0.0
 40
2.275994749581908
100
AcDbArc
 50
348.1878974803
 51
15.8773641343
  0
LINE
  5
2A5
330
1F
100
AcDbEntity
  8
0
  6
Continuous
 62
     7
370
    15
100
AcDbLine
 10
85.146798378
 20
77.6140622315
 30
0.0
 11
85.6718302897
 21
77.2868924152
 31
0.0
  0
ARC
  5
2A6
330
1F
100
AcDbEntity
  8
0
  6
Continuous
 62
     7
370
    15
100
AcDbCircle
 10
85.286773773
 20
77.7479734054
 30
0.0
 40
0.1937145160314571
100
AcDbArc
 50
194.8904630282
 51
223.7316007566
  0
LINE
  5
2A7
330
1F
100
AcDbEntity
  8
0
  6
Continuous
 62
     7
370
    15
100
AcDbLine
 10
84.4042261948
 20
79.5447176011
 30
0.0
 11
85.0995644101
 21
77.6981942114
 31
0.0
  0
ARC
  5
2A8
330
1F
100
AcDbEntity
  8
0
  6
Continuous
 62
     7
370
    15
100
AcDbCircle
 10
90.9020704769
 20
81.3950071726
 30
0.0
 40
6.756149185218434
100
AcDbArc
 50
183.3141429784
 51
195.8945349115
  0
LINE
  5
2A9
330
1F
100
AcDbEntity
  8
0
  6
Continuous
 62
     7
370
    15
100
AcDbLine
 10
83.9083314017
 20
84.7379445102
 30
0.0
 11
84.1572204309
 21
81.0044310977
 31
0.0
  0
ARC
  5
2AA
330
1F
100
AcDbEntity
  8
0
  6
Continuous
 62
     7
370
    15
100
AcDbCircle
 10
87.2875426404
 20
84.9814105752
 30
0.0
 40
3.387970531248326
100
AcDbArc
 50
179.9443248228
 51
184.120936734
  0
LINE
  5
2AB
330
1F
100
AcDbEntity
  8
0
  6
Continuous
 62
     7
370
    15
100
AcDbLine
 10
83.9221927973
 20
87.6266084676
 30
0.0
 11
83.8995737086
 21
84.984702717
 31
0.0
  0
LWPOLYLINE
  5
2AC
330
1F
100
AcDbEntity
  8
0
  6
Continuous
 62
     7
370
    15
100
AcDbPolyline
 90
        9
 70
   128
 43
0.0
 10
84.1305642245
 20
87.2554624149
 10
84.0929660524
 20
87.4381508391
 10
84.0554912482
 20
87.5917128232
 10
84.0199164169
 20
87.7088683027
 10
83.9879280896
 20
87.7840631724
 10
83.9610427685
 20
87.813732595
 10
83.9405350324
 20
87.7964700028
 10
83.9273771118
 20
87.7330937807
 10
83.9221927973
 20
87.6266084676
  0
LINE
  5
2AD
330
1F
100
AcDbEntity
  8
0
  6
Continuous
 62
     7
370
    15
100
AcDbLine
 10
84.9044851654
 20
83.1947791861
 30
0.0
 11
84.1305642245
 21
87.2554624149
 31
0.0
  0
LWPOLYLINE
  5
2AE
330
1F
100
AcDbEntity
  8
0
  6
Continuous
 62
     7
370
    15
100
AcDbPolyline
 90
       27
 70
   128
 43
0.0
 10
84.5830661118
 20
83.7023685245
 10
84.479335951
 20
84.0694372158
 10
84.3857104263
 20
84.30745802
 10
84.3076307129
 20
84.4025980332
 10
84.2496345198
 20
84.3493280636
 10
84.2150923751
 20
84.1507439683
 10
84.2060117426
 20
83.8183867329
 10
84.2229203556
 20
83.3715717521
 10
84.2648355472
 20
82.8362662883
 10
84.3293213585
 20
82.2435803494
 10
84.4126301088
 20
81.6279586878
 10
84.5099201963
 20
81.0251789967
 10
84.6155374746
 20
80.4702726409
 10
84.7233438516
 20
79.9954887606
 10
84.8270740124
 20
79.6284200694
 10
84.9206995371
 20
79.3903992652
 10
84.9987792505
 20
79.295259252
 10
85.0567754436
 20
79.3485292216
 10
85.0913175883
 20
79.5471133169
 10
85.1003982208
 20
79.8794705522
 10
85.0834896077
 20
80.3262855331
 10
85.0415744162
 20
80.8615909969
 10
84.9770886048
 20
81.4542769358
 10
84.8937798545
 20
82.0698985974
 10
84.7964897671
 20
82.6726782885
 10
84.6908724887
 20
83.2275846443
 10
84.5830661118
 20
83.7023685245
  0
LINE
  5
2AF
330
1F
100
AcDbEntity
  8
0
  6
Continuous
 62
     7
370
    15
100
AcDbLine
 10
89.7534929502
 20
84.2509827479
 30
0.0
 11
89.6044847192
 21
85.0328135425
 31
0.0
  0
ARC
  5
2B0
330
1F
100
AcDbEntity
  8
0
  6
Continuous
 62
     7
370
    15
100
AcDbCircle
 10
89.951369609
 20
75.8981825537
 30
0.0
 40
1.048190206276719
100
AcDbArc
 50
350.5010688618
 51
14.5564253113
  0
LINE
  5
2B1
330
1F
100
AcDbEntity
  8
0
  6
Continuous
 62
     7
370
    15
100
AcDbLine
 10
86.3062746549
 20
75.1244646317
 30
0.0
 11
86.2909208327
 21
75.0871211426
 31
0.0
  0
LINE
  5
2B2
330
1F
100
AcDbEntity
  8
0
  6
Continuous
 62
     7
370
    15
100
AcDbLine
 10
85.4731215486
 20
75.9706320993
 30
0.0
 11
85.3450787082
 21
75.6765157818
 31
0.0
  0
LINE
  5
2B3
330
1F
100
AcDbEntity
  8
0
  6
Continuous
 62
     7
370
    15
100
AcDbLine
 10
83.65340066
 20
90.982138945
 30
0.0
 11
83.5909444534
 21
91.0429915625
 31
0.0
  0
LINE
  5
2B4
330
1F
100
AcDbEntity
  8
0
  6
Continuous
 62
     7
370
    15
100
AcDbLine
 10
83.7572873856
 20
86.1105828695
 30
0.0
 11
83.5501962884
 21
86.283612766
 31
0.0
  0
LINE
  5
2B5
330
1F
100
AcDbEntity
  8
0
  6
Continuous
 62
     7
370
    15
100
AcDbLine
 10
84.1108310517
 20
88.2261878883
 30
0.0
 11
84.111563247
 21
88.2567795294
 31
0.0
  0
SPLINE
  5
2B6
330
1F
100
AcDbEntity
  8
0
  6
Continuous
 62
     7
370
    15
100
AcDbSpline
210
0.0
220
0.0
230
1.0
 70
     8
 71
     3
 72
    11
 73
     7
 74
     0
 42
0.00000001
 43
0.00000001
 40
0.0
 40
0.0
 40
0.0
 40
0.0
 40
0.3219798907253733
 40
0.6440235861688345
 40
0.9911766261994243
 40
0.9999999999999999
 40
0.9999999999999999
 40
0.9999999999999999
 40
0.9999999999999999
 10
85.47312154855598
 20
75.97063209928287
 30
0.0
 10
85.52419482374441
 20
76.12847291337515
 30
0.0
 10
85.62635149498911
 20
76.4441858198753
 30
0.0
 10
85.56676928936498
 20
76.95233527425685
 30
0.0
 10
85.41488210233285
 20
77.26299993792767
 30
0.0
 10
85.30690522559111
 20
77.4044608198304
 30
0.0
 10
85.30422886752834
 20
77.40796712584026
 30
0.0
  0
LINE
  5
2B7
330
1F
100
AcDbEntity
  8
0
  6
Continuous
 62
     7
370
    15
100
AcDbLine
 10
85.3110521787
 20
77.399652004
 30
0.0
 11
85.3120069708
 21
77.3984884614
 31
0.0
  0
LINE
  5
2B8
330
1F
100
AcDbEntity
  8
0
  6
Continuous
 62
     7
370
    15
100
AcDbLine
 10
84.2771911107
 20
79.3767655205
 30
0.0
 11
84.0924307069
 21
79.003017594
 31
0.0
  0
LINE
  5
2B9
330
1F
100
AcDbEntity
  8
0
  6
Continuous
 62
     7
370
    15
100
AcDbLine
 10
84.4256040698
 20
79.4879470318
 30
0.0
 11
84.2771911107
 21
79.3767655205
 31
0.0
  0
LINE
  5
2BA
330
1F
100
AcDbEntity
  8
0
  6
Continuous
 62
     7
370
    15
100
AcDbLine
 10
84.2771911107
 20
79.3767655205
 30
0.0
 11
83.9985685167
 21
79.5577087227
 31
0.0
  0
LINE
  5
2BB
330
1F
100
AcDbEntity
  8
0
  6
Continuous
 62
     7
370
    15
100
AcDbLine
 10
83.7572873856
 20
86.1105828695
 30
0.0
 11
83.9076558884
 21
85.9286999582
 31
0.0
  0
LINE
  5
2BC
330
1F
100
AcDbEntity
  8
0
  6
Continuous
 62
     7
370
    15
100
AcDbLine
 10
89.7534929502
 20
84.2509827479
 30
0.0
 11
89.6044847192
 21
85.0328135425
 31
0.0
  0
LINE
  5
2BD
330
1F
100
AcDbEntity
  8
0
  6
Continuous
 62
     7
370
    15
100
AcDbLine
 10
90.8603252846
 20
76.8661198717
 30
0.0
 11
89.7534929502
 21
84.2509827479
 31
0.0
  0
LINE
  5
2BE
330
1F
100
AcDbEntity
  8
0
  6
Continuous
 62
     7
370
    15
100
AcDbLine
 10
94.145893964
 20
84.8682944527
 30
0.0
 11
89.7534929502
 21
84.2509827479
 31
0.0
  0
LINE
  5
2BF
330
1F
100
AcDbEntity
  8
0
  6
Continuous
 62
     7
370
    15
100
AcDbLine
 10
95.2527262984
 20
77.4834315765
 30
0.0
 11
94.145893964
 21
84.8682944527
 31
0.0
  0
LINE
  5
2C0
330
1F
100
AcDbEntity
  8
0
  6
Continuous
 62
     7
370
    15
100
AcDbLine
 10
94.4218618775
 20
84.8274608493
 30
0.0
 11
94.145893964
 21
84.8682944527
 31
0.0
  0
LINE
  5
2C1
330
1F
100
AcDbEntity
  8
0
  6
Continuous
 62
     7
370
    15
100
AcDbLine
 10
94.4218618775
 20
84.8274608493
 30
0.0
 11
95.5208830095
 21
77.4947148629
 31
0.0
  0
LINE
  5
2C2
330
1F
100
AcDbEntity
  8
0
  6
Continuous
 62
     7
370
    15
100
AcDbLine
 10
94.145893964
 20
84.8682944527
 30
0.0
 11
93.9968857331
 21
85.6501252474
 31
0.0
  0
LINE
  5
2C3
330
1F
100
AcDbEntity
  8
0
  6
Continuous
 62
     7
370
    15
100
AcDbLine
 10
94.2580751245
 20
85.6868330225
 30
0.0
 11
94.4218618775
 21
84.8274608493
 31
0.0
  0
ARC
  5
2C4
330
1F
100
AcDbEntity
  8
0
  6
Continuous
 62
     7
370
    15
100
AcDbCircle
 10
92.716366488
 20
76.8248187612
 30
0.0
 40
2.62047551569106
100
AcDbArc
 50
350.5010688618
 51
14.5564253113
  0
ARC
  5
2C5
330
1F
100
AcDbEntity
  8
0
  6
Continuous
 62
     7
370
    15
100
AcDbCircle
 10
93.4422674061
 20
77.0024229282
 30
0.0
 40
2.136116611005024
100
AcDbArc
 50
352.8319169909
 51
13.3242242995
  0
LINE
  5
2C6
330
1F
100
AcDbEntity
  8
0
  6
Continuous
 62
     7
370
    15
100
AcDbLine
 10
94.2923387161
 20
85.6916484562
 30
0.0
 11
85.2104651829
 21
84.4152743692
 31
0.0
  0
LINE
  5
2C7
330
1F
100
AcDbEntity
  8
0
  6
Continuous
 62
     7
370
    15
100
AcDbLine
 10
85.2104651829
 20
84.4152743692
 30
0.0
 11
80.6133608621
 21
115.087476455
 31
0.0
  0
LINE
  5
2C8
330
1F
100
AcDbEntity
  8
0
  6
Continuous
 62
     7
370
    15
100
AcDbLine
 10
113.3395620438
 20
119.6868440857
 30
0.0
 11
80.6133608621
 21
115.087476455
 31
0.0
  0
LINE
  5
2C9
330
1F
100
AcDbEntity
  8
0
  6
Continuous
 62
     7
370
    15
100
AcDbLine
 10
113.3395620438
 20
86.373605792
 30
0.0
 11
113.3395620438
 21
119.6868440857
 31
0.0
  0
SPLINE
  5
2CA
330
1F
100
AcDbEntity
  8
0
  6
Continuous
 62
     7
370
    15
100
AcDbSpline
210
0.0
220
0.0
230
1.0
 70
     8
 71
     3
 72
    30
 73
    26
 74
     0
 42
0.00000001
 43
0.00000001
 40
0.0
 40
0.0
 40
0.0
 40
0.0
 40
0.0332683229150297
 40
0.0665077914307261
 40
0.099726405095032
 40
0.1329321785282188
 40
0.1661331356493479
 40
0.1993373038691233
 40
0.2325527082701002
 40
0.2657873657953254
 40
0.2990492794664106
 40
0.3323464326518057
 40
0.3656867834055977
 40
0.3990782588965852
 40
0.4325287499466404
 40
0.4660461056964547
 40
0.4996381284157645
 40
0.5625633923630206
 40
0.6252757682530724
 40
0.6878270380551363
 40
0.7502693845441821
 40
0.8126552638230533
 40
0.8750372744420581
 40
0.9374680247296661
 40
1.0
 40
1.0
 40
1.0
 40
1.0
 10
95.49448976327263
 20
77.67131464726937
 30
0.0
 10
95.71139329285197
 20
77.72102049205171
 30
0.0
 10
96.14501222647529
 20
77.82038907056751
 30
0.0
 10
96.7920633443716
 20
77.98215553509331
 30
0.0
 10
97.43620308553582
 20
78.15313398133573
 30
0.0
 10
98.07721716755741
 20
78.33424103489041
 30
0.0
 10
98.71516281528676
 20
78.52523125786851
 30
0.0
 10
99.3500245599636
 20
78.72617034492616
 30
0.0
 10
99.98180640622542
 20
78.93704064615912
 30
0.0
 10
100.6105071450944
 20
79.15784683529897
 30
0.0
 10
101.2361269669389
 20
79.38858759208556
 30
0.0
 10
101.8586657002514
 20
79.6292632035712
 30
0.0
 10
102.4781232439525
 20
79.87987348846971
 30
0.0
 10
103.0944996035845
 20
80.14041849549994
 30
0.0
 10
103.7077943147949
 20
80.4108977887531
 30
0.0
 10
104.3180087214209
 20
80.6913126150425
 30
0.0
 10
105.1013464036734
 20
81.06592581821639
 30
0.0
 10
106.0502564288195
 20
81.54553426490439
 30
0.0
 10
107.1547129596315
 20
82.14438959204465
 30
0.0
 10
108.2383644907788
 20
82.77333530816087
 30
0.0
 10
109.3011620804185
 20
83.43241809901778
 30
0.0
 10
110.3432557014328
 20
84.12145438896259
 30
0.0
 10
111.3640800647597
 20
84.84112508851076
 30
0.0
 10
112.365734303493
 20
85.58887999250832
 30
0.0
 10
113.0147775450395
 20
86.11188930580447
 30
0.0
 10
113.3395620417649
 20
86.373605792054
 30
0.0
  0
LINE
  5
2CB
330
1F
100
AcDbEntity
  8
0
  6
Continuous
 62
     7
370
    15
100
AcDbLine
 10
94.4188974183
 20
84.8472399287
 30
0.0
 11
94.2923387161
 21
85.6916484562
 31
0.0
  0
SPLINE
  5
2CC
330
1F
100
AcDbEntity
  8
0
  6
Continuous
 62
     7
370
    15
100
AcDbSpline
210
0.0
220
0.0
230
1.0
 70
     8
 71
     3
 72
    12
 73
     8
 74
     0
 42
0.00000001
 43
0.00000001
 40
0.0
 40
0.0
 40
0.0
 40
0.0
 40
0.2500000000000012
 40
0.2500000000000012
 40
0.5000000000000024
 40
0.5000000000000024
 40
1.0
 40
1.0
 40
1.0
 40
1.0
 10
81.0514213264506
 20
93.85322833821874
 30
0.0
 10
81.03303821920414
 20
93.9629935043624
 30
0.0
 10
81.01398835417103
 20
94.0657059427181
 30
0.0
 10
80.9745633004873
 20
94.2571120154612
 30
0.0
 10
80.95476258546891
 20
94.34280124808258
 30
0.0
 10
80.89700479944577
 20
94.56058652244266
 30
0.0
 10
80.8611627863113
 20
94.65003292407614
 30
0.0
 10
80.83615597137114
 20
94.6554488203084
 30
0.0
  0
LINE
  5
2CD
330
1F
100
AcDbEntity
  8
0
  6
Continuous
 62
     7
370
    15
100
AcDbLine
 10
80.8217517009
 20
94.6585727258
 30
0.0
 11
80.8361559714
 21
94.6554488203
 31
0.0
  0
LINE
  5
2CE
330
1F
100
AcDbEntity
  8
0
  6
Continuous
 62
     7
370
    15
100
AcDbLine
 10
74.0451624483
 20
142.9758785195
 30
0.0
 11
74.0321772399
 21
142.9689052737
 31
0.0
  0
SPLINE
  5
2CF
330
1F
100
AcDbEntity
  8
0
  6
Continuous
 62
     7
370
    15
100
AcDbSpline
210
0.0
220
0.0
230
1.0
 70
     8
 71
     3
 72
    10
 73
     6
 74
     0
 42
0.00000001
 43
0.00000001
 40
0.0
 40
0.0
 40
0.0
 40
0.0
 40
0.5
 40
0.5
 40
1.0
 40
1.0
 40
1.0
 40
1.0
 10
74.04516244826911
 20
142.9758785194952
 30
0.0
 10
74.06769441412705
 20
142.9879702857676
 30
0.0
 10
74.07750565233516
 20
143.0821293098091
 30
0.0
 10
74.07152216201425
 20
143.3845311427871
 30
0.0
 10
74.05612324843723
 20
143.5853063574945
 30
0.0
 10
74.03096685610483
 20
143.8063575138938
 30
0.0
  0
SPLINE
  5
2D0
330
1F
100
AcDbEntity
  8
0
  6
Continuous
 62
     7
370
    15
100
AcDbSpline
210
0.0
220
0.0
230
1.0
 70
     8
 71
     3
 72
     8
 73
     4
 74
     0
 42
0.00000001
 43
0.00000001
 40
0.0
 40
0.0
 40
0.0
 40
0.0
 40
1.0
 40
1.0
 40
1.0
 40
1.0
 10
73.99966405679574
 20
144.081462245262
 30
0.0
 10
74.01009623458269
 20
143.9897642891359
 30
0.0
 10
74.02053048082894
 20
143.8980627470159
 30
0.0
 10
74.03096685610483
 20
143.8063575138938
 30
0.0
  0
ARC
  5
2D1
330
1F
100
AcDbEntity
  8
0
  6
Continuous
 62
     7
370
    15
100
AcDbCircle
 10
86.3395620438
 20
120.0663229021
 30
0.0
 40
26.99999999999986
100
AcDbArc
 50
116.4405029544
 51
117.1958341779
  0
LINE
  5
2D2
330
1F
100
AcDbEntity
  8
0
  6
Continuous
 62
     7
370
    15
100
AcDbLine
 10
80.6133608621
 20
115.087476455
 30
0.0
 11
74.3173191438
 21
144.2420478272
 31
0.0
  0
LWPOLYLINE
  5
2D3
330
1F
100
AcDbEntity
  8
0
  6
Continuous
 62
     7
370
    15
100
AcDbPolyline
 90
       12
 70
   128
 43
0.0
 10
83.5819326392
 20
90.4114744997
 10
83.5657153012
 20
90.5131468468
 10
83.4820402134
 20
91.104964566
 10
83.4189991416
 20
91.676582146
 10
83.3816992982
 20
92.1816905299
 10
83.373162495
 20
92.5793688405
 10
83.3940803328
 20
92.8373995461
 10
83.4427581728
 20
92.9348785336
 10
83.515252426
 20
92.8639086351
 10
83.6056900391
 20
92.6302394097
 10
83.7067442946
 20
92.2528013484
 10
83.8102283776
 20
91.7621722381
  0
LINE
  5
2D4
330
1F
100
AcDbEntity
  8
0
  6
Continuous
 62
     7
370
    15
100
AcDbLine
 10
82.7781429242
 20
83.5750463189
 30
0.0
 11
83.9325772819
 21
80.5093582891
 31
0.0
  0
SPLINE
  5
2D5
330
1F
100
AcDbEntity
  8
0
  6
Continuous
 62
     7
370
    15
100
AcDbSpline
210
0.0
220
0.0
230
1.0
 70
     8
 71
     3
 72
     8
 73
     4
 74
     0
 42
0.00000001
 43
0.00000001
 40
0.0
 40
0.0
 40
0.0
 40
0.0
 40
1.0
 40
1.0
 40
1.0
 40
1.0
 10
81.0514213264506
 20
93.85322833821876
 30
0.0
 10
81.62592603718778
 20
90.42287218683605
 30
0.0
 10
82.20178874407364
 20
86.99797197212453
 30
0.0
 10
82.77814292420987
 20
83.57504631892581
 30
0.0
  0
LWPOLYLINE
  5
2D6
330
1F
100
AcDbEntity
  8
0
  6
Continuous
 62
     7
370
    15
100
AcDbPolyline
 90
       33
 70
   128
 43
0.0
 10
81.7133290922
 20
96.6143387412
 10
81.8048019136
 20
96.5495801933
 10
81.9141528626
 20
96.3350884939
 10
82.0371796437
 20
95.9791064388
 10
82.1691544065
 20
95.4953142187
 10
82.3050054351
 20
94.9023036973
 10
82.4395120504
 20
94.2228639364
 10
82.5675052389
 20
93.483105425
 10
82.6840662939
 20
92.7114566677
 10
82.7847158395
 20
91.9375716937
 10
82.8655859702
 20
91.1911904684
 10
82.9235688921
 20
90.5009960037
 10
82.9564363541
 20
89.8935120859
 10
82.9629252781
 20
89.3920839813
 10
82.9427862983
 20
89.0159812906
 10
82.8967933444
 20
88.7796574295
 10
82.8267138999
 20
88.6921941913
 10
82.7352410785
 20
88.7569527392
 10
82.6258901295
 20
88.9714444386
 10
82.5028633485
 20
89.3274264937
 10
82.3708885856
 20
89.8112187138
 10
82.2350375571
 20
90.4042292352
 10
82.1005309417
 20
91.0836689961
 10
81.9725377533
 20
91.8234275075
 10
81.8559766983
 20
92.5950762648
 10
81.7553271526
 20
93.3689612388
 10
81.674457022
 20
94.1153424641
 10
81.6164741001
 20
94.8055369288
 10
81.5836066381
 20
95.4130208466
 10
81.5771177141
 20
95.9144489512
 10
81.5972566939
 20
96.2905516418
 10
81.6432496477
 20
96.526875503
 10
81.7133290922
 20
96.6143387412
  0
LINE
  5
2D7
330
1F
100
AcDbEntity
  8
0
  6
Continuous
 62
     7
370
    15
100
AcDbLine
 10
83.8102283776
 20
91.7621722381
 30
0.0
 11
85.2104651829
 21
84.4152743692
 31
0.0
  0
SPLINE
  5
2D8
330
1F
100
AcDbEntity
  8
0
  6
Continuous
 62
     7
370
    15
100
AcDbSpline
210
0.0
220
0.0
230
1.0
 70
     8
 71
     3
 72
    42
 73
    38
 74
     0
 42
0.00000001
 43
0.00000001
 40
0.0
 40
0.0
 40
0.0
 40
0.0
 40
0.0340136616888815
 40
0.0677089968191603
 40
0.1010858216925707
 40
0.1341439549999476
 40
0.1668832178289997
 40
0.1993034336724651
 40
0.2314044284366531
 40
0.2631860304504676
 40
0.294648070474841
 40
0.3257903817126807
 40
0.3566127998193332
 40
0.387115162913597
 40
0.4172973115893214
 40
0.4471590889276417
 40
0.4767003405098669
 40
0.5059209144310892
 40
0.534820661314563
 40
0.5633994343268651
 40
0.5916570891939694
 40
0.6195934842182003
 40
0.6472084802962201
 40
0.6745019409380576
 40
0.7014737322872905
 40
0.7281237231424524
 40
0.7544517849797479
 40
0.7804577919771961
 40
0.8061416210402795
 40
0.8315031518292517
 40
0.8565422667881925
 40
0.8812588511759883
 40
0.9056527930993535
 40
0.9297239835480796
 40
0.9534723164327118
 40
0.9768976886248001
 40
1.0
 40
1.0
 40
1.0
 40
1.0
 10
113.3395809686873
 20
85.80485402917182
 30
0.0
 10
113.1629554739139
 20
85.66358010981331
 30
0.0
 10
112.8113574844592
 20
85.38235442338267
 30
0.0
 10
112.2782102282129
 20
84.97287167767182
 30
0.0
 10
111.7443580056433
 20
84.57482014369369
 30
0.0
 10
111.2095062893138
 20
84.18879501130021
 30
0.0
 10
110.6741071717907
 20
83.81445984989975
 30
0.0
 10
110.1384062849959
 20
83.45171823551931
 30
0.0
 10
109.6026945504525
 20
83.1004046471285
 30
0.0
 10
109.0672417204963
 20
82.76036644493537
 30
0.0
 10
108.5323139612427
 20
82.43144256469081
 30
0.0
 10
107.9981692539098
 20
82.11346947588846
 30
0.0
 10
107.4650586604335
 20
81.8062799349955
 30
0.0
 10
106.9332260491102
 20
81.5097036331045
 30
0.0
 10
106.4029082342288
 20
81.22356733616404
 30
0.0
 10
105.8743350136495
 20
80.9476951516012
 30
0.0
 10
105.3477292401179
 20
80.68190875405779
 30
0.0
 10
104.8233068901264
 20
80.42602761434685
 30
0.0
 10
104.3012771395084
 20
80.17986921998175
 30
0.0
 10
103.7818424429908
 20
79.94324929034707
 30
0.0
 10
103.265198618093
 20
79.71598198571397
 30
0.0
 10
102.7515349329363
 20
79.49788011031552
 30
0.0
 10
102.2410341977397
 20
79.28875530950472
 30
0.0
 10
101.7338728597839
 20
79.08841826083946
 30
0.0
 10
101.2302211014294
 20
78.89667885986967
 30
0.0
 10
100.730242941585
 20
78.71334639795599
 30
0.0
 10
100.2340963380582
 20
78.53822974212902
 30
0.0
 10
99.74193329912933
 20
78.37113748054698
 30
0.0
 10
99.25389997273219
 20
78.21187816734856
 30
0.0
 10
98.77013682805178
 20
78.06026017707454
 30
0.0
 10
98.2907785080809
 20
77.91609296285395
 30
0.0
 10
97.8159548952962
 20
77.7791831494899
 30
0.0
 10
97.34578774455574
 20
77.64934950669382
 30
0.0
 10
96.88040354336815
 20
77.52636880975697
 30
0.0
 10
96.41988701348981
 20
77.41017450949786
 30
0.0
 10
95.96445170879115
 20
77.3001307835206
 30
0.0
 10
95.6619275057598
 20
77.23135744140372
 30
0.0
 10
95.51171567914143
 20
77.19720953112576
 30
0.0
  0
LINE
  5
2D9
330
1F
100
AcDbEntity
  8
0
  6
Continuous
 62
     7
370
    15
100
AcDbLine
 10
113.3395620438
 20
86.3738573123
 30
0.0
 11
113.3395620438
 21
85.8037626217
 31
0.0
  0
ARC
  5
2DA
330
1F
100
AcDbEntity
  8
0
  6
Continuous
 62
     7
370
    15
100
AcDbCircle
 10
86.3395620438
 20
120.0663229021
 30
0.0
 40
26.99999999999999
100
AcDbArc
 50
0.0
 51
116.4405029544
  0
LINE
  5
2DB
330
1F
100
AcDbEntity
  8
0
  6
Continuous
 62
     7
370
    15
100
AcDbLine
 10
113.3395620438
 20
119.6868440857
 30
0.0
 11
113.3395620438
 21
120.0663229021
 31
0.0
  0
SPLINE
  5
2DC
330
1F
100
AcDbEntity
  8
0
  6
Continuous
 62
     7
370
    15
100
AcDbSpline
210
0.0
220
0.0
230
1.0
 70
     8
 71
     3
 72
    16
 73
    12
 74
     0
 42
0.00000001
 43
0.00000001
 40
0.0
 40
0.0
 40
0.0
 40
0.0
 40
0.2499999999999999
 40
0.2499999999999999
 40
0.4999999999999998
 40
0.4999999999999998
 40
0.7499999999999999
 40
0.7499999999999999
 40
0.8749999999999999
 40
0.8749999999999999
 40
1.0
 40
1.0
 40
1.0
 40
1.0
 10
80.82175170093751
 20
94.65857272584208
 30
0.0
 10
80.752141544671
 20
94.6736899887855
 30
0.0
 10
80.58141111344734
 20
94.71045470597726
 30
0.0
 10
80.04381901736383
 20
94.83856093515256
 30
0.0
 10
79.6906224496169
 20
94.92690231360909
 30
0.0
 10
78.83242139304865
 20
95.16970255912995
 30
0.0
 10
78.3464703514422
 20
95.31909406776333
 30
0.0
 10
77.55130748884618
 20
95.59500715647738
 30
0.0
 10
77.27802953573317
 20
95.69468351317464
 30
0.0
 10
76.72376576193533
 20
95.90799846176967
 30
0.0
 10
76.44172339905998
 20
96.02199665451231
 30
0.0
 10
76.15540635067467
 20
96.14388630343339
 30
0.0
  0
SPLINE
  5
2DD
330
1F
100
AcDbEntity
  8
0
  6
Continuous
 62
     7
370
    15
100
AcDbSpline
210
0.0
220
0.0
230
1.0
 70
     8
 71
     3
 72
    20
 73
    16
 74
     0
 42
0.00000001
 43
0.00000001
 40
0.0
 40
0.0
 40
0.0
 40
0.0
 40
0.2499999999999995
 40
0.2499999999999995
 40
0.3749999999999996
 40
0.3749999999999996
 40
0.4999999999999997
 40
0.4999999999999997
 40
0.6249999999999998
 40
0.6249999999999998
 40
0.7499999999999998
 40
0.7499999999999998
 40
0.8749999999999999
 40
0.8749999999999999
 40
1.0
 40
1.0
 40
1.0
 40
1.0
 10
69.95600610176396
 20
140.2549111314737
 30
0.0
 10
70.43957223429884
 20
140.6473374217152
 30
0.0
 10
70.9135921207259
 20
141.0031846171402
 30
0.0
 10
71.59945823945219
 20
141.4861156525781
 30
0.0
 10
71.82400756916444
 20
141.6385886317348
 30
0.0
 10
72.24641775530368
 20
141.9168893588242
 30
0.0
 10
72.44636370289359
 20
142.0442136606297
 30
0.0
 10
72.82119961717041
 20
142.2767375681059
 30
0.0
 10
72.99759366757236
 20
142.3828052288023
 30
0.0
 10
73.31311635165041
 20
142.5684387186128
 30
0.0
 10
73.45182103591107
 20
142.6478384125265
 30
0.0
 10
73.69013454315133
 20
142.7821916933193
 30
0.0
 10
73.79006893386365
 20
142.8373155074937
 30
0.0
 10
73.94586477520522
 20
142.9224850813825
 30
0.0
 10
74.00076118449263
 20
142.9520229206236
 30
0.0
 10
74.03217723990514
 20
142.9689052737447
 30
0.0
  0
ELLIPSE
  5
2DE
330
1F
100
AcDbEntity
  8
0
  6
Continuous
 62
     7
370
    15
100
AcDbEllipse
 10
70.9731291522
 20
106.5721792911
 30
0.0
 11
-2.351434439160514
 21
3.183140960885212
 31
0.0
210
0.0
220
0.0
230
1.0
 40
0.6153106124
 41
0.0
 42
6.283185307179586
  0
ARC
  5
2DF
330
1F
100
AcDbEntity
  8
0
  6
Continuous
 62
     7
370
    15
100
AcDbCircle
 10
86.3395620438
 20
120.0663229021
 30
0.0
 40
25.99999999999998
100
AcDbArc
 50
129.0602136782
 51
246.9397863218
  0
SPLINE
  5
2E0
330
1F
100
AcDbEntity
  8
0
  6
Continuous
 62
     7
370
    15
100
AcDbSpline
210
0.0
220
0.0
230
1.0
 70
     8
 71
     3
 72
    18
 73
    14
 74
     0
 42
0.00000001
 43
0.00000001
 40
0.0
 40
0.0
 40
0.0
 40
0.0
 40
0.0422852585432515
 40
0.1880618741652146
 40
0.3618449333189085
 40
0.537175979079238
 40
0.6228545381716236
 40
0.7093884854486422
 40
0.7669190338246837
 40
0.8257367604575228
 40
0.8834204793698684
 40
0.9432815749423958
 40
1.0
 40
1.0
 40
1.0
 40
1.0
 10
71.17297772580204
 20
109.5923835583506
 30
0.0
 10
71.1563412438664
 20
109.5883309184762
 30
0.0
 10
71.08235120383547
 20
109.570306976413
 30
0.0
 10
70.92552880221554
 20
109.5536474378453
 30
0.0
 10
70.7033287267983
 20
109.547690965489
 30
0.0
 10
70.50040257682181
 20
109.569005242828
 30
0.0
 10
70.34229279845945
 20
109.6092486763219
 30
0.0
 10
70.2432912453648
 20
109.6505569916135
 30
0.0
 10
70.16618055325328
 20
109.7029900151477
 30
0.0
 10
70.11173676087971
 20
109.7618156560941
 30
0.0
 10
70.07432806588314
 20
109.8366406135526
 30
0.0
 10
70.05437824849982
 20
109.9218372648807
 30
0.0
 10
70.05577543964725
 20
109.9856392615154
 30
0.0
 10
70.0564552029621
 20
110.0166802946668
 30
0.0
  0
LINE
  5
2E1
330
1F
100
AcDbEntity
  8
0
  6
Continuous
 62
     7
370
    15
100
AcDbLine
 10
81.0828212037
 20
93.6663229021
 30
0.0
 11
80.6791733646
 21
93.6663229021
 31
0.0
  0
SPLINE
  5
2E2
330
1F
100
AcDbEntity
  8
0
  6
Continuous
 62
     7
370
    15
100
AcDbSpline
210
0.0
220
0.0
230
1.0
 70
    24
 71
     3
 72
    10
 73
     6
 74
     0
 42
0.00000001
 43
0.00000001
 40
0.0
 40
0.0
 40
0.0
 40
0.0
 40
0.5
 40
0.5
 40
1.0
 40
1.0
 40
1.0
 40
1.0
 10
77.3395620437956
 20
90.50604550152912
 30
0.0
 10
77.3395620437956
 20
90.34615823333544
 30
0.0
 10
77.3395620437956
 20
90.18503097782086
 30
0.0
 10
77.3395620437956
 20
89.950931979466
 30
0.0
 10
77.3395620437956
 20
89.87940520587478
 30
0.0
 10
77.33956204379561
 20
89.87940520587478
 30
0.0
  0
ARC
  5
2E3
330
1F
100
AcDbEntity
  8
0
  6
Continuous
 62
     7
370
    15
100
AcDbCircle
 10
86.3395620438
 20
120.0663229021
 30
0.0
 40
31.49999999999997
100
AcDbArc
 50
140.9381656697
 51
253.398450401
  0
SPLINE
  5
2E4
330
1F
100
AcDbEntity
  8
0
  6
Continuous
 62
     7
370
    15
100
AcDbSpline
210
0.0
220
0.0
230
1.0
 70
    24
 71
     3
 72
    12
 73
     8
 74
     0
 42
0.00000001
 43
0.00000001
 40
0.0
 40
0.0
 40
0.0
 40
0.0
 40
0.25
 40
0.25
 40
0.5
 40
0.5
 40
1.0
 40
1.0
 40
1.0
 40
1.0
 10
61.88087238142798
 20
139.9163229021219
 30
0.0
 10
61.88087238142798
 20
139.9163229021219
 30
0.0
 10
61.90870210173146
 20
139.9163229021219
 30
0.0
 10
62.00384456298814
 20
139.9163229021219
 30
0.0
 10
62.07026737928851
 20
139.9163229021219
 30
0.0
 10
62.29446681080862
 20
139.9163229021219
 30
0.0
 10
62.47845321335426
 20
139.9163229021219
 30
0.0
 10
62.65860978253723
 20
139.9163229021219
 30
0.0
  0
SPLINE
  5
2E5
330
1F
100
AcDbEntity
  8
0
  6
Continuous
 62
     7
370
    15
100
AcDbSpline
210
0.0
220
0.0
230
1.0
 70
    24
 71
     3
 72
    10
 73
     6
 74
     0
 42
0.00000001
 43
0.00000001
 40
0.0
 40
0.0
 40
0.0
 40
0.0
 40
0.5
 40
0.5
 40
1.0
 40
1.0
 40
1.0
 40
1.0
 10
78.33956204379561
 20
149.9127632258858
 30
0.0
 10
78.33956204379561
 20
150.0731684922366
 30
0.0
 10
78.33956204379561
 20
150.2322303052252
 30
0.0
 10
78.33956204379561
 20
150.4631427708555
 30
0.0
 10
78.33956204379561
 20
150.5335183752862
 30
0.0
 10
78.33956204379561
 20
150.5335183752862
 30
0.0
  0
SPLINE
  5
2E6
330
1F
100
AcDbEntity
  8
0
  6
Continuous
 62
     7
370
    15
100
AcDbSpline
210
0.0
220
0.0
230
1.0
 70
    24
 71
     3
 72
    12
 73
     8
 74
     0
 42
0.00000001
 43
0.00000001
 40
0.0
 40
0.0
 40
0.0
 40
0.0
 40
0.2499999999999967
 40
0.2499999999999967
 40
0.4999999999999933
 40
0.4999999999999933
 40
1.0
 40
1.0
 40
1.0
 40
1.0
 10
66.4895620437956
 20
144.5250125644893
 30
0.0
 10
66.4895620437956
 20
144.5250125644893
 30
0.0
 10
66.4895620437956
 20
144.4967928659015
 30
0.0
 10
66.4895620437956
 20
144.4023498586534
 30
0.0
 10
66.4895620437956
 20
144.336062881948
 30
0.0
 10
66.4895620437956
 20
144.1104380586597
 30
0.0
 10
66.4895620437956
 20
143.9280117956271
 30
0.0
 10
66.4895620437956
 20
143.7472751633803
 30
0.0
  0
ARC
  5
2E7
330
1F
100
AcDbEntity
  8
0
  6
Continuous
 62
     7
370
    15
100
AcDbCircle
 10
86.3395620438
 20
120.0663229021
 30
0.0
 40
31.49999999999998
100
AcDbArc
 50
104.7124579609
 51
129.0618343303
  0
SPLINE
  5
2E8
330
1F
100
AcDbEntity
  8
0
  6
Continuous
 62
     7
370
    15
100
AcDbSpline
210
0.0
220
0.0
230
1.0
 70
    24
 71
     3
 72
    12
 73
     8
 74
     0
 42
0.00000001
 43
0.00000001
 40
0.0
 40
0.0
 40
0.0
 40
0.0
 40
0.25
 40
0.25
 40
0.5
 40
0.5
 40
1.0
 40
1.0
 40
1.0
 40
1.0
 10
94.3395620437956
 20
150.5335183752861
 30
0.0
 10
94.3395620437956
 20
150.5335183752861
 30
0.0
 10
94.33956204379561
 20
150.5165156253254
 30
0.0
 10
94.3395620437956
 20
150.4524550842137
 30
0.0
 10
94.3395620437956
 20
150.4052964685751
 30
0.0
 10
94.3395620437956
 20
150.2320744358828
 30
0.0
 10
94.3395620437956
 20
150.0719653456486
 30
0.0
 10
94.3395620437956
 20
149.9127632258852
 30
0.0
  0
ARC
  5
2E9
330
1F
100
AcDbEntity
  8
0
  6
Continuous
 62
     7
370
    15
100
AcDbCircle
 10
86.3395620438
 20
120.0663229021
 30
0.0
 40
31.49999999999999
100
AcDbArc
 50
328.9972808661
 51
75.2875420391
  0
LINE
  5
2EA
330
1F
100
AcDbEntity
  8
0
  6
Continuous
 62
     7
370
    15
100
AcDbLine
 10
94.3395620438
 20
149.9127632259
 30
0.0
 11
94.3395620438
 21
146.4663229021
 31
0.0
  0
LINE
  5
2EB
330
1F
100
AcDbEntity
  8
0
  6
Continuous
 62
     7
370
    15
100
AcDbLine
 10
94.3395620438
 20
146.4663229021
 30
0.0
 11
91.999950723
 21
146.4663229021
 31
0.0
  0
LINE
  5
2EC
330
1F
100
AcDbEntity
  8
0
  6
Continuous
 62
     7
370
    15
100
AcDbLine
 10
78.3395620438
 20
146.4663229021
 30
0.0
 11
78.3395620438
 21
149.9127632259
 31
0.0
  0
LINE
  5
2ED
330
1F
100
AcDbEntity
  8
0
  6
Continuous
 62
     7
370
    15
100
AcDbLine
 10
77.3395620438
 20
93.6663229021
 30
0.0
 11
77.3395620438
 21
90.5060455015
 31
0.0
  0
LINE
  5
2EE
330
1F
100
AcDbEntity
  8
0
  6
Continuous
 62
     7
370
    15
100
AcDbLine
 10
66.4895620438
 20
143.7472751634
 30
0.0
 11
66.4895620438
 21
139.9163229021
 31
0.0
  0
LINE
  5
2EF
330
1F
100
AcDbEntity
  8
0
  6
Continuous
 62
     7
370
    15
100
AcDbLine
 10
62.6586097825
 20
139.9163229021
 30
0.0
 11
66.4895620438
 21
139.9163229021
 31
0.0
  0
LINE
  5
2F0
330
1F
100
AcDbEntity
  8
0
  6
Continuous
 62
     7
370
    15
100
AcDbLine
 10
80.6791733646
 20
93.6663229021
 30
0.0
 11
77.3395620438
 21
93.6663229021
 31
0.0
  0
LINE
  5
2F1
330
1F
100
AcDbEntity
  8
0
  6
Continuous
 62
     7
370
    15
100
AcDbLine
 10
80.6791733646
 20
146.4663229021
 30
0.0
 11
78.3395620438
 21
146.4663229021
 31
0.0
  0
SPLINE
  5
2F2
330
1F
100
AcDbEntity
  8
0
  6
Continuous
 62
     7
370
    15
100
AcDbSpline
210
0.0
220
0.0
230
1.0
 70
     8
 71
     3
 72
    14
 73
    10
 74
     0
 42
0.00000001
 43
0.00000001
 40
0.0
 40
0.0
 40
0.0
 40
0.0
 40
0.1455927839806055
 40
0.2912025761563237
 40
0.4366127629464282
 40
0.5820472894746882
 40
0.7311859758149842
 40
0.8803242213276219
 40
1.0
 40
1.0
 40
1.0
 40
1.0
 10
77.33956204379565
 20
89.8794052058748
 30
0.0
 10
77.36096856918918
 20
89.87288691029039
 30
0.0
 10
77.40378412069332
 20
89.8598495576522
 30
0.0
 10
77.73639398606404
 20
89.76290852050211
 30
0.0
 10
78.2595796454194
 20
89.61804964544413
 30
0.0
 10
78.97428737936518
 20
89.43542971283787
 30
0.0
 10
79.87196352436875
 20
89.23332076037994
 30
0.0
 10
80.84554513134223
 20
89.03995687781138
 30
0.0
 10
81.56530053665546
 20
88.9341452073565
 30
0.0
 10
81.88573504094018
 20
88.88703794019398
 30
0.0
  0
SPLINE
  5
2F3
330
1F
100
AcDbEntity
  8
0
  6
Continuous
 62
     7
370
    15
100
AcDbSpline
210
0.0
220
0.0
230
1.0
 70
     8
 71
     3
 72
    50
 73
    46
 74
     0
 42
0.00000001
 43
0.00000001
 40
0.0
 40
0.0
 40
0.0
 40
0.0
 40
0.0624999999999998
 40
0.0624999999999998
 40
0.0937499999999998
 40
0.0937499999999998
 40
0.1249999999999999
 40
0.1249999999999999
 40
0.1874999999999999
 40
0.1874999999999999
 40
0.2187499999999999
 40
0.2187499999999999
 40
0.2499999999999998
 40
0.2499999999999998
 40
0.3124999999999997
 40
0.3124999999999997
 40
0.3749999999999995
 40
0.3749999999999995
 40
0.4062499999999995
 40
0.4062499999999995
 40
0.4374999999999994
 40
0.4374999999999994
 40
0.4999999999999994
 40
0.4999999999999994
 40
0.5624999999999993
 40
0.5624999999999993
 40
0.6249999999999993
 40
0.6249999999999993
 40
0.6562499999999993
 40
0.6562499999999993
 40
0.6874999999999993
 40
0.6874999999999993
 40
0.7187499999999993
 40
0.7187499999999993
 40
0.7499999999999993
 40
0.7499999999999993
 40
0.8124999999999996
 40
0.8124999999999996
 40
0.8749999999999997
 40
0.8749999999999997
 40
0.9374999999999999
 40
0.9374999999999999
 40
0.96875
 40
0.96875
 40
1.0
 40
1.0
 40
1.0
 40
1.0
 10
78.33956204379565
 20
150.5335183752861
 30
0.0
 10
78.33956204379565
 20
150.5335183752861
 30
0.0
 10
78.39185618574871
 20
150.5473844786674
 30
0.0
 10
78.54520872058147
 20
150.5868216215514
 30
0.0
 10
78.60890621593268
 20
150.6030743238164
 30
0.0
 10
78.7619978662225
 20
150.6414230336668
 30
0.0
 10
78.85165396818331
 20
150.6635764800748
 30
0.0
 10
79.15323535635736
 20
150.7363324259369
 30
0.0
 10
79.39897678679134
 20
150.7936131287816
 30
0.0
 10
79.83413685314201
 20
150.8876055682374
 30
0.0
 10
79.99127768060319
 20
150.9204645354306
 30
0.0
 10
80.3239167733275
 20
150.9870405888788
 30
0.0
 10
80.49898272876753
 20
151.0206840267177
 30
0.0
 10
81.04983825946914
 20
151.1212448912948
 30
0.0
 10
81.4510226686558
 20
151.1878077010449
 30
0.0
 10
82.32451187474318
 20
151.3125067563444
 30
0.0
 10
82.78655246772563
 20
151.3690297654151
 30
0.0
 10
83.50766788131953
 20
151.4396987000299
 30
0.0
 10
83.75322851900292
 20
151.4609749101014
 30
0.0
 10
84.25501681816112
 20
151.4982806363433
 30
0.0
 10
84.51277803447779
 20
151.5143718332033
 30
0.0
 10
85.28789049869756
 20
151.553013304811
 30
0.0
 10
85.80831968241723
 20
151.5662027233674
 30
0.0
 10
86.85645552320261
 20
151.5664414468255
 30
0.0
 10
87.38896385357637
 20
151.5530414441213
 30
0.0
 10
88.41665411574299
 20
151.5019774559262
 30
0.0
 10
88.91641829632471
 20
151.464538321172
 30
0.0
 10
89.64491329634518
 20
151.3933748382535
 30
0.0
 10
89.88426428879066
 20
151.367106380061
 30
0.0
 10
90.34550276027753
 20
151.3114249073087
 30
0.0
 10
90.56876941534479
 20
151.2818871353728
 30
0.0
 10
91.00095702136686
 20
151.2202799903451
 30
0.0
 10
91.20987760160685
 20
151.1882090476239
 30
0.0
 10
91.61330252713054
 20
151.1223920706545
 30
0.0
 10
91.80878218709991
 20
151.0884618521913
 30
0.0
 10
92.36464040063613
 20
150.9870332246111
 30
0.0
 10
92.6941977872677
 20
150.920114195921
 30
0.0
 10
93.27359328505365
 20
150.7950886335792
 30
0.0
 10
93.52511325649803
 20
150.7365118393451
 30
0.0
 10
93.92656775311158
 20
150.6396769877001
 30
0.0
 10
94.07905074865869
 20
150.600922028141
 30
0.0
 10
94.23436169783392
 20
150.5609944977047
 30
0.0
 10
94.27387514524008
 20
150.5507027064542
 30
0.0
 10
94.32638849253586
 20
150.5369864939152
 30
0.0
 10
94.33956204379562
 20
150.5335183752861
 30
0.0
 10
94.33956204379562
 20
150.5335183752861
 30
0.0
  0
SPLINE
  5
2F4
330
1F
100
AcDbEntity
  8
0
  6
Continuous
 62
     7
370
    15
100
AcDbSpline
210
0.0
220
0.0
230
1.0
 70
     8
 71
     3
 72
    20
 73
    16
 74
     0
 42
0.00000001
 43
0.00000001
 40
0.0
 40
0.0
 40
0.0
 40
0.0
 40
0.2499999999999995
 40
0.2499999999999995
 40
0.3749999999999996
 40
0.3749999999999996
 40
0.4999999999999997
 40
0.4999999999999997
 40
0.6249999999999998
 40
0.6249999999999998
 40
0.7499999999999998
 40
0.7499999999999998
 40
0.8749999999999999
 40
0.8749999999999999
 40
1.0
 40
1.0
 40
1.0
 40
1.0
 10
61.88087238142825
 20
139.9163229021219
 30
0.0
 10
62.41152914926293
 20
140.5701853304193
 30
0.0
 10
62.94525714552443
 20
141.1739711124165
 30
0.0
 10
63.72822946351318
 20
142.0008098485851
 30
0.0
 10
63.98621306360985
 20
142.263238486538
 30
0.0
 10
64.49060832001769
 20
142.7599011406429
 30
0.0
 10
64.73338674244569
 20
142.9904880196645
 30
0.0
 10
65.18406682195877
 20
143.4070422442471
 30
0.0
 10
65.39353068795003
 20
143.5945400462146
 30
0.0
 10
65.77181920453808
 20
143.925937023851
 30
0.0
 10
65.93556689072257
 20
144.0654410113463
 30
0.0
 10
66.203752692922
 20
144.2908945188173
 30
0.0
 10
66.30897710100875
 20
144.3775206303609
 30
0.0
 10
66.45303632632226
 20
144.495501419215
 30
0.0
 10
66.48956204379566
 20
144.5250125644893
 30
0.0
 10
66.48956204379566
 20
144.5250125644893
 30
0.0
  0
CIRCLE
  5
2F5
330
1F
100
AcDbEntity
  8
VERMASSUNG
  6
CENTERX2
100
AcDbCircle
 10
86.3395620438
 20
115.1083464915
 30
0.0
 40
40.00000000000001
  0
DIMENSION
  5
2F6
330
1F
100
AcDbEntity
  8
VERMASSUNG
100
AcDbDimension
  2
*D6
 10
38.8395620438
 20
155.1083464915
 30
0.0
 11
38.8395620438
 21
115.1083464915
 31
0.0
 70
   160
  1
%%c<>
 71
     2
 42
-1.0
  3
SLDDIMSTYLE2
100
AcDbAlignedDimension
 13
86.3395620438
 23
75.1083464915
 33
0.0
 14
86.3395620438
 24
155.1083464915
 34
0.0
 50
90.0
100
AcDbRotatedDimension
  0
INSERT
  5
30D
330
1F
100
AcDbEntity
  8
VERMASSUNG
100
AcDbBlockReference
  2
SW_CENTERMARKSYMBOL_0
 10
86.3395620438
 20
120.0663229021
 30
0.0
  0
OLE2FRAME
  5
30E
330
1F
100
AcDbEntity
  8
0
100
AcDbOle2Frame
 70
     2
  3
Bitmap Image
 10
13.8511154363
 20
38.264191557
 30
0.0
 11
51.6290888628
 21
31.9806341108
 31
0.0
 71
     2
 72
     0
 73
     1
 90
    12928
310
80552BED0767C5B32B40DDAF6807D121434000000000000000006FFBDDFB85D0
310
4940DDAF6807D121434000000000000000006FFBDDFB85D04940416F4BD60AFB
310
3F4000000000000000002BED0767C5B32B40416F4BD60AFB3F40000000000000
310
0000000000000100000000010000010000000100000000000100000000320000
310
D0CF11E0A1B11AE1000000000000000000000000000000003E000300FEFF0900
310
0600000000000000000000000100000001000000000000000010000002000000
310
01000000FEFFFFFF0000000000000000FFFFFFFFFFFFFFFFFFFFFFFFFFFFFFFF
310
FFFFFFFFFFFFFFFFFFFFFFFFFFFFFFFFFFFFFFFFFFFFFFFFFFFFFFFFFFFFFFFF
310
FFFFFFFFFFFFFFFFFFFFFFFFFFFFFFFFFFFFFFFFFFFFFFFFFFFFFFFFFFFFFFFF
310
FFFFFFFFFFFFFFFFFFFFFFFFFFFFFFFFFFFFFFFFFFFFFFFFFFFFFFFFFFFFFFFF
310
FFFFFFFFFFFFFFFFFFFFFFFFFFFFFFFFFFFFFFFFFFFFFFFFFFFFFFFFFFFFFFFF
310
FFFFFFFFFFFFFFFFFFFFFFFFFFFFFFFFFFFFFFFFFFFFFFFFFFFFFFFFFFFFFFFF
310
FFFFFFFFFFFFFFFFFFFFFFFFFFFFFFFFFFFFFFFFFFFFFFFFFFFFFFFFFFFFFFFF
310
FFFFFFFFFFFFFFFFFFFFFFFFFFFFFFFFFFFFFFFFFFFFFFFFFFFFFFFFFFFFFFFF
310
FFFFFFFFFFFFFFFFFFFFFFFFFFFFFFFFFFFFFFFFFFFFFFFFFFFFFFFFFFFFFFFF
310
FFFFFFFFFFFFFFFFFFFFFFFFFFFFFFFFFFFFFFFFFFFFFFFFFFFFFFFFFFFFFFFF
310
FFFFFFFFFFFFFFFFFFFFFFFFFFFFFFFFFFFFFFFFFFFFFFFFFFFFFFFFFFFFFFFF
310
FFFFFFFFFFFFFFFFFFFFFFFFFFFFFFFFFFFFFFFFFFFFFFFFFFFFFFFFFFFFFFFF
310
FFFFFFFFFFFFFFFFFFFFFFFFFFFFFFFFFFFFFFFFFFFFFFFFFFFFFFFFFFFFFFFF
310
FFFFFFFFFFFFFFFFFFFFFFFFFFFFFFFFFFFFFFFFFFFFFFFFFFFFFFFFFFFFFFFF
310
FDFFFFFFFEFFFFFFFEFFFFFFFEFFFFFF05000000060000000700000008000000
310
090000000A0000000B0000000C0000000D0000000E0000000F00000010000000
310
11000000120000001300000014000000150000001600000017000000FEFFFFFF
310
FFFFFFFFFFFFFFFFFFFFFFFFFFFFFFFFFFFFFFFFFFFFFFFFFFFFFFFFFFFFFFFF
310
FFFFFFFFFFFFFFFFFFFFFFFFFFFFFFFFFFFFFFFFFFFFFFFFFFFFFFFFFFFFFFFF
310
FFFFFFFFFFFFFFFFFFFFFFFFFFFFFFFFFFFFFFFFFFFFFFFFFFFFFFFFFFFFFFFF
310
FFFFFFFFFFFFFFFFFFFFFFFFFFFFFFFFFFFFFFFFFFFFFFFFFFFFFFFFFFFFFFFF
310
FFFFFFFFFFFFFFFFFFFFFFFFFFFFFFFFFFFFFFFFFFFFFFFFFFFFFFFFFFFFFFFF
310
FFFFFFFFFFFFFFFFFFFFFFFFFFFFFFFFFFFFFFFFFFFFFFFFFFFFFFFFFFFFFFFF
310
FFFFFFFFFFFFFFFFFFFFFFFFFFFFFFFFFFFFFFFFFFFFFFFFFFFFFFFFFFFFFFFF
310
FFFFFFFFFFFFFFFFFFFFFFFFFFFFFFFFFFFFFFFFFFFFFFFFFFFFFFFFFFFFFFFF
310
FFFFFFFFFFFFFFFFFFFFFFFFFFFFFFFFFFFFFFFFFFFFFFFFFFFFFFFFFFFFFFFF
310
FFFFFFFFFFFFFFFFFFFFFFFFFFFFFFFFFFFFFFFFFFFFFFFFFFFFFFFFFFFFFFFF
310
FFFFFFFFFFFFFFFFFFFFFFFFFFFFFFFFFFFFFFFFFFFFFFFFFFFFFFFFFFFFFFFF
310
FFFFFFFFFFFFFFFFFFFFFFFFFFFFFFFFFFFFFFFFFFFFFFFFFFFFFFFFFFFFFFFF
310
FFFFFFFFFFFFFFFFFFFFFFFFFFFFFFFFFFFFFFFFFFFFFFFFFFFFFFFFFFFFFFFF
310
52006F006F007400200045006E00740072007900000000000000000000000000
310
0000000000000000000000000000000000000000000000000000000000000000
310
16000500FFFFFFFFFFFFFFFF020000000A00030000000000C000000000000046
310
000000000000000000000000B05B6107ACB7CB0103000000C000000000000000
310
01004F006C006500000000000000000000000000000000000000000000000000
310
0000000000000000000000000000000000000000000000000000000000000000
310
0A000200FFFFFFFFFFFFFFFFFFFFFFFF00000000000000000000000000000000
310
0000000000000000000000000000000000000000000000001400000000000000
310
010043006F006D0070004F0062006A0000000000000000000000000000000000
310
0000000000000000000000000000000000000000000000000000000000000000
310
120002010100000003000000FFFFFFFF00000000000000000000000000000000
310
0000000000000000000000000000000000000000010000004D00000000000000
310
01004F006C006500310030004E00610074006900760065000000000000000000
310
0000000000000000000000000000000000000000000000000000000000000000
310
1A000200FFFFFFFFFFFFFFFFFFFFFFFF00000000000000000000000000000000
310
0000000000000000000000000000000000000000040000002426000000000000
310
FEFFFFFF02000000FEFFFFFFFFFFFFFFFFFFFFFFFFFFFFFFFFFFFFFFFFFFFFFF
310
FFFFFFFFFFFFFFFFFFFFFFFFFFFFFFFFFFFFFFFFFFFFFFFFFFFFFFFFFFFFFFFF
310
FFFFFFFFFFFFFFFFFFFFFFFFFFFFFFFFFFFFFFFFFFFFFFFFFFFFFFFFFFFFFFFF
310
FFFFFFFFFFFFFFFFFFFFFFFFFFFFFFFFFFFFFFFFFFFFFFFFFFFFFFFFFFFFFFFF
310
FFFFFFFFFFFFFFFFFFFFFFFFFFFFFFFFFFFFFFFFFFFFFFFFFFFFFFFFFFFFFFFF
310
FFFFFFFFFFFFFFFFFFFFFFFFFFFFFFFFFFFFFFFFFFFFFFFFFFFFFFFFFFFFFFFF
310
FFFFFFFFFFFFFFFFFFFFFFFFFFFFFFFFFFFFFFFFFFFFFFFFFFFFFFFFFFFFFFFF
310
FFFFFFFFFFFFFFFFFFFFFFFFFFFFFFFFFFFFFFFFFFFFFFFFFFFFFFFFFFFFFFFF
310
FFFFFFFFFFFFFFFFFFFFFFFFFFFFFFFFFFFFFFFFFFFFFFFFFFFFFFFFFFFFFFFF
310
FFFFFFFFFFFFFFFFFFFFFFFFFFFFFFFFFFFFFFFFFFFFFFFFFFFFFFFFFFFFFFFF
310
FFFFFFFFFFFFFFFFFFFFFFFFFFFFFFFFFFFFFFFFFFFFFFFFFFFFFFFFFFFFFFFF
310
FFFFFFFFFFFFFFFFFFFFFFFFFFFFFFFFFFFFFFFFFFFFFFFFFFFFFFFFFFFFFFFF
310
FFFFFFFFFFFFFFFFFFFFFFFFFFFFFFFFFFFFFFFFFFFFFFFFFFFFFFFFFFFFFFFF
310
FFFFFFFFFFFFFFFFFFFFFFFFFFFFFFFFFFFFFFFFFFFFFFFFFFFFFFFFFFFFFFFF
310
FFFFFFFFFFFFFFFFFFFFFFFFFFFFFFFFFFFFFFFFFFFFFFFFFFFFFFFFFFFFFFFF
310
FFFFFFFFFFFFFFFFFFFFFFFFFFFFFFFFFFFFFFFFFFFFFFFFFFFFFFFFFFFFFFFF
310
010000020000000000000000000000000000000061007200300282005C103104
310
A00D6E5100000000C802250000000000680061007200650064005C003B004300
310
0100FEFF030A0000FFFFFFFF0A00030000000000C00000000000004607000000
310
5042727573680007000000504272757368000700000050427275736800F439B2
310
71000000000000000000000000004100540049002E004100430045005C004300
310
6F00720065002D005300740061007400690063003B0043003A005C0050007200
310
6F006700720061006D002000460069006C006500730020002800780038003600
310
29005C0043006F006D006D006F006E002000460069006C00650073005C004100
310
750074006F006400650073006B0020005300680061007200650064005C003B00
310
43003A005C00500072006F006700720061006D002000460069006C0065007300
310
5C004E006F0072006D0061006E005C004E0070006D005C00420069006E000000
310
43003A005C00500072006F006700720061006D002000460069006C0065007300
310
5C0053006F006C006900640057006F0072006B007300200043006F0072007000
310
5C0053006F006C006900640057006F0072006B00730020002800320029005C00
310
730065007400750070005C0069003300380036005C0073007700610063007400
310
770069007A002E006500780065000000220043003A005C00500072006F006700
310
20260000424D0E260000000000003E00000028000000B40200006E0000000100
310
01000000000000000000130B0000130B00000200000002000000000000FFFFFF
310
FFFFFFFFFFFFFFFFFFFFFFFFFFFFFFFFFFFFFFFFFFFFFFFFFFFFFFFFFFFFFFFF
310
FFFFFFFFFFFFFFFFFFFFFFFFFFFFFFFFFFFFFFFFFFFFFFFFFFFFFFFFFFFFFFFF
310
FFFFFFFFFFFFFFFFFFFFFFFFFFFFFFFFFFFFFFFFFFFFFFFFF000FFFFFFFFFFFF
310
FFFFFFFFFFFFFFFFFFFFFFFFFFFFFFFFFFFFFFFFFFFFFFFFFFFFFFFFFFFFFFFF
310
FFFFFFFFFFFFFFFFFFFFFFFFFFFFFFFFFFFFFFFFFFFFFFFFFFFFFFFFFFFFFFFF
310
FFFFFFFFFFFFFFFFFFFFFFFFFFFFFFFFF000FFFFFFFFFFFFFFFFFFFFFFFFFFFF
310
FFFFFFFFFFFFFFFFFFFFFFFFFFFFFFFFFFFFFFFFFFFFFFFFFFFFFFFFFFFFFFFF
310
FFFFFFFFFFFFFFFFFFFFFFFFFFFFFFFFFFFFFFFFFFFFFFFFFFFFFFFFFFFFFFFF
310
FFFFFFFFFFFFFFFFF000FFFFFFFFFFFFFFFFFFFFFFFFFFFFFFFFFFFFFFFFFFFF
310
FFFFFFFFFFFFFFFFFFFFFFFFFFFFFFFFFFFFFFFFFFFFFFFFFFFFFFFFFFFFFFFF
310
FFFFFFFFFFFFFFFFFFFFFFFFFFFFFFFFFFFFFFFFFFFFFFFFFFFFFFFFFFFFFFFF
310
F000FFFFFFFFFFFFFFFFFFFFFFFFFFFFFFFFFFFFFFFFFFFFFFFFFFFFFFFFFFFF
310
FFFFFFFFFFFFFFFFFFFFFFFFFFFFFFFFFFFFFFFFFFFFFFFFFFFFFFFFFFFFFFFF
310
FFFFFFFFFFFFFFFFFFFFFFFFFFFFFFFFFFFFFFFFFFFFFFFFF000FFFFFFFFFFFF
310
FFFFFFFFFFFFFFFFFFFFFFFFFFFFFFFFFFFFFFFFFFFFFFFFFFFFFFFFFFFFFFFF
310
FFFFFFFFFFFFFFFFFFFFFFFFFFFFFFFFFFFFFFFFFFFFFFFFFFFFFFFFFFFFFFFF
310
FFFFFFFFFFFFFFFFFFFFFFFFFFFFFFFFF000FFFFFFFFFFFFFFFFFFFFFFFFFFFF
310
FFFFFFFFFFFFFFFFFFFFFFFFFFFFFFFFFFFFFFFFFFFFFFFFFFFFFFFFFFFFFFFF
310
FFFFFFFFFFFFFFFFFFFFFFFFFFFFFFFFFFFFFFFFFFFFFFFFFFFFFFFFFFFFFFFF
310
FFFFFFFFFFFFFFFFF000FFFFFFFFFFFFFFFFFFFFFFFFFFFFFFFFFFFFFFFFFFFF
310
FFFFFFFFFFFFFFFFFFFFFFFFFFFFFFFFFFFFFFFFFFFFFFFFFFFFFFFFFFFFFFFF
310
FFFFFFFFFFFFFFFFFFFFFFFFFFFFFFFFFFFFFFFFFFFFFFFFFFFFFFFFFFFFFFFF
310
F000FFFFFFFFFFFFFFFFFFFFFFFFFFFFFFFFFFFFFFFFFFFFFFFFFFFFFFFFFFFF
310
FFFFFFFFFFFFFFFFFFFFFFFFFFFFFFFFFFFFFFFFFFFFFFFFFFFFFFFFFFFFFFFF
310
FFFFFFFFFFFFFFFFFFFFFFFFFFFFFFFFFFFFFFFFFFFFFFFFF000FFFFFFFFFFFF
310
FFFFFFFFFFFFFFFFFFFFFFFFFFFFFFFFFFFFFFFFFFFFFFFFFFFFFFFFFFFFFFFF
310
FFFFFFFFFFFFFFFFFFFFFFFFFFFFFFFFFFFFFFFFFFFFFFFFFFFFFFFFFFFFFFFF
310
FFFFFFFFFFFFFFFFFFFFFFFFFFFFFFFFF000FFFFFFFFFFFFFFFFFFFFFFFFFFFF
310
FFFFFFFFFFFFFFFFFFFFFFFFFFFFFFFFFFFFFFFFFFFFFFFFFFFFFFFFFFFFFFFF
310
FFFFFFFFFFFFFFFFFFFFFFFFFFFFFFFFFFFFFFFFFFFFFFFFFFFFFFFFFFFFFFFF
310
FFFFFFFFFFFFFFFFF000FFFFFFFFFFFFFFFFFFFFFFFFFFFFFFFFFFFFFFFFFFFF
310
FFFFFFFFFFFFFFFFFFFFFFFFFFFFFFFFFFFFFFFFFFFFFFFFFFFFFFFFFFFFFFFF
310
FFFFFFFFFFFFFFFFFFFFFFFFFFFFFFFFFFFFFFFFFFFFFFFFFFFFFFFFFFFFFFFF
310
F000FFFFFFFFFFFFFFFFFFFFFFFFFFFFFFFFFFFFFFFFFFFFFFFFFFFFFFFFFFFF
310
FFFFFFFFFFFFFFFFFFFFFFFFFFFFFFFFFFFFFFFFFFFFFFFFFFFFFFFFFFFFFFFF
310
FFFFFFFFFFFFFFFFFFFFFFFFFFFFFFFFFFFFFFFFFFFFFFFFF000FFFFFFFFFFFF
310
FFFFFFFFFFFFFFFFFFFFFFFFFFFFFFFFFFFFFFFFFFFFFFFFFFFFFFFFFFFFFFFF
310
FFFFFFFFFFFFFFFFFFFFFFFFFFFFFFFFFFFFFFFFFFFFFFFFFFFFFFFFFFFFFFFF
310
FFFFFFFFFFFFFFFFFFFFFFFFFFFFFFFFF000FFFFFFFFFFFFFFFFFFFFFFFFFFFF
310
FFFFFFFFFFFFFFFFFFFFFFFFFFFFFFFFFFFFFFFFFFFFFFFFFFFFFFFFFFFFFFFF
310
FFFFFFFFFFFFFFFFFFFFFFFFFFFFFFFFFFFFFFFFFFFFFFFFFFFFFFFFFFFFFFFF
310
FFFFFFFFFFFFFFFFF000FFFFFFFFFFFFFFFFFFFFFFFFFFFFFFFFFFFFFFFFFFFF
310
FFFFFFFFFFFFFFFFFFFFFFFFFFFFFFFFFFFFFFFFFFFFFFFFFFFFFFFFFFFFFFFF
310
FFFFFFFFFFFFFFFFFFFFFFFFFFFFFFFFFFFFFFFFFFFFFFFFFFFFFFFFFFFFFFFF
310
F000FFFFFFFFFFFFFFFFFFFFFFFFFFFFFFFFFFFFFFFFFFFFFFFFFFFFFFFFFFFF
310
FFFFFFFFFFFFFFFFFFFFFFFFFFFFFFFFFFFFFFFFFFFFFFFFFFFFFFFFFFFFFFFF
310
FFFFFFFFFFFFFFFFFFFFFFFFFFFFFFFFFFFFFFFFFFFFFFFFF000FFFFFFFFFFFF
310
FFFFFFFFFFFFFFFFFFFFFFFFFFFFFFFFFFFFFFFFFFFFFFFFFFFFFFFFFFFFFFFF
310
FFFFFFFFFFFFFFFFFFFFFFFFFFFFFFFFFFFFFFFFFFFFFFFFFFFFFFFFFFFFFFFF
310
FFFFFFFFFFFFFFFFFFFFFFFFFFFFFFFFF000FFFFFFFFFFFFFFFFFFFFFFFFFFFF
310
FFFFFFFFFFFFFFFFFFFFFFFFFFFFFFFFFFFFFFFFFFFFFFFFFFFFFFFFFFFFFFFF
310
FFFFFFFFFFFFFFFFFFFFFFFFFFFFFFFFFFFFFFFFFFFFFFFFFFFFFFFFFFFFFFFF
310
FFFFFFFFFFFFFFFFF000FFFFF80003FFFFFFFFFFFFFFFFFFFFFFFFFFFFFFFFFF
310
FFFFF00007FFFFFFFFFF00007FFFFFF800000000000000007FFFFFFFFFFFFFFF
310
FFFFFFFC001FFFFFFFFFFFFFFC001FFFFFFFFFFFFFFFFFFFFFFFFFFE0007FFFF
310
F000FFFF8000007FFFFFFFF8000FFFFFC0007FFFFF80007FFFFF0000007FFFFF
310
FFF8000007FFFFF800000000000000007FFFFFF0001FFFFFFFFFFFC00001FFFF
310
FFFFFFFFC00001FFFFFFFF000000000003FFFFE000007FFFF000FFFE0000000F
310
FFFFFFF0000FFFFF80007FFFFF80007FFFFC0000001FFFFFFFC0000001FFFFF8
310
00000000000000007FFFFFF0001FFFFFFFFFFE0000003FFFFFFFFFFE0000003F
310
FFFFFF000000000003FFFF0000000FFFF000FFF800000003FFFFFFF00007FFFF
310
80007FFFFF80007FFFF000000007FFFFFF000000003FFFF80000000000000000
310
7FFFFFF0001FFFFFFFFFF80000000FFFFFFFFFF80000000FFFFFFF0000000000
310
03FFFC00000003FFF000FFE000000000FFFFFFF00007FFFF80003FFFFF80007F
310
FFC000000001FFFFFC000000001FFFF800000000000000007FFFFFF0001FFFFF
310
FFFFE000000003FFFFFFFFE000000003FFFFFF000000000003FFF000000000FF
310
F000FF80000000007FFFFFF00007FFFF80003FFFFF80007FFF8000000000FFFF
310
F80000000007FFF800000000000000007FFFFFF0001FFFFFFFFFC000000001FF
310
FFFFFFC000000001FFFFFF000000000003FFC0000000007FF000FF0000000000
310
3FFFFFE00007FFFF00003FFFFF80007FFE00000000003FFFF00000000003FFF8
310
00000000000000007FFFFFF0001FFFFFFFFF8000000000FFFFFFFF8000000000
310
FFFFFF000000000003FF80000000003FF000FE00000000001FFFFFE00003FFFF
310
00003FFFFF80007FFC00000000001FFFE00000000001FFF8000001FFFE000000
310
7FFFFFF0001FFFFFFFFE00000000003FFFFFFE00000000003FFFFF0000000000
310
03FF00000000001FF000FC00000000000FFFFFE00003FFFF00001FFFFF80007F
310
F800000000001FFFC00000000000FFF8000001FFFE0000007FFFFFF0001FFFFF
310
FFFC00000000001FFFFFFC00000000001FFFFF000000000003FE00000000000F
310
F000F8000000000007FFFFE00003FFFF00001FFFFF80007FF800000000000FFF
310
800000000000FFF8000001FFFE0000007FFFFFF0001FFFFFFFF800000000000F
310
FFFFF800000000000FFFFF000000000003FC000000000007F000F80000000000
310
03FFFFC00003FFFE00001FFFFF80007FF0000000000007FF0000000000007FF8
310
000001FFFE0000007FFFFFF0001FFFFFFFF0000000000007FFFFF00000000000
310
07FFFF000000000003F8000000000003F000F0000000000003FFFFC00001FFFE
310
00001FFFFF80007FE0000000000007FE0000000000003FF8000001FFFE000000
310
7FFFFFF0001FFFFFFFF0000000000007FFFFF0000000000007FFFF0000000000
310
03F800001F800003F000E00001FFF00001FFFFC00001FFFE00000FFFFF80007F
310
E00001FFE00003FE00001FFF00003FF8000001FFFE0000007FFFFFF0001FFFFF
310
FFE000003E000003FFFFE000003E000003FFFF000000000003F00001FFF80001
310
F000E00007FFFC0001FFFFC00001FFFE00000FFFFF80007FC0000FFFFC0003FC
310
0000FFFFC0001FF8000001FFFE0000007FFFFFF0001FFFFFFFC00003FFE00001
310
FFFFC00003FFE00001FFFF0001FFFFFFFFF00007FFFE0001F000E0000FFFFF00
310
00FFFF800001FFFC00000FFFFF80007FC0001FFFFE0001FC0001FFFFE0001FF8
310
000001FFFE0000007FFFFFF0001FFFFFFF80000FFFF80000FFFF80000FFFF800
310
00FFFF0003FFFFFFFFE0000FFFFF8000F000C0003FFFFF8000FFFF800000FFFC
310
000007FFFF80007F80003FFFFF0001FC0003FFFFF0001FF8000001FFFE000000
310
7FFFFFF0001FFFFFFF80003FFFFE0000FFFF80003FFFFE0000FFFF0003FFFFFF
310
FFE0003FFFFF8000F000C0003FFFFF8000FFFF800000FFFC000007FFFF80007F
310
80007FFFFF8001F80007FFFFF8000FF8000001FFFE0000007FFFFFF0001FFFFF
310
FF00007FFFFF00007FFF00007FFFFF00007FFF0003FFFFFFFFE0003FFFFFC000
310
F000C0007FFFFFC000FFFF000000FFFC000007FFFF80007F8000FFFFFF8000F8
310
000FFFFFF8000FF8000001FFFE0000007FFFFFF0001FFFFFFF0000FFFFFF8000
310
7FFF0000FFFFFF80007FFF0003FFFFFFFFC0007FFFFFC00070008000FFFFFFC0
310
00FFFF000000FFF8000007FFFF80007F8000FFFFFF8000F8000FFFFFF8000FF8
310
000001FFFE0000007FFFFFF0001FFFFFFE0001FFFFFFC0003FFE0001FFFFFFC0
310
003FFF0003FFFFFFFFC0007FFFFFE00070008000FFFFFFC0007FFF0000007FF8
310
000003FFFF80007F0001FFFFFF8000F8000FFFFFF8000FF8000001FFFE000000
310
7FFFFFF0001FFFFFFE0001FFFFFFC0003FFE0001FFFFFFC0003FFF0003FFFFFF
310
FFC000FFFFFFE00070008000FFFFFFC0007FFF0000007FF8000003FFFF80007F
310
0001FFFFFF8000F8001FFFFFF8000FF8000001FFFE0000007FFFFFF0001FFFFF
310
FE0003FFFFFFE0003FFE0003FFFFFFE0003FFF0003FFFFFFFFC000FFFFFFE000
310
70008000FFFFFFC0007FFE0000007FF8000003FFFF80007F0001FFFFFF8000F0
310
001FFFFFF8000FF8000001FFFE0000007FFFFFF0001FFFFFFC0003FFFFFFE000
310
1FFC0003FFFFFFE0001FFF0003FFFFFFFFC000FFFFFFC00070008000FFFFFF80
310
007FFE0000007FF0000003FFFF80007F0001FFFFFF0000F0001FFFFFF8000FF8
310
000001FFFE0000007FFFFFF0001FFFFFFC0007FFFFFFF0001FFC0007FFFFFFF0
310
001FFF0003FFFFFFFFC000FFFFFFC00070008001FFFFFF0000FFFE0000003FF0
310
000001FFFF80007F0001FFFFFF0000F8001FFFFFF0000FF8000001FFFE000000
310
7FFFFFF0001FFFFFFC0007FFFFFFF0001FFC0007FFFFFFF0001FFF0003FFFFFF
310
FFC001FFFFFF80007000FFFFFFFFFE0000FFFE0008003FF0008001FFFF80007F
310
FFFFFFFFFC0000FFFFFFFFFFE0000FF8000001FFFE0000007FFFFFF0001FFFFF
310
F8000FFFFFFFF8000FF8000FFFFFFFF8000FFF0003FFFFFFFFFFFFFFFFFF0000
310
7000FFFFFFFFFC0000FFFC0008003FF0008001FFFF80007FFFFFFFFFF80001FF
310
FFFFFFFF80000FF8000001FFFE0000007FFFFFF0001FFFFFF8000FFFFFFFF800
310
0FF8000FFFFFFFF8000FFF0003FFFFFFFFFFFFFFFFFE0000F000FFFFFFFFE000
310
00FFFC000C003FE000C001FFFF80007FFFFFFFFFC00001FFFFFFFFFE00001FF8
310
000001FFFE0000007FFFFFF0001FFFFFF8000FFFFFFFF8000FF8000FFFFFFFF8
310
000FFF0003FFFFFFFFFFFFFFFFF00000F000FFFFFFFE000001FFFC000C001FE0
310
00C000FFFF80007FFFFFFFFE000001FFFFFFFFE000001FF80FFFFFFFFFFFFFC0
310
7FFFFFF0001FFFFFF8000FFFFFFFF8000FF8000FFFFFFFF8000FFF0003FFFFFF
310
FFFFFFFFFF800000F000FFFFFFC0000001FFFC001C001FE001C000FFFF80007F
310
FFFFFF80000003FFFFFFF80000001FF80FFFFFFFFFFFFFC07FFFFFF0001FFFFF
310
F8001FFFFFFFFC000FF8001FFFFFFFFC000FFF0003FFFFFFFFFFFFFFF0000001
310
F000FFFFF800000001FFF8001C001FE001C000FFFF80007FFFFFF800000003FF
310
FFFF800000003FF80FFFFFFFFFFFFFC07FFFFFF0001FFFFFF8001FFFFFFFFC00
310
0FF8001FFFFFFFFC000FFF0003FFFFFFFFFFFFFE00000001F000FFFFC0000000
310
03FFF8001E001FC001E000FFFF80007FFFFF8000000007FFFFFC000000003FF8
310
0FFFFFFFFFFFFFC07FFFFFF0001FFFFFF8001FFFFFFFFC000FF8001FFFFFFFFC
310
000FFF0003FFFFFFFFFFFFE000000003F000FFFE0000000007FFF8001E000FC0
310
01E0007FFF80007FFFFE0000000007FFFFE0000000007FF80FFFFFFFFFFFFFC0
310
7FFFFFF0001FFFFFF0001FFFFFFFFC0007F0001FFFFFFFFC0007FF0003FFFFFF
310
FFFFFF0000000003F000FFF80000000007FFF8001E000FC003E0007FFF80007F
310
FFF0000000000FFFFF8000000000FFF80FFFFFFFFFFFFFC07FFFFFF0001FFFFF
310
F0001FFFFFFFFC0007F0001FFFFFFFFC0007FF0003FFFFFFFFFFFC0000000007
310
F000FFE0000000000FFFF0003E000FC003E0007FFF80007FFFC0000000001FFF
310
FE0000000001FFF80FFFFFFFFFFFFFC07FFFFFF0001FFFFFF0001FFFFFFFFC00
310
07F0001FFFFFFFFC0007FF0003FFFFFFFFFFF0000000000FF000FFC000000000
310
1FFFF0003F000F8003F0003FFF80007FFF80000000003FFFF80000000003FFF8
310
0FFFFFFFFFFFFFC07FFFFFF0001FFFFFF0001FFFFFFFFC0007F0001FFFFFFFFC
310
0007FF0003FFFFFFFFFFE0000000001FF000FF00000000007FFFF0003F000780
310
03F0003FFF80007FFF00000000007FFFF00000000007FFF80FFFFFFFFFFFFFC0
310
7FFFFFF0001FFFFFF0001FFFFFFFFC0007F0001FFFFFFFFC0007FF0003FFFFFF
310
FFFF80000000007FF000FE0000000000FFFFE0003F00078007F0003FFF80007F
310
FE0000000001FFFFE0000000001FFFF80FFFFFFFFFFFFFC07FFFFFF0001FFFFF
310
F0001FFFFFFFFC0007F0001FFFFFFFFC0007FF0003FFFFFFFFFF0000000000FF
310
F000FC0000000003FFFFE0007F00078007F0003FFF80007FFC0000000007FFFF
310
C0000000007FFFF80FFFFFFFFFFFFFC07FFFFFF0001FFFFFF8001FFFFFFFFC00
310
0FF8001FFFFFFFFC000FFF0003FFFFFFFFFE0000000003FFF000FC000000000F
310
FFFFE0007F80070007F8001FFF80007FF8000000001FFFFF8000000001FFFFF8
310
0FFFFFFFFFFFFFC07FFFFFF0001FFFFFF8001FFFFFFFFC000FF8001FFFFFFFFC
310
000FFF0003FFFFFFFFFC000000000FFFF000F8000000007FFFFFE0007F800700
310
07F8001FFF80007FF000000000FFFFFF800000000FFFFFF80FFFFFFFFFFFFFC0
310
7FFFFFF0001FFFFFF8000FFFFFFFF8000FF8000FFFFFFFF8000FFF0003FFFFFF
310
FFFC000000007FFFF000F800000007FFFFFFC0007F8003000FF8001FFF80007F
310
F000000007FFFFFF000000007FFFFFF80FFFFFFFFFFFFFC07FFFFFF0001FFFFF
310
F8000FFFFFFFF8000FF8000FFFFFFFF8000FFF0003FFFFFFFFF80000000FFFFF
310
F000F0000000FFFFFFFFC000FF8003000FF8001FFF80007FE0000000FFFFFFFF
310
0000000FFFFFFFF8000001FFFE0000007FFFFFF0001FFFFFF8000FFFFFFFF800
310
0FF8000FFFFFFFF8000FFF0003FFFFFFFFF8000000FFFFFFF000F000000FFFFF
310
FFFFC000FFC002000FF8000FFF80007FE000001FFFFFFFFE000001FFFFFFFFF8
310
000001FFFE0000007FFFFFF0001FFFFFF8000FFFFFFFF8000FF8000FFFFFFFF8
310
000FFF0003FFFFFFFFF000001FFFFFFFF000E00000FFFFFFFFFFC000FFC00200
310
0FFC000FFF80007FE00001FFFFFFFFFE00001FFFFFFFFFF8000001FFFE000000
310
7FFFFFF0001FFFFFFC000FFFFFFFF8001FFC000FFFFFFFF8001FFF0003FFFFFF
310
FFF00001FFFFFFFFF000E00007FFFFFFFFFF8000FFC000001FFC000FFF80007F
310
C0000FFFFFFFFFFE0000FFFFFFFFFFF8000001FFFE0000007FFFFFF0001FFFFF
310
FC0007FFFFFFF0001FFC0007FFFFFFF0001FFF0003FFFFFFFFF00007FFFFFFFF
310
F000E0001FFFFFFFFFFF8000FFC000001FFC000FFF80007FC0003FFFFFFFFFFE
310
0001FFFFFFFFFFF8000001FFFE0000007FFFFFF0001FFFFFFC0007FFFFFFF000
310
1FFC0007FFFFFFF0001FFF0003FFFFFFFFF0001FFFFFFFFFF000E0003FFFFF00
310
03FF8001FFE000001FFC0007FF80007FC0007FFFFF0007FC0003FFFFF0003FF8
310
000001FFFE0000007FFFFFF0001FFFFFFC0003FFFFFFE0001FFC0003FFFFFFE0
310
001FFF0003FFFFFFFFF0003FFFFFFFFFF000E0003FFFFF0001FF8001FFE00000
310
1FFE0007FF80007FC0007FFFFE0003FC0007FFFFE0003FF8000001FFFE000000
310
7FFFFFF0001FFFFFFE0003FFFFFFE0003FFE0003FFFFFFE0003FFF0003FFFFFF
310
FFF0003FFFFF8001F000E0003FFFFF0001FF0001FFE000001FFE0007FF80007F
310
C0007FFFFE0003FC0007FFFFE0003FF8000001FFFE0000007FFFFFF0001FFFFF
310
FE0001FFFFFFC0003FFE0001FFFFFFC0003FFF0003FFFFFFFFF0003FFFFF0001
310
F000E0003FFFFF0003FF0001FFE000003FFE0007FF80007FC0007FFFFE0003FC
310
0007FFFFE0003FF8000001FFFE0000007FFFFFF0001FFFFFFF0001FFFFFFC000
310
7FFF0001FFFFFFC0007FFF0003FFFFFFFFF0003FFFFF0001F000E0003FFFFE00
310
03FF0003FFF000003FFE0003FF80007FC0007FFFFC0003FE0007FFFFE0003FF8
310
000001FFFE0000007FFFFFF0001FFFFFFF0000FFFFFF80007FFF0000FFFFFF80
310
007FFF0003FFFFFFFFF0003FFFFF0001F000E0003FFFFE0003FF0003FFF00000
310
3FFF0003FF80007FC0007FFFFC0007FE0007FFFFC0003FF8000001FFFE000000
310
7FFFFFF0001FFFFFFF80007FFFFF0000FFFF80007FFFFF0000FFFF0003FFFFFF
310
FFF0003FFFFF0003F000E0003FFFFC0003FE0003FFF000003FFF0003FF80007F
310
E0003FFFF80007FE0003FFFFC0007FF8000001FFFE0000007FFFFFF0001FFFFF
310
FF80003FFFFE0000FFFF80003FFFFE0000FFFF0003FFFFFFFFF0001FFFFE0003
310
F000F0001FFFF80003FE0003FFF000007FFF0001FF80007FE0003FFFF00007FE
310
0001FFFF80007FF8000001FFFE0000007FFFFFF0001FFFFFFFC0000FFFF80001
310
FFFFC0000FFFF80001FFFF0003FFFFFFFFF0001FFFFC0003F000F0000FFFF000
310
07FE0007FFF800007FFF0001FF80007FE0001FFFE00007FF0000FFFE00007FF8
310
000001FFFE0000007FFFFFF0001FFFFFFFC00003FFE00001FFFFC00003FFE000
310
01FFFF0003FFFFFFFFF8000FFFF80003F000F00003FFC00007FC0007FFF80000
310
7FFF8001FF80007FF00007FF80000FFF00007FF80000FFF8000001FFFE000000
310
7F80000000000001FFE000003E000003FFFFE000003E000003FFFF0003FFFFFF
310
FFF80003FFE00007F000F800000000000FFC0007FFF800007FFF8001FF80007F
310
F000000000000FFF000000000000FFF8000001FFFE0000007F80000000000001
310
FFF0000000000007FFFFF0000000000007FFFF0003FFFFFFFFFC00007E000007
310
F000F800000000000FFC0007FFF80000FFFF8000FF80007FF800000000001FFF
310
800000000001FFF8000001FFFE0000007F80000000000001FFF800000000000F
310
FFFFF800000000000FFFFF0003FFFFFFFFFC00000000000FF000FC0000000000
310
1FFC0007FFFC0000FFFF8000FF80007FF800000000003FFFC00000000001FFF8
310
000001FFFE0000007F80000000000001FFF800000000000FFFFFF80000000000
310
0FFFFF0003FFFFFFFFFE00000000001FF000FE00000000003FF8000FFFFC0000
310
FFFF8000FF80007FFC00000000003FFFC00000000003FFF8000001FFFE000000
310
7F80000000000001FFFC00000000001FFFFFFC00000000001FFFFF0003FFFFFF
310
FFFF00000000001FF000FF00000000003FF8000FFFFC0000FFFFC000FF80007F
310
FE00000000007FFFE00000000007FFF8000001FFFE0000007F80000000000001
310
FFFE00000000003FFFFFFE00000000003FFFFF0003FFFFFFFFFF80000000003F
310
F000FF80000000007FF8000FFFFC0001FFFFC0007F80007FFF0000000000FFFF
310
F0000000000FFFF800000000000000007F80000000000001FFFF8000000000FF
310
FFFFFF8000000000FFFFFF0003FFFFFFFFFFC0000000007FF000FFC000000000
310
FFF8000FFFFE0001FFFFC0007F80007FFF8000000001FFFFF8000000001FFFF8
310
00000000000000007F80000000000001FFFFC000000001FFFFFFFFC000000001
310
FFFFFF0003FFFFFFFFFFE000000000FFF000FFE000000003FFF0001FFFFE0001
310
FFFFC0007F80007FFFC000000007FFFFFE000000003FFFF80000000000000000
310
7F80000000000001FFFFE000000003FFFFFFFFE000000003FFFFFF0003FFFFFF
310
FFFFF000000003FFF000FFF80000000FFFF0001FFFFE0001FFFFE0007F80007F
310
FFF00000000FFFFFFF00000000FFFFF800000000000000007F80000000000001
310
FFFFF80000000FFFFFFFFFF80000000FFFFFFF0003FFFFFFFFFFFC0000000FFF
310
F000FFFE0000003FFFF0001FFFFE0003FFFFE0003F80007FFFFC0000003FFFFF
310
FFC0000003FFFFF800000000000000007F80000000000001FFFFFE0000003FFF
310
FFFFFFFE0000003FFFFFFF0003FFFFFFFFFFFF0000003FFFF000FFFF800000FF
310
FFF0001FFFFF0003FFFFE0003F80007FFFFF000001FFFFFFFFF800001FFFFFF8
310
00000000000000007F80000000000001FFFFFFC00001FFFFFFFFFFFFC00001FF
310
FFFFFF0003FFFFFFFFFFFFC00000FFFFF000FFFFF8000FFFFFFFFFFFFFFFFFFF
310
FFFFFFFFFFFFFFFFFFFFF0001FFFFFFFFFFF0000FFFFFFF80000000000000000
310
7FFFFFFFFFFFFFFFFFFFFFFC001FFFFFFFFFFFFFFC001FFFFFFFFFFFFFFFFFFF
310
FFFFFFFC001FFFFFF000FFFFFFFFFFFFFFFFFFFFFFFFFFFFFFFFFFFFFFFFFFFF
310
FFFFFFFFFFFFFFFFFFFFFFFFFFFFFFFFFFFFFFFFFFFFFFFFFFFFFFFFFFFFFFFF
310
FFFFFFFFFFFFFFFFFFFFFFFFFFFFFFFFFFFFFFFFFFFFFFFFFFFFFFFFFFFFFFFF
310
F000FFFFFFFFFFFFFFFFFFFFFFFFFFFFFFFFFFFFFFFFFFFFFFFFFFFFFFFFFFFF
310
FFFFFFFFFFFFFFFFFFFFFFFFFFFFFFFFFFFFFFFFFFFFFFFFFFFFFFFFFFFFFFFF
310
FFFFFFFFFFFFFFFFFFFFFFFFFFFFFFFFFFFFFFFFFFFFFFFFF000FFFFFFFFFFFF
310
FFFFFFFFFFFFFFFFFFFFFFFFFFFFFFFFFFFFFFFFFFFFFFFFFFFFFFFFFFFFFFFF
310
FFFFFFFFFFFFFFFFFFFFFFFFFFFFFFFFFFFFFFFFFFFFFFFFFFFFFFFFFFFFFFFF
310
FFFFFFFFFFFFFFFFFFFFFFFFFFFFFFFFF000FFFFFFFFFFFFFFFFFFFFFFFFFFFF
310
FFFFFFFFFFFFFFFFFFFFFFFFFFFFFFFFFFFFFFFFFFFFFFFFFFFFFFFFFFFFFFFF
310
FFFFFFFFFFFFFFFFFFFFFFFFFFFFFFFFFFFFFFFFFFFFFFFFFFFFFFFFFFFFFFFF
310
FFFFFFFFFFFFFFFFF000FFFFFFFFFFFFFFFFFFFFFFFFFFFFFFFFFFFFFFFFFFFF
310
FFFFFFFFFFFFFFFFFFFFFFFFFFFFFFFFFFFFFFFFFFFFFFFFFFFFFFFFFFFFFFFF
310
FFFFFFFFFFFFFFFFFFFFFFFFFFFFFFFFFFFFFFFFFFFFFFFFFFFFFFFFFFFFFFFF
310
F000FFFFFFFFFFFFFFFFFFFFFFFFFFFFFFFFFFFFFFFFFFFFFFFFFFFFFFFFFFFF
310
FFFFFFFFFFFFFFFFFFFFFFFFFFFFFFFFFFFFFFFFFFFFFFFFFFFFFFFFFFFFFFFF
310
FFFFFFFFFFFFFFFFFFFFFFFFFFFFFFFFFFFFFFFFFFFFFFFFF000FFFFFFFFFFFF
310
FFFFFFFFFFFFFFFFFFFFFFFFFFFFFFFFFFFFFFFFFFFFFFFFFFFFFFFFFFFFFFFF
310
FFFFFFFFFFFFFFFFFFFFFFFFFFFFFFFFFFFFFFFFFFFFFFFFFFFFFFFFFFFFFFFF
310
FFFFFFFFFFFFFFFFFFFFFFFFFFFFFFFFF000FFFFFFFFFFFFFFFFFFFFFFFFFFFF
310
FFFFFFFFFFFFFFFFFFFFFFFFFFFFFFFFFFFFFFFFFFFFFFFFFFFFFFFFFFFFFFFF
310
FFFFFFFFFFFFFFFFFFFFFFFFFFFFFFFFFFFFFFFFFFFFFFFFFFFFFFFFFFFFFFFF
310
FFFFFFFFFFFFFFFFF000FFFFFFFFFFFFFFFFFFFFFFFFFFFFFFFFFFFFFFFFFFFF
310
FFFFFFFFFFFFFFFFFFFFFFFFFFFFFFFFFFFFFFFFFFFFFFFFFFFFFFFFFFFFFFFF
310
FFFFFFFFFFFFFFFFFFFFFFFFFFFFFFFFFFFFFFFFFFFFFFFFFFFFFFFFFFFFFFFF
310
F000FFFFFFFFFFFFFFFFFFFFFFFFFFFFFFFFFFFFFFFFFFFFFFFFFFFFFFFFFFFF
310
FFFFFFFFFFFFFFFFFFFFFFFFFFFFFFFFFFFFFFFFFFFFFFFFFFFFFFFFFFFFFFFF
310
FFFFFFFFFFFFFFFFFFFFFFFFFFFFFFFFFFFFFFFFFFFFFFFFF000FFFFFFFFFFFF
310
FFFFFFFFFFFFFFFFFFFFFFFFFFFFFFFFFFFFFFFFFFFFFFFFFFFFFFFFFFFFFFFF
310
FFFFFFFFFFFFFFFFFFFFFFFFFFFFFFFFFFFFFFFFFFFFFFFFFFFFFFFFFFFFFFFF
310
FFFFFFFFFFFFFFFFFFFFFFFFFFFFFFFFF000FFFFFFFFFFFFFFFFFFFFFFFFFFFF
310
FFFFFFFFFFFFFFFFFFFFFFFFFFFFFFFFFFFFFFFFFFFFFFFFFFFFFFFFFFFFFFFF
310
FFFFFFFFFFFFFFFFFFFFFFFFFFFFFFFFFFFFFFFFFFFFFFFFFFFFFFFFFFFFFFFF
310
FFFFFFFFFFFFFFFFF000FFFFFFFFFFFFFFFFFFFFFFFFFFFFFFFFFFFFFFFFFFFF
310
FFFFFFFFFFFFFFFFFFFFFFFFFFFFFFFFFFFFFFFFFFFFFFFFFFFFFFFFFFFFFFFF
310
FFFFFFFFFFFFFFFFFFFFFFFFFFFFFFFFFFFFFFFFFFFFFFFFFFFFFFFFFFFFFFFF
310
F000FFFFFFFFFFFFFFFFFFFFFFFFFFFFFFFFFFFFFFFFFFFFFFFFFFFFFFFFFFFF
310
FFFFFFFFFFFFFFFFFFFFFFFFFFFFFFFFFFFFFFFFFFFFFFFFFFFFFFFFFFFFFFFF
310
FFFFFFFFFFFFFFFFFFFFFFFFFFFFFFFFFFFFFFFFFFFFFFFFF000FFFFFFFFFFFF
310
FFFFFFFFFFFFFFFFFFFFFFFFFFFFFFFFFFFFFFFFFFFFFFFFFFFFFFFFFFFFFFFF
310
FFFFFFFFFFFFFFFFFFFFFFFFFFFFFFFFFFFFFFFFFFFFFFFFFFFFFFFFFFFFFFFF
310
FFFFFFFFFFFFFFFFFFFFFFFFFFFFFFFFF000FFFFFFFFFFFFFFFFFFFFFFFFFFFF
310
FFFFFFFFFFFFFFFFFFFFFFFFFFFFFFFFFFFFFFFFFFFFFFFFFFFFFFFFFFFFFFFF
310
FFFFFFFFFFFFFFFFFFFFFFFFFFFFFFFFFFFFFFFFFFFFFFFFFFFFFFFFFFFFFFFF
310
FFFFFFFFFFFFFFFFF000FFFFFFFFFFFFFFFFFFFFFFFFFFFFFFFFFFFFFFFFFFFF
310
FFFFFFFFFFFFFFFFFFFFFFFFFFFFFFFFFFFFFFFFFFFFFFFFFFFFFFFFFFFFFFFF
310
FFFFFFFFFFFFFFFFFFFFFFFFFFFFFFFFFFFFFFFFFFFFFFFFFFFFFFFFFFFFFFFF
310
F000FFFFFFFFFFFFFFFFFFFFFFFFFFFFFFFFFFFFFFFFFFFFFFFFFFFFFFFFFFFF
310
FFFFFFFFFFFFFFFFFFFFFFFFFFFFFFFFFFFFFFFFFFFFFFFFFFFFFFFFFFFFFFFF
310
FFFFFFFFFFFFFFFFFFFFFFFFFFFFFFFFFFFFFFFFFFFFFFFFF000FFFFFFFFFFFF
310
FFFFFFFFFFFFFFFFFFFFFFFFFFFFFFFFFFFFFFFFFFFFFFFFFFFFFFFFFFFFFFFF
310
FFFFFFFFFFFFFFFFFFFFFFFFFFFFFFFFFFFFFFFFFFFFFFFFFFFFFFFFFFFFFFFF
310
FFFFFFFFFFFFFFFFFFFFFFFFFFFFFFFFF000FFFFFFFFFFFFFFFFFFFFFFFFFFFF
310
FFFFFFFFFFFFFFFFFFFFFFFFFFFFFFFFFFFFFFFFFFFFFFFFFFFFFFFFFFFFFFFF
310
FFFFFFFFFFFFFFFFFFFFFFFFFFFFFFFFFFFFFFFFFFFFFFFFFFFFFFFFFFFFFFFF
310
FFFFFFFFFFFFFFFFF000FFFFFFFFFFFFFFFFFFFFFFFFFFFFFFFFFFFFFFFFFFFF
310
FFFFFFFFFFFFFFFFFFFFFFFFFFFFFFFFFFFFFFFFFFFFFFFFFFFFFFFFFFFFFFFF
310
FFFFFFFFFFFFFFFFFFFFFFFFFFFFFFFFFFFFFFFFFFFFFFFFFFFFFFFFFFFFFFFF
310
F000FFFFFFFFFFFFFFFFFFFFFFFFFFFFFFFFFFFFFFFFFFFFFFFFFFFFFFFFFFFF
310
FFFFFFFFFFFFFFFFFFFFFFFFFFFFFFFFFFFFFFFFFFFFFFFFFFFFFFFFFFFFFFFF
310
FFFFFFFFFFFFFFFFFFFFFFFFFFFFFFFFFFFFFFFFFFFFFFFFF000FFFFFFFFFFFF
310
FFFFFFFFFFFFFFFFFFFFFFFFFFFFFFFFFFFFFFFFFFFFFFFFFFFFFFFFFFFFFFFF
310
FFFFFFFFFFFFFFFFFFFFFFFFFFFFFFFFFFFFFFFFFFFFFFFFFFFFFFFFFFFFFFFF
310
FFFFFFFFFFFFFFFFFFFFFFFFFFFFFFFFF0000000000000000000000000000000
310
0000000000000000010000000000000001000000010000000100000001000000
310
0100000001000000010000000100000000000000010000000000000001000000
310
0100000001000000010000000100000001000000010000000100000000000000
310
0100000000000000010000000000000001000000000000000100000000000000
310
0100000001000000010000000100000000000000010000000000000001000000
310
0000000001000000000000000100000000000000010000000100000001000000
310
0100000001000000010000000100000001000000000000000100000001000000
310
0100000001000000000000000100000001000000010000000100000000000000
310
0100000000000000010000000100000001000000010000000100000001000000
310
0100000001000000000000000100000000000000010000000100000001000000
310
0100000001000000010000000100000001000000000000000100000000000000
310
0100000001000000010000000100000001000000010000000100000001000000
310
0000000001000000000000000100000001000000010000000100000001000000
310
0100000001000000010000000000000001000000000000000100000001000000
310
0100000001000000010000000100000001000000010000000000000001000000
  1
OLE
  0
ENDSEC
  0
SECTION
  2
OBJECTS
  0
DICTIONARY
  5
C
330
0
100
AcDbDictionary
281
     1
  3
ACAD_GROUP
350
D
  3
ACAD_LAYOUT
350
1A
  3
ACAD_MLEADERSTYLE
350
310
  3
ACAD_MLINESTYLE
350
17
  3
ACAD_PLOTSETTINGS
350
19
  3
ACAD_PLOTSTYLENAME
350
E
  3
ACAD_TABLESTYLE
350
30F
  3
ACAD_VISUALSTYLE
350
2A
  3
AcDbVariableDictionary
350
311
  0
DICTIONARY
  5
D
102
{ACAD_REACTORS
330
C
102
}
330
C
100
AcDbDictionary
281
     1
  0
DICTIONARY
  5
1A
102
{ACAD_REACTORS
330
C
102
}
330
C
100
AcDbDictionary
281
     1
  3
Layout1
350
1E
  3
Layout2
350
26
  3
Model
350
22
  0
DICTIONARY
  5
310
102
{ACAD_REACTORS
330
C
102
}
330
C
100
AcDbDictionary
281
     1
  0
DICTIONARY
  5
17
102
{ACAD_REACTORS
330
C
102
}
330
C
100
AcDbDictionary
281
     1
  3
Standard
350
18
  0
DICTIONARY
  5
19
102
{ACAD_REACTORS
330
C
102
}
330
C
100
AcDbDictionary
281
     1
  0
ACDBDICTIONARYWDFLT
  5
E
102
{ACAD_REACTORS
330
C
102
}
330
C
100
AcDbDictionary
281
     1
  3
Normal
350
F
100
AcDbDictionaryWithDefault
340
F
  0
DICTIONARY
  5
30F
102
{ACAD_REACTORS
330
C
102
}
330
C
100
AcDbDictionary
281
     1
  0
DICTIONARY
  5
2A
102
{ACAD_REACTORS
330
C
102
}
330
C
100
AcDbDictionary
281
     1
  3
2dWireframe
350
2F
  3
3D Hidden
350
31
  3
3dWireframe
350
30
  3
Basic
350
32
  3
Brighten
350
36
  3
ColorChange
350
3A
  3
Conceptual
350
34
  3
Dim
350
35
  3
Facepattern
350
39
  3
Flat
350
2B
  3
FlatWithEdges
350
2C
  3
Gouraud
350
2D
  3
GouraudWithEdges
350
2E
  3
Linepattern
350
38
  3
Realistic
350
33
  3
Thicken
350
37
  0
DICTIONARY
  5
311
102
{ACAD_REACTORS
330
C
102
}
330
C
100
AcDbDictionary
281
     1
  3
PSOLHEIGHT
350
313
  3
PSOLWIDTH
350
312
  0
LAYOUT
  5
1E
102
{ACAD_REACTORS
330
1A
102
}
330
1A
100
AcDbPlotSettings
  1

  2
none_device
  4

  6

 40
0.0
 41
0.0
 42
0.0
 43
0.0
 44
0.0
 45
0.0
 46
0.0
 47
0.0
 48
0.0
 49
0.0
140
0.0
141
0.0
142
1.0
143
1.0
 70
   688
 72
     0
 73
     0
 74
     5
  7

 75
    16
147
1.0
148
0.0
149
0.0
100
AcDbLayout
  1
Layout1
 70
     1
 71
     1
 10
0.0
 20
0.0
 11
420.0
 21
297.0
 12
0.0
 22
0.0
 32
0.0
 14
1.0000000000E+20
 24
1.0000000000E+20
 34
1.0000000000E+20
 15
-1.0000000000E+20
 25
-1.0000000000E+20
 35
-1.0000000000E+20
146
0.0
 13
0.0
 23
0.0
 33
0.0
 16
1.0
 26
0.0
 36
0.0
 17
0.0
 27
1.0
 37
0.0
 76
     0
330
1B
  0
LAYOUT
  5
26
102
{ACAD_REACTORS
330
1A
102
}
330
1A
100
AcDbPlotSettings
  1

  2
none_device
  4

  6

 40
0.0
 41
0.0
 42
0.0
 43
0.0
 44
0.0
 45
0.0
 46
0.0
 47
0.0
 48
0.0
 49
0.0
140
0.0
141
0.0
142
1.0
143
1.0
 70
   688
 72
     0
 73
     0
 74
     5
  7

 75
    16
147
1.0
148
0.0
149
0.0
100
AcDbLayout
  1
Layout2
 70
     1
 71
     2
 10
0.0
 20
0.0
 11
0.0
 21
0.0
 12
0.0
 22
0.0
 32
0.0
 14
0.0
 24
0.0
 34
0.0
 15
0.0
 25
0.0
 35
0.0
146
0.0
 13
0.0
 23
0.0
 33
0.0
 16
1.0
 26
0.0
 36
0.0
 17
0.0
 27
1.0
 37
0.0
 76
     0
330
23
  0
LAYOUT
  5
22
102
{ACAD_REACTORS
330
1A
102
}
330
1A
100
AcDbPlotSettings
  1

  2
none_device
  4

  6

 40
0.0
 41
0.0
 42
0.0
 43
0.0
 44
0.0
 45
0.0
 46
0.0
 47
0.0
 48
0.0
 49
0.0
140
0.0
141
0.0
142
1.0
143
1.0
 70
  1712
 72
     0
 73
     0
 74
     0
  7

 75
     0
147
1.0
148
0.0
149
0.0
100
AcDbLayout
  1
Model
 70
     1
 71
     0
 10
0.0
 20
0.0
 11
297.0
 21
210.0
 12
0.0
 22
0.0
 32
0.0
 14
0.0
 24
0.0
 34
0.0
 15
297.0
 25
210.0
 35
0.0
146
0.0
 13
0.0
 23
0.0
 33
0.0
 16
1.0
 26
0.0
 36
0.0
 17
0.0
 27
1.0
 37
0.0
 76
     0
330
1F
331
29
  0
MLINESTYLE
  5
18
102
{ACAD_REACTORS
330
17
102
}
330
17
100
AcDbMlineStyle
  2
Standard
 70
     0
  3

 62
   256
 51
90.0
 52
90.0
 71
     2
 49
0.5
 62
   256
  6
BYLAYER
 49
-0.5
 62
   256
  6
BYLAYER
  0
ACDBPLACEHOLDER
  5
F
102
{ACAD_REACTORS
330
E
102
}
330
E
  0
VISUALSTYLE
  5
2F
102
{ACAD_REACTORS
330
2A
102
}
330
2A
100
AcDbVisualStyle
  2
2dWireframe
 70
     4
 71
     0
 72
     2
 73
     0
 90
        0
 40
-0.6
 41
-30.0
 62
     5
 63
     7
 74
     1
 91
        4
 64
     7
 65
   257
 75
     1
175
     1
 42
1.0
 92
        0
 66
   257
 43
1.0
 76
     1
 77
     6
 78
     2
 67
     7
 79
     5
170
     0
171
     0
290
     0
174
     0
 93
        1
 44
0.0
173
     0
291
     0
 45
0.0
1001
ACAD
1000
AcDbSavedByObjectVersion
1070
     0
  0
VISUALSTYLE
  5
31
102
{ACAD_REACTORS
330
2A
102
}
330
2A
100
AcDbVisualStyle
  2
3D Hidden
 70
     6
 71
     1
 72
     2
 73
     2
 90
        0
 40
-0.6
 41
-30.0
 62
     5
 63
     7
 74
     2
 91
        2
 64
     7
 65
   257
 75
     2
175
     1
 42
40.0
 92
        0
 66
   257
 43
1.0
 76
     1
 77
     6
 78
     2
 67
     7
 79
     3
170
     0
171
     0
290
     0
174
     0
 93
        1
 44
0.0
173
     0
291
     0
 45
0.0
1001
ACAD
1000
AcDbSavedByObjectVersion
1070
     0
  0
VISUALSTYLE
  5
30
102
{ACAD_REACTORS
330
2A
102
}
330
2A
100
AcDbVisualStyle
  2
3dWireframe
 70
     5
 71
     0
 72
     2
 73
     0
 90
        0
 40
-0.6
 41
-30.0
 62
     5
 63
     7
 74
     1
 91
        4
 64
     7
 65
   257
 75
     1
175
     1
 42
1.0
 92
        0
 66
   257
 43
1.0
 76
     1
 77
     6
 78
     2
 67
     7
 79
     5
170
     0
171
     0
290
     0
174
     0
 93
        1
 44
0.0
173
     0
291
     0
 45
0.0
1001
ACAD
1000
AcDbSavedByObjectVersion
1070
     0
  0
VISUALSTYLE
  5
32
102
{ACAD_REACTORS
330
2A
102
}
330
2A
100
AcDbVisualStyle
  2
Basic
 70
     7
 71
     1
 72
     0
 73
     1
 90
        0
 40
-0.6
 41
-30.0
 62
     5
 63
     7
 74
     0
 91
        4
 64
     7
 65
   257
 75
     1
175
     1
 42
1.0
 92
        8
 66
     7
 43
1.0
 76
     1
 77
     6
 78
     2
 67
     7
 79
     5
170
     0
171
     0
290
     0
174
     0
 93
        1
 44
0.0
173
     0
291
     1
 45
0.0
1001
ACAD
1000
AcDbSavedByObjectVersion
1070
     0
  0
VISUALSTYLE
  5
36
102
{ACAD_REACTORS
330
2A
102
}
330
2A
100
AcDbVisualStyle
  2
Brighten
 70
    12
 71
     2
 72
     2
 73
     0
 90
        0
 40
-0.6
 41
-30.0
 62
     5
 63
     7
 74
     1
 91
        4
 64
     7
 65
   257
 75
     1
175
     1
 42
1.0
 92
        8
 66
     7
 43
1.0
 76
     1
 77
     6
 78
     2
 67
     7
 79
     5
170
     0
171
     0
290
     0
174
     0
 93
        1
 44
50.0
173
     0
291
     1
 45
0.0
1001
ACAD
1000
AcDbSavedByObjectVersion
1070
     0
  0
VISUALSTYLE
  5
3A
102
{ACAD_REACTORS
330
2A
102
}
330
2A
100
AcDbVisualStyle
  2
ColorChange
 70
    16
 71
     2
 72
     2
 73
     3
 90
        0
 40
-0.6
 41
-30.0
 62
     5
 63
     8
 74
     1
 91
        4
 64
     7
 65
   257
 75
     1
175
     1
 42
1.0
 92
        8
 66
     8
 43
1.0
 76
     1
 77
     6
 78
     2
 67
     7
 79
     5
170
     0
171
     0
290
     0
174
     0
 93
        1
 44
0.0
173
     0
291
     1
 45
0.0
1001
ACAD
1000
AcDbSavedByObjectVersion
1070
     0
  0
VISUALSTYLE
  5
34
102
{ACAD_REACTORS
330
2A
102
}
330
2A
100
AcDbVisualStyle
  2
Conceptual
 70
     9
 71
     3
 72
     2
 73
     0
 90
        0
 40
-0.6
 41
-30.0
 62
     5
 63
     7
 74
     2
 91
        2
 64
     7
 65
   257
 75
     1
175
     1
 42
40.0
 92
        8
 66
     7
 43
1.0
 76
     1
 77
     6
 78
     2
 67
     7
 79
     3
170
     0
171
     0
290
     0
174
     0
 93
        1
 44
0.0
173
     0
291
     0
 45
0.0
1001
ACAD
1000
AcDbSavedByObjectVersion
1070
     0
  0
VISUALSTYLE
  5
35
102
{ACAD_REACTORS
330
2A
102
}
330
2A
100
AcDbVisualStyle
  2
Dim
 70
    11
 71
     2
 72
     2
 73
     0
 90
        0
 40
-0.6
 41
-30.0
 62
     5
 63
     7
 74
     1
 91
        4
 64
     7
 65
   257
 75
     1
175
     1
 42
1.0
 92
        8
 66
     7
 43
1.0
 76
     1
 77
     6
 78
     2
 67
     7
 79
     5
170
     0
171
     0
290
     0
174
     0
 93
        1
 44
-50.0
173
     0
291
     1
 45
0.0
1001
ACAD
1000
AcDbSavedByObjectVersion
1070
     0
  0
VISUALSTYLE
  5
39
102
{ACAD_REACTORS
330
2A
102
}
330
2A
100
AcDbVisualStyle
  2
Facepattern
 70
    15
 71
     2
 72
     2
 73
     0
 90
        0
 40
-0.6
 41
-30.0
 62
     5
 63
     7
 74
     1
 91
        4
 64
     7
 65
   257
 75
     1
175
     1
 42
1.0
 92
        8
 66
     7
 43
1.0
 76
     1
 77
     6
 78
     2
 67
     7
 79
     5
170
     0
171
     0
290
     0
174
     0
 93
        1
 44
0.0
173
     0
291
     1
 45
0.0
1001
ACAD
1000
AcDbSavedByObjectVersion
1070
     0
  0
VISUALSTYLE
  5
2B
102
{ACAD_REACTORS
330
2A
102
}
330
2A
100
AcDbVisualStyle
  2
Flat
 70
     0
 71
     2
 72
     1
 73
     1
 90
        2
 40
-0.6
 41
30.0
 62
     5
 63
     7
 74
     0
 91
        4
 64
     7
 65
   257
 75
     1
175
     1
 42
1.0
 92
        8
 66
     7
 43
1.0
 76
     1
 77
     6
 78
     2
 67
     7
 79
     5
170
     0
171
     0
290
     0
174
     0
 93
       13
 44
0.0
173
     0
291
     1
 45
0.0
1001
ACAD
1000
AcDbSavedByObjectVersion
1070
     0
  0
VISUALSTYLE
  5
2C
102
{ACAD_REACTORS
330
2A
102
}
330
2A
100
AcDbVisualStyle
  2
FlatWithEdges
 70
     1
 71
     2
 72
     1
 73
     1
 90
        2
 40
-0.6
 41
30.0
 62
     5
 63
     7
 74
     1
 91
        4
 64
     7
 65
   257
 75
     1
175
     1
 42
1.0
 92
        0
 66
   257
 43
1.0
 76
     1
 77
     6
 78
     2
 67
     7
 79
     5
170
     0
171
     0
290
     0
174
     0
 93
       13
 44
0.0
173
     0
291
     1
 45
0.0
1001
ACAD
1000
AcDbSavedByObjectVersion
1070
     0
  0
VISUALSTYLE
  5
2D
102
{ACAD_REACTORS
330
2A
102
}
330
2A
100
AcDbVisualStyle
  2
Gouraud
 70
     2
 71
     2
 72
     2
 73
     1
 90
        2
 40
-0.6
 41
30.0
 62
     5
 63
     7
 74
     0
 91
        4
 64
     7
 65
   257
 75
     1
175
     1
 42
1.0
 92
        0
 66
     7
 43
1.0
 76
     1
 77
     6
 78
     2
 67
     7
 79
     5
170
     0
171
     0
290
     0
174
     0
 93
       13
 44
0.0
173
     0
291
     1
 45
0.0
1001
ACAD
1000
AcDbSavedByObjectVersion
1070
     0
  0
VISUALSTYLE
  5
2E
102
{ACAD_REACTORS
330
2A
102
}
330
2A
100
AcDbVisualStyle
  2
GouraudWithEdges
 70
     3
 71
     2
 72
     2
 73
     1
 90
        2
 40
-0.6
 41
30.0
 62
     5
 63
     7
 74
     1
 91
        4
 64
     7
 65
   257
 75
     1
175
     1
 42
1.0
 92
        0
 66
   257
 43
1.0
 76
     1
 77
     6
 78
     2
 67
     7
 79
     5
170
     0
171
     0
290
     0
174
     0
 93
       13
 44
0.0
173
     0
291
     1
 45
0.0
1001
ACAD
1000
AcDbSavedByObjectVersion
1070
     0
  0
VISUALSTYLE
  5
38
102
{ACAD_REACTORS
330
2A
102
}
330
2A
100
AcDbVisualStyle
  2
Linepattern
 70
    14
 71
     2
 72
     2
 73
     0
 90
        0
 40
-0.6
 41
-30.0
 62
     5
 63
     7
 74
     1
 91
        4
 64
     7
 65
   257
 75
     7
175
     7
 42
1.0
 92
        8
 66
     7
 43
1.0
 76
     1
 77
     6
 78
     2
 67
     7
 79
     5
170
     0
171
     0
290
     0
174
     0
 93
        1
 44
0.0
173
     0
291
     1
 45
0.0
1001
ACAD
1000
AcDbSavedByObjectVersion
1070
     0
  0
VISUALSTYLE
  5
33
102
{ACAD_REACTORS
330
2A
102
}
330
2A
100
AcDbVisualStyle
  2
Realistic
 70
     8
 71
     2
 72
     2
 73
     0
 90
        0
 40
-0.6
 41
-30.0
 62
     5
 63
     7
 74
     1
 91
        0
 64
     7
 65
   257
 75
     1
175
     1
 42
1.0
 92
        8
 66
     8
 43
1.0
 76
     1
 77
     6
 78
     2
 67
     7
 79
     5
170
     0
171
     0
290
     0
174
     0
 93
       13
 44
0.0
173
     0
291
     0
 45
0.0
1001
ACAD
1000
AcDbSavedByObjectVersion
1070
     0
  0
VISUALSTYLE
  5
37
102
{ACAD_REACTORS
330
2A
102
}
330
2A
100
AcDbVisualStyle
  2
Thicken
 70
    13
 71
     2
 72
     2
 73
     0
 90
        0
 40
-0.6
 41
-30.0
 62
     5
 63
     7
 74
     1
 91
        4
 64
     7
 65
   257
 75
     1
175
     1
 42
1.0
 92
       12
 66
     7
 43
1.0
 76
     1
 77
     6
 78
     2
 67
     7
 79
     5
170
     0
171
     0
290
     0
174
     0
 93
        1
 44
0.0
173
     0
291
     1
 45
0.0
1001
ACAD
1000
AcDbSavedByObjectVersion
1070
     0
  0
DICTIONARYVAR
  5
313
102
{ACAD_REACTORS
330
311
102
}
330
311
100
DictionaryVariables
280
     0
  1
80.000000
  0
DICTIONARYVAR
  5
312
102
{ACAD_REACTORS
330
311
102
}
330
311
100
DictionaryVariables
280
     0
  1
5.000000
  0
ENDSEC
  0
EOF
