  0
SECTION
  2
HEADER
  9
$ACADVER
  1
AC1015
  9
$ACADMAINTVER
 70
     6
  9
$DWGCODEPAGE
  3
ANSI_1252
  9
$INSBASE
 10
0.0
 20
0.0
 30
0.0
  9
$EXTMIN
 10
0.0
 20
0.0
 30
0.0
  9
$EXTMAX
 10
297.0
 20
210.0
 30
0.0
  9
$LIMMIN
 10
0.0
 20
0.0
  9
$LIMMAX
 10
297.0
 20
210.0
  9
$ORTHOMODE
 70
     0
  9
$REGENMODE
 70
     1
  9
$FILLMODE
 70
     1
  9
$QTEXTMODE
 70
     0
  9
$MIRRTEXT
 70
     1
  9
$LTSCALE
 40
1.0
  9
$ATTMODE
 70
     1
  9
$TEXTSIZE
 40
2.0
  9
$TRACEWID
 40
1.0
  9
$TEXTSTYLE
  7
Standard
  9
$CLAYER
  8
0
  9
$CELTYPE
  6
ByLayer
  9
$CECOLOR
 62
   256
  9
$CELTSCALE
 40
1.0
  9
$DISPSILH
 70
     0
  9
$DIMSCALE
 40
1.0
  9
$DIMASZ
 40
3.0
  9
$DIMEXO
 40
0.0
  9
$DIMDLI
 40
3.75
  9
$DIMRND
 40
0.0
  9
$DIMDLE
 40
0.0
  9
$DIMEXE
 40
1.0
  9
$DIMTP
 40
0.0
  9
$DIMTM
 40
0.0
  9
$DIMTXT
 40
2.0
  9
$DIMCEN
 40
2.5
  9
$DIMTSZ
 40
0.0
  9
$DIMTOL
 70
     0
  9
$DIMLIM
 70
     0
  9
$DIMTIH
 70
     1
  9
$DIMTOH
 70
     1
  9
$DIMSE1
 70
     0
  9
$DIMSE2
 70
     0
  9
$DIMTAD
 70
     1
  9
$DIMZIN
 70
     0
  9
$DIMBLK
  1

  9
$DIMASO
 70
     1
  9
$DIMSHO
 70
     1
  9
$DIMPOST
  1

  9
$DIMAPOST
  1

  9
$DIMALT
 70
     0
  9
$DIMALTD
 70
     3
  9
$DIMALTF
 40
0.0393700787
  9
$DIMLFAC
 40
1.0
  9
$DIMTOFL
 70
     1
  9
$DIMTVP
 40
0.0
  9
$DIMTIX
 70
     0
  9
$DIMSOXD
 70
     0
  9
$DIMSAH
 70
     0
  9
$DIMBLK1
  1

  9
$DIMBLK2
  1

  9
$DIMSTYLE
  2
ISO-25
  9
$DIMCLRD
 70
     0
  9
$DIMCLRE
 70
     0
  9
$DIMCLRT
 70
     0
  9
$DIMTFAC
 40
1.0
  9
$DIMGAP
 40
1.524
  9
$DIMJUST
 70
     0
  9
$DIMSD1
 70
     0
  9
$DIMSD2
 70
     0
  9
$DIMTOLJ
 70
     0
  9
$DIMTZIN
 70
     0
  9
$DIMALTZ
 70
     0
  9
$DIMALTTZ
 70
     0
  9
$DIMUPT
 70
     0
  9
$DIMDEC
 70
     2
  9
$DIMTDEC
 70
     3
  9
$DIMALTU
 70
     2
  9
$DIMALTTD
 70
     3
  9
$DIMTXSTY
  7
Standard
  9
$DIMAUNIT
 70
     0
  9
$DIMADEC
 70
     2
  9
$DIMALTRND
 40
0.0
  9
$DIMAZIN
 70
     0
  9
$DIMDSEP
 70
    44
  9
$DIMATFIT
 70
     3
  9
$DIMFRAC
 70
     0
  9
$DIMLDRBLK
  1

  9
$DIMLUNIT
 70
     2
  9
$DIMLWD
 70
    -2
  9
$DIMLWE
 70
    -2
  9
$DIMTMOVE
 70
     0
  9
$LUNITS
 70
     2
  9
$LUPREC
 70
     2
  9
$SKETCHINC
 40
1.0
  9
$FILLETRAD
 40
10.0
  9
$AUNITS
 70
     0
  9
$AUPREC
 70
     2
  9
$MENU
  1
.
  9
$ELEVATION
 40
0.0
  9
$PELEVATION
 40
0.0
  9
$THICKNESS
 40
0.0
  9
$LIMCHECK
 70
     0
  9
$CHAMFERA
 40
10.0
  9
$CHAMFERB
 40
10.0
  9
$CHAMFERC
 40
20.0
  9
$CHAMFERD
 40
0.0
  9
$SKPOLY
 70
     0
  9
$TDCREATE
 40
2455624.523937465
  9
$TDUCREATE
 40
2455624.482270799
  9
$TDUPDATE
 40
2455624.523937477
  9
$TDUUPDATE
 40
2455624.48227081
  9
$TDINDWG
 40
0.0000000116
  9
$TDUSRTIMER
 40
0.0000000116
  9
$USRTIMER
 70
     1
  9
$ANGBASE
 50
0.0
  9
$ANGDIR
 70
     0
  9
$PDMODE
 70
     0
  9
$PDSIZE
 40
-1.0
  9
$PLINEWID
 40
0.0
  9
$SPLFRAME
 70
     0
  9
$SPLINETYPE
 70
     6
  9
$SPLINESEGS
 70
     8
  9
$HANDSEED
  5
2F8
  9
$SURFTAB1
 70
     6
  9
$SURFTAB2
 70
     6
  9
$SURFTYPE
 70
     6
  9
$SURFU
 70
     6
  9
$SURFV
 70
     6
  9
$UCSBASE
  2

  9
$UCSNAME
  2

  9
$UCSORG
 10
0.0
 20
0.0
 30
0.0
  9
$UCSXDIR
 10
1.0
 20
0.0
 30
0.0
  9
$UCSYDIR
 10
0.0
 20
1.0
 30
0.0
  9
$UCSORTHOREF
  2

  9
$UCSORTHOVIEW
 70
     0
  9
$UCSORGTOP
 10
0.0
 20
0.0
 30
0.0
  9
$UCSORGBOTTOM
 10
0.0
 20
0.0
 30
0.0
  9
$UCSORGLEFT
 10
0.0
 20
0.0
 30
0.0
  9
$UCSORGRIGHT
 10
0.0
 20
0.0
 30
0.0
  9
$UCSORGFRONT
 10
0.0
 20
0.0
 30
0.0
  9
$UCSORGBACK
 10
0.0
 20
0.0
 30
0.0
  9
$PUCSBASE
  2

  9
$PUCSNAME
  2

  9
$PUCSORG
 10
0.0
 20
0.0
 30
0.0
  9
$PUCSXDIR
 10
1.0
 20
0.0
 30
0.0
  9
$PUCSYDIR
 10
0.0
 20
1.0
 30
0.0
  9
$PUCSORTHOREF
  2

  9
$PUCSORTHOVIEW
 70
     0
  9
$PUCSORGTOP
 10
0.0
 20
0.0
 30
0.0
  9
$PUCSORGBOTTOM
 10
0.0
 20
0.0
 30
0.0
  9
$PUCSORGLEFT
 10
0.0
 20
0.0
 30
0.0
  9
$PUCSORGRIGHT
 10
0.0
 20
0.0
 30
0.0
  9
$PUCSORGFRONT
 10
0.0
 20
0.0
 30
0.0
  9
$PUCSORGBACK
 10
0.0
 20
0.0
 30
0.0
  9
$USERI1
 70
     0
  9
$USERI2
 70
     0
  9
$USERI3
 70
     0
  9
$USERI4
 70
     0
  9
$USERI5
 70
     0
  9
$USERR1
 40
0.0
  9
$USERR2
 40
0.0
  9
$USERR3
 40
0.0
  9
$USERR4
 40
0.0
  9
$USERR5
 40
0.0
  9
$WORLDVIEW
 70
     1
  9
$SHADEDGE
 70
     3
  9
$SHADEDIF
 70
    70
  9
$TILEMODE
 70
     1
  9
$MAXACTVP
 70
    64
  9
$PINSBASE
 10
0.0
 20
0.0
 30
0.0
  9
$PLIMCHECK
 70
     0
  9
$PEXTMIN
 10
1.0000000000E+20
 20
1.0000000000E+20
 30
1.0000000000E+20
  9
$PEXTMAX
 10
-1.0000000000E+20
 20
-1.0000000000E+20
 30
-1.0000000000E+20
  9
$PLIMMIN
 10
0.0
 20
0.0
  9
$PLIMMAX
 10
420.0
 20
297.0
  9
$UNITMODE
 70
     0
  9
$VISRETAIN
 70
     1
  9
$PLINEGEN
 70
     0
  9
$PSLTSCALE
 70
     1
  9
$TREEDEPTH
 70
  3020
  9
$CMLSTYLE
  2
Standard
  9
$CMLJUST
 70
     0
  9
$CMLSCALE
 40
20.0
  9
$PROXYGRAPHICS
 70
     1
  9
$MEASUREMENT
 70
     1
  9
$CELWEIGHT
370
    -1
  9
$ENDCAPS
280
     0
  9
$JOINSTYLE
280
     0
  9
$LWDISPLAY
290
     1
  9
$INSUNITS
 70
     4
  9
$HYPERLINKBASE
  1

  9
$STYLESHEET
  1

  9
$XEDIT
290
     1
  9
$CEPSNTYPE
380
     0
  9
$PSTYLEMODE
290
     1
  9
$FINGERPRINTGUID
  2
{776CAB6C-9AE2-412A-81AA-8FC9D19990DD}
  9
$VERSIONGUID
  2
{FAEB1C32-E019-11D5-929B-00C0DF256EC4}
  9
$EXTNAMES
290
     1
  9
$PSVPSCALE
 40
0.0
  9
$OLESTARTUP
290
     0
  0
ENDSEC
  0
SECTION
  2
CLASSES
  0
CLASS
  1
ACDBDICTIONARYWDFLT
  2
AcDbDictionaryWithDefault
  3
ObjectDBX Classes
 90
        0
280
     0
281
     0
  0
CLASS
  1
VISUALSTYLE
  2
AcDbVisualStyle
  3
ObjectDBX Classes
 90
     4095
280
     0
281
     0
  0
CLASS
  1
DICTIONARYVAR
  2
AcDbDictionaryVar
  3
ObjectDBX Classes
 90
        0
280
     0
281
     0
  0
CLASS
  1
ACDBPLACEHOLDER
  2
AcDbPlaceHolder
  3
ObjectDBX Classes
 90
        0
280
     0
281
     0
  0
CLASS
  1
LAYOUT
  2
AcDbLayout
  3
ObjectDBX Classes
 90
        0
280
     0
281
     0
  0
ENDSEC
  0
SECTION
  2
TABLES
  0
TABLE
  2
VPORT
  5
8
330
0
100
AcDbSymbolTable
 70
     1
  0
VPORT
  5
29
330
8
100
AcDbSymbolTableRecord
100
AcDbViewportTableRecord
  2
*Active
 70
     0
 10
0.0
 20
0.0
 11
1.0
 21
1.0
 12
148.5
 22
105.0
 13
0.0
 23
0.0
 14
10.0
 24
10.0
 15
10.0
 25
10.0
 16
0.0
 26
0.0
 36
1.0
 17
0.0
 27
0.0
 37
0.0
 40
210.0
 41
1.4142857143
 42
50.0
 43
0.0
 44
0.0
 50
0.0
 51
0.0
 71
     0
 72
  2000
 73
     1
 74
     3
 75
     0
 76
     0
 77
     0
 78
     0
281
     0
 65
     1
110
0.0
120
0.0
130
0.0
111
1.0
121
0.0
131
0.0
112
0.0
122
1.0
132
0.0
 79
     0
146
0.0
  0
ENDTAB
  0
TABLE
  2
LTYPE
  5
5
330
0
100
AcDbSymbolTable
 70
     6
  0
LTYPE
  5
14
330
5
100
AcDbSymbolTableRecord
100
AcDbLinetypeTableRecord
  2
ByBlock
 70
     0
  3

 72
    65
 73
     0
 40
0.0
  0
LTYPE
  5
15
330
5
100
AcDbSymbolTableRecord
100
AcDbLinetypeTableRecord
  2
ByLayer
 70
     0
  3

 72
    65
 73
     0
 40
0.0
  0
LTYPE
  5
16
330
5
100
AcDbSymbolTableRecord
100
AcDbLinetypeTableRecord
  2
Continuous
 70
     0
  3
Solid line
 72
    65
 73
     0
 40
0.0
  0
LTYPE
  5
3B
330
5
100
AcDbSymbolTableRecord
100
AcDbLinetypeTableRecord
  2
HIDDEN
 70
     0
  3
Hidden __ __ __ __ __ __ __ __ __ __ __ __ __ __
 72
    65
 73
     2
 40
1.905
 49
1.27
 74
     0
 49
-0.635
 74
     0
  0
LTYPE
  5
3C
330
5
100
AcDbSymbolTableRecord
100
AcDbLinetypeTableRecord
  2
PHANTOM
 70
     0
  3
Phantom ______  __  __  ______  __  __  ______
 72
    65
 73
     6
 40
12.7
 49
6.35
 74
     0
 49
-1.27
 74
     0
 49
1.27
 74
     0
 49
-1.27
 74
     0
 49
1.27
 74
     0
 49
-1.27
 74
     0
  0
LTYPE
  5
3D
330
5
100
AcDbSymbolTableRecord
100
AcDbLinetypeTableRecord
  2
CENTER
 70
     0
  3
Center ____ _ ____ _ ____ _ ____ _ ____ _ ____
 72
    65
 73
     4
 40
10.16
 49
6.35
 74
     0
 49
-1.27
 74
     0
 49
1.27
 74
     0
 49
-1.27
 74
     0
  0
LTYPE
  5
3E
330
5
100
AcDbSymbolTableRecord
100
AcDbLinetypeTableRecord
  2
CENTERX2
 70
     0
  3
Center (2x) ________  __  ________  __  _____
 72
    65
 73
     4
 40
20.32
 49
12.7
 74
     0
 49
-2.54
 74
     0
 49
2.54
 74
     0
 49
-2.54
 74
     0
  0
LTYPE
  5
3F
330
5
100
AcDbSymbolTableRecord
100
AcDbLinetypeTableRecord
  2
DOT2
 70
     0
  3
Dot (.5x) ........................................
 72
    65
 73
     2
 40
0.635
 49
0.0
 74
     0
 49
-0.635
 74
     0
  0
ENDTAB
  0
TABLE
  2
LAYER
  5
2
330
0
100
AcDbSymbolTable
 70
     5
  0
LAYER
  5
10
330
2
100
AcDbSymbolTableRecord
100
AcDbLayerTableRecord
  2
0
 70
     0
 62
     7
  6
Continuous
370
    -3
390
F
  0
LAYER
  5
40
330
2
100
AcDbSymbolTableRecord
100
AcDbLayerTableRecord
  2
FORMAT
 70
     0
 62
     7
  6
Continuous
370
    -3
390
F
  0
LAYER
  5
41
330
2
100
AcDbSymbolTableRecord
100
AcDbLayerTableRecord
  2
VERMASSUNG
 70
     0
 62
     7
  6
Continuous
370
    -3
390
F
  0
LAYER
  5
42
330
2
100
AcDbSymbolTableRecord
100
AcDbLayerTableRecord
  2
KOPF_DÜNN
 70
     0
 62
     7
  6
Continuous
370
    -3
390
F
  0
LAYER
  5
43
330
2
100
AcDbSymbolTableRecord
100
AcDbLayerTableRecord
  2
KOPF_DICK
 70
     0
 62
     7
  6
Continuous
370
    15
390
F
  0
ENDTAB
  0
TABLE
  2
STYLE
  5
3
330
0
100
AcDbSymbolTable
 70
     2
  0
STYLE
  5
11
330
3
100
AcDbSymbolTableRecord
100
AcDbTextStyleTableRecord
  2
Standard
 70
     0
 40
0.0
 41
1.0
 50
0.0
 71
     0
 42
2.5
  3
txt
  4

  0
STYLE
  5
44
330
3
100
AcDbSymbolTableRecord
100
AcDbTextStyleTableRecord
  2
SLDTEXTSTYLE0
 70
     0
 40
0.0
 41
0.7
 50
0.0
 71
     0
 42
0.2
  3
TXT
  4

  0
ENDTAB
  0
TABLE
  2
VIEW
  5
6
330
0
100
AcDbSymbolTable
 70
     0
  0
ENDTAB
  0
TABLE
  2
UCS
  5
7
330
0
100
AcDbSymbolTable
 70
     0
  0
ENDTAB
  0
TABLE
  2
APPID
  5
9
330
0
100
AcDbSymbolTable
 70
     1
  0
APPID
  5
12
330
9
100
AcDbSymbolTableRecord
100
AcDbRegAppTableRecord
  2
ACAD
 70
     0
  0
ENDTAB
  0
TABLE
  2
DIMSTYLE
  5
A
330
0
100
AcDbSymbolTable
 70
     4
100
AcDbDimStyleTable
  0
DIMSTYLE
105
27
330
A
100
AcDbSymbolTableRecord
100
AcDbDimStyleTableRecord
  2
ISO-25
 70
     0
 41
2.5
 42
0.625
 43
3.75
 44
1.25
 73
     0
 74
     0
 77
     1
 78
     8
140
2.5
141
2.5
143
0.0393700787
147
0.625
171
     3
172
     1
271
     2
272
     2
274
     3
278
    44
283
     0
284
     8
340
11
  0
DIMSTYLE
105
23A
102
{ACAD_REACTORS
330
239
330
244
330
258
330
262
102
}
330
A
100
AcDbSymbolTableRecord
100
AcDbDimStyleTableRecord
  2
SLDDIMSTYLE0
 70
     0
 41
3.0
 44
0.0
 45
0.000000001
 73
     0
 74
     0
 77
     1
 78
    12
140
2.0
147
0.5
173
     1
271
     2
272
     3
284
    12
340
44
  0
DIMSTYLE
105
24F
102
{ACAD_REACTORS
330
24E
102
}
330
A
100
AcDbSymbolTableRecord
100
AcDbDimStyleTableRecord
  2
SLDDIMSTYLE1
 70
     0
 41
3.0
 44
0.0
 73
     0
 74
     0
 77
     1
 78
    12
140
2.0
147
0.5
173
     1
179
     2
272
     3
284
    12
340
44
  0
DIMSTYLE
105
2DB
102
{ACAD_REACTORS
330
2DA
102
}
330
A
100
AcDbSymbolTableRecord
100
AcDbDimStyleTableRecord
  2
SLDDIMSTYLE2
 70
     0
 41
3.0
 44
0.0
 45
0.000000001
 73
     0
 74
     0
 77
     1
 78
    12
140
2.0
147
0.5
173
     1
271
     2
272
     3
284
    12
340
44
  0
ENDTAB
  0
TABLE
  2
BLOCK_RECORD
  5
1
330
0
100
AcDbSymbolTable
 70
     8
  0
BLOCK_RECORD
  5
1F
330
1
100
AcDbSymbolTableRecord
100
AcDbBlockTableRecord
  2
*Model_Space
340
22
  0
BLOCK_RECORD
  5
1B
330
1
100
AcDbSymbolTableRecord
100
AcDbBlockTableRecord
  2
*Paper_Space
340
1E
  0
BLOCK_RECORD
  5
23
330
1
100
AcDbSymbolTableRecord
100
AcDbBlockTableRecord
  2
*Paper_Space0
340
26
  0
BLOCK_RECORD
  5
23B
330
1
100
AcDbSymbolTableRecord
100
AcDbBlockTableRecord
  2
*D1
340
0
  0
BLOCK_RECORD
  5
245
330
1
100
AcDbSymbolTableRecord
100
AcDbBlockTableRecord
  2
*D2
340
0
  0
BLOCK_RECORD
  5
250
330
1
100
AcDbSymbolTableRecord
100
AcDbBlockTableRecord
  2
*D3
340
0
  0
BLOCK_RECORD
  5
259
330
1
100
AcDbSymbolTableRecord
100
AcDbBlockTableRecord
  2
*D4
340
0
  0
BLOCK_RECORD
  5
263
330
1
100
AcDbSymbolTableRecord
100
AcDbBlockTableRecord
  2
*D5
340
0
  0
BLOCK_RECORD
  5
2DC
330
1
100
AcDbSymbolTableRecord
100
AcDbBlockTableRecord
  2
*D6
340
0
  0
BLOCK_RECORD
  5
2E6
330
1
100
AcDbSymbolTableRecord
100
AcDbBlockTableRecord
  2
SW_CENTERMARKSYMBOL_0
340
0
102
{BLKREFS
331
2F1
102
}
  0
ENDTAB
  0
ENDSEC
  0
SECTION
  2
BLOCKS
  0
BLOCK
  5
20
330
1F
100
AcDbEntity
  8
0
100
AcDbBlockBegin
  2
*Model_Space
 70
     0
 10
0.0
 20
0.0
 30
0.0
  3
*Model_Space
  1

  0
ENDBLK
  5
21
330
1F
100
AcDbEntity
  8
0
100
AcDbBlockEnd
  0
BLOCK
  5
1C
330
1B
100
AcDbEntity
 67
     1
  8
0
100
AcDbBlockBegin
  2
*Paper_Space
 70
     0
 10
0.0
 20
0.0
 30
0.0
  3
*Paper_Space
  1

  0
ENDBLK
  5
1D
330
1B
100
AcDbEntity
 67
     1
  8
0
100
AcDbBlockEnd
  0
BLOCK
  5
24
330
23
100
AcDbEntity
  8
0
100
AcDbBlockBegin
  2
*Paper_Space0
 70
     0
 10
0.0
 20
0.0
 30
0.0
  3
*Paper_Space0
  1

  0
ENDBLK
  5
25
330
23
100
AcDbEntity
  8
0
100
AcDbBlockEnd
  0
BLOCK
  5
23C
330
23B
100
AcDbEntity
  8
0
100
AcDbBlockBegin
  2
*D1
 70
     1
 10
0.0
 20
0.0
 30
0.0
  3
*D1
  1

  0
SOLID
  5
23E
330
23B
100
AcDbEntity
  8
VERMASSUNG
100
AcDbTrace
 10
283.8562194647
 20
152.2362498892
 30
0.0
 11
280.8562194647
 21
152.6862498892
 31
0.0
 12
280.8562194647
 22
151.7862498892
 32
0.0
 13
280.8562194647
 23
151.7862498892
 33
0.0
  0
SOLID
  5
23F
330
23B
100
AcDbEntity
  8
VERMASSUNG
100
AcDbTrace
 10
143.8562194647
 20
152.2362498892
 30
0.0
 11
146.8562194647
 21
151.7862498892
 31
0.0
 12
146.8562194647
 22
152.6862498892
 32
0.0
 13
146.8562194647
 23
152.6862498892
 33
0.0
  0
LINE
  5
240
330
23B
100
AcDbEntity
  8
VERMASSUNG
100
AcDbLine
 10
283.8562194647
 20
140.0376822581
 30
0.0
 11
283.8562194647
 21
153.2362498892
 31
0.0
  0
LINE
  5
241
330
23B
100
AcDbEntity
  8
VERMASSUNG
100
AcDbLine
 10
143.8562194647
 20
144.2376822581
 30
0.0
 11
143.8562194647
 21
153.2362498892
 31
0.0
  0
LINE
  5
242
330
23B
100
AcDbEntity
  8
VERMASSUNG
100
AcDbLine
 10
283.8562194647
 20
152.2362498892
 30
0.0
 11
143.8562194647
 21
152.2362498892
 31
0.0
  0
MTEXT
  5
243
330
23B
100
AcDbEntity
  8
VERMASSUNG
100
AcDbMText
 10
211.8565711582
 20
154.8143852523
 30
0.0
 40
2.0
 41
0.0
 71
     1
 72
     1
  1
140
  7
SLDTEXTSTYLE0
 73
     1
 44
1.0
  0
ENDBLK
  5
23D
330
23B
100
AcDbEntity
  8
0
100
AcDbBlockEnd
  0
BLOCK
  5
246
330
245
100
AcDbEntity
  8
0
100
AcDbBlockBegin
  2
*D2
 70
     1
 10
0.0
 20
0.0
 30
0.0
  3
*D2
  1

  0
SOLID
  5
248
330
245
100
AcDbEntity
  8
VERMASSUNG
100
AcDbTrace
 10
283.8562194647
 20
158.2362498892
 30
0.0
 11
280.8562194647
 21
158.6862498892
 31
0.0
 12
280.8562194647
 22
157.7862498892
 32
0.0
 13
280.8562194647
 23
157.7862498892
 33
0.0
  0
SOLID
  5
249
330
245
100
AcDbEntity
  8
VERMASSUNG
100
AcDbTrace
 10
111.9562194647
 20
158.2362498892
 30
0.0
 11
114.9562194647
 21
157.7862498892
 31
0.0
 12
114.9562194647
 22
158.6862498892
 32
0.0
 13
114.9562194647
 23
158.6862498892
 33
0.0
  0
LINE
  5
24A
330
245
100
AcDbEntity
  8
VERMASSUNG
100
AcDbLine
 10
283.8562194647
 20
140.0376822581
 30
0.0
 11
283.8562194647
 21
159.2362498892
 31
0.0
  0
LINE
  5
24B
330
245
100
AcDbEntity
  8
VERMASSUNG
100
AcDbLine
 10
111.9562194647
 20
132.7283600045
 30
0.0
 11
111.9562194647
 21
159.2362498892
 31
0.0
  0
LINE
  5
24C
330
245
100
AcDbEntity
  8
VERMASSUNG
100
AcDbLine
 10
283.8562194647
 20
158.2362498892
 30
0.0
 11
111.9562194647
 21
158.2362498892
 31
0.0
  0
MTEXT
  5
24D
330
245
100
AcDbEntity
  8
VERMASSUNG
100
AcDbMText
 10
195.2066331744
 20
160.8143852523
 30
0.0
 40
2.0
 41
0.0
 71
     1
 72
     1
  1
171.9
  7
SLDTEXTSTYLE0
 73
     1
 44
1.0
  0
ENDBLK
  5
247
330
245
100
AcDbEntity
  8
0
100
AcDbBlockEnd
  0
BLOCK
  5
251
330
250
100
AcDbEntity
  8
0
100
AcDbBlockBegin
  2
*D3
 70
     1
 10
0.0
 20
0.0
 30
0.0
  3
*D3
  1

  0
ARC
  5
253
330
250
100
AcDbEntity
  8
VERMASSUNG
100
AcDbCircle
 10
283.8562194647
 20
140.9136507197
 30
0.0
 40
32.43435023121975
100
AcDbArc
 50
252.1079213729
 51
270.0
  0
SOLID
  5
254
330
250
100
AcDbEntity
  8
VERMASSUNG
100
AcDbTrace
 10
273.8915744929
 20
110.0479265988
 30
0.0
 11
276.6675761874
 21
108.8246872142
 31
0.0
 12
276.9043016046
 22
109.6929965351
 32
0.0
 13
276.9043016046
 23
109.6929965351
 33
0.0
  0
SOLID
  5
255
330
250
100
AcDbEntity
  8
VERMASSUNG
100
AcDbTrace
 10
283.8562194647
 20
108.4793004885
 30
0.0
 11
280.8801538038
 21
109.067121194
 31
0.0
 12
280.8386640659
 22
108.1680780351
 32
0.0
 13
280.8386640659
 23
108.1680780351
 33
0.0
  0
LINE
  5
256
330
250
100
AcDbEntity
  8
VERMASSUNG
100
AcDbLine
 10
283.8562194647
 20
113.0376822581
 30
0.0
 11
283.8562194647
 21
107.4793004885
 31
0.0
  0
MTEXT
  5
257
330
250
100
AcDbEntity
  8
VERMASSUNG
100
AcDbMText
 10
276.4477590807
 20
111.8560029847
 30
0.0
 40
2.0
 41
0.0
 71
     1
 72
     1
  1
17.5°
  7
SLDTEXTSTYLE0
 11
0.9878352312198921
 21
-0.1555041991739844
 31
0.0
 73
     1
 44
1.0
  0
ENDBLK
  5
252
330
250
100
AcDbEntity
  8
0
100
AcDbBlockEnd
  0
BLOCK
  5
25A
330
259
100
AcDbEntity
  8
0
100
AcDbBlockBegin
  2
*D4
 70
     1
 10
0.0
 20
0.0
 30
0.0
  3
*D4
  1

  0
SOLID
  5
25C
330
259
100
AcDbEntity
  8
VERMASSUNG
100
AcDbTrace
 10
289.4290339036
 20
140.0376822581
 30
0.0
 11
288.9790339036
 21
137.0376822581
 31
0.0
 12
289.8790339036
 22
137.0376822581
 32
0.0
 13
289.8790339036
 23
137.0376822581
 33
0.0
  0
SOLID
  5
25D
330
259
100
AcDbEntity
  8
VERMASSUNG
100
AcDbTrace
 10
289.4290339036
 20
113.0376822581
 30
0.0
 11
289.8790339036
 21
116.0376822581
 31
0.0
 12
288.9790339036
 22
116.0376822581
 32
0.0
 13
288.9790339036
 23
116.0376822581
 33
0.0
  0
LINE
  5
25E
330
259
100
AcDbEntity
  8
VERMASSUNG
100
AcDbLine
 10
283.8562194647
 20
140.0376822581
 30
0.0
 11
290.4290339036
 21
140.0376822581
 31
0.0
  0
LINE
  5
25F
330
259
100
AcDbEntity
  8
VERMASSUNG
100
AcDbLine
 10
278.1290032258
 20
113.0376822581
 30
0.0
 11
290.4290339036
 21
113.0376822581
 31
0.0
  0
LINE
  5
260
330
259
100
AcDbEntity
  8
VERMASSUNG
100
AcDbLine
 10
289.4290339036
 20
140.0376822581
 30
0.0
 11
289.4290339036
 21
113.0376822581
 31
0.0
  0
MTEXT
  5
261
330
259
100
AcDbEntity
  8
VERMASSUNG
100
AcDbMText
 10
286.8508985404
 20
125.1378062903
 30
0.0
 40
2.0
 41
0.0
 71
     1
 72
     1
  1
27
  7
SLDTEXTSTYLE0
 11
-7.044195017643634E-15
 21
1.0
 31
0.0
 73
     1
 44
1.0
  0
ENDBLK
  5
25B
330
259
100
AcDbEntity
  8
0
100
AcDbBlockEnd
  0
BLOCK
  5
264
330
263
100
AcDbEntity
  8
0
100
AcDbBlockBegin
  2
*D5
 70
     1
 10
0.0
 20
0.0
 30
0.0
  3
*D5
  1

  0
SOLID
  5
266
330
263
100
AcDbEntity
  8
VERMASSUNG
100
AcDbTrace
 10
107.9105633225
 20
144.5376822581
 30
0.0
 11
107.4605633225
 21
141.5376822581
 31
0.0
 12
108.3605633225
 22
141.5376822581
 32
0.0
 13
108.3605633225
 23
141.5376822581
 33
0.0
  0
SOLID
  5
267
330
263
100
AcDbEntity
  8
VERMASSUNG
100
AcDbTrace
 10
107.9105633225
 20
81.5376822581
 30
0.0
 11
108.3605633225
 21
84.5376822581
 31
0.0
 12
107.4605633225
 22
84.5376822581
 32
0.0
 13
107.4605633225
 23
84.5376822581
 33
0.0
  0
LINE
  5
268
330
263
100
AcDbEntity
  8
VERMASSUNG
100
AcDbLine
 10
144.1562194647
 20
144.5376822581
 30
0.0
 11
106.9105633225
 21
144.5376822581
 31
0.0
  0
LINE
  5
269
330
263
100
AcDbEntity
  8
VERMASSUNG
100
AcDbLine
 10
144.1562194647
 20
81.5376822581
 30
0.0
 11
106.9105633225
 21
81.5376822581
 31
0.0
  0
LINE
  5
26A
330
263
100
AcDbEntity
  8
VERMASSUNG
100
AcDbLine
 10
107.9105633225
 20
144.5376822581
 30
0.0
 11
107.9105633225
 21
81.5376822581
 31
0.0
  0
MTEXT
  5
26B
330
263
100
AcDbEntity
  8
VERMASSUNG
100
AcDbMText
 10
105.1324278335
 20
106.8335199194
 30
0.0
 40
2.0
 41
0.0
 71
     1
 72
     1
  1
HSK 
  7
SLDTEXTSTYLE0
 11
-7.044195017643634E-15
 21
1.0
 31
0.0
 73
     1
 44
1.0
  0
MTEXT
  5
26C
330
263
100
AcDbEntity
  8
VERMASSUNG
100
AcDbMText
 10
105.332427843
 20
112.8335199715
 30
0.0
 40
2.0
 41
0.0
 71
     1
 72
     1
  1
%%c
  7
SLDTEXTSTYLE0
 11
-7.044195017643634E-15
 21
1.0
 31
0.0
 73
     1
 44
1.0
  0
MTEXT
  5
26D
330
263
100
AcDbEntity
  8
VERMASSUNG
100
AcDbMText
 10
105.3324279594
 20
116.4420926613
 30
0.0
 40
2.0
 41
0.0
 71
     1
 72
     1
  1
63
  7
SLDTEXTSTYLE0
 11
-7.044195017643634E-15
 21
1.0
 31
0.0
 73
     1
 44
1.0
  0
ENDBLK
  5
265
330
263
100
AcDbEntity
  8
0
100
AcDbBlockEnd
  0
BLOCK
  5
2DD
330
2DC
100
AcDbEntity
  8
0
100
AcDbBlockBegin
  2
*D6
 70
     1
 10
0.0
 20
0.0
 30
0.0
  3
*D6
  1

  0
SOLID
  5
2DF
330
2DC
100
AcDbEntity
  8
VERMASSUNG
100
AcDbTrace
 10
23.0234062
 20
90.0376222763
 30
0.0
 11
23.4734062
 21
93.0376222763
 31
0.0
 12
22.5734062
 22
93.0376222763
 32
0.0
 13
22.5734062
 23
93.0376222763
 33
0.0
  0
SOLID
  5
2E0
330
2DC
100
AcDbEntity
  8
VERMASSUNG
100
AcDbTrace
 10
23.0234062
 20
140.0376222763
 30
0.0
 11
22.5734062
 21
137.0376222763
 31
0.0
 12
23.4734062
 22
137.0376222763
 32
0.0
 13
23.4734062
 23
137.0376222763
 33
0.0
  0
LINE
  5
2E1
330
2DC
100
AcDbEntity
  8
VERMASSUNG
100
AcDbLine
 10
58.0333209677
 20
90.0376222763
 30
0.0
 11
22.0234062
 21
90.0376222763
 31
0.0
  0
LINE
  5
2E2
330
2DC
100
AcDbEntity
  8
VERMASSUNG
100
AcDbLine
 10
58.0333209677
 20
140.0376222763
 30
0.0
 11
22.0234062
 21
140.0376222763
 31
0.0
  0
LINE
  5
2E3
330
2DC
100
AcDbEntity
  8
VERMASSUNG
100
AcDbLine
 10
23.0234062
 20
90.0376222763
 30
0.0
 11
23.0234062
 21
140.0376222763
 31
0.0
  0
MTEXT
  5
2E4
330
2DC
100
AcDbEntity
  8
VERMASSUNG
100
AcDbMText
 10
20.4452707204
 20
111.8335431634
 30
0.0
 40
2.0
 41
0.0
 71
     1
 72
     1
  1
%%c
  7
SLDTEXTSTYLE0
 11
6.123233995736766E-17
 21
1.0
 31
0.0
 73
     1
 44
1.0
  0
MTEXT
  5
2E5
330
2DC
100
AcDbEntity
  8
VERMASSUNG
100
AcDbMText
 10
20.4452708368
 20
115.4419494537
 30
0.0
 40
2.0
 41
0.0
 71
     1
 72
     1
  1
50
  7
SLDTEXTSTYLE0
 11
6.123233995736766E-17
 21
1.0
 31
0.0
 73
     1
 44
1.0
  0
ENDBLK
  5
2DE
330
2DC
100
AcDbEntity
  8
0
100
AcDbBlockEnd
  0
BLOCK
  5
2E7
330
2E6
100
AcDbEntity
  8
0
100
AcDbBlockBegin
  2
SW_CENTERMARKSYMBOL_0
 70
     0
 10
0.0
 20
0.0
 30
0.0
  3
SW_CENTERMARKSYMBOL_0
  1

  0
LINE
  5
2E9
330
2E6
100
AcDbEntity
  8
VERMASSUNG
 62
     0
100
AcDbLine
 10
0.0
 20
0.0
 30
0.0
 11
0.0
 21
2.5
 31
0.0
  0
LINE
  5
2EA
330
2E6
100
AcDbEntity
  8
VERMASSUNG
 62
     0
100
AcDbLine
 10
0.0
 20
0.0
 30
0.0
 11
-2.5
 21
0.0
 31
0.0
  0
LINE
  5
2EB
330
2E6
100
AcDbEntity
  8
VERMASSUNG
 62
     0
100
AcDbLine
 10
0.0
 20
0.0
 30
0.0
 11
0.0
 21
-2.5
 31
0.0
  0
LINE
  5
2EC
330
2E6
100
AcDbEntity
  8
VERMASSUNG
 62
     0
100
AcDbLine
 10
0.0
 20
0.0
 30
0.0
 11
2.5
 21
0.0
 31
0.0
  0
LINE
  5
2ED
330
2E6
100
AcDbEntity
  8
VERMASSUNG
 62
     0
100
AcDbLine
 10
0.0
 20
5.0
 30
0.0
 11
0.0
 21
34.0
 31
0.0
  0
LINE
  5
2EE
330
2E6
100
AcDbEntity
  8
VERMASSUNG
 62
     0
100
AcDbLine
 10
-5.0
 20
0.0
 30
0.0
 11
-34.0
 21
0.0
 31
0.0
  0
LINE
  5
2EF
330
2E6
100
AcDbEntity
  8
VERMASSUNG
 62
     0
100
AcDbLine
 10
0.0
 20
-5.0
 30
0.0
 11
0.0
 21
-34.0
 31
0.0
  0
LINE
  5
2F0
330
2E6
100
AcDbEntity
  8
VERMASSUNG
 62
     0
100
AcDbLine
 10
5.0
 20
0.0
 30
0.0
 11
34.0
 21
0.0
 31
0.0
  0
ENDBLK
  5
2E8
330
2E6
100
AcDbEntity
  8
0
100
AcDbBlockEnd
  0
ENDSEC
  0
SECTION
  2
ENTITIES
  0
MTEXT
  5
45
330
1F
100
AcDbEntity
  8
KOPF_DÜNN
100
AcDbMText
 10
13.8892156294
 20
23.8442973028
 30
0.0
 40
3.0
 41
0.0
 71
     1
 72
     1
  1
HA6.PDF.RQC.140
  7
SLDTEXTSTYLE0
 73
     1
 44
1.0
  0
MTEXT
  5
46
330
1F
100
AcDbEntity
  8
VERMASSUNG
100
AcDbMText
 10
13.9329988022
 20
28.8834360957
 30
0.0
 40
3.0
 41
0.0
 71
     1
 72
     1
  1
Bohrstange_Boring bar
  7
SLDTEXTSTYLE0
 73
     1
 44
1.0
  0
MTEXT
  5
47
330
1F
100
AcDbEntity
  8
VERMASSUNG
100
AcDbMText
 10
98.8601118557
 20
13.8365368179
 30
0.0
 40
2.0
 41
0.0
 71
     1
 72
     1
  1
Datum: 03.03.2011
  7
SLDTEXTSTYLE0
 73
     1
 44
1.0
  0
MTEXT
  5
48
330
1F
100
AcDbEntity
  8
VERMASSUNG
100
AcDbMText
 10
13.933048693
 20
18.0482802738
 30
0.0
 40
2.0
 41
0.0
 71
     1
 72
     1
  1
DIN 69893 HSK 63 A ICTM / DN..15 04..
  7
SLDTEXTSTYLE0
 73
     1
 44
1.0
  0
MTEXT
  5
49
330
1F
100
AcDbEntity
  8
VERMASSUNG
100
AcDbMText
 10
13.9808475933
 20
13.9090973692
 30
0.0
 40
2.0
 41
0.0
 71
     1
 72
     1
  1
Gewicht: 1574g
  7
SLDTEXTSTYLE0
 73
     1
 44
1.0
  0
LINE
  5
4A
330
1F
100
AcDbEntity
  8
0
  6
Continuous
 62
     7
370
    15
100
AcDbLine
 10
278.973345988
 20
125.0244729664
 30
0.0
 11
279.4709014732
 21
126.0087111556
 31
0.0
  0
LINE
  5
4B
330
1F
100
AcDbEntity
  8
0
  6
Continuous
 62
     7
370
    15
100
AcDbLine
 10
269.3224766689
 20
135.8549328359
 30
0.0
 11
268.9920918066
 21
135.2013828131
 31
0.0
  0
LINE
  5
4C
330
1F
100
AcDbEntity
  8
0
  6
Continuous
 62
     7
370
    15
100
AcDbLine
 10
278.5669296555
 20
124.3098253354
 30
0.0
 11
278.8606069054
 21
124.8907622827
 31
0.0
  0
LINE
  5
4D
330
1F
100
AcDbEntity
  8
0
  6
Continuous
 62
     7
370
    15
100
AcDbLine
 10
276.10282229
 20
129.0096423427
 30
0.0
 11
276.1840914136
 21
129.1632282991
 31
0.0
  0
LINE
  5
4E
330
1F
100
AcDbEntity
  8
0
  6
Continuous
 62
     7
370
    15
100
AcDbLine
 10
272.0281125441
 20
131.3581891417
 30
0.0
 11
271.8308238888
 21
130.9853443828
 31
0.0
  0
LINE
  5
4F
330
1F
100
AcDbEntity
  8
0
  6
Continuous
 62
     7
370
    15
100
AcDbLine
 10
144.1562194647
 20
81.5376822581
 30
0.0
 11
148.8062194647
 21
81.5376822581
 31
0.0
  0
LINE
  5
50
330
1F
100
AcDbEntity
  8
0
  6
Continuous
 62
     7
370
    15
100
AcDbLine
 10
148.8104236621
 20
144.5376822581
 30
0.0
 11
144.1562194647
 21
144.5376822581
 31
0.0
  0
ARC
  5
51
330
1F
100
AcDbEntity
  8
0
  6
Continuous
 62
     7
370
    15
100
AcDbCircle
 10
144.1562194647
 20
81.8376822581
 30
0.0
 40
0.3000000000000114
100
AcDbArc
 50
180.0
 51
270.0
  0
ARC
  5
52
330
1F
100
AcDbEntity
  8
0
  6
Continuous
 62
     7
370
    15
100
AcDbCircle
 10
144.1562194647
 20
144.2376822581
 30
0.0
 40
0.3000000000000114
100
AcDbArc
 50
90.0
 51
180.0
  0
ARC
  5
53
330
1F
100
AcDbEntity
  8
0
  6
Continuous
 62
     7
370
    15
100
AcDbCircle
 10
143.3562194647
 20
88.4672513963
 30
0.0
 40
0.6000000000000085
100
AcDbArc
 50
33.5573097619
 51
90.0
  0
ARC
  5
54
330
1F
100
AcDbEntity
  8
0
  6
Continuous
 62
     7
370
    15
100
AcDbCircle
 10
143.3562194647
 20
137.6081131198
 30
0.0
 40
0.6000000000000227
100
AcDbArc
 50
270.0
 51
326.4426902381
  0
LINE
  5
55
330
1F
100
AcDbEntity
  8
0
  6
Continuous
 62
     7
370
    15
100
AcDbLine
 10
141.8562194647
 20
88.8172513963
 30
0.0
 11
142.7129322381
 21
89.0468068921
 31
0.0
  0
LINE
  5
56
330
1F
100
AcDbEntity
  8
0
  6
Continuous
 62
     7
370
    15
100
AcDbLine
 10
142.7129322381
 20
137.028557624
 30
0.0
 11
141.8562194647
 21
137.2581131198
 31
0.0
  0
LINE
  5
57
330
1F
100
AcDbEntity
  8
0
  6
Continuous
 62
     7
370
    15
100
AcDbLine
 10
130.6257972822
 20
136.6954667179
 30
0.0
 11
118.0562194647
 21
136.0657283502
 31
0.0
  0
LINE
  5
58
330
1F
100
AcDbEntity
  8
0
  6
Continuous
 62
     7
370
    15
100
AcDbLine
 10
141.8562194647
 20
137.2581131198
 30
0.0
 11
139.0376101072
 21
137.1169002261
 31
0.0
  0
LINE
  5
59
330
1F
100
AcDbEntity
  8
0
  6
Continuous
 62
     7
370
    15
100
AcDbLine
 10
139.0378315824
 20
88.9584531941
 30
0.0
 11
141.8562194647
 21
88.8172513963
 31
0.0
  0
LINE
  5
5A
330
1F
100
AcDbEntity
  8
0
  6
Continuous
 62
     7
370
    15
100
AcDbLine
 10
122.0562194647
 20
89.8092353643
 30
0.0
 11
130.6264962339
 21
89.3798627806
 31
0.0
  0
ARC
  5
5B
330
1F
100
AcDbEntity
  8
0
  6
Continuous
 62
     7
370
    15
100
AcDbCircle
 10
142.8682236651
 20
88.4672513963
 30
0.0
 40
0.6000000000000085
100
AcDbArc
 50
90.0
 51
105.0
  0
ARC
  5
5C
330
1F
100
AcDbEntity
  8
0
  6
Continuous
 62
     7
370
    15
100
AcDbCircle
 10
142.8682236651
 20
137.6081131198
 30
0.0
 40
0.6000000000000227
100
AcDbArc
 50
255.0
 51
270.0
  0
LINE
  5
5D
330
1F
100
AcDbEntity
  8
0
  6
Continuous
 62
     7
370
    15
100
AcDbLine
 10
142.8682236651
 20
89.0672513963
 30
0.0
 11
143.3562194647
 21
89.0672513963
 31
0.0
  0
LINE
  5
5E
330
1F
100
AcDbEntity
  8
0
  6
Continuous
 62
     7
370
    15
100
AcDbLine
 10
143.3562194647
 20
137.0081131198
 30
0.0
 11
142.8682236651
 21
137.0081131198
 31
0.0
  0
ARC
  5
5F
330
1F
100
AcDbEntity
  8
0
  6
Continuous
 62
     7
370
    15
100
AcDbCircle
 10
172.8062194647
 20
90.0376822581
 30
0.0
 40
3.0
100
AcDbArc
 50
90.0
 51
180.0
  0
ARC
  5
60
330
1F
100
AcDbEntity
  8
0
  6
Continuous
 62
     7
370
    15
100
AcDbCircle
 10
172.8062194647
 20
136.0376822581
 30
0.0
 40
3.0
100
AcDbArc
 50
180.0
 51
270.0
  0
LINE
  5
61
330
1F
100
AcDbEntity
  8
0
  6
Continuous
 62
     7
370
    15
100
AcDbLine
 10
172.8062194647
 20
93.0376822581
 30
0.0
 11
256.8562194647
 21
93.0376822581
 31
0.0
  0
LINE
  5
62
330
1F
100
AcDbEntity
  8
0
  6
Continuous
 62
     7
370
    15
100
AcDbLine
 10
253.237624913
 20
133.0376822581
 30
0.0
 11
172.8062194647
 21
133.0376822581
 31
0.0
  0
LINE
  5
63
330
1F
100
AcDbEntity
  8
0
  6
Continuous
 62
     7
370
    15
100
AcDbLine
 10
257.3562194647
 20
92.5376822581
 30
0.0
 11
267.8155814009
 21
92.5376822581
 31
0.0
  0
LINE
  5
64
330
1F
100
AcDbEntity
  8
0
  6
Continuous
 62
     7
370
    15
100
AcDbLine
 10
256.8562194647
 20
93.0376822581
 30
0.0
 11
257.3562194647
 21
92.5376822581
 31
0.0
  0
LINE
  5
65
330
1F
100
AcDbEntity
  8
0
  6
Continuous
 62
     7
370
    15
100
AcDbLine
 10
113.1062194647
 20
92.2251822581
 30
0.0
 11
120.6562194647
 21
92.2251822581
 31
0.0
  0
ARC
  5
66
330
1F
100
AcDbEntity
  8
0
  6
Continuous
 62
     7
370
    15
100
AcDbCircle
 10
120.6562194647
 20
90.8251822581
 30
0.0
 40
1.400000000000011
100
AcDbArc
 50
37.6438857999
 51
90.0
  0
LINE
  5
67
330
1F
100
AcDbEntity
  8
0
  6
Continuous
 62
     7
370
    15
100
AcDbLine
 10
113.0973829229
 20
133.8988457162
 30
0.0
 11
111.9661202381
 21
132.7675830314
 31
0.0
  0
LINE
  5
68
330
1F
100
AcDbEntity
  8
0
  6
Continuous
 62
     7
370
    15
100
AcDbLine
 10
111.9581683085
 20
93.3732334142
 30
0.0
 11
113.1062194647
 21
92.2251822581
 31
0.0
  0
ARC
  5
69
330
1F
100
AcDbEntity
  8
0
  6
Continuous
 62
     7
370
    15
100
AcDbCircle
 10
116.6562194647
 20
135.3076822581
 30
0.0
 40
1.400000000000006
100
AcDbArc
 50
270.0
 51
301.7485287426
  0
LINE
  5
6A
330
1F
100
AcDbEntity
  8
0
  6
Continuous
 62
     7
370
    15
100
AcDbLine
 10
116.6562194647
 20
133.9076822581
 30
0.0
 11
113.2471078661
 21
133.9076822581
 31
0.0
  0
LINE
  5
6B
330
1F
100
AcDbEntity
  8
0
  6
Continuous
 62
     7
370
    15
100
AcDbLine
 10
269.0682300877
 20
135.2233300652
 30
0.0
 11
259.1682271733
 21
132.3696031785
 31
0.0
  0
LINE
  5
6C
330
1F
100
AcDbEntity
  8
0
  6
Continuous
 62
     7
370
    15
100
AcDbLine
 10
265.4545908362
 20
121.8415528969
 30
0.0
 11
279.2335461764
 21
125.8134078211
 31
0.0
  0
ARC
  5
6D
330
1F
100
AcDbEntity
  8
0
  6
Continuous
 62
     7
370
    15
100
AcDbCircle
 10
265.341299235
 20
122.2278959903
 30
0.0
 40
0.4026114413859894
100
AcDbArc
 50
163.3488299787
 51
286.3432956353
  0
LINE
  5
6E
330
1F
100
AcDbEntity
  8
0
  6
Continuous
 62
     7
370
    15
100
AcDbLine
 10
269.3000584105
 20
135.8004163294
 30
0.0
 11
264.9555704798
 21
122.3432619304
 31
0.0
  0
ARC
  5
6F
330
1F
100
AcDbEntity
  8
0
  6
Continuous
 62
     7
370
    15
100
AcDbCircle
 10
269.6641877678
 20
135.6817506097
 30
0.0
 40
0.3829774690856785
100
AcDbArc
 50
105.8122214763
 51
161.9497852178
  0
LINE
  5
70
330
1F
100
AcDbEntity
  8
0
  6
Continuous
 62
     7
370
    15
100
AcDbLine
 10
283.3387873059
 20
140.0220910945
 30
0.0
 11
269.5598319657
 21
136.0502361703
 31
0.0
  0
ARC
  5
71
330
1F
100
AcDbEntity
  8
0
  6
Continuous
 62
     7
370
    15
100
AcDbCircle
 10
283.4520789071
 20
139.6357480011
 30
0.0
 40
0.4026114413860438
100
AcDbArc
 50
343.3488299787
 51
106.3432956353
  0
LINE
  5
72
330
1F
100
AcDbEntity
  8
0
  6
Continuous
 62
     7
370
    15
100
AcDbLine
 10
279.4933197316
 20
126.063227662
 30
0.0
 11
283.8378076623
 21
139.5203820611
 31
0.0
  0
ARC
  5
73
330
1F
100
AcDbEntity
  8
0
  6
Continuous
 62
     7
370
    15
100
AcDbCircle
 10
279.1291903743
 20
126.1818933818
 30
0.0
 40
0.3829774690861643
100
AcDbArc
 50
285.8122214763
 51
341.9497852178
  0
ARC
  5
74
330
1F
100
AcDbEntity
  8
0
  6
Continuous
 62
     7
370
    15
100
AcDbCircle
 10
283.4523954971
 20
139.636276934
 30
0.0
 40
0.3824808693167267
100
AcDbArc
 50
343.3488299787
 51
106.3432956353
  0
LINE
  5
75
330
1F
100
AcDbEntity
  8
0
  6
Continuous
 62
     7
370
    15
100
AcDbLine
 10
283.3447684759
 20
140.0033028727
 30
0.0
 11
269.5658131358
 21
136.0314479482
 31
0.0
  0
ARC
  5
76
330
1F
100
AcDbEntity
  8
0
  6
Continuous
 62
     7
370
    15
100
AcDbCircle
 10
269.6649511485
 20
135.6813866646
 30
0.0
 40
0.3638285968172873
100
AcDbArc
 50
105.8122215448
 51
161.9497850575
  0
LINE
  5
77
330
1F
100
AcDbEntity
  8
0
  6
Continuous
 62
     7
370
    15
100
AcDbLine
 10
269.3190282584
 20
135.7941190997
 30
0.0
 11
264.9745403276
 21
122.3369647006
 31
0.0
  0
ARC
  5
78
330
1F
100
AcDbEntity
  8
0
  6
Continuous
 62
     7
370
    15
100
AcDbCircle
 10
265.340982645
 20
122.2273670575
 30
0.0
 40
0.3824808693166878
100
AcDbArc
 50
163.3488299787
 51
286.3432956353
  0
LINE
  5
79
330
1F
100
AcDbEntity
  8
0
  6
Continuous
 62
     7
370
    15
100
AcDbLine
 10
265.4486096662
 20
121.8603411188
 30
0.0
 11
279.2275650064
 21
125.832196043
 31
0.0
  0
ARC
  5
7A
330
1F
100
AcDbEntity
  8
0
  6
Continuous
 62
     7
370
    15
100
AcDbCircle
 10
279.1284269944
 20
126.1822573256
 30
0.0
 40
0.363828595632077
100
AcDbArc
 50
285.8122214763
 51
341.9497852177
  0
LINE
  5
7B
330
1F
100
AcDbEntity
  8
0
  6
Continuous
 62
     7
370
    15
100
AcDbLine
 10
279.4743498838
 20
126.0695248919
 30
0.0
 11
283.8188378146
 21
139.5266792909
 31
0.0
  0
LINE
  5
7C
330
1F
100
AcDbEntity
  8
0
  6
Continuous
 62
     7
370
    15
100
AcDbLine
 10
265.3120346117
 20
122.1719528237
 30
0.0
 11
265.4486096662
 21
121.8603411188
 31
0.0
  0
LINE
  5
7D
330
1F
100
AcDbEntity
  8
0
  6
Continuous
 62
     7
370
    15
100
AcDbLine
 10
265.3120346117
 20
122.1719528237
 30
0.0
 11
264.9745403276
 21
122.3369647006
 31
0.0
  0
LINE
  5
7E
330
1F
100
AcDbEntity
  8
0
  6
Continuous
 62
     7
370
    15
100
AcDbLine
 10
279.0909899519
 20
126.1438077479
 30
0.0
 11
279.2275650064
 21
125.832196043
 31
0.0
  0
LINE
  5
7F
330
1F
100
AcDbEntity
  8
0
  6
Continuous
 62
     7
370
    15
100
AcDbLine
 10
266.7829136734
 20
123.5247832011
 30
0.0
 11
265.3120346117
 21
122.1719528237
 31
0.0
  0
LINE
  5
80
330
1F
100
AcDbEntity
  8
0
  6
Continuous
 62
     7
370
    15
100
AcDbLine
 10
266.7829136734
 20
123.5247832011
 30
0.0
 11
267.4233620773
 21
123.7093957559
 31
0.0
  0
LINE
  5
81
330
1F
100
AcDbEntity
  8
0
  6
Continuous
 62
     7
370
    15
100
AcDbLine
 10
278.7223011593
 20
126.4366733242
 30
0.0
 11
279.0909899519
 21
126.1438077479
 31
0.0
  0
LINE
  5
82
330
1F
100
AcDbEntity
  8
0
  6
Continuous
 62
     7
370
    15
100
AcDbLine
 10
278.6560940824
 20
124.8061390225
 30
0.0
 11
278.7359906913
 21
124.8291696319
 31
0.0
  0
LINE
  5
83
330
1F
100
AcDbEntity
  8
0
  6
Continuous
 62
     7
370
    15
100
AcDbLine
 10
265.7615692614
 20
125.3968139976
 30
0.0
 11
264.5086575265
 21
121.5158901849
 31
0.0
  0
LINE
  5
84
330
1F
100
AcDbEntity
  8
0
  6
Continuous
 62
     7
370
    15
100
AcDbLine
 10
269.6565225425
 20
135.6291072227
 30
0.0
 11
269.3190282584
 21
135.7941190997
 31
0.0
  0
LINE
  5
85
330
1F
100
AcDbEntity
  8
0
  6
Continuous
 62
     7
370
    15
100
AcDbLine
 10
269.973051957
 20
135.2330626976
 30
0.0
 11
269.6565225425
 21
135.6291072227
 31
0.0
  0
LINE
  5
86
330
1F
100
AcDbEntity
  8
0
  6
Continuous
 62
     7
370
    15
100
AcDbLine
 10
266.9848462795
 20
124.1502742376
 30
0.0
 11
266.7829136734
 21
123.5247832011
 31
0.0
  0
SPLINE
  5
87
330
1F
100
AcDbEntity
  8
0
  6
Continuous
 62
     7
370
    15
100
AcDbSpline
210
0.0
220
0.0
230
1.0
 70
     8
 71
     3
 72
    14
 73
    10
 74
     0
 42
0.00000001
 43
0.00000001
 40
0.0
 40
0.0
 40
0.0
 40
0.0
 40
0.2234968253974303
 40
0.356762296377482
 40
0.4531212562341523
 40
0.5344619041500438
 40
0.6157317558035419
 40
0.7396161778922119
 40
1.0
 40
1.0
 40
1.0
 40
1.0
 10
267.4233620773198
 20
123.7093957558727
 30
0.0
 10
267.4792827998441
 20
123.7281547884652
 30
0.0
 10
267.5685476265252
 20
123.7580993549423
 30
0.0
 10
267.6661384794875
 20
123.8274122768091
 30
0.0
 10
267.7161318885133
 20
123.8923537074618
 30
0.0
 10
267.7360015168505
 20
123.9579816034438
 30
0.0
 10
267.7311151115654
 20
124.033794518228
 30
0.0
 10
267.6823036442776
 20
124.1487524232329
 30
0.0
 10
267.6122037348744
 20
124.2240132397504
 30
0.0
 10
267.5647033686186
 20
124.2750106858203
 30
0.0
  0
ARC
  5
88
330
1F
100
AcDbEntity
  8
0
  6
Continuous
 62
     7
370
    15
100
AcDbCircle
 10
269.3410004106
 20
126.0810752711
 30
0.0
 40
1.006528603464949
100
AcDbArc
 50
163.3488299787
 51
286.3432956353
  0
LINE
  5
89
330
1F
100
AcDbEntity
  8
0
  6
Continuous
 62
     7
370
    15
100
AcDbLine
 10
267.563070014
 20
124.2766528409
 30
0.0
 11
267.5647033686
 21
124.2750106858
 31
0.0
  0
SPLINE
  5
8A
330
1F
100
AcDbEntity
  8
0
  6
Continuous
 62
     7
370
    15
100
AcDbSpline
210
0.0
220
0.0
230
1.0
 70
     8
 71
     3
 72
    14
 73
    10
 74
     0
 42
0.00000001
 43
0.00000001
 40
0.0
 40
0.0
 40
0.0
 40
0.0
 40
0.2210591904779623
 40
0.3460797326519233
 40
0.4396016244131904
 40
0.5338897453199518
 40
0.6146561933587666
 40
0.7517253237593704
 40
1.0
 40
1.0
 40
1.0
 40
1.0
 10
267.5630700139566
 20
124.2766528408509
 30
0.0
 10
267.5201836422805
 20
124.3171622551393
 30
0.0
 10
267.453042782803
 20
124.3805818634192
 30
0.0
 10
267.3485797380775
 20
124.4365345080803
 30
0.0
 10
267.2658095347471
 20
124.4539060429744
 30
0.0
 10
267.1940387317554
 20
124.4411397521254
 30
0.0
 10
267.1232936768735
 20
124.3986502377279
 30
0.0
 10
267.0429594235135
 20
124.3050761269148
 30
0.0
 10
267.0076171146171
 20
124.2109312259608
 30
0.0
 10
266.9848462794626
 20
124.1502742375748
 30
0.0
  0
LINE
  5
8B
330
1F
100
AcDbEntity
  8
0
  6
Continuous
 62
     7
370
    15
100
AcDbLine
 10
269.6242294137
 20
125.1152175376
 30
0.0
 11
277.3358128226
 21
127.3381212178
 31
0.0
  0
LINE
  5
8C
330
1F
100
AcDbEntity
  8
0
  6
Continuous
 62
     7
370
    15
100
AcDbLine
 10
270.8081314317
 20
133.9009731714
 30
0.0
 11
268.3766785225
 21
126.3694901212
 31
0.0
  0
ARC
  5
8D
330
1F
100
AcDbEntity
  8
0
  6
Continuous
 62
     7
370
    15
100
AcDbCircle
 10
271.7184548247
 20
133.6043088721
 30
0.0
 40
0.9574436727146575
100
AcDbArc
 50
105.8122214763
 51
161.9497852178
  0
LINE
  5
8E
330
1F
100
AcDbEntity
  8
0
  6
Continuous
 62
     7
370
    15
100
AcDbLine
 10
279.1691487284
 20
136.7484264539
 30
0.0
 11
271.4575653195
 21
134.5255227737
 31
0.0
  0
ARC
  5
8F
330
1F
100
AcDbEntity
  8
0
  6
Continuous
 62
     7
370
    15
100
AcDbCircle
 10
279.4523777319
 20
135.7825687205
 30
0.0
 40
1.006528603457706
100
AcDbArc
 50
343.3488299646
 51
106.3432956556
  0
LINE
  5
90
330
1F
100
AcDbEntity
  8
0
  6
Continuous
 62
     7
370
    15
100
AcDbLine
 10
277.9852467104
 20
127.9626708201
 30
0.0
 11
280.4166996199
 21
135.4941538702
 31
0.0
  0
ARC
  5
91
330
1F
100
AcDbEntity
  8
0
  6
Continuous
 62
     7
370
    15
100
AcDbCircle
 10
277.0749233174
 20
128.2593351194
 30
0.0
 40
0.957443672714372
100
AcDbArc
 50
285.8122214763
 51
341.9497852178
  0
LWPOLYLINE
  5
92
330
1F
100
AcDbEntity
  8
0
  6
Continuous
 62
     7
370
    15
100
AcDbPolyline
 90
       23
 70
   128
 43
0.0
 10
276.843799436
 20
130.1194793497
 10
276.962050924
 20
130.8257142699
 10
276.8724720514
 20
131.540545407
 10
276.5823199659
 20
132.2060613935
 10
276.1151010636
 20
132.7683460822
 10
275.5086666416
 20
133.1818465117
 10
274.8121464099
 20
133.4130633362
 10
274.0819682955
 20
133.4432647439
 10
273.3772869866
 20
133.2700039963
 10
272.755191572
 20
132.9073176486
 10
272.2660805224
 20
132.3845883919
 10
271.9495787061
 20
131.7441646417
 10
271.8313272181
 20
131.0379297216
 10
271.9209060907
 20
130.3230985845
 10
272.2110581762
 20
129.6575825979
 10
272.6782770785
 20
129.0952979092
 10
273.2847115005
 20
128.6817974798
 10
273.9812317322
 20
128.4505806552
 10
274.7114098466
 20
128.4203792475
 10
275.4160911555
 20
128.5936399952
 10
276.0381865701
 20
128.9563263428
 10
276.5272976197
 20
129.4790555995
 10
276.843799436
 20
130.1194793497
  0
SPLINE
  5
93
330
1F
100
AcDbEntity
  8
0
  6
Continuous
 62
     7
370
    15
100
AcDbSpline
210
0.0
220
0.0
230
1.0
 70
     8
 71
     3
 72
    11
 73
     7
 74
     0
 42
0.00000001
 43
0.00000001
 40
0.0
 40
0.0
 40
0.0
 40
0.0
 40
0.3280455501580075
 40
0.6557028173711911
 40
0.9906967996087795
 40
1.0
 40
1.0
 40
1.0
 40
1.0
 10
278.7223011592617
 20
126.436673324231
 30
0.0
 10
278.6669212512823
 20
126.4832834981682
 30
0.0
 10
278.5562269843721
 20
126.576448677071
 30
0.0
 10
278.3851923622371
 20
126.7523233970766
 30
0.0
 10
278.2824450495683
 20
126.8732973785029
 30
0.0
 10
278.2361023901366
 20
126.9327759032154
 30
0.0
 10
278.234850172375
 20
126.9343830631408
 30
0.0
  0
LWPOLYLINE
  5
94
330
1F
100
AcDbEntity
  8
0
  6
Continuous
 62
     7
370
    15
100
AcDbPolyline
 90
        3
 70
   128
 43
0.0
 10
276.3941626545
 20
129.3041701809
 10
276.4644954388
 20
129.8414760807
 10
276.4436936302
 20
130.2165234676
  0
ARC
  5
95
330
1F
100
AcDbEntity
  8
0
  6
Continuous
 62
     7
370
    15
100
AcDbCircle
 10
273.8147138002
 20
129.9710667736
 30
0.0
 40
2.496624225846004
100
AcDbArc
 50
105.9580399438
 51
140.0188791556
  0
LINE
  5
96
330
1F
100
AcDbEntity
  8
0
  6
Continuous
 62
     7
370
    15
100
AcDbLine
 10
279.0909899519
 20
126.1438077479
 30
0.0
 11
279.4743498838
 21
126.0695248919
 31
0.0
  0
ARC
  5
97
330
1F
100
AcDbEntity
  8
0
  6
Continuous
 62
     7
370
    15
100
AcDbCircle
 10
278.631264089
 20
125.1983280932
 30
0.0
 40
0.3837259838817641
100
AcDbArc
 50
285.838114577
 51
333.0591105635
  0
LINE
  5
98
330
1F
100
AcDbEntity
  8
0
  6
Continuous
 62
     7
370
    15
100
AcDbLine
 10
281.8432189276
 20
138.0080244243
 30
0.0
 11
283.4354778827
 21
139.600962147
 31
0.0
  0
LINE
  5
99
330
1F
100
AcDbEntity
  8
0
  6
Continuous
 62
     7
370
    15
100
AcDbLine
 10
283.4354778827
 20
139.600962147
 30
0.0
 11
283.8188378146
 21
139.5266792909
 31
0.0
  0
LINE
  5
9A
330
1F
100
AcDbEntity
  8
0
  6
Continuous
 62
     7
370
    15
100
AcDbLine
 10
281.6412863214
 20
137.3825333878
 30
0.0
 11
281.8432189276
 21
138.0080244243
 31
0.0
  0
SPLINE
  5
9B
330
1F
100
AcDbEntity
  8
0
  6
Continuous
 62
     7
370
    15
100
AcDbSpline
210
0.0
220
0.0
230
1.0
 70
     8
 71
     3
 72
    11
 73
     7
 74
     0
 42
0.00000001
 43
0.00000001
 40
0.0
 40
0.0
 40
0.0
 40
0.0
 40
0.3280455501578382
 40
0.655702817370895
 40
0.9906967996087773
 40
1.0
 40
1.0
 40
1.0
 40
1.0
 10
269.9730519570253
 20
135.2330626975797
 30
0.0
 10
270.0223530930293
 20
135.1744278154439
 30
0.0
 10
270.1208970109755
 20
135.05722745289
 30
0.0
 10
270.2945584351908
 20
134.8865489351173
 30
0.0
 10
270.4091528167986
 20
134.789010204687
 30
0.0
 10
270.4641336674852
 20
134.746619297281
 30
0.0
 10
270.4656192964634
 20
134.7454738591936
 30
0.0
  0
LINE
  5
9C
330
1F
100
AcDbEntity
  8
0
  6
Continuous
 62
     7
370
    15
100
AcDbLine
 10
269.6565225425
 20
135.6291072227
 30
0.0
 11
269.5658131358
 21
136.0314479482
 31
0.0
  0
LINE
  5
9D
330
1F
100
AcDbEntity
  8
0
  6
Continuous
 62
     7
370
    15
100
AcDbLine
 10
283.4354778827
 20
139.600962147
 30
0.0
 11
283.3447684759
 21
140.0033028727
 31
0.0
  0
LINE
  5
9E
330
1F
100
AcDbEntity
  8
0
  6
Continuous
 62
     7
370
    15
100
AcDbLine
 10
281.8432189276
 20
138.0080244243
 30
0.0
 11
281.2027705236
 21
137.8234118695
 31
0.0
  0
LINE
  5
9F
330
1F
100
AcDbEntity
  8
0
  6
Continuous
 62
     7
370
    15
100
AcDbLine
 10
281.063062587
 20
137.2561547845
 30
0.0
 11
281.0614292323
 21
137.2577969396
 31
0.0
  0
SPLINE
  5
A0
330
1F
100
AcDbEntity
  8
0
  6
Continuous
 62
     7
370
    15
100
AcDbSpline
210
0.0
220
0.0
230
1.0
 70
     8
 71
     3
 72
    14
 73
    10
 74
     0
 42
0.00000001
 43
0.00000001
 40
0.0
 40
0.0
 40
0.0
 40
0.0
 40
0.2210591904780547
 40
0.3460797326519587
 40
0.4396016244131785
 40
0.533889745320076
 40
0.6146561933587869
 40
0.7517253237594155
 40
0.9999999999999999
 40
0.9999999999999999
 40
0.9999999999999999
 40
0.9999999999999999
 10
281.0630625869534
 20
137.2561547845449
 30
0.0
 10
281.1059489586297
 20
137.2156453702566
 30
0.0
 10
281.1730898181072
 20
137.1522257619767
 30
0.0
 10
281.2775528628326
 20
137.0962731173156
 30
0.0
 10
281.3603230661632
 20
137.0789015824215
 30
0.0
 10
281.4320938691548
 20
137.0916678732704
 30
0.0
 10
281.5028389240367
 20
137.134157387668
 30
0.0
 10
281.5831731773966
 20
137.227731498481
 30
0.0
 10
281.618515486293
 20
137.321876399435
 30
0.0
 10
281.6412863214476
 20
137.382533387821
 30
0.0
  0
SPLINE
  5
A1
330
1F
100
AcDbEntity
  8
0
  6
Continuous
 62
     7
370
    15
100
AcDbSpline
210
0.0
220
0.0
230
1.0
 70
     8
 71
     3
 72
    14
 73
    10
 74
     0
 42
0.00000001
 43
0.00000001
 40
0.0
 40
0.0
 40
0.0
 40
0.0
 40
0.223496825397366
 40
0.3567622963774681
 40
0.453121256234141
 40
0.534461904150037
 40
0.6157317558034653
 40
0.7396161778921889
 40
1.0
 40
1.0
 40
1.0
 40
1.0
 10
281.2027705235903
 20
137.8234118695232
 30
0.0
 10
281.146849801066
 20
137.8046528369307
 30
0.0
 10
281.0575849743851
 20
137.7747082704535
 30
0.0
 10
280.9599941214227
 20
137.7053953485868
 30
0.0
 10
280.9100007123968
 20
137.6404539179341
 30
0.0
 10
280.8901310840598
 20
137.574826021952
 30
0.0
 10
280.8950174893446
 20
137.4990131071678
 30
0.0
 10
280.9438289566326
 20
137.384055202163
 30
0.0
 10
281.0139288660358
 20
137.3087943856455
 30
0.0
 10
281.0614292322917
 20
137.2577969395755
 30
0.0
  0
LINE
  5
A2
330
1F
100
AcDbEntity
  8
0
  6
Continuous
 62
     7
370
    15
100
AcDbLine
 10
265.7615692614
 20
125.3968139976
 30
0.0
 11
264.8027066166
 21
122.4267142149
 31
0.0
  0
LINE
  5
A3
330
1F
100
AcDbEntity
  8
0
  6
Continuous
 62
     7
370
    15
100
AcDbLine
 10
264.3365096704
 20
121.5045078444
 30
0.0
 11
264.3265519503
 21
121.4716396927
 31
0.0
  0
LINE
  5
A4
330
1F
100
AcDbEntity
  8
0
  6
Continuous
 62
     7
370
    15
100
AcDbLine
 10
265.2953723152
 20
124.474607627
 30
0.0
 11
264.3365096704
 21
121.5045078444
 31
0.0
  0
ARC
  5
A5
330
1F
100
AcDbEntity
  8
0
  6
Continuous
 62
     7
370
    15
100
AcDbCircle
 10
277.7209636593
 20
124.7375999005
 30
0.0
 40
0.9479712786854668
100
AcDbArc
 50
318.5324087842
 51
333.1759179747
  0
LINE
  5
A6
330
1F
100
AcDbEntity
  8
0
  6
Continuous
 62
     7
370
    15
100
AcDbLine
 10
271.8933936184
 20
131.5404421496
 30
0.0
 11
272.340081155
 21
131.8053711777
 31
0.0
  0
LINE
  5
A7
330
1F
100
AcDbEntity
  8
0
  6
Continuous
 62
     7
370
    15
100
AcDbLine
 10
276.3530823011
 20
129.5792056639
 30
0.0
 11
276.3707900563
 21
129.2299316678
 31
0.0
  0
LWPOLYLINE
  5
A8
330
1F
100
AcDbEntity
  8
0
  6
Continuous
 62
     7
370
    15
100
AcDbPolyline
 90
       27
 70
   128
 43
0.0
 10
267.2994226634
 20
120.1651425926
 10
268.1202242034
 20
120.3187806731
 10
268.9589225799
 20
120.2738454845
 10
269.7667756917
 20
120.0329484966
 10
270.4968340525
 20
119.6100897667
 10
271.1066693238
 20
119.0298443072
 10
271.5608400965
 20
118.3259338751
 10
271.832951616
 20
117.5392671861
 10
271.9071897499
 20
116.7155624487
 10
271.7792400478
 20
115.9026903883
 10
271.4565384812
 20
115.1478921742
 10
270.9578392922
 20
114.4950339352
 10
270.312125065
 20
113.982057419
 10
269.5569223634
 20
113.6387749562
 10
268.7361208233
 20
113.4851368757
 10
267.8974224468
 20
113.5300720643
 10
267.089569335
 20
113.7709690522
 10
266.3595109743
 20
114.193827782
 10
265.7496757029
 20
114.7740732415
 10
265.2955049303
 20
115.4779836736
 10
265.0233934108
 20
116.2646503626
 10
264.9491552768
 20
117.0883551
 10
265.077104979
 20
117.9012271605
 10
265.3998065456
 20
118.6560253746
 10
265.8985057345
 20
119.3088836136
 10
266.5442199618
 20
119.8218601298
 10
267.2994226634
 20
120.1651425926
  0
LWPOLYLINE
  5
A9
330
1F
100
AcDbEntity
  8
0
  6
Continuous
 62
     7
370
    15
100
AcDbPolyline
 90
       20
 70
   128
 43
0.0
 10
267.7831725991
 20
118.7666352419
 10
268.4290622034
 20
118.8582343383
 10
269.074855396
 20
118.7378406225
 10
269.650570464
 20
118.4185006219
 10
270.0938197465
 20
117.9348197805
 10
270.3565703062
 20
117.3392124226
 10
270.4103490428
 20
116.6962218473
 10
270.2493281958
 20
116.0755260603
 10
269.8909568725
 20
115.5443870813
 10
269.3740701665
 20
115.1603620602
 10
268.7546807726
 20
114.9650660667
 10
268.0999091425
 20
114.979662452
 10
267.4807099422
 20
115.2025694714
 10
266.9641830129
 20
115.6096316905
 10
266.6063020621
 20
116.1567376017
 10
266.4458490439
 20
116.7845997902
 10
266.5002115325
 20
117.4251796457
 10
266.7634985089
 20
118.0090604011
 10
267.2071787437
 20
118.4729695169
 10
267.7831725991
 20
118.7666352419
  0
SPLINE
  5
AA
330
1F
100
AcDbEntity
  8
0
  6
Continuous
 62
     7
370
    15
100
AcDbSpline
210
0.0
220
0.0
230
1.0
 70
     8
 71
     3
 72
    14
 73
    10
 74
     0
 42
0.00000001
 43
0.00000001
 40
0.0
 40
0.0
 40
0.0
 40
0.0
 40
0.1077749207859862
 40
0.2867612133939392
 40
0.4711953518304227
 40
0.6394547261041801
 40
0.8140630833005152
 40
0.9068266860428377
 40
0.9999999999999999
 40
0.9999999999999999
 40
0.9999999999999999
 40
0.9999999999999999
 10
268.0691744902149
 20
115.1911561173886
 30
0.0
 10
268.1213940521944
 20
115.2027543198833
 30
0.0
 10
268.2603368122253
 20
115.2336141395548
 30
0.0
 10
268.5047336392118
 20
115.2946924821467
 30
0.0
 10
268.7999888028382
 20
115.3794492711889
 30
0.0
 10
269.1026798219917
 20
115.4787153119004
 30
0.0
 10
269.3495205257173
 20
115.568463847445
 30
0.0
 10
269.548394739748
 20
115.6448772714317
 30
0.0
 10
269.6484939060907
 20
115.6848880750164
 30
0.0
 10
269.6986537733084
 20
115.7049375586275
 30
0.0
  0
SPLINE
  5
AB
330
1F
100
AcDbEntity
  8
0
  6
Continuous
 62
     7
370
    15
100
AcDbSpline
210
0.0
220
0.0
230
1.0
 70
     8
 71
     3
 72
    10
 73
     6
 74
     0
 42
0.00000001
 43
0.00000001
 40
0.0
 40
0.0
 40
0.0
 40
0.0
 40
0.4391165375904238
 40
0.7513669429073421
 40
1.0
 40
1.0
 40
1.0
 40
1.0
 10
269.6986537733084
 20
115.7049375586275
 30
0.0
 10
269.7352988178145
 20
115.9206778532436
 30
0.0
 10
269.7980017057864
 20
116.2898284357225
 30
0.0
 10
269.9240299699899
 20
116.8954489108513
 30
0.0
 10
269.9972055868716
 20
117.2175513835412
 30
0.0
 10
270.0296434791421
 20
117.3603356299121
 30
0.0
  0
SPLINE
  5
AC
330
1F
100
AcDbEntity
  8
0
  6
Continuous
 62
     7
370
    15
100
AcDbSpline
210
0.0
220
0.0
230
1.0
 70
     8
 71
     3
 72
    13
 73
     9
 74
     0
 42
0.00000001
 43
0.00000001
 40
0.0
 40
0.0
 40
0.0
 40
0.0
 40
0.2161241182544753
 40
0.439636920206517
 40
0.5932538221761511
 40
0.7520048557756721
 40
0.8754343578245626
 40
1.0
 40
1.0
 40
1.0
 40
1.0
 10
270.0296434791421
 20
117.3603356299121
 30
0.0
 10
269.9350509445409
 20
117.4272650331565
 30
0.0
 10
269.7426320191454
 20
117.5634119701632
 30
0.0
 10
269.4692544324519
 20
117.78214715496
 30
0.0
 10
269.2266276765487
 20
117.9973446698349
 30
0.0
 10
269.038640865434
 20
118.1787594147249
 30
0.0
 10
268.8731638104248
 20
118.348306734596
 30
0.0
 10
268.7786348931691
 20
118.45058090196
 30
0.0
 10
268.7311539018823
 20
118.5019522599578
 30
0.0
  0
SPLINE
  5
AD
330
1F
100
AcDbEntity
  8
0
  6
Continuous
 62
     7
370
    15
100
AcDbSpline
210
0.0
220
0.0
230
1.0
 70
     8
 71
     3
 72
    14
 73
    10
 74
     0
 42
0.00000001
 43
0.00000001
 40
0.0
 40
0.0
 40
0.0
 40
0.0
 40
0.0927891276284487
 40
0.1859364241092559
 40
0.3545705453231537
 40
0.5287967792096487
 40
0.707238384348114
 40
0.8922253340288284
 40
1.0
 40
1.0
 40
1.0
 40
1.0
 10
268.7311539018823
 20
118.5019522599578
 30
0.0
 10
268.6812024690842
 20
118.4819854502356
 30
0.0
 10
268.5811067894394
 20
118.441974758299
 30
0.0
 10
268.3855232620986
 20
118.3668213481482
 30
0.0
 10
268.1386969167442
 20
118.2769570205281
 30
0.0
 10
267.8392285725639
 20
118.1785408994826
 30
0.0
 10
267.5405216510058
 20
118.0925739984965
 30
0.0
 10
267.2957393811281
 20
118.0312742696404
 30
0.0
 10
267.1538927720435
 20
117.9997689191618
 30
0.0
 10
267.1016746187888
 20
117.9881708187189
 30
0.0
  0
SPLINE
  5
AE
330
1F
100
AcDbEntity
  8
0
  6
Continuous
 62
     7
370
    15
100
AcDbSpline
210
0.0
220
0.0
230
1.0
 70
     8
 71
     3
 72
    13
 73
     9
 74
     0
 42
0.00000001
 43
0.00000001
 40
0.0
 40
0.0
 40
0.0
 40
0.0
 40
0.2161241182544858
 40
0.4396369202065183
 40
0.5932538221761716
 40
0.7520048557756818
 40
0.8754343578245661
 40
1.0
 40
1.0
 40
1.0
 40
1.0
 10
267.1016746187888
 20
117.9881708187189
 30
0.0
 10
267.073329040159
 20
117.8635821502376
 30
0.0
 10
267.0156688262463
 20
117.6101454725261
 30
0.0
 10
266.9403473893821
 20
117.2563059427185
 30
0.0
 10
266.8789919582642
 20
116.9474531963705
 30
0.0
 10
266.8352819347938
 20
116.7117678381805
 30
0.0
 10
266.7993757500017
 20
116.5067294453659
 30
0.0
 10
266.7802776899508
 20
116.3909351428865
 30
0.0
 10
266.7706849129551
 20
116.3327727474343
 30
0.0
  0
SPLINE
  5
AF
330
1F
100
AcDbEntity
  8
0
  6
Continuous
 62
     7
370
    15
100
AcDbSpline
210
0.0
220
0.0
230
1.0
 70
     8
 71
     3
 72
    10
 73
     6
 74
     0
 42
0.00000001
 43
0.00000001
 40
0.0
 40
0.0
 40
0.0
 40
0.0
 40
0.439116537590416
 40
0.7513669429073491
 40
0.9999999999999999
 40
0.9999999999999999
 40
0.9999999999999999
 40
0.9999999999999999
 10
266.7706849129551
 20
116.3327727474343
 30
0.0
 10
266.9458350227214
 20
116.1480988247639
 30
0.0
 10
267.2455322357829
 20
115.832105531792
 30
0.0
 10
267.7160736094803
 20
115.4417483737301
 30
0.0
 10
267.9607238912165
 20
115.2681224513385
 30
0.0
 10
268.0691744902149
 20
115.1911561173886
 30
0.0
  0
LINE
  5
B0
330
1F
100
AcDbEntity
  8
0
  6
Continuous
 62
     7
370
    15
100
AcDbLine
 10
269.4427981807
 20
115.6046832797
 30
0.0
 11
269.4740430905
 21
115.7609502647
 31
0.0
  0
LINE
  5
B1
330
1F
100
AcDbEntity
  8
0
  6
Continuous
 62
     7
370
    15
100
AcDbLine
 10
269.4740430905
 20
115.7609502647
 30
0.0
 11
269.6395379434
 21
116.5886493003
 31
0.0
  0
LINE
  5
B2
330
1F
100
AcDbEntity
  8
0
  6
Continuous
 62
     7
370
    15
100
AcDbLine
 10
269.6395379434
 20
116.5886493003
 30
0.0
 11
270.0296434791
 21
117.3603356299
 31
0.0
  0
LINE
  5
B3
330
1F
100
AcDbEntity
  8
0
  6
Continuous
 62
     7
370
    15
100
AcDbLine
 10
269.6395379434
 20
116.5886493003
 30
0.0
 11
268.9902931548
 21
117.1594576154
 31
0.0
  0
LINE
  5
B4
330
1F
100
AcDbEntity
  8
0
  6
Continuous
 62
     7
370
    15
100
AcDbLine
 10
268.9902931548
 20
117.1594576154
 30
0.0
 11
268.3410483661
 21
117.7302659304
 31
0.0
  0
LINE
  5
B5
330
1F
100
AcDbEntity
  8
0
  6
Continuous
 62
     7
370
    15
100
AcDbLine
 10
268.3410483661
 20
117.7302659304
 30
0.0
 11
268.7311539019
 21
118.50195226
 31
0.0
  0
LINE
  5
B6
330
1F
100
AcDbEntity
  8
0
  6
Continuous
 62
     7
370
    15
100
AcDbLine
 10
268.3410483661
 20
117.7302659304
 30
0.0
 11
267.5263087246
 21
117.4733752098
 31
0.0
  0
LINE
  5
B7
330
1F
100
AcDbEntity
  8
0
  6
Continuous
 62
     7
370
    15
100
AcDbLine
 10
267.5263087246
 20
117.4733752098
 30
0.0
 11
266.9488586993
 21
117.2913028696
 31
0.0
  0
ARC
  5
B8
330
1F
100
AcDbEntity
  8
0
  6
Continuous
 62
     7
370
    15
100
AcDbCircle
 10
268.020421863
 20
116.0410554994
 30
0.0
 40
1.480362663505591
100
AcDbArc
 50
349.0930864894
 51
49.0683762544
  0
LINE
  5
B9
330
1F
100
AcDbEntity
  8
0
  6
Continuous
 62
     7
370
    15
100
AcDbLine
 10
269.4740430905
 20
115.7609502647
 30
0.0
 11
269.4248280124
 21
115.5786201893
 31
0.0
  0
ARC
  5
BA
330
1F
100
AcDbEntity
  8
0
  6
Continuous
 62
     7
370
    15
100
AcDbCircle
 10
267.9592605856
 20
116.0906601431
 30
0.0
 40
1.448912788833781
100
AcDbArc
 50
107.3862354166
 51
138.1384308819
  0
ARC
  5
BB
330
1F
100
AcDbEntity
  8
0
  6
Continuous
 62
     7
370
    15
100
AcDbCircle
 10
267.9790222943
 20
116.0139740016
 30
0.0
 40
1.528005714229243
100
AcDbArc
 50
48.5608694699
 51
107.2341520539
  0
ELLIPSE
  5
BC
330
1F
100
AcDbEntity
  8
0
  6
Continuous
 62
     7
370
    15
100
AcDbEllipse
 10
274.1061019788
 20
130.2607087204
 30
0.0
 11
2.093693997070318
 21
-1.067244736648945
 31
0.0
210
0.0
220
0.0
230
1.0
 40
0.9741125884
 41
1.638493180131598
 42
3.364160868128669
  0
ELLIPSE
  5
BD
330
1F
100
AcDbEntity
  8
0
  6
Continuous
 62
     7
370
    15
100
AcDbEllipse
 10
274.1061019788
 20
130.2607087204
 30
0.0
 11
2.093693997070318
 21
-1.067244736648945
 31
0.0
210
0.0
220
0.0
230
1.0
 40
0.9741125884
 41
6.183008481233879
 42
7.92167848731122
  0
LINE
  5
BE
330
1F
100
AcDbEntity
  8
0
  6
Continuous
 62
     7
370
    15
100
AcDbLine
 10
169.2062194647
 20
82.8507645618
 30
0.0
 11
165.2481522962
 21
82.8507645618
 31
0.0
  0
LINE
  5
BF
330
1F
100
AcDbEntity
  8
0
  6
Continuous
 62
     7
370
    15
100
AcDbLine
 10
165.2481522962
 20
82.8507645618
 30
0.0
 11
165.2481522962
 21
132.8876822581
 31
0.0
  0
LINE
  5
C0
330
1F
100
AcDbEntity
  8
0
  6
Continuous
 62
     7
370
    15
100
AcDbLine
 10
165.2481522962
 20
132.8876822581
 30
0.0
 11
169.2062194647
 21
132.8876822581
 31
0.0
  0
LINE
  5
C1
330
1F
100
AcDbEntity
  8
0
  6
Continuous
 62
     7
370
    15
100
AcDbLine
 10
169.8062194647
 20
83.4774048575
 30
0.0
 11
169.8062194647
 21
132.8876822581
 31
0.0
  0
SPLINE
  5
C2
330
1F
100
AcDbEntity
  8
0
  6
Continuous
 62
     7
370
    15
100
AcDbSpline
210
0.0
220
0.0
230
1.0
 70
     8
 71
     3
 72
    10
 73
     6
 74
     0
 42
0.00000001
 43
0.00000001
 40
0.0
 40
0.0
 40
0.0
 40
0.0
 40
0.5
 40
0.5
 40
1.0
 40
1.0
 40
1.0
 40
1.0
 10
169.8062194646969
 20
83.47740485747167
 30
0.0
 10
169.8062194646969
 20
83.31751758927801
 30
0.0
 10
169.744909813461
 20
83.15639033376341
 30
0.0
 10
169.525810175926
 20
82.92229133540859
 30
0.0
 10
169.3677619696125
 20
82.85076456181736
 30
0.0
 10
169.2062194646969
 20
82.85076456181736
 30
0.0
  0
SPLINE
  5
C3
330
1F
100
AcDbEntity
  8
0
  6
Continuous
 62
     7
370
    15
100
AcDbSpline
210
0.0
220
0.0
230
1.0
 70
    24
 71
     3
 72
    12
 73
     8
 74
     0
 42
0.00000001
 43
0.00000001
 40
0.0
 40
0.0
 40
0.0
 40
0.0
 40
0.2500000000000013
 40
0.2500000000000013
 40
0.5000000000000027
 40
0.5000000000000027
 40
1.0
 40
1.0
 40
1.0
 40
1.0
 10
169.2062194646969
 20
132.8876822580645
 30
0.0
 10
169.296458532384
 20
132.8876822580645
 30
0.0
 10
169.3873566464904
 20
132.8876822580645
 30
0.0
 10
169.541953682979
 20
132.8876822580645
 30
0.0
 10
169.6069320990871
 20
132.8876822580645
 30
0.0
 10
169.7587671270233
 20
132.8876822580645
 30
0.0
 10
169.8062194646969
 20
132.8876822580645
 30
0.0
 10
169.8062194646969
 20
132.8876822580645
 30
0.0
  0
LINE
  5
C4
330
1F
100
AcDbEntity
  8
0
  6
Continuous
 62
     7
370
    15
100
AcDbLine
 10
148.8062194647
 20
132.8876822581
 30
0.0
 11
158.4642866332
 21
132.8876822581
 31
0.0
  0
LINE
  5
C5
330
1F
100
AcDbEntity
  8
0
  6
Continuous
 62
     7
370
    15
100
AcDbLine
 10
158.4642866332
 20
82.8507645618
 30
0.0
 11
158.4642866332
 21
132.8876822581
 31
0.0
  0
LINE
  5
C6
330
1F
100
AcDbEntity
  8
0
  6
Continuous
 62
     7
370
    15
100
AcDbLine
 10
158.4642866332
 20
82.8507645618
 30
0.0
 11
156.8062194647
 21
82.8507645618
 31
0.0
  0
SPLINE
  5
C7
330
1F
100
AcDbEntity
  8
0
  6
Continuous
 62
     7
370
    15
100
AcDbSpline
210
0.0
220
0.0
230
1.0
 70
     8
 71
     3
 72
    28
 73
    24
 74
     0
 42
0.00000001
 43
0.00000001
 40
0.0
 40
0.0
 40
0.0
 40
0.0
 40
0.125
 40
0.125
 40
0.1875
 40
0.1875
 40
0.25
 40
0.25
 40
0.3750000000000001
 40
0.3750000000000001
 40
0.4375000000000002
 40
0.4375000000000002
 40
0.5000000000000002
 40
0.5000000000000002
 40
0.6250000000000002
 40
0.6250000000000002
 40
0.7500000000000002
 40
0.7500000000000002
 40
0.8125000000000002
 40
0.8125000000000002
 40
0.8750000000000002
 40
0.8750000000000002
 40
1.0
 40
1.0
 40
1.0
 40
1.0
 10
156.8062194646969
 20
82.85076456181736
 30
0.0
 10
156.2745117072039
 20
82.85076456181736
 30
0.0
 10
155.7522731418936
 20
82.83497984786713
 30
0.0
 10
154.9824026556186
 20
82.78998443379093
 30
0.0
 10
154.7280430834273
 20
82.77142943871522
 30
0.0
 10
154.2239215027288
 20
82.72757671626871
 30
0.0
 10
153.9741986853008
 20
82.70223210931651
 30
0.0
 10
153.2486087338544
 20
82.6188300315664
 30
0.0
 10
152.7902484722729
 20
82.55296447241531
 30
0.0
 10
152.139750528879
 20
82.4439941319235
 30
0.0
 10
151.9280684780865
 20
82.40575449615686
 30
0.0
 10
151.5239969889486
 20
82.32799575873752
 30
0.0
 10
151.3314904751277
 20
82.28849479656216
 30
0.0
 10
150.7816555041064
 20
82.16958705419616
 30
0.0
 10
150.4517267257976
 20
82.08976937277154
 30
0.0
 10
149.8672554572289
 20
81.9364262109755
 30
0.0
 10
149.6209783192155
 20
81.86509245770624
 30
0.0
 10
149.3211355265174
 20
81.77114895063161
 30
0.0
 10
149.2326786694452
 20
81.74195515727169
 30
0.0
 10
149.0793173161401
 20
81.68848858300828
 30
0.0
 10
149.0142291019139
 20
81.66412924873309
 30
0.0
 10
148.8586350859731
 20
81.60053910328838
 30
0.0
 10
148.8062194646969
 20
81.57043616819912
 30
0.0
 10
148.8062194646969
 20
81.55355927520219
 30
0.0
  0
LINE
  5
C8
330
1F
100
AcDbEntity
  8
0
  6
Continuous
 62
     7
370
    15
100
AcDbLine
 10
148.8062194647
 20
81.5535592752
 30
0.0
 11
148.8062194647
 21
81.5376822581
 31
0.0
  0
SPLINE
  5
C9
330
1F
100
AcDbEntity
  8
0
  6
Continuous
 62
     7
370
    15
100
AcDbSpline
210
0.0
220
0.0
230
1.0
 70
     8
 71
     3
 72
    23
 73
    19
 74
     0
 42
0.00000001
 43
0.00000001
 40
0.0
 40
0.0
 40
0.0
 40
0.0
 40
0.051825557326501
 40
0.1565081979543681
 40
0.2099949790153877
 40
0.2618040557469949
 40
0.3663992823944643
 40
0.41977305629759
 40
0.525660139131421
 40
0.5793827953828036
 40
0.6338670208272037
 40
0.6871878645845723
 40
0.740888436911043
 40
0.7958045253850529
 40
0.8511490715431201
 40
0.9035396881600679
 40
0.9563116953005335
 40
1.0
 40
1.0
 40
1.0
 40
1.0
 10
156.8062194646969
 20
143.5048777312288
 30
0.0
 10
156.5883385487273
 20
143.5062876337181
 30
0.0
 10
155.9303591407642
 20
143.5105454036156
 30
0.0
 10
155.0553218781838
 20
143.55012197375
 30
0.0
 10
154.2105479578043
 20
143.6130905470627
 30
0.0
 10
153.3908857815209
 20
143.691137097617
 30
0.0
 10
152.6151214242118
 20
143.7880519394957
 30
0.0
 10
151.717407494422
 20
143.9234918660862
 30
0.0
 10
151.0598404128745
 20
144.0396459563332
 30
0.0
 10
150.4821203066975
 20
144.1534186817341
 30
0.0
 10
150.0907921472778
 20
144.2355028920642
 30
0.0
 10
149.7469868697091
 20
144.3114888796798
 30
0.0
 10
149.451891149426
 20
144.3795576260294
 30
0.0
 10
149.206612073947
 20
144.4381443107089
 30
0.0
 10
149.0186588604266
 20
144.4842817716375
 30
0.0
 10
148.890268559128
 20
144.5163912206302
 30
0.0
 10
148.8167196672994
 20
144.5350123152046
 30
0.0
 10
148.8123863057381
 20
144.5361157460727
 30
0.0
 10
148.8104236620699
 20
144.5366155062648
 30
0.0
  0
LINE
  5
CA
330
1F
100
AcDbEntity
  8
0
  6
Continuous
 62
     7
370
    15
100
AcDbLine
 10
158.4642866332
 20
143.5048777312
 30
0.0
 11
156.8062194647
 21
143.5048777312
 31
0.0
  0
LINE
  5
CB
330
1F
100
AcDbEntity
  8
0
  6
Continuous
 62
     7
370
    15
100
AcDbLine
 10
158.4642866332
 20
137.4963719204
 30
0.0
 11
158.4642866332
 21
143.5048777312
 31
0.0
  0
LINE
  5
CC
330
1F
100
AcDbEntity
  8
0
  6
Continuous
 62
     7
370
    15
100
AcDbLine
 10
156.0518398104
 20
137.4963719204
 30
0.0
 11
158.4642866332
 21
137.4963719204
 31
0.0
  0
SPLINE
  5
CD
330
1F
100
AcDbEntity
  8
0
  6
Continuous
 62
     7
370
    15
100
AcDbSpline
210
0.0
220
0.0
230
1.0
 70
     8
 71
     3
 72
    20
 73
    16
 74
     0
 42
0.00000001
 43
0.00000001
 40
0.0
 40
0.0
 40
0.0
 40
0.0
 40
0.2500000000000005
 40
0.2500000000000005
 40
0.3750000000000004
 40
0.3750000000000004
 40
0.5000000000000003
 40
0.5000000000000003
 40
0.6250000000000002
 40
0.6250000000000002
 40
0.7500000000000001
 40
0.7500000000000001
 40
0.8750000000000001
 40
0.8750000000000001
 40
1.0
 40
1.0
 40
1.0
 40
1.0
 10
148.8062194646969
 20
132.8876822580645
 30
0.0
 10
149.0545931989849
 20
133.5415446863619
 30
0.0
 10
149.3741632913302
 20
134.1453304683591
 30
0.0
 10
149.9964695245349
 20
134.9721692045277
 30
0.0
 10
150.2278937849656
 20
135.2345978424806
 30
0.0
 10
150.7491081246153
 20
135.7312604965855
 30
0.0
 10
151.0357286072504
 20
135.9618473756071
 30
0.0
 10
151.655213348558
 20
136.3784016001897
 30
0.0
 10
151.989513728045
 20
136.5658994021572
 30
0.0
 10
152.7147742006698
 20
136.8972963797936
 30
0.0
 10
153.0966892580603
 20
137.0368003672889
 30
0.0
 10
153.8914774342319
 20
137.2622538747598
 30
0.0
 10
154.3056356284383
 20
137.3488799863035
 30
0.0
 10
155.1711819690197
 20
137.4668607751576
 30
0.0
 10
155.6090695840315
 20
137.4963719204319
 30
0.0
 10
156.0518398103862
 20
137.4963719204319
 30
0.0
  0
LINE
  5
CE
330
1F
100
AcDbEntity
  8
0
  6
Continuous
 62
     7
370
    15
100
AcDbLine
 10
159.9462194647
 20
85.539845099
 30
0.0
 11
159.9462194647
 21
132.8876822581
 31
0.0
  0
SPLINE
  5
CF
330
1F
100
AcDbEntity
  8
0
  6
Continuous
 62
     7
370
    15
100
AcDbSpline
210
0.0
220
0.0
230
1.0
 70
     8
 71
     3
 72
     8
 73
     4
 74
     0
 42
0.00000001
 43
0.00000001
 40
0.0
 40
0.0
 40
0.0
 40
0.0
 40
1.0
 40
1.0
 40
1.0
 40
1.0
 10
159.9462194646969
 20
85.53984509900965
 30
0.0
 10
159.4538803419157
 20
84.64257506480294
 30
0.0
 10
158.9597662938736
 20
83.7462906497507
 30
0.0
 10
158.4642866332078
 20
82.85076456181736
 30
0.0
  0
SPLINE
  5
D0
330
1F
100
AcDbEntity
  8
0
  6
Continuous
 62
     7
370
    15
100
AcDbSpline
210
0.0
220
0.0
230
1.0
 70
    24
 71
     3
 72
     8
 73
     4
 74
     0
 42
0.00000001
 43
0.00000001
 40
0.0
 40
0.0
 40
0.0
 40
0.0
 40
1.0
 40
1.0
 40
1.0
 40
1.0
 10
158.4642866332078
 20
132.8876822580645
 30
0.0
 10
158.9709667413584
 20
132.8876822580645
 30
0.0
 10
159.466267470332
 20
132.8876822580645
 30
0.0
 10
159.9462194646969
 20
132.8876822580645
 30
0.0
  0
SPLINE
  5
D1
330
1F
100
AcDbEntity
  8
0
  6
Continuous
 62
     7
370
    15
100
AcDbSpline
210
0.0
220
0.0
230
1.0
 70
     8
 71
     3
 72
     8
 73
     4
 74
     0
 42
0.00000001
 43
0.00000001
 40
0.0
 40
0.0
 40
0.0
 40
0.0
 40
1.0
 40
1.0
 40
1.0
 40
1.0
 10
165.2481522961859
 20
82.85076456181736
 30
0.0
 10
164.7526726355202
 20
83.7462906497507
 30
0.0
 10
164.2585585874781
 20
84.64257506480293
 30
0.0
 10
163.7662194646969
 20
85.53984509900963
 30
0.0
  0
LINE
  5
D2
330
1F
100
AcDbEntity
  8
0
  6
Continuous
 62
     7
370
    15
100
AcDbLine
 10
163.7662194647
 20
85.539845099
 30
0.0
 11
163.7662194647
 21
132.8876822581
 31
0.0
  0
SPLINE
  5
D3
330
1F
100
AcDbEntity
  8
0
  6
Continuous
 62
     7
370
    15
100
AcDbSpline
210
0.0
220
0.0
230
1.0
 70
    24
 71
     3
 72
     8
 73
     4
 74
     0
 42
0.00000001
 43
0.00000001
 40
0.0
 40
0.0
 40
0.0
 40
0.0
 40
1.0
 40
1.0
 40
1.0
 40
1.0
 10
163.7662194646969
 20
132.8876822580645
 30
0.0
 10
164.2461714590618
 20
132.8876822580645
 30
0.0
 10
164.7414721880354
 20
132.8876822580645
 30
0.0
 10
165.2481522961859
 20
132.8876822580645
 30
0.0
  0
LINE
  5
D4
330
1F
100
AcDbEntity
  8
0
  6
Continuous
 62
     7
370
    15
100
AcDbLine
 10
143.8562194647
 20
81.8376822581
 30
0.0
 11
143.8562194647
 21
144.2376822423
 31
0.0
  0
SPLINE
  5
D5
330
1F
100
AcDbEntity
  8
0
  6
Continuous
 62
     7
370
    15
100
AcDbSpline
210
0.0
220
0.0
230
1.0
 70
    24
 71
     3
 72
    14
 73
    10
 74
     0
 42
0.00000001
 43
0.00000001
 40
0.0
 40
0.0
 40
0.0
 40
0.0
 40
0.5
 40
0.5
 40
0.75
 40
0.75
 40
0.875
 40
0.875
 40
1.0
 40
1.0
 40
1.0
 40
1.0
 10
163.6685446623646
 20
86.6376822580645
 30
0.0
 10
163.6217599573164
 20
86.6376822580645
 30
0.0
 10
163.5597087605368
 20
86.6376822580645
 30
0.0
 10
163.4163171219862
 20
86.63768225806449
 30
0.0
 10
163.360173468435
 20
86.6376822580645
 30
0.0
 10
163.2472224462988
 20
86.63768225806449
 30
0.0
 10
163.2042216842607
 20
86.6376822580645
 30
0.0
 10
163.1001589739542
 20
86.63768225806449
 30
0.0
 10
163.0348267355973
 20
86.63768225806449
 30
0.0
 10
162.9662194646969
 20
86.6376822580645
 30
0.0
  0
SPLINE
  5
D6
330
1F
100
AcDbEntity
  8
0
  6
Continuous
 62
     7
370
    15
100
AcDbSpline
210
0.0
220
0.0
230
1.0
 70
    24
 71
     3
 72
    12
 73
     8
 74
     0
 42
0.00000001
 43
0.00000001
 40
0.0
 40
0.0
 40
0.0
 40
0.0
 40
0.5000000000000073
 40
0.5000000000000073
 40
0.7500000000000037
 40
0.7500000000000037
 40
1.0
 40
1.0
 40
1.0
 40
1.0
 10
163.3719219330059
 20
139.4376822580645
 30
0.0
 10
163.3288363833952
 20
139.4376822580645
 30
0.0
 10
163.2796841816481
 20
139.4376822580645
 30
0.0
 10
163.1832115873585
 20
139.4376822580645
 30
0.0
 10
163.1471100022243
 20
139.4376822580645
 30
0.0
 10
163.0640042443617
 20
139.4376822580645
 30
0.0
 10
163.0160076473977
 20
139.4376822580645
 30
0.0
 10
162.9662194646969
 20
139.4376822580645
 30
0.0
  0
SPLINE
  5
D7
330
1F
100
AcDbEntity
  8
0
  6
Continuous
 62
     7
370
    15
100
AcDbSpline
210
0.0
220
0.0
230
1.0
 70
     8
 71
     3
 72
    10
 73
     6
 74
     0
 42
0.00000001
 43
0.00000001
 40
0.0
 40
0.0
 40
0.0
 40
0.0
 40
0.5
 40
0.5
 40
1.0
 40
1.0
 40
1.0
 40
1.0
 10
163.7662194646969
 20
140.1573361091003
 30
0.0
 10
163.7662194646969
 20
140.0135660512823
 30
0.0
 10
163.730170405978
 20
139.8711466887871
 30
0.0
 10
163.594661545204
 20
139.6212523954299
 30
0.0
 10
163.4947855521078
 20
139.5132220591817
 30
0.0
 10
163.3719219330059
 20
139.4376822580645
 30
0.0
  0
SPLINE
  5
D8
330
1F
100
AcDbEntity
  8
0
  6
Continuous
 62
     7
370
    15
100
AcDbSpline
210
0.0
220
0.0
230
1.0
 70
     8
 71
     3
 72
    10
 73
     6
 74
     0
 42
0.00000001
 43
0.00000001
 40
0.0
 40
0.0
 40
0.0
 40
0.0
 40
0.5
 40
0.5
 40
1.0
 40
1.0
 40
1.0
 40
1.0
 10
163.7400718415367
 20
132.8876822580645
 30
0.0
 10
163.7487614844484
 20
132.9345611073827
 30
0.0
 10
163.7553005491989
 20
132.9819835727839
 30
0.0
 10
163.7640591835919
 20
133.0779203713707
 30
0.0
 10
163.7662194646969
 20
133.1258356593812
 30
0.0
 10
163.7662194646969
 20
133.1735488895257
 30
0.0
  0
SPLINE
  5
D9
330
1F
100
AcDbEntity
  8
0
  6
Continuous
 62
     7
370
    15
100
AcDbSpline
210
0.0
220
0.0
230
1.0
 70
     8
 71
     3
 72
    10
 73
     6
 74
     0
 42
0.00000001
 43
0.00000001
 40
0.0
 40
0.0
 40
0.0
 40
0.0
 40
0.5
 40
0.5
 40
1.0
 40
1.0
 40
1.0
 40
1.0
 10
160.3405169963878
 20
139.4376822580645
 30
0.0
 10
160.2189767327193
 20
139.5124084252763
 30
0.0
 10
160.1176423723704
 20
139.6213534411931
 30
0.0
 10
159.9820034294819
 20
139.8717839219547
 30
0.0
 10
159.9462194646969
 20
140.0142032840536
 30
0.0
 10
159.9462194646969
 20
140.1573361091003
 30
0.0
  0
SPLINE
  5
DA
330
1F
100
AcDbEntity
  8
0
  6
Continuous
 62
     7
370
    15
100
AcDbSpline
210
0.0
220
0.0
230
1.0
 70
    24
 71
     3
 72
    12
 73
     8
 74
     0
 42
0.00000001
 43
0.00000001
 40
0.0
 40
0.0
 40
0.0
 40
0.0
 40
0.2500000000000029
 40
0.2500000000000029
 40
0.5000000000000058
 40
0.5000000000000058
 40
1.0
 40
1.0
 40
1.0
 40
1.0
 10
160.7462194646969
 20
139.4376822580645
 30
0.0
 10
160.6968761028873
 20
139.4376822580645
 30
0.0
 10
160.6481854045857
 20
139.4376822580645
 30
0.0
 10
160.5653343070153
 20
139.4376822580645
 30
0.0
 10
160.5291343393946
 20
139.4376822580645
 30
0.0
 10
160.4333844228453
 20
139.4376822580645
 30
0.0
 10
160.3835024530331
 20
139.4376822580645
 30
0.0
 10
160.3405169963879
 20
139.4376822580645
 30
0.0
  0
SPLINE
  5
DB
330
1F
100
AcDbEntity
  8
0
  6
Continuous
 62
     7
370
    15
100
AcDbSpline
210
0.0
220
0.0
230
1.0
 70
    24
 71
     3
 72
    14
 73
    10
 74
     0
 42
0.00000001
 43
0.00000001
 40
0.0
 40
0.0
 40
0.0
 40
0.0
 40
0.1249999999999996
 40
0.1249999999999996
 40
0.2499999999999992
 40
0.2499999999999992
 40
0.4999999999999984
 40
0.4999999999999984
 40
1.0
 40
1.0
 40
1.0
 40
1.0
 10
160.7462194646969
 20
86.6376822580645
 30
0.0
 10
160.6768727429657
 20
86.63768225806449
 30
0.0
 10
160.6116746895818
 20
86.63768225806449
 30
0.0
 10
160.5072954969548
 20
86.6376822580645
 30
0.0
 10
160.4643931259458
 20
86.6376822580645
 30
0.0
 10
160.3520674683411
 20
86.6376822580645
 30
0.0
 10
160.2968437739873
 20
86.6376822580645
 30
0.0
 10
160.1527863952197
 20
86.6376822580645
 30
0.0
 10
160.0907056983882
 20
86.63768225806449
 30
0.0
 10
160.0438942670291
 20
86.6376822580645
 30
0.0
  0
SPLINE
  5
DC
330
1F
100
AcDbEntity
  8
0
  6
Continuous
 62
     7
370
    15
100
AcDbSpline
210
0.0
220
0.0
230
1.0
 70
     8
 71
     3
 72
     9
 73
     5
 74
     0
 42
0.00000001
 43
0.00000001
 40
0.0
 40
0.0
 40
0.0
 40
0.0
 40
0.5
 40
1.0
 40
1.0
 40
1.0
 40
1.0
 10
159.9462194646969
 20
133.1735488895259
 30
0.0
 10
159.9462194646969
 20
133.1253168374031
 30
0.0
 10
159.950625439402
 20
133.0294468239636
 30
0.0
 10
159.9636446194959
 20
132.9347381939803
 30
0.0
 10
159.972367087857
 20
132.8876822580645
 30
0.0
  0
LINE
  5
DD
330
1F
100
AcDbEntity
  8
0
  6
Continuous
 62
     7
370
    15
100
AcDbLine
 10
162.9662194647
 20
139.4376822581
 30
0.0
 11
160.7462194647
 21
139.4376822581
 31
0.0
  0
LINE
  5
DE
330
1F
100
AcDbEntity
  8
0
  6
Continuous
 62
     7
370
    15
100
AcDbLine
 10
162.9662194647
 20
86.6376822581
 30
0.0
 11
160.7462194647
 21
86.6376822581
 31
0.0
  0
LINE
  5
DF
330
1F
100
AcDbEntity
  8
0
  6
Continuous
 62
     7
370
    15
100
AcDbLine
 10
141.8562194647
 20
88.8172513963
 30
0.0
 11
141.8562194647
 21
137.2581131198
 31
0.0
  0
LINE
  5
E0
330
1F
100
AcDbEntity
  8
0
  6
Continuous
 62
     7
370
    15
100
AcDbLine
 10
122.0562194647
 20
89.8092353643
 30
0.0
 11
122.0562194647
 21
91.0925339988
 31
0.0
  0
SPLINE
  5
E1
330
1F
100
AcDbEntity
  8
0
  6
Continuous
 62
     7
370
    15
100
AcDbSpline
210
0.0
220
0.0
230
1.0
 70
     8
 71
     3
 72
    14
 73
    10
 74
     0
 42
0.00000001
 43
0.00000001
 40
0.0
 40
0.0
 40
0.0
 40
0.0
 40
0.25
 40
0.25
 40
0.5
 40
0.5
 40
0.75
 40
0.75
 40
1.0
 40
1.0
 40
1.0
 40
1.0
 10
121.434615227957
 20
92.17331104078129
 30
0.0
 10
121.473051612778
 20
92.07068664306975
 30
0.0
 10
121.5418530061698
 20
91.9714902196302
 30
0.0
 10
121.6851390183288
 20
91.78059819030366
 30
0.0
 10
121.7603210734357
 20
91.68834092427078
 30
0.0
 10
121.8925083620859
 20
91.50873360245578
 30
0.0
 10
121.9500255575557
 20
91.4214240480114
 30
0.0
 10
122.032070355848
 20
91.25149021449567
 30
0.0
 10
122.0562194646968
 20
91.1695878726245
 30
0.0
 10
122.0562194646968
 20
91.09253399878861
 30
0.0
  0
SPLINE
  5
E2
330
1F
100
AcDbEntity
  8
0
  6
Continuous
 62
     7
370
    15
100
AcDbSpline
210
0.0
220
0.0
230
1.0
 70
     8
 71
     3
 72
    18
 73
    14
 74
     0
 42
0.00000001
 43
0.00000001
 40
0.0
 40
0.0
 40
0.0
 40
0.0
 40
0.0625000000000011
 40
0.0625000000000011
 40
0.1250000000000023
 40
0.1250000000000023
 40
0.2500000000000028
 40
0.2500000000000028
 40
0.5000000000000019
 40
0.5000000000000019
 40
0.750000000000001
 40
0.750000000000001
 40
1.0
 40
1.0
 40
1.0
 40
1.0
 10
120.6562194646968
 20
92.89159349226787
 30
0.0
 10
120.6927916750473
 20
92.89537089579534
 30
0.0
 10
120.7314421484827
 20
92.89481386791219
 30
0.0
 10
120.8055336421966
 20
92.88475466275032
 30
0.0
 10
120.8408839359506
 20
92.87540078132575
 30
0.0
 10
120.9354782333401
 20
92.84101635489193
 30
0.0
 10
120.9856164064791
 20
92.81030462022913
 30
0.0
 10
121.1148096780602
 20
92.71437531019109
 30
0.0
 10
121.1730898228013
 20
92.64585981607384
 30
0.0
 10
121.2732849192248
 20
92.50928786614122
 30
0.0
 10
121.3133001706714
 20
92.44052296363832
 30
0.0
 10
121.3816995914892
 20
92.30548753453066
 30
0.0
 10
121.4100613153511
 20
92.23886950847748
 30
0.0
 10
121.4346152279571
 20
92.17331104078129
 30
0.0
  0
SPLINE
  5
E3
330
1F
100
AcDbEntity
  8
0
  6
Continuous
 62
     7
370
    15
100
AcDbSpline
210
0.0
220
0.0
230
1.0
 70
     8
 71
     3
 72
    10
 73
     6
 74
     0
 42
0.00000001
 43
0.00000001
 40
0.0
 40
0.0
 40
0.0
 40
0.0
 40
0.5
 40
0.5
 40
1.0
 40
1.0
 40
1.0
 40
1.0
 10
116.7426176035749
 20
92.39539983589624
 30
0.0
 10
117.3702452592822
 20
92.49867339463185
 30
0.0
 10
118.0214460043137
 20
92.5874985063834
 30
0.0
 10
119.3301507083259
 20
92.74960621325371
 30
0.0
 10
119.9911951456171
 20
92.82290567754032
 30
0.0
 10
120.6562194646968
 20
92.891593492268
 30
0.0
  0
SPLINE
  5
E4
330
1F
100
AcDbEntity
  8
0
  6
Continuous
 62
     7
370
    15
100
AcDbSpline
210
0.0
220
0.0
230
1.0
 70
     8
 71
     3
 72
    14
 73
    10
 74
     0
 42
0.00000001
 43
0.00000001
 40
0.0
 40
0.0
 40
0.0
 40
0.0
 40
0.5000000000000026
 40
0.5000000000000026
 40
0.7500000000000023
 40
0.7500000000000023
 40
0.8750000000000011
 40
0.8750000000000011
 40
1.0
 40
1.0
 40
1.0
 40
1.0
 10
113.1062194646968
 20
92.23105069953695
 30
0.0
 10
113.7222963684521
 20
92.23677681976609
 30
0.0
 10
114.336428364568
 20
92.24666718516812
 30
0.0
 10
115.2503249950816
 20
92.2773021528379
 30
0.0
 10
115.5537639226292
 20
92.29009561047589
 30
0.0
 10
116.0049005382667
 20
92.31802143843528
 30
0.0
 10
116.1546067878092
 20
92.32879105859504
 30
0.0
 10
116.4514479240573
 20
92.35592377419457
 30
0.0
 10
116.5988334765606
 20
92.37174074702179
 30
0.0
 10
116.7426176035748
 20
92.39539983589626
 30
0.0
  0
SPLINE
  5
E5
330
1F
100
AcDbEntity
  8
0
  6
Continuous
 62
     7
370
    15
100
AcDbSpline
210
0.0
220
0.0
230
1.0
 70
     8
 71
     3
 72
     8
 73
     4
 74
     0
 42
0.00000001
 43
0.00000001
 40
0.0000005954826279
 40
0.0000005954826279
 40
0.0000005954826279
 40
0.0000005954826279
 40
0.0000302093805348
 40
0.0000302093805348
 40
0.0000302093805348
 40
0.0000302093805348
 10
113.0961745342873
 20
92.24286582918883
 30
0.0
 10
113.0994905616075
 20
92.23891904959304
 30
0.0
 10
113.1028391129997
 20
92.23498065846312
 30
0.0
 10
113.1062194646968
 20
92.23105069953695
 30
0.0
  0
SPLINE
  5
E6
330
1F
100
AcDbEntity
  8
0
  6
Continuous
 62
     7
370
    15
100
AcDbSpline
210
0.0
220
0.0
230
1.0
 70
     8
 71
     3
 72
     8
 73
     4
 74
     0
 42
0.00000001
 43
0.00000001
 40
0.0000005099763573
 40
0.0000005099763573
 40
0.0000005099763573
 40
0.0000005099763573
 40
0.0000262827998699
 40
0.0000262827998699
 40
0.0000262827998699
 40
0.0000262827998699
 10
113.1062194646968
 20
133.9076200234596
 30
0.0
 10
113.102850725469
 20
133.9042983545037
 30
0.0
 10
113.0995022724899
 20
133.9009703972248
 30
0.0
 10
113.0961745342786
 20
133.8976361503522
 30
0.0
  0
SPLINE
  5
E7
330
1F
100
AcDbEntity
  8
0
  6
Continuous
 62
     7
370
    15
100
AcDbSpline
210
0.0
220
0.0
230
1.0
 70
     8
 71
     3
 72
    10
 73
     6
 74
     0
 42
0.00000001
 43
0.00000001
 40
0.0
 40
0.0
 40
0.0
 40
0.0
 40
0.5
 40
0.5
 40
1.0
 40
1.0
 40
1.0
 40
1.0
 10
116.6562194646969
 20
133.8607696498923
 30
0.0
 10
116.0686339176062
 20
133.8818351701287
 30
0.0
 10
115.4778875241459
 20
133.8925936560009
 30
0.0
 10
114.293868358847
 20
133.9059584365365
 30
0.0
 10
113.7004543706415
 20
133.9081010792011
 30
0.0
 10
113.1062194646968
 20
133.9076200234596
 30
0.0
  0
SPLINE
  5
E8
330
1F
100
AcDbEntity
  8
0
  6
Continuous
 62
     7
370
    15
100
AcDbSpline
210
0.0
220
0.0
230
1.0
 70
     8
 71
     3
 72
    18
 73
    14
 74
     0
 42
0.00000001
 43
0.00000001
 40
0.0
 40
0.0
 40
0.0
 40
0.0
 40
0.2499999999999993
 40
0.2499999999999993
 40
0.4999999999999987
 40
0.4999999999999987
 40
0.749999999999998
 40
0.749999999999998
 40
0.8749999999999972
 40
0.8749999999999972
 40
0.9374999999999986
 40
0.9374999999999986
 40
1.0
 40
1.0
 40
1.0
 40
1.0
 10
118.0562194646968
 20
134.8817899304275
 30
0.0
 10
118.0562194646969
 20
134.7985830215703
 30
0.0
 10
118.0203703647586
 20
134.7098463662568
 30
0.0
 10
117.8954986287246
 20
134.5277211756965
 30
0.0
 10
117.8050982110768
 20
134.4325911270699
 30
0.0
 10
117.5828555563346
 20
134.2434096179455
 30
0.0
 10
117.4530907698888
 20
134.1484644498508
 30
0.0
 10
117.2124533125773
 20
134.0101857422709
 30
0.0
 10
117.1246860144399
 20
133.9644753089685
 30
0.0
 10
116.9701619272331
 20
133.9066520037471
 30
0.0
 10
116.9135510411783
 20
133.8889372397092
 30
0.0
 10
116.7895070102717
 20
133.8643979364763
 30
0.0
 10
116.7217923352534
 20
133.858418797938
 30
0.0
 10
116.6562194646968
 20
133.8607696498923
 30
0.0
  0
LINE
  5
E9
330
1F
100
AcDbEntity
  8
0
  6
Continuous
 62
     7
370
    15
100
AcDbLine
 10
118.0562194647
 20
134.8817899304
 30
0.0
 11
118.0562194647
 21
136.0657283502
 31
0.0
  0
SPLINE
  5
EA
330
1F
100
AcDbEntity
  8
0
  6
Continuous
 62
     7
370
    15
100
AcDbSpline
210
0.0
220
0.0
230
1.0
 70
     8
 71
     3
 72
    18
 73
    14
 74
     0
 42
0.00000001
 43
0.00000001
 40
0.0
 40
0.0
 40
0.0
 40
0.0
 40
0.0010671296451825
 40
0.1270947795731586
 40
0.2524053457512667
 40
0.3766468878986945
 40
0.439141599905065
 40
0.500827802140023
 40
0.5624255708817565
 40
0.62531624391613
 40
0.7499985144706809
 40
0.8752758950341303
 40
1.0
 40
1.0
 40
1.0
 40
1.0
 10
130.6265203047695
 20
89.38034323514813
 30
0.0
 10
130.6256084721311
 20
89.3802284566115
 30
0.0
 10
130.5170095134941
 20
89.36655837174567
 30
0.0
 10
130.9046505811439
 20
89.41747787236116
 30
0.0
 10
131.770615262979
 20
89.5170610454077
 30
0.0
 10
132.9710191877487
 20
89.58618492855128
 30
0.0
 10
134.0285951022373
 20
89.5901371576903
 30
0.0
 10
134.8557291891475
 20
89.56264821923482
 30
0.0
 10
135.681001056783
 20
89.50410804282768
 30
0.0
 10
136.7353662767806
 20
89.39058688309088
 30
0.0
 10
137.8972025582536
 20
89.20743605884329
 30
0.0
 10
138.8494373396368
 20
89.0028328492082
 30
0.0
 10
138.9751424004448
 20
88.97354749843215
 30
0.0
 10
139.03785583259
 20
88.95893722859147
 30
0.0
  0
SPLINE
  5
EB
330
1F
100
AcDbEntity
  8
0
  6
Continuous
 62
     7
370
    15
100
AcDbSpline
210
0.0
220
0.0
230
1.0
 70
     8
 71
     3
 72
    18
 73
    14
 74
     0
 42
0.00000001
 43
0.00000001
 40
0.0
 40
0.0
 40
0.0
 40
0.0
 40
0.1248907792210127
 40
0.2505384020341701
 40
0.3748721840485287
 40
0.4374907653352098
 40
0.499077626589437
 40
0.5607931536355758
 40
0.6233901338664936
 40
0.7478191038417353
 40
0.8731940995934957
 40
0.9991614644710078
 40
1.0
 40
1.0
 40
1.0
 40
1.0
 10
139.0376370670661
 20
137.1163621069832
 30
0.0
 10
138.9738963143544
 20
137.1017008143851
 30
0.0
 10
138.8460285371779
 20
137.0722893811136
 30
0.0
 10
137.8940293161176
 20
136.8673362770512
 30
0.0
 10
136.7334856109132
 20
136.6840725012401
 30
0.0
 10
135.6812211588253
 20
136.5710449089911
 30
0.0
 10
134.8569940437565
 20
136.5127812614499
 30
0.0
 10
134.0293902742373
 20
136.4853348734459
 30
0.0
 10
132.9705730817521
 20
136.4893196793749
 30
0.0
 10
131.7683543837181
 20
136.5584091557563
 30
0.0
 10
130.9031704440308
 20
136.6580353723132
 30
0.0
 10
130.5170300225006
 20
136.7088514459131
 30
0.0
 10
130.6251015632809
 20
136.6951792658504
 30
0.0
 10
130.6258162132012
 20
136.6950888551621
 30
0.0
  0
SPLINE
  5
EC
330
1F
100
AcDbEntity
  8
0
  6
Continuous
 62
     7
370
    15
100
AcDbSpline
210
0.0
220
0.0
230
1.0
 70
     8
 71
     3
 72
    10
 73
     6
 74
     0
 42
0.00000001
 43
0.00000001
 40
0.0
 40
0.0
 40
0.0
 40
0.0
 40
0.5
 40
0.5
 40
1.0
 40
1.0
 40
1.0
 40
1.0
 10
111.9562194646964
 20
93.38452173311164
 30
0.0
 10
111.9562194646964
 20
93.37100520724388
 30
0.0
 10
111.9615390253246
 20
93.36683443488658
 30
0.0
 10
111.9746672576062
 20
93.38496547827417
 30
0.0
 10
111.9823599122603
 20
93.4078739033361
 30
0.0
 10
111.9864970803055
 20
93.44759469783769
 30
0.0
  0
LINE
  5
ED
330
1F
100
AcDbEntity
  8
0
  6
Continuous
 62
     7
370
    15
100
AcDbLine
 10
111.9562194647
 20
93.3845217331
 30
0.0
 11
111.9562194647
 21
132.7283600045
 31
0.0
  0
SPLINE
  5
EE
330
1F
100
AcDbEntity
  8
0
  6
Continuous
 62
     7
370
    15
100
AcDbSpline
210
0.0
220
0.0
230
1.0
 70
     8
 71
     3
 72
    10
 73
     6
 74
     0
 42
0.00000001
 43
0.00000001
 40
0.0
 40
0.0
 40
0.0
 40
0.0
 40
0.5
 40
0.5
 40
1.0
 40
1.0
 40
1.0
 40
1.0
 10
112.0188828394203
 20
132.7122348028453
 30
0.0
 10
112.0099785503115
 20
132.7579763220585
 30
0.0
 10
111.9934631701185
 20
132.7751671615275
 30
0.0
 10
111.9663552240569
 20
132.7748438845918
 30
0.0
 10
111.9562194646968
 20
132.7569663422953
 30
0.0
 10
111.9562194646968
 20
132.7283600045427
 30
0.0
  0
SPLINE
  5
EF
330
1F
100
AcDbEntity
  8
0
  6
Continuous
 62
     7
370
    15
100
AcDbSpline
210
0.0
220
0.0
230
1.0
 70
     8
 71
     3
 72
    26
 73
    22
 74
     0
 42
0.00000001
 43
0.00000001
 40
0.0
 40
0.0
 40
0.0
 40
0.0
 40
0.2500000000000001
 40
0.2500000000000001
 40
0.3750000000000002
 40
0.3750000000000002
 40
0.4375000000000002
 40
0.4375000000000002
 40
0.4687500000000002
 40
0.4687500000000002
 40
0.5000000000000001
 40
0.5000000000000001
 40
0.5312500000000001
 40
0.5312500000000001
 40
0.5625000000000001
 40
0.5625000000000001
 40
0.625
 40
0.625
 40
0.7499999999999994
 40
0.7499999999999994
 40
1.0
 40
1.0
 40
1.0
 40
1.0
 10
112.7803731108013
 20
133.4278015916623
 30
0.0
 10
112.7417725879328
 20
133.3100268953069
 30
0.0
 10
112.6954755853786
 20
133.185637209145
 30
0.0
 10
112.6015362369447
 20
132.9804178767914
 30
0.0
 10
112.5662247700312
 20
132.9088450103451
 30
0.0
 10
112.5000447942855
 20
132.7928917777446
 30
0.0
 10
112.4755064276173
 20
132.7523072429344
 30
0.0
 10
112.4321336820635
 20
132.6881655610626
 30
0.0
 10
112.4166252806383
 20
132.6662991357775
 30
0.0
 10
112.3815826360512
 20
132.6207048674343
 30
0.0
 10
112.3620323453315
 20
132.5970345764669
 30
0.0
 10
112.3201050649609
 20
132.552418017127
 30
0.0
 10
112.2974529547293
 20
132.5315380046091
 30
0.0
 10
112.2564792406427
 20
132.5006645908583
 30
0.0
 10
112.2388799407473
 20
132.4908257210259
 30
0.0
 10
112.1942529548911
 20
132.4718361053297
 30
0.0
 10
112.1736937322378
 20
132.4715117806763
 30
0.0
 10
112.1225682927411
 20
132.4807352215525
 30
0.0
 10
112.1016568797526
 20
132.5019821177695
 30
0.0
 10
112.0502069721916
 20
132.5759509966003
 30
0.0
 10
112.0325416728871
 20
132.642069089915
 30
0.0
 10
112.0188828394202
 20
132.7122348028453
 30
0.0
  0
SPLINE
  5
F0
330
1F
100
AcDbEntity
  8
0
  6
Continuous
 62
     7
370
    15
100
AcDbSpline
210
0.0
220
0.0
230
1.0
 70
     8
 71
     3
 72
    10
 73
     6
 74
     0
 42
0.00000001
 43
0.00000001
 40
0.0
 40
0.0
 40
0.0
 40
0.0
 40
0.5
 40
0.5
 40
1.0
 40
1.0
 40
1.0
 40
1.0
 10
113.0961745342786
 20
133.8976361503522
 30
0.0
 10
113.0286152793603
 20
133.8299447575424
 30
0.0
 10
112.9649786240238
 20
133.7552375927887
 30
0.0
 10
112.854757869452
 20
133.5962714603621
 30
0.0
 10
112.8079415762294
 20
133.5119161943541
 30
0.0
 10
112.7803731108013
 20
133.4278015916623
 30
0.0
  0
SPLINE
  5
F1
330
1F
100
AcDbEntity
  8
0
  6
Continuous
 62
     7
370
    15
100
AcDbSpline
210
0.0
220
0.0
230
1.0
 70
     8
 71
     3
 72
     8
 73
     4
 74
     0
 42
0.00000001
 43
0.00000001
 40
0.0
 40
0.0
 40
0.0
 40
0.0
 40
1.0
 40
1.0
 40
1.0
 40
1.0
 10
112.895129034896
 20
92.59375995509889
 30
0.0
 10
112.9308426932659
 20
92.4705284498391
 30
0.0
 10
113.0065107322142
 20
92.34958487289211
 30
0.0
 10
113.0961745342873
 20
92.24286582918884
 30
0.0
  0
SPLINE
  5
F2
330
1F
100
AcDbEntity
  8
0
  6
Continuous
 62
     7
370
    15
100
AcDbSpline
210
0.0
220
0.0
230
1.0
 70
     8
 71
     3
 72
    26
 73
    22
 74
     0
 42
0.00000001
 43
0.00000001
 40
0.0
 40
0.0
 40
0.0
 40
0.0
 40
0.2500000000000093
 40
0.2500000000000093
 40
0.3750000000000139
 40
0.3750000000000139
 40
0.4375000000000167
 40
0.4375000000000167
 40
0.4687500000000169
 40
0.4687500000000169
 40
0.5000000000000171
 40
0.5000000000000171
 40
0.5312500000000173
 40
0.5312500000000173
 40
0.5625000000000177
 40
0.5625000000000177
 40
0.6250000000000159
 40
0.6250000000000159
 40
0.7500000000000103
 40
0.7500000000000103
 40
1.0
 40
1.0
 40
1.0
 40
1.0
 10
111.9864970803055
 20
93.44759469783767
 30
0.0
 10
111.997221113698
 20
93.55055573832665
 30
0.0
 10
112.0119541042925
 20
93.6495544278077
 30
0.0
 10
112.0643076635395
 20
93.76815010787283
 30
0.0
 10
112.0860129462592
 20
93.80386040782165
 30
0.0
 10
112.1448684536245
 20
93.82883984064338
 30
0.0
 10
112.1683306874717
 20
93.83322528840695
 30
0.0
 10
112.2244520641323
 20
93.81347245496285
 30
0.0
 10
112.2472393742629
 20
93.80181606415245
 30
0.0
 10
112.3024919267941
 20
93.76003571471524
 30
0.0
 10
112.3338981595349
 20
93.72976412733921
 30
0.0
 10
112.3888319801554
 20
93.66812172842522
 30
0.0
 10
112.4132557983549
 20
93.63668007611838
 30
0.0
 10
112.4566709043421
 20
93.57694523870462
 30
0.0
 10
112.4762454669104
 20
93.54778022883197
 30
0.0
 10
112.5298781508584
 20
93.46394495309889
 30
0.0
 10
112.5596554989106
 20
93.41191233512266
 30
0.0
 10
112.6411895588834
 20
93.26084666115531
 30
0.0
 10
112.6844323535574
 20
93.16765561928455
 30
0.0
 10
112.7974869432121
 20
92.90326908029017
 30
0.0
 10
112.8514979406913
 20
92.74431091124033
 30
0.0
 10
112.8951290348953
 20
92.59375995509946
 30
0.0
  0
SPLINE
  5
F3
330
1F
100
AcDbEntity
  8
0
  6
Continuous
 62
     7
370
    15
100
AcDbSpline
210
0.0
220
0.0
230
1.0
 70
     8
 71
     3
 72
    20
 73
    16
 74
     0
 42
0.00000001
 43
0.00000001
 40
0.0
 40
0.0
 40
0.0
 40
0.0
 40
0.1250000000000004
 40
0.1250000000000004
 40
0.2500000000000008
 40
0.2500000000000008
 40
0.3750000000000012
 40
0.3750000000000012
 40
0.5000000000000017
 40
0.5000000000000017
 40
0.6250000000000021
 40
0.6250000000000021
 40
0.7500000000000024
 40
0.7500000000000024
 40
1.0
 40
1.0
 40
1.0
 40
1.0
 10
254.957315234291
 20
132.5503023690006
 30
0.0
 10
254.6281905466524
 20
132.5419494960273
 30
0.0
 10
254.3076343113217
 20
132.5271568317806
 30
0.0
 10
253.6828222805124
 20
132.4836706655414
 30
0.0
 10
253.3771371105491
 20
132.4547967957386
 30
0.0
 10
252.7889010850316
 20
132.3804339376221
 30
0.0
 10
252.5119665190255
 20
132.3357155505499
 30
0.0
 10
251.9903939771092
 20
132.2284524117983
 30
0.0
 10
251.7441411477214
 20
132.1653533191266
 30
0.0
 10
251.2920108582549
 20
132.0196323780696
 30
0.0
 10
251.0878810526976
 20
131.9378102445241
 30
0.0
 10
250.7195171088034
 20
131.7538643704136
 30
0.0
 10
250.55435958892
 20
131.650922040255
 30
0.0
 10
250.1234733759649
 20
131.3134327042604
 30
0.0
 10
249.9223666923256
 20
131.0529002276217
 30
0.0
 10
249.7889310561625
 20
130.7526636644317
 30
0.0
  0
ELLIPSE
  5
F4
330
1F
100
AcDbEntity
  8
0
  6
Continuous
 62
     7
370
    15
100
AcDbEllipse
 10
253.2089213395
 20
113.0376822581
 30
0.0
 11
-1.195939561569901
 21
19.99755988885698
 31
0.0
210
0.0
220
0.0
230
0.9999999999999999
 40
0.2612235458
 41
0.4670699744839258
 42
2.224401630764414
  0
SPLINE
  5
F5
330
1F
100
AcDbEntity
  8
0
  6
Continuous
 62
     7
370
    15
100
AcDbSpline
210
0.0
220
0.0
230
1.0
 70
     8
 71
     3
 72
    18
 73
    14
 74
     0
 42
0.00000001
 43
0.00000001
 40
0.0
 40
0.0
 40
0.0
 40
0.0
 40
0.25
 40
0.25
 40
0.375
 40
0.375
 40
0.5
 40
0.5
 40
0.625
 40
0.625
 40
0.75
 40
0.75
 40
1.0
 40
1.0
 40
1.0
 40
1.0
 10
249.7889310561625
 20
100.630094809081
 30
0.0
 10
249.922493695852
 20
100.122300095681
 30
0.0
 10
250.1236945837106
 20
99.6549098327512
 30
0.0
 10
250.55330396571
 20
99.01386525259322
 30
0.0
 10
250.7193341781166
 20
98.80949627542215
 30
0.0
 10
251.0872695763005
 20
98.43488177248157
 30
0.0
 10
251.2901358251739
 20
98.26271874168457
 30
0.0
 10
251.7360239792589
 20
97.94725805537877
 30
0.0
 10
251.9805977473989
 20
97.80318394714752
 30
0.0
 10
252.507879000194
 20
97.54736704992554
 30
0.0
 10
252.7848903251154
 20
97.43805130940186
 30
0.0
 10
253.6556384943432
 20
97.16074593935792
 30
0.0
 10
254.297722482906
 20
97.04248862992686
 30
0.0
 10
254.957315234291
 20
96.99692142205369
 30
0.0
  0
ELLIPSE
  5
F6
330
1F
100
AcDbEntity
  8
0
  6
Continuous
 62
     7
370
    15
100
AcDbEllipse
 10
334.3961730145
 20
113.0376822581
 30
0.0
 11
190.2867990447084
 21
-4.202620746255079
 31
0.0
210
0.0
220
0.0
230
1.0
 40
0.1027578619
 41
4.284001329030385
 42
4.294955864703283
  0
LINE
  5
F7
330
1F
100
AcDbEntity
  8
0
  6
Continuous
 62
     7
370
    15
100
AcDbLine
 10
256.8562194647
 20
96.8670295329
 30
0.0
 11
256.8562194647
 21
93.0376822581
 31
0.0
  0
SPLINE
  5
F8
330
1F
100
AcDbEntity
  8
0
  6
Continuous
 62
     7
370
    15
100
AcDbSpline
210
0.0
220
0.0
230
1.0
 70
     8
 71
     3
 72
    13
 73
     9
 74
     0
 42
0.00000001
 43
0.00000001
 40
0.0
 40
0.0
 40
0.0
 40
0.0
 40
0.0725495357892473
 40
0.2733844687974132
 40
0.4770107598001607
 40
0.6818098463210186
 40
0.888886348466706
 40
1.0
 40
1.0
 40
1.0
 40
1.0
 10
255.4632672698646
 20
132.563050913704
 30
0.0
 10
255.3915050757346
 20
132.5832158545034
 30
0.0
 10
255.121087503678
 20
132.6592023038834
 30
0.0
 10
254.697503277662
 20
132.7793046404312
 30
0.0
 10
254.2166743180474
 20
132.9039383547828
 30
0.0
 10
253.7909362481322
 20
132.9892772134313
 30
0.0
 10
253.4607134022174
 20
133.0379011870152
 30
0.0
 10
253.295365320496
 20
133.0301093326453
 30
0.0
 10
253.2376249130017
 20
133.0273883766972
 30
0.0
  0
ELLIPSE
  5
F9
330
1F
100
AcDbEntity
  8
0
  6
Continuous
 62
     7
370
    15
100
AcDbEllipse
 10
334.3961730145
 20
113.0376822581
 30
0.0
 11
190.2867990447084
 21
-4.202620746255079
 31
0.0
210
0.0
220
0.0
230
1.0
 40
0.1027578619
 41
2.000798833984642
 42
2.003722932855304
  0
ELLIPSE
  5
FA
330
1F
100
AcDbEntity
  8
0
  6
Continuous
 62
     7
370
    15
100
AcDbEllipse
 10
249.9421622126
 20
122.5147820273
 30
0.0
 11
0.01830808700907482
 21
2.365159309385731
 31
0.0
210
0.0
220
0.0
230
1.0
 40
0.2522299894
 41
0.2903223195034138
 42
2.912629515210761
  0
SPLINE
  5
FB
330
1F
100
AcDbEntity
  8
0
  6
Continuous
 62
     7
370
    15
100
AcDbSpline
210
0.0
220
0.0
230
1.0
 70
     8
 71
     3
 72
     8
 73
     4
 74
     0
 42
0.00000001
 43
0.00000001
 40
0.0
 40
0.0
 40
0.0
 40
0.0
 40
1.0
 40
1.0
 40
1.0
 40
1.0
 10
165.2481522961859
 20
143.5048777312288
 30
0.0
 10
164.7530122668216
 20
142.6181980830485
 30
0.0
 10
164.2589295615426
 20
141.7309354473625
 30
0.0
 10
163.7662194646969
 20
140.8429164492361
 30
0.0
  0
LINE
  5
FC
330
1F
100
AcDbEntity
  8
0
  6
Continuous
 62
     7
370
    15
100
AcDbLine
 10
165.2481522962
 20
137.4963719204
 30
0.0
 11
165.2481522962
 21
143.5048777312
 31
0.0
  0
SPLINE
  5
FD
330
1F
100
AcDbEntity
  8
0
  6
Continuous
 62
     7
370
    15
100
AcDbSpline
210
0.0
220
0.0
230
1.0
 70
     8
 71
     3
 72
     8
 73
     4
 74
     0
 42
0.00000001
 43
0.00000001
 40
0.0
 40
0.0
 40
0.0
 40
0.0
 40
1.0
 40
1.0
 40
1.0
 40
1.0
 10
163.7662194646969
 20
134.0878259256478
 30
0.0
 10
164.2454976152867
 20
135.2288371555004
 30
0.0
 10
164.7410654544267
 20
136.3652215662683
 30
0.0
 10
165.2481522961859
 20
137.4963719204319
 30
0.0
  0
LINE
  5
FE
330
1F
100
AcDbEntity
  8
0
  6
Continuous
 62
     7
370
    15
100
AcDbLine
 10
163.7662194647
 20
134.0878259256
 30
0.0
 11
163.7662194647
 21
140.8429164492
 31
0.0
  0
SPLINE
  5
FF
330
1F
100
AcDbEntity
  8
0
  6
Continuous
 62
     7
370
    15
100
AcDbSpline
210
0.0
220
0.0
230
1.0
 70
     8
 71
     3
 72
     8
 73
     4
 74
     0
 42
0.00000001
 43
0.00000001
 40
0.0
 40
0.0
 40
0.0
 40
0.0
 40
1.0
 40
1.0
 40
1.0
 40
1.0
 10
158.4642866332078
 20
137.4963719204319
 30
0.0
 10
158.9713734749671
 20
136.3652215662683
 30
0.0
 10
159.466941314107
 20
135.2288371555004
 30
0.0
 10
159.9462194646969
 20
134.0878259256478
 30
0.0
  0
LINE
  5
100
330
1F
100
AcDbEntity
  8
0
  6
Continuous
 62
     7
370
    15
100
AcDbLine
 10
159.9462194647
 20
134.0878259256
 30
0.0
 11
159.9462194647
 21
133.1735488895
 31
0.0
  0
SPLINE
  5
101
330
1F
100
AcDbEntity
  8
0
  6
Continuous
 62
     7
370
    15
100
AcDbSpline
210
0.0
220
0.0
230
1.0
 70
     8
 71
     3
 72
     8
 73
     4
 74
     0
 42
0.00000001
 43
0.00000001
 40
0.0
 40
0.0
 40
0.0
 40
0.0
 40
1.0
 40
1.0
 40
1.0
 40
1.0
 10
159.9462194646969
 20
140.8429164492361
 30
0.0
 10
159.4535093678511
 20
141.7309354473625
 30
0.0
 10
158.9594266625721
 20
142.6181980830485
 30
0.0
 10
158.4642866332078
 20
143.5048777312288
 30
0.0
  0
LINE
  5
102
330
1F
100
AcDbEntity
  8
0
  6
Continuous
 62
     7
370
    15
100
AcDbLine
 10
159.9462194647
 20
134.0878259256
 30
0.0
 11
159.9462194647
 21
140.8429164492
 31
0.0
  0
SPLINE
  5
103
330
1F
100
AcDbEntity
  8
0
  6
Continuous
 62
     7
370
    15
100
AcDbSpline
210
0.0
220
0.0
230
1.0
 70
     8
 71
     3
 72
    10
 73
     6
 74
     0
 42
0.00000001
 43
0.00000001
 40
0.0
 40
0.0
 40
0.0
 40
0.0
 40
0.5
 40
0.5
 40
1.0
 40
1.0
 40
1.0
 40
1.0
 10
169.8062194646969
 20
142.8841225818284
 30
0.0
 10
169.8062194646969
 20
143.0445278481792
 30
0.0
 10
169.74398163359
 20
143.2035896611678
 30
0.0
 10
169.5248467098475
 20
143.4345021267981
 30
0.0
 10
169.3672580148556
 20
143.5048777312287
 30
0.0
 10
169.2062194646969
 20
143.5048777312288
 30
0.0
  0
SPLINE
  5
104
330
1F
100
AcDbEntity
  8
0
  6
Continuous
 62
     7
370
    15
100
AcDbSpline
210
0.0
220
0.0
230
1.0
 70
     8
 71
     3
 72
    12
 73
     8
 74
     0
 42
0.00000001
 43
0.00000001
 40
0.0
 40
0.0
 40
0.0
 40
0.0
 40
0.249999999999998
 40
0.249999999999998
 40
0.499999999999996
 40
0.499999999999996
 40
1.0
 40
1.0
 40
1.0
 40
1.0
 10
169.2062194646969
 20
137.4963719204319
 30
0.0
 10
169.2974191865226
 20
137.4963719204319
 30
0.0
 10
169.3880141956586
 20
137.468152221844
 30
0.0
 10
169.5414269221052
 20
137.3737092145959
 30
0.0
 10
169.6066357894289
 20
137.3074222378906
 30
0.0
 10
169.7594203187688
 20
137.0817974146023
 30
0.0
 10
169.8062194646969
 20
136.8993711515697
 30
0.0
 10
169.8062194646969
 20
136.7186345193229
 30
0.0
  0
LINE
  5
105
330
1F
100
AcDbEntity
  8
0
  6
Continuous
 62
     7
370
    15
100
AcDbLine
 10
169.8062194647
 20
136.7186345193
 30
0.0
 11
169.8062194647
 21
142.8841225818
 31
0.0
  0
LINE
  5
106
330
1F
100
AcDbEntity
  8
0
  6
Continuous
 62
     7
370
    15
100
AcDbLine
 10
163.7662194647
 20
133.1735488895
 30
0.0
 11
163.7662194647
 21
134.0878259256
 31
0.0
  0
LINE
  5
107
330
1F
100
AcDbEntity
  8
0
  6
Continuous
 62
     7
370
    15
100
AcDbLine
 10
165.2481522962
 20
137.4963719204
 30
0.0
 11
169.2062194647
 21
137.4963719204
 31
0.0
  0
LINE
  5
108
330
1F
100
AcDbEntity
  8
0
  6
Continuous
 62
     7
370
    15
100
AcDbLine
 10
169.8062194647
 20
136.7186345193
 30
0.0
 11
169.8062194647
 21
132.8876822581
 31
0.0
  0
LINE
  5
109
330
1F
100
AcDbEntity
  8
0
  6
Continuous
 62
     7
370
    15
100
AcDbLine
 10
169.2062194647
 20
143.5048777312
 30
0.0
 11
165.2481522962
 21
143.5048777312
 31
0.0
  0
SPLINE
  5
10A
330
1F
100
AcDbEntity
  8
0
  6
Continuous
 62
     7
370
    15
100
AcDbSpline
210
0.0
220
0.0
230
1.0
 70
     8
 71
     3
 72
    42
 73
    38
 74
     0
 42
0.00000001
 43
0.00000001
 40
0.0
 40
0.0
 40
0.0
 40
0.0
 40
0.0625000000000004
 40
0.0625000000000004
 40
0.1250000000000008
 40
0.1250000000000008
 40
0.1875000000000012
 40
0.1875000000000012
 40
0.2500000000000016
 40
0.2500000000000016
 40
0.3750000000000019
 40
0.3750000000000019
 40
0.4375000000000029
 40
0.4375000000000029
 40
0.5000000000000039
 40
0.5000000000000039
 40
0.5312500000000046
 40
0.5312500000000046
 40
0.5625000000000052
 40
0.5625000000000052
 40
0.5937500000000058
 40
0.5937500000000058
 40
0.6250000000000064
 40
0.6250000000000064
 40
0.656250000000007
 40
0.656250000000007
 40
0.6875000000000075
 40
0.6875000000000075
 40
0.750000000000006
 40
0.750000000000006
 40
0.8125000000000044
 40
0.8125000000000044
 40
0.875000000000003
 40
0.875000000000003
 40
0.9375000000000014
 40
0.9375000000000014
 40
1.0
 40
1.0
 40
1.0
 40
1.0
 10
249.7889310561625
 20
120.2123961509629
 30
0.0
 10
249.8427112381164
 20
120.1619282696358
 30
0.0
 10
249.9051777478594
 20
120.1512045024579
 30
0.0
 10
250.0457084951075
 20
120.1852696561003
 30
0.0
 10
250.12202135822
 20
120.2302358693847
 30
0.0
 10
250.2800198237248
 20
120.3556735229717
 30
0.0
 10
250.3631503170448
 20
120.4375190797547
 30
0.0
 10
250.5303249837893
 20
120.6247016270436
 30
0.0
 10
250.6145451685725
 20
120.7300279754316
 30
0.0
 10
250.8672448494385
 20
121.0742256535749
 30
0.0
 10
251.0379829869146
 20
121.3432786502621
 30
0.0
 10
251.270966675848
 20
121.7856722817942
 30
0.0
 10
251.3449419064626
 20
121.940048693826
 30
0.0
 10
251.4791650910332
 20
122.2663318026535
 30
0.0
 10
251.5401871374079
 20
122.4396235421913
 30
0.0
 10
251.6086699717763
 20
122.7154706097726
 30
0.0
 10
251.6274076422985
 20
122.8093837839521
 30
0.0
 10
251.6532543436141
 20
123.0024700084887
 30
0.0
 10
251.6603774349431
 20
123.1026961662748
 30
0.0
 10
251.657354200955
 20
123.3054217233453
 30
0.0
 10
251.6473259435904
 20
123.4069906207074
 30
0.0
 10
251.6056602578838
 20
123.610755261568
 30
0.0
 10
251.5746581064247
 20
123.7089075036232
 30
0.0
 10
251.4945879500082
 20
123.8950942405828
 30
0.0
 10
251.4451392359808
 20
123.9835228921325
 30
0.0
 10
251.3374451931342
 20
124.1432883325844
 30
0.0
 10
251.2781053489987
 20
124.2166180267906
 30
0.0
 10
251.0972492444865
 20
124.4133140447296
 30
0.0
 10
250.970022999586
 20
124.5182870353673
 30
0.0
 10
250.7265566793168
 20
124.6883720325848
 30
0.0
 10
250.6104632562093
 20
124.7532909354941
 30
0.0
 10
250.3921842362689
 20
124.8513632567205
 30
0.0
 10
250.291519120624
 20
124.8833682787801
 30
0.0
 10
250.1119118410701
 20
124.9138808505561
 30
0.0
 10
250.0314625823989
 20
124.9124206417948
 30
0.0
 10
249.8939711169373
 20
124.8741901989503
 30
0.0
 10
249.8365537395786
 20
124.8378160448513
 30
0.0
 10
249.7889310561625
 20
124.7822852507179
 30
0.0
  0
LWPOLYLINE
  5
10B
330
1F
100
AcDbEntity
  8
0
  6
Continuous
 62
     7
370
    15
100
AcDbPolyline
 90
       27
 70
   128
 43
0.0
 10
268.4281725134
 20
113.4784421718
 10
269.2611888515
 20
113.5597199367
 10
270.045793308
 20
113.8352364742
 10
270.7363875236
 20
114.2889797648
 10
271.292836673
 20
114.8945798976
 10
271.6828019539
 20
115.6168415942
 10
271.8836200019
 20
116.4137896301
 10
271.8836200019
 20
117.2391082823
 10
271.6828019539
 20
118.0448330305
 10
271.292836673
 20
118.7841380812
 10
270.7363875236
 20
119.414057712
 10
270.045793308
 20
119.8979832836
 10
269.2611888515
 20
120.2077908009
 10
268.4281725134
 20
120.325475377
 10
267.5951561752
 20
120.2441976121
 10
266.8105517188
 20
119.9686810745
 10
266.1199575031
 20
119.5149377839
 10
265.5635083538
 20
118.9093376511
 10
265.1735430728
 20
118.1870759545
 10
264.9727250248
 20
117.3901279186
 10
264.9727250248
 20
116.5648092665
 10
265.1735430728
 20
115.7590845182
 10
265.5635083538
 20
115.0197794676
 10
266.1199575031
 20
114.3898598368
 10
266.8105517188
 20
113.9059342652
 10
267.5951561752
 20
113.5961267479
 10
268.4281725134
 20
113.4784421718
  0
LINE
  5
10C
330
1F
100
AcDbEntity
  8
0
  6
Continuous
 62
     7
370
    15
100
AcDbLine
 10
259.314828823
 20
132.3934439701
 30
0.0
 11
269.0993725622
 21
135.2138891543
 31
0.0
  0
LINE
  5
10D
330
1F
100
AcDbEntity
  8
0
  6
Continuous
 62
     7
370
    15
100
AcDbLine
 10
269.0993725622
 20
135.2138891543
 30
0.0
 11
266.2277662076
 21
126.3190203681
 31
0.0
  0
LINE
  5
10E
330
1F
100
AcDbEntity
  8
0
  6
Continuous
 62
     7
370
    15
100
AcDbLine
 10
266.2277662076
 20
126.3190203681
 30
0.0
 11
263.2470006808
 21
125.4597993355
 31
0.0
  0
ARC
  5
10F
330
1F
100
AcDbEntity
  8
0
  6
Continuous
 62
     7
370
    15
100
AcDbCircle
 10
263.8732143007
 20
123.4864600767
 30
0.0
 40
2.070316721746576
100
AcDbArc
 50
107.6061604965
 51
287.7112531056
  0
LINE
  5
110
330
1F
100
AcDbEntity
  8
0
  6
Continuous
 62
     7
370
    15
100
AcDbLine
 10
264.5030463879
 20
121.5142727452
 30
0.0
 11
278.936531029
 21
125.6747991153
 31
0.0
  0
LINE
  5
111
330
1F
100
AcDbEntity
  8
0
  6
Continuous
 62
     7
370
    15
100
AcDbLine
 10
278.936531029
 20
125.6747991153
 30
0.0
 11
269.2152360685
 21
95.5628574258
 31
0.0
  0
ELLIPSE
  5
112
330
1F
100
AcDbEntity
  8
0
  6
Continuous
 62
     7
370
    15
100
AcDbEllipse
 10
334.3961730145
 20
113.0376822581
 30
0.0
 11
195.0439690208259
 21
-4.307686264911453
 31
0.0
210
0.0
220
0.0
230
1.0
 40
0.1027578619
 41
4.30860518730629
 42
4.373918073315634
  0
SPLINE
  5
113
330
1F
100
AcDbEntity
  8
0
  6
Continuous
 62
     7
370
    15
100
AcDbSpline
210
0.0
220
0.0
230
1.0
 70
     8
 71
     3
 72
     8
 73
     4
 74
     0
 42
0.00000001
 43
0.00000001
 40
0.0
 40
0.0
 40
0.0
 40
0.0
 40
1.0
 40
1.0
 40
1.0
 40
1.0
 10
257.356219464697
 20
96.2996570664966
 30
0.0
 10
257.1892232616512
 20
96.48849265704145
 30
0.0
 10
257.0225476900579
 20
96.67760901472288
 30
0.0
 10
256.856219464697
 20
96.86702953285476
 30
0.0
  0
SPLINE
  5
114
330
1F
100
AcDbEntity
  8
0
  6
Continuous
 62
     7
370
    15
100
AcDbSpline
210
0.0
220
0.0
230
1.0
 70
     8
 71
     3
 72
    14
 73
    10
 74
     0
 42
0.00000001
 43
0.00000001
 40
0.0
 40
0.0
 40
0.0
 40
0.0
 40
0.25
 40
0.25
 40
0.5
 40
0.5
 40
0.75
 40
0.75
 40
1.0
 40
1.0
 40
1.0
 40
1.0
 10
255.4632672698656
 20
132.5630509137049
 30
0.0
 10
255.7694910370719
 20
132.4460992382588
 30
0.0
 10
256.082929349909
 20
132.3542214614279
 30
0.0
 10
256.7242525321085
 20
132.220674404906
 30
0.0
 10
257.0544954359349
 20
132.1792583988857
 30
0.0
 10
257.7070262984361
 20
132.1504733951741
 30
0.0
 10
258.0316139665513
 20
132.1622718361269
 30
0.0
 10
258.6774429521689
 20
132.2381073658275
 30
0.0
 10
259.0002776969017
 20
132.3027729861375
 30
0.0
 10
259.314828822953
 20
132.3934439701185
 30
0.0
  0
ELLIPSE
  5
115
330
1F
100
AcDbEntity
  8
0
  6
Continuous
 62
     7
370
    15
100
AcDbEllipse
 10
274.6207604735
 20
113.0376822581
 30
0.0
 11
6.813115534749215
 21
20.49875008501969
 31
0.0
210
0.0
220
0.0
230
1.0
 40
0.0332261324
 41
3.152635486746402
 42
3.702815381407687
  0
LINE
  5
116
330
1F
100
AcDbEntity
  8
0
  6
Continuous
 62
     7
370
    15
100
AcDbLine
 10
257.3562194647
 20
96.2996570665
 30
0.0
 11
257.3562194647
 21
92.5376822581
 31
0.0
  0
LINE
  5
117
330
1F
100
AcDbEntity
  8
0
  6
Continuous
 62
     7
370
    15
100
AcDbLine
 10
113.1062194647
 20
92.2251822581
 30
0.0
 11
113.1062194647
 21
92.2310506995
 31
0.0
  0
LINE
  5
118
330
1F
100
AcDbEntity
  8
0
  6
Continuous
 62
     7
370
    15
100
AcDbLine
 10
262.2832482495
 20
123.5533547758
 30
0.0
 11
261.7955811178
 21
123.3414209382
 31
0.0
  0
LINE
  5
119
330
1F
100
AcDbEntity
  8
0
  6
Continuous
 62
     7
370
    15
100
AcDbLine
 10
265.2640137763
 20
124.4125758084
 30
0.0
 11
266.2277662076
 21
126.3190203681
 31
0.0
  0
LINE
  5
11A
330
1F
100
AcDbEntity
  8
0
  6
Continuous
 62
     7
370
    15
100
AcDbLine
 10
265.2640137763
 20
124.4125758084
 30
0.0
 11
262.2832482495
 21
123.5533547758
 31
0.0
  0
ELLIPSE
  5
11B
330
1F
100
AcDbEntity
  8
0
  6
Continuous
 62
     7
370
    15
100
AcDbEllipse
 10
260.0075690789
 20
107.6343494847
 30
0.0
 11
9.078460931648465
 21
27.58917118271962
 31
0.0
210
0.0
220
0.0
230
1.0
 40
0.0291674204
 41
6.264669807438608
 42
6.303074983652698
  0
LINE
  5
11C
330
1F
100
AcDbEntity
  8
0
  6
HIDDEN
 62
     7
370
     0
100
AcDbLine
 10
148.8062194647
 20
81.5376822581
 30
0.0
 11
148.8062194647
 21
81.5535592752
 31
0.0
  0
SPLINE
  5
11D
330
1F
100
AcDbEntity
  8
0
  6
HIDDEN
 62
     7
370
     0
100
AcDbSpline
210
0.0
220
0.0
230
1.0
 70
     8
 71
     3
 72
    30
 73
    26
 74
     0
 42
0.00000001
 43
0.00000001
 40
0.0
 40
0.0
 40
0.0
 40
0.0
 40
0.1249999999999998
 40
0.1249999999999998
 40
0.1874999999999998
 40
0.1874999999999998
 40
0.2499999999999997
 40
0.2499999999999997
 40
0.3749999999999996
 40
0.3749999999999996
 40
0.4374999999999995
 40
0.4374999999999995
 40
0.4999999999999996
 40
0.4999999999999996
 40
0.6249999999999992
 40
0.6249999999999992
 40
0.6874999999999994
 40
0.6874999999999994
 40
0.7499999999999996
 40
0.7499999999999996
 40
0.8124999999999997
 40
0.8124999999999997
 40
0.8749999999999998
 40
0.8749999999999998
 40
1.0
 40
1.0
 40
1.0
 40
1.0
 10
148.8062194646969
 20
81.55355927520219
 30
0.0
 10
148.8062194646969
 20
81.57043819321079
 30
0.0
 10
148.8586370306753
 20
81.60045575803548
 30
0.0
 10
149.0120165105776
 20
81.66326614730858
 30
0.0
 10
149.0756976312454
 20
81.68717005453549
 30
0.0
 10
149.228652498697
 20
81.74060534697789
 30
0.0
 10
149.3182247974663
 20
81.77021221514543
 30
0.0
 10
149.6194488303194
 20
81.86466191385986
 30
0.0
 10
149.8647638264036
 20
81.93568930768907
 30
0.0
 10
150.2988608074738
 20
82.04970359439484
 30
0.0
 10
150.4555304965775
 20
82.08915884553541
 30
0.0
 10
150.7875236604199
 20
82.16868028830608
 30
0.0
 10
150.9622291894123
 20
82.20861643080687
 30
0.0
 10
151.5118988720039
 20
82.32755283363502
 30
0.0
 10
151.9121498347152
 20
82.40571759751887
 30
0.0
 10
152.5657367013526
 20
82.51542703778776
 30
0.0
 10
152.7914128210298
 20
82.55050787449618
 30
0.0
 10
153.251124642161
 20
82.61574815387578
 30
0.0
 10
153.4861779762041
 20
82.64608296992054
 30
0.0
 10
153.9666852585032
 20
82.70142134914238
 30
0.0
 10
154.2121387864173
 20
82.72642602570247
 30
0.0
 10
154.7137542112247
 20
82.77030583459315
 30
0.0
 10
154.9712465938252
 20
82.78924951935545
 30
0.0
 10
155.7493231102613
 20
82.83496924662563
 30
0.0
 10
156.2744853875062
 20
82.85076456181736
 30
0.0
 10
156.8062194646969
 20
82.85076456181736
 30
0.0
  0
LINE
  5
11E
330
1F
100
AcDbEntity
  8
0
  6
HIDDEN
 62
     7
370
     0
100
AcDbLine
 10
156.8062194647
 20
82.8507645618
 30
0.0
 11
158.4642866332
 21
82.8507645618
 31
0.0
  0
LINE
  5
11F
330
1F
100
AcDbEntity
  8
0
  6
HIDDEN
 62
     7
370
     0
100
AcDbLine
 10
158.4642866332
 20
143.5048777312
 30
0.0
 11
158.4642866332
 21
82.8507645618
 31
0.0
  0
LINE
  5
120
330
1F
100
AcDbEntity
  8
0
  6
HIDDEN
 62
     7
370
     0
100
AcDbLine
 10
156.8062194647
 20
143.5048777312
 30
0.0
 11
158.4642866332
 21
143.5048777312
 31
0.0
  0
SPLINE
  5
121
330
1F
100
AcDbEntity
  8
0
  6
HIDDEN
 62
     7
370
     0
100
AcDbSpline
210
0.0
220
0.0
230
1.0
 70
     8
 71
     3
 72
    24
 73
    20
 74
     0
 42
0.00000001
 43
0.00000001
 40
0.0
 40
0.0
 40
0.0
 40
0.0
 40
0.0096786162622415
 40
0.063861332318643
 40
0.1151504039407846
 40
0.2187148509044284
 40
0.2715874349544928
 40
0.3233795945036522
 40
0.4279241425876943
 40
0.4812568627027105
 40
0.5874627085531513
 40
0.641937257304094
 40
0.6968115758969905
 40
0.7499885891389747
 40
0.803548786525588
 40
0.8583375239808984
 40
0.9135596099914933
 40
0.9566727567825257
 40
0.9999999999999999
 40
0.9999999999999999
 40
0.9999999999999999
 40
0.9999999999999999
 10
148.8104236620699
 20
144.5366155062648
 30
0.0
 10
148.8091000781015
 20
144.5369513426131
 30
0.0
 10
148.8003668218826
 20
144.5391672540675
 30
0.0
 10
148.8393520894328
 20
144.5292600006402
 30
0.0
 10
148.958222600705
 20
144.4993008995789
 30
0.0
 10
149.1882392111845
 20
144.4422343990451
 30
0.0
 10
149.5167254449919
 20
144.3644009772514
 30
0.0
 10
149.912002778671
 20
144.2740156867088
 30
0.0
 10
150.4022770699585
 20
144.1685596979135
 30
0.0
 10
151.1242879880353
 20
144.0277057052976
 30
0.0
 10
151.791869960967
 20
143.9111801641041
 30
0.0
 10
152.5320423491621
 20
143.801440275726
 30
0.0
 10
153.1219767791983
 20
143.7248828063291
 30
0.0
 10
153.7356299662447
 20
143.6571467990223
 30
0.0
 10
154.3716200280035
 20
143.5997198653425
 30
0.0
 10
155.0343686600402
 20
143.5538200581738
 30
0.0
 10
155.6679075653801
 20
143.5242115866968
 30
0.0
 10
156.2605750671174
 20
143.5077112739164
 30
0.0
 10
156.6240379226863
 20
143.5058238037597
 30
0.0
 10
156.8062194646969
 20
143.5048777312288
 30
0.0
  0
SPLINE
  5
122
330
1F
100
AcDbEntity
  8
0
  6
HIDDEN
 62
     7
370
     0
100
AcDbSpline
210
0.0
220
0.0
230
1.0
 70
     8
 71
     3
 72
    76
 73
    72
 74
     0
 42
0.00000001
 43
0.00000001
 40
-0.03125
 40
-0.03125
 40
0.0
 40
0.0
 40
0.0312499999999999
 40
0.0312499999999999
 40
0.0468749999999999
 40
0.0468749999999999
 40
0.0624999999999998
 40
0.0624999999999998
 40
0.0937499999999998
 40
0.0937499999999998
 40
0.1249999999999998
 40
0.1249999999999998
 40
0.1562499999999997
 40
0.1562499999999997
 40
0.1874999999999996
 40
0.1874999999999996
 40
0.2187499999999996
 40
0.2187499999999996
 40
0.2499999999999995
 40
0.2499999999999995
 40
0.2812499999999994
 40
0.2812499999999994
 40
0.3124999999999993
 40
0.3124999999999993
 40
0.3281249999999993
 40
0.3281249999999993
 40
0.3437499999999994
 40
0.3437499999999994
 40
0.3749999999999993
 40
0.3749999999999993
 40
0.4062499999999993
 40
0.4062499999999993
 40
0.4374999999999993
 40
0.4374999999999993
 40
0.4687499999999993
 40
0.4687499999999993
 40
0.4999999999999993
 40
0.4999999999999993
 40
0.5312499999999993
 40
0.5312499999999993
 40
0.5624999999999994
 40
0.5624999999999994
 40
0.5937499999999994
 40
0.5937499999999994
 40
0.6249999999999996
 40
0.6249999999999996
 40
0.6562499999999996
 40
0.6562499999999996
 40
0.6874999999999997
 40
0.6874999999999997
 40
0.7031249999999996
 40
0.7031249999999996
 40
0.7187499999999996
 40
0.7187499999999996
 40
0.7499999999999996
 40
0.7499999999999996
 40
0.7812499999999997
 40
0.7812499999999997
 40
0.8124999999999997
 40
0.8124999999999997
 40
0.8437499999999998
 40
0.8437499999999998
 40
0.8749999999999998
 40
0.8749999999999998
 40
0.9062499999999999
 40
0.9062499999999999
 40
0.9374999999999999
 40
0.9374999999999999
 40
0.96875
 40
0.96875
 40
1.0
 40
1.0
 40
1.03125
 40
1.03125
 10
145.8562194646969
 20
113.3685662538586
 30
0.0
 10
145.8562194646969
 20
112.7067982622704
 30
0.0
 10
145.8887399424812
 20
112.3815470941746
 30
0.0
 10
145.9842331867633
 20
111.9017503732855
 30
0.0
 10
146.0239080221744
 20
111.7431746894918
 30
0.0
 10
146.1192946355101
 20
111.4287923036988
 30
0.0
 10
146.1752388769207
 20
111.2726726801146
 30
0.0
 10
146.3636019003704
 20
110.8187321202127
 30
0.0
 10
146.5172141767888
 20
110.5317518742057
 30
0.0
 10
146.8800419705728
 20
109.9886387174664
 30
0.0
 10
147.0908770721554
 20
109.7318994259224
 30
0.0
 10
147.5513766421728
 20
109.2715147916914
 30
0.0
 10
147.8027395830906
 20
109.0647379749376
 30
0.0
 10
148.3490862774441
 20
108.6992137672742
 30
0.0
 10
148.639300917162
 20
108.5442142085594
 30
0.0
 10
149.2406877334637
 20
108.2946831874652
 30
0.0
 10
149.5563174265541
 20
108.1984049137765
 30
0.0
 10
150.2019578278337
 20
108.0697559065335
 30
0.0
 10
150.526713583647
 20
108.0378696474169
 30
0.0
 10
151.1800136140384
 20
108.0374964999062
 30
0.0
 10
151.5118859548691
 20
108.0700759861522
 30
0.0
 10
152.1535371884727
 20
108.1978498908585
 30
0.0
 10
152.4654621054058
 20
108.2923823351557
 30
0.0
 10
152.9199517059227
 20
108.4805019296944
 30
0.0
 10
153.0698150137567
 20
108.5513849109152
 30
0.0
 10
153.3589002476793
 20
108.7060015172496
 30
0.0
 10
153.4987611619874
 20
108.7899241159875
 30
0.0
 10
153.9046376056916
 20
109.0611196394632
 30
0.0
 10
154.1576757521812
 20
109.2682196449044
 30
0.0
 10
154.6235753083446
 20
109.7338220979617
 30
0.0
 10
154.8300813828404
 20
109.985740950349
 30
0.0
 10
155.1921869462401
 20
110.5266445663498
 30
0.0
 10
155.3490460600553
 20
110.8191874091012
 30
0.0
 10
155.5999961769179
 20
111.4240550658588
 30
0.0
 10
155.6948072762488
 20
111.7357018973054
 30
0.0
 10
155.823229139042
 20
112.377455202527
 30
0.0
 10
155.8560924255332
 20
112.7091830214063
 30
0.0
 10
155.8563457516417
 20
113.3623027866672
 30
0.0
 10
155.8247897510724
 20
113.6872359930103
 30
0.0
 10
155.696548529648
 20
114.3337629994634
 30
0.0
 10
155.6007424809897
 20
114.6487709533243
 30
0.0
 10
155.3516089698956
 20
115.25072962147
 30
0.0
 10
155.1961488482008
 20
115.5422057917455
 30
0.0
 10
154.8316945938411
 20
116.0878007282422
 30
0.0
 10
154.6252616864053
 20
116.3392778432473
 30
0.0
 10
154.1647926038874
 20
116.8006008673021
 30
0.0
 10
153.9079955958315
 20
117.0117241682484
 30
0.0
 10
153.365950381997
 20
117.3744549499645
 30
0.0
 10
153.0791808020615
 20
117.52834385335
 30
0.0
 10
152.6248736261758
 20
117.7172935800421
 30
0.0
 10
152.4687333254023
 20
117.7733663760618
 30
0.0
 10
152.1548873640562
 20
117.8688691415946
 30
0.0
 10
151.9965005763625
 20
117.9086497846221
 30
0.0
 10
151.5170243364191
 20
118.0045323217473
 30
0.0
 10
151.1907843919922
 20
118.0374077697468
 30
0.0
 10
150.5299097947143
 20
118.0379533389179
 30
0.0
 10
150.2047734473693
 20
118.0057868203045
 30
0.0
 10
149.5646909468829
 20
117.8790042823173
 30
0.0
 10
149.2463700228151
 20
117.782736528526
 30
0.0
 10
148.6414537439759
 20
117.5323422071008
 30
0.0
 10
148.3543048303245
 20
117.3790280453793
 30
0.0
 10
147.8103532766514
 20
117.0163201213594
 30
0.0
 10
147.5537073269249
 20
116.8058810486256
 30
0.0
 10
147.0931167735119
 20
116.3460000603493
 30
0.0
 10
146.8859678875211
 20
116.0947182606565
 30
0.0
 10
146.5194366441077
 20
115.5477980869165
 30
0.0
 10
146.3647524566032
 20
115.2586579353002
 30
0.0
 10
146.114652803265
 20
114.6574212613809
 30
0.0
 10
146.0179660287719
 20
114.3414455677402
 30
0.0
 10
145.8887444538157
 20
113.6954718096436
 30
0.0
 10
145.8562194646969
 20
113.3685662538586
 30
0.0
 10
145.8562194646969
 20
112.7067982622704
 30
0.0
  0
LINE
  5
123
330
1F
100
AcDbEntity
  8
0
  6
HIDDEN
 62
     7
370
     0
100
AcDbLine
 10
143.8562194647
 20
144.2376822423
 30
0.0
 11
143.8562194647
 21
81.8376822581
 31
0.0
  0
SPLINE
  5
124
330
1F
100
AcDbEntity
  8
0
  6
HIDDEN
 62
     7
370
     0
100
AcDbSpline
210
0.0
220
0.0
230
1.0
 70
     8
 71
     3
 72
    10
 73
     6
 74
     0
 42
0.00000001
 43
0.00000001
 40
0.0
 40
0.0
 40
0.0
 40
0.0
 40
0.5
 40
0.5
 40
1.0
 40
1.0
 40
1.0
 40
1.0
 10
163.7662194646969
 20
86.23328662973518
 30
0.0
 10
163.7662194646969
 20
86.30352299010593
 30
0.0
 10
163.7579368526064
 20
86.37351709160343
 30
0.0
 10
163.7248369095478
 20
86.51047635616236
 30
0.0
 10
163.7004995175893
 20
86.57578426541762
 30
0.0
 10
163.6685446623646
 20
86.6376822580645
 30
0.0
  0
LINE
  5
125
330
1F
100
AcDbEntity
  8
0
  6
HIDDEN
 62
     7
370
     0
100
AcDbLine
 10
163.7662194647
 20
133.1735488895
 30
0.0
 11
163.7662194647
 21
140.1573361091
 31
0.0
  0
SPLINE
  5
126
330
1F
100
AcDbEntity
  8
0
  6
HIDDEN
 62
     7
370
     0
100
AcDbSpline
210
0.0
220
0.0
230
1.0
 70
    24
 71
     3
 72
    10
 73
     6
 74
     0
 42
0.00000001
 43
0.00000001
 40
0.0
 40
0.0
 40
0.0
 40
0.0
 40
0.5
 40
0.5
 40
1.0
 40
1.0
 40
1.0
 40
1.0
 10
163.7400718415368
 20
132.8876822580645
 30
0.0
 10
163.7487496164444
 20
132.8876822580645
 30
0.0
 10
163.7553026404513
 20
132.8876822580645
 30
0.0
 10
163.7640372499483
 20
132.8876822580645
 30
0.0
 10
163.7662194646969
 20
132.8876822580645
 30
0.0
 10
163.7662194646969
 20
132.8876822580645
 30
0.0
  0
LINE
  5
127
330
1F
100
AcDbEntity
  8
0
  6
HIDDEN
 62
     7
370
     0
100
AcDbLine
 10
163.7662194647
 20
86.2332866297
 30
0.0
 11
163.7662194647
 21
132.8876822581
 31
0.0
  0
SPLINE
  5
128
330
1F
100
AcDbEntity
  8
0
  6
HIDDEN
 62
     7
370
     0
100
AcDbSpline
210
0.0
220
0.0
230
1.0
 70
     8
 71
     3
 72
    10
 73
     6
 74
     0
 42
0.00000001
 43
0.00000001
 40
0.0
 40
0.0
 40
0.0
 40
0.0
 40
0.5
 40
0.5
 40
1.0
 40
1.0
 40
1.0
 40
1.0
 10
160.0438942670292
 20
86.63768225806453
 30
0.0
 10
160.0117390794072
 20
86.57539621254843
 30
0.0
 10
159.9870828482129
 20
86.50886578767921
 30
0.0
 10
159.9542700912875
 20
86.37200715731677
 30
0.0
 10
159.9462194646969
 20
86.30294956213847
 30
0.0
 10
159.9462194646969
 20
86.23328662973516
 30
0.0
  0
SPLINE
  5
129
330
1F
100
AcDbEntity
  8
0
  6
HIDDEN
 62
     7
370
     0
100
AcDbSpline
210
0.0
220
0.0
230
1.0
 70
    24
 71
     3
 72
    10
 73
     6
 74
     0
 42
0.00000001
 43
0.00000001
 40
0.0
 40
0.0
 40
0.0
 40
0.0
 40
0.5
 40
0.5
 40
1.0
 40
1.0
 40
1.0
 40
1.0
 10
159.9462194646969
 20
132.8876822580645
 30
0.0
 10
159.9462194646969
 20
132.8876822580645
 30
0.0
 10
159.9484413231816
 20
132.8876822580645
 30
0.0
 10
159.9571779949052
 20
132.8876822580645
 30
0.0
 10
159.9636895086995
 20
132.8876822580645
 30
0.0
 10
159.972367087857
 20
132.8876822580645
 30
0.0
  0
LINE
  5
12A
330
1F
100
AcDbEntity
  8
0
  6
HIDDEN
 62
     7
370
     0
100
AcDbLine
 10
159.9462194647
 20
133.1735488895
 30
0.0
 11
159.9462194647
 21
140.1573361091
 31
0.0
  0
LINE
  5
12B
330
1F
100
AcDbEntity
  8
0
  6
HIDDEN
 62
     7
370
     0
100
AcDbLine
 10
159.9462194647
 20
86.2332866297
 30
0.0
 11
159.9462194647
 21
132.8876822581
 31
0.0
  0
LINE
  5
12C
330
1F
100
AcDbEntity
  8
0
  6
HIDDEN
 62
     7
370
     0
100
AcDbLine
 10
143.8562194647
 20
87.7137583369
 30
0.0
 11
143.8562194647
 21
138.336819794
 31
0.0
  0
LINE
  5
12D
330
1F
100
AcDbEntity
  8
0
  6
HIDDEN
 62
     7
370
     0
100
AcDbLine
 10
148.8062194647
 20
132.8876822581
 30
0.0
 11
156.0518398104
 21
132.8876822581
 31
0.0
  0
LWPOLYLINE
  5
12E
330
1F
100
AcDbEntity
  8
0
  6
HIDDEN
 62
     7
370
     0
100
AcDbPolyline
 90
        2
 70
   128
 43
0.0
 10
163.7662194647
 20
132.8876822581
 10
163.7662194647
 20
132.8876822581
  0
LWPOLYLINE
  5
12F
330
1F
100
AcDbEntity
  8
0
  6
HIDDEN
 62
     7
370
     0
100
AcDbPolyline
 90
        2
 70
   128
 43
0.0
 10
169.8062194647
 20
132.8876822581
 10
169.8062194647
 20
132.8876822581
  0
LWPOLYLINE
  5
130
330
1F
100
AcDbEntity
  8
0
  6
HIDDEN
 62
     7
370
     0
100
AcDbPolyline
 90
        2
 70
   128
 43
0.0
 10
159.9462194647
 20
132.8876822581
 10
159.9462194647
 20
132.8876822581
  0
LINE
  5
131
330
1F
100
AcDbEntity
  8
0
  6
HIDDEN
 62
     7
370
     0
100
AcDbLine
 10
141.8562194647
 20
137.2581131198
 30
0.0
 11
141.8562194647
 21
88.8172513963
 31
0.0
  0
SPLINE
  5
132
330
1F
100
AcDbEntity
  8
0
  6
HIDDEN
 62
     7
370
     0
100
AcDbSpline
210
0.0
220
0.0
230
1.0
 70
     8
 71
     3
 72
    14
 73
    10
 74
     0
 42
0.00000001
 43
0.00000001
 40
0.0
 40
0.0
 40
0.0
 40
0.0
 40
0.499999999999999
 40
0.499999999999999
 40
0.7499999999999984
 40
0.7499999999999984
 40
0.8749999999999992
 40
0.8749999999999992
 40
1.0
 40
1.0
 40
1.0
 40
1.0
 10
113.1062194646968
 20
92.23105069953694
 30
0.0
 10
113.7222963684521
 20
92.23677681976608
 30
0.0
 10
114.336428364568
 20
92.24666718516812
 30
0.0
 10
115.2503249950816
 20
92.27730215283789
 30
0.0
 10
115.5537639226292
 20
92.29009561047586
 30
0.0
 10
116.0049005382667
 20
92.31802143843525
 30
0.0
 10
116.1546067878092
 20
92.32879105859502
 30
0.0
 10
116.4514479240573
 20
92.35592377419454
 30
0.0
 10
116.5988334765606
 20
92.37174074702178
 30
0.0
 10
116.7426176035749
 20
92.39539983589623
 30
0.0
  0
SPLINE
  5
133
330
1F
100
AcDbEntity
  8
0
  6
HIDDEN
 62
     7
370
     0
100
AcDbSpline
210
0.0
220
0.0
230
1.0
 70
     8
 71
     3
 72
    10
 73
     6
 74
     0
 42
0.00000001
 43
0.00000001
 40
0.0
 40
0.0
 40
0.0
 40
0.0
 40
0.5
 40
0.5
 40
1.0
 40
1.0
 40
1.0
 40
1.0
 10
116.7426176035748
 20
92.39539983589627
 30
0.0
 10
117.3702452592822
 20
92.49867339463188
 30
0.0
 10
118.0214460043136
 20
92.58749850638341
 30
0.0
 10
119.3301507083258
 20
92.74960621325373
 30
0.0
 10
119.9911951456169
 20
92.82290567754033
 30
0.0
 10
120.6562194646965
 20
92.89159349226802
 30
0.0
  0
SPLINE
  5
134
330
1F
100
AcDbEntity
  8
0
  6
HIDDEN
 62
     7
370
     0
100
AcDbSpline
210
0.0
220
0.0
230
1.0
 70
     8
 71
     3
 72
    18
 73
    14
 74
     0
 42
0.00000001
 43
0.00000001
 40
0.0
 40
0.0
 40
0.0
 40
0.0
 40
0.0624999999999975
 40
0.0624999999999975
 40
0.1249999999999949
 40
0.1249999999999949
 40
0.2499999999999943
 40
0.2499999999999943
 40
0.4999999999999962
 40
0.4999999999999962
 40
0.7499999999999981
 40
0.7499999999999981
 40
1.0
 40
1.0
 40
1.0
 40
1.0
 10
120.6562194646968
 20
92.89159349226783
 30
0.0
 10
120.6927916750472
 20
92.89537089579528
 30
0.0
 10
120.7314421484826
 20
92.89481386791216
 30
0.0
 10
120.8055336421964
 20
92.88475466275031
 30
0.0
 10
120.8408839359505
 20
92.87540078132577
 30
0.0
 10
120.93547823334
 20
92.84101635489195
 30
0.0
 10
120.9856164064789
 20
92.81030462022915
 30
0.0
 10
121.1148096780601
 20
92.71437531019112
 30
0.0
 10
121.1730898228013
 20
92.64585981607385
 30
0.0
 10
121.2732849192248
 20
92.50928786614124
 30
0.0
 10
121.3133001706714
 20
92.44052296363833
 30
0.0
 10
121.3816995914892
 20
92.30548753453066
 30
0.0
 10
121.4100613153511
 20
92.23886950847749
 30
0.0
 10
121.4346152279571
 20
92.17331104078129
 30
0.0
  0
SPLINE
  5
135
330
1F
100
AcDbEntity
  8
0
  6
HIDDEN
 62
     7
370
     0
100
AcDbSpline
210
0.0
220
0.0
230
1.0
 70
     8
 71
     3
 72
    14
 73
    10
 74
     0
 42
0.00000001
 43
0.00000001
 40
0.0
 40
0.0
 40
0.0
 40
0.0
 40
0.25
 40
0.25
 40
0.5
 40
0.5
 40
0.75
 40
0.75
 40
1.0
 40
1.0
 40
1.0
 40
1.0
 10
121.4346152279571
 20
92.17331104078129
 30
0.0
 10
121.4730516127781
 20
92.07068664306975
 30
0.0
 10
121.5418530061699
 20
91.9714902196302
 30
0.0
 10
121.6851390183289
 20
91.78059819030368
 30
0.0
 10
121.7603210734358
 20
91.68834092427078
 30
0.0
 10
121.8925083620859
 20
91.50873360245578
 30
0.0
 10
121.9500255575557
 20
91.4214240480114
 30
0.0
 10
122.0320703558481
 20
91.25149021449567
 30
0.0
 10
122.0562194646968
 20
91.1695878726245
 30
0.0
 10
122.0562194646968
 20
91.09253399878861
 30
0.0
  0
LINE
  5
136
330
1F
100
AcDbEntity
  8
0
  6
HIDDEN
 62
     7
370
     0
100
AcDbLine
 10
122.0562194647
 20
91.0925339988
 30
0.0
 11
122.0562194647
 21
89.8092353643
 31
0.0
  0
LINE
  5
137
330
1F
100
AcDbEntity
  8
0
  6
HIDDEN
 62
     7
370
     0
100
AcDbLine
 10
118.0562194647
 20
136.0657283502
 30
0.0
 11
118.0562194647
 21
134.8817899304
 31
0.0
  0
SPLINE
  5
138
330
1F
100
AcDbEntity
  8
0
  6
HIDDEN
 62
     7
370
     0
100
AcDbSpline
210
0.0
220
0.0
230
1.0
 70
     8
 71
     3
 72
    18
 73
    14
 74
     0
 42
0.00000001
 43
0.00000001
 40
0.0
 40
0.0
 40
0.0
 40
0.0
 40
0.2499999999999994
 40
0.2499999999999994
 40
0.4999999999999989
 40
0.4999999999999989
 40
0.7499999999999983
 40
0.7499999999999983
 40
0.8749999999999996
 40
0.8749999999999996
 40
0.9374999999999998
 40
0.9374999999999998
 40
1.0
 40
1.0
 40
1.0
 40
1.0
 10
118.0562194646969
 20
134.8817899304275
 30
0.0
 10
118.0562194646969
 20
134.7985830215703
 30
0.0
 10
118.0203703647586
 20
134.7098463662568
 30
0.0
 10
117.8954986287247
 20
134.5277211756965
 30
0.0
 10
117.8050982110768
 20
134.4325911270699
 30
0.0
 10
117.5828555563346
 20
134.2434096179456
 30
0.0
 10
117.4530907698889
 20
134.1484644498508
 30
0.0
 10
117.2124533125774
 20
134.0101857422709
 30
0.0
 10
117.1246860144399
 20
133.9644753089685
 30
0.0
 10
116.9701619272331
 20
133.9066520037471
 30
0.0
 10
116.9135510411783
 20
133.8889372397092
 30
0.0
 10
116.7895070102718
 20
133.8643979364763
 30
0.0
 10
116.7217923352535
 20
133.858418797938
 30
0.0
 10
116.6562194646969
 20
133.8607696498923
 30
0.0
  0
SPLINE
  5
139
330
1F
100
AcDbEntity
  8
0
  6
HIDDEN
 62
     7
370
     0
100
AcDbSpline
210
0.0
220
0.0
230
1.0
 70
     8
 71
     3
 72
    10
 73
     6
 74
     0
 42
0.00000001
 43
0.00000001
 40
0.0
 40
0.0
 40
0.0
 40
0.0
 40
0.5
 40
0.5
 40
1.0
 40
1.0
 40
1.0
 40
1.0
 10
116.6562194646969
 20
133.8607696498922
 30
0.0
 10
116.0686339176063
 20
133.8818351701287
 30
0.0
 10
115.4778875241459
 20
133.8925936560009
 30
0.0
 10
114.293868358847
 20
133.9059584365365
 30
0.0
 10
113.7004543706415
 20
133.9081010792011
 30
0.0
 10
113.1062194646968
 20
133.9076200234596
 30
0.0
  0
SPLINE
  5
13A
330
1F
100
AcDbEntity
  8
0
  6
HIDDEN
 62
     7
370
     0
100
AcDbSpline
210
0.0
220
0.0
230
1.0
 70
     8
 71
     3
 72
     8
 73
     4
 74
     0
 42
0.00000001
 43
0.00000001
 40
0.0000005099763571
 40
0.0000005099763571
 40
0.0000005099763571
 40
0.0000005099763571
 40
0.0000262827998698
 40
0.0000262827998698
 40
0.0000262827998698
 40
0.0000262827998698
 10
113.1062194646968
 20
133.9076200234596
 30
0.0
 10
113.1028507254691
 20
133.9042983545037
 30
0.0
 10
113.0995022724899
 20
133.9009703972248
 30
0.0
 10
113.0961745342786
 20
133.8976361503522
 30
0.0
  0
SPLINE
  5
13B
330
1F
100
AcDbEntity
  8
0
  6
HIDDEN
 62
     7
370
     0
100
AcDbSpline
210
0.0
220
0.0
230
1.0
 70
     8
 71
     3
 72
     8
 73
     4
 74
     0
 42
0.00000001
 43
0.00000001
 40
0.0000005954826279
 40
0.0000005954826279
 40
0.0000005954826279
 40
0.0000005954826279
 40
0.0000302093805348
 40
0.0000302093805348
 40
0.0000302093805348
 40
0.0000302093805348
 10
113.0961745342872
 20
92.24286582918883
 30
0.0
 10
113.0994905616074
 20
92.23891904959304
 30
0.0
 10
113.1028391129997
 20
92.23498065846312
 30
0.0
 10
113.1062194646968
 20
92.23105069953694
 30
0.0
  0
SPLINE
  5
13C
330
1F
100
AcDbEntity
  8
0
  6
HIDDEN
 62
     7
370
     0
100
AcDbSpline
210
0.0
220
0.0
230
1.0
 70
     8
 71
     3
 72
    10
 73
     6
 74
     0
 42
0.00000001
 43
0.00000001
 40
0.0
 40
0.0
 40
0.0
 40
0.0
 40
0.2949159523312433
 40
0.5007639170797381
 40
1.0
 40
1.0
 40
1.0
 40
1.0
 10
131.8513696692685
 20
89.51308263524272
 30
0.0
 10
131.6784374561814
 20
89.49533542247711
 30
0.0
 10
131.3848005344407
 20
89.46520085799693
 30
0.0
 10
130.7100514023703
 20
89.39711879924513
 30
0.0
 10
130.661147092871
 20
89.38729733870902
 30
0.0
 10
130.6265203047695
 20
89.38034323514813
 30
0.0
  0
SPLINE
  5
13D
330
1F
100
AcDbEntity
  8
0
  6
HIDDEN
 62
     7
370
     0
100
AcDbSpline
210
0.0
220
0.0
230
1.0
 70
     8
 71
     3
 72
    16
 73
    12
 74
     0
 42
0.00000001
 43
0.00000001
 40
0.0
 40
0.0
 40
0.0
 40
0.0
 40
0.001461939899944
 40
0.1695060946944867
 40
0.3368148262131685
 40
0.5027784258718646
 40
0.5863380399920286
 40
0.6685202984823471
 40
0.7507638349534446
 40
0.8341946041745459
 40
1.0
 40
1.0
 40
1.0
 40
1.0
 10
139.03785583259
 20
88.95893722859147
 30
0.0
 10
139.0387859373047
 20
88.9587289751785
 30
0.0
 10
139.1466278655835
 20
88.93458282338352
 30
0.0
 10
138.7586141327871
 20
89.02312967892944
 30
0.0
 10
137.8968235041081
 20
89.20673303669415
 30
0.0
 10
136.7065178376299
 20
89.3949629571746
 30
0.0
 10
135.6551175670478
 20
89.50636793717267
 30
0.0
 10
134.8290886111947
 20
89.56400355240905
 30
0.0
 10
134.0053006667912
 20
89.590489310662
 30
0.0
 10
132.935145195073
 20
89.58574972374903
 30
0.0
 10
132.2843283099993
 20
89.54211248793496
 30
0.0
 10
131.8513696692685
 20
89.51308263524272
 30
0.0
  0
SPLINE
  5
13E
330
1F
100
AcDbEntity
  8
0
  6
HIDDEN
 62
     7
370
     0
100
AcDbSpline
210
0.0
220
0.0
230
1.0
 70
     8
 71
     3
 72
    16
 73
    12
 74
     0
 42
0.00000001
 43
0.00000001
 40
0.0
 40
0.0
 40
0.0
 40
0.0
 40
0.1658979086808743
 40
0.2493608198222821
 40
0.3317589050038946
 40
0.4138911421869725
 40
0.4976181669650959
 40
0.6634955966468968
 40
0.8305394509979775
 40
0.9983760749348631
 40
1.0
 40
1.0
 40
1.0
 40
1.0
 10
131.8512769489866
 20
136.5622652880463
 30
0.0
 10
132.2848453611825
 20
136.5333124747592
 30
0.0
 10
132.9365411876934
 20
136.4897935581265
 30
0.0
 10
134.0075070915782
 20
136.4850539289237
 30
0.0
 10
134.8317301308136
 20
136.5114556836879
 30
0.0
 10
135.6587483467897
 20
136.5691492466453
 30
0.0
 10
136.7098655296256
 20
136.6808081436729
 30
0.0
 10
137.8985773818114
 20
136.869007018446
 30
0.0
 10
138.7593154694852
 20
137.0522665195575
 30
0.0
 10
139.1473200625615
 20
137.1407899854443
 30
0.0
 10
139.0386781724415
 20
137.1165939751544
 30
0.0
 10
139.0376370670661
 20
137.1163621069832
 30
0.0
  0
SPLINE
  5
13F
330
1F
100
AcDbEntity
  8
0
  6
HIDDEN
 62
     7
370
     0
100
AcDbSpline
210
0.0
220
0.0
230
1.0
 70
     8
 71
     3
 72
    10
 73
     6
 74
     0
 42
0.00000001
 43
0.00000001
 40
0.0
 40
0.0
 40
0.0
 40
0.0
 40
0.4995493564858556
 40
0.5744878148481174
 40
1.0
 40
1.0
 40
1.0
 40
1.0
 10
130.6258162132012
 20
136.6950888551621
 30
0.0
 10
130.6461109292594
 20
136.6892966048487
 30
0.0
 10
130.6694500987126
 20
136.6826354467822
 30
0.0
 10
131.3016287372106
 20
136.6184888737078
 30
0.0
 10
131.5986944430618
 20
136.588101984781
 30
0.0
 10
131.8512769489866
 20
136.5622652880463
 30
0.0
  0
LINE
  5
140
330
1F
100
AcDbEntity
  8
0
  6
HIDDEN
 62
     7
370
     0
100
AcDbLine
 10
169.8062194647
 20
90.0376822581
 30
0.0
 11
169.8062194647
 21
136.0376822581
 31
0.0
  0
SPLINE
  5
141
330
1F
100
AcDbEntity
  8
0
  6
HIDDEN
 62
     7
370
     0
100
AcDbSpline
210
0.0
220
0.0
230
1.0
 70
    11
 71
     3
 72
    22
 73
    18
 74
     0
 42
0.00000001
 43
0.00000001
 40
0.0
 40
0.0
 40
0.0
 40
0.0
 40
0.1249999999999999
 40
0.1249999999999999
 40
0.2499999999999998
 40
0.2499999999999998
 40
0.3749999999999998
 40
0.3749999999999998
 40
0.4999999999999999
 40
0.4999999999999999
 40
0.6249999999999999
 40
0.6249999999999999
 40
0.7499999999999999
 40
0.7499999999999999
 40
0.875
 40
0.875
 40
1.0
 40
1.0
 40
1.0
 40
1.0
 10
137.6112214662984
 20
132.875210733881
 30
0.0
 10
137.7701642952676
 20
132.897284441928
 30
0.0
 10
137.9108558431579
 20
132.9139682599156
 30
0.0
 10
138.1568420806203
 20
132.9401899547979
 30
0.0
 10
138.2628801633016
 20
132.9497692606432
 30
0.0
 10
138.4333722038687
 20
132.9638485277224
 30
0.0
 10
138.4974249033324
 20
132.9683551039694
 30
0.0
 10
138.5839289544254
 20
132.9742192738073
 30
0.0
 10
138.6061624497855
 20
132.9755612063256
 30
0.0
 10
138.6062762557974
 20
132.9755683460751
 30
0.0
 10
138.5848183273121
 20
132.9742757105889
 30
0.0
 10
138.4988325344332
 20
132.9684542810787
 30
0.0
 10
138.4335183876837
 20
132.9638548118029
 30
0.0
 10
138.2645125537482
 20
132.949909790993
 30
0.0
 10
138.1605535158724
 20
132.9405574041347
 30
0.0
 10
137.9130430696335
 20
132.9142289336683
 30
0.0
 10
137.7701589795498
 20
132.8972837036903
 30
0.0
 10
137.6112214662988
 20
132.8752107338811
 30
0.0
  0
SPLINE
  5
142
330
1F
100
AcDbEntity
  8
0
  6
HIDDEN
 62
     7
370
     0
100
AcDbSpline
210
0.0
220
0.0
230
1.0
 70
    11
 71
     3
 72
    22
 73
    18
 74
     0
 42
0.00000001
 43
0.00000001
 40
0.0
 40
0.0
 40
0.0
 40
0.0
 40
0.1250000000000001
 40
0.1250000000000001
 40
0.2500000000000001
 40
0.2500000000000001
 40
0.3750000000000001
 40
0.3750000000000001
 40
0.5000000000000001
 40
0.5000000000000001
 40
0.6250000000000001
 40
0.6250000000000001
 40
0.7500000000000001
 40
0.7500000000000001
 40
0.8750000000000001
 40
0.8750000000000001
 40
1.0
 40
1.0
 40
1.0
 40
1.0
 10
137.6112214662984
 20
93.20015378224805
 30
0.0
 10
137.7701642952676
 20
93.178080074201
 30
0.0
 10
137.9108558431579
 20
93.1613962562134
 30
0.0
 10
138.1568420806203
 20
93.1351745613311
 30
0.0
 10
138.2628801633016
 20
93.12559525548579
 30
0.0
 10
138.4333722038687
 20
93.11151598840664
 30
0.0
 10
138.4974249033324
 20
93.10700941215958
 30
0.0
 10
138.5839289544254
 20
93.10114524232169
 30
0.0
 10
138.6061624497855
 20
93.09980330980339
 30
0.0
 10
138.6062762557974
 20
93.09979617005388
 30
0.0
 10
138.5848183273122
 20
93.1010888055401
 30
0.0
 10
138.4988325344332
 20
93.10691023505031
 30
0.0
 10
138.4335183876837
 20
93.11150970432615
 30
0.0
 10
138.2645125537482
 20
93.12545472513601
 30
0.0
 10
138.1605535158724
 20
93.13480711199435
 30
0.0
 10
137.9130430696335
 20
93.16113558246076
 30
0.0
 10
137.7701589795498
 20
93.17808081243875
 30
0.0
 10
137.6112214662988
 20
93.20015378224795
 30
0.0
  0
LINE
  5
143
330
1F
100
AcDbEntity
  8
0
  6
HIDDEN
 62
     7
370
     0
100
AcDbLine
 10
143.8562194647
 20
96.0376822581
 30
0.0
 11
143.8562194647
 21
130.0376822581
 31
0.0
  0
SPLINE
  5
144
330
1F
100
AcDbEntity
  8
0
  6
HIDDEN
 62
     7
370
     0
100
AcDbSpline
210
0.0
220
0.0
230
1.0
 70
    11
 71
     3
 72
    56
 73
    52
 74
     0
 42
0.00000001
 43
0.00000001
 40
0.0
 40
0.0
 40
0.0
 40
0.0
 40
0.0625000000000001
 40
0.0625000000000001
 40
0.0937500000000002
 40
0.0937500000000002
 40
0.1250000000000004
 40
0.1250000000000004
 40
0.1562500000000005
 40
0.1562500000000005
 40
0.1875000000000007
 40
0.1875000000000007
 40
0.2187500000000008
 40
0.2187500000000008
 40
0.2500000000000009
 40
0.2500000000000009
 40
0.312500000000001
 40
0.312500000000001
 40
0.343750000000001
 40
0.343750000000001
 40
0.375000000000001
 40
0.375000000000001
 40
0.406250000000001
 40
0.406250000000001
 40
0.437500000000001
 40
0.437500000000001
 40
0.468750000000001
 40
0.468750000000001
 40
0.500000000000001
 40
0.500000000000001
 40
0.562500000000001
 40
0.562500000000001
 40
0.625000000000001
 40
0.625000000000001
 40
0.687500000000001
 40
0.687500000000001
 40
0.718750000000001
 40
0.718750000000001
 40
0.7500000000000011
 40
0.7500000000000011
 40
0.7812500000000011
 40
0.7812500000000011
 40
0.8125000000000012
 40
0.8125000000000012
 40
0.875000000000001
 40
0.875000000000001
 40
0.9375000000000006
 40
0.9375000000000006
 40
0.9687500000000002
 40
0.9687500000000002
 40
1.0
 40
1.0
 40
1.0
 40
1.0
 10
137.6112214662984
 20
93.20015378224804
 30
0.0
 10
137.3554341557507
 20
93.23567708614158
 30
0.0
 10
137.0652443488074
 20
93.27122095510981
 30
0.0
 10
136.5785912505166
 20
93.3176926550187
 30
0.0
 10
136.4082454083554
 20
93.33193856825021
 30
0.0
 10
136.0612719982644
 20
93.3562264824486
 30
0.0
 10
135.8833341010296
 20
93.36640282877065
 30
0.0
 10
135.5184148234699
 20
93.38207815637456
 30
0.0
 10
135.3300802313746
 20
93.38756511758743
 30
0.0
 10
134.9561933789191
 20
93.39302511186315
 30
0.0
 10
134.7695031647492
 20
93.39308333512233
 30
0.0
 10
134.3966246738299
 20
93.38789919314553
 30
0.0
 10
134.2089204309075
 20
93.38258371467408
 30
0.0
 10
133.84200153136
 20
93.3670813336508
 30
0.0
 10
133.6635517892955
 20
93.3569819258901
 30
0.0
 10
133.1427628859348
 20
93.3208500842362
 30
0.0
 10
132.8118791662638
 20
93.28842086321814
 30
0.0
 10
132.3753776079323
 20
93.23689437185102
 30
0.0
 10
132.2385920688797
 20
93.21916976080705
 30
0.0
 10
131.9828674594259
 20
93.18377543429774
 30
0.0
 10
131.8652437313202
 20
93.16627891291716
 30
0.0
 10
131.6551742781317
 20
93.13357651692864
 30
0.0
 10
131.5618394394466
 20
93.1182447079826
 30
0.0
 10
131.3988937287675
 20
93.0906485486338
 30
0.0
 10
131.3291907659176
 20
93.07836186552016
 30
0.0
 10
131.2185676995855
 20
93.05851687373372
 30
0.0
 10
131.1768860279751
 20
93.05083076120702
 30
0.0
 10
131.1207108875999
 20
93.0404133808298
 30
0.0
 10
131.1062726118393
 20
93.03769222315331
 30
0.0
 10
131.1061136167367
 20
93.03766241157271
 30
0.0
 10
131.1617729544735
 20
93.04832454172072
 30
0.0
 10
131.3845977150078
 20
93.0883052134557
 30
0.0
 10
131.5465100006015
 20
93.116641465088
 30
0.0
 10
131.9703015593373
 20
93.18265237404805
 30
0.0
 10
132.2251479818846
 20
93.21911224683926
 30
0.0
 10
132.6637916419983
 20
93.27096376982561
 30
0.0
 10
132.8204891782778
 20
93.2878514038856
 30
0.0
 10
133.1436891280564
 20
93.31854482450652
 30
0.0
 10
133.3113626094766
 20
93.3325046314504
 30
0.0
 10
133.6589474756653
 20
93.35670406060154
 30
0.0
 10
133.8405109564843
 20
93.36700100943236
 30
0.0
 10
134.2066972312931
 20
93.38250695629426
 30
0.0
 10
134.3913546471354
 20
93.38777293819126
 30
0.0
 10
134.9499510536939
 20
93.39569576144677
 30
0.0
 10
135.3322853951644
 20
93.38998163807315
 30
0.0
 10
136.0595825395328
 20
93.35892255191088
 30
0.0
 10
136.4152766136328
 20
93.33323391586092
 30
0.0
 10
136.8985888905838
 20
93.28716190565282
 30
0.0
 10
137.0522864978003
 20
93.27055974723652
 30
0.0
 10
137.3447087226434
 20
93.23593989202223
 30
0.0
 10
137.4833239458486
 20
93.21791597098385
 30
0.0
 10
137.6112214662985
 20
93.20015378224805
 30
0.0
  0
SPLINE
  5
145
330
1F
100
AcDbEntity
  8
0
  6
HIDDEN
 62
     7
370
     0
100
AcDbSpline
210
0.0
220
0.0
230
1.0
 70
    11
 71
     3
 72
    56
 73
    52
 74
     0
 42
0.00000001
 43
0.00000001
 40
0.0
 40
0.0
 40
0.0
 40
0.0
 40
0.0625000000000001
 40
0.0625000000000001
 40
0.09375
 40
0.09375
 40
0.125
 40
0.125
 40
0.1562499999999999
 40
0.1562499999999999
 40
0.1874999999999999
 40
0.1874999999999999
 40
0.2187499999999999
 40
0.2187499999999999
 40
0.2499999999999999
 40
0.2499999999999999
 40
0.3124999999999998
 40
0.3124999999999998
 40
0.3437499999999997
 40
0.3437499999999997
 40
0.3749999999999997
 40
0.3749999999999997
 40
0.4062499999999997
 40
0.4062499999999997
 40
0.4374999999999997
 40
0.4374999999999997
 40
0.4687499999999996
 40
0.4687499999999996
 40
0.4999999999999996
 40
0.4999999999999996
 40
0.5624999999999996
 40
0.5624999999999996
 40
0.6249999999999997
 40
0.6249999999999997
 40
0.6874999999999997
 40
0.6874999999999997
 40
0.7187499999999998
 40
0.7187499999999998
 40
0.7499999999999998
 40
0.7499999999999998
 40
0.7812499999999998
 40
0.7812499999999998
 40
0.8124999999999998
 40
0.8124999999999998
 40
0.8749999999999999
 40
0.8749999999999999
 40
0.9374999999999999
 40
0.9374999999999999
 40
0.96875
 40
0.96875
 40
1.0
 40
1.0
 40
1.0
 40
1.0
 10
137.6112214662984
 20
132.875210733881
 30
0.0
 10
137.3554341557507
 20
132.8396874299874
 30
0.0
 10
137.0652443488074
 20
132.8041435610192
 30
0.0
 10
136.5785912505166
 20
132.7576718611103
 30
0.0
 10
136.4082454083554
 20
132.7434259478788
 30
0.0
 10
136.0612719982644
 20
132.7191380336804
 30
0.0
 10
135.8833341010296
 20
132.7089616873583
 30
0.0
 10
135.5184148234699
 20
132.6932863597544
 30
0.0
 10
135.3300802313746
 20
132.6877993985416
 30
0.0
 10
134.9561933789191
 20
132.6823394042659
 30
0.0
 10
134.7695031647492
 20
132.6822811810067
 30
0.0
 10
134.3966246738299
 20
132.6874653229835
 30
0.0
 10
134.2089204309075
 20
132.6927808014549
 30
0.0
 10
133.84200153136
 20
132.7082831824782
 30
0.0
 10
133.6635517892955
 20
132.7183825902389
 30
0.0
 10
133.1427628859348
 20
132.7545144318928
 30
0.0
 10
132.8118791662638
 20
132.7869436529109
 30
0.0
 10
132.3753776079323
 20
132.838470144278
 30
0.0
 10
132.2385920688797
 20
132.856194755322
 30
0.0
 10
131.9828674594259
 20
132.8915890818313
 30
0.0
 10
131.8652437313202
 20
132.9090856032118
 30
0.0
 10
131.6551742781317
 20
132.9417879992004
 30
0.0
 10
131.5618394394466
 20
132.9571198081464
 30
0.0
 10
131.3988937287675
 20
132.9847159674952
 30
0.0
 10
131.3291907659176
 20
132.9970026506088
 30
0.0
 10
131.2185676995855
 20
133.0168476423953
 30
0.0
 10
131.1768860279751
 20
133.0245337549219
 30
0.0
 10
131.1207108875999
 20
133.0349511352992
 30
0.0
 10
131.1062726118393
 20
133.0376722929757
 30
0.0
 10
131.1061136167367
 20
133.0377021045563
 30
0.0
 10
131.1617729544735
 20
133.0270399744083
 30
0.0
 10
131.3845977150079
 20
132.9870593026733
 30
0.0
 10
131.5465100006015
 20
132.958723051041
 30
0.0
 10
131.9703015593373
 20
132.892712142081
 30
0.0
 10
132.2251479818846
 20
132.8562522692897
 30
0.0
 10
132.6637916419983
 20
132.8044007463034
 30
0.0
 10
132.8204891782778
 20
132.7875131122434
 30
0.0
 10
133.1436891280564
 20
132.7568196916224
 30
0.0
 10
133.3113626094766
 20
132.7428598846786
 30
0.0
 10
133.6589474756653
 20
132.7186604555274
 30
0.0
 10
133.8405109564843
 20
132.7083635066966
 30
0.0
 10
134.2066972312931
 20
132.6928575598347
 30
0.0
 10
134.3913546471354
 20
132.6875915779377
 30
0.0
 10
134.9499510536939
 20
132.6796687546822
 30
0.0
 10
135.3322853951644
 20
132.6853828780559
 30
0.0
 10
136.0595825395328
 20
132.7164419642181
 30
0.0
 10
136.4152766136328
 20
132.7421306002681
 30
0.0
 10
136.8985888905838
 20
132.7882026104762
 30
0.0
 10
137.0522864978003
 20
132.8048047688925
 30
0.0
 10
137.3447087226434
 20
132.8394246241068
 30
0.0
 10
137.4833239458486
 20
132.8574485451452
 30
0.0
 10
137.6112214662985
 20
132.875210733881
 30
0.0
  0
SPLINE
  5
146
330
1F
100
AcDbEntity
  8
0
  6
HIDDEN
 62
     7
370
     0
100
AcDbSpline
210
0.0
220
0.0
230
1.0
 70
     8
 71
     3
 72
    68
 73
    64
 74
     0
 42
0.00000001
 43
0.00000001
 40
-0.0624999999999982
 40
-0.0624999999999982
 40
0.0
 40
0.0
 40
0.03125
 40
0.03125
 40
0.0625000000000001
 40
0.0625000000000001
 40
0.0937500000000001
 40
0.0937500000000001
 40
0.1250000000000002
 40
0.1250000000000002
 40
0.1562500000000002
 40
0.1562500000000002
 40
0.1875000000000002
 40
0.1875000000000002
 40
0.2187500000000003
 40
0.2187500000000003
 40
0.2500000000000003
 40
0.2500000000000003
 40
0.2812500000000004
 40
0.2812500000000004
 40
0.3125000000000004
 40
0.3125000000000004
 40
0.3437500000000004
 40
0.3437500000000004
 40
0.3750000000000005
 40
0.3750000000000005
 40
0.4062500000000006
 40
0.4062500000000006
 40
0.4375000000000006
 40
0.4375000000000006
 40
0.4687500000000006
 40
0.4687500000000006
 40
0.5000000000000007
 40
0.5000000000000007
 40
0.5312500000000007
 40
0.5312500000000007
 40
0.5625000000000008
 40
0.5625000000000008
 40
0.5937500000000008
 40
0.5937500000000008
 40
0.6250000000000009
 40
0.6250000000000009
 40
0.6562500000000009
 40
0.6562500000000009
 40
0.6875000000000009
 40
0.6875000000000009
 40
0.718750000000001
 40
0.718750000000001
 40
0.750000000000001
 40
0.750000000000001
 40
0.781250000000001
 40
0.781250000000001
 40
0.8125000000000012
 40
0.8125000000000012
 40
0.8437500000000013
 40
0.8437500000000013
 40
0.8750000000000016
 40
0.8750000000000016
 40
0.9062500000000017
 40
0.9062500000000017
 40
0.9375000000000018
 40
0.9375000000000018
 40
1.0
 40
1.0
 40
1.03125
 40
1.03125
 10
242.1868899773735
 20
103.2863534791706
 30
0.0
 10
241.6908842083586
 20
103.2863534791706
 30
0.0
 10
241.528344465936
 20
103.3006369946052
 30
0.0
 10
241.2086172562386
 20
103.356662289502
 30
0.0
 10
241.0497606796533
 20
103.3990958567639
 30
0.0
 10
240.7470887814244
 20
103.5100258632667
 30
0.0
 10
240.6035609658283
 20
103.5779950212386
 30
0.0
 10
240.331929186881
 20
103.7390957999091
 30
0.0
 10
240.2034445545579
 20
103.8330105191606
 30
0.0
 10
239.9730877985975
 20
104.0389805370668
 30
0.0
 10
239.8696602986346
 20
104.151767092522
 30
0.0
 10
239.6868952220794
 20
104.3979574712417
 30
0.0
 10
239.6093288463579
 20
104.5293932243608
 30
0.0
 10
239.4845936533617
 20
104.8028384596857
 30
0.0
 10
239.436513310019
 20
104.9468751492348
 30
0.0
 10
239.3722298012076
 20
105.2431952563558
 30
0.0
 10
239.3563104736512
 20
105.3929365323917
 30
0.0
 10
239.3561292264649
 20
105.6955902464273
 30
0.0
 10
239.3723932557455
 20
105.8500950779961
 30
0.0
 10
239.4362334735446
 20
106.1504222617229
 30
0.0
 10
239.4834670181317
 20
106.297132998073
 30
0.0
 10
239.60877218436
 20
106.5833796439804
 30
0.0
 10
239.6869799619852
 20
106.7221946433874
 30
0.0
 10
239.8678318444834
 20
106.9802633363891
 30
0.0
 10
239.9712040081432
 20
107.1012255669434
 30
0.0
 10
240.2043405440204
 20
107.3253050926411
 30
0.0
 10
240.3304305810048
 20
107.424925071469
 30
0.0
 10
240.6009727173279
 20
107.5998952376094
 30
0.0
 10
240.7471676779149
 20
107.6758614000431
 30
0.0
 10
241.0497930268647
 20
107.7976973011764
 30
0.0
 10
241.2056155254137
 20
107.8437796174583
 30
0.0
 10
241.5262486976922
 20
107.906203244913
 30
0.0
 10
241.6920538783002
 20
107.9222128634495
 30
0.0
 10
242.0185076944101
 20
107.9223322971425
 30
0.0
 10
242.1808472966987
 20
107.9069585284434
 30
0.0
 10
242.5037092843532
 20
107.8446634581194
 30
0.0
 10
242.6614499947784
 20
107.7980281708774
 30
0.0
 10
242.9624023274509
 20
107.6771649965441
 30
0.0
 10
243.1079218053908
 20
107.6019850419237
 30
0.0
 10
243.3811250612813
 20
107.4256955730542
 30
0.0
 10
243.5069557092126
 20
107.3261086486325
 30
0.0
 10
243.7376355327885
 20
107.1049738523843
 30
0.0
 10
243.8432530107275
 20
106.9819951204929
 30
0.0
 10
244.0247973980514
 20
106.7233368910311
 30
0.0
 10
244.101715855045
 20
106.5871237240938
 30
0.0
 10
244.2275436501695
 20
106.3010893167527
 30
0.0
 10
244.2758039194553
 20
106.1516990487347
 30
0.0
 10
244.3396786882535
 20
105.8524263560478
 30
0.0
 10
244.3560688487192
 20
105.7009354699981
 30
0.0
 10
244.3563680336797
 20
105.3943603305133
 30
0.0
 10
244.3402786647648
 20
105.2444028982746
 30
0.0
 10
244.2769632578502
 20
104.9507864559779
 30
0.0
 10
244.2289495903596
 20
104.8056105220612
 30
0.0
 10
244.1036940513497
 20
104.530326922027
 30
0.0
 10
244.0270236037012
 20
104.4003955548201
 30
0.0
 10
243.8458138194864
 20
104.1554219010017
 30
0.0
 10
243.7404507733992
 20
104.0401054645195
 30
0.0
 10
243.510269155085
 20
103.8340100997641
 30
0.0
 10
243.3846038152091
 20
103.7418140288466
 30
0.0
 10
243.1114755807638
 20
103.5792525518328
 30
0.0
 10
242.9663558460439
 20
103.5105329661646
 30
0.0
 10
242.5154055957909
 20
103.344845816819
 30
0.0
 10
242.1868899773735
 20
103.2863534791706
 30
0.0
 10
241.6908842083586
 20
103.2863534791706
 30
0.0
  0
LINE
  5
147
330
1F
100
AcDbEntity
  8
0
  6
HIDDEN
 62
     7
370
     0
100
AcDbLine
 10
256.8562194647
 20
93.0376822581
 30
0.0
 11
256.8562194647
 21
114.633686975
 31
0.0
  0
SPLINE
  5
148
330
1F
100
AcDbEntity
  8
0
  6
HIDDEN
 62
     7
370
     0
100
AcDbSpline
210
0.0
220
0.0
230
1.0
 70
     8
 71
     3
 72
    28
 73
    24
 74
     0
 42
0.00000001
 43
0.00000001
 40
0.0
 40
0.0
 40
0.0
 40
0.0
 40
0.0270830134291515
 40
0.0720863441759847
 40
0.1180545515504693
 40
0.1643395050655737
 40
0.2094882408741441
 40
0.2549225824766342
 40
0.3012417543877401
 40
0.3478615656442202
 40
0.3954994292272562
 40
0.4434593252224793
 40
0.4924287035594152
 40
0.5417446475195671
 40
0.5901524835486007
 40
0.6388938356358834
 40
0.6886872958445476
 40
0.7388472478387428
 40
0.7873460089738501
 40
0.8361991664384281
 40
0.9114186462656558
 40
0.9367125737743379
 40
1.0
 40
1.0
 40
1.0
 40
1.0
 10
253.2376249130017
 20
133.0273883766972
 30
0.0
 10
253.1440581244267
 20
133.0284155159524
 30
0.0
 10
252.8950131744511
 20
133.0311494330649
 30
0.0
 10
252.5730247732881
 20
132.9354925404699
 30
0.0
 10
252.2541559233322
 20
132.7427550627069
 30
0.0
 10
252.0020595940187
 20
132.4470494100311
 30
0.0
 10
251.8079484585355
 20
132.0559037161932
 30
0.0
 10
251.667854519671
 20
131.5687549872193
 30
0.0
 10
251.5784030243392
 20
130.9807257504597
 30
0.0
 10
251.5390556627329
 20
130.2881053060421
 30
0.0
 10
251.5505507073846
 20
129.494032913732
 30
0.0
 10
251.614260973689
 20
128.5960832050555
 30
0.0
 10
251.7319244070038
 20
127.6012024745269
 30
0.0
 10
251.9046860043702
 20
126.5230966013974
 30
0.0
 10
252.1329013428006
 20
125.3758654758561
 30
0.0
 10
252.4195548014766
 20
124.1637784735397
 30
0.0
 10
252.7718796929366
 20
122.8853645930053
 30
0.0
 10
253.1906948977967
 20
121.5689116701892
 30
0.0
 10
253.6781426004519
 20
120.2351472149014
 30
0.0
 10
254.3371381728172
 20
118.6623280197314
 30
0.0
 10
255.0219151245303
 20
117.3093348025268
 30
0.0
 10
255.8846685175101
 20
115.8691551674519
 30
0.0
 10
256.4513504790454
 20
115.1485367163761
 30
0.0
 10
256.856219464697
 20
114.6336869750176
 30
0.0
  0
LINE
  5
149
330
1F
100
AcDbEntity
  8
0
  6
HIDDEN
 62
     7
370
     0
100
AcDbLine
 10
156.0518398104
 20
132.8876822581
 30
0.0
 11
159.9723670879
 21
132.8876822581
 31
0.0
  0
LINE
  5
14A
330
1F
100
AcDbEntity
  8
0
  6
HIDDEN
 62
     7
370
     0
100
AcDbLine
 10
163.7400718415
 20
132.8876822581
 30
0.0
 11
169.8062194647
 21
132.8876822581
 31
0.0
  0
LINE
  5
14B
330
1F
100
AcDbEntity
  8
0
  6
HIDDEN
 62
     7
370
     0
100
AcDbLine
 10
124.8601940609
 20
130.0376822581
 30
0.0
 11
124.8601940609
 21
96.0376822581
 31
0.0
  0
LWPOLYLINE
  5
14C
330
1F
100
AcDbEntity
  8
0
  6
HIDDEN
 62
     7
370
     0
100
AcDbPolyline
 90
        2
 70
   128
 43
0.0
 10
124.8601940609
 20
96.0376822581
 10
124.8601940609
 20
96.0376822581
  0
LINE
  5
14D
330
1F
100
AcDbEntity
  8
0
  6
HIDDEN
 62
     7
370
     0
100
AcDbLine
 10
111.9562194647
 20
97.0077468602
 30
0.0
 11
111.9562194647
 21
129.0676176559
 31
0.0
  0
LINE
  5
14E
330
1F
100
AcDbEntity
  8
0
  6
HIDDEN
 62
     7
370
     0
100
AcDbLine
 10
151.5160454332
 20
130.0376822581
 30
0.0
 11
151.5160454332
 21
96.0376822581
 31
0.0
  0
LWPOLYLINE
  5
14F
330
1F
100
AcDbEntity
  8
0
  6
HIDDEN
 62
     7
370
     0
100
AcDbPolyline
 90
        2
 70
   128
 43
0.0
 10
151.5160454332
 20
96.0376822581
 10
151.5160454332
 20
96.0376822581
  0
LINE
  5
150
330
1F
100
AcDbEntity
  8
0
  6
HIDDEN
 62
     7
370
     0
100
AcDbLine
 10
153.8062194647
 20
128.7626822581
 30
0.0
 11
153.8062194647
 21
97.3126822581
 31
0.0
  0
LINE
  5
151
330
1F
100
AcDbEntity
  8
0
  6
HIDDEN
 62
     7
370
     0
100
AcDbLine
 10
113.1062194647
 20
97.236191822
 30
0.0
 11
120.6562194647
 21
97.236191822
 31
0.0
  0
LINE
  5
152
330
1F
100
AcDbEntity
  8
0
  6
HIDDEN
 62
     7
370
     0
100
AcDbLine
 10
113.1062194647
 20
128.8391726941
 30
0.0
 11
113.1062194647
 21
97.236191822
 31
0.0
  0
LINE
  5
153
330
1F
100
AcDbEntity
  8
0
  6
HIDDEN
 62
     7
370
     0
100
AcDbLine
 10
116.6562194647
 20
128.8391726941
 30
0.0
 11
113.1062194647
 21
128.8391726941
 31
0.0
  0
SPLINE
  5
154
330
1F
100
AcDbEntity
  8
0
  6
HIDDEN
 62
     7
370
     0
100
AcDbSpline
210
0.0
220
0.0
230
1.0
 70
     8
 71
     3
 72
    18
 73
    14
 74
     0
 42
0.00000001
 43
0.00000001
 40
0.0
 40
0.0
 40
0.0
 40
0.0
 40
0.2500000000000002
 40
0.2500000000000002
 40
0.375
 40
0.375
 40
0.4999999999999998
 40
0.4999999999999998
 40
0.6249999999999996
 40
0.6249999999999996
 40
0.7499999999999993
 40
0.7499999999999993
 40
1.0
 40
1.0
 40
1.0
 40
1.0
 10
118.0562194646969
 20
129.3251958804686
 30
0.0
 10
118.0562194646969
 20
129.2707213599164
 30
0.0
 10
118.0213087733047
 20
129.2143403005639
 30
0.0
 10
117.9192994719716
 20
129.1302634597104
 30
0.0
 10
117.8776631172935
 20
129.1029297557195
 30
0.0
 10
117.7792573218048
 20
129.0499758401206
 30
0.0
 10
117.7217141101005
 20
129.0240884864034
 30
0.0
 10
117.5944159365275
 20
128.9763109415701
 30
0.0
 10
117.5248286317701
 20
128.9543630233922
 30
0.0
 10
117.3733943866151
 20
128.9149304584795
 30
0.0
 10
117.2907104835212
 20
128.8973742092537
 30
0.0
 10
117.0345990214831
 20
128.8549354438331
 30
0.0
 10
116.8466840175951
 20
128.8391726940962
 30
0.0
 10
116.6562194646968
 20
128.8391726940962
 30
0.0
  0
LINE
  5
155
330
1F
100
AcDbEntity
  8
0
  6
HIDDEN
 62
     7
370
     0
100
AcDbLine
 10
118.0562194647
 20
129.3251958805
 30
0.0
 11
118.0562194647
 21
130.0376822581
 31
0.0
  0
SPLINE
  5
156
330
1F
100
AcDbEntity
  8
0
  6
HIDDEN
 62
     7
370
     0
100
AcDbSpline
210
0.0
220
0.0
230
1.0
 70
     8
 71
     3
 72
    18
 73
    14
 74
     0
 42
0.00000001
 43
0.00000001
 40
0.0
 40
0.0
 40
0.0
 40
0.0
 40
0.2499999999999988
 40
0.2499999999999988
 40
0.3749999999999989
 40
0.3749999999999989
 40
0.499999999999999
 40
0.499999999999999
 40
0.6249999999999991
 40
0.6249999999999991
 40
0.7499999999999991
 40
0.7499999999999991
 40
1.0
 40
1.0
 40
1.0
 40
1.0
 10
118.0562194646969
 20
129.3251958804686
 30
0.0
 10
118.0562194646969
 20
129.2707213599164
 30
0.0
 10
118.0213087733047
 20
129.2143403005639
 30
0.0
 10
117.9192994719716
 20
129.1302634597104
 30
0.0
 10
117.8776631172935
 20
129.1029297557195
 30
0.0
 10
117.7792573218047
 20
129.0499758401206
 30
0.0
 10
117.7217141101005
 20
129.0240884864034
 30
0.0
 10
117.5944159365275
 20
128.9763109415701
 30
0.0
 10
117.52482863177
 20
128.9543630233922
 30
0.0
 10
117.3733943866151
 20
128.9149304584795
 30
0.0
 10
117.2907104835212
 20
128.8973742092537
 30
0.0
 10
117.0345990214831
 20
128.8549354438331
 30
0.0
 10
116.8466840175951
 20
128.8391726940962
 30
0.0
 10
116.6562194646968
 20
128.8391726940962
 30
0.0
  0
LINE
  5
157
330
1F
100
AcDbEntity
  8
0
  6
HIDDEN
 62
     7
370
     0
100
AcDbLine
 10
116.6562194647
 20
128.8391726941
 30
0.0
 11
113.1062194647
 21
128.8391726941
 31
0.0
  0
LINE
  5
158
330
1F
100
AcDbEntity
  8
0
  6
HIDDEN
 62
     7
370
     0
100
AcDbLine
 10
113.1062194647
 20
97.236191822
 30
0.0
 11
120.6562194647
 21
97.236191822
 31
0.0
  0
SPLINE
  5
159
330
1F
100
AcDbEntity
  8
0
  6
HIDDEN
 62
     7
370
     0
100
AcDbSpline
210
0.0
220
0.0
230
1.0
 70
     8
 71
     3
 72
    16
 73
    12
 74
     0
 42
0.00000001
 43
0.00000001
 40
0.0
 40
0.0
 40
0.0
 40
0.0
 40
0.1249999999999985
 40
0.1249999999999985
 40
0.249999999999997
 40
0.249999999999997
 40
0.499999999999998
 40
0.499999999999998
 40
0.749999999999999
 40
0.749999999999999
 40
1.0
 40
1.0
 40
1.0
 40
1.0
 10
120.6562194646968
 20
97.23619182203284
 30
0.0
 10
120.7513412193627
 20
97.23619182203284
 30
0.0
 10
120.8446712880907
 20
97.23237598864004
 30
0.0
 10
121.0279330488287
 20
97.21760543591024
 30
0.0
 10
121.1188107643857
 20
97.20644738793466
 30
0.0
 10
121.3756124619055
 20
97.16397611779294
 30
0.0
 10
121.5306798267775
 20
97.12292992059012
 30
0.0
 10
121.7844262883321
 20
97.02778380400824
 30
0.0
 10
121.88529674
 20
96.97302106992667
 30
0.0
 10
122.0205431546948
 20
96.86175994602279
 30
0.0
 10
122.0562194646969
 20
96.8045902086941
 30
0.0
 10
122.0562194646969
 20
96.75016863566039
 30
0.0
  0
LINE
  5
15A
330
1F
100
AcDbEntity
  8
0
  6
HIDDEN
 62
     7
370
     0
100
AcDbLine
 10
122.0562194647
 20
96.7501686357
 30
0.0
 11
122.0562194647
 21
96.0376822581
 31
0.0
  0
SPLINE
  5
15B
330
1F
100
AcDbEntity
  8
0
  6
HIDDEN
 62
     7
370
     0
100
AcDbSpline
210
0.0
220
0.0
230
1.0
 70
     8
 71
     3
 72
    16
 73
    12
 74
     0
 42
0.00000001
 43
0.00000001
 40
0.0
 40
0.0
 40
0.0
 40
0.0
 40
0.1250000000000001
 40
0.1250000000000001
 40
0.2500000000000002
 40
0.2500000000000002
 40
0.5000000000000001
 40
0.5000000000000001
 40
0.75
 40
0.75
 40
1.0
 40
1.0
 40
1.0
 40
1.0
 10
120.6562194646968
 20
97.23619182203285
 30
0.0
 10
120.7513412193627
 20
97.23619182203285
 30
0.0
 10
120.8446712880908
 20
97.23237598864004
 30
0.0
 10
121.0279330488287
 20
97.21760543591024
 30
0.0
 10
121.1188107643857
 20
97.20644738793466
 30
0.0
 10
121.3756124619055
 20
97.16397611779293
 30
0.0
 10
121.5306798267775
 20
97.12292992059012
 30
0.0
 10
121.7844262883321
 20
97.02778380400825
 30
0.0
 10
121.88529674
 20
96.97302106992667
 30
0.0
 10
122.0205431546948
 20
96.86175994602279
 30
0.0
 10
122.0562194646968
 20
96.80459020869411
 30
0.0
 10
122.0562194646968
 20
96.75016863566039
 30
0.0
  0
LINE
  5
15C
330
1F
100
AcDbEntity
  8
0
  6
HIDDEN
 62
     7
370
     0
100
AcDbLine
 10
113.1062194647
 20
97.236191822
 30
0.0
 11
113.1062194647
 21
128.8391726941
 31
0.0
  0
SPLINE
  5
15D
330
1F
100
AcDbEntity
  8
0
  6
HIDDEN
 62
     7
370
     0
100
AcDbSpline
210
0.0
220
0.0
230
1.0
 70
     8
 71
     3
 72
    62
 73
    58
 74
     0
 42
0.00000001
 43
0.00000001
 40
-0.0312499999999981
 40
-0.0312499999999981
 40
0.0
 40
0.0
 40
0.0312500000000001
 40
0.0312500000000001
 40
0.0625000000000001
 40
0.0625000000000001
 40
0.1250000000000031
 40
0.1250000000000031
 40
0.187500000000006
 40
0.187500000000006
 40
0.2187500000000069
 40
0.2187500000000069
 40
0.2500000000000078
 40
0.2500000000000078
 40
0.2812500000000087
 40
0.2812500000000087
 40
0.3125000000000095
 40
0.3125000000000095
 40
0.3437500000000104
 40
0.3437500000000104
 40
0.3750000000000113
 40
0.3750000000000113
 40
0.437500000000011
 40
0.437500000000011
 40
0.4687500000000108
 40
0.4687500000000108
 40
0.5000000000000105
 40
0.5000000000000105
 40
0.5312500000000104
 40
0.5312500000000104
 40
0.5625000000000102
 40
0.5625000000000102
 40
0.5937500000000101
 40
0.5937500000000101
 40
0.6250000000000099
 40
0.6250000000000099
 40
0.6562500000000098
 40
0.6562500000000098
 40
0.6875000000000095
 40
0.6875000000000095
 40
0.7187500000000094
 40
0.7187500000000094
 40
0.7500000000000092
 40
0.7500000000000092
 40
0.7812500000000091
 40
0.7812500000000091
 40
0.8125000000000089
 40
0.8125000000000089
 40
0.8750000000000073
 40
0.8750000000000073
 40
0.9062500000000056
 40
0.9062500000000056
 40
0.9375000000000037
 40
0.9375000000000037
 40
0.9687500000000019
 40
0.9687500000000019
 40
1.0
 40
1.0
 40
1.03125
 40
1.03125
 10
241.9974818819838
 20
112.4531552340322
 30
0.0
 10
241.71495704741
 20
112.4531552340322
 30
0.0
 10
241.5766340163589
 20
112.4693170938919
 30
0.0
 10
241.3054060706668
 20
112.5315623798976
 30
0.0
 10
241.1711957044984
 20
112.5784693888792
 30
0.0
 10
240.7922161967941
 20
112.7565666707914
 30
0.0
 10
240.5633396363344
 20
112.9277708317284
 30
0.0
 10
240.1824467841832
 20
113.3340497590364
 30
0.0
 10
240.0268487113161
 20
113.5732997332974
 30
0.0
 10
239.8677026657943
 20
113.9517950500958
 30
0.0
 10
239.825937274844
 20
114.084173038971
 30
0.0
 10
239.770618861034
 20
114.3467848914247
 30
0.0
 10
239.7565130335634
 20
114.4773319510177
 30
0.0
 10
239.7559348755084
 20
114.7366736767425
 30
0.0
 10
239.7699259244515
 20
114.8650629106251
 30
0.0
 10
239.824424353328
 20
115.1070991221616
 30
0.0
 10
239.8653146922761
 20
115.2234315830431
 30
0.0
 10
239.9719226919525
 20
115.4411746063256
 30
0.0
 10
240.0366702390312
 20
115.5412515724574
 30
0.0
 10
240.1882311146586
 20
115.7261173487803
 30
0.0
 10
240.2755177117982
 20
115.8109057424857
 30
0.0
 10
240.5611316662446
 20
116.0354739573481
 30
0.0
 10
240.7905178612957
 20
116.1511622705058
 30
0.0
 10
241.1667365309491
 20
116.2672184148554
 30
0.0
 10
241.2992075859998
 20
116.2969967005929
 30
0.0
 10
241.5731625624516
 20
116.3370771243252
 30
0.0
 10
241.711203225754
 20
116.3470433212688
 30
0.0
 10
241.9894207977351
 20
116.3475997112427
 30
0.0
 10
242.1312301564997
 20
116.3377993983014
 30
0.0
 10
242.4036867238308
 20
116.2988195486628
 30
0.0
 10
242.5355524549059
 20
116.2698702285745
 30
0.0
 10
242.7910688750266
 20
116.1919784595983
 30
0.0
 10
242.9110556346666
 20
116.1441190064346
 30
0.0
 10
243.136201631987
 20
116.0302870859138
 30
0.0
 10
243.2423283963708
 20
115.9634844572862
 30
0.0
 10
243.4336550440628
 20
115.8138804328684
 30
0.0
 10
243.5195913905961
 20
115.7309500592856
 30
0.0
 10
243.6720883518148
 20
115.5464964192242
 30
0.0
 10
243.7382334150431
 20
115.4448213315843
 30
0.0
 10
243.8444538502389
 20
115.2298551530534
 30
0.0
 10
243.8854944620675
 20
115.1155564557234
 30
0.0
 10
243.9416810500162
 20
114.871332684542
 30
0.0
 10
243.9558986215804
 20
114.744386556364
 30
0.0
 10
243.9565295132661
 20
114.4865002398208
 30
0.0
 10
243.9427411314662
 20
114.3530110444689
 30
0.0
 10
243.8878975597223
 20
114.0890223475907
 30
0.0
 10
243.8473963776676
 20
113.9591766146871
 30
0.0
 10
243.6878071789843
 20
113.5765349766241
 30
0.0
 10
243.5330393453054
 20
113.3376859409358
 30
0.0
 10
243.2450596314248
 20
113.0299361348179
 30
0.0
 10
243.1411107088718
 20
112.9370170420089
 30
0.0
 10
242.9166995109805
 20
112.7711573605721
 30
0.0
 10
242.7947689569321
 20
112.6977009668465
 30
0.0
 10
242.5425265034733
 20
112.5789832887265
 30
0.0
 10
242.411649329784
 20
112.5329468800028
 30
0.0
 10
242.1394429814041
 20
112.4698366722635
 30
0.0
 10
241.9974818819838
 20
112.4531552340322
 30
0.0
 10
241.71495704741
 20
112.4531552340322
 30
0.0
  0
SPLINE
  5
15E
330
1F
100
AcDbEntity
  8
0
  6
HIDDEN
 62
     7
370
     0
100
AcDbSpline
210
0.0
220
0.0
230
1.0
 70
     8
 71
     3
 72
     8
 73
     4
 74
     0
 42
0.00000001
 43
0.00000001
 40
0.0
 40
0.0
 40
0.0
 40
0.0
 40
1.0
 40
1.0
 40
1.0
 40
1.0
 10
240.8531956586993
 20
120.0430603932466
 30
0.0
 10
240.8165421613096
 20
119.9285737154053
 30
0.0
 10
240.8044605444434
 20
119.8252841655604
 30
0.0
 10
240.8167831903985
 20
119.7348591181625
 30
0.0
  0
SPLINE
  5
15F
330
1F
100
AcDbEntity
  8
0
  6
HIDDEN
 62
     7
370
     0
100
AcDbSpline
210
0.0
220
0.0
230
1.0
 70
     8
 71
     3
 72
    70
 73
    66
 74
     0
 42
0.00000001
 43
0.00000001
 40
0.0
 40
0.0
 40
0.0
 40
0.0
 40
0.0156249999999996
 40
0.0156249999999996
 40
0.0312499999999993
 40
0.0312499999999993
 40
0.0624999999999985
 40
0.0624999999999985
 40
0.1249999999999991
 40
0.1249999999999991
 40
0.1874999999999996
 40
0.1874999999999996
 40
0.2187499999999999
 40
0.2187499999999999
 40
0.2500000000000003
 40
0.2500000000000003
 40
0.2812500000000006
 40
0.2812500000000006
 40
0.3125000000000009
 40
0.3125000000000009
 40
0.3437500000000012
 40
0.3437500000000012
 40
0.3750000000000015
 40
0.3750000000000015
 40
0.4375000000000022
 40
0.4375000000000022
 40
0.4687500000000026
 40
0.4687500000000026
 40
0.4843750000000031
 40
0.4843750000000031
 40
0.5000000000000034
 40
0.5000000000000034
 40
0.5156250000000039
 40
0.5156250000000039
 40
0.5312500000000042
 40
0.5312500000000042
 40
0.5625000000000039
 40
0.5625000000000039
 40
0.6250000000000031
 40
0.6250000000000031
 40
0.656250000000003
 40
0.656250000000003
 40
0.6875000000000029
 40
0.6875000000000029
 40
0.7187500000000029
 40
0.7187500000000029
 40
0.7500000000000028
 40
0.7500000000000028
 40
0.7812500000000027
 40
0.7812500000000027
 40
0.8125000000000026
 40
0.8125000000000026
 40
0.8437500000000026
 40
0.8437500000000026
 40
0.8750000000000024
 40
0.8750000000000024
 40
0.9062500000000023
 40
0.9062500000000023
 40
0.9375000000000022
 40
0.9375000000000022
 40
0.9687500000000022
 40
0.9687500000000022
 40
0.984375000000001
 40
0.984375000000001
 40
1.0
 40
1.0
 40
1.0
 40
1.0
 10
240.8167831903991
 20
119.73485911815
 30
0.0
 10
240.8854266176845
 20
119.7661949642025
 30
0.0
 10
240.9494036710263
 20
119.7823970038263
 30
0.0
 10
241.0730109471113
 20
119.8020746715782
 30
0.0
 10
241.1316164916994
 20
119.8052503444623
 30
0.0
 10
241.3061330785285
 20
119.8049484560487
 30
0.0
 10
241.4211782862481
 20
119.7912689538607
 30
0.0
 10
241.7698940387783
 20
119.725077111183
 30
0.0
 10
242.004858277888
 20
119.6477524063182
 30
0.0
 10
242.4957718894848
 20
119.4199636557406
 30
0.0
 10
242.7489229193364
 20
119.2687558937183
 30
0.0
 10
243.1111661123513
 20
118.9807222025036
 30
0.0
 10
243.2265872697818
 20
118.8764765186169
 30
0.0
 10
243.4445010513378
 20
118.6478763331893
 30
0.0
 10
243.5423167996464
 20
118.52813238354
 30
0.0
 10
243.7105234174714
 20
118.2820779350674
 30
0.0
 10
243.7804911117095
 20
118.155548677046
 30
0.0
 10
243.8840697852214
 20
117.9137842087879
 30
0.0
 10
243.9189637464738
 20
117.7960830728423
 30
0.0
 10
243.9568490687287
 20
117.5789294061879
 30
0.0
 10
243.9603801332077
 20
117.4772327332367
 30
0.0
 10
243.9429556268665
 20
117.2942355639709
 30
0.0
 10
243.9222774093898
 20
117.2115977253806
 30
0.0
 10
243.8309152502063
 20
116.9863642199737
 30
0.0
 10
243.7334861225229
 20
116.8713974141414
 30
0.0
 10
243.5567711941005
 20
116.746759181419
 30
0.0
 10
243.4919310584194
 20
116.7129680068643
 30
0.0
 10
243.3945385036027
 20
116.6802997298786
 30
0.0
 10
243.3618743125506
 20
116.6723580467467
 30
0.0
 10
243.3018181180337
 20
116.6668798764695
 30
0.0
 10
243.2735698692024
 20
116.6689645412847
 30
0.0
 10
243.2399207017504
 20
116.697565593297
 30
0.0
 10
243.2383617153356
 20
116.7267914128986
 30
0.0
 10
243.2704095166749
 20
116.8101119304648
 30
0.0
 10
243.2996702764371
 20
116.8606894647408
 30
0.0
 10
243.3945302846682
 20
117.0206035467722
 30
0.0
 10
243.4658316312421
 20
117.1368360891475
 30
0.0
 10
243.6628684580849
 20
117.5033806641769
 30
0.0
 10
243.7781429174194
 20
117.7759204952746
 30
0.0
 10
243.8927371904895
 20
118.2099172534274
 30
0.0
 10
243.9219656547695
 20
118.3610879299195
 30
0.0
 10
243.9559635036225
 20
118.6665671231136
 30
0.0
 10
243.9610739109215
 20
118.8209140772565
 30
0.0
 10
243.9417062193998
 20
119.1335198804982
 30
0.0
 10
243.9170962452364
 20
119.2888290258157
 30
0.0
 10
243.8344523034787
 20
119.5872792742704
 30
0.0
 10
243.7753632024149
 20
119.7320901069179
 30
0.0
 10
243.6275171450716
 20
119.990813258895
 30
0.0
 10
243.536239754987
 20
120.1089946482581
 30
0.0
 10
243.3329395586773
 20
120.3059877414045
 30
0.0
 10
243.2192620090571
 20
120.3869913298077
 30
0.0
 10
242.9812292351576
 20
120.510753039089
 30
0.0
 10
242.8565704130434
 20
120.5541113892772
 30
0.0
 10
242.6029033580573
 20
120.6080358635061
 30
0.0
 10
242.47609610365
 20
120.6184033702495
 30
0.0
 10
242.2221569880201
 20
120.6122483092274
 30
0.0
 10
242.0939921923001
 20
120.5953200034385
 30
0.0
 10
241.8434554975577
 20
120.5385969516047
 30
0.0
 10
241.7208068606366
 20
120.4990156891874
 30
0.0
 10
241.4781310780487
 20
120.4001105629355
 30
0.0
 10
241.3583979192958
 20
120.3407221734424
 30
0.0
 10
241.1750759387529
 20
120.2371119918805
 30
0.0
 10
241.113940244919
 20
120.2004716993405
 30
0.0
 10
240.9875401255486
 20
120.1233103561811
 30
0.0
 10
240.9219075213647
 20
120.0824253801099
 30
0.0
 10
240.8531956587134
 20
120.0430603932444
 30
0.0
  0
LWPOLYLINE
  5
160
330
1F
100
AcDbEntity
  8
0
  6
HIDDEN
 62
     7
370
     0
100
AcDbPolyline
 90
       21
 70
   128
 43
0.0
 10
241.8562194647
 20
117.4589082515
 10
242.5051551529
 20
117.5542054281
 10
243.0905684945
 20
117.8307686061
 10
243.5551551529
 20
118.2615258548
 10
243.8534381489
 20
118.8043116534
 10
243.9562194647
 20
119.4059943461
 10
243.8534381489
 20
120.0076770389
 10
243.5551551529
 20
120.5504628375
 10
243.0905684945
 20
120.9812200862
 10
242.5051551529
 20
121.2577832642
 10
241.8562194647
 20
121.3530804407
 10
241.2072837765
 20
121.2577832642
 10
240.6218704349
 20
120.9812200862
 10
240.1572837765
 20
120.5504628375
 10
239.8590007805
 20
120.0076770389
 10
239.7562194647
 20
119.4059943461
 10
239.8590007805
 20
118.8043116534
 10
240.1572837765
 20
118.2615258548
 10
240.6218704349
 20
117.8307686061
 10
241.2072837765
 20
117.5542054281
 10
241.8562194647
 20
117.4589082515
  0
ARC
  5
161
330
1F
100
AcDbEntity
  8
0
  6
HIDDEN
 62
     7
370
     0
100
AcDbCircle
 10
241.3800593146
 20
119.8245624229
 30
0.0
 40
0.5703741534711279
100
AcDbArc
 50
157.4755085087
 51
189.048529743
  0
ELLIPSE
  5
162
330
1F
100
AcDbEntity
  8
0
  6
HIDDEN
 62
     7
370
     0
100
AcDbEllipse
 10
274.6207604735
 20
113.0376822581
 30
0.0
 11
6.813115534749215
 21
20.49875008501969
 31
0.0
210
0.0
220
0.0
230
1.0
 40
0.0332261324
 41
1.581839159950949
 42
3.152635486746402
  0
SPLINE
  5
163
330
1F
100
AcDbEntity
  8
0
  6
HIDDEN
 62
     7
370
     0
100
AcDbSpline
210
0.0
220
0.0
230
1.0
 70
     8
 71
     3
 72
    42
 73
    38
 74
     0
 42
0.00000001
 43
0.00000001
 40
0.0
 40
0.0
 40
0.0
 40
0.0
 40
0.0624999999999972
 40
0.0624999999999972
 40
0.0937499999999959
 40
0.0937499999999959
 40
0.1249999999999946
 40
0.1249999999999946
 40
0.1562499999999932
 40
0.1562499999999932
 40
0.1874999999999919
 40
0.1874999999999919
 40
0.2499999999999908
 40
0.2499999999999908
 40
0.3124999999999898
 40
0.3124999999999898
 40
0.3749999999999887
 40
0.3749999999999887
 40
0.4374999999999877
 40
0.4374999999999877
 40
0.4999999999999867
 40
0.4999999999999867
 40
0.5624999999999882
 40
0.5624999999999882
 40
0.6249999999999899
 40
0.6249999999999899
 40
0.6874999999999916
 40
0.6874999999999916
 40
0.7499999999999932
 40
0.7499999999999932
 40
0.812499999999995
 40
0.812499999999995
 40
0.8749999999999967
 40
0.8749999999999967
 40
0.9374999999999983
 40
0.9374999999999983
 40
1.0
 40
1.0
 40
1.0
 40
1.0
 10
261.3464384329286
 20
111.4542798698221
 30
0.0
 10
261.3250448117624
 20
111.1361031607092
 30
0.0
 10
261.3401319766386
 20
110.8203556116648
 30
0.0
 10
261.4187323085186
 20
110.3503999814021
 30
0.0
 10
261.4546502403151
 20
110.1937386513445
 30
0.0
 10
261.5437415807498
 20
109.8899331729513
 30
0.0
 10
261.5969974938296
 20
109.7418115060812
 30
0.0
 10
261.7206311522559
 20
109.4529344730218
 30
0.0
 10
261.7910084906165
 20
109.3121791125908
 30
0.0
 10
261.9492489681181
 20
109.0381083556517
 30
0.0
 10
262.0371718126564
 20
108.9050059216469
 30
0.0
 10
262.3202679447405
 20
108.527003338149
 30
0.0
 10
262.5364943013046
 20
108.2994427921439
 30
0.0
 10
263.0243215683022
 20
107.8924518644
 30
0.0
 10
263.2895945590712
 20
107.7187623750419
 30
0.0
 10
263.8532088435812
 20
107.4329238862138
 30
0.0
 10
264.1563690289215
 20
107.3193947210106
 30
0.0
 10
264.772213879029
 20
107.1627918564793
 30
0.0
 10
265.0870089667795
 20
107.1178522961953
 30
0.0
 10
265.7308955579425
 20
107.0969519323522
 30
0.0
 10
266.0490495312156
 20
107.1215111758081
 30
0.0
 10
266.6737592009201
 20
107.2383842815775
 30
0.0
 10
266.9841051724147
 20
107.3326215875384
 30
0.0
 10
267.5655738164385
 20
107.5830115104001
 30
0.0
 10
267.8397354826943
 20
107.738991987252
 30
0.0
 10
268.35385272069
 20
108.1156928623218
 30
0.0
 10
268.584374495959
 20
108.3296001885806
 30
0.0
 10
268.9931614331008
 20
108.8062057582426
 30
0.0
 10
269.1725687215961
 20
109.0722666517178
 30
0.0
 10
269.4616292396968
 20
109.6304121069836
 30
0.0
 10
269.5740447120153
 20
109.9250453248622
 30
0.0
 10
269.7318602046935
 20
110.5440822678438
 30
0.0
 10
269.7745757079248
 20
110.8574799052815
 30
0.0
 10
269.7907551755265
 20
111.4918478691724
 30
0.0
 10
269.7629462893815
 20
111.8153756058258
 30
0.0
 10
269.6394187604383
 20
112.4388861032017
 30
0.0
 10
269.5443415343039
 20
112.742540300358
 30
0.0
 10
269.4144672923271
 20
113.0376822580645
 30
0.0
  0
SPLINE
  5
164
330
1F
100
AcDbEntity
  8
0
  6
HIDDEN
 62
     7
370
     0
100
AcDbSpline
210
0.0
220
0.0
230
1.0
 70
     8
 71
     3
 72
     8
 73
     4
 74
     0
 42
0.00000001
 43
0.00000001
 40
0.0
 40
0.0
 40
0.0
 40
0.0
 40
1.0
 40
1.0
 40
1.0
 40
1.0
 10
261.2638460674541
 20
111.359087234061
 30
0.0
 10
261.2914999639858
 20
111.390720850563
 30
0.0
 10
261.3190308517842
 20
111.4224516356205
 30
0.0
 10
261.3464384329285
 20
111.4542798698221
 30
0.0
  0
SPLINE
  5
165
330
1F
100
AcDbEntity
  8
0
  6
HIDDEN
 62
     7
370
     0
100
AcDbSpline
210
0.0
220
0.0
230
1.0
 70
     8
 71
     3
 72
    20
 73
    16
 74
     0
 42
0.00000001
 43
0.00000001
 40
0.0
 40
0.0
 40
0.0
 40
0.0
 40
0.2500000000000021
 40
0.2500000000000021
 40
0.5000000000000042
 40
0.5000000000000042
 40
0.6250000000000051
 40
0.6250000000000051
 40
0.7500000000000061
 40
0.7500000000000061
 40
0.875000000000007
 40
0.875000000000007
 40
0.9375000000000036
 40
0.9375000000000036
 40
1.0
 40
1.0
 40
1.0
 40
1.0
 10
257.356219464697
 20
112.5955547068526
 30
0.0
 10
257.6152575286158
 20
112.3062256281368
 30
0.0
 10
257.8879298456487
 20
112.0319065931654
 30
0.0
 10
258.4758632394812
 20
111.5295794803635
 30
0.0
 10
258.7923391844415
 20
111.2993350542614
 30
0.0
 10
259.3091936911941
 20
111.0350093738222
 30
0.0
 10
259.4908633473325
 20
110.9599260043349
 30
0.0
 10
259.8643782286379
 20
110.8582494232221
 30
0.0
 10
260.0609165793668
 20
110.8310885671691
 30
0.0
 10
260.4475467662828
 20
110.8533214350983
 30
0.0
 10
260.6404887353181
 20
110.9048560008635
 30
0.0
 10
260.8974345132478
 20
111.0395044325301
 30
0.0
 10
260.9794831110621
 20
111.0944154705209
 30
0.0
 10
261.1301565232881
 20
111.2173096667911
 30
0.0
 10
261.1994699219226
 20
111.2854466062823
 30
0.0
 10
261.2638460674613
 20
111.3590872340144
 30
0.0
  0
LINE
  5
166
330
1F
100
AcDbEntity
  8
0
  6
HIDDEN
 62
     7
370
     0
100
AcDbLine
 10
257.3562194647
 20
92.5376822581
 30
0.0
 11
257.3562194647
 21
112.5955547069
 31
0.0
  0
SPLINE
  5
167
330
1F
100
AcDbEntity
  8
0
  6
HIDDEN
 62
     7
370
     0
100
AcDbSpline
210
0.0
220
0.0
230
1.0
 70
     8
 71
     3
 72
     8
 73
     4
 74
     0
 42
0.00000001
 43
0.00000001
 40
0.0
 40
0.0
 40
0.0
 40
0.0
 40
1.0
 40
1.0
 40
1.0
 40
1.0
 10
257.356219464697
 20
112.5955547068526
 30
0.0
 10
257.1849698128263
 20
113.2792316513926
 30
0.0
 10
257.0180863744235
 20
113.9586077101567
 30
0.0
 10
256.8562194646967
 20
114.6336869750188
 30
0.0
  0
LINE
  5
168
330
1F
100
AcDbEntity
  8
0
  6
HIDDEN
 62
     7
370
     0
100
AcDbLine
 10
113.1062194647
 20
95.0476822581
 30
0.0
 11
113.1062194647
 21
92.2251822581
 31
0.0
  0
LINE
  5
169
330
1F
100
AcDbEntity
  8
0
  6
HIDDEN
 62
     7
370
     0
100
AcDbLine
 10
122.0562194647
 20
95.0476822581
 30
0.0
 11
122.0562194647
 21
91.0925339988
 31
0.0
  0
LINE
  5
16A
330
1F
100
AcDbEntity
  8
0
  6
HIDDEN
 62
     7
370
     0
100
AcDbLine
 10
113.1062194647
 20
131.0276822581
 30
0.0
 11
113.1062194647
 21
133.9076200235
 31
0.0
  0
LINE
  5
16B
330
1F
100
AcDbEntity
  8
0
  6
HIDDEN
 62
     7
370
     0
100
AcDbLine
 10
111.9562194647
 20
131.0276822581
 30
0.0
 11
111.9562194647
 21
132.7283600045
 31
0.0
  0
LINE
  5
16C
330
1F
100
AcDbEntity
  8
0
  6
HIDDEN
 62
     7
370
     0
100
AcDbLine
 10
111.9562194647
 20
95.0476822581
 30
0.0
 11
111.9562194647
 21
93.3845217331
 31
0.0
  0
LINE
  5
16D
330
1F
100
AcDbEntity
  8
0
  6
HIDDEN
 62
     7
370
     0
100
AcDbLine
 10
118.0562194647
 20
131.0276822581
 30
0.0
 11
118.0562194647
 21
134.8817899304
 31
0.0
  0
LINE
  5
16E
330
1F
100
AcDbEntity
  8
0
  6
HIDDEN
 62
     7
370
     0
100
AcDbLine
 10
163.1562194647
 20
122.5376822581
 30
0.0
 11
163.1562194647
 21
103.5376822581
 31
0.0
  0
LWPOLYLINE
  5
16F
330
1F
100
AcDbEntity
  8
0
  6
HIDDEN
 62
     7
370
     0
100
AcDbPolyline
 90
        2
 70
   128
 43
0.0
 10
163.1562194647
 20
103.5376822581
 10
163.1562194647
 20
103.5376822581
  0
LINE
  5
170
330
1F
100
AcDbEntity
  8
0
  6
HIDDEN
 62
     7
370
     0
100
AcDbLine
 10
165.6562194647
 20
122.5376822581
 30
0.0
 11
165.6562194647
 21
103.5376822581
 31
0.0
  0
LWPOLYLINE
  5
171
330
1F
100
AcDbEntity
  8
0
  6
HIDDEN
 62
     7
370
     0
100
AcDbPolyline
 90
        2
 70
   128
 43
0.0
 10
165.6562194647
 20
103.5376822581
 10
165.6562194647
 20
103.5376822581
  0
LWPOLYLINE
  5
172
330
1F
100
AcDbEntity
  8
0
  6
HIDDEN
 62
     7
370
     0
100
AcDbPolyline
 90
        2
 70
   128
 43
0.0
 10
169.8062194647
 20
86.6376822581
 10
169.8062194647
 20
86.6376822581
  0
LINE
  5
173
330
1F
100
AcDbEntity
  8
0
  6
HIDDEN
 62
     7
370
     0
100
AcDbLine
 10
154.3062194647
 20
121.5376822581
 30
0.0
 11
154.3062194647
 21
104.5376822581
 31
0.0
  0
LWPOLYLINE
  5
174
330
1F
100
AcDbEntity
  8
0
  6
HIDDEN
 62
     7
370
     0
100
AcDbPolyline
 90
        2
 70
   128
 43
0.0
 10
154.3062194647
 20
104.5376822581
 10
154.3062194647
 20
104.5376822581
  0
LINE
  5
175
330
1F
100
AcDbEntity
  8
0
  6
HIDDEN
 62
     7
370
     0
100
AcDbLine
 10
153.8062194647
 20
104.0376822581
 30
0.0
 11
153.8062194647
 21
122.0376822581
 31
0.0
  0
LINE
  5
176
330
1F
100
AcDbEntity
  8
0
  6
HIDDEN
 62
     7
370
     0
100
AcDbLine
 10
148.8062194647
 20
81.5535592752
 30
0.0
 11
148.8062194647
 21
86.6376822581
 31
0.0
  0
LINE
  5
177
330
1F
100
AcDbEntity
  8
0
  6
HIDDEN
 62
     7
370
     0
100
AcDbLine
 10
156.8062194647
 20
86.6376822581
 30
0.0
 11
148.8062194647
 21
86.6376822581
 31
0.0
  0
LINE
  5
178
330
1F
100
AcDbEntity
  8
0
  6
HIDDEN
 62
     7
370
     0
100
AcDbLine
 10
160.043894267
 20
86.6376822581
 30
0.0
 11
156.8062194647
 21
86.6376822581
 31
0.0
  0
LINE
  5
179
330
1F
100
AcDbEntity
  8
0
  6
HIDDEN
 62
     7
370
     0
100
AcDbLine
 10
159.9462194647
 20
86.2332866297
 30
0.0
 11
159.9462194647
 21
85.539845099
 31
0.0
  0
LINE
  5
17A
330
1F
100
AcDbEntity
  8
0
  6
HIDDEN
 62
     7
370
     0
100
AcDbLine
 10
169.8062194647
 20
86.6376822581
 30
0.0
 11
163.6685446624
 21
86.6376822581
 31
0.0
  0
LINE
  5
17B
330
1F
100
AcDbEntity
  8
0
  6
HIDDEN
 62
     7
370
     0
100
AcDbLine
 10
163.7662194647
 20
85.539845099
 30
0.0
 11
163.7662194647
 21
86.2332866297
 31
0.0
  0
LINE
  5
17C
330
1F
100
AcDbEntity
  8
0
  6
HIDDEN
 62
     7
370
     0
100
AcDbLine
 10
169.8062194647
 20
86.6376822581
 30
0.0
 11
169.8062194647
 21
83.4774048575
 31
0.0
  0
LINE
  5
17D
330
1F
100
AcDbEntity
  8
0
  6
HIDDEN
 62
     7
370
     0
100
AcDbLine
 10
163.1562194647
 20
104.5376822581
 30
0.0
 11
163.1562194647
 21
121.5127415681
 31
0.0
  0
LWPOLYLINE
  5
17E
330
1F
100
AcDbEntity
  8
0
  6
HIDDEN
 62
     7
370
     0
100
AcDbPolyline
 90
        2
 70
   128
 43
0.0
 10
169.8062194647
 20
139.4376822581
 10
169.8062194647
 20
139.4376822581
  0
LINE
  5
17F
330
1F
100
AcDbEntity
  8
0
  6
HIDDEN
 62
     7
370
     0
100
AcDbLine
 10
169.8062194647
 20
139.4376822581
 30
0.0
 11
163.371921933
 21
139.4376822581
 31
0.0
  0
LINE
  5
180
330
1F
100
AcDbEntity
  8
0
  6
HIDDEN
 62
     7
370
     0
100
AcDbLine
 10
163.7662194647
 20
140.8429164492
 30
0.0
 11
163.7662194647
 21
140.1573361091
 31
0.0
  0
LINE
  5
181
330
1F
100
AcDbEntity
  8
0
  6
HIDDEN
 62
     7
370
     0
100
AcDbLine
 10
169.8062194647
 20
139.4376822581
 30
0.0
 11
169.8062194647
 21
142.8841225818
 31
0.0
  0
LINE
  5
182
330
1F
100
AcDbEntity
  8
0
  6
HIDDEN
 62
     7
370
     0
100
AcDbLine
 10
156.8062194647
 20
139.4376822581
 30
0.0
 11
148.8062194647
 21
139.4376822581
 31
0.0
  0
LINE
  5
183
330
1F
100
AcDbEntity
  8
0
  6
HIDDEN
 62
     7
370
     0
100
AcDbLine
 10
160.3405169964
 20
139.4376822581
 30
0.0
 11
156.8062194647
 21
139.4376822581
 31
0.0
  0
LINE
  5
184
330
1F
100
AcDbEntity
  8
0
  6
HIDDEN
 62
     7
370
     0
100
AcDbLine
 10
159.9462194647
 20
140.1573361091
 30
0.0
 11
159.9462194647
 21
140.8429164492
 31
0.0
  0
ELLIPSE
  5
185
330
1F
100
AcDbEntity
  8
0
  6
HIDDEN
 62
     7
370
     0
100
AcDbEllipse
 10
107.7887876004
 20
113.0376822581
 30
0.0
 11
20.07002071827054
 21
-2.842170943040401E-14
 31
0.0
210
0.0
220
0.0
230
1.0
 40
0.8164965809
 41
4.921555463185703
 42
4.980534842098402
  0
LINE
  5
186
330
1F
100
AcDbEntity
  8
0
  6
HIDDEN
 62
     7
370
     0
100
AcDbLine
 10
111.9562194647
 20
95.0476822581
 30
0.0
 11
111.9562194647
 21
97.0077468602
 31
0.0
  0
ELLIPSE
  5
187
330
1F
100
AcDbEntity
  8
0
  6
HIDDEN
 62
     7
370
     0
100
AcDbEllipse
 10
107.7887876004
 20
113.0376822581
 30
0.0
 11
20.07002071827051
 21
-1.421085471520200E-14
 31
0.0
210
0.0
220
0.0
230
1.0
 40
0.8164965809
 41
1.302650465081197
 42
1.3616298439939
  0
LINE
  5
188
330
1F
100
AcDbEntity
  8
0
  6
HIDDEN
 62
     7
370
     0
100
AcDbLine
 10
111.9562194647
 20
131.0276822581
 30
0.0
 11
111.9562194647
 21
129.0676176559
 31
0.0
  0
LWPOLYLINE
  5
189
330
1F
100
AcDbEntity
  8
0
  6
HIDDEN
 62
     7
370
     0
100
AcDbPolyline
 90
       27
 70
   128
 43
0.0
 10
267.949495123
 20
112.5315476406
 10
268.7825114612
 20
112.6128254054
 10
269.5671159176
 20
112.888341943
 10
270.2577101333
 20
113.3420852336
 10
270.8141592826
 20
113.9476853664
 10
271.2041245636
 20
114.669947063
 10
271.4049426116
 20
115.4668950989
 10
271.4049426116
 20
116.2922137511
 10
271.2041245636
 20
117.0979384993
 10
270.8141592826
 20
117.83724355
 10
270.2577101333
 20
118.4671631807
 10
269.5671159176
 20
118.9510887524
 10
268.7825114612
 20
119.2608962696
 10
267.949495123
 20
119.3785808457
 10
267.1164787849
 20
119.2973030809
 10
266.3318743284
 20
119.0217865433
 10
265.6412801127
 20
118.5680432527
 10
265.0848309634
 20
117.9624431199
 10
264.6948656825
 20
117.2401814233
 10
264.4940476345
 20
116.4432333874
 10
264.4940476345
 20
115.6179147352
 10
264.6948656825
 20
114.812189987
 10
265.0848309634
 20
114.0728849364
 10
265.6412801127
 20
113.4429653056
 10
266.3318743284
 20
112.9590397339
 10
267.1164787849
 20
112.6492322167
 10
267.949495123
 20
112.5315476406
  0
ARC
  5
18A
330
1F
100
AcDbEntity
  8
0
  6
HIDDEN
 62
     7
370
     0
100
AcDbCircle
 10
259.4866922305
 20
131.5260374259
 30
0.0
 40
0.901677975520936
100
AcDbArc
 50
110.6826503458
 51
151.2355085187
  0
LINE
  5
18B
330
1F
100
AcDbEntity
  8
0
  6
HIDDEN
 62
     7
370
     0
100
AcDbLine
 10
113.1062194647
 20
95.0476822581
 30
0.0
 11
113.1062194647
 21
97.236191822
 31
0.0
  0
LINE
  5
18C
330
1F
100
AcDbEntity
  8
0
  6
HIDDEN
 62
     7
370
     0
100
AcDbLine
 10
122.0562194647
 20
95.0476822581
 30
0.0
 11
122.0562194647
 21
96.7501686357
 31
0.0
  0
LINE
  5
18D
330
1F
100
AcDbEntity
  8
0
  6
HIDDEN
 62
     7
370
     0
100
AcDbLine
 10
113.1062194647
 20
131.0276822581
 30
0.0
 11
113.1062194647
 21
128.8391726941
 31
0.0
  0
LINE
  5
18E
330
1F
100
AcDbEntity
  8
0
  6
HIDDEN
 62
     7
370
     0
100
AcDbLine
 10
118.0562194647
 20
131.0276822581
 30
0.0
 11
118.0562194647
 21
129.3251958805
 31
0.0
  0
ARC
  5
18F
330
1F
100
AcDbEntity
  8
0
  6
HIDDEN
 62
     7
370
     0
100
AcDbCircle
 10
262.9129523649
 20
121.5892882077
 30
0.0
 40
2.078097112527439
100
AcDbArc
 50
122.5264993489
 51
287.5418000567
  0
LINE
  5
190
330
1F
100
AcDbEntity
  8
0
  6
HIDDEN
 62
     7
370
     0
100
AcDbLine
 10
278.936531029
 20
125.6747991153
 30
0.0
 11
277.9727785977
 21
123.7683545556
 31
0.0
  0
SPLINE
  5
191
330
1F
100
AcDbEntity
  8
0
  6
HIDDEN
 62
     7
370
     0
100
AcDbSpline
210
0.0
220
0.0
230
1.0
 70
    11
 71
     3
 72
    34
 73
    30
 74
     0
 42
0.00000001
 43
0.00000001
 40
0.0
 40
0.0
 40
0.0
 40
0.0
 40
0.0127738756313378
 40
0.0481305018861322
 40
0.0807425016923962
 40
0.137589091362688
 40
0.1884518731192233
 40
0.2226712138150647
 40
0.2626938372949147
 40
0.2986558359810537
 40
0.3315197765429491
 40
0.3878459718944503
 40
0.3881259547070394
 40
0.444092611332582
 40
0.4768435653244631
 40
0.5126448960710601
 40
0.5530084671478314
 40
0.5873855940016045
 40
0.6380121006395925
 40
0.6949796268749276
 40
0.7275539945508003
 40
0.7628079420081013
 40
0.8028703493977705
 40
0.8370831563378139
 40
0.8877749825785586
 40
0.8880089190148176
 40
0.9388397946263362
 40
0.9729712758707714
 40
1.0
 40
1.0
 40
1.0
 40
1.0
 10
132.0162313771854
 20
89.9700204015254
 30
0.0
 10
132.0754250297482
 20
89.97610930532895
 30
0.0
 10
132.298459940103
 20
89.99905159821311
 30
0.0
 10
132.8218123868802
 20
90.03569635002074
 30
0.0
 10
133.694575845346
 20
90.06338038005471
 30
0.0
 10
134.8094138147877
 20
90.05282478320626
 30
0.0
 10
135.9224789610939
 20
89.93667975940228
 30
0.0
 10
136.8169211180796
 20
89.8150888004182
 30
0.0
 10
137.5007534567776
 20
89.69333089102638
 30
0.0
 10
138.0415127439668
 20
89.57696967545156
 30
0.0
 10
138.4549072164425
 20
89.48349709352931
 30
0.0
 10
138.6830694372241
 20
89.41685899219524
 30
0.0
 10
138.5286923316636
 20
89.45807941800521
 30
0.0
 10
138.5018142573775
 20
89.47055579167372
 30
0.0
 10
138.0458903143734
 20
89.57613724985963
 30
0.0
 10
137.5219571324207
 20
89.68888573094527
 30
0.0
 10
136.8357502441761
 20
89.81198382588752
 30
0.0
 10
135.9426366798799
 20
89.93397521305765
 30
0.0
 10
134.8292003994398
 20
90.05172775375264
 30
0.0
 10
133.7184498731501
 20
90.06369834150507
 30
0.0
 10
132.8336973580074
 20
90.0366407921387
 30
0.0
 10
132.1665033817556
 20
89.98870871827106
 30
0.0
 10
131.6252235585675
 20
89.93241452528422
 30
0.0
 10
131.2376704764389
 20
89.88733440225685
 30
0.0
 10
131.0436433791351
 20
89.84845176318362
 30
0.0
 10
131.1698706778778
 20
89.86985856347998
 30
0.0
 10
131.1990297133964
 20
89.87977987238251
 30
0.0
 10
131.5706104516123
 20
89.92740970136931
 30
0.0
 10
131.8796545400311
 20
89.95696079340946
 30
0.0
 10
132.0162313771854
 20
89.9700204015254
 30
0.0
  0
SPLINE
  5
192
330
1F
100
AcDbEntity
  8
0
  6
HIDDEN
 62
     7
370
     0
100
AcDbSpline
210
0.0
220
0.0
230
1.0
 70
     8
 71
     3
 72
    38
 73
    34
 74
     0
 42
0.00000001
 43
0.00000001
 40
-0.0939221400677789
 40
-0.065775259775378
 40
-0.0344739496007944
 40
0.0
 40
0.0323124298479836
 40
0.0609695982577461
 40
0.0859698687835549
 40
0.1073131755946561
 40
0.125001929016961
 40
0.1562358721977445
 40
0.1978507372990771
 40
0.2498168793248351
 40
0.2782629480307221
 40
0.304988415983286
 40
0.3300042168913841
 40
0.3533239044418168
 40
0.3749644360933808
 40
0.4060267838322921
 40
0.4476555976010198
 40
0.4998320869201298
 40
0.5286685248934815
 40
0.5555536435543464
 40
0.5805015705746597
 40
0.6035302879119625
 40
0.62466296934292
 40
0.6685312637103242
 40
0.7183269153555463
 40
0.7652375706113131
 40
0.7915712044406463
 40
0.812293703571044
 40
0.8615656629637487
 40
0.9060778599322211
 40
0.934224740224622
 40
0.9655260503992056
 40
1.0
 40
1.032312429847984
 40
1.060969598257746
 40
1.085969868783555
 10
132.7964846288783
 20
136.0406862840919
 30
0.0
 10
132.1924164103689
 20
136.0852197893078
 30
0.0
 10
131.7171013475227
 20
136.1332951755408
 30
0.0
 10
131.3975025215228
 20
136.1694579148067
 30
0.0
 10
131.2105081158089
 20
136.1958480489951
 30
0.0
 10
131.1222024562565
 20
136.2119176587923
 30
0.0
 10
131.0927889603872
 20
136.2197413440423
 30
0.0
 10
131.164921030456
 20
136.2015738454586
 30
0.0
 10
131.4860330326505
 20
136.1569672654959
 30
0.0
 10
132.0580605228651
 20
136.0962287368252
 30
0.0
 10
132.7085928706214
 20
136.0468845738052
 30
0.0
 10
133.2584689993628
 20
136.0245221133258
 30
0.0
 10
133.813906865141
 20
136.0160399034214
 30
0.0
 10
134.3546824127774
 20
136.0224909895699
 30
0.0
 10
134.9526123075767
 20
136.0459693661717
 30
0.0
 10
135.6922781647437
 20
136.1128892370089
 30
0.0
 10
136.6243277980166
 20
136.228990670944
 30
0.0
 10
137.4136645316901
 20
136.3643055555353
 30
0.0
 10
137.9525942195276
 20
136.4794173796025
 30
0.0
 10
138.2666985594234
 20
136.5491914561535
 30
0.0
 10
138.4719789277893
 20
136.5997515416494
 30
0.0
 10
138.5830489138802
 20
136.6304296815561
 30
0.0
 10
138.6293204156842
 20
136.6451566988123
 30
0.0
 10
138.5033555473379
 20
136.607297105225
 30
0.0
 10
138.0331100184648
 20
136.4968113207989
 30
0.0
 10
137.3799120548762
 20
136.3571071024227
 30
0.0
 10
136.7758930993602
 20
136.2539804962774
 30
0.0
 10
136.1015550497219
 20
136.1545444705079
 30
0.0
 10
135.2162055667345
 20
136.0610741362324
 30
0.0
 10
134.2467266761222
 20
136.0140656301597
 30
0.0
 10
133.4583910988551
 20
136.0177498452602
 30
0.0
 10
132.7964846288783
 20
136.0406862840919
 30
0.0
 10
132.1924164103689
 20
136.0852197893078
 30
0.0
 10
131.7171013475227
 20
136.1332951755408
 30
0.0
  0
SPLINE
  5
193
330
1F
100
AcDbEntity
  8
0
  6
HIDDEN
 62
     7
370
     0
100
AcDbSpline
210
0.0
220
0.0
230
1.0
 70
     8
 71
     3
 72
    62
 73
    58
 74
     0
 42
0.00000001
 43
0.00000001
 40
-0.031250000000001
 40
-0.031250000000001
 40
0.0
 40
0.0
 40
0.0312499999999975
 40
0.0312499999999975
 40
0.0624999999999949
 40
0.0624999999999949
 40
0.1249999999999927
 40
0.1249999999999927
 40
0.1874999999999904
 40
0.1874999999999904
 40
0.2187499999999898
 40
0.2187499999999898
 40
0.2499999999999893
 40
0.2499999999999893
 40
0.2812499999999887
 40
0.2812499999999887
 40
0.3124999999999882
 40
0.3124999999999882
 40
0.3437499999999877
 40
0.3437499999999877
 40
0.3749999999999871
 40
0.3749999999999871
 40
0.4374999999999882
 40
0.4374999999999882
 40
0.4687499999999887
 40
0.4687499999999887
 40
0.4999999999999892
 40
0.4999999999999892
 40
0.5312499999999897
 40
0.5312499999999897
 40
0.5624999999999901
 40
0.5624999999999901
 40
0.5937499999999907
 40
0.5937499999999907
 40
0.6249999999999911
 40
0.6249999999999911
 40
0.6562499999999916
 40
0.6562499999999916
 40
0.687499999999992
 40
0.687499999999992
 40
0.7187499999999925
 40
0.7187499999999925
 40
0.7499999999999929
 40
0.7499999999999929
 40
0.7812499999999934
 40
0.7812499999999934
 40
0.8124999999999939
 40
0.8124999999999939
 40
0.8749999999999959
 40
0.8749999999999959
 40
0.9062499999999969
 40
0.9062499999999969
 40
0.937499999999998
 40
0.937499999999998
 40
0.968749999999999
 40
0.968749999999999
 40
1.0
 40
1.0
 40
1.031249999999998
 40
1.031249999999998
 10
241.7149570474101
 20
109.7280370929163
 30
0.0
 10
241.9974818819838
 20
109.7280370929163
 30
0.0
 10
242.135804913035
 20
109.7380251565471
 30
0.0
 10
242.4070328587272
 20
109.7772239174965
 30
0.0
 10
242.5412432248955
 20
109.8069825062808
 30
0.0
 10
242.9202227325999
 20
109.9232631838986
 30
0.0
 10
243.1490992930595
 20
110.0386392209929
 30
0.0
 10
243.5299921452108
 20
110.3371579597686
 30
0.0
 10
243.6855902180779
 20
110.5237328859184
 30
0.0
 10
243.8447362635998
 20
110.8462177437254
 30
0.0
 10
243.88650165455
 20
110.9633186743596
 30
0.0
 10
243.94182006836
 20
111.2055214992063
 30
0.0
 10
243.9559258958306
 20
111.330746538982
 30
0.0
 10
243.9565040538856
 20
111.5898716832347
 30
0.0
 10
243.9425130049425
 20
111.7235397050435
 30
0.0
 10
243.888014576066
 20
111.9856905823517
 30
0.0
 10
243.8471242371178
 20
112.116997418113
 30
0.0
 10
243.7405162374414
 20
112.3722926704812
 30
0.0
 10
243.6757686903628
 20
112.4946067625976
 30
0.0
 10
243.5242078147353
 20
112.728560829036
 30
0.0
 10
243.4369212175957
 20
112.8403109043402
 30
0.0
 10
243.1513072631492
 20
113.1457848692915
 30
0.0
 10
242.9219210680981
 20
113.3174106319908
 30
0.0
 10
242.5457023984449
 20
113.4950879484638
 30
0.0
 10
242.4132313433941
 20
113.5419954222115
 30
0.0
 10
242.1392763669422
 20
113.6056216161949
 30
0.0
 10
242.0012357036398
 20
113.6217523161017
 30
0.0
 10
241.7230181316588
 20
113.6226472458852
 30
0.0
 10
241.5812087728942
 20
113.6067855841593
 30
0.0
 10
241.308752205563
 20
113.5448728404916
 30
0.0
 10
241.176886474488
 20
113.4992056035722
 30
0.0
 10
240.9213700543674
 20
113.3798441947042
 30
0.0
 10
240.8013832947273
 20
113.3078557259325
 30
0.0
 10
240.5762372974069
 20
113.1424745056065
 30
0.0
 10
240.4701105330231
 20
113.0479524485076
 30
0.0
 10
240.2787838853311
 20
112.8442679349547
 30
0.0
 10
240.1928475387978
 20
112.7348396269704
 30
0.0
 10
240.0403505775792
 20
112.5010901185043
 30
0.0
 10
239.9742055143508
 20
112.37672444184
 30
0.0
 10
239.8679850791551
 20
112.124379820783
 30
0.0
 10
239.8269444673264
 20
111.9950714730097
 30
0.0
 10
239.7707578793777
 20
111.7301227457745
 30
0.0
 10
239.7565403078136
 20
111.5978113613875
 30
0.0
 10
239.7559094161279
 20
111.3396887091147
 30
0.0
 10
239.7696977979278
 20
111.2114034333246
 30
0.0
 10
239.8245413696716
 20
110.967657203593
 30
0.0
 10
239.8650425517264
 20
110.852643718703
 30
0.0
 10
240.0246317504097
 20
110.5262253003711
 30
0.0
 10
240.1793995840887
 20
110.3398845498438
 30
0.0
 10
240.4673792979692
 20
110.1136794018524
 30
0.0
 10
240.5713282205222
 20
110.0479728025347
 30
0.0
 10
240.7957394184133
 20
109.9337045927159
 30
0.0
 10
240.9176699724618
 20
109.8848345149773
 30
0.0
 10
241.1699124259206
 20
109.8073130101277
 30
0.0
 10
241.3007895996099
 20
109.7781009716532
 30
0.0
 10
241.5729959479899
 20
109.7383473431129
 30
0.0
 10
241.7149570474101
 20
109.7280370929163
 30
0.0
 10
241.9974818819838
 20
109.7280370929163
 30
0.0
  0
LINE
  5
194
330
1F
100
AcDbEntity
  8
0
  6
HIDDEN
 62
     7
370
     0
100
AcDbLine
 10
244.9562194647
 20
117.2376822581
 30
0.0
 11
244.9562194647
 21
108.8376822581
 31
0.0
  0
LINE
  5
195
330
1F
100
AcDbEntity
  8
0
  6
HIDDEN
 62
     7
370
     0
100
AcDbLine
 10
165.6562194647
 20
108.8376822581
 30
0.0
 11
165.6562194647
 21
117.2130616781
 31
0.0
  0
SPLINE
  5
196
330
1F
100
AcDbEntity
  8
0
  6
HIDDEN
 62
     7
370
     0
100
AcDbSpline
210
0.0
220
0.0
230
1.0
 70
     8
 71
     3
 72
    42
 73
    38
 74
     0
 42
0.00000001
 43
0.00000001
 40
0.0
 40
0.0
 40
0.0
 40
0.0
 40
0.1249999999999938
 40
0.1249999999999938
 40
0.1874999999999906
 40
0.1874999999999906
 40
0.2499999999999875
 40
0.2499999999999875
 40
0.3124999999999843
 40
0.3124999999999843
 40
0.3749999999999812
 40
0.3749999999999812
 40
0.4062499999999786
 40
0.4062499999999786
 40
0.437499999999976
 40
0.437499999999976
 40
0.468749999999976
 40
0.468749999999976
 40
0.499999999999976
 40
0.499999999999976
 40
0.5156249999999789
 40
0.5156249999999789
 40
0.5312499999999818
 40
0.5312499999999818
 40
0.562499999999983
 40
0.562499999999983
 40
0.6249999999999855
 40
0.6249999999999855
 40
0.6874999999999879
 40
0.6874999999999879
 40
0.7499999999999902
 40
0.7499999999999902
 40
0.8124999999999927
 40
0.8124999999999927
 40
0.8749999999999951
 40
0.8749999999999951
 40
1.0
 40
1.0
 40
1.0
 40
1.0
 10
266.2253492204225
 20
118.5553232838587
 30
0.0
 10
266.2837143297846
 20
118.6707780849098
 30
0.0
 10
266.4073390840841
 20
118.8003949590914
 30
0.0
 10
266.6535397695975
 20
118.9988491157491
 30
0.0
 10
266.7467049359761
 20
119.0658313554137
 30
0.0
 10
266.9516137878939
 20
119.1964026343418
 30
0.0
 10
267.0635467002948
 20
119.2602212775111
 30
0.0
 10
267.3083228787557
 20
119.3812861185109
 30
0.0
 10
267.4410512403263
 20
119.4386173259485
 30
0.0
 10
267.7340352745024
 20
119.5409319916483
 30
0.0
 10
267.8953200301536
 20
119.5865236702866
 30
0.0
 10
268.1664532315443
 20
119.6346790924085
 30
0.0
 10
268.2614165545025
 20
119.6472651817165
 30
0.0
 10
268.4644568458144
 20
119.6618969655996
 30
0.0
 10
268.5730120569102
 20
119.6639244312358
 30
0.0
 10
268.8030748647496
 20
119.6507747303738
 30
0.0
 10
268.9273606949827
 20
119.635289379658
 30
0.0
 10
269.1848243731284
 20
119.57776049045
 30
0.0
 10
269.3206681510211
 20
119.5343352798163
 30
0.0
 10
269.5127031237777
 20
119.4498669965179
 30
0.0
 10
269.5762209820529
 20
119.4179550803391
 30
0.0
 10
269.6957354367668
 20
119.3503341821355
 30
0.0
 10
269.7520016458109
 20
119.3146312365001
 30
0.0
 10
269.9120126188714
 20
119.2027966475351
 30
0.0
 10
270.0045257579856
 20
119.1235372830823
 30
0.0
 10
270.2424851348685
 20
118.8903036563538
 30
0.0
 10
270.3551868246786
 20
118.7381048431835
 30
0.0
 10
270.5416670497568
 20
118.4387930520893
 30
0.0
 10
270.6114575217682
 20
118.2953297667132
 30
0.0
 10
270.7242878663145
 20
118.0195820061793
 30
0.0
 10
270.7670471203844
 20
117.8869772615287
 30
0.0
 10
270.8336220965764
 20
117.6318964397517
 30
0.0
 10
270.8572922182633
 20
117.5092465617969
 30
0.0
 10
270.8888801717092
 20
117.2786962112613
 30
0.0
 10
270.8969151397837
 20
117.1703029939837
 30
0.0
 10
270.9005480026978
 20
116.8690965001584
 30
0.0
 10
270.8775183352326
 20
116.6982118128349
 30
0.0
 10
270.8194413392479
 20
116.58332694257
 30
0.0
  0
ELLIPSE
  5
197
330
1F
100
AcDbEntity
  8
0
  6
HIDDEN
 62
     7
370
     0
100
AcDbEllipse
 10
270.6302166172
 20
122.2998168244
 30
0.0
 11
3.440747461302635
 21
1.698686693198695
 31
0.0
210
0.0
220
0.0
230
1.0
 40
0.166019012
 41
6.065623233287165
 42
9.207215886877034
  0
SPLINE
  5
198
330
1F
100
AcDbEntity
  8
0
  6
HIDDEN
 62
     7
370
     0
100
AcDbSpline
210
0.0
220
0.0
230
1.0
 70
     8
 71
     3
 72
    20
 73
    16
 74
     0
 42
0.00000001
 43
0.00000001
 40
0.0
 40
0.0
 40
0.0
 40
0.0
 40
0.1250000000000004
 40
0.1250000000000004
 40
0.2500000000000008
 40
0.2500000000000008
 40
0.3750000000000012
 40
0.3750000000000012
 40
0.5000000000000016
 40
0.5000000000000016
 40
0.625000000000002
 40
0.625000000000002
 40
0.7500000000000023
 40
0.7500000000000023
 40
1.0
 40
1.0
 40
1.0
 40
1.0
 10
264.3821774692859
 20
115.3109133408182
 30
0.0
 10
264.1745136995367
 20
115.2516868846766
 30
0.0
 10
263.9734052608362
 20
115.1755352219033
 30
0.0
 10
263.5839162715244
 20
114.990458712038
 30
0.0
 10
263.3940716410322
 20
114.8804644910474
 30
0.0
 10
263.0350310079156
 20
114.6317510418012
 30
0.0
 10
262.8669461788521
 20
114.4942160822435
 30
0.0
 10
262.5525208248785
 20
114.1941544329237
 30
0.0
 10
262.4052133505846
 20
114.0302924828339
 30
0.0
 10
262.1378812877326
 20
113.6838255317807
 30
0.0
 10
262.0183090842302
 20
113.5022889660481
 30
0.0
 10
261.8060491151903
 20
113.1233316696172
 30
0.0
 10
261.7129833887645
 20
112.9248774768299
 30
0.0
 10
261.4778473918931
 20
112.3119210599721
 30
0.0
 10
261.3817943092394
 20
111.8899229894649
 30
0.0
 10
261.3464384329285
 20
111.4542798698221
 30
0.0
  0
ELLIPSE
  5
199
330
1F
100
AcDbEntity
  8
0
  6
HIDDEN
 62
     7
370
     0
100
AcDbEllipse
 10
405.357248179
 20
149.5321439411
 30
0.0
 11
144.1023305069141
 21
41.53823979281904
 31
3.552713678800501E-15
210
-2.276272451903730E-17
220
-6.561472712367316E-18
230
1.0
 40
0.1600323404
 41
2.614033196992967
 42
2.881824296360621
  0
SPLINE
  5
19A
330
1F
100
AcDbEntity
  8
0
  6
HIDDEN
 62
     7
370
     0
100
AcDbSpline
210
0.0
220
0.0
230
1.0
 70
     8
 71
     3
 72
    42
 73
    38
 74
     0
 42
0.00000001
 43
0.00000001
 40
0.0
 40
0.0
 40
0.0
 40
0.0
 40
0.0252895669390763
 40
0.0507314274462614
 40
0.076329898765295
 40
0.1020892193957967
 40
0.1280135489426615
 40
0.1541069680970451
 40
0.1803734787417123
 40
0.2068170041734844
 40
0.2334413894354067
 40
0.2602504017513343
 40
0.2872477310556795
 40
0.3144369906111679
 40
0.341821717707602
 40
0.3694053744347966
 40
0.3971913485230629
 40
0.4251829542447846
 40
0.4533834333710187
 40
0.4817959561770581
 40
0.5104236224914682
 40
0.5392694627830888
 40
0.568336439280986
 40
0.5976274471225045
 40
0.6271453155249065
 40
0.6568928089763185
 40
0.6868726284420242
 40
0.7170874125823833
 40
0.7475397389789288
 40
0.7782321253654414
 40
0.8091670308610666
 40
0.840346857202753
 40
0.8717739499745129
 40
0.903450599831262
 40
0.9353790437151581
 40
0.9675614660625734
 40
1.0
 40
1.0
 40
1.0
 40
1.0
 10
281.9075232157348
 20
137.4252166083582
 30
0.0
 10
281.8828290525404
 20
137.3646911023885
 30
0.0
 10
281.8332920180999
 20
137.2432756063405
 30
0.0
 10
281.7550336114002
 20
137.0496528779101
 30
0.0
 10
281.6736646110289
 20
136.8469199028154
 30
0.0
 10
281.588947751079
 20
136.6342491793486
 30
0.0
 10
281.5009959982873
 20
136.4118328369638
 30
0.0
 10
281.4098267199842
 20
136.1795922049591
 30
0.0
 10
281.3154822144564
 20
135.9375269558969
 30
0.0
 10
281.2179970542127
 20
135.6856207856479
 30
0.0
 10
281.1174068694008
 20
135.4238670601392
 30
0.0
 10
281.0137459181855
 20
135.1522620018686
 30
0.0
 10
280.907047691025
 20
134.8708066597701
 30
0.0
 10
280.7973446933059
 20
134.5795065007624
 30
0.0
 10
280.6846684499357
 20
134.278371643933
 30
0.0
 10
280.569049449415
 20
133.9674169194197
 30
0.0
 10
280.4505171039046
 20
133.646661973293
 30
0.0
 10
280.3290997046059
 20
133.3161313583642
 30
0.0
 10
280.2048243780913
 20
132.9758546270342
 30
0.0
 10
280.0777170420994
 20
132.6258664216588
 30
0.0
 10
279.9478023612382
 20
132.2662065634969
 30
0.0
 10
279.8151037025187
 20
131.896920139793
 30
0.0
 10
279.6796430907793
 20
131.5180575889244
 30
0.0
 10
279.5414411640612
 20
131.1296747835653
 30
0.0
 10
279.400517128846
 20
130.7318331113201
 30
0.0
 10
279.2568887156773
 20
130.3245995542678
 30
0.0
 10
279.1105721333932
 20
129.908046761313
 30
0.0
 10
278.9615820288503
 20
129.4822531357248
 30
0.0
 10
278.8099314263625
 20
129.0473028526808
 30
0.0
 10
278.6556317443977
 20
128.6032861277927
 30
0.0
 10
278.4986925213925
 20
128.1502985238331
 30
0.0
 10
278.3391222411415
 20
127.6884438748838
 30
0.0
 10
278.1769250069686
 20
127.2178235339118
 30
0.0
 10
278.0121128947716
 20
126.7385772546469
 30
0.0
 10
277.8446590946802
 20
126.2507290534227
 30
0.0
 10
277.6746746763708
 20
125.7547695790397
 30
0.0
 10
277.5598430027533
 20
125.4192315021582
 30
0.0
 10
277.5021996103325
 20
125.2507975463646
 30
0.0
  0
LINE
  5
19B
330
1F
100
AcDbEntity
  8
0
  6
HIDDEN
 62
     7
370
     0
100
AcDbLine
 10
281.9056534083
 20
137.4247603918
 30
0.0
 11
268.1883145246
 21
133.4706667289
 31
0.0
  0
ELLIPSE
  5
19C
330
1F
100
AcDbEntity
  8
0
  6
HIDDEN
 62
     7
370
     0
100
AcDbEllipse
 10
260.0075690789
 20
107.6343494847
 30
0.0
 11
9.078460931648465
 21
27.58917118271962
 31
0.0
210
0.0
220
0.0
230
1.0
 40
0.0291674204
 41
0.0198896764726454
 42
0.3681016063451465
  0
LINE
  5
19D
330
1F
100
AcDbEntity
  8
0
  6
HIDDEN
 62
     7
370
     0
100
AcDbLine
 10
270.8194413392
 20
116.5833269426
 30
0.0
 11
270.3812752977
 21
115.7165698387
 31
0.0
  0
LINE
  5
19E
330
1F
100
AcDbEntity
  8
0
  6
HIDDEN
 62
     7
370
     0
100
AcDbLine
 10
265.7871831789
 20
117.68856618
 30
0.0
 11
266.2253492204
 21
118.5553232839
 31
0.0
  0
ELLIPSE
  5
19F
330
1F
100
AcDbEntity
  8
0
  6
HIDDEN
 62
     7
370
     0
100
AcDbEllipse
 10
267.037732166
 20
114.1514625373
 30
0.0
 11
3.804300531739842
 21
-1.781192347301783
 31
0.0
210
0.0
220
0.0
230
1.0
 40
0.8165867755
 41
0.9729390179492464
 42
2.248062859187645
  0
ELLIPSE
  5
1A0
330
1F
100
AcDbEntity
  8
0
  6
HIDDEN
 62
     7
370
     0
100
AcDbEllipse
 10
265.5519920316
 20
111.2124492551
 30
0.0
 11
1.947843959788316
 21
3.853122855659252
 31
0.0
210
0.0
220
0.0
230
1.0
 40
0.9727892058
 41
5.608482366183714
 42
7.043040948881884
  0
LWPOLYLINE
  5
1A1
330
1F
100
AcDbEntity
  8
0
  6
HIDDEN
 62
     7
370
     0
100
AcDbPolyline
 90
       30
 70
   128
 43
0.0
 10
267.905530197
 20
111.7598752072
 10
268.8034599975
 20
111.8363011855
 10
269.6594035986
 20
112.1012493676
 10
270.4333380286
 20
112.5423310711
 10
271.0890749739
 20
113.1389218057
 10
271.5959529037
 20
113.8631256516
 10
271.9302707694
 20
114.681079642
 10
272.076396239
 20
115.5545371574
 10
272.0274966481
 20
116.4426562951
 10
271.7858584872
 20
117.3039095912
 10
271.3627804882
 20
118.098025799
 10
270.7780453079
 20
118.7878729272
 10
270.0589945137
 20
119.3411944906
 10
269.2392501214
 20
119.732117788
 10
268.3571424678
 20
119.9423636805
 10
267.4539179263
 20
119.9621013038
 10
266.5718102727
 20
119.7904077486
 10
265.7520658804
 20
119.4353112147
 10
265.0330150861
 20
118.9134156214
 10
264.4482799059
 20
118.2491242265
 10
264.0252019068
 20
117.4734985574
 10
263.7835637459
 20
116.6228060084
 10
263.734664155
 20
115.7368240174
 10
263.8807896247
 20
114.8569801179
 10
264.2151074903
 20
114.0244148325
 10
264.7219854201
 20
113.2780579887
 10
265.3777223654
 20
112.6528084031
 10
266.1516567955
 20
112.1779020513
 10
267.0076003965
 20
111.8755450265
 10
267.905530197
 20
111.7598752072
  0
LINE
  5
1A2
330
1F
100
AcDbEntity
  8
0
  6
HIDDEN
 62
     7
370
     0
100
AcDbLine
 10
270.3812752977
 20
115.7165698387
 30
0.0
 11
272.0923177963
 21
119.8876755177
 31
0.0
  0
LINE
  5
1A3
330
1F
100
AcDbEntity
  8
0
  6
HIDDEN
 62
     7
370
     0
100
AcDbLine
 10
274.9384021182
 20
126.1888396663
 30
0.0
 11
274.6145532746
 21
125.5482188532
 31
0.0
  0
LINE
  5
1A4
330
1F
100
AcDbEntity
  8
0
  6
HIDDEN
 62
     7
370
     0
100
AcDbLine
 10
273.342186234
 20
122.4335624304
 30
0.0
 11
274.9384021182
 21
126.1888396663
 31
0.0
  0
LINE
  5
1A5
330
1F
100
AcDbEntity
  8
0
  6
HIDDEN
 62
     7
370
     0
100
AcDbLine
 10
274.0507266115
 20
123.8351598782
 30
0.0
 11
273.342186234
 21
122.4335624304
 31
0.0
  0
LWPOLYLINE
  5
1A6
330
1F
100
AcDbEntity
  8
0
  6
HIDDEN
 62
     7
370
     0
100
AcDbPolyline
 90
        2
 70
   128
 43
0.0
 10
148.8062194647
 20
86.6376822581
 10
148.8062194647
 20
86.6376822581
  0
LINE
  5
1A7
330
1F
100
AcDbEntity
  8
0
  6
HIDDEN
 62
     7
370
     0
100
AcDbLine
 10
148.8062194647
 20
81.5535592752
 30
0.0
 11
148.8062194647
 21
86.6376822581
 31
0.0
  0
LINE
  5
1A8
330
1F
100
AcDbEntity
  8
0
  6
HIDDEN
 62
     7
370
     0
100
AcDbLine
 10
148.8062194647
 20
86.6376822581
 30
0.0
 11
156.8062194647
 21
86.6376822581
 31
0.0
  0
LWPOLYLINE
  5
1A9
330
1F
100
AcDbEntity
  8
0
  6
HIDDEN
 62
     7
370
     0
100
AcDbPolyline
 90
       21
 70
   128
 43
0.0
 10
241.8562194647
 20
105.9361383955
 10
242.5051551529
 20
106.031435572
 10
243.0905684945
 20
106.3079987501
 10
243.5551551529
 20
106.7387559987
 10
243.8534381489
 20
107.2815417973
 10
243.9562194647
 20
107.8832244901
 10
243.8534381489
 20
108.4849071828
 10
243.5551551529
 20
109.0276929814
 10
243.0905684945
 20
109.4584502301
 10
242.5051551529
 20
109.7350134081
 10
241.8562194647
 20
109.8303105847
 10
241.2072837765
 20
109.7350134081
 10
240.6218704349
 20
109.4584502301
 10
240.1572837765
 20
109.0276929814
 10
239.8590007805
 20
108.4849071828
 10
239.7562194647
 20
107.8832244901
 10
239.8590007805
 20
107.2815417973
 10
240.1572837765
 20
106.7387559987
 10
240.6218704349
 20
106.3079987501
 10
241.2072837765
 20
106.031435572
 10
241.8562194647
 20
105.9361383955
  0
ARC
  5
1AA
330
1F
100
AcDbEntity
  8
0
  6
HIDDEN
 62
     7
370
     0
100
AcDbCircle
 10
273.4106350663
 20
128.9670007084
 30
0.0
 40
3.170528495505196
100
AcDbArc
 50
298.807286083
 51
194.7302292779
  0
LINE
  5
1AB
330
1F
100
AcDbEntity
  8
0
  6
HIDDEN
 62
     7
370
     0
100
AcDbLine
 10
270.3443099994
 20
128.1608360075
 30
0.0
 11
267.1513418383
 21
120.6490196119
 31
0.0
  0
LINE
  5
1AC
330
1F
100
AcDbEntity
  8
0
  6
HIDDEN
 62
     7
370
     0
100
AcDbLine
 10
282.2634811031
 20
137.0586726473
 30
0.0
 11
281.9067787584
 21
137.428091167
 31
0.0
  0
LINE
  5
1AD
330
1F
100
AcDbEntity
  8
0
  6
HIDDEN
 62
     7
370
     0
100
AcDbLine
 10
268.1883145246
 20
133.4706667289
 30
0.0
 11
265.2640137763
 21
124.4125758084
 31
0.0
  0
LINE
  5
1AE
330
1F
100
AcDbEntity
  8
0
  6
HIDDEN
 62
     7
370
     0
100
AcDbLine
 10
263.5392939565
 20
119.6078281854
 30
0.0
 11
267.1513418383
 21
120.6490196119
 31
0.0
  0
LINE
  5
1AF
330
1F
100
AcDbEntity
  8
0
  6
HIDDEN
 62
     7
370
     0
100
AcDbLine
 10
273.342186234
 20
122.4335624304
 30
0.0
 11
277.9727785977
 21
123.7683545556
 31
0.0
  0
LINE
  5
1B0
330
1F
100
AcDbEntity
  8
0
  6
HIDDEN
 62
     7
370
     0
100
AcDbLine
 10
277.9727785977
 20
123.7683545556
 30
0.0
 11
282.2633727425
 21
137.0585716745
 31
0.0
  0
LINE
  5
1B1
330
1F
100
AcDbEntity
  8
0
  6
HIDDEN
 62
     7
370
     0
100
AcDbLine
 10
267.1513418383
 20
120.6490196119
 30
0.0
 11
267.2097066229
 21
120.7644737706
 31
0.0
  0
LINE
  5
1B2
330
1F
100
AcDbEntity
  8
0
  6
HIDDEN
 62
     7
370
     0
100
AcDbLine
 10
118.0562194647
 20
131.0276822581
 30
0.0
 11
118.0562194647
 21
129.3251958805
 31
0.0
  0
LINE
  5
1B3
330
1F
100
AcDbEntity
  8
0
  6
HIDDEN
 62
     7
370
     0
100
AcDbLine
 10
122.0562194647
 20
95.0476822581
 30
0.0
 11
122.0562194647
 21
96.7501686357
 31
0.0
  0
LINE
  5
1B4
330
1F
100
AcDbEntity
  8
0
  6
HIDDEN
 62
     7
370
     0
100
AcDbLine
 10
118.0562194647
 20
131.0276822581
 30
0.0
 11
118.0562194647
 21
134.8817899304
 31
0.0
  0
LINE
  5
1B5
330
1F
100
AcDbEntity
  8
0
  6
HIDDEN
 62
     7
370
     0
100
AcDbLine
 10
122.0562194647
 20
95.0476822581
 30
0.0
 11
122.0562194647
 21
91.0925339988
 31
0.0
  0
SPLINE
  5
1B6
330
1F
100
AcDbEntity
  8
0
  6
HIDDEN
 62
     7
370
     0
100
AcDbSpline
210
0.0
220
0.0
230
1.0
 70
     8
 71
     3
 72
    10
 73
     6
 74
     0
 42
0.00000001
 43
0.00000001
 40
0.0
 40
0.0
 40
0.0
 40
0.0
 40
0.5
 40
0.5
 40
1.0
 40
1.0
 40
1.0
 40
1.0
 10
274.6145532746099
 20
125.5482188532379
 30
0.0
 10
274.569900766735
 20
125.4598896019184
 30
0.0
 10
274.4813931493546
 20
125.3491359260497
 30
0.0
 10
274.2630777892267
 20
125.1151388461879
 30
0.0
 10
274.1315027672976
 20
124.9909897987792
 30
0.0
 10
273.9813462611422
 20
124.8671986141674
 30
0.0
  0
ARC
  5
1B7
330
1F
100
AcDbEntity
  8
0
  6
HIDDEN
 62
     7
370
     0
100
AcDbCircle
 10
272.8300389312
 20
127.8175037267
 30
0.0
 40
3.166987342063893
100
AcDbArc
 50
291.317385588
 51
202.2201297729
  0
SPLINE
  5
1B8
330
1F
100
AcDbEntity
  8
0
  6
HIDDEN
 62
     7
370
     0
100
AcDbSpline
210
0.0
220
0.0
230
1.0
 70
     8
 71
     3
 72
    10
 73
     6
 74
     0
 42
0.00000001
 43
0.00000001
 40
0.0
 40
0.0
 40
0.0
 40
0.0
 40
0.5
 40
0.5
 40
1.0
 40
1.0
 40
1.0
 40
1.0
 10
269.8982390980992
 20
126.6198566319761
 30
0.0
 10
269.8949310669806
 20
126.8095471528008
 30
0.0
 10
269.9048142510324
 20
126.985943347074
 30
0.0
 10
269.9455264320318
 20
127.2961687146971
 30
0.0
 10
269.9757561947944
 20
127.4317821832044
 30
0.0
 10
270.0204611557843
 20
127.5202151945275
 30
0.0
  0
LINE
  5
1B9
330
1F
100
AcDbEntity
  8
0
  6
HIDDEN
 62
     7
370
     0
100
AcDbLine
 10
270.0204611558
 20
127.5202151945
 30
0.0
 11
270.3443099994
 21
128.1608360075
 31
0.0
  0
LINE
  5
1BA
330
1F
100
AcDbEntity
  8
0
  6
HIDDEN
 62
     7
370
     0
100
AcDbLine
 10
113.1062194647
 20
131.0276822581
 30
0.0
 11
113.1062194647
 21
128.8391726941
 31
0.0
  0
ELLIPSE
  5
1BB
330
1F
100
AcDbEntity
  8
0
  6
HIDDEN
 62
     7
370
     0
100
AcDbEllipse
 10
107.7887876004
 20
113.0376822581
 30
0.0
 11
20.07002071827051
 21
0.0
 31
0.0
210
0.0
220
0.0
230
1.0
 40
0.8164965809
 41
1.302650465081196
 42
1.361629843993899
  0
ELLIPSE
  5
1BC
330
1F
100
AcDbEntity
  8
0
  6
HIDDEN
 62
     7
370
     0
100
AcDbEllipse
 10
107.7887876004
 20
113.0376822581
 30
0.0
 11
20.07002071827054
 21
-2.842170943040401E-14
 31
0.0
210
0.0
220
0.0
230
1.0
 40
0.8164965809
 41
4.921555463185703
 42
4.980534842098405
  0
LINE
  5
1BD
330
1F
100
AcDbEntity
  8
0
  6
HIDDEN
 62
     7
370
     0
100
AcDbLine
 10
111.9562194647
 20
129.0676176559
 30
0.0
 11
111.9562194647
 21
97.0077468602
 31
0.0
  0
LINE
  5
1BE
330
1F
100
AcDbEntity
  8
0
  6
HIDDEN
 62
     7
370
     0
100
AcDbLine
 10
111.9562194647
 20
131.0276822581
 30
0.0
 11
111.9562194647
 21
129.0676176559
 31
0.0
  0
LINE
  5
1BF
330
1F
100
AcDbEntity
  8
0
  6
HIDDEN
 62
     7
370
     0
100
AcDbLine
 10
113.1062194647
 20
131.0276822581
 30
0.0
 11
113.1062194647
 21
133.9076200235
 31
0.0
  0
LINE
  5
1C0
330
1F
100
AcDbEntity
  8
0
  6
HIDDEN
 62
     7
370
     0
100
AcDbLine
 10
113.1062194647
 20
95.0476822581
 30
0.0
 11
113.1062194647
 21
97.236191822
 31
0.0
  0
LINE
  5
1C1
330
1F
100
AcDbEntity
  8
0
  6
HIDDEN
 62
     7
370
     0
100
AcDbLine
 10
111.9562194647
 20
95.0476822581
 30
0.0
 11
111.9562194647
 21
97.0077468602
 31
0.0
  0
LINE
  5
1C2
330
1F
100
AcDbEntity
  8
0
  6
HIDDEN
 62
     7
370
     0
100
AcDbLine
 10
113.1062194647
 20
95.0476822581
 30
0.0
 11
113.1062194647
 21
92.2310506995
 31
0.0
  0
SPLINE
  5
1C3
330
1F
100
AcDbEntity
  8
0
  6
HIDDEN
 62
     7
370
     0
100
AcDbSpline
210
0.0
220
0.0
230
1.0
 70
     8
 71
     3
 72
    10
 73
     6
 74
     0
 42
0.00000001
 43
0.00000001
 40
0.0
 40
0.0
 40
0.0
 40
0.0
 40
0.5
 40
0.5
 40
1.0
 40
1.0
 40
1.0
 40
1.0
 10
113.0961745342786
 20
133.8976361503522
 30
0.0
 10
113.0286152793604
 20
133.8299447575424
 30
0.0
 10
112.9649786240239
 20
133.7552375927887
 30
0.0
 10
112.854757869452
 20
133.5962714603621
 30
0.0
 10
112.8079415762294
 20
133.5119161943541
 30
0.0
 10
112.7803731108013
 20
133.4278015916623
 30
0.0
  0
LINE
  5
1C4
330
1F
100
AcDbEntity
  8
0
  6
HIDDEN
 62
     7
370
     0
100
AcDbLine
 10
111.9562194647
 20
131.0276822581
 30
0.0
 11
111.9562194647
 21
132.7283600045
 31
0.0
  0
SPLINE
  5
1C5
330
1F
100
AcDbEntity
  8
0
  6
HIDDEN
 62
     7
370
     0
100
AcDbSpline
210
0.0
220
0.0
230
1.0
 70
     8
 71
     3
 72
    10
 73
     6
 74
     0
 42
0.00000001
 43
0.00000001
 40
0.0
 40
0.0
 40
0.0
 40
0.0
 40
0.5
 40
0.5
 40
1.0
 40
1.0
 40
1.0
 40
1.0
 10
112.0188828394203
 20
132.7122348028453
 30
0.0
 10
112.0099785503115
 20
132.7579763220585
 30
0.0
 10
111.9934631701185
 20
132.7751671615275
 30
0.0
 10
111.9663552240569
 20
132.7748438845917
 30
0.0
 10
111.9562194646968
 20
132.7569663422953
 30
0.0
 10
111.9562194646968
 20
132.7283600045427
 30
0.0
  0
SPLINE
  5
1C6
330
1F
100
AcDbEntity
  8
0
  6
HIDDEN
 62
     7
370
     0
100
AcDbSpline
210
0.0
220
0.0
230
1.0
 70
     8
 71
     3
 72
     8
 73
     4
 74
     0
 42
0.00000001
 43
0.00000001
 40
0.0
 40
0.0
 40
0.0
 40
0.0
 40
1.0
 40
1.0
 40
1.0
 40
1.0
 10
112.895129034896
 20
92.5937599550989
 30
0.0
 10
112.9308426932659
 20
92.47052844983911
 30
0.0
 10
113.0065107322142
 20
92.34958487289211
 30
0.0
 10
113.0961745342873
 20
92.24286582918884
 30
0.0
  0
SPLINE
  5
1C7
330
1F
100
AcDbEntity
  8
0
  6
HIDDEN
 62
     7
370
     0
100
AcDbSpline
210
0.0
220
0.0
230
1.0
 70
     8
 71
     3
 72
    10
 73
     6
 74
     0
 42
0.00000001
 43
0.00000001
 40
0.0
 40
0.0
 40
0.0
 40
0.0
 40
0.5
 40
0.5
 40
1.0
 40
1.0
 40
1.0
 40
1.0
 10
111.9562194646964
 20
93.38452173311161
 30
0.0
 10
111.9562194646964
 20
93.37100520724385
 30
0.0
 10
111.9615390253246
 20
93.36683443488656
 30
0.0
 10
111.9746672576062
 20
93.38496547827413
 30
0.0
 10
111.9823599122603
 20
93.40787390333608
 30
0.0
 10
111.9864970803055
 20
93.44759469783766
 30
0.0
  0
LINE
  5
1C8
330
1F
100
AcDbEntity
  8
0
  6
HIDDEN
 62
     7
370
     0
100
AcDbLine
 10
111.9562194647
 20
95.0476822581
 30
0.0
 11
111.9562194647
 21
93.3845217331
 31
0.0
  0
SPLINE
  5
1C9
330
1F
100
AcDbEntity
  8
0
  6
HIDDEN
 62
     7
370
     0
100
AcDbSpline
210
0.0
220
0.0
230
1.0
 70
     8
 71
     3
 72
    10
 73
     6
 74
     0
 42
0.00000001
 43
0.00000001
 40
0.0
 40
0.0
 40
0.0
 40
0.0
 40
0.5
 40
0.5
 40
1.0
 40
1.0
 40
1.0
 40
1.0
 10
159.9462194646969
 20
140.1573361091003
 30
0.0
 10
159.9462194646969
 20
140.0137237575423
 30
0.0
 10
159.9823867397947
 20
139.8707503438237
 30
0.0
 10
160.1181426835486
 20
139.6207577171099
 30
0.0
 10
160.2184123741715
 20
139.5127554078312
 30
0.0
 10
160.3405169963879
 20
139.4376822580645
 30
0.0
  0
LINE
  5
1CA
330
1F
100
AcDbEntity
  8
0
  6
HIDDEN
 62
     7
370
     0
100
AcDbLine
 10
159.9462194647
 20
140.1573361091
 30
0.0
 11
159.9462194647
 21
86.2332866297
 31
0.0
  0
SPLINE
  5
1CB
330
1F
100
AcDbEntity
  8
0
  6
HIDDEN
 62
     7
370
     0
100
AcDbSpline
210
0.0
220
0.0
230
1.0
 70
     8
 71
     3
 72
    10
 73
     6
 74
     0
 42
0.00000001
 43
0.00000001
 40
0.0
 40
0.0
 40
0.0
 40
0.0
 40
0.5
 40
0.5
 40
1.0
 40
1.0
 40
1.0
 40
1.0
 10
159.9462194646969
 20
86.23328662973518
 30
0.0
 10
159.9462194646969
 20
86.30352299010569
 30
0.0
 10
159.9545020767873
 20
86.37351709160293
 30
0.0
 10
159.9876020198457
 20
86.51047635616139
 30
0.0
 10
160.011939411804
 20
86.57578426541647
 30
0.0
 10
160.0438942670284
 20
86.63768225806321
 30
0.0
  0
SPLINE
  5
1CC
330
1F
100
AcDbEntity
  8
0
  6
HIDDEN
 62
     7
370
     0
100
AcDbSpline
210
0.0
220
0.0
230
1.0
 70
    24
 71
     3
 72
    12
 73
     8
 74
     0
 42
0.00000001
 43
0.00000001
 40
0.0
 40
0.0
 40
0.0
 40
0.0
 40
0.5
 40
0.5
 40
0.75
 40
0.75
 40
1.0
 40
1.0
 40
1.0
 40
1.0
 10
160.3405169963879
 20
139.4376822580645
 30
0.0
 10
160.3836403448214
 20
139.4376822580645
 30
0.0
 10
160.4333799321217
 20
139.4376822580645
 30
0.0
 10
160.5299009089436
 20
139.4376822580645
 30
0.0
 10
160.5654660397953
 20
139.4376822580645
 30
0.0
 10
160.6488143704182
 20
139.4376822580645
 30
0.0
 10
160.6972842701085
 20
139.4376822580645
 30
0.0
 10
160.7462194646981
 20
139.4376822580645
 30
0.0
  0
SPLINE
  5
1CD
330
1F
100
AcDbEntity
  8
0
  6
HIDDEN
 62
     7
370
     0
100
AcDbSpline
210
0.0
220
0.0
230
1.0
 70
    24
 71
     3
 72
    14
 73
    10
 74
     0
 42
0.00000001
 43
0.00000001
 40
0.0
 40
0.0
 40
0.0
 40
0.0
 40
0.5000000000000002
 40
0.5000000000000002
 40
0.7500000000000019
 40
0.7500000000000019
 40
0.875000000000001
 40
0.875000000000001
 40
1.0
 40
1.0
 40
1.0
 40
1.0
 10
160.0438942670291
 20
86.6376822580645
 30
0.0
 10
160.0911007548689
 20
86.63768225806449
 30
0.0
 10
160.1544407582982
 20
86.6376822580645
 30
0.0
 10
160.297503864554
 20
86.6376822580645
 30
0.0
 10
160.3535845148251
 20
86.6376822580645
 30
0.0
 10
160.4650198647344
 20
86.6376822580645
 30
0.0
 10
160.5069646554074
 20
86.6376822580645
 30
0.0
 10
160.6119610984276
 20
86.6376822580645
 30
0.0
 10
160.6775250355082
 20
86.63768225806449
 30
0.0
 10
160.7462194646967
 20
86.6376822580645
 30
0.0
  0
LINE
  5
1CE
330
1F
100
AcDbEntity
  8
0
  6
HIDDEN
 62
     7
370
     0
100
AcDbLine
 10
163.7662194647
 20
140.1573361091
 30
0.0
 11
163.7662194647
 21
86.2332866297
 31
0.0
  0
SPLINE
  5
1CF
330
1F
100
AcDbEntity
  8
0
  6
HIDDEN
 62
     7
370
     0
100
AcDbSpline
210
0.0
220
0.0
230
1.0
 70
     8
 71
     3
 72
    10
 73
     6
 74
     0
 42
0.00000001
 43
0.00000001
 40
0.0
 40
0.0
 40
0.0
 40
0.0
 40
0.5
 40
0.5
 40
1.0
 40
1.0
 40
1.0
 40
1.0
 10
163.3719219330059
 20
139.4376822580645
 30
0.0
 10
163.4932344561037
 20
139.5122684043527
 30
0.0
 10
163.5946628183288
 20
139.6210927155041
 30
0.0
 10
163.730606384589
 20
139.8721132341258
 30
0.0
 10
163.7662194646969
 20
140.014695927265
 30
0.0
 10
163.7662194646969
 20
140.1573361091003
 30
0.0
  0
SPLINE
  5
1D0
330
1F
100
AcDbEntity
  8
0
  6
HIDDEN
 62
     7
370
     0
100
AcDbSpline
210
0.0
220
0.0
230
1.0
 70
     8
 71
     3
 72
    10
 73
     6
 74
     0
 42
0.00000001
 43
0.00000001
 40
0.0
 40
0.0
 40
0.0
 40
0.0
 40
0.5
 40
0.5
 40
1.0
 40
1.0
 40
1.0
 40
1.0
 10
163.6685446623646
 20
86.63768225806449
 30
0.0
 10
163.7006998499866
 20
86.57539621254836
 30
0.0
 10
163.7253560811808
 20
86.50886578767913
 30
0.0
 10
163.7581688381063
 20
86.37200715731663
 30
0.0
 10
163.7662194646969
 20
86.30294956213827
 30
0.0
 10
163.7662194646969
 20
86.23328662973493
 30
0.0
  0
SPLINE
  5
1D1
330
1F
100
AcDbEntity
  8
0
  6
HIDDEN
 62
     7
370
     0
100
AcDbSpline
210
0.0
220
0.0
230
1.0
 70
    24
 71
     3
 72
    12
 73
     8
 74
     0
 42
0.00000001
 43
0.00000001
 40
0.0
 40
0.0
 40
0.0
 40
0.0
 40
0.2500000000000008
 40
0.2500000000000008
 40
0.5000000000000017
 40
0.5000000000000017
 40
1.0
 40
1.0
 40
1.0
 40
1.0
 10
162.9662194646968
 20
139.4376822580645
 30
0.0
 10
163.0157545709149
 20
139.4376822580645
 30
0.0
 10
163.0641594595164
 20
139.4376822580645
 30
0.0
 10
163.147046008694
 20
139.4376822580645
 30
0.0
 10
163.1835607301623
 20
139.4376822580645
 30
0.0
 10
163.279893568517
 20
139.4376822580645
 30
0.0
 10
163.3286461161796
 20
139.4376822580645
 30
0.0
 10
163.3719219330103
 20
139.4376822580645
 30
0.0
  0
SPLINE
  5
1D2
330
1F
100
AcDbEntity
  8
0
  6
HIDDEN
 62
     7
370
     0
100
AcDbSpline
210
0.0
220
0.0
230
1.0
 70
    24
 71
     3
 72
    14
 73
    10
 74
     0
 42
0.00000001
 43
0.00000001
 40
0.0
 40
0.0
 40
0.0
 40
0.0
 40
0.125
 40
0.125
 40
0.25
 40
0.25
 40
0.5
 40
0.5
 40
1.0
 40
1.0
 40
1.0
 40
1.0
 10
162.9662194646968
 20
86.6376822580645
 30
0.0
 10
163.0353160970409
 20
86.6376822580645
 30
0.0
 10
163.1003092626488
 20
86.63768225806449
 30
0.0
 10
163.2046304612939
 20
86.63768225806449
 30
0.0
 10
163.2474108354024
 20
86.6376822580645
 30
0.0
 10
163.3597484950486
 20
86.63768225806449
 30
0.0
 10
163.414795677191
 20
86.63768225806449
 30
0.0
 10
163.5586724509611
 20
86.63768225806449
 30
0.0
 10
163.6217017642361
 20
86.63768225806449
 30
0.0
 10
163.6685446623646
 20
86.6376822580645
 30
0.0
  0
LINE
  5
1D3
330
1F
100
AcDbEntity
  8
0
  6
HIDDEN
 62
     7
370
     0
100
AcDbLine
 10
160.7462194647
 20
139.4376822581
 30
0.0
 11
162.9662194647
 21
139.4376822581
 31
0.0
  0
LINE
  5
1D4
330
1F
100
AcDbEntity
  8
0
  6
HIDDEN
 62
     7
370
     0
100
AcDbLine
 10
160.7462194647
 20
86.6376822581
 30
0.0
 11
162.9662194647
 21
86.6376822581
 31
0.0
  0
SPLINE
  5
1D5
330
1F
100
AcDbEntity
  8
0
  6
HIDDEN
 62
     7
370
     0
100
AcDbSpline
210
0.0
220
0.0
230
1.0
 70
     8
 71
     3
 72
    12
 73
     8
 74
     0
 42
0.00000001
 43
0.00000001
 40
0.0
 40
0.0
 40
0.0
 40
0.0
 40
0.250000000000002
 40
0.250000000000002
 40
0.500000000000004
 40
0.500000000000004
 40
1.0
 40
1.0
 40
1.0
 40
1.0
 10
169.2062194646969
 20
143.5048777312287
 30
0.0
 10
169.2857124137451
 20
143.5048777312287
 30
0.0
 10
169.3667959151007
 20
143.487874981268
 30
0.0
 10
169.5132263122385
 20
143.4238144401563
 30
0.0
 10
169.5797749221122
 20
143.3766558245177
 30
0.0
 10
169.7440647960859
 20
143.2034337918254
 30
0.0
 10
169.8062194646971
 20
143.0433247015912
 30
0.0
 10
169.8062194646969
 20
142.8841225818278
 30
0.0
  0
SPLINE
  5
1D6
330
1F
100
AcDbEntity
  8
0
  6
HIDDEN
 62
     7
370
     0
100
AcDbSpline
210
0.0
220
0.0
230
1.0
 70
     8
 71
     3
 72
    12
 73
     8
 74
     0
 42
0.00000001
 43
0.00000001
 40
0.0
 40
0.0
 40
0.0
 40
0.0
 40
0.25
 40
0.25
 40
0.5
 40
0.5
 40
1.0
 40
1.0
 40
1.0
 40
1.0
 10
169.2062194646969
 20
82.85076456181736
 30
0.0
 10
169.286100469444
 20
82.85076456181736
 30
0.0
 10
169.3666945997146
 20
82.8678816480832
 30
0.0
 10
169.5133100455595
 20
82.9326177595583
 30
0.0
 10
169.5798112383034
 20
82.98007500243864
 30
0.0
 10
169.7455461394407
 20
83.15689944497812
 30
0.0
 10
169.8062194646969
 20
83.31717595218383
 30
0.0
 10
169.8062194646969
 20
83.4774048574716
 30
0.0
  0
LINE
  5
1D7
330
1F
100
AcDbEntity
  8
0
  6
HIDDEN
 62
     7
370
     0
100
AcDbLine
 10
169.8062194647
 20
142.8841225818
 30
0.0
 11
169.8062194647
 21
83.4774048575
 31
0.0
  0
SPLINE
  5
1D8
330
1F
100
AcDbEntity
  8
0
  6
HIDDEN
 62
     7
370
     0
100
AcDbSpline
210
0.0
220
0.0
230
1.0
 70
     8
 71
     3
 72
     8
 73
     4
 74
     0
 42
0.00000001
 43
0.00000001
 40
0.0
 40
0.0
 40
0.0
 40
0.0
 40
1.0
 40
1.0
 40
1.0
 40
1.0
 10
158.4642866332078
 20
143.5048777312288
 30
0.0
 10
158.9594266625722
 20
142.6181980830485
 30
0.0
 10
159.4535093678511
 20
141.7309354473625
 30
0.0
 10
159.9462194646969
 20
140.8429164492361
 30
0.0
  0
LINE
  5
1D9
330
1F
100
AcDbEntity
  8
0
  6
HIDDEN
 62
     7
370
     0
100
AcDbLine
 10
159.9462194647
 20
140.8429164492
 30
0.0
 11
159.9462194647
 21
140.1573361091
 31
0.0
  0
LINE
  5
1DA
330
1F
100
AcDbEntity
  8
0
  6
HIDDEN
 62
     7
370
     0
100
AcDbLine
 10
156.8062194647
 20
139.4376822581
 30
0.0
 11
160.3405169964
 21
139.4376822581
 31
0.0
  0
LINE
  5
1DB
330
1F
100
AcDbEntity
  8
0
  6
HIDDEN
 62
     7
370
     0
100
AcDbLine
 10
163.7662194647
 20
140.1573361091
 30
0.0
 11
163.7662194647
 21
140.8429164492
 31
0.0
  0
SPLINE
  5
1DC
330
1F
100
AcDbEntity
  8
0
  6
HIDDEN
 62
     7
370
     0
100
AcDbSpline
210
0.0
220
0.0
230
1.0
 70
     8
 71
     3
 72
     8
 73
     4
 74
     0
 42
0.00000001
 43
0.00000001
 40
0.0
 40
0.0
 40
0.0
 40
0.0
 40
1.0
 40
1.0
 40
1.0
 40
1.0
 10
163.7662194646969
 20
140.8429164492361
 30
0.0
 10
164.2589295615426
 20
141.7309354473625
 30
0.0
 10
164.7530122668216
 20
142.6181980830485
 30
0.0
 10
165.2481522961859
 20
143.5048777312287
 30
0.0
  0
LINE
  5
1DD
330
1F
100
AcDbEntity
  8
0
  6
HIDDEN
 62
     7
370
     0
100
AcDbLine
 10
165.2481522962
 20
143.5048777312
 30
0.0
 11
169.2062194647
 21
143.5048777312
 31
0.0
  0
LINE
  5
1DE
330
1F
100
AcDbEntity
  8
0
  6
HIDDEN
 62
     7
370
     0
100
AcDbLine
 10
163.371921933
 20
139.4376822581
 30
0.0
 11
169.8062194647
 21
139.4376822581
 31
0.0
  0
LINE
  5
1DF
330
1F
100
AcDbEntity
  8
0
  6
HIDDEN
 62
     7
370
     0
100
AcDbLine
 10
169.8062194647
 20
142.8841225818
 30
0.0
 11
169.8062194647
 21
139.4376822581
 31
0.0
  0
LINE
  5
1E0
330
1F
100
AcDbEntity
  8
0
  6
HIDDEN
 62
     7
370
     0
100
AcDbLine
 10
165.2481522962
 20
143.5048777312
 30
0.0
 11
165.2481522962
 21
82.8507645618
 31
0.0
  0
LINE
  5
1E1
330
1F
100
AcDbEntity
  8
0
  6
HIDDEN
 62
     7
370
     0
100
AcDbLine
 10
159.9462194647
 20
140.8429164492
 30
0.0
 11
159.9462194647
 21
85.539845099
 31
0.0
  0
LINE
  5
1E2
330
1F
100
AcDbEntity
  8
0
  6
HIDDEN
 62
     7
370
     0
100
AcDbLine
 10
163.7662194647
 20
140.8429164492
 30
0.0
 11
163.7662194647
 21
85.539845099
 31
0.0
  0
SPLINE
  5
1E3
330
1F
100
AcDbEntity
  8
0
  6
HIDDEN
 62
     7
370
     0
100
AcDbSpline
210
0.0
220
0.0
230
1.0
 70
     8
 71
     3
 72
    35
 73
    31
 74
     0
 42
0.00000001
 43
0.00000001
 40
0.0
 40
0.0
 40
0.0
 40
0.0
 40
0.0296396243349588
 40
0.0591056842041536
 40
0.0884089658071178
 40
0.1175604360304277
 40
0.1465712339279107
 40
0.1754526613183116
 40
0.2042161725183636
 40
0.2328733632389192
 40
0.2614359586816185
 40
0.2899158008834726
 40
0.3183248353663964
 40
0.3466750971579857
 40
0.37497869625848
 40
0.4032478026366738
 40
0.4314946308443145
 40
0.4597314243441534
 40
0.4879704396510529
 40
0.5162239303883809
 40
0.566709898287161
 40
0.6165134408728782
 40
0.6657104314600317
 40
0.7143795802188914
 40
0.7626021820599985
 40
0.8104618074771932
 40
0.8580439395348995
 40
0.905435562914714
 40
0.9527247135872067
 40
1.0
 40
1.0
 40
1.0
 40
1.0
 10
277.6503617952765
 20
124.4423366249359
 30
0.0
 10
277.7054448110284
 20
124.6014250911633
 30
0.0
 10
277.815288286008
 20
124.9186704293329
 30
0.0
 10
277.9785609284896
 20
125.3887635511128
 30
0.0
 10
278.1400948600577
 20
125.8527596047041
 30
0.0
 10
278.2998216219898
 20
126.3103575873097
 30
0.0
 10
278.4577593179073
 20
126.7616372114647
 30
0.0
 10
278.613903037553
 20
127.2065769804918
 30
0.0
 10
278.768253986528
 20
127.645182302726
 30
0.0
 10
278.920811739119
 20
128.0774514183023
 30
0.0
 10
279.0715763007459
 20
128.5033844692047
 30
0.0
 10
279.220547559506
 20
128.9229810864829
 30
0.0
 10
279.3677254335026
 20
129.336241036663
 30
0.0
 10
279.5131098312481
 20
129.7431640490076
 30
0.0
 10
279.6567006678104
 20
130.1437498765663
 30
0.0
 10
279.7984978442664
 20
130.5379982378348
 30
0.0
 10
279.9385013183175
 20
130.9259090027479
 30
0.0
 10
280.0767108472387
 20
131.3074815211906
 30
0.0
 10
280.2131269497391
 20
131.6827171353382
 30
0.0
 10
280.3830104199644
 20
132.1482393170821
 30
0.0
 10
280.5830989074802
 20
132.693527649447
 30
0.0
 10
280.8091735921124
 20
133.3048961030313
 30
0.0
 10
281.0254574383438
 20
133.8848437139725
 30
0.0
 10
281.2319447868562
 20
134.4333535777464
 30
0.0
 10
281.4286384509711
 20
134.9504350397393
 30
0.0
 10
281.6155177507815
 20
135.436022903742
 30
0.0
 10
281.792646475096
 20
135.8903215528915
 30
0.0
 10
281.9597763905879
 20
136.3125400166038
 30
0.0
 10
282.1178188649428
 20
136.7055870920313
 30
0.0
 10
282.2148047082927
 20
136.9408132109119
 30
0.0
 10
282.2632905203345
 20
137.0584090268932
 30
0.0
  0
ELLIPSE
  5
1E4
330
1F
100
AcDbEntity
  8
0
  6
HIDDEN
 62
     7
370
     0
100
AcDbEllipse
 10
271.4137585188
 20
124.5059731488
 30
0.0
 11
1.122325157916066
 21
2.710728823706745
 31
0.0
210
0.0
220
0.0
230
0.9999999999999998
 40
0.8519992546
 41
5.177516304350106
 42
7.36684067489323
  0
LWPOLYLINE
  5
1E5
330
1F
100
AcDbEntity
  8
0
  6
HIDDEN
 62
     7
370
     0
100
AcDbPolyline
 90
       12
 70
   128
 43
0.0
 10
272.0923177963
 20
119.8876755177
 10
272.1803333332
 20
120.3690006167
 10
272.075125364
 20
120.8912113265
 10
271.7852172128
 20
121.4120012412
 10
271.3340955138
 20
121.8891790591
 10
270.7583074641
 20
122.2840866713
 10
270.1044999872
 20
122.5647310117
 10
269.4256406765
 20
122.7083759448
 10
268.7767266761
 20
122.7033842126
 10
268.2103291389
 20
122.5501602153
 10
267.772334225
 20
122.2611172501
 10
267.4982256775
 20
121.859671859
  0
SPLINE
  5
1E6
330
1F
100
AcDbEntity
  8
0
  6
HIDDEN
 62
     7
370
     0
100
AcDbSpline
210
0.0
220
0.0
230
1.0
 70
     8
 71
     3
 72
    26
 73
    22
 74
     0
 42
0.00000001
 43
0.00000001
 40
0.0
 40
0.0
 40
0.0
 40
0.0
 40
0.2499999999999958
 40
0.2499999999999958
 40
0.3749999999999935
 40
0.3749999999999935
 40
0.4374999999999925
 40
0.4374999999999925
 40
0.4687499999999921
 40
0.4687499999999921
 40
0.4999999999999916
 40
0.4999999999999916
 40
0.531249999999991
 40
0.531249999999991
 40
0.5624999999999905
 40
0.5624999999999905
 40
0.6249999999999918
 40
0.6249999999999918
 40
0.7499999999999946
 40
0.7499999999999946
 40
1.0
 40
1.0
 40
1.0
 40
1.0
 10
112.7803731108013
 20
133.4278015916623
 30
0.0
 10
112.7417725879328
 20
133.3100268953069
 30
0.0
 10
112.6954755853786
 20
133.1856372091449
 30
0.0
 10
112.6015362369447
 20
132.9804178767914
 30
0.0
 10
112.5662247700312
 20
132.908845010345
 30
0.0
 10
112.5000447942855
 20
132.7928917777446
 30
0.0
 10
112.4755064276173
 20
132.7523072429343
 30
0.0
 10
112.4321336820635
 20
132.6881655610626
 30
0.0
 10
112.4166252806383
 20
132.6662991357775
 30
0.0
 10
112.3815826360512
 20
132.6207048674343
 30
0.0
 10
112.3620323453315
 20
132.5970345764669
 30
0.0
 10
112.3201050649609
 20
132.552418017127
 30
0.0
 10
112.2974529547293
 20
132.5315380046091
 30
0.0
 10
112.2564792406426
 20
132.5006645908583
 30
0.0
 10
112.2388799407473
 20
132.4908257210259
 30
0.0
 10
112.1942529548911
 20
132.4718361053298
 30
0.0
 10
112.1736937322378
 20
132.4715117806763
 30
0.0
 10
112.1225682927411
 20
132.4807352215525
 30
0.0
 10
112.1016568797526
 20
132.5019821177695
 30
0.0
 10
112.0502069721916
 20
132.5759509966003
 30
0.0
 10
112.0325416728871
 20
132.642069089915
 30
0.0
 10
112.0188828394203
 20
132.7122348028453
 30
0.0
  0
SPLINE
  5
1E7
330
1F
100
AcDbEntity
  8
0
  6
HIDDEN
 62
     7
370
     0
100
AcDbSpline
210
0.0
220
0.0
230
1.0
 70
     8
 71
     3
 72
    26
 73
    22
 74
     0
 42
0.00000001
 43
0.00000001
 40
0.0
 40
0.0
 40
0.0
 40
0.0
 40
0.2499999999999927
 40
0.2499999999999927
 40
0.3749999999999887
 40
0.3749999999999887
 40
0.4374999999999874
 40
0.4374999999999874
 40
0.4687499999999877
 40
0.4687499999999877
 40
0.4999999999999881
 40
0.4999999999999881
 40
0.5312499999999885
 40
0.5312499999999885
 40
0.5624999999999887
 40
0.5624999999999887
 40
0.6249999999999899
 40
0.6249999999999899
 40
0.7499999999999932
 40
0.7499999999999932
 40
1.0
 40
1.0
 40
1.0
 40
1.0
 10
111.9864970803055
 20
93.44759469783764
 30
0.0
 10
111.997221113698
 20
93.55055573832664
 30
0.0
 10
112.0119541042925
 20
93.64955442780769
 30
0.0
 10
112.0643076635395
 20
93.7681501078728
 30
0.0
 10
112.0860129462592
 20
93.8038604078216
 30
0.0
 10
112.1448684536246
 20
93.82883984064333
 30
0.0
 10
112.1683306874717
 20
93.83322528840691
 30
0.0
 10
112.2244520641323
 20
93.81347245496276
 30
0.0
 10
112.2472393742629
 20
93.80181606415235
 30
0.0
 10
112.3024919267942
 20
93.76003571471513
 30
0.0
 10
112.3338981595349
 20
93.72976412733917
 30
0.0
 10
112.3888319801554
 20
93.66812172842518
 30
0.0
 10
112.4132557983549
 20
93.63668007611837
 30
0.0
 10
112.4566709043421
 20
93.57694523870461
 30
0.0
 10
112.4762454669103
 20
93.54778022883197
 30
0.0
 10
112.5298781508584
 20
93.46394495309889
 30
0.0
 10
112.5596554989106
 20
93.41191233512266
 30
0.0
 10
112.6411895588834
 20
93.26084666115531
 30
0.0
 10
112.6844323535574
 20
93.16765561928456
 30
0.0
 10
112.7974869432121
 20
92.90326908029017
 30
0.0
 10
112.8514979406913
 20
92.74431091124032
 30
0.0
 10
112.8951290348953
 20
92.59375995509947
 30
0.0
  0
LINE
  5
1E8
330
1F
100
AcDbEntity
  8
0
  6
HIDDEN
 62
     7
370
     0
100
AcDbLine
 10
111.9562194647
 20
132.7283600045
 30
0.0
 11
111.9562194647
 21
93.3845217331
 31
0.0
  0
LINE
  5
1E9
330
1F
100
AcDbEntity
  8
0
  6
HIDDEN
 62
     7
370
     0
100
AcDbLine
 10
163.7662194647
 20
86.2332866297
 30
0.0
 11
163.7662194647
 21
85.539845099
 31
0.0
  0
SPLINE
  5
1EA
330
1F
100
AcDbEntity
  8
0
  6
HIDDEN
 62
     7
370
     0
100
AcDbSpline
210
0.0
220
0.0
230
1.0
 70
     8
 71
     3
 72
     8
 73
     4
 74
     0
 42
0.00000001
 43
0.00000001
 40
0.0
 40
0.0
 40
0.0
 40
0.0
 40
1.0
 40
1.0
 40
1.0
 40
1.0
 10
163.7662194646969
 20
85.53984509900963
 30
0.0
 10
164.2585585874781
 20
84.64257506480294
 30
0.0
 10
164.7526726355202
 20
83.7462906497507
 30
0.0
 10
165.2481522961859
 20
82.85076456181736
 30
0.0
  0
LINE
  5
1EB
330
1F
100
AcDbEntity
  8
0
  6
HIDDEN
 62
     7
370
     0
100
AcDbLine
 10
165.2481522962
 20
82.8507645618
 30
0.0
 11
169.2062194647
 21
82.8507645618
 31
0.0
  0
LINE
  5
1EC
330
1F
100
AcDbEntity
  8
0
  6
HIDDEN
 62
     7
370
     0
100
AcDbLine
 10
163.6685446624
 20
86.6376822581
 30
0.0
 11
169.8062194647
 21
86.6376822581
 31
0.0
  0
LINE
  5
1ED
330
1F
100
AcDbEntity
  8
0
  6
HIDDEN
 62
     7
370
     0
100
AcDbLine
 10
169.8062194647
 20
83.4774048575
 30
0.0
 11
169.8062194647
 21
86.6376822581
 31
0.0
  0
LINE
  5
1EE
330
1F
100
AcDbEntity
  8
0
  6
HIDDEN
 62
     7
370
     0
100
AcDbLine
 10
159.9462194647
 20
85.539845099
 30
0.0
 11
159.9462194647
 21
86.2332866297
 31
0.0
  0
SPLINE
  5
1EF
330
1F
100
AcDbEntity
  8
0
  6
HIDDEN
 62
     7
370
     0
100
AcDbSpline
210
0.0
220
0.0
230
1.0
 70
     8
 71
     3
 72
     8
 73
     4
 74
     0
 42
0.00000001
 43
0.00000001
 40
0.0
 40
0.0
 40
0.0
 40
0.0
 40
1.0
 40
1.0
 40
1.0
 40
1.0
 10
158.4642866332078
 20
82.85076456181736
 30
0.0
 10
158.9597662938736
 20
83.7462906497507
 30
0.0
 10
159.4538803419157
 20
84.64257506480294
 30
0.0
 10
159.9462194646969
 20
85.53984509900964
 30
0.0
  0
LINE
  5
1F0
330
1F
100
AcDbEntity
  8
0
  6
HIDDEN
 62
     7
370
     0
100
AcDbLine
 10
156.8062194647
 20
86.6376822581
 30
0.0
 11
160.043894267
 21
86.6376822581
 31
0.0
  0
LINE
  5
1F1
330
1F
100
AcDbEntity
  8
0
  6
HIDDEN
 62
     7
370
     0
100
AcDbLine
 10
267.4982256775
 20
121.859671859
 30
0.0
 11
265.7871831789
 21
117.68856618
 31
0.0
  0
LWPOLYLINE
  5
1F2
330
1F
100
AcDbEntity
  8
0
  6
HIDDEN
 62
     7
370
     0
100
AcDbPolyline
 90
       23
 70
   128
 43
0.0
 10
241.8562194647
 20
105.4752303138
 10
242.5605508568
 20
105.569123966
 10
243.2078215083
 20
105.8431982171
 10
243.7455934006
 20
106.2752492015
 10
244.1302994531
 20
106.8302747177
 10
244.3307730694
 20
107.4633098995
 10
244.3307730694
 20
108.123070001
 10
244.1302994531
 20
108.7561051827
 10
243.7455934006
 20
109.311130699
 10
243.2078215083
 20
109.7431816833
 10
242.5605508568
 20
110.0172559345
 10
241.8562194647
 20
110.1111495867
 10
241.1518880726
 20
110.0172559345
 10
240.5046174211
 20
109.7431816833
 10
239.9668455288
 20
109.311130699
 10
239.5821394763
 20
108.7561051827
 10
239.38166586
 20
108.123070001
 10
239.38166586
 20
107.4633098995
 10
239.5821394763
 20
106.8302747177
 10
239.9668455288
 20
106.2752492015
 10
240.5046174211
 20
105.8431982171
 10
241.1518880726
 20
105.569123966
 10
241.8562194647
 20
105.4752303138
  0
LINE
  5
1F3
330
1F
100
AcDbEntity
  8
0
  6
HIDDEN
 62
     7
370
     0
100
AcDbLine
 10
277.5060188225
 20
125.2534814051
 30
0.0
 11
277.6514291269
 21
124.435582969
 31
0.0
  0
LINE
  5
1F4
330
1F
100
AcDbEntity
  8
0
  6
HIDDEN
 62
     7
370
     0
100
AcDbLine
 10
277.6503617951
 20
124.442336625
 30
0.0
 11
273.8644732474
 21
113.0376822581
 31
0.0
  0
CIRCLE
  5
1F5
330
1F
100
AcDbEntity
  8
0
  6
HIDDEN
 62
     7
370
     0
100
AcDbCircle
 10
150.8562194647
 20
113.0376822581
 30
0.0
 40
5.000000000000014
  0
LINE
  5
1F6
330
1F
100
AcDbEntity
  8
0
  6
HIDDEN
 62
     7
370
     0
100
AcDbLine
 10
143.8562194647
 20
87.7137583369
 30
0.0
 11
143.9503803059
 21
88.3837475358
 31
0.0
  0
LINE
  5
1F7
330
1F
100
AcDbEntity
  8
0
  6
HIDDEN
 62
     7
370
     0
100
AcDbLine
 10
143.9503803059
 20
137.6916169804
 30
0.0
 11
143.8562194647
 21
138.3616061792
 31
0.0
  0
ARC
  5
1F8
330
1F
100
AcDbEntity
  8
0
  6
HIDDEN
 62
     7
370
     0
100
AcDbCircle
 10
143.3562194647
 20
88.4672513963
 30
0.0
 40
0.6000000000000227
100
AcDbArc
 50
352.0
 51
0.0
  0
ARC
  5
1F9
330
1F
100
AcDbEntity
  8
0
  6
HIDDEN
 62
     7
370
     0
100
AcDbCircle
 10
143.3562194647
 20
88.4672513963
 30
0.0
 40
0.6000000000000227
100
AcDbArc
 50
0.0
 51
33.5573097619
  0
ARC
  5
1FA
330
1F
100
AcDbEntity
  8
0
  6
HIDDEN
 62
     7
370
     0
100
AcDbCircle
 10
143.3562194647
 20
137.6081131198
 30
0.0
 40
0.599999999999998
100
AcDbArc
 50
348.75
 51
8.0
  0
LWPOLYLINE
  5
1FB
330
1F
100
AcDbEntity
  8
0
  6
HIDDEN
 62
     7
370
     0
100
AcDbPolyline
 90
        3
 70
   128
 43
0.0
 10
143.9446906329
 20
137.4910589266
 10
143.9105471842
 20
137.3785030604
 10
143.8562194647
 20
137.2764506408
  0
LINE
  5
1FC
330
1F
100
AcDbEntity
  8
0
  6
HIDDEN
 62
     7
370
     0
100
AcDbLine
 10
143.9562194647
 20
88.4672513963
 30
0.0
 11
143.9562194647
 21
137.6081131198
 31
0.0
  0
LINE
  5
1FD
330
1F
100
AcDbEntity
  8
0
  6
HIDDEN
 62
     7
370
     0
100
AcDbLine
 10
143.9562194647
 20
88.4672513963
 30
0.0
 11
143.9562194647
 21
137.6081131198
 31
0.0
  0
ARC
  5
1FE
330
1F
100
AcDbEntity
  8
0
  6
HIDDEN
 62
     7
370
     0
100
AcDbCircle
 10
137.6112214663
 20
101.0376822581
 30
0.0
 40
8.000000000000025
100
AcDbArc
 50
277.1328057124
 51
321.3178125465
  0
ARC
  5
1FF
330
1F
100
AcDbEntity
  8
0
  6
HIDDEN
 62
     7
370
     0
100
AcDbCircle
 10
137.6112214663
 20
125.0376822581
 30
0.0
 40
8.000000000000007
100
AcDbArc
 50
38.6821874535
 51
82.8686348141
  0
LINE
  5
200
330
1F
100
AcDbEntity
  8
0
  6
HIDDEN
 62
     7
370
     0
100
AcDbLine
 10
126.93865503
 20
93.0376822581
 30
0.0
 11
131.1162419239
 21
93.0376822581
 31
0.0
  0
LINE
  5
201
330
1F
100
AcDbEntity
  8
0
  6
HIDDEN
 62
     7
370
     0
100
AcDbLine
 10
131.1162419239
 20
133.0376822581
 30
0.0
 11
126.93865503
 21
133.0376822581
 31
0.0
  0
ARC
  5
202
330
1F
100
AcDbEntity
  8
0
  6
HIDDEN
 62
     7
370
     0
100
AcDbCircle
 10
126.93865503
 20
93.6376822581
 30
0.0
 40
0.6000000000000084
100
AcDbArc
 50
210.0
 51
270.0
  0
ARC
  5
203
330
1F
100
AcDbEntity
  8
0
  6
HIDDEN
 62
     7
370
     0
100
AcDbCircle
 10
126.93865503
 20
132.4376822581
 30
0.0
 40
0.6000000000000227
100
AcDbArc
 50
90.0
 51
150.0
  0
LINE
  5
204
330
1F
100
AcDbEntity
  8
0
  6
HIDDEN
 62
     7
370
     0
100
AcDbLine
 10
126.4190397877
 20
132.7376822581
 30
0.0
 11
124.8601940609
 21
130.0376822581
 31
0.0
  0
LINE
  5
205
330
1F
100
AcDbEntity
  8
0
  6
HIDDEN
 62
     7
370
     0
100
AcDbLine
 10
124.8601940609
 20
96.0376822581
 30
0.0
 11
126.4190397877
 21
93.3376822581
 31
0.0
  0
ARC
  5
206
330
1F
100
AcDbEntity
  8
0
  6
HIDDEN
 62
     7
370
     0
100
AcDbCircle
 10
152.3062194647
 20
97.3126822581
 30
0.0
 40
1.500000000000016
100
AcDbArc
 50
238.2116693829
 51
0.0
  0
ARC
  5
207
330
1F
100
AcDbEntity
  8
0
  6
HIDDEN
 62
     7
370
     0
100
AcDbCircle
 10
152.3062194647
 20
128.7626822581
 30
0.0
 40
1.499999999999992
100
AcDbArc
 50
360.0
 51
121.7883306171
  0
LINE
  5
208
330
1F
100
AcDbEntity
  8
0
  6
HIDDEN
 62
     7
370
     0
100
AcDbLine
 10
122.0562194647
 20
96.0376822581
 30
0.0
 11
124.8601940609
 21
96.0376822581
 31
0.0
  0
LINE
  5
209
330
1F
100
AcDbEntity
  8
0
  6
HIDDEN
 62
     7
370
     0
100
AcDbLine
 10
124.8601940609
 20
130.0376822581
 30
0.0
 11
118.0562194647
 21
130.0376822581
 31
0.0
  0
LINE
  5
20A
330
1F
100
AcDbEntity
  8
0
  6
HIDDEN
 62
     7
370
     0
100
AcDbLine
 10
143.8562194647
 20
96.0376822581
 30
0.0
 11
151.5160454332
 21
96.0376822581
 31
0.0
  0
LINE
  5
20B
330
1F
100
AcDbEntity
  8
0
  6
HIDDEN
 62
     7
370
     0
100
AcDbLine
 10
151.5160454332
 20
130.0376822581
 30
0.0
 11
143.8562194647
 21
130.0376822581
 31
0.0
  0
LINE
  5
20C
330
1F
100
AcDbEntity
  8
0
  6
HIDDEN
 62
     7
370
     0
100
AcDbLine
 10
239.7562194647
 20
119.4059943461
 30
0.0
 11
239.7562194647
 21
114.609743275
 31
0.0
  0
LINE
  5
20D
330
1F
100
AcDbEntity
  8
0
  6
HIDDEN
 62
     7
370
     0
100
AcDbLine
 10
243.9562194647
 20
118.8192656562
 30
0.0
 11
243.9562194647
 21
119.4059943461
 31
0.0
  0
LINE
  5
20E
330
1F
100
AcDbEntity
  8
0
  6
HIDDEN
 62
     7
370
     0
100
AcDbLine
 10
243.9562194647
 20
114.6104246825
 30
0.0
 11
243.9562194647
 21
117.4836439433
 31
0.0
  0
LINE
  5
20F
330
1F
100
AcDbEntity
  8
0
  6
HIDDEN
 62
     7
370
     0
100
AcDbLine
 10
243.5313269133
 20
116.7364178107
 30
0.0
 11
250.0730242721
 21
120.2069742872
 31
0.0
  0
LINE
  5
210
330
1F
100
AcDbEntity
  8
0
  6
HIDDEN
 62
     7
370
     0
100
AcDbLine
 10
249.891314617
 20
124.8650397159
 30
0.0
 11
241.3234065404
 21
120.3195208339
 31
0.0
  0
LINE
  5
211
330
1F
100
AcDbEntity
  8
0
  6
HIDDEN
 62
     7
370
     0
100
AcDbLine
 10
163.1562194647
 20
103.5376822581
 30
0.0
 11
165.6562194647
 21
103.5376822581
 31
0.0
  0
LINE
  5
212
330
1F
100
AcDbEntity
  8
0
  6
HIDDEN
 62
     7
370
     0
100
AcDbLine
 10
165.6562194647
 20
122.5376822581
 30
0.0
 11
163.1562194647
 21
122.5376822581
 31
0.0
  0
LINE
  5
213
330
1F
100
AcDbEntity
  8
0
  6
HIDDEN
 62
     7
370
     0
100
AcDbLine
 10
153.8062194647
 20
104.0376822581
 30
0.0
 11
154.3062194647
 21
104.5376822581
 31
0.0
  0
LINE
  5
214
330
1F
100
AcDbEntity
  8
0
  6
HIDDEN
 62
     7
370
     0
100
AcDbLine
 10
154.3062194647
 20
121.5376822581
 30
0.0
 11
153.8062194647
 21
122.0376822581
 31
0.0
  0
LINE
  5
215
330
1F
100
AcDbEntity
  8
0
  6
HIDDEN
 62
     7
370
     0
100
AcDbLine
 10
154.3062194647
 20
104.5376822581
 30
0.0
 11
163.1562194647
 21
104.5376822581
 31
0.0
  0
LINE
  5
216
330
1F
100
AcDbEntity
  8
0
  6
HIDDEN
 62
     7
370
     0
100
AcDbLine
 10
163.1562194647
 20
121.5376822581
 30
0.0
 11
154.3062194647
 21
121.5376822581
 31
0.0
  0
LINE
  5
217
330
1F
100
AcDbEntity
  8
0
  6
HIDDEN
 62
     7
370
     0
100
AcDbLine
 10
148.8062194647
 20
144.5376822581
 30
0.0
 11
148.8062194647
 21
139.4376822581
 31
0.0
  0
LINE
  5
218
330
1F
100
AcDbEntity
  8
0
  6
HIDDEN
 62
     7
370
     0
100
AcDbLine
 10
265.3046089111
 20
118.4809934233
 30
0.0
 11
264.8259315207
 21
117.5340988921
 31
0.0
  0
LINE
  5
219
330
1F
100
AcDbEntity
  8
0
  6
HIDDEN
 62
     7
370
     0
100
AcDbLine
 10
271.0730587253
 20
114.3760295942
 30
0.0
 11
271.5517361157
 21
115.3229241254
 31
0.0
  0
LINE
  5
21A
330
1F
100
AcDbEntity
  8
0
  6
HIDDEN
 62
     7
370
     0
100
AcDbLine
 10
258.6662508128
 20
131.9075438668
 30
0.0
 11
257.6759996871
 21
132.148729354
 31
0.0
  0
LINE
  5
21B
330
1F
100
AcDbEntity
  8
0
  6
HIDDEN
 62
     7
370
     0
100
AcDbLine
 10
262.000885373
 20
124.4344568297
 30
0.0
 11
261.0371329416
 21
122.52801227
 31
0.0
  0
LINE
  5
21C
330
1F
100
AcDbEntity
  8
0
  6
HIDDEN
 62
     7
370
     0
100
AcDbLine
 10
139.0406572952
 20
88.9583109245
 30
0.0
 11
138.6062251457
 21
89.4373769436
 31
0.0
  0
LINE
  5
21D
330
1F
100
AcDbEntity
  8
0
  6
HIDDEN
 62
     7
370
     0
100
AcDbLine
 10
131.1062218206
 20
89.8590649027
 30
0.0
 11
130.6237880773
 21
89.3799989273
 31
0.0
  0
LINE
  5
21E
330
1F
100
AcDbEntity
  8
0
  6
HIDDEN
 62
     7
370
     0
100
AcDbLine
 10
130.623666149
 20
136.6953602984
 30
0.0
 11
131.1062169
 21
136.2162400405
 31
0.0
  0
LINE
  5
21F
330
1F
100
AcDbEntity
  8
0
  6
HIDDEN
 62
     7
370
     0
100
AcDbLine
 10
138.6062193467
 20
136.6379378182
 30
0.0
 11
139.040761737
 21
137.1170580687
 31
0.0
  0
LINE
  5
220
330
1F
100
AcDbEntity
  8
0
  6
HIDDEN
 62
     7
370
     0
100
AcDbLine
 10
165.6562194647
 20
108.8376822581
 30
0.0
 11
244.9562194647
 21
108.8376822581
 31
0.0
  0
LINE
  5
221
330
1F
100
AcDbEntity
  8
0
  6
HIDDEN
 62
     7
370
     0
100
AcDbLine
 10
244.9562194647
 20
117.2376822581
 30
0.0
 11
165.6562194647
 21
117.2376822581
 31
0.0
  0
LINE
  5
222
330
1F
100
AcDbEntity
  8
0
  6
HIDDEN
 62
     7
370
     0
100
AcDbLine
 10
244.9562194647
 20
108.8376822581
 30
0.0
 11
247.4798340646
 21
113.0376822581
 31
0.0
  0
LINE
  5
223
330
1F
100
AcDbEntity
  8
0
  6
HIDDEN
 62
     7
370
     0
100
AcDbLine
 10
247.4798340646
 20
113.0376822581
 30
0.0
 11
244.9562194647
 21
117.2376822581
 31
0.0
  0
LINE
  5
224
330
1F
100
AcDbEntity
  8
0
  6
HIDDEN
 62
     7
370
     0
100
AcDbLine
 10
270.8292208616
 20
116.6040157162
 30
0.0
 11
274.0594867181
 21
123.8535608214
 31
0.0
  0
LINE
  5
225
330
1F
100
AcDbEntity
  8
0
  6
HIDDEN
 62
     7
370
     0
100
AcDbLine
 10
138.6062194647
 20
89.4378608453
 30
0.0
 11
138.6062194647
 21
93.0998460674
 31
0.0
  0
LINE
  5
226
330
1F
100
AcDbEntity
  8
0
  6
HIDDEN
 62
     7
370
     0
100
AcDbLine
 10
131.1062194647
 20
93.0395538053
 30
0.0
 11
131.1062194647
 21
89.8593881406
 31
0.0
  0
LINE
  5
227
330
1F
100
AcDbEntity
  8
0
  6
HIDDEN
 62
     7
370
     0
100
AcDbLine
 10
138.6062194647
 20
132.9755184487
 30
0.0
 11
138.6062194647
 21
136.6373843966
 31
0.0
  0
LINE
  5
228
330
1F
100
AcDbEntity
  8
0
  6
HIDDEN
 62
     7
370
     0
100
AcDbLine
 10
131.1062194647
 20
136.2159848492
 30
0.0
 11
131.1062194647
 21
133.0358107109
 31
0.0
  0
LINE
  5
229
330
1F
100
AcDbEntity
  8
0
  6
HIDDEN
 62
     7
370
     0
100
AcDbLine
 10
264.1572538743
 20
117.762936709
 30
0.0
 11
261.8217475276
 21
113.1429604327
 31
0.0
  0
LINE
  5
22A
330
1F
100
AcDbEntity
  8
0
  6
HIDDEN
 62
     7
370
     0
100
AcDbLine
 10
269.3355060257
 20
109.3873129915
 30
0.0
 11
271.6538065198
 21
113.9732535515
 31
0.0
  0
LINE
  5
22B
330
1F
100
AcDbEntity
  8
0
  6
HIDDEN
 62
     7
370
     0
100
AcDbLine
 10
239.7562194647
 20
111.464591548
 30
0.0
 11
239.7562194647
 21
107.8832244901
 31
0.0
  0
LINE
  5
22C
330
1F
100
AcDbEntity
  8
0
  6
HIDDEN
 62
     7
370
     0
100
AcDbLine
 10
243.9562194647
 20
107.8832244901
 30
0.0
 11
243.9562194647
 21
111.4646409557
 31
0.0
  0
ARC
  5
22D
330
1F
100
AcDbEntity
  8
0
  6
HIDDEN
 62
     7
370
     0
100
AcDbCircle
 10
116.6562194647
 20
135.3076822581
 30
0.0
 40
1.400000000000006
100
AcDbArc
 50
270.0
 51
301.7485287426
  0
ARC
  5
22E
330
1F
100
AcDbEntity
  8
0
  6
HIDDEN
 62
     7
370
     0
100
AcDbCircle
 10
120.6562194647
 20
90.8251822581
 30
0.0
 40
1.40000000000002
100
AcDbArc
 50
37.6438857999
 51
90.0
  0
LINE
  5
22F
330
1F
100
AcDbEntity
  8
0
  6
HIDDEN
 62
     7
370
     0
100
AcDbLine
 10
270.5457485215
 20
130.4070344392
 30
0.0
 11
269.9603891272
 21
129.2491071578
 31
0.0
  0
LINE
  5
230
330
1F
100
AcDbEntity
  8
0
  6
HIDDEN
 62
     7
370
     0
100
AcDbLine
 10
275.6720482857
 20
126.3617295141
 30
0.0
 11
276.25740768
 21
127.5196567955
 31
0.0
  0
LINE
  5
231
330
1F
100
AcDbEntity
  8
0
  6
HIDDEN
 62
     7
370
     0
100
AcDbLine
 10
116.6562194647
 20
133.9076822581
 30
0.0
 11
113.2471078661
 21
133.9076822581
 31
0.0
  0
LINE
  5
232
330
1F
100
AcDbEntity
  8
0
  6
HIDDEN
 62
     7
370
     0
100
AcDbLine
 10
113.1062194647
 20
92.2251822581
 30
0.0
 11
120.6562194647
 21
92.2251822581
 31
0.0
  0
LINE
  5
233
330
1F
100
AcDbEntity
  8
0
  6
HIDDEN
 62
     7
370
     0
100
AcDbLine
 10
113.0973829229
 20
133.8988457162
 30
0.0
 11
111.9673870839
 21
132.7688498773
 31
0.0
  0
LINE
  5
234
330
1F
100
AcDbEntity
  8
0
  6
HIDDEN
 62
     7
370
     0
100
AcDbLine
 10
111.9581683085
 20
93.3732334142
 30
0.0
 11
113.1062194647
 21
92.2251822581
 31
0.0
  0
LINE
  5
235
330
1F
100
AcDbEntity
  8
0
  6
HIDDEN
 62
     7
370
     0
100
AcDbLine
 10
270.0230621483
 20
127.5273114715
 30
0.0
 11
267.5117078715
 21
121.8911883432
 31
0.0
  0
LINE
  5
236
330
1F
100
AcDbEntity
  8
0
  6
HIDDEN
 62
     7
370
     0
100
AcDbLine
 10
239.3562194647
 20
107.7931899502
 30
0.0
 11
239.3562194647
 21
105.545933992
 31
0.0
  0
LINE
  5
237
330
1F
100
AcDbEntity
  8
0
  6
HIDDEN
 62
     7
370
     0
100
AcDbLine
 10
244.3562194647
 20
105.5455648114
 30
0.0
 11
244.3562194647
 21
107.7931899502
 31
0.0
  0
LINE
  5
238
330
1F
100
AcDbEntity
  8
VERMASSUNG
100
AcDbLine
 10
283.8562194647
 20
113.0376822581
 30
0.0
 11
283.8562194647
 21
140.0376822581
 31
0.0
  0
DIMENSION
  5
239
330
1F
100
AcDbEntity
  8
VERMASSUNG
100
AcDbDimension
  2
*D1
 10
143.8562194647
 20
152.2362498892
 30
0.0
 11
213.8562194647
 21
152.2362498892
 31
0.0
 70
   160
 71
     2
 42
-1.0
  3
SLDDIMSTYLE0
100
AcDbAlignedDimension
 13
283.8562194647
 23
140.0376822581
 33
0.0
 14
143.8562194647
 24
144.2376822581
 34
0.0
100
AcDbRotatedDimension
  0
DIMENSION
  5
244
330
1F
100
AcDbEntity
  8
VERMASSUNG
100
AcDbDimension
  2
*D2
 10
111.9562194647
 20
158.2362498892
 30
0.0
 11
197.9062194647
 21
158.2362498892
 31
0.0
 70
   160
 71
     2
 42
-1.0
  3
SLDDIMSTYLE0
100
AcDbAlignedDimension
 13
283.8562194647
 23
140.0376822581
 33
0.0
 14
111.9562194647
 24
132.7283600045
 34
0.0
100
AcDbRotatedDimension
  0
DIMENSION
  5
24E
330
1F
100
AcDbEntity
  8
VERMASSUNG
100
AcDbDimension
  2
*D3
 10
283.8562194647
 20
140.0376822581
 30
0.0
 11
278.8125418063
 21
108.8738568596
 31
0.0
 70
   162
 71
     1
 42
-1.0
  3
SLDDIMSTYLE1
100
AcDb2LineAngularDimension
 13
278.936531029
 23
125.6747991153
 33
0.0
 14
269.2152360685
 24
95.5628574258
 34
0.0
 15
283.8562194647
 25
113.0376822581
 35
0.0
 16
278.8125418063
 26
108.8738568596
 36
0.0
  0
DIMENSION
  5
258
330
1F
100
AcDbEntity
  8
VERMASSUNG
100
AcDbDimension
  2
*D4
 10
289.4290339036
 20
113.0376822581
 30
0.0
 11
289.4290339036
 21
126.5376822581
 31
0.0
 70
   160
 71
     2
 42
-1.0
  3
SLDDIMSTYLE0
100
AcDbAlignedDimension
 13
283.8562194647
 23
140.0376822581
 33
0.0
 14
278.1290032258
 24
113.0376822581
 34
0.0
 50
90.0
100
AcDbRotatedDimension
  0
DIMENSION
  5
262
330
1F
100
AcDbEntity
  8
VERMASSUNG
100
AcDbDimension
  2
*D5
 10
107.9105633225
 20
81.5376822581
 30
0.0
 11
107.9105633225
 21
113.0376822581
 31
0.0
 70
   160
  1
HSK %%c<>
 71
     2
 42
-1.0
  3
SLDDIMSTYLE0
100
AcDbAlignedDimension
 13
144.1562194647
 23
144.5376822581
 33
0.0
 14
144.1562194647
 24
81.5376822581
 34
0.0
 50
90.0
100
AcDbRotatedDimension
  0
LINE
  5
26E
330
1F
100
AcDbEntity
  8
VERMASSUNG
  6
CENTERX2
370
     0
100
AcDbLine
 10
109.264383871
 20
113.0376822581
 30
0.0
 11
278.1290032258
 21
113.0376822581
 31
0.0
  0
LINE
  5
26F
330
1F
100
AcDbEntity
  8
0
  6
Continuous
 62
     7
370
    15
100
AcDbLine
 10
62.6210315865
 20
139.0533475085
 30
0.0
 11
57.9905549668
 21
140.0375856977
 31
0.0
  0
LINE
  5
270
330
1F
100
AcDbEntity
  8
0
  6
Continuous
 62
     7
370
    15
100
AcDbLine
 10
57.3385421434
 20
137.3293118816
 30
0.0
 11
56.8488122963
 21
136.7747744992
 31
0.0
  0
LINE
  5
271
330
1F
100
AcDbEntity
  8
0
  6
Continuous
 62
     7
370
    15
100
AcDbLine
 10
53.2766855536
 20
125.0967821853
 30
0.0
 11
53.5378917499
 21
124.2657513228
 31
0.0
  0
LINE
  5
272
330
1F
100
AcDbEntity
  8
0
  6
Continuous
 62
     7
370
    15
100
AcDbLine
 10
52.1721691771
 20
121.8260582938
 30
0.0
 11
52.4703006978
 21
121.7626884828
 31
0.0
  0
LINE
  5
273
330
1F
100
AcDbEntity
  8
0
  6
Continuous
 62
     7
370
    15
100
AcDbLine
 10
66.7994408236
 20
137.839256119
 30
0.0
 11
62.5947916854
 21
138.7329818829
 31
0.0
  0
LINE
  5
274
330
1F
100
AcDbEntity
  8
0
  6
Continuous
 62
     7
370
    15
100
AcDbLine
 10
67.0356203865
 20
137.4783886544
 30
0.0
 11
66.8090355499
 21
137.8315541679
 31
0.0
  0
LINE
  5
275
330
1F
100
AcDbEntity
  8
0
  6
Continuous
 62
     7
370
    15
100
AcDbLine
 10
52.1883164694
 20
121.8415528969
 30
0.0
 11
54.5131411023
 21
125.8134078211
 31
0.0
  0
LWPOLYLINE
  5
276
330
1F
100
AcDbEntity
  8
0
  6
Continuous
 62
     7
370
    15
100
AcDbPolyline
 90
        9
 70
   128
 43
0.0
 10
52.2413371183
 20
122.3432619304
 10
52.2171791163
 20
122.2388073924
 10
52.1958411205
 20
122.1327645302
 10
52.1789002164
 20
122.0329709426
 10
52.1676085015
 20
121.9468023463
 10
52.1628005433
 20
121.8806274389
 10
52.1648316968
 20
121.8393371895
 10
52.17355184
 20
121.8259833493
 10
52.1883164694
 20
121.8415528969
  0
LINE
  5
277
330
1F
100
AcDbEntity
  8
0
  6
Continuous
 62
     7
370
    15
100
AcDbLine
 10
55.5685689224
 20
135.8004163294
 30
0.0
 11
52.2413371183
 21
122.3432619304
 31
0.0
  0
ARC
  5
278
330
1F
100
AcDbEntity
  8
0
  6
Continuous
 62
     7
370
    15
100
AcDbCircle
 10
56.7693889517
 20
135.549048157
 30
0.0
 40
1.226847464350814
100
AcDbArc
 50
155.8882926006
 51
168.176969014
  0
LINE
  5
279
330
1F
100
AcDbEntity
  8
0
  6
Continuous
 62
     7
370
    15
100
AcDbLine
 10
57.9744076745
 20
140.0220910945
 30
0.0
 11
55.6495830417
 21
136.0502361703
 31
0.0
  0
LWPOLYLINE
  5
27A
330
1F
100
AcDbEntity
  8
0
  6
Continuous
 62
     7
370
    15
100
AcDbPolyline
 90
        9
 70
   128
 43
0.0
 10
57.9213870256
 20
139.5203820611
 10
57.9455450276
 20
139.624836599
 10
57.9668830234
 20
139.7308794612
 10
57.9838239275
 20
139.8306730489
 10
57.9951156424
 20
139.9168416451
 10
57.9999236006
 20
139.9830165526
 10
57.9978924471
 20
140.0243068019
 10
57.9891723039
 20
140.0376606421
 10
57.9744076745
 20
140.0220910945
  0
LINE
  5
27B
330
1F
100
AcDbEntity
  8
0
  6
Continuous
 62
     7
370
    15
100
AcDbLine
 10
54.5941552215
 20
126.063227662
 30
0.0
 11
57.9213870256
 21
139.5203820611
 31
0.0
  0
ARC
  5
27C
330
1F
100
AcDbEntity
  8
0
  6
Continuous
 62
     7
370
    15
100
AcDbCircle
 10
53.3933351923
 20
126.3145958344
 30
0.0
 40
1.226847464352385
100
AcDbArc
 50
335.8882926006
 51
348.176969014
  0
LWPOLYLINE
  5
27D
330
1F
100
AcDbEntity
  8
0
  6
Continuous
 62
     7
370
    15
100
AcDbPolyline
 90
        9
 70
   128
 43
0.0
 10
57.9206871887
 20
139.5266792909
 10
57.9436372906
 20
139.6259111019
 10
57.9639083866
 20
139.7266518211
 10
57.9800022455
 20
139.8214557293
 10
57.9907293747
 20
139.9033158958
 10
57.9952969349
 20
139.9661820578
 10
57.9933673391
 20
140.0054077947
 10
57.9850832031
 20
140.0180939429
 10
57.9710568052
 20
140.0033028727
  0
LINE
  5
27E
330
1F
100
AcDbEntity
  8
0
  6
Continuous
 62
     7
370
    15
100
AcDbLine
 10
57.9710568052
 20
140.0033028727
 30
0.0
 11
55.6462321724
 21
136.0314479482
 31
0.0
  0
ARC
  5
27F
330
1F
100
AcDbEntity
  8
0
  6
Continuous
 62
     7
370
    15
100
AcDbCircle
 10
56.7100477997
 20
135.5553193305
 30
0.0
 40
1.165505104827895
100
AcDbArc
 50
155.888292632
 51
168.1769688875
  0
LINE
  5
280
330
1F
100
AcDbEntity
  8
0
  6
Continuous
 62
     7
370
    15
100
AcDbLine
 10
55.569268759
 20
135.7941190997
 30
0.0
 11
52.2420369549
 21
122.3369647006
 31
0.0
  0
LWPOLYLINE
  5
281
330
1F
100
AcDbEntity
  8
0
  6
Continuous
 62
     7
370
    15
100
AcDbPolyline
 90
        9
 70
   128
 43
0.0
 10
52.2420369549
 20
122.3369647006
 10
52.219086853
 20
122.2377328896
 10
52.198815757
 20
122.1369921704
 10
52.1827218981
 20
122.0421882622
 10
52.1719947689
 20
121.9603280958
 10
52.1674272087
 20
121.8974619337
 10
52.1693568045
 20
121.8582361968
 10
52.1776409405
 20
121.8455500486
 10
52.1916673384
 20
121.8603411188
  0
LINE
  5
282
330
1F
100
AcDbEntity
  8
0
  6
Continuous
 62
     7
370
    15
100
AcDbLine
 10
52.1916673384
 20
121.8603411188
 30
0.0
 11
54.5164919713
 21
125.832196043
 31
0.0
  0
ARC
  5
283
330
1F
100
AcDbEntity
  8
0
  6
Continuous
 62
     7
370
    15
100
AcDbCircle
 10
53.4526763568
 20
126.3083246557
 30
0.0
 40
1.165505091136081
100
AcDbArc
 50
335.8882926006
 51
348.176969014
  0
LINE
  5
284
330
1F
100
AcDbEntity
  8
0
  6
Continuous
 62
     7
370
    15
100
AcDbLine
 10
54.5934553846
 20
126.0695248919
 30
0.0
 11
57.9206871887
 21
139.5266792909
 31
0.0
  0
ARC
  5
285
330
1F
100
AcDbEntity
  8
0
  6
Continuous
 62
     7
370
    15
100
AcDbCircle
 10
61.461070414
 20
138.9452473854
 30
0.0
 40
1.164987364096284
100
AcDbArc
 50
339.4413735974
 51
5.3241809264
  0
LINE
  5
286
330
1F
100
AcDbEntity
  8
0
  6
Continuous
 62
     7
370
    15
100
AcDbLine
 10
57.9940933409
 20
139.9414122539
 30
0.0
 11
57.9710568052
 21
140.0033028727
 31
0.0
  0
LINE
  5
287
330
1F
100
AcDbEntity
  8
0
  6
Continuous
 62
     7
370
    15
100
AcDbLine
 10
59.2246318413
 20
125.0789894728
 30
0.0
 11
62.5518636454
 21
138.5361438719
 31
0.0
  0
LINE
  5
288
330
1F
100
AcDbEntity
  8
0
  6
Continuous
 62
     7
370
    15
100
AcDbLine
 10
55.7959888992
 20
135.6291072227
 30
0.0
 11
55.6462321724
 21
136.0314479482
 31
0.0
  0
LINE
  5
289
330
1F
100
AcDbEntity
  8
0
  6
Continuous
 62
     7
370
    15
100
AcDbLine
 10
55.9746339887
 20
135.286165458
 30
0.0
 11
55.7959888992
 21
135.6291072227
 31
0.0
  0
LWPOLYLINE
  5
28A
330
1F
100
AcDbEntity
  8
0
  6
Continuous
 62
     7
370
    15
100
AcDbPolyline
 90
        9
 70
   128
 43
0.0
 10
56.6979797868
 20
135.4941538702
 10
56.7583747917
 20
135.755290215
 10
56.8117197812
 20
136.0203973707
 10
56.8540720415
 20
136.2698813399
 10
56.8823013288
 20
136.4853028305
 10
56.8943212242
 20
136.6507400992
 10
56.8892433403
 20
136.7539657227
 10
56.8674429824
 20
136.7873503232
 10
56.8305314089
 20
136.7484264539
  0
LWPOLYLINE
  5
28B
330
1F
100
AcDbEntity
  8
0
  6
Continuous
 62
     7
370
    15
100
AcDbPolyline
 90
        3
 70
   128
 43
0.0
 10
57.3045007294
 20
137.2814464754
 10
57.3576555763
 20
137.3502185557
 10
57.3775398031
 20
137.3819827571
  0
LINE
  5
28C
330
1F
100
AcDbEntity
  8
0
  6
Continuous
 62
     7
370
    15
100
AcDbLine
 10
54.8358483736
 20
127.9626708201
 30
0.0
 11
56.6979797868
 21
135.4941538702
 31
0.0
  0
LINE
  5
28D
330
1F
100
AcDbEntity
  8
0
  6
Continuous
 62
     7
370
    15
100
AcDbLine
 10
53.3321927347
 20
125.1152175376
 30
0.0
 11
54.6333130755
 21
127.3381212178
 31
0.0
  0
LWPOLYLINE
  5
28E
330
1F
100
AcDbEntity
  8
0
  6
Continuous
 62
     7
370
    15
100
AcDbPolyline
 90
        9
 70
   128
 43
0.0
 10
53.4647443569
 20
126.3694901212
 10
53.404349352
 20
126.1083537764
 10
53.3510043626
 20
125.8432466208
 10
53.3086521022
 20
125.5937626518
 10
53.2804228149
 20
125.3783411612
 10
53.2684029195
 20
125.2129038925
 10
53.2734808033
 20
125.1096782691
 10
53.2952811612
 20
125.0762936686
 10
53.3321927347
 20
125.1152175376
  0
LINE
  5
28F
330
1F
100
AcDbEntity
  8
0
  6
Continuous
 62
     7
370
    15
100
AcDbLine
 10
55.32687577
 20
133.9009731714
 30
0.0
 11
53.4647443569
 21
126.3694901212
 31
0.0
  0
ARC
  5
290
330
1F
100
AcDbEntity
  8
0
  6
Continuous
 62
     7
370
    15
100
AcDbCircle
 10
58.3289258431
 20
133.2725527404
 30
0.0
 40
3.067118660879231
100
AcDbArc
 50
155.8882926006
 51
168.176969014
  0
LINE
  5
291
330
1F
100
AcDbEntity
  8
0
  6
Continuous
 62
     7
370
    15
100
AcDbLine
 10
56.8305314089
 20
136.7484264539
 30
0.0
 11
55.5294110681
 21
134.5255227737
 31
0.0
  0
ARC
  5
292
330
1F
100
AcDbEntity
  8
0
  6
Continuous
 62
     7
370
    15
100
AcDbCircle
 10
51.8337983004
 20
128.5910912512
 30
0.0
 40
3.067118660881025
100
AcDbArc
 50
335.8882926006
 51
348.176969014
  0
LWPOLYLINE
  5
293
330
1F
100
AcDbEntity
  8
0
  6
Continuous
 62
     7
370
    15
100
AcDbPolyline
 90
       23
 70
   128
 43
0.0
 10
55.1716410139
 20
130.1194793497
 10
55.3344622777
 20
130.8257142699
 10
55.4767788682
 20
131.540545407
 10
55.5870611414
 20
132.2060613935
 10
55.6563746835
 20
132.7683460822
 10
55.6791041236
 20
133.1818465117
 10
55.6534080576
 20
133.4130633362
 10
55.5813682278
 20
133.4432647439
 10
55.468820873
 20
133.2700039963
 10
55.3248839105
 20
132.9073176486
 10
55.1612182568
 20
132.3845883919
 10
54.99108313
 20
131.7441646417
 10
54.8282618662
 20
131.0379297216
 10
54.6859452757
 20
130.3230985845
 10
54.5756630025
 20
129.6575825979
 10
54.5063494604
 20
129.0952979092
 10
54.4836200203
 20
128.6817974798
 10
54.5093160864
 20
128.4505806552
 10
54.5813559161
 20
128.4203792475
 10
54.6939032709
 20
128.5936399952
 10
54.8378402334
 20
128.9563263428
 10
55.0015058871
 20
129.4790555995
 10
55.1716410139
 20
130.1194793497
  0
ARC
  5
294
330
1F
100
AcDbEntity
  8
0
  6
Continuous
 62
     7
370
    15
100
AcDbCircle
 10
58.023811812
 20
125.3303576453
 30
0.0
 40
1.226847464352382
100
AcDbArc
 50
335.8882926006
 51
348.176969014
  0
LINE
  5
295
330
1F
100
AcDbEntity
  8
0
  6
Continuous
 62
     7
370
    15
100
AcDbLine
 10
59.0987953816
 20
124.7525927448
 30
0.0
 11
59.143617722
 21
124.8291696319
 31
0.0
  0
LINE
  5
296
330
1F
100
AcDbEntity
  8
0
  6
Continuous
 62
     7
370
    15
100
AcDbLine
 10
52.4023511073
 20
122.220284554
 30
0.0
 11
52.2420369549
 21
122.3369647006
 31
0.0
  0
LINE
  5
297
330
1F
100
AcDbEntity
  8
0
  6
Continuous
 62
     7
370
    15
100
AcDbLine
 10
55.7959888992
 20
135.6291072227
 30
0.0
 11
55.569268759
 21
135.7941190997
 31
0.0
  0
LINE
  5
298
330
1F
100
AcDbEntity
  8
0
  6
Continuous
 62
     7
370
    15
100
AcDbLine
 10
59.2961684821
 20
125.3683229721
 30
0.0
 11
62.2878811127
 21
137.4684533981
 31
0.0
  0
LINE
  5
299
330
1F
100
AcDbEntity
  8
0
  6
Continuous
 62
     7
370
    15
100
AcDbLine
 10
59.093633184
 20
124.7437733699
 30
0.0
 11
59.0986345207
 21
124.7526269368
 31
0.0
  0
LINE
  5
29A
330
1F
100
AcDbEntity
  8
0
  6
Continuous
 62
     7
370
    15
100
AcDbLine
 10
63.6348083401
 20
124.4461166015
 30
0.0
 11
66.6265209707
 21
136.5462470276
 31
0.0
  0
LINE
  5
29B
330
1F
100
AcDbEntity
  8
0
  6
Continuous
 62
     7
370
    15
100
AcDbLine
 10
66.9078601811
 20
136.5786736562
 30
0.0
 11
63.9161475505
 21
124.4785432301
 31
0.0
  0
ARC
  5
29C
330
1F
100
AcDbEntity
  8
0
  6
Continuous
 62
     7
370
    15
100
AcDbCircle
 10
63.8995378921
 20
137.5690058113
 30
0.0
 40
2.912468410240757
100
AcDbArc
 50
339.4413735974
 51
5.3241809264
  0
ARC
  5
29D
330
1F
100
AcDbEntity
  8
0
  6
Continuous
 62
     7
370
    15
100
AcDbCircle
 10
64.0509368612
 20
137.4432874348
 30
0.0
 40
2.984889921229589
100
AcDbArc
 50
343.1621863214
 51
0.6737930547
  0
ARC
  5
29E
330
1F
100
AcDbEntity
  8
0
  6
Continuous
 62
     7
370
    15
100
AcDbCircle
 10
60.5166722602
 20
125.1069737643
 30
0.0
 40
3.18739781049668
100
AcDbArc
 50
336.3905530325
 51
348.0338140695
  0
ARC
  5
29F
330
1F
100
AcDbEntity
  8
0
  6
Continuous
 62
     7
370
    15
100
AcDbCircle
 10
61.8147124993
 20
124.9184375319
 30
0.0
 40
2.146983062615246
100
AcDbArc
 50
335.8882926006
 51
348.176969014
  0
LINE
  5
2A0
330
1F
100
AcDbEntity
  8
0
  6
Continuous
 62
     7
370
    15
100
AcDbLine
 10
63.7743728418
 20
124.0413585085
 30
0.0
 11
63.6272677177
 21
123.7900362354
 31
0.0
  0
LWPOLYLINE
  5
2A1
330
1F
100
AcDbEntity
  8
0
  6
Continuous
 62
     7
370
    15
100
AcDbPolyline
 90
       27
 70
   128
 43
0.0
 10
52.3386075105
 20
120.1651425926
 10
52.4594613276
 20
120.3187806731
 10
52.5400301501
 20
120.2738454845
 10
52.5756316109
 20
120.0329484966
 10
52.5641966825
 20
119.6100897667
 10
52.5063899213
 20
119.0298443072
 10
52.4055708463
 20
118.3259338751
 10
52.2675986955
 20
117.5392671861
 10
52.1004919089
 20
116.7155624487
 10
51.9139621255
 20
115.9026903883
 10
51.7188497783
 20
115.1478921742
 10
51.5264940877
 20
114.4950339352
 10
51.3480740673
 20
113.982057419
 10
51.1939588401
 20
113.6387749562
 10
51.073105023
 20
113.4851368757
 10
50.9925362005
 20
113.5300720643
 10
50.9569347397
 20
113.7709690522
 10
50.9683696681
 20
114.193827782
 10
51.0261764293
 20
114.7740732415
 10
51.1269955043
 20
115.4779836736
 10
51.2649676551
 20
116.2646503626
 10
51.4320744417
 20
117.0883551
 10
51.6186042251
 20
117.9012271605
 10
51.8137165723
 20
118.6560253746
 10
52.0060722629
 20
119.3088836136
 10
52.1844922833
 20
119.8218601298
 10
52.3386075105
 20
120.1651425926
  0
LWPOLYLINE
  5
2A2
330
1F
100
AcDbEntity
  8
0
  6
Continuous
 62
     7
370
    15
100
AcDbPolyline
 90
       20
 70
   128
 43
0.0
 10
52.0933256526
 20
118.7666352419
 10
52.1821979821
 20
118.8582343383
 10
52.2259994888
 20
118.7378406225
 10
52.2199835996
 20
118.4185006219
 10
52.1648022296
 20
117.9348197805
 10
52.0664351364
 20
117.3392124226
 10
51.9355419209
 20
116.6962218473
 10
51.786306894
 20
116.0755260603
 10
51.6349019864
 20
115.5443870813
 10
51.4977342693
 20
115.1603620602
 10
51.3896679931
 20
114.9650660667
 10
51.3224138156
 20
114.979662452
 10
51.3032597707
 20
115.2025694714
 10
51.3342814962
 20
115.6096316905
 10
51.4121173068
 20
116.1567376017
 10
51.5283324847
 20
116.7845997902
 10
51.6703333121
 20
117.4251796457
 10
51.822731796
 20
118.0090604011
 10
51.969013196
 20
118.4729695169
 10
52.0933256526
 20
118.7666352419
  0
LINE
  5
2A3
330
1F
100
AcDbEntity
  8
0
  6
Continuous
 62
     7
370
    15
100
AcDbLine
 10
51.742642301
 20
116.3327727474
 30
0.0
 11
51.8016745177
 21
116.1503926308
 31
0.0
  0
LINE
  5
2A4
330
1F
100
AcDbEntity
  8
0
  6
Continuous
 62
     7
370
    15
100
AcDbLine
 10
52.1710606327
 20
117.9794587639
 30
0.0
 11
52.1300736372
 21
117.9881708187
 31
0.0
  0
LINE
  5
2A5
330
1F
100
AcDbEntity
  8
0
  6
Continuous
 62
     7
370
    15
100
AcDbLine
 10
51.8457661503
 20
116.3108530966
 30
0.0
 11
51.742642301
 21
116.3327727474
 31
0.0
  0
ELLIPSE
  5
2A6
330
1F
100
AcDbEntity
  8
0
  6
Continuous
 62
     7
370
    15
100
AcDbEllipse
 10
55.236439301
 20
130.2607087204
 30
0.0
 11
0.4894004708222539
 21
2.301289617184722
 31
0.0
210
0.0
220
0.0
230
1.0
 40
0.1044270979
 41
0.3313728851227396
 42
1.393051451974533
  0
SPLINE
  5
2A7
330
1F
100
AcDbEntity
  8
0
  6
Continuous
 62
     7
370
    15
100
AcDbSpline
210
0.0
220
0.0
230
1.0
 70
     8
 71
     3
 72
    35
 73
    31
 74
     0
 42
0.00000001
 43
0.00000001
 40
0.0
 40
0.0
 40
0.0
 40
0.0
 40
0.0296396243349588
 40
0.0591056842041536
 40
0.0884089658071178
 40
0.1175604360304277
 40
0.1465712339279107
 40
0.1754526613183116
 40
0.2042161725183636
 40
0.2328733632389192
 40
0.2614359586816185
 40
0.2899158008834726
 40
0.3183248353663964
 40
0.3466750971579857
 40
0.37497869625848
 40
0.4032478026366738
 40
0.4314946308443145
 40
0.4597314243441534
 40
0.4879704396510529
 40
0.5162239303883809
 40
0.566709898287161
 40
0.6165134408728782
 40
0.6657104314600317
 40
0.7143795802188914
 40
0.7626021820599985
 40
0.8104618074771932
 40
0.8580439395348995
 40
0.905435562914714
 40
0.9527247135872067
 40
1.0
 40
1.0
 40
1.0
 40
1.0
 10
78.53332096202014
 20
124.4423366249359
 30
0.0
 10
78.47173546876887
 20
124.6014250911633
 30
0.0
 10
78.34892511616351
 20
124.9186704293329
 30
0.0
 10
78.15320411059471
 20
125.3887635511128
 30
0.0
 10
77.94975050435023
 20
125.8527596047041
 30
0.0
 10
77.73771148106731
 20
126.3103575873097
 30
0.0
 10
77.51731358672929
 20
126.7616372114647
 30
0.0
 10
77.28849648915342
 20
127.2065769804918
 30
0.0
 10
77.05127617414001
 20
127.645182302726
 30
0.0
 10
76.80564834561065
 20
128.0774514183023
 30
0.0
 10
76.55161413424581
 20
128.5033844692047
 30
0.0
 10
76.28917325341861
 20
128.9229810864829
 30
0.0
 10
76.01832582221189
 20
129.336241036663
 30
0.0
 10
75.73907188435057
 20
129.7431640490076
 30
0.0
 10
75.4514115199246
 20
130.1437498765663
 30
0.0
 10
75.15534487733817
 20
130.5379982378348
 30
0.0
 10
74.85087193279338
 20
130.9259090027479
 30
0.0
 10
74.53799341580138
 20
131.3074815211906
 30
0.0
 10
74.21670734325019
 20
131.6827171353382
 30
0.0
 10
73.8006625923188
 20
132.1482393170821
 30
0.0
 10
73.28362457729548
 20
132.693527649447
 30
0.0
 10
72.65680025359451
 20
133.3048961030313
 30
0.0
 10
72.012638239756
 20
133.8848437139725
 30
0.0
 10
71.35113982855657
 20
134.4333535777464
 30
0.0
 10
70.67231285291159
 20
134.9504350397393
 30
0.0
 10
69.97613121984664
 20
135.436022903742
 30
0.0
 10
69.26270493157429
 20
135.8903215528915
 30
0.0
 10
68.53164536158819
 20
136.3125400166038
 30
0.0
 10
67.78442264968464
 20
136.7055870920313
 30
0.0
 10
67.27211209651291
 20
136.9408132109119
 30
0.0
 10
67.0159943753061
 20
137.0584090268932
 30
0.0
  0
LINE
  5
2A8
330
1F
100
AcDbEntity
  8
0
  6
Continuous
 62
     7
370
    15
100
AcDbLine
 10
67.0152622845
 20
137.0586726473
 30
0.0
 11
67.0554561181
 21
137.428091167
 31
0.0
  0
SPLINE
  5
2A9
330
1F
100
AcDbEntity
  8
0
  6
Continuous
 62
     7
370
    15
100
AcDbSpline
210
0.0
220
0.0
230
1.0
 70
     8
 71
     3
 72
    42
 73
    38
 74
     0
 42
0.00000001
 43
0.00000001
 40
0.0
 40
0.0
 40
0.0
 40
0.0
 40
0.0252895669390763
 40
0.0507314274462614
 40
0.076329898765295
 40
0.1020892193957967
 40
0.1280135489426615
 40
0.1541069680970451
 40
0.1803734787417123
 40
0.2068170041734844
 40
0.2334413894354067
 40
0.2602504017513343
 40
0.2872477310556795
 40
0.3144369906111679
 40
0.341821717707602
 40
0.3694053744347966
 40
0.3971913485230629
 40
0.4251829542447846
 40
0.4533834333710187
 40
0.4817959561770581
 40
0.5104236224914682
 40
0.5392694627830888
 40
0.568336439280986
 40
0.5976274471225045
 40
0.6271453155249065
 40
0.6568928089763185
 40
0.6868726284420242
 40
0.7170874125823833
 40
0.7475397389789288
 40
0.7782321253654414
 40
0.8091670308610666
 40
0.840346857202753
 40
0.8717739499745129
 40
0.903450599831262
 40
0.9353790437151581
 40
0.9675614660625734
 40
1.0
 40
1.0
 40
1.0
 40
1.0
 10
67.05516091902211
 20
137.4252166083582
 30
0.0
 10
67.18945114092978
 20
137.3646911023885
 30
0.0
 10
67.45884027937821
 20
137.2432756063405
 30
0.0
 10
67.85838052414995
 20
137.0496528779101
 30
0.0
 10
68.25588252544374
 20
136.8469199028154
 30
0.0
 10
68.65075921029256
 20
136.6342491793486
 30
0.0
 10
69.04293460602135
 20
136.4118328369638
 30
0.0
 10
69.43219122720538
 20
136.1795922049591
 30
0.0
 10
69.81834666579455
 20
135.9375269558969
 30
0.0
 10
70.20120590762751
 20
135.6856207856479
 30
0.0
 10
70.58057432488114
 20
135.4238670601392
 30
0.0
 10
70.95625425606582
 20
135.1522620018686
 30
0.0
 10
71.32804603221628
 20
134.8708066597701
 30
0.0
 10
71.69574780446413
 20
134.5795065007624
 30
0.0
 10
72.05915570090255
 20
134.278371643933
 30
0.0
 10
72.41806389917046
 20
133.9674169194197
 30
0.0
 10
72.77226472676865
 20
133.646661973293
 30
0.0
 10
73.1215487588126
 20
133.3161313583642
 30
0.0
 10
73.46570492145763
 20
132.9758546270342
 30
0.0
 10
73.80452059879492
 20
132.6258664216588
 30
0.0
 10
74.13778174383276
 20
132.2662065634969
 30
0.0
 10
74.46527299343417
 20
131.896920139793
 30
0.0
 10
74.78677778718767
 20
131.5180575889244
 30
0.0
 10
75.10207849050168
 20
131.1296747835653
 30
0.0
 10
75.4109565208097
 20
130.7318331113201
 30
0.0
 10
75.71319248110767
 20
130.3245995542678
 30
0.0
 10
76.00856628487242
 20
129.908046761313
 30
0.0
 10
76.29685733255924
 20
129.4822531357248
 30
0.0
 10
76.57784451232047
 20
129.0473028526808
 30
0.0
 10
76.85130688340979
 20
128.6032861277927
 30
0.0
 10
77.11702180038232
 20
128.1502985238331
 30
0.0
 10
77.37477272058422
 20
127.6884438748838
 30
0.0
 10
77.62432046136564
 20
127.2178235339118
 30
0.0
 10
77.86551251010532
 20
126.7385772546469
 30
0.0
 10
78.09787097927891
 20
126.2507290534227
 30
0.0
 10
78.3221495631789
 20
125.7547695790397
 30
0.0
 10
78.46312422650439
 20
125.4192315021582
 30
0.0
 10
78.53389091990404
 20
125.2507975463646
 30
0.0
  0
LINE
  5
2AA
330
1F
100
AcDbEntity
  8
0
  6
Continuous
 62
     7
370
    15
100
AcDbLine
 10
78.5333209677
 20
125.2534814051
 30
0.0
 11
78.5333209677
 21
124.435582969
 31
0.0
  0
ARC
  5
2AB
330
1F
100
AcDbEntity
  8
0
  6
Continuous
 62
     7
370
    15
100
AcDbCircle
 10
58.0333209677
 20
113.0376822581
 30
0.0
 40
20.5
100
AcDbArc
 50
238.4770140629
 51
0.0
  0
LINE
  5
2AC
330
1F
100
AcDbEntity
  8
0
  6
Continuous
 62
     7
370
    15
100
AcDbLine
 10
54.7601555235
 20
125.6747991153
 30
0.0
 11
47.3150889736
 21
95.5628574258
 31
0.0
  0
LINE
  5
2AD
330
1F
100
AcDbEntity
  8
0
  6
Continuous
 62
     7
370
    15
100
AcDbLine
 10
54.7601555235
 20
125.6747991153
 30
0.0
 11
63.7292720013
 21
123.7683545556
 31
0.0
  0
LINE
  5
2AE
330
1F
100
AcDbEntity
  8
0
  6
Continuous
 62
     7
370
    15
100
AcDbLine
 10
63.7292720013
 20
123.7683545556
 30
0.0
 11
63.8300688583
 21
124.1760324534
 31
0.0
  0
LINE
  5
2AF
330
1F
100
AcDbEntity
  8
0
  6
Continuous
 62
     7
370
    15
100
AcDbLine
 10
66.9869405056
 20
136.944156731
 30
0.0
 11
67.0152291785
 21
137.0585716745
 31
0.0
  0
LINE
  5
2B0
330
1F
100
AcDbEntity
  8
0
  6
Continuous
 62
     7
370
    15
100
AcDbLine
 10
78.5333209677
 20
124.442336625
 30
0.0
 11
78.5333209677
 21
113.0376822581
 31
0.0
  0
LINE
  5
2B1
330
1F
100
AcDbEntity
  8
0
  6
Continuous
 62
     7
370
    15
100
AcDbLine
 10
67.0546272185
 20
137.4247603918
 30
0.0
 11
67.0455452909
 21
137.4092443403
 31
0.0
  0
LWPOLYLINE
  5
2B2
330
1F
100
AcDbEntity
  8
0
  6
Continuous
 62
     7
370
    15
100
AcDbPolyline
 90
       27
 70
   128
 43
0.0
 10
51.0385922574
 20
113.4784421718
 10
51.1453779231
 20
113.5597199367
 10
51.2882483452
 20
113.8352364742
 10
51.458900414
 20
114.2889797648
 10
51.6474164516
 20
114.8945798976
 10
51.8428405911
 20
115.6168415942
 10
52.0338154919
 20
116.4137896301
 10
52.2092423869
 20
117.2391082823
 10
52.3589261026
 20
118.0448330305
 10
52.4741675655
 20
118.7841380812
 10
52.5482693607
 20
119.414057712
 10
52.5769249613
 20
119.8979832836
 10
52.5584690078
 20
120.2077908009
 10
52.4939740932
 20
120.325475377
 10
52.3871884275
 20
120.2441976121
 10
52.2443180054
 20
119.9686810745
 10
52.0736659366
 20
119.5149377839
 10
51.885149899
 20
118.9093376511
 10
51.6897257595
 20
118.1870759545
 10
51.4987508587
 20
117.3901279186
 10
51.3233239637
 20
116.5648092665
 10
51.173640248
 20
115.7590845182
 10
51.0583987851
 20
115.0197794676
 10
50.9842969899
 20
114.3898598368
 10
50.9556413893
 20
113.9059342652
 10
50.9740973428
 20
113.5961267479
 10
51.0385922574
 20
113.4784421718
  0
ARC
  5
2B3
330
1F
100
AcDbEntity
  8
0
  6
Continuous
 62
     7
370
    15
100
AcDbCircle
 10
65.1853091629
 20
120.8084616426
 30
0.0
 40
13.0245121293195
100
AcDbArc
 50
159.3528320239
 51
172.8718605247
  0
LWPOLYLINE
  5
2B4
330
1F
100
AcDbEntity
  8
0
  6
Continuous
 62
     7
370
    15
100
AcDbPolyline
 90
        4
 70
   128
 43
0.0
 10
52.1953617665
 20
121.8211285567
 10
52.1945567791
 20
121.553556329
 10
52.238266481
 20
121.4334025603
 10
52.3248968407
 20
121.5142727452
  0
ARC
  5
2B5
330
1F
100
AcDbEntity
  8
0
  6
Continuous
 62
     7
370
    15
100
AcDbCircle
 10
58.0333209677
 20
113.0376822581
 30
0.0
 40
20.49999999999986
100
AcDbArc
 50
234.7348613468
 51
238.4770140629
  0
SPLINE
  5
2B6
330
1F
100
AcDbEntity
  8
0
  6
Continuous
 62
     7
370
    15
100
AcDbSpline
210
0.0
220
0.0
230
1.0
 70
     8
 71
     3
 72
     8
 73
     4
 74
     0
 42
0.00000001
 43
0.00000001
 40
0.0
 40
0.0
 40
0.0
 40
0.0
 40
1.0
 40
1.0
 40
1.0
 40
1.0
 10
46.19742164887131
 20
96.2996570664966
 30
0.0
 10
46.21961576220048
 20
96.48849265704145
 30
0.0
 10
46.24190400702233
 20
96.67760901472288
 30
0.0
 10
46.26429422630446
 20
96.86702953285476
 30
0.0
  0
ARC
  5
2B7
330
1F
100
AcDbEntity
  8
0
  6
Continuous
 62
     7
370
    15
100
AcDbCircle
 10
58.0333209677
 20
113.0376822581
 30
0.0
 40
19.99999999999983
100
AcDbArc
 50
233.3251641078
 51
233.9528127684
  0
LINE
  5
2B8
330
1F
100
AcDbEntity
  8
0
  6
Continuous
 62
     7
370
    15
100
AcDbLine
 10
53.7020418424
 20
132.5630509137
 30
0.0
 11
53.6449663323
 21
132.550302369
 31
0.0
  0
SPLINE
  5
2B9
330
1F
100
AcDbEntity
  8
0
  6
Continuous
 62
     7
370
    15
100
AcDbSpline
210
0.0
220
0.0
230
1.0
 70
     8
 71
     3
 72
    14
 73
    10
 74
     0
 42
0.00000001
 43
0.00000001
 40
0.0
 40
0.0
 40
0.0
 40
0.0
 40
0.25
 40
0.25
 40
0.5
 40
0.5
 40
0.75
 40
0.75
 40
1.0
 40
1.0
 40
1.0
 40
1.0
 10
53.70204184241291
 20
132.5630509137049
 30
0.0
 10
53.71008745258516
 20
132.4460992382588
 30
0.0
 10
53.72423790414668
 20
132.3542214614279
 30
0.0
 10
53.76476326889564
 20
132.220674404906
 30
0.0
 10
53.79144539335253
 20
132.1792583988857
 30
0.0
 10
53.85544291116231
 20
132.1504733951741
 30
0.0
 10
53.89282844726542
 20
132.1622718361269
 30
0.0
 10
53.97834361367499
 20
132.2381073658275
 30
0.0
 10
54.02677805995206
 20
132.3027729861375
 30
0.0
 10
54.07985002281762
 20
132.3934439701185
 30
0.0
  0
LINE
  5
2BA
330
1F
100
AcDbEntity
  8
0
  6
Continuous
 62
     7
370
    15
100
AcDbLine
 10
52.3248968407
 20
121.5142727452
 30
0.0
 11
54.7601555235
 21
125.6747991153
 31
0.0
  0
LINE
  5
2BB
330
1F
100
AcDbEntity
  8
0
  6
Continuous
 62
     7
370
    15
100
AcDbLine
 10
54.0798500228
 20
132.3934439701
 30
0.0
 11
55.1989072298
 21
134.3053012411
 31
0.0
  0
SPLINE
  5
2BC
330
1F
100
AcDbEntity
  8
0
  6
Continuous
 62
     7
370
    15
100
AcDbSpline
210
0.0
220
0.0
230
1.0
 70
     8
 71
     3
 72
     9
 73
     5
 74
     0
 42
0.00000001
 43
0.00000001
 40
0.0
 40
0.0
 40
0.0
 40
0.0
 40
0.5301175048113846
 40
1.0
 40
1.0
 40
1.0
 40
1.0
 10
53.702041842429
 20
132.563050913704
 30
0.0
 10
53.79409770061552
 20
132.5835336579526
 30
0.0
 10
53.96774949922809
 20
132.6221717788648
 30
0.0
 10
54.15467737721671
 20
132.6556246548491
 30
0.0
 10
54.24251151494632
 20
132.6713435756879
 30
0.0
  0
SPLINE
  5
2BD
330
1F
100
AcDbEntity
  8
0
  6
Continuous
 62
     7
370
    15
100
AcDbSpline
210
0.0
220
0.0
230
1.0
 70
     8
 71
     3
 72
    42
 73
    38
 74
     0
 42
0.00000001
 43
0.00000001
 40
0.0
 40
0.0
 40
0.0
 40
0.0
 40
0.0625000000000004
 40
0.0625000000000004
 40
0.1250000000000008
 40
0.1250000000000008
 40
0.1875000000000012
 40
0.1875000000000012
 40
0.2500000000000016
 40
0.2500000000000016
 40
0.3750000000000019
 40
0.3750000000000019
 40
0.4375000000000029
 40
0.4375000000000029
 40
0.5000000000000039
 40
0.5000000000000039
 40
0.5312500000000046
 40
0.5312500000000046
 40
0.5625000000000052
 40
0.5625000000000052
 40
0.5937500000000058
 40
0.5937500000000058
 40
0.6250000000000064
 40
0.6250000000000064
 40
0.656250000000007
 40
0.656250000000007
 40
0.6875000000000075
 40
0.6875000000000075
 40
0.750000000000006
 40
0.750000000000006
 40
0.8125000000000044
 40
0.8125000000000044
 40
0.875000000000003
 40
0.875000000000003
 40
0.9375000000000014
 40
0.9375000000000014
 40
1.0
 40
1.0
 40
1.0
 40
1.0
 10
46.50963007089196
 20
120.2123961509629
 30
0.0
 10
46.70409715214927
 20
120.1619282696358
 30
0.0
 10
46.89788746149545
 20
120.1512045024579
 30
0.0
 10
47.28339044572026
 20
120.1852696561003
 30
0.0
 10
47.47008591853805
 20
120.2302358693847
 30
0.0
 10
47.82499073217654
 20
120.3556735229717
 30
0.0
 10
47.99638987840237
 20
120.4375190797547
 30
0.0
 10
48.3195267376692
 20
120.6247016270436
 30
0.0
 10
48.47184828657119
 20
120.7300279754316
 30
0.0
 10
48.90741950025106
 20
121.0742256535749
 30
0.0
 10
49.171911920046
 20
121.3432786502621
 30
0.0
 10
49.52175488485021
 20
121.7856722817942
 30
0.0
 10
49.63088383812177
 20
121.940048693826
 30
0.0
 10
49.83302683465173
 20
122.2663318026535
 30
0.0
 10
49.92699849130858
 20
122.4396235421913
 30
0.0
 10
50.04821472538702
 20
122.7154706097726
 30
0.0
 10
50.08498111070872
 20
122.8093837839521
 30
0.0
 10
50.14907310159279
 20
123.0024700084887
 30
0.0
 10
50.17665000030429
 20
123.1026961662748
 30
0.0
 10
50.21706670137015
 20
123.3054217233453
 30
0.0
 10
50.22984665044878
 20
123.4069906207074
 30
0.0
 10
50.23576995624341
 20
123.610755261568
 30
0.0
 10
50.2286058650694
 20
123.7089075036232
 30
0.0
 10
50.19329622494331
 20
123.8950942405828
 30
0.0
 10
50.16478218440425
 20
123.9835228921325
 30
0.0
 10
50.09116391491578
 20
124.1432883325844
 30
0.0
 10
50.04535749174611
 20
124.2166180267906
 30
0.0
 10
49.89095626455627
 20
124.4133140447296
 30
0.0
 10
49.76311578359913
 20
124.5182870353673
 30
0.0
 10
49.47923224852852
 20
124.6883720325848
 30
0.0
 10
49.32406326445759
 20
124.7532909354941
 30
0.0
 10
48.98906203152401
 20
124.8513632567205
 30
0.0
 10
48.81114787507211
 20
124.8833682787801
 30
0.0
 10
48.44474579417823
 20
124.9138808505561
 30
0.0
 10
48.2529297839268
 20
124.9124206417948
 30
0.0
 10
47.8679005023177
 20
124.8741901989503
 30
0.0
 10
47.67449429396764
 20
124.8378160448513
 30
0.0
 10
47.4809899851492
 20
124.7822852507179
 30
0.0
  0
SPLINE
  5
2BE
330
1F
100
AcDbEntity
  8
0
  6
Continuous
 62
     7
370
    15
100
AcDbSpline
210
0.0
220
0.0
230
1.0
 70
     8
 71
     3
 72
    20
 73
    16
 74
     0
 42
0.00000001
 43
0.00000001
 40
0.0
 40
0.0
 40
0.0
 40
0.0
 40
0.1250000000000004
 40
0.1250000000000004
 40
0.2500000000000008
 40
0.2500000000000008
 40
0.3750000000000012
 40
0.3750000000000012
 40
0.5000000000000017
 40
0.5000000000000017
 40
0.6250000000000021
 40
0.6250000000000021
 40
0.7500000000000024
 40
0.7500000000000024
 40
1.0
 40
1.0
 40
1.0
 40
1.0
 10
53.64496633231278
 20
132.5503023690006
 30
0.0
 10
53.60782566098962
 20
132.5419494960273
 30
0.0
 10
53.54228738521793
 20
132.5271568317806
 30
0.0
 10
53.35758181171967
 20
132.4836706655414
 30
0.0
 10
53.23766570464323
 20
132.4547967957386
 30
0.0
 10
52.94602268332653
 20
132.3804339376221
 30
0.0
 10
52.77739944091129
 20
132.3357155505499
 30
0.0
 10
52.39832842465589
 20
132.2284524117983
 30
0.0
 10
52.18612300845773
 20
132.1653533191266
 30
0.0
 10
51.72910857943444
 20
132.0196323780696
 30
0.0
 10
51.48669466315506
 20
131.9378102445241
 30
0.0
 10
50.97799099573879
 20
131.7538643704136
 30
0.0
 10
50.7097287224015
 20
131.650922040255
 30
0.0
 10
49.88790876886081
 20
131.3134327042604
 30
0.0
 10
49.32296427886973
 20
131.0529002276217
 30
0.0
 10
48.75003309263712
 20
130.7526636644317
 30
0.0
  0
SPLINE
  5
2BF
330
1F
100
AcDbEntity
  8
0
  6
Continuous
 62
     7
370
    15
100
AcDbSpline
210
0.0
220
0.0
230
1.0
 70
     8
 71
     3
 72
    18
 73
    14
 74
     0
 42
0.00000001
 43
0.00000001
 40
0.0
 40
0.0
 40
0.0
 40
0.0
 40
0.25
 40
0.25
 40
0.375
 40
0.375
 40
0.5
 40
0.5
 40
0.625
 40
0.625
 40
0.75
 40
0.75
 40
1.0
 40
1.0
 40
1.0
 40
1.0
 10
42.34728342807529
 20
100.630094809081
 30
0.0
 10
42.74894683712354
 20
100.122300095681
 30
0.0
 10
43.15882995295082
 20
99.6549098327512
 30
0.0
 10
43.77078869674375
 20
99.01386525259322
 30
0.0
 10
43.97516526672327
 20
98.80949627542215
 30
0.0
 10
44.36469865058785
 20
98.43488177248157
 30
0.0
 10
44.55160476207137
 20
98.26271874168457
 30
0.0
 10
44.90566633549344
 20
97.94725805537877
 30
0.0
 10
45.07376982163203
 20
97.80318394714752
 30
0.0
 10
45.38065170602208
 20
97.54736704992554
 30
0.0
 10
45.5163827676969
 20
97.43805130940186
 30
0.0
 10
45.867310788369
 20
97.16074593935792
 30
0.0
 10
46.02667275589992
 20
97.04248862992686
 30
0.0
 10
46.08786192248525
 20
96.99692142205369
 30
0.0
  0
ELLIPSE
  5
2C0
330
1F
100
AcDbEntity
  8
0
  6
Continuous
 62
     7
370
    15
100
AcDbEllipse
 10
47.5836595943
 20
122.5147820273
 30
0.0
 11
1.825303618560206
 21
1.887292978258401
 31
0.0
210
0.0
220
0.0
230
1.0
 40
0.7809803467
 41
0.9352725369269168
 42
3.557579732634315
  0
ARC
  5
2C1
330
1F
100
AcDbEntity
  8
0
  6
Continuous
 62
     7
370
    15
100
AcDbCircle
 10
58.0333209677
 20
113.0376822581
 30
0.0
 40
20.00000000000001
100
AcDbArc
 50
117.6561564452
 51
218.3438435548
  0
SPLINE
  5
2C2
330
1F
100
AcDbEntity
  8
0
  6
Continuous
 62
     7
370
    15
100
AcDbSpline
210
0.0
220
0.0
230
1.0
 70
    24
 71
     3
 72
    10
 73
     6
 74
     0
 42
0.00000001
 43
0.00000001
 40
0.0
 40
0.0
 40
0.0
 40
0.0
 40
0.5
 40
0.5
 40
1.0
 40
1.0
 40
1.0
 40
1.0
 10
49.03332096774209
 20
83.47740485747167
 30
0.0
 10
49.03332096774209
 20
83.31751758927801
 30
0.0
 10
49.03332096774209
 20
83.15639033376341
 30
0.0
 10
49.03332096774209
 20
82.92229133540859
 30
0.0
 10
49.03332096774209
 20
82.85076456181736
 30
0.0
 10
49.03332096774209
 20
82.85076456181736
 30
0.0
  0
ARC
  5
2C3
330
1F
100
AcDbEntity
  8
0
  6
Continuous
 62
     7
370
    15
100
AcDbCircle
 10
58.0333209677
 20
113.0376822581
 30
0.0
 40
31.49999999999999
100
AcDbArc
 50
140.9381656697
 51
253.398450401
  0
SPLINE
  5
2C4
330
1F
100
AcDbEntity
  8
0
  6
Continuous
 62
     7
370
    15
100
AcDbSpline
210
0.0
220
0.0
230
1.0
 70
    24
 71
     3
 72
    12
 73
     8
 74
     0
 42
0.00000001
 43
0.00000001
 40
0.0
 40
0.0
 40
0.0
 40
0.0
 40
0.2500000000000013
 40
0.2500000000000013
 40
0.5000000000000027
 40
0.5000000000000027
 40
1.0
 40
1.0
 40
1.0
 40
1.0
 10
33.57463130537448
 20
132.8876822580645
 30
0.0
 10
33.57463130537449
 20
132.8876822580645
 30
0.0
 10
33.60246102567798
 20
132.8876822580645
 30
0.0
 10
33.69760348693463
 20
132.8876822580645
 30
0.0
 10
33.76402630323499
 20
132.8876822580645
 30
0.0
 10
33.98822573475512
 20
132.8876822580645
 30
0.0
 10
34.17221213730073
 20
132.8876822580645
 30
0.0
 10
34.35236870648372
 20
132.8876822580645
 30
0.0
  0
SPLINE
  5
2C5
330
1F
100
AcDbEntity
  8
0
  6
Continuous
 62
     7
370
    15
100
AcDbSpline
210
0.0
220
0.0
230
1.0
 70
    24
 71
     3
 72
    10
 73
     6
 74
     0
 42
0.00000001
 43
0.00000001
 40
0.0
 40
0.0
 40
0.0
 40
0.0
 40
0.5
 40
0.5
 40
1.0
 40
1.0
 40
1.0
 40
1.0
 10
50.03332096774209
 20
142.8841225818284
 30
0.0
 10
50.03332096774209
 20
143.0445278481792
 30
0.0
 10
50.03332096774209
 20
143.2035896611678
 30
0.0
 10
50.03332096774209
 20
143.4345021267981
 30
0.0
 10
50.03332096774209
 20
143.5048777312287
 30
0.0
 10
50.03332096774209
 20
143.5048777312288
 30
0.0
  0
SPLINE
  5
2C6
330
1F
100
AcDbEntity
  8
0
  6
Continuous
 62
     7
370
    15
100
AcDbSpline
210
0.0
220
0.0
230
1.0
 70
    24
 71
     3
 72
    12
 73
     8
 74
     0
 42
0.00000001
 43
0.00000001
 40
0.0
 40
0.0
 40
0.0
 40
0.0
 40
0.249999999999998
 40
0.249999999999998
 40
0.499999999999996
 40
0.499999999999996
 40
1.0
 40
1.0
 40
1.0
 40
1.0
 10
38.18332096774208
 20
137.4963719204319
 30
0.0
 10
38.18332096774208
 20
137.4963719204319
 30
0.0
 10
38.18332096774208
 20
137.468152221844
 30
0.0
 10
38.18332096774208
 20
137.3737092145959
 30
0.0
 10
38.18332096774208
 20
137.3074222378906
 30
0.0
 10
38.18332096774208
 20
137.0817974146023
 30
0.0
 10
38.18332096774208
 20
136.8993711515697
 30
0.0
 10
38.18332096774208
 20
136.7186345193229
 30
0.0
  0
ARC
  5
2C7
330
1F
100
AcDbEntity
  8
0
  6
Continuous
 62
     7
370
    15
100
AcDbCircle
 10
58.0333209677
 20
113.0376822581
 30
0.0
 40
31.5
100
AcDbArc
 50
104.7124579609
 51
129.0618343303
  0
SPLINE
  5
2C8
330
1F
100
AcDbEntity
  8
0
  6
Continuous
 62
     7
370
    15
100
AcDbSpline
210
0.0
220
0.0
230
1.0
 70
    24
 71
     3
 72
    12
 73
     8
 74
     0
 42
0.00000001
 43
0.00000001
 40
0.0
 40
0.0
 40
0.0
 40
0.0
 40
0.250000000000002
 40
0.250000000000002
 40
0.500000000000004
 40
0.500000000000004
 40
1.0
 40
1.0
 40
1.0
 40
1.0
 10
66.03332096774209
 20
143.5048777312287
 30
0.0
 10
66.03332096774209
 20
143.5048777312287
 30
0.0
 10
66.03332096774209
 20
143.487874981268
 30
0.0
 10
66.03332096774209
 20
143.4238144401563
 30
0.0
 10
66.03332096774209
 20
143.3766558245177
 30
0.0
 10
66.03332096774209
 20
143.2034337918254
 30
0.0
 10
66.03332096774209
 20
143.0433247015912
 30
0.0
 10
66.03332096774209
 20
142.8841225818278
 30
0.0
  0
ARC
  5
2C9
330
1F
100
AcDbEntity
  8
0
  6
Continuous
 62
     7
370
    15
100
AcDbCircle
 10
58.0333209677
 20
113.0376822581
 30
0.0
 40
31.50000000000001
100
AcDbArc
 50
286.601549599
 51
75.2875420391
  0
SPLINE
  5
2CA
330
1F
100
AcDbEntity
  8
0
  6
Continuous
 62
     7
370
    15
100
AcDbSpline
210
0.0
220
0.0
230
1.0
 70
    24
 71
     3
 72
    12
 73
     8
 74
     0
 42
0.00000001
 43
0.00000001
 40
0.0
 40
0.0
 40
0.0
 40
0.0
 40
0.25
 40
0.25
 40
0.5
 40
0.5
 40
1.0
 40
1.0
 40
1.0
 40
1.0
 10
67.03332096774209
 20
82.85076456181736
 30
0.0
 10
67.03332096774209
 20
82.85076456181736
 30
0.0
 10
67.03332096774209
 20
82.8678816480832
 30
0.0
 10
67.03332096774209
 20
82.9326177595583
 30
0.0
 10
67.03332096774209
 20
82.98007500243864
 30
0.0
 10
67.03332096774209
 20
83.15689944497812
 30
0.0
 10
67.03332096774209
 20
83.31717595218383
 30
0.0
 10
67.03332096774209
 20
83.4774048574716
 30
0.0
  0
LINE
  5
2CB
330
1F
100
AcDbEntity
  8
0
  6
Continuous
 62
     7
370
    15
100
AcDbLine
 10
66.0333209677
 20
139.4376822581
 30
0.0
 11
60.8128787515
 21
139.4376822581
 31
0.0
  0
LINE
  5
2CC
330
1F
100
AcDbEntity
  8
0
  6
Continuous
 62
     7
370
    15
100
AcDbLine
 10
57.632338771
 20
139.4376822581
 30
0.0
 11
50.0333209677
 21
139.4376822581
 31
0.0
  0
LINE
  5
2CD
330
1F
100
AcDbEntity
  8
0
  6
Continuous
 62
     7
370
    15
100
AcDbLine
 10
67.0333209677
 20
86.6376822581
 30
0.0
 11
49.0333209677
 21
86.6376822581
 31
0.0
  0
LINE
  5
2CE
330
1F
100
AcDbEntity
  8
0
  6
Continuous
 62
     7
370
    15
100
AcDbLine
 10
66.0333209677
 20
142.8841225818
 30
0.0
 11
66.0333209677
 21
139.4376822581
 31
0.0
  0
LINE
  5
2CF
330
1F
100
AcDbEntity
  8
0
  6
Continuous
 62
     7
370
    15
100
AcDbLine
 10
67.0333209677
 20
83.4774048575
 30
0.0
 11
67.0333209677
 21
86.6376822581
 31
0.0
  0
LINE
  5
2D0
330
1F
100
AcDbEntity
  8
0
  6
Continuous
 62
     7
370
    15
100
AcDbLine
 10
50.0333209677
 20
139.4376822581
 30
0.0
 11
50.0333209677
 21
142.8841225818
 31
0.0
  0
LINE
  5
2D1
330
1F
100
AcDbEntity
  8
0
  6
Continuous
 62
     7
370
    15
100
AcDbLine
 10
49.0333209677
 20
86.6376822581
 30
0.0
 11
49.0333209677
 21
83.4774048575
 31
0.0
  0
LINE
  5
2D2
330
1F
100
AcDbEntity
  8
0
  6
Continuous
 62
     7
370
    15
100
AcDbLine
 10
38.1833209677
 20
136.7186345193
 30
0.0
 11
38.1833209677
 21
132.8876822581
 31
0.0
  0
LINE
  5
2D3
330
1F
100
AcDbEntity
  8
0
  6
Continuous
 62
     7
370
    15
100
AcDbLine
 10
34.3523687065
 20
132.8876822581
 30
0.0
 11
38.1833209677
 21
132.8876822581
 31
0.0
  0
SPLINE
  5
2D4
330
1F
100
AcDbEntity
  8
0
  6
Continuous
 62
     7
370
    15
100
AcDbSpline
210
0.0
220
0.0
230
1.0
 70
     8
 71
     3
 72
    30
 73
    26
 74
     0
 42
0.00000001
 43
0.00000001
 40
0.0
 40
0.0
 40
0.0
 40
0.0
 40
0.1249999999999998
 40
0.1249999999999998
 40
0.1874999999999998
 40
0.1874999999999998
 40
0.2499999999999997
 40
0.2499999999999997
 40
0.3749999999999996
 40
0.3749999999999996
 40
0.4374999999999995
 40
0.4374999999999995
 40
0.4999999999999996
 40
0.4999999999999996
 40
0.6249999999999992
 40
0.6249999999999992
 40
0.6874999999999994
 40
0.6874999999999994
 40
0.7499999999999996
 40
0.7499999999999996
 40
0.8124999999999997
 40
0.8124999999999997
 40
0.8749999999999998
 40
0.8749999999999998
 40
1.0
 40
1.0
 40
1.0
 40
1.0
 10
59.03332096774216
 20
81.55355927520219
 30
0.0
 10
59.56473889814276
 20
81.57043819321079
 30
0.0
 10
60.08639809571692
 20
81.60045575803548
 30
0.0
 10
60.85503988287595
 20
81.66326614730858
 30
0.0
 10
61.10892968204098
 20
81.68717005453549
 30
0.0
 10
61.61200245798706
 20
81.74060534697789
 30
0.0
 10
61.86146630620369
 20
81.77021221514543
 30
0.0
 10
62.58637720380057
 20
81.86466191385986
 30
0.0
 10
63.04425454069275
 20
81.93568930768907
 30
0.0
 10
63.69402176617559
 20
82.04970359439484
 30
0.0
 10
63.90540846958576
 20
82.08915884553541
 30
0.0
 10
64.31004228035592
 20
82.16868028830608
 30
0.0
 10
64.50278275185713
 20
82.20861643080687
 30
0.0
 10
65.05321362823406
 20
82.32755283363502
 30
0.0
 10
65.38339700551468
 20
82.40571759751887
 30
0.0
 10
65.82207282216511
 20
82.51542703778776
 30
0.0
 10
65.95787138065164
 20
82.55050787449618
 30
0.0
 10
66.20474841349781
 20
82.61574815387578
 30
0.0
 10
66.31652695082582
 20
82.64608296992054
 30
0.0
 10
66.51695714069943
 20
82.70142134914238
 30
0.0
 10
66.60560948390292
 20
82.72642602570247
 30
0.0
 10
66.75927703158403
 20
82.77030583459315
 30
0.0
 10
66.82452473583588
 20
82.78924951935545
 30
0.0
 10
66.98082978920014
 20
82.83496924662563
 30
0.0
 10
67.03332096774214
 20
82.85076456181736
 30
0.0
 10
67.03332096774214
 20
82.85076456181736
 30
0.0
  0
SPLINE
  5
2D5
330
1F
100
AcDbEntity
  8
0
  6
Continuous
 62
     7
370
    15
100
AcDbSpline
210
0.0
220
0.0
230
1.0
 70
     8
 71
     3
 72
    28
 73
    24
 74
     0
 42
0.00000001
 43
0.00000001
 40
0.0
 40
0.0
 40
0.0
 40
0.0
 40
0.125
 40
0.125
 40
0.1875
 40
0.1875
 40
0.25
 40
0.25
 40
0.3750000000000001
 40
0.3750000000000001
 40
0.4375000000000002
 40
0.4375000000000002
 40
0.5000000000000002
 40
0.5000000000000002
 40
0.6250000000000002
 40
0.6250000000000002
 40
0.7500000000000002
 40
0.7500000000000002
 40
0.8125000000000002
 40
0.8125000000000002
 40
0.8750000000000002
 40
0.8750000000000002
 40
1.0
 40
1.0
 40
1.0
 40
1.0
 10
49.03332096774214
 20
82.85076456181736
 30
0.0
 10
49.03332096774215
 20
82.85076456181736
 30
0.0
 10
49.08579731006036
 20
82.83497984786713
 30
0.0
 10
49.23959425761726
 20
82.78998443379093
 30
0.0
 10
49.30346923265127
 20
82.77142943871522
 30
0.0
 10
49.4569655013078
 20
82.72757671626871
 30
0.0
 10
49.5467804767015
 20
82.70223210931651
 30
0.0
 10
49.84875927175236
 20
82.6188300315664
 30
0.0
 10
50.09471270580811
 20
82.55296447241531
 30
0.0
 10
50.5300798852365
 20
82.4439941319235
 30
0.0
 10
50.68729506740885
 20
82.40575449615686
 30
0.0
 10
51.0194596879513
 20
82.32799575873752
 30
0.0
 10
51.19426695355419
 20
82.28849479656216
 30
0.0
 10
51.74432614414001
 20
82.16958705419616
 30
0.0
 10
52.14494952853548
 20
82.08976937277154
 30
0.0
 10
53.01753563988419
 20
81.9364262109755
 30
0.0
 10
53.47767108748577
 20
81.86509245770624
 30
0.0
 10
54.19763718145195
 20
81.77114895063161
 30
0.0
 10
54.44291089148647
 20
81.74195515727169
 30
0.0
 10
54.94436722791531
 20
81.68848858300828
 30
0.0
 10
55.20179859728783
 20
81.66412924873309
 30
0.0
 10
55.97773839315233
 20
81.60053910328838
 30
0.0
 10
56.50196679305835
 20
81.57043616819912
 30
0.0
 10
57.03332096774217
 20
81.55355927520219
 30
0.0
  0
SPLINE
  5
2D6
330
1F
100
AcDbEntity
  8
0
  6
Continuous
 62
     7
370
    15
100
AcDbSpline
210
0.0
220
0.0
230
1.0
 70
     8
 71
     3
 72
    50
 73
    46
 74
     0
 42
0.00000001
 43
0.00000001
 40
0.0
 40
0.0
 40
0.0
 40
0.0
 40
0.0624999999999999
 40
0.0624999999999999
 40
0.0937499999999998
 40
0.0937499999999998
 40
0.1249999999999996
 40
0.1249999999999996
 40
0.1874999999999991
 40
0.1874999999999991
 40
0.2187499999999989
 40
0.2187499999999989
 40
0.2499999999999988
 40
0.2499999999999988
 40
0.3124999999999987
 40
0.3124999999999987
 40
0.3749999999999987
 40
0.3749999999999987
 40
0.4062499999999987
 40
0.4062499999999987
 40
0.4374999999999987
 40
0.4374999999999987
 40
0.4999999999999988
 40
0.4999999999999988
 40
0.5624999999999988
 40
0.5624999999999988
 40
0.6249999999999988
 40
0.6249999999999988
 40
0.6562499999999989
 40
0.6562499999999989
 40
0.6874999999999989
 40
0.6874999999999989
 40
0.718749999999999
 40
0.718749999999999
 40
0.749999999999999
 40
0.749999999999999
 40
0.8124999999999993
 40
0.8124999999999993
 40
0.8749999999999996
 40
0.8749999999999996
 40
0.9374999999999998
 40
0.9374999999999998
 40
0.9687499999999999
 40
0.9687499999999999
 40
1.0
 40
1.0
 40
1.0
 40
1.0
 10
50.03332096774214
 20
143.5048777312288
 30
0.0
 10
50.03332096774214
 20
143.5048777312288
 30
0.0
 10
50.08561510969521
 20
143.5187438346099
 30
0.0
 10
50.23896764452797
 20
143.5581809774939
 30
0.0
 10
50.30266513987918
 20
143.574433679759
 30
0.0
 10
50.455756790169
 20
143.6127823896094
 30
0.0
 10
50.54541289212981
 20
143.6349358360174
 30
0.0
 10
50.84699428030386
 20
143.7076917818795
 30
0.0
 10
51.09273571073784
 20
143.7649724847242
 30
0.0
 10
51.52789577708852
 20
143.8589649241799
 30
0.0
 10
51.68503660454969
 20
143.8918238913731
 30
0.0
 10
52.017675697274
 20
143.9583999448213
 30
0.0
 10
52.19274165271403
 20
143.9920433826603
 30
0.0
 10
52.74359718341564
 20
144.0926042472374
 30
0.0
 10
53.14478159260229
 20
144.1591670569875
 30
0.0
 10
54.01827079868969
 20
144.283866112287
 30
0.0
 10
54.48031139167213
 20
144.3403891213576
 30
0.0
 10
55.20142680526605
 20
144.4110580559725
 30
0.0
 10
55.44698744294943
 20
144.432334266044
 30
0.0
 10
55.94877574210762
 20
144.4696399922859
 30
0.0
 10
56.20653695842428
 20
144.4857311891459
 30
0.0
 10
56.98164942264405
 20
144.5243726607536
 30
0.0
 10
57.50207860636373
 20
144.53756207931
 30
0.0
 10
58.5502144471491
 20
144.5378008027681
 30
0.0
 10
59.08272277752286
 20
144.5244008000639
 30
0.0
 10
60.11041303968946
 20
144.4733368118687
 30
0.0
 10
60.61017722027119
 20
144.4358976771145
 30
0.0
 10
61.33867222029166
 20
144.3647341941961
 30
0.0
 10
61.57802321273714
 20
144.3384657360036
 30
0.0
 10
62.03926168422401
 20
144.2827842632513
 30
0.0
 10
62.26252833929127
 20
144.2532464913154
 30
0.0
 10
62.69471594531334
 20
144.1916393462877
 30
0.0
 10
62.90363652555332
 20
144.1595684035665
 30
0.0
 10
63.30706145107703
 20
144.0937514265971
 30
0.0
 10
63.50254111104639
 20
144.0598212081339
 30
0.0
 10
64.05839932458262
 20
143.9583925805536
 30
0.0
 10
64.3879567112142
 20
143.8914735518636
 30
0.0
 10
64.96735220900014
 20
143.7664479895217
 30
0.0
 10
65.2188721804445
 20
143.7078711952877
 30
0.0
 10
65.62032667705807
 20
143.6110363436427
 30
0.0
 10
65.77280967260518
 20
143.5722813840835
 30
0.0
 10
65.92812062178041
 20
143.5323538536473
 30
0.0
 10
65.96763406918657
 20
143.5220620623967
 30
0.0
 10
66.02014741648233
 20
143.5083458498578
 30
0.0
 10
66.03332096774213
 20
143.5048777312287
 30
0.0
 10
66.03332096774213
 20
143.5048777312288
 30
0.0
  0
SPLINE
  5
2D7
330
1F
100
AcDbEntity
  8
0
  6
Continuous
 62
     7
370
    15
100
AcDbSpline
210
0.0
220
0.0
230
1.0
 70
     8
 71
     3
 72
    20
 73
    16
 74
     0
 42
0.00000001
 43
0.00000001
 40
0.0
 40
0.0
 40
0.0
 40
0.0
 40
0.2500000000000005
 40
0.2500000000000005
 40
0.3750000000000004
 40
0.3750000000000004
 40
0.5000000000000003
 40
0.5000000000000003
 40
0.6250000000000002
 40
0.6250000000000002
 40
0.7500000000000001
 40
0.7500000000000001
 40
0.8750000000000001
 40
0.8750000000000001
 40
1.0
 40
1.0
 40
1.0
 40
1.0
 10
33.57463130537474
 20
132.8876822580645
 30
0.0
 10
34.10528807320942
 20
133.5415446863619
 30
0.0
 10
34.63901606947096
 20
134.1453304683591
 30
0.0
 10
35.42198838745971
 20
134.9721692045277
 30
0.0
 10
35.67997198755639
 20
135.2345978424806
 30
0.0
 10
36.1843672439642
 20
135.7312604965855
 30
0.0
 10
36.42714566639221
 20
135.9618473756071
 30
0.0
 10
36.87782574590527
 20
136.3784016001897
 30
0.0
 10
37.08728961189655
 20
136.5658994021572
 30
0.0
 10
37.46557812848459
 20
136.8972963797936
 30
0.0
 10
37.62932581466908
 20
137.0368003672889
 30
0.0
 10
37.89751161686852
 20
137.2622538747598
 30
0.0
 10
38.00273602495527
 20
137.3488799863035
 30
0.0
 10
38.14679525026877
 20
137.4668607751576
 30
0.0
 10
38.18332096774212
 20
137.4963719204319
 30
0.0
 10
38.18332096774213
 20
137.4963719204319
 30
0.0
  0
ARC
  5
2D8
330
1F
100
AcDbEntity
  8
0
  6
Continuous
 62
     7
370
    15
100
AcDbCircle
 10
58.0333209677
 20
113.0376822581
 30
0.0
 40
31.50000000000001
100
AcDbArc
 50
268.180780706
 51
271.819219294
  0
CIRCLE
  5
2D9
330
1F
100
AcDbEntity
  8
VERMASSUNG
  6
CENTERX2
100
AcDbCircle
 10
58.0333209677
 20
115.0376222763
 30
0.0
 40
25.0
  0
DIMENSION
  5
2DA
330
1F
100
AcDbEntity
  8
VERMASSUNG
100
AcDbDimension
  2
*D6
 10
23.0234062
 20
140.0376222763
 30
0.0
 11
23.0234062
 21
115.0376222763
 31
0.0
 70
   160
  1
%%c<>
 71
     2
 42
-1.0
  3
SLDDIMSTYLE2
100
AcDbAlignedDimension
 13
58.0333209677
 23
90.0376222763
 33
0.0
 14
58.0333209677
 24
140.0376222763
 34
0.0
 50
90.0
100
AcDbRotatedDimension
  0
INSERT
  5
2F1
330
1F
100
AcDbEntity
  8
VERMASSUNG
100
AcDbBlockReference
  2
SW_CENTERMARKSYMBOL_0
 10
58.0333209677
 20
113.0376822581
 30
0.0
  0
OLE2FRAME
  5
2F2
330
1F
100
AcDbEntity
  8
0
100
AcDbOle2Frame
 70
     2
  3
Bitmap Image
 10
13.8511154363
 20
38.264191557
 30
0.0
 11
51.6290888628
 21
31.9806341108
 31
0.0
 71
     2
 72
     0
 73
     1
 90
    12928
310
80552BED0767C5B32B40DDAF6807D121434000000000000000006FFBDDFB85D0
310
4940DDAF6807D121434000000000000000006FFBDDFB85D04940416F4BD60AFB
310
3F4000000000000000002BED0767C5B32B40416F4BD60AFB3F40000000000000
310
0000000000000100000000010000010000000100000000000100000000320000
310
D0CF11E0A1B11AE1000000000000000000000000000000003E000300FEFF0900
310
0600000000000000000000000100000001000000000000000010000002000000
310
01000000FEFFFFFF0000000000000000FFFFFFFFFFFFFFFFFFFFFFFFFFFFFFFF
310
FFFFFFFFFFFFFFFFFFFFFFFFFFFFFFFFFFFFFFFFFFFFFFFFFFFFFFFFFFFFFFFF
310
FFFFFFFFFFFFFFFFFFFFFFFFFFFFFFFFFFFFFFFFFFFFFFFFFFFFFFFFFFFFFFFF
310
FFFFFFFFFFFFFFFFFFFFFFFFFFFFFFFFFFFFFFFFFFFFFFFFFFFFFFFFFFFFFFFF
310
FFFFFFFFFFFFFFFFFFFFFFFFFFFFFFFFFFFFFFFFFFFFFFFFFFFFFFFFFFFFFFFF
310
FFFFFFFFFFFFFFFFFFFFFFFFFFFFFFFFFFFFFFFFFFFFFFFFFFFFFFFFFFFFFFFF
310
FFFFFFFFFFFFFFFFFFFFFFFFFFFFFFFFFFFFFFFFFFFFFFFFFFFFFFFFFFFFFFFF
310
FFFFFFFFFFFFFFFFFFFFFFFFFFFFFFFFFFFFFFFFFFFFFFFFFFFFFFFFFFFFFFFF
310
FFFFFFFFFFFFFFFFFFFFFFFFFFFFFFFFFFFFFFFFFFFFFFFFFFFFFFFFFFFFFFFF
310
FFFFFFFFFFFFFFFFFFFFFFFFFFFFFFFFFFFFFFFFFFFFFFFFFFFFFFFFFFFFFFFF
310
FFFFFFFFFFFFFFFFFFFFFFFFFFFFFFFFFFFFFFFFFFFFFFFFFFFFFFFFFFFFFFFF
310
FFFFFFFFFFFFFFFFFFFFFFFFFFFFFFFFFFFFFFFFFFFFFFFFFFFFFFFFFFFFFFFF
310
FFFFFFFFFFFFFFFFFFFFFFFFFFFFFFFFFFFFFFFFFFFFFFFFFFFFFFFFFFFFFFFF
310
FFFFFFFFFFFFFFFFFFFFFFFFFFFFFFFFFFFFFFFFFFFFFFFFFFFFFFFFFFFFFFFF
310
FDFFFFFFFEFFFFFFFEFFFFFFFEFFFFFF05000000060000000700000008000000
310
090000000A0000000B0000000C0000000D0000000E0000000F00000010000000
310
11000000120000001300000014000000150000001600000017000000FEFFFFFF
310
FFFFFFFFFFFFFFFFFFFFFFFFFFFFFFFFFFFFFFFFFFFFFFFFFFFFFFFFFFFFFFFF
310
FFFFFFFFFFFFFFFFFFFFFFFFFFFFFFFFFFFFFFFFFFFFFFFFFFFFFFFFFFFFFFFF
310
FFFFFFFFFFFFFFFFFFFFFFFFFFFFFFFFFFFFFFFFFFFFFFFFFFFFFFFFFFFFFFFF
310
FFFFFFFFFFFFFFFFFFFFFFFFFFFFFFFFFFFFFFFFFFFFFFFFFFFFFFFFFFFFFFFF
310
FFFFFFFFFFFFFFFFFFFFFFFFFFFFFFFFFFFFFFFFFFFFFFFFFFFFFFFFFFFFFFFF
310
FFFFFFFFFFFFFFFFFFFFFFFFFFFFFFFFFFFFFFFFFFFFFFFFFFFFFFFFFFFFFFFF
310
FFFFFFFFFFFFFFFFFFFFFFFFFFFFFFFFFFFFFFFFFFFFFFFFFFFFFFFFFFFFFFFF
310
FFFFFFFFFFFFFFFFFFFFFFFFFFFFFFFFFFFFFFFFFFFFFFFFFFFFFFFFFFFFFFFF
310
FFFFFFFFFFFFFFFFFFFFFFFFFFFFFFFFFFFFFFFFFFFFFFFFFFFFFFFFFFFFFFFF
310
FFFFFFFFFFFFFFFFFFFFFFFFFFFFFFFFFFFFFFFFFFFFFFFFFFFFFFFFFFFFFFFF
310
FFFFFFFFFFFFFFFFFFFFFFFFFFFFFFFFFFFFFFFFFFFFFFFFFFFFFFFFFFFFFFFF
310
FFFFFFFFFFFFFFFFFFFFFFFFFFFFFFFFFFFFFFFFFFFFFFFFFFFFFFFFFFFFFFFF
310
FFFFFFFFFFFFFFFFFFFFFFFFFFFFFFFFFFFFFFFFFFFFFFFFFFFFFFFFFFFFFFFF
310
52006F006F007400200045006E00740072007900000000000000000000000000
310
0000000000000000000000000000000000000000000000000000000000000000
310
16000500FFFFFFFFFFFFFFFF020000000A00030000000000C000000000000046
310
0000000000000000000000000052B2F496D9CB0103000000C000000000000000
310
01004F006C006500000000000000000000000000000000000000000000000000
310
0000000000000000000000000000000000000000000000000000000000000000
310
0A000200FFFFFFFFFFFFFFFFFFFFFFFF00000000000000000000000000000000
310
0000000000000000000000000000000000000000000000001400000000000000
310
010043006F006D0070004F0062006A0000000000000000000000000000000000
310
0000000000000000000000000000000000000000000000000000000000000000
310
120002010100000003000000FFFFFFFF00000000000000000000000000000000
310
0000000000000000000000000000000000000000010000004D00000000000000
310
01004F006C006500310030004E00610074006900760065000000000000000000
310
0000000000000000000000000000000000000000000000000000000000000000
310
1A000200FFFFFFFFFFFFFFFFFFFFFFFF00000000000000000000000000000000
310
0000000000000000000000000000000000000000040000002426000000000000
310
FEFFFFFF02000000FEFFFFFFFFFFFFFFFFFFFFFFFFFFFFFFFFFFFFFFFFFFFFFF
310
FFFFFFFFFFFFFFFFFFFFFFFFFFFFFFFFFFFFFFFFFFFFFFFFFFFFFFFFFFFFFFFF
310
FFFFFFFFFFFFFFFFFFFFFFFFFFFFFFFFFFFFFFFFFFFFFFFFFFFFFFFFFFFFFFFF
310
FFFFFFFFFFFFFFFFFFFFFFFFFFFFFFFFFFFFFFFFFFFFFFFFFFFFFFFFFFFFFFFF
310
FFFFFFFFFFFFFFFFFFFFFFFFFFFFFFFFFFFFFFFFFFFFFFFFFFFFFFFFFFFFFFFF
310
FFFFFFFFFFFFFFFFFFFFFFFFFFFFFFFFFFFFFFFFFFFFFFFFFFFFFFFFFFFFFFFF
310
FFFFFFFFFFFFFFFFFFFFFFFFFFFFFFFFFFFFFFFFFFFFFFFFFFFFFFFFFFFFFFFF
310
FFFFFFFFFFFFFFFFFFFFFFFFFFFFFFFFFFFFFFFFFFFFFFFFFFFFFFFFFFFFFFFF
310
FFFFFFFFFFFFFFFFFFFFFFFFFFFFFFFFFFFFFFFFFFFFFFFFFFFFFFFFFFFFFFFF
310
FFFFFFFFFFFFFFFFFFFFFFFFFFFFFFFFFFFFFFFFFFFFFFFFFFFFFFFFFFFFFFFF
310
FFFFFFFFFFFFFFFFFFFFFFFFFFFFFFFFFFFFFFFFFFFFFFFFFFFFFFFFFFFFFFFF
310
FFFFFFFFFFFFFFFFFFFFFFFFFFFFFFFFFFFFFFFFFFFFFFFFFFFFFFFFFFFFFFFF
310
FFFFFFFFFFFFFFFFFFFFFFFFFFFFFFFFFFFFFFFFFFFFFFFFFFFFFFFFFFFFFFFF
310
FFFFFFFFFFFFFFFFFFFFFFFFFFFFFFFFFFFFFFFFFFFFFFFFFFFFFFFFFFFFFFFF
310
FFFFFFFFFFFFFFFFFFFFFFFFFFFFFFFFFFFFFFFFFFFFFFFFFFFFFFFFFFFFFFFF
310
FFFFFFFFFFFFFFFFFFFFFFFFFFFFFFFFFFFFFFFFFFFFFFFFFFFFFFFFFFFFFFFF
310
01000002000000000000000000000000000000005002600124008200B0004004
310
0805250000000000B0EEDD0D00000000B0028003800380033001500250024004
310
0100FEFF030A0000FFFFFFFF0A00030000000000C00000000000004607000000
310
5042727573680007000000504272757368000700000050427275736800F439B2
310
7100000000000000000000000003200320032003200320032003B002E0032003
310
200320032003800320032003B002B002B002B002B002B00280035002B002B002
310
B002B002F001F001500250028003B002B002B002B002B002B002B0028003B002
310
B002B002B002B002B002B00241000000060EA302000000001600900000000004
310
280425000000000010D4E00D000000000000C70600000000124B7092DC0010FF
310
FFFF00000000000000000000000000003800000041000000060EA30200000000
310
1A0F2D0200000000000000000000000000000000000000000000C70600000000
310
0000000000000000000000000000000000000000000000003800000041000000
310
060EA30200000000F20E08030000000000000000000000000000000000000000
310
0000C70600000000000000000000000000000000000000000000000000000000
310
3800000041000000060EA30200000000BE0EB602000000000000000000000000
310
00000000000000000000C7060000000000000000000000000000000000000000
310
20260000424D0E260000000000003E00000028000000B40200006E0000000100
310
01000000000000000000130B0000130B00000200000002000000000000FFFFFF
310
FFFFFFFFFFFFFFFFFFFFFFFFFFFFFFFFFFFFFFFFFFFFFFFFFFFFFFFFFFFFFFFF
310
FFFFFFFFFFFFFFFFFFFFFFFFFFFFFFFFFFFFFFFFFFFFFFFFFFFFFFFFFFFFFFFF
310
FFFFFFFFFFFFFFFFFFFFFFFFFFFFFFFFFFFFFFFFFFFFFFFFF000FFFFFFFFFFFF
310
FFFFFFFFFFFFFFFFFFFFFFFFFFFFFFFFFFFFFFFFFFFFFFFFFFFFFFFFFFFFFFFF
310
FFFFFFFFFFFFFFFFFFFFFFFFFFFFFFFFFFFFFFFFFFFFFFFFFFFFFFFFFFFFFFFF
310
FFFFFFFFFFFFFFFFFFFFFFFFFFFFFFFFF000FFFFFFFFFFFFFFFFFFFFFFFFFFFF
310
FFFFFFFFFFFFFFFFFFFFFFFFFFFFFFFFFFFFFFFFFFFFFFFFFFFFFFFFFFFFFFFF
310
FFFFFFFFFFFFFFFFFFFFFFFFFFFFFFFFFFFFFFFFFFFFFFFFFFFFFFFFFFFFFFFF
310
FFFFFFFFFFFFFFFFF000FFFFFFFFFFFFFFFFFFFFFFFFFFFFFFFFFFFFFFFFFFFF
310
FFFFFFFFFFFFFFFFFFFFFFFFFFFFFFFFFFFFFFFFFFFFFFFFFFFFFFFFFFFFFFFF
310
FFFFFFFFFFFFFFFFFFFFFFFFFFFFFFFFFFFFFFFFFFFFFFFFFFFFFFFFFFFFFFFF
310
F000FFFFFFFFFFFFFFFFFFFFFFFFFFFFFFFFFFFFFFFFFFFFFFFFFFFFFFFFFFFF
310
FFFFFFFFFFFFFFFFFFFFFFFFFFFFFFFFFFFFFFFFFFFFFFFFFFFFFFFFFFFFFFFF
310
FFFFFFFFFFFFFFFFFFFFFFFFFFFFFFFFFFFFFFFFFFFFFFFFF000FFFFFFFFFFFF
310
FFFFFFFFFFFFFFFFFFFFFFFFFFFFFFFFFFFFFFFFFFFFFFFFFFFFFFFFFFFFFFFF
310
FFFFFFFFFFFFFFFFFFFFFFFFFFFFFFFFFFFFFFFFFFFFFFFFFFFFFFFFFFFFFFFF
310
FFFFFFFFFFFFFFFFFFFFFFFFFFFFFFFFF000FFFFFFFFFFFFFFFFFFFFFFFFFFFF
310
FFFFFFFFFFFFFFFFFFFFFFFFFFFFFFFFFFFFFFFFFFFFFFFFFFFFFFFFFFFFFFFF
310
FFFFFFFFFFFFFFFFFFFFFFFFFFFFFFFFFFFFFFFFFFFFFFFFFFFFFFFFFFFFFFFF
310
FFFFFFFFFFFFFFFFF000FFFFFFFFFFFFFFFFFFFFFFFFFFFFFFFFFFFFFFFFFFFF
310
FFFFFFFFFFFFFFFFFFFFFFFFFFFFFFFFFFFFFFFFFFFFFFFFFFFFFFFFFFFFFFFF
310
FFFFFFFFFFFFFFFFFFFFFFFFFFFFFFFFFFFFFFFFFFFFFFFFFFFFFFFFFFFFFFFF
310
F000FFFFFFFFFFFFFFFFFFFFFFFFFFFFFFFFFFFFFFFFFFFFFFFFFFFFFFFFFFFF
310
FFFFFFFFFFFFFFFFFFFFFFFFFFFFFFFFFFFFFFFFFFFFFFFFFFFFFFFFFFFFFFFF
310
FFFFFFFFFFFFFFFFFFFFFFFFFFFFFFFFFFFFFFFFFFFFFFFFF000FFFFFFFFFFFF
310
FFFFFFFFFFFFFFFFFFFFFFFFFFFFFFFFFFFFFFFFFFFFFFFFFFFFFFFFFFFFFFFF
310
FFFFFFFFFFFFFFFFFFFFFFFFFFFFFFFFFFFFFFFFFFFFFFFFFFFFFFFFFFFFFFFF
310
FFFFFFFFFFFFFFFFFFFFFFFFFFFFFFFFF000FFFFFFFFFFFFFFFFFFFFFFFFFFFF
310
FFFFFFFFFFFFFFFFFFFFFFFFFFFFFFFFFFFFFFFFFFFFFFFFFFFFFFFFFFFFFFFF
310
FFFFFFFFFFFFFFFFFFFFFFFFFFFFFFFFFFFFFFFFFFFFFFFFFFFFFFFFFFFFFFFF
310
FFFFFFFFFFFFFFFFF000FFFFFFFFFFFFFFFFFFFFFFFFFFFFFFFFFFFFFFFFFFFF
310
FFFFFFFFFFFFFFFFFFFFFFFFFFFFFFFFFFFFFFFFFFFFFFFFFFFFFFFFFFFFFFFF
310
FFFFFFFFFFFFFFFFFFFFFFFFFFFFFFFFFFFFFFFFFFFFFFFFFFFFFFFFFFFFFFFF
310
F000FFFFFFFFFFFFFFFFFFFFFFFFFFFFFFFFFFFFFFFFFFFFFFFFFFFFFFFFFFFF
310
FFFFFFFFFFFFFFFFFFFFFFFFFFFFFFFFFFFFFFFFFFFFFFFFFFFFFFFFFFFFFFFF
310
FFFFFFFFFFFFFFFFFFFFFFFFFFFFFFFFFFFFFFFFFFFFFFFFF000FFFFFFFFFFFF
310
FFFFFFFFFFFFFFFFFFFFFFFFFFFFFFFFFFFFFFFFFFFFFFFFFFFFFFFFFFFFFFFF
310
FFFFFFFFFFFFFFFFFFFFFFFFFFFFFFFFFFFFFFFFFFFFFFFFFFFFFFFFFFFFFFFF
310
FFFFFFFFFFFFFFFFFFFFFFFFFFFFFFFFF000FFFFFFFFFFFFFFFFFFFFFFFFFFFF
310
FFFFFFFFFFFFFFFFFFFFFFFFFFFFFFFFFFFFFFFFFFFFFFFFFFFFFFFFFFFFFFFF
310
FFFFFFFFFFFFFFFFFFFFFFFFFFFFFFFFFFFFFFFFFFFFFFFFFFFFFFFFFFFFFFFF
310
FFFFFFFFFFFFFFFFF000FFFFFFFFFFFFFFFFFFFFFFFFFFFFFFFFFFFFFFFFFFFF
310
FFFFFFFFFFFFFFFFFFFFFFFFFFFFFFFFFFFFFFFFFFFFFFFFFFFFFFFFFFFFFFFF
310
FFFFFFFFFFFFFFFFFFFFFFFFFFFFFFFFFFFFFFFFFFFFFFFFFFFFFFFFFFFFFFFF
310
F000FFFFFFFFFFFFFFFFFFFFFFFFFFFFFFFFFFFFFFFFFFFFFFFFFFFFFFFFFFFF
310
FFFFFFFFFFFFFFFFFFFFFFFFFFFFFFFFFFFFFFFFFFFFFFFFFFFFFFFFFFFFFFFF
310
FFFFFFFFFFFFFFFFFFFFFFFFFFFFFFFFFFFFFFFFFFFFFFFFF000FFFFFFFFFFFF
310
FFFFFFFFFFFFFFFFFFFFFFFFFFFFFFFFFFFFFFFFFFFFFFFFFFFFFFFFFFFFFFFF
310
FFFFFFFFFFFFFFFFFFFFFFFFFFFFFFFFFFFFFFFFFFFFFFFFFFFFFFFFFFFFFFFF
310
FFFFFFFFFFFFFFFFFFFFFFFFFFFFFFFFF000FFFFFFFFFFFFFFFFFFFFFFFFFFFF
310
FFFFFFFFFFFFFFFFFFFFFFFFFFFFFFFFFFFFFFFFFFFFFFFFFFFFFFFFFFFFFFFF
310
FFFFFFFFFFFFFFFFFFFFFFFFFFFFFFFFFFFFFFFFFFFFFFFFFFFFFFFFFFFFFFFF
310
FFFFFFFFFFFFFFFFF000FFFFF80003FFFFFFFFFFFFFFFFFFFFFFFFFFFFFFFFFF
310
FFFFF00007FFFFFFFFFF00007FFFFFF800000000000000007FFFFFFFFFFFFFFF
310
FFFFFFFC001FFFFFFFFFFFFFFC001FFFFFFFFFFFFFFFFFFFFFFFFFFE0007FFFF
310
F000FFFF8000007FFFFFFFF8000FFFFFC0007FFFFF80007FFFFF0000007FFFFF
310
FFF8000007FFFFF800000000000000007FFFFFF0001FFFFFFFFFFFC00001FFFF
310
FFFFFFFFC00001FFFFFFFF000000000003FFFFE000007FFFF000FFFE0000000F
310
FFFFFFF0000FFFFF80007FFFFF80007FFFFC0000001FFFFFFFC0000001FFFFF8
310
00000000000000007FFFFFF0001FFFFFFFFFFE0000003FFFFFFFFFFE0000003F
310
FFFFFF000000000003FFFF0000000FFFF000FFF800000003FFFFFFF00007FFFF
310
80007FFFFF80007FFFF000000007FFFFFF000000003FFFF80000000000000000
310
7FFFFFF0001FFFFFFFFFF80000000FFFFFFFFFF80000000FFFFFFF0000000000
310
03FFFC00000003FFF000FFE000000000FFFFFFF00007FFFF80003FFFFF80007F
310
FFC000000001FFFFFC000000001FFFF800000000000000007FFFFFF0001FFFFF
310
FFFFE000000003FFFFFFFFE000000003FFFFFF000000000003FFF000000000FF
310
F000FF80000000007FFFFFF00007FFFF80003FFFFF80007FFF8000000000FFFF
310
F80000000007FFF800000000000000007FFFFFF0001FFFFFFFFFC000000001FF
310
FFFFFFC000000001FFFFFF000000000003FFC0000000007FF000FF0000000000
310
3FFFFFE00007FFFF00003FFFFF80007FFE00000000003FFFF00000000003FFF8
310
00000000000000007FFFFFF0001FFFFFFFFF8000000000FFFFFFFF8000000000
310
FFFFFF000000000003FF80000000003FF000FE00000000001FFFFFE00003FFFF
310
00003FFFFF80007FFC00000000001FFFE00000000001FFF8000001FFFE000000
310
7FFFFFF0001FFFFFFFFE00000000003FFFFFFE00000000003FFFFF0000000000
310
03FF00000000001FF000FC00000000000FFFFFE00003FFFF00001FFFFF80007F
310
F800000000001FFFC00000000000FFF8000001FFFE0000007FFFFFF0001FFFFF
310
FFFC00000000001FFFFFFC00000000001FFFFF000000000003FE00000000000F
310
F000F8000000000007FFFFE00003FFFF00001FFFFF80007FF800000000000FFF
310
800000000000FFF8000001FFFE0000007FFFFFF0001FFFFFFFF800000000000F
310
FFFFF800000000000FFFFF000000000003FC000000000007F000F80000000000
310
03FFFFC00003FFFE00001FFFFF80007FF0000000000007FF0000000000007FF8
310
000001FFFE0000007FFFFFF0001FFFFFFFF0000000000007FFFFF00000000000
310
07FFFF000000000003F8000000000003F000F0000000000003FFFFC00001FFFE
310
00001FFFFF80007FE0000000000007FE0000000000003FF8000001FFFE000000
310
7FFFFFF0001FFFFFFFF0000000000007FFFFF0000000000007FFFF0000000000
310
03F800001F800003F000E00001FFF00001FFFFC00001FFFE00000FFFFF80007F
310
E00001FFE00003FE00001FFF00003FF8000001FFFE0000007FFFFFF0001FFFFF
310
FFE000003E000003FFFFE000003E000003FFFF000000000003F00001FFF80001
310
F000E00007FFFC0001FFFFC00001FFFE00000FFFFF80007FC0000FFFFC0003FC
310
0000FFFFC0001FF8000001FFFE0000007FFFFFF0001FFFFFFFC00003FFE00001
310
FFFFC00003FFE00001FFFF0001FFFFFFFFF00007FFFE0001F000E0000FFFFF00
310
00FFFF800001FFFC00000FFFFF80007FC0001FFFFE0001FC0001FFFFE0001FF8
310
000001FFFE0000007FFFFFF0001FFFFFFF80000FFFF80000FFFF80000FFFF800
310
00FFFF0003FFFFFFFFE0000FFFFF8000F000C0003FFFFF8000FFFF800000FFFC
310
000007FFFF80007F80003FFFFF0001FC0003FFFFF0001FF8000001FFFE000000
310
7FFFFFF0001FFFFFFF80003FFFFE0000FFFF80003FFFFE0000FFFF0003FFFFFF
310
FFE0003FFFFF8000F000C0003FFFFF8000FFFF800000FFFC000007FFFF80007F
310
80007FFFFF8001F80007FFFFF8000FF8000001FFFE0000007FFFFFF0001FFFFF
310
FF00007FFFFF00007FFF00007FFFFF00007FFF0003FFFFFFFFE0003FFFFFC000
310
F000C0007FFFFFC000FFFF000000FFFC000007FFFF80007F8000FFFFFF8000F8
310
000FFFFFF8000FF8000001FFFE0000007FFFFFF0001FFFFFFF0000FFFFFF8000
310
7FFF0000FFFFFF80007FFF0003FFFFFFFFC0007FFFFFC00070008000FFFFFFC0
310
00FFFF000000FFF8000007FFFF80007F8000FFFFFF8000F8000FFFFFF8000FF8
310
000001FFFE0000007FFFFFF0001FFFFFFE0001FFFFFFC0003FFE0001FFFFFFC0
310
003FFF0003FFFFFFFFC0007FFFFFE00070008000FFFFFFC0007FFF0000007FF8
310
000003FFFF80007F0001FFFFFF8000F8000FFFFFF8000FF8000001FFFE000000
310
7FFFFFF0001FFFFFFE0001FFFFFFC0003FFE0001FFFFFFC0003FFF0003FFFFFF
310
FFC000FFFFFFE00070008000FFFFFFC0007FFF0000007FF8000003FFFF80007F
310
0001FFFFFF8000F8001FFFFFF8000FF8000001FFFE0000007FFFFFF0001FFFFF
310
FE0003FFFFFFE0003FFE0003FFFFFFE0003FFF0003FFFFFFFFC000FFFFFFE000
310
70008000FFFFFFC0007FFE0000007FF8000003FFFF80007F0001FFFFFF8000F0
310
001FFFFFF8000FF8000001FFFE0000007FFFFFF0001FFFFFFC0003FFFFFFE000
310
1FFC0003FFFFFFE0001FFF0003FFFFFFFFC000FFFFFFC00070008000FFFFFF80
310
007FFE0000007FF0000003FFFF80007F0001FFFFFF0000F0001FFFFFF8000FF8
310
000001FFFE0000007FFFFFF0001FFFFFFC0007FFFFFFF0001FFC0007FFFFFFF0
310
001FFF0003FFFFFFFFC000FFFFFFC00070008001FFFFFF0000FFFE0000003FF0
310
000001FFFF80007F0001FFFFFF0000F8001FFFFFF0000FF8000001FFFE000000
310
7FFFFFF0001FFFFFFC0007FFFFFFF0001FFC0007FFFFFFF0001FFF0003FFFFFF
310
FFC001FFFFFF80007000FFFFFFFFFE0000FFFE0008003FF0008001FFFF80007F
310
FFFFFFFFFC0000FFFFFFFFFFE0000FF8000001FFFE0000007FFFFFF0001FFFFF
310
F8000FFFFFFFF8000FF8000FFFFFFFF8000FFF0003FFFFFFFFFFFFFFFFFF0000
310
7000FFFFFFFFFC0000FFFC0008003FF0008001FFFF80007FFFFFFFFFF80001FF
310
FFFFFFFF80000FF8000001FFFE0000007FFFFFF0001FFFFFF8000FFFFFFFF800
310
0FF8000FFFFFFFF8000FFF0003FFFFFFFFFFFFFFFFFE0000F000FFFFFFFFE000
310
00FFFC000C003FE000C001FFFF80007FFFFFFFFFC00001FFFFFFFFFE00001FF8
310
000001FFFE0000007FFFFFF0001FFFFFF8000FFFFFFFF8000FF8000FFFFFFFF8
310
000FFF0003FFFFFFFFFFFFFFFFF00000F000FFFFFFFE000001FFFC000C001FE0
310
00C000FFFF80007FFFFFFFFE000001FFFFFFFFE000001FF80FFFFFFFFFFFFFC0
310
7FFFFFF0001FFFFFF8000FFFFFFFF8000FF8000FFFFFFFF8000FFF0003FFFFFF
310
FFFFFFFFFF800000F000FFFFFFC0000001FFFC001C001FE001C000FFFF80007F
310
FFFFFF80000003FFFFFFF80000001FF80FFFFFFFFFFFFFC07FFFFFF0001FFFFF
310
F8001FFFFFFFFC000FF8001FFFFFFFFC000FFF0003FFFFFFFFFFFFFFF0000001
310
F000FFFFF800000001FFF8001C001FE001C000FFFF80007FFFFFF800000003FF
310
FFFF800000003FF80FFFFFFFFFFFFFC07FFFFFF0001FFFFFF8001FFFFFFFFC00
310
0FF8001FFFFFFFFC000FFF0003FFFFFFFFFFFFFE00000001F000FFFFC0000000
310
03FFF8001E001FC001E000FFFF80007FFFFF8000000007FFFFFC000000003FF8
310
0FFFFFFFFFFFFFC07FFFFFF0001FFFFFF8001FFFFFFFFC000FF8001FFFFFFFFC
310
000FFF0003FFFFFFFFFFFFE000000003F000FFFE0000000007FFF8001E000FC0
310
01E0007FFF80007FFFFE0000000007FFFFE0000000007FF80FFFFFFFFFFFFFC0
310
7FFFFFF0001FFFFFF0001FFFFFFFFC0007F0001FFFFFFFFC0007FF0003FFFFFF
310
FFFFFF0000000003F000FFF80000000007FFF8001E000FC003E0007FFF80007F
310
FFF0000000000FFFFF8000000000FFF80FFFFFFFFFFFFFC07FFFFFF0001FFFFF
310
F0001FFFFFFFFC0007F0001FFFFFFFFC0007FF0003FFFFFFFFFFFC0000000007
310
F000FFE0000000000FFFF0003E000FC003E0007FFF80007FFFC0000000001FFF
310
FE0000000001FFF80FFFFFFFFFFFFFC07FFFFFF0001FFFFFF0001FFFFFFFFC00
310
07F0001FFFFFFFFC0007FF0003FFFFFFFFFFF0000000000FF000FFC000000000
310
1FFFF0003F000F8003F0003FFF80007FFF80000000003FFFF80000000003FFF8
310
0FFFFFFFFFFFFFC07FFFFFF0001FFFFFF0001FFFFFFFFC0007F0001FFFFFFFFC
310
0007FF0003FFFFFFFFFFE0000000001FF000FF00000000007FFFF0003F000780
310
03F0003FFF80007FFF00000000007FFFF00000000007FFF80FFFFFFFFFFFFFC0
310
7FFFFFF0001FFFFFF0001FFFFFFFFC0007F0001FFFFFFFFC0007FF0003FFFFFF
310
FFFF80000000007FF000FE0000000000FFFFE0003F00078007F0003FFF80007F
310
FE0000000001FFFFE0000000001FFFF80FFFFFFFFFFFFFC07FFFFFF0001FFFFF
310
F0001FFFFFFFFC0007F0001FFFFFFFFC0007FF0003FFFFFFFFFF0000000000FF
310
F000FC0000000003FFFFE0007F00078007F0003FFF80007FFC0000000007FFFF
310
C0000000007FFFF80FFFFFFFFFFFFFC07FFFFFF0001FFFFFF8001FFFFFFFFC00
310
0FF8001FFFFFFFFC000FFF0003FFFFFFFFFE0000000003FFF000FC000000000F
310
FFFFE0007F80070007F8001FFF80007FF8000000001FFFFF8000000001FFFFF8
310
0FFFFFFFFFFFFFC07FFFFFF0001FFFFFF8001FFFFFFFFC000FF8001FFFFFFFFC
310
000FFF0003FFFFFFFFFC000000000FFFF000F8000000007FFFFFE0007F800700
310
07F8001FFF80007FF000000000FFFFFF800000000FFFFFF80FFFFFFFFFFFFFC0
310
7FFFFFF0001FFFFFF8000FFFFFFFF8000FF8000FFFFFFFF8000FFF0003FFFFFF
310
FFFC000000007FFFF000F800000007FFFFFFC0007F8003000FF8001FFF80007F
310
F000000007FFFFFF000000007FFFFFF80FFFFFFFFFFFFFC07FFFFFF0001FFFFF
310
F8000FFFFFFFF8000FF8000FFFFFFFF8000FFF0003FFFFFFFFF80000000FFFFF
310
F000F0000000FFFFFFFFC000FF8003000FF8001FFF80007FE0000000FFFFFFFF
310
0000000FFFFFFFF8000001FFFE0000007FFFFFF0001FFFFFF8000FFFFFFFF800
310
0FF8000FFFFFFFF8000FFF0003FFFFFFFFF8000000FFFFFFF000F000000FFFFF
310
FFFFC000FFC002000FF8000FFF80007FE000001FFFFFFFFE000001FFFFFFFFF8
310
000001FFFE0000007FFFFFF0001FFFFFF8000FFFFFFFF8000FF8000FFFFFFFF8
310
000FFF0003FFFFFFFFF000001FFFFFFFF000E00000FFFFFFFFFFC000FFC00200
310
0FFC000FFF80007FE00001FFFFFFFFFE00001FFFFFFFFFF8000001FFFE000000
310
7FFFFFF0001FFFFFFC000FFFFFFFF8001FFC000FFFFFFFF8001FFF0003FFFFFF
310
FFF00001FFFFFFFFF000E00007FFFFFFFFFF8000FFC000001FFC000FFF80007F
310
C0000FFFFFFFFFFE0000FFFFFFFFFFF8000001FFFE0000007FFFFFF0001FFFFF
310
FC0007FFFFFFF0001FFC0007FFFFFFF0001FFF0003FFFFFFFFF00007FFFFFFFF
310
F000E0001FFFFFFFFFFF8000FFC000001FFC000FFF80007FC0003FFFFFFFFFFE
310
0001FFFFFFFFFFF8000001FFFE0000007FFFFFF0001FFFFFFC0007FFFFFFF000
310
1FFC0007FFFFFFF0001FFF0003FFFFFFFFF0001FFFFFFFFFF000E0003FFFFF00
310
03FF8001FFE000001FFC0007FF80007FC0007FFFFF0007FC0003FFFFF0003FF8
310
000001FFFE0000007FFFFFF0001FFFFFFC0003FFFFFFE0001FFC0003FFFFFFE0
310
001FFF0003FFFFFFFFF0003FFFFFFFFFF000E0003FFFFF0001FF8001FFE00000
310
1FFE0007FF80007FC0007FFFFE0003FC0007FFFFE0003FF8000001FFFE000000
310
7FFFFFF0001FFFFFFE0003FFFFFFE0003FFE0003FFFFFFE0003FFF0003FFFFFF
310
FFF0003FFFFF8001F000E0003FFFFF0001FF0001FFE000001FFE0007FF80007F
310
C0007FFFFE0003FC0007FFFFE0003FF8000001FFFE0000007FFFFFF0001FFFFF
310
FE0001FFFFFFC0003FFE0001FFFFFFC0003FFF0003FFFFFFFFF0003FFFFF0001
310
F000E0003FFFFF0003FF0001FFE000003FFE0007FF80007FC0007FFFFE0003FC
310
0007FFFFE0003FF8000001FFFE0000007FFFFFF0001FFFFFFF0001FFFFFFC000
310
7FFF0001FFFFFFC0007FFF0003FFFFFFFFF0003FFFFF0001F000E0003FFFFE00
310
03FF0003FFF000003FFE0003FF80007FC0007FFFFC0003FE0007FFFFE0003FF8
310
000001FFFE0000007FFFFFF0001FFFFFFF0000FFFFFF80007FFF0000FFFFFF80
310
007FFF0003FFFFFFFFF0003FFFFF0001F000E0003FFFFE0003FF0003FFF00000
310
3FFF0003FF80007FC0007FFFFC0007FE0007FFFFC0003FF8000001FFFE000000
310
7FFFFFF0001FFFFFFF80007FFFFF0000FFFF80007FFFFF0000FFFF0003FFFFFF
310
FFF0003FFFFF0003F000E0003FFFFC0003FE0003FFF000003FFF0003FF80007F
310
E0003FFFF80007FE0003FFFFC0007FF8000001FFFE0000007FFFFFF0001FFFFF
310
FF80003FFFFE0000FFFF80003FFFFE0000FFFF0003FFFFFFFFF0001FFFFE0003
310
F000F0001FFFF80003FE0003FFF000007FFF0001FF80007FE0003FFFF00007FE
310
0001FFFF80007FF8000001FFFE0000007FFFFFF0001FFFFFFFC0000FFFF80001
310
FFFFC0000FFFF80001FFFF0003FFFFFFFFF0001FFFFC0003F000F0000FFFF000
310
07FE0007FFF800007FFF0001FF80007FE0001FFFE00007FF0000FFFE00007FF8
310
000001FFFE0000007FFFFFF0001FFFFFFFC00003FFE00001FFFFC00003FFE000
310
01FFFF0003FFFFFFFFF8000FFFF80003F000F00003FFC00007FC0007FFF80000
310
7FFF8001FF80007FF00007FF80000FFF00007FF80000FFF8000001FFFE000000
310
7F80000000000001FFE000003E000003FFFFE000003E000003FFFF0003FFFFFF
310
FFF80003FFE00007F000F800000000000FFC0007FFF800007FFF8001FF80007F
310
F000000000000FFF000000000000FFF8000001FFFE0000007F80000000000001
310
FFF0000000000007FFFFF0000000000007FFFF0003FFFFFFFFFC00007E000007
310
F000F800000000000FFC0007FFF80000FFFF8000FF80007FF800000000001FFF
310
800000000001FFF8000001FFFE0000007F80000000000001FFF800000000000F
310
FFFFF800000000000FFFFF0003FFFFFFFFFC00000000000FF000FC0000000000
310
1FFC0007FFFC0000FFFF8000FF80007FF800000000003FFFC00000000001FFF8
310
000001FFFE0000007F80000000000001FFF800000000000FFFFFF80000000000
310
0FFFFF0003FFFFFFFFFE00000000001FF000FE00000000003FF8000FFFFC0000
310
FFFF8000FF80007FFC00000000003FFFC00000000003FFF8000001FFFE000000
310
7F80000000000001FFFC00000000001FFFFFFC00000000001FFFFF0003FFFFFF
310
FFFF00000000001FF000FF00000000003FF8000FFFFC0000FFFFC000FF80007F
310
FE00000000007FFFE00000000007FFF8000001FFFE0000007F80000000000001
310
FFFE00000000003FFFFFFE00000000003FFFFF0003FFFFFFFFFF80000000003F
310
F000FF80000000007FF8000FFFFC0001FFFFC0007F80007FFF0000000000FFFF
310
F0000000000FFFF800000000000000007F80000000000001FFFF8000000000FF
310
FFFFFF8000000000FFFFFF0003FFFFFFFFFFC0000000007FF000FFC000000000
310
FFF8000FFFFE0001FFFFC0007F80007FFF8000000001FFFFF8000000001FFFF8
310
00000000000000007F80000000000001FFFFC000000001FFFFFFFFC000000001
310
FFFFFF0003FFFFFFFFFFE000000000FFF000FFE000000003FFF0001FFFFE0001
310
FFFFC0007F80007FFFC000000007FFFFFE000000003FFFF80000000000000000
310
7F80000000000001FFFFE000000003FFFFFFFFE000000003FFFFFF0003FFFFFF
310
FFFFF000000003FFF000FFF80000000FFFF0001FFFFE0001FFFFE0007F80007F
310
FFF00000000FFFFFFF00000000FFFFF800000000000000007F80000000000001
310
FFFFF80000000FFFFFFFFFF80000000FFFFFFF0003FFFFFFFFFFFC0000000FFF
310
F000FFFE0000003FFFF0001FFFFE0003FFFFE0003F80007FFFFC0000003FFFFF
310
FFC0000003FFFFF800000000000000007F80000000000001FFFFFE0000003FFF
310
FFFFFFFE0000003FFFFFFF0003FFFFFFFFFFFF0000003FFFF000FFFF800000FF
310
FFF0001FFFFF0003FFFFE0003F80007FFFFF000001FFFFFFFFF800001FFFFFF8
310
00000000000000007F80000000000001FFFFFFC00001FFFFFFFFFFFFC00001FF
310
FFFFFF0003FFFFFFFFFFFFC00000FFFFF000FFFFF8000FFFFFFFFFFFFFFFFFFF
310
FFFFFFFFFFFFFFFFFFFFF0001FFFFFFFFFFF0000FFFFFFF80000000000000000
310
7FFFFFFFFFFFFFFFFFFFFFFC001FFFFFFFFFFFFFFC001FFFFFFFFFFFFFFFFFFF
310
FFFFFFFC001FFFFFF000FFFFFFFFFFFFFFFFFFFFFFFFFFFFFFFFFFFFFFFFFFFF
310
FFFFFFFFFFFFFFFFFFFFFFFFFFFFFFFFFFFFFFFFFFFFFFFFFFFFFFFFFFFFFFFF
310
FFFFFFFFFFFFFFFFFFFFFFFFFFFFFFFFFFFFFFFFFFFFFFFFFFFFFFFFFFFFFFFF
310
F000FFFFFFFFFFFFFFFFFFFFFFFFFFFFFFFFFFFFFFFFFFFFFFFFFFFFFFFFFFFF
310
FFFFFFFFFFFFFFFFFFFFFFFFFFFFFFFFFFFFFFFFFFFFFFFFFFFFFFFFFFFFFFFF
310
FFFFFFFFFFFFFFFFFFFFFFFFFFFFFFFFFFFFFFFFFFFFFFFFF000FFFFFFFFFFFF
310
FFFFFFFFFFFFFFFFFFFFFFFFFFFFFFFFFFFFFFFFFFFFFFFFFFFFFFFFFFFFFFFF
310
FFFFFFFFFFFFFFFFFFFFFFFFFFFFFFFFFFFFFFFFFFFFFFFFFFFFFFFFFFFFFFFF
310
FFFFFFFFFFFFFFFFFFFFFFFFFFFFFFFFF000FFFFFFFFFFFFFFFFFFFFFFFFFFFF
310
FFFFFFFFFFFFFFFFFFFFFFFFFFFFFFFFFFFFFFFFFFFFFFFFFFFFFFFFFFFFFFFF
310
FFFFFFFFFFFFFFFFFFFFFFFFFFFFFFFFFFFFFFFFFFFFFFFFFFFFFFFFFFFFFFFF
310
FFFFFFFFFFFFFFFFF000FFFFFFFFFFFFFFFFFFFFFFFFFFFFFFFFFFFFFFFFFFFF
310
FFFFFFFFFFFFFFFFFFFFFFFFFFFFFFFFFFFFFFFFFFFFFFFFFFFFFFFFFFFFFFFF
310
FFFFFFFFFFFFFFFFFFFFFFFFFFFFFFFFFFFFFFFFFFFFFFFFFFFFFFFFFFFFFFFF
310
F000FFFFFFFFFFFFFFFFFFFFFFFFFFFFFFFFFFFFFFFFFFFFFFFFFFFFFFFFFFFF
310
FFFFFFFFFFFFFFFFFFFFFFFFFFFFFFFFFFFFFFFFFFFFFFFFFFFFFFFFFFFFFFFF
310
FFFFFFFFFFFFFFFFFFFFFFFFFFFFFFFFFFFFFFFFFFFFFFFFF000FFFFFFFFFFFF
310
FFFFFFFFFFFFFFFFFFFFFFFFFFFFFFFFFFFFFFFFFFFFFFFFFFFFFFFFFFFFFFFF
310
FFFFFFFFFFFFFFFFFFFFFFFFFFFFFFFFFFFFFFFFFFFFFFFFFFFFFFFFFFFFFFFF
310
FFFFFFFFFFFFFFFFFFFFFFFFFFFFFFFFF000FFFFFFFFFFFFFFFFFFFFFFFFFFFF
310
FFFFFFFFFFFFFFFFFFFFFFFFFFFFFFFFFFFFFFFFFFFFFFFFFFFFFFFFFFFFFFFF
310
FFFFFFFFFFFFFFFFFFFFFFFFFFFFFFFFFFFFFFFFFFFFFFFFFFFFFFFFFFFFFFFF
310
FFFFFFFFFFFFFFFFF000FFFFFFFFFFFFFFFFFFFFFFFFFFFFFFFFFFFFFFFFFFFF
310
FFFFFFFFFFFFFFFFFFFFFFFFFFFFFFFFFFFFFFFFFFFFFFFFFFFFFFFFFFFFFFFF
310
FFFFFFFFFFFFFFFFFFFFFFFFFFFFFFFFFFFFFFFFFFFFFFFFFFFFFFFFFFFFFFFF
310
F000FFFFFFFFFFFFFFFFFFFFFFFFFFFFFFFFFFFFFFFFFFFFFFFFFFFFFFFFFFFF
310
FFFFFFFFFFFFFFFFFFFFFFFFFFFFFFFFFFFFFFFFFFFFFFFFFFFFFFFFFFFFFFFF
310
FFFFFFFFFFFFFFFFFFFFFFFFFFFFFFFFFFFFFFFFFFFFFFFFF000FFFFFFFFFFFF
310
FFFFFFFFFFFFFFFFFFFFFFFFFFFFFFFFFFFFFFFFFFFFFFFFFFFFFFFFFFFFFFFF
310
FFFFFFFFFFFFFFFFFFFFFFFFFFFFFFFFFFFFFFFFFFFFFFFFFFFFFFFFFFFFFFFF
310
FFFFFFFFFFFFFFFFFFFFFFFFFFFFFFFFF000FFFFFFFFFFFFFFFFFFFFFFFFFFFF
310
FFFFFFFFFFFFFFFFFFFFFFFFFFFFFFFFFFFFFFFFFFFFFFFFFFFFFFFFFFFFFFFF
310
FFFFFFFFFFFFFFFFFFFFFFFFFFFFFFFFFFFFFFFFFFFFFFFFFFFFFFFFFFFFFFFF
310
FFFFFFFFFFFFFFFFF000FFFFFFFFFFFFFFFFFFFFFFFFFFFFFFFFFFFFFFFFFFFF
310
FFFFFFFFFFFFFFFFFFFFFFFFFFFFFFFFFFFFFFFFFFFFFFFFFFFFFFFFFFFFFFFF
310
FFFFFFFFFFFFFFFFFFFFFFFFFFFFFFFFFFFFFFFFFFFFFFFFFFFFFFFFFFFFFFFF
310
F000FFFFFFFFFFFFFFFFFFFFFFFFFFFFFFFFFFFFFFFFFFFFFFFFFFFFFFFFFFFF
310
FFFFFFFFFFFFFFFFFFFFFFFFFFFFFFFFFFFFFFFFFFFFFFFFFFFFFFFFFFFFFFFF
310
FFFFFFFFFFFFFFFFFFFFFFFFFFFFFFFFFFFFFFFFFFFFFFFFF000FFFFFFFFFFFF
310
FFFFFFFFFFFFFFFFFFFFFFFFFFFFFFFFFFFFFFFFFFFFFFFFFFFFFFFFFFFFFFFF
310
FFFFFFFFFFFFFFFFFFFFFFFFFFFFFFFFFFFFFFFFFFFFFFFFFFFFFFFFFFFFFFFF
310
FFFFFFFFFFFFFFFFFFFFFFFFFFFFFFFFF000FFFFFFFFFFFFFFFFFFFFFFFFFFFF
310
FFFFFFFFFFFFFFFFFFFFFFFFFFFFFFFFFFFFFFFFFFFFFFFFFFFFFFFFFFFFFFFF
310
FFFFFFFFFFFFFFFFFFFFFFFFFFFFFFFFFFFFFFFFFFFFFFFFFFFFFFFFFFFFFFFF
310
FFFFFFFFFFFFFFFFF000FFFFFFFFFFFFFFFFFFFFFFFFFFFFFFFFFFFFFFFFFFFF
310
FFFFFFFFFFFFFFFFFFFFFFFFFFFFFFFFFFFFFFFFFFFFFFFFFFFFFFFFFFFFFFFF
310
FFFFFFFFFFFFFFFFFFFFFFFFFFFFFFFFFFFFFFFFFFFFFFFFFFFFFFFFFFFFFFFF
310
F000FFFFFFFFFFFFFFFFFFFFFFFFFFFFFFFFFFFFFFFFFFFFFFFFFFFFFFFFFFFF
310
FFFFFFFFFFFFFFFFFFFFFFFFFFFFFFFFFFFFFFFFFFFFFFFFFFFFFFFFFFFFFFFF
310
FFFFFFFFFFFFFFFFFFFFFFFFFFFFFFFFFFFFFFFFFFFFFFFFF000FFFFFFFFFFFF
310
FFFFFFFFFFFFFFFFFFFFFFFFFFFFFFFFFFFFFFFFFFFFFFFFFFFFFFFFFFFFFFFF
310
FFFFFFFFFFFFFFFFFFFFFFFFFFFFFFFFFFFFFFFFFFFFFFFFFFFFFFFFFFFFFFFF
310
FFFFFFFFFFFFFFFFFFFFFFFFFFFFFFFFF000FFFFFFFFFFFFFFFFFFFFFFFFFFFF
310
FFFFFFFFFFFFFFFFFFFFFFFFFFFFFFFFFFFFFFFFFFFFFFFFFFFFFFFFFFFFFFFF
310
FFFFFFFFFFFFFFFFFFFFFFFFFFFFFFFFFFFFFFFFFFFFFFFFFFFFFFFFFFFFFFFF
310
FFFFFFFFFFFFFFFFF000FFFFFFFFFFFFFFFFFFFFFFFFFFFFFFFFFFFFFFFFFFFF
310
FFFFFFFFFFFFFFFFFFFFFFFFFFFFFFFFFFFFFFFFFFFFFFFFFFFFFFFFFFFFFFFF
310
FFFFFFFFFFFFFFFFFFFFFFFFFFFFFFFFFFFFFFFFFFFFFFFFFFFFFFFFFFFFFFFF
310
F000FFFFFFFFFFFFFFFFFFFFFFFFFFFFFFFFFFFFFFFFFFFFFFFFFFFFFFFFFFFF
310
FFFFFFFFFFFFFFFFFFFFFFFFFFFFFFFFFFFFFFFFFFFFFFFFFFFFFFFFFFFFFFFF
310
FFFFFFFFFFFFFFFFFFFFFFFFFFFFFFFFFFFFFFFFFFFFFFFFF000FFFFFFFFFFFF
310
FFFFFFFFFFFFFFFFFFFFFFFFFFFFFFFFFFFFFFFFFFFFFFFFFFFFFFFFFFFFFFFF
310
FFFFFFFFFFFFFFFFFFFFFFFFFFFFFFFFFFFFFFFFFFFFFFFFFFFFFFFFFFFFFFFF
310
FFFFFFFFFFFFFFFFFFFFFFFFFFFFFFFFF0000000000000000000000000000000
310
0000000000000000000000000000000000000000000000000000000000000000
310
0000000000000000000000000000000000000000000000000000000000000000
310
00000000000000000000000000000000000000004C0000000000000000000000
310
0000000000000000000000000000000000000000000000000000000000000000
310
00000000000000000000000000000000000000000000FFFFFFFFFFFFFFFFFFFF
310
FFFFFFFFFFFFFFFFFFFFFFFFFFFFFFFFFFFFFFFFFFFFFFFFFFFFFFFFFFFFFFFF
310
FFFFFFFFFFFFFFFFFFFFFFFFFFFFFFFFFFFFFFFF6476000800000000FFFFFFFF
310
00FF2020290000001F0000000A00000009000000000000001F00000022000000
310
2C0100000000000060000000600000000000E8FF200020000000001B80FFFFFF
310
40002200E80300000E050000C4030000FF0200E0FFFCC76A1200000000000000
310
0500020000000000616C000800000000E401000070010000020000002B000000
310
1F0000000000000000000000F401000000000080030201124B006F007A007500
310
6B00610020004D0069006E00630068006F002000500072006F0020004D000000
310
0000000000000000000000000000000000000000000000004B006F007A004D00
310
69006E00500072006F002D004D0065006400690075006D000000000000000000
  1
OLE
  0
ENDSEC
  0
SECTION
  2
OBJECTS
  0
DICTIONARY
  5
C
330
0
100
AcDbDictionary
281
     1
  3
ACAD_GROUP
350
D
  3
ACAD_LAYOUT
350
1A
  3
ACAD_MLEADERSTYLE
350
2F4
  3
ACAD_MLINESTYLE
350
17
  3
ACAD_PLOTSETTINGS
350
19
  3
ACAD_PLOTSTYLENAME
350
E
  3
ACAD_TABLESTYLE
350
2F3
  3
ACAD_VISUALSTYLE
350
2A
  3
AcDbVariableDictionary
350
2F5
  0
DICTIONARY
  5
D
102
{ACAD_REACTORS
330
C
102
}
330
C
100
AcDbDictionary
281
     1
  0
DICTIONARY
  5
1A
102
{ACAD_REACTORS
330
C
102
}
330
C
100
AcDbDictionary
281
     1
  3
Layout1
350
1E
  3
Layout2
350
26
  3
Model
350
22
  0
DICTIONARY
  5
2F4
102
{ACAD_REACTORS
330
C
102
}
330
C
100
AcDbDictionary
281
     1
  0
DICTIONARY
  5
17
102
{ACAD_REACTORS
330
C
102
}
330
C
100
AcDbDictionary
281
     1
  3
Standard
350
18
  0
DICTIONARY
  5
19
102
{ACAD_REACTORS
330
C
102
}
330
C
100
AcDbDictionary
281
     1
  0
ACDBDICTIONARYWDFLT
  5
E
102
{ACAD_REACTORS
330
C
102
}
330
C
100
AcDbDictionary
281
     1
  3
Normal
350
F
100
AcDbDictionaryWithDefault
340
F
  0
DICTIONARY
  5
2F3
102
{ACAD_REACTORS
330
C
102
}
330
C
100
AcDbDictionary
281
     1
  0
DICTIONARY
  5
2A
102
{ACAD_REACTORS
330
C
102
}
330
C
100
AcDbDictionary
281
     1
  3
2dWireframe
350
2F
  3
3D Hidden
350
31
  3
3dWireframe
350
30
  3
Basic
350
32
  3
Brighten
350
36
  3
ColorChange
350
3A
  3
Conceptual
350
34
  3
Dim
350
35
  3
Facepattern
350
39
  3
Flat
350
2B
  3
FlatWithEdges
350
2C
  3
Gouraud
350
2D
  3
GouraudWithEdges
350
2E
  3
Linepattern
350
38
  3
Realistic
350
33
  3
Thicken
350
37
  0
DICTIONARY
  5
2F5
102
{ACAD_REACTORS
330
C
102
}
330
C
100
AcDbDictionary
281
     1
  3
PSOLHEIGHT
350
2F7
  3
PSOLWIDTH
350
2F6
  0
LAYOUT
  5
1E
102
{ACAD_REACTORS
330
1A
102
}
330
1A
100
AcDbPlotSettings
  1

  2
none_device
  4

  6

 40
0.0
 41
0.0
 42
0.0
 43
0.0
 44
0.0
 45
0.0
 46
0.0
 47
0.0
 48
0.0
 49
0.0
140
0.0
141
0.0
142
1.0
143
1.0
 70
   688
 72
     0
 73
     0
 74
     5
  7

 75
    16
147
1.0
148
0.0
149
0.0
100
AcDbLayout
  1
Layout1
 70
     1
 71
     1
 10
0.0
 20
0.0
 11
420.0
 21
297.0
 12
0.0
 22
0.0
 32
0.0
 14
1.0000000000E+20
 24
1.0000000000E+20
 34
1.0000000000E+20
 15
-1.0000000000E+20
 25
-1.0000000000E+20
 35
-1.0000000000E+20
146
0.0
 13
0.0
 23
0.0
 33
0.0
 16
1.0
 26
0.0
 36
0.0
 17
0.0
 27
1.0
 37
0.0
 76
     0
330
1B
  0
LAYOUT
  5
26
102
{ACAD_REACTORS
330
1A
102
}
330
1A
100
AcDbPlotSettings
  1

  2
none_device
  4

  6

 40
0.0
 41
0.0
 42
0.0
 43
0.0
 44
0.0
 45
0.0
 46
0.0
 47
0.0
 48
0.0
 49
0.0
140
0.0
141
0.0
142
1.0
143
1.0
 70
   688
 72
     0
 73
     0
 74
     5
  7

 75
    16
147
1.0
148
0.0
149
0.0
100
AcDbLayout
  1
Layout2
 70
     1
 71
     2
 10
0.0
 20
0.0
 11
0.0
 21
0.0
 12
0.0
 22
0.0
 32
0.0
 14
0.0
 24
0.0
 34
0.0
 15
0.0
 25
0.0
 35
0.0
146
0.0
 13
0.0
 23
0.0
 33
0.0
 16
1.0
 26
0.0
 36
0.0
 17
0.0
 27
1.0
 37
0.0
 76
     0
330
23
  0
LAYOUT
  5
22
102
{ACAD_REACTORS
330
1A
102
}
330
1A
100
AcDbPlotSettings
  1

  2
none_device
  4

  6

 40
0.0
 41
0.0
 42
0.0
 43
0.0
 44
0.0
 45
0.0
 46
0.0
 47
0.0
 48
0.0
 49
0.0
140
0.0
141
0.0
142
1.0
143
1.0
 70
  1712
 72
     0
 73
     0
 74
     0
  7

 75
     0
147
1.0
148
0.0
149
0.0
100
AcDbLayout
  1
Model
 70
     1
 71
     0
 10
0.0
 20
0.0
 11
297.0
 21
210.0
 12
0.0
 22
0.0
 32
0.0
 14
0.0
 24
0.0
 34
0.0
 15
297.0
 25
210.0
 35
0.0
146
0.0
 13
0.0
 23
0.0
 33
0.0
 16
1.0
 26
0.0
 36
0.0
 17
0.0
 27
1.0
 37
0.0
 76
     0
330
1F
331
29
  0
MLINESTYLE
  5
18
102
{ACAD_REACTORS
330
17
102
}
330
17
100
AcDbMlineStyle
  2
Standard
 70
     0
  3

 62
   256
 51
90.0
 52
90.0
 71
     2
 49
0.5
 62
   256
  6
BYLAYER
 49
-0.5
 62
   256
  6
BYLAYER
  0
ACDBPLACEHOLDER
  5
F
102
{ACAD_REACTORS
330
E
102
}
330
E
  0
VISUALSTYLE
  5
2F
102
{ACAD_REACTORS
330
2A
102
}
330
2A
100
AcDbVisualStyle
  2
2dWireframe
 70
     4
 71
     0
 72
     2
 73
     0
 90
        0
 40
-0.6
 41
-30.0
 62
     5
 63
     7
 74
     1
 91
        4
 64
     7
 65
   257
 75
     1
175
     1
 42
1.0
 92
        0
 66
   257
 43
1.0
 76
     1
 77
     6
 78
     2
 67
     7
 79
     5
170
     0
171
     0
290
     0
174
     0
 93
        1
 44
0.0
173
     0
291
     0
 45
0.0
1001
ACAD
1000
AcDbSavedByObjectVersion
1070
     0
  0
VISUALSTYLE
  5
31
102
{ACAD_REACTORS
330
2A
102
}
330
2A
100
AcDbVisualStyle
  2
3D Hidden
 70
     6
 71
     1
 72
     2
 73
     2
 90
        0
 40
-0.6
 41
-30.0
 62
     5
 63
     7
 74
     2
 91
        2
 64
     7
 65
   257
 75
     2
175
     1
 42
40.0
 92
        0
 66
   257
 43
1.0
 76
     1
 77
     6
 78
     2
 67
     7
 79
     3
170
     0
171
     0
290
     0
174
     0
 93
        1
 44
0.0
173
     0
291
     0
 45
0.0
1001
ACAD
1000
AcDbSavedByObjectVersion
1070
     0
  0
VISUALSTYLE
  5
30
102
{ACAD_REACTORS
330
2A
102
}
330
2A
100
AcDbVisualStyle
  2
3dWireframe
 70
     5
 71
     0
 72
     2
 73
     0
 90
        0
 40
-0.6
 41
-30.0
 62
     5
 63
     7
 74
     1
 91
        4
 64
     7
 65
   257
 75
     1
175
     1
 42
1.0
 92
        0
 66
   257
 43
1.0
 76
     1
 77
     6
 78
     2
 67
     7
 79
     5
170
     0
171
     0
290
     0
174
     0
 93
        1
 44
0.0
173
     0
291
     0
 45
0.0
1001
ACAD
1000
AcDbSavedByObjectVersion
1070
     0
  0
VISUALSTYLE
  5
32
102
{ACAD_REACTORS
330
2A
102
}
330
2A
100
AcDbVisualStyle
  2
Basic
 70
     7
 71
     1
 72
     0
 73
     1
 90
        0
 40
-0.6
 41
-30.0
 62
     5
 63
     7
 74
     0
 91
        4
 64
     7
 65
   257
 75
     1
175
     1
 42
1.0
 92
        8
 66
     7
 43
1.0
 76
     1
 77
     6
 78
     2
 67
     7
 79
     5
170
     0
171
     0
290
     0
174
     0
 93
        1
 44
0.0
173
     0
291
     1
 45
0.0
1001
ACAD
1000
AcDbSavedByObjectVersion
1070
     0
  0
VISUALSTYLE
  5
36
102
{ACAD_REACTORS
330
2A
102
}
330
2A
100
AcDbVisualStyle
  2
Brighten
 70
    12
 71
     2
 72
     2
 73
     0
 90
        0
 40
-0.6
 41
-30.0
 62
     5
 63
     7
 74
     1
 91
        4
 64
     7
 65
   257
 75
     1
175
     1
 42
1.0
 92
        8
 66
     7
 43
1.0
 76
     1
 77
     6
 78
     2
 67
     7
 79
     5
170
     0
171
     0
290
     0
174
     0
 93
        1
 44
50.0
173
     0
291
     1
 45
0.0
1001
ACAD
1000
AcDbSavedByObjectVersion
1070
     0
  0
VISUALSTYLE
  5
3A
102
{ACAD_REACTORS
330
2A
102
}
330
2A
100
AcDbVisualStyle
  2
ColorChange
 70
    16
 71
     2
 72
     2
 73
     3
 90
        0
 40
-0.6
 41
-30.0
 62
     5
 63
     8
 74
     1
 91
        4
 64
     7
 65
   257
 75
     1
175
     1
 42
1.0
 92
        8
 66
     8
 43
1.0
 76
     1
 77
     6
 78
     2
 67
     7
 79
     5
170
     0
171
     0
290
     0
174
     0
 93
        1
 44
0.0
173
     0
291
     1
 45
0.0
1001
ACAD
1000
AcDbSavedByObjectVersion
1070
     0
  0
VISUALSTYLE
  5
34
102
{ACAD_REACTORS
330
2A
102
}
330
2A
100
AcDbVisualStyle
  2
Conceptual
 70
     9
 71
     3
 72
     2
 73
     0
 90
        0
 40
-0.6
 41
-30.0
 62
     5
 63
     7
 74
     2
 91
        2
 64
     7
 65
   257
 75
     1
175
     1
 42
40.0
 92
        8
 66
     7
 43
1.0
 76
     1
 77
     6
 78
     2
 67
     7
 79
     3
170
     0
171
     0
290
     0
174
     0
 93
        1
 44
0.0
173
     0
291
     0
 45
0.0
1001
ACAD
1000
AcDbSavedByObjectVersion
1070
     0
  0
VISUALSTYLE
  5
35
102
{ACAD_REACTORS
330
2A
102
}
330
2A
100
AcDbVisualStyle
  2
Dim
 70
    11
 71
     2
 72
     2
 73
     0
 90
        0
 40
-0.6
 41
-30.0
 62
     5
 63
     7
 74
     1
 91
        4
 64
     7
 65
   257
 75
     1
175
     1
 42
1.0
 92
        8
 66
     7
 43
1.0
 76
     1
 77
     6
 78
     2
 67
     7
 79
     5
170
     0
171
     0
290
     0
174
     0
 93
        1
 44
-50.0
173
     0
291
     1
 45
0.0
1001
ACAD
1000
AcDbSavedByObjectVersion
1070
     0
  0
VISUALSTYLE
  5
39
102
{ACAD_REACTORS
330
2A
102
}
330
2A
100
AcDbVisualStyle
  2
Facepattern
 70
    15
 71
     2
 72
     2
 73
     0
 90
        0
 40
-0.6
 41
-30.0
 62
     5
 63
     7
 74
     1
 91
        4
 64
     7
 65
   257
 75
     1
175
     1
 42
1.0
 92
        8
 66
     7
 43
1.0
 76
     1
 77
     6
 78
     2
 67
     7
 79
     5
170
     0
171
     0
290
     0
174
     0
 93
        1
 44
0.0
173
     0
291
     1
 45
0.0
1001
ACAD
1000
AcDbSavedByObjectVersion
1070
     0
  0
VISUALSTYLE
  5
2B
102
{ACAD_REACTORS
330
2A
102
}
330
2A
100
AcDbVisualStyle
  2
Flat
 70
     0
 71
     2
 72
     1
 73
     1
 90
        2
 40
-0.6
 41
30.0
 62
     5
 63
     7
 74
     0
 91
        4
 64
     7
 65
   257
 75
     1
175
     1
 42
1.0
 92
        8
 66
     7
 43
1.0
 76
     1
 77
     6
 78
     2
 67
     7
 79
     5
170
     0
171
     0
290
     0
174
     0
 93
       13
 44
0.0
173
     0
291
     1
 45
0.0
1001
ACAD
1000
AcDbSavedByObjectVersion
1070
     0
  0
VISUALSTYLE
  5
2C
102
{ACAD_REACTORS
330
2A
102
}
330
2A
100
AcDbVisualStyle
  2
FlatWithEdges
 70
     1
 71
     2
 72
     1
 73
     1
 90
        2
 40
-0.6
 41
30.0
 62
     5
 63
     7
 74
     1
 91
        4
 64
     7
 65
   257
 75
     1
175
     1
 42
1.0
 92
        0
 66
   257
 43
1.0
 76
     1
 77
     6
 78
     2
 67
     7
 79
     5
170
     0
171
     0
290
     0
174
     0
 93
       13
 44
0.0
173
     0
291
     1
 45
0.0
1001
ACAD
1000
AcDbSavedByObjectVersion
1070
     0
  0
VISUALSTYLE
  5
2D
102
{ACAD_REACTORS
330
2A
102
}
330
2A
100
AcDbVisualStyle
  2
Gouraud
 70
     2
 71
     2
 72
     2
 73
     1
 90
        2
 40
-0.6
 41
30.0
 62
     5
 63
     7
 74
     0
 91
        4
 64
     7
 65
   257
 75
     1
175
     1
 42
1.0
 92
        0
 66
     7
 43
1.0
 76
     1
 77
     6
 78
     2
 67
     7
 79
     5
170
     0
171
     0
290
     0
174
     0
 93
       13
 44
0.0
173
     0
291
     1
 45
0.0
1001
ACAD
1000
AcDbSavedByObjectVersion
1070
     0
  0
VISUALSTYLE
  5
2E
102
{ACAD_REACTORS
330
2A
102
}
330
2A
100
AcDbVisualStyle
  2
GouraudWithEdges
 70
     3
 71
     2
 72
     2
 73
     1
 90
        2
 40
-0.6
 41
30.0
 62
     5
 63
     7
 74
     1
 91
        4
 64
     7
 65
   257
 75
     1
175
     1
 42
1.0
 92
        0
 66
   257
 43
1.0
 76
     1
 77
     6
 78
     2
 67
     7
 79
     5
170
     0
171
     0
290
     0
174
     0
 93
       13
 44
0.0
173
     0
291
     1
 45
0.0
1001
ACAD
1000
AcDbSavedByObjectVersion
1070
     0
  0
VISUALSTYLE
  5
38
102
{ACAD_REACTORS
330
2A
102
}
330
2A
100
AcDbVisualStyle
  2
Linepattern
 70
    14
 71
     2
 72
     2
 73
     0
 90
        0
 40
-0.6
 41
-30.0
 62
     5
 63
     7
 74
     1
 91
        4
 64
     7
 65
   257
 75
     7
175
     7
 42
1.0
 92
        8
 66
     7
 43
1.0
 76
     1
 77
     6
 78
     2
 67
     7
 79
     5
170
     0
171
     0
290
     0
174
     0
 93
        1
 44
0.0
173
     0
291
     1
 45
0.0
1001
ACAD
1000
AcDbSavedByObjectVersion
1070
     0
  0
VISUALSTYLE
  5
33
102
{ACAD_REACTORS
330
2A
102
}
330
2A
100
AcDbVisualStyle
  2
Realistic
 70
     8
 71
     2
 72
     2
 73
     0
 90
        0
 40
-0.6
 41
-30.0
 62
     5
 63
     7
 74
     1
 91
        0
 64
     7
 65
   257
 75
     1
175
     1
 42
1.0
 92
        8
 66
     8
 43
1.0
 76
     1
 77
     6
 78
     2
 67
     7
 79
     5
170
     0
171
     0
290
     0
174
     0
 93
       13
 44
0.0
173
     0
291
     0
 45
0.0
1001
ACAD
1000
AcDbSavedByObjectVersion
1070
     0
  0
VISUALSTYLE
  5
37
102
{ACAD_REACTORS
330
2A
102
}
330
2A
100
AcDbVisualStyle
  2
Thicken
 70
    13
 71
     2
 72
     2
 73
     0
 90
        0
 40
-0.6
 41
-30.0
 62
     5
 63
     7
 74
     1
 91
        4
 64
     7
 65
   257
 75
     1
175
     1
 42
1.0
 92
       12
 66
     7
 43
1.0
 76
     1
 77
     6
 78
     2
 67
     7
 79
     5
170
     0
171
     0
290
     0
174
     0
 93
        1
 44
0.0
173
     0
291
     1
 45
0.0
1001
ACAD
1000
AcDbSavedByObjectVersion
1070
     0
  0
DICTIONARYVAR
  5
2F7
102
{ACAD_REACTORS
330
2F5
102
}
330
2F5
100
DictionaryVariables
280
     0
  1
80.000000
  0
DICTIONARYVAR
  5
2F6
102
{ACAD_REACTORS
330
2F5
102
}
330
2F5
100
DictionaryVariables
280
     0
  1
5.000000
  0
ENDSEC
  0
EOF
