  0
SECTION
  2
HEADER
  9
$ACADVER
  1
AC1015
  9
$ACADMAINTVER
 70
     6
  9
$DWGCODEPAGE
  3
ANSI_1252
  9
$INSBASE
 10
0.0
 20
0.0
 30
0.0
  9
$EXTMIN
 10
0.0
 20
0.0
 30
0.0
  9
$EXTMAX
 10
297.0
 20
210.0
 30
0.0
  9
$LIMMIN
 10
0.0
 20
0.0
  9
$LIMMAX
 10
297.0
 20
210.0
  9
$ORTHOMODE
 70
     0
  9
$REGENMODE
 70
     1
  9
$FILLMODE
 70
     1
  9
$QTEXTMODE
 70
     0
  9
$MIRRTEXT
 70
     1
  9
$LTSCALE
 40
1.0
  9
$ATTMODE
 70
     1
  9
$TEXTSIZE
 40
2.0
  9
$TRACEWID
 40
1.0
  9
$TEXTSTYLE
  7
Standard
  9
$CLAYER
  8
0
  9
$CELTYPE
  6
ByLayer
  9
$CECOLOR
 62
   256
  9
$CELTSCALE
 40
1.0
  9
$DISPSILH
 70
     0
  9
$DIMSCALE
 40
1.0
  9
$DIMASZ
 40
3.0
  9
$DIMEXO
 40
0.0
  9
$DIMDLI
 40
3.75
  9
$DIMRND
 40
0.0
  9
$DIMDLE
 40
0.0
  9
$DIMEXE
 40
1.0
  9
$DIMTP
 40
0.0
  9
$DIMTM
 40
0.0
  9
$DIMTXT
 40
2.0
  9
$DIMCEN
 40
2.5
  9
$DIMTSZ
 40
0.0
  9
$DIMTOL
 70
     0
  9
$DIMLIM
 70
     0
  9
$DIMTIH
 70
     1
  9
$DIMTOH
 70
     1
  9
$DIMSE1
 70
     0
  9
$DIMSE2
 70
     0
  9
$DIMTAD
 70
     1
  9
$DIMZIN
 70
     0
  9
$DIMBLK
  1

  9
$DIMASO
 70
     1
  9
$DIMSHO
 70
     1
  9
$DIMPOST
  1

  9
$DIMAPOST
  1

  9
$DIMALT
 70
     0
  9
$DIMALTD
 70
     3
  9
$DIMALTF
 40
0.0393700787
  9
$DIMLFAC
 40
1.0
  9
$DIMTOFL
 70
     1
  9
$DIMTVP
 40
0.0
  9
$DIMTIX
 70
     0
  9
$DIMSOXD
 70
     0
  9
$DIMSAH
 70
     0
  9
$DIMBLK1
  1

  9
$DIMBLK2
  1

  9
$DIMSTYLE
  2
ISO-25
  9
$DIMCLRD
 70
     0
  9
$DIMCLRE
 70
     0
  9
$DIMCLRT
 70
     0
  9
$DIMTFAC
 40
1.0
  9
$DIMGAP
 40
1.524
  9
$DIMJUST
 70
     0
  9
$DIMSD1
 70
     0
  9
$DIMSD2
 70
     0
  9
$DIMTOLJ
 70
     0
  9
$DIMTZIN
 70
     0
  9
$DIMALTZ
 70
     0
  9
$DIMALTTZ
 70
     0
  9
$DIMUPT
 70
     0
  9
$DIMDEC
 70
     2
  9
$DIMTDEC
 70
     3
  9
$DIMALTU
 70
     2
  9
$DIMALTTD
 70
     3
  9
$DIMTXSTY
  7
Standard
  9
$DIMAUNIT
 70
     0
  9
$DIMADEC
 70
     2
  9
$DIMALTRND
 40
0.0
  9
$DIMAZIN
 70
     0
  9
$DIMDSEP
 70
    44
  9
$DIMATFIT
 70
     3
  9
$DIMFRAC
 70
     0
  9
$DIMLDRBLK
  1

  9
$DIMLUNIT
 70
     2
  9
$DIMLWD
 70
    -2
  9
$DIMLWE
 70
    -2
  9
$DIMTMOVE
 70
     0
  9
$LUNITS
 70
     2
  9
$LUPREC
 70
     2
  9
$SKETCHINC
 40
1.0
  9
$FILLETRAD
 40
10.0
  9
$AUNITS
 70
     0
  9
$AUPREC
 70
     2
  9
$MENU
  1
.
  9
$ELEVATION
 40
0.0
  9
$PELEVATION
 40
0.0
  9
$THICKNESS
 40
0.0
  9
$LIMCHECK
 70
     0
  9
$CHAMFERA
 40
10.0
  9
$CHAMFERB
 40
10.0
  9
$CHAMFERC
 40
20.0
  9
$CHAMFERD
 40
0.0
  9
$SKPOLY
 70
     0
  9
$TDCREATE
 40
2455610.440779954
  9
$TDUCREATE
 40
2455610.399113287
  9
$TDUPDATE
 40
2455610.440779965
  9
$TDUUPDATE
 40
2455610.399113298
  9
$TDINDWG
 40
0.0000000116
  9
$TDUSRTIMER
 40
0.0000000116
  9
$USRTIMER
 70
     1
  9
$ANGBASE
 50
0.0
  9
$ANGDIR
 70
     0
  9
$PDMODE
 70
     0
  9
$PDSIZE
 40
-1.0
  9
$PLINEWID
 40
0.0
  9
$SPLFRAME
 70
     0
  9
$SPLINETYPE
 70
     6
  9
$SPLINESEGS
 70
     8
  9
$HANDSEED
  5
30D
  9
$SURFTAB1
 70
     6
  9
$SURFTAB2
 70
     6
  9
$SURFTYPE
 70
     6
  9
$SURFU
 70
     6
  9
$SURFV
 70
     6
  9
$UCSBASE
  2

  9
$UCSNAME
  2

  9
$UCSORG
 10
0.0
 20
0.0
 30
0.0
  9
$UCSXDIR
 10
1.0
 20
0.0
 30
0.0
  9
$UCSYDIR
 10
0.0
 20
1.0
 30
0.0
  9
$UCSORTHOREF
  2

  9
$UCSORTHOVIEW
 70
     0
  9
$UCSORGTOP
 10
0.0
 20
0.0
 30
0.0
  9
$UCSORGBOTTOM
 10
0.0
 20
0.0
 30
0.0
  9
$UCSORGLEFT
 10
0.0
 20
0.0
 30
0.0
  9
$UCSORGRIGHT
 10
0.0
 20
0.0
 30
0.0
  9
$UCSORGFRONT
 10
0.0
 20
0.0
 30
0.0
  9
$UCSORGBACK
 10
0.0
 20
0.0
 30
0.0
  9
$PUCSBASE
  2

  9
$PUCSNAME
  2

  9
$PUCSORG
 10
0.0
 20
0.0
 30
0.0
  9
$PUCSXDIR
 10
1.0
 20
0.0
 30
0.0
  9
$PUCSYDIR
 10
0.0
 20
1.0
 30
0.0
  9
$PUCSORTHOREF
  2

  9
$PUCSORTHOVIEW
 70
     0
  9
$PUCSORGTOP
 10
0.0
 20
0.0
 30
0.0
  9
$PUCSORGBOTTOM
 10
0.0
 20
0.0
 30
0.0
  9
$PUCSORGLEFT
 10
0.0
 20
0.0
 30
0.0
  9
$PUCSORGRIGHT
 10
0.0
 20
0.0
 30
0.0
  9
$PUCSORGFRONT
 10
0.0
 20
0.0
 30
0.0
  9
$PUCSORGBACK
 10
0.0
 20
0.0
 30
0.0
  9
$USERI1
 70
     0
  9
$USERI2
 70
     0
  9
$USERI3
 70
     0
  9
$USERI4
 70
     0
  9
$USERI5
 70
     0
  9
$USERR1
 40
0.0
  9
$USERR2
 40
0.0
  9
$USERR3
 40
0.0
  9
$USERR4
 40
0.0
  9
$USERR5
 40
0.0
  9
$WORLDVIEW
 70
     1
  9
$SHADEDGE
 70
     3
  9
$SHADEDIF
 70
    70
  9
$TILEMODE
 70
     1
  9
$MAXACTVP
 70
    64
  9
$PINSBASE
 10
0.0
 20
0.0
 30
0.0
  9
$PLIMCHECK
 70
     0
  9
$PEXTMIN
 10
1.0000000000E+20
 20
1.0000000000E+20
 30
1.0000000000E+20
  9
$PEXTMAX
 10
-1.0000000000E+20
 20
-1.0000000000E+20
 30
-1.0000000000E+20
  9
$PLIMMIN
 10
0.0
 20
0.0
  9
$PLIMMAX
 10
420.0
 20
297.0
  9
$UNITMODE
 70
     0
  9
$VISRETAIN
 70
     1
  9
$PLINEGEN
 70
     0
  9
$PSLTSCALE
 70
     1
  9
$TREEDEPTH
 70
  3020
  9
$CMLSTYLE
  2
Standard
  9
$CMLJUST
 70
     0
  9
$CMLSCALE
 40
20.0
  9
$PROXYGRAPHICS
 70
     1
  9
$MEASUREMENT
 70
     1
  9
$CELWEIGHT
370
    -1
  9
$ENDCAPS
280
     0
  9
$JOINSTYLE
280
     0
  9
$LWDISPLAY
290
     1
  9
$INSUNITS
 70
     4
  9
$HYPERLINKBASE
  1

  9
$STYLESHEET
  1

  9
$XEDIT
290
     1
  9
$CEPSNTYPE
380
     0
  9
$PSTYLEMODE
290
     1
  9
$FINGERPRINTGUID
  2
{797FEFE2-2CBE-4CFE-9092-94159E76BFC8}
  9
$VERSIONGUID
  2
{FAEB1C32-E019-11D5-929B-00C0DF256EC4}
  9
$EXTNAMES
290
     1
  9
$PSVPSCALE
 40
0.0
  9
$OLESTARTUP
290
     0
  0
ENDSEC
  0
SECTION
  2
CLASSES
  0
CLASS
  1
ACDBDICTIONARYWDFLT
  2
AcDbDictionaryWithDefault
  3
ObjectDBX Classes
 90
        0
280
     0
281
     0
  0
CLASS
  1
VISUALSTYLE
  2
AcDbVisualStyle
  3
ObjectDBX Classes
 90
     4095
280
     0
281
     0
  0
CLASS
  1
DICTIONARYVAR
  2
AcDbDictionaryVar
  3
ObjectDBX Classes
 90
        0
280
     0
281
     0
  0
CLASS
  1
ACDBPLACEHOLDER
  2
AcDbPlaceHolder
  3
ObjectDBX Classes
 90
        0
280
     0
281
     0
  0
CLASS
  1
LAYOUT
  2
AcDbLayout
  3
ObjectDBX Classes
 90
        0
280
     0
281
     0
  0
ENDSEC
  0
SECTION
  2
TABLES
  0
TABLE
  2
VPORT
  5
8
330
0
100
AcDbSymbolTable
 70
     1
  0
VPORT
  5
29
330
8
100
AcDbSymbolTableRecord
100
AcDbViewportTableRecord
  2
*Active
 70
     0
 10
0.0
 20
0.0
 11
1.0
 21
1.0
 12
148.5
 22
105.0
 13
0.0
 23
0.0
 14
10.0
 24
10.0
 15
10.0
 25
10.0
 16
0.0
 26
0.0
 36
1.0
 17
0.0
 27
0.0
 37
0.0
 40
210.0
 41
1.4142857143
 42
50.0
 43
0.0
 44
0.0
 50
0.0
 51
0.0
 71
     0
 72
  2000
 73
     1
 74
     3
 75
     0
 76
     0
 77
     0
 78
     0
281
     0
 65
     1
110
0.0
120
0.0
130
0.0
111
1.0
121
0.0
131
0.0
112
0.0
122
1.0
132
0.0
 79
     0
146
0.0
  0
ENDTAB
  0
TABLE
  2
LTYPE
  5
5
330
0
100
AcDbSymbolTable
 70
     6
  0
LTYPE
  5
14
330
5
100
AcDbSymbolTableRecord
100
AcDbLinetypeTableRecord
  2
ByBlock
 70
     0
  3

 72
    65
 73
     0
 40
0.0
  0
LTYPE
  5
15
330
5
100
AcDbSymbolTableRecord
100
AcDbLinetypeTableRecord
  2
ByLayer
 70
     0
  3

 72
    65
 73
     0
 40
0.0
  0
LTYPE
  5
16
330
5
100
AcDbSymbolTableRecord
100
AcDbLinetypeTableRecord
  2
Continuous
 70
     0
  3
Solid line
 72
    65
 73
     0
 40
0.0
  0
LTYPE
  5
3B
330
5
100
AcDbSymbolTableRecord
100
AcDbLinetypeTableRecord
  2
HIDDEN
 70
     0
  3
Hidden __ __ __ __ __ __ __ __ __ __ __ __ __ __
 72
    65
 73
     2
 40
1.905
 49
1.27
 74
     0
 49
-0.635
 74
     0
  0
LTYPE
  5
3C
330
5
100
AcDbSymbolTableRecord
100
AcDbLinetypeTableRecord
  2
PHANTOM
 70
     0
  3
Phantom ______  __  __  ______  __  __  ______
 72
    65
 73
     6
 40
12.7
 49
6.35
 74
     0
 49
-1.27
 74
     0
 49
1.27
 74
     0
 49
-1.27
 74
     0
 49
1.27
 74
     0
 49
-1.27
 74
     0
  0
LTYPE
  5
3D
330
5
100
AcDbSymbolTableRecord
100
AcDbLinetypeTableRecord
  2
CENTER
 70
     0
  3
Center ____ _ ____ _ ____ _ ____ _ ____ _ ____
 72
    65
 73
     4
 40
10.16
 49
6.35
 74
     0
 49
-1.27
 74
     0
 49
1.27
 74
     0
 49
-1.27
 74
     0
  0
LTYPE
  5
3E
330
5
100
AcDbSymbolTableRecord
100
AcDbLinetypeTableRecord
  2
CENTERX2
 70
     0
  3
Center (2x) ________  __  ________  __  _____
 72
    65
 73
     4
 40
20.32
 49
12.7
 74
     0
 49
-2.54
 74
     0
 49
2.54
 74
     0
 49
-2.54
 74
     0
  0
LTYPE
  5
3F
330
5
100
AcDbSymbolTableRecord
100
AcDbLinetypeTableRecord
  2
DOT2
 70
     0
  3
Dot (.5x) ........................................
 72
    65
 73
     2
 40
0.635
 49
0.0
 74
     0
 49
-0.635
 74
     0
  0
ENDTAB
  0
TABLE
  2
LAYER
  5
2
330
0
100
AcDbSymbolTable
 70
     5
  0
LAYER
  5
10
330
2
100
AcDbSymbolTableRecord
100
AcDbLayerTableRecord
  2
0
 70
     0
 62
     7
  6
Continuous
370
    -3
390
F
  0
LAYER
  5
40
330
2
100
AcDbSymbolTableRecord
100
AcDbLayerTableRecord
  2
FORMAT
 70
     0
 62
     7
  6
Continuous
370
    -3
390
F
  0
LAYER
  5
41
330
2
100
AcDbSymbolTableRecord
100
AcDbLayerTableRecord
  2
VERMASSUNG
 70
     0
 62
     7
  6
Continuous
370
    -3
390
F
  0
LAYER
  5
42
330
2
100
AcDbSymbolTableRecord
100
AcDbLayerTableRecord
  2
KOPF_DÜNN
 70
     0
 62
     7
  6
Continuous
370
    -3
390
F
  0
LAYER
  5
43
330
2
100
AcDbSymbolTableRecord
100
AcDbLayerTableRecord
  2
KOPF_DICK
 70
     0
 62
     7
  6
Continuous
370
    15
390
F
  0
ENDTAB
  0
TABLE
  2
STYLE
  5
3
330
0
100
AcDbSymbolTable
 70
     3
  0
STYLE
  5
11
330
3
100
AcDbSymbolTableRecord
100
AcDbTextStyleTableRecord
  2
Standard
 70
     0
 40
0.0
 41
1.0
 50
0.0
 71
     0
 42
2.5
  3
txt
  4

  0
STYLE
  5
44
330
3
100
AcDbSymbolTableRecord
100
AcDbTextStyleTableRecord
  2
SLDTEXTSTYLE0
 70
     0
 40
0.0
 41
0.7
 50
0.0
 71
     0
 42
0.2
  3
TXT
  4

  0
STYLE
  5
48
330
3
100
AcDbSymbolTableRecord
100
AcDbTextStyleTableRecord
  2
SLDTEXTSTYLE1
 70
     0
 40
0.0
 41
0.6526315789
 50
0.0
 71
     0
 42
0.2
  3
TXT
  4

  0
ENDTAB
  0
TABLE
  2
VIEW
  5
6
330
0
100
AcDbSymbolTable
 70
     0
  0
ENDTAB
  0
TABLE
  2
UCS
  5
7
330
0
100
AcDbSymbolTable
 70
     0
  0
ENDTAB
  0
TABLE
  2
APPID
  5
9
330
0
100
AcDbSymbolTable
 70
     1
  0
APPID
  5
12
330
9
100
AcDbSymbolTableRecord
100
AcDbRegAppTableRecord
  2
ACAD
 70
     0
  0
ENDTAB
  0
TABLE
  2
DIMSTYLE
  5
A
330
0
100
AcDbSymbolTable
 70
     4
100
AcDbDimStyleTable
  0
DIMSTYLE
105
27
330
A
100
AcDbSymbolTableRecord
100
AcDbDimStyleTableRecord
  2
ISO-25
 70
     0
 41
2.5
 42
0.625
 43
3.75
 44
1.25
 73
     0
 74
     0
 77
     1
 78
     8
140
2.5
141
2.5
143
0.0393700787
147
0.625
171
     3
172
     1
271
     2
272
     2
274
     3
278
    44
283
     0
284
     8
340
11
  0
DIMSTYLE
105
240
102
{ACAD_REACTORS
330
23F
330
24A
330
254
330
269
102
}
330
A
100
AcDbSymbolTableRecord
100
AcDbDimStyleTableRecord
  2
SLDDIMSTYLE0
 70
     0
 41
3.0
 44
0.0
 45
0.000000001
 73
     0
 74
     0
 77
     1
 78
    12
140
2.0
147
0.5
173
     1
271
     2
272
     3
284
    12
340
44
  0
DIMSTYLE
105
25F
102
{ACAD_REACTORS
330
25E
102
}
330
A
100
AcDbSymbolTableRecord
100
AcDbDimStyleTableRecord
  2
SLDDIMSTYLE1
 70
     0
 41
3.0
 44
0.0
 73
     0
 74
     0
 77
     1
 78
    12
140
2.0
147
0.5
173
     1
179
     2
272
     3
284
    12
340
44
  0
DIMSTYLE
105
2F0
102
{ACAD_REACTORS
330
2EF
102
}
330
A
100
AcDbSymbolTableRecord
100
AcDbDimStyleTableRecord
  2
SLDDIMSTYLE2
 70
     0
 41
3.0
 44
0.0
 45
0.000000001
 73
     0
 74
     0
 77
     1
 78
    12
140
2.0
147
0.5
173
     1
271
     2
272
     3
284
    12
340
44
  0
ENDTAB
  0
TABLE
  2
BLOCK_RECORD
  5
1
330
0
100
AcDbSymbolTable
 70
     8
  0
BLOCK_RECORD
  5
1F
330
1
100
AcDbSymbolTableRecord
100
AcDbBlockTableRecord
  2
*Model_Space
340
22
  0
BLOCK_RECORD
  5
1B
330
1
100
AcDbSymbolTableRecord
100
AcDbBlockTableRecord
  2
*Paper_Space
340
1E
  0
BLOCK_RECORD
  5
23
330
1
100
AcDbSymbolTableRecord
100
AcDbBlockTableRecord
  2
*Paper_Space0
340
26
  0
BLOCK_RECORD
  5
241
330
1
100
AcDbSymbolTableRecord
100
AcDbBlockTableRecord
  2
*D1
340
0
  0
BLOCK_RECORD
  5
24B
330
1
100
AcDbSymbolTableRecord
100
AcDbBlockTableRecord
  2
*D2
340
0
  0
BLOCK_RECORD
  5
255
330
1
100
AcDbSymbolTableRecord
100
AcDbBlockTableRecord
  2
*D3
340
0
  0
BLOCK_RECORD
  5
260
330
1
100
AcDbSymbolTableRecord
100
AcDbBlockTableRecord
  2
*D4
340
0
  0
BLOCK_RECORD
  5
26A
330
1
100
AcDbSymbolTableRecord
100
AcDbBlockTableRecord
  2
*D5
340
0
  0
BLOCK_RECORD
  5
2F1
330
1
100
AcDbSymbolTableRecord
100
AcDbBlockTableRecord
  2
*D6
340
0
  0
BLOCK_RECORD
  5
2FB
330
1
100
AcDbSymbolTableRecord
100
AcDbBlockTableRecord
  2
SW_CENTERMARKSYMBOL_0
340
0
102
{BLKREFS
331
306
102
}
  0
ENDTAB
  0
ENDSEC
  0
SECTION
  2
BLOCKS
  0
BLOCK
  5
20
330
1F
100
AcDbEntity
  8
0
100
AcDbBlockBegin
  2
*Model_Space
 70
     0
 10
0.0
 20
0.0
 30
0.0
  3
*Model_Space
  1

  0
ENDBLK
  5
21
330
1F
100
AcDbEntity
  8
0
100
AcDbBlockEnd
  0
BLOCK
  5
1C
330
1B
100
AcDbEntity
 67
     1
  8
0
100
AcDbBlockBegin
  2
*Paper_Space
 70
     0
 10
0.0
 20
0.0
 30
0.0
  3
*Paper_Space
  1

  0
ENDBLK
  5
1D
330
1B
100
AcDbEntity
 67
     1
  8
0
100
AcDbBlockEnd
  0
BLOCK
  5
24
330
23
100
AcDbEntity
  8
0
100
AcDbBlockBegin
  2
*Paper_Space0
 70
     0
 10
0.0
 20
0.0
 30
0.0
  3
*Paper_Space0
  1

  0
ENDBLK
  5
25
330
23
100
AcDbEntity
  8
0
100
AcDbBlockEnd
  0
BLOCK
  5
242
330
241
100
AcDbEntity
  8
0
100
AcDbBlockBegin
  2
*D1
 70
     1
 10
0.0
 20
0.0
 30
0.0
  3
*D1
  1

  0
SOLID
  5
244
330
241
100
AcDbEntity
  8
VERMASSUNG
100
AcDbTrace
 10
191.5653852315
 20
150.183590877
 30
0.0
 11
194.5653852315
 21
149.733590877
 31
0.0
 12
194.5653852315
 22
150.633590877
 32
0.0
 13
194.5653852315
 23
150.633590877
 33
0.0
  0
SOLID
  5
245
330
241
100
AcDbEntity
  8
VERMASSUNG
100
AcDbTrace
 10
261.5653852315
 20
150.183590877
 30
0.0
 11
258.5653852315
 21
150.633590877
 31
0.0
 12
258.5653852315
 22
149.733590877
 32
0.0
 13
258.5653852315
 23
149.733590877
 33
0.0
  0
LINE
  5
246
330
241
100
AcDbEntity
  8
VERMASSUNG
100
AcDbLine
 10
191.5653852315
 20
133.2507925644
 30
0.0
 11
191.5653852315
 21
151.183590877
 31
0.0
  0
LINE
  5
247
330
241
100
AcDbEntity
  8
VERMASSUNG
100
AcDbLine
 10
261.5653852315
 20
147.0507925644
 30
0.0
 11
261.5653852315
 21
151.183590877
 31
0.0
  0
LINE
  5
248
330
241
100
AcDbEntity
  8
VERMASSUNG
100
AcDbLine
 10
191.5653852315
 20
150.183590877
 30
0.0
 11
261.5653852315
 21
150.183590877
 31
0.0
  0
MTEXT
  5
249
330
241
100
AcDbEntity
  8
VERMASSUNG
100
AcDbMText
 10
225.1664427925
 20
152.7617262402
 30
0.0
 40
2.0
 41
0.0
 71
     1
 72
     1
  1
70
  7
SLDTEXTSTYLE0
 73
     1
 44
1.0
  0
ENDBLK
  5
243
330
241
100
AcDbEntity
  8
0
100
AcDbBlockEnd
  0
BLOCK
  5
24C
330
24B
100
AcDbEntity
  8
0
100
AcDbBlockBegin
  2
*D2
 70
     1
 10
0.0
 20
0.0
 30
0.0
  3
*D2
  1

  0
SOLID
  5
24E
330
24B
100
AcDbEntity
  8
VERMASSUNG
100
AcDbTrace
 10
159.6653852315
 20
156.183590877
 30
0.0
 11
162.6653852315
 21
155.733590877
 31
0.0
 12
162.6653852315
 22
156.633590877
 32
0.0
 13
162.6653852315
 23
156.633590877
 33
0.0
  0
SOLID
  5
24F
330
24B
100
AcDbEntity
  8
VERMASSUNG
100
AcDbTrace
 10
261.5653852315
 20
156.183590877
 30
0.0
 11
258.5653852315
 21
156.633590877
 31
0.0
 12
258.5653852315
 22
155.733590877
 32
0.0
 13
258.5653852315
 23
155.733590877
 33
0.0
  0
LINE
  5
250
330
24B
100
AcDbEntity
  8
VERMASSUNG
100
AcDbLine
 10
159.6653852315
 20
121.7414703109
 30
0.0
 11
159.6653852315
 21
157.183590877
 31
0.0
  0
LINE
  5
251
330
24B
100
AcDbEntity
  8
VERMASSUNG
100
AcDbLine
 10
261.5653852315
 20
147.0507925644
 30
0.0
 11
261.5653852315
 21
157.183590877
 31
0.0
  0
LINE
  5
252
330
24B
100
AcDbEntity
  8
VERMASSUNG
100
AcDbLine
 10
159.6653852315
 20
156.183590877
 30
0.0
 11
261.5653852315
 21
156.183590877
 31
0.0
  0
MTEXT
  5
253
330
24B
100
AcDbEntity
  8
VERMASSUNG
100
AcDbMText
 10
207.9160174266
 20
158.7617262402
 30
0.0
 40
2.0
 41
0.0
 71
     1
 72
     1
  1
101.9
  7
SLDTEXTSTYLE0
 73
     1
 44
1.0
  0
ENDBLK
  5
24D
330
24B
100
AcDbEntity
  8
0
100
AcDbBlockEnd
  0
BLOCK
  5
256
330
255
100
AcDbEntity
  8
0
100
AcDbBlockBegin
  2
*D3
 70
     1
 10
0.0
 20
0.0
 30
0.0
  3
*D3
  1

  0
SOLID
  5
258
330
255
100
AcDbEntity
  8
VERMASSUNG
100
AcDbTrace
 10
267.29749021
 20
147.0507925644
 30
0.0
 11
266.84749021
 21
144.0507925644
 31
0.0
 12
267.74749021
 22
144.0507925644
 32
0.0
 13
267.74749021
 23
144.0507925644
 33
0.0
  0
SOLID
  5
259
330
255
100
AcDbEntity
  8
VERMASSUNG
100
AcDbTrace
 10
267.29749021
 20
102.0507925644
 30
0.0
 11
267.74749021
 21
105.0507925644
 31
0.0
 12
266.84749021
 22
105.0507925644
 32
0.0
 13
266.84749021
 23
105.0507925644
 33
0.0
  0
LINE
  5
25A
330
255
100
AcDbEntity
  8
VERMASSUNG
100
AcDbLine
 10
261.5653852315
 20
147.0507925644
 30
0.0
 11
268.29749021
 21
147.0507925644
 31
0.0
  0
LINE
  5
25B
330
255
100
AcDbEntity
  8
VERMASSUNG
100
AcDbLine
 10
254.2827073171
 20
102.0507925644
 30
0.0
 11
268.29749021
 21
102.0507925644
 31
0.0
  0
LINE
  5
25C
330
255
100
AcDbEntity
  8
VERMASSUNG
100
AcDbLine
 10
267.29749021
 20
147.0507925644
 30
0.0
 11
267.29749021
 21
102.0507925644
 31
0.0
  0
MTEXT
  5
25D
330
255
100
AcDbEntity
  8
VERMASSUNG
100
AcDbMText
 10
264.7193548469
 20
123.0508701253
 30
0.0
 40
2.0
 41
0.0
 71
     1
 72
     1
  1
45
  7
SLDTEXTSTYLE0
 11
-7.044195017643634E-15
 21
1.0
 31
0.0
 73
     1
 44
1.0
  0
ENDBLK
  5
257
330
255
100
AcDbEntity
  8
0
100
AcDbBlockEnd
  0
BLOCK
  5
261
330
260
100
AcDbEntity
  8
0
100
AcDbBlockBegin
  2
*D4
 70
     1
 10
0.0
 20
0.0
 30
0.0
  3
*D4
  1

  0
ARC
  5
263
330
260
100
AcDbEntity
  8
VERMASSUNG
100
AcDbCircle
 10
261.5653852315
 20
146.6494925632
 30
0.0
 40
25.05723812416333
100
AcDbArc
 50
252.3399614713
 51
270.0
  0
SOLID
  5
264
330
260
100
AcDbEntity
  8
VERMASSUNG
100
AcDbTrace
 10
253.9638073733
 20
122.7731193781
 30
0.0
 11
256.7608050529
 21
121.5986816488
 31
0.0
 12
256.9822881074
 22
122.4710034109
 32
0.0
 13
256.9822881074
 23
122.4710034109
 33
0.0
  0
SOLID
  5
265
330
260
100
AcDbEntity
  8
VERMASSUNG
100
AcDbTrace
 10
261.5653852315
 20
121.5922544391
 30
0.0
 11
258.5975030515
 21
122.2200883072
 31
0.0
 12
258.5439133573
 22
121.3216851991
 32
0.0
 13
258.5439133573
 23
121.3216851991
 33
0.0
  0
LINE
  5
266
330
260
100
AcDbEntity
  8
VERMASSUNG
100
AcDbLine
 10
257.2263162215
 20
133.0205811857
 30
0.0
 11
253.6604388288
 21
121.8202460779
 31
0.0
  0
LINE
  5
267
330
260
100
AcDbEntity
  8
VERMASSUNG
100
AcDbLine
 10
261.5653852315
 20
124.0876829268
 30
0.0
 11
261.5653852315
 21
120.5922544391
 31
0.0
  0
MTEXT
  5
268
330
260
100
AcDbEntity
  8
VERMASSUNG
100
AcDbMText
 10
255.3488209519
 20
124.8664844654
 30
0.0
 40
2.0
 41
0.0
 71
     1
 72
     1
  1
17.5°
  7
SLDTEXTSTYLE0
 11
0.9881480911775055
 21
-0.1535035827016831
 31
0.0
 73
     1
 44
1.0
  0
ENDBLK
  5
262
330
260
100
AcDbEntity
  8
0
100
AcDbBlockEnd
  0
BLOCK
  5
26B
330
26A
100
AcDbEntity
  8
0
100
AcDbBlockBegin
  2
*D5
 70
     1
 10
0.0
 20
0.0
 30
0.0
  3
*D5
  1

  0
SOLID
  5
26D
330
26A
100
AcDbEntity
  8
VERMASSUNG
100
AcDbTrace
 10
155.2987272559
 20
133.5507925644
 30
0.0
 11
154.8487272559
 21
130.5507925644
 31
0.0
 12
155.7487272559
 22
130.5507925644
 32
0.0
 13
155.7487272559
 23
130.5507925644
 33
0.0
  0
SOLID
  5
26E
330
26A
100
AcDbEntity
  8
VERMASSUNG
100
AcDbTrace
 10
155.2987272559
 20
70.5507925644
 30
0.0
 11
155.7487272559
 21
73.5507925644
 31
0.0
 12
154.8487272559
 22
73.5507925644
 32
0.0
 13
154.8487272559
 23
73.5507925644
 33
0.0
  0
LINE
  5
26F
330
26A
100
AcDbEntity
  8
VERMASSUNG
100
AcDbLine
 10
191.8653852315
 20
133.5507925644
 30
0.0
 11
154.2987272559
 21
133.5507925644
 31
0.0
  0
LINE
  5
270
330
26A
100
AcDbEntity
  8
VERMASSUNG
100
AcDbLine
 10
191.8653852315
 20
70.5507925644
 30
0.0
 11
154.2987272559
 21
70.5507925644
 31
0.0
  0
LINE
  5
271
330
26A
100
AcDbEntity
  8
VERMASSUNG
100
AcDbLine
 10
155.2987272559
 20
133.5507925644
 30
0.0
 11
155.2987272559
 21
70.5507925644
 31
0.0
  0
MTEXT
  5
272
330
26A
100
AcDbEntity
  8
VERMASSUNG
100
AcDbMText
 10
152.5205917669
 20
95.8479113449
 30
0.0
 40
2.0
 41
0.0
 71
     1
 72
     1
  1
HSK 
  7
SLDTEXTSTYLE0
 11
-7.044195017643634E-15
 21
1.0
 31
0.0
 73
     1
 44
1.0
  0
MTEXT
  5
273
330
26A
100
AcDbEntity
  8
VERMASSUNG
100
AcDbMText
 10
152.7205917764
 20
101.847911397
 30
0.0
 40
2.0
 41
0.0
 71
     1
 72
     1
  1
%%c
  7
SLDTEXTSTYLE0
 11
-7.044195017643634E-15
 21
1.0
 31
0.0
 73
     1
 44
1.0
  0
MTEXT
  5
274
330
26A
100
AcDbEntity
  8
VERMASSUNG
100
AcDbMText
 10
152.7205918928
 20
105.4557889058
 30
0.0
 40
2.0
 41
0.0
 71
     1
 72
     1
  1
63
  7
SLDTEXTSTYLE0
 11
-7.044195017643634E-15
 21
1.0
 31
0.0
 73
     1
 44
1.0
  0
ENDBLK
  5
26C
330
26A
100
AcDbEntity
  8
0
100
AcDbBlockEnd
  0
BLOCK
  5
2F2
330
2F1
100
AcDbEntity
  8
0
100
AcDbBlockBegin
  2
*D6
 70
     1
 10
0.0
 20
0.0
 30
0.0
  3
*D6
  1

  0
SOLID
  5
2F4
330
2F1
100
AcDbEntity
  8
VERMASSUNG
100
AcDbTrace
 10
44.924440912
 20
67.009573537
 30
0.0
 11
45.374440912
 21
70.009573537
 31
0.0
 12
44.474440912
 22
70.009573537
 32
0.0
 13
44.474440912
 23
70.009573537
 33
0.0
  0
SOLID
  5
2F5
330
2F1
100
AcDbEntity
  8
VERMASSUNG
100
AcDbTrace
 10
44.924440912
 20
147.009573537
 30
0.0
 11
44.474440912
 21
144.009573537
 31
0.0
 12
45.374440912
 22
144.009573537
 32
0.0
 13
45.374440912
 23
144.009573537
 33
0.0
  0
LINE
  5
2F6
330
2F1
100
AcDbEntity
  8
VERMASSUNG
100
AcDbLine
 10
88.5277317073
 20
67.009573537
 30
0.0
 11
43.924440912
 21
67.009573537
 31
0.0
  0
LINE
  5
2F7
330
2F1
100
AcDbEntity
  8
VERMASSUNG
100
AcDbLine
 10
88.5277317073
 20
147.009573537
 30
0.0
 11
43.924440912
 21
147.009573537
 31
0.0
  0
LINE
  5
2F8
330
2F1
100
AcDbEntity
  8
VERMASSUNG
100
AcDbLine
 10
44.924440912
 20
67.009573537
 30
0.0
 11
44.924440912
 21
147.009573537
 31
0.0
  0
MTEXT
  5
2F9
330
2F1
100
AcDbEntity
  8
VERMASSUNG
100
AcDbMText
 10
42.3463054325
 20
103.8065371956
 30
0.0
 40
2.0
 41
0.0
 71
     1
 72
     1
  1
%%c
  7
SLDTEXTSTYLE0
 11
6.123233995736766E-17
 21
1.0
 31
0.0
 73
     1
 44
1.0
  0
MTEXT
  5
2FA
330
2F1
100
AcDbEntity
  8
VERMASSUNG
100
AcDbMText
 10
42.3463055489
 20
107.4147250005
 30
0.0
 40
2.0
 41
0.0
 71
     1
 72
     1
  1
80
  7
SLDTEXTSTYLE0
 11
6.123233995736766E-17
 21
1.0
 31
0.0
 73
     1
 44
1.0
  0
ENDBLK
  5
2F3
330
2F1
100
AcDbEntity
  8
0
100
AcDbBlockEnd
  0
BLOCK
  5
2FC
330
2FB
100
AcDbEntity
  8
0
100
AcDbBlockBegin
  2
SW_CENTERMARKSYMBOL_0
 70
     0
 10
0.0
 20
0.0
 30
0.0
  3
SW_CENTERMARKSYMBOL_0
  1

  0
LINE
  5
2FE
330
2FB
100
AcDbEntity
  8
VERMASSUNG
 62
     0
100
AcDbLine
 10
0.0
 20
0.0
 30
0.0
 11
0.0
 21
2.5
 31
0.0
  0
LINE
  5
2FF
330
2FB
100
AcDbEntity
  8
VERMASSUNG
 62
     0
100
AcDbLine
 10
0.0
 20
0.0
 30
0.0
 11
-2.5
 21
0.0
 31
0.0
  0
LINE
  5
300
330
2FB
100
AcDbEntity
  8
VERMASSUNG
 62
     0
100
AcDbLine
 10
0.0
 20
0.0
 30
0.0
 11
0.0
 21
-2.5
 31
0.0
  0
LINE
  5
301
330
2FB
100
AcDbEntity
  8
VERMASSUNG
 62
     0
100
AcDbLine
 10
0.0
 20
0.0
 30
0.0
 11
2.5
 21
0.0
 31
0.0
  0
LINE
  5
302
330
2FB
100
AcDbEntity
  8
VERMASSUNG
 62
     0
100
AcDbLine
 10
0.0
 20
5.0
 30
0.0
 11
0.0
 21
47.6513293868
 31
0.0
  0
LINE
  5
303
330
2FB
100
AcDbEntity
  8
VERMASSUNG
 62
     0
100
AcDbLine
 10
-5.0
 20
0.0
 30
0.0
 11
-34.0
 21
0.0
 31
0.0
  0
LINE
  5
304
330
2FB
100
AcDbEntity
  8
VERMASSUNG
 62
     0
100
AcDbLine
 10
0.0
 20
-5.0
 30
0.0
 11
0.0
 21
-34.0
 31
0.0
  0
LINE
  5
305
330
2FB
100
AcDbEntity
  8
VERMASSUNG
 62
     0
100
AcDbLine
 10
5.0
 20
0.0
 30
0.0
 11
34.0
 21
0.0
 31
0.0
  0
ENDBLK
  5
2FD
330
2FB
100
AcDbEntity
  8
0
100
AcDbBlockEnd
  0
ENDSEC
  0
SECTION
  2
ENTITIES
  0
MTEXT
  5
45
330
1F
100
AcDbEntity
  8
KOPF_DÜNN
100
AcDbMText
 10
13.8892156294
 20
23.8442973028
 30
0.0
 40
3.0
 41
0.0
 71
     1
 72
     1
  1
HA6.PDF.RHA.070
  7
SLDTEXTSTYLE0
 73
     1
 44
1.0
  0
MTEXT
  5
46
330
1F
100
AcDbEntity
  8
VERMASSUNG
100
AcDbMText
 10
13.9329988022
 20
28.8834360957
 30
0.0
 40
3.0
 41
0.0
 71
     1
 72
     1
  1
Klemmhalter rechts_Turning tool right 107.5° /55° /107.5°
  7
SLDTEXTSTYLE0
 73
     1
 44
1.0
  0
MTEXT
  5
47
330
1F
100
AcDbEntity
  8
VERMASSUNG
100
AcDbMText
 10
98.8601118557
 20
13.8365368179
 30
0.0
 40
2.0
 41
0.0
 71
     1
 72
     1
  1
Datum: 17.02.2011
  7
SLDTEXTSTYLE0
 73
     1
 44
1.0
  0
MTEXT
  5
49
330
1F
100
AcDbEntity
  8
VERMASSUNG
100
AcDbMText
 10
13.933048693
 20
18.0482802738
 30
0.0
 40
2.0
 41
0.0
 71
     1
 72
     1
  1
DIN 69893 HSK 63 A ICTM / DN.. 15 04..
  7
SLDTEXTSTYLE1
 73
     1
 44
1.0
  0
MTEXT
  5
4A
330
1F
100
AcDbEntity
  8
VERMASSUNG
100
AcDbMText
 10
13.9808475933
 20
13.9090973692
 30
0.0
 40
2.0
 41
0.0
 71
     1
 72
     1
  1
Gewicht: 1083g
  7
SLDTEXTSTYLE0
 73
     1
 44
1.0
  0
LINE
  5
4B
330
1F
100
AcDbEntity
  8
0
  6
Continuous
 62
     7
370
    15
100
AcDbLine
 10
256.3235138511
 20
132.0450342125
 30
0.0
 11
257.1500791767
 21
132.8590421537
 31
0.0
  0
LINE
  5
4C
330
1F
100
AcDbEntity
  8
0
  6
Continuous
 62
     7
370
    15
100
AcDbLine
 10
247.2464252738
 20
143.057406636
 30
0.0
 11
246.4198599481
 21
142.2433986949
 31
0.0
  0
LINE
  5
4D
330
1F
100
AcDbEntity
  8
0
  6
Continuous
 62
     7
370
    15
100
AcDbLine
 10
246.303607005
 20
142.0216704401
 30
0.0
 11
245.6954258536
 21
141.4227289269
 31
0.0
  0
LINE
  5
4E
330
1F
100
AcDbEntity
  8
0
  6
Continuous
 62
     7
370
    15
100
AcDbLine
 10
250.4053480995
 20
139.119813232
 30
0.0
 11
249.7128843588
 21
138.5621791366
 31
0.0
  0
LINE
  5
4F
330
1F
100
AcDbEntity
  8
0
  6
Continuous
 62
     7
370
    15
100
AcDbLine
 10
191.8653852315
 20
70.5507925644
 30
0.0
 11
196.5153852315
 21
70.5507925644
 31
0.0
  0
LINE
  5
50
330
1F
100
AcDbEntity
  8
0
  6
Continuous
 62
     7
370
    15
100
AcDbLine
 10
196.5195894289
 20
133.5507925644
 30
0.0
 11
191.8653852315
 21
133.5507925644
 31
0.0
  0
ARC
  5
51
330
1F
100
AcDbEntity
  8
0
  6
Continuous
 62
     7
370
    15
100
AcDbCircle
 10
191.8653852315
 20
70.8507925644
 30
0.0
 40
0.2999999999999972
100
AcDbArc
 50
180.0
 51
270.0
  0
ARC
  5
52
330
1F
100
AcDbEntity
  8
0
  6
Continuous
 62
     7
370
    15
100
AcDbCircle
 10
191.8653852315
 20
133.2507925644
 30
0.0
 40
0.3000000000000114
100
AcDbArc
 50
90.0
 51
180.0
  0
ARC
  5
53
330
1F
100
AcDbEntity
  8
0
  6
Continuous
 62
     7
370
    15
100
AcDbCircle
 10
218.5153852315
 20
75.0507925644
 30
0.0
 40
1.0
100
AcDbArc
 50
90.0
 51
143.1139143113
  0
ARC
  5
54
330
1F
100
AcDbEntity
  8
0
  6
Continuous
 62
     7
370
    15
100
AcDbCircle
 10
218.5153852315
 20
129.0507925644
 30
0.0
 40
1.000000000000009
100
AcDbArc
 50
216.8996843908
 51
270.0
  0
LINE
  5
55
330
1F
100
AcDbEntity
  8
0
  6
Continuous
 62
     7
370
    15
100
AcDbLine
 10
218.5153852315
 20
76.0507925644
 30
0.0
 11
232.7980582435
 21
76.0507925644
 31
0.0
  0
LINE
  5
56
330
1F
100
AcDbEntity
  8
0
  6
Continuous
 62
     7
370
    15
100
AcDbLine
 10
232.7980582435
 20
128.0507925644
 30
0.0
 11
218.5153852315
 21
128.0507925644
 31
0.0
  0
ARC
  5
57
330
1F
100
AcDbEntity
  8
0
  6
Continuous
 62
     7
370
    15
100
AcDbCircle
 10
191.0653852315
 20
77.4803617026
 30
0.0
 40
0.6000000000000177
100
AcDbArc
 50
33.5573097619
 51
90.0
  0
ARC
  5
58
330
1F
100
AcDbEntity
  8
0
  6
Continuous
 62
     7
370
    15
100
AcDbCircle
 10
191.0653852315
 20
126.6212234261
 30
0.0
 40
0.6000000000000099
100
AcDbArc
 50
270.0
 51
326.4426902381
  0
LINE
  5
59
330
1F
100
AcDbEntity
  8
0
  6
Continuous
 62
     7
370
    15
100
AcDbLine
 10
189.5653852315
 20
77.8303617026
 30
0.0
 11
190.4220980049
 21
78.0599171984
 31
0.0
  0
LINE
  5
5A
330
1F
100
AcDbEntity
  8
0
  6
Continuous
 62
     7
370
    15
100
AcDbLine
 10
190.4220980049
 20
126.0416679303
 30
0.0
 11
189.5653852315
 21
126.2712234261
 31
0.0
  0
LINE
  5
5B
330
1F
100
AcDbEntity
  8
0
  6
Continuous
 62
     7
370
    15
100
AcDbLine
 10
178.3338764327
 20
125.7085225845
 30
0.0
 11
165.7653852315
 21
125.0788386566
 31
0.0
  0
LINE
  5
5C
330
1F
100
AcDbEntity
  8
0
  6
Continuous
 62
     7
370
    15
100
AcDbLine
 10
189.5653852315
 20
126.2712234261
 30
0.0
 11
186.7483835741
 21
126.1300910785
 31
0.0
  0
LINE
  5
5D
330
1F
100
AcDbEntity
  8
0
  6
Continuous
 62
     7
370
    15
100
AcDbLine
 10
186.7484396642
 20
77.9714912401
 30
0.0
 11
189.5653852315
 21
77.8303617026
 31
0.0
  0
LINE
  5
5E
330
1F
100
AcDbEntity
  8
0
  6
Continuous
 62
     7
370
    15
100
AcDbLine
 10
169.7653852315
 20
78.8223456706
 30
0.0
 11
178.3342789513
 21
78.393042378
 31
0.0
  0
ARC
  5
5F
330
1F
100
AcDbEntity
  8
0
  6
Continuous
 62
     7
370
    15
100
AcDbCircle
 10
190.5773894319
 20
77.4803617026
 30
0.0
 40
0.6000000000000085
100
AcDbArc
 50
90.0
 51
105.0
  0
ARC
  5
60
330
1F
100
AcDbEntity
  8
0
  6
Continuous
 62
     7
370
    15
100
AcDbCircle
 10
190.5773894319
 20
126.6212234261
 30
0.0
 40
0.5999999999999801
100
AcDbArc
 50
255.0
 51
270.0
  0
LINE
  5
61
330
1F
100
AcDbEntity
  8
0
  6
Continuous
 62
     7
370
    15
100
AcDbLine
 10
190.5773894319
 20
78.0803617026
 30
0.0
 11
191.0653852315
 21
78.0803617026
 31
0.0
  0
LINE
  5
62
330
1F
100
AcDbEntity
  8
0
  6
Continuous
 62
     7
370
    15
100
AcDbLine
 10
191.0653852315
 20
126.0212234261
 30
0.0
 11
190.5773894319
 21
126.0212234261
 31
0.0
  0
ARC
  5
63
330
1F
100
AcDbEntity
  8
0
  6
Continuous
 62
     7
370
    15
100
AcDbCircle
 10
232.7980582435
 20
129.0507925644
 30
0.0
 40
1.0
100
AcDbArc
 50
270.0
 51
345.0
  0
ARC
  5
64
330
1F
100
AcDbEntity
  8
0
  6
Continuous
 62
     7
370
    15
100
AcDbCircle
 10
232.7980582435
 20
75.0507925644
 30
0.0
 40
1.000000000000003
100
AcDbArc
 50
15.0
 51
90.0
  0
LINE
  5
65
330
1F
100
AcDbEntity
  8
0
  6
Continuous
 62
     7
370
    15
100
AcDbLine
 10
236.2956143308
 20
138.2401462795
 30
0.0
 11
233.7639840698
 21
128.7919735193
 31
0.0
  0
LINE
  5
66
330
1F
100
AcDbEntity
  8
0
  6
Continuous
 62
     7
370
    15
100
AcDbLine
 10
233.7639840698
 20
75.3096116095
 30
0.0
 11
233.8333344239
 21
75.0507925644
 31
0.0
  0
LINE
  5
67
330
1F
100
AcDbEntity
  8
0
  6
Continuous
 62
     7
370
    15
100
AcDbLine
 10
233.8333344239
 20
75.0507925644
 30
0.0
 11
236.1722494105
 21
75.0507925644
 31
0.0
  0
LINE
  5
68
330
1F
100
AcDbEntity
  8
0
  6
Continuous
 62
     7
370
    15
100
AcDbLine
 10
160.8153852315
 20
81.2382925644
 30
0.0
 11
168.3653852315
 21
81.2382925644
 31
0.0
  0
ARC
  5
69
330
1F
100
AcDbEntity
  8
0
  6
Continuous
 62
     7
370
    15
100
AcDbCircle
 10
168.3653852315
 20
79.8382925644
 30
0.0
 40
1.400000000000013
100
AcDbArc
 50
37.6443616934
 51
90.0
  0
LINE
  5
6A
330
1F
100
AcDbEntity
  8
0
  6
Continuous
 62
     7
370
    15
100
AcDbLine
 10
160.8065486897
 20
122.9119560226
 30
0.0
 11
159.6765528507
 21
121.7819601836
 31
0.0
  0
LINE
  5
6B
330
1F
100
AcDbEntity
  8
0
  6
Continuous
 62
     7
370
    15
100
AcDbLine
 10
159.6628043517
 20
82.3908734441
 30
0.0
 11
160.8153852315
 21
81.2382925644
 31
0.0
  0
ARC
  5
6C
330
1F
100
AcDbEntity
  8
0
  6
Continuous
 62
     7
370
    15
100
AcDbCircle
 10
164.3653852315
 20
124.3207925644
 30
0.0
 40
1.40000000000001
100
AcDbArc
 50
270.0
 51
303.0982988698
  0
LINE
  5
6D
330
1F
100
AcDbEntity
  8
0
  6
Continuous
 62
     7
370
    15
100
AcDbLine
 10
164.3653852315
 20
122.9207925644
 30
0.0
 11
160.9630406356
 21
122.9207925644
 31
0.0
  0
LINE
  5
6E
330
1F
100
AcDbEntity
  8
0
  6
Continuous
 62
     7
370
    15
100
AcDbLine
 10
246.268551928
 20
141.4805501341
 30
0.0
 11
236.2956143308
 21
138.2401462795
 31
0.0
  0
LINE
  5
6F
330
1F
100
AcDbEntity
  8
0
  6
Continuous
 62
     7
370
    15
100
AcDbLine
 10
243.3434972813
 20
128.8804458429
 30
0.0
 11
256.9878646006
 21
132.7647233763
 31
0.0
  0
ARC
  5
70
330
1F
100
AcDbEntity
  8
0
  6
Continuous
 62
     7
370
    15
100
AcDbCircle
 10
243.2369822821
 20
129.2714661716
 30
0.0
 40
0.405268235309671
100
AcDbArc
 50
163.0344434764
 51
285.2378089059
  0
LINE
  5
71
330
1F
100
AcDbEntity
  8
0
  6
Continuous
 62
     7
370
    15
100
AcDbLine
 10
247.1514036721
 20
142.9023655137
 30
0.0
 11
242.8493511813
 21
129.3897221326
 31
0.0
  0
ARC
  5
72
330
1F
100
AcDbEntity
  8
0
  6
Continuous
 62
     7
370
    15
100
AcDbCircle
 10
247.5115323316
 20
142.7882224034
 30
0.0
 40
0.377784728436759
100
AcDbArc
 50
105.8045965753
 51
162.4139401857
  0
LINE
  5
73
330
1F
100
AcDbEntity
  8
0
  6
Continuous
 62
     7
370
    15
100
AcDbLine
 10
261.0530071692
 20
147.0360029467
 30
0.0
 11
247.4086398499
 21
143.1517254133
 31
0.0
  0
ARC
  5
74
330
1F
100
AcDbEntity
  8
0
  6
Continuous
 62
     7
370
    15
100
AcDbCircle
 10
261.1595221684
 20
146.644982618
 30
0.0
 40
0.4052682353097021
100
AcDbArc
 50
343.0344434764
 51
105.2378089059
  0
LINE
  5
75
330
1F
100
AcDbEntity
  8
0
  6
Continuous
 62
     7
370
    15
100
AcDbLine
 10
257.2451007784
 20
133.0140832759
 30
0.0
 11
261.5471532692
 21
146.526726657
 31
0.0
  0
ARC
  5
76
330
1F
100
AcDbEntity
  8
0
  6
Continuous
 62
     7
370
    15
100
AcDbCircle
 10
256.8849721189
 20
133.1282263863
 30
0.0
 40
0.3777847284371337
100
AcDbArc
 50
285.8045965754
 51
342.4139401857
  0
ARC
  5
77
330
1F
100
AcDbEntity
  8
0
  6
Continuous
 62
     7
370
    15
100
AcDbCircle
 10
261.1601191666
 20
146.6455677297
 30
0.0
 40
0.3850048235441902
100
AcDbArc
 50
343.0344434764
 51
105.2378089059
  0
LINE
  5
78
330
1F
100
AcDbEntity
  8
0
  6
Continuous
 62
     7
370
    15
100
AcDbLine
 10
261.0589299173
 20
147.017037042
 30
0.0
 11
247.4145625981
 21
143.1327595083
 31
0.0
  0
ARC
  5
79
330
1F
100
AcDbEntity
  8
0
  6
Continuous
 62
     7
370
    15
100
AcDbCircle
 10
247.5123104564
 20
142.7874316479
 30
0.0
 40
0.3588954931169363
100
AcDbArc
 50
105.8045966417
 51
162.413940031
  0
LINE
  5
7A
330
1F
100
AcDbEntity
  8
0
  6
Continuous
 62
     7
370
    15
100
AcDbLine
 10
247.1701882291
 20
142.895867604
 30
0.0
 11
242.8681357383
 21
129.3832242229
 31
0.0
  0
ARC
  5
7B
330
1F
100
AcDbEntity
  8
0
  6
Continuous
 62
     7
370
    15
100
AcDbCircle
 10
243.236385284
 20
129.2708810599
 30
0.0
 40
0.3850048235441504
100
AcDbArc
 50
163.0344434763
 51
285.2378089059
  0
LINE
  5
7C
330
1F
100
AcDbEntity
  8
0
  6
Continuous
 62
     7
370
    15
100
AcDbLine
 10
243.3375745333
 20
128.8994117476
 30
0.0
 11
256.9819418525
 21
132.7836892811
 31
0.0
  0
ARC
  5
7D
330
1F
100
AcDbEntity
  8
0
  6
Continuous
 62
     7
370
    15
100
AcDbCircle
 10
256.884193995
 20
133.1290171405
 30
0.0
 40
0.3588954920148503
100
AcDbArc
 50
285.8045965753
 51
342.4139401857
  0
LINE
  5
7E
330
1F
100
AcDbEntity
  8
0
  6
Continuous
 62
     7
370
    15
100
AcDbLine
 10
257.2263162215
 20
133.0205811857
 30
0.0
 11
261.5283687123
 21
146.5332245668
 31
0.0
  0
LINE
  5
7F
330
1F
100
AcDbEntity
  8
0
  6
Continuous
 62
     7
370
    15
100
AcDbLine
 10
242.0227858556
 20
128.5757141915
 30
0.0
 11
242.0068751046
 21
128.5004473301
 31
0.0
  0
LINE
  5
80
330
1F
100
AcDbEntity
  8
0
  6
Continuous
 62
     7
370
    15
100
AcDbLine
 10
243.1869451079
 20
129.2222455074
 30
0.0
 11
243.3375745333
 21
128.8994117476
 31
0.0
  0
LINE
  5
81
330
1F
100
AcDbEntity
  8
0
  6
Continuous
 62
     7
370
    15
100
AcDbLine
 10
243.1869451079
 20
129.2222455074
 30
0.0
 11
242.8681357383
 21
129.3832242229
 31
0.0
  0
LINE
  5
82
330
1F
100
AcDbEntity
  8
0
  6
Continuous
 62
     7
370
    15
100
AcDbLine
 10
256.8313124271
 20
133.1065230408
 30
0.0
 11
256.9819418525
 21
132.7836892811
 31
0.0
  0
LINE
  5
83
330
1F
100
AcDbEntity
  8
0
  6
Continuous
 62
     7
370
    15
100
AcDbLine
 10
244.6027329556
 20
130.5931282153
 30
0.0
 11
243.1869451079
 21
129.2222455074
 31
0.0
  0
LINE
  5
84
330
1F
100
AcDbEntity
  8
0
  6
Continuous
 62
     7
370
    15
100
AcDbLine
 10
244.6027329556
 20
130.5931282153
 30
0.0
 11
245.2369256834
 21
130.7736701567
 31
0.0
  0
LINE
  5
85
330
1F
100
AcDbEntity
  8
0
  6
Continuous
 62
     7
370
    15
100
AcDbLine
 10
256.4487248591
 20
133.4135067456
 30
0.0
 11
256.8313124271
 21
133.1065230408
 31
0.0
  0
LINE
  5
86
330
1F
100
AcDbEntity
  8
0
  6
Continuous
 62
     7
370
    15
100
AcDbLine
 10
246.3248383464
 20
142.0883575726
 30
0.0
 11
246.1154963373
 21
141.430819358
 31
0.0
  0
LINE
  5
87
330
1F
100
AcDbEntity
  8
0
  6
Continuous
 62
     7
370
    15
100
AcDbLine
 10
243.3136074599
 20
132.6301537977
 30
0.0
 11
242.0227858556
 21
128.5757141915
 31
0.0
  0
LINE
  5
88
330
1F
100
AcDbEntity
  8
0
  6
Continuous
 62
     7
370
    15
100
AcDbLine
 10
247.4889975986
 20
142.7348888886
 30
0.0
 11
247.1701882291
 21
142.895867604
 31
0.0
  0
LINE
  5
89
330
1F
100
AcDbEntity
  8
0
  6
Continuous
 62
     7
370
    15
100
AcDbLine
 10
247.7849352658
 20
142.3425716897
 30
0.0
 11
247.4889975986
 21
142.7348888886
 31
0.0
  0
LINE
  5
8A
330
1F
100
AcDbEntity
  8
0
  6
Continuous
 62
     7
370
    15
100
AcDbLine
 10
244.8026931546
 20
131.22119839
 30
0.0
 11
244.6027329556
 21
130.5931282153
 31
0.0
  0
ARC
  5
8B
330
1F
100
AcDbEntity
  8
0
  6
Continuous
 62
     7
370
    15
100
AcDbCircle
 10
247.206120788
 20
133.1192659762
 30
0.0
 40
1.013170588274118
100
AcDbArc
 50
163.0344434763
 51
285.2378089059
  0
LINE
  5
8C
330
1F
100
AcDbEntity
  8
0
  6
Continuous
 62
     7
370
    15
100
AcDbLine
 10
245.3752690017
 20
131.3436274899
 30
0.0
 11
245.3768864023
 21
131.3419605663
 31
0.0
  0
SPLINE
  5
8D
330
1F
100
AcDbEntity
  8
0
  6
Continuous
 62
     7
370
    15
100
AcDbSpline
210
0.0
220
0.0
230
1.0
 70
     8
 71
     3
 72
    14
 73
    10
 74
     0
 42
0.00000001
 43
0.00000001
 40
0.0
 40
0.0
 40
0.0
 40
0.0
 40
0.2210591904779784
 40
0.3460797326519382
 40
0.439601624413164
 40
0.5338897453199977
 40
0.6146561933587724
 40
0.7517253237594044
 40
0.9999999999999999
 40
0.9999999999999999
 40
0.9999999999999999
 40
0.9999999999999999
 10
245.3752690017107
 20
131.3436274898789
 30
0.0
 10
245.3328015291272
 20
131.3847694847962
 30
0.0
 10
245.2663164781039
 20
131.4491794311593
 30
0.0
 10
245.1628737918966
 20
131.5063820398548
 30
0.0
 10
245.0809120589897
 20
131.5245603882357
 30
0.0
 10
245.0098422881226
 20
131.5123042045642
 30
0.0
 10
244.9397882462162
 20
131.4701138807965
 30
0.0
 10
244.8602386697717
 20
131.3765708970993
 30
0.0
 10
244.8252415721989
 20
131.2820789670849
 30
0.0
 10
244.8026931546053
 20
131.2211983899812
 30
0.0
  0
SPLINE
  5
8E
330
1F
100
AcDbEntity
  8
0
  6
Continuous
 62
     7
370
    15
100
AcDbSpline
210
0.0
220
0.0
230
1.0
 70
     8
 71
     3
 72
    14
 73
    10
 74
     0
 42
0.00000001
 43
0.00000001
 40
0.0
 40
0.0
 40
0.0
 40
0.0
 40
0.223496825397368
 40
0.3567622963774543
 40
0.4531212562341281
 40
0.5344619041500276
 40
0.6157317558035266
 40
0.7396161778921911
 40
1.0
 40
1.0
 40
1.0
 40
1.0
 10
245.2369256833805
 20
130.7736701566891
 30
0.0
 10
245.2923001918277
 20
130.7920917367244
 30
0.0
 10
245.3806931108737
 20
130.8214976362694
 30
0.0
 10
245.4773307304857
 20
130.8904706873045
 30
0.0
 10
245.5268358213614
 20
130.9554384256758
 30
0.0
 10
245.5465113701122
 20
131.0213478909675
 30
0.0
 10
245.5416726935263
 20
131.0977176596655
 30
0.0
 10
245.4933379995949
 20
131.2138643493686
 30
0.0
 10
245.4239228016115
 20
131.2902207452272
 30
0.0
 10
245.376886402335
 20
131.3419605662931
 30
0.0
  0
LINE
  5
8F
330
1F
100
AcDbEntity
  8
0
  6
Continuous
 62
     7
370
    15
100
AcDbLine
 10
247.4724082862
 20
132.1417151544
 30
0.0
 11
255.108667643
 21
134.3156049336
 31
0.0
  0
LINE
  5
90
330
1F
100
AcDbEntity
  8
0
  6
Continuous
 62
     7
370
    15
100
AcDbLine
 10
248.644746363
 20
140.9774441071
 30
0.0
 11
246.2370430362
 21
133.4149058786
 31
0.0
  0
ARC
  5
91
330
1F
100
AcDbEntity
  8
0
  6
Continuous
 62
     7
370
    15
100
AcDbCircle
 10
249.5450680117
 20
140.6920863312
 30
0.0
 40
0.9444618210916728
100
AcDbArc
 50
105.8045965753
 51
162.4139401857
  0
LINE
  5
92
330
1F
100
AcDbEntity
  8
0
  6
Continuous
 62
     7
370
    15
100
AcDbLine
 10
256.9240961643
 20
143.7747336353
 30
0.0
 11
249.2878368075
 21
141.6008438561
 31
0.0
  0
ARC
  5
93
330
1F
100
AcDbEntity
  8
0
  6
Continuous
 62
     7
370
    15
100
AcDbCircle
 10
257.1903836629
 20
142.7971828136
 30
0.0
 40
1.01317058825196
100
AcDbArc
 50
343.0344434617
 51
105.2378089264
  0
LINE
  5
94
330
1F
100
AcDbEntity
  8
0
  6
Continuous
 62
     7
370
    15
100
AcDbLine
 10
255.7517580876
 20
134.9390046826
 30
0.0
 11
258.1594614146
 21
142.5015429109
 31
0.0
  0
ARC
  5
95
330
1F
100
AcDbEntity
  8
0
  6
Continuous
 62
     7
370
    15
100
AcDbCircle
 10
254.8514364388
 20
135.2243624585
 30
0.0
 40
0.9444618210919778
100
AcDbArc
 50
285.8045965753
 51
342.4139401857
  0
LWPOLYLINE
  5
96
330
1F
100
AcDbEntity
  8
0
  6
Continuous
 62
     7
370
    15
100
AcDbPolyline
 90
       27
 70
   128
 43
0.0
 10
254.6214600712
 20
137.1199940367
 10
254.7338914789
 20
137.7186645646
 10
254.6989607498
 20
138.3312574391
 10
254.518697931
 20
138.922170989
 10
254.2035792422
 20
139.4570634666
 10
253.7719182363
 20
139.9048488655
 10
253.2488014819
 20
140.2395035257
 10
252.6646306232
 20
140.4415785351
 10
252.0533555473
 20
140.4993300284
 10
251.4505013396
 20
140.4094016988
 10
250.8911036955
 20
140.177019854
 10
250.4076727726
 20
139.8156896821
 10
250.028303819
 20
139.3464103793
 10
249.7750443793
 20
138.7964547529
 10
249.6626129716
 20
138.197784225
 10
249.6975437007
 20
137.5851913505
 10
249.8778065195
 20
136.9942778006
 10
250.1929252083
 20
136.459385323
 10
250.6245862142
 20
136.0115999242
 10
251.1477029686
 20
135.6769452639
 10
251.7318738273
 20
135.4748702546
 10
252.3431489032
 20
135.4171187613
 10
252.9460031109
 20
135.5070470908
 10
253.505400755
 20
135.7394289357
 10
253.9888316779
 20
136.1007591076
 10
254.3682006315
 20
136.5700384104
 10
254.6214600712
 20
137.1199940367
  0
ARC
  5
97
330
1F
100
AcDbEntity
  8
0
  6
Continuous
 62
     7
370
    15
100
AcDbCircle
 10
251.2968699943
 20
137.1827673958
 30
0.0
 40
2.504260341541195
100
AcDbArc
 50
76.0510882785
 51
120.5504027945
  0
SPLINE
  5
98
330
1F
100
AcDbEntity
  8
0
  6
Continuous
 62
     7
370
    15
100
AcDbSpline
210
0.0
220
0.0
230
1.0
 70
     8
 71
     3
 72
    11
 73
     7
 74
     0
 42
0.00000001
 43
0.00000001
 40
0.0
 40
0.0
 40
0.0
 40
0.0
 40
0.32804555015798
 40
0.6557028173711972
 40
0.9906967996087769
 40
1.0
 40
1.0
 40
1.0
 40
1.0
 10
256.44872485914
 20
133.4135067455744
 30
0.0
 10
256.391846393311
 20
133.4619504977283
 30
0.0
 10
256.2781567844325
 20
133.5587806627952
 30
0.0
 10
256.1096740873699
 20
133.7368195486582
 30
0.0
 10
256.0119051859214
 20
133.8574148013273
 30
0.0
 10
255.9689133858706
 20
133.9161838662304
 30
0.0
 10
255.9677517111569
 20
133.9177718559532
 30
0.0
  0
LINE
  5
99
330
1F
100
AcDbEntity
  8
0
  6
Continuous
 62
     7
370
    15
100
AcDbLine
 10
259.5159344107
 20
145.0497044597
 30
0.0
 11
261.1333649179
 21
146.619166422
 31
0.0
  0
LINE
  5
9A
330
1F
100
AcDbEntity
  8
0
  6
Continuous
 62
     7
370
    15
100
AcDbLine
 10
261.1333649179
 20
146.619166422
 30
0.0
 11
261.5283687123
 21
146.5332245668
 31
0.0
  0
LINE
  5
9B
330
1F
100
AcDbEntity
  8
0
  6
Continuous
 62
     7
370
    15
100
AcDbLine
 10
256.8313124271
 20
133.1065230408
 30
0.0
 11
257.2263162215
 21
133.0205811857
 31
0.0
  0
LINE
  5
9C
330
1F
100
AcDbEntity
  8
0
  6
Continuous
 62
     7
370
    15
100
AcDbLine
 10
259.3159742117
 20
144.421634285
 30
0.0
 11
259.5159344107
 21
145.0497044597
 31
0.0
  0
SPLINE
  5
9D
330
1F
100
AcDbEntity
  8
0
  6
Continuous
 62
     7
370
    15
100
AcDbSpline
210
0.0
220
0.0
230
1.0
 70
     8
 71
     3
 72
    11
 73
     7
 74
     0
 42
0.00000001
 43
0.00000001
 40
0.0
 40
0.0
 40
0.0
 40
0.0
 40
0.32804555015785
 40
0.6557028173708874
 40
0.9906967996087815
 40
1.0
 40
1.0
 40
1.0
 40
1.0
 10
247.7849352658423
 20
142.3425716897393
 30
0.0
 10
247.8317153561379
 20
142.2841829790675
 30
0.0
 10
247.9252201666406
 20
142.167474668067
 30
0.0
 10
248.0980666453957
 20
141.9937332682472
 30
0.0
 10
248.2155165204999
 20
141.8925199910207
 30
0.0
 10
248.2728585379265
 20
141.8478831314467
 30
0.0
 10
248.2744079676223
 20
141.8466770058366
 30
0.0
  0
LINE
  5
9E
330
1F
100
AcDbEntity
  8
0
  6
Continuous
 62
     7
370
    15
100
AcDbLine
 10
247.4889975986
 20
142.7348888886
 30
0.0
 11
247.4145625981
 21
143.1327595083
 31
0.0
  0
LINE
  5
9F
330
1F
100
AcDbEntity
  8
0
  6
Continuous
 62
     7
370
    15
100
AcDbLine
 10
261.1333649179
 20
146.619166422
 30
0.0
 11
261.0589299173
 21
147.017037042
 31
0.0
  0
LINE
  5
A0
330
1F
100
AcDbEntity
  8
0
  6
Continuous
 62
     7
370
    15
100
AcDbLine
 10
259.5159344107
 20
145.0497044597
 30
0.0
 11
258.8817416829
 21
144.8691625183
 31
0.0
  0
ARC
  5
A1
330
1F
100
AcDbEntity
  8
0
  6
Continuous
 62
     7
370
    15
100
AcDbCircle
 10
256.059246075
 20
132.3133994599
 30
0.0
 40
0.3766395670294663
100
AcDbArc
 50
302.0305943114
 51
314.5592402854
  0
ARC
  5
A2
330
1F
100
AcDbEntity
  8
0
  6
Continuous
 62
     7
370
    15
100
AcDbCircle
 10
246.6856258283
 20
141.9738771241
 30
0.0
 40
0.3785147027413686
100
AcDbArc
 50
134.5980072395
 51
162.395394773
  0
LINE
  5
A3
330
1F
100
AcDbEntity
  8
0
  6
Continuous
 62
     7
370
    15
100
AcDbLine
 10
258.7433983646
 20
144.2992051851
 30
0.0
 11
258.741780964
 21
144.3008721087
 31
0.0
  0
SPLINE
  5
A4
330
1F
100
AcDbEntity
  8
0
  6
Continuous
 62
     7
370
    15
100
AcDbSpline
210
0.0
220
0.0
230
1.0
 70
     8
 71
     3
 72
    14
 73
    10
 74
     0
 42
0.00000001
 43
0.00000001
 40
0.0
 40
0.0
 40
0.0
 40
0.0
 40
0.2234968253974049
 40
0.3567622963775038
 40
0.4531212562341506
 40
0.5344619041500487
 40
0.6157317558035404
 40
0.7396161778922146
 40
1.0
 40
1.0
 40
1.0
 40
1.0
 10
258.8817416829156
 20
144.8691625183299
 30
0.0
 10
258.8263671744684
 20
144.8507409382946
 30
0.0
 10
258.7379742554224
 20
144.8213350387496
 30
0.0
 10
258.6413366358104
 20
144.7523619877145
 30
0.0
 10
258.5918315449347
 20
144.6873942493432
 30
0.0
 10
258.572155996184
 20
144.6214847840516
 30
0.0
 10
258.5769946727697
 20
144.5451150153535
 30
0.0
 10
258.6253293667013
 20
144.4289683256504
 30
0.0
 10
258.6947445646846
 20
144.3526119297918
 30
0.0
 10
258.741780963961
 20
144.3008721087259
 30
0.0
  0
SPLINE
  5
A5
330
1F
100
AcDbEntity
  8
0
  6
Continuous
 62
     7
370
    15
100
AcDbSpline
210
0.0
220
0.0
230
1.0
 70
     8
 71
     3
 72
    14
 73
    10
 74
     0
 42
0.00000001
 43
0.00000001
 40
0.0
 40
0.0
 40
0.0
 40
0.0
 40
0.2210591904779659
 40
0.3460797326519501
 40
0.4396016244131463
 40
0.5338897453199634
 40
0.6146561933587615
 40
0.7517253237594016
 40
1.0
 40
1.0
 40
1.0
 40
1.0
 10
258.7433983645854
 20
144.2992051851401
 30
0.0
 10
258.7858658371689
 20
144.2580631902228
 30
0.0
 10
258.8523508881922
 20
144.1936532438596
 30
0.0
 10
258.9557935743995
 20
144.1364506351642
 30
0.0
 10
259.0377553073064
 20
144.1182722867833
 30
0.0
 10
259.1088250781735
 20
144.1305284704548
 30
0.0
 10
259.1788791200799
 20
144.1727187942226
 30
0.0
 10
259.2584286965244
 20
144.2662617779197
 30
0.0
 10
259.2934257940972
 20
144.3607537079341
 30
0.0
 10
259.3159742116908
 20
144.4216342850378
 30
0.0
  0
LINE
  5
A6
330
1F
100
AcDbEntity
  8
0
  6
Continuous
 62
     7
370
    15
100
AcDbLine
 10
246.2323427218
 20
141.7978310409
 30
0.0
 11
246.1154963373
 21
141.430819358
 31
0.0
  0
LINE
  5
A7
330
1F
100
AcDbEntity
  8
0
  6
Continuous
 62
     7
370
    15
100
AcDbLine
 10
243.3136074599
 20
132.6301537977
 30
0.0
 11
242.3641106503
 21
129.6478071604
 31
0.0
  0
LWPOLYLINE
  5
A8
330
1F
100
AcDbEntity
  8
0
  6
Continuous
 62
     7
370
    15
100
AcDbPolyline
 90
        3
 70
   128
 43
0.0
 10
241.5896397779
 20
128.8851022408
 10
241.5445871506
 20
128.6225663045
 10
241.5473097887
 20
128.5103201803
  0
LINE
  5
A9
330
1F
100
AcDbEntity
  8
0
  6
Continuous
 62
     7
370
    15
100
AcDbLine
 10
242.5391365875
 20
131.8674488781
 30
0.0
 11
241.5896397779
 21
128.8851022408
 31
0.0
  0
LWPOLYLINE
  5
AA
330
1F
100
AcDbEntity
  8
0
  6
Continuous
 62
     7
370
    15
100
AcDbPolyline
 90
        3
 70
   128
 43
0.0
 10
245.6954258536
 20
141.4227289269
 10
245.6223852022
 20
141.341951312
 10
245.5566200124
 20
141.2492294323
  0
LWPOLYLINE
  5
AB
330
1F
100
AcDbEntity
  8
0
  6
Continuous
 62
     7
370
    15
100
AcDbPolyline
 90
       31
 70
   128
 43
0.0
 10
248.7035181807
 20
121.3807458264
 10
248.1433807273
 20
120.9445909388
 10
247.5012360754
 20
120.6373119594
 10
246.8051490278
 20
120.4723384539
 10
246.0855419287
 20
120.4568805562
 10
245.3738650613
 20
120.5916138506
 10
244.7012221198
 20
120.8706498456
 10
244.0970108283
 20
121.2817933293
 10
243.5876381197
 20
121.8070753586
 10
243.1953660255
 20
122.4235385881
 10
242.9373387187
 20
123.1042406167
 10
242.8248332306
 20
123.8194314993
 10
242.862766591
 20
124.5378539624
 10
243.04948093
 20
125.2281094972
 10
243.376815935
 20
125.8600306244
 10
243.8304654956
 20
126.4059993585
 10
244.390602949
 20
126.8421542461
 10
245.0327476009
 20
127.1494332256
 10
245.7288346485
 20
127.3144067311
 10
246.4484417476
 20
127.3298646288
 10
247.160118615
 20
127.1951313343
 10
247.8327615565
 20
126.9160953393
 10
248.436972848
 20
126.5049518556
 10
248.9463455566
 20
125.9796698264
 10
249.3386176508
 20
125.3632065968
 10
249.5966449576
 20
124.6825045683
 10
249.7091504457
 20
123.9673136857
 10
249.6712170853
 20
123.2488912225
 10
249.4845027463
 20
122.5586356878
 10
249.1571677413
 20
121.9267145606
 10
248.7035181807
 20
121.3807458264
  0
LWPOLYLINE
  5
AC
330
1F
100
AcDbEntity
  8
0
  6
Continuous
 62
     7
370
    15
100
AcDbPolyline
 90
       24
 70
   128
 43
0.0
 10
247.6592926053
 20
122.457585869
 10
247.2317933086
 20
122.1466991641
 10
246.7327391005
 20
121.9653552369
 10
246.1991425486
 20
121.9270035369
 10
245.6705780681
 20
122.0344884342
 10
245.1862468685
 20
122.2798382657
 10
244.7820695792
 20
122.6448565567
 10
244.4880221808
 20
123.1024715706
 10
244.3259128237
 20
123.6187440951
 10
244.3077644172
 20
124.1553845589
 10
244.4349229456
 20
124.6725927938
 10
244.6979576427
 20
125.1320098311
 10
245.0773604282
 20
125.4995628108
 10
245.5449927331
 20
125.7479920098
 10
246.0661724088
 20
125.8588725709
 10
246.6022459428
 20
125.8239809902
 10
247.1134552136
 20
125.6459050166
 10
247.5618861681
 20
125.3378517304
 10
247.9142807339
 20
124.9226680346
 10
248.1445034182
 20
124.4311462046
 10
248.2354796576
 20
123.8997401659
 10
248.1804621607
 20
123.3678618734
 10
247.9835313235
 20
122.8749583069
 10
247.6592926053
 20
122.457585869
  0
SPLINE
  5
AD
330
1F
100
AcDbEntity
  8
0
  6
Continuous
 62
     7
370
    15
100
AcDbSpline
210
0.0
220
0.0
230
1.0
 70
     8
 71
     3
 72
    11
 73
     7
 74
     0
 42
0.00000001
 43
0.00000001
 40
0.0
 40
0.0
 40
0.0
 40
0.0
 40
0.1081100880371254
 40
0.4711580666043531
 40
0.8135808430836078
 40
0.9999999999999999
 40
0.9999999999999999
 40
0.9999999999999999
 40
0.9999999999999999
 10
245.7794916446754
 20
125.5088035841453
 30
0.0
 10
245.7338488965787
 20
125.4645084786256
 30
0.0
 10
245.5349317618484
 20
125.2714645485388
 30
0.0
 10
245.1743856013499
 20
124.9218239718705
 30
0.0
 10
244.8131127670085
 20
124.5721034381185
 30
0.0
 10
244.6355683184663
 20
124.4004768189611
 30
0.0
 10
244.5729831028805
 20
124.3399776648144
 30
0.0
  0
SPLINE
  5
AE
330
1F
100
AcDbEntity
  8
0
  6
Continuous
 62
     7
370
    15
100
AcDbSpline
210
0.0
220
0.0
230
1.0
 70
     8
 71
     3
 72
    10
 73
     6
 74
     0
 42
0.00000001
 43
0.00000001
 40
0.0
 40
0.0
 40
0.0
 40
0.0
 40
0.4391165375904127
 40
0.7513669429073387
 40
1.0
 40
1.0
 40
1.0
 40
1.0
 10
244.5729831028805
 20
124.3399776648144
 30
0.0
 10
244.6182718790673
 20
124.0845878495914
 30
0.0
 10
244.6957649507203
 20
123.6475934567891
 30
0.0
 10
244.8663568844539
 20
123.0694067218806
 30
0.0
 10
244.9686216408959
 20
122.7987178590079
 30
0.0
 10
245.0139544073813
 20
122.6787246625463
 30
0.0
  0
SPLINE
  5
AF
330
1F
100
AcDbEntity
  8
0
  6
Continuous
 62
     7
370
    15
100
AcDbSpline
210
0.0
220
0.0
230
1.0
 70
     8
 71
     3
 72
    13
 73
     9
 74
     0
 42
0.00000001
 43
0.00000001
 40
0.0
 40
0.0
 40
0.0
 40
0.0
 40
0.2161241182544774
 40
0.4396369202065106
 40
0.5932538221761634
 40
0.752004855775688
 40
0.8754343578245654
 40
0.9999999999999999
 40
0.9999999999999999
 40
0.9999999999999999
 40
0.9999999999999999
 10
245.0139544073813
 20
122.6787246625463
 30
0.0
 10
245.1173220169943
 20
122.6357112926913
 30
0.0
 10
245.3275910878708
 20
122.54821404526
 30
0.0
 10
245.6522783846439
 20
122.4350335722339
 30
0.0
 10
245.9620458886903
 20
122.3438502683803
 30
0.0
 10
246.2171067279961
 20
122.2796585419428
 30
0.0
 10
246.4517323697885
 20
122.227488044063
 30
0.0
 10
246.5913204607457
 20
122.2000696051242
 30
0.0
 10
246.6614342536772
 20
122.1862975796092
 30
0.0
  0
SPLINE
  5
B0
330
1F
100
AcDbEntity
  8
0
  6
Continuous
 62
     7
370
    15
100
AcDbSpline
210
0.0
220
0.0
230
1.0
 70
     8
 71
     3
 72
    14
 73
    10
 74
     0
 42
0.00000001
 43
0.00000001
 40
0.0
 40
0.0
 40
0.0
 40
0.0
 40
0.0927891276284364
 40
0.1859364241092268
 40
0.354570545323136
 40
0.5287967792096505
 40
0.7072383843481047
 40
0.8922253340288099
 40
0.9999999999999999
 40
0.9999999999999999
 40
0.9999999999999999
 40
0.9999999999999999
 10
246.6614342536772
 20
122.1862975796092
 30
0.0
 10
246.692329002168
 20
122.2161598220996
 30
0.0
 10
246.7542377538176
 20
122.275999576244
 30
0.0
 10
246.8795760050758
 20
122.3972070630169
 30
0.0
 10
247.0449444675959
 20
122.5572176809026
 30
0.0
 10
247.260912064765
 20
122.7663760273037
 30
0.0
 10
247.4939497922049
 20
122.9922670100691
 30
0.0
 10
247.6981303214147
 20
123.1903249105292
 30
0.0
 10
247.8222503488475
 20
123.3107801681773
 30
0.0
 10
247.8679427954721
 20
123.3551234989401
 30
0.0
  0
SPLINE
  5
B1
330
1F
100
AcDbEntity
  8
0
  6
Continuous
 62
     7
370
    15
100
AcDbSpline
210
0.0
220
0.0
230
1.0
 70
     8
 71
     3
 72
    10
 73
     6
 74
     0
 42
0.00000001
 43
0.00000001
 40
0.0
 40
0.0
 40
0.0
 40
0.0
 40
0.4391165375904203
 40
0.7513669429073504
 40
1.0
 40
1.0
 40
1.0
 40
1.0
 10
247.8679427954721
 20
123.3551234989401
 30
0.0
 10
247.7869746880941
 20
123.5753760321836
 30
0.0
 10
247.6484311487241
 20
123.9522474510532
 30
0.0
 10
247.5049757119147
 20
124.5571584185223
 30
0.0
 10
247.4509295294449
 20
124.8753333068819
 30
0.0
 10
247.4269714909713
 20
125.0163765012081
 30
0.0
  0
SPLINE
  5
B2
330
1F
100
AcDbEntity
  8
0
  6
Continuous
 62
     7
370
    15
100
AcDbSpline
210
0.0
220
0.0
230
1.0
 70
     8
 71
     3
 72
    13
 73
     9
 74
     0
 42
0.00000001
 43
0.00000001
 40
0.0
 40
0.0
 40
0.0
 40
0.0
 40
0.2161241182544844
 40
0.4396369202065177
 40
0.5932538221761726
 40
0.7520048557756961
 40
0.8754343578245689
 40
1.0
 40
1.0
 40
1.0
 40
1.0
 10
247.4269714909713
 20
125.0163765012081
 30
0.0
 10
247.3047255825578
 20
125.0407983760408
 30
0.0
 10
247.0560545174456
 20
125.0904770418177
 30
0.0
 10
246.7062331658654
 20
125.178905302805
 30
0.0
 10
246.3986551526356
 20
125.2722448341899
 30
0.0
 10
246.1623606813059
 20
125.3549178253062
 30
0.0
 10
245.955714125232
 20
125.4346423437237
 30
0.0
 10
245.8384116042031
 20
125.4840077847084
 30
0.0
 10
245.7794916446754
 20
125.5088035841453
 30
0.0
  0
LINE
  5
B3
330
1F
100
AcDbEntity
  8
0
  6
Continuous
 62
     7
370
    15
100
AcDbLine
 10
245.131427823
 20
124.8705853081
 30
0.0
 11
245.7794916447
 21
125.5088035841
 31
0.0
  0
LINE
  5
B4
330
1F
100
AcDbEntity
  8
0
  6
Continuous
 62
     7
370
    15
100
AcDbLine
 10
245.131427823
 20
124.8705853081
 30
0.0
 11
244.5281735521
 21
124.2861723484
 31
0.0
  0
LINE
  5
B5
330
1F
100
AcDbEntity
  8
0
  6
Continuous
 62
     7
370
    15
100
AcDbLine
 10
247.2198789738
 20
122.7169052229
 30
0.0
 11
246.9993933215
 21
123.547531724
 31
0.0
  0
LINE
  5
B6
330
1F
100
AcDbEntity
  8
0
  6
Continuous
 62
     7
370
    15
100
AcDbLine
 10
246.9993933215
 20
123.547531724
 30
0.0
 11
246.7789076693
 21
124.3781582252
 31
0.0
  0
LINE
  5
B7
330
1F
100
AcDbEntity
  8
0
  6
Continuous
 62
     7
370
    15
100
AcDbLine
 10
246.7789076693
 20
124.3781582252
 30
0.0
 11
247.426971491
 21
125.0163765012
 31
0.0
  0
LINE
  5
B8
330
1F
100
AcDbEntity
  8
0
  6
Continuous
 62
     7
370
    15
100
AcDbLine
 10
246.7789076693
 20
124.3781582252
 30
0.0
 11
245.9551677461
 21
124.6243717666
 31
0.0
  0
LINE
  5
B9
330
1F
100
AcDbEntity
  8
0
  6
Continuous
 62
     7
370
    15
100
AcDbLine
 10
245.9551677461
 20
124.6243717666
 30
0.0
 11
245.131427823
 21
124.8705853081
 31
0.0
  0
ARC
  5
BA
330
1F
100
AcDbEntity
  8
0
  6
Continuous
 62
     7
370
    15
100
AcDbCircle
 10
245.5297768125
 20
123.2396406866
 30
0.0
 40
1.448598498690762
100
AcDbArc
 50
72.9229837631
 51
133.7433469486
  0
ARC
  5
BB
330
1F
100
AcDbEntity
  8
0
  6
Continuous
 62
     7
370
    15
100
AcDbCircle
 10
245.5120502345
 20
123.1499555668
 30
0.0
 40
1.539563658740453
100
AcDbArc
 50
14.9656262075
 51
73.2725008418
  0
ARC
  5
BC
330
1F
100
AcDbEntity
  8
0
  6
Continuous
 62
     7
370
    15
100
AcDbCircle
 10
245.6037294964
 20
123.1657699809
 30
0.0
 40
1.446934532438693
100
AcDbArc
 50
314.4292792985
 51
15.2981409163
  0
ELLIPSE
  5
BD
330
1F
100
AcDbEntity
  8
0
  6
Continuous
 62
     7
370
    15
100
AcDbEllipse
 10
251.8880584584
 20
137.2965751527
 30
0.0
 11
-1.622086646593402
 21
1.701045915595017
 31
0.0
210
0.0
220
0.0
230
1.0
 40
0.9707866232
 41
5.113543159655766
 42
6.806182818429852
  0
ELLIPSE
  5
BE
330
1F
100
AcDbEntity
  8
0
  6
Continuous
 62
     7
370
    15
100
AcDbEllipse
 10
251.8880584584
 20
137.2965751527
 30
0.0
 11
-1.622086646593402
 21
1.701045915595017
 31
0.0
210
0.0
220
0.0
230
1.0
 40
0.9707866232
 41
3.34064234338459
 42
5.113543159655771
  0
SPLINE
  5
BF
330
1F
100
AcDbEntity
  8
0
  6
Continuous
 62
     7
370
    15
100
AcDbSpline
210
0.0
220
0.0
230
1.0
 70
     8
 71
     3
 72
     9
 73
     5
 74
     0
 42
0.00000001
 43
0.00000001
 40
0.0
 40
0.0
 40
0.0
 40
0.0
 40
0.2840537565414752
 40
1.0
 40
1.0
 40
1.0
 40
1.0
 10
250.1505254823494
 20
138.9146071377712
 30
0.0
 10
250.1149495515342
 20
138.9068773444596
 30
0.0
 10
249.9897058960783
 20
138.8796649132431
 30
0.0
 10
249.8787734962519
 20
138.8236725218089
 30
0.0
 10
249.7993518613183
 20
138.7835849794993
 30
0.0
  0
LINE
  5
C0
330
1F
100
AcDbEntity
  8
0
  6
Continuous
 62
     7
370
    15
100
AcDbLine
 10
216.9153852315
 20
71.8638748681
 30
0.0
 11
212.957318063
 21
71.8638748681
 31
0.0
  0
LINE
  5
C1
330
1F
100
AcDbEntity
  8
0
  6
Continuous
 62
     7
370
    15
100
AcDbLine
 10
212.957318063
 20
71.8638748681
 30
0.0
 11
212.957318063
 21
121.9007925644
 31
0.0
  0
LINE
  5
C2
330
1F
100
AcDbEntity
  8
0
  6
Continuous
 62
     7
370
    15
100
AcDbLine
 10
212.957318063
 20
121.9007925644
 30
0.0
 11
216.9153852315
 21
121.9007925644
 31
0.0
  0
LINE
  5
C3
330
1F
100
AcDbEntity
  8
0
  6
Continuous
 62
     7
370
    15
100
AcDbLine
 10
217.5153852315
 20
72.4905151638
 30
0.0
 11
217.5153852315
 21
121.9007925644
 31
0.0
  0
SPLINE
  5
C4
330
1F
100
AcDbEntity
  8
0
  6
Continuous
 62
     7
370
    15
100
AcDbSpline
210
0.0
220
0.0
230
1.0
 70
     8
 71
     3
 72
    10
 73
     6
 74
     0
 42
0.00000001
 43
0.00000001
 40
0.0
 40
0.0
 40
0.0
 40
0.0
 40
0.5
 40
0.5
 40
1.0
 40
1.0
 40
1.0
 40
1.0
 10
217.5153852314841
 20
72.49051516378013
 30
0.0
 10
217.5153852314841
 20
72.33062789558646
 30
0.0
 10
217.4540755802482
 20
72.16950064007186
 30
0.0
 10
217.2349759427131
 20
71.93540164171704
 30
0.0
 10
217.0769277363997
 20
71.86387486812582
 30
0.0
 10
216.915385231484
 20
71.86387486812582
 30
0.0
  0
SPLINE
  5
C5
330
1F
100
AcDbEntity
  8
0
  6
Continuous
 62
     7
370
    15
100
AcDbSpline
210
0.0
220
0.0
230
1.0
 70
    24
 71
     3
 72
    12
 73
     8
 74
     0
 42
0.00000001
 43
0.00000001
 40
0.0
 40
0.0
 40
0.0
 40
0.0
 40
0.250000000000002
 40
0.250000000000002
 40
0.500000000000004
 40
0.500000000000004
 40
1.0
 40
1.0
 40
1.0
 40
1.0
 10
216.915385231484
 20
121.900792564373
 30
0.0
 10
217.0056242991711
 20
121.900792564373
 30
0.0
 10
217.0965224132776
 20
121.900792564373
 30
0.0
 10
217.2511194497661
 20
121.900792564373
 30
0.0
 10
217.3160978658742
 20
121.900792564373
 30
0.0
 10
217.4679328938105
 20
121.900792564373
 30
0.0
 10
217.5153852314841
 20
121.900792564373
 30
0.0
 10
217.5153852314841
 20
121.900792564373
 30
0.0
  0
LINE
  5
C6
330
1F
100
AcDbEntity
  8
0
  6
Continuous
 62
     7
370
    15
100
AcDbLine
 10
207.6553852315
 20
74.5529554053
 30
0.0
 11
207.6553852315
 21
121.9007925644
 31
0.0
  0
SPLINE
  5
C7
330
1F
100
AcDbEntity
  8
0
  6
Continuous
 62
     7
370
    15
100
AcDbSpline
210
0.0
220
0.0
230
1.0
 70
     8
 71
     3
 72
     8
 73
     4
 74
     0
 42
0.00000001
 43
0.00000001
 40
0.0
 40
0.0
 40
0.0
 40
0.0
 40
1.0
 40
1.0
 40
1.0
 40
1.0
 10
207.655385231484
 20
74.55295540531809
 30
0.0
 10
207.1630461087029
 20
73.65568537111139
 30
0.0
 10
206.6689320606607
 20
72.75940095605915
 30
0.0
 10
206.173452399995
 20
71.8638748681258
 30
0.0
  0
LINE
  5
C8
330
1F
100
AcDbEntity
  8
0
  6
Continuous
 62
     7
370
    15
100
AcDbLine
 10
206.1734524
 20
71.8638748681
 30
0.0
 11
206.1734524
 21
121.9007925644
 31
0.0
  0
SPLINE
  5
C9
330
1F
100
AcDbEntity
  8
0
  6
Continuous
 62
     7
370
    15
100
AcDbSpline
210
0.0
220
0.0
230
1.0
 70
    24
 71
     3
 72
     8
 73
     4
 74
     0
 42
0.00000001
 43
0.00000001
 40
0.0
 40
0.0
 40
0.0
 40
0.0
 40
1.0
 40
1.0
 40
1.0
 40
1.0
 10
206.173452399995
 20
121.900792564373
 30
0.0
 10
206.6801325081455
 20
121.900792564373
 30
0.0
 10
207.1754332371191
 20
121.900792564373
 30
0.0
 10
207.655385231484
 20
121.900792564373
 30
0.0
  0
SPLINE
  5
CA
330
1F
100
AcDbEntity
  8
0
  6
Continuous
 62
     7
370
    15
100
AcDbSpline
210
0.0
220
0.0
230
1.0
 70
     8
 71
     3
 72
     8
 73
     4
 74
     0
 42
0.00000001
 43
0.00000001
 40
0.0
 40
0.0
 40
0.0
 40
0.0
 40
1.0
 40
1.0
 40
1.0
 40
1.0
 10
212.9573180629731
 20
71.86387486812582
 30
0.0
 10
212.4618384023074
 20
72.75940095605915
 30
0.0
 10
211.9677243542652
 20
73.65568537111139
 30
0.0
 10
211.4753852314841
 20
74.55295540531809
 30
0.0
  0
LINE
  5
CB
330
1F
100
AcDbEntity
  8
0
  6
Continuous
 62
     7
370
    15
100
AcDbLine
 10
211.4753852315
 20
74.5529554053
 30
0.0
 11
211.4753852315
 21
121.9007925644
 31
0.0
  0
SPLINE
  5
CC
330
1F
100
AcDbEntity
  8
0
  6
Continuous
 62
     7
370
    15
100
AcDbSpline
210
0.0
220
0.0
230
1.0
 70
    24
 71
     3
 72
     8
 73
     4
 74
     0
 42
0.00000001
 43
0.00000001
 40
0.0
 40
0.0
 40
0.0
 40
0.0
 40
1.0
 40
1.0
 40
1.0
 40
1.0
 10
211.4753852314841
 20
121.900792564373
 30
0.0
 10
211.955337225849
 20
121.900792564373
 30
0.0
 10
212.4506379548226
 20
121.900792564373
 30
0.0
 10
212.9573180629731
 20
121.900792564373
 30
0.0
  0
LINE
  5
CD
330
1F
100
AcDbEntity
  8
0
  6
Continuous
 62
     7
370
    15
100
AcDbLine
 10
196.5153852315
 20
121.9007925644
 30
0.0
 11
206.1734524
 21
121.9007925644
 31
0.0
  0
LINE
  5
CE
330
1F
100
AcDbEntity
  8
0
  6
Continuous
 62
     7
370
    15
100
AcDbLine
 10
206.1734524
 20
71.8638748681
 30
0.0
 11
204.5153852315
 21
71.8638748681
 31
0.0
  0
SPLINE
  5
CF
330
1F
100
AcDbEntity
  8
0
  6
Continuous
 62
     7
370
    15
100
AcDbSpline
210
0.0
220
0.0
230
1.0
 70
     8
 71
     3
 72
    28
 73
    24
 74
     0
 42
0.00000001
 43
0.00000001
 40
0.0
 40
0.0
 40
0.0
 40
0.0
 40
0.1250000000000001
 40
0.1250000000000001
 40
0.1874999999999999
 40
0.1874999999999999
 40
0.2499999999999998
 40
0.2499999999999998
 40
0.3749999999999998
 40
0.3749999999999998
 40
0.4375
 40
0.4375
 40
0.5
 40
0.5
 40
0.625
 40
0.625
 40
0.75
 40
0.75
 40
0.8125
 40
0.8125
 40
0.8750000000000001
 40
0.8750000000000001
 40
1.0
 40
1.0
 40
1.0
 40
1.0
 10
204.5153852314841
 20
71.86387486812582
 30
0.0
 10
203.9836774739911
 20
71.86387486812582
 30
0.0
 10
203.4614389086808
 20
71.8480901541756
 30
0.0
 10
202.6915684224058
 20
71.80309474009938
 30
0.0
 10
202.4372088502144
 20
71.78453974502368
 30
0.0
 10
201.9330872695159
 20
71.74068702257719
 30
0.0
 10
201.683364452088
 20
71.71534241562496
 30
0.0
 10
200.9577745006416
 20
71.63194033787487
 30
0.0
 10
200.4994142390601
 20
71.56607477872377
 30
0.0
 10
199.8489162956662
 20
71.45710443823198
 30
0.0
 10
199.6372342448737
 20
71.41886480246534
 30
0.0
 10
199.2331627557357
 20
71.34110606504599
 30
0.0
 10
199.0406562419149
 20
71.30160510287064
 30
0.0
 10
198.4908212708936
 20
71.18269736050465
 30
0.0
 10
198.1608924925848
 20
71.10287967908002
 30
0.0
 10
197.5764212240161
 20
70.94953651728397
 30
0.0
 10
197.3301440860027
 20
70.8782027640147
 30
0.0
 10
197.0303012933046
 20
70.78425925694009
 30
0.0
 10
196.9418444362324
 20
70.75506546358015
 30
0.0
 10
196.7884830829273
 20
70.70159888931674
 30
0.0
 10
196.723394868701
 20
70.67723955504157
 30
0.0
 10
196.5678008527602
 20
70.61364940959683
 30
0.0
 10
196.515385231484
 20
70.58354647450756
 30
0.0
 10
196.515385231484
 20
70.56666958151064
 30
0.0
  0
LINE
  5
D0
330
1F
100
AcDbEntity
  8
0
  6
Continuous
 62
     7
370
    15
100
AcDbLine
 10
196.5153852315
 20
70.5666695815
 30
0.0
 11
196.5153852315
 21
70.5507925644
 31
0.0
  0
SPLINE
  5
D1
330
1F
100
AcDbEntity
  8
0
  6
Continuous
 62
     7
370
    15
100
AcDbSpline
210
0.0
220
0.0
230
1.0
 70
     8
 71
     3
 72
    23
 73
    19
 74
     0
 42
0.00000001
 43
0.00000001
 40
0.0
 40
0.0
 40
0.0
 40
0.0
 40
0.0518255563558341
 40
0.1565081979525007
 40
0.2099949790137869
 40
0.2618040548304412
 40
0.3663992823913006
 40
0.4197730562946927
 40
0.5256601391290524
 40
0.5793827953807036
 40
0.633867020825376
 40
0.6871878645830104
 40
0.740888436909749
 40
0.7958045253840329
 40
0.8511490715423764
 40
0.9035396881595855
 40
0.9563116953003146
 40
1.0
 40
1.0
 40
1.0
 40
1.0
 10
204.5153852314841
 20
132.5179880375372
 30
0.0
 10
204.2975043195996
 20
132.5193979399758
 30
0.0
 10
203.6395249116573
 20
132.5236557097997
 30
0.0
 10
202.7644876488617
 20
132.5632322797644
 30
0.0
 10
201.9197137282725
 20
132.6262008530974
 30
0.0
 10
201.1000515517946
 20
132.7042474035181
 30
0.0
 10
200.3242871941
 20
132.801162245336
 30
0.0
 10
199.4265732612113
 20
132.9366021723946
 30
0.0
 10
198.7690061796614
 20
133.0527562626417
 30
0.0
 10
198.1912860734848
 20
133.1665289880426
 30
0.0
 10
197.7999579140649
 20
133.2486131983727
 30
0.0
 10
197.4561526364963
 20
133.3245991859882
 30
0.0
 10
197.1610569162131
 20
133.3926679323378
 30
0.0
 10
196.9157778407342
 20
133.4512546170174
 30
0.0
 10
196.7278246272138
 20
133.497392077946
 30
0.0
 10
196.5994343259152
 20
133.5295015269386
 30
0.0
 10
196.5258854340866
 20
133.548122621513
 30
0.0
 10
196.5215520725253
 20
133.5492260523811
 30
0.0
 10
196.5195894288571
 20
133.5497258125733
 30
0.0
  0
LINE
  5
D2
330
1F
100
AcDbEntity
  8
0
  6
Continuous
 62
     7
370
    15
100
AcDbLine
 10
206.1734524
 20
132.5179880375
 30
0.0
 11
204.5153852315
 21
132.5179880375
 31
0.0
  0
LINE
  5
D3
330
1F
100
AcDbEntity
  8
0
  6
Continuous
 62
     7
370
    15
100
AcDbLine
 10
206.1734524
 20
126.5094822267
 30
0.0
 11
206.1734524
 21
132.5179880375
 31
0.0
  0
LINE
  5
D4
330
1F
100
AcDbEntity
  8
0
  6
Continuous
 62
     7
370
    15
100
AcDbLine
 10
203.7610055772
 20
126.5094822267
 30
0.0
 11
206.1734524
 21
126.5094822267
 31
0.0
  0
SPLINE
  5
D5
330
1F
100
AcDbEntity
  8
0
  6
Continuous
 62
     7
370
    15
100
AcDbSpline
210
0.0
220
0.0
230
1.0
 70
     8
 71
     3
 72
    20
 73
    16
 74
     0
 42
0.00000001
 43
0.00000001
 40
0.0
 40
0.0
 40
0.0
 40
0.0
 40
0.2499999999999995
 40
0.2499999999999995
 40
0.3749999999999996
 40
0.3749999999999996
 40
0.4999999999999997
 40
0.4999999999999997
 40
0.6249999999999998
 40
0.6249999999999998
 40
0.7499999999999998
 40
0.7499999999999998
 40
0.8749999999999999
 40
0.8749999999999999
 40
1.0
 40
1.0
 40
1.0
 40
1.0
 10
196.515385231484
 20
121.900792564373
 30
0.0
 10
196.7637589657721
 20
122.5546549926704
 30
0.0
 10
197.0833290581174
 20
123.1584407746675
 30
0.0
 10
197.7056352913221
 20
123.9852795108361
 30
0.0
 10
197.9370595517528
 20
124.247708148789
 30
0.0
 10
198.4582738914025
 20
124.744370802894
 30
0.0
 10
198.7448943740376
 20
124.9749576819155
 30
0.0
 10
199.3643791153452
 20
125.3915119064981
 30
0.0
 10
199.6986794948322
 20
125.5790097084656
 30
0.0
 10
200.423939967457
 20
125.910406686102
 30
0.0
 10
200.8058550248475
 20
126.0499106735973
 30
0.0
 10
201.6006432010192
 20
126.2753641810683
 30
0.0
 10
202.0148013952255
 20
126.3619902926119
 30
0.0
 10
202.8803477358069
 20
126.479971081466
 30
0.0
 10
203.3182353508187
 20
126.5094822267404
 30
0.0
 10
203.7610055771733
 20
126.5094822267404
 30
0.0
  0
LINE
  5
D6
330
1F
100
AcDbEntity
  8
0
  6
Continuous
 62
     7
370
    15
100
AcDbLine
 10
191.5653852315
 20
70.8507925644
 30
0.0
 11
191.5653852315
 21
133.2507925632
 31
0.0
  0
SPLINE
  5
D7
330
1F
100
AcDbEntity
  8
0
  6
Continuous
 62
     7
370
    15
100
AcDbSpline
210
0.0
220
0.0
230
1.0
 70
     8
 71
     3
 72
    10
 73
     6
 74
     0
 42
0.00000001
 43
0.00000001
 40
0.0
 40
0.0
 40
0.0
 40
0.0
 40
0.5
 40
0.5
 40
1.0
 40
1.0
 40
1.0
 40
1.0
 10
208.049682763175
 20
128.450792564373
 30
0.0
 10
207.9281424995065
 20
128.5255187315848
 30
0.0
 10
207.8268081391575
 20
128.6344637475015
 30
0.0
 10
207.6911691962691
 20
128.8848942282631
 30
0.0
 10
207.655385231484
 20
129.0273135903621
 30
0.0
 10
207.655385231484
 20
129.1704464154087
 30
0.0
  0
SPLINE
  5
D8
330
1F
100
AcDbEntity
  8
0
  6
Continuous
 62
     7
370
    15
100
AcDbSpline
210
0.0
220
0.0
230
1.0
 70
    24
 71
     3
 72
    12
 73
     8
 74
     0
 42
0.00000001
 43
0.00000001
 40
0.0
 40
0.0
 40
0.0
 40
0.0
 40
0.2499999999999962
 40
0.2499999999999962
 40
0.4999999999999925
 40
0.4999999999999925
 40
1.0
 40
1.0
 40
1.0
 40
1.0
 10
208.4553852314841
 20
128.450792564373
 30
0.0
 10
208.4060418696744
 20
128.450792564373
 30
0.0
 10
208.3573511713728
 20
128.450792564373
 30
0.0
 10
208.2745000738024
 20
128.450792564373
 30
0.0
 10
208.2383001061818
 20
128.450792564373
 30
0.0
 10
208.1425501896324
 20
128.450792564373
 30
0.0
 10
208.0926682198202
 20
128.450792564373
 30
0.0
 10
208.049682763175
 20
128.450792564373
 30
0.0
  0
SPLINE
  5
D9
330
1F
100
AcDbEntity
  8
0
  6
Continuous
 62
     7
370
    15
100
AcDbSpline
210
0.0
220
0.0
230
1.0
 70
    24
 71
     3
 72
    14
 73
    10
 74
     0
 42
0.00000001
 43
0.00000001
 40
0.0
 40
0.0
 40
0.0
 40
0.0
 40
0.124999999999999
 40
0.124999999999999
 40
0.249999999999998
 40
0.249999999999998
 40
0.4999999999999994
 40
0.4999999999999994
 40
1.0
 40
1.0
 40
1.0
 40
1.0
 10
208.4553852314841
 20
75.65079256437296
 30
0.0
 10
208.3860385097529
 20
75.65079256437296
 30
0.0
 10
208.320840456369
 20
75.65079256437295
 30
0.0
 10
208.216461263742
 20
75.65079256437296
 30
0.0
 10
208.173558892733
 20
75.65079256437296
 30
0.0
 10
208.0612332351283
 20
75.65079256437296
 30
0.0
 10
208.0060095407745
 20
75.65079256437296
 30
0.0
 10
207.8619521620069
 20
75.65079256437296
 30
0.0
 10
207.7998714651754
 20
75.65079256437296
 30
0.0
 10
207.7530600338163
 20
75.65079256437296
 30
0.0
  0
SPLINE
  5
DA
330
1F
100
AcDbEntity
  8
0
  6
Continuous
 62
     7
370
    15
100
AcDbSpline
210
0.0
220
0.0
230
1.0
 70
     8
 71
     3
 72
     9
 73
     5
 74
     0
 42
0.00000001
 43
0.00000001
 40
0.0
 40
0.0
 40
0.0
 40
0.0
 40
0.5
 40
1.0
 40
1.0
 40
1.0
 40
1.0
 10
207.655385231484
 20
122.1866591958344
 30
0.0
 10
207.655385231484
 20
122.1384271437116
 30
0.0
 10
207.6597912061892
 20
122.0425571302721
 30
0.0
 10
207.6728103862831
 20
121.9478485002887
 30
0.0
 10
207.6815328546441
 20
121.900792564373
 30
0.0
  0
SPLINE
  5
DB
330
1F
100
AcDbEntity
  8
0
  6
Continuous
 62
     7
370
    15
100
AcDbSpline
210
0.0
220
0.0
230
1.0
 70
    24
 71
     3
 72
    14
 73
    10
 74
     0
 42
0.00000001
 43
0.00000001
 40
0.0
 40
0.0
 40
0.0
 40
0.0
 40
0.5000000000000034
 40
0.5000000000000034
 40
0.7500000000000047
 40
0.7500000000000047
 40
0.8750000000000023
 40
0.8750000000000023
 40
1.0
 40
1.0
 40
1.0
 40
1.0
 10
211.3777104291518
 20
75.65079256437296
 30
0.0
 10
211.3309257241036
 20
75.65079256437296
 30
0.0
 10
211.268874527324
 20
75.65079256437296
 30
0.0
 10
211.1254828887734
 20
75.65079256437296
 30
0.0
 10
211.0693392352222
 20
75.65079256437296
 30
0.0
 10
210.956388213086
 20
75.65079256437295
 30
0.0
 10
210.9133874510479
 20
75.65079256437295
 30
0.0
 10
210.8093247407414
 20
75.65079256437295
 30
0.0
 10
210.7439925023845
 20
75.65079256437295
 30
0.0
 10
210.6753852314841
 20
75.65079256437296
 30
0.0
  0
SPLINE
  5
DC
330
1F
100
AcDbEntity
  8
0
  6
Continuous
 62
     7
370
    15
100
AcDbSpline
210
0.0
220
0.0
230
1.0
 70
    24
 71
     3
 72
    12
 73
     8
 74
     0
 42
0.00000001
 43
0.00000001
 40
0.0
 40
0.0
 40
0.0
 40
0.0
 40
0.4999999999999976
 40
0.4999999999999976
 40
0.7499999999999988
 40
0.7499999999999988
 40
1.0
 40
1.0
 40
1.0
 40
1.0
 10
211.0810876997931
 20
128.450792564373
 30
0.0
 10
211.0380021501823
 20
128.450792564373
 30
0.0
 10
210.9888499484353
 20
128.450792564373
 30
0.0
 10
210.8923773541457
 20
128.450792564373
 30
0.0
 10
210.8562757690115
 20
128.450792564373
 30
0.0
 10
210.7731700111489
 20
128.450792564373
 30
0.0
 10
210.7251734141848
 20
128.450792564373
 30
0.0
 10
210.6753852314841
 20
128.450792564373
 30
0.0
  0
SPLINE
  5
DD
330
1F
100
AcDbEntity
  8
0
  6
Continuous
 62
     7
370
    15
100
AcDbSpline
210
0.0
220
0.0
230
1.0
 70
     8
 71
     3
 72
    10
 73
     6
 74
     0
 42
0.00000001
 43
0.00000001
 40
0.0
 40
0.0
 40
0.0
 40
0.0
 40
0.5
 40
0.5
 40
1.0
 40
1.0
 40
1.0
 40
1.0
 10
211.475385231484
 20
129.1704464154087
 30
0.0
 10
211.475385231484
 20
129.0266763575907
 30
0.0
 10
211.4393361727652
 20
128.8842569950956
 30
0.0
 10
211.3038273119911
 20
128.6343627017384
 30
0.0
 10
211.203951318895
 20
128.5263323654902
 30
0.0
 10
211.081087699793
 20
128.4507925643729
 30
0.0
  0
SPLINE
  5
DE
330
1F
100
AcDbEntity
  8
0
  6
Continuous
 62
     7
370
    15
100
AcDbSpline
210
0.0
220
0.0
230
1.0
 70
     8
 71
     3
 72
    10
 73
     6
 74
     0
 42
0.00000001
 43
0.00000001
 40
0.0
 40
0.0
 40
0.0
 40
0.0
 40
0.5
 40
0.5
 40
1.0
 40
1.0
 40
1.0
 40
1.0
 10
211.4492376083239
 20
121.900792564373
 30
0.0
 10
211.4579272512356
 20
121.9476714136911
 30
0.0
 10
211.4644663159861
 20
121.9950938790924
 30
0.0
 10
211.4732249503791
 20
122.0910306776791
 30
0.0
 10
211.475385231484
 20
122.1389459656896
 30
0.0
 10
211.4753852314841
 20
122.1866591958342
 30
0.0
  0
LINE
  5
DF
330
1F
100
AcDbEntity
  8
0
  6
Continuous
 62
     7
370
    15
100
AcDbLine
 10
210.6753852315
 20
128.4507925644
 30
0.0
 11
208.4553852315
 21
128.4507925644
 31
0.0
  0
LINE
  5
E0
330
1F
100
AcDbEntity
  8
0
  6
Continuous
 62
     7
370
    15
100
AcDbLine
 10
210.6753852315
 20
75.6507925644
 30
0.0
 11
208.4553852315
 21
75.6507925644
 31
0.0
  0
LINE
  5
E1
330
1F
100
AcDbEntity
  8
0
  6
Continuous
 62
     7
370
    15
100
AcDbLine
 10
217.7153841719
 20
128.4507925644
 30
0.0
 11
217.6709163087
 21
128.4507925644
 31
0.0
  0
SPLINE
  5
E2
330
1F
100
AcDbEntity
  8
0
  6
Continuous
 62
     7
370
    15
100
AcDbSpline
210
0.0
220
0.0
230
1.0
 70
    24
 71
     3
 72
    10
 73
     6
 74
     0
 42
0.00000001
 43
0.00000001
 40
0.0
 40
0.0
 40
0.0
 40
0.0
 40
0.5
 40
0.5
 40
1.0
 40
1.0
 40
1.0
 40
1.0
 10
217.7153852314585
 20
75.65079256437296
 30
0.0
 10
217.7153840942086
 20
75.65079256437296
 30
0.0
 10
217.6721792076915
 20
75.65079256437295
 30
0.0
 10
217.5712521722611
 20
75.65079256437295
 30
0.0
 10
217.5153852314841
 20
75.65079256437296
 30
0.0
 10
217.5153852314841
 20
75.65079256437296
 30
0.0
  0
ELLIPSE
  5
E3
330
1F
100
AcDbEntity
  8
0
  6
Continuous
 62
     7
370
    15
100
AcDbEllipse
 10
304.1541029721
 20
102.0507925644
 30
0.0
 11
147.4511159362818
 21
-4.655015242949133
 31
0.0
210
0.0
220
0.0
230
1.0
 40
0.1734804855
 41
2.081404986944104
 42
2.085037983804252
  0
SPLINE
  5
E4
330
1F
100
AcDbEntity
  8
0
  6
Continuous
 62
     7
370
    15
100
AcDbSpline
210
0.0
220
0.0
230
1.0
 70
     8
 71
     3
 72
    14
 73
    10
 74
     0
 42
0.00000001
 43
0.00000001
 40
0.0
 40
0.0
 40
0.0
 40
0.0
 40
0.25
 40
0.25
 40
0.5
 40
0.5
 40
0.75
 40
0.75
 40
1.0
 40
1.0
 40
1.0
 40
1.0
 10
232.3297356238245
 20
126.6120180048978
 30
0.0
 10
231.705091857119
 20
126.5706469791576
 30
0.0
 10
231.1213605172802
 20
126.4940279295181
 30
0.0
 10
230.0353171170919
 20
126.2595459700176
 30
0.0
 10
229.5613838762526
 20
126.1071972767342
 30
0.0
 10
228.74158928774
 20
125.7215314017966
 30
0.0
 10
228.4126513622066
 20
125.4961471893926
 30
0.0
 10
227.8886511610572
 20
124.9722280704508
 30
0.0
 10
227.7021315656692
 20
124.6818836773178
 30
0.0
 10
227.5760697320916
 20
124.3623516296965
 30
0.0
  0
ELLIPSE
  5
E5
330
1F
100
AcDbEntity
  8
0
  6
Continuous
 62
     7
370
    15
100
AcDbEllipse
 10
232.1367005919
 20
102.0507925644
 30
0.0
 11
-1.299954407456312
 21
25.99774751943444
 31
0.0
210
0.0
220
0.0
230
0.9999999999999999
 40
0.263265937
 41
0.5260033403818788
 42
2.240197032160205
  0
SPLINE
  5
E6
330
1F
100
AcDbEntity
  8
0
  6
Continuous
 62
     7
370
    15
100
AcDbSpline
210
0.0
220
0.0
230
1.0
 70
     8
 71
     3
 72
    20
 73
    16
 74
     0
 42
0.00000001
 43
0.00000001
 40
0.0
 40
0.0
 40
0.0
 40
0.0
 40
0.2500000000000008
 40
0.2500000000000008
 40
0.3750000000000007
 40
0.3750000000000007
 40
0.5000000000000006
 40
0.5000000000000006
 40
0.6250000000000004
 40
0.6250000000000004
 40
0.7500000000000002
 40
0.7500000000000002
 40
0.8750000000000001
 40
0.8750000000000001
 40
1.0
 40
1.0
 40
1.0
 40
1.0
 10
227.5760697320916
 20
85.65039322770801
 30
0.0
 10
227.7022060612666
 20
85.16718357117428
 30
0.0
 10
227.8881483876983
 20
84.71592928566496
 30
0.0
 10
228.2765116140758
 20
84.08734404667219
 30
0.0
 10
228.4257118823479
 20
83.88446829913545
 30
0.0
 10
228.7599031698259
 20
83.50350564135239
 30
0.0
 10
228.9440951348757
 20
83.32575989776214
 30
0.0
 10
229.3490069609157
 20
82.99523585168635
 30
0.0
 10
229.570502884039
 20
82.84197466801398
 30
0.0
 10
230.0511069092007
 20
82.56309986390052
 30
0.0
 10
230.3047875830182
 20
82.44046802803568
 30
0.0
 10
230.8390836498887
 20
82.22682101778847
 30
0.0
 10
231.1196795796477
 20
82.1357900093611
 30
0.0
 10
231.7098419980893
 20
81.98582927970828
 30
0.0
 10
232.0167883388293
 20
81.92781857048257
 30
0.0
 10
232.3297356238245
 20
81.88792745888333
 30
0.0
  0
ELLIPSE
  5
E7
330
1F
100
AcDbEntity
  8
0
  6
Continuous
 62
     7
370
    15
100
AcDbEllipse
 10
304.1541029721
 20
102.0507925644
 30
0.0
 11
147.4511159362818
 21
-4.655015242949133
 31
0.0
210
0.0
220
0.0
230
1.0
 40
0.1734804855
 41
4.209100732922521
 42
4.212733729782667
  0
ELLIPSE
  5
E8
330
1F
100
AcDbEntity
  8
0
  6
Continuous
 62
     7
370
    15
100
AcDbEllipse
 10
226.9711753503
 20
114.2954250689
 30
0.0
 11
0.2401414008675147
 21
3.588339610199312
 31
0.0
210
0.0
220
0.0
230
1.0
 40
0.2051898077
 41
5.702110544173572
 42
10.63639654200845
  0
LINE
  5
E9
330
1F
100
AcDbEntity
  8
0
  6
Continuous
 62
     7
370
    15
100
AcDbLine
 10
189.5653852315
 20
77.8303617026
 30
0.0
 11
189.5653852315
 21
126.2712234261
 31
0.0
  0
LINE
  5
EA
330
1F
100
AcDbEntity
  8
0
  6
Continuous
 62
     7
370
    15
100
AcDbLine
 10
169.7653852315
 20
78.8223456706
 30
0.0
 11
169.7653852315
 21
80.1056443051
 31
0.0
  0
SPLINE
  5
EB
330
1F
100
AcDbEntity
  8
0
  6
Continuous
 62
     7
370
    15
100
AcDbSpline
210
0.0
220
0.0
230
1.0
 70
     8
 71
     3
 72
    14
 73
    10
 74
     0
 42
0.00000001
 43
0.00000001
 40
0.0
 40
0.0
 40
0.0
 40
0.0
 40
0.25
 40
0.25
 40
0.5
 40
0.5
 40
0.75
 40
0.75
 40
1.0
 40
1.0
 40
1.0
 40
1.0
 10
169.1437809947442
 20
81.18642134708975
 30
0.0
 10
169.1822173795652
 20
81.08379694937823
 30
0.0
 10
169.2510187729571
 20
80.98460052593865
 30
0.0
 10
169.394304785116
 20
80.79370849661213
 30
0.0
 10
169.4694868402229
 20
80.70145123057922
 30
0.0
 10
169.6016741288731
 20
80.52184390876423
 30
0.0
 10
169.6591913243429
 20
80.43453435431988
 30
0.0
 10
169.7412361226353
 20
80.26460052080412
 30
0.0
 10
169.765385231484
 20
80.18269817893298
 30
0.0
 10
169.765385231484
 20
80.10564430509706
 30
0.0
  0
SPLINE
  5
EC
330
1F
100
AcDbEntity
  8
0
  6
Continuous
 62
     7
370
    15
100
AcDbSpline
210
0.0
220
0.0
230
1.0
 70
     8
 71
     3
 72
    18
 73
    14
 74
     0
 42
0.00000001
 43
0.00000001
 40
0.0
 40
0.0
 40
0.0
 40
0.0
 40
0.062499999999999
 40
0.062499999999999
 40
0.1249999999999979
 40
0.1249999999999979
 40
0.2499999999999977
 40
0.2499999999999977
 40
0.4999999999999984
 40
0.4999999999999984
 40
0.7499999999999992
 40
0.7499999999999992
 40
1.0
 40
1.0
 40
1.0
 40
1.0
 10
168.365385231484
 20
81.9047037985763
 30
0.0
 10
168.4019574418344
 20
81.90848120210376
 30
0.0
 10
168.4406079152699
 20
81.90792417422061
 30
0.0
 10
168.5146994089837
 20
81.89786496905874
 30
0.0
 10
168.5500497027378
 20
81.8885110876342
 30
0.0
 10
168.6446440001272
 20
81.85412666120038
 30
0.0
 10
168.6947821732662
 20
81.82341492653757
 30
0.0
 10
168.8239754448473
 20
81.72748561649954
 30
0.0
 10
168.8822555895885
 20
81.6589701223823
 30
0.0
 10
168.982450686012
 20
81.52239817244967
 30
0.0
 10
169.0224659374586
 20
81.45363326994678
 30
0.0
 10
169.0908653582764
 20
81.3185978408391
 30
0.0
 10
169.1192270821383
 20
81.25197981478595
 30
0.0
 10
169.1437809947442
 20
81.18642134708975
 30
0.0
  0
SPLINE
  5
ED
330
1F
100
AcDbEntity
  8
0
  6
Continuous
 62
     7
370
    15
100
AcDbSpline
210
0.0
220
0.0
230
1.0
 70
     8
 71
     3
 72
    10
 73
     6
 74
     0
 42
0.00000001
 43
0.00000001
 40
0.0
 40
0.0
 40
0.0
 40
0.0
 40
0.5
 40
0.5
 40
1.0
 40
1.0
 40
1.0
 40
1.0
 10
164.4517833703621
 20
81.40851014220468
 30
0.0
 10
165.0794110260694
 20
81.5117837009403
 30
0.0
 10
165.7306117711009
 20
81.60060881269183
 30
0.0
 10
167.0393164751131
 20
81.76271651956218
 30
0.0
 10
167.7003609124043
 20
81.83601598384875
 30
0.0
 10
168.3653852314839
 20
81.90470379857643
 30
0.0
  0
SPLINE
  5
EE
330
1F
100
AcDbEntity
  8
0
  6
Continuous
 62
     7
370
    15
100
AcDbSpline
210
0.0
220
0.0
230
1.0
 70
     8
 71
     3
 72
    14
 73
    10
 74
     0
 42
0.00000001
 43
0.00000001
 40
0.0
 40
0.0
 40
0.0
 40
0.0
 40
0.4999999999999984
 40
0.4999999999999984
 40
0.7499999999999979
 40
0.7499999999999979
 40
0.8749999999999989
 40
0.8749999999999989
 40
1.0
 40
1.0
 40
1.0
 40
1.0
 10
160.815385231484
 20
81.2441610058454
 30
0.0
 10
161.4314621352393
 20
81.24988712607454
 30
0.0
 10
162.0455941313552
 20
81.25977749147658
 30
0.0
 10
162.9594907618688
 20
81.29041245914634
 30
0.0
 10
163.2629296894164
 20
81.30320591678432
 30
0.0
 10
163.7140663050539
 20
81.33113174474371
 30
0.0
 10
163.8637725545964
 20
81.34190136490348
 30
0.0
 10
164.1606136908445
 20
81.36903408050301
 30
0.0
 10
164.3079992433478
 20
81.38485105333024
 30
0.0
 10
164.4517833703621
 20
81.40851014220469
 30
0.0
  0
SPLINE
  5
EF
330
1F
100
AcDbEntity
  8
0
  6
Continuous
 62
     7
370
    15
100
AcDbSpline
210
0.0
220
0.0
230
1.0
 70
     8
 71
     3
 72
     8
 73
     4
 74
     0
 42
0.00000001
 43
0.00000001
 40
0.0000005954826279
 40
0.0000005954826279
 40
0.0000005954826279
 40
0.0000005954826279
 40
0.0000302093805348
 40
0.0000302093805348
 40
0.0000302093805348
 40
0.0000302093805348
 10
160.8053403010744
 20
81.25597613549729
 30
0.0
 10
160.8086563283946
 20
81.2520293559015
 30
0.0
 10
160.8120048797869
 20
81.24809096477156
 30
0.0
 10
160.815385231484
 20
81.2441610058454
 30
0.0
  0
SPLINE
  5
F0
330
1F
100
AcDbEntity
  8
0
  6
Continuous
 62
     7
370
    15
100
AcDbSpline
210
0.0
220
0.0
230
1.0
 70
     8
 71
     3
 72
     8
 73
     4
 74
     0
 42
0.00000001
 43
0.00000001
 40
0.0000005099763573
 40
0.0000005099763573
 40
0.0000005099763573
 40
0.0000005099763573
 40
0.0000262827998699
 40
0.0000262827998699
 40
0.0000262827998699
 40
0.0000262827998699
 10
160.815385231484
 20
122.920730329768
 30
0.0
 10
160.8120164922562
 20
122.9174086608122
 30
0.0
 10
160.8086680392771
 20
122.9140807035333
 30
0.0
 10
160.8053403010658
 20
122.9107464566606
 30
0.0
  0
SPLINE
  5
F1
330
1F
100
AcDbEntity
  8
0
  6
Continuous
 62
     7
370
    15
100
AcDbSpline
210
0.0
220
0.0
230
1.0
 70
     8
 71
     3
 72
    10
 73
     6
 74
     0
 42
0.00000001
 43
0.00000001
 40
0.0
 40
0.0
 40
0.0
 40
0.0
 40
0.5
 40
0.5
 40
1.0
 40
1.0
 40
1.0
 40
1.0
 10
164.365385231484
 20
122.8738799562007
 30
0.0
 10
163.7777996843934
 20
122.8949454764371
 30
0.0
 10
163.1870532909331
 20
122.9057039623093
 30
0.0
 10
162.0030341256342
 20
122.919068742845
 30
0.0
 10
161.4096201374287
 20
122.9212113855096
 30
0.0
 10
160.815385231484
 20
122.920730329768
 30
0.0
  0
SPLINE
  5
F2
330
1F
100
AcDbEntity
  8
0
  6
Continuous
 62
     7
370
    15
100
AcDbSpline
210
0.0
220
0.0
230
1.0
 70
     8
 71
     3
 72
    18
 73
    14
 74
     0
 42
0.00000001
 43
0.00000001
 40
0.0
 40
0.0
 40
0.0
 40
0.0
 40
0.2499999999999994
 40
0.2499999999999994
 40
0.4999999999999988
 40
0.4999999999999988
 40
0.7499999999999982
 40
0.7499999999999982
 40
0.8749999999999973
 40
0.8749999999999973
 40
0.9374999999999986
 40
0.9374999999999986
 40
1.0
 40
1.0
 40
1.0
 40
1.0
 10
165.765385231484
 20
123.894900236736
 30
0.0
 10
165.765385231484
 20
123.8116933278788
 30
0.0
 10
165.7295361315458
 20
123.7229566725652
 30
0.0
 10
165.6046643955119
 20
123.5408314820049
 30
0.0
 10
165.514263977864
 20
123.4457014333783
 30
0.0
 10
165.2920213231218
 20
123.256519924254
 30
0.0
 10
165.162256536676
 20
123.1615747561593
 30
0.0
 10
164.9216190793645
 20
123.0232960485794
 30
0.0
 10
164.8338517812271
 20
122.977585615277
 30
0.0
 10
164.6793276940202
 20
122.9197623100555
 30
0.0
 10
164.6227168079655
 20
122.9020475460177
 30
0.0
 10
164.4986727770589
 20
122.8775082427847
 30
0.0
 10
164.4309581020406
 20
122.8715291042465
 30
0.0
 10
164.365385231484
 20
122.8738799562007
 30
0.0
  0
LINE
  5
F3
330
1F
100
AcDbEntity
  8
0
  6
Continuous
 62
     7
370
    15
100
AcDbLine
 10
165.7653852315
 20
123.8949002367
 30
0.0
 11
165.7653852315
 21
125.0788386566
 31
0.0
  0
SPLINE
  5
F4
330
1F
100
AcDbEntity
  8
0
  6
Continuous
 62
     7
370
    15
100
AcDbSpline
210
0.0
220
0.0
230
1.0
 70
     8
 71
     3
 72
    24
 73
    20
 74
     0
 42
0.00000001
 43
0.00000001
 40
0.0
 40
0.0
 40
0.0
 40
0.0
 40
0.0010489762969674
 40
0.0637843125636784
 40
0.127222059044788
 40
0.1903788924483969
 40
0.2526748653693582
 40
0.3146354154422257
 40
0.3770891997149646
 40
0.4393540298503555
 40
0.5008133242537846
 40
0.5621845104596218
 40
0.6248438451115926
 40
0.6874304766625545
 40
0.7496743174679398
 40
0.8119848426976358
 40
0.8750960525413144
 40
0.9384412526964342
 40
0.9999999999999999
 40
0.9999999999999999
 40
0.9999999999999999
 40
0.9999999999999999
 10
178.3342910634598
 20
78.3932841357928
 30
0.0
 10
178.3338446033555
 20
78.3932258499739
 30
0.0
 10
178.3066970396616
 20
78.38968170803156
 30
0.0
 10
178.4023088172754
 20
78.40251545271406
 30
0.0
 10
178.6358690751686
 20
78.4317621379142
 30
0.0
 10
179.0314233824865
 20
78.47837646097703
 30
0.0
 10
179.5584636863227
 20
78.52855960263635
 30
0.0
 10
180.2019940983131
 20
78.5729360650862
 30
0.0
 10
180.9406679535522
 20
78.59988084602426
 30
0.0
 10
181.7381824589865
 20
78.60335269673125
 30
0.0
 10
182.5647613414333
 20
78.57572545270055
 30
0.0
 10
183.3902843590452
 20
78.51724656372785
 30
0.0
 10
184.1824109070489
 20
78.43180153436651
 30
0.0
 10
184.9149831810482
 20
78.33006729453024
 30
0.0
 10
185.5506234177782
 20
78.22222417255784
 30
0.0
 10
186.0725345247843
 20
78.12059401581912
 30
0.0
 10
186.4541633019001
 20
78.03810885914093
 30
0.0
 10
186.7049777721345
 20
77.98195965279126
 30
0.0
 10
186.7340993281186
 20
77.9751101941775
 30
0.0
 10
186.7484518489347
 20
77.97173444744934
 30
0.0
  0
SPLINE
  5
F5
330
1F
100
AcDbEntity
  8
0
  6
Continuous
 62
     7
370
    15
100
AcDbSpline
210
0.0
220
0.0
230
1.0
 70
     8
 71
     3
 72
    24
 73
    20
 74
     0
 42
0.00000001
 43
0.00000001
 40
0.0
 40
0.0
 40
0.0
 40
0.0
 40
0.0614384276250094
 40
0.125073675536964
 40
0.1884253490728547
 40
0.2508623904037471
 40
0.3129665632511464
 40
0.3753451453465217
 40
0.4377328972327366
 40
0.4990927322917387
 40
0.5605807588449759
 40
0.6229469893028903
 40
0.6854686282028749
 40
0.7475477813740344
 40
0.8098225060807757
 40
0.873068408599046
 40
0.9364041844530118
 40
0.9991757196257858
 40
0.9999999999999999
 40
0.9999999999999999
 40
0.9999999999999999
 40
0.9999999999999999
 10
186.7483970781318
 20
126.1298215388304
 30
0.0
 10
186.7337963538282
 20
126.1264534819778
 30
0.0
 10
186.7040728350998
 20
126.119596938504
 30
0.0
 10
186.4513350194519
 20
126.063258317978
 30
0.0
 10
186.0683391030027
 20
125.9804012358481
 30
0.0
 10
185.5459835185651
 20
125.8784942058968
 30
0.0
 10
184.911199040565
 20
125.7706550668529
 30
0.0
 10
184.1809754363914
 20
125.6691881148777
 30
0.0
 10
183.3905068511576
 20
125.5841284011869
 30
0.0
 10
182.5660233363283
 20
125.5259241073007
 30
0.0
 10
181.738986877446
 20
125.4983406684743
 30
0.0
 10
180.9406626097932
 20
125.501833645967
 30
0.0
 10
180.2008386455043
 20
125.52878956582
 30
0.0
 10
179.5565844125291
 20
125.5731435078195
 30
0.0
 10
179.0291771573153
 20
125.6233489575773
 30
0.0
 10
178.6345125551645
 20
125.6699588127754
 30
0.0
 10
178.4019832759798
 20
125.6991544053229
 30
0.0
 10
178.306603243427
 20
125.7119324742644
 30
0.0
 10
178.3335368803286
 20
125.7083782157564
 30
0.0
 10
178.333885973553
 20
125.708332148173
 30
0.0
  0
SPLINE
  5
F6
330
1F
100
AcDbEntity
  8
0
  6
Continuous
 62
     7
370
    15
100
AcDbSpline
210
0.0
220
0.0
230
1.0
 70
     8
 71
     3
 72
    18
 73
    14
 74
     0
 42
0.00000001
 43
0.00000001
 40
0.0
 40
0.0
 40
0.0
 40
0.0
 40
0.2499999999999999
 40
0.2499999999999999
 40
0.4999999999999998
 40
0.4999999999999998
 40
0.6249999999999998
 40
0.6249999999999998
 40
0.7499999999999999
 40
0.7499999999999999
 40
0.8749999999999999
 40
0.8749999999999999
 40
1.0
 40
1.0
 40
1.0
 40
1.0
 10
227.5760697320916
 20
112.9879771322045
 30
0.0
 10
227.6212718787075
 20
113.3003402102811
 30
0.0
 10
227.6657570676548
 20
113.6270307943534
 30
0.0
 10
227.7401147166012
 20
114.3093104385271
 30
0.0
 10
227.7703758095427
 20
114.6645245974865
 30
0.0
 10
227.7897679173075
 20
115.2302710330219
 30
0.0
 10
227.7916177729858
 20
115.420867408964
 30
0.0
 10
227.7830308559032
 20
115.8063672696052
 30
0.0
 10
227.7723101630032
 20
116.0032492794011
 30
0.0
 10
227.7368799268084
 20
116.3868837534505
 30
0.0
 10
227.7121984095879
 20
116.5749422146753
 30
0.0
 10
227.6498179168402
 20
116.9416741143482
 30
0.0
 10
227.6134819527096
 20
117.1122148190128
 30
0.0
 10
227.5760697320916
 20
117.2677739529291
 30
0.0
  0
SPLINE
  5
F7
330
1F
100
AcDbEntity
  8
0
  6
Continuous
 62
     7
370
    15
100
AcDbSpline
210
0.0
220
0.0
230
1.0
 70
     8
 71
     3
 72
     9
 73
     5
 74
     0
 42
0.00000001
 43
0.00000001
 40
0.0
 40
0.0
 40
0.0
 40
0.0
 40
0.5865083119587245
 40
1.0
 40
1.0
 40
1.0
 40
1.0
 10
159.671905029435
 20
82.39997412179406
 30
0.0
 10
159.6759056584132
 20
82.39417404076507
 30
0.0
 10
159.6827267535223
 20
82.38428486969839
 30
0.0
 10
159.6918786245095
 20
82.43834966193896
 30
0.0
 10
159.6956628470926
 20
82.46070500414612
 30
0.0
  0
LINE
  5
F8
330
1F
100
AcDbEntity
  8
0
  6
Continuous
 62
     7
370
    15
100
AcDbLine
 10
159.6653852315
 20
82.3976320394
 30
0.0
 11
159.6653852315
 21
121.7414703109
 31
0.0
  0
SPLINE
  5
F9
330
1F
100
AcDbEntity
  8
0
  6
Continuous
 62
     7
370
    15
100
AcDbSpline
210
0.0
220
0.0
230
1.0
 70
     8
 71
     3
 72
    10
 73
     6
 74
     0
 42
0.00000001
 43
0.00000001
 40
0.0
 40
0.0
 40
0.0
 40
0.0
 40
0.5
 40
0.5
 40
1.0
 40
1.0
 40
1.0
 40
1.0
 10
159.7280486062074
 20
121.7253451091537
 30
0.0
 10
159.7191443170987
 20
121.7710866283669
 30
0.0
 10
159.7026289369057
 20
121.7882774678359
 30
0.0
 10
159.6755209908441
 20
121.7879541909002
 30
0.0
 10
159.665385231484
 20
121.7700766486037
 30
0.0
 10
159.665385231484
 20
121.7414703108511
 30
0.0
  0
SPLINE
  5
FA
330
1F
100
AcDbEntity
  8
0
  6
Continuous
 62
     7
370
    15
100
AcDbSpline
210
0.0
220
0.0
230
1.0
 70
     8
 71
     3
 72
    26
 73
    22
 74
     0
 42
0.00000001
 43
0.00000001
 40
0.0
 40
0.0
 40
0.0
 40
0.0
 40
0.2499999999999878
 40
0.2499999999999878
 40
0.3749999999999812
 40
0.3749999999999812
 40
0.4374999999999804
 40
0.4374999999999804
 40
0.4687499999999804
 40
0.4687499999999804
 40
0.4999999999999805
 40
0.4999999999999805
 40
0.5312499999999805
 40
0.5312499999999805
 40
0.5624999999999805
 40
0.5624999999999805
 40
0.6249999999999828
 40
0.6249999999999828
 40
0.7499999999999891
 40
0.7499999999999891
 40
1.0
 40
1.0
 40
1.0
 40
1.0
 10
160.4895388775886
 20
122.4409118979708
 30
0.0
 10
160.4509383547201
 20
122.3231372016154
 30
0.0
 10
160.4046413521658
 20
122.1987475154534
 30
0.0
 10
160.3107020037319
 20
121.9935281830999
 30
0.0
 10
160.2753905368184
 20
121.9219553166535
 30
0.0
 10
160.2092105610727
 20
121.806002084053
 30
0.0
 10
160.1846721944045
 20
121.7654175492428
 30
0.0
 10
160.1412994488506
 20
121.701275867371
 30
0.0
 10
160.1257910474255
 20
121.6794094420859
 30
0.0
 10
160.0907484028384
 20
121.6338151737427
 30
0.0
 10
160.0711981121186
 20
121.6101448827753
 30
0.0
 10
160.0292708317481
 20
121.5655283234354
 30
0.0
 10
160.0066187215164
 20
121.5446483109175
 30
0.0
 10
159.9656450074298
 20
121.5137748971667
 30
0.0
 10
159.9480457075344
 20
121.5039360273343
 30
0.0
 10
159.9034187216783
 20
121.4849464116382
 30
0.0
 10
159.8828594990249
 20
121.4846220869848
 30
0.0
 10
159.8317340595283
 20
121.493845527861
 30
0.0
 10
159.8108226465397
 20
121.5150924240779
 30
0.0
 10
159.7593727389788
 20
121.5890613029087
 30
0.0
 10
159.7417074396743
 20
121.6551793962234
 30
0.0
 10
159.7280486062074
 20
121.7253451091537
 30
0.0
  0
SPLINE
  5
FB
330
1F
100
AcDbEntity
  8
0
  6
Continuous
 62
     7
370
    15
100
AcDbSpline
210
0.0
220
0.0
230
1.0
 70
     8
 71
     3
 72
    10
 73
     6
 74
     0
 42
0.00000001
 43
0.00000001
 40
0.0
 40
0.0
 40
0.0
 40
0.0
 40
0.5
 40
0.5
 40
1.0
 40
1.0
 40
1.0
 40
1.0
 10
160.8053403010658
 20
122.9107464566606
 30
0.0
 10
160.7377810461475
 20
122.8430550638508
 30
0.0
 10
160.6741443908111
 20
122.7683478990972
 30
0.0
 10
160.5639236362392
 20
122.6093817666706
 30
0.0
 10
160.5171073430166
 20
122.5250265006626
 30
0.0
 10
160.4895388775885
 20
122.4409118979708
 30
0.0
  0
SPLINE
  5
FC
330
1F
100
AcDbEntity
  8
0
  6
Continuous
 62
     7
370
    15
100
AcDbSpline
210
0.0
220
0.0
230
1.0
 70
     8
 71
     3
 72
     8
 73
     4
 74
     0
 42
0.00000001
 43
0.00000001
 40
0.0
 40
0.0
 40
0.0
 40
0.0
 40
1.0
 40
1.0
 40
1.0
 40
1.0
 10
160.6042948016832
 20
81.60687026140737
 30
0.0
 10
160.6400084600531
 20
81.48363875614756
 30
0.0
 10
160.7156764990013
 20
81.36269517920057
 30
0.0
 10
160.8053403010745
 20
81.2559761354973
 30
0.0
  0
SPLINE
  5
FD
330
1F
100
AcDbEntity
  8
0
  6
Continuous
 62
     7
370
    15
100
AcDbSpline
210
0.0
220
0.0
230
1.0
 70
     8
 71
     3
 72
    26
 73
    22
 74
     0
 42
0.00000001
 43
0.00000001
 40
0.0
 40
0.0
 40
0.0
 40
0.0
 40
0.2499999999999979
 40
0.2499999999999979
 40
0.3749999999999963
 40
0.3749999999999963
 40
0.4374999999999962
 40
0.4374999999999962
 40
0.4687499999999964
 40
0.4687499999999964
 40
0.4999999999999966
 40
0.4999999999999966
 40
0.5312499999999968
 40
0.5312499999999968
 40
0.5624999999999969
 40
0.5624999999999969
 40
0.6249999999999973
 40
0.6249999999999973
 40
0.7499999999999978
 40
0.7499999999999978
 40
1.0
 40
1.0
 40
1.0
 40
1.0
 10
159.6956628470926
 20
82.46070500414612
 30
0.0
 10
159.7063868804852
 20
82.56366604463511
 30
0.0
 10
159.7211198710797
 20
82.66266473411615
 30
0.0
 10
159.7734734303267
 20
82.78126041418129
 30
0.0
 10
159.7951787130463
 20
82.8169707141301
 30
0.0
 10
159.8540342204118
 20
82.84195014695183
 30
0.0
 10
159.8774964542589
 20
82.84633559471541
 30
0.0
 10
159.9336178309195
 20
82.82658276127128
 30
0.0
 10
159.9564051410501
 20
82.81492637046087
 30
0.0
 10
160.0116576935814
 20
82.77314602102365
 30
0.0
 10
160.0430639263222
 20
82.74287443364763
 30
0.0
 10
160.0979977469426
 20
82.68123203473363
 30
0.0
 10
160.1224215651421
 20
82.64979038242679
 30
0.0
 10
160.1658366711293
 20
82.59005554501303
 30
0.0
 10
160.1854112336976
 20
82.56089053514039
 30
0.0
 10
160.2390439176456
 20
82.47705525940731
 30
0.0
 10
160.2688212656978
 20
82.42502264143108
 30
0.0
 10
160.3503553256706
 20
82.27395696746373
 30
0.0
 10
160.3935981203446
 20
82.180765925593
 30
0.0
 10
160.5066527099994
 20
81.91637938659862
 30
0.0
 10
160.5606637074785
 20
81.75742121754878
 30
0.0
 10
160.6042948016825
 20
81.60687026140792
 30
0.0
  0
LINE
  5
FE
330
1F
100
AcDbEntity
  8
0
  6
Continuous
 62
     7
370
    15
100
AcDbLine
 10
216.9153852315
 20
132.5179880375
 30
0.0
 11
212.957318063
 21
132.5179880375
 31
0.0
  0
LINE
  5
FF
330
1F
100
AcDbEntity
  8
0
  6
Continuous
 62
     7
370
    15
100
AcDbLine
 10
212.957318063
 20
126.5094822267
 30
0.0
 11
216.9153852315
 21
126.5094822267
 31
0.0
  0
LINE
  5
100
330
1F
100
AcDbEntity
  8
0
  6
Continuous
 62
     7
370
    15
100
AcDbLine
 10
212.957318063
 20
126.5094822267
 30
0.0
 11
212.957318063
 21
132.5179880375
 31
0.0
  0
LINE
  5
101
330
1F
100
AcDbEntity
  8
0
  6
Continuous
 62
     7
370
    15
100
AcDbLine
 10
211.4753852315
 20
122.1866591958
 30
0.0
 11
211.4753852315
 21
123.100936232
 31
0.0
  0
SPLINE
  5
102
330
1F
100
AcDbEntity
  8
0
  6
Continuous
 62
     7
370
    15
100
AcDbSpline
210
0.0
220
0.0
230
1.0
 70
     8
 71
     3
 72
     8
 73
     4
 74
     0
 42
0.00000001
 43
0.00000001
 40
0.0
 40
0.0
 40
0.0
 40
0.0
 40
1.0
 40
1.0
 40
1.0
 40
1.0
 10
211.4753852314841
 20
123.1009362319563
 30
0.0
 10
211.9546633820739
 20
124.2419474618089
 30
0.0
 10
212.4502312212138
 20
125.3783318725767
 30
0.0
 10
212.9573180629731
 20
126.5094822267404
 30
0.0
  0
SPLINE
  5
103
330
1F
100
AcDbEntity
  8
0
  6
Continuous
 62
     7
370
    15
100
AcDbSpline
210
0.0
220
0.0
230
1.0
 70
     8
 71
     3
 72
    12
 73
     8
 74
     0
 42
0.00000001
 43
0.00000001
 40
0.0
 40
0.0
 40
0.0
 40
0.0
 40
0.249999999999998
 40
0.249999999999998
 40
0.499999999999996
 40
0.499999999999996
 40
1.0
 40
1.0
 40
1.0
 40
1.0
 10
216.9153852314841
 20
126.5094822267404
 30
0.0
 10
217.0065849533097
 20
126.5094822267404
 30
0.0
 10
217.0971799624457
 20
126.4812625281525
 30
0.0
 10
217.2505926888924
 20
126.3868195209044
 30
0.0
 10
217.3158015562161
 20
126.3205325441991
 30
0.0
 10
217.468586085556
 20
126.0949077209108
 30
0.0
 10
217.5153852314841
 20
125.9124814578782
 30
0.0
 10
217.5153852314841
 20
125.7317448256314
 30
0.0
  0
LINE
  5
104
330
1F
100
AcDbEntity
  8
0
  6
Continuous
 62
     7
370
    15
100
AcDbLine
 10
217.5153852315
 20
125.7317448256
 30
0.0
 11
217.5153852315
 21
121.9007925644
 31
0.0
  0
SPLINE
  5
105
330
1F
100
AcDbEntity
  8
0
  6
Continuous
 62
     7
370
    15
100
AcDbSpline
210
0.0
220
0.0
230
1.0
 70
     8
 71
     3
 72
    10
 73
     6
 74
     0
 42
0.00000001
 43
0.00000001
 40
0.0
 40
0.0
 40
0.0
 40
0.0
 40
0.5
 40
0.5
 40
1.0
 40
1.0
 40
1.0
 40
1.0
 10
217.5153852314841
 20
131.8972328881369
 30
0.0
 10
217.5153852314841
 20
132.0576381544876
 30
0.0
 10
217.4531474003772
 20
132.2166999674762
 30
0.0
 10
217.2340124766346
 20
132.4476124331066
 30
0.0
 10
217.0764237816428
 20
132.5179880375372
 30
0.0
 10
216.9153852314841
 20
132.5179880375372
 30
0.0
  0
LINE
  5
106
330
1F
100
AcDbEntity
  8
0
  6
Continuous
 62
     7
370
    15
100
AcDbLine
 10
217.5153852315
 20
125.7317448256
 30
0.0
 11
217.5153852315
 21
131.8972328881
 31
0.0
  0
SPLINE
  5
107
330
1F
100
AcDbEntity
  8
0
  6
Continuous
 62
     7
370
    15
100
AcDbSpline
210
0.0
220
0.0
230
1.0
 70
     8
 71
     3
 72
     8
 73
     4
 74
     0
 42
0.00000001
 43
0.00000001
 40
0.0
 40
0.0
 40
0.0
 40
0.0
 40
1.0
 40
1.0
 40
1.0
 40
1.0
 10
212.9573180629731
 20
132.5179880375372
 30
0.0
 10
212.4621780336088
 20
131.631308389357
 30
0.0
 10
211.9680953283298
 20
130.744045753671
 30
0.0
 10
211.4753852314841
 20
129.8560267555446
 30
0.0
  0
LINE
  5
108
330
1F
100
AcDbEntity
  8
0
  6
Continuous
 62
     7
370
    15
100
AcDbLine
 10
211.4753852315
 20
123.100936232
 30
0.0
 11
211.4753852315
 21
129.8560267555
 31
0.0
  0
SPLINE
  5
109
330
1F
100
AcDbEntity
  8
0
  6
Continuous
 62
     7
370
    15
100
AcDbSpline
210
0.0
220
0.0
230
1.0
 70
     8
 71
     3
 72
     8
 73
     4
 74
     0
 42
0.00000001
 43
0.00000001
 40
0.0
 40
0.0
 40
0.0
 40
0.0
 40
1.0
 40
1.0
 40
1.0
 40
1.0
 10
207.655385231484
 20
129.8560267555446
 30
0.0
 10
207.1626751346383
 20
130.744045753671
 30
0.0
 10
206.6685924293593
 20
131.6313083893569
 30
0.0
 10
206.173452399995
 20
132.5179880375372
 30
0.0
  0
LINE
  5
10A
330
1F
100
AcDbEntity
  8
0
  6
Continuous
 62
     7
370
    15
100
AcDbLine
 10
207.6553852315
 20
123.100936232
 30
0.0
 11
207.6553852315
 21
129.8560267555
 31
0.0
  0
SPLINE
  5
10B
330
1F
100
AcDbEntity
  8
0
  6
Continuous
 62
     7
370
    15
100
AcDbSpline
210
0.0
220
0.0
230
1.0
 70
     8
 71
     3
 72
     8
 73
     4
 74
     0
 42
0.00000001
 43
0.00000001
 40
0.0
 40
0.0
 40
0.0
 40
0.0
 40
1.0
 40
1.0
 40
1.0
 40
1.0
 10
206.173452399995
 20
126.5094822267404
 30
0.0
 10
206.6805392417543
 20
125.3783318725767
 30
0.0
 10
207.1761070808942
 20
124.2419474618089
 30
0.0
 10
207.655385231484
 20
123.1009362319563
 30
0.0
  0
LINE
  5
10C
330
1F
100
AcDbEntity
  8
0
  6
Continuous
 62
     7
370
    15
100
AcDbLine
 10
207.6553852315
 20
123.100936232
 30
0.0
 11
207.6553852315
 21
122.1866591958
 31
0.0
  0
LINE
  5
10D
330
1F
100
AcDbEntity
  8
0
  6
Continuous
 62
     7
370
    15
100
AcDbLine
 10
244.0880783323
 20
133.3928587173
 30
0.0
 11
241.1364278816
 21
132.5525830736
 31
0.0
  0
ARC
  5
10E
330
1F
100
AcDbEntity
  8
0
  6
Continuous
 62
     7
370
    15
100
AcDbCircle
 10
241.7899176272
 20
130.5710316249
 30
0.0
 40
2.086527016700789
100
AcDbArc
 50
108.2518795175
 51
286.4336157405
  0
LINE
  5
10F
330
1F
100
AcDbEntity
  8
0
  6
Continuous
 62
     7
370
    15
100
AcDbLine
 10
242.3802049731
 20
128.5697430798
 30
0.0
 11
256.443391282
 21
132.5732499739
 31
0.0
  0
LINE
  5
110
330
1F
100
AcDbEntity
  8
0
  6
Continuous
 62
     7
370
    15
100
AcDbLine
 10
256.443391282
 20
132.5732499739
 30
0.0
 11
239.6760648299
 21
79.9074809514
 31
0.0
  0
ELLIPSE
  5
111
330
1F
100
AcDbEntity
  8
0
  6
Continuous
 62
     7
370
    15
100
AcDbEllipse
 10
304.1541029721
 20
102.0507925644
 30
0.0
 11
153.1223127030619
 21
-4.834054290754864
 31
0.0
210
0.0
220
0.0
230
0.9999999999999999
 40
0.1734804855
 41
4.24072753194409
 42
4.283227626201622
  0
SPLINE
  5
112
330
1F
100
AcDbEntity
  8
0
  6
Continuous
 62
     7
370
    15
100
AcDbSpline
210
0.0
220
0.0
230
1.0
 70
     8
 71
     3
 72
     8
 73
     4
 74
     0
 42
0.00000001
 43
0.00000001
 40
0.0
 40
0.0
 40
0.0
 40
0.0
 40
1.0
 40
1.0
 40
1.0
 40
1.0
 10
233.8333344239152
 20
80.583865478579
 30
0.0
 10
233.8101839411707
 20
80.68243662863958
 30
0.0
 10
233.7870668321185
 20
80.78101512770597
 30
0.0
 10
233.7639840697942
 20
80.87960119004404
 30
0.0
  0
SPLINE
  5
113
330
1F
100
AcDbEntity
  8
0
  6
Continuous
 62
     7
370
    15
100
AcDbSpline
210
0.0
220
0.0
230
1.0
 70
     8
 71
     3
 72
    10
 73
     6
 74
     0
 42
0.00000001
 43
0.00000001
 40
0.0
 40
0.0
 40
0.0
 40
0.0
 40
0.5
 40
0.5
 40
1.0
 40
1.0
 40
1.0
 40
1.0
 10
232.7980582435051
 20
81.8284242725086
 30
0.0
 10
233.0361674420036
 20
81.79826924957423
 30
0.0
 10
233.2551556149909
 20
81.67540774933185
 30
0.0
 10
233.5924492464705
 20
81.33047671062282
 30
0.0
 10
233.7092539943627
 20
81.11335235692998
 30
0.0
 10
233.7639840697942
 20
80.87960119004404
 30
0.0
  0
SPLINE
  5
114
330
1F
100
AcDbEntity
  8
0
  6
Continuous
 62
     7
370
    15
100
AcDbSpline
210
0.0
220
0.0
230
1.0
 70
     8
 71
     3
 72
    12
 73
     8
 74
     0
 42
0.00000001
 43
0.00000001
 40
0.0
 40
0.0
 40
0.0
 40
0.0
 40
0.2499999999999972
 40
0.2499999999999972
 40
0.4999999999999944
 40
0.4999999999999944
 40
1.0
 40
1.0
 40
1.0
 40
1.0
 10
233.7639840697942
 20
127.5325141722236
 30
0.0
 10
233.7365300405279
 20
127.4169397295658
 30
0.0
 10
233.6940554486902
 20
127.3086316083859
 30
0.0
 10
233.580376878157
 20
127.1059134447285
 30
0.0
 10
233.507939211328
 20
127.0110155920776
 30
0.0
 10
233.2573754947054
 20
126.7697607416232
 30
0.0
 10
233.0372276599248
 20
126.6584852864811
 30
0.0
 10
232.7980582435051
 20
126.6428421828739
 30
0.0
  0
SPLINE
  5
115
330
1F
100
AcDbEntity
  8
0
  6
Continuous
 62
     7
370
    15
100
AcDbSpline
210
0.0
220
0.0
230
1.0
 70
     8
 71
     3
 72
     8
 73
     4
 74
     0
 42
0.00000001
 43
0.00000001
 40
0.0
 40
0.0
 40
0.0
 40
0.0
 40
1.0
 40
1.0
 40
1.0
 40
1.0
 10
233.7639840697942
 20
127.5325141722236
 30
0.0
 10
234.5762223276248
 20
130.9518295318627
 30
0.0
 10
235.4283082693096
 20
134.3599301085163
 30
0.0
 10
236.2956143308366
 20
137.7637471152223
 30
0.0
  0
SPLINE
  5
116
330
1F
100
AcDbEntity
  8
0
  6
Continuous
 62
     7
370
    15
100
AcDbSpline
210
0.0
220
0.0
230
1.0
 70
     8
 71
     3
 72
     8
 73
     4
 74
     0
 42
0.00000001
 43
0.00000001
 40
0.0
 40
0.0
 40
0.0
 40
0.0
 40
1.0
 40
1.0
 40
1.0
 40
1.0
 10
246.6581836627306
 20
141.4654977324925
 30
0.0
 10
243.1915973934781
 20
140.2644477775789
 30
0.0
 10
239.7360311342757
 20
139.0341803825537
 30
0.0
 10
236.2956143308366
 20
137.7637471152223
 30
0.0
  0
LINE
  5
117
330
1F
100
AcDbEntity
  8
0
  6
Continuous
 62
     7
370
    15
100
AcDbLine
 10
246.6581836627
 20
141.4654977325
 30
0.0
 11
244.0880783323
 21
133.3928587173
 31
0.0
  0
LWPOLYLINE
  5
118
330
1F
100
AcDbEntity
  8
0
  6
Continuous
 62
     7
370
    15
100
AcDbPolyline
 90
       31
 70
   128
 43
0.0
 10
242.8217792927
 20
123.8933725925
 10
242.9189977403
 20
123.1764010853
 10
243.1625395955
 20
122.4907646734
 10
243.5417609105
 20
121.866428958
 10
244.0400878942
 20
121.3306804058
 10
244.6357412661
 20
120.9069337993
 10
245.3026881155
 20
120.6137088986
 10
246.0117796649
 20
120.4638210389
 10
246.732025211
 20
120.4638210389
 10
247.4319465671
 20
120.6137088986
 10
248.0809538115
 20
120.9069337993
 10
248.6506822134
 20
121.3306804058
 10
249.1162319076
 20
121.866428958
 10
249.4572561386
 20
122.4907646734
 10
249.6588505111
 20
123.1764010853
 10
249.7122043836
 20
123.8933725925
 10
249.614985936
 20
124.6103440997
 10
249.3714440808
 20
125.2959805116
 10
248.9922227658
 20
125.9203162269
 10
248.4938957821
 20
126.4560647791
 10
247.8982424102
 20
126.8798113856
 10
247.2312955608
 20
127.1730362863
 10
246.5222040114
 20
127.322924146
 10
245.8019584653
 20
127.322924146
 10
245.1020371092
 20
127.1730362863
 10
244.4530298648
 20
126.8798113856
 10
243.8833014629
 20
126.4560647791
 10
243.4177517687
 20
125.9203162269
 10
243.0767275377
 20
125.2959805116
 10
242.8751331652
 20
124.6103440997
 10
242.8217792927
 20
123.8933725925
  0
LINE
  5
119
330
1F
100
AcDbEntity
  8
0
  6
Continuous
 62
     7
370
    15
100
AcDbLine
 10
233.8333344239
 20
80.5838654786
 30
0.0
 11
233.8333344239
 21
75.0507925644
 31
0.0
  0
LINE
  5
11A
330
1F
100
AcDbEntity
  8
0
  6
Continuous
 62
     7
370
    15
100
AcDbLine
 10
236.2956143308
 20
137.7637471152
 30
0.0
 11
236.2956143308
 21
138.2401462795
 31
0.0
  0
ELLIPSE
  5
11B
330
1F
100
AcDbEntity
  8
0
  6
Continuous
 62
     7
370
    15
100
AcDbEllipse
 10
245.5120258998
 20
102.0507925644
 30
0.0
 11
9.450908103285601
 21
26.98165523934496
 31
0.0
210
0.0
220
0.0
230
0.9999999999999998
 40
0.1052944749
 41
3.178457610732061
 42
3.787628594888124
  0
LINE
  5
11C
330
1F
100
AcDbEntity
  8
0
  6
Continuous
 62
     7
370
    15
100
AcDbLine
 10
160.8153852315
 20
81.2382925644
 30
0.0
 11
160.8153852315
 21
81.2441610058
 31
0.0
  0
LINE
  5
11D
330
1F
100
AcDbEntity
  8
0
  6
Continuous
 62
     7
370
    15
100
AcDbLine
 10
242.4870421342
 20
131.8161458566
 30
0.0
 11
244.0880783323
 21
133.3928587173
 31
0.0
  0
LINE
  5
11E
330
1F
100
AcDbEntity
  8
0
  6
Continuous
 62
     7
370
    15
100
AcDbLine
 10
242.4870421342
 20
131.8161458566
 30
0.0
 11
239.7309246545
 21
131.0315345254
 31
0.0
  0
ELLIPSE
  5
11F
330
1F
100
AcDbEntity
  8
0
  6
Continuous
 62
     7
370
    15
100
AcDbEllipse
 10
234.1700230179
 20
106.0406859876
 30
0.0
 11
12.4331709733919
 21
35.44870232600216
 31
0.0
210
0.0
220
0.0
230
0.9999999999999999
 40
0.1046716309
 41
6.26797709975565
 42
6.362834732662765
  0
LINE
  5
120
330
1F
100
AcDbEntity
  8
0
  6
HIDDEN
 62
     7
370
     0
100
AcDbLine
 10
196.5153852315
 20
70.5507925644
 30
0.0
 11
196.5153852315
 21
70.5666695815
 31
0.0
  0
SPLINE
  5
121
330
1F
100
AcDbEntity
  8
0
  6
HIDDEN
 62
     7
370
     0
100
AcDbSpline
210
0.0
220
0.0
230
1.0
 70
     8
 71
     3
 72
    30
 73
    26
 74
     0
 42
0.00000001
 43
0.00000001
 40
0.0
 40
0.0
 40
0.0
 40
0.0
 40
0.1250000000000006
 40
0.1250000000000006
 40
0.1875000000000009
 40
0.1875000000000009
 40
0.2500000000000011
 40
0.2500000000000011
 40
0.3750000000000012
 40
0.3750000000000012
 40
0.4375000000000013
 40
0.4375000000000013
 40
0.5000000000000013
 40
0.5000000000000013
 40
0.6250000000000012
 40
0.6250000000000012
 40
0.687500000000001
 40
0.687500000000001
 40
0.7500000000000008
 40
0.7500000000000008
 40
0.8125000000000006
 40
0.8125000000000006
 40
0.8750000000000002
 40
0.8750000000000002
 40
1.0
 40
1.0
 40
1.0
 40
1.0
 10
196.515385231484
 20
70.56666958151062
 30
0.0
 10
196.515385231484
 20
70.58354849951922
 30
0.0
 10
196.5678027974625
 20
70.61356606434396
 30
0.0
 10
196.7211822773648
 20
70.67637645361705
 30
0.0
 10
196.7848633980325
 20
70.70028036084395
 30
0.0
 10
196.9378182654842
 20
70.75371565328633
 30
0.0
 10
197.0273905642534
 20
70.7833225214539
 30
0.0
 10
197.3286145971066
 20
70.87777222016835
 30
0.0
 10
197.5739295931908
 20
70.94879961399755
 30
0.0
 10
198.008026574261
 20
71.06281390070332
 30
0.0
 10
198.1646962633646
 20
71.1022691518439
 30
0.0
 10
198.496689427207
 20
71.18179059461455
 30
0.0
 10
198.6713949561995
 20
71.22172673711533
 30
0.0
 10
199.2210646387911
 20
71.34066313994347
 30
0.0
 10
199.6213156015023
 20
71.41882790382735
 30
0.0
 10
200.2749024681398
 20
71.52853734409622
 30
0.0
 10
200.5005785878169
 20
71.56361818080464
 30
0.0
 10
200.9602904089482
 20
71.62885846018426
 30
0.0
 10
201.1953437429913
 20
71.65919327622899
 30
0.0
 10
201.6758510252903
 20
71.71453165545084
 30
0.0
 10
201.9213045532044
 20
71.73953633201093
 30
0.0
 10
202.4229199780118
 20
71.78341614090161
 30
0.0
 10
202.6804123606123
 20
71.80235982566391
 30
0.0
 10
203.4584888770485
 20
71.8480795529341
 30
0.0
 10
203.9836511542933
 20
71.86387486812582
 30
0.0
 10
204.5153852314841
 20
71.86387486812582
 30
0.0
  0
LINE
  5
122
330
1F
100
AcDbEntity
  8
0
  6
HIDDEN
 62
     7
370
     0
100
AcDbLine
 10
204.5153852315
 20
71.8638748681
 30
0.0
 11
206.1734524
 21
71.8638748681
 31
0.0
  0
LINE
  5
123
330
1F
100
AcDbEntity
  8
0
  6
HIDDEN
 62
     7
370
     0
100
AcDbLine
 10
206.1734524
 20
132.5179880375
 30
0.0
 11
206.1734524
 21
71.8638748681
 31
0.0
  0
LINE
  5
124
330
1F
100
AcDbEntity
  8
0
  6
HIDDEN
 62
     7
370
     0
100
AcDbLine
 10
204.5153852315
 20
132.5179880375
 30
0.0
 11
206.1734524
 21
132.5179880375
 31
0.0
  0
SPLINE
  5
125
330
1F
100
AcDbEntity
  8
0
  6
HIDDEN
 62
     7
370
     0
100
AcDbSpline
210
0.0
220
0.0
230
1.0
 70
     8
 71
     3
 72
    24
 73
    20
 74
     0
 42
0.00000001
 43
0.00000001
 40
0.0
 40
0.0
 40
0.0
 40
0.0
 40
0.0096786162622862
 40
0.0638613323189425
 40
0.115150403015303
 40
0.2187148509030261
 40
0.2715874349533393
 40
0.3233795936019053
 40
0.4279241425850034
 40
0.4812568627002705
 40
0.5874627085512106
 40
0.6419372573024095
 40
0.6968115758955639
 40
0.7499885891377981
 40
0.8035487865246632
 40
0.8583375239802314
 40
0.9135596099910859
 40
0.9566727567823218
 40
1.0
 40
1.0
 40
1.0
 40
1.0
 10
196.5195894288571
 20
133.5497258125733
 30
0.0
 10
196.5182658448885
 20
133.5500616489215
 30
0.0
 10
196.5095325886689
 20
133.5522775603762
 30
0.0
 10
196.5485178559344
 20
133.5423703070211
 30
0.0
 10
196.6673883666203
 20
133.5124112061073
 30
0.0
 10
196.8974049765132
 20
133.4553447056995
 30
0.0
 10
197.2258912103591
 20
133.3775112838962
 30
0.0
 10
197.6211685434658
 20
133.2871259934614
 30
0.0
 10
198.1114428342911
 20
133.1816700047009
 30
0.0
 10
198.8334537548216
 20
133.0408160116062
 30
0.0
 10
199.5010357277543
 20
132.9242904704125
 30
0.0
 10
200.2412081159493
 20
132.8145505820345
 30
0.0
 10
200.8311425459855
 20
132.7379931126376
 30
0.0
 10
201.4447957330319
 20
132.6702571053308
 30
0.0
 10
202.0807857947907
 20
132.612830171651
 30
0.0
 10
202.7435344268274
 20
132.5669303644823
 30
0.0
 10
203.3770733321673
 20
132.5373218930052
 30
0.0
 10
203.9697408339046
 20
132.5208215802249
 30
0.0
 10
204.3332036894734
 20
132.5189341100681
 30
0.0
 10
204.5153852314841
 20
132.5179880375372
 30
0.0
  0
SPLINE
  5
126
330
1F
100
AcDbEntity
  8
0
  6
HIDDEN
 62
     7
370
     0
100
AcDbSpline
210
0.0
220
0.0
230
1.0
 70
     8
 71
     3
 72
    76
 73
    72
 74
     0
 42
0.00000001
 43
0.00000001
 40
-0.0312500000000001
 40
-0.0312500000000001
 40
0.0
 40
0.0
 40
0.0312499999999999
 40
0.0312499999999999
 40
0.0468749999999999
 40
0.0468749999999999
 40
0.0624999999999999
 40
0.0624999999999999
 40
0.0937499999999998
 40
0.0937499999999998
 40
0.1249999999999997
 40
0.1249999999999997
 40
0.1562499999999996
 40
0.1562499999999996
 40
0.1874999999999995
 40
0.1874999999999995
 40
0.2187499999999994
 40
0.2187499999999994
 40
0.2499999999999993
 40
0.2499999999999993
 40
0.2812499999999992
 40
0.2812499999999992
 40
0.3124999999999991
 40
0.3124999999999991
 40
0.3281249999999991
 40
0.3281249999999991
 40
0.3437499999999991
 40
0.3437499999999991
 40
0.3749999999999992
 40
0.3749999999999992
 40
0.4062499999999992
 40
0.4062499999999992
 40
0.4374999999999992
 40
0.4374999999999992
 40
0.4687499999999992
 40
0.4687499999999992
 40
0.4999999999999992
 40
0.4999999999999992
 40
0.5312499999999992
 40
0.5312499999999992
 40
0.5624999999999993
 40
0.5624999999999993
 40
0.5937499999999993
 40
0.5937499999999993
 40
0.6249999999999994
 40
0.6249999999999994
 40
0.6562499999999994
 40
0.6562499999999994
 40
0.6874999999999996
 40
0.6874999999999996
 40
0.7031249999999996
 40
0.7031249999999996
 40
0.7187499999999994
 40
0.7187499999999994
 40
0.7499999999999996
 40
0.7499999999999996
 40
0.7812499999999996
 40
0.7812499999999996
 40
0.8124999999999997
 40
0.8124999999999997
 40
0.8437499999999997
 40
0.8437499999999997
 40
0.8749999999999998
 40
0.8749999999999998
 40
0.9062499999999998
 40
0.9062499999999998
 40
0.9374999999999999
 40
0.9374999999999999
 40
0.9687499999999999
 40
0.9687499999999999
 40
1.0
 40
1.0
 40
1.03125
 40
1.03125
 10
193.5653852314841
 20
102.381676560167
 30
0.0
 10
193.5653852314841
 20
101.7199085685789
 30
0.0
 10
193.5979057092685
 20
101.394657400483
 30
0.0
 10
193.6933989535505
 20
100.9148606795939
 30
0.0
 10
193.7330737889616
 20
100.7562849958003
 30
0.0
 10
193.8284604022973
 20
100.4419026100072
 30
0.0
 10
193.8844046437079
 20
100.2857829864231
 30
0.0
 10
194.0727676671576
 20
99.83184242652113
 30
0.0
 10
194.226379943576
 20
99.5448621805141
 30
0.0
 10
194.5892077373601
 20
99.00174902377482
 30
0.0
 10
194.8000428389426
 20
98.74500973223086
 30
0.0
 10
195.26054240896
 20
98.2846250979999
 30
0.0
 10
195.5119053498778
 20
98.07784828124606
 30
0.0
 10
196.0582520442313
 20
97.71232407358265
 30
0.0
 10
196.3484666839492
 20
97.55732451486783
 30
0.0
 10
196.9498535002509
 20
97.30779349377362
 30
0.0
 10
197.2654831933413
 20
97.2115152200849
 30
0.0
 10
197.9111235946209
 20
97.08286621284194
 30
0.0
 10
198.2358793504342
 20
97.05097995372537
 30
0.0
 10
198.8891793808256
 20
97.05060680621463
 30
0.0
 10
199.2210517216563
 20
97.08318629246065
 30
0.0
 10
199.8627029552599
 20
97.21096019716701
 30
0.0
 10
200.174627872193
 20
97.30549264146414
 30
0.0
 10
200.6291174727099
 20
97.49361223600286
 30
0.0
 10
200.7789807805439
 20
97.56449521722362
 30
0.0
 10
201.0680660144666
 20
97.71911182355805
 30
0.0
 10
201.2079269287746
 20
97.80303442229594
 30
0.0
 10
201.6138033724788
 20
98.07422994577165
 30
0.0
 10
201.8668415189684
 20
98.28132995121288
 30
0.0
 10
202.3327410751318
 20
98.74693240427015
 30
0.0
 10
202.5392471496276
 20
98.99885125665742
 30
0.0
 10
202.9013527130273
 20
99.53975487265832
 30
0.0
 10
203.0582118268425
 20
99.83229771540974
 30
0.0
 10
203.3091619437051
 20
100.4371653721673
 30
0.0
 10
203.4039730430361
 20
100.7488122036139
 30
0.0
 10
203.5323949058292
 20
101.3905655088355
 30
0.0
 10
203.5652581923204
 20
101.7222933277148
 30
0.0
 10
203.5655115184289
 20
102.3754130929757
 30
0.0
 10
203.5339555178596
 20
102.7003462993188
 30
0.0
 10
203.4057142964353
 20
103.3468733057719
 30
0.0
 10
203.3099082477769
 20
103.6618812596328
 30
0.0
 10
203.0607747366827
 20
104.2638399277784
 30
0.0
 10
202.905314614988
 20
104.555316098054
 30
0.0
 10
202.5408603606282
 20
105.1009110345506
 30
0.0
 10
202.3344274531925
 20
105.3523881495558
 30
0.0
 10
201.8739583706746
 20
105.8137111736106
 30
0.0
 10
201.6171613626187
 20
106.0248344745569
 30
0.0
 10
201.0751161487842
 20
106.3875652562729
 30
0.0
 10
200.7883465688487
 20
106.5414541596585
 30
0.0
 10
200.334039392963
 20
106.7304038863505
 30
0.0
 10
200.1778990921895
 20
106.7864766823703
 30
0.0
 10
199.8640531308434
 20
106.881979447903
 30
0.0
 10
199.7056663431497
 20
106.9217600909305
 30
0.0
 10
199.2261901032063
 20
107.0176426280558
 30
0.0
 10
198.8999501587794
 20
107.0505180760553
 30
0.0
 10
198.2390755615014
 20
107.0510636452264
 30
0.0
 10
197.9139392141565
 20
107.018897126613
 30
0.0
 10
197.2738567136701
 20
106.8921145886257
 30
0.0
 10
196.9555357896023
 20
106.7958468348344
 30
0.0
 10
196.3506195107631
 20
106.5454525134093
 30
0.0
 10
196.0634705971116
 20
106.3921383516877
 30
0.0
 10
195.5195190434386
 20
106.0294304276679
 30
0.0
 10
195.262873093712
 20
105.8189913549341
 30
0.0
 10
194.8022825402991
 20
105.3591103666577
 30
0.0
 10
194.5951336543083
 20
105.1078285669649
 30
0.0
 10
194.2286024108949
 20
104.5609083932249
 30
0.0
 10
194.0739182233904
 20
104.2717682416087
 30
0.0
 10
193.8238185700522
 20
103.6705315676894
 30
0.0
 10
193.7271317955591
 20
103.3545558740486
 30
0.0
 10
193.5979102206028
 20
102.708582115952
 30
0.0
 10
193.5653852314841
 20
102.381676560167
 30
0.0
 10
193.5653852314841
 20
101.7199085685789
 30
0.0
  0
LINE
  5
127
330
1F
100
AcDbEntity
  8
0
  6
HIDDEN
 62
     7
370
     0
100
AcDbLine
 10
191.5653852315
 20
133.2507925632
 30
0.0
 11
191.5653852315
 21
70.8507925644
 31
0.0
  0
SPLINE
  5
128
330
1F
100
AcDbEntity
  8
0
  6
HIDDEN
 62
     7
370
     0
100
AcDbSpline
210
0.0
220
0.0
230
1.0
 70
     8
 71
     3
 72
    10
 73
     6
 74
     0
 42
0.00000001
 43
0.00000001
 40
0.0
 40
0.0
 40
0.0
 40
0.0
 40
0.5
 40
0.5
 40
1.0
 40
1.0
 40
1.0
 40
1.0
 10
207.7530600338164
 20
75.65079256437299
 30
0.0
 10
207.7209048461944
 20
75.58850651885687
 30
0.0
 10
207.6962486150001
 20
75.52197609398769
 30
0.0
 10
207.6634358580746
 20
75.38511746362524
 30
0.0
 10
207.655385231484
 20
75.31605986844693
 30
0.0
 10
207.655385231484
 20
75.24639693604362
 30
0.0
  0
SPLINE
  5
129
330
1F
100
AcDbEntity
  8
0
  6
HIDDEN
 62
     7
370
     0
100
AcDbSpline
210
0.0
220
0.0
230
1.0
 70
    24
 71
     3
 72
    10
 73
     6
 74
     0
 42
0.00000001
 43
0.00000001
 40
0.0
 40
0.0
 40
0.0
 40
0.0
 40
0.5
 40
0.5
 40
1.0
 40
1.0
 40
1.0
 40
1.0
 10
207.655385231484
 20
121.900792564373
 30
0.0
 10
207.655385231484
 20
121.900792564373
 30
0.0
 10
207.6576070899687
 20
121.900792564373
 30
0.0
 10
207.6663437616924
 20
121.900792564373
 30
0.0
 10
207.6728552754867
 20
121.900792564373
 30
0.0
 10
207.6815328546442
 20
121.900792564373
 30
0.0
  0
LINE
  5
12A
330
1F
100
AcDbEntity
  8
0
  6
HIDDEN
 62
     7
370
     0
100
AcDbLine
 10
207.6553852315
 20
122.1866591958
 30
0.0
 11
207.6553852315
 21
129.1704464154
 31
0.0
  0
LINE
  5
12B
330
1F
100
AcDbEntity
  8
0
  6
HIDDEN
 62
     7
370
     0
100
AcDbLine
 10
207.6553852315
 20
75.246396936
 30
0.0
 11
207.6553852315
 21
121.9007925644
 31
0.0
  0
SPLINE
  5
12C
330
1F
100
AcDbEntity
  8
0
  6
HIDDEN
 62
     7
370
     0
100
AcDbSpline
210
0.0
220
0.0
230
1.0
 70
     8
 71
     3
 72
    10
 73
     6
 74
     0
 42
0.00000001
 43
0.00000001
 40
0.0
 40
0.0
 40
0.0
 40
0.0
 40
0.5
 40
0.5
 40
1.0
 40
1.0
 40
1.0
 40
1.0
 10
211.475385231484
 20
75.24639693604362
 30
0.0
 10
211.475385231484
 20
75.31663329641438
 30
0.0
 10
211.4671026193936
 20
75.38662739791188
 30
0.0
 10
211.434002676335
 20
75.5235866624708
 30
0.0
 10
211.4096652843765
 20
75.58889457172607
 30
0.0
 10
211.3777104291518
 20
75.65079256437298
 30
0.0
  0
LINE
  5
12D
330
1F
100
AcDbEntity
  8
0
  6
HIDDEN
 62
     7
370
     0
100
AcDbLine
 10
211.4753852315
 20
122.1866591958
 30
0.0
 11
211.4753852315
 21
129.1704464154
 31
0.0
  0
SPLINE
  5
12E
330
1F
100
AcDbEntity
  8
0
  6
HIDDEN
 62
     7
370
     0
100
AcDbSpline
210
0.0
220
0.0
230
1.0
 70
    24
 71
     3
 72
    10
 73
     6
 74
     0
 42
0.00000001
 43
0.00000001
 40
0.0
 40
0.0
 40
0.0
 40
0.0
 40
0.5
 40
0.5
 40
1.0
 40
1.0
 40
1.0
 40
1.0
 10
211.449237608324
 20
121.900792564373
 30
0.0
 10
211.4579153832316
 20
121.900792564373
 30
0.0
 10
211.4644684072385
 20
121.900792564373
 30
0.0
 10
211.4732030167355
 20
121.900792564373
 30
0.0
 10
211.475385231484
 20
121.900792564373
 30
0.0
 10
211.475385231484
 20
121.900792564373
 30
0.0
  0
LINE
  5
12F
330
1F
100
AcDbEntity
  8
0
  6
HIDDEN
 62
     7
370
     0
100
AcDbLine
 10
211.4753852315
 20
75.246396936
 30
0.0
 11
211.4753852315
 21
121.9007925644
 31
0.0
  0
SPLINE
  5
130
330
1F
100
AcDbEntity
  8
0
  6
HIDDEN
 62
     7
370
     0
100
AcDbSpline
210
0.0
220
0.0
230
1.0
 70
    24
 71
     3
 72
    18
 73
    14
 74
     0
 42
0.00000001
 43
0.00000001
 40
0.0
 40
0.0
 40
0.0
 40
0.0
 40
0.5000000000000001
 40
0.5000000000000001
 40
0.7500000000000002
 40
0.7500000000000002
 40
0.8750000000000001
 40
0.8750000000000001
 40
0.9375
 40
0.9375
 40
0.96875
 40
0.96875
 40
1.0
 40
1.0
 40
1.0
 40
1.0
 10
217.5153852314841
 20
128.450792564373
 30
0.0
 10
217.5153852314841
 20
128.450792564373
 30
0.0
 10
217.5712343755299
 20
128.450792564373
 30
0.0
 10
217.6469517712162
 20
128.450792564373
 30
0.0
 10
217.6711411211012
 20
128.450792564373
 30
0.0
 10
217.6968848848994
 20
128.450792564373
 30
0.0
 10
217.7037305306416
 20
128.450792564373
 30
0.0
 10
217.7106703475471
 20
128.450792564373
 30
0.0
 10
217.7124327891146
 20
128.450792564373
 30
0.0
 10
217.7142009620142
 20
128.450792564373
 30
0.0
 10
217.7146447574133
 20
128.450792564373
 30
0.0
 10
217.7152369287274
 20
128.450792564373
 30
0.0
 10
217.7153852980728
 20
128.450792564373
 30
0.0
 10
217.71538523146
 20
128.450792564373
 30
0.0
  0
SPLINE
  5
131
330
1F
100
AcDbEntity
  8
0
  6
HIDDEN
 62
     7
370
     0
100
AcDbSpline
210
0.0
220
0.0
230
1.0
 70
    24
 71
     3
 72
    10
 73
     6
 74
     0
 42
0.00000001
 43
0.00000001
 40
0.0
 40
0.0
 40
0.0
 40
0.0
 40
0.0694008066672222
 40
0.5346696089674812
 40
1.0
 40
1.0
 40
1.0
 40
1.0
 10
217.6709163087208
 20
128.450792564373
 30
0.0
 10
217.668780726867
 20
128.450792564373
 30
0.0
 10
217.6523280259615
 20
128.4507925643729
 30
0.0
 10
217.5519908873995
 20
128.450792564373
 30
0.0
 10
217.5275876551392
 20
128.450792564373
 30
0.0
 10
217.5153852314841
 20
128.450792564373
 30
0.0
  0
LINE
  5
132
330
1F
100
AcDbEntity
  8
0
  6
HIDDEN
 62
     7
370
     0
100
AcDbLine
 10
217.5153852315
 20
128.4507925644
 30
0.0
 11
217.5153852315
 21
75.6507925644
 31
0.0
  0
SPLINE
  5
133
330
1F
100
AcDbEntity
  8
0
  6
HIDDEN
 62
     7
370
     0
100
AcDbSpline
210
0.0
220
0.0
230
1.0
 70
    24
 71
     3
 72
    18
 73
    14
 74
     0
 42
0.00000001
 43
0.00000001
 40
0.0
 40
0.0
 40
0.0
 40
0.0
 40
0.5000000000000001
 40
0.5000000000000001
 40
0.7499999999999999
 40
0.7499999999999999
 40
0.875
 40
0.875
 40
0.9375
 40
0.9375
 40
0.96875
 40
0.96875
 40
1.0
 40
1.0
 40
1.0
 40
1.0
 10
217.5153852314841
 20
75.65079256437296
 30
0.0
 10
217.5153852314841
 20
75.65079256437296
 30
0.0
 10
217.5712343997702
 20
75.65079256437296
 30
0.0
 10
217.6469518099121
 20
75.65079256437296
 30
0.0
 10
217.6711411610235
 20
75.65079256437296
 30
0.0
 10
217.6968849167703
 20
75.65079256437296
 30
0.0
 10
217.703730558221
 20
75.65079256437296
 30
0.0
 10
217.7106703663599
 20
75.65079256437295
 30
0.0
 10
217.7124328046231
 20
75.65079256437295
 30
0.0
 10
217.71420097206
 20
75.65079256437295
 30
0.0
 10
217.7146447655543
 20
75.65079256437295
 30
0.0
 10
217.7152369329066
 20
75.65079256437295
 30
0.0
 10
217.7153853000501
 20
75.65079256437296
 30
0.0
 10
217.7153852314585
 20
75.65079256437296
 30
0.0
  0
LINE
  5
134
330
1F
100
AcDbEntity
  8
0
  6
HIDDEN
 62
     7
370
     0
100
AcDbLine
 10
217.5153852315
 20
75.6507925644
 30
0.0
 11
217.5153852315
 21
128.4507925644
 31
0.0
  0
SPLINE
  5
135
330
1F
100
AcDbEntity
  8
0
  6
HIDDEN
 62
     7
370
     0
100
AcDbSpline
210
0.0
220
0.0
230
1.0
 70
     8
 71
     3
 72
    70
 73
    66
 74
     0
 42
0.00000001
 43
0.00000001
 40
-0.0312500000000006
 40
-0.0312500000000006
 40
0.0
 40
0.0
 40
0.03125
 40
0.03125
 40
0.0624999999999999
 40
0.0624999999999999
 40
0.0937499999999999
 40
0.0937499999999999
 40
0.1249999999999999
 40
0.1249999999999999
 40
0.1562499999999998
 40
0.1562499999999998
 40
0.1874999999999998
 40
0.1874999999999998
 40
0.2187499999999998
 40
0.2187499999999998
 40
0.2499999999999997
 40
0.2499999999999997
 40
0.2812499999999997
 40
0.2812499999999997
 40
0.3124999999999997
 40
0.3124999999999997
 40
0.3437499999999996
 40
0.3437499999999996
 40
0.3749999999999996
 40
0.3749999999999996
 40
0.4062499999999996
 40
0.4062499999999996
 40
0.4374999999999995
 40
0.4374999999999995
 40
0.4687499999999995
 40
0.4687499999999995
 40
0.4999999999999994
 40
0.4999999999999994
 40
0.5312499999999994
 40
0.5312499999999994
 40
0.5624999999999993
 40
0.5624999999999993
 40
0.5937499999999993
 40
0.5937499999999993
 40
0.6249999999999993
 40
0.6249999999999993
 40
0.6562499999999992
 40
0.6562499999999992
 40
0.6874999999999992
 40
0.6874999999999992
 40
0.7187499999999992
 40
0.7187499999999992
 40
0.7499999999999991
 40
0.7499999999999991
 40
0.7812499999999991
 40
0.7812499999999991
 40
0.8124999999999991
 40
0.8124999999999991
 40
0.8437499999999991
 40
0.8437499999999991
 40
0.874999999999999
 40
0.874999999999999
 40
0.906249999999999
 40
0.906249999999999
 40
0.937499999999999
 40
0.937499999999999
 40
0.9687499999999994
 40
0.9687499999999994
 40
1.0
 40
1.0
 40
1.03125
 40
1.03125
 10
221.7637566227181
 20
90.39858511959535
 30
0.0
 10
221.3670138402501
 20
90.39858511959537
 30
0.0
 10
221.1719906726807
 20
90.41611062627798
 30
0.0
 10
220.7883566402347
 20
90.4848381856605
 30
0.0
 10
220.5977452992068
 20
90.5368866330705
 30
0.0
 10
220.2345237862396
 20
90.6729151956246
 30
0.0
 10
220.0622786014033
 20
90.75624316515172
 30
0.0
 10
219.7362979796227
 20
90.95363411368585
 30
0.0
 10
219.5820831436841
 20
91.06867018160447
 30
0.0
 10
219.3056075842607
 20
91.32078430434147
 30
0.0
 10
219.1814840913474
 20
91.45875366400722
 30
0.0
 10
218.9621672728946
 20
91.75964105260493
 30
0.0
 10
218.8690695867871
 20
91.92020107789634
 30
0.0
 10
218.7193972989989
 20
92.25388240402141
 30
0.0
 10
218.6617183389644
 20
92.42947560068562
 30
0.0
 10
218.5845900406184
 20
92.79045021690777
 30
0.0
 10
218.565493716124
 20
92.9727005257839
 30
0.0
 10
218.5652776597979
 20
93.34072689663317
 30
0.0
 10
218.5847869066537
 20
93.52844149786482
 30
0.0
 10
218.6613815654167
 20
93.89307469583584
 30
0.0
 10
218.7180522332845
 20
94.07104905615866
 30
0.0
 10
218.8683864282368
 20
94.41803136318448
 30
0.0
 10
218.9622481005312
 20
94.58622771156213
 30
0.0
 10
219.1792851761035
 20
94.89867776136978
 30
0.0
 10
219.303277264301
 20
95.04495806355965
 30
0.0
 10
219.5831381843153
 20
95.31599279550576
 30
0.0
 10
219.7344846134198
 20
95.43638831066369
 30
0.0
 10
220.0591637962283
 20
95.6477357739378
 30
0.0
 10
220.2345742223305
 20
95.7394293591973
 30
0.0
 10
220.5977831391383
 20
95.88649148816434
 30
0.0
 10
220.784771539123
 20
95.94207816339129
 30
0.0
 10
221.1694643239545
 20
96.01736255167187
 30
0.0
 10
221.368410796633
 20
96.03666923445874
 30
0.0
 10
221.7601262113964
 20
96.03681204702366
 30
0.0
 10
221.9548982331108
 20
96.01827152892191
 30
0.0
 10
222.3422199648904
 20
95.94315379710605
 30
0.0
 10
222.5315742417525
 20
95.8868809763406
 30
0.0
 10
222.8927126940726
 20
95.7410200398251
 30
0.0
 10
223.0672665830353
 20
95.65031207110479
 30
0.0
 10
223.3952339972384
 20
95.43731779431302
 30
0.0
 10
223.5462590049418
 20
95.3169593318902
 30
0.0
 10
223.8230811735295
 20
95.04958684891989
 30
0.0
 10
223.9498320602371
 20
94.90081235355326
 30
0.0
 10
224.1677377878887
 20
94.58759988518365
 30
0.0
 10
224.2600322337444
 20
94.42258685991082
 30
0.0
 10
224.4109850682611
 20
94.07589860282731
 30
0.0
 10
224.4689102841309
 20
93.89461389655344
 30
0.0
 10
224.5455465698549
 20
93.53125226519579
 30
0.0
 10
224.5652005603709
 20
93.34725245959812
 30
0.0
 10
224.5655673375994
 20
92.97449870364153
 30
0.0
 10
224.5462581580759
 20
92.79189107236792
 30
0.0
 10
224.4703005743802
 20
92.43426012903498
 30
0.0
 10
224.4127221781734
 20
92.25732158215459
 30
0.0
 10
224.2623975364615
 20
91.92132838116717
 30
0.0
 10
224.1703883863265
 20
91.76263744899798
 30
0.0
 10
223.9529760471074
 20
91.46328200240725
 30
0.0
 10
223.8265079720348
 20
91.32218526654387
 30
0.0
 10
223.5502159361361
 20
91.06989151859729
 30
0.0
 10
223.3994075438464
 20
90.95698383028736
 30
0.0
 10
223.0717414000323
 20
90.75785837700593
 30
0.0
 10
222.897450390003
 20
90.67353549243681
 30
0.0
 10
222.5366772137938
 20
90.53808711344143
 30
0.0
 10
222.3477669841032
 20
90.48599894316166
 30
0.0
 10
221.9598972915902
 20
90.41611241735033
 30
0.0
 10
221.7637566227181
 20
90.39858511959535
 30
0.0
 10
221.3670138402501
 20
90.39858511959537
 30
0.0
  0
LINE
  5
136
330
1F
100
AcDbEntity
  8
0
  6
HIDDEN
 62
     7
370
     0
100
AcDbLine
 10
191.5653852315
 20
76.7268686432
 30
0.0
 11
191.5653852315
 21
127.3747164855
 31
0.0
  0
LINE
  5
137
330
1F
100
AcDbEntity
  8
0
  6
HIDDEN
 62
     7
370
     0
100
AcDbLine
 10
196.5153852315
 20
121.9007925644
 30
0.0
 11
203.7610055772
 21
121.9007925644
 31
0.0
  0
LWPOLYLINE
  5
138
330
1F
100
AcDbEntity
  8
0
  6
HIDDEN
 62
     7
370
     0
100
AcDbPolyline
 90
        2
 70
   128
 43
0.0
 10
211.4753852315
 20
121.9007925644
 10
211.4753852315
 20
121.9007925644
  0
LWPOLYLINE
  5
139
330
1F
100
AcDbEntity
  8
0
  6
HIDDEN
 62
     7
370
     0
100
AcDbPolyline
 90
        2
 70
   128
 43
0.0
 10
217.5153852315
 20
121.9007925644
 10
217.5153852315
 20
121.9007925644
  0
LWPOLYLINE
  5
13A
330
1F
100
AcDbEntity
  8
0
  6
HIDDEN
 62
     7
370
     0
100
AcDbPolyline
 90
        2
 70
   128
 43
0.0
 10
207.6553852315
 20
121.9007925644
 10
207.6553852315
 20
121.9007925644
  0
LINE
  5
13B
330
1F
100
AcDbEntity
  8
0
  6
HIDDEN
 62
     7
370
     0
100
AcDbLine
 10
189.5653852315
 20
126.2712234261
 30
0.0
 11
189.5653852315
 21
77.8303617026
 31
0.0
  0
SPLINE
  5
13C
330
1F
100
AcDbEntity
  8
0
  6
HIDDEN
 62
     7
370
     0
100
AcDbSpline
210
0.0
220
0.0
230
1.0
 70
     8
 71
     3
 72
    14
 73
    10
 74
     0
 42
0.00000001
 43
0.00000001
 40
0.0
 40
0.0
 40
0.0
 40
0.0
 40
0.5000000000000013
 40
0.5000000000000013
 40
0.7500000000000007
 40
0.7500000000000007
 40
0.8750000000000003
 40
0.8750000000000003
 40
1.0
 40
1.0
 40
1.0
 40
1.0
 10
160.815385231484
 20
81.24416100584538
 30
0.0
 10
161.4314621352394
 20
81.24988712607453
 30
0.0
 10
162.0455941313552
 20
81.25977749147656
 30
0.0
 10
162.9594907618688
 20
81.29041245914631
 30
0.0
 10
163.2629296894164
 20
81.3032059167843
 30
0.0
 10
163.7140663050539
 20
81.33113174474367
 30
0.0
 10
163.8637725545964
 20
81.34190136490344
 30
0.0
 10
164.1606136908445
 20
81.36903408050296
 30
0.0
 10
164.3079992433478
 20
81.38485105333018
 30
0.0
 10
164.4517833703621
 20
81.40851014220462
 30
0.0
  0
SPLINE
  5
13D
330
1F
100
AcDbEntity
  8
0
  6
HIDDEN
 62
     7
370
     0
100
AcDbSpline
210
0.0
220
0.0
230
1.0
 70
     8
 71
     3
 72
    10
 73
     6
 74
     0
 42
0.00000001
 43
0.00000001
 40
0.0
 40
0.0
 40
0.0
 40
0.0
 40
0.5
 40
0.5
 40
1.0
 40
1.0
 40
1.0
 40
1.0
 10
164.4517833703621
 20
81.40851014220466
 30
0.0
 10
165.0794110260694
 20
81.51178370094028
 30
0.0
 10
165.7306117711008
 20
81.6006088126918
 30
0.0
 10
167.039316475113
 20
81.76271651956215
 30
0.0
 10
167.7003609124042
 20
81.83601598384872
 30
0.0
 10
168.3653852314838
 20
81.9047037985764
 30
0.0
  0
SPLINE
  5
13E
330
1F
100
AcDbEntity
  8
0
  6
HIDDEN
 62
     7
370
     0
100
AcDbSpline
210
0.0
220
0.0
230
1.0
 70
     8
 71
     3
 72
    18
 73
    14
 74
     0
 42
0.00000001
 43
0.00000001
 40
0.0
 40
0.0
 40
0.0
 40
0.0
 40
0.0624999999999997
 40
0.0624999999999997
 40
0.1249999999999994
 40
0.1249999999999994
 40
0.2500000000000005
 40
0.2500000000000005
 40
0.5000000000000003
 40
0.5000000000000003
 40
0.7500000000000001
 40
0.7500000000000001
 40
1.0
 40
1.0
 40
1.0
 40
1.0
 10
168.365385231484
 20
81.90470379857628
 30
0.0
 10
168.4019574418344
 20
81.90848120210374
 30
0.0
 10
168.4406079152698
 20
81.90792417422061
 30
0.0
 10
168.5146994089836
 20
81.89786496905876
 30
0.0
 10
168.5500497027377
 20
81.8885110876342
 30
0.0
 10
168.6446440001272
 20
81.8541266612004
 30
0.0
 10
168.6947821732661
 20
81.82341492653758
 30
0.0
 10
168.8239754448473
 20
81.72748561649956
 30
0.0
 10
168.8822555895885
 20
81.65897012238231
 30
0.0
 10
168.982450686012
 20
81.5223981724497
 30
0.0
 10
169.0224659374586
 20
81.45363326994679
 30
0.0
 10
169.0908653582763
 20
81.31859784083913
 30
0.0
 10
169.1192270821383
 20
81.25197981478597
 30
0.0
 10
169.1437809947442
 20
81.18642134708975
 30
0.0
  0
SPLINE
  5
13F
330
1F
100
AcDbEntity
  8
0
  6
HIDDEN
 62
     7
370
     0
100
AcDbSpline
210
0.0
220
0.0
230
1.0
 70
     8
 71
     3
 72
    14
 73
    10
 74
     0
 42
0.00000001
 43
0.00000001
 40
0.0
 40
0.0
 40
0.0
 40
0.0
 40
0.25
 40
0.25
 40
0.5
 40
0.5
 40
0.75
 40
0.75
 40
1.0
 40
1.0
 40
1.0
 40
1.0
 10
169.1437809947442
 20
81.18642134708975
 30
0.0
 10
169.1822173795652
 20
81.08379694937823
 30
0.0
 10
169.2510187729571
 20
80.98460052593866
 30
0.0
 10
169.394304785116
 20
80.79370849661213
 30
0.0
 10
169.4694868402229
 20
80.70145123057922
 30
0.0
 10
169.6016741288731
 20
80.52184390876423
 30
0.0
 10
169.6591913243429
 20
80.43453435431988
 30
0.0
 10
169.7412361226353
 20
80.26460052080414
 30
0.0
 10
169.765385231484
 20
80.18269817893297
 30
0.0
 10
169.765385231484
 20
80.10564430509706
 30
0.0
  0
LINE
  5
140
330
1F
100
AcDbEntity
  8
0
  6
HIDDEN
 62
     7
370
     0
100
AcDbLine
 10
169.7653852315
 20
80.1056443051
 30
0.0
 11
169.7653852315
 21
78.8223456706
 31
0.0
  0
LINE
  5
141
330
1F
100
AcDbEntity
  8
0
  6
HIDDEN
 62
     7
370
     0
100
AcDbLine
 10
165.7653852315
 20
125.0788386566
 30
0.0
 11
165.7653852315
 21
123.8949002367
 31
0.0
  0
SPLINE
  5
142
330
1F
100
AcDbEntity
  8
0
  6
HIDDEN
 62
     7
370
     0
100
AcDbSpline
210
0.0
220
0.0
230
1.0
 70
     8
 71
     3
 72
    18
 73
    14
 74
     0
 42
0.00000001
 43
0.00000001
 40
0.0
 40
0.0
 40
0.0
 40
0.0
 40
0.2499999999999987
 40
0.2499999999999987
 40
0.4999999999999982
 40
0.4999999999999982
 40
0.7499999999999977
 40
0.7499999999999977
 40
0.8749999999999976
 40
0.8749999999999976
 40
0.9374999999999988
 40
0.9374999999999988
 40
1.0
 40
1.0
 40
1.0
 40
1.0
 10
165.765385231484
 20
123.894900236736
 30
0.0
 10
165.765385231484
 20
123.8116933278788
 30
0.0
 10
165.7295361315458
 20
123.7229566725652
 30
0.0
 10
165.6046643955119
 20
123.540831482005
 30
0.0
 10
165.514263977864
 20
123.4457014333783
 30
0.0
 10
165.2920213231218
 20
123.256519924254
 30
0.0
 10
165.162256536676
 20
123.1615747561593
 30
0.0
 10
164.9216190793645
 20
123.0232960485794
 30
0.0
 10
164.8338517812271
 20
122.977585615277
 30
0.0
 10
164.6793276940202
 20
122.9197623100555
 30
0.0
 10
164.6227168079655
 20
122.9020475460177
 30
0.0
 10
164.4986727770589
 20
122.8775082427847
 30
0.0
 10
164.4309581020406
 20
122.8715291042464
 30
0.0
 10
164.365385231484
 20
122.8738799562007
 30
0.0
  0
SPLINE
  5
143
330
1F
100
AcDbEntity
  8
0
  6
HIDDEN
 62
     7
370
     0
100
AcDbSpline
210
0.0
220
0.0
230
1.0
 70
     8
 71
     3
 72
    10
 73
     6
 74
     0
 42
0.00000001
 43
0.00000001
 40
0.0
 40
0.0
 40
0.0
 40
0.0
 40
0.5
 40
0.5
 40
1.0
 40
1.0
 40
1.0
 40
1.0
 10
164.365385231484
 20
122.8738799562007
 30
0.0
 10
163.7777996843935
 20
122.8949454764371
 30
0.0
 10
163.1870532909331
 20
122.9057039623093
 30
0.0
 10
162.0030341256342
 20
122.919068742845
 30
0.0
 10
161.4096201374287
 20
122.9212113855096
 30
0.0
 10
160.815385231484
 20
122.920730329768
 30
0.0
  0
SPLINE
  5
144
330
1F
100
AcDbEntity
  8
0
  6
HIDDEN
 62
     7
370
     0
100
AcDbSpline
210
0.0
220
0.0
230
1.0
 70
     8
 71
     3
 72
     8
 73
     4
 74
     0
 42
0.00000001
 43
0.00000001
 40
0.0000005099763571
 40
0.0000005099763571
 40
0.0000005099763571
 40
0.0000005099763571
 40
0.0000262827998697
 40
0.0000262827998697
 40
0.0000262827998697
 40
0.0000262827998697
 10
160.815385231484
 20
122.920730329768
 30
0.0
 10
160.8120164922563
 20
122.9174086608121
 30
0.0
 10
160.8086680392771
 20
122.9140807035333
 30
0.0
 10
160.8053403010658
 20
122.9107464566606
 30
0.0
  0
SPLINE
  5
145
330
1F
100
AcDbEntity
  8
0
  6
HIDDEN
 62
     7
370
     0
100
AcDbSpline
210
0.0
220
0.0
230
1.0
 70
     8
 71
     3
 72
     8
 73
     4
 74
     0
 42
0.00000001
 43
0.00000001
 40
0.0000005954826279
 40
0.0000005954826279
 40
0.0000005954826279
 40
0.0000005954826279
 40
0.0000302093805348
 40
0.0000302093805348
 40
0.0000302093805348
 40
0.0000302093805348
 10
160.8053403010744
 20
81.2559761354973
 30
0.0
 10
160.8086563283946
 20
81.25202935590151
 30
0.0
 10
160.8120048797869
 20
81.24809096477156
 30
0.0
 10
160.815385231484
 20
81.2441610058454
 30
0.0
  0
SPLINE
  5
146
330
1F
100
AcDbEntity
  8
0
  6
HIDDEN
 62
     7
370
     0
100
AcDbSpline
210
0.0
220
0.0
230
1.0
 70
     8
 71
     3
 72
    12
 73
     8
 74
     0
 42
0.00000001
 43
0.00000001
 40
0.0
 40
0.0
 40
0.0
 40
0.0
 40
0.1192152782080975
 40
0.2486291495149582
 40
0.5007186954388796
 40
0.7537054055439838
 40
1.0
 40
1.0
 40
1.0
 40
1.0
 10
179.5605354360556
 20
78.52619294155119
 30
0.0
 10
179.4783927379866
 20
78.51845699005189
 30
0.0
 10
179.3070802227894
 20
78.50232329417942
 30
0.0
 10
178.9407262590565
 20
78.46934859839071
 30
0.0
 10
178.6359632367994
 20
78.43117109636255
 30
0.0
 10
178.3775847783159
 20
78.39929513922554
 30
0.0
 10
178.3485927703108
 20
78.39526981914804
 30
0.0
 10
178.3342910634598
 20
78.3932841357928
 30
0.0
  0
SPLINE
  5
147
330
1F
100
AcDbEntity
  8
0
  6
HIDDEN
 62
     7
370
     0
100
AcDbSpline
210
0.0
220
0.0
230
1.0
 70
     8
 71
     3
 72
    20
 73
    16
 74
     0
 42
0.00000001
 43
0.00000001
 40
0.0
 40
0.0
 40
0.0
 40
0.0
 40
0.001437141784343
 40
0.0850458908086345
 40
0.1697599742259444
 40
0.2540983643787715
 40
0.3373295355548653
 40
0.4202346307100782
 40
0.5035601638150928
 40
0.5868465105665925
 40
0.6687600060933069
 40
0.7507345792016871
 40
0.8338925024192405
 40
0.9172623649586594
 40
1.0
 40
1.0
 40
1.0
 40
1.0
 10
186.7484518489347
 20
77.97173444744934
 30
0.0
 10
186.7489048187121
 20
77.97163062162065
 30
0.0
 10
186.7757102589621
 20
77.965486509616
 30
0.0
 10
186.6796817475095
 20
77.98758333172071
 30
0.0
 10
186.446636210342
 20
78.03946296164118
 30
0.0
 10
186.0528511444983
 20
78.12452009972016
 30
0.0
 10
185.5283927661229
 20
78.22627534891892
 30
0.0
 10
184.8894294558963
 20
78.33417155317072
 30
0.0
 10
184.1562642025056
 20
78.43521746862038
 30
0.0
 10
183.3637009895892
 20
78.51962662406144
 30
0.0
 10
182.5389521958166
 20
78.57703024535392
 30
0.0
 10
181.7122349378023
 20
78.60378831768902
 30
0.0
 10
180.9179275775386
 20
78.59935305636871
 30
0.0
 10
180.1744981389936
 20
78.5720375746769
 30
0.0
 10
179.7646697163183
 20
78.54143566092523
 30
0.0
 10
179.5605354360556
 20
78.52619294155119
 30
0.0
  0
SPLINE
  5
148
330
1F
100
AcDbEntity
  8
0
  6
HIDDEN
 62
     7
370
     0
100
AcDbSpline
210
0.0
220
0.0
230
1.0
 70
     8
 71
     3
 72
    20
 73
    16
 74
     0
 42
0.00000001
 43
0.00000001
 40
0.0
 40
0.0
 40
0.0
 40
0.0
 40
0.0828182133813295
 40
0.16619368811573
 40
0.2493852825370402
 40
0.3315155124772279
 40
0.4133807586231846
 40
0.4968356081148763
 40
0.5800413781711405
 40
0.6629790154186296
 40
0.7460493132171999
 40
0.83028479578047
 40
0.9148461952092957
 40
0.998403848756672
 40
1.0
 40
1.0
 40
1.0
 40
1.0
 10
179.5604427157738
 20
125.5753755943547
 30
0.0
 10
179.7650944724734
 20
125.5601855571878
 30
0.0
 10
180.1757750321792
 20
125.5297032732032
 30
0.0
 10
180.9195003238827
 20
125.5023927979941
 30
0.0
 10
181.7144598085611
 20
125.4979799210059
 30
0.0
 10
182.5415884471239
 20
125.5246482134881
 30
0.0
 10
183.3673301826233
 20
125.582112215714
 30
0.0
 10
184.1596071795581
 20
125.6666997417457
 30
0.0
 10
184.8924306374219
 20
125.7678733388327
 30
0.0
 10
185.5303401294889
 20
125.875658899347
 30
0.0
 10
186.0541950914441
 20
125.9772662715207
 30
0.0
 10
186.4473395766826
 20
126.0621563008946
 30
0.0
 10
186.6800021668339
 20
126.1139915621334
 30
0.0
 10
186.7760724076618
 20
126.136093879018
 30
0.0
 10
186.7489062888987
 20
126.129936946423
 30
0.0
 10
186.7483970781318
 20
126.1298215388304
 30
0.0
  0
SPLINE
  5
149
330
1F
100
AcDbEntity
  8
0
  6
HIDDEN
 62
     7
370
     0
100
AcDbSpline
210
0.0
220
0.0
230
1.0
 70
     8
 71
     3
 72
    12
 73
     8
 74
     0
 42
0.00000001
 43
0.00000001
 40
0.0
 40
0.0
 40
0.0
 40
0.0
 40
0.2468412763863419
 40
0.4995707343914285
 40
0.7516700890846408
 40
0.8176861511893376
 40
1.0
 40
1.0
 40
1.0
 40
1.0
 10
178.333885973553
 20
125.708332148173
 30
0.0
 10
178.3479995905672
 20
125.7063136674655
 30
0.0
 10
178.3765634925205
 20
125.7022285569678
 30
0.0
 10
178.6373530017457
 20
125.6702304788243
 30
0.0
 10
178.9042414158639
 20
125.6359636817231
 30
0.0
 10
179.2629188861097
 20
125.6032717713018
 30
0.0
 10
179.4344854407085
 20
125.5871854935381
 30
0.0
 10
179.5604427157738
 20
125.5753755943547
 30
0.0
  0
SPLINE
  5
14A
330
1F
100
AcDbEntity
  8
0
  6
HIDDEN
 62
     7
370
     0
100
AcDbSpline
210
0.0
220
0.0
230
1.0
 70
     8
 71
     3
 72
    78
 73
    74
 74
     0
 42
0.00000001
 43
0.00000001
 40
0.0
 40
0.0
 40
0.0
 40
0.0
 40
0.0156249999999999
 40
0.0156249999999999
 40
0.0312499999999999
 40
0.0312499999999999
 40
0.0468749999999998
 40
0.0468749999999998
 40
0.0624999999999998
 40
0.0624999999999998
 40
0.0937499999999997
 40
0.0937499999999997
 40
0.1249999999999997
 40
0.1249999999999997
 40
0.1562499999999997
 40
0.1562499999999997
 40
0.1874999999999997
 40
0.1874999999999997
 40
0.2187499999999997
 40
0.2187499999999997
 40
0.2499999999999997
 40
0.2499999999999997
 40
0.2812499999999997
 40
0.2812499999999997
 40
0.3124999999999996
 40
0.3124999999999996
 40
0.3437499999999996
 40
0.3437499999999996
 40
0.3749999999999996
 40
0.3749999999999996
 40
0.4062499999999996
 40
0.4062499999999996
 40
0.4374999999999996
 40
0.4374999999999996
 40
0.4531249999999998
 40
0.4531249999999998
 40
0.46875
 40
0.46875
 40
0.4843750000000002
 40
0.4843750000000002
 40
0.5000000000000004
 40
0.5000000000000004
 40
0.5312500000000011
 40
0.5312500000000011
 40
0.5625000000000018
 40
0.5625000000000018
 40
0.5937500000000024
 40
0.5937500000000024
 40
0.625000000000003
 40
0.625000000000003
 40
0.687500000000004
 40
0.687500000000004
 40
0.7187500000000042
 40
0.7187500000000042
 40
0.7500000000000044
 40
0.7500000000000044
 40
0.7812500000000038
 40
0.7812500000000038
 40
0.8125000000000031
 40
0.8125000000000031
 40
0.8437500000000024
 40
0.8437500000000024
 40
0.8750000000000017
 40
0.8750000000000017
 40
0.906250000000001
 40
0.906250000000001
 40
0.9375000000000003
 40
0.9375000000000003
 40
0.9531250000000003
 40
0.9531250000000003
 40
0.9687500000000002
 40
0.9687500000000002
 40
1.0
 40
1.0
 40
1.0
 40
1.0
 10
219.225730606928
 20
110.4030277096846
 30
0.0
 10
219.2424269581605
 20
110.4154672218364
 30
0.0
 10
219.2583985504236
 20
110.4216295313062
 30
0.0
 10
219.2833049727431
 20
110.4129778543305
 30
0.0
 10
219.2920047440896
 20
110.3972724062477
 30
0.0
 10
219.2940741715736
 20
110.3351757815478
 30
0.0
 10
219.2871846177505
 20
110.2876904648016
 30
0.0
 10
219.2626299813127
 20
110.1717513605213
 30
0.0
 10
219.2453133403571
 20
110.1028519075686
 30
0.0
 10
219.1914640373137
 20
109.8842632110257
 30
0.0
 10
219.1529327399961
 20
109.7191424503875
 30
0.0
 10
219.0953554926932
 20
109.3780044661412
 30
0.0
 10
219.0753740781903
 20
109.2014638966089
 30
0.0
 10
219.0611558055071
 20
108.8389575825722
 30
0.0
 10
219.0670381580814
 20
108.650855790958
 30
0.0
 10
219.1117424799061
 20
108.2769012879489
 30
0.0
 10
219.150062602895
 20
108.0909334441738
 30
0.0
 10
219.2670775275841
 20
107.7221998395601
 30
0.0
 10
219.3450159755262
 20
107.543184180575
 30
0.0
 10
219.5419264630378
 20
107.2094502745324
 30
0.0
 10
219.6625312272512
 20
107.0534275431428
 30
0.0
 10
219.9344281011093
 20
106.787713969522
 30
0.0
 10
220.0903215482017
 20
106.6738058736532
 30
0.0
 10
220.4173932725937
 20
106.501236264277
 30
0.0
 10
220.592203916413
 20
106.4401114766585
 30
0.0
 10
220.9432085095096
 20
106.3690220650884
 30
0.0
 10
221.1216249209802
 20
106.3581844892214
 30
0.0
 10
221.4716205360446
 20
106.3789047256107
 30
0.0
 10
221.6419693704748
 20
106.4098460957242
 30
0.0
 10
221.9762663061935
 20
106.5063940869323
 30
0.0
 10
222.1407031585577
 20
106.5726509749074
 30
0.0
 10
222.4558744180421
 20
106.7327768708393
 30
0.0
 10
222.6078005076352
 20
106.826829667983
 30
0.0
 10
222.833717321365
 20
106.9897855606296
 30
0.0
 10
222.9085448639448
 20
107.0477124329656
 30
0.0
 10
223.0565846122755
 20
107.1690552085132
 30
0.0
 10
223.1310669668615
 20
107.2335635832432
 30
0.0
 10
223.2753700665025
 20
107.3631796755755
 30
0.0
 10
223.3468438242075
 20
107.4296596797964
 30
0.0
 10
223.4761982692559
 20
107.5530661329573
 30
0.0
 10
223.5354096933259
 20
107.6112909155229
 30
0.0
 10
223.6917318385987
 20
107.7724144457521
 30
0.0
 10
223.7716744406252
 20
107.8662490683902
 30
0.0
 10
223.9016536650758
 20
108.0529395532404
 30
0.0
 10
223.951495593466
 20
108.1452486744513
 30
0.0
 10
224.0259537272051
 20
108.3390195949513
 30
0.0
 10
224.0502608119109
 20
108.4408569928148
 30
0.0
 10
224.0701609656306
 20
108.6527260664399
 30
0.0
 10
224.0661349796476
 20
108.7631964489188
 30
0.0
 10
224.0050429748471
 20
109.1146411277758
 30
0.0
 10
223.8945634622758
 20
109.3821572051389
 30
0.0
 10
223.5971879275482
 20
109.7919734130576
 30
0.0
 10
223.4795522645765
 20
109.9262952552225
 30
0.0
 10
223.2028648614582
 20
110.1906146960327
 30
0.0
 10
223.0524318097258
 20
110.3123048296045
 30
0.0
 10
222.7313299886274
 20
110.5363636988986
 30
0.0
 10
222.5677591293333
 20
110.6338117129173
 30
0.0
 10
222.2385991037436
 20
110.8048384637668
 30
0.0
 10
222.0786888825475
 20
110.8755127297157
 30
0.0
 10
221.7677714727583
 20
110.9951921709602
 30
0.0
 10
221.6155417158849
 20
111.0443406834471
 30
0.0
 10
221.32936674989
 20
111.1234629026658
 30
0.0
 10
221.1941809682523
 20
111.1538875461788
 30
0.0
 10
220.9400103510622
 20
111.2031869487601
 30
0.0
 10
220.820156244816
 20
111.2218002760636
 30
0.0
 10
220.607349152306
 20
111.257772582473
 30
0.0
 10
220.5121670966538
 20
111.2741724302585
 30
0.0
 10
220.4198676517801
 20
111.3234945507082
 30
0.0
 10
220.3976448802544
 20
111.344965982027
 30
0.0
 10
220.3837281877078
 20
111.4048324148703
 30
0.0
 10
220.3927234941955
 20
111.4431081075421
 30
0.0
 10
220.46323176886
 20
111.5743231225907
 30
0.0
 10
220.5605646540901
 20
111.6764243725743
 30
0.0
 10
220.6737044586158
 20
111.7699572680047
 30
0.0
  0
SPLINE
  5
14B
330
1F
100
AcDbEntity
  8
0
  6
HIDDEN
 62
     7
370
     0
100
AcDbSpline
210
0.0
220
0.0
230
1.0
 70
     8
 71
     3
 72
    10
 73
     6
 74
     0
 42
0.00000001
 43
0.00000001
 40
0.0
 40
0.0
 40
0.0
 40
0.0
 40
0.5
 40
0.5
 40
1.0
 40
1.0
 40
1.0
 40
1.0
 10
220.6737044586157
 20
111.7699572680046
 30
0.0
 10
220.4594860971129
 20
111.5618552273288
 30
0.0
 10
220.2340956743282
 20
111.3438182940355
 30
0.0
 10
219.7325582762664
 20
110.8777503104755
 30
0.0
 10
219.4757947786934
 20
110.6451024997755
 30
0.0
 10
219.2257306069279
 20
110.4030277096847
 30
0.0
  0
LWPOLYLINE
  5
14C
330
1F
100
AcDbEntity
  8
0
  6
HIDDEN
 62
     7
370
     0
100
AcDbPolyline
 90
       26
 70
   128
 43
0.0
 10
221.0003480572
 20
105.1991234528
 10
221.1013557666
 20
105.4029256436
 10
221.0880144226
 20
105.7079876687
 10
220.9611623109
 20
106.0951413594
 10
220.7287700162
 20
106.5400604251
 10
220.405439601
 20
107.0147889649
 10
220.0114871045
 20
107.4894980386
 10
219.5716660109
 20
107.9343599292
 10
219.113611897
 20
108.321422328
 10
218.6661059874
 20
108.6263646811
 10
218.2572667243
 20
108.8300263389
 10
217.9127829821
 20
108.9196104904
 10
217.6542999412
 20
108.8894882339
 10
217.4980590419
 20
108.7415522616
 10
217.4538774743
 20
108.4850979346
 10
217.5245313289
 20
108.1362392216
 10
217.7055811642
 20
107.7168961984
 10
217.9856509531
 20
107.2534177294
 10
218.3471428807
 20
106.7749258715
 10
218.7673430799
 20
106.3114860278
 10
219.2198488266
 20
105.8922178281
 10
219.6762275207
 20
105.5434654353
 10
220.1078032102
 20
105.2871422449
 10
220.4874584075
 20
105.1393539857
 10
220.7913379803
 20
105.1093867375
 10
221.0003480572
 20
105.1991234528
  0
LINE
  5
14D
330
1F
100
AcDbEntity
  8
0
  6
HIDDEN
 62
     7
370
     0
100
AcDbLine
 10
159.6653852315
 20
82.3976320394
 30
0.0
 11
159.6719050294
 21
82.3999741218
 31
0.0
  0
SPLINE
  5
14E
330
1F
100
AcDbEntity
  8
0
  6
HIDDEN
 62
     7
370
     0
100
AcDbSpline
210
0.0
220
0.0
230
1.0
 70
     8
 71
     3
 72
    64
 73
    60
 74
     0
 42
0.00000001
 43
0.00000001
 40
-0.0312500000000002
 40
-0.0312500000000002
 40
0.0
 40
0.0
 40
0.0312500000000003
 40
0.0312500000000003
 40
0.0625000000000007
 40
0.0625000000000007
 40
0.1250000000000007
 40
0.1250000000000007
 40
0.1562500000000007
 40
0.1562500000000007
 40
0.1875000000000008
 40
0.1875000000000008
 40
0.2187500000000008
 40
0.2187500000000008
 40
0.2500000000000008
 40
0.2500000000000008
 40
0.2812500000000008
 40
0.2812500000000008
 40
0.3125000000000009
 40
0.3125000000000009
 40
0.3750000000000008
 40
0.3750000000000008
 40
0.4062500000000007
 40
0.4062500000000007
 40
0.4375000000000007
 40
0.4375000000000007
 40
0.4687500000000006
 40
0.4687500000000006
 40
0.5000000000000006
 40
0.5000000000000006
 40
0.5312500000000004
 40
0.5312500000000004
 40
0.5625000000000003
 40
0.5625000000000003
 40
0.5937500000000002
 40
0.5937500000000002
 40
0.6250000000000001
 40
0.6250000000000001
 40
0.65625
 40
0.65625
 40
0.6874999999999999
 40
0.6874999999999999
 40
0.7187499999999998
 40
0.7187499999999998
 40
0.7499999999999997
 40
0.7499999999999997
 40
0.7812499999999997
 40
0.7812499999999997
 40
0.8124999999999997
 40
0.8124999999999997
 40
0.8749999999999991
 40
0.8749999999999991
 40
0.9062499999999993
 40
0.9062499999999993
 40
0.9374999999999996
 40
0.9374999999999996
 40
0.9687499999999998
 40
0.9687499999999998
 40
1.0
 40
1.0
 40
1.03125
 40
1.03125
 10
221.7350449207863
 20
100.8558473271661
 30
0.0
 10
221.3957255421818
 20
100.8558473271661
 30
0.0
 10
221.2300390173487
 20
100.8762806117489
 30
0.0
 10
220.9058029411744
 20
100.9543164901744
 30
0.0
 10
220.7459961054465
 20
101.012884221652
 30
0.0
 10
220.2968212831044
 20
101.2327838963976
 30
0.0
 10
220.0273960670402
 20
101.4414334618264
 30
0.0
 10
219.6893610558431
 20
101.8110392542241
 30
0.0
 10
219.5858048914438
 20
101.946032423394
 30
0.0
 10
219.4054174008063
 20
102.2285055855253
 30
0.0
 10
219.3282710667436
 20
102.3757555189197
 30
0.0
 10
219.2007506559659
 20
102.6823143784704
 30
0.0
 10
219.1502270959259
 20
102.84364303132
 30
0.0
 10
219.0833062679993
 20
103.1624519109722
 30
0.0
 10
219.0659472053609
 20
103.321351977199
 30
0.0
 10
219.0648498287528
 20
103.6378793582168
 30
0.0
 10
219.081575750226
 20
103.7932049725199
 30
0.0
 10
219.146980035126
 20
104.0862428305346
 30
0.0
 10
219.1964658868576
 20
104.2273489012565
 30
0.0
 10
219.3870783018064
 20
104.6175726829678
 30
0.0
 10
219.5716740979553
 20
104.8382821911793
 30
0.0
 10
219.9088902421609
 20
105.1020264017489
 30
0.0
 10
220.0329181855469
 20
105.180031113161
 30
0.0
 10
220.2987490539714
 20
105.3139705032001
 30
0.0
 10
220.4391661781991
 20
105.3695191294674
 30
0.0
 10
220.7367996606523
 20
105.4600027984575
 30
0.0
 10
220.8963638849415
 20
105.4951853710444
 30
0.0
 10
221.22197506395
 20
105.5419321822092
 30
0.0
 10
221.3880872994824
 20
105.5539508349717
 30
0.0
 10
221.7275863466966
 20
105.5546543845815
 30
0.0
 10
221.8942597525544
 20
105.5432810741759
 30
0.0
 10
222.2201648008268
 20
105.4979054908391
 30
0.0
 10
222.3802552100283
 20
105.4634178588942
 30
0.0
 10
222.6806014371708
 20
105.3735589946309
 30
0.0
 10
222.8238648861258
 20
105.3174843695402
 30
0.0
 10
223.0910037834085
 20
105.1840449553861
 30
0.0
 10
223.2139632403298
 20
105.1074027455541
 30
0.0
 10
223.4404752219429
 20
104.9318246568233
 30
0.0
 10
223.544321934382
 20
104.8320740255282
 30
0.0
 10
223.724478512964
 20
104.614671490576
 30
0.0
 10
223.801976210788
 20
104.4963362499707
 30
0.0
 10
223.9304543692557
 20
104.2370159129504
 30
0.0
 10
223.9806791852491
 20
104.0961941290079
 30
0.0
 10
224.0474560060202
 20
103.8047006715275
 30
0.0
 10
224.0649927073729
 20
103.6522351198303
 30
0.0
 10
224.0657648542898
 20
103.3329899760279
 30
0.0
 10
224.0489982755221
 20
103.1730366532025
 30
0.0
 10
223.9830919716153
 20
102.8527030350532
 30
0.0
 10
223.933138400478
 20
102.691145538002
 30
0.0
 10
223.7420608982047
 20
102.2278906360464
 30
0.0
 10
223.5567587721276
 20
101.9376825152605
 30
0.0
 10
223.2177693937444
 20
101.5662554596353
 30
0.0
 10
223.092562480632
 20
101.4510409338945
 30
0.0
 10
222.8270298065092
 20
101.2486830656552
 30
0.0
 10
222.6862350104737
 20
101.160614987475
 30
0.0
 10
222.3861719574775
 20
101.0134235091819
 30
0.0
 10
222.2259437157563
 20
100.9546283430897
 30
0.0
 10
221.9016563458359
 20
100.8764267563143
 30
0.0
 10
221.7350449207863
 20
100.8558473271661
 30
0.0
 10
221.3957255421818
 20
100.8558473271661
 30
0.0
  0
ARC
  5
14F
330
1F
100
AcDbEntity
  8
0
  6
HIDDEN
 62
     7
370
     0
100
AcDbCircle
 10
221.4704165643
 20
109.4756322799
 30
0.0
 40
2.428719277805874
100
AcDbArc
 50
109.14973055
 51
157.5519583674
  0
SPLINE
  5
150
330
1F
100
AcDbEntity
  8
0
  6
HIDDEN
 62
     7
370
     0
100
AcDbSpline
210
0.0
220
0.0
230
1.0
 70
    11
 71
     3
 72
    22
 73
    18
 74
     0
 42
0.00000001
 43
0.00000001
 40
0.0
 40
0.0
 40
0.0
 40
0.0
 40
0.125
 40
0.125
 40
0.25
 40
0.25
 40
0.375
 40
0.375
 40
0.5
 40
0.5
 40
0.625
 40
0.625
 40
0.75
 40
0.75
 40
0.875
 40
0.875
 40
1.0
 40
1.0
 40
1.0
 40
1.0
 10
185.3203872330856
 20
121.8883210401894
 30
0.0
 10
185.4793300620547
 20
121.9103947482365
 30
0.0
 10
185.6200216099451
 20
121.9270785662241
 30
0.0
 10
185.8660078474075
 20
121.9533002611064
 30
0.0
 10
185.9720459300888
 20
121.9628795669517
 30
0.0
 10
186.1425379706558
 20
121.9769588340308
 30
0.0
 10
186.2065906701195
 20
121.9814654102779
 30
0.0
 10
186.2930947212125
 20
121.9873295801158
 30
0.0
 10
186.3153282165727
 20
121.9886715126341
 30
0.0
 10
186.3154420225846
 20
121.9886786523836
 30
0.0
 10
186.2939840940993
 20
121.9873860168974
 30
0.0
 10
186.2079983012204
 20
121.9815645873872
 30
0.0
 10
186.1426841544709
 20
121.9769651181113
 30
0.0
 10
185.9736783205354
 20
121.9630200973015
 30
0.0
 10
185.8697192826596
 20
121.9536677104432
 30
0.0
 10
185.6222088364207
 20
121.9273392399767
 30
0.0
 10
185.479324746337
 20
121.9103940099987
 30
0.0
 10
185.3203872330859
 20
121.8883210401895
 30
0.0
  0
SPLINE
  5
151
330
1F
100
AcDbEntity
  8
0
  6
HIDDEN
 62
     7
370
     0
100
AcDbSpline
210
0.0
220
0.0
230
1.0
 70
    11
 71
     3
 72
    22
 73
    18
 74
     0
 42
0.00000001
 43
0.00000001
 40
0.0
 40
0.0
 40
0.0
 40
0.0
 40
0.125
 40
0.125
 40
0.25
 40
0.25
 40
0.375
 40
0.375
 40
0.5
 40
0.5
 40
0.625
 40
0.625
 40
0.75
 40
0.75
 40
0.875
 40
0.875
 40
1.0
 40
1.0
 40
1.0
 40
1.0
 10
185.3203872330856
 20
82.2132640885565
 30
0.0
 10
185.4793300620547
 20
82.19119038050947
 30
0.0
 10
185.6200216099451
 20
82.17450656252184
 30
0.0
 10
185.8660078474075
 20
82.14828486763956
 30
0.0
 10
185.9720459300888
 20
82.13870556179424
 30
0.0
 10
186.1425379706558
 20
82.12462629471509
 30
0.0
 10
186.2065906701195
 20
82.12011971846806
 30
0.0
 10
186.2930947212125
 20
82.11425554863015
 30
0.0
 10
186.3153282165727
 20
82.11291361611184
 30
0.0
 10
186.3154420225846
 20
82.11290647636233
 30
0.0
 10
186.2939840940993
 20
82.11419911184856
 30
0.0
 10
186.2079983012204
 20
82.12002054135877
 30
0.0
 10
186.1426841544708
 20
82.1246200106346
 30
0.0
 10
185.9736783205354
 20
82.13856503144446
 30
0.0
 10
185.8697192826596
 20
82.14791741830278
 30
0.0
 10
185.6222088364207
 20
82.1742458887692
 30
0.0
 10
185.479324746337
 20
82.1911911187472
 30
0.0
 10
185.3203872330859
 20
82.21326408855641
 30
0.0
  0
LINE
  5
152
330
1F
100
AcDbEntity
  8
0
  6
HIDDEN
 62
     7
370
     0
100
AcDbLine
 10
191.5653852315
 20
85.0507925644
 30
0.0
 11
191.5653852315
 21
119.0321077196
 31
0.0
  0
SPLINE
  5
153
330
1F
100
AcDbEntity
  8
0
  6
HIDDEN
 62
     7
370
     0
100
AcDbSpline
210
0.0
220
0.0
230
1.0
 70
    11
 71
     3
 72
    56
 73
    52
 74
     0
 42
0.00000001
 43
0.00000001
 40
0.0
 40
0.0
 40
0.0
 40
0.0
 40
0.0625
 40
0.0625
 40
0.09375
 40
0.09375
 40
0.1250000000000001
 40
0.1250000000000001
 40
0.1562500000000001
 40
0.1562500000000001
 40
0.1875000000000001
 40
0.1875000000000001
 40
0.2187500000000001
 40
0.2187500000000001
 40
0.2500000000000002
 40
0.2500000000000002
 40
0.3125000000000002
 40
0.3125000000000002
 40
0.3437500000000002
 40
0.3437500000000002
 40
0.3750000000000002
 40
0.3750000000000002
 40
0.4062500000000002
 40
0.4062500000000002
 40
0.4375000000000002
 40
0.4375000000000002
 40
0.4687500000000002
 40
0.4687500000000002
 40
0.5000000000000002
 40
0.5000000000000002
 40
0.5625000000000002
 40
0.5625000000000002
 40
0.6250000000000002
 40
0.6250000000000002
 40
0.6875000000000002
 40
0.6875000000000002
 40
0.7187500000000002
 40
0.7187500000000002
 40
0.7500000000000002
 40
0.7500000000000002
 40
0.7812500000000002
 40
0.7812500000000002
 40
0.8125000000000002
 40
0.8125000000000002
 40
0.8750000000000002
 40
0.8750000000000002
 40
0.9375000000000001
 40
0.9375000000000001
 40
0.9687500000000001
 40
0.9687500000000001
 40
1.0
 40
1.0
 40
1.0
 40
1.0
 10
185.3203872330856
 20
82.21326408855649
 30
0.0
 10
185.0645999225379
 20
82.24878739245004
 30
0.0
 10
184.7744101155946
 20
82.28433126141829
 30
0.0
 10
184.2877570173038
 20
82.33080296132718
 30
0.0
 10
184.1174111751426
 20
82.34504887455869
 30
0.0
 10
183.7704377650516
 20
82.36933678875708
 30
0.0
 10
183.5924998678168
 20
82.37951313507912
 30
0.0
 10
183.2275805902571
 20
82.39518846268301
 30
0.0
 10
183.0392459981617
 20
82.40067542389589
 30
0.0
 10
182.6653591457062
 20
82.40613541817163
 30
0.0
 10
182.4786689315363
 20
82.40619364143079
 30
0.0
 10
182.1057904406171
 20
82.40100949945399
 30
0.0
 10
181.9180861976947
 20
82.39569402098257
 30
0.0
 10
181.5511672981472
 20
82.38019163995926
 30
0.0
 10
181.3727175560827
 20
82.37009223219857
 30
0.0
 10
180.851928652722
 20
82.33396039054466
 30
0.0
 10
180.521044933051
 20
82.3015311695266
 30
0.0
 10
180.0845433747195
 20
82.25000467815948
 30
0.0
 10
179.9477578356669
 20
82.23228006711551
 30
0.0
 10
179.692033226213
 20
82.1968857406062
 30
0.0
 10
179.5744094981074
 20
82.17938921922563
 30
0.0
 10
179.3643400449188
 20
82.1466868232371
 30
0.0
 10
179.2710052062338
 20
82.13135501429105
 30
0.0
 10
179.1080594955546
 20
82.10375885494224
 30
0.0
 10
179.0383565327048
 20
82.09147217182861
 30
0.0
 10
178.9277334663727
 20
82.07162718004219
 30
0.0
 10
178.8860517947622
 20
82.0639410675155
 30
0.0
 10
178.829876654387
 20
82.05352368713825
 30
0.0
 10
178.8154383786265
 20
82.05080252946179
 30
0.0
 10
178.8152793835239
 20
82.05077271788119
 30
0.0
 10
178.8709387212606
 20
82.06143484802917
 30
0.0
 10
179.093763481795
 20
82.10141551976416
 30
0.0
 10
179.2556757673887
 20
82.12975177139646
 30
0.0
 10
179.6794673261245
 20
82.1957626803565
 30
0.0
 10
179.9343137486717
 20
82.23222255314774
 30
0.0
 10
180.3729574087855
 20
82.28407407613409
 30
0.0
 10
180.5296549450649
 20
82.30096171019406
 30
0.0
 10
180.8528548948435
 20
82.33165513081501
 30
0.0
 10
181.0205283762638
 20
82.34561493775885
 30
0.0
 10
181.3681132424525
 20
82.36981436691002
 30
0.0
 10
181.5496767232714
 20
82.38011131574083
 30
0.0
 10
181.9158629980803
 20
82.39561726260276
 30
0.0
 10
182.1005204139226
 20
82.40088324449974
 30
0.0
 10
182.659116820481
 20
82.40880606775525
 30
0.0
 10
183.0414511619516
 20
82.40309194438161
 30
0.0
 10
183.76874830632
 20
82.37203285821934
 30
0.0
 10
184.12444238042
 20
82.34634422216938
 30
0.0
 10
184.6077546573709
 20
82.30027221196129
 30
0.0
 10
184.7614522645875
 20
82.283670053545
 30
0.0
 10
185.0538744894306
 20
82.24905019833068
 30
0.0
 10
185.1924897126358
 20
82.23102627729229
 30
0.0
 10
185.3203872330857
 20
82.2132640885565
 30
0.0
  0
SPLINE
  5
154
330
1F
100
AcDbEntity
  8
0
  6
HIDDEN
 62
     7
370
     0
100
AcDbSpline
210
0.0
220
0.0
230
1.0
 70
    11
 71
     3
 72
    56
 73
    52
 74
     0
 42
0.00000001
 43
0.00000001
 40
0.0
 40
0.0
 40
0.0
 40
0.0
 40
0.0624999999999998
 40
0.0624999999999998
 40
0.0937499999999997
 40
0.0937499999999997
 40
0.1249999999999996
 40
0.1249999999999996
 40
0.1562499999999996
 40
0.1562499999999996
 40
0.1874999999999995
 40
0.1874999999999995
 40
0.2187499999999994
 40
0.2187499999999994
 40
0.2499999999999993
 40
0.2499999999999993
 40
0.3124999999999994
 40
0.3124999999999994
 40
0.3437499999999995
 40
0.3437499999999995
 40
0.3749999999999996
 40
0.3749999999999996
 40
0.4062499999999998
 40
0.4062499999999998
 40
0.4374999999999999
 40
0.4374999999999999
 40
0.46875
 40
0.46875
 40
0.5000000000000001
 40
0.5000000000000001
 40
0.5625000000000003
 40
0.5625000000000003
 40
0.6250000000000006
 40
0.6250000000000006
 40
0.6875000000000008
 40
0.6875000000000008
 40
0.7187500000000008
 40
0.7187500000000008
 40
0.7500000000000008
 40
0.7500000000000008
 40
0.7812500000000009
 40
0.7812500000000009
 40
0.8125000000000009
 40
0.8125000000000009
 40
0.8750000000000006
 40
0.8750000000000006
 40
0.9375000000000002
 40
0.9375000000000002
 40
0.9687500000000001
 40
0.9687500000000001
 40
1.0
 40
1.0
 40
1.0
 40
1.0
 10
185.3203872330856
 20
121.8883210401894
 30
0.0
 10
185.0645999225379
 20
121.8527977362959
 30
0.0
 10
184.7744101155946
 20
121.8172538673276
 30
0.0
 10
184.2877570173038
 20
121.7707821674188
 30
0.0
 10
184.1174111751426
 20
121.7565362541873
 30
0.0
 10
183.7704377650516
 20
121.7322483399889
 30
0.0
 10
183.5924998678168
 20
121.7220719936668
 30
0.0
 10
183.2275805902571
 20
121.7063966660629
 30
0.0
 10
183.0392459981617
 20
121.70090970485
 30
0.0
 10
182.6653591457062
 20
121.6954497105743
 30
0.0
 10
182.4786689315363
 20
121.6953914873151
 30
0.0
 10
182.1057904406171
 20
121.7005756292919
 30
0.0
 10
181.9180861976947
 20
121.7058911077634
 30
0.0
 10
181.5511672981472
 20
121.7213934887867
 30
0.0
 10
181.3727175560827
 20
121.7314928965474
 30
0.0
 10
180.851928652722
 20
121.7676247382012
 30
0.0
 10
180.521044933051
 20
121.8000539592193
 30
0.0
 10
180.0845433747195
 20
121.8515804505864
 30
0.0
 10
179.9477578356669
 20
121.8693050616304
 30
0.0
 10
179.6920332262131
 20
121.9046993881397
 30
0.0
 10
179.5744094981074
 20
121.9221959095203
 30
0.0
 10
179.3643400449188
 20
121.9548983055088
 30
0.0
 10
179.2710052062338
 20
121.9702301144549
 30
0.0
 10
179.1080594955546
 20
121.9978262738037
 30
0.0
 10
179.0383565327048
 20
122.0101129569173
 30
0.0
 10
178.9277334663727
 20
122.0299579487038
 30
0.0
 10
178.8860517947622
 20
122.0376440612304
 30
0.0
 10
178.829876654387
 20
122.0480614416077
 30
0.0
 10
178.8154383786265
 20
122.0507825992841
 30
0.0
 10
178.8152793835239
 20
122.0508124108647
 30
0.0
 10
178.8709387212606
 20
122.0401502807168
 30
0.0
 10
179.093763481795
 20
122.0001696089818
 30
0.0
 10
179.2556757673887
 20
121.9718333573495
 30
0.0
 10
179.6794673261245
 20
121.9058224483894
 30
0.0
 10
179.9343137486717
 20
121.8693625755982
 30
0.0
 10
180.3729574087855
 20
121.8175110526118
 30
0.0
 10
180.5296549450649
 20
121.8006234185519
 30
0.0
 10
180.8528548948435
 20
121.7699299979309
 30
0.0
 10
181.0205283762638
 20
121.7559701909871
 30
0.0
 10
181.3681132424525
 20
121.7317707618359
 30
0.0
 10
181.5496767232714
 20
121.7214738130051
 30
0.0
 10
181.9158629980803
 20
121.7059678661432
 30
0.0
 10
182.1005204139226
 20
121.7007018842462
 30
0.0
 10
182.659116820481
 20
121.6927790609907
 30
0.0
 10
183.0414511619516
 20
121.6984931843643
 30
0.0
 10
183.76874830632
 20
121.7295522705266
 30
0.0
 10
184.12444238042
 20
121.7552409065765
 30
0.0
 10
184.6077546573709
 20
121.8013129167846
 30
0.0
 10
184.7614522645875
 20
121.8179150752009
 30
0.0
 10
185.0538744894306
 20
121.8525349304152
 30
0.0
 10
185.1924897126358
 20
121.8705588514536
 30
0.0
 10
185.3203872330857
 20
121.8883210401894
 30
0.0
  0
LINE
  5
155
330
1F
100
AcDbEntity
  8
0
  6
HIDDEN
 62
     7
370
     0
100
AcDbLine
 10
211.4492376083
 20
121.9007925644
 30
0.0
 11
217.5153852315
 21
121.9007925644
 31
0.0
  0
LINE
  5
156
330
1F
100
AcDbEntity
  8
0
  6
HIDDEN
 62
     7
370
     0
100
AcDbLine
 10
203.7610055772
 20
121.9007925644
 30
0.0
 11
207.6815328546
 21
121.9007925644
 31
0.0
  0
LINE
  5
157
330
1F
100
AcDbEntity
  8
0
  6
HIDDEN
 62
     7
370
     0
100
AcDbLine
 10
172.5693598277
 20
119.0507925644
 30
0.0
 11
172.5693598277
 21
85.0507925644
 31
0.0
  0
LWPOLYLINE
  5
158
330
1F
100
AcDbEntity
  8
0
  6
HIDDEN
 62
     7
370
     0
100
AcDbPolyline
 90
        2
 70
   128
 43
0.0
 10
172.5693598277
 20
85.0507925644
 10
172.5693598277
 20
85.0507925644
  0
LINE
  5
159
330
1F
100
AcDbEntity
  8
0
  6
HIDDEN
 62
     7
370
     0
100
AcDbLine
 10
159.6653852315
 20
86.0208571665
 30
0.0
 11
159.6653852315
 21
118.0807279622
 31
0.0
  0
LINE
  5
15A
330
1F
100
AcDbEntity
  8
0
  6
HIDDEN
 62
     7
370
     0
100
AcDbLine
 10
199.2252112
 20
119.0507925644
 30
0.0
 11
199.2252112
 21
85.0507925644
 31
0.0
  0
LWPOLYLINE
  5
15B
330
1F
100
AcDbEntity
  8
0
  6
HIDDEN
 62
     7
370
     0
100
AcDbPolyline
 90
        2
 70
   128
 43
0.0
 10
199.2252112
 20
85.0507925644
 10
199.2252112
 20
85.0507925644
  0
LINE
  5
15C
330
1F
100
AcDbEntity
  8
0
  6
HIDDEN
 62
     7
370
     0
100
AcDbLine
 10
201.5153852315
 20
117.7757925436
 30
0.0
 11
201.5153852315
 21
86.3257925644
 31
0.0
  0
LWPOLYLINE
  5
15D
330
1F
100
AcDbEntity
  8
0
  6
HIDDEN
 62
     7
370
     0
100
AcDbPolyline
 90
        2
 70
   128
 43
0.0
 10
201.5153852315
 20
86.3257925644
 10
201.5153852315
 20
86.3257925644
  0
LINE
  5
15E
330
1F
100
AcDbEntity
  8
0
  6
HIDDEN
 62
     7
370
     0
100
AcDbLine
 10
160.8153852315
 20
86.2493021283
 30
0.0
 11
168.3653852315
 21
86.2493021283
 31
0.0
  0
LINE
  5
15F
330
1F
100
AcDbEntity
  8
0
  6
HIDDEN
 62
     7
370
     0
100
AcDbLine
 10
160.8153852315
 20
117.8522830004
 30
0.0
 11
160.8153852315
 21
86.2493021283
 31
0.0
  0
LINE
  5
160
330
1F
100
AcDbEntity
  8
0
  6
HIDDEN
 62
     7
370
     0
100
AcDbLine
 10
164.3653852315
 20
117.8522830004
 30
0.0
 11
160.8153852315
 21
117.8522830004
 31
0.0
  0
SPLINE
  5
161
330
1F
100
AcDbEntity
  8
0
  6
HIDDEN
 62
     7
370
     0
100
AcDbSpline
210
0.0
220
0.0
230
1.0
 70
     8
 71
     3
 72
    18
 73
    14
 74
     0
 42
0.00000001
 43
0.00000001
 40
0.0
 40
0.0
 40
0.0
 40
0.0
 40
0.2500000000000016
 40
0.2500000000000016
 40
0.3750000000000021
 40
0.3750000000000021
 40
0.5000000000000026
 40
0.5000000000000026
 40
0.625000000000003
 40
0.625000000000003
 40
0.7500000000000034
 40
0.7500000000000034
 40
1.0
 40
1.0
 40
1.0
 40
1.0
 10
165.765385231484
 20
118.3383061867771
 30
0.0
 10
165.765385231484
 20
118.2838316662249
 30
0.0
 10
165.7304745400919
 20
118.2274506068724
 30
0.0
 10
165.6284652387588
 20
118.1433737660189
 30
0.0
 10
165.5868288840807
 20
118.116040062028
 30
0.0
 10
165.488423088592
 20
118.063086146429
 30
0.0
 10
165.4308798768877
 20
118.0371987927118
 30
0.0
 10
165.3035817033147
 20
117.9894212478786
 30
0.0
 10
165.2339943985573
 20
117.9674733297007
 30
0.0
 10
165.0825601534023
 20
117.928040764788
 30
0.0
 10
164.9998762503084
 20
117.9104845155621
 30
0.0
 10
164.7437647882703
 20
117.8680457501416
 30
0.0
 10
164.5558497843823
 20
117.8522830004046
 30
0.0
 10
164.365385231484
 20
117.8522830004046
 30
0.0
  0
LINE
  5
162
330
1F
100
AcDbEntity
  8
0
  6
HIDDEN
 62
     7
370
     0
100
AcDbLine
 10
165.7653852315
 20
118.3383061868
 30
0.0
 11
165.7653852315
 21
119.0507925644
 31
0.0
  0
SPLINE
  5
163
330
1F
100
AcDbEntity
  8
0
  6
HIDDEN
 62
     7
370
     0
100
AcDbSpline
210
0.0
220
0.0
230
1.0
 70
     8
 71
     3
 72
    18
 73
    14
 74
     0
 42
0.00000001
 43
0.00000001
 40
0.0
 40
0.0
 40
0.0
 40
0.0
 40
0.2500000000000003
 40
0.2500000000000003
 40
0.3750000000000004
 40
0.3750000000000004
 40
0.5000000000000006
 40
0.5000000000000006
 40
0.6250000000000007
 40
0.6250000000000007
 40
0.7500000000000009
 40
0.7500000000000009
 40
1.0
 40
1.0
 40
1.0
 40
1.0
 10
165.765385231484
 20
118.3383061867771
 30
0.0
 10
165.765385231484
 20
118.2838316662249
 30
0.0
 10
165.7304745400919
 20
118.2274506068724
 30
0.0
 10
165.6284652387588
 20
118.1433737660189
 30
0.0
 10
165.5868288840807
 20
118.116040062028
 30
0.0
 10
165.488423088592
 20
118.063086146429
 30
0.0
 10
165.4308798768877
 20
118.0371987927118
 30
0.0
 10
165.3035817033147
 20
117.9894212478786
 30
0.0
 10
165.2339943985573
 20
117.9674733297007
 30
0.0
 10
165.0825601534023
 20
117.928040764788
 30
0.0
 10
164.9998762503083
 20
117.9104845155621
 30
0.0
 10
164.7437647882703
 20
117.8680457501416
 30
0.0
 10
164.5558497843823
 20
117.8522830004046
 30
0.0
 10
164.3653852314841
 20
117.8522830004046
 30
0.0
  0
LINE
  5
164
330
1F
100
AcDbEntity
  8
0
  6
HIDDEN
 62
     7
370
     0
100
AcDbLine
 10
164.3653852315
 20
117.8522830004
 30
0.0
 11
160.8153852315
 21
117.8522830004
 31
0.0
  0
LINE
  5
165
330
1F
100
AcDbEntity
  8
0
  6
HIDDEN
 62
     7
370
     0
100
AcDbLine
 10
160.8153852315
 20
86.2493021283
 30
0.0
 11
168.3653852315
 21
86.2493021283
 31
0.0
  0
SPLINE
  5
166
330
1F
100
AcDbEntity
  8
0
  6
HIDDEN
 62
     7
370
     0
100
AcDbSpline
210
0.0
220
0.0
230
1.0
 70
     8
 71
     3
 72
    16
 73
    12
 74
     0
 42
0.00000001
 43
0.00000001
 40
0.0
 40
0.0
 40
0.0
 40
0.0
 40
0.1249999999999988
 40
0.1249999999999988
 40
0.2499999999999977
 40
0.2499999999999977
 40
0.4999999999999984
 40
0.4999999999999984
 40
0.7499999999999992
 40
0.7499999999999992
 40
1.0
 40
1.0
 40
1.0
 40
1.0
 10
168.365385231484
 20
86.24930212834128
 30
0.0
 10
168.4605069861499
 20
86.24930212834128
 30
0.0
 10
168.553837054878
 20
86.24548629494852
 30
0.0
 10
168.737098815616
 20
86.2307157422187
 30
0.0
 10
168.8279765311729
 20
86.21955769424312
 30
0.0
 10
169.0847782286927
 20
86.1770864241014
 30
0.0
 10
169.2398455935647
 20
86.1360402268986
 30
0.0
 10
169.4935920551193
 20
86.04089411031671
 30
0.0
 10
169.5944625067872
 20
85.98613137623514
 30
0.0
 10
169.729708921482
 20
85.87487025233126
 30
0.0
 10
169.765385231484
 20
85.81770051500256
 30
0.0
 10
169.765385231484
 20
85.76327894196884
 30
0.0
  0
LINE
  5
167
330
1F
100
AcDbEntity
  8
0
  6
HIDDEN
 62
     7
370
     0
100
AcDbLine
 10
169.7653852315
 20
85.763278942
 30
0.0
 11
169.7653852315
 21
85.0507925644
 31
0.0
  0
SPLINE
  5
168
330
1F
100
AcDbEntity
  8
0
  6
HIDDEN
 62
     7
370
     0
100
AcDbSpline
210
0.0
220
0.0
230
1.0
 70
     8
 71
     3
 72
    16
 73
    12
 74
     0
 42
0.00000001
 43
0.00000001
 40
0.0
 40
0.0
 40
0.0
 40
0.0
 40
0.1250000000000018
 40
0.1250000000000018
 40
0.2500000000000037
 40
0.2500000000000037
 40
0.5000000000000024
 40
0.5000000000000024
 40
0.7500000000000012
 40
0.7500000000000012
 40
1.0
 40
1.0
 40
1.0
 40
1.0
 10
168.365385231484
 20
86.24930212834131
 30
0.0
 10
168.4605069861499
 20
86.24930212834131
 30
0.0
 10
168.553837054878
 20
86.24548629494852
 30
0.0
 10
168.737098815616
 20
86.2307157422187
 30
0.0
 10
168.8279765311729
 20
86.21955769424312
 30
0.0
 10
169.0847782286927
 20
86.17708642410139
 30
0.0
 10
169.2398455935647
 20
86.1360402268986
 30
0.0
 10
169.4935920551193
 20
86.04089411031671
 30
0.0
 10
169.5944625067872
 20
85.98613137623514
 30
0.0
 10
169.729708921482
 20
85.87487025233126
 30
0.0
 10
169.765385231484
 20
85.81770051500257
 30
0.0
 10
169.765385231484
 20
85.76327894196884
 30
0.0
  0
LINE
  5
169
330
1F
100
AcDbEntity
  8
0
  6
HIDDEN
 62
     7
370
     0
100
AcDbLine
 10
160.8153852315
 20
86.2493021283
 30
0.0
 11
160.8153852315
 21
117.8522830004
 31
0.0
  0
LINE
  5
16A
330
1F
100
AcDbEntity
  8
0
  6
HIDDEN
 62
     7
370
     0
100
AcDbLine
 10
233.8333344239
 20
75.0507925644
 30
0.0
 11
233.8333344239
 21
102.0507925644
 31
0.0
  0
SPLINE
  5
16B
330
1F
100
AcDbEntity
  8
0
  6
HIDDEN
 62
     7
370
     0
100
AcDbSpline
210
0.0
220
0.0
230
1.0
 70
     8
 71
     3
 72
    12
 73
     8
 74
     0
 42
0.00000001
 43
0.00000001
 40
0.0
 40
0.0
 40
0.0
 40
0.0
 40
0.5
 40
0.5
 40
0.7499999999999999
 40
0.7499999999999999
 40
1.0
 40
1.0
 40
1.0
 40
1.0
 10
236.2956143308366
 20
126.1478737634652
 30
0.0
 10
235.5839229365741
 20
122.158950807607
 30
0.0
 10
234.9660218507049
 20
118.1615433893725
 30
0.0
 10
234.3064433959328
 20
112.1412541861816
 30
0.0
 10
234.1318966876649
 20
110.1303920323592
 30
0.0
 10
233.8951701549913
 20
106.098502787475
 30
0.0
 10
233.8333344239152
 20
104.0774445690296
 30
0.0
 10
233.8333344239152
 20
102.0507925643729
 30
0.0
  0
LINE
  5
16C
330
1F
100
AcDbEntity
  8
0
  6
HIDDEN
 62
     7
370
     0
100
AcDbLine
 10
236.2956143308
 20
138.2401462795
 30
0.0
 11
236.2956143308
 21
126.1478737635
 31
0.0
  0
ELLIPSE
  5
16D
330
1F
100
AcDbEntity
  8
0
  6
HIDDEN
 62
     7
370
     0
100
AcDbEllipse
 10
245.5120258998
 20
102.0507925644
 30
0.0
 11
9.450908103285601
 21
26.98165523934496
 31
0.0
210
0.0
220
0.0
230
0.9999999999999998
 40
0.1052944749
 41
1.607661283937054
 42
3.178457610732061
  0
LINE
  5
16E
330
1F
100
AcDbEntity
  8
0
  6
HIDDEN
 62
     7
370
     0
100
AcDbLine
 10
160.8153852315
 20
84.0607925644
 30
0.0
 11
160.8153852315
 21
81.2382925644
 31
0.0
  0
LINE
  5
16F
330
1F
100
AcDbEntity
  8
0
  6
HIDDEN
 62
     7
370
     0
100
AcDbLine
 10
169.7653852315
 20
84.0607925644
 30
0.0
 11
169.7653852315
 21
80.1056443051
 31
0.0
  0
LINE
  5
170
330
1F
100
AcDbEntity
  8
0
  6
HIDDEN
 62
     7
370
     0
100
AcDbLine
 10
160.8153852315
 20
120.0407925644
 30
0.0
 11
160.8153852315
 21
122.9207303298
 31
0.0
  0
LINE
  5
171
330
1F
100
AcDbEntity
  8
0
  6
HIDDEN
 62
     7
370
     0
100
AcDbLine
 10
159.6653852315
 20
120.0407925644
 30
0.0
 11
159.6653852315
 21
121.7414703109
 31
0.0
  0
LINE
  5
172
330
1F
100
AcDbEntity
  8
0
  6
HIDDEN
 62
     7
370
     0
100
AcDbLine
 10
159.6653852315
 20
84.0607925644
 30
0.0
 11
159.6653852315
 21
82.3976320394
 31
0.0
  0
LINE
  5
173
330
1F
100
AcDbEntity
  8
0
  6
HIDDEN
 62
     7
370
     0
100
AcDbLine
 10
165.7653852315
 20
120.0407925644
 30
0.0
 11
165.7653852315
 21
123.8949002367
 31
0.0
  0
LINE
  5
174
330
1F
100
AcDbEntity
  8
0
  6
HIDDEN
 62
     7
370
     0
100
AcDbLine
 10
210.8653852315
 20
111.5507925644
 30
0.0
 11
210.8653852315
 21
92.5507925644
 31
0.0
  0
LINE
  5
175
330
1F
100
AcDbEntity
  8
0
  6
HIDDEN
 62
     7
370
     0
100
AcDbLine
 10
213.3653852315
 20
111.5507925644
 30
0.0
 11
213.3653852315
 21
92.5507925644
 31
0.0
  0
LWPOLYLINE
  5
176
330
1F
100
AcDbEntity
  8
0
  6
HIDDEN
 62
     7
370
     0
100
AcDbPolyline
 90
        2
 70
   128
 43
0.0
 10
217.5153852315
 20
75.6507925644
 10
217.5153852315
 20
75.6507925644
  0
LINE
  5
177
330
1F
100
AcDbEntity
  8
0
  6
HIDDEN
 62
     7
370
     0
100
AcDbLine
 10
202.0153852315
 20
110.5507925644
 30
0.0
 11
202.0153852315
 21
93.5507925644
 31
0.0
  0
LINE
  5
178
330
1F
100
AcDbEntity
  8
0
  6
HIDDEN
 62
     7
370
     0
100
AcDbLine
 10
201.5153852315
 20
93.0507925644
 30
0.0
 11
201.5153852315
 21
111.0323010991
 31
0.0
  0
LINE
  5
179
330
1F
100
AcDbEntity
  8
0
  6
HIDDEN
 62
     7
370
     0
100
AcDbLine
 10
217.5153852315
 20
75.6507925644
 30
0.0
 11
211.3777104292
 21
75.6507925644
 31
0.0
  0
LINE
  5
17A
330
1F
100
AcDbEntity
  8
0
  6
HIDDEN
 62
     7
370
     0
100
AcDbLine
 10
211.4753852315
 20
74.5529554053
 30
0.0
 11
211.4753852315
 21
75.246396936
 31
0.0
  0
LINE
  5
17B
330
1F
100
AcDbEntity
  8
0
  6
HIDDEN
 62
     7
370
     0
100
AcDbLine
 10
217.5153852315
 20
75.6507925644
 30
0.0
 11
217.5153852315
 21
72.4905151638
 31
0.0
  0
LINE
  5
17C
330
1F
100
AcDbEntity
  8
0
  6
HIDDEN
 62
     7
370
     0
100
AcDbLine
 10
196.5153852315
 20
70.5666695815
 30
0.0
 11
196.5153852315
 21
75.6507925644
 31
0.0
  0
LINE
  5
17D
330
1F
100
AcDbEntity
  8
0
  6
HIDDEN
 62
     7
370
     0
100
AcDbLine
 10
204.5153852315
 20
75.6507925644
 30
0.0
 11
196.5153852315
 21
75.6507925644
 31
0.0
  0
LINE
  5
17E
330
1F
100
AcDbEntity
  8
0
  6
HIDDEN
 62
     7
370
     0
100
AcDbLine
 10
207.7530600338
 20
75.6507925644
 30
0.0
 11
204.5153852315
 21
75.6507925644
 31
0.0
  0
LINE
  5
17F
330
1F
100
AcDbEntity
  8
0
  6
HIDDEN
 62
     7
370
     0
100
AcDbLine
 10
207.6553852315
 20
75.246396936
 30
0.0
 11
207.6553852315
 21
74.5529554053
 31
0.0
  0
LINE
  5
180
330
1F
100
AcDbEntity
  8
0
  6
HIDDEN
 62
     7
370
     0
100
AcDbLine
 10
210.8653852315
 20
93.5507925644
 30
0.0
 11
210.8653852315
 21
110.5318110327
 31
0.0
  0
LWPOLYLINE
  5
181
330
1F
100
AcDbEntity
  8
0
  6
HIDDEN
 62
     7
370
     0
100
AcDbPolyline
 90
        2
 70
   128
 43
0.0
 10
217.5153852315
 20
128.4507925644
 10
217.5153852315
 20
128.4507925644
  0
LINE
  5
182
330
1F
100
AcDbEntity
  8
0
  6
HIDDEN
 62
     7
370
     0
100
AcDbLine
 10
217.5153852315
 20
128.4507925644
 30
0.0
 11
211.0810876998
 21
128.4507925644
 31
0.0
  0
LINE
  5
183
330
1F
100
AcDbEntity
  8
0
  6
HIDDEN
 62
     7
370
     0
100
AcDbLine
 10
211.4753852315
 20
129.8560267555
 30
0.0
 11
211.4753852315
 21
129.1704464154
 31
0.0
  0
LINE
  5
184
330
1F
100
AcDbEntity
  8
0
  6
HIDDEN
 62
     7
370
     0
100
AcDbLine
 10
217.5153852315
 20
128.4507925644
 30
0.0
 11
217.5153852315
 21
131.8972328881
 31
0.0
  0
LINE
  5
185
330
1F
100
AcDbEntity
  8
0
  6
HIDDEN
 62
     7
370
     0
100
AcDbLine
 10
208.0496827632
 20
128.4507925644
 30
0.0
 11
204.5153852315
 21
128.4507925644
 31
0.0
  0
LINE
  5
186
330
1F
100
AcDbEntity
  8
0
  6
HIDDEN
 62
     7
370
     0
100
AcDbLine
 10
207.6553852315
 20
129.1704464154
 30
0.0
 11
207.6553852315
 21
129.8560267555
 31
0.0
  0
LINE
  5
187
330
1F
100
AcDbEntity
  8
0
  6
HIDDEN
 62
     7
370
     0
100
AcDbLine
 10
204.5153852315
 20
128.4507925644
 30
0.0
 11
196.5153852315
 21
128.4507925644
 31
0.0
  0
ELLIPSE
  5
188
330
1F
100
AcDbEntity
  8
0
  6
HIDDEN
 62
     7
370
     0
100
AcDbEllipse
 10
155.4979533671
 20
102.0507925644
 30
0.0
 11
20.07002071827048
 21
-1.421085471520200E-14
 31
0.0
210
0.0
220
0.0
230
1.0
 40
0.8164965809
 41
1.302650465081197
 42
1.3616298439939
  0
LINE
  5
189
330
1F
100
AcDbEntity
  8
0
  6
HIDDEN
 62
     7
370
     0
100
AcDbLine
 10
159.6653852315
 20
120.0407925644
 30
0.0
 11
159.6653852315
 21
118.0807279622
 31
0.0
  0
ELLIPSE
  5
18A
330
1F
100
AcDbEntity
  8
0
  6
HIDDEN
 62
     7
370
     0
100
AcDbEllipse
 10
155.4979533671
 20
102.0507925644
 30
0.0
 11
20.07002071827054
 21
-4.263256414560601E-14
 31
0.0
210
0.0
220
0.0
230
1.0
 40
0.8164965809
 41
4.921555463185703
 42
4.980534842098404
  0
LINE
  5
18B
330
1F
100
AcDbEntity
  8
0
  6
HIDDEN
 62
     7
370
     0
100
AcDbLine
 10
159.6653852315
 20
84.0607925644
 30
0.0
 11
159.6653852315
 21
86.0208571665
 31
0.0
  0
LWPOLYLINE
  5
18C
330
1F
100
AcDbEntity
  8
0
  6
HIDDEN
 62
     7
370
     0
100
AcDbPolyline
 90
       31
 70
   128
 43
0.0
 10
242.0265752504
 20
123.1102494864
 10
242.1237936981
 20
122.3932779792
 10
242.3673355532
 20
121.7076415673
 10
242.7465568683
 20
121.083305852
 10
243.2448838519
 20
120.5475572998
 10
243.8405372238
 20
120.1238106933
 10
244.5074840733
 20
119.8305857926
 10
245.2165756227
 20
119.6806979329
 10
245.9368211687
 20
119.6806979329
 10
246.6367425249
 20
119.8305857926
 10
247.2857497693
 20
120.1238106933
 10
247.8554781711
 20
120.5475572998
 10
248.3210278653
 20
121.083305852
 10
248.6620520963
 20
121.7076415673
 10
248.8636464688
 20
122.3932779792
 10
248.9170003414
 20
123.1102494864
 10
248.8197818937
 20
123.8272209936
 10
248.5762400385
 20
124.5128574055
 10
248.1970187235
 20
125.1371931209
 10
247.6986917399
 20
125.6729416731
 10
247.103038368
 20
126.0966882796
 10
246.4360915185
 20
126.3899131803
 10
245.7269999691
 20
126.53980104
 10
245.0067544231
 20
126.53980104
 10
244.3068330669
 20
126.3899131803
 10
243.6578258225
 20
126.0966882796
 10
243.0880974207
 20
125.6729416731
 10
242.6225477264
 20
125.1371931209
 10
242.2815234954
 20
124.5128574055
 10
242.0799291229
 20
123.8272209936
 10
242.0265752504
 20
123.1102494864
  0
ARC
  5
18D
330
1F
100
AcDbEntity
  8
0
  6
HIDDEN
 62
     7
370
     0
100
AcDbCircle
 10
240.1888814291
 20
128.9943187642
 30
0.0
 40
2.086527016700805
100
AcDbArc
 50
108.2518795175
 51
286.4336157405
  0
LINE
  5
18E
330
1F
100
AcDbEntity
  8
0
  6
HIDDEN
 62
     7
370
     0
100
AcDbLine
 10
256.443391282
 20
132.5732499739
 30
0.0
 11
254.8423550839
 21
130.9965371131
 31
0.0
  0
LINE
  5
18F
330
1F
100
AcDbEntity
  8
0
  6
HIDDEN
 62
     7
370
     0
100
AcDbLine
 10
169.7653852315
 20
84.0607925644
 30
0.0
 11
169.7653852315
 21
85.763278942
 31
0.0
  0
LINE
  5
190
330
1F
100
AcDbEntity
  8
0
  6
HIDDEN
 62
     7
370
     0
100
AcDbLine
 10
160.8153852315
 20
84.0607925644
 30
0.0
 11
160.8153852315
 21
86.2493021283
 31
0.0
  0
LINE
  5
191
330
1F
100
AcDbEntity
  8
0
  6
HIDDEN
 62
     7
370
     0
100
AcDbLine
 10
160.8153852315
 20
120.0407925644
 30
0.0
 11
160.8153852315
 21
117.8522830004
 31
0.0
  0
LINE
  5
192
330
1F
100
AcDbEntity
  8
0
  6
HIDDEN
 62
     7
370
     0
100
AcDbLine
 10
165.7653852315
 20
120.0407925644
 30
0.0
 11
165.7653852315
 21
118.3383061868
 31
0.0
  0
LINE
  5
193
330
1F
100
AcDbEntity
  8
0
  6
HIDDEN
 62
     7
370
     0
100
AcDbLine
 10
239.7309246545
 20
131.0315345254
 30
0.0
 11
239.5353916835
 21
130.9758702129
 31
0.0
  0
ELLIPSE
  5
194
330
1F
100
AcDbEntity
  8
0
  6
HIDDEN
 62
     7
370
     0
100
AcDbEllipse
 10
234.1700230179
 20
106.0406859876
 30
0.0
 11
12.4331709733919
 21
35.44870232600216
 31
0.0
210
0.0
220
0.0
230
0.9999999999999999
 40
0.1046716309
 41
0.0796494254830475
 42
0.2453973193100154
  0
SPLINE
  5
195
330
1F
100
AcDbEntity
  8
0
  6
HIDDEN
 62
     7
370
     0
100
AcDbSpline
210
0.0
220
0.0
230
1.0
 70
     8
 71
     3
 72
    10
 73
     6
 74
     0
 42
0.00000001
 43
0.00000001
 40
0.0
 40
0.0
 40
0.0
 40
0.0
 40
0.5
 40
0.5
 40
1.0
 40
1.0
 40
1.0
 40
1.0
 10
252.5109014368336
 20
133.5113617269012
 30
0.0
 10
249.7835326698524
 20
132.3435794456252
 30
0.0
 10
247.0655376844487
 20
131.1526564648749
 30
0.0
 10
241.6559038649929
 20
128.7057460709796
 30
0.0
 10
238.9636594498637
 20
127.4497976479359
 30
0.0
 10
236.2956143308367
 20
126.1478737634652
 30
0.0
  0
SPLINE
  5
196
330
1F
100
AcDbEntity
  8
0
  6
HIDDEN
 62
     7
370
     0
100
AcDbSpline
210
0.0
220
0.0
230
1.0
 70
     8
 71
     3
 72
    38
 73
    34
 74
     0
 42
0.00000001
 43
0.00000001
 40
0.0
 40
0.0
 40
0.0
 40
0.0
 40
0.0275304294881477
 40
0.0553864237722032
 40
0.0835672175833034
 40
0.1120719963087814
 40
0.1408998971598584
 40
0.170050010276998
 40
0.1995213797771929
 40
0.2293130047470459
 40
0.2594238401851254
 40
0.2898527978970184
 40
0.3205987473461656
 40
0.3516605164633269
 40
0.3830368924174189
 40
0.4147266223502223
 40
0.4467284140772856
 40
0.4790409367572397
 40
0.5116628215315449
 40
0.5445926621365879
 40
0.5778290154899349
 40
0.6113704022523823
 40
0.6452153073673814
 40
0.6793621805793417
 40
0.7138094369321113
 40
0.7485554572490194
 40
0.7835985885956238
 40
0.8189371447263469
 40
0.8545694065160467
 40
0.8904936223775587
 40
0.9267080086661474
 40
0.9632107500717686
 40
1.0
 40
1.0
 40
1.0
 40
1.0
 10
258.4153430481388
 20
144.5239103037874
 30
0.0
 10
258.3740964207533
 20
144.4693343692619
 30
0.0
 10
258.2911153984438
 20
144.3595371051585
 30
0.0
 10
258.1621741837559
 20
144.182543458133
 30
0.0
 10
258.0290495553783
 20
143.9950935122276
 30
0.0
 10
257.8914636297695
 20
143.7961463426045
 30
0.0
 10
257.7494921477985
 20
143.5857158531079
 30
0.0
 10
257.6031144500417
 20
143.3635333370441
 30
0.0
 10
257.4523361507829
 20
143.1294124901218
 30
0.0
 10
257.2971557058059
 20
142.8831503781637
 30
0.0
 10
257.1375735214792
 20
142.6245548730626
 30
0.0
 10
256.9735894734181
 20
142.3534376409868
 30
0.0
 10
256.8052035822396
 20
142.0696165221096
 30
0.0
 10
256.6324158295573
 20
141.7729153608308
 30
0.0
 10
256.4552262080586
 20
141.4631645378355
 30
0.0
 10
256.2736347078643
 20
141.1402013184274
 30
0.0
 10
256.0876413202266
 20
140.8038702577633
 30
0.0
 10
255.8972460365128
 20
140.4540235970811
 30
0.0
 10
255.7024488484602
 20
140.0905216683139
 30
0.0
 10
255.5032497481305
 20
139.7132333020982
 30
0.0
 10
255.2996487277697
 20
139.3220362390514
 30
0.0
 10
255.091645780367
 20
138.9168175473475
 30
0.0
 10
254.8792408974723
 20
138.4974740316382
 30
0.0
 10
254.6624340774137
 20
138.0639126878912
 30
0.0
 10
254.4412252941743
 20
137.6160509951521
 30
0.0
 10
254.2156146150328
 20
137.1538178319681
 30
0.0
 10
253.9856017557743
 20
136.6771520363775
 30
0.0
 10
253.7511877619025
 20
136.1860098756434
 30
0.0
 10
253.5123686549452
 20
135.680338842251
 30
0.0
 10
253.2691594401113
 20
135.1601786883595
 30
0.0
 10
253.0215034081945
 20
134.6252817438479
 30
0.0
 10
252.7696147229402
 20
134.0765490649444
 30
0.0
 10
252.5989920554506
 20
133.7007182362301
 30
0.0
 10
252.5133472279126
 20
133.5120682345495
 30
0.0
  0
SPLINE
  5
197
330
1F
100
AcDbEntity
  8
0
  6
HIDDEN
 62
     7
370
     0
100
AcDbSpline
210
0.0
220
0.0
230
1.0
 70
     8
 71
     3
 72
     8
 73
     4
 74
     0
 42
0.00000001
 43
0.00000001
 40
0.0
 40
0.0
 40
0.0
 40
0.0
 40
1.0
 40
1.0
 40
1.0
 40
1.0
 10
245.3292781229902
 20
140.7435407231628
 30
0.0
 10
249.6845377447185
 20
142.0237965652837
 30
0.0
 10
254.0468613341219
 20
143.2819062223959
 30
0.0
 10
258.4144037787946
 20
144.5236542907181
 30
0.0
  0
SPLINE
  5
198
330
1F
100
AcDbEntity
  8
0
  6
HIDDEN
 62
     7
370
     0
100
AcDbSpline
210
0.0
220
0.0
230
1.0
 70
    11
 71
     3
 72
    34
 73
    30
 74
     0
 42
0.00000001
 43
0.00000001
 40
0.0
 40
0.0
 40
0.0
 40
0.0
 40
0.0127738756313379
 40
0.0481305018861324
 40
0.0807425016923965
 40
0.1375890913626881
 40
0.1884518731192235
 40
0.222671213815065
 40
0.262693837294915
 40
0.298655835981054
 40
0.3315197765429493
 40
0.3878459718944506
 40
0.3881763121922603
 40
0.4440926113325823
 40
0.4768435653244634
 40
0.5126448960710605
 40
0.5530084671478317
 40
0.587385594001605
 40
0.6380121006395929
 40
0.694979626874928
 40
0.7275539945508007
 40
0.7628079420081018
 40
0.802870349397771
 40
0.8370831563378144
 40
0.887774982578559
 40
0.8880425298505078
 40
0.9388397946263365
 40
0.9729712758707717
 40
1.0
 40
1.0
 40
1.0
 40
1.0
 10
179.7253971439726
 20
78.98313070783391
 30
0.0
 10
179.7845907965743
 20
78.98921961162593
 30
0.0
 10
180.0076257070762
 20
79.01216190446677
 30
0.0
 10
180.530978151312
 20
79.04880665702343
 30
0.0
 10
181.4037416224196
 20
79.0764906833315
 30
0.0
 10
182.5185795136348
 20
79.06593510953854
 30
0.0
 10
183.6316449179955
 20
78.94979000967892
 30
0.0
 10
184.5260863957221
 20
78.82819925089075
 30
0.0
 10
185.2099213336582
 20
78.70644057543355
 30
0.0
 10
185.750671798308
 20
78.59008196009842
 30
0.0
 10
186.1641025071019
 20
78.49659869835847
 30
0.0
 10
186.3922510269259
 20
78.42996497695886
 30
0.0
 10
186.2377075453826
 20
78.47122995197822
 30
0.0
 10
186.2108314126836
 20
78.48370003531045
 30
0.0
 10
185.755047943642
 20
78.5892495493343
 30
0.0
 10
185.2311254930431
 20
78.70199540172881
 30
0.0
 10
184.5449154108155
 20
78.82509428006165
 30
0.0
 10
183.6518026705782
 20
78.94708546127846
 30
0.0
 10
182.5383661275327
 20
79.0648380893213
 30
0.0
 10
181.4276155006392
 20
79.07680861409757
 30
0.0
 10
180.5428634358519
 20
79.04975116249202
 30
0.0
 10
179.875667770362
 20
79.00181874591937
 30
0.0
 10
179.3343948802287
 20
78.94552595324738
 30
0.0
 10
178.946815442276
 20
78.90044050869453
 30
0.0
 10
178.7528008221536
 20
78.86156050437148
 30
0.0
 10
178.8791267125879
 20
78.88298428785023
 30
0.0
 10
178.908282753993
 20
78.89290093579606
 30
0.0
 10
179.279780037495
 20
78.94052056491678
 30
0.0
 10
179.5888214773199
 20
78.97007127050423
 30
0.0
 10
179.7253971439726
 20
78.98313070783391
 30
0.0
  0
SPLINE
  5
199
330
1F
100
AcDbEntity
  8
0
  6
HIDDEN
 62
     7
370
     0
100
AcDbSpline
210
0.0
220
0.0
230
1.0
 70
     8
 71
     3
 72
    38
 73
    34
 74
     0
 42
0.00000001
 43
0.00000001
 40
-0.093922140067779
 40
-0.0657752597753781
 40
-0.0344739496007944
 40
0.0
 40
0.0323124298479836
 40
0.060969598257746
 40
0.0859698687835549
 40
0.1073131755946561
 40
0.125001929016961
 40
0.1562358721977444
 40
0.1978507372990771
 40
0.2498168793248351
 40
0.278262948030722
 40
0.3049884159832859
 40
0.330004216891384
 40
0.3533239044418167
 40
0.3749644360933807
 40
0.406026783832292
 40
0.4476555976010197
 40
0.4998320869201297
 40
0.5286685248934815
 40
0.5555536435543463
 40
0.5805015705746596
 40
0.6035302879119623
 40
0.6246629693429199
 40
0.6685312637103241
 40
0.7183269153555462
 40
0.765237570611313
 40
0.7915712044406462
 40
0.8122937035710439
 40
0.8615656629637486
 40
0.906077859932221
 40
0.9342247402246219
 40
0.9655260503992056
 40
1.0
 40
1.032312429847984
 40
1.060969598257746
 40
1.085969868783555
 10
180.5056503956654
 20
125.0537965904004
 30
0.0
 10
179.9015821771561
 20
125.0983300956163
 30
0.0
 10
179.4262671143099
 20
125.1464054818493
 30
0.0
 10
179.10666828831
 20
125.1825682211152
 30
0.0
 10
178.919673882596
 20
125.2089583553036
 30
0.0
 10
178.8313682230437
 20
125.2250279651008
 30
0.0
 10
178.8019547271743
 20
125.2328516503508
 30
0.0
 10
178.8740867972432
 20
125.214684151767
 30
0.0
 10
179.1951987994377
 20
125.1700775718044
 30
0.0
 10
179.7672262896523
 20
125.1093390431337
 30
0.0
 10
180.4177586374085
 20
125.0599948801137
 30
0.0
 10
180.96763476615
 20
125.0376324196343
 30
0.0
 10
181.5230726319281
 20
125.0291502097298
 30
0.0
 10
182.0638481795646
 20
125.0356012958784
 30
0.0
 10
182.6617780743639
 20
125.0590796724801
 30
0.0
 10
183.4014439315308
 20
125.1259995433173
 30
0.0
 10
184.3334935648037
 20
125.2421009772525
 30
0.0
 10
185.1228302984773
 20
125.3774158618438
 30
0.0
 10
185.6617599863147
 20
125.492527685911
 30
0.0
 10
185.9758643262106
 20
125.562301762462
 30
0.0
 10
186.1811446945765
 20
125.6128618479579
 30
0.0
 10
186.2922146806674
 20
125.6435399878646
 30
0.0
 10
186.3384861824713
 20
125.6582670051208
 30
0.0
 10
186.2125213141251
 20
125.6204074115335
 30
0.0
 10
185.742275785252
 20
125.5099216271074
 30
0.0
 10
185.0890778216634
 20
125.3702174087312
 30
0.0
 10
184.4850588661474
 20
125.2670908025859
 30
0.0
 10
183.8107208165091
 20
125.1676547768164
 30
0.0
 10
182.9253713335217
 20
125.0741844425409
 30
0.0
 10
181.9558924429093
 20
125.0271759364681
 30
0.0
 10
181.1675568656423
 20
125.0308601515687
 30
0.0
 10
180.5056503956654
 20
125.0537965904004
 30
0.0
 10
179.9015821771561
 20
125.0983300956163
 30
0.0
 10
179.4262671143099
 20
125.1464054818493
 30
0.0
  0
SPLINE
  5
19A
330
1F
100
AcDbEntity
  8
0
  6
HIDDEN
 62
     7
370
     0
100
AcDbSpline
210
0.0
220
0.0
230
1.0
 70
     8
 71
     3
 72
    40
 73
    36
 74
     0
 42
0.00000001
 43
0.00000001
 40
0.0
 40
0.0
 40
0.0
 40
0.0
 40
0.0625000000000022
 40
0.0625000000000022
 40
0.1250000000000044
 40
0.1250000000000044
 40
0.2500000000000092
 40
0.2500000000000092
 40
0.3125000000000116
 40
0.3125000000000116
 40
0.375000000000014
 40
0.375000000000014
 40
0.4062500000000152
 40
0.4062500000000152
 40
0.4375000000000164
 40
0.4375000000000164
 40
0.4687500000000177
 40
0.4687500000000177
 40
0.5000000000000189
 40
0.5000000000000189
 40
0.5156250000000188
 40
0.5156250000000188
 40
0.5312500000000187
 40
0.5312500000000187
 40
0.5625000000000173
 40
0.5625000000000173
 40
0.6250000000000148
 40
0.6250000000000148
 40
0.6875000000000122
 40
0.6875000000000122
 40
0.7500000000000095
 40
0.7500000000000095
 40
0.8750000000000048
 40
0.8750000000000048
 40
1.0
 40
1.0
 40
1.0
 40
1.0
 10
243.287021061575
 20
125.9896643078751
 30
0.0
 10
243.3352545671906
 20
126.0371650381603
 30
0.0
 10
243.4002751642327
 20
126.0883302752511
 30
0.0
 10
243.5555025871062
 20
126.1951635774873
 30
0.0
 10
243.6462443311767
 20
126.2510554039923
 30
0.0
 10
243.9473457414381
 20
126.418848736296
 30
0.0
 10
244.1851774056602
 20
126.5314539452914
 30
0.0
 10
244.6003658355599
 20
126.6823044375625
 30
0.0
 10
244.7487719489017
 20
126.7295687884147
 30
0.0
 10
245.0724104533704
 20
126.8121925950868
 30
0.0
 10
245.2488109844672
 20
126.8480972562937
 30
0.0
 10
245.5417440449067
 20
126.8824118574057
 30
0.0
 10
245.6436478788789
 20
126.8904910397343
 30
0.0
 10
245.8596124519399
 20
126.8964247945134
 30
0.0
 10
245.97394353239
 20
126.8942457420538
 30
0.0
 10
246.2137079678197
 20
126.8735594827506
 30
0.0
 10
246.3421179109378
 20
126.8546613597473
 30
0.0
 10
246.6051041771994
 20
126.7917565210273
 30
0.0
 10
246.7421623218957
 20
126.7463976328139
 30
0.0
 10
246.9331114515522
 20
126.6604800033216
 30
0.0
 10
246.9957427530454
 20
126.6283255919802
 30
0.0
 10
247.1126270703294
 20
126.5606376609107
 30
0.0
 10
247.167119569862
 20
126.5251256290314
 30
0.0
 10
247.3206289022679
 20
126.4144208412903
 30
0.0
 10
247.4069151944333
 20
126.336948325644
 30
0.0
 10
247.623789761726
 20
126.1113699700715
 30
0.0
 10
247.7226583431671
 20
125.9625244877928
 30
0.0
 10
247.8751758447028
 20
125.6769315666449
 30
0.0
 10
247.9273636044849
 20
125.5410894355526
 30
0.0
 10
248.0048062815465
 20
125.2797428571855
 30
0.0
 10
248.0295830957007
 20
125.1539183322426
 30
0.0
 10
248.0739861607851
 20
124.7950487316249
 30
0.0
 10
248.0649753093462
 20
124.5812628127208
 30
0.0
 10
247.9945683856662
 20
124.2153669994788
 30
0.0
 10
247.9337149875333
 20
124.0620187937647
 30
0.0
 10
247.8362396939072
 20
123.9660243688745
 30
0.0
  0
ELLIPSE
  5
19B
330
1F
100
AcDbEntity
  8
0
  6
HIDDEN
 62
     7
370
     0
100
AcDbEllipse
 10
248.0581342143
 20
129.5111951242
 30
0.0
 11
3.684328008759252
 21
1.552260212524942
 31
0.0
210
0.0
220
0.0
230
0.9999999999999998
 40
0.1042325367
 41
6.027202616309958
 42
9.168795269899894
  0
SPLINE
  5
19C
330
1F
100
AcDbEntity
  8
0
  6
HIDDEN
 62
     7
370
     0
100
AcDbSpline
210
0.0
220
0.0
230
1.0
 70
     8
 71
     3
 72
    64
 73
    60
 74
     0
 42
0.00000001
 43
0.00000001
 40
-0.0312499999999998
 40
-0.0312499999999998
 40
0.0
 40
0.0
 40
0.0312500000000003
 40
0.0312500000000003
 40
0.0625000000000006
 40
0.0625000000000006
 40
0.1250000000000005
 40
0.1250000000000005
 40
0.1562500000000005
 40
0.1562500000000005
 40
0.1875000000000006
 40
0.1875000000000006
 40
0.2187500000000006
 40
0.2187500000000006
 40
0.2500000000000006
 40
0.2500000000000006
 40
0.2812500000000007
 40
0.2812500000000007
 40
0.3125000000000007
 40
0.3125000000000007
 40
0.3750000000000007
 40
0.3750000000000007
 40
0.4062500000000007
 40
0.4062500000000007
 40
0.4375000000000007
 40
0.4375000000000007
 40
0.4687500000000007
 40
0.4687500000000007
 40
0.5000000000000007
 40
0.5000000000000007
 40
0.5312500000000007
 40
0.5312500000000007
 40
0.5625000000000008
 40
0.5625000000000008
 40
0.5937500000000008
 40
0.5937500000000008
 40
0.6250000000000009
 40
0.6250000000000009
 40
0.6562500000000009
 40
0.6562500000000009
 40
0.687500000000001
 40
0.687500000000001
 40
0.718750000000001
 40
0.718750000000001
 40
0.7500000000000011
 40
0.7500000000000011
 40
0.7812500000000011
 40
0.7812500000000011
 40
0.8125000000000012
 40
0.8125000000000012
 40
0.8750000000000011
 40
0.8750000000000011
 40
0.9062500000000008
 40
0.9062500000000008
 40
0.9375000000000006
 40
0.9375000000000006
 40
0.9687500000000002
 40
0.9687500000000002
 40
1.0
 40
1.0
 40
1.03125
 40
1.03125
 10
221.3957255421818
 20
98.54727469765028
 30
0.0
 10
221.7350449207863
 20
98.54727469765028
 30
0.0
 10
221.9007314456194
 20
98.55893487667494
 30
0.0
 10
222.2249675217937
 20
98.60462810568173
 30
0.0
 10
222.3847743575216
 20
98.63928525860297
 30
0.0
 10
222.8339491798638
 20
98.77438317655997
 30
0.0
 10
223.103374395928
 20
98.90812685444519
 30
0.0
 10
223.4414094071251
 20
99.17065322510079
 30
0.0
 10
223.5449655715242
 20
99.27014701062681
 30
0.0
 10
223.7253530621618
 20
99.48811097968616
 30
0.0
 10
223.8024993962245
 20
99.60628729422274
 30
0.0
 10
223.9300198070022
 20
99.8637096896185
 30
0.0
 10
223.9805433670423
 20
100.0048960060438
 30
0.0
 10
224.0474641949689
 20
100.2968225116026
 30
0.0
 10
224.0648232576072
 20
100.4486115896136
 30
0.0
 10
224.0659206342153
 20
100.7646921568017
 30
0.0
 10
224.0491947127421
 20
100.9268713414136
 30
0.0
 10
223.9837904278421
 20
101.2461998575531
 30
0.0
 10
223.9343045761105
 20
101.4070593217826
 30
0.0
 10
223.7436921611617
 20
101.8708284646932
 30
0.0
 10
223.5590963650129
 20
102.1604382266289
 30
0.0
 10
223.2218802208072
 20
102.5312665225308
 30
0.0
 10
223.0978522774212
 20
102.6459982576858
 30
0.0
 10
222.8320214089967
 20
102.8495932088787
 30
0.0
 10
222.691604284769
 20
102.9377644069597
 30
0.0
 10
222.3939708023158
 20
103.0848831842557
 30
0.0
 10
222.2344065780266
 20
103.1442684620442
 30
0.0
 10
221.9087953990181
 20
103.2240540158041
 30
0.0
 10
221.7426831634857
 20
103.2451127247267
 30
0.0
 10
221.4031841162715
 20
103.2463356871758
 30
0.0
 10
221.2365107104137
 20
103.2263974305853
 30
0.0
 10
220.9106056621413
 20
103.1488734031043
 30
0.0
 10
220.7505152529398
 20
103.0905605158688
 30
0.0
 10
220.4501690257974
 20
102.9442180790827
 30
0.0
 10
220.3069055768424
 20
102.8550795495942
 30
0.0
 10
220.0397666795596
 20
102.6519623852908
 30
0.0
 10
219.9168072226383
 20
102.539040555839
 30
0.0
 10
219.6902952410252
 20
102.2917585579162
 30
0.0
 10
219.5864485285861
 20
102.1564101640682
 30
0.0
 10
219.4062919500041
 20
101.8745981866142
 30
0.0
 10
219.3287942521801
 20
101.7270692947596
 30
0.0
 10
219.2003160937124
 20
101.4182441028811
 30
0.0
 10
219.150091277719
 20
101.2573927737709
 30
0.0
 10
219.0833144569479
 20
100.9390743324787
 30
0.0
 10
219.0657777555953
 20
100.7794257384315
 30
0.0
 10
219.0650056086783
 20
100.4598662025348
 30
0.0
 10
219.0817721874461
 20
100.3067835567206
 30
0.0
 10
219.1476784913528
 20
100.0129392276066
 30
0.0
 10
219.1976320624901
 20
99.87131541838447
 30
0.0
 10
219.3887095647634
 20
99.48175650903663
 30
0.0
 10
219.5740116908406
 20
99.26069208309588
 30
0.0
 10
219.9130010692238
 20
98.996744066777
 30
0.0
 10
220.0382079823362
 20
98.91850117022776
 30
0.0
 10
220.303740656459
 20
98.78550248666699
 30
0.0
 10
220.4445354524944
 20
98.7300556297454
 30
0.0
 10
220.7445985054906
 20
98.63960643175345
 30
0.0
 10
220.9048267472118
 20
98.60481224851449
 30
0.0
 10
221.2291141171322
 20
98.55901891927176
 30
0.0
 10
221.3957255421818
 20
98.54727469765028
 30
0.0
 10
221.7350449207863
 20
98.54727469765028
 30
0.0
  0
LINE
  5
19D
330
1F
100
AcDbEntity
  8
0
  6
HIDDEN
 62
     7
370
     0
100
AcDbLine
 10
225.6653852315
 20
106.2507925644
 30
0.0
 11
225.6653852315
 21
97.8507925644
 31
0.0
  0
LINE
  5
19E
330
1F
100
AcDbEntity
  8
0
  6
HIDDEN
 62
     7
370
     0
100
AcDbLine
 10
213.3653852315
 20
97.8507925644
 30
0.0
 11
213.3653852315
 21
106.2317746392
 31
0.0
  0
ELLIPSE
  5
19F
330
1F
100
AcDbEntity
  8
0
  6
HIDDEN
 62
     7
370
     0
100
AcDbEllipse
 10
240.2665711036
 20
117.9841117318
 30
0.0
 11
3.08553303694464
 21
3.038656856958582
 31
0.0
210
0.0
220
0.0
230
0.9999999999999999
 40
0.9698463104
 41
0.0
 42
6.283185307179586
  0
LINE
  5
1A0
330
1F
100
AcDbEntity
  8
0
  6
HIDDEN
 62
     7
370
     0
100
AcDbLine
 10
247.8362396939
 20
123.9660243689
 30
0.0
 11
247.1083352337
 21
123.249178413
 31
0.0
  0
LINE
  5
1A1
330
1F
100
AcDbEntity
  8
0
  6
HIDDEN
 62
     7
370
     0
100
AcDbLine
 10
242.5591166013
 20
125.272818352
 30
0.0
 11
243.2870210616
 21
125.9896643079
 31
0.0
  0
ELLIPSE
  5
1A2
330
1F
100
AcDbEntity
  8
0
  6
HIDDEN
 62
     7
370
     0
100
AcDbEllipse
 10
243.9571192453
 20
121.6185921546
 30
0.0
 11
3.454643233424691
 21
-2.429761823288772
 31
0.0
210
0.0
220
0.0
230
1.0
 40
0.8084054416
 41
1.172145374769728
 42
2.447269216008137
  0
LWPOLYLINE
  5
1A3
330
1F
100
AcDbEntity
  8
0
  6
HIDDEN
 62
     7
370
     0
100
AcDbPolyline
 90
       34
 70
   128
 43
0.0
 10
241.2644958952
 20
123.0383222342
 10
241.3631638605
 20
122.2551757971
 10
241.6076884578
 20
121.5003343128
 10
241.9892319311
 20
120.8010797191
 10
242.4940043051
 20
120.182684899
 10
243.1037617911
 20
119.6675002525
 10
243.7964661648
 20
119.2741458949
 10
244.5470812854
 20
119.0168386778
 10
245.3284779667
 20
118.9048783543
 10
246.1124144966
 20
118.9423114621
 10
246.8705573666
 20
119.1277850713
 10
247.5755053179
 20
119.4545956824
 10
248.2017796948
 20
119.9109315084
 10
248.7267453097
 20
120.4802993835
 10
249.1314285374
 20
121.1421208693
 10
249.4012030717
 20
121.872476013
 10
249.5263185581
 20
122.6449678767
 10
249.5022529968
 20
123.4316765917
 10
249.3298761799
 20
124.2041684553
 10
249.0154182548
 20
124.934523599
 10
248.5702445501
 20
125.5963450848
 10
248.0104448035
 20
126.16571296
 10
247.3562516363
 20
126.6220487859
 10
246.6313092941
 20
126.948859397
 10
245.8618190819
 20
127.1343330062
 10
245.0755923809
 20
127.1717661141
 10
244.3010454726
 20
127.0598057905
 10
243.5661725003
 20
126.8024985734
 10
242.8975336878
 20
126.4091442159
 10
242.3192953841
 20
125.8939595693
 10
241.852356628
 20
125.2755647492
 10
241.5135938027
 20
124.5763101556
 10
241.3152506793
 20
123.8214686712
 10
241.2644958952
 20
123.0383222342
  0
LINE
  5
1A4
330
1F
100
AcDbEntity
  8
0
  6
HIDDEN
 62
     7
370
     0
100
AcDbLine
 10
247.1083352337
 20
123.249178413
 30
0.0
 11
248.5416037162
 21
127.5695625539
 31
0.0
  0
LINE
  5
1A5
330
1F
100
AcDbEntity
  8
0
  6
HIDDEN
 62
     7
370
     0
100
AcDbLine
 10
252.0669344314
 20
133.5240268914
 30
0.0
 11
251.5289397094
 21
132.9942055181
 31
0.0
  0
LINE
  5
1A6
330
1F
100
AcDbEntity
  8
0
  6
HIDDEN
 62
     7
370
     0
100
AcDbLine
 10
250.4863098261
 20
129.7564584541
 30
0.0
 11
252.0669344314
 21
133.5240268914
 31
0.0
  0
LINE
  5
1A7
330
1F
100
AcDbEntity
  8
0
  6
HIDDEN
 62
     7
370
     0
100
AcDbLine
 10
251.6633743454
 20
130.9156407184
 30
0.0
 11
250.4863098261
 21
129.7564584541
 31
0.0
  0
LWPOLYLINE
  5
1A8
330
1F
100
AcDbEntity
  8
0
  6
HIDDEN
 62
     7
370
     0
100
AcDbPolyline
 90
        2
 70
   128
 43
0.0
 10
196.5153852315
 20
75.6507925644
 10
196.5153852315
 20
75.6507925644
  0
LINE
  5
1A9
330
1F
100
AcDbEntity
  8
0
  6
HIDDEN
 62
     7
370
     0
100
AcDbLine
 10
196.5153852315
 20
70.5666695815
 30
0.0
 11
196.5153852315
 21
75.6507925644
 31
0.0
  0
LINE
  5
1AA
330
1F
100
AcDbEntity
  8
0
  6
HIDDEN
 62
     7
370
     0
100
AcDbLine
 10
196.5153852315
 20
75.6507925644
 30
0.0
 11
204.5153852315
 21
75.6507925644
 31
0.0
  0
LWPOLYLINE
  5
1AB
330
1F
100
AcDbEntity
  8
0
  6
HIDDEN
 62
     7
370
     0
100
AcDbPolyline
 90
       26
 70
   128
 43
0.0
 10
221.5653852315
 20
93.6479516501
 10
222.1871099494
 20
93.7217570792
 10
222.7697694167
 20
93.9385359001
 10
223.2767529963
 20
94.2846671021
 10
223.6762050452
 20
94.7384019889
 10
223.9430265222
 20
95.2712307288
 10
224.0604520526
 20
95.8496737324
 10
224.0211033583
 20
96.4373852985
 10
223.8274528626
 20
96.9974373479
 10
223.4916683384
 20
97.4946397507
 10
223.0348483622
 20
97.8977514513
 10
222.4856966132
 20
98.181443459
 10
221.8787183154
 20
98.3278903615
 10
221.2520521476
 20
98.3278903615
 10
220.6450738498
 20
98.181443459
 10
220.0959221008
 20
97.8977514513
 10
219.6391021245
 20
97.4946397507
 10
219.3033176003
 20
96.9974373479
 10
219.1096671047
 20
96.4373852985
 10
219.0703184104
 20
95.8496737324
 10
219.1877439407
 20
95.2712307288
 10
219.4545654177
 20
94.7384019889
 10
219.8540174667
 20
94.2846671021
 10
220.3610010462
 20
93.9385359001
 10
220.9436605136
 20
93.7217570792
 10
221.5653852315
 20
93.6479516501
  0
ARC
  5
1AC
330
1F
100
AcDbEntity
  8
0
  6
HIDDEN
 62
     7
370
     0
100
AcDbCircle
 10
250.583430533
 20
136.3142815703
 30
0.0
 40
3.160111546996175
100
AcDbArc
 50
297.9983858281
 51
194.0395161237
  0
LINE
  5
1AD
330
1F
100
AcDbEntity
  8
0
  6
HIDDEN
 62
     7
370
     0
100
AcDbLine
 10
247.517715799
 20
135.5476668304
 30
0.0
 11
244.3559354352
 21
128.0112639016
 31
0.0
  0
LINE
  5
1AE
330
1F
100
AcDbEntity
  8
0
  6
HIDDEN
 62
     7
370
     0
100
AcDbLine
 10
258.9671650138
 20
143.9524417124
 30
0.0
 11
258.414932769
 21
144.525307671
 31
0.0
  0
LINE
  5
1AF
330
1F
100
AcDbEntity
  8
0
  6
HIDDEN
 62
     7
370
     0
100
AcDbLine
 10
245.329278123
 20
140.7435407232
 30
0.0
 11
242.4870421342
 21
131.8161458566
 31
0.0
  0
LINE
  5
1B0
330
1F
100
AcDbEntity
  8
0
  6
HIDDEN
 62
     7
370
     0
100
AcDbLine
 10
240.779168775
 20
126.9930302191
 30
0.0
 11
244.3559354352
 21
128.0112639016
 31
0.0
  0
LINE
  5
1B1
330
1F
100
AcDbEntity
  8
0
  6
HIDDEN
 62
     7
370
     0
100
AcDbLine
 10
250.4863098261
 20
129.7564584541
 30
0.0
 11
254.8423550839
 21
130.9965371131
 31
0.0
  0
LINE
  5
1B2
330
1F
100
AcDbEntity
  8
0
  6
HIDDEN
 62
     7
370
     0
100
AcDbLine
 10
254.8423550839
 20
130.9965371131
 30
0.0
 11
258.9671539227
 21
143.9524310375
 31
0.0
  0
LINE
  5
1B3
330
1F
100
AcDbEntity
  8
0
  6
HIDDEN
 62
     7
370
     0
100
AcDbLine
 10
244.3559354352
 20
128.0112639016
 30
0.0
 11
244.4528940833
 21
128.1067495299
 31
0.0
  0
LINE
  5
1B4
330
1F
100
AcDbEntity
  8
0
  6
HIDDEN
 62
     7
370
     0
100
AcDbLine
 10
165.7653852315
 20
120.0407925644
 30
0.0
 11
165.7653852315
 21
118.3383061868
 31
0.0
  0
LINE
  5
1B5
330
1F
100
AcDbEntity
  8
0
  6
HIDDEN
 62
     7
370
     0
100
AcDbLine
 10
169.7653852315
 20
84.0607925644
 30
0.0
 11
169.7653852315
 21
85.763278942
 31
0.0
  0
LINE
  5
1B6
330
1F
100
AcDbEntity
  8
0
  6
HIDDEN
 62
     7
370
     0
100
AcDbLine
 10
165.7653852315
 20
120.0407925644
 30
0.0
 11
165.7653852315
 21
123.8949002367
 31
0.0
  0
LINE
  5
1B7
330
1F
100
AcDbEntity
  8
0
  6
HIDDEN
 62
     7
370
     0
100
AcDbLine
 10
169.7653852315
 20
84.0607925644
 30
0.0
 11
169.7653852315
 21
80.1056443051
 31
0.0
  0
SPLINE
  5
1B8
330
1F
100
AcDbEntity
  8
0
  6
HIDDEN
 62
     7
370
     0
100
AcDbSpline
210
0.0
220
0.0
230
1.0
 70
     8
 71
     3
 72
    10
 73
     6
 74
     0
 42
0.00000001
 43
0.00000001
 40
0.0
 40
0.0
 40
0.0
 40
0.0
 40
0.5
 40
0.5
 40
1.0
 40
1.0
 40
1.0
 40
1.0
 10
251.528939709384
 20
132.9942055181129
 30
0.0
 10
251.4547606161654
 20
132.9211533719998
 30
0.0
 10
251.3375673466095
 20
132.8256754027194
 30
0.0
 10
251.0630077787919
 20
132.6221137096457
 30
0.0
 10
250.9038197417103
 20
132.5131699965571
 30
0.0
 10
250.7264387748046
 20
132.4046339932879
 30
0.0
  0
ARC
  5
1B9
330
1F
100
AcDbEntity
  8
0
  6
HIDDEN
 62
     7
370
     0
100
AcDbCircle
 10
249.6226222806
 20
135.3671524182
 30
0.0
 40
3.161475331378083
100
AcDbArc
 50
290.4350901053
 51
201.6028118465
  0
SPLINE
  5
1BA
330
1F
100
AcDbEntity
  8
0
  6
HIDDEN
 62
     7
370
     0
100
AcDbSpline
210
0.0
220
0.0
230
1.0
 70
     8
 71
     3
 72
    10
 73
     6
 74
     0
 42
0.00000001
 43
0.00000001
 40
0.0
 40
0.0
 40
0.0
 40
0.0
 40
0.5
 40
0.5
 40
1.0
 40
1.0
 40
1.0
 40
1.0
 10
246.6832139757613
 20
134.2031914702906
 30
0.0
 10
246.7086332456018
 20
134.3793501300645
 30
0.0
 10
246.747320307502
 20
134.5419078942385
 30
0.0
 10
246.8460111018724
 20
134.8236945042505
 30
0.0
 10
246.9054548459611
 20
134.944707496949
 30
0.0
 10
246.9797210770514
 20
135.0178454571139
 30
0.0
  0
LINE
  5
1BB
330
1F
100
AcDbEntity
  8
0
  6
HIDDEN
 62
     7
370
     0
100
AcDbLine
 10
246.9797210771
 20
135.0178454571
 30
0.0
 11
247.517715799
 21
135.5476668304
 31
0.0
  0
LWPOLYLINE
  5
1BC
330
1F
100
AcDbEntity
  8
0
  6
HIDDEN
 62
     7
370
     0
100
AcDbPolyline
 90
        2
 70
   128
 43
0.0
 10
217.5153852315
 20
128.4507925644
 10
217.5153852315
 20
128.4507925644
  0
LWPOLYLINE
  5
1BD
330
1F
100
AcDbEntity
  8
0
  6
HIDDEN
 62
     7
370
     0
100
AcDbPolyline
 90
        2
 70
   128
 43
0.0
 10
217.5153852315
 20
75.6507925644
 10
217.5153852315
 20
75.6507925644
  0
LINE
  5
1BE
330
1F
100
AcDbEntity
  8
0
  6
HIDDEN
 62
     7
370
     0
100
AcDbLine
 10
160.8153852315
 20
120.0407925644
 30
0.0
 11
160.8153852315
 21
122.9207303298
 31
0.0
  0
LINE
  5
1BF
330
1F
100
AcDbEntity
  8
0
  6
HIDDEN
 62
     7
370
     0
100
AcDbLine
 10
160.8153852315
 20
120.0407925644
 30
0.0
 11
160.8153852315
 21
117.8522830004
 31
0.0
  0
ELLIPSE
  5
1C0
330
1F
100
AcDbEntity
  8
0
  6
HIDDEN
 62
     7
370
     0
100
AcDbEllipse
 10
155.4979533671
 20
102.0507925644
 30
0.0
 11
20.07002071827051
 21
0.0
 31
0.0
210
0.0
220
0.0
230
1.0
 40
0.8164965809
 41
1.302650465081196
 42
1.361629843993897
  0
LINE
  5
1C1
330
1F
100
AcDbEntity
  8
0
  6
HIDDEN
 62
     7
370
     0
100
AcDbLine
 10
159.6653852315
 20
120.0407925644
 30
0.0
 11
159.6653852315
 21
118.0807279622
 31
0.0
  0
ELLIPSE
  5
1C2
330
1F
100
AcDbEntity
  8
0
  6
HIDDEN
 62
     7
370
     0
100
AcDbEllipse
 10
155.4979533671
 20
102.0507925644
 30
0.0
 11
20.07002071827054
 21
-1.421085471520200E-14
 31
0.0
210
0.0
220
0.0
230
1.0
 40
0.8164965809
 41
4.9215554631857
 42
4.980534842098403
  0
LINE
  5
1C3
330
1F
100
AcDbEntity
  8
0
  6
HIDDEN
 62
     7
370
     0
100
AcDbLine
 10
159.6653852315
 20
118.0807279622
 30
0.0
 11
159.6653852315
 21
86.0208571665
 31
0.0
  0
SPLINE
  5
1C4
330
1F
100
AcDbEntity
  8
0
  6
HIDDEN
 62
     7
370
     0
100
AcDbSpline
210
0.0
220
0.0
230
1.0
 70
     8
 71
     3
 72
    10
 73
     6
 74
     0
 42
0.00000001
 43
0.00000001
 40
0.0
 40
0.0
 40
0.0
 40
0.0
 40
0.5
 40
0.5
 40
1.0
 40
1.0
 40
1.0
 40
1.0
 10
160.8053403010658
 20
122.9107464566606
 30
0.0
 10
160.7377810461476
 20
122.8430550638508
 30
0.0
 10
160.6741443908111
 20
122.7683478990972
 30
0.0
 10
160.5639236362392
 20
122.6093817666706
 30
0.0
 10
160.5171073430166
 20
122.5250265006626
 30
0.0
 10
160.4895388775886
 20
122.4409118979708
 30
0.0
  0
LINE
  5
1C5
330
1F
100
AcDbEntity
  8
0
  6
HIDDEN
 62
     7
370
     0
100
AcDbLine
 10
159.6653852315
 20
120.0407925644
 30
0.0
 11
159.6653852315
 21
121.7414703109
 31
0.0
  0
SPLINE
  5
1C6
330
1F
100
AcDbEntity
  8
0
  6
HIDDEN
 62
     7
370
     0
100
AcDbSpline
210
0.0
220
0.0
230
1.0
 70
     8
 71
     3
 72
    10
 73
     6
 74
     0
 42
0.00000001
 43
0.00000001
 40
0.0
 40
0.0
 40
0.0
 40
0.0
 40
0.5
 40
0.5
 40
1.0
 40
1.0
 40
1.0
 40
1.0
 10
159.7280486062074
 20
121.7253451091537
 30
0.0
 10
159.7191443170987
 20
121.7710866283669
 30
0.0
 10
159.7026289369057
 20
121.7882774678359
 30
0.0
 10
159.6755209908441
 20
121.7879541909002
 30
0.0
 10
159.665385231484
 20
121.7700766486037
 30
0.0
 10
159.665385231484
 20
121.7414703108511
 30
0.0
  0
LINE
  5
1C7
330
1F
100
AcDbEntity
  8
0
  6
HIDDEN
 62
     7
370
     0
100
AcDbLine
 10
160.8153852315
 20
84.0607925644
 30
0.0
 11
160.8153852315
 21
86.2493021283
 31
0.0
  0
LINE
  5
1C8
330
1F
100
AcDbEntity
  8
0
  6
HIDDEN
 62
     7
370
     0
100
AcDbLine
 10
159.6653852315
 20
84.0607925644
 30
0.0
 11
159.6653852315
 21
86.0208571665
 31
0.0
  0
SPLINE
  5
1C9
330
1F
100
AcDbEntity
  8
0
  6
HIDDEN
 62
     7
370
     0
100
AcDbSpline
210
0.0
220
0.0
230
1.0
 70
     8
 71
     3
 72
     8
 73
     4
 74
     0
 42
0.00000001
 43
0.00000001
 40
0.0
 40
0.0
 40
0.0
 40
0.0
 40
1.0
 40
1.0
 40
1.0
 40
1.0
 10
160.6042948016832
 20
81.60687026140737
 30
0.0
 10
160.6400084600531
 20
81.48363875614756
 30
0.0
 10
160.7156764990014
 20
81.36269517920056
 30
0.0
 10
160.8053403010745
 20
81.2559761354973
 30
0.0
  0
SPLINE
  5
1CA
330
1F
100
AcDbEntity
  8
0
  6
HIDDEN
 62
     7
370
     0
100
AcDbSpline
210
0.0
220
0.0
230
1.0
 70
     8
 71
     3
 72
    10
 73
     6
 74
     0
 42
0.00000001
 43
0.00000001
 40
0.0
 40
0.0
 40
0.0
 40
0.0
 40
0.5
 40
0.5
 40
1.0
 40
1.0
 40
1.0
 40
1.0
 10
159.6653852314836
 20
82.39763203942006
 30
0.0
 10
159.6653852314836
 20
82.3841155135523
 30
0.0
 10
159.6707047921118
 20
82.379944741195
 30
0.0
 10
159.6838330243934
 20
82.39807578458259
 30
0.0
 10
159.6915256790475
 20
82.42098420964453
 30
0.0
 10
159.6956628470926
 20
82.4607050041461
 30
0.0
  0
LINE
  5
1CB
330
1F
100
AcDbEntity
  8
0
  6
HIDDEN
 62
     7
370
     0
100
AcDbLine
 10
159.6653852315
 20
84.0607925644
 30
0.0
 11
159.6653852315
 21
82.3976320394
 31
0.0
  0
LINE
  5
1CC
330
1F
100
AcDbEntity
  8
0
  6
HIDDEN
 62
     7
370
     0
100
AcDbLine
 10
160.8153852315
 20
84.0607925644
 30
0.0
 11
160.8153852315
 21
81.2441610058
 31
0.0
  0
SPLINE
  5
1CD
330
1F
100
AcDbEntity
  8
0
  6
HIDDEN
 62
     7
370
     0
100
AcDbSpline
210
0.0
220
0.0
230
1.0
 70
     8
 71
     3
 72
    10
 73
     6
 74
     0
 42
0.00000001
 43
0.00000001
 40
0.0
 40
0.0
 40
0.0
 40
0.0
 40
0.5
 40
0.5
 40
1.0
 40
1.0
 40
1.0
 40
1.0
 10
207.655385231484
 20
129.1704464154087
 30
0.0
 10
207.655385231484
 20
129.0268340638507
 30
0.0
 10
207.6915525065819
 20
128.8838606501321
 30
0.0
 10
207.8273084503358
 20
128.6338680234184
 30
0.0
 10
207.9275781409587
 20
128.5258657141396
 30
0.0
 10
208.0496827631751
 20
128.4507925643729
 30
0.0
  0
LINE
  5
1CE
330
1F
100
AcDbEntity
  8
0
  6
HIDDEN
 62
     7
370
     0
100
AcDbLine
 10
207.6553852315
 20
129.1704464154
 30
0.0
 11
207.6553852315
 21
75.246396936
 31
0.0
  0
SPLINE
  5
1CF
330
1F
100
AcDbEntity
  8
0
  6
HIDDEN
 62
     7
370
     0
100
AcDbSpline
210
0.0
220
0.0
230
1.0
 70
     8
 71
     3
 72
    10
 73
     6
 74
     0
 42
0.00000001
 43
0.00000001
 40
0.0
 40
0.0
 40
0.0
 40
0.0
 40
0.5
 40
0.5
 40
1.0
 40
1.0
 40
1.0
 40
1.0
 10
207.655385231484
 20
75.24639693604364
 30
0.0
 10
207.655385231484
 20
75.31663329641415
 30
0.0
 10
207.6636678435745
 20
75.38662739791141
 30
0.0
 10
207.6967677866328
 20
75.52358666246987
 30
0.0
 10
207.7211051785912
 20
75.58889457172495
 30
0.0
 10
207.7530600338156
 20
75.65079256437167
 30
0.0
  0
SPLINE
  5
1D0
330
1F
100
AcDbEntity
  8
0
  6
HIDDEN
 62
     7
370
     0
100
AcDbSpline
210
0.0
220
0.0
230
1.0
 70
    24
 71
     3
 72
    12
 73
     8
 74
     0
 42
0.00000001
 43
0.00000001
 40
0.0
 40
0.0
 40
0.0
 40
0.0
 40
0.5
 40
0.5
 40
0.75
 40
0.75
 40
1.0
 40
1.0
 40
1.0
 40
1.0
 10
208.049682763175
 20
128.450792564373
 30
0.0
 10
208.0928061116086
 20
128.450792564373
 30
0.0
 10
208.1425456989088
 20
128.450792564373
 30
0.0
 10
208.2390666757308
 20
128.450792564373
 30
0.0
 10
208.2746318065824
 20
128.450792564373
 30
0.0
 10
208.3579801372053
 20
128.450792564373
 30
0.0
 10
208.4064500368957
 20
128.450792564373
 30
0.0
 10
208.4553852314853
 20
128.450792564373
 30
0.0
  0
SPLINE
  5
1D1
330
1F
100
AcDbEntity
  8
0
  6
HIDDEN
 62
     7
370
     0
100
AcDbSpline
210
0.0
220
0.0
230
1.0
 70
    24
 71
     3
 72
    14
 73
    10
 74
     0
 42
0.00000001
 43
0.00000001
 40
0.0
 40
0.0
 40
0.0
 40
0.0
 40
0.5000000000000013
 40
0.5000000000000013
 40
0.750000000000002
 40
0.750000000000002
 40
0.875000000000001
 40
0.875000000000001
 40
1.0
 40
1.0
 40
1.0
 40
1.0
 10
207.7530600338162
 20
75.65079256437296
 30
0.0
 10
207.800266521656
 20
75.65079256437296
 30
0.0
 10
207.8636065250854
 20
75.65079256437296
 30
0.0
 10
208.0066696313412
 20
75.65079256437296
 30
0.0
 10
208.0627502816122
 20
75.65079256437295
 30
0.0
 10
208.1741856315216
 20
75.65079256437296
 30
0.0
 10
208.2161304221946
 20
75.65079256437295
 30
0.0
 10
208.3211268652147
 20
75.65079256437295
 30
0.0
 10
208.3866908022954
 20
75.65079256437296
 30
0.0
 10
208.4553852314839
 20
75.65079256437296
 30
0.0
  0
LINE
  5
1D2
330
1F
100
AcDbEntity
  8
0
  6
HIDDEN
 62
     7
370
     0
100
AcDbLine
 10
211.4753852315
 20
129.1704464154
 30
0.0
 11
211.4753852315
 21
75.246396936
 31
0.0
  0
SPLINE
  5
1D3
330
1F
100
AcDbEntity
  8
0
  6
HIDDEN
 62
     7
370
     0
100
AcDbSpline
210
0.0
220
0.0
230
1.0
 70
     8
 71
     3
 72
    10
 73
     6
 74
     0
 42
0.00000001
 43
0.00000001
 40
0.0
 40
0.0
 40
0.0
 40
0.0
 40
0.5
 40
0.5
 40
1.0
 40
1.0
 40
1.0
 40
1.0
 10
211.0810876997931
 20
128.450792564373
 30
0.0
 10
211.2024002228908
 20
128.5253787106612
 30
0.0
 10
211.303828585116
 20
128.6342030218126
 30
0.0
 10
211.4397721513761
 20
128.8852235404343
 30
0.0
 10
211.4753852314841
 20
129.0278062335735
 30
0.0
 10
211.4753852314841
 20
129.1704464154088
 30
0.0
  0
SPLINE
  5
1D4
330
1F
100
AcDbEntity
  8
0
  6
HIDDEN
 62
     7
370
     0
100
AcDbSpline
210
0.0
220
0.0
230
1.0
 70
     8
 71
     3
 72
    10
 73
     6
 74
     0
 42
0.00000001
 43
0.00000001
 40
0.0
 40
0.0
 40
0.0
 40
0.0
 40
0.5
 40
0.5
 40
1.0
 40
1.0
 40
1.0
 40
1.0
 10
211.3777104291518
 20
75.65079256437296
 30
0.0
 10
211.4098656167738
 20
75.58850651885683
 30
0.0
 10
211.434521847968
 20
75.52197609398759
 30
0.0
 10
211.4673346048935
 20
75.38511746362508
 30
0.0
 10
211.4753852314841
 20
75.31605986844673
 30
0.0
 10
211.4753852314841
 20
75.24639693604338
 30
0.0
  0
SPLINE
  5
1D5
330
1F
100
AcDbEntity
  8
0
  6
HIDDEN
 62
     7
370
     0
100
AcDbSpline
210
0.0
220
0.0
230
1.0
 70
    24
 71
     3
 72
    12
 73
     8
 74
     0
 42
0.00000001
 43
0.00000001
 40
0.0
 40
0.0
 40
0.0
 40
0.0
 40
0.2500000000000008
 40
0.2500000000000008
 40
0.5000000000000017
 40
0.5000000000000017
 40
1.0
 40
1.0
 40
1.0
 40
1.0
 10
210.6753852314841
 20
128.450792564373
 30
0.0
 10
210.724920337702
 20
128.450792564373
 30
0.0
 10
210.7733252263035
 20
128.450792564373
 30
0.0
 10
210.8562117754812
 20
128.450792564373
 30
0.0
 10
210.8927264969495
 20
128.450792564373
 30
0.0
 10
210.9890593353041
 20
128.450792564373
 30
0.0
 10
211.0378118829668
 20
128.450792564373
 30
0.0
 10
211.0810876997975
 20
128.450792564373
 30
0.0
  0
SPLINE
  5
1D6
330
1F
100
AcDbEntity
  8
0
  6
HIDDEN
 62
     7
370
     0
100
AcDbSpline
210
0.0
220
0.0
230
1.0
 70
    24
 71
     3
 72
    14
 73
    10
 74
     0
 42
0.00000001
 43
0.00000001
 40
0.0
 40
0.0
 40
0.0
 40
0.0
 40
0.125000000000001
 40
0.125000000000001
 40
0.2500000000000021
 40
0.2500000000000021
 40
0.5000000000000007
 40
0.5000000000000007
 40
1.0
 40
1.0
 40
1.0
 40
1.0
 10
210.6753852314841
 20
75.65079256437296
 30
0.0
 10
210.744481863828
 20
75.65079256437295
 30
0.0
 10
210.809475029436
 20
75.65079256437296
 30
0.0
 10
210.9137962280811
 20
75.65079256437296
 30
0.0
 10
210.9565766021896
 20
75.65079256437296
 30
0.0
 10
211.0689142618358
 20
75.65079256437295
 30
0.0
 10
211.1239614439782
 20
75.65079256437295
 30
0.0
 10
211.2678382177483
 20
75.65079256437295
 30
0.0
 10
211.3308675310233
 20
75.65079256437296
 30
0.0
 10
211.3777104291518
 20
75.65079256437296
 30
0.0
  0
LINE
  5
1D7
330
1F
100
AcDbEntity
  8
0
  6
HIDDEN
 62
     7
370
     0
100
AcDbLine
 10
208.4553852315
 20
128.4507925644
 30
0.0
 11
210.6753852315
 21
128.4507925644
 31
0.0
  0
LINE
  5
1D8
330
1F
100
AcDbEntity
  8
0
  6
HIDDEN
 62
     7
370
     0
100
AcDbLine
 10
208.4553852315
 20
75.6507925644
 30
0.0
 11
210.6753852315
 21
75.6507925644
 31
0.0
  0
LINE
  5
1D9
330
1F
100
AcDbEntity
  8
0
  6
HIDDEN
 62
     7
370
     0
100
AcDbLine
 10
207.6553852315
 20
129.8560267555
 30
0.0
 11
207.6553852315
 21
129.1704464154
 31
0.0
  0
SPLINE
  5
1DA
330
1F
100
AcDbEntity
  8
0
  6
HIDDEN
 62
     7
370
     0
100
AcDbSpline
210
0.0
220
0.0
230
1.0
 70
     8
 71
     3
 72
     8
 73
     4
 74
     0
 42
0.00000001
 43
0.00000001
 40
0.0
 40
0.0
 40
0.0
 40
0.0
 40
1.0
 40
1.0
 40
1.0
 40
1.0
 10
206.173452399995
 20
132.5179880375372
 30
0.0
 10
206.6685924293593
 20
131.6313083893569
 30
0.0
 10
207.1626751346383
 20
130.744045753671
 30
0.0
 10
207.655385231484
 20
129.8560267555446
 30
0.0
  0
LINE
  5
1DB
330
1F
100
AcDbEntity
  8
0
  6
HIDDEN
 62
     7
370
     0
100
AcDbLine
 10
204.5153852315
 20
128.4507925644
 30
0.0
 11
208.0496827632
 21
128.4507925644
 31
0.0
  0
LINE
  5
1DC
330
1F
100
AcDbEntity
  8
0
  6
HIDDEN
 62
     7
370
     0
100
AcDbLine
 10
211.4753852315
 20
129.1704464154
 30
0.0
 11
211.4753852315
 21
129.8560267555
 31
0.0
  0
SPLINE
  5
1DD
330
1F
100
AcDbEntity
  8
0
  6
HIDDEN
 62
     7
370
     0
100
AcDbSpline
210
0.0
220
0.0
230
1.0
 70
     8
 71
     3
 72
     8
 73
     4
 74
     0
 42
0.00000001
 43
0.00000001
 40
0.0
 40
0.0
 40
0.0
 40
0.0
 40
1.0
 40
1.0
 40
1.0
 40
1.0
 10
211.4753852314841
 20
129.8560267555446
 30
0.0
 10
211.9680953283298
 20
130.744045753671
 30
0.0
 10
212.4621780336088
 20
131.631308389357
 30
0.0
 10
212.9573180629731
 20
132.5179880375372
 30
0.0
  0
SPLINE
  5
1DE
330
1F
100
AcDbEntity
  8
0
  6
HIDDEN
 62
     7
370
     0
100
AcDbSpline
210
0.0
220
0.0
230
1.0
 70
     8
 71
     3
 72
    12
 73
     8
 74
     0
 42
0.00000001
 43
0.00000001
 40
0.0
 40
0.0
 40
0.0
 40
0.0
 40
0.2500000000000038
 40
0.2500000000000038
 40
0.5000000000000077
 40
0.5000000000000077
 40
1.0
 40
1.0
 40
1.0
 40
1.0
 10
216.9153852314841
 20
132.5179880375372
 30
0.0
 10
216.9948781805323
 20
132.5179880375372
 30
0.0
 10
217.0759616818879
 20
132.5009852875764
 30
0.0
 10
217.2223920790256
 20
132.4369247464647
 30
0.0
 10
217.2889406888994
 20
132.3897661308262
 30
0.0
 10
217.453230562873
 20
132.2165440981339
 30
0.0
 10
217.5153852314842
 20
132.0564350078997
 30
0.0
 10
217.5153852314841
 20
131.8972328881363
 30
0.0
  0
LINE
  5
1DF
330
1F
100
AcDbEntity
  8
0
  6
HIDDEN
 62
     7
370
     0
100
AcDbLine
 10
212.957318063
 20
132.5179880375
 30
0.0
 11
216.9153852315
 21
132.5179880375
 31
0.0
  0
LINE
  5
1E0
330
1F
100
AcDbEntity
  8
0
  6
HIDDEN
 62
     7
370
     0
100
AcDbLine
 10
217.5153852315
 20
131.8972328881
 30
0.0
 11
217.5153852315
 21
128.4507925644
 31
0.0
  0
LINE
  5
1E1
330
1F
100
AcDbEntity
  8
0
  6
HIDDEN
 62
     7
370
     0
100
AcDbLine
 10
211.0810876998
 20
128.4507925644
 30
0.0
 11
217.5153852315
 21
128.4507925644
 31
0.0
  0
SPLINE
  5
1E2
330
1F
100
AcDbEntity
  8
0
  6
HIDDEN
 62
     7
370
     0
100
AcDbSpline
210
0.0
220
0.0
230
1.0
 70
     8
 71
     3
 72
    12
 73
     8
 74
     0
 42
0.00000001
 43
0.00000001
 40
0.0
 40
0.0
 40
0.0
 40
0.0
 40
0.249999999999998
 40
0.249999999999998
 40
0.499999999999996
 40
0.499999999999996
 40
1.0
 40
1.0
 40
1.0
 40
1.0
 10
216.915385231484
 20
71.86387486812582
 30
0.0
 10
216.9952662362312
 20
71.86387486812583
 30
0.0
 10
217.0758603665018
 20
71.88099195439167
 30
0.0
 10
217.2224758123467
 20
71.94572806586677
 30
0.0
 10
217.2889770050907
 20
71.9931853087471
 30
0.0
 10
217.4547119062279
 20
72.17000975128657
 30
0.0
 10
217.5153852314841
 20
72.3302862584923
 30
0.0
 10
217.5153852314841
 20
72.49051516378006
 30
0.0
  0
LINE
  5
1E3
330
1F
100
AcDbEntity
  8
0
  6
HIDDEN
 62
     7
370
     0
100
AcDbLine
 10
217.5153852315
 20
131.8972328881
 30
0.0
 11
217.5153852315
 21
72.4905151638
 31
0.0
  0
LINE
  5
1E4
330
1F
100
AcDbEntity
  8
0
  6
HIDDEN
 62
     7
370
     0
100
AcDbLine
 10
212.957318063
 20
132.5179880375
 30
0.0
 11
212.957318063
 21
71.8638748681
 31
0.0
  0
LINE
  5
1E5
330
1F
100
AcDbEntity
  8
0
  6
HIDDEN
 62
     7
370
     0
100
AcDbLine
 10
207.6553852315
 20
129.8560267555
 30
0.0
 11
207.6553852315
 21
74.5529554053
 31
0.0
  0
LINE
  5
1E6
330
1F
100
AcDbEntity
  8
0
  6
HIDDEN
 62
     7
370
     0
100
AcDbLine
 10
211.4753852315
 20
129.8560267555
 30
0.0
 11
211.4753852315
 21
74.5529554053
 31
0.0
  0
ELLIPSE
  5
1E7
330
1F
100
AcDbEntity
  8
0
  6
HIDDEN
 62
     7
370
     0
100
AcDbEllipse
 10
248.1839303323
 20
132.0623076827
 30
0.0
 11
0.9892552878007735
 21
2.767832732244301
 31
0.0
210
0.0
220
0.0
230
0.9999999999999999
 40
0.8462894042
 41
5.124775155907965
 42
7.314099526451123
  0
LWPOLYLINE
  5
1E8
330
1F
100
AcDbEntity
  8
0
  6
HIDDEN
 62
     7
370
     0
100
AcDbPolyline
 90
       13
 70
   128
 43
0.0
 10
248.5416037162
 20
127.5695625539
 10
248.6034310825
 20
128.0240384046
 10
248.5060341502
 20
128.516496336
 10
248.256050359
 20
129.0133761538
 10
247.8705156913
 20
129.4808163196
 10
247.3757036975
 20
129.8869615586
 10
246.8053349973
 20
130.2041337439
 10
246.1982792751
 20
130.4107181152
 10
245.5959063751
 20
130.4926362891
 10
245.039267015
 20
130.4443056773
 10
244.5662952472
 20
130.2690199313
 10
244.2092233161
 20
129.9787244848
 10
243.9923850838
 20
129.5932024929
  0
SPLINE
  5
1E9
330
1F
100
AcDbEntity
  8
0
  6
HIDDEN
 62
     7
370
     0
100
AcDbSpline
210
0.0
220
0.0
230
1.0
 70
     8
 71
     3
 72
    33
 73
    29
 74
     0
 42
0.00000001
 43
0.00000001
 40
0.0
 40
0.0
 40
0.0
 40
0.0
 40
0.0298923457205954
 40
0.0597210661872439
 40
0.0894935007872919
 40
0.1192170306027356
 40
0.1488990731992956
 40
0.1785470772814806
 40
0.2081685172321203
 40
0.2377708875558006
 40
0.267361697246483
 40
0.2969484641002451
 40
0.3265387089945744
 40
0.3561399501559316
 40
0.3857596974374017
 40
0.4154054466281757
 40
0.4450846738163161
 40
0.4748048298257849
 40
0.5045733347480669
 40
0.5606325654044388
 40
0.6163166376939868
 40
0.6716767720464603
 40
0.7267650924793154
 40
0.7816344976566539
 40
0.8363385213178964
 40
0.8909311837255632
 40
0.9454668360696769
 40
0.9999999999999999
 40
0.9999999999999999
 40
0.9999999999999999
 40
0.9999999999999999
 10
252.9612725485629
 20
132.7999146763813
 30
0.0
 10
253.0321000942771
 20
132.9554021174631
 30
0.0
 10
253.1736044307052
 20
133.2660460477495
 30
0.0
 10
253.3838588309309
 20
133.7229678142623
 30
0.0
 10
253.5923327024064
 20
134.1725732541441
 30
0.0
 10
253.7989017806786
 20
134.6142579489227
 30
0.0
 10
254.0035992177728
 20
135.0481832800682
 30
0.0
 10
254.2064160974266
 20
135.4743059777633
 30
0.0
 10
254.4073547505969
 20
135.8926374889504
 30
0.0
 10
254.6064145011309
 20
136.3031746324697
 30
0.0
 10
254.8035954784851
 20
136.7059181468301
 30
0.0
 10
254.9988975980935
 20
137.1008677284357
 30
0.0
 10
255.1923208336308
 20
137.4880233589986
 30
0.0
 10
255.3838651477695
 20
137.8673849552414
 30
0.0
 10
255.5735304982174
 20
138.2389524458779
 30
0.0
 10
255.761316883917
 20
138.6027258159959
 30
0.0
 10
255.9472241549552
 20
138.9587048539387
 30
0.0
 10
256.1312527288369
 20
139.3068901224647
 30
0.0
 10
256.3669055704422
 20
139.747266089902
 30
0.0
 10
256.6504648926455
 20
140.2674065956011
 30
0.0
 10
256.9770496958717
 20
140.8508600411407
 30
0.0
 10
257.2931315325739
 20
141.3994366401126
 30
0.0
 10
257.5987124075126
 20
141.9131463831041
 30
0.0
 10
257.8937726868565
 20
142.3919254928411
 30
0.0
 10
258.1783817369467
 20
142.8360025992911
 30
0.0
 10
258.4522759857436
 20
143.2445157681103
 30
0.0
 10
258.716432404795
 20
143.6206662103428
 30
0.0
 10
258.8835605837371
 20
143.8418239885802
 30
0.0
 10
258.9671227666868
 20
143.9524003548327
 30
0.0
  0
SPLINE
  5
1EA
330
1F
100
AcDbEntity
  8
0
  6
HIDDEN
 62
     7
370
     0
100
AcDbSpline
210
0.0
220
0.0
230
1.0
 70
     8
 71
     3
 72
    26
 73
    22
 74
     0
 42
0.00000001
 43
0.00000001
 40
0.0
 40
0.0
 40
0.0
 40
0.0
 40
0.2500000000000214
 40
0.2500000000000214
 40
0.3750000000000303
 40
0.3750000000000303
 40
0.4375000000000346
 40
0.4375000000000346
 40
0.4687500000000345
 40
0.4687500000000345
 40
0.5000000000000342
 40
0.5000000000000342
 40
0.531250000000034
 40
0.531250000000034
 40
0.5625000000000338
 40
0.5625000000000338
 40
0.6250000000000291
 40
0.6250000000000291
 40
0.7500000000000203
 40
0.7500000000000203
 40
1.0
 40
1.0
 40
1.0
 40
1.0
 10
160.4895388775886
 20
122.4409118979708
 30
0.0
 10
160.4509383547201
 20
122.3231372016154
 30
0.0
 10
160.4046413521658
 20
122.1987475154534
 30
0.0
 10
160.3107020037319
 20
121.9935281830999
 30
0.0
 10
160.2753905368184
 20
121.9219553166535
 30
0.0
 10
160.2092105610727
 20
121.806002084053
 30
0.0
 10
160.1846721944045
 20
121.7654175492428
 30
0.0
 10
160.1412994488507
 20
121.701275867371
 30
0.0
 10
160.1257910474255
 20
121.679409442086
 30
0.0
 10
160.0907484028385
 20
121.6338151737427
 30
0.0
 10
160.0711981121187
 20
121.6101448827753
 30
0.0
 10
160.0292708317481
 20
121.5655283234354
 30
0.0
 10
160.0066187215164
 20
121.5446483109175
 30
0.0
 10
159.9656450074298
 20
121.5137748971667
 30
0.0
 10
159.9480457075344
 20
121.5039360273343
 30
0.0
 10
159.9034187216783
 20
121.4849464116381
 30
0.0
 10
159.8828594990249
 20
121.4846220869847
 30
0.0
 10
159.8317340595283
 20
121.4938455278609
 30
0.0
 10
159.8108226465397
 20
121.5150924240779
 30
0.0
 10
159.7593727389788
 20
121.5890613029087
 30
0.0
 10
159.7417074396743
 20
121.6551793962234
 30
0.0
 10
159.7280486062074
 20
121.7253451091537
 30
0.0
  0
SPLINE
  5
1EB
330
1F
100
AcDbEntity
  8
0
  6
HIDDEN
 62
     7
370
     0
100
AcDbSpline
210
0.0
220
0.0
230
1.0
 70
     8
 71
     3
 72
    26
 73
    22
 74
     0
 42
0.00000001
 43
0.00000001
 40
0.0
 40
0.0
 40
0.0
 40
0.0
 40
0.2500000000000078
 40
0.2500000000000078
 40
0.3750000000000117
 40
0.3750000000000117
 40
0.4375000000000141
 40
0.4375000000000141
 40
0.4687500000000133
 40
0.4687500000000133
 40
0.5000000000000125
 40
0.5000000000000125
 40
0.5312500000000119
 40
0.5312500000000119
 40
0.5625000000000111
 40
0.5625000000000111
 40
0.6250000000000097
 40
0.6250000000000097
 40
0.7500000000000067
 40
0.7500000000000067
 40
1.0
 40
1.0
 40
1.0
 40
1.0
 10
159.6956628470926
 20
82.46070500414612
 30
0.0
 10
159.7063868804852
 20
82.56366604463508
 30
0.0
 10
159.7211198710797
 20
82.66266473411613
 30
0.0
 10
159.7734734303267
 20
82.78126041418125
 30
0.0
 10
159.7951787130463
 20
82.81697071413005
 30
0.0
 10
159.8540342204117
 20
82.8419501469518
 30
0.0
 10
159.8774964542589
 20
82.84633559471536
 30
0.0
 10
159.9336178309195
 20
82.82658276127125
 30
0.0
 10
159.9564051410501
 20
82.81492637046085
 30
0.0
 10
160.0116576935813
 20
82.77314602102365
 30
0.0
 10
160.0430639263221
 20
82.7428744336477
 30
0.0
 10
160.0979977469425
 20
82.68123203473368
 30
0.0
 10
160.122421565142
 20
82.64979038242687
 30
0.0
 10
160.1658366711293
 20
82.59005554501312
 30
0.0
 10
160.1854112336975
 20
82.56089053514046
 30
0.0
 10
160.2390439176455
 20
82.47705525940738
 30
0.0
 10
160.2688212656977
 20
82.42502264143116
 30
0.0
 10
160.3503553256705
 20
82.27395696746379
 30
0.0
 10
160.3935981203446
 20
82.18076592559304
 30
0.0
 10
160.5066527099993
 20
81.91637938659865
 30
0.0
 10
160.5606637074785
 20
81.7574212175488
 30
0.0
 10
160.6042948016825
 20
81.60687026140792
 30
0.0
  0
LINE
  5
1EC
330
1F
100
AcDbEntity
  8
0
  6
HIDDEN
 62
     7
370
     0
100
AcDbLine
 10
159.6653852315
 20
121.7414703109
 30
0.0
 11
159.6653852315
 21
82.3976320394
 31
0.0
  0
LINE
  5
1ED
330
1F
100
AcDbEntity
  8
0
  6
HIDDEN
 62
     7
370
     0
100
AcDbLine
 10
211.4753852315
 20
75.246396936
 30
0.0
 11
211.4753852315
 21
74.5529554053
 31
0.0
  0
SPLINE
  5
1EE
330
1F
100
AcDbEntity
  8
0
  6
HIDDEN
 62
     7
370
     0
100
AcDbSpline
210
0.0
220
0.0
230
1.0
 70
     8
 71
     3
 72
     8
 73
     4
 74
     0
 42
0.00000001
 43
0.00000001
 40
0.0
 40
0.0
 40
0.0
 40
0.0
 40
1.0
 40
1.0
 40
1.0
 40
1.0
 10
211.4753852314841
 20
74.55295540531809
 30
0.0
 10
211.9677243542652
 20
73.65568537111139
 30
0.0
 10
212.4618384023074
 20
72.75940095605915
 30
0.0
 10
212.9573180629731
 20
71.86387486812582
 30
0.0
  0
LINE
  5
1EF
330
1F
100
AcDbEntity
  8
0
  6
HIDDEN
 62
     7
370
     0
100
AcDbLine
 10
212.957318063
 20
71.8638748681
 30
0.0
 11
216.9153852315
 21
71.8638748681
 31
0.0
  0
LINE
  5
1F0
330
1F
100
AcDbEntity
  8
0
  6
HIDDEN
 62
     7
370
     0
100
AcDbLine
 10
217.5153852315
 20
72.4905151638
 30
0.0
 11
217.5153852315
 21
75.6507925644
 31
0.0
  0
LINE
  5
1F1
330
1F
100
AcDbEntity
  8
0
  6
HIDDEN
 62
     7
370
     0
100
AcDbLine
 10
211.3777104292
 20
75.6507925644
 30
0.0
 11
217.5153852315
 21
75.6507925644
 31
0.0
  0
LINE
  5
1F2
330
1F
100
AcDbEntity
  8
0
  6
HIDDEN
 62
     7
370
     0
100
AcDbLine
 10
207.6553852315
 20
74.5529554053
 30
0.0
 11
207.6553852315
 21
75.246396936
 31
0.0
  0
SPLINE
  5
1F3
330
1F
100
AcDbEntity
  8
0
  6
HIDDEN
 62
     7
370
     0
100
AcDbSpline
210
0.0
220
0.0
230
1.0
 70
     8
 71
     3
 72
     8
 73
     4
 74
     0
 42
0.00000001
 43
0.00000001
 40
0.0
 40
0.0
 40
0.0
 40
0.0
 40
1.0
 40
1.0
 40
1.0
 40
1.0
 10
206.173452399995
 20
71.86387486812582
 30
0.0
 10
206.6689320606607
 20
72.75940095605915
 30
0.0
 10
207.1630461087029
 20
73.65568537111139
 30
0.0
 10
207.655385231484
 20
74.55295540531809
 30
0.0
  0
LINE
  5
1F4
330
1F
100
AcDbEntity
  8
0
  6
HIDDEN
 62
     7
370
     0
100
AcDbLine
 10
204.5153852315
 20
75.6507925644
 30
0.0
 11
207.7530600338
 21
75.6507925644
 31
0.0
  0
LINE
  5
1F5
330
1F
100
AcDbEntity
  8
0
  6
HIDDEN
 62
     7
370
     0
100
AcDbLine
 10
243.9923850838
 20
129.5932024929
 30
0.0
 11
242.5591166013
 21
125.272818352
 31
0.0
  0
LWPOLYLINE
  5
1F6
330
1F
100
AcDbEntity
  8
0
  6
HIDDEN
 62
     7
370
     0
100
AcDbPolyline
 90
       29
 70
   128
 43
0.0
 10
221.5653852315
 20
93.0753521222
 10
222.2329480334
 20
93.1460322899
 10
222.8670364488
 20
93.3545285943
 10
223.4358546371
 20
93.6903861602
 10
223.9108796789
 20
94.1367636867
 10
224.2682918352
 20
94.6712779407
 10
224.490168968
 20
95.2671261457
 10
224.5653852315
 20
95.8944299845
 10
224.490168968
 20
96.5217338233
 10
224.2682918352
 20
97.1175820283
 10
223.9108796789
 20
97.6520962823
 10
223.4358546371
 20
98.0984738088
 10
222.8670364488
 20
98.4343313747
 10
222.2329480334
 20
98.6428276791
 10
221.5653852315
 20
98.7135078469
 10
220.8978224296
 20
98.6428276791
 10
220.2637340141
 20
98.4343313747
 10
219.6949158259
 20
98.0984738088
 10
219.2198907841
 20
97.6520962823
 10
218.8624786278
 20
97.1175820283
 10
218.6406014949
 20
96.5217338233
 10
218.5653852315
 20
95.8944299845
 10
218.6406014949
 20
95.2671261457
 10
218.8624786278
 20
94.6712779407
 10
219.2198907841
 20
94.1367636867
 10
219.6949158259
 20
93.6903861602
 10
220.2637340141
 20
93.3545285943
 10
220.8978224296
 20
93.1460322899
 10
221.5653852315
 20
93.0753521222
  0
CIRCLE
  5
1F7
330
1F
100
AcDbEntity
  8
0
  6
HIDDEN
 62
     7
370
     0
100
AcDbCircle
 10
198.5653852315
 20
102.0507925644
 30
0.0
 40
5.000000000000014
  0
LINE
  5
1F8
330
1F
100
AcDbEntity
  8
0
  6
HIDDEN
 62
     7
370
     0
100
AcDbLine
 10
252.5140323706
 20
133.514117531
 30
0.0
 11
252.9617102096
 21
132.7992098459
 31
0.0
  0
LINE
  5
1F9
330
1F
100
AcDbEntity
  8
0
  6
HIDDEN
 62
     7
370
     0
100
AcDbLine
 10
252.9612725479
 20
132.7999146766
 30
0.0
 11
242.3246085563
 21
102.0507925644
 31
0.0
  0
LINE
  5
1FA
330
1F
100
AcDbEntity
  8
0
  6
HIDDEN
 62
     7
370
     0
100
AcDbLine
 10
191.5653852315
 20
76.7268686432
 30
0.0
 11
191.6595460727
 21
77.3968578421
 31
0.0
  0
LINE
  5
1FB
330
1F
100
AcDbEntity
  8
0
  6
HIDDEN
 62
     7
370
     0
100
AcDbLine
 10
191.6595460727
 20
126.7047272867
 30
0.0
 11
191.5653852315
 21
127.3747164855
 31
0.0
  0
ARC
  5
1FC
330
1F
100
AcDbEntity
  8
0
  6
HIDDEN
 62
     7
370
     0
100
AcDbCircle
 10
191.0653852315
 20
77.4803617026
 30
0.0
 40
0.6000000000000133
100
AcDbArc
 50
352.0
 51
0.0
  0
ARC
  5
1FD
330
1F
100
AcDbEntity
  8
0
  6
HIDDEN
 62
     7
370
     0
100
AcDbCircle
 10
191.0653852315
 20
77.4803617026
 30
0.0
 40
0.6000000000000177
100
AcDbArc
 50
0.0
 51
33.5573097619
  0
ARC
  5
1FE
330
1F
100
AcDbEntity
  8
0
  6
HIDDEN
 62
     7
370
     0
100
AcDbCircle
 10
191.0653852315
 20
126.6212234261
 30
0.0
 40
0.6000000000000152
100
AcDbArc
 50
348.75
 51
8.0
  0
LWPOLYLINE
  5
1FF
330
1F
100
AcDbEntity
  8
0
  6
HIDDEN
 62
     7
370
     0
100
AcDbPolyline
 90
        3
 70
   128
 43
0.0
 10
191.6538563997
 20
126.5041692329
 10
191.619712951
 20
126.3916133667
 10
191.5653852315
 20
126.2895609471
  0
LINE
  5
200
330
1F
100
AcDbEntity
  8
0
  6
HIDDEN
 62
     7
370
     0
100
AcDbLine
 10
191.6653852315
 20
77.4803617026
 30
0.0
 11
191.6653852315
 21
126.6212234261
 31
0.0
  0
LINE
  5
201
330
1F
100
AcDbEntity
  8
0
  6
HIDDEN
 62
     7
370
     0
100
AcDbLine
 10
191.6653852315
 20
77.4803617026
 30
0.0
 11
191.6653852315
 21
126.6212234261
 31
0.0
  0
LINE
  5
202
330
1F
100
AcDbEntity
  8
0
  6
HIDDEN
 62
     7
370
     0
100
AcDbLine
 10
221.0003480572
 20
105.1991234528
 30
0.0
 11
226.8963773793
 21
110.7817515247
 31
0.0
  0
LINE
  5
203
330
1F
100
AcDbEntity
  8
0
  6
HIDDEN
 62
     7
370
     0
100
AcDbLine
 10
219.25165478
 20
110.429084181
 30
0.0
 11
217.562625758
 21
108.8298348697
 31
0.0
  0
LINE
  5
204
330
1F
100
AcDbEntity
  8
0
  6
HIDDEN
 62
     7
370
     0
100
AcDbLine
 10
219.3889310999
 20
110.5590636291
 30
0.0
 11
219.25165478
 21
110.429084181
 31
0.0
  0
LINE
  5
205
330
1F
100
AcDbEntity
  8
0
  6
HIDDEN
 62
     7
370
     0
100
AcDbLine
 10
227.0459733212
 20
117.8090986132
 30
0.0
 11
220.5886702224
 21
111.6950310638
 31
0.0
  0
LINE
  5
206
330
1F
100
AcDbEntity
  8
0
  6
HIDDEN
 62
     7
370
     0
100
AcDbLine
 10
217.5381411614
 20
108.0961072378
 30
0.0
 11
218.2570220156
 21
106.0444693203
 31
0.0
  0
LINE
  5
207
330
1F
100
AcDbEntity
  8
0
  6
HIDDEN
 62
     7
370
     0
100
AcDbLine
 10
218.2570220156
 20
106.0444693203
 30
0.0
 11
220.2663775192
 21
105.2147113512
 31
0.0
  0
LINE
  5
208
330
1F
100
AcDbEntity
  8
0
  6
HIDDEN
 62
     7
370
     0
100
AcDbLine
 10
219.0653852315
 20
108.8748784038
 30
0.0
 11
219.0653852315
 21
103.4860133395
 31
0.0
  0
LINE
  5
209
330
1F
100
AcDbEntity
  8
0
  6
HIDDEN
 62
     7
370
     0
100
AcDbLine
 10
224.0653852315
 20
103.4871443704
 30
0.0
 11
224.0653852315
 21
108.6586441699
 31
0.0
  0
ARC
  5
20A
330
1F
100
AcDbEntity
  8
0
  6
HIDDEN
 62
     7
370
     0
100
AcDbCircle
 10
174.6478207968
 20
82.6507925644
 30
0.0
 40
0.6000000000000085
100
AcDbArc
 50
210.0
 51
270.0
  0
ARC
  5
20B
330
1F
100
AcDbEntity
  8
0
  6
HIDDEN
 62
     7
370
     0
100
AcDbCircle
 10
174.6478207968
 20
121.4507925644
 30
0.0
 40
0.6000000000000085
100
AcDbArc
 50
90.0
 51
150.0
  0
ARC
  5
20C
330
1F
100
AcDbEntity
  8
0
  6
HIDDEN
 62
     7
370
     0
100
AcDbCircle
 10
185.3203872331
 20
90.0507925644
 30
0.0
 40
8.000000000000028
100
AcDbArc
 50
277.1308050809
 51
321.3178125465
  0
ARC
  5
20D
330
1F
100
AcDbEntity
  8
0
  6
HIDDEN
 62
     7
370
     0
100
AcDbCircle
 10
185.3203872331
 20
114.0507925644
 30
0.0
 40
8.00000000000002
100
AcDbArc
 50
38.6821874535
 51
82.854117109
  0
LINE
  5
20E
330
1F
100
AcDbEntity
  8
0
  6
HIDDEN
 62
     7
370
     0
100
AcDbLine
 10
174.6478207968
 20
82.0507925644
 30
0.0
 11
178.8185026127
 21
82.0507925644
 31
0.0
  0
LINE
  5
20F
330
1F
100
AcDbEntity
  8
0
  6
HIDDEN
 62
     7
370
     0
100
AcDbLine
 10
178.8185274818
 20
122.0507925644
 30
0.0
 11
174.6478207968
 21
122.0507925644
 31
0.0
  0
LINE
  5
210
330
1F
100
AcDbEntity
  8
0
  6
HIDDEN
 62
     7
370
     0
100
AcDbLine
 10
174.1282055545
 20
121.7507925644
 30
0.0
 11
172.5693598277
 21
119.0507925644
 31
0.0
  0
LINE
  5
211
330
1F
100
AcDbEntity
  8
0
  6
HIDDEN
 62
     7
370
     0
100
AcDbLine
 10
172.5693598277
 20
85.0507925644
 30
0.0
 11
174.1282055545
 21
82.3507925644
 31
0.0
  0
ARC
  5
212
330
1F
100
AcDbEntity
  8
0
  6
HIDDEN
 62
     7
370
     0
100
AcDbCircle
 10
200.0153852315
 20
86.3257925644
 30
0.0
 40
1.5
100
AcDbArc
 50
238.2116693829
 51
0.0
  0
ARC
  5
213
330
1F
100
AcDbEntity
  8
0
  6
HIDDEN
 62
     7
370
     0
100
AcDbCircle
 10
200.0153852315
 20
117.7757925644
 30
0.0
 40
1.500000000000001
100
AcDbArc
 50
0.0
 51
121.7883306171
  0
LINE
  5
214
330
1F
100
AcDbEntity
  8
0
  6
HIDDEN
 62
     7
370
     0
100
AcDbLine
 10
191.5653852315
 20
85.0507925644
 30
0.0
 11
199.2252112
 21
85.0507925644
 31
0.0
  0
LINE
  5
215
330
1F
100
AcDbEntity
  8
0
  6
HIDDEN
 62
     7
370
     0
100
AcDbLine
 10
199.2252112
 20
119.0507925644
 30
0.0
 11
191.5653852315
 21
119.0507925644
 31
0.0
  0
LINE
  5
216
330
1F
100
AcDbEntity
  8
0
  6
HIDDEN
 62
     7
370
     0
100
AcDbLine
 10
169.7653852315
 20
85.0507925644
 30
0.0
 11
172.5693598277
 21
85.0507925644
 31
0.0
  0
LINE
  5
217
330
1F
100
AcDbEntity
  8
0
  6
HIDDEN
 62
     7
370
     0
100
AcDbLine
 10
172.5693598277
 20
119.0507925644
 30
0.0
 11
165.7653852315
 21
119.0507925644
 31
0.0
  0
LINE
  5
218
330
1F
100
AcDbEntity
  8
0
  6
HIDDEN
 62
     7
370
     0
100
AcDbLine
 10
210.8653852315
 20
92.5507925644
 30
0.0
 11
213.3653852315
 21
92.5507925644
 31
0.0
  0
LINE
  5
219
330
1F
100
AcDbEntity
  8
0
  6
HIDDEN
 62
     7
370
     0
100
AcDbLine
 10
213.3653852315
 20
111.5507925644
 30
0.0
 11
210.8653852315
 21
111.5507925644
 31
0.0
  0
LINE
  5
21A
330
1F
100
AcDbEntity
  8
0
  6
HIDDEN
 62
     7
370
     0
100
AcDbLine
 10
201.5153852315
 20
93.0507925644
 30
0.0
 11
202.0153852315
 21
93.5507925644
 31
0.0
  0
LINE
  5
21B
330
1F
100
AcDbEntity
  8
0
  6
HIDDEN
 62
     7
370
     0
100
AcDbLine
 10
202.0153852315
 20
110.5507925644
 30
0.0
 11
201.5153852315
 21
111.0507925644
 31
0.0
  0
LINE
  5
21C
330
1F
100
AcDbEntity
  8
0
  6
HIDDEN
 62
     7
370
     0
100
AcDbLine
 10
202.0153852315
 20
93.5507925644
 30
0.0
 11
210.8653852315
 21
93.5507925644
 31
0.0
  0
LINE
  5
21D
330
1F
100
AcDbEntity
  8
0
  6
HIDDEN
 62
     7
370
     0
100
AcDbLine
 10
210.8653852315
 20
110.5507925644
 30
0.0
 11
202.0153852315
 21
110.5507925644
 31
0.0
  0
LINE
  5
21E
330
1F
100
AcDbEntity
  8
0
  6
HIDDEN
 62
     7
370
     0
100
AcDbLine
 10
196.5153852315
 20
133.5507925644
 30
0.0
 11
196.5153852315
 21
128.4507925644
 31
0.0
  0
LINE
  5
21F
330
1F
100
AcDbEntity
  8
0
  6
HIDDEN
 62
     7
370
     0
100
AcDbLine
 10
243.8111333871
 20
126.3871166187
 30
0.0
 11
243.0159293448
 21
125.6039935127
 31
0.0
  0
LINE
  5
220
330
1F
100
AcDbEntity
  8
0
  6
HIDDEN
 62
     7
370
     0
100
AcDbLine
 10
247.9276462469
 20
120.6165054602
 30
0.0
 11
248.7228502892
 21
121.3996285662
 31
0.0
  0
LINE
  5
221
330
1F
100
AcDbEntity
  8
0
  6
HIDDEN
 62
     7
370
     0
100
AcDbLine
 10
240.2848013567
 20
132.0574094925
 30
0.0
 11
238.6837651586
 21
130.4806966317
 31
0.0
  0
LINE
  5
222
330
1F
100
AcDbEntity
  8
0
  6
HIDDEN
 62
     7
370
     0
100
AcDbLine
 10
186.749823062
 20
77.9714212308
 30
0.0
 11
186.3153909125
 21
78.4504872499
 31
0.0
  0
LINE
  5
223
330
1F
100
AcDbEntity
  8
0
  6
HIDDEN
 62
     7
370
     0
100
AcDbLine
 10
178.8153875874
 20
78.8721752091
 30
0.0
 11
178.3329538441
 21
78.3931092336
 31
0.0
  0
LINE
  5
224
330
1F
100
AcDbEntity
  8
0
  6
HIDDEN
 62
     7
370
     0
100
AcDbLine
 10
178.3328319158
 20
125.7084706047
 30
0.0
 11
178.8153826668
 21
125.2293503468
 31
0.0
  0
LINE
  5
225
330
1F
100
AcDbEntity
  8
0
  6
HIDDEN
 62
     7
370
     0
100
AcDbLine
 10
186.3153851135
 20
125.6510481245
 30
0.0
 11
186.7499275038
 21
126.130168375
 31
0.0
  0
LINE
  5
226
330
1F
100
AcDbEntity
  8
0
  6
HIDDEN
 62
     7
370
     0
100
AcDbLine
 10
247.9283113246
 20
124.0928979166
 30
0.0
 11
251.7319753285
 21
130.9998943923
 31
0.0
  0
LINE
  5
227
330
1F
100
AcDbEntity
  8
0
  6
HIDDEN
 62
     7
370
     0
100
AcDbLine
 10
213.3653852315
 20
97.8507925644
 30
0.0
 11
225.6653852315
 21
97.8507925644
 31
0.0
  0
LINE
  5
228
330
1F
100
AcDbEntity
  8
0
  6
HIDDEN
 62
     7
370
     0
100
AcDbLine
 10
225.6653852315
 20
106.2507925644
 30
0.0
 11
213.3653852315
 21
106.2507925644
 31
0.0
  0
LINE
  5
229
330
1F
100
AcDbEntity
  8
0
  6
HIDDEN
 62
     7
370
     0
100
AcDbLine
 10
225.6653852315
 20
97.8507925644
 30
0.0
 11
228.1889998314
 21
102.0507925644
 31
0.0
  0
LINE
  5
22A
330
1F
100
AcDbEntity
  8
0
  6
HIDDEN
 62
     7
370
     0
100
AcDbLine
 10
228.1889998314
 20
102.0507925644
 30
0.0
 11
225.6653852315
 21
106.2507925644
 31
0.0
  0
LINE
  5
22B
330
1F
100
AcDbEntity
  8
0
  6
HIDDEN
 62
     7
370
     0
100
AcDbLine
 10
186.3153852315
 20
121.988628755
 30
0.0
 11
186.3153852315
 21
125.6507568184
 31
0.0
  0
LINE
  5
22C
330
1F
100
AcDbEntity
  8
0
  6
HIDDEN
 62
     7
370
     0
100
AcDbLine
 10
178.8153852315
 20
125.2292065676
 30
0.0
 11
178.8153852315
 21
122.0502036429
 31
0.0
  0
LINE
  5
22D
330
1F
100
AcDbEntity
  8
0
  6
HIDDEN
 62
     7
370
     0
100
AcDbLine
 10
186.3153852315
 20
78.4509711516
 30
0.0
 11
186.3153852315
 21
82.1129563737
 31
0.0
  0
LINE
  5
22E
330
1F
100
AcDbEntity
  8
0
  6
HIDDEN
 62
     7
370
     0
100
AcDbLine
 10
178.8153852315
 20
82.0513768256
 30
0.0
 11
178.8153852315
 21
78.8724984469
 31
0.0
  0
LINE
  5
22F
330
1F
100
AcDbEntity
  8
0
  6
HIDDEN
 62
     7
370
     0
100
AcDbLine
 10
242.4517208085
 20
126.0308150656
 30
0.0
 11
237.3195409623
 21
120.9766045632
 31
0.0
  0
LINE
  5
230
330
1F
100
AcDbEntity
  8
0
  6
HIDDEN
 62
     7
370
     0
100
AcDbLine
 10
243.2136012449
 20
114.9916189003
 30
0.0
 11
248.3457810911
 21
120.0458294027
 31
0.0
  0
LINE
  5
231
330
1F
100
AcDbEntity
  8
0
  6
HIDDEN
 62
     7
370
     0
100
AcDbLine
 10
219.0653852315
 20
100.6144407584
 30
0.0
 11
219.0653852315
 21
95.997183202
 31
0.0
  0
LINE
  5
232
330
1F
100
AcDbEntity
  8
0
  6
HIDDEN
 62
     7
370
     0
100
AcDbLine
 10
224.0653852315
 20
95.997183202
 30
0.0
 11
224.0653852315
 21
100.6155717893
 31
0.0
  0
ARC
  5
233
330
1F
100
AcDbEntity
  8
0
  6
HIDDEN
 62
     7
370
     0
100
AcDbCircle
 10
164.3653852315
 20
124.3207925644
 30
0.0
 40
1.40000000000002
100
AcDbArc
 50
270.0
 51
302.5610026528
  0
ARC
  5
234
330
1F
100
AcDbEntity
  8
0
  6
HIDDEN
 62
     7
370
     0
100
AcDbCircle
 10
168.3653852315
 20
79.8382925644
 30
0.0
 40
1.400000000000013
100
AcDbArc
 50
37.6443616934
 51
90.0
  0
LINE
  5
235
330
1F
100
AcDbEntity
  8
0
  6
HIDDEN
 62
     7
370
     0
100
AcDbLine
 10
248.2997652758
 20
138.6102030508
 30
0.0
 11
247.3273354808
 21
137.6525466495
 31
0.0
  0
LINE
  5
236
330
1F
100
AcDbEntity
  8
0
  6
HIDDEN
 62
     7
370
     0
100
AcDbLine
 10
251.818048077
 20
133.092557573
 30
0.0
 11
252.790477872
 21
134.0502139743
 31
0.0
  0
LINE
  5
237
330
1F
100
AcDbEntity
  8
0
  6
HIDDEN
 62
     7
370
     0
100
AcDbLine
 10
164.3653852315
 20
122.9207925644
 30
0.0
 11
160.9630406356
 21
122.9207925644
 31
0.0
  0
LINE
  5
238
330
1F
100
AcDbEntity
  8
0
  6
HIDDEN
 62
     7
370
     0
100
AcDbLine
 10
160.8065486897
 20
122.9119560226
 30
0.0
 11
159.6765528507
 21
121.7819601836
 31
0.0
  0
LINE
  5
239
330
1F
100
AcDbEntity
  8
0
  6
HIDDEN
 62
     7
370
     0
100
AcDbLine
 10
159.6680636029
 20
82.385614193
 30
0.0
 11
160.8153852315
 21
81.2382925644
 31
0.0
  0
LINE
  5
23A
330
1F
100
AcDbEntity
  8
0
  6
HIDDEN
 62
     7
370
     0
100
AcDbLine
 10
160.8153852315
 20
81.2382925644
 30
0.0
 11
168.3653852315
 21
81.2382925644
 31
0.0
  0
LINE
  5
23B
330
1F
100
AcDbEntity
  8
0
  6
HIDDEN
 62
     7
370
     0
100
AcDbLine
 10
246.884842663
 20
134.8858751283
 30
0.0
 11
244.0770997052
 21
129.787351522
 31
0.0
  0
LINE
  5
23C
330
1F
100
AcDbEntity
  8
0
  6
HIDDEN
 62
     7
370
     0
100
AcDbLine
 10
218.5653852315
 20
95.8944299845
 30
0.0
 11
218.5653852315
 21
93.1584938819
 31
0.0
  0
LINE
  5
23D
330
1F
100
AcDbEntity
  8
0
  6
HIDDEN
 62
     7
370
     0
100
AcDbLine
 10
224.5653852315
 20
93.158270313
 30
0.0
 11
224.5653852315
 21
95.8944299845
 31
0.0
  0
LINE
  5
23E
330
1F
100
AcDbEntity
  8
VERMASSUNG
100
AcDbLine
 10
261.5653852315
 20
147.0507925644
 30
0.0
 11
261.5653852315
 21
124.0876829268
 31
0.0
  0
DIMENSION
  5
23F
330
1F
100
AcDbEntity
  8
VERMASSUNG
100
AcDbDimension
  2
*D1
 10
261.5653852315
 20
150.183590877
 30
0.0
 11
226.5653852315
 21
150.183590877
 31
0.0
 70
   160
 71
     2
 42
-1.0
  3
SLDDIMSTYLE0
100
AcDbAlignedDimension
 13
191.5653852315
 23
133.2507925644
 33
0.0
 14
261.5653852315
 24
147.0507925644
 34
0.0
100
AcDbRotatedDimension
  0
DIMENSION
  5
24A
330
1F
100
AcDbEntity
  8
VERMASSUNG
100
AcDbDimension
  2
*D2
 10
261.5653852315
 20
156.183590877
 30
0.0
 11
210.6153852315
 21
156.183590877
 31
0.0
 70
   160
 71
     2
 42
-1.0
  3
SLDDIMSTYLE0
100
AcDbAlignedDimension
 13
159.6653852315
 23
121.7414703109
 33
0.0
 14
261.5653852315
 24
147.0507925644
 34
0.0
100
AcDbRotatedDimension
  0
DIMENSION
  5
254
330
1F
100
AcDbEntity
  8
VERMASSUNG
100
AcDbDimension
  2
*D3
 10
267.29749021
 20
102.0507925644
 30
0.0
 11
267.29749021
 21
124.5507925644
 31
0.0
 70
   160
 71
     2
 42
-1.0
  3
SLDDIMSTYLE0
100
AcDbAlignedDimension
 13
261.5653852315
 23
147.0507925644
 33
0.0
 14
254.2827073171
 24
102.0507925644
 34
0.0
 50
90.0
100
AcDbRotatedDimension
  0
DIMENSION
  5
25E
330
1F
100
AcDbEntity
  8
VERMASSUNG
100
AcDbDimension
  2
*D4
 10
261.5653852315
 20
124.0876829268
 30
0.0
 11
257.7190094068
 21
121.8892305407
 31
0.0
 70
   162
 71
     1
 42
-1.0
  3
SLDDIMSTYLE1
100
AcDb2LineAngularDimension
 13
257.2263162215
 23
133.0205811857
 33
0.0
 14
261.5283687123
 24
146.5332245668
 34
0.0
 15
261.5653852315
 25
147.0507925644
 35
0.0
 16
257.7190094068
 26
121.8892305407
 36
0.0
  0
DIMENSION
  5
269
330
1F
100
AcDbEntity
  8
VERMASSUNG
100
AcDbDimension
  2
*D5
 10
155.2987272559
 20
70.5507925644
 30
0.0
 11
155.2987272559
 21
102.0507925644
 31
0.0
 70
   160
  1
HSK %%c<>
 71
     2
 42
-1.0
  3
SLDDIMSTYLE0
100
AcDbAlignedDimension
 13
191.8653852315
 23
133.5507925644
 33
0.0
 14
191.8653852315
 24
70.5507925644
 34
0.0
 50
90.0
100
AcDbRotatedDimension
  0
LINE
  5
275
330
1F
100
AcDbEntity
  8
VERMASSUNG
  6
CENTERX2
370
     0
100
AcDbLine
 10
157.5040755807
 20
102.0507925644
 30
0.0
 11
254.2827073171
 21
102.0507925644
 31
0.0
  0
LINE
  5
276
330
1F
100
AcDbEntity
  8
0
  6
Continuous
 62
     7
370
    15
100
AcDbLine
 10
93.0736368007
 20
146.2366000122
 30
0.0
 11
88.4571683632
 21
147.0506079533
 31
0.0
  0
SPLINE
  5
277
330
1F
100
AcDbEntity
  8
0
  6
Continuous
 62
     7
370
    15
100
AcDbSpline
210
0.0
220
0.0
230
1.0
 70
     8
 71
     3
 72
    16
 73
    12
 74
     0
 42
0.00000001
 43
0.00000001
 40
0.0
 40
0.0
 40
0.0
 40
0.0
 40
0.0698349572223883
 40
0.2943053322557878
 40
0.4837542007022664
 40
0.6385941855660503
 40
0.7528748277012735
 40
0.8158440172247646
 40
0.8608813146572223
 40
0.9170798430233699
 40
1.0
 40
1.0
 40
1.0
 40
1.0
 10
83.56550473807981
 20
131.2892247940237
 30
0.0
 10
83.57278416897168
 20
131.2728530067557
 30
0.0
 10
83.60346186124045
 20
131.203857413672
 30
0.0
 10
83.61022171164893
 20
131.076843085146
 30
0.0
 10
83.5963416964231
 20
130.9320112677976
 30
0.0
 10
83.56155668147458
 20
130.8199624423291
 30
0.0
 10
83.52504138433925
 20
130.7438455819629
 30
0.0
 10
83.50079028340012
 20
130.70332200956
 30
0.0
 10
83.48858879654581
 20
130.6846364783379
 30
0.0
 10
83.4802594742225
 20
130.6725503171951
 30
0.0
 10
83.47810607944461
 20
130.6695838055356
 30
0.0
 10
83.47682257225378
 20
130.6678156490016
 30
0.0
  0
LINE
  5
278
330
1F
100
AcDbEntity
  8
0
  6
Continuous
 62
     7
370
    15
100
AcDbLine
 10
83.4891450402
 20
130.6836990469
 30
0.0
 11
83.4990859463
 21
130.6966420881
 31
0.0
  0
LINE
  5
279
330
1F
100
AcDbEntity
  8
0
  6
Continuous
 62
     7
370
    15
100
AcDbLine
 10
83.5648738214
 20
130.7722142761
 30
0.0
 11
83.5977789932
 21
130.8130240568
 31
0.0
  0
LINE
  5
27A
330
1F
100
AcDbEntity
  8
0
  6
Continuous
 62
     7
370
    15
100
AcDbLine
 10
83.2721605133
 20
132.1614641202
 30
0.0
 11
83.5620966919
 21
131.2914914496
 31
0.0
  0
LINE
  5
27B
330
1F
100
AcDbEntity
  8
0
  6
Continuous
 62
     7
370
    15
100
AcDbLine
 10
82.0374487058
 20
128.8658408363
 30
0.0
 11
82.3389309858
 21
128.8126813762
 31
0.0
  0
LINE
  5
27C
330
1F
100
AcDbEntity
  8
0
  6
Continuous
 62
     7
370
    15
100
AcDbLine
 10
97.1866612038
 20
145.187624068
 30
0.0
 11
93.0852547059
 21
145.9108126925
 31
0.0
  0
LINE
  5
27D
330
1F
100
AcDbEntity
  8
0
  6
Continuous
 62
     7
370
    15
100
AcDbLine
 10
97.44472368
 20
144.826355665
 30
0.0
 11
97.2140941129
 21
145.1668768457
 31
0.0
  0
LINE
  5
27E
330
1F
100
AcDbEntity
  8
0
  6
Continuous
 62
     7
370
    15
100
AcDbLine
 10
85.8750689563
 20
139.6058908575
 30
0.0
 11
85.8105619238
 21
139.6140344993
 31
0.0
  0
LINE
  5
27F
330
1F
100
AcDbEntity
  8
0
  6
Continuous
 62
     7
370
    15
100
AcDbLine
 10
82.0612329808
 20
128.8804458429
 30
0.0
 11
85.1891204278
 21
132.7647233763
 31
0.0
  0
LWPOLYLINE
  5
280
330
1F
100
AcDbEntity
  8
0
  6
Continuous
 62
     7
370
    15
100
AcDbPolyline
 90
        9
 70
   128
 43
0.0
 10
82.0625567009
 20
129.3897221326
 10
82.0408132162
 20
129.2847077581
 10
82.0239547773
 20
129.1778497926
 10
82.0132273866
 20
129.0770460792
 10
82.0094239028
 20
128.9897469928
 10
82.0128254402
 20
128.9224047849
 10
82.0231805922
 20
128.8799966997
 10
82.0397240123
 20
128.8656571073
 10
82.0612329808
 20
128.8804458429
  0
LINE
  5
281
330
1F
100
AcDbEntity
  8
0
  6
Continuous
 62
     7
370
    15
100
AcDbLine
 10
85.2154703692
 20
142.9023655137
 30
0.0
 11
82.0625567009
 21
129.3897221326
 31
0.0
  0
ARC
  5
282
330
1F
100
AcDbEntity
  8
0
  6
Continuous
 62
     7
370
    15
100
AcDbCircle
 10
85.9709142365
 20
142.7705590341
 30
0.0
 40
0.766856169530042
100
AcDbArc
 50
150.1949344708
 51
170.102913296
  0
LINE
  5
283
330
1F
100
AcDbEntity
  8
0
  6
Continuous
 62
     7
370
    15
100
AcDbLine
 10
88.4333840882
 20
147.0360029467
 30
0.0
 11
85.3054966413
 21
143.1517254133
 31
0.0
  0
LWPOLYLINE
  5
284
330
1F
100
AcDbEntity
  8
0
  6
Continuous
 62
     7
370
    15
100
AcDbPolyline
 90
        9
 70
   128
 43
0.0
 10
88.4320603682
 20
146.526726657
 10
88.4538038528
 20
146.6317410315
 10
88.4706622918
 20
146.738598997
 10
88.4813896824
 20
146.8394027104
 10
88.4851931663
 20
146.9267017969
 10
88.4817916289
 20
146.9940440048
 10
88.4714364769
 20
147.0364520899
 10
88.4548930568
 20
147.0507916824
 10
88.4333840882
 20
147.0360029467
  0
LINE
  5
285
330
1F
100
AcDbEntity
  8
0
  6
Continuous
 62
     7
370
    15
100
AcDbLine
 10
85.2791466998
 20
133.0140832759
 30
0.0
 11
88.4320603682
 21
146.526726657
 31
0.0
  0
ARC
  5
286
330
1F
100
AcDbEntity
  8
0
  6
Continuous
 62
     7
370
    15
100
AcDbCircle
 10
84.5237028325
 20
133.1458897556
 30
0.0
 40
0.7668561695305768
100
AcDbArc
 50
330.1949344708
 51
350.102913296
  0
LWPOLYLINE
  5
287
330
1F
100
AcDbEntity
  8
0
  6
Continuous
 62
     7
370
    15
100
AcDbPolyline
 90
        9
 70
   128
 43
0.0
 10
88.4298428042
 20
146.5332245668
 10
88.4504991146
 20
146.6329882226
 10
88.4665146316
 20
146.7345032898
 10
88.4767056528
 20
146.8302668175
 10
88.4803189624
 20
146.9132009497
 10
88.4770875019
 20
146.9771760472
 10
88.4672501075
 20
147.0174637281
 10
88.4515338584
 20
147.0310863409
 10
88.4311003383
 20
147.017037042
  0
LINE
  5
288
330
1F
100
AcDbEntity
  8
0
  6
Continuous
 62
     7
370
    15
100
AcDbLine
 10
88.4311003383
 20
147.017037042
 30
0.0
 11
85.3032128915
 21
143.1327595083
 31
0.0
  0
ARC
  5
289
330
1F
100
AcDbEntity
  8
0
  6
Continuous
 62
     7
370
    15
100
AcDbCircle
 10
85.9353596122
 20
142.7706514455
 30
0.0
 40
0.728513366831691
100
AcDbArc
 50
150.1949345083
 51
170.1029131544
  0
LINE
  5
28A
330
1F
100
AcDbEntity
  8
0
  6
Continuous
 62
     7
370
    15
100
AcDbLine
 10
85.2176879329
 20
142.895867604
 30
0.0
 11
82.0647742645
 21
129.3832242229
 31
0.0
  0
LWPOLYLINE
  5
28B
330
1F
100
AcDbEntity
  8
0
  6
Continuous
 62
     7
370
    15
100
AcDbPolyline
 90
        9
 70
   128
 43
0.0
 10
82.0647742645
 20
129.3832242229
 10
82.0441179541
 20
129.2834605671
 10
82.0281024371
 20
129.1819454999
 10
82.017911416
 20
129.0861819722
 10
82.0142981063
 20
129.00324784
 10
82.0175295669
 20
128.9392727425
 10
82.0273669612
 20
128.8989850616
 10
82.0430832103
 20
128.8853624488
 10
82.0635167305
 20
128.8994117476
  0
LINE
  5
28C
330
1F
100
AcDbEntity
  8
0
  6
Continuous
 62
     7
370
    15
100
AcDbLine
 10
82.0635167305
 20
128.8994117476
 30
0.0
 11
85.1914041774
 21
132.7836892811
 31
0.0
  0
ARC
  5
28D
330
1F
100
AcDbEntity
  8
0
  6
Continuous
 62
     7
370
    15
100
AcDbCircle
 10
84.5592574619
 20
133.1457973414
 30
0.0
 40
0.7285133610532798
100
AcDbArc
 50
330.1949344708
 51
350.102913296
  0
LINE
  5
28E
330
1F
100
AcDbEntity
  8
0
  6
Continuous
 62
     7
370
    15
100
AcDbLine
 10
85.2769291359
 20
133.0205811857
 30
0.0
 11
88.4298428042
 21
146.5332245668
 31
0.0
  0
ARC
  5
28F
330
1F
100
AcDbEntity
  8
0
  6
Continuous
 62
     7
370
    15
100
AcDbCircle
 10
92.3667472935
 20
146.0079366974
 30
0.0
 40
0.7429533544136664
100
AcDbArc
 50
336.5869222675
 51
17.9252612834
  0
LINE
  5
290
330
1F
100
AcDbEntity
  8
0
  6
Continuous
 62
     7
370
    15
100
AcDbLine
 10
88.4802101045
 20
146.9016833919
 30
0.0
 11
88.4311003383
 21
147.017037042
 31
0.0
  0
LINE
  5
291
330
1F
100
AcDbEntity
  8
0
  6
Continuous
 62
     7
370
    15
100
AcDbLine
 10
89.8956151373
 20
132.2000753348
 30
0.0
 11
93.0485288056
 21
145.7127187159
 31
0.0
  0
LINE
  5
292
330
1F
100
AcDbEntity
  8
0
  6
Continuous
 62
     7
370
    15
100
AcDbLine
 10
85.4725992358
 20
142.7348888886
 30
0.0
 11
85.3032128915
 21
143.1327595083
 31
0.0
  0
LINE
  5
293
330
1F
100
AcDbEntity
  8
0
  6
Continuous
 62
     7
370
    15
100
AcDbLine
 10
85.7136655649
 20
142.3425716897
 30
0.0
 11
85.4725992358
 21
142.7348888886
 31
0.0
  0
LWPOLYLINE
  5
294
330
1F
100
AcDbEntity
  8
0
  6
Continuous
 62
     7
370
    15
100
AcDbPolyline
 90
        9
 70
   128
 43
0.0
 10
87.11575544
 20
142.5015429109
 10
87.1701141516
 20
142.7640788472
 10
87.212260249
 20
143.031223761
 10
87.2390787257
 20
143.2832330446
 10
87.2485874353
 20
143.5014807608
 10
87.2400835917
 20
143.6698362806
 10
87.2141957117
 20
143.7758564935
 10
87.1728371614
 20
143.8117054746
 10
87.11906474
 20
143.7747336353
  0
LINE
  5
295
330
1F
100
AcDbEntity
  8
0
  6
Continuous
 62
     7
370
    15
100
AcDbLine
 10
87.5572482771
 20
144.326949277
 30
0.0
 11
87.11906474
 21
143.7747336353
 31
0.0
  0
LINE
  5
296
330
1F
100
AcDbEntity
  8
0
  6
Continuous
 62
     7
370
    15
100
AcDbLine
 10
85.3511835885
 20
134.9390046826
 30
0.0
 11
87.11575544
 21
142.5015429109
 31
0.0
  0
LINE
  5
297
330
1F
100
AcDbEntity
  8
0
  6
Continuous
 62
     7
370
    15
100
AcDbLine
 10
83.3755523287
 20
132.1417151544
 30
0.0
 11
85.1261179083
 21
134.3156049336
 31
0.0
  0
LWPOLYLINE
  5
298
330
1F
100
AcDbEntity
  8
0
  6
Continuous
 62
     7
370
    15
100
AcDbPolyline
 90
        9
 70
   128
 43
0.0
 10
83.3788616289
 20
133.4149058786
 10
83.3245029173
 20
133.1523699424
 10
83.2823568199
 20
132.8852250287
 10
83.2555383432
 20
132.6332157452
 10
83.2460296336
 20
132.4149680291
 10
83.2545334772
 20
132.2466125094
 10
83.2804213571
 20
132.1405922965
 10
83.3217799073
 20
132.1047433153
 10
83.3755523287
 20
132.1417151544
  0
LINE
  5
299
330
1F
100
AcDbEntity
  8
0
  6
Continuous
 62
     7
370
    15
100
AcDbLine
 10
85.1434334803
 20
140.9774441071
 30
0.0
 11
83.3788616289
 21
133.4149058786
 31
0.0
  0
ARC
  5
29A
330
1F
100
AcDbEntity
  8
0
  6
Continuous
 62
     7
370
    15
100
AcDbCircle
 10
87.0320431485
 20
140.6479279079
 30
0.0
 40
1.91714042382513
100
AcDbArc
 50
150.1949344708
 51
170.102913296
  0
LINE
  5
29B
330
1F
100
AcDbEntity
  8
0
  6
Continuous
 62
     7
370
    15
100
AcDbLine
 10
87.11906474
 20
143.7747336353
 30
0.0
 11
85.3684991604
 21
141.6008438561
 31
0.0
  0
ARC
  5
29C
330
1F
100
AcDbEntity
  8
0
  6
Continuous
 62
     7
370
    15
100
AcDbCircle
 10
83.4625739202
 20
135.2685208818
 30
0.0
 40
1.917140423824814
100
AcDbArc
 50
330.1949344708
 51
350.102913296
  0
LWPOLYLINE
  5
29D
330
1F
100
AcDbEntity
  8
0
  6
Continuous
 62
     7
370
    15
100
AcDbPolyline
 90
       27
 70
   128
 43
0.0
 10
85.5333742647
 20
137.1199940367
 10
85.6590665498
 20
137.7186645646
 10
85.7608289557
 20
138.3312574391
 10
85.8327474213
 20
138.922170989
 10
85.8706423068
 20
139.4570634666
 10
85.8723112992
 20
139.9048488655
 10
85.8376574027
 20
140.2395035257
 10
85.7686945758
 20
140.4415785351
 10
85.6694306873
 20
140.4993300284
 10
85.5456345937
 20
140.4094016988
 10
85.4045008739
 20
140.177019854
 10
85.2542317067
 20
139.8156896821
 10
85.1035601899
 20
139.3464103793
 10
84.9612428043
 20
138.7964547529
 10
84.8355505192
 20
138.197784225
 10
84.7337881133
 20
137.5851913505
 10
84.6618696477
 20
136.9942778006
 10
84.6239747622
 20
136.459385323
 10
84.6223057699
 20
136.0115999242
 10
84.6569596664
 20
135.6769452639
 10
84.7259224933
 20
135.4748702546
 10
84.8251863817
 20
135.4171187613
 10
84.9489824754
 20
135.5070470908
 10
85.0901161952
 20
135.7394289357
 10
85.2403853624
 20
136.1007591076
 10
85.3910568792
 20
136.5700384104
 10
85.5333742647
 20
137.1199940367
  0
ARC
  5
29E
330
1F
100
AcDbEntity
  8
0
  6
Continuous
 62
     7
370
    15
100
AcDbCircle
 10
89.14017127
 20
132.3318818145
 30
0.0
 40
0.7668561695291017
100
AcDbArc
 50
330.1949344708
 51
350.102913296
  0
LINE
  5
29F
330
1F
100
AcDbEntity
  8
0
  6
Continuous
 62
     7
370
    15
100
AcDbLine
 10
82.3196855675
 20
129.2222455074
 30
0.0
 11
82.0635167305
 21
128.8994117476
 31
0.0
  0
LINE
  5
2A0
330
1F
100
AcDbEntity
  8
0
  6
Continuous
 62
     7
370
    15
100
AcDbLine
 10
83.4135605621
 20
130.5931282153
 30
0.0
 11
82.3196855675
 21
129.2222455074
 31
0.0
  0
LINE
  5
2A1
330
1F
100
AcDbEntity
  8
0
  6
Continuous
 62
     7
370
    15
100
AcDbLine
 10
83.4135605621
 20
130.5931282153
 30
0.0
 11
83.5589453517
 21
130.7736701567
 31
0.0
  0
LINE
  5
2A2
330
1F
100
AcDbEntity
  8
0
  6
Continuous
 62
     7
370
    15
100
AcDbLine
 10
83.5853608854
 20
130.7973403229
 30
0.0
 11
83.5648948725
 21
130.7721975337
 31
0.0
  0
LINE
  5
2A3
330
1F
100
AcDbEntity
  8
0
  6
Continuous
 62
     7
370
    15
100
AcDbLine
 10
83.4991483061
 20
130.6965930428
 30
0.0
 11
83.5589453517
 21
130.7736701567
 31
0.0
  0
LINE
  5
2A4
330
1F
100
AcDbEntity
  8
0
  6
Continuous
 62
     7
370
    15
100
AcDbLine
 10
85.8066826975
 20
142.1530594978
 30
0.0
 11
85.3684991604
 21
141.6008438561
 31
0.0
  0
LINE
  5
2A5
330
1F
100
AcDbEntity
  8
0
  6
Continuous
 62
     7
370
    15
100
AcDbLine
 10
89.692714033
 20
131.8105450543
 30
0.0
 11
89.8055888652
 21
131.9507154352
 31
0.0
  0
SPLINE
  5
2A6
330
1F
100
AcDbEntity
  8
0
  6
Continuous
 62
     7
370
    15
100
AcDbSpline
210
0.0
220
0.0
230
1.0
 70
     8
 71
     3
 72
     9
 73
     5
 74
     0
 42
0.00000001
 43
0.00000001
 40
0.0
 40
0.0
 40
0.0
 40
0.0
 40
0.7750214793288609
 40
1.0
 40
1.0
 40
1.0
 40
1.0
 10
85.71366556487872
 20
142.3425716897393
 30
0.0
 10
85.74613549083169
 20
142.2835858494335
 30
0.0
 10
85.78803100833541
 20
142.2074771971198
 30
0.0
 10
85.78104871442616
 20
142.1350658946599
 30
0.0
 10
85.77947784827158
 20
142.1187749069526
 30
0.0
  0
LINE
  5
2A7
330
1F
100
AcDbEntity
  8
0
  6
Continuous
 62
     7
370
    15
100
AcDbLine
 10
82.3196855675
 20
129.2222455074
 30
0.0
 11
82.0647742645
 21
129.3832242229
 31
0.0
  0
LINE
  5
2A8
330
1F
100
AcDbEntity
  8
0
  6
Continuous
 62
     7
370
    15
100
AcDbLine
 10
85.4725992358
 20
142.7348888886
 30
0.0
 11
85.2176879329
 21
142.895867604
 31
0.0
  0
LINE
  5
2A9
330
1F
100
AcDbEntity
  8
0
  6
Continuous
 62
     7
370
    15
100
AcDbLine
 10
83.5601085751
 20
131.22119839
 30
0.0
 11
83.4135605621
 21
130.5931282153
 31
0.0
  0
LINE
  5
2AA
330
1F
100
AcDbEntity
  8
0
  6
Continuous
 62
     7
370
    15
100
AcDbLine
 10
83.5780216255
 20
131.2905318124
 30
0.0
 11
83.5601085751
 21
131.22119839
 31
0.0
  0
LINE
  5
2AB
330
1F
100
AcDbEntity
  8
0
  6
Continuous
 62
     7
370
    15
100
AcDbLine
 10
89.9634038776
 20
132.4906018664
 30
0.0
 11
92.7983766718
 21
144.640625747
 31
0.0
  0
LINE
  5
2AC
330
1F
100
AcDbEntity
  8
0
  6
Continuous
 62
     7
370
    15
100
AcDbLine
 10
89.692714033
 20
131.8105450543
 30
0.0
 11
89.7383381974
 21
131.8672021175
 31
0.0
  0
LINE
  5
2AD
330
1F
100
AcDbEntity
  8
0
  6
Continuous
 62
     7
370
    15
100
AcDbLine
 10
94.2889184219
 20
131.7278969468
 30
0.0
 11
97.1238912162
 21
143.8779208274
 31
0.0
  0
LINE
  5
2AE
330
1F
100
AcDbEntity
  8
0
  6
Continuous
 62
     7
370
    15
100
AcDbLine
 10
97.3815816523
 20
143.9240864522
 30
0.0
 11
94.5466088581
 21
131.7740625716
 31
0.0
  0
ARC
  5
2AF
330
1F
100
AcDbEntity
  8
0
  6
Continuous
 62
     7
370
    15
100
AcDbCircle
 10
95.4194374359
 20
144.6159657812
 30
0.0
 40
1.857383386032985
100
AcDbArc
 50
336.5869222675
 51
17.9252612834
  0
ARC
  5
2B0
330
1F
100
AcDbEntity
  8
0
  6
Continuous
 62
     7
370
    15
100
AcDbCircle
 10
95.4912673946
 20
144.509717206
 30
0.0
 40
1.978952089545011
100
AcDbArc
 50
342.7867036913
 51
9.2070758607
  0
ARC
  5
2B1
330
1F
100
AcDbEntity
  8
0
  6
Continuous
 62
     7
370
    15
100
AcDbCircle
 10
92.4003087537
 20
132.057413146
 30
0.0
 40
1.917140423824197
100
AcDbArc
 50
330.1949344708
 51
350.102913296
  0
LINE
  5
2B2
330
1F
100
AcDbEntity
  8
0
  6
Continuous
 62
     7
370
    15
100
AcDbLine
 10
94.0182285774
 20
131.0478401346
 30
0.0
 11
94.0638527418
 21
131.1044971978
 31
0.0
  0
ARC
  5
2B3
330
1F
100
AcDbEntity
  8
0
  6
Continuous
 62
     7
370
    15
100
AcDbCircle
 10
93.2245820903
 20
132.0047239111
 30
0.0
 40
1.34199829667755
100
AcDbArc
 50
330.1949344708
 51
350.102913296
  0
LINE
  5
2B4
330
1F
100
AcDbEntity
  8
0
  6
Continuous
 62
     7
370
    15
100
AcDbLine
 10
94.3890628819
 20
131.3376827473
 30
0.0
 11
94.1385737839
 21
131.0266200277
 31
0.0
  0
LWPOLYLINE
  5
2B5
330
1F
100
AcDbEntity
  8
0
  6
Continuous
 62
     7
370
    15
100
AcDbPolyline
 90
       31
 70
   128
 43
0.0
 10
82.0078571259
 20
121.3807458264
 10
81.83066026
 20
120.9445909388
 10
81.6615045421
 20
120.6373119594
 10
81.5077828888
 20
120.4723384539
 10
81.3762136739
 20
120.4568805562
 10
81.2725471035
 20
120.5916138506
 10
81.2013139042
 20
120.8706498456
 10
81.1656273086
 20
121.2817933293
 10
81.1670469922
 20
121.8070753586
 10
81.2055109079
 20
122.4235385881
 10
81.2793379982
 20
123.1042406167
 10
81.3853016648
 20
123.8194314993
 10
81.5187707871
 20
124.5378539624
 10
81.673912124
 20
125.2281094972
 10
81.8439452546
 20
125.8600306244
 10
82.0214389152
 20
126.4059993585
 10
82.1986357811
 20
126.8421542461
 10
82.367791499
 20
127.1494332256
 10
82.5215131523
 20
127.3144067311
 10
82.6530823672
 20
127.3298646288
 10
82.7567489375
 20
127.1951313343
 10
82.8279821368
 20
126.9160953393
 10
82.8636687324
 20
126.5049518556
 10
82.8622490489
 20
125.9796698264
 10
82.8237851331
 20
125.3632065968
 10
82.7499580429
 20
124.6825045683
 10
82.6439943763
 20
123.9673136857
 10
82.510525254
 20
123.2488912225
 10
82.3553839171
 20
122.5586356878
 10
82.1853507865
 20
121.9267145606
 10
82.0078571259
 20
121.3807458264
  0
LWPOLYLINE
  5
2B6
330
1F
100
AcDbEntity
  8
0
  6
Continuous
 62
     7
370
    15
100
AcDbPolyline
 90
       24
 70
   128
 43
0.0
 10
82.0107675093
 20
122.457585869
 10
81.8794072823
 20
122.1466991641
 10
81.7580772421
 20
121.9653552369
 10
81.6557758829
 20
121.9270035369
 10
81.5800904284
 20
122.0344884342
 10
81.5366341225
 20
122.2798382657
 10
81.5286299206
 20
122.6448565567
 10
81.5566714579
 20
123.1024715706
 10
81.6186790217
 20
123.6187440951
 10
81.7100537947
 20
124.1553845589
 10
81.824018928
 20
124.6725927938
 10
81.952122149
 20
125.1320098311
 10
82.0848626279
 20
125.4995628108
 10
82.2123956106
 20
125.7479920098
 10
82.3252625591
 20
125.8588725709
 10
82.4150926483
 20
125.8239809902
 10
82.4752235914
 20
125.6459050166
 10
82.5011957513
 20
125.3378517304
 10
82.4910828919
 20
124.9226680346
 10
82.4456350376
 20
124.4311462046
 10
82.3682228479
 20
123.8997401659
 10
82.2645876308
 20
123.3678618734
 10
82.1424155361
 20
122.8749583069
 10
82.0107675093
 20
122.457585869
  0
SPLINE
  5
2B7
330
1F
100
AcDbEntity
  8
0
  6
Continuous
 62
     7
370
    15
100
AcDbSpline
210
0.0
220
0.0
230
1.0
 70
     8
 71
     3
 72
     9
 73
     5
 74
     0
 42
0.00000001
 43
0.00000001
 40
0.0
 40
0.0
 40
0.0
 40
0.0
 40
0.6123983881550777
 40
1.0
 40
1.0
 40
1.0
 40
1.0
 10
82.48008038575935
 20
124.8648831396373
 30
0.0
 10
82.42123852957
 20
124.7472816571131
 30
0.0
 10
82.32515425285166
 20
124.5552473787759
 30
0.0
 10
82.13865618549238
 20
124.4001093967183
 30
0.0
 10
82.06636923397795
 20
124.3399776648144
 30
0.0
  0
SPLINE
  5
2B8
330
1F
100
AcDbEntity
  8
0
  6
Continuous
 62
     7
370
    15
100
AcDbSpline
210
0.0
220
0.0
230
1.0
 70
     8
 71
     3
 72
    10
 73
     6
 74
     0
 42
0.00000001
 43
0.00000001
 40
0.0
 40
0.0
 40
0.0
 40
0.0
 40
0.4391165375904091
 40
0.7513669429073351
 40
1.0
 40
1.0
 40
1.0
 40
1.0
 10
82.06636923397795
 20
124.3399776648144
 30
0.0
 10
82.1353746235891
 20
124.0845878495914
 30
0.0
 10
82.25344890273323
 20
123.6475934567891
 30
0.0
 10
82.10147718955989
 20
123.0694067218807
 30
0.0
 10
81.92890110022083
 20
122.7987178590079
 30
0.0
 10
81.85240014494372
 20
122.6787246625463
 30
0.0
  0
SPLINE
  5
2B9
330
1F
100
AcDbEntity
  8
0
  6
Continuous
 62
     7
370
    15
100
AcDbSpline
210
0.0
220
0.0
230
1.0
 70
     8
 71
     3
 72
     9
 73
     5
 74
     0
 42
0.00000001
 43
0.00000001
 40
0.0
 40
0.0
 40
0.0
 40
0.0
 40
0.7285744538364206
 40
1.0
 40
1.0
 40
1.0
 40
1.0
 10
81.85240014494372
 20
122.6787246625463
 30
0.0
 10
81.92341841287016
 20
122.6352498061719
 30
0.0
 10
82.02089406213632
 20
122.5755786824514
 30
0.0
 10
82.0715309822119
 20
122.5201654651264
 30
0.0
 10
82.08527513589945
 20
122.5051249023493
 30
0.0
  0
LINE
  5
2BA
330
1F
100
AcDbEntity
  8
0
  6
Continuous
 62
     7
370
    15
100
AcDbLine
 10
82.0724790943
 20
122.6399188059
 30
0.0
 11
81.8524001449
 21
122.6787246625
 31
0.0
  0
LINE
  5
2BB
330
1F
100
AcDbEntity
  8
0
  6
Continuous
 62
     7
370
    15
100
AcDbLine
 10
82.4258791602
 20
124.276586365
 30
0.0
 11
82.066369234
 21
124.3399776648
 31
0.0
  0
ELLIPSE
  5
2BC
330
1F
100
AcDbEntity
  8
0
  6
Continuous
 62
     7
370
    15
100
AcDbEllipse
 10
85.4050518096
 20
137.2965751527
 30
0.0
 11
0.4089531522262178
 21
2.316938528838364
 31
0.0
210
0.0
220
0.0
230
0.9999999999999999
 40
0.1734797809
 41
6.118656601877992
 42
7.676256157455689
  0
ARC
  5
2BD
330
1F
100
AcDbEntity
  8
0
  6
Continuous
 62
     7
370
    15
100
AcDbCircle
 10
88.5277317073
 20
102.0507925644
 30
0.0
 40
27.00000000000004
100
AcDbArc
 50
235.097073606
 51
0.0
  0
LINE
  5
2BE
330
1F
100
AcDbEntity
  8
0
  6
Continuous
 62
     7
370
    15
100
AcDbLine
 10
85.3671994885
 20
132.5732499739
 30
0.0
 11
73.0786621298
 21
79.9074809514
 31
0.0
  0
LINE
  5
2BF
330
1F
100
AcDbEntity
  8
0
  6
Continuous
 62
     7
370
    15
100
AcDbLine
 10
85.3671994885
 20
132.5732499739
 30
0.0
 11
94.3091824705
 21
130.9965371131
 31
0.0
  0
LINE
  5
2C0
330
1F
100
AcDbEntity
  8
0
  6
Continuous
 62
     7
370
    15
100
AcDbLine
 10
94.3091824705
 20
130.9965371131
 30
0.0
 11
94.388667689
 21
131.3371919883
 31
0.0
  0
SPLINE
  5
2C1
330
1F
100
AcDbEntity
  8
0
  6
Continuous
 62
     7
370
    15
100
AcDbSpline
210
0.0
220
0.0
230
1.0
 70
     8
 71
     3
 72
    33
 73
    29
 74
     0
 42
0.00000001
 43
0.00000001
 40
0.0
 40
0.0
 40
0.0
 40
0.0
 40
0.0298923457205954
 40
0.0597210661872439
 40
0.0894935007872919
 40
0.1192170306027356
 40
0.1488990731992956
 40
0.1785470772814806
 40
0.2081685172321203
 40
0.2377708875558006
 40
0.267361697246483
 40
0.2969484641002451
 40
0.3265387089945744
 40
0.3561399501559316
 40
0.3857596974374017
 40
0.4154054466281757
 40
0.4450846738163161
 40
0.4748048298257849
 40
0.5045733347480669
 40
0.5606325654044388
 40
0.6163166376939868
 40
0.6716767720464603
 40
0.7267650924793154
 40
0.7816344976566539
 40
0.8363385213178964
 40
0.8909311837255632
 40
0.9454668360696769
 40
0.9999999999999999
 40
0.9999999999999999
 40
0.9999999999999999
 40
0.9999999999999999
 10
115.527731700755
 20
132.7999146763813
 30
0.0
 10
115.3833747690768
 20
132.9554021174631
 30
0.0
 10
115.094968166533
 20
133.2660460477495
 30
0.0
 10
114.6528165805025
 20
133.7229678142623
 30
0.0
 10
114.2043091969665
 20
134.1725732541441
 30
0.0
 10
113.7487275680539
 20
134.6142579489227
 30
0.0
 10
113.2862637496248
 20
135.0481832800682
 30
0.0
 10
112.8168664803227
 20
135.4743059777633
 30
0.0
 10
112.3405495569115
 20
135.8926374889504
 30
0.0
 10
111.8573093855125
 20
136.3031746324697
 30
0.0
 10
111.3671470335017
 20
136.7059181468301
 30
0.0
 10
110.8700623276283
 20
137.1008677284357
 30
0.0
 10
110.3660554372982
 20
137.4880233589986
 30
0.0
 10
109.8551264346884
 20
137.8673849552414
 30
0.0
 10
109.3372754691624
 20
138.2389524458779
 30
0.0
 10
108.8125025059844
 20
138.6027258159959
 30
0.0
 10
108.2808081948425
 20
138.9587048539387
 30
0.0
 10
107.7421906481272
 20
139.3068901224647
 30
0.0
 10
107.0364112117402
 20
139.747266089902
 30
0.0
 10
106.1585513861519
 20
140.2674065956011
 30
0.0
 10
105.1017506754649
 20
140.8508600411407
 30
0.0
 10
104.0317223729986
 20
141.3994366401126
 30
0.0
 10
102.9484787712519
 20
141.9131463831041
 30
0.0
 10
101.8519993043444
 20
142.3919254928411
 30
0.0
 10
100.742366315301
 20
142.8360025992911
 30
0.0
 10
99.61928683054947
 20
143.2445157681103
 30
0.0
 10
98.48386530660449
 20
143.6206662103428
 30
0.0
 10
97.71619156007364
 20
143.8418239885802
 30
0.0
 10
97.33236344407726
 20
143.9524003548327
 30
0.0
  0
LINE
  5
2C2
330
1F
100
AcDbEntity
  8
0
  6
Continuous
 62
     7
370
    15
100
AcDbLine
 10
115.5277317073
 20
132.7999146766
 30
0.0
 11
115.5277317073
 21
102.0507925644
 31
0.0
  0
SPLINE
  5
2C3
330
1F
100
AcDbEntity
  8
0
  6
Continuous
 62
     7
370
    15
100
AcDbSpline
210
0.0
220
0.0
230
1.0
 70
     8
 71
     3
 72
    13
 73
     9
 74
     0
 42
0.00000001
 43
0.00000001
 40
0.0
 40
0.0
 40
0.0
 40
0.0
 40
0.1402827635956222
 40
0.2956050073587637
 40
0.4594277693769252
 40
0.6315744825455436
 40
0.811841468300528
 40
1.0
 40
1.0
 40
1.0
 40
1.0
 10
97.466150876074
 20
144.481412892299
 30
0.0
 10
98.43792883234315
 20
144.1861442755332
 30
0.0
 10
100.4856674322333
 20
143.5639517880549
 30
0.0
 10
103.5319048890782
 20
142.2735922606958
 30
0.0
 10
106.6520756127166
 20
140.6474808889969
 30
0.0
 10
109.7383917569779
 20
138.6481691999692
 30
0.0
 10
112.7640435547011
 20
136.2893023270856
 30
0.0
 10
114.5937034299812
 20
134.4509386348631
 30
0.0
 10
115.5281287054637
 20
133.5120682345495
 30
0.0
  0
LINE
  5
2C4
330
1F
100
AcDbEntity
  8
0
  6
Continuous
 62
     7
370
    15
100
AcDbLine
 10
115.5277317073
 20
133.514117531
 30
0.0
 11
115.5277317073
 21
132.7992098459
 31
0.0
  0
LINE
  5
2C5
330
1F
100
AcDbEntity
  8
0
  6
Continuous
 62
     7
370
    15
100
AcDbLine
 10
82.8730285862
 20
132.8632132297
 30
0.0
 11
82.6228878181
 21
132.5525830736
 31
0.0
  0
LWPOLYLINE
  5
2C6
330
1F
100
AcDbEntity
  8
0
  6
Continuous
 62
     7
370
    15
100
AcDbPolyline
 90
       12
 70
   128
 43
0.0
 10
82.6228878181
 20
132.5525830736
 10
82.4857875175
 20
132.3137247077
 10
82.340367606
 20
131.9328842212
 10
82.1984091401
 20
131.4409150456
 10
82.0714127503
 20
130.8776735976
 10
81.9696669289
 20
130.2887903495
 10
81.9014145173
 20
129.7219731199
 10
81.8721849199
 20
129.2231420698
 10
81.8843461448
 20
128.8327095241
 10
81.936912962
 20
128.5823060058
 10
82.0256267205
 20
128.4922177186
 10
82.1433003593
 20
128.5697430798
  0
ARC
  5
2C7
330
1F
100
AcDbEntity
  8
0
  6
Continuous
 62
     7
370
    15
100
AcDbCircle
 10
88.5277317073
 20
102.0507925644
 30
0.0
 40
26.99999999999991
100
AcDbArc
 50
232.6619975762
 51
235.097073606
  0
SPLINE
  5
2C8
330
1F
100
AcDbEntity
  8
0
  6
Continuous
 62
     7
370
    15
100
AcDbSpline
210
0.0
220
0.0
230
1.0
 70
     8
 71
     3
 72
     8
 73
     4
 74
     0
 42
0.00000001
 43
0.00000001
 40
0.0
 40
0.0
 40
0.0
 40
0.0
 40
1.0
 40
1.0
 40
1.0
 40
1.0
 10
72.15180298576944
 20
80.583865478579
 30
0.0
 10
72.16503871204638
 20
80.68243662863958
 30
0.0
 10
72.17828170961444
 20
80.78101512770597
 30
0.0
 10
72.19153219047365
 20
80.87960119004404
 30
0.0
  0
SPLINE
  5
2C9
330
1F
100
AcDbEntity
  8
0
  6
Continuous
 62
     7
370
    15
100
AcDbSpline
210
0.0
220
0.0
230
1.0
 70
     8
 71
     3
 72
    10
 73
     6
 74
     0
 42
0.00000001
 43
0.00000001
 40
0.0
 40
0.0
 40
0.0
 40
0.0
 40
0.5
 40
0.5
 40
1.0
 40
1.0
 40
1.0
 40
1.0
 10
72.18588907350734
 20
81.8284242725086
 30
0.0
 10
72.2232046928835
 20
81.79826924957423
 30
0.0
 10
72.24075009469247
 20
81.67540774933185
 30
0.0
 10
72.24032089555153
 20
81.33047671062282
 30
0.0
 10
72.222949566208
 20
81.11335235692998
 30
0.0
 10
72.19153219047367
 20
80.87960119004404
 30
0.0
  0
LINE
  5
2CA
330
1F
100
AcDbEntity
  8
0
  6
Continuous
 62
     7
370
    15
100
AcDbLine
 10
72.1125292798
 20
81.8879274589
 30
0.0
 11
72.1858890735
 21
81.8284242725
 31
0.0
  0
LINE
  5
2CB
330
1F
100
AcDbEntity
  8
0
  6
Continuous
 62
     7
370
    15
100
AcDbLine
 10
80.0878800758
 20
126.6428421829
 30
0.0
 11
79.9985931307
 21
126.6120180049
 31
0.0
  0
SPLINE
  5
2CC
330
1F
100
AcDbEntity
  8
0
  6
Continuous
 62
     7
370
    15
100
AcDbSpline
210
0.0
220
0.0
230
1.0
 70
     8
 71
     3
 72
    12
 73
     8
 74
     0
 42
0.00000001
 43
0.00000001
 40
0.0
 40
0.0
 40
0.0
 40
0.0
 40
0.2499999999999972
 40
0.2499999999999972
 40
0.4999999999999944
 40
0.4999999999999944
 40
1.0
 40
1.0
 40
1.0
 40
1.0
 10
80.41769947787616
 20
127.5325141722236
 30
0.0
 10
80.39240502079556
 20
127.4169397295658
 30
0.0
 10
80.36570242394399
 20
127.3086316083859
 30
0.0
 10
80.30960392284722
 20
127.1059134447285
 30
0.0
 10
80.27990111621375
 20
127.0110155920776
 30
0.0
 10
80.1924986678693
 20
126.7697607416232
 30
0.0
 10
80.13346096955406
 20
126.6584852864811
 30
0.0
 10
80.08788007584944
 20
126.6428421828739
 30
0.0
  0
SPLINE
  5
2CD
330
1F
100
AcDbEntity
  8
0
  6
Continuous
 62
     7
370
    15
100
AcDbSpline
210
0.0
220
0.0
230
1.0
 70
     8
 71
     3
 72
     8
 73
     4
 74
     0
 42
0.00000001
 43
0.00000001
 40
0.0
 40
0.0
 40
0.0
 40
0.0
 40
1.0
 40
1.0
 40
1.0
 40
1.0
 10
80.41769947787617
 20
127.5325141722236
 30
0.0
 10
81.16604594289419
 20
130.9518295318627
 30
0.0
 10
81.91954955166779
 20
134.3599301085163
 30
0.0
 10
82.67502296993624
 20
137.7637471152223
 30
0.0
  0
LWPOLYLINE
  5
2CE
330
1F
100
AcDbEntity
  8
0
  6
Continuous
 62
     7
370
    15
100
AcDbPolyline
 90
       31
 70
   128
 43
0.0
 10
81.3977926757
 20
123.8933725925
 10
81.2887779366
 20
123.1764010853
 10
81.2114872032
 20
122.4907646734
 10
81.1692984515
 20
121.866428958
 10
81.1640555325
 20
121.3306804058
 10
81.1959875867
 20
120.9069337993
 10
81.2636990303
 20
120.6137088986
 10
81.3642305482
 20
120.4638210389
 10
81.4931884307
 20
120.4638210389
 10
81.6449365995
 20
120.6137088986
 10
81.8128429315
 20
120.9069337993
 10
81.9895691143
 20
121.3306804058
 10
82.1673913656
 20
121.866428958
 10
82.3385379997
 20
122.4907646734
 10
82.4955290876
 20
123.1764010853
 10
82.6315033653
 20
123.8933725925
 10
82.7405181045
 20
124.6103440997
 10
82.8178088379
 20
125.2959805116
 10
82.8599975895
 20
125.9203162269
 10
82.8652405086
 20
126.4560647791
 10
82.8333084543
 20
126.8798113856
 10
82.7655970108
 20
127.1730362863
 10
82.6650654928
 20
127.322924146
 10
82.5361076103
 20
127.322924146
 10
82.3843594415
 20
127.1730362863
 10
82.2164531095
 20
126.8798113856
 10
82.0397269268
 20
126.4560647791
 10
81.8619046755
 20
125.9203162269
 10
81.6907580413
 20
125.2959805116
 10
81.5337669535
 20
124.6103440997
 10
81.3977926757
 20
123.8933725925
  0
LINE
  5
2CF
330
1F
100
AcDbEntity
  8
0
  6
Continuous
 62
     7
370
    15
100
AcDbLine
 10
82.1433003593
 20
128.5697430798
 30
0.0
 11
85.3671994885
 21
132.5732499739
 31
0.0
  0
SPLINE
  5
2D0
330
1F
100
AcDbEntity
  8
0
  6
Continuous
 62
     7
370
    15
100
AcDbSpline
210
0.0
220
0.0
230
1.0
 70
     8
 71
     3
 72
    11
 73
     7
 74
     0
 42
0.00000001
 43
0.00000001
 40
0.0
 40
0.0
 40
0.0
 40
0.0
 40
0.0818084285875144
 40
0.3878552451246454
 40
0.6939233761150657
 40
1.0
 40
1.0
 40
1.0
 40
1.0
 10
84.72523900226747
 20
140.8013496494636
 30
0.0
 10
84.66956451943847
 20
140.7206801749452
 30
0.0
 10
84.40561078560373
 20
140.3382247317396
 30
0.0
 10
83.93205867048367
 20
139.6419759810803
 30
0.0
 10
83.30455614228208
 20
138.712304744418
 30
0.0
 10
82.88486930162948
 20
138.0799359161153
 30
0.0
 10
82.67502296993621
 20
137.7637471152223
 30
0.0
  0
SPLINE
  5
2D1
330
1F
100
AcDbEntity
  8
0
  6
Continuous
 62
     7
370
    15
100
AcDbSpline
210
0.0
220
0.0
230
1.0
 70
     8
 71
     3
 72
    18
 73
    14
 74
     0
 42
0.00000001
 43
0.00000001
 40
0.0
 40
0.0
 40
0.0
 40
0.0
 40
0.2499999999999999
 40
0.2499999999999999
 40
0.4999999999999998
 40
0.4999999999999998
 40
0.6249999999999998
 40
0.6249999999999998
 40
0.7499999999999999
 40
0.7499999999999999
 40
0.8749999999999999
 40
0.8749999999999999
 40
1.0
 40
1.0
 40
1.0
 40
1.0
 10
73.17317761489504
 20
112.9879771322045
 30
0.0
 10
73.3995547797562
 20
113.3003402102811
 30
0.0
 10
73.5966854659719
 20
113.6270307943534
 30
0.0
 10
73.93467438122627
 20
114.3093104385271
 30
0.0
 10
74.07622155065957
 20
114.6645245974865
 30
0.0
 10
74.2263587247575
 20
115.2302710330219
 30
0.0
 10
74.26468359200305
 20
115.420867408964
 30
0.0
 10
74.3104690206067
 20
115.8063672696052
 30
0.0
 10
74.31768347423201
 20
116.0032492794011
 30
0.0
 10
74.28952115572052
 20
116.3868837534505
 30
0.0
 10
74.25470244812405
 20
116.5749422146753
 30
0.0
 10
74.12983218536426
 20
116.9416741143482
 30
0.0
 10
74.0421702321165
 20
117.1122148190128
 30
0.0
 10
73.92782126633914
 20
117.2677739529291
 30
0.0
  0
SPLINE
  5
2D2
330
1F
100
AcDbEntity
  8
0
  6
Continuous
 62
     7
370
    15
100
AcDbSpline
210
0.0
220
0.0
230
1.0
 70
     8
 71
     3
 72
    14
 73
    10
 74
     0
 42
0.00000001
 43
0.00000001
 40
0.0
 40
0.0
 40
0.0
 40
0.0
 40
0.25
 40
0.25
 40
0.5
 40
0.5
 40
0.75
 40
0.75
 40
1.0
 40
1.0
 40
1.0
 40
1.0
 10
79.998593130666
 20
126.6120180048978
 30
0.0
 10
79.87945764227176
 20
126.5706469791576
 30
0.0
 10
79.6598943156819
 20
126.4940279295181
 30
0.0
 10
79.03844545043489
 20
126.2595459700176
 30
0.0
 10
78.65223922341302
 20
126.1071972767342
 30
0.0
 10
77.76055555128407
 20
125.7215314017966
 30
0.0
 10
77.27383405898875
 20
125.4961471893926
 30
0.0
 10
76.24185932833271
 20
124.9722280704508
 30
0.0
 10
75.71285576174488
 20
124.6818836773178
 30
0.0
 10
75.17878672748519
 20
124.3623516296965
 30
0.0
  0
SPLINE
  5
2D3
330
1F
100
AcDbEntity
  8
0
  6
Continuous
 62
     7
370
    15
100
AcDbSpline
210
0.0
220
0.0
230
1.0
 70
     8
 71
     3
 72
    20
 73
    16
 74
     0
 42
0.00000001
 43
0.00000001
 40
0.0
 40
0.0
 40
0.0
 40
0.0
 40
0.2500000000000008
 40
0.2500000000000008
 40
0.3750000000000007
 40
0.3750000000000007
 40
0.5000000000000006
 40
0.5000000000000006
 40
0.6250000000000004
 40
0.6250000000000004
 40
0.7500000000000002
 40
0.7500000000000002
 40
0.8750000000000001
 40
0.8750000000000001
 40
1.0
 40
1.0
 40
1.0
 40
1.0
 10
68.35282398515086
 20
85.65039322770801
 30
0.0
 10
68.74563030870982
 20
85.16718357117428
 30
0.0
 10
69.14135660910584
 20
84.71592928566496
 30
0.0
 10
69.72888138510518
 20
84.08734404667219
 30
0.0
 10
69.92512412142332
 20
83.88446829913545
 30
0.0
 10
70.30493021853223
 20
83.50350564135239
 30
0.0
 10
70.4880255098652
 20
83.32575989776214
 30
0.0
 10
70.83751954280052
 20
82.99523585168635
 30
0.0
 10
71.0044646835531
 20
82.84197466801398
 30
0.0
 10
71.31513732490137
 20
82.56309986390052
 30
0.0
 10
71.45547269543766
 20
82.44046802803568
 30
0.0
 10
71.7040279441923
 20
82.22682101778847
 30
0.0
 10
71.81227708477215
 20
82.1357900093611
 30
0.0
 10
71.99258736595898
 20
81.98582927970828
 30
0.0
 10
72.06353085249653
 20
81.92781857048257
 30
0.0
 10
72.11252927975525
 20
81.88792745888333
 30
0.0
  0
SPLINE
  5
2D4
330
1F
100
AcDbEntity
  8
0
  6
Continuous
 62
     7
370
    15
100
AcDbSpline
210
0.0
220
0.0
230
1.0
 70
     8
 71
     3
 72
    19
 73
    15
 74
     0
 42
0.00000001
 43
0.00000001
 40
0.0
 40
0.0
 40
0.0
 40
0.0
 40
0.0862403621246833
 40
0.1993831944702751
 40
0.3132314846914227
 40
0.4014568827727313
 40
0.4901919804123528
 40
0.5785513736548725
 40
0.6695434542680633
 40
0.721190388484865
 40
0.7745439690759229
 40
0.8383624914686001
 40
0.9039966589327849
 40
1.0
 40
1.0
 40
1.0
 40
1.0
 10
70.94293629154097
 20
111.1035938800531
 30
0.0
 10
70.88901503745497
 20
111.1184209249785
 30
0.0
 10
70.76435192583716
 20
111.1527002752614
 30
0.0
 10
70.54822910846033
 20
111.190768705393
 30
0.0
 10
70.31820045103653
 20
111.2217254117104
 30
0.0
 10
70.09366663770369
 20
111.2463705594344
 30
0.0
 10
69.8787635959551
 20
111.2701086062909
 30
0.0
 10
69.6505129822218
 20
111.3018840284342
 30
0.0
 10
69.4434973593961
 20
111.3470156007037
 30
0.0
 10
69.26875662718632
 20
111.4056004799682
 30
0.0
 10
69.12403065155027
 20
111.4688867281609
 30
0.0
 10
68.97946136246226
 20
111.5483868467349
 30
0.0
 10
68.8173674857646
 20
111.6528263205793
 30
0.0
 10
68.7144402174218
 20
111.7263113853245
 30
0.0
 10
68.65330736689958
 20
111.7699572680046
 30
0.0
  0
SPLINE
  5
2D5
330
1F
100
AcDbEntity
  8
0
  6
Continuous
 62
     7
370
    15
100
AcDbSpline
210
0.0
220
0.0
230
1.0
 70
     8
 71
     3
 72
     9
 73
     5
 74
     0
 42
0.00000001
 43
0.00000001
 40
0.0
 40
0.0
 40
0.0
 40
0.0
 40
0.7349241363248217
 40
1.0
 40
1.0
 40
1.0
 40
1.0
 10
68.65330736689958
 20
111.7699572680046
 30
0.0
 10
68.56423883623137
 20
111.6665713630627
 30
0.0
 10
68.44304465268797
 20
111.5258957479454
 30
0.0
 10
68.37190887187406
 20
111.3732229399209
 30
0.0
 10
68.3530524933366
 20
111.3327530634741
 30
0.0
  0
ELLIPSE
  5
2D6
330
1F
100
AcDbEntity
  8
0
  6
Continuous
 62
     7
370
    15
100
AcDbEllipse
 10
71.1113938725
 20
114.2954250689
 30
0.0
 11
2.53389639777609
 21
3.263429543945022
 31
0.0
210
0.0
220
0.0
230
0.9999999999999998
 40
0.5891566581
 41
6.117413141917124
 42
11.05169913975199
  0
ARC
  5
2D7
330
1F
100
AcDbEntity
  8
0
  6
Continuous
 62
     7
370
    15
100
AcDbCircle
 10
88.5277317073
 20
102.0507925644
 30
0.0
 40
26.0
100
AcDbArc
 50
120.8919680966
 51
219.1080319034
  0
LINE
  5
2D8
330
1F
100
AcDbEntity
  8
0
  6
Continuous
 62
     7
370
    15
100
AcDbLine
 10
68.6533073669
 20
111.769957268
 30
0.0
 11
68.4319376878
 21
111.1617490733
 31
0.0
  0
SPLINE
  5
2D9
330
1F
100
AcDbEntity
  8
0
  6
Continuous
 62
     7
370
    15
100
AcDbSpline
210
0.0
220
0.0
230
1.0
 70
    24
 71
     3
 72
    10
 73
     6
 74
     0
 42
0.00000001
 43
0.00000001
 40
0.0
 40
0.0
 40
0.0
 40
0.0
 40
0.5
 40
0.5
 40
1.0
 40
1.0
 40
1.0
 40
1.0
 10
79.52773170731705
 20
72.49051516378013
 30
0.0
 10
79.52773170731705
 20
72.33062789558646
 30
0.0
 10
79.52773170731705
 20
72.16950064007186
 30
0.0
 10
79.52773170731705
 20
71.93540164171704
 30
0.0
 10
79.52773170731705
 20
71.86387486812582
 30
0.0
 10
79.52773170731705
 20
71.86387486812582
 30
0.0
  0
ARC
  5
2DA
330
1F
100
AcDbEntity
  8
0
  6
Continuous
 62
     7
370
    15
100
AcDbCircle
 10
88.5277317073
 20
102.0507925644
 30
0.0
 40
31.50000000000001
100
AcDbArc
 50
140.9381656697
 51
253.398450401
  0
SPLINE
  5
2DB
330
1F
100
AcDbEntity
  8
0
  6
Continuous
 62
     7
370
    15
100
AcDbSpline
210
0.0
220
0.0
230
1.0
 70
    24
 71
     3
 72
    12
 73
     8
 74
     0
 42
0.00000001
 43
0.00000001
 40
0.0
 40
0.0
 40
0.0
 40
0.0
 40
0.250000000000002
 40
0.250000000000002
 40
0.500000000000004
 40
0.500000000000004
 40
1.0
 40
1.0
 40
1.0
 40
1.0
 10
64.06904204494944
 20
121.900792564373
 30
0.0
 10
64.06904204494944
 20
121.900792564373
 30
0.0
 10
64.09687176525293
 20
121.900792564373
 30
0.0
 10
64.19201422650958
 20
121.900792564373
 30
0.0
 10
64.25843704280994
 20
121.900792564373
 30
0.0
 10
64.48263647433006
 20
121.900792564373
 30
0.0
 10
64.66662287687566
 20
121.900792564373
 30
0.0
 10
64.84677944605866
 20
121.900792564373
 30
0.0
  0
SPLINE
  5
2DC
330
1F
100
AcDbEntity
  8
0
  6
Continuous
 62
     7
370
    15
100
AcDbSpline
210
0.0
220
0.0
230
1.0
 70
    24
 71
     3
 72
    10
 73
     6
 74
     0
 42
0.00000001
 43
0.00000001
 40
0.0
 40
0.0
 40
0.0
 40
0.0
 40
0.5
 40
0.5
 40
1.0
 40
1.0
 40
1.0
 40
1.0
 10
80.52773170731705
 20
131.8972328881369
 30
0.0
 10
80.52773170731703
 20
132.0576381544876
 30
0.0
 10
80.52773170731705
 20
132.2166999674762
 30
0.0
 10
80.52773170731705
 20
132.4476124331066
 30
0.0
 10
80.52773170731705
 20
132.5179880375372
 30
0.0
 10
80.52773170731705
 20
132.5179880375372
 30
0.0
  0
SPLINE
  5
2DD
330
1F
100
AcDbEntity
  8
0
  6
Continuous
 62
     7
370
    15
100
AcDbSpline
210
0.0
220
0.0
230
1.0
 70
    24
 71
     3
 72
    12
 73
     8
 74
     0
 42
0.00000001
 43
0.00000001
 40
0.0
 40
0.0
 40
0.0
 40
0.0
 40
0.249999999999998
 40
0.249999999999998
 40
0.499999999999996
 40
0.499999999999996
 40
1.0
 40
1.0
 40
1.0
 40
1.0
 10
68.67773170731704
 20
126.5094822267404
 30
0.0
 10
68.67773170731704
 20
126.5094822267404
 30
0.0
 10
68.67773170731704
 20
126.4812625281525
 30
0.0
 10
68.67773170731704
 20
126.3868195209044
 30
0.0
 10
68.67773170731704
 20
126.3205325441991
 30
0.0
 10
68.67773170731704
 20
126.0949077209108
 30
0.0
 10
68.67773170731704
 20
125.9124814578782
 30
0.0
 10
68.67773170731704
 20
125.7317448256314
 30
0.0
  0
ARC
  5
2DE
330
1F
100
AcDbEntity
  8
0
  6
Continuous
 62
     7
370
    15
100
AcDbCircle
 10
88.5277317073
 20
102.0507925644
 30
0.0
 40
31.50000000000002
100
AcDbArc
 50
104.7124579609
 51
129.0618343303
  0
ARC
  5
2DF
330
1F
100
AcDbEntity
  8
0
  6
Continuous
 62
     7
370
    15
100
AcDbCircle
 10
88.5277317073
 20
102.0507925644
 30
0.0
 40
31.50000000000002
100
AcDbArc
 50
286.601549599
 51
31.0027191339
  0
SPLINE
  5
2E0
330
1F
100
AcDbEntity
  8
0
  6
Continuous
 62
     7
370
    15
100
AcDbSpline
210
0.0
220
0.0
230
1.0
 70
    24
 71
     3
 72
    12
 73
     8
 74
     0
 42
0.00000001
 43
0.00000001
 40
0.0
 40
0.0
 40
0.0
 40
0.0
 40
0.249999999999998
 40
0.249999999999998
 40
0.499999999999996
 40
0.499999999999996
 40
1.0
 40
1.0
 40
1.0
 40
1.0
 10
97.52773170731706
 20
71.86387486812582
 30
0.0
 10
97.52773170731706
 20
71.86387486812583
 30
0.0
 10
97.52773170731706
 20
71.88099195439167
 30
0.0
 10
97.52773170731706
 20
71.94572806586677
 30
0.0
 10
97.52773170731706
 20
71.9931853087471
 30
0.0
 10
97.52773170731706
 20
72.17000975128657
 30
0.0
 10
97.52773170731706
 20
72.3302862584923
 30
0.0
 10
97.52773170731706
 20
72.49051516378006
 30
0.0
  0
LINE
  5
2E1
330
1F
100
AcDbEntity
  8
0
  6
Continuous
 62
     7
370
    15
100
AcDbLine
 10
97.5277317073
 20
72.4905151638
 30
0.0
 11
97.5277317073
 21
75.6507925644
 31
0.0
  0
LINE
  5
2E2
330
1F
100
AcDbEntity
  8
0
  6
Continuous
 62
     7
370
    15
100
AcDbLine
 10
97.5277317073
 20
75.6507925644
 30
0.0
 11
94.1881203866
 21
75.6507925644
 31
0.0
  0
LINE
  5
2E3
330
1F
100
AcDbEntity
  8
0
  6
Continuous
 62
     7
370
    15
100
AcDbLine
 10
80.5277317073
 20
128.4507925644
 30
0.0
 11
80.5277317073
 21
131.8972328881
 31
0.0
  0
LINE
  5
2E4
330
1F
100
AcDbEntity
  8
0
  6
Continuous
 62
     7
370
    15
100
AcDbLine
 10
79.5277317073
 20
75.6507925644
 30
0.0
 11
79.5277317073
 21
72.4905151638
 31
0.0
  0
LINE
  5
2E5
330
1F
100
AcDbEntity
  8
0
  6
Continuous
 62
     7
370
    15
100
AcDbLine
 10
68.6777317073
 20
125.7317448256
 30
0.0
 11
68.6777317073
 21
121.9007925644
 31
0.0
  0
LINE
  5
2E6
330
1F
100
AcDbEntity
  8
0
  6
Continuous
 62
     7
370
    15
100
AcDbLine
 10
64.8467794461
 20
121.9007925644
 30
0.0
 11
68.6777317073
 21
121.9007925644
 31
0.0
  0
LINE
  5
2E7
330
1F
100
AcDbEntity
  8
0
  6
Continuous
 62
     7
370
    15
100
AcDbLine
 10
82.8673430281
 20
75.6507925644
 30
0.0
 11
79.5277317073
 21
75.6507925644
 31
0.0
  0
LINE
  5
2E8
330
1F
100
AcDbEntity
  8
0
  6
Continuous
 62
     7
370
    15
100
AcDbLine
 10
80.620299829
 20
128.4507925644
 30
0.0
 11
80.5277317073
 21
128.4507925644
 31
0.0
  0
SPLINE
  5
2E9
330
1F
100
AcDbEntity
  8
0
  6
Continuous
 62
     7
370
    15
100
AcDbSpline
210
0.0
220
0.0
230
1.0
 70
     8
 71
     3
 72
    30
 73
    26
 74
     0
 42
0.00000001
 43
0.00000001
 40
0.0
 40
0.0
 40
0.0
 40
0.0
 40
0.1250000000000006
 40
0.1250000000000006
 40
0.1875000000000009
 40
0.1875000000000009
 40
0.2500000000000011
 40
0.2500000000000011
 40
0.3750000000000012
 40
0.3750000000000012
 40
0.4375000000000013
 40
0.4375000000000013
 40
0.5000000000000013
 40
0.5000000000000013
 40
0.6250000000000012
 40
0.6250000000000012
 40
0.687500000000001
 40
0.687500000000001
 40
0.7500000000000008
 40
0.7500000000000008
 40
0.8125000000000006
 40
0.8125000000000006
 40
0.8750000000000002
 40
0.8750000000000002
 40
1.0
 40
1.0
 40
1.0
 40
1.0
 10
89.52773170731712
 20
70.56666958151062
 30
0.0
 10
90.05914963771771
 20
70.58354849951922
 30
0.0
 10
90.58080883529188
 20
70.61356606434396
 30
0.0
 10
91.3494506224509
 20
70.67637645361705
 30
0.0
 10
91.60334042161593
 20
70.70028036084395
 30
0.0
 10
92.106413197562
 20
70.75371565328633
 30
0.0
 10
92.35587704577864
 20
70.7833225214539
 30
0.0
 10
93.08078794337551
 20
70.87777222016835
 30
0.0
 10
93.5386652802677
 20
70.94879961399755
 30
0.0
 10
94.18843250575053
 20
71.06281390070332
 30
0.0
 10
94.3998192091607
 20
71.1022691518439
 30
0.0
 10
94.80445301993086
 20
71.18179059461455
 30
0.0
 10
94.99719349143207
 20
71.22172673711533
 30
0.0
 10
95.54762436780901
 20
71.34066313994347
 30
0.0
 10
95.87780774508963
 20
71.41882790382735
 30
0.0
 10
96.31648356174006
 20
71.52853734409622
 30
0.0
 10
96.4522821202266
 20
71.56361818080464
 30
0.0
 10
96.69915915307276
 20
71.62885846018426
 30
0.0
 10
96.81093769040076
 20
71.65919327622899
 30
0.0
 10
97.01136788027436
 20
71.71453165545084
 30
0.0
 10
97.10002022347786
 20
71.73953633201093
 30
0.0
 10
97.25368777115898
 20
71.78341614090161
 30
0.0
 10
97.31893547541081
 20
71.80235982566391
 30
0.0
 10
97.47524052877509
 20
71.8480795529341
 30
0.0
 10
97.5277317073171
 20
71.86387486812582
 30
0.0
 10
97.5277317073171
 20
71.86387486812582
 30
0.0
  0
SPLINE
  5
2EA
330
1F
100
AcDbEntity
  8
0
  6
Continuous
 62
     7
370
    15
100
AcDbSpline
210
0.0
220
0.0
230
1.0
 70
     8
 71
     3
 72
    28
 73
    24
 74
     0
 42
0.00000001
 43
0.00000001
 40
0.0
 40
0.0
 40
0.0
 40
0.0
 40
0.1250000000000001
 40
0.1250000000000001
 40
0.1874999999999999
 40
0.1874999999999999
 40
0.2499999999999998
 40
0.2499999999999998
 40
0.3749999999999998
 40
0.3749999999999998
 40
0.4375
 40
0.4375
 40
0.5
 40
0.5
 40
0.625
 40
0.625
 40
0.75
 40
0.75
 40
0.8125
 40
0.8125
 40
0.8750000000000001
 40
0.8750000000000001
 40
1.0
 40
1.0
 40
1.0
 40
1.0
 10
79.5277317073171
 20
71.86387486812582
 30
0.0
 10
79.52773170731709
 20
71.86387486812582
 30
0.0
 10
79.5802080496353
 20
71.8480901541756
 30
0.0
 10
79.73400499719222
 20
71.80309474009938
 30
0.0
 10
79.79787997222621
 20
71.78453974502368
 30
0.0
 10
79.95137624088275
 20
71.74068702257719
 30
0.0
 10
80.04119121627646
 20
71.71534241562496
 30
0.0
 10
80.34317001132732
 20
71.63194033787487
 30
0.0
 10
80.58912344538307
 20
71.56607477872377
 30
0.0
 10
81.02449062481146
 20
71.45710443823198
 30
0.0
 10
81.18170580698379
 20
71.41886480246534
 30
0.0
 10
81.51387042752626
 20
71.34110606504599
 30
0.0
 10
81.68867769312914
 20
71.30160510287064
 30
0.0
 10
82.23873688371496
 20
71.18269736050465
 30
0.0
 10
82.63936026811044
 20
71.10287967908002
 30
0.0
 10
83.51194637945915
 20
70.94953651728397
 30
0.0
 10
83.97208182706072
 20
70.8782027640147
 30
0.0
 10
84.6920479210269
 20
70.78425925694009
 30
0.0
 10
84.93732163106142
 20
70.75506546358015
 30
0.0
 10
85.43877796749027
 20
70.70159888931674
 30
0.0
 10
85.69620933686278
 20
70.67723955504157
 30
0.0
 10
86.47214913272727
 20
70.61364940959683
 30
0.0
 10
86.9963775326333
 20
70.58354647450756
 30
0.0
 10
87.52773170731712
 20
70.56666958151064
 30
0.0
  0
SPLINE
  5
2EB
330
1F
100
AcDbEntity
  8
0
  6
Continuous
 62
     7
370
    15
100
AcDbSpline
210
0.0
220
0.0
230
1.0
 70
     8
 71
     3
 72
    12
 73
     8
 74
     0
 42
0.00000001
 43
0.00000001
 40
0.0
 40
0.0
 40
0.0
 40
0.0
 40
0.1594883468626051
 40
0.4816394751366673
 40
0.6462400870798585
 40
0.8056777166104367
 40
1.0
 40
1.0
 40
1.0
 40
1.0
 10
80.52773170731709
 20
132.5179880375372
 30
0.0
 10
80.53313844794057
 20
132.5194034968175
 30
0.0
 10
80.54946628484734
 20
132.5236780477689
 30
0.0
 10
80.6995550212036
 20
132.5630731445494
 30
0.0
 10
80.95253786093761
 20
132.6264766425723
 30
0.0
 10
81.20005761059161
 20
132.6877276929054
 30
0.0
 10
81.44122229868675
 20
132.7421353378125
 30
0.0
 10
81.57369540022259
 20
132.7720217591001
 30
0.0
  0
SPLINE
  5
2EC
330
1F
100
AcDbEntity
  8
0
  6
Continuous
 62
     7
370
    15
100
AcDbSpline
210
0.0
220
0.0
230
1.0
 70
     8
 71
     3
 72
    20
 73
    16
 74
     0
 42
0.00000001
 43
0.00000001
 40
0.0
 40
0.0
 40
0.0
 40
0.0
 40
0.2499999999999995
 40
0.2499999999999995
 40
0.3749999999999996
 40
0.3749999999999996
 40
0.4999999999999997
 40
0.4999999999999997
 40
0.6249999999999998
 40
0.6249999999999998
 40
0.7499999999999998
 40
0.7499999999999998
 40
0.8749999999999999
 40
0.8749999999999999
 40
1.0
 40
1.0
 40
1.0
 40
1.0
 10
64.06904204494967
 20
121.900792564373
 30
0.0
 10
64.59969881278435
 20
122.5546549926704
 30
0.0
 10
65.13342680904589
 20
123.1584407746675
 30
0.0
 10
65.91639912703462
 20
123.9852795108361
 30
0.0
 10
66.1743827271313
 20
124.247708148789
 30
0.0
 10
66.67877798353912
 20
124.744370802894
 30
0.0
 10
66.92155640596711
 20
124.9749576819155
 30
0.0
 10
67.37223648548019
 20
125.3915119064981
 30
0.0
 10
67.58170035147145
 20
125.5790097084656
 30
0.0
 10
67.9599888680595
 20
125.910406686102
 30
0.0
 10
68.12373655424399
 20
126.0499106735973
 30
0.0
 10
68.39192235644343
 20
126.2753641810683
 30
0.0
 10
68.49714676453017
 20
126.3619902926119
 30
0.0
 10
68.64120598984368
 20
126.479971081466
 30
0.0
 10
68.67773170731708
 20
126.5094822267404
 30
0.0
 10
68.67773170731708
 20
126.5094822267404
 30
0.0
  0
ARC
  5
2ED
330
1F
100
AcDbEntity
  8
0
  6
Continuous
 62
     7
370
    15
100
AcDbCircle
 10
88.5277317073
 20
102.0507925644
 30
0.0
 40
31.50000000000001
100
AcDbArc
 50
268.180780706
 51
271.819219294
  0
CIRCLE
  5
2EE
330
1F
100
AcDbEntity
  8
VERMASSUNG
  6
CENTERX2
100
AcDbCircle
 10
88.5277317073
 20
107.009573537
 30
0.0
 40
39.99999999999999
  0
DIMENSION
  5
2EF
330
1F
100
AcDbEntity
  8
VERMASSUNG
100
AcDbDimension
  2
*D6
 10
44.924440912
 20
147.009573537
 30
0.0
 11
44.924440912
 21
107.009573537
 31
0.0
 70
   160
  1
%%c<>
 71
     2
 42
-1.0
  3
SLDDIMSTYLE2
100
AcDbAlignedDimension
 13
88.5277317073
 23
67.009573537
 33
0.0
 14
88.5277317073
 24
147.009573537
 34
0.0
 50
90.0
100
AcDbRotatedDimension
  0
INSERT
  5
306
330
1F
100
AcDbEntity
  8
VERMASSUNG
100
AcDbBlockReference
  2
SW_CENTERMARKSYMBOL_0
 10
88.5277317073
 20
102.0507925644
 30
0.0
  0
OLE2FRAME
  5
307
330
1F
100
AcDbEntity
  8
0
100
AcDbOle2Frame
 70
     2
  3
Bitmap Image
 10
13.8511154363
 20
38.264191557
 30
0.0
 11
51.6290888628
 21
31.9806341108
 31
0.0
 71
     2
 72
     0
 73
     1
 90
    12928
310
80552BED0767C5B32B40DDAF6807D121434000000000000000006FFBDDFB85D0
310
4940DDAF6807D121434000000000000000006FFBDDFB85D04940416F4BD60AFB
310
3F4000000000000000002BED0767C5B32B40416F4BD60AFB3F40000000000000
310
0000000000000100000000010000010000000100000000000100000000320000
310
D0CF11E0A1B11AE1000000000000000000000000000000003E000300FEFF0900
310
0600000000000000000000000100000001000000000000000010000002000000
310
01000000FEFFFFFF0000000000000000FFFFFFFFFFFFFFFFFFFFFFFFFFFFFFFF
310
FFFFFFFFFFFFFFFFFFFFFFFFFFFFFFFFFFFFFFFFFFFFFFFFFFFFFFFFFFFFFFFF
310
FFFFFFFFFFFFFFFFFFFFFFFFFFFFFFFFFFFFFFFFFFFFFFFFFFFFFFFFFFFFFFFF
310
FFFFFFFFFFFFFFFFFFFFFFFFFFFFFFFFFFFFFFFFFFFFFFFFFFFFFFFFFFFFFFFF
310
FFFFFFFFFFFFFFFFFFFFFFFFFFFFFFFFFFFFFFFFFFFFFFFFFFFFFFFFFFFFFFFF
310
FFFFFFFFFFFFFFFFFFFFFFFFFFFFFFFFFFFFFFFFFFFFFFFFFFFFFFFFFFFFFFFF
310
FFFFFFFFFFFFFFFFFFFFFFFFFFFFFFFFFFFFFFFFFFFFFFFFFFFFFFFFFFFFFFFF
310
FFFFFFFFFFFFFFFFFFFFFFFFFFFFFFFFFFFFFFFFFFFFFFFFFFFFFFFFFFFFFFFF
310
FFFFFFFFFFFFFFFFFFFFFFFFFFFFFFFFFFFFFFFFFFFFFFFFFFFFFFFFFFFFFFFF
310
FFFFFFFFFFFFFFFFFFFFFFFFFFFFFFFFFFFFFFFFFFFFFFFFFFFFFFFFFFFFFFFF
310
FFFFFFFFFFFFFFFFFFFFFFFFFFFFFFFFFFFFFFFFFFFFFFFFFFFFFFFFFFFFFFFF
310
FFFFFFFFFFFFFFFFFFFFFFFFFFFFFFFFFFFFFFFFFFFFFFFFFFFFFFFFFFFFFFFF
310
FFFFFFFFFFFFFFFFFFFFFFFFFFFFFFFFFFFFFFFFFFFFFFFFFFFFFFFFFFFFFFFF
310
FFFFFFFFFFFFFFFFFFFFFFFFFFFFFFFFFFFFFFFFFFFFFFFFFFFFFFFFFFFFFFFF
310
FDFFFFFFFEFFFFFFFEFFFFFFFEFFFFFF05000000060000000700000008000000
310
090000000A0000000B0000000C0000000D0000000E0000000F00000010000000
310
11000000120000001300000014000000150000001600000017000000FEFFFFFF
310
FFFFFFFFFFFFFFFFFFFFFFFFFFFFFFFFFFFFFFFFFFFFFFFFFFFFFFFFFFFFFFFF
310
FFFFFFFFFFFFFFFFFFFFFFFFFFFFFFFFFFFFFFFFFFFFFFFFFFFFFFFFFFFFFFFF
310
FFFFFFFFFFFFFFFFFFFFFFFFFFFFFFFFFFFFFFFFFFFFFFFFFFFFFFFFFFFFFFFF
310
FFFFFFFFFFFFFFFFFFFFFFFFFFFFFFFFFFFFFFFFFFFFFFFFFFFFFFFFFFFFFFFF
310
FFFFFFFFFFFFFFFFFFFFFFFFFFFFFFFFFFFFFFFFFFFFFFFFFFFFFFFFFFFFFFFF
310
FFFFFFFFFFFFFFFFFFFFFFFFFFFFFFFFFFFFFFFFFFFFFFFFFFFFFFFFFFFFFFFF
310
FFFFFFFFFFFFFFFFFFFFFFFFFFFFFFFFFFFFFFFFFFFFFFFFFFFFFFFFFFFFFFFF
310
FFFFFFFFFFFFFFFFFFFFFFFFFFFFFFFFFFFFFFFFFFFFFFFFFFFFFFFFFFFFFFFF
310
FFFFFFFFFFFFFFFFFFFFFFFFFFFFFFFFFFFFFFFFFFFFFFFFFFFFFFFFFFFFFFFF
310
FFFFFFFFFFFFFFFFFFFFFFFFFFFFFFFFFFFFFFFFFFFFFFFFFFFFFFFFFFFFFFFF
310
FFFFFFFFFFFFFFFFFFFFFFFFFFFFFFFFFFFFFFFFFFFFFFFFFFFFFFFFFFFFFFFF
310
FFFFFFFFFFFFFFFFFFFFFFFFFFFFFFFFFFFFFFFFFFFFFFFFFFFFFFFFFFFFFFFF
310
FFFFFFFFFFFFFFFFFFFFFFFFFFFFFFFFFFFFFFFFFFFFFFFFFFFFFFFFFFFFFFFF
310
52006F006F007400200045006E00740072007900000000000000000000000000
310
0000000000000000000000000000000000000000000000000000000000000000
310
16000500FFFFFFFFFFFFFFFF020000000A00030000000000C000000000000046
310
000000000000000000000000908265E885CECB0103000000C000000000000000
310
01004F006C006500000000000000000000000000000000000000000000000000
310
0000000000000000000000000000000000000000000000000000000000000000
310
0A000200FFFFFFFFFFFFFFFFFFFFFFFF00000000000000000000000000000000
310
0000000000000000000000000000000000000000000000001400000000000000
310
010043006F006D0070004F0062006A0000000000000000000000000000000000
310
0000000000000000000000000000000000000000000000000000000000000000
310
120002010100000003000000FFFFFFFF00000000000000000000000000000000
310
0000000000000000000000000000000000000000010000004D00000000000000
310
01004F006C006500310030004E00610074006900760065000000000000000000
310
0000000000000000000000000000000000000000000000000000000000000000
310
1A000200FFFFFFFFFFFFFFFFFFFFFFFF00000000000000000000000000000000
310
0000000000000000000000000000000000000000040000002426000000000000
310
FEFFFFFF02000000FEFFFFFFFFFFFFFFFFFFFFFFFFFFFFFFFFFFFFFFFFFFFFFF
310
FFFFFFFFFFFFFFFFFFFFFFFFFFFFFFFFFFFFFFFFFFFFFFFFFFFFFFFFFFFFFFFF
310
FFFFFFFFFFFFFFFFFFFFFFFFFFFFFFFFFFFFFFFFFFFFFFFFFFFFFFFFFFFFFFFF
310
FFFFFFFFFFFFFFFFFFFFFFFFFFFFFFFFFFFFFFFFFFFFFFFFFFFFFFFFFFFFFFFF
310
FFFFFFFFFFFFFFFFFFFFFFFFFFFFFFFFFFFFFFFFFFFFFFFFFFFFFFFFFFFFFFFF
310
FFFFFFFFFFFFFFFFFFFFFFFFFFFFFFFFFFFFFFFFFFFFFFFFFFFFFFFFFFFFFFFF
310
FFFFFFFFFFFFFFFFFFFFFFFFFFFFFFFFFFFFFFFFFFFFFFFFFFFFFFFFFFFFFFFF
310
FFFFFFFFFFFFFFFFFFFFFFFFFFFFFFFFFFFFFFFFFFFFFFFFFFFFFFFFFFFFFFFF
310
FFFFFFFFFFFFFFFFFFFFFFFFFFFFFFFFFFFFFFFFFFFFFFFFFFFFFFFFFFFFFFFF
310
FFFFFFFFFFFFFFFFFFFFFFFFFFFFFFFFFFFFFFFFFFFFFFFFFFFFFFFFFFFFFFFF
310
FFFFFFFFFFFFFFFFFFFFFFFFFFFFFFFFFFFFFFFFFFFFFFFFFFFFFFFFFFFFFFFF
310
FFFFFFFFFFFFFFFFFFFFFFFFFFFFFFFFFFFFFFFFFFFFFFFFFFFFFFFFFFFFFFFF
310
FFFFFFFFFFFFFFFFFFFFFFFFFFFFFFFFFFFFFFFFFFFFFFFFFFFFFFFFFFFFFFFF
310
FFFFFFFFFFFFFFFFFFFFFFFFFFFFFFFFFFFFFFFFFFFFFFFFFFFFFFFFFFFFFFFF
310
FFFFFFFFFFFFFFFFFFFFFFFFFFFFFFFFFFFFFFFFFFFFFFFFFFFFFFFFFFFFFFFF
310
FFFFFFFFFFFFFFFFFFFFFFFFFFFFFFFFFFFFFFFFFFFFFFFFFFFFFFFFFFFFFFFF
310
0100000200000000000000000000000000000000610072007D0382005C003104
310
30FA533100000000C802250000000000680061007200650064005C003B004300
310
0100FEFF030A0000FFFFFFFF0A00030000000000C00000000000004607000000
310
5042727573680007000000504272757368000700000050427275736800F439B2
310
71000000000000000000000000004100540049002E004100430045005C004300
310
6F00720065002D005300740061007400690063003B0043003A005C0050007200
310
6F006700720061006D002000460069006C006500730020002800780038003600
310
29005C0043006F006D006D006F006E002000460069006C00650073005C004100
310
750074006F006400650073006B0020005300680061007200650064005C003B00
310
43003A005C00500072006F006700720061006D002000460069006C0065007300
310
5C004E006F0072006D0061006E005C004E0070006D005C00420069006E000000
310
43003A005C00500072006F006700720061006D002000460069006C0065007300
310
5C0053006F006C006900640057006F0072006B007300200043006F0072007000
310
5C0053006F006C006900640057006F0072006B00730020002800320029005C00
310
730065007400750070005C0069003300380036005C0073007700610063007400
310
770069007A002E006500780065000000220043003A005C00500072006F006700
310
20260000424D0E260000000000003E00000028000000B40200006E0000000100
310
01000000000000000000130B0000130B00000200000002000000000000FFFFFF
310
FFFFFFFFFFFFFFFFFFFFFFFFFFFFFFFFFFFFFFFFFFFFFFFFFFFFFFFFFFFFFFFF
310
FFFFFFFFFFFFFFFFFFFFFFFFFFFFFFFFFFFFFFFFFFFFFFFFFFFFFFFFFFFFFFFF
310
FFFFFFFFFFFFFFFFFFFFFFFFFFFFFFFFFFFFFFFFFFFFFFFFF000FFFFFFFFFFFF
310
FFFFFFFFFFFFFFFFFFFFFFFFFFFFFFFFFFFFFFFFFFFFFFFFFFFFFFFFFFFFFFFF
310
FFFFFFFFFFFFFFFFFFFFFFFFFFFFFFFFFFFFFFFFFFFFFFFFFFFFFFFFFFFFFFFF
310
FFFFFFFFFFFFFFFFFFFFFFFFFFFFFFFFF000FFFFFFFFFFFFFFFFFFFFFFFFFFFF
310
FFFFFFFFFFFFFFFFFFFFFFFFFFFFFFFFFFFFFFFFFFFFFFFFFFFFFFFFFFFFFFFF
310
FFFFFFFFFFFFFFFFFFFFFFFFFFFFFFFFFFFFFFFFFFFFFFFFFFFFFFFFFFFFFFFF
310
FFFFFFFFFFFFFFFFF000FFFFFFFFFFFFFFFFFFFFFFFFFFFFFFFFFFFFFFFFFFFF
310
FFFFFFFFFFFFFFFFFFFFFFFFFFFFFFFFFFFFFFFFFFFFFFFFFFFFFFFFFFFFFFFF
310
FFFFFFFFFFFFFFFFFFFFFFFFFFFFFFFFFFFFFFFFFFFFFFFFFFFFFFFFFFFFFFFF
310
F000FFFFFFFFFFFFFFFFFFFFFFFFFFFFFFFFFFFFFFFFFFFFFFFFFFFFFFFFFFFF
310
FFFFFFFFFFFFFFFFFFFFFFFFFFFFFFFFFFFFFFFFFFFFFFFFFFFFFFFFFFFFFFFF
310
FFFFFFFFFFFFFFFFFFFFFFFFFFFFFFFFFFFFFFFFFFFFFFFFF000FFFFFFFFFFFF
310
FFFFFFFFFFFFFFFFFFFFFFFFFFFFFFFFFFFFFFFFFFFFFFFFFFFFFFFFFFFFFFFF
310
FFFFFFFFFFFFFFFFFFFFFFFFFFFFFFFFFFFFFFFFFFFFFFFFFFFFFFFFFFFFFFFF
310
FFFFFFFFFFFFFFFFFFFFFFFFFFFFFFFFF000FFFFFFFFFFFFFFFFFFFFFFFFFFFF
310
FFFFFFFFFFFFFFFFFFFFFFFFFFFFFFFFFFFFFFFFFFFFFFFFFFFFFFFFFFFFFFFF
310
FFFFFFFFFFFFFFFFFFFFFFFFFFFFFFFFFFFFFFFFFFFFFFFFFFFFFFFFFFFFFFFF
310
FFFFFFFFFFFFFFFFF000FFFFFFFFFFFFFFFFFFFFFFFFFFFFFFFFFFFFFFFFFFFF
310
FFFFFFFFFFFFFFFFFFFFFFFFFFFFFFFFFFFFFFFFFFFFFFFFFFFFFFFFFFFFFFFF
310
FFFFFFFFFFFFFFFFFFFFFFFFFFFFFFFFFFFFFFFFFFFFFFFFFFFFFFFFFFFFFFFF
310
F000FFFFFFFFFFFFFFFFFFFFFFFFFFFFFFFFFFFFFFFFFFFFFFFFFFFFFFFFFFFF
310
FFFFFFFFFFFFFFFFFFFFFFFFFFFFFFFFFFFFFFFFFFFFFFFFFFFFFFFFFFFFFFFF
310
FFFFFFFFFFFFFFFFFFFFFFFFFFFFFFFFFFFFFFFFFFFFFFFFF000FFFFFFFFFFFF
310
FFFFFFFFFFFFFFFFFFFFFFFFFFFFFFFFFFFFFFFFFFFFFFFFFFFFFFFFFFFFFFFF
310
FFFFFFFFFFFFFFFFFFFFFFFFFFFFFFFFFFFFFFFFFFFFFFFFFFFFFFFFFFFFFFFF
310
FFFFFFFFFFFFFFFFFFFFFFFFFFFFFFFFF000FFFFFFFFFFFFFFFFFFFFFFFFFFFF
310
FFFFFFFFFFFFFFFFFFFFFFFFFFFFFFFFFFFFFFFFFFFFFFFFFFFFFFFFFFFFFFFF
310
FFFFFFFFFFFFFFFFFFFFFFFFFFFFFFFFFFFFFFFFFFFFFFFFFFFFFFFFFFFFFFFF
310
FFFFFFFFFFFFFFFFF000FFFFFFFFFFFFFFFFFFFFFFFFFFFFFFFFFFFFFFFFFFFF
310
FFFFFFFFFFFFFFFFFFFFFFFFFFFFFFFFFFFFFFFFFFFFFFFFFFFFFFFFFFFFFFFF
310
FFFFFFFFFFFFFFFFFFFFFFFFFFFFFFFFFFFFFFFFFFFFFFFFFFFFFFFFFFFFFFFF
310
F000FFFFFFFFFFFFFFFFFFFFFFFFFFFFFFFFFFFFFFFFFFFFFFFFFFFFFFFFFFFF
310
FFFFFFFFFFFFFFFFFFFFFFFFFFFFFFFFFFFFFFFFFFFFFFFFFFFFFFFFFFFFFFFF
310
FFFFFFFFFFFFFFFFFFFFFFFFFFFFFFFFFFFFFFFFFFFFFFFFF000FFFFFFFFFFFF
310
FFFFFFFFFFFFFFFFFFFFFFFFFFFFFFFFFFFFFFFFFFFFFFFFFFFFFFFFFFFFFFFF
310
FFFFFFFFFFFFFFFFFFFFFFFFFFFFFFFFFFFFFFFFFFFFFFFFFFFFFFFFFFFFFFFF
310
FFFFFFFFFFFFFFFFFFFFFFFFFFFFFFFFF000FFFFFFFFFFFFFFFFFFFFFFFFFFFF
310
FFFFFFFFFFFFFFFFFFFFFFFFFFFFFFFFFFFFFFFFFFFFFFFFFFFFFFFFFFFFFFFF
310
FFFFFFFFFFFFFFFFFFFFFFFFFFFFFFFFFFFFFFFFFFFFFFFFFFFFFFFFFFFFFFFF
310
FFFFFFFFFFFFFFFFF000FFFFFFFFFFFFFFFFFFFFFFFFFFFFFFFFFFFFFFFFFFFF
310
FFFFFFFFFFFFFFFFFFFFFFFFFFFFFFFFFFFFFFFFFFFFFFFFFFFFFFFFFFFFFFFF
310
FFFFFFFFFFFFFFFFFFFFFFFFFFFFFFFFFFFFFFFFFFFFFFFFFFFFFFFFFFFFFFFF
310
F000FFFFFFFFFFFFFFFFFFFFFFFFFFFFFFFFFFFFFFFFFFFFFFFFFFFFFFFFFFFF
310
FFFFFFFFFFFFFFFFFFFFFFFFFFFFFFFFFFFFFFFFFFFFFFFFFFFFFFFFFFFFFFFF
310
FFFFFFFFFFFFFFFFFFFFFFFFFFFFFFFFFFFFFFFFFFFFFFFFF000FFFFFFFFFFFF
310
FFFFFFFFFFFFFFFFFFFFFFFFFFFFFFFFFFFFFFFFFFFFFFFFFFFFFFFFFFFFFFFF
310
FFFFFFFFFFFFFFFFFFFFFFFFFFFFFFFFFFFFFFFFFFFFFFFFFFFFFFFFFFFFFFFF
310
FFFFFFFFFFFFFFFFFFFFFFFFFFFFFFFFF000FFFFFFFFFFFFFFFFFFFFFFFFFFFF
310
FFFFFFFFFFFFFFFFFFFFFFFFFFFFFFFFFFFFFFFFFFFFFFFFFFFFFFFFFFFFFFFF
310
FFFFFFFFFFFFFFFFFFFFFFFFFFFFFFFFFFFFFFFFFFFFFFFFFFFFFFFFFFFFFFFF
310
FFFFFFFFFFFFFFFFF000FFFFF80003FFFFFFFFFFFFFFFFFFFFFFFFFFFFFFFFFF
310
FFFFF00007FFFFFFFFFF00007FFFFFF800000000000000007FFFFFFFFFFFFFFF
310
FFFFFFFC001FFFFFFFFFFFFFFC001FFFFFFFFFFFFFFFFFFFFFFFFFFE0007FFFF
310
F000FFFF8000007FFFFFFFF8000FFFFFC0007FFFFF80007FFFFF0000007FFFFF
310
FFF8000007FFFFF800000000000000007FFFFFF0001FFFFFFFFFFFC00001FFFF
310
FFFFFFFFC00001FFFFFFFF000000000003FFFFE000007FFFF000FFFE0000000F
310
FFFFFFF0000FFFFF80007FFFFF80007FFFFC0000001FFFFFFFC0000001FFFFF8
310
00000000000000007FFFFFF0001FFFFFFFFFFE0000003FFFFFFFFFFE0000003F
310
FFFFFF000000000003FFFF0000000FFFF000FFF800000003FFFFFFF00007FFFF
310
80007FFFFF80007FFFF000000007FFFFFF000000003FFFF80000000000000000
310
7FFFFFF0001FFFFFFFFFF80000000FFFFFFFFFF80000000FFFFFFF0000000000
310
03FFFC00000003FFF000FFE000000000FFFFFFF00007FFFF80003FFFFF80007F
310
FFC000000001FFFFFC000000001FFFF800000000000000007FFFFFF0001FFFFF
310
FFFFE000000003FFFFFFFFE000000003FFFFFF000000000003FFF000000000FF
310
F000FF80000000007FFFFFF00007FFFF80003FFFFF80007FFF8000000000FFFF
310
F80000000007FFF800000000000000007FFFFFF0001FFFFFFFFFC000000001FF
310
FFFFFFC000000001FFFFFF000000000003FFC0000000007FF000FF0000000000
310
3FFFFFE00007FFFF00003FFFFF80007FFE00000000003FFFF00000000003FFF8
310
00000000000000007FFFFFF0001FFFFFFFFF8000000000FFFFFFFF8000000000
310
FFFFFF000000000003FF80000000003FF000FE00000000001FFFFFE00003FFFF
310
00003FFFFF80007FFC00000000001FFFE00000000001FFF8000001FFFE000000
310
7FFFFFF0001FFFFFFFFE00000000003FFFFFFE00000000003FFFFF0000000000
310
03FF00000000001FF000FC00000000000FFFFFE00003FFFF00001FFFFF80007F
310
F800000000001FFFC00000000000FFF8000001FFFE0000007FFFFFF0001FFFFF
310
FFFC00000000001FFFFFFC00000000001FFFFF000000000003FE00000000000F
310
F000F8000000000007FFFFE00003FFFF00001FFFFF80007FF800000000000FFF
310
800000000000FFF8000001FFFE0000007FFFFFF0001FFFFFFFF800000000000F
310
FFFFF800000000000FFFFF000000000003FC000000000007F000F80000000000
310
03FFFFC00003FFFE00001FFFFF80007FF0000000000007FF0000000000007FF8
310
000001FFFE0000007FFFFFF0001FFFFFFFF0000000000007FFFFF00000000000
310
07FFFF000000000003F8000000000003F000F0000000000003FFFFC00001FFFE
310
00001FFFFF80007FE0000000000007FE0000000000003FF8000001FFFE000000
310
7FFFFFF0001FFFFFFFF0000000000007FFFFF0000000000007FFFF0000000000
310
03F800001F800003F000E00001FFF00001FFFFC00001FFFE00000FFFFF80007F
310
E00001FFE00003FE00001FFF00003FF8000001FFFE0000007FFFFFF0001FFFFF
310
FFE000003E000003FFFFE000003E000003FFFF000000000003F00001FFF80001
310
F000E00007FFFC0001FFFFC00001FFFE00000FFFFF80007FC0000FFFFC0003FC
310
0000FFFFC0001FF8000001FFFE0000007FFFFFF0001FFFFFFFC00003FFE00001
310
FFFFC00003FFE00001FFFF0001FFFFFFFFF00007FFFE0001F000E0000FFFFF00
310
00FFFF800001FFFC00000FFFFF80007FC0001FFFFE0001FC0001FFFFE0001FF8
310
000001FFFE0000007FFFFFF0001FFFFFFF80000FFFF80000FFFF80000FFFF800
310
00FFFF0003FFFFFFFFE0000FFFFF8000F000C0003FFFFF8000FFFF800000FFFC
310
000007FFFF80007F80003FFFFF0001FC0003FFFFF0001FF8000001FFFE000000
310
7FFFFFF0001FFFFFFF80003FFFFE0000FFFF80003FFFFE0000FFFF0003FFFFFF
310
FFE0003FFFFF8000F000C0003FFFFF8000FFFF800000FFFC000007FFFF80007F
310
80007FFFFF8001F80007FFFFF8000FF8000001FFFE0000007FFFFFF0001FFFFF
310
FF00007FFFFF00007FFF00007FFFFF00007FFF0003FFFFFFFFE0003FFFFFC000
310
F000C0007FFFFFC000FFFF000000FFFC000007FFFF80007F8000FFFFFF8000F8
310
000FFFFFF8000FF8000001FFFE0000007FFFFFF0001FFFFFFF0000FFFFFF8000
310
7FFF0000FFFFFF80007FFF0003FFFFFFFFC0007FFFFFC00070008000FFFFFFC0
310
00FFFF000000FFF8000007FFFF80007F8000FFFFFF8000F8000FFFFFF8000FF8
310
000001FFFE0000007FFFFFF0001FFFFFFE0001FFFFFFC0003FFE0001FFFFFFC0
310
003FFF0003FFFFFFFFC0007FFFFFE00070008000FFFFFFC0007FFF0000007FF8
310
000003FFFF80007F0001FFFFFF8000F8000FFFFFF8000FF8000001FFFE000000
310
7FFFFFF0001FFFFFFE0001FFFFFFC0003FFE0001FFFFFFC0003FFF0003FFFFFF
310
FFC000FFFFFFE00070008000FFFFFFC0007FFF0000007FF8000003FFFF80007F
310
0001FFFFFF8000F8001FFFFFF8000FF8000001FFFE0000007FFFFFF0001FFFFF
310
FE0003FFFFFFE0003FFE0003FFFFFFE0003FFF0003FFFFFFFFC000FFFFFFE000
310
70008000FFFFFFC0007FFE0000007FF8000003FFFF80007F0001FFFFFF8000F0
310
001FFFFFF8000FF8000001FFFE0000007FFFFFF0001FFFFFFC0003FFFFFFE000
310
1FFC0003FFFFFFE0001FFF0003FFFFFFFFC000FFFFFFC00070008000FFFFFF80
310
007FFE0000007FF0000003FFFF80007F0001FFFFFF0000F0001FFFFFF8000FF8
310
000001FFFE0000007FFFFFF0001FFFFFFC0007FFFFFFF0001FFC0007FFFFFFF0
310
001FFF0003FFFFFFFFC000FFFFFFC00070008001FFFFFF0000FFFE0000003FF0
310
000001FFFF80007F0001FFFFFF0000F8001FFFFFF0000FF8000001FFFE000000
310
7FFFFFF0001FFFFFFC0007FFFFFFF0001FFC0007FFFFFFF0001FFF0003FFFFFF
310
FFC001FFFFFF80007000FFFFFFFFFE0000FFFE0008003FF0008001FFFF80007F
310
FFFFFFFFFC0000FFFFFFFFFFE0000FF8000001FFFE0000007FFFFFF0001FFFFF
310
F8000FFFFFFFF8000FF8000FFFFFFFF8000FFF0003FFFFFFFFFFFFFFFFFF0000
310
7000FFFFFFFFFC0000FFFC0008003FF0008001FFFF80007FFFFFFFFFF80001FF
310
FFFFFFFF80000FF8000001FFFE0000007FFFFFF0001FFFFFF8000FFFFFFFF800
310
0FF8000FFFFFFFF8000FFF0003FFFFFFFFFFFFFFFFFE0000F000FFFFFFFFE000
310
00FFFC000C003FE000C001FFFF80007FFFFFFFFFC00001FFFFFFFFFE00001FF8
310
000001FFFE0000007FFFFFF0001FFFFFF8000FFFFFFFF8000FF8000FFFFFFFF8
310
000FFF0003FFFFFFFFFFFFFFFFF00000F000FFFFFFFE000001FFFC000C001FE0
310
00C000FFFF80007FFFFFFFFE000001FFFFFFFFE000001FF80FFFFFFFFFFFFFC0
310
7FFFFFF0001FFFFFF8000FFFFFFFF8000FF8000FFFFFFFF8000FFF0003FFFFFF
310
FFFFFFFFFF800000F000FFFFFFC0000001FFFC001C001FE001C000FFFF80007F
310
FFFFFF80000003FFFFFFF80000001FF80FFFFFFFFFFFFFC07FFFFFF0001FFFFF
310
F8001FFFFFFFFC000FF8001FFFFFFFFC000FFF0003FFFFFFFFFFFFFFF0000001
310
F000FFFFF800000001FFF8001C001FE001C000FFFF80007FFFFFF800000003FF
310
FFFF800000003FF80FFFFFFFFFFFFFC07FFFFFF0001FFFFFF8001FFFFFFFFC00
310
0FF8001FFFFFFFFC000FFF0003FFFFFFFFFFFFFE00000001F000FFFFC0000000
310
03FFF8001E001FC001E000FFFF80007FFFFF8000000007FFFFFC000000003FF8
310
0FFFFFFFFFFFFFC07FFFFFF0001FFFFFF8001FFFFFFFFC000FF8001FFFFFFFFC
310
000FFF0003FFFFFFFFFFFFE000000003F000FFFE0000000007FFF8001E000FC0
310
01E0007FFF80007FFFFE0000000007FFFFE0000000007FF80FFFFFFFFFFFFFC0
310
7FFFFFF0001FFFFFF0001FFFFFFFFC0007F0001FFFFFFFFC0007FF0003FFFFFF
310
FFFFFF0000000003F000FFF80000000007FFF8001E000FC003E0007FFF80007F
310
FFF0000000000FFFFF8000000000FFF80FFFFFFFFFFFFFC07FFFFFF0001FFFFF
310
F0001FFFFFFFFC0007F0001FFFFFFFFC0007FF0003FFFFFFFFFFFC0000000007
310
F000FFE0000000000FFFF0003E000FC003E0007FFF80007FFFC0000000001FFF
310
FE0000000001FFF80FFFFFFFFFFFFFC07FFFFFF0001FFFFFF0001FFFFFFFFC00
310
07F0001FFFFFFFFC0007FF0003FFFFFFFFFFF0000000000FF000FFC000000000
310
1FFFF0003F000F8003F0003FFF80007FFF80000000003FFFF80000000003FFF8
310
0FFFFFFFFFFFFFC07FFFFFF0001FFFFFF0001FFFFFFFFC0007F0001FFFFFFFFC
310
0007FF0003FFFFFFFFFFE0000000001FF000FF00000000007FFFF0003F000780
310
03F0003FFF80007FFF00000000007FFFF00000000007FFF80FFFFFFFFFFFFFC0
310
7FFFFFF0001FFFFFF0001FFFFFFFFC0007F0001FFFFFFFFC0007FF0003FFFFFF
310
FFFF80000000007FF000FE0000000000FFFFE0003F00078007F0003FFF80007F
310
FE0000000001FFFFE0000000001FFFF80FFFFFFFFFFFFFC07FFFFFF0001FFFFF
310
F0001FFFFFFFFC0007F0001FFFFFFFFC0007FF0003FFFFFFFFFF0000000000FF
310
F000FC0000000003FFFFE0007F00078007F0003FFF80007FFC0000000007FFFF
310
C0000000007FFFF80FFFFFFFFFFFFFC07FFFFFF0001FFFFFF8001FFFFFFFFC00
310
0FF8001FFFFFFFFC000FFF0003FFFFFFFFFE0000000003FFF000FC000000000F
310
FFFFE0007F80070007F8001FFF80007FF8000000001FFFFF8000000001FFFFF8
310
0FFFFFFFFFFFFFC07FFFFFF0001FFFFFF8001FFFFFFFFC000FF8001FFFFFFFFC
310
000FFF0003FFFFFFFFFC000000000FFFF000F8000000007FFFFFE0007F800700
310
07F8001FFF80007FF000000000FFFFFF800000000FFFFFF80FFFFFFFFFFFFFC0
310
7FFFFFF0001FFFFFF8000FFFFFFFF8000FF8000FFFFFFFF8000FFF0003FFFFFF
310
FFFC000000007FFFF000F800000007FFFFFFC0007F8003000FF8001FFF80007F
310
F000000007FFFFFF000000007FFFFFF80FFFFFFFFFFFFFC07FFFFFF0001FFFFF
310
F8000FFFFFFFF8000FF8000FFFFFFFF8000FFF0003FFFFFFFFF80000000FFFFF
310
F000F0000000FFFFFFFFC000FF8003000FF8001FFF80007FE0000000FFFFFFFF
310
0000000FFFFFFFF8000001FFFE0000007FFFFFF0001FFFFFF8000FFFFFFFF800
310
0FF8000FFFFFFFF8000FFF0003FFFFFFFFF8000000FFFFFFF000F000000FFFFF
310
FFFFC000FFC002000FF8000FFF80007FE000001FFFFFFFFE000001FFFFFFFFF8
310
000001FFFE0000007FFFFFF0001FFFFFF8000FFFFFFFF8000FF8000FFFFFFFF8
310
000FFF0003FFFFFFFFF000001FFFFFFFF000E00000FFFFFFFFFFC000FFC00200
310
0FFC000FFF80007FE00001FFFFFFFFFE00001FFFFFFFFFF8000001FFFE000000
310
7FFFFFF0001FFFFFFC000FFFFFFFF8001FFC000FFFFFFFF8001FFF0003FFFFFF
310
FFF00001FFFFFFFFF000E00007FFFFFFFFFF8000FFC000001FFC000FFF80007F
310
C0000FFFFFFFFFFE0000FFFFFFFFFFF8000001FFFE0000007FFFFFF0001FFFFF
310
FC0007FFFFFFF0001FFC0007FFFFFFF0001FFF0003FFFFFFFFF00007FFFFFFFF
310
F000E0001FFFFFFFFFFF8000FFC000001FFC000FFF80007FC0003FFFFFFFFFFE
310
0001FFFFFFFFFFF8000001FFFE0000007FFFFFF0001FFFFFFC0007FFFFFFF000
310
1FFC0007FFFFFFF0001FFF0003FFFFFFFFF0001FFFFFFFFFF000E0003FFFFF00
310
03FF8001FFE000001FFC0007FF80007FC0007FFFFF0007FC0003FFFFF0003FF8
310
000001FFFE0000007FFFFFF0001FFFFFFC0003FFFFFFE0001FFC0003FFFFFFE0
310
001FFF0003FFFFFFFFF0003FFFFFFFFFF000E0003FFFFF0001FF8001FFE00000
310
1FFE0007FF80007FC0007FFFFE0003FC0007FFFFE0003FF8000001FFFE000000
310
7FFFFFF0001FFFFFFE0003FFFFFFE0003FFE0003FFFFFFE0003FFF0003FFFFFF
310
FFF0003FFFFF8001F000E0003FFFFF0001FF0001FFE000001FFE0007FF80007F
310
C0007FFFFE0003FC0007FFFFE0003FF8000001FFFE0000007FFFFFF0001FFFFF
310
FE0001FFFFFFC0003FFE0001FFFFFFC0003FFF0003FFFFFFFFF0003FFFFF0001
310
F000E0003FFFFF0003FF0001FFE000003FFE0007FF80007FC0007FFFFE0003FC
310
0007FFFFE0003FF8000001FFFE0000007FFFFFF0001FFFFFFF0001FFFFFFC000
310
7FFF0001FFFFFFC0007FFF0003FFFFFFFFF0003FFFFF0001F000E0003FFFFE00
310
03FF0003FFF000003FFE0003FF80007FC0007FFFFC0003FE0007FFFFE0003FF8
310
000001FFFE0000007FFFFFF0001FFFFFFF0000FFFFFF80007FFF0000FFFFFF80
310
007FFF0003FFFFFFFFF0003FFFFF0001F000E0003FFFFE0003FF0003FFF00000
310
3FFF0003FF80007FC0007FFFFC0007FE0007FFFFC0003FF8000001FFFE000000
310
7FFFFFF0001FFFFFFF80007FFFFF0000FFFF80007FFFFF0000FFFF0003FFFFFF
310
FFF0003FFFFF0003F000E0003FFFFC0003FE0003FFF000003FFF0003FF80007F
310
E0003FFFF80007FE0003FFFFC0007FF8000001FFFE0000007FFFFFF0001FFFFF
310
FF80003FFFFE0000FFFF80003FFFFE0000FFFF0003FFFFFFFFF0001FFFFE0003
310
F000F0001FFFF80003FE0003FFF000007FFF0001FF80007FE0003FFFF00007FE
310
0001FFFF80007FF8000001FFFE0000007FFFFFF0001FFFFFFFC0000FFFF80001
310
FFFFC0000FFFF80001FFFF0003FFFFFFFFF0001FFFFC0003F000F0000FFFF000
310
07FE0007FFF800007FFF0001FF80007FE0001FFFE00007FF0000FFFE00007FF8
310
000001FFFE0000007FFFFFF0001FFFFFFFC00003FFE00001FFFFC00003FFE000
310
01FFFF0003FFFFFFFFF8000FFFF80003F000F00003FFC00007FC0007FFF80000
310
7FFF8001FF80007FF00007FF80000FFF00007FF80000FFF8000001FFFE000000
310
7F80000000000001FFE000003E000003FFFFE000003E000003FFFF0003FFFFFF
310
FFF80003FFE00007F000F800000000000FFC0007FFF800007FFF8001FF80007F
310
F000000000000FFF000000000000FFF8000001FFFE0000007F80000000000001
310
FFF0000000000007FFFFF0000000000007FFFF0003FFFFFFFFFC00007E000007
310
F000F800000000000FFC0007FFF80000FFFF8000FF80007FF800000000001FFF
310
800000000001FFF8000001FFFE0000007F80000000000001FFF800000000000F
310
FFFFF800000000000FFFFF0003FFFFFFFFFC00000000000FF000FC0000000000
310
1FFC0007FFFC0000FFFF8000FF80007FF800000000003FFFC00000000001FFF8
310
000001FFFE0000007F80000000000001FFF800000000000FFFFFF80000000000
310
0FFFFF0003FFFFFFFFFE00000000001FF000FE00000000003FF8000FFFFC0000
310
FFFF8000FF80007FFC00000000003FFFC00000000003FFF8000001FFFE000000
310
7F80000000000001FFFC00000000001FFFFFFC00000000001FFFFF0003FFFFFF
310
FFFF00000000001FF000FF00000000003FF8000FFFFC0000FFFFC000FF80007F
310
FE00000000007FFFE00000000007FFF8000001FFFE0000007F80000000000001
310
FFFE00000000003FFFFFFE00000000003FFFFF0003FFFFFFFFFF80000000003F
310
F000FF80000000007FF8000FFFFC0001FFFFC0007F80007FFF0000000000FFFF
310
F0000000000FFFF800000000000000007F80000000000001FFFF8000000000FF
310
FFFFFF8000000000FFFFFF0003FFFFFFFFFFC0000000007FF000FFC000000000
310
FFF8000FFFFE0001FFFFC0007F80007FFF8000000001FFFFF8000000001FFFF8
310
00000000000000007F80000000000001FFFFC000000001FFFFFFFFC000000001
310
FFFFFF0003FFFFFFFFFFE000000000FFF000FFE000000003FFF0001FFFFE0001
310
FFFFC0007F80007FFFC000000007FFFFFE000000003FFFF80000000000000000
310
7F80000000000001FFFFE000000003FFFFFFFFE000000003FFFFFF0003FFFFFF
310
FFFFF000000003FFF000FFF80000000FFFF0001FFFFE0001FFFFE0007F80007F
310
FFF00000000FFFFFFF00000000FFFFF800000000000000007F80000000000001
310
FFFFF80000000FFFFFFFFFF80000000FFFFFFF0003FFFFFFFFFFFC0000000FFF
310
F000FFFE0000003FFFF0001FFFFE0003FFFFE0003F80007FFFFC0000003FFFFF
310
FFC0000003FFFFF800000000000000007F80000000000001FFFFFE0000003FFF
310
FFFFFFFE0000003FFFFFFF0003FFFFFFFFFFFF0000003FFFF000FFFF800000FF
310
FFF0001FFFFF0003FFFFE0003F80007FFFFF000001FFFFFFFFF800001FFFFFF8
310
00000000000000007F80000000000001FFFFFFC00001FFFFFFFFFFFFC00001FF
310
FFFFFF0003FFFFFFFFFFFFC00000FFFFF000FFFFF8000FFFFFFFFFFFFFFFFFFF
310
FFFFFFFFFFFFFFFFFFFFF0001FFFFFFFFFFF0000FFFFFFF80000000000000000
310
7FFFFFFFFFFFFFFFFFFFFFFC001FFFFFFFFFFFFFFC001FFFFFFFFFFFFFFFFFFF
310
FFFFFFFC001FFFFFF000FFFFFFFFFFFFFFFFFFFFFFFFFFFFFFFFFFFFFFFFFFFF
310
FFFFFFFFFFFFFFFFFFFFFFFFFFFFFFFFFFFFFFFFFFFFFFFFFFFFFFFFFFFFFFFF
310
FFFFFFFFFFFFFFFFFFFFFFFFFFFFFFFFFFFFFFFFFFFFFFFFFFFFFFFFFFFFFFFF
310
F000FFFFFFFFFFFFFFFFFFFFFFFFFFFFFFFFFFFFFFFFFFFFFFFFFFFFFFFFFFFF
310
FFFFFFFFFFFFFFFFFFFFFFFFFFFFFFFFFFFFFFFFFFFFFFFFFFFFFFFFFFFFFFFF
310
FFFFFFFFFFFFFFFFFFFFFFFFFFFFFFFFFFFFFFFFFFFFFFFFF000FFFFFFFFFFFF
310
FFFFFFFFFFFFFFFFFFFFFFFFFFFFFFFFFFFFFFFFFFFFFFFFFFFFFFFFFFFFFFFF
310
FFFFFFFFFFFFFFFFFFFFFFFFFFFFFFFFFFFFFFFFFFFFFFFFFFFFFFFFFFFFFFFF
310
FFFFFFFFFFFFFFFFFFFFFFFFFFFFFFFFF000FFFFFFFFFFFFFFFFFFFFFFFFFFFF
310
FFFFFFFFFFFFFFFFFFFFFFFFFFFFFFFFFFFFFFFFFFFFFFFFFFFFFFFFFFFFFFFF
310
FFFFFFFFFFFFFFFFFFFFFFFFFFFFFFFFFFFFFFFFFFFFFFFFFFFFFFFFFFFFFFFF
310
FFFFFFFFFFFFFFFFF000FFFFFFFFFFFFFFFFFFFFFFFFFFFFFFFFFFFFFFFFFFFF
310
FFFFFFFFFFFFFFFFFFFFFFFFFFFFFFFFFFFFFFFFFFFFFFFFFFFFFFFFFFFFFFFF
310
FFFFFFFFFFFFFFFFFFFFFFFFFFFFFFFFFFFFFFFFFFFFFFFFFFFFFFFFFFFFFFFF
310
F000FFFFFFFFFFFFFFFFFFFFFFFFFFFFFFFFFFFFFFFFFFFFFFFFFFFFFFFFFFFF
310
FFFFFFFFFFFFFFFFFFFFFFFFFFFFFFFFFFFFFFFFFFFFFFFFFFFFFFFFFFFFFFFF
310
FFFFFFFFFFFFFFFFFFFFFFFFFFFFFFFFFFFFFFFFFFFFFFFFF000FFFFFFFFFFFF
310
FFFFFFFFFFFFFFFFFFFFFFFFFFFFFFFFFFFFFFFFFFFFFFFFFFFFFFFFFFFFFFFF
310
FFFFFFFFFFFFFFFFFFFFFFFFFFFFFFFFFFFFFFFFFFFFFFFFFFFFFFFFFFFFFFFF
310
FFFFFFFFFFFFFFFFFFFFFFFFFFFFFFFFF000FFFFFFFFFFFFFFFFFFFFFFFFFFFF
310
FFFFFFFFFFFFFFFFFFFFFFFFFFFFFFFFFFFFFFFFFFFFFFFFFFFFFFFFFFFFFFFF
310
FFFFFFFFFFFFFFFFFFFFFFFFFFFFFFFFFFFFFFFFFFFFFFFFFFFFFFFFFFFFFFFF
310
FFFFFFFFFFFFFFFFF000FFFFFFFFFFFFFFFFFFFFFFFFFFFFFFFFFFFFFFFFFFFF
310
FFFFFFFFFFFFFFFFFFFFFFFFFFFFFFFFFFFFFFFFFFFFFFFFFFFFFFFFFFFFFFFF
310
FFFFFFFFFFFFFFFFFFFFFFFFFFFFFFFFFFFFFFFFFFFFFFFFFFFFFFFFFFFFFFFF
310
F000FFFFFFFFFFFFFFFFFFFFFFFFFFFFFFFFFFFFFFFFFFFFFFFFFFFFFFFFFFFF
310
FFFFFFFFFFFFFFFFFFFFFFFFFFFFFFFFFFFFFFFFFFFFFFFFFFFFFFFFFFFFFFFF
310
FFFFFFFFFFFFFFFFFFFFFFFFFFFFFFFFFFFFFFFFFFFFFFFFF000FFFFFFFFFFFF
310
FFFFFFFFFFFFFFFFFFFFFFFFFFFFFFFFFFFFFFFFFFFFFFFFFFFFFFFFFFFFFFFF
310
FFFFFFFFFFFFFFFFFFFFFFFFFFFFFFFFFFFFFFFFFFFFFFFFFFFFFFFFFFFFFFFF
310
FFFFFFFFFFFFFFFFFFFFFFFFFFFFFFFFF000FFFFFFFFFFFFFFFFFFFFFFFFFFFF
310
FFFFFFFFFFFFFFFFFFFFFFFFFFFFFFFFFFFFFFFFFFFFFFFFFFFFFFFFFFFFFFFF
310
FFFFFFFFFFFFFFFFFFFFFFFFFFFFFFFFFFFFFFFFFFFFFFFFFFFFFFFFFFFFFFFF
310
FFFFFFFFFFFFFFFFF000FFFFFFFFFFFFFFFFFFFFFFFFFFFFFFFFFFFFFFFFFFFF
310
FFFFFFFFFFFFFFFFFFFFFFFFFFFFFFFFFFFFFFFFFFFFFFFFFFFFFFFFFFFFFFFF
310
FFFFFFFFFFFFFFFFFFFFFFFFFFFFFFFFFFFFFFFFFFFFFFFFFFFFFFFFFFFFFFFF
310
F000FFFFFFFFFFFFFFFFFFFFFFFFFFFFFFFFFFFFFFFFFFFFFFFFFFFFFFFFFFFF
310
FFFFFFFFFFFFFFFFFFFFFFFFFFFFFFFFFFFFFFFFFFFFFFFFFFFFFFFFFFFFFFFF
310
FFFFFFFFFFFFFFFFFFFFFFFFFFFFFFFFFFFFFFFFFFFFFFFFF000FFFFFFFFFFFF
310
FFFFFFFFFFFFFFFFFFFFFFFFFFFFFFFFFFFFFFFFFFFFFFFFFFFFFFFFFFFFFFFF
310
FFFFFFFFFFFFFFFFFFFFFFFFFFFFFFFFFFFFFFFFFFFFFFFFFFFFFFFFFFFFFFFF
310
FFFFFFFFFFFFFFFFFFFFFFFFFFFFFFFFF000FFFFFFFFFFFFFFFFFFFFFFFFFFFF
310
FFFFFFFFFFFFFFFFFFFFFFFFFFFFFFFFFFFFFFFFFFFFFFFFFFFFFFFFFFFFFFFF
310
FFFFFFFFFFFFFFFFFFFFFFFFFFFFFFFFFFFFFFFFFFFFFFFFFFFFFFFFFFFFFFFF
310
FFFFFFFFFFFFFFFFF000FFFFFFFFFFFFFFFFFFFFFFFFFFFFFFFFFFFFFFFFFFFF
310
FFFFFFFFFFFFFFFFFFFFFFFFFFFFFFFFFFFFFFFFFFFFFFFFFFFFFFFFFFFFFFFF
310
FFFFFFFFFFFFFFFFFFFFFFFFFFFFFFFFFFFFFFFFFFFFFFFFFFFFFFFFFFFFFFFF
310
F000FFFFFFFFFFFFFFFFFFFFFFFFFFFFFFFFFFFFFFFFFFFFFFFFFFFFFFFFFFFF
310
FFFFFFFFFFFFFFFFFFFFFFFFFFFFFFFFFFFFFFFFFFFFFFFFFFFFFFFFFFFFFFFF
310
FFFFFFFFFFFFFFFFFFFFFFFFFFFFFFFFFFFFFFFFFFFFFFFFF000FFFFFFFFFFFF
310
FFFFFFFFFFFFFFFFFFFFFFFFFFFFFFFFFFFFFFFFFFFFFFFFFFFFFFFFFFFFFFFF
310
FFFFFFFFFFFFFFFFFFFFFFFFFFFFFFFFFFFFFFFFFFFFFFFFFFFFFFFFFFFFFFFF
310
FFFFFFFFFFFFFFFFFFFFFFFFFFFFFFFFF000FFFFFFFFFFFFFFFFFFFFFFFFFFFF
310
FFFFFFFFFFFFFFFFFFFFFFFFFFFFFFFFFFFFFFFFFFFFFFFFFFFFFFFFFFFFFFFF
310
FFFFFFFFFFFFFFFFFFFFFFFFFFFFFFFFFFFFFFFFFFFFFFFFFFFFFFFFFFFFFFFF
310
FFFFFFFFFFFFFFFFF000FFFFFFFFFFFFFFFFFFFFFFFFFFFFFFFFFFFFFFFFFFFF
310
FFFFFFFFFFFFFFFFFFFFFFFFFFFFFFFFFFFFFFFFFFFFFFFFFFFFFFFFFFFFFFFF
310
FFFFFFFFFFFFFFFFFFFFFFFFFFFFFFFFFFFFFFFFFFFFFFFFFFFFFFFFFFFFFFFF
310
F000FFFFFFFFFFFFFFFFFFFFFFFFFFFFFFFFFFFFFFFFFFFFFFFFFFFFFFFFFFFF
310
FFFFFFFFFFFFFFFFFFFFFFFFFFFFFFFFFFFFFFFFFFFFFFFFFFFFFFFFFFFFFFFF
310
FFFFFFFFFFFFFFFFFFFFFFFFFFFFFFFFFFFFFFFFFFFFFFFFF000FFFFFFFFFFFF
310
FFFFFFFFFFFFFFFFFFFFFFFFFFFFFFFFFFFFFFFFFFFFFFFFFFFFFFFFFFFFFFFF
310
FFFFFFFFFFFFFFFFFFFFFFFFFFFFFFFFFFFFFFFFFFFFFFFFFFFFFFFFFFFFFFFF
310
FFFFFFFFFFFFFFFFFFFFFFFFFFFFFFFFF0000000000000000000000000000000
310
00000000FFFFFF7FFFFFFF7FFFFFFF7FFFFFFF7FFFFFFF7FFFFFFF7FFFFFFF7F
310
FFFFFF7FFFFFFF7FFFFFFF7FFFFFFF7FFFFFFF7FFFFFFF7FFFFFFF7FFFFFFF7F
310
FFFFFF7FFFFFFF7FFFFFFF7FFFFFFF7FFFFFFF7FFFFFFF7FFFFFFF7FFFFFFF7F
310
FFFFFF7FFFFFFF7FFFFFFF7FFFFFFF7FFFFFFF7FFFFFFF7FFFFFFF7FFFFFFF7F
310
FFFFFF7FFFFFFF7FFFFFFF7FFFFFFF7FFFFFFF7FFFFFFF7FFFFFFF7FFFFFFF7F
310
FFFFFF7FFFFFFF7FFFFFFF7FFFFFFF7FFFFFFF7FFFFFFF7FFFFFFF7FFFFFFF7F
310
FFFFFF7FFFFFFF7FFFFFFF7FFFFFFF7FFFFFFF7FFFFFFF7FFFFFFF7FFFFFFF7F
310
FFFFFF7FFFFFFF7FFFFFFF7FFFFFFF7FFFFFFF7FFFFFFF7FFFFFFF7FFFFFFF7F
310
FFFFFF7FFFFFFF7FFFFFFF7FFFFFFF7FFFFFFF7FFFFFFF7FFFFFFF7FFFFFFF7F
310
FFFFFF7FFFFFFF7FFFFFFF7FFFFFFF7FFFFFFF7FFFFFFF7FFFFFFF7FFFFFFF7F
310
FFFFFF7FFFFFFF7FFFFFFF7FFFFFFF7FFFFFFF7FFFFFFF7FFFFFFF7FFFFFFF7F
310
FFFFFF7FFFFFFF7FFFFFFF7FFFFFFF7FFFFFFF7FFFFFFF7FFFFFFF7FFFFFFF7F
310
FFFFFF7FFFFFFF7FFFFFFF7FFFFFFF7FFFFFFF7FFFFFFF7FFFFFFF7FFFFFFF7F
310
FFFFFF7FFFFFFF7FFFFFFF7FFFFFFF7FFFFFFF7FFFFFFF7FFFFFFF7FFFFFFF7F
310
FFFFFF7FFFFFFF7FFFFFFF7FFFFFFF7FFFFFFF7FFFFFFF7FFFFFFF7FFFFFFF7F
  1
OLE
  0
ENDSEC
  0
SECTION
  2
OBJECTS
  0
DICTIONARY
  5
C
330
0
100
AcDbDictionary
281
     1
  3
ACAD_GROUP
350
D
  3
ACAD_LAYOUT
350
1A
  3
ACAD_MLEADERSTYLE
350
309
  3
ACAD_MLINESTYLE
350
17
  3
ACAD_PLOTSETTINGS
350
19
  3
ACAD_PLOTSTYLENAME
350
E
  3
ACAD_TABLESTYLE
350
308
  3
ACAD_VISUALSTYLE
350
2A
  3
AcDbVariableDictionary
350
30A
  0
DICTIONARY
  5
D
102
{ACAD_REACTORS
330
C
102
}
330
C
100
AcDbDictionary
281
     1
  0
DICTIONARY
  5
1A
102
{ACAD_REACTORS
330
C
102
}
330
C
100
AcDbDictionary
281
     1
  3
Layout1
350
1E
  3
Layout2
350
26
  3
Model
350
22
  0
DICTIONARY
  5
309
102
{ACAD_REACTORS
330
C
102
}
330
C
100
AcDbDictionary
281
     1
  0
DICTIONARY
  5
17
102
{ACAD_REACTORS
330
C
102
}
330
C
100
AcDbDictionary
281
     1
  3
Standard
350
18
  0
DICTIONARY
  5
19
102
{ACAD_REACTORS
330
C
102
}
330
C
100
AcDbDictionary
281
     1
  0
ACDBDICTIONARYWDFLT
  5
E
102
{ACAD_REACTORS
330
C
102
}
330
C
100
AcDbDictionary
281
     1
  3
Normal
350
F
100
AcDbDictionaryWithDefault
340
F
  0
DICTIONARY
  5
308
102
{ACAD_REACTORS
330
C
102
}
330
C
100
AcDbDictionary
281
     1
  0
DICTIONARY
  5
2A
102
{ACAD_REACTORS
330
C
102
}
330
C
100
AcDbDictionary
281
     1
  3
2dWireframe
350
2F
  3
3D Hidden
350
31
  3
3dWireframe
350
30
  3
Basic
350
32
  3
Brighten
350
36
  3
ColorChange
350
3A
  3
Conceptual
350
34
  3
Dim
350
35
  3
Facepattern
350
39
  3
Flat
350
2B
  3
FlatWithEdges
350
2C
  3
Gouraud
350
2D
  3
GouraudWithEdges
350
2E
  3
Linepattern
350
38
  3
Realistic
350
33
  3
Thicken
350
37
  0
DICTIONARY
  5
30A
102
{ACAD_REACTORS
330
C
102
}
330
C
100
AcDbDictionary
281
     1
  3
PSOLHEIGHT
350
30C
  3
PSOLWIDTH
350
30B
  0
LAYOUT
  5
1E
102
{ACAD_REACTORS
330
1A
102
}
330
1A
100
AcDbPlotSettings
  1

  2
none_device
  4

  6

 40
0.0
 41
0.0
 42
0.0
 43
0.0
 44
0.0
 45
0.0
 46
0.0
 47
0.0
 48
0.0
 49
0.0
140
0.0
141
0.0
142
1.0
143
1.0
 70
   688
 72
     0
 73
     0
 74
     5
  7

 75
    16
147
1.0
148
0.0
149
0.0
100
AcDbLayout
  1
Layout1
 70
     1
 71
     1
 10
0.0
 20
0.0
 11
420.0
 21
297.0
 12
0.0
 22
0.0
 32
0.0
 14
1.0000000000E+20
 24
1.0000000000E+20
 34
1.0000000000E+20
 15
-1.0000000000E+20
 25
-1.0000000000E+20
 35
-1.0000000000E+20
146
0.0
 13
0.0
 23
0.0
 33
0.0
 16
1.0
 26
0.0
 36
0.0
 17
0.0
 27
1.0
 37
0.0
 76
     0
330
1B
  0
LAYOUT
  5
26
102
{ACAD_REACTORS
330
1A
102
}
330
1A
100
AcDbPlotSettings
  1

  2
none_device
  4

  6

 40
0.0
 41
0.0
 42
0.0
 43
0.0
 44
0.0
 45
0.0
 46
0.0
 47
0.0
 48
0.0
 49
0.0
140
0.0
141
0.0
142
1.0
143
1.0
 70
   688
 72
     0
 73
     0
 74
     5
  7

 75
    16
147
1.0
148
0.0
149
0.0
100
AcDbLayout
  1
Layout2
 70
     1
 71
     2
 10
0.0
 20
0.0
 11
0.0
 21
0.0
 12
0.0
 22
0.0
 32
0.0
 14
0.0
 24
0.0
 34
0.0
 15
0.0
 25
0.0
 35
0.0
146
0.0
 13
0.0
 23
0.0
 33
0.0
 16
1.0
 26
0.0
 36
0.0
 17
0.0
 27
1.0
 37
0.0
 76
     0
330
23
  0
LAYOUT
  5
22
102
{ACAD_REACTORS
330
1A
102
}
330
1A
100
AcDbPlotSettings
  1

  2
none_device
  4

  6

 40
0.0
 41
0.0
 42
0.0
 43
0.0
 44
0.0
 45
0.0
 46
0.0
 47
0.0
 48
0.0
 49
0.0
140
0.0
141
0.0
142
1.0
143
1.0
 70
  1712
 72
     0
 73
     0
 74
     0
  7

 75
     0
147
1.0
148
0.0
149
0.0
100
AcDbLayout
  1
Model
 70
     1
 71
     0
 10
0.0
 20
0.0
 11
297.0
 21
210.0
 12
0.0
 22
0.0
 32
0.0
 14
0.0
 24
0.0
 34
0.0
 15
297.0
 25
210.0
 35
0.0
146
0.0
 13
0.0
 23
0.0
 33
0.0
 16
1.0
 26
0.0
 36
0.0
 17
0.0
 27
1.0
 37
0.0
 76
     0
330
1F
331
29
  0
MLINESTYLE
  5
18
102
{ACAD_REACTORS
330
17
102
}
330
17
100
AcDbMlineStyle
  2
Standard
 70
     0
  3

 62
   256
 51
90.0
 52
90.0
 71
     2
 49
0.5
 62
   256
  6
BYLAYER
 49
-0.5
 62
   256
  6
BYLAYER
  0
ACDBPLACEHOLDER
  5
F
102
{ACAD_REACTORS
330
E
102
}
330
E
  0
VISUALSTYLE
  5
2F
102
{ACAD_REACTORS
330
2A
102
}
330
2A
100
AcDbVisualStyle
  2
2dWireframe
 70
     4
 71
     0
 72
     2
 73
     0
 90
        0
 40
-0.6
 41
-30.0
 62
     5
 63
     7
 74
     1
 91
        4
 64
     7
 65
   257
 75
     1
175
     1
 42
1.0
 92
        0
 66
   257
 43
1.0
 76
     1
 77
     6
 78
     2
 67
     7
 79
     5
170
     0
171
     0
290
     0
174
     0
 93
        1
 44
0.0
173
     0
291
     0
 45
0.0
1001
ACAD
1000
AcDbSavedByObjectVersion
1070
     0
  0
VISUALSTYLE
  5
31
102
{ACAD_REACTORS
330
2A
102
}
330
2A
100
AcDbVisualStyle
  2
3D Hidden
 70
     6
 71
     1
 72
     2
 73
     2
 90
        0
 40
-0.6
 41
-30.0
 62
     5
 63
     7
 74
     2
 91
        2
 64
     7
 65
   257
 75
     2
175
     1
 42
40.0
 92
        0
 66
   257
 43
1.0
 76
     1
 77
     6
 78
     2
 67
     7
 79
     3
170
     0
171
     0
290
     0
174
     0
 93
        1
 44
0.0
173
     0
291
     0
 45
0.0
1001
ACAD
1000
AcDbSavedByObjectVersion
1070
     0
  0
VISUALSTYLE
  5
30
102
{ACAD_REACTORS
330
2A
102
}
330
2A
100
AcDbVisualStyle
  2
3dWireframe
 70
     5
 71
     0
 72
     2
 73
     0
 90
        0
 40
-0.6
 41
-30.0
 62
     5
 63
     7
 74
     1
 91
        4
 64
     7
 65
   257
 75
     1
175
     1
 42
1.0
 92
        0
 66
   257
 43
1.0
 76
     1
 77
     6
 78
     2
 67
     7
 79
     5
170
     0
171
     0
290
     0
174
     0
 93
        1
 44
0.0
173
     0
291
     0
 45
0.0
1001
ACAD
1000
AcDbSavedByObjectVersion
1070
     0
  0
VISUALSTYLE
  5
32
102
{ACAD_REACTORS
330
2A
102
}
330
2A
100
AcDbVisualStyle
  2
Basic
 70
     7
 71
     1
 72
     0
 73
     1
 90
        0
 40
-0.6
 41
-30.0
 62
     5
 63
     7
 74
     0
 91
        4
 64
     7
 65
   257
 75
     1
175
     1
 42
1.0
 92
        8
 66
     7
 43
1.0
 76
     1
 77
     6
 78
     2
 67
     7
 79
     5
170
     0
171
     0
290
     0
174
     0
 93
        1
 44
0.0
173
     0
291
     1
 45
0.0
1001
ACAD
1000
AcDbSavedByObjectVersion
1070
     0
  0
VISUALSTYLE
  5
36
102
{ACAD_REACTORS
330
2A
102
}
330
2A
100
AcDbVisualStyle
  2
Brighten
 70
    12
 71
     2
 72
     2
 73
     0
 90
        0
 40
-0.6
 41
-30.0
 62
     5
 63
     7
 74
     1
 91
        4
 64
     7
 65
   257
 75
     1
175
     1
 42
1.0
 92
        8
 66
     7
 43
1.0
 76
     1
 77
     6
 78
     2
 67
     7
 79
     5
170
     0
171
     0
290
     0
174
     0
 93
        1
 44
50.0
173
     0
291
     1
 45
0.0
1001
ACAD
1000
AcDbSavedByObjectVersion
1070
     0
  0
VISUALSTYLE
  5
3A
102
{ACAD_REACTORS
330
2A
102
}
330
2A
100
AcDbVisualStyle
  2
ColorChange
 70
    16
 71
     2
 72
     2
 73
     3
 90
        0
 40
-0.6
 41
-30.0
 62
     5
 63
     8
 74
     1
 91
        4
 64
     7
 65
   257
 75
     1
175
     1
 42
1.0
 92
        8
 66
     8
 43
1.0
 76
     1
 77
     6
 78
     2
 67
     7
 79
     5
170
     0
171
     0
290
     0
174
     0
 93
        1
 44
0.0
173
     0
291
     1
 45
0.0
1001
ACAD
1000
AcDbSavedByObjectVersion
1070
     0
  0
VISUALSTYLE
  5
34
102
{ACAD_REACTORS
330
2A
102
}
330
2A
100
AcDbVisualStyle
  2
Conceptual
 70
     9
 71
     3
 72
     2
 73
     0
 90
        0
 40
-0.6
 41
-30.0
 62
     5
 63
     7
 74
     2
 91
        2
 64
     7
 65
   257
 75
     1
175
     1
 42
40.0
 92
        8
 66
     7
 43
1.0
 76
     1
 77
     6
 78
     2
 67
     7
 79
     3
170
     0
171
     0
290
     0
174
     0
 93
        1
 44
0.0
173
     0
291
     0
 45
0.0
1001
ACAD
1000
AcDbSavedByObjectVersion
1070
     0
  0
VISUALSTYLE
  5
35
102
{ACAD_REACTORS
330
2A
102
}
330
2A
100
AcDbVisualStyle
  2
Dim
 70
    11
 71
     2
 72
     2
 73
     0
 90
        0
 40
-0.6
 41
-30.0
 62
     5
 63
     7
 74
     1
 91
        4
 64
     7
 65
   257
 75
     1
175
     1
 42
1.0
 92
        8
 66
     7
 43
1.0
 76
     1
 77
     6
 78
     2
 67
     7
 79
     5
170
     0
171
     0
290
     0
174
     0
 93
        1
 44
-50.0
173
     0
291
     1
 45
0.0
1001
ACAD
1000
AcDbSavedByObjectVersion
1070
     0
  0
VISUALSTYLE
  5
39
102
{ACAD_REACTORS
330
2A
102
}
330
2A
100
AcDbVisualStyle
  2
Facepattern
 70
    15
 71
     2
 72
     2
 73
     0
 90
        0
 40
-0.6
 41
-30.0
 62
     5
 63
     7
 74
     1
 91
        4
 64
     7
 65
   257
 75
     1
175
     1
 42
1.0
 92
        8
 66
     7
 43
1.0
 76
     1
 77
     6
 78
     2
 67
     7
 79
     5
170
     0
171
     0
290
     0
174
     0
 93
        1
 44
0.0
173
     0
291
     1
 45
0.0
1001
ACAD
1000
AcDbSavedByObjectVersion
1070
     0
  0
VISUALSTYLE
  5
2B
102
{ACAD_REACTORS
330
2A
102
}
330
2A
100
AcDbVisualStyle
  2
Flat
 70
     0
 71
     2
 72
     1
 73
     1
 90
        2
 40
-0.6
 41
30.0
 62
     5
 63
     7
 74
     0
 91
        4
 64
     7
 65
   257
 75
     1
175
     1
 42
1.0
 92
        8
 66
     7
 43
1.0
 76
     1
 77
     6
 78
     2
 67
     7
 79
     5
170
     0
171
     0
290
     0
174
     0
 93
       13
 44
0.0
173
     0
291
     1
 45
0.0
1001
ACAD
1000
AcDbSavedByObjectVersion
1070
     0
  0
VISUALSTYLE
  5
2C
102
{ACAD_REACTORS
330
2A
102
}
330
2A
100
AcDbVisualStyle
  2
FlatWithEdges
 70
     1
 71
     2
 72
     1
 73
     1
 90
        2
 40
-0.6
 41
30.0
 62
     5
 63
     7
 74
     1
 91
        4
 64
     7
 65
   257
 75
     1
175
     1
 42
1.0
 92
        0
 66
   257
 43
1.0
 76
     1
 77
     6
 78
     2
 67
     7
 79
     5
170
     0
171
     0
290
     0
174
     0
 93
       13
 44
0.0
173
     0
291
     1
 45
0.0
1001
ACAD
1000
AcDbSavedByObjectVersion
1070
     0
  0
VISUALSTYLE
  5
2D
102
{ACAD_REACTORS
330
2A
102
}
330
2A
100
AcDbVisualStyle
  2
Gouraud
 70
     2
 71
     2
 72
     2
 73
     1
 90
        2
 40
-0.6
 41
30.0
 62
     5
 63
     7
 74
     0
 91
        4
 64
     7
 65
   257
 75
     1
175
     1
 42
1.0
 92
        0
 66
     7
 43
1.0
 76
     1
 77
     6
 78
     2
 67
     7
 79
     5
170
     0
171
     0
290
     0
174
     0
 93
       13
 44
0.0
173
     0
291
     1
 45
0.0
1001
ACAD
1000
AcDbSavedByObjectVersion
1070
     0
  0
VISUALSTYLE
  5
2E
102
{ACAD_REACTORS
330
2A
102
}
330
2A
100
AcDbVisualStyle
  2
GouraudWithEdges
 70
     3
 71
     2
 72
     2
 73
     1
 90
        2
 40
-0.6
 41
30.0
 62
     5
 63
     7
 74
     1
 91
        4
 64
     7
 65
   257
 75
     1
175
     1
 42
1.0
 92
        0
 66
   257
 43
1.0
 76
     1
 77
     6
 78
     2
 67
     7
 79
     5
170
     0
171
     0
290
     0
174
     0
 93
       13
 44
0.0
173
     0
291
     1
 45
0.0
1001
ACAD
1000
AcDbSavedByObjectVersion
1070
     0
  0
VISUALSTYLE
  5
38
102
{ACAD_REACTORS
330
2A
102
}
330
2A
100
AcDbVisualStyle
  2
Linepattern
 70
    14
 71
     2
 72
     2
 73
     0
 90
        0
 40
-0.6
 41
-30.0
 62
     5
 63
     7
 74
     1
 91
        4
 64
     7
 65
   257
 75
     7
175
     7
 42
1.0
 92
        8
 66
     7
 43
1.0
 76
     1
 77
     6
 78
     2
 67
     7
 79
     5
170
     0
171
     0
290
     0
174
     0
 93
        1
 44
0.0
173
     0
291
     1
 45
0.0
1001
ACAD
1000
AcDbSavedByObjectVersion
1070
     0
  0
VISUALSTYLE
  5
33
102
{ACAD_REACTORS
330
2A
102
}
330
2A
100
AcDbVisualStyle
  2
Realistic
 70
     8
 71
     2
 72
     2
 73
     0
 90
        0
 40
-0.6
 41
-30.0
 62
     5
 63
     7
 74
     1
 91
        0
 64
     7
 65
   257
 75
     1
175
     1
 42
1.0
 92
        8
 66
     8
 43
1.0
 76
     1
 77
     6
 78
     2
 67
     7
 79
     5
170
     0
171
     0
290
     0
174
     0
 93
       13
 44
0.0
173
     0
291
     0
 45
0.0
1001
ACAD
1000
AcDbSavedByObjectVersion
1070
     0
  0
VISUALSTYLE
  5
37
102
{ACAD_REACTORS
330
2A
102
}
330
2A
100
AcDbVisualStyle
  2
Thicken
 70
    13
 71
     2
 72
     2
 73
     0
 90
        0
 40
-0.6
 41
-30.0
 62
     5
 63
     7
 74
     1
 91
        4
 64
     7
 65
   257
 75
     1
175
     1
 42
1.0
 92
       12
 66
     7
 43
1.0
 76
     1
 77
     6
 78
     2
 67
     7
 79
     5
170
     0
171
     0
290
     0
174
     0
 93
        1
 44
0.0
173
     0
291
     1
 45
0.0
1001
ACAD
1000
AcDbSavedByObjectVersion
1070
     0
  0
DICTIONARYVAR
  5
30C
102
{ACAD_REACTORS
330
30A
102
}
330
30A
100
DictionaryVariables
280
     0
  1
80.000000
  0
DICTIONARYVAR
  5
30B
102
{ACAD_REACTORS
330
30A
102
}
330
30A
100
DictionaryVariables
280
     0
  1
5.000000
  0
ENDSEC
  0
EOF
