  0
SECTION
  2
HEADER
  9
$ACADVER
  1
AC1015
  9
$ACADMAINTVER
 70
     6
  9
$DWGCODEPAGE
  3
ANSI_1252
  9
$INSBASE
 10
0.0
 20
0.0
 30
0.0
  9
$EXTMIN
 10
0.0
 20
0.0
 30
0.0
  9
$EXTMAX
 10
297.0
 20
210.0
 30
0.0
  9
$LIMMIN
 10
0.0
 20
0.0
  9
$LIMMAX
 10
297.0
 20
210.0
  9
$ORTHOMODE
 70
     0
  9
$REGENMODE
 70
     1
  9
$FILLMODE
 70
     1
  9
$QTEXTMODE
 70
     0
  9
$MIRRTEXT
 70
     1
  9
$LTSCALE
 40
1.0
  9
$ATTMODE
 70
     1
  9
$TEXTSIZE
 40
2.0
  9
$TRACEWID
 40
1.0
  9
$TEXTSTYLE
  7
Standard
  9
$CLAYER
  8
0
  9
$CELTYPE
  6
ByLayer
  9
$CECOLOR
 62
   256
  9
$CELTSCALE
 40
1.0
  9
$DISPSILH
 70
     0
  9
$DIMSCALE
 40
1.0
  9
$DIMASZ
 40
3.0
  9
$DIMEXO
 40
0.0
  9
$DIMDLI
 40
3.75
  9
$DIMRND
 40
0.0
  9
$DIMDLE
 40
0.0
  9
$DIMEXE
 40
1.0
  9
$DIMTP
 40
0.0
  9
$DIMTM
 40
0.0
  9
$DIMTXT
 40
2.0
  9
$DIMCEN
 40
2.5
  9
$DIMTSZ
 40
0.0
  9
$DIMTOL
 70
     0
  9
$DIMLIM
 70
     0
  9
$DIMTIH
 70
     1
  9
$DIMTOH
 70
     1
  9
$DIMSE1
 70
     0
  9
$DIMSE2
 70
     0
  9
$DIMTAD
 70
     1
  9
$DIMZIN
 70
     0
  9
$DIMBLK
  1

  9
$DIMASO
 70
     1
  9
$DIMSHO
 70
     1
  9
$DIMPOST
  1

  9
$DIMAPOST
  1

  9
$DIMALT
 70
     0
  9
$DIMALTD
 70
     3
  9
$DIMALTF
 40
0.0393700787
  9
$DIMLFAC
 40
1.0
  9
$DIMTOFL
 70
     1
  9
$DIMTVP
 40
0.0
  9
$DIMTIX
 70
     0
  9
$DIMSOXD
 70
     0
  9
$DIMSAH
 70
     0
  9
$DIMBLK1
  1

  9
$DIMBLK2
  1

  9
$DIMSTYLE
  2
ISO-25
  9
$DIMCLRD
 70
     0
  9
$DIMCLRE
 70
     0
  9
$DIMCLRT
 70
     0
  9
$DIMTFAC
 40
1.0
  9
$DIMGAP
 40
1.524
  9
$DIMJUST
 70
     0
  9
$DIMSD1
 70
     0
  9
$DIMSD2
 70
     0
  9
$DIMTOLJ
 70
     0
  9
$DIMTZIN
 70
     0
  9
$DIMALTZ
 70
     0
  9
$DIMALTTZ
 70
     0
  9
$DIMUPT
 70
     0
  9
$DIMDEC
 70
     2
  9
$DIMTDEC
 70
     3
  9
$DIMALTU
 70
     2
  9
$DIMALTTD
 70
     3
  9
$DIMTXSTY
  7
Standard
  9
$DIMAUNIT
 70
     0
  9
$DIMADEC
 70
     2
  9
$DIMALTRND
 40
0.0
  9
$DIMAZIN
 70
     0
  9
$DIMDSEP
 70
    44
  9
$DIMATFIT
 70
     3
  9
$DIMFRAC
 70
     0
  9
$DIMLDRBLK
  1

  9
$DIMLUNIT
 70
     2
  9
$DIMLWD
 70
    -2
  9
$DIMLWE
 70
    -2
  9
$DIMTMOVE
 70
     0
  9
$LUNITS
 70
     2
  9
$LUPREC
 70
     2
  9
$SKETCHINC
 40
1.0
  9
$FILLETRAD
 40
10.0
  9
$AUNITS
 70
     0
  9
$AUPREC
 70
     2
  9
$MENU
  1
.
  9
$ELEVATION
 40
0.0
  9
$PELEVATION
 40
0.0
  9
$THICKNESS
 40
0.0
  9
$LIMCHECK
 70
     0
  9
$CHAMFERA
 40
10.0
  9
$CHAMFERB
 40
10.0
  9
$CHAMFERC
 40
20.0
  9
$CHAMFERD
 40
0.0
  9
$SKPOLY
 70
     0
  9
$TDCREATE
 40
2455610.443955972
  9
$TDUCREATE
 40
2455610.402289305
  9
$TDUPDATE
 40
2455610.443955984
  9
$TDUUPDATE
 40
2455610.402289317
  9
$TDINDWG
 40
0.0000000116
  9
$TDUSRTIMER
 40
0.0000000116
  9
$USRTIMER
 70
     1
  9
$ANGBASE
 50
0.0
  9
$ANGDIR
 70
     0
  9
$PDMODE
 70
     0
  9
$PDSIZE
 40
-1.0
  9
$PLINEWID
 40
0.0
  9
$SPLFRAME
 70
     0
  9
$SPLINETYPE
 70
     6
  9
$SPLINESEGS
 70
     8
  9
$HANDSEED
  5
30C
  9
$SURFTAB1
 70
     6
  9
$SURFTAB2
 70
     6
  9
$SURFTYPE
 70
     6
  9
$SURFU
 70
     6
  9
$SURFV
 70
     6
  9
$UCSBASE
  2

  9
$UCSNAME
  2

  9
$UCSORG
 10
0.0
 20
0.0
 30
0.0
  9
$UCSXDIR
 10
1.0
 20
0.0
 30
0.0
  9
$UCSYDIR
 10
0.0
 20
1.0
 30
0.0
  9
$UCSORTHOREF
  2

  9
$UCSORTHOVIEW
 70
     0
  9
$UCSORGTOP
 10
0.0
 20
0.0
 30
0.0
  9
$UCSORGBOTTOM
 10
0.0
 20
0.0
 30
0.0
  9
$UCSORGLEFT
 10
0.0
 20
0.0
 30
0.0
  9
$UCSORGRIGHT
 10
0.0
 20
0.0
 30
0.0
  9
$UCSORGFRONT
 10
0.0
 20
0.0
 30
0.0
  9
$UCSORGBACK
 10
0.0
 20
0.0
 30
0.0
  9
$PUCSBASE
  2

  9
$PUCSNAME
  2

  9
$PUCSORG
 10
0.0
 20
0.0
 30
0.0
  9
$PUCSXDIR
 10
1.0
 20
0.0
 30
0.0
  9
$PUCSYDIR
 10
0.0
 20
1.0
 30
0.0
  9
$PUCSORTHOREF
  2

  9
$PUCSORTHOVIEW
 70
     0
  9
$PUCSORGTOP
 10
0.0
 20
0.0
 30
0.0
  9
$PUCSORGBOTTOM
 10
0.0
 20
0.0
 30
0.0
  9
$PUCSORGLEFT
 10
0.0
 20
0.0
 30
0.0
  9
$PUCSORGRIGHT
 10
0.0
 20
0.0
 30
0.0
  9
$PUCSORGFRONT
 10
0.0
 20
0.0
 30
0.0
  9
$PUCSORGBACK
 10
0.0
 20
0.0
 30
0.0
  9
$USERI1
 70
     0
  9
$USERI2
 70
     0
  9
$USERI3
 70
     0
  9
$USERI4
 70
     0
  9
$USERI5
 70
     0
  9
$USERR1
 40
0.0
  9
$USERR2
 40
0.0
  9
$USERR3
 40
0.0
  9
$USERR4
 40
0.0
  9
$USERR5
 40
0.0
  9
$WORLDVIEW
 70
     1
  9
$SHADEDGE
 70
     3
  9
$SHADEDIF
 70
    70
  9
$TILEMODE
 70
     1
  9
$MAXACTVP
 70
    64
  9
$PINSBASE
 10
0.0
 20
0.0
 30
0.0
  9
$PLIMCHECK
 70
     0
  9
$PEXTMIN
 10
1.0000000000E+20
 20
1.0000000000E+20
 30
1.0000000000E+20
  9
$PEXTMAX
 10
-1.0000000000E+20
 20
-1.0000000000E+20
 30
-1.0000000000E+20
  9
$PLIMMIN
 10
0.0
 20
0.0
  9
$PLIMMAX
 10
420.0
 20
297.0
  9
$UNITMODE
 70
     0
  9
$VISRETAIN
 70
     1
  9
$PLINEGEN
 70
     0
  9
$PSLTSCALE
 70
     1
  9
$TREEDEPTH
 70
  3020
  9
$CMLSTYLE
  2
Standard
  9
$CMLJUST
 70
     0
  9
$CMLSCALE
 40
20.0
  9
$PROXYGRAPHICS
 70
     1
  9
$MEASUREMENT
 70
     1
  9
$CELWEIGHT
370
    -1
  9
$ENDCAPS
280
     0
  9
$JOINSTYLE
280
     0
  9
$LWDISPLAY
290
     1
  9
$INSUNITS
 70
     4
  9
$HYPERLINKBASE
  1

  9
$STYLESHEET
  1

  9
$XEDIT
290
     1
  9
$CEPSNTYPE
380
     0
  9
$PSTYLEMODE
290
     1
  9
$FINGERPRINTGUID
  2
{C30EF26F-059A-4D98-925D-A06094E153CD}
  9
$VERSIONGUID
  2
{FAEB1C32-E019-11D5-929B-00C0DF256EC4}
  9
$EXTNAMES
290
     1
  9
$PSVPSCALE
 40
0.0
  9
$OLESTARTUP
290
     0
  0
ENDSEC
  0
SECTION
  2
CLASSES
  0
CLASS
  1
ACDBDICTIONARYWDFLT
  2
AcDbDictionaryWithDefault
  3
ObjectDBX Classes
 90
        0
280
     0
281
     0
  0
CLASS
  1
VISUALSTYLE
  2
AcDbVisualStyle
  3
ObjectDBX Classes
 90
     4095
280
     0
281
     0
  0
CLASS
  1
DICTIONARYVAR
  2
AcDbDictionaryVar
  3
ObjectDBX Classes
 90
        0
280
     0
281
     0
  0
CLASS
  1
ACDBPLACEHOLDER
  2
AcDbPlaceHolder
  3
ObjectDBX Classes
 90
        0
280
     0
281
     0
  0
CLASS
  1
LAYOUT
  2
AcDbLayout
  3
ObjectDBX Classes
 90
        0
280
     0
281
     0
  0
ENDSEC
  0
SECTION
  2
TABLES
  0
TABLE
  2
VPORT
  5
8
330
0
100
AcDbSymbolTable
 70
     1
  0
VPORT
  5
29
330
8
100
AcDbSymbolTableRecord
100
AcDbViewportTableRecord
  2
*Active
 70
     0
 10
0.0
 20
0.0
 11
1.0
 21
1.0
 12
148.5
 22
105.0
 13
0.0
 23
0.0
 14
10.0
 24
10.0
 15
10.0
 25
10.0
 16
0.0
 26
0.0
 36
1.0
 17
0.0
 27
0.0
 37
0.0
 40
210.0
 41
1.4142857143
 42
50.0
 43
0.0
 44
0.0
 50
0.0
 51
0.0
 71
     0
 72
  2000
 73
     1
 74
     3
 75
     0
 76
     0
 77
     0
 78
     0
281
     0
 65
     1
110
0.0
120
0.0
130
0.0
111
1.0
121
0.0
131
0.0
112
0.0
122
1.0
132
0.0
 79
     0
146
0.0
  0
ENDTAB
  0
TABLE
  2
LTYPE
  5
5
330
0
100
AcDbSymbolTable
 70
     6
  0
LTYPE
  5
14
330
5
100
AcDbSymbolTableRecord
100
AcDbLinetypeTableRecord
  2
ByBlock
 70
     0
  3

 72
    65
 73
     0
 40
0.0
  0
LTYPE
  5
15
330
5
100
AcDbSymbolTableRecord
100
AcDbLinetypeTableRecord
  2
ByLayer
 70
     0
  3

 72
    65
 73
     0
 40
0.0
  0
LTYPE
  5
16
330
5
100
AcDbSymbolTableRecord
100
AcDbLinetypeTableRecord
  2
Continuous
 70
     0
  3
Solid line
 72
    65
 73
     0
 40
0.0
  0
LTYPE
  5
3B
330
5
100
AcDbSymbolTableRecord
100
AcDbLinetypeTableRecord
  2
HIDDEN
 70
     0
  3
Hidden __ __ __ __ __ __ __ __ __ __ __ __ __ __
 72
    65
 73
     2
 40
1.905
 49
1.27
 74
     0
 49
-0.635
 74
     0
  0
LTYPE
  5
3C
330
5
100
AcDbSymbolTableRecord
100
AcDbLinetypeTableRecord
  2
PHANTOM
 70
     0
  3
Phantom ______  __  __  ______  __  __  ______
 72
    65
 73
     6
 40
12.7
 49
6.35
 74
     0
 49
-1.27
 74
     0
 49
1.27
 74
     0
 49
-1.27
 74
     0
 49
1.27
 74
     0
 49
-1.27
 74
     0
  0
LTYPE
  5
3D
330
5
100
AcDbSymbolTableRecord
100
AcDbLinetypeTableRecord
  2
CENTER
 70
     0
  3
Center ____ _ ____ _ ____ _ ____ _ ____ _ ____
 72
    65
 73
     4
 40
10.16
 49
6.35
 74
     0
 49
-1.27
 74
     0
 49
1.27
 74
     0
 49
-1.27
 74
     0
  0
LTYPE
  5
3E
330
5
100
AcDbSymbolTableRecord
100
AcDbLinetypeTableRecord
  2
CENTERX2
 70
     0
  3
Center (2x) ________  __  ________  __  _____
 72
    65
 73
     4
 40
20.32
 49
12.7
 74
     0
 49
-2.54
 74
     0
 49
2.54
 74
     0
 49
-2.54
 74
     0
  0
LTYPE
  5
3F
330
5
100
AcDbSymbolTableRecord
100
AcDbLinetypeTableRecord
  2
DOT2
 70
     0
  3
Dot (.5x) ........................................
 72
    65
 73
     2
 40
0.635
 49
0.0
 74
     0
 49
-0.635
 74
     0
  0
ENDTAB
  0
TABLE
  2
LAYER
  5
2
330
0
100
AcDbSymbolTable
 70
     5
  0
LAYER
  5
10
330
2
100
AcDbSymbolTableRecord
100
AcDbLayerTableRecord
  2
0
 70
     0
 62
     7
  6
Continuous
370
    -3
390
F
  0
LAYER
  5
40
330
2
100
AcDbSymbolTableRecord
100
AcDbLayerTableRecord
  2
FORMAT
 70
     0
 62
     7
  6
Continuous
370
    -3
390
F
  0
LAYER
  5
41
330
2
100
AcDbSymbolTableRecord
100
AcDbLayerTableRecord
  2
VERMASSUNG
 70
     0
 62
     7
  6
Continuous
370
    -3
390
F
  0
LAYER
  5
42
330
2
100
AcDbSymbolTableRecord
100
AcDbLayerTableRecord
  2
KOPF_DÜNN
 70
     0
 62
     7
  6
Continuous
370
    -3
390
F
  0
LAYER
  5
43
330
2
100
AcDbSymbolTableRecord
100
AcDbLayerTableRecord
  2
KOPF_DICK
 70
     0
 62
     7
  6
Continuous
370
    15
390
F
  0
ENDTAB
  0
TABLE
  2
STYLE
  5
3
330
0
100
AcDbSymbolTable
 70
     3
  0
STYLE
  5
11
330
3
100
AcDbSymbolTableRecord
100
AcDbTextStyleTableRecord
  2
Standard
 70
     0
 40
0.0
 41
1.0
 50
0.0
 71
     0
 42
2.5
  3
txt
  4

  0
STYLE
  5
44
330
3
100
AcDbSymbolTableRecord
100
AcDbTextStyleTableRecord
  2
SLDTEXTSTYLE0
 70
     0
 40
0.0
 41
0.7
 50
0.0
 71
     0
 42
0.2
  3
TXT
  4

  0
STYLE
  5
48
330
3
100
AcDbSymbolTableRecord
100
AcDbTextStyleTableRecord
  2
SLDTEXTSTYLE1
 70
     0
 40
0.0
 41
0.6526315789
 50
0.0
 71
     0
 42
0.2
  3
TXT
  4

  0
ENDTAB
  0
TABLE
  2
VIEW
  5
6
330
0
100
AcDbSymbolTable
 70
     0
  0
ENDTAB
  0
TABLE
  2
UCS
  5
7
330
0
100
AcDbSymbolTable
 70
     0
  0
ENDTAB
  0
TABLE
  2
APPID
  5
9
330
0
100
AcDbSymbolTable
 70
     1
  0
APPID
  5
12
330
9
100
AcDbSymbolTableRecord
100
AcDbRegAppTableRecord
  2
ACAD
 70
     0
  0
ENDTAB
  0
TABLE
  2
DIMSTYLE
  5
A
330
0
100
AcDbSymbolTable
 70
     4
100
AcDbDimStyleTable
  0
DIMSTYLE
105
27
330
A
100
AcDbSymbolTableRecord
100
AcDbDimStyleTableRecord
  2
ISO-25
 70
     0
 41
2.5
 42
0.625
 43
3.75
 44
1.25
 73
     0
 74
     0
 77
     1
 78
     8
140
2.5
141
2.5
143
0.0393700787
147
0.625
171
     3
172
     1
271
     2
272
     2
274
     3
278
    44
283
     0
284
     8
340
11
  0
DIMSTYLE
105
242
102
{ACAD_REACTORS
330
241
330
24C
330
256
330
26B
102
}
330
A
100
AcDbSymbolTableRecord
100
AcDbDimStyleTableRecord
  2
SLDDIMSTYLE0
 70
     0
 41
3.0
 44
0.0
 45
0.000000001
 73
     0
 74
     0
 77
     1
 78
    12
140
2.0
147
0.5
173
     1
271
     2
272
     3
284
    12
340
44
  0
DIMSTYLE
105
261
102
{ACAD_REACTORS
330
260
102
}
330
A
100
AcDbSymbolTableRecord
100
AcDbDimStyleTableRecord
  2
SLDDIMSTYLE1
 70
     0
 41
3.0
 44
0.0
 73
     0
 74
     0
 77
     1
 78
    12
140
2.0
147
0.5
173
     1
179
     2
272
     3
284
    12
340
44
  0
DIMSTYLE
105
2EF
102
{ACAD_REACTORS
330
2EE
102
}
330
A
100
AcDbSymbolTableRecord
100
AcDbDimStyleTableRecord
  2
SLDDIMSTYLE2
 70
     0
 41
3.0
 44
0.0
 45
0.000000001
 73
     0
 74
     0
 77
     1
 78
    12
140
2.0
147
0.5
173
     1
271
     2
272
     3
284
    12
340
44
  0
ENDTAB
  0
TABLE
  2
BLOCK_RECORD
  5
1
330
0
100
AcDbSymbolTable
 70
     8
  0
BLOCK_RECORD
  5
1F
330
1
100
AcDbSymbolTableRecord
100
AcDbBlockTableRecord
  2
*Model_Space
340
22
  0
BLOCK_RECORD
  5
1B
330
1
100
AcDbSymbolTableRecord
100
AcDbBlockTableRecord
  2
*Paper_Space
340
1E
  0
BLOCK_RECORD
  5
23
330
1
100
AcDbSymbolTableRecord
100
AcDbBlockTableRecord
  2
*Paper_Space0
340
26
  0
BLOCK_RECORD
  5
243
330
1
100
AcDbSymbolTableRecord
100
AcDbBlockTableRecord
  2
*D1
340
0
  0
BLOCK_RECORD
  5
24D
330
1
100
AcDbSymbolTableRecord
100
AcDbBlockTableRecord
  2
*D2
340
0
  0
BLOCK_RECORD
  5
257
330
1
100
AcDbSymbolTableRecord
100
AcDbBlockTableRecord
  2
*D3
340
0
  0
BLOCK_RECORD
  5
262
330
1
100
AcDbSymbolTableRecord
100
AcDbBlockTableRecord
  2
*D4
340
0
  0
BLOCK_RECORD
  5
26C
330
1
100
AcDbSymbolTableRecord
100
AcDbBlockTableRecord
  2
*D5
340
0
  0
BLOCK_RECORD
  5
2F0
330
1
100
AcDbSymbolTableRecord
100
AcDbBlockTableRecord
  2
*D6
340
0
  0
BLOCK_RECORD
  5
2FA
330
1
100
AcDbSymbolTableRecord
100
AcDbBlockTableRecord
  2
SW_CENTERMARKSYMBOL_0
340
0
102
{BLKREFS
331
305
102
}
  0
ENDTAB
  0
ENDSEC
  0
SECTION
  2
BLOCKS
  0
BLOCK
  5
20
330
1F
100
AcDbEntity
  8
0
100
AcDbBlockBegin
  2
*Model_Space
 70
     0
 10
0.0
 20
0.0
 30
0.0
  3
*Model_Space
  1

  0
ENDBLK
  5
21
330
1F
100
AcDbEntity
  8
0
100
AcDbBlockEnd
  0
BLOCK
  5
1C
330
1B
100
AcDbEntity
 67
     1
  8
0
100
AcDbBlockBegin
  2
*Paper_Space
 70
     0
 10
0.0
 20
0.0
 30
0.0
  3
*Paper_Space
  1

  0
ENDBLK
  5
1D
330
1B
100
AcDbEntity
 67
     1
  8
0
100
AcDbBlockEnd
  0
BLOCK
  5
24
330
23
100
AcDbEntity
  8
0
100
AcDbBlockBegin
  2
*Paper_Space0
 70
     0
 10
0.0
 20
0.0
 30
0.0
  3
*Paper_Space0
  1

  0
ENDBLK
  5
25
330
23
100
AcDbEntity
  8
0
100
AcDbBlockEnd
  0
BLOCK
  5
244
330
243
100
AcDbEntity
  8
0
100
AcDbBlockBegin
  2
*D1
 70
     1
 10
0.0
 20
0.0
 30
0.0
  3
*D1
  1

  0
SOLID
  5
246
330
243
100
AcDbEntity
  8
VERMASSUNG
100
AcDbTrace
 10
258.9087344185
 20
154.8742682927
 30
0.0
 11
255.9087344185
 21
155.3242682927
 31
0.0
 12
255.9087344185
 22
154.4242682927
 32
0.0
 13
255.9087344185
 23
154.4242682927
 33
0.0
  0
SOLID
  5
247
330
243
100
AcDbEntity
  8
VERMASSUNG
100
AcDbTrace
 10
188.9087344185
 20
154.8742682927
 30
0.0
 11
191.9087344185
 21
154.4242682927
 31
0.0
 12
191.9087344185
 22
155.3242682927
 32
0.0
 13
191.9087344185
 23
155.3242682927
 33
0.0
  0
LINE
  5
248
330
243
100
AcDbEntity
  8
VERMASSUNG
100
AcDbLine
 10
258.9087344185
 20
95.1294978009
 30
0.0
 11
258.9087344185
 21
155.8742682927
 31
0.0
  0
LINE
  5
249
330
243
100
AcDbEntity
  8
VERMASSUNG
100
AcDbLine
 10
188.9087344185
 20
148.8294978009
 30
0.0
 11
188.9087344185
 21
155.8742682927
 31
0.0
  0
LINE
  5
24A
330
243
100
AcDbEntity
  8
VERMASSUNG
100
AcDbLine
 10
258.9087344185
 20
154.8742682927
 30
0.0
 11
188.9087344185
 21
154.8742682927
 31
0.0
  0
MTEXT
  5
24B
330
243
100
AcDbEntity
  8
VERMASSUNG
100
AcDbMText
 10
222.5097919795
 20
157.4524036558
 30
0.0
 40
2.0
 41
0.0
 71
     1
 72
     1
  1
70
  7
SLDTEXTSTYLE0
 73
     1
 44
1.0
  0
ENDBLK
  5
245
330
243
100
AcDbEntity
  8
0
100
AcDbBlockEnd
  0
BLOCK
  5
24E
330
24D
100
AcDbEntity
  8
0
100
AcDbBlockBegin
  2
*D2
 70
     1
 10
0.0
 20
0.0
 30
0.0
  3
*D2
  1

  0
SOLID
  5
250
330
24D
100
AcDbEntity
  8
VERMASSUNG
100
AcDbTrace
 10
258.9087344185
 20
160.8742682927
 30
0.0
 11
255.9087344185
 21
161.3242682927
 31
0.0
 12
255.9087344185
 22
160.4242682927
 32
0.0
 13
255.9087344185
 23
160.4242682927
 33
0.0
  0
SOLID
  5
251
330
24D
100
AcDbEntity
  8
VERMASSUNG
100
AcDbTrace
 10
157.0087344185
 20
160.8742682927
 30
0.0
 11
160.0087344185
 21
160.4242682927
 31
0.0
 12
160.0087344185
 22
161.3242682927
 32
0.0
 13
160.0087344185
 23
161.3242682927
 33
0.0
  0
LINE
  5
252
330
24D
100
AcDbEntity
  8
VERMASSUNG
100
AcDbLine
 10
258.9087344185
 20
95.1294978009
 30
0.0
 11
258.9087344185
 21
161.8742682927
 31
0.0
  0
LINE
  5
253
330
24D
100
AcDbEntity
  8
VERMASSUNG
100
AcDbLine
 10
157.0087344185
 20
137.6055583055
 30
0.0
 11
157.0087344185
 21
161.8742682927
 31
0.0
  0
LINE
  5
254
330
24D
100
AcDbEntity
  8
VERMASSUNG
100
AcDbLine
 10
258.9087344185
 20
160.8742682927
 30
0.0
 11
157.0087344185
 21
160.8742682927
 31
0.0
  0
MTEXT
  5
255
330
24D
100
AcDbEntity
  8
VERMASSUNG
100
AcDbMText
 10
205.2593666137
 20
163.4524036558
 30
0.0
 40
2.0
 41
0.0
 71
     1
 72
     1
  1
101.9
  7
SLDTEXTSTYLE0
 73
     1
 44
1.0
  0
ENDBLK
  5
24F
330
24D
100
AcDbEntity
  8
0
100
AcDbBlockEnd
  0
BLOCK
  5
258
330
257
100
AcDbEntity
  8
0
100
AcDbBlockBegin
  2
*D3
 70
     1
 10
0.0
 20
0.0
 30
0.0
  3
*D3
  1

  0
SOLID
  5
25A
330
257
100
AcDbEntity
  8
VERMASSUNG
100
AcDbTrace
 10
264.3262694101
 20
72.6294978009
 30
0.0
 11
264.7762694101
 21
75.6294978009
 31
0.0
 12
263.8762694101
 22
75.6294978009
 32
0.0
 13
263.8762694101
 23
75.6294978009
 33
0.0
  0
SOLID
  5
25B
330
257
100
AcDbEntity
  8
VERMASSUNG
100
AcDbTrace
 10
264.3262694101
 20
117.6294978009
 30
0.0
 11
263.8762694101
 21
114.6294978009
 31
0.0
 12
264.7762694101
 22
114.6294978009
 32
0.0
 13
264.7762694101
 23
114.6294978009
 33
0.0
  0
LINE
  5
25C
330
257
100
AcDbEntity
  8
VERMASSUNG
100
AcDbLine
 10
258.9087344185
 20
72.6294978009
 30
0.0
 11
265.3262694101
 21
72.6294978009
 31
0.0
  0
LINE
  5
25D
330
257
100
AcDbEntity
  8
VERMASSUNG
100
AcDbLine
 10
258.9087344185
 20
117.6294978009
 30
0.0
 11
265.3262694101
 21
117.6294978009
 31
0.0
  0
LINE
  5
25E
330
257
100
AcDbEntity
  8
VERMASSUNG
100
AcDbLine
 10
264.3262694101
 20
72.6294978009
 30
0.0
 11
264.3262694101
 21
117.6294978009
 31
0.0
  0
MTEXT
  5
25F
330
257
100
AcDbEntity
  8
VERMASSUNG
100
AcDbMText
 10
261.748134047
 20
93.6295753619
 30
0.0
 40
2.0
 41
0.0
 71
     1
 72
     1
  1
45
  7
SLDTEXTSTYLE0
 11
6.123233995736766E-17
 21
1.0
 31
0.0
 73
     1
 44
1.0
  0
ENDBLK
  5
259
330
257
100
AcDbEntity
  8
0
100
AcDbBlockEnd
  0
BLOCK
  5
263
330
262
100
AcDbEntity
  8
0
100
AcDbBlockBegin
  2
*D4
 70
     1
 10
0.0
 20
0.0
 30
0.0
  3
*D4
  1

  0
ARC
  5
265
330
262
100
AcDbEntity
  8
VERMASSUNG
100
AcDbCircle
 10
258.9087344185
 20
73.030797802
 30
0.0
 40
31.31717757615388
100
AcDbArc
 50
90.0
 51
107.66003853
  0
SOLID
  5
266
330
262
100
AcDbEntity
  8
VERMASSUNG
100
AcDbTrace
 10
258.9087344185
 20
104.3479753782
 30
0.0
 11
255.89067412
 21
104.6542628813
 31
0.0
 12
255.9336339856
 22
103.7552887715
 32
0.0
 13
255.9336339856
 23
103.7552887715
 33
0.0
  0
SOLID
  5
267
330
262
100
AcDbEntity
  8
VERMASSUNG
100
AcDbTrace
 10
249.4080878397
 20
102.8721001516
 30
0.0
 11
252.4227840808
 21
103.2098967968
 31
0.0
 12
252.1909989225
 22
104.0795378954
 32
0.0
 13
252.1909989225
 23
104.0795378954
 33
0.0
  0
LINE
  5
268
330
262
100
AcDbEntity
  8
VERMASSUNG
100
AcDbLine
 10
258.9087344185
 20
95.1294978009
 30
0.0
 11
258.9087344185
 21
105.3479753782
 31
0.0
  0
LINE
  5
269
330
262
100
AcDbEntity
  8
VERMASSUNG
100
AcDbLine
 10
254.5696654082
 20
86.6597091795
 30
0.0
 11
249.1047192952
 21
103.8249734518
 31
0.0
  0
MTEXT
  5
26A
330
262
100
AcDbEntity
  8
VERMASSUNG
100
AcDbMText
 10
250.9397409754
 20
106.0947121959
 30
0.0
 40
2.0
 41
0.0
 71
     1
 72
     1
  1
17.5°
  7
SLDTEXTSTYLE0
 11
0.9881480911758076
 21
0.1535035827126122
 31
0.0
 73
     1
 44
1.0
  0
ENDBLK
  5
264
330
262
100
AcDbEntity
  8
0
100
AcDbBlockEnd
  0
BLOCK
  5
26D
330
26C
100
AcDbEntity
  8
0
100
AcDbBlockBegin
  2
*D5
 70
     1
 10
0.0
 20
0.0
 30
0.0
  3
*D5
  1

  0
SOLID
  5
26F
330
26C
100
AcDbEntity
  8
VERMASSUNG
100
AcDbTrace
 10
152.1866507977
 20
149.1294978009
 30
0.0
 11
151.7366507977
 21
146.1294978009
 31
0.0
 12
152.6366507977
 22
146.1294978009
 32
0.0
 13
152.6366507977
 23
146.1294978009
 33
0.0
  0
SOLID
  5
270
330
26C
100
AcDbEntity
  8
VERMASSUNG
100
AcDbTrace
 10
152.1866507977
 20
86.1294978009
 30
0.0
 11
152.6366507977
 21
89.1294978009
 31
0.0
 12
151.7366507977
 22
89.1294978009
 32
0.0
 13
151.7366507977
 23
89.1294978009
 33
0.0
  0
LINE
  5
271
330
26C
100
AcDbEntity
  8
VERMASSUNG
100
AcDbLine
 10
189.2087344185
 20
149.1294978009
 30
0.0
 11
151.1866507977
 21
149.1294978009
 31
0.0
  0
LINE
  5
272
330
26C
100
AcDbEntity
  8
VERMASSUNG
100
AcDbLine
 10
189.2087344185
 20
86.1294978009
 30
0.0
 11
151.1866507977
 21
86.1294978009
 31
0.0
  0
LINE
  5
273
330
26C
100
AcDbEntity
  8
VERMASSUNG
100
AcDbLine
 10
152.1866507977
 20
149.1294978009
 30
0.0
 11
152.1866507977
 21
86.1294978009
 31
0.0
  0
MTEXT
  5
274
330
26C
100
AcDbEntity
  8
VERMASSUNG
100
AcDbMText
 10
149.4085153087
 20
111.4266165814
 30
0.0
 40
2.0
 41
0.0
 71
     1
 72
     1
  1
HSK 
  7
SLDTEXTSTYLE0
 11
-7.044195017643634E-15
 21
1.0
 31
0.0
 73
     1
 44
1.0
  0
MTEXT
  5
275
330
26C
100
AcDbEntity
  8
VERMASSUNG
100
AcDbMText
 10
149.6085153182
 20
117.4266166335
 30
0.0
 40
2.0
 41
0.0
 71
     1
 72
     1
  1
%%c
  7
SLDTEXTSTYLE0
 11
-7.044195017643634E-15
 21
1.0
 31
0.0
 73
     1
 44
1.0
  0
MTEXT
  5
276
330
26C
100
AcDbEntity
  8
VERMASSUNG
100
AcDbMText
 10
149.6085154346
 20
121.0344941424
 30
0.0
 40
2.0
 41
0.0
 71
     1
 72
     1
  1
63
  7
SLDTEXTSTYLE0
 11
-7.044195017643634E-15
 21
1.0
 31
0.0
 73
     1
 44
1.0
  0
ENDBLK
  5
26E
330
26C
100
AcDbEntity
  8
0
100
AcDbBlockEnd
  0
BLOCK
  5
2F1
330
2F0
100
AcDbEntity
  8
0
100
AcDbBlockBegin
  2
*D6
 70
     1
 10
0.0
 20
0.0
 30
0.0
  3
*D6
  1

  0
SOLID
  5
2F3
330
2F0
100
AcDbEntity
  8
VERMASSUNG
100
AcDbTrace
 10
39.5154878049
 20
72.6296201721
 30
0.0
 11
39.9654878049
 21
75.6296201721
 31
0.0
 12
39.0654878049
 22
75.6296201721
 32
0.0
 13
39.0654878049
 23
75.6296201721
 33
0.0
  0
SOLID
  5
2F4
330
2F0
100
AcDbEntity
  8
VERMASSUNG
100
AcDbTrace
 10
39.5154878049
 20
152.6296201721
 30
0.0
 11
39.0654878049
 21
149.6296201721
 31
0.0
 12
39.9654878049
 22
149.6296201721
 32
0.0
 13
39.9654878049
 23
149.6296201721
 33
0.0
  0
LINE
  5
2F5
330
2F0
100
AcDbEntity
  8
VERMASSUNG
100
AcDbLine
 10
83.6018780488
 20
72.6296201721
 30
0.0
 11
38.5154878049
 21
72.6296201721
 31
0.0
  0
LINE
  5
2F6
330
2F0
100
AcDbEntity
  8
VERMASSUNG
100
AcDbLine
 10
83.6018780488
 20
152.6296201721
 30
0.0
 11
38.5154878049
 21
152.6296201721
 31
0.0
  0
LINE
  5
2F7
330
2F0
100
AcDbEntity
  8
VERMASSUNG
100
AcDbLine
 10
39.5154878049
 20
72.6296201721
 30
0.0
 11
39.5154878049
 21
152.6296201721
 31
0.0
  0
MTEXT
  5
2F8
330
2F0
100
AcDbEntity
  8
VERMASSUNG
100
AcDbMText
 10
36.9373523253
 20
109.4265838306
 30
0.0
 40
2.0
 41
0.0
 71
     1
 72
     1
  1
%%c
  7
SLDTEXTSTYLE0
 11
6.123233995736766E-17
 21
1.0
 31
0.0
 73
     1
 44
1.0
  0
MTEXT
  5
2F9
330
2F0
100
AcDbEntity
  8
VERMASSUNG
100
AcDbMText
 10
36.9373524417
 20
113.0347716355
 30
0.0
 40
2.0
 41
0.0
 71
     1
 72
     1
  1
80
  7
SLDTEXTSTYLE0
 11
6.123233995736766E-17
 21
1.0
 31
0.0
 73
     1
 44
1.0
  0
ENDBLK
  5
2F2
330
2F0
100
AcDbEntity
  8
0
100
AcDbBlockEnd
  0
BLOCK
  5
2FB
330
2FA
100
AcDbEntity
  8
0
100
AcDbBlockBegin
  2
SW_CENTERMARKSYMBOL_0
 70
     0
 10
0.0
 20
0.0
 30
0.0
  3
SW_CENTERMARKSYMBOL_0
  1

  0
LINE
  5
2FD
330
2FA
100
AcDbEntity
  8
VERMASSUNG
 62
     0
100
AcDbLine
 10
0.0
 20
0.0
 30
0.0
 11
0.0
 21
2.5
 31
0.0
  0
LINE
  5
2FE
330
2FA
100
AcDbEntity
  8
VERMASSUNG
 62
     0
100
AcDbLine
 10
0.0
 20
0.0
 30
0.0
 11
-2.5
 21
0.0
 31
0.0
  0
LINE
  5
2FF
330
2FA
100
AcDbEntity
  8
VERMASSUNG
 62
     0
100
AcDbLine
 10
0.0
 20
0.0
 30
0.0
 11
0.0
 21
-2.5
 31
0.0
  0
LINE
  5
300
330
2FA
100
AcDbEntity
  8
VERMASSUNG
 62
     0
100
AcDbLine
 10
0.0
 20
0.0
 30
0.0
 11
2.5
 21
0.0
 31
0.0
  0
LINE
  5
301
330
2FA
100
AcDbEntity
  8
VERMASSUNG
 62
     0
100
AcDbLine
 10
0.0
 20
5.0
 30
0.0
 11
0.0
 21
34.0
 31
0.0
  0
LINE
  5
302
330
2FA
100
AcDbEntity
  8
VERMASSUNG
 62
     0
100
AcDbLine
 10
-5.0
 20
0.0
 30
0.0
 11
-34.0
 21
0.0
 31
0.0
  0
LINE
  5
303
330
2FA
100
AcDbEntity
  8
VERMASSUNG
 62
     0
100
AcDbLine
 10
0.0
 20
-5.0
 30
0.0
 11
0.0
 21
-48.9576685326
 31
0.0
  0
LINE
  5
304
330
2FA
100
AcDbEntity
  8
VERMASSUNG
 62
     0
100
AcDbLine
 10
5.0
 20
0.0
 30
0.0
 11
34.0
 21
0.0
 31
0.0
  0
ENDBLK
  5
2FC
330
2FA
100
AcDbEntity
  8
0
100
AcDbBlockEnd
  0
ENDSEC
  0
SECTION
  2
ENTITIES
  0
MTEXT
  5
45
330
1F
100
AcDbEntity
  8
KOPF_DÜNN
100
AcDbMText
 10
13.8892156294
 20
23.8442973028
 30
0.0
 40
3.0
 41
0.0
 71
     1
 72
     1
  1
HA6.PDF.LHA.070
  7
SLDTEXTSTYLE0
 73
     1
 44
1.0
  0
MTEXT
  5
46
330
1F
100
AcDbEntity
  8
VERMASSUNG
100
AcDbMText
 10
13.9329988022
 20
28.8834360957
 30
0.0
 40
3.0
 41
0.0
 71
     1
 72
     1
  1
Klemmhalter links_Turning tool left 107.5° /55° /107.5°
  7
SLDTEXTSTYLE0
 73
     1
 44
1.0
  0
MTEXT
  5
47
330
1F
100
AcDbEntity
  8
VERMASSUNG
100
AcDbMText
 10
98.8601118557
 20
13.8365368179
 30
0.0
 40
2.0
 41
0.0
 71
     1
 72
     1
  1
Datum: 17.02.2011
  7
SLDTEXTSTYLE0
 73
     1
 44
1.0
  0
MTEXT
  5
49
330
1F
100
AcDbEntity
  8
VERMASSUNG
100
AcDbMText
 10
13.933048693
 20
18.0482802738
 30
0.0
 40
2.0
 41
0.0
 71
     1
 72
     1
  1
DIN 69893 HSK 63 A ICTM / DN.. 15 04..
  7
SLDTEXTSTYLE1
 73
     1
 44
1.0
  0
MTEXT
  5
4A
330
1F
100
AcDbEntity
  8
VERMASSUNG
100
AcDbMText
 10
13.9808475933
 20
13.9090973692
 30
0.0
 40
2.0
 41
0.0
 71
     1
 72
     1
  1
Gewicht: 1083g
  7
SLDTEXTSTYLE0
 73
     1
 44
1.0
  0
LINE
  5
4B
330
1F
100
AcDbEntity
  8
0
  6
Continuous
 62
     7
370
    15
100
AcDbLine
 10
240.8036456526
 20
92.9369246
 30
0.0
 11
240.819034402
 21
92.9217696402
 31
0.0
  0
LINE
  5
4C
330
1F
100
AcDbEntity
  8
0
  6
Continuous
 62
     7
370
    15
100
AcDbLine
 10
246.4324251473
 20
98.6217559859
 30
0.0
 11
246.4170363979
 21
98.6369109456
 31
0.0
  0
LINE
  5
4D
330
1F
100
AcDbEntity
  8
0
  6
Continuous
 62
     7
370
    15
100
AcDbLine
 10
247.0421635407
 20
81.1889231721
 30
0.0
 11
247.7110103255
 21
80.6503075742
 31
0.0
  0
LINE
  5
4E
330
1F
100
AcDbEntity
  8
0
  6
Continuous
 62
     7
370
    15
100
AcDbLine
 10
254.4934283638
 20
86.8212482116
 30
0.0
 11
253.6668630381
 21
87.6352561527
 31
0.0
  0
LINE
  5
4F
330
1F
100
AcDbEntity
  8
0
  6
Continuous
 62
     7
370
    15
100
AcDbLine
 10
243.7632091351
 20
77.4368916704
 30
0.0
 11
244.5897744608
 21
76.6228837293
 31
0.0
  0
LINE
  5
50
330
1F
100
AcDbEntity
  8
0
  6
Continuous
 62
     7
370
    15
100
AcDbLine
 10
243.0387750406
 20
78.2575614384
 30
0.0
 11
243.6469561921
 21
77.6586199251
 31
0.0
  0
LINE
  5
51
330
1F
100
AcDbEntity
  8
0
  6
Continuous
 62
     7
370
    15
100
AcDbLine
 10
189.2087344185
 20
86.1294978009
 30
0.0
 11
193.8587344185
 21
86.1294978009
 31
0.0
  0
LINE
  5
52
330
1F
100
AcDbEntity
  8
0
  6
Continuous
 62
     7
370
    15
100
AcDbLine
 10
193.8629386159
 20
149.1294978009
 30
0.0
 11
189.2087344185
 21
149.1294978009
 31
0.0
  0
ARC
  5
53
330
1F
100
AcDbEntity
  8
0
  6
Continuous
 62
     7
370
    15
100
AcDbCircle
 10
189.2087344185
 20
86.4294978009
 30
0.0
 40
0.3000000000000114
100
AcDbArc
 50
180.0
 51
270.0
  0
ARC
  5
54
330
1F
100
AcDbEntity
  8
0
  6
Continuous
 62
     7
370
    15
100
AcDbCircle
 10
189.2087344185
 20
148.8294978009
 30
0.0
 40
0.3000000000000114
100
AcDbArc
 50
90.0
 51
180.0
  0
ARC
  5
55
330
1F
100
AcDbEntity
  8
0
  6
Continuous
 62
     7
370
    15
100
AcDbCircle
 10
215.8587344185
 20
90.6294978009
 30
0.0
 40
1.000000000000008
100
AcDbArc
 50
90.0
 51
143.1139143113
  0
ARC
  5
56
330
1F
100
AcDbEntity
  8
0
  6
Continuous
 62
     7
370
    15
100
AcDbCircle
 10
215.8587344185
 20
144.6294978009
 30
0.0
 40
1.000000000000009
100
AcDbArc
 50
216.8996843908
 51
270.0
  0
LINE
  5
57
330
1F
100
AcDbEntity
  8
0
  6
Continuous
 62
     7
370
    15
100
AcDbLine
 10
215.8587344185
 20
91.6294978009
 30
0.0
 11
230.1414074306
 21
91.6294978009
 31
0.0
  0
LINE
  5
58
330
1F
100
AcDbEntity
  8
0
  6
Continuous
 62
     7
370
    15
100
AcDbLine
 10
230.1414074306
 20
143.6294978009
 30
0.0
 11
215.8587344185
 21
143.6294978009
 31
0.0
  0
ARC
  5
59
330
1F
100
AcDbEntity
  8
0
  6
Continuous
 62
     7
370
    15
100
AcDbCircle
 10
188.4087344185
 20
93.0590669392
 30
0.0
 40
0.6000000000000085
100
AcDbArc
 50
33.5573097619
 51
90.0
  0
ARC
  5
5A
330
1F
100
AcDbEntity
  8
0
  6
Continuous
 62
     7
370
    15
100
AcDbCircle
 10
188.4087344185
 20
142.1999286626
 30
0.0
 40
0.6000000000000019
100
AcDbArc
 50
270.0
 51
326.4426902381
  0
LINE
  5
5B
330
1F
100
AcDbEntity
  8
0
  6
Continuous
 62
     7
370
    15
100
AcDbLine
 10
175.6772256197
 20
141.287227821
 30
0.0
 11
163.1087344185
 21
140.6575438931
 31
0.0
  0
LINE
  5
5C
330
1F
100
AcDbEntity
  8
0
  6
Continuous
 62
     7
370
    15
100
AcDbLine
 10
186.9087344185
 20
141.8499286626
 30
0.0
 11
184.0917327612
 21
141.7087963151
 31
0.0
  0
LINE
  5
5D
330
1F
100
AcDbEntity
  8
0
  6
Continuous
 62
     7
370
    15
100
AcDbLine
 10
184.0917888513
 20
93.5501964766
 30
0.0
 11
186.9087344185
 21
93.4090669392
 31
0.0
  0
LINE
  5
5E
330
1F
100
AcDbEntity
  8
0
  6
Continuous
 62
     7
370
    15
100
AcDbLine
 10
167.1087344185
 20
94.4010509071
 30
0.0
 11
175.6776281384
 21
93.9717476145
 31
0.0
  0
LINE
  5
5F
330
1F
100
AcDbEntity
  8
0
  6
Continuous
 62
     7
370
    15
100
AcDbLine
 10
186.9087344185
 20
93.4090669392
 30
0.0
 11
187.7654471919
 21
93.6386224349
 31
0.0
  0
LINE
  5
60
330
1F
100
AcDbEntity
  8
0
  6
Continuous
 62
     7
370
    15
100
AcDbLine
 10
187.7654471919
 20
141.6203731668
 30
0.0
 11
186.9087344185
 21
141.8499286626
 31
0.0
  0
ARC
  5
61
330
1F
100
AcDbEntity
  8
0
  6
Continuous
 62
     7
370
    15
100
AcDbCircle
 10
187.920738619
 20
93.0590669392
 30
0.0
 40
0.6000000000000227
100
AcDbArc
 50
90.0
 51
105.0
  0
ARC
  5
62
330
1F
100
AcDbEntity
  8
0
  6
Continuous
 62
     7
370
    15
100
AcDbCircle
 10
187.920738619
 20
142.1999286626
 30
0.0
 40
0.6000000000000227
100
AcDbArc
 50
255.0
 51
270.0
  0
LINE
  5
63
330
1F
100
AcDbEntity
  8
0
  6
Continuous
 62
     7
370
    15
100
AcDbLine
 10
187.920738619
 20
93.6590669392
 30
0.0
 11
188.4087344185
 21
93.6590669392
 31
0.0
  0
LINE
  5
64
330
1F
100
AcDbEntity
  8
0
  6
Continuous
 62
     7
370
    15
100
AcDbLine
 10
188.4087344185
 20
141.5999286626
 30
0.0
 11
187.920738619
 21
141.5999286626
 31
0.0
  0
ARC
  5
65
330
1F
100
AcDbEntity
  8
0
  6
Continuous
 62
     7
370
    15
100
AcDbCircle
 10
230.1414074306
 20
144.6294978009
 30
0.0
 40
1.000000000000003
100
AcDbArc
 50
270.0
 51
345.0
  0
ARC
  5
66
330
1F
100
AcDbEntity
  8
0
  6
Continuous
 62
     7
370
    15
100
AcDbCircle
 10
230.1414074306
 20
90.6294978009
 30
0.0
 40
1.000000000000003
100
AcDbArc
 50
15.0
 51
90.0
  0
LINE
  5
67
330
1F
100
AcDbEntity
  8
0
  6
Continuous
 62
     7
370
    15
100
AcDbLine
 10
233.5155985976
 20
144.6294978009
 30
0.0
 11
231.176683611
 21
144.6294978009
 31
0.0
  0
LINE
  5
68
330
1F
100
AcDbEntity
  8
0
  6
Continuous
 62
     7
370
    15
100
AcDbLine
 10
231.176683611
 20
144.6294978009
 30
0.0
 11
231.1073332569
 21
144.3706787558
 31
0.0
  0
LINE
  5
69
330
1F
100
AcDbEntity
  8
0
  6
Continuous
 62
     7
370
    15
100
AcDbLine
 10
231.1073332569
 20
90.888316846
 30
0.0
 11
233.6389635179
 21
81.4401440858
 31
0.0
  0
LINE
  5
6A
330
1F
100
AcDbEntity
  8
0
  6
Continuous
 62
     7
370
    15
100
AcDbLine
 10
158.1587344185
 20
96.7594978009
 30
0.0
 11
165.7087344185
 21
96.7594978009
 31
0.0
  0
ARC
  5
6B
330
1F
100
AcDbEntity
  8
0
  6
Continuous
 62
     7
370
    15
100
AcDbCircle
 10
165.7087344185
 20
95.3594978009
 30
0.0
 40
1.400000000000006
100
AcDbArc
 50
40.9606100928
 51
90.0
  0
ARC
  5
6C
330
1F
100
AcDbEntity
  8
0
  6
Continuous
 62
     7
370
    15
100
AcDbCircle
 10
161.7087344185
 20
139.8994978009
 30
0.0
 40
1.400000000000006
100
AcDbArc
 50
270.0
 51
301.7485287426
  0
LINE
  5
6D
330
1F
100
AcDbEntity
  8
0
  6
Continuous
 62
     7
370
    15
100
AcDbLine
 10
161.7087344185
 20
138.4994978009
 30
0.0
 11
158.29962282
 21
138.4994978009
 31
0.0
  0
LINE
  5
6E
330
1F
100
AcDbEntity
  8
0
  6
Continuous
 62
     7
370
    15
100
AcDbLine
 10
158.1416030992
 20
138.4896070291
 30
0.0
 11
157.2600989878
 21
137.9806703931
 31
0.0
  0
LINE
  5
6F
330
1F
100
AcDbEntity
  8
0
  6
Continuous
 62
     7
370
    15
100
AcDbLine
 10
158.1485005952
 20
96.7654063016
 30
0.0
 11
158.1587344185
 21
96.7594978009
 31
0.0
  0
LINE
  5
70
330
1F
100
AcDbEntity
  8
0
  6
Continuous
 62
     7
370
    15
100
AcDbLine
 10
157.2302582325
 20
97.2955537768
 30
0.0
 11
158.1485005952
 21
96.7654063016
 31
0.0
  0
LINE
  5
71
330
1F
100
AcDbEntity
  8
0
  6
Continuous
 62
     7
370
    15
100
AcDbLine
 10
233.6389635179
 20
81.4401440858
 30
0.0
 11
243.6119011151
 21
78.1997402312
 31
0.0
  0
LWPOLYLINE
  5
72
330
1F
100
AcDbEntity
  8
0
  6
Continuous
 62
     7
370
    15
100
AcDbPolyline
 90
       33
 70
   128
 43
0.0
 10
242.7296907676
 20
99.5802957165
 10
243.4952682543
 20
99.704838303
 10
244.2658593042
 20
99.6782350041
 10
245.0118505352
 20
99.5015081697
 10
245.7045739227
 20
99.1814493129
 10
246.3174084954
 20
98.7303581161
 10
246.8268033644
 20
98.165569761
 10
247.2131827706
 20
97.5087887473
 10
247.4616983699
 20
96.7852548012
 10
247.5627998474
 20
96.0227729263
 10
247.5126019299
 20
95.2506448735
 10
247.3130336953
 20
94.4985430909
 10
246.9717644389
 20
93.7953704282
 10
246.5019089468
 20
93.1681494164
 10
245.9215235021
 20
92.6409838074
 10
245.2529119919
 20
92.2341322798
 10
244.5217687817
 20
91.9632299097
 10
243.7561912949
 20
91.8386873232
 10
242.9856002451
 20
91.865290622
 10
242.2396090141
 20
92.0420174564
 10
241.5468856266
 20
92.3620763132
 10
240.9340510538
 20
92.81316751
 10
240.4246561848
 20
93.3779558651
 10
240.0382767787
 20
94.0347368788
 10
239.7897611793
 20
94.7582708249
 10
239.6886597018
 20
95.5207526998
 10
239.7388576193
 20
96.2928807526
 10
239.9384258539
 20
97.0449825352
 10
240.2796951104
 20
97.7481551979
 10
240.7495506025
 20
98.3753762097
 10
241.3299360472
 20
98.9025418187
 10
241.9985475573
 20
99.3093933463
 10
242.7296907676
 20
99.5802957165
  0
LWPOLYLINE
  5
73
330
1F
100
AcDbEntity
  8
0
  6
Continuous
 62
     7
370
    15
100
AcDbPolyline
 90
       31
 70
   128
 43
0.0
 10
242.9285197323
 20
99.0187240677
 10
243.6435026362
 20
99.1302789126
 10
244.36150341
 20
99.0913135075
 10
245.0511419747
 20
98.9035308278
 10
245.6822778156
 20
98.5751378776
 10
246.2273272681
 20
98.1204870047
 10
246.6624690555
 20
97.5594486337
 10
246.9686853938
 20
96.9165428338
 10
247.1325931596
 20
96.2198676733
 10
247.1470287969
 20
95.4998711999
 10
247.0113613992
 20
94.7880207142
 10
246.7315202828
 20
94.1154274984
 10
246.3197358472
 20
93.5114871035
 10
245.7940050483
 20
93.0025946227
 10
245.1773048448
 20
92.6109910994
 10
244.4965879946
 20
92.3537914868
 10
243.7816050908
 20
92.2422366419
 10
243.0636043169
 20
92.2812020469
 10
242.3739657522
 20
92.4689847266
 10
241.7428299113
 20
92.7973776768
 10
241.1977804588
 20
93.2520285498
 10
240.7626386714
 20
93.8130669207
 10
240.4564223331
 20
94.4559727207
 10
240.2925145673
 20
95.1526478811
 10
240.27807893
 20
95.8726443546
 10
240.4137463277
 20
96.5844948403
 10
240.6935874441
 20
97.257088056
 10
241.1053718797
 20
97.861028451
 10
241.6311026786
 20
98.3699209317
 10
242.2478028822
 20
98.761524455
 10
242.9285197323
 20
99.0187240677
  0
LWPOLYLINE
  5
74
330
1F
100
AcDbEntity
  8
0
  6
Continuous
 62
     7
370
    15
100
AcDbPolyline
 90
       24
 70
   128
 43
0.0
 10
243.2645343599
 20
97.5905242289
 10
243.7986141091
 20
97.6566272963
 10
244.3263111635
 20
97.5765970702
 10
244.8084886467
 20
97.3563690266
 10
245.2093856607
 20
97.0122764718
 10
245.4992695077
 20
96.5698391766
 10
245.6566408292
 20
96.0618706911
 10
245.669828114
 20
95.5260447141
 10
245.5378533215
 20
95.002101007
 10
245.2705044184
 20
94.5288980778
 10
244.8876094499
 20
94.141531223
 10
244.417565984
 20
93.86872967
 10
243.8952349943
 20
93.7307258621
 10
243.3593553809
 20
93.7377549103
 10
242.8496708831
 20
93.8892955025
 10
242.4039824686
 20
94.1741085659
 10
242.0553448081
 20
94.5710708188
 10
241.829614762
 20
95.0507413867
 10
241.7435336952
 20
95.577545298
 10
241.8034858466
 20
96.1124119166
 10
242.0050248395
 20
96.6156726322
 10
242.3332034485
 20
97.0500028997
 10
242.7636821678
 20
97.3831904303
 10
243.2645343599
 20
97.5905242289
  0
SPLINE
  5
75
330
1F
100
AcDbEntity
  8
0
  6
Continuous
 62
     7
370
    15
100
AcDbSpline
210
0.0
220
0.0
230
1.0
 70
     8
 71
     3
 72
    14
 73
    10
 74
     0
 42
0.00000001
 43
0.00000001
 40
0.0
 40
0.0
 40
0.0
 40
0.0
 40
0.1077749207859763
 40
0.2867612133939391
 40
0.4711953518304293
 40
0.6394547261041773
 40
0.8140630833004985
 40
0.9068266860428518
 40
1.0
 40
1.0
 40
1.0
 40
1.0
 10
243.1715280392145
 20
94.08445249699476
 30
0.0
 10
243.2228797729211
 20
94.10409295324615
 30
0.0
 10
243.3595134661792
 20
94.15635113191314
 30
0.0
 10
243.6024723768507
 20
94.24048409758247
 30
0.0
 10
243.900224366568
 20
94.32955721100622
 30
0.0
 10
244.2102519982453
 20
94.40669428719012
 30
0.0
 10
244.4664719676441
 20
94.45951720194329
 30
0.0
 10
244.6744874624798
 20
94.49737188130031
 30
0.0
 10
244.7797859226142
 20
94.51464953742978
 30
0.0
 10
244.8325511650388
 20
94.52330740111584
 30
0.0
  0
SPLINE
  5
76
330
1F
100
AcDbEntity
  8
0
  6
Continuous
 62
     7
370
    15
100
AcDbSpline
210
0.0
220
0.0
230
1.0
 70
     8
 71
     3
 72
    10
 73
     6
 74
     0
 42
0.00000001
 43
0.00000001
 40
0.0
 40
0.0
 40
0.0
 40
0.0
 40
0.4391165375904135
 40
0.7513669429073472
 40
1.0
 40
1.0
 40
1.0
 40
1.0
 10
244.8325511650388
 20
94.52330740111584
 30
0.0
 10
244.8855025479103
 20
94.77674659070355
 30
0.0
 10
244.9761070122497
 20
95.21040329181156
 30
0.0
 10
245.1657586709893
 20
95.78373810233875
 30
0.0
 10
245.2775100329262
 20
96.05201201470813
 30
0.0
 10
245.3270481003052
 20
96.1709346919503
 30
0.0
  0
SPLINE
  5
77
330
1F
100
AcDbEntity
  8
0
  6
Continuous
 62
     7
370
    15
100
AcDbSpline
210
0.0
220
0.0
230
1.0
 70
     8
 71
     3
 72
    13
 73
     9
 74
     0
 42
0.00000001
 43
0.00000001
 40
0.0
 40
0.0
 40
0.0
 40
0.0
 40
0.2161241182544799
 40
0.4396369202065152
 40
0.5932538221761651
 40
0.7520048557756847
 40
0.875434357824567
 40
0.9999999999999999
 40
0.9999999999999999
 40
0.9999999999999999
 40
0.9999999999999999
 10
245.3270481003052
 20
96.1709346919503
 30
0.0
 10
245.237734202114
 20
96.26299788310364
 30
0.0
 10
245.0560530114653
 20
96.45027165037187
 30
0.0
 10
244.8046873104904
 20
96.71009461607883
 30
0.0
 10
244.5872210470507
 20
96.93549278243957
 30
0.0
 10
244.422647979005
 20
97.10650829493153
 30
0.0
 10
244.2804123707239
 20
97.25461418993898
 30
0.0
 10
244.2006072671103
 20
97.33788229037572
 30
0.0
 10
244.1605219097474
 20
97.3797070786637
 30
0.0
  0
SPLINE
  5
78
330
1F
100
AcDbEntity
  8
0
  6
Continuous
 62
     7
370
    15
100
AcDbSpline
210
0.0
220
0.0
230
1.0
 70
     8
 71
     3
 72
    14
 73
    10
 74
     0
 42
0.00000001
 43
0.00000001
 40
0.0
 40
0.0
 40
0.0
 40
0.0
 40
0.0927891276284418
 40
0.1859364241092304
 40
0.3545705453231382
 40
0.528796779209647
 40
0.7072383843481073
 40
0.8922253340288155
 40
1.0
 40
1.0
 40
1.0
 40
1.0
 10
244.1605219097474
 20
97.3797070786637
 30
0.0
 10
244.1079756811557
 20
97.3710859249601
 30
0.0
 10
244.002680393933
 20
97.35381033963763
 30
0.0
 10
243.7981051571078
 20
97.31658702871435
 30
0.0
 10
243.5418533781147
 20
97.26390584652626
 30
0.0
 10
243.2350466487381
 20
97.18782714844545
 30
0.0
 10
242.9337290796249
 20
97.09796391481089
 30
0.0
 10
242.6903387185051
 20
97.01384155720163
 30
0.0
 10
242.5508492137024
 20
96.96049185937628
 30
0.0
 10
242.4994987839231
 20
96.94085217454264
 30
0.0
  0
SPLINE
  5
79
330
1F
100
AcDbEntity
  8
0
  6
Continuous
 62
     7
370
    15
100
AcDbSpline
210
0.0
220
0.0
230
1.0
 70
     8
 71
     3
 72
    13
 73
     9
 74
     0
 42
0.00000001
 43
0.00000001
 40
0.0
 40
0.0
 40
0.0
 40
0.0
 40
0.216124118254478
 40
0.439636920206511
 40
0.5932538221761624
 40
0.7520048557756831
 40
0.8754343578245648
 40
0.9999999999999999
 40
0.9999999999999999
 40
0.9999999999999999
 40
0.9999999999999999
 10
242.4994987839231
 20
96.94085217454264
 30
0.0
 10
242.4562002845983
 20
96.83733106717168
 30
0.0
 10
242.3681230304423
 20
96.626749753117
 30
0.0
 10
242.2543279181638
 20
96.30184135170236
 30
0.0
 10
242.1627734372462
 20
95.9920628540062
 30
0.0
 10
242.0984155992174
 20
95.73712257893075
 30
0.0
 10
242.0461804322709
 20
95.50268972345513
 30
0.0
 10
242.0187699018148
 20
95.3632594209669
 30
0.0
 10
242.0050018486566
 20
95.29322488370816
 30
0.0
  0
SPLINE
  5
7A
330
1F
100
AcDbEntity
  8
0
  6
Continuous
 62
     7
370
    15
100
AcDbSpline
210
0.0
220
0.0
230
1.0
 70
     8
 71
     3
 72
    10
 73
     6
 74
     0
 42
0.00000001
 43
0.00000001
 40
0.0
 40
0.0
 40
0.0
 40
0.0
 40
0.4391165375904097
 40
0.7513669429073507
 40
1.0
 40
1.0
 40
1.0
 40
1.0
 10
242.0050018486566
 20
95.29322488370816
 30
0.0
 10
242.154159400242
 20
95.13774843885217
 30
0.0
 10
242.4093810645437
 20
94.87171459347121
 30
0.0
 10
242.8383328981454
 20
94.42792561521819
 30
0.0
 10
243.069191243687
 20
94.18994604697883
 30
0.0
 10
243.1715280392145
 20
94.08445249699476
 30
0.0
  0
LINE
  5
7B
330
1F
100
AcDbEntity
  8
0
  6
Continuous
 62
     7
370
    15
100
AcDbLine
 10
244.6789842786
 20
96.809152968
 30
0.0
 11
245.3270481003
 21
96.170934692
 31
0.0
  0
LINE
  5
7C
330
1F
100
AcDbEntity
  8
0
  6
Continuous
 62
     7
370
    15
100
AcDbLine
 10
244.6789842786
 20
96.809152968
 30
0.0
 11
244.0957211833
 21
97.4135391614
 31
0.0
  0
LINE
  5
7D
330
1F
100
AcDbEntity
  8
0
  6
Continuous
 62
     7
370
    15
100
AcDbLine
 10
244.1844873433
 20
95.1615256772
 30
0.0
 11
244.832551165
 21
94.5233074011
 31
0.0
  0
LINE
  5
7E
330
1F
100
AcDbEntity
  8
0
  6
Continuous
 62
     7
370
    15
100
AcDbLine
 10
244.1844873433
 20
95.1615256772
 30
0.0
 11
244.431735811
 21
95.9853393226
 31
0.0
  0
LINE
  5
7F
330
1F
100
AcDbEntity
  8
0
  6
Continuous
 62
     7
370
    15
100
AcDbLine
 10
244.431735811
 20
95.9853393226
 30
0.0
 11
244.6789842786
 21
96.809152968
 31
0.0
  0
LINE
  5
80
330
1F
100
AcDbEntity
  8
0
  6
Continuous
 62
     7
370
    15
100
AcDbLine
 10
242.5234642175
 20
94.722670773
 30
0.0
 11
243.3539757804
 21
94.9420982251
 31
0.0
  0
LINE
  5
81
330
1F
100
AcDbEntity
  8
0
  6
Continuous
 62
     7
370
    15
100
AcDbLine
 10
243.3539757804
 20
94.9420982251
 30
0.0
 11
244.1844873433
 21
95.1615256772
 31
0.0
  0
ARC
  5
82
330
1F
100
AcDbEntity
  8
0
  6
Continuous
 62
     7
370
    15
100
AcDbCircle
 10
243.0458104272
 20
96.4128979081
 30
0.0
 40
1.450377714064491
100
AcDbArc
 50
342.8549828146
 51
43.6235942774
  0
ARC
  5
83
330
1F
100
AcDbEntity
  8
0
  6
Continuous
 62
     7
370
    15
100
AcDbCircle
 10
242.9577760993
 20
96.4297385411
 30
0.0
 40
1.539495988016848
100
AcDbArc
 50
284.9132785442
 51
343.2219279292
  0
ARC
  5
84
330
1F
100
AcDbEntity
  8
0
  6
Continuous
 62
     7
370
    15
100
AcDbCircle
 10
242.9743455061
 20
96.3405760647
 30
0.0
 40
1.449089166675117
100
AcDbArc
 50
231.6071281839
 51
285.1874945673
  0
ELLIPSE
  5
85
330
1F
100
AcDbEntity
  8
0
  6
Continuous
 62
     7
370
    15
100
AcDbEllipse
 10
249.1937206844
 20
82.4735456535
 30
0.0
 11
1.622086646593374
 21
1.701045915595045
 31
0.0
210
0.0
220
0.0
230
0.9999999999999999
 40
0.9707866232
 41
4.311234801113638
 42
6.020059464684897
  0
ELLIPSE
  5
86
330
1F
100
AcDbEntity
  8
0
  6
Continuous
 62
     7
370
    15
100
AcDbEllipse
 10
249.1937206844
 20
82.4735456535
 30
0.0
 11
1.622086646593374
 21
1.701045915595045
 31
0.0
210
0.0
220
0.0
230
0.9999999999999999
 40
0.9707866232
 41
2.673282052729961
 42
4.311234801113662
  0
SPLINE
  5
87
330
1F
100
AcDbEntity
  8
0
  6
Continuous
 62
     7
370
    15
100
AcDbSpline
210
0.0
220
0.0
230
1.0
 70
     8
 71
     3
 72
     9
 73
     5
 74
     0
 42
0.00000001
 43
0.00000001
 40
0.0
 40
0.0
 40
0.0
 40
0.0
 40
0.8533111008344488
 40
1.0
 40
1.0
 40
1.0
 40
1.0
 10
247.1123614117748
 20
81.00703659866586
 30
0.0
 10
247.2002104854542
 20
80.94650764545018
 30
0.0
 10
247.3031613009231
 20
80.8755734303011
 30
0.0
 10
247.4324117514672
 20
80.86146218947994
 30
0.0
 10
247.4513713577742
 20
80.85939222709803
 30
0.0
  0
LINE
  5
88
330
1F
100
AcDbEntity
  8
0
  6
Continuous
 62
     7
370
    15
100
AcDbLine
 10
240.1927003684
 20
90.2905682327
 30
0.0
 11
244.4947528592
 21
76.7779248515
 31
0.0
  0
ARC
  5
89
330
1F
100
AcDbEntity
  8
0
  6
Continuous
 62
     7
370
    15
100
AcDbCircle
 10
240.5803314691
 20
90.4088241937
 30
0.0
 40
0.4052682353096574
100
AcDbArc
 50
74.7621910941
 51
196.9655565237
  0
LINE
  5
8A
330
1F
100
AcDbEntity
  8
0
  6
Continuous
 62
     7
370
    15
100
AcDbLine
 10
254.3312137876
 20
86.915566989
 30
0.0
 11
240.6868464684
 21
90.7998445224
 31
0.0
  0
ARC
  5
8B
330
1F
100
AcDbEntity
  8
0
  6
Continuous
 62
     7
370
    15
100
AcDbCircle
 10
254.228321306
 20
86.552063979
 30
0.0
 40
0.3777847284368102
100
AcDbArc
 50
17.5860598143
 51
74.1954034247
  0
LINE
  5
8C
330
1F
100
AcDbEntity
  8
0
  6
Continuous
 62
     7
370
    15
100
AcDbLine
 10
258.8905024562
 20
73.1535637082
 30
0.0
 11
254.5884499655
 21
86.6662070894
 31
0.0
  0
ARC
  5
8D
330
1F
100
AcDbEntity
  8
0
  6
Continuous
 62
     7
370
    15
100
AcDbCircle
 10
258.5028713555
 20
73.0353077472
 30
0.0
 40
0.4052682353096785
100
AcDbArc
 50
254.7621910941
 51
16.9655565236
  0
LINE
  5
8E
330
1F
100
AcDbEntity
  8
0
  6
Continuous
 62
     7
370
    15
100
AcDbLine
 10
244.751989037
 20
76.5285649519
 30
0.0
 11
258.3963563562
 21
72.6442874185
 31
0.0
  0
ARC
  5
8F
330
1F
100
AcDbEntity
  8
0
  6
Continuous
 62
     7
370
    15
100
AcDbCircle
 10
244.8548815187
 20
76.8920679619
 30
0.0
 40
0.3777847284368138
100
AcDbArc
 50
197.5860598143
 51
254.1954034247
  0
ARC
  5
90
330
1F
100
AcDbEntity
  8
0
  6
Continuous
 62
     7
370
    15
100
AcDbCircle
 10
258.5034683536
 20
73.0347226355
 30
0.0
 40
0.3850048235441766
100
AcDbArc
 50
254.7621910941
 51
16.9655565236
  0
LINE
  5
91
330
1F
100
AcDbEntity
  8
0
  6
Continuous
 62
     7
370
    15
100
AcDbLine
 10
258.8717178993
 20
73.1470657984
 30
0.0
 11
254.5696654082
 21
86.6597091795
 31
0.0
  0
ARC
  5
92
330
1F
100
AcDbEntity
  8
0
  6
Continuous
 62
     7
370
    15
100
AcDbCircle
 10
254.2275431808
 20
86.551273224
 30
0.0
 40
0.3588954931140636
100
AcDbArc
 50
17.5860598805
 51
74.1954032703
  0
LINE
  5
93
330
1F
100
AcDbEntity
  8
0
  6
Continuous
 62
     7
370
    15
100
AcDbLine
 10
254.3252910396
 20
86.8966010842
 30
0.0
 11
240.6809237204
 21
90.7808786176
 31
0.0
  0
ARC
  5
94
330
1F
100
AcDbEntity
  8
0
  6
Continuous
 62
     7
370
    15
100
AcDbCircle
 10
240.5797344711
 20
90.4094093053
 30
0.0
 40
0.3850048235441977
100
AcDbArc
 50
74.7621910941
 51
196.9655565236
  0
LINE
  5
95
330
1F
100
AcDbEntity
  8
0
  6
Continuous
 62
     7
370
    15
100
AcDbLine
 10
240.2114849254
 20
90.2970661424
 30
0.0
 11
244.5135374161
 21
76.7844227612
 31
0.0
  0
ARC
  5
96
330
1F
100
AcDbEntity
  8
0
  6
Continuous
 62
     7
370
    15
100
AcDbCircle
 10
244.8556596427
 20
76.8928587161
 30
0.0
 40
0.3588954920150111
100
AcDbArc
 50
197.5860598143
 51
254.1954034247
  0
LINE
  5
97
330
1F
100
AcDbEntity
  8
0
  6
Continuous
 62
     7
370
    15
100
AcDbLine
 10
244.7579117851
 20
76.5475308566
 30
0.0
 11
258.4022791043
 21
72.6632533232
 31
0.0
  0
LINE
  5
98
330
1F
100
AcDbEntity
  8
0
  6
Continuous
 62
     7
370
    15
100
AcDbLine
 10
239.3502242917
 20
91.1798430352
 30
0.0
 11
239.3661350427
 21
91.1045761738
 31
0.0
  0
LINE
  5
99
330
1F
100
AcDbEntity
  8
0
  6
Continuous
 62
     7
370
    15
100
AcDbLine
 10
240.5302942949
 20
90.4580448579
 30
0.0
 11
240.2114849254
 21
90.2970661424
 31
0.0
  0
LINE
  5
9A
330
1F
100
AcDbEntity
  8
0
  6
Continuous
 62
     7
370
    15
100
AcDbLine
 10
240.5302942949
 20
90.4580448579
 30
0.0
 11
240.6809237204
 21
90.7808786176
 31
0.0
  0
LINE
  5
9B
330
1F
100
AcDbEntity
  8
0
  6
Continuous
 62
     7
370
    15
100
AcDbLine
 10
244.8323467857
 20
76.9454014767
 30
0.0
 11
244.5135374161
 21
76.7844227612
 31
0.0
  0
LINE
  5
9C
330
1F
100
AcDbEntity
  8
0
  6
Continuous
 62
     7
370
    15
100
AcDbLine
 10
241.9460821427
 20
89.0871621499
 30
0.0
 11
240.5302942949
 21
90.4580448579
 31
0.0
  0
LINE
  5
9D
330
1F
100
AcDbEntity
  8
0
  6
Continuous
 62
     7
370
    15
100
AcDbLine
 10
241.9460821427
 20
89.0871621499
 30
0.0
 11
242.1460423417
 21
88.4590919753
 31
0.0
  0
LINE
  5
9E
330
1F
100
AcDbEntity
  8
0
  6
Continuous
 62
     7
370
    15
100
AcDbLine
 10
245.1282844529
 20
77.3377186755
 30
0.0
 11
244.8323467857
 21
76.9454014767
 31
0.0
  0
LINE
  5
9F
330
1F
100
AcDbEntity
  8
0
  6
Continuous
 62
     7
370
    15
100
AcDbLine
 10
239.3661350427
 20
91.1045761738
 30
0.0
 11
240.6569566469
 21
87.0501365676
 31
0.0
  0
LINE
  5
A0
330
1F
100
AcDbEntity
  8
0
  6
Continuous
 62
     7
370
    15
100
AcDbLine
 10
243.4588455244
 20
78.2494710072
 30
0.0
 11
243.6681875335
 21
77.5919327926
 31
0.0
  0
LINE
  5
A1
330
1F
100
AcDbEntity
  8
0
  6
Continuous
 62
     7
370
    15
100
AcDbLine
 10
254.1746616142
 20
86.5737673244
 30
0.0
 11
254.3252910396
 21
86.8966010842
 31
0.0
  0
LINE
  5
A2
330
1F
100
AcDbEntity
  8
0
  6
Continuous
 62
     7
370
    15
100
AcDbLine
 10
253.7920740462
 20
86.2667836197
 30
0.0
 11
254.1746616142
 21
86.5737673244
 31
0.0
  0
LINE
  5
A3
330
1F
100
AcDbEntity
  8
0
  6
Continuous
 62
     7
370
    15
100
AcDbLine
 10
242.5802748704
 20
88.9066202086
 30
0.0
 11
241.9460821427
 21
89.0871621499
 31
0.0
  0
ARC
  5
A4
330
1F
100
AcDbEntity
  8
0
  6
Continuous
 62
     7
370
    15
100
AcDbCircle
 10
244.5494699751
 20
86.561024389
 30
0.0
 40
1.013170588274104
100
AcDbArc
 50
74.7621910941
 51
196.9655565237
  0
LINE
  5
A5
330
1F
100
AcDbEntity
  8
0
  6
Continuous
 62
     7
370
    15
100
AcDbLine
 10
242.7202355894
 20
88.338329799
 30
0.0
 11
242.7186181888
 21
88.3366628754
 31
0.0
  0
SPLINE
  5
A6
330
1F
100
AcDbEntity
  8
0
  6
Continuous
 62
     7
370
    15
100
AcDbSpline
210
0.0
220
0.0
230
1.0
 70
     8
 71
     3
 72
    14
 73
    10
 74
     0
 42
0.00000001
 43
0.00000001
 40
0.0
 40
0.0
 40
0.0
 40
0.0
 40
0.2210591904779592
 40
0.3460797326519213
 40
0.439601624413143
 40
0.5338897453199817
 40
0.6146561933587528
 40
0.7517253237593802
 40
1.0
 40
1.0
 40
1.0
 40
1.0
 10
242.7202355893996
 20
88.33832979896906
 30
0.0
 10
242.7600772787673
 20
88.38201717861658
 30
0.0
 10
242.8224515287359
 20
88.45041205799701
 30
0.0
 10
242.8764868404209
 20
88.55550924378694
 30
0.0
 10
242.8921556140689
 20
88.63795073666297
 30
0.0
 10
242.877723355113
 20
88.7085786082298
 30
0.0
 10
242.8333880565226
 20
88.77727515388557
 30
0.0
 10
242.7374093555708
 20
88.85388597203075
 30
0.0
 10
242.6418458543649
 20
88.88595702424671
 30
0.0
 10
242.580274870445
 20
88.90662020857296
 30
0.0
  0
SPLINE
  5
A7
330
1F
100
AcDbEntity
  8
0
  6
Continuous
 62
     7
370
    15
100
AcDbSpline
210
0.0
220
0.0
230
1.0
 70
     8
 71
     3
 72
    14
 73
    10
 74
     0
 42
0.00000001
 43
0.00000001
 40
0.0
 40
0.0
 40
0.0
 40
0.0
 40
0.2234968253973656
 40
0.3567622963774714
 40
0.4531212562341379
 40
0.5344619041500254
 40
0.6157317558035282
 40
0.739616177892188
 40
1.0
 40
1.0
 40
1.0
 40
1.0
 10
242.1460423416699
 20
88.45909197528086
 30
0.0
 10
242.1661594259645
 20
88.40433342899864
 30
0.0
 10
242.1982718158232
 20
88.31692375468582
 30
0.0
 10
242.270203800495
 20
88.222488610361
 30
0.0
 10
242.3366873282574
 20
88.17501916923922
 30
0.0
 10
242.4031992363995
 20
88.15738013921731
 30
0.0
 10
242.479420850342
 20
88.16455263464354
 30
0.0
 10
242.5940875868729
 20
88.21639829319837
 30
0.0
 10
242.6683185685808
 20
88.2880863591347
 30
0.0
 10
242.7186181887753
 20
88.33666287538327
 30
0.0
  0
LINE
  5
A8
330
1F
100
AcDbEntity
  8
0
  6
Continuous
 62
     7
370
    15
100
AcDbLine
 10
243.5803922233
 20
86.2653844866
 30
0.0
 11
245.98809555
 21
78.7028462582
 31
0.0
  0
LINE
  5
A9
330
1F
100
AcDbEntity
  8
0
  6
Continuous
 62
     7
370
    15
100
AcDbLine
 10
252.4520168301
 20
85.3646854317
 30
0.0
 11
244.8157574733
 21
87.5385752109
 31
0.0
  0
ARC
  5
AA
330
1F
100
AcDbEntity
  8
0
  6
Continuous
 62
     7
370
    15
100
AcDbCircle
 10
252.1947856259
 20
84.4559279068
 30
0.0
 40
0.944461821091954
100
AcDbArc
 50
17.5860598143
 51
74.1954034247
  0
LINE
  5
AB
330
1F
100
AcDbEntity
  8
0
  6
Continuous
 62
     7
370
    15
100
AcDbLine
 10
255.5028106014
 20
77.1787474542
 30
0.0
 11
253.0951072746
 21
84.7412856827
 31
0.0
  0
ARC
  5
AC
330
1F
100
AcDbEntity
  8
0
  6
Continuous
 62
     7
370
    15
100
AcDbCircle
 10
254.5337328497
 20
76.8831075515
 30
0.0
 40
1.013170588251341
100
AcDbArc
 50
254.7621910794
 51
16.9655565442
  0
LINE
  5
AD
330
1F
100
AcDbEntity
  8
0
  6
Continuous
 62
     7
370
    15
100
AcDbLine
 10
246.6311859946
 20
78.0794465092
 30
0.0
 11
254.2674453513
 21
75.9055567297
 31
0.0
  0
ARC
  5
AE
330
1F
100
AcDbEntity
  8
0
  6
Continuous
 62
     7
370
    15
100
AcDbCircle
 10
246.8884171988
 20
78.9882040341
 30
0.0
 40
0.9444618210919811
100
AcDbArc
 50
197.5860598143
 51
254.1954034247
  0
LWPOLYLINE
  5
AF
330
1F
100
AcDbEntity
  8
0
  6
Continuous
 62
     7
370
    15
100
AcDbPolyline
 90
       27
 70
   128
 43
0.0
 10
248.7775669133
 20
79.27546426
 10
249.3796799626
 20
79.1814688668
 10
249.991203298
 20
79.2351237426
 10
250.5765974061
 20
79.433310661
 10
251.1018413091
 20
79.7645117187
 10
251.5364097405
 20
80.2094787141
 10
251.8550471627
 20
80.7423517828
 10
252.0392355269
 20
81.3321622789
 10
252.0782704749
 20
81.9446325604
 10
251.9698834374
 20
82.5441680807
 10
251.7203734751
 20
83.0959260145
 10
251.3442412
 20
83.5678401964
 10
250.8633460528
 20
83.9324846894
 10
250.3056359114
 20
84.1686676809
 10
249.703522862
 20
84.2626630741
 10
249.0919995266
 20
84.2090081983
 10
248.5066054185
 20
84.0108212799
 10
247.9813615156
 20
83.6796202222
 10
247.5467930842
 20
83.2346532268
 10
247.228155662
 20
82.7017801581
 10
247.0439672977
 20
82.111969662
 10
247.0049323497
 20
81.4994993805
 10
247.1133193872
 20
80.8999638602
 10
247.3628293495
 20
80.3482059264
 10
247.7389616246
 20
79.8762917445
 10
248.2198567719
 20
79.5116472515
 10
248.7775669133
 20
79.27546426
  0
ARC
  5
B0
330
1F
100
AcDbEntity
  8
0
  6
Continuous
 62
     7
370
    15
100
AcDbCircle
 10
248.6413460433
 20
82.5502733519
 30
0.0
 40
2.555800808211466
100
AcDbArc
 50
254.3292549406
 51
294.9116452664
  0
LWPOLYLINE
  5
B1
330
1F
100
AcDbEntity
  8
0
  6
Continuous
 62
     7
370
    15
100
AcDbPolyline
 90
        3
 70
   128
 43
0.0
 10
247.3673133236
 20
80.3408981677
 10
247.3932914462
 20
80.3256551927
 10
247.9510015876
 20
80.0894722011
  0
SPLINE
  5
B2
330
1F
100
AcDbEntity
  8
0
  6
Continuous
 62
     7
370
    15
100
AcDbSpline
210
0.0
220
0.0
230
1.0
 70
     8
 71
     3
 72
    11
 73
     7
 74
     0
 42
0.00000001
 43
0.00000001
 40
0.0
 40
0.0
 40
0.0
 40
0.0
 40
0.3280455501580026
 40
0.6557028173712016
 40
0.99069679960879
 40
1.0
 40
1.0
 40
1.0
 40
1.0
 10
245.1282844529071
 20
77.33771867552306
 30
0.0
 10
245.1750645432028
 20
77.39610738619493
 30
0.0
 10
245.2685693537054
 20
77.51281569719555
 30
0.0
 10
245.4414158324609
 20
77.68655709701466
 30
0.0
 10
245.5588657075639
 20
77.78777037424244
 30
0.0
 10
245.6162077249911
 20
77.83240723381556
 30
0.0
 10
245.617757154687
 20
77.83361335942563
 30
0.0
  0
LINE
  5
B3
330
1F
100
AcDbEntity
  8
0
  6
Continuous
 62
     7
370
    15
100
AcDbLine
 10
256.8592835977
 20
74.6305859056
 30
0.0
 11
258.4767141049
 21
73.0611239433
 31
0.0
  0
LINE
  5
B4
330
1F
100
AcDbEntity
  8
0
  6
Continuous
 62
     7
370
    15
100
AcDbLine
 10
258.4767141049
 20
73.0611239433
 30
0.0
 11
258.4022791043
 21
72.6632533232
 31
0.0
  0
LINE
  5
B5
330
1F
100
AcDbEntity
  8
0
  6
Continuous
 62
     7
370
    15
100
AcDbLine
 10
244.8323467857
 20
76.9454014767
 30
0.0
 11
244.7579117851
 21
76.5475308566
 31
0.0
  0
LINE
  5
B6
330
1F
100
AcDbEntity
  8
0
  6
Continuous
 62
     7
370
    15
100
AcDbLine
 10
256.22509087
 20
74.8111278469
 30
0.0
 11
256.8592835977
 21
74.6305859056
 31
0.0
  0
SPLINE
  5
B7
330
1F
100
AcDbEntity
  8
0
  6
Continuous
 62
     7
370
    15
100
AcDbSpline
210
0.0
220
0.0
230
1.0
 70
     8
 71
     3
 72
    11
 73
     7
 74
     0
 42
0.00000001
 43
0.00000001
 40
0.0
 40
0.0
 40
0.0
 40
0.0
 40
0.3280455501578552
 40
0.6557028173708933
 40
0.9906967996087872
 40
1.0
 40
1.0
 40
1.0
 40
1.0
 10
253.7920740462048
 20
86.26678361968796
 30
0.0
 10
253.7351955803759
 20
86.21833986753413
 30
0.0
 10
253.6215059714974
 20
86.12150970246715
 30
0.0
 10
253.4530232744343
 20
85.94347081660474
 30
0.0
 10
253.3552543729871
 20
85.82287556393375
 30
0.0
 10
253.3122625729353
 20
85.7641064990318
 30
0.0
 10
253.3111008982215
 20
85.76251850930905
 30
0.0
  0
LINE
  5
B8
330
1F
100
AcDbEntity
  8
0
  6
Continuous
 62
     7
370
    15
100
AcDbLine
 10
254.1746616142
 20
86.5737673244
 30
0.0
 11
254.5696654082
 21
86.6597091795
 31
0.0
  0
LINE
  5
B9
330
1F
100
AcDbEntity
  8
0
  6
Continuous
 62
     7
370
    15
100
AcDbLine
 10
258.4767141049
 20
73.0611239433
 30
0.0
 11
258.8717178993
 21
73.1470657984
 31
0.0
  0
LINE
  5
BA
330
1F
100
AcDbEntity
  8
0
  6
Continuous
 62
     7
370
    15
100
AcDbLine
 10
256.8592835977
 20
74.6305859056
 30
0.0
 11
256.6593233988
 21
75.2586560802
 31
0.0
  0
ARC
  5
BB
330
1F
100
AcDbEntity
  8
0
  6
Continuous
 62
     7
370
    15
100
AcDbCircle
 10
253.402595262
 20
87.3668909054
 30
0.0
 40
0.3766395670448531
100
AcDbArc
 50
45.4407597149
 51
57.9694056883
  0
ARC
  5
BC
330
1F
100
AcDbEntity
  8
0
  6
Continuous
 62
     7
370
    15
100
AcDbCircle
 10
244.0289750154
 20
77.7064132411
 30
0.0
 40
0.3785147027410661
100
AcDbArc
 50
197.604605227
 51
225.4019927605
  0
LINE
  5
BD
330
1F
100
AcDbEntity
  8
0
  6
Continuous
 62
     7
370
    15
100
AcDbLine
 10
256.085130151
 20
75.3794182565
 30
0.0
 11
256.0867475517
 21
75.3810851801
 31
0.0
  0
SPLINE
  5
BE
330
1F
100
AcDbEntity
  8
0
  6
Continuous
 62
     7
370
    15
100
AcDbSpline
210
0.0
220
0.0
230
1.0
 70
     8
 71
     3
 72
    14
 73
    10
 74
     0
 42
0.00000001
 43
0.00000001
 40
0.0
 40
0.0
 40
0.0
 40
0.0
 40
0.2234968253973549
 40
0.3567622963774387
 40
0.4531212562341274
 40
0.5344619041500144
 40
0.6157317558035087
 40
0.7396161778921929
 40
1.0
 40
1.0
 40
1.0
 40
1.0
 10
256.6593233987556
 20
75.25865608022455
 30
0.0
 10
256.639206314461
 20
75.31341462650676
 30
0.0
 10
256.6070939246023
 20
75.4008243008196
 30
0.0
 10
256.5351619399304
 20
75.4952594451444
 30
0.0
 10
256.468678412168
 20
75.54272888626619
 30
0.0
 10
256.402166504026
 20
75.56036791628809
 30
0.0
 10
256.3259448900834
 20
75.55319542086193
 30
0.0
 10
256.2112781535525
 20
75.50134976230702
 30
0.0
 10
256.1370471718446
 20
75.42966169637072
 30
0.0
 10
256.0867475516501
 20
75.38108518012218
 30
0.0
  0
SPLINE
  5
BF
330
1F
100
AcDbEntity
  8
0
  6
Continuous
 62
     7
370
    15
100
AcDbSpline
210
0.0
220
0.0
230
1.0
 70
     8
 71
     3
 72
    14
 73
    10
 74
     0
 42
0.00000001
 43
0.00000001
 40
0.0
 40
0.0
 40
0.0
 40
0.0
 40
0.2210591904779726
 40
0.3460797326519461
 40
0.4396016244131538
 40
0.5338897453200032
 40
0.6146561933587633
 40
0.7517253237594066
 40
1.0
 40
1.0
 40
1.0
 40
1.0
 10
256.0851301510258
 20
75.37941825653637
 30
0.0
 10
256.0452884616582
 20
75.33573087688883
 30
0.0
 10
255.9829142116895
 20
75.26733599750837
 30
0.0
 10
255.9288789000045
 20
75.1622388117185
 30
0.0
 10
255.9132101263565
 20
75.07979731884244
 30
0.0
 10
255.9276423853124
 20
75.00916944727561
 30
0.0
 10
255.9719776839028
 20
74.94047290161984
 30
0.0
 10
256.0679563848546
 20
74.86386208347467
 30
0.0
 10
256.1635198860605
 20
74.8317910312587
 30
0.0
 10
256.2250908699804
 20
74.81112784693245
 30
0.0
  0
LINE
  5
C0
330
1F
100
AcDbEntity
  8
0
  6
Continuous
 62
     7
370
    15
100
AcDbLine
 10
239.7074598374
 20
90.0324832049
 30
0.0
 11
240.6569566469
 21
87.0501365676
 31
0.0
  0
LINE
  5
C1
330
1F
100
AcDbEntity
  8
0
  6
Continuous
 62
     7
370
    15
100
AcDbLine
 10
243.4588455244
 20
78.2494710072
 30
0.0
 11
243.5756919089
 21
77.8824593243
 31
0.0
  0
LWPOLYLINE
  5
C2
330
1F
100
AcDbEntity
  8
0
  6
Continuous
 62
     7
370
    15
100
AcDbPolyline
 90
        3
 70
   128
 43
0.0
 10
238.8906589758
 20
91.169970185
 10
238.8879363376
 20
91.0577240607
 10
238.932988965
 20
90.7951881245
  0
LINE
  5
C3
330
1F
100
AcDbEntity
  8
0
  6
Continuous
 62
     7
370
    15
100
AcDbLine
 10
238.932988965
 20
90.7951881245
 30
0.0
 11
239.8824857745
 21
87.8128414872
 31
0.0
  0
LINE
  5
C4
330
1F
100
AcDbEntity
  8
0
  6
Continuous
 62
     7
370
    15
100
AcDbLine
 10
249.1754586633
 20
80.0514326372
 30
0.0
 11
249.5036468191
 21
80.1865882724
 31
0.0
  0
LWPOLYLINE
  5
C5
330
1F
100
AcDbEntity
  8
0
  6
Continuous
 62
     7
370
    15
100
AcDbPolyline
 90
        3
 70
   128
 43
0.0
 10
242.8999691995
 20
78.4310609329
 10
242.9657343892
 20
78.3383390532
 10
243.0387750406
 20
78.2575614384
  0
LWPOLYLINE
  5
C6
330
1F
100
AcDbEntity
  8
0
  6
Continuous
 62
     7
370
    15
100
AcDbPolyline
 90
        3
 70
   128
 43
0.0
 10
248.2182869246
 20
80.0290925105
 10
248.8524650684
 20
80.1439284623
 10
248.9213616199
 20
80.1645569158
  0
LINE
  5
C7
330
1F
100
AcDbEntity
  8
0
  6
Continuous
 62
     7
370
    15
100
AcDbLine
 10
210.30066725
 20
87.4425801046
 30
0.0
 11
210.30066725
 21
137.4794978009
 31
0.0
  0
SPLINE
  5
C8
330
1F
100
AcDbEntity
  8
0
  6
Continuous
 62
     7
370
    15
100
AcDbSpline
210
0.0
220
0.0
230
1.0
 70
     8
 71
     3
 72
     8
 73
     4
 74
     0
 42
0.00000001
 43
0.00000001
 40
0.0
 40
0.0
 40
0.0
 40
0.0
 40
1.0
 40
1.0
 40
1.0
 40
1.0
 10
210.300667250038
 20
87.44258010464249
 30
0.0
 10
209.8051875893723
 20
88.33810619257584
 30
0.0
 10
209.3110735413301
 20
89.23439060762807
 30
0.0
 10
208.818734418549
 20
90.13166064183476
 30
0.0
  0
LINE
  5
C9
330
1F
100
AcDbEntity
  8
0
  6
Continuous
 62
     7
370
    15
100
AcDbLine
 10
208.8187344185
 20
90.1316606418
 30
0.0
 11
208.8187344185
 21
137.4794978009
 31
0.0
  0
SPLINE
  5
CA
330
1F
100
AcDbEntity
  8
0
  6
Continuous
 62
     7
370
    15
100
AcDbSpline
210
0.0
220
0.0
230
1.0
 70
    24
 71
     3
 72
     8
 73
     4
 74
     0
 42
0.00000001
 43
0.00000001
 40
0.0
 40
0.0
 40
0.0
 40
0.0
 40
1.0
 40
1.0
 40
1.0
 40
1.0
 10
208.818734418549
 20
137.4794978008896
 30
0.0
 10
209.2986864129139
 20
137.4794978008896
 30
0.0
 10
209.7939871418875
 20
137.4794978008896
 30
0.0
 10
210.300667250038
 20
137.4794978008896
 30
0.0
  0
LINE
  5
CB
330
1F
100
AcDbEntity
  8
0
  6
Continuous
 62
     7
370
    15
100
AcDbLine
 10
214.8587344185
 20
88.0692204003
 30
0.0
 11
214.8587344185
 21
137.4794978009
 31
0.0
  0
SPLINE
  5
CC
330
1F
100
AcDbEntity
  8
0
  6
Continuous
 62
     7
370
    15
100
AcDbSpline
210
0.0
220
0.0
230
1.0
 70
     8
 71
     3
 72
    10
 73
     6
 74
     0
 42
0.00000001
 43
0.00000001
 40
0.0
 40
0.0
 40
0.0
 40
0.0
 40
0.5
 40
0.5
 40
1.0
 40
1.0
 40
1.0
 40
1.0
 10
214.858734418549
 20
88.06922040029681
 30
0.0
 10
214.858734418549
 20
87.90933313210314
 30
0.0
 10
214.7974247673131
 20
87.74820587658854
 30
0.0
 10
214.5783251297781
 20
87.51410687823372
 30
0.0
 10
214.4202769234646
 20
87.44258010464249
 30
0.0
 10
214.258734418549
 20
87.44258010464249
 30
0.0
  0
SPLINE
  5
CD
330
1F
100
AcDbEntity
  8
0
  6
Continuous
 62
     7
370
    15
100
AcDbSpline
210
0.0
220
0.0
230
1.0
 70
    24
 71
     3
 72
    12
 73
     8
 74
     0
 42
0.00000001
 43
0.00000001
 40
0.0
 40
0.0
 40
0.0
 40
0.0
 40
0.2500000000000006
 40
0.2500000000000006
 40
0.5000000000000012
 40
0.5000000000000012
 40
1.0
 40
1.0
 40
1.0
 40
1.0
 10
214.258734418549
 20
137.4794978008896
 30
0.0
 10
214.348973486236
 20
137.4794978008896
 30
0.0
 10
214.4398716003425
 20
137.4794978008896
 30
0.0
 10
214.594468636831
 20
137.4794978008896
 30
0.0
 10
214.6594470529392
 20
137.4794978008896
 30
0.0
 10
214.8112820808754
 20
137.4794978008896
 30
0.0
 10
214.858734418549
 20
137.4794978008896
 30
0.0
 10
214.858734418549
 20
137.4794978008896
 30
0.0
  0
LINE
  5
CE
330
1F
100
AcDbEntity
  8
0
  6
Continuous
 62
     7
370
    15
100
AcDbLine
 10
214.2587344185
 20
87.4425801046
 30
0.0
 11
210.30066725
 21
87.4425801046
 31
0.0
  0
LINE
  5
CF
330
1F
100
AcDbEntity
  8
0
  6
Continuous
 62
     7
370
    15
100
AcDbLine
 10
210.30066725
 20
137.4794978009
 30
0.0
 11
214.2587344185
 21
137.4794978009
 31
0.0
  0
LINE
  5
D0
330
1F
100
AcDbEntity
  8
0
  6
Continuous
 62
     7
370
    15
100
AcDbLine
 10
204.9987344185
 20
90.1316606418
 30
0.0
 11
204.9987344185
 21
137.4794978009
 31
0.0
  0
SPLINE
  5
D1
330
1F
100
AcDbEntity
  8
0
  6
Continuous
 62
     7
370
    15
100
AcDbSpline
210
0.0
220
0.0
230
1.0
 70
     8
 71
     3
 72
     8
 73
     4
 74
     0
 42
0.00000001
 43
0.00000001
 40
0.0
 40
0.0
 40
0.0
 40
0.0
 40
1.0
 40
1.0
 40
1.0
 40
1.0
 10
204.998734418549
 20
90.13166064183478
 30
0.0
 10
204.5063952957678
 20
89.23439060762809
 30
0.0
 10
204.0122812477257
 20
88.33810619257585
 30
0.0
 10
203.5168015870599
 20
87.44258010464249
 30
0.0
  0
LINE
  5
D2
330
1F
100
AcDbEntity
  8
0
  6
Continuous
 62
     7
370
    15
100
AcDbLine
 10
203.5168015871
 20
87.4425801046
 30
0.0
 11
203.5168015871
 21
137.4794978009
 31
0.0
  0
SPLINE
  5
D3
330
1F
100
AcDbEntity
  8
0
  6
Continuous
 62
     7
370
    15
100
AcDbSpline
210
0.0
220
0.0
230
1.0
 70
    24
 71
     3
 72
     8
 73
     4
 74
     0
 42
0.00000001
 43
0.00000001
 40
0.0
 40
0.0
 40
0.0
 40
0.0
 40
1.0
 40
1.0
 40
1.0
 40
1.0
 10
203.5168015870599
 20
137.4794978008896
 30
0.0
 10
204.0234816952104
 20
137.4794978008896
 30
0.0
 10
204.5187824241841
 20
137.4794978008896
 30
0.0
 10
204.998734418549
 20
137.4794978008896
 30
0.0
  0
LINE
  5
D4
330
1F
100
AcDbEntity
  8
0
  6
Continuous
 62
     7
370
    15
100
AcDbLine
 10
193.8587344185
 20
137.4794978009
 30
0.0
 11
203.5168015871
 21
137.4794978009
 31
0.0
  0
LINE
  5
D5
330
1F
100
AcDbEntity
  8
0
  6
Continuous
 62
     7
370
    15
100
AcDbLine
 10
203.5168015871
 20
87.4425801046
 30
0.0
 11
201.8587344185
 21
87.4425801046
 31
0.0
  0
SPLINE
  5
D6
330
1F
100
AcDbEntity
  8
0
  6
Continuous
 62
     7
370
    15
100
AcDbSpline
210
0.0
220
0.0
230
1.0
 70
     8
 71
     3
 72
    28
 73
    24
 74
     0
 42
0.00000001
 43
0.00000001
 40
0.0
 40
0.0
 40
0.0
 40
0.0
 40
0.1250000000000003
 40
0.1250000000000003
 40
0.1875000000000004
 40
0.1875000000000004
 40
0.2500000000000004
 40
0.2500000000000004
 40
0.3750000000000004
 40
0.3750000000000004
 40
0.4375000000000006
 40
0.4375000000000006
 40
0.5000000000000007
 40
0.5000000000000007
 40
0.6250000000000006
 40
0.6250000000000006
 40
0.7500000000000004
 40
0.7500000000000004
 40
0.8125000000000003
 40
0.8125000000000003
 40
0.8750000000000003
 40
0.8750000000000003
 40
1.0
 40
1.0
 40
1.0
 40
1.0
 10
201.8587344185489
 20
87.44258010464249
 30
0.0
 10
201.327026661056
 20
87.44258010464249
 30
0.0
 10
200.8047880957457
 20
87.42679539069228
 30
0.0
 10
200.0349176094707
 20
87.38179997661605
 30
0.0
 10
199.7805580372794
 20
87.36324498154035
 30
0.0
 10
199.2764364565809
 20
87.31939225909385
 30
0.0
 10
199.0267136391529
 20
87.29404765214164
 30
0.0
 10
198.3011236877065
 20
87.21064557439153
 30
0.0
 10
197.842763426125
 20
87.14478001524046
 30
0.0
 10
197.1922654827311
 20
87.03580967474866
 30
0.0
 10
196.9805834319386
 20
86.997570038982
 30
0.0
 10
196.5765119428007
 20
86.91981130156266
 30
0.0
 10
196.3840054289798
 20
86.88031033938731
 30
0.0
 10
195.8341704579585
 20
86.7614025970213
 30
0.0
 10
195.5042416796497
 20
86.68158491559669
 30
0.0
 10
194.919770411081
 20
86.52824175380063
 30
0.0
 10
194.6734932730676
 20
86.45690800053139
 30
0.0
 10
194.3736504803695
 20
86.36296449345676
 30
0.0
 10
194.2851936232973
 20
86.33377070009684
 30
0.0
 10
194.1318322699922
 20
86.28030412583338
 30
0.0
 10
194.066744055766
 20
86.25594479155824
 30
0.0
 10
193.9111500398252
 20
86.1923546461135
 30
0.0
 10
193.858734418549
 20
86.16225171102425
 30
0.0
 10
193.858734418549
 20
86.14537481802732
 30
0.0
  0
LINE
  5
D7
330
1F
100
AcDbEntity
  8
0
  6
Continuous
 62
     7
370
    15
100
AcDbLine
 10
193.8587344185
 20
86.145374818
 30
0.0
 11
193.8587344185
 21
86.1294978009
 31
0.0
  0
SPLINE
  5
D8
330
1F
100
AcDbEntity
  8
0
  6
Continuous
 62
     7
370
    15
100
AcDbSpline
210
0.0
220
0.0
230
1.0
 70
     8
 71
     3
 72
    23
 73
    19
 74
     0
 42
0.00000001
 43
0.00000001
 40
0.0
 40
0.0
 40
0.0
 40
0.0
 40
0.1038035146324083
 40
0.1565103724816374
 40
0.209997340277169
 40
0.3137613544584514
 40
0.3664029152074511
 40
0.4197768754505553
 40
0.4724008945937179
 40
0.5257538543460543
 40
0.5794766981554437
 40
0.633961113816662
 40
0.6872821437292176
 40
0.7409829035365941
 40
0.7958991837351531
 40
0.8512439231136131
 40
0.9563115427747296
 40
1.0
 40
1.0
 40
1.0
 40
1.0
 10
201.8587344185489
 20
148.0966932740538
 30
0.0
 10
201.421734575696
 20
148.1019355190662
 30
0.0
 10
200.7628454386419
 20
148.1098395454611
 30
0.0
 10
199.8988853400423
 20
148.1576077859463
 30
0.0
 10
199.0541458588701
 20
148.2204162231765
 30
0.0
 10
198.2453069207745
 20
148.3061456280759
 30
0.0
 10
197.4910750051195
 20
148.4065187405303
 30
0.0
 10
196.9510023185355
 20
148.4879893665912
 30
0.0
 10
196.4427242383352
 20
148.5730906233834
 30
0.0
 10
195.9707257563697
 20
148.659359122746
 30
0.0
 10
195.5345978715816
 20
148.7452400432196
 30
0.0
 10
195.1433228061998
 20
148.8273154550024
 30
0.0
 10
194.7994762586248
 20
148.9033104946885
 30
0.0
 10
194.5044944028657
 20
148.9713514327945
 30
0.0
 10
194.258790589356
 20
149.0300429060627
 30
0.0
 10
194.0120485092503
 20
149.0906084877904
 30
0.0
 10
193.8727336772102
 20
149.1259460230976
 30
0.0
 10
193.86516227542
 20
149.1278669023748
 30
0.0
 10
193.862938615922
 20
149.12843104909
 30
0.0
  0
LINE
  5
D9
330
1F
100
AcDbEntity
  8
0
  6
Continuous
 62
     7
370
    15
100
AcDbLine
 10
203.5168015871
 20
148.0966932741
 30
0.0
 11
201.8587344185
 21
148.0966932741
 31
0.0
  0
LINE
  5
DA
330
1F
100
AcDbEntity
  8
0
  6
Continuous
 62
     7
370
    15
100
AcDbLine
 10
203.5168015871
 20
142.0881874633
 30
0.0
 11
203.5168015871
 21
148.0966932741
 31
0.0
  0
LINE
  5
DB
330
1F
100
AcDbEntity
  8
0
  6
Continuous
 62
     7
370
    15
100
AcDbLine
 10
201.1043547642
 20
142.0881874633
 30
0.0
 11
203.5168015871
 21
142.0881874633
 31
0.0
  0
SPLINE
  5
DC
330
1F
100
AcDbEntity
  8
0
  6
Continuous
 62
     7
370
    15
100
AcDbSpline
210
0.0
220
0.0
230
1.0
 70
     8
 71
     3
 72
    20
 73
    16
 74
     0
 42
0.00000001
 43
0.00000001
 40
0.0
 40
0.0
 40
0.0
 40
0.0
 40
0.2499999999999994
 40
0.2499999999999994
 40
0.3749999999999994
 40
0.3749999999999994
 40
0.4999999999999996
 40
0.4999999999999996
 40
0.6249999999999996
 40
0.6249999999999996
 40
0.7499999999999997
 40
0.7499999999999997
 40
0.8749999999999999
 40
0.8749999999999999
 40
1.0
 40
1.0
 40
1.0
 40
1.0
 10
193.858734418549
 20
137.4794978008896
 30
0.0
 10
194.107108152837
 20
138.133360229187
 30
0.0
 10
194.4266782451823
 20
138.7371460111842
 30
0.0
 10
195.048984478387
 20
139.5639847473528
 30
0.0
 10
195.2804087388178
 20
139.8264133853057
 30
0.0
 10
195.8016230784674
 20
140.3230760394106
 30
0.0
 10
196.0882435611025
 20
140.5536629184322
 30
0.0
 10
196.7077283024101
 20
140.9702171430148
 30
0.0
 10
197.0420286818971
 20
141.1577149449823
 30
0.0
 10
197.7672891545219
 20
141.4891119226187
 30
0.0
 10
198.1492042119123
 20
141.628615910114
 30
0.0
 10
198.943992388084
 20
141.854069417585
 30
0.0
 10
199.3581505822904
 20
141.9406955291286
 30
0.0
 10
200.2236969228718
 20
142.0586763179827
 30
0.0
 10
200.6615845378836
 20
142.088187463257
 30
0.0
 10
201.1043547642383
 20
142.088187463257
 30
0.0
  0
LINE
  5
DD
330
1F
100
AcDbEntity
  8
0
  6
Continuous
 62
     7
370
    15
100
AcDbLine
 10
188.9087344185
 20
86.4294978009
 30
0.0
 11
188.9087344185
 21
148.829497799
 31
0.0
  0
SPLINE
  5
DE
330
1F
100
AcDbEntity
  8
0
  6
Continuous
 62
     7
370
    15
100
AcDbSpline
210
0.0
220
0.0
230
1.0
 70
    24
 71
     3
 72
    14
 73
    10
 74
     0
 42
0.00000001
 43
0.00000001
 40
0.0
 40
0.0
 40
0.0
 40
0.0
 40
0.5000000000000029
 40
0.5000000000000029
 40
0.7500000000000028
 40
0.7500000000000028
 40
0.8750000000000013
 40
0.8750000000000013
 40
1.0
 40
1.0
 40
1.0
 40
1.0
 10
208.7210596162167
 20
91.22949780088963
 30
0.0
 10
208.6742749111685
 20
91.22949780088962
 30
0.0
 10
208.6122237143888
 20
91.22949780088962
 30
0.0
 10
208.4688320758383
 20
91.22949780088963
 30
0.0
 10
208.4126884222871
 20
91.22949780088963
 30
0.0
 10
208.2997374001509
 20
91.22949780088962
 30
0.0
 10
208.2567366381128
 20
91.22949780088962
 30
0.0
 10
208.1526739278063
 20
91.22949780088962
 30
0.0
 10
208.0873416894494
 20
91.22949780088962
 30
0.0
 10
208.0187344185489
 20
91.22949780088963
 30
0.0
  0
SPLINE
  5
DF
330
1F
100
AcDbEntity
  8
0
  6
Continuous
 62
     7
370
    15
100
AcDbSpline
210
0.0
220
0.0
230
1.0
 70
    24
 71
     3
 72
    12
 73
     8
 74
     0
 42
0.00000001
 43
0.00000001
 40
0.0
 40
0.0
 40
0.0
 40
0.0
 40
0.4999999999999909
 40
0.4999999999999909
 40
0.7499999999999954
 40
0.7499999999999954
 40
1.0
 40
1.0
 40
1.0
 40
1.0
 10
208.424436886858
 20
144.0294978008896
 30
0.0
 10
208.3813513372473
 20
144.0294978008896
 30
0.0
 10
208.3321991355002
 20
144.0294978008896
 30
0.0
 10
208.2357265412106
 20
144.0294978008896
 30
0.0
 10
208.1996249560764
 20
144.0294978008896
 30
0.0
 10
208.1165191982138
 20
144.0294978008896
 30
0.0
 10
208.0685226012498
 20
144.0294978008896
 30
0.0
 10
208.0187344185489
 20
144.0294978008896
 30
0.0
  0
SPLINE
  5
E0
330
1F
100
AcDbEntity
  8
0
  6
Continuous
 62
     7
370
    15
100
AcDbSpline
210
0.0
220
0.0
230
1.0
 70
     8
 71
     3
 72
    10
 73
     6
 74
     0
 42
0.00000001
 43
0.00000001
 40
0.0
 40
0.0
 40
0.0
 40
0.0
 40
0.5
 40
0.5
 40
1.0
 40
1.0
 40
1.0
 40
1.0
 10
208.818734418549
 20
144.7491516519254
 30
0.0
 10
208.818734418549
 20
144.6053815941074
 30
0.0
 10
208.7826853598301
 20
144.4629622316122
 30
0.0
 10
208.6471764990561
 20
144.213067938255
 30
0.0
 10
208.5473005059599
 20
144.1050376020068
 30
0.0
 10
208.424436886858
 20
144.0294978008896
 30
0.0
  0
SPLINE
  5
E1
330
1F
100
AcDbEntity
  8
0
  6
Continuous
 62
     7
370
    15
100
AcDbSpline
210
0.0
220
0.0
230
1.0
 70
     8
 71
     3
 72
    10
 73
     6
 74
     0
 42
0.00000001
 43
0.00000001
 40
0.0
 40
0.0
 40
0.0
 40
0.0
 40
0.5
 40
0.5
 40
1.0
 40
1.0
 40
1.0
 40
1.0
 10
208.7925867953888
 20
137.4794978008896
 30
0.0
 10
208.8012764383005
 20
137.5263766502078
 30
0.0
 10
208.807815503051
 20
137.573799115609
 30
0.0
 10
208.816574137444
 20
137.6697359141958
 30
0.0
 10
208.818734418549
 20
137.7176512022063
 30
0.0
 10
208.818734418549
 20
137.7653644323508
 30
0.0
  0
SPLINE
  5
E2
330
1F
100
AcDbEntity
  8
0
  6
Continuous
 62
     7
370
    15
100
AcDbSpline
210
0.0
220
0.0
230
1.0
 70
     8
 71
     3
 72
    10
 73
     6
 74
     0
 42
0.00000001
 43
0.00000001
 40
0.0
 40
0.0
 40
0.0
 40
0.0
 40
0.5
 40
0.5
 40
1.0
 40
1.0
 40
1.0
 40
1.0
 10
205.3930319502399
 20
144.0294978008896
 30
0.0
 10
205.2714916865714
 20
144.1042239681014
 30
0.0
 10
205.1701573262225
 20
144.2131689840182
 30
0.0
 10
205.034518383334
 20
144.4635994647798
 30
0.0
 10
204.998734418549
 20
144.6060188268787
 30
0.0
 10
204.998734418549
 20
144.7491516519254
 30
0.0
  0
SPLINE
  5
E3
330
1F
100
AcDbEntity
  8
0
  6
Continuous
 62
     7
370
    15
100
AcDbSpline
210
0.0
220
0.0
230
1.0
 70
    24
 71
     3
 72
    12
 73
     8
 74
     0
 42
0.00000001
 43
0.00000001
 40
0.0
 40
0.0
 40
0.0
 40
0.0
 40
0.2500000000000008
 40
0.2500000000000008
 40
0.5000000000000017
 40
0.5000000000000017
 40
1.0
 40
1.0
 40
1.0
 40
1.0
 10
205.798734418549
 20
144.0294978008896
 30
0.0
 10
205.7493910567393
 20
144.0294978008896
 30
0.0
 10
205.7007003584377
 20
144.0294978008896
 30
0.0
 10
205.6178492608673
 20
144.0294978008896
 30
0.0
 10
205.5816492932467
 20
144.0294978008896
 30
0.0
 10
205.4858993766973
 20
144.0294978008896
 30
0.0
 10
205.4360174068852
 20
144.0294978008896
 30
0.0
 10
205.3930319502399
 20
144.0294978008896
 30
0.0
  0
SPLINE
  5
E4
330
1F
100
AcDbEntity
  8
0
  6
Continuous
 62
     7
370
    15
100
AcDbSpline
210
0.0
220
0.0
230
1.0
 70
    24
 71
     3
 72
    14
 73
    10
 74
     0
 42
0.00000001
 43
0.00000001
 40
0.0
 40
0.0
 40
0.0
 40
0.0
 40
0.1249999999999991
 40
0.1249999999999991
 40
0.2499999999999982
 40
0.2499999999999982
 40
0.4999999999999998
 40
0.4999999999999998
 40
1.0
 40
1.0
 40
1.0
 40
1.0
 10
205.798734418549
 20
91.22949780088963
 30
0.0
 10
205.7293876968178
 20
91.22949780088962
 30
0.0
 10
205.6641896434339
 20
91.22949780088963
 30
0.0
 10
205.5598104508069
 20
91.22949780088963
 30
0.0
 10
205.5169080797979
 20
91.22949780088963
 30
0.0
 10
205.4045824221932
 20
91.22949780088962
 30
0.0
 10
205.3493587278394
 20
91.22949780088963
 30
0.0
 10
205.2053013490718
 20
91.22949780088962
 30
0.0
 10
205.1432206522404
 20
91.22949780088962
 30
0.0
 10
205.0964092208813
 20
91.22949780088963
 30
0.0
  0
SPLINE
  5
E5
330
1F
100
AcDbEntity
  8
0
  6
Continuous
 62
     7
370
    15
100
AcDbSpline
210
0.0
220
0.0
230
1.0
 70
     8
 71
     3
 72
     9
 73
     5
 74
     0
 42
0.00000001
 43
0.00000001
 40
0.0
 40
0.0
 40
0.0
 40
0.0
 40
0.5
 40
1.0
 40
1.0
 40
1.0
 40
1.0
 10
204.998734418549
 20
137.765364432351
 30
0.0
 10
204.998734418549
 20
137.7171323802283
 30
0.0
 10
205.0031403932541
 20
137.6212623667887
 30
0.0
 10
205.0161595733479
 20
137.5265537368054
 30
0.0
 10
205.024882041709
 20
137.4794978008896
 30
0.0
  0
LINE
  5
E6
330
1F
100
AcDbEntity
  8
0
  6
Continuous
 62
     7
370
    15
100
AcDbLine
 10
208.0187344185
 20
144.0294978009
 30
0.0
 11
205.7987344185
 21
144.0294978009
 31
0.0
  0
LINE
  5
E7
330
1F
100
AcDbEntity
  8
0
  6
Continuous
 62
     7
370
    15
100
AcDbLine
 10
208.0187344185
 20
91.2294978009
 30
0.0
 11
205.7987344185
 21
91.2294978009
 31
0.0
  0
LINE
  5
E8
330
1F
100
AcDbEntity
  8
0
  6
Continuous
 62
     7
370
    15
100
AcDbLine
 10
215.0587333572
 20
144.0294978009
 30
0.0
 11
215.0144896393
 21
144.0294978009
 31
0.0
  0
SPLINE
  5
E9
330
1F
100
AcDbEntity
  8
0
  6
Continuous
 62
     7
370
    15
100
AcDbSpline
210
0.0
220
0.0
230
1.0
 70
    24
 71
     3
 72
    10
 73
     6
 74
     0
 42
0.00000001
 43
0.00000001
 40
0.0
 40
0.0
 40
0.0
 40
0.0
 40
0.5
 40
0.5
 40
1.0
 40
1.0
 40
1.0
 40
1.0
 10
215.0587344185234
 20
91.22949780088962
 30
0.0
 10
215.0587332792326
 20
91.22949780088962
 30
0.0
 10
215.0155283921448
 20
91.22949780088963
 30
0.0
 10
214.9146013578713
 20
91.22949780088963
 30
0.0
 10
214.858734418549
 20
91.22949780088963
 30
0.0
 10
214.858734418549
 20
91.22949780088963
 30
0.0
  0
ELLIPSE
  5
EA
330
1F
100
AcDbEntity
  8
0
  6
Continuous
 62
     7
370
    15
100
AcDbEllipse
 10
229.4800497789
 20
117.6294978009
 30
0.0
 11
1.299954407456283
 21
25.99774751943447
 31
0.0
210
0.0
220
0.0
230
0.9999999999999998
 40
0.263265937
 41
0.9013956214296066
 42
2.615589313207895
  0
SPLINE
  5
EB
330
1F
100
AcDbEntity
  8
0
  6
Continuous
 62
     7
370
    15
100
AcDbSpline
210
0.0
220
0.0
230
1.0
 70
     8
 71
     3
 72
    14
 73
    10
 74
     0
 42
0.00000001
 43
0.00000001
 40
0.0
 40
0.0
 40
0.0
 40
0.0
 40
0.25
 40
0.25
 40
0.5
 40
0.5
 40
0.75
 40
0.75
 40
1.0
 40
1.0
 40
1.0
 40
1.0
 10
229.6730848108894
 20
93.06827236036487
 30
0.0
 10
229.0484410441839
 20
93.10964338610509
 30
0.0
 10
228.4647097043451
 20
93.18626243574461
 30
0.0
 10
227.3786663041568
 20
93.4207443952451
 30
0.0
 10
226.9047330633175
 20
93.57309308852854
 30
0.0
 10
226.0849384748049
 20
93.95875896346615
 30
0.0
 10
225.7560005492715
 20
94.18414317587018
 30
0.0
 10
225.2320003481221
 20
94.70806229481194
 30
0.0
 10
225.0454807527342
 20
94.99840668794502
 30
0.0
 10
224.9194189191565
 20
95.31793873556624
 30
0.0
  0
ELLIPSE
  5
EC
330
1F
100
AcDbEntity
  8
0
  6
Continuous
 62
     7
370
    15
100
AcDbEllipse
 10
301.4974521592
 20
117.6294978009
 30
0.0
 11
147.4511159362755
 21
4.65501524294912
 31
0.0
210
0.0
220
0.0
230
1.0
 40
0.1734804855
 41
4.198147323375347
 42
4.201780320235494
  0
ELLIPSE
  5
ED
330
1F
100
AcDbEntity
  8
0
  6
Continuous
 62
     7
370
    15
100
AcDbEllipse
 10
301.4974521592
 20
117.6294978009
 30
0.0
 11
147.4511159362755
 21
4.65501524294912
 31
0.0
210
0.0
220
0.0
230
1.0
 40
0.1734804855
 41
2.070451577396949
 42
2.074084574257096
  0
SPLINE
  5
EE
330
1F
100
AcDbEntity
  8
0
  6
Continuous
 62
     7
370
    15
100
AcDbSpline
210
0.0
220
0.0
230
1.0
 70
     8
 71
     3
 72
    20
 73
    16
 74
     0
 42
0.00000001
 43
0.00000001
 40
0.0
 40
0.0
 40
0.0
 40
0.0
 40
0.2499999999999993
 40
0.2499999999999993
 40
0.3749999999999994
 40
0.3749999999999994
 40
0.4999999999999996
 40
0.4999999999999996
 40
0.6249999999999997
 40
0.6249999999999997
 40
0.7499999999999998
 40
0.7499999999999998
 40
0.8749999999999999
 40
0.8749999999999999
 40
1.0
 40
1.0
 40
1.0
 40
1.0
 10
224.9194189191565
 20
134.0298971375543
 30
0.0
 10
225.0455552483315
 20
134.513106794088
 30
0.0
 10
225.2314975747632
 20
134.9643610795974
 30
0.0
 10
225.6198608011406
 20
135.5929463185902
 30
0.0
 10
225.7690610694129
 20
135.7958220661269
 30
0.0
 10
226.1032523568908
 20
136.17678472391
 30
0.0
 10
226.2874443219407
 20
136.3545304675002
 30
0.0
 10
226.6923561479805
 20
136.685054513576
 30
0.0
 10
226.9138520711039
 20
136.8383156972484
 30
0.0
 10
227.3944560962656
 20
137.1171905013619
 30
0.0
 10
227.6481367700831
 20
137.2398223372267
 30
0.0
 10
228.1824328369536
 20
137.453469347474
 30
0.0
 10
228.4630287667126
 20
137.5445003559013
 30
0.0
 10
229.0531911851542
 20
137.6944610855541
 30
0.0
 10
229.3601375258941
 20
137.7524717947798
 30
0.0
 10
229.6730848108894
 20
137.7923629063791
 30
0.0
  0
ELLIPSE
  5
EF
330
1F
100
AcDbEntity
  8
0
  6
Continuous
 62
     7
370
    15
100
AcDbEllipse
 10
224.3145245373
 20
105.3848652963
 30
0.0
 11
-0.2401414008674863
 21
3.58833961019927
 31
0.0
210
0.0
220
0.0
230
1.0
 40
0.2051898077
 41
5.071566725940575
 42
10.0058527237755
  0
LINE
  5
F0
330
1F
100
AcDbEntity
  8
0
  6
Continuous
 62
     7
370
    15
100
AcDbLine
 10
167.1087344185
 20
94.4010509071
 30
0.0
 11
167.1087344185
 21
95.6551820927
 31
0.0
  0
SPLINE
  5
F1
330
1F
100
AcDbEntity
  8
0
  6
Continuous
 62
     7
370
    15
100
AcDbSpline
210
0.0
220
0.0
230
1.0
 70
     8
 71
     3
 72
    12
 73
     8
 74
     0
 42
0.00000001
 43
0.00000001
 40
0.0
 40
0.0
 40
0.0
 40
0.0
 40
0.2499999999999998
 40
0.2499999999999998
 40
0.4999999999999996
 40
0.4999999999999996
 40
1.0
 40
1.0
 40
1.0
 40
1.0
 10
166.384061765682
 20
96.77000491286361
 30
0.0
 10
166.432902336017
 20
96.66410526559233
 30
0.0
 10
166.517949251217
 20
96.56217170418482
 30
0.0
 10
166.6876006597805
 20
96.3656654989466
 30
0.0
 10
166.7740626585068
 20
96.27063813734767
 30
0.0
 10
166.9994558634237
 20
95.99335964298868
 30
0.0
 10
167.108734418549
 20
95.81864227017793
 30
0.0
 10
167.108734418549
 20
95.65518209273256
 30
0.0
  0
SPLINE
  5
F2
330
1F
100
AcDbEntity
  8
0
  6
Continuous
 62
     7
370
    15
100
AcDbSpline
210
0.0
220
0.0
230
1.0
 70
     8
 71
     3
 72
    14
 73
    10
 74
     0
 42
0.00000001
 43
0.00000001
 40
0.0
 40
0.0
 40
0.0
 40
0.0
 40
0.1250000000000004
 40
0.1250000000000004
 40
0.2500000000000007
 40
0.2500000000000007
 40
0.4999999999999986
 40
0.4999999999999986
 40
1.0
 40
1.0
 40
1.0
 40
1.0
 10
165.708734418549
 20
97.30659437533765
 30
0.0
 10
165.7655091737695
 20
97.31306282847638
 30
0.0
 10
165.8281922746986
 20
97.30720552526756
 30
0.0
 10
165.9340800492367
 20
97.27730920392976
 30
0.0
 10
165.9779843068379
 20
97.25543426197483
 30
0.0
 10
166.0904175549955
 20
97.18606297530802
 30
0.0
 10
166.1435457588578
 20
97.1335639211067
 30
0.0
 10
166.278533220598
 20
96.97828091278839
 30
0.0
 10
166.3367939320779
 20
96.87249443895406
 30
0.0
 10
166.3840617656963
 20
96.77000491286444
 30
0.0
  0
SPLINE
  5
F3
330
1F
100
AcDbEntity
  8
0
  6
Continuous
 62
     7
370
    15
100
AcDbSpline
210
0.0
220
0.0
230
1.0
 70
     8
 71
     3
 72
    10
 73
     6
 74
     0
 42
0.00000001
 43
0.00000001
 40
0.0
 40
0.0
 40
0.0
 40
0.0
 40
0.5
 40
0.5
 40
1.0
 40
1.0
 40
1.0
 40
1.0
 10
162.936608041834
 20
96.9331830530262
 30
0.0
 10
163.3835489830586
 20
97.00690851270525
 30
0.0
 10
163.8436608716008
 20
97.07323716458545
 30
0.0
 10
164.7705505753454
 20
97.19626663341886
 30
0.0
 10
165.2382543073811
 20
97.25299170386921
 30
0.0
 10
165.708734418549
 20
97.30659437533765
 30
0.0
  0
SPLINE
  5
F4
330
1F
100
AcDbEntity
  8
0
  6
Continuous
 62
     7
370
    15
100
AcDbSpline
210
0.0
220
0.0
230
1.0
 70
     8
 71
     3
 72
    14
 73
    10
 74
     0
 42
0.00000001
 43
0.00000001
 40
0.0
 40
0.0
 40
0.0
 40
0.0
 40
0.500000000000001
 40
0.500000000000001
 40
0.7500000000000017
 40
0.7500000000000017
 40
0.8750000000000009
 40
0.8750000000000009
 40
1.0
 40
1.0
 40
1.0
 40
1.0
 10
158.158734418549
 20
96.75976226799875
 30
0.0
 10
158.966631442647
 20
96.76117450002394
 30
0.0
 10
159.7723956109733
 20
96.76756747774112
 30
0.0
 10
160.9728362819815
 20
96.7966192893759
 30
0.0
 10
161.3716551352751
 20
96.80945222514963
 30
0.0
 10
161.9651834854238
 20
96.8399104067151
 30
0.0
 10
162.1622463838219
 20
96.85192303697703
 30
0.0
 10
162.5531854186712
 20
96.88356450425552
 30
0.0
 10
162.7475604704948
 20
96.90199857692964
 30
0.0
 10
162.936608041834
 20
96.93318305302621
 30
0.0
  0
SPLINE
  5
F5
330
1F
100
AcDbEntity
  8
0
  6
Continuous
 62
     7
370
    15
100
AcDbSpline
210
0.0
220
0.0
230
1.0
 70
     8
 71
     3
 72
     8
 73
     4
 74
     0
 42
0.00000001
 43
0.00000001
 40
0.0000003409637668
 40
0.0000003409637668
 40
0.0000003409637668
 40
0.0000003409637668
 40
0.000017415394438
 40
0.000017415394438
 40
0.000017415394438
 40
0.000017415394438
 10
158.1486894881307
 20
96.76575806579046
 30
0.0
 10
158.1520281388891
 20
96.76375583069307
 30
0.0
 10
158.1553765140687
 20
96.76175723892291
 30
0.0
 10
158.158734418549
 20
96.75976226799874
 30
0.0
  0
SPLINE
  5
F6
330
1F
100
AcDbEntity
  8
0
  6
Continuous
 62
     7
370
    15
100
AcDbSpline
210
0.0
220
0.0
230
1.0
 70
     8
 71
     3
 72
     8
 73
     4
 74
     0
 42
0.00000001
 43
0.00000001
 40
0.0000003292049707
 40
0.0000003292049707
 40
0.0000003292049707
 40
0.0000003292049707
 40
0.0000169050949325
 40
0.0000169050949325
 40
0.0000169050949325
 40
0.0000169050949325
 10
158.1587344185489
 20
138.4994355662847
 30
0.0
 10
158.1553778364122
 20
138.4975235721879
 30
0.0
 10
158.1520294722866
 20
138.4956082819328
 30
0.0
 10
158.1486894881176
 20
138.4936896733174
 30
0.0
  0
SPLINE
  5
F7
330
1F
100
AcDbEntity
  8
0
  6
Continuous
 62
     7
370
    15
100
AcDbSpline
210
0.0
220
0.0
230
1.0
 70
     8
 71
     3
 72
    10
 73
     6
 74
     0
 42
0.00000001
 43
0.00000001
 40
0.0
 40
0.0
 40
0.0
 40
0.0
 40
0.5
 40
0.5
 40
1.0
 40
1.0
 40
1.0
 40
1.0
 10
161.708734418549
 20
138.4525851927174
 30
0.0
 10
161.1211488714584
 20
138.4736507129538
 30
0.0
 10
160.530402477998
 20
138.484409198826
 30
0.0
 10
159.3463833126991
 20
138.4977739793617
 30
0.0
 10
158.7529693244937
 20
138.4999166220263
 30
0.0
 10
158.158734418549
 20
138.4994355662847
 30
0.0
  0
SPLINE
  5
F8
330
1F
100
AcDbEntity
  8
0
  6
Continuous
 62
     7
370
    15
100
AcDbSpline
210
0.0
220
0.0
230
1.0
 70
     8
 71
     3
 72
    18
 73
    14
 74
     0
 42
0.00000001
 43
0.00000001
 40
0.0
 40
0.0
 40
0.0
 40
0.0
 40
0.2499999999999998
 40
0.2499999999999998
 40
0.4999999999999996
 40
0.4999999999999996
 40
0.7499999999999993
 40
0.7499999999999993
 40
0.8749999999999992
 40
0.8749999999999992
 40
0.9374999999999996
 40
0.9374999999999996
 40
1.0
 40
1.0
 40
1.0
 40
1.0
 10
163.108734418549
 20
139.4736054732526
 30
0.0
 10
163.108734418549
 20
139.3903985643954
 30
0.0
 10
163.0728853186107
 20
139.3016619090819
 30
0.0
 10
162.9480135825768
 20
139.1195367185217
 30
0.0
 10
162.8576131649289
 20
139.024406669895
 30
0.0
 10
162.6353705101868
 20
138.8352251607707
 30
0.0
 10
162.505605723741
 20
138.740279992676
 30
0.0
 10
162.2649682664295
 20
138.602001285096
 30
0.0
 10
162.1772009682921
 20
138.5562908517936
 30
0.0
 10
162.0226768810852
 20
138.4984675465722
 30
0.0
 10
161.9660659950305
 20
138.4807527825343
 30
0.0
 10
161.8420219641239
 20
138.4562134793014
 30
0.0
 10
161.7743072891056
 20
138.4502343407631
 30
0.0
 10
161.708734418549
 20
138.4525851927174
 30
0.0
  0
LINE
  5
F9
330
1F
100
AcDbEntity
  8
0
  6
Continuous
 62
     7
370
    15
100
AcDbLine
 10
163.1087344185
 20
139.4736054733
 30
0.0
 11
163.1087344185
 21
140.6575438931
 31
0.0
  0
LINE
  5
FA
330
1F
100
AcDbEntity
  8
0
  6
Continuous
 62
     7
370
    15
100
AcDbLine
 10
186.9087344185
 20
93.4090669392
 30
0.0
 11
186.9087344185
 21
141.8499286626
 31
0.0
  0
SPLINE
  5
FB
330
1F
100
AcDbEntity
  8
0
  6
Continuous
 62
     7
370
    15
100
AcDbSpline
210
0.0
220
0.0
230
1.0
 70
     8
 71
     3
 72
    24
 73
    20
 74
     0
 42
0.00000001
 43
0.00000001
 40
0.0
 40
0.0
 40
0.0
 40
0.0
 40
0.001048976296968
 40
0.0637843125636789
 40
0.1272220590447884
 40
0.1903788924483971
 40
0.2526748653693585
 40
0.314635415442226
 40
0.3770891997149647
 40
0.4393540298503557
 40
0.5008133242537848
 40
0.5621845104596218
 40
0.6248438451115925
 40
0.6874304766625544
 40
0.7496743174679396
 40
0.8119848426976355
 40
0.875096052541314
 40
0.9384412526964336
 40
1.0
 40
1.0
 40
1.0
 40
1.0
 10
175.6776402505247
 20
93.9719893723095
 30
0.0
 10
175.6771937904205
 20
93.97193108649059
 30
0.0
 10
175.6500462267265
 20
93.96838694454812
 30
0.0
 10
175.7456580043403
 20
93.98122068923078
 30
0.0
 10
175.9792182622336
 20
94.01046737443087
 30
0.0
 10
176.3747725695514
 20
94.05708169749373
 30
0.0
 10
176.9018128733877
 20
94.107264839153
 30
0.0
 10
177.545343285378
 20
94.15164130160288
 30
0.0
 10
178.2840171406172
 20
94.17858608254095
 30
0.0
 10
179.0815316460514
 20
94.1820579332479
 30
0.0
 10
179.9081105284982
 20
94.15443068921725
 30
0.0
 10
180.7336335461101
 20
94.09595180024453
 30
0.0
 10
181.5257600941138
 20
94.01050677088321
 30
0.0
 10
182.2583323681132
 20
93.90877253104694
 30
0.0
 10
182.8939726048431
 20
93.80092940907453
 30
0.0
 10
183.4158837118493
 20
93.69929925233582
 30
0.0
 10
183.7975124889651
 20
93.6168140956576
 30
0.0
 10
184.0483269591994
 20
93.56066488930794
 30
0.0
 10
184.0774485151835
 20
93.55381543069419
 30
0.0
 10
184.0918010359997
 20
93.550439683966
 30
0.0
  0
SPLINE
  5
FC
330
1F
100
AcDbEntity
  8
0
  6
Continuous
 62
     7
370
    15
100
AcDbSpline
210
0.0
220
0.0
230
1.0
 70
     8
 71
     3
 72
    24
 73
    20
 74
     0
 42
0.00000001
 43
0.00000001
 40
0.0
 40
0.0
 40
0.0
 40
0.0
 40
0.0614384276250088
 40
0.1250736755369635
 40
0.1884253490728544
 40
0.2508623904037467
 40
0.3129665632511462
 40
0.3753451453465215
 40
0.4377328972327364
 40
0.4990927322917387
 40
0.560580758844976
 40
0.6229469893028906
 40
0.6854686282028752
 40
0.747547781374035
 40
0.8098225060807763
 40
0.8730684085990468
 40
0.9364041844530125
 40
0.9991757196257866
 40
1.0
 40
1.0
 40
1.0
 40
1.0
 10
184.0917462651967
 20
141.708526775347
 30
0.0
 10
184.0771455408931
 20
141.7051587184944
 30
0.0
 10
184.0474220221647
 20
141.6983021750206
 30
0.0
 10
183.7946842065168
 20
141.6419635544947
 30
0.0
 10
183.4116882900676
 20
141.5591064723647
 30
0.0
 10
182.88933270563
 20
141.4571994424135
 30
0.0
 10
182.25454822763
 20
141.3493603033695
 30
0.0
 10
181.5243246234563
 20
141.2478933513944
 30
0.0
 10
180.7338560382225
 20
141.1628336377036
 30
0.0
 10
179.9093725233932
 20
141.1046293438174
 30
0.0
 10
179.0823360645109
 20
141.0770459049909
 30
0.0
 10
178.2840117968581
 20
141.0805388824836
 30
0.0
 10
177.5441878325692
 20
141.1074948023366
 30
0.0
 10
176.899933599594
 20
141.1518487443361
 30
0.0
 10
176.3725263443803
 20
141.202054194094
 30
0.0
 10
175.9778617422294
 20
141.248664049292
 30
0.0
 10
175.7453324630447
 20
141.2778596418397
 30
0.0
 10
175.6499524304919
 20
141.2906377107809
 30
0.0
 10
175.6768860673936
 20
141.287083452273
 30
0.0
 10
175.6772351606179
 20
141.2870373846897
 30
0.0
  0
SPLINE
  5
FD
330
1F
100
AcDbEntity
  8
0
  6
Continuous
 62
     7
370
    15
100
AcDbSpline
210
0.0
220
0.0
230
1.0
 70
     8
 71
     3
 72
    20
 73
    16
 74
     0
 42
0.00000001
 43
0.00000001
 40
0.0
 40
0.0
 40
0.0
 40
0.0
 40
0.1249999999999999
 40
0.1249999999999999
 40
0.2499999999999997
 40
0.2499999999999997
 40
0.3749999999999996
 40
0.3749999999999996
 40
0.4999999999999994
 40
0.4999999999999994
 40
0.6249999999999993
 40
0.6249999999999993
 40
0.7499999999999991
 40
0.7499999999999991
 40
1.0
 40
1.0
 40
1.0
 40
1.0
 10
224.9194189191565
 20
102.4125164123333
 30
0.0
 10
224.956757239633
 20
102.5677682711978
 30
0.0
 10
224.9926799819688
 20
102.736408156643
 30
0.0
 10
225.0545831344853
 20
103.0990376754766
 30
0.0
 10
225.0799702314906
 20
103.2910562515081
 30
0.0
 10
225.1156124396163
 20
103.6760842292931
 30
0.0
 10
225.126309130375
 20
103.8727386419975
 30
0.0
 10
225.1349436915564
 20
104.2564010525611
 30
0.0
 10
225.1331699413787
 20
104.4454806766
 30
0.0
 10
225.1205525749736
 20
104.819478299149
 30
0.0
 10
225.109625436732
 20
105.0048802597086
 30
0.0
 10
225.0819143922395
 20
105.3642275063108
 30
0.0
 10
225.0651047894448
 20
105.5393030492726
 30
0.0
 10
225.009177859248
 20
106.0528679649923
 30
0.0
 10
224.9646084300087
 20
106.3800374726497
 30
0.0
 10
224.9194189191565
 20
106.692313233058
 30
0.0
  0
SPLINE
  5
FE
330
1F
100
AcDbEntity
  8
0
  6
Continuous
 62
     7
370
    15
100
AcDbSpline
210
0.0
220
0.0
230
1.0
 70
     8
 71
     3
 72
    22
 73
    18
 74
     0
 42
0.00000001
 43
0.00000001
 40
0.0
 40
0.0
 40
0.0
 40
0.0
 40
0.1249999999999978
 40
0.1249999999999978
 40
0.2499999999999957
 40
0.2499999999999957
 40
0.3124999999999963
 40
0.3124999999999963
 40
0.3749999999999971
 40
0.3749999999999971
 40
0.4999999999999972
 40
0.4999999999999972
 40
0.6249999999999973
 40
0.6249999999999973
 40
0.7499999999999976
 40
0.7499999999999976
 40
1.0
 40
1.0
 40
1.0
 40
1.0
 10
158.1486894881181
 20
138.4936896733184
 30
0.0
 10
158.0880697672417
 20
138.4588674966711
 30
0.0
 10
158.0258804272752
 20
138.4203636929704
 30
0.0
 10
157.8921509610457
 20
138.3344292051717
 30
0.0
 10
157.8198964193334
 20
138.2861226039695
 30
0.0
 10
157.6979984784977
 20
138.2097708857997
 30
0.0
 10
157.6541919253456
 20
138.1833564251926
 30
0.0
 10
157.5677967561708
 20
138.134847500662
 30
0.0
 10
157.5254567798791
 20
138.1129133779357
 30
0.0
 10
157.41148603351
 20
138.0565435879911
 30
0.0
 10
157.3530673075198
 20
138.0301867634574
 30
0.0
 10
157.2531597363323
 20
137.9780469389532
 30
0.0
 10
157.211745745537
 20
137.9528863492407
 30
0.0
 10
157.1397207776597
 20
137.8977795059136
 30
0.0
 10
157.1093722363468
 20
137.8679231024187
 30
0.0
 10
157.0358805063147
 20
137.770516400426
 30
0.0
 10
157.008734418549
 20
137.6941847166157
 30
0.0
 10
157.008734418549
 20
137.6055583055455
 30
0.0
  0
SPLINE
  5
FF
330
1F
100
AcDbEntity
  8
0
  6
Continuous
 62
     7
370
    15
100
AcDbSpline
210
0.0
220
0.0
230
1.0
 70
     8
 71
     3
 72
    22
 73
    18
 74
     0
 42
0.00000001
 43
0.00000001
 40
0.0
 40
0.0
 40
0.0
 40
0.0
 40
0.2500000000000001
 40
0.2500000000000001
 40
0.3749999999999991
 40
0.3749999999999991
 40
0.4999999999999981
 40
0.4999999999999981
 40
0.6249999999999971
 40
0.6249999999999971
 40
0.6874999999999967
 40
0.6874999999999967
 40
0.7499999999999998
 40
0.7499999999999998
 40
0.8749999999999999
 40
0.8749999999999999
 40
1.0
 40
1.0
 40
1.0
 40
1.0
 10
157.0087344185488
 20
97.64067536201904
 30
0.0
 10
157.0087344185488
 20
97.5526114192124
 30
0.0
 10
157.0369849994961
 20
97.47593012390443
 30
0.0
 10
157.111980800025
 20
97.38193613688534
 30
0.0
 10
157.1427174046893
 20
97.35368948384556
 30
0.0
 10
157.2153740629082
 20
97.3024103078873
 30
0.0
 10
157.2572235207073
 20
97.27940891010239
 30
0.0
 10
157.3574272546585
 20
97.23251071070003
 30
0.0
 10
157.4152072183573
 20
97.20966888944638
 30
0.0
 10
157.5299324862731
 20
97.1563346364497
 30
0.0
 10
157.5736081706539
 20
97.13445753926608
 30
0.0
 10
157.6620068848692
 20
97.08465399230029
 30
0.0
 10
157.7061447881583
 20
97.05718006649971
 30
0.0
 10
157.8274085724746
 20
96.97819174960465
 30
0.0
 10
157.8965417208423
 20
96.92950709131732
 30
0.0
 10
158.0272469542253
 20
96.84153155790509
 30
0.0
 10
158.0888574567494
 20
96.80164016363517
 30
0.0
 10
158.1486894881308
 20
96.76575806579041
 30
0.0
  0
LINE
  5
100
330
1F
100
AcDbEntity
  8
0
  6
Continuous
 62
     7
370
    15
100
AcDbLine
 10
157.0087344185
 20
97.640675362
 30
0.0
 11
157.0087344185
 21
137.6055583055
 31
0.0
  0
SPLINE
  5
101
330
1F
100
AcDbEntity
  8
0
  6
Continuous
 62
     7
370
    15
100
AcDbSpline
210
0.0
220
0.0
230
1.0
 70
     8
 71
     3
 72
    10
 73
     6
 74
     0
 42
0.00000001
 43
0.00000001
 40
0.0
 40
0.0
 40
0.0
 40
0.0
 40
0.5
 40
0.5
 40
1.0
 40
1.0
 40
1.0
 40
1.0
 10
214.858734418549
 20
147.4759381246535
 30
0.0
 10
214.858734418549
 20
147.6363433910043
 30
0.0
 10
214.7964965874421
 20
147.7954052039929
 30
0.0
 10
214.5773616636995
 20
148.0263176696232
 30
0.0
 10
214.4197729687077
 20
148.0966932740539
 30
0.0
 10
214.258734418549
 20
148.0966932740539
 30
0.0
  0
SPLINE
  5
102
330
1F
100
AcDbEntity
  8
0
  6
Continuous
 62
     7
370
    15
100
AcDbSpline
210
0.0
220
0.0
230
1.0
 70
     8
 71
     3
 72
    12
 73
     8
 74
     0
 42
0.00000001
 43
0.00000001
 40
0.0
 40
0.0
 40
0.0
 40
0.0
 40
0.250000000000002
 40
0.250000000000002
 40
0.500000000000004
 40
0.500000000000004
 40
1.0
 40
1.0
 40
1.0
 40
1.0
 10
214.258734418549
 20
142.088187463257
 30
0.0
 10
214.3499341403746
 20
142.088187463257
 30
0.0
 10
214.4405291495107
 20
142.0599677646692
 30
0.0
 10
214.5939418759573
 20
141.9655247574211
 30
0.0
 10
214.659150743281
 20
141.8992377807157
 30
0.0
 10
214.8119352726209
 20
141.6736129574274
 30
0.0
 10
214.858734418549
 20
141.4911866943949
 30
0.0
 10
214.858734418549
 20
141.310450062148
 30
0.0
  0
LINE
  5
103
330
1F
100
AcDbEntity
  8
0
  6
Continuous
 62
     7
370
    15
100
AcDbLine
 10
214.8587344185
 20
141.3104500621
 30
0.0
 11
214.8587344185
 21
147.4759381247
 31
0.0
  0
SPLINE
  5
104
330
1F
100
AcDbEntity
  8
0
  6
Continuous
 62
     7
370
    15
100
AcDbSpline
210
0.0
220
0.0
230
1.0
 70
     8
 71
     3
 72
     8
 73
     4
 74
     0
 42
0.00000001
 43
0.00000001
 40
0.0
 40
0.0
 40
0.0
 40
0.0
 40
1.0
 40
1.0
 40
1.0
 40
1.0
 10
210.300667250038
 20
148.0966932740539
 30
0.0
 10
209.8055272206737
 20
147.2100136258736
 30
0.0
 10
209.3114445153947
 20
146.3227509901876
 30
0.0
 10
208.818734418549
 20
145.4347319920612
 30
0.0
  0
LINE
  5
105
330
1F
100
AcDbEntity
  8
0
  6
Continuous
 62
     7
370
    15
100
AcDbLine
 10
210.30066725
 20
142.0881874633
 30
0.0
 11
210.30066725
 21
148.0966932741
 31
0.0
  0
SPLINE
  5
106
330
1F
100
AcDbEntity
  8
0
  6
Continuous
 62
     7
370
    15
100
AcDbSpline
210
0.0
220
0.0
230
1.0
 70
     8
 71
     3
 72
     8
 73
     4
 74
     0
 42
0.00000001
 43
0.00000001
 40
0.0
 40
0.0
 40
0.0
 40
0.0
 40
1.0
 40
1.0
 40
1.0
 40
1.0
 10
208.818734418549
 20
138.6796414684729
 30
0.0
 10
209.2980125691388
 20
139.8206526983255
 30
0.0
 10
209.7935804082787
 20
140.9570371090934
 30
0.0
 10
210.300667250038
 20
142.088187463257
 30
0.0
  0
LINE
  5
107
330
1F
100
AcDbEntity
  8
0
  6
Continuous
 62
     7
370
    15
100
AcDbLine
 10
208.8187344185
 20
138.6796414685
 30
0.0
 11
208.8187344185
 21
145.4347319921
 31
0.0
  0
LINE
  5
108
330
1F
100
AcDbEntity
  8
0
  6
Continuous
 62
     7
370
    15
100
AcDbLine
 10
208.8187344186
 20
137.7653644324
 30
0.0
 11
208.8187344185
 21
138.6796414685
 31
0.0
  0
LINE
  5
109
330
1F
100
AcDbEntity
  8
0
  6
Continuous
 62
     7
370
    15
100
AcDbLine
 10
210.30066725
 20
142.0881874633
 30
0.0
 11
214.2587344185
 21
142.0881874633
 31
0.0
  0
LINE
  5
10A
330
1F
100
AcDbEntity
  8
0
  6
Continuous
 62
     7
370
    15
100
AcDbLine
 10
214.8587344185
 20
141.3104500621
 30
0.0
 11
214.8587344185
 21
137.4794978009
 31
0.0
  0
SPLINE
  5
10B
330
1F
100
AcDbEntity
  8
0
  6
Continuous
 62
     7
370
    15
100
AcDbSpline
210
0.0
220
0.0
230
1.0
 70
     8
 71
     3
 72
     8
 73
     4
 74
     0
 42
0.00000001
 43
0.00000001
 40
0.0
 40
0.0
 40
0.0
 40
0.0
 40
1.0
 40
1.0
 40
1.0
 40
1.0
 10
203.5168015870599
 20
142.088187463257
 30
0.0
 10
204.0238884288192
 20
140.9570371090934
 30
0.0
 10
204.5194562679591
 20
139.8206526983255
 30
0.0
 10
204.998734418549
 20
138.6796414684729
 30
0.0
  0
LINE
  5
10C
330
1F
100
AcDbEntity
  8
0
  6
Continuous
 62
     7
370
    15
100
AcDbLine
 10
204.9987344185
 20
138.6796414685
 30
0.0
 11
204.9987344185
 21
137.7653644324
 31
0.0
  0
SPLINE
  5
10D
330
1F
100
AcDbEntity
  8
0
  6
Continuous
 62
     7
370
    15
100
AcDbSpline
210
0.0
220
0.0
230
1.0
 70
     8
 71
     3
 72
     8
 73
     4
 74
     0
 42
0.00000001
 43
0.00000001
 40
0.0
 40
0.0
 40
0.0
 40
0.0
 40
1.0
 40
1.0
 40
1.0
 40
1.0
 10
204.998734418549
 20
145.4347319920612
 30
0.0
 10
204.5060243217032
 20
146.3227509901876
 30
0.0
 10
204.0119416164243
 20
147.2100136258736
 30
0.0
 10
203.5168015870599
 20
148.0966932740539
 30
0.0
  0
LINE
  5
10E
330
1F
100
AcDbEntity
  8
0
  6
Continuous
 62
     7
370
    15
100
AcDbLine
 10
204.9987344185
 20
138.6796414685
 30
0.0
 11
204.9987344185
 21
145.4347319921
 31
0.0
  0
LINE
  5
10F
330
1F
100
AcDbEntity
  8
0
  6
Continuous
 62
     7
370
    15
100
AcDbLine
 10
214.2587344185
 20
148.0966932741
 30
0.0
 11
210.30066725
 21
148.0966932741
 31
0.0
  0
SPLINE
  5
110
330
1F
100
AcDbEntity
  8
0
  6
Continuous
 62
     7
370
    15
100
AcDbSpline
210
0.0
220
0.0
230
1.0
 70
     8
 71
     3
 72
     8
 73
     4
 74
     0
 42
0.00000001
 43
0.00000001
 40
0.0
 40
0.0
 40
0.0
 40
0.0
 40
1.0
 40
1.0
 40
1.0
 40
1.0
 10
231.1073332568591
 20
92.14777619303905
 30
0.0
 10
231.9195715146896
 20
88.72846083339998
 30
0.0
 10
232.7716574563744
 20
85.32036025674631
 30
0.0
 10
233.6389635179014
 20
81.91654325004036
 30
0.0
  0
SPLINE
  5
111
330
1F
100
AcDbEntity
  8
0
  6
Continuous
 62
     7
370
    15
100
AcDbSpline
210
0.0
220
0.0
230
1.0
 70
     8
 71
     3
 72
    12
 73
     8
 74
     0
 42
0.00000001
 43
0.00000001
 40
0.0
 40
0.0
 40
0.0
 40
0.0
 40
0.2499999999999977
 40
0.2499999999999977
 40
0.4999999999999953
 40
0.4999999999999953
 40
1.0
 40
1.0
 40
1.0
 40
1.0
 10
231.1073332568591
 20
92.14777619303905
 30
0.0
 10
231.0798792275928
 20
92.26335063569688
 30
0.0
 10
231.0374046357551
 20
92.3716587568768
 30
0.0
 10
230.9237260652218
 20
92.57437692053416
 30
0.0
 10
230.8512883983929
 20
92.6692747731851
 30
0.0
 10
230.6007246817703
 20
92.91052962363942
 30
0.0
 10
230.3805768469898
 20
93.02180507878154
 30
0.0
 10
230.14140743057
 20
93.0374481823888
 30
0.0
  0
SPLINE
  5
112
330
1F
100
AcDbEntity
  8
0
  6
Continuous
 62
     7
370
    15
100
AcDbSpline
210
0.0
220
0.0
230
1.0
 70
     8
 71
     3
 72
    10
 73
     6
 74
     0
 42
0.00000001
 43
0.00000001
 40
0.0
 40
0.0
 40
0.0
 40
0.0
 40
0.5
 40
0.5
 40
1.0
 40
1.0
 40
1.0
 40
1.0
 10
230.14140743057
 20
137.8518660927539
 30
0.0
 10
230.3795166290685
 20
137.8820211156882
 30
0.0
 10
230.5985048020558
 20
138.0048826159306
 30
0.0
 10
230.9357984335354
 20
138.3498136546396
 30
0.0
 10
231.0526031814275
 20
138.5669380083324
 30
0.0
 10
231.1073332568591
 20
138.8006891752184
 30
0.0
  0
SPLINE
  5
113
330
1F
100
AcDbEntity
  8
0
  6
Continuous
 62
     7
370
    15
100
AcDbSpline
210
0.0
220
0.0
230
1.0
 70
     8
 71
     3
 72
     8
 73
     4
 74
     0
 42
0.00000001
 43
0.00000001
 40
0.0
 40
0.0
 40
0.0
 40
0.0
 40
1.0
 40
1.0
 40
1.0
 40
1.0
 10
231.1766836109801
 20
139.0964248866834
 30
0.0
 10
231.1535331282356
 20
138.9978537366229
 30
0.0
 10
231.1304160191834
 20
138.8992752375565
 30
0.0
 10
231.1073332568591
 20
138.8006891752184
 30
0.0
  0
ELLIPSE
  5
114
330
1F
100
AcDbEntity
  8
0
  6
Continuous
 62
     7
370
    15
100
AcDbEllipse
 10
301.4974521592
 20
117.6294978009
 30
0.0
 11
153.1223127030553
 21
4.834054290754864
 31
0.0
210
0.0
220
0.0
230
1.0
 40
0.1734804855
 41
1.999957680977989
 42
2.042457775235522
  0
LINE
  5
115
330
1F
100
AcDbEntity
  8
0
  6
Continuous
 62
     7
370
    15
100
AcDbLine
 10
253.7867404691
 20
87.1070403914
 30
0.0
 11
237.019414017
 21
139.7728094139
 31
0.0
  0
LINE
  5
116
330
1F
100
AcDbEntity
  8
0
  6
Continuous
 62
     7
370
    15
100
AcDbLine
 10
239.7235541601
 20
91.1105472854
 30
0.0
 11
253.7867404691
 21
87.1070403914
 31
0.0
  0
ARC
  5
117
330
1F
100
AcDbEntity
  8
0
  6
Continuous
 62
     7
370
    15
100
AcDbCircle
 10
239.1332668143
 20
89.1092587403
 30
0.0
 40
2.0865270167008
100
AcDbArc
 50
73.5663842595
 51
251.7481204825
  0
LINE
  5
118
330
1F
100
AcDbEntity
  8
0
  6
Continuous
 62
     7
370
    15
100
AcDbLine
 10
241.4314275193
 20
86.287431648
 30
0.0
 11
238.4797770687
 21
87.1277072916
 31
0.0
  0
LINE
  5
119
330
1F
100
AcDbEntity
  8
0
  6
Continuous
 62
     7
370
    15
100
AcDbLine
 10
244.0015328498
 20
78.2147926328
 30
0.0
 11
241.4314275193
 21
86.287431648
 31
0.0
  0
SPLINE
  5
11A
330
1F
100
AcDbEntity
  8
0
  6
Continuous
 62
     7
370
    15
100
AcDbSpline
210
0.0
220
0.0
230
1.0
 70
     8
 71
     3
 72
     8
 73
     4
 74
     0
 42
0.00000001
 43
0.00000001
 40
0.0
 40
0.0
 40
0.0
 40
0.0
 40
1.0
 40
1.0
 40
1.0
 40
1.0
 10
244.0015328497953
 20
78.21479263277018
 30
0.0
 10
240.5355867168848
 20
79.41562080300432
 30
0.0
 10
237.079032255767
 20
80.6462385119277
 30
0.0
 10
233.6389635179014
 20
81.91654325004036
 30
0.0
  0
ELLIPSE
  5
11B
330
1F
100
AcDbEntity
  8
0
  6
Continuous
 62
     7
370
    15
100
AcDbEllipse
 10
242.8553750869
 20
117.6294978009
 30
0.0
 11
-9.450908103285885
 21
26.9816552393449
 31
0.0
210
0.0
220
0.0
230
1.0
 40
0.1052944749
 41
5.637149365881388
 42
6.246320350037565
  0
LINE
  5
11C
330
1F
100
AcDbEntity
  8
0
  6
Continuous
 62
     7
370
    15
100
AcDbLine
 10
231.176683611
 20
144.6294978009
 30
0.0
 11
231.176683611
 21
139.0964248867
 31
0.0
  0
LINE
  5
11D
330
1F
100
AcDbEntity
  8
0
  6
Continuous
 62
     7
370
    15
100
AcDbLine
 10
233.6389635179
 20
81.4401440858
 30
0.0
 11
233.6389635179
 21
81.91654325
 31
0.0
  0
LINE
  5
11E
330
1F
100
AcDbEntity
  8
0
  6
Continuous
 62
     7
370
    15
100
AcDbLine
 10
237.0742738416
 20
88.6487558399
 30
0.0
 11
239.8303913212
 21
87.8641445087
 31
0.0
  0
LINE
  5
11F
330
1F
100
AcDbEntity
  8
0
  6
Continuous
 62
     7
370
    15
100
AcDbLine
 10
239.8303913212
 20
87.8641445087
 30
0.0
 11
241.4314275193
 21
86.287431648
 31
0.0
  0
ELLIPSE
  5
120
330
1F
100
AcDbEntity
  8
0
  6
Continuous
 62
     7
370
    15
100
AcDbEllipse
 10
231.5133722049
 20
113.6396043777
 30
0.0
 11
-12.43317097339224
 21
35.44870232600204
 31
0.0
210
0.0
220
0.0
230
1.0
 40
0.1046716309
 41
3.061943228106748
 42
3.156800861013993
  0
ARC
  5
121
330
1F
100
AcDbEntity
  8
0
  6
Continuous
 62
     7
370
    15
100
AcDbCircle
 10
247.7918551531
 20
83.3674170934
 30
0.0
 40
3.170156588082169
100
AcDbArc
 50
267.258536247
 51
281.6649967769
  0
LINE
  5
122
330
1F
100
AcDbEntity
  8
0
  6
HIDDEN
 62
     7
370
     0
100
AcDbLine
 10
193.8587344185
 20
86.1294978009
 30
0.0
 11
193.8587344185
 21
86.145374818
 31
0.0
  0
SPLINE
  5
123
330
1F
100
AcDbEntity
  8
0
  6
HIDDEN
 62
     7
370
     0
100
AcDbSpline
210
0.0
220
0.0
230
1.0
 70
     8
 71
     3
 72
    30
 73
    26
 74
     0
 42
0.00000001
 43
0.00000001
 40
0.0
 40
0.0
 40
0.0
 40
0.0
 40
0.1250000000000004
 40
0.1250000000000004
 40
0.1875000000000005
 40
0.1875000000000005
 40
0.2500000000000007
 40
0.2500000000000007
 40
0.3750000000000007
 40
0.3750000000000007
 40
0.4375000000000006
 40
0.4375000000000006
 40
0.5000000000000004
 40
0.5000000000000004
 40
0.6250000000000002
 40
0.6250000000000002
 40
0.6875000000000002
 40
0.6875000000000002
 40
0.7500000000000002
 40
0.7500000000000002
 40
0.8125000000000002
 40
0.8125000000000002
 40
0.8750000000000001
 40
0.8750000000000001
 40
1.0
 40
1.0
 40
1.0
 40
1.0
 10
193.858734418549
 20
86.1453748180273
 30
0.0
 10
193.858734418549
 20
86.16225373603592
 30
0.0
 10
193.9111519845274
 20
86.1922713008606
 30
0.0
 10
194.0645314644297
 20
86.25508169013371
 30
0.0
 10
194.1282125850974
 20
86.2789855973606
 30
0.0
 10
194.2811674525491
 20
86.332420889803
 30
0.0
 10
194.3707397513184
 20
86.36202775797058
 30
0.0
 10
194.6719637841715
 20
86.45647745668498
 30
0.0
 10
194.9172787802557
 20
86.52750485051422
 30
0.0
 10
195.3513757613259
 20
86.64151913721999
 30
0.0
 10
195.5080454504295
 20
86.68097438836055
 30
0.0
 10
195.8400386142719
 20
86.76049583113121
 30
0.0
 10
196.0147441432644
 20
86.800431973632
 30
0.0
 10
196.564413825856
 20
86.91936837646016
 30
0.0
 10
196.9646647885673
 20
86.99753314034402
 30
0.0
 10
197.6182516552047
 20
87.1072425806129
 30
0.0
 10
197.8439277748818
 20
87.14232341732131
 30
0.0
 10
198.3036395960131
 20
87.20756369670092
 30
0.0
 10
198.5386929300562
 20
87.23789851274566
 30
0.0
 10
199.0192002123553
 20
87.29323689196751
 30
0.0
 10
199.2646537402694
 20
87.3182415685276
 30
0.0
 10
199.7662691650767
 20
87.36212137741828
 30
0.0
 10
200.0237615476773
 20
87.38106506218058
 30
0.0
 10
200.8018380641134
 20
87.42678478945076
 30
0.0
 10
201.3270003413583
 20
87.44258010464249
 30
0.0
 10
201.8587344185489
 20
87.44258010464249
 30
0.0
  0
LINE
  5
124
330
1F
100
AcDbEntity
  8
0
  6
HIDDEN
 62
     7
370
     0
100
AcDbLine
 10
201.8587344185
 20
87.4425801046
 30
0.0
 11
203.5168015871
 21
87.4425801046
 31
0.0
  0
LINE
  5
125
330
1F
100
AcDbEntity
  8
0
  6
HIDDEN
 62
     7
370
     0
100
AcDbLine
 10
203.5168015871
 20
148.0966932741
 30
0.0
 11
203.5168015871
 21
87.4425801046
 31
0.0
  0
LINE
  5
126
330
1F
100
AcDbEntity
  8
0
  6
HIDDEN
 62
     7
370
     0
100
AcDbLine
 10
201.8587344185
 20
148.0966932741
 30
0.0
 11
203.5168015871
 21
148.0966932741
 31
0.0
  0
SPLINE
  5
127
330
1F
100
AcDbEntity
  8
0
  6
HIDDEN
 62
     7
370
     0
100
AcDbSpline
210
0.0
220
0.0
230
1.0
 70
     8
 71
     3
 72
    24
 73
    20
 74
     0
 42
0.00000001
 43
0.00000001
 40
0.0
 40
0.0
 40
0.0
 40
0.0
 40
0.0096782392558605
 40
0.0638588447595619
 40
0.1665790800528675
 40
0.2187074878800871
 40
0.2715780124103797
 40
0.3753009309578745
 40
0.4279095660942194
 40
0.4812402087660093
 40
0.5342053343802428
 40
0.5875322920461713
 40
0.6420047188767984
 40
0.6968768999773413
 40
0.7500518418412725
 40
0.8036099529238495
 40
0.8583965562204062
 40
0.9136164911922341
 40
1.0
 40
1.0
 40
1.0
 40
1.0
 10
193.862938615922
 20
149.12843104909
 30
0.0
 10
193.8616197555772
 20
149.1287656423157
 30
0.0
 10
193.8529176667168
 20
149.1309733514142
 30
0.0
 10
193.907788770713
 20
149.1170428782646
 30
0.0
 10
194.059895273163
 20
149.078670693977
 30
0.0
 10
194.3218887706967
 20
149.0148161963784
 30
0.0
 10
194.6510512980388
 20
148.9368407066756
 30
0.0
 10
195.0796425840622
 20
148.8401518344968
 30
0.0
 10
195.5966702257798
 20
148.7326943695088
 30
0.0
 10
196.0313868347322
 20
148.6478950407176
 30
0.0
 10
196.5082132181842
 20
148.5616633131901
 30
0.0
 10
197.0258442723594
 20
148.4760968021934
 30
0.0
 10
197.5845872216967
 20
148.3932514169758
 30
0.0
 10
198.1744834929687
 20
148.3166946366893
 30
0.0
 10
198.7881488323585
 20
148.2489808020151
 30
0.0
 10
199.4241273629647
 20
148.1914637996465
 30
0.0
 10
200.0869108453938
 20
148.1459109474095
 30
0.0
 10
200.8993380469803
 20
148.1063763094371
 30
0.0
 10
201.4952222790471
 20
148.1003621444116
 30
0.0
 10
201.8587344185489
 20
148.0966932740538
 30
0.0
  0
SPLINE
  5
128
330
1F
100
AcDbEntity
  8
0
  6
HIDDEN
 62
     7
370
     0
100
AcDbSpline
210
0.0
220
0.0
230
1.0
 70
     8
 71
     3
 72
    76
 73
    72
 74
     0
 42
0.00000001
 43
0.00000001
 40
-0.03125
 40
-0.03125
 40
0.0
 40
0.0
 40
0.03125
 40
0.03125
 40
0.046875
 40
0.046875
 40
0.0625
 40
0.0625
 40
0.09375
 40
0.09375
 40
0.125
 40
0.125
 40
0.1562499999999999
 40
0.1562499999999999
 40
0.1875
 40
0.1875
 40
0.21875
 40
0.21875
 40
0.25
 40
0.25
 40
0.28125
 40
0.28125
 40
0.3125
 40
0.3125
 40
0.3281250000000001
 40
0.3281250000000001
 40
0.3437500000000001
 40
0.3437500000000001
 40
0.3750000000000001
 40
0.3750000000000001
 40
0.4062500000000001
 40
0.4062500000000001
 40
0.4375000000000001
 40
0.4375000000000001
 40
0.4687500000000001
 40
0.4687500000000001
 40
0.5000000000000001
 40
0.5000000000000001
 40
0.5312500000000001
 40
0.5312500000000001
 40
0.5625000000000001
 40
0.5625000000000001
 40
0.5937500000000001
 40
0.5937500000000001
 40
0.6250000000000001
 40
0.6250000000000001
 40
0.6562500000000002
 40
0.6562500000000002
 40
0.6875000000000002
 40
0.6875000000000002
 40
0.7031250000000001
 40
0.7031250000000001
 40
0.71875
 40
0.71875
 40
0.7499999999999999
 40
0.7499999999999999
 40
0.7812499999999999
 40
0.7812499999999999
 40
0.8124999999999999
 40
0.8124999999999999
 40
0.8437499999999999
 40
0.8437499999999999
 40
0.8749999999999999
 40
0.8749999999999999
 40
0.90625
 40
0.90625
 40
0.9375
 40
0.9375
 40
0.96875
 40
0.96875
 40
1.0
 40
1.0
 40
1.03125
 40
1.03125
 10
190.908734418549
 20
117.9603817966837
 30
0.0
 10
190.908734418549
 20
117.2986138050956
 30
0.0
 10
190.9412548963334
 20
116.9733626369997
 30
0.0
 10
191.0367481406154
 20
116.4935659161106
 30
0.0
 10
191.0764229760265
 20
116.334990232317
 30
0.0
 10
191.1718095893622
 20
116.0206078465239
 30
0.0
 10
191.2277538307728
 20
115.8644882229398
 30
0.0
 10
191.4161168542225
 20
115.4105476630378
 30
0.0
 10
191.5697291306409
 20
115.1235674170308
 30
0.0
 10
191.932556924425
 20
114.5804542602915
 30
0.0
 10
192.1433920260075
 20
114.3237149687475
 30
0.0
 10
192.6038915960249
 20
113.8633303345166
 30
0.0
 10
192.8552545369427
 20
113.6565535177627
 30
0.0
 10
193.4016012312962
 20
113.2910293100993
 30
0.0
 10
193.6918158710141
 20
113.1360297513845
 30
0.0
 10
194.2932026873158
 20
112.8864987302903
 30
0.0
 10
194.6088323804062
 20
112.7902204566016
 30
0.0
 10
195.2544727816858
 20
112.6615714493586
 30
0.0
 10
195.5792285374991
 20
112.6296851902421
 30
0.0
 10
196.2325285678905
 20
112.6293120427313
 30
0.0
 10
196.5644009087212
 20
112.6618915289773
 30
0.0
 10
197.2060521423248
 20
112.7896654336837
 30
0.0
 10
197.5179770592579
 20
112.8841978779808
 30
0.0
 10
197.9724666597749
 20
113.0723174725195
 30
0.0
 10
198.1223299676088
 20
113.1432004537403
 30
0.0
 10
198.4114152015315
 20
113.2978170600747
 30
0.0
 10
198.5512761158395
 20
113.3817396588126
 30
0.0
 10
198.9571525595437
 20
113.6529351822883
 30
0.0
 10
199.2101907060333
 20
113.8600351877296
 30
0.0
 10
199.6760902621967
 20
114.3256376407868
 30
0.0
 10
199.8825963366925
 20
114.5775564931741
 30
0.0
 10
200.2447019000922
 20
115.118460109175
 30
0.0
 10
200.4015610139074
 20
115.4110029519264
 30
0.0
 10
200.65251113077
 20
116.0158706086839
 30
0.0
 10
200.7473222301009
 20
116.3275174401306
 30
0.0
 10
200.8757440928941
 20
116.9692707453522
 30
0.0
 10
200.9086073793853
 20
117.3009985642315
 30
0.0
 10
200.9088607054938
 20
117.9541183294924
 30
0.0
 10
200.8773047049245
 20
118.2790515358355
 30
0.0
 10
200.7490634835002
 20
118.9255785422885
 30
0.0
 10
200.6532574348418
 20
119.2405864961495
 30
0.0
 10
200.4041239237476
 20
119.8425451642951
 30
0.0
 10
200.2486638020529
 20
120.1340213345706
 30
0.0
 10
199.8842095476932
 20
120.6796162710673
 30
0.0
 10
199.6777766402574
 20
120.9310933860725
 30
0.0
 10
199.2173075577395
 20
121.3924164101272
 30
0.0
 10
198.9605105496836
 20
121.6035397110736
 30
0.0
 10
198.418465335849
 20
121.9662704927896
 30
0.0
 10
198.1316957559136
 20
122.1201593961752
 30
0.0
 10
197.6773885800279
 20
122.3091091228672
 30
0.0
 10
197.5212482792544
 20
122.365181918887
 30
0.0
 10
197.2074023179083
 20
122.4606846844197
 30
0.0
 10
197.0490155302145
 20
122.5004653274472
 30
0.0
 10
196.5695392902712
 20
122.5963478645725
 30
0.0
 10
196.2432993458443
 20
122.629223312572
 30
0.0
 10
195.5824247485664
 20
122.6297688817431
 30
0.0
 10
195.2572884012214
 20
122.5976023631296
 30
0.0
 10
194.617205900735
 20
122.4708198251424
 30
0.0
 10
194.2988849766672
 20
122.3745520713511
 30
0.0
 10
193.693968697828
 20
122.124157749926
 30
0.0
 10
193.4068197841765
 20
121.9708435882044
 30
0.0
 10
192.8628682305035
 20
121.6081356641846
 30
0.0
 10
192.6062222807769
 20
121.3976965914508
 30
0.0
 10
192.145631727364
 20
120.9378156031744
 30
0.0
 10
191.9384828413732
 20
120.6865338034816
 30
0.0
 10
191.5719515979598
 20
120.1396136297416
 30
0.0
 10
191.4172674104553
 20
119.8504734781254
 30
0.0
 10
191.1671677571171
 20
119.2492368042061
 30
0.0
 10
191.070480982624
 20
118.9332611105653
 30
0.0
 10
190.9412594076678
 20
118.2872873524687
 30
0.0
 10
190.908734418549
 20
117.9603817966837
 30
0.0
 10
190.908734418549
 20
117.2986138050956
 30
0.0
  0
LINE
  5
129
330
1F
100
AcDbEntity
  8
0
  6
HIDDEN
 62
     7
370
     0
100
AcDbLine
 10
188.9087344185
 20
148.829497799
 30
0.0
 11
188.9087344185
 21
86.4294978009
 31
0.0
  0
SPLINE
  5
12A
330
1F
100
AcDbEntity
  8
0
  6
HIDDEN
 62
     7
370
     0
100
AcDbSpline
210
0.0
220
0.0
230
1.0
 70
     8
 71
     3
 72
    10
 73
     6
 74
     0
 42
0.00000001
 43
0.00000001
 40
0.0
 40
0.0
 40
0.0
 40
0.0
 40
0.5
 40
0.5
 40
1.0
 40
1.0
 40
1.0
 40
1.0
 10
208.818734418549
 20
90.8251021725603
 30
0.0
 10
208.818734418549
 20
90.89533853293108
 30
0.0
 10
208.8104518064585
 20
90.96533263442856
 30
0.0
 10
208.7773518633999
 20
91.10229189898749
 30
0.0
 10
208.7530144714414
 20
91.16759980824276
 30
0.0
 10
208.7210596162167
 20
91.22949780088963
 30
0.0
  0
LINE
  5
12B
330
1F
100
AcDbEntity
  8
0
  6
HIDDEN
 62
     7
370
     0
100
AcDbLine
 10
208.8187344186
 20
137.7653644324
 30
0.0
 11
208.8187344185
 21
144.7491516519
 31
0.0
  0
SPLINE
  5
12C
330
1F
100
AcDbEntity
  8
0
  6
HIDDEN
 62
     7
370
     0
100
AcDbSpline
210
0.0
220
0.0
230
1.0
 70
    24
 71
     3
 72
    10
 73
     6
 74
     0
 42
0.00000001
 43
0.00000001
 40
0.0
 40
0.0
 40
0.0
 40
0.0
 40
0.5
 40
0.5
 40
1.0
 40
1.0
 40
1.0
 40
1.0
 10
208.7925867953888
 20
137.4794978008896
 30
0.0
 10
208.8012645702965
 20
137.4794978008896
 30
0.0
 10
208.8078175943034
 20
137.4794978008896
 30
0.0
 10
208.8165522038004
 20
137.4794978008896
 30
0.0
 10
208.818734418549
 20
137.4794978008896
 30
0.0
 10
208.818734418549
 20
137.4794978008896
 30
0.0
  0
LINE
  5
12D
330
1F
100
AcDbEntity
  8
0
  6
HIDDEN
 62
     7
370
     0
100
AcDbLine
 10
208.8187344185
 20
90.8251021726
 30
0.0
 11
208.8187344185
 21
137.4794978009
 31
0.0
  0
SPLINE
  5
12E
330
1F
100
AcDbEntity
  8
0
  6
HIDDEN
 62
     7
370
     0
100
AcDbSpline
210
0.0
220
0.0
230
1.0
 70
     8
 71
     3
 72
    10
 73
     6
 74
     0
 42
0.00000001
 43
0.00000001
 40
0.0
 40
0.0
 40
0.0
 40
0.0
 40
0.5
 40
0.5
 40
1.0
 40
1.0
 40
1.0
 40
1.0
 10
205.0964092208813
 20
91.22949780088966
 30
0.0
 10
205.0642540332593
 20
91.16721175537357
 30
0.0
 10
205.039597802065
 20
91.10068133050436
 30
0.0
 10
205.0067850451396
 20
90.96382270014193
 30
0.0
 10
204.998734418549
 20
90.89476510496361
 30
0.0
 10
204.998734418549
 20
90.8251021725603
 30
0.0
  0
SPLINE
  5
12F
330
1F
100
AcDbEntity
  8
0
  6
HIDDEN
 62
     7
370
     0
100
AcDbSpline
210
0.0
220
0.0
230
1.0
 70
    24
 71
     3
 72
    10
 73
     6
 74
     0
 42
0.00000001
 43
0.00000001
 40
0.0
 40
0.0
 40
0.0
 40
0.0
 40
0.5
 40
0.5
 40
1.0
 40
1.0
 40
1.0
 40
1.0
 10
204.998734418549
 20
137.4794978008896
 30
0.0
 10
204.998734418549
 20
137.4794978008896
 30
0.0
 10
205.0009562770337
 20
137.4794978008896
 30
0.0
 10
205.0096929487572
 20
137.4794978008896
 30
0.0
 10
205.0162044625516
 20
137.4794978008896
 30
0.0
 10
205.0248820417091
 20
137.4794978008896
 30
0.0
  0
LINE
  5
130
330
1F
100
AcDbEntity
  8
0
  6
HIDDEN
 62
     7
370
     0
100
AcDbLine
 10
204.9987344185
 20
137.7653644324
 30
0.0
 11
204.9987344185
 21
144.7491516519
 31
0.0
  0
LINE
  5
131
330
1F
100
AcDbEntity
  8
0
  6
HIDDEN
 62
     7
370
     0
100
AcDbLine
 10
204.9987344185
 20
90.8251021726
 30
0.0
 11
204.9987344185
 21
137.4794978009
 31
0.0
  0
SPLINE
  5
132
330
1F
100
AcDbEntity
  8
0
  6
HIDDEN
 62
     7
370
     0
100
AcDbSpline
210
0.0
220
0.0
230
1.0
 70
    24
 71
     3
 72
    18
 73
    14
 74
     0
 42
0.00000001
 43
0.00000001
 40
0.0
 40
0.0
 40
0.0
 40
0.0
 40
0.5
 40
0.5
 40
0.75
 40
0.75
 40
0.875
 40
0.875
 40
0.9375
 40
0.9375
 40
0.96875
 40
0.96875
 40
1.0
 40
1.0
 40
1.0
 40
1.0
 10
214.858734418549
 20
144.0294978008896
 30
0.0
 10
214.858734418549
 20
144.0294978008896
 30
0.0
 10
214.9145835639469
 20
144.0294978008896
 30
0.0
 10
214.9903009604395
 20
144.0294978008896
 30
0.0
 10
215.0144903103929
 20
144.0294978008896
 30
0.0
 10
215.040234073742
 20
144.0294978008896
 30
0.0
 10
215.0470797192448
 20
144.0294978008896
 30
0.0
 10
215.0540195356613
 20
144.0294978008896
 30
0.0
 10
215.0557819770445
 20
144.0294978008896
 30
0.0
 10
215.0575501496394
 20
144.0294978008896
 30
0.0
 10
215.0579939449323
 20
144.0294978008896
 30
0.0
 10
215.0585861160255
 20
144.0294978008896
 30
0.0
 10
215.058734485248
 20
144.0294978008896
 30
0.0
 10
215.0587344185248
 20
144.0294978008896
 30
0.0
  0
SPLINE
  5
133
330
1F
100
AcDbEntity
  8
0
  6
HIDDEN
 62
     7
370
     0
100
AcDbSpline
210
0.0
220
0.0
230
1.0
 70
    24
 71
     3
 72
    10
 73
     6
 74
     0
 42
0.00000001
 43
0.00000001
 40
0.0
 40
0.0
 40
0.0
 40
0.0
 40
0.0714544631123278
 40
0.535696505147377
 40
1.0
 40
1.0
 40
1.0
 40
1.0
 10
215.0144896392979
 20
144.0294978008896
 30
0.0
 10
215.0122918414552
 20
144.0294978008896
 30
0.0
 10
214.9958148773567
 20
144.0294978008896
 30
0.0
 10
214.8953726101488
 20
144.0294978008896
 30
0.0
 10
214.8709476879107
 20
144.0294978008896
 30
0.0
 10
214.858734418549
 20
144.0294978008896
 30
0.0
  0
LINE
  5
134
330
1F
100
AcDbEntity
  8
0
  6
HIDDEN
 62
     7
370
     0
100
AcDbLine
 10
214.8587344185
 20
144.0294978009
 30
0.0
 11
214.8587344185
 21
91.2294978009
 31
0.0
  0
SPLINE
  5
135
330
1F
100
AcDbEntity
  8
0
  6
HIDDEN
 62
     7
370
     0
100
AcDbSpline
210
0.0
220
0.0
230
1.0
 70
    24
 71
     3
 72
    18
 73
    14
 74
     0
 42
0.00000001
 43
0.00000001
 40
0.0
 40
0.0
 40
0.0
 40
0.0
 40
0.5
 40
0.5
 40
0.75
 40
0.75
 40
0.875
 40
0.875
 40
0.9375
 40
0.9375
 40
0.96875
 40
0.96875
 40
1.0
 40
1.0
 40
1.0
 40
1.0
 10
214.858734418549
 20
91.22949780088962
 30
0.0
 10
214.858734418549
 20
91.22949780088963
 30
0.0
 10
214.9145835883431
 20
91.22949780088963
 30
0.0
 10
214.9903009993843
 20
91.22949780088962
 30
0.0
 10
215.014490350572
 20
91.22949780088963
 30
0.0
 10
215.040234105818
 20
91.22949780088962
 30
0.0
 10
215.0470797470016
 20
91.22949780088963
 30
0.0
 10
215.0540195545951
 20
91.22949780088963
 30
0.0
 10
215.0557819926528
 20
91.22949780088963
 30
0.0
 10
215.0575501597498
 20
91.22949780088963
 30
0.0
 10
215.0579939531256
 20
91.22949780088962
 30
0.0
 10
215.0585861202315
 20
91.22949780088963
 30
0.0
 10
215.058734487238
 20
91.22949780088962
 30
0.0
 10
215.0587344185234
 20
91.22949780088962
 30
0.0
  0
LINE
  5
136
330
1F
100
AcDbEntity
  8
0
  6
HIDDEN
 62
     7
370
     0
100
AcDbLine
 10
214.8587344185
 20
91.2294978009
 30
0.0
 11
214.8587344185
 21
144.0294978009
 31
0.0
  0
SPLINE
  5
137
330
1F
100
AcDbEntity
  8
0
  6
HIDDEN
 62
     7
370
     0
100
AcDbSpline
210
0.0
220
0.0
230
1.0
 70
     8
 71
     3
 72
    70
 73
    66
 74
     0
 42
0.00000001
 43
0.00000001
 40
-0.03125
 40
-0.03125
 40
0.0
 40
0.0
 40
0.03125
 40
0.03125
 40
0.0625
 40
0.0625
 40
0.09375
 40
0.09375
 40
0.125
 40
0.125
 40
0.15625
 40
0.15625
 40
0.1875
 40
0.1875
 40
0.21875
 40
0.21875
 40
0.25
 40
0.25
 40
0.28125
 40
0.28125
 40
0.3125
 40
0.3125
 40
0.34375
 40
0.34375
 40
0.375
 40
0.375
 40
0.40625
 40
0.40625
 40
0.4375
 40
0.4375
 40
0.46875
 40
0.46875
 40
0.5
 40
0.5
 40
0.53125
 40
0.53125
 40
0.5625
 40
0.5625
 40
0.59375
 40
0.59375
 40
0.625
 40
0.625
 40
0.65625
 40
0.65625
 40
0.6875
 40
0.6875
 40
0.71875
 40
0.71875
 40
0.75
 40
0.75
 40
0.78125
 40
0.78125
 40
0.8125
 40
0.8125
 40
0.84375
 40
0.84375
 40
0.875
 40
0.875
 40
0.90625
 40
0.90625
 40
0.9375
 40
0.9375
 40
0.96875
 40
0.96875
 40
1.0
 40
1.0
 40
1.03125
 40
1.03125
 10
219.107105809783
 20
123.6435495209518
 30
0.0
 10
218.710363027315
 20
123.6435495209518
 30
0.0
 10
218.5153398597456
 20
123.6626374344591
 30
0.0
 10
218.1317058272996
 20
123.7373097949815
 30
0.0
 10
217.9410944862717
 20
123.7938109072422
 30
0.0
 10
217.5778729733045
 20
123.9408847194005
 30
0.0
 10
217.4056277884682
 20
124.0307529707399
 30
0.0
 10
217.0796471666876
 20
124.2424991104167
 30
0.0
 10
216.925432330749
 20
124.3653988277221
 30
0.0
 10
216.6489567713256
 20
124.6329963497424
 30
0.0
 10
216.5248332784123
 20
124.7786615065004
 30
0.0
 10
216.3055164599595
 20
125.0939665807971
 30
0.0
 10
216.212418773852
 20
125.2611103226688
 30
0.0
 10
216.0627464860638
 20
125.6057144669853
 30
0.0
 10
216.0050675260293
 20
125.7857261177401
 30
0.0
 10
215.9279392276833
 20
126.1526725875538
 30
0.0
 10
215.9088429031889
 20
126.3364446527908
 30
0.0
 10
215.9086268468628
 20
126.7044880764719
 30
0.0
 10
215.9281360937186
 20
126.8906486953218
 30
0.0
 10
216.0047307524816
 20
127.2493512188995
 30
0.0
 10
216.0614014203494
 20
127.4229812776189
 30
0.0
 10
216.2117356153017
 20
127.7589884924465
 30
0.0
 10
216.3055972875961
 20
127.9205509427204
 30
0.0
 10
216.5226343631684
 20
128.2187271713213
 30
0.0
 10
216.6466264513659
 20
128.3573029581859
 30
0.0
 10
216.9264873713803
 20
128.6126600222435
 30
0.0
 10
217.0778338004847
 20
128.7253437714711
 30
0.0
 10
217.4025129832931
 20
128.9223722968846
 30
0.0
 10
217.5779234093954
 20
129.0073971376065
 30
0.0
 10
217.9411323262032
 20
129.1434148233573
 30
0.0
 10
218.1281207261879
 20
129.194621006467
 30
0.0
 10
218.5128135110194
 20
129.2639130763773
 30
0.0
 10
218.7117599836979
 20
129.2816394453717
 30
0.0
 10
219.1034753984613
 20
129.2817706718539
 30
0.0
 10
219.2982474201757
 20
129.2647486874139
 30
0.0
 10
219.6855691519553
 20
129.1956120132909
 30
0.0
 10
219.8749234288174
 20
129.1437730963824
 30
0.0
 10
220.2360618811375
 20
129.0088702951787
 30
0.0
 10
220.4106157701002
 20
128.9247689207557
 30
0.0
 10
220.7385831843033
 20
128.7262153256181
 30
0.0
 10
220.8896081920067
 20
128.6135602362489
 30
0.0
 10
221.1664303605944
 20
128.3616741957923
 30
0.0
 10
221.293181247302
 20
128.220756524377
 30
0.0
 10
221.5110869749536
 20
127.9218680680372
 30
0.0
 10
221.6033814208093
 20
127.7633763646889
 30
0.0
 10
221.7543342553259
 20
127.4277003362159
 30
0.0
 10
221.8122594711958
 20
127.2508538193364
 30
0.0
 10
221.8888957569198
 20
126.8934251740776
 30
0.0
 10
221.9085497474358
 20
126.7109905733848
 30
0.0
 10
221.9089165246643
 20
126.3382657663084
 30
0.0
 10
221.8896073451408
 20
126.1541201218429
 30
0.0
 10
221.8136497614452
 20
125.7906066619966
 30
0.0
 10
221.7560713652383
 20
125.6092541089476
 30
0.0
 10
221.6057467235265
 20
125.2622864790453
 30
0.0
 10
221.5137375733914
 20
125.0970882048008
 30
0.0
 10
221.2963252341723
 20
124.7834247260469
 30
0.0
 10
221.1698571590997
 20
124.6344778725572
 30
0.0
 10
220.893565123201
 20
124.3667005939877
 30
0.0
 10
220.7427567309113
 20
124.2460840196055
 30
0.0
 10
220.4150905870972
 20
124.0324938555544
 30
0.0
 10
220.2407995770679
 20
123.9415532632739
 30
0.0
 10
219.8800264008587
 20
123.7951109557438
 30
0.0
 10
219.6911161711681
 20
123.738570249396
 30
0.0
 10
219.3032464786551
 20
123.6626400751708
 30
0.0
 10
219.107105809783
 20
123.6435495209518
 30
0.0
 10
218.710363027315
 20
123.6435495209518
 30
0.0
  0
LINE
  5
138
330
1F
100
AcDbEntity
  8
0
  6
HIDDEN
 62
     7
370
     0
100
AcDbLine
 10
188.9087344185
 20
92.3055738798
 30
0.0
 11
188.9087344185
 21
142.953421722
 31
0.0
  0
LINE
  5
139
330
1F
100
AcDbEntity
  8
0
  6
HIDDEN
 62
     7
370
     0
100
AcDbLine
 10
193.8587344185
 20
137.4794978009
 30
0.0
 11
201.1043547642
 21
137.4794978009
 31
0.0
  0
LWPOLYLINE
  5
13A
330
1F
100
AcDbEntity
  8
0
  6
HIDDEN
 62
     7
370
     0
100
AcDbPolyline
 90
        2
 70
   128
 43
0.0
 10
208.8187344185
 20
137.4794978009
 10
208.8187344185
 20
137.4794978009
  0
LWPOLYLINE
  5
13B
330
1F
100
AcDbEntity
  8
0
  6
HIDDEN
 62
     7
370
     0
100
AcDbPolyline
 90
        2
 70
   128
 43
0.0
 10
214.8587344185
 20
137.4794978009
 10
214.8587344185
 20
137.4794978009
  0
LWPOLYLINE
  5
13C
330
1F
100
AcDbEntity
  8
0
  6
HIDDEN
 62
     7
370
     0
100
AcDbPolyline
 90
        2
 70
   128
 43
0.0
 10
204.9987344185
 20
137.4794978009
 10
204.9987344185
 20
137.4794978009
  0
SPLINE
  5
13D
330
1F
100
AcDbEntity
  8
0
  6
HIDDEN
 62
     7
370
     0
100
AcDbSpline
210
0.0
220
0.0
230
1.0
 70
     8
 71
     3
 72
    14
 73
    10
 74
     0
 42
0.00000001
 43
0.00000001
 40
0.0
 40
0.0
 40
0.0
 40
0.0
 40
0.5
 40
0.5
 40
0.7499999999999989
 40
0.7499999999999989
 40
0.8749999999999994
 40
0.8749999999999994
 40
1.0
 40
1.0
 40
1.0
 40
1.0
 10
158.158734418549
 20
96.75976226799875
 30
0.0
 10
158.966631442647
 20
96.76117450002396
 30
0.0
 10
159.7723956109733
 20
96.76756747774112
 30
0.0
 10
160.9728362819814
 20
96.79661928937591
 30
0.0
 10
161.3716551352752
 20
96.80945222514963
 30
0.0
 10
161.9651834854238
 20
96.8399104067151
 30
0.0
 10
162.1622463838219
 20
96.85192303697703
 30
0.0
 10
162.5531854186712
 20
96.88356450425552
 30
0.0
 10
162.7475604704947
 20
96.90199857692964
 30
0.0
 10
162.936608041834
 20
96.93318305302623
 30
0.0
  0
SPLINE
  5
13E
330
1F
100
AcDbEntity
  8
0
  6
HIDDEN
 62
     7
370
     0
100
AcDbSpline
210
0.0
220
0.0
230
1.0
 70
     8
 71
     3
 72
    10
 73
     6
 74
     0
 42
0.00000001
 43
0.00000001
 40
0.0
 40
0.0
 40
0.0
 40
0.0
 40
0.5
 40
0.5
 40
1.0
 40
1.0
 40
1.0
 40
1.0
 10
162.936608041834
 20
96.93318305302621
 30
0.0
 10
163.3835489830585
 20
97.00690851270527
 30
0.0
 10
163.8436608716007
 20
97.07323716458546
 30
0.0
 10
164.7705505753454
 20
97.19626663341886
 30
0.0
 10
165.2382543073811
 20
97.25299170386923
 30
0.0
 10
165.708734418549
 20
97.30659437533767
 30
0.0
  0
SPLINE
  5
13F
330
1F
100
AcDbEntity
  8
0
  6
HIDDEN
 62
     7
370
     0
100
AcDbSpline
210
0.0
220
0.0
230
1.0
 70
     8
 71
     3
 72
    14
 73
    10
 74
     0
 42
0.00000001
 43
0.00000001
 40
0.0
 40
0.0
 40
0.0
 40
0.0
 40
0.124999999999998
 40
0.124999999999998
 40
0.249999999999996
 40
0.249999999999996
 40
0.4999999999999973
 40
0.4999999999999973
 40
1.0
 40
1.0
 40
1.0
 40
1.0
 10
165.708734418549
 20
97.3065943753377
 30
0.0
 10
165.7655091737695
 20
97.31306282847642
 30
0.0
 10
165.8281922746987
 20
97.30720552526759
 30
0.0
 10
165.9340800492367
 20
97.27730920392978
 30
0.0
 10
165.9779843068379
 20
97.25543426197483
 30
0.0
 10
166.0904175549955
 20
97.18606297530803
 30
0.0
 10
166.1435457588579
 20
97.13356392110668
 30
0.0
 10
166.278533220598
 20
96.97828091278838
 30
0.0
 10
166.3367939320779
 20
96.87249443895406
 30
0.0
 10
166.3840617656964
 20
96.77000491286444
 30
0.0
  0
SPLINE
  5
140
330
1F
100
AcDbEntity
  8
0
  6
HIDDEN
 62
     7
370
     0
100
AcDbSpline
210
0.0
220
0.0
230
1.0
 70
     8
 71
     3
 72
    12
 73
     8
 74
     0
 42
0.00000001
 43
0.00000001
 40
0.0
 40
0.0
 40
0.0
 40
0.0
 40
0.25
 40
0.25
 40
0.5
 40
0.5
 40
1.0
 40
1.0
 40
1.0
 40
1.0
 10
166.384061765682
 20
96.77000491286361
 30
0.0
 10
166.4329023360171
 20
96.66410526559233
 30
0.0
 10
166.517949251217
 20
96.56217170418482
 30
0.0
 10
166.6876006597805
 20
96.36566549894661
 30
0.0
 10
166.7740626585068
 20
96.27063813734767
 30
0.0
 10
166.9994558634237
 20
95.99335964298868
 30
0.0
 10
167.108734418549
 20
95.81864227017792
 30
0.0
 10
167.108734418549
 20
95.65518209273256
 30
0.0
  0
LINE
  5
141
330
1F
100
AcDbEntity
  8
0
  6
HIDDEN
 62
     7
370
     0
100
AcDbLine
 10
167.1087344185
 20
95.6551820927
 30
0.0
 11
167.1087344185
 21
94.4010509071
 31
0.0
  0
LINE
  5
142
330
1F
100
AcDbEntity
  8
0
  6
HIDDEN
 62
     7
370
     0
100
AcDbLine
 10
163.1087344185
 20
140.6575438931
 30
0.0
 11
163.1087344185
 21
139.4736054733
 31
0.0
  0
SPLINE
  5
143
330
1F
100
AcDbEntity
  8
0
  6
HIDDEN
 62
     7
370
     0
100
AcDbSpline
210
0.0
220
0.0
230
1.0
 70
     8
 71
     3
 72
    18
 73
    14
 74
     0
 42
0.00000001
 43
0.00000001
 40
0.0
 40
0.0
 40
0.0
 40
0.0
 40
0.2499999999999993
 40
0.2499999999999993
 40
0.4999999999999993
 40
0.4999999999999993
 40
0.7499999999999993
 40
0.7499999999999993
 40
0.8749999999999983
 40
0.8749999999999983
 40
0.9374999999999992
 40
0.9374999999999992
 40
1.0
 40
1.0
 40
1.0
 40
1.0
 10
163.108734418549
 20
139.4736054732526
 30
0.0
 10
163.108734418549
 20
139.3903985643954
 30
0.0
 10
163.0728853186107
 20
139.3016619090819
 30
0.0
 10
162.9480135825768
 20
139.1195367185216
 30
0.0
 10
162.8576131649289
 20
139.024406669895
 30
0.0
 10
162.6353705101867
 20
138.8352251607707
 30
0.0
 10
162.505605723741
 20
138.740279992676
 30
0.0
 10
162.2649682664294
 20
138.602001285096
 30
0.0
 10
162.177200968292
 20
138.5562908517937
 30
0.0
 10
162.0226768810852
 20
138.4984675465722
 30
0.0
 10
161.9660659950304
 20
138.4807527825343
 30
0.0
 10
161.8420219641238
 20
138.4562134793014
 30
0.0
 10
161.7743072891056
 20
138.4502343407631
 30
0.0
 10
161.708734418549
 20
138.4525851927174
 30
0.0
  0
SPLINE
  5
144
330
1F
100
AcDbEntity
  8
0
  6
HIDDEN
 62
     7
370
     0
100
AcDbSpline
210
0.0
220
0.0
230
1.0
 70
     8
 71
     3
 72
    10
 73
     6
 74
     0
 42
0.00000001
 43
0.00000001
 40
0.0
 40
0.0
 40
0.0
 40
0.0
 40
0.5
 40
0.5
 40
1.0
 40
1.0
 40
1.0
 40
1.0
 10
161.708734418549
 20
138.4525851927174
 30
0.0
 10
161.1211488714584
 20
138.4736507129538
 30
0.0
 10
160.530402477998
 20
138.484409198826
 30
0.0
 10
159.3463833126991
 20
138.4977739793617
 30
0.0
 10
158.7529693244937
 20
138.4999166220263
 30
0.0
 10
158.158734418549
 20
138.4994355662847
 30
0.0
  0
SPLINE
  5
145
330
1F
100
AcDbEntity
  8
0
  6
HIDDEN
 62
     7
370
     0
100
AcDbSpline
210
0.0
220
0.0
230
1.0
 70
     8
 71
     3
 72
     8
 73
     4
 74
     0
 42
0.00000001
 43
0.00000001
 40
0.0000003292049693
 40
0.0000003292049693
 40
0.0000003292049693
 40
0.0000003292049693
 40
0.000016905094931
 40
0.000016905094931
 40
0.000016905094931
 40
0.000016905094931
 10
158.1587344185489
 20
138.4994355662847
 30
0.0
 10
158.1553778364122
 20
138.4975235721878
 30
0.0
 10
158.1520294722866
 20
138.4956082819328
 30
0.0
 10
158.1486894881176
 20
138.4936896733174
 30
0.0
  0
SPLINE
  5
146
330
1F
100
AcDbEntity
  8
0
  6
HIDDEN
 62
     7
370
     0
100
AcDbSpline
210
0.0
220
0.0
230
1.0
 70
     8
 71
     3
 72
     8
 73
     4
 74
     0
 42
0.00000001
 43
0.00000001
 40
0.0000003409637668
 40
0.0000003409637668
 40
0.0000003409637668
 40
0.0000003409637668
 40
0.000017415394438
 40
0.000017415394438
 40
0.000017415394438
 40
0.000017415394438
 10
158.1486894881307
 20
96.76575806579046
 30
0.0
 10
158.1520281388891
 20
96.76375583069307
 30
0.0
 10
158.1553765140687
 20
96.76175723892291
 30
0.0
 10
158.158734418549
 20
96.75976226799874
 30
0.0
  0
LINE
  5
147
330
1F
100
AcDbEntity
  8
0
  6
HIDDEN
 62
     7
370
     0
100
AcDbLine
 10
186.9087344185
 20
141.8499286626
 30
0.0
 11
186.9087344185
 21
93.4090669392
 31
0.0
  0
SPLINE
  5
148
330
1F
100
AcDbEntity
  8
0
  6
HIDDEN
 62
     7
370
     0
100
AcDbSpline
210
0.0
220
0.0
230
1.0
 70
     8
 71
     3
 72
    12
 73
     8
 74
     0
 42
0.00000001
 43
0.00000001
 40
0.0
 40
0.0
 40
0.0
 40
0.0
 40
0.1192152782090125
 40
0.2486291495149589
 40
0.5007186954388808
 40
0.7537054055439856
 40
1.0
 40
1.0
 40
1.0
 40
1.0
 10
176.9038846231206
 20
94.10489817806787
 30
0.0
 10
176.8217419250509
 20
94.0971622265685
 30
0.0
 10
176.6504294098537
 20
94.08102853069603
 30
0.0
 10
176.2840754461209
 20
94.04805383490732
 30
0.0
 10
175.9793124238643
 20
94.00987633287924
 30
0.0
 10
175.7209339653808
 20
93.97800037574223
 30
0.0
 10
175.6919419573758
 20
93.97397505566471
 30
0.0
 10
175.6776402505247
 20
93.9719893723095
 30
0.0
  0
SPLINE
  5
149
330
1F
100
AcDbEntity
  8
0
  6
HIDDEN
 62
     7
370
     0
100
AcDbSpline
210
0.0
220
0.0
230
1.0
 70
     8
 71
     3
 72
    20
 73
    16
 74
     0
 42
0.00000001
 43
0.00000001
 40
0.0
 40
0.0
 40
0.0
 40
0.0
 40
0.0014371417843421
 40
0.0850458908086337
 40
0.1697599742259437
 40
0.2540983643787708
 40
0.3373295355548647
 40
0.4202346307100775
 40
0.5035601638150924
 40
0.5868465105665923
 40
0.6687600060933065
 40
0.7507345792016868
 40
0.8338925024192404
 40
0.9172623649586593
 40
1.0
 40
1.0
 40
1.0
 40
1.0
 10
184.0918010359997
 20
93.550439683966
 30
0.0
 10
184.0922540057771
 20
93.55033585813732
 30
0.0
 10
184.119059446027
 20
93.5441917461328
 30
0.0
 10
184.0230309345744
 20
93.56628856823734
 30
0.0
 10
183.7899853974069
 20
93.61816819815786
 30
0.0
 10
183.3962003315632
 20
93.70322533623681
 30
0.0
 10
182.8717419531878
 20
93.80498058543562
 30
0.0
 10
182.2327786429613
 20
93.9128767896874
 30
0.0
 10
181.4996133895705
 20
94.01392270513706
 30
0.0
 10
180.7070501766541
 20
94.09833186057813
 30
0.0
 10
179.8823013828815
 20
94.1557354818706
 30
0.0
 10
179.0555841248672
 20
94.18249355420572
 30
0.0
 10
178.2612767646035
 20
94.1780582928854
 30
0.0
 10
177.5178473260585
 20
94.15074281119357
 30
0.0
 10
177.1080189033832
 20
94.12014089744191
 30
0.0
 10
176.9038846231206
 20
94.10489817806786
 30
0.0
  0
SPLINE
  5
14A
330
1F
100
AcDbEntity
  8
0
  6
HIDDEN
 62
     7
370
     0
100
AcDbSpline
210
0.0
220
0.0
230
1.0
 70
     8
 71
     3
 72
    20
 73
    16
 74
     0
 42
0.00000001
 43
0.00000001
 40
0.0
 40
0.0
 40
0.0
 40
0.0
 40
0.0828182133813294
 40
0.1661936881157298
 40
0.2493852825370399
 40
0.3315155124772274
 40
0.4133807586231842
 40
0.4968356081148758
 40
0.58004137817114
 40
0.6629790154186288
 40
0.7460493132171991
 40
0.8302847957804692
 40
0.9148461952092947
 40
0.998403848756671
 40
1.0
 40
1.0
 40
1.0
 40
1.0
 10
176.9037919028387
 20
141.1540808308714
 30
0.0
 10
177.1084436595384
 20
141.1388907937045
 30
0.0
 10
177.5191242192441
 20
141.1084085097199
 30
0.0
 10
178.2628495109476
 20
141.0810980345107
 30
0.0
 10
179.0578089956261
 20
141.0766851575225
 30
0.0
 10
179.8849376341888
 20
141.1033534500048
 30
0.0
 10
180.7106793696883
 20
141.1608174522306
 30
0.0
 10
181.5029563666231
 20
141.2454049782624
 30
0.0
 10
182.2357798244868
 20
141.3465785753494
 30
0.0
 10
182.8736893165538
 20
141.4543641358636
 30
0.0
 10
183.397544278509
 20
141.5559715080373
 30
0.0
 10
183.7906887637475
 20
141.6408615374113
 30
0.0
 10
184.0233513538988
 20
141.69269679865
 30
0.0
 10
184.1194215947267
 20
141.7147991155349
 30
0.0
 10
184.0922554759636
 20
141.7086421829397
 30
0.0
 10
184.0917462651967
 20
141.708526775347
 30
0.0
  0
SPLINE
  5
14B
330
1F
100
AcDbEntity
  8
0
  6
HIDDEN
 62
     7
370
     0
100
AcDbSpline
210
0.0
220
0.0
230
1.0
 70
     8
 71
     3
 72
    12
 73
     8
 74
     0
 42
0.00000001
 43
0.00000001
 40
0.0
 40
0.0
 40
0.0
 40
0.0
 40
0.2468412763863439
 40
0.4995707343914298
 40
0.7516700890846415
 40
0.8176861511894846
 40
1.0
 40
1.0
 40
1.0
 40
1.0
 10
175.6772351606179
 20
141.2870373846897
 30
0.0
 10
175.6913487776321
 20
141.2850189039821
 30
0.0
 10
175.7199126795854
 20
141.2809337934845
 30
0.0
 10
175.9807021888106
 20
141.248935715341
 30
0.0
 10
176.2475906029289
 20
141.2146689182397
 30
0.0
 10
176.6062680731747
 20
141.1819770078185
 30
0.0
 10
176.7778346277736
 20
141.1658907300548
 30
0.0
 10
176.9037919028387
 20
141.1540808308714
 30
0.0
  0
LWPOLYLINE
  5
14C
330
1F
100
AcDbEntity
  8
0
  6
HIDDEN
 62
     7
370
     0
100
AcDbPolyline
 90
       26
 70
   128
 43
0.0
 10
218.3436972443
 20
114.4811669125
 10
218.4447049537
 20
114.2773647217
 10
218.4313636097
 20
113.9723026965
 10
218.304511498
 20
113.5851490059
 10
218.0721192033
 20
113.1402299401
 10
217.7487887881
 20
112.6655014004
 10
217.3548362916
 20
112.1907923267
 10
216.9150151979
 20
111.7459304361
 10
216.4569610841
 20
111.3588680372
 10
216.0094551745
 20
111.0539256841
 10
215.6006159113
 20
110.8502640263
 10
215.2561321691
 20
110.7606798748
 10
214.9976491283
 20
110.7908021313
 10
214.8414082289
 20
110.9387381037
 10
214.7972266614
 20
111.1951924307
 10
214.867880516
 20
111.5440511437
 10
215.0489303512
 20
111.9633941669
 10
215.3290001401
 20
112.4268726358
 10
215.6904920678
 20
112.9053644938
 10
216.1106922669
 20
113.3688043375
 10
216.5631980137
 20
113.7880725372
 10
217.0195767077
 20
114.13682493
 10
217.4511523973
 20
114.3931481203
 10
217.8308075946
 20
114.5409363795
 10
218.1346871673
 20
114.5709036277
 10
218.3436972443
 20
114.4811669125
  0
SPLINE
  5
14D
330
1F
100
AcDbEntity
  8
0
  6
HIDDEN
 62
     7
370
     0
100
AcDbSpline
210
0.0
220
0.0
230
1.0
 70
     8
 71
     3
 72
    10
 73
     6
 74
     0
 42
0.00000001
 43
0.00000001
 40
0.0
 40
0.0
 40
0.0
 40
0.0
 40
0.5
 40
0.5
 40
1.0
 40
1.0
 40
1.0
 40
1.0
 10
218.0170536456802
 20
107.9103330972582
 30
0.0
 10
217.8028352841775
 20
108.118435137934
 30
0.0
 10
217.5774448613929
 20
108.3364720712271
 30
0.0
 10
217.0759074633315
 20
108.8025400547868
 30
0.0
 10
216.8191439657587
 20
109.0351878654867
 30
0.0
 10
216.5690797939934
 20
109.2772626555773
 30
0.0
  0
SPLINE
  5
14E
330
1F
100
AcDbEntity
  8
0
  6
HIDDEN
 62
     7
370
     0
100
AcDbSpline
210
0.0
220
0.0
230
1.0
 70
     8
 71
     3
 72
    78
 73
    74
 74
     0
 42
0.00000001
 43
0.00000001
 40
0.0
 40
0.0
 40
0.0
 40
0.0
 40
0.0156249999999996
 40
0.0156249999999996
 40
0.0312499999999992
 40
0.0312499999999992
 40
0.0468749999999989
 40
0.0468749999999989
 40
0.0624999999999985
 40
0.0624999999999985
 40
0.0937499999999982
 40
0.0937499999999982
 40
0.1249999999999978
 40
0.1249999999999978
 40
0.1562499999999975
 40
0.1562499999999975
 40
0.1874999999999972
 40
0.1874999999999972
 40
0.2187499999999969
 40
0.2187499999999969
 40
0.2499999999999966
 40
0.2499999999999966
 40
0.2812499999999962
 40
0.2812499999999962
 40
0.3124999999999959
 40
0.3124999999999959
 40
0.3437499999999956
 40
0.3437499999999956
 40
0.3749999999999953
 40
0.3749999999999953
 40
0.4062499999999949
 40
0.4062499999999949
 40
0.4374999999999946
 40
0.4374999999999946
 40
0.4531249999999945
 40
0.4531249999999945
 40
0.4687499999999943
 40
0.4687499999999943
 40
0.4843749999999942
 40
0.4843749999999942
 40
0.499999999999994
 40
0.499999999999994
 40
0.5312499999999936
 40
0.5312499999999936
 40
0.5624999999999931
 40
0.5624999999999931
 40
0.5937499999999927
 40
0.5937499999999927
 40
0.6249999999999922
 40
0.6249999999999922
 40
0.687499999999992
 40
0.687499999999992
 40
0.7187499999999921
 40
0.7187499999999921
 40
0.7499999999999922
 40
0.7499999999999922
 40
0.7812499999999933
 40
0.7812499999999933
 40
0.8124999999999943
 40
0.8124999999999943
 40
0.8437499999999953
 40
0.8437499999999953
 40
0.8749999999999963
 40
0.8749999999999963
 40
0.9062499999999974
 40
0.9062499999999974
 40
0.9374999999999984
 40
0.9374999999999984
 40
0.9531249999999989
 40
0.9531249999999989
 40
0.9687499999999994
 40
0.9687499999999994
 40
1.0
 40
1.0
 40
1.0
 40
1.0
 10
216.5690797939932
 20
109.2772626555772
 30
0.0
 10
216.5857761452257
 20
109.2648231434254
 30
0.0
 10
216.6017477374886
 20
109.2586608339562
 30
0.0
 10
216.6266541598081
 20
109.2673125109321
 30
0.0
 10
216.6353539311546
 20
109.2830179590149
 30
0.0
 10
216.6374233586385
 20
109.3451145837149
 30
0.0
 10
216.6305338048153
 20
109.3925999004612
 30
0.0
 10
216.6059791683775
 20
109.5085390047416
 30
0.0
 10
216.5886625274219
 20
109.5774384576943
 30
0.0
 10
216.5348132243785
 20
109.7960271542373
 30
0.0
 10
216.4962819270609
 20
109.9611479148755
 30
0.0
 10
216.438704679758
 20
110.3022858991218
 30
0.0
 10
216.4187232652552
 20
110.4788264686541
 30
0.0
 10
216.404504992572
 20
110.8413327826908
 30
0.0
 10
216.4103873451463
 20
111.029434574305
 30
0.0
 10
216.4550916669711
 20
111.403389077314
 30
0.0
 10
216.49341178996
 20
111.5893569210892
 30
0.0
 10
216.6104267146492
 20
111.9580905257028
 30
0.0
 10
216.6883651625913
 20
112.1371061846878
 30
0.0
 10
216.8852756501029
 20
112.4708400907304
 30
0.0
 10
217.0058804143163
 20
112.62686282212
 30
0.0
 10
217.2777772881745
 20
112.8925763957407
 30
0.0
 10
217.4336707352669
 20
113.0064844916095
 30
0.0
 10
217.7607424596589
 20
113.1790541009856
 30
0.0
 10
217.9355531034782
 20
113.2401788886041
 30
0.0
 10
218.2865576965747
 20
113.3112683001741
 30
0.0
 10
218.4649741080453
 20
113.3221058760411
 30
0.0
 10
218.8149697231096
 20
113.3013856396518
 30
0.0
 10
218.9853185575398
 20
113.2704442695382
 30
0.0
 10
219.3196154932585
 20
113.1738962783301
 30
0.0
 10
219.4840523456227
 20
113.107639390355
 30
0.0
 10
219.799223605107
 20
112.9475134944231
 30
0.0
 10
219.9511496947002
 20
112.8534606972794
 30
0.0
 10
220.1770665084299
 20
112.6905048046328
 30
0.0
 10
220.2518940510097
 20
112.6325779322969
 30
0.0
 10
220.3999337993404
 20
112.5112351567493
 30
0.0
 10
220.4744161539263
 20
112.4467267820192
 30
0.0
 10
220.6187192535673
 20
112.3171106896869
 30
0.0
 10
220.6901930112724
 20
112.250630685466
 30
0.0
 10
220.8195474563208
 20
112.1272242323051
 30
0.0
 10
220.8787588803908
 20
112.0689994497396
 30
0.0
 10
221.0350810256636
 20
111.9078759195104
 30
0.0
 10
221.1150236276901
 20
111.8140412968722
 30
0.0
 10
221.2450028521407
 20
111.6273508120221
 30
0.0
 10
221.2948447805309
 20
111.5350416908112
 30
0.0
 10
221.3693029142701
 20
111.3412707703113
 30
0.0
 10
221.3936099989758
 20
111.2394333724477
 30
0.0
 10
221.4135101526956
 20
111.0275642988227
 30
0.0
 10
221.4094841667125
 20
110.9170939163439
 30
0.0
 10
221.3483921619121
 20
110.5656492374869
 30
0.0
 10
221.2379126493409
 20
110.2981331601239
 30
0.0
 10
220.9405371146132
 20
109.8883169522051
 30
0.0
 10
220.8229014516416
 20
109.7539951100403
 30
0.0
 10
220.5462140485234
 20
109.4896756692301
 30
0.0
 10
220.3957809967909
 20
109.3679855356582
 30
0.0
 10
220.0746791756927
 20
109.1439266663642
 30
0.0
 10
219.9111083163985
 20
109.0464786523454
 30
0.0
 10
219.5819482908089
 20
108.8754519014959
 30
0.0
 10
219.4220380696127
 20
108.8047776355469
 30
0.0
 10
219.1111206598236
 20
108.6850981943024
 30
0.0
 10
218.9588909029502
 20
108.6359496818154
 30
0.0
 10
218.6727159369552
 20
108.5568274625967
 30
0.0
 10
218.5375301553174
 20
108.5264028190838
 30
0.0
 10
218.2833595381273
 20
108.4771034165025
 30
0.0
 10
218.1635054318812
 20
108.4584900891989
 30
0.0
 10
217.9506983393711
 20
108.4225177827896
 30
0.0
 10
217.8555162837189
 20
108.4061179350041
 30
0.0
 10
217.7632168388451
 20
108.3567958145544
 30
0.0
 10
217.7409940673194
 20
108.3353243832356
 30
0.0
 10
217.7270773747726
 20
108.2754579503924
 30
0.0
 10
217.7360726812603
 20
108.2371822577206
 30
0.0
 10
217.8065809559246
 20
108.1059672426721
 30
0.0
 10
217.9039138411547
 20
108.0038659926885
 30
0.0
 10
218.0170536456803
 20
107.9103330972581
 30
0.0
  0
SPLINE
  5
14F
330
1F
100
AcDbEntity
  8
0
  6
HIDDEN
 62
     7
370
     0
100
AcDbSpline
210
0.0
220
0.0
230
1.0
 70
     8
 71
     3
 72
    64
 73
    60
 74
     0
 42
0.00000001
 43
0.00000001
 40
-0.0312499999999999
 40
-0.0312499999999999
 40
0.0
 40
0.0
 40
0.0312500000000002
 40
0.0312500000000002
 40
0.0625000000000003
 40
0.0625000000000003
 40
0.1250000000000007
 40
0.1250000000000007
 40
0.1562500000000007
 40
0.1562500000000007
 40
0.1875000000000007
 40
0.1875000000000007
 40
0.2187500000000007
 40
0.2187500000000007
 40
0.2500000000000007
 40
0.2500000000000007
 40
0.2812500000000007
 40
0.2812500000000007
 40
0.3125000000000007
 40
0.3125000000000007
 40
0.3750000000000009
 40
0.3750000000000009
 40
0.4062500000000009
 40
0.4062500000000009
 40
0.4375000000000008
 40
0.4375000000000008
 40
0.4687500000000008
 40
0.4687500000000008
 40
0.5000000000000007
 40
0.5000000000000007
 40
0.5312500000000006
 40
0.5312500000000006
 40
0.5625000000000006
 40
0.5625000000000006
 40
0.5937500000000004
 40
0.5937500000000004
 40
0.6250000000000004
 40
0.6250000000000004
 40
0.6562500000000003
 40
0.6562500000000003
 40
0.6875000000000003
 40
0.6875000000000003
 40
0.7187500000000002
 40
0.7187500000000002
 40
0.7500000000000002
 40
0.7500000000000002
 40
0.7812500000000001
 40
0.7812500000000001
 40
0.8125000000000001
 40
0.8125000000000001
 40
0.8750000000000007
 40
0.8750000000000007
 40
0.9062500000000004
 40
0.9062500000000004
 40
0.9375000000000003
 40
0.9375000000000003
 40
0.9687500000000001
 40
0.9687500000000001
 40
1.0
 40
1.0
 40
1.03125
 40
1.03125
 10
219.0783941078512
 20
114.1259799341669
 30
0.0
 10
218.7390747292467
 20
114.1259799341669
 30
0.0
 10
218.5733882044136
 20
114.1376401131916
 30
0.0
 10
218.2491521282394
 20
114.1833333421984
 30
0.0
 10
218.0893452925114
 20
114.2179904951196
 30
0.0
 10
217.6401704701693
 20
114.3530884130766
 30
0.0
 10
217.3707452541051
 20
114.4868320909618
 30
0.0
 10
217.0327102429079
 20
114.7493584616175
 30
0.0
 10
216.9291540785088
 20
114.8488522471435
 30
0.0
 10
216.7487665878712
 20
115.0668162162028
 30
0.0
 10
216.6716202538085
 20
115.1849925307394
 30
0.0
 10
216.5440998430308
 20
115.4424149261352
 30
0.0
 10
216.4935762829908
 20
115.5836012425604
 30
0.0
 10
216.4266554550642
 20
115.8755277481192
 30
0.0
 10
216.4092963924258
 20
116.0273168261303
 30
0.0
 10
216.4081990158177
 20
116.3433973933184
 30
0.0
 10
216.4249249372909
 20
116.5055765779303
 30
0.0
 10
216.4903292221909
 20
116.8249050940698
 30
0.0
 10
216.5398150739226
 20
116.9857645582993
 30
0.0
 10
216.7304274888713
 20
117.4495337012099
 30
0.0
 10
216.9150232850202
 20
117.7391434631456
 30
0.0
 10
217.2522394292258
 20
118.1099717590475
 30
0.0
 10
217.3762673726119
 20
118.2247034942024
 30
0.0
 10
217.6420982410363
 20
118.4282984453953
 30
0.0
 10
217.782515365264
 20
118.5164696434764
 30
0.0
 10
218.0801488477173
 20
118.6635884207723
 30
0.0
 10
218.2397130720065
 20
118.7229736985609
 30
0.0
 10
218.5653242510149
 20
118.8027592523208
 30
0.0
 10
218.7314364865473
 20
118.8238179612433
 30
0.0
 10
219.0709355337615
 20
118.8250409236925
 30
0.0
 10
219.2376089396193
 20
118.8051026671019
 30
0.0
 10
219.5635139878918
 20
118.7275786396209
 30
0.0
 10
219.7236043970932
 20
118.6692657523855
 30
0.0
 10
220.0239506242357
 20
118.5229233155994
 30
0.0
 10
220.1672140731907
 20
118.4337847861109
 30
0.0
 10
220.4343529704734
 20
118.2306676218075
 30
0.0
 10
220.5573124273947
 20
118.1177457923557
 30
0.0
 10
220.7838244090078
 20
117.8704637944329
 30
0.0
 10
220.8876711214469
 20
117.7351154005848
 30
0.0
 10
221.0678277000289
 20
117.4533034231308
 30
0.0
 10
221.1453253978529
 20
117.3057745312763
 30
0.0
 10
221.2738035563206
 20
116.9969493393978
 30
0.0
 10
221.324028372314
 20
116.8360980102876
 30
0.0
 10
221.3908051930851
 20
116.5177795689954
 30
0.0
 10
221.4083418944378
 20
116.3581309749481
 30
0.0
 10
221.4091140413547
 20
116.0385714390515
 30
0.0
 10
221.392347462587
 20
115.8854887932373
 30
0.0
 10
221.3264411586802
 20
115.5916444641233
 30
0.0
 10
221.2764875875429
 20
115.4500206549011
 30
0.0
 10
221.0854100852696
 20
115.0604617455533
 30
0.0
 10
220.9001079591925
 20
114.8393973196126
 30
0.0
 10
220.5611185808093
 20
114.5754493032937
 30
0.0
 10
220.4359116676968
 20
114.4972064067444
 30
0.0
 10
220.170378993574
 20
114.3642077231837
 30
0.0
 10
220.0295841975386
 20
114.3087608662621
 30
0.0
 10
219.7295211445424
 20
114.2183116682701
 30
0.0
 10
219.5692929028212
 20
114.1835174850311
 30
0.0
 10
219.2450055329008
 20
114.1377241557884
 30
0.0
 10
219.0783941078512
 20
114.1259799341669
 30
0.0
 10
218.7390747292467
 20
114.1259799341669
 30
0.0
  0
ARC
  5
150
330
1F
100
AcDbEntity
  8
0
  6
HIDDEN
 62
     7
370
     0
100
AcDbCircle
 10
218.8137657514
 20
110.2046580854
 30
0.0
 40
2.428719277805953
100
AcDbArc
 50
202.4480416327
 51
250.85026945
  0
SPLINE
  5
151
330
1F
100
AcDbEntity
  8
0
  6
HIDDEN
 62
     7
370
     0
100
AcDbSpline
210
0.0
220
0.0
230
1.0
 70
    11
 71
     3
 72
    56
 73
    52
 74
     0
 42
0.00000001
 43
0.00000001
 40
0.0
 40
0.0
 40
0.0
 40
0.0
 40
0.0625000000000001
 40
0.0625000000000001
 40
0.0937500000000002
 40
0.0937500000000002
 40
0.1250000000000003
 40
0.1250000000000003
 40
0.1562500000000004
 40
0.1562500000000004
 40
0.1875000000000005
 40
0.1875000000000005
 40
0.2187500000000006
 40
0.2187500000000006
 40
0.2500000000000007
 40
0.2500000000000007
 40
0.3125000000000007
 40
0.3125000000000007
 40
0.3437500000000006
 40
0.3437500000000006
 40
0.3750000000000006
 40
0.3750000000000006
 40
0.4062500000000005
 40
0.4062500000000005
 40
0.4375000000000004
 40
0.4375000000000004
 40
0.4687500000000004
 40
0.4687500000000004
 40
0.5000000000000003
 40
0.5000000000000003
 40
0.5625000000000002
 40
0.5625000000000002
 40
0.6250000000000001
 40
0.6250000000000001
 40
0.6875000000000001
 40
0.6875000000000001
 40
0.7187500000000001
 40
0.7187500000000001
 40
0.7500000000000002
 40
0.7500000000000002
 40
0.7812500000000002
 40
0.7812500000000002
 40
0.8125000000000003
 40
0.8125000000000003
 40
0.8750000000000002
 40
0.8750000000000002
 40
0.9375000000000001
 40
0.9375000000000001
 40
0.96875
 40
0.96875
 40
1.0
 40
1.0
 40
1.0
 40
1.0
 10
182.6637364201506
 20
97.79196932507317
 30
0.0
 10
182.4079491096028
 20
97.82749262896672
 30
0.0
 10
182.1177593026595
 20
97.86303649793496
 30
0.0
 10
181.6311062043687
 20
97.90950819784385
 30
0.0
 10
181.4607603622075
 20
97.92375411107534
 30
0.0
 10
181.1137869521165
 20
97.94804202527374
 30
0.0
 10
180.9358490548818
 20
97.95821837159579
 30
0.0
 10
180.570929777322
 20
97.97389369919968
 30
0.0
 10
180.3825951852266
 20
97.97938066041256
 30
0.0
 10
180.0087083327712
 20
97.9848406546883
 30
0.0
 10
179.8220181186013
 20
97.98489887794746
 30
0.0
 10
179.449139627682
 20
97.97971473597066
 30
0.0
 10
179.2614353847597
 20
97.97439925749923
 30
0.0
 10
178.8945164852122
 20
97.95889687647593
 30
0.0
 10
178.7160667431476
 20
97.94879746871526
 30
0.0
 10
178.1952778397869
 20
97.91266562706133
 30
0.0
 10
177.8643941201159
 20
97.88023640604327
 30
0.0
 10
177.4278925617844
 20
97.82870991467615
 30
0.0
 10
177.2911070227318
 20
97.8109853036322
 30
0.0
 10
177.035382413278
 20
97.77559097712287
 30
0.0
 10
176.9177586851724
 20
97.7580944557423
 30
0.0
 10
176.7076892319838
 20
97.72539205975377
 30
0.0
 10
176.6143543932987
 20
97.71006025080773
 30
0.0
 10
176.4514086826196
 20
97.68246409145893
 30
0.0
 10
176.3817057197697
 20
97.6701774083453
 30
0.0
 10
176.2710826534376
 20
97.65033241655885
 30
0.0
 10
176.2294009818272
 20
97.64264630403216
 30
0.0
 10
176.173225841452
 20
97.63222892365492
 30
0.0
 10
176.1587875656914
 20
97.62950776597845
 30
0.0
 10
176.1586285705888
 20
97.62947795439786
 30
0.0
 10
176.2142879083256
 20
97.64014008454583
 30
0.0
 10
176.43711266886
 20
97.68012075628083
 30
0.0
 10
176.5990249544536
 20
97.70845700791313
 30
0.0
 10
177.0228165131894
 20
97.77446791687316
 30
0.0
 10
177.2776629357367
 20
97.81092778966439
 30
0.0
 10
177.7163065958504
 20
97.86277931265074
 30
0.0
 10
177.8730041321299
 20
97.87966694671073
 30
0.0
 10
178.1962040819085
 20
97.91036036733166
 30
0.0
 10
178.3638775633287
 20
97.92432017427554
 30
0.0
 10
178.7114624295174
 20
97.94851960342669
 30
0.0
 10
178.8930259103364
 20
97.95881655225749
 30
0.0
 10
179.2592121851453
 20
97.9743224991194
 30
0.0
 10
179.4438696009875
 20
97.9795884810164
 30
0.0
 10
180.002466007546
 20
97.98751130427192
 30
0.0
 10
180.3848003490165
 20
97.98179718089828
 30
0.0
 10
181.1120974933849
 20
97.95073809473602
 30
0.0
 10
181.4677915674849
 20
97.92504945868605
 30
0.0
 10
181.9511038444359
 20
97.87897744847795
 30
0.0
 10
182.1048014516524
 20
97.86237529006166
 30
0.0
 10
182.3972236764955
 20
97.82775543484736
 30
0.0
 10
182.5358388997007
 20
97.80973151380898
 30
0.0
 10
182.6637364201506
 20
97.79196932507318
 30
0.0
  0
SPLINE
  5
152
330
1F
100
AcDbEntity
  8
0
  6
HIDDEN
 62
     7
370
     0
100
AcDbSpline
210
0.0
220
0.0
230
1.0
 70
    11
 71
     3
 72
    56
 73
    52
 74
     0
 42
0.00000001
 43
0.00000001
 40
0.0
 40
0.0
 40
0.0
 40
0.0
 40
0.0624999999999998
 40
0.0624999999999998
 40
0.0937499999999998
 40
0.0937499999999998
 40
0.1249999999999997
 40
0.1249999999999997
 40
0.1562499999999996
 40
0.1562499999999996
 40
0.1874999999999995
 40
0.1874999999999995
 40
0.2187499999999994
 40
0.2187499999999994
 40
0.2499999999999993
 40
0.2499999999999993
 40
0.3124999999999994
 40
0.3124999999999994
 40
0.3437499999999994
 40
0.3437499999999994
 40
0.3749999999999995
 40
0.3749999999999995
 40
0.4062499999999995
 40
0.4062499999999995
 40
0.4374999999999996
 40
0.4374999999999996
 40
0.4687499999999996
 40
0.4687499999999996
 40
0.4999999999999997
 40
0.4999999999999997
 40
0.5624999999999997
 40
0.5624999999999997
 40
0.6249999999999998
 40
0.6249999999999998
 40
0.6874999999999999
 40
0.6874999999999999
 40
0.71875
 40
0.71875
 40
0.75
 40
0.75
 40
0.78125
 40
0.78125
 40
0.8125
 40
0.8125
 40
0.8749999999999999
 40
0.8749999999999999
 40
0.9374999999999999
 40
0.9374999999999999
 40
0.96875
 40
0.96875
 40
1.0
 40
1.0
 40
1.0
 40
1.0
 10
182.6637364201506
 20
137.4670262767061
 30
0.0
 10
182.4079491096028
 20
137.4315029728125
 30
0.0
 10
182.1177593026595
 20
137.3959591038443
 30
0.0
 10
181.6311062043687
 20
137.3494874039354
 30
0.0
 10
181.4607603622075
 20
137.3352414907039
 30
0.0
 10
181.1137869521165
 20
137.3109535765055
 30
0.0
 10
180.9358490548817
 20
137.3007772301835
 30
0.0
 10
180.570929777322
 20
137.2851019025796
 30
0.0
 10
180.3825951852266
 20
137.2796149413667
 30
0.0
 10
180.0087083327712
 20
137.274154947091
 30
0.0
 10
179.8220181186013
 20
137.2740967238318
 30
0.0
 10
179.449139627682
 20
137.2792808658086
 30
0.0
 10
179.2614353847596
 20
137.28459634428
 30
0.0
 10
178.8945164852121
 20
137.3000987253033
 30
0.0
 10
178.7160667431476
 20
137.310198133064
 30
0.0
 10
178.1952778397869
 20
137.3463299747179
 30
0.0
 10
177.8643941201159
 20
137.378759195736
 30
0.0
 10
177.4278925617844
 20
137.4302856871031
 30
0.0
 10
177.2911070227318
 20
137.4480102981471
 30
0.0
 10
177.035382413278
 20
137.4834046246564
 30
0.0
 10
176.9177586851724
 20
137.500901146037
 30
0.0
 10
176.7076892319838
 20
137.5336035420255
 30
0.0
 10
176.6143543932987
 20
137.5489353509715
 30
0.0
 10
176.4514086826196
 20
137.5765315103203
 30
0.0
 10
176.3817057197697
 20
137.588818193434
 30
0.0
 10
176.2710826534376
 20
137.6086631852204
 30
0.0
 10
176.2294009818272
 20
137.6163492977471
 30
0.0
 10
176.173225841452
 20
137.6267666781243
 30
0.0
 10
176.1587875656914
 20
137.6294878358008
 30
0.0
 10
176.1586285705888
 20
137.6295176473814
 30
0.0
 10
176.2142879083256
 20
137.6188555172334
 30
0.0
 10
176.43711266886
 20
137.5788748454984
 30
0.0
 10
176.5990249544536
 20
137.5505385938662
 30
0.0
 10
177.0228165131894
 20
137.4845276849061
 30
0.0
 10
177.2776629357367
 20
137.4480678121149
 30
0.0
 10
177.7163065958504
 20
137.3962162891285
 30
0.0
 10
177.8730041321299
 20
137.3793286550685
 30
0.0
 10
178.1962040819085
 20
137.3486352344476
 30
0.0
 10
178.3638775633287
 20
137.3346754275038
 30
0.0
 10
178.7114624295174
 20
137.3104759983526
 30
0.0
 10
178.8930259103364
 20
137.3001790495218
 30
0.0
 10
179.2592121851452
 20
137.2846731026598
 30
0.0
 10
179.4438696009875
 20
137.2794071207629
 30
0.0
 10
180.002466007546
 20
137.2714842975074
 30
0.0
 10
180.3848003490165
 20
137.277198420881
 30
0.0
 10
181.1120974933849
 20
137.3082575070433
 30
0.0
 10
181.4677915674849
 20
137.3339461430932
 30
0.0
 10
181.9511038444359
 20
137.3800181533013
 30
0.0
 10
182.1048014516524
 20
137.3966203117176
 30
0.0
 10
182.3972236764955
 20
137.4312401669319
 30
0.0
 10
182.5358388997007
 20
137.4492640879703
 30
0.0
 10
182.6637364201506
 20
137.4670262767061
 30
0.0
  0
SPLINE
  5
153
330
1F
100
AcDbEntity
  8
0
  6
HIDDEN
 62
     7
370
     0
100
AcDbSpline
210
0.0
220
0.0
230
1.0
 70
    11
 71
     3
 72
    22
 73
    18
 74
     0
 42
0.00000001
 43
0.00000001
 40
0.0
 40
0.0
 40
0.0
 40
0.0
 40
0.125
 40
0.125
 40
0.2500000000000001
 40
0.2500000000000001
 40
0.3750000000000001
 40
0.3750000000000001
 40
0.5
 40
0.5
 40
0.625
 40
0.625
 40
0.75
 40
0.75
 40
0.8750000000000001
 40
0.8750000000000001
 40
1.0
 40
1.0
 40
1.0
 40
1.0
 10
182.6637364201506
 20
137.4670262767061
 30
0.0
 10
182.8226792491197
 20
137.4890999847532
 30
0.0
 10
182.96337079701
 20
137.5057838027408
 30
0.0
 10
183.2093570344724
 20
137.532005497623
 30
0.0
 10
183.3153951171537
 20
137.5415848034683
 30
0.0
 10
183.4858871577208
 20
137.5556640705475
 30
0.0
 10
183.5499398571845
 20
137.5601706467945
 30
0.0
 10
183.6364439082775
 20
137.5660348166325
 30
0.0
 10
183.6586774036376
 20
137.5673767491508
 30
0.0
 10
183.6587912096495
 20
137.5673838889003
 30
0.0
 10
183.6373332811643
 20
137.566091253414
 30
0.0
 10
183.5513474882853
 20
137.5602698239038
 30
0.0
 10
183.4860333415358
 20
137.555670354628
 30
0.0
 10
183.3170275076004
 20
137.5417253338181
 30
0.0
 10
183.2130684697246
 20
137.5323729469598
 30
0.0
 10
182.9655580234856
 20
137.5060444764934
 30
0.0
 10
182.8226739334019
 20
137.4890992465154
 30
0.0
 10
182.6637364201509
 20
137.4670262767062
 30
0.0
  0
SPLINE
  5
154
330
1F
100
AcDbEntity
  8
0
  6
HIDDEN
 62
     7
370
     0
100
AcDbSpline
210
0.0
220
0.0
230
1.0
 70
    11
 71
     3
 72
    22
 73
    18
 74
     0
 42
0.00000001
 43
0.00000001
 40
0.0
 40
0.0
 40
0.0
 40
0.0
 40
0.1250000000000001
 40
0.1250000000000001
 40
0.2500000000000002
 40
0.2500000000000002
 40
0.3750000000000001
 40
0.3750000000000001
 40
0.5000000000000001
 40
0.5000000000000001
 40
0.6250000000000001
 40
0.6250000000000001
 40
0.75
 40
0.75
 40
0.875
 40
0.875
 40
1.0
 40
1.0
 40
1.0
 40
1.0
 10
182.6637364201506
 20
97.79196932507317
 30
0.0
 10
182.8226792491197
 20
97.76989561702612
 30
0.0
 10
182.96337079701
 20
97.75321179903851
 30
0.0
 10
183.2093570344724
 20
97.72699010415623
 30
0.0
 10
183.3153951171537
 20
97.71741079831092
 30
0.0
 10
183.4858871577208
 20
97.70333153123175
 30
0.0
 10
183.5499398571845
 20
97.69882495498472
 30
0.0
 10
183.6364439082775
 20
97.69296078514681
 30
0.0
 10
183.6586774036376
 20
97.69161885262851
 30
0.0
 10
183.6587912096495
 20
97.691611712879
 30
0.0
 10
183.6373332811643
 20
97.69290434836522
 30
0.0
 10
183.5513474882853
 20
97.69872577787542
 30
0.0
 10
183.4860333415358
 20
97.70332524715127
 30
0.0
 10
183.3170275076004
 20
97.71727026796113
 30
0.0
 10
183.2130684697246
 20
97.72662265481945
 30
0.0
 10
182.9655580234856
 20
97.75295112528588
 30
0.0
 10
182.8226739334019
 20
97.76989635526387
 30
0.0
 10
182.6637364201509
 20
97.79196932507308
 30
0.0
  0
LINE
  5
155
330
1F
100
AcDbEntity
  8
0
  6
HIDDEN
 62
     7
370
     0
100
AcDbLine
 10
188.9087344185
 20
100.6294978009
 30
0.0
 11
188.9087344185
 21
134.6108129561
 31
0.0
  0
LINE
  5
156
330
1F
100
AcDbEntity
  8
0
  6
HIDDEN
 62
     7
370
     0
100
AcDbLine
 10
208.7925867954
 20
137.4794978009
 30
0.0
 11
214.8587344185
 21
137.4794978009
 31
0.0
  0
LINE
  5
157
330
1F
100
AcDbEntity
  8
0
  6
HIDDEN
 62
     7
370
     0
100
AcDbLine
 10
201.1043547642
 20
137.4794978009
 30
0.0
 11
205.0248820417
 21
137.4794978009
 31
0.0
  0
LINE
  5
158
330
1F
100
AcDbEntity
  8
0
  6
HIDDEN
 62
     7
370
     0
100
AcDbLine
 10
169.9127090148
 20
134.6294978009
 30
0.0
 11
169.9127090148
 21
100.6294978009
 31
0.0
  0
LWPOLYLINE
  5
159
330
1F
100
AcDbEntity
  8
0
  6
HIDDEN
 62
     7
370
     0
100
AcDbPolyline
 90
        2
 70
   128
 43
0.0
 10
169.9127090148
 20
100.6294978009
 10
169.9127090148
 20
100.6294978009
  0
LINE
  5
15A
330
1F
100
AcDbEntity
  8
0
  6
HIDDEN
 62
     7
370
     0
100
AcDbLine
 10
157.0087344185
 20
101.3589838073
 30
0.0
 11
157.0087344185
 21
133.8755904786
 31
0.0
  0
LINE
  5
15B
330
1F
100
AcDbEntity
  8
0
  6
HIDDEN
 62
     7
370
     0
100
AcDbLine
 10
196.5685603871
 20
134.6294978009
 30
0.0
 11
196.5685603871
 21
100.6294978009
 31
0.0
  0
LWPOLYLINE
  5
15C
330
1F
100
AcDbEntity
  8
0
  6
HIDDEN
 62
     7
370
     0
100
AcDbPolyline
 90
        2
 70
   128
 43
0.0
 10
196.5685603871
 20
100.6294978009
 10
196.5685603871
 20
100.6294978009
  0
LINE
  5
15D
330
1F
100
AcDbEntity
  8
0
  6
HIDDEN
 62
     7
370
     0
100
AcDbLine
 10
198.8587344185
 20
133.3544977787
 30
0.0
 11
198.8587344185
 21
101.9044978009
 31
0.0
  0
LWPOLYLINE
  5
15E
330
1F
100
AcDbEntity
  8
0
  6
HIDDEN
 62
     7
370
     0
100
AcDbPolyline
 90
        2
 70
   128
 43
0.0
 10
198.8587344185
 20
101.9044978009
 10
198.8587344185
 20
101.9044978009
  0
LINE
  5
15F
330
1F
100
AcDbEntity
  8
0
  6
HIDDEN
 62
     7
370
     0
100
AcDbLine
 10
158.1587344185
 20
101.8053123953
 30
0.0
 11
165.7087344185
 21
101.8053123953
 31
0.0
  0
LINE
  5
160
330
1F
100
AcDbEntity
  8
0
  6
HIDDEN
 62
     7
370
     0
100
AcDbLine
 10
158.1587344185
 20
133.4309882369
 30
0.0
 11
158.1587344185
 21
101.8053123953
 31
0.0
  0
LINE
  5
161
330
1F
100
AcDbEntity
  8
0
  6
HIDDEN
 62
     7
370
     0
100
AcDbLine
 10
161.7087344185
 20
133.4309882369
 30
0.0
 11
158.1587344185
 21
133.4309882369
 31
0.0
  0
SPLINE
  5
162
330
1F
100
AcDbEntity
  8
0
  6
HIDDEN
 62
     7
370
     0
100
AcDbSpline
210
0.0
220
0.0
230
1.0
 70
     8
 71
     3
 72
    18
 73
    14
 74
     0
 42
0.00000001
 43
0.00000001
 40
0.0
 40
0.0
 40
0.0
 40
0.0
 40
0.2500000000000013
 40
0.2500000000000013
 40
0.3750000000000012
 40
0.3750000000000012
 40
0.5000000000000012
 40
0.5000000000000012
 40
0.6250000000000012
 40
0.6250000000000012
 40
0.7500000000000011
 40
0.7500000000000011
 40
1.0
 40
1.0
 40
1.0
 40
1.0
 10
163.1087344185489
 20
133.9170114232938
 30
0.0
 10
163.1087344185489
 20
133.8625369027415
 30
0.0
 10
163.0738237271568
 20
133.8061558433891
 30
0.0
 10
162.9718144258238
 20
133.7220790025356
 30
0.0
 10
162.9301780711456
 20
133.6947452985447
 30
0.0
 10
162.8317722756569
 20
133.6417913829457
 30
0.0
 10
162.7742290639526
 20
133.6159040292285
 30
0.0
 10
162.6469308903797
 20
133.5681264843953
 30
0.0
 10
162.5773435856222
 20
133.5461785662174
 30
0.0
 10
162.4259093404673
 20
133.5067460013047
 30
0.0
 10
162.3432254373733
 20
133.4891897520788
 30
0.0
 10
162.0871139753352
 20
133.4467509866583
 30
0.0
 10
161.8991989714472
 20
133.4309882369213
 30
0.0
 10
161.708734418549
 20
133.4309882369213
 30
0.0
  0
LINE
  5
163
330
1F
100
AcDbEntity
  8
0
  6
HIDDEN
 62
     7
370
     0
100
AcDbLine
 10
163.1087344185
 20
133.9170114233
 30
0.0
 11
163.1087344185
 21
134.6294978009
 31
0.0
  0
SPLINE
  5
164
330
1F
100
AcDbEntity
  8
0
  6
HIDDEN
 62
     7
370
     0
100
AcDbSpline
210
0.0
220
0.0
230
1.0
 70
     8
 71
     3
 72
    18
 73
    14
 74
     0
 42
0.00000001
 43
0.00000001
 40
0.0
 40
0.0
 40
0.0
 40
0.0
 40
0.2499999999999967
 40
0.2499999999999967
 40
0.3749999999999965
 40
0.3749999999999965
 40
0.4999999999999963
 40
0.4999999999999963
 40
0.6249999999999961
 40
0.6249999999999961
 40
0.749999999999996
 40
0.749999999999996
 40
1.0
 40
1.0
 40
1.0
 40
1.0
 10
163.1087344185489
 20
133.9170114232938
 30
0.0
 10
163.108734418549
 20
133.8625369027415
 30
0.0
 10
163.0738237271568
 20
133.8061558433891
 30
0.0
 10
162.9718144258237
 20
133.7220790025356
 30
0.0
 10
162.9301780711456
 20
133.6947452985447
 30
0.0
 10
162.8317722756569
 20
133.6417913829457
 30
0.0
 10
162.7742290639526
 20
133.6159040292285
 30
0.0
 10
162.6469308903797
 20
133.5681264843953
 30
0.0
 10
162.5773435856222
 20
133.5461785662174
 30
0.0
 10
162.4259093404673
 20
133.5067460013047
 30
0.0
 10
162.3432254373733
 20
133.4891897520788
 30
0.0
 10
162.0871139753352
 20
133.4467509866583
 30
0.0
 10
161.8991989714472
 20
133.4309882369213
 30
0.0
 10
161.708734418549
 20
133.4309882369213
 30
0.0
  0
LINE
  5
165
330
1F
100
AcDbEntity
  8
0
  6
HIDDEN
 62
     7
370
     0
100
AcDbLine
 10
161.7087344185
 20
133.4309882369
 30
0.0
 11
158.1587344185
 21
133.4309882369
 31
0.0
  0
LINE
  5
166
330
1F
100
AcDbEntity
  8
0
  6
HIDDEN
 62
     7
370
     0
100
AcDbLine
 10
158.1587344185
 20
101.8053123953
 30
0.0
 11
165.7087344185
 21
101.8053123953
 31
0.0
  0
SPLINE
  5
167
330
1F
100
AcDbEntity
  8
0
  6
HIDDEN
 62
     7
370
     0
100
AcDbSpline
210
0.0
220
0.0
230
1.0
 70
     8
 71
     3
 72
    16
 73
    12
 74
     0
 42
0.00000001
 43
0.00000001
 40
0.0
 40
0.0
 40
0.0
 40
0.0
 40
0.125
 40
0.125
 40
0.25
 40
0.25
 40
0.5
 40
0.5
 40
0.75
 40
0.75
 40
1.0
 40
1.0
 40
1.0
 40
1.0
 10
165.708734418549
 20
101.8053123953151
 30
0.0
 10
165.8037950083121
 20
101.805312395315
 30
0.0
 10
165.897069431243
 20
101.8015417237591
 30
0.0
 10
166.080229624512
 20
101.7869452147924
 30
0.0
 10
166.1710640176438
 20
101.7759186002339
 30
0.0
 10
166.4278025068355
 20
101.7339378063306
 30
0.0
 10
166.582878695001
 20
101.6933595245556
 30
0.0
 10
166.8367146060595
 20
101.5992862719052
 30
0.0
 10
166.9376676213712
 20
101.5451310317494
 30
0.0
 10
167.0730160762446
 20
101.4351530001463
 30
0.0
 10
167.1087344185489
 20
101.3786480135322
 30
0.0
 10
167.1087344185489
 20
101.3249020147317
 30
0.0
  0
LINE
  5
168
330
1F
100
AcDbEntity
  8
0
  6
HIDDEN
 62
     7
370
     0
100
AcDbLine
 10
167.1087344185
 20
101.3249020147
 30
0.0
 11
167.1087344185
 21
100.6294978009
 31
0.0
  0
SPLINE
  5
169
330
1F
100
AcDbEntity
  8
0
  6
HIDDEN
 62
     7
370
     0
100
AcDbSpline
210
0.0
220
0.0
230
1.0
 70
     8
 71
     3
 72
    16
 73
    12
 74
     0
 42
0.00000001
 43
0.00000001
 40
0.0
 40
0.0
 40
0.0
 40
0.0
 40
0.1249999999999998
 40
0.1249999999999998
 40
0.2499999999999997
 40
0.2499999999999997
 40
0.4999999999999998
 40
0.4999999999999998
 40
0.7499999999999999
 40
0.7499999999999999
 40
1.0
 40
1.0
 40
1.0
 40
1.0
 10
165.708734418549
 20
101.8053123953151
 30
0.0
 10
165.8037950083121
 20
101.8053123953151
 30
0.0
 10
165.897069431243
 20
101.8015417237591
 30
0.0
 10
166.080229624512
 20
101.7869452147924
 30
0.0
 10
166.1710640176438
 20
101.7759186002339
 30
0.0
 10
166.4278025068355
 20
101.7339378063306
 30
0.0
 10
166.582878695001
 20
101.6933595245556
 30
0.0
 10
166.8367146060594
 20
101.5992862719052
 30
0.0
 10
166.9376676213712
 20
101.5451310317494
 30
0.0
 10
167.0730160762446
 20
101.4351530001464
 30
0.0
 10
167.108734418549
 20
101.3786480135322
 30
0.0
 10
167.108734418549
 20
101.3249020147317
 30
0.0
  0
LINE
  5
16A
330
1F
100
AcDbEntity
  8
0
  6
HIDDEN
 62
     7
370
     0
100
AcDbLine
 10
158.1587344185
 20
101.8053123953
 30
0.0
 11
158.1587344185
 21
133.4309882369
 31
0.0
  0
LWPOLYLINE
  5
16B
330
1F
100
AcDbEntity
  8
0
  6
HIDDEN
 62
     7
370
     0
100
AcDbPolyline
 90
       31
 70
   128
 43
0.0
 10
247.0555535707
 20
95.7869177728
 10
247.0021996982
 20
96.50388928
 10
246.8006053257
 20
97.1895256919
 10
246.4595810947
 20
97.8138614072
 10
245.9940314004
 20
98.3496099594
 10
245.4243029986
 20
98.7733565659
 10
244.7752957542
 20
99.0665814666
 10
244.075374398
 20
99.2164693263
 10
243.355128852
 20
99.2164693263
 10
242.6460373026
 20
99.0665814666
 10
241.9790904531
 20
98.7733565659
 10
241.3834370812
 20
98.3496099594
 10
240.8851100976
 20
97.8138614072
 10
240.5058887826
 20
97.1895256919
 10
240.2623469274
 20
96.50388928
 10
240.1651284797
 20
95.7869177728
 10
240.2184823523
 20
95.0699462656
 10
240.4200767248
 20
94.3843098537
 10
240.7611009558
 20
93.7599741383
 10
241.22665065
 20
93.2242255861
 10
241.7963790518
 20
92.8004789797
 10
242.4453862962
 20
92.507254079
 10
243.1453076524
 20
92.3573662192
 10
243.8655531984
 20
92.3573662192
 10
244.5746447478
 20
92.507254079
 10
245.2415915973
 20
92.8004789797
 10
245.8372449692
 20
93.2242255861
 10
246.3355719528
 20
93.7599741383
 10
246.7147932679
 20
94.3843098537
 10
246.958335123
 20
95.0699462656
 10
247.0555535707
 20
95.7869177728
  0
ELLIPSE
  5
16C
330
1F
100
AcDbEntity
  8
0
  6
HIDDEN
 62
     7
370
     0
100
AcDbEllipse
 10
242.8553750869
 20
117.6294978009
 30
0.0
 11
-9.450908103285885
 21
26.9816552393449
 31
0.0
210
0.0
220
0.0
230
1.0
 40
0.1052944749
 41
6.246320350037565
 42
7.817116676832324
  0
LINE
  5
16D
330
1F
100
AcDbEntity
  8
0
  6
HIDDEN
 62
     7
370
     0
100
AcDbLine
 10
231.176683611
 20
117.6294978009
 30
0.0
 11
231.176683611
 21
144.6294978009
 31
0.0
  0
LINE
  5
16E
330
1F
100
AcDbEntity
  8
0
  6
HIDDEN
 62
     7
370
     0
100
AcDbLine
 10
233.6389635179
 20
93.5324166018
 30
0.0
 11
233.6389635179
 21
81.4401440858
 31
0.0
  0
SPLINE
  5
16F
330
1F
100
AcDbEntity
  8
0
  6
HIDDEN
 62
     7
370
     0
100
AcDbSpline
210
0.0
220
0.0
230
1.0
 70
     8
 71
     3
 72
    14
 73
    10
 74
     0
 42
0.00000001
 43
0.00000001
 40
0.0
 40
0.0
 40
0.0
 40
0.0
 40
0.125
 40
0.125
 40
0.2500000000000001
 40
0.2500000000000001
 40
0.5000000000000001
 40
0.5000000000000001
 40
1.0
 40
1.0
 40
1.0
 40
1.0
 10
231.1766836109801
 20
117.6294978008896
 30
0.0
 10
231.1766836109801
 20
116.620543726593
 30
0.0
 10
231.1918847242351
 20
115.6104327145067
 30
0.0
 10
231.2523281696374
 20
113.5879242905949
 30
0.0
 10
231.2976353571853
 20
112.5744800115136
 30
0.0
 10
231.4758802429224
 20
109.5400014961672
 30
0.0
 10
231.6510763729912
 20
107.5252119854142
 30
0.0
 10
232.3118345443708
 20
101.5004983857472
 30
0.0
 10
232.9293381455639
 20
97.50975981628238
 30
0.0
 10
233.6389635179004
 20
93.53241660180286
 30
0.0
  0
LINE
  5
170
330
1F
100
AcDbEntity
  8
0
  6
HIDDEN
 62
     7
370
     0
100
AcDbLine
 10
158.1587344185
 20
99.6394978009
 30
0.0
 11
158.1587344185
 21
96.759762268
 31
0.0
  0
LINE
  5
171
330
1F
100
AcDbEntity
  8
0
  6
HIDDEN
 62
     7
370
     0
100
AcDbLine
 10
167.1087344185
 20
99.6394978009
 30
0.0
 11
167.1087344185
 21
95.6551820927
 31
0.0
  0
LINE
  5
172
330
1F
100
AcDbEntity
  8
0
  6
HIDDEN
 62
     7
370
     0
100
AcDbLine
 10
163.1087344185
 20
135.6194978009
 30
0.0
 11
163.1087344185
 21
139.4736054733
 31
0.0
  0
LINE
  5
173
330
1F
100
AcDbEntity
  8
0
  6
HIDDEN
 62
     7
370
     0
100
AcDbLine
 10
158.1587344185
 20
135.6194978009
 30
0.0
 11
158.1587344185
 21
138.4994355663
 31
0.0
  0
LINE
  5
174
330
1F
100
AcDbEntity
  8
0
  6
HIDDEN
 62
     7
370
     0
100
AcDbLine
 10
157.0087344185
 20
135.6194978009
 30
0.0
 11
157.0087344185
 21
137.6055583055
 31
0.0
  0
LINE
  5
175
330
1F
100
AcDbEntity
  8
0
  6
HIDDEN
 62
     7
370
     0
100
AcDbLine
 10
157.0087344185
 20
99.6394978009
 30
0.0
 11
157.0087344185
 21
97.640675362
 31
0.0
  0
LINE
  5
176
330
1F
100
AcDbEntity
  8
0
  6
HIDDEN
 62
     7
370
     0
100
AcDbLine
 10
210.7087344185
 20
127.1294978009
 30
0.0
 11
210.7087344185
 21
108.1294978009
 31
0.0
  0
LINE
  5
177
330
1F
100
AcDbEntity
  8
0
  6
HIDDEN
 62
     7
370
     0
100
AcDbLine
 10
208.2087344185
 20
127.1294978009
 30
0.0
 11
208.2087344185
 21
108.1294978009
 31
0.0
  0
LWPOLYLINE
  5
178
330
1F
100
AcDbEntity
  8
0
  6
HIDDEN
 62
     7
370
     0
100
AcDbPolyline
 90
        2
 70
   128
 43
0.0
 10
214.8587344185
 20
91.2294978009
 10
214.8587344185
 20
91.2294978009
  0
LINE
  5
179
330
1F
100
AcDbEntity
  8
0
  6
HIDDEN
 62
     7
370
     0
100
AcDbLine
 10
214.8587344185
 20
91.2294978009
 30
0.0
 11
208.7210596162
 21
91.2294978009
 31
0.0
  0
LINE
  5
17A
330
1F
100
AcDbEntity
  8
0
  6
HIDDEN
 62
     7
370
     0
100
AcDbLine
 10
208.8187344185
 20
90.1316606418
 30
0.0
 11
208.8187344185
 21
90.8251021726
 31
0.0
  0
LINE
  5
17B
330
1F
100
AcDbEntity
  8
0
  6
HIDDEN
 62
     7
370
     0
100
AcDbLine
 10
214.8587344185
 20
91.2294978009
 30
0.0
 11
214.8587344185
 21
88.0692204003
 31
0.0
  0
LINE
  5
17C
330
1F
100
AcDbEntity
  8
0
  6
HIDDEN
 62
     7
370
     0
100
AcDbLine
 10
193.8587344185
 20
86.145374818
 30
0.0
 11
193.8587344185
 21
91.2294978009
 31
0.0
  0
LINE
  5
17D
330
1F
100
AcDbEntity
  8
0
  6
HIDDEN
 62
     7
370
     0
100
AcDbLine
 10
201.8587344185
 20
91.2294978009
 30
0.0
 11
193.8587344185
 21
91.2294978009
 31
0.0
  0
LINE
  5
17E
330
1F
100
AcDbEntity
  8
0
  6
HIDDEN
 62
     7
370
     0
100
AcDbLine
 10
205.0964092209
 20
91.2294978009
 30
0.0
 11
201.8587344185
 21
91.2294978009
 31
0.0
  0
LINE
  5
17F
330
1F
100
AcDbEntity
  8
0
  6
HIDDEN
 62
     7
370
     0
100
AcDbLine
 10
204.9987344185
 20
90.8251021726
 30
0.0
 11
204.9987344185
 21
90.1316606418
 31
0.0
  0
LINE
  5
180
330
1F
100
AcDbEntity
  8
0
  6
HIDDEN
 62
     7
370
     0
100
AcDbLine
 10
199.3587344185
 20
126.1294978009
 30
0.0
 11
199.3587344185
 21
109.1294978009
 31
0.0
  0
LINE
  5
181
330
1F
100
AcDbEntity
  8
0
  6
HIDDEN
 62
     7
370
     0
100
AcDbLine
 10
198.8587344185
 20
108.6294978009
 30
0.0
 11
198.8587344185
 21
126.6110063356
 31
0.0
  0
LINE
  5
182
330
1F
100
AcDbEntity
  8
0
  6
HIDDEN
 62
     7
370
     0
100
AcDbLine
 10
208.2087344185
 20
109.1294978009
 30
0.0
 11
208.2087344185
 21
126.1105162692
 31
0.0
  0
LWPOLYLINE
  5
183
330
1F
100
AcDbEntity
  8
0
  6
HIDDEN
 62
     7
370
     0
100
AcDbPolyline
 90
        2
 70
   128
 43
0.0
 10
214.8587344185
 20
144.0294978009
 10
214.8587344185
 20
144.0294978009
  0
LINE
  5
184
330
1F
100
AcDbEntity
  8
0
  6
HIDDEN
 62
     7
370
     0
100
AcDbLine
 10
214.8587344185
 20
144.0294978009
 30
0.0
 11
208.4244368869
 21
144.0294978009
 31
0.0
  0
LINE
  5
185
330
1F
100
AcDbEntity
  8
0
  6
HIDDEN
 62
     7
370
     0
100
AcDbLine
 10
208.8187344185
 20
145.4347319921
 30
0.0
 11
208.8187344185
 21
144.7491516519
 31
0.0
  0
LINE
  5
186
330
1F
100
AcDbEntity
  8
0
  6
HIDDEN
 62
     7
370
     0
100
AcDbLine
 10
214.8587344185
 20
144.0294978009
 30
0.0
 11
214.8587344185
 21
147.4759381247
 31
0.0
  0
LINE
  5
187
330
1F
100
AcDbEntity
  8
0
  6
HIDDEN
 62
     7
370
     0
100
AcDbLine
 10
205.3930319502
 20
144.0294978009
 30
0.0
 11
201.8587344185
 21
144.0294978009
 31
0.0
  0
LINE
  5
188
330
1F
100
AcDbEntity
  8
0
  6
HIDDEN
 62
     7
370
     0
100
AcDbLine
 10
204.9987344185
 20
144.7491516519
 30
0.0
 11
204.9987344185
 21
145.4347319921
 31
0.0
  0
LINE
  5
189
330
1F
100
AcDbEntity
  8
0
  6
HIDDEN
 62
     7
370
     0
100
AcDbLine
 10
201.8587344185
 20
144.0294978009
 30
0.0
 11
193.8587344185
 21
144.0294978009
 31
0.0
  0
LWPOLYLINE
  5
18A
330
1F
100
AcDbEntity
  8
0
  6
HIDDEN
 62
     7
370
     0
100
AcDbPolyline
 90
       31
 70
   128
 43
0.0
 10
246.3124439817
 20
96.5187378574
 10
246.2152255341
 20
95.8017663502
 10
245.9716836789
 20
95.1161299383
 10
245.5924623639
 20
94.4917942229
 10
245.0941353802
 20
93.9560456707
 10
244.4984820083
 20
93.5322990642
 10
243.8315351588
 20
93.2390741635
 10
243.1224436094
 20
93.0891863038
 10
242.4021980634
 20
93.0891863038
 10
241.7022767073
 20
93.2390741635
 10
241.0532694628
 20
93.5322990642
 10
240.483541061
 20
93.9560456707
 10
240.0179913668
 20
94.4917942229
 10
239.6769671358
 20
95.1161299383
 10
239.4753727633
 20
95.8017663502
 10
239.4220188907
 20
96.5187378574
 10
239.5192373384
 20
97.2357093645
 10
239.7627791936
 20
97.9213457764
 10
240.1420005086
 20
98.5456814918
 10
240.6403274923
 20
99.081430044
 10
241.2359808641
 20
99.5051766505
 10
241.9029277136
 20
99.7984015512
 10
242.612019263
 20
99.9482894109
 10
243.332264809
 20
99.9482894109
 10
244.0321861652
 20
99.7984015512
 10
244.6811934096
 20
99.5051766505
 10
245.2509218114
 20
99.081430044
 10
245.7164715057
 20
98.5456814918
 10
246.0574957367
 20
97.9213457764
 10
246.2590901092
 20
97.2357093645
 10
246.3124439817
 20
96.5187378574
  0
SPLINE
  5
18B
330
1F
100
AcDbEntity
  8
0
  6
HIDDEN
 62
     7
370
     0
100
AcDbSpline
210
0.0
220
0.0
230
1.0
 70
     8
 71
     3
 72
     8
 73
     4
 74
     0
 42
0.00000001
 43
0.00000001
 40
0.0000002438860713
 40
0.0000002438860713
 40
0.0000002438860713
 40
0.0000002438860713
 40
0.0014006025853533
 40
0.0014006025853533
 40
0.0014006025853533
 40
0.0014006025853533
 10
158.158734418549
 20
133.4309882369213
 30
0.0
 10
157.775947345984
 20
133.5810597648971
 30
0.0
 10
157.3925939460279
 20
133.7292169668145
 30
0.0
 10
157.008734418549
 20
133.8755904786177
 30
0.0
  0
LINE
  5
18C
330
1F
100
AcDbEntity
  8
0
  6
HIDDEN
 62
     7
370
     0
100
AcDbLine
 10
157.0087344185
 20
135.6194978009
 30
0.0
 11
157.0087344185
 21
133.8755904786
 31
0.0
  0
SPLINE
  5
18D
330
1F
100
AcDbEntity
  8
0
  6
HIDDEN
 62
     7
370
     0
100
AcDbSpline
210
0.0
220
0.0
230
1.0
 70
     8
 71
     3
 72
     8
 73
     4
 74
     0
 42
0.00000001
 43
0.00000001
 40
0.0000002432968744
 40
0.0000002432968744
 40
0.0000002432968744
 40
0.0000002432968744
 40
0.0014011510532366
 40
0.0014011510532366
 40
0.0014011510532366
 40
0.0014011510532366
 10
157.008734418549
 20
101.3589838072744
 30
0.0
 10
157.3925988852856
 20
101.5059227197366
 30
0.0
 10
157.7759525071092
 20
101.6546550795546
 30
0.0
 10
158.158734418549
 20
101.8053123953151
 30
0.0
  0
LINE
  5
18E
330
1F
100
AcDbEntity
  8
0
  6
HIDDEN
 62
     7
370
     0
100
AcDbLine
 10
157.0087344185
 20
99.6394978009
 30
0.0
 11
157.0087344185
 21
101.3589838073
 31
0.0
  0
ARC
  5
18F
330
1F
100
AcDbEntity
  8
0
  6
HIDDEN
 62
     7
370
     0
100
AcDbCircle
 10
237.5211678003
 20
90.6894263412
 30
0.0
 40
2.086375308878524
100
AcDbArc
 50
73.2481478137
 51
252.0663569283
  0
LINE
  5
190
330
1F
100
AcDbEntity
  8
0
  6
HIDDEN
 62
     7
370
     0
100
AcDbLine
 10
252.1857042709
 20
88.6837532521
 30
0.0
 11
253.7867404691
 21
87.1070403914
 31
0.0
  0
LINE
  5
191
330
1F
100
AcDbEntity
  8
0
  6
HIDDEN
 62
     7
370
     0
100
AcDbLine
 10
158.1587344185
 20
135.6194978009
 30
0.0
 11
158.1587344185
 21
133.4309882369
 31
0.0
  0
LINE
  5
192
330
1F
100
AcDbEntity
  8
0
  6
HIDDEN
 62
     7
370
     0
100
AcDbLine
 10
163.1087344185
 20
135.6194978009
 30
0.0
 11
163.1087344185
 21
133.9170114233
 31
0.0
  0
LINE
  5
193
330
1F
100
AcDbEntity
  8
0
  6
HIDDEN
 62
     7
370
     0
100
AcDbLine
 10
158.1587344185
 20
99.6394978009
 30
0.0
 11
158.1587344185
 21
101.8053123953
 31
0.0
  0
LINE
  5
194
330
1F
100
AcDbEntity
  8
0
  6
HIDDEN
 62
     7
370
     0
100
AcDbLine
 10
167.1087344185
 20
99.6394978009
 30
0.0
 11
167.1087344185
 21
101.3249020147
 31
0.0
  0
LINE
  5
195
330
1F
100
AcDbEntity
  8
0
  6
HIDDEN
 62
     7
370
     0
100
AcDbLine
 10
236.8787408706
 20
88.7044201524
 30
0.0
 11
237.0742738416
 21
88.6487558399
 31
0.0
  0
ELLIPSE
  5
196
330
1F
100
AcDbEntity
  8
0
  6
HIDDEN
 62
     7
370
     0
100
AcDbEllipse
 10
231.5133722049
 20
113.6396043777
 30
0.0
 11
-12.43317097339224
 21
35.44870232600204
 31
0.0
210
0.0
220
0.0
230
1.0
 40
0.1046716309
 41
2.896195334279783
 42
3.061943228106748
  0
SPLINE
  5
197
330
1F
100
AcDbEntity
  8
0
  6
HIDDEN
 62
     7
370
     0
100
AcDbSpline
210
0.0
220
0.0
230
1.0
 70
     8
 71
     3
 72
     8
 73
     4
 74
     0
 42
0.00000001
 43
0.00000001
 40
0.0
 40
0.0
 40
0.0
 40
0.0
 40
1.0
 40
1.0
 40
1.0
 40
1.0
 10
255.75931232504
 20
75.15619272959164
 30
0.0
 10
251.3913148142198
 20
76.39806588059376
 30
0.0
 10
247.0284779872142
 20
77.65632005553334
 30
0.0
 10
242.6726273100549
 20
78.93674964209981
 30
0.0
  0
SPLINE
  5
198
330
1F
100
AcDbEntity
  8
0
  6
HIDDEN
 62
     7
370
     0
100
AcDbSpline
210
0.0
220
0.0
230
1.0
 70
     8
 71
     3
 72
    47
 73
    43
 74
     0
 42
0.00000001
 43
0.00000001
 40
0.0
 40
0.0
 40
0.0
 40
0.0
 40
0.0285366097986384
 40
0.0569013850684012
 40
0.0850934613977069
 40
0.1131119856001408
 40
0.1409561158192374
 40
0.1686250216356243
 40
0.1961178841766256
 40
0.223433896228475
 40
0.2505722623513176
 40
0.2775321989971
 40
0.3043129346305752
 40
0.3309137098535412
 40
0.3573337775325238
 40
0.383572402930081
 40
0.4096288638399071
 40
0.4355024507259907
 40
0.4611924668659869
 40
0.4866982284990697
 40
0.5120190649784888
 40
0.5371543189290751
 40
0.562103346409989
 40
0.5868655170829398
 40
0.6114402143862234
 40
0.6358268357148386
 40
0.6600247926070373
 40
0.6840335109376434
 40
0.7078524311184834
 40
0.7314810083063394
 40
0.7549187126187893
 40
0.7781650293583879
 40
0.8012194592456267
 40
0.8240815186611156
 40
0.8467507398975394
 40
0.8692266714218572
 40
0.8915088781483448
 40
0.9135969417230345
 40
0.9354904608202003
 40
0.9571890514515323
 40
0.9786923472886926
 40
0.9999999999999999
 40
0.9999999999999999
 40
0.9999999999999999
 40
0.9999999999999999
 10
249.8566964149811
 20
86.16822213070444
 30
0.0
 10
249.9231691289656
 20
86.02172307527928
 30
0.0
 10
250.0557142883822
 20
85.72960711533433
 30
0.0
 10
250.2521014798867
 20
85.30044971734738
 30
0.0
 10
250.4459468456126
 20
84.87959673259226
 30
0.0
 10
250.6371210551466
 20
84.46759541102682
 30
0.0
 10
250.8256584469043
 20
84.0643021309808
 30
0.0
 10
251.0115499069326
 20
83.66975049700831
 30
0.0
 10
251.1947978563187
 20
83.2839210209907
 30
0.0
 10
251.3754016544037
 20
82.90680241008566
 30
0.0
 10
251.5533614731997
 20
82.5383754479726
 30
0.0
 10
251.7286772691157
 20
82.17861742217383
 30
0.0
 10
251.9013490558353
 20
81.82750109889757
 30
0.0
 10
252.0713768319123
 20
81.48499514500803
 30
0.0
 10
252.2387605999823
 20
81.15106416609007
 30
0.0
 10
252.4035003616678
 20
80.82566884630651
 30
0.0
 10
252.565596118932
 20
80.50876606105756
 30
0.0
 10
252.7250478737212
 20
80.20030899653389
 30
0.0
 10
252.8818556280618
 20
79.90024726699804
 30
0.0
 10
253.0360193840364
 20
79.60852703210772
 30
0.0
 10
253.1875391437924
 20
79.3250911135541
 30
0.0
 10
253.3364149095413
 20
79.04987911109987
 30
0.0
 10
253.4826466835618
 20
78.78282751789054
 30
0.0
 10
253.6262344681999
 20
78.52386983497372
 30
0.0
 10
253.7671782658718
 20
78.27293668494781
 30
0.0
 10
253.9054780790646
 20
78.02995592467421
 30
0.0
 10
254.0411339103408
 20
77.79485275697112
 30
0.0
 10
254.1741457623283
 20
77.56754984127977
 30
0.0
 10
254.3045136377654
 20
77.34796740303825
 30
0.0
 10
254.4322375393442
 20
77.13602334246175
 30
0.0
 10
254.557317470293
 20
76.93163333988606
 30
0.0
 10
254.6797534322379
 20
76.73471096790604
 30
0.0
 10
254.7995454330938
 20
76.54516777235602
 30
0.0
 10
254.9166934579839
 20
76.36291346180698
 30
0.0
 10
255.0311975764216
 20
76.18785569059311
 30
0.0
 10
255.1430575473642
 20
76.01990133293684
 30
0.0
 10
255.2522742743366
 20
75.85895225629861
 30
0.0
 10
255.3588444450243
 20
75.70492135211211
 30
0.0
 10
255.4627802752357
 20
75.55767394312612
 30
0.0
 10
255.5640367965201
 20
75.41724401226742
 30
0.0
 10
255.6627795999711
 20
75.28303843628207
 30
0.0
 10
255.7268189085555
 20
75.19847069680341
 30
0.0
 10
255.7586922352034
 20
75.15638006147557
 30
0.0
  0
SPLINE
  5
199
330
1F
100
AcDbEntity
  8
0
  6
HIDDEN
 62
     7
370
     0
100
AcDbSpline
210
0.0
220
0.0
230
1.0
 70
     8
 71
     3
 72
    10
 73
     6
 74
     0
 42
0.00000001
 43
0.00000001
 40
0.0
 40
0.0
 40
0.0
 40
0.0
 40
0.5
 40
0.5
 40
1.0
 40
1.0
 40
1.0
 40
1.0
 10
233.6389635178985
 20
93.53241660179887
 30
0.0
 10
236.3077256044965
 20
92.23014285922477
 30
0.0
 10
239.0010801422206
 20
90.97370205616949
 30
0.0
 10
244.4103502721062
 20
88.52698777823716
 30
0.0
 10
247.1283607987238
 20
87.33606663509887
 30
0.0
 10
249.8558893244087
 20
86.16822699640066
 30
0.0
  0
SPLINE
  5
19A
330
1F
100
AcDbEntity
  8
0
  6
HIDDEN
 62
     7
370
     0
100
AcDbSpline
210
0.0
220
0.0
230
1.0
 70
    11
 71
     3
 72
    34
 73
    30
 74
     0
 42
0.00000001
 43
0.00000001
 40
0.0
 40
0.0
 40
0.0
 40
0.0
 40
0.0127738756313289
 40
0.0481305018861233
 40
0.0807425016923874
 40
0.1375890913626791
 40
0.1884518731192144
 40
0.2226712138150559
 40
0.262693837294906
 40
0.298655835981045
 40
0.3315197765429404
 40
0.3878459718944416
 40
0.3881759530738131
 40
0.4440926113325733
 40
0.4768435653244544
 40
0.5126448960710515
 40
0.5530084671478227
 40
0.587385594001596
 40
0.6380121006395839
 40
0.6949796268749192
 40
0.7275539945507918
 40
0.7628079420080929
 40
0.8028703493977619
 40
0.8370831563378053
 40
0.8877749825785499
 40
0.8880422190911558
 40
0.9388397946263274
 40
0.9729712758707626
 40
1.0
 40
1.0
 40
1.0
 40
1.0
 10
177.0687463310377
 20
94.56183594435058
 30
0.0
 10
177.1279399836391
 20
94.5679248481427
 30
0.0
 10
177.3509748941399
 20
94.59086714098382
 30
0.0
 10
177.8743273383937
 20
94.62751189353514
 30
0.0
 10
178.7470908094112
 20
94.65519591986975
 30
0.0
 10
179.8619287011836
 20
94.6446403459126
 30
0.0
 10
180.9749941037065
 20
94.52849524659464
 30
0.0
 10
181.8694355862709
 20
94.40690448638068
 30
0.0
 10
182.5532705056945
 20
94.28514581637951
 30
0.0
 10
183.0940210331809
 20
94.16878718252501
 30
0.0
 10
183.5074514838895
 20
94.07530399684875
 30
0.0
 10
183.7356001006932
 20
94.0086702444323
 30
0.0
 10
183.5810578051507
 20
94.04993490189243
 30
0.0
 10
183.5541816597474
 20
94.06240502974809
 30
0.0
 10
183.0983971887231
 20
94.16795477164334
 30
0.0
 10
182.5744746616164
 20
94.28070064277583
 30
0.0
 10
181.8882646021551
 20
94.4037995155235
 30
0.0
 10
180.9951518560621
 20
94.52579069821229
 30
0.0
 10
179.8817153147801
 20
94.64354332561057
 30
0.0
 10
178.7709646890173
 20
94.6555138509192
 30
0.0
 10
177.8862126200377
 20
94.62845639841855
 30
0.0
 10
177.2190169701593
 20
94.58052398500958
 30
0.0
 10
176.6777440159819
 20
94.52423117940342
 30
0.0
 10
176.2901648214829
 20
94.47914578400545
 30
0.0
 10
176.0961500864466
 20
94.44026575541507
 30
0.0
 10
176.2224750656056
 20
94.46168938192405
 30
0.0
 10
176.2516311340093
 20
94.47160607282649
 30
0.0
 10
176.6231291892579
 20
94.51922579628398
 30
0.0
 10
176.9321706535653
 20
94.54877650544267
 30
0.0
 10
177.0687463310377
 20
94.56183594435058
 30
0.0
  0
SPLINE
  5
19B
330
1F
100
AcDbEntity
  8
0
  6
HIDDEN
 62
     7
370
     0
100
AcDbSpline
210
0.0
220
0.0
230
1.0
 70
     8
 71
     3
 72
    38
 73
    34
 74
     0
 42
0.00000001
 43
0.00000001
 40
-0.0939221400677788
 40
-0.0657752597753779
 40
-0.0344739496007943
 40
0.0
 40
0.0323124298479836
 40
0.0609695982577461
 40
0.0859698687835549
 40
0.1073131755946561
 40
0.125001929016961
 40
0.1562358721977444
 40
0.197850737299077
 40
0.249816879324835
 40
0.278262948030722
 40
0.3049884159832859
 40
0.3300042168913841
 40
0.3533239044418168
 40
0.3749644360933808
 40
0.4060267838322921
 40
0.4476555976010198
 40
0.4998320869201298
 40
0.5286685248934816
 40
0.5555536435543464
 40
0.5805015705746597
 40
0.6035302879119625
 40
0.6246629693429201
 40
0.6685312637103242
 40
0.7183269153555463
 40
0.7652375706113131
 40
0.7915712044406463
 40
0.812293703571044
 40
0.8615656629637487
 40
0.9060778599322212
 40
0.9342247402246221
 40
0.9655260503992057
 40
1.0
 40
1.032312429847984
 40
1.060969598257746
 40
1.085969868783555
 10
177.8489995827304
 20
140.6325018269171
 30
0.0
 10
177.244931364221
 20
140.6770353321329
 30
0.0
 10
176.7696163013748
 20
140.725110718366
 30
0.0
 10
176.4500174753749
 20
140.7612734576318
 30
0.0
 10
176.263023069661
 20
140.7876635918202
 30
0.0
 10
176.1747174101086
 20
140.8037332016175
 30
0.0
 10
176.1453039142393
 20
140.8115568868674
 30
0.0
 10
176.2174359843081
 20
140.7933893882837
 30
0.0
 10
176.5385479865026
 20
140.748782808321
 30
0.0
 10
177.1105754767172
 20
140.6880442796503
 30
0.0
 10
177.7611078244735
 20
140.6387001166304
 30
0.0
 10
178.3109839532149
 20
140.616337656151
 30
0.0
 10
178.866421818993
 20
140.6078554462465
 30
0.0
 10
179.4071973666296
 20
140.6143065323951
 30
0.0
 10
180.0051272614289
 20
140.6377849089968
 30
0.0
 10
180.7447931185958
 20
140.704704779834
 30
0.0
 10
181.6768427518687
 20
140.8208062137691
 30
0.0
 10
182.4661794855423
 20
140.9561210983605
 30
0.0
 10
183.0051091733797
 20
141.0712329224276
 30
0.0
 10
183.3192135132756
 20
141.1410069989786
 30
0.0
 10
183.5244938816414
 20
141.1915670844745
 30
0.0
 10
183.6355638677323
 20
141.2222452243813
 30
0.0
 10
183.6818353695363
 20
141.2369722416375
 30
0.0
 10
183.55587050119
 20
141.1991126480501
 30
0.0
 10
183.0856249723169
 20
141.088626863624
 30
0.0
 10
182.4324270087283
 20
140.9489226452478
 30
0.0
 10
181.8284080532123
 20
140.8457960391025
 30
0.0
 10
181.154070003574
 20
140.7463600133331
 30
0.0
 10
180.2687205205866
 20
140.6528896790575
 30
0.0
 10
179.2992416299743
 20
140.6058811729848
 30
0.0
 10
178.5109060527072
 20
140.6095653880853
 30
0.0
 10
177.8489995827304
 20
140.6325018269171
 30
0.0
 10
177.244931364221
 20
140.6770353321329
 30
0.0
 10
176.7696163013748
 20
140.725110718366
 30
0.0
  0
SPLINE
  5
19C
330
1F
100
AcDbEntity
  8
0
  6
HIDDEN
 62
     7
370
     0
100
AcDbSpline
210
0.0
220
0.0
230
1.0
 70
     8
 71
     3
 72
    40
 73
    36
 74
     0
 42
0.00000001
 43
0.00000001
 40
0.0
 40
0.0
 40
0.0
 40
0.0
 40
0.1250000000000022
 40
0.1250000000000022
 40
0.2500000000000045
 40
0.2500000000000045
 40
0.3125000000000054
 40
0.3125000000000054
 40
0.3750000000000064
 40
0.3750000000000064
 40
0.4062500000000071
 40
0.4062500000000071
 40
0.4375000000000078
 40
0.4375000000000078
 40
0.4687500000000084
 40
0.4687500000000084
 40
0.5000000000000091
 40
0.5000000000000091
 40
0.5156250000000094
 40
0.5156250000000094
 40
0.5312500000000097
 40
0.5312500000000097
 40
0.562500000000009
 40
0.562500000000009
 40
0.5937500000000083
 40
0.5937500000000083
 40
0.6250000000000077
 40
0.6250000000000077
 40
0.6875000000000064
 40
0.6875000000000064
 40
0.7500000000000052
 40
0.7500000000000052
 40
0.8750000000000027
 40
0.8750000000000027
 40
1.0
 40
1.0
 40
1.0
 40
1.0
 10
245.1795888809717
 20
95.71426599638794
 30
0.0
 10
245.2759306250222
 20
95.61938789990832
 30
0.0
 10
245.3379988549185
 20
95.46563554826645
 30
0.0
 10
245.4089099039466
 20
95.09483997799458
 30
0.0
 10
245.4169355550848
 20
94.8801670233861
 30
0.0
 10
245.3727189417657
 20
94.52558254862522
 30
0.0
 10
245.3483927975216
 20
94.40175374823868
 30
0.0
 10
245.2715695935265
 20
94.14169278809034
 30
0.0
 10
245.219291239254
 20
94.00482796496124
 30
0.0
 10
245.1039001761614
 20
93.78870364690938
 30
0.0
 10
245.059573751566
 20
93.71562476847994
 30
0.0
 10
244.9540786352502
 20
93.56699557905371
 30
0.0
 10
244.8926161357822
 20
93.49095583761247
 30
0.0
 10
244.7444530024109
 20
93.33777356700595
 30
0.0
 10
244.6575055706361
 20
93.26064870489014
 30
0.0
 10
244.4541637584889
 20
93.11514547158856
 30
0.0
 10
244.3352312623444
 20
93.0458686728953
 30
0.0
 10
244.1442553349513
 20
92.96052866376542
 30
0.0
 10
244.0772339017817
 20
92.93455085803372
 30
0.0
 10
243.9445057235611
 20
92.89025536907361
 30
0.0
 10
243.8781884384678
 20
92.87158142553928
 30
0.0
 10
243.6793762703671
 20
92.82448026656125
 30
0.0
 10
243.5544076806353
 20
92.80637566573333
 30
0.0
 10
243.3140158317082
 20
92.78589169020606
 30
0.0
 10
243.2008837284453
 20
92.78389175733118
 30
0.0
 10
242.9871896333846
 20
92.78982521375751
 30
0.0
 10
242.8859184707805
 20
92.79781417955104
 30
0.0
 10
242.5940900896719
 20
92.83190294438012
 30
0.0
 10
242.419011534604
 20
92.86739888084766
 30
0.0
 10
242.095415610388
 20
92.94975183016538
 30
0.0
 10
241.9464553164738
 20
92.99705532758492
 30
0.0
 10
241.5288470336611
 20
93.14859127706443
 30
0.0
 10
241.2876018568803
 20
93.26302714017268
 30
0.0
 10
240.8883991800593
 20
93.4857665551853
 30
0.0
 10
240.7275067734845
 20
93.59496525461952
 30
0.0
 10
240.6303702486397
 20
93.6906260573873
 30
0.0
  0
ELLIPSE
  5
19D
330
1F
100
AcDbEntity
  8
0
  6
HIDDEN
 62
     7
370
     0
100
AcDbEllipse
 10
245.4014834014
 20
90.1690952411
 30
0.0
 11
3.68432800875928
 21
-1.552260212524914
 31
0.0
210
0.0
220
0.0
230
1.0
 40
0.1042325367
 41
3.397575344459689
 42
6.539167998049702
  0
SPLINE
  5
19E
330
1F
100
AcDbEntity
  8
0
  6
HIDDEN
 62
     7
370
     0
100
AcDbSpline
210
0.0
220
0.0
230
1.0
 70
     8
 71
     3
 72
    64
 73
    60
 74
     0
 42
0.00000001
 43
0.00000001
 40
-0.0312499999999999
 40
-0.0312499999999999
 40
0.0
 40
0.0
 40
0.03125
 40
0.03125
 40
0.0625
 40
0.0625
 40
0.1250000000000001
 40
0.1250000000000001
 40
0.1562500000000001
 40
0.1562500000000001
 40
0.1875000000000001
 40
0.1875000000000001
 40
0.2187500000000001
 40
0.2187500000000001
 40
0.2500000000000001
 40
0.2500000000000001
 40
0.2812500000000002
 40
0.2812500000000002
 40
0.3125000000000003
 40
0.3125000000000003
 40
0.3750000000000004
 40
0.3750000000000004
 40
0.4062500000000004
 40
0.4062500000000004
 40
0.4375000000000004
 40
0.4375000000000004
 40
0.4687500000000004
 40
0.4687500000000004
 40
0.5000000000000004
 40
0.5000000000000004
 40
0.5312500000000004
 40
0.5312500000000004
 40
0.5625000000000004
 40
0.5625000000000004
 40
0.5937500000000004
 40
0.5937500000000004
 40
0.6250000000000006
 40
0.6250000000000006
 40
0.6562500000000006
 40
0.6562500000000006
 40
0.6875000000000006
 40
0.6875000000000006
 40
0.7187500000000006
 40
0.7187500000000006
 40
0.7500000000000006
 40
0.7500000000000006
 40
0.7812500000000006
 40
0.7812500000000006
 40
0.8125000000000006
 40
0.8125000000000006
 40
0.8750000000000004
 40
0.8750000000000004
 40
0.9062500000000003
 40
0.9062500000000003
 40
0.9375000000000002
 40
0.9375000000000002
 40
0.9687500000000001
 40
0.9687500000000001
 40
1.0
 40
1.0
 40
1.03125
 40
1.03125
 10
218.7390747292467
 20
116.4345525636828
 30
0.0
 10
219.0783941078512
 20
116.4345525636828
 30
0.0
 10
219.2440806326844
 20
116.4549858482656
 30
0.0
 10
219.5683167088586
 20
116.5330217266911
 30
0.0
 10
219.7281235445865
 20
116.5915894581686
 30
0.0
 10
220.1772983669287
 20
116.8114891329143
 30
0.0
 10
220.4467235829929
 20
117.0201386983431
 30
0.0
 10
220.78475859419
 20
117.3897444907408
 30
0.0
 10
220.8883147585892
 20
117.5247376599107
 30
0.0
 10
221.0687022492267
 20
117.8072108220419
 30
0.0
 10
221.1458485832894
 20
117.9544607554363
 30
0.0
 10
221.2733689940671
 20
118.2610196149871
 30
0.0
 10
221.3238925541072
 20
118.4223482678367
 30
0.0
 10
221.3908133820338
 20
118.7411571474888
 30
0.0
 10
221.4081724446721
 20
118.9000572137157
 30
0.0
 10
221.4092698212802
 20
119.2165845947335
 30
0.0
 10
221.392543899807
 20
119.3719102090366
 30
0.0
 10
221.327139614907
 20
119.6649480670513
 30
0.0
 10
221.2776537631754
 20
119.8060541377731
 30
0.0
 10
221.0870413482266
 20
120.1962779194844
 30
0.0
 10
220.9024455520778
 20
120.4169874276959
 30
0.0
 10
220.5652294078721
 20
120.6807316382655
 30
0.0
 10
220.4412014644861
 20
120.7587363496776
 30
0.0
 10
220.1753705960616
 20
120.8926757397168
 30
0.0
 10
220.0349534718339
 20
120.9482243659841
 30
0.0
 10
219.7373199893807
 20
121.0387080349741
 30
0.0
 10
219.5777557650915
 20
121.073890607561
 30
0.0
 10
219.252144586083
 20
121.1206374187259
 30
0.0
 10
219.0860323505506
 20
121.1326560714883
 30
0.0
 10
218.7465333033364
 20
121.1333596210981
 30
0.0
 10
218.5798598974786
 20
121.1219863106926
 30
0.0
 10
218.2539548492062
 20
121.0766107273558
 30
0.0
 10
218.0938644400048
 20
121.0421230954108
 30
0.0
 10
217.7935182128623
 20
120.9522642311476
 30
0.0
 10
217.6502547639073
 20
120.8961896060569
 30
0.0
 10
217.3831158666245
 20
120.7627501919028
 30
0.0
 10
217.2601564097033
 20
120.6861079820707
 30
0.0
 10
217.0336444280901
 20
120.51052989334
 30
0.0
 10
216.929797715651
 20
120.4107792620449
 30
0.0
 10
216.749641137069
 20
120.1933767270926
 30
0.0
 10
216.672143439245
 20
120.0750414864874
 30
0.0
 10
216.5436652807773
 20
119.8157211494671
 30
0.0
 10
216.4934404647839
 20
119.6748993655245
 30
0.0
 10
216.4266636440128
 20
119.3834059080442
 30
0.0
 10
216.4091269426602
 20
119.2309403563469
 30
0.0
 10
216.4083547957432
 20
118.9116952125446
 30
0.0
 10
216.425121374511
 20
118.7517418897191
 30
0.0
 10
216.4910276784177
 20
118.4314082715699
 30
0.0
 10
216.540981249555
 20
118.2698507745187
 30
0.0
 10
216.7320587518283
 20
117.8065958725631
 30
0.0
 10
216.9173608779055
 20
117.5163877517772
 30
0.0
 10
217.2563502562887
 20
117.144960696152
 30
0.0
 10
217.3815571694011
 20
117.0297461704112
 30
0.0
 10
217.6470898435239
 20
116.8273883021719
 30
0.0
 10
217.7878846395594
 20
116.7393202239917
 30
0.0
 10
218.0879476925555
 20
116.5921287456986
 30
0.0
 10
218.2481759342768
 20
116.5333335796064
 30
0.0
 10
218.5724633041972
 20
116.455131992831
 30
0.0
 10
218.7390747292467
 20
116.4345525636828
 30
0.0
 10
219.0783941078512
 20
116.4345525636828
 30
0.0
  0
LINE
  5
19F
330
1F
100
AcDbEntity
  8
0
  6
HIDDEN
 62
     7
370
     0
100
AcDbLine
 10
223.0087344185
 20
121.8294978009
 30
0.0
 11
223.0087344185
 21
113.4294978009
 31
0.0
  0
LWPOLYLINE
  5
1A0
330
1F
100
AcDbEntity
  8
0
  6
HIDDEN
 62
     7
370
     0
100
AcDbPolyline
 90
        2
 70
   128
 43
0.0
 10
223.0087344185
 20
113.4294978009
 10
223.0087344185
 20
113.4294978009
  0
LINE
  5
1A1
330
1F
100
AcDbEntity
  8
0
  6
HIDDEN
 62
     7
370
     0
100
AcDbLine
 10
210.7087344185
 20
113.4294978009
 30
0.0
 11
210.7087344185
 21
121.8104798757
 31
0.0
  0
LINE
  5
1A2
330
1F
100
AcDbEntity
  8
0
  6
HIDDEN
 62
     7
370
     0
100
AcDbLine
 10
240.6303702486
 20
93.6906260574
 30
0.0
 11
239.9024657884
 21
94.4074720133
 31
0.0
  0
LINE
  5
1A3
330
1F
100
AcDbEntity
  8
0
  6
HIDDEN
 62
     7
370
     0
100
AcDbLine
 10
244.4516844207
 20
96.4311119523
 30
0.0
 11
245.179588881
 21
95.7142659964
 31
0.0
  0
ELLIPSE
  5
1A4
330
1F
100
AcDbEntity
  8
0
  6
HIDDEN
 62
     7
370
     0
100
AcDbEllipse
 10
241.3004684324
 20
98.0616982107
 30
0.0
 11
3.454643233424634
 21
2.429761823288843
 31
0.0
210
0.0
220
0.0
230
1.0
 40
0.8084054416
 41
3.835916091171499
 42
5.111039932409902
  0
ELLIPSE
  5
1A5
330
1F
100
AcDbEntity
  8
0
  6
HIDDEN
 62
     7
370
     0
100
AcDbEllipse
 10
237.6099202907
 20
101.6961786335
 30
0.0
 11
-3.085533036944782
 21
3.038656856958426
 31
0.0
210
0.0
220
0.0
230
0.9999999999999998
 40
0.9698463104
 41
0.0
 42
6.283185307179586
  0
LWPOLYLINE
  5
1A6
330
1F
100
AcDbEntity
  8
0
  6
HIDDEN
 62
     7
370
     0
100
AcDbPolyline
 90
       34
 70
   128
 43
0.0
 10
246.9284496447
 20
96.5906651096
 10
246.8297816795
 20
95.8075186726
 10
246.5852570822
 20
95.0526771882
 10
246.2037136089
 20
94.3534225945
 10
245.6989412349
 20
93.7350277744
 10
245.0891837489
 20
93.2198431279
 10
244.3964793751
 20
92.8264887704
 10
243.6458642546
 20
92.5691815533
 10
242.8644675733
 20
92.4572212297
 10
242.0805310433
 20
92.4946543376
 10
241.3223881734
 20
92.6801279468
 10
240.6174402221
 20
93.0069385579
 10
239.9911658451
 20
93.4632743838
 10
239.4662002303
 20
94.032642259
 10
239.0615170025
 20
94.6944637448
 10
238.7917424682
 20
95.4248188884
 10
238.6666269819
 20
96.1973107521
 10
238.6906925432
 20
96.9840194671
 10
238.8630693601
 20
97.7565113308
 10
239.1775272852
 20
98.4868664745
 10
239.6227009898
 20
99.1486879603
 10
240.1825007365
 20
99.7180558354
 10
240.8366939036
 20
100.1743916614
 10
241.5616362459
 20
100.5012022725
 10
242.331126458
 20
100.6866758817
 10
243.117353159
 20
100.7241089895
 10
243.8919000674
 20
100.612148666
 10
244.6267730397
 20
100.3548414488
 10
245.2954118521
 20
99.9614870913
 10
245.8736501559
 20
99.4463024448
 10
246.340588912
 20
98.8279076247
 10
246.6793517373
 20
98.128653031
 10
246.8776948606
 20
97.3738115467
 10
246.9284496447
 20
96.5906651096
  0
LINE
  5
1A7
330
1F
100
AcDbEntity
  8
0
  6
HIDDEN
 62
     7
370
     0
100
AcDbLine
 10
249.4102836184
 20
86.1562634739
 30
0.0
 11
247.8296590132
 21
89.9238319112
 31
0.0
  0
LINE
  5
1A8
330
1F
100
AcDbEntity
  8
0
  6
HIDDEN
 62
     7
370
     0
100
AcDbLine
 10
248.8722888964
 20
86.6860848471
 30
0.0
 11
249.4102836184
 21
86.1562634739
 31
0.0
  0
LINE
  5
1A9
330
1F
100
AcDbEntity
  8
0
  6
HIDDEN
 62
     7
370
     0
100
AcDbLine
 10
245.8849529032
 20
92.1107278114
 30
0.0
 11
244.4516844207
 21
96.4311119523
 31
0.0
  0
LINE
  5
1AA
330
1F
100
AcDbEntity
  8
0
  6
HIDDEN
 62
     7
370
     0
100
AcDbLine
 10
247.8296590132
 20
89.9238319112
 30
0.0
 11
249.0067235324
 21
88.7646496468
 31
0.0
  0
LWPOLYLINE
  5
1AB
330
1F
100
AcDbEntity
  8
0
  6
HIDDEN
 62
     7
370
     0
100
AcDbPolyline
 90
        2
 70
   128
 43
0.0
 10
193.8587344185
 20
91.2294978009
 10
193.8587344185
 20
91.2294978009
  0
LINE
  5
1AC
330
1F
100
AcDbEntity
  8
0
  6
HIDDEN
 62
     7
370
     0
100
AcDbLine
 10
193.8587344185
 20
86.145374818
 30
0.0
 11
193.8587344185
 21
91.2294978009
 31
0.0
  0
LINE
  5
1AD
330
1F
100
AcDbEntity
  8
0
  6
HIDDEN
 62
     7
370
     0
100
AcDbLine
 10
193.8587344185
 20
91.2294978009
 30
0.0
 11
201.8587344185
 21
91.2294978009
 31
0.0
  0
LWPOLYLINE
  5
1AE
330
1F
100
AcDbEntity
  8
0
  6
HIDDEN
 62
     7
370
     0
100
AcDbPolyline
 90
       26
 70
   128
 43
0.0
 10
218.9087344185
 20
121.3338756113
 10
219.5304591365
 20
121.4076810404
 10
220.1131186038
 20
121.6244598613
 10
220.6201021834
 20
121.9705910633
 10
221.0195542323
 20
122.4243259501
 10
221.2863757093
 20
122.95715469
 10
221.4038012396
 20
123.5355976936
 10
221.3644525454
 20
124.1233092597
 10
221.1708020497
 20
124.6833613092
 10
220.8350175255
 20
125.1805637119
 10
220.3781975493
 20
125.5836754125
 10
219.8290458003
 20
125.8673674202
 10
219.2220675025
 20
126.0138143227
 10
218.5954013346
 20
126.0138143227
 10
217.9884230368
 20
125.8673674202
 10
217.4392712878
 20
125.5836754125
 10
216.9824513116
 20
125.1805637119
 10
216.6466667874
 20
124.6833613092
 10
216.4530162917
 20
124.1233092597
 10
216.4136675975
 20
123.5355976936
 10
216.5310931278
 20
122.95715469
 10
216.7979146048
 20
122.4243259501
 10
217.1973666537
 20
121.9705910633
 10
217.7043502333
 20
121.6244598613
 10
218.2870097006
 20
121.4076810404
 10
218.9087344185
 20
121.3338756113
  0
LINE
  5
1AF
330
1F
100
AcDbEntity
  8
0
  6
HIDDEN
 62
     7
370
     0
100
AcDbLine
 10
241.6992846223
 20
91.6690264637
 30
0.0
 11
244.8610649861
 21
84.1326235349
 31
0.0
  0
ARC
  5
1B0
330
1F
100
AcDbEntity
  8
0
  6
HIDDEN
 62
     7
370
     0
100
AcDbCircle
 10
247.7859811693
 20
83.2520137854
 30
0.0
 40
3.054604427628235
100
AcDbArc
 50
163.2444338521
 51
267.2650562478
  0
ARC
  5
1B1
330
1F
100
AcDbEntity
  8
0
  6
HIDDEN
 62
     7
370
     0
100
AcDbCircle
 10
247.8660291645
 20
83.384561165
 30
0.0
 40
3.17286235240461
100
AcDbArc
 50
280.2904938613
 51
60.8756261091
  0
LINE
  5
1B2
330
1F
100
AcDbEntity
  8
0
  6
HIDDEN
 62
     7
370
     0
100
AcDbLine
 10
255.758281956
 20
75.1549826943
 30
0.0
 11
256.3105142009
 21
75.7278486528
 31
0.0
  0
LINE
  5
1B3
330
1F
100
AcDbEntity
  8
0
  6
HIDDEN
 62
     7
370
     0
100
AcDbLine
 10
239.8303913212
 20
87.8641445087
 30
0.0
 11
242.6726273101
 21
78.9367496421
 31
0.0
  0
LINE
  5
1B4
330
1F
100
AcDbEntity
  8
0
  6
HIDDEN
 62
     7
370
     0
100
AcDbLine
 10
241.6992846223
 20
91.6690264637
 30
0.0
 11
238.122517962
 21
92.6872601462
 31
0.0
  0
LINE
  5
1B5
330
1F
100
AcDbEntity
  8
0
  6
HIDDEN
 62
     7
370
     0
100
AcDbLine
 10
252.1857042709
 20
88.6837532521
 30
0.0
 11
247.8296590132
 21
89.9238319112
 31
0.0
  0
LINE
  5
1B6
330
1F
100
AcDbEntity
  8
0
  6
HIDDEN
 62
     7
370
     0
100
AcDbLine
 10
256.3105031097
 20
75.7278593278
 30
0.0
 11
252.1857042709
 21
88.6837532521
 31
0.0
  0
LINE
  5
1B7
330
1F
100
AcDbEntity
  8
0
  6
HIDDEN
 62
     7
370
     0
100
AcDbLine
 10
241.7962432704
 20
91.5735408353
 30
0.0
 11
241.6992846223
 21
91.6690264637
 31
0.0
  0
LINE
  5
1B8
330
1F
100
AcDbEntity
  8
0
  6
HIDDEN
 62
     7
370
     0
100
AcDbLine
 10
167.1087344185
 20
99.6394978009
 30
0.0
 11
167.1087344185
 21
101.3249020147
 31
0.0
  0
LINE
  5
1B9
330
1F
100
AcDbEntity
  8
0
  6
HIDDEN
 62
     7
370
     0
100
AcDbLine
 10
163.1087344185
 20
135.6194978009
 30
0.0
 11
163.1087344185
 21
133.9170114233
 31
0.0
  0
LINE
  5
1BA
330
1F
100
AcDbEntity
  8
0
  6
HIDDEN
 62
     7
370
     0
100
AcDbLine
 10
167.1087344185
 20
99.6394978009
 30
0.0
 11
167.1087344185
 21
95.6551820927
 31
0.0
  0
LINE
  5
1BB
330
1F
100
AcDbEntity
  8
0
  6
HIDDEN
 62
     7
370
     0
100
AcDbLine
 10
163.1087344185
 20
135.6194978009
 30
0.0
 11
163.1087344185
 21
139.4736054733
 31
0.0
  0
SPLINE
  5
1BC
330
1F
100
AcDbEntity
  8
0
  6
HIDDEN
 62
     7
370
     0
100
AcDbSpline
210
0.0
220
0.0
230
1.0
 70
     8
 71
     3
 72
    10
 73
     6
 74
     0
 42
0.00000001
 43
0.00000001
 40
0.0
 40
0.0
 40
0.0
 40
0.0
 40
0.5
 40
0.5
 40
1.0
 40
1.0
 40
1.0
 40
1.0
 10
244.026563162826
 20
85.47709889497177
 30
0.0
 10
244.0519824326666
 20
85.30094023519787
 30
0.0
 10
244.0906694945667
 20
85.13838247102382
 30
0.0
 10
244.1893602889372
 20
84.85659586101174
 30
0.0
 10
244.2488040330258
 20
84.73558286831322
 30
0.0
 10
244.3230702641162
 20
84.66244490814833
 30
0.0
  0
ARC
  5
1BD
330
1F
100
AcDbEntity
  8
0
  6
HIDDEN
 62
     7
370
     0
100
AcDbCircle
 10
246.9619493288
 20
84.3221798663
 30
0.0
 40
3.154414352331689
100
AcDbArc
 50
158.5229893537
 51
69.4391086945
  0
SPLINE
  5
1BE
330
1F
100
AcDbEntity
  8
0
  6
HIDDEN
 62
     7
370
     0
100
AcDbSpline
210
0.0
220
0.0
230
1.0
 70
     8
 71
     3
 72
    10
 73
     6
 74
     0
 42
0.00000001
 43
0.00000001
 40
0.0
 40
0.0
 40
0.0
 40
0.0
 40
0.5
 40
0.5
 40
1.0
 40
1.0
 40
1.0
 40
1.0
 10
248.8722888964486
 20
86.68608484714969
 30
0.0
 10
248.7981098032299
 20
86.75913699326281
 30
0.0
 10
248.6809165336741
 20
86.85461496254317
 30
0.0
 10
248.4063569658565
 20
87.05817665561692
 30
0.0
 10
248.2471689287748
 20
87.16712036870544
 30
0.0
 10
248.0697879618692
 20
87.27565637197462
 30
0.0
  0
LINE
  5
1BF
330
1F
100
AcDbEntity
  8
0
  6
HIDDEN
 62
     7
370
     0
100
AcDbLine
 10
244.8610649861
 20
84.1326235349
 30
0.0
 11
244.3230702641
 21
84.6624449081
 31
0.0
  0
LWPOLYLINE
  5
1C0
330
1F
100
AcDbEntity
  8
0
  6
HIDDEN
 62
     7
370
     0
100
AcDbPolyline
 90
        2
 70
   128
 43
0.0
 10
214.8587344185
 20
144.0294978009
 10
214.8587344185
 20
144.0294978009
  0
LWPOLYLINE
  5
1C1
330
1F
100
AcDbEntity
  8
0
  6
HIDDEN
 62
     7
370
     0
100
AcDbPolyline
 90
        2
 70
   128
 43
0.0
 10
214.8587344185
 20
91.2294978009
 10
214.8587344185
 20
91.2294978009
  0
LINE
  5
1C2
330
1F
100
AcDbEntity
  8
0
  6
HIDDEN
 62
     7
370
     0
100
AcDbLine
 10
158.1587344185
 20
99.6394978009
 30
0.0
 11
158.1587344185
 21
96.759762268
 31
0.0
  0
LINE
  5
1C3
330
1F
100
AcDbEntity
  8
0
  6
HIDDEN
 62
     7
370
     0
100
AcDbLine
 10
158.1587344185
 20
99.6394978009
 30
0.0
 11
158.1587344185
 21
101.8053123953
 31
0.0
  0
SPLINE
  5
1C4
330
1F
100
AcDbEntity
  8
0
  6
HIDDEN
 62
     7
370
     0
100
AcDbSpline
210
0.0
220
0.0
230
1.0
 70
     8
 71
     3
 72
     8
 73
     4
 74
     0
 42
0.00000001
 43
0.00000001
 40
0.0000002432968744
 40
0.0000002432968744
 40
0.0000002432968744
 40
0.0000002432968744
 40
0.0014011510532366
 40
0.0014011510532366
 40
0.0014011510532366
 40
0.0014011510532366
 10
157.008734418549
 20
101.3589838072744
 30
0.0
 10
157.3925988852855
 20
101.5059227197366
 30
0.0
 10
157.7759525071091
 20
101.6546550795546
 30
0.0
 10
158.158734418549
 20
101.8053123953151
 30
0.0
  0
LINE
  5
1C5
330
1F
100
AcDbEntity
  8
0
  6
HIDDEN
 62
     7
370
     0
100
AcDbLine
 10
157.0087344185
 20
99.6394978009
 30
0.0
 11
157.0087344185
 21
101.3589838073
 31
0.0
  0
SPLINE
  5
1C6
330
1F
100
AcDbEntity
  8
0
  6
HIDDEN
 62
     7
370
     0
100
AcDbSpline
210
0.0
220
0.0
230
1.0
 70
     8
 71
     3
 72
    22
 73
    18
 74
     0
 42
0.00000001
 43
0.00000001
 40
0.0
 40
0.0
 40
0.0
 40
0.0
 40
0.2499999999999929
 40
0.2499999999999929
 40
0.374999999999989
 40
0.374999999999989
 40
0.499999999999985
 40
0.499999999999985
 40
0.6249999999999811
 40
0.6249999999999811
 40
0.6874999999999805
 40
0.6874999999999805
 40
0.7499999999999835
 40
0.7499999999999835
 40
0.8749999999999917
 40
0.8749999999999917
 40
1.0
 40
1.0
 40
1.0
 40
1.0
 10
157.0087344185488
 20
97.64067536201904
 30
0.0
 10
157.0087344185488
 20
97.5526114192124
 30
0.0
 10
157.0369849994961
 20
97.47593012390443
 30
0.0
 10
157.111980800025
 20
97.38193613688534
 30
0.0
 10
157.1427174046893
 20
97.35368948384554
 30
0.0
 10
157.2153740629082
 20
97.3024103078873
 30
0.0
 10
157.2572235207073
 20
97.27940891010238
 30
0.0
 10
157.3574272546585
 20
97.23251071070003
 30
0.0
 10
157.4152072183573
 20
97.20966888944636
 30
0.0
 10
157.5299324862731
 20
97.15633463644969
 30
0.0
 10
157.5736081706539
 20
97.13445753926605
 30
0.0
 10
157.6620068848693
 20
97.08465399230028
 30
0.0
 10
157.7061447881584
 20
97.05718006649968
 30
0.0
 10
157.8274085724746
 20
96.97819174960462
 30
0.0
 10
157.8965417208423
 20
96.9295070913173
 30
0.0
 10
158.0272469542253
 20
96.84153155790507
 30
0.0
 10
158.0888574567495
 20
96.80164016363518
 30
0.0
 10
158.1486894881308
 20
96.76575806579041
 30
0.0
  0
LINE
  5
1C7
330
1F
100
AcDbEntity
  8
0
  6
HIDDEN
 62
     7
370
     0
100
AcDbLine
 10
157.0087344185
 20
99.6394978009
 30
0.0
 11
157.0087344185
 21
97.640675362
 31
0.0
  0
SPLINE
  5
1C8
330
1F
100
AcDbEntity
  8
0
  6
HIDDEN
 62
     7
370
     0
100
AcDbSpline
210
0.0
220
0.0
230
1.0
 70
     8
 71
     3
 72
     8
 73
     4
 74
     0
 42
0.00000001
 43
0.00000001
 40
0.0000002438860713
 40
0.0000002438860713
 40
0.0000002438860713
 40
0.0000002438860713
 40
0.0014006025853533
 40
0.0014006025853533
 40
0.0014006025853533
 40
0.0014006025853533
 10
158.158734418549
 20
133.4309882369213
 30
0.0
 10
157.775947345984
 20
133.581059764897
 30
0.0
 10
157.3925939460279
 20
133.7292169668145
 30
0.0
 10
157.008734418549
 20
133.8755904786177
 30
0.0
  0
LINE
  5
1C9
330
1F
100
AcDbEntity
  8
0
  6
HIDDEN
 62
     7
370
     0
100
AcDbLine
 10
157.0087344185
 20
133.8755904786
 30
0.0
 11
157.0087344185
 21
101.3589838073
 31
0.0
  0
LINE
  5
1CA
330
1F
100
AcDbEntity
  8
0
  6
HIDDEN
 62
     7
370
     0
100
AcDbLine
 10
158.1587344185
 20
135.6194978009
 30
0.0
 11
158.1587344185
 21
133.4309882369
 31
0.0
  0
LINE
  5
1CB
330
1F
100
AcDbEntity
  8
0
  6
HIDDEN
 62
     7
370
     0
100
AcDbLine
 10
158.1587344185
 20
135.6194978009
 30
0.0
 11
158.1587344185
 21
138.4994355663
 31
0.0
  0
LINE
  5
1CC
330
1F
100
AcDbEntity
  8
0
  6
HIDDEN
 62
     7
370
     0
100
AcDbLine
 10
157.0087344185
 20
135.6194978009
 30
0.0
 11
157.0087344185
 21
133.8755904786
 31
0.0
  0
LINE
  5
1CD
330
1F
100
AcDbEntity
  8
0
  6
HIDDEN
 62
     7
370
     0
100
AcDbLine
 10
157.0087344185
 20
135.6194978009
 30
0.0
 11
157.0087344185
 21
137.6055583055
 31
0.0
  0
SPLINE
  5
1CE
330
1F
100
AcDbEntity
  8
0
  6
HIDDEN
 62
     7
370
     0
100
AcDbSpline
210
0.0
220
0.0
230
1.0
 70
     8
 71
     3
 72
    22
 73
    18
 74
     0
 42
0.00000001
 43
0.00000001
 40
0.0
 40
0.0
 40
0.0
 40
0.0
 40
0.1250000000000042
 40
0.1250000000000042
 40
0.2500000000000085
 40
0.2500000000000085
 40
0.3125000000000113
 40
0.3125000000000113
 40
0.3750000000000141
 40
0.3750000000000141
 40
0.5000000000000104
 40
0.5000000000000104
 40
0.6250000000000068
 40
0.6250000000000068
 40
0.7500000000000031
 40
0.7500000000000031
 40
1.0
 40
1.0
 40
1.0
 40
1.0
 10
158.1486894881181
 20
138.4936896733183
 30
0.0
 10
158.0880697672417
 20
138.4588674966711
 30
0.0
 10
158.0258804272751
 20
138.4203636929704
 30
0.0
 10
157.8921509610457
 20
138.3344292051717
 30
0.0
 10
157.8198964193334
 20
138.2861226039695
 30
0.0
 10
157.6979984784977
 20
138.2097708857997
 30
0.0
 10
157.6541919253456
 20
138.1833564251926
 30
0.0
 10
157.5677967561708
 20
138.134847500662
 30
0.0
 10
157.5254567798791
 20
138.1129133779357
 30
0.0
 10
157.41148603351
 20
138.056543587991
 30
0.0
 10
157.3530673075198
 20
138.0301867634574
 30
0.0
 10
157.2531597363323
 20
137.9780469389532
 30
0.0
 10
157.211745745537
 20
137.9528863492407
 30
0.0
 10
157.1397207776597
 20
137.8977795059136
 30
0.0
 10
157.1093722363468
 20
137.8679231024187
 30
0.0
 10
157.0358805063147
 20
137.770516400426
 30
0.0
 10
157.008734418549
 20
137.6941847166157
 30
0.0
 10
157.008734418549
 20
137.6055583055455
 30
0.0
  0
SPLINE
  5
1CF
330
1F
100
AcDbEntity
  8
0
  6
HIDDEN
 62
     7
370
     0
100
AcDbSpline
210
0.0
220
0.0
230
1.0
 70
     8
 71
     3
 72
    10
 73
     6
 74
     0
 42
0.00000001
 43
0.00000001
 40
0.0
 40
0.0
 40
0.0
 40
0.0
 40
0.5
 40
0.5
 40
1.0
 40
1.0
 40
1.0
 40
1.0
 10
204.998734418549
 20
144.7491516519254
 30
0.0
 10
204.998734418549
 20
144.6055393003674
 30
0.0
 10
205.0349016936468
 20
144.4625658866488
 30
0.0
 10
205.1706576374007
 20
144.2125732599351
 30
0.0
 10
205.2709273280236
 20
144.1045709506563
 30
0.0
 10
205.39303195024
 20
144.0294978008896
 30
0.0
  0
LINE
  5
1D0
330
1F
100
AcDbEntity
  8
0
  6
HIDDEN
 62
     7
370
     0
100
AcDbLine
 10
204.9987344185
 20
144.7491516519
 30
0.0
 11
204.9987344185
 21
90.8251021726
 31
0.0
  0
SPLINE
  5
1D1
330
1F
100
AcDbEntity
  8
0
  6
HIDDEN
 62
     7
370
     0
100
AcDbSpline
210
0.0
220
0.0
230
1.0
 70
     8
 71
     3
 72
    10
 73
     6
 74
     0
 42
0.00000001
 43
0.00000001
 40
0.0
 40
0.0
 40
0.0
 40
0.0
 40
0.5
 40
0.5
 40
1.0
 40
1.0
 40
1.0
 40
1.0
 10
204.998734418549
 20
90.82510217256032
 30
0.0
 10
204.998734418549
 20
90.89533853293084
 30
0.0
 10
205.0070170306394
 20
90.96533263442808
 30
0.0
 10
205.0401169736978
 20
91.10229189898654
 30
0.0
 10
205.0644543656561
 20
91.16759980824163
 30
0.0
 10
205.0964092208806
 20
91.22949780088835
 30
0.0
  0
SPLINE
  5
1D2
330
1F
100
AcDbEntity
  8
0
  6
HIDDEN
 62
     7
370
     0
100
AcDbSpline
210
0.0
220
0.0
230
1.0
 70
    24
 71
     3
 72
    12
 73
     8
 74
     0
 42
0.00000001
 43
0.00000001
 40
0.0
 40
0.0
 40
0.0
 40
0.0
 40
0.5000000000000017
 40
0.5000000000000017
 40
0.7500000000000008
 40
0.7500000000000008
 40
1.0
 40
1.0
 40
1.0
 40
1.0
 10
205.39303195024
 20
144.0294978008896
 30
0.0
 10
205.4361552986735
 20
144.0294978008896
 30
0.0
 10
205.4858948859737
 20
144.0294978008896
 30
0.0
 10
205.5824158627957
 20
144.0294978008896
 30
0.0
 10
205.6179809936474
 20
144.0294978008896
 30
0.0
 10
205.7013293242703
 20
144.0294978008896
 30
0.0
 10
205.7497992239606
 20
144.0294978008896
 30
0.0
 10
205.7987344185501
 20
144.0294978008896
 30
0.0
  0
SPLINE
  5
1D3
330
1F
100
AcDbEntity
  8
0
  6
HIDDEN
 62
     7
370
     0
100
AcDbSpline
210
0.0
220
0.0
230
1.0
 70
    24
 71
     3
 72
    14
 73
    10
 74
     0
 42
0.00000001
 43
0.00000001
 40
0.0
 40
0.0
 40
0.0
 40
0.0
 40
0.5000000000000007
 40
0.5000000000000007
 40
0.7500000000000021
 40
0.7500000000000021
 40
0.875000000000001
 40
0.875000000000001
 40
1.0
 40
1.0
 40
1.0
 40
1.0
 10
205.0964092208812
 20
91.22949780088962
 30
0.0
 10
205.143615708721
 20
91.22949780088963
 30
0.0
 10
205.2069557121503
 20
91.22949780088963
 30
0.0
 10
205.3500188184061
 20
91.22949780088962
 30
0.0
 10
205.4060994686772
 20
91.22949780088962
 30
0.0
 10
205.5175348185865
 20
91.22949780088962
 30
0.0
 10
205.5594796092595
 20
91.22949780088962
 30
0.0
 10
205.6644760522797
 20
91.22949780088962
 30
0.0
 10
205.7300399893603
 20
91.22949780088962
 30
0.0
 10
205.7987344185488
 20
91.22949780088962
 30
0.0
  0
LINE
  5
1D4
330
1F
100
AcDbEntity
  8
0
  6
HIDDEN
 62
     7
370
     0
100
AcDbLine
 10
208.8187344185
 20
144.7491516519
 30
0.0
 11
208.8187344186
 21
90.8251021726
 31
0.0
  0
SPLINE
  5
1D5
330
1F
100
AcDbEntity
  8
0
  6
HIDDEN
 62
     7
370
     0
100
AcDbSpline
210
0.0
220
0.0
230
1.0
 70
     8
 71
     3
 72
    10
 73
     6
 74
     0
 42
0.00000001
 43
0.00000001
 40
0.0
 40
0.0
 40
0.0
 40
0.0
 40
0.5
 40
0.5
 40
1.0
 40
1.0
 40
1.0
 40
1.0
 10
208.424436886858
 20
144.0294978008896
 30
0.0
 10
208.5457494099558
 20
144.1040839471778
 30
0.0
 10
208.6471777721809
 20
144.2129082583292
 30
0.0
 10
208.783121338441
 20
144.4639287769509
 30
0.0
 10
208.818734418549
 20
144.6065114700901
 30
0.0
 10
208.818734418549
 20
144.7491516519255
 30
0.0
  0
SPLINE
  5
1D6
330
1F
100
AcDbEntity
  8
0
  6
HIDDEN
 62
     7
370
     0
100
AcDbSpline
210
0.0
220
0.0
230
1.0
 70
     8
 71
     3
 72
    10
 73
     6
 74
     0
 42
0.00000001
 43
0.00000001
 40
0.0
 40
0.0
 40
0.0
 40
0.0
 40
0.5
 40
0.5
 40
1.0
 40
1.0
 40
1.0
 40
1.0
 10
208.7210596162167
 20
91.22949780088962
 30
0.0
 10
208.7532148038387
 20
91.1672117553735
 30
0.0
 10
208.7778710350329
 20
91.10068133050426
 30
0.0
 10
208.8106837919584
 20
90.96382270014175
 30
0.0
 10
208.818734418549
 20
90.8947651049634
 30
0.0
 10
208.818734418549
 20
90.82510217256007
 30
0.0
  0
SPLINE
  5
1D7
330
1F
100
AcDbEntity
  8
0
  6
HIDDEN
 62
     7
370
     0
100
AcDbSpline
210
0.0
220
0.0
230
1.0
 70
    24
 71
     3
 72
    12
 73
     8
 74
     0
 42
0.00000001
 43
0.00000001
 40
0.0
 40
0.0
 40
0.0
 40
0.0
 40
0.250000000000002
 40
0.250000000000002
 40
0.500000000000004
 40
0.500000000000004
 40
1.0
 40
1.0
 40
1.0
 40
1.0
 10
208.0187344185489
 20
144.0294978008896
 30
0.0
 10
208.0682695247669
 20
144.0294978008896
 30
0.0
 10
208.1166744133684
 20
144.0294978008896
 30
0.0
 10
208.1995609625461
 20
144.0294978008896
 30
0.0
 10
208.2360756840144
 20
144.0294978008896
 30
0.0
 10
208.3324085223691
 20
144.0294978008896
 30
0.0
 10
208.3811610700317
 20
144.0294978008896
 30
0.0
 10
208.4244368868624
 20
144.0294978008896
 30
0.0
  0
SPLINE
  5
1D8
330
1F
100
AcDbEntity
  8
0
  6
HIDDEN
 62
     7
370
     0
100
AcDbSpline
210
0.0
220
0.0
230
1.0
 70
    24
 71
     3
 72
    14
 73
    10
 74
     0
 42
0.00000001
 43
0.00000001
 40
0.0
 40
0.0
 40
0.0
 40
0.0
 40
0.1249999999999991
 40
0.1249999999999991
 40
0.2499999999999981
 40
0.2499999999999981
 40
0.4999999999999998
 40
0.4999999999999998
 40
1.0
 40
1.0
 40
1.0
 40
1.0
 10
208.0187344185489
 20
91.22949780088962
 30
0.0
 10
208.0878310508929
 20
91.22949780088962
 30
0.0
 10
208.1528242165008
 20
91.22949780088962
 30
0.0
 10
208.257145415146
 20
91.22949780088962
 30
0.0
 10
208.2999257892545
 20
91.22949780088962
 30
0.0
 10
208.4122634489007
 20
91.22949780088963
 30
0.0
 10
208.4673106310431
 20
91.22949780088962
 30
0.0
 10
208.6111874048132
 20
91.22949780088962
 30
0.0
 10
208.6742167180882
 20
91.22949780088962
 30
0.0
 10
208.7210596162167
 20
91.22949780088962
 30
0.0
  0
LINE
  5
1D9
330
1F
100
AcDbEntity
  8
0
  6
HIDDEN
 62
     7
370
     0
100
AcDbLine
 10
205.7987344185
 20
144.0294978009
 30
0.0
 11
208.0187344185
 21
144.0294978009
 31
0.0
  0
LINE
  5
1DA
330
1F
100
AcDbEntity
  8
0
  6
HIDDEN
 62
     7
370
     0
100
AcDbLine
 10
205.7987344185
 20
91.2294978009
 30
0.0
 11
208.0187344185
 21
91.2294978009
 31
0.0
  0
SPLINE
  5
1DB
330
1F
100
AcDbEntity
  8
0
  6
HIDDEN
 62
     7
370
     0
100
AcDbSpline
210
0.0
220
0.0
230
1.0
 70
     8
 71
     3
 72
    12
 73
     8
 74
     0
 42
0.00000001
 43
0.00000001
 40
0.0
 40
0.0
 40
0.0
 40
0.0
 40
0.2500000000000038
 40
0.2500000000000038
 40
0.5000000000000077
 40
0.5000000000000077
 40
1.0
 40
1.0
 40
1.0
 40
1.0
 10
214.258734418549
 20
148.0966932740539
 30
0.0
 10
214.3382273675972
 20
148.0966932740539
 30
0.0
 10
214.4193108689528
 20
148.0796905240931
 30
0.0
 10
214.5657412660906
 20
148.0156299829814
 30
0.0
 10
214.6322898759643
 20
147.9684713673428
 30
0.0
 10
214.796579749938
 20
147.7952493346505
 30
0.0
 10
214.8587344185491
 20
147.6351402444163
 30
0.0
 10
214.858734418549
 20
147.4759381246529
 30
0.0
  0
SPLINE
  5
1DC
330
1F
100
AcDbEntity
  8
0
  6
HIDDEN
 62
     7
370
     0
100
AcDbSpline
210
0.0
220
0.0
230
1.0
 70
     8
 71
     3
 72
    12
 73
     8
 74
     0
 42
0.00000001
 43
0.00000001
 40
0.0
 40
0.0
 40
0.0
 40
0.0
 40
0.2499999999999962
 40
0.2499999999999962
 40
0.4999999999999925
 40
0.4999999999999925
 40
1.0
 40
1.0
 40
1.0
 40
1.0
 10
214.258734418549
 20
87.44258010464249
 30
0.0
 10
214.3386154232961
 20
87.44258010464249
 30
0.0
 10
214.4192095535667
 20
87.45969719090833
 30
0.0
 10
214.5658249994116
 20
87.52443330238343
 30
0.0
 10
214.6323261921555
 20
87.57189054526378
 30
0.0
 10
214.7980610932928
 20
87.74871498780325
 30
0.0
 10
214.858734418549
 20
87.90899149500898
 30
0.0
 10
214.858734418549
 20
88.06922040029674
 30
0.0
  0
LINE
  5
1DD
330
1F
100
AcDbEntity
  8
0
  6
HIDDEN
 62
     7
370
     0
100
AcDbLine
 10
214.8587344186
 20
147.4759381247
 30
0.0
 11
214.8587344185
 21
88.0692204003
 31
0.0
  0
LINE
  5
1DE
330
1F
100
AcDbEntity
  8
0
  6
HIDDEN
 62
     7
370
     0
100
AcDbLine
 10
208.8187344185
 20
144.7491516519
 30
0.0
 11
208.8187344185
 21
145.4347319921
 31
0.0
  0
SPLINE
  5
1DF
330
1F
100
AcDbEntity
  8
0
  6
HIDDEN
 62
     7
370
     0
100
AcDbSpline
210
0.0
220
0.0
230
1.0
 70
     8
 71
     3
 72
     8
 73
     4
 74
     0
 42
0.00000001
 43
0.00000001
 40
0.0
 40
0.0
 40
0.0
 40
0.0
 40
1.0
 40
1.0
 40
1.0
 40
1.0
 10
208.818734418549
 20
145.4347319920612
 30
0.0
 10
209.3114445153947
 20
146.3227509901876
 30
0.0
 10
209.8055272206737
 20
147.2100136258736
 30
0.0
 10
210.300667250038
 20
148.0966932740538
 30
0.0
  0
LINE
  5
1E0
330
1F
100
AcDbEntity
  8
0
  6
HIDDEN
 62
     7
370
     0
100
AcDbLine
 10
210.30066725
 20
148.0966932741
 30
0.0
 11
214.2587344185
 21
148.0966932741
 31
0.0
  0
LINE
  5
1E1
330
1F
100
AcDbEntity
  8
0
  6
HIDDEN
 62
     7
370
     0
100
AcDbLine
 10
214.8587344186
 20
147.4759381247
 30
0.0
 11
214.8587344185
 21
144.0294978009
 31
0.0
  0
LINE
  5
1E2
330
1F
100
AcDbEntity
  8
0
  6
HIDDEN
 62
     7
370
     0
100
AcDbLine
 10
208.4244368869
 20
144.0294978009
 30
0.0
 11
214.8587344185
 21
144.0294978009
 31
0.0
  0
LINE
  5
1E3
330
1F
100
AcDbEntity
  8
0
  6
HIDDEN
 62
     7
370
     0
100
AcDbLine
 10
204.9987344185
 20
145.4347319921
 30
0.0
 11
204.9987344185
 21
144.7491516519
 31
0.0
  0
SPLINE
  5
1E4
330
1F
100
AcDbEntity
  8
0
  6
HIDDEN
 62
     7
370
     0
100
AcDbSpline
210
0.0
220
0.0
230
1.0
 70
     8
 71
     3
 72
     8
 73
     4
 74
     0
 42
0.00000001
 43
0.00000001
 40
0.0
 40
0.0
 40
0.0
 40
0.0
 40
1.0
 40
1.0
 40
1.0
 40
1.0
 10
203.5168015870599
 20
148.0966932740539
 30
0.0
 10
204.0119416164243
 20
147.2100136258736
 30
0.0
 10
204.5060243217032
 20
146.3227509901876
 30
0.0
 10
204.998734418549
 20
145.4347319920612
 30
0.0
  0
LINE
  5
1E5
330
1F
100
AcDbEntity
  8
0
  6
HIDDEN
 62
     7
370
     0
100
AcDbLine
 10
201.8587344185
 20
144.0294978009
 30
0.0
 11
205.3930319502
 21
144.0294978009
 31
0.0
  0
LINE
  5
1E6
330
1F
100
AcDbEntity
  8
0
  6
HIDDEN
 62
     7
370
     0
100
AcDbLine
 10
204.9987344185
 20
145.4347319921
 30
0.0
 11
204.9987344185
 21
90.1316606418
 31
0.0
  0
LINE
  5
1E7
330
1F
100
AcDbEntity
  8
0
  6
HIDDEN
 62
     7
370
     0
100
AcDbLine
 10
208.8187344185
 20
145.4347319921
 30
0.0
 11
208.8187344185
 21
90.1316606418
 31
0.0
  0
LINE
  5
1E8
330
1F
100
AcDbEntity
  8
0
  6
HIDDEN
 62
     7
370
     0
100
AcDbLine
 10
210.30066725
 20
148.0966932741
 30
0.0
 11
210.30066725
 21
87.4425801046
 31
0.0
  0
LINE
  5
1E9
330
1F
100
AcDbEntity
  8
0
  6
HIDDEN
 62
     7
370
     0
100
AcDbLine
 10
157.0087344185
 20
137.6055583055
 30
0.0
 11
157.0087344185
 21
97.640675362
 31
0.0
  0
ELLIPSE
  5
1EA
330
1F
100
AcDbEntity
  8
0
  6
HIDDEN
 62
     7
370
     0
100
AcDbEllipse
 10
245.5272795194
 20
87.6179826825
 30
0.0
 11
-0.9892552878008589
 21
2.767832732244316
 31
0.0
210
0.0
220
0.0
230
0.9999999999999998
 40
0.8462894042
 41
2.110678434318314
 42
4.300002804861417
  0
LWPOLYLINE
  5
1EB
330
1F
100
AcDbEntity
  8
0
  6
HIDDEN
 62
     7
370
     0
100
AcDbPolyline
 90
       13
 70
   128
 43
0.0
 10
245.8849529032
 20
92.1107278114
 10
245.9467802696
 20
91.6562519606
 10
245.8493833372
 20
91.1637940293
 10
245.599399546
 20
90.6669142115
 10
245.2138648783
 20
90.1994740457
 10
244.7190528846
 20
89.7933288067
 10
244.1486841844
 20
89.4761566214
 10
243.5416284622
 20
89.2695722501
 10
242.9392555622
 20
89.1876540762
 10
242.382616202
 20
89.2359846879
 10
241.9096444343
 20
89.411270434
 10
241.5525725032
 20
89.7015658805
 10
241.3357342709
 20
90.0870878724
  0
SPLINE
  5
1EC
330
1F
100
AcDbEntity
  8
0
  6
HIDDEN
 62
     7
370
     0
100
AcDbSpline
210
0.0
220
0.0
230
1.0
 70
     8
 71
     3
 72
    33
 73
    29
 74
     0
 42
0.00000001
 43
0.00000001
 40
0.0
 40
0.0
 40
0.0
 40
0.0
 40
0.0288696798825357
 40
0.0577334486785037
 40
0.0865994018176205
 40
0.1154756328924656
 40
0.1443702268588416
 40
0.1732912532723561
 40
0.2022467595893988
 40
0.2312447645600348
 40
0.2602932517394636
 40
0.2894001631435508
 40
0.3185733930725982
 40
0.3478207821259193
 40
0.37715011142809
 40
0.4065690970858206
 40
0.4360853848923834
 40
0.4657065452944618
 40
0.4954400686340711
 40
0.5516187284531052
 40
0.6076504723301441
 40
0.6635856013900673
 40
0.7194746776233283
 40
0.7753683880000168
 40
0.8313174068953274
 40
0.887372258685617
 40
0.9435831823688632
 40
1.0
 40
1.0
 40
1.0
 40
1.0
 10
256.3104719537515
 20
75.72789001042993
 30
0.0
 10
256.2664929727583
 20
75.78558444598544
 30
0.0
 10
256.1785440154983
 20
75.90096150412151
 30
0.0
 10
256.0428425354135
 20
76.08647598201003
 30
0.0
 10
255.9044108219376
 20
76.28105831132397
 30
0.0
 10
255.7629751257807
 20
76.48560514384756
 30
0.0
 10
255.6186088621712
 20
76.69987608844201
 30
0.0
 10
255.4712923952859
 20
76.9239355163354
 30
0.0
 10
255.3210310439038
 20
77.15776606558092
 30
0.0
 10
255.1678234347235
 20
77.4013722907664
 30
0.0
 10
255.0116699925771
 20
77.65475285545759
 30
0.0
 10
254.8525706609532
 20
77.91790799731713
 30
0.0
 10
254.690525515061
 20
78.19083752146157
 30
0.0
 10
254.5255345917553
 20
78.47354135154357
 30
0.0
 10
254.3575979537782
 20
78.76601934059154
 30
0.0
 10
254.1867156013508
 20
79.06827148002476
 30
0.0
 10
254.0128877610508
 20
79.3802972547277
 30
0.0
 10
253.836113812129
 20
79.70209802913277
 30
0.0
 10
253.6033614869315
 20
80.13151478699692
 30
0.0
 10
253.312308988565
 20
80.67841392469218
 30
0.0
 10
252.9599068612806
 20
81.35581871306297
 30
0.0
 10
252.6007779840324
 20
82.0610908457431
 30
0.0
 10
252.2349269916521
 20
82.79421543324725
 30
0.0
 10
251.8623459168049
 20
83.55523241779517
 30
0.0
 10
251.4830673017953
 20
84.34398644910578
 30
0.0
 10
251.096974329613
 20
85.16104838835068
 30
0.0
 10
250.7045092360093
 20
86.00426918314346
 30
0.0
 10
250.43807992158
 20
86.58798449174387
 30
0.0
 10
250.3046217356275
 20
86.88037568888141
 30
0.0
  0
SPLINE
  5
1ED
330
1F
100
AcDbEntity
  8
0
  6
HIDDEN
 62
     7
370
     0
100
AcDbSpline
210
0.0
220
0.0
230
1.0
 70
     8
 71
     3
 72
     8
 73
     4
 74
     0
 42
0.00000001
 43
0.00000001
 40
0.0
 40
0.0
 40
0.0
 40
0.0
 40
1.0
 40
1.0
 40
1.0
 40
1.0
 10
208.818734418549
 20
90.13166064183476
 30
0.0
 10
209.3110735413301
 20
89.23439060762807
 30
0.0
 10
209.8051875893723
 20
88.33810619257582
 30
0.0
 10
210.300667250038
 20
87.44258010464249
 30
0.0
  0
LINE
  5
1EE
330
1F
100
AcDbEntity
  8
0
  6
HIDDEN
 62
     7
370
     0
100
AcDbLine
 10
208.8187344186
 20
90.8251021726
 30
0.0
 11
208.8187344185
 21
90.1316606418
 31
0.0
  0
LINE
  5
1EF
330
1F
100
AcDbEntity
  8
0
  6
HIDDEN
 62
     7
370
     0
100
AcDbLine
 10
210.30066725
 20
87.4425801046
 30
0.0
 11
214.2587344185
 21
87.4425801046
 31
0.0
  0
LINE
  5
1F0
330
1F
100
AcDbEntity
  8
0
  6
HIDDEN
 62
     7
370
     0
100
AcDbLine
 10
214.8587344185
 20
88.0692204003
 30
0.0
 11
214.8587344185
 21
91.2294978009
 31
0.0
  0
LINE
  5
1F1
330
1F
100
AcDbEntity
  8
0
  6
HIDDEN
 62
     7
370
     0
100
AcDbLine
 10
208.7210596162
 20
91.2294978009
 30
0.0
 11
214.8587344185
 21
91.2294978009
 31
0.0
  0
LINE
  5
1F2
330
1F
100
AcDbEntity
  8
0
  6
HIDDEN
 62
     7
370
     0
100
AcDbLine
 10
204.9987344185
 20
90.1316606418
 30
0.0
 11
204.9987344185
 21
90.8251021726
 31
0.0
  0
SPLINE
  5
1F3
330
1F
100
AcDbEntity
  8
0
  6
HIDDEN
 62
     7
370
     0
100
AcDbSpline
210
0.0
220
0.0
230
1.0
 70
     8
 71
     3
 72
     8
 73
     4
 74
     0
 42
0.00000001
 43
0.00000001
 40
0.0
 40
0.0
 40
0.0
 40
0.0
 40
1.0
 40
1.0
 40
1.0
 40
1.0
 10
203.5168015870599
 20
87.44258010464249
 30
0.0
 10
204.0122812477257
 20
88.33810619257584
 30
0.0
 10
204.5063952957678
 20
89.23439060762809
 30
0.0
 10
204.998734418549
 20
90.13166064183478
 30
0.0
  0
LINE
  5
1F4
330
1F
100
AcDbEntity
  8
0
  6
HIDDEN
 62
     7
370
     0
100
AcDbLine
 10
201.8587344185
 20
91.2294978009
 30
0.0
 11
205.0964092209
 21
91.2294978009
 31
0.0
  0
LINE
  5
1F5
330
1F
100
AcDbEntity
  8
0
  6
HIDDEN
 62
     7
370
     0
100
AcDbLine
 10
239.9024657884
 20
94.4074720133
 30
0.0
 11
241.3357342709
 21
90.0870878724
 31
0.0
  0
LWPOLYLINE
  5
1F6
330
1F
100
AcDbEntity
  8
0
  6
HIDDEN
 62
     7
370
     0
100
AcDbPolyline
 90
       29
 70
   128
 43
0.0
 10
218.9087344185
 20
120.9667825184
 10
219.5762972204
 20
121.0374626861
 10
220.2103856359
 20
121.2459589906
 10
220.7792038241
 20
121.5818165564
 10
221.254228866
 20
122.0281940829
 10
221.6116410223
 20
122.562708337
 10
221.8335181551
 20
123.1585565419
 10
221.9087344185
 20
123.7858603808
 10
221.8335181551
 20
124.4131642196
 10
221.6116410223
 20
125.0090124245
 10
221.254228866
 20
125.5435266786
 10
220.7792038241
 20
125.9899042051
 10
220.2103856359
 20
126.3257617709
 10
219.5762972204
 20
126.5342580754
 10
218.9087344185
 20
126.6049382431
 10
218.2411716167
 20
126.5342580754
 10
217.6070832012
 20
126.3257617709
 10
217.038265013
 20
125.9899042051
 10
216.5632399711
 20
125.5435266786
 10
216.2058278148
 20
125.0090124245
 10
215.983950682
 20
124.4131642196
 10
215.9087344185
 20
123.7858603808
 10
215.983950682
 20
123.1585565419
 10
216.2058278148
 20
122.562708337
 10
216.5632399711
 20
122.0281940829
 10
217.038265013
 20
121.5818165564
 10
217.6070832012
 20
121.2459589906
 10
218.2411716167
 20
121.0374626861
 10
218.9087344185
 20
120.9667825184
  0
CIRCLE
  5
1F7
330
1F
100
AcDbEntity
  8
0
  6
HIDDEN
 62
     7
370
     0
100
AcDbCircle
 10
195.9087344185
 20
117.6294978009
 30
0.0
 40
5.0
  0
LINE
  5
1F8
330
1F
100
AcDbEntity
  8
0
  6
HIDDEN
 62
     7
370
     0
100
AcDbLine
 10
250.3050593967
 20
86.8810805194
 30
0.0
 11
249.8573815577
 21
86.1661728343
 31
0.0
  0
LINE
  5
1F9
330
1F
100
AcDbEntity
  8
0
  6
HIDDEN
 62
     7
370
     0
100
AcDbLine
 10
250.3046217349
 20
86.8803756886
 30
0.0
 11
239.6679577434
 21
117.6294978009
 31
0.0
  0
LINE
  5
1FA
330
1F
100
AcDbEntity
  8
0
  6
HIDDEN
 62
     7
370
     0
100
AcDbLine
 10
188.9087344185
 20
92.3055738798
 30
0.0
 11
189.0028952598
 21
92.9755630786
 31
0.0
  0
LINE
  5
1FB
330
1F
100
AcDbEntity
  8
0
  6
HIDDEN
 62
     7
370
     0
100
AcDbLine
 10
189.0028952598
 20
142.2834325232
 30
0.0
 11
188.9087344185
 21
142.953421722
 31
0.0
  0
ARC
  5
1FC
330
1F
100
AcDbEntity
  8
0
  6
HIDDEN
 62
     7
370
     0
100
AcDbCircle
 10
188.4087344185
 20
93.0590669392
 30
0.0
 40
0.6000000000000152
100
AcDbArc
 50
352.0
 51
0.0
  0
ARC
  5
1FD
330
1F
100
AcDbEntity
  8
0
  6
HIDDEN
 62
     7
370
     0
100
AcDbCircle
 10
188.4087344185
 20
93.0590669392
 30
0.0
 40
0.6000000000000019
100
AcDbArc
 50
0.0
 51
33.5573097619
  0
ARC
  5
1FE
330
1F
100
AcDbEntity
  8
0
  6
HIDDEN
 62
     7
370
     0
100
AcDbCircle
 10
188.4087344185
 20
142.1999286626
 30
0.0
 40
0.6000000000000172
100
AcDbArc
 50
348.75
 51
8.0
  0
LWPOLYLINE
  5
1FF
330
1F
100
AcDbEntity
  8
0
  6
HIDDEN
 62
     7
370
     0
100
AcDbPolyline
 90
        3
 70
   128
 43
0.0
 10
188.9972055868
 20
142.0828744694
 10
188.9630621381
 20
141.9703186032
 10
188.9087344185
 20
141.8682661836
  0
LINE
  5
200
330
1F
100
AcDbEntity
  8
0
  6
HIDDEN
 62
     7
370
     0
100
AcDbLine
 10
189.0087344185
 20
93.0590669392
 30
0.0
 11
189.0087344185
 21
142.1999286626
 31
0.0
  0
LINE
  5
201
330
1F
100
AcDbEntity
  8
0
  6
HIDDEN
 62
     7
370
     0
100
AcDbLine
 10
189.0087344185
 20
93.0590669392
 30
0.0
 11
189.0087344185
 21
142.1999286626
 31
0.0
  0
LINE
  5
202
330
1F
100
AcDbEntity
  8
0
  6
HIDDEN
 62
     7
370
     0
100
AcDbLine
 10
217.6097267062
 20
114.465579014
 30
0.0
 11
215.6003712027
 21
113.6358210449
 31
0.0
  0
LINE
  5
203
330
1F
100
AcDbEntity
  8
0
  6
HIDDEN
 62
     7
370
     0
100
AcDbLine
 10
215.6003712027
 20
113.6358210449
 30
0.0
 11
214.8814903485
 21
111.5841831275
 31
0.0
  0
LINE
  5
204
330
1F
100
AcDbEntity
  8
0
  6
HIDDEN
 62
     7
370
     0
100
AcDbLine
 10
224.2397265664
 20
108.8985388406
 30
0.0
 11
218.3436972443
 21
114.4811669125
 31
0.0
  0
LINE
  5
205
330
1F
100
AcDbEntity
  8
0
  6
HIDDEN
 62
     7
370
     0
100
AcDbLine
 10
217.9320194095
 20
107.9852593014
 30
0.0
 11
224.3893225083
 21
101.8711917521
 31
0.0
  0
LINE
  5
206
330
1F
100
AcDbEntity
  8
0
  6
HIDDEN
 62
     7
370
     0
100
AcDbLine
 10
216.5949710639
 20
109.2512373384
 30
0.0
 11
216.732280287
 21
109.1212267362
 31
0.0
  0
LINE
  5
207
330
1F
100
AcDbEntity
  8
0
  6
HIDDEN
 62
     7
370
     0
100
AcDbLine
 10
214.9059749451
 20
110.8504554955
 30
0.0
 11
216.5949710639
 21
109.2512373384
 31
0.0
  0
LINE
  5
208
330
1F
100
AcDbEntity
  8
0
  6
HIDDEN
 62
     7
370
     0
100
AcDbLine
 10
221.4087344185
 20
111.0216461954
 30
0.0
 11
221.4087344185
 21
116.1931459949
 31
0.0
  0
LINE
  5
209
330
1F
100
AcDbEntity
  8
0
  6
HIDDEN
 62
     7
370
     0
100
AcDbLine
 10
216.4087344185
 20
116.1942770258
 30
0.0
 11
216.4087344185
 21
110.8054119615
 31
0.0
  0
ARC
  5
20A
330
1F
100
AcDbEntity
  8
0
  6
HIDDEN
 62
     7
370
     0
100
AcDbCircle
 10
171.9911699838
 20
98.2294978009
 30
0.0
 40
0.6000000000000085
100
AcDbArc
 50
210.0
 51
270.0
  0
ARC
  5
20B
330
1F
100
AcDbEntity
  8
0
  6
HIDDEN
 62
     7
370
     0
100
AcDbCircle
 10
171.9911699838
 20
137.0294978009
 30
0.0
 40
0.6000000000000155
100
AcDbArc
 50
90.0
 51
150.0
  0
LINE
  5
20C
330
1F
100
AcDbEntity
  8
0
  6
HIDDEN
 62
     7
370
     0
100
AcDbLine
 10
171.9911699838
 20
97.6294978009
 30
0.0
 11
176.1687568777
 21
97.6294978009
 31
0.0
  0
LINE
  5
20D
330
1F
100
AcDbEntity
  8
0
  6
HIDDEN
 62
     7
370
     0
100
AcDbLine
 10
176.1618517997
 20
137.6294978009
 30
0.0
 11
171.9911699838
 21
137.6294978009
 31
0.0
  0
ARC
  5
20E
330
1F
100
AcDbEntity
  8
0
  6
HIDDEN
 62
     7
370
     0
100
AcDbCircle
 10
182.6637364202
 20
105.6294978009
 30
0.0
 40
8.000000000000016
100
AcDbArc
 50
277.1307091281
 51
321.3178125465
  0
ARC
  5
20F
330
1F
100
AcDbEntity
  8
0
  6
HIDDEN
 62
     7
370
     0
100
AcDbCircle
 10
182.6637364202
 20
129.6294978009
 30
0.0
 40
7.999999999999996
100
AcDbArc
 50
38.6821874535
 51
82.8539646462
  0
LINE
  5
210
330
1F
100
AcDbEntity
  8
0
  6
HIDDEN
 62
     7
370
     0
100
AcDbLine
 10
171.4715547416
 20
137.3294978009
 30
0.0
 11
169.9127090148
 21
134.6294978009
 31
0.0
  0
LINE
  5
211
330
1F
100
AcDbEntity
  8
0
  6
HIDDEN
 62
     7
370
     0
100
AcDbLine
 10
169.9127090148
 20
100.6294978009
 30
0.0
 11
171.4715547416
 21
97.9294978009
 31
0.0
  0
ARC
  5
212
330
1F
100
AcDbEntity
  8
0
  6
HIDDEN
 62
     7
370
     0
100
AcDbCircle
 10
197.3587344185
 20
101.9044978009
 30
0.0
 40
1.500000000000016
100
AcDbArc
 50
238.2116693829
 51
0.0
  0
ARC
  5
213
330
1F
100
AcDbEntity
  8
0
  6
HIDDEN
 62
     7
370
     0
100
AcDbCircle
 10
197.3587344185
 20
133.3544978009
 30
0.0
 40
1.500000000000016
100
AcDbArc
 50
0.0
 51
121.7883306171
  0
LINE
  5
214
330
1F
100
AcDbEntity
  8
0
  6
HIDDEN
 62
     7
370
     0
100
AcDbLine
 10
188.9087344185
 20
100.6294978009
 30
0.0
 11
196.5685603871
 21
100.6294978009
 31
0.0
  0
LINE
  5
215
330
1F
100
AcDbEntity
  8
0
  6
HIDDEN
 62
     7
370
     0
100
AcDbLine
 10
196.5685603871
 20
134.6294978009
 30
0.0
 11
188.9087344185
 21
134.6294978009
 31
0.0
  0
LINE
  5
216
330
1F
100
AcDbEntity
  8
0
  6
HIDDEN
 62
     7
370
     0
100
AcDbLine
 10
167.1087344185
 20
100.6294978009
 30
0.0
 11
169.9127090148
 21
100.6294978009
 31
0.0
  0
LINE
  5
217
330
1F
100
AcDbEntity
  8
0
  6
HIDDEN
 62
     7
370
     0
100
AcDbLine
 10
169.9127090148
 20
134.6294978009
 30
0.0
 11
163.1087344185
 21
134.6294978009
 31
0.0
  0
LINE
  5
218
330
1F
100
AcDbEntity
  8
0
  6
HIDDEN
 62
     7
370
     0
100
AcDbLine
 10
208.2087344185
 20
108.1294978009
 30
0.0
 11
210.7087344185
 21
108.1294978009
 31
0.0
  0
LINE
  5
219
330
1F
100
AcDbEntity
  8
0
  6
HIDDEN
 62
     7
370
     0
100
AcDbLine
 10
210.7087344185
 20
127.1294978009
 30
0.0
 11
208.2087344185
 21
127.1294978009
 31
0.0
  0
LINE
  5
21A
330
1F
100
AcDbEntity
  8
0
  6
HIDDEN
 62
     7
370
     0
100
AcDbLine
 10
198.8587344185
 20
108.6294978009
 30
0.0
 11
199.3587344185
 21
109.1294978009
 31
0.0
  0
LINE
  5
21B
330
1F
100
AcDbEntity
  8
0
  6
HIDDEN
 62
     7
370
     0
100
AcDbLine
 10
199.3587344185
 20
126.1294978009
 30
0.0
 11
198.8587344185
 21
126.6294978009
 31
0.0
  0
LINE
  5
21C
330
1F
100
AcDbEntity
  8
0
  6
HIDDEN
 62
     7
370
     0
100
AcDbLine
 10
199.3587344185
 20
109.1294978009
 30
0.0
 11
208.2087344185
 21
109.1294978009
 31
0.0
  0
LINE
  5
21D
330
1F
100
AcDbEntity
  8
0
  6
HIDDEN
 62
     7
370
     0
100
AcDbLine
 10
208.2087344185
 20
126.1294978009
 30
0.0
 11
199.3587344185
 21
126.1294978009
 31
0.0
  0
LINE
  5
21E
330
1F
100
AcDbEntity
  8
0
  6
HIDDEN
 62
     7
370
     0
100
AcDbLine
 10
193.8587344185
 20
149.1294978009
 30
0.0
 11
193.8587344185
 21
144.0294978009
 31
0.0
  0
LINE
  5
21F
330
1F
100
AcDbEntity
  8
0
  6
HIDDEN
 62
     7
370
     0
100
AcDbLine
 10
240.4113729852
 20
94.0249938311
 30
0.0
 11
241.1544825742
 21
93.2931737466
 31
0.0
  0
LINE
  5
220
330
1F
100
AcDbEntity
  8
0
  6
HIDDEN
 62
     7
370
     0
100
AcDbLine
 10
246.0661994763
 20
98.280661799
 30
0.0
 11
245.3230898873
 21
99.0124818836
 31
0.0
  0
LINE
  5
221
330
1F
100
AcDbEntity
  8
0
  6
HIDDEN
 62
     7
370
     0
100
AcDbLine
 10
236.0271143457
 20
89.1995937336
 30
0.0
 11
237.6281505438
 21
87.6228808728
 31
0.0
  0
LINE
  5
222
330
1F
100
AcDbEntity
  8
0
  6
HIDDEN
 62
     7
370
     0
100
AcDbLine
 10
184.093172249
 20
93.5501264673
 30
0.0
 11
183.6587400995
 21
94.0291924864
 31
0.0
  0
LINE
  5
223
330
1F
100
AcDbEntity
  8
0
  6
HIDDEN
 62
     7
370
     0
100
AcDbLine
 10
176.1587367745
 20
94.4508804456
 30
0.0
 11
175.6763030311
 21
93.9718144701
 31
0.0
  0
LINE
  5
224
330
1F
100
AcDbEntity
  8
0
  6
HIDDEN
 62
     7
370
     0
100
AcDbLine
 10
175.6761811029
 20
141.2871758412
 30
0.0
 11
176.1587318538
 21
140.8080555833
 31
0.0
  0
LINE
  5
225
330
1F
100
AcDbEntity
  8
0
  6
HIDDEN
 62
     7
370
     0
100
AcDbLine
 10
183.6587343005
 20
141.229753361
 30
0.0
 11
184.0932766909
 21
141.7088736115
 31
0.0
  0
LINE
  5
226
330
1F
100
AcDbEntity
  8
0
  6
HIDDEN
 62
     7
370
     0
100
AcDbLine
 10
249.0753245156
 20
88.680395973
 30
0.0
 11
245.268391867
 21
95.5933279144
 31
0.0
  0
LINE
  5
227
330
1F
100
AcDbEntity
  8
0
  6
HIDDEN
 62
     7
370
     0
100
AcDbLine
 10
210.7087344185
 20
113.4294978009
 30
0.0
 11
223.0087344185
 21
113.4294978009
 31
0.0
  0
LINE
  5
228
330
1F
100
AcDbEntity
  8
0
  6
HIDDEN
 62
     7
370
     0
100
AcDbLine
 10
223.0087344185
 20
121.8294978009
 30
0.0
 11
210.7087344185
 21
121.8294978009
 31
0.0
  0
LINE
  5
229
330
1F
100
AcDbEntity
  8
0
  6
HIDDEN
 62
     7
370
     0
100
AcDbLine
 10
223.0087344185
 20
113.4294978009
 30
0.0
 11
225.5323490185
 21
117.6294978009
 31
0.0
  0
LINE
  5
22A
330
1F
100
AcDbEntity
  8
0
  6
HIDDEN
 62
     7
370
     0
100
AcDbLine
 10
225.5323490185
 20
117.6294978009
 30
0.0
 11
223.0087344185
 21
121.8294978009
 31
0.0
  0
LINE
  5
22B
330
1F
100
AcDbEntity
  8
0
  6
HIDDEN
 62
     7
370
     0
100
AcDbLine
 10
183.6587344185
 20
94.0296763882
 30
0.0
 11
183.6587344185
 21
97.6916616103
 31
0.0
  0
LINE
  5
22C
330
1F
100
AcDbEntity
  8
0
  6
HIDDEN
 62
     7
370
     0
100
AcDbLine
 10
176.1587344185
 20
97.6313693481
 30
0.0
 11
176.1587344185
 21
94.4512036834
 31
0.0
  0
LINE
  5
22D
330
1F
100
AcDbEntity
  8
0
  6
HIDDEN
 62
     7
370
     0
100
AcDbLine
 10
183.6587344185
 20
137.5673339915
 30
0.0
 11
183.6587344185
 21
141.2294620549
 31
0.0
  0
LINE
  5
22E
330
1F
100
AcDbEntity
  8
0
  6
HIDDEN
 62
     7
370
     0
100
AcDbLine
 10
176.1587344185
 20
140.8079118041
 30
0.0
 11
176.1587344185
 21
137.6289135397
 31
0.0
  0
LINE
  5
22F
330
1F
100
AcDbEntity
  8
0
  6
HIDDEN
 62
     7
370
     0
100
AcDbLine
 10
234.6628901494
 20
98.703685802
 30
0.0
 11
239.8471644489
 21
93.5981722781
 31
0.0
  0
LINE
  5
230
330
1F
100
AcDbEntity
  8
0
  6
HIDDEN
 62
     7
370
     0
100
AcDbLine
 10
245.7412247314
 20
99.5831579411
 30
0.0
 11
240.5569504319
 21
104.688671465
 31
0.0
  0
LINE
  5
231
330
1F
100
AcDbEntity
  8
0
  6
HIDDEN
 62
     7
370
     0
100
AcDbLine
 10
221.4087344185
 20
119.0655183466
 30
0.0
 11
221.4087344185
 21
123.6831071632
 31
0.0
  0
LINE
  5
232
330
1F
100
AcDbEntity
  8
0
  6
HIDDEN
 62
     7
370
     0
100
AcDbLine
 10
216.4087344185
 20
123.6831071632
 30
0.0
 11
216.4087344185
 21
119.0658496069
 31
0.0
  0
ARC
  5
233
330
1F
100
AcDbEntity
  8
0
  6
HIDDEN
 62
     7
370
     0
100
AcDbCircle
 10
165.7087344185
 20
95.3594978009
 30
0.0
 40
1.400000000000006
100
AcDbArc
 50
40.7800501169
 51
90.0
  0
ARC
  5
234
330
1F
100
AcDbEntity
  8
0
  6
HIDDEN
 62
     7
370
     0
100
AcDbCircle
 10
161.7087344185
 20
139.8994978009
 30
0.0
 40
1.400000000000006
100
AcDbArc
 50
270.0
 51
301.7485287426
  0
LINE
  5
235
330
1F
100
AcDbEntity
  8
0
  6
HIDDEN
 62
     7
370
     0
100
AcDbLine
 10
250.133827059
 20
85.6300763909
 30
0.0
 11
249.1613972641
 21
86.5877327923
 31
0.0
  0
LINE
  5
236
330
1F
100
AcDbEntity
  8
0
  6
HIDDEN
 62
     7
370
     0
100
AcDbLine
 10
244.6706846679
 20
82.0277437157
 30
0.0
 11
245.6431144628
 21
81.0700873144
 31
0.0
  0
LINE
  5
237
330
1F
100
AcDbEntity
  8
0
  6
HIDDEN
 62
     7
370
     0
100
AcDbLine
 10
158.1587344185
 20
96.7594978009
 30
0.0
 11
165.7087344185
 21
96.7594978009
 31
0.0
  0
LINE
  5
238
330
1F
100
AcDbEntity
  8
0
  6
HIDDEN
 62
     7
370
     0
100
AcDbLine
 10
158.1485005952
 20
96.7654063016
 30
0.0
 11
158.1587344185
 21
96.7594978009
 31
0.0
  0
LINE
  5
239
330
1F
100
AcDbEntity
  8
0
  6
HIDDEN
 62
     7
370
     0
100
AcDbLine
 10
157.2302582325
 20
97.2955537768
 30
0.0
 11
158.1485005952
 21
96.7654063016
 31
0.0
  0
LINE
  5
23A
330
1F
100
AcDbEntity
  8
0
  6
HIDDEN
 62
     7
370
     0
100
AcDbLine
 10
161.7087344185
 20
138.4994978009
 30
0.0
 11
158.29962282
 21
138.4994978009
 31
0.0
  0
LINE
  5
23B
330
1F
100
AcDbEntity
  8
0
  6
HIDDEN
 62
     7
370
     0
100
AcDbLine
 10
158.1422745741
 20
138.4899947053
 30
0.0
 11
158.1416030992
 21
138.4896070291
 31
0.0
  0
LINE
  5
23C
330
1F
100
AcDbEntity
  8
0
  6
HIDDEN
 62
     7
370
     0
100
AcDbLine
 10
157.2600989878
 20
137.9806703931
 30
0.0
 11
157.2579710128
 21
137.9794418061
 31
0.0
  0
LINE
  5
23D
330
1F
100
AcDbEntity
  8
0
  6
HIDDEN
 62
     7
370
     0
100
AcDbLine
 10
241.4204488922
 20
89.8929388433
 30
0.0
 11
244.2281918501
 21
84.7944152369
 31
0.0
  0
LINE
  5
23E
330
1F
100
AcDbEntity
  8
0
  6
HIDDEN
 62
     7
370
     0
100
AcDbLine
 10
221.9087344185
 20
123.7858603808
 30
0.0
 11
221.9087344185
 21
126.5220200523
 31
0.0
  0
LINE
  5
23F
330
1F
100
AcDbEntity
  8
0
  6
HIDDEN
 62
     7
370
     0
100
AcDbLine
 10
215.9087344185
 20
126.5217964834
 30
0.0
 11
215.9087344185
 21
123.7858603808
 31
0.0
  0
LINE
  5
240
330
1F
100
AcDbEntity
  8
VERMASSUNG
100
AcDbLine
 10
258.9087344185
 20
95.1294978009
 30
0.0
 11
258.9087344185
 21
72.6294978009
 31
0.0
  0
DIMENSION
  5
241
330
1F
100
AcDbEntity
  8
VERMASSUNG
100
AcDbDimension
  2
*D1
 10
188.9087344185
 20
154.8742682927
 30
0.0
 11
223.9087344185
 21
154.8742682927
 31
0.0
 70
   160
 71
     2
 42
-1.0
  3
SLDDIMSTYLE0
100
AcDbAlignedDimension
 13
258.9087344185
 23
95.1294978009
 33
0.0
 14
188.9087344185
 24
148.8294978009
 34
0.0
100
AcDbRotatedDimension
  0
DIMENSION
  5
24C
330
1F
100
AcDbEntity
  8
VERMASSUNG
100
AcDbDimension
  2
*D2
 10
157.0087344185
 20
160.8742682927
 30
0.0
 11
207.9587344185
 21
160.8742682927
 31
0.0
 70
   160
 71
     2
 42
-1.0
  3
SLDDIMSTYLE0
100
AcDbAlignedDimension
 13
258.9087344185
 23
95.1294978009
 33
0.0
 14
157.0087344185
 24
137.6055583055
 34
0.0
100
AcDbRotatedDimension
  0
DIMENSION
  5
256
330
1F
100
AcDbEntity
  8
VERMASSUNG
100
AcDbDimension
  2
*D3
 10
264.3262694101
 20
117.6294978009
 30
0.0
 11
264.3262694101
 21
95.1294978009
 31
0.0
 70
   160
 71
     2
 42
-1.0
  3
SLDDIMSTYLE0
100
AcDbAlignedDimension
 13
258.9087344185
 23
72.6294978009
 33
0.0
 14
258.9087344185
 24
117.6294978009
 34
0.0
 50
90.0
100
AcDbRotatedDimension
  0
DIMENSION
  5
260
330
1F
100
AcDbEntity
  8
VERMASSUNG
100
AcDbDimension
  2
*D4
 10
254.5696654082
 20
86.6597091795
 30
0.0
 11
254.1014354602
 21
103.9768070449
 31
0.0
 70
   162
 71
     1
 42
-1.0
  3
SLDDIMSTYLE1
100
AcDb2LineAngularDimension
 13
258.9087344185
 23
95.1294978009
 33
0.0
 14
258.9087344185
 24
72.6294978009
 34
0.0
 15
258.8717178993
 25
73.1470657984
 35
0.0
 16
254.1014354602
 26
103.9768070449
 36
0.0
  0
DIMENSION
  5
26B
330
1F
100
AcDbEntity
  8
VERMASSUNG
100
AcDbDimension
  2
*D5
 10
152.1866507977
 20
86.1294978009
 30
0.0
 11
152.1866507977
 21
117.6294978009
 31
0.0
 70
   160
  1
HSK %%c<>
 71
     2
 42
-1.0
  3
SLDDIMSTYLE0
100
AcDbAlignedDimension
 13
189.2087344185
 23
149.1294978009
 33
0.0
 14
189.2087344185
 24
86.1294978009
 34
0.0
 50
90.0
100
AcDbRotatedDimension
  0
LINE
  5
277
330
1F
100
AcDbEntity
  8
VERMASSUNG
  6
CENTERX2
370
     0
100
AcDbLine
 10
153.549
 20
117.6294978009
 30
0.0
 11
263.6418292683
 21
117.6294978009
 31
0.0
  0
LINE
  5
278
330
1F
100
AcDbEntity
  8
0
  6
Continuous
 62
     7
370
    15
100
AcDbLine
 10
76.1985219675
 20
99.6280049361
 30
0.0
 11
75.8141393557
 21
99.0604696349
 31
0.0
  0
LINE
  5
279
330
1F
100
AcDbEntity
  8
0
  6
Continuous
 62
     7
370
    15
100
AcDbLine
 10
77.0106311356
 20
92.2748275563
 30
0.0
 11
77.5659411445
 21
91.8729854177
 31
0.0
  0
LINE
  5
27A
330
1F
100
AcDbEntity
  8
0
  6
Continuous
 62
     7
370
    15
100
AcDbLine
 10
76.3942016513
 20
99.7261487848
 30
0.0
 11
76.3082536038
 21
99.7109938251
 31
0.0
  0
LINE
  5
27B
330
1F
100
AcDbEntity
  8
0
  6
Continuous
 62
     7
370
    15
100
AcDbLine
 10
77.6974390251
 20
91.832531801
 30
0.0
 11
77.7833870727
 21
91.8476867607
 31
0.0
  0
LINE
  5
27C
330
1F
100
AcDbEntity
  8
0
  6
Continuous
 62
     7
370
    15
100
AcDbLine
 10
80.8621209934
 20
80.1560863069
 30
0.0
 11
80.9468440018
 21
80.1667820993
 31
0.0
  0
LINE
  5
27D
330
1F
100
AcDbEntity
  8
0
  6
Continuous
 62
     7
370
    15
100
AcDbLine
 10
83.5313147047
 20
72.629682412
 30
0.0
 11
88.1477831422
 21
73.4436903531
 31
0.0
  0
LINE
  5
27E
330
1F
100
AcDbEntity
  8
0
  6
Continuous
 62
     7
370
    15
100
AcDbLine
 10
78.596780894
 20
88.9533272063
 30
0.0
 11
78.5609148514
 21
88.9995936078
 31
0.0
  0
SPLINE
  5
27F
330
1F
100
AcDbEntity
  8
0
  6
Continuous
 62
     7
370
    15
100
AcDbSpline
210
0.0
220
0.0
230
1.0
 70
     8
 71
     3
 72
    15
 73
    11
 74
     0
 42
0.00000001
 43
0.00000001
 40
0.0
 40
0.0
 40
0.0
 40
0.0
 40
0.0731926304235964
 40
0.2116345729611057
 40
0.2608290258459131
 40
0.310848264402554
 40
0.4190444922347452
 40
0.5664095015144898
 40
0.8114330102211041
 40
1.0
 40
1.0
 40
1.0
 40
1.0
 10
78.5513922685557
 20
89.0120550838903
 30
0.0
 10
78.55039893836005
 20
89.01335334969946
 30
0.0
 10
78.54752675012813
 20
89.01710725126743
 30
0.0
 10
78.55390044952199
 20
89.00881104172662
 30
0.0
 10
78.5709789811821
 20
88.98322538006326
 30
0.0
 10
78.59533866363846
 20
88.94343464146841
 30
0.0
 10
78.6350059543202
 20
88.86394425865457
 30
0.0
 10
78.67607537552298
 20
88.7262747471485
 30
0.0
 10
78.69341699428473
 20
88.55286171357501
 30
0.0
 10
78.64925404955851
 20
88.43403349679171
 30
0.0
 10
78.63004773951279
 20
88.38235552133355
 30
0.0
  0
LINE
  5
280
330
1F
100
AcDbEntity
  8
0
  6
Continuous
 62
     7
370
    15
100
AcDbLine
 10
78.6338380714
 20
88.3815826684
 30
0.0
 11
78.3463068548
 21
87.518826245
 31
0.0
  0
LINE
  5
281
330
1F
100
AcDbEntity
  8
0
  6
Continuous
 62
     7
370
    15
100
AcDbLine
 10
77.4130773273
 20
90.8676089891
 30
0.0
 11
77.1115950473
 21
90.8144495289
 31
0.0
  0
LINE
  5
282
330
1F
100
AcDbEntity
  8
0
  6
Continuous
 62
     7
370
    15
100
AcDbLine
 10
88.1594010473
 20
73.7694776728
 30
0.0
 11
92.2608075453
 21
74.4926662973
 31
0.0
  0
LINE
  5
283
330
1F
100
AcDbEntity
  8
0
  6
Continuous
 62
     7
370
    15
100
AcDbLine
 10
92.2882404544
 20
74.5134135195
 30
0.0
 11
92.5188700215
 21
74.8539347002
 31
0.0
  0
LWPOLYLINE
  5
284
330
1F
100
AcDbEntity
  8
0
  6
Continuous
 62
     7
370
    15
100
AcDbPolyline
 90
       20
 70
   128
 43
0.0
 10
76.1985219675
 20
99.6280049361
 10
76.2859802304
 20
99.704838303
 10
76.4286432092
 20
99.6782350041
 10
76.5933724912
 20
99.5015081697
 10
76.7738376227
 20
99.1814493129
 10
76.9631034298
 20
98.7303581161
 10
77.1538965336
 20
98.165569761
 10
77.3388848622
 20
97.5087887473
 10
77.5109594179
 20
96.7852548012
 10
77.663507472
 20
96.0227729263
 10
77.7906666882
 20
95.2506448735
 10
77.8875504094
 20
94.4985430909
 10
77.9504354483
 20
93.7953704282
 10
77.9769051682
 20
93.1681494164
 10
77.9659423526
 20
92.6409838074
 10
77.9179682964
 20
92.2341322798
 10
77.8348266156
 20
91.9632299097
 10
77.7197123985
 20
91.8386873232
 10
77.5770494197
 20
91.865290622
 10
77.5659411445
 20
91.8729854177
  0
LWPOLYLINE
  5
285
330
1F
100
AcDbEntity
  8
0
  6
Continuous
 62
     7
370
    15
100
AcDbPolyline
 90
       31
 70
   128
 43
0.0
 10
75.7899403957
 20
99.0187240677
 10
75.8982858884
 20
99.1302789126
 10
76.0337125031
 20
99.0913135075
 10
76.190301447
 20
98.9035308278
 10
76.3612090319
 20
98.5751378776
 10
76.5389657761
 20
98.1204870047
 10
76.715802857
 20
97.5594486337
 10
76.8839916455
 20
96.9165428338
 10
77.0361814847
 20
96.2198676733
 10
77.1657209481
 20
95.4998711999
 10
77.2669485396
 20
94.7880207142
 10
77.3354401279
 20
94.1154274984
 10
77.3682023017
 20
93.5114871035
 10
77.3638031969
 20
93.0025946227
 10
77.3224350754
 20
92.6109910994
 10
77.2459059228
 20
92.3537914868
 10
77.1375604301
 20
92.2422366419
 10
77.0021338154
 20
92.2812020469
 10
76.8455448714
 20
92.4689847266
 10
76.6746372866
 20
92.7973776768
 10
76.4968805424
 20
93.2520285498
 10
76.3200434615
 20
93.8130669207
 10
76.1518546729
 20
94.4559727207
 10
75.9996648338
 20
95.1526478811
 10
75.8701253704
 20
95.8726443546
 10
75.7688977788
 20
96.5844948403
 10
75.7004061906
 20
97.257088056
 10
75.6676440168
 20
97.861028451
 10
75.6720431216
 20
98.3699209317
 10
75.713411243
 20
98.761524455
 10
75.7899403957
 20
99.0187240677
  0
LWPOLYLINE
  5
286
330
1F
100
AcDbEntity
  8
0
  6
Continuous
 62
     7
370
    15
100
AcDbPolyline
 90
       24
 70
   128
 43
0.0
 10
76.1019330086
 20
97.5905242289
 10
76.1859026892
 20
97.6566272963
 10
76.2944968091
 20
97.5765970702
 10
76.4196614394
 20
97.3563690266
 10
76.5521136918
 20
97.0122764718
 10
76.6820301889
 20
96.5698391766
 10
76.7997756183
 20
96.0618706911
 10
76.8966173402
 20
95.5260447141
 10
76.9653730472
 20
95.002101007
 10
77.0009434429
 20
94.5288980778
 10
77.0006904338
 20
94.141531223
 10
76.9646327845
 20
93.86872967
 10
76.8954447258
 20
93.7307258621
 10
76.7982576196
 20
93.7377549103
 10
76.6802793889
 20
93.8892955025
 10
76.5502599394
 20
94.1741085659
 10
76.4178422188
 20
94.5710708188
 10
76.2928470438
 20
95.0507413867
 10
76.1845447346
 20
95.577545298
 10
76.100967578
 20
96.1124119166
 10
76.0483141094
 20
96.6156726322
 10
76.0304893958
 20
97.0500028997
 10
76.0488154145
 20
97.3831904303
 10
76.1019330086
 20
97.5905242289
  0
SPLINE
  5
287
330
1F
100
AcDbEntity
  8
0
  6
Continuous
 62
     7
370
    15
100
AcDbSpline
210
0.0
220
0.0
230
1.0
 70
     8
 71
     3
 72
     9
 73
     5
 74
     0
 42
0.00000001
 43
0.00000001
 40
0.0
 40
0.0
 40
0.0
 40
0.0
 40
0.4673818590710395
 40
1.0
 40
1.0
 40
1.0
 40
1.0
 10
76.53004524963723
 20
97.0499494594882
 30
0.0
 10
76.50702360505149
 20
97.03327167097356
 30
0.0
 10
76.45776699797756
 20
96.99758823955455
 30
0.0
 10
76.39122946510759
 20
96.96056919123666
 30
0.0
 10
76.35579036804839
 20
96.94085217454264
 30
0.0
  0
SPLINE
  5
288
330
1F
100
AcDbEntity
  8
0
  6
Continuous
 62
     7
370
    15
100
AcDbSpline
210
0.0
220
0.0
230
1.0
 70
     8
 71
     3
 72
    13
 73
     9
 74
     0
 42
0.00000001
 43
0.00000001
 40
0.0
 40
0.0
 40
0.0
 40
0.0
 40
0.216124118254475
 40
0.4396369202065087
 40
0.5932538221761603
 40
0.7520048557756821
 40
0.8754343578245647
 40
0.9999999999999999
 40
0.9999999999999999
 40
0.9999999999999999
 40
0.9999999999999999
 10
76.35579036804839
 20
96.94085217454264
 30
0.0
 10
76.42233940859958
 20
96.83733106717169
 30
0.0
 10
76.55771261667522
 20
96.626749753117
 30
0.0
 10
76.66924876466976
 20
96.30184135170238
 30
0.0
 10
76.70097810822492
 20
95.9920628540062
 30
0.0
 10
76.67869223742379
 20
95.73712257893075
 30
0.0
 10
76.62760916570944
 20
95.50268972345513
 30
0.0
 10
76.58112288916145
 20
95.3632594209669
 30
0.0
 10
76.55777326710067
 20
95.29322488370816
 30
0.0
  0
SPLINE
  5
289
330
1F
100
AcDbEntity
  8
0
  6
Continuous
 62
     7
370
    15
100
AcDbSpline
210
0.0
220
0.0
230
1.0
 70
     8
 71
     3
 72
    10
 73
     6
 74
     0
 42
0.00000001
 43
0.00000001
 40
0.0
 40
0.0
 40
0.0
 40
0.0
 40
0.4391165375904086
 40
0.7513669429073497
 40
1.0
 40
1.0
 40
1.0
 40
1.0
 10
76.55777326710067
 20
95.29322488370816
 30
0.0
 10
76.71782286773598
 20
95.13774843885217
 30
0.0
 10
76.99168178410194
 20
94.87171459347121
 30
0.0
 10
77.0661705558385
 20
94.42792561521817
 30
0.0
 10
77.00631074545258
 20
94.18994604697883
 30
0.0
 10
76.97977559394482
 20
94.08445249699476
 30
0.0
  0
LINE
  5
28A
330
1F
100
AcDbEntity
  8
0
  6
Continuous
 62
     7
370
    15
100
AcDbLine
 10
76.5635842321
 20
96.9774918392
 30
0.0
 11
76.355790368
 21
96.9408521745
 31
0.0
  0
LINE
  5
28B
330
1F
100
AcDbEntity
  8
0
  6
Continuous
 62
     7
370
    15
100
AcDbLine
 10
76.9216557394
 20
95.3573871814
 30
0.0
 11
76.5577732671
 21
95.2932248837
 31
0.0
  0
ELLIPSE
  5
28C
330
1F
100
AcDbEntity
  8
0
  6
Continuous
 62
     7
370
    15
100
AcDbEllipse
 10
80.4566108793
 20
82.4735456535
 30
0.0
 11
-0.4089531522262035
 21
2.316938528838335
 31
0.0
210
0.0
220
0.0
230
1.0
 40
0.1734797809
 41
1.816734746743735
 42
3.365197675748579
  0
LINE
  5
28D
330
1F
100
AcDbEntity
  8
0
  6
Continuous
 62
     7
370
    15
100
AcDbLine
 10
77.1367030424
 20
90.2905682327
 30
0.0
 11
80.2896167107
 21
76.7779248515
 31
0.0
  0
LWPOLYLINE
  5
28E
330
1F
100
AcDbEntity
  8
0
  6
Continuous
 62
     7
370
    15
100
AcDbPolyline
 90
        9
 70
   128
 43
0.0
 10
77.1353793223
 20
90.7998445224
 10
77.1138703537
 20
90.814633258
 10
77.0973269336
 20
90.8002936656
 10
77.0869717816
 20
90.7578855804
 10
77.0835702442
 20
90.6905433725
 10
77.0873737281
 20
90.603244286
 10
77.0981011187
 20
90.5024405726
 10
77.1149595577
 20
90.3955826072
 10
77.1367030424
 20
90.2905682327
  0
LINE
  5
28F
330
1F
100
AcDbEntity
  8
0
  6
Continuous
 62
     7
370
    15
100
AcDbLine
 10
80.2632667692
 20
86.915566989
 30
0.0
 11
77.1353793223
 21
90.7998445224
 31
0.0
  0
ARC
  5
290
330
1F
100
AcDbEntity
  8
0
  6
Continuous
 62
     7
370
    15
100
AcDbCircle
 10
79.597849174
 20
86.5344006097
 30
0.0
 40
0.7668561695297484
100
AcDbArc
 50
9.897086704
 51
29.8050655292
  0
LINE
  5
291
330
1F
100
AcDbEntity
  8
0
  6
Continuous
 62
     7
370
    15
100
AcDbLine
 10
83.5062067096
 20
73.1535637082
 30
0.0
 11
80.3532930413
 21
86.6662070894
 31
0.0
  0
LWPOLYLINE
  5
292
330
1F
100
AcDbEntity
  8
0
  6
Continuous
 62
     7
370
    15
100
AcDbPolyline
 90
        9
 70
   128
 43
0.0
 10
83.5075304297
 20
72.6442874185
 10
83.5290393983
 20
72.6294986829
 10
83.5455828183
 20
72.6438382753
 10
83.5559379703
 20
72.6862463605
 10
83.5593395077
 20
72.7535885684
 10
83.5555360239
 20
72.8408876549
 10
83.5448086332
 20
72.9416913683
 10
83.5279501943
 20
73.0485493337
 10
83.5062067096
 20
73.1535637082
  0
LINE
  5
293
330
1F
100
AcDbEntity
  8
0
  6
Continuous
 62
     7
370
    15
100
AcDbLine
 10
80.3796429828
 20
76.5285649519
 30
0.0
 11
83.5075304297
 21
72.6442874185
 31
0.0
  0
ARC
  5
294
330
1F
100
AcDbEntity
  8
0
  6
Continuous
 62
     7
370
    15
100
AcDbCircle
 10
81.045060578
 20
76.9097313312
 30
0.0
 40
0.766856169530404
100
AcDbArc
 50
189.897086704
 51
209.8050655292
  0
LWPOLYLINE
  5
295
330
1F
100
AcDbEntity
  8
0
  6
Continuous
 62
     7
370
    15
100
AcDbPolyline
 90
        9
 70
   128
 43
0.0
 10
83.5052466797
 20
72.6632533232
 10
83.5256801999
 20
72.6492040244
 10
83.5413964489
 20
72.6628266372
 10
83.5512338433
 20
72.7031143181
 10
83.5544653039
 20
72.7670894156
 10
83.5508519942
 20
72.8500235477
 10
83.5406609731
 20
72.9457870755
 10
83.5246454561
 20
73.0473021427
 10
83.5039891457
 20
73.1470657984
  0
LINE
  5
296
330
1F
100
AcDbEntity
  8
0
  6
Continuous
 62
     7
370
    15
100
AcDbLine
 10
83.5039891457
 20
73.1470657984
 30
0.0
 11
80.3510754775
 21
86.6597091795
 31
0.0
  0
ARC
  5
297
330
1F
100
AcDbEntity
  8
0
  6
Continuous
 62
     7
370
    15
100
AcDbCircle
 10
79.6334038046
 20
86.534493024
 30
0.0
 40
0.7285133599790841
100
AcDbArc
 50
9.8970867081
 51
29.8050655715
  0
LINE
  5
298
330
1F
100
AcDbEntity
  8
0
  6
Continuous
 62
     7
370
    15
100
AcDbLine
 10
80.2655505189
 20
86.8966010842
 30
0.0
 11
77.1376630719
 21
90.7808786176
 31
0.0
  0
LWPOLYLINE
  5
299
330
1F
100
AcDbEntity
  8
0
  6
Continuous
 62
     7
370
    15
100
AcDbPolyline
 90
        9
 70
   128
 43
0.0
 10
77.1376630719
 20
90.7808786176
 10
77.1172295518
 20
90.7949279165
 10
77.1015133027
 20
90.7813053036
 10
77.0916759083
 20
90.7410176227
 10
77.0884444478
 20
90.6770425252
 10
77.0920577574
 20
90.5941083931
 10
77.1022487786
 20
90.4983448654
 10
77.1182642956
 20
90.3968297982
 10
77.138920606
 20
90.2970661424
  0
LINE
  5
29A
330
1F
100
AcDbEntity
  8
0
  6
Continuous
 62
     7
370
    15
100
AcDbLine
 10
77.138920606
 20
90.2970661424
 30
0.0
 11
80.2918342743
 21
76.7844227612
 31
0.0
  0
ARC
  5
29B
330
1F
100
AcDbEntity
  8
0
  6
Continuous
 62
     7
370
    15
100
AcDbCircle
 10
81.0095059483
 20
76.9096389169
 30
0.0
 40
0.7285133610541418
100
AcDbArc
 50
189.897086704
 51
209.8050655292
  0
LINE
  5
29C
330
1F
100
AcDbEntity
  8
0
  6
Continuous
 62
     7
370
    15
100
AcDbLine
 10
80.3773592328
 20
76.5475308566
 30
0.0
 11
83.5052466797
 21
72.6632533232
 31
0.0
  0
LINE
  5
29D
330
1F
100
AcDbEntity
  8
0
  6
Continuous
 62
     7
370
    15
100
AcDbLine
 10
88.1226751471
 20
73.9675716493
 30
0.0
 11
84.9697614788
 21
87.4802150305
 31
0.0
  0
ARC
  5
29E
330
1F
100
AcDbEntity
  8
0
  6
Continuous
 62
     7
370
    15
100
AcDbCircle
 10
87.2273935804
 20
73.6621212767
 30
0.0
 40
0.9459540231361669
100
AcDbArc
 50
346.6493044992
 51
18.8385119499
  0
LINE
  5
29F
330
1F
100
AcDbEntity
  8
0
  6
Continuous
 62
     7
370
    15
100
AcDbLine
 10
83.5543564459
 20
72.7786069734
 30
0.0
 11
83.5052466797
 21
72.6632533232
 31
0.0
  0
LINE
  5
2A0
330
1F
100
AcDbEntity
  8
0
  6
Continuous
 62
     7
370
    15
100
AcDbLine
 10
80.5467455773
 20
76.9454014767
 30
0.0
 11
80.3773592328
 21
76.5475308566
 31
0.0
  0
LINE
  5
2A1
330
1F
100
AcDbEntity
  8
0
  6
Continuous
 62
     7
370
    15
100
AcDbLine
 10
80.7878119063
 20
77.3377186755
 30
0.0
 11
80.5467455773
 21
76.9454014767
 31
0.0
  0
LINE
  5
2A2
330
1F
100
AcDbEntity
  8
0
  6
Continuous
 62
     7
370
    15
100
AcDbLine
 10
82.1899017813
 20
77.1787474542
 30
0.0
 11
80.4253299299
 21
84.7412856827
 31
0.0
  0
LINE
  5
2A3
330
1F
100
AcDbEntity
  8
0
  6
Continuous
 62
     7
370
    15
100
AcDbLine
 10
78.4530079704
 20
86.2653844866
 30
0.0
 11
80.2175798217
 21
78.7028462582
 31
0.0
  0
LWPOLYLINE
  5
2A4
330
1F
100
AcDbEntity
  8
0
  6
Continuous
 62
     7
370
    15
100
AcDbPolyline
 90
        9
 70
   128
 43
0.0
 10
78.4496986702
 20
87.5385752109
 10
78.3959262488
 20
87.5755470499
 10
78.3545676986
 20
87.5396980688
 10
78.3286798186
 20
87.4336778559
 10
78.3201759751
 20
87.2653223362
 10
78.3296846847
 20
87.04707462
 10
78.3565031613
 20
86.7950653365
 10
78.3986492588
 20
86.5279204229
 10
78.4530079704
 20
86.2653844866
  0
LINE
  5
2A5
330
1F
100
AcDbEntity
  8
0
  6
Continuous
 62
     7
370
    15
100
AcDbLine
 10
80.2002642497
 20
85.3646854317
 30
0.0
 11
78.4496986702
 21
87.5385752109
 31
0.0
  0
ARC
  5
2A6
330
1F
100
AcDbEntity
  8
0
  6
Continuous
 62
     7
370
    15
100
AcDbCircle
 10
78.5367202616
 20
84.4117694835
 30
0.0
 40
1.917140423825118
100
AcDbArc
 50
9.897086704
 51
29.8050655292
  0
LWPOLYLINE
  5
2A7
330
1F
100
AcDbEntity
  8
0
  6
Continuous
 62
     7
370
    15
100
AcDbPolyline
 90
        9
 70
   128
 43
0.0
 10
82.1932110817
 20
75.9055567297
 10
82.246983503
 20
75.8685848907
 10
82.2883420533
 20
75.9044338718
 10
82.3142299332
 20
76.0104540847
 10
82.3227337767
 20
76.1788096045
 10
82.3132250671
 20
76.3970573207
 10
82.2864065904
 20
76.6490666043
 10
82.2442604929
 20
76.916211518
 10
82.1899017813
 20
77.1787474542
  0
LINE
  5
2A8
330
1F
100
AcDbEntity
  8
0
  6
Continuous
 62
     7
370
    15
100
AcDbLine
 10
80.4426455019
 20
78.0794465092
 30
0.0
 11
82.1932110817
 21
75.9055567297
 31
0.0
  0
ARC
  5
2A9
330
1F
100
AcDbEntity
  8
0
  6
Continuous
 62
     7
370
    15
100
AcDbCircle
 10
82.10618949
 20
79.0323624574
 30
0.0
 40
1.917140423825174
100
AcDbArc
 50
189.897086704
 51
209.8050655292
  0
LWPOLYLINE
  5
2AA
330
1F
100
AcDbEntity
  8
0
  6
Continuous
 62
     7
370
    15
100
AcDbPolyline
 90
       27
 70
   128
 43
0.0
 10
80.6160586007
 20
79.27546426
 10
80.7404391251
 20
79.1814688668
 10
80.8404698079
 20
79.2351237426
 10
80.9103372294
 20
79.433310661
 10
80.945980949
 20
79.7645117187
 10
80.9453294833
 20
80.2094787141
 10
80.9084206932
 20
80.7423517828
 10
80.8373995833
 20
81.3321622789
 10
80.7363936423
 20
81.9446325604
 10
80.6112729685
 20
82.5441680807
 10
80.4693091207
 20
83.0959260145
 10
80.3187525215
 20
83.5678401964
 10
80.1683529734
 20
83.9324846894
 10
80.0268511513
 20
84.1686676809
 10
79.9024706269
 20
84.2626630741
 10
79.8024399441
 20
84.2090081983
 10
79.7325725226
 20
84.0108212799
 10
79.696928803
 20
83.6796202222
 10
79.6975802686
 20
83.2346532268
 10
79.7344890588
 20
82.7017801581
 10
79.8055101687
 20
82.111969662
 10
79.9065161097
 20
81.4994993805
 10
80.0316367834
 20
80.8999638602
 10
80.1736006313
 20
80.3482059264
 10
80.3241572305
 20
79.8762917445
 10
80.4745567786
 20
79.5116472515
 10
80.6160586007
 20
79.27546426
  0
ARC
  5
2AB
330
1F
100
AcDbEntity
  8
0
  6
Continuous
 62
     7
370
    15
100
AcDbCircle
 10
84.2143176115
 20
87.3484085508
 30
0.0
 40
0.7668561695296409
100
AcDbArc
 50
9.897086704
 51
29.8050655292
  0
LINE
  5
2AC
330
1F
100
AcDbEntity
  8
0
  6
Continuous
 62
     7
370
    15
100
AcDbLine
 10
84.8797352067
 20
87.7295749301
 30
0.0
 11
84.7668603745
 21
87.869745311
 31
0.0
  0
LINE
  5
2AD
330
1F
100
AcDbEntity
  8
0
  6
Continuous
 62
     7
370
    15
100
AcDbLine
 10
78.4877069036
 20
89.0871621499
 30
0.0
 11
77.393831909
 21
90.4580448579
 31
0.0
  0
LINE
  5
2AE
330
1F
100
AcDbEntity
  8
0
  6
Continuous
 62
     7
370
    15
100
AcDbLine
 10
77.393831909
 20
90.4580448579
 30
0.0
 11
77.1376630719
 21
90.7808786176
 31
0.0
  0
LINE
  5
2AF
330
1F
100
AcDbEntity
  8
0
  6
Continuous
 62
     7
370
    15
100
AcDbLine
 10
78.5776278315
 20
88.9754964183
 30
0.0
 11
78.4877069036
 21
89.0871621499
 31
0.0
  0
LINE
  5
2B0
330
1F
100
AcDbEntity
  8
0
  6
Continuous
 62
     7
370
    15
100
AcDbLine
 10
80.880829039
 20
77.5272308675
 30
0.0
 11
80.4426455019
 21
78.0794465092
 31
0.0
  0
LINE
  5
2B1
330
1F
100
AcDbEntity
  8
0
  6
Continuous
 62
     7
370
    15
100
AcDbLine
 10
80.5467455773
 20
76.9454014767
 30
0.0
 11
80.2918342743
 21
76.7844227612
 31
0.0
  0
LINE
  5
2B2
330
1F
100
AcDbEntity
  8
0
  6
Continuous
 62
     7
370
    15
100
AcDbLine
 10
77.393831909
 20
90.4580448579
 30
0.0
 11
77.138920606
 21
90.2970661424
 31
0.0
  0
LINE
  5
2B3
330
1F
100
AcDbEntity
  8
0
  6
Continuous
 62
     7
370
    15
100
AcDbLine
 10
78.4877069036
 20
89.0871621499
 30
0.0
 11
78.6342549166
 21
88.4590919753
 31
0.0
  0
SPLINE
  5
2B4
330
1F
100
AcDbEntity
  8
0
  6
Continuous
 62
     7
370
    15
100
AcDbSpline
210
0.0
220
0.0
230
1.0
 70
     8
 71
     3
 72
     9
 73
     5
 74
     0
 42
0.00000001
 43
0.00000001
 40
0.0
 40
0.0
 40
0.0
 40
0.0
 40
0.7750214793297023
 40
1.0
 40
1.0
 40
1.0
 40
1.0
 10
80.78781190634221
 20
77.33771867552306
 30
0.0
 10
80.82028183229515
 20
77.39670451582892
 30
0.0
 10
80.86217734979881
 20
77.47281316814251
 30
0.0
 10
80.85519505588955
 20
77.54522447060235
 30
0.0
 10
80.85362418973496
 20
77.56151545830956
 30
0.0
  0
ARC
  5
2B5
330
1F
100
AcDbEntity
  8
0
  6
Continuous
 62
     7
370
    15
100
AcDbCircle
 10
89.9598336408
 20
75.0387436063
 30
0.0
 40
2.364885057838406
100
AcDbArc
 50
346.6493044992
 51
18.8385119499
  0
LINE
  5
2B6
330
1F
100
AcDbEntity
  8
0
  6
Continuous
 62
     7
370
    15
100
AcDbLine
 10
84.8124845389
 20
87.8130882478
 30
0.0
 11
84.7668603745
 21
87.869745311
 31
0.0
  0
LINE
  5
2B7
330
1F
100
AcDbEntity
  8
0
  6
Continuous
 62
     7
370
    15
100
AcDbLine
 10
87.8725230133
 20
75.0396646183
 30
0.0
 11
85.0375502191
 21
87.1896884988
 31
0.0
  0
LINE
  5
2B8
330
1F
100
AcDbEntity
  8
0
  6
Continuous
 62
     7
370
    15
100
AcDbLine
 10
92.1980375576
 20
75.8023695379
 30
0.0
 11
89.3630647634
 21
87.9523934184
 31
0.0
  0
ARC
  5
2B9
330
1F
100
AcDbEntity
  8
0
  6
Continuous
 62
     7
370
    15
100
AcDbCircle
 10
90.9483530893
 20
75.1973717764
 30
0.0
 40
1.60762945342352
100
AcDbArc
 50
347.6648645039
 51
20.3413559441
  0
LINE
  5
2BA
330
1F
100
AcDbEntity
  8
0
  6
Continuous
 62
     7
370
    15
100
AcDbLine
 10
89.6207551995
 20
87.9062277936
 30
0.0
 11
92.4557279937
 21
75.7562039131
 31
0.0
  0
ARC
  5
2BB
330
1F
100
AcDbEntity
  8
0
  6
Continuous
 62
     7
370
    15
100
AcDbCircle
 10
87.4744550951
 20
87.6228772192
 30
0.0
 40
1.917140423824646
100
AcDbArc
 50
9.897086704
 51
29.8050655292
  0
LINE
  5
2BC
330
1F
100
AcDbEntity
  8
0
  6
Continuous
 62
     7
370
    15
100
AcDbLine
 10
89.1379990832
 20
88.5757931674
 30
0.0
 11
89.0923749188
 21
88.6324502306
 31
0.0
  0
ARC
  5
2BD
330
1F
100
AcDbEntity
  8
0
  6
Continuous
 62
     7
370
    15
100
AcDbCircle
 10
88.2987284317
 20
87.6755664542
 30
0.0
 40
1.341998296677843
100
AcDbArc
 50
9.897086704
 51
29.8050655292
  0
LINE
  5
2BE
330
1F
100
AcDbEntity
  8
0
  6
Continuous
 62
     7
370
    15
100
AcDbLine
 10
89.2127201254
 20
88.6536703375
 30
0.0
 11
89.4632092234
 21
88.3426076179
 31
0.0
  0
LINE
  5
2BF
330
1F
100
AcDbEntity
  8
0
  6
Continuous
 62
     7
370
    15
100
AcDbLine
 10
89.3833288119
 20
88.6837532521
 30
0.0
 11
80.44134583
 21
87.1070403914
 31
0.0
  0
LINE
  5
2C0
330
1F
100
AcDbEntity
  8
0
  6
Continuous
 62
     7
370
    15
100
AcDbLine
 10
80.44134583
 20
87.1070403914
 30
0.0
 11
68.1528084713
 21
139.7728094139
 31
0.0
  0
ARC
  5
2C1
330
1F
100
AcDbEntity
  8
0
  6
Continuous
 62
     7
370
    15
100
AcDbCircle
 10
83.6018780488
 20
117.6294978009
 30
0.0
 40
27.0
100
AcDbArc
 50
0.0
 51
124.902926394
  0
LINE
  5
2C2
330
1F
100
AcDbEntity
  8
0
  6
Continuous
 62
     7
370
    15
100
AcDbLine
 10
110.6018780488
 20
86.8803756886
 30
0.0
 11
110.6018780488
 21
117.6294978009
 31
0.0
  0
SPLINE
  5
2C3
330
1F
100
AcDbEntity
  8
0
  6
Continuous
 62
     7
370
    15
100
AcDbSpline
210
0.0
220
0.0
230
1.0
 70
     8
 71
     3
 72
    33
 73
    29
 74
     0
 42
0.00000001
 43
0.00000001
 40
0.0
 40
0.0
 40
0.0
 40
0.0
 40
0.0288696798825357
 40
0.0577334486785037
 40
0.0865994018176205
 40
0.1154756328924656
 40
0.1443702268588416
 40
0.1732912532723561
 40
0.2022467595893988
 40
0.2312447645600348
 40
0.2602932517394636
 40
0.2894001631435508
 40
0.3185733930725982
 40
0.3478207821259193
 40
0.37715011142809
 40
0.4065690970858206
 40
0.4360853848923834
 40
0.4657065452944618
 40
0.4954400686340711
 40
0.5516187284531052
 40
0.6076504723301441
 40
0.6635856013900673
 40
0.7194746776233283
 40
0.7753683880000168
 40
0.8313174068953274
 40
0.887372258685617
 40
0.9435831823688632
 40
1.0
 40
1.0
 40
1.0
 40
1.0
 10
92.40650978554072
 20
75.72789001042993
 30
0.0
 10
92.60999093788398
 20
75.78558444598544
 30
0.0
 10
93.01691157966636
 20
75.90096150412151
 30
0.0
 10
93.62281786527691
 20
76.08647598201003
 30
0.0
 10
94.22528079759948
 20
76.28105831132397
 30
0.0
 10
94.82399188347954
 20
76.48560514384756
 30
0.0
 10
95.41903363120389
 20
76.69987608844201
 30
0.0
 10
96.01038375136126
 20
76.9239355163354
 30
0.0
 10
96.59804806360532
 20
77.15776606558092
 30
0.0
 10
97.1820248550463
 20
77.4013722907664
 30
0.0
 10
97.76231444303713
 20
77.65475285545759
 30
0.0
 10
98.33891660987318
 20
77.91790799731713
 30
0.0
 10
98.91183128952183
 20
78.19083752146157
 30
0.0
 10
99.48105839350555
 20
78.47354135154357
 30
0.0
 10
100.0465978210041
 20
78.76601934059154
 30
0.0
 10
100.6084495952879
 20
79.06827148002476
 30
0.0
 10
101.1666133064525
 20
79.3802972547277
 30
0.0
 10
101.7210902146845
 20
79.70209802913277
 30
0.0
 10
102.4344126309556
 20
80.13151478699692
 30
0.0
 10
103.2973375169138
 20
80.67841392469218
 30
0.0
 10
104.2975354128767
 20
81.35581871306297
 30
0.0
 10
105.273057369136
 20
82.0610908457431
 30
0.0
 10
106.2239077541225
 20
82.79421543324725
 30
0.0
 10
107.1500370188263
 20
83.55523241779517
 30
0.0
 10
108.0516247113359
 20
84.34398644910578
 30
0.0
 10
108.9279876275898
 20
85.16104838835068
 30
0.0
 10
109.7816768309685
 20
86.00426918314346
 30
0.0
 10
110.3281446405368
 20
86.58798449174387
 30
0.0
 10
110.6018780422184
 20
86.88037568888141
 30
0.0
  0
LINE
  5
2C4
330
1F
100
AcDbEntity
  8
0
  6
Continuous
 62
     7
370
    15
100
AcDbLine
 10
89.4628140305
 20
88.343098377
 30
0.0
 11
89.3833288119
 21
88.6837532521
 31
0.0
  0
SPLINE
  5
2C5
330
1F
100
AcDbEntity
  8
0
  6
Continuous
 62
     7
370
    15
100
AcDbSpline
210
0.0
220
0.0
230
1.0
 70
     8
 71
     3
 72
    13
 73
     9
 74
     0
 42
0.00000001
 43
0.00000001
 40
0.0
 40
0.0
 40
0.0
 40
0.0
 40
0.1881726445290381
 40
0.3684531511969897
 40
0.5406127762060133
 40
0.7044478257148382
 40
0.8597817193752774
 40
1.0
 40
1.0
 40
1.0
 40
1.0
 10
110.6022750469189
 20
86.16822213070444
 30
0.0
 10
109.6678497852869
 20
85.2293516969841
 30
0.0
 10
107.8381899371826
 20
83.39098793940529
 30
0.0
 10
104.8125379427418
 20
81.03212153193012
 30
0.0
 10
101.7262224942811
 20
79.03280819237646
 30
0.0
 10
98.60604935660139
 20
77.40670254597322
 30
0.0
 10
95.56031738464534
 20
76.1165342118594
 30
0.0
 10
93.51310196497317
 20
75.4944909525517
 30
0.0
 10
92.5418452760006
 20
75.19937610013932
 30
0.0
  0
LINE
  5
2C6
330
1F
100
AcDbEntity
  8
0
  6
Continuous
 62
     7
370
    15
100
AcDbLine
 10
110.6018780488
 20
86.8810805194
 30
0.0
 11
110.6018780488
 21
86.1661728343
 31
0.0
  0
SPLINE
  5
2C7
330
1F
100
AcDbEntity
  8
0
  6
Continuous
 62
     7
370
    15
100
AcDbSpline
210
0.0
220
0.0
230
1.0
 70
     8
 71
     3
 72
     8
 73
     4
 74
     0
 42
0.00000001
 43
0.00000001
 40
0.0
 40
0.0
 40
0.0
 40
0.0
 40
1.0
 40
1.0
 40
1.0
 40
1.0
 10
75.49184581933939
 20
92.14777619303905
 30
0.0
 10
76.2401922843574
 20
88.72846083339998
 30
0.0
 10
76.99369589313102
 20
85.32036025674631
 30
0.0
 10
77.74916931139947
 20
81.91654325004036
 30
0.0
  0
SPLINE
  5
2C8
330
1F
100
AcDbEntity
  8
0
  6
Continuous
 62
     7
370
    15
100
AcDbSpline
210
0.0
220
0.0
230
1.0
 70
     8
 71
     3
 72
    12
 73
     8
 74
     0
 42
0.00000001
 43
0.00000001
 40
0.0
 40
0.0
 40
0.0
 40
0.0
 40
0.2499999999999977
 40
0.2499999999999977
 40
0.4999999999999953
 40
0.4999999999999953
 40
1.0
 40
1.0
 40
1.0
 40
1.0
 10
75.49184581933939
 20
92.14777619303905
 30
0.0
 10
75.46655136225878
 20
92.26335063569688
 30
0.0
 10
75.43984876540722
 20
92.3716587568768
 30
0.0
 10
75.38375026431045
 20
92.57437692053416
 30
0.0
 10
75.35404745767697
 20
92.6692747731851
 30
0.0
 10
75.26664500933252
 20
92.91052962363942
 30
0.0
 10
75.20760731101728
 20
93.02180507878154
 30
0.0
 10
75.16202641731265
 20
93.0374481823888
 30
0.0
  0
LINE
  5
2C9
330
1F
100
AcDbEntity
  8
0
  6
Continuous
 62
     7
370
    15
100
AcDbLine
 10
75.0727394721
 20
93.0682723604
 30
0.0
 11
75.1620264173
 21
93.0374481824
 31
0.0
  0
LINE
  5
2CA
330
1F
100
AcDbEntity
  8
0
  6
Continuous
 62
     7
370
    15
100
AcDbLine
 10
67.260035415
 20
137.8518660928
 30
0.0
 11
67.1866756212
 21
137.7923629064
 31
0.0
  0
SPLINE
  5
2CB
330
1F
100
AcDbEntity
  8
0
  6
Continuous
 62
     7
370
    15
100
AcDbSpline
210
0.0
220
0.0
230
1.0
 70
     8
 71
     3
 72
    10
 73
     6
 74
     0
 42
0.00000001
 43
0.00000001
 40
0.0
 40
0.0
 40
0.0
 40
0.0
 40
0.5
 40
0.5
 40
1.0
 40
1.0
 40
1.0
 40
1.0
 10
67.26003541497062
 20
137.8518660927539
 30
0.0
 10
67.29735103434675
 20
137.8820211156882
 30
0.0
 10
67.31489643615573
 20
138.0048826159306
 30
0.0
 10
67.3144672370148
 20
138.3498136546396
 30
0.0
 10
67.29709590767126
 20
138.5669380083324
 30
0.0
 10
67.26567853193693
 20
138.8006891752184
 30
0.0
  0
SPLINE
  5
2CC
330
1F
100
AcDbEntity
  8
0
  6
Continuous
 62
     7
370
    15
100
AcDbSpline
210
0.0
220
0.0
230
1.0
 70
     8
 71
     3
 72
     8
 73
     4
 74
     0
 42
0.00000001
 43
0.00000001
 40
0.0
 40
0.0
 40
0.0
 40
0.0
 40
1.0
 40
1.0
 40
1.0
 40
1.0
 10
67.22594932723273
 20
139.0964248866834
 30
0.0
 10
67.23918505350964
 20
138.9978537366229
 30
0.0
 10
67.2524280510777
 20
138.8992752375565
 30
0.0
 10
67.26567853193691
 20
138.8006891752184
 30
0.0
  0
ARC
  5
2CD
330
1F
100
AcDbEntity
  8
0
  6
Continuous
 62
     7
370
    15
100
AcDbCircle
 10
83.6018780488
 20
117.6294978009
 30
0.0
 40
26.99999999999987
100
AcDbArc
 50
124.902926394
 51
127.3380024238
  0
LWPOLYLINE
  5
2CE
330
1F
100
AcDbEntity
  8
0
  6
Continuous
 62
     7
370
    15
100
AcDbPolyline
 90
       12
 70
   128
 43
0.0
 10
77.6970341595
 20
87.1277072916
 10
77.5599338589
 20
87.3665656576
 10
77.4145139475
 20
87.747406144
 10
77.2725554815
 20
88.2393753196
 10
77.1455590918
 20
88.8026167677
 10
77.0438132704
 20
89.3915000157
 10
76.9755608588
 20
89.9583172453
 10
76.9463312613
 20
90.4571482955
 10
76.9584924863
 20
90.8475808411
 10
77.0110593035
 20
91.0979843595
 10
77.099773062
 20
91.1880726467
 10
77.2174467008
 20
91.1105472854
  0
LINE
  5
2CF
330
1F
100
AcDbEntity
  8
0
  6
Continuous
 62
     7
370
    15
100
AcDbLine
 10
77.9471749277
 20
86.8170771355
 30
0.0
 11
77.6970341595
 21
87.1277072916
 31
0.0
  0
LINE
  5
2D0
330
1F
100
AcDbEntity
  8
0
  6
Continuous
 62
     7
370
    15
100
AcDbLine
 10
77.2174467008
 20
91.1105472854
 30
0.0
 11
80.44134583
 21
87.1070403914
 31
0.0
  0
SPLINE
  5
2D1
330
1F
100
AcDbEntity
  8
0
  6
Continuous
 62
     7
370
    15
100
AcDbSpline
210
0.0
220
0.0
230
1.0
 70
     8
 71
     3
 72
     9
 73
     5
 74
     0
 42
0.00000001
 43
0.00000001
 40
0.0
 40
0.0
 40
0.0
 40
0.0
 40
0.7241727934692677
 40
1.0
 40
1.0
 40
1.0
 40
1.0
 10
79.79655722616675
 20
78.89106135978159
 30
0.0
 10
79.30377078208768
 20
79.60799648824349
 30
0.0
 10
78.62328892952
 20
80.59800209868257
 30
0.0
 10
77.9381494265794
 20
81.63148151079136
 30
0.0
 10
77.74916931139944
 20
81.91654325004036
 30
0.0
  0
SPLINE
  5
2D2
330
1F
100
AcDbEntity
  8
0
  6
Continuous
 62
     7
370
    15
100
AcDbSpline
210
0.0
220
0.0
230
1.0
 70
     8
 71
     3
 72
    20
 73
    16
 74
     0
 42
0.00000001
 43
0.00000001
 40
0.0
 40
0.0
 40
0.0
 40
0.0
 40
0.1249999999999999
 40
0.1249999999999999
 40
0.2499999999999997
 40
0.2499999999999997
 40
0.3749999999999996
 40
0.3749999999999996
 40
0.4999999999999994
 40
0.4999999999999994
 40
0.6249999999999993
 40
0.6249999999999993
 40
0.7499999999999991
 40
0.7499999999999991
 40
1.0
 40
1.0
 40
1.0
 40
1.0
 10
69.0019676078023
 20
102.4125164123333
 30
0.0
 10
69.11609070073321
 20
102.5677682711978
 30
0.0
 10
69.20276682725493
 20
102.736408156643
 30
0.0
 10
69.3271492911417
 20
103.0990376754766
 30
0.0
 10
69.36337121848418
 20
103.2910562515081
 30
0.0
 10
69.3918822559391
 20
103.6760842292931
 30
0.0
 10
69.3846402678712
 20
103.8727386419975
 30
0.0
 10
69.33930335031769
 20
104.2564010525611
 30
0.0
 10
69.30143794254953
 20
104.4454806766
 30
0.0
 10
69.20272128867148
 20
104.819478299149
 30
0.0
 10
69.14148815703989
 20
105.0048802597086
 30
0.0
 10
69.00295601202056
 20
105.3642275063108
 30
0.0
 10
68.92537789490454
 20
105.5393030492726
 30
0.0
 10
68.67114220363482
 20
106.0528679649923
 30
0.0
 10
68.47363783996884
 20
106.3800374726497
 30
0.0
 10
68.24732395635822
 20
106.692313233058
 30
0.0
  0
SPLINE
  5
2D3
330
1F
100
AcDbEntity
  8
0
  6
Continuous
 62
     7
370
    15
100
AcDbSpline
210
0.0
220
0.0
230
1.0
 70
     8
 71
     3
 72
    14
 73
    10
 74
     0
 42
0.00000001
 43
0.00000001
 40
0.0
 40
0.0
 40
0.0
 40
0.0
 40
0.25
 40
0.25
 40
0.5
 40
0.5
 40
0.75
 40
0.75
 40
1.0
 40
1.0
 40
1.0
 40
1.0
 10
75.07273947212924
 20
93.06827236036487
 30
0.0
 10
74.953603983735
 20
93.10964338610509
 30
0.0
 10
74.73404065714509
 20
93.18626243574461
 30
0.0
 10
74.1125917918981
 20
93.4207443952451
 30
0.0
 10
73.7263855648762
 20
93.57309308852854
 30
0.0
 10
72.83470189274722
 20
93.95875896346615
 30
0.0
 10
72.3479804004519
 20
94.18414317587018
 30
0.0
 10
71.31600566979584
 20
94.70806229481194
 30
0.0
 10
70.787002103208
 20
94.99840668794502
 30
0.0
 10
70.25293306894832
 20
95.31793873556624
 30
0.0
  0
SPLINE
  5
2D4
330
1F
100
AcDbEntity
  8
0
  6
Continuous
 62
     7
370
    15
100
AcDbSpline
210
0.0
220
0.0
230
1.0
 70
     8
 71
     3
 72
    20
 73
    16
 74
     0
 42
0.00000001
 43
0.00000001
 40
0.0
 40
0.0
 40
0.0
 40
0.0
 40
0.2499999999999993
 40
0.2499999999999993
 40
0.3749999999999994
 40
0.3749999999999994
 40
0.4999999999999996
 40
0.4999999999999996
 40
0.6249999999999997
 40
0.6249999999999997
 40
0.7499999999999998
 40
0.7499999999999998
 40
0.8749999999999999
 40
0.8749999999999999
 40
1.0
 40
1.0
 40
1.0
 40
1.0
 10
63.42697032661407
 20
134.0298971375543
 30
0.0
 10
63.81977665017305
 20
134.513106794088
 30
0.0
 10
64.21550295056905
 20
134.9643610795974
 30
0.0
 10
64.8030277265684
 20
135.5929463185902
 30
0.0
 10
64.99927046288656
 20
135.7958220661269
 30
0.0
 10
65.37907655999545
 20
136.17678472391
 30
0.0
 10
65.56217185132844
 20
136.3545304675002
 30
0.0
 10
65.91166588426377
 20
136.685054513576
 30
0.0
 10
66.07861102501633
 20
136.8383156972484
 30
0.0
 10
66.3892836663646
 20
137.1171905013619
 30
0.0
 10
66.52961903690091
 20
137.2398223372267
 30
0.0
 10
66.77817428565558
 20
137.453469347474
 30
0.0
 10
66.88642342623541
 20
137.5445003559013
 30
0.0
 10
67.06673370742226
 20
137.6944610855541
 30
0.0
 10
67.13767719395982
 20
137.7524717947798
 30
0.0
 10
67.18667562121854
 20
137.7923629063791
 30
0.0
  0
SPLINE
  5
2D5
330
1F
100
AcDbEntity
  8
0
  6
Continuous
 62
     7
370
    15
100
AcDbSpline
210
0.0
220
0.0
230
1.0
 70
     8
 71
     3
 72
    10
 73
     6
 74
     0
 42
0.00000001
 43
0.00000001
 40
0.0
 40
0.0
 40
0.0
 40
0.0
 40
0.3497316566573126
 40
0.7007680711907192
 40
1.0
 40
1.0
 40
1.0
 40
1.0
 10
63.72745370836297
 20
107.9103330972582
 30
0.0
 10
63.68424919443348
 20
107.9619018348505
 30
0.0
 10
63.5976789817668
 20
108.0652316995864
 30
0.0
 10
63.4885995467675
 20
108.2180966304695
 30
0.0
 10
63.43254955195759
 20
108.320776702625
 30
0.0
 10
63.40675720295518
 20
108.3680266669758
 30
0.0
  0
SPLINE
  5
2D6
330
1F
100
AcDbEntity
  8
0
  6
Continuous
 62
     7
370
    15
100
AcDbSpline
210
0.0
220
0.0
230
1.0
 70
     8
 71
     3
 72
    20
 73
    16
 74
     0
 42
0.00000001
 43
0.00000001
 40
0.0
 40
0.0
 40
0.0
 40
0.0
 40
0.0526483345250387
 40
0.1551247216241122
 40
0.2597382085983222
 40
0.3650039720512547
 40
0.4465784416097309
 40
0.5286241866966591
 40
0.610322550104721
 40
0.694455134048433
 40
0.7422086308270693
 40
0.7915401173425803
 40
0.850547639274168
 40
0.9112339327028104
 40
1.0
 40
1.0
 40
1.0
 40
1.0
 10
66.1628016800394
 20
108.6246309193359
 30
0.0
 10
66.13031033201867
 20
108.612314357016
 30
0.0
 10
66.03457679434122
 20
108.5760244474019
 30
0.0
 10
65.85349408694378
 20
108.5321650552547
 30
0.0
 10
65.62291652713219
 20
108.4890863056867
 30
0.0
 10
65.39223736832271
 20
108.4586529969419
 30
0.0
 10
65.1678392676255
 20
108.4338986539641
 30
0.0
 10
64.9529029072116
 20
108.4101874155192
 30
0.0
 10
64.7246613012531
 20
108.3784047456634
 30
0.0
 10
64.51764341546018
 20
108.3332749941923
 30
0.0
 10
64.34290302833526
 20
108.2746898372706
 30
0.0
 10
64.19817697326911
 20
108.2114036529879
 30
0.0
 10
64.05360770968912
 20
108.13190351389
 30
0.0
 10
63.89151382496313
 20
108.0274640465056
 30
0.0
 10
63.7885865580412
 20
107.9539789806173
 30
0.0
 10
63.72745370836297
 20
107.9103330972582
 30
0.0
  0
ELLIPSE
  5
2D7
330
1F
100
AcDbEntity
  8
0
  6
Continuous
 62
     7
370
    15
100
AcDbEllipse
 10
66.1855402139
 20
105.3848652963
 30
0.0
 11
-2.533896397776068
 21
3.26342954394498
 31
0.0
210
0.0
220
0.0
230
1.0
 40
0.5891566581
 41
4.656264128197009
 42
9.590550126031882
  0
ARC
  5
2D8
330
1F
100
AcDbEntity
  8
0
  6
Continuous
 62
     7
370
    15
100
AcDbCircle
 10
83.6018780488
 20
117.6294978009
 30
0.0
 40
26.0
100
AcDbArc
 50
140.8919680966
 51
239.1080319034
  0
LINE
  5
2D9
330
1F
100
AcDbEntity
  8
0
  6
Continuous
 62
     7
370
    15
100
AcDbLine
 10
63.5060840293
 20
108.5185412919
 30
0.0
 11
63.7274537084
 21
107.9103330973
 31
0.0
  0
SPLINE
  5
2DA
330
1F
100
AcDbEntity
  8
0
  6
Continuous
 62
     7
370
    15
100
AcDbSpline
210
0.0
220
0.0
230
1.0
 70
    24
 71
     3
 72
    10
 73
     6
 74
     0
 42
0.00000001
 43
0.00000001
 40
0.0
 40
0.0
 40
0.0
 40
0.0
 40
0.5
 40
0.5
 40
1.0
 40
1.0
 40
1.0
 40
1.0
 10
74.60187804878049
 20
88.06922040029681
 30
0.0
 10
74.60187804878049
 20
87.90933313210314
 30
0.0
 10
74.60187804878049
 20
87.74820587658854
 30
0.0
 10
74.60187804878049
 20
87.51410687823372
 30
0.0
 10
74.60187804878049
 20
87.44258010464249
 30
0.0
 10
74.60187804878049
 20
87.44258010464249
 30
0.0
  0
ARC
  5
2DB
330
1F
100
AcDbEntity
  8
0
  6
Continuous
 62
     7
370
    15
100
AcDbCircle
 10
83.6018780488
 20
117.6294978009
 30
0.0
 40
31.49999999999999
100
AcDbArc
 50
140.9381656697
 51
253.398450401
  0
SPLINE
  5
2DC
330
1F
100
AcDbEntity
  8
0
  6
Continuous
 62
     7
370
    15
100
AcDbSpline
210
0.0
220
0.0
230
1.0
 70
    24
 71
     3
 72
    12
 73
     8
 74
     0
 42
0.00000001
 43
0.00000001
 40
0.0
 40
0.0
 40
0.0
 40
0.0
 40
0.2500000000000006
 40
0.2500000000000006
 40
0.5000000000000012
 40
0.5000000000000012
 40
1.0
 40
1.0
 40
1.0
 40
1.0
 10
59.14318838641289
 20
137.4794978008896
 30
0.0
 10
59.14318838641287
 20
137.4794978008896
 30
0.0
 10
59.17101810671637
 20
137.4794978008896
 30
0.0
 10
59.26616056797303
 20
137.4794978008896
 30
0.0
 10
59.3325833842734
 20
137.4794978008896
 30
0.0
 10
59.55678281579352
 20
137.4794978008896
 30
0.0
 10
59.74076921833914
 20
137.4794978008896
 30
0.0
 10
59.92092578752212
 20
137.4794978008896
 30
0.0
  0
SPLINE
  5
2DD
330
1F
100
AcDbEntity
  8
0
  6
Continuous
 62
     7
370
    15
100
AcDbSpline
210
0.0
220
0.0
230
1.0
 70
    24
 71
     3
 72
    10
 73
     6
 74
     0
 42
0.00000001
 43
0.00000001
 40
0.0
 40
0.0
 40
0.0
 40
0.0
 40
0.5
 40
0.5
 40
1.0
 40
1.0
 40
1.0
 40
1.0
 10
75.6018780487805
 20
147.4759381246535
 30
0.0
 10
75.6018780487805
 20
147.6363433910043
 30
0.0
 10
75.6018780487805
 20
147.7954052039929
 30
0.0
 10
75.6018780487805
 20
148.0263176696232
 30
0.0
 10
75.60187804878052
 20
148.0966932740539
 30
0.0
 10
75.60187804878052
 20
148.0966932740539
 30
0.0
  0
SPLINE
  5
2DE
330
1F
100
AcDbEntity
  8
0
  6
Continuous
 62
     7
370
    15
100
AcDbSpline
210
0.0
220
0.0
230
1.0
 70
    24
 71
     3
 72
    12
 73
     8
 74
     0
 42
0.00000001
 43
0.00000001
 40
0.0
 40
0.0
 40
0.0
 40
0.0
 40
0.250000000000002
 40
0.250000000000002
 40
0.500000000000004
 40
0.500000000000004
 40
1.0
 40
1.0
 40
1.0
 40
1.0
 10
63.75187804878049
 20
142.088187463257
 30
0.0
 10
63.75187804878049
 20
142.088187463257
 30
0.0
 10
63.75187804878049
 20
142.0599677646692
 30
0.0
 10
63.75187804878049
 20
141.9655247574211
 30
0.0
 10
63.75187804878049
 20
141.8992377807157
 30
0.0
 10
63.75187804878049
 20
141.6736129574274
 30
0.0
 10
63.75187804878049
 20
141.4911866943949
 30
0.0
 10
63.75187804878049
 20
141.310450062148
 30
0.0
  0
ARC
  5
2DF
330
1F
100
AcDbEntity
  8
0
  6
Continuous
 62
     7
370
    15
100
AcDbCircle
 10
83.6018780488
 20
117.6294978009
 30
0.0
 40
31.49999999999996
100
AcDbArc
 50
104.7124579609
 51
129.0618343303
  0
SPLINE
  5
2E0
330
1F
100
AcDbEntity
  8
0
  6
Continuous
 62
     7
370
    15
100
AcDbSpline
210
0.0
220
0.0
230
1.0
 70
    24
 71
     3
 72
    12
 73
     8
 74
     0
 42
0.00000001
 43
0.00000001
 40
0.0
 40
0.0
 40
0.0
 40
0.0
 40
0.2500000000000038
 40
0.2500000000000038
 40
0.5000000000000077
 40
0.5000000000000077
 40
1.0
 40
1.0
 40
1.0
 40
1.0
 10
91.60187804878052
 20
148.0966932740539
 30
0.0
 10
91.60187804878052
 20
148.0966932740539
 30
0.0
 10
91.60187804878052
 20
148.0796905240931
 30
0.0
 10
91.60187804878052
 20
148.0156299829814
 30
0.0
 10
91.60187804878052
 20
147.9684713673428
 30
0.0
 10
91.60187804878052
 20
147.7952493346505
 30
0.0
 10
91.60187804878052
 20
147.6351402444163
 30
0.0
 10
91.60187804878052
 20
147.4759381246529
 30
0.0
  0
ARC
  5
2E1
330
1F
100
AcDbEntity
  8
0
  6
Continuous
 62
     7
370
    15
100
AcDbCircle
 10
83.6018780488
 20
117.6294978009
 30
0.0
 40
31.49999999999999
100
AcDbArc
 50
328.9972808661
 51
75.2875420391
  0
LINE
  5
2E2
330
1F
100
AcDbEntity
  8
0
  6
Continuous
 62
     7
370
    15
100
AcDbLine
 10
91.6018780488
 20
147.4759381247
 30
0.0
 11
91.6018780488
 21
144.0294978009
 31
0.0
  0
LINE
  5
2E3
330
1F
100
AcDbEntity
  8
0
  6
Continuous
 62
     7
370
    15
100
AcDbLine
 10
91.6018780488
 20
144.0294978009
 30
0.0
 11
89.262266728
 21
144.0294978009
 31
0.0
  0
LINE
  5
2E4
330
1F
100
AcDbEntity
  8
0
  6
Continuous
 62
     7
370
    15
100
AcDbLine
 10
75.6018780488
 20
144.0294978009
 30
0.0
 11
75.6018780488
 21
147.4759381247
 31
0.0
  0
LINE
  5
2E5
330
1F
100
AcDbEntity
  8
0
  6
Continuous
 62
     7
370
    15
100
AcDbLine
 10
74.6018780488
 20
91.2294978009
 30
0.0
 11
74.6018780488
 21
88.0692204003
 31
0.0
  0
LINE
  5
2E6
330
1F
100
AcDbEntity
  8
0
  6
Continuous
 62
     7
370
    15
100
AcDbLine
 10
63.7518780488
 20
141.3104500621
 30
0.0
 11
63.7518780488
 21
137.4794978009
 31
0.0
  0
LINE
  5
2E7
330
1F
100
AcDbEntity
  8
0
  6
Continuous
 62
     7
370
    15
100
AcDbLine
 10
59.9209257875
 20
137.4794978009
 30
0.0
 11
63.7518780488
 21
137.4794978009
 31
0.0
  0
LINE
  5
2E8
330
1F
100
AcDbEntity
  8
0
  6
Continuous
 62
     7
370
    15
100
AcDbLine
 10
77.9414893695
 20
144.0294978009
 30
0.0
 11
75.6018780488
 21
144.0294978009
 31
0.0
  0
LINE
  5
2E9
330
1F
100
AcDbEntity
  8
0
  6
Continuous
 62
     7
370
    15
100
AcDbLine
 10
75.6944461705
 20
91.2294978009
 30
0.0
 11
74.6018780488
 21
91.2294978009
 31
0.0
  0
SPLINE
  5
2EA
330
1F
100
AcDbEntity
  8
0
  6
Continuous
 62
     7
370
    15
100
AcDbSpline
210
0.0
220
0.0
230
1.0
 70
     8
 71
     3
 72
    15
 73
    11
 74
     0
 42
0.00000001
 43
0.00000001
 40
0.0
 40
0.0
 40
0.0
 40
0.0
 40
0.0894319605737853
 40
0.2687522867936789
 40
0.4486008969334558
 40
0.5379724727911657
 40
0.7170991276698974
 40
0.896627235955649
 40
0.9637728655097834
 40
0.9999999999999999
 40
0.9999999999999999
 40
0.9999999999999999
 40
0.9999999999999999
 10
74.60187804878055
 20
87.44258010464249
 30
0.0
 10
74.60535437312862
 20
87.44154352746055
 30
0.0
 10
74.61580108716898
 20
87.43842850586988
 30
0.0
 10
74.73565725213481
 20
87.40278046536027
 30
0.0
 10
74.96281209493598
 20
87.33688292884386
 30
0.0
 10
75.27219560534955
 20
87.25028097993976
 30
0.0
 10
75.6581511794999
 20
87.14574914566778
 30
0.0
 10
76.12305489082321
 20
87.02957891631094
 30
0.0
 10
76.46107250816706
 20
86.94876000832927
 30
0.0
 10
76.59948414781259
 20
86.91827643827155
 30
0.0
 10
76.64799070687391
 20
86.90759342710867
 30
0.0
  0
SPLINE
  5
2EB
330
1F
100
AcDbEntity
  8
0
  6
Continuous
 62
     7
370
    15
100
AcDbSpline
210
0.0
220
0.0
230
1.0
 70
     8
 71
     3
 72
    50
 73
    46
 74
     0
 42
0.00000001
 43
0.00000001
 40
0.0
 40
0.0
 40
0.0
 40
0.0
 40
0.0624999999999995
 40
0.0624999999999995
 40
0.0937499999999994
 40
0.0937499999999994
 40
0.1249999999999993
 40
0.1249999999999993
 40
0.1874999999999991
 40
0.1874999999999991
 40
0.2187499999999989
 40
0.2187499999999989
 40
0.2499999999999989
 40
0.2499999999999989
 40
0.3124999999999989
 40
0.3124999999999989
 40
0.3749999999999989
 40
0.3749999999999989
 40
0.4062499999999989
 40
0.4062499999999989
 40
0.437499999999999
 40
0.437499999999999
 40
0.499999999999999
 40
0.499999999999999
 40
0.562499999999999
 40
0.562499999999999
 40
0.624999999999999
 40
0.624999999999999
 40
0.656249999999999
 40
0.656249999999999
 40
0.6874999999999991
 40
0.6874999999999991
 40
0.7187499999999992
 40
0.7187499999999992
 40
0.7499999999999992
 40
0.7499999999999992
 40
0.8124999999999993
 40
0.8124999999999993
 40
0.8749999999999994
 40
0.8749999999999994
 40
0.9374999999999996
 40
0.9374999999999996
 40
0.9687499999999998
 40
0.9687499999999998
 40
1.0
 40
1.0
 40
1.0
 40
1.0
 10
75.60187804878056
 20
148.0966932740538
 30
0.0
 10
75.60187804878058
 20
148.0966932740538
 30
0.0
 10
75.65417219073362
 20
148.1105593774351
 30
0.0
 10
75.80752472556637
 20
148.1499965203191
 30
0.0
 10
75.87122222091759
 20
148.1662492225842
 30
0.0
 10
76.02431387120741
 20
148.2045979324345
 30
0.0
 10
76.11396997316822
 20
148.2267513788425
 30
0.0
 10
76.41555136134228
 20
148.2995073247046
 30
0.0
 10
76.66129279177626
 20
148.3567880275493
 30
0.0
 10
77.09645285812692
 20
148.4507804670051
 30
0.0
 10
77.25359368558811
 20
148.4836394341983
 30
0.0
 10
77.58623277831242
 20
148.5502154876465
 30
0.0
 10
77.76129873375245
 20
148.5838589254854
 30
0.0
 10
78.31215426445405
 20
148.6844197900625
 30
0.0
 10
78.7133386736407
 20
148.7509825998126
 30
0.0
 10
79.5868278797281
 20
148.8756816551122
 30
0.0
 10
80.04886847271055
 20
148.9322046641828
 30
0.0
 10
80.76998388630446
 20
149.0028735987976
 30
0.0
 10
81.01554452398784
 20
149.0241498088691
 30
0.0
 10
81.51733282314605
 20
149.061455535111
 30
0.0
 10
81.7750940394627
 20
149.077546731971
 30
0.0
 10
82.55020650368247
 20
149.1161882035787
 30
0.0
 10
83.07063568740216
 20
149.1293776221351
 30
0.0
 10
84.11877152818754
 20
149.1296163455932
 30
0.0
 10
84.6512798585613
 20
149.116216342889
 30
0.0
 10
85.6789701207279
 20
149.0651523546939
 30
0.0
 10
86.17873430130962
 20
149.0277132199396
 30
0.0
 10
86.90722930133009
 20
148.9565497370212
 30
0.0
 10
87.14658029377557
 20
148.9302812788287
 30
0.0
 10
87.60781876526244
 20
148.8745998060764
 30
0.0
 10
87.8310854203297
 20
148.8450620341405
 30
0.0
 10
88.26327302635177
 20
148.7834548891128
 30
0.0
 10
88.47219360659176
 20
148.7513839463916
 30
0.0
 10
88.87561853211545
 20
148.6855669694223
 30
0.0
 10
89.07109819208482
 20
148.6516367509591
 30
0.0
 10
89.62695640562104
 20
148.5502081233788
 30
0.0
 10
89.95651379225261
 20
148.4832890946887
 30
0.0
 10
90.53590929003856
 20
148.3582635323469
 30
0.0
 10
90.78742926148294
 20
148.2996867381128
 30
0.0
 10
91.1888837580965
 20
148.2028518864679
 30
0.0
 10
91.3413667536436
 20
148.1640969269087
 30
0.0
 10
91.49667770281883
 20
148.1241693964724
 30
0.0
 10
91.536191150225
 20
148.1138776052219
 30
0.0
 10
91.58870449752077
 20
148.1001613926829
 30
0.0
 10
91.60187804878056
 20
148.0966932740539
 30
0.0
 10
91.60187804878056
 20
148.0966932740538
 30
0.0
  0
SPLINE
  5
2EC
330
1F
100
AcDbEntity
  8
0
  6
Continuous
 62
     7
370
    15
100
AcDbSpline
210
0.0
220
0.0
230
1.0
 70
     8
 71
     3
 72
    20
 73
    16
 74
     0
 42
0.00000001
 43
0.00000001
 40
0.0
 40
0.0
 40
0.0
 40
0.0
 40
0.2499999999999994
 40
0.2499999999999994
 40
0.3749999999999994
 40
0.3749999999999994
 40
0.4999999999999996
 40
0.4999999999999996
 40
0.6249999999999996
 40
0.6249999999999996
 40
0.7499999999999997
 40
0.7499999999999997
 40
0.8749999999999999
 40
0.8749999999999999
 40
1.0
 40
1.0
 40
1.0
 40
1.0
 10
59.14318838641316
 20
137.4794978008896
 30
0.0
 10
59.67384515424783
 20
138.133360229187
 30
0.0
 10
60.20757315050934
 20
138.7371460111842
 30
0.0
 10
60.9905454684981
 20
139.5639847473528
 30
0.0
 10
61.24852906859476
 20
139.8264133853057
 30
0.0
 10
61.75292432500259
 20
140.3230760394106
 30
0.0
 10
61.9957027474306
 20
140.5536629184322
 30
0.0
 10
62.44638282694366
 20
140.9702171430148
 30
0.0
 10
62.65584669293493
 20
141.1577149449823
 30
0.0
 10
63.03413520952299
 20
141.4891119226187
 30
0.0
 10
63.19788289570747
 20
141.628615910114
 30
0.0
 10
63.4660686979069
 20
141.854069417585
 30
0.0
 10
63.57129310599366
 20
141.9406955291286
 30
0.0
 10
63.71535233130718
 20
142.0586763179827
 30
0.0
 10
63.75187804878055
 20
142.088187463257
 30
0.0
 10
63.75187804878056
 20
142.088187463257
 30
0.0
  0
CIRCLE
  5
2ED
330
1F
100
AcDbEntity
  8
VERMASSUNG
  6
CENTERX2
100
AcDbCircle
 10
83.6018780488
 20
112.6296201721
 30
0.0
 40
40.00000000000001
  0
DIMENSION
  5
2EE
330
1F
100
AcDbEntity
  8
VERMASSUNG
100
AcDbDimension
  2
*D6
 10
39.5154878049
 20
152.6296201721
 30
0.0
 11
39.5154878049
 21
112.6296201721
 31
0.0
 70
   160
  1
%%c<>
 71
     2
 42
-1.0
  3
SLDDIMSTYLE2
100
AcDbAlignedDimension
 13
83.6018780488
 23
72.6296201721
 33
0.0
 14
83.6018780488
 24
152.6296201721
 34
0.0
 50
90.0
100
AcDbRotatedDimension
  0
INSERT
  5
305
330
1F
100
AcDbEntity
  8
VERMASSUNG
100
AcDbBlockReference
  2
SW_CENTERMARKSYMBOL_0
 10
83.6018780488
 20
117.6294978009
 30
0.0
  0
OLE2FRAME
  5
306
330
1F
100
AcDbEntity
  8
0
100
AcDbOle2Frame
 70
     2
  3
Bitmap Image
 10
13.8511154363
 20
38.264191557
 30
0.0
 11
51.6290888628
 21
31.9806341108
 31
0.0
 71
     2
 72
     0
 73
     1
 90
    12928
310
80552BED0767C5B32B40DDAF6807D121434000000000000000006FFBDDFB85D0
310
4940DDAF6807D121434000000000000000006FFBDDFB85D04940416F4BD60AFB
310
3F4000000000000000002BED0767C5B32B40416F4BD60AFB3F40000000000000
310
0000000000000100000000010000010000000100000000000100000000320000
310
D0CF11E0A1B11AE1000000000000000000000000000000003E000300FEFF0900
310
0600000000000000000000000100000001000000000000000010000002000000
310
01000000FEFFFFFF0000000000000000FFFFFFFFFFFFFFFFFFFFFFFFFFFFFFFF
310
FFFFFFFFFFFFFFFFFFFFFFFFFFFFFFFFFFFFFFFFFFFFFFFFFFFFFFFFFFFFFFFF
310
FFFFFFFFFFFFFFFFFFFFFFFFFFFFFFFFFFFFFFFFFFFFFFFFFFFFFFFFFFFFFFFF
310
FFFFFFFFFFFFFFFFFFFFFFFFFFFFFFFFFFFFFFFFFFFFFFFFFFFFFFFFFFFFFFFF
310
FFFFFFFFFFFFFFFFFFFFFFFFFFFFFFFFFFFFFFFFFFFFFFFFFFFFFFFFFFFFFFFF
310
FFFFFFFFFFFFFFFFFFFFFFFFFFFFFFFFFFFFFFFFFFFFFFFFFFFFFFFFFFFFFFFF
310
FFFFFFFFFFFFFFFFFFFFFFFFFFFFFFFFFFFFFFFFFFFFFFFFFFFFFFFFFFFFFFFF
310
FFFFFFFFFFFFFFFFFFFFFFFFFFFFFFFFFFFFFFFFFFFFFFFFFFFFFFFFFFFFFFFF
310
FFFFFFFFFFFFFFFFFFFFFFFFFFFFFFFFFFFFFFFFFFFFFFFFFFFFFFFFFFFFFFFF
310
FFFFFFFFFFFFFFFFFFFFFFFFFFFFFFFFFFFFFFFFFFFFFFFFFFFFFFFFFFFFFFFF
310
FFFFFFFFFFFFFFFFFFFFFFFFFFFFFFFFFFFFFFFFFFFFFFFFFFFFFFFFFFFFFFFF
310
FFFFFFFFFFFFFFFFFFFFFFFFFFFFFFFFFFFFFFFFFFFFFFFFFFFFFFFFFFFFFFFF
310
FFFFFFFFFFFFFFFFFFFFFFFFFFFFFFFFFFFFFFFFFFFFFFFFFFFFFFFFFFFFFFFF
310
FFFFFFFFFFFFFFFFFFFFFFFFFFFFFFFFFFFFFFFFFFFFFFFFFFFFFFFFFFFFFFFF
310
FDFFFFFFFEFFFFFFFEFFFFFFFEFFFFFF05000000060000000700000008000000
310
090000000A0000000B0000000C0000000D0000000E0000000F00000010000000
310
11000000120000001300000014000000150000001600000017000000FEFFFFFF
310
FFFFFFFFFFFFFFFFFFFFFFFFFFFFFFFFFFFFFFFFFFFFFFFFFFFFFFFFFFFFFFFF
310
FFFFFFFFFFFFFFFFFFFFFFFFFFFFFFFFFFFFFFFFFFFFFFFFFFFFFFFFFFFFFFFF
310
FFFFFFFFFFFFFFFFFFFFFFFFFFFFFFFFFFFFFFFFFFFFFFFFFFFFFFFFFFFFFFFF
310
FFFFFFFFFFFFFFFFFFFFFFFFFFFFFFFFFFFFFFFFFFFFFFFFFFFFFFFFFFFFFFFF
310
FFFFFFFFFFFFFFFFFFFFFFFFFFFFFFFFFFFFFFFFFFFFFFFFFFFFFFFFFFFFFFFF
310
FFFFFFFFFFFFFFFFFFFFFFFFFFFFFFFFFFFFFFFFFFFFFFFFFFFFFFFFFFFFFFFF
310
FFFFFFFFFFFFFFFFFFFFFFFFFFFFFFFFFFFFFFFFFFFFFFFFFFFFFFFFFFFFFFFF
310
FFFFFFFFFFFFFFFFFFFFFFFFFFFFFFFFFFFFFFFFFFFFFFFFFFFFFFFFFFFFFFFF
310
FFFFFFFFFFFFFFFFFFFFFFFFFFFFFFFFFFFFFFFFFFFFFFFFFFFFFFFFFFFFFFFF
310
FFFFFFFFFFFFFFFFFFFFFFFFFFFFFFFFFFFFFFFFFFFFFFFFFFFFFFFFFFFFFFFF
310
FFFFFFFFFFFFFFFFFFFFFFFFFFFFFFFFFFFFFFFFFFFFFFFFFFFFFFFFFFFFFFFF
310
FFFFFFFFFFFFFFFFFFFFFFFFFFFFFFFFFFFFFFFFFFFFFFFFFFFFFFFFFFFFFFFF
310
FFFFFFFFFFFFFFFFFFFFFFFFFFFFFFFFFFFFFFFFFFFFFFFFFFFFFFFFFFFFFFFF
310
52006F006F007400200045006E00740072007900000000000000000000000000
310
0000000000000000000000000000000000000000000000000000000000000000
310
16000500FFFFFFFFFFFFFFFF020000000A00030000000000C000000000000046
310
000000000000000000000000104AF78B86CECB0103000000C000000000000000
310
01004F006C006500000000000000000000000000000000000000000000000000
310
0000000000000000000000000000000000000000000000000000000000000000
310
0A000200FFFFFFFFFFFFFFFFFFFFFFFF00000000000000000000000000000000
310
0000000000000000000000000000000000000000000000001400000000000000
310
010043006F006D0070004F0062006A0000000000000000000000000000000000
310
0000000000000000000000000000000000000000000000000000000000000000
310
120002010100000003000000FFFFFFFF00000000000000000000000000000000
310
0000000000000000000000000000000000000000010000004D00000000000000
310
01004F006C006500310030004E00610074006900760065000000000000000000
310
0000000000000000000000000000000000000000000000000000000000000000
310
1A000200FFFFFFFFFFFFFFFFFFFFFFFF00000000000000000000000000000000
310
0000000000000000000000000000000000000000040000002426000000000000
310
FEFFFFFF02000000FEFFFFFFFFFFFFFFFFFFFFFFFFFFFFFFFFFFFFFFFFFFFFFF
310
FFFFFFFFFFFFFFFFFFFFFFFFFFFFFFFFFFFFFFFFFFFFFFFFFFFFFFFFFFFFFFFF
310
FFFFFFFFFFFFFFFFFFFFFFFFFFFFFFFFFFFFFFFFFFFFFFFFFFFFFFFFFFFFFFFF
310
FFFFFFFFFFFFFFFFFFFFFFFFFFFFFFFFFFFFFFFFFFFFFFFFFFFFFFFFFFFFFFFF
310
FFFFFFFFFFFFFFFFFFFFFFFFFFFFFFFFFFFFFFFFFFFFFFFFFFFFFFFFFFFFFFFF
310
FFFFFFFFFFFFFFFFFFFFFFFFFFFFFFFFFFFFFFFFFFFFFFFFFFFFFFFFFFFFFFFF
310
FFFFFFFFFFFFFFFFFFFFFFFFFFFFFFFFFFFFFFFFFFFFFFFFFFFFFFFFFFFFFFFF
310
FFFFFFFFFFFFFFFFFFFFFFFFFFFFFFFFFFFFFFFFFFFFFFFFFFFFFFFFFFFFFFFF
310
FFFFFFFFFFFFFFFFFFFFFFFFFFFFFFFFFFFFFFFFFFFFFFFFFFFFFFFFFFFFFFFF
310
FFFFFFFFFFFFFFFFFFFFFFFFFFFFFFFFFFFFFFFFFFFFFFFFFFFFFFFFFFFFFFFF
310
FFFFFFFFFFFFFFFFFFFFFFFFFFFFFFFFFFFFFFFFFFFFFFFFFFFFFFFFFFFFFFFF
310
FFFFFFFFFFFFFFFFFFFFFFFFFFFFFFFFFFFFFFFFFFFFFFFFFFFFFFFFFFFFFFFF
310
FFFFFFFFFFFFFFFFFFFFFFFFFFFFFFFFFFFFFFFFFFFFFFFFFFFFFFFFFFFFFFFF
310
FFFFFFFFFFFFFFFFFFFFFFFFFFFFFFFFFFFFFFFFFFFFFFFFFFFFFFFFFFFFFFFF
310
FFFFFFFFFFFFFFFFFFFFFFFFFFFFFFFFFFFFFFFFFFFFFFFFFFFFFFFFFFFFFFFF
310
FFFFFFFFFFFFFFFFFFFFFFFFFFFFFFFFFFFFFFFFFFFFFFFFFFFFFFFFFFFFFFFF
310
0100000200000000000000000000000000000000000000002E00820000000004
310
A80525000000000050122E310000000000000000000000000000000000000000
310
0100FEFF030A0000FFFFFFFF0A00030000000000C00000000000004607000000
310
5042727573680007000000504272757368000700000050427275736800F439B2
310
7100000000000000000000000000000000000000000000000000000000000000
310
0000000000000000000000000000000000000000000000000000000000000000
310
0000000000000000000000000000000000000000000000000000000000000000
310
0000000000000000000000000000000000000000000000000000000000000000
310
0000000000000000000000000000000000000000000000000000000000000000
310
0000000000000000000000000000000000000000000000000000000000000000
310
0000000000000000000000000000000000000000000000000000000000000000
310
0000000000000000000000000000000000000000000000000000000000000000
310
0000000000000000000000000000000000000000000000000000000000000000
310
0000000000000000000000000000000000000000000000000000000000000000
310
0000000000000000000000000000000000000000000000000000000000000000
310
0000000000000000000000000000000000000000000000000000000000000000
310
20260000424D0E260000000000003E00000028000000B40200006E0000000100
310
01000000000000000000130B0000130B00000200000002000000000000FFFFFF
310
FFFFFFFFFFFFFFFFFFFFFFFFFFFFFFFFFFFFFFFFFFFFFFFFFFFFFFFFFFFFFFFF
310
FFFFFFFFFFFFFFFFFFFFFFFFFFFFFFFFFFFFFFFFFFFFFFFFFFFFFFFFFFFFFFFF
310
FFFFFFFFFFFFFFFFFFFFFFFFFFFFFFFFFFFFFFFFFFFFFFFFF000FFFFFFFFFFFF
310
FFFFFFFFFFFFFFFFFFFFFFFFFFFFFFFFFFFFFFFFFFFFFFFFFFFFFFFFFFFFFFFF
310
FFFFFFFFFFFFFFFFFFFFFFFFFFFFFFFFFFFFFFFFFFFFFFFFFFFFFFFFFFFFFFFF
310
FFFFFFFFFFFFFFFFFFFFFFFFFFFFFFFFF000FFFFFFFFFFFFFFFFFFFFFFFFFFFF
310
FFFFFFFFFFFFFFFFFFFFFFFFFFFFFFFFFFFFFFFFFFFFFFFFFFFFFFFFFFFFFFFF
310
FFFFFFFFFFFFFFFFFFFFFFFFFFFFFFFFFFFFFFFFFFFFFFFFFFFFFFFFFFFFFFFF
310
FFFFFFFFFFFFFFFFF000FFFFFFFFFFFFFFFFFFFFFFFFFFFFFFFFFFFFFFFFFFFF
310
FFFFFFFFFFFFFFFFFFFFFFFFFFFFFFFFFFFFFFFFFFFFFFFFFFFFFFFFFFFFFFFF
310
FFFFFFFFFFFFFFFFFFFFFFFFFFFFFFFFFFFFFFFFFFFFFFFFFFFFFFFFFFFFFFFF
310
F000FFFFFFFFFFFFFFFFFFFFFFFFFFFFFFFFFFFFFFFFFFFFFFFFFFFFFFFFFFFF
310
FFFFFFFFFFFFFFFFFFFFFFFFFFFFFFFFFFFFFFFFFFFFFFFFFFFFFFFFFFFFFFFF
310
FFFFFFFFFFFFFFFFFFFFFFFFFFFFFFFFFFFFFFFFFFFFFFFFF000FFFFFFFFFFFF
310
FFFFFFFFFFFFFFFFFFFFFFFFFFFFFFFFFFFFFFFFFFFFFFFFFFFFFFFFFFFFFFFF
310
FFFFFFFFFFFFFFFFFFFFFFFFFFFFFFFFFFFFFFFFFFFFFFFFFFFFFFFFFFFFFFFF
310
FFFFFFFFFFFFFFFFFFFFFFFFFFFFFFFFF000FFFFFFFFFFFFFFFFFFFFFFFFFFFF
310
FFFFFFFFFFFFFFFFFFFFFFFFFFFFFFFFFFFFFFFFFFFFFFFFFFFFFFFFFFFFFFFF
310
FFFFFFFFFFFFFFFFFFFFFFFFFFFFFFFFFFFFFFFFFFFFFFFFFFFFFFFFFFFFFFFF
310
FFFFFFFFFFFFFFFFF000FFFFFFFFFFFFFFFFFFFFFFFFFFFFFFFFFFFFFFFFFFFF
310
FFFFFFFFFFFFFFFFFFFFFFFFFFFFFFFFFFFFFFFFFFFFFFFFFFFFFFFFFFFFFFFF
310
FFFFFFFFFFFFFFFFFFFFFFFFFFFFFFFFFFFFFFFFFFFFFFFFFFFFFFFFFFFFFFFF
310
F000FFFFFFFFFFFFFFFFFFFFFFFFFFFFFFFFFFFFFFFFFFFFFFFFFFFFFFFFFFFF
310
FFFFFFFFFFFFFFFFFFFFFFFFFFFFFFFFFFFFFFFFFFFFFFFFFFFFFFFFFFFFFFFF
310
FFFFFFFFFFFFFFFFFFFFFFFFFFFFFFFFFFFFFFFFFFFFFFFFF000FFFFFFFFFFFF
310
FFFFFFFFFFFFFFFFFFFFFFFFFFFFFFFFFFFFFFFFFFFFFFFFFFFFFFFFFFFFFFFF
310
FFFFFFFFFFFFFFFFFFFFFFFFFFFFFFFFFFFFFFFFFFFFFFFFFFFFFFFFFFFFFFFF
310
FFFFFFFFFFFFFFFFFFFFFFFFFFFFFFFFF000FFFFFFFFFFFFFFFFFFFFFFFFFFFF
310
FFFFFFFFFFFFFFFFFFFFFFFFFFFFFFFFFFFFFFFFFFFFFFFFFFFFFFFFFFFFFFFF
310
FFFFFFFFFFFFFFFFFFFFFFFFFFFFFFFFFFFFFFFFFFFFFFFFFFFFFFFFFFFFFFFF
310
FFFFFFFFFFFFFFFFF000FFFFFFFFFFFFFFFFFFFFFFFFFFFFFFFFFFFFFFFFFFFF
310
FFFFFFFFFFFFFFFFFFFFFFFFFFFFFFFFFFFFFFFFFFFFFFFFFFFFFFFFFFFFFFFF
310
FFFFFFFFFFFFFFFFFFFFFFFFFFFFFFFFFFFFFFFFFFFFFFFFFFFFFFFFFFFFFFFF
310
F000FFFFFFFFFFFFFFFFFFFFFFFFFFFFFFFFFFFFFFFFFFFFFFFFFFFFFFFFFFFF
310
FFFFFFFFFFFFFFFFFFFFFFFFFFFFFFFFFFFFFFFFFFFFFFFFFFFFFFFFFFFFFFFF
310
FFFFFFFFFFFFFFFFFFFFFFFFFFFFFFFFFFFFFFFFFFFFFFFFF000FFFFFFFFFFFF
310
FFFFFFFFFFFFFFFFFFFFFFFFFFFFFFFFFFFFFFFFFFFFFFFFFFFFFFFFFFFFFFFF
310
FFFFFFFFFFFFFFFFFFFFFFFFFFFFFFFFFFFFFFFFFFFFFFFFFFFFFFFFFFFFFFFF
310
FFFFFFFFFFFFFFFFFFFFFFFFFFFFFFFFF000FFFFFFFFFFFFFFFFFFFFFFFFFFFF
310
FFFFFFFFFFFFFFFFFFFFFFFFFFFFFFFFFFFFFFFFFFFFFFFFFFFFFFFFFFFFFFFF
310
FFFFFFFFFFFFFFFFFFFFFFFFFFFFFFFFFFFFFFFFFFFFFFFFFFFFFFFFFFFFFFFF
310
FFFFFFFFFFFFFFFFF000FFFFFFFFFFFFFFFFFFFFFFFFFFFFFFFFFFFFFFFFFFFF
310
FFFFFFFFFFFFFFFFFFFFFFFFFFFFFFFFFFFFFFFFFFFFFFFFFFFFFFFFFFFFFFFF
310
FFFFFFFFFFFFFFFFFFFFFFFFFFFFFFFFFFFFFFFFFFFFFFFFFFFFFFFFFFFFFFFF
310
F000FFFFFFFFFFFFFFFFFFFFFFFFFFFFFFFFFFFFFFFFFFFFFFFFFFFFFFFFFFFF
310
FFFFFFFFFFFFFFFFFFFFFFFFFFFFFFFFFFFFFFFFFFFFFFFFFFFFFFFFFFFFFFFF
310
FFFFFFFFFFFFFFFFFFFFFFFFFFFFFFFFFFFFFFFFFFFFFFFFF000FFFFFFFFFFFF
310
FFFFFFFFFFFFFFFFFFFFFFFFFFFFFFFFFFFFFFFFFFFFFFFFFFFFFFFFFFFFFFFF
310
FFFFFFFFFFFFFFFFFFFFFFFFFFFFFFFFFFFFFFFFFFFFFFFFFFFFFFFFFFFFFFFF
310
FFFFFFFFFFFFFFFFFFFFFFFFFFFFFFFFF000FFFFFFFFFFFFFFFFFFFFFFFFFFFF
310
FFFFFFFFFFFFFFFFFFFFFFFFFFFFFFFFFFFFFFFFFFFFFFFFFFFFFFFFFFFFFFFF
310
FFFFFFFFFFFFFFFFFFFFFFFFFFFFFFFFFFFFFFFFFFFFFFFFFFFFFFFFFFFFFFFF
310
FFFFFFFFFFFFFFFFF000FFFFF80003FFFFFFFFFFFFFFFFFFFFFFFFFFFFFFFFFF
310
FFFFF00007FFFFFFFFFF00007FFFFFF800000000000000007FFFFFFFFFFFFFFF
310
FFFFFFFC001FFFFFFFFFFFFFFC001FFFFFFFFFFFFFFFFFFFFFFFFFFE0007FFFF
310
F000FFFF8000007FFFFFFFF8000FFFFFC0007FFFFF80007FFFFF0000007FFFFF
310
FFF8000007FFFFF800000000000000007FFFFFF0001FFFFFFFFFFFC00001FFFF
310
FFFFFFFFC00001FFFFFFFF000000000003FFFFE000007FFFF000FFFE0000000F
310
FFFFFFF0000FFFFF80007FFFFF80007FFFFC0000001FFFFFFFC0000001FFFFF8
310
00000000000000007FFFFFF0001FFFFFFFFFFE0000003FFFFFFFFFFE0000003F
310
FFFFFF000000000003FFFF0000000FFFF000FFF800000003FFFFFFF00007FFFF
310
80007FFFFF80007FFFF000000007FFFFFF000000003FFFF80000000000000000
310
7FFFFFF0001FFFFFFFFFF80000000FFFFFFFFFF80000000FFFFFFF0000000000
310
03FFFC00000003FFF000FFE000000000FFFFFFF00007FFFF80003FFFFF80007F
310
FFC000000001FFFFFC000000001FFFF800000000000000007FFFFFF0001FFFFF
310
FFFFE000000003FFFFFFFFE000000003FFFFFF000000000003FFF000000000FF
310
F000FF80000000007FFFFFF00007FFFF80003FFFFF80007FFF8000000000FFFF
310
F80000000007FFF800000000000000007FFFFFF0001FFFFFFFFFC000000001FF
310
FFFFFFC000000001FFFFFF000000000003FFC0000000007FF000FF0000000000
310
3FFFFFE00007FFFF00003FFFFF80007FFE00000000003FFFF00000000003FFF8
310
00000000000000007FFFFFF0001FFFFFFFFF8000000000FFFFFFFF8000000000
310
FFFFFF000000000003FF80000000003FF000FE00000000001FFFFFE00003FFFF
310
00003FFFFF80007FFC00000000001FFFE00000000001FFF8000001FFFE000000
310
7FFFFFF0001FFFFFFFFE00000000003FFFFFFE00000000003FFFFF0000000000
310
03FF00000000001FF000FC00000000000FFFFFE00003FFFF00001FFFFF80007F
310
F800000000001FFFC00000000000FFF8000001FFFE0000007FFFFFF0001FFFFF
310
FFFC00000000001FFFFFFC00000000001FFFFF000000000003FE00000000000F
310
F000F8000000000007FFFFE00003FFFF00001FFFFF80007FF800000000000FFF
310
800000000000FFF8000001FFFE0000007FFFFFF0001FFFFFFFF800000000000F
310
FFFFF800000000000FFFFF000000000003FC000000000007F000F80000000000
310
03FFFFC00003FFFE00001FFFFF80007FF0000000000007FF0000000000007FF8
310
000001FFFE0000007FFFFFF0001FFFFFFFF0000000000007FFFFF00000000000
310
07FFFF000000000003F8000000000003F000F0000000000003FFFFC00001FFFE
310
00001FFFFF80007FE0000000000007FE0000000000003FF8000001FFFE000000
310
7FFFFFF0001FFFFFFFF0000000000007FFFFF0000000000007FFFF0000000000
310
03F800001F800003F000E00001FFF00001FFFFC00001FFFE00000FFFFF80007F
310
E00001FFE00003FE00001FFF00003FF8000001FFFE0000007FFFFFF0001FFFFF
310
FFE000003E000003FFFFE000003E000003FFFF000000000003F00001FFF80001
310
F000E00007FFFC0001FFFFC00001FFFE00000FFFFF80007FC0000FFFFC0003FC
310
0000FFFFC0001FF8000001FFFE0000007FFFFFF0001FFFFFFFC00003FFE00001
310
FFFFC00003FFE00001FFFF0001FFFFFFFFF00007FFFE0001F000E0000FFFFF00
310
00FFFF800001FFFC00000FFFFF80007FC0001FFFFE0001FC0001FFFFE0001FF8
310
000001FFFE0000007FFFFFF0001FFFFFFF80000FFFF80000FFFF80000FFFF800
310
00FFFF0003FFFFFFFFE0000FFFFF8000F000C0003FFFFF8000FFFF800000FFFC
310
000007FFFF80007F80003FFFFF0001FC0003FFFFF0001FF8000001FFFE000000
310
7FFFFFF0001FFFFFFF80003FFFFE0000FFFF80003FFFFE0000FFFF0003FFFFFF
310
FFE0003FFFFF8000F000C0003FFFFF8000FFFF800000FFFC000007FFFF80007F
310
80007FFFFF8001F80007FFFFF8000FF8000001FFFE0000007FFFFFF0001FFFFF
310
FF00007FFFFF00007FFF00007FFFFF00007FFF0003FFFFFFFFE0003FFFFFC000
310
F000C0007FFFFFC000FFFF000000FFFC000007FFFF80007F8000FFFFFF8000F8
310
000FFFFFF8000FF8000001FFFE0000007FFFFFF0001FFFFFFF0000FFFFFF8000
310
7FFF0000FFFFFF80007FFF0003FFFFFFFFC0007FFFFFC00070008000FFFFFFC0
310
00FFFF000000FFF8000007FFFF80007F8000FFFFFF8000F8000FFFFFF8000FF8
310
000001FFFE0000007FFFFFF0001FFFFFFE0001FFFFFFC0003FFE0001FFFFFFC0
310
003FFF0003FFFFFFFFC0007FFFFFE00070008000FFFFFFC0007FFF0000007FF8
310
000003FFFF80007F0001FFFFFF8000F8000FFFFFF8000FF8000001FFFE000000
310
7FFFFFF0001FFFFFFE0001FFFFFFC0003FFE0001FFFFFFC0003FFF0003FFFFFF
310
FFC000FFFFFFE00070008000FFFFFFC0007FFF0000007FF8000003FFFF80007F
310
0001FFFFFF8000F8001FFFFFF8000FF8000001FFFE0000007FFFFFF0001FFFFF
310
FE0003FFFFFFE0003FFE0003FFFFFFE0003FFF0003FFFFFFFFC000FFFFFFE000
310
70008000FFFFFFC0007FFE0000007FF8000003FFFF80007F0001FFFFFF8000F0
310
001FFFFFF8000FF8000001FFFE0000007FFFFFF0001FFFFFFC0003FFFFFFE000
310
1FFC0003FFFFFFE0001FFF0003FFFFFFFFC000FFFFFFC00070008000FFFFFF80
310
007FFE0000007FF0000003FFFF80007F0001FFFFFF0000F0001FFFFFF8000FF8
310
000001FFFE0000007FFFFFF0001FFFFFFC0007FFFFFFF0001FFC0007FFFFFFF0
310
001FFF0003FFFFFFFFC000FFFFFFC00070008001FFFFFF0000FFFE0000003FF0
310
000001FFFF80007F0001FFFFFF0000F8001FFFFFF0000FF8000001FFFE000000
310
7FFFFFF0001FFFFFFC0007FFFFFFF0001FFC0007FFFFFFF0001FFF0003FFFFFF
310
FFC001FFFFFF80007000FFFFFFFFFE0000FFFE0008003FF0008001FFFF80007F
310
FFFFFFFFFC0000FFFFFFFFFFE0000FF8000001FFFE0000007FFFFFF0001FFFFF
310
F8000FFFFFFFF8000FF8000FFFFFFFF8000FFF0003FFFFFFFFFFFFFFFFFF0000
310
7000FFFFFFFFFC0000FFFC0008003FF0008001FFFF80007FFFFFFFFFF80001FF
310
FFFFFFFF80000FF8000001FFFE0000007FFFFFF0001FFFFFF8000FFFFFFFF800
310
0FF8000FFFFFFFF8000FFF0003FFFFFFFFFFFFFFFFFE0000F000FFFFFFFFE000
310
00FFFC000C003FE000C001FFFF80007FFFFFFFFFC00001FFFFFFFFFE00001FF8
310
000001FFFE0000007FFFFFF0001FFFFFF8000FFFFFFFF8000FF8000FFFFFFFF8
310
000FFF0003FFFFFFFFFFFFFFFFF00000F000FFFFFFFE000001FFFC000C001FE0
310
00C000FFFF80007FFFFFFFFE000001FFFFFFFFE000001FF80FFFFFFFFFFFFFC0
310
7FFFFFF0001FFFFFF8000FFFFFFFF8000FF8000FFFFFFFF8000FFF0003FFFFFF
310
FFFFFFFFFF800000F000FFFFFFC0000001FFFC001C001FE001C000FFFF80007F
310
FFFFFF80000003FFFFFFF80000001FF80FFFFFFFFFFFFFC07FFFFFF0001FFFFF
310
F8001FFFFFFFFC000FF8001FFFFFFFFC000FFF0003FFFFFFFFFFFFFFF0000001
310
F000FFFFF800000001FFF8001C001FE001C000FFFF80007FFFFFF800000003FF
310
FFFF800000003FF80FFFFFFFFFFFFFC07FFFFFF0001FFFFFF8001FFFFFFFFC00
310
0FF8001FFFFFFFFC000FFF0003FFFFFFFFFFFFFE00000001F000FFFFC0000000
310
03FFF8001E001FC001E000FFFF80007FFFFF8000000007FFFFFC000000003FF8
310
0FFFFFFFFFFFFFC07FFFFFF0001FFFFFF8001FFFFFFFFC000FF8001FFFFFFFFC
310
000FFF0003FFFFFFFFFFFFE000000003F000FFFE0000000007FFF8001E000FC0
310
01E0007FFF80007FFFFE0000000007FFFFE0000000007FF80FFFFFFFFFFFFFC0
310
7FFFFFF0001FFFFFF0001FFFFFFFFC0007F0001FFFFFFFFC0007FF0003FFFFFF
310
FFFFFF0000000003F000FFF80000000007FFF8001E000FC003E0007FFF80007F
310
FFF0000000000FFFFF8000000000FFF80FFFFFFFFFFFFFC07FFFFFF0001FFFFF
310
F0001FFFFFFFFC0007F0001FFFFFFFFC0007FF0003FFFFFFFFFFFC0000000007
310
F000FFE0000000000FFFF0003E000FC003E0007FFF80007FFFC0000000001FFF
310
FE0000000001FFF80FFFFFFFFFFFFFC07FFFFFF0001FFFFFF0001FFFFFFFFC00
310
07F0001FFFFFFFFC0007FF0003FFFFFFFFFFF0000000000FF000FFC000000000
310
1FFFF0003F000F8003F0003FFF80007FFF80000000003FFFF80000000003FFF8
310
0FFFFFFFFFFFFFC07FFFFFF0001FFFFFF0001FFFFFFFFC0007F0001FFFFFFFFC
310
0007FF0003FFFFFFFFFFE0000000001FF000FF00000000007FFFF0003F000780
310
03F0003FFF80007FFF00000000007FFFF00000000007FFF80FFFFFFFFFFFFFC0
310
7FFFFFF0001FFFFFF0001FFFFFFFFC0007F0001FFFFFFFFC0007FF0003FFFFFF
310
FFFF80000000007FF000FE0000000000FFFFE0003F00078007F0003FFF80007F
310
FE0000000001FFFFE0000000001FFFF80FFFFFFFFFFFFFC07FFFFFF0001FFFFF
310
F0001FFFFFFFFC0007F0001FFFFFFFFC0007FF0003FFFFFFFFFF0000000000FF
310
F000FC0000000003FFFFE0007F00078007F0003FFF80007FFC0000000007FFFF
310
C0000000007FFFF80FFFFFFFFFFFFFC07FFFFFF0001FFFFFF8001FFFFFFFFC00
310
0FF8001FFFFFFFFC000FFF0003FFFFFFFFFE0000000003FFF000FC000000000F
310
FFFFE0007F80070007F8001FFF80007FF8000000001FFFFF8000000001FFFFF8
310
0FFFFFFFFFFFFFC07FFFFFF0001FFFFFF8001FFFFFFFFC000FF8001FFFFFFFFC
310
000FFF0003FFFFFFFFFC000000000FFFF000F8000000007FFFFFE0007F800700
310
07F8001FFF80007FF000000000FFFFFF800000000FFFFFF80FFFFFFFFFFFFFC0
310
7FFFFFF0001FFFFFF8000FFFFFFFF8000FF8000FFFFFFFF8000FFF0003FFFFFF
310
FFFC000000007FFFF000F800000007FFFFFFC0007F8003000FF8001FFF80007F
310
F000000007FFFFFF000000007FFFFFF80FFFFFFFFFFFFFC07FFFFFF0001FFFFF
310
F8000FFFFFFFF8000FF8000FFFFFFFF8000FFF0003FFFFFFFFF80000000FFFFF
310
F000F0000000FFFFFFFFC000FF8003000FF8001FFF80007FE0000000FFFFFFFF
310
0000000FFFFFFFF8000001FFFE0000007FFFFFF0001FFFFFF8000FFFFFFFF800
310
0FF8000FFFFFFFF8000FFF0003FFFFFFFFF8000000FFFFFFF000F000000FFFFF
310
FFFFC000FFC002000FF8000FFF80007FE000001FFFFFFFFE000001FFFFFFFFF8
310
000001FFFE0000007FFFFFF0001FFFFFF8000FFFFFFFF8000FF8000FFFFFFFF8
310
000FFF0003FFFFFFFFF000001FFFFFFFF000E00000FFFFFFFFFFC000FFC00200
310
0FFC000FFF80007FE00001FFFFFFFFFE00001FFFFFFFFFF8000001FFFE000000
310
7FFFFFF0001FFFFFFC000FFFFFFFF8001FFC000FFFFFFFF8001FFF0003FFFFFF
310
FFF00001FFFFFFFFF000E00007FFFFFFFFFF8000FFC000001FFC000FFF80007F
310
C0000FFFFFFFFFFE0000FFFFFFFFFFF8000001FFFE0000007FFFFFF0001FFFFF
310
FC0007FFFFFFF0001FFC0007FFFFFFF0001FFF0003FFFFFFFFF00007FFFFFFFF
310
F000E0001FFFFFFFFFFF8000FFC000001FFC000FFF80007FC0003FFFFFFFFFFE
310
0001FFFFFFFFFFF8000001FFFE0000007FFFFFF0001FFFFFFC0007FFFFFFF000
310
1FFC0007FFFFFFF0001FFF0003FFFFFFFFF0001FFFFFFFFFF000E0003FFFFF00
310
03FF8001FFE000001FFC0007FF80007FC0007FFFFF0007FC0003FFFFF0003FF8
310
000001FFFE0000007FFFFFF0001FFFFFFC0003FFFFFFE0001FFC0003FFFFFFE0
310
001FFF0003FFFFFFFFF0003FFFFFFFFFF000E0003FFFFF0001FF8001FFE00000
310
1FFE0007FF80007FC0007FFFFE0003FC0007FFFFE0003FF8000001FFFE000000
310
7FFFFFF0001FFFFFFE0003FFFFFFE0003FFE0003FFFFFFE0003FFF0003FFFFFF
310
FFF0003FFFFF8001F000E0003FFFFF0001FF0001FFE000001FFE0007FF80007F
310
C0007FFFFE0003FC0007FFFFE0003FF8000001FFFE0000007FFFFFF0001FFFFF
310
FE0001FFFFFFC0003FFE0001FFFFFFC0003FFF0003FFFFFFFFF0003FFFFF0001
310
F000E0003FFFFF0003FF0001FFE000003FFE0007FF80007FC0007FFFFE0003FC
310
0007FFFFE0003FF8000001FFFE0000007FFFFFF0001FFFFFFF0001FFFFFFC000
310
7FFF0001FFFFFFC0007FFF0003FFFFFFFFF0003FFFFF0001F000E0003FFFFE00
310
03FF0003FFF000003FFE0003FF80007FC0007FFFFC0003FE0007FFFFE0003FF8
310
000001FFFE0000007FFFFFF0001FFFFFFF0000FFFFFF80007FFF0000FFFFFF80
310
007FFF0003FFFFFFFFF0003FFFFF0001F000E0003FFFFE0003FF0003FFF00000
310
3FFF0003FF80007FC0007FFFFC0007FE0007FFFFC0003FF8000001FFFE000000
310
7FFFFFF0001FFFFFFF80007FFFFF0000FFFF80007FFFFF0000FFFF0003FFFFFF
310
FFF0003FFFFF0003F000E0003FFFFC0003FE0003FFF000003FFF0003FF80007F
310
E0003FFFF80007FE0003FFFFC0007FF8000001FFFE0000007FFFFFF0001FFFFF
310
FF80003FFFFE0000FFFF80003FFFFE0000FFFF0003FFFFFFFFF0001FFFFE0003
310
F000F0001FFFF80003FE0003FFF000007FFF0001FF80007FE0003FFFF00007FE
310
0001FFFF80007FF8000001FFFE0000007FFFFFF0001FFFFFFFC0000FFFF80001
310
FFFFC0000FFFF80001FFFF0003FFFFFFFFF0001FFFFC0003F000F0000FFFF000
310
07FE0007FFF800007FFF0001FF80007FE0001FFFE00007FF0000FFFE00007FF8
310
000001FFFE0000007FFFFFF0001FFFFFFFC00003FFE00001FFFFC00003FFE000
310
01FFFF0003FFFFFFFFF8000FFFF80003F000F00003FFC00007FC0007FFF80000
310
7FFF8001FF80007FF00007FF80000FFF00007FF80000FFF8000001FFFE000000
310
7F80000000000001FFE000003E000003FFFFE000003E000003FFFF0003FFFFFF
310
FFF80003FFE00007F000F800000000000FFC0007FFF800007FFF8001FF80007F
310
F000000000000FFF000000000000FFF8000001FFFE0000007F80000000000001
310
FFF0000000000007FFFFF0000000000007FFFF0003FFFFFFFFFC00007E000007
310
F000F800000000000FFC0007FFF80000FFFF8000FF80007FF800000000001FFF
310
800000000001FFF8000001FFFE0000007F80000000000001FFF800000000000F
310
FFFFF800000000000FFFFF0003FFFFFFFFFC00000000000FF000FC0000000000
310
1FFC0007FFFC0000FFFF8000FF80007FF800000000003FFFC00000000001FFF8
310
000001FFFE0000007F80000000000001FFF800000000000FFFFFF80000000000
310
0FFFFF0003FFFFFFFFFE00000000001FF000FE00000000003FF8000FFFFC0000
310
FFFF8000FF80007FFC00000000003FFFC00000000003FFF8000001FFFE000000
310
7F80000000000001FFFC00000000001FFFFFFC00000000001FFFFF0003FFFFFF
310
FFFF00000000001FF000FF00000000003FF8000FFFFC0000FFFFC000FF80007F
310
FE00000000007FFFE00000000007FFF8000001FFFE0000007F80000000000001
310
FFFE00000000003FFFFFFE00000000003FFFFF0003FFFFFFFFFF80000000003F
310
F000FF80000000007FF8000FFFFC0001FFFFC0007F80007FFF0000000000FFFF
310
F0000000000FFFF800000000000000007F80000000000001FFFF8000000000FF
310
FFFFFF8000000000FFFFFF0003FFFFFFFFFFC0000000007FF000FFC000000000
310
FFF8000FFFFE0001FFFFC0007F80007FFF8000000001FFFFF8000000001FFFF8
310
00000000000000007F80000000000001FFFFC000000001FFFFFFFFC000000001
310
FFFFFF0003FFFFFFFFFFE000000000FFF000FFE000000003FFF0001FFFFE0001
310
FFFFC0007F80007FFFC000000007FFFFFE000000003FFFF80000000000000000
310
7F80000000000001FFFFE000000003FFFFFFFFE000000003FFFFFF0003FFFFFF
310
FFFFF000000003FFF000FFF80000000FFFF0001FFFFE0001FFFFE0007F80007F
310
FFF00000000FFFFFFF00000000FFFFF800000000000000007F80000000000001
310
FFFFF80000000FFFFFFFFFF80000000FFFFFFF0003FFFFFFFFFFFC0000000FFF
310
F000FFFE0000003FFFF0001FFFFE0003FFFFE0003F80007FFFFC0000003FFFFF
310
FFC0000003FFFFF800000000000000007F80000000000001FFFFFE0000003FFF
310
FFFFFFFE0000003FFFFFFF0003FFFFFFFFFFFF0000003FFFF000FFFF800000FF
310
FFF0001FFFFF0003FFFFE0003F80007FFFFF000001FFFFFFFFF800001FFFFFF8
310
00000000000000007F80000000000001FFFFFFC00001FFFFFFFFFFFFC00001FF
310
FFFFFF0003FFFFFFFFFFFFC00000FFFFF000FFFFF8000FFFFFFFFFFFFFFFFFFF
310
FFFFFFFFFFFFFFFFFFFFF0001FFFFFFFFFFF0000FFFFFFF80000000000000000
310
7FFFFFFFFFFFFFFFFFFFFFFC001FFFFFFFFFFFFFFC001FFFFFFFFFFFFFFFFFFF
310
FFFFFFFC001FFFFFF000FFFFFFFFFFFFFFFFFFFFFFFFFFFFFFFFFFFFFFFFFFFF
310
FFFFFFFFFFFFFFFFFFFFFFFFFFFFFFFFFFFFFFFFFFFFFFFFFFFFFFFFFFFFFFFF
310
FFFFFFFFFFFFFFFFFFFFFFFFFFFFFFFFFFFFFFFFFFFFFFFFFFFFFFFFFFFFFFFF
310
F000FFFFFFFFFFFFFFFFFFFFFFFFFFFFFFFFFFFFFFFFFFFFFFFFFFFFFFFFFFFF
310
FFFFFFFFFFFFFFFFFFFFFFFFFFFFFFFFFFFFFFFFFFFFFFFFFFFFFFFFFFFFFFFF
310
FFFFFFFFFFFFFFFFFFFFFFFFFFFFFFFFFFFFFFFFFFFFFFFFF000FFFFFFFFFFFF
310
FFFFFFFFFFFFFFFFFFFFFFFFFFFFFFFFFFFFFFFFFFFFFFFFFFFFFFFFFFFFFFFF
310
FFFFFFFFFFFFFFFFFFFFFFFFFFFFFFFFFFFFFFFFFFFFFFFFFFFFFFFFFFFFFFFF
310
FFFFFFFFFFFFFFFFFFFFFFFFFFFFFFFFF000FFFFFFFFFFFFFFFFFFFFFFFFFFFF
310
FFFFFFFFFFFFFFFFFFFFFFFFFFFFFFFFFFFFFFFFFFFFFFFFFFFFFFFFFFFFFFFF
310
FFFFFFFFFFFFFFFFFFFFFFFFFFFFFFFFFFFFFFFFFFFFFFFFFFFFFFFFFFFFFFFF
310
FFFFFFFFFFFFFFFFF000FFFFFFFFFFFFFFFFFFFFFFFFFFFFFFFFFFFFFFFFFFFF
310
FFFFFFFFFFFFFFFFFFFFFFFFFFFFFFFFFFFFFFFFFFFFFFFFFFFFFFFFFFFFFFFF
310
FFFFFFFFFFFFFFFFFFFFFFFFFFFFFFFFFFFFFFFFFFFFFFFFFFFFFFFFFFFFFFFF
310
F000FFFFFFFFFFFFFFFFFFFFFFFFFFFFFFFFFFFFFFFFFFFFFFFFFFFFFFFFFFFF
310
FFFFFFFFFFFFFFFFFFFFFFFFFFFFFFFFFFFFFFFFFFFFFFFFFFFFFFFFFFFFFFFF
310
FFFFFFFFFFFFFFFFFFFFFFFFFFFFFFFFFFFFFFFFFFFFFFFFF000FFFFFFFFFFFF
310
FFFFFFFFFFFFFFFFFFFFFFFFFFFFFFFFFFFFFFFFFFFFFFFFFFFFFFFFFFFFFFFF
310
FFFFFFFFFFFFFFFFFFFFFFFFFFFFFFFFFFFFFFFFFFFFFFFFFFFFFFFFFFFFFFFF
310
FFFFFFFFFFFFFFFFFFFFFFFFFFFFFFFFF000FFFFFFFFFFFFFFFFFFFFFFFFFFFF
310
FFFFFFFFFFFFFFFFFFFFFFFFFFFFFFFFFFFFFFFFFFFFFFFFFFFFFFFFFFFFFFFF
310
FFFFFFFFFFFFFFFFFFFFFFFFFFFFFFFFFFFFFFFFFFFFFFFFFFFFFFFFFFFFFFFF
310
FFFFFFFFFFFFFFFFF000FFFFFFFFFFFFFFFFFFFFFFFFFFFFFFFFFFFFFFFFFFFF
310
FFFFFFFFFFFFFFFFFFFFFFFFFFFFFFFFFFFFFFFFFFFFFFFFFFFFFFFFFFFFFFFF
310
FFFFFFFFFFFFFFFFFFFFFFFFFFFFFFFFFFFFFFFFFFFFFFFFFFFFFFFFFFFFFFFF
310
F000FFFFFFFFFFFFFFFFFFFFFFFFFFFFFFFFFFFFFFFFFFFFFFFFFFFFFFFFFFFF
310
FFFFFFFFFFFFFFFFFFFFFFFFFFFFFFFFFFFFFFFFFFFFFFFFFFFFFFFFFFFFFFFF
310
FFFFFFFFFFFFFFFFFFFFFFFFFFFFFFFFFFFFFFFFFFFFFFFFF000FFFFFFFFFFFF
310
FFFFFFFFFFFFFFFFFFFFFFFFFFFFFFFFFFFFFFFFFFFFFFFFFFFFFFFFFFFFFFFF
310
FFFFFFFFFFFFFFFFFFFFFFFFFFFFFFFFFFFFFFFFFFFFFFFFFFFFFFFFFFFFFFFF
310
FFFFFFFFFFFFFFFFFFFFFFFFFFFFFFFFF000FFFFFFFFFFFFFFFFFFFFFFFFFFFF
310
FFFFFFFFFFFFFFFFFFFFFFFFFFFFFFFFFFFFFFFFFFFFFFFFFFFFFFFFFFFFFFFF
310
FFFFFFFFFFFFFFFFFFFFFFFFFFFFFFFFFFFFFFFFFFFFFFFFFFFFFFFFFFFFFFFF
310
FFFFFFFFFFFFFFFFF000FFFFFFFFFFFFFFFFFFFFFFFFFFFFFFFFFFFFFFFFFFFF
310
FFFFFFFFFFFFFFFFFFFFFFFFFFFFFFFFFFFFFFFFFFFFFFFFFFFFFFFFFFFFFFFF
310
FFFFFFFFFFFFFFFFFFFFFFFFFFFFFFFFFFFFFFFFFFFFFFFFFFFFFFFFFFFFFFFF
310
F000FFFFFFFFFFFFFFFFFFFFFFFFFFFFFFFFFFFFFFFFFFFFFFFFFFFFFFFFFFFF
310
FFFFFFFFFFFFFFFFFFFFFFFFFFFFFFFFFFFFFFFFFFFFFFFFFFFFFFFFFFFFFFFF
310
FFFFFFFFFFFFFFFFFFFFFFFFFFFFFFFFFFFFFFFFFFFFFFFFF000FFFFFFFFFFFF
310
FFFFFFFFFFFFFFFFFFFFFFFFFFFFFFFFFFFFFFFFFFFFFFFFFFFFFFFFFFFFFFFF
310
FFFFFFFFFFFFFFFFFFFFFFFFFFFFFFFFFFFFFFFFFFFFFFFFFFFFFFFFFFFFFFFF
310
FFFFFFFFFFFFFFFFFFFFFFFFFFFFFFFFF000FFFFFFFFFFFFFFFFFFFFFFFFFFFF
310
FFFFFFFFFFFFFFFFFFFFFFFFFFFFFFFFFFFFFFFFFFFFFFFFFFFFFFFFFFFFFFFF
310
FFFFFFFFFFFFFFFFFFFFFFFFFFFFFFFFFFFFFFFFFFFFFFFFFFFFFFFFFFFFFFFF
310
FFFFFFFFFFFFFFFFF000FFFFFFFFFFFFFFFFFFFFFFFFFFFFFFFFFFFFFFFFFFFF
310
FFFFFFFFFFFFFFFFFFFFFFFFFFFFFFFFFFFFFFFFFFFFFFFFFFFFFFFFFFFFFFFF
310
FFFFFFFFFFFFFFFFFFFFFFFFFFFFFFFFFFFFFFFFFFFFFFFFFFFFFFFFFFFFFFFF
310
F000FFFFFFFFFFFFFFFFFFFFFFFFFFFFFFFFFFFFFFFFFFFFFFFFFFFFFFFFFFFF
310
FFFFFFFFFFFFFFFFFFFFFFFFFFFFFFFFFFFFFFFFFFFFFFFFFFFFFFFFFFFFFFFF
310
FFFFFFFFFFFFFFFFFFFFFFFFFFFFFFFFFFFFFFFFFFFFFFFFF000FFFFFFFFFFFF
310
FFFFFFFFFFFFFFFFFFFFFFFFFFFFFFFFFFFFFFFFFFFFFFFFFFFFFFFFFFFFFFFF
310
FFFFFFFFFFFFFFFFFFFFFFFFFFFFFFFFFFFFFFFFFFFFFFFFFFFFFFFFFFFFFFFF
310
FFFFFFFFFFFFFFFFFFFFFFFFFFFFFFFFF000FFFFFFFFFFFFFFFFFFFFFFFFFFFF
310
FFFFFFFFFFFFFFFFFFFFFFFFFFFFFFFFFFFFFFFFFFFFFFFFFFFFFFFFFFFFFFFF
310
FFFFFFFFFFFFFFFFFFFFFFFFFFFFFFFFFFFFFFFFFFFFFFFFFFFFFFFFFFFFFFFF
310
FFFFFFFFFFFFFFFFF000FFFFFFFFFFFFFFFFFFFFFFFFFFFFFFFFFFFFFFFFFFFF
310
FFFFFFFFFFFFFFFFFFFFFFFFFFFFFFFFFFFFFFFFFFFFFFFFFFFFFFFFFFFFFFFF
310
FFFFFFFFFFFFFFFFFFFFFFFFFFFFFFFFFFFFFFFFFFFFFFFFFFFFFFFFFFFFFFFF
310
F000FFFFFFFFFFFFFFFFFFFFFFFFFFFFFFFFFFFFFFFFFFFFFFFFFFFFFFFFFFFF
310
FFFFFFFFFFFFFFFFFFFFFFFFFFFFFFFFFFFFFFFFFFFFFFFFFFFFFFFFFFFFFFFF
310
FFFFFFFFFFFFFFFFFFFFFFFFFFFFFFFFFFFFFFFFFFFFFFFFF000FFFFFFFFFFFF
310
FFFFFFFFFFFFFFFFFFFFFFFFFFFFFFFFFFFFFFFFFFFFFFFFFFFFFFFFFFFFFFFF
310
FFFFFFFFFFFFFFFFFFFFFFFFFFFFFFFFFFFFFFFFFFFFFFFFFFFFFFFFFFFFFFFF
310
FFFFFFFFFFFFFFFFFFFFFFFFFFFFFFFFF0000000000000000000000000000000
310
0000000099020000AF0000804A20004000000000000000000100000000000000
310
616C000800000000E40100007001000002000000270000001300000000000000
310
0000000084030000FF0000000302011243006F006F0070006500720020005300
310
74006400200042006C00610063006B0000000000000000000000000000000000
310
0000000000000000000000000000000043006F006F0070006500720042006C00
310
610063006B005300740064002D004900740061006C0069006300000000000000
310
0000000000000000000000000000000000000000000000000000000000000000
310
0000000000000000000000000000000000000000000000000000000000000000
310
0000000000000000000000000000000042006C00610063006B00200049007400
310
61006C0069006300000000000000000000000000000000000000000000000000
310
000000000000000000000000000000000000FFFFFFFFFFFFFFFFFFFFFFFFFFFF
310
FFFFFFFFFFFFFFFFFFFFFFFFFFFFFFFFFFFFFFFFFFFFFFFFFFFFFFFFFFFFFFFF
310
FFFFFFFFFFFFFFFFFFFFFFFFFFFFFFFF6476000800000000FFFFFFFF20FF2020
310
270000001F000000080000000700000000000000130000002600000084030000
310
000000006000000060000000200002FB20002000FF00001B00FFFFFF01002200
  1
OLE
  0
ENDSEC
  0
SECTION
  2
OBJECTS
  0
DICTIONARY
  5
C
330
0
100
AcDbDictionary
281
     1
  3
ACAD_GROUP
350
D
  3
ACAD_LAYOUT
350
1A
  3
ACAD_MLEADERSTYLE
350
308
  3
ACAD_MLINESTYLE
350
17
  3
ACAD_PLOTSETTINGS
350
19
  3
ACAD_PLOTSTYLENAME
350
E
  3
ACAD_TABLESTYLE
350
307
  3
ACAD_VISUALSTYLE
350
2A
  3
AcDbVariableDictionary
350
309
  0
DICTIONARY
  5
D
102
{ACAD_REACTORS
330
C
102
}
330
C
100
AcDbDictionary
281
     1
  0
DICTIONARY
  5
1A
102
{ACAD_REACTORS
330
C
102
}
330
C
100
AcDbDictionary
281
     1
  3
Layout1
350
1E
  3
Layout2
350
26
  3
Model
350
22
  0
DICTIONARY
  5
308
102
{ACAD_REACTORS
330
C
102
}
330
C
100
AcDbDictionary
281
     1
  0
DICTIONARY
  5
17
102
{ACAD_REACTORS
330
C
102
}
330
C
100
AcDbDictionary
281
     1
  3
Standard
350
18
  0
DICTIONARY
  5
19
102
{ACAD_REACTORS
330
C
102
}
330
C
100
AcDbDictionary
281
     1
  0
ACDBDICTIONARYWDFLT
  5
E
102
{ACAD_REACTORS
330
C
102
}
330
C
100
AcDbDictionary
281
     1
  3
Normal
350
F
100
AcDbDictionaryWithDefault
340
F
  0
DICTIONARY
  5
307
102
{ACAD_REACTORS
330
C
102
}
330
C
100
AcDbDictionary
281
     1
  0
DICTIONARY
  5
2A
102
{ACAD_REACTORS
330
C
102
}
330
C
100
AcDbDictionary
281
     1
  3
2dWireframe
350
2F
  3
3D Hidden
350
31
  3
3dWireframe
350
30
  3
Basic
350
32
  3
Brighten
350
36
  3
ColorChange
350
3A
  3
Conceptual
350
34
  3
Dim
350
35
  3
Facepattern
350
39
  3
Flat
350
2B
  3
FlatWithEdges
350
2C
  3
Gouraud
350
2D
  3
GouraudWithEdges
350
2E
  3
Linepattern
350
38
  3
Realistic
350
33
  3
Thicken
350
37
  0
DICTIONARY
  5
309
102
{ACAD_REACTORS
330
C
102
}
330
C
100
AcDbDictionary
281
     1
  3
PSOLHEIGHT
350
30B
  3
PSOLWIDTH
350
30A
  0
LAYOUT
  5
1E
102
{ACAD_REACTORS
330
1A
102
}
330
1A
100
AcDbPlotSettings
  1

  2
none_device
  4

  6

 40
0.0
 41
0.0
 42
0.0
 43
0.0
 44
0.0
 45
0.0
 46
0.0
 47
0.0
 48
0.0
 49
0.0
140
0.0
141
0.0
142
1.0
143
1.0
 70
   688
 72
     0
 73
     0
 74
     5
  7

 75
    16
147
1.0
148
0.0
149
0.0
100
AcDbLayout
  1
Layout1
 70
     1
 71
     1
 10
0.0
 20
0.0
 11
420.0
 21
297.0
 12
0.0
 22
0.0
 32
0.0
 14
1.0000000000E+20
 24
1.0000000000E+20
 34
1.0000000000E+20
 15
-1.0000000000E+20
 25
-1.0000000000E+20
 35
-1.0000000000E+20
146
0.0
 13
0.0
 23
0.0
 33
0.0
 16
1.0
 26
0.0
 36
0.0
 17
0.0
 27
1.0
 37
0.0
 76
     0
330
1B
  0
LAYOUT
  5
26
102
{ACAD_REACTORS
330
1A
102
}
330
1A
100
AcDbPlotSettings
  1

  2
none_device
  4

  6

 40
0.0
 41
0.0
 42
0.0
 43
0.0
 44
0.0
 45
0.0
 46
0.0
 47
0.0
 48
0.0
 49
0.0
140
0.0
141
0.0
142
1.0
143
1.0
 70
   688
 72
     0
 73
     0
 74
     5
  7

 75
    16
147
1.0
148
0.0
149
0.0
100
AcDbLayout
  1
Layout2
 70
     1
 71
     2
 10
0.0
 20
0.0
 11
0.0
 21
0.0
 12
0.0
 22
0.0
 32
0.0
 14
0.0
 24
0.0
 34
0.0
 15
0.0
 25
0.0
 35
0.0
146
0.0
 13
0.0
 23
0.0
 33
0.0
 16
1.0
 26
0.0
 36
0.0
 17
0.0
 27
1.0
 37
0.0
 76
     0
330
23
  0
LAYOUT
  5
22
102
{ACAD_REACTORS
330
1A
102
}
330
1A
100
AcDbPlotSettings
  1

  2
none_device
  4

  6

 40
0.0
 41
0.0
 42
0.0
 43
0.0
 44
0.0
 45
0.0
 46
0.0
 47
0.0
 48
0.0
 49
0.0
140
0.0
141
0.0
142
1.0
143
1.0
 70
  1712
 72
     0
 73
     0
 74
     0
  7

 75
     0
147
1.0
148
0.0
149
0.0
100
AcDbLayout
  1
Model
 70
     1
 71
     0
 10
0.0
 20
0.0
 11
297.0
 21
210.0
 12
0.0
 22
0.0
 32
0.0
 14
0.0
 24
0.0
 34
0.0
 15
297.0
 25
210.0
 35
0.0
146
0.0
 13
0.0
 23
0.0
 33
0.0
 16
1.0
 26
0.0
 36
0.0
 17
0.0
 27
1.0
 37
0.0
 76
     0
330
1F
331
29
  0
MLINESTYLE
  5
18
102
{ACAD_REACTORS
330
17
102
}
330
17
100
AcDbMlineStyle
  2
Standard
 70
     0
  3

 62
   256
 51
90.0
 52
90.0
 71
     2
 49
0.5
 62
   256
  6
BYLAYER
 49
-0.5
 62
   256
  6
BYLAYER
  0
ACDBPLACEHOLDER
  5
F
102
{ACAD_REACTORS
330
E
102
}
330
E
  0
VISUALSTYLE
  5
2F
102
{ACAD_REACTORS
330
2A
102
}
330
2A
100
AcDbVisualStyle
  2
2dWireframe
 70
     4
 71
     0
 72
     2
 73
     0
 90
        0
 40
-0.6
 41
-30.0
 62
     5
 63
     7
 74
     1
 91
        4
 64
     7
 65
   257
 75
     1
175
     1
 42
1.0
 92
        0
 66
   257
 43
1.0
 76
     1
 77
     6
 78
     2
 67
     7
 79
     5
170
     0
171
     0
290
     0
174
     0
 93
        1
 44
0.0
173
     0
291
     0
 45
0.0
1001
ACAD
1000
AcDbSavedByObjectVersion
1070
     0
  0
VISUALSTYLE
  5
31
102
{ACAD_REACTORS
330
2A
102
}
330
2A
100
AcDbVisualStyle
  2
3D Hidden
 70
     6
 71
     1
 72
     2
 73
     2
 90
        0
 40
-0.6
 41
-30.0
 62
     5
 63
     7
 74
     2
 91
        2
 64
     7
 65
   257
 75
     2
175
     1
 42
40.0
 92
        0
 66
   257
 43
1.0
 76
     1
 77
     6
 78
     2
 67
     7
 79
     3
170
     0
171
     0
290
     0
174
     0
 93
        1
 44
0.0
173
     0
291
     0
 45
0.0
1001
ACAD
1000
AcDbSavedByObjectVersion
1070
     0
  0
VISUALSTYLE
  5
30
102
{ACAD_REACTORS
330
2A
102
}
330
2A
100
AcDbVisualStyle
  2
3dWireframe
 70
     5
 71
     0
 72
     2
 73
     0
 90
        0
 40
-0.6
 41
-30.0
 62
     5
 63
     7
 74
     1
 91
        4
 64
     7
 65
   257
 75
     1
175
     1
 42
1.0
 92
        0
 66
   257
 43
1.0
 76
     1
 77
     6
 78
     2
 67
     7
 79
     5
170
     0
171
     0
290
     0
174
     0
 93
        1
 44
0.0
173
     0
291
     0
 45
0.0
1001
ACAD
1000
AcDbSavedByObjectVersion
1070
     0
  0
VISUALSTYLE
  5
32
102
{ACAD_REACTORS
330
2A
102
}
330
2A
100
AcDbVisualStyle
  2
Basic
 70
     7
 71
     1
 72
     0
 73
     1
 90
        0
 40
-0.6
 41
-30.0
 62
     5
 63
     7
 74
     0
 91
        4
 64
     7
 65
   257
 75
     1
175
     1
 42
1.0
 92
        8
 66
     7
 43
1.0
 76
     1
 77
     6
 78
     2
 67
     7
 79
     5
170
     0
171
     0
290
     0
174
     0
 93
        1
 44
0.0
173
     0
291
     1
 45
0.0
1001
ACAD
1000
AcDbSavedByObjectVersion
1070
     0
  0
VISUALSTYLE
  5
36
102
{ACAD_REACTORS
330
2A
102
}
330
2A
100
AcDbVisualStyle
  2
Brighten
 70
    12
 71
     2
 72
     2
 73
     0
 90
        0
 40
-0.6
 41
-30.0
 62
     5
 63
     7
 74
     1
 91
        4
 64
     7
 65
   257
 75
     1
175
     1
 42
1.0
 92
        8
 66
     7
 43
1.0
 76
     1
 77
     6
 78
     2
 67
     7
 79
     5
170
     0
171
     0
290
     0
174
     0
 93
        1
 44
50.0
173
     0
291
     1
 45
0.0
1001
ACAD
1000
AcDbSavedByObjectVersion
1070
     0
  0
VISUALSTYLE
  5
3A
102
{ACAD_REACTORS
330
2A
102
}
330
2A
100
AcDbVisualStyle
  2
ColorChange
 70
    16
 71
     2
 72
     2
 73
     3
 90
        0
 40
-0.6
 41
-30.0
 62
     5
 63
     8
 74
     1
 91
        4
 64
     7
 65
   257
 75
     1
175
     1
 42
1.0
 92
        8
 66
     8
 43
1.0
 76
     1
 77
     6
 78
     2
 67
     7
 79
     5
170
     0
171
     0
290
     0
174
     0
 93
        1
 44
0.0
173
     0
291
     1
 45
0.0
1001
ACAD
1000
AcDbSavedByObjectVersion
1070
     0
  0
VISUALSTYLE
  5
34
102
{ACAD_REACTORS
330
2A
102
}
330
2A
100
AcDbVisualStyle
  2
Conceptual
 70
     9
 71
     3
 72
     2
 73
     0
 90
        0
 40
-0.6
 41
-30.0
 62
     5
 63
     7
 74
     2
 91
        2
 64
     7
 65
   257
 75
     1
175
     1
 42
40.0
 92
        8
 66
     7
 43
1.0
 76
     1
 77
     6
 78
     2
 67
     7
 79
     3
170
     0
171
     0
290
     0
174
     0
 93
        1
 44
0.0
173
     0
291
     0
 45
0.0
1001
ACAD
1000
AcDbSavedByObjectVersion
1070
     0
  0
VISUALSTYLE
  5
35
102
{ACAD_REACTORS
330
2A
102
}
330
2A
100
AcDbVisualStyle
  2
Dim
 70
    11
 71
     2
 72
     2
 73
     0
 90
        0
 40
-0.6
 41
-30.0
 62
     5
 63
     7
 74
     1
 91
        4
 64
     7
 65
   257
 75
     1
175
     1
 42
1.0
 92
        8
 66
     7
 43
1.0
 76
     1
 77
     6
 78
     2
 67
     7
 79
     5
170
     0
171
     0
290
     0
174
     0
 93
        1
 44
-50.0
173
     0
291
     1
 45
0.0
1001
ACAD
1000
AcDbSavedByObjectVersion
1070
     0
  0
VISUALSTYLE
  5
39
102
{ACAD_REACTORS
330
2A
102
}
330
2A
100
AcDbVisualStyle
  2
Facepattern
 70
    15
 71
     2
 72
     2
 73
     0
 90
        0
 40
-0.6
 41
-30.0
 62
     5
 63
     7
 74
     1
 91
        4
 64
     7
 65
   257
 75
     1
175
     1
 42
1.0
 92
        8
 66
     7
 43
1.0
 76
     1
 77
     6
 78
     2
 67
     7
 79
     5
170
     0
171
     0
290
     0
174
     0
 93
        1
 44
0.0
173
     0
291
     1
 45
0.0
1001
ACAD
1000
AcDbSavedByObjectVersion
1070
     0
  0
VISUALSTYLE
  5
2B
102
{ACAD_REACTORS
330
2A
102
}
330
2A
100
AcDbVisualStyle
  2
Flat
 70
     0
 71
     2
 72
     1
 73
     1
 90
        2
 40
-0.6
 41
30.0
 62
     5
 63
     7
 74
     0
 91
        4
 64
     7
 65
   257
 75
     1
175
     1
 42
1.0
 92
        8
 66
     7
 43
1.0
 76
     1
 77
     6
 78
     2
 67
     7
 79
     5
170
     0
171
     0
290
     0
174
     0
 93
       13
 44
0.0
173
     0
291
     1
 45
0.0
1001
ACAD
1000
AcDbSavedByObjectVersion
1070
     0
  0
VISUALSTYLE
  5
2C
102
{ACAD_REACTORS
330
2A
102
}
330
2A
100
AcDbVisualStyle
  2
FlatWithEdges
 70
     1
 71
     2
 72
     1
 73
     1
 90
        2
 40
-0.6
 41
30.0
 62
     5
 63
     7
 74
     1
 91
        4
 64
     7
 65
   257
 75
     1
175
     1
 42
1.0
 92
        0
 66
   257
 43
1.0
 76
     1
 77
     6
 78
     2
 67
     7
 79
     5
170
     0
171
     0
290
     0
174
     0
 93
       13
 44
0.0
173
     0
291
     1
 45
0.0
1001
ACAD
1000
AcDbSavedByObjectVersion
1070
     0
  0
VISUALSTYLE
  5
2D
102
{ACAD_REACTORS
330
2A
102
}
330
2A
100
AcDbVisualStyle
  2
Gouraud
 70
     2
 71
     2
 72
     2
 73
     1
 90
        2
 40
-0.6
 41
30.0
 62
     5
 63
     7
 74
     0
 91
        4
 64
     7
 65
   257
 75
     1
175
     1
 42
1.0
 92
        0
 66
     7
 43
1.0
 76
     1
 77
     6
 78
     2
 67
     7
 79
     5
170
     0
171
     0
290
     0
174
     0
 93
       13
 44
0.0
173
     0
291
     1
 45
0.0
1001
ACAD
1000
AcDbSavedByObjectVersion
1070
     0
  0
VISUALSTYLE
  5
2E
102
{ACAD_REACTORS
330
2A
102
}
330
2A
100
AcDbVisualStyle
  2
GouraudWithEdges
 70
     3
 71
     2
 72
     2
 73
     1
 90
        2
 40
-0.6
 41
30.0
 62
     5
 63
     7
 74
     1
 91
        4
 64
     7
 65
   257
 75
     1
175
     1
 42
1.0
 92
        0
 66
   257
 43
1.0
 76
     1
 77
     6
 78
     2
 67
     7
 79
     5
170
     0
171
     0
290
     0
174
     0
 93
       13
 44
0.0
173
     0
291
     1
 45
0.0
1001
ACAD
1000
AcDbSavedByObjectVersion
1070
     0
  0
VISUALSTYLE
  5
38
102
{ACAD_REACTORS
330
2A
102
}
330
2A
100
AcDbVisualStyle
  2
Linepattern
 70
    14
 71
     2
 72
     2
 73
     0
 90
        0
 40
-0.6
 41
-30.0
 62
     5
 63
     7
 74
     1
 91
        4
 64
     7
 65
   257
 75
     7
175
     7
 42
1.0
 92
        8
 66
     7
 43
1.0
 76
     1
 77
     6
 78
     2
 67
     7
 79
     5
170
     0
171
     0
290
     0
174
     0
 93
        1
 44
0.0
173
     0
291
     1
 45
0.0
1001
ACAD
1000
AcDbSavedByObjectVersion
1070
     0
  0
VISUALSTYLE
  5
33
102
{ACAD_REACTORS
330
2A
102
}
330
2A
100
AcDbVisualStyle
  2
Realistic
 70
     8
 71
     2
 72
     2
 73
     0
 90
        0
 40
-0.6
 41
-30.0
 62
     5
 63
     7
 74
     1
 91
        0
 64
     7
 65
   257
 75
     1
175
     1
 42
1.0
 92
        8
 66
     8
 43
1.0
 76
     1
 77
     6
 78
     2
 67
     7
 79
     5
170
     0
171
     0
290
     0
174
     0
 93
       13
 44
0.0
173
     0
291
     0
 45
0.0
1001
ACAD
1000
AcDbSavedByObjectVersion
1070
     0
  0
VISUALSTYLE
  5
37
102
{ACAD_REACTORS
330
2A
102
}
330
2A
100
AcDbVisualStyle
  2
Thicken
 70
    13
 71
     2
 72
     2
 73
     0
 90
        0
 40
-0.6
 41
-30.0
 62
     5
 63
     7
 74
     1
 91
        4
 64
     7
 65
   257
 75
     1
175
     1
 42
1.0
 92
       12
 66
     7
 43
1.0
 76
     1
 77
     6
 78
     2
 67
     7
 79
     5
170
     0
171
     0
290
     0
174
     0
 93
        1
 44
0.0
173
     0
291
     1
 45
0.0
1001
ACAD
1000
AcDbSavedByObjectVersion
1070
     0
  0
DICTIONARYVAR
  5
30B
102
{ACAD_REACTORS
330
309
102
}
330
309
100
DictionaryVariables
280
     0
  1
80.000000
  0
DICTIONARYVAR
  5
30A
102
{ACAD_REACTORS
330
309
102
}
330
309
100
DictionaryVariables
280
     0
  1
5.000000
  0
ENDSEC
  0
EOF
