  0
SECTION
  2
HEADER
  9
$ACADVER
  1
AC1015
  9
$ACADMAINTVER
 70
     6
  9
$DWGCODEPAGE
  3
ANSI_1252
  9
$INSBASE
 10
0.0
 20
0.0
 30
0.0
  9
$EXTMIN
 10
0.0
 20
0.0
 30
0.0
  9
$EXTMAX
 10
297.0
 20
210.0
 30
0.0
  9
$LIMMIN
 10
0.0
 20
0.0
  9
$LIMMAX
 10
297.0
 20
210.0
  9
$ORTHOMODE
 70
     0
  9
$REGENMODE
 70
     1
  9
$FILLMODE
 70
     1
  9
$QTEXTMODE
 70
     0
  9
$MIRRTEXT
 70
     1
  9
$LTSCALE
 40
1.0
  9
$ATTMODE
 70
     1
  9
$TEXTSIZE
 40
2.0
  9
$TRACEWID
 40
1.0
  9
$TEXTSTYLE
  7
Standard
  9
$CLAYER
  8
0
  9
$CELTYPE
  6
ByLayer
  9
$CECOLOR
 62
   256
  9
$CELTSCALE
 40
1.0
  9
$DISPSILH
 70
     0
  9
$DIMSCALE
 40
1.0
  9
$DIMASZ
 40
3.0
  9
$DIMEXO
 40
0.0
  9
$DIMDLI
 40
3.75
  9
$DIMRND
 40
0.0
  9
$DIMDLE
 40
0.0
  9
$DIMEXE
 40
1.0
  9
$DIMTP
 40
0.0
  9
$DIMTM
 40
0.0
  9
$DIMTXT
 40
2.0
  9
$DIMCEN
 40
2.5
  9
$DIMTSZ
 40
0.0
  9
$DIMTOL
 70
     0
  9
$DIMLIM
 70
     0
  9
$DIMTIH
 70
     1
  9
$DIMTOH
 70
     1
  9
$DIMSE1
 70
     0
  9
$DIMSE2
 70
     0
  9
$DIMTAD
 70
     1
  9
$DIMZIN
 70
     0
  9
$DIMBLK
  1

  9
$DIMASO
 70
     1
  9
$DIMSHO
 70
     1
  9
$DIMPOST
  1

  9
$DIMAPOST
  1

  9
$DIMALT
 70
     0
  9
$DIMALTD
 70
     3
  9
$DIMALTF
 40
0.0393700787
  9
$DIMLFAC
 40
1.0
  9
$DIMTOFL
 70
     1
  9
$DIMTVP
 40
0.0
  9
$DIMTIX
 70
     0
  9
$DIMSOXD
 70
     0
  9
$DIMSAH
 70
     0
  9
$DIMBLK1
  1

  9
$DIMBLK2
  1

  9
$DIMSTYLE
  2
ISO-25
  9
$DIMCLRD
 70
     0
  9
$DIMCLRE
 70
     0
  9
$DIMCLRT
 70
     0
  9
$DIMTFAC
 40
1.0
  9
$DIMGAP
 40
1.524
  9
$DIMJUST
 70
     0
  9
$DIMSD1
 70
     0
  9
$DIMSD2
 70
     0
  9
$DIMTOLJ
 70
     0
  9
$DIMTZIN
 70
     0
  9
$DIMALTZ
 70
     0
  9
$DIMALTTZ
 70
     0
  9
$DIMUPT
 70
     0
  9
$DIMDEC
 70
     2
  9
$DIMTDEC
 70
     3
  9
$DIMALTU
 70
     2
  9
$DIMALTTD
 70
     3
  9
$DIMTXSTY
  7
Standard
  9
$DIMAUNIT
 70
     0
  9
$DIMADEC
 70
     2
  9
$DIMALTRND
 40
0.0
  9
$DIMAZIN
 70
     0
  9
$DIMDSEP
 70
    44
  9
$DIMATFIT
 70
     3
  9
$DIMFRAC
 70
     0
  9
$DIMLDRBLK
  1

  9
$DIMLUNIT
 70
     2
  9
$DIMLWD
 70
    -2
  9
$DIMLWE
 70
    -2
  9
$DIMTMOVE
 70
     0
  9
$LUNITS
 70
     2
  9
$LUPREC
 70
     2
  9
$SKETCHINC
 40
1.0
  9
$FILLETRAD
 40
10.0
  9
$AUNITS
 70
     0
  9
$AUPREC
 70
     2
  9
$MENU
  1
.
  9
$ELEVATION
 40
0.0
  9
$PELEVATION
 40
0.0
  9
$THICKNESS
 40
0.0
  9
$LIMCHECK
 70
     0
  9
$CHAMFERA
 40
10.0
  9
$CHAMFERB
 40
10.0
  9
$CHAMFERC
 40
20.0
  9
$CHAMFERD
 40
0.0
  9
$SKPOLY
 70
     0
  9
$TDCREATE
 40
2455581.433066921
  9
$TDUCREATE
 40
2455581.391400255
  9
$TDUPDATE
 40
2455581.433066933
  9
$TDUUPDATE
 40
2455581.391400266
  9
$TDINDWG
 40
0.0000000116
  9
$TDUSRTIMER
 40
0.0000000116
  9
$USRTIMER
 70
     1
  9
$ANGBASE
 50
0.0
  9
$ANGDIR
 70
     0
  9
$PDMODE
 70
     0
  9
$PDSIZE
 40
-1.0
  9
$PLINEWID
 40
0.0
  9
$SPLFRAME
 70
     0
  9
$SPLINETYPE
 70
     6
  9
$SPLINESEGS
 70
     8
  9
$HANDSEED
  5
30F
  9
$SURFTAB1
 70
     6
  9
$SURFTAB2
 70
     6
  9
$SURFTYPE
 70
     6
  9
$SURFU
 70
     6
  9
$SURFV
 70
     6
  9
$UCSBASE
  2

  9
$UCSNAME
  2

  9
$UCSORG
 10
0.0
 20
0.0
 30
0.0
  9
$UCSXDIR
 10
1.0
 20
0.0
 30
0.0
  9
$UCSYDIR
 10
0.0
 20
1.0
 30
0.0
  9
$UCSORTHOREF
  2

  9
$UCSORTHOVIEW
 70
     0
  9
$UCSORGTOP
 10
0.0
 20
0.0
 30
0.0
  9
$UCSORGBOTTOM
 10
0.0
 20
0.0
 30
0.0
  9
$UCSORGLEFT
 10
0.0
 20
0.0
 30
0.0
  9
$UCSORGRIGHT
 10
0.0
 20
0.0
 30
0.0
  9
$UCSORGFRONT
 10
0.0
 20
0.0
 30
0.0
  9
$UCSORGBACK
 10
0.0
 20
0.0
 30
0.0
  9
$PUCSBASE
  2

  9
$PUCSNAME
  2

  9
$PUCSORG
 10
0.0
 20
0.0
 30
0.0
  9
$PUCSXDIR
 10
1.0
 20
0.0
 30
0.0
  9
$PUCSYDIR
 10
0.0
 20
1.0
 30
0.0
  9
$PUCSORTHOREF
  2

  9
$PUCSORTHOVIEW
 70
     0
  9
$PUCSORGTOP
 10
0.0
 20
0.0
 30
0.0
  9
$PUCSORGBOTTOM
 10
0.0
 20
0.0
 30
0.0
  9
$PUCSORGLEFT
 10
0.0
 20
0.0
 30
0.0
  9
$PUCSORGRIGHT
 10
0.0
 20
0.0
 30
0.0
  9
$PUCSORGFRONT
 10
0.0
 20
0.0
 30
0.0
  9
$PUCSORGBACK
 10
0.0
 20
0.0
 30
0.0
  9
$USERI1
 70
     0
  9
$USERI2
 70
     0
  9
$USERI3
 70
     0
  9
$USERI4
 70
     0
  9
$USERI5
 70
     0
  9
$USERR1
 40
0.0
  9
$USERR2
 40
0.0
  9
$USERR3
 40
0.0
  9
$USERR4
 40
0.0
  9
$USERR5
 40
0.0
  9
$WORLDVIEW
 70
     1
  9
$SHADEDGE
 70
     3
  9
$SHADEDIF
 70
    70
  9
$TILEMODE
 70
     1
  9
$MAXACTVP
 70
    64
  9
$PINSBASE
 10
0.0
 20
0.0
 30
0.0
  9
$PLIMCHECK
 70
     0
  9
$PEXTMIN
 10
1.0000000000E+20
 20
1.0000000000E+20
 30
1.0000000000E+20
  9
$PEXTMAX
 10
-1.0000000000E+20
 20
-1.0000000000E+20
 30
-1.0000000000E+20
  9
$PLIMMIN
 10
0.0
 20
0.0
  9
$PLIMMAX
 10
420.0
 20
297.0
  9
$UNITMODE
 70
     0
  9
$VISRETAIN
 70
     1
  9
$PLINEGEN
 70
     0
  9
$PSLTSCALE
 70
     1
  9
$TREEDEPTH
 70
  3020
  9
$CMLSTYLE
  2
Standard
  9
$CMLJUST
 70
     0
  9
$CMLSCALE
 40
20.0
  9
$PROXYGRAPHICS
 70
     1
  9
$MEASUREMENT
 70
     1
  9
$CELWEIGHT
370
    -1
  9
$ENDCAPS
280
     0
  9
$JOINSTYLE
280
     0
  9
$LWDISPLAY
290
     1
  9
$INSUNITS
 70
     4
  9
$HYPERLINKBASE
  1

  9
$STYLESHEET
  1

  9
$XEDIT
290
     1
  9
$CEPSNTYPE
380
     0
  9
$PSTYLEMODE
290
     1
  9
$FINGERPRINTGUID
  2
{692599A1-B0B1-4F26-BD17-D487E2E26276}
  9
$VERSIONGUID
  2
{FAEB1C32-E019-11D5-929B-00C0DF256EC4}
  9
$EXTNAMES
290
     1
  9
$PSVPSCALE
 40
0.0
  9
$OLESTARTUP
290
     0
  0
ENDSEC
  0
SECTION
  2
CLASSES
  0
CLASS
  1
ACDBDICTIONARYWDFLT
  2
AcDbDictionaryWithDefault
  3
ObjectDBX Classes
 90
        0
280
     0
281
     0
  0
CLASS
  1
VISUALSTYLE
  2
AcDbVisualStyle
  3
ObjectDBX Classes
 90
     4095
280
     0
281
     0
  0
CLASS
  1
DICTIONARYVAR
  2
AcDbDictionaryVar
  3
ObjectDBX Classes
 90
        0
280
     0
281
     0
  0
CLASS
  1
ACDBPLACEHOLDER
  2
AcDbPlaceHolder
  3
ObjectDBX Classes
 90
        0
280
     0
281
     0
  0
CLASS
  1
LAYOUT
  2
AcDbLayout
  3
ObjectDBX Classes
 90
        0
280
     0
281
     0
  0
ENDSEC
  0
SECTION
  2
TABLES
  0
TABLE
  2
VPORT
  5
8
330
0
100
AcDbSymbolTable
 70
     1
  0
VPORT
  5
29
330
8
100
AcDbSymbolTableRecord
100
AcDbViewportTableRecord
  2
*Active
 70
     0
 10
0.0
 20
0.0
 11
1.0
 21
1.0
 12
148.5
 22
105.0
 13
0.0
 23
0.0
 14
10.0
 24
10.0
 15
10.0
 25
10.0
 16
0.0
 26
0.0
 36
1.0
 17
0.0
 27
0.0
 37
0.0
 40
210.0
 41
1.4142857143
 42
50.0
 43
0.0
 44
0.0
 50
0.0
 51
0.0
 71
     0
 72
  2000
 73
     1
 74
     3
 75
     0
 76
     0
 77
     0
 78
     0
281
     0
 65
     1
110
0.0
120
0.0
130
0.0
111
1.0
121
0.0
131
0.0
112
0.0
122
1.0
132
0.0
 79
     0
146
0.0
  0
ENDTAB
  0
TABLE
  2
LTYPE
  5
5
330
0
100
AcDbSymbolTable
 70
     6
  0
LTYPE
  5
14
330
5
100
AcDbSymbolTableRecord
100
AcDbLinetypeTableRecord
  2
ByBlock
 70
     0
  3

 72
    65
 73
     0
 40
0.0
  0
LTYPE
  5
15
330
5
100
AcDbSymbolTableRecord
100
AcDbLinetypeTableRecord
  2
ByLayer
 70
     0
  3

 72
    65
 73
     0
 40
0.0
  0
LTYPE
  5
16
330
5
100
AcDbSymbolTableRecord
100
AcDbLinetypeTableRecord
  2
Continuous
 70
     0
  3
Solid line
 72
    65
 73
     0
 40
0.0
  0
LTYPE
  5
3B
330
5
100
AcDbSymbolTableRecord
100
AcDbLinetypeTableRecord
  2
HIDDEN
 70
     0
  3
Hidden __ __ __ __ __ __ __ __ __ __ __ __ __ __
 72
    65
 73
     2
 40
1.905
 49
1.27
 74
     0
 49
-0.635
 74
     0
  0
LTYPE
  5
3C
330
5
100
AcDbSymbolTableRecord
100
AcDbLinetypeTableRecord
  2
PHANTOM
 70
     0
  3
Phantom ______  __  __  ______  __  __  ______
 72
    65
 73
     6
 40
12.7
 49
6.35
 74
     0
 49
-1.27
 74
     0
 49
1.27
 74
     0
 49
-1.27
 74
     0
 49
1.27
 74
     0
 49
-1.27
 74
     0
  0
LTYPE
  5
3D
330
5
100
AcDbSymbolTableRecord
100
AcDbLinetypeTableRecord
  2
CENTER
 70
     0
  3
Center ____ _ ____ _ ____ _ ____ _ ____ _ ____
 72
    65
 73
     4
 40
10.16
 49
6.35
 74
     0
 49
-1.27
 74
     0
 49
1.27
 74
     0
 49
-1.27
 74
     0
  0
LTYPE
  5
3E
330
5
100
AcDbSymbolTableRecord
100
AcDbLinetypeTableRecord
  2
CENTERX2
 70
     0
  3
Center (2x) ________  __  ________  __  _____
 72
    65
 73
     4
 40
20.32
 49
12.7
 74
     0
 49
-2.54
 74
     0
 49
2.54
 74
     0
 49
-2.54
 74
     0
  0
LTYPE
  5
3F
330
5
100
AcDbSymbolTableRecord
100
AcDbLinetypeTableRecord
  2
DOT2
 70
     0
  3
Dot (.5x) ........................................
 72
    65
 73
     2
 40
0.635
 49
0.0
 74
     0
 49
-0.635
 74
     0
  0
ENDTAB
  0
TABLE
  2
LAYER
  5
2
330
0
100
AcDbSymbolTable
 70
     5
  0
LAYER
  5
10
330
2
100
AcDbSymbolTableRecord
100
AcDbLayerTableRecord
  2
0
 70
     0
 62
     7
  6
Continuous
370
    -3
390
F
  0
LAYER
  5
40
330
2
100
AcDbSymbolTableRecord
100
AcDbLayerTableRecord
  2
FORMAT
 70
     0
 62
     7
  6
Continuous
370
    -3
390
F
  0
LAYER
  5
41
330
2
100
AcDbSymbolTableRecord
100
AcDbLayerTableRecord
  2
VERMASSUNG
 70
     0
 62
     7
  6
Continuous
370
    -3
390
F
  0
LAYER
  5
42
330
2
100
AcDbSymbolTableRecord
100
AcDbLayerTableRecord
  2
KOPF_DÜNN
 70
     0
 62
     7
  6
Continuous
370
    -3
390
F
  0
LAYER
  5
43
330
2
100
AcDbSymbolTableRecord
100
AcDbLayerTableRecord
  2
KOPF_DICK
 70
     0
 62
     7
  6
Continuous
370
    15
390
F
  0
ENDTAB
  0
TABLE
  2
STYLE
  5
3
330
0
100
AcDbSymbolTable
 70
     3
  0
STYLE
  5
11
330
3
100
AcDbSymbolTableRecord
100
AcDbTextStyleTableRecord
  2
Standard
 70
     0
 40
0.0
 41
1.0
 50
0.0
 71
     0
 42
2.5
  3
txt
  4

  0
STYLE
  5
44
330
3
100
AcDbSymbolTableRecord
100
AcDbTextStyleTableRecord
  2
SLDTEXTSTYLE0
 70
     0
 40
0.0
 41
0.7
 50
0.0
 71
     0
 42
0.2
  3
TXT
  4

  0
STYLE
  5
48
330
3
100
AcDbSymbolTableRecord
100
AcDbTextStyleTableRecord
  2
SLDTEXTSTYLE1
 70
     0
 40
0.0
 41
0.6526315789
 50
0.0
 71
     0
 42
0.2
  3
TXT
  4

  0
ENDTAB
  0
TABLE
  2
VIEW
  5
6
330
0
100
AcDbSymbolTable
 70
     0
  0
ENDTAB
  0
TABLE
  2
UCS
  5
7
330
0
100
AcDbSymbolTable
 70
     0
  0
ENDTAB
  0
TABLE
  2
APPID
  5
9
330
0
100
AcDbSymbolTable
 70
     1
  0
APPID
  5
12
330
9
100
AcDbSymbolTableRecord
100
AcDbRegAppTableRecord
  2
ACAD
 70
     0
  0
ENDTAB
  0
TABLE
  2
DIMSTYLE
  5
A
330
0
100
AcDbSymbolTable
 70
     4
100
AcDbDimStyleTable
  0
DIMSTYLE
105
27
330
A
100
AcDbSymbolTableRecord
100
AcDbDimStyleTableRecord
  2
ISO-25
 70
     0
 41
2.5
 42
0.625
 43
3.75
 44
1.25
 73
     0
 74
     0
 77
     1
 78
     8
140
2.5
141
2.5
143
0.0393700787
147
0.625
171
     3
172
     1
271
     2
272
     2
274
     3
278
    44
283
     0
284
     8
340
11
  0
DIMSTYLE
105
251
102
{ACAD_REACTORS
330
250
102
}
330
A
100
AcDbSymbolTableRecord
100
AcDbDimStyleTableRecord
  2
SLDDIMSTYLE0
 70
     0
 41
3.0
 44
0.0
 73
     0
 74
     0
 77
     1
 78
    12
140
2.0
147
0.5
173
     1
179
     2
272
     3
284
    12
340
44
  0
DIMSTYLE
105
25D
102
{ACAD_REACTORS
330
25C
330
267
330
271
330
27B
102
}
330
A
100
AcDbSymbolTableRecord
100
AcDbDimStyleTableRecord
  2
SLDDIMSTYLE1
 70
     0
 41
3.0
 44
0.0
 45
0.000000001
 73
     0
 74
     0
 77
     1
 78
    12
140
2.0
147
0.5
173
     1
271
     2
272
     3
284
    12
340
44
  0
DIMSTYLE
105
2F2
102
{ACAD_REACTORS
330
2F1
102
}
330
A
100
AcDbSymbolTableRecord
100
AcDbDimStyleTableRecord
  2
SLDDIMSTYLE2
 70
     0
 41
3.0
 44
0.0
 45
0.000000001
 73
     0
 74
     0
 77
     1
 78
    12
140
2.0
147
0.5
173
     1
271
     2
272
     3
284
    12
340
44
  0
ENDTAB
  0
TABLE
  2
BLOCK_RECORD
  5
1
330
0
100
AcDbSymbolTable
 70
     8
  0
BLOCK_RECORD
  5
1F
330
1
100
AcDbSymbolTableRecord
100
AcDbBlockTableRecord
  2
*Model_Space
340
22
  0
BLOCK_RECORD
  5
1B
330
1
100
AcDbSymbolTableRecord
100
AcDbBlockTableRecord
  2
*Paper_Space
340
1E
  0
BLOCK_RECORD
  5
23
330
1
100
AcDbSymbolTableRecord
100
AcDbBlockTableRecord
  2
*Paper_Space0
340
26
  0
BLOCK_RECORD
  5
252
330
1
100
AcDbSymbolTableRecord
100
AcDbBlockTableRecord
  2
*D1
340
0
  0
BLOCK_RECORD
  5
25E
330
1
100
AcDbSymbolTableRecord
100
AcDbBlockTableRecord
  2
*D2
340
0
  0
BLOCK_RECORD
  5
268
330
1
100
AcDbSymbolTableRecord
100
AcDbBlockTableRecord
  2
*D3
340
0
  0
BLOCK_RECORD
  5
272
330
1
100
AcDbSymbolTableRecord
100
AcDbBlockTableRecord
  2
*D4
340
0
  0
BLOCK_RECORD
  5
27C
330
1
100
AcDbSymbolTableRecord
100
AcDbBlockTableRecord
  2
*D5
340
0
  0
BLOCK_RECORD
  5
2F3
330
1
100
AcDbSymbolTableRecord
100
AcDbBlockTableRecord
  2
*D6
340
0
  0
BLOCK_RECORD
  5
2FD
330
1
100
AcDbSymbolTableRecord
100
AcDbBlockTableRecord
  2
SW_CENTERMARKSYMBOL_0
340
0
102
{BLKREFS
331
308
102
}
  0
ENDTAB
  0
ENDSEC
  0
SECTION
  2
BLOCKS
  0
BLOCK
  5
20
330
1F
100
AcDbEntity
  8
0
100
AcDbBlockBegin
  2
*Model_Space
 70
     0
 10
0.0
 20
0.0
 30
0.0
  3
*Model_Space
  1

  0
ENDBLK
  5
21
330
1F
100
AcDbEntity
  8
0
100
AcDbBlockEnd
  0
BLOCK
  5
1C
330
1B
100
AcDbEntity
 67
     1
  8
0
100
AcDbBlockBegin
  2
*Paper_Space
 70
     0
 10
0.0
 20
0.0
 30
0.0
  3
*Paper_Space
  1

  0
ENDBLK
  5
1D
330
1B
100
AcDbEntity
 67
     1
  8
0
100
AcDbBlockEnd
  0
BLOCK
  5
24
330
23
100
AcDbEntity
  8
0
100
AcDbBlockBegin
  2
*Paper_Space0
 70
     0
 10
0.0
 20
0.0
 30
0.0
  3
*Paper_Space0
  1

  0
ENDBLK
  5
25
330
23
100
AcDbEntity
  8
0
100
AcDbBlockEnd
  0
BLOCK
  5
253
330
252
100
AcDbEntity
  8
0
100
AcDbBlockBegin
  2
*D1
 70
     1
 10
0.0
 20
0.0
 30
0.0
  3
*D1
  1

  0
ARC
  5
255
330
252
100
AcDbEntity
  8
VERMASSUNG
100
AcDbCircle
 10
260.4460468606
 20
170.5645749475
 30
0.0
 40
47.13630994487236
100
AcDbArc
 50
264.9952138766
 51
270.0
  0
ARC
  5
256
330
252
100
AcDbEntity
  8
VERMASSUNG
100
AcDbCircle
 10
260.4460468606
 20
170.5645749475
 30
0.0
 40
47.13630994487236
100
AcDbArc
 50
257.7155171034
 51
264.9952138766
  0
ARC
  5
257
330
252
100
AcDbEntity
  8
VERMASSUNG
100
AcDbCircle
 10
260.4460468606
 20
170.5645749475
 30
0.0
 40
47.13630994487235
100
AcDbArc
 50
270.0
 51
277.2796967732
  0
SOLID
  5
258
330
252
100
AcDbEntity
  8
VERMASSUNG
100
AcDbTrace
 10
256.3339242883
 20
123.6079762294
 30
0.0
 11
253.4086686335
 21
124.4113312903
 31
0.0
 12
253.3017052948
 22
123.517710093
 32
0.0
 13
253.3017052948
 23
123.517710093
 33
0.0
  0
SOLID
  5
259
330
252
100
AcDbEntity
  8
VERMASSUNG
100
AcDbTrace
 10
260.4460468606
 20
123.4282650026
 30
0.0
 11
263.4588305353
 21
123.0738153876
 31
0.0
 12
263.4302335858
 22
123.9733609476
 32
0.0
 13
263.4302335858
 23
123.9733609476
 33
0.0
  0
LINE
  5
25A
330
252
100
AcDbEntity
  8
VERMASSUNG
100
AcDbLine
 10
260.4460468606
 20
126.7116395778
 30
0.0
 11
260.4460468606
 21
122.4282650026
 31
0.0
  0
MTEXT
  5
25B
330
252
100
AcDbEntity
  8
VERMASSUNG
100
AcDbMText
 10
257.2021084682
 20
126.1056382385
 30
0.0
 40
2.0
 41
0.0
 71
     1
 72
     1
  1
5°
  7
SLDTEXTSTYLE0
 11
0.9990463988679623
 21
-0.04366111438060555
 31
0.0
 73
     1
 44
1.0
  0
ENDBLK
  5
254
330
252
100
AcDbEntity
  8
0
100
AcDbBlockEnd
  0
BLOCK
  5
25F
330
25E
100
AcDbEntity
  8
0
100
AcDbBlockBegin
  2
*D2
 70
     1
 10
0.0
 20
0.0
 30
0.0
  3
*D2
  1

  0
SOLID
  5
261
330
25E
100
AcDbEntity
  8
VERMASSUNG
100
AcDbTrace
 10
190.4460468606
 20
161.0892644498
 30
0.0
 11
193.4460468606
 21
160.6392644498
 31
0.0
 12
193.4460468606
 22
161.5392644498
 32
0.0
 13
193.4460468606
 23
161.5392644498
 33
0.0
  0
SOLID
  5
262
330
25E
100
AcDbEntity
  8
VERMASSUNG
100
AcDbTrace
 10
260.4460468606
 20
161.0892644498
 30
0.0
 11
257.4460468606
 21
161.5392644498
 31
0.0
 12
257.4460468606
 22
160.6392644498
 32
0.0
 13
257.4460468606
 23
160.6392644498
 33
0.0
  0
LINE
  5
263
330
25E
100
AcDbEntity
  8
VERMASSUNG
100
AcDbLine
 10
190.4460468606
 20
142.9462852618
 30
0.0
 11
190.4460468606
 21
162.0892644498
 31
0.0
  0
LINE
  5
264
330
25E
100
AcDbEntity
  8
VERMASSUNG
100
AcDbLine
 10
260.4460468606
 20
156.7462852618
 30
0.0
 11
260.4460468606
 21
162.0892644498
 31
0.0
  0
LINE
  5
265
330
25E
100
AcDbEntity
  8
VERMASSUNG
100
AcDbLine
 10
190.4460468606
 20
161.0892644498
 30
0.0
 11
260.4460468606
 21
161.0892644498
 31
0.0
  0
MTEXT
  5
266
330
25E
100
AcDbEntity
  8
VERMASSUNG
100
AcDbMText
 10
224.046822773
 20
163.6673998129
 30
0.0
 40
2.0
 41
0.0
 71
     1
 72
     1
  1
70
  7
SLDTEXTSTYLE0
 73
     1
 44
1.0
  0
ENDBLK
  5
260
330
25E
100
AcDbEntity
  8
0
100
AcDbBlockEnd
  0
BLOCK
  5
269
330
268
100
AcDbEntity
  8
0
100
AcDbBlockBegin
  2
*D3
 70
     1
 10
0.0
 20
0.0
 30
0.0
  3
*D3
  1

  0
SOLID
  5
26B
330
268
100
AcDbEntity
  8
VERMASSUNG
100
AcDbTrace
 10
158.5460468606
 20
167.0892644498
 30
0.0
 11
161.5460468606
 21
166.6392644498
 31
0.0
 12
161.5460468606
 22
167.5392644498
 32
0.0
 13
161.5460468606
 23
167.5392644498
 33
0.0
  0
SOLID
  5
26C
330
268
100
AcDbEntity
  8
VERMASSUNG
100
AcDbTrace
 10
260.4460468606
 20
167.0892644498
 30
0.0
 11
257.4460468606
 21
167.5392644498
 31
0.0
 12
257.4460468606
 22
166.6392644498
 32
0.0
 13
257.4460468606
 23
166.6392644498
 33
0.0
  0
LINE
  5
26D
330
268
100
AcDbEntity
  8
VERMASSUNG
100
AcDbLine
 10
158.5460468606
 20
131.4369630083
 30
0.0
 11
158.5460468606
 21
168.0892644498
 31
0.0
  0
LINE
  5
26E
330
268
100
AcDbEntity
  8
VERMASSUNG
100
AcDbLine
 10
260.4460468606
 20
156.7462852618
 30
0.0
 11
260.4460468606
 21
168.0892644498
 31
0.0
  0
LINE
  5
26F
330
268
100
AcDbEntity
  8
VERMASSUNG
100
AcDbLine
 10
158.5460468606
 20
167.0892644498
 30
0.0
 11
260.4460468606
 21
167.0892644498
 31
0.0
  0
MTEXT
  5
270
330
268
100
AcDbEntity
  8
VERMASSUNG
100
AcDbMText
 10
206.7971045248
 20
169.6673998129
 30
0.0
 40
2.0
 41
0.0
 71
     1
 72
     1
  1
101.9
  7
SLDTEXTSTYLE0
 73
     1
 44
1.0
  0
ENDBLK
  5
26A
330
268
100
AcDbEntity
  8
0
100
AcDbBlockEnd
  0
BLOCK
  5
273
330
272
100
AcDbEntity
  8
0
100
AcDbBlockBegin
  2
*D4
 70
     1
 10
0.0
 20
0.0
 30
0.0
  3
*D4
  1

  0
SOLID
  5
275
330
272
100
AcDbEntity
  8
VERMASSUNG
100
AcDbTrace
 10
268.1527007299
 20
156.7462852618
 30
0.0
 11
267.7027007299
 21
153.7462852618
 31
0.0
 12
268.6027007299
 22
153.7462852618
 32
0.0
 13
268.6027007299
 23
153.7462852618
 33
0.0
  0
SOLID
  5
276
330
272
100
AcDbEntity
  8
VERMASSUNG
100
AcDbTrace
 10
268.1527007299
 20
111.7462852618
 30
0.0
 11
268.6027007299
 21
114.7462852618
 31
0.0
 12
267.7027007299
 22
114.7462852618
 32
0.0
 13
267.7027007299
 23
114.7462852618
 33
0.0
  0
LINE
  5
277
330
272
100
AcDbEntity
  8
VERMASSUNG
100
AcDbLine
 10
260.4460468606
 20
156.7462852618
 30
0.0
 11
269.1527007299
 21
156.7462852618
 31
0.0
  0
LINE
  5
278
330
272
100
AcDbEntity
  8
VERMASSUNG
100
AcDbLine
 10
259.3077372263
 20
111.7462852618
 30
0.0
 11
269.1527007299
 21
111.7462852618
 31
0.0
  0
LINE
  5
279
330
272
100
AcDbEntity
  8
VERMASSUNG
100
AcDbLine
 10
268.1527007299
 20
156.7462852618
 30
0.0
 11
268.1527007299
 21
111.7462852618
 31
0.0
  0
MTEXT
  5
27A
330
272
100
AcDbEntity
  8
VERMASSUNG
100
AcDbMText
 10
265.5745653668
 20
132.7463268676
 30
0.0
 40
2.0
 41
0.0
 71
     1
 72
     1
  1
45
  7
SLDTEXTSTYLE0
 11
-7.044195017643634E-15
 21
1.0
 31
0.0
 73
     1
 44
1.0
  0
ENDBLK
  5
274
330
272
100
AcDbEntity
  8
0
100
AcDbBlockEnd
  0
BLOCK
  5
27D
330
27C
100
AcDbEntity
  8
0
100
AcDbBlockBegin
  2
*D5
 70
     1
 10
0.0
 20
0.0
 30
0.0
  3
*D5
  1

  0
SOLID
  5
27F
330
27C
100
AcDbEntity
  8
VERMASSUNG
100
AcDbTrace
 10
150.035246074
 20
143.2462852618
 30
0.0
 11
149.585246074
 21
140.2462852618
 31
0.0
 12
150.485246074
 22
140.2462852618
 32
0.0
 13
150.485246074
 23
140.2462852618
 33
0.0
  0
SOLID
  5
280
330
27C
100
AcDbEntity
  8
VERMASSUNG
100
AcDbTrace
 10
150.035246074
 20
80.2462852618
 30
0.0
 11
150.485246074
 21
83.2462852618
 31
0.0
 12
149.585246074
 22
83.2462852618
 32
0.0
 13
149.585246074
 23
83.2462852618
 33
0.0
  0
LINE
  5
281
330
27C
100
AcDbEntity
  8
VERMASSUNG
100
AcDbLine
 10
190.7460468606
 20
143.2462852618
 30
0.0
 11
149.035246074
 21
143.2462852618
 31
0.0
  0
LINE
  5
282
330
27C
100
AcDbEntity
  8
VERMASSUNG
100
AcDbLine
 10
190.7460468606
 20
80.2462852618
 30
0.0
 11
149.035246074
 21
80.2462852618
 31
0.0
  0
LINE
  5
283
330
27C
100
AcDbEntity
  8
VERMASSUNG
100
AcDbLine
 10
150.035246074
 20
143.2462852618
 30
0.0
 11
150.035246074
 21
80.2462852618
 31
0.0
  0
MTEXT
  5
284
330
27C
100
AcDbEntity
  8
VERMASSUNG
100
AcDbMText
 10
147.2571105849
 20
104.0425677435
 30
0.0
 40
2.0
 41
0.0
 71
     1
 72
     1
  1
HSK A 
  7
SLDTEXTSTYLE0
 11
-7.044195017643634E-15
 21
1.0
 31
0.0
 73
     1
 44
1.0
  0
MTEXT
  5
285
330
27C
100
AcDbEntity
  8
VERMASSUNG
100
AcDbMText
 10
147.4571105944
 20
113.0425682874
 30
0.0
 40
2.0
 41
0.0
 71
     1
 72
     1
  1
%%c
  7
SLDTEXTSTYLE0
 11
-7.044195017643634E-15
 21
1.0
 31
0.0
 73
     1
 44
1.0
  0
MTEXT
  5
286
330
27C
100
AcDbEntity
  8
VERMASSUNG
100
AcDbMText
 10
147.4571107108
 20
116.6515546049
 30
0.0
 40
2.0
 41
0.0
 71
     1
 72
     1
  1
63
  7
SLDTEXTSTYLE0
 11
-7.044195017643634E-15
 21
1.0
 31
0.0
 73
     1
 44
1.0
  0
ENDBLK
  5
27E
330
27C
100
AcDbEntity
  8
0
100
AcDbBlockEnd
  0
BLOCK
  5
2F4
330
2F3
100
AcDbEntity
  8
0
100
AcDbBlockBegin
  2
*D6
 70
     1
 10
0.0
 20
0.0
 30
0.0
  3
*D6
  1

  0
SOLID
  5
2F6
330
2F3
100
AcDbEntity
  8
VERMASSUNG
100
AcDbTrace
 10
36.4637956204
 20
76.701864081
 30
0.0
 11
36.9137956204
 21
79.701864081
 31
0.0
 12
36.0137956204
 22
79.701864081
 32
0.0
 13
36.0137956204
 23
79.701864081
 33
0.0
  0
SOLID
  5
2F7
330
2F3
100
AcDbEntity
  8
VERMASSUNG
100
AcDbTrace
 10
36.4637956204
 20
156.701864081
 30
0.0
 11
36.0137956204
 21
153.701864081
 31
0.0
 12
36.9137956204
 22
153.701864081
 32
0.0
 13
36.9137956204
 23
153.701864081
 33
0.0
  0
LINE
  5
2F8
330
2F3
100
AcDbEntity
  8
VERMASSUNG
100
AcDbLine
 10
80.1972262774
 20
76.701864081
 30
0.0
 11
35.4637956204
 21
76.701864081
 31
0.0
  0
LINE
  5
2F9
330
2F3
100
AcDbEntity
  8
VERMASSUNG
100
AcDbLine
 10
80.1972262774
 20
156.701864081
 30
0.0
 11
35.4637956204
 21
156.701864081
 31
0.0
  0
LINE
  5
2FA
330
2F3
100
AcDbEntity
  8
VERMASSUNG
100
AcDbLine
 10
36.4637956204
 20
76.701864081
 30
0.0
 11
36.4637956204
 21
156.701864081
 31
0.0
  0
MTEXT
  5
2FB
330
2F3
100
AcDbEntity
  8
VERMASSUNG
100
AcDbMText
 10
33.8856601409
 20
113.4980217452
 30
0.0
 40
2.0
 41
0.0
 71
     1
 72
     1
  1
%%c
  7
SLDTEXTSTYLE0
 11
6.123233995736766E-17
 21
1.0
 31
0.0
 73
     1
 44
1.0
  0
MTEXT
  5
2FC
330
2F3
100
AcDbEntity
  8
VERMASSUNG
100
AcDbMText
 10
33.8856602573
 20
117.1072582415
 30
0.0
 40
2.0
 41
0.0
 71
     1
 72
     1
  1
80
  7
SLDTEXTSTYLE0
 11
6.123233995736766E-17
 21
1.0
 31
0.0
 73
     1
 44
1.0
  0
ENDBLK
  5
2F5
330
2F3
100
AcDbEntity
  8
0
100
AcDbBlockEnd
  0
BLOCK
  5
2FE
330
2FD
100
AcDbEntity
  8
0
100
AcDbBlockBegin
  2
SW_CENTERMARKSYMBOL_0
 70
     0
 10
0.0
 20
0.0
 30
0.0
  3
SW_CENTERMARKSYMBOL_0
  1

  0
LINE
  5
300
330
2FD
100
AcDbEntity
  8
VERMASSUNG
 62
     0
100
AcDbLine
 10
0.0
 20
0.0
 30
0.0
 11
0.0
 21
2.5
 31
0.0
  0
LINE
  5
301
330
2FD
100
AcDbEntity
  8
VERMASSUNG
 62
     0
100
AcDbLine
 10
0.0
 20
0.0
 30
0.0
 11
-2.5
 21
0.0
 31
0.0
  0
LINE
  5
302
330
2FD
100
AcDbEntity
  8
VERMASSUNG
 62
     0
100
AcDbLine
 10
0.0
 20
0.0
 30
0.0
 11
0.0
 21
-2.5
 31
0.0
  0
LINE
  5
303
330
2FD
100
AcDbEntity
  8
VERMASSUNG
 62
     0
100
AcDbLine
 10
0.0
 20
0.0
 30
0.0
 11
2.5
 21
0.0
 31
0.0
  0
LINE
  5
304
330
2FD
100
AcDbEntity
  8
VERMASSUNG
 62
     0
100
AcDbLine
 10
0.0
 20
5.0
 30
0.0
 11
0.0
 21
47.797656344
 31
0.0
  0
LINE
  5
305
330
2FD
100
AcDbEntity
  8
VERMASSUNG
 62
     0
100
AcDbLine
 10
-5.0
 20
0.0
 30
0.0
 11
-34.0
 21
0.0
 31
0.0
  0
LINE
  5
306
330
2FD
100
AcDbEntity
  8
VERMASSUNG
 62
     0
100
AcDbLine
 10
0.0
 20
-5.0
 30
0.0
 11
0.0
 21
-34.0
 31
0.0
  0
LINE
  5
307
330
2FD
100
AcDbEntity
  8
VERMASSUNG
 62
     0
100
AcDbLine
 10
5.0
 20
0.0
 30
0.0
 11
34.0
 21
0.0
 31
0.0
  0
ENDBLK
  5
2FF
330
2FD
100
AcDbEntity
  8
0
100
AcDbBlockEnd
  0
ENDSEC
  0
SECTION
  2
ENTITIES
  0
MTEXT
  5
45
330
1F
100
AcDbEntity
  8
KOPF_DÜNN
100
AcDbMText
 10
13.8892156294
 20
23.8442973028
 30
0.0
 40
3.0
 41
0.0
 71
     1
 72
     1
  1
HA6.PCE.RLA.070
  7
SLDTEXTSTYLE0
 73
     1
 44
1.0
  0
MTEXT
  5
46
330
1F
100
AcDbEntity
  8
VERMASSUNG
100
AcDbMText
 10
13.9329988022
 20
28.8834360957
 30
0.0
 40
3.0
 41
0.0
 71
     1
 72
     1
  1
Klemmhalter rechts_Turning tool right 95° /80° /95°
  7
SLDTEXTSTYLE0
 73
     1
 44
1.0
  0
MTEXT
  5
47
330
1F
100
AcDbEntity
  8
VERMASSUNG
100
AcDbMText
 10
98.8601118557
 20
13.8365368179
 30
0.0
 40
2.0
 41
0.0
 71
     1
 72
     1
  1
Datum: 19.01.2011
  7
SLDTEXTSTYLE0
 73
     1
 44
1.0
  0
MTEXT
  5
49
330
1F
100
AcDbEntity
  8
VERMASSUNG
100
AcDbMText
 10
13.933048693
 20
18.0482802738
 30
0.0
 40
2.0
 41
0.0
 71
     1
 72
     1
  1
DIN 69893 HSK 63 A ICTM / CN.. 16 06..
  7
SLDTEXTSTYLE1
 73
     1
 44
1.0
  0
MTEXT
  5
4A
330
1F
100
AcDbEntity
  8
VERMASSUNG
100
AcDbMText
 10
13.9808475933
 20
13.9090973692
 30
0.0
 40
2.0
 41
0.0
 71
     1
 72
     1
  1
Gewicht: 1142g
  7
SLDTEXTSTYLE0
 73
     1
 44
1.0
  0
LINE
  5
4B
330
1F
100
AcDbEntity
  8
0
  6
Continuous
 62
     7
370
    15
100
AcDbLine
 10
249.9122331534
 20
150.2643235922
 30
0.0
 11
248.9108891334
 21
149.4942837044
 31
0.0
  0
LINE
  5
4C
330
1F
100
AcDbEntity
  8
0
  6
Continuous
 62
     7
370
    15
100
AcDbLine
 10
258.3397142988
 20
140.2535224762
 30
0.0
 11
259.0034700405
 21
140.9136420946
 31
0.0
  0
LINE
  5
4D
330
1F
100
AcDbEntity
  8
0
  6
Continuous
 62
     7
370
    15
100
AcDbLine
 10
244.6004042967
 20
155.4718550912
 30
0.0
 11
243.936648555
 21
154.8117354729
 31
0.0
  0
LINE
  5
4E
330
1F
100
AcDbEntity
  8
0
  6
Continuous
 62
     7
370
    15
100
AcDbLine
 10
190.7460468606
 20
80.2462852618
 30
0.0
 11
195.3960468606
 21
80.2462852618
 31
0.0
  0
LINE
  5
4F
330
1F
100
AcDbEntity
  8
0
  6
Continuous
 62
     7
370
    15
100
AcDbLine
 10
195.400251058
 20
143.2462852618
 30
0.0
 11
190.7460468606
 21
143.2462852618
 31
0.0
  0
ARC
  5
50
330
1F
100
AcDbEntity
  8
0
  6
Continuous
 62
     7
370
    15
100
AcDbCircle
 10
190.7460468606
 20
80.5462852618
 30
0.0
 40
0.3000000000000114
100
AcDbArc
 50
180.0
 51
270.0
  0
ARC
  5
51
330
1F
100
AcDbEntity
  8
0
  6
Continuous
 62
     7
370
    15
100
AcDbCircle
 10
190.7460468606
 20
142.9462852618
 30
0.0
 40
0.3000000000000114
100
AcDbArc
 50
90.0
 51
180.0
  0
ARC
  5
52
330
1F
100
AcDbEntity
  8
0
  6
Continuous
 62
     7
370
    15
100
AcDbCircle
 10
217.3960468606
 20
84.7462852618
 30
0.0
 40
1.000000000000008
100
AcDbArc
 50
90.0
 51
143.1139143113
  0
ARC
  5
53
330
1F
100
AcDbEntity
  8
0
  6
Continuous
 62
     7
370
    15
100
AcDbCircle
 10
217.3960468606
 20
138.7462852618
 30
0.0
 40
1.000000000000026
100
AcDbArc
 50
216.8996843908
 51
270.0
  0
LINE
  5
54
330
1F
100
AcDbEntity
  8
0
  6
Continuous
 62
     7
370
    15
100
AcDbLine
 10
217.3960468606
 20
85.7462852618
 30
0.0
 11
231.6787198726
 21
85.7462852618
 31
0.0
  0
LINE
  5
55
330
1F
100
AcDbEntity
  8
0
  6
Continuous
 62
     7
370
    15
100
AcDbLine
 10
231.6787198726
 20
137.7462852618
 30
0.0
 11
217.3960468606
 21
137.7462852618
 31
0.0
  0
ARC
  5
56
330
1F
100
AcDbEntity
  8
0
  6
Continuous
 62
     7
370
    15
100
AcDbCircle
 10
189.9460468606
 20
87.1758544001
 30
0.0
 40
0.5999999999999943
100
AcDbArc
 50
33.5573097619
 51
90.0
  0
ARC
  5
57
330
1F
100
AcDbEntity
  8
0
  6
Continuous
 62
     7
370
    15
100
AcDbCircle
 10
189.9460468606
 20
136.3167161235
 30
0.0
 40
0.6000000000000227
100
AcDbArc
 50
270.0
 51
326.4426902381
  0
LINE
  5
58
330
1F
100
AcDbEntity
  8
0
  6
Continuous
 62
     7
370
    15
100
AcDbLine
 10
188.4460468606
 20
87.5258544001
 30
0.0
 11
189.302759634
 21
87.7554098958
 31
0.0
  0
LINE
  5
59
330
1F
100
AcDbEntity
  8
0
  6
Continuous
 62
     7
370
    15
100
AcDbLine
 10
189.302759634
 20
135.7371606277
 30
0.0
 11
188.4460468606
 21
135.9667161235
 31
0.0
  0
LINE
  5
5A
330
1F
100
AcDbEntity
  8
0
  6
Continuous
 62
     7
370
    15
100
AcDbLine
 10
177.2145380618
 20
135.4040152819
 30
0.0
 11
164.6460468606
 21
134.774331354
 31
0.0
  0
LINE
  5
5B
330
1F
100
AcDbEntity
  8
0
  6
Continuous
 62
     7
370
    15
100
AcDbLine
 10
188.4460468606
 20
135.9667161235
 30
0.0
 11
185.6290452033
 21
135.825583776
 31
0.0
  0
LINE
  5
5C
330
1F
100
AcDbEntity
  8
0
  6
Continuous
 62
     7
370
    15
100
AcDbLine
 10
185.6291012933
 20
87.6669839375
 30
0.0
 11
188.4460468606
 21
87.5258544001
 31
0.0
  0
LINE
  5
5D
330
1F
100
AcDbEntity
  8
0
  6
Continuous
 62
     7
370
    15
100
AcDbLine
 10
168.6460468606
 20
88.517838368
 30
0.0
 11
177.2149405805
 21
88.0885350754
 31
0.0
  0
ARC
  5
5E
330
1F
100
AcDbEntity
  8
0
  6
Continuous
 62
     7
370
    15
100
AcDbCircle
 10
189.458051061
 20
87.1758544001
 30
0.0
 40
0.6000000000000145
100
AcDbArc
 50
90.0
 51
105.0
  0
ARC
  5
5F
330
1F
100
AcDbEntity
  8
0
  6
Continuous
 62
     7
370
    15
100
AcDbCircle
 10
189.458051061
 20
136.3167161235
 30
0.0
 40
0.6000000000000282
100
AcDbArc
 50
255.0
 51
270.0
  0
LINE
  5
60
330
1F
100
AcDbEntity
  8
0
  6
Continuous
 62
     7
370
    15
100
AcDbLine
 10
189.458051061
 20
87.7758544001
 30
0.0
 11
189.9460468606
 21
87.7758544001
 31
0.0
  0
LINE
  5
61
330
1F
100
AcDbEntity
  8
0
  6
Continuous
 62
     7
370
    15
100
AcDbLine
 10
189.9460468606
 20
135.7167161235
 30
0.0
 11
189.458051061
 21
135.7167161235
 31
0.0
  0
LINE
  5
62
330
1F
100
AcDbEntity
  8
0
  6
Continuous
 62
     7
370
    15
100
AcDbLine
 10
159.6960468606
 20
90.9337852618
 30
0.0
 11
167.2460468606
 21
90.9337852618
 31
0.0
  0
ARC
  5
63
330
1F
100
AcDbEntity
  8
0
  6
Continuous
 62
     7
370
    15
100
AcDbCircle
 10
167.2460468606
 20
89.5337852618
 30
0.0
 40
1.399999999999991
100
AcDbArc
 50
37.6443616934
 51
90.0
  0
LINE
  5
64
330
1F
100
AcDbEntity
  8
0
  6
Continuous
 62
     7
370
    15
100
AcDbLine
 10
159.6872103188
 20
132.60744872
 30
0.0
 11
158.5572144798
 21
131.477452881
 31
0.0
  0
LINE
  5
65
330
1F
100
AcDbEntity
  8
0
  6
Continuous
 62
     7
370
    15
100
AcDbLine
 10
158.5434659809
 20
92.0863661415
 30
0.0
 11
159.6960468606
 21
90.9337852618
 31
0.0
  0
ARC
  5
66
330
1F
100
AcDbEntity
  8
0
  6
Continuous
 62
     7
370
    15
100
AcDbCircle
 10
163.2460468606
 20
134.0162852618
 30
0.0
 40
1.399999999999977
100
AcDbArc
 50
270.0
 51
301.7485287426
  0
ARC
  5
67
330
1F
100
AcDbEntity
  8
0
  6
Continuous
 62
     7
370
    15
100
AcDbCircle
 10
231.6787198726
 20
138.7462852618
 30
0.0
 40
1.0
100
AcDbArc
 50
270.0
 51
345.0
  0
ARC
  5
68
330
1F
100
AcDbEntity
  8
0
  6
Continuous
 62
     7
370
    15
100
AcDbCircle
 10
231.6787198726
 20
84.7462852618
 30
0.0
 40
1.000000000000014
100
AcDbArc
 50
15.0
 51
90.0
  0
LINE
  5
69
330
1F
100
AcDbEntity
  8
0
  6
Continuous
 62
     7
370
    15
100
AcDbLine
 10
232.713996053
 20
84.7462852618
 30
0.0
 11
233.887326788
 21
84.7462852618
 31
0.0
  0
LINE
  5
6A
330
1F
100
AcDbEntity
  8
0
  6
Continuous
 62
     7
370
    15
100
AcDbLine
 10
236.5974952242
 20
153.2397014799
 30
0.0
 11
232.6446456989
 21
138.4874662167
 31
0.0
  0
LINE
  5
6B
330
1F
100
AcDbEntity
  8
0
  6
Continuous
 62
     7
370
    15
100
AcDbLine
 10
232.6446456989
 20
85.0051043069
 30
0.0
 11
232.713996053
 21
84.7462852618
 31
0.0
  0
LINE
  5
6C
330
1F
100
AcDbEntity
  8
0
  6
Continuous
 62
     7
370
    15
100
AcDbLine
 10
163.2460468606
 20
132.6162852618
 30
0.0
 11
159.8437022647
 21
132.6162852618
 31
0.0
  0
LINE
  5
6D
330
1F
100
AcDbEntity
  8
0
  6
Continuous
 62
     7
370
    15
100
AcDbLine
 10
244.1930463232
 20
154.0380260695
 30
0.0
 11
236.5974952242
 21
153.2397014799
 31
0.0
  0
ELLIPSE
  5
6E
330
1F
100
AcDbEntity
  8
0
  6
Continuous
 62
     7
370
    15
100
AcDbEllipse
 10
251.7487492891
 20
147.8921298171
 30
0.0
 11
2.127993349586802
 21
-2.115548647149495
 31
0.0
210
0.0
220
0.0
230
1.0
 40
0.9875598812
 41
1.999240497035679
 42
4.320921034199067
  0
ELLIPSE
  5
6F
330
1F
100
AcDbEntity
  8
0
  6
Continuous
 62
     7
370
    15
100
AcDbEllipse
 10
251.7487492891
 20
147.8921298171
 30
0.0
 11
2.127993349586802
 21
-2.115548647149495
 31
0.0
210
0.0
220
0.0
230
1.0
 40
0.9875598812
 41
0.0411158592809142
 42
1.9992404970357
  0
LWPOLYLINE
  5
70
330
1F
100
AcDbEntity
  8
0
  6
Continuous
 62
     7
370
    15
100
AcDbPolyline
 90
        3
 70
   128
 43
0.0
 10
250.0884661818
 20
150.5221776806
 10
250.1023442897
 20
150.5226470861
 10
250.3128896114
 20
150.5234280632
  0
ARC
  5
71
330
1F
100
AcDbEntity
  8
0
  6
Continuous
 62
     7
370
    15
100
AcDbCircle
 10
246.7096556572
 20
134.2394524583
 30
0.0
 40
3.500586854799317
100
AcDbArc
 50
316.1954070758
 51
133.4898590161
  0
CIRCLE
  5
72
330
1F
100
AcDbEntity
  8
0
  6
Continuous
 62
     7
370
    15
100
AcDbCircle
 10
246.7311872663
 20
134.281622942
 30
0.0
 40
1.988679600241414
  0
SPLINE
  5
73
330
1F
100
AcDbEntity
  8
0
  6
Continuous
 62
     7
370
    15
100
AcDbSpline
210
0.0
220
0.0
230
1.0
 70
     8
 71
     3
 72
    11
 73
     7
 74
     0
 42
0.00000001
 43
0.00000001
 40
0.0
 40
0.0
 40
0.0
 40
0.0
 40
0.1081100880371215
 40
0.4711580666043533
 40
0.8135808430836181
 40
0.9999999999999999
 40
0.9999999999999999
 40
0.9999999999999999
 40
0.9999999999999999
 10
247.8109014544614
 20
132.9017653230419
 30
0.0
 10
247.8278939642408
 20
132.9533580787701
 30
0.0
 10
247.9019495699645
 20
133.1782061339423
 30
0.0
 10
248.0538601491915
 20
133.617132927094
 30
0.0
 10
248.2485398988983
 20
134.1323042462953
 30
0.0
 10
248.3605636394628
 20
134.4144975138497
 30
0.0
 10
248.4000525111879
 20
134.5139719081875
 30
0.0
  0
SPLINE
  5
74
330
1F
100
AcDbEntity
  8
0
  6
Continuous
 62
     7
370
    15
100
AcDbSpline
210
0.0
220
0.0
230
1.0
 70
     8
 71
     3
 72
    10
 73
     6
 74
     0
 42
0.00000001
 43
0.00000001
 40
0.0
 40
0.0
 40
0.0
 40
0.0
 40
0.4391165375904129
 40
0.7513669429073396
 40
1.0
 40
1.0
 40
1.0
 40
1.0
 10
248.4000525111879
 20
134.5139719081875
 30
0.0
 10
248.2308036278432
 20
134.6939386062799
 30
0.0
 10
247.9412039312183
 20
135.001877424783
 30
0.0
 10
247.5550981649703
 20
135.4842083593215
 30
0.0
 10
247.37336908066
 20
135.7346694319093
 30
0.0
 10
247.2928107101197
 20
135.8456958863045
 30
0.0
  0
SPLINE
  5
75
330
1F
100
AcDbEntity
  8
0
  6
Continuous
 62
     7
370
    15
100
AcDbSpline
210
0.0
220
0.0
230
1.0
 70
     8
 71
     3
 72
    10
 73
     6
 74
     0
 42
0.00000001
 43
0.00000001
 40
0.0
 40
0.0
 40
0.0
 40
0.0
 40
0.4391165375904067
 40
0.751366942907353
 40
1.0
 40
1.0
 40
1.0
 40
1.0
 10
247.2928107101197
 20
135.8456958863045
 30
0.0
 10
247.0392203111118
 20
135.7948627828841
 30
0.0
 10
246.6053048774121
 20
135.7078828806353
 30
0.0
 10
246.0094106982569
 20
135.6161297039519
 30
0.0
 10
245.7232635328858
 20
135.5808516337979
 30
0.0
 10
245.5964178523251
 20
135.5652132792759
 30
0.0
  0
SPLINE
  5
76
330
1F
100
AcDbEntity
  8
0
  6
Continuous
 62
     7
370
    15
100
AcDbSpline
210
0.0
220
0.0
230
1.0
 70
     8
 71
     3
 72
    11
 73
     7
 74
     0
 42
0.00000001
 43
0.00000001
 40
0.0
 40
0.0
 40
0.0
 40
0.0
 40
0.1864191569163897
 40
0.528841933395648
 40
0.8918899119628791
 40
1.0
 40
1.0
 40
1.0
 40
1.0
 10
245.5964178523251
 20
135.5652132792759
 30
0.0
 10
245.5569289806001
 20
135.4657388849381
 30
0.0
 10
245.4449052400355
 20
135.1835456173837
 30
0.0
 10
245.2502254903287
 20
134.6683742981825
 30
0.0
 10
245.0983149111017
 20
134.2294475050308
 30
0.0
 10
245.0242593053781
 20
134.0045994498585
 30
0.0
 10
245.0072667955987
 20
133.9530066941304
 30
0.0
  0
SPLINE
  5
77
330
1F
100
AcDbEntity
  8
0
  6
Continuous
 62
     7
370
    15
100
AcDbSpline
210
0.0
220
0.0
230
1.0
 70
     8
 71
     3
 72
    10
 73
     6
 74
     0
 42
0.00000001
 43
0.00000001
 40
0.0
 40
0.0
 40
0.0
 40
0.0
 40
0.4391165375904129
 40
0.7513669429073437
 40
1.0
 40
1.0
 40
1.0
 40
1.0
 10
245.0072667955986
 20
133.9530066941304
 30
0.0
 10
245.1550383118328
 20
133.7516802841917
 30
0.0
 10
245.4078883479777
 20
133.4071931236938
 30
0.0
 10
245.8103290758709
 20
132.9411076661715
 30
0.0
 10
246.0210835925583
 20
132.7195130216052
 30
0.0
 10
246.1145085966668
 20
132.6212827160134
 30
0.0
  0
SPLINE
  5
78
330
1F
100
AcDbEntity
  8
0
  6
Continuous
 62
     7
370
    15
100
AcDbSpline
210
0.0
220
0.0
230
1.0
 70
     8
 71
     3
 72
    10
 73
     6
 74
     0
 42
0.00000001
 43
0.00000001
 40
0.0
 40
0.0
 40
0.0
 40
0.0
 40
0.4391165375904148
 40
0.7513669429073584
 40
0.9999999999999999
 40
0.9999999999999999
 40
0.9999999999999999
 40
0.9999999999999999
 10
246.1145085966668
 20
132.6212827160134
 30
0.0
 10
246.3466216285642
 20
132.6507561075874
 30
0.0
 10
246.7437874017839
 20
132.7011876678416
 30
0.0
 10
247.3560165425843
 20
132.8091863215412
 30
0.0
 10
247.6711891403324
 20
132.8733308197166
 30
0.0
 10
247.8109014544614
 20
132.901765323042
 30
0.0
  0
LINE
  5
79
330
1F
100
AcDbEntity
  8
0
  6
Continuous
 62
     7
370
    15
100
AcDbLine
 10
246.9027051744
 20
135.4577273895
 30
0.0
 11
247.2928107101
 21
135.8456958863
 31
0.0
  0
LINE
  5
7A
330
1F
100
AcDbEntity
  8
0
  6
Continuous
 62
     7
370
    15
100
AcDbLine
 10
246.9027051744
 20
135.4577273895
 30
0.0
 11
246.0545087455
 21
135.317486086
 31
0.0
  0
LINE
  5
7B
330
1F
100
AcDbEntity
  8
0
  6
Continuous
 62
     7
370
    15
100
AcDbLine
 10
246.0545087455
 20
135.317486086
 30
0.0
 11
245.4607235281
 21
135.2193092839
 31
0.0
  0
LINE
  5
7C
330
1F
100
AcDbEntity
  8
0
  6
Continuous
 62
     7
370
    15
100
AcDbLine
 10
247.54307438
 20
132.8484107393
 30
0.0
 11
247.7153714471
 21
133.3199001188
 31
0.0
  0
LINE
  5
7D
330
1F
100
AcDbEntity
  8
0
  6
Continuous
 62
     7
370
    15
100
AcDbLine
 10
247.7153714471
 20
133.3199001188
 30
0.0
 11
248.0099469754
 21
134.1260034114
 31
0.0
  0
LINE
  5
7E
330
1F
100
AcDbEntity
  8
0
  6
Continuous
 62
     7
370
    15
100
AcDbLine
 10
248.0099469754
 20
134.1260034114
 30
0.0
 11
248.4000525112
 21
134.5139719082
 31
0.0
  0
LINE
  5
7F
330
1F
100
AcDbEntity
  8
0
  6
Continuous
 62
     7
370
    15
100
AcDbLine
 10
248.0099469754
 20
134.1260034114
 30
0.0
 11
247.4563260749
 21
134.7918654004
 31
0.0
  0
LINE
  5
80
330
1F
100
AcDbEntity
  8
0
  6
Continuous
 62
     7
370
    15
100
AcDbLine
 10
247.4563260749
 20
134.7918654004
 30
0.0
 11
246.9027051744
 21
135.4577273895
 31
0.0
  0
ARC
  5
81
330
1F
100
AcDbEntity
  8
0
  6
Continuous
 62
     7
370
    15
100
AcDbCircle
 10
246.2965377571
 20
133.8308550916
 30
0.0
 40
1.506203756410376
100
AcDbArc
 50
39.6454299654
 51
99.2468379332
  0
ARC
  5
82
330
1F
100
AcDbEntity
  8
0
  6
Continuous
 62
     7
370
    15
100
AcDbCircle
 10
246.3056887196
 20
133.8305924362
 30
0.0
 40
1.499337198591428
100
AcDbArc
 50
340.0858321364
 51
39.8762771595
  0
ARC
  5
83
330
1F
100
AcDbEntity
  8
0
  6
Continuous
 62
     7
370
    15
100
AcDbCircle
 10
246.3345363098
 20
133.8240570767
 30
0.0
 40
1.469993168190853
100
AcDbArc
 50
316.9670039756
 51
339.9423476395
  0
ARC
  5
84
330
1F
100
AcDbEntity
  8
0
  6
Continuous
 62
     7
370
    15
100
AcDbCircle
 10
246.2939714605
 20
133.8637086888
 30
0.0
 40
1.473367270028756
100
AcDbArc
 50
99.353632552
 51
129.6084566569
  0
LINE
  5
85
330
1F
100
AcDbEntity
  8
0
  6
Continuous
 62
     7
370
    15
100
AcDbLine
 10
243.5903075526
 20
139.6403688012
 30
0.0
 11
258.7560765586
 21
140.8005846979
 31
0.0
  0
ARC
  5
86
330
1F
100
AcDbEntity
  8
0
  6
Continuous
 62
     7
370
    15
100
AcDbCircle
 10
243.5605629318
 20
140.0419394348
 30
0.0
 40
0.4026707293642809
100
AcDbArc
 50
175.1377687674
 51
274.2362029422
  0
LINE
  5
87
330
1F
100
AcDbEntity
  8
0
  6
Continuous
 62
     7
370
    15
100
AcDbLine
 10
244.4861741208
 20
155.2272617664
 30
0.0
 11
243.1593412591
 21
140.076069856
 31
0.0
  0
ARC
  5
88
330
1F
100
AcDbEntity
  8
0
  6
Continuous
 62
     7
370
    15
100
AcDbCircle
 10
244.8771810179
 20
155.1935571227
 30
0.0
 40
0.3924568722548031
100
AcDbArc
 50
94.2937518475
 51
175.073304225
  0
LINE
  5
89
330
1F
100
AcDbEntity
  8
0
  6
Continuous
 62
     7
370
    15
100
AcDbLine
 10
260.0135667847
 20
156.7451283846
 30
0.0
 11
244.8477977787
 21
155.5849124879
 31
0.0
  0
ARC
  5
8A
330
1F
100
AcDbEntity
  8
0
  6
Continuous
 62
     7
370
    15
100
AcDbCircle
 10
260.0433114055
 20
156.343557751
 30
0.0
 40
0.4026707293642368
100
AcDbArc
 50
355.1377687674
 51
94.2362029422
  0
LINE
  5
8B
330
1F
100
AcDbEntity
  8
0
  6
Continuous
 62
     7
370
    15
100
AcDbLine
 10
259.1177002165
 20
141.1582354194
 30
0.0
 11
260.4445330782
 21
156.3094273298
 31
0.0
  0
ARC
  5
8C
330
1F
100
AcDbEntity
  8
0
  6
Continuous
 62
     7
370
    15
100
AcDbCircle
 10
258.7266933194
 20
141.1919400631
 30
0.0
 40
0.3924568722549618
100
AcDbArc
 50
274.2937518475
 51
355.073304225
  0
ARC
  5
8D
330
1F
100
AcDbEntity
  8
0
  6
Continuous
 62
     7
370
    15
100
AcDbCircle
 10
244.8774454218
 20
155.1932910966
 30
0.0
 40
0.3728340286422993
100
AcDbArc
 50
94.2937518475
 51
175.073304225
  0
LINE
  5
8E
330
1F
100
AcDbEntity
  8
0
  6
Continuous
 62
     7
370
    15
100
AcDbLine
 10
244.5059888696
 20
155.225310508
 30
0.0
 11
243.1791560079
 21
140.0741185977
 31
0.0
  0
ARC
  5
8F
330
1F
100
AcDbEntity
  8
0
  6
Continuous
 62
     7
370
    15
100
AcDbCircle
 10
243.560316597
 20
140.0416946976
 30
0.0
 40
0.3825371928959858
100
AcDbArc
 50
175.1377687673
 51
274.2362029422
  0
LINE
  5
90
330
1F
100
AcDbEntity
  8
0
  6
Continuous
 62
     7
370
    15
100
AcDbLine
 10
243.5885739867
 20
139.6602025956
 30
0.0
 11
258.7543429927
 21
140.8204184924
 31
0.0
  0
ARC
  5
91
330
1F
100
AcDbEntity
  8
0
  6
Continuous
 62
     7
370
    15
100
AcDbCircle
 10
258.7264289155
 20
141.1922060893
 30
0.0
 40
0.3728340286421732
100
AcDbArc
 50
274.2937518475
 51
355.073304225
  0
LINE
  5
92
330
1F
100
AcDbEntity
  8
0
  6
Continuous
 62
     7
370
    15
100
AcDbLine
 10
259.0978854677
 20
141.1601866778
 30
0.0
 11
260.4247183294
 21
156.3113785882
 31
0.0
  0
ARC
  5
93
330
1F
100
AcDbEntity
  8
0
  6
Continuous
 62
     7
370
    15
100
AcDbCircle
 10
260.0435577409
 20
156.3438024885
 30
0.0
 40
0.3825371923931734
100
AcDbArc
 50
355.1377687255
 51
94.2362027762
  0
LINE
  5
94
330
1F
100
AcDbEntity
  8
0
  6
Continuous
 62
     7
370
    15
100
AcDbLine
 10
260.0153003522
 20
156.72529459
 30
0.0
 11
244.8495313446
 21
155.5650786935
 31
0.0
  0
LINE
  5
95
330
1F
100
AcDbEntity
  8
0
  6
Continuous
 62
     7
370
    15
100
AcDbLine
 10
243.532703411
 20
140.0142374939
 30
0.0
 11
243.5885739867
 21
139.6602025956
 31
0.0
  0
LINE
  5
96
330
1F
100
AcDbEntity
  8
0
  6
Continuous
 62
     7
370
    15
100
AcDbLine
 10
243.532703411
 20
140.0142374939
 30
0.0
 11
243.1791560079
 21
140.0741185977
 31
0.0
  0
LINE
  5
97
330
1F
100
AcDbEntity
  8
0
  6
Continuous
 62
     7
370
    15
100
AcDbLine
 10
257.5373219638
 20
142.2047157551
 30
0.0
 11
258.698472417
 21
141.1744533907
 31
0.0
  0
LINE
  5
98
330
1F
100
AcDbEntity
  8
0
  6
Continuous
 62
     7
370
    15
100
AcDbLine
 10
258.698472417
 20
141.1744533907
 30
0.0
 11
258.7543429927
 21
140.8204184924
 31
0.0
  0
LINE
  5
99
330
1F
100
AcDbEntity
  8
0
  6
Continuous
 62
     7
370
    15
100
AcDbLine
 10
245.0243878317
 20
141.4890539876
 30
0.0
 11
243.532703411
 21
140.0142374939
 31
0.0
  0
LINE
  5
9A
330
1F
100
AcDbEntity
  8
0
  6
Continuous
 62
     7
370
    15
100
AcDbLine
 10
257.7796263385
 20
140.1165432393
 30
0.0
 11
258.0923208168
 21
140.1404650796
 31
0.0
  0
LINE
  5
9B
330
1F
100
AcDbEntity
  8
0
  6
Continuous
 62
     7
370
    15
100
AcDbLine
 10
243.822418379
 20
154.567142148
 30
0.0
 11
243.772208677
 21
153.9937942506
 31
0.0
  0
LINE
  5
9C
330
1F
100
AcDbEntity
  8
0
  6
Continuous
 62
     7
370
    15
100
AcDbLine
 10
243.0703739779
 20
145.9794975586
 30
0.0
 11
242.5044292605
 21
139.5169375235
 31
0.0
  0
LINE
  5
9D
330
1F
100
AcDbEntity
  8
0
  6
Continuous
 62
     7
370
    15
100
AcDbLine
 10
244.8595362727
 20
155.1654294043
 30
0.0
 11
244.5059888696
 21
155.225310508
 31
0.0
  0
LINE
  5
9E
330
1F
100
AcDbEntity
  8
0
  6
Continuous
 62
     7
370
    15
100
AcDbLine
 10
245.8774363238
 20
153.9927013784
 30
0.0
 11
244.8595362727
 21
155.1654294043
 31
0.0
  0
ARC
  5
9F
330
1F
100
AcDbEntity
  8
0
  6
Continuous
 62
     7
370
    15
100
AcDbCircle
 10
247.5283654987
 20
143.9661834611
 30
0.0
 40
1.006676823410635
100
AcDbArc
 50
175.1377687674
 51
274.2362029422
  0
LINE
  5
A0
330
1F
100
AcDbEntity
  8
0
  6
Continuous
 62
     7
370
    15
100
AcDbLine
 10
247.6027270507
 20
142.9622568769
 30
0.0
 11
255.4849028492
 21
143.5652612916
 31
0.0
  0
LINE
  5
A1
330
1F
100
AcDbEntity
  8
0
  6
Continuous
 62
     7
370
    15
100
AcDbLine
 10
247.2149123433
 20
151.9261090905
 30
0.0
 11
246.525311317
 21
144.0515095139
 31
0.0
  0
ARC
  5
A2
330
1F
100
AcDbEntity
  8
0
  6
Continuous
 62
     7
370
    15
100
AcDbCircle
 10
248.192429586
 20
151.8418474814
 30
0.0
 40
0.9811421806373068
100
AcDbArc
 50
94.2937518475
 51
175.073304225
  0
LINE
  5
A3
330
1F
100
AcDbEntity
  8
0
  6
Continuous
 62
     7
370
    15
100
AcDbLine
 10
256.0011472866
 20
153.4232403089
 30
0.0
 11
248.1189714881
 21
152.8202358943
 31
0.0
  0
ARC
  5
A4
330
1F
100
AcDbEntity
  8
0
  6
Continuous
 62
     7
370
    15
100
AcDbCircle
 10
256.0755088391
 20
152.419313725
 30
0.0
 40
1.006676823230305
100
AcDbArc
 50
355.1377687515
 51
94.2362029702
  0
LINE
  5
A5
330
1F
100
AcDbEntity
  8
0
  6
Continuous
 62
     7
370
    15
100
AcDbLine
 10
256.388961994
 20
144.4593880953
 30
0.0
 11
257.0785630206
 21
152.3339876719
 31
0.0
  0
ARC
  5
A6
330
1F
100
AcDbEntity
  8
0
  6
Continuous
 62
     7
370
    15
100
AcDbCircle
 10
255.4114447513
 20
144.5436497045
 30
0.0
 40
0.9811421806371764
100
AcDbArc
 50
274.2937518474
 51
355.073304225
  0
CIRCLE
  5
A7
330
1F
100
AcDbEntity
  8
0
  6
Continuous
 62
     7
370
    15
100
AcDbCircle
 10
251.8067763088
 20
148.1592889121
 30
0.0
 40
3.15288244044899
  0
SPLINE
  5
A8
330
1F
100
AcDbEntity
  8
0
  6
Continuous
 62
     7
370
    15
100
AcDbSpline
210
0.0
220
0.0
230
1.0
 70
     8
 71
     3
 72
    11
 73
     7
 74
     0
 42
0.00000001
 43
0.00000001
 40
0.0
 40
0.0
 40
0.0
 40
0.0
 40
0.3517313814402293
 40
0.7021754471682649
 40
0.9922929354048129
 40
1.0
 40
1.0
 40
1.0
 40
1.0
 10
245.0243878317411
 20
141.4890539876117
 30
0.0
 10
245.0800514001004
 20
141.5440939653834
 30
0.0
 10
245.1911748115051
 20
141.6539724779167
 30
0.0
 10
245.3640458928505
 20
141.8249675025625
 30
0.0
 10
245.4712704912302
 20
141.9310491028471
 30
0.0
 10
245.518387211315
 20
141.9776686084375
 30
0.0
 10
245.5196064915986
 20
141.9788750218697
 30
0.0
  0
ARC
  5
A9
330
1F
100
AcDbEntity
  8
0
  6
Continuous
 62
     7
370
    15
100
AcDbCircle
 10
251.0976016981
 20
147.5687336518
 30
0.0
 40
3.121119835820044
100
AcDbArc
 50
99.7953499161
 51
126.1561434973
  0
LINE
  5
AA
330
1F
100
AcDbEntity
  8
0
  6
Continuous
 62
     7
370
    15
100
AcDbLine
 10
258.359443458
 20
154.6776055694
 30
0.0
 11
260.0253052786
 21
156.3256453011
 31
0.0
  0
LINE
  5
AB
330
1F
100
AcDbEntity
  8
0
  6
Continuous
 62
     7
370
    15
100
AcDbLine
 10
260.0253052786
 20
156.3256453011
 30
0.0
 11
260.4247183294
 21
156.3113785882
 31
0.0
  0
LINE
  5
AC
330
1F
100
AcDbEntity
  8
0
  6
Continuous
 62
     7
370
    15
100
AcDbLine
 10
258.698472417
 20
141.1744533907
 30
0.0
 11
259.0978854677
 21
141.1601866778
 31
0.0
  0
LINE
  5
AD
330
1F
100
AcDbEntity
  8
0
  6
Continuous
 62
     7
370
    15
100
AcDbLine
 10
244.8595362727
 20
155.1654294043
 30
0.0
 11
244.8495313446
 21
155.5650786935
 31
0.0
  0
LINE
  5
AE
330
1F
100
AcDbEntity
  8
0
  6
Continuous
 62
     7
370
    15
100
AcDbLine
 10
260.0253052786
 20
156.3256453011
 30
0.0
 11
260.0153003522
 21
156.72529459
 31
0.0
  0
ARC
  5
AF
330
1F
100
AcDbEntity
  8
0
  6
Continuous
 62
     7
370
    15
100
AcDbCircle
 10
258.0628304967
 20
140.5321994485
 30
0.0
 40
0.3928428372156204
100
AcDbArc
 50
274.3051870646
 51
314.8150684307
  0
ARC
  5
B0
330
1F
100
AcDbEntity
  8
0
  6
Continuous
 62
     7
370
    15
100
AcDbCircle
 10
244.2140018102
 20
154.5332351294
 30
0.0
 40
0.3930486859070819
100
AcDbArc
 50
134.8817616345
 51
175.0511301793
  0
SPLINE
  5
B1
330
1F
100
AcDbEntity
  8
0
  6
Continuous
 62
     7
370
    15
100
AcDbSpline
210
0.0
220
0.0
230
1.0
 70
     8
 71
     3
 72
    11
 73
     7
 74
     0
 42
0.00000001
 43
0.00000001
 40
0.0
 40
0.0
 40
0.0
 40
0.0
 40
0.008225009708699
 40
0.3243955849041976
 40
0.66178488888728
 40
1.0
 40
1.0
 40
1.0
 40
1.0
 10
257.0536878677643
 20
142.7040300078274
 30
0.0
 10
257.0547890174089
 20
142.7027106504296
 30
0.0
 10
257.0982185203129
 20
142.6506750018521
 30
0.0
 10
257.1969767891212
 20
142.5384720829811
 30
0.0
 10
257.3650058379498
 20
142.3630790575532
 30
0.0
 10
257.4798364684269
 20
142.257546520897
 30
0.0
 10
257.5373219637526
 20
142.2047157551209
 30
0.0
  0
SPLINE
  5
B2
330
1F
100
AcDbEntity
  8
0
  6
Continuous
 62
     7
370
    15
100
AcDbSpline
210
0.0
220
0.0
230
1.0
 70
     8
 71
     3
 72
    11
 73
     7
 74
     0
 42
0.00000001
 43
0.00000001
 40
0.0
 40
0.0
 40
0.0
 40
0.0
 40
0.3382151111130633
 40
0.6756044150963922
 40
0.991774990291279
 40
1.0
 40
1.0
 40
1.0
 40
1.0
 10
245.8774363237598
 20
153.9927013784274
 30
0.0
 10
245.9296500509849
 20
153.9346277238479
 30
0.0
 10
246.0339500171389
 20
153.8186222109494
 30
0.0
 10
246.2074818554288
 20
153.6487018301269
 30
0.0
 10
246.3185658312961
 20
153.5487570968018
 30
0.0
 10
246.3701020197239
 20
153.5047837244772
 30
0.0
 10
246.3714087133717
 20
153.503668785091
 30
0.0
  0
SPLINE
  5
B3
330
1F
100
AcDbEntity
  8
0
  6
Continuous
 62
     7
370
    15
100
AcDbSpline
210
0.0
220
0.0
230
1.0
 70
     8
 71
     3
 72
    11
 73
     7
 74
     0
 42
0.00000001
 43
0.00000001
 40
0.0
 40
0.0
 40
0.0
 40
0.0
 40
0.0077070645953275
 40
0.2978245528304067
 40
0.6482686185590744
 40
1.0
 40
1.0
 40
1.0
 40
1.0
 10
257.8798510414292
 20
154.2033251763287
 30
0.0
 10
257.8808783814375
 20
154.2043407009546
 30
0.0
 10
257.9205779421183
 20
154.2435836791137
 30
0.0
 10
258.0150898455295
 20
154.3370222259068
 30
0.0
 10
258.1795476226963
 20
154.4996500353329
 30
0.0
 10
258.2994049337364
 20
154.6182146022859
 30
0.0
 10
258.3594434579512
 20
154.6776055694472
 30
0.0
  0
LINE
  5
B4
330
1F
100
AcDbEntity
  8
0
  6
Continuous
 62
     7
370
    15
100
AcDbLine
 10
216.3960468606
 20
82.1860078612
 30
0.0
 11
216.3960468606
 21
131.5962852618
 31
0.0
  0
SPLINE
  5
B5
330
1F
100
AcDbEntity
  8
0
  6
Continuous
 62
     7
370
    15
100
AcDbSpline
210
0.0
220
0.0
230
1.0
 70
     8
 71
     3
 72
    10
 73
     6
 74
     0
 42
0.00000001
 43
0.00000001
 40
0.0
 40
0.0
 40
0.0
 40
0.0
 40
0.5
 40
0.5
 40
1.0
 40
1.0
 40
1.0
 40
1.0
 10
216.3960468605987
 20
82.18600786120521
 30
0.0
 10
216.3960468605987
 20
82.02612059301156
 30
0.0
 10
216.3347372093629
 20
81.86499333749694
 30
0.0
 10
216.1156375718278
 20
81.6308943391421
 30
0.0
 10
215.9575893655143
 20
81.55936756555087
 30
0.0
 10
215.7960468605987
 20
81.55936756555087
 30
0.0
  0
SPLINE
  5
B6
330
1F
100
AcDbEntity
  8
0
  6
Continuous
 62
     7
370
    15
100
AcDbSpline
210
0.0
220
0.0
230
1.0
 70
    24
 71
     3
 72
    12
 73
     8
 74
     0
 42
0.00000001
 43
0.00000001
 40
0.0
 40
0.0
 40
0.0
 40
0.0
 40
0.2499999999999993
 40
0.2499999999999993
 40
0.4999999999999987
 40
0.4999999999999987
 40
1.0
 40
1.0
 40
1.0
 40
1.0
 10
215.7960468605987
 20
131.596285261798
 30
0.0
 10
215.8862859282857
 20
131.596285261798
 30
0.0
 10
215.9771840423923
 20
131.596285261798
 30
0.0
 10
216.1317810788808
 20
131.596285261798
 30
0.0
 10
216.1967594949889
 20
131.596285261798
 30
0.0
 10
216.3485945229251
 20
131.596285261798
 30
0.0
 10
216.3960468605987
 20
131.596285261798
 30
0.0
 10
216.3960468605987
 20
131.596285261798
 30
0.0
  0
LINE
  5
B7
330
1F
100
AcDbEntity
  8
0
  6
Continuous
 62
     7
370
    15
100
AcDbLine
 10
215.7960468606
 20
81.5593675656
 30
0.0
 11
211.8379796921
 21
81.5593675656
 31
0.0
  0
LINE
  5
B8
330
1F
100
AcDbEntity
  8
0
  6
Continuous
 62
     7
370
    15
100
AcDbLine
 10
211.8379796921
 20
81.5593675656
 30
0.0
 11
211.8379796921
 21
131.5962852618
 31
0.0
  0
LINE
  5
B9
330
1F
100
AcDbEntity
  8
0
  6
Continuous
 62
     7
370
    15
100
AcDbLine
 10
211.8379796921
 20
131.5962852618
 30
0.0
 11
215.7960468606
 21
131.5962852618
 31
0.0
  0
SPLINE
  5
BA
330
1F
100
AcDbEntity
  8
0
  6
Continuous
 62
     7
370
    15
100
AcDbSpline
210
0.0
220
0.0
230
1.0
 70
     8
 71
     3
 72
     8
 73
     4
 74
     0
 42
0.00000001
 43
0.00000001
 40
0.0
 40
0.0
 40
0.0
 40
0.0
 40
1.0
 40
1.0
 40
1.0
 40
1.0
 10
211.8379796920877
 20
81.55936756555087
 30
0.0
 10
211.342500031422
 20
82.45489365348423
 30
0.0
 10
210.8483859833799
 20
83.35117806853647
 30
0.0
 10
210.3560468605987
 20
84.24844810274317
 30
0.0
  0
LINE
  5
BB
330
1F
100
AcDbEntity
  8
0
  6
Continuous
 62
     7
370
    15
100
AcDbLine
 10
210.3560468606
 20
84.2484481027
 30
0.0
 11
210.3560468606
 21
131.5962852618
 31
0.0
  0
SPLINE
  5
BC
330
1F
100
AcDbEntity
  8
0
  6
Continuous
 62
     7
370
    15
100
AcDbSpline
210
0.0
220
0.0
230
1.0
 70
    24
 71
     3
 72
     8
 73
     4
 74
     0
 42
0.00000001
 43
0.00000001
 40
0.0
 40
0.0
 40
0.0
 40
0.0
 40
1.0
 40
1.0
 40
1.0
 40
1.0
 10
210.3560468605987
 20
131.596285261798
 30
0.0
 10
210.8359988549636
 20
131.596285261798
 30
0.0
 10
211.3312995839372
 20
131.596285261798
 30
0.0
 10
211.8379796920878
 20
131.596285261798
 30
0.0
  0
LINE
  5
BD
330
1F
100
AcDbEntity
  8
0
  6
Continuous
 62
     7
370
    15
100
AcDbLine
 10
206.5360468606
 20
84.2484481027
 30
0.0
 11
206.5360468606
 21
131.5962852618
 31
0.0
  0
SPLINE
  5
BE
330
1F
100
AcDbEntity
  8
0
  6
Continuous
 62
     7
370
    15
100
AcDbSpline
210
0.0
220
0.0
230
1.0
 70
     8
 71
     3
 72
     8
 73
     4
 74
     0
 42
0.00000001
 43
0.00000001
 40
0.0
 40
0.0
 40
0.0
 40
0.0
 40
1.0
 40
1.0
 40
1.0
 40
1.0
 10
206.5360468605987
 20
84.24844810274317
 30
0.0
 10
206.0437077378175
 20
83.35117806853648
 30
0.0
 10
205.5495936897754
 20
82.45489365348422
 30
0.0
 10
205.0541140291097
 20
81.55936756555087
 30
0.0
  0
LINE
  5
BF
330
1F
100
AcDbEntity
  8
0
  6
Continuous
 62
     7
370
    15
100
AcDbLine
 10
205.0541140291
 20
81.5593675656
 30
0.0
 11
205.0541140291
 21
131.5962852618
 31
0.0
  0
SPLINE
  5
C0
330
1F
100
AcDbEntity
  8
0
  6
Continuous
 62
     7
370
    15
100
AcDbSpline
210
0.0
220
0.0
230
1.0
 70
    24
 71
     3
 72
     8
 73
     4
 74
     0
 42
0.00000001
 43
0.00000001
 40
0.0
 40
0.0
 40
0.0
 40
0.0
 40
1.0
 40
1.0
 40
1.0
 40
1.0
 10
205.0541140291096
 20
131.596285261798
 30
0.0
 10
205.5607941372602
 20
131.596285261798
 30
0.0
 10
206.0560948662338
 20
131.596285261798
 30
0.0
 10
206.5360468605987
 20
131.596285261798
 30
0.0
  0
LINE
  5
C1
330
1F
100
AcDbEntity
  8
0
  6
Continuous
 62
     7
370
    15
100
AcDbLine
 10
195.3960468606
 20
131.5962852618
 30
0.0
 11
205.0541140291
 21
131.5962852618
 31
0.0
  0
LINE
  5
C2
330
1F
100
AcDbEntity
  8
0
  6
Continuous
 62
     7
370
    15
100
AcDbLine
 10
205.0541140291
 20
81.5593675656
 30
0.0
 11
203.3960468606
 21
81.5593675656
 31
0.0
  0
SPLINE
  5
C3
330
1F
100
AcDbEntity
  8
0
  6
Continuous
 62
     7
370
    15
100
AcDbSpline
210
0.0
220
0.0
230
1.0
 70
     8
 71
     3
 72
    28
 73
    24
 74
     0
 42
0.00000001
 43
0.00000001
 40
0.0
 40
0.0
 40
0.0
 40
0.0
 40
0.1250000000000007
 40
0.1250000000000007
 40
0.1875000000000008
 40
0.1875000000000008
 40
0.2500000000000009
 40
0.2500000000000009
 40
0.3750000000000013
 40
0.3750000000000013
 40
0.4375000000000013
 40
0.4375000000000013
 40
0.500000000000001
 40
0.500000000000001
 40
0.6250000000000007
 40
0.6250000000000007
 40
0.7500000000000002
 40
0.7500000000000002
 40
0.8125000000000002
 40
0.8125000000000002
 40
0.8750000000000001
 40
0.8750000000000001
 40
1.0
 40
1.0
 40
1.0
 40
1.0
 10
203.3960468605987
 20
81.55936756555089
 30
0.0
 10
202.8643391031058
 20
81.55936756555089
 30
0.0
 10
202.3421005377954
 20
81.54358285160066
 30
0.0
 10
201.5722300515204
 20
81.49858743752445
 30
0.0
 10
201.3178704793291
 20
81.48003244244873
 30
0.0
 10
200.8137488986306
 20
81.43617972000223
 30
0.0
 10
200.5640260812027
 20
81.41083511305004
 30
0.0
 10
199.8384361297563
 20
81.32743303529993
 30
0.0
 10
199.3800758681747
 20
81.26156747614884
 30
0.0
 10
198.7295779247808
 20
81.15259713565705
 30
0.0
 10
198.5178958739884
 20
81.1143574998904
 30
0.0
 10
198.1138243848504
 20
81.03659876247104
 30
0.0
 10
197.9213178710295
 20
80.9970978002957
 30
0.0
 10
197.3714829000083
 20
80.8781900579297
 30
0.0
 10
197.0415541216994
 20
80.79837237650509
 30
0.0
 10
196.4570828531307
 20
80.64502921470903
 30
0.0
 10
196.2108057151173
 20
80.57369546143977
 30
0.0
 10
195.9109629224193
 20
80.47975195436514
 30
0.0
 10
195.8225060653471
 20
80.45055816100522
 30
0.0
 10
195.6691447120419
 20
80.39709158674181
 30
0.0
 10
195.6040564978157
 20
80.37273225246663
 30
0.0
 10
195.4484624818749
 20
80.3091421070219
 30
0.0
 10
195.3960468605987
 20
80.27903917193264
 30
0.0
 10
195.3960468605987
 20
80.26216227893572
 30
0.0
  0
LINE
  5
C4
330
1F
100
AcDbEntity
  8
0
  6
Continuous
 62
     7
370
    15
100
AcDbLine
 10
195.3960468606
 20
80.2621622789
 30
0.0
 11
195.3960468606
 21
80.2462852618
 31
0.0
  0
SPLINE
  5
C5
330
1F
100
AcDbEntity
  8
0
  6
Continuous
 62
     7
370
    15
100
AcDbSpline
210
0.0
220
0.0
230
1.0
 70
     8
 71
     3
 72
    23
 73
    19
 74
     0
 42
0.00000001
 43
0.00000001
 40
0.0
 40
0.0
 40
0.0
 40
0.0
 40
0.0518255572658325
 40
0.156508197954251
 40
0.2099949790152871
 40
0.2618040556897119
 40
0.3663992823942658
 40
0.4197730562974081
 40
0.5256601391312723
 40
0.579382795382672
 40
0.6338670208270896
 40
0.6871878645844743
 40
0.7408884369109615
 40
0.7958045253849882
 40
0.8511490715430728
 40
0.9035396881600368
 40
0.9563116953005187
 40
1.0
 40
1.0
 40
1.0
 40
1.0
 10
203.3960468605987
 20
142.2134807349622
 30
0.0
 10
203.1781659448844
 20
142.2148906374485
 30
0.0
 10
202.5201865369226
 20
142.2191484073414
 30
0.0
 10
201.6451492743288
 20
142.2587249774652
 30
0.0
 10
200.8003753539362
 20
142.3216935507791
 30
0.0
 10
199.9807131776406
 20
142.3997401013251
 30
0.0
 10
199.2049488203075
 20
142.4966549432
 30
0.0
 10
198.307234890324
 20
142.6320948698197
 30
0.0
 10
197.6496678087763
 20
142.7482489600667
 30
0.0
 10
197.0719477025994
 20
142.8620216854676
 30
0.0
 10
196.6806195431796
 20
142.9441058957977
 30
0.0
 10
196.336814265611
 20
143.0200918834133
 30
0.0
 10
196.0417185453278
 20
143.0881606297629
 30
0.0
 10
195.7964394698488
 20
143.1467473144425
 30
0.0
 10
195.6084862563284
 20
143.192884775371
 30
0.0
 10
195.4800959550299
 20
143.2249942243637
 30
0.0
 10
195.4065470632013
 20
143.2436153189381
 30
0.0
 10
195.4022137016399
 20
143.2447187498062
 30
0.0
 10
195.4002510579718
 20
143.2452185099984
 30
0.0
  0
LINE
  5
C6
330
1F
100
AcDbEntity
  8
0
  6
Continuous
 62
     7
370
    15
100
AcDbLine
 10
205.0541140291
 20
142.213480735
 30
0.0
 11
203.3960468606
 21
142.213480735
 31
0.0
  0
LINE
  5
C7
330
1F
100
AcDbEntity
  8
0
  6
Continuous
 62
     7
370
    15
100
AcDbLine
 10
205.0541140291
 20
136.2049749242
 30
0.0
 11
205.0541140291
 21
142.213480735
 31
0.0
  0
LINE
  5
C8
330
1F
100
AcDbEntity
  8
0
  6
Continuous
 62
     7
370
    15
100
AcDbLine
 10
202.6416672063
 20
136.2049749242
 30
0.0
 11
205.0541140291
 21
136.2049749242
 31
0.0
  0
SPLINE
  5
C9
330
1F
100
AcDbEntity
  8
0
  6
Continuous
 62
     7
370
    15
100
AcDbSpline
210
0.0
220
0.0
230
1.0
 70
     8
 71
     3
 72
    20
 73
    16
 74
     0
 42
0.00000001
 43
0.00000001
 40
0.0
 40
0.0
 40
0.0
 40
0.0
 40
0.2500000000000006
 40
0.2500000000000006
 40
0.3750000000000004
 40
0.3750000000000004
 40
0.5000000000000003
 40
0.5000000000000003
 40
0.6250000000000002
 40
0.6250000000000002
 40
0.7500000000000002
 40
0.7500000000000002
 40
0.8750000000000001
 40
0.8750000000000001
 40
1.0
 40
1.0
 40
1.0
 40
1.0
 10
195.3960468605987
 20
131.596285261798
 30
0.0
 10
195.6444205948868
 20
132.2501476900954
 30
0.0
 10
195.963990687232
 20
132.8539334720926
 30
0.0
 10
196.5862969204367
 20
133.6807722082612
 30
0.0
 10
196.8177211808675
 20
133.9432008462141
 30
0.0
 10
197.3389355205172
 20
134.4398635003191
 30
0.0
 10
197.6255560031523
 20
134.6704503793406
 30
0.0
 10
198.2450407444599
 20
135.0870046039232
 30
0.0
 10
198.5793411239468
 20
135.2745024058907
 30
0.0
 10
199.3046015965716
 20
135.6058993835271
 30
0.0
 10
199.6865166539621
 20
135.7454033710224
 30
0.0
 10
200.4813048301338
 20
135.9708568784934
 30
0.0
 10
200.8954630243402
 20
136.057482990037
 30
0.0
 10
201.7610093649216
 20
136.1754637788911
 30
0.0
 10
202.1988969799334
 20
136.2049749241654
 30
0.0
 10
202.641667206288
 20
136.2049749241654
 30
0.0
  0
LINE
  5
CA
330
1F
100
AcDbEntity
  8
0
  6
Continuous
 62
     7
370
    15
100
AcDbLine
 10
190.4460468606
 20
80.5462852618
 30
0.0
 11
190.4460468606
 21
142.9462852557
 31
0.0
  0
SPLINE
  5
CB
330
1F
100
AcDbEntity
  8
0
  6
Continuous
 62
     7
370
    15
100
AcDbSpline
210
0.0
220
0.0
230
1.0
 70
     8
 71
     3
 72
    10
 73
     6
 74
     0
 42
0.00000001
 43
0.00000001
 40
0.0
 40
0.0
 40
0.0
 40
0.0
 40
0.5
 40
0.5
 40
1.0
 40
1.0
 40
1.0
 40
1.0
 10
206.9303443922897
 20
138.146285261798
 30
0.0
 10
206.8088041286211
 20
138.2210114290098
 30
0.0
 10
206.7074697682722
 20
138.3299564449266
 30
0.0
 10
206.5718308253838
 20
138.5803869256882
 30
0.0
 10
206.5360468605987
 20
138.7228062877871
 30
0.0
 10
206.5360468605987
 20
138.8659391128338
 30
0.0
  0
SPLINE
  5
CC
330
1F
100
AcDbEntity
  8
0
  6
Continuous
 62
     7
370
    15
100
AcDbSpline
210
0.0
220
0.0
230
1.0
 70
    24
 71
     3
 72
    12
 73
     8
 74
     0
 42
0.00000001
 43
0.00000001
 40
0.0
 40
0.0
 40
0.0
 40
0.0
 40
0.2500000000000029
 40
0.2500000000000029
 40
0.5000000000000059
 40
0.5000000000000059
 40
1.0
 40
1.0
 40
1.0
 40
1.0
 10
207.3360468605987
 20
138.146285261798
 30
0.0
 10
207.2867034987891
 20
138.146285261798
 30
0.0
 10
207.2380128004875
 20
138.146285261798
 30
0.0
 10
207.1551617029171
 20
138.146285261798
 30
0.0
 10
207.1189617352965
 20
138.146285261798
 30
0.0
 10
207.0232118187471
 20
138.146285261798
 30
0.0
 10
206.973329848935
 20
138.146285261798
 30
0.0
 10
206.9303443922897
 20
138.146285261798
 30
0.0
  0
SPLINE
  5
CD
330
1F
100
AcDbEntity
  8
0
  6
Continuous
 62
     7
370
    15
100
AcDbSpline
210
0.0
220
0.0
230
1.0
 70
    24
 71
     3
 72
    14
 73
    10
 74
     0
 42
0.00000001
 43
0.00000001
 40
0.0
 40
0.0
 40
0.0
 40
0.0
 40
0.1249999999999996
 40
0.1249999999999996
 40
0.2499999999999992
 40
0.2499999999999992
 40
0.4999999999999984
 40
0.4999999999999984
 40
1.0
 40
1.0
 40
1.0
 40
1.0
 10
207.3360468605987
 20
85.34628526179802
 30
0.0
 10
207.2667001388675
 20
85.34628526179802
 30
0.0
 10
207.2015020854836
 20
85.34628526179802
 30
0.0
 10
207.0971228928566
 20
85.34628526179802
 30
0.0
 10
207.0542205218476
 20
85.34628526179802
 30
0.0
 10
206.9418948642429
 20
85.34628526179803
 30
0.0
 10
206.8866711698891
 20
85.34628526179802
 30
0.0
 10
206.7426137911216
 20
85.34628526179802
 30
0.0
 10
206.6805330942901
 20
85.34628526179802
 30
0.0
 10
206.633721662931
 20
85.34628526179802
 30
0.0
  0
SPLINE
  5
CE
330
1F
100
AcDbEntity
  8
0
  6
Continuous
 62
     7
370
    15
100
AcDbSpline
210
0.0
220
0.0
230
1.0
 70
     8
 71
     3
 72
     9
 73
     5
 74
     0
 42
0.00000001
 43
0.00000001
 40
0.0
 40
0.0
 40
0.0
 40
0.0
 40
0.5
 40
1.0
 40
1.0
 40
1.0
 40
1.0
 10
206.5360468605987
 20
131.8821518932594
 30
0.0
 10
206.5360468605987
 20
131.8339198411367
 30
0.0
 10
206.5404528353039
 20
131.7380498276971
 30
0.0
 10
206.5534720153977
 20
131.6433411977138
 30
0.0
 10
206.5621944837588
 20
131.596285261798
 30
0.0
  0
SPLINE
  5
CF
330
1F
100
AcDbEntity
  8
0
  6
Continuous
 62
     7
370
    15
100
AcDbSpline
210
0.0
220
0.0
230
1.0
 70
    24
 71
     3
 72
    14
 73
    10
 74
     0
 42
0.00000001
 43
0.00000001
 40
0.0
 40
0.0
 40
0.0
 40
0.0
 40
0.5
 40
0.5
 40
0.75
 40
0.75
 40
0.875
 40
0.875
 40
1.0
 40
1.0
 40
1.0
 40
1.0
 10
210.2583720582664
 20
85.34628526179802
 30
0.0
 10
210.2115873532182
 20
85.34628526179802
 30
0.0
 10
210.1495361564386
 20
85.34628526179802
 30
0.0
 10
210.006144517888
 20
85.34628526179802
 30
0.0
 10
209.9500008643369
 20
85.34628526179802
 30
0.0
 10
209.8370498422007
 20
85.34628526179802
 30
0.0
 10
209.7940490801625
 20
85.34628526179802
 30
0.0
 10
209.689986369856
 20
85.34628526179802
 30
0.0
 10
209.6246541314991
 20
85.34628526179802
 30
0.0
 10
209.5560468605987
 20
85.34628526179802
 30
0.0
  0
SPLINE
  5
D0
330
1F
100
AcDbEntity
  8
0
  6
Continuous
 62
     7
370
    15
100
AcDbSpline
210
0.0
220
0.0
230
1.0
 70
    24
 71
     3
 72
    12
 73
     8
 74
     0
 42
0.00000001
 43
0.00000001
 40
0.0
 40
0.0
 40
0.0
 40
0.0
 40
0.5000000000000058
 40
0.5000000000000058
 40
0.7500000000000029
 40
0.7500000000000029
 40
1.0
 40
1.0
 40
1.0
 40
1.0
 10
209.9617493289077
 20
138.146285261798
 30
0.0
 10
209.918663779297
 20
138.146285261798
 30
0.0
 10
209.8695115775499
 20
138.146285261798
 30
0.0
 10
209.7730389832603
 20
138.146285261798
 30
0.0
 10
209.7369373981261
 20
138.146285261798
 30
0.0
 10
209.6538316402635
 20
138.146285261798
 30
0.0
 10
209.6058350432995
 20
138.146285261798
 30
0.0
 10
209.5560468605987
 20
138.146285261798
 30
0.0
  0
SPLINE
  5
D1
330
1F
100
AcDbEntity
  8
0
  6
Continuous
 62
     7
370
    15
100
AcDbSpline
210
0.0
220
0.0
230
1.0
 70
     8
 71
     3
 72
    10
 73
     6
 74
     0
 42
0.00000001
 43
0.00000001
 40
0.0
 40
0.0
 40
0.0
 40
0.0
 40
0.5
 40
0.5
 40
1.0
 40
1.0
 40
1.0
 40
1.0
 10
210.3560468605987
 20
138.8659391128338
 30
0.0
 10
210.3560468605987
 20
138.7221690550158
 30
0.0
 10
210.3199978018798
 20
138.5797496925206
 30
0.0
 10
210.1844889411058
 20
138.3298553991634
 30
0.0
 10
210.0846129480096
 20
138.2218250629152
 30
0.0
 10
209.9617493289077
 20
138.146285261798
 30
0.0
  0
SPLINE
  5
D2
330
1F
100
AcDbEntity
  8
0
  6
Continuous
 62
     7
370
    15
100
AcDbSpline
210
0.0
220
0.0
230
1.0
 70
     8
 71
     3
 72
    10
 73
     6
 74
     0
 42
0.00000001
 43
0.00000001
 40
0.0
 40
0.0
 40
0.0
 40
0.0
 40
0.5
 40
0.5
 40
1.0
 40
1.0
 40
1.0
 40
1.0
 10
210.3298992374386
 20
131.596285261798
 30
0.0
 10
210.3385888803502
 20
131.6431641111162
 30
0.0
 10
210.3451279451007
 20
131.6905865765174
 30
0.0
 10
210.3538865794938
 20
131.7865233751042
 30
0.0
 10
210.3560468605987
 20
131.8344386631147
 30
0.0
 10
210.3560468605987
 20
131.8821518932592
 30
0.0
  0
LINE
  5
D3
330
1F
100
AcDbEntity
  8
0
  6
Continuous
 62
     7
370
    15
100
AcDbLine
 10
209.5560468606
 20
138.1462852618
 30
0.0
 11
207.3360468606
 21
138.1462852618
 31
0.0
  0
LINE
  5
D4
330
1F
100
AcDbEntity
  8
0
  6
Continuous
 62
     7
370
    15
100
AcDbLine
 10
209.5560468606
 20
85.3462852618
 30
0.0
 11
207.3360468606
 21
85.3462852618
 31
0.0
  0
LINE
  5
D5
330
1F
100
AcDbEntity
  8
0
  6
Continuous
 62
     7
370
    15
100
AcDbLine
 10
216.5960458244
 20
138.1462852618
 30
0.0
 11
216.5485860811
 21
138.1462852618
 31
0.0
  0
LINE
  5
D6
330
1F
100
AcDbEntity
  8
0
  6
Continuous
 62
     7
370
    15
100
AcDbLine
 10
216.5960457956
 20
85.3462852618
 30
0.0
 11
216.5447253517
 21
85.3462852618
 31
0.0
  0
ELLIPSE
  5
D7
330
1F
100
AcDbEntity
  8
0
  6
Continuous
 62
     7
370
    15
100
AcDbEllipse
 10
300.4161460354
 20
111.7462852618
 30
0.0
 11
247.3733091093125
 21
-2.747757092742959
 31
0.0
210
0.0
220
0.0
230
1.0
 40
0.1045157088
 41
1.85353231734905
 42
1.854086064233549
  0
SPLINE
  5
D8
330
1F
100
AcDbEntity
  8
0
  6
Continuous
 62
     7
370
    15
100
AcDbSpline
210
0.0
220
0.0
230
1.0
 70
     8
 71
     3
 72
    20
 73
    16
 74
     0
 42
0.00000001
 43
0.00000001
 40
0.0
 40
0.0
 40
0.0
 40
0.0
 40
0.2500000000000021
 40
0.2500000000000021
 40
0.3750000000000017
 40
0.3750000000000017
 40
0.5000000000000013
 40
0.5000000000000013
 40
0.6250000000000009
 40
0.6250000000000009
 40
0.7500000000000006
 40
0.7500000000000006
 40
0.8750000000000003
 40
0.8750000000000003
 40
1.0
 40
1.0
 40
1.0
 40
1.0
 10
231.5471426301928
 20
137.3381956746753
 30
0.0
 10
230.9214563946804
 20
137.3261122369354
 30
0.0
 10
230.3237844245819
 20
137.2969983169245
 30
0.0
 10
229.4687406553708
 20
137.2198985400167
 30
0.0
 10
229.1960141478037
 20
137.1888372191724
 30
0.0
 10
228.6813838341527
 20
137.1150563352847
 30
0.0
 10
228.4382305309993
 20
137.072230230519
 30
0.0
 10
227.980491914506
 20
136.9719915615373
 30
0.0
 10
227.7683884010617
 20
136.9149384951579
 30
0.0
 10
227.385511109457
 20
136.787665778142
 30
0.0
 10
227.2131153811443
 20
136.717106900478
 30
0.0
 10
226.9054949595655
 20
136.5599632914772
 30
0.0
 10
226.7708995134762
 20
136.4733882852305
 30
0.0
 10
226.5447064291158
 20
136.2872786460628
 30
0.0
 10
226.4519748444689
 20
136.1872189274778
 30
0.0
 10
226.3787584520643
 20
136.0795390862781
 30
0.0
  0
ELLIPSE
  5
D9
330
1F
100
AcDbEntity
  8
0
  6
Continuous
 62
     7
370
    15
100
AcDbEllipse
 10
229.5010742079
 20
111.7462852618
 30
0.0
 11
-0.7838056803151972
 21
25.99916243029384
 31
0.0
210
0.0
220
0.0
230
0.9999999999999998
 40
0.266256518
 41
0.3519801885436904
 42
2.564119446173719
  0
SPLINE
  5
DA
330
1F
100
AcDbEntity
  8
0
  6
Continuous
 62
     7
370
    15
100
AcDbSpline
210
0.0
220
0.0
230
1.0
 70
     8
 71
     3
 72
    20
 73
    16
 74
     0
 42
0.00000001
 43
0.00000001
 40
0.0
 40
0.0
 40
0.0
 40
0.0
 40
0.2499999999999996
 40
0.2499999999999996
 40
0.3749999999999997
 40
0.3749999999999997
 40
0.4999999999999998
 40
0.4999999999999998
 40
0.6249999999999999
 40
0.6249999999999999
 40
0.7499999999999999
 40
0.7499999999999999
 40
0.875
 40
0.875
 40
1.0
 40
1.0
 40
1.0
 40
1.0
 10
226.3787584520643
 20
89.84909675874356
 30
0.0
 10
226.5252425345122
 20
89.5193731296366
 30
0.0
 10
226.7479303158657
 20
89.22531470784624
 30
0.0
 10
227.2083333111791
 20
88.83163470986058
 30
0.0
 10
227.3833536623198
 20
88.70876478038727
 30
0.0
 10
227.7658013515397
 20
88.4859559336606
 30
0.0
 10
227.9744829307994
 20
88.3848158876446
 30
0.0
 10
228.4279166543769
 20
88.20125612006089
 30
0.0
 10
228.6752557159796
 20
88.11822556983985
 30
0.0
 10
229.1924921598992
 20
87.97448000617672
 30
0.0
 10
229.4626733453176
 20
87.91328958925746
 30
0.0
 10
230.0260360500909
 20
87.81004165831092
 30
0.0
 10
230.3212159990018
 20
87.76778746266878
 30
0.0
 10
230.926253504725
 20
87.7030113073354
 30
0.0
 10
231.2340382752445
 20
87.68054404346059
 30
0.0
 10
231.5471426301928
 20
87.66761751002734
 30
0.0
  0
ELLIPSE
  5
DB
330
1F
100
AcDbEntity
  8
0
  6
Continuous
 62
     7
370
    15
100
AcDbEllipse
 10
300.4161460354
 20
111.7462852618
 30
0.0
 11
247.3733091093125
 21
-2.747757092742959
 31
0.0
210
0.0
220
0.0
230
1.0
 40
0.1045157088
 41
4.431421107436708
 42
4.431974854321206
  0
ELLIPSE
  5
DC
330
1F
100
AcDbEntity
  8
0
  6
Continuous
 62
     7
370
    15
100
AcDbEllipse
 10
224.9915029553
 20
124.8799522854
 30
0.0
 11
0.2723047514036522
 21
3.529709525503946
 31
0.0
210
0.0
220
0.0
230
1.0
 40
0.2068953477
 41
0.0
 42
6.283185307179586
  0
LINE
  5
DD
330
1F
100
AcDbEntity
  8
0
  6
Continuous
 62
     7
370
    15
100
AcDbLine
 10
188.4460468606
 20
87.5258544001
 30
0.0
 11
188.4460468606
 21
135.9667161235
 31
0.0
  0
LINE
  5
DE
330
1F
100
AcDbEntity
  8
0
  6
Continuous
 62
     7
370
    15
100
AcDbLine
 10
168.6460468606
 20
88.517838368
 30
0.0
 11
168.6460468606
 21
89.8011370025
 31
0.0
  0
SPLINE
  5
DF
330
1F
100
AcDbEntity
  8
0
  6
Continuous
 62
     7
370
    15
100
AcDbSpline
210
0.0
220
0.0
230
1.0
 70
     8
 71
     3
 72
    14
 73
    10
 74
     0
 42
0.00000001
 43
0.00000001
 40
0.0
 40
0.0
 40
0.0
 40
0.0
 40
0.25
 40
0.25
 40
0.5
 40
0.5
 40
0.75
 40
0.75
 40
1.0
 40
1.0
 40
1.0
 40
1.0
 10
168.024442623859
 20
90.8819140445148
 30
0.0
 10
168.0628790086799
 20
90.77928964680329
 30
0.0
 10
168.1316804020718
 20
90.68009322336371
 30
0.0
 10
168.2749664142307
 20
90.4892011940372
 30
0.0
 10
168.3501484693377
 20
90.39694392800429
 30
0.0
 10
168.4823357579878
 20
90.21733660618929
 30
0.0
 10
168.5398529534576
 20
90.13002705174493
 30
0.0
 10
168.6218977517499
 20
89.9600932182292
 30
0.0
 10
168.6460468605987
 20
89.87819087635802
 30
0.0
 10
168.6460468605987
 20
89.80113700252213
 30
0.0
  0
SPLINE
  5
E0
330
1F
100
AcDbEntity
  8
0
  6
Continuous
 62
     7
370
    15
100
AcDbSpline
210
0.0
220
0.0
230
1.0
 70
     8
 71
     3
 72
    18
 73
    14
 74
     0
 42
0.00000001
 43
0.00000001
 40
0.0
 40
0.0
 40
0.0
 40
0.0
 40
0.0625000000000021
 40
0.0625000000000021
 40
0.1250000000000042
 40
0.1250000000000042
 40
0.2500000000000031
 40
0.2500000000000031
 40
0.500000000000002
 40
0.500000000000002
 40
0.750000000000001
 40
0.750000000000001
 40
1.0
 40
1.0
 40
1.0
 40
1.0
 10
167.2460468605987
 20
91.60019649600144
 30
0.0
 10
167.2826190709491
 20
91.60397389952888
 30
0.0
 10
167.3212695443846
 20
91.60341687164576
 30
0.0
 10
167.3953610380984
 20
91.59335766648388
 30
0.0
 10
167.4307113318526
 20
91.58400378505931
 30
0.0
 10
167.525305629242
 20
91.54961935862549
 30
0.0
 10
167.5754438023809
 20
91.51890762396266
 30
0.0
 10
167.7046370739621
 20
91.42297831392463
 30
0.0
 10
167.7629172187032
 20
91.35446281980735
 30
0.0
 10
167.8631123151267
 20
91.21789086987475
 30
0.0
 10
167.9031275665733
 20
91.14912596737183
 30
0.0
 10
167.9715269873911
 20
91.01409053826417
 30
0.0
 10
167.999888711253
 20
90.94747251221102
 30
0.0
 10
168.024442623859
 20
90.8819140445148
 30
0.0
  0
SPLINE
  5
E1
330
1F
100
AcDbEntity
  8
0
  6
Continuous
 62
     7
370
    15
100
AcDbSpline
210
0.0
220
0.0
230
1.0
 70
     8
 71
     3
 72
    10
 73
     6
 74
     0
 42
0.00000001
 43
0.00000001
 40
0.0
 40
0.0
 40
0.0
 40
0.0
 40
0.5
 40
0.5
 40
1.0
 40
1.0
 40
1.0
 40
1.0
 10
163.3324449994767
 20
91.1040028396298
 30
0.0
 10
163.9600726551841
 20
91.2072763983654
 30
0.0
 10
164.6112734002155
 20
91.29610151011694
 30
0.0
 10
165.9199781042278
 20
91.45820921698727
 30
0.0
 10
166.581022541519
 20
91.53150868127385
 30
0.0
 10
167.2460468605986
 20
91.60019649600154
 30
0.0
  0
SPLINE
  5
E2
330
1F
100
AcDbEntity
  8
0
  6
Continuous
 62
     7
370
    15
100
AcDbSpline
210
0.0
220
0.0
230
1.0
 70
     8
 71
     3
 72
    14
 73
    10
 74
     0
 42
0.00000001
 43
0.00000001
 40
0.0
 40
0.0
 40
0.0
 40
0.0
 40
0.4999999999999988
 40
0.4999999999999988
 40
0.7499999999999993
 40
0.7499999999999993
 40
0.8749999999999997
 40
0.8749999999999997
 40
1.0
 40
1.0
 40
1.0
 40
1.0
 10
159.6960468605987
 20
90.93965370327047
 30
0.0
 10
160.312123764354
 20
90.94537982349962
 30
0.0
 10
160.9262557604699
 20
90.95527018890164
 30
0.0
 10
161.8401523909835
 20
90.98590515657142
 30
0.0
 10
162.1435913185311
 20
90.99869861420939
 30
0.0
 10
162.5947279341685
 20
91.02662444216878
 30
0.0
 10
162.7444341837111
 20
91.03739406232856
 30
0.0
 10
163.0412753199592
 20
91.0645267779281
 30
0.0
 10
163.1886608724624
 20
91.08034375075532
 30
0.0
 10
163.3324449994767
 20
91.10400283962979
 30
0.0
  0
SPLINE
  5
E3
330
1F
100
AcDbEntity
  8
0
  6
Continuous
 62
     7
370
    15
100
AcDbSpline
210
0.0
220
0.0
230
1.0
 70
     8
 71
     3
 72
     8
 73
     4
 74
     0
 42
0.00000001
 43
0.00000001
 40
0.0000005954826279
 40
0.0000005954826279
 40
0.0000005954826279
 40
0.0000005954826279
 40
0.0000302093805348
 40
0.0000302093805348
 40
0.0000302093805348
 40
0.0000302093805348
 10
159.6860019301891
 20
90.95146883292234
 30
0.0
 10
159.6893179575093
 20
90.94752205332655
 30
0.0
 10
159.6926665089016
 20
90.94358366219663
 30
0.0
 10
159.6960468605986
 20
90.93965370327047
 30
0.0
  0
SPLINE
  5
E4
330
1F
100
AcDbEntity
  8
0
  6
Continuous
 62
     7
370
    15
100
AcDbSpline
210
0.0
220
0.0
230
1.0
 70
     8
 71
     3
 72
     8
 73
     4
 74
     0
 42
0.00000001
 43
0.00000001
 40
0.0000005099763572
 40
0.0000005099763572
 40
0.0000005099763572
 40
0.0000005099763572
 40
0.0000262827998699
 40
0.0000262827998699
 40
0.0000262827998699
 40
0.0000262827998699
 10
159.6960468605987
 20
132.6162230271931
 30
0.0
 10
159.692678121371
 20
132.6129013582372
 30
0.0
 10
159.6893296683918
 20
132.6095734009583
 30
0.0
 10
159.6860019301805
 20
132.6062391540857
 30
0.0
  0
SPLINE
  5
E5
330
1F
100
AcDbEntity
  8
0
  6
Continuous
 62
     7
370
    15
100
AcDbSpline
210
0.0
220
0.0
230
1.0
 70
     8
 71
     3
 72
    10
 73
     6
 74
     0
 42
0.00000001
 43
0.00000001
 40
0.0
 40
0.0
 40
0.0
 40
0.0
 40
0.5
 40
0.5
 40
1.0
 40
1.0
 40
1.0
 40
1.0
 10
163.2460468605987
 20
132.5693726536257
 30
0.0
 10
162.6584613135081
 20
132.5904381738621
 30
0.0
 10
162.0677149200477
 20
132.6011966597344
 30
0.0
 10
160.8836957547489
 20
132.61456144027
 30
0.0
 10
160.2902817665434
 20
132.6167040829346
 30
0.0
 10
159.6960468605987
 20
132.6162230271931
 30
0.0
  0
SPLINE
  5
E6
330
1F
100
AcDbEntity
  8
0
  6
Continuous
 62
     7
370
    15
100
AcDbSpline
210
0.0
220
0.0
230
1.0
 70
     8
 71
     3
 72
    18
 73
    14
 74
     0
 42
0.00000001
 43
0.00000001
 40
0.0
 40
0.0
 40
0.0
 40
0.0
 40
0.2500000000000003
 40
0.2500000000000003
 40
0.4999999999999998
 40
0.4999999999999998
 40
0.7499999999999992
 40
0.7499999999999992
 40
0.8749999999999997
 40
0.8749999999999997
 40
0.9374999999999998
 40
0.9374999999999998
 40
1.0
 40
1.0
 40
1.0
 40
1.0
 10
164.6460468605987
 20
133.590392934161
 30
0.0
 10
164.6460468605987
 20
133.5071860253038
 30
0.0
 10
164.6101977606604
 20
133.4184493699902
 30
0.0
 10
164.4853260246265
 20
133.23632417943
 30
0.0
 10
164.3949256069787
 20
133.1411941308034
 30
0.0
 10
164.1726829522365
 20
132.952012621679
 30
0.0
 10
164.0429181657907
 20
132.8570674535844
 30
0.0
 10
163.8022807084792
 20
132.7187887460044
 30
0.0
 10
163.7145134103418
 20
132.673078312702
 30
0.0
 10
163.5599893231349
 20
132.6152550074806
 30
0.0
 10
163.5033784370802
 20
132.5975402434427
 30
0.0
 10
163.3793344061736
 20
132.5730009402098
 30
0.0
 10
163.3116197311553
 20
132.5670218016715
 30
0.0
 10
163.2460468605987
 20
132.5693726536257
 30
0.0
  0
LINE
  5
E7
330
1F
100
AcDbEntity
  8
0
  6
Continuous
 62
     7
370
    15
100
AcDbLine
 10
164.6460468606
 20
133.5903929342
 30
0.0
 11
164.6460468606
 21
134.774331354
 31
0.0
  0
SPLINE
  5
E8
330
1F
100
AcDbEntity
  8
0
  6
Continuous
 62
     7
370
    15
100
AcDbSpline
210
0.0
220
0.0
230
1.0
 70
     8
 71
     3
 72
    24
 73
    20
 74
     0
 42
0.00000001
 43
0.00000001
 40
0.0
 40
0.0
 40
0.0
 40
0.0
 40
0.0010489762969677
 40
0.0637843125636786
 40
0.1272220590447882
 40
0.190378892448397
 40
0.2526748653693582
 40
0.3146354154422257
 40
0.3770891997149645
 40
0.4393540298503555
 40
0.5008133242537846
 40
0.5621845104596217
 40
0.6248438451115925
 40
0.6874304766625544
 40
0.7496743174679396
 40
0.8119848426976355
 40
0.8750960525413141
 40
0.9384412526964339
 40
1.0
 40
1.0
 40
1.0
 40
1.0
 10
177.2149526925744
 20
88.08877683321788
 30
0.0
 10
177.2145062324702
 20
88.08871854739898
 30
0.0
 10
177.1873586687761
 20
88.08517440545651
 30
0.0
 10
177.2829704463901
 20
88.09800815013915
 30
0.0
 10
177.5165307042833
 20
88.12725483533927
 30
0.0
 10
177.9120850116012
 20
88.17386915840211
 30
0.0
 10
178.4391253154374
 20
88.2240523000614
 30
0.0
 10
179.0826557274277
 20
88.26842876251128
 30
0.0
 10
179.8213295826669
 20
88.29537354344933
 30
0.0
 10
180.6188440881012
 20
88.2988453941563
 30
0.0
 10
181.4454229705479
 20
88.27121815012563
 30
0.0
 10
182.2709459881598
 20
88.21273926115293
 30
0.0
 10
183.0630725361636
 20
88.12729423179161
 30
0.0
 10
183.7956448101629
 20
88.02555999195532
 30
0.0
 10
184.4312850468929
 20
87.91771686998293
 30
0.0
 10
184.953196153899
 20
87.8160867132442
 30
0.0
 10
185.3348249310148
 20
87.73360155656601
 30
0.0
 10
185.5856394012491
 20
87.67745235021631
 30
0.0
 10
185.6147609572333
 20
87.67060289160258
 30
0.0
 10
185.6291134780494
 20
87.6672271448744
 30
0.0
  0
SPLINE
  5
E9
330
1F
100
AcDbEntity
  8
0
  6
Continuous
 62
     7
370
    15
100
AcDbSpline
210
0.0
220
0.0
230
1.0
 70
     8
 71
     3
 72
    24
 73
    20
 74
     0
 42
0.00000001
 43
0.00000001
 40
0.0
 40
0.0
 40
0.0
 40
0.0
 40
0.0614384276250091
 40
0.1250736755369637
 40
0.1884253490728546
 40
0.250862390403747
 40
0.3129665632511464
 40
0.3753451453465217
 40
0.4377328972327367
 40
0.4990927322917388
 40
0.5605807588449763
 40
0.6229469893028907
 40
0.6854686282028754
 40
0.7475477813740351
 40
0.8098225060807763
 40
0.8730684085990467
 40
0.9364041844530124
 40
0.9991757196257864
 40
1.0
 40
1.0
 40
1.0
 40
1.0
 10
185.6290587072464
 20
135.8253142362554
 30
0.0
 10
185.6144579829428
 20
135.8219461794028
 30
0.0
 10
185.5847344642144
 20
135.815089635929
 30
0.0
 10
185.3319966485666
 20
135.7587510154031
 30
0.0
 10
184.9490007321173
 20
135.6758939332731
 30
0.0
 10
184.4266451476797
 20
135.5739869033219
 30
0.0
 10
183.7918606696797
 20
135.466147764278
 30
0.0
 10
183.061637065506
 20
135.3646808123028
 30
0.0
 10
182.2711684802723
 20
135.279621098612
 30
0.0
 10
181.4466849654429
 20
135.2214168047257
 30
0.0
 10
180.6196485065607
 20
135.1938333658993
 30
0.0
 10
179.8213242389078
 20
135.197326343392
 30
0.0
 10
179.0815002746189
 20
135.224282263245
 30
0.0
 10
178.4372460416437
 20
135.2686362052445
 30
0.0
 10
177.90983878643
 20
135.3188416550024
 30
0.0
 10
177.5151741842792
 20
135.3654515102005
 30
0.0
 10
177.2826449050945
 20
135.3946471027479
 30
0.0
 10
177.1872648725416
 20
135.4074251716896
 30
0.0
 10
177.2141985094433
 20
135.4038709131814
 30
0.0
 10
177.2145476026676
 20
135.4038248455981
 30
0.0
  0
SPLINE
  5
EA
330
1F
100
AcDbEntity
  8
0
  6
Continuous
 62
     7
370
    15
100
AcDbSpline
210
0.0
220
0.0
230
1.0
 70
     8
 71
     3
 72
     9
 73
     5
 74
     0
 42
0.00000001
 43
0.00000001
 40
0.0
 40
0.0
 40
0.0
 40
0.0
 40
0.5865083119587461
 40
1.0
 40
1.0
 40
1.0
 40
1.0
 10
158.5525666585497
 20
92.09546681921913
 30
0.0
 10
158.5565672875279
 20
92.08966673819013
 30
0.0
 10
158.563388382637
 20
92.07977756712346
 30
0.0
 10
158.5725402536241
 20
92.13384235936404
 30
0.0
 10
158.5763244762073
 20
92.1561977015712
 30
0.0
  0
LINE
  5
EB
330
1F
100
AcDbEntity
  8
0
  6
Continuous
 62
     7
370
    15
100
AcDbLine
 10
158.5460468606
 20
92.0931247368
 30
0.0
 11
158.5460468606
 21
131.4369630083
 31
0.0
  0
SPLINE
  5
EC
330
1F
100
AcDbEntity
  8
0
  6
Continuous
 62
     7
370
    15
100
AcDbSpline
210
0.0
220
0.0
230
1.0
 70
     8
 71
     3
 72
    10
 73
     6
 74
     0
 42
0.00000001
 43
0.00000001
 40
0.0
 40
0.0
 40
0.0
 40
0.0
 40
0.5
 40
0.5
 40
1.0
 40
1.0
 40
1.0
 40
1.0
 10
158.6087102353221
 20
131.4208378065787
 30
0.0
 10
158.5998059462134
 20
131.4665793257919
 30
0.0
 10
158.5832905660204
 20
131.4837701652609
 30
0.0
 10
158.5561826199588
 20
131.4834468883252
 30
0.0
 10
158.5460468605987
 20
131.4655693460287
 30
0.0
 10
158.5460468605987
 20
131.4369630082761
 30
0.0
  0
SPLINE
  5
ED
330
1F
100
AcDbEntity
  8
0
  6
Continuous
 62
     7
370
    15
100
AcDbSpline
210
0.0
220
0.0
230
1.0
 70
     8
 71
     3
 72
    26
 73
    22
 74
     0
 42
0.00000001
 43
0.00000001
 40
0.0
 40
0.0
 40
0.0
 40
0.0
 40
0.250000000000012
 40
0.250000000000012
 40
0.3750000000000176
 40
0.3750000000000176
 40
0.4375000000000206
 40
0.4375000000000206
 40
0.4687500000000208
 40
0.4687500000000208
 40
0.500000000000021
 40
0.500000000000021
 40
0.5312500000000213
 40
0.5312500000000213
 40
0.5625000000000215
 40
0.5625000000000215
 40
0.6250000000000193
 40
0.6250000000000193
 40
0.7500000000000131
 40
0.7500000000000131
 40
1.0
 40
1.0
 40
1.0
 40
1.0
 10
159.3702005067032
 20
132.1364045953958
 30
0.0
 10
159.3315999838348
 20
132.0186298990404
 30
0.0
 10
159.2853029812805
 20
131.8942402128785
 30
0.0
 10
159.1913636328466
 20
131.689020880525
 30
0.0
 10
159.1560521659331
 20
131.6174480140786
 30
0.0
 10
159.0898721901875
 20
131.5014947814782
 30
0.0
 10
159.0653338235193
 20
131.4609102466679
 30
0.0
 10
159.0219610779654
 20
131.3967685647962
 30
0.0
 10
159.0064526765403
 20
131.3749021395111
 30
0.0
 10
158.9714100319532
 20
131.3293078711679
 30
0.0
 10
158.9518597412335
 20
131.3056375802005
 30
0.0
 10
158.9099324608628
 20
131.2610210208605
 30
0.0
 10
158.8872803506312
 20
131.2401410083426
 30
0.0
 10
158.8463066365446
 20
131.2092675945918
 30
0.0
 10
158.8287073366491
 20
131.1994287247593
 30
0.0
 10
158.784080350793
 20
131.1804391090632
 30
0.0
 10
158.7635211281396
 20
131.1801147844097
 30
0.0
 10
158.712395688643
 20
131.189338225286
 30
0.0
 10
158.6914842756544
 20
131.2105851215029
 30
0.0
 10
158.6400343680935
 20
131.2845540003337
 30
0.0
 10
158.6223690687889
 20
131.3506720936485
 30
0.0
 10
158.6087102353221
 20
131.4208378065787
 30
0.0
  0
SPLINE
  5
EE
330
1F
100
AcDbEntity
  8
0
  6
Continuous
 62
     7
370
    15
100
AcDbSpline
210
0.0
220
0.0
230
1.0
 70
     8
 71
     3
 72
    10
 73
     6
 74
     0
 42
0.00000001
 43
0.00000001
 40
0.0
 40
0.0
 40
0.0
 40
0.0
 40
0.5
 40
0.5
 40
1.0
 40
1.0
 40
1.0
 40
1.0
 10
159.6860019301805
 20
132.6062391540856
 30
0.0
 10
159.6184426752623
 20
132.5385477612759
 30
0.0
 10
159.5548060199258
 20
132.4638405965223
 30
0.0
 10
159.4445852653539
 20
132.3048744640956
 30
0.0
 10
159.3977689721313
 20
132.2205191980876
 30
0.0
 10
159.3702005067032
 20
132.1364045953958
 30
0.0
  0
SPLINE
  5
EF
330
1F
100
AcDbEntity
  8
0
  6
Continuous
 62
     7
370
    15
100
AcDbSpline
210
0.0
220
0.0
230
1.0
 70
     8
 71
     3
 72
     8
 73
     4
 74
     0
 42
0.00000001
 43
0.00000001
 40
0.0
 40
0.0
 40
0.0
 40
0.0
 40
1.0
 40
1.0
 40
1.0
 40
1.0
 10
159.4849564307979
 20
91.30236295883242
 30
0.0
 10
159.5206700891678
 20
91.17913145357262
 30
0.0
 10
159.5963381281161
 20
91.05818787662562
 30
0.0
 10
159.6860019301892
 20
90.95146883292236
 30
0.0
  0
SPLINE
  5
F0
330
1F
100
AcDbEntity
  8
0
  6
Continuous
 62
     7
370
    15
100
AcDbSpline
210
0.0
220
0.0
230
1.0
 70
     8
 71
     3
 72
    26
 73
    22
 74
     0
 42
0.00000001
 43
0.00000001
 40
0.0
 40
0.0
 40
0.0
 40
0.0
 40
0.249999999999995
 40
0.249999999999995
 40
0.3749999999999928
 40
0.3749999999999928
 40
0.4374999999999917
 40
0.4374999999999917
 40
0.4687499999999916
 40
0.4687499999999916
 40
0.4999999999999915
 40
0.4999999999999915
 40
0.5312499999999912
 40
0.5312499999999912
 40
0.5624999999999911
 40
0.5624999999999911
 40
0.624999999999993
 40
0.624999999999993
 40
0.7499999999999953
 40
0.7499999999999953
 40
1.0
 40
1.0
 40
1.0
 40
1.0
 10
158.5763244762073
 20
92.15619770157117
 30
0.0
 10
158.5870485095999
 20
92.25915874206015
 30
0.0
 10
158.6017815001944
 20
92.35815743154123
 30
0.0
 10
158.6541350594414
 20
92.47675311160636
 30
0.0
 10
158.6758403421611
 20
92.51246341155516
 30
0.0
 10
158.7346958495264
 20
92.53744284437688
 30
0.0
 10
158.7581580833736
 20
92.54182829214044
 30
0.0
 10
158.8142794600342
 20
92.52207545869628
 30
0.0
 10
158.8370667701649
 20
92.51041906788588
 30
0.0
 10
158.8923193226961
 20
92.46863871844862
 30
0.0
 10
158.9237255554369
 20
92.4383671310726
 30
0.0
 10
158.9786593760574
 20
92.3767247321586
 30
0.0
 10
159.0030831942568
 20
92.34528307985178
 30
0.0
 10
159.046498300244
 20
92.28554824243803
 30
0.0
 10
159.0660728628123
 20
92.25638323256537
 30
0.0
 10
159.1197055467603
 20
92.1725479568323
 30
0.0
 10
159.1494828948125
 20
92.1205153388561
 30
0.0
 10
159.2310169547853
 20
91.96944966488874
 30
0.0
 10
159.2742597494593
 20
91.87625862301802
 30
0.0
 10
159.387314339114
 20
91.61187208402366
 30
0.0
 10
159.4413253365932
 20
91.45291391497382
 30
0.0
 10
159.4849564307972
 20
91.30236295883299
 30
0.0
  0
SPLINE
  5
F1
330
1F
100
AcDbEntity
  8
0
  6
Continuous
 62
     7
370
    15
100
AcDbSpline
210
0.0
220
0.0
230
1.0
 70
     8
 71
     3
 72
     8
 73
     4
 74
     0
 42
0.00000001
 43
0.00000001
 40
0.0
 40
0.0
 40
0.0
 40
0.0
 40
1.0
 40
1.0
 40
1.0
 40
1.0
 10
205.0541140291097
 20
136.2049749241654
 30
0.0
 10
205.5612008708689
 20
135.0738245700018
 30
0.0
 10
206.0567687100089
 20
133.9374401592339
 30
0.0
 10
206.5360468605987
 20
132.7964289293814
 30
0.0
  0
LINE
  5
F2
330
1F
100
AcDbEntity
  8
0
  6
Continuous
 62
     7
370
    15
100
AcDbLine
 10
206.5360468606
 20
132.7964289294
 30
0.0
 11
206.5360468606
 21
131.8821518933
 31
0.0
  0
SPLINE
  5
F3
330
1F
100
AcDbEntity
  8
0
  6
Continuous
 62
     7
370
    15
100
AcDbSpline
210
0.0
220
0.0
230
1.0
 70
     8
 71
     3
 72
    10
 73
     6
 74
     0
 42
0.00000001
 43
0.00000001
 40
0.0
 40
0.0
 40
0.0
 40
0.0
 40
0.5
 40
0.5
 40
1.0
 40
1.0
 40
1.0
 40
1.0
 10
216.3960468605987
 20
141.5927255855619
 30
0.0
 10
216.3960468605987
 20
141.7531308519127
 30
0.0
 10
216.3338090294918
 20
141.9121926649013
 30
0.0
 10
216.1146741057493
 20
142.1431051305316
 30
0.0
 10
215.9570854107574
 20
142.2134807349623
 30
0.0
 10
215.7960468605987
 20
142.2134807349623
 30
0.0
  0
SPLINE
  5
F4
330
1F
100
AcDbEntity
  8
0
  6
Continuous
 62
     7
370
    15
100
AcDbSpline
210
0.0
220
0.0
230
1.0
 70
     8
 71
     3
 72
    12
 73
     8
 74
     0
 42
0.00000001
 43
0.00000001
 40
0.0
 40
0.0
 40
0.0
 40
0.0
 40
0.249999999999998
 40
0.249999999999998
 40
0.499999999999996
 40
0.499999999999996
 40
1.0
 40
1.0
 40
1.0
 40
1.0
 10
215.7960468605987
 20
136.2049749241654
 30
0.0
 10
215.8872465824244
 20
136.2049749241654
 30
0.0
 10
215.9778415915604
 20
136.1767552255776
 30
0.0
 10
216.1312543180071
 20
136.0823122183294
 30
0.0
 10
216.1964631853307
 20
136.0160252416242
 30
0.0
 10
216.3492477146706
 20
135.7904004183358
 30
0.0
 10
216.3960468605987
 20
135.6079741553033
 30
0.0
 10
216.3960468605987
 20
135.4272375230564
 30
0.0
  0
LINE
  5
F5
330
1F
100
AcDbEntity
  8
0
  6
Continuous
 62
     7
370
    15
100
AcDbLine
 10
216.3960468606
 20
135.4272375231
 30
0.0
 11
216.3960468606
 21
141.5927255856
 31
0.0
  0
LINE
  5
F6
330
1F
100
AcDbEntity
  8
0
  6
Continuous
 62
     7
370
    15
100
AcDbLine
 10
215.7960468606
 20
142.213480735
 30
0.0
 11
211.8379796921
 21
142.213480735
 31
0.0
  0
LINE
  5
F7
330
1F
100
AcDbEntity
  8
0
  6
Continuous
 62
     7
370
    15
100
AcDbLine
 10
211.8379796921
 20
136.2049749242
 30
0.0
 11
215.7960468606
 21
136.2049749242
 31
0.0
  0
LINE
  5
F8
330
1F
100
AcDbEntity
  8
0
  6
Continuous
 62
     7
370
    15
100
AcDbLine
 10
211.8379796921
 20
136.2049749242
 30
0.0
 11
211.8379796921
 21
142.213480735
 31
0.0
  0
LINE
  5
F9
330
1F
100
AcDbEntity
  8
0
  6
Continuous
 62
     7
370
    15
100
AcDbLine
 10
210.3560468606
 20
131.8821518933
 30
0.0
 11
210.3560468606
 21
132.7964289294
 31
0.0
  0
SPLINE
  5
FA
330
1F
100
AcDbEntity
  8
0
  6
Continuous
 62
     7
370
    15
100
AcDbSpline
210
0.0
220
0.0
230
1.0
 70
     8
 71
     3
 72
     8
 73
     4
 74
     0
 42
0.00000001
 43
0.00000001
 40
0.0
 40
0.0
 40
0.0
 40
0.0
 40
1.0
 40
1.0
 40
1.0
 40
1.0
 10
210.3560468605987
 20
132.7964289293813
 30
0.0
 10
210.8353250111885
 20
133.9374401592339
 30
0.0
 10
211.3308928503285
 20
135.0738245700018
 30
0.0
 10
211.8379796920877
 20
136.2049749241654
 30
0.0
  0
LINE
  5
FB
330
1F
100
AcDbEntity
  8
0
  6
Continuous
 62
     7
370
    15
100
AcDbLine
 10
216.3960468606
 20
135.4272375231
 30
0.0
 11
216.3960468606
 21
131.5962852618
 31
0.0
  0
SPLINE
  5
FC
330
1F
100
AcDbEntity
  8
0
  6
Continuous
 62
     7
370
    15
100
AcDbSpline
210
0.0
220
0.0
230
1.0
 70
     8
 71
     3
 72
     8
 73
     4
 74
     0
 42
0.00000001
 43
0.00000001
 40
0.0
 40
0.0
 40
0.0
 40
0.0
 40
1.0
 40
1.0
 40
1.0
 40
1.0
 10
211.8379796920877
 20
142.2134807349623
 30
0.0
 10
211.3428396627234
 20
141.326801086782
 30
0.0
 10
210.8487569574445
 20
140.439538451096
 30
0.0
 10
210.3560468605987
 20
139.5515194529696
 30
0.0
  0
LINE
  5
FD
330
1F
100
AcDbEntity
  8
0
  6
Continuous
 62
     7
370
    15
100
AcDbLine
 10
210.3560468606
 20
132.7964289294
 30
0.0
 11
210.3560468606
 21
139.551519453
 31
0.0
  0
SPLINE
  5
FE
330
1F
100
AcDbEntity
  8
0
  6
Continuous
 62
     7
370
    15
100
AcDbSpline
210
0.0
220
0.0
230
1.0
 70
     8
 71
     3
 72
     8
 73
     4
 74
     0
 42
0.00000001
 43
0.00000001
 40
0.0
 40
0.0
 40
0.0
 40
0.0
 40
1.0
 40
1.0
 40
1.0
 40
1.0
 10
206.5360468605987
 20
139.5515194529696
 30
0.0
 10
206.0433367637529
 20
140.439538451096
 30
0.0
 10
205.549254058474
 20
141.326801086782
 30
0.0
 10
205.0541140291096
 20
142.2134807349623
 30
0.0
  0
LINE
  5
FF
330
1F
100
AcDbEntity
  8
0
  6
Continuous
 62
     7
370
    15
100
AcDbLine
 10
206.5360468606
 20
132.7964289294
 30
0.0
 11
206.5360468606
 21
139.551519453
 31
0.0
  0
LINE
  5
100
330
1F
100
AcDbEntity
  8
0
  6
Continuous
 62
     7
370
    15
100
AcDbLine
 10
159.6960468606
 20
90.9337852618
 30
0.0
 11
159.6960468606
 21
90.9396537033
 31
0.0
  0
SPLINE
  5
101
330
1F
100
AcDbEntity
  8
0
  6
Continuous
 62
     7
370
    15
100
AcDbSpline
210
0.0
220
0.0
230
1.0
 70
     8
 71
     3
 72
    10
 73
     6
 74
     0
 42
0.00000001
 43
0.00000001
 40
0.0
 40
0.0
 40
0.0
 40
0.0
 40
0.5
 40
0.5
 40
1.0
 40
1.0
 40
1.0
 40
1.0
 10
231.6787198726198
 20
87.66218946272153
 30
0.0
 10
231.9034393216249
 20
87.65292600369548
 30
0.0
 10
232.120754065607
 20
87.56443289976593
 30
0.0
 10
232.4650565974104
 20
87.27339914116367
 30
0.0
 10
232.5889234386298
 20
87.07380214703318
 30
0.0
 10
232.6446456989088
 20
86.85700888833655
 30
0.0
  0
SPLINE
  5
102
330
1F
100
AcDbEntity
  8
0
  6
Continuous
 62
     7
370
    15
100
AcDbSpline
210
0.0
220
0.0
230
1.0
 70
     8
 71
     3
 72
    10
 73
     6
 74
     0
 42
0.00000001
 43
0.00000001
 40
0.0
 40
0.0
 40
0.0
 40
0.0
 40
0.5
 40
0.5
 40
1.0
 40
1.0
 40
1.0
 40
1.0
 10
232.6446456989088
 20
138.1246891156293
 30
0.0
 10
232.5887659301193
 20
137.908510886881
 30
0.0
 10
232.4658693775573
 20
137.7128735924818
 30
0.0
 10
232.1197181747866
 20
137.427964130153
 30
0.0
 10
231.9035689949463
 20
137.3450608524825
 30
0.0
 10
231.6787198726198
 20
137.3407326057078
 30
0.0
  0
LINE
  5
103
330
1F
100
AcDbEntity
  8
0
  6
Continuous
 62
     7
370
    15
100
AcDbLine
 10
243.6818654881
 20
146.5876392542
 30
0.0
 11
242.1272327657
 21
146.4687063074
 31
0.0
  0
ARC
  5
104
330
1F
100
AcDbEntity
  8
0
  6
Continuous
 62
     7
370
    15
100
AcDbCircle
 10
242.438642205
 20
142.9984946183
 30
0.0
 40
3.484156283260084
100
AcDbArc
 50
95.1278664963
 51
274.862579501
  0
LINE
  5
105
330
1F
100
AcDbEntity
  8
0
  6
Continuous
 62
     7
370
    15
100
AcDbLine
 10
242.733980827
 20
139.526878265
 30
0.0
 11
257.8291179014
 21
140.681690658
 31
0.0
  0
LINE
  5
106
330
1F
100
AcDbEntity
  8
0
  6
Continuous
 62
     7
370
    15
100
AcDbLine
 10
257.8291179014
 20
140.681690658
 30
0.0
 11
255.5858214392
 21
115.065340482
 31
0.0
  0
LINE
  5
107
330
1F
100
AcDbEntity
  8
0
  6
Continuous
 62
     7
370
    15
100
AcDbLine
 10
255.5858214392
 20
115.065340482
 30
0.0
 11
235.4164611206
 21
86.482097087
 31
0.0
  0
ELLIPSE
  5
108
330
1F
100
AcDbEntity
  8
0
  6
Continuous
 62
     7
370
    15
100
AcDbEllipse
 10
300.4161460354
 20
111.7462852618
 30
0.0
 11
256.8876671519784
 21
-2.85344005784846
 31
0.0
210
0.0
220
0.0
230
1.0
 40
0.1045157088
 41
4.446852026103635
 42
4.457741613051912
  0
LINE
  5
109
330
1F
100
AcDbEntity
  8
0
  6
Continuous
 62
     7
370
    15
100
AcDbLine
 10
232.713996053
 20
86.5873135304
 30
0.0
 11
232.6446456989
 21
86.8570088883
 31
0.0
  0
SPLINE
  5
10A
330
1F
100
AcDbEntity
  8
0
  6
Continuous
 62
     7
370
    15
100
AcDbSpline
210
0.0
220
0.0
230
1.0
 70
     8
 71
     3
 72
     8
 73
     4
 74
     0
 42
0.00000001
 43
0.00000001
 40
0.0
 40
0.0
 40
0.0
 40
0.0
 40
1.0
 40
1.0
 40
1.0
 40
1.0
 10
232.6446456989088
 20
138.1246891156293
 30
0.0
 10
233.9423896317221
 20
143.14518205684
 30
0.0
 10
235.2670679931246
 20
148.1587746949004
 30
0.0
 10
236.5974952242285
 20
153.1707743099189
 30
0.0
  0
SPLINE
  5
10B
330
1F
100
AcDbEntity
  8
0
  6
Continuous
 62
     7
370
    15
100
AcDbSpline
210
0.0
220
0.0
230
1.0
 70
     8
 71
     3
 72
     8
 73
     4
 74
     0
 42
0.00000001
 43
0.00000001
 40
0.0
 40
0.0
 40
0.0
 40
0.0
 40
1.0
 40
1.0
 40
1.0
 40
1.0
 10
244.3333308249502
 20
154.0267648798871
 30
0.0
 10
241.7542965732589
 20
153.7449304997016
 30
0.0
 10
239.1756750896244
 20
153.4596799012379
 30
0.0
 10
236.5974952242285
 20
153.1707743099189
 30
0.0
  0
LINE
  5
10C
330
1F
100
AcDbEntity
  8
0
  6
Continuous
 62
     7
370
    15
100
AcDbLine
 10
244.333330825
 20
154.0267648799
 30
0.0
 11
243.6818654881
 21
146.5876392542
 31
0.0
  0
CIRCLE
  5
10D
330
1F
100
AcDbEntity
  8
0
  6
Continuous
 62
     7
370
    15
100
AcDbCircle
 10
246.8339483339
 20
134.4063445948
 30
0.0
 40
3.776930073882014
  0
ELLIPSE
  5
10E
330
1F
100
AcDbEntity
  8
0
  6
Continuous
 62
     7
370
    15
100
AcDbEllipse
 10
253.0895626929
 20
111.7462852618
 30
0.0
 11
19.21239144024992
 21
26.99711638407749
 31
0.0
210
0.0
220
0.0
230
1.0
 40
0.0205386817
 41
3.15620788474257
 42
3.516735939440292
  0
LINE
  5
10F
330
1F
100
AcDbEntity
  8
0
  6
Continuous
 62
     7
370
    15
100
AcDbLine
 10
232.713996053
 20
86.5873135304
 30
0.0
 11
232.713996053
 21
84.7462852618
 31
0.0
  0
LINE
  5
110
330
1F
100
AcDbEntity
  8
0
  6
Continuous
 62
     7
370
    15
100
AcDbLine
 10
236.5974952242
 20
153.1707743099
 30
0.0
 11
236.5974952242
 21
153.2397014799
 31
0.0
  0
CIRCLE
  5
111
330
1F
100
AcDbEntity
  8
0
  6
Continuous
 62
     7
370
    15
100
AcDbCircle
 10
246.8005532013
 20
134.2963052859
 30
0.0
 40
3.485106362547535
  0
ARC
  5
112
330
1F
100
AcDbEntity
  8
0
  6
Continuous
 62
     7
370
    15
100
AcDbCircle
 10
241.7599651713
 20
142.411898551
 30
0.0
 40
3.442896704696533
100
AcDbArc
 50
94.3293589119
 51
127.3927506478
  0
LINE
  5
113
330
1F
100
AcDbEntity
  8
0
  6
Continuous
 62
     7
370
    15
100
AcDbLine
 10
243.0546947084
 20
145.9639041817
 30
0.0
 11
243.6818654881
 21
146.5876392542
 31
0.0
  0
LINE
  5
114
330
1F
100
AcDbEntity
  8
0
  6
Continuous
 62
     7
370
    15
100
AcDbLine
 10
243.0546947084
 20
145.9639041817
 30
0.0
 11
243.0691049635
 21
145.9650065991
 31
0.0
  0
LINE
  5
115
330
1F
100
AcDbEntity
  8
0
  6
Continuous
 62
     7
370
    15
100
AcDbLine
 10
241.0181857705
 20
145.3657347876
 30
0.0
 11
243.03010392
 21
145.5196511119
 31
0.0
  0
ELLIPSE
  5
116
330
1F
100
AcDbEntity
  8
0
  6
Continuous
 62
     7
370
    15
100
AcDbEllipse
 10
240.1110213186
 20
112.1795702873
 30
0.0
 11
4.159897226824171
 21
41.858758849415
 31
0.0
210
0.0
220
0.0
230
0.9999999999999999
 40
0.0944087
 41
6.267257860324208
 42
6.30269163767265
  0
LWPOLYLINE
  5
117
330
1F
100
AcDbEntity
  8
0
  6
Continuous
 62
     7
370
    15
100
AcDbPolyline
 90
        3
 70
   128
 43
0.0
 10
242.0374674118
 20
139.6964949688
 10
241.3473050309
 20
139.7212889331
 10
241.2441762376
 20
139.7384368266
  0
ARC
  5
118
330
1F
100
AcDbEntity
  8
0
  6
Continuous
 62
     7
370
    15
100
AcDbCircle
 10
241.7284095287
 20
142.8097899547
 30
0.0
 40
3.04375886108193
100
AcDbArc
 50
94.3024611771
 51
138.4823885467
  0
LINE
  5
119
330
1F
100
AcDbEntity
  8
0
  6
Continuous
 62
     7
370
    15
100
AcDbLine
 10
242.5234091929
 20
139.7336706227
 30
0.0
 11
242.0374674118
 21
139.6964949688
 31
0.0
  0
ARC
  5
11A
330
1F
100
AcDbEntity
  8
0
  6
Continuous
 62
     7
370
    15
100
AcDbCircle
 10
241.2482237582
 20
142.3254071732
 30
0.0
 40
3.049017789177253
100
AcDbArc
 50
94.3268825932
 51
127.1433431039
  0
LINE
  5
11B
330
1F
100
AcDbEntity
  8
0
  6
HIDDEN
 62
     7
370
     0
100
AcDbLine
 10
195.3960468606
 20
80.2462852618
 30
0.0
 11
195.3960468606
 21
80.2621622789
 31
0.0
  0
SPLINE
  5
11C
330
1F
100
AcDbEntity
  8
0
  6
HIDDEN
 62
     7
370
     0
100
AcDbSpline
210
0.0
220
0.0
230
1.0
 70
     8
 71
     3
 72
    30
 73
    26
 74
     0
 42
0.00000001
 43
0.00000001
 40
0.0
 40
0.0
 40
0.0
 40
0.0
 40
0.1250000000000004
 40
0.1250000000000004
 40
0.1875000000000006
 40
0.1875000000000006
 40
0.2500000000000008
 40
0.2500000000000008
 40
0.3750000000000009
 40
0.3750000000000009
 40
0.4375000000000009
 40
0.4375000000000009
 40
0.5000000000000009
 40
0.5000000000000009
 40
0.6250000000000012
 40
0.6250000000000012
 40
0.6875000000000011
 40
0.6875000000000011
 40
0.7500000000000009
 40
0.7500000000000009
 40
0.8125000000000008
 40
0.8125000000000008
 40
0.8750000000000007
 40
0.8750000000000007
 40
1.0
 40
1.0
 40
1.0
 40
1.0
 10
195.3960468605987
 20
80.26216227893572
 30
0.0
 10
195.3960468605987
 20
80.27904119694432
 30
0.0
 10
195.4484644265771
 20
80.309058761769
 30
0.0
 10
195.6018439064794
 20
80.3718691510421
 30
0.0
 10
195.6655250271472
 20
80.39577305826899
 30
0.0
 10
195.8184798945989
 20
80.4492083507114
 30
0.0
 10
195.9080521933681
 20
80.47881521887896
 30
0.0
 10
196.2092762262212
 20
80.57326491759338
 30
0.0
 10
196.4545912223054
 20
80.6442923114226
 30
0.0
 10
196.8886882033756
 20
80.75830659812836
 30
0.0
 10
197.0453578924793
 20
80.79776184926892
 30
0.0
 10
197.3773510563217
 20
80.8772832920396
 30
0.0
 10
197.5520565853142
 20
80.91721943454039
 30
0.0
 10
198.1017262679057
 20
81.03615583736855
 30
0.0
 10
198.501977230617
 20
81.1143206012524
 30
0.0
 10
199.1555640972545
 20
81.22403004152129
 30
0.0
 10
199.3812402169316
 20
81.25911087822969
 30
0.0
 10
199.8409520380629
 20
81.3243511576093
 30
0.0
 10
200.076005372106
 20
81.35468597365404
 30
0.0
 10
200.556512654405
 20
81.41002435287591
 30
0.0
 10
200.8019661823191
 20
81.43502902943597
 30
0.0
 10
201.3035816071265
 20
81.47890883832666
 30
0.0
 10
201.561073989727
 20
81.49785252308897
 30
0.0
 10
202.3391505061631
 20
81.54357225035916
 30
0.0
 10
202.864312783408
 20
81.5593675655509
 30
0.0
 10
203.3960468605987
 20
81.5593675655509
 30
0.0
  0
LINE
  5
11D
330
1F
100
AcDbEntity
  8
0
  6
HIDDEN
 62
     7
370
     0
100
AcDbLine
 10
203.3960468606
 20
81.5593675656
 30
0.0
 11
205.0541140291
 21
81.5593675656
 31
0.0
  0
LINE
  5
11E
330
1F
100
AcDbEntity
  8
0
  6
HIDDEN
 62
     7
370
     0
100
AcDbLine
 10
205.0541140291
 20
142.213480735
 30
0.0
 11
205.0541140291
 21
81.5593675656
 31
0.0
  0
LINE
  5
11F
330
1F
100
AcDbEntity
  8
0
  6
HIDDEN
 62
     7
370
     0
100
AcDbLine
 10
203.3960468606
 20
142.213480735
 30
0.0
 11
205.0541140291
 21
142.213480735
 31
0.0
  0
SPLINE
  5
120
330
1F
100
AcDbEntity
  8
0
  6
HIDDEN
 62
     7
370
     0
100
AcDbSpline
210
0.0
220
0.0
230
1.0
 70
     8
 71
     3
 72
    24
 73
    20
 74
     0
 42
0.00000001
 43
0.00000001
 40
0.0
 40
0.0
 40
0.0
 40
0.0
 40
0.0096786162622432
 40
0.0638613323186608
 40
0.1151504038829414
 40
0.2187148509043406
 40
0.2715874349544207
 40
0.3233795944472945
 40
0.4279241425875268
 40
0.4812568627025587
 40
0.5874627085530305
 40
0.641937257303989
 40
0.6968115758969011
 40
0.749988589138901
 40
0.80354878652553
 40
0.8583375239808565
 40
0.9135596099914677
 40
0.9566727567825132
 40
1.0
 40
1.0
 40
1.0
 40
1.0
 10
195.4002510579718
 20
143.2452185099984
 30
0.0
 10
195.3989274740033
 20
143.2455543463466
 30
0.0
 10
195.3901942177844
 20
143.2477702578011
 30
0.0
 10
195.4291794853168
 20
143.2378630043782
 30
0.0
 10
195.5480499965524
 20
143.2079039033262
 30
0.0
 10
195.7780666069952
 20
143.1508374028002
 30
0.0
 10
196.106552840805
 20
143.0730039810059
 30
0.0
 10
196.5018301744483
 20
142.98261869047
 30
0.0
 10
196.9921044657069
 20
142.877162701677
 30
0.0
 10
197.7141153839371
 20
142.7363087090311
 30
0.0
 10
198.3816973568688
 20
142.6197831678377
 30
0.0
 10
199.121869745064
 20
142.5100432794596
 30
0.0
 10
199.7118041751001
 20
142.4334858100626
 30
0.0
 10
200.3254573621466
 20
142.3657498027559
 30
0.0
 10
200.9614474239053
 20
142.308322869076
 30
0.0
 10
201.624196055942
 20
142.2624230619074
 30
0.0
 10
202.2577349612819
 20
142.2328145904303
 30
0.0
 10
202.8504024630192
 20
142.2163142776499
 30
0.0
 10
203.2138653185881
 20
142.2144268074932
 30
0.0
 10
203.3960468605987
 20
142.2134807349622
 30
0.0
  0
SPLINE
  5
121
330
1F
100
AcDbEntity
  8
0
  6
HIDDEN
 62
     7
370
     0
100
AcDbSpline
210
0.0
220
0.0
230
1.0
 70
     8
 71
     3
 72
    76
 73
    72
 74
     0
 42
0.00000001
 43
0.00000001
 40
-0.0312499999999999
 40
-0.0312499999999999
 40
0.0
 40
0.0
 40
0.0312500000000001
 40
0.0312500000000001
 40
0.0468750000000002
 40
0.0468750000000002
 40
0.0625000000000002
 40
0.0625000000000002
 40
0.0937500000000003
 40
0.0937500000000003
 40
0.1250000000000003
 40
0.1250000000000003
 40
0.1562500000000003
 40
0.1562500000000003
 40
0.1875000000000004
 40
0.1875000000000004
 40
0.2187500000000004
 40
0.2187500000000004
 40
0.2500000000000004
 40
0.2500000000000004
 40
0.2812500000000005
 40
0.2812500000000005
 40
0.3125000000000005
 40
0.3125000000000005
 40
0.3281250000000005
 40
0.3281250000000005
 40
0.3437500000000005
 40
0.3437500000000005
 40
0.3750000000000006
 40
0.3750000000000006
 40
0.4062500000000007
 40
0.4062500000000007
 40
0.4375000000000007
 40
0.4375000000000007
 40
0.4687500000000008
 40
0.4687500000000008
 40
0.5000000000000008
 40
0.5000000000000008
 40
0.5312500000000009
 40
0.5312500000000009
 40
0.562500000000001
 40
0.562500000000001
 40
0.593750000000001
 40
0.593750000000001
 40
0.625000000000001
 40
0.625000000000001
 40
0.656250000000001
 40
0.656250000000001
 40
0.687500000000001
 40
0.687500000000001
 40
0.703125000000001
 40
0.703125000000001
 40
0.7187500000000009
 40
0.7187500000000009
 40
0.7500000000000008
 40
0.7500000000000008
 40
0.7812500000000008
 40
0.7812500000000008
 40
0.8125000000000007
 40
0.8125000000000007
 40
0.8437500000000006
 40
0.8437500000000006
 40
0.8750000000000004
 40
0.8750000000000004
 40
0.9062500000000003
 40
0.9062500000000003
 40
0.9375000000000002
 40
0.9375000000000002
 40
0.9687500000000001
 40
0.9687500000000001
 40
1.0
 40
1.0
 40
1.03125
 40
1.03125
 10
192.4460468605987
 20
112.0771692575921
 30
0.0
 10
192.4460468605987
 20
111.415401266004
 30
0.0
 10
192.4785673383831
 20
111.0901500979081
 30
0.0
 10
192.5740605826651
 20
110.610353377019
 30
0.0
 10
192.6137354180763
 20
110.4517776932254
 30
0.0
 10
192.7091220314119
 20
110.1373953074323
 30
0.0
 10
192.7650662728226
 20
109.9812756838482
 30
0.0
 10
192.9534292962722
 20
109.5273351239462
 30
0.0
 10
193.1070415726906
 20
109.2403548779392
 30
0.0
 10
193.4698693664747
 20
108.6972417211999
 30
0.0
 10
193.6807044680572
 20
108.4405024296559
 30
0.0
 10
194.1412040380747
 20
107.980117795425
 30
0.0
 10
194.3925669789925
 20
107.7733409786711
 30
0.0
 10
194.9389136733459
 20
107.4078167710077
 30
0.0
 10
195.2291283130639
 20
107.2528172122929
 30
0.0
 10
195.8305151293655
 20
107.0032861911987
 30
0.0
 10
196.146144822456
 20
106.90700791751
 30
0.0
 10
196.7917852237355
 20
106.778358910267
 30
0.0
 10
197.1165409795488
 20
106.7464726511504
 30
0.0
 10
197.7698410099403
 20
106.7460995036397
 30
0.0
 10
198.1017133507709
 20
106.7786789898857
 30
0.0
 10
198.7433645843746
 20
106.9064528945921
 30
0.0
 10
199.0552895013077
 20
107.0009853388892
 30
0.0
 10
199.5097791018246
 20
107.1891049334279
 30
0.0
 10
199.6596424096585
 20
107.2599879146487
 30
0.0
 10
199.9487276435812
 20
107.4146045209831
 30
0.0
 10
200.0885885578893
 20
107.498527119721
 30
0.0
 10
200.4944650015935
 20
107.7697226431967
 30
0.0
 10
200.7475031480831
 20
107.9768226486379
 30
0.0
 10
201.2134027042465
 20
108.4424251016952
 30
0.0
 10
201.4199087787423
 20
108.6943439540825
 30
0.0
 10
201.7820143421419
 20
109.2352475700834
 30
0.0
 10
201.9388734559571
 20
109.5277904128348
 30
0.0
 10
202.1898235728198
 20
110.1326580695923
 30
0.0
 10
202.2846346721507
 20
110.444304901039
 30
0.0
 10
202.4130565349438
 20
111.0860582062606
 30
0.0
 10
202.445919821435
 20
111.4177860251399
 30
0.0
 10
202.4461731475435
 20
112.0709057904008
 30
0.0
 10
202.4146171469743
 20
112.3958389967439
 30
0.0
 10
202.2863759255499
 20
113.0423660031969
 30
0.0
 10
202.1905698768915
 20
113.3573739570579
 30
0.0
 10
201.9414363657974
 20
113.9593326252035
 30
0.0
 10
201.7859762441027
 20
114.250808795479
 30
0.0
 10
201.4215219897429
 20
114.7964037319757
 30
0.0
 10
201.2150890823071
 20
115.0478808469808
 30
0.0
 10
200.7546199997892
 20
115.5092038710356
 30
0.0
 10
200.4978229917333
 20
115.720327171982
 30
0.0
 10
199.9557777778988
 20
116.083057953698
 30
0.0
 10
199.6690081979633
 20
116.2369468570836
 30
0.0
 10
199.2147010220776
 20
116.4258965837756
 30
0.0
 10
199.0585607213042
 20
116.4819693797954
 30
0.0
 10
198.7447147599581
 20
116.5774721453281
 30
0.0
 10
198.5863279722643
 20
116.6172527883556
 30
0.0
 10
198.106851732321
 20
116.7131353254809
 30
0.0
 10
197.7806117878941
 20
116.7460107734804
 30
0.0
 10
197.1197371906161
 20
116.7465563426514
 30
0.0
 10
196.7946008432712
 20
116.714389824038
 30
0.0
 10
196.1545183427847
 20
116.5876072860508
 30
0.0
 10
195.8361974187169
 20
116.4913395322595
 30
0.0
 10
195.2312811398778
 20
116.2409452108343
 30
0.0
 10
194.9441322262263
 20
116.0876310491128
 30
0.0
 10
194.4001806725533
 20
115.724923125093
 30
0.0
 10
194.1435347228267
 20
115.5144840523591
 30
0.0
 10
193.6829441694138
 20
115.0546030640828
 30
0.0
 10
193.4757952834229
 20
114.80332126439
 30
0.0
 10
193.1092640400095
 20
114.25640109065
 30
0.0
 10
192.9545798525051
 20
113.9672609390337
 30
0.0
 10
192.7044801991669
 20
113.3660242651144
 30
0.0
 10
192.6077934246738
 20
113.0500485714737
 30
0.0
 10
192.4785718497175
 20
112.4040748133771
 30
0.0
 10
192.4460468605987
 20
112.0771692575921
 30
0.0
 10
192.4460468605987
 20
111.415401266004
 30
0.0
  0
LINE
  5
122
330
1F
100
AcDbEntity
  8
0
  6
HIDDEN
 62
     7
370
     0
100
AcDbLine
 10
190.4460468606
 20
80.5462852618
 30
0.0
 11
190.4460468606
 21
142.9462852618
 31
0.0
  0
SPLINE
  5
123
330
1F
100
AcDbEntity
  8
0
  6
HIDDEN
 62
     7
370
     0
100
AcDbSpline
210
0.0
220
0.0
230
1.0
 70
     8
 71
     3
 72
    10
 73
     6
 74
     0
 42
0.00000001
 43
0.00000001
 40
0.0
 40
0.0
 40
0.0
 40
0.0
 40
0.5
 40
0.5
 40
1.0
 40
1.0
 40
1.0
 40
1.0
 10
206.633721662931
 20
85.34628526179806
 30
0.0
 10
206.601566475309
 20
85.28399921628197
 30
0.0
 10
206.5769102441148
 20
85.21746879141274
 30
0.0
 10
206.5440974871893
 20
85.08061016105032
 30
0.0
 10
206.5360468605987
 20
85.01155256587201
 30
0.0
 10
206.5360468605987
 20
84.9418896334687
 30
0.0
  0
SPLINE
  5
124
330
1F
100
AcDbEntity
  8
0
  6
HIDDEN
 62
     7
370
     0
100
AcDbSpline
210
0.0
220
0.0
230
1.0
 70
    24
 71
     3
 72
    10
 73
     6
 74
     0
 42
0.00000001
 43
0.00000001
 40
0.0
 40
0.0
 40
0.0
 40
0.0
 40
0.5
 40
0.5
 40
1.0
 40
1.0
 40
1.0
 40
1.0
 10
206.5360468605987
 20
131.596285261798
 30
0.0
 10
206.5360468605987
 20
131.596285261798
 30
0.0
 10
206.5382687190834
 20
131.596285261798
 30
0.0
 10
206.547005390807
 20
131.596285261798
 30
0.0
 10
206.5535169046013
 20
131.596285261798
 30
0.0
 10
206.5621944837588
 20
131.596285261798
 30
0.0
  0
LINE
  5
125
330
1F
100
AcDbEntity
  8
0
  6
HIDDEN
 62
     7
370
     0
100
AcDbLine
 10
206.5360468606
 20
131.8821518933
 30
0.0
 11
206.5360468606
 21
138.8659391128
 31
0.0
  0
LINE
  5
126
330
1F
100
AcDbEntity
  8
0
  6
HIDDEN
 62
     7
370
     0
100
AcDbLine
 10
206.5360468606
 20
84.9418896335
 30
0.0
 11
206.5360468606
 21
131.5962852618
 31
0.0
  0
SPLINE
  5
127
330
1F
100
AcDbEntity
  8
0
  6
HIDDEN
 62
     7
370
     0
100
AcDbSpline
210
0.0
220
0.0
230
1.0
 70
     8
 71
     3
 72
    10
 73
     6
 74
     0
 42
0.00000001
 43
0.00000001
 40
0.0
 40
0.0
 40
0.0
 40
0.0
 40
0.5
 40
0.5
 40
1.0
 40
1.0
 40
1.0
 40
1.0
 10
210.3560468605987
 20
84.9418896334687
 30
0.0
 10
210.3560468605987
 20
85.01212599383946
 30
0.0
 10
210.3477642485082
 20
85.08212009533696
 30
0.0
 10
210.3146643054496
 20
85.21907935989589
 30
0.0
 10
210.2903269134912
 20
85.28438726915115
 30
0.0
 10
210.2583720582664
 20
85.34628526179804
 30
0.0
  0
LINE
  5
128
330
1F
100
AcDbEntity
  8
0
  6
HIDDEN
 62
     7
370
     0
100
AcDbLine
 10
210.3560468606
 20
131.8821518933
 30
0.0
 11
210.3560468606
 21
138.8659391128
 31
0.0
  0
SPLINE
  5
129
330
1F
100
AcDbEntity
  8
0
  6
HIDDEN
 62
     7
370
     0
100
AcDbSpline
210
0.0
220
0.0
230
1.0
 70
    24
 71
     3
 72
    10
 73
     6
 74
     0
 42
0.00000001
 43
0.00000001
 40
0.0
 40
0.0
 40
0.0
 40
0.0
 40
0.5
 40
0.5
 40
1.0
 40
1.0
 40
1.0
 40
1.0
 10
210.3298992374386
 20
131.596285261798
 30
0.0
 10
210.3385770123462
 20
131.596285261798
 30
0.0
 10
210.3451300363531
 20
131.596285261798
 30
0.0
 10
210.3538646458502
 20
131.596285261798
 30
0.0
 10
210.3560468605987
 20
131.596285261798
 30
0.0
 10
210.3560468605987
 20
131.596285261798
 30
0.0
  0
LINE
  5
12A
330
1F
100
AcDbEntity
  8
0
  6
HIDDEN
 62
     7
370
     0
100
AcDbLine
 10
210.3560468606
 20
84.9418896335
 30
0.0
 11
210.3560468606
 21
131.5962852618
 31
0.0
  0
SPLINE
  5
12B
330
1F
100
AcDbEntity
  8
0
  6
HIDDEN
 62
     7
370
     0
100
AcDbSpline
210
0.0
220
0.0
230
1.0
 70
    24
 71
     3
 72
    18
 73
    14
 74
     0
 42
0.00000001
 43
0.00000001
 40
0.0
 40
0.0
 40
0.0
 40
0.0
 40
0.5
 40
0.5
 40
0.75
 40
0.75
 40
0.875
 40
0.875
 40
0.9375
 40
0.9375
 40
0.96875
 40
0.96875
 40
1.0
 40
1.0
 40
1.0
 40
1.0
 10
216.3960468605987
 20
138.146285261798
 30
0.0
 10
216.3960468605987
 20
138.146285261798
 30
0.0
 10
216.4518959866487
 20
138.146285261798
 30
0.0
 10
216.5276133716031
 20
138.146285261798
 30
0.0
 10
216.5518027205777
 20
138.146285261798
 30
0.0
 10
216.5775464903531
 20
138.146285261798
 30
0.0
 10
216.5843921392813
 20
138.146285261798
 30
0.0
 10
216.5913319626951
 20
138.146285261798
 30
0.0
 10
216.5930944067158
 20
138.146285261798
 30
0.0
 10
216.5948625836709
 20
138.146285261798
 30
0.0
 10
216.5953063804841
 20
138.146285261798
 30
0.0
 10
216.5958985547395
 20
138.146285261798
 30
0.0
 10
216.5960469257195
 20
138.146285261798
 30
0.0
 10
216.5960468605757
 20
138.146285261798
 30
0.0
  0
SPLINE
  5
12C
330
1F
100
AcDbEntity
  8
0
  6
HIDDEN
 62
     7
370
     0
100
AcDbSpline
210
0.0
220
0.0
230
1.0
 70
    24
 71
     3
 72
    10
 73
     6
 74
     0
 42
0.00000001
 43
0.00000001
 40
0.0
 40
0.0
 40
0.0
 40
0.0
 40
0.041092363409967
 40
0.5205144505869496
 40
0.9999999999999999
 40
0.9999999999999999
 40
0.9999999999999999
 40
0.9999999999999999
 10
216.5485860810753
 20
138.146285261798
 30
0.0
 10
216.5473124243115
 20
138.146285261798
 30
0.0
 10
216.5311790920895
 20
138.146285261798
 30
0.0
 10
216.4321874007431
 20
138.146285261798
 30
0.0
 10
216.4080942388231
 20
138.146285261798
 30
0.0
 10
216.3960468605987
 20
138.146285261798
 30
0.0
  0
LINE
  5
12D
330
1F
100
AcDbEntity
  8
0
  6
HIDDEN
 62
     7
370
     0
100
AcDbLine
 10
216.3960468606
 20
138.1462852618
 30
0.0
 11
216.3960468606
 21
85.3462852618
 31
0.0
  0
SPLINE
  5
12E
330
1F
100
AcDbEntity
  8
0
  6
HIDDEN
 62
     7
370
     0
100
AcDbSpline
210
0.0
220
0.0
230
1.0
 70
    24
 71
     3
 72
    18
 73
    14
 74
     0
 42
0.00000001
 43
0.00000001
 40
0.0
 40
0.0
 40
0.0
 40
0.0
 40
0.5000000000000002
 40
0.5000000000000002
 40
0.7500000000000001
 40
0.7500000000000001
 40
0.875
 40
0.875
 40
0.9375
 40
0.9375
 40
0.96875
 40
0.96875
 40
1.0
 40
1.0
 40
1.0
 40
1.0
 10
216.3960468605987
 20
85.34628526179802
 30
0.0
 10
216.3960468605987
 20
85.34628526179802
 30
0.0
 10
216.4518960088097
 20
85.34628526179802
 30
0.0
 10
216.5276134069799
 20
85.34628526179802
 30
0.0
 10
216.5518027570757
 20
85.34628526179802
 30
0.0
 10
216.5775465194904
 20
85.34628526179802
 30
0.0
 10
216.5843921644951
 20
85.34628526179802
 30
0.0
 10
216.5913319798943
 20
85.34628526179802
 30
0.0
 10
216.593094420894
 20
85.34628526179802
 30
0.0
 10
216.594862592855
 20
85.34628526179802
 30
0.0
 10
216.5953063879268
 20
85.34628526179802
 30
0.0
 10
216.5958985585602
 20
85.34628526179802
 30
0.0
 10
216.5960469275272
 20
85.34628526179802
 30
0.0
 10
216.5960468605744
 20
85.34628526179802
 30
0.0
  0
SPLINE
  5
12F
330
1F
100
AcDbEntity
  8
0
  6
HIDDEN
 62
     7
370
     0
100
AcDbSpline
210
0.0
220
0.0
230
1.0
 70
    24
 71
     3
 72
    10
 73
     6
 74
     0
 42
0.00000001
 43
0.00000001
 40
0.0
 40
0.0
 40
0.0
 40
0.0
 40
0.0019136660103365
 40
0.5009238054287225
 40
1.0
 40
1.0
 40
1.0
 40
1.0
 10
216.544725351655
 20
85.34628526179803
 30
0.0
 10
216.5446652370299
 20
85.34628526179803
 30
0.0
 10
216.5289295513622
 20
85.34628526179834
 30
0.0
 10
216.4314879602813
 20
85.34628526179789
 30
0.0
 10
216.407861081716
 20
85.34628526179797
 30
0.0
 10
216.3960468605987
 20
85.34628526179802
 30
0.0
  0
LINE
  5
130
330
1F
100
AcDbEntity
  8
0
  6
HIDDEN
 62
     7
370
     0
100
AcDbLine
 10
216.3960468606
 20
85.3462852618
 30
0.0
 11
216.3960468606
 21
138.1462852618
 31
0.0
  0
SPLINE
  5
131
330
1F
100
AcDbEntity
  8
0
  6
HIDDEN
 62
     7
370
     0
100
AcDbSpline
210
0.0
220
0.0
230
1.0
 70
     8
 71
     3
 72
    70
 73
    66
 74
     0
 42
0.00000001
 43
0.00000001
 40
-0.03125
 40
-0.03125
 40
0.0
 40
0.0
 40
0.03125
 40
0.03125
 40
0.0625
 40
0.0625
 40
0.09375
 40
0.09375
 40
0.125
 40
0.125
 40
0.15625
 40
0.15625
 40
0.1875
 40
0.1875
 40
0.21875
 40
0.21875
 40
0.25
 40
0.25
 40
0.28125
 40
0.28125
 40
0.3125
 40
0.3125
 40
0.34375
 40
0.34375
 40
0.375
 40
0.375
 40
0.40625
 40
0.40625
 40
0.4375
 40
0.4375
 40
0.46875
 40
0.46875
 40
0.5
 40
0.5
 40
0.53125
 40
0.53125
 40
0.5625
 40
0.5625
 40
0.59375
 40
0.59375
 40
0.625
 40
0.625
 40
0.65625
 40
0.65625
 40
0.6875
 40
0.6875
 40
0.71875
 40
0.71875
 40
0.75
 40
0.75
 40
0.78125
 40
0.78125
 40
0.8125
 40
0.8125
 40
0.84375
 40
0.84375
 40
0.875
 40
0.875
 40
0.90625
 40
0.90625
 40
0.9375
 40
0.9375
 40
0.96875
 40
0.96875
 40
1.0
 40
1.0
 40
1.03125
 40
1.03125
 10
220.2476754693647
 20
102.6943904056579
 30
0.0
 10
220.6444182518327
 20
102.6943904056579
 30
0.0
 10
220.839441419402
 20
102.6759952249958
 30
0.0
 10
221.2230754518481
 20
102.6040645840747
 30
0.0
 10
221.4136867928759
 20
102.549646628658
 30
0.0
 10
221.7769083058431
 20
102.4080986834903
 30
0.0
 10
221.9491534906795
 20
102.3216465607297
 30
0.0
 10
222.27513411246
 20
102.1181494556315
 30
0.0
 10
222.4293489483987
 20
102.0001263450879
 30
0.0
 10
222.7058245078221
 20
101.7434576520603
 30
0.0
 10
222.8299480007354
 20
101.6038804185117
 30
0.0
 10
223.0492648191881
 20
101.3021779870764
 30
0.0
 10
223.1423625052957
 20
101.1424458330745
 30
0.0
 10
223.2920347930839
 20
100.8136249453775
 30
0.0
 10
223.3497137531184
 20
100.6421021003992
 30
0.0
 10
223.4268420514643
 20
100.2930351362136
 30
0.0
 10
223.4459383759588
 20
100.1184959058419
 30
0.0
 10
223.4461544322849
 20
99.76951782239068
 30
0.0
 10
223.4266451854291
 20
99.5932969357635
 30
0.0
 10
223.350050526666
 20
99.25430345378811
 30
0.0
 10
223.2933798587983
 20
99.0904929413661
 30
0.0
 10
223.1430456638459
 20
98.77397530577618
 30
0.0
 10
223.0491839915516
 20
98.62204126716242
 30
0.0
 10
222.8321469159793
 20
98.34201999202786
 30
0.0
 10
222.7081548277818
 20
98.21208464629527
 30
0.0
 10
222.4282939077674
 20
97.97293020881969
 30
0.0
 10
222.276947478663
 20
97.86754679179687
 30
0.0
 10
221.9522682958545
 20
97.68344124429898
 30
0.0
 10
221.7768578697523
 20
97.6040859577428
 30
0.0
 10
221.4136489529445
 20
97.47720940997861
 30
0.0
 10
221.2266605529598
 20
97.42948677268937
 30
0.0
 10
220.8419677681283
 20
97.36492088462946
 30
0.0
 10
220.6430212954498
 20
97.34841255020325
 30
0.0
 10
220.2513058806864
 20
97.34829031931575
 30
0.0
 10
220.056533858972
 20
97.36414247702393
 30
0.0
 10
219.6692121271924
 20
97.42856315542383
 30
0.0
 10
219.4798578503303
 20
97.47687561755396
 30
0.0
 10
219.1187193980101
 20
97.6027114072279
 30
0.0
 10
218.9441655090475
 20
97.68120285626274
 30
0.0
 10
218.6161980948443
 20
97.86673137659346
 30
0.0
 10
218.465173087141
 20
97.97208920989192
 30
0.0
 10
218.1883509185532
 20
98.20798871517928
 30
0.0
 10
218.0616000318457
 20
98.34011573391386
 30
0.0
 10
217.843694304194
 20
98.62080281986566
 30
0.0
 10
217.7513998583383
 20
98.76984655286961
 30
0.0
 10
217.6004470238217
 20
99.08604312020957
 30
0.0
 10
217.5425218079519
 20
99.25288564330612
 30
0.0
 10
217.4658855222278
 20
99.59067080915347
 30
0.0
 10
217.4462315317118
 20
99.76335659735544
 30
0.0
 10
217.4458647544834
 20
100.1167647969335
 30
0.0
 10
217.4651739340069
 20
100.2916613333611
 30
0.0
 10
217.5411315177025
 20
100.6374562162308
 30
0.0
 10
217.5987099139093
 20
100.8102496471641
 30
0.0
 10
217.7490345556212
 20
101.1413213518316
 30
0.0
 10
217.8410437057562
 20
101.2991943539444
 30
0.0
 10
218.0584560449754
 20
101.5993194522217
 30
0.0
 10
218.184924120048
 20
101.7420376140305
 30
0.0
 10
218.4612161559467
 20
101.9988767752027
 30
0.0
 10
218.6120245482363
 20
102.1147056916121
 30
0.0
 10
218.9396906920504
 20
102.3199720453395
 30
0.0
 10
219.1139817020798
 20
102.4074556299138
 30
0.0
 10
219.474754878289
 20
102.5483950589059
 30
0.0
 10
219.6636651079796
 20
102.6028505325972
 30
0.0
 10
220.0515348004925
 20
102.6759925600137
 30
0.0
 10
220.2476754693647
 20
102.6943904056579
 30
0.0
 10
220.6444182518327
 20
102.6943904056579
 30
0.0
  0
LINE
  5
132
330
1F
100
AcDbEntity
  8
0
  6
HIDDEN
 62
     7
370
     0
100
AcDbLine
 10
190.4460468606
 20
86.4223613407
 30
0.0
 11
190.4460468606
 21
137.0520710444
 31
0.0
  0
LINE
  5
133
330
1F
100
AcDbEntity
  8
0
  6
HIDDEN
 62
     7
370
     0
100
AcDbLine
 10
195.3960468606
 20
131.5962852618
 30
0.0
 11
202.6416672063
 21
131.5962852618
 31
0.0
  0
LWPOLYLINE
  5
134
330
1F
100
AcDbEntity
  8
0
  6
HIDDEN
 62
     7
370
     0
100
AcDbPolyline
 90
        2
 70
   128
 43
0.0
 10
210.3560468606
 20
131.5962852618
 10
210.3560468606
 20
131.5962852618
  0
LWPOLYLINE
  5
135
330
1F
100
AcDbEntity
  8
0
  6
HIDDEN
 62
     7
370
     0
100
AcDbPolyline
 90
        2
 70
   128
 43
0.0
 10
216.3960468606
 20
131.5962852618
 10
216.3960468606
 20
131.5962852618
  0
LWPOLYLINE
  5
136
330
1F
100
AcDbEntity
  8
0
  6
HIDDEN
 62
     7
370
     0
100
AcDbPolyline
 90
        2
 70
   128
 43
0.0
 10
206.5360468606
 20
131.5962852618
 10
206.5360468606
 20
131.5962852618
  0
LINE
  5
137
330
1F
100
AcDbEntity
  8
0
  6
HIDDEN
 62
     7
370
     0
100
AcDbLine
 10
188.4460468606
 20
135.9667161235
 30
0.0
 11
188.4460468606
 21
87.5258544001
 31
0.0
  0
SPLINE
  5
138
330
1F
100
AcDbEntity
  8
0
  6
HIDDEN
 62
     7
370
     0
100
AcDbSpline
210
0.0
220
0.0
230
1.0
 70
     8
 71
     3
 72
    14
 73
    10
 74
     0
 42
0.00000001
 43
0.00000001
 40
0.0
 40
0.0
 40
0.0
 40
0.0
 40
0.5000000000000012
 40
0.5000000000000012
 40
0.7500000000000018
 40
0.7500000000000018
 40
0.8750000000000009
 40
0.8750000000000009
 40
1.0
 40
1.0
 40
1.0
 40
1.0
 10
159.6960468605987
 20
90.93965370327047
 30
0.0
 10
160.312123764354
 20
90.94537982349961
 30
0.0
 10
160.9262557604699
 20
90.95527018890164
 30
0.0
 10
161.8401523909834
 20
90.9859051565714
 30
0.0
 10
162.1435913185311
 20
90.99869861420939
 30
0.0
 10
162.5947279341685
 20
91.02662444216877
 30
0.0
 10
162.7444341837111
 20
91.03739406232856
 30
0.0
 10
163.0412753199592
 20
91.06452677792808
 30
0.0
 10
163.1886608724624
 20
91.08034375075532
 30
0.0
 10
163.3324449994767
 20
91.10400283962979
 30
0.0
  0
SPLINE
  5
139
330
1F
100
AcDbEntity
  8
0
  6
HIDDEN
 62
     7
370
     0
100
AcDbSpline
210
0.0
220
0.0
230
1.0
 70
     8
 71
     3
 72
    10
 73
     6
 74
     0
 42
0.00000001
 43
0.00000001
 40
0.0
 40
0.0
 40
0.0
 40
0.0
 40
0.5
 40
0.5
 40
1.0
 40
1.0
 40
1.0
 40
1.0
 10
163.3324449994767
 20
91.10400283962981
 30
0.0
 10
163.960072655184
 20
91.20727639836542
 30
0.0
 10
164.6112734002154
 20
91.29610151011696
 30
0.0
 10
165.9199781042277
 20
91.45820921698727
 30
0.0
 10
166.5810225415188
 20
91.53150868127385
 30
0.0
 10
167.2460468605984
 20
91.60019649600154
 30
0.0
  0
SPLINE
  5
13A
330
1F
100
AcDbEntity
  8
0
  6
HIDDEN
 62
     7
370
     0
100
AcDbSpline
210
0.0
220
0.0
230
1.0
 70
     8
 71
     3
 72
    18
 73
    14
 74
     0
 42
0.00000001
 43
0.00000001
 40
0.0
 40
0.0
 40
0.0
 40
0.0
 40
0.0624999999999978
 40
0.0624999999999978
 40
0.1249999999999956
 40
0.1249999999999956
 40
0.2499999999999943
 40
0.2499999999999943
 40
0.4999999999999962
 40
0.4999999999999962
 40
0.7499999999999981
 40
0.7499999999999981
 40
1.0
 40
1.0
 40
1.0
 40
1.0
 10
167.2460468605986
 20
91.60019649600143
 30
0.0
 10
167.282619070949
 20
91.60397389952887
 30
0.0
 10
167.3212695443845
 20
91.60341687164575
 30
0.0
 10
167.3953610380983
 20
91.5933576664839
 30
0.0
 10
167.4307113318525
 20
91.58400378505934
 30
0.0
 10
167.5253056292419
 20
91.54961935862552
 30
0.0
 10
167.5754438023809
 20
91.51890762396269
 30
0.0
 10
167.7046370739621
 20
91.42297831392466
 30
0.0
 10
167.7629172187032
 20
91.35446281980738
 30
0.0
 10
167.8631123151267
 20
91.21789086987476
 30
0.0
 10
167.9031275665733
 20
91.14912596737186
 30
0.0
 10
167.9715269873911
 20
91.01409053826417
 30
0.0
 10
167.999888711253
 20
90.94747251221102
 30
0.0
 10
168.024442623859
 20
90.8819140445148
 30
0.0
  0
SPLINE
  5
13B
330
1F
100
AcDbEntity
  8
0
  6
HIDDEN
 62
     7
370
     0
100
AcDbSpline
210
0.0
220
0.0
230
1.0
 70
     8
 71
     3
 72
    14
 73
    10
 74
     0
 42
0.00000001
 43
0.00000001
 40
0.0
 40
0.0
 40
0.0
 40
0.0
 40
0.25
 40
0.25
 40
0.5
 40
0.5
 40
0.75
 40
0.75
 40
1.0
 40
1.0
 40
1.0
 40
1.0
 10
168.024442623859
 20
90.8819140445148
 30
0.0
 10
168.0628790086799
 20
90.77928964680329
 30
0.0
 10
168.1316804020718
 20
90.68009322336371
 30
0.0
 10
168.2749664142308
 20
90.4892011940372
 30
0.0
 10
168.3501484693377
 20
90.39694392800429
 30
0.0
 10
168.4823357579878
 20
90.21733660618929
 30
0.0
 10
168.5398529534576
 20
90.13002705174493
 30
0.0
 10
168.6218977517499
 20
89.96009321822919
 30
0.0
 10
168.6460468605987
 20
89.87819087635803
 30
0.0
 10
168.6460468605987
 20
89.80113700252213
 30
0.0
  0
LINE
  5
13C
330
1F
100
AcDbEntity
  8
0
  6
HIDDEN
 62
     7
370
     0
100
AcDbLine
 10
168.6460468606
 20
89.8011370025
 30
0.0
 11
168.6460468606
 21
88.517838368
 31
0.0
  0
LINE
  5
13D
330
1F
100
AcDbEntity
  8
0
  6
HIDDEN
 62
     7
370
     0
100
AcDbLine
 10
164.6460468606
 20
134.774331354
 30
0.0
 11
164.6460468606
 21
133.5903929342
 31
0.0
  0
SPLINE
  5
13E
330
1F
100
AcDbEntity
  8
0
  6
HIDDEN
 62
     7
370
     0
100
AcDbSpline
210
0.0
220
0.0
230
1.0
 70
     8
 71
     3
 72
    18
 73
    14
 74
     0
 42
0.00000001
 43
0.00000001
 40
0.0
 40
0.0
 40
0.0
 40
0.0
 40
0.2500000000000006
 40
0.2500000000000006
 40
0.5000000000000011
 40
0.5000000000000011
 40
0.7500000000000017
 40
0.7500000000000017
 40
0.8750000000000013
 40
0.8750000000000013
 40
0.9375000000000008
 40
0.9375000000000008
 40
1.0
 40
1.0
 40
1.0
 40
1.0
 10
164.6460468605987
 20
133.590392934161
 30
0.0
 10
164.6460468605987
 20
133.5071860253038
 30
0.0
 10
164.6101977606604
 20
133.4184493699902
 30
0.0
 10
164.4853260246265
 20
133.23632417943
 30
0.0
 10
164.3949256069787
 20
133.1411941308034
 30
0.0
 10
164.1726829522365
 20
132.952012621679
 30
0.0
 10
164.0429181657907
 20
132.8570674535844
 30
0.0
 10
163.8022807084792
 20
132.7187887460044
 30
0.0
 10
163.7145134103417
 20
132.673078312702
 30
0.0
 10
163.5599893231349
 20
132.6152550074806
 30
0.0
 10
163.5033784370802
 20
132.5975402434427
 30
0.0
 10
163.3793344061736
 20
132.5730009402098
 30
0.0
 10
163.3116197311553
 20
132.5670218016715
 30
0.0
 10
163.2460468605987
 20
132.5693726536258
 30
0.0
  0
SPLINE
  5
13F
330
1F
100
AcDbEntity
  8
0
  6
HIDDEN
 62
     7
370
     0
100
AcDbSpline
210
0.0
220
0.0
230
1.0
 70
     8
 71
     3
 72
    10
 73
     6
 74
     0
 42
0.00000001
 43
0.00000001
 40
0.0
 40
0.0
 40
0.0
 40
0.0
 40
0.5
 40
0.5
 40
1.0
 40
1.0
 40
1.0
 40
1.0
 10
163.2460468605987
 20
132.5693726536257
 30
0.0
 10
162.6584613135081
 20
132.5904381738622
 30
0.0
 10
162.0677149200477
 20
132.6011966597344
 30
0.0
 10
160.8836957547489
 20
132.6145614402701
 30
0.0
 10
160.2902817665434
 20
132.6167040829346
 30
0.0
 10
159.6960468605987
 20
132.6162230271931
 30
0.0
  0
SPLINE
  5
140
330
1F
100
AcDbEntity
  8
0
  6
HIDDEN
 62
     7
370
     0
100
AcDbSpline
210
0.0
220
0.0
230
1.0
 70
     8
 71
     3
 72
     8
 73
     4
 74
     0
 42
0.00000001
 43
0.00000001
 40
0.0000005099763571
 40
0.0000005099763571
 40
0.0000005099763571
 40
0.0000005099763571
 40
0.0000262827998697
 40
0.0000262827998697
 40
0.0000262827998697
 40
0.0000262827998697
 10
159.6960468605987
 20
132.6162230271931
 30
0.0
 10
159.6926781213709
 20
132.6129013582372
 30
0.0
 10
159.6893296683918
 20
132.6095734009584
 30
0.0
 10
159.6860019301805
 20
132.6062391540857
 30
0.0
  0
SPLINE
  5
141
330
1F
100
AcDbEntity
  8
0
  6
HIDDEN
 62
     7
370
     0
100
AcDbSpline
210
0.0
220
0.0
230
1.0
 70
     8
 71
     3
 72
     8
 73
     4
 74
     0
 42
0.00000001
 43
0.00000001
 40
0.0000005954826279
 40
0.0000005954826279
 40
0.0000005954826279
 40
0.0000005954826279
 40
0.0000302093805348
 40
0.0000302093805348
 40
0.0000302093805348
 40
0.0000302093805348
 10
159.6860019301891
 20
90.95146883292234
 30
0.0
 10
159.6893179575093
 20
90.94752205332655
 30
0.0
 10
159.6926665089016
 20
90.94358366219663
 30
0.0
 10
159.6960468605986
 20
90.93965370327045
 30
0.0
  0
SPLINE
  5
142
330
1F
100
AcDbEntity
  8
0
  6
HIDDEN
 62
     7
370
     0
100
AcDbSpline
210
0.0
220
0.0
230
1.0
 70
     8
 71
     3
 72
    12
 73
     8
 74
     0
 42
0.00000001
 43
0.00000001
 40
0.0
 40
0.0
 40
0.0
 40
0.0
 40
0.1192152782090136
 40
0.2486291495149586
 40
0.5007186954388804
 40
0.7537054055439847
 40
1.0
 40
1.0
 40
1.0
 40
1.0
 10
178.4411970651703
 20
88.22168563897625
 30
0.0
 10
178.3590543671006
 20
88.2139496874769
 30
0.0
 10
178.1877418519034
 20
88.19781599160443
 30
0.0
 10
177.8213878881706
 20
88.1648412958157
 30
0.0
 10
177.5166248659141
 20
88.12666379378764
 30
0.0
 10
177.2582464074306
 20
88.09478783665062
 30
0.0
 10
177.2292543994255
 20
88.09076251657311
 30
0.0
 10
177.2149526925744
 20
88.08877683321788
 30
0.0
  0
SPLINE
  5
143
330
1F
100
AcDbEntity
  8
0
  6
HIDDEN
 62
     7
370
     0
100
AcDbSpline
210
0.0
220
0.0
230
1.0
 70
     8
 71
     3
 72
    20
 73
    16
 74
     0
 42
0.00000001
 43
0.00000001
 40
0.0
 40
0.0
 40
0.0
 40
0.0
 40
0.0014371417843424
 40
0.0850458908086339
 40
0.1697599742259439
 40
0.254098364378771
 40
0.3373295355548649
 40
0.4202346307100777
 40
0.5035601638150926
 40
0.5868465105665923
 40
0.6687600060933068
 40
0.750734579201687
 40
0.8338925024192405
 40
0.9172623649586593
 40
1.0
 40
1.0
 40
1.0
 40
1.0
 10
185.6291134780494
 20
87.6672271448744
 30
0.0
 10
185.6295664478268
 20
87.66712331904571
 30
0.0
 10
185.6563718880767
 20
87.66097920704117
 30
0.0
 10
185.5603433766241
 20
87.68307602914574
 30
0.0
 10
185.3272978394567
 20
87.73495565906626
 30
0.0
 10
184.933512773613
 20
87.82001279714521
 30
0.0
 10
184.4090543952376
 20
87.921768046344
 30
0.0
 10
183.770091085011
 20
88.02966425059579
 30
0.0
 10
183.0369258316202
 20
88.13071016604546
 30
0.0
 10
182.2443626187039
 20
88.21511932148653
 30
0.0
 10
181.4196138249312
 20
88.27252294277899
 30
0.0
 10
180.5928965669169
 20
88.2992810151141
 30
0.0
 10
179.7985892066533
 20
88.2948457537938
 30
0.0
 10
179.0551597681082
 20
88.26753027210196
 30
0.0
 10
178.6453313454329
 20
88.23692835835031
 30
0.0
 10
178.4411970651703
 20
88.22168563897625
 30
0.0
  0
SPLINE
  5
144
330
1F
100
AcDbEntity
  8
0
  6
HIDDEN
 62
     7
370
     0
100
AcDbSpline
210
0.0
220
0.0
230
1.0
 70
     8
 71
     3
 72
    20
 73
    16
 74
     0
 42
0.00000001
 43
0.00000001
 40
0.0
 40
0.0
 40
0.0
 40
0.0
 40
0.0828182133813295
 40
0.1661936881157299
 40
0.24938528253704
 40
0.3315155124772278
 40
0.4133807586231846
 40
0.496835608114876
 40
0.5800413781711403
 40
0.6629790154186292
 40
0.7460493132171995
 40
0.8302847957804697
 40
0.9148461952092952
 40
0.9984038487566715
 40
1.0
 40
1.0
 40
1.0
 40
1.0
 10
178.4411043448885
 20
135.2708682917797
 30
0.0
 10
178.6457561015881
 20
135.2556782546128
 30
0.0
 10
179.0564366612938
 20
135.2251959706282
 30
0.0
 10
179.8001619529973
 20
135.1978854954191
 30
0.0
 10
180.5951214376758
 20
135.1934726184309
 30
0.0
 10
181.4222500762385
 20
135.2201409109132
 30
0.0
 10
182.247991811738
 20
135.277604913139
 30
0.0
 10
183.0402688086728
 20
135.3621924391707
 30
0.0
 10
183.7730922665365
 20
135.4633660362578
 30
0.0
 10
184.4110017586035
 20
135.571151596772
 30
0.0
 10
184.9348567205588
 20
135.6727589689457
 30
0.0
 10
185.3280012057972
 20
135.7576489983197
 30
0.0
 10
185.5606637959486
 20
135.8094842595584
 30
0.0
 10
185.6567340367764
 20
135.8315865764431
 30
0.0
 10
185.6295679180133
 20
135.8254296438481
 30
0.0
 10
185.6290587072464
 20
135.8253142362554
 30
0.0
  0
SPLINE
  5
145
330
1F
100
AcDbEntity
  8
0
  6
HIDDEN
 62
     7
370
     0
100
AcDbSpline
210
0.0
220
0.0
230
1.0
 70
     8
 71
     3
 72
    12
 73
     8
 74
     0
 42
0.00000001
 43
0.00000001
 40
0.0
 40
0.0
 40
0.0
 40
0.0
 40
0.2468412763863432
 40
0.4995707343914293
 40
0.7516700890846412
 40
0.8176861511894875
 40
1.0
 40
1.0
 40
1.0
 40
1.0
 10
177.2145476026676
 20
135.4038248455981
 30
0.0
 10
177.2286612196819
 20
135.4018063648905
 30
0.0
 10
177.2572251216351
 20
135.3977212543929
 30
0.0
 10
177.5180146308604
 20
135.3657231762494
 30
0.0
 10
177.7849030449787
 20
135.3314563791481
 30
0.0
 10
178.1435805152244
 20
135.2987644687269
 30
0.0
 10
178.3151470698233
 20
135.2826781909632
 30
0.0
 10
178.4411043448885
 20
135.2708682917797
 30
0.0
  0
LINE
  5
146
330
1F
100
AcDbEntity
  8
0
  6
HIDDEN
 62
     7
370
     0
100
AcDbLine
 10
158.5460468606
 20
92.0931247368
 30
0.0
 11
158.5525666585
 21
92.0954668192
 31
0.0
  0
SPLINE
  5
147
330
1F
100
AcDbEntity
  8
0
  6
HIDDEN
 62
     7
370
     0
100
AcDbSpline
210
0.0
220
0.0
230
1.0
 70
     8
 71
     3
 72
    80
 73
    76
 74
     0
 42
0.00000001
 43
0.00000001
 40
0.0
 40
0.0
 40
0.0
 40
0.0
 40
0.0156250000000003
 40
0.0156250000000003
 40
0.0312500000000007
 40
0.0312500000000007
 40
0.046875000000001
 40
0.046875000000001
 40
0.0625000000000014
 40
0.0625000000000014
 40
0.093750000000002
 40
0.093750000000002
 40
0.1250000000000026
 40
0.1250000000000026
 40
0.1562500000000031
 40
0.1562500000000031
 40
0.1875000000000037
 40
0.1875000000000037
 40
0.2187500000000043
 40
0.2187500000000043
 40
0.2500000000000049
 40
0.2500000000000049
 40
0.2656250000000051
 40
0.2656250000000051
 40
0.2812500000000053
 40
0.2812500000000053
 40
0.3125000000000054
 40
0.3125000000000054
 40
0.3437500000000057
 40
0.3437500000000057
 40
0.3750000000000058
 40
0.3750000000000058
 40
0.4375000000000064
 40
0.4375000000000064
 40
0.4687500000000068
 40
0.4687500000000068
 40
0.4843750000000069
 40
0.4843750000000069
 40
0.5000000000000069
 40
0.5000000000000069
 40
0.515625000000007
 40
0.515625000000007
 40
0.5312500000000071
 40
0.5312500000000071
 40
0.5625000000000064
 40
0.5625000000000064
 40
0.5937500000000058
 40
0.5937500000000058
 40
0.6250000000000051
 40
0.6250000000000051
 40
0.6562500000000046
 40
0.6562500000000046
 40
0.6875000000000039
 40
0.6875000000000039
 40
0.7187500000000032
 40
0.7187500000000032
 40
0.750000000000003
 40
0.750000000000003
 40
0.7812500000000028
 40
0.7812500000000028
 40
0.8125000000000026
 40
0.8125000000000026
 40
0.8750000000000021
 40
0.8750000000000021
 40
0.9062500000000018
 40
0.9062500000000018
 40
0.9375000000000013
 40
0.9375000000000013
 40
0.953125000000001
 40
0.953125000000001
 40
0.9687500000000007
 40
0.9687500000000007
 40
0.9843750000000003
 40
0.9843750000000003
 40
1.0
 40
1.0
 40
1.0
 40
1.0
 10
221.6893696387711
 20
118.8935868395163
 30
0.0
 10
221.7223689065199
 20
118.8701744703235
 30
0.0
 10
221.7428845105782
 20
118.8389227459881
 30
0.0
 10
221.7423767749169
 20
118.7512849629148
 30
0.0
 10
221.7214099451825
 20
118.6973124381978
 30
0.0
 10
221.6562610530788
 20
118.5841020416672
 30
0.0
 10
221.6136060040365
 20
118.5262668748475
 30
0.0
 10
221.5183334988265
 20
118.4122118479557
 30
0.0
 10
221.4652515878909
 20
118.3557399192681
 30
0.0
 10
221.2981529348411
 20
118.1935631358424
 30
0.0
 10
221.1757872806475
 20
118.0941235144952
 30
0.0
 10
220.9159708721148
 20
117.9163814187051
 30
0.0
 10
220.7782408464612
 20
117.8379576485279
 30
0.0
 10
220.486784771462
 20
117.7070150331254
 30
0.0
 10
220.335902840519
 20
117.6558699113401
 30
0.0
 10
220.0257768665762
 20
117.5882732382141
 30
0.0
 10
219.8641819325219
 20
117.571662057376
 30
0.0
 10
219.5404490727186
 20
117.5833192435837
 30
0.0
 10
219.3790694555463
 20
117.6109586836565
 30
0.0
 10
219.0588982459995
 20
117.7209938936204
 30
0.0
 10
218.9083094364942
 20
117.8006597390975
 30
0.0
 10
218.6980432108704
 20
117.9600939605037
 30
0.0
 10
218.6300372448755
 20
118.0206444444923
 30
0.0
 10
218.5044450321343
 20
118.1513129035303
 30
0.0
 10
218.4463634952163
 20
118.2216410050079
 30
0.0
 10
218.2856793268673
 20
118.4469410832772
 30
0.0
 10
218.1970893241725
 20
118.6169238240777
 30
0.0
 10
218.0624289903618
 20
118.9709819231365
 30
0.0
 10
218.0147537783491
 20
119.1585512535955
 30
0.0
 10
217.9558699177169
 20
119.532411315502
 30
0.0
 10
217.9436938029848
 20
119.7210002389064
 30
0.0
 10
217.9518516396344
 20
120.2910428516011
 30
0.0
 10
218.0137361453107
 20
120.6555350585609
 30
0.0
 10
218.1808859138832
 20
121.1871888070568
 30
0.0
 10
218.2488747214382
 20
121.3608241329333
 30
0.0
 10
218.3770836639012
 20
121.6126214276132
 30
0.0
 10
218.4239718725723
 20
121.6945482942422
 30
0.0
 10
218.5308810754802
 20
121.8517474082404
 30
0.0
 10
218.591776492841
 20
121.9273914613148
 30
0.0
 10
218.7254356563665
 20
122.0542405716194
 30
0.0
 10
218.7963813556163
 20
122.103200388331
 30
0.0
 10
218.9356751801951
 20
122.1745213836087
 30
0.0
 10
219.0033861314858
 20
122.1979244832551
 30
0.0
 10
219.2076022259415
 20
122.2503415159189
 30
0.0
 10
219.3424927122473
 20
122.2612592819277
 30
0.0
 10
219.6196826026535
 20
122.2613908095291
 30
0.0
 10
219.7621108180199
 20
122.2494061686689
 30
0.0
 10
220.0596182139586
 20
122.2046433926481
 30
0.0
 10
220.2136770505326
 20
122.1716961891056
 30
0.0
 10
220.5277799937712
 20
122.0857009385944
 30
0.0
 10
220.6887516065776
 20
122.0325437769069
 30
0.0
 10
221.0214465512117
 20
121.9017761260473
 30
0.0
 10
221.1877459023823
 20
121.8262534633879
 30
0.0
 10
221.5196588203904
 20
121.6521973475557
 30
0.0
 10
221.6854125689341
 20
121.5531140415551
 30
0.0
 10
221.9954569773254
 20
121.3402269734305
 30
0.0
 10
222.1433227007192
 20
121.2237163370773
 30
0.0
 10
222.4007791713269
 20
120.9889799616004
 30
0.0
 10
222.5143182556286
 20
120.8672584013762
 30
0.0
 10
222.6979429935266
 20
120.6332912247903
 30
0.0
 10
222.7703814830064
 20
120.5184155910901
 30
0.0
 10
222.9286096485216
 20
120.1980212668158
 30
0.0
 10
222.9597001220918
 20
120.0105113449659
 30
0.0
 10
222.9313728735318
 20
119.7827464361964
 30
0.0
 10
222.909554361845
 20
119.7149721871395
 30
0.0
 10
222.8459559628273
 20
119.5972684902681
 30
0.0
 10
222.8042644826309
 20
119.547742349651
 30
0.0
 10
222.7343022665337
 20
119.4949575170712
 30
0.0
 10
222.7096886624452
 20
119.4809314550974
 30
0.0
 10
222.6611025217509
 20
119.4647132689394
 30
0.0
 10
222.6371814171571
 20
119.4623216690136
 30
0.0
 10
222.5984990014755
 20
119.4811661911477
 30
0.0
 10
222.5847317633986
 20
119.5034644803095
 30
0.0
 10
222.5821579899625
 20
119.5858555334953
 30
0.0
 10
222.5934926114175
 20
119.6447791800625
 30
0.0
 10
222.6114271545445
 20
119.7128261280007
 30
0.0
  0
SPLINE
  5
148
330
1F
100
AcDbEntity
  8
0
  6
HIDDEN
 62
     7
370
     0
100
AcDbSpline
210
0.0
220
0.0
230
1.0
 70
     8
 71
     3
 72
    10
 73
     6
 74
     0
 42
0.00000001
 43
0.00000001
 40
0.0
 40
0.0
 40
0.0
 40
0.0
 40
0.5
 40
0.5
 40
1.0
 40
1.0
 40
1.0
 40
1.0
 10
222.6114271545212
 20
119.7128261280071
 30
0.0
 10
222.4571882302592
 20
119.5966884595401
 30
0.0
 10
222.3024916030851
 20
119.4718524534846
 30
0.0
 10
221.9942198000498
 20
119.1984347464973
 30
0.0
 10
221.8398666453141
 20
119.0488294725673
 30
0.0
 10
221.6893696386696
 20
118.8935868394799
 30
0.0
  0
LWPOLYLINE
  5
149
330
1F
100
AcDbEntity
  8
0
  6
HIDDEN
 62
     7
370
     0
100
AcDbPolyline
 90
       27
 70
   128
 43
0.0
 10
216.3484673662
 20
120.4730332636
 10
216.5349587576
 20
120.5429747342
 10
216.8077344255
 20
120.5007928028
 10
217.1509416398
 20
120.34893893
 10
217.5446344445
 20
120.0962383109
 10
217.9659328449
 20
119.7573769869
 10
218.3903525094
 20
119.3520483464
 10
218.7932277096
 20
118.9038086168
 10
219.1511448035
 20
118.4387078619
 10
219.4433029504
 20
117.9837760469
 10
219.6527229808
 20
117.5654521553
 10
219.7672341638
 20
117.2080476512
 10
219.7801815256
 20
116.9323335852
 10
219.6908126126
 20
116.7543334567
 10
219.5043212212
 20
116.684391986
 10
219.2315455533
 20
116.7265739174
 10
218.888338339
 20
116.8784277902
 10
218.4946455343
 20
117.1311284093
 10
218.0733471339
 20
117.4699897333
 10
217.6489274694
 20
117.8753183738
 10
217.2460522692
 20
118.3235581034
 10
216.8881351753
 20
118.7886588583
 10
216.5959770284
 20
119.2435906733
 10
216.386556998
 20
119.6619145649
 10
216.272045815
 20
120.019319069
 10
216.2590984532
 20
120.295033135
 10
216.3484673662
 20
120.4730332636
  0
SPLINE
  5
14A
330
1F
100
AcDbEntity
  8
0
  6
HIDDEN
 62
     7
370
     0
100
AcDbSpline
210
0.0
220
0.0
230
1.0
 70
    11
 71
     3
 72
    56
 73
    52
 74
     0
 42
0.00000001
 43
0.00000001
 40
0.0
 40
0.0
 40
0.0
 40
0.0
 40
0.0624999999999997
 40
0.0624999999999997
 40
0.0937499999999995
 40
0.0937499999999995
 40
0.1249999999999994
 40
0.1249999999999994
 40
0.1562499999999993
 40
0.1562499999999993
 40
0.1874999999999992
 40
0.1874999999999992
 40
0.2187499999999991
 40
0.2187499999999991
 40
0.2499999999999989
 40
0.2499999999999989
 40
0.3124999999999989
 40
0.3124999999999989
 40
0.3437499999999989
 40
0.3437499999999989
 40
0.3749999999999988
 40
0.3749999999999988
 40
0.4062499999999987
 40
0.4062499999999987
 40
0.4374999999999987
 40
0.4374999999999987
 40
0.4687499999999987
 40
0.4687499999999987
 40
0.4999999999999987
 40
0.4999999999999987
 40
0.5624999999999987
 40
0.5624999999999987
 40
0.6249999999999987
 40
0.6249999999999987
 40
0.6874999999999987
 40
0.6874999999999987
 40
0.7187499999999987
 40
0.7187499999999987
 40
0.7499999999999987
 40
0.7499999999999987
 40
0.7812499999999988
 40
0.7812499999999988
 40
0.8124999999999988
 40
0.8124999999999988
 40
0.8749999999999992
 40
0.8749999999999992
 40
0.9374999999999997
 40
0.9374999999999997
 40
0.9687499999999999
 40
0.9687499999999999
 40
1.0
 40
1.0
 40
1.0
 40
1.0
 10
184.2010488622003
 20
91.90875678598158
 30
0.0
 10
183.9452615516525
 20
91.94428008987512
 30
0.0
 10
183.6550717447092
 20
91.97982395884335
 30
0.0
 10
183.1684186464185
 20
92.02629565875223
 30
0.0
 10
182.9980728042573
 20
92.04054157198372
 30
0.0
 10
182.6510993941662
 20
92.06482948618213
 30
0.0
 10
182.4731614969315
 20
92.07500583250417
 30
0.0
 10
182.1082422193718
 20
92.09068116010808
 30
0.0
 10
181.9199076272764
 20
92.09616812132094
 30
0.0
 10
181.5460207748209
 20
92.10162811559668
 30
0.0
 10
181.359330560651
 20
92.10168633885584
 30
0.0
 10
180.9864520697318
 20
92.09650219687904
 30
0.0
 10
180.7987478268094
 20
92.09118671840761
 30
0.0
 10
180.4318289272619
 20
92.0756843373843
 30
0.0
 10
180.2533791851974
 20
92.06558492962364
 30
0.0
 10
179.7325902818366
 20
92.02945308796973
 30
0.0
 10
179.4017065621657
 20
91.99702386695165
 30
0.0
 10
178.9652050038341
 20
91.94549737558455
 30
0.0
 10
178.8284194647815
 20
91.92777276454058
 30
0.0
 10
178.5726948553277
 20
91.89237843803127
 30
0.0
 10
178.4550711272221
 20
91.8748819166507
 30
0.0
 10
178.2450016740335
 20
91.84217952066216
 30
0.0
 10
178.1516668353484
 20
91.82684771171611
 30
0.0
 10
177.9887211246693
 20
91.79925155236731
 30
0.0
 10
177.9190181618195
 20
91.78696486925368
 30
0.0
 10
177.8083950954874
 20
91.76711987746724
 30
0.0
 10
177.7667134238769
 20
91.75943376494055
 30
0.0
 10
177.7105382835017
 20
91.74901638456332
 30
0.0
 10
177.6961000077411
 20
91.74629522688684
 30
0.0
 10
177.6959410126385
 20
91.74626541530624
 30
0.0
 10
177.7516003503753
 20
91.75692754545423
 30
0.0
 10
177.9744251109097
 20
91.79690821718921
 30
0.0
 10
178.1363373965034
 20
91.82524446882151
 30
0.0
 10
178.5601289552392
 20
91.89125537778156
 30
0.0
 10
178.8149753777864
 20
91.92771525057279
 30
0.0
 10
179.2536190379002
 20
91.97956677355914
 30
0.0
 10
179.4103165741796
 20
91.99645440761911
 30
0.0
 10
179.7335165239582
 20
92.02714782824005
 30
0.0
 10
179.9011900053785
 20
92.04110763518392
 30
0.0
 10
180.2487748715672
 20
92.06530706433509
 30
0.0
 10
180.4303383523861
 20
92.07560401316589
 30
0.0
 10
180.796524627195
 20
92.0911099600278
 30
0.0
 10
180.9811820430373
 20
92.09637594192479
 30
0.0
 10
181.5397784495957
 20
92.10429876518029
 30
0.0
 10
181.9221127910662
 20
92.09858464180667
 30
0.0
 10
182.6494099354346
 20
92.06752555564441
 30
0.0
 10
183.0051040095346
 20
92.04183691959443
 30
0.0
 10
183.4884162864856
 20
91.99576490938635
 30
0.0
 10
183.6421138937021
 20
91.97916275097003
 30
0.0
 10
183.9345361185452
 20
91.94454289575575
 30
0.0
 10
184.0731513417504
 20
91.92651897471737
 30
0.0
 10
184.2010488622003
 20
91.90875678598157
 30
0.0
  0
SPLINE
  5
14B
330
1F
100
AcDbEntity
  8
0
  6
HIDDEN
 62
     7
370
     0
100
AcDbSpline
210
0.0
220
0.0
230
1.0
 70
    11
 71
     3
 72
    56
 73
    52
 74
     0
 42
0.00000001
 43
0.00000001
 40
0.0
 40
0.0
 40
0.0
 40
0.0
 40
0.0624999999999999
 40
0.0624999999999999
 40
0.0937499999999999
 40
0.0937499999999999
 40
0.1249999999999999
 40
0.1249999999999999
 40
0.1562499999999999
 40
0.1562499999999999
 40
0.1875
 40
0.1875
 40
0.21875
 40
0.21875
 40
0.25
 40
0.25
 40
0.3125000000000003
 40
0.3125000000000003
 40
0.3437500000000004
 40
0.3437500000000004
 40
0.3750000000000006
 40
0.3750000000000006
 40
0.4062500000000007
 40
0.4062500000000007
 40
0.4375000000000008
 40
0.4375000000000008
 40
0.4687500000000009
 40
0.4687500000000009
 40
0.500000000000001
 40
0.500000000000001
 40
0.5625000000000012
 40
0.5625000000000012
 40
0.6250000000000014
 40
0.6250000000000014
 40
0.6875000000000018
 40
0.6875000000000018
 40
0.7187500000000017
 40
0.7187500000000017
 40
0.7500000000000017
 40
0.7500000000000017
 40
0.7812500000000017
 40
0.7812500000000017
 40
0.8125000000000016
 40
0.8125000000000016
 40
0.8750000000000012
 40
0.8750000000000012
 40
0.9375000000000008
 40
0.9375000000000008
 40
0.9687500000000003
 40
0.9687500000000003
 40
1.0
 40
1.0
 40
1.0
 40
1.0
 10
184.2010488622003
 20
131.5838137376145
 30
0.0
 10
183.9452615516525
 20
131.5482904337209
 30
0.0
 10
183.6550717447092
 20
131.5127465647527
 30
0.0
 10
183.1684186464185
 20
131.4662748648438
 30
0.0
 10
182.9980728042573
 20
131.4520289516123
 30
0.0
 10
182.6510993941662
 20
131.4277410374139
 30
0.0
 10
182.4731614969315
 20
131.4175646910919
 30
0.0
 10
182.1082422193718
 20
131.401889363488
 30
0.0
 10
181.9199076272764
 20
131.3964024022751
 30
0.0
 10
181.5460207748209
 20
131.3909424079994
 30
0.0
 10
181.359330560651
 20
131.3908841847402
 30
0.0
 10
180.9864520697318
 20
131.396068326717
 30
0.0
 10
180.7987478268094
 20
131.4013838051884
 30
0.0
 10
180.4318289272619
 20
131.4168861862117
 30
0.0
 10
180.2533791851974
 20
131.4269855939724
 30
0.0
 10
179.7325902818367
 20
131.4631174356263
 30
0.0
 10
179.4017065621657
 20
131.4955466566444
 30
0.0
 10
178.9652050038341
 20
131.5470731480115
 30
0.0
 10
178.8284194647815
 20
131.5647977590555
 30
0.0
 10
178.5726948553277
 20
131.6001920855648
 30
0.0
 10
178.4550711272221
 20
131.6176886069454
 30
0.0
 10
178.2450016740335
 20
131.6503910029339
 30
0.0
 10
178.1516668353484
 20
131.6657228118799
 30
0.0
 10
177.9887211246693
 20
131.6933189712287
 30
0.0
 10
177.9190181618195
 20
131.7056056543423
 30
0.0
 10
177.8083950954874
 20
131.7254506461288
 30
0.0
 10
177.7667134238769
 20
131.7331367586555
 30
0.0
 10
177.7105382835017
 20
131.7435541390327
 30
0.0
 10
177.6961000077411
 20
131.7462752967092
 30
0.0
 10
177.6959410126385
 20
131.7463051082898
 30
0.0
 10
177.7516003503753
 20
131.7356429781418
 30
0.0
 10
177.9744251109097
 20
131.6956623064068
 30
0.0
 10
178.1363373965034
 20
131.6673260547745
 30
0.0
 10
178.5601289552392
 20
131.6013151458145
 30
0.0
 10
178.8149753777864
 20
131.5648552730233
 30
0.0
 10
179.2536190379002
 20
131.5130037500369
 30
0.0
 10
179.4103165741796
 20
131.4961161159769
 30
0.0
 10
179.7335165239582
 20
131.465422695356
 30
0.0
 10
179.9011900053785
 20
131.4514628884122
 30
0.0
 10
180.2487748715672
 20
131.427263459261
 30
0.0
 10
180.4303383523861
 20
131.4169665104302
 30
0.0
 10
180.796524627195
 20
131.4014605635682
 30
0.0
 10
180.9811820430373
 20
131.3961945816712
 30
0.0
 10
181.5397784495957
 20
131.3882717584158
 30
0.0
 10
181.9221127910662
 20
131.3939858817894
 30
0.0
 10
182.6494099354346
 20
131.4250449679517
 30
0.0
 10
183.0051040095346
 20
131.4507336040016
 30
0.0
 10
183.4884162864856
 20
131.4968056142097
 30
0.0
 10
183.6421138937021
 20
131.513407772626
 30
0.0
 10
183.9345361185452
 20
131.5480276278403
 30
0.0
 10
184.0731513417504
 20
131.5660515488786
 30
0.0
 10
184.2010488622003
 20
131.5838137376145
 30
0.0
  0
SPLINE
  5
14C
330
1F
100
AcDbEntity
  8
0
  6
HIDDEN
 62
     7
370
     0
100
AcDbSpline
210
0.0
220
0.0
230
1.0
 70
    11
 71
     3
 72
    22
 73
    18
 74
     0
 42
0.00000001
 43
0.00000001
 40
0.0
 40
0.0
 40
0.0
 40
0.0
 40
0.1250000000000001
 40
0.1250000000000001
 40
0.2500000000000001
 40
0.2500000000000001
 40
0.3750000000000001
 40
0.3750000000000001
 40
0.5000000000000001
 40
0.5000000000000001
 40
0.6250000000000001
 40
0.6250000000000001
 40
0.7500000000000001
 40
0.7500000000000001
 40
0.8750000000000001
 40
0.8750000000000001
 40
1.0
 40
1.0
 40
1.0
 40
1.0
 10
184.2010488622003
 20
131.5838137376145
 30
0.0
 10
184.3599916911694
 20
131.6058874456616
 30
0.0
 10
184.5006832390598
 20
131.6225712636491
 30
0.0
 10
184.7466694765222
 20
131.6487929585314
 30
0.0
 10
184.8527075592035
 20
131.6583722643767
 30
0.0
 10
185.0231995997705
 20
131.6724515314559
 30
0.0
 10
185.0872522992342
 20
131.6769581077029
 30
0.0
 10
185.1737563503272
 20
131.6828222775409
 30
0.0
 10
185.1959898456874
 20
131.6841642100591
 30
0.0
 10
185.1961036516993
 20
131.6841713498087
 30
0.0
 10
185.174645723214
 20
131.6828787143224
 30
0.0
 10
185.088659930335
 20
131.6770572848122
 30
0.0
 10
185.0233457835855
 20
131.6724578155364
 30
0.0
 10
184.8543399496501
 20
131.6585127947265
 30
0.0
 10
184.7503809117743
 20
131.6491604078682
 30
0.0
 10
184.5028704655354
 20
131.6228319374018
 30
0.0
 10
184.3599863754517
 20
131.6058867074238
 30
0.0
 10
184.2010488622006
 20
131.5838137376146
 30
0.0
  0
SPLINE
  5
14D
330
1F
100
AcDbEntity
  8
0
  6
HIDDEN
 62
     7
370
     0
100
AcDbSpline
210
0.0
220
0.0
230
1.0
 70
    11
 71
     3
 72
    22
 73
    18
 74
     0
 42
0.00000001
 43
0.00000001
 40
0.0
 40
0.0
 40
0.0
 40
0.0
 40
0.125
 40
0.125
 40
0.2500000000000001
 40
0.2500000000000001
 40
0.3750000000000001
 40
0.3750000000000001
 40
0.5
 40
0.5
 40
0.625
 40
0.625
 40
0.7499999999999999
 40
0.7499999999999999
 40
0.875
 40
0.875
 40
1.0
 40
1.0
 40
1.0
 40
1.0
 10
184.2010488622003
 20
91.90875678598157
 30
0.0
 10
184.3599916911694
 20
91.88668307793452
 30
0.0
 10
184.5006832390598
 20
91.86999925994691
 30
0.0
 10
184.7466694765222
 20
91.84377756506461
 30
0.0
 10
184.8527075592035
 20
91.8341982592193
 30
0.0
 10
185.0231995997705
 20
91.82011899214014
 30
0.0
 10
185.0872522992342
 20
91.8156124158931
 30
0.0
 10
185.1737563503272
 20
91.8097482460552
 30
0.0
 10
185.1959898456874
 20
91.8084063135369
 30
0.0
 10
185.1961036516993
 20
91.8083991737874
 30
0.0
 10
185.174645723214
 20
91.80969180927362
 30
0.0
 10
185.088659930335
 20
91.81551323878382
 30
0.0
 10
185.0233457835855
 20
91.82011270805967
 30
0.0
 10
184.8543399496501
 20
91.83405772886951
 30
0.0
 10
184.7503809117743
 20
91.84341011572785
 30
0.0
 10
184.5028704655354
 20
91.86973858619426
 30
0.0
 10
184.3599863754517
 20
91.88668381617227
 30
0.0
 10
184.2010488622006
 20
91.90875678598147
 30
0.0
  0
LINE
  5
14E
330
1F
100
AcDbEntity
  8
0
  6
HIDDEN
 62
     7
370
     0
100
AcDbLine
 10
190.4460468606
 20
94.7462852618
 30
0.0
 11
190.4460468606
 21
128.7462852618
 31
0.0
  0
LINE
  5
14F
330
1F
100
AcDbEntity
  8
0
  6
HIDDEN
 62
     7
370
     0
100
AcDbLine
 10
202.6416672063
 20
131.5962852618
 30
0.0
 11
206.5621944838
 21
131.5962852618
 31
0.0
  0
LINE
  5
150
330
1F
100
AcDbEntity
  8
0
  6
HIDDEN
 62
     7
370
     0
100
AcDbLine
 10
210.3298992374
 20
131.5962852618
 30
0.0
 11
216.3960468606
 21
131.5962852618
 31
0.0
  0
LINE
  5
151
330
1F
100
AcDbEntity
  8
0
  6
HIDDEN
 62
     7
370
     0
100
AcDbLine
 10
171.4500214568
 20
128.7462852618
 30
0.0
 11
171.4500214568
 21
94.7462852618
 31
0.0
  0
SPLINE
  5
152
330
1F
100
AcDbEntity
  8
0
  6
HIDDEN
 62
     7
370
     0
100
AcDbSpline
210
0.0
220
0.0
230
1.0
 70
     8
 71
     3
 72
    64
 73
    60
 74
     0
 42
0.00000001
 43
0.00000001
 40
-0.0312499999999999
 40
-0.0312499999999999
 40
0.0
 40
0.0
 40
0.0312500000000001
 40
0.0312500000000001
 40
0.0625000000000002
 40
0.0625000000000002
 40
0.125000000000001
 40
0.125000000000001
 40
0.156250000000001
 40
0.156250000000001
 40
0.1875000000000009
 40
0.1875000000000009
 40
0.2187500000000008
 40
0.2187500000000008
 40
0.2500000000000008
 40
0.2500000000000008
 40
0.2812500000000007
 40
0.2812500000000007
 40
0.3125000000000007
 40
0.3125000000000007
 40
0.3750000000000007
 40
0.3750000000000007
 40
0.4062500000000007
 40
0.4062500000000007
 40
0.4375000000000006
 40
0.4375000000000006
 40
0.4687500000000006
 40
0.4687500000000006
 40
0.5000000000000006
 40
0.5000000000000006
 40
0.5312500000000006
 40
0.5312500000000006
 40
0.5625000000000006
 40
0.5625000000000006
 40
0.5937500000000007
 40
0.5937500000000007
 40
0.6250000000000007
 40
0.6250000000000007
 40
0.6562500000000007
 40
0.6562500000000007
 40
0.6875000000000007
 40
0.6875000000000007
 40
0.7187500000000006
 40
0.7187500000000006
 40
0.7500000000000004
 40
0.7500000000000004
 40
0.7812500000000004
 40
0.7812500000000004
 40
0.8125000000000003
 40
0.8125000000000003
 40
0.8750000000000002
 40
0.8750000000000002
 40
0.9062500000000002
 40
0.9062500000000002
 40
0.9375000000000002
 40
0.9375000000000002
 40
0.9687500000000001
 40
0.9687500000000001
 40
1.0
 40
1.0
 40
1.03125
 40
1.03125
 10
220.2763871712965
 20
115.5059774721559
 30
0.0
 10
220.6157065499009
 20
115.5059774721559
 30
0.0
 10
220.7813930747341
 20
115.4965847520341
 30
0.0
 10
221.1056291509083
 20
115.4593909254155
 30
0.0
 10
221.2654359866362
 20
115.4310627096531
 30
0.0
 10
221.7146108089784
 20
115.3190422968175
 30
0.0
 10
221.9840360250426
 20
115.2064297522412
 30
0.0
 10
222.3220710362397
 20
114.977806773984
 30
0.0
 10
222.4256272006389
 20
114.8901983344419
 30
0.0
 10
222.6060146912764
 20
114.6957578459988
 30
0.0
 10
222.6831610253392
 20
114.5892165384987
 30
0.0
 10
222.8106814361168
 20
114.3544473977285
 30
0.0
 10
222.8612049961569
 20
114.2243949249044
 30
0.0
 10
222.9281258240835
 20
113.9526900896301
 30
0.0
 10
222.9454848867218
 20
113.8101135123135
 30
0.0
 10
222.94658226333
 20
113.5104940021888
 30
0.0
 10
222.9298563418567
 20
113.3554180255206
 30
0.0
 10
222.8644520569567
 20
113.0476495527298
 30
0.0
 10
222.8149662052251
 20
112.8913791783454
 30
0.0
 10
222.6243537902763
 20
112.4376943858703
 30
0.0
 10
222.4397579941275
 20
112.1500263509219
 30
0.0
 10
222.1025418499218
 20
111.778108302874
 30
0.0
 10
221.9785139065358
 20
111.6623576332668
 30
0.0
 10
221.7126830381113
 20
111.4561047222463
 30
0.0
 10
221.5722659138837
 20
111.3663166544417
 30
0.0
 10
221.2746324314304
 20
111.2160824626664
 30
0.0
 10
221.1150682071412
 20
111.1551852625307
 30
0.0
 10
220.7894570281327
 20
111.0732694693486
 30
0.0
 10
220.6233447926003
 20
111.0515878762516
 30
0.0
 10
220.2838457453861
 20
111.0503297981976
 30
0.0
 10
220.1171723395284
 20
111.0708589118442
 30
0.0
 10
219.7912672912559
 20
111.150461553749
 30
0.0
 10
219.6311768820545
 20
111.2102703619645
 30
0.0
 10
219.330830654912
 20
111.3597397055124
 30
0.0
 10
219.187567205957
 20
111.4505286611136
 30
0.0
 10
218.9204283086742
 20
111.656332746623
 30
0.0
 10
218.797468851753
 20
111.7702824573362
 30
0.0
 10
218.5709568701399
 20
112.0183473169132
 30
0.0
 10
218.4671101577008
 20
112.15343238016
 30
0.0
 10
218.2869535791187
 20
112.4328552034624
 30
0.0
 10
218.2094558812948
 20
112.5782754973055
 30
0.0
 10
218.080977722827
 20
112.880486126605
 30
0.0
 10
218.0307529068337
 20
113.0368011443414
 30
0.0
 10
217.9639760860626
 20
113.343713180432
 30
0.0
 10
217.9464393847099
 20
113.4964521443728
 30
0.0
 10
217.945667237793
 20
113.7995146964034
 30
0.0
 10
217.9624338165607
 20
113.9433633827319
 30
0.0
 10
218.0283401204674
 20
114.2169612048315
 30
0.0
 10
218.0782936916048
 20
114.3474680624001
 30
0.0
 10
218.269371193878
 20
114.7028712720717
 30
0.0
 10
218.4546733199552
 20
114.8993729021182
 30
0.0
 10
218.7936626983384
 20
115.1292681041274
 30
0.0
 10
218.9188696114508
 20
115.1964475468596
 30
0.0
 10
219.1844022855736
 20
115.3094053231193
 30
0.0
 10
219.3251970816091
 20
115.3557946198957
 30
0.0
 10
219.6252601346052
 20
115.4307995301008
 30
0.0
 10
219.7854883763265
 20
115.4592405363431
 30
0.0
 10
220.1097757462469
 20
115.4965168379652
 30
0.0
 10
220.2763871712965
 20
115.5059774721559
 30
0.0
 10
220.6157065499009
 20
115.5059774721559
 30
0.0
  0
ARC
  5
153
330
1F
100
AcDbEntity
  8
0
  6
HIDDEN
 62
     7
370
     0
100
AcDbCircle
 10
220.6211751068
 20
121.0243541967
 30
0.0
 40
2.383528705168609
100
AcDbArc
 50
296.625485755
 51
326.6160819142
  0
LINE
  5
154
330
1F
100
AcDbEntity
  8
0
  6
HIDDEN
 62
     7
370
     0
100
AcDbLine
 10
158.5460468606
 20
95.716349864
 30
0.0
 11
158.5460468606
 21
127.7762206596
 31
0.0
  0
LINE
  5
155
330
1F
100
AcDbEntity
  8
0
  6
HIDDEN
 62
     7
370
     0
100
AcDbLine
 10
198.1058728291
 20
128.7462852618
 30
0.0
 11
198.1058728291
 21
94.7462852618
 31
0.0
  0
LINE
  5
156
330
1F
100
AcDbEntity
  8
0
  6
HIDDEN
 62
     7
370
     0
100
AcDbLine
 10
200.3960468606
 20
127.4712852608
 30
0.0
 11
200.3960468606
 21
96.0212852618
 31
0.0
  0
LWPOLYLINE
  5
157
330
1F
100
AcDbEntity
  8
0
  6
HIDDEN
 62
     7
370
     0
100
AcDbPolyline
 90
        2
 70
   128
 43
0.0
 10
200.3960468606
 20
96.0212852618
 10
200.3960468606
 20
96.0212852618
  0
LINE
  5
158
330
1F
100
AcDbEntity
  8
0
  6
HIDDEN
 62
     7
370
     0
100
AcDbLine
 10
159.6960468606
 20
95.9447948258
 30
0.0
 11
167.2460468606
 21
95.9447948258
 31
0.0
  0
LINE
  5
159
330
1F
100
AcDbEntity
  8
0
  6
HIDDEN
 62
     7
370
     0
100
AcDbLine
 10
159.6960468606
 20
127.5477756978
 30
0.0
 11
159.6960468606
 21
95.9447948258
 31
0.0
  0
LINE
  5
15A
330
1F
100
AcDbEntity
  8
0
  6
HIDDEN
 62
     7
370
     0
100
AcDbLine
 10
163.2460468606
 20
127.5477756978
 30
0.0
 11
159.6960468606
 21
127.5477756978
 31
0.0
  0
SPLINE
  5
15B
330
1F
100
AcDbEntity
  8
0
  6
HIDDEN
 62
     7
370
     0
100
AcDbSpline
210
0.0
220
0.0
230
1.0
 70
     8
 71
     3
 72
    18
 73
    14
 74
     0
 42
0.00000001
 43
0.00000001
 40
0.0
 40
0.0
 40
0.0
 40
0.0
 40
0.2500000000000002
 40
0.2500000000000002
 40
0.3750000000000002
 40
0.3750000000000002
 40
0.5000000000000003
 40
0.5000000000000003
 40
0.6250000000000004
 40
0.6250000000000004
 40
0.7500000000000004
 40
0.7500000000000004
 40
1.0
 40
1.0
 40
1.0
 40
1.0
 10
164.6460468605987
 20
128.0337988842022
 30
0.0
 10
164.6460468605987
 20
127.97932436365
 30
0.0
 10
164.6111361692066
 20
127.9229433042975
 30
0.0
 10
164.5091268678735
 20
127.838866463444
 30
0.0
 10
164.4674905131954
 20
127.8115327594531
 30
0.0
 10
164.3690847177066
 20
127.7585788438541
 30
0.0
 10
164.3115415060024
 20
127.7326914901369
 30
0.0
 10
164.1842433324294
 20
127.6849139453036
 30
0.0
 10
164.1146560276719
 20
127.6629660271258
 30
0.0
 10
163.963221782517
 20
127.6235334622131
 30
0.0
 10
163.880537879423
 20
127.6059772129872
 30
0.0
 10
163.6244264173849
 20
127.5635384475667
 30
0.0
 10
163.436511413497
 20
127.5477756978297
 30
0.0
 10
163.2460468605987
 20
127.5477756978297
 30
0.0
  0
LINE
  5
15C
330
1F
100
AcDbEntity
  8
0
  6
HIDDEN
 62
     7
370
     0
100
AcDbLine
 10
164.6460468606
 20
128.0337988842
 30
0.0
 11
164.6460468606
 21
128.7462852618
 31
0.0
  0
SPLINE
  5
15D
330
1F
100
AcDbEntity
  8
0
  6
HIDDEN
 62
     7
370
     0
100
AcDbSpline
210
0.0
220
0.0
230
1.0
 70
     8
 71
     3
 72
    18
 73
    14
 74
     0
 42
0.00000001
 43
0.00000001
 40
0.0
 40
0.0
 40
0.0
 40
0.0
 40
0.2500000000000012
 40
0.2500000000000012
 40
0.3750000000000011
 40
0.3750000000000011
 40
0.500000000000001
 40
0.500000000000001
 40
0.6250000000000009
 40
0.6250000000000009
 40
0.7500000000000008
 40
0.7500000000000008
 40
1.0
 40
1.0
 40
1.0
 40
1.0
 10
164.6460468605987
 20
128.0337988842022
 30
0.0
 10
164.6460468605987
 20
127.97932436365
 30
0.0
 10
164.6111361692065
 20
127.9229433042975
 30
0.0
 10
164.5091268678735
 20
127.838866463444
 30
0.0
 10
164.4674905131954
 20
127.8115327594531
 30
0.0
 10
164.3690847177066
 20
127.7585788438541
 30
0.0
 10
164.3115415060024
 20
127.7326914901369
 30
0.0
 10
164.1842433324294
 20
127.6849139453036
 30
0.0
 10
164.1146560276719
 20
127.6629660271258
 30
0.0
 10
163.963221782517
 20
127.6235334622131
 30
0.0
 10
163.880537879423
 20
127.6059772129872
 30
0.0
 10
163.6244264173849
 20
127.5635384475667
 30
0.0
 10
163.436511413497
 20
127.5477756978297
 30
0.0
 10
163.2460468605987
 20
127.5477756978297
 30
0.0
  0
LINE
  5
15E
330
1F
100
AcDbEntity
  8
0
  6
HIDDEN
 62
     7
370
     0
100
AcDbLine
 10
163.2460468606
 20
127.5477756978
 30
0.0
 11
159.6960468606
 21
127.5477756978
 31
0.0
  0
LINE
  5
15F
330
1F
100
AcDbEntity
  8
0
  6
HIDDEN
 62
     7
370
     0
100
AcDbLine
 10
159.6960468606
 20
95.9447948258
 30
0.0
 11
167.2460468606
 21
95.9447948258
 31
0.0
  0
SPLINE
  5
160
330
1F
100
AcDbEntity
  8
0
  6
HIDDEN
 62
     7
370
     0
100
AcDbSpline
210
0.0
220
0.0
230
1.0
 70
     8
 71
     3
 72
    16
 73
    12
 74
     0
 42
0.00000001
 43
0.00000001
 40
0.0
 40
0.0
 40
0.0
 40
0.0
 40
0.1250000000000013
 40
0.1250000000000013
 40
0.2500000000000026
 40
0.2500000000000026
 40
0.5000000000000018
 40
0.5000000000000018
 40
0.7500000000000009
 40
0.7500000000000009
 40
1.0
 40
1.0
 40
1.0
 40
1.0
 10
167.2460468605987
 20
95.94479482576635
 30
0.0
 10
167.3411686152645
 20
95.94479482576635
 30
0.0
 10
167.4344986839926
 20
95.94097899237357
 30
0.0
 10
167.6177604447306
 20
95.92620843964374
 30
0.0
 10
167.7086381602876
 20
95.91505039166817
 30
0.0
 10
167.9654398578074
 20
95.87257912152647
 30
0.0
 10
168.1205072226794
 20
95.83153292432365
 30
0.0
 10
168.374253684234
 20
95.73638680774177
 30
0.0
 10
168.4751241359018
 20
95.6816240736602
 30
0.0
 10
168.6103705505967
 20
95.57036294975632
 30
0.0
 10
168.6460468605987
 20
95.51319321242762
 30
0.0
 10
168.6460468605987
 20
95.4587716393939
 30
0.0
  0
LINE
  5
161
330
1F
100
AcDbEntity
  8
0
  6
HIDDEN
 62
     7
370
     0
100
AcDbLine
 10
168.6460468606
 20
95.4587716394
 30
0.0
 11
168.6460468606
 21
94.7462852618
 31
0.0
  0
SPLINE
  5
162
330
1F
100
AcDbEntity
  8
0
  6
HIDDEN
 62
     7
370
     0
100
AcDbSpline
210
0.0
220
0.0
230
1.0
 70
     8
 71
     3
 72
    16
 73
    12
 74
     0
 42
0.00000001
 43
0.00000001
 40
0.0
 40
0.0
 40
0.0
 40
0.0
 40
0.1250000000000017
 40
0.1250000000000017
 40
0.2500000000000033
 40
0.2500000000000033
 40
0.5000000000000022
 40
0.5000000000000022
 40
0.7500000000000011
 40
0.7500000000000011
 40
1.0
 40
1.0
 40
1.0
 40
1.0
 10
167.2460468605987
 20
95.94479482576637
 30
0.0
 10
167.3411686152645
 20
95.94479482576638
 30
0.0
 10
167.4344986839926
 20
95.94097899237357
 30
0.0
 10
167.6177604447306
 20
95.92620843964374
 30
0.0
 10
167.7086381602876
 20
95.91505039166817
 30
0.0
 10
167.9654398578074
 20
95.87257912152646
 30
0.0
 10
168.1205072226794
 20
95.83153292432365
 30
0.0
 10
168.374253684234
 20
95.73638680774177
 30
0.0
 10
168.4751241359018
 20
95.6816240736602
 30
0.0
 10
168.6103705505967
 20
95.5703629497563
 30
0.0
 10
168.6460468605987
 20
95.51319321242764
 30
0.0
 10
168.6460468605987
 20
95.45877163939392
 30
0.0
  0
LINE
  5
163
330
1F
100
AcDbEntity
  8
0
  6
HIDDEN
 62
     7
370
     0
100
AcDbLine
 10
159.6960468606
 20
95.9447948258
 30
0.0
 11
159.6960468606
 21
127.5477756978
 31
0.0
  0
LINE
  5
164
330
1F
100
AcDbEntity
  8
0
  6
HIDDEN
 62
     7
370
     0
100
AcDbLine
 10
159.6960468606
 20
93.7562852618
 30
0.0
 11
159.6960468606
 21
90.9337852618
 31
0.0
  0
LINE
  5
165
330
1F
100
AcDbEntity
  8
0
  6
HIDDEN
 62
     7
370
     0
100
AcDbLine
 10
168.6460468606
 20
93.7562852618
 30
0.0
 11
168.6460468606
 21
89.8011370025
 31
0.0
  0
LINE
  5
166
330
1F
100
AcDbEntity
  8
0
  6
HIDDEN
 62
     7
370
     0
100
AcDbLine
 10
159.6960468606
 20
129.7362852618
 30
0.0
 11
159.6960468606
 21
132.6162230272
 31
0.0
  0
LINE
  5
167
330
1F
100
AcDbEntity
  8
0
  6
HIDDEN
 62
     7
370
     0
100
AcDbLine
 10
158.5460468606
 20
129.7362852618
 30
0.0
 11
158.5460468606
 21
131.4369630083
 31
0.0
  0
LINE
  5
168
330
1F
100
AcDbEntity
  8
0
  6
HIDDEN
 62
     7
370
     0
100
AcDbLine
 10
158.5460468606
 20
93.7562852618
 30
0.0
 11
158.5460468606
 21
92.0931247368
 31
0.0
  0
LINE
  5
169
330
1F
100
AcDbEntity
  8
0
  6
HIDDEN
 62
     7
370
     0
100
AcDbLine
 10
164.6460468606
 20
129.7362852618
 30
0.0
 11
164.6460468606
 21
133.5903929342
 31
0.0
  0
ELLIPSE
  5
16A
330
1F
100
AcDbEntity
  8
0
  6
HIDDEN
 62
     7
370
     0
100
AcDbEllipse
 10
253.0895626929
 20
111.7462852618
 30
0.0
 11
19.21239144024992
 21
26.99711638407749
 31
0.0
210
0.0
220
0.0
230
1.0
 40
0.0205386817
 41
1.585411557947093
 42
3.15620788474257
  0
LINE
  5
16B
330
1F
100
AcDbEntity
  8
0
  6
HIDDEN
 62
     7
370
     0
100
AcDbLine
 10
232.713996053
 20
84.7462852618
 30
0.0
 11
232.713996053
 21
111.7462852618
 31
0.0
  0
SPLINE
  5
16C
330
1F
100
AcDbEntity
  8
0
  6
HIDDEN
 62
     7
370
     0
100
AcDbSpline
210
0.0
220
0.0
230
1.0
 70
     8
 71
     3
 72
    14
 73
    10
 74
     0
 42
0.00000001
 43
0.00000001
 40
0.0
 40
0.0
 40
0.0
 40
0.0
 40
0.2500000000000001
 40
0.2500000000000001
 40
0.5000000000000002
 40
0.5000000000000002
 40
0.7500000000000001
 40
0.7500000000000001
 40
1.0
 40
1.0
 40
1.0
 40
1.0
 10
236.5974952242284
 20
143.253484271637
 30
0.0
 10
236.067322571067
 20
140.6477251513053
 30
0.0
 10
235.563910491163
 20
138.0393954332442
 30
0.0
 10
234.6408035910327
 20
132.8146941889156
 30
0.0
 10
234.2210817985522
 20
130.1983252535798
 30
0.0
 10
233.5102704122577
 20
124.9532310841614
 30
0.0
 10
233.2197830328322
 20
122.3244480018809
 30
0.0
 10
232.8209804343485
 20
117.0493825357438
 30
0.0
 10
232.7139960530298
 20
114.4029723127548
 30
0.0
 10
232.7139960530298
 20
111.746285261798
 30
0.0
  0
LINE
  5
16D
330
1F
100
AcDbEntity
  8
0
  6
HIDDEN
 62
     7
370
     0
100
AcDbLine
 10
236.5974952242
 20
153.2397014799
 30
0.0
 11
236.5974952242
 21
143.2534842716
 31
0.0
  0
LINE
  5
16E
330
1F
100
AcDbEntity
  8
0
  6
HIDDEN
 62
     7
370
     0
100
AcDbLine
 10
209.7460468606
 20
121.2462852618
 30
0.0
 11
209.7460468606
 21
102.2462852618
 31
0.0
  0
LWPOLYLINE
  5
16F
330
1F
100
AcDbEntity
  8
0
  6
HIDDEN
 62
     7
370
     0
100
AcDbPolyline
 90
        2
 70
   128
 43
0.0
 10
209.7460468606
 20
102.2462852618
 10
209.7460468606
 20
102.2462852618
  0
LINE
  5
170
330
1F
100
AcDbEntity
  8
0
  6
HIDDEN
 62
     7
370
     0
100
AcDbLine
 10
212.2460468606
 20
121.2462852618
 30
0.0
 11
212.2460468606
 21
102.2462852618
 31
0.0
  0
LWPOLYLINE
  5
171
330
1F
100
AcDbEntity
  8
0
  6
HIDDEN
 62
     7
370
     0
100
AcDbPolyline
 90
        2
 70
   128
 43
0.0
 10
216.3960468606
 20
85.3462852618
 10
216.3960468606
 20
85.3462852618
  0
LINE
  5
172
330
1F
100
AcDbEntity
  8
0
  6
HIDDEN
 62
     7
370
     0
100
AcDbLine
 10
216.3960468606
 20
85.3462852618
 30
0.0
 11
210.2583720583
 21
85.3462852618
 31
0.0
  0
LINE
  5
173
330
1F
100
AcDbEntity
  8
0
  6
HIDDEN
 62
     7
370
     0
100
AcDbLine
 10
210.3560468606
 20
84.2484481027
 30
0.0
 11
210.3560468606
 21
84.9418896335
 31
0.0
  0
LINE
  5
174
330
1F
100
AcDbEntity
  8
0
  6
HIDDEN
 62
     7
370
     0
100
AcDbLine
 10
216.3960468606
 20
85.3462852618
 30
0.0
 11
216.3960468606
 21
82.1860078612
 31
0.0
  0
LINE
  5
175
330
1F
100
AcDbEntity
  8
0
  6
HIDDEN
 62
     7
370
     0
100
AcDbLine
 10
206.6337216629
 20
85.3462852618
 30
0.0
 11
203.3960468606
 21
85.3462852618
 31
0.0
  0
LINE
  5
176
330
1F
100
AcDbEntity
  8
0
  6
HIDDEN
 62
     7
370
     0
100
AcDbLine
 10
206.5360468606
 20
84.9418896335
 30
0.0
 11
206.5360468606
 21
84.2484481027
 31
0.0
  0
LINE
  5
177
330
1F
100
AcDbEntity
  8
0
  6
HIDDEN
 62
     7
370
     0
100
AcDbLine
 10
195.3960468606
 20
80.2621622789
 30
0.0
 11
195.3960468606
 21
85.3462852618
 31
0.0
  0
LINE
  5
178
330
1F
100
AcDbEntity
  8
0
  6
HIDDEN
 62
     7
370
     0
100
AcDbLine
 10
203.3960468606
 20
85.3462852618
 30
0.0
 11
195.3960468606
 21
85.3462852618
 31
0.0
  0
LINE
  5
179
330
1F
100
AcDbEntity
  8
0
  6
HIDDEN
 62
     7
370
     0
100
AcDbLine
 10
200.8960468606
 20
120.2462852618
 30
0.0
 11
200.8960468606
 21
103.2462852618
 31
0.0
  0
LINE
  5
17A
330
1F
100
AcDbEntity
  8
0
  6
HIDDEN
 62
     7
370
     0
100
AcDbLine
 10
200.3960468606
 20
102.7462852618
 30
0.0
 11
200.3960468606
 21
120.7277937966
 31
0.0
  0
LINE
  5
17B
330
1F
100
AcDbEntity
  8
0
  6
HIDDEN
 62
     7
370
     0
100
AcDbLine
 10
209.7460468606
 20
103.2462852618
 30
0.0
 11
209.7460468606
 21
120.2462852618
 31
0.0
  0
LWPOLYLINE
  5
17C
330
1F
100
AcDbEntity
  8
0
  6
HIDDEN
 62
     7
370
     0
100
AcDbPolyline
 90
        2
 70
   128
 43
0.0
 10
216.3960468606
 20
138.1462852618
 10
216.3960468606
 20
138.1462852618
  0
LINE
  5
17D
330
1F
100
AcDbEntity
  8
0
  6
HIDDEN
 62
     7
370
     0
100
AcDbLine
 10
206.9303443923
 20
138.1462852618
 30
0.0
 11
203.3960468606
 21
138.1462852618
 31
0.0
  0
LINE
  5
17E
330
1F
100
AcDbEntity
  8
0
  6
HIDDEN
 62
     7
370
     0
100
AcDbLine
 10
206.5360468606
 20
138.8659391128
 30
0.0
 11
206.5360468606
 21
139.551519453
 31
0.0
  0
LINE
  5
17F
330
1F
100
AcDbEntity
  8
0
  6
HIDDEN
 62
     7
370
     0
100
AcDbLine
 10
216.3960468606
 20
138.1462852618
 30
0.0
 11
209.9617493289
 21
138.1462852618
 31
0.0
  0
LINE
  5
180
330
1F
100
AcDbEntity
  8
0
  6
HIDDEN
 62
     7
370
     0
100
AcDbLine
 10
210.3560468606
 20
139.551519453
 30
0.0
 11
210.3560468606
 21
138.8659391128
 31
0.0
  0
LINE
  5
181
330
1F
100
AcDbEntity
  8
0
  6
HIDDEN
 62
     7
370
     0
100
AcDbLine
 10
216.3960468606
 20
138.1462852618
 30
0.0
 11
216.3960468606
 21
141.5927255856
 31
0.0
  0
LINE
  5
182
330
1F
100
AcDbEntity
  8
0
  6
HIDDEN
 62
     7
370
     0
100
AcDbLine
 10
203.3960468606
 20
138.1462852618
 30
0.0
 11
195.3960468606
 21
138.1462852618
 31
0.0
  0
ELLIPSE
  5
183
330
1F
100
AcDbEntity
  8
0
  6
HIDDEN
 62
     7
370
     0
100
AcDbEllipse
 10
154.3786149963
 20
111.7462852618
 30
0.0
 11
20.07002071827054
 21
-1.421085471520200E-14
 31
0.0
210
0.0
220
0.0
230
1.0
 40
0.8164965809
 41
4.921555463185702
 42
4.980534842098401
  0
LINE
  5
184
330
1F
100
AcDbEntity
  8
0
  6
HIDDEN
 62
     7
370
     0
100
AcDbLine
 10
158.5460468606
 20
93.7562852618
 30
0.0
 11
158.5460468606
 21
95.716349864
 31
0.0
  0
ELLIPSE
  5
185
330
1F
100
AcDbEntity
  8
0
  6
HIDDEN
 62
     7
370
     0
100
AcDbEllipse
 10
154.3786149963
 20
111.7462852618
 30
0.0
 11
20.07002071827051
 21
-1.421085471520200E-14
 31
0.0
210
0.0
220
0.0
230
1.0
 40
0.8164965809
 41
1.302650465081199
 42
1.361629843993899
  0
LINE
  5
186
330
1F
100
AcDbEntity
  8
0
  6
HIDDEN
 62
     7
370
     0
100
AcDbLine
 10
158.5460468606
 20
129.7362852618
 30
0.0
 11
158.5460468606
 21
127.7762206596
 31
0.0
  0
LINE
  5
187
330
1F
100
AcDbEntity
  8
0
  6
HIDDEN
 62
     7
370
     0
100
AcDbLine
 10
159.6960468606
 20
93.7562852618
 30
0.0
 11
159.6960468606
 21
95.9447948258
 31
0.0
  0
LINE
  5
188
330
1F
100
AcDbEntity
  8
0
  6
HIDDEN
 62
     7
370
     0
100
AcDbLine
 10
168.6460468606
 20
93.7562852618
 30
0.0
 11
168.6460468606
 21
95.4587716394
 31
0.0
  0
LINE
  5
189
330
1F
100
AcDbEntity
  8
0
  6
HIDDEN
 62
     7
370
     0
100
AcDbLine
 10
159.6960468606
 20
129.7362852618
 30
0.0
 11
159.6960468606
 21
127.5477756978
 31
0.0
  0
LINE
  5
18A
330
1F
100
AcDbEntity
  8
0
  6
HIDDEN
 62
     7
370
     0
100
AcDbLine
 10
164.6460468606
 20
129.7362852618
 30
0.0
 11
164.6460468606
 21
128.0337988842
 31
0.0
  0
SPLINE
  5
18B
330
1F
100
AcDbEntity
  8
0
  6
HIDDEN
 62
     7
370
     0
100
AcDbSpline
210
0.0
220
0.0
230
1.0
 70
    11
 71
     3
 72
    34
 73
    30
 74
     0
 42
0.00000001
 43
0.00000001
 40
0.0
 40
0.0
 40
0.0
 40
0.0
 40
0.0127738756313335
 40
0.0481305018861279
 40
0.080742501692392
 40
0.1375890913626838
 40
0.1884518731192192
 40
0.2226712138150606
 40
0.2626938372949106
 40
0.2986558359810497
 40
0.3315197765429451
 40
0.3878459718944463
 40
0.3881810911212397
 40
0.444092611332578
 40
0.4768435653244592
 40
0.5126448960710562
 40
0.5530084671478274
 40
0.5873855940016006
 40
0.6380121006395886
 40
0.6949796268749239
 40
0.7275539945507965
 40
0.7628079420080975
 40
0.8028703493977667
 40
0.83708315633781
 40
0.8877749825785547
 40
0.8880466652402733
 40
0.9388397946263322
 40
0.9729712758707674
 40
1.0
 40
1.0
 40
1.0
 40
1.0
 10
178.6060587730873
 20
88.67862340525897
 30
0.0
 10
178.6652524256928
 20
88.68471230904993
 30
0.0
 10
178.8882873362085
 20
88.70765460188665
 30
0.0
 10
179.4116397802035
 20
88.7442993545143
 30
0.0
 10
180.2844032525091
 20
88.77198338046927
 30
0.0
 10
181.399241136311
 20
88.76142780886117
 30
0.0
 10
182.5123065651267
 20
88.64528270179412
 30
0.0
 10
183.4067479784822
 20
88.52369196197758
 30
0.0
 10
184.0905831627392
 20
88.401933213924
 30
0.0
 10
184.6313327913073
 20
88.28557484500128
 30
0.0
 10
185.0447669340923
 20
88.1920905711855
 30
0.0
 10
185.2729141643638
 20
88.12545726224361
 30
0.0
 10
185.1183549009116
 20
88.16672646295459
 30
0.0
 10
185.0914789357168
 20
88.17919595425668
 30
0.0
 10
184.6357088007348
 20
88.28474243581732
 30
0.0
 10
184.1117873682271
 20
88.39748803886985
 30
0.0
 10
183.4255769830474
 20
88.52058699152325
 30
0.0
 10
182.5324643207322
 20
88.64257815315263
 30
0.0
 10
181.4190277542175
 20
88.76033078977255
 30
0.0
 10
180.3082771122824
 20
88.77230130746474
 30
0.0
 10
179.4235251032756
 20
88.74524386776945
 30
0.0
 10
178.7563292300637
 20
88.69731140910186
 30
0.0
 10
178.2150571920824
 20
88.6410187885279
 30
0.0
 10
177.827474514805
 20
88.59593268993541
 30
0.0
 10
177.6334614230903
 20
88.55705300838251
 30
0.0
 10
177.7597994396966
 20
88.57847888062024
 30
0.0
 10
177.7889551230378
 20
88.58839495717142
 30
0.0
 10
178.1604421363715
 20
88.63601333086305
 30
0.0
 10
178.4694832504103
 20
88.66556398893013
 30
0.0
 10
178.6060587730873
 20
88.67862340525897
 30
0.0
  0
SPLINE
  5
18C
330
1F
100
AcDbEntity
  8
0
  6
HIDDEN
 62
     7
370
     0
100
AcDbSpline
210
0.0
220
0.0
230
1.0
 70
     8
 71
     3
 72
    38
 73
    34
 74
     0
 42
0.00000001
 43
0.00000001
 40
-0.093922140067779
 40
-0.0657752597753781
 40
-0.0344739496007944
 40
0.0
 40
0.0323124298479835
 40
0.0609695982577461
 40
0.0859698687835549
 40
0.107313175594656
 40
0.1250019290169609
 40
0.1562358721977444
 40
0.197850737299077
 40
0.249816879324835
 40
0.278262948030722
 40
0.3049884159832857
 40
0.3300042168913839
 40
0.3533239044418166
 40
0.3749644360933806
 40
0.4060267838322919
 40
0.4476555976010196
 40
0.4998320869201296
 40
0.5286685248934814
 40
0.5555536435543463
 40
0.5805015705746596
 40
0.6035302879119623
 40
0.6246629693429199
 40
0.6685312637103241
 40
0.7183269153555462
 40
0.7652375706113129
 40
0.7915712044406462
 40
0.8122937035710439
 40
0.8615656629637486
 40
0.906077859932221
 40
0.9342247402246219
 40
0.9655260503992056
 40
1.0
 40
1.032312429847984
 40
1.060969598257746
 40
1.085969868783555
 10
179.3863120247801
 20
134.7492892878255
 30
0.0
 10
178.7822438062708
 20
134.7938227930413
 30
0.0
 10
178.3069287434246
 20
134.8418981792744
 30
0.0
 10
177.9873299174247
 20
134.8780609185402
 30
0.0
 10
177.8003355117107
 20
134.9044510527286
 30
0.0
 10
177.7120298521583
 20
134.9205206625259
 30
0.0
 10
177.6826163562891
 20
134.9283443477758
 30
0.0
 10
177.7547484263579
 20
134.9101768491921
 30
0.0
 10
178.0758604285524
 20
134.8655702692294
 30
0.0
 10
178.647887918767
 20
134.8048317405587
 30
0.0
 10
179.2984202665232
 20
134.7554875775388
 30
0.0
 10
179.8482963952647
 20
134.7331251170594
 30
0.0
 10
180.4037342610428
 20
134.7246429071549
 30
0.0
 10
180.9445098086793
 20
134.7310939933035
 30
0.0
 10
181.5424397034786
 20
134.7545723699052
 30
0.0
 10
182.2821055606455
 20
134.8214922407423
 30
0.0
 10
183.2141551939184
 20
134.9375936746776
 30
0.0
 10
184.003491927592
 20
135.0729085592689
 30
0.0
 10
184.5424216154294
 20
135.188020383336
 30
0.0
 10
184.8565259553253
 20
135.257794459887
 30
0.0
 10
185.0618063236911
 20
135.3083545453829
 30
0.0
 10
185.1728763097821
 20
135.3390326852897
 30
0.0
 10
185.219147811586
 20
135.3537597025459
 30
0.0
 10
185.0931829432398
 20
135.3159001089585
 30
0.0
 10
184.6229374143667
 20
135.2054143245324
 30
0.0
 10
183.969739450778
 20
135.0657101061562
 30
0.0
 10
183.3657204952621
 20
134.9625835000109
 30
0.0
 10
182.6913824456238
 20
134.8631474742415
 30
0.0
 10
181.8060329626364
 20
134.7696771399659
 30
0.0
 10
180.836554072024
 20
134.7226686338932
 30
0.0
 10
180.048218494757
 20
134.7263528489937
 30
0.0
 10
179.3863120247801
 20
134.7492892878255
 30
0.0
 10
178.7822438062708
 20
134.7938227930413
 30
0.0
 10
178.3069287434246
 20
134.8418981792744
 30
0.0
  0
LINE
  5
18D
330
1F
100
AcDbEntity
  8
0
  6
HIDDEN
 62
     7
370
     0
100
AcDbLine
 10
255.5858214392
 20
115.065340482
 30
0.0
 11
252.2685358978
 21
111.7662273778
 31
0.0
  0
LINE
  5
18E
330
1F
100
AcDbEntity
  8
0
  6
HIDDEN
 62
     7
370
     0
100
AcDbLine
 10
224.5460468606
 20
115.9462852618
 30
0.0
 11
224.5460468606
 21
107.5462852618
 31
0.0
  0
SPLINE
  5
18F
330
1F
100
AcDbEntity
  8
0
  6
HIDDEN
 62
     7
370
     0
100
AcDbSpline
210
0.0
220
0.0
230
1.0
 70
     8
 71
     3
 72
    64
 73
    60
 74
     0
 42
0.00000001
 43
0.00000001
 40
-0.0312499999999992
 40
-0.0312499999999992
 40
0.0
 40
0.0
 40
0.0312500000000001
 40
0.0312500000000001
 40
0.0625000000000002
 40
0.0625000000000002
 40
0.1250000000000009
 40
0.1250000000000009
 40
0.1562500000000013
 40
0.1562500000000013
 40
0.1875000000000017
 40
0.1875000000000017
 40
0.218750000000002
 40
0.218750000000002
 40
0.2500000000000024
 40
0.2500000000000024
 40
0.2812500000000028
 40
0.2812500000000028
 40
0.3125000000000031
 40
0.3125000000000031
 40
0.3750000000000041
 40
0.3750000000000041
 40
0.4062500000000043
 40
0.4062500000000043
 40
0.4375000000000046
 40
0.4375000000000046
 40
0.4687500000000048
 40
0.4687500000000048
 40
0.5000000000000051
 40
0.5000000000000051
 40
0.5312500000000054
 40
0.5312500000000054
 40
0.5625000000000058
 40
0.5625000000000058
 40
0.5937500000000053
 40
0.5937500000000053
 40
0.625000000000005
 40
0.625000000000005
 40
0.6562500000000047
 40
0.6562500000000047
 40
0.6875000000000043
 40
0.6875000000000043
 40
0.718750000000004
 40
0.718750000000004
 40
0.7500000000000037
 40
0.7500000000000037
 40
0.7812500000000032
 40
0.7812500000000032
 40
0.8125000000000029
 40
0.8125000000000029
 40
0.8750000000000018
 40
0.8750000000000018
 40
0.9062500000000017
 40
0.9062500000000017
 40
0.9375000000000014
 40
0.9375000000000014
 40
0.9687500000000008
 40
0.9687500000000008
 40
1.0
 40
1.0
 40
1.03125
 40
1.03125
 10
220.615706549901
 20
112.441625672382
 30
0.0
 10
220.2763871712964
 20
112.441625672382
 30
0.0
 10
220.1107006464633
 20
112.4205877124862
 30
0.0
 10
219.7864645702891
 20
112.3404629186159
 30
0.0
 10
219.6266577345612
 20
112.2803962929391
 30
0.0
 10
219.177482912219
 20
112.0558117732971
 30
0.0
 10
218.9080576961548
 20
111.8437706951008
 30
0.0
 10
218.5700226849577
 20
111.4730126960352
 30
0.0
 10
218.4664665205585
 20
111.3382831051941
 30
0.0
 10
218.286079029921
 20
111.0582144414168
 30
0.0
 10
218.2089326958582
 20
110.9130814105576
 30
0.0
 10
218.0814122850806
 20
110.6130895384586
 30
0.0
 10
218.0308887250405
 20
110.4563005427787
 30
0.0
 10
217.9639678971139
 20
110.1489125973514
 30
0.0
 10
217.9466088344756
 20
109.9968970406157
 30
0.0
 10
217.9455114578674
 20
109.6966844390086
 30
0.0
 10
217.9622373793406
 20
109.5507057505271
 30
0.0
 10
218.0276416642407
 20
109.2778349562897
 30
0.0
 10
218.0771275159723
 20
109.1477848299376
 30
0.0
 10
218.2677399309211
 20
108.7917226364117
 30
0.0
 10
218.4523357270699
 20
108.5955113803427
 30
0.0
 10
218.7895518712756
 20
108.365734543457
 30
0.0
 10
218.9135798146616
 20
108.2987345693521
 30
0.0
 10
219.1794106830861
 20
108.1849410167494
 30
0.0
 10
219.3198278073137
 20
108.1384554794229
 30
0.0
 10
219.617461289767
 20
108.0633975649061
 30
0.0
 10
219.7770255140561
 20
108.034626537582
 30
0.0
 10
220.1026366930647
 20
107.9965656914087
 30
0.0
 10
220.268748928597
 20
107.9868836828212
 30
0.0
 10
220.6082479758113
 20
107.986315062681
 30
0.0
 10
220.774921381669
 20
107.9954752430216
 30
0.0
 10
221.1008264299414
 20
108.0324047017597
 30
0.0
 10
221.2609168391429
 20
108.0605883564079
 30
0.0
 10
221.5612630662854
 20
108.1350825681775
 30
0.0
 10
221.7045265152404
 20
108.1819831775106
 30
0.0
 10
221.9716654125232
 20
108.2952984513863
 30
0.0
 10
222.0946248694444
 20
108.3610913416229
 30
0.0
 10
222.3211368510575
 20
108.5139779077494
 30
0.0
 10
222.4249835634966
 20
108.601811233558
 30
0.0
 10
222.6051401420786
 20
108.7957382883802
 30
0.0
 10
222.6826378399026
 20
108.9024075303379
 30
0.0
 10
222.8111159983703
 20
109.1389064340704
 30
0.0
 10
222.8613408143637
 20
109.2686346457439
 30
0.0
 10
222.9281176351349
 20
109.53993975036
 30
0.0
 10
222.9456543364875
 20
109.683144091707
 30
0.0
 10
222.9464264834045
 20
109.9857893261415
 30
0.0
 10
222.9296599046367
 20
110.1387580077415
 30
0.0
 10
222.8637536007299
 20
110.4475171669774
 30
0.0
 10
222.8138000295926
 20
110.6044835915504
 30
0.0
 10
222.6227225273194
 20
111.0577093452028
 30
0.0
 10
222.4374204012422
 20
111.3459908928627
 30
0.0
 10
222.098431022859
 20
111.7185515598114
 30
0.0
 10
221.9732241097466
 20
111.8348063822848
 30
0.0
 10
221.7076914356238
 20
112.0398301129282
 30
0.0
 10
221.5668966395883
 20
112.1295201474838
 30
0.0
 10
221.2668335865922
 20
112.2798435928482
 30
0.0
 10
221.1066053448709
 20
112.3401430098082
 30
0.0
 10
220.7823179749505
 20
112.4204373655421
 30
0.0
 10
220.615706549901
 20
112.441625672382
 30
0.0
 10
220.2763871712964
 20
112.441625672382
 30
0.0
  0
LINE
  5
190
330
1F
100
AcDbEntity
  8
0
  6
HIDDEN
 62
     7
370
     0
100
AcDbLine
 10
212.2460468606
 20
107.5462852618
 30
0.0
 11
212.2460468606
 21
115.9272673366
 31
0.0
  0
CIRCLE
  5
191
330
1F
100
AcDbEntity
  8
0
  6
HIDDEN
 62
     7
370
     0
100
AcDbCircle
 10
246.2173473477
 20
133.716294295
 30
0.0
 40
3.485106362547536
  0
ARC
  5
192
330
1F
100
AcDbEntity
  8
0
  6
HIDDEN
 62
     7
370
     0
100
AcDbCircle
 10
241.8266577299
 20
142.3916407229
 30
0.0
 40
3.499728609597964
100
AcDbArc
 50
128.0588330865
 51
274.5914240135
  0
LINE
  5
193
330
1F
100
AcDbEntity
  8
0
  6
HIDDEN
 62
     7
370
     0
100
AcDbLine
 10
257.8291179014
 20
140.681690658
 30
0.0
 11
257.2019471218
 21
140.0579555855
 31
0.0
  0
LINE
  5
194
330
1F
100
AcDbEntity
  8
0
  6
HIDDEN
 62
     7
370
     0
100
AcDbLine
 10
243.0691049635
 20
145.9650065991
 30
0.0
 11
243.8595116374
 21
146.0254745112
 31
0.0
  0
LINE
  5
195
330
1F
100
AcDbEntity
  8
0
  6
HIDDEN
 62
     7
370
     0
100
AcDbLine
 10
243.3776354218
 20
145.5462380639
 30
0.0
 11
243.8595116374
 21
146.0254745112
 31
0.0
  0
LINE
  5
196
330
1F
100
AcDbEntity
  8
0
  6
HIDDEN
 62
     7
370
     0
100
AcDbLine
 10
243.03010392
 20
145.5196511119
 30
0.0
 11
243.3776354218
 21
145.5462380639
 31
0.0
  0
ELLIPSE
  5
197
330
1F
100
AcDbEntity
  8
0
  6
HIDDEN
 62
     7
370
     0
100
AcDbEllipse
 10
240.918668251
 20
112.1804488812
 30
0.0
 11
4.168332460195785
 21
41.94363796548208
 31
0.0
210
0.0
220
0.0
230
0.9999999999999999
 40
0.0944087
 41
0.1290790811838609
 42
0.2386312332417988
  0
LINE
  5
198
330
1F
100
AcDbEntity
  8
0
  6
HIDDEN
 62
     7
370
     0
100
AcDbLine
 10
243.7366018049
 20
153.750646267
 30
0.0
 11
244.5426088682
 21
153.8258068179
 31
0.0
  0
ELLIPSE
  5
199
330
1F
100
AcDbEntity
  8
0
  6
HIDDEN
 62
     7
370
     0
100
AcDbEllipse
 10
240.1110213186
 20
112.1795702873
 30
0.0
 11
4.159897226824171
 21
41.858758849415
 31
0.0
210
0.0
220
0.0
230
0.9999999999999999
 40
0.0944087
 41
0.0195063304929169
 42
0.1270629264120546
  0
SPLINE
  5
19A
330
1F
100
AcDbEntity
  8
0
  6
HIDDEN
 62
     7
370
     0
100
AcDbSpline
210
0.0
220
0.0
230
1.0
 70
     8
 71
     3
 72
     8
 73
     4
 74
     0
 42
0.00000001
 43
0.00000001
 40
0.0
 40
0.0
 40
0.0
 40
0.0
 40
1.0
 40
1.0
 40
1.0
 40
1.0
 10
236.5974952242282
 20
143.2534842716371
 30
0.0
 10
242.7735128549331
 20
144.1083504597651
 30
0.0
 10
248.951460762788
 20
144.9488406613262
 30
0.0
 10
255.130870739743
 20
145.7779044586947
 30
0.0
  0
SPLINE
  5
19B
330
1F
100
AcDbEntity
  8
0
  6
HIDDEN
 62
     7
370
     0
100
AcDbSpline
210
0.0
220
0.0
230
1.0
 70
     8
 71
     3
 72
    29
 73
    25
 74
     0
 42
0.00000001
 43
0.00000001
 40
0.0
 40
0.0
 40
0.0
 40
0.0
 40
0.0359137243802528
 40
0.0727403805054363
 40
0.1104794253851022
 40
0.1491302941974127
 40
0.1886924006277205
 40
0.2291651371689171
 40
0.2705478753884809
 40
0.3128399661666727
 40
0.3560407399094765
 40
0.4001495067395299
 40
0.4451655566676378
 40
0.4910881597472609
 40
0.5379165662139677
 40
0.5856500066115844
 40
0.6342876919065324
 40
0.6838288135916879
 40
0.7342725437809096
 40
0.7856180352952038
 40
0.8378644217414554
 40
0.891010817584446
 40
0.945056318212877
 40
1.0
 40
1.0
 40
1.0
 40
1.0
 10
257.4883912580984
 20
154.1189843633534
 30
0.0
 10
257.4625606138184
 20
154.0613833398881
 30
0.0
 10
257.4102427067774
 20
153.9447170671282
 30
0.0
 10
257.3297099656571
 20
153.7546264824806
 30
0.0
 10
257.2464339281146
 20
153.5499338337041
 30
0.0
 10
257.1603317022443
 20
153.3289784179378
 30
0.0
 10
257.0714262799811
 20
153.0912989456214
 30
0.0
 10
256.9797112416139
 20
152.8360931619565
 30
0.0
 10
256.8851883343267
 20
152.5626473518524
 30
0.0
 10
256.7878570432381
 20
152.2702189098183
 30
0.0
 10
256.6877174829131
 20
151.9580707753355
 30
0.0
 10
256.5847695959221
 20
151.6254638765489
 30
0.0
 10
256.4790133745988
 20
151.2716613261202
 30
0.0
 10
256.3704487990743
 20
150.8959294647383
 30
0.0
 10
256.2590758557899
 20
150.4975399606499
 30
0.0
 10
256.1448945262134
 20
150.075771491753
 30
0.0
 10
256.027904812878
 20
149.629912615246
 30
0.0
 10
255.9081066435331
 20
149.1592607903679
 30
0.0
 10
255.7855002371035
 20
148.6631365658575
 30
0.0
 10
255.660084700478
 20
148.1408401102659
 30
0.0
 10
255.5318634055043
 20
147.5918291924349
 30
0.0
 10
255.4008233926641
 20
147.0150493104912
 30
0.0
 10
255.2670142259216
 20
146.4115106931669
 30
0.0
 10
255.176580304411
 20
145.990265452099
 30
0.0
 10
255.1309907101401
 20
145.7779070880246
 30
0.0
  0
SPLINE
  5
19C
330
1F
100
AcDbEntity
  8
0
  6
HIDDEN
 62
     7
370
     0
100
AcDbSpline
210
0.0
220
0.0
230
1.0
 70
     8
 71
     3
 72
     8
 73
     4
 74
     0
 42
0.00000001
 43
0.00000001
 40
0.0
 40
0.0
 40
0.0
 40
0.0
 40
1.0
 40
1.0
 40
1.0
 40
1.0
 10
257.488272613796
 20
154.1189755783426
 30
0.0
 10
253.0025965702682
 20
153.7613894415879
 30
0.0
 10
248.5174498433553
 20
153.3980791807773
 30
0.0
 10
244.032880508394
 20
153.0285249006653
 30
0.0
  0
LWPOLYLINE
  5
19D
330
1F
100
AcDbEntity
  8
0
  6
HIDDEN
 62
     7
370
     0
100
AcDbPolyline
 90
        2
 70
   128
 43
0.0
 10
195.3960468606
 20
85.3462852618
 10
195.3960468606
 20
85.3462852618
  0
ELLIPSE
  5
19E
330
1F
100
AcDbEntity
  8
0
  6
HIDDEN
 62
     7
370
     0
100
AcDbEllipse
 10
249.0472615367
 20
141.5083720069
 30
0.0
 11
1.31691743471643
 21
3.872622565108372
 31
0.0
210
0.0
220
0.0
230
1.0
 40
0.8539059128
 41
2.244221447950995
 42
2.463780352294243
  0
ELLIPSE
  5
19F
330
1F
100
AcDbEntity
  8
0
  6
HIDDEN
 62
     7
370
     0
100
AcDbEllipse
 10
248.3318658869
 20
139.9615247677
 30
0.0
 11
4.155749860774563
 21
0.6833618997421524
 31
0.0
210
0.0
220
0.0
230
0.9999999999999999
 40
0.1367129703
 41
2.252407319752244
 42
2.913466249960948
  0
ELLIPSE
  5
1A0
330
1F
100
AcDbEntity
  8
0
  6
HIDDEN
 62
     7
370
     0
100
AcDbEllipse
 10
247.585543023
 20
138.3478058949
 30
0.0
 11
1.31691743471643
 21
3.872622565108372
 31
0.0
210
0.0
220
0.0
230
1.0
 40
0.8539059128
 41
1.544372593543391
 42
1.583162517742289
  0
SPLINE
  5
1A1
330
1F
100
AcDbEntity
  8
0
  6
HIDDEN
 62
     7
370
     0
100
AcDbSpline
210
0.0
220
0.0
230
1.0
 70
     8
 71
     3
 72
    22
 73
    18
 74
     0
 42
0.00000001
 43
0.00000001
 40
0.0
 40
0.0
 40
0.0
 40
0.0
 40
0.0625000000000003
 40
0.0625000000000003
 40
0.1250000000000004
 40
0.1250000000000004
 40
0.2500000000000008
 40
0.2500000000000008
 40
0.3750000000000011
 40
0.3750000000000011
 40
0.5000000000000014
 40
0.5000000000000014
 40
0.7500000000000009
 40
0.7500000000000009
 40
0.8750000000000004
 40
0.8750000000000004
 40
1.0
 40
1.0
 40
1.0
 40
1.0
 10
246.8666119394566
 20
137.8225927875773
 30
0.0
 10
246.6798864396121
 20
137.8405098598832
 30
0.0
 10
246.5145327835481
 20
137.8412903898915
 30
0.0
 10
246.2046705925115
 20
137.8264736989074
 30
0.0
 10
246.0608076490077
 20
137.8103531083617
 30
0.0
 10
245.6505015310752
 20
137.7457556000629
 30
0.0
 10
245.4131551486783
 20
137.683036990182
 30
0.0
 10
244.9761426803312
 20
137.5411464335935
 30
0.0
 10
244.7770832954666
 20
137.4611759579372
 30
0.0
 10
244.4051899285013
 20
137.2916617923039
 30
0.0
 10
244.2322475699552
 20
137.2017760149971
 30
0.0
 10
243.7482812833449
 20
136.9267128053335
 30
0.0
 10
243.4711852675405
 20
136.735866003261
 30
0.0
 10
243.1222805266203
 20
136.4716541803741
 30
0.0
 10
243.0174258353966
 20
136.3873224322507
 30
0.0
 10
242.8392678178278
 20
136.2375267812664
 30
0.0
 10
242.7651346954501
 20
136.1716045679454
 30
0.0
 10
242.7203653153388
 20
136.1270804391827
 30
0.0
  0
SPLINE
  5
1A2
330
1F
100
AcDbEntity
  8
0
  6
HIDDEN
 62
     7
370
     0
100
AcDbSpline
210
0.0
220
0.0
230
1.0
 70
     8
 71
     3
 72
    10
 73
     6
 74
     0
 42
0.00000001
 43
0.00000001
 40
0.0
 40
0.0
 40
0.0
 40
0.0
 40
0.5
 40
0.5
 40
1.0
 40
1.0
 40
1.0
 40
1.0
 10
248.2980506106226
 20
137.285865383902
 30
0.0
 10
248.0556098904322
 20
137.3456283558461
 30
0.0
 10
247.8148021984744
 20
137.4212316974099
 30
0.0
 10
247.3349821102482
 20
137.6008952065316
 30
0.0
 10
247.0949761640823
 20
137.70579420543
 30
0.0
 10
246.8666119394566
 20
137.8225927875773
 30
0.0
  0
SPLINE
  5
1A3
330
1F
100
AcDbEntity
  8
0
  6
HIDDEN
 62
     7
370
     0
100
AcDbSpline
210
0.0
220
0.0
230
1.0
 70
     8
 71
     3
 72
    22
 73
    18
 74
     0
 42
0.00000001
 43
0.00000001
 40
0.0
 40
0.0
 40
0.0
 40
0.0
 40
0.1249999999999999
 40
0.1249999999999999
 40
0.2499999999999998
 40
0.2499999999999998
 40
0.4999999999999997
 40
0.4999999999999997
 40
0.6249999999999996
 40
0.6249999999999996
 40
0.7499999999999996
 40
0.7499999999999996
 40
0.8749999999999994
 40
0.8749999999999994
 40
0.9374999999999997
 40
0.9374999999999997
 40
1.0
 40
1.0
 40
1.0
 40
1.0
 10
249.2621795193519
 20
133.6741839066429
 30
0.0
 10
249.3068448959455
 20
133.7186046016301
 30
0.0
 10
249.3421860408322
 20
133.7988960302307
 30
0.0
 10
249.4008921584636
 20
133.9933412817925
 30
0.0
 10
249.423906554118
 20
134.1083761737867
 30
0.0
 10
249.4732112338459
 20
134.4852387627634
 30
0.0
 10
249.4805376852759
 20
134.7785196948432
 30
0.0
 10
249.431066422052
 20
135.2534636616574
 30
0.0
 10
249.4043945688326
 20
135.417680823471
 30
0.0
 10
249.3227806225131
 20
135.757774623479
 30
0.0
 10
249.2679185697182
 20
135.9341108235247
 30
0.0
 10
249.1147797591341
 20
136.2987330757772
 30
0.0
 10
249.018007364136
 20
136.486288174116
 30
0.0
 10
248.8112671751712
 20
136.780514970155
 30
0.0
 10
248.731950022622
 20
136.8804437706933
 30
0.0
 10
248.5436981222192
 20
137.081391701057
 30
0.0
 10
248.4352917880146
 20
137.1828095372426
 30
0.0
 10
248.2980506106226
 20
137.285865383902
 30
0.0
  0
ELLIPSE
  5
1A4
330
1F
100
AcDbEntity
  8
0
  6
HIDDEN
 62
     7
370
     0
100
AcDbEllipse
 10
249.0472615367
 20
141.5083720069
 30
0.0
 11
1.31691743471643
 21
3.872622565108372
 31
0.0
210
0.0
220
0.0
230
1.0
 40
0.8539059128
 41
4.519715413798168
 42
4.685965247133183
  0
ELLIPSE
  5
1A5
330
1F
100
AcDbEntity
  8
0
  6
HIDDEN
 62
     7
370
     0
100
AcDbEllipse
 10
247.8839588624
 20
138.9930484505
 30
0.0
 11
4.155749860774563
 21
0.6833618997421241
 31
0.0
210
0.0
220
0.0
230
0.9999999999999999
 40
0.1367129703
 41
6.260098661084743
 42
8.316033722588617
  0
LINE
  5
1A6
330
1F
100
AcDbEntity
  8
0
  6
HIDDEN
 62
     7
370
     0
100
AcDbLine
 10
195.3960468606
 20
80.2621622789
 30
0.0
 11
195.3960468606
 21
85.3462852618
 31
0.0
  0
LINE
  5
1A7
330
1F
100
AcDbEntity
  8
0
  6
HIDDEN
 62
     7
370
     0
100
AcDbLine
 10
195.3960468606
 20
85.3462852618
 30
0.0
 11
203.3960468606
 21
85.3462852618
 31
0.0
  0
LWPOLYLINE
  5
1A8
330
1F
100
AcDbEntity
  8
0
  6
HIDDEN
 62
     7
370
     0
100
AcDbPolyline
 90
       27
 70
   128
 43
0.0
 10
220.4460468606
 20
105.9383650833
 10
221.0443360213
 20
105.8736375077
 10
221.6078547907
 20
105.6832165122
 10
222.1038535062
 20
105.378168673
 10
222.5035065253
 20
104.9762222616
 10
222.7835874673
 20
104.5007369425
 10
222.9278190458
 20
103.9793461941
 10
222.9278190458
 20
103.4423513516
 10
222.7835874673
 20
102.9209606032
 10
222.5035065253
 20
102.4454752841
 10
222.1038535062
 20
102.0435288727
 10
221.6078547907
 20
101.7384810335
 10
221.0443360213
 20
101.548060038
 10
220.4460468606
 20
101.4833324624
 10
219.8477576999
 20
101.548060038
 10
219.2842389305
 20
101.7384810335
 10
218.788240215
 20
102.0435288727
 10
218.3885871959
 20
102.4454752841
 10
218.1085062539
 20
102.9209606032
 10
217.9642746754
 20
103.4423513516
 10
217.9642746754
 20
103.9793461941
 10
218.1085062539
 20
104.5007369425
 10
218.3885871959
 20
104.9762222616
 10
218.788240215
 20
105.378168673
 10
219.2842389305
 20
105.6832165122
 10
219.8477576999
 20
105.8736375077
 10
220.4460468606
 20
105.9383650833
  0
ELLIPSE
  5
1A9
330
1F
100
AcDbEntity
  8
0
  6
HIDDEN
 62
     7
370
     0
100
AcDbEllipse
 10
243.6355660256
 20
131.1822030113
 30
0.0
 11
-3.010891765566981
 21
-2.994397785440754
 31
-3.552713678800501E-15
210
3.267609433894372E-18
220
-1.189739090263761E-15
230
1.0
 40
0.9890738004
 41
0.0
 42
6.283185307179586
  0
LINE
  5
1AA
330
1F
100
AcDbEntity
  8
0
  6
HIDDEN
 62
     7
370
     0
100
AcDbLine
 10
242.7203653153
 20
136.1270804392
 30
0.0
 11
242.4990373115
 21
135.9069648933
 31
0.0
  0
ELLIPSE
  5
1AB
330
1F
100
AcDbEntity
  8
0
  6
HIDDEN
 62
     7
370
     0
100
AcDbEllipse
 10
245.1318890795
 20
132.6703290509
 30
0.0
 11
3.518690774465653
 21
-2.323872478491154
 31
0.0
210
0.0
220
0.0
230
0.9999999999999999
 40
0.89827004
 41
0.8351116513766738
 42
2.805333218052161
  0
LINE
  5
1AC
330
1F
100
AcDbEntity
  8
0
  6
HIDDEN
 62
     7
370
     0
100
AcDbLine
 10
249.0408515155
 20
133.4540683608
 30
0.0
 11
249.2621795194
 21
133.6741839066
 31
0.0
  0
ARC
  5
1AD
330
1F
100
AcDbEntity
  8
0
  6
HIDDEN
 62
     7
370
     0
100
AcDbCircle
 10
246.1393058637
 20
133.7057161104
 30
0.0
 40
4.180627668545061
100
AcDbArc
 50
79.9812442114
 51
58.9110236872
  0
ARC
  5
1AE
330
1F
100
AcDbEntity
  8
0
  6
HIDDEN
 62
     7
370
     0
100
AcDbCircle
 10
241.7908818052
 20
142.7922051437
 30
0.0
 40
3.102319763067261
100
AcDbArc
 50
139.0040087929
 51
259.8500603294
  0
LINE
  5
1AF
330
1F
100
AcDbEntity
  8
0
  6
HIDDEN
 62
     7
370
     0
100
AcDbLine
 10
245.6410074384
 20
139.9721739945
 30
0.0
 11
242.5234091929
 21
139.7336706227
 31
0.0
  0
LINE
  5
1B0
330
1F
100
AcDbEntity
  8
0
  6
HIDDEN
 62
     7
370
     0
100
AcDbLine
 10
242.1068100474
 20
138.9031431925
 30
0.0
 11
245.9477560519
 21
139.1969843166
 31
0.0
  0
ARC
  5
1B1
330
1F
100
AcDbEntity
  8
0
  6
HIDDEN
 62
     7
370
     0
100
AcDbCircle
 10
241.3073667484
 20
142.3069523532
 30
0.0
 40
3.099648907558871
100
AcDbArc
 50
127.8088272626
 51
274.5932487729
  0
LINE
  5
1B2
330
1F
100
AcDbEntity
  8
0
  6
HIDDEN
 62
     7
370
     0
100
AcDbLine
 10
243.8595116374
 20
146.0254745112
 30
0.0
 11
244.5426088682
 21
153.8258068179
 31
0.0
  0
LINE
  5
1B3
330
1F
100
AcDbEntity
  8
0
  6
HIDDEN
 62
     7
370
     0
100
AcDbLine
 10
243.7366018049
 20
153.750646267
 30
0.0
 11
243.0546947084
 21
145.9639041817
 31
0.0
  0
LINE
  5
1B4
330
1F
100
AcDbEntity
  8
0
  6
HIDDEN
 62
     7
370
     0
100
AcDbLine
 10
252.3181686387
 20
140.2819237407
 30
0.0
 11
252.3937585466
 21
140.488774846
 31
0.0
  0
LINE
  5
1B5
330
1F
100
AcDbEntity
  8
0
  6
HIDDEN
 62
     7
370
     0
100
AcDbLine
 10
257.2723594793
 20
140.8619989373
 30
0.0
 11
252.3937585466
 21
140.488774846
 31
0.0
  0
LINE
  5
1B6
330
1F
100
AcDbEntity
  8
0
  6
HIDDEN
 62
     7
370
     0
100
AcDbLine
 10
252.0407579443
 20
139.6631128494
 30
0.0
 11
257.2019471218
 21
140.0579555855
 31
0.0
  0
LINE
  5
1B7
330
1F
100
AcDbEntity
  8
0
  6
HIDDEN
 62
     7
370
     0
100
AcDbLine
 10
257.2019471218
 20
140.0579555855
 30
0.0
 11
257.2723594793
 21
140.8619989373
 31
0.0
  0
LINE
  5
1B8
330
1F
100
AcDbEntity
  8
0
  6
HIDDEN
 62
     7
370
     0
100
AcDbLine
 10
249.0408515155
 20
133.4540683608
 30
0.0
 11
250.5739679251
 21
138.2841377843
 31
0.0
  0
LINE
  5
1B9
330
1F
100
AcDbEntity
  8
0
  6
HIDDEN
 62
     7
370
     0
100
AcDbLine
 10
253.4415634527
 20
144.1954970751
 30
0.0
 11
253.1940427672
 21
143.9493323338
 31
0.0
  0
LINE
  5
1BA
330
1F
100
AcDbEntity
  8
0
  6
HIDDEN
 62
     7
370
     0
100
AcDbLine
 10
253.4415634527
 20
144.1954970751
 30
0.0
 11
251.911882331
 21
140.0095383987
 31
0.0
  0
LINE
  5
1BB
330
1F
100
AcDbEntity
  8
0
  6
HIDDEN
 62
     7
370
     0
100
AcDbLine
 10
252.3937585466
 20
140.488774846
 30
0.0
 11
251.911882331
 21
140.0095383987
 31
0.0
  0
LINE
  5
1BC
330
1F
100
AcDbEntity
  8
0
  6
HIDDEN
 62
     7
370
     0
100
AcDbLine
 10
257.2723594793
 20
140.8619989373
 30
0.0
 11
256.7904832636
 21
140.38276249
 31
0.0
  0
LINE
  5
1BD
330
1F
100
AcDbEntity
  8
0
  6
HIDDEN
 62
     7
370
     0
100
AcDbLine
 10
164.6460468606
 20
129.7362852618
 30
0.0
 11
164.6460468606
 21
128.0337988842
 31
0.0
  0
LINE
  5
1BE
330
1F
100
AcDbEntity
  8
0
  6
HIDDEN
 62
     7
370
     0
100
AcDbLine
 10
168.6460468606
 20
93.7562852618
 30
0.0
 11
168.6460468606
 21
95.4587716394
 31
0.0
  0
LINE
  5
1BF
330
1F
100
AcDbEntity
  8
0
  6
HIDDEN
 62
     7
370
     0
100
AcDbLine
 10
164.6460468606
 20
129.7362852618
 30
0.0
 11
164.6460468606
 21
133.5903929342
 31
0.0
  0
LINE
  5
1C0
330
1F
100
AcDbEntity
  8
0
  6
HIDDEN
 62
     7
370
     0
100
AcDbLine
 10
168.6460468606
 20
93.7562852618
 30
0.0
 11
168.6460468606
 21
89.8011370025
 31
0.0
  0
LWPOLYLINE
  5
1C1
330
1F
100
AcDbEntity
  8
0
  6
HIDDEN
 62
     7
370
     0
100
AcDbPolyline
 90
        2
 70
   128
 43
0.0
 10
216.3960468606
 20
138.1462852618
 10
216.3960468606
 20
138.1462852618
  0
LWPOLYLINE
  5
1C2
330
1F
100
AcDbEntity
  8
0
  6
HIDDEN
 62
     7
370
     0
100
AcDbPolyline
 90
        2
 70
   128
 43
0.0
 10
216.3960468606
 20
85.3462852618
 10
216.3960468606
 20
85.3462852618
  0
ELLIPSE
  5
1C3
330
1F
100
AcDbEntity
  8
0
  6
HIDDEN
 62
     7
370
     0
100
AcDbEllipse
 10
154.3786149963
 20
111.7462852618
 30
0.0
 11
20.07002071827054
 21
-1.421085471520200E-14
 31
0.0
210
0.0
220
0.0
230
1.0
 40
0.8164965809
 41
4.9215554631857
 42
4.980534842098401
  0
LINE
  5
1C4
330
1F
100
AcDbEntity
  8
0
  6
HIDDEN
 62
     7
370
     0
100
AcDbLine
 10
159.6960468606
 20
93.7562852618
 30
0.0
 11
159.6960468606
 21
95.9447948258
 31
0.0
  0
LINE
  5
1C5
330
1F
100
AcDbEntity
  8
0
  6
HIDDEN
 62
     7
370
     0
100
AcDbLine
 10
158.5460468606
 20
93.7562852618
 30
0.0
 11
158.5460468606
 21
95.716349864
 31
0.0
  0
SPLINE
  5
1C6
330
1F
100
AcDbEntity
  8
0
  6
HIDDEN
 62
     7
370
     0
100
AcDbSpline
210
0.0
220
0.0
230
1.0
 70
     8
 71
     3
 72
     8
 73
     4
 74
     0
 42
0.00000001
 43
0.00000001
 40
0.0
 40
0.0
 40
0.0
 40
0.0
 40
1.0
 40
1.0
 40
1.0
 40
1.0
 10
159.4849564307979
 20
91.30236295883242
 30
0.0
 10
159.5206700891678
 20
91.17913145357262
 30
0.0
 10
159.5963381281161
 20
91.05818787662562
 30
0.0
 10
159.6860019301892
 20
90.95146883292236
 30
0.0
  0
SPLINE
  5
1C7
330
1F
100
AcDbEntity
  8
0
  6
HIDDEN
 62
     7
370
     0
100
AcDbSpline
210
0.0
220
0.0
230
1.0
 70
     8
 71
     3
 72
    10
 73
     6
 74
     0
 42
0.00000001
 43
0.00000001
 40
0.0
 40
0.0
 40
0.0
 40
0.0
 40
0.5
 40
0.5
 40
1.0
 40
1.0
 40
1.0
 40
1.0
 10
158.5460468605983
 20
92.09312473684513
 30
0.0
 10
158.5460468605983
 20
92.07960821097738
 30
0.0
 10
158.5513664212265
 20
92.07543743862007
 30
0.0
 10
158.5644946535081
 20
92.09356848200765
 30
0.0
 10
158.5721873081621
 20
92.11647690706958
 30
0.0
 10
158.5763244762073
 20
92.15619770157117
 30
0.0
  0
LINE
  5
1C8
330
1F
100
AcDbEntity
  8
0
  6
HIDDEN
 62
     7
370
     0
100
AcDbLine
 10
158.5460468606
 20
93.7562852618
 30
0.0
 11
158.5460468606
 21
92.0931247368
 31
0.0
  0
LINE
  5
1C9
330
1F
100
AcDbEntity
  8
0
  6
HIDDEN
 62
     7
370
     0
100
AcDbLine
 10
159.6960468606
 20
93.7562852618
 30
0.0
 11
159.6960468606
 21
90.9396537033
 31
0.0
  0
LINE
  5
1CA
330
1F
100
AcDbEntity
  8
0
  6
HIDDEN
 62
     7
370
     0
100
AcDbLine
 10
159.6960468606
 20
129.7362852618
 30
0.0
 11
159.6960468606
 21
127.5477756978
 31
0.0
  0
LINE
  5
1CB
330
1F
100
AcDbEntity
  8
0
  6
HIDDEN
 62
     7
370
     0
100
AcDbLine
 10
159.6960468606
 20
129.7362852618
 30
0.0
 11
159.6960468606
 21
132.6162230272
 31
0.0
  0
SPLINE
  5
1CC
330
1F
100
AcDbEntity
  8
0
  6
HIDDEN
 62
     7
370
     0
100
AcDbSpline
210
0.0
220
0.0
230
1.0
 70
     8
 71
     3
 72
    10
 73
     6
 74
     0
 42
0.00000001
 43
0.00000001
 40
0.0
 40
0.0
 40
0.0
 40
0.0
 40
0.5
 40
0.5
 40
1.0
 40
1.0
 40
1.0
 40
1.0
 10
159.6860019301805
 20
132.6062391540856
 30
0.0
 10
159.6184426752622
 20
132.5385477612759
 30
0.0
 10
159.5548060199257
 20
132.4638405965223
 30
0.0
 10
159.4445852653539
 20
132.3048744640956
 30
0.0
 10
159.3977689721312
 20
132.2205191980876
 30
0.0
 10
159.3702005067032
 20
132.1364045953958
 30
0.0
  0
LINE
  5
1CD
330
1F
100
AcDbEntity
  8
0
  6
HIDDEN
 62
     7
370
     0
100
AcDbLine
 10
158.5460468606
 20
129.7362852618
 30
0.0
 11
158.5460468606
 21
131.4369630083
 31
0.0
  0
SPLINE
  5
1CE
330
1F
100
AcDbEntity
  8
0
  6
HIDDEN
 62
     7
370
     0
100
AcDbSpline
210
0.0
220
0.0
230
1.0
 70
     8
 71
     3
 72
    10
 73
     6
 74
     0
 42
0.00000001
 43
0.00000001
 40
0.0
 40
0.0
 40
0.0
 40
0.0
 40
0.5
 40
0.5
 40
1.0
 40
1.0
 40
1.0
 40
1.0
 10
158.6087102353221
 20
131.4208378065788
 30
0.0
 10
158.5998059462134
 20
131.466579325792
 30
0.0
 10
158.5832905660204
 20
131.483770165261
 30
0.0
 10
158.5561826199588
 20
131.4834468883253
 30
0.0
 10
158.5460468605987
 20
131.4655693460288
 30
0.0
 10
158.5460468605987
 20
131.4369630082762
 30
0.0
  0
ELLIPSE
  5
1CF
330
1F
100
AcDbEntity
  8
0
  6
HIDDEN
 62
     7
370
     0
100
AcDbEllipse
 10
154.3786149963
 20
111.7462852618
 30
0.0
 11
20.07002071827051
 21
0.0
 31
0.0
210
0.0
220
0.0
230
1.0
 40
0.8164965809
 41
1.302650465081197
 42
1.361629843993897
  0
LINE
  5
1D0
330
1F
100
AcDbEntity
  8
0
  6
HIDDEN
 62
     7
370
     0
100
AcDbLine
 10
158.5460468606
 20
129.7362852618
 30
0.0
 11
158.5460468606
 21
127.7762206596
 31
0.0
  0
LINE
  5
1D1
330
1F
100
AcDbEntity
  8
0
  6
HIDDEN
 62
     7
370
     0
100
AcDbLine
 10
158.5460468606
 20
127.7762206596
 30
0.0
 11
158.5460468606
 21
95.716349864
 31
0.0
  0
ARC
  5
1D2
330
1F
100
AcDbEntity
  8
0
  6
HIDDEN
 62
     7
370
     0
100
AcDbCircle
 10
250.8432656508
 20
147.2157776596
 30
0.0
 40
3.984124279745838
100
AcDbArc
 50
310.7048698595
 51
188.1873980391
  0
LINE
  5
1D3
330
1F
100
AcDbEntity
  8
0
  6
HIDDEN
 62
     7
370
     0
100
AcDbLine
 10
244.314635921
 20
139.5742541612
 30
0.0
 11
246.8997492487
 21
146.6483936076
 31
0.0
  0
LINE
  5
1D4
330
1F
100
AcDbEntity
  8
0
  6
HIDDEN
 62
     7
370
     0
100
AcDbLine
 10
257.9519917474
 20
153.6460081825
 30
0.0
 11
257.4883398535
 21
154.1196587875
 31
0.0
  0
LINE
  5
1D5
330
1F
100
AcDbEntity
  8
0
  6
HIDDEN
 62
     7
370
     0
100
AcDbLine
 10
251.911882331
 20
140.0095383987
 30
0.0
 11
256.7904832636
 21
140.38276249
 31
0.0
  0
LINE
  5
1D6
330
1F
100
AcDbEntity
  8
0
  6
HIDDEN
 62
     7
370
     0
100
AcDbLine
 10
244.0328805084
 20
153.0285249007
 30
0.0
 11
243.3776354218
 21
145.5462380639
 31
0.0
  0
LINE
  5
1D7
330
1F
100
AcDbEntity
  8
0
  6
HIDDEN
 62
     7
370
     0
100
AcDbLine
 10
241.5555911962
 20
139.2172585215
 30
0.0
 11
244.2626557225
 21
139.424355128
 31
0.0
  0
LINE
  5
1D8
330
1F
100
AcDbEntity
  8
0
  6
HIDDEN
 62
     7
370
     0
100
AcDbLine
 10
257.9519833907
 20
153.6460090054
 30
0.0
 11
256.7904832636
 21
140.38276249
 31
0.0
  0
SPLINE
  5
1D9
330
1F
100
AcDbEntity
  8
0
  6
HIDDEN
 62
     7
370
     0
100
AcDbSpline
210
0.0
220
0.0
230
1.0
 70
     8
 71
     3
 72
    10
 73
     6
 74
     0
 42
0.00000001
 43
0.00000001
 40
0.0
 40
0.0
 40
0.0
 40
0.0
 40
0.5
 40
0.5
 40
1.0
 40
1.0
 40
1.0
 40
1.0
 10
206.5360468605987
 20
138.8659391128338
 30
0.0
 10
206.5360468605987
 20
138.7223267612758
 30
0.0
 10
206.5722141356965
 20
138.5793533475572
 30
0.0
 10
206.7079700794505
 20
138.3293607208434
 30
0.0
 10
206.8082397700734
 20
138.2213584115646
 30
0.0
 10
206.9303443922898
 20
138.1462852617979
 30
0.0
  0
LINE
  5
1DA
330
1F
100
AcDbEntity
  8
0
  6
HIDDEN
 62
     7
370
     0
100
AcDbLine
 10
206.5360468606
 20
138.8659391128
 30
0.0
 11
206.5360468606
 21
84.9418896335
 31
0.0
  0
SPLINE
  5
1DB
330
1F
100
AcDbEntity
  8
0
  6
HIDDEN
 62
     7
370
     0
100
AcDbSpline
210
0.0
220
0.0
230
1.0
 70
     8
 71
     3
 72
    10
 73
     6
 74
     0
 42
0.00000001
 43
0.00000001
 40
0.0
 40
0.0
 40
0.0
 40
0.0
 40
0.5
 40
0.5
 40
1.0
 40
1.0
 40
1.0
 40
1.0
 10
206.5360468605987
 20
84.9418896334687
 30
0.0
 10
206.5360468605987
 20
85.01212599383922
 30
0.0
 10
206.5443294726891
 20
85.08212009533648
 30
0.0
 10
206.5774294157475
 20
85.21907935989493
 30
0.0
 10
206.6017668077058
 20
85.28438726915003
 30
0.0
 10
206.6337216629303
 20
85.34628526179677
 30
0.0
  0
SPLINE
  5
1DC
330
1F
100
AcDbEntity
  8
0
  6
HIDDEN
 62
     7
370
     0
100
AcDbSpline
210
0.0
220
0.0
230
1.0
 70
    24
 71
     3
 72
    12
 73
     8
 74
     0
 42
0.00000001
 43
0.00000001
 40
0.0
 40
0.0
 40
0.0
 40
0.0
 40
0.499999999999996
 40
0.499999999999996
 40
0.749999999999998
 40
0.749999999999998
 40
1.0
 40
1.0
 40
1.0
 40
1.0
 10
206.9303443922897
 20
138.146285261798
 30
0.0
 10
206.9734677407233
 20
138.146285261798
 30
0.0
 10
207.0232073280235
 20
138.146285261798
 30
0.0
 10
207.1197283048454
 20
138.146285261798
 30
0.0
 10
207.1552934356971
 20
138.146285261798
 30
0.0
 10
207.23864176632
 20
138.146285261798
 30
0.0
 10
207.2871116660103
 20
138.146285261798
 30
0.0
 10
207.3360468605999
 20
138.146285261798
 30
0.0
  0
SPLINE
  5
1DD
330
1F
100
AcDbEntity
  8
0
  6
HIDDEN
 62
     7
370
     0
100
AcDbSpline
210
0.0
220
0.0
230
1.0
 70
    24
 71
     3
 72
    14
 73
    10
 74
     0
 42
0.00000001
 43
0.00000001
 40
0.0
 40
0.0
 40
0.0
 40
0.0
 40
0.5000000000000029
 40
0.5000000000000029
 40
0.7500000000000032
 40
0.7500000000000032
 40
0.8750000000000016
 40
0.8750000000000016
 40
1.0
 40
1.0
 40
1.0
 40
1.0
 10
206.6337216629309
 20
85.34628526179802
 30
0.0
 10
206.6809281507707
 20
85.34628526179802
 30
0.0
 10
206.7442681542001
 20
85.34628526179802
 30
0.0
 10
206.8873312604559
 20
85.34628526179802
 30
0.0
 10
206.9434119107269
 20
85.34628526179802
 30
0.0
 10
207.0548472606363
 20
85.34628526179802
 30
0.0
 10
207.0967920513093
 20
85.34628526179802
 30
0.0
 10
207.2017884943294
 20
85.34628526179802
 30
0.0
 10
207.2673524314101
 20
85.34628526179803
 30
0.0
 10
207.3360468605986
 20
85.34628526179802
 30
0.0
  0
LINE
  5
1DE
330
1F
100
AcDbEntity
  8
0
  6
HIDDEN
 62
     7
370
     0
100
AcDbLine
 10
210.3560468606
 20
138.8659391128
 30
0.0
 11
210.3560468606
 21
84.9418896335
 31
0.0
  0
SPLINE
  5
1DF
330
1F
100
AcDbEntity
  8
0
  6
HIDDEN
 62
     7
370
     0
100
AcDbSpline
210
0.0
220
0.0
230
1.0
 70
     8
 71
     3
 72
    10
 73
     6
 74
     0
 42
0.00000001
 43
0.00000001
 40
0.0
 40
0.0
 40
0.0
 40
0.0
 40
0.5
 40
0.5
 40
1.0
 40
1.0
 40
1.0
 40
1.0
 10
209.9617493289078
 20
138.146285261798
 30
0.0
 10
210.0830618520055
 20
138.2208714080862
 30
0.0
 10
210.1844902142306
 20
138.3296957192376
 30
0.0
 10
210.3204337804908
 20
138.5807162378593
 30
0.0
 10
210.3560468605987
 20
138.7232989309985
 30
0.0
 10
210.3560468605987
 20
138.8659391128338
 30
0.0
  0
SPLINE
  5
1E0
330
1F
100
AcDbEntity
  8
0
  6
HIDDEN
 62
     7
370
     0
100
AcDbSpline
210
0.0
220
0.0
230
1.0
 70
     8
 71
     3
 72
    10
 73
     6
 74
     0
 42
0.00000001
 43
0.00000001
 40
0.0
 40
0.0
 40
0.0
 40
0.0
 40
0.5
 40
0.5
 40
1.0
 40
1.0
 40
1.0
 40
1.0
 10
210.2583720582664
 20
85.34628526179803
 30
0.0
 10
210.2905272458884
 20
85.28399921628191
 30
0.0
 10
210.3151834770827
 20
85.21746879141267
 30
0.0
 10
210.3479962340081
 20
85.08061016105017
 30
0.0
 10
210.3560468605988
 20
85.01155256587181
 30
0.0
 10
210.3560468605987
 20
84.94188963346848
 30
0.0
  0
SPLINE
  5
1E1
330
1F
100
AcDbEntity
  8
0
  6
HIDDEN
 62
     7
370
     0
100
AcDbSpline
210
0.0
220
0.0
230
1.0
 70
    24
 71
     3
 72
    12
 73
     8
 74
     0
 42
0.00000001
 43
0.00000001
 40
0.0
 40
0.0
 40
0.0
 40
0.0
 40
0.2500000000000028
 40
0.2500000000000028
 40
0.5000000000000057
 40
0.5000000000000057
 40
1.0
 40
1.0
 40
1.0
 40
1.0
 10
209.5560468605987
 20
138.146285261798
 30
0.0
 10
209.6055819668167
 20
138.146285261798
 30
0.0
 10
209.6539868554181
 20
138.146285261798
 30
0.0
 10
209.7368734045958
 20
138.146285261798
 30
0.0
 10
209.7733881260641
 20
138.146285261798
 30
0.0
 10
209.8697209644188
 20
138.146285261798
 30
0.0
 10
209.9184735120814
 20
138.146285261798
 30
0.0
 10
209.9617493289121
 20
138.146285261798
 30
0.0
  0
SPLINE
  5
1E2
330
1F
100
AcDbEntity
  8
0
  6
HIDDEN
 62
     7
370
     0
100
AcDbSpline
210
0.0
220
0.0
230
1.0
 70
    24
 71
     3
 72
    14
 73
    10
 74
     0
 42
0.00000001
 43
0.00000001
 40
0.0
 40
0.0
 40
0.0
 40
0.0
 40
0.1250000000000013
 40
0.1250000000000013
 40
0.2500000000000026
 40
0.2500000000000026
 40
0.5000000000000018
 40
0.5000000000000018
 40
1.0
 40
1.0
 40
1.0
 40
1.0
 10
209.5560468605987
 20
85.34628526179802
 30
0.0
 10
209.6251434929427
 20
85.34628526179802
 30
0.0
 10
209.6901366585506
 20
85.34628526179802
 30
0.0
 10
209.7944578571957
 20
85.34628526179802
 30
0.0
 10
209.8372382313042
 20
85.34628526179802
 30
0.0
 10
209.9495758909505
 20
85.34628526179802
 30
0.0
 10
210.0046230730928
 20
85.34628526179802
 30
0.0
 10
210.1484998468629
 20
85.34628526179802
 30
0.0
 10
210.211529160138
 20
85.34628526179802
 30
0.0
 10
210.2583720582664
 20
85.34628526179802
 30
0.0
  0
LINE
  5
1E3
330
1F
100
AcDbEntity
  8
0
  6
HIDDEN
 62
     7
370
     0
100
AcDbLine
 10
207.3360468606
 20
138.1462852618
 30
0.0
 11
209.5560468606
 21
138.1462852618
 31
0.0
  0
LINE
  5
1E4
330
1F
100
AcDbEntity
  8
0
  6
HIDDEN
 62
     7
370
     0
100
AcDbLine
 10
207.3360468606
 20
85.3462852618
 30
0.0
 11
209.5560468606
 21
85.3462852618
 31
0.0
  0
SPLINE
  5
1E5
330
1F
100
AcDbEntity
  8
0
  6
HIDDEN
 62
     7
370
     0
100
AcDbSpline
210
0.0
220
0.0
230
1.0
 70
     8
 71
     3
 72
     8
 73
     4
 74
     0
 42
0.00000001
 43
0.00000001
 40
0.0
 40
0.0
 40
0.0
 40
0.0
 40
1.0
 40
1.0
 40
1.0
 40
1.0
 10
205.0541140291097
 20
142.2134807349623
 30
0.0
 10
205.549254058474
 20
141.326801086782
 30
0.0
 10
206.0433367637529
 20
140.439538451096
 30
0.0
 10
206.5360468605987
 20
139.5515194529696
 30
0.0
  0
LINE
  5
1E6
330
1F
100
AcDbEntity
  8
0
  6
HIDDEN
 62
     7
370
     0
100
AcDbLine
 10
206.5360468606
 20
139.551519453
 30
0.0
 11
206.5360468606
 21
138.8659391128
 31
0.0
  0
LINE
  5
1E7
330
1F
100
AcDbEntity
  8
0
  6
HIDDEN
 62
     7
370
     0
100
AcDbLine
 10
203.3960468606
 20
138.1462852618
 30
0.0
 11
206.9303443923
 21
138.1462852618
 31
0.0
  0
SPLINE
  5
1E8
330
1F
100
AcDbEntity
  8
0
  6
HIDDEN
 62
     7
370
     0
100
AcDbSpline
210
0.0
220
0.0
230
1.0
 70
     8
 71
     3
 72
    12
 73
     8
 74
     0
 42
0.00000001
 43
0.00000001
 40
0.0
 40
0.0
 40
0.0
 40
0.0
 40
0.2499999999999999
 40
0.2499999999999999
 40
0.4999999999999998
 40
0.4999999999999998
 40
1.0
 40
1.0
 40
1.0
 40
1.0
 10
215.7960468605987
 20
142.2134807349623
 30
0.0
 10
215.875539809647
 20
142.2134807349623
 30
0.0
 10
215.9566233110025
 20
142.1964779850015
 30
0.0
 10
216.1030537081403
 20
142.1324174438898
 30
0.0
 10
216.1696023180141
 20
142.0852588282512
 30
0.0
 10
216.3338921919877
 20
141.9120367955589
 30
0.0
 10
216.3960468605989
 20
141.7519277053247
 30
0.0
 10
216.3960468605987
 20
141.5927255855613
 30
0.0
  0
SPLINE
  5
1E9
330
1F
100
AcDbEntity
  8
0
  6
HIDDEN
 62
     7
370
     0
100
AcDbSpline
210
0.0
220
0.0
230
1.0
 70
     8
 71
     3
 72
    12
 73
     8
 74
     0
 42
0.00000001
 43
0.00000001
 40
0.0
 40
0.0
 40
0.0
 40
0.0
 40
0.2500000000000018
 40
0.2500000000000018
 40
0.5000000000000037
 40
0.5000000000000037
 40
1.0
 40
1.0
 40
1.0
 40
1.0
 10
215.7960468605987
 20
81.55936756555087
 30
0.0
 10
215.8759278653458
 20
81.55936756555087
 30
0.0
 10
215.9565219956164
 20
81.57648465181671
 30
0.0
 10
216.1031374414613
 20
81.64122076329183
 30
0.0
 10
216.1696386342053
 20
81.68867800617215
 30
0.0
 10
216.3353735353425
 20
81.86550244871164
 30
0.0
 10
216.3960468605987
 20
82.02577895591736
 30
0.0
 10
216.3960468605987
 20
82.18600786120516
 30
0.0
  0
LINE
  5
1EA
330
1F
100
AcDbEntity
  8
0
  6
HIDDEN
 62
     7
370
     0
100
AcDbLine
 10
216.3960468606
 20
141.5927255856
 30
0.0
 11
216.3960468606
 21
82.1860078612
 31
0.0
  0
LINE
  5
1EB
330
1F
100
AcDbEntity
  8
0
  6
HIDDEN
 62
     7
370
     0
100
AcDbLine
 10
210.3560468606
 20
138.8659391128
 30
0.0
 11
210.3560468606
 21
139.551519453
 31
0.0
  0
SPLINE
  5
1EC
330
1F
100
AcDbEntity
  8
0
  6
HIDDEN
 62
     7
370
     0
100
AcDbSpline
210
0.0
220
0.0
230
1.0
 70
     8
 71
     3
 72
     8
 73
     4
 74
     0
 42
0.00000001
 43
0.00000001
 40
0.0
 40
0.0
 40
0.0
 40
0.0
 40
1.0
 40
1.0
 40
1.0
 40
1.0
 10
210.3560468605987
 20
139.5515194529696
 30
0.0
 10
210.8487569574445
 20
140.439538451096
 30
0.0
 10
211.3428396627234
 20
141.326801086782
 30
0.0
 10
211.8379796920877
 20
142.2134807349623
 30
0.0
  0
LINE
  5
1ED
330
1F
100
AcDbEntity
  8
0
  6
HIDDEN
 62
     7
370
     0
100
AcDbLine
 10
211.8379796921
 20
142.213480735
 30
0.0
 11
215.7960468606
 21
142.213480735
 31
0.0
  0
LINE
  5
1EE
330
1F
100
AcDbEntity
  8
0
  6
HIDDEN
 62
     7
370
     0
100
AcDbLine
 10
216.3960468606
 20
141.5927255856
 30
0.0
 11
216.3960468606
 21
138.1462852618
 31
0.0
  0
LINE
  5
1EF
330
1F
100
AcDbEntity
  8
0
  6
HIDDEN
 62
     7
370
     0
100
AcDbLine
 10
209.9617493289
 20
138.1462852618
 30
0.0
 11
216.3960468606
 21
138.1462852618
 31
0.0
  0
LINE
  5
1F0
330
1F
100
AcDbEntity
  8
0
  6
HIDDEN
 62
     7
370
     0
100
AcDbLine
 10
211.8379796921
 20
142.213480735
 30
0.0
 11
211.8379796921
 21
81.5593675656
 31
0.0
  0
LINE
  5
1F1
330
1F
100
AcDbEntity
  8
0
  6
HIDDEN
 62
     7
370
     0
100
AcDbLine
 10
206.5360468606
 20
139.551519453
 30
0.0
 11
206.5360468606
 21
84.2484481027
 31
0.0
  0
LINE
  5
1F2
330
1F
100
AcDbEntity
  8
0
  6
HIDDEN
 62
     7
370
     0
100
AcDbLine
 10
210.3560468606
 20
139.551519453
 30
0.0
 11
210.3560468606
 21
84.2484481027
 31
0.0
  0
SPLINE
  5
1F3
330
1F
100
AcDbEntity
  8
0
  6
HIDDEN
 62
     7
370
     0
100
AcDbSpline
210
0.0
220
0.0
230
1.0
 70
     8
 71
     3
 72
    12
 73
     8
 74
     0
 42
0.00000001
 43
0.00000001
 40
0.0
 40
0.0
 40
0.0
 40
0.0
 40
0.2499999999999988
 40
0.2499999999999988
 40
0.4999999999999984
 40
0.4999999999999984
 40
1.0
 40
1.0
 40
1.0
 40
1.0
 10
253.1940427672241
 20
143.9493323338365
 30
0.0
 10
253.1521822298236
 20
143.9077011128398
 30
0.0
 10
253.0830916415934
 20
143.8425164375357
 30
0.0
 10
252.9192317168375
 20
143.6938909938465
 30
0.0
 10
252.8235542618305
 20
143.6098154765366
 30
0.0
 10
252.5077325146335
 20
143.3460999894471
 30
0.0
 10
252.2595963869067
 20
143.1553244713634
 30
0.0
 10
251.9758213850605
 20
142.969321940571
 30
0.0
  0
ARC
  5
1F4
330
1F
100
AcDbEntity
  8
0
  6
HIDDEN
 62
     7
370
     0
100
AcDbCircle
 10
250.1190611386
 20
146.4907886155
 30
0.0
 40
3.980990599761219
100
AcDbArc
 50
297.8012921151
 51
201.0909757835
  0
SPLINE
  5
1F5
330
1F
100
AcDbEntity
  8
0
  6
HIDDEN
 62
     7
370
     0
100
AcDbSpline
210
0.0
220
0.0
230
1.0
 70
     8
 71
     3
 72
    12
 73
     8
 74
     0
 42
0.00000001
 43
0.00000001
 40
0.0
 40
0.0
 40
0.0
 40
0.0
 40
0.5
 40
0.5
 40
0.75
 40
0.75
 40
1.0
 40
1.0
 40
1.0
 40
1.0
 10
246.4047562090784
 20
145.0582297001853
 30
0.0
 10
246.3974211755428
 20
145.3533858654445
 30
0.0
 10
246.4208329256155
 20
145.6284232762591
 30
0.0
 10
246.4857101005714
 20
145.9862320915773
 30
0.0
 10
246.5123953474009
 20
146.0961766939656
 30
0.0
 10
246.574877985595
 20
146.2828142222127
 30
0.0
 10
246.6103680258101
 20
146.3605976453789
 30
0.0
 10
246.6522285632107
 20
146.4022288663756
 30
0.0
  0
LINE
  5
1F6
330
1F
100
AcDbEntity
  8
0
  6
HIDDEN
 62
     7
370
     0
100
AcDbLine
 10
246.6522285632
 20
146.4022288664
 30
0.0
 11
246.8997492487
 21
146.6483936076
 31
0.0
  0
SPLINE
  5
1F7
330
1F
100
AcDbEntity
  8
0
  6
HIDDEN
 62
     7
370
     0
100
AcDbSpline
210
0.0
220
0.0
230
1.0
 70
     8
 71
     3
 72
    26
 73
    22
 74
     0
 42
0.00000001
 43
0.00000001
 40
0.0
 40
0.0
 40
0.0
 40
0.0
 40
0.2500000000000045
 40
0.2500000000000045
 40
0.3750000000000068
 40
0.3750000000000068
 40
0.4375000000000085
 40
0.4375000000000085
 40
0.4687500000000087
 40
0.4687500000000087
 40
0.5000000000000088
 40
0.5000000000000088
 40
0.5312500000000089
 40
0.5312500000000089
 40
0.562500000000009
 40
0.562500000000009
 40
0.6250000000000085
 40
0.6250000000000085
 40
0.7500000000000059
 40
0.7500000000000059
 40
1.0
 40
1.0
 40
1.0
 40
1.0
 10
159.3702005067032
 20
132.1364045953958
 30
0.0
 10
159.3315999838347
 20
132.0186298990404
 30
0.0
 10
159.2853029812805
 20
131.8942402128785
 30
0.0
 10
159.1913636328465
 20
131.689020880525
 30
0.0
 10
159.1560521659331
 20
131.6174480140785
 30
0.0
 10
159.0898721901874
 20
131.5014947814781
 30
0.0
 10
159.0653338235192
 20
131.4609102466679
 30
0.0
 10
159.0219610779654
 20
131.3967685647961
 30
0.0
 10
159.0064526765402
 20
131.374902139511
 30
0.0
 10
158.9714100319531
 20
131.3293078711678
 30
0.0
 10
158.9518597412334
 20
131.3056375802005
 30
0.0
 10
158.9099324608628
 20
131.2610210208605
 30
0.0
 10
158.8872803506312
 20
131.2401410083427
 30
0.0
 10
158.8463066365446
 20
131.2092675945919
 30
0.0
 10
158.8287073366492
 20
131.1994287247595
 30
0.0
 10
158.784080350793
 20
131.1804391090633
 30
0.0
 10
158.7635211281397
 20
131.1801147844098
 30
0.0
 10
158.712395688643
 20
131.189338225286
 30
0.0
 10
158.6914842756545
 20
131.210585121503
 30
0.0
 10
158.6400343680935
 20
131.2845540003338
 30
0.0
 10
158.622369068789
 20
131.3506720936485
 30
0.0
 10
158.6087102353221
 20
131.4208378065788
 30
0.0
  0
SPLINE
  5
1F8
330
1F
100
AcDbEntity
  8
0
  6
HIDDEN
 62
     7
370
     0
100
AcDbSpline
210
0.0
220
0.0
230
1.0
 70
     8
 71
     3
 72
    26
 73
    22
 74
     0
 42
0.00000001
 43
0.00000001
 40
0.0
 40
0.0
 40
0.0
 40
0.0
 40
0.2500000000000095
 40
0.2500000000000095
 40
0.3750000000000155
 40
0.3750000000000155
 40
0.4375000000000179
 40
0.4375000000000179
 40
0.4687500000000189
 40
0.4687500000000189
 40
0.5000000000000199
 40
0.5000000000000199
 40
0.5312500000000174
 40
0.5312500000000174
 40
0.5625000000000149
 40
0.5625000000000149
 40
0.6250000000000132
 40
0.6250000000000132
 40
0.7500000000000089
 40
0.7500000000000089
 40
1.0
 40
1.0
 40
1.0
 40
1.0
 10
158.5763244762073
 20
92.15619770157117
 30
0.0
 10
158.5870485095999
 20
92.25915874206015
 30
0.0
 10
158.6017815001944
 20
92.35815743154122
 30
0.0
 10
158.6541350594414
 20
92.47675311160634
 30
0.0
 10
158.6758403421611
 20
92.51246341155515
 30
0.0
 10
158.7346958495265
 20
92.53744284437686
 30
0.0
 10
158.7581580833736
 20
92.54182829214042
 30
0.0
 10
158.8142794600343
 20
92.52207545869625
 30
0.0
 10
158.8370667701649
 20
92.51041906788582
 30
0.0
 10
158.8923193226962
 20
92.46863871844855
 30
0.0
 10
158.923725555437
 20
92.43836713107255
 30
0.0
 10
158.9786593760574
 20
92.37672473215855
 30
0.0
 10
159.0030831942569
 20
92.34528307985174
 30
0.0
 10
159.0464983002441
 20
92.28554824243798
 30
0.0
 10
159.0660728628123
 20
92.25638323256533
 30
0.0
 10
159.1197055467603
 20
92.17254795683228
 30
0.0
 10
159.1494828948125
 20
92.12051533885607
 30
0.0
 10
159.2310169547853
 20
91.96944966488874
 30
0.0
 10
159.2742597494593
 20
91.876258623018
 30
0.0
 10
159.387314339114
 20
91.61187208402366
 30
0.0
 10
159.4413253365932
 20
91.45291391497382
 30
0.0
 10
159.4849564307972
 20
91.30236295883299
 30
0.0
  0
LINE
  5
1F9
330
1F
100
AcDbEntity
  8
0
  6
HIDDEN
 62
     7
370
     0
100
AcDbLine
 10
158.5460468606
 20
131.4369630083
 30
0.0
 11
158.5460468606
 21
92.0931247368
 31
0.0
  0
LINE
  5
1FA
330
1F
100
AcDbEntity
  8
0
  6
HIDDEN
 62
     7
370
     0
100
AcDbLine
 10
210.3560468606
 20
84.9418896335
 30
0.0
 11
210.3560468606
 21
84.2484481027
 31
0.0
  0
SPLINE
  5
1FB
330
1F
100
AcDbEntity
  8
0
  6
HIDDEN
 62
     7
370
     0
100
AcDbSpline
210
0.0
220
0.0
230
1.0
 70
     8
 71
     3
 72
     8
 73
     4
 74
     0
 42
0.00000001
 43
0.00000001
 40
0.0
 40
0.0
 40
0.0
 40
0.0
 40
1.0
 40
1.0
 40
1.0
 40
1.0
 10
210.3560468605987
 20
84.24844810274317
 30
0.0
 10
210.8483859833799
 20
83.35117806853647
 30
0.0
 10
211.342500031422
 20
82.45489365348423
 30
0.0
 10
211.8379796920877
 20
81.55936756555087
 30
0.0
  0
LINE
  5
1FC
330
1F
100
AcDbEntity
  8
0
  6
HIDDEN
 62
     7
370
     0
100
AcDbLine
 10
211.8379796921
 20
81.5593675656
 30
0.0
 11
215.7960468606
 21
81.5593675656
 31
0.0
  0
LINE
  5
1FD
330
1F
100
AcDbEntity
  8
0
  6
HIDDEN
 62
     7
370
     0
100
AcDbLine
 10
216.3960468606
 20
82.1860078612
 30
0.0
 11
216.3960468606
 21
85.3462852618
 31
0.0
  0
LINE
  5
1FE
330
1F
100
AcDbEntity
  8
0
  6
HIDDEN
 62
     7
370
     0
100
AcDbLine
 10
210.2583720583
 20
85.3462852618
 30
0.0
 11
216.3960468606
 21
85.3462852618
 31
0.0
  0
LINE
  5
1FF
330
1F
100
AcDbEntity
  8
0
  6
HIDDEN
 62
     7
370
     0
100
AcDbLine
 10
206.5360468606
 20
84.2484481027
 30
0.0
 11
206.5360468606
 21
84.9418896335
 31
0.0
  0
SPLINE
  5
200
330
1F
100
AcDbEntity
  8
0
  6
HIDDEN
 62
     7
370
     0
100
AcDbSpline
210
0.0
220
0.0
230
1.0
 70
     8
 71
     3
 72
     8
 73
     4
 74
     0
 42
0.00000001
 43
0.00000001
 40
0.0
 40
0.0
 40
0.0
 40
0.0
 40
1.0
 40
1.0
 40
1.0
 40
1.0
 10
205.0541140291097
 20
81.55936756555089
 30
0.0
 10
205.5495936897754
 20
82.45489365348423
 30
0.0
 10
206.0437077378175
 20
83.35117806853648
 30
0.0
 10
206.5360468605987
 20
84.24844810274318
 30
0.0
  0
LINE
  5
201
330
1F
100
AcDbEntity
  8
0
  6
HIDDEN
 62
     7
370
     0
100
AcDbLine
 10
203.3960468606
 20
85.3462852618
 30
0.0
 11
206.6337216629
 21
85.3462852618
 31
0.0
  0
SPLINE
  5
202
330
1F
100
AcDbEntity
  8
0
  6
HIDDEN
 62
     7
370
     0
100
AcDbSpline
210
0.0
220
0.0
230
1.0
 70
     8
 71
     3
 72
    29
 73
    25
 74
     0
 42
0.00000001
 43
0.00000001
 40
0.0
 40
0.0
 40
0.0
 40
0.0
 40
0.0357353622672229
 40
0.0714371077270544
 40
0.1071136536273234
 40
0.1427734350604178
 40
0.1784248990180799
 40
0.2140764984040748
 40
0.2497366860258617
 40
0.2854139085866081
 40
0.3211166006988788
 40
0.3568531789411318
 40
0.392632035977826
 40
0.4284615347634121
 40
0.4643500028497894
 40
0.5003057268159963
 40
0.5631581780297817
 40
0.6258088866651644
 40
0.688302588253433
 40
0.7506843561078742
 40
0.812999506431378
 40
0.8752935008111744
 40
0.9376118471346536
 40
1.0
 40
1.0
 40
1.0
 40
1.0
 10
255.5625235174539
 20
145.2161996877795
 30
0.0
 10
255.5925764198386
 20
145.3563041338957
 30
0.0
 10
255.6526539533783
 20
145.6363812277112
 30
0.0
 10
255.742523160469
 20
146.0462589431609
 30
0.0
 10
255.8321467747685
 20
146.4483362891582
 30
0.0
 10
255.9215111383695
 20
146.8418991612887
 30
0.0
 10
256.0106198881911
 20
147.2271386298208
 30
0.0
 10
256.0994720311309
 20
147.6040034414103
 30
0.0
 10
256.188067814339
 20
147.9725072469332
 30
0.0
 10
256.2764071526935
 20
148.3326463160632
 30
0.0
 10
256.3644900515877
 20
148.6844215858104
 30
0.0
 10
256.4523164885481
 20
149.027832744744
 30
0.0
 10
256.5398864643035
 20
149.362879843768
 30
0.0
 10
256.6271999171937
 20
149.689562772808
 30
0.0
 10
256.7142570153903
 20
150.0078817432549
 30
0.0
 10
256.8226383040264
 20
150.3949002570675
 30
0.0
 10
256.9516580495832
 20
150.84033795706
 30
0.0
 10
257.1004302311604
 20
151.3309585594677
 30
0.0
 10
257.247268509974
 20
151.7919037754941
 30
0.0
 10
257.392168191429
 20
152.2231166507885
 30
0.0
 10
257.5351434499277
 20
152.6247940642229
 30
0.0
 10
257.6761408615499
 20
152.9962003043433
 30
0.0
 10
257.8153585919495
 20
153.340077496623
 30
0.0
 10
257.9064165642964
 20
153.5439796093796
 30
0.0
 10
257.9519710360788
 20
153.6459877345614
 30
0.0
  0
ELLIPSE
  5
203
330
1F
100
AcDbEntity
  8
0
  6
HIDDEN
 62
     7
370
     0
100
AcDbEllipse
 10
248.454433251
 20
142.0001137152
 30
0.0
 11
1.316917434716459
 21
3.872622565108372
 31
0.0
210
0.0
220
0.0
230
1.0
 40
0.8539059128
 41
5.237715101348172
 42
7.275808046508081
  0
LWPOLYLINE
  5
204
330
1F
100
AcDbEntity
  8
0
  6
HIDDEN
 62
     7
370
     0
100
AcDbPolyline
 90
       16
 70
   128
 43
0.0
 10
250.5739679251
 20
138.2841377843
 10
250.672092925
 20
138.845268722
 10
250.6229750557
 20
139.4354772196
 10
250.4287610037
 20
140.0289683334
 10
250.097938855
 20
140.599803654
 10
249.644967125
 20
141.1230349387
 10
249.0896428519
 20
141.5757944696
 10
248.4562363712
 20
141.9382944826
 10
247.7724305854
 20
142.1946919877
 10
247.0681110888
 20
142.3337811836
 10
246.374060023
 20
142.349483205
 10
245.72061075
 20
142.2411117982
 10
245.1363221386
 20
142.0134033137
 10
244.6467304049
 20
141.6763097049
 10
244.2732330569
 20
141.2445635802
 10
244.0321537211
 20
140.7370343169
  0
LINE
  5
205
330
1F
100
AcDbEntity
  8
0
  6
HIDDEN
 62
     7
370
     0
100
AcDbLine
 10
244.0321537211
 20
140.7370343169
 30
0.0
 11
242.4990373115
 21
135.9069648933
 31
0.0
  0
LWPOLYLINE
  5
206
330
1F
100
AcDbEntity
  8
0
  6
HIDDEN
 62
     7
370
     0
100
AcDbPolyline
 90
       29
 70
   128
 43
0.0
 10
220.4460468606
 20
106.2474758391
 10
221.1136096625
 20
106.1804576576
 10
221.747698078
 20
105.9827636847
 10
222.3165162662
 20
105.6643071216
 10
222.791541308
 20
105.2410567101
 10
223.1489534643
 20
104.7342359934
 10
223.3708305971
 20
104.1692590783
 10
223.4460468606
 20
103.5744562665
 10
223.3708305971
 20
102.9796534547
 10
223.1489534643
 20
102.4146765396
 10
222.791541308
 20
101.9078558228
 10
222.3165162662
 20
101.4846054114
 10
221.747698078
 20
101.1661488483
 10
221.1136096625
 20
100.9684548754
 10
220.4460468606
 20
100.9014366939
 10
219.7784840587
 20
100.9684548754
 10
219.1443956432
 20
101.1661488483
 10
218.575577455
 20
101.4846054114
 10
218.1005524132
 20
101.9078558228
 10
217.7431402569
 20
102.4146765396
 10
217.5212631241
 20
102.9796534547
 10
217.4460468606
 20
103.5744562665
 10
217.5212631241
 20
104.1692590783
 10
217.7431402569
 20
104.7342359934
 10
218.1005524132
 20
105.2410567101
 10
218.575577455
 20
105.6643071216
 10
219.1443956432
 20
105.9827636847
 10
219.7784840587
 20
106.1804576576
 10
220.4460468606
 20
106.2474758391
  0
CIRCLE
  5
207
330
1F
100
AcDbEntity
  8
0
  6
HIDDEN
 62
     7
370
     0
100
AcDbCircle
 10
197.4460468606
 20
111.7462852618
 30
0.0
 40
5.0
  0
LINE
  5
208
330
1F
100
AcDbEntity
  8
0
  6
HIDDEN
 62
     7
370
     0
100
AcDbLine
 10
255.1311670576
 20
145.7787386539
 30
0.0
 11
255.562667907
 21
145.2160106925
 31
0.0
  0
LINE
  5
209
330
1F
100
AcDbEntity
  8
0
  6
HIDDEN
 62
     7
370
     0
100
AcDbLine
 10
255.5625235173
 20
145.2161996878
 30
0.0
 11
252.2685358978
 21
111.7662273778
 31
0.0
  0
LINE
  5
20A
330
1F
100
AcDbEntity
  8
0
  6
HIDDEN
 62
     7
370
     0
100
AcDbLine
 10
252.2685358978
 20
111.7662273778
 30
0.0
 11
252.2543531861
 21
111.7462852618
 31
0.0
  0
LINE
  5
20B
330
1F
100
AcDbEntity
  8
0
  6
HIDDEN
 62
     7
370
     0
100
AcDbLine
 10
190.4460468606
 20
86.4223613407
 30
0.0
 11
190.5402077018
 21
87.0923505395
 31
0.0
  0
LINE
  5
20C
330
1F
100
AcDbEntity
  8
0
  6
HIDDEN
 62
     7
370
     0
100
AcDbLine
 10
190.5402077018
 20
136.4002199841
 30
0.0
 11
190.4460468606
 21
137.0702091829
 31
0.0
  0
ARC
  5
20D
330
1F
100
AcDbEntity
  8
0
  6
HIDDEN
 62
     7
370
     0
100
AcDbCircle
 10
189.9460468606
 20
87.1758544001
 30
0.0
 40
0.6000000000000172
100
AcDbArc
 50
352.0
 51
0.0
  0
ARC
  5
20E
330
1F
100
AcDbEntity
  8
0
  6
HIDDEN
 62
     7
370
     0
100
AcDbCircle
 10
189.9460468606
 20
87.1758544001
 30
0.0
 40
0.5999999999999943
100
AcDbArc
 50
0.0
 51
33.5573097619
  0
ARC
  5
20F
330
1F
100
AcDbEntity
  8
0
  6
HIDDEN
 62
     7
370
     0
100
AcDbCircle
 10
189.9460468606
 20
136.3167161235
 30
0.0
 40
0.6000000000000133
100
AcDbArc
 50
348.75
 51
8.0
  0
LWPOLYLINE
  5
210
330
1F
100
AcDbEntity
  8
0
  6
HIDDEN
 62
     7
370
     0
100
AcDbPolyline
 90
        3
 70
   128
 43
0.0
 10
190.5345180288
 20
136.1996619303
 10
190.5003745801
 20
136.0871060641
 10
190.4460468606
 20
135.9850536445
  0
LINE
  5
211
330
1F
100
AcDbEntity
  8
0
  6
HIDDEN
 62
     7
370
     0
100
AcDbLine
 10
190.5460468606
 20
87.1758544001
 30
0.0
 11
190.5460468606
 21
136.3167161235
 31
0.0
  0
LINE
  5
212
330
1F
100
AcDbEntity
  8
0
  6
HIDDEN
 62
     7
370
     0
100
AcDbLine
 10
190.5460468606
 20
87.1758544001
 30
0.0
 11
190.5460468606
 21
136.3167161235
 31
0.0
  0
LINE
  5
213
330
1F
100
AcDbEntity
  8
0
  6
HIDDEN
 62
     7
370
     0
100
AcDbLine
 10
225.1027762001
 20
128.3413539229
 30
0.0
 11
216.3484673662
 21
120.4730332636
 31
0.0
  0
LINE
  5
214
330
1F
100
AcDbEntity
  8
0
  6
HIDDEN
 62
     7
370
     0
100
AcDbLine
 10
222.7826852347
 20
119.5332901613
 30
0.0
 11
224.8802297105
 21
121.418550648
 31
0.0
  0
LINE
  5
215
330
1F
100
AcDbEntity
  8
0
  6
HIDDEN
 62
     7
370
     0
100
AcDbLine
 10
219.6908126126
 20
116.7543334567
 30
0.0
 11
221.335461668
 21
118.2325342359
 31
0.0
  0
LINE
  5
216
330
1F
100
AcDbEntity
  8
0
  6
HIDDEN
 62
     7
370
     0
100
AcDbLine
 10
216.3031468708
 20
119.8944216516
 30
0.0
 11
216.9574584438
 21
117.6590009108
 31
0.0
  0
LINE
  5
217
330
1F
100
AcDbEntity
  8
0
  6
HIDDEN
 62
     7
370
     0
100
AcDbLine
 10
216.9574584438
 20
117.6590009108
 30
0.0
 11
219.1106617565
 21
116.7707751418
 31
0.0
  0
LINE
  5
218
330
1F
100
AcDbEntity
  8
0
  6
HIDDEN
 62
     7
370
     0
100
AcDbLine
 10
173.5284824259
 20
91.7462852618
 30
0.0
 11
177.7060190023
 21
91.7462852618
 31
0.0
  0
LINE
  5
219
330
1F
100
AcDbEntity
  8
0
  6
HIDDEN
 62
     7
370
     0
100
AcDbLine
 10
177.7060190023
 20
131.7462852618
 30
0.0
 11
173.5284824259
 21
131.7462852618
 31
0.0
  0
ARC
  5
21A
330
1F
100
AcDbEntity
  8
0
  6
HIDDEN
 62
     7
370
     0
100
AcDbCircle
 10
173.5284824259
 20
92.3462852618
 30
0.0
 40
0.6000000000000331
100
AcDbArc
 50
210.0
 51
270.0
  0
ARC
  5
21B
330
1F
100
AcDbEntity
  8
0
  6
HIDDEN
 62
     7
370
     0
100
AcDbCircle
 10
173.5284824259
 20
131.1462852618
 30
0.0
 40
0.6000000000000402
100
AcDbArc
 50
90.0
 51
150.0
  0
ARC
  5
21C
330
1F
100
AcDbEntity
  8
0
  6
HIDDEN
 62
     7
370
     0
100
AcDbCircle
 10
184.2010488622
 20
99.7462852618
 30
0.0
 40
8.000000000000009
100
AcDbArc
 50
277.0481795739
 51
321.3178125465
  0
ARC
  5
21D
330
1F
100
AcDbEntity
  8
0
  6
HIDDEN
 62
     7
370
     0
100
AcDbCircle
 10
184.2010488622
 20
123.7462852618
 30
0.0
 40
8.000000000000028
100
AcDbArc
 50
38.6821874535
 51
82.9419956528
  0
LINE
  5
21E
330
1F
100
AcDbEntity
  8
0
  6
HIDDEN
 62
     7
370
     0
100
AcDbLine
 10
173.0088671836
 20
131.4462852618
 30
0.0
 11
171.4500214568
 21
128.7462852618
 31
0.0
  0
LINE
  5
21F
330
1F
100
AcDbEntity
  8
0
  6
HIDDEN
 62
     7
370
     0
100
AcDbLine
 10
171.4500214568
 20
94.7462852618
 30
0.0
 11
173.0088671836
 21
92.0462852618
 31
0.0
  0
LINE
  5
220
330
1F
100
AcDbEntity
  8
0
  6
HIDDEN
 62
     7
370
     0
100
AcDbLine
 10
222.9460468606
 20
113.652429382
 30
0.0
 11
222.9460468606
 21
119.9453543421
 31
0.0
  0
LINE
  5
221
330
1F
100
AcDbEntity
  8
0
  6
HIDDEN
 62
     7
370
     0
100
AcDbLine
 10
217.9460468606
 20
119.8608173574
 30
0.0
 11
217.9460468606
 21
113.6528690901
 31
0.0
  0
ARC
  5
222
330
1F
100
AcDbEntity
  8
0
  6
HIDDEN
 62
     7
370
     0
100
AcDbCircle
 10
198.8960468606
 20
96.0212852618
 30
0.0
 40
1.500000000000001
100
AcDbArc
 50
238.2116693829
 51
0.0
  0
ARC
  5
223
330
1F
100
AcDbEntity
  8
0
  6
HIDDEN
 62
     7
370
     0
100
AcDbCircle
 10
198.8960468606
 20
127.4712852618
 30
0.0
 40
1.500000000000001
100
AcDbArc
 50
0.0
 51
121.7883306171
  0
LINE
  5
224
330
1F
100
AcDbEntity
  8
0
  6
HIDDEN
 62
     7
370
     0
100
AcDbLine
 10
190.4460468606
 20
94.7462852618
 30
0.0
 11
198.1058728291
 21
94.7462852618
 31
0.0
  0
LINE
  5
225
330
1F
100
AcDbEntity
  8
0
  6
HIDDEN
 62
     7
370
     0
100
AcDbLine
 10
198.1058728291
 20
128.7462852618
 30
0.0
 11
190.4460468606
 21
128.7462852618
 31
0.0
  0
LINE
  5
226
330
1F
100
AcDbEntity
  8
0
  6
HIDDEN
 62
     7
370
     0
100
AcDbLine
 10
168.6460468606
 20
94.7462852618
 30
0.0
 11
171.4500214568
 21
94.7462852618
 31
0.0
  0
LINE
  5
227
330
1F
100
AcDbEntity
  8
0
  6
HIDDEN
 62
     7
370
     0
100
AcDbLine
 10
171.4500214568
 20
128.7462852618
 30
0.0
 11
164.6460468606
 21
128.7462852618
 31
0.0
  0
LINE
  5
228
330
1F
100
AcDbEntity
  8
0
  6
HIDDEN
 62
     7
370
     0
100
AcDbLine
 10
209.7460468606
 20
102.2462852618
 30
0.0
 11
212.2460468606
 21
102.2462852618
 31
0.0
  0
LINE
  5
229
330
1F
100
AcDbEntity
  8
0
  6
HIDDEN
 62
     7
370
     0
100
AcDbLine
 10
212.2460468606
 20
121.2462852618
 30
0.0
 11
209.7460468606
 21
121.2462852618
 31
0.0
  0
LINE
  5
22A
330
1F
100
AcDbEntity
  8
0
  6
HIDDEN
 62
     7
370
     0
100
AcDbLine
 10
200.3960468606
 20
102.7462852618
 30
0.0
 11
200.8960468606
 21
103.2462852618
 31
0.0
  0
LINE
  5
22B
330
1F
100
AcDbEntity
  8
0
  6
HIDDEN
 62
     7
370
     0
100
AcDbLine
 10
200.8960468606
 20
120.2462852618
 30
0.0
 11
200.3960468606
 21
120.7462852618
 31
0.0
  0
LINE
  5
22C
330
1F
100
AcDbEntity
  8
0
  6
HIDDEN
 62
     7
370
     0
100
AcDbLine
 10
200.8960468606
 20
103.2462852618
 30
0.0
 11
209.7460468606
 21
103.2462852618
 31
0.0
  0
LINE
  5
22D
330
1F
100
AcDbEntity
  8
0
  6
HIDDEN
 62
     7
370
     0
100
AcDbLine
 10
209.7460468606
 20
120.2462852618
 30
0.0
 11
200.8960468606
 21
120.2462852618
 31
0.0
  0
LINE
  5
22E
330
1F
100
AcDbEntity
  8
0
  6
HIDDEN
 62
     7
370
     0
100
AcDbLine
 10
195.3960468606
 20
143.2462852618
 30
0.0
 11
195.3960468606
 21
138.1462852618
 31
0.0
  0
LINE
  5
22F
330
1F
100
AcDbEntity
  8
0
  6
HIDDEN
 62
     7
370
     0
100
AcDbLine
 10
185.6304846911
 20
87.6669139282
 30
0.0
 11
185.1960525416
 21
88.1459799474
 31
0.0
  0
LINE
  5
230
330
1F
100
AcDbEntity
  8
0
  6
HIDDEN
 62
     7
370
     0
100
AcDbLine
 10
177.6960492165
 20
88.5676679065
 30
0.0
 11
177.2136154732
 21
88.088601931
 31
0.0
  0
LINE
  5
231
330
1F
100
AcDbEntity
  8
0
  6
HIDDEN
 62
     7
370
     0
100
AcDbLine
 10
177.2134935449
 20
135.4039633021
 30
0.0
 11
177.6960442959
 21
134.9248430442
 31
0.0
  0
LINE
  5
232
330
1F
100
AcDbEntity
  8
0
  6
HIDDEN
 62
     7
370
     0
100
AcDbLine
 10
185.1960467426
 20
135.3465408219
 30
0.0
 11
185.6305891329
 21
135.8256610725
 31
0.0
  0
LINE
  5
233
330
1F
100
AcDbEntity
  8
0
  6
HIDDEN
 62
     7
370
     0
100
AcDbLine
 10
212.2460468606
 20
107.5462852618
 30
0.0
 11
224.5460468606
 21
107.5462852618
 31
0.0
  0
LINE
  5
234
330
1F
100
AcDbEntity
  8
0
  6
HIDDEN
 62
     7
370
     0
100
AcDbLine
 10
224.5460468606
 20
115.9462852618
 30
0.0
 11
212.2460468606
 21
115.9462852618
 31
0.0
  0
LINE
  5
235
330
1F
100
AcDbEntity
  8
0
  6
HIDDEN
 62
     7
370
     0
100
AcDbLine
 10
224.5460468606
 20
107.5462852618
 30
0.0
 11
227.0696614605
 21
111.7462852618
 31
0.0
  0
LINE
  5
236
330
1F
100
AcDbEntity
  8
0
  6
HIDDEN
 62
     7
370
     0
100
AcDbLine
 10
227.0696614605
 20
111.7462852618
 30
0.0
 11
224.5460468606
 21
115.9462852618
 31
0.0
  0
LINE
  5
237
330
1F
100
AcDbEntity
  8
0
  6
HIDDEN
 62
     7
370
     0
100
AcDbLine
 10
185.1960468606
 20
88.1464638491
 30
0.0
 11
185.1960468606
 21
91.8092124358
 31
0.0
  0
LINE
  5
238
330
1F
100
AcDbEntity
  8
0
  6
HIDDEN
 62
     7
370
     0
100
AcDbLine
 10
177.6960468606
 20
91.7481475074
 30
0.0
 11
177.6960468606
 21
88.5679911443
 31
0.0
  0
LINE
  5
239
330
1F
100
AcDbEntity
  8
0
  6
HIDDEN
 62
     7
370
     0
100
AcDbLine
 10
185.1960468606
 20
131.6833580878
 30
0.0
 11
185.1960468606
 21
135.3462495158
 31
0.0
  0
LINE
  5
23A
330
1F
100
AcDbEntity
  8
0
  6
HIDDEN
 62
     7
370
     0
100
AcDbLine
 10
177.6960468606
 20
134.924699265
 30
0.0
 11
177.6960468606
 21
131.7444230162
 31
0.0
  0
LINE
  5
23B
330
1F
100
AcDbEntity
  8
0
  6
HIDDEN
 62
     7
370
     0
100
AcDbLine
 10
248.6896990393
 20
131.272440486
 30
0.0
 11
249.2729048929
 21
131.8524514769
 31
0.0
  0
LINE
  5
23C
330
1F
100
AcDbEntity
  8
0
  6
HIDDEN
 62
     7
370
     0
100
AcDbLine
 10
244.3367708971
 20
136.8157750787
 30
0.0
 11
243.7535650435
 21
136.2357640877
 31
0.0
  0
LINE
  5
23D
330
1F
100
AcDbEntity
  8
0
  6
HIDDEN
 62
     7
370
     0
100
AcDbLine
 10
239.9625397985
 20
145.4794540871
 30
0.0
 11
239.3353690189
 21
144.8557190146
 31
0.0
  0
LINE
  5
23E
330
1F
100
AcDbEntity
  8
0
  6
HIDDEN
 62
     7
370
     0
100
AcDbLine
 10
249.333349429
 20
133.7890049963
 30
0.0
 11
252.1671127617
 21
139.9162424053
 31
0.0
  0
LINE
  5
23F
330
1F
100
AcDbEntity
  8
0
  6
HIDDEN
 62
     7
370
     0
100
AcDbLine
 10
222.9460468606
 20
103.7108487728
 30
0.0
 11
222.9460468606
 21
109.8397014335
 31
0.0
  0
LINE
  5
240
330
1F
100
AcDbEntity
  8
0
  6
HIDDEN
 62
     7
370
     0
100
AcDbLine
 10
217.9460468606
 20
109.8401411416
 30
0.0
 11
217.9460468606
 21
103.7108487728
 31
0.0
  0
LINE
  5
241
330
1F
100
AcDbEntity
  8
0
  6
HIDDEN
 62
     7
370
     0
100
AcDbLine
 10
246.597246423
 20
128.2042088502
 30
0.0
 11
249.1393475128
 21
130.7323840443
 31
0.0
  0
LINE
  5
242
330
1F
100
AcDbEntity
  8
0
  6
HIDDEN
 62
     7
370
     0
100
AcDbLine
 10
243.2159867179
 20
136.6883723664
 30
0.0
 11
240.6738856281
 21
134.1601971723
 31
0.0
  0
LINE
  5
243
330
1F
100
AcDbEntity
  8
0
  6
HIDDEN
 62
     7
370
     0
100
AcDbLine
 10
239.5827625009
 20
144.9687764112
 30
0.0
 11
239.1008862852
 21
144.4895399639
 31
0.0
  0
ARC
  5
244
330
1F
100
AcDbEntity
  8
0
  6
HIDDEN
 62
     7
370
     0
100
AcDbCircle
 10
163.2460468606
 20
134.0162852618
 30
0.0
 40
1.400000000000006
100
AcDbArc
 50
270.0
 51
301.7485287426
  0
ARC
  5
245
330
1F
100
AcDbEntity
  8
0
  6
HIDDEN
 62
     7
370
     0
100
AcDbCircle
 10
167.2460468606
 20
89.5337852618
 30
0.0
 40
1.400000000000006
100
AcDbArc
 50
37.6443616934
 51
90.0
  0
LINE
  5
246
330
1F
100
AcDbEntity
  8
0
  6
HIDDEN
 62
     7
370
     0
100
AcDbLine
 10
158.5479957044
 20
92.081836418
 30
0.0
 11
159.6960468606
 21
90.9337852618
 31
0.0
  0
LINE
  5
247
330
1F
100
AcDbEntity
  8
0
  6
HIDDEN
 62
     7
370
     0
100
AcDbLine
 10
159.6960468606
 20
90.9337852618
 30
0.0
 11
167.2460468606
 21
90.9337852618
 31
0.0
  0
LINE
  5
248
330
1F
100
AcDbEntity
  8
0
  6
HIDDEN
 62
     7
370
     0
100
AcDbLine
 10
159.8437022647
 20
132.6162852618
 30
0.0
 11
159.836935262
 21
132.6162852618
 31
0.0
  0
LINE
  5
249
330
1F
100
AcDbEntity
  8
0
  6
HIDDEN
 62
     7
370
     0
100
AcDbLine
 10
159.6872103188
 20
132.60744872
 30
0.0
 11
158.5572144798
 21
131.477452881
 31
0.0
  0
LINE
  5
24A
330
1F
100
AcDbEntity
  8
0
  6
HIDDEN
 62
     7
370
     0
100
AcDbLine
 10
248.008699259
 20
150.0606320157
 30
0.0
 11
247.2770000162
 21
149.3329410979
 31
0.0
  0
LINE
  5
24B
330
1F
100
AcDbEntity
  8
0
  6
HIDDEN
 62
     7
370
     0
100
AcDbLine
 10
252.9182960113
 20
143.6605712673
 30
0.0
 11
253.6499952542
 21
144.3882621852
 31
0.0
  0
LINE
  5
24C
330
1F
100
AcDbEntity
  8
0
  6
HIDDEN
 62
     7
370
     0
100
AcDbLine
 10
246.5767458041
 20
146.2780824204
 30
0.0
 11
244.1263495939
 21
140.9797714598
 31
0.0
  0
LINE
  5
24D
330
1F
100
AcDbEntity
  8
0
  6
HIDDEN
 62
     7
370
     0
100
AcDbLine
 10
223.4460468606
 20
99.9428309874
 30
0.0
 11
223.4460468606
 21
103.5744562665
 31
0.0
  0
LINE
  5
24E
330
1F
100
AcDbEntity
  8
0
  6
HIDDEN
 62
     7
370
     0
100
AcDbLine
 10
217.4460468606
 20
103.5744562665
 30
0.0
 11
217.4460468606
 21
99.9425342266
 31
0.0
  0
LINE
  5
24F
330
1F
100
AcDbEntity
  8
VERMASSUNG
100
AcDbLine
 10
260.4460468606
 20
156.7462852618
 30
0.0
 11
260.4460468606
 21
126.7116395778
 31
0.0
  0
DIMENSION
  5
250
330
1F
100
AcDbEntity
  8
VERMASSUNG
100
AcDbDimension
  2
*D1
 10
260.4460468606
 20
156.7462852618
 30
0.0
 11
258.3880230406
 21
123.4732142411
 31
0.0
 70
   162
 71
     1
 42
-1.0
  3
SLDDIMSTYLE0
100
AcDb2LineAngularDimension
 13
255.5858214392
 23
115.065340482
 33
0.0
 14
257.8291179014
 24
140.681690658
 34
0.0
 15
260.4460468606
 25
126.7116395778
 35
0.0
 16
258.3880230406
 26
123.4732142411
 36
0.0
  0
DIMENSION
  5
25C
330
1F
100
AcDbEntity
  8
VERMASSUNG
100
AcDbDimension
  2
*D2
 10
260.4460468606
 20
161.0892644498
 30
0.0
 11
225.4460468606
 21
161.0892644498
 31
0.0
 70
   160
 71
     2
 42
-1.0
  3
SLDDIMSTYLE1
100
AcDbAlignedDimension
 13
190.4460468606
 23
142.9462852618
 33
0.0
 14
260.4460468606
 24
156.7462852618
 34
0.0
100
AcDbRotatedDimension
  0
DIMENSION
  5
267
330
1F
100
AcDbEntity
  8
VERMASSUNG
100
AcDbDimension
  2
*D3
 10
260.4460468606
 20
167.0892644498
 30
0.0
 11
209.4960468606
 21
167.0892644498
 31
0.0
 70
   160
 71
     2
 42
-1.0
  3
SLDDIMSTYLE1
100
AcDbAlignedDimension
 13
158.5460468606
 23
131.4369630083
 33
0.0
 14
260.4460468606
 24
156.7462852618
 34
0.0
 50
0.0
100
AcDbRotatedDimension
  0
DIMENSION
  5
271
330
1F
100
AcDbEntity
  8
VERMASSUNG
100
AcDbDimension
  2
*D4
 10
268.1527007299
 20
111.7462852618
 30
0.0
 11
268.1527007299
 21
134.2462852618
 31
0.0
 70
   160
 71
     2
 42
-1.0
  3
SLDDIMSTYLE1
100
AcDbAlignedDimension
 13
260.4460468606
 23
156.7462852618
 33
0.0
 14
259.3077372263
 24
111.7462852618
 34
0.0
 50
90.0
100
AcDbRotatedDimension
  0
DIMENSION
  5
27B
330
1F
100
AcDbEntity
  8
VERMASSUNG
100
AcDbDimension
  2
*D5
 10
150.035246074
 20
80.2462852618
 30
0.0
 11
150.035246074
 21
111.7462852618
 31
0.0
 70
   160
  1
HSK A %%c<>
 71
     2
 42
-1.0
  3
SLDDIMSTYLE1
100
AcDbAlignedDimension
 13
190.7460468606
 23
143.2462852618
 33
0.0
 14
190.7460468606
 24
80.2462852618
 34
0.0
 50
90.0
100
AcDbRotatedDimension
  0
LINE
  5
287
330
1F
100
AcDbEntity
  8
VERMASSUNG
  6
CENTERX2
370
     0
100
AcDbLine
 10
154.1509489051
 20
111.7462852618
 30
0.0
 11
259.3077372263
 21
111.7462852618
 31
0.0
  0
LINE
  5
288
330
1F
100
AcDbEntity
  8
0
  6
Continuous
 62
     7
370
    15
100
AcDbLine
 10
86.4358006923
 20
156.0861416363
 30
0.0
 11
80.15518206
 21
156.7462612546
 31
0.0
  0
LINE
  5
289
330
1F
100
AcDbEntity
  8
0
  6
Continuous
 62
     7
370
    15
100
AcDbLine
 10
79.2252787206
 20
153.8684574455
 30
0.0
 11
78.4706040622
 21
152.808438716
 31
0.0
  0
LINE
  5
28A
330
1F
100
AcDbEntity
  8
0
  6
Continuous
 62
     7
370
    15
100
AcDbLine
 10
77.3645074738
 20
142.9780321944
 30
0.0
 11
77.9017891056
 21
141.7393409266
 31
0.0
  0
SPLINE
  5
28B
330
1F
100
AcDbEntity
  8
0
  6
Continuous
 62
     7
370
    15
100
AcDbSpline
210
0.0
220
0.0
230
1.0
 70
     8
 71
     3
 72
    13
 73
     9
 74
     0
 42
0.00000001
 43
0.00000001
 40
0.0
 40
0.0
 40
0.0
 40
0.0
 40
0.0912916196133179
 40
0.298425822234121
 40
0.4787557391355372
 40
0.6529272731840486
 40
0.8754507086505043
 40
1.0
 40
1.0
 40
1.0
 40
1.0
 10
77.89541204076507
 20
141.7362029474455
 30
0.0
 10
77.90785193542105
 20
141.7126198284072
 30
0.0
 10
77.94851706774033
 20
141.6355282868212
 30
0.0
 10
77.96083141119682
 20
141.5051741339353
 30
0.0
 10
77.95514510947379
 20
141.3863920255321
 30
0.0
 10
77.93925046148726
 20
141.3157721267067
 30
0.0
 10
77.92841299188467
 20
141.2853997122494
 30
0.0
 10
77.93075191084858
 20
141.2910231225958
 30
0.0
 10
77.93159124703656
 20
141.293041119746
 30
0.0
  0
LINE
  5
28C
330
1F
100
AcDbEntity
  8
0
  6
Continuous
 62
     7
370
    15
100
AcDbLine
 10
76.614170654
 20
139.6392359312
 30
0.0
 11
77.1105230783
 21
139.5870671892
 31
0.0
  0
LINE
  5
28D
330
1F
100
AcDbEntity
  8
0
  6
Continuous
 62
     7
370
    15
100
AcDbLine
 10
90.6054183603
 20
155.0339360576
 30
0.0
 11
86.4118016451
 21
155.4747029355
 31
0.0
  0
LINE
  5
28E
330
1F
100
AcDbEntity
  8
0
  6
Continuous
 62
     7
370
    15
100
AcDbLine
 10
90.8831986477
 20
154.696404531
 30
0.0
 11
90.6209392181
 21
155.0239508021
 31
0.0
  0
LINE
  5
28F
330
1F
100
AcDbEntity
  8
0
  6
Continuous
 62
     7
370
    15
100
AcDbLine
 10
76.6179538986
 20
139.6403688012
 30
0.0
 11
78.3426641803
 21
140.8005846979
 31
0.0
  0
ARC
  5
290
330
1F
100
AcDbEntity
  8
0
  6
Continuous
 62
     7
370
    15
100
AcDbCircle
 10
77.5020266172
 20
139.8577159065
 30
0.0
 40
0.9103978998330992
100
AcDbArc
 50
166.1226358657
 51
193.8121025197
  0
LINE
  5
291
330
1F
100
AcDbEntity
  8
0
  6
Continuous
 62
     7
370
    15
100
AcDbLine
 10
78.3508803905
 20
155.2272617664
 30
0.0
 11
76.6182020369
 21
140.076069856
 31
0.0
  0
ARC
  5
292
330
1F
100
AcDbEntity
  8
0
  6
Continuous
 62
     7
370
    15
100
AcDbCircle
 10
79.4193377908
 20
155.1876496134
 30
0.0
 40
1.069191441660636
100
AcDbArc
 50
158.1884816747
 51
177.8767799399
  0
LINE
  5
293
330
1F
100
AcDbEntity
  8
0
  6
Continuous
 62
     7
370
    15
100
AcDbLine
 10
80.1513988155
 20
156.7451283846
 30
0.0
 11
78.4266885338
 21
155.5849124879
 31
0.0
  0
ARC
  5
294
330
1F
100
AcDbEntity
  8
0
  6
Continuous
 62
     7
370
    15
100
AcDbCircle
 10
79.2673260969
 20
156.5277812793
 30
0.0
 40
0.9103978998330439
100
AcDbArc
 50
346.1226358657
 51
13.8121025197
  0
LINE
  5
295
330
1F
100
AcDbEntity
  8
0
  6
Continuous
 62
     7
370
    15
100
AcDbLine
 10
78.4184723235
 20
141.1582354194
 30
0.0
 11
80.1511506772
 21
156.3094273298
 31
0.0
  0
ARC
  5
296
330
1F
100
AcDbEntity
  8
0
  6
Continuous
 62
     7
370
    15
100
AcDbCircle
 10
77.3500149232
 20
141.1978475724
 30
0.0
 40
1.069191441658856
100
AcDbArc
 50
338.1884816747
 51
357.8767799399
  0
ARC
  5
297
330
1F
100
AcDbEntity
  8
0
  6
Continuous
 62
     7
370
    15
100
AcDbCircle
 10
79.3678039208
 20
155.1876789627
 30
0.0
 40
1.015731869578666
100
AcDbArc
 50
158.1884816747
 51
177.8767799399
  0
LINE
  5
298
330
1F
100
AcDbEntity
  8
0
  6
Continuous
 62
     7
370
    15
100
AcDbLine
 10
78.3527693905
 20
155.225310508
 30
0.0
 11
76.6200910368
 21
140.0741185977
 31
0.0
  0
ARC
  5
299
330
1F
100
AcDbEntity
  8
0
  6
Continuous
 62
     7
370
    15
100
AcDbCircle
 10
77.4597243881
 20
139.8666823456
 30
0.0
 40
0.8648780048406954
100
AcDbArc
 50
166.1226358657
 51
193.8121025197
  0
LINE
  5
29A
330
1F
100
AcDbEntity
  8
0
  6
Continuous
 62
     7
370
    15
100
AcDbLine
 10
76.6198553054
 20
139.6602025956
 30
0.0
 11
78.3445655871
 21
140.8204184924
 31
0.0
  0
ARC
  5
29B
330
1F
100
AcDbEntity
  8
0
  6
Continuous
 62
     7
370
    15
100
AcDbCircle
 10
77.401548793
 20
141.1978182231
 30
0.0
 40
1.015731869576566
100
AcDbArc
 50
338.1884816747
 51
357.8767799399
  0
LINE
  5
29C
330
1F
100
AcDbEntity
  8
0
  6
Continuous
 62
     7
370
    15
100
AcDbLine
 10
78.4165833233
 20
141.1601866778
 30
0.0
 11
80.1492616769
 21
156.3113785882
 31
0.0
  0
ARC
  5
29D
330
1F
100
AcDbEntity
  8
0
  6
Continuous
 62
     7
370
    15
100
AcDbCircle
 10
79.309628315
 20
156.5188148408
 30
0.0
 40
0.8648780152147425
100
AcDbArc
 50
346.1226359958
 51
13.8121022985
  0
LINE
  5
29E
330
1F
100
AcDbEntity
  8
0
  6
Continuous
 62
     7
370
    15
100
AcDbLine
 10
80.1494974086
 20
156.72529459
 30
0.0
 11
78.4247871266
 21
155.5650786935
 31
0.0
  0
ARC
  5
29F
330
1F
100
AcDbEntity
  8
0
  6
Continuous
 62
     7
370
    15
100
AcDbCircle
 10
85.4086493158
 20
155.8771852816
 30
0.0
 40
1.048190206276422
100
AcDbArc
 50
347.4435746887
 51
11.4989311382
  0
LINE
  5
2A0
330
1F
100
AcDbEntity
  8
0
  6
Continuous
 62
     7
370
    15
100
AcDbLine
 10
80.1661451464
 20
156.6885096904
 30
0.0
 11
80.1494974086
 21
156.72529459
 31
0.0
  0
LINE
  5
2A1
330
1F
100
AcDbEntity
  8
0
  6
Continuous
 62
     7
370
    15
100
AcDbLine
 10
84.6990909559
 20
140.4981158011
 30
0.0
 11
86.4317693095
 21
155.6493077115
 31
0.0
  0
LINE
  5
2A2
330
1F
100
AcDbEntity
  8
0
  6
Continuous
 62
     7
370
    15
100
AcDbLine
 10
79.2827641567
 20
153.9927013784
 30
0.0
 11
78.6056563623
 21
155.1654294043
 31
0.0
  0
LINE
  5
2A3
330
1F
100
AcDbEntity
  8
0
  6
Continuous
 62
     7
370
    15
100
AcDbLine
 10
78.6056563623
 20
155.1654294043
 30
0.0
 11
78.4247871266
 21
155.5650786935
 31
0.0
  0
ARC
  5
2A4
330
1F
100
AcDbEntity
  8
0
  6
Continuous
 62
     7
370
    15
100
AcDbCircle
 10
83.6306335556
 20
140.5377279541
 30
0.0
 40
1.069191441661504
100
AcDbArc
 50
338.1884816747
 51
357.8767799399
  0
LINE
  5
2A5
330
1F
100
AcDbEntity
  8
0
  6
Continuous
 62
     7
370
    15
100
AcDbLine
 10
78.3532983553
 20
140.8326327452
 30
0.0
 11
78.3445655871
 21
140.8204184924
 31
0.0
  0
LINE
  5
2A6
330
1F
100
AcDbEntity
  8
0
  6
Continuous
 62
     7
370
    15
100
AcDbLine
 10
76.8729780086
 20
140.0142374939
 30
0.0
 11
76.6198553054
 21
139.6602025956
 31
0.0
  0
LINE
  5
2A7
330
1F
100
AcDbEntity
  8
0
  6
Continuous
 62
     7
370
    15
100
AcDbLine
 10
77.9535095773
 20
141.3939451599
 30
0.0
 11
76.8729780086
 21
140.0142374939
 31
0.0
  0
LINE
  5
2A8
330
1F
100
AcDbEntity
  8
0
  6
Continuous
 62
     7
370
    15
100
AcDbLine
 10
84.5238091579
 20
140.0735489623
 30
0.0
 11
84.6232828126
 21
140.1404650796
 31
0.0
  0
ARC
  5
2A9
330
1F
100
AcDbEntity
  8
0
  6
Continuous
 62
     7
370
    15
100
AcDbCircle
 10
77.1680272712
 20
152.8798725452
 30
0.0
 40
2.275994744395077
100
AcDbArc
 50
346.1226358433
 51
13.8121025628
  0
LINE
  5
2AA
330
1F
100
AcDbEntity
  8
0
  6
Continuous
 62
     7
370
    15
100
AcDbLine
 10
78.4770557215
 20
144.4593880953
 30
0.0
 11
79.3775887167
 21
152.3339876719
 31
0.0
  0
ARC
  5
2AB
330
1F
100
AcDbEntity
  8
0
  6
Continuous
 62
     7
370
    15
100
AcDbCircle
 10
75.8059122207
 20
144.5584184777
 30
0.0
 40
2.67297860415278
100
AcDbArc
 50
338.1884816747
 51
357.8767799399
  0
LINE
  5
2AC
330
1F
100
AcDbEntity
  8
0
  6
Continuous
 62
     7
370
    15
100
AcDbLine
 10
77.3911436514
 20
142.9622568769
 30
0.0
 11
78.2875353633
 21
143.5652612916
 31
0.0
  0
ARC
  5
2AD
330
1F
100
AcDbEntity
  8
0
  6
Continuous
 62
     7
370
    15
100
AcDbCircle
 10
79.601325448
 20
143.5056246402
 30
0.0
 40
2.275994749582571
100
AcDbArc
 50
166.1226358657
 51
193.8121025197
  0
LINE
  5
2AE
330
1F
100
AcDbEntity
  8
0
  6
Continuous
 62
     7
370
    15
100
AcDbLine
 10
78.2922969923
 20
151.9261090905
 30
0.0
 11
77.3917639972
 21
144.0515095139
 31
0.0
  0
ARC
  5
2AF
330
1F
100
AcDbEntity
  8
0
  6
Continuous
 62
     7
370
    15
100
AcDbCircle
 10
80.963440493
 20
151.8270787081
 30
0.0
 40
2.672978604152435
100
AcDbArc
 50
158.1884816747
 51
177.8767799399
  0
LINE
  5
2B0
330
1F
100
AcDbEntity
  8
0
  6
Continuous
 62
     7
370
    15
100
AcDbLine
 10
79.3782090623
 20
153.4232403089
 30
0.0
 11
78.4818173504
 21
152.8202358943
 31
0.0
  0
LWPOLYLINE
  5
2B1
330
1F
100
AcDbEntity
  8
0
  6
Continuous
 62
     7
370
    15
100
AcDbPolyline
 90
       30
 70
   128
 43
0.0
 10
78.6845551266
 20
147.8829863326
 10
78.7548005448
 20
148.5657876022
 10
78.8077393673
 20
149.2311459822
 10
78.8408962336
 20
149.8479500544
 10
78.8527207656
 20
150.3873587459
 10
78.8426600612
 20
150.8241499058
 10
78.8111845478
 20
151.1378996649
 10
78.7597659855
 20
151.3139374332
 10
78.690808649
 20
151.3440318802
 10
78.6075369067
 20
151.2267758231
 10
78.5138444529
 20
150.9676520248
 10
78.4141122425
 20
150.5787768262
 10
78.3130036427
 20
150.0783335992
 10
78.2152463795
 20
149.489722513
 10
78.1254114736
 20
148.8404663678
 10
78.0476995056
 20
148.1609236593
 10
77.9857442006
 20
147.4828690493
 10
77.9424425199
 20
146.8380076178
 10
77.9198192019
 20
146.2564923687
 10
77.9189320878
 20
145.7655143085
 10
77.9398226581
 20
145.3880310259
 10
77.9815140929
 20
145.1416932194
 10
78.0420569472
 20
145.0380193713
 10
78.1186203042
 20
145.0818571553
 10
78.2076241466
 20
145.2711567654
 10
78.3049067535
 20
145.5970667622
 10
78.4059192985
 20
146.0443479566
 10
78.5059385471
 20
146.5920859769
 10
78.6002877105
 20
147.2146692021
 10
78.6845551266
 20
147.8829863326
  0
LINE
  5
2B2
330
1F
100
AcDbEntity
  8
0
  6
Continuous
 62
     7
370
    15
100
AcDbLine
 10
76.8729780086
 20
140.0142374939
 30
0.0
 11
76.6200910368
 21
140.0741185977
 31
0.0
  0
LINE
  5
2B3
330
1F
100
AcDbEntity
  8
0
  6
Continuous
 62
     7
370
    15
100
AcDbLine
 10
78.6056563623
 20
155.1654294043
 30
0.0
 11
78.3527693905
 21
155.225310508
 31
0.0
  0
LINE
  5
2B4
330
1F
100
AcDbEntity
  8
0
  6
Continuous
 62
     7
370
    15
100
AcDbLine
 10
89.2547303616
 20
141.7170791548
 30
0.0
 11
90.5903006747
 21
153.3958088396
 31
0.0
  0
LINE
  5
2B5
330
1F
100
AcDbEntity
  8
0
  6
Continuous
 62
     7
370
    15
100
AcDbLine
 10
90.858687813
 20
153.393890961
 30
0.0
 11
89.5231174999
 21
141.7151612762
 31
0.0
  0
ARC
  5
2B6
330
1F
100
AcDbEntity
  8
0
  6
Continuous
 62
     7
370
    15
100
AcDbCircle
 10
86.7536006982
 20
154.2503497276
 30
0.0
 40
3.930713273536738
100
AcDbArc
 50
347.4435746887
 51
11.4989311382
  0
ARC
  5
2B7
330
1F
100
AcDbEntity
  8
0
  6
Continuous
 62
     7
370
    15
100
AcDbCircle
 10
87.2680647711
 20
154.1129470845
 30
0.0
 40
3.661914190296146
100
AcDbArc
 50
348.6757757005
 51
9.1680830091
  0
ARC
  5
2B8
330
1F
100
AcDbEntity
  8
0
  6
Continuous
 62
     7
370
    15
100
AcDbCircle
 10
84.221449554
 20
142.023633857
 30
0.0
 40
5.042607606592436
100
AcDbArc
 50
341.4170433741
 51
356.5146747522
  0
LINE
  5
2B9
330
1F
100
AcDbEntity
  8
0
  6
Continuous
 62
     7
370
    15
100
AcDbLine
 10
89.2956930701
 20
140.6422091117
 30
0.0
 11
89.0180795421
 21
140.4148897719
 31
0.0
  0
ARC
  5
2BA
330
1F
100
AcDbEntity
  8
0
  6
Continuous
 62
     7
370
    15
100
AcDbCircle
 10
86.317745299
 20
141.8339977351
 30
0.0
 40
3.207574324983028
100
AcDbArc
 50
338.1884816747
 51
357.8767799399
  0
LINE
  5
2BB
330
1F
100
AcDbEntity
  8
0
  6
Continuous
 62
     7
370
    15
100
AcDbLine
 10
75.8082618292
 20
115.065340482
 30
0.0
 11
107.1972262774
 21
111.7662273778
 31
0.0
  0
LINE
  5
2BC
330
1F
100
AcDbEntity
  8
0
  6
Continuous
 62
     7
370
    15
100
AcDbLine
 10
78.7377274258
 20
140.681690658
 30
0.0
 11
75.8082618292
 21
115.065340482
 31
0.0
  0
LINE
  5
2BD
330
1F
100
AcDbEntity
  8
0
  6
Continuous
 62
     7
370
    15
100
AcDbLine
 10
78.7377274258
 20
140.681690658
 30
0.0
 11
84.6721702281
 21
140.0579555855
 31
0.0
  0
LINE
  5
2BE
330
1F
100
AcDbEntity
  8
0
  6
Continuous
 62
     7
370
    15
100
AcDbLine
 10
84.6721702281
 20
140.0579555855
 30
0.0
 11
84.7641199915
 21
140.8619989373
 31
0.0
  0
LINE
  5
2BF
330
1F
100
AcDbEntity
  8
0
  6
Continuous
 62
     7
370
    15
100
AcDbLine
 10
84.7641199915
 20
140.8619989373
 30
0.0
 11
89.323750211
 21
140.38276249
 31
0.0
  0
LINE
  5
2C0
330
1F
100
AcDbEntity
  8
0
  6
Continuous
 62
     7
370
    15
100
AcDbLine
 10
89.3755111814
 20
140.8353799035
 30
0.0
 11
89.323750211
 21
140.38276249
 31
0.0
  0
SPLINE
  5
2C1
330
1F
100
AcDbEntity
  8
0
  6
Continuous
 62
     7
370
    15
100
AcDbSpline
210
0.0
220
0.0
230
1.0
 70
     8
 71
     3
 72
    29
 73
    25
 74
     0
 42
0.00000001
 43
0.00000001
 40
0.0
 40
0.0
 40
0.0
 40
0.0
 40
0.0357353622672229
 40
0.0714371077270544
 40
0.1071136536273234
 40
0.1427734350604178
 40
0.1784248990180799
 40
0.2140764984040748
 40
0.2497366860258617
 40
0.2854139085866081
 40
0.3211166006988788
 40
0.3568531789411318
 40
0.392632035977826
 40
0.4284615347634121
 40
0.4643500028497894
 40
0.5003057268159963
 40
0.5631581780297817
 40
0.6258088866651644
 40
0.688302588253433
 40
0.7506843561078742
 40
0.812999506431378
 40
0.8752935008111744
 40
0.9376118471346536
 40
1.0
 40
1.0
 40
1.0
 40
1.0
 10
107.1972262761896
 20
145.2161996877795
 30
0.0
 10
107.0267071009113
 20
145.3563041338957
 30
0.0
 10
106.6858291603774
 20
145.6363812277112
 30
0.0
 10
106.1665287948658
 20
146.0462589431609
 30
0.0
 10
105.641747129327
 20
146.4483362891582
 30
0.0
 10
105.1108897889002
 20
146.8418991612887
 30
0.0
 10
104.5741159915819
 20
147.2271386298208
 30
0.0
 10
104.031383211996
 20
147.6040034414103
 30
0.0
 10
103.4827029584369
 20
147.9725072469332
 30
0.0
 10
102.9280722705222
 20
148.3326463160632
 30
0.0
 10
102.3674920595712
 20
148.6844215858104
 30
0.0
 10
101.8009622396245
 20
149.027832744744
 30
0.0
 10
101.2284828556214
 20
149.362879843768
 30
0.0
 10
100.6500544406458
 20
149.689562772808
 30
0.0
 10
100.0656754490124
 20
150.0078817432549
 30
0.0
 10
99.32857919886106
 20
150.3949002570675
 30
0.0
 10
98.43533954155099
 20
150.84033795706
 30
0.0
 10
97.38157790276308
 20
151.3309585594677
 30
0.0
 10
96.31744858466337
 20
151.7919037754941
 30
0.0
 10
95.2429419999394
 20
152.2231166507885
 30
0.0
 10
94.15811283324719
 20
152.6247940642229
 30
0.0
 10
93.06276151787115
 20
152.9962003043433
 30
0.0
 10
91.9576418878173
 20
153.340077496623
 30
0.0
 10
91.21310771177649
 20
153.5439796093796
 30
0.0
 10
90.8406322410476
 20
153.6459877345614
 30
0.0
  0
LINE
  5
2C2
330
1F
100
AcDbEntity
  8
0
  6
Continuous
 62
     7
370
    15
100
AcDbLine
 10
107.1972262774
 20
145.2161996878
 30
0.0
 11
107.1972262774
 21
111.7662273778
 31
0.0
  0
SPLINE
  5
2C3
330
1F
100
AcDbEntity
  8
0
  6
Continuous
 62
     7
370
    15
100
AcDbSpline
210
0.0
220
0.0
230
1.0
 70
     8
 71
     3
 72
    29
 73
    25
 74
     0
 42
0.00000001
 43
0.00000001
 40
0.0
 40
0.0
 40
0.0
 40
0.0
 40
0.0359137243802528
 40
0.0727403805054363
 40
0.1104794253851022
 40
0.1491302941974127
 40
0.1886924006277205
 40
0.2291651371689171
 40
0.2705478753884809
 40
0.3128399661666727
 40
0.3560407399094765
 40
0.4001495067395299
 40
0.4451655566676378
 40
0.4910881597472609
 40
0.5379165662139677
 40
0.5856500066115844
 40
0.6342876919065324
 40
0.6838288135916879
 40
0.7342725437809096
 40
0.7856180352952038
 40
0.8378644217414554
 40
0.891010817584446
 40
0.945056318212877
 40
1.0
 40
1.0
 40
1.0
 40
1.0
 10
90.84124519169401
 20
154.1189843633534
 30
0.0
 10
91.05539635325304
 20
154.0613833398881
 30
0.0
 10
91.4891424279445
 20
153.9447170671282
 30
0.0
 10
92.14421881009005
 20
153.7546264824806
 30
0.0
 10
92.81246128222554
 20
153.5499338337041
 30
0.0
 10
93.49318865261186
 20
153.3289784179378
 30
0.0
 10
94.1860206470355
 20
153.0912989456214
 30
0.0
 10
94.89045318129126
 20
152.8360931619565
 30
0.0
 10
95.60597479697569
 20
152.5626473518524
 30
0.0
 10
96.33203283364891
 20
152.2702189098183
 30
0.0
 10
97.06804131904562
 20
151.9580707753355
 30
0.0
 10
97.81337732369286
 20
151.6254638765489
 30
0.0
 10
98.56738055264209
 20
151.2716613261202
 30
0.0
 10
99.32935207234746
 20
150.8959294647383
 30
0.0
 10
100.0985533820271
 20
150.4975399606499
 30
0.0
 10
100.8742052468393
 20
150.075771491753
 30
0.0
 10
101.6554874453397
 20
149.629912615246
 30
0.0
 10
102.4415353463993
 20
149.1592607903679
 30
0.0
 10
103.2314489368499
 20
148.6631365658575
 30
0.0
 10
104.0242544497222
 20
148.1408401102659
 30
0.0
 10
104.8190480307224
 20
147.5918291924349
 30
0.0
 10
105.61444246708
 20
147.0150493104912
 30
0.0
 10
106.4106829209005
 20
146.4115106931669
 30
0.0
 10
106.9336199641745
 20
145.990265452099
 30
0.0
 10
107.1972432510325
 20
145.7779070880246
 30
0.0
  0
LINE
  5
2C4
330
1F
100
AcDbEntity
  8
0
  6
Continuous
 62
     7
370
    15
100
AcDbLine
 10
107.1972262774
 20
145.7787386539
 30
0.0
 11
107.1972262774
 21
145.2160106925
 31
0.0
  0
LWPOLYLINE
  5
2C5
330
1F
100
AcDbEntity
  8
0
  6
Continuous
 62
     7
370
    15
100
AcDbPolyline
 90
        3
 70
   128
 43
0.0
 10
76.9180261289
 20
139.6072994339
 10
76.9463316732
 20
139.547571697
 10
77.0210496822
 20
139.526878265
  0
LINE
  5
2C6
330
1F
100
AcDbEntity
  8
0
  6
Continuous
 62
     7
370
    15
100
AcDbLine
 10
75.8082618292
 20
115.065340482
 30
0.0
 11
70.6724797784
 21
86.482097087
 31
0.0
  0
ARC
  5
2C7
330
1F
100
AcDbEntity
  8
0
  6
Continuous
 62
     7
370
    15
100
AcDbCircle
 10
80.1972262774
 20
111.7462852618
 30
0.0
 40
26.99999999999991
100
AcDbArc
 50
248.719336697
 51
249.3432640698
  0
LINE
  5
2C8
330
1F
100
AcDbEntity
  8
0
  6
Continuous
 62
     7
370
    15
100
AcDbLine
 10
70.3979333733
 20
86.5873135304
 30
0.0
 11
70.4189503318
 21
86.8570088883
 31
0.0
  0
SPLINE
  5
2C9
330
1F
100
AcDbEntity
  8
0
  6
Continuous
 62
     7
370
    15
100
AcDbSpline
210
0.0
220
0.0
230
1.0
 70
     8
 71
     3
 72
    10
 73
     6
 74
     0
 42
0.00000001
 43
0.00000001
 40
0.0
 40
0.0
 40
0.0
 40
0.0
 40
0.5
 40
0.5
 40
1.0
 40
1.0
 40
1.0
 40
1.0
 10
70.40149610852276
 20
87.66218946272153
 30
0.0
 10
70.42427154544976
 20
87.65292600369548
 30
0.0
 10
70.43793705837406
 20
87.56443289976593
 30
0.0
 10
70.44373516376157
 20
87.27339914116367
 30
0.0
 10
70.43584731585726
 20
87.07380214703318
 30
0.0
 10
70.41895033178612
 20
86.85700888833655
 30
0.0
  0
LINE
  5
2CA
330
1F
100
AcDbEntity
  8
0
  6
Continuous
 62
     7
370
    15
100
AcDbLine
 10
70.388161118
 20
87.66761751
 30
0.0
 11
70.4014961085
 21
87.6621894627
 31
0.0
  0
LINE
  5
2CB
330
1F
100
AcDbEntity
  8
0
  6
Continuous
 62
     7
370
    15
100
AcDbLine
 10
75.6229213947
 20
137.3407326057
 30
0.0
 11
75.6087492512
 21
137.3381956747
 31
0.0
  0
SPLINE
  5
2CC
330
1F
100
AcDbEntity
  8
0
  6
Continuous
 62
     7
370
    15
100
AcDbSpline
210
0.0
220
0.0
230
1.0
 70
     8
 71
     3
 72
    10
 73
     6
 74
     0
 42
0.00000001
 43
0.00000001
 40
0.0
 40
0.0
 40
0.0
 40
0.0
 40
0.5
 40
0.5
 40
1.0
 40
1.0
 40
1.0
 40
1.0
 10
75.80740065592097
 20
138.1246891156293
 30
0.0
 10
75.7787738569123
 20
137.908510886881
 30
0.0
 10
75.74522345035956
 20
137.7128735924818
 30
0.0
 10
75.6786958997553
 20
137.427964130153
 30
0.0
 10
75.6471390817392
 20
137.3450608524825
 30
0.0
 10
75.62292139467925
 20
137.3407326057078
 30
0.0
  0
SPLINE
  5
2CD
330
1F
100
AcDbEntity
  8
0
  6
Continuous
 62
     7
370
    15
100
AcDbSpline
210
0.0
220
0.0
230
1.0
 70
     8
 71
     3
 72
     8
 73
     4
 74
     0
 42
0.00000001
 43
0.00000001
 40
0.0
 40
0.0
 40
0.0
 40
0.0
 40
1.0
 40
1.0
 40
1.0
 40
1.0
 10
75.80740065592097
 20
138.1246891156293
 30
0.0
 10
76.4722254312217
 20
143.14518205684
 30
0.0
 10
77.13917147146856
 20
148.1587746949004
 30
0.0
 10
77.80655763707124
 20
153.1707743099189
 30
0.0
  0
LINE
  5
2CE
330
1F
100
AcDbEntity
  8
0
  6
Continuous
 62
     7
370
    15
100
AcDbLine
 10
78.1530802247
 20
153.4976226408
 30
0.0
 11
77.8065576371
 21
153.1707743099
 31
0.0
  0
LWPOLYLINE
  5
2CF
330
1F
100
AcDbEntity
  8
0
  6
Continuous
 62
     7
370
    15
100
AcDbPolyline
 90
       33
 70
   128
 43
0.0
 10
76.5127091421
 20
134.3653000314
 10
76.4437428074
 20
133.6279734696
 10
76.392774452
 20
132.9189819541
 10
76.3617627611
 20
132.2655716312
 10
76.3518994967
 20
131.6928526932
 10
76.3635636985
 20
131.2228344076
 10
76.3963071178
 20
130.8735793137
 10
76.4488714433
 20
130.6585090888
 10
76.5192366574
 20
130.585888761
 10
76.6046986645
 20
130.6585090888
 10
76.7019732076
 20
130.8735793137
 10
76.8073220804
 20
131.2228344076
 10
76.916696785
 20
131.6928526932
 10
77.0258941127
 20
132.2655716312
 10
77.1307176714
 20
132.9189819541
 10
77.2271391507
 20
133.6279734696
 10
77.3114531271
 20
134.3653000314
 10
77.3804194618
 20
135.1026265932
 10
77.4313878173
 20
135.8116181087
 10
77.4623995081
 20
136.4650284316
 10
77.4722627725
 20
137.0377473696
 10
77.4605985707
 20
137.5077656551
 10
77.4278551514
 20
137.8570207491
 10
77.3752908259
 20
138.072090974
 10
77.3049256118
 20
138.1447113018
 10
77.2194636047
 20
138.072090974
 10
77.1221890617
 20
137.8570207491
 10
77.0168401888
 20
137.5077656551
 10
76.9074654843
 20
137.0377473696
 10
76.7982681566
 20
136.4650284316
 10
76.6934445978
 20
135.8116181087
 10
76.5970231185
 20
135.1026265932
 10
76.5127091421
 20
134.3653000314
  0
LINE
  5
2D0
330
1F
100
AcDbEntity
  8
0
  6
Continuous
 62
     7
370
    15
100
AcDbLine
 10
77.0210496822
 20
139.526878265
 30
0.0
 11
78.7377274258
 21
140.681690658
 31
0.0
  0
LINE
  5
2D1
330
1F
100
AcDbEntity
  8
0
  6
Continuous
 62
     7
370
    15
100
AcDbLine
 10
84.7641199915
 20
140.8619989373
 30
0.0
 11
84.7387528594
 21
140.8449344192
 31
0.0
  0
ARC
  5
2D2
330
1F
100
AcDbEntity
  8
0
  6
Continuous
 62
     7
370
    15
100
AcDbCircle
 10
80.1972262774
 20
111.7462852618
 30
0.0
 40
27.0
100
AcDbArc
 50
249.3432640698
 51
0.0
  0
LINE
  5
2D3
330
1F
100
AcDbEntity
  8
0
  6
Continuous
 62
     7
370
    15
100
AcDbLine
 10
107.1972262774
 20
111.7662273778
 30
0.0
 11
107.1972262774
 21
111.7462852618
 31
0.0
  0
ARC
  5
2D4
330
1F
100
AcDbEntity
  8
0
  6
Continuous
 62
     7
370
    15
100
AcDbCircle
 10
95.9155685514
 20
132.3679530191
 30
0.0
 40
19.21159233817904
100
AcDbArc
 50
163.9855881582
 51
184.0144118418
  0
SPLINE
  5
2D5
330
1F
100
AcDbEntity
  8
0
  6
Continuous
 62
     7
370
    15
100
AcDbSpline
210
0.0
220
0.0
230
1.0
 70
     8
 71
     3
 72
    20
 73
    16
 74
     0
 42
0.00000001
 43
0.00000001
 40
0.0
 40
0.0
 40
0.0
 40
0.0
 40
0.2500000000000021
 40
0.2500000000000021
 40
0.3750000000000017
 40
0.3750000000000017
 40
0.5000000000000013
 40
0.5000000000000013
 40
0.6250000000000009
 40
0.6250000000000009
 40
0.7500000000000006
 40
0.7500000000000006
 40
0.8750000000000003
 40
0.8750000000000003
 40
1.0
 40
1.0
 40
1.0
 40
1.0
 10
75.60874925124881
 20
137.3381956746753
 30
0.0
 10
75.54135472047993
 20
137.3261122369354
 30
0.0
 10
75.37744146669613
 20
137.2969983169245
 30
0.0
 10
74.99027492716519
 20
137.2198985400167
 30
0.0
 10
74.83936651779119
 20
137.1888372191724
 30
0.0
 10
74.50024764584683
 20
137.1150563352847
 30
0.0
 10
74.31146027196696
 20
137.072230230519
 30
0.0
 10
73.89568109318436
 20
136.9719915615373
 30
0.0
 10
73.67045475860134
 20
136.9149384951579
 30
0.0
 10
73.19800390092055
 20
136.787665778142
 30
0.0
 10
72.94932360851504
 20
136.717106900478
 30
0.0
 10
72.42835190283061
 20
136.5599632914772
 30
0.0
 10
72.15639234238033
 20
136.4733882852305
 30
0.0
 10
71.60512071383133
 20
136.2872786460628
 30
0.0
 10
71.32399729588153
 20
136.1872189274778
 30
0.0
 10
71.03792726961906
 20
136.0795390862781
 30
0.0
  0
SPLINE
  5
2D6
330
1F
100
AcDbEntity
  8
0
  6
Continuous
 62
     7
370
    15
100
AcDbSpline
210
0.0
220
0.0
230
1.0
 70
     8
 71
     3
 72
    20
 73
    16
 74
     0
 42
0.00000001
 43
0.00000001
 40
0.0
 40
0.0
 40
0.0
 40
0.0
 40
0.2499999999999996
 40
0.2499999999999996
 40
0.3749999999999997
 40
0.3749999999999997
 40
0.4999999999999998
 40
0.4999999999999998
 40
0.6249999999999999
 40
0.6249999999999999
 40
0.7499999999999999
 40
0.7499999999999999
 40
0.875
 40
0.875
 40
1.0
 40
1.0
 40
1.0
 40
1.0
 10
66.17891198278957
 20
89.84909675874356
 30
0.0
 10
66.69395397063087
 20
89.5193731296366
 30
0.0
 10
67.19327952129186
 20
89.22531470784624
 30
0.0
 10
67.90930633279547
 20
88.83163470986058
 30
0.0
 10
68.1418323487354
 20
88.70876478038727
 30
0.0
 10
68.577546752849
 20
88.4859559336606
 30
0.0
 10
68.78289487430082
 20
88.3848158876446
 30
0.0
 10
69.16650484070277
 20
88.20125612006089
 30
0.0
 10
69.34617365826125
 20
88.11822556983985
 30
0.0
 10
69.66480857590075
 20
87.97448000617672
 30
0.0
 10
69.80466212499898
 20
87.91328958925746
 30
0.0
 10
70.04472340650072
 20
87.81004165831092
 30
0.0
 10
70.14542187671182
 20
87.76778746266878
 30
0.0
 10
70.30136320421678
 20
87.7030113073354
 30
0.0
 10
70.35642988794082
 20
87.68054404346059
 30
0.0
 10
70.38816111804947
 20
87.66761751002734
 30
0.0
  0
ELLIPSE
  5
2D7
330
1F
100
AcDbEntity
  8
0
  6
Continuous
 62
     7
370
    15
100
AcDbEllipse
 10
64.6549772067
 20
124.8799522854
 30
0.0
 11
2.354419390566491
 21
3.224310437053403
 31
0.0
210
0.0
220
0.0
230
1.0
 40
0.6104710892
 41
0.0
 42
6.283185307179586
  0
ARC
  5
2D8
330
1F
100
AcDbEntity
  8
0
  6
Continuous
 62
     7
370
    15
100
AcDbCircle
 10
80.1972262774
 20
111.7462852618
 30
0.0
 40
26.0
100
AcDbArc
 50
110.6268784213
 51
237.3731215787
  0
SPLINE
  5
2D9
330
1F
100
AcDbEntity
  8
0
  6
Continuous
 62
     7
370
    15
100
AcDbSpline
210
0.0
220
0.0
230
1.0
 70
     8
 71
     3
 72
    22
 73
    18
 74
     0
 42
0.00000001
 43
0.00000001
 40
0.0
 40
0.0
 40
0.0
 40
0.0
 40
0.0188417852506784
 40
0.0804495534460181
 40
0.143036889033618
 40
0.1794913936085082
 40
0.2169137344445537
 40
0.2534224269004307
 40
0.2910188131104201
 40
0.3535837164675799
 40
0.4175690932238926
 40
0.5160345198235379
 40
0.6153292781394154
 40
0.7165464722225933
 40
0.8183706989309998
 40
0.988505418500843
 40
1.0
 40
1.0
 40
1.0
 40
1.0
 10
63.95383228126123
 20
121.4921425610226
 30
0.0
 10
63.95020517008334
 20
121.5088276658499
 30
0.0
 10
63.93471834276436
 20
121.5800687512725
 30
0.0
 10
63.91601713926796
 20
121.7019783513941
 30
0.0
 10
63.90807715932795
 20
121.8347692094671
 30
0.0
 10
63.9215724475338
 20
121.9384924604049
 30
0.0
 10
63.94798424634529
 20
122.0137970923177
 30
0.0
 10
63.99124173740746
 20
122.077562563311
 30
0.0
 10
64.06077800680563
 20
122.1393939354041
 30
0.0
 10
64.16189306056611
 20
122.1907347607959
 30
0.0
 10
64.31242363830452
 20
122.2345851153654
 30
0.0
 10
64.4931861724263
 20
122.2594517099444
 30
0.0
 10
64.69608230466095
 20
122.2638347715551
 30
0.0
 10
64.89334236184534
 20
122.2487549433425
 30
0.0
 10
65.12000998074991
 20
122.2063122835938
 30
0.0
 10
65.28050199150205
 20
122.1578163698901
 30
0.0
 10
65.36284244347577
 20
122.1097431625616
 30
0.0
 10
65.36805343658273
 20
122.106700804328
 30
0.0
  0
LINE
  5
2DA
330
1F
100
AcDbEntity
  8
0
  6
Continuous
 62
     7
370
    15
100
AcDbLine
 10
75.8102654713
 20
138.1462852618
 30
0.0
 11
74.5368375981
 21
138.1462852618
 31
0.0
  0
SPLINE
  5
2DB
330
1F
100
AcDbEntity
  8
0
  6
Continuous
 62
     7
370
    15
100
AcDbSpline
210
0.0
220
0.0
230
1.0
 70
    24
 71
     3
 72
    10
 73
     6
 74
     0
 42
0.00000001
 43
0.00000001
 40
0.0
 40
0.0
 40
0.0
 40
0.0
 40
0.5
 40
0.5
 40
1.0
 40
1.0
 40
1.0
 40
1.0
 10
71.19722627737222
 20
82.18600786120521
 30
0.0
 10
71.19722627737222
 20
82.02612059301156
 30
0.0
 10
71.19722627737222
 20
81.86499333749694
 30
0.0
 10
71.19722627737222
 20
81.6308943391421
 30
0.0
 10
71.19722627737222
 20
81.55936756555087
 30
0.0
 10
71.19722627737222
 20
81.55936756555087
 30
0.0
  0
ARC
  5
2DC
330
1F
100
AcDbEntity
  8
0
  6
Continuous
 62
     7
370
    15
100
AcDbCircle
 10
80.1972262774
 20
111.7462852618
 30
0.0
 40
31.5
100
AcDbArc
 50
140.9381656697
 51
253.398450401
  0
SPLINE
  5
2DD
330
1F
100
AcDbEntity
  8
0
  6
Continuous
 62
     7
370
    15
100
AcDbSpline
210
0.0
220
0.0
230
1.0
 70
    24
 71
     3
 72
    12
 73
     8
 74
     0
 42
0.00000001
 43
0.00000001
 40
0.0
 40
0.0
 40
0.0
 40
0.0
 40
0.2499999999999993
 40
0.2499999999999993
 40
0.4999999999999987
 40
0.4999999999999987
 40
1.0
 40
1.0
 40
1.0
 40
1.0
 10
55.73853661500461
 20
131.596285261798
 30
0.0
 10
55.73853661500461
 20
131.596285261798
 30
0.0
 10
55.76636633530808
 20
131.596285261798
 30
0.0
 10
55.86150879656475
 20
131.596285261798
 30
0.0
 10
55.92793161286512
 20
131.596285261798
 30
0.0
 10
56.15213104438524
 20
131.596285261798
 30
0.0
 10
56.33611744693085
 20
131.596285261798
 30
0.0
 10
56.51627401611384
 20
131.596285261798
 30
0.0
  0
SPLINE
  5
2DE
330
1F
100
AcDbEntity
  8
0
  6
Continuous
 62
     7
370
    15
100
AcDbSpline
210
0.0
220
0.0
230
1.0
 70
    24
 71
     3
 72
    10
 73
     6
 74
     0
 42
0.00000001
 43
0.00000001
 40
0.0
 40
0.0
 40
0.0
 40
0.0
 40
0.5
 40
0.5
 40
1.0
 40
1.0
 40
1.0
 40
1.0
 10
72.19722627737221
 20
141.5927255855619
 30
0.0
 10
72.19722627737221
 20
141.7531308519127
 30
0.0
 10
72.19722627737221
 20
141.9121926649013
 30
0.0
 10
72.19722627737222
 20
142.1431051305316
 30
0.0
 10
72.19722627737222
 20
142.2134807349623
 30
0.0
 10
72.19722627737222
 20
142.2134807349623
 30
0.0
  0
SPLINE
  5
2DF
330
1F
100
AcDbEntity
  8
0
  6
Continuous
 62
     7
370
    15
100
AcDbSpline
210
0.0
220
0.0
230
1.0
 70
    24
 71
     3
 72
    12
 73
     8
 74
     0
 42
0.00000001
 43
0.00000001
 40
0.0
 40
0.0
 40
0.0
 40
0.0
 40
0.249999999999998
 40
0.249999999999998
 40
0.499999999999996
 40
0.499999999999996
 40
1.0
 40
1.0
 40
1.0
 40
1.0
 10
60.34722627737222
 20
136.2049749241654
 30
0.0
 10
60.34722627737222
 20
136.2049749241654
 30
0.0
 10
60.34722627737222
 20
136.1767552255776
 30
0.0
 10
60.34722627737222
 20
136.0823122183294
 30
0.0
 10
60.34722627737222
 20
136.0160252416242
 30
0.0
 10
60.34722627737222
 20
135.7904004183358
 30
0.0
 10
60.34722627737222
 20
135.6079741553033
 30
0.0
 10
60.34722627737222
 20
135.4272375230564
 30
0.0
  0
ARC
  5
2E0
330
1F
100
AcDbEntity
  8
0
  6
Continuous
 62
     7
370
    15
100
AcDbCircle
 10
80.1972262774
 20
111.7462852618
 30
0.0
 40
31.50000000000002
100
AcDbArc
 50
104.7124579609
 51
129.0618343303
  0
ARC
  5
2E1
330
1F
100
AcDbEntity
  8
0
  6
Continuous
 62
     7
370
    15
100
AcDbCircle
 10
80.1972262774
 20
111.7462852618
 30
0.0
 40
31.5
100
AcDbArc
 50
286.601549599
 51
31.0027191339
  0
SPLINE
  5
2E2
330
1F
100
AcDbEntity
  8
0
  6
Continuous
 62
     7
370
    15
100
AcDbSpline
210
0.0
220
0.0
230
1.0
 70
    24
 71
     3
 72
    12
 73
     8
 74
     0
 42
0.00000001
 43
0.00000001
 40
0.0
 40
0.0
 40
0.0
 40
0.0
 40
0.2500000000000018
 40
0.2500000000000018
 40
0.5000000000000037
 40
0.5000000000000037
 40
1.0
 40
1.0
 40
1.0
 40
1.0
 10
89.19722627737222
 20
81.55936756555087
 30
0.0
 10
89.19722627737222
 20
81.55936756555087
 30
0.0
 10
89.19722627737222
 20
81.57648465181671
 30
0.0
 10
89.19722627737222
 20
81.64122076329183
 30
0.0
 10
89.19722627737222
 20
81.68867800617215
 30
0.0
 10
89.19722627737222
 20
81.86550244871164
 30
0.0
 10
89.19722627737222
 20
82.02577895591736
 30
0.0
 10
89.19722627737222
 20
82.18600786120516
 30
0.0
  0
LINE
  5
2E3
330
1F
100
AcDbEntity
  8
0
  6
Continuous
 62
     7
370
    15
100
AcDbLine
 10
89.1972262774
 20
82.1860078612
 30
0.0
 11
89.1972262774
 21
85.3462852618
 31
0.0
  0
LINE
  5
2E4
330
1F
100
AcDbEntity
  8
0
  6
Continuous
 62
     7
370
    15
100
AcDbLine
 10
89.1972262774
 20
85.3462852618
 30
0.0
 11
85.8576149566
 21
85.3462852618
 31
0.0
  0
LINE
  5
2E5
330
1F
100
AcDbEntity
  8
0
  6
Continuous
 62
     7
370
    15
100
AcDbLine
 10
72.1972262774
 20
138.1462852618
 30
0.0
 11
72.1972262774
 21
141.5927255856
 31
0.0
  0
LINE
  5
2E6
330
1F
100
AcDbEntity
  8
0
  6
Continuous
 62
     7
370
    15
100
AcDbLine
 10
71.1972262774
 20
85.3462852618
 30
0.0
 11
71.1972262774
 21
82.1860078612
 31
0.0
  0
LINE
  5
2E7
330
1F
100
AcDbEntity
  8
0
  6
Continuous
 62
     7
370
    15
100
AcDbLine
 10
60.3472262774
 20
135.4272375231
 30
0.0
 11
60.3472262774
 21
131.5962852618
 31
0.0
  0
LINE
  5
2E8
330
1F
100
AcDbEntity
  8
0
  6
Continuous
 62
     7
370
    15
100
AcDbLine
 10
56.5162740161
 20
131.5962852618
 30
0.0
 11
60.3472262774
 21
131.5962852618
 31
0.0
  0
LINE
  5
2E9
330
1F
100
AcDbEntity
  8
0
  6
Continuous
 62
     7
370
    15
100
AcDbLine
 10
74.5368375981
 20
138.1462852618
 30
0.0
 11
72.1972262774
 21
138.1462852618
 31
0.0
  0
LINE
  5
2EA
330
1F
100
AcDbEntity
  8
0
  6
Continuous
 62
     7
370
    15
100
AcDbLine
 10
74.5368375981
 20
85.3462852618
 30
0.0
 11
71.1972262774
 21
85.3462852618
 31
0.0
  0
SPLINE
  5
2EB
330
1F
100
AcDbEntity
  8
0
  6
Continuous
 62
     7
370
    15
100
AcDbSpline
210
0.0
220
0.0
230
1.0
 70
     8
 71
     3
 72
    30
 73
    26
 74
     0
 42
0.00000001
 43
0.00000001
 40
0.0
 40
0.0
 40
0.0
 40
0.0
 40
0.1250000000000004
 40
0.1250000000000004
 40
0.1875000000000006
 40
0.1875000000000006
 40
0.2500000000000008
 40
0.2500000000000008
 40
0.3750000000000009
 40
0.3750000000000009
 40
0.4375000000000009
 40
0.4375000000000009
 40
0.5000000000000009
 40
0.5000000000000009
 40
0.6250000000000012
 40
0.6250000000000012
 40
0.6875000000000011
 40
0.6875000000000011
 40
0.7500000000000009
 40
0.7500000000000009
 40
0.8125000000000008
 40
0.8125000000000008
 40
0.8750000000000007
 40
0.8750000000000007
 40
1.0
 40
1.0
 40
1.0
 40
1.0
 10
81.1972262773723
 20
80.26216227893572
 30
0.0
 10
81.72864420777287
 20
80.27904119694432
 30
0.0
 10
82.25030340534704
 20
80.309058761769
 30
0.0
 10
83.01894519250608
 20
80.3718691510421
 30
0.0
 10
83.27283499167109
 20
80.39577305826899
 30
0.0
 10
83.77590776761717
 20
80.4492083507114
 30
0.0
 10
84.02537161583382
 20
80.47881521887896
 30
0.0
 10
84.75028251343068
 20
80.57326491759338
 30
0.0
 10
85.20815985032286
 20
80.6442923114226
 30
0.0
 10
85.8579270758057
 20
80.75830659812836
 30
0.0
 10
86.06931377921588
 20
80.79776184926892
 30
0.0
 10
86.47394758998604
 20
80.8772832920396
 30
0.0
 10
86.66668806148725
 20
80.91721943454039
 30
0.0
 10
87.21711893786419
 20
81.03615583736855
 30
0.0
 10
87.5473023151448
 20
81.1143206012524
 30
0.0
 10
87.98597813179524
 20
81.22403004152129
 30
0.0
 10
88.12177669028176
 20
81.25911087822969
 30
0.0
 10
88.36865372312793
 20
81.3243511576093
 30
0.0
 10
88.48043226045594
 20
81.35468597365404
 30
0.0
 10
88.68086245032956
 20
81.41002435287591
 30
0.0
 10
88.76951479353303
 20
81.43502902943597
 30
0.0
 10
88.92318234121416
 20
81.47890883832666
 30
0.0
 10
88.988430045466
 20
81.49785252308897
 30
0.0
 10
89.14473509883027
 20
81.54357225035916
 30
0.0
 10
89.19722627737227
 20
81.5593675655509
 30
0.0
 10
89.19722627737227
 20
81.5593675655509
 30
0.0
  0
SPLINE
  5
2EC
330
1F
100
AcDbEntity
  8
0
  6
Continuous
 62
     7
370
    15
100
AcDbSpline
210
0.0
220
0.0
230
1.0
 70
     8
 71
     3
 72
    28
 73
    24
 74
     0
 42
0.00000001
 43
0.00000001
 40
0.0
 40
0.0
 40
0.0
 40
0.0
 40
0.1250000000000007
 40
0.1250000000000007
 40
0.1875000000000008
 40
0.1875000000000008
 40
0.2500000000000009
 40
0.2500000000000009
 40
0.3750000000000013
 40
0.3750000000000013
 40
0.4375000000000013
 40
0.4375000000000013
 40
0.500000000000001
 40
0.500000000000001
 40
0.6250000000000007
 40
0.6250000000000007
 40
0.7500000000000002
 40
0.7500000000000002
 40
0.8125000000000002
 40
0.8125000000000002
 40
0.8750000000000001
 40
0.8750000000000001
 40
1.0
 40
1.0
 40
1.0
 40
1.0
 10
71.19722627737228
 20
81.55936756555089
 30
0.0
 10
71.19722627737228
 20
81.55936756555089
 30
0.0
 10
71.2497026196905
 20
81.54358285160066
 30
0.0
 10
71.4034995672474
 20
81.49858743752445
 30
0.0
 10
71.4673745422814
 20
81.48003244244873
 30
0.0
 10
71.62087081093793
 20
81.43617972000223
 30
0.0
 10
71.71068578633162
 20
81.41083511305004
 30
0.0
 10
72.01266458138248
 20
81.32743303529993
 30
0.0
 10
72.25861801543824
 20
81.26156747614884
 30
0.0
 10
72.69398519486663
 20
81.15259713565705
 30
0.0
 10
72.85120037703898
 20
81.1143574998904
 30
0.0
 10
73.18336499758144
 20
81.03659876247104
 30
0.0
 10
73.35817226318431
 20
80.9970978002957
 30
0.0
 10
73.90823145377014
 20
80.8781900579297
 30
0.0
 10
74.30885483816562
 20
80.79837237650509
 30
0.0
 10
75.18144094951431
 20
80.64502921470903
 30
0.0
 10
75.6415763971159
 20
80.57369546143977
 30
0.0
 10
76.36154249108206
 20
80.47975195436514
 30
0.0
 10
76.6068162011166
 20
80.45055816100522
 30
0.0
 10
77.10827253754543
 20
80.39709158674181
 30
0.0
 10
77.36570390691796
 20
80.37273225246663
 30
0.0
 10
78.14164370278246
 20
80.3091421070219
 30
0.0
 10
78.66587210268848
 20
80.27903917193264
 30
0.0
 10
79.1972262773723
 20
80.26216227893572
 30
0.0
  0
SPLINE
  5
2ED
330
1F
100
AcDbEntity
  8
0
  6
Continuous
 62
     7
370
    15
100
AcDbSpline
210
0.0
220
0.0
230
1.0
 70
     8
 71
     3
 72
    18
 73
    14
 74
     0
 42
0.00000001
 43
0.00000001
 40
0.0
 40
0.0
 40
0.0
 40
0.0
 40
0.0750241465823527
 40
0.2265657062678761
 40
0.3039946875320473
 40
0.3789949763428532
 40
0.5304099930660856
 40
0.6076753819633635
 40
0.7609605262592054
 40
0.838730967138875
 40
0.9176038771820983
 40
0.994792642899165
 40
1.0
 40
1.0
 40
1.0
 40
1.0
 10
72.19722627737227
 20
142.2134807349622
 30
0.0
 10
72.20259689503752
 20
142.2148906339352
 30
0.0
 10
72.21881564379841
 20
142.2191483932185
 30
0.0
 10
72.37008407629443
 20
142.2587250780766
 30
0.0
 10
72.62023961837805
 20
142.3216933764143
 30
0.0
 10
72.93986814860773
 20
142.3997410160818
 30
0.0
 10
73.35815314273977
 20
142.4966491130319
 30
0.0
 10
73.99656335302808
 20
142.6321090429905
 30
0.0
 10
74.60067248083422
 20
142.7481579239225
 30
0.0
 10
75.28160884398811
 20
142.8621808804233
 30
0.0
 10
75.83380362508909
 20
142.9434951862814
 30
0.0
 10
76.22898976535178
 20
142.9978704524934
 30
0.0
 10
76.4436289232577
 20
143.0215961556833
 30
0.0
 10
76.45719391521139
 20
143.0230955977049
 30
0.0
  0
SPLINE
  5
2EE
330
1F
100
AcDbEntity
  8
0
  6
Continuous
 62
     7
370
    15
100
AcDbSpline
210
0.0
220
0.0
230
1.0
 70
     8
 71
     3
 72
    20
 73
    16
 74
     0
 42
0.00000001
 43
0.00000001
 40
0.0
 40
0.0
 40
0.0
 40
0.0
 40
0.2500000000000006
 40
0.2500000000000006
 40
0.3750000000000004
 40
0.3750000000000004
 40
0.5000000000000003
 40
0.5000000000000003
 40
0.6250000000000002
 40
0.6250000000000002
 40
0.7500000000000002
 40
0.7500000000000002
 40
0.8750000000000001
 40
0.8750000000000001
 40
1.0
 40
1.0
 40
1.0
 40
1.0
 10
55.73853661500487
 20
131.596285261798
 30
0.0
 10
56.26919338283955
 20
132.2501476900954
 30
0.0
 10
56.80292137910108
 20
132.8539334720926
 30
0.0
 10
57.58589369708983
 20
133.6807722082612
 30
0.0
 10
57.8438772971865
 20
133.9432008462141
 30
0.0
 10
58.34827255359431
 20
134.4398635003191
 30
0.0
 10
58.59105097602232
 20
134.6704503793406
 30
0.0
 10
59.04173105553538
 20
135.0870046039232
 30
0.0
 10
59.25119492152665
 20
135.2745024058907
 30
0.0
 10
59.62948343811471
 20
135.6058993835271
 30
0.0
 10
59.79323112429919
 20
135.7454033710224
 30
0.0
 10
60.06141692649864
 20
135.9708568784934
 30
0.0
 10
60.16664133458537
 20
136.057482990037
 30
0.0
 10
60.31070055989888
 20
136.1754637788911
 30
0.0
 10
60.34722627737226
 20
136.2049749241654
 30
0.0
 10
60.34722627737226
 20
136.2049749241654
 30
0.0
  0
ARC
  5
2EF
330
1F
100
AcDbEntity
  8
0
  6
Continuous
 62
     7
370
    15
100
AcDbCircle
 10
80.1972262774
 20
111.7462852618
 30
0.0
 40
31.49999999999999
100
AcDbArc
 50
268.180780706
 51
271.819219294
  0
CIRCLE
  5
2F0
330
1F
100
AcDbEntity
  8
VERMASSUNG
  6
CENTERX2
100
AcDbCircle
 10
80.1972262774
 20
116.701864081
 30
0.0
 40
40.00000000000002
  0
DIMENSION
  5
2F1
330
1F
100
AcDbEntity
  8
VERMASSUNG
100
AcDbDimension
  2
*D6
 10
36.4637956204
 20
156.701864081
 30
0.0
 11
36.4637956204
 21
116.701864081
 31
0.0
 70
   160
  1
%%c<>
 71
     2
 42
-1.0
  3
SLDDIMSTYLE2
100
AcDbAlignedDimension
 13
80.1972262774
 23
76.701864081
 33
0.0
 14
80.1972262774
 24
156.701864081
 34
0.0
 50
90.0
100
AcDbRotatedDimension
  0
INSERT
  5
308
330
1F
100
AcDbEntity
  8
VERMASSUNG
100
AcDbBlockReference
  2
SW_CENTERMARKSYMBOL_0
 10
80.1972262774
 20
111.7462852618
 30
0.0
  0
OLE2FRAME
  5
309
330
1F
100
AcDbEntity
  8
0
100
AcDbOle2Frame
 70
     2
  3
Bitmap Image
 10
13.8511154363
 20
38.264191557
 30
0.0
 11
51.6290888628
 21
31.9806341108
 31
0.0
 71
     2
 72
     0
 73
     1
 90
    12928
310
80552BED0767C5B32B40DDAF6807D121434000000000000000006FFBDDFB85D0
310
4940DDAF6807D121434000000000000000006FFBDDFB85D04940416F4BD60AFB
310
3F4000000000000000002BED0767C5B32B40416F4BD60AFB3F40000000000000
310
0000000000000100000000010000010000000100000000000100000000320000
310
D0CF11E0A1B11AE1000000000000000000000000000000003E000300FEFF0900
310
0600000000000000000000000100000001000000000000000010000002000000
310
01000000FEFFFFFF0000000000000000FFFFFFFFFFFFFFFFFFFFFFFFFFFFFFFF
310
FFFFFFFFFFFFFFFFFFFFFFFFFFFFFFFFFFFFFFFFFFFFFFFFFFFFFFFFFFFFFFFF
310
FFFFFFFFFFFFFFFFFFFFFFFFFFFFFFFFFFFFFFFFFFFFFFFFFFFFFFFFFFFFFFFF
310
FFFFFFFFFFFFFFFFFFFFFFFFFFFFFFFFFFFFFFFFFFFFFFFFFFFFFFFFFFFFFFFF
310
FFFFFFFFFFFFFFFFFFFFFFFFFFFFFFFFFFFFFFFFFFFFFFFFFFFFFFFFFFFFFFFF
310
FFFFFFFFFFFFFFFFFFFFFFFFFFFFFFFFFFFFFFFFFFFFFFFFFFFFFFFFFFFFFFFF
310
FFFFFFFFFFFFFFFFFFFFFFFFFFFFFFFFFFFFFFFFFFFFFFFFFFFFFFFFFFFFFFFF
310
FFFFFFFFFFFFFFFFFFFFFFFFFFFFFFFFFFFFFFFFFFFFFFFFFFFFFFFFFFFFFFFF
310
FFFFFFFFFFFFFFFFFFFFFFFFFFFFFFFFFFFFFFFFFFFFFFFFFFFFFFFFFFFFFFFF
310
FFFFFFFFFFFFFFFFFFFFFFFFFFFFFFFFFFFFFFFFFFFFFFFFFFFFFFFFFFFFFFFF
310
FFFFFFFFFFFFFFFFFFFFFFFFFFFFFFFFFFFFFFFFFFFFFFFFFFFFFFFFFFFFFFFF
310
FFFFFFFFFFFFFFFFFFFFFFFFFFFFFFFFFFFFFFFFFFFFFFFFFFFFFFFFFFFFFFFF
310
FFFFFFFFFFFFFFFFFFFFFFFFFFFFFFFFFFFFFFFFFFFFFFFFFFFFFFFFFFFFFFFF
310
FFFFFFFFFFFFFFFFFFFFFFFFFFFFFFFFFFFFFFFFFFFFFFFFFFFFFFFFFFFFFFFF
310
FDFFFFFFFEFFFFFFFEFFFFFFFEFFFFFF05000000060000000700000008000000
310
090000000A0000000B0000000C0000000D0000000E0000000F00000010000000
310
11000000120000001300000014000000150000001600000017000000FEFFFFFF
310
FFFFFFFFFFFFFFFFFFFFFFFFFFFFFFFFFFFFFFFFFFFFFFFFFFFFFFFFFFFFFFFF
310
FFFFFFFFFFFFFFFFFFFFFFFFFFFFFFFFFFFFFFFFFFFFFFFFFFFFFFFFFFFFFFFF
310
FFFFFFFFFFFFFFFFFFFFFFFFFFFFFFFFFFFFFFFFFFFFFFFFFFFFFFFFFFFFFFFF
310
FFFFFFFFFFFFFFFFFFFFFFFFFFFFFFFFFFFFFFFFFFFFFFFFFFFFFFFFFFFFFFFF
310
FFFFFFFFFFFFFFFFFFFFFFFFFFFFFFFFFFFFFFFFFFFFFFFFFFFFFFFFFFFFFFFF
310
FFFFFFFFFFFFFFFFFFFFFFFFFFFFFFFFFFFFFFFFFFFFFFFFFFFFFFFFFFFFFFFF
310
FFFFFFFFFFFFFFFFFFFFFFFFFFFFFFFFFFFFFFFFFFFFFFFFFFFFFFFFFFFFFFFF
310
FFFFFFFFFFFFFFFFFFFFFFFFFFFFFFFFFFFFFFFFFFFFFFFFFFFFFFFFFFFFFFFF
310
FFFFFFFFFFFFFFFFFFFFFFFFFFFFFFFFFFFFFFFFFFFFFFFFFFFFFFFFFFFFFFFF
310
FFFFFFFFFFFFFFFFFFFFFFFFFFFFFFFFFFFFFFFFFFFFFFFFFFFFFFFFFFFFFFFF
310
FFFFFFFFFFFFFFFFFFFFFFFFFFFFFFFFFFFFFFFFFFFFFFFFFFFFFFFFFFFFFFFF
310
FFFFFFFFFFFFFFFFFFFFFFFFFFFFFFFFFFFFFFFFFFFFFFFFFFFFFFFFFFFFFFFF
310
FFFFFFFFFFFFFFFFFFFFFFFFFFFFFFFFFFFFFFFFFFFFFFFFFFFFFFFFFFFFFFFF
310
52006F006F007400200045006E00740072007900000000000000000000000000
310
0000000000000000000000000000000000000000000000000000000000000000
310
16000500FFFFFFFFFFFFFFFF020000000A00030000000000C000000000000046
310
00000000000000000000000020723C8DBAB7CB0103000000C000000000000000
310
01004F006C006500000000000000000000000000000000000000000000000000
310
0000000000000000000000000000000000000000000000000000000000000000
310
0A000200FFFFFFFFFFFFFFFFFFFFFFFF00000000000000000000000000000000
310
0000000000000000000000000000000000000000000000001400000000000000
310
010043006F006D0070004F0062006A0000000000000000000000000000000000
310
0000000000000000000000000000000000000000000000000000000000000000
310
120002010100000003000000FFFFFFFF00000000000000000000000000000000
310
0000000000000000000000000000000000000000010000004D00000000000000
310
01004F006C006500310030004E00610074006900760065000000000000000000
310
0000000000000000000000000000000000000000000000000000000000000000
310
1A000200FFFFFFFFFFFFFFFFFFFFFFFF00000000000000000000000000000000
310
0000000000000000000000000000000000000000040000002426000000000000
310
FEFFFFFF02000000FEFFFFFFFFFFFFFFFFFFFFFFFFFFFFFFFFFFFFFFFFFFFFFF
310
FFFFFFFFFFFFFFFFFFFFFFFFFFFFFFFFFFFFFFFFFFFFFFFFFFFFFFFFFFFFFFFF
310
FFFFFFFFFFFFFFFFFFFFFFFFFFFFFFFFFFFFFFFFFFFFFFFFFFFFFFFFFFFFFFFF
310
FFFFFFFFFFFFFFFFFFFFFFFFFFFFFFFFFFFFFFFFFFFFFFFFFFFFFFFFFFFFFFFF
310
FFFFFFFFFFFFFFFFFFFFFFFFFFFFFFFFFFFFFFFFFFFFFFFFFFFFFFFFFFFFFFFF
310
FFFFFFFFFFFFFFFFFFFFFFFFFFFFFFFFFFFFFFFFFFFFFFFFFFFFFFFFFFFFFFFF
310
FFFFFFFFFFFFFFFFFFFFFFFFFFFFFFFFFFFFFFFFFFFFFFFFFFFFFFFFFFFFFFFF
310
FFFFFFFFFFFFFFFFFFFFFFFFFFFFFFFFFFFFFFFFFFFFFFFFFFFFFFFFFFFFFFFF
310
FFFFFFFFFFFFFFFFFFFFFFFFFFFFFFFFFFFFFFFFFFFFFFFFFFFFFFFFFFFFFFFF
310
FFFFFFFFFFFFFFFFFFFFFFFFFFFFFFFFFFFFFFFFFFFFFFFFFFFFFFFFFFFFFFFF
310
FFFFFFFFFFFFFFFFFFFFFFFFFFFFFFFFFFFFFFFFFFFFFFFFFFFFFFFFFFFFFFFF
310
FFFFFFFFFFFFFFFFFFFFFFFFFFFFFFFFFFFFFFFFFFFFFFFFFFFFFFFFFFFFFFFF
310
FFFFFFFFFFFFFFFFFFFFFFFFFFFFFFFFFFFFFFFFFFFFFFFFFFFFFFFFFFFFFFFF
310
FFFFFFFFFFFFFFFFFFFFFFFFFFFFFFFFFFFFFFFFFFFFFFFFFFFFFFFFFFFFFFFF
310
FFFFFFFFFFFFFFFFFFFFFFFFFFFFFFFFFFFFFFFFFFFFFFFFFFFFFFFFFFFFFFFF
310
FFFFFFFFFFFFFFFFFFFFFFFFFFFFFFFFFFFFFFFFFFFFFFFFFFFFFFFFFFFFFFFF
310
010000020000000000000000000000000000000061007200650064005C003100
310
30002E0030005C0044004C004C005300680061007200650064005C003B004300
310
0100FEFF030A0000FFFFFFFF0A00030000000000C00000000000004607000000
310
5042727573680007000000504272757368000700000050427275736800F439B2
310
71000000000000000000000000004100540049002E004100430045005C004300
310
6F00720065002D005300740061007400690063003B0043003A005C0050007200
310
6F006700720061006D002000460069006C006500730020002800780038003600
310
29005C0043006F006D006D006F006E002000460069006C00650073005C004100
310
750074006F006400650073006B0020005300680061007200650064005C003B00
310
43003A005C00500072006F006700720061006D002000460069006C0065007300
310
5C004E006F0072006D0061006E005C004E0070006D005C00420069006E000000
310
43003A005C00500072006F006700720061006D002000460069006C0065007300
310
5C0053006F006C006900640057006F0072006B007300200043006F0072007000
310
5C0053006F006C006900640057006F0072006B00730020002800320029005C00
310
730065007400750070005C0069003300380036005C0073007700610063007400
310
770069007A002E006500780065000000220043003A005C00500072006F006700
310
20260000424D0E260000000000003E00000028000000B40200006E0000000100
310
01000000000000000000130B0000130B00000200000002000000000000FFFFFF
310
FFFFFFFFFFFFFFFFFFFFFFFFFFFFFFFFFFFFFFFFFFFFFFFFFFFFFFFFFFFFFFFF
310
FFFFFFFFFFFFFFFFFFFFFFFFFFFFFFFFFFFFFFFFFFFFFFFFFFFFFFFFFFFFFFFF
310
FFFFFFFFFFFFFFFFFFFFFFFFFFFFFFFFFFFFFFFFFFFFFFFFF000FFFFFFFFFFFF
310
FFFFFFFFFFFFFFFFFFFFFFFFFFFFFFFFFFFFFFFFFFFFFFFFFFFFFFFFFFFFFFFF
310
FFFFFFFFFFFFFFFFFFFFFFFFFFFFFFFFFFFFFFFFFFFFFFFFFFFFFFFFFFFFFFFF
310
FFFFFFFFFFFFFFFFFFFFFFFFFFFFFFFFF000FFFFFFFFFFFFFFFFFFFFFFFFFFFF
310
FFFFFFFFFFFFFFFFFFFFFFFFFFFFFFFFFFFFFFFFFFFFFFFFFFFFFFFFFFFFFFFF
310
FFFFFFFFFFFFFFFFFFFFFFFFFFFFFFFFFFFFFFFFFFFFFFFFFFFFFFFFFFFFFFFF
310
FFFFFFFFFFFFFFFFF000FFFFFFFFFFFFFFFFFFFFFFFFFFFFFFFFFFFFFFFFFFFF
310
FFFFFFFFFFFFFFFFFFFFFFFFFFFFFFFFFFFFFFFFFFFFFFFFFFFFFFFFFFFFFFFF
310
FFFFFFFFFFFFFFFFFFFFFFFFFFFFFFFFFFFFFFFFFFFFFFFFFFFFFFFFFFFFFFFF
310
F000FFFFFFFFFFFFFFFFFFFFFFFFFFFFFFFFFFFFFFFFFFFFFFFFFFFFFFFFFFFF
310
FFFFFFFFFFFFFFFFFFFFFFFFFFFFFFFFFFFFFFFFFFFFFFFFFFFFFFFFFFFFFFFF
310
FFFFFFFFFFFFFFFFFFFFFFFFFFFFFFFFFFFFFFFFFFFFFFFFF000FFFFFFFFFFFF
310
FFFFFFFFFFFFFFFFFFFFFFFFFFFFFFFFFFFFFFFFFFFFFFFFFFFFFFFFFFFFFFFF
310
FFFFFFFFFFFFFFFFFFFFFFFFFFFFFFFFFFFFFFFFFFFFFFFFFFFFFFFFFFFFFFFF
310
FFFFFFFFFFFFFFFFFFFFFFFFFFFFFFFFF000FFFFFFFFFFFFFFFFFFFFFFFFFFFF
310
FFFFFFFFFFFFFFFFFFFFFFFFFFFFFFFFFFFFFFFFFFFFFFFFFFFFFFFFFFFFFFFF
310
FFFFFFFFFFFFFFFFFFFFFFFFFFFFFFFFFFFFFFFFFFFFFFFFFFFFFFFFFFFFFFFF
310
FFFFFFFFFFFFFFFFF000FFFFFFFFFFFFFFFFFFFFFFFFFFFFFFFFFFFFFFFFFFFF
310
FFFFFFFFFFFFFFFFFFFFFFFFFFFFFFFFFFFFFFFFFFFFFFFFFFFFFFFFFFFFFFFF
310
FFFFFFFFFFFFFFFFFFFFFFFFFFFFFFFFFFFFFFFFFFFFFFFFFFFFFFFFFFFFFFFF
310
F000FFFFFFFFFFFFFFFFFFFFFFFFFFFFFFFFFFFFFFFFFFFFFFFFFFFFFFFFFFFF
310
FFFFFFFFFFFFFFFFFFFFFFFFFFFFFFFFFFFFFFFFFFFFFFFFFFFFFFFFFFFFFFFF
310
FFFFFFFFFFFFFFFFFFFFFFFFFFFFFFFFFFFFFFFFFFFFFFFFF000FFFFFFFFFFFF
310
FFFFFFFFFFFFFFFFFFFFFFFFFFFFFFFFFFFFFFFFFFFFFFFFFFFFFFFFFFFFFFFF
310
FFFFFFFFFFFFFFFFFFFFFFFFFFFFFFFFFFFFFFFFFFFFFFFFFFFFFFFFFFFFFFFF
310
FFFFFFFFFFFFFFFFFFFFFFFFFFFFFFFFF000FFFFFFFFFFFFFFFFFFFFFFFFFFFF
310
FFFFFFFFFFFFFFFFFFFFFFFFFFFFFFFFFFFFFFFFFFFFFFFFFFFFFFFFFFFFFFFF
310
FFFFFFFFFFFFFFFFFFFFFFFFFFFFFFFFFFFFFFFFFFFFFFFFFFFFFFFFFFFFFFFF
310
FFFFFFFFFFFFFFFFF000FFFFFFFFFFFFFFFFFFFFFFFFFFFFFFFFFFFFFFFFFFFF
310
FFFFFFFFFFFFFFFFFFFFFFFFFFFFFFFFFFFFFFFFFFFFFFFFFFFFFFFFFFFFFFFF
310
FFFFFFFFFFFFFFFFFFFFFFFFFFFFFFFFFFFFFFFFFFFFFFFFFFFFFFFFFFFFFFFF
310
F000FFFFFFFFFFFFFFFFFFFFFFFFFFFFFFFFFFFFFFFFFFFFFFFFFFFFFFFFFFFF
310
FFFFFFFFFFFFFFFFFFFFFFFFFFFFFFFFFFFFFFFFFFFFFFFFFFFFFFFFFFFFFFFF
310
FFFFFFFFFFFFFFFFFFFFFFFFFFFFFFFFFFFFFFFFFFFFFFFFF000FFFFFFFFFFFF
310
FFFFFFFFFFFFFFFFFFFFFFFFFFFFFFFFFFFFFFFFFFFFFFFFFFFFFFFFFFFFFFFF
310
FFFFFFFFFFFFFFFFFFFFFFFFFFFFFFFFFFFFFFFFFFFFFFFFFFFFFFFFFFFFFFFF
310
FFFFFFFFFFFFFFFFFFFFFFFFFFFFFFFFF000FFFFFFFFFFFFFFFFFFFFFFFFFFFF
310
FFFFFFFFFFFFFFFFFFFFFFFFFFFFFFFFFFFFFFFFFFFFFFFFFFFFFFFFFFFFFFFF
310
FFFFFFFFFFFFFFFFFFFFFFFFFFFFFFFFFFFFFFFFFFFFFFFFFFFFFFFFFFFFFFFF
310
FFFFFFFFFFFFFFFFF000FFFFFFFFFFFFFFFFFFFFFFFFFFFFFFFFFFFFFFFFFFFF
310
FFFFFFFFFFFFFFFFFFFFFFFFFFFFFFFFFFFFFFFFFFFFFFFFFFFFFFFFFFFFFFFF
310
FFFFFFFFFFFFFFFFFFFFFFFFFFFFFFFFFFFFFFFFFFFFFFFFFFFFFFFFFFFFFFFF
310
F000FFFFFFFFFFFFFFFFFFFFFFFFFFFFFFFFFFFFFFFFFFFFFFFFFFFFFFFFFFFF
310
FFFFFFFFFFFFFFFFFFFFFFFFFFFFFFFFFFFFFFFFFFFFFFFFFFFFFFFFFFFFFFFF
310
FFFFFFFFFFFFFFFFFFFFFFFFFFFFFFFFFFFFFFFFFFFFFFFFF000FFFFFFFFFFFF
310
FFFFFFFFFFFFFFFFFFFFFFFFFFFFFFFFFFFFFFFFFFFFFFFFFFFFFFFFFFFFFFFF
310
FFFFFFFFFFFFFFFFFFFFFFFFFFFFFFFFFFFFFFFFFFFFFFFFFFFFFFFFFFFFFFFF
310
FFFFFFFFFFFFFFFFFFFFFFFFFFFFFFFFF000FFFFFFFFFFFFFFFFFFFFFFFFFFFF
310
FFFFFFFFFFFFFFFFFFFFFFFFFFFFFFFFFFFFFFFFFFFFFFFFFFFFFFFFFFFFFFFF
310
FFFFFFFFFFFFFFFFFFFFFFFFFFFFFFFFFFFFFFFFFFFFFFFFFFFFFFFFFFFFFFFF
310
FFFFFFFFFFFFFFFFF000FFFFF80003FFFFFFFFFFFFFFFFFFFFFFFFFFFFFFFFFF
310
FFFFF00007FFFFFFFFFF00007FFFFFF800000000000000007FFFFFFFFFFFFFFF
310
FFFFFFFC001FFFFFFFFFFFFFFC001FFFFFFFFFFFFFFFFFFFFFFFFFFE0007FFFF
310
F000FFFF8000007FFFFFFFF8000FFFFFC0007FFFFF80007FFFFF0000007FFFFF
310
FFF8000007FFFFF800000000000000007FFFFFF0001FFFFFFFFFFFC00001FFFF
310
FFFFFFFFC00001FFFFFFFF000000000003FFFFE000007FFFF000FFFE0000000F
310
FFFFFFF0000FFFFF80007FFFFF80007FFFFC0000001FFFFFFFC0000001FFFFF8
310
00000000000000007FFFFFF0001FFFFFFFFFFE0000003FFFFFFFFFFE0000003F
310
FFFFFF000000000003FFFF0000000FFFF000FFF800000003FFFFFFF00007FFFF
310
80007FFFFF80007FFFF000000007FFFFFF000000003FFFF80000000000000000
310
7FFFFFF0001FFFFFFFFFF80000000FFFFFFFFFF80000000FFFFFFF0000000000
310
03FFFC00000003FFF000FFE000000000FFFFFFF00007FFFF80003FFFFF80007F
310
FFC000000001FFFFFC000000001FFFF800000000000000007FFFFFF0001FFFFF
310
FFFFE000000003FFFFFFFFE000000003FFFFFF000000000003FFF000000000FF
310
F000FF80000000007FFFFFF00007FFFF80003FFFFF80007FFF8000000000FFFF
310
F80000000007FFF800000000000000007FFFFFF0001FFFFFFFFFC000000001FF
310
FFFFFFC000000001FFFFFF000000000003FFC0000000007FF000FF0000000000
310
3FFFFFE00007FFFF00003FFFFF80007FFE00000000003FFFF00000000003FFF8
310
00000000000000007FFFFFF0001FFFFFFFFF8000000000FFFFFFFF8000000000
310
FFFFFF000000000003FF80000000003FF000FE00000000001FFFFFE00003FFFF
310
00003FFFFF80007FFC00000000001FFFE00000000001FFF8000001FFFE000000
310
7FFFFFF0001FFFFFFFFE00000000003FFFFFFE00000000003FFFFF0000000000
310
03FF00000000001FF000FC00000000000FFFFFE00003FFFF00001FFFFF80007F
310
F800000000001FFFC00000000000FFF8000001FFFE0000007FFFFFF0001FFFFF
310
FFFC00000000001FFFFFFC00000000001FFFFF000000000003FE00000000000F
310
F000F8000000000007FFFFE00003FFFF00001FFFFF80007FF800000000000FFF
310
800000000000FFF8000001FFFE0000007FFFFFF0001FFFFFFFF800000000000F
310
FFFFF800000000000FFFFF000000000003FC000000000007F000F80000000000
310
03FFFFC00003FFFE00001FFFFF80007FF0000000000007FF0000000000007FF8
310
000001FFFE0000007FFFFFF0001FFFFFFFF0000000000007FFFFF00000000000
310
07FFFF000000000003F8000000000003F000F0000000000003FFFFC00001FFFE
310
00001FFFFF80007FE0000000000007FE0000000000003FF8000001FFFE000000
310
7FFFFFF0001FFFFFFFF0000000000007FFFFF0000000000007FFFF0000000000
310
03F800001F800003F000E00001FFF00001FFFFC00001FFFE00000FFFFF80007F
310
E00001FFE00003FE00001FFF00003FF8000001FFFE0000007FFFFFF0001FFFFF
310
FFE000003E000003FFFFE000003E000003FFFF000000000003F00001FFF80001
310
F000E00007FFFC0001FFFFC00001FFFE00000FFFFF80007FC0000FFFFC0003FC
310
0000FFFFC0001FF8000001FFFE0000007FFFFFF0001FFFFFFFC00003FFE00001
310
FFFFC00003FFE00001FFFF0001FFFFFFFFF00007FFFE0001F000E0000FFFFF00
310
00FFFF800001FFFC00000FFFFF80007FC0001FFFFE0001FC0001FFFFE0001FF8
310
000001FFFE0000007FFFFFF0001FFFFFFF80000FFFF80000FFFF80000FFFF800
310
00FFFF0003FFFFFFFFE0000FFFFF8000F000C0003FFFFF8000FFFF800000FFFC
310
000007FFFF80007F80003FFFFF0001FC0003FFFFF0001FF8000001FFFE000000
310
7FFFFFF0001FFFFFFF80003FFFFE0000FFFF80003FFFFE0000FFFF0003FFFFFF
310
FFE0003FFFFF8000F000C0003FFFFF8000FFFF800000FFFC000007FFFF80007F
310
80007FFFFF8001F80007FFFFF8000FF8000001FFFE0000007FFFFFF0001FFFFF
310
FF00007FFFFF00007FFF00007FFFFF00007FFF0003FFFFFFFFE0003FFFFFC000
310
F000C0007FFFFFC000FFFF000000FFFC000007FFFF80007F8000FFFFFF8000F8
310
000FFFFFF8000FF8000001FFFE0000007FFFFFF0001FFFFFFF0000FFFFFF8000
310
7FFF0000FFFFFF80007FFF0003FFFFFFFFC0007FFFFFC00070008000FFFFFFC0
310
00FFFF000000FFF8000007FFFF80007F8000FFFFFF8000F8000FFFFFF8000FF8
310
000001FFFE0000007FFFFFF0001FFFFFFE0001FFFFFFC0003FFE0001FFFFFFC0
310
003FFF0003FFFFFFFFC0007FFFFFE00070008000FFFFFFC0007FFF0000007FF8
310
000003FFFF80007F0001FFFFFF8000F8000FFFFFF8000FF8000001FFFE000000
310
7FFFFFF0001FFFFFFE0001FFFFFFC0003FFE0001FFFFFFC0003FFF0003FFFFFF
310
FFC000FFFFFFE00070008000FFFFFFC0007FFF0000007FF8000003FFFF80007F
310
0001FFFFFF8000F8001FFFFFF8000FF8000001FFFE0000007FFFFFF0001FFFFF
310
FE0003FFFFFFE0003FFE0003FFFFFFE0003FFF0003FFFFFFFFC000FFFFFFE000
310
70008000FFFFFFC0007FFE0000007FF8000003FFFF80007F0001FFFFFF8000F0
310
001FFFFFF8000FF8000001FFFE0000007FFFFFF0001FFFFFFC0003FFFFFFE000
310
1FFC0003FFFFFFE0001FFF0003FFFFFFFFC000FFFFFFC00070008000FFFFFF80
310
007FFE0000007FF0000003FFFF80007F0001FFFFFF0000F0001FFFFFF8000FF8
310
000001FFFE0000007FFFFFF0001FFFFFFC0007FFFFFFF0001FFC0007FFFFFFF0
310
001FFF0003FFFFFFFFC000FFFFFFC00070008001FFFFFF0000FFFE0000003FF0
310
000001FFFF80007F0001FFFFFF0000F8001FFFFFF0000FF8000001FFFE000000
310
7FFFFFF0001FFFFFFC0007FFFFFFF0001FFC0007FFFFFFF0001FFF0003FFFFFF
310
FFC001FFFFFF80007000FFFFFFFFFE0000FFFE0008003FF0008001FFFF80007F
310
FFFFFFFFFC0000FFFFFFFFFFE0000FF8000001FFFE0000007FFFFFF0001FFFFF
310
F8000FFFFFFFF8000FF8000FFFFFFFF8000FFF0003FFFFFFFFFFFFFFFFFF0000
310
7000FFFFFFFFFC0000FFFC0008003FF0008001FFFF80007FFFFFFFFFF80001FF
310
FFFFFFFF80000FF8000001FFFE0000007FFFFFF0001FFFFFF8000FFFFFFFF800
310
0FF8000FFFFFFFF8000FFF0003FFFFFFFFFFFFFFFFFE0000F000FFFFFFFFE000
310
00FFFC000C003FE000C001FFFF80007FFFFFFFFFC00001FFFFFFFFFE00001FF8
310
000001FFFE0000007FFFFFF0001FFFFFF8000FFFFFFFF8000FF8000FFFFFFFF8
310
000FFF0003FFFFFFFFFFFFFFFFF00000F000FFFFFFFE000001FFFC000C001FE0
310
00C000FFFF80007FFFFFFFFE000001FFFFFFFFE000001FF80FFFFFFFFFFFFFC0
310
7FFFFFF0001FFFFFF8000FFFFFFFF8000FF8000FFFFFFFF8000FFF0003FFFFFF
310
FFFFFFFFFF800000F000FFFFFFC0000001FFFC001C001FE001C000FFFF80007F
310
FFFFFF80000003FFFFFFF80000001FF80FFFFFFFFFFFFFC07FFFFFF0001FFFFF
310
F8001FFFFFFFFC000FF8001FFFFFFFFC000FFF0003FFFFFFFFFFFFFFF0000001
310
F000FFFFF800000001FFF8001C001FE001C000FFFF80007FFFFFF800000003FF
310
FFFF800000003FF80FFFFFFFFFFFFFC07FFFFFF0001FFFFFF8001FFFFFFFFC00
310
0FF8001FFFFFFFFC000FFF0003FFFFFFFFFFFFFE00000001F000FFFFC0000000
310
03FFF8001E001FC001E000FFFF80007FFFFF8000000007FFFFFC000000003FF8
310
0FFFFFFFFFFFFFC07FFFFFF0001FFFFFF8001FFFFFFFFC000FF8001FFFFFFFFC
310
000FFF0003FFFFFFFFFFFFE000000003F000FFFE0000000007FFF8001E000FC0
310
01E0007FFF80007FFFFE0000000007FFFFE0000000007FF80FFFFFFFFFFFFFC0
310
7FFFFFF0001FFFFFF0001FFFFFFFFC0007F0001FFFFFFFFC0007FF0003FFFFFF
310
FFFFFF0000000003F000FFF80000000007FFF8001E000FC003E0007FFF80007F
310
FFF0000000000FFFFF8000000000FFF80FFFFFFFFFFFFFC07FFFFFF0001FFFFF
310
F0001FFFFFFFFC0007F0001FFFFFFFFC0007FF0003FFFFFFFFFFFC0000000007
310
F000FFE0000000000FFFF0003E000FC003E0007FFF80007FFFC0000000001FFF
310
FE0000000001FFF80FFFFFFFFFFFFFC07FFFFFF0001FFFFFF0001FFFFFFFFC00
310
07F0001FFFFFFFFC0007FF0003FFFFFFFFFFF0000000000FF000FFC000000000
310
1FFFF0003F000F8003F0003FFF80007FFF80000000003FFFF80000000003FFF8
310
0FFFFFFFFFFFFFC07FFFFFF0001FFFFFF0001FFFFFFFFC0007F0001FFFFFFFFC
310
0007FF0003FFFFFFFFFFE0000000001FF000FF00000000007FFFF0003F000780
310
03F0003FFF80007FFF00000000007FFFF00000000007FFF80FFFFFFFFFFFFFC0
310
7FFFFFF0001FFFFFF0001FFFFFFFFC0007F0001FFFFFFFFC0007FF0003FFFFFF
310
FFFF80000000007FF000FE0000000000FFFFE0003F00078007F0003FFF80007F
310
FE0000000001FFFFE0000000001FFFF80FFFFFFFFFFFFFC07FFFFFF0001FFFFF
310
F0001FFFFFFFFC0007F0001FFFFFFFFC0007FF0003FFFFFFFFFF0000000000FF
310
F000FC0000000003FFFFE0007F00078007F0003FFF80007FFC0000000007FFFF
310
C0000000007FFFF80FFFFFFFFFFFFFC07FFFFFF0001FFFFFF8001FFFFFFFFC00
310
0FF8001FFFFFFFFC000FFF0003FFFFFFFFFE0000000003FFF000FC000000000F
310
FFFFE0007F80070007F8001FFF80007FF8000000001FFFFF8000000001FFFFF8
310
0FFFFFFFFFFFFFC07FFFFFF0001FFFFFF8001FFFFFFFFC000FF8001FFFFFFFFC
310
000FFF0003FFFFFFFFFC000000000FFFF000F8000000007FFFFFE0007F800700
310
07F8001FFF80007FF000000000FFFFFF800000000FFFFFF80FFFFFFFFFFFFFC0
310
7FFFFFF0001FFFFFF8000FFFFFFFF8000FF8000FFFFFFFF8000FFF0003FFFFFF
310
FFFC000000007FFFF000F800000007FFFFFFC0007F8003000FF8001FFF80007F
310
F000000007FFFFFF000000007FFFFFF80FFFFFFFFFFFFFC07FFFFFF0001FFFFF
310
F8000FFFFFFFF8000FF8000FFFFFFFF8000FFF0003FFFFFFFFF80000000FFFFF
310
F000F0000000FFFFFFFFC000FF8003000FF8001FFF80007FE0000000FFFFFFFF
310
0000000FFFFFFFF8000001FFFE0000007FFFFFF0001FFFFFF8000FFFFFFFF800
310
0FF8000FFFFFFFF8000FFF0003FFFFFFFFF8000000FFFFFFF000F000000FFFFF
310
FFFFC000FFC002000FF8000FFF80007FE000001FFFFFFFFE000001FFFFFFFFF8
310
000001FFFE0000007FFFFFF0001FFFFFF8000FFFFFFFF8000FF8000FFFFFFFF8
310
000FFF0003FFFFFFFFF000001FFFFFFFF000E00000FFFFFFFFFFC000FFC00200
310
0FFC000FFF80007FE00001FFFFFFFFFE00001FFFFFFFFFF8000001FFFE000000
310
7FFFFFF0001FFFFFFC000FFFFFFFF8001FFC000FFFFFFFF8001FFF0003FFFFFF
310
FFF00001FFFFFFFFF000E00007FFFFFFFFFF8000FFC000001FFC000FFF80007F
310
C0000FFFFFFFFFFE0000FFFFFFFFFFF8000001FFFE0000007FFFFFF0001FFFFF
310
FC0007FFFFFFF0001FFC0007FFFFFFF0001FFF0003FFFFFFFFF00007FFFFFFFF
310
F000E0001FFFFFFFFFFF8000FFC000001FFC000FFF80007FC0003FFFFFFFFFFE
310
0001FFFFFFFFFFF8000001FFFE0000007FFFFFF0001FFFFFFC0007FFFFFFF000
310
1FFC0007FFFFFFF0001FFF0003FFFFFFFFF0001FFFFFFFFFF000E0003FFFFF00
310
03FF8001FFE000001FFC0007FF80007FC0007FFFFF0007FC0003FFFFF0003FF8
310
000001FFFE0000007FFFFFF0001FFFFFFC0003FFFFFFE0001FFC0003FFFFFFE0
310
001FFF0003FFFFFFFFF0003FFFFFFFFFF000E0003FFFFF0001FF8001FFE00000
310
1FFE0007FF80007FC0007FFFFE0003FC0007FFFFE0003FF8000001FFFE000000
310
7FFFFFF0001FFFFFFE0003FFFFFFE0003FFE0003FFFFFFE0003FFF0003FFFFFF
310
FFF0003FFFFF8001F000E0003FFFFF0001FF0001FFE000001FFE0007FF80007F
310
C0007FFFFE0003FC0007FFFFE0003FF8000001FFFE0000007FFFFFF0001FFFFF
310
FE0001FFFFFFC0003FFE0001FFFFFFC0003FFF0003FFFFFFFFF0003FFFFF0001
310
F000E0003FFFFF0003FF0001FFE000003FFE0007FF80007FC0007FFFFE0003FC
310
0007FFFFE0003FF8000001FFFE0000007FFFFFF0001FFFFFFF0001FFFFFFC000
310
7FFF0001FFFFFFC0007FFF0003FFFFFFFFF0003FFFFF0001F000E0003FFFFE00
310
03FF0003FFF000003FFE0003FF80007FC0007FFFFC0003FE0007FFFFE0003FF8
310
000001FFFE0000007FFFFFF0001FFFFFFF0000FFFFFF80007FFF0000FFFFFF80
310
007FFF0003FFFFFFFFF0003FFFFF0001F000E0003FFFFE0003FF0003FFF00000
310
3FFF0003FF80007FC0007FFFFC0007FE0007FFFFC0003FF8000001FFFE000000
310
7FFFFFF0001FFFFFFF80007FFFFF0000FFFF80007FFFFF0000FFFF0003FFFFFF
310
FFF0003FFFFF0003F000E0003FFFFC0003FE0003FFF000003FFF0003FF80007F
310
E0003FFFF80007FE0003FFFFC0007FF8000001FFFE0000007FFFFFF0001FFFFF
310
FF80003FFFFE0000FFFF80003FFFFE0000FFFF0003FFFFFFFFF0001FFFFE0003
310
F000F0001FFFF80003FE0003FFF000007FFF0001FF80007FE0003FFFF00007FE
310
0001FFFF80007FF8000001FFFE0000007FFFFFF0001FFFFFFFC0000FFFF80001
310
FFFFC0000FFFF80001FFFF0003FFFFFFFFF0001FFFFC0003F000F0000FFFF000
310
07FE0007FFF800007FFF0001FF80007FE0001FFFE00007FF0000FFFE00007FF8
310
000001FFFE0000007FFFFFF0001FFFFFFFC00003FFE00001FFFFC00003FFE000
310
01FFFF0003FFFFFFFFF8000FFFF80003F000F00003FFC00007FC0007FFF80000
310
7FFF8001FF80007FF00007FF80000FFF00007FF80000FFF8000001FFFE000000
310
7F80000000000001FFE000003E000003FFFFE000003E000003FFFF0003FFFFFF
310
FFF80003FFE00007F000F800000000000FFC0007FFF800007FFF8001FF80007F
310
F000000000000FFF000000000000FFF8000001FFFE0000007F80000000000001
310
FFF0000000000007FFFFF0000000000007FFFF0003FFFFFFFFFC00007E000007
310
F000F800000000000FFC0007FFF80000FFFF8000FF80007FF800000000001FFF
310
800000000001FFF8000001FFFE0000007F80000000000001FFF800000000000F
310
FFFFF800000000000FFFFF0003FFFFFFFFFC00000000000FF000FC0000000000
310
1FFC0007FFFC0000FFFF8000FF80007FF800000000003FFFC00000000001FFF8
310
000001FFFE0000007F80000000000001FFF800000000000FFFFFF80000000000
310
0FFFFF0003FFFFFFFFFE00000000001FF000FE00000000003FF8000FFFFC0000
310
FFFF8000FF80007FFC00000000003FFFC00000000003FFF8000001FFFE000000
310
7F80000000000001FFFC00000000001FFFFFFC00000000001FFFFF0003FFFFFF
310
FFFF00000000001FF000FF00000000003FF8000FFFFC0000FFFFC000FF80007F
310
FE00000000007FFFE00000000007FFF8000001FFFE0000007F80000000000001
310
FFFE00000000003FFFFFFE00000000003FFFFF0003FFFFFFFFFF80000000003F
310
F000FF80000000007FF8000FFFFC0001FFFFC0007F80007FFF0000000000FFFF
310
F0000000000FFFF800000000000000007F80000000000001FFFF8000000000FF
310
FFFFFF8000000000FFFFFF0003FFFFFFFFFFC0000000007FF000FFC000000000
310
FFF8000FFFFE0001FFFFC0007F80007FFF8000000001FFFFF8000000001FFFF8
310
00000000000000007F80000000000001FFFFC000000001FFFFFFFFC000000001
310
FFFFFF0003FFFFFFFFFFE000000000FFF000FFE000000003FFF0001FFFFE0001
310
FFFFC0007F80007FFFC000000007FFFFFE000000003FFFF80000000000000000
310
7F80000000000001FFFFE000000003FFFFFFFFE000000003FFFFFF0003FFFFFF
310
FFFFF000000003FFF000FFF80000000FFFF0001FFFFE0001FFFFE0007F80007F
310
FFF00000000FFFFFFF00000000FFFFF800000000000000007F80000000000001
310
FFFFF80000000FFFFFFFFFF80000000FFFFFFF0003FFFFFFFFFFFC0000000FFF
310
F000FFFE0000003FFFF0001FFFFE0003FFFFE0003F80007FFFFC0000003FFFFF
310
FFC0000003FFFFF800000000000000007F80000000000001FFFFFE0000003FFF
310
FFFFFFFE0000003FFFFFFF0003FFFFFFFFFFFF0000003FFFF000FFFF800000FF
310
FFF0001FFFFF0003FFFFE0003F80007FFFFF000001FFFFFFFFF800001FFFFFF8
310
00000000000000007F80000000000001FFFFFFC00001FFFFFFFFFFFFC00001FF
310
FFFFFF0003FFFFFFFFFFFFC00000FFFFF000FFFFF8000FFFFFFFFFFFFFFFFFFF
310
FFFFFFFFFFFFFFFFFFFFF0001FFFFFFFFFFF0000FFFFFFF80000000000000000
310
7FFFFFFFFFFFFFFFFFFFFFFC001FFFFFFFFFFFFFFC001FFFFFFFFFFFFFFFFFFF
310
FFFFFFFC001FFFFFF000FFFFFFFFFFFFFFFFFFFFFFFFFFFFFFFFFFFFFFFFFFFF
310
FFFFFFFFFFFFFFFFFFFFFFFFFFFFFFFFFFFFFFFFFFFFFFFFFFFFFFFFFFFFFFFF
310
FFFFFFFFFFFFFFFFFFFFFFFFFFFFFFFFFFFFFFFFFFFFFFFFFFFFFFFFFFFFFFFF
310
F000FFFFFFFFFFFFFFFFFFFFFFFFFFFFFFFFFFFFFFFFFFFFFFFFFFFFFFFFFFFF
310
FFFFFFFFFFFFFFFFFFFFFFFFFFFFFFFFFFFFFFFFFFFFFFFFFFFFFFFFFFFFFFFF
310
FFFFFFFFFFFFFFFFFFFFFFFFFFFFFFFFFFFFFFFFFFFFFFFFF000FFFFFFFFFFFF
310
FFFFFFFFFFFFFFFFFFFFFFFFFFFFFFFFFFFFFFFFFFFFFFFFFFFFFFFFFFFFFFFF
310
FFFFFFFFFFFFFFFFFFFFFFFFFFFFFFFFFFFFFFFFFFFFFFFFFFFFFFFFFFFFFFFF
310
FFFFFFFFFFFFFFFFFFFFFFFFFFFFFFFFF000FFFFFFFFFFFFFFFFFFFFFFFFFFFF
310
FFFFFFFFFFFFFFFFFFFFFFFFFFFFFFFFFFFFFFFFFFFFFFFFFFFFFFFFFFFFFFFF
310
FFFFFFFFFFFFFFFFFFFFFFFFFFFFFFFFFFFFFFFFFFFFFFFFFFFFFFFFFFFFFFFF
310
FFFFFFFFFFFFFFFFF000FFFFFFFFFFFFFFFFFFFFFFFFFFFFFFFFFFFFFFFFFFFF
310
FFFFFFFFFFFFFFFFFFFFFFFFFFFFFFFFFFFFFFFFFFFFFFFFFFFFFFFFFFFFFFFF
310
FFFFFFFFFFFFFFFFFFFFFFFFFFFFFFFFFFFFFFFFFFFFFFFFFFFFFFFFFFFFFFFF
310
F000FFFFFFFFFFFFFFFFFFFFFFFFFFFFFFFFFFFFFFFFFFFFFFFFFFFFFFFFFFFF
310
FFFFFFFFFFFFFFFFFFFFFFFFFFFFFFFFFFFFFFFFFFFFFFFFFFFFFFFFFFFFFFFF
310
FFFFFFFFFFFFFFFFFFFFFFFFFFFFFFFFFFFFFFFFFFFFFFFFF000FFFFFFFFFFFF
310
FFFFFFFFFFFFFFFFFFFFFFFFFFFFFFFFFFFFFFFFFFFFFFFFFFFFFFFFFFFFFFFF
310
FFFFFFFFFFFFFFFFFFFFFFFFFFFFFFFFFFFFFFFFFFFFFFFFFFFFFFFFFFFFFFFF
310
FFFFFFFFFFFFFFFFFFFFFFFFFFFFFFFFF000FFFFFFFFFFFFFFFFFFFFFFFFFFFF
310
FFFFFFFFFFFFFFFFFFFFFFFFFFFFFFFFFFFFFFFFFFFFFFFFFFFFFFFFFFFFFFFF
310
FFFFFFFFFFFFFFFFFFFFFFFFFFFFFFFFFFFFFFFFFFFFFFFFFFFFFFFFFFFFFFFF
310
FFFFFFFFFFFFFFFFF000FFFFFFFFFFFFFFFFFFFFFFFFFFFFFFFFFFFFFFFFFFFF
310
FFFFFFFFFFFFFFFFFFFFFFFFFFFFFFFFFFFFFFFFFFFFFFFFFFFFFFFFFFFFFFFF
310
FFFFFFFFFFFFFFFFFFFFFFFFFFFFFFFFFFFFFFFFFFFFFFFFFFFFFFFFFFFFFFFF
310
F000FFFFFFFFFFFFFFFFFFFFFFFFFFFFFFFFFFFFFFFFFFFFFFFFFFFFFFFFFFFF
310
FFFFFFFFFFFFFFFFFFFFFFFFFFFFFFFFFFFFFFFFFFFFFFFFFFFFFFFFFFFFFFFF
310
FFFFFFFFFFFFFFFFFFFFFFFFFFFFFFFFFFFFFFFFFFFFFFFFF000FFFFFFFFFFFF
310
FFFFFFFFFFFFFFFFFFFFFFFFFFFFFFFFFFFFFFFFFFFFFFFFFFFFFFFFFFFFFFFF
310
FFFFFFFFFFFFFFFFFFFFFFFFFFFFFFFFFFFFFFFFFFFFFFFFFFFFFFFFFFFFFFFF
310
FFFFFFFFFFFFFFFFFFFFFFFFFFFFFFFFF000FFFFFFFFFFFFFFFFFFFFFFFFFFFF
310
FFFFFFFFFFFFFFFFFFFFFFFFFFFFFFFFFFFFFFFFFFFFFFFFFFFFFFFFFFFFFFFF
310
FFFFFFFFFFFFFFFFFFFFFFFFFFFFFFFFFFFFFFFFFFFFFFFFFFFFFFFFFFFFFFFF
310
FFFFFFFFFFFFFFFFF000FFFFFFFFFFFFFFFFFFFFFFFFFFFFFFFFFFFFFFFFFFFF
310
FFFFFFFFFFFFFFFFFFFFFFFFFFFFFFFFFFFFFFFFFFFFFFFFFFFFFFFFFFFFFFFF
310
FFFFFFFFFFFFFFFFFFFFFFFFFFFFFFFFFFFFFFFFFFFFFFFFFFFFFFFFFFFFFFFF
310
F000FFFFFFFFFFFFFFFFFFFFFFFFFFFFFFFFFFFFFFFFFFFFFFFFFFFFFFFFFFFF
310
FFFFFFFFFFFFFFFFFFFFFFFFFFFFFFFFFFFFFFFFFFFFFFFFFFFFFFFFFFFFFFFF
310
FFFFFFFFFFFFFFFFFFFFFFFFFFFFFFFFFFFFFFFFFFFFFFFFF000FFFFFFFFFFFF
310
FFFFFFFFFFFFFFFFFFFFFFFFFFFFFFFFFFFFFFFFFFFFFFFFFFFFFFFFFFFFFFFF
310
FFFFFFFFFFFFFFFFFFFFFFFFFFFFFFFFFFFFFFFFFFFFFFFFFFFFFFFFFFFFFFFF
310
FFFFFFFFFFFFFFFFFFFFFFFFFFFFFFFFF000FFFFFFFFFFFFFFFFFFFFFFFFFFFF
310
FFFFFFFFFFFFFFFFFFFFFFFFFFFFFFFFFFFFFFFFFFFFFFFFFFFFFFFFFFFFFFFF
310
FFFFFFFFFFFFFFFFFFFFFFFFFFFFFFFFFFFFFFFFFFFFFFFFFFFFFFFFFFFFFFFF
310
FFFFFFFFFFFFFFFFF000FFFFFFFFFFFFFFFFFFFFFFFFFFFFFFFFFFFFFFFFFFFF
310
FFFFFFFFFFFFFFFFFFFFFFFFFFFFFFFFFFFFFFFFFFFFFFFFFFFFFFFFFFFFFFFF
310
FFFFFFFFFFFFFFFFFFFFFFFFFFFFFFFFFFFFFFFFFFFFFFFFFFFFFFFFFFFFFFFF
310
F000FFFFFFFFFFFFFFFFFFFFFFFFFFFFFFFFFFFFFFFFFFFFFFFFFFFFFFFFFFFF
310
FFFFFFFFFFFFFFFFFFFFFFFFFFFFFFFFFFFFFFFFFFFFFFFFFFFFFFFFFFFFFFFF
310
FFFFFFFFFFFFFFFFFFFFFFFFFFFFFFFFFFFFFFFFFFFFFFFFF000FFFFFFFFFFFF
310
FFFFFFFFFFFFFFFFFFFFFFFFFFFFFFFFFFFFFFFFFFFFFFFFFFFFFFFFFFFFFFFF
310
FFFFFFFFFFFFFFFFFFFFFFFFFFFFFFFFFFFFFFFFFFFFFFFFFFFFFFFFFFFFFFFF
310
FFFFFFFFFFFFFFFFFFFFFFFFFFFFFFFFF000FFFFFFFFFFFFFFFFFFFFFFFFFFFF
310
FFFFFFFFFFFFFFFFFFFFFFFFFFFFFFFFFFFFFFFFFFFFFFFFFFFFFFFFFFFFFFFF
310
FFFFFFFFFFFFFFFFFFFFFFFFFFFFFFFFFFFFFFFFFFFFFFFFFFFFFFFFFFFFFFFF
310
FFFFFFFFFFFFFFFFF000FFFFFFFFFFFFFFFFFFFFFFFFFFFFFFFFFFFFFFFFFFFF
310
FFFFFFFFFFFFFFFFFFFFFFFFFFFFFFFFFFFFFFFFFFFFFFFFFFFFFFFFFFFFFFFF
310
FFFFFFFFFFFFFFFFFFFFFFFFFFFFFFFFFFFFFFFFFFFFFFFFFFFFFFFFFFFFFFFF
310
F000FFFFFFFFFFFFFFFFFFFFFFFFFFFFFFFFFFFFFFFFFFFFFFFFFFFFFFFFFFFF
310
FFFFFFFFFFFFFFFFFFFFFFFFFFFFFFFFFFFFFFFFFFFFFFFFFFFFFFFFFFFFFFFF
310
FFFFFFFFFFFFFFFFFFFFFFFFFFFFFFFFFFFFFFFFFFFFFFFFF000FFFFFFFFFFFF
310
FFFFFFFFFFFFFFFFFFFFFFFFFFFFFFFFFFFFFFFFFFFFFFFFFFFFFFFFFFFFFFFF
310
FFFFFFFFFFFFFFFFFFFFFFFFFFFFFFFFFFFFFFFFFFFFFFFFFFFFFFFFFFFFFFFF
310
FFFFFFFFFFFFFFFFFFFFFFFFFFFFFFFFF0000000000000000000000000000000
310
0000000000004D4300004E4300004F4300005043000051430000524300005343
310
00005443000055430000564300005743000058430000594300005A4300005B43
310
00005C4300005D4300005E4300005F4300006043000061430000624300006343
310
00006443000065430000664300006743000068430000694300006A4300006B43
310
00006C4300006D4300006E4300006F4300007043000071430000724300007343
310
00007443000075430000764300007743000078430000794300007A4300007B43
310
00007C4300007D4300007E4300007F43000000000000803F0000004000004040
310
000080400000A0400000C0400000E04000000041000010410000204100003041
310
0000404100005041000060410000704100008041000088410000904100009841
310
0000A0410000A8410000B0410000B8410000C0410000C8410000D0410000D841
310
0000E0410000E8410000F0410000F84100000042000004420000084200000C42
310
00001042000014420000184200001C4200002042000024420000284200002C42
310
00003042000034420000384200003C4200004042000044420000484200004C42
310
00005042000054420000584200005C4200006042000064420000684200006C42
310
00007042000074420000784200007C4200008042000082420000844200008642
  1
OLE
  0
ENDSEC
  0
SECTION
  2
OBJECTS
  0
DICTIONARY
  5
C
330
0
100
AcDbDictionary
281
     1
  3
ACAD_GROUP
350
D
  3
ACAD_LAYOUT
350
1A
  3
ACAD_MLEADERSTYLE
350
30B
  3
ACAD_MLINESTYLE
350
17
  3
ACAD_PLOTSETTINGS
350
19
  3
ACAD_PLOTSTYLENAME
350
E
  3
ACAD_TABLESTYLE
350
30A
  3
ACAD_VISUALSTYLE
350
2A
  3
AcDbVariableDictionary
350
30C
  0
DICTIONARY
  5
D
102
{ACAD_REACTORS
330
C
102
}
330
C
100
AcDbDictionary
281
     1
  0
DICTIONARY
  5
1A
102
{ACAD_REACTORS
330
C
102
}
330
C
100
AcDbDictionary
281
     1
  3
Layout1
350
1E
  3
Layout2
350
26
  3
Model
350
22
  0
DICTIONARY
  5
30B
102
{ACAD_REACTORS
330
C
102
}
330
C
100
AcDbDictionary
281
     1
  0
DICTIONARY
  5
17
102
{ACAD_REACTORS
330
C
102
}
330
C
100
AcDbDictionary
281
     1
  3
Standard
350
18
  0
DICTIONARY
  5
19
102
{ACAD_REACTORS
330
C
102
}
330
C
100
AcDbDictionary
281
     1
  0
ACDBDICTIONARYWDFLT
  5
E
102
{ACAD_REACTORS
330
C
102
}
330
C
100
AcDbDictionary
281
     1
  3
Normal
350
F
100
AcDbDictionaryWithDefault
340
F
  0
DICTIONARY
  5
30A
102
{ACAD_REACTORS
330
C
102
}
330
C
100
AcDbDictionary
281
     1
  0
DICTIONARY
  5
2A
102
{ACAD_REACTORS
330
C
102
}
330
C
100
AcDbDictionary
281
     1
  3
2dWireframe
350
2F
  3
3D Hidden
350
31
  3
3dWireframe
350
30
  3
Basic
350
32
  3
Brighten
350
36
  3
ColorChange
350
3A
  3
Conceptual
350
34
  3
Dim
350
35
  3
Facepattern
350
39
  3
Flat
350
2B
  3
FlatWithEdges
350
2C
  3
Gouraud
350
2D
  3
GouraudWithEdges
350
2E
  3
Linepattern
350
38
  3
Realistic
350
33
  3
Thicken
350
37
  0
DICTIONARY
  5
30C
102
{ACAD_REACTORS
330
C
102
}
330
C
100
AcDbDictionary
281
     1
  3
PSOLHEIGHT
350
30E
  3
PSOLWIDTH
350
30D
  0
LAYOUT
  5
1E
102
{ACAD_REACTORS
330
1A
102
}
330
1A
100
AcDbPlotSettings
  1

  2
none_device
  4

  6

 40
0.0
 41
0.0
 42
0.0
 43
0.0
 44
0.0
 45
0.0
 46
0.0
 47
0.0
 48
0.0
 49
0.0
140
0.0
141
0.0
142
1.0
143
1.0
 70
   688
 72
     0
 73
     0
 74
     5
  7

 75
    16
147
1.0
148
0.0
149
0.0
100
AcDbLayout
  1
Layout1
 70
     1
 71
     1
 10
0.0
 20
0.0
 11
420.0
 21
297.0
 12
0.0
 22
0.0
 32
0.0
 14
1.0000000000E+20
 24
1.0000000000E+20
 34
1.0000000000E+20
 15
-1.0000000000E+20
 25
-1.0000000000E+20
 35
-1.0000000000E+20
146
0.0
 13
0.0
 23
0.0
 33
0.0
 16
1.0
 26
0.0
 36
0.0
 17
0.0
 27
1.0
 37
0.0
 76
     0
330
1B
  0
LAYOUT
  5
26
102
{ACAD_REACTORS
330
1A
102
}
330
1A
100
AcDbPlotSettings
  1

  2
none_device
  4

  6

 40
0.0
 41
0.0
 42
0.0
 43
0.0
 44
0.0
 45
0.0
 46
0.0
 47
0.0
 48
0.0
 49
0.0
140
0.0
141
0.0
142
1.0
143
1.0
 70
   688
 72
     0
 73
     0
 74
     5
  7

 75
    16
147
1.0
148
0.0
149
0.0
100
AcDbLayout
  1
Layout2
 70
     1
 71
     2
 10
0.0
 20
0.0
 11
0.0
 21
0.0
 12
0.0
 22
0.0
 32
0.0
 14
0.0
 24
0.0
 34
0.0
 15
0.0
 25
0.0
 35
0.0
146
0.0
 13
0.0
 23
0.0
 33
0.0
 16
1.0
 26
0.0
 36
0.0
 17
0.0
 27
1.0
 37
0.0
 76
     0
330
23
  0
LAYOUT
  5
22
102
{ACAD_REACTORS
330
1A
102
}
330
1A
100
AcDbPlotSettings
  1

  2
none_device
  4

  6

 40
0.0
 41
0.0
 42
0.0
 43
0.0
 44
0.0
 45
0.0
 46
0.0
 47
0.0
 48
0.0
 49
0.0
140
0.0
141
0.0
142
1.0
143
1.0
 70
  1712
 72
     0
 73
     0
 74
     0
  7

 75
     0
147
1.0
148
0.0
149
0.0
100
AcDbLayout
  1
Model
 70
     1
 71
     0
 10
0.0
 20
0.0
 11
297.0
 21
210.0
 12
0.0
 22
0.0
 32
0.0
 14
0.0
 24
0.0
 34
0.0
 15
297.0
 25
210.0
 35
0.0
146
0.0
 13
0.0
 23
0.0
 33
0.0
 16
1.0
 26
0.0
 36
0.0
 17
0.0
 27
1.0
 37
0.0
 76
     0
330
1F
331
29
  0
MLINESTYLE
  5
18
102
{ACAD_REACTORS
330
17
102
}
330
17
100
AcDbMlineStyle
  2
Standard
 70
     0
  3

 62
   256
 51
90.0
 52
90.0
 71
     2
 49
0.5
 62
   256
  6
BYLAYER
 49
-0.5
 62
   256
  6
BYLAYER
  0
ACDBPLACEHOLDER
  5
F
102
{ACAD_REACTORS
330
E
102
}
330
E
  0
VISUALSTYLE
  5
2F
102
{ACAD_REACTORS
330
2A
102
}
330
2A
100
AcDbVisualStyle
  2
2dWireframe
 70
     4
 71
     0
 72
     2
 73
     0
 90
        0
 40
-0.6
 41
-30.0
 62
     5
 63
     7
 74
     1
 91
        4
 64
     7
 65
   257
 75
     1
175
     1
 42
1.0
 92
        0
 66
   257
 43
1.0
 76
     1
 77
     6
 78
     2
 67
     7
 79
     5
170
     0
171
     0
290
     0
174
     0
 93
        1
 44
0.0
173
     0
291
     0
 45
0.0
1001
ACAD
1000
AcDbSavedByObjectVersion
1070
     0
  0
VISUALSTYLE
  5
31
102
{ACAD_REACTORS
330
2A
102
}
330
2A
100
AcDbVisualStyle
  2
3D Hidden
 70
     6
 71
     1
 72
     2
 73
     2
 90
        0
 40
-0.6
 41
-30.0
 62
     5
 63
     7
 74
     2
 91
        2
 64
     7
 65
   257
 75
     2
175
     1
 42
40.0
 92
        0
 66
   257
 43
1.0
 76
     1
 77
     6
 78
     2
 67
     7
 79
     3
170
     0
171
     0
290
     0
174
     0
 93
        1
 44
0.0
173
     0
291
     0
 45
0.0
1001
ACAD
1000
AcDbSavedByObjectVersion
1070
     0
  0
VISUALSTYLE
  5
30
102
{ACAD_REACTORS
330
2A
102
}
330
2A
100
AcDbVisualStyle
  2
3dWireframe
 70
     5
 71
     0
 72
     2
 73
     0
 90
        0
 40
-0.6
 41
-30.0
 62
     5
 63
     7
 74
     1
 91
        4
 64
     7
 65
   257
 75
     1
175
     1
 42
1.0
 92
        0
 66
   257
 43
1.0
 76
     1
 77
     6
 78
     2
 67
     7
 79
     5
170
     0
171
     0
290
     0
174
     0
 93
        1
 44
0.0
173
     0
291
     0
 45
0.0
1001
ACAD
1000
AcDbSavedByObjectVersion
1070
     0
  0
VISUALSTYLE
  5
32
102
{ACAD_REACTORS
330
2A
102
}
330
2A
100
AcDbVisualStyle
  2
Basic
 70
     7
 71
     1
 72
     0
 73
     1
 90
        0
 40
-0.6
 41
-30.0
 62
     5
 63
     7
 74
     0
 91
        4
 64
     7
 65
   257
 75
     1
175
     1
 42
1.0
 92
        8
 66
     7
 43
1.0
 76
     1
 77
     6
 78
     2
 67
     7
 79
     5
170
     0
171
     0
290
     0
174
     0
 93
        1
 44
0.0
173
     0
291
     1
 45
0.0
1001
ACAD
1000
AcDbSavedByObjectVersion
1070
     0
  0
VISUALSTYLE
  5
36
102
{ACAD_REACTORS
330
2A
102
}
330
2A
100
AcDbVisualStyle
  2
Brighten
 70
    12
 71
     2
 72
     2
 73
     0
 90
        0
 40
-0.6
 41
-30.0
 62
     5
 63
     7
 74
     1
 91
        4
 64
     7
 65
   257
 75
     1
175
     1
 42
1.0
 92
        8
 66
     7
 43
1.0
 76
     1
 77
     6
 78
     2
 67
     7
 79
     5
170
     0
171
     0
290
     0
174
     0
 93
        1
 44
50.0
173
     0
291
     1
 45
0.0
1001
ACAD
1000
AcDbSavedByObjectVersion
1070
     0
  0
VISUALSTYLE
  5
3A
102
{ACAD_REACTORS
330
2A
102
}
330
2A
100
AcDbVisualStyle
  2
ColorChange
 70
    16
 71
     2
 72
     2
 73
     3
 90
        0
 40
-0.6
 41
-30.0
 62
     5
 63
     8
 74
     1
 91
        4
 64
     7
 65
   257
 75
     1
175
     1
 42
1.0
 92
        8
 66
     8
 43
1.0
 76
     1
 77
     6
 78
     2
 67
     7
 79
     5
170
     0
171
     0
290
     0
174
     0
 93
        1
 44
0.0
173
     0
291
     1
 45
0.0
1001
ACAD
1000
AcDbSavedByObjectVersion
1070
     0
  0
VISUALSTYLE
  5
34
102
{ACAD_REACTORS
330
2A
102
}
330
2A
100
AcDbVisualStyle
  2
Conceptual
 70
     9
 71
     3
 72
     2
 73
     0
 90
        0
 40
-0.6
 41
-30.0
 62
     5
 63
     7
 74
     2
 91
        2
 64
     7
 65
   257
 75
     1
175
     1
 42
40.0
 92
        8
 66
     7
 43
1.0
 76
     1
 77
     6
 78
     2
 67
     7
 79
     3
170
     0
171
     0
290
     0
174
     0
 93
        1
 44
0.0
173
     0
291
     0
 45
0.0
1001
ACAD
1000
AcDbSavedByObjectVersion
1070
     0
  0
VISUALSTYLE
  5
35
102
{ACAD_REACTORS
330
2A
102
}
330
2A
100
AcDbVisualStyle
  2
Dim
 70
    11
 71
     2
 72
     2
 73
     0
 90
        0
 40
-0.6
 41
-30.0
 62
     5
 63
     7
 74
     1
 91
        4
 64
     7
 65
   257
 75
     1
175
     1
 42
1.0
 92
        8
 66
     7
 43
1.0
 76
     1
 77
     6
 78
     2
 67
     7
 79
     5
170
     0
171
     0
290
     0
174
     0
 93
        1
 44
-50.0
173
     0
291
     1
 45
0.0
1001
ACAD
1000
AcDbSavedByObjectVersion
1070
     0
  0
VISUALSTYLE
  5
39
102
{ACAD_REACTORS
330
2A
102
}
330
2A
100
AcDbVisualStyle
  2
Facepattern
 70
    15
 71
     2
 72
     2
 73
     0
 90
        0
 40
-0.6
 41
-30.0
 62
     5
 63
     7
 74
     1
 91
        4
 64
     7
 65
   257
 75
     1
175
     1
 42
1.0
 92
        8
 66
     7
 43
1.0
 76
     1
 77
     6
 78
     2
 67
     7
 79
     5
170
     0
171
     0
290
     0
174
     0
 93
        1
 44
0.0
173
     0
291
     1
 45
0.0
1001
ACAD
1000
AcDbSavedByObjectVersion
1070
     0
  0
VISUALSTYLE
  5
2B
102
{ACAD_REACTORS
330
2A
102
}
330
2A
100
AcDbVisualStyle
  2
Flat
 70
     0
 71
     2
 72
     1
 73
     1
 90
        2
 40
-0.6
 41
30.0
 62
     5
 63
     7
 74
     0
 91
        4
 64
     7
 65
   257
 75
     1
175
     1
 42
1.0
 92
        8
 66
     7
 43
1.0
 76
     1
 77
     6
 78
     2
 67
     7
 79
     5
170
     0
171
     0
290
     0
174
     0
 93
       13
 44
0.0
173
     0
291
     1
 45
0.0
1001
ACAD
1000
AcDbSavedByObjectVersion
1070
     0
  0
VISUALSTYLE
  5
2C
102
{ACAD_REACTORS
330
2A
102
}
330
2A
100
AcDbVisualStyle
  2
FlatWithEdges
 70
     1
 71
     2
 72
     1
 73
     1
 90
        2
 40
-0.6
 41
30.0
 62
     5
 63
     7
 74
     1
 91
        4
 64
     7
 65
   257
 75
     1
175
     1
 42
1.0
 92
        0
 66
   257
 43
1.0
 76
     1
 77
     6
 78
     2
 67
     7
 79
     5
170
     0
171
     0
290
     0
174
     0
 93
       13
 44
0.0
173
     0
291
     1
 45
0.0
1001
ACAD
1000
AcDbSavedByObjectVersion
1070
     0
  0
VISUALSTYLE
  5
2D
102
{ACAD_REACTORS
330
2A
102
}
330
2A
100
AcDbVisualStyle
  2
Gouraud
 70
     2
 71
     2
 72
     2
 73
     1
 90
        2
 40
-0.6
 41
30.0
 62
     5
 63
     7
 74
     0
 91
        4
 64
     7
 65
   257
 75
     1
175
     1
 42
1.0
 92
        0
 66
     7
 43
1.0
 76
     1
 77
     6
 78
     2
 67
     7
 79
     5
170
     0
171
     0
290
     0
174
     0
 93
       13
 44
0.0
173
     0
291
     1
 45
0.0
1001
ACAD
1000
AcDbSavedByObjectVersion
1070
     0
  0
VISUALSTYLE
  5
2E
102
{ACAD_REACTORS
330
2A
102
}
330
2A
100
AcDbVisualStyle
  2
GouraudWithEdges
 70
     3
 71
     2
 72
     2
 73
     1
 90
        2
 40
-0.6
 41
30.0
 62
     5
 63
     7
 74
     1
 91
        4
 64
     7
 65
   257
 75
     1
175
     1
 42
1.0
 92
        0
 66
   257
 43
1.0
 76
     1
 77
     6
 78
     2
 67
     7
 79
     5
170
     0
171
     0
290
     0
174
     0
 93
       13
 44
0.0
173
     0
291
     1
 45
0.0
1001
ACAD
1000
AcDbSavedByObjectVersion
1070
     0
  0
VISUALSTYLE
  5
38
102
{ACAD_REACTORS
330
2A
102
}
330
2A
100
AcDbVisualStyle
  2
Linepattern
 70
    14
 71
     2
 72
     2
 73
     0
 90
        0
 40
-0.6
 41
-30.0
 62
     5
 63
     7
 74
     1
 91
        4
 64
     7
 65
   257
 75
     7
175
     7
 42
1.0
 92
        8
 66
     7
 43
1.0
 76
     1
 77
     6
 78
     2
 67
     7
 79
     5
170
     0
171
     0
290
     0
174
     0
 93
        1
 44
0.0
173
     0
291
     1
 45
0.0
1001
ACAD
1000
AcDbSavedByObjectVersion
1070
     0
  0
VISUALSTYLE
  5
33
102
{ACAD_REACTORS
330
2A
102
}
330
2A
100
AcDbVisualStyle
  2
Realistic
 70
     8
 71
     2
 72
     2
 73
     0
 90
        0
 40
-0.6
 41
-30.0
 62
     5
 63
     7
 74
     1
 91
        0
 64
     7
 65
   257
 75
     1
175
     1
 42
1.0
 92
        8
 66
     8
 43
1.0
 76
     1
 77
     6
 78
     2
 67
     7
 79
     5
170
     0
171
     0
290
     0
174
     0
 93
       13
 44
0.0
173
     0
291
     0
 45
0.0
1001
ACAD
1000
AcDbSavedByObjectVersion
1070
     0
  0
VISUALSTYLE
  5
37
102
{ACAD_REACTORS
330
2A
102
}
330
2A
100
AcDbVisualStyle
  2
Thicken
 70
    13
 71
     2
 72
     2
 73
     0
 90
        0
 40
-0.6
 41
-30.0
 62
     5
 63
     7
 74
     1
 91
        4
 64
     7
 65
   257
 75
     1
175
     1
 42
1.0
 92
       12
 66
     7
 43
1.0
 76
     1
 77
     6
 78
     2
 67
     7
 79
     5
170
     0
171
     0
290
     0
174
     0
 93
        1
 44
0.0
173
     0
291
     1
 45
0.0
1001
ACAD
1000
AcDbSavedByObjectVersion
1070
     0
  0
DICTIONARYVAR
  5
30E
102
{ACAD_REACTORS
330
30C
102
}
330
30C
100
DictionaryVariables
280
     0
  1
80.000000
  0
DICTIONARYVAR
  5
30D
102
{ACAD_REACTORS
330
30C
102
}
330
30C
100
DictionaryVariables
280
     0
  1
5.000000
  0
ENDSEC
  0
EOF
