  0
SECTION
  2
HEADER
  9
$ACADVER
  1
AC1015
  9
$ACADMAINTVER
 70
     6
  9
$DWGCODEPAGE
  3
ANSI_1252
  9
$INSBASE
 10
0.0
 20
0.0
 30
0.0
  9
$EXTMIN
 10
0.0
 20
0.0
 30
0.0
  9
$EXTMAX
 10
297.0
 20
210.0
 30
0.0
  9
$LIMMIN
 10
0.0
 20
0.0
  9
$LIMMAX
 10
297.0
 20
210.0
  9
$ORTHOMODE
 70
     0
  9
$REGENMODE
 70
     1
  9
$FILLMODE
 70
     1
  9
$QTEXTMODE
 70
     0
  9
$MIRRTEXT
 70
     1
  9
$LTSCALE
 40
1.0
  9
$ATTMODE
 70
     1
  9
$TEXTSIZE
 40
2.0
  9
$TRACEWID
 40
1.0
  9
$TEXTSTYLE
  7
Standard
  9
$CLAYER
  8
0
  9
$CELTYPE
  6
ByLayer
  9
$CECOLOR
 62
   256
  9
$CELTSCALE
 40
1.0
  9
$DISPSILH
 70
     0
  9
$DIMSCALE
 40
1.0
  9
$DIMASZ
 40
3.0
  9
$DIMEXO
 40
0.0
  9
$DIMDLI
 40
3.75
  9
$DIMRND
 40
0.0
  9
$DIMDLE
 40
0.0
  9
$DIMEXE
 40
1.0
  9
$DIMTP
 40
0.0
  9
$DIMTM
 40
0.0
  9
$DIMTXT
 40
2.0
  9
$DIMCEN
 40
2.5
  9
$DIMTSZ
 40
0.0
  9
$DIMTOL
 70
     0
  9
$DIMLIM
 70
     0
  9
$DIMTIH
 70
     1
  9
$DIMTOH
 70
     1
  9
$DIMSE1
 70
     0
  9
$DIMSE2
 70
     0
  9
$DIMTAD
 70
     1
  9
$DIMZIN
 70
     0
  9
$DIMBLK
  1

  9
$DIMASO
 70
     1
  9
$DIMSHO
 70
     1
  9
$DIMPOST
  1

  9
$DIMAPOST
  1

  9
$DIMALT
 70
     0
  9
$DIMALTD
 70
     3
  9
$DIMALTF
 40
0.0393700787
  9
$DIMLFAC
 40
1.0
  9
$DIMTOFL
 70
     1
  9
$DIMTVP
 40
0.0
  9
$DIMTIX
 70
     0
  9
$DIMSOXD
 70
     0
  9
$DIMSAH
 70
     0
  9
$DIMBLK1
  1

  9
$DIMBLK2
  1

  9
$DIMSTYLE
  2
ISO-25
  9
$DIMCLRD
 70
     0
  9
$DIMCLRE
 70
     0
  9
$DIMCLRT
 70
     0
  9
$DIMTFAC
 40
1.0
  9
$DIMGAP
 40
1.524
  9
$DIMJUST
 70
     0
  9
$DIMSD1
 70
     0
  9
$DIMSD2
 70
     0
  9
$DIMTOLJ
 70
     0
  9
$DIMTZIN
 70
     0
  9
$DIMALTZ
 70
     0
  9
$DIMALTTZ
 70
     0
  9
$DIMUPT
 70
     0
  9
$DIMDEC
 70
     2
  9
$DIMTDEC
 70
     3
  9
$DIMALTU
 70
     2
  9
$DIMALTTD
 70
     3
  9
$DIMTXSTY
  7
Standard
  9
$DIMAUNIT
 70
     0
  9
$DIMADEC
 70
     2
  9
$DIMALTRND
 40
0.0
  9
$DIMAZIN
 70
     0
  9
$DIMDSEP
 70
    44
  9
$DIMATFIT
 70
     3
  9
$DIMFRAC
 70
     0
  9
$DIMLDRBLK
  1

  9
$DIMLUNIT
 70
     2
  9
$DIMLWD
 70
    -2
  9
$DIMLWE
 70
    -2
  9
$DIMTMOVE
 70
     0
  9
$LUNITS
 70
     2
  9
$LUPREC
 70
     2
  9
$SKETCHINC
 40
1.0
  9
$FILLETRAD
 40
10.0
  9
$AUNITS
 70
     0
  9
$AUPREC
 70
     2
  9
$MENU
  1
.
  9
$ELEVATION
 40
0.0
  9
$PELEVATION
 40
0.0
  9
$THICKNESS
 40
0.0
  9
$LIMCHECK
 70
     0
  9
$CHAMFERA
 40
10.0
  9
$CHAMFERB
 40
10.0
  9
$CHAMFERC
 40
20.0
  9
$CHAMFERD
 40
0.0
  9
$SKPOLY
 70
     0
  9
$TDCREATE
 40
2455863.560448287
  9
$TDUCREATE
 40
2455863.477114954
  9
$TDUPDATE
 40
2455863.560448299
  9
$TDUUPDATE
 40
2455863.477114965
  9
$TDINDWG
 40
0.0000000116
  9
$TDUSRTIMER
 40
0.0000000116
  9
$USRTIMER
 70
     1
  9
$ANGBASE
 50
0.0
  9
$ANGDIR
 70
     0
  9
$PDMODE
 70
     0
  9
$PDSIZE
 40
-1.0
  9
$PLINEWID
 40
0.0
  9
$SPLFRAME
 70
     0
  9
$SPLINETYPE
 70
     6
  9
$SPLINESEGS
 70
     8
  9
$HANDSEED
  5
2DF
  9
$SURFTAB1
 70
     6
  9
$SURFTAB2
 70
     6
  9
$SURFTYPE
 70
     6
  9
$SURFU
 70
     6
  9
$SURFV
 70
     6
  9
$UCSBASE
  2

  9
$UCSNAME
  2

  9
$UCSORG
 10
0.0
 20
0.0
 30
0.0
  9
$UCSXDIR
 10
1.0
 20
0.0
 30
0.0
  9
$UCSYDIR
 10
0.0
 20
1.0
 30
0.0
  9
$UCSORTHOREF
  2

  9
$UCSORTHOVIEW
 70
     0
  9
$UCSORGTOP
 10
0.0
 20
0.0
 30
0.0
  9
$UCSORGBOTTOM
 10
0.0
 20
0.0
 30
0.0
  9
$UCSORGLEFT
 10
0.0
 20
0.0
 30
0.0
  9
$UCSORGRIGHT
 10
0.0
 20
0.0
 30
0.0
  9
$UCSORGFRONT
 10
0.0
 20
0.0
 30
0.0
  9
$UCSORGBACK
 10
0.0
 20
0.0
 30
0.0
  9
$PUCSBASE
  2

  9
$PUCSNAME
  2

  9
$PUCSORG
 10
0.0
 20
0.0
 30
0.0
  9
$PUCSXDIR
 10
1.0
 20
0.0
 30
0.0
  9
$PUCSYDIR
 10
0.0
 20
1.0
 30
0.0
  9
$PUCSORTHOREF
  2

  9
$PUCSORTHOVIEW
 70
     0
  9
$PUCSORGTOP
 10
0.0
 20
0.0
 30
0.0
  9
$PUCSORGBOTTOM
 10
0.0
 20
0.0
 30
0.0
  9
$PUCSORGLEFT
 10
0.0
 20
0.0
 30
0.0
  9
$PUCSORGRIGHT
 10
0.0
 20
0.0
 30
0.0
  9
$PUCSORGFRONT
 10
0.0
 20
0.0
 30
0.0
  9
$PUCSORGBACK
 10
0.0
 20
0.0
 30
0.0
  9
$USERI1
 70
     0
  9
$USERI2
 70
     0
  9
$USERI3
 70
     0
  9
$USERI4
 70
     0
  9
$USERI5
 70
     0
  9
$USERR1
 40
0.0
  9
$USERR2
 40
0.0
  9
$USERR3
 40
0.0
  9
$USERR4
 40
0.0
  9
$USERR5
 40
0.0
  9
$WORLDVIEW
 70
     1
  9
$SHADEDGE
 70
     3
  9
$SHADEDIF
 70
    70
  9
$TILEMODE
 70
     1
  9
$MAXACTVP
 70
    64
  9
$PINSBASE
 10
0.0
 20
0.0
 30
0.0
  9
$PLIMCHECK
 70
     0
  9
$PEXTMIN
 10
1.0000000000E+20
 20
1.0000000000E+20
 30
1.0000000000E+20
  9
$PEXTMAX
 10
-1.0000000000E+20
 20
-1.0000000000E+20
 30
-1.0000000000E+20
  9
$PLIMMIN
 10
0.0
 20
0.0
  9
$PLIMMAX
 10
420.0
 20
297.0
  9
$UNITMODE
 70
     0
  9
$VISRETAIN
 70
     1
  9
$PLINEGEN
 70
     0
  9
$PSLTSCALE
 70
     1
  9
$TREEDEPTH
 70
  3020
  9
$CMLSTYLE
  2
Standard
  9
$CMLJUST
 70
     0
  9
$CMLSCALE
 40
20.0
  9
$PROXYGRAPHICS
 70
     1
  9
$MEASUREMENT
 70
     1
  9
$CELWEIGHT
370
    -1
  9
$ENDCAPS
280
     0
  9
$JOINSTYLE
280
     0
  9
$LWDISPLAY
290
     1
  9
$INSUNITS
 70
     4
  9
$HYPERLINKBASE
  1

  9
$STYLESHEET
  1

  9
$XEDIT
290
     1
  9
$CEPSNTYPE
380
     0
  9
$PSTYLEMODE
290
     1
  9
$FINGERPRINTGUID
  2
{3D732F7C-B949-49FD-B6D3-737FABC0C200}
  9
$VERSIONGUID
  2
{FAEB1C32-E019-11D5-929B-00C0DF256EC4}
  9
$EXTNAMES
290
     1
  9
$PSVPSCALE
 40
0.0
  9
$OLESTARTUP
290
     0
  0
ENDSEC
  0
SECTION
  2
CLASSES
  0
CLASS
  1
ACDBDICTIONARYWDFLT
  2
AcDbDictionaryWithDefault
  3
ObjectDBX Classes
 90
        0
280
     0
281
     0
  0
CLASS
  1
VISUALSTYLE
  2
AcDbVisualStyle
  3
ObjectDBX Classes
 90
     4095
280
     0
281
     0
  0
CLASS
  1
MATERIAL
  2
AcDbMaterial
  3
ObjectDBX Classes
 90
     1153
280
     0
281
     0
  0
CLASS
  1
ACDBPLACEHOLDER
  2
AcDbPlaceHolder
  3
ObjectDBX Classes
 90
        0
280
     0
281
     0
  0
CLASS
  1
LAYOUT
  2
AcDbLayout
  3
ObjectDBX Classes
 90
        0
280
     0
281
     0
  0
ENDSEC
  0
SECTION
  2
TABLES
  0
TABLE
  2
VPORT
  5
8
330
0
100
AcDbSymbolTable
 70
     1
  0
VPORT
  5
29
330
8
100
AcDbSymbolTableRecord
100
AcDbViewportTableRecord
  2
*Active
 70
     0
 10
0.0
 20
0.0
 11
1.0
 21
1.0
 12
148.5
 22
105.0
 13
0.0
 23
0.0
 14
10.0
 24
10.0
 15
10.0
 25
10.0
 16
0.0
 26
0.0
 36
1.0
 17
0.0
 27
0.0
 37
0.0
 40
210.0
 41
1.4142857143
 42
50.0
 43
0.0
 44
0.0
 50
0.0
 51
0.0
 71
     0
 72
  2000
 73
     1
 74
     3
 75
     0
 76
     0
 77
     0
 78
     0
281
     0
 65
     1
110
0.0
120
0.0
130
0.0
111
1.0
121
0.0
131
0.0
112
0.0
122
1.0
132
0.0
 79
     0
146
0.0
  0
ENDTAB
  0
TABLE
  2
LTYPE
  5
5
330
0
100
AcDbSymbolTable
 70
     6
  0
LTYPE
  5
14
330
5
100
AcDbSymbolTableRecord
100
AcDbLinetypeTableRecord
  2
ByBlock
 70
     0
  3

 72
    65
 73
     0
 40
0.0
  0
LTYPE
  5
15
330
5
100
AcDbSymbolTableRecord
100
AcDbLinetypeTableRecord
  2
ByLayer
 70
     0
  3

 72
    65
 73
     0
 40
0.0
  0
LTYPE
  5
16
330
5
100
AcDbSymbolTableRecord
100
AcDbLinetypeTableRecord
  2
Continuous
 70
     0
  3
Solid line
 72
    65
 73
     0
 40
0.0
  0
LTYPE
  5
3F
330
5
100
AcDbSymbolTableRecord
100
AcDbLinetypeTableRecord
  2
HIDDEN
 70
     0
  3
Hidden __ __ __ __ __ __ __ __ __ __ __ __ __ __
 72
    65
 73
     2
 40
1.905
 49
1.27
 74
     0
 49
-0.635
 74
     0
  0
LTYPE
  5
40
330
5
100
AcDbSymbolTableRecord
100
AcDbLinetypeTableRecord
  2
PHANTOM
 70
     0
  3
Phantom ______  __  __  ______  __  __  ______
 72
    65
 73
     6
 40
12.7
 49
6.35
 74
     0
 49
-1.27
 74
     0
 49
1.27
 74
     0
 49
-1.27
 74
     0
 49
1.27
 74
     0
 49
-1.27
 74
     0
  0
LTYPE
  5
41
330
5
100
AcDbSymbolTableRecord
100
AcDbLinetypeTableRecord
  2
CENTER
 70
     0
  3
Center ____ _ ____ _ ____ _ ____ _ ____ _ ____
 72
    65
 73
     4
 40
10.16
 49
6.35
 74
     0
 49
-1.27
 74
     0
 49
1.27
 74
     0
 49
-1.27
 74
     0
  0
LTYPE
  5
42
330
5
100
AcDbSymbolTableRecord
100
AcDbLinetypeTableRecord
  2
CENTERX2
 70
     0
  3
Center (2x) ________  __  ________  __  _____
 72
    65
 73
     4
 40
20.32
 49
12.7
 74
     0
 49
-2.54
 74
     0
 49
2.54
 74
     0
 49
-2.54
 74
     0
  0
LTYPE
  5
43
330
5
100
AcDbSymbolTableRecord
100
AcDbLinetypeTableRecord
  2
DOT2
 70
     0
  3
Dot (.5x) ........................................
 72
    65
 73
     2
 40
0.635
 49
0.0
 74
     0
 49
-0.635
 74
     0
  0
ENDTAB
  0
TABLE
  2
LAYER
  5
2
330
0
100
AcDbSymbolTable
 70
     5
  0
LAYER
  5
10
330
2
100
AcDbSymbolTableRecord
100
AcDbLayerTableRecord
  2
0
 70
     0
 62
     7
  6
Continuous
370
    -3
390
F
  0
LAYER
  5
44
330
2
100
AcDbSymbolTableRecord
100
AcDbLayerTableRecord
  2
FORMAT
 70
     0
 62
     7
  6
Continuous
370
    -3
390
F
  0
LAYER
  5
45
330
2
100
AcDbSymbolTableRecord
100
AcDbLayerTableRecord
  2
VERMASSUNG
 70
     0
 62
     7
  6
Continuous
370
    -3
390
F
  0
LAYER
  5
46
330
2
100
AcDbSymbolTableRecord
100
AcDbLayerTableRecord
  2
KOPF_DÜNN
 70
     0
 62
     7
  6
Continuous
370
    -3
390
F
  0
LAYER
  5
47
330
2
100
AcDbSymbolTableRecord
100
AcDbLayerTableRecord
  2
KOPF_DICK
 70
     0
 62
     7
  6
Continuous
370
    15
390
F
  0
ENDTAB
  0
TABLE
  2
STYLE
  5
3
330
0
100
AcDbSymbolTable
 70
     3
  0
STYLE
  5
11
330
3
100
AcDbSymbolTableRecord
100
AcDbTextStyleTableRecord
  2
Standard
 70
     0
 40
0.0
 41
1.0
 50
0.0
 71
     0
 42
2.5
  3
txt
  4

  0
STYLE
  5
48
330
3
100
AcDbSymbolTableRecord
100
AcDbTextStyleTableRecord
  2
SLDTEXTSTYLE0
 70
     0
 40
0.0
 41
0.7
 50
0.0
 71
     0
 42
0.2
  3
TXT
  4

  0
STYLE
  5
4C
330
3
100
AcDbSymbolTableRecord
100
AcDbTextStyleTableRecord
  2
SLDTEXTSTYLE1
 70
     0
 40
0.0
 41
0.6470588235
 50
0.0
 71
     0
 42
0.2
  3
TXT
  4

  0
ENDTAB
  0
TABLE
  2
VIEW
  5
6
330
0
100
AcDbSymbolTable
 70
     0
  0
ENDTAB
  0
TABLE
  2
UCS
  5
7
330
0
100
AcDbSymbolTable
 70
     0
  0
ENDTAB
  0
TABLE
  2
APPID
  5
9
330
0
100
AcDbSymbolTable
 70
     1
  0
APPID
  5
12
330
9
100
AcDbSymbolTableRecord
100
AcDbRegAppTableRecord
  2
ACAD
 70
     0
  0
ENDTAB
  0
TABLE
  2
DIMSTYLE
  5
A
330
0
100
AcDbSymbolTable
 70
     3
100
AcDbDimStyleTable
  0
DIMSTYLE
105
27
330
A
100
AcDbSymbolTableRecord
100
AcDbDimStyleTableRecord
  2
ISO-25
 70
     0
 41
2.5
 42
0.625
 43
3.75
 44
1.25
 73
     0
 74
     0
 77
     1
 78
     8
140
2.5
141
2.5
143
0.0393700787
147
0.625
171
     3
172
     1
178
     0
271
     2
272
     2
274
     3
278
    44
283
     0
284
     8
340
11
  0
DIMSTYLE
105
22A
102
{ACAD_REACTORS
330
229
330
234
330
24B
330
255
330
2C7
102
}
330
A
100
AcDbSymbolTableRecord
100
AcDbDimStyleTableRecord
  2
SLDDIMSTYLE0
 70
     0
 41
3.0
 44
0.0
 45
0.000000001
 73
     0
 74
     0
 77
     1
 78
    12
 79
     3
140
2.0
147
0.5
173
     1
178
     0
271
     2
272
     3
276
     2
284
    12
340
48
  0
DIMSTYLE
105
23F
102
{ACAD_REACTORS
330
23E
102
}
330
A
100
AcDbSymbolTableRecord
100
AcDbDimStyleTableRecord
  2
SLDDIMSTYLE1
 70
     0
 41
3.0
 44
0.0
 73
     0
 74
     0
 77
     1
 78
    12
 79
     3
140
2.0
147
0.5
173
     1
178
     0
179
     2
272
     3
276
     2
284
    12
340
48
  0
ENDTAB
  0
TABLE
  2
BLOCK_RECORD
  5
1
330
0
100
AcDbSymbolTable
 70
     8
  0
BLOCK_RECORD
  5
1F
330
1
100
AcDbSymbolTableRecord
100
AcDbBlockTableRecord
  2
*Model_Space
340
22
  0
BLOCK_RECORD
  5
1B
330
1
100
AcDbSymbolTableRecord
100
AcDbBlockTableRecord
  2
*Paper_Space
340
1E
  0
BLOCK_RECORD
  5
23
330
1
100
AcDbSymbolTableRecord
100
AcDbBlockTableRecord
  2
*Paper_Space0
340
26
  0
BLOCK_RECORD
  5
22B
330
1
100
AcDbSymbolTableRecord
100
AcDbBlockTableRecord
  2
*D1
340
0
  0
BLOCK_RECORD
  5
235
330
1
100
AcDbSymbolTableRecord
100
AcDbBlockTableRecord
  2
*D2
340
0
  0
BLOCK_RECORD
  5
240
330
1
100
AcDbSymbolTableRecord
100
AcDbBlockTableRecord
  2
*D3
340
0
  0
BLOCK_RECORD
  5
24C
330
1
100
AcDbSymbolTableRecord
100
AcDbBlockTableRecord
  2
*D4
340
0
  0
BLOCK_RECORD
  5
256
330
1
100
AcDbSymbolTableRecord
100
AcDbBlockTableRecord
  2
*D5
340
0
  0
BLOCK_RECORD
  5
2C8
330
1
100
AcDbSymbolTableRecord
100
AcDbBlockTableRecord
  2
*D6
340
0
  0
BLOCK_RECORD
  5
2D2
330
1
100
AcDbSymbolTableRecord
100
AcDbBlockTableRecord
  2
SW_CENTERMARKSYMBOL_0
340
0
102
{BLKREFS
331
2DD
102
}
  0
ENDTAB
  0
ENDSEC
  0
SECTION
  2
BLOCKS
  0
BLOCK
  5
20
330
1F
100
AcDbEntity
  8
0
100
AcDbBlockBegin
  2
*Model_Space
 70
     0
 10
0.0
 20
0.0
 30
0.0
  3
*Model_Space
  1

  0
ENDBLK
  5
21
330
1F
100
AcDbEntity
  8
0
100
AcDbBlockEnd
  0
BLOCK
  5
1C
330
1B
100
AcDbEntity
 67
     1
  8
0
100
AcDbBlockBegin
  2
*Paper_Space
 70
     0
 10
0.0
 20
0.0
 30
0.0
  3
*Paper_Space
  1

  0
ENDBLK
  5
1D
330
1B
100
AcDbEntity
 67
     1
  8
0
100
AcDbBlockEnd
  0
BLOCK
  5
24
330
23
100
AcDbEntity
  8
0
100
AcDbBlockBegin
  2
*Paper_Space0
 70
     0
 10
0.0
 20
0.0
 30
0.0
  3
*Paper_Space0
  1

  0
ENDBLK
  5
25
330
23
100
AcDbEntity
  8
0
100
AcDbBlockEnd
  0
BLOCK
  5
22C
330
22B
100
AcDbEntity
  8
0
100
AcDbBlockBegin
  2
*D1
 70
     1
 10
0.0
 20
0.0
 30
0.0
  3
*D1
  1

  0
SOLID
  5
22E
330
22B
100
AcDbEntity
  8
VERMASSUNG
100
AcDbTrace
 10
188.3050255636
 20
163.720729927
 30
0.0
 11
191.3050255636
 21
163.270729927
 31
0.0
 12
191.3050255636
 22
164.170729927
 32
0.0
 13
191.3050255636
 23
164.170729927
 33
0.0
  0
SOLID
  5
22F
330
22B
100
AcDbEntity
  8
VERMASSUNG
100
AcDbTrace
 10
258.3050255636
 20
163.720729927
 30
0.0
 11
255.3050255636
 21
164.170729927
 31
0.0
 12
255.3050255636
 22
163.270729927
 32
0.0
 13
255.3050255636
 23
163.270729927
 33
0.0
  0
LINE
  5
230
330
22B
100
AcDbEntity
  8
VERMASSUNG
100
AcDbLine
 10
188.3050255636
 20
156.4799162255
 30
0.0
 11
188.3050255636
 21
164.720729927
 31
0.0
  0
LINE
  5
231
330
22B
100
AcDbEntity
  8
VERMASSUNG
100
AcDbLine
 10
258.3050255636
 20
125.2799162255
 30
0.0
 11
258.3050255636
 21
164.720729927
 31
0.0
  0
LINE
  5
232
330
22B
100
AcDbEntity
  8
VERMASSUNG
100
AcDbLine
 10
188.3050255636
 20
163.720729927
 30
0.0
 11
258.3050255636
 21
163.720729927
 31
0.0
  0
MTEXT
  5
233
330
22B
100
AcDbEntity
  8
VERMASSUNG
100
AcDbMText
 10
221.9051779794
 20
166.2988652901
 30
0.0
 40
2.0
 41
0.0
 71
     1
 72
     1
  1
70
  7
SLDTEXTSTYLE0
 73
     1
 44
1.0
  0
ENDBLK
  5
22D
330
22B
100
AcDbEntity
  8
0
100
AcDbBlockEnd
  0
BLOCK
  5
236
330
235
100
AcDbEntity
  8
0
100
AcDbBlockBegin
  2
*D2
 70
     1
 10
0.0
 20
0.0
 30
0.0
  3
*D2
  1

  0
SOLID
  5
238
330
235
100
AcDbEntity
  8
VERMASSUNG
100
AcDbTrace
 10
156.4050255636
 20
169.720729927
 30
0.0
 11
159.4050255636
 21
169.270729927
 31
0.0
 12
159.4050255636
 22
170.170729927
 32
0.0
 13
159.4050255636
 23
170.170729927
 33
0.0
  0
SOLID
  5
239
330
235
100
AcDbEntity
  8
VERMASSUNG
100
AcDbTrace
 10
258.3050255636
 20
169.720729927
 30
0.0
 11
255.3050255636
 21
170.170729927
 31
0.0
 12
255.3050255636
 22
169.270729927
 32
0.0
 13
255.3050255636
 23
169.270729927
 33
0.0
  0
LINE
  5
23A
330
235
100
AcDbEntity
  8
VERMASSUNG
100
AcDbLine
 10
156.4050255636
 20
145.2559767302
 30
0.0
 11
156.4050255636
 21
170.720729927
 31
0.0
  0
LINE
  5
23B
330
235
100
AcDbEntity
  8
VERMASSUNG
100
AcDbLine
 10
258.3050255636
 20
125.2799162255
 30
0.0
 11
258.3050255636
 21
170.720729927
 31
0.0
  0
LINE
  5
23C
330
235
100
AcDbEntity
  8
VERMASSUNG
100
AcDbLine
 10
156.4050255636
 20
169.720729927
 30
0.0
 11
258.3050255636
 21
169.720729927
 31
0.0
  0
MTEXT
  5
23D
330
235
100
AcDbEntity
  8
VERMASSUNG
100
AcDbMText
 10
204.6553195083
 20
172.2988652901
 30
0.0
 40
2.0
 41
0.0
 71
     1
 72
     1
  1
101.9
  7
SLDTEXTSTYLE0
 73
     1
 44
1.0
  0
ENDBLK
  5
237
330
235
100
AcDbEntity
  8
0
100
AcDbBlockEnd
  0
BLOCK
  5
241
330
240
100
AcDbEntity
  8
0
100
AcDbBlockBegin
  2
*D3
 70
     1
 10
0.0
 20
0.0
 30
0.0
  3
*D3
  1

  0
ARC
  5
243
330
240
100
AcDbEntity
  8
VERMASSUNG
100
AcDbCircle
 10
258.3050255636
 20
71.0215756705
 30
0.0
 40
66.4704781900249
100
AcDbArc
 50
90.0
 51
95.0047861234
  0
ARC
  5
244
330
240
100
AcDbEntity
  8
VERMASSUNG
100
AcDbCircle
 10
258.3050255636
 20
71.0215756705
 30
0.0
 40
66.4704781900249
100
AcDbArc
 50
84.8329823728
 51
90.0
  0
ARC
  5
245
330
240
100
AcDbEntity
  8
VERMASSUNG
100
AcDbCircle
 10
258.3050255636
 20
71.0215756705
 30
0.0
 40
66.4704781900249
100
AcDbArc
 50
95.0047861234
 51
100.1718037506
  0
SOLID
  5
246
330
240
100
AcDbEntity
  8
VERMASSUNG
100
AcDbTrace
 10
258.3050255636
 20
137.4920538605
 30
0.0
 11
261.2941156301
 21
136.9745206979
 31
0.0
 12
261.3144099047
 22
137.874291859
 32
0.0
 13
261.3144099047
 23
137.874291859
 33
0.0
  0
SOLID
  5
247
330
240
100
AcDbEntity
  8
VERMASSUNG
100
AcDbTrace
 10
252.5062102962
 20
137.238629458
 30
0.0
 11
249.4749534464
 21
137.3568745867
 31
0.0
 12
249.5736654461
 22
136.4623043317
 32
0.0
 13
249.5736654461
 23
136.4623043317
 33
0.0
  0
LINE
  5
248
330
240
100
AcDbEntity
  8
VERMASSUNG
100
AcDbLine
 10
258.3050255636
 20
125.2799162255
 30
0.0
 11
258.3050255636
 21
138.4920538605
 31
0.0
  0
LINE
  5
249
330
240
100
AcDbEntity
  8
VERMASSUNG
100
AcDbLine
 10
253.9014123467
 20
121.3067252744
 30
0.0
 11
252.418971338
 21
138.2348168722
 31
0.0
  0
MTEXT
  5
24A
330
240
100
AcDbEntity
  8
VERMASSUNG
100
AcDbMText
 10
253.9916672249
 20
139.9475911182
 30
0.0
 40
2.0
 41
0.0
 71
     1
 72
     1
  1
5°
  7
SLDTEXTSTYLE0
 11
0.9990463988679612
 21
0.04366111438063015
 31
0.0
 73
     1
 44
1.0
  0
ENDBLK
  5
242
330
240
100
AcDbEntity
  8
0
100
AcDbBlockEnd
  0
BLOCK
  5
24D
330
24C
100
AcDbEntity
  8
0
100
AcDbBlockBegin
  2
*D4
 70
     1
 10
0.0
 20
0.0
 30
0.0
  3
*D4
  1

  0
SOLID
  5
24F
330
24C
100
AcDbEntity
  8
VERMASSUNG
100
AcDbTrace
 10
264.7129927007
 20
125.2799162255
 30
0.0
 11
264.2629927007
 21
122.2799162255
 31
0.0
 12
265.1629927007
 22
122.2799162255
 32
0.0
 13
265.1629927007
 23
122.2799162255
 33
0.0
  0
SOLID
  5
250
330
24C
100
AcDbEntity
  8
VERMASSUNG
100
AcDbTrace
 10
264.7129927007
 20
80.2799162255
 30
0.0
 11
265.1629927007
 21
83.2799162255
 31
0.0
 12
264.2629927007
 22
83.2799162255
 32
0.0
 13
264.2629927007
 23
83.2799162255
 33
0.0
  0
LINE
  5
251
330
24C
100
AcDbEntity
  8
VERMASSUNG
100
AcDbLine
 10
254.8852554745
 20
125.2799162255
 30
0.0
 11
265.7129927007
 21
125.2799162255
 31
0.0
  0
LINE
  5
252
330
24C
100
AcDbEntity
  8
VERMASSUNG
100
AcDbLine
 10
258.3050255636
 20
80.2799162255
 30
0.0
 11
265.7129927007
 21
80.2799162255
 31
0.0
  0
LINE
  5
253
330
24C
100
AcDbEntity
  8
VERMASSUNG
100
AcDbLine
 10
264.7129927007
 20
125.2799162255
 30
0.0
 11
264.7129927007
 21
80.2799162255
 31
0.0
  0
MTEXT
  5
254
330
24C
100
AcDbEntity
  8
VERMASSUNG
100
AcDbMText
 10
262.1348573376
 20
101.2800795281
 30
0.0
 40
2.0
 41
0.0
 71
     1
 72
     1
  1
45
  7
SLDTEXTSTYLE0
 11
-7.044195017643634E-15
 21
1.0
 31
0.0
 73
     1
 44
1.0
  0
ENDBLK
  5
24E
330
24C
100
AcDbEntity
  8
0
100
AcDbBlockEnd
  0
BLOCK
  5
257
330
256
100
AcDbEntity
  8
0
100
AcDbBlockBegin
  2
*D5
 70
     1
 10
0.0
 20
0.0
 30
0.0
  3
*D5
  1

  0
SOLID
  5
259
330
256
100
AcDbEntity
  8
VERMASSUNG
100
AcDbTrace
 10
151.2934750026
 20
156.7799162255
 30
0.0
 11
150.8434750026
 21
153.7799162255
 31
0.0
 12
151.7434750026
 22
153.7799162255
 32
0.0
 13
151.7434750026
 23
153.7799162255
 33
0.0
  0
SOLID
  5
25A
330
256
100
AcDbEntity
  8
VERMASSUNG
100
AcDbTrace
 10
151.2934750026
 20
93.7799162255
 30
0.0
 11
151.7434750026
 21
96.7799162255
 31
0.0
 12
150.8434750026
 22
96.7799162255
 32
0.0
 13
150.8434750026
 23
96.7799162255
 33
0.0
  0
LINE
  5
25B
330
256
100
AcDbEntity
  8
VERMASSUNG
100
AcDbLine
 10
188.6050255636
 20
156.7799162255
 30
0.0
 11
150.2934750026
 21
156.7799162255
 31
0.0
  0
LINE
  5
25C
330
256
100
AcDbEntity
  8
VERMASSUNG
100
AcDbLine
 10
188.6050255636
 20
93.7799162255
 30
0.0
 11
150.2934750026
 21
93.7799162255
 31
0.0
  0
LINE
  5
25D
330
256
100
AcDbEntity
  8
VERMASSUNG
100
AcDbLine
 10
151.2934750026
 20
156.7799162255
 30
0.0
 11
151.2934750026
 21
93.7799162255
 31
0.0
  0
MTEXT
  5
25E
330
256
100
AcDbEntity
  8
VERMASSUNG
100
AcDbMText
 10
148.5153395136
 20
117.5767549477
 30
0.0
 40
2.0
 41
0.0
 71
     1
 72
     1
  1
HSK A
  7
SLDTEXTSTYLE0
 11
-7.044195017643634E-15
 21
1.0
 31
0.0
 73
     1
 44
1.0
  0
MTEXT
  5
25F
330
256
100
AcDbEntity
  8
VERMASSUNG
100
AcDbMText
 10
148.715339523
 20
126.5767554916
 30
0.0
 40
2.0
 41
0.0
 71
     1
 72
     1
  1
%%c
  7
SLDTEXTSTYLE0
 11
-7.044195017643634E-15
 21
1.0
 31
0.0
 73
     1
 44
1.0
  0
MTEXT
  5
260
330
256
100
AcDbEntity
  8
VERMASSUNG
100
AcDbMText
 10
148.7153396395
 20
130.1833823349
 30
0.0
 40
2.0
 41
0.0
 71
     1
 72
     1
  1
63
  7
SLDTEXTSTYLE0
 11
-7.044195017643634E-15
 21
1.0
 31
0.0
 73
     1
 44
1.0
  0
ENDBLK
  5
258
330
256
100
AcDbEntity
  8
0
100
AcDbBlockEnd
  0
BLOCK
  5
2C9
330
2C8
100
AcDbEntity
  8
0
100
AcDbBlockBegin
  2
*D6
 70
     1
 10
0.0
 20
0.0
 30
0.0
  3
*D6
  1

  0
SOLID
  5
2CB
330
2C8
100
AcDbEntity
  8
VERMASSUNG
100
AcDbTrace
 10
30.0979562044
 20
80.3024897836
 30
0.0
 11
30.5479562044
 21
83.3024897836
 31
0.0
 12
29.6479562044
 22
83.3024897836
 32
0.0
 13
29.6479562044
 23
83.3024897836
 33
0.0
  0
SOLID
  5
2CC
330
2C8
100
AcDbEntity
  8
VERMASSUNG
100
AcDbTrace
 10
30.0979562044
 20
160.3024897836
 30
0.0
 11
29.6479562044
 21
157.3024897836
 31
0.0
 12
30.5479562044
 22
157.3024897836
 32
0.0
 13
30.5479562044
 23
157.3024897836
 33
0.0
  0
LINE
  5
2CD
330
2C8
100
AcDbEntity
  8
VERMASSUNG
100
AcDbLine
 10
71.5979562044
 20
80.3024897836
 30
0.0
 11
29.0979562044
 21
80.3024897836
 31
0.0
  0
LINE
  5
2CE
330
2C8
100
AcDbEntity
  8
VERMASSUNG
100
AcDbLine
 10
71.5979562044
 20
160.3024897836
 30
0.0
 11
29.0979562044
 21
160.3024897836
 31
0.0
  0
LINE
  5
2CF
330
2C8
100
AcDbEntity
  8
VERMASSUNG
100
AcDbLine
 10
30.0979562044
 20
80.3024897836
 30
0.0
 11
30.0979562044
 21
160.3024897836
 31
0.0
  0
MTEXT
  5
2D0
330
2C8
100
AcDbEntity
  8
VERMASSUNG
100
AcDbMText
 10
27.5198207248
 20
117.098838598
 30
0.0
 40
2.0
 41
0.0
 71
     1
 72
     1
  1
%%c
  7
SLDTEXTSTYLE0
 11
6.123233995736766E-17
 21
1.0
 31
0.0
 73
     1
 44
1.0
  0
MTEXT
  5
2D1
330
2C8
100
AcDbEntity
  8
VERMASSUNG
100
AcDbMText
 10
27.5198208413
 20
120.7064458008
 30
0.0
 40
2.0
 41
0.0
 71
     1
 72
     1
  1
80
  7
SLDTEXTSTYLE0
 11
6.123233995736766E-17
 21
1.0
 31
0.0
 73
     1
 44
1.0
  0
ENDBLK
  5
2CA
330
2C8
100
AcDbEntity
  8
0
100
AcDbBlockEnd
  0
BLOCK
  5
2D3
330
2D2
100
AcDbEntity
  8
0
100
AcDbBlockBegin
  2
SW_CENTERMARKSYMBOL_0
 70
     0
 10
0.0
 20
0.0
 30
0.0
  3
SW_CENTERMARKSYMBOL_0
  1

  0
LINE
  5
2D5
330
2D2
100
AcDbEntity
  8
VERMASSUNG
 62
     0
100
AcDbLine
 10
0.0
 20
0.0
 30
0.0
 11
0.0
 21
2.5
 31
0.0
  0
LINE
  5
2D6
330
2D2
100
AcDbEntity
  8
VERMASSUNG
 62
     0
100
AcDbLine
 10
0.0
 20
0.0
 30
0.0
 11
-2.5
 21
0.0
 31
0.0
  0
LINE
  5
2D7
330
2D2
100
AcDbEntity
  8
VERMASSUNG
 62
     0
100
AcDbLine
 10
0.0
 20
0.0
 30
0.0
 11
0.0
 21
-2.5
 31
0.0
  0
LINE
  5
2D8
330
2D2
100
AcDbEntity
  8
VERMASSUNG
 62
     0
100
AcDbLine
 10
0.0
 20
0.0
 30
0.0
 11
2.5
 21
0.0
 31
0.0
  0
LINE
  5
2D9
330
2D2
100
AcDbEntity
  8
VERMASSUNG
 62
     0
100
AcDbLine
 10
0.0
 20
5.0
 30
0.0
 11
0.0
 21
34.0
 31
0.0
  0
LINE
  5
2DA
330
2D2
100
AcDbEntity
  8
VERMASSUNG
 62
     0
100
AcDbLine
 10
-5.0
 20
0.0
 30
0.0
 11
-34.0
 21
0.0
 31
0.0
  0
LINE
  5
2DB
330
2D2
100
AcDbEntity
  8
VERMASSUNG
 62
     0
100
AcDbLine
 10
0.0
 20
-5.0
 30
0.0
 11
0.0
 21
-46.4030365851
 31
0.0
  0
LINE
  5
2DC
330
2D2
100
AcDbEntity
  8
VERMASSUNG
 62
     0
100
AcDbLine
 10
5.0
 20
0.0
 30
0.0
 11
34.0
 21
0.0
 31
0.0
  0
ENDBLK
  5
2D4
330
2D2
100
AcDbEntity
  8
0
100
AcDbBlockEnd
  0
ENDSEC
  0
SECTION
  2
ENTITIES
  0
MTEXT
  5
49
330
1F
100
AcDbEntity
  8
KOPF_DÜNN
100
AcDbMText
 10
13.8892156294
 20
23.8442973028
 30
0.0
 40
3.0
 41
0.0
 71
     1
 72
     1
  1
HA6.PCE.LLA.070
  7
SLDTEXTSTYLE0
 73
     1
 44
1.0
  0
MTEXT
  5
4A
330
1F
100
AcDbEntity
  8
VERMASSUNG
100
AcDbMText
 10
13.9329988022
 20
28.8834360957
 30
0.0
 40
3.0
 41
0.0
 71
     1
 72
     1
  1
Klemmhalter links_Turning tool left 95° /80° /95°
  7
SLDTEXTSTYLE0
 73
     1
 44
1.0
  0
MTEXT
  5
4B
330
1F
100
AcDbEntity
  8
VERMASSUNG
100
AcDbMText
 10
98.8601118557
 20
13.8365368179
 30
0.0
 40
2.0
 41
0.0
 71
     1
 72
     1
  1
Datum: 19.01.2011
  7
SLDTEXTSTYLE0
 73
     1
 44
1.0
  0
MTEXT
  5
4D
330
1F
100
AcDbEntity
  8
VERMASSUNG
100
AcDbMText
 10
13.933048693
 20
18.0482802738
 30
0.0
 40
2.0
 41
0.0
 71
     1
 72
     1
  1
DIN 69893 HSK T 63  / CN.. 16 06..
  7
SLDTEXTSTYLE1
 73
     1
 44
1.0
  0
MTEXT
  5
4E
330
1F
100
AcDbEntity
  8
VERMASSUNG
100
AcDbMText
 10
13.9808475933
 20
13.9090973692
 30
0.0
 40
2.0
 41
0.0
 71
     1
 72
     1
  1
Gewicht: 1147g
  7
SLDTEXTSTYLE0
 73
     1
 44
1.0
  0
LINE
  5
4F
330
1F
100
AcDbEntity
  8
0
  6
Continuous
 62
     7
370
    15
100
AcDbLine
 10
256.862451897
 20
96.1081644134
 30
0.0
 11
256.1986945728
 21
96.7682839917
 31
0.0
  0
LINE
  5
50
330
1F
100
AcDbEntity
  8
0
  6
Continuous
 62
     7
370
    15
100
AcDbLine
 10
241.7956270436
 20
82.2100730227
 30
0.0
 11
242.4593843678
 21
81.5499515818
 31
0.0
  0
LINE
  5
51
330
1F
100
AcDbEntity
  8
0
  6
Continuous
 62
     7
370
    15
100
AcDbLine
 10
246.6629870394
 20
87.8047065424
 30
0.0
 11
247.820561395
 21
87.0680639135
 31
0.0
  0
LINE
  5
52
330
1F
100
AcDbEntity
  8
0
  6
Continuous
 62
     7
370
    15
100
AcDbLine
 10
188.6050255778
 20
93.7799157189
 30
0.0
 11
193.2550255368
 21
93.7799157189
 31
0.0
  0
LINE
  5
53
330
1F
100
AcDbEntity
  8
0
  6
Continuous
 62
     7
370
    15
100
AcDbLine
 10
193.2830141084
 20
156.7799167322
 30
0.0
 11
188.6050255778
 21
156.7799167322
 31
0.0
  0
ARC
  5
54
330
1F
100
AcDbEntity
  8
0
  6
Continuous
 62
     7
370
    15
100
AcDbCircle
 10
188.6050255636
 20
94.0799162255
 30
0.0
 40
0.3000000000000114
100
AcDbArc
 50
180.0
 51
270.0
  0
ARC
  5
55
330
1F
100
AcDbEntity
  8
0
  6
Continuous
 62
     7
370
    15
100
AcDbCircle
 10
188.6050255636
 20
156.4799162255
 30
0.0
 40
0.3000000000000114
100
AcDbArc
 50
90.0
 51
180.0
  0
ARC
  5
56
330
1F
100
AcDbEntity
  8
0
  6
Continuous
 62
     7
370
    15
100
AcDbCircle
 10
215.2550255636
 20
98.2799162255
 30
0.0
 40
1.0
100
AcDbArc
 50
90.0
 51
143.1139143113
  0
ARC
  5
57
330
1F
100
AcDbEntity
  8
0
  6
Continuous
 62
     7
370
    15
100
AcDbCircle
 10
215.2550255636
 20
152.2799162255
 30
0.0
 40
1.0
100
AcDbArc
 50
216.8996843908
 51
270.0
  0
LINE
  5
58
330
1F
100
AcDbEntity
  8
0
  6
Continuous
 62
     7
370
    15
100
AcDbLine
 10
215.2550254176
 20
99.2799156891
 30
0.0
 11
229.5376971523
 21
99.2799156891
 31
0.0
  0
LINE
  5
59
330
1F
100
AcDbEntity
  8
0
  6
Continuous
 62
     7
370
    15
100
AcDbLine
 10
229.5376971523
 20
151.279916762
 30
0.0
 11
215.2550254176
 21
151.279916762
 31
0.0
  0
ARC
  5
5A
330
1F
100
AcDbEntity
  8
0
  6
Continuous
 62
     7
370
    15
100
AcDbCircle
 10
187.8050255636
 20
100.7094853638
 30
0.0
 40
0.6000000000000019
100
AcDbArc
 50
33.5573097619
 51
90.0
  0
ARC
  5
5B
330
1F
100
AcDbEntity
  8
0
  6
Continuous
 62
     7
370
    15
100
AcDbCircle
 10
187.8050255636
 20
149.8503470873
 30
0.0
 40
0.6000000000000227
100
AcDbArc
 50
270.0
 51
326.4426902381
  0
LINE
  5
5C
330
1F
100
AcDbEntity
  8
0
  6
Continuous
 62
     7
370
    15
100
AcDbLine
 10
175.0735171298
 20
148.9376460748
 30
0.0
 11
162.5050246874
 21
148.3079621183
 31
0.0
  0
LINE
  5
5D
330
1F
100
AcDbEntity
  8
0
  6
Continuous
 62
     7
370
    15
100
AcDbLine
 10
186.3050254686
 20
149.5003474491
 30
0.0
 11
183.488024042
 21
149.3592148261
 31
0.0
  0
LINE
  5
5E
330
1F
100
AcDbEntity
  8
0
  6
Continuous
 62
     7
370
    15
100
AcDbLine
 10
183.4880799214
 20
101.2006157623
 30
0.0
 11
186.3050254686
 21
101.059485002
 31
0.0
  0
LINE
  5
5F
330
1F
100
AcDbEntity
  8
0
  6
Continuous
 62
     7
370
    15
100
AcDbLine
 10
166.5050253431
 20
102.0514702039
 30
0.0
 11
175.0739194611
 21
101.6221658872
 31
0.0
  0
LINE
  5
60
330
1F
100
AcDbEntity
  8
0
  6
Continuous
 62
     7
370
    15
100
AcDbLine
 10
186.3050254686
 20
101.059485002
 30
0.0
 11
187.1617383948
 21
101.2890411155
 31
0.0
  0
LINE
  5
61
330
1F
100
AcDbEntity
  8
0
  6
Continuous
 62
     7
370
    15
100
AcDbLine
 10
187.1617383948
 20
149.2707913356
 30
0.0
 11
186.3050254686
 21
149.5003474491
 31
0.0
  0
ARC
  5
62
330
1F
100
AcDbEntity
  8
0
  6
Continuous
 62
     7
370
    15
100
AcDbCircle
 10
187.317029764
 20
100.7094853638
 30
0.0
 40
0.6000000000000008
100
AcDbArc
 50
90.0
 51
105.0
  0
ARC
  5
63
330
1F
100
AcDbEntity
  8
0
  6
Continuous
 62
     7
370
    15
100
AcDbCircle
 10
187.317029764
 20
149.8503470873
 30
0.0
 40
0.6000000000000282
100
AcDbArc
 50
255.0
 51
270.0
  0
LINE
  5
64
330
1F
100
AcDbEntity
  8
0
  6
Continuous
 62
     7
370
    15
100
AcDbLine
 10
187.3170297984
 20
101.3094855087
 30
0.0
 11
187.8050255398
 21
101.3094855087
 31
0.0
  0
LINE
  5
65
330
1F
100
AcDbEntity
  8
0
  6
Continuous
 62
     7
370
    15
100
AcDbLine
 10
187.8050255398
 20
149.2503469424
 30
0.0
 11
187.3170297984
 21
149.2503469424
 31
0.0
  0
LINE
  5
66
330
1F
100
AcDbEntity
  8
0
  6
Continuous
 62
     7
370
    15
100
AcDbLine
 10
157.5550247142
 20
104.4099161016
 30
0.0
 11
165.1050258586
 21
104.4099161016
 31
0.0
  0
ARC
  5
67
330
1F
100
AcDbEntity
  8
0
  6
Continuous
 62
     7
370
    15
100
AcDbCircle
 10
165.1050255636
 20
103.0099162255
 30
0.0
 40
1.400000000000006
100
AcDbArc
 50
41.1788388679
 51
90.0
  0
ARC
  5
68
330
1F
100
AcDbEntity
  8
0
  6
Continuous
 62
     7
370
    15
100
AcDbCircle
 10
161.1050255636
 20
147.5499162255
 30
0.0
 40
1.400000000000006
100
AcDbArc
 50
270.0
 51
301.7485287426
  0
ARC
  5
69
330
1F
100
AcDbEntity
  8
0
  6
Continuous
 62
     7
370
    15
100
AcDbCircle
 10
229.5376985756
 20
152.2799162255
 30
0.0
 40
1.0
100
AcDbArc
 50
270.0
 51
345.0
  0
ARC
  5
6A
330
1F
100
AcDbEntity
  8
0
  6
Continuous
 62
     7
370
    15
100
AcDbCircle
 10
229.5376985756
 20
98.2799162255
 30
0.0
 40
1.0
100
AcDbArc
 50
15.0
 51
90.0
  0
LINE
  5
6B
330
1F
100
AcDbEntity
  8
0
  6
Continuous
 62
     7
370
    15
100
AcDbLine
 10
231.7413181225
 20
152.2799169259
 30
0.0
 11
230.5729739526
 21
152.2799169259
 31
0.0
  0
LINE
  5
6C
330
1F
100
AcDbEntity
  8
0
  6
Continuous
 62
     7
370
    15
100
AcDbLine
 10
230.5729739526
 20
152.2799169259
 30
0.0
 11
230.5036239484
 21
152.0210967945
 31
0.0
  0
LINE
  5
6D
330
1F
100
AcDbEntity
  8
0
  6
Continuous
 62
     7
370
    15
100
AcDbLine
 10
230.5036239484
 20
98.5387356566
 30
0.0
 11
234.5943316976
 21
83.2720117258
 31
0.0
  0
LINE
  5
6E
330
1F
100
AcDbEntity
  8
0
  6
Continuous
 62
     7
370
    15
100
AcDbLine
 10
161.105025203
 20
146.1499163495
 30
0.0
 11
157.6792910854
 21
146.1499163495
 31
0.0
  0
LINE
  5
6F
330
1F
100
AcDbEntity
  8
0
  6
Continuous
 62
     7
370
    15
100
AcDbLine
 10
157.5378939668
 20
146.1400257038
 30
0.0
 11
156.6703111092
 21
145.6391268955
 31
0.0
  0
LINE
  5
70
330
1F
100
AcDbEntity
  8
0
  6
Continuous
 62
     7
370
    15
100
AcDbLine
 10
157.5448062429
 20
104.4158169614
 30
0.0
 11
157.5550247142
 21
104.4099161016
 31
0.0
  0
LINE
  5
71
330
1F
100
AcDbEntity
  8
0
  6
Continuous
 62
     7
370
    15
100
AcDbLine
 10
156.6306479434
 20
104.943604915
 30
0.0
 11
157.5448062429
 21
104.4158169614
 31
0.0
  0
LINE
  5
72
330
1F
100
AcDbEntity
  8
0
  6
Continuous
 62
     7
370
    15
100
AcDbLine
 10
234.5943316976
 20
83.2720117258
 30
0.0
 11
242.1013839701
 21
82.48298779
 31
0.0
  0
LINE
  5
73
330
1F
100
AcDbEntity
  8
0
  6
Continuous
 62
     7
370
    15
100
AcDbLine
 10
241.0183191458
 20
96.9457363324
 30
0.0
 11
242.3451520661
 21
81.7945466922
 31
0.0
  0
ARC
  5
74
330
1F
100
AcDbEntity
  8
0
  6
Continuous
 62
     7
370
    15
100
AcDbCircle
 10
241.419545087
 20
96.9798639591
 30
0.0
 40
0.4026747456914071
100
AcDbArc
 50
85.764253621
 51
184.8617835708
  0
LINE
  5
75
330
1F
100
AcDbEntity
  8
0
  6
Continuous
 62
     7
370
    15
100
AcDbLine
 10
256.6150553683
 20
96.2212213861
 30
0.0
 11
241.4492868046
 21
97.3814388351
 31
0.0
  0
ARC
  5
76
330
1F
100
AcDbEntity
  8
0
  6
Continuous
 62
     7
370
    15
100
AcDbCircle
 10
256.5856753954
 20
95.8298717668
 30
0.0
 40
0.3924508979942863
100
AcDbArc
 50
4.9260024135
 51
85.7066608664
  0
LINE
  5
77
330
1F
100
AcDbEntity
  8
0
  6
Continuous
 62
     7
370
    15
100
AcDbLine
 10
258.3035133938
 20
80.7123796629
 30
0.0
 11
256.9766767482
 21
95.8635711657
 31
0.0
  0
ARC
  5
78
330
1F
100
AcDbEntity
  8
0
  6
Continuous
 62
     7
370
    15
100
AcDbCircle
 10
257.9022845159
 20
80.6782546866
 30
0.0
 40
0.4026774471615709
100
AcDbArc
 50
265.7641695702
 51
4.8613723879
  0
LINE
  5
79
330
1F
100
AcDbEntity
  8
0
  6
Continuous
 62
     7
370
    15
100
AcDbLine
 10
242.7067771712
 20
81.4368927466
 30
0.0
 11
257.8725420097
 21
80.2766771601
 31
0.0
  0
ARC
  5
7A
330
1F
100
AcDbEntity
  8
0
  6
Continuous
 62
     7
370
    15
100
AcDbCircle
 10
242.7361675353
 20
81.8282565941
 30
0.0
 40
0.3924658642798949
100
AcDbArc
 50
184.9273530972
 51
265.7053036295
  0
ARC
  5
7B
330
1F
100
AcDbEntity
  8
0
  6
Continuous
 62
     7
370
    15
100
AcDbCircle
 10
256.5854018123
 20
95.8295925458
 30
0.0
 40
0.372842066140895
100
AcDbArc
 50
4.9279804113
 51
85.705802521
  0
LINE
  5
7C
330
1F
100
AcDbEntity
  8
0
  6
Continuous
 62
     7
370
    15
100
AcDbLine
 10
256.613319383
 20
96.2013879405
 30
0.0
 11
241.4475545446
 21
97.3616035269
 31
0.0
  0
ARC
  5
7D
330
1F
100
AcDbEntity
  8
0
  6
Continuous
 62
     7
370
    15
100
AcDbCircle
 10
241.4192935266
 20
96.9801126861
 30
0.0
 40
0.3825362032623767
100
AcDbArc
 50
85.7632411627
 51
184.8623041917
  0
LINE
  5
7E
330
1F
100
AcDbEntity
  8
0
  6
Continuous
 62
     7
370
    15
100
AcDbLine
 10
241.0381339649
 20
96.9476883845
 30
0.0
 11
242.3649668852
 21
81.7964950191
 31
0.0
  0
ARC
  5
7F
330
1F
100
AcDbEntity
  8
0
  6
Continuous
 62
     7
370
    15
100
AcDbCircle
 10
242.7364212552
 20
81.8285156043
 30
0.0
 40
0.3728319553104966
100
AcDbArc
 50
184.9269042871
 51
265.7065714696
  0
LINE
  5
80
330
1F
100
AcDbEntity
  8
0
  6
Continuous
 62
     7
370
    15
100
AcDbLine
 10
242.7085094312
 20
81.4567299174
 30
0.0
 11
257.874277995
 21
80.2965106057
 31
0.0
  0
ARC
  5
81
330
1F
100
AcDbEntity
  8
0
  6
Continuous
 62
     7
370
    15
100
AcDbCircle
 10
257.9025313028
 20
80.6780057883
 30
0.0
 40
0.3825399636539079
100
AcDbArc
 50
265.7644408544
 51
4.8618836205
  0
LINE
  5
82
330
1F
100
AcDbEntity
  8
0
  6
Continuous
 62
     7
370
    15
100
AcDbLine
 10
258.2836948494
 20
80.7104276107
 30
0.0
 11
256.9568656543
 21
95.8616209762
 31
0.0
  0
LINE
  5
83
330
1F
100
AcDbEntity
  8
0
  6
Continuous
 62
     7
370
    15
100
AcDbLine
 10
243.7364138821
 20
83.0291041719
 30
0.0
 11
242.718515561
 21
81.8563790606
 31
0.0
  0
LINE
  5
84
330
1F
100
AcDbEntity
  8
0
  6
Continuous
 62
     7
370
    15
100
AcDbLine
 10
242.8833671073
 20
95.5327523486
 30
0.0
 11
241.3916826407
 21
97.0075687008
 31
0.0
  0
LINE
  5
85
330
1F
100
AcDbEntity
  8
0
  6
Continuous
 62
     7
370
    15
100
AcDbLine
 10
240.363409386
 20
97.5048688786
 30
0.0
 11
240.9293517629
 21
91.042307912
 31
0.0
  0
LINE
  5
86
330
1F
100
AcDbEntity
  8
0
  6
Continuous
 62
     7
370
    15
100
AcDbLine
 10
241.6749909679
 20
82.5278030323
 30
0.0
 11
241.6813984672
 21
82.4546644078
 31
0.0
  0
LINE
  5
87
330
1F
100
AcDbEntity
  8
0
  6
Continuous
 62
     7
370
    15
100
AcDbLine
 10
255.3963042954
 20
94.8170905547
 30
0.0
 11
256.5574474791
 21
95.8473531144
 31
0.0
  0
ARC
  5
88
330
1F
100
AcDbEntity
  8
0
  6
Continuous
 62
     7
370
    15
100
AcDbCircle
 10
245.387345626
 20
93.0556233019
 30
0.0
 40
1.006677874007222
100
AcDbArc
 50
85.7637786568
 51
184.8621616403
  0
LINE
  5
89
330
1F
100
AcDbEntity
  8
0
  6
Continuous
 62
     7
370
    15
100
AcDbLine
 10
244.3842902938
 20
92.9702983783
 30
0.0
 11
245.0738899568
 21
85.0956977891
 31
0.0
  0
LINE
  5
8A
330
1F
100
AcDbEntity
  8
0
  6
Continuous
 62
     7
370
    15
100
AcDbLine
 10
253.3438779572
 20
93.4565456198
 30
0.0
 11
245.4617075781
 21
94.0595509099
 31
0.0
  0
ARC
  5
8B
330
1F
100
AcDbEntity
  8
0
  6
Continuous
 62
     7
370
    15
100
AcDbCircle
 10
253.2704266832
 20
92.4781620695
 30
0.0
 40
0.9811368208119292
100
AcDbArc
 50
4.9265111687
 51
85.7066242725
  0
LINE
  5
8C
330
1F
100
AcDbEntity
  8
0
  6
Continuous
 62
     7
370
    15
100
AcDbLine
 10
254.9375422457
 20
84.6878194796
 30
0.0
 11
254.2479388574
 21
92.5624200688
 31
0.0
  0
ARC
  5
8D
330
1F
100
AcDbEntity
  8
0
  6
Continuous
 62
     7
370
    15
100
AcDbCircle
 10
253.9344885436
 20
84.602493198
 30
0.0
 40
1.006676364936337
100
AcDbArc
 50
265.7638918743
 51
4.8622465179
  0
LINE
  5
8E
330
1F
100
AcDbEntity
  8
0
  6
Continuous
 62
     7
370
    15
100
AcDbLine
 10
245.977950857
 20
84.2015722381
 30
0.0
 11
253.8601286868
 21
83.598566948
 31
0.0
  0
ARC
  5
8F
330
1F
100
AcDbEntity
  8
0
  6
Continuous
 62
     7
370
    15
100
AcDbCircle
 10
246.0514067301
 20
85.1799604386
 30
0.0
 40
0.981141802284529
100
AcDbArc
 50
184.9267586593
 51
265.7063767819
  0
CIRCLE
  5
90
330
1F
100
AcDbEntity
  8
0
  6
Continuous
 62
     7
370
    15
100
AcDbCircle
 10
249.6274189103
 20
88.8241112403
 30
0.0
 40
3.1529478620052
  0
SPLINE
  5
91
330
1F
100
AcDbEntity
  8
0
  6
Continuous
 62
     7
370
    15
100
AcDbSpline
210
0.0
220
0.0
230
1.0
 70
     8
 71
     3
 72
    11
 73
     7
 74
     0
 42
0.00000001
 43
0.00000001
 40
0.0
 40
0.0
 40
0.0
 40
0.0
 40
0.3517315989254995
 40
0.7021765261995817
 40
0.9922936194756852
 40
1.0
 40
1.0
 40
1.0
 40
1.0
 10
242.8833671072669
 20
95.53275234864925
 30
0.0
 10
242.9390312182343
 20
95.47771309068537
 30
0.0
 10
243.0501558149223
 20
95.3678359142254
 30
0.0
 10
243.2230202332173
 20
95.19683505873998
 30
0.0
 10
243.3302587355539
 20
95.09076686767531
 30
0.0
 10
243.3773659181139
 20
95.0441390788139
 30
0.0
 10
243.3785848478027
 20
95.04293255375599
 30
0.0
  0
ARC
  5
92
330
1F
100
AcDbEntity
  8
0
  6
Continuous
 62
     7
370
    15
100
AcDbCircle
 10
248.9601281836
 20
89.5182924747
 30
0.0
 40
3.186642457453513
100
AcDbArc
 50
265.7136527178
 51
309.0545163867
  0
ARC
  5
93
330
1F
100
AcDbEntity
  8
0
  6
Continuous
 62
     7
370
    15
100
AcDbCircle
 10
248.9577364112
 20
89.4550347042
 30
0.0
 40
3.123383735786186
100
AcDbArc
 50
233.8479682924
 51
265.6706747228
  0
LINE
  5
94
330
1F
100
AcDbEntity
  8
0
  6
Continuous
 62
     7
370
    15
100
AcDbLine
 10
256.2184237102
 20
82.3442020999
 30
0.0
 11
257.8842841247
 21
80.6961634742
 31
0.0
  0
ARC
  5
95
330
1F
100
AcDbEntity
  8
0
  6
Continuous
 62
     7
370
    15
100
AcDbCircle
 10
255.9217455338
 20
96.489366372
 30
0.0
 40
0.3930595486366916
100
AcDbArc
 50
45.2029099785
 51
72.190482131
  0
ARC
  5
96
330
1F
100
AcDbEntity
  8
0
  6
Continuous
 62
     7
370
    15
100
AcDbCircle
 10
242.0729507925
 20
82.4885572943
 30
0.0
 40
0.3930164770387832
100
AcDbArc
 50
184.9472084525
 51
225.1196329519
  0
SPLINE
  5
97
330
1F
100
AcDbEntity
  8
0
  6
Continuous
 62
     7
370
    15
100
AcDbSpline
210
0.0
220
0.0
230
1.0
 70
     8
 71
     3
 72
    11
 73
     7
 74
     0
 42
0.00000001
 43
0.00000001
 40
0.0
 40
0.0
 40
0.0
 40
0.0
 40
0.0082264930090359
 40
0.3243934548509597
 40
0.6617851770020685
 40
1.0
 40
1.0
 40
1.0
 40
1.0
 10
244.2303873757072
 20
83.51813793050026
 30
0.0
 10
244.2290804237096
 20
83.5170226586666
 30
0.0
 10
244.1775436785429
 20
83.47304439443934
 30
0.0
 10
244.0664582551601
 20
83.37310970421926
 30
0.0
 10
243.8929289792545
 20
83.2031825630356
 30
0.0
 10
243.7886279383084
 20
83.08717741248108
 30
0.0
 10
243.7364138821311
 20
83.02910417185997
 30
0.0
  0
SPLINE
  5
98
330
1F
100
AcDbEntity
  8
0
  6
Continuous
 62
     7
370
    15
100
AcDbSpline
210
0.0
220
0.0
230
1.0
 70
     8
 71
     3
 72
    11
 73
     7
 74
     0
 42
0.00000001
 43
0.00000001
 40
0.0
 40
0.0
 40
0.0
 40
0.0
 40
0.3382178933840403
 40
0.6756031049421455
 40
0.991773898983555
 40
1.0
 40
1.0
 40
1.0
 40
1.0
 10
255.3963042954154
 20
94.81709055470203
 30
0.0
 10
255.3388170594134
 20
94.76426030969576
 30
0.0
 10
255.2239841191779
 20
94.65872988608636
 30
0.0
 10
255.0559532796297
 20
94.48333487900956
 30
0.0
 10
254.9572089494272
 20
94.371125150024
 30
0.0
 10
254.9137663797748
 20
94.31909621437872
 30
0.0
 10
254.9126647571273
 20
94.31777685748314
 30
0.0
  0
SPLINE
  5
99
330
1F
100
AcDbEntity
  8
0
  6
Continuous
 62
     7
370
    15
100
AcDbSpline
210
0.0
220
0.0
230
1.0
 70
     8
 71
     3
 72
    11
 73
     7
 74
     0
 42
0.00000001
 43
0.00000001
 40
0.0
 40
0.0
 40
0.0
 40
0.0
 40
0.007705759695289
 40
0.2978243780329865
 40
0.6482650447198531
 40
1.0
 40
1.0
 40
1.0
 40
1.0
 10
255.7388298371978
 20
82.81847998367523
 30
0.0
 10
255.7398571893874
 20
82.81746504899066
 30
0.0
 10
255.7795639203228
 20
82.7782382494108
 30
0.0
 10
255.8740683610601
 20
82.68477972204172
 30
0.0
 10
256.0385237801194
 20
82.5221559904782
 30
0.0
 10
256.1583834228999
 20
82.40359291075319
 30
0.0
 10
256.2184237102218
 20
82.34420209990715
 30
0.0
  0
ARC
  5
9A
330
1F
100
AcDbEntity
  8
0
  6
Continuous
 62
     7
370
    15
100
AcDbCircle
 10
244.5687462193
 20
102.782242167
 30
0.0
 40
3.500456770686729
100
AcDbArc
 50
226.2662433885
 51
44.0485013904
  0
CIRCLE
  5
9B
330
1F
100
AcDbEntity
  8
0
  6
Continuous
 62
     7
370
    15
100
AcDbCircle
 10
244.58434836
 20
102.7430870687
 30
0.0
 40
1.98418563253972
  0
SPLINE
  5
9C
330
1F
100
AcDbEntity
  8
0
  6
Continuous
 62
     7
370
    15
100
AcDbSpline
210
0.0
220
0.0
230
1.0
 70
     8
 71
     3
 72
    11
 73
     7
 74
     0
 42
0.00000001
 43
0.00000001
 40
0.0
 40
0.0
 40
0.0
 40
0.0
 40
0.1081089666520152
 40
0.4711578868816343
 40
0.8135813530789054
 40
1.0
 40
1.0
 40
1.0
 40
1.0
 10
246.2560512283988
 20
102.4913729714034
 30
0.0
 10
246.2337435818764
 20
102.5489768020164
 30
0.0
 10
246.1365229356868
 20
102.8000244250622
 30
0.0
 10
245.9623516558696
 20
103.2670974672286
 30
0.0
 10
245.7927678932409
 20
103.7640294491178
 30
0.0
 10
245.7113286343225
 20
104.0193754292267
 30
0.0
 10
245.6826210180469
 20
104.1093857573149
 30
0.0
  0
SPLINE
  5
9D
330
1F
100
AcDbEntity
  8
0
  6
Continuous
 62
     7
370
    15
100
AcDbSpline
210
0.0
220
0.0
230
1.0
 70
     8
 71
     3
 72
    10
 73
     6
 74
     0
 42
0.00000001
 43
0.00000001
 40
0.0
 40
0.0
 40
0.0
 40
0.0
 40
0.439117159593523
 40
0.751366898844743
 40
1.0
 40
1.0
 40
1.0
 40
1.0
 10
245.6826210180469
 20
104.1093857573149
 30
0.0
 10
245.4294563284547
 20
104.1625757943629
 30
0.0
 10
244.9962699599421
 20
104.2535884826924
 30
0.0
 10
244.4014360039768
 20
104.3512050711945
 30
0.0
 10
244.1158165474664
 20
104.3894006837057
 30
0.0
 10
243.9892046312042
 20
104.4063323722956
 30
0.0
  0
SPLINE
  5
9E
330
1F
100
AcDbEntity
  8
0
  6
Continuous
 62
     7
370
    15
100
AcDbSpline
210
0.0
220
0.0
230
1.0
 70
     8
 71
     3
 72
    10
 73
     6
 74
     0
 42
0.00000001
 43
0.00000001
 40
0.0
 40
0.0
 40
0.0
 40
0.0
 40
0.439115943431215
 40
0.7513670825354786
 40
0.9999999999999999
 40
0.9999999999999999
 40
0.9999999999999999
 40
0.9999999999999999
 10
243.9892046312042
 20
104.4063323722956
 30
0.0
 10
243.8181336770427
 20
104.2278902157732
 30
0.0
 10
243.5254158068362
 20
103.9225595518489
 30
0.0
 10
243.1347689058515
 20
103.4440267966132
 30
0.0
 10
242.9507840851206
 20
103.1954524073038
 30
0.0
 10
242.869225905294
 20
103.0852624760744
 30
0.0
  0
SPLINE
  5
9F
330
1F
100
AcDbEntity
  8
0
  6
Continuous
 62
     7
370
    15
100
AcDbSpline
210
0.0
220
0.0
230
1.0
 70
     8
 71
     3
 72
    11
 73
     7
 74
     0
 42
0.00000001
 43
0.00000001
 40
0.0
 40
0.0
 40
0.0
 40
0.0
 40
0.1864186457559927
 40
0.5288421098131444
 40
0.8918910340236573
 40
1.0
 40
1.0
 40
1.0
 40
1.0
 10
242.869225905294
 20
103.0852624760744
 30
0.0
 10
242.8979335215205
 20
102.9952521481163
 30
0.0
 10
242.9793727802995
 20
102.7399061683762
 30
0.0
 10
243.1489565458819
 20
102.2429741783328
 30
0.0
 10
243.3231278213011
 20
101.775901148093
 30
0.0
 10
243.4203484690595
 20
101.5248535209516
 30
0.0
 10
243.4426561156459
 20
101.4672496901629
 30
0.0
  0
SPLINE
  5
A0
330
1F
100
AcDbEntity
  8
0
  6
Continuous
 62
     7
370
    15
100
AcDbSpline
210
0.0
220
0.0
230
1.0
 70
     8
 71
     3
 72
    10
 73
     6
 74
     0
 42
0.00000001
 43
0.00000001
 40
0.0
 40
0.0
 40
0.0
 40
0.0
 40
0.4391155670568548
 40
0.7513664443376287
 40
0.9999999999999999
 40
0.9999999999999999
 40
0.9999999999999999
 40
0.9999999999999999
 10
243.4426561156459
 20
101.4672496901629
 30
0.0
 10
243.6743423794115
 20
101.4354189027118
 30
0.0
 10
244.0707785280412
 20
101.3809535469333
 30
0.0
 10
244.6819481243583
 20
101.2670943667112
 30
0.0
 10
244.9965937503957
 20
101.2000313373193
 30
0.0
 10
245.1360725024886
 20
101.1703030751822
 30
0.0
  0
SPLINE
  5
A1
330
1F
100
AcDbEntity
  8
0
  6
Continuous
 62
     7
370
    15
100
AcDbSpline
210
0.0
220
0.0
230
1.0
 70
     8
 71
     3
 72
    10
 73
     6
 74
     0
 42
0.00000001
 43
0.00000001
 40
0.0
 40
0.0
 40
0.0
 40
0.0
 40
0.4391161930303594
 40
0.7513673036694706
 40
1.0
 40
1.0
 40
1.0
 40
1.0
 10
245.1360725024886
 20
101.1703030751822
 30
0.0
 10
245.2856667074721
 20
101.3701045436361
 30
0.0
 10
245.5416358478204
 20
101.711982827799
 30
0.0
 10
245.9486146469819
 20
102.1742724372081
 30
0.0
 10
246.1616259932409
 20
102.3939795760823
 30
0.0
 10
246.2560512283988
 20
102.4913729714034
 30
0.0
  0
LINE
  5
A2
330
1F
100
AcDbEntity
  8
0
  6
Continuous
 62
     7
370
    15
100
AcDbLine
 10
243.3130420903
 20
101.809538676
 30
0.0
 11
243.8992574969
 21
101.7067448782
 31
0.0
  0
LINE
  5
A3
330
1F
100
AcDbEntity
  8
0
  6
Continuous
 62
     7
370
    15
100
AcDbLine
 10
243.8992574969
 20
101.7067448782
 30
0.0
 11
244.7459638277
 21
101.5582715707
 31
0.0
  0
LINE
  5
A4
330
1F
100
AcDbEntity
  8
0
  6
Continuous
 62
     7
370
    15
100
AcDbLine
 10
244.7459638277
 20
101.5582715707
 30
0.0
 11
245.1360725025
 21
101.1703030752
 31
0.0
  0
LINE
  5
A5
330
1F
100
AcDbEntity
  8
0
  6
Continuous
 62
     7
370
    15
100
AcDbLine
 10
245.8659462789
 20
102.8793414669
 30
0.0
 11
246.2560512284
 21
102.4913729714
 31
0.0
  0
LINE
  5
A6
330
1F
100
AcDbEntity
  8
0
  6
Continuous
 62
     7
370
    15
100
AcDbLine
 10
245.8659462789
 20
102.8793414669
 30
0.0
 11
245.5792293111
 21
103.6883478598
 31
0.0
  0
LINE
  5
A7
330
1F
100
AcDbEntity
  8
0
  6
Continuous
 62
     7
370
    15
100
AcDbLine
 10
245.5792293111
 20
103.6883478598
 30
0.0
 11
245.4106450239
 21
104.1640301781
 31
0.0
  0
LINE
  5
A8
330
1F
100
AcDbEntity
  8
0
  6
Continuous
 62
     7
370
    15
100
AcDbLine
 10
244.7459638277
 20
101.5582715707
 30
0.0
 11
245.305956916
 21
102.2188065188
 31
0.0
  0
LINE
  5
A9
330
1F
100
AcDbEntity
  8
0
  6
Continuous
 62
     7
370
    15
100
AcDbLine
 10
245.305956916
 20
102.2188065188
 30
0.0
 11
245.8659462789
 21
102.8793414669
 31
0.0
  0
ARC
  5
AA
330
1F
100
AcDbEntity
  8
0
  6
Continuous
 62
     7
370
    15
100
AcDbCircle
 10
244.1935254298
 20
103.1977348228
 30
0.0
 40
1.469991972309411
100
AcDbArc
 50
19.4966769965
 51
44.1646686585
  0
ARC
  5
AB
330
1F
100
AcDbEntity
  8
0
  6
Continuous
 62
     7
370
    15
100
AcDbCircle
 10
244.1642579531
 20
103.1912933401
 30
0.0
 40
1.499735689858225
100
AcDbArc
 50
319.5760022387
 51
19.3554770494
  0
ARC
  5
AC
330
1F
100
AcDbEntity
  8
0
  6
Continuous
 62
     7
370
    15
100
AcDbCircle
 10
244.1556447586
 20
103.1906392327
 30
0.0
 40
1.505880766600277
100
AcDbArc
 50
260.1972180134
 51
319.807452006
  0
ARC
  5
AD
330
1F
100
AcDbEntity
  8
0
  6
Continuous
 62
     7
370
    15
100
AcDbCircle
 10
244.1529744176
 20
103.1581787132
 30
0.0
 40
1.473442382082063
100
AcDbArc
 50
230.1347767652
 51
260.0846327217
  0
ELLIPSE
  5
AE
330
1F
100
AcDbEntity
  8
0
  6
Continuous
 62
     7
370
    15
100
AcDbEllipse
 10
249.4394074326
 20
89.5938187839
 30
0.0
 11
2.003525727652914
 21
2.233993969098861
 31
0.0
210
0.0
220
0.0
230
0.9999999999999998
 40
0.9898983231
 41
4.22721293056745
 42
5.781509468923389
  0
ELLIPSE
  5
AF
330
1F
100
AcDbEntity
  8
0
  6
Continuous
 62
     7
370
    15
100
AcDbEllipse
 10
249.4394074326
 20
89.5938187839
 30
0.0
 11
2.003525727652914
 21
2.233993969098861
 31
0.0
210
0.0
220
0.0
230
0.9999999999999998
 40
0.9898983231
 41
2.498165792609866
 42
4.227212930567468
  0
LWPOLYLINE
  5
B0
330
1F
100
AcDbEntity
  8
0
  6
Continuous
 62
     7
370
    15
100
AcDbPolyline
 90
        3
 70
   128
 43
0.0
 10
248.5514633516
 20
86.7329815017
 10
247.8953316966
 20
86.6965295361
 10
247.4041745225
 20
86.7453457402
  0
LINE
  5
B1
330
1F
100
AcDbEntity
  8
0
  6
Continuous
 62
     7
370
    15
100
AcDbLine
 10
193.2550255368
 20
145.1299169646
 30
0.0
 11
202.913093024
 21
145.1299169646
 31
0.0
  0
LINE
  5
B2
330
1F
100
AcDbEntity
  8
0
  6
Continuous
 62
     7
370
    15
100
AcDbLine
 10
202.913093024
 20
95.0929985927
 30
0.0
 11
202.913093024
 21
145.1299169646
 31
0.0
  0
LINE
  5
B3
330
1F
100
AcDbEntity
  8
0
  6
Continuous
 62
     7
370
    15
100
AcDbLine
 10
202.913093024
 20
95.0929985927
 30
0.0
 11
201.2550259167
 21
95.0929985927
 31
0.0
  0
SPLINE
  5
B4
330
1F
100
AcDbEntity
  8
0
  6
Continuous
 62
     7
370
    15
100
AcDbSpline
210
0.0
220
0.0
230
1.0
 70
     8
 71
     3
 72
    28
 73
    24
 74
     0
 42
0.00000001
 43
0.00000001
 40
0.0
 40
0.0
 40
0.0
 40
0.0
 40
0.1249999999999999
 40
0.1249999999999999
 40
0.1874999999999998
 40
0.1874999999999998
 40
0.2499999999999998
 40
0.2499999999999998
 40
0.3749999999999998
 40
0.3749999999999998
 40
0.4374999999999996
 40
0.4374999999999996
 40
0.4999999999999996
 40
0.4999999999999996
 40
0.6249999999999996
 40
0.6249999999999996
 40
0.7499999999999996
 40
0.7499999999999996
 40
0.8124999999999996
 40
0.8124999999999996
 40
0.8749999999999997
 40
0.8749999999999997
 40
1.0
 40
1.0
 40
1.0
 40
1.0
 10
201.2550255635925
 20
95.09299852929324
 30
0.0
 10
200.7233178060995
 20
95.09299852929324
 30
0.0
 10
200.2010792407892
 20
95.07721381534304
 30
0.0
 10
199.4312087545142
 20
95.03221840126683
 30
0.0
 10
199.1768491823229
 20
95.01366340619111
 30
0.0
 10
198.6727276016244
 20
94.9698106837446
 30
0.0
 10
198.4230047841965
 20
94.9444660767924
 30
0.0
 10
197.69741483275
 20
94.8610639990423
 30
0.0
 10
197.2390545711685
 20
94.7951984398912
 30
0.0
 10
196.5885566277746
 20
94.68622809939941
 30
0.0
 10
196.3768745769821
 20
94.64798846363276
 30
0.0
 10
195.9728030878441
 20
94.57022972621341
 30
0.0
 10
195.7802965740233
 20
94.53072876403806
 30
0.0
 10
195.230461603002
 20
94.41182102167207
 30
0.0
 10
194.9005328246932
 20
94.33200334024745
 30
0.0
 10
194.3160615561245
 20
94.1786601784514
 30
0.0
 10
194.0697844181111
 20
94.10732642518214
 30
0.0
 10
193.769941625413
 20
94.01338291810751
 30
0.0
 10
193.6814847683408
 20
93.9841891247476
 30
0.0
 10
193.5281234150357
 20
93.93072255048418
 30
0.0
 10
193.4630352008095
 20
93.90636321620899
 30
0.0
 10
193.3074411848687
 20
93.84277307076428
 30
0.0
 10
193.2550255635925
 20
93.81267013567502
 30
0.0
 10
193.2550255635925
 20
93.79579324267807
 30
0.0
  0
LINE
  5
B5
330
1F
100
AcDbEntity
  8
0
  6
Continuous
 62
     7
370
    15
100
AcDbLine
 10
193.2550255368
 20
93.7957929062
 30
0.0
 11
193.2550255368
 21
93.7799157189
 31
0.0
  0
SPLINE
  5
B6
330
1F
100
AcDbEntity
  8
0
  6
Continuous
 62
     7
370
    15
100
AcDbSpline
210
0.0
220
0.0
230
1.0
 70
     8
 71
     3
 72
    17
 73
    13
 74
     0
 42
0.00000001
 43
0.00000001
 40
0.0
 40
0.0
 40
0.0
 40
0.0
 40
0.1034797280380778
 40
0.2100239090909901
 40
0.3134862262879433
 40
0.4198361712144981
 40
0.5254127947779869
 40
0.6339610881168427
 40
0.7409508662120068
 40
0.8511696072047016
 40
0.9558996557845765
 40
1.0
 40
1.0
 40
1.0
 40
1.0
 10
201.25502591675
 20
155.7471116618989
 30
0.0
 10
200.8197774250241
 20
155.7525596535365
 30
0.0
 10
199.9363909744471
 20
155.7636169738651
 30
0.0
 10
198.6555631122243
 20
155.8499757342401
 30
0.0
 10
197.4381469167824
 20
155.9778468773732
 30
0.0
 10
196.3303403004566
 20
156.1367912846917
 30
0.0
 10
195.3421018211277
 20
156.3112858576762
 30
0.0
 10
194.5173787213119
 20
156.4804522908631
 30
0.0
 10
193.8684250638133
 20
156.6283330993308
 30
0.0
 10
193.4513897603337
 20
156.7301238508534
 30
0.0
 10
193.2527930174557
 20
156.7804807504879
 30
0.0
 10
193.2761061344436
 20
156.7745711455123
 30
0.0
 10
193.283014108444
 20
156.7728200541613
 30
0.0
  0
LINE
  5
B7
330
1F
100
AcDbEntity
  8
0
  6
Continuous
 62
     7
370
    15
100
AcDbLine
 10
202.913093024
 20
155.7471116619
 30
0.0
 11
201.2550259167
 21
155.7471116619
 31
0.0
  0
LINE
  5
B8
330
1F
100
AcDbEntity
  8
0
  6
Continuous
 62
     7
370
    15
100
AcDbLine
 10
202.913093024
 20
149.7386058407
 30
0.0
 11
202.913093024
 21
155.7471116619
 31
0.0
  0
LINE
  5
B9
330
1F
100
AcDbEntity
  8
0
  6
Continuous
 62
     7
370
    15
100
AcDbLine
 10
200.5006462494
 20
149.7386058407
 30
0.0
 11
202.913093024
 21
149.7386058407
 31
0.0
  0
SPLINE
  5
BA
330
1F
100
AcDbEntity
  8
0
  6
Continuous
 62
     7
370
    15
100
AcDbSpline
210
0.0
220
0.0
230
1.0
 70
     8
 71
     3
 72
    20
 73
    16
 74
     0
 42
0.00000001
 43
0.00000001
 40
0.0
 40
0.0
 40
0.0
 40
0.0
 40
0.2500000000000006
 40
0.2500000000000006
 40
0.3750000000000004
 40
0.3750000000000004
 40
0.5000000000000003
 40
0.5000000000000003
 40
0.6250000000000002
 40
0.6250000000000002
 40
0.7500000000000002
 40
0.7500000000000002
 40
0.8750000000000001
 40
0.8750000000000001
 40
1.0
 40
1.0
 40
1.0
 40
1.0
 10
193.2550255635925
 20
145.1299162255404
 30
0.0
 10
193.5033992978805
 20
145.7837786538378
 30
0.0
 10
193.8229693902258
 20
146.3875644358349
 30
0.0
 10
194.4452756234305
 20
147.2144031720036
 30
0.0
 10
194.6766998838612
 20
147.4768318099565
 30
0.0
 10
195.197914223511
 20
147.9734944640614
 30
0.0
 10
195.484534706146
 20
148.2040813430829
 30
0.0
 10
196.1040194474537
 20
148.6206355676656
 30
0.0
 10
196.4383198269406
 20
148.8081333696331
 30
0.0
 10
197.1635802995654
 20
149.1395303472695
 30
0.0
 10
197.5454953569559
 20
149.2790343347648
 30
0.0
 10
198.3402835331275
 20
149.5044878422357
 30
0.0
 10
198.754441727334
 20
149.5911139537794
 30
0.0
 10
199.6199880679153
 20
149.7090947426335
 30
0.0
 10
200.0578756829271
 20
149.7386058879078
 30
0.0
 10
200.5006459092817
 20
149.7386058879078
 30
0.0
  0
LINE
  5
BB
330
1F
100
AcDbEntity
  8
0
  6
Continuous
 62
     7
370
    15
100
AcDbLine
 10
214.2550252536
 20
95.7196389871
 30
0.0
 11
214.2550252536
 21
145.1299169646
 31
0.0
  0
SPLINE
  5
BC
330
1F
100
AcDbEntity
  8
0
  6
Continuous
 62
     7
370
    15
100
AcDbSpline
210
0.0
220
0.0
230
1.0
 70
     8
 71
     3
 72
    10
 73
     6
 74
     0
 42
0.00000001
 43
0.00000001
 40
0.0
 40
0.0
 40
0.0
 40
0.0
 40
0.5
 40
0.5
 40
1.0
 40
1.0
 40
1.0
 40
1.0
 10
214.2550255635925
 20
95.71963882494757
 30
0.0
 10
214.2550255635925
 20
95.55975155675391
 30
0.0
 10
214.1937159123567
 20
95.39862430123931
 30
0.0
 10
213.9746162748216
 20
95.16452530288447
 30
0.0
 10
213.8165680685081
 20
95.09299852929324
 30
0.0
 10
213.6550255635925
 20
95.09299852929324
 30
0.0
  0
SPLINE
  5
BD
330
1F
100
AcDbEntity
  8
0
  6
Continuous
 62
     7
370
    15
100
AcDbSpline
210
0.0
220
0.0
230
1.0
 70
    24
 71
     3
 72
    12
 73
     8
 74
     0
 42
0.00000001
 43
0.00000001
 40
0.0
 40
0.0
 40
0.0
 40
0.0
 40
0.2500000000000006
 40
0.2500000000000006
 40
0.5000000000000012
 40
0.5000000000000012
 40
1.0
 40
1.0
 40
1.0
 40
1.0
 10
213.6550255635925
 20
145.1299162255404
 30
0.0
 10
213.7452646312796
 20
145.1299162255404
 30
0.0
 10
213.836162745386
 20
145.1299162255404
 30
0.0
 10
213.9907597818746
 20
145.1299162255404
 30
0.0
 10
214.0557381979827
 20
145.1299162255404
 30
0.0
 10
214.2075732259189
 20
145.1299162255404
 30
0.0
 10
214.2550255635925
 20
145.1299162255404
 30
0.0
 10
214.2550255635925
 20
145.1299162255404
 30
0.0
  0
LINE
  5
BE
330
1F
100
AcDbEntity
  8
0
  6
Continuous
 62
     7
370
    15
100
AcDbLine
 10
204.3950256119
 20
97.7820789056
 30
0.0
 11
204.3950256119
 21
145.1299169646
 31
0.0
  0
SPLINE
  5
BF
330
1F
100
AcDbEntity
  8
0
  6
Continuous
 62
     7
370
    15
100
AcDbSpline
210
0.0
220
0.0
230
1.0
 70
     8
 71
     3
 72
     8
 73
     4
 74
     0
 42
0.00000001
 43
0.00000001
 40
0.0
 40
0.0
 40
0.0
 40
0.0
 40
1.0
 40
1.0
 40
1.0
 40
1.0
 10
204.3950255635925
 20
97.78207906648554
 30
0.0
 10
203.9026864408113
 20
96.88480903227884
 30
0.0
 10
203.4085723927692
 20
95.98852461722659
 30
0.0
 10
202.9130927321034
 20
95.09299852929323
 30
0.0
  0
SPLINE
  5
C0
330
1F
100
AcDbEntity
  8
0
  6
Continuous
 62
     7
370
    15
100
AcDbSpline
210
0.0
220
0.0
230
1.0
 70
    24
 71
     3
 72
     8
 73
     4
 74
     0
 42
0.00000001
 43
0.00000001
 40
0.0
 40
0.0
 40
0.0
 40
0.0
 40
1.0
 40
1.0
 40
1.0
 40
1.0
 10
202.9130927321034
 20
145.1299162255404
 30
0.0
 10
203.419772840254
 20
145.1299162255404
 30
0.0
 10
203.9150735692276
 20
145.1299162255404
 30
0.0
 10
204.3950255635925
 20
145.1299162255404
 30
0.0
  0
LINE
  5
C1
330
1F
100
AcDbEntity
  8
0
  6
Continuous
 62
     7
370
    15
100
AcDbLine
 10
213.6550262729
 20
95.0929985927
 30
0.0
 11
209.6969574848
 21
95.0929985927
 31
0.0
  0
LINE
  5
C2
330
1F
100
AcDbEntity
  8
0
  6
Continuous
 62
     7
370
    15
100
AcDbLine
 10
209.6969574848
 20
95.0929985927
 30
0.0
 11
209.6969574848
 21
145.1299169646
 31
0.0
  0
LINE
  5
C3
330
1F
100
AcDbEntity
  8
0
  6
Continuous
 62
     7
370
    15
100
AcDbLine
 10
209.6969574848
 20
145.1299169646
 30
0.0
 11
213.6550262729
 21
145.1299169646
 31
0.0
  0
SPLINE
  5
C4
330
1F
100
AcDbEntity
  8
0
  6
Continuous
 62
     7
370
    15
100
AcDbSpline
210
0.0
220
0.0
230
1.0
 70
     8
 71
     3
 72
     8
 73
     4
 74
     0
 42
0.00000001
 43
0.00000001
 40
0.0
 40
0.0
 40
0.0
 40
0.0
 40
1.0
 40
1.0
 40
1.0
 40
1.0
 10
209.6969583950815
 20
95.09299852929323
 30
0.0
 10
209.2014787344158
 20
95.98852461722659
 30
0.0
 10
208.7073646863737
 20
96.88480903227884
 30
0.0
 10
208.2150255635925
 20
97.78207906648552
 30
0.0
  0
LINE
  5
C5
330
1F
100
AcDbEntity
  8
0
  6
Continuous
 62
     7
370
    15
100
AcDbLine
 10
208.2150258282
 20
97.7820789056
 30
0.0
 11
208.2150258282
 21
145.1299169646
 31
0.0
  0
SPLINE
  5
C6
330
1F
100
AcDbEntity
  8
0
  6
Continuous
 62
     7
370
    15
100
AcDbSpline
210
0.0
220
0.0
230
1.0
 70
    24
 71
     3
 72
     8
 73
     4
 74
     0
 42
0.00000001
 43
0.00000001
 40
0.0
 40
0.0
 40
0.0
 40
0.0
 40
1.0
 40
1.0
 40
1.0
 40
1.0
 10
208.2150255635925
 20
145.1299162255404
 30
0.0
 10
208.6949775579574
 20
145.1299162255404
 30
0.0
 10
209.190278286931
 20
145.1299162255404
 30
0.0
 10
209.6969583950815
 20
145.1299162255404
 30
0.0
  0
LINE
  5
C7
330
1F
100
AcDbEntity
  8
0
  6
Continuous
 62
     7
370
    15
100
AcDbLine
 10
188.3050255636
 20
94.0799170719
 30
0.0
 11
188.3050255636
 21
156.4799153792
 31
0.0
  0
SPLINE
  5
C8
330
1F
100
AcDbEntity
  8
0
  6
Continuous
 62
     7
370
    15
100
AcDbSpline
210
0.0
220
0.0
230
1.0
 70
     8
 71
     3
 72
    10
 73
     6
 74
     0
 42
0.00000001
 43
0.00000001
 40
0.0
 40
0.0
 40
0.0
 40
0.0
 40
0.5
 40
0.5
 40
1.0
 40
1.0
 40
1.0
 40
1.0
 10
204.7893230952834
 20
151.6799162255404
 30
0.0
 10
204.6677828316149
 20
151.7546423927521
 30
0.0
 10
204.566448471266
 20
151.863587408669
 30
0.0
 10
204.4308095283776
 20
152.1140178894306
 30
0.0
 10
204.3950255635925
 20
152.2564372515295
 30
0.0
 10
204.3950255635925
 20
152.3995700765762
 30
0.0
  0
SPLINE
  5
C9
330
1F
100
AcDbEntity
  8
0
  6
Continuous
 62
     7
370
    15
100
AcDbSpline
210
0.0
220
0.0
230
1.0
 70
    24
 71
     3
 72
    12
 73
     8
 74
     0
 42
0.00000001
 43
0.00000001
 40
0.0
 40
0.0
 40
0.0
 40
0.0
 40
0.2499999999999979
 40
0.2499999999999979
 40
0.4999999999999959
 40
0.4999999999999959
 40
1.0
 40
1.0
 40
1.0
 40
1.0
 10
205.1950255635925
 20
151.6799162255404
 30
0.0
 10
205.1456822017829
 20
151.6799162255404
 30
0.0
 10
205.0969915034813
 20
151.6799162255404
 30
0.0
 10
205.0141404059108
 20
151.6799162255404
 30
0.0
 10
204.9779404382902
 20
151.6799162255404
 30
0.0
 10
204.8821905217408
 20
151.6799162255404
 30
0.0
 10
204.8323085519287
 20
151.6799162255404
 30
0.0
 10
204.7893230952834
 20
151.6799162255404
 30
0.0
  0
SPLINE
  5
CA
330
1F
100
AcDbEntity
  8
0
  6
Continuous
 62
     7
370
    15
100
AcDbSpline
210
0.0
220
0.0
230
1.0
 70
    24
 71
     3
 72
    14
 73
    10
 74
     0
 42
0.00000001
 43
0.00000001
 40
0.0
 40
0.0
 40
0.0
 40
0.0
 40
0.1250000000000024
 40
0.1250000000000024
 40
0.2500000000000048
 40
0.2500000000000048
 40
0.5000000000000034
 40
0.5000000000000034
 40
1.0
 40
1.0
 40
1.0
 40
1.0
 10
205.1950255635925
 20
98.87991622554038
 30
0.0
 10
205.1256788418613
 20
98.87991622554038
 30
0.0
 10
205.0604807884774
 20
98.87991622554038
 30
0.0
 10
204.9561015958504
 20
98.87991622554037
 30
0.0
 10
204.9131992248414
 20
98.87991622554038
 30
0.0
 10
204.8008735672367
 20
98.87991622554038
 30
0.0
 10
204.7456498728829
 20
98.87991622554038
 30
0.0
 10
204.6015924941154
 20
98.87991622554037
 30
0.0
 10
204.5395117972839
 20
98.87991622554038
 30
0.0
 10
204.4927003659248
 20
98.87991622554038
 30
0.0
  0
SPLINE
  5
CB
330
1F
100
AcDbEntity
  8
0
  6
Continuous
 62
     7
370
    15
100
AcDbSpline
210
0.0
220
0.0
230
1.0
 70
     8
 71
     3
 72
     9
 73
     5
 74
     0
 42
0.00000001
 43
0.00000001
 40
0.0
 40
0.0
 40
0.0
 40
0.0
 40
0.5
 40
1.0
 40
1.0
 40
1.0
 40
1.0
 10
204.3950255635925
 20
145.4157828570018
 30
0.0
 10
204.3950255635925
 20
145.367550804879
 30
0.0
 10
204.3994315382976
 20
145.2716807914395
 30
0.0
 10
204.4124507183915
 20
145.1769721614561
 30
0.0
 10
204.4211731867526
 20
145.1299162255404
 30
0.0
  0
SPLINE
  5
CC
330
1F
100
AcDbEntity
  8
0
  6
Continuous
 62
     7
370
    15
100
AcDbSpline
210
0.0
220
0.0
230
1.0
 70
    24
 71
     3
 72
    14
 73
    10
 74
     0
 42
0.00000001
 43
0.00000001
 40
0.0
 40
0.0
 40
0.0
 40
0.0
 40
0.5000000000000016
 40
0.5000000000000016
 40
0.7500000000000008
 40
0.7500000000000008
 40
0.8750000000000003
 40
0.8750000000000003
 40
1.0
 40
1.0
 40
1.0
 40
1.0
 10
208.1173507612602
 20
98.87991622554038
 30
0.0
 10
208.070566056212
 20
98.87991622554038
 30
0.0
 10
208.0085148594324
 20
98.87991622554038
 30
0.0
 10
207.8651232208818
 20
98.87991622554038
 30
0.0
 10
207.8089795673306
 20
98.87991622554038
 30
0.0
 10
207.6960285451944
 20
98.87991622554037
 30
0.0
 10
207.6530277831563
 20
98.87991622554037
 30
0.0
 10
207.5489650728498
 20
98.87991622554038
 30
0.0
 10
207.4836328344929
 20
98.87991622554038
 30
0.0
 10
207.4150255635925
 20
98.87991622554038
 30
0.0
  0
SPLINE
  5
CD
330
1F
100
AcDbEntity
  8
0
  6
Continuous
 62
     7
370
    15
100
AcDbSpline
210
0.0
220
0.0
230
1.0
 70
    24
 71
     3
 72
    12
 73
     8
 74
     0
 42
0.00000001
 43
0.00000001
 40
0.0
 40
0.0
 40
0.0
 40
0.0
 40
0.5
 40
0.5
 40
0.75
 40
0.75
 40
1.0
 40
1.0
 40
1.0
 40
1.0
 10
207.8207280319015
 20
151.6799162255404
 30
0.0
 10
207.7776424822907
 20
151.6799162255404
 30
0.0
 10
207.7284902805437
 20
151.6799162255404
 30
0.0
 10
207.632017686254
 20
151.6799162255404
 30
0.0
 10
207.5959161011199
 20
151.6799162255404
 30
0.0
 10
207.5128103432573
 20
151.6799162255404
 30
0.0
 10
207.4648137462933
 20
151.6799162255404
 30
0.0
 10
207.4150255635925
 20
151.6799162255404
 30
0.0
  0
SPLINE
  5
CE
330
1F
100
AcDbEntity
  8
0
  6
Continuous
 62
     7
370
    15
100
AcDbSpline
210
0.0
220
0.0
230
1.0
 70
     8
 71
     3
 72
    10
 73
     6
 74
     0
 42
0.00000001
 43
0.00000001
 40
0.0
 40
0.0
 40
0.0
 40
0.0
 40
0.5
 40
0.5
 40
1.0
 40
1.0
 40
1.0
 40
1.0
 10
208.2150255635925
 20
152.3995700765762
 30
0.0
 10
208.2150255635925
 20
152.2558000187582
 30
0.0
 10
208.1789765048736
 20
152.113380656263
 30
0.0
 10
208.0434676440996
 20
151.8634863629058
 30
0.0
 10
207.9435916510034
 20
151.7554560266576
 30
0.0
 10
207.8207280319015
 20
151.6799162255404
 30
0.0
  0
SPLINE
  5
CF
330
1F
100
AcDbEntity
  8
0
  6
Continuous
 62
     7
370
    15
100
AcDbSpline
210
0.0
220
0.0
230
1.0
 70
     8
 71
     3
 72
    10
 73
     6
 74
     0
 42
0.00000001
 43
0.00000001
 40
0.0
 40
0.0
 40
0.0
 40
0.0
 40
0.5
 40
0.5
 40
1.0
 40
1.0
 40
1.0
 40
1.0
 10
208.1888779404323
 20
145.1299162255404
 30
0.0
 10
208.197567583344
 20
145.1767950748585
 30
0.0
 10
208.2041066480945
 20
145.2242175402598
 30
0.0
 10
208.2128652824876
 20
145.3201543388465
 30
0.0
 10
208.2150255635925
 20
145.3680696268571
 30
0.0
 10
208.2150255635925
 20
145.4157828570016
 30
0.0
  0
LINE
  5
D0
330
1F
100
AcDbEntity
  8
0
  6
Continuous
 62
     7
370
    15
100
AcDbLine
 10
207.4150253246
 20
151.6799160825
 30
0.0
 11
205.1950261155
 21
151.6799160825
 31
0.0
  0
LINE
  5
D1
330
1F
100
AcDbEntity
  8
0
  6
Continuous
 62
     7
370
    15
100
AcDbLine
 10
207.4150253246
 20
98.8799163686
 30
0.0
 11
205.1950261155
 21
98.8799163686
 31
0.0
  0
LINE
  5
D2
330
1F
100
AcDbEntity
  8
0
  6
Continuous
 62
     7
370
    15
100
AcDbLine
 10
214.4550249139
 20
151.6799160825
 30
0.0
 11
214.4110627631
 21
151.6799160825
 31
0.0
  0
LINE
  5
D3
330
1F
100
AcDbEntity
  8
0
  6
Continuous
 62
     7
370
    15
100
AcDbLine
 10
214.4550249139
 20
98.8799163686
 30
0.0
 11
214.4053053269
 21
98.8799163686
 31
0.0
  0
ELLIPSE
  5
D4
330
1F
100
AcDbEntity
  8
0
  6
Continuous
 62
     7
370
    15
100
AcDbEllipse
 10
227.3600529109
 20
125.2799162255
 30
0.0
 11
0.7838056803151687
 21
25.99916243029384
 31
0.0
210
0.0
220
0.0
230
0.9999999999999998
 40
0.266256518
 41
0.5774732074160676
 42
2.789612465046104
  0
SPLINE
  5
D5
330
1F
100
AcDbEntity
  8
0
  6
Continuous
 62
     7
370
    15
100
AcDbSpline
210
0.0
220
0.0
230
1.0
 70
     8
 71
     3
 72
    20
 73
    16
 74
     0
 42
0.00000001
 43
0.00000001
 40
0.0
 40
0.0
 40
0.0
 40
0.0
 40
0.2500000000000017
 40
0.2500000000000017
 40
0.3750000000000014
 40
0.3750000000000014
 40
0.5000000000000011
 40
0.5000000000000011
 40
0.6250000000000008
 40
0.6250000000000008
 40
0.7500000000000006
 40
0.7500000000000006
 40
0.8750000000000002
 40
0.8750000000000002
 40
1.0
 40
1.0
 40
1.0
 40
1.0
 10
229.4061213331865
 20
99.68800581266308
 30
0.0
 10
228.7804350976742
 20
99.700089250403
 30
0.0
 10
228.1827631275756
 20
99.72920317041385
 30
0.0
 10
227.3277193583645
 20
99.80630294732174
 30
0.0
 10
227.0549928507975
 20
99.83736426816597
 30
0.0
 10
226.5403625371464
 20
99.91114515205365
 30
0.0
 10
226.297209233993
 20
99.95397125681941
 30
0.0
 10
225.8394706174998
 20
100.0542099258011
 30
0.0
 10
225.6273671040555
 20
100.1112629921805
 30
0.0
 10
225.2444898124508
 20
100.2385357091964
 30
0.0
 10
225.0720940841381
 20
100.3090945868605
 30
0.0
 10
224.7644736625593
 20
100.4662381958612
 30
0.0
 10
224.62987821647
 20
100.552813202108
 30
0.0
 10
224.4036851321096
 20
100.7389228412756
 30
0.0
 10
224.3109535474627
 20
100.8389825598606
 30
0.0
 10
224.237737155058
 20
100.9466624010604
 30
0.0
  0
ELLIPSE
  5
D6
330
1F
100
AcDbEntity
  8
0
  6
Continuous
 62
     7
370
    15
100
AcDbEllipse
 10
298.2751247384
 20
125.2799162255
 30
0.0
 11
247.3733091093123
 21
2.747757092743001
 31
0.0
210
0.0
220
0.0
230
1.0
 40
0.1045157088
 41
4.429099242946049
 42
4.429652989830547
  0
ELLIPSE
  5
D7
330
1F
100
AcDbEntity
  8
0
  6
Continuous
 62
     7
370
    15
100
AcDbEllipse
 10
298.2751247384
 20
125.2799162255
 30
0.0
 11
247.3733091093123
 21
2.747757092743001
 31
0.0
210
0.0
220
0.0
230
1.0
 40
0.1045157088
 41
1.851210452858392
 42
1.851764199742891
  0
SPLINE
  5
D8
330
1F
100
AcDbEntity
  8
0
  6
Continuous
 62
     7
370
    15
100
AcDbSpline
210
0.0
220
0.0
230
1.0
 70
     8
 71
     3
 72
    20
 73
    16
 74
     0
 42
0.00000001
 43
0.00000001
 40
0.0
 40
0.0
 40
0.0
 40
0.0
 40
0.2499999999999996
 40
0.2499999999999996
 40
0.3749999999999997
 40
0.3749999999999997
 40
0.4999999999999998
 40
0.4999999999999998
 40
0.6249999999999999
 40
0.6249999999999999
 40
0.7499999999999999
 40
0.7499999999999999
 40
0.875
 40
0.875
 40
1.0
 40
1.0
 40
1.0
 40
1.0
 10
224.237737155058
 20
147.1771047285949
 30
0.0
 10
224.384221237506
 20
147.5068283577018
 30
0.0
 10
224.6069090188595
 20
147.8008867794922
 30
0.0
 10
225.0673120141729
 20
148.1945667774779
 30
0.0
 10
225.2423323653136
 20
148.3174367069512
 30
0.0
 10
225.6247800545335
 20
148.5402455536778
 30
0.0
 10
225.8334616337931
 20
148.6413855996938
 30
0.0
 10
226.2868953573707
 20
148.8249453672775
 30
0.0
 10
226.5342344189734
 20
148.9079759174986
 30
0.0
 10
227.051470862893
 20
149.0517214811617
 30
0.0
 10
227.3216520483114
 20
149.112911898081
 30
0.0
 10
227.8850147530846
 20
149.2161598290275
 30
0.0
 10
228.1801947019956
 20
149.2584140246696
 30
0.0
 10
228.7852322077188
 20
149.323190180003
 30
0.0
 10
229.0930169782382
 20
149.3456574438779
 30
0.0
 10
229.4061213331865
 20
149.3585839773111
 30
0.0
  0
ELLIPSE
  5
D9
330
1F
100
AcDbEntity
  8
0
  6
Continuous
 62
     7
370
    15
100
AcDbEllipse
 10
222.8504816583
 20
112.1462492019
 30
0.0
 11
-0.2723047514036522
 21
3.529709525503946
 31
0.0
210
0.0
220
0.0
230
1.0
 40
0.2068953477
 41
0.0
 42
6.283185307179586
  0
LINE
  5
DA
330
1F
100
AcDbEntity
  8
0
  6
Continuous
 62
     7
370
    15
100
AcDbLine
 10
166.5050253431
 20
102.0514702039
 30
0.0
 11
166.5050253431
 21
103.3056003587
 31
0.0
  0
SPLINE
  5
DB
330
1F
100
AcDbEntity
  8
0
  6
Continuous
 62
     7
370
    15
100
AcDbSpline
210
0.0
220
0.0
230
1.0
 70
     8
 71
     3
 72
    12
 73
     8
 74
     0
 42
0.00000001
 43
0.00000001
 40
0.0
 40
0.0
 40
0.0
 40
0.0
 40
0.2499999999999997
 40
0.2499999999999997
 40
0.4999999999999993
 40
0.4999999999999993
 40
1.0
 40
1.0
 40
1.0
 40
1.0
 10
165.7803529107255
 20
104.4204233375144
 30
0.0
 10
165.8291934810606
 20
104.3145236902431
 30
0.0
 10
165.9142403962605
 20
104.2125901288356
 30
0.0
 10
166.083891804824
 20
104.0160839235973
 30
0.0
 10
166.1703538035503
 20
103.9210565619984
 30
0.0
 10
166.3957470084672
 20
103.6437780676394
 30
0.0
 10
166.5050255635925
 20
103.4690606948287
 30
0.0
 10
166.5050255635925
 20
103.3056005173833
 30
0.0
  0
SPLINE
  5
DC
330
1F
100
AcDbEntity
  8
0
  6
Continuous
 62
     7
370
    15
100
AcDbSpline
210
0.0
220
0.0
230
1.0
 70
     8
 71
     3
 72
    14
 73
    10
 74
     0
 42
0.00000001
 43
0.00000001
 40
0.0
 40
0.0
 40
0.0
 40
0.0
 40
0.1249999999999973
 40
0.1249999999999973
 40
0.2499999999999947
 40
0.2499999999999947
 40
0.4999999999999964
 40
0.4999999999999964
 40
1.0
 40
1.0
 40
1.0
 40
1.0
 10
165.1050255635925
 20
104.9570127999884
 30
0.0
 10
165.161800318813
 20
104.9634812531271
 30
0.0
 10
165.2244834197421
 20
104.9576239499183
 30
0.0
 10
165.3303711942802
 20
104.9277276285805
 30
0.0
 10
165.3742754518813
 20
104.9058526866256
 30
0.0
 10
165.4867087000389
 20
104.8364813999588
 30
0.0
 10
165.5398369039013
 20
104.7839823457574
 30
0.0
 10
165.6748243656415
 20
104.6286993374391
 30
0.0
 10
165.7330850771213
 20
104.5229128636048
 30
0.0
 10
165.7803529107398
 20
104.4204233375152
 30
0.0
  0
SPLINE
  5
DD
330
1F
100
AcDbEntity
  8
0
  6
Continuous
 62
     7
370
    15
100
AcDbSpline
210
0.0
220
0.0
230
1.0
 70
     8
 71
     3
 72
    10
 73
     6
 74
     0
 42
0.00000001
 43
0.00000001
 40
0.0
 40
0.0
 40
0.0
 40
0.0
 40
0.5
 40
0.5
 40
1.0
 40
1.0
 40
1.0
 40
1.0
 10
162.3328991868775
 20
104.583601477677
 30
0.0
 10
162.7798401281021
 20
104.657326937356
 30
0.0
 10
163.2399520166442
 20
104.7236555892362
 30
0.0
 10
164.1668417203889
 20
104.8466850580696
 30
0.0
 10
164.6345454524246
 20
104.90341012852
 30
0.0
 10
165.1050255635925
 20
104.9570127999884
 30
0.0
  0
SPLINE
  5
DE
330
1F
100
AcDbEntity
  8
0
  6
Continuous
 62
     7
370
    15
100
AcDbSpline
210
0.0
220
0.0
230
1.0
 70
     8
 71
     3
 72
    14
 73
    10
 74
     0
 42
0.00000001
 43
0.00000001
 40
0.0
 40
0.0
 40
0.0
 40
0.0
 40
0.4999999999999976
 40
0.4999999999999976
 40
0.7499999999999976
 40
0.7499999999999976
 40
0.8749999999999987
 40
0.8749999999999987
 40
1.0
 40
1.0
 40
1.0
 40
1.0
 10
157.5550255635925
 20
104.4101806926495
 30
0.0
 10
158.3629225876905
 20
104.4115929246747
 30
0.0
 10
159.1686867560167
 20
104.4179859023919
 30
0.0
 10
160.3691274270249
 20
104.4470377140266
 30
0.0
 10
160.7679462803187
 20
104.4598706498004
 30
0.0
 10
161.3614746304673
 20
104.4903288313659
 30
0.0
 10
161.5585375288654
 20
104.5023414616278
 30
0.0
 10
161.9494765637147
 20
104.5339829289063
 30
0.0
 10
162.1438516155382
 20
104.5524170015804
 30
0.0
 10
162.3328991868775
 20
104.583601477677
 30
0.0
  0
SPLINE
  5
DF
330
1F
100
AcDbEntity
  8
0
  6
Continuous
 62
     7
370
    15
100
AcDbSpline
210
0.0
220
0.0
230
1.0
 70
     8
 71
     3
 72
     8
 73
     4
 74
     0
 42
0.00000001
 43
0.00000001
 40
0.0000003409637668
 40
0.0000003409637668
 40
0.0000003409637668
 40
0.0000003409637668
 40
0.000017415394438
 40
0.000017415394438
 40
0.000017415394438
 40
0.000017415394438
 10
157.5449806331742
 20
104.4161764904412
 30
0.0
 10
157.5483192839325
 20
104.4141742553438
 30
0.0
 10
157.5516676591122
 20
104.4121756635737
 30
0.0
 10
157.5550255635924
 20
104.4101806926495
 30
0.0
  0
SPLINE
  5
E0
330
1F
100
AcDbEntity
  8
0
  6
Continuous
 62
     7
370
    15
100
AcDbSpline
210
0.0
220
0.0
230
1.0
 70
     8
 71
     3
 72
     8
 73
     4
 74
     0
 42
0.00000001
 43
0.00000001
 40
0.0000003292049707
 40
0.0000003292049707
 40
0.0000003292049707
 40
0.0000003292049707
 40
0.0000169050949325
 40
0.0000169050949325
 40
0.0000169050949325
 40
0.0000169050949325
 10
157.5550255635924
 20
146.1498539909355
 30
0.0
 10
157.5516689814556
 20
146.1479419968386
 30
0.0
 10
157.5483206173301
 20
146.1460267065835
 30
0.0
 10
157.5449806331611
 20
146.1441080979681
 30
0.0
  0
SPLINE
  5
E1
330
1F
100
AcDbEntity
  8
0
  6
Continuous
 62
     7
370
    15
100
AcDbSpline
210
0.0
220
0.0
230
1.0
 70
     8
 71
     3
 72
    10
 73
     6
 74
     0
 42
0.00000001
 43
0.00000001
 40
0.0
 40
0.0
 40
0.0
 40
0.0
 40
0.5
 40
0.5
 40
1.0
 40
1.0
 40
1.0
 40
1.0
 10
161.1050255635925
 20
146.1030036173681
 30
0.0
 10
160.5174400165019
 20
146.1240691376046
 30
0.0
 10
159.9266936230415
 20
146.1348276234768
 30
0.0
 10
158.7426744577426
 20
146.1481924040124
 30
0.0
 10
158.1492604695372
 20
146.150335046677
 30
0.0
 10
157.5550255635925
 20
146.1498539909355
 30
0.0
  0
SPLINE
  5
E2
330
1F
100
AcDbEntity
  8
0
  6
Continuous
 62
     7
370
    15
100
AcDbSpline
210
0.0
220
0.0
230
1.0
 70
     8
 71
     3
 72
    18
 73
    14
 74
     0
 42
0.00000001
 43
0.00000001
 40
0.0
 40
0.0
 40
0.0
 40
0.0
 40
0.2500000000000003
 40
0.2500000000000003
 40
0.4999999999999999
 40
0.4999999999999999
 40
0.7499999999999996
 40
0.7499999999999996
 40
0.8749999999999998
 40
0.8749999999999998
 40
0.9374999999999999
 40
0.9374999999999999
 40
1.0
 40
1.0
 40
1.0
 40
1.0
 10
162.5050255635925
 20
147.1240238979034
 30
0.0
 10
162.5050255635925
 20
147.0408169890462
 30
0.0
 10
162.4691764636542
 20
146.9520803337326
 30
0.0
 10
162.3443047276203
 20
146.7699551431724
 30
0.0
 10
162.2539043099724
 20
146.6748250945458
 30
0.0
 10
162.0316616552303
 20
146.4856435854214
 30
0.0
 10
161.9018968687845
 20
146.3906984173267
 30
0.0
 10
161.661259411473
 20
146.2524197097468
 30
0.0
 10
161.5734921133355
 20
146.2067092764444
 30
0.0
 10
161.4189680261287
 20
146.1488859712229
 30
0.0
 10
161.3623571400739
 20
146.1311712071851
 30
0.0
 10
161.2383131091674
 20
146.1066319039521
 30
0.0
 10
161.170598434149
 20
146.1006527654139
 30
0.0
 10
161.1050255635925
 20
146.1030036173681
 30
0.0
  0
LINE
  5
E3
330
1F
100
AcDbEntity
  8
0
  6
Continuous
 62
     7
370
    15
100
AcDbLine
 10
162.5050246874
 20
147.1240238832
 30
0.0
 11
162.5050246874
 21
148.3079621183
 31
0.0
  0
LINE
  5
E4
330
1F
100
AcDbEntity
  8
0
  6
Continuous
 62
     7
370
    15
100
AcDbLine
 10
186.3050254686
 20
101.059485002
 30
0.0
 11
186.3050254686
 21
149.5003474491
 31
0.0
  0
SPLINE
  5
E5
330
1F
100
AcDbEntity
  8
0
  6
Continuous
 62
     7
370
    15
100
AcDbSpline
210
0.0
220
0.0
230
1.0
 70
     8
 71
     3
 72
    24
 73
    20
 74
     0
 42
0.00000001
 43
0.00000001
 40
0.0
 40
0.0
 40
0.0
 40
0.0
 40
0.0010489815523775
 40
0.0637843212772741
 40
0.1272220630088516
 40
0.1903789073370505
 40
0.2526748662763491
 40
0.3146354150030102
 40
0.3770891884518245
 40
0.4393540587943444
 40
0.5008133488401828
 40
0.5621845177353679
 40
0.6248438462901906
 40
0.6874304788646655
 40
0.7496743245911356
 40
0.811984857412469
 40
0.8750960476811308
 40
0.9384412548145236
 40
1.0
 40
1.0
 40
1.0
 40
1.0
 10
175.0739315683194
 20
101.6224080310938
 30
0.0
 10
175.0734849025686
 20
101.6223493861274
 30
0.0
 10
175.046324966645
 20
101.6187834231467
 30
0.0
 10
175.1419548897769
 20
101.6316480326219
 30
0.0
 10
175.3755080657974
 20
101.6608825149619
 30
0.0
 10
175.7710640180318
 20
101.7075017257033
 30
0.0
 10
176.2981040184018
 20
101.7576825251285
 30
0.0
 10
176.941634460238
 20
101.8020611985716
 30
0.0
 10
177.6803082945078
 20
101.8290043950823
 30
0.0
 10
178.4778229646266
 20
101.8324761433845
 30
0.0
 10
179.3044020143912
 20
101.8048506970911
 30
0.0
 10
180.1299248358099
 20
101.7463695541124
 30
0.0
 10
180.9220513067255
 20
101.6609264907138
 30
0.0
 10
181.6546236855629
 20
101.5591913222213
 30
0.0
 10
182.2902638673836
 20
101.4513476711734
 30
0.0
 10
182.8121747979298
 20
101.3497162758986
 30
0.0
 10
183.1938036355687
 20
101.2672343116061
 30
0.0
 10
183.4446183115021
 20
101.2110822040992
 30
0.0
 10
183.4737396272094
 20
101.2042333531863
 30
0.0
 10
183.488092028553
 20
101.2008579062102
 30
0.0
  0
SPLINE
  5
E6
330
1F
100
AcDbEntity
  8
0
  6
Continuous
 62
     7
370
    15
100
AcDbSpline
210
0.0
220
0.0
230
1.0
 70
     8
 71
     3
 72
    24
 73
    20
 74
     0
 42
0.00000001
 43
0.00000001
 40
0.0
 40
0.0
 40
0.0
 40
0.0
 40
0.061438429114026
 40
0.1250736777967296
 40
0.1884253375120635
 40
0.2508623992448768
 40
0.3129665476325514
 40
0.3753451442328022
 40
0.4377328732174486
 40
0.499092717251918
 40
0.560580729454827
 40
0.622946985474185
 40
0.6854686070210457
 40
0.7475477863222202
 40
0.8098225081553685
 40
0.873068419947611
 40
0.936404185690527
 40
0.9991757203144552
 40
1.0
 40
1.0
 40
1.0
 40
1.0
 10
183.4880375461824
 20
149.3589447425482
 30
0.0
 10
183.4734367377303
 20
149.3555765846752
 30
0.0
 10
183.4437130478792
 20
149.3487198355909
 30
0.0
 10
183.1909750478933
 20
149.2923820156948
 30
0.0
 10
182.8079797488722
 20
149.2095242028095
 30
0.0
 10
182.2856237919892
 20
149.1076174545885
 30
0.0
 10
181.6508394472876
 20
148.9997788846995
 30
0.0
 10
180.9206157106734
 20
148.8983126314704
 30
0.0
 10
180.1301476157623
 20
148.8132505529032
 30
0.0
 10
179.3056638883046
 20
148.7550491959466
 30
0.0
 10
178.4786275078245
 20
148.7274647482621
 30
0.0
 10
177.680303048834
 20
148.7309586767963
 30
0.0
 10
176.9404792978345
 20
148.7579123354699
 30
0.0
 10
176.2962244263748
 20
148.8022678360833
 30
0.0
 10
175.7688175692772
 20
148.8524730198061
 30
0.0
 10
175.3741523289642
 20
148.8990804798512
 30
0.0
 10
175.141623643376
 20
148.9282836566896
 30
0.0
 10
175.0462444147097
 20
148.9410417954068
 30
0.0
 10
175.0731773590365
 20
148.9375019654881
 30
0.0
 10
175.0735264429994
 20
148.9374560849545
 30
0.0
  0
SPLINE
  5
E7
330
1F
100
AcDbEntity
  8
0
  6
Continuous
 62
     7
370
    15
100
AcDbSpline
210
0.0
220
0.0
230
1.0
 70
     8
 71
     3
 72
    22
 73
    18
 74
     0
 42
0.00000001
 43
0.00000001
 40
0.0
 40
0.0
 40
0.0
 40
0.0
 40
0.1249999999999996
 40
0.1249999999999996
 40
0.2499999999999992
 40
0.2499999999999992
 40
0.3124999999999954
 40
0.3124999999999954
 40
0.3749999999999917
 40
0.3749999999999917
 40
0.4999999999999933
 40
0.4999999999999933
 40
0.624999999999995
 40
0.624999999999995
 40
0.7499999999999968
 40
0.7499999999999968
 40
1.0
 40
1.0
 40
1.0
 40
1.0
 10
157.5449806331615
 20
146.1441080979691
 30
0.0
 10
157.4843609122852
 20
146.1092859213218
 30
0.0
 10
157.4221715723186
 20
146.0707821176211
 30
0.0
 10
157.2884421060892
 20
145.9848476298224
 30
0.0
 10
157.2161875643769
 20
145.9365410286202
 30
0.0
 10
157.0942896235412
 20
145.8601893104504
 30
0.0
 10
157.0504830703891
 20
145.8337748498434
 30
0.0
 10
156.9640879012142
 20
145.7852659253128
 30
0.0
 10
156.9217479249226
 20
145.7633318025864
 30
0.0
 10
156.8077771785536
 20
145.7069620126418
 30
0.0
 10
156.7493584525633
 20
145.6806051881081
 30
0.0
 10
156.6494508813758
 20
145.628465363604
 30
0.0
 10
156.6080368905805
 20
145.6033047738914
 30
0.0
 10
156.5360119227032
 20
145.5481979305644
 30
0.0
 10
156.5056633813902
 20
145.5183415270695
 30
0.0
 10
156.4321716513581
 20
145.4209348250768
 30
0.0
 10
156.4050255635925
 20
145.3446031412664
 30
0.0
 10
156.4050255635925
 20
145.2559767301963
 30
0.0
  0
SPLINE
  5
E8
330
1F
100
AcDbEntity
  8
0
  6
Continuous
 62
     7
370
    15
100
AcDbSpline
210
0.0
220
0.0
230
1.0
 70
     8
 71
     3
 72
    22
 73
    18
 74
     0
 42
0.00000001
 43
0.00000001
 40
0.0
 40
0.0
 40
0.0
 40
0.0
 40
0.2499999999999998
 40
0.2499999999999998
 40
0.3750000000000003
 40
0.3750000000000003
 40
0.5000000000000009
 40
0.5000000000000009
 40
0.6250000000000013
 40
0.6250000000000013
 40
0.6874999999999984
 40
0.6874999999999984
 40
0.7499999999999993
 40
0.7499999999999993
 40
0.8749999999999997
 40
0.8749999999999997
 40
1.0
 40
1.0
 40
1.0
 40
1.0
 10
156.4050255635923
 20
105.2910937866698
 30
0.0
 10
156.4050255635923
 20
105.2030298438631
 30
0.0
 10
156.4332761445396
 20
105.1263485485552
 30
0.0
 10
156.5082719450685
 20
105.0323545615361
 30
0.0
 10
156.5390085497328
 20
105.0041079084963
 30
0.0
 10
156.6116652079516
 20
104.952828732538
 30
0.0
 10
156.6535146657508
 20
104.9298273347531
 30
0.0
 10
156.753718399702
 20
104.8829291353507
 30
0.0
 10
156.8114983634008
 20
104.8600873140971
 30
0.0
 10
156.9262236313166
 20
104.8067530611004
 30
0.0
 10
156.9698993156974
 20
104.7848759639168
 30
0.0
 10
157.0582980299127
 20
104.735072416951
 30
0.0
 10
157.1024359332018
 20
104.7075984911504
 30
0.0
 10
157.223699717518
 20
104.6286101742554
 30
0.0
 10
157.2928328658857
 20
104.579925515968
 30
0.0
 10
157.4235380992687
 20
104.4919499825558
 30
0.0
 10
157.4851486017929
 20
104.4520585882859
 30
0.0
 10
157.5449806331743
 20
104.4161764904411
 30
0.0
  0
LINE
  5
E9
330
1F
100
AcDbEntity
  8
0
  6
Continuous
 62
     7
370
    15
100
AcDbLine
 10
156.4050257364
 20
105.2910944061
 30
0.0
 11
156.4050257364
 21
145.255977063
 31
0.0
  0
LINE
  5
EA
330
1F
100
AcDbEntity
  8
0
  6
Continuous
 62
     7
370
    15
100
AcDbLine
 10
208.2150258282
 20
145.4157827036
 30
0.0
 11
208.2150258282
 21
146.3300602125
 31
0.0
  0
SPLINE
  5
EB
330
1F
100
AcDbEntity
  8
0
  6
Continuous
 62
     7
370
    15
100
AcDbSpline
210
0.0
220
0.0
230
1.0
 70
     8
 71
     3
 72
     8
 73
     4
 74
     0
 42
0.00000001
 43
0.00000001
 40
0.0
 40
0.0
 40
0.0
 40
0.0
 40
1.0
 40
1.0
 40
1.0
 40
1.0
 10
208.2150255635925
 20
146.3300598931237
 30
0.0
 10
208.6943037141823
 20
147.4710711229763
 30
0.0
 10
209.1898715533222
 20
148.6074555337442
 30
0.0
 10
209.6969583950815
 20
149.7386058879078
 30
0.0
  0
LINE
  5
EC
330
1F
100
AcDbEntity
  8
0
  6
Continuous
 62
     7
370
    15
100
AcDbLine
 10
209.6969574848
 20
149.7386058407
 30
0.0
 11
213.6550262729
 21
149.7386058407
 31
0.0
  0
SPLINE
  5
ED
330
1F
100
AcDbEntity
  8
0
  6
Continuous
 62
     7
370
    15
100
AcDbSpline
210
0.0
220
0.0
230
1.0
 70
     8
 71
     3
 72
    12
 73
     8
 74
     0
 42
0.00000001
 43
0.00000001
 40
0.0
 40
0.0
 40
0.0
 40
0.0
 40
0.250000000000002
 40
0.250000000000002
 40
0.500000000000004
 40
0.500000000000004
 40
1.0
 40
1.0
 40
1.0
 40
1.0
 10
213.6550255635925
 20
149.7386058879078
 30
0.0
 10
213.7462252854181
 20
149.7386058879078
 30
0.0
 10
213.8368202945542
 20
149.7103861893199
 30
0.0
 10
213.9902330210008
 20
149.6159431820718
 30
0.0
 10
214.0554418883245
 20
149.5496562053665
 30
0.0
 10
214.2082264176644
 20
149.3240313820782
 30
0.0
 10
214.2550255635925
 20
149.1416051190456
 30
0.0
 10
214.2550255635925
 20
148.9608684867988
 30
0.0
  0
LINE
  5
EE
330
1F
100
AcDbEntity
  8
0
  6
Continuous
 62
     7
370
    15
100
AcDbLine
 10
214.2550252536
 20
148.9608676718
 30
0.0
 11
214.2550252536
 21
145.1299169646
 31
0.0
  0
SPLINE
  5
EF
330
1F
100
AcDbEntity
  8
0
  6
Continuous
 62
     7
370
    15
100
AcDbSpline
210
0.0
220
0.0
230
1.0
 70
     8
 71
     3
 72
     8
 73
     4
 74
     0
 42
0.00000001
 43
0.00000001
 40
0.0
 40
0.0
 40
0.0
 40
0.0
 40
1.0
 40
1.0
 40
1.0
 40
1.0
 10
204.3950255635925
 20
153.085150416712
 30
0.0
 10
203.9023154667467
 20
153.9731694148384
 30
0.0
 10
203.4082327614678
 20
154.8604320505244
 30
0.0
 10
202.9130927321034
 20
155.7471116987047
 30
0.0
  0
LINE
  5
F0
330
1F
100
AcDbEntity
  8
0
  6
Continuous
 62
     7
370
    15
100
AcDbLine
 10
204.3950256119
 20
146.3300602125
 30
0.0
 11
204.3950256119
 21
153.0851495998
 31
0.0
  0
SPLINE
  5
F1
330
1F
100
AcDbEntity
  8
0
  6
Continuous
 62
     7
370
    15
100
AcDbSpline
210
0.0
220
0.0
230
1.0
 70
     8
 71
     3
 72
     8
 73
     4
 74
     0
 42
0.00000001
 43
0.00000001
 40
0.0
 40
0.0
 40
0.0
 40
0.0
 40
1.0
 40
1.0
 40
1.0
 40
1.0
 10
202.9130927321034
 20
149.7386058879078
 30
0.0
 10
203.4201795738627
 20
148.6074555337442
 30
0.0
 10
203.9157474130026
 20
147.4710711229763
 30
0.0
 10
204.3950255635925
 20
146.3300598931237
 30
0.0
  0
LINE
  5
F2
330
1F
100
AcDbEntity
  8
0
  6
Continuous
 62
     7
370
    15
100
AcDbLine
 10
204.3950256119
 20
146.3300602125
 30
0.0
 11
204.3950256119
 21
145.4157827036
 31
0.0
  0
SPLINE
  5
F3
330
1F
100
AcDbEntity
  8
0
  6
Continuous
 62
     7
370
    15
100
AcDbSpline
210
0.0
220
0.0
230
1.0
 70
     8
 71
     3
 72
     8
 73
     4
 74
     0
 42
0.00000001
 43
0.00000001
 40
0.0
 40
0.0
 40
0.0
 40
0.0
 40
1.0
 40
1.0
 40
1.0
 40
1.0
 10
209.6969583950815
 20
155.7471116987047
 30
0.0
 10
209.2018183657172
 20
154.8604320505244
 30
0.0
 10
208.7077356604382
 20
153.9731694148384
 30
0.0
 10
208.2150255635925
 20
153.085150416712
 30
0.0
  0
LINE
  5
F4
330
1F
100
AcDbEntity
  8
0
  6
Continuous
 62
     7
370
    15
100
AcDbLine
 10
209.6969574848
 20
149.7386058407
 30
0.0
 11
209.6969574848
 21
155.7471116619
 31
0.0
  0
LINE
  5
F5
330
1F
100
AcDbEntity
  8
0
  6
Continuous
 62
     7
370
    15
100
AcDbLine
 10
208.2150258282
 20
146.3300602125
 30
0.0
 11
208.2150258282
 21
153.0851495998
 31
0.0
  0
LINE
  5
F6
330
1F
100
AcDbEntity
  8
0
  6
Continuous
 62
     7
370
    15
100
AcDbLine
 10
213.6550262729
 20
155.7471116619
 30
0.0
 11
209.6969574848
 21
155.7471116619
 31
0.0
  0
SPLINE
  5
F7
330
1F
100
AcDbEntity
  8
0
  6
Continuous
 62
     7
370
    15
100
AcDbSpline
210
0.0
220
0.0
230
1.0
 70
     8
 71
     3
 72
    10
 73
     6
 74
     0
 42
0.00000001
 43
0.00000001
 40
0.0
 40
0.0
 40
0.0
 40
0.0
 40
0.5
 40
0.5
 40
1.0
 40
1.0
 40
1.0
 40
1.0
 10
214.2550255635925
 20
155.1263565493043
 30
0.0
 10
214.2550255635925
 20
155.2867618156551
 30
0.0
 10
214.1927877324856
 20
155.4458236286437
 30
0.0
 10
213.973652808743
 20
155.676736094274
 30
0.0
 10
213.8160641137512
 20
155.7471116987047
 30
0.0
 10
213.6550255635925
 20
155.7471116987047
 30
0.0
  0
LINE
  5
F8
330
1F
100
AcDbEntity
  8
0
  6
Continuous
 62
     7
370
    15
100
AcDbLine
 10
214.2550252536
 20
148.9608676718
 30
0.0
 11
214.2550252536
 21
155.1263572262
 31
0.0
  0
SPLINE
  5
F9
330
1F
100
AcDbEntity
  8
0
  6
Continuous
 62
     7
370
    15
100
AcDbSpline
210
0.0
220
0.0
230
1.0
 70
     8
 71
     3
 72
    10
 73
     6
 74
     0
 42
0.00000001
 43
0.00000001
 40
0.0
 40
0.0
 40
0.0
 40
0.0
 40
0.5
 40
0.5
 40
1.0
 40
1.0
 40
1.0
 40
1.0
 10
229.5376985756135
 20
149.3640120246169
 30
0.0
 10
229.7631831678117
 20
149.3733070246273
 30
0.0
 10
229.978639020529
 20
149.4609142372745
 30
0.0
 10
230.3247427955814
 20
149.7533302809858
 30
0.0
 10
230.4473805103487
 20
149.9503698794876
 30
0.0
 10
230.5036244019026
 20
150.1691925990018
 30
0.0
  0
SPLINE
  5
FA
330
1F
100
AcDbEntity
  8
0
  6
Continuous
 62
     7
370
    15
100
AcDbSpline
210
0.0
220
0.0
230
1.0
 70
     8
 71
     3
 72
    10
 73
     6
 74
     0
 42
0.00000001
 43
0.00000001
 40
0.0
 40
0.0
 40
0.0
 40
0.0
 40
0.5
 40
0.5
 40
1.0
 40
1.0
 40
1.0
 40
1.0
 10
230.5036244019026
 20
98.90151237170907
 30
0.0
 10
230.4473633865672
 20
99.11916550281981
 30
0.0
 10
230.3242010479296
 20
99.3135725231126
 30
0.0
 10
229.9809371336724
 20
99.59668004902126
 30
0.0
 10
229.7632500277687
 20
99.68112711532095
 30
0.0
 10
229.5376985756145
 20
99.68546888163633
 30
0.0
  0
SPLINE
  5
FB
330
1F
100
AcDbEntity
  8
0
  6
Continuous
 62
     7
370
    15
100
AcDbSpline
210
0.0
220
0.0
230
1.0
 70
     8
 71
     3
 72
     8
 73
     4
 74
     0
 42
0.00000001
 43
0.00000001
 40
0.0
 40
0.0
 40
0.0
 40
0.0
 40
1.0
 40
1.0
 40
1.0
 40
1.0
 10
230.5036244019026
 20
98.90151237170907
 30
0.0
 10
231.8462596262007
 20
93.70735157020458
 30
0.0
 10
233.2174193716526
 20
88.52099323188622
 30
0.0
 10
234.5943309344962
 20
83.33620821861021
 30
0.0
  0
LINE
  5
FC
330
1F
100
AcDbEntity
  8
0
  6
Continuous
 62
     7
370
    15
100
AcDbLine
 10
230.5729739526
 20
150.4388877736
 30
0.0
 11
230.5036239484
 21
150.1691935198
 31
0.0
  0
ELLIPSE
  5
FD
330
1F
100
AcDbEntity
  8
0
  6
Continuous
 62
     7
370
    15
100
AcDbEllipse
 10
298.2751247384
 20
125.2799162255
 30
0.0
 11
256.8876671519782
 21
2.853440057848502
 31
0.0
210
0.0
220
0.0
230
1.0
 40
0.1045157088
 41
1.825463162946235
 42
1.836333281075962
  0
LINE
  5
FE
330
1F
100
AcDbEntity
  8
0
  6
Continuous
 62
     7
370
    15
100
AcDbLine
 10
253.9014123539
 20
121.3067250872
 30
0.0
 11
233.2706019441
 21
150.5439186083
 31
0.0
  0
LINE
  5
FF
330
1F
100
AcDbEntity
  8
0
  6
Continuous
 62
     7
370
    15
100
AcDbLine
 10
256.090504692
 20
96.3093319522
 30
0.0
 11
253.9014123539
 21
121.3067250872
 31
0.0
  0
LINE
  5
100
330
1F
100
AcDbEntity
  8
0
  6
Continuous
 62
     7
370
    15
100
AcDbLine
 10
240.5929580489
 20
97.4949279414
 30
0.0
 11
256.090504692
 21
96.3093319522
 31
0.0
  0
ARC
  5
101
330
1F
100
AcDbEntity
  8
0
  6
Continuous
 62
     7
370
    15
100
AcDbCircle
 10
240.2976203126
 20
94.0233112094
 30
0.0
 40
3.484156585574707
100
AcDbArc
 50
85.1374355401
 51
264.87216192
  0
LINE
  5
102
330
1F
100
AcDbEntity
  8
0
  6
Continuous
 62
     7
370
    15
100
AcDbLine
 10
241.5408432642
 20
90.4341691719
 30
0.0
 11
239.9862125674
 21
90.5530990647
 31
0.0
  0
LINE
  5
103
330
1F
100
AcDbEntity
  8
0
  6
Continuous
 62
     7
370
    15
100
AcDbLine
 10
242.2363139847
 20
82.492535709
 30
0.0
 11
241.5408432642
 21
90.4341691719
 31
0.0
  0
SPLINE
  5
104
330
1F
100
AcDbEntity
  8
0
  6
Continuous
 62
     7
370
    15
100
AcDbSpline
210
0.0
220
0.0
230
1.0
 70
     8
 71
     3
 72
     8
 73
     4
 74
     0
 42
0.00000001
 43
0.00000001
 40
0.0
 40
0.0
 40
0.0
 40
0.0
 40
1.0
 40
1.0
 40
1.0
 40
1.0
 10
242.2363154261363
 20
82.49253586817358
 30
0.0
 10
239.6885821500507
 20
82.77040339915943
 30
0.0
 10
237.1412450078901
 20
83.05155312579323
 30
0.0
 10
234.5943309344962
 20
83.33620821861021
 30
0.0
  0
CIRCLE
  5
105
330
1F
100
AcDbEntity
  8
0
  6
Continuous
 62
     7
370
    15
100
AcDbCircle
 10
244.6989447873
 20
102.6998755908
 30
0.0
 40
3.974315135880481
  0
ELLIPSE
  5
106
330
1F
100
AcDbEntity
  8
0
  6
Continuous
 62
     7
370
    15
100
AcDbEllipse
 10
250.9435557533
 20
125.2799162255
 30
0.0
 11
-19.21239144025182
 21
26.99711638407914
 31
0.0
210
0.0
220
0.0
230
1.0
 40
0.0205386817
 41
5.908022552511609
 42
6.268570076028068
  0
LINE
  5
107
330
1F
100
AcDbEntity
  8
0
  6
Continuous
 62
     7
370
    15
100
AcDbLine
 10
230.5729739526
 20
152.2799169259
 30
0.0
 11
230.5729739526
 21
150.4388877736
 31
0.0
  0
LINE
  5
108
330
1F
100
AcDbEntity
  8
0
  6
Continuous
 62
     7
370
    15
100
AcDbLine
 10
234.5943316976
 20
83.2720117258
 30
0.0
 11
234.5943316976
 21
83.3362096535
 31
0.0
  0
CIRCLE
  5
109
330
1F
100
AcDbEntity
  8
0
  6
Continuous
 62
     7
370
    15
100
AcDbCircle
 10
244.6463248375
 20
102.7463785407
 30
0.0
 40
3.477409714594322
  0
ARC
  5
10A
330
1F
100
AcDbEntity
  8
0
  6
Continuous
 62
     7
370
    15
100
AcDbCircle
 10
239.6189523863
 20
94.6099292917
 30
0.0
 40
3.442918252195883
100
AcDbArc
 50
232.6073519331
 51
265.6705366938
  0
LINE
  5
10B
330
1F
100
AcDbEntity
  8
0
  6
Continuous
 62
     7
370
    15
100
AcDbLine
 10
238.8771638433
 20
91.6560718404
 30
0.0
 11
240.8890813748
 21
91.5021577464
 31
0.0
  0
LINE
  5
10C
330
1F
100
AcDbEntity
  8
0
  6
Continuous
 62
     7
370
    15
100
AcDbLine
 10
240.9280851642
 20
91.0567992912
 30
0.0
 11
240.913672016
 21
91.0579019772
 31
0.0
  0
LINE
  5
10D
330
1F
100
AcDbEntity
  8
0
  6
Continuous
 62
     7
370
    15
100
AcDbLine
 10
240.913672016
 20
91.0579019772
 30
0.0
 11
241.5408432642
 21
90.4341691719
 31
0.0
  0
ELLIPSE
  5
10E
330
1F
100
AcDbEntity
  8
0
  6
Continuous
 62
     7
370
    15
100
AcDbEllipse
 10
237.9705986604
 20
124.8414554765
 30
0.0
 11
-4.20958848463124
 21
42.35877465847341
 31
0.0
210
0.0
220
0.0
230
0.9999999999999999
 40
0.0944087
 41
3.122086323096878
 42
3.155733823672251
  0
LINE
  5
10F
330
1F
100
AcDbEntity
  8
0
  6
Continuous
 62
     7
370
    15
100
AcDbLine
 10
239.8964479724
 20
97.3253117489
 30
0.0
 11
240.3823897401
 21
97.288137077
 31
0.0
  0
ARC
  5
110
330
1F
100
AcDbEntity
  8
0
  6
Continuous
 62
     7
370
    15
100
AcDbCircle
 10
239.5873965443
 20
94.2120351086
 30
0.0
 40
3.043777619131877
100
AcDbArc
 50
221.5177232175
 51
265.697420364
  0
LWPOLYLINE
  5
111
330
1F
100
AcDbEntity
  8
0
  6
Continuous
 62
     7
370
    15
100
AcDbPolyline
 90
        3
 70
   128
 43
0.0
 10
239.1031548539
 20
97.283370568
 10
239.2062820653
 20
97.3005180793
 10
239.8964479724
 20
97.3253117489
  0
ARC
  5
112
330
1F
100
AcDbEntity
  8
0
  6
Continuous
 62
     7
370
    15
100
AcDbCircle
 10
239.1072034065
 20
94.6964004903
 30
0.0
 40
3.049018940541596
100
AcDbArc
 50
232.8566927483
 51
265.6730893542
  0
ARC
  5
113
330
1F
100
AcDbEntity
  8
0
  6
Continuous
 62
     7
370
    15
100
AcDbCircle
 10
247.9133188914
 20
90.5309096725
 30
0.0
 40
3.984194126482907
100
AcDbArc
 50
268.5975235903
 51
283.6365654628
  0
LINE
  5
114
330
1F
100
AcDbEntity
  8
0
  6
HIDDEN
 62
     7
370
     0
100
AcDbLine
 10
193.2550255368
 20
93.7799157189
 30
0.0
 11
193.2550255368
 21
93.7957929062
 31
0.0
  0
SPLINE
  5
115
330
1F
100
AcDbEntity
  8
0
  6
HIDDEN
 62
     7
370
     0
100
AcDbSpline
210
0.0
220
0.0
230
1.0
 70
     8
 71
     3
 72
    30
 73
    26
 74
     0
 42
0.00000001
 43
0.00000001
 40
0.0
 40
0.0
 40
0.0
 40
0.0
 40
0.125
 40
0.125
 40
0.1875000000000001
 40
0.1875000000000001
 40
0.2500000000000002
 40
0.2500000000000002
 40
0.3750000000000002
 40
0.3750000000000002
 40
0.4375000000000002
 40
0.4375000000000002
 40
0.5000000000000001
 40
0.5000000000000001
 40
0.6250000000000002
 40
0.6250000000000002
 40
0.6875000000000001
 40
0.6875000000000001
 40
0.75
 40
0.75
 40
0.8125
 40
0.8125
 40
0.8749999999999999
 40
0.8749999999999999
 40
1.0
 40
1.0
 40
1.0
 40
1.0
 10
193.2550255635925
 20
93.79579324267806
 30
0.0
 10
193.2550255635925
 20
93.81267216068667
 30
0.0
 10
193.3074431295709
 20
93.84268972551138
 30
0.0
 10
193.4608226094732
 20
93.90550011478446
 30
0.0
 10
193.5245037301409
 20
93.92940402201137
 30
0.0
 10
193.6774585975926
 20
93.98283931445378
 30
0.0
 10
193.7670308963619
 20
94.01244618262133
 30
0.0
 10
194.068254929215
 20
94.10689588133575
 30
0.0
 10
194.3135699252992
 20
94.17792327516497
 30
0.0
 10
194.7476669063694
 20
94.29193756187074
 30
0.0
 10
194.9043365954731
 20
94.3313928130113
 30
0.0
 10
195.2363297593154
 20
94.41091425578196
 30
0.0
 10
195.4110352883079
 20
94.45085039828275
 30
0.0
 10
195.9607049708995
 20
94.56978680111091
 30
0.0
 10
196.3609559336107
 20
94.64795156499478
 30
0.0
 10
197.0145428002483
 20
94.75766100526366
 30
0.0
 10
197.2402189199253
 20
94.79274184197206
 30
0.0
 10
197.6999307410566
 20
94.85798212135168
 30
0.0
 10
197.9349840750997
 20
94.88831693739643
 30
0.0
 10
198.4154913573987
 20
94.94365531661828
 30
0.0
 10
198.6609448853129
 20
94.96865999317835
 30
0.0
 10
199.1625603101202
 20
95.01253980206903
 30
0.0
 10
199.4200526927208
 20
95.03148348683133
 30
0.0
 10
200.1981292091569
 20
95.07720321410153
 30
0.0
 10
200.7232914864018
 20
95.09299852929324
 30
0.0
 10
201.2550255635925
 20
95.09299852929325
 30
0.0
  0
LINE
  5
116
330
1F
100
AcDbEntity
  8
0
  6
HIDDEN
 62
     7
370
     0
100
AcDbLine
 10
201.2550259167
 20
95.0929985927
 30
0.0
 11
202.913093024
 21
95.0929985927
 31
0.0
  0
LINE
  5
117
330
1F
100
AcDbEntity
  8
0
  6
HIDDEN
 62
     7
370
     0
100
AcDbLine
 10
202.913093024
 20
155.7471116619
 30
0.0
 11
202.913093024
 21
95.0929985927
 31
0.0
  0
LINE
  5
118
330
1F
100
AcDbEntity
  8
0
  6
HIDDEN
 62
     7
370
     0
100
AcDbLine
 10
201.2550259167
 20
155.7471116619
 30
0.0
 11
202.913093024
 21
155.7471116619
 31
0.0
  0
SPLINE
  5
119
330
1F
100
AcDbEntity
  8
0
  6
HIDDEN
 62
     7
370
     0
100
AcDbSpline
210
0.0
220
0.0
230
1.0
 70
     8
 71
     3
 72
    17
 73
    13
 74
     0
 42
0.00000001
 43
0.00000001
 40
0.0
 40
0.0
 40
0.0
 40
0.0
 40
0.0638118530465205
 40
0.1662333895307372
 40
0.2715772228763146
 40
0.3750121495313972
 40
0.481289232822485
 40
0.5875618040019402
 40
0.6968792013763269
 40
0.8035874989287674
 40
0.9135588298793159
 40
1.0
 40
1.0
 40
1.0
 40
1.0
 10
193.283014108444
 20
156.7728200541613
 30
0.0
 10
193.279816959421
 20
156.7736243674944
 30
0.0
 10
193.271488210238
 20
156.7757196479982
 30
0.0
 10
193.503123683272
 20
156.717242947077
 30
0.0
 10
193.9382247270676
 20
156.6119345706678
 30
0.0
 10
194.58422683073
 20
156.4661228611535
 30
0.0
 10
195.408498335892
 20
156.2986722030093
 30
0.0
 10
196.4110305689986
 20
156.1236982865184
 30
0.0
 10
197.553778321852
 20
155.9631119752215
 30
0.0
 10
198.819112375283
 20
155.8357602682957
 30
0.0
 10
200.0658525145107
 20
155.7596744312999
 30
0.0
 10
200.8916099499966
 20
155.7509508925597
 30
0.0
 10
201.25502591675
 20
155.7471116618988
 30
0.0
  0
SPLINE
  5
11A
330
1F
100
AcDbEntity
  8
0
  6
HIDDEN
 62
     7
370
     0
100
AcDbSpline
210
0.0
220
0.0
230
1.0
 70
     8
 71
     3
 72
    76
 73
    72
 74
     0
 42
0.00000001
 43
0.00000001
 40
-0.0312499999999999
 40
-0.0312499999999999
 40
0.0
 40
0.0
 40
0.03125
 40
0.03125
 40
0.0468749999999999
 40
0.0468749999999999
 40
0.0624999999999999
 40
0.0624999999999999
 40
0.0937499999999998
 40
0.0937499999999998
 40
0.1249999999999996
 40
0.1249999999999996
 40
0.1562499999999995
 40
0.1562499999999995
 40
0.1874999999999994
 40
0.1874999999999994
 40
0.2187499999999993
 40
0.2187499999999993
 40
0.2499999999999991
 40
0.2499999999999991
 40
0.2812499999999991
 40
0.2812499999999991
 40
0.3124999999999991
 40
0.3124999999999991
 40
0.3281249999999991
 40
0.3281249999999991
 40
0.3437499999999991
 40
0.3437499999999991
 40
0.3749999999999992
 40
0.3749999999999992
 40
0.4062499999999993
 40
0.4062499999999993
 40
0.4374999999999994
 40
0.4374999999999994
 40
0.4687499999999996
 40
0.4687499999999996
 40
0.4999999999999997
 40
0.4999999999999997
 40
0.5312499999999998
 40
0.5312499999999998
 40
0.5624999999999998
 40
0.5624999999999998
 40
0.59375
 40
0.59375
 40
0.6250000000000001
 40
0.6250000000000001
 40
0.6562500000000003
 40
0.6562500000000003
 40
0.6875000000000006
 40
0.6875000000000006
 40
0.7031250000000006
 40
0.7031250000000006
 40
0.7187500000000004
 40
0.7187500000000004
 40
0.7500000000000004
 40
0.7500000000000004
 40
0.7812500000000004
 40
0.7812500000000004
 40
0.8125000000000003
 40
0.8125000000000003
 40
0.8437500000000003
 40
0.8437500000000003
 40
0.8750000000000002
 40
0.8750000000000002
 40
0.9062500000000002
 40
0.9062500000000002
 40
0.9375000000000002
 40
0.9375000000000002
 40
0.9687500000000001
 40
0.9687500000000001
 40
1.0
 40
1.0
 40
1.03125
 40
1.03125
 10
190.3050255635925
 20
125.6108002213345
 30
0.0
 10
190.3050255635925
 20
124.9490322297463
 30
0.0
 10
190.3375460413769
 20
124.6237810616505
 30
0.0
 10
190.4330392856589
 20
124.1439843407613
 30
0.0
 10
190.47271412107
 20
123.9854086569677
 30
0.0
 10
190.5681007344057
 20
123.6710262711747
 30
0.0
 10
190.6240449758163
 20
123.5149066475905
 30
0.0
 10
190.812407999266
 20
123.0609660876886
 30
0.0
 10
190.9660202756844
 20
122.7739858416816
 30
0.0
 10
191.3288480694685
 20
122.2308726849422
 30
0.0
 10
191.539683171051
 20
121.9741333933983
 30
0.0
 10
192.0001827410684
 20
121.5137487591673
 30
0.0
 10
192.2515456819862
 20
121.3069719424135
 30
0.0
 10
192.7978923763397
 20
120.9414477347501
 30
0.0
 10
193.0881070160576
 20
120.7864481760353
 30
0.0
 10
193.6894938323593
 20
120.5369171549411
 30
0.0
 10
194.0051235254497
 20
120.4406388812524
 30
0.0
 10
194.6507639267293
 20
120.3119898740094
 30
0.0
 10
194.9755196825426
 20
120.2801036148928
 30
0.0
 10
195.628819712934
 20
120.2797304673821
 30
0.0
 10
195.9606920537647
 20
120.3123099536281
 30
0.0
 10
196.6023432873684
 20
120.4400838583344
 30
0.0
 10
196.9142682043014
 20
120.5346163026316
 30
0.0
 10
197.3687578048184
 20
120.7227358971703
 30
0.0
 10
197.5186211126523
 20
120.7936188783911
 30
0.0
 10
197.807706346575
 20
120.9482354847255
 30
0.0
 10
197.947567260883
 20
121.0321580834634
 30
0.0
 10
198.3534437045872
 20
121.3033536069391
 30
0.0
 10
198.6064818510768
 20
121.5104536123803
 30
0.0
 10
199.0723814072402
 20
121.9760560654376
 30
0.0
 10
199.278887481736
 20
122.2279749178249
 30
0.0
 10
199.6409930451357
 20
122.7688785338257
 30
0.0
 10
199.7978521589509
 20
123.0614213765772
 30
0.0
 10
200.0488022758135
 20
123.6662890333347
 30
0.0
 10
200.1436133751445
 20
123.9779358647813
 30
0.0
 10
200.2720352379376
 20
124.6196891700029
 30
0.0
 10
200.3048985244288
 20
124.9514169888822
 30
0.0
 10
200.3051518505373
 20
125.6045367541432
 30
0.0
 10
200.2735958499681
 20
125.9294699604862
 30
0.0
 10
200.1453546285437
 20
126.5759969669393
 30
0.0
 10
200.0495485798853
 20
126.8910049208002
 30
0.0
 10
199.8004150687912
 20
127.4929635889459
 30
0.0
 10
199.6449549470964
 20
127.7844397592214
 30
0.0
 10
199.2805006927366
 20
128.3300346957181
 30
0.0
 10
199.0740677853009
 20
128.5815118107232
 30
0.0
 10
198.613598702783
 20
129.042834834778
 30
0.0
 10
198.3568016947271
 20
129.2539581357243
 30
0.0
 10
197.8147564808926
 20
129.6166889174403
 30
0.0
 10
197.5279869009571
 20
129.7705778208259
 30
0.0
 10
197.0736797250714
 20
129.959527547518
 30
0.0
 10
196.9175394242979
 20
130.0156003435377
 30
0.0
 10
196.6036934629519
 20
130.1111031090705
 30
0.0
 10
196.4453066752581
 20
130.1508837520979
 30
0.0
 10
195.9658304353147
 20
130.2467662892232
 30
0.0
 10
195.6395904908878
 20
130.2796417372227
 30
0.0
 10
194.9787158936099
 20
130.2801873063938
 30
0.0
 10
194.653579546265
 20
130.2480207877804
 30
0.0
 10
194.0134970457785
 20
130.1212382497932
 30
0.0
 10
193.6951761217107
 20
130.0249704960018
 30
0.0
 10
193.0902598428715
 20
129.7745761745767
 30
0.0
 10
192.80311092922
 20
129.6212620128551
 30
0.0
 10
192.2591593755471
 20
129.2585540888353
 30
0.0
 10
192.0025134258204
 20
129.0481150161015
 30
0.0
 10
191.5419228724075
 20
128.5882340278252
 30
0.0
 10
191.3347739864166
 20
128.3369522281324
 30
0.0
 10
190.9682427430033
 20
127.7900320543924
 30
0.0
 10
190.8135585554988
 20
127.5008919027761
 30
0.0
 10
190.5634589021606
 20
126.8996552288568
 30
0.0
 10
190.4667721276676
 20
126.583679535216
 30
0.0
 10
190.3375505527113
 20
125.9377057771195
 30
0.0
 10
190.3050255635925
 20
125.6108002213345
 30
0.0
 10
190.3050255635925
 20
124.9490322297463
 30
0.0
  0
LINE
  5
11B
330
1F
100
AcDbEntity
  8
0
  6
HIDDEN
 62
     7
370
     0
100
AcDbLine
 10
188.3050255636
 20
94.0799170719
 30
0.0
 11
188.3050255636
 21
156.4799153792
 31
0.0
  0
SPLINE
  5
11C
330
1F
100
AcDbEntity
  8
0
  6
HIDDEN
 62
     7
370
     0
100
AcDbSpline
210
0.0
220
0.0
230
1.0
 70
     8
 71
     3
 72
    10
 73
     6
 74
     0
 42
0.00000001
 43
0.00000001
 40
0.0
 40
0.0
 40
0.0
 40
0.0
 40
0.5
 40
0.5
 40
1.0
 40
1.0
 40
1.0
 40
1.0
 10
204.4927003659248
 20
98.8799162255404
 30
0.0
 10
204.4605451783028
 20
98.81763018002431
 30
0.0
 10
204.4358889471086
 20
98.75109975515511
 30
0.0
 10
204.403076190183
 20
98.61424112479268
 30
0.0
 10
204.3950255635925
 20
98.54518352961435
 30
0.0
 10
204.3950255635925
 20
98.47552059721106
 30
0.0
  0
SPLINE
  5
11D
330
1F
100
AcDbEntity
  8
0
  6
HIDDEN
 62
     7
370
     0
100
AcDbSpline
210
0.0
220
0.0
230
1.0
 70
    24
 71
     3
 72
    10
 73
     6
 74
     0
 42
0.00000001
 43
0.00000001
 40
0.0
 40
0.0
 40
0.0
 40
0.0
 40
0.5
 40
0.5
 40
1.0
 40
1.0
 40
1.0
 40
1.0
 10
204.3950255635925
 20
145.1299162255404
 30
0.0
 10
204.3950255635925
 20
145.1299162255404
 30
0.0
 10
204.3972474220772
 20
145.1299162255404
 30
0.0
 10
204.4059840938008
 20
145.1299162255404
 30
0.0
 10
204.4124956075951
 20
145.1299162255404
 30
0.0
 10
204.4211731867526
 20
145.1299162255404
 30
0.0
  0
LINE
  5
11E
330
1F
100
AcDbEntity
  8
0
  6
HIDDEN
 62
     7
370
     0
100
AcDbLine
 10
204.3950256119
 20
145.4157827036
 30
0.0
 11
204.3950256119
 21
152.399569525
 31
0.0
  0
LINE
  5
11F
330
1F
100
AcDbEntity
  8
0
  6
HIDDEN
 62
     7
370
     0
100
AcDbLine
 10
204.3950256119
 20
98.4755212055
 30
0.0
 11
204.3950256119
 21
145.1299169646
 31
0.0
  0
SPLINE
  5
120
330
1F
100
AcDbEntity
  8
0
  6
HIDDEN
 62
     7
370
     0
100
AcDbSpline
210
0.0
220
0.0
230
1.0
 70
     8
 71
     3
 72
    10
 73
     6
 74
     0
 42
0.00000001
 43
0.00000001
 40
0.0
 40
0.0
 40
0.0
 40
0.0
 40
0.5
 40
0.5
 40
1.0
 40
1.0
 40
1.0
 40
1.0
 10
208.2150255635925
 20
98.47552059721107
 30
0.0
 10
208.2150255635925
 20
98.54575695758183
 30
0.0
 10
208.206742951502
 20
98.61575105907933
 30
0.0
 10
208.1736430084434
 20
98.75271032363825
 30
0.0
 10
208.1493056164849
 20
98.81801823289352
 30
0.0
 10
208.1173507612602
 20
98.8799162255404
 30
0.0
  0
LINE
  5
121
330
1F
100
AcDbEntity
  8
0
  6
HIDDEN
 62
     7
370
     0
100
AcDbLine
 10
208.2150258282
 20
145.4157827036
 30
0.0
 11
208.2150258282
 21
152.399569525
 31
0.0
  0
SPLINE
  5
122
330
1F
100
AcDbEntity
  8
0
  6
HIDDEN
 62
     7
370
     0
100
AcDbSpline
210
0.0
220
0.0
230
1.0
 70
    24
 71
     3
 72
    10
 73
     6
 74
     0
 42
0.00000001
 43
0.00000001
 40
0.0
 40
0.0
 40
0.0
 40
0.0
 40
0.5
 40
0.5
 40
1.0
 40
1.0
 40
1.0
 40
1.0
 10
208.1888779404324
 20
145.1299162255404
 30
0.0
 10
208.19755571534
 20
145.1299162255404
 30
0.0
 10
208.2041087393469
 20
145.1299162255404
 30
0.0
 10
208.2128433488439
 20
145.1299162255404
 30
0.0
 10
208.2150255635925
 20
145.1299162255404
 30
0.0
 10
208.2150255635925
 20
145.1299162255404
 30
0.0
  0
LINE
  5
123
330
1F
100
AcDbEntity
  8
0
  6
HIDDEN
 62
     7
370
     0
100
AcDbLine
 10
208.2150258282
 20
98.4755212055
 30
0.0
 11
208.2150258282
 21
145.1299169646
 31
0.0
  0
SPLINE
  5
124
330
1F
100
AcDbEntity
  8
0
  6
HIDDEN
 62
     7
370
     0
100
AcDbSpline
210
0.0
220
0.0
230
1.0
 70
    24
 71
     3
 72
    18
 73
    14
 74
     0
 42
0.00000001
 43
0.00000001
 40
0.0
 40
0.0
 40
0.0
 40
0.0
 40
0.5
 40
0.5
 40
0.75
 40
0.75
 40
0.8750000000000001
 40
0.8750000000000001
 40
0.9375000000000001
 40
0.9375000000000001
 40
0.9687500000000001
 40
0.9687500000000001
 40
1.0
 40
1.0
 40
1.0
 40
1.0
 10
214.2550255635925
 20
151.6799162255404
 30
0.0
 10
214.2550255635925
 20
151.6799162255404
 30
0.0
 10
214.310874690191
 20
151.6799162255404
 30
0.0
 10
214.3865920754726
 20
151.6799162255404
 30
0.0
 10
214.410781424475
 20
151.6799162255404
 30
0.0
 10
214.4365251940682
 20
151.6799162255404
 30
0.0
 10
214.4433708428992
 20
151.6799162255404
 30
0.0
 10
214.4503106661147
 20
151.6799162255404
 30
0.0
 10
214.4520731100605
 20
151.6799162255404
 30
0.0
 10
214.453841286892
 20
151.6799162255404
 30
0.0
 10
214.4542850836621
 20
151.6799162255404
 30
0.0
 10
214.4548772578279
 20
151.6799162255404
 30
0.0
 10
214.4550256287581
 20
151.6799162255404
 30
0.0
 10
214.4550255635694
 20
151.6799162255404
 30
0.0
  0
SPLINE
  5
125
330
1F
100
AcDbEntity
  8
0
  6
HIDDEN
 62
     7
370
     0
100
AcDbSpline
210
0.0
220
0.0
230
1.0
 70
    24
 71
     3
 72
     9
 73
     5
 74
     0
 42
0.00000001
 43
0.00000001
 40
0.0
 40
0.0
 40
0.0
 40
0.0
 40
0.0740303141803281
 40
1.0
 40
1.0
 40
1.0
 40
1.0
 10
214.4110627630897
 20
151.6799160824892
 30
0.0
 10
214.4086028866881
 20
151.6799160824892
 30
0.0
 10
214.3753749255632
 20
151.6799160824893
 30
0.0
 10
214.3128870926544
 20
151.6799160824893
 30
0.0
 10
214.2550252536483
 20
151.6799160824892
 30
0.0
  0
LINE
  5
126
330
1F
100
AcDbEntity
  8
0
  6
HIDDEN
 62
     7
370
     0
100
AcDbLine
 10
214.2550252536
 20
151.6799160825
 30
0.0
 11
214.2550252536
 21
98.8799163686
 31
0.0
  0
SPLINE
  5
127
330
1F
100
AcDbEntity
  8
0
  6
HIDDEN
 62
     7
370
     0
100
AcDbSpline
210
0.0
220
0.0
230
1.0
 70
    24
 71
     3
 72
    18
 73
    14
 74
     0
 42
0.00000001
 43
0.00000001
 40
0.0
 40
0.0
 40
0.0
 40
0.0
 40
0.5
 40
0.5
 40
0.75
 40
0.75
 40
0.875
 40
0.875
 40
0.9375
 40
0.9375
 40
0.96875
 40
0.96875
 40
1.0
 40
1.0
 40
1.0
 40
1.0
 10
214.2550255635925
 20
98.87991622554038
 30
0.0
 10
214.2550255635925
 20
98.87991622554038
 30
0.0
 10
214.3108747124237
 20
98.8799162255404
 30
0.0
 10
214.3865921109637
 20
98.87991622554037
 30
0.0
 10
214.4107814610908
 20
98.87991622554038
 30
0.0
 10
214.4365252232995
 20
98.87991622554037
 30
0.0
 10
214.4433708681945
 20
98.87991622554038
 30
0.0
 10
214.4503106833694
 20
98.87991622554038
 30
0.0
 10
214.4520731242846
 20
98.87991622554038
 30
0.0
 10
214.4538412961058
 20
98.8799162255404
 30
0.0
 10
214.4542850911289
 20
98.87991622554038
 30
0.0
 10
214.4548772616609
 20
98.87991622554038
 30
0.0
 10
214.4550256305716
 20
98.87991622554038
 30
0.0
 10
214.4550255635681
 20
98.87991622554038
 30
0.0
  0
SPLINE
  5
128
330
1F
100
AcDbEntity
  8
0
  6
HIDDEN
 62
     7
370
     0
100
AcDbSpline
210
0.0
220
0.0
230
1.0
 70
    24
 71
     3
 72
     9
 73
     5
 74
     0
 42
0.00000001
 43
0.00000001
 40
0.0
 40
0.0
 40
0.0
 40
0.0
 40
0.0185507654739049
 40
1.0
 40
1.0
 40
1.0
 40
1.0
 10
214.4053053269334
 20
98.87991636859154
 30
0.0
 10
214.4047143099314
 20
98.87991636859154
 30
0.0
 10
214.372854869796
 20
98.87991636859158
 30
0.0
 10
214.3133884882736
 20
98.87991636859155
 30
0.0
 10
214.2550252536483
 20
98.87991636859154
 30
0.0
  0
LINE
  5
129
330
1F
100
AcDbEntity
  8
0
  6
HIDDEN
 62
     7
370
     0
100
AcDbLine
 10
214.2550252536
 20
98.8799163686
 30
0.0
 11
214.2550252536
 21
151.6799160825
 31
0.0
  0
SPLINE
  5
12A
330
1F
100
AcDbEntity
  8
0
  6
HIDDEN
 62
     7
370
     0
100
AcDbSpline
210
0.0
220
0.0
230
1.0
 70
     8
 71
     3
 72
    70
 73
    66
 74
     0
 42
0.00000001
 43
0.00000001
 40
-0.0312499999999994
 40
-0.0312499999999994
 40
0.0
 40
0.0
 40
0.0312500000000015
 40
0.0312500000000015
 40
0.062500000000003
 40
0.062500000000003
 40
0.0937500000000035
 40
0.0937500000000035
 40
0.125000000000004
 40
0.125000000000004
 40
0.1562500000000045
 40
0.1562500000000045
 40
0.187500000000005
 40
0.187500000000005
 40
0.2187500000000055
 40
0.2187500000000055
 40
0.2500000000000059
 40
0.2500000000000059
 40
0.2812500000000064
 40
0.2812500000000064
 40
0.3125000000000069
 40
0.3125000000000069
 40
0.3437500000000075
 40
0.3437500000000075
 40
0.375000000000008
 40
0.375000000000008
 40
0.4062500000000085
 40
0.4062500000000085
 40
0.437500000000009
 40
0.437500000000009
 40
0.4687500000000085
 40
0.4687500000000085
 40
0.5000000000000079
 40
0.5000000000000079
 40
0.5312500000000074
 40
0.5312500000000074
 40
0.5625000000000069
 40
0.5625000000000069
 40
0.5937500000000064
 40
0.5937500000000064
 40
0.6250000000000059
 40
0.6250000000000059
 40
0.6562500000000054
 40
0.6562500000000054
 40
0.687500000000005
 40
0.687500000000005
 40
0.7187500000000044
 40
0.7187500000000044
 40
0.750000000000004
 40
0.750000000000004
 40
0.7812500000000036
 40
0.7812500000000036
 40
0.812500000000003
 40
0.812500000000003
 40
0.8437500000000026
 40
0.8437500000000026
 40
0.875000000000002
 40
0.875000000000002
 40
0.9062500000000016
 40
0.9062500000000016
 40
0.9375000000000011
 40
0.9375000000000011
 40
0.9687500000000006
 40
0.9687500000000006
 40
1.0
 40
1.0
 40
1.031250000000002
 40
1.031250000000002
 10
218.1066541723585
 20
134.3318110816805
 30
0.0
 10
218.5033969548265
 20
134.3318110816805
 30
0.0
 10
218.6984201223958
 20
134.3502062623427
 30
0.0
 10
219.0820541548419
 20
134.4221369032637
 30
0.0
 10
219.2726654958697
 20
134.4765548586805
 30
0.0
 10
219.6358870088369
 20
134.6181028038481
 30
0.0
 10
219.8081321936732
 20
134.7045549266088
 30
0.0
 10
220.1341128154538
 20
134.9080520317069
 30
0.0
 10
220.2883276513924
 20
135.0260751422506
 30
0.0
 10
220.5648032108159
 20
135.2827438352781
 30
0.0
 10
220.6889267037292
 20
135.4223210688268
 30
0.0
 10
220.9082435221819
 20
135.7240235002621
 30
0.0
 10
221.0013412082895
 20
135.883755654264
 30
0.0
 10
221.1510134960777
 20
136.2125765419609
 30
0.0
 10
221.2086924561122
 20
136.3840993869392
 30
0.0
 10
221.2858207544581
 20
136.7331663511248
 30
0.0
 10
221.3049170789526
 20
136.9077055814966
 30
0.0
 10
221.3051331352787
 20
137.2566836649478
 30
0.0
 10
221.2856238884229
 20
137.4329045515749
 30
0.0
 10
221.2090292296598
 20
137.7718980335503
 30
0.0
 10
221.1523585617921
 20
137.9357085459723
 30
0.0
 10
221.0020243668397
 20
138.2522261815622
 30
0.0
 10
220.9081626945454
 20
138.404160220176
 30
0.0
 10
220.691125618973
 20
138.6841814953106
 30
0.0
 10
220.5671335307755
 20
138.8141168410432
 30
0.0
 10
220.2872726107611
 20
139.0532712785187
 30
0.0
 10
220.1359261816567
 20
139.1586546955416
 30
0.0
 10
219.8112469988483
 20
139.3427602430394
 30
0.0
 10
219.6358365727461
 20
139.4221155295956
 30
0.0
 10
219.2726276559383
 20
139.5489920773598
 30
0.0
 10
219.0856392559536
 20
139.5967147146491
 30
0.0
 10
218.7009464711221
 20
139.661280602709
 30
0.0
 10
218.5019999984435
 20
139.6777889371352
 30
0.0
 10
218.1102845836801
 20
139.6779111680227
 30
0.0
 10
217.9155125619658
 20
139.6620590103145
 30
0.0
 10
217.5281908301862
 20
139.5976383319146
 30
0.0
 10
217.3388365533241
 20
139.5493258697845
 30
0.0
 10
216.9776981010039
 20
139.4234900801106
 30
0.0
 10
216.8031442120412
 20
139.3449986310757
 30
0.0
 10
216.4751767978381
 20
139.159470110745
 30
0.0
 10
216.3241517901347
 20
139.0541122774465
 30
0.0
 10
216.047329621547
 20
138.8182127721591
 30
0.0
 10
215.9205787348394
 20
138.6860857534245
 30
0.0
 10
215.7026730071878
 20
138.4053986674728
 30
0.0
 10
215.6103785613321
 20
138.2563549344688
 30
0.0
 10
215.4594257268155
 20
137.9401583671289
 30
0.0
 10
215.4015005109457
 20
137.7733158440323
 30
0.0
 10
215.3248642252216
 20
137.435530678185
 30
0.0
 10
215.3052102347057
 20
137.262844889983
 30
0.0
 10
215.3048434574772
 20
136.9094366904049
 30
0.0
 10
215.3241526370007
 20
136.7345401539773
 30
0.0
 10
215.4001102206963
 20
136.3887452711076
 30
0.0
 10
215.4576886169031
 20
136.2159518401743
 30
0.0
 10
215.608013258615
 20
135.8848801355068
 30
0.0
 10
215.70002240875
 20
135.7270071333941
 30
0.0
 10
215.9174347479691
 20
135.4268820351167
 30
0.0
 10
216.0439028230417
 20
135.2841638733079
 30
0.0
 10
216.3201948589405
 20
135.0273247121357
 30
0.0
 10
216.4710032512301
 20
134.9114957957263
 30
0.0
 10
216.7986693950442
 20
134.7062294419989
 30
0.0
 10
216.9729604050735
 20
134.6187458574246
 30
0.0
 10
217.3337335812828
 20
134.4778064284326
 30
0.0
 10
217.5226438109734
 20
134.4233509547412
 30
0.0
 10
217.9105135034863
 20
134.3502089273247
 30
0.0
 10
218.1066541723585
 20
134.3318110816805
 30
0.0
 10
218.5033969548265
 20
134.3318110816805
 30
0.0
  0
LINE
  5
12B
330
1F
100
AcDbEntity
  8
0
  6
HIDDEN
 62
     7
370
     0
100
AcDbLine
 10
188.3050255636
 20
99.9559925483
 30
0.0
 11
188.3050255636
 21
150.5857014643
 31
0.0
  0
LINE
  5
12C
330
1F
100
AcDbEntity
  8
0
  6
HIDDEN
 62
     7
370
     0
100
AcDbLine
 10
193.2550255368
 20
145.1299169646
 30
0.0
 11
200.5006462494
 21
145.1299169646
 31
0.0
  0
SPLINE
  5
12D
330
1F
100
AcDbEntity
  8
0
  6
HIDDEN
 62
     7
370
     0
100
AcDbSpline
210
0.0
220
0.0
230
1.0
 70
     8
 71
     3
 72
    14
 73
    10
 74
     0
 42
0.00000001
 43
0.00000001
 40
0.0
 40
0.0
 40
0.0
 40
0.0
 40
0.4999999999999999
 40
0.4999999999999999
 40
0.7500000000000009
 40
0.7500000000000009
 40
0.8750000000000004
 40
0.8750000000000004
 40
1.0
 40
1.0
 40
1.0
 40
1.0
 10
157.5550255635925
 20
104.4101806926495
 30
0.0
 10
158.3629225876905
 20
104.4115929246747
 30
0.0
 10
159.1686867560167
 20
104.4179859023919
 30
0.0
 10
160.369127427025
 20
104.4470377140266
 30
0.0
 10
160.7679462803187
 20
104.4598706498004
 30
0.0
 10
161.3614746304673
 20
104.4903288313658
 30
0.0
 10
161.5585375288654
 20
104.5023414616278
 30
0.0
 10
161.9494765637147
 20
104.5339829289062
 30
0.0
 10
162.1438516155382
 20
104.5524170015804
 30
0.0
 10
162.3328991868775
 20
104.5836014776769
 30
0.0
  0
SPLINE
  5
12E
330
1F
100
AcDbEntity
  8
0
  6
HIDDEN
 62
     7
370
     0
100
AcDbSpline
210
0.0
220
0.0
230
1.0
 70
     8
 71
     3
 72
    10
 73
     6
 74
     0
 42
0.00000001
 43
0.00000001
 40
0.0
 40
0.0
 40
0.0
 40
0.0
 40
0.5
 40
0.5
 40
1.0
 40
1.0
 40
1.0
 40
1.0
 10
162.3328991868775
 20
104.5836014776769
 30
0.0
 10
162.7798401281021
 20
104.657326937356
 30
0.0
 10
163.2399520166443
 20
104.7236555892362
 30
0.0
 10
164.1668417203889
 20
104.8466850580696
 30
0.0
 10
164.6345454524246
 20
104.90341012852
 30
0.0
 10
165.1050255635925
 20
104.9570127999884
 30
0.0
  0
SPLINE
  5
12F
330
1F
100
AcDbEntity
  8
0
  6
HIDDEN
 62
     7
370
     0
100
AcDbSpline
210
0.0
220
0.0
230
1.0
 70
     8
 71
     3
 72
    14
 73
    10
 74
     0
 42
0.00000001
 43
0.00000001
 40
0.0
 40
0.0
 40
0.0
 40
0.0
 40
0.1250000000000009
 40
0.1250000000000009
 40
0.2500000000000017
 40
0.2500000000000017
 40
0.5000000000000011
 40
0.5000000000000011
 40
1.0
 40
1.0
 40
1.0
 40
1.0
 10
165.1050255635925
 20
104.9570127999884
 30
0.0
 10
165.161800318813
 20
104.9634812531271
 30
0.0
 10
165.2244834197421
 20
104.9576239499183
 30
0.0
 10
165.3303711942802
 20
104.9277276285805
 30
0.0
 10
165.3742754518813
 20
104.9058526866256
 30
0.0
 10
165.4867087000389
 20
104.8364813999588
 30
0.0
 10
165.5398369039013
 20
104.7839823457574
 30
0.0
 10
165.6748243656415
 20
104.6286993374391
 30
0.0
 10
165.7330850771213
 20
104.5229128636048
 30
0.0
 10
165.7803529107399
 20
104.4204233375152
 30
0.0
  0
SPLINE
  5
130
330
1F
100
AcDbEntity
  8
0
  6
HIDDEN
 62
     7
370
     0
100
AcDbSpline
210
0.0
220
0.0
230
1.0
 70
     8
 71
     3
 72
    12
 73
     8
 74
     0
 42
0.00000001
 43
0.00000001
 40
0.0
 40
0.0
 40
0.0
 40
0.0
 40
0.2499999999999999
 40
0.2499999999999999
 40
0.4999999999999998
 40
0.4999999999999998
 40
1.0
 40
1.0
 40
1.0
 40
1.0
 10
165.7803529107255
 20
104.4204233375144
 30
0.0
 10
165.8291934810605
 20
104.3145236902431
 30
0.0
 10
165.9142403962605
 20
104.2125901288356
 30
0.0
 10
166.083891804824
 20
104.0160839235974
 30
0.0
 10
166.1703538035503
 20
103.9210565619984
 30
0.0
 10
166.3957470084672
 20
103.6437780676394
 30
0.0
 10
166.5050255635925
 20
103.4690606948287
 30
0.0
 10
166.5050255635925
 20
103.3056005173833
 30
0.0
  0
LINE
  5
131
330
1F
100
AcDbEntity
  8
0
  6
HIDDEN
 62
     7
370
     0
100
AcDbLine
 10
166.5050253431
 20
103.3056003587
 30
0.0
 11
166.5050253431
 21
102.0514702039
 31
0.0
  0
LINE
  5
132
330
1F
100
AcDbEntity
  8
0
  6
HIDDEN
 62
     7
370
     0
100
AcDbLine
 10
162.5050246874
 20
148.3079621183
 30
0.0
 11
162.5050246874
 21
147.1240238832
 31
0.0
  0
SPLINE
  5
133
330
1F
100
AcDbEntity
  8
0
  6
HIDDEN
 62
     7
370
     0
100
AcDbSpline
210
0.0
220
0.0
230
1.0
 70
     8
 71
     3
 72
    18
 73
    14
 74
     0
 42
0.00000001
 43
0.00000001
 40
0.0
 40
0.0
 40
0.0
 40
0.0
 40
0.2500000000000002
 40
0.2500000000000002
 40
0.5000000000000012
 40
0.5000000000000012
 40
0.7500000000000022
 40
0.7500000000000022
 40
0.8750000000000016
 40
0.8750000000000016
 40
0.9375000000000009
 40
0.9375000000000009
 40
1.0
 40
1.0
 40
1.0
 40
1.0
 10
162.5050255635925
 20
147.1240238979034
 30
0.0
 10
162.5050255635925
 20
147.0408169890462
 30
0.0
 10
162.4691764636542
 20
146.9520803337326
 30
0.0
 10
162.3443047276203
 20
146.7699551431724
 30
0.0
 10
162.2539043099724
 20
146.6748250945458
 30
0.0
 10
162.0316616552303
 20
146.4856435854214
 30
0.0
 10
161.9018968687845
 20
146.3906984173267
 30
0.0
 10
161.661259411473
 20
146.2524197097468
 30
0.0
 10
161.5734921133355
 20
146.2067092764444
 30
0.0
 10
161.4189680261287
 20
146.1488859712229
 30
0.0
 10
161.362357140074
 20
146.1311712071851
 30
0.0
 10
161.2383131091674
 20
146.1066319039521
 30
0.0
 10
161.170598434149
 20
146.1006527654139
 30
0.0
 10
161.1050255635925
 20
146.1030036173681
 30
0.0
  0
SPLINE
  5
134
330
1F
100
AcDbEntity
  8
0
  6
HIDDEN
 62
     7
370
     0
100
AcDbSpline
210
0.0
220
0.0
230
1.0
 70
     8
 71
     3
 72
    10
 73
     6
 74
     0
 42
0.00000001
 43
0.00000001
 40
0.0
 40
0.0
 40
0.0
 40
0.0
 40
0.5
 40
0.5
 40
1.0
 40
1.0
 40
1.0
 40
1.0
 10
161.1050255635925
 20
146.1030036173681
 30
0.0
 10
160.5174400165019
 20
146.1240691376045
 30
0.0
 10
159.9266936230415
 20
146.1348276234768
 30
0.0
 10
158.7426744577426
 20
146.1481924040124
 30
0.0
 10
158.1492604695372
 20
146.150335046677
 30
0.0
 10
157.5550255635925
 20
146.1498539909355
 30
0.0
  0
SPLINE
  5
135
330
1F
100
AcDbEntity
  8
0
  6
HIDDEN
 62
     7
370
     0
100
AcDbSpline
210
0.0
220
0.0
230
1.0
 70
     8
 71
     3
 72
     8
 73
     4
 74
     0
 42
0.00000001
 43
0.00000001
 40
0.0000003292049693
 40
0.0000003292049693
 40
0.0000003292049693
 40
0.0000003292049693
 40
0.000016905094931
 40
0.000016905094931
 40
0.000016905094931
 40
0.000016905094931
 10
157.5550255635924
 20
146.1498539909355
 30
0.0
 10
157.5516689814556
 20
146.1479419968386
 30
0.0
 10
157.5483206173301
 20
146.1460267065835
 30
0.0
 10
157.5449806331611
 20
146.1441080979681
 30
0.0
  0
SPLINE
  5
136
330
1F
100
AcDbEntity
  8
0
  6
HIDDEN
 62
     7
370
     0
100
AcDbSpline
210
0.0
220
0.0
230
1.0
 70
     8
 71
     3
 72
     8
 73
     4
 74
     0
 42
0.00000001
 43
0.00000001
 40
0.0000003409637668
 40
0.0000003409637668
 40
0.0000003409637668
 40
0.0000003409637668
 40
0.000017415394438
 40
0.000017415394438
 40
0.000017415394438
 40
0.000017415394438
 10
157.5449806331742
 20
104.4161764904412
 30
0.0
 10
157.5483192839325
 20
104.4141742553438
 30
0.0
 10
157.5516676591122
 20
104.4121756635737
 30
0.0
 10
157.5550255635925
 20
104.4101806926495
 30
0.0
  0
LINE
  5
137
330
1F
100
AcDbEntity
  8
0
  6
HIDDEN
 62
     7
370
     0
100
AcDbLine
 10
186.3050254686
 20
149.5003474491
 30
0.0
 11
186.3050254686
 21
101.059485002
 31
0.0
  0
SPLINE
  5
138
330
1F
100
AcDbEntity
  8
0
  6
HIDDEN
 62
     7
370
     0
100
AcDbSpline
210
0.0
220
0.0
230
1.0
 70
     8
 71
     3
 72
    12
 73
     8
 74
     0
 42
0.00000001
 43
0.00000001
 40
0.0
 40
0.0
 40
0.0
 40
0.0
 40
0.1192153572537782
 40
0.2486291370015994
 40
0.5007187166807885
 40
0.753705439744719
 40
0.9999999999999999
 40
0.9999999999999999
 40
0.9999999999999999
 40
0.9999999999999999
 10
176.3001760626383
 20
101.7553170757172
 30
0.0
 10
176.2180331987423
 20
101.7475813527771
 30
0.0
 10
176.0467204599161
 20
101.731448145085
 30
0.0
 10
175.6803668474583
 20
101.6984718511084
 30
0.0
 10
175.3756035862987
 20
101.6602950814455
 30
0.0
 10
175.1172246526386
 20
101.628417615869
 30
0.0
 10
175.0882330659556
 20
101.6243932456797
 30
0.0
 10
175.0739315683194
 20
101.6224080310938
 30
0.0
  0
SPLINE
  5
139
330
1F
100
AcDbEntity
  8
0
  6
HIDDEN
 62
     7
370
     0
100
AcDbSpline
210
0.0
220
0.0
230
1.0
 70
     8
 71
     3
 72
    20
 73
    16
 74
     0
 42
0.00000001
 43
0.00000001
 40
0.0
 40
0.0
 40
0.0
 40
0.0
 40
0.001437142555551
 40
0.0850458965237325
 40
0.1697599737566609
 40
0.2540983572194236
 40
0.337329559157597
 40
0.4202346543774696
 40
0.5035601673255862
 40
0.5868465303357372
 40
0.6687599864841126
 40
0.7507345960013674
 40
0.8338925311456853
 40
0.9172624283936205
 40
1.0
 40
1.0
 40
1.0
 40
1.0
 10
183.488092028553
 20
101.2008579062102
 30
0.0
 10
183.4885451086184
 20
101.2007544465947
 30
0.0
 10
183.5153570628061
 20
101.1946320088989
 30
0.0
 10
183.4193190293263
 20
101.2166981960476
 30
0.0
 10
183.1862776215851
 20
101.2685888017122
 30
0.0
 10
182.7924912288458
 20
101.3536417942376
 30
0.0
 10
182.2680329678078
 20
101.4553999627435
 30
0.0
 10
181.6290697857351
 20
101.5632951560258
 30
0.0
 10
180.8959045084434
 20
101.664341935027
 30
0.0
 10
180.1033415116008
 20
101.7487510648063
 30
0.0
 10
179.2785926210254
 20
101.8061532903772
 30
0.0
 10
178.4518752991217
 20
101.8329110179525
 30
0.0
 10
177.6575678663077
 20
101.8284768143298
 30
0.0
 10
176.914138193671
 20
101.8011602360138
 30
0.0
 10
176.5043100718429
 20
101.7705592993544
 30
0.0
 10
176.3001760626383
 20
101.7553170757172
 30
0.0
  0
SPLINE
  5
13A
330
1F
100
AcDbEntity
  8
0
  6
HIDDEN
 62
     7
370
     0
100
AcDbSpline
210
0.0
220
0.0
230
1.0
 70
     8
 71
     3
 72
    20
 73
    16
 74
     0
 42
0.00000001
 43
0.00000001
 40
0.0
 40
0.0
 40
0.0
 40
0.0
 40
0.0828182200643154
 40
0.1661936689022571
 40
0.2493852920304393
 40
0.3315154858705138
 40
0.413380769036991
 40
0.4968356030727598
 40
0.5800413963872413
 40
0.6629790193136592
 40
0.7460493153741201
 40
0.8302847929446943
 40
0.9148461955451018
 40
0.9984038503992553
 40
0.9999999999999999
 40
0.9999999999999999
 40
0.9999999999999999
 40
0.9999999999999999
 10
176.3000829303809
 20
148.8044986115572
 30
0.0
 10
176.504734753759
 20
148.7893093737985
 30
0.0
 10
176.9154153666523
 20
148.758828699993
 30
0.0
 10
177.6591405987308
 20
148.7315152822367
 30
0.0
 10
178.4541000953542
 20
148.7271031766384
 30
0.0
 10
179.2812287274703
 20
148.7537712997709
 30
0.0
 10
180.1069704501614
 20
148.8112353979544
 30
0.0
 10
180.8992475635563
 20
148.8958226557821
 30
0.0
 10
181.6320706546908
 20
148.9969982129657
 30
0.0
 10
182.2699806421308
 20
149.1047820323134
 30
0.0
 10
182.7938352132894
 20
149.2063896407467
 30
0.0
 10
183.1869792049054
 20
149.291281240274
 30
0.0
 10
183.419644797616
 20
149.3431105702055
 30
0.0
 10
183.5157069499575
 20
149.3652299213093
 30
0.0
 10
183.4885466474064
 20
149.3590603862472
 30
0.0
 10
183.4880375461824
 20
149.3589447425482
 30
0.0
  0
SPLINE
  5
13B
330
1F
100
AcDbEntity
  8
0
  6
HIDDEN
 62
     7
370
     0
100
AcDbSpline
210
0.0
220
0.0
230
1.0
 70
     8
 71
     3
 72
    12
 73
     8
 74
     0
 42
0.00000001
 43
0.00000001
 40
0.0
 40
0.0
 40
0.0
 40
0.0
 40
0.24684126657015
 40
0.4995707768295318
 40
0.7516701332889744
 40
0.8176861283293371
 40
1.0
 40
1.0
 40
1.0
 40
1.0
 10
175.0735264429994
 20
148.9374560849545
 30
0.0
 10
175.0876398676697
 20
148.9354375894362
 30
0.0
 10
175.1162033839094
 20
148.9313524484543
 30
0.0
 10
175.3769936969281
 20
148.8993543900478
 30
0.0
 10
175.6438823709385
 20
148.8650877017747
 30
0.0
 10
176.0025589718409
 20
148.8323952310784
 30
0.0
 10
176.1741255787193
 20
148.8163087001714
 30
0.0
 10
176.3000829303809
 20
148.8044986115572
 30
0.0
  0
LWPOLYLINE
  5
13C
330
1F
100
AcDbEntity
  8
0
  6
HIDDEN
 62
     7
370
     0
100
AcDbPolyline
 90
       27
 70
   128
 43
0.0
 10
217.5497912029
 20
120.2718678476
 10
217.6391609172
 20
120.0938678892
 10
217.6262136707
 20
119.8181540319
 10
217.5117019722
 20
119.4607492151
 10
217.3022810528
 20
119.0424256572
 10
217.0101232985
 20
118.5874936716
 10
216.6522067199
 20
118.1223930405
 10
216.2493314753
 20
117.6741530733
 10
215.8249110142
 20
117.268824725
 10
215.4036123464
 20
116.9299630062
 10
215.0099199424
 20
116.6772625955
 10
214.6667126725
 20
116.525408587
 10
214.3939376036
 20
116.483227125
 10
214.207445846
 20
116.553168519
 10
214.1180779943
 20
116.7311684774
 10
214.1310252408
 20
117.0068828003
 10
214.2455350766
 20
117.3642871516
 10
214.454955996
 20
117.7826107094
 10
214.7471137503
 20
118.237542695
 10
215.105030329
 20
118.7026433261
 10
215.5079055736
 20
119.1508832933
 10
215.9323260347
 20
119.5562116416
 10
216.3536247024
 20
119.8950728947
 10
216.7473171065
 20
120.1477737712
 10
217.0905243764
 20
120.2996277796
 10
217.3632994453
 20
120.3418097073
 10
217.5497912029
 20
120.2718678476
  0
SPLINE
  5
13D
330
1F
100
AcDbEntity
  8
0
  6
HIDDEN
 62
     7
370
     0
100
AcDbSpline
210
0.0
220
0.0
230
1.0
 70
     8
 71
     3
 72
    10
 73
     6
 74
     0
 42
0.00000001
 43
0.00000001
 40
0.0
 40
0.0
 40
0.0
 40
0.0
 40
0.5
 40
0.5
 40
1.0
 40
1.0
 40
1.0
 40
1.0
 10
219.5483483417172
 20
118.1326146478028
 30
0.0
 10
219.6973277158299
 20
117.9789375027997
 30
0.0
 10
219.8481680179441
 20
117.8325002895678
 30
0.0
 10
220.1561088982123
 20
117.5588414600932
 30
0.0
 10
220.3142576172378
 20
117.4309506902542
 30
0.0
 10
220.4704058574611
 20
117.3133753593717
 30
0.0
  0
SPLINE
  5
13E
330
1F
100
AcDbEntity
  8
0
  6
HIDDEN
 62
     7
370
     0
100
AcDbSpline
210
0.0
220
0.0
230
1.0
 70
     8
 71
     3
 72
    82
 73
    78
 74
     0
 42
0.00000001
 43
0.00000001
 40
0.0
 40
0.0
 40
0.0
 40
0.0
 40
0.0156250000000004
 40
0.0156250000000004
 40
0.0312500000000008
 40
0.0312500000000008
 40
0.0468750000000012
 40
0.0468750000000012
 40
0.0625000000000016
 40
0.0625000000000016
 40
0.0937500000000018
 40
0.0937500000000018
 40
0.1250000000000021
 40
0.1250000000000021
 40
0.1562500000000023
 40
0.1562500000000023
 40
0.1875000000000025
 40
0.1875000000000025
 40
0.2187500000000027
 40
0.2187500000000027
 40
0.250000000000003
 40
0.250000000000003
 40
0.2812500000000032
 40
0.2812500000000032
 40
0.3125000000000035
 40
0.3125000000000035
 40
0.3437500000000037
 40
0.3437500000000037
 40
0.3750000000000039
 40
0.3750000000000039
 40
0.4062500000000042
 40
0.4062500000000042
 40
0.4375000000000044
 40
0.4375000000000044
 40
0.4687500000000047
 40
0.4687500000000047
 40
0.4843750000000046
 40
0.4843750000000046
 40
0.5000000000000044
 40
0.5000000000000044
 40
0.5156250000000044
 40
0.5156250000000044
 40
0.5312500000000042
 40
0.5312500000000042
 40
0.5625000000000039
 40
0.5625000000000039
 40
0.5937500000000037
 40
0.5937500000000037
 40
0.6250000000000033
 40
0.6250000000000033
 40
0.656250000000003
 40
0.656250000000003
 40
0.6875000000000027
 40
0.6875000000000027
 40
0.7187500000000023
 40
0.7187500000000023
 40
0.750000000000002
 40
0.750000000000002
 40
0.7812500000000018
 40
0.7812500000000018
 40
0.8125000000000014
 40
0.8125000000000014
 40
0.8437500000000011
 40
0.8437500000000011
 40
0.8750000000000008
 40
0.8750000000000008
 40
0.9062500000000004
 40
0.9062500000000004
 40
0.9375000000000002
 40
0.9375000000000002
 40
0.953125
 40
0.953125
 40
0.9687499999999999
 40
0.9687499999999999
 40
0.9843749999999999
 40
0.9843749999999999
 40
1.0
 40
1.0
 40
1.0
 40
1.0
 10
220.4704058574829
 20
117.3133753594055
 30
0.0
 10
220.4523247970975
 20
117.3819782206921
 30
0.0
 10
220.440935059956
 20
117.4411932403464
 30
0.0
 10
220.4439895268996
 20
117.5241659974051
 30
0.0
 10
220.4581539055098
 20
117.5457966548061
 30
0.0
 10
220.497224816149
 20
117.5639467485644
 30
0.0
 10
220.5211628495166
 20
117.5612929309022
 30
0.0
 10
220.5696628748112
 20
117.5447647016405
 30
0.0
 10
220.5944904094733
 20
117.5304985180489
 30
0.0
 10
220.6646951614432
 20
117.477015374103
 30
0.0
 10
220.7060150703362
 20
117.427392795135
 30
0.0
 10
220.7690588429187
 20
117.3097850656024
 30
0.0
 10
220.7911200190947
 20
117.2407995819801
 30
0.0
 10
220.8093810656988
 20
117.0867490161304
 30
0.0
 10
220.8058240524031
 20
117.0020972172337
 30
0.0
 10
220.7674632985562
 20
116.8163323697979
 30
0.0
 10
220.7319781267574
 20
116.7141074611598
 30
0.0
 10
220.6244301996548
 20
116.4993828302182
 30
0.0
 10
220.5511952413593
 20
116.3844783051137
 30
0.0
 10
220.3643326074301
 20
116.1487500169439
 30
0.0
 10
220.2510539694569
 20
116.0282814580422
 30
0.0
 10
219.9881781735063
 20
115.790704035801
 30
0.0
 10
219.8429653228662
 20
115.6772234790281
 30
0.0
 10
219.5265822700266
 20
115.4618193902245
 30
0.0
 10
219.3630775128989
 20
115.3650372503118
 30
0.0
 10
219.0267956055725
 20
115.1903944280715
 30
0.0
 10
218.8597334673124
 20
115.1155529320646
 30
0.0
 10
218.5299988719402
 20
114.98751920231
 30
0.0
 10
218.3655364295784
 20
114.9338897604787
 30
0.0
 10
218.0503769862916
 20
114.8493249581976
 30
0.0
 10
217.8983297666595
 20
114.8177058753965
 30
0.0
 10
217.6022819874269
 20
114.7748816038234
 30
0.0
 10
217.4577266196434
 20
114.7635736428331
 30
0.0
 10
217.178372658865
 20
114.766412385481
 30
0.0
 10
217.0426755669146
 20
114.779109947319
 30
0.0
 10
216.8382013603195
 20
114.8363367553586
 30
0.0
 10
216.769101592062
 20
114.8623344710572
 30
0.0
 10
216.6301249603492
 20
114.9394218551294
 30
0.0
 10
216.5589723988313
 20
114.9928313681138
 30
0.0
 10
216.429249376803
 20
115.1239324209039
 30
0.0
 10
216.3698143043681
 20
115.2014326870769
 30
0.0
 10
216.266113891634
 20
115.3599818021995
 30
0.0
 10
216.2199858732197
 20
115.4431745543206
 30
0.0
 10
216.0959070752944
 20
115.694071876569
 30
0.0
 10
216.0303157025853
 20
115.8654506233803
 30
0.0
 10
215.9222881203912
 20
116.2175323847971
 30
0.0
 10
215.8802638689387
 20
116.3995609802968
 30
0.0
 10
215.8225431661295
 20
116.7663128410696
 30
0.0
 10
215.8066301498553
 20
116.9511525503897
 30
0.0
 10
215.8036483172672
 20
117.3245170670409
 30
0.0
 10
215.8169514371622
 20
117.5152393115811
 30
0.0
 10
215.8784772838033
 20
117.8887020166139
 30
0.0
 10
215.9261297357509
 20
118.0712375189666
 30
0.0
 10
216.0638360588795
 20
118.4257543200645
 30
0.0
 10
216.1512844343135
 20
118.5906153236244
 30
0.0
 10
216.367723564785
 20
118.8898100757223
 30
0.0
 10
216.4946346010074
 20
119.0200537919954
 30
0.0
 10
216.7751407818166
 20
119.2301731002131
 30
0.0
 10
216.9298329158685
 20
119.3104401947492
 30
0.0
 10
217.2461126155641
 20
119.416817199994
 30
0.0
 10
217.4101877466587
 20
119.4440835747004
 30
0.0
 10
217.730929534885
 20
119.4539568557645
 30
0.0
 10
217.8916408328986
 20
119.436968414286
 30
0.0
 10
218.2019929269779
 20
119.3682156691214
 30
0.0
 10
218.3510697064918
 20
119.3170414790384
 30
0.0
 10
218.6383067704908
 20
119.1875110461151
 30
0.0
 10
218.7773969392292
 20
119.1083748007517
 30
0.0
 10
219.0379234534489
 20
118.9296839591979
 30
0.0
 10
219.1597945802085
 20
118.830236662327
 30
0.0
 10
219.325236129548
 20
118.6693919984906
 30
0.0
 10
219.3774598762531
 20
118.6138239315922
 30
0.0
 10
219.4726592023319
 20
118.4998343249546
 30
0.0
 10
219.5158623601456
 20
118.4411568234599
 30
0.0
 10
219.5805699181722
 20
118.328433026985
 30
0.0
 10
219.6014559941651
 20
118.2744586046518
 30
0.0
 10
219.6017657302883
 20
118.1870872003973
 30
0.0
 10
219.5812024041868
 20
118.1559239967014
 30
0.0
 10
219.5483483416471
 20
118.1326146479009
 30
0.0
  0
SPLINE
  5
13F
330
1F
100
AcDbEntity
  8
0
  6
HIDDEN
 62
     7
370
     0
100
AcDbSpline
210
0.0
220
0.0
230
1.0
 70
    11
 71
     3
 72
    22
 73
    18
 74
     0
 42
0.00000001
 43
0.00000001
 40
0.0
 40
0.0
 40
0.0
 40
0.0
 40
0.125
 40
0.125
 40
0.25
 40
0.25
 40
0.375
 40
0.375
 40
0.5
 40
0.5
 40
0.625
 40
0.625
 40
0.75
 40
0.75
 40
0.875
 40
0.875
 40
1.0
 40
1.0
 40
1.0
 40
1.0
 10
182.0600275651941
 20
145.1174447013568
 30
0.0
 10
182.2189703941632
 20
145.1395184094039
 30
0.0
 10
182.3596619420535
 20
145.1562022273915
 30
0.0
 10
182.6056481795159
 20
145.1824239222738
 30
0.0
 10
182.7116862621972
 20
145.1920032281191
 30
0.0
 10
182.8821783027643
 20
145.2060824951982
 30
0.0
 10
182.946231002228
 20
145.2105890714453
 30
0.0
 10
183.0327350533209
 20
145.2164532412832
 30
0.0
 10
183.0549685486811
 20
145.2177951738015
 30
0.0
 10
183.055082354693
 20
145.217802313551
 30
0.0
 10
183.0336244262078
 20
145.2165096780648
 30
0.0
 10
182.9476386333288
 20
145.2106882485546
 30
0.0
 10
182.8823244865793
 20
145.2060887792787
 30
0.0
 10
182.7133186526438
 20
145.1921437584689
 30
0.0
 10
182.609359614768
 20
145.1827913716106
 30
0.0
 10
182.3618491685291
 20
145.1564629011442
 30
0.0
 10
182.2189650784454
 20
145.1395176711661
 30
0.0
 10
182.0600275651944
 20
145.1174447013569
 30
0.0
  0
SPLINE
  5
140
330
1F
100
AcDbEntity
  8
0
  6
HIDDEN
 62
     7
370
     0
100
AcDbSpline
210
0.0
220
0.0
230
1.0
 70
    11
 71
     3
 72
    22
 73
    18
 74
     0
 42
0.00000001
 43
0.00000001
 40
0.0
 40
0.0
 40
0.0
 40
0.0
 40
0.125
 40
0.125
 40
0.25
 40
0.25
 40
0.375
 40
0.375
 40
0.5
 40
0.5
 40
0.625
 40
0.625
 40
0.75
 40
0.75
 40
0.875
 40
0.875
 40
1.0
 40
1.0
 40
1.0
 40
1.0
 10
182.0600275651941
 20
105.4423877497239
 30
0.0
 10
182.2189703941632
 20
105.4203140416769
 30
0.0
 10
182.3596619420535
 20
105.4036302236893
 30
0.0
 10
182.6056481795159
 20
105.377408528807
 30
0.0
 10
182.7116862621972
 20
105.3678292229617
 30
0.0
 10
182.8821783027643
 20
105.3537499558825
 30
0.0
 10
182.946231002228
 20
105.3492433796355
 30
0.0
 10
183.0327350533209
 20
105.3433792097976
 30
0.0
 10
183.0549685486811
 20
105.3420372772793
 30
0.0
 10
183.055082354693
 20
105.3420301375298
 30
0.0
 10
183.0336244262078
 20
105.343322773016
 30
0.0
 10
182.9476386333288
 20
105.3491442025262
 30
0.0
 10
182.8823244865793
 20
105.353743671802
 30
0.0
 10
182.7133186526438
 20
105.3676886926119
 30
0.0
 10
182.609359614768
 20
105.3770410794702
 30
0.0
 10
182.3618491685291
 20
105.4033695499366
 30
0.0
 10
182.2189650784454
 20
105.4203147799146
 30
0.0
 10
182.0600275651944
 20
105.4423877497238
 30
0.0
  0
LINE
  5
141
330
1F
100
AcDbEntity
  8
0
  6
HIDDEN
 62
     7
370
     0
100
AcDbLine
 10
188.3050255636
 20
108.2799153017
 30
0.0
 11
188.3050255636
 21
142.2799171494
 31
0.0
  0
SPLINE
  5
142
330
1F
100
AcDbEntity
  8
0
  6
HIDDEN
 62
     7
370
     0
100
AcDbSpline
210
0.0
220
0.0
230
1.0
 70
    11
 71
     3
 72
    56
 73
    52
 74
     0
 42
0.00000001
 43
0.00000001
 40
0.0
 40
0.0
 40
0.0
 40
0.0
 40
0.0624999999999999
 40
0.0624999999999999
 40
0.0937499999999999
 40
0.0937499999999999
 40
0.1249999999999999
 40
0.1249999999999999
 40
0.15625
 40
0.15625
 40
0.1875
 40
0.1875
 40
0.21875
 40
0.21875
 40
0.25
 40
0.25
 40
0.3125000000000003
 40
0.3125000000000003
 40
0.3437500000000004
 40
0.3437500000000004
 40
0.3750000000000005
 40
0.3750000000000005
 40
0.4062500000000007
 40
0.4062500000000007
 40
0.4375000000000008
 40
0.4375000000000008
 40
0.4687500000000009
 40
0.4687500000000009
 40
0.500000000000001
 40
0.500000000000001
 40
0.5625000000000011
 40
0.5625000000000011
 40
0.6250000000000012
 40
0.6250000000000012
 40
0.6875000000000013
 40
0.6875000000000013
 40
0.7187500000000013
 40
0.7187500000000013
 40
0.7500000000000012
 40
0.7500000000000012
 40
0.7812500000000012
 40
0.7812500000000012
 40
0.8125000000000012
 40
0.8125000000000012
 40
0.8750000000000008
 40
0.8750000000000008
 40
0.9375000000000003
 40
0.9375000000000003
 40
0.9687500000000001
 40
0.9687500000000001
 40
1.0
 40
1.0
 40
1.0
 40
1.0
 10
182.0600275651941
 20
105.4423877497239
 30
0.0
 10
181.8042402546463
 20
105.4779110536175
 30
0.0
 10
181.514050447703
 20
105.5134549225857
 30
0.0
 10
181.0273973494123
 20
105.5599266224946
 30
0.0
 10
180.857051507251
 20
105.5741725357261
 30
0.0
 10
180.51007809716
 20
105.5984604499245
 30
0.0
 10
180.3321401999253
 20
105.6086367962465
 30
0.0
 10
179.9672209223655
 20
105.6243121238504
 30
0.0
 10
179.7788863302702
 20
105.6297990850633
 30
0.0
 10
179.4049994778147
 20
105.6352590793391
 30
0.0
 10
179.2183092636448
 20
105.6353173025982
 30
0.0
 10
178.8454307727255
 20
105.6301331606214
 30
0.0
 10
178.6577265298032
 20
105.62481768215
 30
0.0
 10
178.2908076302556
 20
105.6093153011267
 30
0.0
 10
178.1123578881911
 20
105.599215893366
 30
0.0
 10
177.5915689848304
 20
105.5630840517121
 30
0.0
 10
177.2606852651594
 20
105.530654830694
 30
0.0
 10
176.8241837068279
 20
105.4791283393269
 30
0.0
 10
176.6873981677753
 20
105.4614037282829
 30
0.0
 10
176.4316735583214
 20
105.4260094017736
 30
0.0
 10
176.3140498302159
 20
105.408512880393
 30
0.0
 10
176.1039803770273
 20
105.3758104844045
 30
0.0
 10
176.0106455383422
 20
105.3604786754585
 30
0.0
 10
175.8476998276631
 20
105.3328825161097
 30
0.0
 10
175.7779968648132
 20
105.3205958329961
 30
0.0
 10
175.6673737984811
 20
105.3007508412096
 30
0.0
 10
175.6256921268707
 20
105.2930647286829
 30
0.0
 10
175.5695169864954
 20
105.2826473483057
 30
0.0
 10
175.5550787107349
 20
105.2799261906292
 30
0.0
 10
175.5549197156323
 20
105.2798963790486
 30
0.0
 10
175.6105790533691
 20
105.2905585091966
 30
0.0
 10
175.8334038139034
 20
105.3305391809316
 30
0.0
 10
175.9953160994971
 20
105.3588754325639
 30
0.0
 10
176.4191076582329
 20
105.4248863415239
 30
0.0
 10
176.6739540807802
 20
105.4613462143152
 30
0.0
 10
177.1125977408939
 20
105.5131977373015
 30
0.0
 10
177.2692952771734
 20
105.5300853713615
 30
0.0
 10
177.5924952269519
 20
105.5607787919824
 30
0.0
 10
177.7601687083722
 20
105.5747385989263
 30
0.0
 10
178.1077535745609
 20
105.5989380280774
 30
0.0
 10
178.2893170553799
 20
105.6092349769082
 30
0.0
 10
178.6555033301887
 20
105.6247409237702
 30
0.0
 10
178.840160746031
 20
105.6300069056671
 30
0.0
 10
179.3987571525895
 20
105.6379297289227
 30
0.0
 10
179.78109149406
 20
105.632215605549
 30
0.0
 10
180.5083886384284
 20
105.6011565193868
 30
0.0
 10
180.8640827125284
 20
105.5754678833368
 30
0.0
 10
181.3473949894793
 20
105.5293958731287
 30
0.0
 10
181.5010925966959
 20
105.5127937147124
 30
0.0
 10
181.793514821539
 20
105.4781738594981
 30
0.0
 10
181.9321300447442
 20
105.4601499384597
 30
0.0
 10
182.0600275651941
 20
105.4423877497239
 30
0.0
  0
SPLINE
  5
143
330
1F
100
AcDbEntity
  8
0
  6
HIDDEN
 62
     7
370
     0
100
AcDbSpline
210
0.0
220
0.0
230
1.0
 70
    11
 71
     3
 72
    56
 73
    52
 74
     0
 42
0.00000001
 43
0.00000001
 40
0.0
 40
0.0
 40
0.0
 40
0.0
 40
0.0625000000000003
 40
0.0625000000000003
 40
0.0937500000000004
 40
0.0937500000000004
 40
0.1250000000000006
 40
0.1250000000000006
 40
0.1562500000000008
 40
0.1562500000000008
 40
0.1875000000000009
 40
0.1875000000000009
 40
0.2187500000000011
 40
0.2187500000000011
 40
0.2500000000000013
 40
0.2500000000000013
 40
0.3125000000000013
 40
0.3125000000000013
 40
0.3437500000000012
 40
0.3437500000000012
 40
0.3750000000000012
 40
0.3750000000000012
 40
0.4062500000000012
 40
0.4062500000000012
 40
0.4375000000000012
 40
0.4375000000000012
 40
0.4687500000000011
 40
0.4687500000000011
 40
0.5000000000000011
 40
0.5000000000000011
 40
0.562500000000001
 40
0.562500000000001
 40
0.625000000000001
 40
0.625000000000001
 40
0.6875000000000009
 40
0.6875000000000009
 40
0.7187500000000009
 40
0.7187500000000009
 40
0.7500000000000008
 40
0.7500000000000008
 40
0.7812500000000007
 40
0.7812500000000007
 40
0.8125000000000006
 40
0.8125000000000006
 40
0.8750000000000003
 40
0.8750000000000003
 40
0.9375000000000001
 40
0.9375000000000001
 40
0.9687500000000001
 40
0.9687500000000001
 40
1.0
 40
1.0
 40
1.0
 40
1.0
 10
182.0600275651941
 20
145.1174447013568
 30
0.0
 10
181.8042402546463
 20
145.0819213974633
 30
0.0
 10
181.514050447703
 20
145.0463775284951
 30
0.0
 10
181.0273973494122
 20
144.9999058285862
 30
0.0
 10
180.857051507251
 20
144.9856599153547
 30
0.0
 10
180.51007809716
 20
144.9613720011563
 30
0.0
 10
180.3321401999253
 20
144.9511956548342
 30
0.0
 10
179.9672209223655
 20
144.9355203272303
 30
0.0
 10
179.7788863302702
 20
144.9300333660175
 30
0.0
 10
179.4049994778147
 20
144.9245733717418
 30
0.0
 10
179.2183092636448
 20
144.9245151484826
 30
0.0
 10
178.8454307727255
 20
144.9296992904594
 30
0.0
 10
178.6577265298031
 20
144.9350147689308
 30
0.0
 10
178.2908076302556
 20
144.9505171499541
 30
0.0
 10
178.1123578881911
 20
144.9606165577148
 30
0.0
 10
177.5915689848304
 20
144.9967483993687
 30
0.0
 10
177.2606852651594
 20
145.0291776203867
 30
0.0
 10
176.8241837068279
 20
145.0807041117539
 30
0.0
 10
176.6873981677753
 20
145.0984287227978
 30
0.0
 10
176.4316735583214
 20
145.1338230493071
 30
0.0
 10
176.3140498302159
 20
145.1513195706877
 30
0.0
 10
176.1039803770273
 20
145.1840219666762
 30
0.0
 10
176.0106455383422
 20
145.1993537756223
 30
0.0
 10
175.8476998276631
 20
145.2269499349711
 30
0.0
 10
175.7779968648132
 20
145.2392366180847
 30
0.0
 10
175.6673737984811
 20
145.2590816098712
 30
0.0
 10
175.6256921268707
 20
145.2667677223978
 30
0.0
 10
175.5695169864954
 20
145.2771851027751
 30
0.0
 10
175.5550787107349
 20
145.2799062604516
 30
0.0
 10
175.5549197156323
 20
145.2799360720321
 30
0.0
 10
175.6105790533691
 20
145.2692739418842
 30
0.0
 10
175.8334038139034
 20
145.2292932701492
 30
0.0
 10
175.9953160994971
 20
145.2009570185169
 30
0.0
 10
176.4191076582329
 20
145.1349461095569
 30
0.0
 10
176.6739540807802
 20
145.0984862367656
 30
0.0
 10
177.1125977408939
 20
145.0466347137793
 30
0.0
 10
177.2692952771734
 20
145.0297470797193
 30
0.0
 10
177.5924952269519
 20
144.9990536590983
 30
0.0
 10
177.7601687083722
 20
144.9850938521545
 30
0.0
 10
178.1077535745609
 20
144.9608944230033
 30
0.0
 10
178.2893170553799
 20
144.9505974741725
 30
0.0
 10
178.6555033301887
 20
144.9350915273106
 30
0.0
 10
178.840160746031
 20
144.9298255454136
 30
0.0
 10
179.3987571525895
 20
144.9219027221581
 30
0.0
 10
179.78109149406
 20
144.9276168455317
 30
0.0
 10
180.5083886384284
 20
144.958675931694
 30
0.0
 10
180.8640827125284
 20
144.984364567744
 30
0.0
 10
181.3473949894793
 20
145.0304365779521
 30
0.0
 10
181.5010925966959
 20
145.0470387363684
 30
0.0
 10
181.793514821539
 20
145.0816585915827
 30
0.0
 10
181.9321300447442
 20
145.099682512621
 30
0.0
 10
182.0600275651941
 20
145.1174447013568
 30
0.0
  0
LINE
  5
144
330
1F
100
AcDbEntity
  8
0
  6
HIDDEN
 62
     7
370
     0
100
AcDbLine
 10
208.1888780156
 20
145.1299169646
 30
0.0
 11
214.2550252536
 21
145.1299169646
 31
0.0
  0
LINE
  5
145
330
1F
100
AcDbEntity
  8
0
  6
HIDDEN
 62
     7
370
     0
100
AcDbLine
 10
200.5006462494
 20
145.1299169646
 30
0.0
 11
204.4211734245
 21
145.1299169646
 31
0.0
  0
LINE
  5
146
330
1F
100
AcDbEntity
  8
0
  6
HIDDEN
 62
     7
370
     0
100
AcDbLine
 10
169.3090010593
 20
142.2799171494
 30
0.0
 11
169.3090010593
 21
108.2799153017
 31
0.0
  0
SPLINE
  5
147
330
1F
100
AcDbEntity
  8
0
  6
HIDDEN
 62
     7
370
     0
100
AcDbSpline
210
0.0
220
0.0
230
1.0
 70
     8
 71
     3
 72
    64
 73
    60
 74
     0
 42
0.00000001
 43
0.00000001
 40
-0.03125
 40
-0.03125
 40
0.0
 40
0.0
 40
0.0312499999999999
 40
0.0312499999999999
 40
0.0624999999999998
 40
0.0624999999999998
 40
0.1249999999999998
 40
0.1249999999999998
 40
0.1562499999999997
 40
0.1562499999999997
 40
0.1874999999999997
 40
0.1874999999999997
 40
0.2187499999999997
 40
0.2187499999999997
 40
0.2499999999999997
 40
0.2499999999999997
 40
0.2812499999999996
 40
0.2812499999999996
 40
0.3124999999999996
 40
0.3124999999999996
 40
0.3749999999999997
 40
0.3749999999999997
 40
0.4062499999999997
 40
0.4062499999999997
 40
0.4374999999999997
 40
0.4374999999999997
 40
0.4687499999999997
 40
0.4687499999999997
 40
0.4999999999999998
 40
0.4999999999999998
 40
0.5312499999999998
 40
0.5312499999999998
 40
0.5624999999999998
 40
0.5624999999999998
 40
0.5937499999999999
 40
0.5937499999999999
 40
0.6249999999999999
 40
0.6249999999999999
 40
0.6562499999999999
 40
0.6562499999999999
 40
0.6874999999999999
 40
0.6874999999999999
 40
0.71875
 40
0.71875
 40
0.75
 40
0.75
 40
0.7812499999999999
 40
0.7812499999999999
 40
0.8124999999999998
 40
0.8124999999999998
 40
0.8749999999999999
 40
0.8749999999999999
 40
0.9062499999999999
 40
0.9062499999999999
 40
0.9374999999999999
 40
0.9374999999999999
 40
0.96875
 40
0.96875
 40
1.0
 40
1.0
 40
1.03125
 40
1.03125
 10
218.1353658742902
 20
121.5202240151825
 30
0.0
 10
218.4746852528947
 20
121.5202240151825
 30
0.0
 10
218.6403717777279
 20
121.5296167353043
 30
0.0
 10
218.9646078539021
 20
121.5668105619229
 30
0.0
 10
219.12441468963
 20
121.5951387776854
 30
0.0
 10
219.5735895119722
 20
121.7071591905209
 30
0.0
 10
219.8430147280364
 20
121.8197717350972
 30
0.0
 10
220.1810497392335
 20
122.0483947133545
 30
0.0
 10
220.2846059036327
 20
122.1360031528965
 30
0.0
 10
220.4649933942702
 20
122.3304436413397
 30
0.0
 10
220.542139728333
 20
122.4369849488397
 30
0.0
 10
220.6696601391106
 20
122.6717540896099
 30
0.0
 10
220.7201836991507
 20
122.801806562434
 30
0.0
 10
220.7871045270773
 20
123.0735113977083
 30
0.0
 10
220.8044635897156
 20
123.2160879750249
 30
0.0
 10
220.8055609663238
 20
123.5157074851496
 30
0.0
 10
220.7888350448505
 20
123.6707834618179
 30
0.0
 10
220.7234307599505
 20
123.9785519346086
 30
0.0
 10
220.6739449082189
 20
124.1348223089931
 30
0.0
 10
220.4833324932701
 20
124.5885071014681
 30
0.0
 10
220.2987366971213
 20
124.8761751364165
 30
0.0
 10
219.9615205529156
 20
125.2480931844644
 30
0.0
 10
219.8374926095296
 20
125.3638438540716
 30
0.0
 10
219.5716617411051
 20
125.5700967650921
 30
0.0
 10
219.4312446168774
 20
125.6598848328968
 30
0.0
 10
219.1336111344242
 20
125.810119024672
 30
0.0
 10
218.974046910135
 20
125.8710162248077
 30
0.0
 10
218.6484357311265
 20
125.9529320179898
 30
0.0
 10
218.4823234955941
 20
125.9746136110869
 30
0.0
 10
218.1428244483799
 20
125.9758716891408
 30
0.0
 10
217.9761510425221
 20
125.9553425754943
 30
0.0
 10
217.6502459942497
 20
125.8757399335894
 30
0.0
 10
217.4901555850483
 20
125.8159311253739
 30
0.0
 10
217.1898093579058
 20
125.6664617818261
 30
0.0
 10
217.0465459089507
 20
125.5756728262249
 30
0.0
 10
216.779407011668
 20
125.3698687407154
 30
0.0
 10
216.6564475547468
 20
125.2559190300022
 30
0.0
 10
216.4299355731336
 20
125.0078541704252
 30
0.0
 10
216.3260888606945
 20
124.8727691071784
 30
0.0
 10
216.1459322821125
 20
124.5933462838761
 30
0.0
 10
216.0684345842885
 20
124.447925990033
 30
0.0
 10
215.9399564258208
 20
124.1457153607334
 30
0.0
 10
215.8897316098274
 20
123.989400342997
 30
0.0
 10
215.8229547890563
 20
123.6824883069064
 30
0.0
 10
215.8054180877037
 20
123.5297493429656
 30
0.0
 10
215.8046459407867
 20
123.226686790935
 30
0.0
 10
215.8214125195545
 20
123.0828381046066
 30
0.0
 10
215.8873188234612
 20
122.8092402825069
 30
0.0
 10
215.9372723945986
 20
122.6787334249383
 30
0.0
 10
216.1283498968718
 20
122.3233302152667
 30
0.0
 10
216.313652022949
 20
122.1268285852202
 30
0.0
 10
216.6526414013322
 20
121.896933383211
 30
0.0
 10
216.7778483144446
 20
121.8297539404788
 30
0.0
 10
217.0433809885674
 20
121.7167961642191
 30
0.0
 10
217.1841757846029
 20
121.6704068674427
 30
0.0
 10
217.484238837599
 20
121.5954019572376
 30
0.0
 10
217.6444670793203
 20
121.5669609509953
 30
0.0
 10
217.9687544492407
 20
121.5296846493732
 30
0.0
 10
218.1353658742902
 20
121.5202240151825
 30
0.0
 10
218.4746852528947
 20
121.5202240151825
 30
0.0
  0
ARC
  5
148
330
1F
100
AcDbEntity
  8
0
  6
HIDDEN
 62
     7
370
     0
100
AcDbCircle
 10
218.4801485261
 20
116.0018367306
 30
0.0
 40
2.383540462069705
100
AcDbArc
 50
33.3840390897
 51
63.3745235536
  0
LINE
  5
149
330
1F
100
AcDbEntity
  8
0
  6
HIDDEN
 62
     7
370
     0
100
AcDbLine
 10
156.4050257364
 20
109.0094016479
 30
0.0
 11
156.4050257364
 21
141.5260096626
 31
0.0
  0
LINE
  5
14A
330
1F
100
AcDbEntity
  8
0
  6
HIDDEN
 62
     7
370
     0
100
AcDbLine
 10
195.9648515256
 20
142.2799171494
 30
0.0
 11
195.9648515256
 21
108.2799153017
 31
0.0
  0
LINE
  5
14B
330
1F
100
AcDbEntity
  8
0
  6
HIDDEN
 62
     7
370
     0
100
AcDbLine
 10
198.255025425
 20
141.0049160557
 30
0.0
 11
198.255025425
 21
109.5549163954
 31
0.0
  0
LINE
  5
14C
330
1F
100
AcDbEntity
  8
0
  6
HIDDEN
 62
     7
370
     0
100
AcDbLine
 10
157.5550247142
 20
109.4557305412
 30
0.0
 11
165.1050258586
 21
109.4557305412
 31
0.0
  0
LINE
  5
14D
330
1F
100
AcDbEntity
  8
0
  6
HIDDEN
 62
     7
370
     0
100
AcDbLine
 10
157.5550247142
 20
141.0814074414
 30
0.0
 11
157.5550247142
 21
109.4557305412
 31
0.0
  0
LINE
  5
14E
330
1F
100
AcDbEntity
  8
0
  6
HIDDEN
 62
     7
370
     0
100
AcDbLine
 10
161.105025203
 20
141.0814074414
 30
0.0
 11
157.5550247142
 21
141.0814074414
 31
0.0
  0
SPLINE
  5
14F
330
1F
100
AcDbEntity
  8
0
  6
HIDDEN
 62
     7
370
     0
100
AcDbSpline
210
0.0
220
0.0
230
1.0
 70
     8
 71
     3
 72
    18
 73
    14
 74
     0
 42
0.00000001
 43
0.00000001
 40
0.0
 40
0.0
 40
0.0
 40
0.0
 40
0.2499999999999983
 40
0.2499999999999983
 40
0.3749999999999985
 40
0.3749999999999985
 40
0.4999999999999987
 40
0.4999999999999987
 40
0.6249999999999988
 40
0.6249999999999988
 40
0.749999999999999
 40
0.749999999999999
 40
1.0
 40
1.0
 40
1.0
 40
1.0
 10
162.5050255635925
 20
141.5674298479445
 30
0.0
 10
162.5050255635925
 20
141.5129553273923
 30
0.0
 10
162.4701148722003
 20
141.4565742680398
 30
0.0
 10
162.3681055708672
 20
141.3724974271863
 30
0.0
 10
162.3264692161891
 20
141.3451637231954
 30
0.0
 10
162.2280634207004
 20
141.2922098075965
 30
0.0
 10
162.1705202089961
 20
141.2663224538793
 30
0.0
 10
162.0432220354232
 20
141.218544909046
 30
0.0
 10
161.9736347306657
 20
141.1965969908681
 30
0.0
 10
161.8222004855107
 20
141.1571644259554
 30
0.0
 10
161.7395165824168
 20
141.1396081767296
 30
0.0
 10
161.4834051203787
 20
141.097169411309
 30
0.0
 10
161.2954901164908
 20
141.0814066615721
 30
0.0
 10
161.1050255635925
 20
141.081406661572
 30
0.0
  0
LINE
  5
150
330
1F
100
AcDbEntity
  8
0
  6
HIDDEN
 62
     7
370
     0
100
AcDbLine
 10
162.5050246874
 20
141.5674293028
 30
0.0
 11
162.5050246874
 21
142.2799171494
 31
0.0
  0
SPLINE
  5
151
330
1F
100
AcDbEntity
  8
0
  6
HIDDEN
 62
     7
370
     0
100
AcDbSpline
210
0.0
220
0.0
230
1.0
 70
     8
 71
     3
 72
    18
 73
    14
 74
     0
 42
0.00000001
 43
0.00000001
 40
0.0
 40
0.0
 40
0.0
 40
0.0
 40
0.2500000000000014
 40
0.2500000000000014
 40
0.3750000000000006
 40
0.3750000000000006
 40
0.4999999999999998
 40
0.4999999999999998
 40
0.624999999999999
 40
0.624999999999999
 40
0.7499999999999981
 40
0.7499999999999981
 40
1.0
 40
1.0
 40
1.0
 40
1.0
 10
162.5050255635925
 20
141.5674298479445
 30
0.0
 10
162.5050255635925
 20
141.5129553273923
 30
0.0
 10
162.4701148722003
 20
141.4565742680398
 30
0.0
 10
162.3681055708672
 20
141.3724974271863
 30
0.0
 10
162.3264692161891
 20
141.3451637231954
 30
0.0
 10
162.2280634207004
 20
141.2922098075965
 30
0.0
 10
162.1705202089961
 20
141.2663224538793
 30
0.0
 10
162.0432220354232
 20
141.218544909046
 30
0.0
 10
161.9736347306657
 20
141.1965969908681
 30
0.0
 10
161.8222004855108
 20
141.1571644259554
 30
0.0
 10
161.7395165824168
 20
141.1396081767296
 30
0.0
 10
161.4834051203787
 20
141.097169411309
 30
0.0
 10
161.2954901164908
 20
141.081406661572
 30
0.0
 10
161.1050255635925
 20
141.081406661572
 30
0.0
  0
SPLINE
  5
152
330
1F
100
AcDbEntity
  8
0
  6
HIDDEN
 62
     7
370
     0
100
AcDbSpline
210
0.0
220
0.0
230
1.0
 70
     8
 71
     3
 72
    16
 73
    12
 74
     0
 42
0.00000001
 43
0.00000001
 40
0.0
 40
0.0
 40
0.0
 40
0.0
 40
0.1249999999999998
 40
0.1249999999999998
 40
0.2499999999999997
 40
0.2499999999999997
 40
0.4999999999999998
 40
0.4999999999999998
 40
0.7499999999999999
 40
0.7499999999999999
 40
1.0
 40
1.0
 40
1.0
 40
1.0
 10
165.1050255635925
 20
109.4557308199658
 30
0.0
 10
165.2000861533556
 20
109.4557308199658
 30
0.0
 10
165.2933605762865
 20
109.4519601484099
 30
0.0
 10
165.4765207695555
 20
109.4373636394431
 30
0.0
 10
165.5673551626873
 20
109.4263370248846
 30
0.0
 10
165.824093651879
 20
109.3843562309814
 30
0.0
 10
165.9791698400444
 20
109.3437779492064
 30
0.0
 10
166.233005751103
 20
109.249704696556
 30
0.0
 10
166.3339587664147
 20
109.1955494564001
 30
0.0
 10
166.4693072212881
 20
109.0855714247971
 30
0.0
 10
166.5050255635925
 20
109.0290664381829
 30
0.0
 10
166.5050255635925
 20
108.9753204393824
 30
0.0
  0
LINE
  5
153
330
1F
100
AcDbEntity
  8
0
  6
HIDDEN
 62
     7
370
     0
100
AcDbLine
 10
166.5050253431
 20
108.9753208296
 30
0.0
 11
166.5050253431
 21
108.2799153017
 31
0.0
  0
SPLINE
  5
154
330
1F
100
AcDbEntity
  8
0
  6
HIDDEN
 62
     7
370
     0
100
AcDbSpline
210
0.0
220
0.0
230
1.0
 70
     8
 71
     3
 72
    16
 73
    12
 74
     0
 42
0.00000001
 43
0.00000001
 40
0.0
 40
0.0
 40
0.0
 40
0.0
 40
0.1249999999999998
 40
0.1249999999999998
 40
0.2499999999999997
 40
0.2499999999999997
 40
0.4999999999999998
 40
0.4999999999999998
 40
0.7499999999999999
 40
0.7499999999999999
 40
1.0
 40
1.0
 40
1.0
 40
1.0
 10
165.1050255635925
 20
109.4557308199658
 30
0.0
 10
165.2000861533556
 20
109.4557308199658
 30
0.0
 10
165.2933605762865
 20
109.4519601484099
 30
0.0
 10
165.4765207695555
 20
109.4373636394431
 30
0.0
 10
165.5673551626873
 20
109.4263370248846
 30
0.0
 10
165.824093651879
 20
109.3843562309814
 30
0.0
 10
165.9791698400444
 20
109.3437779492064
 30
0.0
 10
166.233005751103
 20
109.249704696556
 30
0.0
 10
166.3339587664146
 20
109.1955494564001
 30
0.0
 10
166.4693072212881
 20
109.0855714247971
 30
0.0
 10
166.5050255635925
 20
109.0290664381829
 30
0.0
 10
166.5050255635925
 20
108.9753204393824
 30
0.0
  0
LINE
  5
155
330
1F
100
AcDbEntity
  8
0
  6
HIDDEN
 62
     7
370
     0
100
AcDbLine
 10
157.5550247142
 20
109.4557305412
 30
0.0
 11
157.5550247142
 21
141.0814074414
 31
0.0
  0
LINE
  5
156
330
1F
100
AcDbEntity
  8
0
  6
HIDDEN
 62
     7
370
     0
100
AcDbLine
 10
157.5550247142
 20
107.2899156796
 30
0.0
 11
157.5550247142
 21
104.4101805972
 31
0.0
  0
LINE
  5
157
330
1F
100
AcDbEntity
  8
0
  6
HIDDEN
 62
     7
370
     0
100
AcDbLine
 10
166.5050253431
 20
107.2899156796
 30
0.0
 11
166.5050253431
 21
103.3056003587
 31
0.0
  0
LINE
  5
158
330
1F
100
AcDbEntity
  8
0
  6
HIDDEN
 62
     7
370
     0
100
AcDbLine
 10
162.5050246874
 20
143.2699167715
 30
0.0
 11
162.5050246874
 21
147.1240238832
 31
0.0
  0
ELLIPSE
  5
159
330
1F
100
AcDbEntity
  8
0
  6
HIDDEN
 62
     7
370
     0
100
AcDbEllipse
 10
250.9435557533
 20
125.2799162255
 30
0.0
 11
-19.21239144025182
 21
26.99711638407914
 31
0.0
210
0.0
220
0.0
230
1.0
 40
0.0205386817
 41
6.268570076028068
 42
7.839366402822286
  0
LINE
  5
15A
330
1F
100
AcDbEntity
  8
0
  6
HIDDEN
 62
     7
370
     0
100
AcDbLine
 10
230.5729739526
 20
125.2799162255
 30
0.0
 11
230.5729739526
 21
152.2799169259
 31
0.0
  0
LINE
  5
15B
330
1F
100
AcDbEntity
  8
0
  6
HIDDEN
 62
     7
370
     0
100
AcDbLine
 10
234.5943316976
 20
93.0981801437
 30
0.0
 11
234.5943316976
 21
83.2720117258
 31
0.0
  0
SPLINE
  5
15C
330
1F
100
AcDbEntity
  8
0
  6
HIDDEN
 62
     7
370
     0
100
AcDbSpline
210
0.0
220
0.0
230
1.0
 70
     8
 71
     3
 72
    16
 73
    12
 74
     0
 42
0.00000001
 43
0.00000001
 40
0.0
 40
0.0
 40
0.0
 40
0.0
 40
0.125
 40
0.125
 40
0.25
 40
0.25
 40
0.5
 40
0.5
 40
0.75
 40
0.75
 40
1.0
 40
1.0
 40
1.0
 40
1.0
 10
230.5729747560236
 20
125.2799162255404
 30
0.0
 10
230.5729747560236
 20
123.9284502374966
 30
0.0
 10
230.6003141907525
 20
122.5749034791397
 30
0.0
 10
230.7083519174842
 20
119.8637488862828
 30
0.0
 10
230.7890465994267
 20
118.5071966823267
 30
0.0
 10
231.1020158208144
 20
114.4533884718387
 30
0.0
 10
231.4052845317873
 20
111.7646086580834
 30
0.0
 10
232.1437977578163
 20
106.4062395294443
 30
0.0
 10
232.5784485532401
 20
103.7365638822513
 30
0.0
 10
233.5313161725618
 20
98.40936385897338
 30
0.0
 10
234.0496053591419
 20
95.75185000508976
 30
0.0
 10
234.5943309344962
 20
93.09818024590564
 30
0.0
  0
LINE
  5
15D
330
1F
100
AcDbEntity
  8
0
  6
HIDDEN
 62
     7
370
     0
100
AcDbLine
 10
157.5550247142
 20
143.2699167715
 30
0.0
 11
157.5550247142
 21
146.1498548822
 31
0.0
  0
LINE
  5
15E
330
1F
100
AcDbEntity
  8
0
  6
HIDDEN
 62
     7
370
     0
100
AcDbLine
 10
156.4050257364
 20
143.2699167715
 30
0.0
 11
156.4050257364
 21
145.255977063
 31
0.0
  0
LINE
  5
15F
330
1F
100
AcDbEntity
  8
0
  6
HIDDEN
 62
     7
370
     0
100
AcDbLine
 10
156.4050257364
 20
107.2899156796
 30
0.0
 11
156.4050257364
 21
105.2910944061
 31
0.0
  0
LINE
  5
160
330
1F
100
AcDbEntity
  8
0
  6
HIDDEN
 62
     7
370
     0
100
AcDbLine
 10
207.6050263057
 20
134.7799159201
 30
0.0
 11
207.6050263057
 21
115.779916531
 31
0.0
  0
LINE
  5
161
330
1F
100
AcDbEntity
  8
0
  6
HIDDEN
 62
     7
370
     0
100
AcDbLine
 10
210.1050257841
 20
134.7799159201
 30
0.0
 11
210.1050257841
 21
115.779916531
 31
0.0
  0
LINE
  5
162
330
1F
100
AcDbEntity
  8
0
  6
HIDDEN
 62
     7
370
     0
100
AcDbLine
 10
198.755025507
 20
133.7799166875
 30
0.0
 11
198.755025507
 21
116.7799157636
 31
0.0
  0
LINE
  5
163
330
1F
100
AcDbEntity
  8
0
  6
HIDDEN
 62
     7
370
     0
100
AcDbLine
 10
198.255025425
 20
116.279916613
 30
0.0
 11
198.255025425
 21
134.2614244284
 31
0.0
  0
LINE
  5
164
330
1F
100
AcDbEntity
  8
0
  6
HIDDEN
 62
     7
370
     0
100
AcDbLine
 10
193.2550255368
 20
93.7957929062
 30
0.0
 11
193.2550255368
 21
98.8799163686
 31
0.0
  0
LINE
  5
165
330
1F
100
AcDbEntity
  8
0
  6
HIDDEN
 62
     7
370
     0
100
AcDbLine
 10
201.2550259167
 20
98.8799163686
 30
0.0
 11
193.2550255368
 21
98.8799163686
 31
0.0
  0
LINE
  5
166
330
1F
100
AcDbEntity
  8
0
  6
HIDDEN
 62
     7
370
     0
100
AcDbLine
 10
214.2550252536
 20
98.8799163686
 30
0.0
 11
208.1173505793
 21
98.8799163686
 31
0.0
  0
LINE
  5
167
330
1F
100
AcDbEntity
  8
0
  6
HIDDEN
 62
     7
370
     0
100
AcDbLine
 10
208.2150258282
 20
97.7820789056
 30
0.0
 11
208.2150258282
 21
98.4755212055
 31
0.0
  0
LINE
  5
168
330
1F
100
AcDbEntity
  8
0
  6
HIDDEN
 62
     7
370
     0
100
AcDbLine
 10
214.2550252536
 20
98.8799163686
 30
0.0
 11
214.2550252536
 21
95.7196389871
 31
0.0
  0
LINE
  5
169
330
1F
100
AcDbEntity
  8
0
  6
HIDDEN
 62
     7
370
     0
100
AcDbLine
 10
204.4927008609
 20
98.8799163686
 30
0.0
 11
201.2550259167
 21
98.8799163686
 31
0.0
  0
LINE
  5
16A
330
1F
100
AcDbEntity
  8
0
  6
HIDDEN
 62
     7
370
     0
100
AcDbLine
 10
204.3950256119
 20
98.4755212055
 30
0.0
 11
204.3950256119
 21
97.7820789056
 31
0.0
  0
LINE
  5
16B
330
1F
100
AcDbEntity
  8
0
  6
HIDDEN
 62
     7
370
     0
100
AcDbLine
 10
207.6050263057
 20
116.7799157636
 30
0.0
 11
207.6050263057
 21
133.7799166875
 31
0.0
  0
LINE
  5
16C
330
1F
100
AcDbEntity
  8
0
  6
HIDDEN
 62
     7
370
     0
100
AcDbLine
 10
201.2550259167
 20
151.6799160825
 30
0.0
 11
193.2550255368
 21
151.6799160825
 31
0.0
  0
LINE
  5
16D
330
1F
100
AcDbEntity
  8
0
  6
HIDDEN
 62
     7
370
     0
100
AcDbLine
 10
214.2550252536
 20
151.6799160825
 30
0.0
 11
207.8207280645
 21
151.6799160825
 31
0.0
  0
LINE
  5
16E
330
1F
100
AcDbEntity
  8
0
  6
HIDDEN
 62
     7
370
     0
100
AcDbLine
 10
208.2150258282
 20
153.0851495998
 30
0.0
 11
208.2150258282
 21
152.399569525
 31
0.0
  0
LINE
  5
16F
330
1F
100
AcDbEntity
  8
0
  6
HIDDEN
 62
     7
370
     0
100
AcDbLine
 10
214.2550252536
 20
151.6799160825
 30
0.0
 11
214.2550252536
 21
155.1263572262
 31
0.0
  0
LINE
  5
170
330
1F
100
AcDbEntity
  8
0
  6
HIDDEN
 62
     7
370
     0
100
AcDbLine
 10
204.7893233756
 20
151.6799160825
 30
0.0
 11
201.2550259167
 21
151.6799160825
 31
0.0
  0
LINE
  5
171
330
1F
100
AcDbEntity
  8
0
  6
HIDDEN
 62
     7
370
     0
100
AcDbLine
 10
204.3950256119
 20
152.399569525
 30
0.0
 11
204.3950256119
 21
153.0851495998
 31
0.0
  0
SPLINE
  5
172
330
1F
100
AcDbEntity
  8
0
  6
HIDDEN
 62
     7
370
     0
100
AcDbSpline
210
0.0
220
0.0
230
1.0
 70
     8
 71
     3
 72
     8
 73
     4
 74
     0
 42
0.00000001
 43
0.00000001
 40
0.0000002438860713
 40
0.0000002438860713
 40
0.0000002438860713
 40
0.0000002438860713
 40
0.0014006025853533
 40
0.0014006025853533
 40
0.0014006025853533
 40
0.0014006025853533
 10
157.5550255635924
 20
141.081406661572
 30
0.0
 10
157.1722384910275
 20
141.2314781895478
 30
0.0
 10
156.7888850910714
 20
141.3796353914652
 30
0.0
 10
156.4050255635925
 20
141.5260089032685
 30
0.0
  0
LINE
  5
173
330
1F
100
AcDbEntity
  8
0
  6
HIDDEN
 62
     7
370
     0
100
AcDbLine
 10
156.4050257364
 20
143.2699167715
 30
0.0
 11
156.4050257364
 21
141.5260096626
 31
0.0
  0
SPLINE
  5
174
330
1F
100
AcDbEntity
  8
0
  6
HIDDEN
 62
     7
370
     0
100
AcDbSpline
210
0.0
220
0.0
230
1.0
 70
     8
 71
     3
 72
     8
 73
     4
 74
     0
 42
0.00000001
 43
0.00000001
 40
0.0000002432968744
 40
0.0000002432968744
 40
0.0000002432968744
 40
0.0000002432968744
 40
0.0014011510532366
 40
0.0014011510532366
 40
0.0014011510532366
 40
0.0014011510532366
 10
156.4050255635924
 20
109.0094022319251
 30
0.0
 10
156.788890030329
 20
109.1563411443874
 30
0.0
 10
157.1722436521526
 20
109.3050735042053
 30
0.0
 10
157.5550255635925
 20
109.4557308199658
 30
0.0
  0
LINE
  5
175
330
1F
100
AcDbEntity
  8
0
  6
HIDDEN
 62
     7
370
     0
100
AcDbLine
 10
156.4050257364
 20
107.2899156796
 30
0.0
 11
156.4050257364
 21
109.0094016479
 31
0.0
  0
LINE
  5
176
330
1F
100
AcDbEntity
  8
0
  6
HIDDEN
 62
     7
370
     0
100
AcDbLine
 10
162.5050246874
 20
143.2699167715
 30
0.0
 11
162.5050246874
 21
141.5674293028
 31
0.0
  0
LINE
  5
177
330
1F
100
AcDbEntity
  8
0
  6
HIDDEN
 62
     7
370
     0
100
AcDbLine
 10
157.5550247142
 20
143.2699167715
 30
0.0
 11
157.5550247142
 21
141.0814074414
 31
0.0
  0
LINE
  5
178
330
1F
100
AcDbEntity
  8
0
  6
HIDDEN
 62
     7
370
     0
100
AcDbLine
 10
157.5550247142
 20
107.2899156796
 30
0.0
 11
157.5550247142
 21
109.4557305412
 31
0.0
  0
LINE
  5
179
330
1F
100
AcDbEntity
  8
0
  6
HIDDEN
 62
     7
370
     0
100
AcDbLine
 10
166.5050253431
 20
107.2899156796
 30
0.0
 11
166.5050253431
 21
108.9753208296
 31
0.0
  0
SPLINE
  5
17A
330
1F
100
AcDbEntity
  8
0
  6
HIDDEN
 62
     7
370
     0
100
AcDbSpline
210
0.0
220
0.0
230
1.0
 70
    11
 71
     3
 72
    34
 73
    30
 74
     0
 42
0.00000001
 43
0.00000001
 40
0.0
 40
0.0
 40
0.0
 40
0.0
 40
0.0127738749551814
 40
0.0481304964037533
 40
0.080742485854995
 40
0.1375890904941637
 40
0.1884518708079227
 40
0.2226712072706639
 40
0.2626938332477675
 40
0.2986558257962504
 40
0.3315197710933552
 40
0.3878459600237743
 40
0.3881808791862166
 40
0.4440925970949928
 40
0.4768435525184233
 40
0.5126448808407967
 40
0.5530084569616178
 40
0.5873855765890265
 40
0.638012086328779
 40
0.6949796216249493
 40
0.7275539778393361
 40
0.7628079274869513
 40
0.8028703408006841
 40
0.8370831496013927
 40
0.8877749714149608
 40
0.8880464815215687
 40
0.9388397791868014
 40
0.9729712642356442
 40
1.0
 40
1.0
 40
1.0
 40
1.0
 10
176.4650378534742
 20
102.2122537331459
 30
0.0
 10
176.5242313595838
 20
102.2183431469376
 30
0.0
 10
176.7472657045208
 20
102.2412873599998
 30
0.0
 10
177.2706186950411
 20
102.27792866278
 30
0.0
 10
178.1433816966693
 20
102.3056154359606
 30
0.0
 10
179.2582197722292
 20
102.2950568443958
 30
0.0
 10
180.371285577897
 20
102.1789149706855
 30
0.0
 10
181.2657267939522
 20
102.0573237324573
 30
0.0
 10
181.9495620457106
 20
101.9355640944189
 30
0.0
 10
182.4903112259049
 20
101.8192090992095
 30
0.0
 10
182.9037466467093
 20
101.7257108899898
 30
0.0
 10
183.1318876040045
 20
101.6591232188089
 30
0.0
 10
182.9773389974376
 20
101.7003230509113
 30
0.0
 10
182.9504566045852
 20
101.7128335009112
 30
0.0
 10
182.4946881063643
 20
101.8183733506722
 30
0.0
 10
181.9707658247692
 20
101.9311186297268
 30
0.0
 10
181.2845555915286
 20
102.0542185772776
 30
0.0
 10
180.3914431128578
 20
102.1762101629702
 30
0.0
 10
179.2780063108282
 20
102.2939621111415
 30
0.0
 10
178.1672555580724
 20
102.3059307936129
 30
0.0
 10
177.2825037144416
 20
102.2788766449757
 30
0.0
 10
176.6153076562779
 20
102.2309412101274
 30
0.0
 10
176.0740357171847
 20
102.1746530830749
 30
0.0
 10
175.6864526507555
 20
102.1295474482785
 30
0.0
 10
175.492440566068
 20
102.0907405231311
 30
0.0
 10
175.6187772462679
 20
102.112052500942
 30
0.0
 10
175.6479331109577
 20
102.1220414416872
 30
0.0
 10
176.0194202350559
 20
102.1696433844881
 30
0.0
 10
176.3284620130562
 20
102.1991942311471
 30
0.0
 10
176.4650378534742
 20
102.2122537331459
 30
0.0
  0
SPLINE
  5
17B
330
1F
100
AcDbEntity
  8
0
  6
HIDDEN
 62
     7
370
     0
100
AcDbSpline
210
0.0
220
0.0
230
1.0
 70
     8
 71
     3
 72
    38
 73
    34
 74
     0
 42
0.00000001
 43
0.00000001
 40
-0.093922140067779
 40
-0.0657752597753781
 40
-0.0344739496007943
 40
0.0
 40
0.0323124298479836
 40
0.0609695982577461
 40
0.0859698687835549
 40
0.1073131755946561
 40
0.125001929016961
 40
0.1562358721977445
 40
0.1978507372990771
 40
0.2498168793248351
 40
0.278262948030722
 40
0.3049884159832859
 40
0.330004216891384
 40
0.3533239044418168
 40
0.3749644360933808
 40
0.4060267838322921
 40
0.4476555976010198
 40
0.4998320869201298
 40
0.5286685248934816
 40
0.5555536435543464
 40
0.5805015705746597
 40
0.6035302879119625
 40
0.6246629693429201
 40
0.6685312637103242
 40
0.718326915355546
 40
0.765237570611313
 40
0.7915712044406462
 40
0.8122937035710439
 40
0.8615656629637486
 40
0.906077859932221
 40
0.9342247402246219
 40
0.9655260503992057
 40
1.0
 40
1.032312429847984
 40
1.060969598257746
 40
1.085969868783555
 10
177.2452907277739
 20
148.2829202515679
 30
0.0
 10
176.6412225092645
 20
148.3274537567837
 30
0.0
 10
176.1659074464183
 20
148.3755291430167
 30
0.0
 10
175.8463086204185
 20
148.4116918822826
 30
0.0
 10
175.6593142147045
 20
148.438082016471
 30
0.0
 10
175.5710085551521
 20
148.4541516262682
 30
0.0
 10
175.5415950592828
 20
148.4619753115182
 30
0.0
 10
175.6137271293516
 20
148.4438078129345
 30
0.0
 10
175.9348391315461
 20
148.3992012329718
 30
0.0
 10
176.5068666217607
 20
148.3384627043011
 30
0.0
 10
177.1573989695169
 20
148.2891185412811
 30
0.0
 10
177.7072750982584
 20
148.2667560808017
 30
0.0
 10
178.2627129640365
 20
148.2582738708973
 30
0.0
 10
178.803488511673
 20
148.2647249570458
 30
0.0
 10
179.4014184064724
 20
148.2882033336476
 30
0.0
 10
180.1410842636393
 20
148.3551232044847
 30
0.0
 10
181.0731338969122
 20
148.4712246384199
 30
0.0
 10
181.8624706305858
 20
148.6065395230112
 30
0.0
 10
182.4014003184232
 20
148.7216513470784
 30
0.0
 10
182.715504658319
 20
148.7914254236294
 30
0.0
 10
182.9207850266849
 20
148.8419855091253
 30
0.0
 10
183.0318550127758
 20
148.872663649032
 30
0.0
 10
183.0781265145798
 20
148.8873906662882
 30
0.0
 10
182.9521616462335
 20
148.8495310727009
 30
0.0
 10
182.4819161173604
 20
148.7390452882748
 30
0.0
 10
181.8287181537718
 20
148.5993410698986
 30
0.0
 10
181.2246991982558
 20
148.4962144637533
 30
0.0
 10
180.5503611486175
 20
148.3967784379838
 30
0.0
 10
179.6650116656301
 20
148.3033081037083
 30
0.0
 10
178.6955327750178
 20
148.2562995976355
 30
0.0
 10
177.9071971977507
 20
148.2599838127361
 30
0.0
 10
177.2452907277739
 20
148.2829202515679
 30
0.0
 10
176.6412225092645
 20
148.3274537567837
 30
0.0
 10
176.1659074464183
 20
148.3755291430167
 30
0.0
  0
LINE
  5
17C
330
1F
100
AcDbEntity
  8
0
  6
HIDDEN
 62
     7
370
     0
100
AcDbLine
 10
250.5964912633
 20
124.5935402774
 30
0.0
 11
253.9014123539
 21
121.3067250872
 31
0.0
  0
LINE
  5
17D
330
1F
100
AcDbEntity
  8
0
  6
HIDDEN
 62
     7
370
     0
100
AcDbLine
 10
222.4050253788
 20
129.4799160758
 30
0.0
 11
222.4050253788
 21
121.0799163753
 31
0.0
  0
SPLINE
  5
17E
330
1F
100
AcDbEntity
  8
0
  6
HIDDEN
 62
     7
370
     0
100
AcDbSpline
210
0.0
220
0.0
230
1.0
 70
     8
 71
     3
 72
    64
 73
    60
 74
     0
 42
0.00000001
 43
0.00000001
 40
-0.0312499999999999
 40
-0.0312499999999999
 40
0.0
 40
0.0
 40
0.0312499999999998
 40
0.0312499999999998
 40
0.0624999999999997
 40
0.0624999999999997
 40
0.1249999999999993
 40
0.1249999999999993
 40
0.1562499999999994
 40
0.1562499999999994
 40
0.1874999999999994
 40
0.1874999999999994
 40
0.2187499999999995
 40
0.2187499999999995
 40
0.2499999999999995
 40
0.2499999999999995
 40
0.2812499999999995
 40
0.2812499999999995
 40
0.3124999999999995
 40
0.3124999999999995
 40
0.3749999999999998
 40
0.3749999999999998
 40
0.4062499999999999
 40
0.4062499999999999
 40
0.4375000000000001
 40
0.4375000000000001
 40
0.4687500000000002
 40
0.4687500000000002
 40
0.5000000000000002
 40
0.5000000000000002
 40
0.5312500000000003
 40
0.5312500000000003
 40
0.5625000000000003
 40
0.5625000000000003
 40
0.5937500000000004
 40
0.5937500000000004
 40
0.6250000000000004
 40
0.6250000000000004
 40
0.6562500000000006
 40
0.6562500000000006
 40
0.6875000000000006
 40
0.6875000000000006
 40
0.7187500000000007
 40
0.7187500000000007
 40
0.7500000000000007
 40
0.7500000000000007
 40
0.7812500000000008
 40
0.7812500000000008
 40
0.8125000000000009
 40
0.8125000000000009
 40
0.8750000000000007
 40
0.8750000000000007
 40
0.9062500000000004
 40
0.9062500000000004
 40
0.9375000000000003
 40
0.9375000000000003
 40
0.9687500000000001
 40
0.9687500000000001
 40
1.0
 40
1.0
 40
1.03125
 40
1.03125
 10
218.4746852528948
 20
124.5845758149564
 30
0.0
 10
218.1353658742902
 20
124.5845758149564
 30
0.0
 10
217.9696793494571
 20
124.6056137748523
 30
0.0
 10
217.6454432732829
 20
124.6857385687225
 30
0.0
 10
217.4856364375549
 20
124.7458051943993
 30
0.0
 10
217.0364616152128
 20
124.9703897140413
 30
0.0
 10
216.7670363991486
 20
125.1824307922376
 30
0.0
 10
216.4290013879514
 20
125.5531887913032
 30
0.0
 10
216.3254452235523
 20
125.6879183821443
 30
0.0
 10
216.1450577329147
 20
125.9679870459216
 30
0.0
 10
216.067911398852
 20
126.1131200767808
 30
0.0
 10
215.9403909880743
 20
126.4131119488799
 30
0.0
 10
215.8898674280343
 20
126.5699009445597
 30
0.0
 10
215.8229466001077
 20
126.8772888899871
 30
0.0
 10
215.8055875374694
 20
127.0293044467227
 30
0.0
 10
215.8044901608612
 20
127.3295170483298
 30
0.0
 10
215.8212160823344
 20
127.4754957368114
 30
0.0
 10
215.8866203672344
 20
127.7483665310488
 30
0.0
 10
215.936106218966
 20
127.8784166574008
 30
0.0
 10
216.1267186339149
 20
128.2344788509267
 30
0.0
 10
216.3113144300637
 20
128.4306901069958
 30
0.0
 10
216.6485305742693
 20
128.6604669438815
 30
0.0
 10
216.7725585176554
 20
128.7274669179863
 30
0.0
 10
217.0383893860798
 20
128.841260470589
 30
0.0
 10
217.1788065103075
 20
128.8877460079155
 30
0.0
 10
217.4764399927608
 20
128.9628039224323
 30
0.0
 10
217.63600421705
 20
128.9915749497564
 30
0.0
 10
217.9616153960584
 20
129.0296357959297
 30
0.0
 10
218.1277276315908
 20
129.0393178045173
 30
0.0
 10
218.467226678805
 20
129.0398864246574
 30
0.0
 10
218.6339000846628
 20
129.0307262443168
 30
0.0
 10
218.9598051329352
 20
128.9937967855787
 30
0.0
 10
219.1198955421367
 20
128.9656131309305
 30
0.0
 10
219.4202417692792
 20
128.891118919161
 30
0.0
 10
219.5635052182342
 20
128.8442183098278
 30
0.0
 10
219.8306441155169
 20
128.7309030359521
 30
0.0
 10
219.9536035724382
 20
128.6651101457155
 30
0.0
 10
220.1801155540513
 20
128.512223579589
 30
0.0
 10
220.2839622664904
 20
128.4243902537804
 30
0.0
 10
220.4641188450724
 20
128.2304631989582
 30
0.0
 10
220.5416165428964
 20
128.1237939570005
 30
0.0
 10
220.6700947013641
 20
127.887295053268
 30
0.0
 10
220.7203195173576
 20
127.7575668415945
 30
0.0
 10
220.7870963381287
 20
127.4862617369784
 30
0.0
 10
220.8046330394813
 20
127.3430573956315
 30
0.0
 10
220.8054051863982
 20
127.0404121611969
 30
0.0
 10
220.7886386076305
 20
126.8874434795969
 30
0.0
 10
220.7227323037237
 20
126.578684320361
 30
0.0
 10
220.6727787325864
 20
126.421717895788
 30
0.0
 10
220.4817012303131
 20
125.9684921421356
 30
0.0
 10
220.296399104236
 20
125.6802105944757
 30
0.0
 10
219.9574097258528
 20
125.3076499275271
 30
0.0
 10
219.8322028127403
 20
125.1913951050536
 30
0.0
 10
219.5666701386176
 20
124.9863713744102
 30
0.0
 10
219.4258753425821
 20
124.8966813398546
 30
0.0
 10
219.125812289586
 20
124.7463578944902
 30
0.0
 10
218.9655840478647
 20
124.6860584775302
 30
0.0
 10
218.6412966779443
 20
124.6057641217964
 30
0.0
 10
218.4746852528948
 20
124.5845758149564
 30
0.0
 10
218.1353658742902
 20
124.5845758149564
 30
0.0
  0
LINE
  5
17F
330
1F
100
AcDbEntity
  8
0
  6
HIDDEN
 62
     7
370
     0
100
AcDbLine
 10
210.1050257841
 20
121.0799163753
 30
0.0
 11
210.1050257841
 21
129.4608984688
 31
0.0
  0
ARC
  5
180
330
1F
100
AcDbEntity
  8
0
  6
HIDDEN
 62
     7
370
     0
100
AcDbCircle
 10
239.6836764269
 20
94.6309319963
 30
0.0
 40
3.499123631257053
100
AcDbArc
 50
85.3755534237
 51
231.9741706146
  0
CIRCLE
  5
181
330
1F
100
AcDbEntity
  8
0
  6
HIDDEN
 62
     7
370
     0
100
AcDbCircle
 10
244.0631168035
 20
103.3263710869
 30
0.0
 40
3.477412175942872
  0
LINE
  5
182
330
1F
100
AcDbEntity
  8
0
  6
HIDDEN
 62
     7
370
     0
100
AcDbLine
 10
255.463337169
 20
96.9330666201
 30
0.0
 11
256.090504692
 21
96.3093319522
 31
0.0
  0
LINE
  5
183
330
1F
100
AcDbEntity
  8
0
  6
HIDDEN
 62
     7
370
     0
100
AcDbLine
 10
240.8890813748
 20
91.5021577464
 30
0.0
 11
241.2366137067
 21
91.4755703496
 31
0.0
  0
LINE
  5
184
330
1F
100
AcDbEntity
  8
0
  6
HIDDEN
 62
     7
370
     0
100
AcDbLine
 10
241.2366137067
 20
91.4755703496
 30
0.0
 11
241.7184911827
 21
90.9963341044
 31
0.0
  0
LINE
  5
185
330
1F
100
AcDbEntity
  8
0
  6
HIDDEN
 62
     7
370
     0
100
AcDbLine
 10
241.7184911827
 20
90.9963341044
 30
0.0
 11
240.9280851642
 21
91.0567992912
 31
0.0
  0
LINE
  5
186
330
1F
100
AcDbEntity
  8
0
  6
HIDDEN
 62
     7
370
     0
100
AcDbLine
 10
242.4451053301
 20
82.699076979
 30
0.0
 11
241.6390977958
 21
82.7742309855
 31
0.0
  0
ELLIPSE
  5
187
330
1F
100
AcDbEntity
  8
0
  6
HIDDEN
 62
     7
370
     0
100
AcDbEllipse
 10
238.7782455928
 20
124.8405768826
 30
0.0
 11
-4.218023718002911
 21
42.44365377454051
 31
0.0
210
0.0
220
0.0
230
0.9999999999999998
 40
0.0944087
 41
2.904194428219204
 42
3.012450887286293
  0
SPLINE
  5
188
330
1F
100
AcDbEntity
  8
0
  6
HIDDEN
 62
     7
370
     0
100
AcDbSpline
210
0.0
220
0.0
230
1.0
 70
     8
 71
     3
 72
     8
 73
     4
 74
     0
 42
0.00000001
 43
0.00000001
 40
0.0
 40
0.0
 40
0.0
 40
0.0
 40
1.0
 40
1.0
 40
1.0
 40
1.0
 10
255.7940156192207
 20
82.3693486341163
 30
0.0
 10
251.173974283903
 20
82.73793718591321
 30
0.0
 10
246.5544887470958
 20
83.11253027290938
 30
0.0
 10
241.935610458323
 20
83.49368372688534
 30
0.0
  0
SPLINE
  5
189
330
1F
100
AcDbEntity
  8
0
  6
HIDDEN
 62
     7
370
     0
100
AcDbSpline
210
0.0
220
0.0
230
1.0
 70
     8
 71
     3
 72
    42
 73
    38
 74
     0
 42
0.00000001
 43
0.00000001
 40
0.0
 40
0.0
 40
0.0
 40
0.0
 40
0.0344062834028446
 40
0.0684714817322696
 40
0.102195378302628
 40
0.135577759132868
 40
0.1686184129517249
 40
0.201317131203221
 40
0.2336737080524111
 40
0.2656879403915022
 40
0.2973596278462414
 40
0.3286885727826828
 40
0.3596745803143299
 40
0.390317458309671
 40
0.4206170174001526
 40
0.4505730709885996
 40
0.4801854352581361
 40
0.509453929181619
 40
0.5383783745316674
 40
0.5669585958912478
 40
0.5951944206649531
 40
0.6230856790909627
 40
0.6506322042537577
 40
0.6778338320976347
 40
0.7046904014411167
 40
0.7312017539922894
 40
0.7573677343651546
 40
0.7831881900970956
 40
0.8086629716675171
 40
0.8337919325177977
 40
0.8585749290726141
 40
0.8830118207628076
 40
0.9071024700498872
 40
0.9308467424523367
 40
0.9542445065738763
 40
0.9772956341338593
 40
1.0
 40
1.0
 40
1.0
 40
1.0
 10
253.4618906183336
 20
90.54946512950288
 30
0.0
 10
253.4901540777907
 20
90.41892098271487
 30
0.0
 10
253.546400808228
 20
90.1591268324025
 30
0.0
 10
253.6300664424392
 20
89.78026348901965
 30
0.0
 10
253.7126826321911
 20
89.41165586603614
 30
0.0
 10
253.7942295500361
 20
89.05379609214043
 30
0.0
 10
253.8747124296492
 20
88.70637847323104
 30
0.0
 10
253.9541298909749
 20
88.36930342030145
 30
0.0
 10
254.0324822991115
 20
88.04241280959651
 30
0.0
 10
254.1097695587992
 20
87.72556009535762
 30
0.0
 10
254.1859916962539
 20
87.41859209394488
 30
0.0
 10
254.2611487057047
 20
87.12135406246799
 30
0.0
 10
254.3352405898665
 20
86.83368862695347
 30
0.0
 10
254.4082673492717
 20
86.55543632592064
 30
0.0
 10
254.480228985086
 20
86.2864357215228
 30
0.0
 10
254.5511254983693
 20
86.0265236181564
 30
0.0
 10
254.6209568902744
 20
85.7755352462225
 30
0.0
 10
254.6897231619981
 20
85.53330444855943
 30
0.0
 10
254.7574243147985
 20
85.29966385968054
 30
0.0
 10
254.8240603499949
 20
85.07444508044229
 30
0.0
 10
254.8896312689727
 20
84.85747884749054
 30
0.0
 10
254.9541370731872
 20
84.64859519768684
 30
0.0
 10
255.0175777641664
 20
84.4476236275527
 30
0.0
 10
255.0799533435245
 20
84.25439324762473
 30
0.0
 10
255.1412638129343
 20
84.06873293237032
 30
0.0
 10
255.2015091742517
 20
83.89047146350629
 30
0.0
 10
255.2606894290878
 20
83.71943767488132
 30
0.0
 10
255.3188045804021
 20
83.55546056932886
 30
0.0
 10
255.3758546267065
 20
83.39836951605412
 30
0.0
 10
255.431839583294
 20
83.24799413177949
 30
0.0
 10
255.4867594046613
 20
83.10416529682205
 30
0.0
 10
255.5406142680975
 20
82.96671200161857
 30
0.0
 10
255.5934035375031
 20
82.8354734090157
 30
0.0
 10
255.6451295484379
 20
82.71025531178766
 30
0.0
 10
255.6957837864168
 20
82.5909896346225
 30
0.0
 10
255.7453973426988
 20
82.4771526561004
 30
0.0
 10
255.7779504042902
 20
82.40509702024005
 30
0.0
 10
255.7941035820858
 20
82.36934224203112
 30
0.0
  0
SPLINE
  5
18A
330
1F
100
AcDbEntity
  8
0
  6
HIDDEN
 62
     7
370
     0
100
AcDbSpline
210
0.0
220
0.0
230
1.0
 70
     8
 71
     3
 72
     8
 73
     4
 74
     0
 42
0.00000001
 43
0.00000001
 40
0.0
 40
0.0
 40
0.0
 40
0.0
 40
1.0
 40
1.0
 40
1.0
 40
1.0
 10
234.5943309344961
 20
93.09818024590558
 30
0.0
 10
240.8817736376303
 20
92.2355676040765
 30
0.0
 10
247.1710762161151
 20
91.3869436369689
 30
0.0
 10
253.4617996181733
 20
90.54946491008391
 30
0.0
  0
ELLIPSE
  5
18B
330
1F
100
AcDbEntity
  8
0
  6
HIDDEN
 62
     7
370
     0
100
AcDbEllipse
 10
237.9705986604
 20
124.8414554765
 30
0.0
 11
-4.20958848463124
 21
42.35877465847341
 31
0.0
210
0.0
220
0.0
230
0.9999999999999999
 40
0.0944087
 41
3.014443117847477
 42
3.122086323096878
  0
SPLINE
  5
18C
330
1F
100
AcDbEntity
  8
0
  6
HIDDEN
 62
     7
370
     0
100
AcDbSpline
210
0.0
220
0.0
230
1.0
 70
     8
 71
     3
 72
    20
 73
    16
 74
     0
 42
0.00000001
 43
0.00000001
 40
0.0
 40
0.0
 40
0.0
 40
0.0
 40
0.0624999999999994
 40
0.0624999999999994
 40
0.1249999999999988
 40
0.1249999999999988
 40
0.2499999999999989
 40
0.2499999999999989
 40
0.4999999999999991
 40
0.4999999999999991
 40
0.7499999999999993
 40
0.7499999999999993
 40
0.8749999999999997
 40
0.8749999999999997
 40
1.0
 40
1.0
 40
1.0
 40
1.0
 10
246.3414842258763
 20
99.88816398014053
 30
0.0
 10
246.4530720493396
 20
99.98917654727738
 30
0.0
 10
246.5430117919675
 20
100.087241101314
 30
0.0
 10
246.6997348575759
 20
100.2799631100275
 30
0.0
 10
246.7660250238132
 20
100.3745574767805
 30
0.0
 10
246.9410109646595
 20
100.6544658786794
 30
0.0
 10
247.0262413998174
 20
100.8364678062729
 30
0.0
 10
247.2246756508494
 20
101.3589061808054
 30
0.0
 10
247.2851591786887
 20
101.682331933934
 30
0.0
 10
247.3390745666564
 20
102.286424223251
 30
0.0
 10
247.3298484883795
 20
102.5684237459283
 30
0.0
 10
247.2794786809904
 20
102.9314679199944
 30
0.0
 10
247.2565204962724
 20
103.0419686162594
 30
0.0
 10
247.198742832034
 20
103.2282724995797
 30
0.0
 10
247.1642184032652
 20
103.3047988009378
 30
0.0
 10
247.1211582223456
 20
103.3476230936809
 30
0.0
  0
SPLINE
  5
18D
330
1F
100
AcDbEntity
  8
0
  6
HIDDEN
 62
     7
370
     0
100
AcDbSpline
210
0.0
220
0.0
230
1.0
 70
     8
 71
     3
 72
    12
 73
     8
 74
     0
 42
0.00000001
 43
0.00000001
 40
0.0
 40
0.0
 40
0.0
 40
0.0
 40
0.5
 40
0.5
 40
0.75
 40
0.75
 40
1.0
 40
1.0
 40
1.0
 40
1.0
 10
244.4643374945738
 20
99.18431538941543
 30
0.0
 10
244.7563013513457
 20
99.34843074752793
 30
0.0
 10
245.0628306715457
 20
99.48847439266694
 30
0.0
 10
245.5424533047458
 20
99.66849438876372
 30
0.0
 10
245.7038768914424
 20
99.72249657288094
 30
0.0
 10
246.0234069795262
 20
99.81602645250987
 30
0.0
 10
246.1825483698414
 20
99.85593926722981
 30
0.0
 10
246.3414842258763
 20
99.88816398014052
 30
0.0
  0
SPLINE
  5
18E
330
1F
100
AcDbEntity
  8
0
  6
HIDDEN
 62
     7
370
     0
100
AcDbSpline
210
0.0
220
0.0
230
1.0
 70
     8
 71
     3
 72
    20
 73
    16
 74
     0
 42
0.00000001
 43
0.00000001
 40
0.0
 40
0.0
 40
0.0
 40
0.0
 40
0.1249999999999996
 40
0.1249999999999996
 40
0.2499999999999991
 40
0.2499999999999991
 40
0.4999999999999987
 40
0.4999999999999987
 40
0.7499999999999982
 40
0.7499999999999982
 40
0.8749999999999986
 40
0.8749999999999986
 40
0.9374999999999992
 40
0.9374999999999992
 40
1.0
 40
1.0
 40
1.0
 40
1.0
 10
240.5793440183325
 20
100.8947265611411
 30
0.0
 10
240.6226433479479
 20
100.8516644297838
 30
0.0
 10
240.6935679985883
 20
100.7884629055732
 30
0.0
 10
240.8642018049119
 20
100.6445190684483
 30
0.0
 10
240.9646347848331
 20
100.5633835299911
 30
0.0
 10
241.2988505153655
 20
100.3085394629348
 30
0.0
 10
241.5649002963966
 20
100.1234000914059
 30
0.0
 10
242.1797510630331
 20
99.76621123569747
 30
0.0
 10
242.5249284732263
 20
99.5933891248257
 30
0.0
 10
243.1437066302443
 20
99.37668807582092
 30
0.0
 10
243.3672884474328
 20
99.31169948392007
 30
0.0
 10
243.7389853881017
 20
99.23833930878614
 30
0.0
 10
243.869247605265
 20
99.21787289492046
 30
0.0
 10
244.1489671015173
 20
99.18940312612767
 30
0.0
 10
244.2980183867182
 20
99.18112523768316
 30
0.0
 10
244.4643374945738
 20
99.18431538941542
 30
0.0
  0
ELLIPSE
  5
18F
330
1F
100
AcDbEntity
  8
0
  6
HIDDEN
 62
     7
370
     0
100
AcDbEllipse
 10
245.444521726
 20
98.6740011054
 30
0.0
 11
-1.316917434716487
 21
3.872622565108358
 31
0.0
210
0.0
220
0.0
230
1.0
 40
0.8539059128
 41
1.558430135847473
 42
1.597220060046366
  0
ELLIPSE
  5
190
330
1F
100
AcDbEntity
  8
0
  6
HIDDEN
 62
     7
370
     0
100
AcDbEllipse
 10
246.1908445899
 20
97.0602822326
 30
0.0
 11
4.15574986077462
 21
-0.6833618997421524
 31
0.0
210
0.0
220
0.0
230
1.0
 40
0.1367129703
 41
3.369719057218804
 42
4.030777987427427
  0
ELLIPSE
  5
191
330
1F
100
AcDbEntity
  8
0
  6
HIDDEN
 62
     7
370
     0
100
AcDbEllipse
 10
246.9062402397
 20
95.5134349934
 30
0.0
 11
-1.316917434716487
 21
3.872622565108358
 31
0.0
210
0.0
220
0.0
230
1.0
 40
0.8539059128
 41
0.6778123012954727
 42
0.8973712056387744
  0
ELLIPSE
  5
192
330
1F
100
AcDbEntity
  8
0
  6
HIDDEN
 62
     7
370
     0
100
AcDbEllipse
 10
246.9062402397
 20
95.5134349934
 30
0.0
 11
-1.316917434716487
 21
3.872622565108358
 31
0.0
210
0.0
220
0.0
230
1.0
 40
0.8539059128
 41
4.738812713636236
 42
4.905062546971283
  0
ELLIPSE
  5
193
330
1F
100
AcDbEntity
  8
0
  6
HIDDEN
 62
     7
370
     0
100
AcDbEllipse
 10
245.7429375654
 20
98.0287585499
 30
0.0
 11
4.15574986077462
 21
-0.6833618997421667
 31
0.0
210
0.0
220
0.0
230
1.0
 40
0.1367129703
 41
4.250336891770719
 42
6.306271953274512
  0
LINE
  5
194
330
1F
100
AcDbEntity
  8
0
  6
HIDDEN
 62
     7
370
     0
100
AcDbLine
 10
193.2550255368
 20
98.8799163686
 30
0.0
 11
201.2550259167
 21
98.8799163686
 31
0.0
  0
LWPOLYLINE
  5
195
330
1F
100
AcDbEntity
  8
0
  6
HIDDEN
 62
     7
370
     0
100
AcDbPolyline
 90
       27
 70
   128
 43
0.0
 10
218.305024893
 20
131.0878365846
 10
218.9033139656
 20
131.1525639692
 10
219.4668330411
 20
131.3429849768
 10
219.9628330926
 20
131.6480327012
 10
220.3624859611
 20
132.0499794172
 10
220.6425644616
 20
132.5254647607
 10
220.7867965261
 20
133.0468554595
 10
220.7867965261
 20
133.5838500025
 10
220.6425644616
 20
134.1052407013
 10
220.3624859611
 20
134.5807265105
 10
219.9628330926
 20
134.9826722951
 10
219.4668330411
 20
135.2877204852
 10
218.9033139656
 20
135.4781414928
 10
218.305024893
 20
135.542869343
 10
217.7067358205
 20
135.4781414928
 10
217.143216745
 20
135.2877204852
 10
216.6472185562
 20
134.9826722951
 10
216.2475656877
 20
134.5807265105
 10
215.9674853245
 20
134.1052407013
 10
215.82325326
 20
133.5838500025
 10
215.82325326
 20
133.0468554595
 10
215.9674853245
 20
132.5254647607
 10
216.2475656877
 20
132.0499794172
 10
216.6472185562
 20
131.6480327012
 10
217.143216745
 20
131.3429849768
 10
217.7067358205
 20
131.1525639692
 10
218.305024893
 20
131.0878365846
  0
LINE
  5
196
330
1F
100
AcDbEntity
  8
0
  6
HIDDEN
 62
     7
370
     0
100
AcDbLine
 10
247.121156768
 20
103.3476234959
 30
0.0
 11
246.8998298207
 21
103.5677378611
 31
0.0
  0
ELLIPSE
  5
197
330
1F
100
AcDbEntity
  8
0
  6
HIDDEN
 62
     7
370
     0
100
AcDbEllipse
 10
242.9908677825
 20
104.3514779494
 30
0.0
 11
3.518690774465569
 21
2.323872478491282
 31
0.0
210
0.0
220
0.0
230
0.9999999999999998
 40
0.89827004
 41
3.477852089127334
 42
5.448073655802828
  0
LINE
  5
198
330
1F
100
AcDbEntity
  8
0
  6
HIDDEN
 62
     7
370
     0
100
AcDbLine
 10
240.3580151657
 20
101.1148428159
 30
0.0
 11
240.5793458382
 21
100.894726588
 31
0.0
  0
ELLIPSE
  5
199
330
1F
100
AcDbEntity
  8
0
  6
HIDDEN
 62
     7
370
     0
100
AcDbEllipse
 10
241.4945935414
 20
105.8395554436
 30
0.0
 11
-3.010891765567266
 21
2.99439778544054
 31
0.0
210
0.0
220
0.0
230
1.0
 40
0.9890738004
 41
0.0
 42
6.283185307179586
  0
ARC
  5
19A
330
1F
100
AcDbEntity
  8
0
  6
HIDDEN
 62
     7
370
     0
100
AcDbCircle
 10
243.9773245168
 20
103.3382372831
 30
0.0
 40
4.182373754037996
100
AcDbArc
 50
304.4208497513
 51
276.6869540497
  0
LINE
  5
19B
330
1F
100
AcDbEntity
  8
0
  6
HIDDEN
 62
     7
370
     0
100
AcDbLine
 10
240.3823897401
 20
97.288137077
 30
0.0
 11
243.499984608
 21
97.0496328162
 31
0.0
  0
ARC
  5
19C
330
1F
100
AcDbEntity
  8
0
  6
HIDDEN
 62
     7
370
     0
100
AcDbCircle
 10
239.6498623991
 20
94.2296010822
 30
0.0
 40
3.102321261975045
100
AcDbArc
 50
100.1499718175
 51
220.9959192347
  0
LINE
  5
19D
330
1F
100
AcDbEntity
  8
0
  6
HIDDEN
 62
     7
370
     0
100
AcDbLine
 10
243.8067361871
 20
97.8248228865
 30
0.0
 11
239.965790526
 21
98.118664472
 31
0.0
  0
ARC
  5
19E
330
1F
100
AcDbEntity
  8
0
  6
HIDDEN
 62
     7
370
     0
100
AcDbCircle
 10
239.1663437388
 20
94.7148550534
 30
0.0
 40
3.099648204347787
100
AcDbArc
 50
85.4067073482
 51
232.1912441525
  0
LINE
  5
19F
330
1F
100
AcDbEntity
  8
0
  6
HIDDEN
 62
     7
370
     0
100
AcDbLine
 10
242.4451053301
 20
82.699076979
 30
0.0
 11
241.7184911827
 21
90.9963341044
 31
0.0
  0
LINE
  5
1A0
330
1F
100
AcDbEntity
  8
0
  6
HIDDEN
 62
     7
370
     0
100
AcDbLine
 10
240.913672016
 20
91.0579019772
 30
0.0
 11
241.6390977958
 21
82.7742309855
 31
0.0
  0
LINE
  5
1A1
330
1F
100
AcDbEntity
  8
0
  6
HIDDEN
 62
     7
370
     0
100
AcDbLine
 10
250.2527363757
 20
96.5330319093
 30
0.0
 11
250.1771465102
 21
96.7398823784
 31
0.0
  0
LINE
  5
1A2
330
1F
100
AcDbEntity
  8
0
  6
HIDDEN
 62
     7
370
     0
100
AcDbLine
 10
250.2527363757
 20
96.5330319093
 30
0.0
 11
255.5337451557
 21
96.1290223138
 31
0.0
  0
LINE
  5
1A3
330
1F
100
AcDbEntity
  8
0
  6
HIDDEN
 62
     7
370
     0
100
AcDbLine
 10
255.463337169
 20
96.9330666201
 30
0.0
 11
249.8997353176
 21
97.3586940752
 31
0.0
  0
LINE
  5
1A4
330
1F
100
AcDbEntity
  8
0
  6
HIDDEN
 62
     7
370
     0
100
AcDbLine
 10
255.5337451557
 20
96.1290223138
 30
0.0
 11
255.463337169
 21
96.9330666201
 31
0.0
  0
LINE
  5
1A5
330
1F
100
AcDbEntity
  8
0
  6
HIDDEN
 62
     7
370
     0
100
AcDbLine
 10
249.770862625
 20
97.0122681545
 30
0.0
 11
250.2527363757
 21
96.5330319093
 31
0.0
  0
LINE
  5
1A6
330
1F
100
AcDbEntity
  8
0
  6
HIDDEN
 62
     7
370
     0
100
AcDbLine
 10
251.3005413274
 20
92.8263084577
 30
0.0
 11
249.770862625
 21
97.0122681545
 31
0.0
  0
LINE
  5
1A7
330
1F
100
AcDbEntity
  8
0
  6
HIDDEN
 62
     7
370
     0
100
AcDbLine
 10
251.0530181388
 20
93.0724756406
 30
0.0
 11
251.3005413274
 21
92.8263084577
 31
0.0
  0
LINE
  5
1A8
330
1F
100
AcDbEntity
  8
0
  6
HIDDEN
 62
     7
370
     0
100
AcDbLine
 10
248.432946966
 20
98.7376698838
 30
0.0
 11
246.8998298207
 21
103.5677378611
 31
0.0
  0
LINE
  5
1A9
330
1F
100
AcDbEntity
  8
0
  6
HIDDEN
 62
     7
370
     0
100
AcDbLine
 10
255.051871405
 20
96.608258559
 30
0.0
 11
255.5337451557
 21
96.1290223138
 31
0.0
  0
LINE
  5
1AA
330
1F
100
AcDbEntity
  8
0
  6
HIDDEN
 62
     7
370
     0
100
AcDbLine
 10
166.5050253431
 20
107.2899156796
 30
0.0
 11
166.5050253431
 21
103.3056003587
 31
0.0
  0
LINE
  5
1AB
330
1F
100
AcDbEntity
  8
0
  6
HIDDEN
 62
     7
370
     0
100
AcDbLine
 10
162.5050246874
 20
143.2699167715
 30
0.0
 11
162.5050246874
 21
147.1240238832
 31
0.0
  0
SPLINE
  5
1AC
330
1F
100
AcDbEntity
  8
0
  6
HIDDEN
 62
     7
370
     0
100
AcDbSpline
210
0.0
220
0.0
230
1.0
 70
     8
 71
     3
 72
    22
 73
    18
 74
     0
 42
0.00000001
 43
0.00000001
 40
0.0
 40
0.0
 40
0.0
 40
0.0
 40
0.2499999999999923
 40
0.2499999999999923
 40
0.3749999999999891
 40
0.3749999999999891
 40
0.499999999999986
 40
0.499999999999986
 40
0.6249999999999829
 40
0.6249999999999829
 40
0.6874999999999813
 40
0.6874999999999813
 40
0.7499999999999833
 40
0.7499999999999833
 40
0.8749999999999917
 40
0.8749999999999917
 40
1.0
 40
1.0
 40
1.0
 40
1.0
 10
156.4050255635923
 20
105.2910937866698
 30
0.0
 10
156.4050255635923
 20
105.2030298438631
 30
0.0
 10
156.4332761445396
 20
105.1263485485552
 30
0.0
 10
156.5082719450685
 20
105.0323545615361
 30
0.0
 10
156.5390085497328
 20
105.0041079084963
 30
0.0
 10
156.6116652079516
 20
104.952828732538
 30
0.0
 10
156.6535146657508
 20
104.9298273347531
 30
0.0
 10
156.7537183997019
 20
104.8829291353508
 30
0.0
 10
156.8114983634008
 20
104.8600873140971
 30
0.0
 10
156.9262236313166
 20
104.8067530611004
 30
0.0
 10
156.9698993156974
 20
104.7848759639168
 30
0.0
 10
157.0582980299127
 20
104.735072416951
 30
0.0
 10
157.1024359332018
 20
104.7075984911504
 30
0.0
 10
157.223699717518
 20
104.6286101742554
 30
0.0
 10
157.2928328658858
 20
104.5799255159681
 30
0.0
 10
157.4235380992687
 20
104.4919499825558
 30
0.0
 10
157.4851486017929
 20
104.4520585882859
 30
0.0
 10
157.5449806331743
 20
104.4161764904412
 30
0.0
  0
LINE
  5
1AD
330
1F
100
AcDbEntity
  8
0
  6
HIDDEN
 62
     7
370
     0
100
AcDbLine
 10
156.4050257364
 20
107.2899156796
 30
0.0
 11
156.4050257364
 21
105.2910944061
 31
0.0
  0
LINE
  5
1AE
330
1F
100
AcDbEntity
  8
0
  6
HIDDEN
 62
     7
370
     0
100
AcDbLine
 10
157.5550247142
 20
107.2899156796
 30
0.0
 11
157.5550247142
 21
104.4101805972
 31
0.0
  0
SPLINE
  5
1AF
330
1F
100
AcDbEntity
  8
0
  6
HIDDEN
 62
     7
370
     0
100
AcDbSpline
210
0.0
220
0.0
230
1.0
 70
     8
 71
     3
 72
     8
 73
     4
 74
     0
 42
0.00000001
 43
0.00000001
 40
0.0000002432968744
 40
0.0000002432968744
 40
0.0000002432968744
 40
0.0000002432968744
 40
0.0014011510532366
 40
0.0014011510532366
 40
0.0014011510532366
 40
0.0014011510532366
 10
156.4050255635925
 20
109.0094022319251
 30
0.0
 10
156.788890030329
 20
109.1563411443874
 30
0.0
 10
157.1722436521526
 20
109.3050735042053
 30
0.0
 10
157.5550255635925
 20
109.4557308199658
 30
0.0
  0
SPLINE
  5
1B0
330
1F
100
AcDbEntity
  8
0
  6
HIDDEN
 62
     7
370
     0
100
AcDbSpline
210
0.0
220
0.0
230
1.0
 70
     8
 71
     3
 72
     8
 73
     4
 74
     0
 42
0.00000001
 43
0.00000001
 40
0.0000002438860713
 40
0.0000002438860713
 40
0.0000002438860713
 40
0.0000002438860713
 40
0.0014006025853533
 40
0.0014006025853533
 40
0.0014006025853533
 40
0.0014006025853533
 10
157.5550255635925
 20
141.081406661572
 30
0.0
 10
157.1722384910275
 20
141.2314781895478
 30
0.0
 10
156.7888850910714
 20
141.3796353914652
 30
0.0
 10
156.4050255635925
 20
141.5260089032685
 30
0.0
  0
LINE
  5
1B1
330
1F
100
AcDbEntity
  8
0
  6
HIDDEN
 62
     7
370
     0
100
AcDbLine
 10
156.4050257364
 20
141.5260096626
 30
0.0
 11
156.4050257364
 21
109.0094016479
 31
0.0
  0
LINE
  5
1B2
330
1F
100
AcDbEntity
  8
0
  6
HIDDEN
 62
     7
370
     0
100
AcDbLine
 10
157.5550247142
 20
143.2699167715
 30
0.0
 11
157.5550247142
 21
146.1498548822
 31
0.0
  0
LINE
  5
1B3
330
1F
100
AcDbEntity
  8
0
  6
HIDDEN
 62
     7
370
     0
100
AcDbLine
 10
156.4050257364
 20
143.2699167715
 30
0.0
 11
156.4050257364
 21
145.255977063
 31
0.0
  0
SPLINE
  5
1B4
330
1F
100
AcDbEntity
  8
0
  6
HIDDEN
 62
     7
370
     0
100
AcDbSpline
210
0.0
220
0.0
230
1.0
 70
     8
 71
     3
 72
    22
 73
    18
 74
     0
 42
0.00000001
 43
0.00000001
 40
0.0
 40
0.0
 40
0.0
 40
0.0
 40
0.1250000000000034
 40
0.1250000000000034
 40
0.2500000000000068
 40
0.2500000000000068
 40
0.3125000000000057
 40
0.3125000000000057
 40
0.3750000000000047
 40
0.3750000000000047
 40
0.5000000000000027
 40
0.5000000000000027
 40
0.6250000000000006
 40
0.6250000000000006
 40
0.7499999999999986
 40
0.7499999999999986
 40
1.0
 40
1.0
 40
1.0
 40
1.0
 10
157.5449806331616
 20
146.1441080979691
 30
0.0
 10
157.4843609122852
 20
146.1092859213218
 30
0.0
 10
157.4221715723186
 20
146.0707821176211
 30
0.0
 10
157.2884421060892
 20
145.9848476298224
 30
0.0
 10
157.2161875643769
 20
145.9365410286202
 30
0.0
 10
157.0942896235412
 20
145.8601893104504
 30
0.0
 10
157.0504830703891
 20
145.8337748498434
 30
0.0
 10
156.9640879012142
 20
145.7852659253128
 30
0.0
 10
156.9217479249225
 20
145.7633318025864
 30
0.0
 10
156.8077771785535
 20
145.7069620126418
 30
0.0
 10
156.7493584525633
 20
145.6806051881081
 30
0.0
 10
156.6494508813758
 20
145.628465363604
 30
0.0
 10
156.6080368905805
 20
145.6033047738914
 30
0.0
 10
156.5360119227032
 20
145.5481979305644
 30
0.0
 10
156.5056633813902
 20
145.5183415270695
 30
0.0
 10
156.4321716513581
 20
145.4209348250768
 30
0.0
 10
156.4050255635925
 20
145.3446031412664
 30
0.0
 10
156.4050255635925
 20
145.2559767301963
 30
0.0
  0
LINE
  5
1B5
330
1F
100
AcDbEntity
  8
0
  6
HIDDEN
 62
     7
370
     0
100
AcDbLine
 10
242.1736136237
 20
97.4475534247
 30
0.0
 11
244.7587266723
 21
90.3734134124
 31
0.0
  0
ARC
  5
1B6
330
1F
100
AcDbEntity
  8
0
  6
HIDDEN
 62
     7
370
     0
100
AcDbCircle
 10
248.7014702477
 20
89.808089118
 30
0.0
 40
3.983066464385972
100
AcDbArc
 50
171.8403460689
 51
49.2673605944
  0
LINE
  5
1B7
330
1F
100
AcDbEntity
  8
0
  6
HIDDEN
 62
     7
370
     0
100
AcDbLine
 10
255.7940535406
 20
82.3687182354
 30
0.0
 11
256.2574274996
 21
82.8419977413
 31
0.0
  0
LINE
  5
1B8
330
1F
100
AcDbEntity
  8
0
  6
HIDDEN
 62
     7
370
     0
100
AcDbLine
 10
255.051871405
 20
96.608258559
 30
0.0
 11
249.770862625
 21
97.0122681545
 31
0.0
  0
LINE
  5
1B9
330
1F
100
AcDbEntity
  8
0
  6
HIDDEN
 62
     7
370
     0
100
AcDbLine
 10
241.2366137067
 20
91.4755703496
 30
0.0
 11
241.9356122771
 21
83.493685125
 31
0.0
  0
LINE
  5
1BA
330
1F
100
AcDbEntity
  8
0
  6
HIDDEN
 62
     7
370
     0
100
AcDbLine
 10
242.1216346482
 20
97.5974516557
 30
0.0
 11
239.4145704964
 21
97.804547994
 31
0.0
  0
LINE
  5
1BB
330
1F
100
AcDbEntity
  8
0
  6
HIDDEN
 62
     7
370
     0
100
AcDbLine
 10
256.2574200491
 20
82.8420051919
 30
0.0
 11
255.051871405
 21
96.608258559
 31
0.0
  0
SPLINE
  5
1BC
330
1F
100
AcDbEntity
  8
0
  6
HIDDEN
 62
     7
370
     0
100
AcDbSpline
210
0.0
220
0.0
230
1.0
 70
     8
 71
     3
 72
    10
 73
     6
 74
     0
 42
0.00000001
 43
0.00000001
 40
0.0
 40
0.0
 40
0.0
 40
0.0
 40
0.5
 40
0.5
 40
1.0
 40
1.0
 40
1.0
 40
1.0
 10
204.3950255635925
 20
152.3995700765762
 30
0.0
 10
204.3950255635925
 20
152.2559577250182
 30
0.0
 10
204.4311928386903
 20
152.1129843112996
 30
0.0
 10
204.5669487824442
 20
151.8629916845858
 30
0.0
 10
204.6672184730671
 20
151.754989375307
 30
0.0
 10
204.7893230952835
 20
151.6799162255403
 30
0.0
  0
LINE
  5
1BD
330
1F
100
AcDbEntity
  8
0
  6
HIDDEN
 62
     7
370
     0
100
AcDbLine
 10
204.3950256119
 20
152.399569525
 30
0.0
 11
204.3950256119
 21
98.4755212055
 31
0.0
  0
SPLINE
  5
1BE
330
1F
100
AcDbEntity
  8
0
  6
HIDDEN
 62
     7
370
     0
100
AcDbSpline
210
0.0
220
0.0
230
1.0
 70
     8
 71
     3
 72
    10
 73
     6
 74
     0
 42
0.00000001
 43
0.00000001
 40
0.0
 40
0.0
 40
0.0
 40
0.0
 40
0.5
 40
0.5
 40
1.0
 40
1.0
 40
1.0
 40
1.0
 10
204.3950255635925
 20
98.47552059721107
 30
0.0
 10
204.3950255635925
 20
98.5457569575816
 30
0.0
 10
204.4033081756829
 20
98.61575105907885
 30
0.0
 10
204.4364081187412
 20
98.7527103236373
 30
0.0
 10
204.4607455106996
 20
98.81801823289238
 30
0.0
 10
204.4927003659241
 20
98.87991622553912
 30
0.0
  0
SPLINE
  5
1BF
330
1F
100
AcDbEntity
  8
0
  6
HIDDEN
 62
     7
370
     0
100
AcDbSpline
210
0.0
220
0.0
230
1.0
 70
    24
 71
     3
 72
    12
 73
     8
 74
     0
 42
0.00000001
 43
0.00000001
 40
0.0
 40
0.0
 40
0.0
 40
0.0
 40
0.4999999999999942
 40
0.4999999999999942
 40
0.7499999999999971
 40
0.7499999999999971
 40
1.0
 40
1.0
 40
1.0
 40
1.0
 10
204.7893230952835
 20
151.6799162255404
 30
0.0
 10
204.832446443717
 20
151.6799162255404
 30
0.0
 10
204.8821860310172
 20
151.6799162255404
 30
0.0
 10
204.9787070078392
 20
151.6799162255404
 30
0.0
 10
205.0142721386909
 20
151.6799162255404
 30
0.0
 10
205.0976204693138
 20
151.6799162255404
 30
0.0
 10
205.1460903690041
 20
151.6799162255404
 30
0.0
 10
205.1950255635937
 20
151.6799162255404
 30
0.0
  0
SPLINE
  5
1C0
330
1F
100
AcDbEntity
  8
0
  6
HIDDEN
 62
     7
370
     0
100
AcDbSpline
210
0.0
220
0.0
230
1.0
 70
    24
 71
     3
 72
    14
 73
    10
 74
     0
 42
0.00000001
 43
0.00000001
 40
0.0
 40
0.0
 40
0.0
 40
0.0
 40
0.5000000000000021
 40
0.5000000000000021
 40
0.7500000000000028
 40
0.7500000000000028
 40
0.8750000000000014
 40
0.8750000000000014
 40
1.0
 40
1.0
 40
1.0
 40
1.0
 10
204.4927003659247
 20
98.87991622554038
 30
0.0
 10
204.5399068537645
 20
98.87991622554038
 30
0.0
 10
204.6032468571938
 20
98.87991622554038
 30
0.0
 10
204.7463099634497
 20
98.87991622554038
 30
0.0
 10
204.8023906137207
 20
98.87991622554038
 30
0.0
 10
204.91382596363
 20
98.87991622554038
 30
0.0
 10
204.955770754303
 20
98.87991622554038
 30
0.0
 10
205.0607671973232
 20
98.87991622554037
 30
0.0
 10
205.1263311344038
 20
98.87991622554038
 30
0.0
 10
205.1950255635923
 20
98.87991622554038
 30
0.0
  0
LINE
  5
1C1
330
1F
100
AcDbEntity
  8
0
  6
HIDDEN
 62
     7
370
     0
100
AcDbLine
 10
208.2150258282
 20
152.399569525
 30
0.0
 11
208.2150258282
 21
98.4755212055
 31
0.0
  0
SPLINE
  5
1C2
330
1F
100
AcDbEntity
  8
0
  6
HIDDEN
 62
     7
370
     0
100
AcDbSpline
210
0.0
220
0.0
230
1.0
 70
     8
 71
     3
 72
    10
 73
     6
 74
     0
 42
0.00000001
 43
0.00000001
 40
0.0
 40
0.0
 40
0.0
 40
0.0
 40
0.5
 40
0.5
 40
1.0
 40
1.0
 40
1.0
 40
1.0
 10
207.8207280319015
 20
151.6799162255404
 30
0.0
 10
207.9420405549993
 20
151.7545023718286
 30
0.0
 10
208.0434689172244
 20
151.86332668298
 30
0.0
 10
208.1794124834845
 20
152.1143472016017
 30
0.0
 10
208.2150255635925
 20
152.2569298947409
 30
0.0
 10
208.2150255635925
 20
152.3995700765762
 30
0.0
  0
SPLINE
  5
1C3
330
1F
100
AcDbEntity
  8
0
  6
HIDDEN
 62
     7
370
     0
100
AcDbSpline
210
0.0
220
0.0
230
1.0
 70
     8
 71
     3
 72
    10
 73
     6
 74
     0
 42
0.00000001
 43
0.00000001
 40
0.0
 40
0.0
 40
0.0
 40
0.0
 40
0.5
 40
0.5
 40
1.0
 40
1.0
 40
1.0
 40
1.0
 10
208.1173507612602
 20
98.87991622554038
 30
0.0
 10
208.1495059488822
 20
98.81763018002427
 30
0.0
 10
208.1741621800765
 20
98.75109975515502
 30
0.0
 10
208.2069749370019
 20
98.61424112479251
 30
0.0
 10
208.2150255635925
 20
98.54518352961415
 30
0.0
 10
208.2150255635925
 20
98.47552059721082
 30
0.0
  0
SPLINE
  5
1C4
330
1F
100
AcDbEntity
  8
0
  6
HIDDEN
 62
     7
370
     0
100
AcDbSpline
210
0.0
220
0.0
230
1.0
 70
    24
 71
     3
 72
    12
 73
     8
 74
     0
 42
0.00000001
 43
0.00000001
 40
0.0
 40
0.0
 40
0.0
 40
0.0
 40
0.25
 40
0.25
 40
0.5
 40
0.5
 40
1.0
 40
1.0
 40
1.0
 40
1.0
 10
207.4150255635925
 20
151.6799162255404
 30
0.0
 10
207.4645606698105
 20
151.6799162255404
 30
0.0
 10
207.5129655584119
 20
151.6799162255404
 30
0.0
 10
207.5958521075896
 20
151.6799162255404
 30
0.0
 10
207.6323668290579
 20
151.6799162255404
 30
0.0
 10
207.7286996674126
 20
151.6799162255404
 30
0.0
 10
207.7774522150752
 20
151.6799162255404
 30
0.0
 10
207.8207280319059
 20
151.6799162255404
 30
0.0
  0
SPLINE
  5
1C5
330
1F
100
AcDbEntity
  8
0
  6
HIDDEN
 62
     7
370
     0
100
AcDbSpline
210
0.0
220
0.0
230
1.0
 70
    24
 71
     3
 72
    14
 73
    10
 74
     0
 42
0.00000001
 43
0.00000001
 40
0.0
 40
0.0
 40
0.0
 40
0.0
 40
0.1249999999999983
 40
0.1249999999999983
 40
0.2499999999999966
 40
0.2499999999999966
 40
0.4999999999999968
 40
0.4999999999999968
 40
1.0
 40
1.0
 40
1.0
 40
1.0
 10
207.4150255635925
 20
98.87991622554038
 30
0.0
 10
207.4841221959364
 20
98.87991622554038
 30
0.0
 10
207.5491153615444
 20
98.87991622554038
 30
0.0
 10
207.6534365601895
 20
98.87991622554038
 30
0.0
 10
207.696216934298
 20
98.87991622554038
 30
0.0
 10
207.8085545939442
 20
98.87991622554037
 30
0.0
 10
207.8636017760866
 20
98.87991622554038
 30
0.0
 10
208.0074785498567
 20
98.87991622554037
 30
0.0
 10
208.0705078631318
 20
98.87991622554038
 30
0.0
 10
208.1173507612602
 20
98.87991622554038
 30
0.0
  0
LINE
  5
1C6
330
1F
100
AcDbEntity
  8
0
  6
HIDDEN
 62
     7
370
     0
100
AcDbLine
 10
205.1950261155
 20
151.6799160825
 30
0.0
 11
207.4150253246
 21
151.6799160825
 31
0.0
  0
LINE
  5
1C7
330
1F
100
AcDbEntity
  8
0
  6
HIDDEN
 62
     7
370
     0
100
AcDbLine
 10
205.1950261155
 20
98.8799163686
 30
0.0
 11
207.4150253246
 21
98.8799163686
 31
0.0
  0
SPLINE
  5
1C8
330
1F
100
AcDbEntity
  8
0
  6
HIDDEN
 62
     7
370
     0
100
AcDbSpline
210
0.0
220
0.0
230
1.0
 70
     8
 71
     3
 72
     8
 73
     4
 74
     0
 42
0.00000001
 43
0.00000001
 40
0.0
 40
0.0
 40
0.0
 40
0.0
 40
1.0
 40
1.0
 40
1.0
 40
1.0
 10
202.9130927321034
 20
155.7471116987047
 30
0.0
 10
203.4082327614678
 20
154.8604320505244
 30
0.0
 10
203.9023154667467
 20
153.9731694148384
 30
0.0
 10
204.3950255635925
 20
153.085150416712
 30
0.0
  0
SPLINE
  5
1C9
330
1F
100
AcDbEntity
  8
0
  6
HIDDEN
 62
     7
370
     0
100
AcDbSpline
210
0.0
220
0.0
230
1.0
 70
     8
 71
     3
 72
    12
 73
     8
 74
     0
 42
0.00000001
 43
0.00000001
 40
0.0
 40
0.0
 40
0.0
 40
0.0
 40
0.25
 40
0.25
 40
0.5
 40
0.5
 40
1.0
 40
1.0
 40
1.0
 40
1.0
 10
213.6550255635925
 20
155.7471116987046
 30
0.0
 10
213.7345185126407
 20
155.7471116987046
 30
0.0
 10
213.8156020139963
 20
155.7301089487438
 30
0.0
 10
213.9620324111341
 20
155.6660484076322
 30
0.0
 10
214.0285810210078
 20
155.6188897919936
 30
0.0
 10
214.1928708949815
 20
155.4456677593013
 30
0.0
 10
214.2550255635926
 20
155.2855586690671
 30
0.0
 10
214.2550255635925
 20
155.1263565493037
 30
0.0
  0
SPLINE
  5
1CA
330
1F
100
AcDbEntity
  8
0
  6
HIDDEN
 62
     7
370
     0
100
AcDbSpline
210
0.0
220
0.0
230
1.0
 70
     8
 71
     3
 72
    12
 73
     8
 74
     0
 42
0.00000001
 43
0.00000001
 40
0.0
 40
0.0
 40
0.0
 40
0.0
 40
0.249999999999998
 40
0.249999999999998
 40
0.499999999999996
 40
0.499999999999996
 40
1.0
 40
1.0
 40
1.0
 40
1.0
 10
213.6550255635925
 20
95.09299852929324
 30
0.0
 10
213.7349065683396
 20
95.09299852929323
 30
0.0
 10
213.8155006986102
 20
95.11011561555908
 30
0.0
 10
213.9621161444551
 20
95.17485172703418
 30
0.0
 10
214.0286173371991
 20
95.22230896991452
 30
0.0
 10
214.1943522383363
 20
95.39913341245399
 30
0.0
 10
214.2550255635925
 20
95.55940991965973
 30
0.0
 10
214.2550255635925
 20
95.71963882494751
 30
0.0
  0
LINE
  5
1CB
330
1F
100
AcDbEntity
  8
0
  6
HIDDEN
 62
     7
370
     0
100
AcDbLine
 10
214.2550252536
 20
155.1263572262
 30
0.0
 11
214.2550252536
 21
95.7196389871
 31
0.0
  0
LINE
  5
1CC
330
1F
100
AcDbEntity
  8
0
  6
HIDDEN
 62
     7
370
     0
100
AcDbLine
 10
208.2150258282
 20
153.0851495998
 30
0.0
 11
208.2150258282
 21
97.7820789056
 31
0.0
  0
LINE
  5
1CD
330
1F
100
AcDbEntity
  8
0
  6
HIDDEN
 62
     7
370
     0
100
AcDbLine
 10
209.6969574848
 20
155.7471116619
 30
0.0
 11
209.6969574848
 21
95.0929985927
 31
0.0
  0
LINE
  5
1CE
330
1F
100
AcDbEntity
  8
0
  6
HIDDEN
 62
     7
370
     0
100
AcDbLine
 10
204.3950256119
 20
153.0851495998
 30
0.0
 11
204.3950256119
 21
97.7820789056
 31
0.0
  0
LINE
  5
1CF
330
1F
100
AcDbEntity
  8
0
  6
HIDDEN
 62
     7
370
     0
100
AcDbLine
 10
209.6969574848
 20
155.7471116619
 30
0.0
 11
213.6550262729
 21
155.7471116619
 31
0.0
  0
SPLINE
  5
1D0
330
1F
100
AcDbEntity
  8
0
  6
HIDDEN
 62
     7
370
     0
100
AcDbSpline
210
0.0
220
0.0
230
1.0
 70
     8
 71
     3
 72
     8
 73
     4
 74
     0
 42
0.00000001
 43
0.00000001
 40
0.0
 40
0.0
 40
0.0
 40
0.0
 40
1.0
 40
1.0
 40
1.0
 40
1.0
 10
208.2150255635925
 20
153.085150416712
 30
0.0
 10
208.7077356604382
 20
153.9731694148384
 30
0.0
 10
209.2018183657172
 20
154.8604320505244
 30
0.0
 10
209.6969583950815
 20
155.7471116987047
 30
0.0
  0
LINE
  5
1D1
330
1F
100
AcDbEntity
  8
0
  6
HIDDEN
 62
     7
370
     0
100
AcDbLine
 10
156.4050257364
 20
145.255977063
 30
0.0
 11
156.4050257364
 21
105.2910944061
 31
0.0
  0
SPLINE
  5
1D2
330
1F
100
AcDbEntity
  8
0
  6
HIDDEN
 62
     7
370
     0
100
AcDbSpline
210
0.0
220
0.0
230
1.0
 70
     8
 71
     3
 72
    12
 73
     8
 74
     0
 42
0.00000001
 43
0.00000001
 40
0.0
 40
0.0
 40
0.0
 40
0.0
 40
0.2500000000000003
 40
0.2500000000000003
 40
0.5000000000000007
 40
0.5000000000000007
 40
1.0
 40
1.0
 40
1.0
 40
1.0
 10
244.5112072662043
 20
90.61957813394835
 30
0.0
 10
244.4693467288038
 20
90.66120935494503
 30
0.0
 10
244.4338566885885
 20
90.73899277811127
 30
0.0
 10
244.3713740503945
 20
90.92563030635839
 30
0.0
 10
244.344688803565
 20
91.03557490874672
 30
0.0
 10
244.2798116286091
 20
91.39338372406486
 30
0.0
 10
244.2563998785364
 20
91.66842113487944
 30
0.0
 10
244.263734912072
 20
91.96357730013855
 30
0.0
  0
ARC
  5
1D3
330
1F
100
AcDbEntity
  8
0
  6
HIDDEN
 62
     7
370
     0
100
AcDbCircle
 10
247.9132609024
 20
90.4845415884
 30
0.0
 40
3.937838660685957
100
AcDbArc
 50
157.9388790633
 51
268.5818545584
  0
ARC
  5
1D4
330
1F
100
AcDbEntity
  8
0
  6
HIDDEN
 62
     7
370
     0
100
AcDbCircle
 10
247.9451062496
 20
90.541550475
 30
0.0
 40
3.98718060585926
100
AcDbArc
 50
283.1566019441
 51
61.7094946252
  0
SPLINE
  5
1D5
330
1F
100
AcDbEntity
  8
0
  6
HIDDEN
 62
     7
370
     0
100
AcDbSpline
210
0.0
220
0.0
230
1.0
 70
     8
 71
     3
 72
    12
 73
     8
 74
     0
 42
0.00000001
 43
0.00000001
 40
0.0
 40
0.0
 40
0.0
 40
0.0
 40
0.5000000000000001
 40
0.5000000000000001
 40
0.75
 40
0.75
 40
1.0
 40
1.0
 40
1.0
 40
1.0
 10
249.8348000880542
 20
94.05248505975297
 30
0.0
 10
250.1185750899003
 20
93.86648252896067
 30
0.0
 10
250.3667112176271
 20
93.67570701087702
 30
0.0
 10
250.682532964824
 20
93.41199152378755
 30
0.0
 10
250.7782104198311
 20
93.32791600647761
 30
0.0
 10
250.942070344587
 20
93.17929056278847
 30
0.0
 10
251.0111609328172
 20
93.11410588748433
 30
0.0
 10
251.0530214702177
 20
93.07247466648765
 30
0.0
  0
LINE
  5
1D6
330
1F
100
AcDbEntity
  8
0
  6
HIDDEN
 62
     7
370
     0
100
AcDbLine
 10
244.7587266723
 20
90.3734134124
 30
0.0
 11
244.511207209
 21
90.6195768701
 31
0.0
  0
SPLINE
  5
1D7
330
1F
100
AcDbEntity
  8
0
  6
HIDDEN
 62
     7
370
     0
100
AcDbSpline
210
0.0
220
0.0
230
1.0
 70
     8
 71
     3
 72
     8
 73
     4
 74
     0
 42
0.00000001
 43
0.00000001
 40
0.0
 40
0.0
 40
0.0
 40
0.0
 40
1.0
 40
1.0
 40
1.0
 40
1.0
 10
202.9130927321034
 20
95.09299852929323
 30
0.0
 10
203.4085723927692
 20
95.98852461722659
 30
0.0
 10
203.9026864408113
 20
96.88480903227884
 30
0.0
 10
204.3950255635925
 20
97.78207906648552
 30
0.0
  0
LINE
  5
1D8
330
1F
100
AcDbEntity
  8
0
  6
HIDDEN
 62
     7
370
     0
100
AcDbLine
 10
209.6969574848
 20
95.0929985927
 30
0.0
 11
213.6550262729
 21
95.0929985927
 31
0.0
  0
SPLINE
  5
1D9
330
1F
100
AcDbEntity
  8
0
  6
HIDDEN
 62
     7
370
     0
100
AcDbSpline
210
0.0
220
0.0
230
1.0
 70
     8
 71
     3
 72
     8
 73
     4
 74
     0
 42
0.00000001
 43
0.00000001
 40
0.0
 40
0.0
 40
0.0
 40
0.0
 40
1.0
 40
1.0
 40
1.0
 40
1.0
 10
208.2150255635925
 20
97.78207906648552
 30
0.0
 10
208.7073646863737
 20
96.88480903227882
 30
0.0
 10
209.2014787344158
 20
95.98852461722659
 30
0.0
 10
209.6969583950815
 20
95.09299852929324
 30
0.0
  0
SPLINE
  5
1DA
330
1F
100
AcDbEntity
  8
0
  6
HIDDEN
 62
     7
370
     0
100
AcDbSpline
210
0.0
220
0.0
230
1.0
 70
     8
 71
     3
 72
    28
 73
    24
 74
     0
 42
0.00000001
 43
0.00000001
 40
0.0
 40
0.0
 40
0.0
 40
0.0
 40
0.0356566818980076
 40
0.0712866028291034
 40
0.1068978621510475
 40
0.1424985719584597
 40
0.1780968515579938
 40
0.2137008219188956
 40
0.2493186001178718
 40
0.2849582937972687
 40
0.3206279956554171
 40
0.356335777987781
 40
0.3920896872971121
 40
0.4278977389903086
 40
0.4637679121789547
 40
0.4997081445997765
 40
0.5715199418486743
 40
0.6431107952666925
 40
0.7145446459608981
 40
0.7858858571908899
 40
0.8571990430501755
 40
0.9285488937712396
 40
1.0
 40
1.0
 40
1.0
 40
1.0
 10
256.2574098050828
 20
82.84201504131458
 30
0.0
 10
256.2316837589453
 20
82.89889315430447
 30
0.0
 10
256.1802509745203
 20
83.01260669226006
 30
0.0
 10
256.1022644474343
 20
83.19521420773347
 30
0.0
 10
256.0237103053767
 20
83.38653697317494
 30
0.0
 10
255.9445256740129
 20
83.5874435851844
 30
0.0
 10
255.8647274043395
 20
83.79770142731579
 30
0.0
 10
255.7843109984326
 20
84.0173727669271
 30
0.0
 10
255.7032776776338
 20
84.24644087141517
 30
0.0
 10
255.6216271315259
 20
84.48491016825618
 30
0.0
 10
255.5393594588783
 20
84.73277941530485
 30
0.0
 10
255.4564746553917
 20
84.99004884904092
 30
0.0
 10
255.3729727205022
 20
85.25671843486207
 30
0.0
 10
255.2888537426704
 20
85.53278771276196
 30
0.0
 10
255.2041174498838
 20
85.81825817389118
 30
0.0
 10
255.0904322241108
 20
86.21100432494924
 30
0.0
 10
254.9473905893292
 20
86.72324559191364
 30
0.0
 10
254.7744621240738
 20
87.37142023110313
 30
0.0
 10
254.6004801695257
 20
88.05232103755714
 30
0.0
 10
254.4254501717126
 20
88.7657443255743
 30
0.0
 10
254.2493568607148
 20
89.512435679765
 30
0.0
 10
254.0722584156958
 20
90.28960621904191
 30
0.0
 10
253.9534990950756
 20
90.8344335352604
 30
0.0
 10
253.8940773305822
 20
91.10704035302238
 30
0.0
  0
ELLIPSE
  5
1DB
330
1F
100
AcDbEntity
  8
0
  6
HIDDEN
 62
     7
370
     0
100
AcDbEllipse
 10
246.3134119539
 20
95.0216932851
 30
0.0
 11
-1.316917434716459
 21
3.872622565108358
 31
0.0
210
0.0
220
0.0
230
1.0
 40
0.8539059128
 41
2.148969914261294
 42
4.187062859421283
  0
LWPOLYLINE
  5
1DC
330
1F
100
AcDbEntity
  8
0
  6
HIDDEN
 62
     7
370
     0
100
AcDbPolyline
 90
       16
 70
   128
 43
0.0
 10
241.891132311
 20
96.2847729759
 10
242.1322107474
 20
95.7772431509
 10
242.5057083527
 20
95.3454969065
 10
242.9953009049
 20
95.008402838
 10
243.5795903364
 20
94.7806944685
 10
244.2330397824
 20
94.6723239111
 10
244.9270911673
 20
94.6880260097
 10
245.6314094523
 20
94.8271153109
 10
246.3152162889
 20
95.083512141
 10
246.9486199478
 20
95.4460126893
 10
247.5039452473
 20
95.8987714337
 10
247.9569181958
 20
96.4220033573
 10
248.2877388755
 20
96.9928389029
 10
248.4819531599
 20
97.5863298015
 10
248.5310711125
 20
98.1765387194
 10
248.432946966
 20
98.7376698838
  0
LINE
  5
1DD
330
1F
100
AcDbEntity
  8
0
  6
HIDDEN
 62
     7
370
     0
100
AcDbLine
 10
240.3580151657
 20
101.1148428159
 30
0.0
 11
241.891132311
 21
96.2847729759
 31
0.0
  0
LWPOLYLINE
  5
1DE
330
1F
100
AcDbEntity
  8
0
  6
HIDDEN
 62
     7
370
     0
100
AcDbPolyline
 90
       29
 70
   128
 43
0.0
 10
218.305024893
 20
130.7787254998
 10
218.9725876013
 20
130.845743938
 10
219.6066767136
 20
131.0434376435
 10
220.1754950145
 20
131.3618945503
 10
220.6505216817
 20
131.7851448046
 10
221.0079334835
 20
132.2919654274
 10
221.2298080484
 20
132.8569424884
 10
221.3050253848
 20
133.4517456205
 10
221.2298080484
 20
134.0465478213
 10
221.0079334835
 20
134.611525348
 10
220.6505216817
 20
135.1183455052
 10
220.1754950145
 20
135.5415962251
 10
219.6066767136
 20
135.8600526662
 10
218.9725876013
 20
136.0577463718
 10
218.305024893
 20
136.1247643443
 10
217.6374621848
 20
136.0577463718
 10
217.0033749351
 20
135.8600526662
 10
216.4345566342
 20
135.5415962251
 10
215.9595318297
 20
135.1183455052
 10
215.6021181652
 20
134.611525348
 10
215.3802417377
 20
134.0465478213
 10
215.3050262639
 20
133.4517456205
 10
215.3802417377
 20
132.8569424884
 10
215.6021181652
 20
132.2919654274
 10
215.9595318297
 20
131.7851448046
 10
216.4345566342
 20
131.3618945503
 10
217.0033749351
 20
131.0434376435
 10
217.6374621848
 20
130.845743938
 10
218.305024893
 20
130.7787254998
  0
CIRCLE
  5
1DF
330
1F
100
AcDbEntity
  8
0
  6
HIDDEN
 62
     7
370
     0
100
AcDbCircle
 10
195.3050255636
 20
125.2799162255
 30
0.0
 40
5.0
  0
LINE
  5
1E0
330
1F
100
AcDbEntity
  8
0
  6
HIDDEN
 62
     7
370
     0
100
AcDbLine
 10
253.8942076424
 20
91.1072099196
 30
0.0
 11
253.4620441655
 21
90.5486957716
 31
0.0
  0
LINE
  5
1E1
330
1F
100
AcDbEntity
  8
0
  6
HIDDEN
 62
     7
370
     0
100
AcDbLine
 10
253.8940809826
 20
91.1070385562
 30
0.0
 11
250.5964912633
 21
124.5935402774
 31
0.0
  0
LINE
  5
1E2
330
1F
100
AcDbEntity
  8
0
  6
HIDDEN
 62
     7
370
     0
100
AcDbLine
 10
250.5964912633
 20
124.5935402774
 30
0.0
 11
250.108347849
 21
125.2799162255
 31
0.0
  0
LINE
  5
1E3
330
1F
100
AcDbEntity
  8
0
  6
HIDDEN
 62
     7
370
     0
100
AcDbLine
 10
188.3050255636
 20
99.9559925483
 30
0.0
 11
188.3991864014
 21
100.6259822832
 31
0.0
  0
LINE
  5
1E4
330
1F
100
AcDbEntity
  8
0
  6
HIDDEN
 62
     7
370
     0
100
AcDbLine
 10
188.3991864014
 20
149.9338501679
 30
0.0
 11
188.3050255636
 21
150.6038399027
 31
0.0
  0
ARC
  5
1E5
330
1F
100
AcDbEntity
  8
0
  6
HIDDEN
 62
     7
370
     0
100
AcDbCircle
 10
187.8050255636
 20
100.7094853638
 30
0.0
 40
0.6000000000000227
100
AcDbArc
 50
352.0
 51
0.0
  0
ARC
  5
1E6
330
1F
100
AcDbEntity
  8
0
  6
HIDDEN
 62
     7
370
     0
100
AcDbCircle
 10
187.8050255636
 20
100.7094853638
 30
0.0
 40
0.6000000000000227
100
AcDbArc
 50
0.0
 51
33.5573097619
  0
ARC
  5
1E7
330
1F
100
AcDbEntity
  8
0
  6
HIDDEN
 62
     7
370
     0
100
AcDbCircle
 10
187.8050255636
 20
149.8503470873
 30
0.0
 40
0.6000000000000258
100
AcDbArc
 50
348.75
 51
8.0
  0
LWPOLYLINE
  5
1E8
330
1F
100
AcDbEntity
  8
0
  6
HIDDEN
 62
     7
370
     0
100
AcDbPolyline
 90
        3
 70
   128
 43
0.0
 10
188.3934967335
 20
149.7332935767
 10
188.3593532837
 20
149.6207376556
 10
188.3050255636
 20
149.5186851905
  0
LINE
  5
1E9
330
1F
100
AcDbEntity
  8
0
  6
HIDDEN
 62
     7
370
     0
100
AcDbLine
 10
188.4050255611
 20
100.7094846653
 30
0.0
 11
188.4050255611
 21
149.8503477858
 31
0.0
  0
LINE
  5
1EA
330
1F
100
AcDbEntity
  8
0
  6
HIDDEN
 62
     7
370
     0
100
AcDbLine
 10
188.4050255611
 20
100.7094846653
 30
0.0
 11
188.4050255611
 21
149.8503477858
 31
0.0
  0
LINE
  5
1EB
330
1F
100
AcDbEntity
  8
0
  6
HIDDEN
 62
     7
370
     0
100
AcDbLine
 10
216.9696405688
 20
120.2554262789
 30
0.0
 11
214.8164376775
 21
119.3672006564
 31
0.0
  0
LINE
  5
1EC
330
1F
100
AcDbEntity
  8
0
  6
HIDDEN
 62
     7
370
     0
100
AcDbLine
 10
214.8164376775
 20
119.3672006564
 30
0.0
 11
214.1621258268
 21
117.1317796768
 31
0.0
  0
LINE
  5
1ED
330
1F
100
AcDbEntity
  8
0
  6
HIDDEN
 62
     7
370
     0
100
AcDbLine
 10
219.1822581152
 20
118.8046170944
 30
0.0
 11
217.5497912029
 21
120.2718678476
 31
0.0
  0
LINE
  5
1EE
330
1F
100
AcDbEntity
  8
0
  6
HIDDEN
 62
     7
370
     0
100
AcDbLine
 10
222.7392099956
 20
115.6076507257
 30
0.0
 11
220.6433877507
 21
117.4913614603
 31
0.0
  0
LINE
  5
1EF
330
1F
100
AcDbEntity
  8
0
  6
HIDDEN
 62
     7
370
     0
100
AcDbLine
 10
214.207445846
 20
116.553168519
 30
0.0
 11
222.9617551128
 21
108.6848469065
 31
0.0
  0
ARC
  5
1F0
330
1F
100
AcDbEntity
  8
0
  6
HIDDEN
 62
     7
370
     0
100
AcDbCircle
 10
182.0600275652
 20
113.2799162255
 30
0.0
 40
7.999999999999998
100
AcDbArc
 50
276.8737369089
 51
321.3178125465
  0
ARC
  5
1F1
330
1F
100
AcDbEntity
  8
0
  6
HIDDEN
 62
     7
370
     0
100
AcDbCircle
 10
182.0600275652
 20
137.2799162255
 30
0.0
 40
7.999999999999976
100
AcDbArc
 50
38.6821874535
 51
83.1187176506
  0
LINE
  5
1F2
330
1F
100
AcDbEntity
  8
0
  6
HIDDEN
 62
     7
370
     0
100
AcDbLine
 10
171.3874615887
 20
105.2799166726
 30
0.0
 11
175.5791330869
 21
105.2799166726
 31
0.0
  0
LINE
  5
1F3
330
1F
100
AcDbEntity
  8
0
  6
HIDDEN
 62
     7
370
     0
100
AcDbLine
 10
175.5791330869
 20
145.2799157785
 30
0.0
 11
171.3874615887
 21
145.2799157785
 31
0.0
  0
ARC
  5
1F4
330
1F
100
AcDbEntity
  8
0
  6
HIDDEN
 62
     7
370
     0
100
AcDbCircle
 10
171.3874611289
 20
105.8799162255
 30
0.0
 40
0.6000000000000085
100
AcDbArc
 50
210.0
 51
270.0
  0
ARC
  5
1F5
330
1F
100
AcDbEntity
  8
0
  6
HIDDEN
 62
     7
370
     0
100
AcDbCircle
 10
171.3874611289
 20
144.6799162255
 30
0.0
 40
0.6000000000000013
100
AcDbArc
 50
90.0
 51
150.0
  0
LINE
  5
1F6
330
1F
100
AcDbEntity
  8
0
  6
HIDDEN
 62
     7
370
     0
100
AcDbLine
 10
170.8678450594
 20
144.9799162881
 30
0.0
 11
169.3090010593
 21
142.2799171494
 31
0.0
  0
LINE
  5
1F7
330
1F
100
AcDbEntity
  8
0
  6
HIDDEN
 62
     7
370
     0
100
AcDbLine
 10
169.3090010593
 20
108.2799153017
 30
0.0
 11
170.8678450594
 21
105.579916163
 31
0.0
  0
LINE
  5
1F8
330
1F
100
AcDbEntity
  8
0
  6
HIDDEN
 62
     7
370
     0
100
AcDbLine
 10
220.8050243715
 20
117.0700562732
 30
0.0
 11
220.8050243715
 21
123.3768033642
 31
0.0
  0
LINE
  5
1F9
330
1F
100
AcDbEntity
  8
0
  6
HIDDEN
 62
     7
370
     0
100
AcDbLine
 10
215.8050254146
 20
123.3735095091
 30
0.0
 11
215.8050254146
 21
117.1567661302
 31
0.0
  0
ARC
  5
1FA
330
1F
100
AcDbEntity
  8
0
  6
HIDDEN
 62
     7
370
     0
100
AcDbCircle
 10
196.7550255636
 20
109.5549162255
 30
0.0
 40
1.500000000000016
100
AcDbArc
 50
238.2116693829
 51
0.0
  0
ARC
  5
1FB
330
1F
100
AcDbEntity
  8
0
  6
HIDDEN
 62
     7
370
     0
100
AcDbCircle
 10
196.7550255636
 20
141.0049162255
 30
0.0
 40
1.500000000000016
100
AcDbArc
 50
0.0
 51
121.7883306171
  0
LINE
  5
1FC
330
1F
100
AcDbEntity
  8
0
  6
HIDDEN
 62
     7
370
     0
100
AcDbLine
 10
166.5050253431
 20
108.2799153017
 30
0.0
 11
169.3090010593
 21
108.2799153017
 31
0.0
  0
LINE
  5
1FD
330
1F
100
AcDbEntity
  8
0
  6
HIDDEN
 62
     7
370
     0
100
AcDbLine
 10
169.3090010593
 20
142.2799171494
 30
0.0
 11
162.5050246874
 21
142.2799171494
 31
0.0
  0
LINE
  5
1FE
330
1F
100
AcDbEntity
  8
0
  6
HIDDEN
 62
     7
370
     0
100
AcDbLine
 10
188.3050255636
 20
108.2799153017
 30
0.0
 11
195.9648515256
 21
108.2799153017
 31
0.0
  0
LINE
  5
1FF
330
1F
100
AcDbEntity
  8
0
  6
HIDDEN
 62
     7
370
     0
100
AcDbLine
 10
195.9648515256
 20
142.2799171494
 30
0.0
 11
188.3050255636
 21
142.2799171494
 31
0.0
  0
LINE
  5
200
330
1F
100
AcDbEntity
  8
0
  6
HIDDEN
 62
     7
370
     0
100
AcDbLine
 10
207.6050263057
 20
115.779916531
 30
0.0
 11
210.1050257841
 21
115.779916531
 31
0.0
  0
LINE
  5
201
330
1F
100
AcDbEntity
  8
0
  6
HIDDEN
 62
     7
370
     0
100
AcDbLine
 10
210.1050257841
 20
134.7799159201
 30
0.0
 11
207.6050263057
 21
134.7799159201
 31
0.0
  0
LINE
  5
202
330
1F
100
AcDbEntity
  8
0
  6
HIDDEN
 62
     7
370
     0
100
AcDbLine
 10
198.255025425
 20
116.279916613
 30
0.0
 11
198.755025507
 21
116.7799157636
 31
0.0
  0
LINE
  5
203
330
1F
100
AcDbEntity
  8
0
  6
HIDDEN
 62
     7
370
     0
100
AcDbLine
 10
198.755025507
 20
133.7799166875
 30
0.0
 11
198.255025425
 21
134.2799158381
 31
0.0
  0
LINE
  5
204
330
1F
100
AcDbEntity
  8
0
  6
HIDDEN
 62
     7
370
     0
100
AcDbLine
 10
198.755025507
 20
116.7799157636
 30
0.0
 11
207.6050263057
 21
116.7799157636
 31
0.0
  0
LINE
  5
205
330
1F
100
AcDbEntity
  8
0
  6
HIDDEN
 62
     7
370
     0
100
AcDbLine
 10
207.6050263057
 20
133.7799166875
 30
0.0
 11
198.755025507
 21
133.7799166875
 31
0.0
  0
LINE
  5
206
330
1F
100
AcDbEntity
  8
0
  6
HIDDEN
 62
     7
370
     0
100
AcDbLine
 10
193.2550255368
 20
156.7799167322
 30
0.0
 11
193.2550255368
 21
151.6799160825
 31
0.0
  0
LINE
  5
207
330
1F
100
AcDbEntity
  8
0
  6
HIDDEN
 62
     7
370
     0
100
AcDbLine
 10
183.489463401
 20
101.2005449818
 30
0.0
 11
183.0550312223
 21
101.6796117263
 31
0.0
  0
LINE
  5
208
330
1F
100
AcDbEntity
  8
0
  6
HIDDEN
 62
     7
370
     0
100
AcDbLine
 10
175.5550276647
 20
102.1012996869
 30
0.0
 11
175.0725941891
 21
101.6222329424
 31
0.0
  0
LINE
  5
209
330
1F
100
AcDbEntity
  8
0
  6
HIDDEN
 62
     7
370
     0
100
AcDbLine
 10
175.0724721858
 20
148.9375939207
 30
0.0
 11
175.555023008
 21
148.4584731595
 31
0.0
  0
LINE
  5
20A
330
1F
100
AcDbEntity
  8
0
  6
HIDDEN
 62
     7
370
     0
100
AcDbLine
 10
183.0550256344
 20
148.880172296
 30
0.0
 11
183.4895677092
 21
149.3592911945
 31
0.0
  0
LINE
  5
20B
330
1F
100
AcDbEntity
  8
0
  6
HIDDEN
 62
     7
370
     0
100
AcDbLine
 10
210.1050257841
 20
121.0799163753
 30
0.0
 11
222.4050253788
 21
121.0799163753
 31
0.0
  0
LINE
  5
20C
330
1F
100
AcDbEntity
  8
0
  6
HIDDEN
 62
     7
370
     0
100
AcDbLine
 10
222.4050253788
 20
129.4799160758
 30
0.0
 11
210.1050257841
 21
129.4799160758
 31
0.0
  0
LINE
  5
20D
330
1F
100
AcDbEntity
  8
0
  6
HIDDEN
 62
     7
370
     0
100
AcDbLine
 10
222.4050253788
 20
121.0799163753
 30
0.0
 11
224.9286413351
 21
125.2799162255
 31
0.0
  0
LINE
  5
20E
330
1F
100
AcDbEntity
  8
0
  6
HIDDEN
 62
     7
370
     0
100
AcDbLine
 10
224.9286413351
 20
125.2799162255
 30
0.0
 11
222.4050253788
 21
129.4799160758
 31
0.0
  0
LINE
  5
20F
330
1F
100
AcDbEntity
  8
0
  6
HIDDEN
 62
     7
370
     0
100
AcDbLine
 10
183.0550256344
 20
101.6800941514
 30
0.0
 11
183.0550256344
 21
105.344515069
 31
0.0
  0
LINE
  5
210
330
1F
100
AcDbEntity
  8
0
  6
HIDDEN
 62
     7
370
     0
100
AcDbLine
 10
175.555025802
 20
105.2842938887
 30
0.0
 11
175.555025802
 21
102.1016219245
 31
0.0
  0
LINE
  5
211
330
1F
100
AcDbEntity
  8
0
  6
HIDDEN
 62
     7
370
     0
100
AcDbLine
 10
183.0550256344
 20
145.2153173821
 30
0.0
 11
183.0550256344
 21
148.8798798607
 31
0.0
  0
LINE
  5
212
330
1F
100
AcDbEntity
  8
0
  6
HIDDEN
 62
     7
370
     0
100
AcDbLine
 10
175.555025802
 20
148.4583297359
 30
0.0
 11
175.555025802
 21
145.2755385624
 31
0.0
  0
LINE
  5
213
330
1F
100
AcDbEntity
  8
0
  6
HIDDEN
 62
     7
370
     0
100
AcDbLine
 10
237.1943459073
 20
92.166086434
 30
0.0
 11
237.8215171555
 21
91.5423536287
 31
0.0
  0
LINE
  5
214
330
1F
100
AcDbEntity
  8
0
  6
HIDDEN
 62
     7
370
     0
100
AcDbLine
 10
241.5916375974
 20
100.8068339513
 30
0.0
 11
242.1748429695
 21
100.2268230157
 31
0.0
  0
LINE
  5
215
330
1F
100
AcDbEntity
  8
0
  6
HIDDEN
 62
     7
370
     0
100
AcDbLine
 10
247.1109792749
 20
105.1901464896
 30
0.0
 11
246.5277739028
 21
105.7701574253
 31
0.0
  0
LINE
  5
216
330
1F
100
AcDbEntity
  8
0
  6
HIDDEN
 62
     7
370
     0
100
AcDbLine
 10
250.0260897139
 20
97.1055643247
 30
0.0
 11
247.1964486102
 21
103.2238935666
 31
0.0
  0
LINE
  5
217
330
1F
100
AcDbEntity
  8
0
  6
HIDDEN
 62
     7
370
     0
100
AcDbLine
 10
220.8050243715
 20
127.186322942
 30
0.0
 11
220.8050243715
 21
133.3153524982
 31
0.0
  0
LINE
  5
218
330
1F
100
AcDbEntity
  8
0
  6
HIDDEN
 62
     7
370
     0
100
AcDbLine
 10
215.8050254146
 20
133.3153524982
 30
0.0
 11
215.8050254146
 21
127.1830290869
 31
0.0
  0
LINE
  5
219
330
1F
100
AcDbEntity
  8
0
  6
HIDDEN
 62
     7
370
     0
100
AcDbLine
 10
238.5329134921
 20
102.8615606563
 30
0.0
 11
241.0540595809
 21
100.3542260812
 31
0.0
  0
LINE
  5
21A
330
1F
100
AcDbEntity
  8
0
  6
HIDDEN
 62
     7
370
     0
100
AcDbLine
 10
246.9774201671
 20
106.3102146225
 30
0.0
 11
244.4562740782
 21
108.8175491975
 31
0.0
  0
LINE
  5
21B
330
1F
100
AcDbEntity
  8
0
  6
HIDDEN
 62
     7
370
     0
100
AcDbLine
 10
236.9598649601
 20
92.5322675692
 30
0.0
 11
237.441742436
 21
92.053031324
 31
0.0
  0
ARC
  5
21C
330
1F
100
AcDbEntity
  8
0
  6
HIDDEN
 62
     7
370
     0
100
AcDbCircle
 10
165.1050255636
 20
103.0099162255
 30
0.0
 40
1.40000000000002
100
AcDbArc
 50
41.1788388679
 51
90.0
  0
ARC
  5
21D
330
1F
100
AcDbEntity
  8
0
  6
HIDDEN
 62
     7
370
     0
100
AcDbCircle
 10
161.1050255636
 20
147.5499162255
 30
0.0
 40
1.400000000000015
100
AcDbArc
 50
270.0
 51
301.7485287426
  0
LINE
  5
21E
330
1F
100
AcDbEntity
  8
0
  6
HIDDEN
 62
     7
370
     0
100
AcDbLine
 10
157.5448062429
 20
104.4158169614
 30
0.0
 11
157.5550247142
 21
104.4099161016
 31
0.0
  0
LINE
  5
21F
330
1F
100
AcDbEntity
  8
0
  6
HIDDEN
 62
     7
370
     0
100
AcDbLine
 10
156.6306479434
 20
104.943604915
 30
0.0
 11
157.5448062429
 21
104.4158169614
 31
0.0
  0
LINE
  5
220
330
1F
100
AcDbEntity
  8
0
  6
HIDDEN
 62
     7
370
     0
100
AcDbLine
 10
157.5550247142
 20
104.4099161016
 30
0.0
 11
165.1050258586
 21
104.4099161016
 31
0.0
  0
LINE
  5
221
330
1F
100
AcDbEntity
  8
0
  6
HIDDEN
 62
     7
370
     0
100
AcDbLine
 10
157.5378939668
 20
146.1400257038
 30
0.0
 11
156.6703111092
 21
145.6391268955
 31
0.0
  0
LINE
  5
222
330
1F
100
AcDbEntity
  8
0
  6
HIDDEN
 62
     7
370
     0
100
AcDbLine
 10
161.105025203
 20
146.1499163495
 30
0.0
 11
157.6792910854
 21
146.1499163495
 31
0.0
  0
LINE
  5
223
330
1F
100
AcDbEntity
  8
0
  6
HIDDEN
 62
     7
370
     0
100
AcDbLine
 10
251.5089713196
 20
92.6335433112
 30
0.0
 11
250.7772758762
 21
93.3612340675
 31
0.0
  0
LINE
  5
224
330
1F
100
AcDbEntity
  8
0
  6
HIDDEN
 62
     7
370
     0
100
AcDbLine
 10
245.1359793702
 20
87.6888649152
 30
0.0
 11
245.8676785389
 21
86.9611741589
 31
0.0
  0
LINE
  5
225
330
1F
100
AcDbEntity
  8
0
  6
HIDDEN
 62
     7
370
     0
100
AcDbLine
 10
241.9853300015
 20
96.0420349227
 30
0.0
 11
244.4370068768
 21
90.7409542786
 31
0.0
  0
LINE
  5
226
330
1F
100
AcDbEntity
  8
0
  6
HIDDEN
 62
     7
370
     0
100
AcDbLine
 10
221.3050253848
 20
133.4517456205
 30
0.0
 11
221.3050253848
 21
137.0817094656
 31
0.0
  0
LINE
  5
227
330
1F
100
AcDbEntity
  8
0
  6
HIDDEN
 62
     7
370
     0
100
AcDbLine
 10
215.3050262639
 20
137.0836615177
 30
0.0
 11
215.3050262639
 21
133.4517456205
 31
0.0
  0
LINE
  5
228
330
1F
100
AcDbEntity
  8
VERMASSUNG
100
AcDbLine
 10
258.3050255636
 20
125.2799162255
 30
0.0
 11
258.3050255636
 21
80.2799162255
 31
0.0
  0
DIMENSION
  5
229
330
1F
100
AcDbEntity
  8
VERMASSUNG
100
AcDbDimension
  2
*D1
 10
258.3050255636
 20
163.720729927
 30
0.0
 11
223.3050255636
 21
163.720729927
 31
0.0
 70
   160
 71
     2
 42
-1.0
  3
SLDDIMSTYLE0
100
AcDbAlignedDimension
 13
188.3050255636
 23
156.4799162255
 33
0.0
 14
258.3050255636
 24
125.2799162255
 34
0.0
100
AcDbRotatedDimension
  0
DIMENSION
  5
234
330
1F
100
AcDbEntity
  8
VERMASSUNG
100
AcDbDimension
  2
*D2
 10
258.3050255636
 20
169.720729927
 30
0.0
 11
207.3550255636
 21
169.720729927
 31
0.0
 70
   160
 71
     2
 42
-1.0
  3
SLDDIMSTYLE0
100
AcDbAlignedDimension
 13
156.4050255636
 23
145.2559767302
 33
0.0
 14
258.3050255636
 24
125.2799162255
 34
0.0
100
AcDbRotatedDimension
  0
DIMENSION
  5
23E
330
1F
100
AcDbEntity
  8
VERMASSUNG
100
AcDbDimension
  2
*D3
 10
253.9014123467
 20
121.3067252744
 30
0.0
 11
255.4028504124
 21
137.4286675372
 31
0.0
 70
   162
 71
     1
 42
-1.0
  3
SLDDIMSTYLE1
100
AcDb2LineAngularDimension
 13
258.3050255636
 23
125.2799162255
 33
0.0
 14
258.3050255636
 24
80.2799162255
 34
0.0
 15
256.0905050689
 25
96.3093311776
 35
0.0
 16
255.4028504124
 26
137.4286675372
 36
0.0
  0
DIMENSION
  5
24B
330
1F
100
AcDbEntity
  8
VERMASSUNG
100
AcDbDimension
  2
*D4
 10
264.7129927007
 20
80.2799162255
 30
0.0
 11
264.7129927007
 21
102.7799162255
 31
0.0
 70
   160
 71
     2
 42
-1.0
  3
SLDDIMSTYLE0
100
AcDbAlignedDimension
 13
254.8852554745
 23
125.2799162255
 33
0.0
 14
258.3050255636
 24
80.2799162255
 34
0.0
 50
90.0
100
AcDbRotatedDimension
  0
DIMENSION
  5
255
330
1F
100
AcDbEntity
  8
VERMASSUNG
100
AcDbDimension
  2
*D5
 10
151.2934750026
 20
93.7799162255
 30
0.0
 11
151.2934750026
 21
125.2799162255
 31
0.0
 70
   160
  1
HSK A %%c<>
 71
     2
 42
-1.0
  3
SLDDIMSTYLE0
100
AcDbAlignedDimension
 13
188.6050255636
 23
156.7799162255
 33
0.0
 14
188.6050255636
 24
93.7799162255
 34
0.0
 50
90.0
100
AcDbRotatedDimension
  0
LINE
  5
261
330
1F
100
AcDbEntity
  8
VERMASSUNG
  6
CENTERX2
370
     0
100
AcDbLine
 10
154.2707620499
 20
125.2799162255
 30
0.0
 11
254.8852554745
 21
125.2799162255
 31
0.0
  0
LINE
  5
262
330
1F
100
AcDbEntity
  8
0
  6
Continuous
 62
     7
370
    15
100
AcDbLine
 10
77.8129935167
 20
81.54710546
 30
0.0
 11
82.0066100821
 21
81.9878706323
 31
0.0
  0
LINE
  5
263
330
1F
100
AcDbEntity
  8
0
  6
Continuous
 62
     7
370
    15
100
AcDbLine
 10
82.0221305728
 20
81.9978544103
 30
0.0
 11
82.2843900785
 21
82.3254042851
 31
0.0
  0
LINE
  5
264
330
1F
100
AcDbEntity
  8
0
  6
Continuous
 62
     7
370
    15
100
AcDbLine
 10
71.5563738665
 20
80.2755446719
 30
0.0
 11
77.8369923025
 21
80.9356661128
 31
0.0
  0
LINE
  5
265
330
1F
100
AcDbEntity
  8
0
  6
Continuous
 62
     7
370
    15
100
AcDbLine
 10
69.8717959128
 20
84.2133665072
 30
0.0
 11
70.6230307948
 21
83.1581817554
 31
0.0
  0
SPLINE
  5
266
330
1F
100
AcDbEntity
  8
0
  6
Continuous
 62
     7
370
    15
100
AcDbSpline
210
0.0
220
0.0
230
1.0
 70
     8
 71
     3
 72
    12
 73
     8
 74
     0
 42
0.00000001
 43
0.00000001
 40
0.0
 40
0.0
 40
0.0
 40
0.0
 40
0.1624665430255072
 40
0.4207805322112951
 40
0.6252242085374828
 40
0.8443532227059233
 40
1.0
 40
1.0
 40
1.0
 40
1.0
 10
69.3503083563994
 20
95.70069774852966
 30
0.0
 10
69.34968274033938
 20
95.70225181603392
 30
0.0
 10
69.34806242483444
 20
95.70627677612329
 30
0.0
 10
69.36308269620268
 20
95.66337581680244
 30
0.0
 10
69.37772807768201
 20
95.55398121091041
 30
0.0
 10
69.37508426436352
 20
95.40447722186332
 30
0.0
 10
69.32838694983236
 20
95.30443624860288
 30
0.0
 10
69.30899325717495
 20
95.26288859413837
 30
0.0
  0
LINE
  5
267
330
1F
100
AcDbEntity
  8
0
  6
Continuous
 62
     7
370
    15
100
AcDbLine
 10
69.2967496249
 20
95.2681002753
 30
0.0
 11
68.7656992484
 21
94.0437743055
 31
0.0
  0
LINE
  5
268
330
1F
100
AcDbEntity
  8
0
  6
Continuous
 62
     7
370
    15
100
AcDbLine
 10
68.5117147766
 20
97.4347402887
 30
0.0
 11
68.0153624523
 21
97.3825713234
 31
0.0
  0
ARC
  5
269
330
1F
100
AcDbEntity
  8
0
  6
Continuous
 62
     7
370
    15
100
AcDbCircle
 10
78.154764784
 20
82.771458893
 30
0.0
 40
3.930740739635678
100
AcDbArc
 50
348.5011215874
 51
12.5563391993
  0
LINE
  5
26A
330
1F
100
AcDbEntity
  8
0
  6
Continuous
 62
     7
370
    15
100
AcDbLine
 10
81.991492854
 20
83.6259999858
 30
0.0
 11
80.6559222653
 21
95.3047273295
 31
0.0
  0
LWPOLYLINE
  5
26B
330
1F
100
AcDbEntity
  8
0
  6
Continuous
 62
     7
370
    15
100
AcDbPolyline
 90
        3
 70
   128
 43
0.0
 10
82.2598795309
 20
83.627914785
 10
82.286591725
 20
83.3680646108
 10
82.2924776837
 20
83.3013148593
  0
LWPOLYLINE
  5
26C
330
1F
100
AcDbEntity
  8
0
  6
Continuous
 62
     7
370
    15
100
AcDbPolyline
 90
        3
 70
   128
 43
0.0
 10
82.3043743983
 20
82.3798307763
 10
82.2871831149
 20
82.3293344663
 10
82.2843900785
 20
82.3254042851
  0
LINE
  5
26D
330
1F
100
AcDbEntity
  8
0
  6
Continuous
 62
     7
370
    15
100
AcDbLine
 10
80.9243089422
 20
95.306645854
 30
0.0
 11
82.2598795309
 21
83.627914785
 31
0.0
  0
ARC
  5
26E
330
1F
100
AcDbEntity
  8
0
  6
Continuous
 62
     7
370
    15
100
AcDbCircle
 10
75.1250439816
 20
94.9214070516
 30
0.0
 40
5.544145472908236
100
AcDbArc
 50
3.9645730694
 51
17.3118561393
  0
LINE
  5
26F
330
1F
100
AcDbEntity
  8
0
  6
Continuous
 62
     7
370
    15
100
AcDbLine
 10
80.6968846261
 20
96.3795983778
 30
0.0
 11
80.4577964261
 21
96.5753716962
 31
0.0
  0
ARC
  5
270
330
1F
100
AcDbEntity
  8
0
  6
Continuous
 62
     7
370
    15
100
AcDbCircle
 10
77.7189373322
 20
95.187810235
 30
0.0
 40
3.207573703420309
100
AcDbArc
 50
2.1232054581
 51
21.8115135223
  0
LINE
  5
271
330
1F
100
AcDbEntity
  8
0
  6
Continuous
 62
     7
370
    15
100
AcDbLine
 10
68.0193939149
 20
96.9457363324
 30
0.0
 11
69.7520721839
 21
81.7945466922
 31
0.0
  0
ARC
  5
272
330
1F
100
AcDbEntity
  8
0
  6
Continuous
 62
     7
370
    15
100
AcDbCircle
 10
68.9032298387
 20
97.1640911307
 30
0.0
 40
0.9104091157621632
100
AcDbArc
 50
166.1880321837
 51
193.8772447687
  0
LINE
  5
273
330
1F
100
AcDbEntity
  8
0
  6
Continuous
 62
     7
370
    15
100
AcDbLine
 10
69.7438559398
 20
96.2212213861
 30
0.0
 11
68.0191457174
 21
97.3814388351
 31
0.0
  0
ARC
  5
274
330
1F
100
AcDbEntity
  8
0
  6
Continuous
 62
     7
370
    15
100
AcDbCircle
 10
68.7512302815
 20
95.8239634554
 30
0.0
 40
1.069167695441618
100
AcDbArc
 50
2.1230289936
 51
21.8117422382
  0
LINE
  5
275
330
1F
100
AcDbEntity
  8
0
  6
Continuous
 62
     7
370
    15
100
AcDbLine
 10
71.5523424839
 20
80.7123796629
 30
0.0
 11
69.8196640839
 21
95.8635711657
 31
0.0
  0
ARC
  5
276
330
1F
100
AcDbEntity
  8
0
  6
Continuous
 62
     7
370
    15
100
AcDbCircle
 10
70.6684972771
 20
80.4940249774
 30
0.0
 40
0.9104181008428173
100
AcDbArc
 50
346.188163888
 51
13.8770977555
  0
LINE
  5
277
330
1F
100
AcDbEntity
  8
0
  6
Continuous
 62
     7
370
    15
100
AcDbLine
 10
69.8278803281
 20
81.4368927466
 30
0.0
 11
71.5525906232
 21
80.2766771601
 31
0.0
  0
ARC
  5
278
330
1F
100
AcDbEntity
  8
0
  6
Continuous
 62
     7
370
    15
100
AcDbCircle
 10
70.820576033
 20
81.8341651117
 30
0.0
 40
1.069238090659428
100
AcDbArc
 50
182.1234634098
 51
201.8110657073
  0
ARC
  5
279
330
1F
100
AcDbEntity
  8
0
  6
Continuous
 62
     7
370
    15
100
AcDbCircle
 10
68.8027489047
 20
95.8239897196
 30
0.0
 40
1.015723558516981
100
AcDbArc
 50
2.1232211424
 51
21.8116142126
  0
LINE
  5
27A
330
1F
100
AcDbEntity
  8
0
  6
Continuous
 62
     7
370
    15
100
AcDbLine
 10
69.7457573512
 20
96.2013879405
 30
0.0
 11
68.0210470125
 21
97.3616035269
 31
0.0
  0
ARC
  5
27B
330
1F
100
AcDbEntity
  8
0
  6
Continuous
 62
     7
370
    15
100
AcDbCircle
 10
68.86091018
 20
97.15512446
 30
0.0
 40
0.8648720975934312
100
AcDbArc
 50
166.1878478712
 51
193.8774487712
  0
LINE
  5
27C
330
1F
100
AcDbEntity
  8
0
  6
Continuous
 62
     7
370
    15
100
AcDbLine
 10
68.0212828699
 20
96.9476883845
 30
0.0
 11
69.753961139
 21
81.7964950191
 31
0.0
  0
ARC
  5
27D
330
1F
100
AcDbEntity
  8
0
  6
Continuous
 62
     7
370
    15
100
AcDbCircle
 10
70.7689636238
 20
81.8341233127
 30
0.0
 40
1.015699725687697
100
AcDbArc
 50
182.1231037316
 51
201.8118590547
  0
LINE
  5
27E
330
1F
100
AcDbEntity
  8
0
  6
Continuous
 62
     7
370
    15
100
AcDbLine
 10
69.8259789167
 20
81.4567299174
 30
0.0
 11
71.5506892154
 21
80.2965106057
 31
0.0
  0
ARC
  5
27F
330
1F
100
AcDbEntity
  8
0
  6
Continuous
 62
     7
370
    15
100
AcDbCircle
 10
70.7108031252
 20
80.5029908439
 30
0.0
 40
0.8648946371442202
100
AcDbArc
 50
346.1881350544
 51
13.8771270507
  0
LINE
  5
280
330
1F
100
AcDbEntity
  8
0
  6
Continuous
 62
     7
370
    15
100
AcDbLine
 10
71.5504534816
 20
80.7104276107
 30
0.0
 11
69.8177751289
 21
95.8616209762
 31
0.0
  0
LINE
  5
281
330
1F
100
AcDbEntity
  8
0
  6
Continuous
 62
     7
370
    15
100
AcDbLine
 10
77.8329610727
 20
81.3725011037
 30
0.0
 11
76.1002829201
 21
96.5236907439
 31
0.0
  0
ARC
  5
282
330
1F
100
AcDbEntity
  8
0
  6
Continuous
 62
     7
370
    15
100
AcDbCircle
 10
76.8098543189
 20
81.1446235057
 30
0.0
 40
1.048177289108829
100
AcDbArc
 50
348.5008673037
 51
12.5565841379
  0
LINE
  5
283
330
1F
100
AcDbEntity
  8
0
  6
Continuous
 62
     7
370
    15
100
AcDbLine
 10
70.6839559386
 20
83.0291041719
 30
0.0
 11
70.0068481635
 21
81.8563790606
 31
0.0
  0
ARC
  5
284
330
1F
100
AcDbEntity
  8
0
  6
Continuous
 62
     7
370
    15
100
AcDbCircle
 10
75.0317995673
 20
96.4840742767
 30
0.0
 40
1.069217536217549
100
AcDbArc
 50
2.1233995613
 51
21.8112863083
  0
LINE
  5
285
330
1F
100
AcDbEntity
  8
0
  6
Continuous
 62
     7
370
    15
100
AcDbLine
 10
70.7787805256
 20
84.6878194796
 30
0.0
 11
69.8782475335
 21
92.5624200688
 31
0.0
  0
LINE
  5
286
330
1F
100
AcDbEntity
  8
0
  6
Continuous
 62
     7
370
    15
100
AcDbLine
 10
76.0244746595
 20
96.881342827
 30
0.0
 11
75.9707643553
 21
96.9174725549
 31
0.0
  0
LINE
  5
287
330
1F
100
AcDbEntity
  8
0
  6
Continuous
 62
     7
370
    15
100
AcDbLine
 10
69.3678514469
 20
95.6110709892
 30
0.0
 11
68.274169778
 21
97.0075687008
 31
0.0
  0
ARC
  5
288
330
1F
100
AcDbEntity
  8
0
  6
Continuous
 62
     7
370
    15
100
AcDbCircle
 10
68.569215763
 20
84.1419347109
 30
0.0
 40
2.275997939583901
100
AcDbArc
 50
346.1879172337
 51
13.8773415712
  0
ARC
  5
289
330
1F
100
AcDbEntity
  8
0
  6
Continuous
 62
     7
370
    15
100
AcDbCircle
 10
67.2071033423
 20
92.4633879807
 30
0.0
 40
2.672979357386221
100
AcDbArc
 50
2.123256049
 51
21.8115223219
  0
LINE
  5
28A
330
1F
100
AcDbEntity
  8
0
  6
Continuous
 62
     7
370
    15
100
AcDbLine
 10
68.7929558005
 20
92.9702983783
 30
0.0
 11
69.6934888508
 21
85.0956977891
 31
0.0
  0
ARC
  5
28B
330
1F
100
AcDbEntity
  8
0
  6
Continuous
 62
     7
370
    15
100
AcDbCircle
 10
71.0025204004
 20
93.5161830288
 30
0.0
 40
2.275997753217371
100
AcDbArc
 50
166.1879130161
 51
193.8773396652
  0
LINE
  5
28C
330
1F
100
AcDbEntity
  8
0
  6
Continuous
 62
     7
370
    15
100
AcDbLine
 10
69.6887271149
 20
93.4565456198
 30
0.0
 11
68.7923355396
 21
94.0595509099
 31
0.0
  0
LINE
  5
28D
330
1F
100
AcDbEntity
  8
0
  6
Continuous
 62
     7
370
    15
100
AcDbLine
 10
69.883009153
 20
84.2015722381
 30
0.0
 11
70.7794008447
 21
83.598566948
 31
0.0
  0
ARC
  5
28E
330
1F
100
AcDbEntity
  8
0
  6
Continuous
 62
     7
370
    15
100
AcDbCircle
 10
72.3646040705
 20
85.1947234132
 30
0.0
 40
2.672950166226482
100
AcDbArc
 50
182.1231405946
 51
201.811623498
  0
LWPOLYLINE
  5
28F
330
1F
100
AcDbEntity
  8
0
  6
Continuous
 62
     7
370
    15
100
AcDbPolyline
 90
       30
 70
   128
 43
0.0
 10
70.0877165325
 20
85.680441706
 10
70.1575606033
 20
85.7023240613
 10
70.2100247979
 20
85.8704091595
 10
70.2426558962
 20
86.1768366383
 10
70.2539280425
 20
86.6072790311
 10
70.2433142248
 20
87.1416085945
 10
70.2113108379
 20
87.7548398064
 10
70.159414168
 20
88.4183028327
 10
70.0900508925
 20
89.1009734558
 10
70.0064643422
 20
89.7709259378
 10
69.9125630451
 20
90.3968417631
 10
69.8127376051
 20
90.9494476007
 10
69.7116556946
 20
91.402904837
 10
69.6140440084
 20
91.7360165702
 10
69.5244666092
 20
91.9331961857
 10
69.4471118875
 20
91.9852347659
 10
69.3855973329
 20
91.8896922456
 10
69.3427986368
 20
91.6510352479
 10
69.3207176771
 20
91.2804284679
 10
69.3203865919
 20
90.7951982306
 10
69.3418207481
 20
90.2180352794
 10
69.3840182755
 20
89.5759218918
 10
69.4450057014
 20
88.898887633
 10
69.5219315491
 20
88.2185862945
 10
69.6111985851
 20
87.5668318556
 10
69.70863332
 20
86.974097191
 10
69.8096792582
 20
86.4680984603
 10
69.9096118003
 20
86.0724987076
 10
70.0037583844
 20
85.8057865487
 10
70.0877165325
 20
85.680441706
  0
LINE
  5
290
330
1F
100
AcDbEntity
  8
0
  6
Continuous
 62
     7
370
    15
100
AcDbLine
 10
80.77070591
 20
96.608258559
 30
0.0
 11
76.2110753819
 21
96.1290223138
 31
0.0
  0
LINE
  5
291
330
1F
100
AcDbEntity
  8
0
  6
Continuous
 62
     7
370
    15
100
AcDbLine
 10
76.2110753819
 20
96.1290223138
 30
0.0
 11
76.1191254384
 21
96.9330666201
 31
0.0
  0
LINE
  5
292
330
1F
100
AcDbEntity
  8
0
  6
Continuous
 62
     7
370
    15
100
AcDbLine
 10
76.1191254384
 20
96.9330666201
 30
0.0
 11
70.1846826957
 21
96.3093319522
 31
0.0
  0
LINE
  5
293
330
1F
100
AcDbEntity
  8
0
  6
Continuous
 62
     7
370
    15
100
AcDbLine
 10
70.1846826957
 20
96.3093319522
 30
0.0
 11
67.3260005094
 21
121.3067250872
 31
0.0
  0
LINE
  5
294
330
1F
100
AcDbEntity
  8
0
  6
Continuous
 62
     7
370
    15
100
AcDbLine
 10
98.5979569047
 20
124.5935402774
 30
0.0
 11
67.3260005094
 21
121.3067250872
 31
0.0
  0
LINE
  5
295
330
1F
100
AcDbEntity
  8
0
  6
Continuous
 62
     7
370
    15
100
AcDbLine
 10
98.5979569047
 20
91.1070385562
 30
0.0
 11
98.5979569047
 21
124.5935402774
 31
0.0
  0
SPLINE
  5
296
330
1F
100
AcDbEntity
  8
0
  6
Continuous
 62
     7
370
    15
100
AcDbSpline
210
0.0
220
0.0
230
1.0
 70
     8
 71
     3
 72
    28
 73
    24
 74
     0
 42
0.00000001
 43
0.00000001
 40
0.0
 40
0.0
 40
0.0
 40
0.0
 40
0.0356566818980076
 40
0.0712866028291034
 40
0.1068978621510475
 40
0.1424985719584597
 40
0.1780968515579938
 40
0.2137008219188956
 40
0.2493186001178718
 40
0.2849582937972687
 40
0.3206279956554171
 40
0.356335777987781
 40
0.3920896872971121
 40
0.4278977389903086
 40
0.4637679121789547
 40
0.4997081445997765
 40
0.5715199418486743
 40
0.6431107952666925
 40
0.7145446459608981
 40
0.7858858571908899
 40
0.8571990430501755
 40
0.9285488937712396
 40
1.0
 40
1.0
 40
1.0
 40
1.0
 10
82.34510402449443
 20
82.84201504131458
 30
0.0
 10
82.556205783888
 20
82.89889315430447
 30
0.0
 10
82.97825086709176
 20
83.01260669226006
 30
0.0
 10
83.60766798145613
 20
83.19521420773347
 30
0.0
 10
84.23403662802102
 20
83.38653697317494
 30
0.0
 10
84.85711910579185
 20
83.5874435851844
 30
0.0
 10
85.47697893859637
 20
83.79770142731579
 30
0.0
 10
86.09359898801713
 20
84.0173727669271
 30
0.0
 10
86.70698372681943
 20
84.24644087141517
 30
0.0
 10
87.31713183774043
 20
84.48491016825618
 30
0.0
 10
87.92404356781884
 20
84.73277941530485
 30
0.0
 10
88.5277187178779
 20
84.99004884904092
 30
0.0
 10
89.12815732957503
 20
85.25671843486207
 30
0.0
 10
89.72535895016797
 20
85.53278771276196
 30
0.0
 10
90.31932489264535
 20
85.81825817389118
 30
0.0
 10
91.10614061124676
 20
86.21100432494924
 30
0.0
 10
92.07745818606229
 20
86.72324559191364
 30
0.0
 10
93.22186146298208
 20
87.37142023110313
 30
0.0
 10
94.34351059587708
 20
88.05232103755714
 30
0.0
 10
95.44255885723483
 20
88.7657443255743
 30
0.0
 10
96.51839626374118
 20
89.512435679765
 30
0.0
 10
97.5732933403644
 20
90.28960621904191
 30
0.0
 10
98.25624049721043
 20
90.8344335352604
 30
0.0
 10
98.59795620342649
 20
91.10704035302238
 30
0.0
  0
LINE
  5
297
330
1F
100
AcDbEntity
  8
0
  6
Continuous
 62
     7
370
    15
100
AcDbLine
 10
82.3450033456
 20
82.8420051919
 30
0.0
 11
82.2924776837
 21
83.3013148593
 31
0.0
  0
LINE
  5
298
330
1F
100
AcDbEntity
  8
0
  6
Continuous
 62
     7
370
    15
100
AcDbLine
 10
80.8832106083
 20
95.6244689958
 30
0.0
 11
80.77070591
 21
96.608258559
 31
0.0
  0
SPLINE
  5
299
330
1F
100
AcDbEntity
  8
0
  6
Continuous
 62
     7
370
    15
100
AcDbSpline
210
0.0
220
0.0
230
1.0
 70
     8
 71
     3
 72
    42
 73
    38
 74
     0
 42
0.00000001
 43
0.00000001
 40
0.0
 40
0.0
 40
0.0
 40
0.0
 40
0.0344062834028446
 40
0.0684714817322696
 40
0.102195378302628
 40
0.135577759132868
 40
0.1686184129517249
 40
0.201317131203221
 40
0.2336737080524111
 40
0.2656879403915022
 40
0.2973596278462414
 40
0.3286885727826828
 40
0.3596745803143299
 40
0.390317458309671
 40
0.4206170174001526
 40
0.4505730709885996
 40
0.4801854352581361
 40
0.509453929181619
 40
0.5383783745316674
 40
0.5669585958912478
 40
0.5951944206649531
 40
0.6230856790909627
 40
0.6506322042537577
 40
0.6778338320976347
 40
0.7046904014411167
 40
0.7312017539922894
 40
0.7573677343651546
 40
0.7831881900970956
 40
0.8086629716675171
 40
0.8337919325177977
 40
0.8585749290726141
 40
0.8830118207628076
 40
0.9071024700498872
 40
0.9308467424523367
 40
0.9542445065738763
 40
0.9772956341338593
 40
1.0
 40
1.0
 40
1.0
 40
1.0
 10
98.59797207001084
 20
90.54946512950288
 30
0.0
 10
98.4334784390445
 20
90.41892098271487
 30
0.0
 10
98.10612187699121
 20
90.1591268324025
 30
0.0
 10
97.61053716420096
 20
89.78026348901965
 30
0.0
 10
97.11503083013402
 20
89.41165586603614
 30
0.0
 10
96.61935526222028
 20
89.05379609214043
 30
0.0
 10
96.12389628793241
 20
88.70637847323104
 30
0.0
 10
95.62886441777977
 20
88.36930342030145
 30
0.0
 10
95.1345083133725
 20
88.04241280959651
 30
0.0
 10
94.64105851034616
 20
87.72556009535762
 30
0.0
 10
94.14874231848302
 20
87.41859209394488
 30
0.0
 10
93.65777995182103
 20
87.12135406246799
 30
0.0
 10
93.1683856154965
 20
86.83368862695347
 30
0.0
 10
92.68076729124527
 20
86.55543632592064
 30
0.0
 10
92.19512687147916
 20
86.2864357215228
 30
0.0
 10
91.71166020663613
 20
86.0265236181564
 30
0.0
 10
91.23055718025125
 20
85.7755352462225
 30
0.0
 10
90.75200178129363
 20
85.53330444855943
 30
0.0
 10
90.27617218150944
 20
85.29966385968054
 30
0.0
 10
89.80324081545379
 20
85.07444508044229
 30
0.0
 10
89.33337446354929
 20
84.85747884749054
 30
0.0
 10
88.86673433782056
 20
84.64859519768684
 30
0.0
 10
88.40347617012837
 20
84.4476236275527
 30
0.0
 10
87.94375030274028
 20
84.25439324762473
 30
0.0
 10
87.48770178088361
 20
84.06873293237032
 30
0.0
 10
87.03547044769952
 20
83.89047146350629
 30
0.0
 10
86.58719103919796
 20
83.71943767488132
 30
0.0
 10
86.14299328716014
 20
83.55546056932886
 30
0.0
 10
85.70300200010362
 20
83.39836951605412
 30
0.0
 10
85.26733723083001
 20
83.24799413177949
 30
0.0
 10
84.83611413297979
 20
83.10416529682205
 30
0.0
 10
84.4094439592116
 20
82.96671200161857
 30
0.0
 10
83.98743089177833
 20
82.8354734090157
 30
0.0
 10
83.57018410115751
 20
82.71025531178766
 30
0.0
 10
83.15777419577265
 20
82.5909896346225
 30
0.0
 10
82.75039268695751
 20
82.4771526561004
 30
0.0
 10
82.4799277085599
 20
82.40509702024005
 30
0.0
 10
82.34572008967733
 20
82.36934224203112
 30
0.0
  0
LINE
  5
29A
330
1F
100
AcDbEntity
  8
0
  6
Continuous
 62
     7
370
    15
100
AcDbLine
 10
82.345778206
 20
82.3687182354
 30
0.0
 11
82.3450052082
 21
82.8419977413
 31
0.0
  0
LINE
  5
29B
330
1F
100
AcDbEntity
  8
0
  6
Continuous
 62
     7
370
    15
100
AcDbLine
 10
98.5979569047
 20
91.1072099196
 30
0.0
 11
98.5979569047
 21
90.5486957716
 31
0.0
  0
LINE
  5
29C
330
1F
100
AcDbEntity
  8
0
  6
Continuous
 62
     7
370
    15
100
AcDbLine
 10
82.3457074254
 20
82.3693478094
 30
0.0
 11
82.3074235484
 21
82.3965424286
 31
0.0
  0
SPLINE
  5
29D
330
1F
100
AcDbEntity
  8
0
  6
Continuous
 62
     7
370
    15
100
AcDbSpline
210
0.0
220
0.0
230
1.0
 70
     8
 71
     3
 72
     8
 73
     4
 74
     0
 42
0.00000001
 43
0.00000001
 40
0.0
 40
0.0
 40
0.0
 40
0.0
 40
1.0
 40
1.0
 40
1.0
 40
1.0
 10
67.20813058292849
 20
98.90151237170907
 30
0.0
 10
67.89595284025914
 20
93.70735157020458
 30
0.0
 10
68.58596958773204
 20
88.52099323188622
 30
0.0
 10
69.27642884242525
 20
83.33620821861021
 30
0.0
  0
SPLINE
  5
29E
330
1F
100
AcDbEntity
  8
0
  6
Continuous
 62
     7
370
    15
100
AcDbSpline
210
0.0
220
0.0
230
1.0
 70
     8
 71
     3
 72
    10
 73
     6
 74
     0
 42
0.00000001
 43
0.00000001
 40
0.0
 40
0.0
 40
0.0
 40
0.0
 40
0.5
 40
0.5
 40
1.0
 40
1.0
 40
1.0
 40
1.0
 10
67.20813058292849
 20
98.90151237170907
 30
0.0
 10
67.17930847408806
 20
99.11916550281981
 30
0.0
 10
67.1458592854371
 20
99.3135725231126
 30
0.0
 10
67.07982626381043
 20
99.59668004902126
 30
0.0
 10
67.04794465415594
 20
99.68112711532095
 30
0.0
 10
67.02365132168626
 20
99.68546888163633
 30
0.0
  0
LINE
  5
29F
330
1F
100
AcDbEntity
  8
0
  6
Continuous
 62
     7
370
    15
100
AcDbLine
 10
67.0094791783
 20
99.6880058127
 30
0.0
 11
67.0236513217
 21
99.6854688816
 31
0.0
  0
LINE
  5
2A0
330
1F
100
AcDbEntity
  8
0
  6
Continuous
 62
     7
370
    15
100
AcDbLine
 10
61.8022260355
 20
149.3640120246
 30
0.0
 11
61.7888910451
 21
149.3585839773
 31
0.0
  0
SPLINE
  5
2A1
330
1F
100
AcDbEntity
  8
0
  6
Continuous
 62
     7
370
    15
100
AcDbSpline
210
0.0
220
0.0
230
1.0
 70
     8
 71
     3
 72
    10
 73
     6
 74
     0
 42
0.00000001
 43
0.00000001
 40
0.0
 40
0.0
 40
0.0
 40
0.0
 40
0.5
 40
0.5
 40
1.0
 40
1.0
 40
1.0
 40
1.0
 10
61.80222603553027
 20
149.3640120246169
 30
0.0
 10
61.8250790201311
 20
149.3733070246273
 30
0.0
 10
61.83864119044328
 20
149.4609142372745
 30
0.0
 10
61.84448437292379
 20
149.7533302809858
 30
0.0
 10
61.83673542014074
 20
149.9503698794876
 30
0.0
 10
61.81968025879363
 20
150.1691925990018
 30
0.0
  0
LINE
  5
2A2
330
1F
100
AcDbEntity
  8
0
  6
Continuous
 62
     7
370
    15
100
AcDbLine
 10
61.798662962
 20
150.4388877736
 30
0.0
 11
61.8196801185
 21
150.1691935198
 31
0.0
  0
ARC
  5
2A3
330
1F
100
AcDbEntity
  8
0
  6
Continuous
 62
     7
370
    15
100
AcDbCircle
 10
71.5979562044
 20
125.2799162255
 30
0.0
 40
26.99999999999999
100
AcDbArc
 50
110.6578514114
 51
111.280663303
  0
LINE
  5
2A4
330
1F
100
AcDbEntity
  8
0
  6
Continuous
 62
     7
370
    15
100
AcDbLine
 10
67.3260005094
 20
121.3067250872
 30
0.0
 11
62.0727176681
 21
150.5439186083
 31
0.0
  0
LWPOLYLINE
  5
2A5
330
1F
100
AcDbEntity
  8
0
  6
Continuous
 62
     7
370
    15
100
AcDbPolyline
 90
        3
 70
   128
 43
0.0
 10
68.319217851
 20
97.4145082371
 10
68.347523538
 20
97.4742358165
 10
68.4222414527
 20
97.4949279414
  0
LINE
  5
2A6
330
1F
100
AcDbEntity
  8
0
  6
Continuous
 62
     7
370
    15
100
AcDbLine
 10
69.6118779849
 20
83.0204577731
 30
0.0
 11
69.2764288649
 21
83.3362096535
 31
0.0
  0
LWPOLYLINE
  5
2A7
330
1F
100
AcDbEntity
  8
0
  6
Continuous
 62
     7
370
    15
100
AcDbPolyline
 90
       34
 70
   128
 43
0.0
 10
68.7336645458
 20
102.6565076398
 10
68.8043267835
 20
101.9036041187
 10
68.8572410397
 20
101.1779119806
 10
68.8904948435
 20
100.5056609945
 10
68.9028865561
 20
99.9111456411
 10
68.8939677454
 20
99.41585712
 10
68.8640613477
 20
99.0376935886
 10
68.81424793
 20
98.7903212743
 10
68.7463282045
 20
98.682684599
 10
68.6627564389
 20
98.718672766
 10
68.5665536109
 20
98.8969837861
 10
68.4611963477
 20
99.2111747699
 10
68.35049306
 20
99.6498873072
 10
68.2384442441
 20
100.1972684251
 10
68.1290999889
 20
100.8335312443
 10
68.0264123618
 20
101.5356832729
 10
67.9340924505
 20
102.2783422457
 10
67.8554774165
 20
103.0346711712
 10
67.7934080265
 20
103.7773320066
 10
67.7501278367
 20
104.4794821726
 10
67.7272014688
 20
105.1157468544
 10
67.7254571017
 20
105.6631261097
 10
67.7449578322
 20
106.1018405096
 10
67.784999115
 20
106.4160296308
 10
67.8441334419
 20
106.5943406509
 10
67.9202238932
 20
106.6303288178
 10
68.0105200406
 20
106.5226921426
 10
68.1117585297
 20
106.2753216909
 10
68.2202801942
 20
105.8971562968
 10
68.3321627691
 20
105.4018677758
 10
68.4433626845
 20
104.8073524223
 10
68.5498610507
 20
104.1351014362
 10
68.6478082459
 20
103.4094111608
 10
68.7336645458
 20
102.6565076398
  0
LINE
  5
2A8
330
1F
100
AcDbEntity
  8
0
  6
Continuous
 62
     7
370
    15
100
AcDbLine
 10
68.4222414527
 20
97.4949279414
 30
0.0
 11
70.1846826957
 21
96.3093319522
 31
0.0
  0
LINE
  5
2A9
330
1F
100
AcDbEntity
  8
0
  6
Continuous
 62
     7
370
    15
100
AcDbLine
 10
76.1399446889
 20
96.1768718051
 30
0.0
 11
76.2110753819
 21
96.1290223138
 31
0.0
  0
ARC
  5
2AA
330
1F
100
AcDbEntity
  8
0
  6
Continuous
 62
     7
370
    15
100
AcDbCircle
 10
71.5979562044
 20
125.2799162255
 30
0.0
 40
27.0
100
AcDbArc
 50
0.0
 51
110.6578514114
  0
LINE
  5
2AB
330
1F
100
AcDbEntity
  8
0
  6
Continuous
 62
     7
370
    15
100
AcDbLine
 10
98.5979569047
 20
124.5935402774
 30
0.0
 11
98.5979569047
 21
125.2799162255
 31
0.0
  0
ARC
  5
2AC
330
1F
100
AcDbEntity
  8
0
  6
Continuous
 62
     7
370
    15
100
AcDbCircle
 10
92.5540782899
 20
105.2043194657
 30
0.0
 40
24.25644556774071
100
AcDbArc
 50
179.173865945
 51
192.8261385476
  0
SPLINE
  5
2AD
330
1F
100
AcDbEntity
  8
0
  6
Continuous
 62
     7
370
    15
100
AcDbSpline
210
0.0
220
0.0
230
1.0
 70
     8
 71
     3
 72
    20
 73
    16
 74
     0
 42
0.00000001
 43
0.00000001
 40
0.0
 40
0.0
 40
0.0
 40
0.0
 40
0.2500000000000017
 40
0.2500000000000017
 40
0.3750000000000014
 40
0.3750000000000014
 40
0.5000000000000011
 40
0.5000000000000011
 40
0.6250000000000008
 40
0.6250000000000008
 40
0.7500000000000006
 40
0.7500000000000006
 40
0.8750000000000002
 40
0.8750000000000002
 40
1.0
 40
1.0
 40
1.0
 40
1.0
 10
67.0094791782563
 20
99.68800581266308
 30
0.0
 10
66.9420846474874
 20
99.700089250403
 30
0.0
 10
66.7781713937036
 20
99.72920317041385
 30
0.0
 10
66.39100485417265
 20
99.80630294732174
 30
0.0
 10
66.24009644479865
 20
99.83736426816597
 30
0.0
 10
65.90097757285429
 20
99.91114515205365
 30
0.0
 10
65.71219019897443
 20
99.95397125681941
 30
0.0
 10
65.29641102019183
 20
100.0542099258011
 30
0.0
 10
65.0711846856088
 20
100.1112629921805
 30
0.0
 10
64.59873382792803
 20
100.2385357091964
 30
0.0
 10
64.3500535355225
 20
100.3090945868605
 30
0.0
 10
63.82908182983807
 20
100.4662381958612
 30
0.0
 10
63.55712226938778
 20
100.552813202108
 30
0.0
 10
63.00585064083877
 20
100.7389228412756
 30
0.0
 10
62.72472722288901
 20
100.8389825598606
 30
0.0
 10
62.43865719662654
 20
100.9466624010604
 30
0.0
  0
SPLINE
  5
2AE
330
1F
100
AcDbEntity
  8
0
  6
Continuous
 62
     7
370
    15
100
AcDbSpline
210
0.0
220
0.0
230
1.0
 70
     8
 71
     3
 72
    20
 73
    16
 74
     0
 42
0.00000001
 43
0.00000001
 40
0.0
 40
0.0
 40
0.0
 40
0.0
 40
0.2499999999999996
 40
0.2499999999999996
 40
0.3749999999999997
 40
0.3749999999999997
 40
0.4999999999999998
 40
0.4999999999999998
 40
0.6249999999999999
 40
0.6249999999999999
 40
0.7499999999999999
 40
0.7499999999999999
 40
0.875
 40
0.875
 40
1.0
 40
1.0
 40
1.0
 40
1.0
 10
57.57964190979705
 20
147.1771047285949
 30
0.0
 10
58.09468389763834
 20
147.5068283577018
 30
0.0
 10
58.59400944829932
 20
147.8008867794922
 30
0.0
 10
59.31003625980294
 20
148.1945667774779
 30
0.0
 10
59.54256227574286
 20
148.3174367069512
 30
0.0
 10
59.97827667985647
 20
148.5402455536778
 30
0.0
 10
60.18362480130831
 20
148.6413855996938
 30
0.0
 10
60.56723476771024
 20
148.8249453672775
 30
0.0
 10
60.74690358526872
 20
148.9079759174986
 30
0.0
 10
61.06553850290824
 20
149.0517214811617
 30
0.0
 10
61.20539205200647
 20
149.112911898081
 30
0.0
 10
61.44545333350821
 20
149.2161598290275
 30
0.0
 10
61.54615180371931
 20
149.2584140246696
 30
0.0
 10
61.70209313122428
 20
149.323190180003
 30
0.0
 10
61.7571598149483
 20
149.3456574438779
 30
0.0
 10
61.78889104505696
 20
149.3585839773111
 30
0.0
  0
ELLIPSE
  5
2AF
330
1F
100
AcDbEntity
  8
0
  6
Continuous
 62
     7
370
    15
100
AcDbEllipse
 10
56.0557071337
 20
112.1462492019
 30
0.0
 11
-2.354419390566485
 21
3.224310437053405
 31
0.0
210
0.0
220
0.0
230
1.0
 40
0.6104710892
 41
0.0
 42
6.283185307179586
  0
ARC
  5
2B0
330
1F
100
AcDbEntity
  8
0
  6
Continuous
 62
     7
370
    15
100
AcDbCircle
 10
71.5979562044
 20
125.2799162255
 30
0.0
 40
26.00000000000001
100
AcDbArc
 50
122.6268784213
 51
249.3731215787
  0
SPLINE
  5
2B1
330
1F
100
AcDbEntity
  8
0
  6
Continuous
 62
     7
370
    15
100
AcDbSpline
210
0.0
220
0.0
230
1.0
 70
     8
 71
     3
 72
    14
 73
    10
 74
     0
 42
0.00000001
 43
0.00000001
 40
0.0
 40
0.0
 40
0.0
 40
0.0
 40
0.3326886429008798
 40
0.5688979363662117
 40
0.6853858034842234
 40
0.7639598988660088
 40
0.8432229655704161
 40
0.9531994166843755
 40
0.9999999999999999
 40
0.9999999999999999
 40
0.9999999999999999
 40
0.9999999999999999
 10
56.75179985311136
 20
114.9332744614956
 30
0.0
 10
56.57816221713685
 20
114.863593442698
 30
0.0
 10
56.28124167329116
 20
114.7444388257799
 30
0.0
 10
55.79718562486919
 20
114.7649092145315
 30
0.0
 10
55.50816537089243
 20
114.8496872148435
 30
0.0
 10
55.36010002463968
 20
114.9679412812294
 30
0.0
 10
55.29973204348681
 20
115.1567099611966
 30
0.0
 10
55.31509369088902
 20
115.3493883054898
 30
0.0
 10
55.34879909480342
 20
115.493437089896
 30
0.0
 10
55.3588607251297
 20
115.5364380763647
 30
0.0
  0
LINE
  5
2B2
330
1F
100
AcDbEntity
  8
0
  6
Continuous
 62
     7
370
    15
100
AcDbLine
 10
67.2110003322
 20
98.8799163686
 30
0.0
 11
65.9375675857
 21
98.8799163686
 31
0.0
  0
SPLINE
  5
2B3
330
1F
100
AcDbEntity
  8
0
  6
Continuous
 62
     7
370
    15
100
AcDbSpline
210
0.0
220
0.0
230
1.0
 70
    24
 71
     3
 72
    10
 73
     6
 74
     0
 42
0.00000001
 43
0.00000001
 40
0.0
 40
0.0
 40
0.0
 40
0.0
 40
0.5
 40
0.5
 40
1.0
 40
1.0
 40
1.0
 40
1.0
 10
62.59795620437966
 20
95.71963882494757
 30
0.0
 10
62.59795620437966
 20
95.55975155675391
 30
0.0
 10
62.59795620437966
 20
95.39862430123931
 30
0.0
 10
62.59795620437966
 20
95.16452530288447
 30
0.0
 10
62.59795620437966
 20
95.09299852929324
 30
0.0
 10
62.59795620437966
 20
95.09299852929324
 30
0.0
  0
ARC
  5
2B4
330
1F
100
AcDbEntity
  8
0
  6
Continuous
 62
     7
370
    15
100
AcDbCircle
 10
71.5979562044
 20
125.2799162255
 30
0.0
 40
31.5
100
AcDbArc
 50
140.9381656697
 51
253.398450401
  0
SPLINE
  5
2B5
330
1F
100
AcDbEntity
  8
0
  6
Continuous
 62
     7
370
    15
100
AcDbSpline
210
0.0
220
0.0
230
1.0
 70
    24
 71
     3
 72
    12
 73
     8
 74
     0
 42
0.00000001
 43
0.00000001
 40
0.0
 40
0.0
 40
0.0
 40
0.0
 40
0.2500000000000006
 40
0.2500000000000006
 40
0.5000000000000012
 40
0.5000000000000012
 40
1.0
 40
1.0
 40
1.0
 40
1.0
 10
47.13926654201205
 20
145.1299162255404
 30
0.0
 10
47.13926654201205
 20
145.1299162255404
 30
0.0
 10
47.16709626231555
 20
145.1299162255404
 30
0.0
 10
47.26223872357221
 20
145.1299162255404
 30
0.0
 10
47.32866153987257
 20
145.1299162255404
 30
0.0
 10
47.55286097139269
 20
145.1299162255404
 30
0.0
 10
47.73684737393831
 20
145.1299162255404
 30
0.0
 10
47.91700394312129
 20
145.1299162255404
 30
0.0
  0
SPLINE
  5
2B6
330
1F
100
AcDbEntity
  8
0
  6
Continuous
 62
     7
370
    15
100
AcDbSpline
210
0.0
220
0.0
230
1.0
 70
    24
 71
     3
 72
    10
 73
     6
 74
     0
 42
0.00000001
 43
0.00000001
 40
0.0
 40
0.0
 40
0.0
 40
0.0
 40
0.5
 40
0.5
 40
1.0
 40
1.0
 40
1.0
 40
1.0
 10
63.59795620437966
 20
155.1263565493043
 30
0.0
 10
63.59795620437968
 20
155.2867618156551
 30
0.0
 10
63.59795620437966
 20
155.4458236286437
 30
0.0
 10
63.59795620437966
 20
155.676736094274
 30
0.0
 10
63.59795620437966
 20
155.7471116987047
 30
0.0
 10
63.59795620437966
 20
155.7471116987047
 30
0.0
  0
SPLINE
  5
2B7
330
1F
100
AcDbEntity
  8
0
  6
Continuous
 62
     7
370
    15
100
AcDbSpline
210
0.0
220
0.0
230
1.0
 70
    24
 71
     3
 72
    12
 73
     8
 74
     0
 42
0.00000001
 43
0.00000001
 40
0.0
 40
0.0
 40
0.0
 40
0.0
 40
0.250000000000002
 40
0.250000000000002
 40
0.500000000000004
 40
0.500000000000004
 40
1.0
 40
1.0
 40
1.0
 40
1.0
 10
51.74795620437966
 20
149.7386058879078
 30
0.0
 10
51.74795620437965
 20
149.7386058879078
 30
0.0
 10
51.74795620437966
 20
149.7103861893199
 30
0.0
 10
51.74795620437965
 20
149.6159431820718
 30
0.0
 10
51.74795620437966
 20
149.5496562053665
 30
0.0
 10
51.74795620437965
 20
149.3240313820782
 30
0.0
 10
51.74795620437966
 20
149.1416051190456
 30
0.0
 10
51.74795620437966
 20
148.9608684867988
 30
0.0
  0
ARC
  5
2B8
330
1F
100
AcDbEntity
  8
0
  6
Continuous
 62
     7
370
    15
100
AcDbCircle
 10
71.5979562044
 20
125.2799162255
 30
0.0
 40
31.50000000000001
100
AcDbArc
 50
104.7124579609
 51
129.0618343303
  0
SPLINE
  5
2B9
330
1F
100
AcDbEntity
  8
0
  6
Continuous
 62
     7
370
    15
100
AcDbSpline
210
0.0
220
0.0
230
1.0
 70
    24
 71
     3
 72
    12
 73
     8
 74
     0
 42
0.00000001
 43
0.00000001
 40
0.0
 40
0.0
 40
0.0
 40
0.0
 40
0.25
 40
0.25
 40
0.5
 40
0.5
 40
1.0
 40
1.0
 40
1.0
 40
1.0
 10
79.59795620437966
 20
155.7471116987046
 30
0.0
 10
79.59795620437966
 20
155.7471116987046
 30
0.0
 10
79.59795620437966
 20
155.7301089487438
 30
0.0
 10
79.59795620437966
 20
155.6660484076322
 30
0.0
 10
79.59795620437966
 20
155.6188897919936
 30
0.0
 10
79.59795620437966
 20
155.4456677593013
 30
0.0
 10
79.59795620437966
 20
155.2855586690671
 30
0.0
 10
79.59795620437966
 20
155.1263565493037
 30
0.0
  0
ARC
  5
2BA
330
1F
100
AcDbEntity
  8
0
  6
Continuous
 62
     7
370
    15
100
AcDbCircle
 10
71.5979562044
 20
125.2799162255
 30
0.0
 40
31.50000000000002
100
AcDbArc
 50
328.9972808661
 51
75.2875420391
  0
LINE
  5
2BB
330
1F
100
AcDbEntity
  8
0
  6
Continuous
 62
     7
370
    15
100
AcDbLine
 10
79.5979565844
 20
155.1263572262
 30
0.0
 11
79.5979565844
 21
151.6799160825
 31
0.0
  0
LINE
  5
2BC
330
1F
100
AcDbEntity
  8
0
  6
Continuous
 62
     7
370
    15
100
AcDbLine
 10
79.5979565844
 20
151.6799160825
 30
0.0
 11
77.2583448231
 21
151.6799160825
 31
0.0
  0
LINE
  5
2BD
330
1F
100
AcDbEntity
  8
0
  6
Continuous
 62
     7
370
    15
100
AcDbLine
 10
63.5979558244
 20
151.6799160825
 30
0.0
 11
63.5979558244
 21
155.1263572262
 31
0.0
  0
LINE
  5
2BE
330
1F
100
AcDbEntity
  8
0
  6
Continuous
 62
     7
370
    15
100
AcDbLine
 10
62.5979565918
 20
98.8799163686
 30
0.0
 11
62.5979565918
 21
95.7196389871
 31
0.0
  0
LINE
  5
2BF
330
1F
100
AcDbEntity
  8
0
  6
Continuous
 62
     7
370
    15
100
AcDbLine
 10
51.7479554653
 20
148.9608676718
 30
0.0
 11
51.7479554653
 21
145.1299169646
 31
0.0
  0
LINE
  5
2C0
330
1F
100
AcDbEntity
  8
0
  6
Continuous
 62
     7
370
    15
100
AcDbLine
 10
47.9170047581
 20
145.1299169646
 30
0.0
 11
51.7479554653
 21
145.1299169646
 31
0.0
  0
LINE
  5
2C1
330
1F
100
AcDbEntity
  8
0
  6
Continuous
 62
     7
370
    15
100
AcDbLine
 10
65.9375675857
 20
151.6799160825
 30
0.0
 11
63.5979558244
 21
151.6799160825
 31
0.0
  0
LINE
  5
2C2
330
1F
100
AcDbEntity
  8
0
  6
Continuous
 62
     7
370
    15
100
AcDbLine
 10
65.9375675857
 20
98.8799163686
 30
0.0
 11
62.5979565918
 21
98.8799163686
 31
0.0
  0
SPLINE
  5
2C3
330
1F
100
AcDbEntity
  8
0
  6
Continuous
 62
     7
370
    15
100
AcDbSpline
210
0.0
220
0.0
230
1.0
 70
     8
 71
     3
 72
    15
 73
    11
 74
     0
 42
0.00000001
 43
0.00000001
 40
0.0
 40
0.0
 40
0.0
 40
0.0
 40
0.1340222395221122
 40
0.2680601488083632
 40
0.4019142762712343
 40
0.535790827414786
 40
0.6730771773050475
 40
0.8103631109188474
 40
0.9507377422757719
 40
1.0
 40
1.0
 40
1.0
 40
1.0
 10
62.59795659180985
 20
95.09299859272217
 30
0.0
 10
62.61935854306738
 20
95.08647836115954
 30
0.0
 10
62.66216494788007
 20
95.07343713569443
 30
0.0
 10
62.99484158610677
 20
94.9765221178787
 30
0.0
 10
63.51777291341243
 20
94.83156667680663
 30
0.0
 10
64.23343925223574
 20
94.64930766200322
 30
0.0
 10
65.12744977666645
 20
94.44582124185338
 30
0.0
 10
66.19133035824856
 20
94.24248449004237
 30
0.0
 10
67.11603467396763
 20
94.09014704140527
 30
0.0
 10
67.70518131562565
 20
94.02583247205835
 30
0.0
 10
67.85822481807575
 20
94.00912538038467
 30
0.0
  0
SPLINE
  5
2C4
330
1F
100
AcDbEntity
  8
0
  6
Continuous
 62
     7
370
    15
100
AcDbSpline
210
0.0
220
0.0
230
1.0
 70
     8
 71
     3
 72
    50
 73
    46
 74
     0
 42
0.00000001
 43
0.00000001
 40
0.0
 40
0.0
 40
0.0
 40
0.0
 40
0.0624999999999998
 40
0.0624999999999998
 40
0.0937499999999999
 40
0.0937499999999999
 40
0.1249999999999999
 40
0.1249999999999999
 40
0.1874999999999997
 40
0.1874999999999997
 40
0.2187499999999996
 40
0.2187499999999996
 40
0.2499999999999997
 40
0.2499999999999997
 40
0.3124999999999997
 40
0.3124999999999997
 40
0.3749999999999997
 40
0.3749999999999997
 40
0.4062499999999997
 40
0.4062499999999997
 40
0.4374999999999997
 40
0.4374999999999997
 40
0.4999999999999998
 40
0.4999999999999998
 40
0.5624999999999998
 40
0.5624999999999998
 40
0.6249999999999999
 40
0.6249999999999999
 40
0.6562499999999999
 40
0.6562499999999999
 40
0.6874999999999999
 40
0.6874999999999999
 40
0.71875
 40
0.71875
 40
0.75
 40
0.75
 40
0.8125
 40
0.8125
 40
0.8750000000000001
 40
0.8750000000000001
 40
0.9375000000000001
 40
0.9375000000000001
 40
0.9687500000000001
 40
0.9687500000000001
 40
1.0
 40
1.0
 40
1.0
 40
1.0
 10
63.59795620437966
 20
155.7471116987047
 30
0.0
 10
63.59795620437966
 20
155.7471116987047
 30
0.0
 10
63.65025034633273
 20
155.7609778020858
 30
0.0
 10
63.80360288116547
 20
155.8004149449698
 30
0.0
 10
63.8673003765167
 20
155.8166676472349
 30
0.0
 10
64.0203920268065
 20
155.8550163570852
 30
0.0
 10
64.11004812876732
 20
155.8771698034933
 30
0.0
 10
64.41162951694137
 20
155.9499257493553
 30
0.0
 10
64.65737094737536
 20
156.0072064522
 30
0.0
 10
65.09253101372602
 20
156.1011988916558
 30
0.0
 10
65.24967184118718
 20
156.134057858849
 30
0.0
 10
65.5823109339115
 20
156.2006339122972
 30
0.0
 10
65.75737688935153
 20
156.2342773501362
 30
0.0
 10
66.30823242005314
 20
156.3348382147133
 30
0.0
 10
66.7094168292398
 20
156.4014010244633
 30
0.0
 10
67.58290603532718
 20
156.5261000797629
 30
0.0
 10
68.04494662830962
 20
156.5826230888335
 30
0.0
 10
68.76606204190354
 20
156.6532920234484
 30
0.0
 10
69.01162267958692
 20
156.6745682335198
 30
0.0
 10
69.51341097874513
 20
156.7118739597618
 30
0.0
 10
69.77117219506178
 20
156.7279651566218
 30
0.0
 10
70.54628465928155
 20
156.7666066282295
 30
0.0
 10
71.06671384300122
 20
156.7797960467859
 30
0.0
 10
72.1148496837866
 20
156.7800347702439
 30
0.0
 10
72.64735801416036
 20
156.7666347675398
 30
0.0
 10
73.67504827632696
 20
156.7155707793446
 30
0.0
 10
74.1748124569087
 20
156.6781316445904
 30
0.0
 10
74.90330745692917
 20
156.606968161672
 30
0.0
 10
75.14265844937465
 20
156.5806997034795
 30
0.0
 10
75.60389692086152
 20
156.5250182307272
 30
0.0
 10
75.82716357592878
 20
156.4954804587913
 30
0.0
 10
76.25935118195085
 20
156.4338733137636
 30
0.0
 10
76.46827176219082
 20
156.4018023710424
 30
0.0
 10
76.87169668771455
 20
156.335985394073
 30
0.0
 10
77.0671763476839
 20
156.3020551756098
 30
0.0
 10
77.62303456122014
 20
156.2006265480295
 30
0.0
 10
77.9525919478517
 20
156.1337075193395
 30
0.0
 10
78.53198744563765
 20
156.0086819569976
 30
0.0
 10
78.78350741708202
 20
155.9501051627635
 30
0.0
 10
79.18496191369559
 20
155.8532703111186
 30
0.0
 10
79.3374449092427
 20
155.8145153515594
 30
0.0
 10
79.49275585841794
 20
155.7745878211232
 30
0.0
 10
79.53226930582409
 20
155.7642960298726
 30
0.0
 10
79.58478265311987
 20
155.7505798173337
 30
0.0
 10
79.59795620437966
 20
155.7471116987047
 30
0.0
 10
79.59795620437966
 20
155.7471116987047
 30
0.0
  0
SPLINE
  5
2C5
330
1F
100
AcDbEntity
  8
0
  6
Continuous
 62
     7
370
    15
100
AcDbSpline
210
0.0
220
0.0
230
1.0
 70
     8
 71
     3
 72
    20
 73
    16
 74
     0
 42
0.00000001
 43
0.00000001
 40
0.0
 40
0.0
 40
0.0
 40
0.0
 40
0.2500000000000006
 40
0.2500000000000006
 40
0.3750000000000004
 40
0.3750000000000004
 40
0.5000000000000003
 40
0.5000000000000003
 40
0.6250000000000002
 40
0.6250000000000002
 40
0.7500000000000002
 40
0.7500000000000002
 40
0.8750000000000001
 40
0.8750000000000001
 40
1.0
 40
1.0
 40
1.0
 40
1.0
 10
47.13926654201225
 20
145.1299162255404
 30
0.0
 10
47.66992330984693
 20
145.7837786538378
 30
0.0
 10
48.20365130610845
 20
146.3875644358349
 30
0.0
 10
48.9866236240972
 20
147.2144031720036
 30
0.0
 10
49.24460722419387
 20
147.4768318099565
 30
0.0
 10
49.74900248060168
 20
147.9734944640614
 30
0.0
 10
49.9917809030297
 20
148.2040813430829
 30
0.0
 10
50.44246098254276
 20
148.6206355676656
 30
0.0
 10
50.65192484853404
 20
148.8081333696331
 30
0.0
 10
51.03021336512209
 20
149.1395303472695
 30
0.0
 10
51.19396105130657
 20
149.2790343347648
 30
0.0
 10
51.46214685350601
 20
149.5044878422357
 30
0.0
 10
51.56737126159276
 20
149.5911139537794
 30
0.0
 10
51.71143048690627
 20
149.7090947426335
 30
0.0
 10
51.74795620437965
 20
149.7386058879078
 30
0.0
 10
51.74795620437966
 20
149.7386058879078
 30
0.0
  0
CIRCLE
  5
2C6
330
1F
100
AcDbEntity
  8
VERMASSUNG
  6
CENTERX2
100
AcDbCircle
 10
71.5979562044
 20
120.3024897836
 30
0.0
 40
39.99999999999265
  0
DIMENSION
  5
2C7
330
1F
100
AcDbEntity
  8
VERMASSUNG
100
AcDbDimension
  2
*D6
 10
30.0979562044
 20
160.3024897836
 30
0.0
 11
30.0979562044
 21
120.3024897836
 31
0.0
 70
   160
  1
%%c<>
 71
     2
 42
-1.0
  3
SLDDIMSTYLE0
100
AcDbAlignedDimension
 13
71.5979562044
 23
80.3024897836
 33
0.0
 14
71.5979562044
 24
160.3024897836
 34
0.0
 50
90.0
100
AcDbRotatedDimension
  0
INSERT
  5
2DD
330
1F
100
AcDbEntity
  8
VERMASSUNG
100
AcDbBlockReference
  2
SW_CENTERMARKSYMBOL_0
 10
71.5979562044
 20
125.2799162255
 30
0.0
  0
OLE2FRAME
  5
2DE
330
1F
100
AcDbEntity
  8
0
100
AcDbOle2Frame
 70
     2
  3
Paintbrush-Bild
 10
13.8511154363
 20
38.264191557
 30
0.0
 11
51.6290888628
 21
31.9806341108
 31
0.0
 71
     2
 72
     0
 73
     1
 90
    12928
310
80552BED0767C5B32B40DDAF6807D121434000000000000000006FFBDDFB85D0
310
4940DDAF6807D121434000000000000000006FFBDDFB85D04940416F4BD60AFB
310
3F4000000000000000002BED0767C5B32B40416F4BD60AFB3F40000000000000
310
0000000000000100000000010000010000000100000000000100000000320000
310
D0CF11E0A1B11AE1000000000000000000000000000000003E000300FEFF0900
310
0600000000000000000000000100000001000000000000000010000002000000
310
01000000FEFFFFFF0000000000000000FFFFFFFFFFFFFFFFFFFFFFFFFFFFFFFF
310
FFFFFFFFFFFFFFFFFFFFFFFFFFFFFFFFFFFFFFFFFFFFFFFFFFFFFFFFFFFFFFFF
310
FFFFFFFFFFFFFFFFFFFFFFFFFFFFFFFFFFFFFFFFFFFFFFFFFFFFFFFFFFFFFFFF
310
FFFFFFFFFFFFFFFFFFFFFFFFFFFFFFFFFFFFFFFFFFFFFFFFFFFFFFFFFFFFFFFF
310
FFFFFFFFFFFFFFFFFFFFFFFFFFFFFFFFFFFFFFFFFFFFFFFFFFFFFFFFFFFFFFFF
310
FFFFFFFFFFFFFFFFFFFFFFFFFFFFFFFFFFFFFFFFFFFFFFFFFFFFFFFFFFFFFFFF
310
FFFFFFFFFFFFFFFFFFFFFFFFFFFFFFFFFFFFFFFFFFFFFFFFFFFFFFFFFFFFFFFF
310
FFFFFFFFFFFFFFFFFFFFFFFFFFFFFFFFFFFFFFFFFFFFFFFFFFFFFFFFFFFFFFFF
310
FFFFFFFFFFFFFFFFFFFFFFFFFFFFFFFFFFFFFFFFFFFFFFFFFFFFFFFFFFFFFFFF
310
FFFFFFFFFFFFFFFFFFFFFFFFFFFFFFFFFFFFFFFFFFFFFFFFFFFFFFFFFFFFFFFF
310
FFFFFFFFFFFFFFFFFFFFFFFFFFFFFFFFFFFFFFFFFFFFFFFFFFFFFFFFFFFFFFFF
310
FFFFFFFFFFFFFFFFFFFFFFFFFFFFFFFFFFFFFFFFFFFFFFFFFFFFFFFFFFFFFFFF
310
FFFFFFFFFFFFFFFFFFFFFFFFFFFFFFFFFFFFFFFFFFFFFFFFFFFFFFFFFFFFFFFF
310
FFFFFFFFFFFFFFFFFFFFFFFFFFFFFFFFFFFFFFFFFFFFFFFFFFFFFFFFFFFFFFFF
310
FDFFFFFFFEFFFFFFFEFFFFFFFEFFFFFF05000000060000000700000008000000
310
090000000A0000000B0000000C0000000D0000000E0000000F00000010000000
310
11000000120000001300000014000000150000001600000017000000FEFFFFFF
310
FFFFFFFFFFFFFFFFFFFFFFFFFFFFFFFFFFFFFFFFFFFFFFFFFFFFFFFFFFFFFFFF
310
FFFFFFFFFFFFFFFFFFFFFFFFFFFFFFFFFFFFFFFFFFFFFFFFFFFFFFFFFFFFFFFF
310
FFFFFFFFFFFFFFFFFFFFFFFFFFFFFFFFFFFFFFFFFFFFFFFFFFFFFFFFFFFFFFFF
310
FFFFFFFFFFFFFFFFFFFFFFFFFFFFFFFFFFFFFFFFFFFFFFFFFFFFFFFFFFFFFFFF
310
FFFFFFFFFFFFFFFFFFFFFFFFFFFFFFFFFFFFFFFFFFFFFFFFFFFFFFFFFFFFFFFF
310
FFFFFFFFFFFFFFFFFFFFFFFFFFFFFFFFFFFFFFFFFFFFFFFFFFFFFFFFFFFFFFFF
310
FFFFFFFFFFFFFFFFFFFFFFFFFFFFFFFFFFFFFFFFFFFFFFFFFFFFFFFFFFFFFFFF
310
FFFFFFFFFFFFFFFFFFFFFFFFFFFFFFFFFFFFFFFFFFFFFFFFFFFFFFFFFFFFFFFF
310
FFFFFFFFFFFFFFFFFFFFFFFFFFFFFFFFFFFFFFFFFFFFFFFFFFFFFFFFFFFFFFFF
310
FFFFFFFFFFFFFFFFFFFFFFFFFFFFFFFFFFFFFFFFFFFFFFFFFFFFFFFFFFFFFFFF
310
FFFFFFFFFFFFFFFFFFFFFFFFFFFFFFFFFFFFFFFFFFFFFFFFFFFFFFFFFFFFFFFF
310
FFFFFFFFFFFFFFFFFFFFFFFFFFFFFFFFFFFFFFFFFFFFFFFFFFFFFFFFFFFFFFFF
310
FFFFFFFFFFFFFFFFFFFFFFFFFFFFFFFFFFFFFFFFFFFFFFFFFFFFFFFFFFFFFFFF
310
52006F006F007400200045006E00740072007900000000000000000000000000
310
0000000000000000000000000000000000000000000000000000000000000000
310
16000500FFFFFFFFFFFFFFFF020000000A00030000000000C000000000000046
310
000000000000000000000000908BDE836495CC0103000000C000000000000000
310
01004F006C006500000000000000000000000000000000000000000000000000
310
0000000000000000000000000000000000000000000000000000000000000000
310
0A000200FFFFFFFFFFFFFFFFFFFFFFFF00000000000000000000000000000000
310
0000000000000000000000000000000000000000000000001400000000000000
310
010043006F006D0070004F0062006A0000000000000000000000000000000000
310
0000000000000000000000000000000000000000000000000000000000000000
310
120002010100000003000000FFFFFFFF00000000000000000000000000000000
310
0000000000000000000000000000000000000000010000004D00000000000000
310
01004F006C006500310030004E00610074006900760065000000000000000000
310
0000000000000000000000000000000000000000000000000000000000000000
310
1A000200FFFFFFFFFFFFFFFFFFFFFFFF00000000000000000000000000000000
310
0000000000000000000000000000000000000000040000002426000000000000
310
FEFFFFFF02000000FEFFFFFFFFFFFFFFFFFFFFFFFFFFFFFFFFFFFFFFFFFFFFFF
310
FFFFFFFFFFFFFFFFFFFFFFFFFFFFFFFFFFFFFFFFFFFFFFFFFFFFFFFFFFFFFFFF
310
FFFFFFFFFFFFFFFFFFFFFFFFFFFFFFFFFFFFFFFFFFFFFFFFFFFFFFFFFFFFFFFF
310
FFFFFFFFFFFFFFFFFFFFFFFFFFFFFFFFFFFFFFFFFFFFFFFFFFFFFFFFFFFFFFFF
310
FFFFFFFFFFFFFFFFFFFFFFFFFFFFFFFFFFFFFFFFFFFFFFFFFFFFFFFFFFFFFFFF
310
FFFFFFFFFFFFFFFFFFFFFFFFFFFFFFFFFFFFFFFFFFFFFFFFFFFFFFFFFFFFFFFF
310
FFFFFFFFFFFFFFFFFFFFFFFFFFFFFFFFFFFFFFFFFFFFFFFFFFFFFFFFFFFFFFFF
310
FFFFFFFFFFFFFFFFFFFFFFFFFFFFFFFFFFFFFFFFFFFFFFFFFFFFFFFFFFFFFFFF
310
FFFFFFFFFFFFFFFFFFFFFFFFFFFFFFFFFFFFFFFFFFFFFFFFFFFFFFFFFFFFFFFF
310
FFFFFFFFFFFFFFFFFFFFFFFFFFFFFFFFFFFFFFFFFFFFFFFFFFFFFFFFFFFFFFFF
310
FFFFFFFFFFFFFFFFFFFFFFFFFFFFFFFFFFFFFFFFFFFFFFFFFFFFFFFFFFFFFFFF
310
FFFFFFFFFFFFFFFFFFFFFFFFFFFFFFFFFFFFFFFFFFFFFFFFFFFFFFFFFFFFFFFF
310
FFFFFFFFFFFFFFFFFFFFFFFFFFFFFFFFFFFFFFFFFFFFFFFFFFFFFFFFFFFFFFFF
310
FFFFFFFFFFFFFFFFFFFFFFFFFFFFFFFFFFFFFFFFFFFFFFFFFFFFFFFFFFFFFFFF
310
FFFFFFFFFFFFFFFFFFFFFFFFFFFFFFFFFFFFFFFFFFFFFFFFFFFFFFFFFFFFFFFF
310
FFFFFFFFFFFFFFFFFFFFFFFFFFFFFFFFFFFFFFFFFFFFFFFFFFFFFFFFFFFFFFFF
310
0100000200000000000000000000000000000000000000000000000000000000
310
0000000000000000000000000000000000000000000000000000000000000000
310
0100FEFF030A0000FFFFFFFF0A00030000000000C00000000000004607000000
310
5042727573680007000000504272757368000700000050427275736800F439B2
310
7100000000000000000000000000000000000000000000000000000000000000
310
0000000000000000000000000000000000000000000000000000000000000000
310
0000000000000000000000000000000000000000000000000000000000000000
310
0000000000000000000000000000000000000000000000000000000000000000
310
0000000000000000000000000000000000000000000000000000000000000000
310
0000000000000000000000000000000000000000000000000000000000000000
310
0000000000000000000000000000000000000000000000000000000000000000
310
0000000000000000000000000000000000000000000000000000000000000000
310
0000000000000000000000000000000000000000000000000000000000000000
310
0000000000000000000000000000000000000000000000000000000000000000
310
0000000000000000000000000000000000000000000000000000000000000000
310
0000000000000000000000000000000000000000000000000000000000000000
310
20260000424D0E260000000000003E00000028000000B40200006E0000000100
310
01000000000000000000130B0000130B00000200000002000000000000FFFFFF
310
FFFFFFFFFFFFFFFFFFFFFFFFFFFFFFFFFFFFFFFFFFFFFFFFFFFFFFFFFFFFFFFF
310
FFFFFFFFFFFFFFFFFFFFFFFFFFFFFFFFFFFFFFFFFFFFFFFFFFFFFFFFFFFFFFFF
310
FFFFFFFFFFFFFFFFFFFFFFFFFFFFFFFFFFFFFFFFFFFFFFFFF000FFFFFFFFFFFF
310
FFFFFFFFFFFFFFFFFFFFFFFFFFFFFFFFFFFFFFFFFFFFFFFFFFFFFFFFFFFFFFFF
310
FFFFFFFFFFFFFFFFFFFFFFFFFFFFFFFFFFFFFFFFFFFFFFFFFFFFFFFFFFFFFFFF
310
FFFFFFFFFFFFFFFFFFFFFFFFFFFFFFFFF000FFFFFFFFFFFFFFFFFFFFFFFFFFFF
310
FFFFFFFFFFFFFFFFFFFFFFFFFFFFFFFFFFFFFFFFFFFFFFFFFFFFFFFFFFFFFFFF
310
FFFFFFFFFFFFFFFFFFFFFFFFFFFFFFFFFFFFFFFFFFFFFFFFFFFFFFFFFFFFFFFF
310
FFFFFFFFFFFFFFFFF000FFFFFFFFFFFFFFFFFFFFFFFFFFFFFFFFFFFFFFFFFFFF
310
FFFFFFFFFFFFFFFFFFFFFFFFFFFFFFFFFFFFFFFFFFFFFFFFFFFFFFFFFFFFFFFF
310
FFFFFFFFFFFFFFFFFFFFFFFFFFFFFFFFFFFFFFFFFFFFFFFFFFFFFFFFFFFFFFFF
310
F000FFFFFFFFFFFFFFFFFFFFFFFFFFFFFFFFFFFFFFFFFFFFFFFFFFFFFFFFFFFF
310
FFFFFFFFFFFFFFFFFFFFFFFFFFFFFFFFFFFFFFFFFFFFFFFFFFFFFFFFFFFFFFFF
310
FFFFFFFFFFFFFFFFFFFFFFFFFFFFFFFFFFFFFFFFFFFFFFFFF000FFFFFFFFFFFF
310
FFFFFFFFFFFFFFFFFFFFFFFFFFFFFFFFFFFFFFFFFFFFFFFFFFFFFFFFFFFFFFFF
310
FFFFFFFFFFFFFFFFFFFFFFFFFFFFFFFFFFFFFFFFFFFFFFFFFFFFFFFFFFFFFFFF
310
FFFFFFFFFFFFFFFFFFFFFFFFFFFFFFFFF000FFFFFFFFFFFFFFFFFFFFFFFFFFFF
310
FFFFFFFFFFFFFFFFFFFFFFFFFFFFFFFFFFFFFFFFFFFFFFFFFFFFFFFFFFFFFFFF
310
FFFFFFFFFFFFFFFFFFFFFFFFFFFFFFFFFFFFFFFFFFFFFFFFFFFFFFFFFFFFFFFF
310
FFFFFFFFFFFFFFFFF000FFFFFFFFFFFFFFFFFFFFFFFFFFFFFFFFFFFFFFFFFFFF
310
FFFFFFFFFFFFFFFFFFFFFFFFFFFFFFFFFFFFFFFFFFFFFFFFFFFFFFFFFFFFFFFF
310
FFFFFFFFFFFFFFFFFFFFFFFFFFFFFFFFFFFFFFFFFFFFFFFFFFFFFFFFFFFFFFFF
310
F000FFFFFFFFFFFFFFFFFFFFFFFFFFFFFFFFFFFFFFFFFFFFFFFFFFFFFFFFFFFF
310
FFFFFFFFFFFFFFFFFFFFFFFFFFFFFFFFFFFFFFFFFFFFFFFFFFFFFFFFFFFFFFFF
310
FFFFFFFFFFFFFFFFFFFFFFFFFFFFFFFFFFFFFFFFFFFFFFFFF000FFFFFFFFFFFF
310
FFFFFFFFFFFFFFFFFFFFFFFFFFFFFFFFFFFFFFFFFFFFFFFFFFFFFFFFFFFFFFFF
310
FFFFFFFFFFFFFFFFFFFFFFFFFFFFFFFFFFFFFFFFFFFFFFFFFFFFFFFFFFFFFFFF
310
FFFFFFFFFFFFFFFFFFFFFFFFFFFFFFFFF000FFFFFFFFFFFFFFFFFFFFFFFFFFFF
310
FFFFFFFFFFFFFFFFFFFFFFFFFFFFFFFFFFFFFFFFFFFFFFFFFFFFFFFFFFFFFFFF
310
FFFFFFFFFFFFFFFFFFFFFFFFFFFFFFFFFFFFFFFFFFFFFFFFFFFFFFFFFFFFFFFF
310
FFFFFFFFFFFFFFFFF000FFFFFFFFFFFFFFFFFFFFFFFFFFFFFFFFFFFFFFFFFFFF
310
FFFFFFFFFFFFFFFFFFFFFFFFFFFFFFFFFFFFFFFFFFFFFFFFFFFFFFFFFFFFFFFF
310
FFFFFFFFFFFFFFFFFFFFFFFFFFFFFFFFFFFFFFFFFFFFFFFFFFFFFFFFFFFFFFFF
310
F000FFFFFFFFFFFFFFFFFFFFFFFFFFFFFFFFFFFFFFFFFFFFFFFFFFFFFFFFFFFF
310
FFFFFFFFFFFFFFFFFFFFFFFFFFFFFFFFFFFFFFFFFFFFFFFFFFFFFFFFFFFFFFFF
310
FFFFFFFFFFFFFFFFFFFFFFFFFFFFFFFFFFFFFFFFFFFFFFFFF000FFFFFFFFFFFF
310
FFFFFFFFFFFFFFFFFFFFFFFFFFFFFFFFFFFFFFFFFFFFFFFFFFFFFFFFFFFFFFFF
310
FFFFFFFFFFFFFFFFFFFFFFFFFFFFFFFFFFFFFFFFFFFFFFFFFFFFFFFFFFFFFFFF
310
FFFFFFFFFFFFFFFFFFFFFFFFFFFFFFFFF000FFFFFFFFFFFFFFFFFFFFFFFFFFFF
310
FFFFFFFFFFFFFFFFFFFFFFFFFFFFFFFFFFFFFFFFFFFFFFFFFFFFFFFFFFFFFFFF
310
FFFFFFFFFFFFFFFFFFFFFFFFFFFFFFFFFFFFFFFFFFFFFFFFFFFFFFFFFFFFFFFF
310
FFFFFFFFFFFFFFFFF000FFFFFFFFFFFFFFFFFFFFFFFFFFFFFFFFFFFFFFFFFFFF
310
FFFFFFFFFFFFFFFFFFFFFFFFFFFFFFFFFFFFFFFFFFFFFFFFFFFFFFFFFFFFFFFF
310
FFFFFFFFFFFFFFFFFFFFFFFFFFFFFFFFFFFFFFFFFFFFFFFFFFFFFFFFFFFFFFFF
310
F000FFFFFFFFFFFFFFFFFFFFFFFFFFFFFFFFFFFFFFFFFFFFFFFFFFFFFFFFFFFF
310
FFFFFFFFFFFFFFFFFFFFFFFFFFFFFFFFFFFFFFFFFFFFFFFFFFFFFFFFFFFFFFFF
310
FFFFFFFFFFFFFFFFFFFFFFFFFFFFFFFFFFFFFFFFFFFFFFFFF000FFFFFFFFFFFF
310
FFFFFFFFFFFFFFFFFFFFFFFFFFFFFFFFFFFFFFFFFFFFFFFFFFFFFFFFFFFFFFFF
310
FFFFFFFFFFFFFFFFFFFFFFFFFFFFFFFFFFFFFFFFFFFFFFFFFFFFFFFFFFFFFFFF
310
FFFFFFFFFFFFFFFFFFFFFFFFFFFFFFFFF000FFFFFFFFFFFFFFFFFFFFFFFFFFFF
310
FFFFFFFFFFFFFFFFFFFFFFFFFFFFFFFFFFFFFFFFFFFFFFFFFFFFFFFFFFFFFFFF
310
FFFFFFFFFFFFFFFFFFFFFFFFFFFFFFFFFFFFFFFFFFFFFFFFFFFFFFFFFFFFFFFF
310
FFFFFFFFFFFFFFFFF000FFFFF80003FFFFFFFFFFFFFFFFFFFFFFFFFFFFFFFFFF
310
FFFFF00007FFFFFFFFFF00007FFFFFF800000000000000007FFFFFFFFFFFFFFF
310
FFFFFFFC001FFFFFFFFFFFFFFC001FFFFFFFFFFFFFFFFFFFFFFFFFFE0007FFFF
310
F000FFFF8000007FFFFFFFF8000FFFFFC0007FFFFF80007FFFFF0000007FFFFF
310
FFF8000007FFFFF800000000000000007FFFFFF0001FFFFFFFFFFFC00001FFFF
310
FFFFFFFFC00001FFFFFFFF000000000003FFFFE000007FFFF000FFFE0000000F
310
FFFFFFF0000FFFFF80007FFFFF80007FFFFC0000001FFFFFFFC0000001FFFFF8
310
00000000000000007FFFFFF0001FFFFFFFFFFE0000003FFFFFFFFFFE0000003F
310
FFFFFF000000000003FFFF0000000FFFF000FFF800000003FFFFFFF00007FFFF
310
80007FFFFF80007FFFF000000007FFFFFF000000003FFFF80000000000000000
310
7FFFFFF0001FFFFFFFFFF80000000FFFFFFFFFF80000000FFFFFFF0000000000
310
03FFFC00000003FFF000FFE000000000FFFFFFF00007FFFF80003FFFFF80007F
310
FFC000000001FFFFFC000000001FFFF800000000000000007FFFFFF0001FFFFF
310
FFFFE000000003FFFFFFFFE000000003FFFFFF000000000003FFF000000000FF
310
F000FF80000000007FFFFFF00007FFFF80003FFFFF80007FFF8000000000FFFF
310
F80000000007FFF800000000000000007FFFFFF0001FFFFFFFFFC000000001FF
310
FFFFFFC000000001FFFFFF000000000003FFC0000000007FF000FF0000000000
310
3FFFFFE00007FFFF00003FFFFF80007FFE00000000003FFFF00000000003FFF8
310
00000000000000007FFFFFF0001FFFFFFFFF8000000000FFFFFFFF8000000000
310
FFFFFF000000000003FF80000000003FF000FE00000000001FFFFFE00003FFFF
310
00003FFFFF80007FFC00000000001FFFE00000000001FFF8000001FFFE000000
310
7FFFFFF0001FFFFFFFFE00000000003FFFFFFE00000000003FFFFF0000000000
310
03FF00000000001FF000FC00000000000FFFFFE00003FFFF00001FFFFF80007F
310
F800000000001FFFC00000000000FFF8000001FFFE0000007FFFFFF0001FFFFF
310
FFFC00000000001FFFFFFC00000000001FFFFF000000000003FE00000000000F
310
F000F8000000000007FFFFE00003FFFF00001FFFFF80007FF800000000000FFF
310
800000000000FFF8000001FFFE0000007FFFFFF0001FFFFFFFF800000000000F
310
FFFFF800000000000FFFFF000000000003FC000000000007F000F80000000000
310
03FFFFC00003FFFE00001FFFFF80007FF0000000000007FF0000000000007FF8
310
000001FFFE0000007FFFFFF0001FFFFFFFF0000000000007FFFFF00000000000
310
07FFFF000000000003F8000000000003F000F0000000000003FFFFC00001FFFE
310
00001FFFFF80007FE0000000000007FE0000000000003FF8000001FFFE000000
310
7FFFFFF0001FFFFFFFF0000000000007FFFFF0000000000007FFFF0000000000
310
03F800001F800003F000E00001FFF00001FFFFC00001FFFE00000FFFFF80007F
310
E00001FFE00003FE00001FFF00003FF8000001FFFE0000007FFFFFF0001FFFFF
310
FFE000003E000003FFFFE000003E000003FFFF000000000003F00001FFF80001
310
F000E00007FFFC0001FFFFC00001FFFE00000FFFFF80007FC0000FFFFC0003FC
310
0000FFFFC0001FF8000001FFFE0000007FFFFFF0001FFFFFFFC00003FFE00001
310
FFFFC00003FFE00001FFFF0001FFFFFFFFF00007FFFE0001F000E0000FFFFF00
310
00FFFF800001FFFC00000FFFFF80007FC0001FFFFE0001FC0001FFFFE0001FF8
310
000001FFFE0000007FFFFFF0001FFFFFFF80000FFFF80000FFFF80000FFFF800
310
00FFFF0003FFFFFFFFE0000FFFFF8000F000C0003FFFFF8000FFFF800000FFFC
310
000007FFFF80007F80003FFFFF0001FC0003FFFFF0001FF8000001FFFE000000
310
7FFFFFF0001FFFFFFF80003FFFFE0000FFFF80003FFFFE0000FFFF0003FFFFFF
310
FFE0003FFFFF8000F000C0003FFFFF8000FFFF800000FFFC000007FFFF80007F
310
80007FFFFF8001F80007FFFFF8000FF8000001FFFE0000007FFFFFF0001FFFFF
310
FF00007FFFFF00007FFF00007FFFFF00007FFF0003FFFFFFFFE0003FFFFFC000
310
F000C0007FFFFFC000FFFF000000FFFC000007FFFF80007F8000FFFFFF8000F8
310
000FFFFFF8000FF8000001FFFE0000007FFFFFF0001FFFFFFF0000FFFFFF8000
310
7FFF0000FFFFFF80007FFF0003FFFFFFFFC0007FFFFFC00070008000FFFFFFC0
310
00FFFF000000FFF8000007FFFF80007F8000FFFFFF8000F8000FFFFFF8000FF8
310
000001FFFE0000007FFFFFF0001FFFFFFE0001FFFFFFC0003FFE0001FFFFFFC0
310
003FFF0003FFFFFFFFC0007FFFFFE00070008000FFFFFFC0007FFF0000007FF8
310
000003FFFF80007F0001FFFFFF8000F8000FFFFFF8000FF8000001FFFE000000
310
7FFFFFF0001FFFFFFE0001FFFFFFC0003FFE0001FFFFFFC0003FFF0003FFFFFF
310
FFC000FFFFFFE00070008000FFFFFFC0007FFF0000007FF8000003FFFF80007F
310
0001FFFFFF8000F8001FFFFFF8000FF8000001FFFE0000007FFFFFF0001FFFFF
310
FE0003FFFFFFE0003FFE0003FFFFFFE0003FFF0003FFFFFFFFC000FFFFFFE000
310
70008000FFFFFFC0007FFE0000007FF8000003FFFF80007F0001FFFFFF8000F0
310
001FFFFFF8000FF8000001FFFE0000007FFFFFF0001FFFFFFC0003FFFFFFE000
310
1FFC0003FFFFFFE0001FFF0003FFFFFFFFC000FFFFFFC00070008000FFFFFF80
310
007FFE0000007FF0000003FFFF80007F0001FFFFFF0000F0001FFFFFF8000FF8
310
000001FFFE0000007FFFFFF0001FFFFFFC0007FFFFFFF0001FFC0007FFFFFFF0
310
001FFF0003FFFFFFFFC000FFFFFFC00070008001FFFFFF0000FFFE0000003FF0
310
000001FFFF80007F0001FFFFFF0000F8001FFFFFF0000FF8000001FFFE000000
310
7FFFFFF0001FFFFFFC0007FFFFFFF0001FFC0007FFFFFFF0001FFF0003FFFFFF
310
FFC001FFFFFF80007000FFFFFFFFFE0000FFFE0008003FF0008001FFFF80007F
310
FFFFFFFFFC0000FFFFFFFFFFE0000FF8000001FFFE0000007FFFFFF0001FFFFF
310
F8000FFFFFFFF8000FF8000FFFFFFFF8000FFF0003FFFFFFFFFFFFFFFFFF0000
310
7000FFFFFFFFFC0000FFFC0008003FF0008001FFFF80007FFFFFFFFFF80001FF
310
FFFFFFFF80000FF8000001FFFE0000007FFFFFF0001FFFFFF8000FFFFFFFF800
310
0FF8000FFFFFFFF8000FFF0003FFFFFFFFFFFFFFFFFE0000F000FFFFFFFFE000
310
00FFFC000C003FE000C001FFFF80007FFFFFFFFFC00001FFFFFFFFFE00001FF8
310
000001FFFE0000007FFFFFF0001FFFFFF8000FFFFFFFF8000FF8000FFFFFFFF8
310
000FFF0003FFFFFFFFFFFFFFFFF00000F000FFFFFFFE000001FFFC000C001FE0
310
00C000FFFF80007FFFFFFFFE000001FFFFFFFFE000001FF80FFFFFFFFFFFFFC0
310
7FFFFFF0001FFFFFF8000FFFFFFFF8000FF8000FFFFFFFF8000FFF0003FFFFFF
310
FFFFFFFFFF800000F000FFFFFFC0000001FFFC001C001FE001C000FFFF80007F
310
FFFFFF80000003FFFFFFF80000001FF80FFFFFFFFFFFFFC07FFFFFF0001FFFFF
310
F8001FFFFFFFFC000FF8001FFFFFFFFC000FFF0003FFFFFFFFFFFFFFF0000001
310
F000FFFFF800000001FFF8001C001FE001C000FFFF80007FFFFFF800000003FF
310
FFFF800000003FF80FFFFFFFFFFFFFC07FFFFFF0001FFFFFF8001FFFFFFFFC00
310
0FF8001FFFFFFFFC000FFF0003FFFFFFFFFFFFFE00000001F000FFFFC0000000
310
03FFF8001E001FC001E000FFFF80007FFFFF8000000007FFFFFC000000003FF8
310
0FFFFFFFFFFFFFC07FFFFFF0001FFFFFF8001FFFFFFFFC000FF8001FFFFFFFFC
310
000FFF0003FFFFFFFFFFFFE000000003F000FFFE0000000007FFF8001E000FC0
310
01E0007FFF80007FFFFE0000000007FFFFE0000000007FF80FFFFFFFFFFFFFC0
310
7FFFFFF0001FFFFFF0001FFFFFFFFC0007F0001FFFFFFFFC0007FF0003FFFFFF
310
FFFFFF0000000003F000FFF80000000007FFF8001E000FC003E0007FFF80007F
310
FFF0000000000FFFFF8000000000FFF80FFFFFFFFFFFFFC07FFFFFF0001FFFFF
310
F0001FFFFFFFFC0007F0001FFFFFFFFC0007FF0003FFFFFFFFFFFC0000000007
310
F000FFE0000000000FFFF0003E000FC003E0007FFF80007FFFC0000000001FFF
310
FE0000000001FFF80FFFFFFFFFFFFFC07FFFFFF0001FFFFFF0001FFFFFFFFC00
310
07F0001FFFFFFFFC0007FF0003FFFFFFFFFFF0000000000FF000FFC000000000
310
1FFFF0003F000F8003F0003FFF80007FFF80000000003FFFF80000000003FFF8
310
0FFFFFFFFFFFFFC07FFFFFF0001FFFFFF0001FFFFFFFFC0007F0001FFFFFFFFC
310
0007FF0003FFFFFFFFFFE0000000001FF000FF00000000007FFFF0003F000780
310
03F0003FFF80007FFF00000000007FFFF00000000007FFF80FFFFFFFFFFFFFC0
310
7FFFFFF0001FFFFFF0001FFFFFFFFC0007F0001FFFFFFFFC0007FF0003FFFFFF
310
FFFF80000000007FF000FE0000000000FFFFE0003F00078007F0003FFF80007F
310
FE0000000001FFFFE0000000001FFFF80FFFFFFFFFFFFFC07FFFFFF0001FFFFF
310
F0001FFFFFFFFC0007F0001FFFFFFFFC0007FF0003FFFFFFFFFF0000000000FF
310
F000FC0000000003FFFFE0007F00078007F0003FFF80007FFC0000000007FFFF
310
C0000000007FFFF80FFFFFFFFFFFFFC07FFFFFF0001FFFFFF8001FFFFFFFFC00
310
0FF8001FFFFFFFFC000FFF0003FFFFFFFFFE0000000003FFF000FC000000000F
310
FFFFE0007F80070007F8001FFF80007FF8000000001FFFFF8000000001FFFFF8
310
0FFFFFFFFFFFFFC07FFFFFF0001FFFFFF8001FFFFFFFFC000FF8001FFFFFFFFC
310
000FFF0003FFFFFFFFFC000000000FFFF000F8000000007FFFFFE0007F800700
310
07F8001FFF80007FF000000000FFFFFF800000000FFFFFF80FFFFFFFFFFFFFC0
310
7FFFFFF0001FFFFFF8000FFFFFFFF8000FF8000FFFFFFFF8000FFF0003FFFFFF
310
FFFC000000007FFFF000F800000007FFFFFFC0007F8003000FF8001FFF80007F
310
F000000007FFFFFF000000007FFFFFF80FFFFFFFFFFFFFC07FFFFFF0001FFFFF
310
F8000FFFFFFFF8000FF8000FFFFFFFF8000FFF0003FFFFFFFFF80000000FFFFF
310
F000F0000000FFFFFFFFC000FF8003000FF8001FFF80007FE0000000FFFFFFFF
310
0000000FFFFFFFF8000001FFFE0000007FFFFFF0001FFFFFF8000FFFFFFFF800
310
0FF8000FFFFFFFF8000FFF0003FFFFFFFFF8000000FFFFFFF000F000000FFFFF
310
FFFFC000FFC002000FF8000FFF80007FE000001FFFFFFFFE000001FFFFFFFFF8
310
000001FFFE0000007FFFFFF0001FFFFFF8000FFFFFFFF8000FF8000FFFFFFFF8
310
000FFF0003FFFFFFFFF000001FFFFFFFF000E00000FFFFFFFFFFC000FFC00200
310
0FFC000FFF80007FE00001FFFFFFFFFE00001FFFFFFFFFF8000001FFFE000000
310
7FFFFFF0001FFFFFFC000FFFFFFFF8001FFC000FFFFFFFF8001FFF0003FFFFFF
310
FFF00001FFFFFFFFF000E00007FFFFFFFFFF8000FFC000001FFC000FFF80007F
310
C0000FFFFFFFFFFE0000FFFFFFFFFFF8000001FFFE0000007FFFFFF0001FFFFF
310
FC0007FFFFFFF0001FFC0007FFFFFFF0001FFF0003FFFFFFFFF00007FFFFFFFF
310
F000E0001FFFFFFFFFFF8000FFC000001FFC000FFF80007FC0003FFFFFFFFFFE
310
0001FFFFFFFFFFF8000001FFFE0000007FFFFFF0001FFFFFFC0007FFFFFFF000
310
1FFC0007FFFFFFF0001FFF0003FFFFFFFFF0001FFFFFFFFFF000E0003FFFFF00
310
03FF8001FFE000001FFC0007FF80007FC0007FFFFF0007FC0003FFFFF0003FF8
310
000001FFFE0000007FFFFFF0001FFFFFFC0003FFFFFFE0001FFC0003FFFFFFE0
310
001FFF0003FFFFFFFFF0003FFFFFFFFFF000E0003FFFFF0001FF8001FFE00000
310
1FFE0007FF80007FC0007FFFFE0003FC0007FFFFE0003FF8000001FFFE000000
310
7FFFFFF0001FFFFFFE0003FFFFFFE0003FFE0003FFFFFFE0003FFF0003FFFFFF
310
FFF0003FFFFF8001F000E0003FFFFF0001FF0001FFE000001FFE0007FF80007F
310
C0007FFFFE0003FC0007FFFFE0003FF8000001FFFE0000007FFFFFF0001FFFFF
310
FE0001FFFFFFC0003FFE0001FFFFFFC0003FFF0003FFFFFFFFF0003FFFFF0001
310
F000E0003FFFFF0003FF0001FFE000003FFE0007FF80007FC0007FFFFE0003FC
310
0007FFFFE0003FF8000001FFFE0000007FFFFFF0001FFFFFFF0001FFFFFFC000
310
7FFF0001FFFFFFC0007FFF0003FFFFFFFFF0003FFFFF0001F000E0003FFFFE00
310
03FF0003FFF000003FFE0003FF80007FC0007FFFFC0003FE0007FFFFE0003FF8
310
000001FFFE0000007FFFFFF0001FFFFFFF0000FFFFFF80007FFF0000FFFFFF80
310
007FFF0003FFFFFFFFF0003FFFFF0001F000E0003FFFFE0003FF0003FFF00000
310
3FFF0003FF80007FC0007FFFFC0007FE0007FFFFC0003FF8000001FFFE000000
310
7FFFFFF0001FFFFFFF80007FFFFF0000FFFF80007FFFFF0000FFFF0003FFFFFF
310
FFF0003FFFFF0003F000E0003FFFFC0003FE0003FFF000003FFF0003FF80007F
310
E0003FFFF80007FE0003FFFFC0007FF8000001FFFE0000007FFFFFF0001FFFFF
310
FF80003FFFFE0000FFFF80003FFFFE0000FFFF0003FFFFFFFFF0001FFFFE0003
310
F000F0001FFFF80003FE0003FFF000007FFF0001FF80007FE0003FFFF00007FE
310
0001FFFF80007FF8000001FFFE0000007FFFFFF0001FFFFFFFC0000FFFF80001
310
FFFFC0000FFFF80001FFFF0003FFFFFFFFF0001FFFFC0003F000F0000FFFF000
310
07FE0007FFF800007FFF0001FF80007FE0001FFFE00007FF0000FFFE00007FF8
310
000001FFFE0000007FFFFFF0001FFFFFFFC00003FFE00001FFFFC00003FFE000
310
01FFFF0003FFFFFFFFF8000FFFF80003F000F00003FFC00007FC0007FFF80000
310
7FFF8001FF80007FF00007FF80000FFF00007FF80000FFF8000001FFFE000000
310
7F80000000000001FFE000003E000003FFFFE000003E000003FFFF0003FFFFFF
310
FFF80003FFE00007F000F800000000000FFC0007FFF800007FFF8001FF80007F
310
F000000000000FFF000000000000FFF8000001FFFE0000007F80000000000001
310
FFF0000000000007FFFFF0000000000007FFFF0003FFFFFFFFFC00007E000007
310
F000F800000000000FFC0007FFF80000FFFF8000FF80007FF800000000001FFF
310
800000000001FFF8000001FFFE0000007F80000000000001FFF800000000000F
310
FFFFF800000000000FFFFF0003FFFFFFFFFC00000000000FF000FC0000000000
310
1FFC0007FFFC0000FFFF8000FF80007FF800000000003FFFC00000000001FFF8
310
000001FFFE0000007F80000000000001FFF800000000000FFFFFF80000000000
310
0FFFFF0003FFFFFFFFFE00000000001FF000FE00000000003FF8000FFFFC0000
310
FFFF8000FF80007FFC00000000003FFFC00000000003FFF8000001FFFE000000
310
7F80000000000001FFFC00000000001FFFFFFC00000000001FFFFF0003FFFFFF
310
FFFF00000000001FF000FF00000000003FF8000FFFFC0000FFFFC000FF80007F
310
FE00000000007FFFE00000000007FFF8000001FFFE0000007F80000000000001
310
FFFE00000000003FFFFFFE00000000003FFFFF0003FFFFFFFFFF80000000003F
310
F000FF80000000007FF8000FFFFC0001FFFFC0007F80007FFF0000000000FFFF
310
F0000000000FFFF800000000000000007F80000000000001FFFF8000000000FF
310
FFFFFF8000000000FFFFFF0003FFFFFFFFFFC0000000007FF000FFC000000000
310
FFF8000FFFFE0001FFFFC0007F80007FFF8000000001FFFFF8000000001FFFF8
310
00000000000000007F80000000000001FFFFC000000001FFFFFFFFC000000001
310
FFFFFF0003FFFFFFFFFFE000000000FFF000FFE000000003FFF0001FFFFE0001
310
FFFFC0007F80007FFFC000000007FFFFFE000000003FFFF80000000000000000
310
7F80000000000001FFFFE000000003FFFFFFFFE000000003FFFFFF0003FFFFFF
310
FFFFF000000003FFF000FFF80000000FFFF0001FFFFE0001FFFFE0007F80007F
310
FFF00000000FFFFFFF00000000FFFFF800000000000000007F80000000000001
310
FFFFF80000000FFFFFFFFFF80000000FFFFFFF0003FFFFFFFFFFFC0000000FFF
310
F000FFFE0000003FFFF0001FFFFE0003FFFFE0003F80007FFFFC0000003FFFFF
310
FFC0000003FFFFF800000000000000007F80000000000001FFFFFE0000003FFF
310
FFFFFFFE0000003FFFFFFF0003FFFFFFFFFFFF0000003FFFF000FFFF800000FF
310
FFF0001FFFFF0003FFFFE0003F80007FFFFF000001FFFFFFFFF800001FFFFFF8
310
00000000000000007F80000000000001FFFFFFC00001FFFFFFFFFFFFC00001FF
310
FFFFFF0003FFFFFFFFFFFFC00000FFFFF000FFFFF8000FFFFFFFFFFFFFFFFFFF
310
FFFFFFFFFFFFFFFFFFFFF0001FFFFFFFFFFF0000FFFFFFF80000000000000000
310
7FFFFFFFFFFFFFFFFFFFFFFC001FFFFFFFFFFFFFFC001FFFFFFFFFFFFFFFFFFF
310
FFFFFFFC001FFFFFF000FFFFFFFFFFFFFFFFFFFFFFFFFFFFFFFFFFFFFFFFFFFF
310
FFFFFFFFFFFFFFFFFFFFFFFFFFFFFFFFFFFFFFFFFFFFFFFFFFFFFFFFFFFFFFFF
310
FFFFFFFFFFFFFFFFFFFFFFFFFFFFFFFFFFFFFFFFFFFFFFFFFFFFFFFFFFFFFFFF
310
F000FFFFFFFFFFFFFFFFFFFFFFFFFFFFFFFFFFFFFFFFFFFFFFFFFFFFFFFFFFFF
310
FFFFFFFFFFFFFFFFFFFFFFFFFFFFFFFFFFFFFFFFFFFFFFFFFFFFFFFFFFFFFFFF
310
FFFFFFFFFFFFFFFFFFFFFFFFFFFFFFFFFFFFFFFFFFFFFFFFF000FFFFFFFFFFFF
310
FFFFFFFFFFFFFFFFFFFFFFFFFFFFFFFFFFFFFFFFFFFFFFFFFFFFFFFFFFFFFFFF
310
FFFFFFFFFFFFFFFFFFFFFFFFFFFFFFFFFFFFFFFFFFFFFFFFFFFFFFFFFFFFFFFF
310
FFFFFFFFFFFFFFFFFFFFFFFFFFFFFFFFF000FFFFFFFFFFFFFFFFFFFFFFFFFFFF
310
FFFFFFFFFFFFFFFFFFFFFFFFFFFFFFFFFFFFFFFFFFFFFFFFFFFFFFFFFFFFFFFF
310
FFFFFFFFFFFFFFFFFFFFFFFFFFFFFFFFFFFFFFFFFFFFFFFFFFFFFFFFFFFFFFFF
310
FFFFFFFFFFFFFFFFF000FFFFFFFFFFFFFFFFFFFFFFFFFFFFFFFFFFFFFFFFFFFF
310
FFFFFFFFFFFFFFFFFFFFFFFFFFFFFFFFFFFFFFFFFFFFFFFFFFFFFFFFFFFFFFFF
310
FFFFFFFFFFFFFFFFFFFFFFFFFFFFFFFFFFFFFFFFFFFFFFFFFFFFFFFFFFFFFFFF
310
F000FFFFFFFFFFFFFFFFFFFFFFFFFFFFFFFFFFFFFFFFFFFFFFFFFFFFFFFFFFFF
310
FFFFFFFFFFFFFFFFFFFFFFFFFFFFFFFFFFFFFFFFFFFFFFFFFFFFFFFFFFFFFFFF
310
FFFFFFFFFFFFFFFFFFFFFFFFFFFFFFFFFFFFFFFFFFFFFFFFF000FFFFFFFFFFFF
310
FFFFFFFFFFFFFFFFFFFFFFFFFFFFFFFFFFFFFFFFFFFFFFFFFFFFFFFFFFFFFFFF
310
FFFFFFFFFFFFFFFFFFFFFFFFFFFFFFFFFFFFFFFFFFFFFFFFFFFFFFFFFFFFFFFF
310
FFFFFFFFFFFFFFFFFFFFFFFFFFFFFFFFF000FFFFFFFFFFFFFFFFFFFFFFFFFFFF
310
FFFFFFFFFFFFFFFFFFFFFFFFFFFFFFFFFFFFFFFFFFFFFFFFFFFFFFFFFFFFFFFF
310
FFFFFFFFFFFFFFFFFFFFFFFFFFFFFFFFFFFFFFFFFFFFFFFFFFFFFFFFFFFFFFFF
310
FFFFFFFFFFFFFFFFF000FFFFFFFFFFFFFFFFFFFFFFFFFFFFFFFFFFFFFFFFFFFF
310
FFFFFFFFFFFFFFFFFFFFFFFFFFFFFFFFFFFFFFFFFFFFFFFFFFFFFFFFFFFFFFFF
310
FFFFFFFFFFFFFFFFFFFFFFFFFFFFFFFFFFFFFFFFFFFFFFFFFFFFFFFFFFFFFFFF
310
F000FFFFFFFFFFFFFFFFFFFFFFFFFFFFFFFFFFFFFFFFFFFFFFFFFFFFFFFFFFFF
310
FFFFFFFFFFFFFFFFFFFFFFFFFFFFFFFFFFFFFFFFFFFFFFFFFFFFFFFFFFFFFFFF
310
FFFFFFFFFFFFFFFFFFFFFFFFFFFFFFFFFFFFFFFFFFFFFFFFF000FFFFFFFFFFFF
310
FFFFFFFFFFFFFFFFFFFFFFFFFFFFFFFFFFFFFFFFFFFFFFFFFFFFFFFFFFFFFFFF
310
FFFFFFFFFFFFFFFFFFFFFFFFFFFFFFFFFFFFFFFFFFFFFFFFFFFFFFFFFFFFFFFF
310
FFFFFFFFFFFFFFFFFFFFFFFFFFFFFFFFF000FFFFFFFFFFFFFFFFFFFFFFFFFFFF
310
FFFFFFFFFFFFFFFFFFFFFFFFFFFFFFFFFFFFFFFFFFFFFFFFFFFFFFFFFFFFFFFF
310
FFFFFFFFFFFFFFFFFFFFFFFFFFFFFFFFFFFFFFFFFFFFFFFFFFFFFFFFFFFFFFFF
310
FFFFFFFFFFFFFFFFF000FFFFFFFFFFFFFFFFFFFFFFFFFFFFFFFFFFFFFFFFFFFF
310
FFFFFFFFFFFFFFFFFFFFFFFFFFFFFFFFFFFFFFFFFFFFFFFFFFFFFFFFFFFFFFFF
310
FFFFFFFFFFFFFFFFFFFFFFFFFFFFFFFFFFFFFFFFFFFFFFFFFFFFFFFFFFFFFFFF
310
F000FFFFFFFFFFFFFFFFFFFFFFFFFFFFFFFFFFFFFFFFFFFFFFFFFFFFFFFFFFFF
310
FFFFFFFFFFFFFFFFFFFFFFFFFFFFFFFFFFFFFFFFFFFFFFFFFFFFFFFFFFFFFFFF
310
FFFFFFFFFFFFFFFFFFFFFFFFFFFFFFFFFFFFFFFFFFFFFFFFF000FFFFFFFFFFFF
310
FFFFFFFFFFFFFFFFFFFFFFFFFFFFFFFFFFFFFFFFFFFFFFFFFFFFFFFFFFFFFFFF
310
FFFFFFFFFFFFFFFFFFFFFFFFFFFFFFFFFFFFFFFFFFFFFFFFFFFFFFFFFFFFFFFF
310
FFFFFFFFFFFFFFFFFFFFFFFFFFFFFFFFF000FFFFFFFFFFFFFFFFFFFFFFFFFFFF
310
FFFFFFFFFFFFFFFFFFFFFFFFFFFFFFFFFFFFFFFFFFFFFFFFFFFFFFFFFFFFFFFF
310
FFFFFFFFFFFFFFFFFFFFFFFFFFFFFFFFFFFFFFFFFFFFFFFFFFFFFFFFFFFFFFFF
310
FFFFFFFFFFFFFFFFF000FFFFFFFFFFFFFFFFFFFFFFFFFFFFFFFFFFFFFFFFFFFF
310
FFFFFFFFFFFFFFFFFFFFFFFFFFFFFFFFFFFFFFFFFFFFFFFFFFFFFFFFFFFFFFFF
310
FFFFFFFFFFFFFFFFFFFFFFFFFFFFFFFFFFFFFFFFFFFFFFFFFFFFFFFFFFFFFFFF
310
F000FFFFFFFFFFFFFFFFFFFFFFFFFFFFFFFFFFFFFFFFFFFFFFFFFFFFFFFFFFFF
310
FFFFFFFFFFFFFFFFFFFFFFFFFFFFFFFFFFFFFFFFFFFFFFFFFFFFFFFFFFFFFFFF
310
FFFFFFFFFFFFFFFFFFFFFFFFFFFFFFFFFFFFFFFFFFFFFFFFF000FFFFFFFFFFFF
310
FFFFFFFFFFFFFFFFFFFFFFFFFFFFFFFFFFFFFFFFFFFFFFFFFFFFFFFFFFFFFFFF
310
FFFFFFFFFFFFFFFFFFFFFFFFFFFFFFFFFFFFFFFFFFFFFFFFFFFFFFFFFFFFFFFF
310
FFFFFFFFFFFFFFFFFFFFFFFFFFFFFFFFF000FFFFFFFFFFFFFFFFFFFFFFFFFFFF
310
FFFFFFFFFFFFFFFFFFFFFFFFFFFFFFFFFFFFFFFFFFFFFFFFFFFFFFFFFFFFFFFF
310
FFFFFFFFFFFFFFFFFFFFFFFFFFFFFFFFFFFFFFFFFFFFFFFFFFFFFFFFFFFFFFFF
310
FFFFFFFFFFFFFFFFF000FFFFFFFFFFFFFFFFFFFFFFFFFFFFFFFFFFFFFFFFFFFF
310
FFFFFFFFFFFFFFFFFFFFFFFFFFFFFFFFFFFFFFFFFFFFFFFFFFFFFFFFFFFFFFFF
310
FFFFFFFFFFFFFFFFFFFFFFFFFFFFFFFFFFFFFFFFFFFFFFFFFFFFFFFFFFFFFFFF
310
F000FFFFFFFFFFFFFFFFFFFFFFFFFFFFFFFFFFFFFFFFFFFFFFFFFFFFFFFFFFFF
310
FFFFFFFFFFFFFFFFFFFFFFFFFFFFFFFFFFFFFFFFFFFFFFFFFFFFFFFFFFFFFFFF
310
FFFFFFFFFFFFFFFFFFFFFFFFFFFFFFFFFFFFFFFFFFFFFFFFF000FFFFFFFFFFFF
310
FFFFFFFFFFFFFFFFFFFFFFFFFFFFFFFFFFFFFFFFFFFFFFFFFFFFFFFFFFFFFFFF
310
FFFFFFFFFFFFFFFFFFFFFFFFFFFFFFFFFFFFFFFFFFFFFFFFFFFFFFFFFFFFFFFF
310
FFFFFFFFFFFFFFFFFFFFFFFFFFFFFFFFF0000000000000000000000000000000
310
0000000000000000000000000000000000000000000000000000000000000000
310
0000000000000000000000000000000000000000000000000000000000000000
310
0000000000000000000000000000000000000000000000000000000000000000
310
0000000000000000000000000000000000000000000000000000000000000000
310
0000000000000000000000000000000000000000000000000000000000000000
310
0000000000000000000000000000000000000000000000000000000000000000
310
0000000000000000000000000000000000000000000000000000000000000000
310
0000000000000000000000000000000000000000000000000000000000000000
310
0000000000000000000000000000000000000000000000000000000000000000
310
0000000000000000000000000000000000000000000000000000000000000000
310
0000000000000000000000000000000000000000000000000000000000000000
310
0000000000000000000000000000000000000000000000000000000000000000
310
0000000000000000000000000000000000000000000000000000000000000000
310
0000000000000000000000000000000000000000000000000000000000000000
310
0000000000000000000000000000000000000000000000000000000000000000
  1
OLE
  0
ENDSEC
  0
SECTION
  2
OBJECTS
  0
DICTIONARY
  5
C
330
0
100
AcDbDictionary
281
     1
  3
ACAD_GROUP
350
D
  3
ACAD_LAYOUT
350
1A
  3
ACAD_MLINESTYLE
350
17
  3
ACAD_PLOTSETTINGS
350
19
  3
ACAD_PLOTSTYLENAME
350
E
  0
DICTIONARY
  5
D
102
{ACAD_REACTORS
330
C
102
}
330
C
100
AcDbDictionary
281
     1
  0
DICTIONARY
  5
1A
102
{ACAD_REACTORS
330
C
102
}
330
C
100
AcDbDictionary
281
     1
  3
Layout1
350
1E
  3
Layout2
350
26
  3
Model
350
22
  0
DICTIONARY
  5
17
102
{ACAD_REACTORS
330
C
102
}
330
C
100
AcDbDictionary
281
     1
  3
Standard
350
18
  0
DICTIONARY
  5
19
102
{ACAD_REACTORS
330
C
102
}
330
C
100
AcDbDictionary
281
     1
  0
ACDBDICTIONARYWDFLT
  5
E
102
{ACAD_REACTORS
330
C
102
}
330
C
100
AcDbDictionary
281
     1
  3
Normal
350
F
100
AcDbDictionaryWithDefault
340
F
  0
LAYOUT
  5
1E
102
{ACAD_REACTORS
330
1A
102
}
330
1A
100
AcDbPlotSettings
  1

  2
none_device
  4

  6

 40
0.0
 41
0.0
 42
0.0
 43
0.0
 44
0.0
 45
0.0
 46
0.0
 47
0.0
 48
0.0
 49
0.0
140
0.0
141
0.0
142
1.0
143
1.0
 70
   688
 72
     0
 73
     0
 74
     5
  7

 75
    16
147
1.0
148
0.0
149
0.0
100
AcDbLayout
  1
Layout1
 70
     1
 71
     1
 10
0.0
 20
0.0
 11
420.0
 21
297.0
 12
0.0
 22
0.0
 32
0.0
 14
1.0000000000E+20
 24
1.0000000000E+20
 34
1.0000000000E+20
 15
-1.0000000000E+20
 25
-1.0000000000E+20
 35
-1.0000000000E+20
146
0.0
 13
0.0
 23
0.0
 33
0.0
 16
1.0
 26
0.0
 36
0.0
 17
0.0
 27
1.0
 37
0.0
 76
     0
330
1B
  0
LAYOUT
  5
26
102
{ACAD_REACTORS
330
1A
102
}
330
1A
100
AcDbPlotSettings
  1

  2
none_device
  4

  6

 40
0.0
 41
0.0
 42
0.0
 43
0.0
 44
0.0
 45
0.0
 46
0.0
 47
0.0
 48
0.0
 49
0.0
140
0.0
141
0.0
142
1.0
143
1.0
 70
   688
 72
     0
 73
     0
 74
     5
  7

 75
    16
147
1.0
148
0.0
149
0.0
100
AcDbLayout
  1
Layout2
 70
     1
 71
     2
 10
0.0
 20
0.0
 11
0.0
 21
0.0
 12
0.0
 22
0.0
 32
0.0
 14
0.0
 24
0.0
 34
0.0
 15
0.0
 25
0.0
 35
0.0
146
0.0
 13
0.0
 23
0.0
 33
0.0
 16
1.0
 26
0.0
 36
0.0
 17
0.0
 27
1.0
 37
0.0
 76
     0
330
23
  0
LAYOUT
  5
22
102
{ACAD_REACTORS
330
1A
102
}
330
1A
100
AcDbPlotSettings
  1

  2
none_device
  4

  6

 40
0.0
 41
0.0
 42
0.0
 43
0.0
 44
0.0
 45
0.0
 46
0.0
 47
0.0
 48
0.0
 49
0.0
140
0.0
141
0.0
142
1.0
143
1.0
 70
  1712
 72
     0
 73
     0
 74
     0
  7

 75
     0
147
1.0
148
0.0
149
0.0
100
AcDbLayout
  1
Model
 70
     1
 71
     0
 10
0.0
 20
0.0
 11
297.0
 21
210.0
 12
0.0
 22
0.0
 32
0.0
 14
0.0
 24
0.0
 34
0.0
 15
297.0
 25
210.0
 35
0.0
146
0.0
 13
0.0
 23
0.0
 33
0.0
 16
1.0
 26
0.0
 36
0.0
 17
0.0
 27
1.0
 37
0.0
 76
     0
330
1F
331
29
  0
MLINESTYLE
  5
18
102
{ACAD_REACTORS
330
17
102
}
330
17
100
AcDbMlineStyle
  2
Standard
 70
     0
  3

 62
   256
 51
90.0
 52
90.0
 71
     2
 49
0.5
 62
   256
  6
BYLAYER
 49
-0.5
 62
   256
  6
BYLAYER
  0
ACDBPLACEHOLDER
  5
F
102
{ACAD_REACTORS
330
E
102
}
330
E
  0
ENDSEC
  0
EOF
