  0
SECTION
  2
HEADER
  9
$ACADVER
  1
AC1015
  9
$ACADMAINTVER
 70
     6
  9
$DWGCODEPAGE
  3
ANSI_1252
  9
$INSBASE
 10
0.0
 20
0.0
 30
0.0
  9
$EXTMIN
 10
0.0
 20
0.0
 30
0.0
  9
$EXTMAX
 10
297.0
 20
210.0
 30
0.0
  9
$LIMMIN
 10
0.0
 20
0.0
  9
$LIMMAX
 10
297.0
 20
210.0
  9
$ORTHOMODE
 70
     0
  9
$REGENMODE
 70
     1
  9
$FILLMODE
 70
     1
  9
$QTEXTMODE
 70
     0
  9
$MIRRTEXT
 70
     1
  9
$LTSCALE
 40
1.0
  9
$ATTMODE
 70
     1
  9
$TEXTSIZE
 40
2.0
  9
$TRACEWID
 40
1.0
  9
$TEXTSTYLE
  7
Standard
  9
$CLAYER
  8
0
  9
$CELTYPE
  6
ByLayer
  9
$CECOLOR
 62
   256
  9
$CELTSCALE
 40
1.0
  9
$DISPSILH
 70
     0
  9
$DIMSCALE
 40
1.0
  9
$DIMASZ
 40
3.0
  9
$DIMEXO
 40
0.0
  9
$DIMDLI
 40
3.75
  9
$DIMRND
 40
0.0
  9
$DIMDLE
 40
0.0
  9
$DIMEXE
 40
1.0
  9
$DIMTP
 40
0.0
  9
$DIMTM
 40
0.0
  9
$DIMTXT
 40
2.0
  9
$DIMCEN
 40
2.5
  9
$DIMTSZ
 40
0.0
  9
$DIMTOL
 70
     0
  9
$DIMLIM
 70
     0
  9
$DIMTIH
 70
     1
  9
$DIMTOH
 70
     1
  9
$DIMSE1
 70
     0
  9
$DIMSE2
 70
     0
  9
$DIMTAD
 70
     1
  9
$DIMZIN
 70
     0
  9
$DIMBLK
  1

  9
$DIMASO
 70
     1
  9
$DIMSHO
 70
     1
  9
$DIMPOST
  1

  9
$DIMAPOST
  1

  9
$DIMALT
 70
     0
  9
$DIMALTD
 70
     3
  9
$DIMALTF
 40
0.0393700787
  9
$DIMLFAC
 40
1.0
  9
$DIMTOFL
 70
     1
  9
$DIMTVP
 40
0.0
  9
$DIMTIX
 70
     0
  9
$DIMSOXD
 70
     0
  9
$DIMSAH
 70
     0
  9
$DIMBLK1
  1

  9
$DIMBLK2
  1

  9
$DIMSTYLE
  2
ISO-25
  9
$DIMCLRD
 70
     0
  9
$DIMCLRE
 70
     0
  9
$DIMCLRT
 70
     0
  9
$DIMTFAC
 40
1.0
  9
$DIMGAP
 40
1.524
  9
$DIMJUST
 70
     0
  9
$DIMSD1
 70
     0
  9
$DIMSD2
 70
     0
  9
$DIMTOLJ
 70
     0
  9
$DIMTZIN
 70
     0
  9
$DIMALTZ
 70
     0
  9
$DIMALTTZ
 70
     0
  9
$DIMUPT
 70
     0
  9
$DIMDEC
 70
     2
  9
$DIMTDEC
 70
     3
  9
$DIMALTU
 70
     2
  9
$DIMALTTD
 70
     3
  9
$DIMTXSTY
  7
Standard
  9
$DIMAUNIT
 70
     0
  9
$DIMADEC
 70
     2
  9
$DIMALTRND
 40
0.0
  9
$DIMAZIN
 70
     0
  9
$DIMDSEP
 70
    44
  9
$DIMATFIT
 70
     3
  9
$DIMFRAC
 70
     0
  9
$DIMLDRBLK
  1

  9
$DIMLUNIT
 70
     2
  9
$DIMLWD
 70
    -2
  9
$DIMLWE
 70
    -2
  9
$DIMTMOVE
 70
     0
  9
$LUNITS
 70
     2
  9
$LUPREC
 70
     2
  9
$SKETCHINC
 40
1.0
  9
$FILLETRAD
 40
10.0
  9
$AUNITS
 70
     0
  9
$AUPREC
 70
     2
  9
$MENU
  1
.
  9
$ELEVATION
 40
0.0
  9
$PELEVATION
 40
0.0
  9
$THICKNESS
 40
0.0
  9
$LIMCHECK
 70
     0
  9
$CHAMFERA
 40
10.0
  9
$CHAMFERB
 40
10.0
  9
$CHAMFERC
 40
20.0
  9
$CHAMFERD
 40
0.0
  9
$SKPOLY
 70
     0
  9
$TDCREATE
 40
2455581.441835903
  9
$TDUCREATE
 40
2455581.400169236
  9
$TDUPDATE
 40
2455581.441835914
  9
$TDUUPDATE
 40
2455581.400169248
  9
$TDINDWG
 40
0.0000000116
  9
$TDUSRTIMER
 40
0.0000000116
  9
$USRTIMER
 70
     1
  9
$ANGBASE
 50
0.0
  9
$ANGDIR
 70
     0
  9
$PDMODE
 70
     0
  9
$PDSIZE
 40
-1.0
  9
$PLINEWID
 40
0.0
  9
$SPLFRAME
 70
     0
  9
$SPLINETYPE
 70
     6
  9
$SPLINESEGS
 70
     8
  9
$HANDSEED
  5
32B
  9
$SURFTAB1
 70
     6
  9
$SURFTAB2
 70
     6
  9
$SURFTYPE
 70
     6
  9
$SURFU
 70
     6
  9
$SURFV
 70
     6
  9
$UCSBASE
  2

  9
$UCSNAME
  2

  9
$UCSORG
 10
0.0
 20
0.0
 30
0.0
  9
$UCSXDIR
 10
1.0
 20
0.0
 30
0.0
  9
$UCSYDIR
 10
0.0
 20
1.0
 30
0.0
  9
$UCSORTHOREF
  2

  9
$UCSORTHOVIEW
 70
     0
  9
$UCSORGTOP
 10
0.0
 20
0.0
 30
0.0
  9
$UCSORGBOTTOM
 10
0.0
 20
0.0
 30
0.0
  9
$UCSORGLEFT
 10
0.0
 20
0.0
 30
0.0
  9
$UCSORGRIGHT
 10
0.0
 20
0.0
 30
0.0
  9
$UCSORGFRONT
 10
0.0
 20
0.0
 30
0.0
  9
$UCSORGBACK
 10
0.0
 20
0.0
 30
0.0
  9
$PUCSBASE
  2

  9
$PUCSNAME
  2

  9
$PUCSORG
 10
0.0
 20
0.0
 30
0.0
  9
$PUCSXDIR
 10
1.0
 20
0.0
 30
0.0
  9
$PUCSYDIR
 10
0.0
 20
1.0
 30
0.0
  9
$PUCSORTHOREF
  2

  9
$PUCSORTHOVIEW
 70
     0
  9
$PUCSORGTOP
 10
0.0
 20
0.0
 30
0.0
  9
$PUCSORGBOTTOM
 10
0.0
 20
0.0
 30
0.0
  9
$PUCSORGLEFT
 10
0.0
 20
0.0
 30
0.0
  9
$PUCSORGRIGHT
 10
0.0
 20
0.0
 30
0.0
  9
$PUCSORGFRONT
 10
0.0
 20
0.0
 30
0.0
  9
$PUCSORGBACK
 10
0.0
 20
0.0
 30
0.0
  9
$USERI1
 70
     0
  9
$USERI2
 70
     0
  9
$USERI3
 70
     0
  9
$USERI4
 70
     0
  9
$USERI5
 70
     0
  9
$USERR1
 40
0.0
  9
$USERR2
 40
0.0
  9
$USERR3
 40
0.0
  9
$USERR4
 40
0.0
  9
$USERR5
 40
0.0
  9
$WORLDVIEW
 70
     1
  9
$SHADEDGE
 70
     3
  9
$SHADEDIF
 70
    70
  9
$TILEMODE
 70
     1
  9
$MAXACTVP
 70
    64
  9
$PINSBASE
 10
0.0
 20
0.0
 30
0.0
  9
$PLIMCHECK
 70
     0
  9
$PEXTMIN
 10
1.0000000000E+20
 20
1.0000000000E+20
 30
1.0000000000E+20
  9
$PEXTMAX
 10
-1.0000000000E+20
 20
-1.0000000000E+20
 30
-1.0000000000E+20
  9
$PLIMMIN
 10
0.0
 20
0.0
  9
$PLIMMAX
 10
420.0
 20
297.0
  9
$UNITMODE
 70
     0
  9
$VISRETAIN
 70
     1
  9
$PLINEGEN
 70
     0
  9
$PSLTSCALE
 70
     1
  9
$TREEDEPTH
 70
  3020
  9
$CMLSTYLE
  2
Standard
  9
$CMLJUST
 70
     0
  9
$CMLSCALE
 40
20.0
  9
$PROXYGRAPHICS
 70
     1
  9
$MEASUREMENT
 70
     1
  9
$CELWEIGHT
370
    -1
  9
$ENDCAPS
280
     0
  9
$JOINSTYLE
280
     0
  9
$LWDISPLAY
290
     1
  9
$INSUNITS
 70
     4
  9
$HYPERLINKBASE
  1

  9
$STYLESHEET
  1

  9
$XEDIT
290
     1
  9
$CEPSNTYPE
380
     0
  9
$PSTYLEMODE
290
     1
  9
$FINGERPRINTGUID
  2
{09090282-8ED4-49D5-8F39-0603F3F75EBC}
  9
$VERSIONGUID
  2
{FAEB1C32-E019-11D5-929B-00C0DF256EC4}
  9
$EXTNAMES
290
     1
  9
$PSVPSCALE
 40
0.0
  9
$OLESTARTUP
290
     0
  0
ENDSEC
  0
SECTION
  2
CLASSES
  0
CLASS
  1
ACDBDICTIONARYWDFLT
  2
AcDbDictionaryWithDefault
  3
ObjectDBX Classes
 90
        0
280
     0
281
     0
  0
CLASS
  1
VISUALSTYLE
  2
AcDbVisualStyle
  3
ObjectDBX Classes
 90
     4095
280
     0
281
     0
  0
CLASS
  1
DICTIONARYVAR
  2
AcDbDictionaryVar
  3
ObjectDBX Classes
 90
        0
280
     0
281
     0
  0
CLASS
  1
ACDBPLACEHOLDER
  2
AcDbPlaceHolder
  3
ObjectDBX Classes
 90
        0
280
     0
281
     0
  0
CLASS
  1
LAYOUT
  2
AcDbLayout
  3
ObjectDBX Classes
 90
        0
280
     0
281
     0
  0
ENDSEC
  0
SECTION
  2
TABLES
  0
TABLE
  2
VPORT
  5
8
330
0
100
AcDbSymbolTable
 70
     1
  0
VPORT
  5
29
330
8
100
AcDbSymbolTableRecord
100
AcDbViewportTableRecord
  2
*Active
 70
     0
 10
0.0
 20
0.0
 11
1.0
 21
1.0
 12
148.5
 22
105.0
 13
0.0
 23
0.0
 14
10.0
 24
10.0
 15
10.0
 25
10.0
 16
0.0
 26
0.0
 36
1.0
 17
0.0
 27
0.0
 37
0.0
 40
210.0
 41
1.4142857143
 42
50.0
 43
0.0
 44
0.0
 50
0.0
 51
0.0
 71
     0
 72
  2000
 73
     1
 74
     3
 75
     0
 76
     0
 77
     0
 78
     0
281
     0
 65
     1
110
0.0
120
0.0
130
0.0
111
1.0
121
0.0
131
0.0
112
0.0
122
1.0
132
0.0
 79
     0
146
0.0
  0
ENDTAB
  0
TABLE
  2
LTYPE
  5
5
330
0
100
AcDbSymbolTable
 70
     6
  0
LTYPE
  5
14
330
5
100
AcDbSymbolTableRecord
100
AcDbLinetypeTableRecord
  2
ByBlock
 70
     0
  3

 72
    65
 73
     0
 40
0.0
  0
LTYPE
  5
15
330
5
100
AcDbSymbolTableRecord
100
AcDbLinetypeTableRecord
  2
ByLayer
 70
     0
  3

 72
    65
 73
     0
 40
0.0
  0
LTYPE
  5
16
330
5
100
AcDbSymbolTableRecord
100
AcDbLinetypeTableRecord
  2
Continuous
 70
     0
  3
Solid line
 72
    65
 73
     0
 40
0.0
  0
LTYPE
  5
3B
330
5
100
AcDbSymbolTableRecord
100
AcDbLinetypeTableRecord
  2
HIDDEN
 70
     0
  3
Hidden __ __ __ __ __ __ __ __ __ __ __ __ __ __
 72
    65
 73
     2
 40
1.905
 49
1.27
 74
     0
 49
-0.635
 74
     0
  0
LTYPE
  5
3C
330
5
100
AcDbSymbolTableRecord
100
AcDbLinetypeTableRecord
  2
PHANTOM
 70
     0
  3
Phantom ______  __  __  ______  __  __  ______
 72
    65
 73
     6
 40
12.7
 49
6.35
 74
     0
 49
-1.27
 74
     0
 49
1.27
 74
     0
 49
-1.27
 74
     0
 49
1.27
 74
     0
 49
-1.27
 74
     0
  0
LTYPE
  5
3D
330
5
100
AcDbSymbolTableRecord
100
AcDbLinetypeTableRecord
  2
CENTER
 70
     0
  3
Center ____ _ ____ _ ____ _ ____ _ ____ _ ____
 72
    65
 73
     4
 40
10.16
 49
6.35
 74
     0
 49
-1.27
 74
     0
 49
1.27
 74
     0
 49
-1.27
 74
     0
  0
LTYPE
  5
3E
330
5
100
AcDbSymbolTableRecord
100
AcDbLinetypeTableRecord
  2
CENTERX2
 70
     0
  3
Center (2x) ________  __  ________  __  _____
 72
    65
 73
     4
 40
20.32
 49
12.7
 74
     0
 49
-2.54
 74
     0
 49
2.54
 74
     0
 49
-2.54
 74
     0
  0
LTYPE
  5
3F
330
5
100
AcDbSymbolTableRecord
100
AcDbLinetypeTableRecord
  2
DOT2
 70
     0
  3
Dot (.5x) ........................................
 72
    65
 73
     2
 40
0.635
 49
0.0
 74
     0
 49
-0.635
 74
     0
  0
ENDTAB
  0
TABLE
  2
LAYER
  5
2
330
0
100
AcDbSymbolTable
 70
     5
  0
LAYER
  5
10
330
2
100
AcDbSymbolTableRecord
100
AcDbLayerTableRecord
  2
0
 70
     0
 62
     7
  6
Continuous
370
    -3
390
F
  0
LAYER
  5
40
330
2
100
AcDbSymbolTableRecord
100
AcDbLayerTableRecord
  2
FORMAT
 70
     0
 62
     7
  6
Continuous
370
    -3
390
F
  0
LAYER
  5
41
330
2
100
AcDbSymbolTableRecord
100
AcDbLayerTableRecord
  2
VERMASSUNG
 70
     0
 62
     7
  6
Continuous
370
    -3
390
F
  0
LAYER
  5
42
330
2
100
AcDbSymbolTableRecord
100
AcDbLayerTableRecord
  2
KOPF_DÜNN
 70
     0
 62
     7
  6
Continuous
370
    -3
390
F
  0
LAYER
  5
43
330
2
100
AcDbSymbolTableRecord
100
AcDbLayerTableRecord
  2
KOPF_DICK
 70
     0
 62
     7
  6
Continuous
370
    15
390
F
  0
ENDTAB
  0
TABLE
  2
STYLE
  5
3
330
0
100
AcDbSymbolTable
 70
     3
  0
STYLE
  5
11
330
3
100
AcDbSymbolTableRecord
100
AcDbTextStyleTableRecord
  2
Standard
 70
     0
 40
0.0
 41
1.0
 50
0.0
 71
     0
 42
2.5
  3
txt
  4

  0
STYLE
  5
44
330
3
100
AcDbSymbolTableRecord
100
AcDbTextStyleTableRecord
  2
SLDTEXTSTYLE0
 70
     0
 40
0.0
 41
0.7
 50
0.0
 71
     0
 42
0.2
  3
TXT
  4

  0
STYLE
  5
48
330
3
100
AcDbSymbolTableRecord
100
AcDbTextStyleTableRecord
  2
SLDTEXTSTYLE1
 70
     0
 40
0.0
 41
0.6526315789
 50
0.0
 71
     0
 42
0.2
  3
TXT
  4

  0
ENDTAB
  0
TABLE
  2
VIEW
  5
6
330
0
100
AcDbSymbolTable
 70
     0
  0
ENDTAB
  0
TABLE
  2
UCS
  5
7
330
0
100
AcDbSymbolTable
 70
     0
  0
ENDTAB
  0
TABLE
  2
APPID
  5
9
330
0
100
AcDbSymbolTable
 70
     1
  0
APPID
  5
12
330
9
100
AcDbSymbolTableRecord
100
AcDbRegAppTableRecord
  2
ACAD
 70
     0
  0
ENDTAB
  0
TABLE
  2
DIMSTYLE
  5
A
330
0
100
AcDbSymbolTable
 70
     4
100
AcDbDimStyleTable
  0
DIMSTYLE
105
27
330
A
100
AcDbSymbolTableRecord
100
AcDbDimStyleTableRecord
  2
ISO-25
 70
     0
 41
2.5
 42
0.625
 43
3.75
 44
1.25
 73
     0
 74
     0
 77
     1
 78
     8
140
2.5
141
2.5
143
0.0393700787
147
0.625
171
     3
172
     1
271
     2
272
     2
274
     3
278
    44
283
     0
284
     8
340
11
  0
DIMSTYLE
105
264
102
{ACAD_REACTORS
330
263
102
}
330
A
100
AcDbSymbolTableRecord
100
AcDbDimStyleTableRecord
  2
SLDDIMSTYLE0
 70
     0
 41
3.0
 44
0.0
 73
     0
 74
     0
 77
     1
 78
    12
140
2.0
147
0.5
173
     1
179
     2
272
     3
284
    12
340
44
  0
DIMSTYLE
105
26F
102
{ACAD_REACTORS
330
26E
330
27B
330
285
330
28F
102
}
330
A
100
AcDbSymbolTableRecord
100
AcDbDimStyleTableRecord
  2
SLDDIMSTYLE1
 70
     0
 41
3.0
 44
0.0
 45
0.000000001
 73
     0
 74
     0
 77
     1
 78
    12
140
2.0
147
0.5
173
     1
271
     2
272
     3
284
    12
340
44
  0
DIMSTYLE
105
30E
102
{ACAD_REACTORS
330
30D
102
}
330
A
100
AcDbSymbolTableRecord
100
AcDbDimStyleTableRecord
  2
SLDDIMSTYLE2
 70
     0
 41
3.0
 44
0.0
 45
0.000000001
 73
     0
 74
     0
 77
     1
 78
    12
140
2.0
147
0.5
173
     1
271
     2
272
     3
284
    12
340
44
  0
ENDTAB
  0
TABLE
  2
BLOCK_RECORD
  5
1
330
0
100
AcDbSymbolTable
 70
     8
  0
BLOCK_RECORD
  5
1F
330
1
100
AcDbSymbolTableRecord
100
AcDbBlockTableRecord
  2
*Model_Space
340
22
  0
BLOCK_RECORD
  5
1B
330
1
100
AcDbSymbolTableRecord
100
AcDbBlockTableRecord
  2
*Paper_Space
340
1E
  0
BLOCK_RECORD
  5
23
330
1
100
AcDbSymbolTableRecord
100
AcDbBlockTableRecord
  2
*Paper_Space0
340
26
  0
BLOCK_RECORD
  5
265
330
1
100
AcDbSymbolTableRecord
100
AcDbBlockTableRecord
  2
*D1
340
0
  0
BLOCK_RECORD
  5
270
330
1
100
AcDbSymbolTableRecord
100
AcDbBlockTableRecord
  2
*D2
340
0
  0
BLOCK_RECORD
  5
27C
330
1
100
AcDbSymbolTableRecord
100
AcDbBlockTableRecord
  2
*D3
340
0
  0
BLOCK_RECORD
  5
286
330
1
100
AcDbSymbolTableRecord
100
AcDbBlockTableRecord
  2
*D4
340
0
  0
BLOCK_RECORD
  5
290
330
1
100
AcDbSymbolTableRecord
100
AcDbBlockTableRecord
  2
*D5
340
0
  0
BLOCK_RECORD
  5
30F
330
1
100
AcDbSymbolTableRecord
100
AcDbBlockTableRecord
  2
*D6
340
0
  0
BLOCK_RECORD
  5
319
330
1
100
AcDbSymbolTableRecord
100
AcDbBlockTableRecord
  2
SW_CENTERMARKSYMBOL_0
340
0
102
{BLKREFS
331
324
102
}
  0
ENDTAB
  0
ENDSEC
  0
SECTION
  2
BLOCKS
  0
BLOCK
  5
20
330
1F
100
AcDbEntity
  8
0
100
AcDbBlockBegin
  2
*Model_Space
 70
     0
 10
0.0
 20
0.0
 30
0.0
  3
*Model_Space
  1

  0
ENDBLK
  5
21
330
1F
100
AcDbEntity
  8
0
100
AcDbBlockEnd
  0
BLOCK
  5
1C
330
1B
100
AcDbEntity
 67
     1
  8
0
100
AcDbBlockBegin
  2
*Paper_Space
 70
     0
 10
0.0
 20
0.0
 30
0.0
  3
*Paper_Space
  1

  0
ENDBLK
  5
1D
330
1B
100
AcDbEntity
 67
     1
  8
0
100
AcDbBlockEnd
  0
BLOCK
  5
24
330
23
100
AcDbEntity
  8
0
100
AcDbBlockBegin
  2
*Paper_Space0
 70
     0
 10
0.0
 20
0.0
 30
0.0
  3
*Paper_Space0
  1

  0
ENDBLK
  5
25
330
23
100
AcDbEntity
  8
0
100
AcDbBlockEnd
  0
BLOCK
  5
266
330
265
100
AcDbEntity
  8
0
100
AcDbBlockBegin
  2
*D1
 70
     1
 10
0.0
 20
0.0
 30
0.0
  3
*D1
  1

  0
ARC
  5
268
330
265
100
AcDbEntity
  8
VERMASSUNG
100
AcDbCircle
 10
260.6917402913
 20
165.0253373568
 30
0.0
 40
47.05404756623598
100
AcDbArc
 50
264.9952138766
 51
270.0
  0
ARC
  5
269
330
265
100
AcDbEntity
  8
VERMASSUNG
100
AcDbCircle
 10
260.6917402913
 20
165.0253373568
 30
0.0
 40
47.05404756623598
100
AcDbArc
 50
257.7028375804
 51
264.9952138766
  0
ARC
  5
26A
330
265
100
AcDbEntity
  8
VERMASSUNG
100
AcDbCircle
 10
260.6917402913
 20
165.0253373568
 30
0.0
 40
47.05404756623599
100
AcDbArc
 50
270.0
 51
277.2923762962
  0
SOLID
  5
26B
330
265
100
AcDbEntity
  8
VERMASSUNG
100
AcDbTrace
 10
256.5867942032
 20
118.150687385
 30
0.0
 11
253.661583066
 21
118.9542045305
 31
0.0
 12
253.5545702128
 22
118.0605892614
 32
0.0
 13
253.5545702128
 23
118.0605892614
 33
0.0
  0
SOLID
  5
26C
330
265
100
AcDbEntity
  8
VERMASSUNG
100
AcDbTrace
 10
260.6917402913
 20
117.9712897906
 30
0.0
 11
263.7045436011
 21
117.6170071119
 31
0.0
 12
263.6758968086
 22
118.5165510859
 32
0.0
 13
263.6758968086
 23
118.5165510859
 33
0.0
  0
MTEXT
  5
26D
330
265
100
AcDbEntity
  8
VERMASSUNG
100
AcDbMText
 10
257.451393566
 20
120.6485845811
 30
0.0
 40
2.0
 41
0.0
 71
     1
 72
     1
  1
5°
  7
SLDTEXTSTYLE0
 11
0.9990463988679623
 21
-0.04366111438060555
 31
0.0
 73
     1
 44
1.0
  0
ENDBLK
  5
267
330
265
100
AcDbEntity
  8
0
100
AcDbBlockEnd
  0
BLOCK
  5
271
330
270
100
AcDbEntity
  8
0
100
AcDbBlockBegin
  2
*D2
 70
     1
 10
0.0
 20
0.0
 30
0.0
  3
*D2
  1

  0
SOLID
  5
273
330
270
100
AcDbEntity
  8
VERMASSUNG
100
AcDbTrace
 10
154.1509489051
 20
140.2071517934
 30
0.0
 11
153.7009489051
 21
137.2071517934
 31
0.0
 12
154.6009489051
 22
137.2071517934
 32
0.0
 13
154.6009489051
 23
137.2071517934
 33
0.0
  0
SOLID
  5
274
330
270
100
AcDbEntity
  8
VERMASSUNG
100
AcDbTrace
 10
154.1509489051
 20
77.2071517934
 30
0.0
 11
154.6009489051
 21
80.2071517934
 31
0.0
 12
153.7009489051
 22
80.2071517934
 32
0.0
 13
153.7009489051
 23
80.2071517934
 33
0.0
  0
LINE
  5
275
330
270
100
AcDbEntity
  8
VERMASSUNG
100
AcDbLine
 10
190.9917402913
 20
140.2071517934
 30
0.0
 11
153.1509489051
 21
140.2071517934
 31
0.0
  0
LINE
  5
276
330
270
100
AcDbEntity
  8
VERMASSUNG
100
AcDbLine
 10
190.9917402913
 20
77.2071517934
 30
0.0
 11
153.1509489051
 21
77.2071517934
 31
0.0
  0
LINE
  5
277
330
270
100
AcDbEntity
  8
VERMASSUNG
100
AcDbLine
 10
154.1509489051
 20
140.2071517934
 30
0.0
 11
154.1509489051
 21
77.2071517934
 31
0.0
  0
MTEXT
  5
278
330
270
100
AcDbEntity
  8
VERMASSUNG
100
AcDbMText
 10
151.3728134161
 20
101.0034342751
 30
0.0
 40
2.0
 41
0.0
 71
     1
 72
     1
  1
HSK A 
  7
SLDTEXTSTYLE0
 11
-7.044195017643634E-15
 21
1.0
 31
0.0
 73
     1
 44
1.0
  0
MTEXT
  5
279
330
270
100
AcDbEntity
  8
VERMASSUNG
100
AcDbMText
 10
151.5728134256
 20
110.003434819
 30
0.0
 40
2.0
 41
0.0
 71
     1
 72
     1
  1
%%c
  7
SLDTEXTSTYLE0
 11
-7.044195017643634E-15
 21
1.0
 31
0.0
 73
     1
 44
1.0
  0
MTEXT
  5
27A
330
270
100
AcDbEntity
  8
VERMASSUNG
100
AcDbMText
 10
151.572813542
 20
113.6124211364
 30
0.0
 40
2.0
 41
0.0
 71
     1
 72
     1
  1
63
  7
SLDTEXTSTYLE0
 11
-7.044195017643634E-15
 21
1.0
 31
0.0
 73
     1
 44
1.0
  0
ENDBLK
  5
272
330
270
100
AcDbEntity
  8
0
100
AcDbBlockEnd
  0
BLOCK
  5
27D
330
27C
100
AcDbEntity
  8
0
100
AcDbBlockBegin
  2
*D3
 70
     1
 10
0.0
 20
0.0
 30
0.0
  3
*D3
  1

  0
SOLID
  5
27F
330
27C
100
AcDbEntity
  8
VERMASSUNG
100
AcDbTrace
 10
190.6917402913
 20
159.7896350365
 30
0.0
 11
193.6917402913
 21
159.3396350365
 31
0.0
 12
193.6917402913
 22
160.2396350365
 32
0.0
 13
193.6917402913
 23
160.2396350365
 33
0.0
  0
SOLID
  5
280
330
27C
100
AcDbEntity
  8
VERMASSUNG
100
AcDbTrace
 10
260.6917402913
 20
159.7896350365
 30
0.0
 11
257.6917402913
 21
160.2396350365
 31
0.0
 12
257.6917402913
 22
159.3396350365
 32
0.0
 13
257.6917402913
 23
159.3396350365
 33
0.0
  0
LINE
  5
281
330
27C
100
AcDbEntity
  8
VERMASSUNG
100
AcDbLine
 10
190.6917402913
 20
139.9071517934
 30
0.0
 11
190.6917402913
 21
160.7896350365
 31
0.0
  0
LINE
  5
282
330
27C
100
AcDbEntity
  8
VERMASSUNG
100
AcDbLine
 10
260.6917402913
 20
153.7071517934
 30
0.0
 11
260.6917402913
 21
160.7896350365
 31
0.0
  0
LINE
  5
283
330
27C
100
AcDbEntity
  8
VERMASSUNG
100
AcDbLine
 10
190.6917402913
 20
159.7896350365
 30
0.0
 11
260.6917402913
 21
159.7896350365
 31
0.0
  0
MTEXT
  5
284
330
27C
100
AcDbEntity
  8
VERMASSUNG
100
AcDbMText
 10
224.2925162037
 20
162.3677703996
 30
0.0
 40
2.0
 41
0.0
 71
     1
 72
     1
  1
70
  7
SLDTEXTSTYLE0
 73
     1
 44
1.0
  0
ENDBLK
  5
27E
330
27C
100
AcDbEntity
  8
0
100
AcDbBlockEnd
  0
BLOCK
  5
287
330
286
100
AcDbEntity
  8
0
100
AcDbBlockBegin
  2
*D4
 70
     1
 10
0.0
 20
0.0
 30
0.0
  3
*D4
  1

  0
SOLID
  5
289
330
286
100
AcDbEntity
  8
VERMASSUNG
100
AcDbTrace
 10
158.7917402913
 20
165.7896350365
 30
0.0
 11
161.7917402913
 21
165.3396350365
 31
0.0
 12
161.7917402913
 22
166.2396350365
 32
0.0
 13
161.7917402913
 23
166.2396350365
 33
0.0
  0
SOLID
  5
28A
330
286
100
AcDbEntity
  8
VERMASSUNG
100
AcDbTrace
 10
260.6917402913
 20
165.7896350365
 30
0.0
 11
257.6917402913
 21
166.2396350365
 31
0.0
 12
257.6917402913
 22
165.3396350365
 32
0.0
 13
257.6917402913
 23
165.3396350365
 33
0.0
  0
LINE
  5
28B
330
286
100
AcDbEntity
  8
VERMASSUNG
100
AcDbLine
 10
158.7917402913
 20
128.3978295399
 30
0.0
 11
158.7917402913
 21
166.7896350365
 31
0.0
  0
LINE
  5
28C
330
286
100
AcDbEntity
  8
VERMASSUNG
100
AcDbLine
 10
260.6917402913
 20
153.7071517934
 30
0.0
 11
260.6917402913
 21
166.7896350365
 31
0.0
  0
LINE
  5
28D
330
286
100
AcDbEntity
  8
VERMASSUNG
100
AcDbLine
 10
158.7917402913
 20
165.7896350365
 30
0.0
 11
260.6917402913
 21
165.7896350365
 31
0.0
  0
MTEXT
  5
28E
330
286
100
AcDbEntity
  8
VERMASSUNG
100
AcDbMText
 10
207.0427979555
 20
168.3677703996
 30
0.0
 40
2.0
 41
0.0
 71
     1
 72
     1
  1
101.9
  7
SLDTEXTSTYLE0
 73
     1
 44
1.0
  0
ENDBLK
  5
288
330
286
100
AcDbEntity
  8
0
100
AcDbBlockEnd
  0
BLOCK
  5
291
330
290
100
AcDbEntity
  8
0
100
AcDbBlockBegin
  2
*D5
 70
     1
 10
0.0
 20
0.0
 30
0.0
  3
*D5
  1

  0
SOLID
  5
293
330
290
100
AcDbEntity
  8
VERMASSUNG
100
AcDbTrace
 10
270.7248978266
 20
153.7071517934
 30
0.0
 11
270.2748978266
 21
150.7071517934
 31
0.0
 12
271.1748978266
 22
150.7071517934
 32
0.0
 13
271.1748978266
 23
150.7071517934
 33
0.0
  0
SOLID
  5
294
330
290
100
AcDbEntity
  8
VERMASSUNG
100
AcDbTrace
 10
270.7248978266
 20
108.7071517934
 30
0.0
 11
271.1748978266
 21
111.7071517934
 31
0.0
 12
270.2748978266
 22
111.7071517934
 32
0.0
 13
270.2748978266
 23
111.7071517934
 33
0.0
  0
LINE
  5
295
330
290
100
AcDbEntity
  8
VERMASSUNG
100
AcDbLine
 10
260.6917402913
 20
153.7071517934
 30
0.0
 11
271.7248978266
 21
153.7071517934
 31
0.0
  0
LINE
  5
296
330
290
100
AcDbEntity
  8
VERMASSUNG
100
AcDbLine
 10
257.342189781
 20
108.7071517934
 30
0.0
 11
271.7248978266
 21
108.7071517934
 31
0.0
  0
LINE
  5
297
330
290
100
AcDbEntity
  8
VERMASSUNG
100
AcDbLine
 10
270.7248978266
 20
153.7071517934
 30
0.0
 11
270.7248978266
 21
108.7071517934
 31
0.0
  0
MTEXT
  5
298
330
290
100
AcDbEntity
  8
VERMASSUNG
100
AcDbMText
 10
268.1467624635
 20
129.7071933992
 30
0.0
 40
2.0
 41
0.0
 71
     1
 72
     1
  1
45
  7
SLDTEXTSTYLE0
 11
-7.044195017643634E-15
 21
1.0
 31
0.0
 73
     1
 44
1.0
  0
ENDBLK
  5
292
330
290
100
AcDbEntity
  8
0
100
AcDbBlockEnd
  0
BLOCK
  5
310
330
30F
100
AcDbEntity
  8
0
100
AcDbBlockBegin
  2
*D6
 70
     1
 10
0.0
 20
0.0
 30
0.0
  3
*D6
  1

  0
SOLID
  5
312
330
30F
100
AcDbEntity
  8
VERMASSUNG
100
AcDbTrace
 10
36.7094890511
 20
73.586703789
 30
0.0
 11
37.1594890511
 21
76.586703789
 31
0.0
 12
36.2594890511
 22
76.586703789
 32
0.0
 13
36.2594890511
 23
76.586703789
 33
0.0
  0
SOLID
  5
313
330
30F
100
AcDbEntity
  8
VERMASSUNG
100
AcDbTrace
 10
36.7094890511
 20
153.586703789
 30
0.0
 11
36.2594890511
 21
150.586703789
 31
0.0
 12
37.1594890511
 22
150.586703789
 32
0.0
 13
37.1594890511
 23
150.586703789
 33
0.0
  0
LINE
  5
314
330
30F
100
AcDbEntity
  8
VERMASSUNG
100
AcDbLine
 10
81.4256934307
 20
73.586703789
 30
0.0
 11
35.7094890511
 21
73.586703789
 31
0.0
  0
LINE
  5
315
330
30F
100
AcDbEntity
  8
VERMASSUNG
100
AcDbLine
 10
81.4256934307
 20
153.586703789
 30
0.0
 11
35.7094890511
 21
153.586703789
 31
0.0
  0
LINE
  5
316
330
30F
100
AcDbEntity
  8
VERMASSUNG
100
AcDbLine
 10
36.7094890511
 20
73.586703789
 30
0.0
 11
36.7094890511
 21
153.586703789
 31
0.0
  0
MTEXT
  5
317
330
30F
100
AcDbEntity
  8
VERMASSUNG
100
AcDbMText
 10
34.1313535716
 20
110.3828614532
 30
0.0
 40
2.0
 41
0.0
 71
     1
 72
     1
  1
%%c
  7
SLDTEXTSTYLE0
 11
6.123233995736766E-17
 21
1.0
 31
0.0
 73
     1
 44
1.0
  0
MTEXT
  5
318
330
30F
100
AcDbEntity
  8
VERMASSUNG
100
AcDbMText
 10
34.131353688
 20
113.9920979495
 30
0.0
 40
2.0
 41
0.0
 71
     1
 72
     1
  1
80
  7
SLDTEXTSTYLE0
 11
6.123233995736766E-17
 21
1.0
 31
0.0
 73
     1
 44
1.0
  0
ENDBLK
  5
311
330
30F
100
AcDbEntity
  8
0
100
AcDbBlockEnd
  0
BLOCK
  5
31A
330
319
100
AcDbEntity
  8
0
100
AcDbBlockBegin
  2
SW_CENTERMARKSYMBOL_0
 70
     0
 10
0.0
 20
0.0
 30
0.0
  3
SW_CENTERMARKSYMBOL_0
  1

  0
LINE
  5
31C
330
319
100
AcDbEntity
  8
VERMASSUNG
 62
     0
100
AcDbLine
 10
0.0
 20
0.0
 30
0.0
 11
0.0
 21
2.5
 31
0.0
  0
LINE
  5
31D
330
319
100
AcDbEntity
  8
VERMASSUNG
 62
     0
100
AcDbLine
 10
0.0
 20
0.0
 30
0.0
 11
-2.5
 21
0.0
 31
0.0
  0
LINE
  5
31E
330
319
100
AcDbEntity
  8
VERMASSUNG
 62
     0
100
AcDbLine
 10
0.0
 20
0.0
 30
0.0
 11
0.0
 21
-2.5
 31
0.0
  0
LINE
  5
31F
330
319
100
AcDbEntity
  8
VERMASSUNG
 62
     0
100
AcDbLine
 10
0.0
 20
0.0
 30
0.0
 11
2.5
 21
0.0
 31
0.0
  0
LINE
  5
320
330
319
100
AcDbEntity
  8
VERMASSUNG
 62
     0
100
AcDbLine
 10
0.0
 20
5.0
 30
0.0
 11
0.0
 21
47.8884686446
 31
0.0
  0
LINE
  5
321
330
319
100
AcDbEntity
  8
VERMASSUNG
 62
     0
100
AcDbLine
 10
-5.0
 20
0.0
 30
0.0
 11
-34.0
 21
0.0
 31
0.0
  0
LINE
  5
322
330
319
100
AcDbEntity
  8
VERMASSUNG
 62
     0
100
AcDbLine
 10
0.0
 20
-5.0
 30
0.0
 11
0.0
 21
-34.0
 31
0.0
  0
LINE
  5
323
330
319
100
AcDbEntity
  8
VERMASSUNG
 62
     0
100
AcDbLine
 10
5.0
 20
0.0
 30
0.0
 11
34.0
 21
0.0
 31
0.0
  0
ENDBLK
  5
31B
330
319
100
AcDbEntity
  8
0
100
AcDbBlockEnd
  0
ENDSEC
  0
SECTION
  2
ENTITIES
  0
MTEXT
  5
45
330
1F
100
AcDbEntity
  8
KOPF_DÜNN
100
AcDbMText
 10
13.8892156294
 20
23.8442973028
 30
0.0
 40
3.0
 41
0.0
 71
     1
 72
     1
  1
HA6.PCD.RLA.070
  7
SLDTEXTSTYLE0
 73
     1
 44
1.0
  0
MTEXT
  5
46
330
1F
100
AcDbEntity
  8
VERMASSUNG
100
AcDbMText
 10
13.9329988022
 20
28.8834360957
 30
0.0
 40
3.0
 41
0.0
 71
     1
 72
     1
  1
Klemmhalter rechts_Turning tool right 95° /80° /95°
  7
SLDTEXTSTYLE0
 73
     1
 44
1.0
  0
MTEXT
  5
47
330
1F
100
AcDbEntity
  8
VERMASSUNG
100
AcDbMText
 10
98.8601118557
 20
13.8365368179
 30
0.0
 40
2.0
 41
0.0
 71
     1
 72
     1
  1
Datum: 19.01.2011
  7
SLDTEXTSTYLE0
 73
     1
 44
1.0
  0
MTEXT
  5
49
330
1F
100
AcDbEntity
  8
VERMASSUNG
100
AcDbMText
 10
13.933048693
 20
18.0482802738
 30
0.0
 40
2.0
 41
0.0
 71
     1
 72
     1
  1
DIN 69893 HSK 63 A ICTM / CN.. 12 04..
  7
SLDTEXTSTYLE1
 73
     1
 44
1.0
  0
MTEXT
  5
4A
330
1F
100
AcDbEntity
  8
VERMASSUNG
100
AcDbMText
 10
13.9808475933
 20
13.9090973692
 30
0.0
 40
2.0
 41
0.0
 71
     1
 72
     1
  1
Gewicht: 1140g
  7
SLDTEXTSTYLE0
 73
     1
 44
1.0
  0
LINE
  5
4B
330
1F
100
AcDbEntity
  8
0
  6
Continuous
 62
     7
370
    15
100
AcDbLine
 10
259.0310583283
 20
140.570725732
 30
0.0
 11
259.5286155511
 21
141.0655560423
 31
0.0
  0
LINE
  5
4C
330
1F
100
AcDbEntity
  8
0
  6
Continuous
 62
     7
370
    15
100
AcDbLine
 10
248.0402151515
 20
152.6770772864
 30
0.0
 11
247.5426579286
 21
152.1822507013
 31
0.0
  0
LINE
  5
4D
330
1F
100
AcDbEntity
  8
0
  6
Continuous
 62
     7
370
    15
100
AcDbLine
 10
254.4799456765
 20
144.3938794066
 30
0.0
 11
254.8820609619
 21
144.6750047137
 31
0.0
  0
LINE
  5
4E
330
1F
100
AcDbEntity
  8
0
  6
Continuous
 62
     7
370
    15
100
AcDbLine
 10
252.2916840781
 20
148.3547011842
 30
0.0
 11
251.3446445037
 21
147.6926053394
 31
0.0
  0
LINE
  5
4F
330
1F
100
AcDbEntity
  8
0
  6
Continuous
 62
     7
370
    15
100
AcDbLine
 10
190.9917403055
 20
77.2071512867
 30
0.0
 11
195.6417402644
 21
77.2071512867
 31
0.0
  0
LINE
  5
50
330
1F
100
AcDbEntity
  8
0
  6
Continuous
 62
     7
370
    15
100
AcDbLine
 10
195.6459447202
 20
140.2071523
 30
0.0
 11
190.9917403055
 21
140.2071523
 31
0.0
  0
ARC
  5
51
330
1F
100
AcDbEntity
  8
0
  6
Continuous
 62
     7
370
    15
100
AcDbCircle
 10
190.9917402913
 20
77.5071517934
 30
0.0
 40
0.3000000000000114
100
AcDbArc
 50
180.0
 51
270.0
  0
ARC
  5
52
330
1F
100
AcDbEntity
  8
0
  6
Continuous
 62
     7
370
    15
100
AcDbCircle
 10
190.9917402913
 20
139.9071517934
 30
0.0
 40
0.3000000000000114
100
AcDbArc
 50
90.0
 51
180.0
  0
ARC
  5
53
330
1F
100
AcDbEntity
  8
0
  6
Continuous
 62
     7
370
    15
100
AcDbCircle
 10
217.6417402913
 20
81.7071517934
 30
0.0
 40
0.9999999999999998
100
AcDbArc
 50
90.0
 51
143.1139143113
  0
ARC
  5
54
330
1F
100
AcDbEntity
  8
0
  6
Continuous
 62
     7
370
    15
100
AcDbCircle
 10
217.6417402913
 20
135.7071517934
 30
0.0
 40
0.999999999999992
100
AcDbArc
 50
216.8996843908
 51
270.0
  0
LINE
  5
55
330
1F
100
AcDbEntity
  8
0
  6
Continuous
 62
     7
370
    15
100
AcDbLine
 10
217.6417401452
 20
82.7071512569
 30
0.0
 11
231.9244118799
 21
82.7071512569
 31
0.0
  0
LINE
  5
56
330
1F
100
AcDbEntity
  8
0
  6
Continuous
 62
     7
370
    15
100
AcDbLine
 10
231.9244118799
 20
134.7071523298
 30
0.0
 11
217.6417401452
 21
134.7071523298
 31
0.0
  0
ARC
  5
57
330
1F
100
AcDbEntity
  8
0
  6
Continuous
 62
     7
370
    15
100
AcDbCircle
 10
190.1917402913
 20
84.1367209317
 30
0.0
 40
0.5999999999999943
100
AcDbArc
 50
33.5573097619
 51
90.0
  0
ARC
  5
58
330
1F
100
AcDbEntity
  8
0
  6
Continuous
 62
     7
370
    15
100
AcDbCircle
 10
190.1917402913
 20
133.2775826551
 30
0.0
 40
0.6000000000000019
100
AcDbArc
 50
270.0
 51
326.4426902381
  0
LINE
  5
59
330
1F
100
AcDbEntity
  8
0
  6
Continuous
 62
     7
370
    15
100
AcDbLine
 10
188.6917401963
 20
84.4867205699
 30
0.0
 11
189.5484531224
 21
84.7162766833
 31
0.0
  0
LINE
  5
5A
330
1F
100
AcDbEntity
  8
0
  6
Continuous
 62
     7
370
    15
100
AcDbLine
 10
189.5484531224
 20
132.6980269034
 30
0.0
 11
188.6917401963
 21
132.9275830169
 31
0.0
  0
LINE
  5
5B
330
1F
100
AcDbEntity
  8
0
  6
Continuous
 62
     7
370
    15
100
AcDbLine
 10
177.4602318574
 20
132.3648816426
 30
0.0
 11
164.8917394151
 21
131.7351976861
 31
0.0
  0
LINE
  5
5C
330
1F
100
AcDbEntity
  8
0
  6
Continuous
 62
     7
370
    15
100
AcDbLine
 10
188.6917401963
 20
132.9275830169
 30
0.0
 11
185.8747387697
 21
132.7864503939
 31
0.0
  0
LINE
  5
5D
330
1F
100
AcDbEntity
  8
0
  6
Continuous
 62
     7
370
    15
100
AcDbLine
 10
185.874794649
 20
84.6278513302
 30
0.0
 11
188.6917401963
 21
84.4867205699
 31
0.0
  0
LINE
  5
5E
330
1F
100
AcDbEntity
  8
0
  6
Continuous
 62
     7
370
    15
100
AcDbLine
 10
168.8917400707
 20
85.4787057717
 30
0.0
 11
177.4606341888
 21
85.0494014551
 31
0.0
  0
ARC
  5
5F
330
1F
100
AcDbEntity
  8
0
  6
Continuous
 62
     7
370
    15
100
AcDbCircle
 10
189.7037444917
 20
84.1367209317
 30
0.0
 40
0.6000000000000008
100
AcDbArc
 50
90.0
 51
105.0
  0
ARC
  5
60
330
1F
100
AcDbEntity
  8
0
  6
Continuous
 62
     7
370
    15
100
AcDbCircle
 10
189.7037444917
 20
133.2775826551
 30
0.0
 40
0.6000000000000282
100
AcDbArc
 50
255.0
 51
270.0
  0
LINE
  5
61
330
1F
100
AcDbEntity
  8
0
  6
Continuous
 62
     7
370
    15
100
AcDbLine
 10
189.7037445261
 20
84.7367210765
 30
0.0
 11
190.1917402675
 21
84.7367210765
 31
0.0
  0
LINE
  5
62
330
1F
100
AcDbEntity
  8
0
  6
Continuous
 62
     7
370
    15
100
AcDbLine
 10
190.1917402675
 20
132.6775825102
 30
0.0
 11
189.7037445261
 21
132.6775825102
 31
0.0
  0
LINE
  5
63
330
1F
100
AcDbEntity
  8
0
  6
Continuous
 62
     7
370
    15
100
AcDbLine
 10
159.9417394419
 20
87.8946515252
 30
0.0
 11
167.4917405863
 21
87.8946515252
 31
0.0
  0
ARC
  5
64
330
1F
100
AcDbEntity
  8
0
  6
Continuous
 62
     7
370
    15
100
AcDbCircle
 10
167.4917402913
 20
86.4946517934
 30
0.0
 40
1.400000000000025
100
AcDbArc
 50
37.6438857999
 51
90.0
  0
ARC
  5
65
330
1F
100
AcDbEntity
  8
0
  6
Continuous
 62
     7
370
    15
100
AcDbCircle
 10
231.9244133033
 20
135.7071517934
 30
0.0
 40
1.000000000000016
100
AcDbArc
 50
270.0
 51
345.0
  0
ARC
  5
66
330
1F
100
AcDbEntity
  8
0
  6
Continuous
 62
     7
370
    15
100
AcDbCircle
 10
231.9244133033
 20
81.7071517934
 30
0.0
 40
1.000000000000023
100
AcDbArc
 50
15.0
 51
90.0
  0
LINE
  5
67
330
1F
100
AcDbEntity
  8
0
  6
Continuous
 62
     7
370
    15
100
AcDbLine
 10
159.9329030533
 20
129.5683155288
 30
0.0
 11
158.8029088844
 21
128.4383194972
 31
0.0
  0
LINE
  5
68
330
1F
100
AcDbEntity
  8
0
  6
Continuous
 62
     7
370
    15
100
AcDbLine
 10
232.9596886803
 20
81.707151093
 30
0.0
 11
234.1280328502
 21
81.707151093
 31
0.0
  0
LINE
  5
69
330
1F
100
AcDbEntity
  8
0
  6
Continuous
 62
     7
370
    15
100
AcDbLine
 10
236.9600767662
 20
150.6368028451
 30
0.0
 11
232.8903386761
 21
135.4483323623
 31
0.0
  0
LINE
  5
6A
330
1F
100
AcDbEntity
  8
0
  6
Continuous
 62
     7
370
    15
100
AcDbLine
 10
232.8903386761
 20
81.9659712244
 30
0.0
 11
232.9596886803
 21
81.707151093
 31
0.0
  0
LINE
  5
6B
330
1F
100
AcDbEntity
  8
0
  6
Continuous
 62
     7
370
    15
100
AcDbLine
 10
158.7936887909
 20
89.0427021761
 30
0.0
 11
159.9417394419
 21
87.8946515252
 31
0.0
  0
ARC
  5
6C
330
1F
100
AcDbEntity
  8
0
  6
Continuous
 62
     7
370
    15
100
AcDbCircle
 10
163.4917402913
 20
130.9771517934
 30
0.0
 40
1.399999999999977
100
AcDbArc
 50
270.0
 51
303.0982988698
  0
LINE
  5
6D
330
1F
100
AcDbEntity
  8
0
  6
Continuous
 62
     7
370
    15
100
AcDbLine
 10
163.4917399307
 20
129.5771519174
 30
0.0
 11
160.0893950482
 21
129.5771519174
 31
0.0
  0
LINE
  5
6E
330
1F
100
AcDbEntity
  8
0
  6
Continuous
 62
     7
370
    15
100
AcDbLine
 10
247.8067512084
 20
151.558029883
 30
0.0
 11
237.0028691758
 21
150.7315071751
 31
0.0
  0
LINE
  5
6F
330
1F
100
AcDbEntity
  8
0
  6
Continuous
 62
     7
370
    15
100
AcDbLine
 10
247.3095665146
 20
140.0366383125
 30
0.0
 11
259.2812190224
 21
140.9524972071
 31
0.0
  0
ARC
  5
70
330
1F
100
AcDbEntity
  8
0
  6
Continuous
 62
     7
370
    15
100
AcDbCircle
 10
247.2798217287
 20
140.4382067229
 30
0.0
 40
0.4026685244445222
100
AcDbArc
 50
175.1372178253
 51
274.2362497447
  0
LINE
  5
71
330
1F
100
AcDbEntity
  8
0
  6
Continuous
 62
     7
370
    15
100
AcDbLine
 10
247.925986575
 20
152.4324859013
 30
0.0
 11
246.8786025812
 21
140.4723408152
 31
0.0
  0
ARC
  5
72
330
1F
100
AcDbEntity
  8
0
  6
Continuous
 62
     7
370
    15
100
AcDbCircle
 10
248.3169869284
 20
152.3987875128
 30
0.0
 40
0.3924498155472206
100
AcDbArc
 50
94.2932046837
 51
175.0741320364
  0
LINE
  5
73
330
1F
100
AcDbEntity
  8
0
  6
Continuous
 62
     7
370
    15
100
AcDbLine
 10
260.2592567374
 20
153.7059950162
 30
0.0
 11
248.2876079549
 21
152.7901361216
 31
0.0
  0
ARC
  5
74
330
1F
100
AcDbEntity
  8
0
  6
Continuous
 62
     7
370
    15
100
AcDbCircle
 10
260.2890053648
 20
153.3044235445
 30
0.0
 40
0.402671861122747
100
AcDbArc
 50
355.1376953745
 51
94.2367626674
  0
LINE
  5
75
330
1F
100
AcDbEntity
  8
0
  6
Continuous
 62
     7
370
    15
100
AcDbLine
 10
259.6428404023
 20
141.3101474275
 30
0.0
 11
260.6902281214
 21
153.2702925135
 31
0.0
  0
ARC
  5
76
330
1F
100
AcDbEntity
  8
0
  6
Continuous
 62
     7
370
    15
100
AcDbCircle
 10
259.2518353983
 20
141.3438505181
 30
0.0
 40
0.3924548527256084
100
AcDbArc
 50
274.2938303394
 51
355.0735063807
  0
ARC
  5
77
330
1F
100
AcDbEntity
  8
0
  6
Continuous
 62
     7
370
    15
100
AcDbCircle
 10
260.2892521517
 20
153.3046724427
 30
0.0
 40
0.3825343776922168
100
AcDbArc
 50
355.1371350757
 51
94.2365404494
  0
LINE
  5
78
330
1F
100
AcDbEntity
  8
0
  6
Continuous
 62
     7
370
    15
100
AcDbLine
 10
260.2609927227
 20
153.6861615707
 30
0.0
 11
248.2893402149
 21
152.7703026761
 31
0.0
  0
ARC
  5
79
330
1F
100
AcDbEntity
  8
0
  6
Continuous
 62
     7
370
    15
100
AcDbCircle
 10
248.3172582201
 20
152.3985110904
 30
0.0
 40
0.3728383003806998
100
AcDbArc
 50
94.2943078987
 51
175.0728445116
  0
LINE
  5
7A
330
1F
100
AcDbEntity
  8
0
  6
Continuous
 62
     7
370
    15
100
AcDbLine
 10
247.9457976688
 20
152.4305338491
 30
0.0
 11
246.8984174003
 21
140.4703887631
 31
0.0
  0
ARC
  5
7B
330
1F
100
AcDbEntity
  8
0
  6
Continuous
 62
     7
370
    15
100
AcDbCircle
 10
247.2795783366
 20
140.4379643588
 30
0.0
 40
0.3825375816179476
100
AcDbArc
 50
175.1376979255
 51
274.2359775996
  0
LINE
  5
7C
330
1F
100
AcDbEntity
  8
0
  6
Continuous
 62
     7
370
    15
100
AcDbLine
 10
247.3078342546
 20
140.056471758
 30
0.0
 11
259.2794830371
 21
140.9723306526
 31
0.0
  0
ARC
  5
7D
330
1F
100
AcDbEntity
  8
0
  6
Continuous
 62
     7
370
    15
100
AcDbCircle
 10
259.2515623758
 20
141.3441289967
 30
0.0
 40
0.3728452386887142
100
AcDbArc
 50
274.2946371485
 51
355.0718940018
  0
LINE
  5
7E
330
1F
100
AcDbEntity
  8
0
  6
Continuous
 62
     7
370
    15
100
AcDbLine
 10
259.6230293085
 20
141.3120994796
 30
0.0
 11
260.670409577
 21
153.2722445656
 31
0.0
  0
LINE
  5
7F
330
1F
100
AcDbEntity
  8
0
  6
Continuous
 62
     7
370
    15
100
AcDbLine
 10
246.3810453583
 20
139.9775105049
 30
0.0
 11
246.3795775939
 21
139.9367055376
 31
0.0
  0
LINE
  5
80
330
1F
100
AcDbEntity
  8
0
  6
Continuous
 62
     7
370
    15
100
AcDbLine
 10
247.2519623507
 20
140.4105084468
 30
0.0
 11
247.3078342546
 21
140.056471758
 31
0.0
  0
LINE
  5
81
330
1F
100
AcDbEntity
  8
0
  6
Continuous
 62
     7
370
    15
100
AcDbLine
 10
247.2519623507
 20
140.4105084468
 30
0.0
 11
246.8984174003
 21
140.4703887631
 31
0.0
  0
LINE
  5
82
330
1F
100
AcDbEntity
  8
0
  6
Continuous
 62
     7
370
    15
100
AcDbLine
 10
259.2236185838
 20
141.3263673414
 30
0.0
 11
259.2794830371
 21
140.9723306526
 31
0.0
  0
LINE
  5
83
330
1F
100
AcDbEntity
  8
0
  6
Continuous
 62
     7
370
    15
100
AcDbLine
 10
248.1155144443
 20
141.2642928292
 30
0.0
 11
247.2519623507
 21
140.4105084468
 31
0.0
  0
LINE
  5
84
330
1F
100
AcDbEntity
  8
0
  6
Continuous
 62
     7
370
    15
100
AcDbLine
 10
258.6155543496
 20
141.8658825089
 30
0.0
 11
259.2236185838
 21
141.3263673414
 31
0.0
  0
LINE
  5
85
330
1F
100
AcDbEntity
  8
0
  6
Continuous
 62
     7
370
    15
100
AcDbLine
 10
258.5386345555
 20
140.4389249612
 30
0.0
 11
258.7836617996
 21
140.4576668967
 31
0.0
  0
LINE
  5
86
330
1F
100
AcDbEntity
  8
0
  6
Continuous
 62
     7
370
    15
100
AcDbLine
 10
247.4284293522
 20
151.9376555909
 30
0.0
 11
247.3924095203
 21
151.5263313879
 31
0.0
  0
LINE
  5
87
330
1F
100
AcDbEntity
  8
0
  6
Continuous
 62
     7
370
    15
100
AcDbLine
 10
246.7533992995
 20
144.2294339169
 30
0.0
 11
246.3810453583
 21
139.9775105049
 31
0.0
  0
LINE
  5
88
330
1F
100
AcDbEntity
  8
0
  6
Continuous
 62
     7
370
    15
100
AcDbLine
 10
248.2993463446
 20
152.3706535329
 30
0.0
 11
247.9457976688
 21
152.4305338491
 31
0.0
  0
LINE
  5
89
330
1F
100
AcDbEntity
  8
0
  6
Continuous
 62
     7
370
    15
100
AcDbLine
 10
248.8323906828
 20
151.7565319766
 30
0.0
 11
248.2993463446
 21
152.3706535329
 31
0.0
  0
ARC
  5
8A
330
1F
100
AcDbEntity
  8
0
  6
Continuous
 62
     7
370
    15
100
AcDbCircle
 10
250.1535895318
 20
143.2804376906
 30
0.0
 40
1.006677874007176
100
AcDbArc
 50
175.1378383597
 51
274.2362213432
  0
SPLINE
  5
8B
330
1F
100
AcDbEntity
  8
0
  6
Continuous
 62
     7
370
    15
100
AcDbSpline
210
0.0
220
0.0
230
1.0
 70
     8
 71
     3
 72
    11
 73
     7
 74
     0
 42
0.00000001
 43
0.00000001
 40
0.0
 40
0.0
 40
0.0
 40
0.0
 40
0.3367810783264394
 40
0.6790113642579209
 40
0.9923720374520052
 40
0.9999999999999999
 40
0.9999999999999999
 40
0.9999999999999999
 40
0.9999999999999999
 10
248.1155144442551
 20
141.2642928291723
 30
0.0
 10
248.1685784998325
 20
141.3167618449097
 30
0.0
 10
248.275565201549
 20
141.4225488390429
 30
0.0
 10
248.447886736888
 20
141.5930105394306
 30
0.0
 10
248.5577663935894
 20
141.7016962399955
 30
0.0
 10
248.6084329120955
 20
141.7518406596695
 30
0.0
 10
248.6096369494431
 20
141.7530322898791
 30
0.0
  0
LINE
  5
8C
330
1F
100
AcDbEntity
  8
0
  6
Continuous
 62
     7
370
    15
100
AcDbLine
 10
250.2279514839
 20
142.2765100826
 30
0.0
 11
256.9280499984
 21
142.7890839507
 31
0.0
  0
LINE
  5
8D
330
1F
100
AcDbEntity
  8
0
  6
Continuous
 62
     7
370
    15
100
AcDbLine
 10
249.7367160787
 20
150.0594238271
 30
0.0
 11
249.1505341996
 21
143.3657626141
 31
0.0
  0
ARC
  5
8E
330
1F
100
AcDbEntity
  8
0
  6
Continuous
 62
     7
370
    15
100
AcDbCircle
 10
250.714232852
 20
149.9751611775
 30
0.0
 40
0.9811418022844983
100
AcDbArc
 50
94.2936232181
 51
175.0732413408
  0
LINE
  5
8F
330
1F
100
AcDbEntity
  8
0
  6
Continuous
 62
     7
370
    15
100
AcDbLine
 10
257.3408792187
 20
151.4661232461
 30
0.0
 11
250.6407769789
 21
150.9535493781
 31
0.0
  0
ARC
  5
90
330
1F
100
AcDbEntity
  8
0
  6
Continuous
 62
     7
370
    15
100
AcDbCircle
 10
257.4152390755
 20
150.4621969961
 30
0.0
 40
1.006676364936361
100
AcDbArc
 50
355.1377534821
 51
94.2361081257
  0
LINE
  5
91
330
1F
100
AcDbEntity
  8
0
  6
Continuous
 62
     7
370
    15
100
AcDbLine
 10
257.8321108986
 20
143.6832095016
 30
0.0
 11
258.4182927777
 21
150.3768707146
 31
0.0
  0
ARC
  5
92
330
1F
100
AcDbEntity
  8
0
  6
Continuous
 62
     7
370
    15
100
AcDbCircle
 10
256.8545987244
 20
143.767467501
 30
0.0
 40
0.981136820811928
100
AcDbArc
 50
274.2933757275
 51
355.0734888313
  0
CIRCLE
  5
93
330
1F
100
AcDbEntity
  8
0
  6
Continuous
 62
     7
370
    15
100
AcDbCircle
 10
253.7879852107
 20
146.844429789
 30
0.0
 40
2.562416291364027
  0
LWPOLYLINE
  5
94
330
1F
100
AcDbEntity
  8
0
  6
Continuous
 62
     7
370
    15
100
AcDbPolyline
 90
        3
 70
   128
 43
0.0
 10
255.8429623415
 20
146.1247759391
 10
255.8222050239
 20
146.7432151069
 10
255.7306224872
 20
147.1317442585
  0
ARC
  5
95
330
1F
100
AcDbEntity
  8
0
  6
Continuous
 62
     7
370
    15
100
AcDbCircle
 10
253.2661552811
 20
146.3634500526
 30
0.0
 40
2.57752713667568
100
AcDbArc
 50
32.5757317338
 51
126.4829972213
  0
ARC
  5
96
330
1F
100
AcDbEntity
  8
0
  6
Continuous
 62
     7
370
    15
100
AcDbCircle
 10
253.3155734921
 20
146.3438714473
 30
0.0
 40
2.536867603481111
100
AcDbArc
 50
322.8525905676
 51
355.0455017946
  0
LINE
  5
97
330
1F
100
AcDbEntity
  8
0
  6
Continuous
 62
     7
370
    15
100
AcDbLine
 10
260.2709988524
 20
153.2865124275
 30
0.0
 11
260.670409577
 21
153.2722445656
 31
0.0
  0
LINE
  5
98
330
1F
100
AcDbEntity
  8
0
  6
Continuous
 62
     7
370
    15
100
AcDbLine
 10
259.2236185838
 20
141.3263673414
 30
0.0
 11
259.6230293085
 21
141.3120994796
 31
0.0
  0
LINE
  5
99
330
1F
100
AcDbEntity
  8
0
  6
Continuous
 62
     7
370
    15
100
AcDbLine
 10
259.3066180517
 20
152.3324469556
 30
0.0
 11
260.2709988524
 21
153.2865124275
 31
0.0
  0
LINE
  5
9A
330
1F
100
AcDbEntity
  8
0
  6
Continuous
 62
     7
370
    15
100
AcDbLine
 10
248.2993463446
 20
152.3706535329
 30
0.0
 11
248.2893402149
 21
152.7703026761
 31
0.0
  0
LINE
  5
9B
330
1F
100
AcDbEntity
  8
0
  6
Continuous
 62
     7
370
    15
100
AcDbLine
 10
260.2709988524
 20
153.2865124275
 30
0.0
 11
260.2609927227
 21
153.6861615707
 31
0.0
  0
SPLINE
  5
9C
330
1F
100
AcDbEntity
  8
0
  6
Continuous
 62
     7
370
    15
100
AcDbSpline
210
0.0
220
0.0
230
1.0
 70
     8
 71
     3
 72
    11
 73
     7
 74
     0
 42
0.00000001
 43
0.00000001
 40
0.0
 40
0.0
 40
0.0
 40
0.0
 40
0.0081200113405484
 40
0.3263665332388998
 40
0.662766153008208
 40
0.9999999999999999
 40
0.9999999999999999
 40
0.9999999999999999
 40
0.9999999999999999
 10
258.1328088809483
 20
142.3644083072111
 30
0.0
 10
258.1338956558178
 20
142.36310880846
 30
0.0
 10
258.1775762532559
 20
142.310878228406
 30
0.0
 10
258.2762194641369
 20
142.1986350665659
 30
0.0
 10
258.4440228901122
 20
142.0235410799591
 30
0.0
 10
258.5583300104608
 20
141.918478735625
 30
0.0
 10
258.6155543495648
 20
141.8658825088904
 30
0.0
  0
SPLINE
  5
9D
330
1F
100
AcDbEntity
  8
0
  6
Continuous
 62
     7
370
    15
100
AcDbSpline
210
0.0
220
0.0
230
1.0
 70
     8
 71
     3
 72
    11
 73
     7
 74
     0
 42
0.00000001
 43
0.00000001
 40
0.0
 40
0.0
 40
0.0
 40
0.0
 40
0.3372303744821493
 40
0.6736327740233286
 40
0.9918824810680633
 40
1.0
 40
1.0
 40
1.0
 40
1.0
 10
248.8323906828396
 20
151.756531976597
 30
0.0
 10
248.8843703415954
 20
151.6987205445614
 30
0.0
 10
248.9882020375814
 20
151.5832396203052
 30
0.0
 10
249.1614527098552
 20
151.413571329452
 30
0.0
 10
249.2725465837609
 20
151.3136877492126
 30
0.0
 10
249.3242947666847
 20
151.2694951856984
 30
0.0
 10
249.325581865453
 20
151.2683960129187
 30
0.0
  0
ARC
  5
9E
330
1F
100
AcDbEntity
  8
0
  6
Continuous
 62
     7
370
    15
100
AcDbCircle
 10
258.7536804724
 20
140.8504796079
 30
0.0
 40
0.3939552081866391
100
AcDbArc
 50
274.3646231573
 51
314.7556500831
  0
ARC
  5
9F
330
1F
100
AcDbEntity
  8
0
  6
Continuous
 62
     7
370
    15
100
AcDbCircle
 10
247.8200446807
 20
151.9037375228
 30
0.0
 40
0.3930814175962664
100
AcDbArc
 50
134.883901055
 51
175.0499266772
  0
SPLINE
  5
A0
330
1F
100
AcDbEntity
  8
0
  6
Continuous
 62
     7
370
    15
100
AcDbSpline
210
0.0
220
0.0
230
1.0
 70
     8
 71
     3
 72
    11
 73
     7
 74
     0
 42
0.00000001
 43
0.00000001
 40
0.0
 40
0.0
 40
0.0
 40
0.0
 40
0.0076307985121128
 40
0.3209834942514422
 40
0.6632190463271843
 40
1.0
 40
1.0
 40
1.0
 40
1.0
 10
258.8282460738652
 20
151.8593723405764
 30
0.0
 10
258.8292610259489
 20
151.8603761310953
 30
0.0
 10
258.8719541813003
 20
151.9025997840644
 30
0.0
 10
258.9690555535057
 20
151.9985741595451
 30
0.0
 10
259.1337700958842
 20
152.1614636250521
 30
0.0
 10
259.2493114509799
 20
152.2757585591043
 30
0.0
 10
259.3066180516713
 20
152.3324469555781
 30
0.0
  0
LINE
  5
A1
330
1F
100
AcDbEntity
  8
0
  6
Continuous
 62
     7
370
    15
100
AcDbLine
 10
251.3525570203
 20
147.4883104195
 30
0.0
 11
251.6911486556
 21
147.7250265409
 31
0.0
  0
LINE
  5
A2
330
1F
100
AcDbEntity
  8
0
  6
Continuous
 62
     7
370
    15
100
AcDbLine
 10
251.6911486556
 20
147.7250265409
 30
0.0
 11
251.3705986012
 21
146.8464950551
 31
0.0
  0
LINE
  5
A3
330
1F
100
AcDbEntity
  8
0
  6
Continuous
 62
     7
370
    15
100
AcDbLine
 10
251.3705986012
 20
146.8464950551
 30
0.0
 11
251.223289447
 21
146.7435094048
 31
0.0
  0
ELLIPSE
  5
A4
330
1F
100
AcDbEntity
  8
0
  6
Continuous
 62
     7
370
    15
100
AcDbEllipse
 10
253.5868726086
 20
146.5148518139
 30
0.0
 11
-1.548637656915105
 21
1.632998461080319
 31
0.0
210
0.0
220
0.0
230
1.0
 40
0.9888704261
 41
3.810398422436745
 42
6.529569315308159
  0
ELLIPSE
  5
A5
330
1F
100
AcDbEntity
  8
0
  6
Continuous
 62
     7
370
    15
100
AcDbEllipse
 10
253.5868726086
 20
146.5148518139
 30
0.0
 11
-1.548637656915105
 21
1.632998461080319
 31
0.0
210
0.0
220
0.0
230
1.0
 40
0.9888704261
 41
0.6688057688469021
 42
1.181062778006889
  0
ELLIPSE
  5
A6
330
1F
100
AcDbEntity
  8
0
  6
Continuous
 62
     7
370
    15
100
AcDbEllipse
 10
253.5868726086
 20
146.5148518139
 30
0.0
 11
-1.548637656915105
 21
1.632998461080319
 31
0.0
210
0.0
220
0.0
230
1.0
 40
0.9888704261
 41
2.571617828974015
 42
3.387976661718377
  0
LINE
  5
A7
330
1F
100
AcDbEntity
  8
0
  6
Continuous
 62
     7
370
    15
100
AcDbLine
 10
255.4825926591
 20
145.3046756317
 30
0.0
 11
255.8031464387
 21
146.1832071175
 31
0.0
  0
LINE
  5
A8
330
1F
100
AcDbEntity
  8
0
  6
Continuous
 62
     7
370
    15
100
AcDbLine
 10
254.781865554
 20
144.5012907018
 30
0.0
 11
254.8509324361
 21
144.6532415677
 31
0.0
  0
ARC
  5
A9
330
1F
100
AcDbEntity
  8
0
  6
Continuous
 62
     7
370
    15
100
AcDbCircle
 10
252.5473511042
 20
145.8544583107
 30
0.0
 40
2.886924795654692
100
AcDbArc
 50
79.8140054627
 51
96.4505868911
  0
LINE
  5
AA
330
1F
100
AcDbEntity
  8
0
  6
Continuous
 62
     7
370
    15
100
AcDbLine
 10
255.3890729715
 20
145.1680953134
 30
0.0
 11
255.2919919063
 21
144.8431903948
 31
0.0
  0
LINE
  5
AB
330
1F
100
AcDbEntity
  8
0
  6
Continuous
 62
     7
370
    15
100
AcDbLine
 10
255.2919919063
 20
144.8431903948
 30
0.0
 11
255.2602300812
 21
144.7561452617
 31
0.0
  0
CIRCLE
  5
AC
330
1F
100
AcDbEntity
  8
0
  6
Continuous
 62
     7
370
    15
100
AcDbCircle
 10
249.352990295
 20
134.922330047
 30
0.0
 40
3.976273687236712
  0
CIRCLE
  5
AD
330
1F
100
AcDbEntity
  8
0
  6
Continuous
 62
     7
370
    15
100
AcDbCircle
 10
249.4056518024
 20
134.9694317915
 30
0.0
 40
3.47929813696338
  0
CIRCLE
  5
AE
330
1F
100
AcDbEntity
  8
0
  6
Continuous
 62
     7
370
    15
100
AcDbCircle
 10
249.4071355485
 20
134.9547029115
 30
0.0
 40
1.988681364233492
  0
SPLINE
  5
AF
330
1F
100
AcDbEntity
  8
0
  6
Continuous
 62
     7
370
    15
100
AcDbSpline
210
0.0
220
0.0
230
1.0
 70
     8
 71
     3
 72
    11
 73
     7
 74
     0
 42
0.00000001
 43
0.00000001
 40
0.0
 40
0.0
 40
0.0
 40
0.0
 40
0.1081106932938464
 40
0.471158383391943
 40
0.8135815574279434
 40
1.0
 40
1.0
 40
1.0
 40
1.0
 10
250.4868479837411
 20
133.5748391677305
 30
0.0
 10
250.5038406718392
 20
133.6264323382524
 30
0.0
 10
250.5778966898877
 20
133.8512810935098
 30
0.0
 10
250.7298041617502
 20
134.2902087818281
 30
0.0
 10
250.9244885661358
 20
134.8053783283685
 30
0.0
 10
251.0365107306532
 20
135.0875719064897
 30
0.0
 10
251.0759989191525
 20
135.187046088712
 30
0.0
  0
SPLINE
  5
B0
330
1F
100
AcDbEntity
  8
0
  6
Continuous
 62
     7
370
    15
100
AcDbSpline
210
0.0
220
0.0
230
1.0
 70
     8
 71
     3
 72
    10
 73
     6
 74
     0
 42
0.00000001
 43
0.00000001
 40
0.0
 40
0.0
 40
0.0
 40
0.0
 40
0.4391171761990179
 40
0.7513675386725027
 40
1.0
 40
1.0
 40
1.0
 40
1.0
 10
251.0759989191525
 20
135.187046088712
 30
0.0
 10
250.9067499033
 20
135.3670132393114
 30
0.0
 10
250.6171501714821
 20
135.6749526284246
 30
0.0
 10
250.2310422274099
 20
136.1572820893482
 30
0.0
 10
250.0493145890374
 20
136.4077437428881
 30
0.0
 10
249.9687569607728
 20
136.5187703151867
 30
0.0
  0
SPLINE
  5
B1
330
1F
100
AcDbEntity
  8
0
  6
Continuous
 62
     7
370
    15
100
AcDbSpline
210
0.0
220
0.0
230
1.0
 70
     8
 71
     3
 72
    10
 73
     6
 74
     0
 42
0.00000001
 43
0.00000001
 40
0.0
 40
0.0
 40
0.0
 40
0.0
 40
0.4391164093212906
 40
0.7513665289692655
 40
0.9999999999999999
 40
0.9999999999999999
 40
0.9999999999999999
 40
0.9999999999999999
 10
249.9687569607728
 20
136.5187703151867
 30
0.0
 10
249.715166531509
 20
136.4679377797067
 30
0.0
 10
249.2812511583389
 20
136.3809588717644
 30
0.0
 10
248.6853573646749
 20
136.2892042748768
 30
0.0
 10
248.3992100125149
 20
136.2539260612578
 30
0.0
 10
248.2723640669816
 20
136.2382876206801
 30
0.0
  0
SPLINE
  5
B2
330
1F
100
AcDbEntity
  8
0
  6
Continuous
 62
     7
370
    15
100
AcDbSpline
210
0.0
220
0.0
230
1.0
 70
     8
 71
     3
 72
    11
 73
     7
 74
     0
 42
0.00000001
 43
0.00000001
 40
0.0
 40
0.0
 40
0.0
 40
0.0
 40
0.1864184140246232
 40
0.5288416020908212
 40
0.8918893033750691
 40
1.0
 40
1.0
 40
1.0
 40
1.0
 10
248.2723640669816
 20
136.2382876206801
 30
0.0
 10
248.2328758769343
 20
136.1388134343383
 30
0.0
 10
248.1208536939461
 20
135.856619809063
 30
0.0
 10
247.926169315373
 20
135.3414503286495
 30
0.0
 10
247.7742618373944
 20
134.9025226246647
 30
0.0
 10
247.7002058196081
 20
134.6776738700687
 30
0.0
 10
247.6832131315701
 20
134.6260806996987
 30
0.0
  0
SPLINE
  5
B3
330
1F
100
AcDbEntity
  8
0
  6
Continuous
 62
     7
370
    15
100
AcDbSpline
210
0.0
220
0.0
230
1.0
 70
     8
 71
     3
 72
    10
 73
     6
 74
     0
 42
0.00000001
 43
0.00000001
 40
0.0
 40
0.0
 40
0.0
 40
0.0
 40
0.4391165537786588
 40
0.751366911600355
 40
1.0
 40
1.0
 40
1.0
 40
1.0
 10
247.6832131315701
 20
134.6260806996987
 30
0.0
 10
247.8309854496083
 20
134.4247548578015
 30
0.0
 10
248.0838368378535
 20
134.080268696326
 30
0.0
 10
248.4862768655939
 20
133.6141826792816
 30
0.0
 10
248.697030474008
 20
133.3925871750841
 30
0.0
 10
248.7904550899499
 20
133.2943564732239
 30
0.0
  0
SPLINE
  5
B4
330
1F
100
AcDbEntity
  8
0
  6
Continuous
 62
     7
370
    15
100
AcDbSpline
210
0.0
220
0.0
230
1.0
 70
     8
 71
     3
 72
    10
 73
     6
 74
     0
 42
0.00000001
 43
0.00000001
 40
0.0
 40
0.0
 40
0.0
 40
0.0
 40
0.4391169956390591
 40
0.7513662320950205
 40
0.9999999999999999
 40
0.9999999999999999
 40
0.9999999999999999
 40
0.9999999999999999
 10
248.7904550899499
 20
133.2943564732239
 30
0.0
 10
249.0225683371035
 20
133.3238302815615
 30
0.0
 10
249.4197336886277
 20
133.374262454618
 30
0.0
 10
250.0319626082297
 20
133.4822613374153
 30
0.0
 10
250.3471351714151
 20
133.5464049517089
 30
0.0
 10
250.4868479837411
 20
133.5748391677305
 30
0.0
  0
LINE
  5
B5
330
1F
100
AcDbEntity
  8
0
  6
Continuous
 62
     7
370
    15
100
AcDbLine
 10
249.5786520113
 20
136.1308018197
 30
0.0
 11
249.9687569608
 21
136.5187703152
 31
0.0
  0
LINE
  5
B6
330
1F
100
AcDbEntity
  8
0
  6
Continuous
 62
     7
370
    15
100
AcDbLine
 10
249.5786520113
 20
136.1308018197
 30
0.0
 11
248.7304555644
 21
135.9905614038
 31
0.0
  0
LINE
  5
B7
330
1F
100
AcDbEntity
  8
0
  6
Continuous
 62
     7
370
    15
100
AcDbLine
 10
248.7304555644
 20
135.9905614038
 30
0.0
 11
248.1366703679
 21
135.8923832406
 31
0.0
  0
LINE
  5
B8
330
1F
100
AcDbEntity
  8
0
  6
Continuous
 62
     7
370
    15
100
AcDbLine
 10
250.219021963
 20
133.5214855601
 30
0.0
 11
250.3913166393
 21
133.9929750641
 31
0.0
  0
LINE
  5
B9
330
1F
100
AcDbEntity
  8
0
  6
Continuous
 62
     7
370
    15
100
AcDbLine
 10
250.3913166393
 20
133.9929750641
 30
0.0
 11
250.6858939697
 21
134.7990775932
 31
0.0
  0
LINE
  5
BA
330
1F
100
AcDbEntity
  8
0
  6
Continuous
 62
     7
370
    15
100
AcDbLine
 10
250.6858939697
 20
134.7990775932
 30
0.0
 11
251.0759989192
 21
135.1870460887
 31
0.0
  0
LINE
  5
BB
330
1F
100
AcDbEntity
  8
0
  6
Continuous
 62
     7
370
    15
100
AcDbLine
 10
250.6858939697
 20
134.7990775932
 30
0.0
 11
250.1322711278
 21
135.4649397065
 31
0.0
  0
LINE
  5
BC
330
1F
100
AcDbEntity
  8
0
  6
Continuous
 62
     7
370
    15
100
AcDbLine
 10
250.1322711278
 20
135.4649397065
 30
0.0
 11
249.5786520113
 21
136.1308018197
 31
0.0
  0
ARC
  5
BD
330
1F
100
AcDbEntity
  8
0
  6
Continuous
 62
     7
370
    15
100
AcDbCircle
 10
248.9724844479
 20
134.5039358142
 30
0.0
 40
1.506198401311088
100
AcDbArc
 50
39.6452817709
 51
99.2468661587
  0
ARC
  5
BE
330
1F
100
AcDbEntity
  8
0
  6
Continuous
 62
     7
370
    15
100
AcDbCircle
 10
248.9816387936
 20
134.5036677142
 30
0.0
 40
1.499332722122744
100
AcDbArc
 50
340.0857566389
 51
39.8763716713
  0
ARC
  5
BF
330
1F
100
AcDbEntity
  8
0
  6
Continuous
 62
     7
370
    15
100
AcDbCircle
 10
249.0110744854
 20
134.4967657246
 30
0.0
 40
1.469310529863943
100
AcDbArc
 50
316.9616797873
 51
339.9478345413
  0
ARC
  5
C0
330
1F
100
AcDbEntity
  8
0
  6
Continuous
 62
     7
370
    15
100
AcDbCircle
 10
249.1013236452
 20
134.2481807546
 30
0.0
 40
1.781413332164226
100
AcDbArc
 50
102.0161592752
 51
126.9457857873
  0
LINE
  5
C1
330
1F
100
AcDbEntity
  8
0
  6
Continuous
 62
     7
370
    15
100
AcDbLine
 10
212.0836722125
 20
78.5202341606
 30
0.0
 11
212.0836722125
 21
128.5571525325
 31
0.0
  0
SPLINE
  5
C2
330
1F
100
AcDbEntity
  8
0
  6
Continuous
 62
     7
370
    15
100
AcDbSpline
210
0.0
220
0.0
230
1.0
 70
     8
 71
     3
 72
     8
 73
     4
 74
     0
 42
0.00000001
 43
0.00000001
 40
0.0
 40
0.0
 40
0.0
 40
0.0
 40
1.0
 40
1.0
 40
1.0
 40
1.0
 10
212.08367312275
 20
78.52023409712997
 30
0.0
 10
211.5881934620843
 20
79.41576018506333
 30
0.0
 10
211.0940794140421
 20
80.31204460011556
 30
0.0
 10
210.601740291261
 20
81.20931463432224
 30
0.0
  0
LINE
  5
C3
330
1F
100
AcDbEntity
  8
0
  6
Continuous
 62
     7
370
    15
100
AcDbLine
 10
210.6017405559
 20
81.2093144734
 30
0.0
 11
210.6017405559
 21
128.5571525325
 31
0.0
  0
SPLINE
  5
C4
330
1F
100
AcDbEntity
  8
0
  6
Continuous
 62
     7
370
    15
100
AcDbSpline
210
0.0
220
0.0
230
1.0
 70
    24
 71
     3
 72
     8
 73
     4
 74
     0
 42
0.00000001
 43
0.00000001
 40
0.0
 40
0.0
 40
0.0
 40
0.0
 40
1.0
 40
1.0
 40
1.0
 40
1.0
 10
210.601740291261
 20
128.5571517933772
 30
0.0
 10
211.0816922856259
 20
128.5571517933772
 30
0.0
 10
211.5769930145995
 20
128.5571517933772
 30
0.0
 10
212.08367312275
 20
128.5571517933772
 30
0.0
  0
LINE
  5
C5
330
1F
100
AcDbEntity
  8
0
  6
Continuous
 62
     7
370
    15
100
AcDbLine
 10
206.7817403395
 20
81.2093144734
 30
0.0
 11
206.7817403395
 21
128.5571525325
 31
0.0
  0
SPLINE
  5
C6
330
1F
100
AcDbEntity
  8
0
  6
Continuous
 62
     7
370
    15
100
AcDbSpline
210
0.0
220
0.0
230
1.0
 70
     8
 71
     3
 72
     8
 73
     4
 74
     0
 42
0.00000001
 43
0.00000001
 40
0.0
 40
0.0
 40
0.0
 40
0.0
 40
1.0
 40
1.0
 40
1.0
 40
1.0
 10
206.7817402912609
 20
81.20931463432227
 30
0.0
 10
206.2894011684798
 20
80.31204460011557
 30
0.0
 10
205.7952871204376
 20
79.41576018506333
 30
0.0
 10
205.2998074597719
 20
78.52023409712997
 30
0.0
  0
LINE
  5
C7
330
1F
100
AcDbEntity
  8
0
  6
Continuous
 62
     7
370
    15
100
AcDbLine
 10
205.2998077516
 20
78.5202341606
 30
0.0
 11
205.2998077516
 21
128.5571525325
 31
0.0
  0
SPLINE
  5
C8
330
1F
100
AcDbEntity
  8
0
  6
Continuous
 62
     7
370
    15
100
AcDbSpline
210
0.0
220
0.0
230
1.0
 70
    24
 71
     3
 72
     8
 73
     4
 74
     0
 42
0.00000001
 43
0.00000001
 40
0.0
 40
0.0
 40
0.0
 40
0.0
 40
1.0
 40
1.0
 40
1.0
 40
1.0
 10
205.2998074597719
 20
128.5571517933772
 30
0.0
 10
205.8064875679224
 20
128.5571517933772
 30
0.0
 10
206.3017882968961
 20
128.5571517933772
 30
0.0
 10
206.7817402912609
 20
128.5571517933772
 30
0.0
  0
LINE
  5
C9
330
1F
100
AcDbEntity
  8
0
  6
Continuous
 62
     7
370
    15
100
AcDbLine
 10
195.6417402644
 20
128.5571525325
 30
0.0
 11
205.2998077516
 21
128.5571525325
 31
0.0
  0
LINE
  5
CA
330
1F
100
AcDbEntity
  8
0
  6
Continuous
 62
     7
370
    15
100
AcDbLine
 10
205.2998077516
 20
78.5202341606
 30
0.0
 11
203.6417406444
 21
78.5202341606
 31
0.0
  0
SPLINE
  5
CB
330
1F
100
AcDbEntity
  8
0
  6
Continuous
 62
     7
370
    15
100
AcDbSpline
210
0.0
220
0.0
230
1.0
 70
     8
 71
     3
 72
    28
 73
    24
 74
     0
 42
0.00000001
 43
0.00000001
 40
0.0
 40
0.0
 40
0.0
 40
0.0
 40
0.1250000000000002
 40
0.1250000000000002
 40
0.1875000000000003
 40
0.1875000000000003
 40
0.2500000000000004
 40
0.2500000000000004
 40
0.3750000000000005
 40
0.3750000000000005
 40
0.4375000000000004
 40
0.4375000000000004
 40
0.5000000000000004
 40
0.5000000000000004
 40
0.6250000000000003
 40
0.6250000000000003
 40
0.75
 40
0.75
 40
0.8125
 40
0.8125
 40
0.875
 40
0.875
 40
1.0
 40
1.0
 40
1.0
 40
1.0
 10
203.641740291261
 20
78.52023409712997
 30
0.0
 10
203.110032533768
 20
78.52023409712997
 30
0.0
 10
202.5877939684577
 20
78.50444938317978
 30
0.0
 10
201.8179234821827
 20
78.45945396910355
 30
0.0
 10
201.5635639099914
 20
78.44089897402785
 30
0.0
 10
201.0594423292928
 20
78.39704625158136
 30
0.0
 10
200.8097195118649
 20
78.37170164462914
 30
0.0
 10
200.0841295604185
 20
78.28829956687902
 30
0.0
 10
199.625769298837
 20
78.22243400772794
 30
0.0
 10
198.9752713554431
 20
78.11346366723615
 30
0.0
 10
198.7635893046507
 20
78.07522403146949
 30
0.0
 10
198.3595178155126
 20
77.99746529405014
 30
0.0
 10
198.1670113016918
 20
77.95796433187479
 30
0.0
 10
197.6171763306705
 20
77.83905658950879
 30
0.0
 10
197.2872475523617
 20
77.75923890808419
 30
0.0
 10
196.702776283793
 20
77.60589574628813
 30
0.0
 10
196.4564991457796
 20
77.53456199301887
 30
0.0
 10
196.1566563530815
 20
77.44061848594424
 30
0.0
 10
196.0681994960093
 20
77.41142469258433
 30
0.0
 10
195.9148381427042
 20
77.35795811832091
 30
0.0
 10
195.849749928478
 20
77.33359878404575
 30
0.0
 10
195.6941559125372
 20
77.27000863860101
 30
0.0
 10
195.641740291261
 20
77.23990570351175
 30
0.0
 10
195.641740291261
 20
77.22302881051482
 30
0.0
  0
LINE
  5
CC
330
1F
100
AcDbEntity
  8
0
  6
Continuous
 62
     7
370
    15
100
AcDbLine
 10
195.6417402644
 20
77.223028474
 30
0.0
 11
195.6417402644
 21
77.2071512867
 31
0.0
  0
SPLINE
  5
CD
330
1F
100
AcDbEntity
  8
0
  6
Continuous
 62
     7
370
    15
100
AcDbSpline
210
0.0
220
0.0
230
1.0
 70
     8
 71
     3
 72
    23
 73
    19
 74
     0
 42
0.00000001
 43
0.00000001
 40
0.0
 40
0.0
 40
0.0
 40
0.0
 40
0.0517620047177183
 40
0.1565080716751353
 40
0.2099948655738126
 40
0.2617440163842799
 40
0.3663990941448703
 40
0.4197729162915139
 40
0.5256600109232386
 40
0.5793826741010958
 40
0.633866926512567
 40
0.687187768348765
 40
0.7408883515498573
 40
0.7958044515452664
 40
0.8511490298977823
 40
0.9035396636915078
 40
0.9563116788406193
 40
1.0
 40
1.0
 40
1.0
 40
1.0
 10
203.6417406444185
 20
139.1743472297356
 30
0.0
 10
203.4241271811208
 20
139.1757534640675
 30
0.0
 10
202.7661491198575
 20
139.1800053670764
 30
0.0
 10
201.891097997096
 20
139.2195738112881
 30
0.0
 10
201.0463101991236
 20
139.2825417664119
 30
0.0
 10
200.2266350595671
 20
139.3605791212067
 30
0.0
 10
199.4508457268367
 20
139.4574924186039
 30
0.0
 10
198.5529279274036
 20
139.5929607169903
 30
0.0
 10
197.8953613848097
 20
139.7091164632205
 30
0.0
 10
197.3176411414622
 20
139.8228886103024
 30
0.0
 10
196.9263133410152
 20
139.9049732483707
 30
0.0
 10
196.5825078168088
 20
139.9809586357754
 30
0.0
 10
196.2874122169456
 20
140.0490257716523
 30
0.0
 10
196.0421329492574
 20
140.1076119271298
 30
0.0
 10
195.8541793240236
 20
140.1537509035921
 30
0.0
 10
195.7257895224784
 20
140.1858616249955
 30
0.0
 10
195.6522405321369
 20
140.2044791910231
 30
0.0
 10
195.647907303781
 20
140.2055857086835
 30
0.0
 10
195.645944720202
 20
140.2060868669913
 30
0.0
  0
LINE
  5
CE
330
1F
100
AcDbEntity
  8
0
  6
Continuous
 62
     7
370
    15
100
AcDbLine
 10
205.2998077516
 20
139.1743472297
 30
0.0
 11
203.6417406444
 21
139.1743472297
 31
0.0
  0
LINE
  5
CF
330
1F
100
AcDbEntity
  8
0
  6
Continuous
 62
     7
370
    15
100
AcDbLine
 10
205.2998077516
 20
133.1658414085
 30
0.0
 11
205.2998077516
 21
139.1743472297
 31
0.0
  0
LINE
  5
D0
330
1F
100
AcDbEntity
  8
0
  6
Continuous
 62
     7
370
    15
100
AcDbLine
 10
202.8873609771
 20
133.1658414085
 30
0.0
 11
205.2998077516
 21
133.1658414085
 31
0.0
  0
SPLINE
  5
D1
330
1F
100
AcDbEntity
  8
0
  6
Continuous
 62
     7
370
    15
100
AcDbSpline
210
0.0
220
0.0
230
1.0
 70
     8
 71
     3
 72
    20
 73
    16
 74
     0
 42
0.00000001
 43
0.00000001
 40
0.0
 40
0.0
 40
0.0
 40
0.0
 40
0.2500000000000003
 40
0.2500000000000003
 40
0.3750000000000003
 40
0.3750000000000003
 40
0.5000000000000002
 40
0.5000000000000002
 40
0.6250000000000001
 40
0.6250000000000001
 40
0.7500000000000001
 40
0.7500000000000001
 40
0.875
 40
0.875
 40
1.0
 40
1.0
 40
1.0
 40
1.0
 10
195.641740291261
 20
128.5571517933772
 30
0.0
 10
195.8901140255491
 20
129.2110142216746
 30
0.0
 10
196.2096841178943
 20
129.8148000036717
 30
0.0
 10
196.831990351099
 20
130.6416387398403
 30
0.0
 10
197.0634146115297
 20
130.9040673777932
 30
0.0
 10
197.5846289511794
 20
131.4007300318981
 30
0.0
 10
197.8712494338145
 20
131.6313169109197
 30
0.0
 10
198.4907341751221
 20
132.0478711355023
 30
0.0
 10
198.8250345546091
 20
132.2353689374698
 30
0.0
 10
199.5502950272339
 20
132.5667659151062
 30
0.0
 10
199.9322100846244
 20
132.7062699026015
 30
0.0
 10
200.7269982607961
 20
132.9317234100724
 30
0.0
 10
201.1411564550024
 20
133.0183495216161
 30
0.0
 10
202.0067027955838
 20
133.1363303104702
 30
0.0
 10
202.4445904105956
 20
133.1658414557446
 30
0.0
 10
202.8873606369502
 20
133.1658414557446
 30
0.0
  0
LINE
  5
D2
330
1F
100
AcDbEntity
  8
0
  6
Continuous
 62
     7
370
    15
100
AcDbLine
 10
216.0417410006
 20
78.5202341606
 30
0.0
 11
212.0836722125
 21
78.5202341606
 31
0.0
  0
LINE
  5
D3
330
1F
100
AcDbEntity
  8
0
  6
Continuous
 62
     7
370
    15
100
AcDbLine
 10
212.0836722125
 20
128.5571525325
 30
0.0
 11
216.0417410006
 21
128.5571525325
 31
0.0
  0
LINE
  5
D4
330
1F
100
AcDbEntity
  8
0
  6
Continuous
 62
     7
370
    15
100
AcDbLine
 10
216.6417399813
 20
79.1468745549
 30
0.0
 11
216.6417399813
 21
128.5571525325
 31
0.0
  0
SPLINE
  5
D5
330
1F
100
AcDbEntity
  8
0
  6
Continuous
 62
     7
370
    15
100
AcDbSpline
210
0.0
220
0.0
230
1.0
 70
     8
 71
     3
 72
    10
 73
     6
 74
     0
 42
0.00000001
 43
0.00000001
 40
0.0
 40
0.0
 40
0.0
 40
0.0
 40
0.5
 40
0.5
 40
1.0
 40
1.0
 40
1.0
 40
1.0
 10
216.641740291261
 20
79.14687439278427
 30
0.0
 10
216.641740291261
 20
78.98698712459063
 30
0.0
 10
216.5804306400251
 20
78.82585986907603
 30
0.0
 10
216.36133100249
 20
78.59176087072122
 30
0.0
 10
216.2032827961766
 20
78.52023409712999
 30
0.0
 10
216.041740291261
 20
78.52023409712999
 30
0.0
  0
SPLINE
  5
D6
330
1F
100
AcDbEntity
  8
0
  6
Continuous
 62
     7
370
    15
100
AcDbSpline
210
0.0
220
0.0
230
1.0
 70
    24
 71
     3
 72
    12
 73
     8
 74
     0
 42
0.00000001
 43
0.00000001
 40
0.0
 40
0.0
 40
0.0
 40
0.0
 40
0.2499999999999986
 40
0.2499999999999986
 40
0.4999999999999972
 40
0.4999999999999972
 40
1.0
 40
1.0
 40
1.0
 40
1.0
 10
216.0417402912609
 20
128.5571517933772
 30
0.0
 10
216.131979358948
 20
128.5571517933772
 30
0.0
 10
216.2228774730545
 20
128.5571517933772
 30
0.0
 10
216.377474509543
 20
128.5571517933772
 30
0.0
 10
216.4424529256511
 20
128.5571517933772
 30
0.0
 10
216.5942879535874
 20
128.5571517933772
 30
0.0
 10
216.641740291261
 20
128.5571517933772
 30
0.0
 10
216.641740291261
 20
128.5571517933772
 30
0.0
  0
LINE
  5
D7
330
1F
100
AcDbEntity
  8
0
  6
Continuous
 62
     7
370
    15
100
AcDbLine
 10
190.6917402913
 20
77.5071526398
 30
0.0
 11
190.6917402913
 21
139.907150947
 31
0.0
  0
SPLINE
  5
D8
330
1F
100
AcDbEntity
  8
0
  6
Continuous
 62
     7
370
    15
100
AcDbSpline
210
0.0
220
0.0
230
1.0
 70
     8
 71
     3
 72
    10
 73
     6
 74
     0
 42
0.00000001
 43
0.00000001
 40
0.0
 40
0.0
 40
0.0
 40
0.0
 40
0.5
 40
0.5
 40
1.0
 40
1.0
 40
1.0
 40
1.0
 10
207.1760378229519
 20
135.1071517933771
 30
0.0
 10
207.0544975592834
 20
135.1818779605889
 30
0.0
 10
206.9531631989345
 20
135.2908229765057
 30
0.0
 10
206.8175242560461
 20
135.5412534572673
 30
0.0
 10
206.781740291261
 20
135.6836728193663
 30
0.0
 10
206.781740291261
 20
135.8268056444129
 30
0.0
  0
SPLINE
  5
D9
330
1F
100
AcDbEntity
  8
0
  6
Continuous
 62
     7
370
    15
100
AcDbSpline
210
0.0
220
0.0
230
1.0
 70
    24
 71
     3
 72
    12
 73
     8
 74
     0
 42
0.00000001
 43
0.00000001
 40
0.0
 40
0.0
 40
0.0
 40
0.0
 40
0.25
 40
0.25
 40
0.5
 40
0.5
 40
1.0
 40
1.0
 40
1.0
 40
1.0
 10
207.581740291261
 20
135.1071517933771
 30
0.0
 10
207.5323969294514
 20
135.1071517933771
 30
0.0
 10
207.4837062311497
 20
135.1071517933771
 30
0.0
 10
207.4008551335793
 20
135.1071517933771
 30
0.0
 10
207.3646551659587
 20
135.1071517933771
 30
0.0
 10
207.2689052494093
 20
135.1071517933771
 30
0.0
 10
207.2190232795972
 20
135.1071517933771
 30
0.0
 10
207.1760378229519
 20
135.1071517933771
 30
0.0
  0
SPLINE
  5
DA
330
1F
100
AcDbEntity
  8
0
  6
Continuous
 62
     7
370
    15
100
AcDbSpline
210
0.0
220
0.0
230
1.0
 70
    24
 71
     3
 72
    14
 73
    10
 74
     0
 42
0.00000001
 43
0.00000001
 40
0.0
 40
0.0
 40
0.0
 40
0.0
 40
0.1249999999999978
 40
0.1249999999999978
 40
0.2499999999999956
 40
0.2499999999999956
 40
0.4999999999999973
 40
0.4999999999999973
 40
1.0
 40
1.0
 40
1.0
 40
1.0
 10
207.581740291261
 20
82.3071517933771
 30
0.0
 10
207.5123935695298
 20
82.3071517933771
 30
0.0
 10
207.4471955161459
 20
82.3071517933771
 30
0.0
 10
207.3428163235189
 20
82.30715179337712
 30
0.0
 10
207.2999139525099
 20
82.30715179337712
 30
0.0
 10
207.1875882949052
 20
82.3071517933771
 30
0.0
 10
207.1323646005514
 20
82.3071517933771
 30
0.0
 10
206.9883072217838
 20
82.3071517933771
 30
0.0
 10
206.9262265249523
 20
82.3071517933771
 30
0.0
 10
206.8794150935933
 20
82.3071517933771
 30
0.0
  0
SPLINE
  5
DB
330
1F
100
AcDbEntity
  8
0
  6
Continuous
 62
     7
370
    15
100
AcDbSpline
210
0.0
220
0.0
230
1.0
 70
     8
 71
     3
 72
     9
 73
     5
 74
     0
 42
0.00000001
 43
0.00000001
 40
0.0
 40
0.0
 40
0.0
 40
0.0
 40
0.5
 40
1.0
 40
1.0
 40
1.0
 40
1.0
 10
206.781740291261
 20
128.8430184248385
 30
0.0
 10
206.781740291261
 20
128.7947863727158
 30
0.0
 10
206.7861462659662
 20
128.6989163592762
 30
0.0
 10
206.79916544606
 20
128.6042077292929
 30
0.0
 10
206.8078879144211
 20
128.5571517933772
 30
0.0
  0
SPLINE
  5
DC
330
1F
100
AcDbEntity
  8
0
  6
Continuous
 62
     7
370
    15
100
AcDbSpline
210
0.0
220
0.0
230
1.0
 70
    24
 71
     3
 72
    14
 73
    10
 74
     0
 42
0.00000001
 43
0.00000001
 40
0.0
 40
0.0
 40
0.0
 40
0.0
 40
0.5000000000000011
 40
0.5000000000000011
 40
0.7500000000000006
 40
0.7500000000000006
 40
0.8750000000000002
 40
0.8750000000000002
 40
1.0
 40
1.0
 40
1.0
 40
1.0
 10
210.5040654889287
 20
82.3071517933771
 30
0.0
 10
210.4572807838805
 20
82.3071517933771
 30
0.0
 10
210.3952295871009
 20
82.30715179337712
 30
0.0
 10
210.2518379485503
 20
82.3071517933771
 30
0.0
 10
210.1956942949991
 20
82.3071517933771
 30
0.0
 10
210.0827432728629
 20
82.3071517933771
 30
0.0
 10
210.0397425108248
 20
82.3071517933771
 30
0.0
 10
209.9356798005183
 20
82.3071517933771
 30
0.0
 10
209.8703475621614
 20
82.30715179337712
 30
0.0
 10
209.801740291261
 20
82.3071517933771
 30
0.0
  0
SPLINE
  5
DD
330
1F
100
AcDbEntity
  8
0
  6
Continuous
 62
     7
370
    15
100
AcDbSpline
210
0.0
220
0.0
230
1.0
 70
    24
 71
     3
 72
    12
 73
     8
 74
     0
 42
0.00000001
 43
0.00000001
 40
0.0
 40
0.0
 40
0.0
 40
0.0
 40
0.5000000000000058
 40
0.5000000000000058
 40
0.7500000000000029
 40
0.7500000000000029
 40
1.0
 40
1.0
 40
1.0
 40
1.0
 10
210.20744275957
 20
135.1071517933771
 30
0.0
 10
210.1643572099592
 20
135.1071517933771
 30
0.0
 10
210.1152050082122
 20
135.1071517933771
 30
0.0
 10
210.0187324139226
 20
135.1071517933771
 30
0.0
 10
209.9826308287884
 20
135.1071517933771
 30
0.0
 10
209.8995250709258
 20
135.1071517933771
 30
0.0
 10
209.8515284739617
 20
135.1071517933771
 30
0.0
 10
209.801740291261
 20
135.1071517933771
 30
0.0
  0
SPLINE
  5
DE
330
1F
100
AcDbEntity
  8
0
  6
Continuous
 62
     7
370
    15
100
AcDbSpline
210
0.0
220
0.0
230
1.0
 70
     8
 71
     3
 72
    10
 73
     6
 74
     0
 42
0.00000001
 43
0.00000001
 40
0.0
 40
0.0
 40
0.0
 40
0.0
 40
0.5
 40
0.5
 40
1.0
 40
1.0
 40
1.0
 40
1.0
 10
210.601740291261
 20
135.8268056444129
 30
0.0
 10
210.601740291261
 20
135.6830355865949
 30
0.0
 10
210.5656912325421
 20
135.5406162240998
 30
0.0
 10
210.4301823717681
 20
135.2907219307425
 30
0.0
 10
210.3303063786719
 20
135.1826915944943
 30
0.0
 10
210.2074427595699
 20
135.1071517933771
 30
0.0
  0
SPLINE
  5
DF
330
1F
100
AcDbEntity
  8
0
  6
Continuous
 62
     7
370
    15
100
AcDbSpline
210
0.0
220
0.0
230
1.0
 70
     8
 71
     3
 72
    10
 73
     6
 74
     0
 42
0.00000001
 43
0.00000001
 40
0.0
 40
0.0
 40
0.0
 40
0.0
 40
0.5
 40
0.5
 40
1.0
 40
1.0
 40
1.0
 40
1.0
 10
210.5755926681008
 20
128.5571517933772
 30
0.0
 10
210.5842823110125
 20
128.6040306426953
 30
0.0
 10
210.590821375763
 20
128.6514531080965
 30
0.0
 10
210.599580010156
 20
128.7473899066833
 30
0.0
 10
210.601740291261
 20
128.7953051946938
 30
0.0
 10
210.601740291261
 20
128.8430184248383
 30
0.0
  0
LINE
  5
E0
330
1F
100
AcDbEntity
  8
0
  6
Continuous
 62
     7
370
    15
100
AcDbLine
 10
209.8017400522
 20
135.1071516503
 30
0.0
 11
207.5817408432
 21
135.1071516503
 31
0.0
  0
LINE
  5
E1
330
1F
100
AcDbEntity
  8
0
  6
Continuous
 62
     7
370
    15
100
AcDbLine
 10
209.8017400522
 20
82.3071519364
 30
0.0
 11
207.5817408432
 21
82.3071519364
 31
0.0
  0
LINE
  5
E2
330
1F
100
AcDbEntity
  8
0
  6
Continuous
 62
     7
370
    15
100
AcDbLine
 10
216.8417396416
 20
135.1071516503
 30
0.0
 11
216.7941080798
 21
135.1071516503
 31
0.0
  0
LINE
  5
E3
330
1F
100
AcDbEntity
  8
0
  6
Continuous
 62
     7
370
    15
100
AcDbLine
 10
216.8417396416
 20
82.3071519364
 30
0.0
 11
216.7906435598
 21
82.3071519364
 31
0.0
  0
ELLIPSE
  5
E4
330
1F
100
AcDbEntity
  8
0
  6
Continuous
 62
     7
370
    15
100
AcDbEllipse
 10
229.8006526648
 20
108.7071517934
 30
0.0
 11
-0.7838056803151972
 21
25.99916243029384
 31
0.0
210
0.0
220
0.0
230
0.9999999999999998
 40
0.266256518
 41
0.3606514529745854
 42
2.555448181742825
  0
ELLIPSE
  5
E5
330
1F
100
AcDbEntity
  8
0
  6
Continuous
 62
     7
370
    15
100
AcDbEllipse
 10
225.6931946931
 20
124.1282820314
 30
0.0
 11
0.2362344180672267
 21
3.405144022707689
 31
0.0
210
0.0
220
0.0
230
0.9999999999999999
 40
0.2127709897
 41
0.0
 42
6.283185307179586
  0
ELLIPSE
  5
E6
330
1F
100
AcDbEntity
  8
0
  6
Continuous
 62
     7
370
    15
100
AcDbEllipse
 10
302.5751939128
 20
108.7071517934
 30
0.0
 11
247.3733091093301
 21
-2.747757092743001
 31
0.0
210
0.0
220
0.0
230
1.0
 40
0.1045157088
 41
1.861593569130539
 42
1.86214862977796
  0
SPLINE
  5
E7
330
1F
100
AcDbEntity
  8
0
  6
Continuous
 62
     7
370
    15
100
AcDbSpline
210
0.0
220
0.0
230
1.0
 70
     8
 71
     3
 72
    20
 73
    16
 74
     0
 42
0.00000001
 43
0.00000001
 40
0.0
 40
0.0
 40
0.0
 40
0.0
 40
0.2500000000000001
 40
0.2500000000000001
 40
0.3750000000000003
 40
0.3750000000000003
 40
0.5000000000000004
 40
0.5000000000000004
 40
0.6250000000000007
 40
0.6250000000000007
 40
0.7500000000000008
 40
0.7500000000000008
 40
0.8750000000000004
 40
0.8750000000000004
 40
1.0
 40
1.0
 40
1.0
 40
1.0
 10
231.792836060855
 20
134.2612359141988
 30
0.0
 10
231.1661301750013
 20
134.2485588874412
 30
0.0
 10
230.5676277210957
 20
134.217978738432
 30
0.0
 10
229.7116056809763
 20
134.1373263431425
 30
0.0
 10
229.4388007048173
 20
134.1048914014958
 30
0.0
 10
228.9239847804669
 20
134.0279809802181
 30
0.0
 10
228.680799858222
 20
133.9834004381309
 30
0.0
 10
228.2231129851398
 20
133.8792569846354
 30
0.0
 10
228.0113198945077
 20
133.8201314320641
 30
0.0
 10
227.6289286059231
 20
133.6884420605442
 30
0.0
 10
227.4567935402266
 20
133.6155418116409
 30
0.0
 10
227.1497052339747
 20
133.4534544176401
 30
0.0
 10
227.0155077943307
 20
133.3643596370712
 30
0.0
 10
226.7899470403332
 20
133.1731134500907
 30
0.0
 10
226.6974802158392
 20
133.0704264091762
 30
0.0
 10
226.6244518827264
 20
132.9600690964603
 30
0.0
  0
SPLINE
  5
E8
330
1F
100
AcDbEntity
  8
0
  6
Continuous
 62
     7
370
    15
100
AcDbSpline
210
0.0
220
0.0
230
1.0
 70
     8
 71
     3
 72
    20
 73
    16
 74
     0
 42
0.00000001
 43
0.00000001
 40
0.0
 40
0.0
 40
0.0
 40
0.0
 40
0.2499999999999994
 40
0.2499999999999994
 40
0.3749999999999994
 40
0.3749999999999994
 40
0.4999999999999996
 40
0.4999999999999996
 40
0.6249999999999996
 40
0.6249999999999996
 40
0.7499999999999997
 40
0.7499999999999997
 40
0.8749999999999999
 40
0.8749999999999999
 40
1.0
 40
1.0
 40
1.0
 40
1.0
 10
226.6244518827264
 20
86.9323415058258
 30
0.0
 10
226.7705639550164
 20
86.59754489662366
 30
0.0
 10
226.9926124988527
 20
86.2985001891646
 30
0.0
 10
227.4520465232385
 20
85.89765050270044
 30
0.0
 10
227.62679786754
 20
85.77240522981333
 30
0.0
 10
228.0087899411974
 20
85.54516105855177
 30
0.0
 10
228.2172817548092
 20
85.44193395320951
 30
0.0
 10
228.6704452591644
 20
85.25448074595973
 30
0.0
 10
228.9177335749111
 20
85.16961409728594
 30
0.0
 10
229.4352713655026
 20
85.02256281841137
 30
0.0
 10
229.7056512164395
 20
84.95993898800819
 30
0.0
 10
230.2695036244104
 20
84.85424589541539
 30
0.0
 10
230.5649255125207
 20
84.81097849842467
 30
0.0
 10
231.1709185597537
 20
84.74460703535202
 30
0.0
 10
231.4792054877663
 20
84.72158748900158
 30
0.0
 10
231.792836060855
 20
84.7083520277683
 30
0.0
  0
ELLIPSE
  5
E9
330
1F
100
AcDbEntity
  8
0
  6
Continuous
 62
     7
370
    15
100
AcDbEllipse
 10
302.5751939128
 20
108.7071517934
 30
0.0
 11
247.3733091093301
 21
-2.747757092743001
 31
0.0
210
0.0
220
0.0
230
1.0
 40
0.1045157088
 41
4.423358541892297
 42
4.423913602539718
  0
LINE
  5
EA
330
1F
100
AcDbEntity
  8
0
  6
Continuous
 62
     7
370
    15
100
AcDbLine
 10
188.6917401963
 20
84.4867205699
 30
0.0
 11
188.6917401963
 21
132.9275830169
 31
0.0
  0
LINE
  5
EB
330
1F
100
AcDbEntity
  8
0
  6
Continuous
 62
     7
370
    15
100
AcDbLine
 10
168.8917400707
 20
85.4787057717
 30
0.0
 11
168.8917400707
 21
86.7620030869
 31
0.0
  0
SPLINE
  5
EC
330
1F
100
AcDbEntity
  8
0
  6
Continuous
 62
     7
370
    15
100
AcDbSpline
210
0.0
220
0.0
230
1.0
 70
     8
 71
     3
 72
    14
 73
    10
 74
     0
 42
0.00000001
 43
0.00000001
 40
0.0
 40
0.0
 40
0.0
 40
0.0
 40
0.25
 40
0.25
 40
0.5
 40
0.5
 40
0.75
 40
0.75
 40
1.0
 40
1.0
 40
1.0
 40
1.0
 10
168.2701360545212
 20
87.84278057609392
 30
0.0
 10
168.3085724393422
 20
87.74015617838238
 30
0.0
 10
168.377373832734
 20
87.64095975494283
 30
0.0
 10
168.520659844893
 20
87.45006772561631
 30
0.0
 10
168.5958418999999
 20
87.3578104595834
 30
0.0
 10
168.7280291886501
 20
87.1782031377684
 30
0.0
 10
168.7855463841199
 20
87.09089358332403
 30
0.0
 10
168.8675911824122
 20
86.92095974980829
 30
0.0
 10
168.891740291261
 20
86.83905740793713
 30
0.0
 10
168.891740291261
 20
86.76200353410123
 30
0.0
  0
SPLINE
  5
ED
330
1F
100
AcDbEntity
  8
0
  6
Continuous
 62
     7
370
    15
100
AcDbSpline
210
0.0
220
0.0
230
1.0
 70
     8
 71
     3
 72
    18
 73
    14
 74
     0
 42
0.00000001
 43
0.00000001
 40
0.0
 40
0.0
 40
0.0
 40
0.0
 40
0.0624999999999987
 40
0.0624999999999987
 40
0.1249999999999974
 40
0.1249999999999974
 40
0.2499999999999962
 40
0.2499999999999962
 40
0.4999999999999974
 40
0.4999999999999974
 40
0.7499999999999987
 40
0.7499999999999987
 40
1.0
 40
1.0
 40
1.0
 40
1.0
 10
167.491740291261
 20
88.56106302758053
 30
0.0
 10
167.5283125016114
 20
88.56484043110798
 30
0.0
 10
167.5669629750468
 20
88.56428340322483
 30
0.0
 10
167.6410544687607
 20
88.55422419806297
 30
0.0
 10
167.6764047625148
 20
88.5448703166384
 30
0.0
 10
167.7709990599042
 20
88.51048589020459
 30
0.0
 10
167.8211372330431
 20
88.47977415554176
 30
0.0
 10
167.9503305046243
 20
88.38384484550372
 30
0.0
 10
168.0086106493655
 20
88.31532935138647
 30
0.0
 10
168.1088057457889
 20
88.17875740145385
 30
0.0
 10
168.1488209972356
 20
88.10999249895094
 30
0.0
 10
168.2172204180533
 20
87.97495706984327
 30
0.0
 10
168.2455821419153
 20
87.90833904379012
 30
0.0
 10
168.2701360545212
 20
87.84278057609392
 30
0.0
  0
SPLINE
  5
EE
330
1F
100
AcDbEntity
  8
0
  6
Continuous
 62
     7
370
    15
100
AcDbSpline
210
0.0
220
0.0
230
1.0
 70
     8
 71
     3
 72
    10
 73
     6
 74
     0
 42
0.00000001
 43
0.00000001
 40
0.0
 40
0.0
 40
0.0
 40
0.0
 40
0.5
 40
0.5
 40
1.0
 40
1.0
 40
1.0
 40
1.0
 10
163.578138430139
 20
88.06486937120886
 30
0.0
 10
164.2057660858464
 20
88.16814292994447
 30
0.0
 10
164.8569668308778
 20
88.256968041696
 30
0.0
 10
166.1656715348901
 20
88.41907574856633
 30
0.0
 10
166.8267159721813
 20
88.49237521285292
 30
0.0
 10
167.4917402912609
 20
88.56106302758062
 30
0.0
  0
SPLINE
  5
EF
330
1F
100
AcDbEntity
  8
0
  6
Continuous
 62
     7
370
    15
100
AcDbSpline
210
0.0
220
0.0
230
1.0
 70
     8
 71
     3
 72
    14
 73
    10
 74
     0
 42
0.00000001
 43
0.00000001
 40
0.0
 40
0.0
 40
0.0
 40
0.0
 40
0.5000000000000029
 40
0.5000000000000029
 40
0.750000000000003
 40
0.750000000000003
 40
0.8750000000000014
 40
0.8750000000000014
 40
1.0
 40
1.0
 40
1.0
 40
1.0
 10
159.941740291261
 20
87.90052023484954
 30
0.0
 10
160.5578171950163
 20
87.90624635507868
 30
0.0
 10
161.1719491911322
 20
87.91613672048071
 30
0.0
 10
162.0858458216457
 20
87.94677168815048
 30
0.0
 10
162.3892847491933
 20
87.95956514578845
 30
0.0
 10
162.8404213648308
 20
87.98749097374784
 30
0.0
 10
162.9901276143734
 20
87.99826059390759
 30
0.0
 10
163.2869687506215
 20
88.0253933095071
 30
0.0
 10
163.4343543031248
 20
88.0412102823343
 30
0.0
 10
163.578138430139
 20
88.06486937120876
 30
0.0
  0
SPLINE
  5
F0
330
1F
100
AcDbEntity
  8
0
  6
Continuous
 62
     7
370
    15
100
AcDbSpline
210
0.0
220
0.0
230
1.0
 70
     8
 71
     3
 72
     8
 73
     4
 74
     0
 42
0.00000001
 43
0.00000001
 40
0.0000005954826279
 40
0.0000005954826279
 40
0.0000005954826279
 40
0.0000005954826279
 40
0.0000302093805348
 40
0.0000302093805348
 40
0.0000302093805348
 40
0.0000302093805348
 10
159.9316953608514
 20
87.91233536450146
 30
0.0
 10
159.9350113881716
 20
87.90838858490567
 30
0.0
 10
159.9383599395638
 20
87.90445019377574
 30
0.0
 10
159.9417402912609
 20
87.90052023484958
 30
0.0
  0
SPLINE
  5
F1
330
1F
100
AcDbEntity
  8
0
  6
Continuous
 62
     7
370
    15
100
AcDbSpline
210
0.0
220
0.0
230
1.0
 70
     8
 71
     3
 72
     8
 73
     4
 74
     0
 42
0.00000001
 43
0.00000001
 40
0.0000005099763572
 40
0.0000005099763572
 40
0.0000005099763572
 40
0.0000005099763572
 40
0.0000262827998699
 40
0.0000262827998699
 40
0.0000262827998699
 40
0.0000262827998699
 10
159.941740291261
 20
129.5770895587722
 30
0.0
 10
159.9383715520332
 20
129.5737678898163
 30
0.0
 10
159.9350230990541
 20
129.5704399325375
 30
0.0
 10
159.9316953608427
 20
129.5671056856648
 30
0.0
  0
SPLINE
  5
F2
330
1F
100
AcDbEntity
  8
0
  6
Continuous
 62
     7
370
    15
100
AcDbSpline
210
0.0
220
0.0
230
1.0
 70
     8
 71
     3
 72
    10
 73
     6
 74
     0
 42
0.00000001
 43
0.00000001
 40
0.0
 40
0.0
 40
0.0
 40
0.0
 40
0.5
 40
0.5
 40
1.0
 40
1.0
 40
1.0
 40
1.0
 10
163.491740291261
 20
129.5302391852049
 30
0.0
 10
162.9041547441704
 20
129.5513047054413
 30
0.0
 10
162.31340835071
 20
129.5620631913135
 30
0.0
 10
161.1293891854111
 20
129.5754279718492
 30
0.0
 10
160.5359751972057
 20
129.5775706145138
 30
0.0
 10
159.941740291261
 20
129.5770895587722
 30
0.0
  0
SPLINE
  5
F3
330
1F
100
AcDbEntity
  8
0
  6
Continuous
 62
     7
370
    15
100
AcDbSpline
210
0.0
220
0.0
230
1.0
 70
     8
 71
     3
 72
    18
 73
    14
 74
     0
 42
0.00000001
 43
0.00000001
 40
0.0
 40
0.0
 40
0.0
 40
0.0
 40
0.2500000000000011
 40
0.2500000000000011
 40
0.5000000000000014
 40
0.5000000000000014
 40
0.7500000000000018
 40
0.7500000000000018
 40
0.8750000000000014
 40
0.8750000000000014
 40
0.9375000000000007
 40
0.9375000000000007
 40
1.0
 40
1.0
 40
1.0
 40
1.0
 10
164.891740291261
 20
130.5512594657401
 30
0.0
 10
164.891740291261
 20
130.4680525568829
 30
0.0
 10
164.8558911913227
 20
130.3793159015694
 30
0.0
 10
164.7310194552888
 20
130.1971907110092
 30
0.0
 10
164.6406190376409
 20
130.1020606623825
 30
0.0
 10
164.4183763828987
 20
129.9128791532582
 30
0.0
 10
164.288611596453
 20
129.8179339851635
 30
0.0
 10
164.0479741391414
 20
129.6796552775835
 30
0.0
 10
163.960206841004
 20
129.6339448442812
 30
0.0
 10
163.8056827537972
 20
129.5761215390597
 30
0.0
 10
163.7490718677425
 20
129.5584067750219
 30
0.0
 10
163.6250278368359
 20
129.5338674717889
 30
0.0
 10
163.5573131618176
 20
129.5278883332506
 30
0.0
 10
163.491740291261
 20
129.5302391852049
 30
0.0
  0
LINE
  5
F4
330
1F
100
AcDbEntity
  8
0
  6
Continuous
 62
     7
370
    15
100
AcDbLine
 10
164.8917394151
 20
130.551259451
 30
0.0
 11
164.8917394151
 21
131.7351976861
 31
0.0
  0
SPLINE
  5
F5
330
1F
100
AcDbEntity
  8
0
  6
Continuous
 62
     7
370
    15
100
AcDbSpline
210
0.0
220
0.0
230
1.0
 70
     8
 71
     3
 72
    24
 73
    20
 74
     0
 42
0.00000001
 43
0.00000001
 40
0.0
 40
0.0
 40
0.0
 40
0.0
 40
0.0010489815523775
 40
0.0637843212772741
 40
0.1272220630088516
 40
0.1903789073370505
 40
0.2526748662763491
 40
0.3146354150030102
 40
0.3770891884518245
 40
0.4393540587943444
 40
0.5008133488401828
 40
0.5621845177353679
 40
0.6248438462901906
 40
0.6874304788646655
 40
0.7496743245911356
 40
0.811984857412469
 40
0.8750960476811308
 40
0.9384412548145236
 40
1.0
 40
1.0
 40
1.0
 40
1.0
 10
177.4606462959879
 20
85.04964359893059
 30
0.0
 10
177.4601996302371
 20
85.04958495396409
 30
0.0
 10
177.4330396943135
 20
85.04601899098341
 30
0.0
 10
177.5286696174453
 20
85.05888360045861
 30
0.0
 10
177.7622227934658
 20
85.08811808279867
 30
0.0
 10
178.1577787457003
 20
85.1347372935401
 30
0.0
 10
178.6848187460703
 20
85.18491809296526
 30
0.0
 10
179.3283491879065
 20
85.22929676640831
 30
0.0
 10
180.0670230221762
 20
85.2562399629191
 30
0.0
 10
180.8645376922951
 20
85.25971171122124
 30
0.0
 10
181.6911167420597
 20
85.23208626492782
 30
0.0
 10
182.5166395634783
 20
85.17360512194917
 30
0.0
 10
183.308766034394
 20
85.08816205855058
 30
0.0
 10
184.0413384132313
 20
84.98642689005807
 30
0.0
 10
184.6769785950521
 20
84.87858323901014
 30
0.0
 10
185.1988895255983
 20
84.77695184373532
 30
0.0
 10
185.5805183632372
 20
84.69446987944282
 30
0.0
 10
185.8313330391706
 20
84.63831777193589
 30
0.0
 10
185.8604543548779
 20
84.63146892102303
 30
0.0
 10
185.8748067562215
 20
84.62809347404693
 30
0.0
  0
SPLINE
  5
F6
330
1F
100
AcDbEntity
  8
0
  6
Continuous
 62
     7
370
    15
100
AcDbSpline
210
0.0
220
0.0
230
1.0
 70
     8
 71
     3
 72
    24
 73
    20
 74
     0
 42
0.00000001
 43
0.00000001
 40
0.0
 40
0.0
 40
0.0
 40
0.0
 40
0.061438429114026
 40
0.1250736777967296
 40
0.1884253375120635
 40
0.2508623992448768
 40
0.3129665476325514
 40
0.3753451442328022
 40
0.4377328732174486
 40
0.499092717251918
 40
0.560580729454827
 40
0.622946985474185
 40
0.6854686070210457
 40
0.7475477863222202
 40
0.8098225081553685
 40
0.873068419947611
 40
0.936404185690527
 40
0.9991757203144552
 40
1.0
 40
1.0
 40
1.0
 40
1.0
 10
185.8747522738509
 20
132.786180310385
 30
0.0
 10
185.8601514653988
 20
132.782812152512
 30
0.0
 10
185.8304277755477
 20
132.7759554034276
 30
0.0
 10
185.5776897755618
 20
132.7196175835315
 30
0.0
 10
185.1946944765407
 20
132.6367597706463
 30
0.0
 10
184.6723385196577
 20
132.5348530224252
 30
0.0
 10
184.037554174956
 20
132.4270144525362
 30
0.0
 10
183.3073304383419
 20
132.3255481993072
 30
0.0
 10
182.5168623434308
 20
132.24048612074
 30
0.0
 10
181.6923786159731
 20
132.1822847637833
 30
0.0
 10
180.865342235493
 20
132.1547003160988
 30
0.0
 10
180.0670177765026
 20
132.158194244633
 30
0.0
 10
179.327194025503
 20
132.1851479033066
 30
0.0
 10
178.6829391540433
 20
132.22950340392
 30
0.0
 10
178.1555322969458
 20
132.2797085876428
 30
0.0
 10
177.7608670566327
 20
132.326316047688
 30
0.0
 10
177.5283383710445
 20
132.3555192245263
 30
0.0
 10
177.4329591423782
 20
132.3682773632435
 30
0.0
 10
177.4598920867051
 20
132.3647375333248
 30
0.0
 10
177.4602411706679
 20
132.3646916527912
 30
0.0
  0
SPLINE
  5
F7
330
1F
100
AcDbEntity
  8
0
  6
Continuous
 62
     7
370
    15
100
AcDbSpline
210
0.0
220
0.0
230
1.0
 70
     8
 71
     3
 72
    11
 73
     7
 74
     0
 42
0.00000001
 43
0.00000001
 40
0.0
 40
0.0
 40
0.0
 40
0.0
 40
0.1399680710339666
 40
0.5866251198705709
 40
0.7926279431161857
 40
1.0
 40
1.0
 40
1.0
 40
1.0
 10
158.7958680857651
 20
89.04488333358023
 30
0.0
 10
158.796411971264
 20
89.04310130336759
 30
0.0
 10
158.7986914689637
 20
89.03563257368246
 30
0.0
 10
158.8088452408562
 20
89.0513657291763
 30
0.0
 10
158.8174300583389
 20
89.08191176321431
 30
0.0
 10
158.8204863940234
 20
89.10532111351631
 30
0.0
 10
158.8220196236603
 20
89.11706455840324
 30
0.0
  0
LINE
  5
F8
330
1F
100
AcDbEntity
  8
0
  6
Continuous
 62
     7
370
    15
100
AcDbLine
 10
158.7917404641
 20
89.0539916684
 30
0.0
 11
158.7917404641
 21
128.397829317
 31
0.0
  0
SPLINE
  5
F9
330
1F
100
AcDbEntity
  8
0
  6
Continuous
 62
     7
370
    15
100
AcDbSpline
210
0.0
220
0.0
230
1.0
 70
     8
 71
     3
 72
    10
 73
     6
 74
     0
 42
0.00000001
 43
0.00000001
 40
0.0
 40
0.0
 40
0.0
 40
0.0
 40
0.5
 40
0.5
 40
1.0
 40
1.0
 40
1.0
 40
1.0
 10
158.8544036659844
 20
128.3817043381579
 30
0.0
 10
158.8454993768756
 20
128.4274458573711
 30
0.0
 10
158.8289839966826
 20
128.44463669684
 30
0.0
 10
158.801876050621
 20
128.4443134199043
 30
0.0
 10
158.791740291261
 20
128.4264358776079
 30
0.0
 10
158.791740291261
 20
128.3978295398553
 30
0.0
  0
SPLINE
  5
FA
330
1F
100
AcDbEntity
  8
0
  6
Continuous
 62
     7
370
    15
100
AcDbSpline
210
0.0
220
0.0
230
1.0
 70
     8
 71
     3
 72
    26
 73
    22
 74
     0
 42
0.00000001
 43
0.00000001
 40
0.0
 40
0.0
 40
0.0
 40
0.0
 40
0.2500000000000135
 40
0.2500000000000135
 40
0.3750000000000184
 40
0.3750000000000184
 40
0.4375000000000184
 40
0.4375000000000184
 40
0.4687500000000177
 40
0.4687500000000177
 40
0.5000000000000169
 40
0.5000000000000169
 40
0.5312500000000162
 40
0.5312500000000162
 40
0.5625000000000154
 40
0.5625000000000154
 40
0.625000000000014
 40
0.625000000000014
 40
0.7500000000000091
 40
0.7500000000000091
 40
1.0
 40
1.0
 40
1.0
 40
1.0
 10
159.6158939373655
 20
129.097271126975
 30
0.0
 10
159.577293414497
 20
128.9794964306195
 30
0.0
 10
159.5309964119427
 20
128.8551067444576
 30
0.0
 10
159.4370570635088
 20
128.6498874121041
 30
0.0
 10
159.4017455965953
 20
128.5783145456577
 30
0.0
 10
159.3355656208496
 20
128.4623613130572
 30
0.0
 10
159.3110272541815
 20
128.421776778247
 30
0.0
 10
159.2676545086276
 20
128.3576350963752
 30
0.0
 10
159.2521461072024
 20
128.3357686710901
 30
0.0
 10
159.2171034626154
 20
128.2901744027469
 30
0.0
 10
159.1975531718956
 20
128.2665041117795
 30
0.0
 10
159.155625891525
 20
128.2218875524396
 30
0.0
 10
159.1329737812934
 20
128.2010075399217
 30
0.0
 10
159.0920000672068
 20
128.1701341261709
 30
0.0
 10
159.0744007673113
 20
128.1602952563385
 30
0.0
 10
159.0297737814552
 20
128.1413056406424
 30
0.0
 10
159.0092145588019
 20
128.1409813159889
 30
0.0
 10
158.9580891193053
 20
128.1502047568652
 30
0.0
 10
158.9371777063167
 20
128.1714516530821
 30
0.0
 10
158.8857277987558
 20
128.2454205319129
 30
0.0
 10
158.8680624994512
 20
128.3115386252276
 30
0.0
 10
158.8544036659844
 20
128.3817043381579
 30
0.0
  0
SPLINE
  5
FB
330
1F
100
AcDbEntity
  8
0
  6
Continuous
 62
     7
370
    15
100
AcDbSpline
210
0.0
220
0.0
230
1.0
 70
     8
 71
     3
 72
    10
 73
     6
 74
     0
 42
0.00000001
 43
0.00000001
 40
0.0
 40
0.0
 40
0.0
 40
0.0
 40
0.5
 40
0.5
 40
1.0
 40
1.0
 40
1.0
 40
1.0
 10
159.9316953608428
 20
129.5671056856648
 30
0.0
 10
159.8641361059245
 20
129.499414292855
 30
0.0
 10
159.8004994505881
 20
129.4247071281014
 30
0.0
 10
159.6902786960162
 20
129.2657409956747
 30
0.0
 10
159.6434624027936
 20
129.1813857296668
 30
0.0
 10
159.6158939373655
 20
129.097271126975
 30
0.0
  0
SPLINE
  5
FC
330
1F
100
AcDbEntity
  8
0
  6
Continuous
 62
     7
370
    15
100
AcDbSpline
210
0.0
220
0.0
230
1.0
 70
     8
 71
     3
 72
     8
 73
     4
 74
     0
 42
0.00000001
 43
0.00000001
 40
0.0
 40
0.0
 40
0.0
 40
0.0
 40
1.0
 40
1.0
 40
1.0
 40
1.0
 10
159.7306498614601
 20
88.26322949041155
 30
0.0
 10
159.76636351983
 20
88.13999798515174
 30
0.0
 10
159.8420315587783
 20
88.01905440820475
 30
0.0
 10
159.9316953608514
 20
87.91233536450149
 30
0.0
  0
SPLINE
  5
FD
330
1F
100
AcDbEntity
  8
0
  6
Continuous
 62
     7
370
    15
100
AcDbSpline
210
0.0
220
0.0
230
1.0
 70
     8
 71
     3
 72
    26
 73
    22
 74
     0
 42
0.00000001
 43
0.00000001
 40
0.0
 40
0.0
 40
0.0
 40
0.0
 40
0.249999999999993
 40
0.249999999999993
 40
0.3749999999999892
 40
0.3749999999999892
 40
0.4374999999999878
 40
0.4374999999999878
 40
0.4687499999999871
 40
0.4687499999999871
 40
0.4999999999999865
 40
0.4999999999999865
 40
0.5312499999999858
 40
0.5312499999999858
 40
0.5624999999999851
 40
0.5624999999999851
 40
0.6249999999999851
 40
0.6249999999999851
 40
0.7499999999999897
 40
0.7499999999999897
 40
1.0
 40
1.0
 40
1.0
 40
1.0
 10
158.8220179068696
 20
89.11706423315027
 30
0.0
 10
158.8327419402621
 20
89.22002527363925
 30
0.0
 10
158.8474749308567
 20
89.31902396312029
 30
0.0
 10
158.8998284901037
 20
89.4376196431854
 30
0.0
 10
158.9215337728233
 20
89.47332994313419
 30
0.0
 10
158.9803892801887
 20
89.49830937595593
 30
0.0
 10
159.0038515140358
 20
89.50269482371951
 30
0.0
 10
159.0599728906964
 20
89.4829419902754
 30
0.0
 10
159.082760200827
 20
89.47128559946502
 30
0.0
 10
159.1380127533582
 20
89.42950525002783
 30
0.0
 10
159.1694189860989
 20
89.3992336626519
 30
0.0
 10
159.2243528067194
 20
89.3375912637379
 30
0.0
 10
159.2487766249189
 20
89.30614961143108
 30
0.0
 10
159.2921917309062
 20
89.24641477401732
 30
0.0
 10
159.3117662934744
 20
89.2172497641447
 30
0.0
 10
159.3653989774224
 20
89.1334144884116
 30
0.0
 10
159.3951763254746
 20
89.08138187043537
 30
0.0
 10
159.4767103854475
 20
88.93031619646797
 30
0.0
 10
159.5199531801215
 20
88.83712515459725
 30
0.0
 10
159.6330077697762
 20
88.57273861560283
 30
0.0
 10
159.6870187672554
 20
88.41378044655298
 30
0.0
 10
159.7306498614594
 20
88.2632294904121
 30
0.0
  0
SPLINE
  5
FE
330
1F
100
AcDbEntity
  8
0
  6
Continuous
 62
     7
370
    15
100
AcDbSpline
210
0.0
220
0.0
230
1.0
 70
     8
 71
     3
 72
     8
 73
     4
 74
     0
 42
0.00000001
 43
0.00000001
 40
0.0
 40
0.0
 40
0.0
 40
0.0
 40
1.0
 40
1.0
 40
1.0
 40
1.0
 10
206.7817402912609
 20
136.5123859845487
 30
0.0
 10
206.2890301944152
 20
137.4004049826751
 30
0.0
 10
205.7949474891362
 20
138.2876676183611
 30
0.0
 10
205.2998074597719
 20
139.1743472665414
 30
0.0
  0
LINE
  5
FF
330
1F
100
AcDbEntity
  8
0
  6
Continuous
 62
     7
370
    15
100
AcDbLine
 10
206.7817403395
 20
129.7572957803
 30
0.0
 11
206.7817403395
 21
136.5123851676
 31
0.0
  0
SPLINE
  5
100
330
1F
100
AcDbEntity
  8
0
  6
Continuous
 62
     7
370
    15
100
AcDbSpline
210
0.0
220
0.0
230
1.0
 70
     8
 71
     3
 72
     8
 73
     4
 74
     0
 42
0.00000001
 43
0.00000001
 40
0.0
 40
0.0
 40
0.0
 40
0.0
 40
1.0
 40
1.0
 40
1.0
 40
1.0
 10
205.2998074597719
 20
133.1658414557446
 30
0.0
 10
205.8068943015312
 20
132.0346911015809
 30
0.0
 10
206.3024621406711
 20
130.8983066908131
 30
0.0
 10
206.7817402912609
 20
129.7572954609605
 30
0.0
  0
SPLINE
  5
101
330
1F
100
AcDbEntity
  8
0
  6
Continuous
 62
     7
370
    15
100
AcDbSpline
210
0.0
220
0.0
230
1.0
 70
     8
 71
     3
 72
     8
 73
     4
 74
     0
 42
0.00000001
 43
0.00000001
 40
0.0
 40
0.0
 40
0.0
 40
0.0
 40
1.0
 40
1.0
 40
1.0
 40
1.0
 10
212.08367312275
 20
139.1743472665414
 30
0.0
 10
211.5885330933857
 20
138.2876676183611
 30
0.0
 10
211.0944503881067
 20
137.4004049826751
 30
0.0
 10
210.601740291261
 20
136.5123859845488
 30
0.0
  0
LINE
  5
102
330
1F
100
AcDbEntity
  8
0
  6
Continuous
 62
     7
370
    15
100
AcDbLine
 10
212.0836722125
 20
133.1658414085
 30
0.0
 11
212.0836722125
 21
139.1743472297
 31
0.0
  0
SPLINE
  5
103
330
1F
100
AcDbEntity
  8
0
  6
Continuous
 62
     7
370
    15
100
AcDbSpline
210
0.0
220
0.0
230
1.0
 70
     8
 71
     3
 72
     8
 73
     4
 74
     0
 42
0.00000001
 43
0.00000001
 40
0.0
 40
0.0
 40
0.0
 40
0.0
 40
1.0
 40
1.0
 40
1.0
 40
1.0
 10
210.601740291261
 20
129.7572954609604
 30
0.0
 10
211.0810184418508
 20
130.8983066908131
 30
0.0
 10
211.5765862809907
 20
132.0346911015809
 30
0.0
 10
212.08367312275
 20
133.1658414557446
 30
0.0
  0
LINE
  5
104
330
1F
100
AcDbEntity
  8
0
  6
Continuous
 62
     7
370
    15
100
AcDbLine
 10
210.6017405559
 20
129.7572957803
 30
0.0
 11
210.6017405559
 21
136.5123851676
 31
0.0
  0
LINE
  5
105
330
1F
100
AcDbEntity
  8
0
  6
Continuous
 62
     7
370
    15
100
AcDbLine
 10
206.7817403395
 20
129.7572957803
 30
0.0
 11
206.7817403395
 21
128.8430182715
 31
0.0
  0
SPLINE
  5
106
330
1F
100
AcDbEntity
  8
0
  6
Continuous
 62
     7
370
    15
100
AcDbSpline
210
0.0
220
0.0
230
1.0
 70
     8
 71
     3
 72
    10
 73
     6
 74
     0
 42
0.00000001
 43
0.00000001
 40
0.0
 40
0.0
 40
0.0
 40
0.0
 40
0.5
 40
0.5
 40
1.0
 40
1.0
 40
1.0
 40
1.0
 10
216.641740291261
 20
138.553592117141
 30
0.0
 10
216.641740291261
 20
138.7139973834918
 30
0.0
 10
216.5795024601541
 20
138.8730591964804
 30
0.0
 10
216.3603675364115
 20
139.1039716621108
 30
0.0
 10
216.2027788414197
 20
139.1743472665414
 30
0.0
 10
216.0417402912609
 20
139.1743472665414
 30
0.0
  0
SPLINE
  5
107
330
1F
100
AcDbEntity
  8
0
  6
Continuous
 62
     7
370
    15
100
AcDbSpline
210
0.0
220
0.0
230
1.0
 70
     8
 71
     3
 72
    12
 73
     8
 74
     0
 42
0.00000001
 43
0.00000001
 40
0.0
 40
0.0
 40
0.0
 40
0.0
 40
0.2499999999999987
 40
0.2499999999999987
 40
0.4999999999999973
 40
0.4999999999999973
 40
1.0
 40
1.0
 40
1.0
 40
1.0
 10
216.0417402912609
 20
133.1658414557446
 30
0.0
 10
216.1329400130866
 20
133.1658414557445
 30
0.0
 10
216.2235350222226
 20
133.1376217571567
 30
0.0
 10
216.3769477486693
 20
133.0431787499086
 30
0.0
 10
216.442156615993
 20
132.9768917732032
 30
0.0
 10
216.5949411453329
 20
132.751266949915
 30
0.0
 10
216.641740291261
 20
132.5688406868824
 30
0.0
 10
216.641740291261
 20
132.3881040546355
 30
0.0
  0
LINE
  5
108
330
1F
100
AcDbEntity
  8
0
  6
Continuous
 62
     7
370
    15
100
AcDbLine
 10
216.6417399813
 20
132.3881032397
 30
0.0
 11
216.6417399813
 21
138.5535927941
 31
0.0
  0
LINE
  5
109
330
1F
100
AcDbEntity
  8
0
  6
Continuous
 62
     7
370
    15
100
AcDbLine
 10
210.6017405559
 20
128.8430182715
 30
0.0
 11
210.6017405559
 21
129.7572957803
 31
0.0
  0
LINE
  5
10A
330
1F
100
AcDbEntity
  8
0
  6
Continuous
 62
     7
370
    15
100
AcDbLine
 10
212.0836722125
 20
133.1658414085
 30
0.0
 11
216.0417410006
 21
133.1658414085
 31
0.0
  0
LINE
  5
10B
330
1F
100
AcDbEntity
  8
0
  6
Continuous
 62
     7
370
    15
100
AcDbLine
 10
216.6417399813
 20
132.3881032397
 30
0.0
 11
216.6417399813
 21
128.5571525325
 31
0.0
  0
LINE
  5
10C
330
1F
100
AcDbEntity
  8
0
  6
Continuous
 62
     7
370
    15
100
AcDbLine
 10
216.0417410006
 20
139.1743472297
 30
0.0
 11
212.0836722125
 21
139.1743472297
 31
0.0
  0
LINE
  5
10D
330
1F
100
AcDbEntity
  8
0
  6
Continuous
 62
     7
370
    15
100
AcDbLine
 10
159.9417394419
 20
87.8946515252
 30
0.0
 11
159.9417394419
 21
87.90052072
 31
0.0
  0
SPLINE
  5
10E
330
1F
100
AcDbEntity
  8
0
  6
Continuous
 62
     7
370
    15
100
AcDbSpline
210
0.0
220
0.0
230
1.0
 70
     8
 71
     3
 72
    10
 73
     6
 74
     0
 42
0.00000001
 43
0.00000001
 40
0.0
 40
0.0
 40
0.0
 40
0.0
 40
0.5
 40
0.5
 40
1.0
 40
1.0
 40
1.0
 40
1.0
 10
231.924413303282
 20
84.70280351988535
 30
0.0
 10
232.1501852155553
 20
84.69329002942385
 30
0.0
 10
232.3657453638915
 20
84.60510718341686
 30
0.0
 10
232.7117730415455
 20
84.31154387380046
 30
0.0
 10
232.8341520724441
 20
84.1141347259926
 30
0.0
 10
232.8903391295711
 20
83.8950089862867
 30
0.0
  0
SPLINE
  5
10F
330
1F
100
AcDbEntity
  8
0
  6
Continuous
 62
     7
370
    15
100
AcDbSpline
210
0.0
220
0.0
230
1.0
 70
     8
 71
     3
 72
    10
 73
     6
 74
     0
 42
0.00000001
 43
0.00000001
 40
0.0
 40
0.0
 40
0.0
 40
0.0
 40
0.5
 40
0.5
 40
1.0
 40
1.0
 40
1.0
 40
1.0
 10
232.8903391295711
 20
135.0504637749437
 30
0.0
 10
232.8341338978252
 20
134.8325021399872
 30
0.0
 10
232.711146849371
 20
134.6376502485789
 30
0.0
 10
232.3681113443612
 20
134.353533954844
 30
0.0
 10
232.1502580851889
 20
134.2684474317323
 30
0.0
 10
231.9244133032829
 20
134.2638933058028
 30
0.0
  0
CIRCLE
  5
110
330
1F
100
AcDbEntity
  8
0
  6
Continuous
 62
     7
370
    15
100
AcDbCircle
 10
249.351649374
 20
134.925877188
 30
0.0
 40
3.974314637048908
  0
LINE
  5
111
330
1F
100
AcDbEntity
  8
0
  6
Continuous
 62
     7
370
    15
100
AcDbLine
 10
247.8208477069
 20
151.5588196446
 30
0.0
 11
247.2195970286
 21
144.6930760969
 31
0.0
  0
LINE
  5
112
330
1F
100
AcDbEntity
  8
0
  6
Continuous
 62
     7
370
    15
100
AcDbLine
 10
247.2195970286
 20
144.6930760969
 30
0.0
 11
245.9229464103
 21
144.5938790668
 31
0.0
  0
ARC
  5
113
330
1F
100
AcDbEntity
  8
0
  6
Continuous
 62
     7
370
    15
100
AcDbCircle
 10
246.1301066091
 20
142.2637112599
 30
0.0
 40
2.339358321490196
100
AcDbArc
 50
95.080441505
 51
274.9099700741
  0
LINE
  5
114
330
1F
100
AcDbEntity
  8
0
  6
Continuous
 62
     7
370
    15
100
AcDbLine
 10
246.3303329815
 20
139.9329374064
 30
0.0
 11
258.5763717462
 21
140.8697883119
 31
0.0
  0
LINE
  5
115
330
1F
100
AcDbEntity
  8
0
  6
Continuous
 62
     7
370
    15
100
AcDbLine
 10
258.5763717462
 20
140.8697883119
 30
0.0
 11
256.0812989642
 21
112.3783974428
 31
0.0
  0
LINE
  5
116
330
1F
100
AcDbEntity
  8
0
  6
Continuous
 62
     7
370
    15
100
AcDbLine
 10
256.0812989642
 20
112.3783974428
 30
0.0
 11
235.7143024374
 21
83.5150735904
 31
0.0
  0
ELLIPSE
  5
117
330
1F
100
AcDbEntity
  8
0
  6
Continuous
 62
     7
370
    15
100
AcDbEllipse
 10
302.5751939128
 20
108.7071517934
 30
0.0
 11
256.8876671519965
 21
-2.853440057848502
 31
0.0
210
0.0
220
0.0
230
1.0
 40
0.1045157088
 41
4.43912260709055
 42
4.450245290264676
  0
LINE
  5
118
330
1F
100
AcDbEntity
  8
0
  6
Continuous
 62
     7
370
    15
100
AcDbLine
 10
232.9596886803
 20
83.6246734936
 30
0.0
 11
232.8903386761
 21
83.8950084974
 31
0.0
  0
SPLINE
  5
119
330
1F
100
AcDbEntity
  8
0
  6
Continuous
 62
     7
370
    15
100
AcDbSpline
210
0.0
220
0.0
230
1.0
 70
     8
 71
     3
 72
     8
 73
     4
 74
     0
 42
0.00000001
 43
0.00000001
 40
0.0
 40
0.0
 40
0.0
 40
0.0
 40
1.0
 40
1.0
 40
1.0
 40
1.0
 10
232.8903391295711
 20
135.0504637749437
 30
0.0
 10
234.2397797135836
 20
140.2835402489954
 30
0.0
 10
235.6196285245499
 20
145.5083101050153
 30
0.0
 10
237.0055408433514
 20
150.7314235920664
 30
0.0
  0
LINE
  5
11A
330
1F
100
AcDbEntity
  8
0
  6
Continuous
 62
     7
370
    15
100
AcDbLine
 10
237.005540209
 20
150.7314252187
 30
0.0
 11
247.8208477069
 21
151.5588196446
 31
0.0
  0
ELLIPSE
  5
11B
330
1F
100
AcDbEntity
  8
0
  6
Continuous
 62
     7
370
    15
100
AcDbEllipse
 10
253.3302704809
 20
108.7071517934
 30
0.0
 11
19.21239144024977
 21
26.99711638407726
 31
0.0
210
0.0
220
0.0
230
1.0
 40
0.0205386817
 41
3.156207884742591
 42
3.52423226222757
  0
LINE
  5
11C
330
1F
100
AcDbEntity
  8
0
  6
Continuous
 62
     7
370
    15
100
AcDbLine
 10
232.9596886803
 20
83.6246734936
 30
0.0
 11
232.9596886803
 21
81.707151093
 31
0.0
  0
LINE
  5
11D
330
1F
100
AcDbEntity
  8
0
  6
Continuous
 62
     7
370
    15
100
AcDbLine
 10
236.9645396639
 20
150.635607027
 30
0.0
 11
236.9716437925
 21
150.6781461169
 31
0.0
  0
LINE
  5
11E
330
1F
100
AcDbEntity
  8
0
  6
Continuous
 62
     7
370
    15
100
AcDbLine
 10
237.0031709243
 20
150.7276999284
 30
0.0
 11
237.005540209
 21
150.7314252187
 31
0.0
  0
ARC
  5
11F
330
1F
100
AcDbEntity
  8
0
  6
Continuous
 62
     7
370
    15
100
AcDbCircle
 10
245.6057239709
 20
141.8013163279
 30
0.0
 40
2.310537963688557
100
AcDbArc
 50
94.3203966668
 51
126.1609402297
  0
ELLIPSE
  5
120
330
1F
100
AcDbEntity
  8
0
  6
Continuous
 62
     7
370
    15
100
AcDbEllipse
 10
244.0974631513
 20
113.1632224955
 30
0.0
 11
3.768286501278368
 21
38.39421154640817
 31
0.0
210
0.0
220
0.0
230
0.9999999999999999
 40
0.0930513613
 41
0.0124863589205635
 42
0.0163728602259258
  0
LINE
  5
121
330
1F
100
AcDbEntity
  8
0
  6
Continuous
 62
     7
370
    15
100
AcDbLine
 10
246.7283131947
 20
144.2044856478
 30
0.0
 11
247.2195970286
 21
144.6930760969
 31
0.0
  0
LINE
  5
122
330
1F
100
AcDbEntity
  8
0
  6
Continuous
 62
     7
370
    15
100
AcDbLine
 10
246.7283131947
 20
144.2044856478
 30
0.0
 11
246.7513690163
 21
144.2062477101
 31
0.0
  0
LINE
  5
123
330
1F
100
AcDbEntity
  8
0
  6
Continuous
 62
     7
370
    15
100
AcDbLine
 10
245.1243484785
 20
143.7996583511
 30
0.0
 11
246.726495253
 21
143.9222241272
 31
0.0
  0
ARC
  5
124
330
1F
100
AcDbEntity
  8
0
  6
Continuous
 62
     7
370
    15
100
AcDbCircle
 10
245.5867686434
 20
142.0480753785
 30
0.0
 40
2.06305215733192
100
AcDbArc
 50
94.3117264457
 51
134.808766068
  0
LINE
  5
125
330
1F
100
AcDbEntity
  8
0
  6
Continuous
 62
     7
370
    15
100
AcDbLine
 10
246.3817047347
 20
139.9850206901
 30
0.0
 11
245.8568634857
 21
139.9448695113
 31
0.0
  0
ARC
  5
126
330
1F
100
AcDbEntity
  8
0
  6
Continuous
 62
     7
370
    15
100
AcDbCircle
 10
245.2799694069
 20
141.7405380534
 30
0.0
 40
2.064992560199191
100
AcDbArc
 50
94.3219932795
 51
125.3154200989
  0
LWPOLYLINE
  5
127
330
1F
100
AcDbEntity
  8
0
  6
Continuous
 62
     7
370
    15
100
AcDbPolyline
 90
        3
 70
   128
 43
0.0
 10
255.4883445074
 20
145.0342977871
 10
255.4976577331
 20
145.1316247214
 10
255.5077830721
 20
145.3737127115
  0
LINE
  5
128
330
1F
100
AcDbEntity
  8
0
  6
HIDDEN
 62
     7
370
     0
100
AcDbLine
 10
195.6417402644
 20
77.2071512867
 30
0.0
 11
195.6417402644
 21
77.223028474
 31
0.0
  0
SPLINE
  5
129
330
1F
100
AcDbEntity
  8
0
  6
HIDDEN
 62
     7
370
     0
100
AcDbSpline
210
0.0
220
0.0
230
1.0
 70
     8
 71
     3
 72
    30
 73
    26
 74
     0
 42
0.00000001
 43
0.00000001
 40
0.0
 40
0.0
 40
0.0
 40
0.0
 40
0.1249999999999996
 40
0.1249999999999996
 40
0.1874999999999994
 40
0.1874999999999994
 40
0.2499999999999992
 40
0.2499999999999992
 40
0.3749999999999991
 40
0.3749999999999991
 40
0.4374999999999989
 40
0.4374999999999989
 40
0.4999999999999989
 40
0.4999999999999989
 40
0.6249999999999989
 40
0.6249999999999989
 40
0.6874999999999992
 40
0.6874999999999992
 40
0.7499999999999994
 40
0.7499999999999994
 40
0.8124999999999997
 40
0.8124999999999997
 40
0.8749999999999999
 40
0.8749999999999999
 40
1.0
 40
1.0
 40
1.0
 40
1.0
 10
195.641740291261
 20
77.22302881051479
 30
0.0
 10
195.641740291261
 20
77.2399077285234
 30
0.0
 10
195.6941578572394
 20
77.26992529334811
 30
0.0
 10
195.8475373371417
 20
77.33273568262122
 30
0.0
 10
195.9112184578095
 20
77.35663958984811
 30
0.0
 10
196.0641733252611
 20
77.41007488229052
 30
0.0
 10
196.1537456240303
 20
77.43968175045806
 30
0.0
 10
196.4549696568835
 20
77.53413144917249
 30
0.0
 10
196.7002846529677
 20
77.60515884300172
 30
0.0
 10
197.1343816340379
 20
77.71917312970749
 30
0.0
 10
197.2910513231416
 20
77.75862838084807
 30
0.0
 10
197.6230444869839
 20
77.8381498236187
 30
0.0
 10
197.7977500159764
 20
77.8780859661195
 30
0.0
 10
198.347419698568
 20
77.99702236894765
 30
0.0
 10
198.7476706612792
 20
78.07518713283152
 30
0.0
 10
199.4012575279167
 20
78.1848965731004
 30
0.0
 10
199.6269336475938
 20
78.21997740980879
 30
0.0
 10
200.0866454687251
 20
78.28521768918841
 30
0.0
 10
200.3216988027682
 20
78.31555250523317
 30
0.0
 10
200.8022060850672
 20
78.37089088445501
 30
0.0
 10
201.0476596129814
 20
78.3958955610151
 30
0.0
 10
201.5492750377887
 20
78.43977536990577
 30
0.0
 10
201.8067674203892
 20
78.45871905466808
 30
0.0
 10
202.5848439368254
 20
78.50443878193828
 30
0.0
 10
203.1100062140702
 20
78.52023409712997
 30
0.0
 10
203.641740291261
 20
78.52023409712997
 30
0.0
  0
LINE
  5
12A
330
1F
100
AcDbEntity
  8
0
  6
HIDDEN
 62
     7
370
     0
100
AcDbLine
 10
203.6417406444
 20
78.5202341606
 30
0.0
 11
205.2998077516
 21
78.5202341606
 31
0.0
  0
LINE
  5
12B
330
1F
100
AcDbEntity
  8
0
  6
HIDDEN
 62
     7
370
     0
100
AcDbLine
 10
205.2998077516
 20
139.1743472297
 30
0.0
 11
205.2998077516
 21
78.5202341606
 31
0.0
  0
LINE
  5
12C
330
1F
100
AcDbEntity
  8
0
  6
HIDDEN
 62
     7
370
     0
100
AcDbLine
 10
203.6417406444
 20
139.1743472297
 30
0.0
 11
205.2998077516
 21
139.1743472297
 31
0.0
  0
SPLINE
  5
12D
330
1F
100
AcDbEntity
  8
0
  6
HIDDEN
 62
     7
370
     0
100
AcDbSpline
210
0.0
220
0.0
230
1.0
 70
     8
 71
     3
 72
    24
 73
    20
 74
     0
 42
0.00000001
 43
0.00000001
 40
0.0
 40
0.0
 40
0.0
 40
0.0
 40
0.0096786171998715
 40
0.0638613461220564
 40
0.1150897485855916
 40
0.2187147480546104
 40
0.2715873545955751
 40
0.3233204821111184
 40
0.4279239526007753
 40
0.4812566773981464
 40
0.5874625917636818
 40
0.6419371332297841
 40
0.6968114308441096
 40
0.7499884772679081
 40
0.8035487332391421
 40
0.858337437459531
 40
0.9135595301520648
 40
0.9566726927585254
 40
1.0
 40
1.0
 40
1.0
 40
1.0
 10
195.645944720202
 20
140.2060868669913
 30
0.0
 10
195.6446211049009
 20
140.2064214727197
 30
0.0
 10
195.6358876409018
 20
140.2086292645762
 30
0.0
 10
195.6748543280542
 20
140.1987361707759
 30
0.0
 10
195.7936864303657
 20
140.168782371534
 30
0.0
 10
196.0236645692629
 20
140.1117286472159
 30
0.0
 10
196.3521532021222
 20
140.0338923964232
 30
0.0
 10
196.7473928776552
 20
139.9435129367751
 30
0.0
 10
197.2376371965674
 20
139.8380611846398
 30
0.0
 10
197.9598088389793
 20
139.6971749825107
 30
0.0
 10
198.6273907001814
 20
139.5806478199705
 30
0.0
 10
199.3675636086146
 20
139.4709114619058
 30
0.0
 10
199.9574971082908
 20
139.3943518288218
 30
0.0
 10
200.5711510761548
 20
139.3266176199527
 30
0.0
 10
201.2071407289914
 20
139.2691880756857
 30
0.0
 10
201.869889488487
 20
139.2232893199333
 30
0.0
 10
202.5034281814943
 20
139.193681873433
 30
0.0
 10
203.0960957798398
 20
139.1771800192665
 30
0.0
 10
203.4595588792485
 20
139.1752930511491
 30
0.0
 10
203.6417406444185
 20
139.1743472297356
 30
0.0
  0
SPLINE
  5
12E
330
1F
100
AcDbEntity
  8
0
  6
HIDDEN
 62
     7
370
     0
100
AcDbSpline
210
0.0
220
0.0
230
1.0
 70
     8
 71
     3
 72
    76
 73
    72
 74
     0
 42
0.00000001
 43
0.00000001
 40
-0.03125
 40
-0.03125
 40
0.0
 40
0.0
 40
0.0312499999999999
 40
0.0312499999999999
 40
0.0468749999999999
 40
0.0468749999999999
 40
0.0624999999999998
 40
0.0624999999999998
 40
0.0937499999999998
 40
0.0937499999999998
 40
0.1249999999999998
 40
0.1249999999999998
 40
0.1562499999999997
 40
0.1562499999999997
 40
0.1874999999999996
 40
0.1874999999999996
 40
0.2187499999999996
 40
0.2187499999999996
 40
0.2499999999999996
 40
0.2499999999999996
 40
0.2812499999999995
 40
0.2812499999999995
 40
0.3124999999999994
 40
0.3124999999999994
 40
0.3281249999999994
 40
0.3281249999999994
 40
0.3437499999999993
 40
0.3437499999999993
 40
0.3749999999999993
 40
0.3749999999999993
 40
0.4062499999999993
 40
0.4062499999999993
 40
0.4374999999999993
 40
0.4374999999999993
 40
0.4687499999999992
 40
0.4687499999999992
 40
0.4999999999999992
 40
0.4999999999999992
 40
0.5312499999999992
 40
0.5312499999999992
 40
0.5624999999999993
 40
0.5624999999999993
 40
0.5937499999999993
 40
0.5937499999999993
 40
0.6249999999999993
 40
0.6249999999999993
 40
0.6562499999999994
 40
0.6562499999999994
 40
0.6874999999999994
 40
0.6874999999999994
 40
0.7031249999999996
 40
0.7031249999999996
 40
0.7187499999999996
 40
0.7187499999999996
 40
0.7499999999999997
 40
0.7499999999999997
 40
0.7812499999999998
 40
0.7812499999999998
 40
0.8124999999999998
 40
0.8124999999999998
 40
0.8437499999999998
 40
0.8437499999999998
 40
0.8749999999999999
 40
0.8749999999999999
 40
0.9062499999999999
 40
0.9062499999999999
 40
0.9374999999999999
 40
0.9374999999999999
 40
0.96875
 40
0.96875
 40
1.0
 40
1.0
 40
1.03125
 40
1.03125
 10
192.691740291261
 20
109.0380357891712
 30
0.0
 10
192.691740291261
 20
108.3762677975831
 30
0.0
 10
192.7242607690454
 20
108.0510166294872
 30
0.0
 10
192.8197540133274
 20
107.5712199085981
 30
0.0
 10
192.8594288487386
 20
107.4126442248045
 30
0.0
 10
192.9548154620742
 20
107.0982618390114
 30
0.0
 10
193.0107597034848
 20
106.9421422154273
 30
0.0
 10
193.1991227269345
 20
106.4882016555253
 30
0.0
 10
193.3527350033529
 20
106.2012214095183
 30
0.0
 10
193.715562797137
 20
105.658108252779
 30
0.0
 10
193.9263978987195
 20
105.401368961235
 30
0.0
 10
194.3868974687369
 20
104.9409843270041
 30
0.0
 10
194.6382604096547
 20
104.7342075102502
 30
0.0
 10
195.1846071040082
 20
104.3686833025868
 30
0.0
 10
195.4748217437261
 20
104.213683743872
 30
0.0
 10
196.0762085600278
 20
103.9641527227778
 30
0.0
 10
196.3918382531182
 20
103.8678744490891
 30
0.0
 10
197.0374786543978
 20
103.7392254418461
 30
0.0
 10
197.3622344102111
 20
103.7073391827296
 30
0.0
 10
198.0155344406025
 20
103.7069660352188
 30
0.0
 10
198.3474067814332
 20
103.7395455214648
 30
0.0
 10
198.9890580150368
 20
103.8673194261712
 30
0.0
 10
199.30098293197
 20
103.9618518704683
 30
0.0
 10
199.7554725324869
 20
104.149971465007
 30
0.0
 10
199.9053358403208
 20
104.2208544462278
 30
0.0
 10
200.1944210742435
 20
104.3754710525622
 30
0.0
 10
200.3342819885515
 20
104.4593936513001
 30
0.0
 10
200.7401584322557
 20
104.7305891747758
 30
0.0
 10
200.9931965787453
 20
104.9376891802171
 30
0.0
 10
201.4590961349087
 20
105.4032916332743
 30
0.0
 10
201.6656022094045
 20
105.6552104856616
 30
0.0
 10
202.0277077728042
 20
106.1961141016625
 30
0.0
 10
202.1845668866194
 20
106.4886569444139
 30
0.0
 10
202.435517003482
 20
107.0935246011714
 30
0.0
 10
202.530328102813
 20
107.4051714326181
 30
0.0
 10
202.6587499656061
 20
108.0469247378397
 30
0.0
 10
202.6916132520973
 20
108.378652556719
 30
0.0
 10
202.6918665782058
 20
109.0317723219799
 30
0.0
 10
202.6603105776366
 20
109.356705528323
 30
0.0
 10
202.5320693562122
 20
110.003232534776
 30
0.0
 10
202.4362633075538
 20
110.318240488637
 30
0.0
 10
202.1871297964597
 20
110.9201991567826
 30
0.0
 10
202.0316696747649
 20
111.2116753270581
 30
0.0
 10
201.6672154204051
 20
111.7572702635548
 30
0.0
 10
201.4607825129694
 20
112.00874737856
 30
0.0
 10
201.0003134304515
 20
112.4700704026147
 30
0.0
 10
200.7435164223956
 20
112.6811937035611
 30
0.0
 10
200.2014712085611
 20
113.0439244852771
 30
0.0
 10
199.9147016286256
 20
113.1978133886627
 30
0.0
 10
199.4603944527399
 20
113.3867631153547
 30
0.0
 10
199.3042541519665
 20
113.4428359113745
 30
0.0
 10
198.9904081906204
 20
113.5383386769072
 30
0.0
 10
198.8320214029266
 20
113.5781193199347
 30
0.0
 10
198.3525451629832
 20
113.67400185706
 30
0.0
 10
198.0263052185563
 20
113.7068773050595
 30
0.0
 10
197.3654306212783
 20
113.7074228742306
 30
0.0
 10
197.0402942739334
 20
113.6752563556171
 30
0.0
 10
196.400211773447
 20
113.5484738176299
 30
0.0
 10
196.0818908493792
 20
113.4522060638386
 30
0.0
 10
195.47697457054
 20
113.2018117424135
 30
0.0
 10
195.1898256568885
 20
113.0484975806919
 30
0.0
 10
194.6458741032155
 20
112.6857896566721
 30
0.0
 10
194.3892281534889
 20
112.4753505839383
 30
0.0
 10
193.928637600076
 20
112.0154695956619
 30
0.0
 10
193.7214887140852
 20
111.7641877959691
 30
0.0
 10
193.3549574706718
 20
111.2172676222291
 30
0.0
 10
193.2002732831673
 20
110.9281274706128
 30
0.0
 10
192.9501736298291
 20
110.3268907966936
 30
0.0
 10
192.853486855336
 20
110.0109151030528
 30
0.0
 10
192.7242652803797
 20
109.3649413449562
 30
0.0
 10
192.691740291261
 20
109.0380357891712
 30
0.0
 10
192.691740291261
 20
108.3762677975831
 30
0.0
  0
LINE
  5
12F
330
1F
100
AcDbEntity
  8
0
  6
HIDDEN
 62
     7
370
     0
100
AcDbLine
 10
190.6917402913
 20
77.5071526398
 30
0.0
 11
190.6917402913
 21
139.907150947
 31
0.0
  0
SPLINE
  5
130
330
1F
100
AcDbEntity
  8
0
  6
HIDDEN
 62
     7
370
     0
100
AcDbSpline
210
0.0
220
0.0
230
1.0
 70
     8
 71
     3
 72
    10
 73
     6
 74
     0
 42
0.00000001
 43
0.00000001
 40
0.0
 40
0.0
 40
0.0
 40
0.0
 40
0.5
 40
0.5
 40
1.0
 40
1.0
 40
1.0
 40
1.0
 10
206.8794150935933
 20
82.30715179337716
 30
0.0
 10
206.8472599059713
 20
82.24486574786107
 30
0.0
 10
206.822603674777
 20
82.17833532299183
 30
0.0
 10
206.7897909178515
 20
82.04147669262942
 30
0.0
 10
206.7817402912609
 20
81.9724190974511
 30
0.0
 10
206.7817402912609
 20
81.9027561650478
 30
0.0
  0
SPLINE
  5
131
330
1F
100
AcDbEntity
  8
0
  6
HIDDEN
 62
     7
370
     0
100
AcDbSpline
210
0.0
220
0.0
230
1.0
 70
    24
 71
     3
 72
    10
 73
     6
 74
     0
 42
0.00000001
 43
0.00000001
 40
0.0
 40
0.0
 40
0.0
 40
0.0
 40
0.5
 40
0.5
 40
1.0
 40
1.0
 40
1.0
 40
1.0
 10
206.781740291261
 20
128.5571517933772
 30
0.0
 10
206.781740291261
 20
128.5571517933772
 30
0.0
 10
206.7839621497457
 20
128.5571517933772
 30
0.0
 10
206.7926988214693
 20
128.5571517933772
 30
0.0
 10
206.7992103352636
 20
128.5571517933772
 30
0.0
 10
206.8078879144211
 20
128.5571517933772
 30
0.0
  0
LINE
  5
132
330
1F
100
AcDbEntity
  8
0
  6
HIDDEN
 62
     7
370
     0
100
AcDbLine
 10
206.7817403395
 20
128.8430182715
 30
0.0
 11
206.7817403395
 21
135.8268050928
 31
0.0
  0
LINE
  5
133
330
1F
100
AcDbEntity
  8
0
  6
HIDDEN
 62
     7
370
     0
100
AcDbLine
 10
206.7817403395
 20
81.9027567734
 30
0.0
 11
206.7817403395
 21
128.5571525325
 31
0.0
  0
SPLINE
  5
134
330
1F
100
AcDbEntity
  8
0
  6
HIDDEN
 62
     7
370
     0
100
AcDbSpline
210
0.0
220
0.0
230
1.0
 70
     8
 71
     3
 72
    10
 73
     6
 74
     0
 42
0.00000001
 43
0.00000001
 40
0.0
 40
0.0
 40
0.0
 40
0.0
 40
0.5
 40
0.5
 40
1.0
 40
1.0
 40
1.0
 40
1.0
 10
210.6017402912609
 20
81.90275616504778
 30
0.0
 10
210.601740291261
 20
81.97299252541853
 30
0.0
 10
210.5934576791705
 20
82.04298662691603
 30
0.0
 10
210.5603577361119
 20
82.17994589147497
 30
0.0
 10
210.5360203441534
 20
82.24525380073023
 30
0.0
 10
210.5040654889287
 20
82.30715179337712
 30
0.0
  0
LINE
  5
135
330
1F
100
AcDbEntity
  8
0
  6
HIDDEN
 62
     7
370
     0
100
AcDbLine
 10
210.6017405559
 20
128.8430182715
 30
0.0
 11
210.6017405559
 21
135.8268050928
 31
0.0
  0
SPLINE
  5
136
330
1F
100
AcDbEntity
  8
0
  6
HIDDEN
 62
     7
370
     0
100
AcDbSpline
210
0.0
220
0.0
230
1.0
 70
    24
 71
     3
 72
    10
 73
     6
 74
     0
 42
0.00000001
 43
0.00000001
 40
0.0
 40
0.0
 40
0.0
 40
0.0
 40
0.5
 40
0.5
 40
1.0
 40
1.0
 40
1.0
 40
1.0
 10
210.5755926681009
 20
128.5571517933772
 30
0.0
 10
210.5842704430085
 20
128.5571517933772
 30
0.0
 10
210.5908234670154
 20
128.5571517933772
 30
0.0
 10
210.5995580765124
 20
128.5571517933772
 30
0.0
 10
210.601740291261
 20
128.5571517933772
 30
0.0
 10
210.601740291261
 20
128.5571517933772
 30
0.0
  0
LINE
  5
137
330
1F
100
AcDbEntity
  8
0
  6
HIDDEN
 62
     7
370
     0
100
AcDbLine
 10
210.6017405559
 20
81.9027567734
 30
0.0
 11
210.6017405559
 21
128.5571525325
 31
0.0
  0
SPLINE
  5
138
330
1F
100
AcDbEntity
  8
0
  6
HIDDEN
 62
     7
370
     0
100
AcDbSpline
210
0.0
220
0.0
230
1.0
 70
    24
 71
     3
 72
    18
 73
    14
 74
     0
 42
0.00000001
 43
0.00000001
 40
0.0
 40
0.0
 40
0.0
 40
0.0
 40
0.5
 40
0.5
 40
0.75
 40
0.75
 40
0.875
 40
0.875
 40
0.9375
 40
0.9375
 40
0.96875
 40
0.96875
 40
1.0
 40
1.0
 40
1.0
 40
1.0
 10
216.641740291261
 20
135.1071517933771
 30
0.0
 10
216.641740291261
 20
135.1071517933771
 30
0.0
 10
216.6975894160871
 20
135.1071517933771
 30
0.0
 10
216.7733068003118
 20
135.1071517933771
 30
0.0
 10
216.7974961492245
 20
135.1071517933771
 30
0.0
 10
216.8232399194063
 20
135.1071517933771
 30
0.0
 10
216.8300855685512
 20
135.1071517933771
 30
0.0
 10
216.8370253924076
 20
135.1071517933771
 30
0.0
 10
216.8387878365951
 20
135.1071517933771
 30
0.0
 10
216.8405560138259
 20
135.1071517933771
 30
0.0
 10
216.8409998107354
 20
135.1071517933771
 30
0.0
 10
216.8415919851908
 20
135.1071517933771
 30
0.0
 10
216.8417403562819
 20
135.1071517933771
 30
0.0
 10
216.841740291238
 20
135.1071517933771
 30
0.0
  0
SPLINE
  5
139
330
1F
100
AcDbEntity
  8
0
  6
HIDDEN
 62
     7
370
     0
100
AcDbSpline
210
0.0
220
0.0
230
1.0
 70
    24
 71
     3
 72
    10
 73
     6
 74
     0
 42
0.00000001
 43
0.00000001
 40
0.0
 40
0.0
 40
0.0
 40
0.0
 40
0.0394197779913515
 40
0.5196780706301319
 40
1.0
 40
1.0
 40
1.0
 40
1.0
 10
216.7941080798142
 20
135.107151650326
 30
0.0
 10
216.7928855675161
 20
135.107151650326
 30
0.0
 10
216.7767689665415
 20
135.107151650326
 30
0.0
 10
216.6778536005826
 20
135.107151650326
 30
0.0
 10
216.6537783860521
 20
135.107151650326
 30
0.0
 10
216.6417399813168
 20
135.107151650326
 30
0.0
  0
LINE
  5
13A
330
1F
100
AcDbEntity
  8
0
  6
HIDDEN
 62
     7
370
     0
100
AcDbLine
 10
216.6417399813
 20
135.1071516503
 30
0.0
 11
216.6417399813
 21
82.3071519364
 31
0.0
  0
SPLINE
  5
13B
330
1F
100
AcDbEntity
  8
0
  6
HIDDEN
 62
     7
370
     0
100
AcDbSpline
210
0.0
220
0.0
230
1.0
 70
    24
 71
     3
 72
    18
 73
    14
 74
     0
 42
0.00000001
 43
0.00000001
 40
0.0
 40
0.0
 40
0.0
 40
0.0
 40
0.5000000000000002
 40
0.5000000000000002
 40
0.7500000000000002
 40
0.7500000000000002
 40
0.8750000000000001
 40
0.8750000000000001
 40
0.9375000000000001
 40
0.9375000000000001
 40
0.9687500000000001
 40
0.9687500000000001
 40
1.0
 40
1.0
 40
1.0
 40
1.0
 10
216.641740291261
 20
82.3071517933771
 30
0.0
 10
216.641740291261
 20
82.3071517933771
 30
0.0
 10
216.6975894381147
 20
82.3071517933771
 30
0.0
 10
216.7733068354755
 20
82.3071517933771
 30
0.0
 10
216.7974961855026
 20
82.3071517933771
 30
0.0
 10
216.8232399483681
 20
82.3071517933771
 30
0.0
 10
216.8300855936132
 20
82.3071517933771
 30
0.0
 10
216.8370254095032
 20
82.3071517933771
 30
0.0
 10
216.8387878506879
 20
82.3071517933771
 30
0.0
 10
216.8405560229547
 20
82.30715179337712
 30
0.0
 10
216.8409998181332
 20
82.3071517933771
 30
0.0
 10
216.8415919889885
 20
82.3071517933771
 30
0.0
 10
216.8417403580787
 20
82.3071517933771
 30
0.0
 10
216.8417402912367
 20
82.3071517933771
 30
0.0
  0
SPLINE
  5
13C
330
1F
100
AcDbEntity
  8
0
  6
HIDDEN
 62
     7
370
     0
100
AcDbSpline
210
0.0
220
0.0
230
1.0
 70
    24
 71
     3
 72
    10
 73
     6
 74
     0
 42
0.00000001
 43
0.00000001
 40
0.0
 40
0.0
 40
0.0
 40
0.0
 40
0.0042780176698415
 40
0.5021060264298204
 40
0.9999999999999999
 40
0.9999999999999999
 40
0.9999999999999999
 40
0.9999999999999999
 10
216.7906435598366
 20
82.3071519364283
 30
0.0
 10
216.7905090098118
 20
82.3071519364283
 30
0.0
 10
216.774717027745
 20
82.30715193642817
 30
0.0
 10
216.6772405358464
 20
82.30715193642833
 30
0.0
 10
216.6535740221148
 20
82.3071519364283
 30
0.0
 10
216.6417399813168
 20
82.3071519364283
 30
0.0
  0
LINE
  5
13D
330
1F
100
AcDbEntity
  8
0
  6
HIDDEN
 62
     7
370
     0
100
AcDbLine
 10
216.6417399813
 20
82.3071519364
 30
0.0
 11
216.6417399813
 21
135.1071516503
 31
0.0
  0
SPLINE
  5
13E
330
1F
100
AcDbEntity
  8
0
  6
HIDDEN
 62
     7
370
     0
100
AcDbSpline
210
0.0
220
0.0
230
1.0
 70
     8
 71
     3
 72
    70
 73
    66
 74
     0
 42
0.00000001
 43
0.00000001
 40
-0.0312500000000003
 40
-0.0312500000000003
 40
0.0
 40
0.0
 40
0.0312499999999998
 40
0.0312499999999998
 40
0.0624999999999997
 40
0.0624999999999997
 40
0.0937499999999995
 40
0.0937499999999995
 40
0.1249999999999993
 40
0.1249999999999993
 40
0.1562499999999991
 40
0.1562499999999991
 40
0.1874999999999989
 40
0.1874999999999989
 40
0.2187499999999988
 40
0.2187499999999988
 40
0.2499999999999986
 40
0.2499999999999986
 40
0.2812499999999984
 40
0.2812499999999984
 40
0.3124999999999983
 40
0.3124999999999983
 40
0.3437499999999981
 40
0.3437499999999981
 40
0.3749999999999979
 40
0.3749999999999979
 40
0.4062499999999977
 40
0.4062499999999977
 40
0.4374999999999976
 40
0.4374999999999976
 40
0.4687499999999974
 40
0.4687499999999974
 40
0.4999999999999972
 40
0.4999999999999972
 40
0.531249999999997
 40
0.531249999999997
 40
0.5624999999999969
 40
0.5624999999999969
 40
0.5937499999999967
 40
0.5937499999999967
 40
0.6249999999999966
 40
0.6249999999999966
 40
0.6562499999999963
 40
0.6562499999999963
 40
0.6874999999999962
 40
0.6874999999999962
 40
0.7187499999999966
 40
0.7187499999999966
 40
0.7499999999999969
 40
0.7499999999999969
 40
0.7812499999999973
 40
0.7812499999999973
 40
0.8124999999999977
 40
0.8124999999999977
 40
0.8437499999999981
 40
0.8437499999999981
 40
0.8749999999999984
 40
0.8749999999999984
 40
0.9062499999999989
 40
0.9062499999999989
 40
0.9374999999999992
 40
0.9374999999999992
 40
0.9687499999999997
 40
0.9687499999999997
 40
1.0
 40
1.0
 40
1.03125
 40
1.03125
 10
217.6917402912609
 20
93.63166826580185
 30
0.0
 10
217.6917402912609
 20
93.95666063069797
 30
0.0
 10
217.7112218581401
 20
94.11771554189924
 30
0.0
 10
217.7875237037191
 20
94.43692519327927
 30
0.0
 10
217.8452820689946
 20
94.59677738862678
 30
0.0
 10
217.9959194203209
 20
94.90353125737576
 30
0.0
 10
218.0880763388815
 20
95.05008987348337
 30
0.0
 10
218.305775576513
 20
95.32912461502765
 30
0.0
 10
218.4323798982249
 20
95.46203521213486
 30
0.0
 10
218.708914161962
 20
95.70149339733116
 30
0.0
 10
218.8598328872502
 20
95.80963031865782
 30
0.0
 10
219.1876999549773
 20
96.0014021223019
 30
0.0
 10
219.3620663319118
 20
96.08320463162545
 30
0.0
 10
219.7229718282501
 20
96.21500992282891
 30
0.0
 10
219.9121835385226
 20
96.2659840300494
 30
0.0
 10
220.2995016188567
 20
96.33420225142595
 30
0.0
 10
220.4942576245286
 20
96.35112991525376
 30
0.0
 10
220.8859111553429
 20
96.35132140285606
 30
0.0
 10
221.0848458968109
 20
96.33402838252643
 30
0.0
 10
221.4697245371319
 20
96.26628213265839
 30
0.0
 10
221.6568085451553
 20
96.21619626820693
 30
0.0
 10
222.0202176148255
 20
96.08380444053627
 30
0.0
 10
222.1956767434313
 20
96.00133427007843
 30
0.0
 10
222.5205827820238
 20
95.81155037468552
 30
0.0
 10
222.6721525085344
 20
95.70351265602365
 30
0.0
 10
222.9522397815014
 20
95.46111952611636
 30
0.0
 10
223.0762595645921
 20
95.3306864472755
 30
0.0
 10
223.2935541536144
 20
95.05274768852861
 30
0.0
 10
223.3875854674816
 20
94.90348847402056
 30
0.0
 10
223.5382107414922
 20
94.59674577503117
 30
0.0
 10
223.5950345389809
 20
94.43992114455226
 30
0.0
 10
223.6719624891613
 20
94.11980392068992
 30
0.0
 10
223.6916672124351
 20
93.95552085069913
 30
0.0
 10
223.6918129547968
 20
93.63463672451891
 30
0.0
 10
223.6728905082715
 20
93.47635294128801
 30
0.0
 10
223.5961337300467
 20
93.16406035244137
 30
0.0
 10
223.5386084008552
 20
93.0126463254807
 30
0.0
 10
223.3892158374135
 20
92.72596275542955
 30
0.0
 10
223.296201030321
 20
92.58849400749392
 30
0.0
 10
223.0772179951108
 20
92.33191449252362
 30
0.0
 10
222.9532328265822
 20
92.21465236589974
 30
0.0
 10
222.6769403206955
 20
92.00087927927379
 30
0.0
 10
222.5227987768428
 20
91.90364910305429
 30
0.0
 10
222.1971078952624
 20
91.73719444746492
 30
0.0
 10
222.0249758341929
 20
91.66708181968202
 30
0.0
 10
221.6619001593083
 20
91.55270745078379
 30
0.0
 10
221.4713435402825
 20
91.50900159303961
 30
0.0
 10
221.0878208662192
 20
91.45123089923283
 30
0.0
 10
220.8928459417097
 20
91.43645285322575
 30
0.0
 10
220.4961860108131
 20
91.43617667561311
 30
0.0
 10
220.3010393501052
 20
91.45069523875108
 30
0.0
 10
219.9173274551965
 20
91.50795253409325
 30
0.0
 10
219.7266859693058
 20
91.55139456632844
 30
0.0
 10
219.3632924192563
 20
91.66528612836206
 30
0.0
 10
219.1909555668759
 20
91.73517678611391
 30
0.0
 10
218.8647758281631
 20
91.90124068409477
 30
0.0
 10
218.7104474595023
 20
91.99824462661377
 30
0.0
 10
218.4337229897458
 20
92.21158531737125
 30
0.0
 10
218.3094662070542
 20
92.32866507127623
 30
0.0
 10
218.0898619885436
 20
92.58497711298183
 30
0.0
 10
217.9966052120803
 20
92.72222145855973
 30
0.0
 10
217.8466126324752
 20
93.00857653758224
 30
0.0
 10
217.7888118464089
 20
93.1596124644443
 30
0.0
 10
217.7112242237226
 20
93.47230081183207
 30
0.0
 10
217.6917402912609
 20
93.63166826580185
 30
0.0
 10
217.6917402912609
 20
93.95666063069797
 30
0.0
  0
LINE
  5
13F
330
1F
100
AcDbEntity
  8
0
  6
HIDDEN
 62
     7
370
     0
100
AcDbLine
 10
190.6917402913
 20
83.3832281162
 30
0.0
 11
190.6917402913
 21
134.0129370321
 31
0.0
  0
LINE
  5
140
330
1F
100
AcDbEntity
  8
0
  6
HIDDEN
 62
     7
370
     0
100
AcDbLine
 10
195.6417402644
 20
128.5571525325
 30
0.0
 11
202.8873609771
 21
128.5571525325
 31
0.0
  0
LWPOLYLINE
  5
141
330
1F
100
AcDbEntity
  8
0
  6
HIDDEN
 62
     7
370
     0
100
AcDbPolyline
 90
        2
 70
   128
 43
0.0
 10
210.6017405559
 20
128.5571525325
 10
210.6017405559
 20
128.5571525325
  0
LWPOLYLINE
  5
142
330
1F
100
AcDbEntity
  8
0
  6
HIDDEN
 62
     7
370
     0
100
AcDbPolyline
 90
        2
 70
   128
 43
0.0
 10
216.6417399813
 20
128.5571525325
 10
216.6417399813
 20
128.5571525325
  0
LWPOLYLINE
  5
143
330
1F
100
AcDbEntity
  8
0
  6
HIDDEN
 62
     7
370
     0
100
AcDbPolyline
 90
        2
 70
   128
 43
0.0
 10
206.7817403395
 20
128.5571525325
 10
206.7817403395
 20
128.5571525325
  0
LINE
  5
144
330
1F
100
AcDbEntity
  8
0
  6
HIDDEN
 62
     7
370
     0
100
AcDbLine
 10
188.6917401963
 20
132.9275830169
 30
0.0
 11
188.6917401963
 21
84.4867205699
 31
0.0
  0
SPLINE
  5
145
330
1F
100
AcDbEntity
  8
0
  6
HIDDEN
 62
     7
370
     0
100
AcDbSpline
210
0.0
220
0.0
230
1.0
 70
     8
 71
     3
 72
    14
 73
    10
 74
     0
 42
0.00000001
 43
0.00000001
 40
0.0
 40
0.0
 40
0.0
 40
0.0
 40
0.5000000000000014
 40
0.5000000000000014
 40
0.7500000000000022
 40
0.7500000000000022
 40
0.8750000000000011
 40
0.8750000000000011
 40
1.0
 40
1.0
 40
1.0
 40
1.0
 10
159.941740291261
 20
87.90052023484957
 30
0.0
 10
160.5578171950163
 20
87.90624635507871
 30
0.0
 10
161.1719491911321
 20
87.91613672048074
 30
0.0
 10
162.0858458216457
 20
87.9467716881505
 30
0.0
 10
162.3892847491933
 20
87.95956514578849
 30
0.0
 10
162.8404213648308
 20
87.98749097374788
 30
0.0
 10
162.9901276143733
 20
87.99826059390764
 30
0.0
 10
163.2869687506214
 20
88.02539330950717
 30
0.0
 10
163.4343543031247
 20
88.04121028233439
 30
0.0
 10
163.578138430139
 20
88.06486937120886
 30
0.0
  0
SPLINE
  5
146
330
1F
100
AcDbEntity
  8
0
  6
HIDDEN
 62
     7
370
     0
100
AcDbSpline
210
0.0
220
0.0
230
1.0
 70
     8
 71
     3
 72
    10
 73
     6
 74
     0
 42
0.00000001
 43
0.00000001
 40
0.0
 40
0.0
 40
0.0
 40
0.0
 40
0.5
 40
0.5
 40
1.0
 40
1.0
 40
1.0
 40
1.0
 10
163.5781384301391
 20
88.06486937120881
 30
0.0
 10
164.2057660858464
 20
88.16814292994442
 30
0.0
 10
164.8569668308778
 20
88.25696804169596
 30
0.0
 10
166.16567153489
 20
88.41907574856629
 30
0.0
 10
166.8267159721811
 20
88.49237521285289
 30
0.0
 10
167.4917402912607
 20
88.56106302758057
 30
0.0
  0
SPLINE
  5
147
330
1F
100
AcDbEntity
  8
0
  6
HIDDEN
 62
     7
370
     0
100
AcDbSpline
210
0.0
220
0.0
230
1.0
 70
     8
 71
     3
 72
    18
 73
    14
 74
     0
 42
0.00000001
 43
0.00000001
 40
0.0
 40
0.0
 40
0.0
 40
0.0
 40
0.0624999999999991
 40
0.0624999999999991
 40
0.1249999999999983
 40
0.1249999999999983
 40
0.2499999999999952
 40
0.2499999999999952
 40
0.4999999999999968
 40
0.4999999999999968
 40
0.7499999999999983
 40
0.7499999999999983
 40
1.0
 40
1.0
 40
1.0
 40
1.0
 10
167.4917402912609
 20
88.5610630275805
 30
0.0
 10
167.5283125016113
 20
88.56484043110797
 30
0.0
 10
167.5669629750467
 20
88.56428340322482
 30
0.0
 10
167.6410544687606
 20
88.55422419806297
 30
0.0
 10
167.6764047625147
 20
88.54487031663841
 30
0.0
 10
167.7709990599041
 20
88.5104858902046
 30
0.0
 10
167.8211372330431
 20
88.47977415554179
 30
0.0
 10
167.9503305046243
 20
88.38384484550376
 30
0.0
 10
168.0086106493654
 20
88.31532935138648
 30
0.0
 10
168.1088057457889
 20
88.17875740145388
 30
0.0
 10
168.1488209972356
 20
88.10999249895096
 30
0.0
 10
168.2172204180533
 20
87.97495706984327
 30
0.0
 10
168.2455821419152
 20
87.90833904379012
 30
0.0
 10
168.2701360545212
 20
87.84278057609392
 30
0.0
  0
SPLINE
  5
148
330
1F
100
AcDbEntity
  8
0
  6
HIDDEN
 62
     7
370
     0
100
AcDbSpline
210
0.0
220
0.0
230
1.0
 70
     8
 71
     3
 72
    14
 73
    10
 74
     0
 42
0.00000001
 43
0.00000001
 40
0.0
 40
0.0
 40
0.0
 40
0.0
 40
0.25
 40
0.25
 40
0.5
 40
0.5
 40
0.75
 40
0.75
 40
1.0
 40
1.0
 40
1.0
 40
1.0
 10
168.2701360545211
 20
87.84278057609392
 30
0.0
 10
168.3085724393421
 20
87.74015617838239
 30
0.0
 10
168.377373832734
 20
87.64095975494281
 30
0.0
 10
168.520659844893
 20
87.45006772561631
 30
0.0
 10
168.5958418999999
 20
87.35781045958339
 30
0.0
 10
168.7280291886501
 20
87.17820313776839
 30
0.0
 10
168.7855463841198
 20
87.09089358332403
 30
0.0
 10
168.8675911824122
 20
86.92095974980829
 30
0.0
 10
168.8917402912609
 20
86.83905740793713
 30
0.0
 10
168.891740291261
 20
86.76200353410123
 30
0.0
  0
LINE
  5
149
330
1F
100
AcDbEntity
  8
0
  6
HIDDEN
 62
     7
370
     0
100
AcDbLine
 10
168.8917400707
 20
86.7620030869
 30
0.0
 11
168.8917400707
 21
85.4787057717
 31
0.0
  0
LINE
  5
14A
330
1F
100
AcDbEntity
  8
0
  6
HIDDEN
 62
     7
370
     0
100
AcDbLine
 10
164.8917394151
 20
131.7351976861
 30
0.0
 11
164.8917394151
 21
130.551259451
 31
0.0
  0
SPLINE
  5
14B
330
1F
100
AcDbEntity
  8
0
  6
HIDDEN
 62
     7
370
     0
100
AcDbSpline
210
0.0
220
0.0
230
1.0
 70
     8
 71
     3
 72
    18
 73
    14
 74
     0
 42
0.00000001
 43
0.00000001
 40
0.0
 40
0.0
 40
0.0
 40
0.0
 40
0.2499999999999994
 40
0.2499999999999994
 40
0.4999999999999997
 40
0.4999999999999997
 40
0.7499999999999999
 40
0.7499999999999999
 40
0.8750000000000003
 40
0.8750000000000003
 40
0.9375000000000002
 40
0.9375000000000002
 40
1.0
 40
1.0
 40
1.0
 40
1.0
 10
164.891740291261
 20
130.5512594657401
 30
0.0
 10
164.891740291261
 20
130.4680525568829
 30
0.0
 10
164.8558911913227
 20
130.3793159015694
 30
0.0
 10
164.7310194552888
 20
130.1971907110091
 30
0.0
 10
164.6406190376409
 20
130.1020606623825
 30
0.0
 10
164.4183763828987
 20
129.9128791532582
 30
0.0
 10
164.288611596453
 20
129.8179339851635
 30
0.0
 10
164.0479741391415
 20
129.6796552775835
 30
0.0
 10
163.960206841004
 20
129.6339448442811
 30
0.0
 10
163.8056827537972
 20
129.5761215390597
 30
0.0
 10
163.7490718677425
 20
129.5584067750218
 30
0.0
 10
163.6250278368359
 20
129.5338674717889
 30
0.0
 10
163.5573131618175
 20
129.5278883332506
 30
0.0
 10
163.491740291261
 20
129.5302391852049
 30
0.0
  0
SPLINE
  5
14C
330
1F
100
AcDbEntity
  8
0
  6
HIDDEN
 62
     7
370
     0
100
AcDbSpline
210
0.0
220
0.0
230
1.0
 70
     8
 71
     3
 72
    10
 73
     6
 74
     0
 42
0.00000001
 43
0.00000001
 40
0.0
 40
0.0
 40
0.0
 40
0.0
 40
0.5
 40
0.5
 40
1.0
 40
1.0
 40
1.0
 40
1.0
 10
163.491740291261
 20
129.5302391852049
 30
0.0
 10
162.9041547441704
 20
129.5513047054413
 30
0.0
 10
162.31340835071
 20
129.5620631913135
 30
0.0
 10
161.1293891854112
 20
129.5754279718492
 30
0.0
 10
160.5359751972057
 20
129.5775706145138
 30
0.0
 10
159.941740291261
 20
129.5770895587722
 30
0.0
  0
SPLINE
  5
14D
330
1F
100
AcDbEntity
  8
0
  6
HIDDEN
 62
     7
370
     0
100
AcDbSpline
210
0.0
220
0.0
230
1.0
 70
     8
 71
     3
 72
     8
 73
     4
 74
     0
 42
0.00000001
 43
0.00000001
 40
0.0000005099763571
 40
0.0000005099763571
 40
0.0000005099763571
 40
0.0000005099763571
 40
0.0000262827998697
 40
0.0000262827998697
 40
0.0000262827998697
 40
0.0000262827998697
 10
159.9417402912609
 20
129.5770895587722
 30
0.0
 10
159.9383715520332
 20
129.5737678898163
 30
0.0
 10
159.9350230990541
 20
129.5704399325375
 30
0.0
 10
159.9316953608427
 20
129.5671056856648
 30
0.0
  0
SPLINE
  5
14E
330
1F
100
AcDbEntity
  8
0
  6
HIDDEN
 62
     7
370
     0
100
AcDbSpline
210
0.0
220
0.0
230
1.0
 70
     8
 71
     3
 72
     8
 73
     4
 74
     0
 42
0.00000001
 43
0.00000001
 40
0.0000005954826279
 40
0.0000005954826279
 40
0.0000005954826279
 40
0.0000005954826279
 40
0.0000302093805348
 40
0.0000302093805348
 40
0.0000302093805348
 40
0.0000302093805348
 10
159.9316953608514
 20
87.91233536450146
 30
0.0
 10
159.9350113881716
 20
87.90838858490567
 30
0.0
 10
159.9383599395638
 20
87.90445019377574
 30
0.0
 10
159.9417402912609
 20
87.90052023484957
 30
0.0
  0
SPLINE
  5
14F
330
1F
100
AcDbEntity
  8
0
  6
HIDDEN
 62
     7
370
     0
100
AcDbSpline
210
0.0
220
0.0
230
1.0
 70
     8
 71
     3
 72
    12
 73
     8
 74
     0
 42
0.00000001
 43
0.00000001
 40
0.0
 40
0.0
 40
0.0
 40
0.0
 40
0.1192153572537782
 40
0.2486291370015994
 40
0.5007187166807885
 40
0.753705439744719
 40
0.9999999999999999
 40
0.9999999999999999
 40
0.9999999999999999
 40
0.9999999999999999
 10
178.6868907903068
 20
85.18255264355396
 30
0.0
 10
178.6047479264109
 20
85.17481692061388
 30
0.0
 10
178.4334351875846
 20
85.15868371292171
 30
0.0
 10
178.0670815751268
 20
85.12570741894518
 30
0.0
 10
177.7623183139672
 20
85.0875306492822
 30
0.0
 10
177.503939380307
 20
85.05565318370576
 30
0.0
 10
177.474947793624
 20
85.05162881351643
 30
0.0
 10
177.4606462959879
 20
85.04964359893059
 30
0.0
  0
SPLINE
  5
150
330
1F
100
AcDbEntity
  8
0
  6
HIDDEN
 62
     7
370
     0
100
AcDbSpline
210
0.0
220
0.0
230
1.0
 70
     8
 71
     3
 72
    20
 73
    16
 74
     0
 42
0.00000001
 43
0.00000001
 40
0.0
 40
0.0
 40
0.0
 40
0.0
 40
0.001437142555551
 40
0.0850458965237325
 40
0.1697599737566609
 40
0.2540983572194236
 40
0.337329559157597
 40
0.4202346543774696
 40
0.5035601673255862
 40
0.5868465303357372
 40
0.6687599864841126
 40
0.7507345960013674
 40
0.8338925311456853
 40
0.9172624283936205
 40
1.0
 40
1.0
 40
1.0
 40
1.0
 10
185.8748067562215
 20
84.62809347404693
 30
0.0
 10
185.8752598362869
 20
84.6279900144314
 30
0.0
 10
185.9020717904746
 20
84.62186757673561
 30
0.0
 10
185.8060337569949
 20
84.64393376388438
 30
0.0
 10
185.5729923492536
 20
84.69582436954894
 30
0.0
 10
185.1792059565143
 20
84.78087736207434
 30
0.0
 10
184.6547476954763
 20
84.88263553058029
 30
0.0
 10
184.0157845134036
 20
84.99053072386256
 30
0.0
 10
183.2826192361119
 20
85.09157750286376
 30
0.0
 10
182.4900562392693
 20
85.17598663264305
 30
0.0
 10
181.6653073486939
 20
85.23338885821391
 30
0.0
 10
180.8385900267902
 20
85.2601465857892
 30
0.0
 10
180.0442825939761
 20
85.25571238216652
 30
0.0
 10
179.3008529213395
 20
85.22839580385059
 30
0.0
 10
178.8910247995114
 20
85.19779486719112
 30
0.0
 10
178.6868907903068
 20
85.18255264355396
 30
0.0
  0
SPLINE
  5
151
330
1F
100
AcDbEntity
  8
0
  6
HIDDEN
 62
     7
370
     0
100
AcDbSpline
210
0.0
220
0.0
230
1.0
 70
     8
 71
     3
 72
    20
 73
    16
 74
     0
 42
0.00000001
 43
0.00000001
 40
0.0
 40
0.0
 40
0.0
 40
0.0
 40
0.0828182200643154
 40
0.1661936689022571
 40
0.2493852920304393
 40
0.3315154858705138
 40
0.413380769036991
 40
0.4968356030727598
 40
0.5800413963872413
 40
0.6629790193136592
 40
0.7460493153741201
 40
0.8302847929446943
 40
0.9148461955451018
 40
0.9984038503992553
 40
0.9999999999999999
 40
0.9999999999999999
 40
0.9999999999999999
 40
0.9999999999999999
 10
178.6867976580494
 20
132.231734179394
 30
0.0
 10
178.8914494814275
 20
132.2165449416353
 30
0.0
 10
179.3021300943208
 20
132.1860642678297
 30
0.0
 10
180.0458553263993
 20
132.1587508500735
 30
0.0
 10
180.8408148230227
 20
132.1543387444752
 30
0.0
 10
181.6679434551388
 20
132.1810068676076
 30
0.0
 10
182.4936851778299
 20
132.2384709657912
 30
0.0
 10
183.2859622912248
 20
132.3230582236189
 30
0.0
 10
184.0187853823593
 20
132.4242337808025
 30
0.0
 10
184.6566953697993
 20
132.5320176001502
 30
0.0
 10
185.1805499409578
 20
132.6336252085834
 30
0.0
 10
185.5736939325739
 20
132.7185168081108
 30
0.0
 10
185.8063595252845
 20
132.7703461380422
 30
0.0
 10
185.902421677626
 20
132.7924654891461
 30
0.0
 10
185.8752613750749
 20
132.7862959540839
 30
0.0
 10
185.8747522738509
 20
132.786180310385
 30
0.0
  0
SPLINE
  5
152
330
1F
100
AcDbEntity
  8
0
  6
HIDDEN
 62
     7
370
     0
100
AcDbSpline
210
0.0
220
0.0
230
1.0
 70
     8
 71
     3
 72
    12
 73
     8
 74
     0
 42
0.00000001
 43
0.00000001
 40
0.0
 40
0.0
 40
0.0
 40
0.0
 40
0.24684126657015
 40
0.4995707768295318
 40
0.7516701332889744
 40
0.8176861283293371
 40
1.0
 40
1.0
 40
1.0
 40
1.0
 10
177.4602411706679
 20
132.3646916527912
 30
0.0
 10
177.4743545953382
 20
132.362673157273
 30
0.0
 10
177.5029181115778
 20
132.3585880162911
 30
0.0
 10
177.7637084245966
 20
132.3265899578845
 30
0.0
 10
178.030597098607
 20
132.2923232696114
 30
0.0
 10
178.3892736995094
 20
132.2596307989151
 30
0.0
 10
178.5608403063878
 20
132.2435442680082
 30
0.0
 10
178.6867976580494
 20
132.231734179394
 30
0.0
  0
LINE
  5
153
330
1F
100
AcDbEntity
  8
0
  6
HIDDEN
 62
     7
370
     0
100
AcDbLine
 10
158.7917404641
 20
89.0539916684
 30
0.0
 11
158.7958680858
 21
89.0448833336
 31
0.0
  0
SPLINE
  5
154
330
1F
100
AcDbEntity
  8
0
  6
HIDDEN
 62
     7
370
     0
100
AcDbSpline
210
0.0
220
0.0
230
1.0
 70
    11
 71
     3
 72
    22
 73
    18
 74
     0
 42
0.00000001
 43
0.00000001
 40
0.0
 40
0.0
 40
0.0
 40
0.0
 40
0.1249999999999999
 40
0.1249999999999999
 40
0.2499999999999999
 40
0.2499999999999999
 40
0.3749999999999999
 40
0.3749999999999999
 40
0.4999999999999999
 40
0.4999999999999999
 40
0.6249999999999999
 40
0.6249999999999999
 40
0.7499999999999999
 40
0.7499999999999999
 40
0.8749999999999999
 40
0.8749999999999999
 40
1.0
 40
1.0
 40
1.0
 40
1.0
 10
184.4467422928626
 20
128.5446802691936
 30
0.0
 10
184.6056851218316
 20
128.5667539772407
 30
0.0
 10
184.746376669722
 20
128.5834377952283
 30
0.0
 10
184.9923629071844
 20
128.6096594901105
 30
0.0
 10
185.0984009898658
 20
128.6192387959559
 30
0.0
 10
185.2688930304328
 20
128.633318063035
 30
0.0
 10
185.3329457298965
 20
128.6378246392821
 30
0.0
 10
185.4194497809895
 20
128.64368880912
 30
0.0
 10
185.4416832763496
 20
128.6450307416382
 30
0.0
 10
185.4417970823615
 20
128.6450378813878
 30
0.0
 10
185.4203391538763
 20
128.6437452459016
 30
0.0
 10
185.3343533609973
 20
128.6379238163913
 30
0.0
 10
185.2690392142478
 20
128.6333243471155
 30
0.0
 10
185.1000333803123
 20
128.6193793263056
 30
0.0
 10
184.9960743424365
 20
128.6100269394473
 30
0.0
 10
184.7485638961976
 20
128.5836984689809
 30
0.0
 10
184.6056798061139
 20
128.5667532390029
 30
0.0
 10
184.4467422928629
 20
128.5446802691937
 30
0.0
  0
SPLINE
  5
155
330
1F
100
AcDbEntity
  8
0
  6
HIDDEN
 62
     7
370
     0
100
AcDbSpline
210
0.0
220
0.0
230
1.0
 70
    11
 71
     3
 72
    22
 73
    18
 74
     0
 42
0.00000001
 43
0.00000001
 40
0.0
 40
0.0
 40
0.0
 40
0.0
 40
0.125
 40
0.125
 40
0.25
 40
0.25
 40
0.375
 40
0.375
 40
0.5
 40
0.5
 40
0.625
 40
0.625
 40
0.75
 40
0.75
 40
0.875
 40
0.875
 40
1.0
 40
1.0
 40
1.0
 40
1.0
 10
184.4467422928626
 20
88.86962331756068
 30
0.0
 10
184.6056851218317
 20
88.84754960951364
 30
0.0
 10
184.746376669722
 20
88.83086579152602
 30
0.0
 10
184.9923629071844
 20
88.80464409664373
 30
0.0
 10
185.0984009898658
 20
88.79506479079842
 30
0.0
 10
185.2688930304328
 20
88.78098552371927
 30
0.0
 10
185.3329457298965
 20
88.77647894747221
 30
0.0
 10
185.4194497809895
 20
88.77061477763432
 30
0.0
 10
185.4416832763496
 20
88.76927284511602
 30
0.0
 10
185.4417970823615
 20
88.76926570536651
 30
0.0
 10
185.4203391538763
 20
88.77055834085273
 30
0.0
 10
185.3343533609973
 20
88.77637977036294
 30
0.0
 10
185.2690392142478
 20
88.78097923963878
 30
0.0
 10
185.1000333803123
 20
88.79492426044864
 30
0.0
 10
184.9960743424366
 20
88.80427664730696
 30
0.0
 10
184.7485638961976
 20
88.83060511777337
 30
0.0
 10
184.6056798061139
 20
88.84755034775138
 30
0.0
 10
184.4467422928629
 20
88.86962331756058
 30
0.0
  0
LINE
  5
156
330
1F
100
AcDbEntity
  8
0
  6
HIDDEN
 62
     7
370
     0
100
AcDbLine
 10
190.6917402913
 20
91.7071508695
 30
0.0
 11
190.6917402913
 21
125.7071527172
 31
0.0
  0
SPLINE
  5
157
330
1F
100
AcDbEntity
  8
0
  6
HIDDEN
 62
     7
370
     0
100
AcDbSpline
210
0.0
220
0.0
230
1.0
 70
    11
 71
     3
 72
    56
 73
    52
 74
     0
 42
0.00000001
 43
0.00000001
 40
0.0
 40
0.0
 40
0.0
 40
0.0
 40
0.0625000000000003
 40
0.0625000000000003
 40
0.0937500000000004
 40
0.0937500000000004
 40
0.1250000000000005
 40
0.1250000000000005
 40
0.1562500000000006
 40
0.1562500000000006
 40
0.1875000000000007
 40
0.1875000000000007
 40
0.2187500000000009
 40
0.2187500000000009
 40
0.2500000000000009
 40
0.2500000000000009
 40
0.3125000000000012
 40
0.3125000000000012
 40
0.3437500000000012
 40
0.3437500000000012
 40
0.3750000000000013
 40
0.3750000000000013
 40
0.4062500000000014
 40
0.4062500000000014
 40
0.4375000000000015
 40
0.4375000000000015
 40
0.4687500000000016
 40
0.4687500000000016
 40
0.5000000000000017
 40
0.5000000000000017
 40
0.5625000000000018
 40
0.5625000000000018
 40
0.625000000000002
 40
0.625000000000002
 40
0.6875000000000021
 40
0.6875000000000021
 40
0.7187500000000021
 40
0.7187500000000021
 40
0.750000000000002
 40
0.750000000000002
 40
0.7812500000000019
 40
0.7812500000000019
 40
0.8125000000000018
 40
0.8125000000000018
 40
0.8750000000000014
 40
0.8750000000000014
 40
0.9375000000000008
 40
0.9375000000000008
 40
0.9687500000000004
 40
0.9687500000000004
 40
1.0
 40
1.0
 40
1.0
 40
1.0
 10
184.4467422928626
 20
88.86962331756068
 30
0.0
 10
184.1909549823148
 20
88.90514662145422
 30
0.0
 10
183.9007651753715
 20
88.94069049042247
 30
0.0
 10
183.4141120770807
 20
88.98716219033135
 30
0.0
 10
183.2437662349195
 20
89.00140810356284
 30
0.0
 10
182.8967928248285
 20
89.02569601776123
 30
0.0
 10
182.7188549275938
 20
89.03587236408327
 30
0.0
 10
182.353935650034
 20
89.05154769168719
 30
0.0
 10
182.1656010579387
 20
89.05703465290006
 30
0.0
 10
181.7917142054832
 20
89.0624946471758
 30
0.0
 10
181.6050239913133
 20
89.06255287043496
 30
0.0
 10
181.232145500394
 20
89.05736872845817
 30
0.0
 10
181.0444412574716
 20
89.05205324998673
 30
0.0
 10
180.6775223579241
 20
89.03655086896343
 30
0.0
 10
180.4990726158596
 20
89.02645146120275
 30
0.0
 10
179.9782837124989
 20
88.99031961954884
 30
0.0
 10
179.6473999928279
 20
88.95789039853076
 30
0.0
 10
179.2108984344964
 20
88.90636390716367
 30
0.0
 10
179.0741128954438
 20
88.88863929611968
 30
0.0
 10
178.81838828599
 20
88.85324496961039
 30
0.0
 10
178.7007645578844
 20
88.8357484482298
 30
0.0
 10
178.4906951046958
 20
88.80304605224126
 30
0.0
 10
178.3973602660107
 20
88.78771424329523
 30
0.0
 10
178.2344145553316
 20
88.76011808394644
 30
0.0
 10
178.1647115924817
 20
88.74783140083281
 30
0.0
 10
178.0540885261496
 20
88.72798640904635
 30
0.0
 10
178.0124068545392
 20
88.72030029651965
 30
0.0
 10
177.9562317141639
 20
88.70988291614243
 30
0.0
 10
177.9417934384034
 20
88.70716175846596
 30
0.0
 10
177.9416344433008
 20
88.70713194688534
 30
0.0
 10
177.9972937810376
 20
88.71779407703335
 30
0.0
 10
178.2201185415719
 20
88.75777474876834
 30
0.0
 10
178.3820308271656
 20
88.78611100040062
 30
0.0
 10
178.8058223859014
 20
88.85212190936068
 30
0.0
 10
179.0606688084487
 20
88.88858178215189
 30
0.0
 10
179.4993124685624
 20
88.94043330513826
 30
0.0
 10
179.6560100048418
 20
88.95732093919823
 30
0.0
 10
179.9792099546204
 20
88.98801435981916
 30
0.0
 10
180.1468834360407
 20
89.00197416676303
 30
0.0
 10
180.4944683022294
 20
89.02617359591419
 30
0.0
 10
180.6760317830484
 20
89.03647054474499
 30
0.0
 10
181.0422180578572
 20
89.0519764916069
 30
0.0
 10
181.2268754736995
 20
89.0572424735039
 30
0.0
 10
181.785471880258
 20
89.06516529675942
 30
0.0
 10
182.1678062217285
 20
89.05945117338578
 30
0.0
 10
182.8951033660969
 20
89.02839208722352
 30
0.0
 10
183.2507974401969
 20
89.00270345117356
 30
0.0
 10
183.7341097171478
 20
88.95663144096545
 30
0.0
 10
183.8878073243644
 20
88.94002928254915
 30
0.0
 10
184.1802295492075
 20
88.90540942733486
 30
0.0
 10
184.3188447724127
 20
88.8873855062965
 30
0.0
 10
184.4467422928626
 20
88.86962331756068
 30
0.0
  0
SPLINE
  5
158
330
1F
100
AcDbEntity
  8
0
  6
HIDDEN
 62
     7
370
     0
100
AcDbSpline
210
0.0
220
0.0
230
1.0
 70
    11
 71
     3
 72
    56
 73
    52
 74
     0
 42
0.00000001
 43
0.00000001
 40
0.0
 40
0.0
 40
0.0
 40
0.0
 40
0.0624999999999998
 40
0.0624999999999998
 40
0.0937499999999998
 40
0.0937499999999998
 40
0.1249999999999997
 40
0.1249999999999997
 40
0.1562499999999997
 40
0.1562499999999997
 40
0.1874999999999996
 40
0.1874999999999996
 40
0.2187499999999996
 40
0.2187499999999996
 40
0.2499999999999996
 40
0.2499999999999996
 40
0.3124999999999997
 40
0.3124999999999997
 40
0.3437499999999998
 40
0.3437499999999998
 40
0.3749999999999998
 40
0.3749999999999998
 40
0.4062499999999999
 40
0.4062499999999999
 40
0.4375
 40
0.4375
 40
0.4687500000000001
 40
0.4687500000000001
 40
0.5000000000000001
 40
0.5000000000000001
 40
0.5625000000000002
 40
0.5625000000000002
 40
0.6250000000000004
 40
0.6250000000000004
 40
0.6875000000000006
 40
0.6875000000000006
 40
0.7187500000000004
 40
0.7187500000000004
 40
0.7500000000000003
 40
0.7500000000000003
 40
0.7812500000000003
 40
0.7812500000000003
 40
0.8125000000000002
 40
0.8125000000000002
 40
0.8750000000000003
 40
0.8750000000000003
 40
0.9375000000000002
 40
0.9375000000000002
 40
0.9687500000000001
 40
0.9687500000000001
 40
1.0
 40
1.0
 40
1.0
 40
1.0
 10
184.4467422928626
 20
128.5446802691936
 30
0.0
 10
184.1909549823148
 20
128.5091569653
 30
0.0
 10
183.9007651753715
 20
128.4736130963318
 30
0.0
 10
183.4141120770807
 20
128.4271413964229
 30
0.0
 10
183.2437662349195
 20
128.4128954831914
 30
0.0
 10
182.8967928248285
 20
128.388607568993
 30
0.0
 10
182.7188549275938
 20
128.378431222671
 30
0.0
 10
182.353935650034
 20
128.3627558950671
 30
0.0
 10
182.1656010579386
 20
128.3572689338542
 30
0.0
 10
181.7917142054832
 20
128.3518089395785
 30
0.0
 10
181.6050239913133
 20
128.3517507163193
 30
0.0
 10
181.232145500394
 20
128.3569348582961
 30
0.0
 10
181.0444412574716
 20
128.3622503367675
 30
0.0
 10
180.6775223579241
 20
128.3777527177908
 30
0.0
 10
180.4990726158596
 20
128.3878521255515
 30
0.0
 10
179.9782837124989
 20
128.4239839672055
 30
0.0
 10
179.6473999928279
 20
128.4564131882235
 30
0.0
 10
179.2108984344964
 20
128.5079396795906
 30
0.0
 10
179.0741128954438
 20
128.5256642906346
 30
0.0
 10
178.81838828599
 20
128.5610586171439
 30
0.0
 10
178.7007645578844
 20
128.5785551385245
 30
0.0
 10
178.4906951046958
 20
128.611257534513
 30
0.0
 10
178.3973602660107
 20
128.626589343459
 30
0.0
 10
178.2344145553316
 20
128.6541855028078
 30
0.0
 10
178.1647115924817
 20
128.6664721859215
 30
0.0
 10
178.0540885261496
 20
128.6863171777079
 30
0.0
 10
178.0124068545392
 20
128.6940032902346
 30
0.0
 10
177.9562317141639
 20
128.7044206706119
 30
0.0
 10
177.9417934384034
 20
128.7071418282883
 30
0.0
 10
177.9416344433008
 20
128.7071716398689
 30
0.0
 10
177.9972937810376
 20
128.696509509721
 30
0.0
 10
178.2201185415719
 20
128.6565288379859
 30
0.0
 10
178.3820308271656
 20
128.6281925863536
 30
0.0
 10
178.8058223859014
 20
128.5621816773936
 30
0.0
 10
179.0606688084487
 20
128.5257218046024
 30
0.0
 10
179.4993124685624
 20
128.473870281616
 30
0.0
 10
179.6560100048418
 20
128.4569826475561
 30
0.0
 10
179.9792099546204
 20
128.4262892269351
 30
0.0
 10
180.1468834360407
 20
128.4123294199913
 30
0.0
 10
180.4944683022294
 20
128.3881299908401
 30
0.0
 10
180.6760317830484
 20
128.3778330420093
 30
0.0
 10
181.0422180578572
 20
128.3623270951474
 30
0.0
 10
181.2268754736995
 20
128.3570611132504
 30
0.0
 10
181.785471880258
 20
128.3491382899949
 30
0.0
 10
182.1678062217285
 20
128.3548524133685
 30
0.0
 10
182.8951033660969
 20
128.3859114995307
 30
0.0
 10
183.2507974401969
 20
128.4116001355807
 30
0.0
 10
183.7341097171478
 20
128.4576721457888
 30
0.0
 10
183.8878073243644
 20
128.4742743042051
 30
0.0
 10
184.1802295492075
 20
128.5088941594194
 30
0.0
 10
184.3188447724127
 20
128.5269180804578
 30
0.0
 10
184.4467422928626
 20
128.5446802691936
 30
0.0
  0
LINE
  5
159
330
1F
100
AcDbEntity
  8
0
  6
HIDDEN
 62
     7
370
     0
100
AcDbLine
 10
202.8873609771
 20
128.5571525325
 30
0.0
 11
206.8078881521
 21
128.5571525325
 31
0.0
  0
LINE
  5
15A
330
1F
100
AcDbEntity
  8
0
  6
HIDDEN
 62
     7
370
     0
100
AcDbLine
 10
210.5755927433
 20
128.5571525325
 30
0.0
 11
216.6417399813
 21
128.5571525325
 31
0.0
  0
LINE
  5
15B
330
1F
100
AcDbEntity
  8
0
  6
HIDDEN
 62
     7
370
     0
100
AcDbLine
 10
171.695715787
 20
125.7071527172
 30
0.0
 11
171.695715787
 21
91.7071508695
 31
0.0
  0
LWPOLYLINE
  5
15C
330
1F
100
AcDbEntity
  8
0
  6
HIDDEN
 62
     7
370
     0
100
AcDbPolyline
 90
       27
 70
   128
 43
0.0
 10
216.6594928522
 20
119.7667414774
 10
216.8380888571
 20
119.8225677465
 10
217.1000922491
 20
119.7641812716
 10
217.4302721788
 20
119.594974861
 10
217.8094415386
 20
119.3247832809
 10
218.2155652364
 20
118.9693076987
 10
218.6250398327
 20
118.5492085744
 10
219.0140681733
 20
118.088899598
 10
219.3600414713
 20
117.6151330103
 10
219.6428524722
 20
117.1554405694
 10
219.8460651953
 20
116.7365400572
 10
219.9578723331
 20
116.3827757802
 10
219.9717713912
 20
116.1147066843
 10
219.8869595696
 20
115.9479123992
 10
219.7083617021
 20
115.8920865957
 10
219.4463601728
 20
115.9504730706
 10
219.1161783804
 20
116.1196794812
 10
218.7370090206
 20
116.3898710613
 10
218.3308853228
 20
116.7453466435
 10
217.9214107265
 20
117.1654457678
 10
217.5323823859
 20
117.6257547442
 10
217.1864109506
 20
118.0995213319
 10
216.903598087
 20
118.5592137728
 10
216.7003853638
 20
118.978114285
 10
216.5885800888
 20
119.3318790276
 10
216.574679168
 20
119.5999471922
 10
216.6594928522
 20
119.7667414774
  0
SPLINE
  5
15D
330
1F
100
AcDbEntity
  8
0
  6
HIDDEN
 62
     7
370
     0
100
AcDbSpline
210
0.0
220
0.0
230
1.0
 70
     8
 71
     3
 72
    68
 73
    64
 74
     0
 42
0.00000001
 43
0.00000001
 40
0.0
 40
0.0
 40
0.0
 40
0.0
 40
0.0312499999999997
 40
0.0312499999999997
 40
0.0624999999999994
 40
0.0624999999999994
 40
0.1249999999999991
 40
0.1249999999999991
 40
0.1562499999999989
 40
0.1562499999999989
 40
0.1874999999999988
 40
0.1874999999999988
 40
0.2187499999999986
 40
0.2187499999999986
 40
0.2499999999999984
 40
0.2499999999999984
 40
0.2812499999999983
 40
0.2812499999999983
 40
0.3124999999999982
 40
0.3124999999999982
 40
0.343749999999998
 40
0.343749999999998
 40
0.3749999999999979
 40
0.3749999999999979
 40
0.4374999999999977
 40
0.4374999999999977
 40
0.4687499999999975
 40
0.4687499999999975
 40
0.4999999999999974
 40
0.4999999999999974
 40
0.5156249999999978
 40
0.5156249999999978
 40
0.531249999999998
 40
0.531249999999998
 40
0.5468749999999983
 40
0.5468749999999983
 40
0.5624999999999986
 40
0.5624999999999986
 40
0.5937499999999987
 40
0.5937499999999987
 40
0.6249999999999987
 40
0.6249999999999987
 40
0.6562499999999987
 40
0.6562499999999987
 40
0.6874999999999987
 40
0.6874999999999987
 40
0.7187499999999988
 40
0.7187499999999988
 40
0.7499999999999988
 40
0.7499999999999988
 40
0.7812499999999988
 40
0.7812499999999988
 40
0.8124999999999988
 40
0.8124999999999988
 40
0.8749999999999994
 40
0.8749999999999994
 40
0.9062499999999996
 40
0.9062499999999996
 40
0.9374999999999997
 40
0.9374999999999997
 40
0.9687499999999999
 40
0.9687499999999999
 40
1.0
 40
1.0
 40
1.0
 40
1.0
 10
221.7824485526015
 20
117.7624023992715
 30
0.0
 10
221.7336190314061
 20
117.6445232616491
 30
0.0
 10
221.6514583935488
 20
117.5281873643883
 30
0.0
 10
221.4678382258697
 20
117.306573869235
 30
0.0
 10
221.3634187749757
 20
117.200536389976
 30
0.0
 10
221.0306977081759
 20
116.9074554320087
 30
0.0
 10
220.7858580229552
 20
116.7459176612529
 30
0.0
 10
220.387399527364
 20
116.5728503743475
 30
0.0
 10
220.2480181403516
 20
116.5269024413081
 30
0.0
 10
219.9666421695003
 20
116.4683893723428
 30
0.0
 10
219.8234535479387
 20
116.4551187138417
 30
0.0
 10
219.5329898876493
 20
116.4702538234865
 30
0.0
 10
219.3905514797676
 20
116.4983846554443
 30
0.0
 10
219.1128362874539
 20
116.604207770873
 30
0.0
 10
218.9800171045117
 20
116.6819986086925
 30
0.0
 10
218.7420753270188
 20
116.8825523010809
 30
0.0
 10
218.6342403298117
 20
117.0082963671861
 30
0.0
 10
218.4571902197816
 20
117.2884697860795
 30
0.0
 10
218.3852624298783
 20
117.446450847506
 30
0.0
 10
218.2779282012344
 20
117.7731538948357
 30
0.0
 10
218.2410554035358
 20
117.9442462594278
 30
0.0
 10
218.1962723154008
 20
118.293829930569
 30
0.0
 10
218.1886491664746
 20
118.4685866212888
 30
0.0
 10
218.2011508292667
 20
118.9927689740719
 30
0.0
 10
218.2569948754952
 20
119.3439791975935
 30
0.0
 10
218.3960103886382
 20
119.8437673834419
 30
0.0
 10
218.4517300901981
 20
120.007126880801
 30
0.0
 10
218.5863623546441
 20
120.3271749718541
 30
0.0
 10
218.6654164455181
 20
120.4859561547667
 30
0.0
 10
218.8129816829719
 20
120.705844616944
 30
0.0
 10
218.8679334277163
 20
120.7766444863259
 30
0.0
 10
218.9886760847504
 20
120.9005117180489
 30
0.0
 10
219.0558585715172
 20
120.9539242438067
 30
0.0
 10
219.1919822261223
 20
121.0330891613859
 30
0.0
 10
219.2623258215922
 20
121.0604749199651
 30
0.0
 10
219.3999217535782
 20
121.0974811481617
 30
0.0
 10
219.4686766283023
 20
121.1079064278719
 30
0.0
 10
219.6758029864878
 20
121.1243242496481
 30
0.0
 10
219.8129579665171
 20
121.116104609694
 30
0.0
 10
220.094804837584
 20
121.0792790726401
 30
0.0
 10
220.2403096897554
 20
121.0496058911105
 30
0.0
 10
220.5355748033279
 20
120.9729177389035
 30
0.0
 10
220.6851263951201
 20
120.9259904529629
 30
0.0
 10
220.9899617480976
 20
120.8151980065544
 30
0.0
 10
221.1469949883123
 20
120.7504766070701
 30
0.0
 10
221.4595974284493
 20
120.6054170950087
 30
0.0
 10
221.6142021526783
 20
120.5257189419696
 30
0.0
 10
221.9199082643159
 20
120.3502869782243
 30
0.0
 10
222.0682728847103
 20
120.2558590375108
 30
0.0
 10
222.3435674617467
 20
120.0608316839641
 30
0.0
 10
222.4742526895374
 20
119.9573216094003
 30
0.0
 10
222.7022564431572
 20
119.7534314068186
 30
0.0
 10
222.8013318207967
 20
119.6518790117162
 30
0.0
 10
223.048547513529
 20
119.3572210087484
 30
0.0
 10
223.1411373898135
 20
119.1803484154027
 30
0.0
 10
223.1926698420551
 20
118.9633993587628
 30
0.0
 10
223.1957501003685
 20
118.8978707771873
 30
0.0
 10
223.1780520568513
 20
118.7838089935472
 30
0.0
 10
223.1575385987473
 20
118.7354609167466
 30
0.0
 10
223.0985762678329
 20
118.6569741634282
 30
0.0
 10
223.059826978362
 20
118.6265013227748
 30
0.0
 10
222.9712978955822
 20
118.5922555565386
 30
0.0
 10
222.9212425547582
 20
118.586996506464
 30
0.0
 10
222.8791765391213
 20
118.6135840075378
 30
0.0
  0
SPLINE
  5
15E
330
1F
100
AcDbEntity
  8
0
  6
HIDDEN
 62
     7
370
     0
100
AcDbSpline
210
0.0
220
0.0
230
1.0
 70
     8
 71
     3
 72
    10
 73
     6
 74
     0
 42
0.00000001
 43
0.00000001
 40
0.0
 40
0.0
 40
0.0
 40
0.0
 40
0.5
 40
0.5
 40
1.0
 40
1.0
 40
1.0
 40
1.0
 10
222.8791765391217
 20
118.6135840075383
 30
0.0
 10
222.7040491118329
 20
118.4920865637034
 30
0.0
 10
222.5235336647731
 20
118.3630598594
 30
0.0
 10
222.1550972019705
 20
118.0794472131632
 30
0.0
 10
221.9676053722345
 20
117.9247505443547
 30
0.0
 10
221.7824485526017
 20
117.7624023992713
 30
0.0
  0
LINE
  5
15F
330
1F
100
AcDbEntity
  8
0
  6
HIDDEN
 62
     7
370
     0
100
AcDbLine
 10
158.7917404641
 20
92.6772164632
 30
0.0
 11
158.7917404641
 21
124.7370871235
 31
0.0
  0
LINE
  5
160
330
1F
100
AcDbEntity
  8
0
  6
HIDDEN
 62
     7
370
     0
100
AcDbLine
 10
198.3515662533
 20
125.7071527172
 30
0.0
 11
198.3515662533
 21
91.7071508695
 31
0.0
  0
LINE
  5
161
330
1F
100
AcDbEntity
  8
0
  6
HIDDEN
 62
     7
370
     0
100
AcDbLine
 10
200.6417401527
 20
124.4321516235
 30
0.0
 11
200.6417401527
 21
92.9821519633
 31
0.0
  0
LWPOLYLINE
  5
162
330
1F
100
AcDbEntity
  8
0
  6
HIDDEN
 62
     7
370
     0
100
AcDbPolyline
 90
        2
 70
   128
 43
0.0
 10
200.6417401527
 20
92.9821519633
 10
200.6417401527
 20
92.9821519633
  0
SPLINE
  5
163
330
1F
100
AcDbEntity
  8
0
  6
HIDDEN
 62
     7
370
     0
100
AcDbSpline
210
0.0
220
0.0
230
1.0
 70
     8
 71
     3
 72
    64
 73
    60
 74
     0
 42
0.00000001
 43
0.00000001
 40
-0.0312499999999996
 40
-0.0312499999999996
 40
0.0
 40
0.0
 40
0.0312500000000005
 40
0.0312500000000005
 40
0.0625000000000009
 40
0.0625000000000009
 40
0.1250000000000012
 40
0.1250000000000012
 40
0.1562500000000014
 40
0.1562500000000014
 40
0.1875000000000016
 40
0.1875000000000016
 40
0.2187500000000017
 40
0.2187500000000017
 40
0.2500000000000018
 40
0.2500000000000018
 40
0.281250000000002
 40
0.281250000000002
 40
0.3125000000000022
 40
0.3125000000000022
 40
0.3750000000000024
 40
0.3750000000000024
 40
0.4062500000000023
 40
0.4062500000000023
 40
0.4375000000000022
 40
0.4375000000000022
 40
0.4687500000000022
 40
0.4687500000000022
 40
0.500000000000002
 40
0.500000000000002
 40
0.5312500000000019
 40
0.5312500000000019
 40
0.5625000000000018
 40
0.5625000000000018
 40
0.5937500000000017
 40
0.5937500000000017
 40
0.6250000000000016
 40
0.6250000000000016
 40
0.6562500000000016
 40
0.6562500000000016
 40
0.6875000000000014
 40
0.6875000000000014
 40
0.7187500000000013
 40
0.7187500000000013
 40
0.7500000000000012
 40
0.7500000000000012
 40
0.7812500000000011
 40
0.7812500000000011
 40
0.812500000000001
 40
0.812500000000001
 40
0.8750000000000013
 40
0.8750000000000013
 40
0.9062500000000011
 40
0.9062500000000011
 40
0.9375000000000008
 40
0.9375000000000008
 40
0.9687500000000004
 40
0.9687500000000004
 40
1.0
 40
1.0
 40
1.03125
 40
1.03125
 10
220.8613999805634
 20
108.5950390456816
 30
0.0
 10
220.5220806019589
 20
108.5950390456816
 30
0.0
 10
220.3563940771258
 20
108.6163837172806
 30
0.0
 10
220.0321580009515
 20
108.6974322170585
 30
0.0
 10
219.8723511652236
 20
108.7581146962419
 30
0.0
 10
219.4231763428814
 20
108.9839518962717
 30
0.0
 10
219.1537511268172
 20
109.1959975315768
 30
0.0
 10
218.8157161156201
 20
109.5613071802348
 30
0.0
 10
218.7121599512209
 20
109.693277745082
 30
0.0
 10
218.5317724605834
 20
109.9654908979821
 30
0.0
 10
218.4546261265207
 20
110.1055586306555
 30
0.0
 10
218.327105715743
 20
110.3925780055646
 30
0.0
 10
218.276582155703
 20
110.5413222979943
 30
0.0
 10
218.2096613277764
 20
110.8300596714266
 30
0.0
 10
218.1923022651381
 20
110.9714398232685
 30
0.0
 10
218.1912048885299
 20
111.2475440573647
 30
0.0
 10
218.2079308100031
 20
111.380185433
 30
0.0
 10
218.2733350949031
 20
111.6250474316659
 30
0.0
 10
218.3228209466347
 20
111.7400991723208
 30
0.0
 10
218.5134333615835
 20
112.0506532632751
 30
0.0
 10
218.6980291577324
 20
112.2153081527191
 30
0.0
 10
219.035245301938
 20
112.4021026428519
 30
0.0
 10
219.1592732453241
 20
112.4553130037336
 30
0.0
 10
219.4251041137485
 20
112.5440242256779
 30
0.0
 10
219.5655212379762
 20
112.5793117532058
 30
0.0
 10
219.8631547204295
 20
112.6353843041206
 30
0.0
 10
220.0227189447186
 20
112.6563085334692
 30
0.0
 10
220.3483301237272
 20
112.6837557412665
 30
0.0
 10
220.5144423592595
 20
112.6905926948407
 30
0.0
 10
220.8539414064738
 20
112.6909968534212
 30
0.0
 10
221.0206148123315
 20
112.6845311563936
 30
0.0
 10
221.3465198606039
 20
112.6579208004561
 30
0.0
 10
221.5066102698054
 20
112.6374503865578
 30
0.0
 10
221.8069564969479
 20
112.5818614765146
 30
0.0
 10
221.9502199459029
 20
112.5462931264916
 30
0.0
 10
222.2173588431857
 20
112.458026679645
 30
0.0
 10
222.3403183001069
 20
112.4058238955727
 30
0.0
 10
222.56683028172
 20
112.281640015019
 30
0.0
 10
222.6706769941591
 20
112.2090185288716
 30
0.0
 10
222.8508335727411
 20
112.0454381759647
 30
0.0
 10
222.9283312705651
 20
111.9540374295081
 30
0.0
 10
223.0568094290328
 20
111.7479150013006
 30
0.0
 10
223.1070342450262
 20
111.6332222728127
 30
0.0
 10
223.1738110657973
 20
111.3899217109764
 30
0.0
 10
223.19134776715
 20
111.2599061810661
 30
0.0
 10
223.1921199140669
 20
110.9817393098533
 30
0.0
 10
223.1753533352992
 20
110.8395377711266
 30
0.0
 10
223.1094470313924
 20
110.5496295235451
 30
0.0
 10
223.0594934602551
 20
110.4007697548265
 30
0.0
 10
222.8684159579818
 20
109.9672658558153
 30
0.0
 10
222.6831138319047
 20
109.6864438719085
 30
0.0
 10
222.3441244535215
 20
109.3193856790874
 30
0.0
 10
222.2189175404091
 20
109.2040638194182
 30
0.0
 10
221.9533848662862
 20
108.9997361889725
 30
0.0
 10
221.8125900702508
 20
108.9098302187194
 30
0.0
 10
221.5125270172546
 20
108.7586726297632
 30
0.0
 10
221.3522987755334
 20
108.6977554891282
 30
0.0
 10
221.0280114056129
 20
108.6165361203347
 30
0.0
 10
220.8613999805634
 20
108.5950390456816
 30
0.0
 10
220.5220806019589
 20
108.5950390456816
 30
0.0
  0
ARC
  5
164
330
1F
100
AcDbEntity
  8
0
  6
HIDDEN
 62
     7
370
     0
100
AcDbCircle
 10
220.9462350771
 20
119.9719869372
 30
0.0
 40
2.362523728073317
100
AcDbArc
 50
290.7290642816
 51
324.901808147
  0
LINE
  5
165
330
1F
100
AcDbEntity
  8
0
  6
HIDDEN
 62
     7
370
     0
100
AcDbLine
 10
159.9417394419
 20
92.9056605776
 30
0.0
 11
167.4917405863
 21
92.9056605776
 31
0.0
  0
LINE
  5
166
330
1F
100
AcDbEntity
  8
0
  6
HIDDEN
 62
     7
370
     0
100
AcDbLine
 10
159.9417394419
 20
124.5086430092
 30
0.0
 11
159.9417394419
 21
92.9056605776
 31
0.0
  0
LINE
  5
167
330
1F
100
AcDbEntity
  8
0
  6
HIDDEN
 62
     7
370
     0
100
AcDbLine
 10
163.4917399307
 20
124.5086430092
 30
0.0
 11
159.9417394419
 21
124.5086430092
 31
0.0
  0
SPLINE
  5
168
330
1F
100
AcDbEntity
  8
0
  6
HIDDEN
 62
     7
370
     0
100
AcDbSpline
210
0.0
220
0.0
230
1.0
 70
     8
 71
     3
 72
    18
 73
    14
 74
     0
 42
0.00000001
 43
0.00000001
 40
0.0
 40
0.0
 40
0.0
 40
0.0
 40
0.2500000000000013
 40
0.2500000000000013
 40
0.3750000000000016
 40
0.3750000000000016
 40
0.5000000000000019
 40
0.5000000000000019
 40
0.6250000000000022
 40
0.6250000000000022
 40
0.7500000000000024
 40
0.7500000000000024
 40
1.0
 40
1.0
 40
1.0
 40
1.0
 10
164.891740291261
 20
124.9946654157813
 30
0.0
 10
164.891740291261
 20
124.9401908952291
 30
0.0
 10
164.8568295998688
 20
124.8838098358766
 30
0.0
 10
164.7548202985357
 20
124.7997329950231
 30
0.0
 10
164.7131839438576
 20
124.7723992910322
 30
0.0
 10
164.6147781483689
 20
124.7194453754332
 30
0.0
 10
164.5572349366646
 20
124.693558021716
 30
0.0
 10
164.4299367630916
 20
124.6457804768828
 30
0.0
 10
164.3603494583342
 20
124.6238325587049
 30
0.0
 10
164.2089152131793
 20
124.5843999937922
 30
0.0
 10
164.1262313100853
 20
124.5668437445663
 30
0.0
 10
163.8701198480472
 20
124.5244049791458
 30
0.0
 10
163.6822048441593
 20
124.5086422294088
 30
0.0
 10
163.491740291261
 20
124.5086422294088
 30
0.0
  0
LINE
  5
169
330
1F
100
AcDbEntity
  8
0
  6
HIDDEN
 62
     7
370
     0
100
AcDbLine
 10
164.8917394151
 20
124.9946648706
 30
0.0
 11
164.8917394151
 21
125.7071527172
 31
0.0
  0
SPLINE
  5
16A
330
1F
100
AcDbEntity
  8
0
  6
HIDDEN
 62
     7
370
     0
100
AcDbSpline
210
0.0
220
0.0
230
1.0
 70
     8
 71
     3
 72
    18
 73
    14
 74
     0
 42
0.00000001
 43
0.00000001
 40
0.0
 40
0.0
 40
0.0
 40
0.0
 40
0.2500000000000043
 40
0.2500000000000043
 40
0.3750000000000044
 40
0.3750000000000044
 40
0.5000000000000046
 40
0.5000000000000046
 40
0.6250000000000047
 40
0.6250000000000047
 40
0.7500000000000048
 40
0.7500000000000048
 40
1.0
 40
1.0
 40
1.0
 40
1.0
 10
164.891740291261
 20
124.9946654157813
 30
0.0
 10
164.891740291261
 20
124.9401908952291
 30
0.0
 10
164.8568295998688
 20
124.8838098358766
 30
0.0
 10
164.7548202985357
 20
124.7997329950231
 30
0.0
 10
164.7131839438576
 20
124.7723992910322
 30
0.0
 10
164.6147781483689
 20
124.7194453754332
 30
0.0
 10
164.5572349366646
 20
124.693558021716
 30
0.0
 10
164.4299367630916
 20
124.6457804768827
 30
0.0
 10
164.3603494583342
 20
124.6238325587049
 30
0.0
 10
164.2089152131792
 20
124.5843999937922
 30
0.0
 10
164.1262313100853
 20
124.5668437445663
 30
0.0
 10
163.8701198480472
 20
124.5244049791458
 30
0.0
 10
163.6822048441592
 20
124.5086422294088
 30
0.0
 10
163.491740291261
 20
124.5086422294088
 30
0.0
  0
LINE
  5
16B
330
1F
100
AcDbEntity
  8
0
  6
HIDDEN
 62
     7
370
     0
100
AcDbLine
 10
163.4917399307
 20
124.5086430092
 30
0.0
 11
159.9417394419
 21
124.5086430092
 31
0.0
  0
LINE
  5
16C
330
1F
100
AcDbEntity
  8
0
  6
HIDDEN
 62
     7
370
     0
100
AcDbLine
 10
159.9417394419
 20
92.9056605776
 30
0.0
 11
167.4917405863
 21
92.9056605776
 31
0.0
  0
SPLINE
  5
16D
330
1F
100
AcDbEntity
  8
0
  6
HIDDEN
 62
     7
370
     0
100
AcDbSpline
210
0.0
220
0.0
230
1.0
 70
     8
 71
     3
 72
    16
 73
    12
 74
     0
 42
0.00000001
 43
0.00000001
 40
0.0
 40
0.0
 40
0.0
 40
0.0
 40
0.1249999999999998
 40
0.1249999999999998
 40
0.2499999999999995
 40
0.2499999999999995
 40
0.4999999999999997
 40
0.4999999999999997
 40
0.7499999999999998
 40
0.7499999999999998
 40
1.0
 40
1.0
 40
1.0
 40
1.0
 10
167.491740291261
 20
92.9056613573455
 30
0.0
 10
167.5868620459268
 20
92.9056613573455
 30
0.0
 10
167.6801921146549
 20
92.90184552395267
 30
0.0
 10
167.8634538753929
 20
92.88707497122287
 30
0.0
 10
167.9543315909499
 20
92.87591692324729
 30
0.0
 10
168.2111332884696
 20
92.83344565310558
 30
0.0
 10
168.3662006533416
 20
92.79239945590277
 30
0.0
 10
168.6199471148962
 20
92.69725333932088
 30
0.0
 10
168.7208175665641
 20
92.64249060523932
 30
0.0
 10
168.8560639812589
 20
92.53122948133542
 30
0.0
 10
168.8917402912609
 20
92.47405974400674
 30
0.0
 10
168.8917402912609
 20
92.419638170973
 30
0.0
  0
LINE
  5
16E
330
1F
100
AcDbEntity
  8
0
  6
HIDDEN
 62
     7
370
     0
100
AcDbLine
 10
168.8917400707
 20
92.4196387161
 30
0.0
 11
168.8917400707
 21
91.7071508695
 31
0.0
  0
SPLINE
  5
16F
330
1F
100
AcDbEntity
  8
0
  6
HIDDEN
 62
     7
370
     0
100
AcDbSpline
210
0.0
220
0.0
230
1.0
 70
     8
 71
     3
 72
    16
 73
    12
 74
     0
 42
0.00000001
 43
0.00000001
 40
0.0
 40
0.0
 40
0.0
 40
0.0
 40
0.1250000000000015
 40
0.1250000000000015
 40
0.2500000000000029
 40
0.2500000000000029
 40
0.5000000000000019
 40
0.5000000000000019
 40
0.7500000000000009
 40
0.7500000000000009
 40
1.0
 40
1.0
 40
1.0
 40
1.0
 10
167.491740291261
 20
92.90566135734547
 30
0.0
 10
167.5868620459268
 20
92.90566135734547
 30
0.0
 10
167.6801921146549
 20
92.90184552395267
 30
0.0
 10
167.8634538753929
 20
92.88707497122287
 30
0.0
 10
167.9543315909499
 20
92.87591692324729
 30
0.0
 10
168.2111332884696
 20
92.83344565310557
 30
0.0
 10
168.3662006533416
 20
92.79239945590275
 30
0.0
 10
168.6199471148963
 20
92.69725333932088
 30
0.0
 10
168.7208175665641
 20
92.64249060523932
 30
0.0
 10
168.8560639812589
 20
92.53122948133542
 30
0.0
 10
168.891740291261
 20
92.47405974400674
 30
0.0
 10
168.891740291261
 20
92.41963817097302
 30
0.0
  0
LINE
  5
170
330
1F
100
AcDbEntity
  8
0
  6
HIDDEN
 62
     7
370
     0
100
AcDbLine
 10
159.9417394419
 20
92.9056605776
 30
0.0
 11
159.9417394419
 21
124.5086430092
 31
0.0
  0
LINE
  5
171
330
1F
100
AcDbEntity
  8
0
  6
HIDDEN
 62
     7
370
     0
100
AcDbLine
 10
159.9417394419
 20
90.7171512474
 30
0.0
 11
159.9417394419
 21
87.8946515252
 31
0.0
  0
LINE
  5
172
330
1F
100
AcDbEntity
  8
0
  6
HIDDEN
 62
     7
370
     0
100
AcDbLine
 10
168.8917400707
 20
90.7171512474
 30
0.0
 11
168.8917400707
 21
86.7620030869
 31
0.0
  0
LINE
  5
173
330
1F
100
AcDbEntity
  8
0
  6
HIDDEN
 62
     7
370
     0
100
AcDbLine
 10
159.9417394419
 20
126.6971523394
 30
0.0
 11
159.9417394419
 21
129.5770904501
 31
0.0
  0
LINE
  5
174
330
1F
100
AcDbEntity
  8
0
  6
HIDDEN
 62
     7
370
     0
100
AcDbLine
 10
158.7917404641
 20
126.6971523394
 30
0.0
 11
158.7917404641
 21
128.397829317
 31
0.0
  0
ELLIPSE
  5
175
330
1F
100
AcDbEntity
  8
0
  6
HIDDEN
 62
     7
370
     0
100
AcDbEllipse
 10
253.3302704809
 20
108.7071517934
 30
0.0
 11
19.21239144024977
 21
26.99711638407726
 31
0.0
210
0.0
220
0.0
230
1.0
 40
0.0205386817
 41
1.585411557947092
 42
3.156207884742591
  0
LINE
  5
176
330
1F
100
AcDbEntity
  8
0
  6
HIDDEN
 62
     7
370
     0
100
AcDbLine
 10
232.9596886803
 20
81.707151093
 30
0.0
 11
232.9596886803
 21
108.7071517934
 31
0.0
  0
SPLINE
  5
177
330
1F
100
AcDbEntity
  8
0
  6
HIDDEN
 62
     7
370
     0
100
AcDbSpline
210
0.0
220
0.0
230
1.0
 70
     8
 71
     3
 72
    14
 73
    10
 74
     0
 42
0.00000001
 43
0.00000001
 40
0.0
 40
0.0
 40
0.0
 40
0.0
 40
0.25
 40
0.25
 40
0.5
 40
0.5
 40
0.75
 40
0.75
 40
1.0
 40
1.0
 40
1.0
 40
1.0
 10
236.1478283499485
 20
136.7085347883675
 30
0.0
 10
235.7010928333152
 20
134.3924784123617
 30
0.0
 10
235.2801914782284
 20
132.0739404289416
 30
0.0
 10
234.5151478212389
 20
127.4294910532464
 30
0.0
 10
234.1710645351483
 20
125.1035739919631
 30
0.0
 10
233.5938781147084
 20
120.4410792111469
 30
0.0
 10
233.3612243993504
 20
118.1044583208109
 30
0.0
 10
233.0437574724063
 20
113.4170151080682
 30
0.0
 10
232.9596894836921
 20
111.0661212001912
 30
0.0
 10
232.9596894836921
 20
108.7071517933771
 30
0.0
  0
SPLINE
  5
178
330
1F
100
AcDbEntity
  8
0
  6
HIDDEN
 62
     7
370
     0
100
AcDbSpline
210
0.0
220
0.0
230
1.0
 70
     8
 71
     3
 72
    17
 73
    13
 74
     0
 42
0.00000001
 43
0.00000001
 40
0.0
 40
0.0
 40
0.0
 40
0.0
 40
0.0746740293765882
 40
0.2002247252419425
 40
0.3279618871942629
 40
0.4053432468011637
 40
0.4800304218215207
 40
0.6055974018724665
 40
0.7333344939083174
 40
0.8107082761115794
 40
0.877739488877311
 40
1.0
 40
1.0
 40
1.0
 40
1.0
 10
236.147829370641
 20
136.7085347403452
 30
0.0
 10
236.1737135570042
 20
137.3053426267252
 30
0.0
 10
236.2431172592814
 20
138.9055736048879
 30
0.0
 10
236.3525123216077
 20
141.2991212089365
 30
0.0
 10
236.4572605188563
 20
143.4527592123262
 30
0.0
 10
236.5412675818082
 20
145.0687499837483
 30
0.0
 10
236.6210534971315
 20
146.5174437603509
 30
0.0
 10
236.7094693772694
 20
147.9782413492643
 30
0.0
 10
236.7906129631692
 20
149.1178641449675
 30
0.0
 10
236.8515896975187
 20
149.8189311097983
 30
0.0
 10
236.9078099701651
 20
150.3621350134887
 30
0.0
 10
236.9422775820851
 20
150.5282901009708
 30
0.0
 10
236.964539663934
 20
150.635607026951
 30
0.0
  0
LINE
  5
179
330
1F
100
AcDbEntity
  8
0
  6
HIDDEN
 62
     7
370
     0
100
AcDbLine
 10
236.9716437925
 20
150.6781461169
 30
0.0
 11
237.0031709243
 21
150.7276999284
 31
0.0
  0
LINE
  5
17A
330
1F
100
AcDbEntity
  8
0
  6
HIDDEN
 62
     7
370
     0
100
AcDbLine
 10
158.7917404641
 20
90.7171512474
 30
0.0
 11
158.7917404641
 21
89.0539916684
 31
0.0
  0
LINE
  5
17B
330
1F
100
AcDbEntity
  8
0
  6
HIDDEN
 62
     7
370
     0
100
AcDbLine
 10
164.8917394151
 20
126.6971523394
 30
0.0
 11
164.8917394151
 21
130.551259451
 31
0.0
  0
LINE
  5
17C
330
1F
100
AcDbEntity
  8
0
  6
HIDDEN
 62
     7
370
     0
100
AcDbLine
 10
209.9917410333
 20
118.2071514879
 30
0.0
 11
209.9917410333
 21
99.2071520989
 31
0.0
  0
LWPOLYLINE
  5
17D
330
1F
100
AcDbEntity
  8
0
  6
HIDDEN
 62
     7
370
     0
100
AcDbPolyline
 90
        2
 70
   128
 43
0.0
 10
209.9917410333
 20
99.2071520989
 10
209.9917410333
 20
99.2071520989
  0
LINE
  5
17E
330
1F
100
AcDbEntity
  8
0
  6
HIDDEN
 62
     7
370
     0
100
AcDbLine
 10
212.4917405118
 20
118.2071514879
 30
0.0
 11
212.4917405118
 21
99.2071520989
 31
0.0
  0
LWPOLYLINE
  5
17F
330
1F
100
AcDbEntity
  8
0
  6
HIDDEN
 62
     7
370
     0
100
AcDbPolyline
 90
        2
 70
   128
 43
0.0
 10
212.4917405118
 20
99.2071520989
 10
212.4917405118
 20
99.2071520989
  0
LWPOLYLINE
  5
180
330
1F
100
AcDbEntity
  8
0
  6
HIDDEN
 62
     7
370
     0
100
AcDbPolyline
 90
        2
 70
   128
 43
0.0
 10
216.6417399813
 20
82.3071519364
 10
216.6417399813
 20
82.3071519364
  0
LINE
  5
181
330
1F
100
AcDbEntity
  8
0
  6
HIDDEN
 62
     7
370
     0
100
AcDbLine
 10
216.6417399813
 20
82.3071519364
 30
0.0
 11
210.5040653069
 21
82.3071519364
 31
0.0
  0
LINE
  5
182
330
1F
100
AcDbEntity
  8
0
  6
HIDDEN
 62
     7
370
     0
100
AcDbLine
 10
210.6017405559
 20
81.2093144734
 30
0.0
 11
210.6017405559
 21
81.9027567734
 31
0.0
  0
LINE
  5
183
330
1F
100
AcDbEntity
  8
0
  6
HIDDEN
 62
     7
370
     0
100
AcDbLine
 10
216.6417399813
 20
82.3071519364
 30
0.0
 11
216.6417399813
 21
79.1468745549
 31
0.0
  0
LINE
  5
184
330
1F
100
AcDbEntity
  8
0
  6
HIDDEN
 62
     7
370
     0
100
AcDbLine
 10
195.6417402644
 20
77.223028474
 30
0.0
 11
195.6417402644
 21
82.3071519364
 31
0.0
  0
LINE
  5
185
330
1F
100
AcDbEntity
  8
0
  6
HIDDEN
 62
     7
370
     0
100
AcDbLine
 10
203.6417406444
 20
82.3071519364
 30
0.0
 11
195.6417402644
 21
82.3071519364
 31
0.0
  0
LINE
  5
186
330
1F
100
AcDbEntity
  8
0
  6
HIDDEN
 62
     7
370
     0
100
AcDbLine
 10
201.1417402346
 20
117.2071522553
 30
0.0
 11
201.1417402346
 21
100.2071513314
 31
0.0
  0
LWPOLYLINE
  5
187
330
1F
100
AcDbEntity
  8
0
  6
HIDDEN
 62
     7
370
     0
100
AcDbPolyline
 90
        2
 70
   128
 43
0.0
 10
201.1417402346
 20
100.2071513314
 10
201.1417402346
 20
100.2071513314
  0
LINE
  5
188
330
1F
100
AcDbEntity
  8
0
  6
HIDDEN
 62
     7
370
     0
100
AcDbLine
 10
200.6417401527
 20
99.7071521808
 30
0.0
 11
200.6417401527
 21
117.6886599962
 31
0.0
  0
LINE
  5
189
330
1F
100
AcDbEntity
  8
0
  6
HIDDEN
 62
     7
370
     0
100
AcDbLine
 10
206.8794155885
 20
82.3071519364
 30
0.0
 11
203.6417406444
 21
82.3071519364
 31
0.0
  0
LINE
  5
18A
330
1F
100
AcDbEntity
  8
0
  6
HIDDEN
 62
     7
370
     0
100
AcDbLine
 10
206.7817403395
 20
81.9027567734
 30
0.0
 11
206.7817403395
 21
81.2093144734
 31
0.0
  0
LINE
  5
18B
330
1F
100
AcDbEntity
  8
0
  6
HIDDEN
 62
     7
370
     0
100
AcDbLine
 10
209.9917410333
 20
100.2071513314
 30
0.0
 11
209.9917410333
 21
117.2071522553
 31
0.0
  0
LWPOLYLINE
  5
18C
330
1F
100
AcDbEntity
  8
0
  6
HIDDEN
 62
     7
370
     0
100
AcDbPolyline
 90
        2
 70
   128
 43
0.0
 10
216.6417399813
 20
135.1071516503
 10
216.6417399813
 20
135.1071516503
  0
LINE
  5
18D
330
1F
100
AcDbEntity
  8
0
  6
HIDDEN
 62
     7
370
     0
100
AcDbLine
 10
216.6417399813
 20
135.1071516503
 30
0.0
 11
210.2074427922
 21
135.1071516503
 31
0.0
  0
LINE
  5
18E
330
1F
100
AcDbEntity
  8
0
  6
HIDDEN
 62
     7
370
     0
100
AcDbLine
 10
210.6017405559
 20
136.5123851676
 30
0.0
 11
210.6017405559
 21
135.8268050928
 31
0.0
  0
LINE
  5
18F
330
1F
100
AcDbEntity
  8
0
  6
HIDDEN
 62
     7
370
     0
100
AcDbLine
 10
216.6417399813
 20
135.1071516503
 30
0.0
 11
216.6417399813
 21
138.5535927941
 31
0.0
  0
LINE
  5
190
330
1F
100
AcDbEntity
  8
0
  6
HIDDEN
 62
     7
370
     0
100
AcDbLine
 10
207.1760381032
 20
135.1071516503
 30
0.0
 11
203.6417406444
 21
135.1071516503
 31
0.0
  0
LINE
  5
191
330
1F
100
AcDbEntity
  8
0
  6
HIDDEN
 62
     7
370
     0
100
AcDbLine
 10
206.7817403395
 20
135.8268050928
 30
0.0
 11
206.7817403395
 21
136.5123851676
 31
0.0
  0
LINE
  5
192
330
1F
100
AcDbEntity
  8
0
  6
HIDDEN
 62
     7
370
     0
100
AcDbLine
 10
203.6417406444
 20
135.1071516503
 30
0.0
 11
195.6417402644
 21
135.1071516503
 31
0.0
  0
ELLIPSE
  5
193
330
1F
100
AcDbEntity
  8
0
  6
HIDDEN
 62
     7
370
     0
100
AcDbEllipse
 10
154.6243084269
 20
108.7071517934
 30
0.0
 11
20.07002071827051
 21
-1.421085471520200E-14
 31
0.0
210
0.0
220
0.0
230
1.0
 40
0.8164965809
 41
1.302650465081198
 42
1.361629843993901
  0
LINE
  5
194
330
1F
100
AcDbEntity
  8
0
  6
HIDDEN
 62
     7
370
     0
100
AcDbLine
 10
158.7917404641
 20
126.6971523394
 30
0.0
 11
158.7917404641
 21
124.7370871235
 31
0.0
  0
ELLIPSE
  5
195
330
1F
100
AcDbEntity
  8
0
  6
HIDDEN
 62
     7
370
     0
100
AcDbEllipse
 10
154.6243084269
 20
108.7071517934
 30
0.0
 11
20.07002071827054
 21
-2.842170943040401E-14
 31
0.0
210
0.0
220
0.0
230
1.0
 40
0.8164965809
 41
4.921555463185701
 42
4.980534842098402
  0
LINE
  5
196
330
1F
100
AcDbEntity
  8
0
  6
HIDDEN
 62
     7
370
     0
100
AcDbLine
 10
158.7917404641
 20
90.7171512474
 30
0.0
 11
158.7917404641
 21
92.6772164632
 31
0.0
  0
LINE
  5
197
330
1F
100
AcDbEntity
  8
0
  6
HIDDEN
 62
     7
370
     0
100
AcDbLine
 10
159.9417394419
 20
90.7171512474
 30
0.0
 11
159.9417394419
 21
92.9056605776
 31
0.0
  0
LINE
  5
198
330
1F
100
AcDbEntity
  8
0
  6
HIDDEN
 62
     7
370
     0
100
AcDbLine
 10
168.8917400707
 20
90.7171512474
 30
0.0
 11
168.8917400707
 21
92.4196387161
 31
0.0
  0
LINE
  5
199
330
1F
100
AcDbEntity
  8
0
  6
HIDDEN
 62
     7
370
     0
100
AcDbLine
 10
159.9417394419
 20
126.6971523394
 30
0.0
 11
159.9417394419
 21
124.5086430092
 31
0.0
  0
LINE
  5
19A
330
1F
100
AcDbEntity
  8
0
  6
HIDDEN
 62
     7
370
     0
100
AcDbLine
 10
164.8917394151
 20
126.6971523394
 30
0.0
 11
164.8917394151
 21
124.9946648706
 31
0.0
  0
LINE
  5
19B
330
1F
100
AcDbEntity
  8
0
  6
HIDDEN
 62
     7
370
     0
100
AcDbLine
 10
256.0812989642
 20
112.3783974428
 30
0.0
 11
252.7493434419
 21
109.0646964833
 31
0.0
  0
SPLINE
  5
19C
330
1F
100
AcDbEntity
  8
0
  6
HIDDEN
 62
     7
370
     0
100
AcDbSpline
210
0.0
220
0.0
230
1.0
 70
    11
 71
     3
 72
    34
 73
    30
 74
     0
 42
0.00000001
 43
0.00000001
 40
0.0
 40
0.0
 40
0.0
 40
0.0
 40
0.0127738749551589
 40
0.0481304964036687
 40
0.0807424858548531
 40
0.1375890904939219
 40
0.1884518708075915
 40
0.2226712072702725
 40
0.2626938332473058
 40
0.2986558257957255
 40
0.3315197710927725
 40
0.3878459600230926
 40
0.3881813485864204
 40
0.4440925970966439
 40
0.4768435525200169
 40
0.5126448808423273
 40
0.5530084569630775
 40
0.5873855765904258
 40
0.6380120863300893
 40
0.6949796216261594
 40
0.727553977840489
 40
0.7628079274880422
 40
0.8028703408017046
 40
0.8370831496023532
 40
0.8877749714158321
 40
0.8880468931671092
 40
0.9388397791869089
 40
0.9729712642356916
 40
1.0
 40
1.0
 40
1.0
 40
1.0
 10
178.8517525811427
 20
85.6394893009827
 30
0.0
 10
178.9109460872538
 20
85.64557871476433
 30
0.0
 10
179.1339804321962
 20
85.66852292778867
 30
0.0
 10
179.6573334226211
 20
85.70516423122312
 30
0.0
 10
180.5300964247241
 20
85.7328510011493
 30
0.0
 10
181.6449344973456
 20
85.72229242972246
 30
0.0
 10
182.7580003127072
 20
85.60615048958086
 30
0.0
 10
183.652441503246
 20
85.484559426215
 30
0.0
 10
184.336276852645
 20
85.36279911905237
 30
0.0
 10
184.8770257014196
 20
85.24644639503713
 30
0.0
 10
185.2904624834456
 20
85.15293885746857
 30
0.0
 10
185.518599297879
 20
85.08638742531683
 30
0.0
 10
185.3640555385078
 20
85.12753001438004
 30
0.0
 10
185.3371691002341
 20
85.14007701450194
 30
0.0
 10
184.8814029507456
 20
85.24560720125967
 30
0.0
 10
184.3574805153637
 20
85.35835474569605
 30
0.0
 10
183.6712703272562
 20
85.48145401521855
 30
0.0
 10
182.7781578393646
 20
85.60344579019217
 30
0.0
 10
181.6647210265517
 20
85.72119759681802
 30
0.0
 10
180.5539703306016
 20
85.73316658578321
 30
0.0
 10
179.6692183490395
 20
85.70611175392543
 30
0.0
 10
179.0020227930864
 20
85.65817879205323
 30
0.0
 10
178.4607487967331
 20
85.60188053859771
 30
0.0
 10
178.0731735498269
 20
85.55681339256199
 30
0.0
 10
177.879134098756
 20
85.51787619420526
 30
0.0
 10
178.0055145525158
 20
85.53938993989637
 30
0.0
 10
178.0346423204953
 20
85.54924594983447
 30
0.0
 10
178.4061360471474
 20
85.59688387262318
 30
0.0
 10
178.7151770730858
 20
85.62643130698949
 30
0.0
 10
178.8517525811427
 20
85.6394893009827
 30
0.0
  0
SPLINE
  5
19D
330
1F
100
AcDbEntity
  8
0
  6
HIDDEN
 62
     7
370
     0
100
AcDbSpline
210
0.0
220
0.0
230
1.0
 70
     8
 71
     3
 72
    38
 73
    34
 74
     0
 42
0.00000001
 43
0.00000001
 40
-0.0939221400677788
 40
-0.0657752597753779
 40
-0.0344739496007943
 40
0.0
 40
0.0323124298479836
 40
0.0609695982577461
 40
0.0859698687835549
 40
0.1073131755946561
 40
0.125001929016961
 40
0.1562358721977445
 40
0.1978507372990772
 40
0.2498168793248351
 40
0.2782629480307222
 40
0.304988415983286
 40
0.3300042168913842
 40
0.3533239044418168
 40
0.3749644360933809
 40
0.4060267838322921
 40
0.4476555976010198
 40
0.4998320869201298
 40
0.5286685248934816
 40
0.5555536435543466
 40
0.5805015705746598
 40
0.6035302879119625
 40
0.6246629693429201
 40
0.6685312637103245
 40
0.7183269153555463
 40
0.7652375706113131
 40
0.7915712044406463
 40
0.812293703571044
 40
0.8615656629637487
 40
0.9060778599322212
 40
0.9342247402246221
 40
0.9655260503992057
 40
1.0
 40
1.032312429847984
 40
1.060969598257746
 40
1.085969868783555
 10
179.6320054554423
 20
131.7101558194046
 30
0.0
 10
179.027937236933
 20
131.7546893246205
 30
0.0
 10
178.5526221740868
 20
131.8027647108535
 30
0.0
 10
178.2330233480869
 20
131.8389274501193
 30
0.0
 10
178.0460289423729
 20
131.8653175843077
 30
0.0
 10
177.9577232828206
 20
131.881387194105
 30
0.0
 10
177.9283097869513
 20
131.8892108793549
 30
0.0
 10
178.0004418570201
 20
131.8710433807712
 30
0.0
 10
178.3215538592146
 20
131.8264368008086
 30
0.0
 10
178.8935813494292
 20
131.7656982721379
 30
0.0
 10
179.5441136971855
 20
131.7163541091179
 30
0.0
 10
180.0939898259269
 20
131.6939916486385
 30
0.0
 10
180.649427691705
 20
131.685509438734
 30
0.0
 10
181.1902032393415
 20
131.6919605248826
 30
0.0
 10
181.7881331341408
 20
131.7154389014843
 30
0.0
 10
182.5277989913078
 20
131.7823587723215
 30
0.0
 10
183.4598486245807
 20
131.8984602062567
 30
0.0
 10
184.2491853582542
 20
132.033775090848
 30
0.0
 10
184.7881150460917
 20
132.1488869149151
 30
0.0
 10
185.1022193859875
 20
132.2186609914662
 30
0.0
 10
185.3074997543534
 20
132.269221076962
 30
0.0
 10
185.4185697404443
 20
132.2998992168688
 30
0.0
 10
185.4648412422483
 20
132.314626234125
 30
0.0
 10
185.338876373902
 20
132.2767666405376
 30
0.0
 10
184.8686308450289
 20
132.1662808561115
 30
0.0
 10
184.2154328814403
 20
132.0265766377354
 30
0.0
 10
183.6114139259243
 20
131.9234500315901
 30
0.0
 10
182.937075876286
 20
131.8240140058206
 30
0.0
 10
182.0517263932986
 20
131.730543671545
 30
0.0
 10
181.0822475026862
 20
131.6835351654723
 30
0.0
 10
180.2939119254193
 20
131.6872193805729
 30
0.0
 10
179.6320054554423
 20
131.7101558194046
 30
0.0
 10
179.027937236933
 20
131.7546893246205
 30
0.0
 10
178.5526221740868
 20
131.8027647108535
 30
0.0
  0
LINE
  5
19E
330
1F
100
AcDbEntity
  8
0
  6
HIDDEN
 62
     7
370
     0
100
AcDbLine
 10
224.7917401065
 20
112.9071516436
 30
0.0
 11
224.7917401065
 21
104.5071519431
 31
0.0
  0
SPLINE
  5
19F
330
1F
100
AcDbEntity
  8
0
  6
HIDDEN
 62
     7
370
     0
100
AcDbSpline
210
0.0
220
0.0
230
1.0
 70
     8
 71
     3
 72
    64
 73
    60
 74
     0
 42
0.00000001
 43
0.00000001
 40
-0.0312499999999999
 40
-0.0312499999999999
 40
0.0
 40
0.0
 40
0.0312500000000001
 40
0.0312500000000001
 40
0.0625000000000001
 40
0.0625000000000001
 40
0.1250000000000003
 40
0.1250000000000003
 40
0.1562500000000003
 40
0.1562500000000003
 40
0.1875000000000004
 40
0.1875000000000004
 40
0.2187500000000005
 40
0.2187500000000005
 40
0.2500000000000006
 40
0.2500000000000006
 40
0.2812500000000006
 40
0.2812500000000006
 40
0.3125000000000007
 40
0.3125000000000007
 40
0.3750000000000014
 40
0.3750000000000014
 40
0.4062500000000013
 40
0.4062500000000013
 40
0.4375000000000012
 40
0.4375000000000012
 40
0.4687500000000011
 40
0.4687500000000011
 40
0.500000000000001
 40
0.500000000000001
 40
0.531250000000001
 40
0.531250000000001
 40
0.5625000000000008
 40
0.5625000000000008
 40
0.5937500000000007
 40
0.5937500000000007
 40
0.6250000000000004
 40
0.6250000000000004
 40
0.6562500000000004
 40
0.6562500000000004
 40
0.6875000000000004
 40
0.6875000000000004
 40
0.7187500000000003
 40
0.7187500000000003
 40
0.7500000000000003
 40
0.7500000000000003
 40
0.7812500000000003
 40
0.7812500000000003
 40
0.8125000000000002
 40
0.8125000000000002
 40
0.8750000000000002
 40
0.8750000000000002
 40
0.9062500000000002
 40
0.9062500000000002
 40
0.9375000000000002
 40
0.9375000000000002
 40
0.9687500000000001
 40
0.9687500000000001
 40
1.0
 40
1.0
 40
1.03125
 40
1.03125
 10
220.5220806019589
 20
104.7235043196277
 30
0.0
 10
220.8613999805634
 20
104.7235043196277
 30
0.0
 10
221.0270865053965
 20
104.7301362711721
 30
0.0
 10
221.3513225815707
 20
104.7569453293331
 30
0.0
 10
221.5111294172986
 20
104.7775291631383
 30
0.0
 10
221.9603042396408
 20
104.8611516708339
 30
0.0
 10
222.229729455705
 20
104.9475782369778
 30
0.0
 10
222.5677644669021
 20
105.133312985362
 30
0.0
 10
222.6713206313013
 20
105.2057501854046
 30
0.0
 10
222.8517081219389
 20
105.3697797888965
 30
0.0
 10
222.9288544560016
 20
105.4610903269376
 30
0.0
 10
223.0563748667792
 20
105.6657066078919
 30
0.0
 10
223.1068984268193
 20
105.7806716923671
 30
0.0
 10
223.1738192547459
 20
106.024326644094
 30
0.0
 10
223.1911783173842
 20
106.15378148873
 30
0.0
 10
223.1922756939924
 20
106.4291364047257
 30
0.0
 10
223.1755497725192
 20
106.5732713912219
 30
0.0
 10
223.1101454876191
 20
106.8622234889385
 30
0.0
 10
223.0606596358875
 20
107.0104021704331
 30
0.0
 10
222.8700472209387
 20
107.4442936934365
 30
0.0
 10
222.68545142479
 20
107.7244960521333
 30
0.0
 10
222.3482352805843
 20
108.090873263499
 30
0.0
 10
222.2242073371982
 20
108.2056757727007
 30
0.0
 10
221.9583764687738
 20
108.411201133573
 30
0.0
 10
221.8179593445461
 20
108.5011975396587
 30
0.0
 10
221.5203258620928
 20
108.6522486005484
 30
0.0
 10
221.3607616378036
 20
108.7137613790528
 30
0.0
 10
221.0351504587952
 20
108.7966153943407
 30
0.0
 10
220.8690382232628
 20
108.8186127508851
 30
0.0
 10
220.5295391760486
 20
108.8198879779426
 30
0.0
 10
220.3628657701908
 20
108.7990586493975
 30
0.0
 10
220.0369607219184
 20
108.7185345390034
 30
0.0
 10
219.8768703127169
 20
108.6581085690031
 30
0.0
 10
219.5765240855744
 20
108.5077952783284
 30
0.0
 10
219.4332606366195
 20
108.4167779238347
 30
0.0
 10
219.1661217393366
 20
108.211660126553
 30
0.0
 10
219.0431622824154
 20
108.0986155021981
 30
0.0
 10
218.8166503008023
 20
107.8541823512156
 30
0.0
 10
218.7128035883632
 20
107.7218625163434
 30
0.0
 10
218.5326470097812
 20
107.450265898259
 30
0.0
 10
218.4551493119572
 20
107.3099066598119
 30
0.0
 10
218.3266711534895
 20
107.0207633371168
 30
0.0
 10
218.2764463374961
 20
106.8724805544663
 30
0.0
 10
218.209669516725
 20
106.5841938158792
 30
0.0
 10
218.1921328153723
 20
106.4421321421565
 30
0.0
 10
218.1913606684554
 20
106.1634380274447
 30
0.0
 10
218.2081272472231
 20
106.032758787952
 30
0.0
 10
218.2740335511298
 20
105.7872737484849
 30
0.0
 10
218.3239871222672
 20
105.6718432787462
 30
0.0
 10
218.5150646245404
 20
105.3619294244682
 30
0.0
 10
218.7003667506176
 20
105.1970631667352
 30
0.0
 10
219.0393561290008
 20
105.010250042957
 30
0.0
 10
219.1645630421132
 20
104.956930541136
 30
0.0
 10
219.430095716236
 20
104.8689200187685
 30
0.0
 10
219.5708905122715
 20
104.8337206621581
 30
0.0
 10
219.8709535652677
 20
104.7777213133251
 30
0.0
 10
220.0311818069889
 20
104.7570544283623
 30
0.0
 10
220.3554691769093
 20
104.7301845276532
 30
0.0
 10
220.5220806019589
 20
104.7235043196277
 30
0.0
 10
220.8613999805634
 20
104.7235043196277
 30
0.0
  0
LINE
  5
1A0
330
1F
100
AcDbEntity
  8
0
  6
HIDDEN
 62
     7
370
     0
100
AcDbLine
 10
212.4917405118
 20
104.5071519431
 30
0.0
 11
212.4917405118
 21
112.9071516436
 31
0.0
  0
CIRCLE
  5
1A1
330
1F
100
AcDbEntity
  8
0
  6
HIDDEN
 62
     7
370
     0
100
AcDbCircle
 10
249.2997407365
 20
134.868424113
 30
0.0
 40
3.477408549757476
  0
CIRCLE
  5
1A2
330
1F
100
AcDbEntity
  8
0
  6
HIDDEN
 62
     7
370
     0
100
AcDbCircle
 10
248.8733292104
 20
134.4443297461
 30
0.0
 40
3.477412175942814
  0
ARC
  5
1A3
330
1F
100
AcDbEntity
  8
0
  6
HIDDEN
 62
     7
370
     0
100
AcDbCircle
 10
245.6504681351
 20
141.7861253753
 30
0.0
 40
2.349361121802619
100
AcDbArc
 50
126.8233589063
 51
274.6040315612
  0
LINE
  5
1A4
330
1F
100
AcDbEntity
  8
0
  6
HIDDEN
 62
     7
370
     0
100
AcDbLine
 10
258.5763717462
 20
140.8697883119
 30
0.0
 11
258.0850879122
 21
140.3811941375
 31
0.0
  0
ELLIPSE
  5
1A5
330
1F
100
AcDbEntity
  8
0
  6
HIDDEN
 62
     7
370
     0
100
AcDbEllipse
 10
244.6004737319
 20
113.2017039514
 30
0.0
 11
3.768286501278368
 21
38.39421154640817
 31
0.0
210
0.0
220
0.0
230
0.9999999999999999
 40
0.0930513613
 41
0.1363380657744462
 42
0.2138792617415784
  0
LINE
  5
1A6
330
1F
100
AcDbEntity
  8
0
  6
HIDDEN
 62
     7
370
     0
100
AcDbLine
 10
247.8482136895
 20
151.2872906853
 30
0.0
 11
247.3452026416
 21
151.2488084365
 31
0.0
  0
ELLIPSE
  5
1A7
330
1F
100
AcDbEntity
  8
0
  6
HIDDEN
 62
     7
370
     0
100
AcDbEllipse
 10
244.0974631513
 20
113.1632224955
 30
0.0
 11
3.768286501278368
 21
38.39421154640817
 31
0.0
210
0.0
220
0.0
230
0.9999999999999999
 40
0.0930513613
 41
0.0163728602259258
 42
0.136338065774454
  0
ELLIPSE
  5
1A8
330
1F
100
AcDbEntity
  8
0
  6
HIDDEN
 62
     7
370
     0
100
AcDbEllipse
 10
498.1088691283
 20
132.5956740287
 30
0.0
 11
336.2839460600749
 21
25.72648837591302
 31
0.0
210
7.131548091273603E-18
220
-9.322007335816852E-17
230
0.9999999999999998
 40
0.1126705179
 41
2.368567755182264
 42
2.455180543859294
  0
SPLINE
  5
1A9
330
1F
100
AcDbEntity
  8
0
  6
HIDDEN
 62
     7
370
     0
100
AcDbSpline
210
0.0
220
0.0
230
1.0
 70
     8
 71
     3
 72
    42
 73
    38
 74
     0
 42
0.00000001
 43
0.00000001
 40
0.0
 40
0.0
 40
0.0
 40
0.0
 40
0.0272952867003343
 40
0.0546631868952148
 40
0.0821039380555952
 40
0.1096177757659677
 40
0.1372049337383098
 40
0.164865643825958
 40
0.1926001360374882
 40
0.2204086385505678
 40
0.248291377725739
 40
0.2762485781202088
 40
0.3042804625015797
 40
0.332387251861541
 40
0.3605691654295284
 40
0.3888264206863286
 40
0.4171592333776516
 40
0.4455678175276314
 40
0.474052385452316
 40
0.5026131477730634
 40
0.5312503134299218
 40
0.5599640896949215
 40
0.5887546821853432
 40
0.6176222948769028
 40
0.6465671301168953
 40
0.6755893886372661
 40
0.7046892695676246
 40
0.7338669704482046
 40
0.7631226872427419
 40
0.7924566143512964
 40
0.821868944623021
 40
0.8513598693688373
 40
0.8809295783740598
 40
0.9105782599109482
 40
0.9403061007511903
 40
0.9701132861783078
 40
1.0
 40
1.0
 40
1.0
 40
1.0
 10
258.2903882164407
 20
151.6191307568379
 30
0.0
 10
258.2669047431239
 20
151.5754206725435
 30
0.0
 10
258.2198753235409
 20
151.4878842222683
 30
0.0
 10
258.1481959028322
 20
151.3435396836573
 30
0.0
 10
258.075598070336
 20
151.1893920312134
 30
0.0
 10
258.0020283759182
 20
151.0244772125376
 30
0.0
 10
257.9275312165765
 20
150.8490121454719
 30
0.0
 10
257.8521246226103
 20
150.6629001775354
 30
0.0
 10
257.775833660505
 20
150.4661332267441
 30
0.0
 10
257.6986814335484
 20
150.2586836764817
 30
0.0
 10
257.6206914893257
 20
150.0405335364482
 30
0.0
 10
257.5418871583217
 20
149.8116666754499
 30
0.0
 10
257.4622917179209
 20
149.5720709879344
 30
0.0
 10
257.3819283341629
 20
149.3217378873416
 30
0.0
 10
257.3008200630937
 20
149.0606625177582
 30
0.0
 10
257.2189898358969
 20
148.7888437714309
 30
0.0
 10
257.136460448203
 20
148.5062843575489
 30
0.0
 10
257.0532545480959
 20
148.2129908562159
 30
0.0
 10
256.9693946242937
 20
147.9089737753276
 30
0.0
 10
256.8849029941117
 20
147.5942476055307
 30
0.0
 10
256.7998017913172
 20
147.2688308744947
 30
0.0
 10
256.7141129538539
 20
146.93274620012
 30
0.0
 10
256.6278582114439
 20
146.5860203426604
 30
0.0
 10
256.5410590730735
 20
146.2286842559365
 30
0.0
 10
256.4537368143628
 20
145.8607731366448
 30
0.0
 10
256.365912464837
 20
145.482326475287
 30
0.0
 10
256.2776067950581
 20
145.093388095262
 30
0.0
 10
256.1888403037914
 20
144.6940062303055
 30
0.0
 10
256.0996332045793
 20
144.2842334519924
 30
0.0
 10
256.0100054140972
 20
143.8641271525615
 30
0.0
 10
255.9199765334223
 20
143.4337479401915
 30
0.0
 10
255.8295658554675
 20
142.9931658493869
 30
0.0
 10
255.7387922740191
 20
142.5424372607297
 30
0.0
 10
255.6476745611336
 20
142.0816915657157
 30
0.0
 10
255.5562302639875
 20
141.6108066073551
 30
0.0
 10
255.4644797743784
 20
141.130624974344
 30
0.0
 10
255.4031957072079
 20
140.8029100635596
 30
0.0
 10
255.3725128501588
 20
140.6388343057859
 30
0.0
  0
LINE
  5
1AA
330
1F
100
AcDbEntity
  8
0
  6
HIDDEN
 62
     7
370
     0
100
AcDbLine
 10
247.5245977212
 20
150.7955225636
 30
0.0
 11
258.2899937798
 21
151.6191022922
 31
0.0
  0
LINE
  5
1AB
330
1F
100
AcDbEntity
  8
0
  6
HIDDEN
 62
     7
370
     0
100
AcDbLine
 10
246.7513690163
 20
144.2062477101
 30
0.0
 11
247.2313205172
 21
144.2429641713
 31
0.0
  0
LINE
  5
1AC
330
1F
100
AcDbEntity
  8
0
  6
HIDDEN
 62
     7
370
     0
100
AcDbLine
 10
246.9240101446
 20
143.9373339046
 30
0.0
 11
247.2313205172
 21
144.2429641713
 31
0.0
  0
LINE
  5
1AD
330
1F
100
AcDbEntity
  8
0
  6
HIDDEN
 62
     7
370
     0
100
AcDbLine
 10
246.726495253
 20
143.9222241272
 30
0.0
 11
246.9240101446
 21
143.9373339046
 31
0.0
  0
LWPOLYLINE
  5
1AE
330
1F
100
AcDbEntity
  8
0
  6
HIDDEN
 62
     7
370
     0
100
AcDbPolyline
 90
        2
 70
   128
 43
0.0
 10
195.6417402644
 20
82.3071519364
 10
195.6417402644
 20
82.3071519364
  0
ELLIPSE
  5
1AF
330
1F
100
AcDbEntity
  8
0
  6
HIDDEN
 62
     7
370
     0
100
AcDbEllipse
 10
251.3530873892
 20
141.2049135368
 30
0.0
 11
0.9406553105117438
 21
2.766158975077389
 31
0.0
210
0.0
220
0.0
230
1.0
 40
0.8539059128
 41
2.218014007038835
 42
2.406555537065144
  0
ELLIPSE
  5
1B0
330
1F
100
AcDbEntity
  8
0
  6
HIDDEN
 62
     7
370
     0
100
AcDbEllipse
 10
250.882234612
 20
140.1868233112
 30
0.0
 11
2.968392757696051
 21
0.488115642672966
 31
0.0
210
0.0
220
0.0
230
1.0
 40
0.1367129703
 41
2.278614760664422
 42
2.866566978731088
  0
ELLIPSE
  5
1B1
330
1F
100
AcDbEntity
  8
0
  6
HIDDEN
 62
     7
370
     0
100
AcDbEllipse
 10
250.4208851266
 20
139.1892813526
 30
0.0
 11
0.9406553105117439
 21
2.76615897507736
 31
0.0
210
0.0
220
0.0
230
1.0
 40
0.8539059128
 41
1.544372593543388
 42
1.63006178897213
  0
SPLINE
  5
1B2
330
1F
100
AcDbEntity
  8
0
  6
HIDDEN
 62
     7
370
     0
100
AcDbSpline
210
0.0
220
0.0
230
1.0
 70
     8
 71
     3
 72
    22
 73
    18
 74
     0
 42
0.00000001
 43
0.00000001
 40
0.0
 40
0.0
 40
0.0
 40
0.0
 40
0.0624999999999995
 40
0.0624999999999995
 40
0.1249999999999989
 40
0.1249999999999989
 40
0.1874999999999984
 40
0.1874999999999984
 40
0.2499999999999978
 40
0.2499999999999978
 40
0.3749999999999986
 40
0.3749999999999986
 40
0.4999999999999994
 40
0.4999999999999994
 40
0.7499999999999997
 40
0.7499999999999997
 40
1.0
 40
1.0
 40
1.0
 40
1.0
 10
250.0483796001101
 20
138.3455687059998
 30
0.0
 10
249.9112991860154
 20
138.383846478769
 30
0.0
 10
249.7827375516088
 20
138.4084462701636
 30
0.0
 10
249.5360851518959
 20
138.4412801620545
 30
0.0
 10
249.4234657058196
 20
138.4487445554555
 30
0.0
 10
249.211415579657
 20
138.4536713508957
 30
0.0
 10
249.1115297789871
 20
138.450926580136
 30
0.0
 10
248.9250885007013
 20
138.4390826129779
 30
0.0
 10
248.8379688488516
 20
138.4299843358615
 30
0.0
 10
248.5895894723318
 20
138.396478691827
 30
0.0
 10
248.4410776242178
 20
138.3659841115162
 30
0.0
 10
248.1662231953439
 20
138.2969891285916
 30
0.0
 10
248.0401685784837
 20
138.2582854397347
 30
0.0
 10
247.6945643918499
 20
138.1382445304133
 30
0.0
 10
247.5037430239497
 20
138.0523374404416
 30
0.0
 10
247.194972592478
 20
137.8908072374928
 30
0.0
 10
247.075691161642
 20
137.8145841431283
 30
0.0
 10
247.016250417232
 20
137.7554690213357
 30
0.0
  0
SPLINE
  5
1B3
330
1F
100
AcDbEntity
  8
0
  6
HIDDEN
 62
     7
370
     0
100
AcDbSpline
210
0.0
220
0.0
230
1.0
 70
     8
 71
     3
 72
     8
 73
     4
 74
     0
 42
0.00000001
 43
0.00000001
 40
0.0
 40
0.0
 40
0.0
 40
0.0
 40
1.0
 40
1.0
 40
1.0
 40
1.0
 10
250.4702737172726
 20
138.1873767144797
 30
0.0
 10
250.3278765988727
 20
138.2322561864419
 30
0.0
 10
250.1872362851494
 20
138.2849470936339
 30
0.0
 10
250.0483796001101
 20
138.3455687059998
 30
0.0
  0
SPLINE
  5
1B4
330
1F
100
AcDbEntity
  8
0
  6
HIDDEN
 62
     7
370
     0
100
AcDbSpline
210
0.0
220
0.0
230
1.0
 70
     8
 71
     3
 72
    22
 73
    18
 74
     0
 42
0.00000001
 43
0.00000001
 40
0.0
 40
0.0
 40
0.0
 40
0.0
 40
0.1249999999999997
 40
0.1249999999999997
 40
0.2499999999999994
 40
0.2499999999999994
 40
0.4999999999999992
 40
0.4999999999999992
 40
0.624999999999999
 40
0.624999999999999
 40
0.7499999999999988
 40
0.7499999999999988
 40
0.8749999999999987
 40
0.8749999999999987
 40
0.9374999999999993
 40
0.9374999999999993
 40
1.0
 40
1.0
 40
1.0
 40
1.0
 10
251.688974848673
 20
136.0034000695223
 30
0.0
 10
251.7183131389801
 20
136.0325776416054
 30
0.0
 10
251.7387510476435
 20
136.0753492868201
 30
0.0
 10
251.7655630587333
 20
136.1808646205498
 30
0.0
 10
251.7718458875762
 20
136.2438827219422
 30
0.0
 10
251.7703831663771
 20
136.4540845050606
 30
0.0
 10
251.7437163561353
 20
136.6220733172633
 30
0.0
 10
251.6523908720733
 20
136.905028209339
 30
0.0
 10
251.613200813473
 20
137.0046877889484
 30
0.0
 10
251.5097411835222
 20
137.2154545515057
 30
0.0
 10
251.4456102098808
 20
137.3265919719837
 30
0.0
 10
251.278635919905
 20
137.5589343264815
 30
0.0
 10
251.1760478707288
 20
137.6809466671385
 30
0.0
 10
250.9683636980415
 20
137.8695040549337
 30
0.0
 10
250.8888727021918
 20
137.9342451153593
 30
0.0
 10
250.7014283450269
 20
138.0636967449493
 30
0.0
 10
250.5940827214749
 20
138.1278981789695
 30
0.0
 10
250.4702737172726
 20
138.1873767144797
 30
0.0
  0
ELLIPSE
  5
1B5
330
1F
100
AcDbEntity
  8
0
  6
HIDDEN
 62
     7
370
     0
100
AcDbEllipse
 10
251.3530873892
 20
141.2049135368
 30
0.0
 11
0.9406553105117438
 21
2.766158975077389
 31
0.0
210
0.0
220
0.0
230
1.0
 40
0.8539059128
 41
4.57694022902729
 42
4.685965247133204
  0
ELLIPSE
  5
1B6
330
1F
100
AcDbEntity
  8
0
  6
HIDDEN
 62
     7
370
     0
100
AcDbEllipse
 10
250.6022927217
 20
139.581525613
 30
0.0
 11
2.968392757696051
 21
0.488115642672966
 31
0.0
210
0.0
220
0.0
230
1.0
 40
0.1367129703
 41
6.202873845855627
 42
8.373258537817733
  0
LINE
  5
1B7
330
1F
100
AcDbEntity
  8
0
  6
HIDDEN
 62
     7
370
     0
100
AcDbLine
 10
195.6417402644
 20
77.223028474
 30
0.0
 11
195.6417402644
 21
82.3071519364
 31
0.0
  0
LINE
  5
1B8
330
1F
100
AcDbEntity
  8
0
  6
HIDDEN
 62
     7
370
     0
100
AcDbLine
 10
195.6417402644
 20
82.3071519364
 30
0.0
 11
203.6417406444
 21
82.3071519364
 31
0.0
  0
LWPOLYLINE
  5
1B9
330
1F
100
AcDbEntity
  8
0
  6
HIDDEN
 62
     7
370
     0
100
AcDbPolyline
 90
       27
 70
   128
 43
0.0
 10
220.6917396207
 20
96.5072153588
 10
221.2900286932
 20
96.566723146
 10
221.8535477687
 20
96.7417875756
 10
222.3495478202
 20
97.0222358112
 10
222.7492006887
 20
97.3917669137
 10
223.0292791893
 20
97.8289073785
 10
223.1735112537
 20
98.3082507257
 10
223.1735112537
 20
98.8019401659
 10
223.0292791893
 20
99.2812844445
 10
222.7492006887
 20
99.7184239779
 10
222.3495478202
 20
100.0879560117
 10
221.8535477687
 20
100.368403316
 10
221.2900286932
 20
100.5434677456
 10
220.6917396207
 20
100.6029755328
 10
220.0934505482
 20
100.5434677456
 10
219.5299314727
 20
100.368403316
 10
219.0339332838
 20
100.0879560117
 10
218.6342804153
 20
99.7184239779
 10
218.3542000522
 20
99.2812844445
 10
218.2099679877
 20
98.8019401659
 10
218.2099679877
 20
98.3082507257
 10
218.3542000522
 20
97.8289073785
 10
218.6342804153
 20
97.3917669137
 10
219.0339332838
 20
97.0222358112
 10
219.5299314727
 20
96.7417875756
 10
220.0934505482
 20
96.566723146
 10
220.6917396207
 20
96.5072153588
  0
ELLIPSE
  5
1BA
330
1F
100
AcDbEntity
  8
0
  6
HIDDEN
 62
     7
370
     0
100
AcDbEllipse
 10
246.1983135482
 20
131.7426988978
 30
0.0
 11
3.01089176556701
 21
2.994397785440754
 31
0.0
210
0.0
220
0.0
230
1.0
 40
0.9890738004
 41
0.0
 42
6.283185307179586
  0
ELLIPSE
  5
1BB
330
1F
100
AcDbEntity
  8
0
  6
HIDDEN
 62
     7
370
     0
100
AcDbEllipse
 10
248.1274486736
 20
133.6612660191
 30
0.0
 11
3.518690774465682
 21
-2.323872478491126
 31
0.0
210
0.0
220
0.0
230
1.0
 40
0.89827004
 41
1.182660514095204
 42
2.4577843553336
  0
LINE
  5
1BC
330
1F
100
AcDbEntity
  8
0
  6
HIDDEN
 62
     7
370
     0
100
AcDbLine
 10
251.3913372923
 20
135.707392775
 30
0.0
 11
251.688973086
 21
136.0034006168
 31
0.0
  0
LINE
  5
1BD
330
1F
100
AcDbEntity
  8
0
  6
HIDDEN
 62
     7
370
     0
100
AcDbLine
 10
247.0162520577
 20
137.7554698367
 30
0.0
 11
246.7186125387
 21
137.4594601323
 31
0.0
  0
ARC
  5
1BE
330
1F
100
AcDbEntity
  8
0
  6
HIDDEN
 62
     7
370
     0
100
AcDbCircle
 10
248.7925681576
 20
134.3546876696
 30
0.0
 40
4.183802021145628
100
AcDbArc
 50
66.3592708807
 51
72.5327415266
  0
ARC
  5
1BF
330
1F
100
AcDbEntity
  8
0
  6
HIDDEN
 62
     7
370
     0
100
AcDbCircle
 10
245.6289018513
 20
142.0354018335
 30
0.0
 40
2.101841155850618
100
AcDbArc
 50
135.38015085
 51
274.5520223081
  0
LINE
  5
1C0
330
1F
100
AcDbEntity
  8
0
  6
HIDDEN
 62
     7
370
     0
100
AcDbLine
 10
248.9015506972
 20
140.1777932872
 30
0.0
 11
246.3817047347
 21
139.9850206901
 31
0.0
  0
LINE
  5
1C1
330
1F
100
AcDbEntity
  8
0
  6
HIDDEN
 62
     7
370
     0
100
AcDbLine
 10
245.8568634857
 20
139.9448695113
 30
0.0
 11
245.7957128455
 21
139.9401905466
 31
0.0
  0
LINE
  5
1C2
330
1F
100
AcDbEntity
  8
0
  6
HIDDEN
 62
     7
370
     0
100
AcDbLine
 10
245.8390491475
 20
139.4443450947
 30
0.0
 11
249.0712860991
 21
139.6916186888
 31
0.0
  0
ARC
  5
1C3
330
1F
100
AcDbEntity
  8
0
  6
HIDDEN
 62
     7
370
     0
100
AcDbCircle
 10
245.3197077755
 20
141.726959457
 30
0.0
 40
2.099188166890005
100
AcDbArc
 50
125.9862277261
 51
274.6092646181
  0
LINE
  5
1C4
330
1F
100
AcDbEntity
  8
0
  6
HIDDEN
 62
     7
370
     0
100
AcDbLine
 10
247.2313205172
 20
144.2429641713
 30
0.0
 11
247.8482136895
 21
151.2872906853
 31
0.0
  0
LINE
  5
1C5
330
1F
100
AcDbEntity
  8
0
  6
HIDDEN
 62
     7
370
     0
100
AcDbLine
 10
247.3452026416
 20
151.2488084365
 30
0.0
 11
246.7283131947
 21
144.2044856478
 31
0.0
  0
LINE
  5
1C6
330
1F
100
AcDbEntity
  8
0
  6
HIDDEN
 62
     7
370
     0
100
AcDbLine
 10
253.7703523804
 20
140.550270163
 30
0.0
 11
253.6894465257
 21
140.3288798858
 31
0.0
  0
LINE
  5
1C7
330
1F
100
AcDbEntity
  8
0
  6
HIDDEN
 62
     7
370
     0
100
AcDbLine
 10
258.1290910412
 20
140.8837208976
 30
0.0
 11
253.7703523804
 21
140.550270163
 31
0.0
  0
LINE
  5
1C8
330
1F
100
AcDbEntity
  8
0
  6
HIDDEN
 62
     7
370
     0
100
AcDbLine
 10
253.566474693
 20
140.0355095495
 30
0.0
 11
258.0850879122
 21
140.3811941375
 31
0.0
  0
LINE
  5
1C9
330
1F
100
AcDbEntity
  8
0
  6
HIDDEN
 62
     7
370
     0
100
AcDbLine
 10
258.0850879122
 20
140.3811941375
 30
0.0
 11
258.1290910412
 21
140.8837208976
 31
0.0
  0
LINE
  5
1CA
330
1F
100
AcDbEntity
  8
0
  6
HIDDEN
 62
     7
370
     0
100
AcDbLine
 10
252.4380693604
 20
139.0051147421
 30
0.0
 11
251.3913372923
 21
135.707392775
 31
0.0
  0
LINE
  5
1CB
330
1F
100
AcDbEntity
  8
0
  6
HIDDEN
 62
     7
370
     0
100
AcDbLine
 10
254.2744139601
 20
142.9757098187
 30
0.0
 11
254.5676166584
 21
143.2673069168
 31
0.0
  0
LINE
  5
1CC
330
1F
100
AcDbEntity
  8
0
  6
HIDDEN
 62
     7
370
     0
100
AcDbLine
 10
253.4630382825
 20
140.2446398963
 30
0.0
 11
254.5676166584
 21
143.2673069168
 31
0.0
  0
LINE
  5
1CD
330
1F
100
AcDbEntity
  8
0
  6
HIDDEN
 62
     7
370
     0
100
AcDbLine
 10
253.4630382825
 20
140.2446398963
 30
0.0
 11
253.7703523804
 21
140.550270163
 31
0.0
  0
LINE
  5
1CE
330
1F
100
AcDbEntity
  8
0
  6
HIDDEN
 62
     7
370
     0
100
AcDbLine
 10
258.1290910412
 20
140.8837208976
 30
0.0
 11
257.8217769433
 21
140.5780906309
 31
0.0
  0
LINE
  5
1CF
330
1F
100
AcDbEntity
  8
0
  6
HIDDEN
 62
     7
370
     0
100
AcDbLine
 10
164.8917394151
 20
126.6971523394
 30
0.0
 11
164.8917394151
 21
124.9946648706
 31
0.0
  0
LINE
  5
1D0
330
1F
100
AcDbEntity
  8
0
  6
HIDDEN
 62
     7
370
     0
100
AcDbLine
 10
168.8917400707
 20
90.7171512474
 30
0.0
 11
168.8917400707
 21
92.4196387161
 31
0.0
  0
ARC
  5
1D1
330
1F
100
AcDbEntity
  8
0
  6
HIDDEN
 62
     7
370
     0
100
AcDbCircle
 10
252.9268955562
 20
145.9986004348
 30
0.0
 40
3.186209349057512
100
AcDbArc
 50
300.9937479212
 51
197.8985568579
  0
LINE
  5
1D2
330
1F
100
AcDbEntity
  8
0
  6
HIDDEN
 62
     7
370
     0
100
AcDbLine
 10
249.8948919047
 20
145.0193742742
 30
0.0
 11
248.0845237543
 21
140.0653155972
 31
0.0
  0
LINE
  5
1D3
330
1F
100
AcDbEntity
  8
0
  6
HIDDEN
 62
     7
370
     0
100
AcDbLine
 10
258.7481001784
 20
151.1556761791
 30
0.0
 11
258.2902023961
 21
151.6214231481
 31
0.0
  0
LINE
  5
1D4
330
1F
100
AcDbEntity
  8
0
  6
HIDDEN
 62
     7
370
     0
100
AcDbLine
 10
253.4630382825
 20
140.2446398963
 30
0.0
 11
257.8217769433
 21
140.5780906309
 31
0.0
  0
LINE
  5
1D5
330
1F
100
AcDbEntity
  8
0
  6
HIDDEN
 62
     7
370
     0
100
AcDbLine
 10
247.5245977212
 20
150.7955225636
 30
0.0
 11
246.9240101446
 21
143.9373339046
 31
0.0
  0
LINE
  5
1D6
330
1F
100
AcDbEntity
  8
0
  6
HIDDEN
 62
     7
370
     0
100
AcDbLine
 10
245.4883987476
 20
139.63456028
 30
0.0
 11
248.0072761346
 21
139.8272602339
 31
0.0
  0
LINE
  5
1D7
330
1F
100
AcDbEntity
  8
0
  6
HIDDEN
 62
     7
370
     0
100
AcDbLine
 10
258.7480852772
 20
151.1556612779
 30
0.0
 11
257.8217769433
 21
140.5780906309
 31
0.0
  0
LINE
  5
1D8
330
1F
100
AcDbEntity
  8
0
  6
HIDDEN
 62
     7
370
     0
100
AcDbLine
 10
164.8917394151
 20
126.6971523394
 30
0.0
 11
164.8917394151
 21
130.551259451
 31
0.0
  0
LINE
  5
1D9
330
1F
100
AcDbEntity
  8
0
  6
HIDDEN
 62
     7
370
     0
100
AcDbLine
 10
168.8917400707
 20
90.7171512474
 30
0.0
 11
168.8917400707
 21
86.7620030869
 31
0.0
  0
LWPOLYLINE
  5
1DA
330
1F
100
AcDbEntity
  8
0
  6
HIDDEN
 62
     7
370
     0
100
AcDbPolyline
 90
        2
 70
   128
 43
0.0
 10
216.6417399813
 20
135.1071516503
 10
216.6417399813
 20
135.1071516503
  0
LWPOLYLINE
  5
1DB
330
1F
100
AcDbEntity
  8
0
  6
HIDDEN
 62
     7
370
     0
100
AcDbPolyline
 90
        2
 70
   128
 43
0.0
 10
216.6417399813
 20
82.3071519364
 10
216.6417399813
 20
82.3071519364
  0
ARC
  5
1DC
330
1F
100
AcDbEntity
  8
0
  6
HIDDEN
 62
     7
370
     0
100
AcDbCircle
 10
252.368484826
 20
145.3774010399
 30
0.0
 40
3.13866918826346
100
AcDbArc
 50
292.7616024593
 51
353.7241769483
  0
ARC
  5
1DD
330
1F
100
AcDbEntity
  8
0
  6
HIDDEN
 62
     7
370
     0
100
AcDbCircle
 10
252.3307707049
 20
145.4296996158
 30
0.0
 40
3.177505643593789
100
AcDbArc
 50
358.9904095569
 51
206.3273528226
  0
SPLINE
  5
1DE
330
1F
100
AcDbEntity
  8
0
  6
HIDDEN
 62
     7
370
     0
100
AcDbSpline
210
0.0
220
0.0
230
1.0
 70
     8
 71
     3
 72
    10
 73
     6
 74
     0
 42
0.00000001
 43
0.00000001
 40
0.0
 40
0.0
 40
0.0
 40
0.0
 40
0.5
 40
0.5
 40
1.0
 40
1.0
 40
1.0
 40
1.0
 10
249.4828537184221
 20
144.0204779432289
 30
0.0
 10
249.474006123483
 20
144.1810317261755
 30
0.0
 10
249.4809598673677
 20
144.3278430032498
 30
0.0
 10
249.5203931974889
 20
144.5758129669134
 30
0.0
 10
249.5523829576229
 20
144.6787416817915
 30
0.0
 10
249.6016910813947
 20
144.7277796905022
 30
0.0
  0
SPLINE
  5
1DF
330
1F
100
AcDbEntity
  8
0
  6
HIDDEN
 62
     7
370
     0
100
AcDbSpline
210
0.0
220
0.0
230
1.0
 70
     8
 71
     3
 72
    10
 73
     6
 74
     0
 42
0.00000001
 43
0.00000001
 40
0.0
 40
0.0
 40
0.0
 40
0.0
 40
0.5
 40
0.5
 40
1.0
 40
1.0
 40
1.0
 40
1.0
 10
254.2744155128327
 20
142.9757107386882
 30
0.0
 10
254.2250194703214
 20
142.9265852928662
 30
0.0
 10
254.1287273440804
 20
142.8489250873545
 30
0.0
 10
253.8901567994278
 20
142.6755408327732
 30
0.0
 10
253.7464344928623
 20
142.5792538748145
 30
0.0
 10
253.5828315032125
 20
142.4831641372769
 30
0.0
  0
LINE
  5
1E0
330
1F
100
AcDbEntity
  8
0
  6
HIDDEN
 62
     7
370
     0
100
AcDbLine
 10
249.8948919047
 20
145.0193742742
 30
0.0
 11
249.6016929318
 21
144.7277809013
 31
0.0
  0
SPLINE
  5
1E1
330
1F
100
AcDbEntity
  8
0
  6
HIDDEN
 62
     7
370
     0
100
AcDbSpline
210
0.0
220
0.0
230
1.0
 70
     8
 71
     3
 72
    10
 73
     6
 74
     0
 42
0.00000001
 43
0.00000001
 40
0.0
 40
0.0
 40
0.0
 40
0.0
 40
0.5
 40
0.5
 40
1.0
 40
1.0
 40
1.0
 40
1.0
 10
159.9316953608427
 20
129.5671056856648
 30
0.0
 10
159.8641361059245
 20
129.499414292855
 30
0.0
 10
159.800499450588
 20
129.4247071281014
 30
0.0
 10
159.6902786960162
 20
129.2657409956747
 30
0.0
 10
159.6434624027935
 20
129.1813857296667
 30
0.0
 10
159.6158939373655
 20
129.097271126975
 30
0.0
  0
LINE
  5
1E2
330
1F
100
AcDbEntity
  8
0
  6
HIDDEN
 62
     7
370
     0
100
AcDbLine
 10
159.9417394419
 20
126.6971523394
 30
0.0
 11
159.9417394419
 21
129.5770904501
 31
0.0
  0
LINE
  5
1E3
330
1F
100
AcDbEntity
  8
0
  6
HIDDEN
 62
     7
370
     0
100
AcDbLine
 10
158.7917404641
 20
126.6971523394
 30
0.0
 11
158.7917404641
 21
128.397829317
 31
0.0
  0
SPLINE
  5
1E4
330
1F
100
AcDbEntity
  8
0
  6
HIDDEN
 62
     7
370
     0
100
AcDbSpline
210
0.0
220
0.0
230
1.0
 70
     8
 71
     3
 72
    10
 73
     6
 74
     0
 42
0.00000001
 43
0.00000001
 40
0.0
 40
0.0
 40
0.0
 40
0.0
 40
0.5
 40
0.5
 40
1.0
 40
1.0
 40
1.0
 40
1.0
 10
158.8544036659844
 20
128.3817043381579
 30
0.0
 10
158.8454993768756
 20
128.4274458573711
 30
0.0
 10
158.8289839966827
 20
128.4446366968401
 30
0.0
 10
158.801876050621
 20
128.4443134199043
 30
0.0
 10
158.791740291261
 20
128.4264358776079
 30
0.0
 10
158.791740291261
 20
128.3978295398553
 30
0.0
  0
LINE
  5
1E5
330
1F
100
AcDbEntity
  8
0
  6
HIDDEN
 62
     7
370
     0
100
AcDbLine
 10
159.9417394419
 20
126.6971523394
 30
0.0
 11
159.9417394419
 21
124.5086430092
 31
0.0
  0
ELLIPSE
  5
1E6
330
1F
100
AcDbEntity
  8
0
  6
HIDDEN
 62
     7
370
     0
100
AcDbEllipse
 10
154.6243084269
 20
108.7071517934
 30
0.0
 11
20.07002071827051
 21
-1.421085471520200E-14
 31
0.0
210
0.0
220
0.0
230
1.0
 40
0.8164965809
 41
1.302650465081199
 42
1.3616298439939
  0
LINE
  5
1E7
330
1F
100
AcDbEntity
  8
0
  6
HIDDEN
 62
     7
370
     0
100
AcDbLine
 10
158.7917404641
 20
126.6971523394
 30
0.0
 11
158.7917404641
 21
124.7370871235
 31
0.0
  0
ELLIPSE
  5
1E8
330
1F
100
AcDbEntity
  8
0
  6
HIDDEN
 62
     7
370
     0
100
AcDbEllipse
 10
154.6243084269
 20
108.7071517934
 30
0.0
 11
20.07002071827051
 21
-2.842170943040401E-14
 31
0.0
210
0.0
220
0.0
230
1.0
 40
0.8164965809
 41
4.921555463185701
 42
4.980534842098402
  0
LINE
  5
1E9
330
1F
100
AcDbEntity
  8
0
  6
HIDDEN
 62
     7
370
     0
100
AcDbLine
 10
158.7917404641
 20
124.7370871235
 30
0.0
 11
158.7917404641
 21
92.6772164632
 31
0.0
  0
SPLINE
  5
1EA
330
1F
100
AcDbEntity
  8
0
  6
HIDDEN
 62
     7
370
     0
100
AcDbSpline
210
0.0
220
0.0
230
1.0
 70
     8
 71
     3
 72
     8
 73
     4
 74
     0
 42
0.00000001
 43
0.00000001
 40
0.0
 40
0.0
 40
0.0
 40
0.0
 40
1.0
 40
1.0
 40
1.0
 40
1.0
 10
159.7306498614601
 20
88.26322949041155
 30
0.0
 10
159.76636351983
 20
88.13999798515174
 30
0.0
 10
159.8420315587783
 20
88.01905440820475
 30
0.0
 10
159.9316953608514
 20
87.91233536450149
 30
0.0
  0
SPLINE
  5
1EB
330
1F
100
AcDbEntity
  8
0
  6
HIDDEN
 62
     7
370
     0
100
AcDbSpline
210
0.0
220
0.0
230
1.0
 70
     8
 71
     3
 72
    10
 73
     6
 74
     0
 42
0.00000001
 43
0.00000001
 40
0.0
 40
0.0
 40
0.0
 40
0.0
 40
0.5
 40
0.5
 40
1.0
 40
1.0
 40
1.0
 40
1.0
 10
158.7917402912605
 20
89.05399126842426
 30
0.0
 10
158.7917402912605
 20
89.0404747425565
 30
0.0
 10
158.7970598518887
 20
89.0363039701992
 30
0.0
 10
158.8101880841704
 20
89.05443501358678
 30
0.0
 10
158.8178807388244
 20
89.07734343864871
 30
0.0
 10
158.8220179068696
 20
89.1170642331503
 30
0.0
  0
LINE
  5
1EC
330
1F
100
AcDbEntity
  8
0
  6
HIDDEN
 62
     7
370
     0
100
AcDbLine
 10
158.7917404641
 20
90.7171512474
 30
0.0
 11
158.7917404641
 21
89.0539916684
 31
0.0
  0
LINE
  5
1ED
330
1F
100
AcDbEntity
  8
0
  6
HIDDEN
 62
     7
370
     0
100
AcDbLine
 10
159.9417394419
 20
90.7171512474
 30
0.0
 11
159.9417394419
 21
87.90052072
 31
0.0
  0
LINE
  5
1EE
330
1F
100
AcDbEntity
  8
0
  6
HIDDEN
 62
     7
370
     0
100
AcDbLine
 10
159.9417394419
 20
90.7171512474
 30
0.0
 11
159.9417394419
 21
92.9056605776
 31
0.0
  0
LINE
  5
1EF
330
1F
100
AcDbEntity
  8
0
  6
HIDDEN
 62
     7
370
     0
100
AcDbLine
 10
158.7917404641
 20
90.7171512474
 30
0.0
 11
158.7917404641
 21
92.6772164632
 31
0.0
  0
SPLINE
  5
1F0
330
1F
100
AcDbEntity
  8
0
  6
HIDDEN
 62
     7
370
     0
100
AcDbSpline
210
0.0
220
0.0
230
1.0
 70
     8
 71
     3
 72
    35
 73
    31
 74
     0
 42
0.00000001
 43
0.00000001
 40
0.0
 40
0.0
 40
0.0
 40
0.0
 40
0.0278702770157458
 40
0.0556913512096653
 40
0.083471371290719
 40
0.1112185221378773
 40
0.1389410177433817
 40
0.1666470940280258
 40
0.1943450015593683
 40
0.2220429982047968
 40
0.2497493417520168
 40
0.2774722825298992
 40
0.3052200560626074
 40
0.3330008757895692
 40
0.3608229258831996
 40
0.3886943541952554
 40
0.416623265361405
 40
0.4446177140920065
 40
0.4726856986752463
 40
0.500835154716717
 40
0.5514167601637804
 40
0.6017233078907709
 40
0.6518016670008768
 40
0.7016993496170103
 40
0.7514643853560431
 40
0.8011451885510507
 40
0.8507904199679951
 40
0.9004488449443266
 40
0.9501691899970807
 40
1.0
 40
1.0
 40
1.0
 40
1.0
 10
255.7980049572999
 20
140.0234056991173
 30
0.0
 10
255.8269621917096
 20
140.17874888421
 30
0.0
 10
255.884825538768
 20
140.4891610079983
 30
0.0
 10
255.9715812487512
 20
140.9449481534228
 30
0.0
 10
256.0581980458546
 20
141.3929400383681
 30
0.0
 10
256.1446797770181
 20
141.8324703376175
 30
0.0
 10
256.2310253850368
 20
142.2637170490972
 30
0.0
 10
256.3172351238028
 20
142.6866323904079
 30
0.0
 10
256.4033088962436
 20
143.1012289930415
 30
0.0
 10
256.4892466991982
 20
143.5075033285139
 30
0.0
 10
256.5750485045147
 20
143.9054562066763
 30
0.0
 10
256.6607142910297
 20
144.2950872869708
 30
0.0
 10
256.7462440363017
 20
144.6763965499528
 30
0.0
 10
256.8316377184965
 20
145.0493839023583
 30
0.0
 10
256.9168953178854
 20
145.4140492874848
 30
0.0
 10
257.0020168096787
 20
145.7703926408422
 30
0.0
 10
257.0870021919526
 20
146.118413958613
 30
0.0
 10
257.1718513814259
 20
146.4581130683213
 30
0.0
 10
257.2565646043229
 20
146.7894904807667
 30
0.0
 10
257.3635155135728
 20
147.198007731629
 30
0.0
 10
257.491882155555
 20
147.6717257760438
 30
0.0
 10
257.6406107307634
 20
148.1950754238986
 30
0.0
 10
257.7870688813219
 20
148.6845379643138
 30
0.0
 10
257.9312550460543
 20
149.1401030155761
 30
0.0
 10
258.0731702530914
 20
149.5617856424347
 30
0.0
 10
258.2128093420627
 20
149.9495235194124
 30
0.0
 10
258.3501893074379
 20
150.3035397883484
 30
0.0
 10
258.48524480469
 20
150.6229954222675
 30
0.0
 10
258.6182181527833
 20
150.9110212278591
 30
0.0
 10
258.7047492163442
 20
151.0740379703772
 30
0.0
 10
258.7480627568576
 20
151.1556367857718
 30
0.0
  0
SPLINE
  5
1F1
330
1F
100
AcDbEntity
  8
0
  6
HIDDEN
 62
     7
370
     0
100
AcDbSpline
210
0.0
220
0.0
230
1.0
 70
     8
 71
     3
 72
    10
 73
     6
 74
     0
 42
0.00000001
 43
0.00000001
 40
0.0
 40
0.0
 40
0.0
 40
0.0
 40
0.5
 40
0.5
 40
1.0
 40
1.0
 40
1.0
 40
1.0
 10
206.781740291261
 20
135.8268056444129
 30
0.0
 10
206.781740291261
 20
135.6831932928549
 30
0.0
 10
206.8179075663588
 20
135.5402198791363
 30
0.0
 10
206.9536635101127
 20
135.2902272524226
 30
0.0
 10
207.0539332007356
 20
135.1822249431438
 30
0.0
 10
207.176037822952
 20
135.1071517933771
 30
0.0
  0
LINE
  5
1F2
330
1F
100
AcDbEntity
  8
0
  6
HIDDEN
 62
     7
370
     0
100
AcDbLine
 10
206.7817403395
 20
135.8268050928
 30
0.0
 11
206.7817403395
 21
81.9027567734
 31
0.0
  0
SPLINE
  5
1F3
330
1F
100
AcDbEntity
  8
0
  6
HIDDEN
 62
     7
370
     0
100
AcDbSpline
210
0.0
220
0.0
230
1.0
 70
     8
 71
     3
 72
    10
 73
     6
 74
     0
 42
0.00000001
 43
0.00000001
 40
0.0
 40
0.0
 40
0.0
 40
0.0
 40
0.5
 40
0.5
 40
1.0
 40
1.0
 40
1.0
 40
1.0
 10
206.781740291261
 20
81.9027561650478
 30
0.0
 10
206.781740291261
 20
81.97299252541832
 30
0.0
 10
206.7900229033514
 20
82.04298662691556
 30
0.0
 10
206.8231228464097
 20
82.17994589147403
 30
0.0
 10
206.8474602383681
 20
82.24525380072912
 30
0.0
 10
206.8794150935925
 20
82.30715179337585
 30
0.0
  0
SPLINE
  5
1F4
330
1F
100
AcDbEntity
  8
0
  6
HIDDEN
 62
     7
370
     0
100
AcDbSpline
210
0.0
220
0.0
230
1.0
 70
    24
 71
     3
 72
    12
 73
     8
 74
     0
 42
0.00000001
 43
0.00000001
 40
0.0
 40
0.0
 40
0.0
 40
0.0
 40
0.5000000000000073
 40
0.5000000000000073
 40
0.7500000000000037
 40
0.7500000000000037
 40
1.0
 40
1.0
 40
1.0
 40
1.0
 10
207.1760378229519
 20
135.1071517933771
 30
0.0
 10
207.2191611713855
 20
135.1071517933771
 30
0.0
 10
207.2689007586857
 20
135.1071517933771
 30
0.0
 10
207.3654217355077
 20
135.1071517933771
 30
0.0
 10
207.4009868663593
 20
135.1071517933771
 30
0.0
 10
207.4843351969822
 20
135.1071517933771
 30
0.0
 10
207.5328050966726
 20
135.1071517933771
 30
0.0
 10
207.5817402912622
 20
135.1071517933771
 30
0.0
  0
SPLINE
  5
1F5
330
1F
100
AcDbEntity
  8
0
  6
HIDDEN
 62
     7
370
     0
100
AcDbSpline
210
0.0
220
0.0
230
1.0
 70
    24
 71
     3
 72
    14
 73
    10
 74
     0
 42
0.00000001
 43
0.00000001
 40
0.0
 40
0.0
 40
0.0
 40
0.0
 40
0.5000000000000013
 40
0.5000000000000013
 40
0.7500000000000024
 40
0.7500000000000024
 40
0.8750000000000012
 40
0.8750000000000012
 40
1.0
 40
1.0
 40
1.0
 40
1.0
 10
206.8794150935931
 20
82.3071517933771
 30
0.0
 10
206.926621581433
 20
82.3071517933771
 30
0.0
 10
206.9899615848623
 20
82.3071517933771
 30
0.0
 10
207.1330246911181
 20
82.3071517933771
 30
0.0
 10
207.1891053413891
 20
82.3071517933771
 30
0.0
 10
207.3005406912985
 20
82.3071517933771
 30
0.0
 10
207.3424854819715
 20
82.3071517933771
 30
0.0
 10
207.4474819249916
 20
82.3071517933771
 30
0.0
 10
207.5130458620724
 20
82.3071517933771
 30
0.0
 10
207.5817402912608
 20
82.3071517933771
 30
0.0
  0
LINE
  5
1F6
330
1F
100
AcDbEntity
  8
0
  6
HIDDEN
 62
     7
370
     0
100
AcDbLine
 10
210.6017405559
 20
135.8268050928
 30
0.0
 11
210.6017405559
 21
81.9027567734
 31
0.0
  0
SPLINE
  5
1F7
330
1F
100
AcDbEntity
  8
0
  6
HIDDEN
 62
     7
370
     0
100
AcDbSpline
210
0.0
220
0.0
230
1.0
 70
     8
 71
     3
 72
    10
 73
     6
 74
     0
 42
0.00000001
 43
0.00000001
 40
0.0
 40
0.0
 40
0.0
 40
0.0
 40
0.5
 40
0.5
 40
1.0
 40
1.0
 40
1.0
 40
1.0
 10
210.20744275957
 20
135.1071517933771
 30
0.0
 10
210.3287552826677
 20
135.1817379396653
 30
0.0
 10
210.4301836448929
 20
135.2905622508167
 30
0.0
 10
210.566127211153
 20
135.5415827694384
 30
0.0
 10
210.601740291261
 20
135.6841654625777
 30
0.0
 10
210.601740291261
 20
135.826805644413
 30
0.0
  0
SPLINE
  5
1F8
330
1F
100
AcDbEntity
  8
0
  6
HIDDEN
 62
     7
370
     0
100
AcDbSpline
210
0.0
220
0.0
230
1.0
 70
     8
 71
     3
 72
    10
 73
     6
 74
     0
 42
0.00000001
 43
0.00000001
 40
0.0
 40
0.0
 40
0.0
 40
0.0
 40
0.5
 40
0.5
 40
1.0
 40
1.0
 40
1.0
 40
1.0
 10
210.5040654889287
 20
82.3071517933771
 30
0.0
 10
210.5362206765507
 20
82.24486574786098
 30
0.0
 10
210.560876907745
 20
82.17833532299174
 30
0.0
 10
210.5936896646704
 20
82.04147669262923
 30
0.0
 10
210.601740291261
 20
81.97241909745087
 30
0.0
 10
210.601740291261
 20
81.90275616504753
 30
0.0
  0
SPLINE
  5
1F9
330
1F
100
AcDbEntity
  8
0
  6
HIDDEN
 62
     7
370
     0
100
AcDbSpline
210
0.0
220
0.0
230
1.0
 70
    24
 71
     3
 72
    12
 73
     8
 74
     0
 42
0.00000001
 43
0.00000001
 40
0.0
 40
0.0
 40
0.0
 40
0.0
 40
0.2500000000000008
 40
0.2500000000000008
 40
0.5000000000000017
 40
0.5000000000000017
 40
1.0
 40
1.0
 40
1.0
 40
1.0
 10
209.801740291261
 20
135.1071517933771
 30
0.0
 10
209.8512753974789
 20
135.1071517933771
 30
0.0
 10
209.8996802860804
 20
135.1071517933771
 30
0.0
 10
209.9825668352581
 20
135.1071517933771
 30
0.0
 10
210.0190815567264
 20
135.1071517933771
 30
0.0
 10
210.1154143950811
 20
135.1071517933771
 30
0.0
 10
210.1641669427437
 20
135.1071517933771
 30
0.0
 10
210.2074427595744
 20
135.1071517933771
 30
0.0
  0
SPLINE
  5
1FA
330
1F
100
AcDbEntity
  8
0
  6
HIDDEN
 62
     7
370
     0
100
AcDbSpline
210
0.0
220
0.0
230
1.0
 70
    24
 71
     3
 72
    14
 73
    10
 74
     0
 42
0.00000001
 43
0.00000001
 40
0.0
 40
0.0
 40
0.0
 40
0.0
 40
0.1250000000000023
 40
0.1250000000000023
 40
0.2500000000000046
 40
0.2500000000000046
 40
0.5000000000000031
 40
0.5000000000000031
 40
1.0
 40
1.0
 40
1.0
 40
1.0
 10
209.801740291261
 20
82.3071517933771
 30
0.0
 10
209.8708369236049
 20
82.3071517933771
 30
0.0
 10
209.9358300892129
 20
82.3071517933771
 30
0.0
 10
210.040151287858
 20
82.3071517933771
 30
0.0
 10
210.0829316619665
 20
82.3071517933771
 30
0.0
 10
210.1952693216128
 20
82.30715179337712
 30
0.0
 10
210.2503165037551
 20
82.3071517933771
 30
0.0
 10
210.3941932775252
 20
82.3071517933771
 30
0.0
 10
210.4572225908002
 20
82.30715179337712
 30
0.0
 10
210.5040654889287
 20
82.3071517933771
 30
0.0
  0
LINE
  5
1FB
330
1F
100
AcDbEntity
  8
0
  6
HIDDEN
 62
     7
370
     0
100
AcDbLine
 10
207.5817408432
 20
135.1071516503
 30
0.0
 11
209.8017400522
 21
135.1071516503
 31
0.0
  0
LINE
  5
1FC
330
1F
100
AcDbEntity
  8
0
  6
HIDDEN
 62
     7
370
     0
100
AcDbLine
 10
207.5817408432
 20
82.3071519364
 30
0.0
 11
209.8017400522
 21
82.3071519364
 31
0.0
  0
SPLINE
  5
1FD
330
1F
100
AcDbEntity
  8
0
  6
HIDDEN
 62
     7
370
     0
100
AcDbSpline
210
0.0
220
0.0
230
1.0
 70
     8
 71
     3
 72
    12
 73
     8
 74
     0
 42
0.00000001
 43
0.00000001
 40
0.0
 40
0.0
 40
0.0
 40
0.0
 40
0.249999999999998
 40
0.249999999999998
 40
0.499999999999996
 40
0.499999999999996
 40
1.0
 40
1.0
 40
1.0
 40
1.0
 10
216.0417402912609
 20
139.1743472665414
 30
0.0
 10
216.1212332403092
 20
139.1743472665414
 30
0.0
 10
216.2023167416648
 20
139.1573445165806
 30
0.0
 10
216.3487471388025
 20
139.0932839754689
 30
0.0
 10
216.4152957486763
 20
139.0461253598303
 30
0.0
 10
216.57958562265
 20
138.8729033271381
 30
0.0
 10
216.6417402912611
 20
138.7127942369038
 30
0.0
 10
216.641740291261
 20
138.5535921171404
 30
0.0
  0
SPLINE
  5
1FE
330
1F
100
AcDbEntity
  8
0
  6
HIDDEN
 62
     7
370
     0
100
AcDbSpline
210
0.0
220
0.0
230
1.0
 70
     8
 71
     3
 72
    12
 73
     8
 74
     0
 42
0.00000001
 43
0.00000001
 40
0.0
 40
0.0
 40
0.0
 40
0.0
 40
0.2500000000000019
 40
0.2500000000000019
 40
0.5000000000000039
 40
0.5000000000000039
 40
1.0
 40
1.0
 40
1.0
 40
1.0
 10
216.041740291261
 20
78.52023409712999
 30
0.0
 10
216.1216212960081
 20
78.52023409712999
 30
0.0
 10
216.2022154262787
 20
78.53735118339584
 30
0.0
 10
216.3488308721236
 20
78.60208729487096
 30
0.0
 10
216.4153320648676
 20
78.64954453775127
 30
0.0
 10
216.5810669660048
 20
78.82636898029075
 30
0.0
 10
216.6417402912609
 20
78.98664548749646
 30
0.0
 10
216.641740291261
 20
79.14687439278423
 30
0.0
  0
LINE
  5
1FF
330
1F
100
AcDbEntity
  8
0
  6
HIDDEN
 62
     7
370
     0
100
AcDbLine
 10
216.6417399813
 20
138.5535927941
 30
0.0
 11
216.6417399813
 21
79.1468745549
 31
0.0
  0
LINE
  5
200
330
1F
100
AcDbEntity
  8
0
  6
HIDDEN
 62
     7
370
     0
100
AcDbLine
 10
210.6017405559
 20
135.8268050928
 30
0.0
 11
210.6017405559
 21
136.5123851676
 31
0.0
  0
SPLINE
  5
201
330
1F
100
AcDbEntity
  8
0
  6
HIDDEN
 62
     7
370
     0
100
AcDbSpline
210
0.0
220
0.0
230
1.0
 70
     8
 71
     3
 72
     8
 73
     4
 74
     0
 42
0.00000001
 43
0.00000001
 40
0.0
 40
0.0
 40
0.0
 40
0.0
 40
1.0
 40
1.0
 40
1.0
 40
1.0
 10
210.601740291261
 20
136.5123859845488
 30
0.0
 10
211.0944503881067
 20
137.4004049826751
 30
0.0
 10
211.5885330933857
 20
138.2876676183611
 30
0.0
 10
212.08367312275
 20
139.1743472665414
 30
0.0
  0
LINE
  5
202
330
1F
100
AcDbEntity
  8
0
  6
HIDDEN
 62
     7
370
     0
100
AcDbLine
 10
212.0836722125
 20
139.1743472297
 30
0.0
 11
216.0417410006
 21
139.1743472297
 31
0.0
  0
LINE
  5
203
330
1F
100
AcDbEntity
  8
0
  6
HIDDEN
 62
     7
370
     0
100
AcDbLine
 10
216.6417399813
 20
138.5535927941
 30
0.0
 11
216.6417399813
 21
135.1071516503
 31
0.0
  0
LINE
  5
204
330
1F
100
AcDbEntity
  8
0
  6
HIDDEN
 62
     7
370
     0
100
AcDbLine
 10
210.2074427922
 20
135.1071516503
 30
0.0
 11
216.6417399813
 21
135.1071516503
 31
0.0
  0
LINE
  5
205
330
1F
100
AcDbEntity
  8
0
  6
HIDDEN
 62
     7
370
     0
100
AcDbLine
 10
206.7817403395
 20
136.5123851676
 30
0.0
 11
206.7817403395
 21
135.8268050928
 31
0.0
  0
SPLINE
  5
206
330
1F
100
AcDbEntity
  8
0
  6
HIDDEN
 62
     7
370
     0
100
AcDbSpline
210
0.0
220
0.0
230
1.0
 70
     8
 71
     3
 72
     8
 73
     4
 74
     0
 42
0.00000001
 43
0.00000001
 40
0.0
 40
0.0
 40
0.0
 40
0.0
 40
1.0
 40
1.0
 40
1.0
 40
1.0
 10
205.2998074597719
 20
139.1743472665414
 30
0.0
 10
205.7949474891362
 20
138.2876676183612
 30
0.0
 10
206.2890301944152
 20
137.4004049826751
 30
0.0
 10
206.7817402912609
 20
136.5123859845487
 30
0.0
  0
LINE
  5
207
330
1F
100
AcDbEntity
  8
0
  6
HIDDEN
 62
     7
370
     0
100
AcDbLine
 10
203.6417406444
 20
135.1071516503
 30
0.0
 11
207.1760381032
 21
135.1071516503
 31
0.0
  0
LINE
  5
208
330
1F
100
AcDbEntity
  8
0
  6
HIDDEN
 62
     7
370
     0
100
AcDbLine
 10
212.0836722125
 20
139.1743472297
 30
0.0
 11
212.0836722125
 21
78.5202341606
 31
0.0
  0
LINE
  5
209
330
1F
100
AcDbEntity
  8
0
  6
HIDDEN
 62
     7
370
     0
100
AcDbLine
 10
210.6017405559
 20
136.5123851676
 30
0.0
 11
210.6017405559
 21
81.2093144734
 31
0.0
  0
LINE
  5
20A
330
1F
100
AcDbEntity
  8
0
  6
HIDDEN
 62
     7
370
     0
100
AcDbLine
 10
206.7817403395
 20
136.5123851676
 30
0.0
 11
206.7817403395
 21
81.2093144734
 31
0.0
  0
LWPOLYLINE
  5
20B
330
1F
100
AcDbEntity
  8
0
  6
HIDDEN
 62
     7
370
     0
100
AcDbPolyline
 90
       14
 70
   128
 43
0.0
 10
252.4380693604
 20
139.0051147421
 10
252.5096210112
 20
139.4698838223
 10
252.4412358572
 20
139.9585525025
 10
252.2368813325
 20
140.4427247573
 10
251.9084411134
 20
140.8942597438
 10
251.4749998619
 20
141.2869165172
 10
250.961747991
 20
141.5978739489
 10
250.3985139002
 20
141.8090643813
 10
249.81802799
 20
141.9082092573
 10
249.2540302147
 20
141.8895492782
 10
248.7392994036
 20
141.7541685034
 10
248.3037421872
 20
141.5099347462
 10
247.9726793636
 20
141.1710413624
 10
247.7653446068
 20
140.757183962
  0
ELLIPSE
  5
20C
330
1F
100
AcDbEntity
  8
0
  6
HIDDEN
 62
     7
370
     0
100
AcDbEllipse
 10
251.05182236
 20
141.935513436
 30
0.0
 11
0.940655310511687
 21
2.766158975077417
 31
0.0
210
0.0
220
0.0
230
1.0
 40
0.8539059128
 41
5.186288196584702
 42
7.327234951271464
  0
SPLINE
  5
20D
330
1F
100
AcDbEntity
  8
0
  6
HIDDEN
 62
     7
370
     0
100
AcDbSpline
210
0.0
220
0.0
230
1.0
 70
     8
 71
     3
 72
    26
 73
    22
 74
     0
 42
0.00000001
 43
0.00000001
 40
0.0
 40
0.0
 40
0.0
 40
0.0
 40
0.249999999999998
 40
0.249999999999998
 40
0.3749999999999963
 40
0.3749999999999963
 40
0.4374999999999948
 40
0.4374999999999948
 40
0.4687499999999953
 40
0.4687499999999953
 40
0.4999999999999958
 40
0.4999999999999958
 40
0.5312499999999962
 40
0.5312499999999962
 40
0.5624999999999966
 40
0.5624999999999966
 40
0.6249999999999976
 40
0.6249999999999976
 40
0.7499999999999989
 40
0.7499999999999989
 40
1.0
 40
1.0
 40
1.0
 40
1.0
 10
159.6158939373655
 20
129.097271126975
 30
0.0
 10
159.577293414497
 20
128.9794964306195
 30
0.0
 10
159.5309964119427
 20
128.8551067444576
 30
0.0
 10
159.4370570635088
 20
128.6498874121041
 30
0.0
 10
159.4017455965954
 20
128.5783145456577
 30
0.0
 10
159.3355656208497
 20
128.4623613130572
 30
0.0
 10
159.3110272541815
 20
128.421776778247
 30
0.0
 10
159.2676545086277
 20
128.3576350963753
 30
0.0
 10
159.2521461072025
 20
128.3357686710902
 30
0.0
 10
159.2171034626154
 20
128.290174402747
 30
0.0
 10
159.1975531718957
 20
128.2665041117796
 30
0.0
 10
159.1556258915251
 20
128.2218875524397
 30
0.0
 10
159.1329737812934
 20
128.2010075399218
 30
0.0
 10
159.0920000672068
 20
128.170134126171
 30
0.0
 10
159.0744007673114
 20
128.1602952563385
 30
0.0
 10
159.0297737814552
 20
128.1413056406424
 30
0.0
 10
159.0092145588019
 20
128.1409813159889
 30
0.0
 10
158.9580891193053
 20
128.1502047568652
 30
0.0
 10
158.9371777063167
 20
128.1714516530821
 30
0.0
 10
158.8857277987558
 20
128.2454205319129
 30
0.0
 10
158.8680624994512
 20
128.3115386252276
 30
0.0
 10
158.8544036659844
 20
128.3817043381579
 30
0.0
  0
SPLINE
  5
20E
330
1F
100
AcDbEntity
  8
0
  6
HIDDEN
 62
     7
370
     0
100
AcDbSpline
210
0.0
220
0.0
230
1.0
 70
     8
 71
     3
 72
    26
 73
    22
 74
     0
 42
0.00000001
 43
0.00000001
 40
0.0
 40
0.0
 40
0.0
 40
0.0
 40
0.249999999999999
 40
0.249999999999999
 40
0.3749999999999985
 40
0.3749999999999985
 40
0.4374999999999978
 40
0.4374999999999978
 40
0.4687499999999983
 40
0.4687499999999983
 40
0.4999999999999989
 40
0.4999999999999989
 40
0.5312499999999994
 40
0.5312499999999994
 40
0.5625
 40
0.5625
 40
0.6250000000000011
 40
0.6250000000000011
 40
0.7500000000000009
 40
0.7500000000000009
 40
1.0
 40
1.0
 40
1.0
 40
1.0
 10
158.8220179068696
 20
89.11706423315027
 30
0.0
 10
158.8327419402621
 20
89.22002527363925
 30
0.0
 10
158.8474749308567
 20
89.3190239631203
 30
0.0
 10
158.8998284901037
 20
89.43761964318541
 30
0.0
 10
158.9215337728233
 20
89.4733299431342
 30
0.0
 10
158.9803892801887
 20
89.49830937595591
 30
0.0
 10
159.0038515140358
 20
89.5026948237195
 30
0.0
 10
159.0599728906965
 20
89.48294199027535
 30
0.0
 10
159.082760200827
 20
89.47128559946498
 30
0.0
 10
159.1380127533583
 20
89.42950525002777
 30
0.0
 10
159.169418986099
 20
89.39923366265182
 30
0.0
 10
159.2243528067195
 20
89.33759126373783
 30
0.0
 10
159.2487766249189
 20
89.30614961143102
 30
0.0
 10
159.2921917309062
 20
89.24641477401727
 30
0.0
 10
159.3117662934744
 20
89.21724976414464
 30
0.0
 10
159.3653989774224
 20
89.13341448841155
 30
0.0
 10
159.3951763254746
 20
89.08138187043532
 30
0.0
 10
159.4767103854475
 20
88.93031619646794
 30
0.0
 10
159.5199531801215
 20
88.83712515459722
 30
0.0
 10
159.6330077697762
 20
88.57273861560282
 30
0.0
 10
159.6870187672554
 20
88.41378044655296
 30
0.0
 10
159.7306498614594
 20
88.2632294904121
 30
0.0
  0
LINE
  5
20F
330
1F
100
AcDbEntity
  8
0
  6
HIDDEN
 62
     7
370
     0
100
AcDbLine
 10
158.7917404641
 20
128.397829317
 30
0.0
 11
158.7917404641
 21
89.0539916684
 31
0.0
  0
LINE
  5
210
330
1F
100
AcDbEntity
  8
0
  6
HIDDEN
 62
     7
370
     0
100
AcDbLine
 10
206.7817403395
 20
81.2093144734
 30
0.0
 11
206.7817403395
 21
81.9027567734
 31
0.0
  0
SPLINE
  5
211
330
1F
100
AcDbEntity
  8
0
  6
HIDDEN
 62
     7
370
     0
100
AcDbSpline
210
0.0
220
0.0
230
1.0
 70
     8
 71
     3
 72
     8
 73
     4
 74
     0
 42
0.00000001
 43
0.00000001
 40
0.0
 40
0.0
 40
0.0
 40
0.0
 40
1.0
 40
1.0
 40
1.0
 40
1.0
 10
205.2998074597719
 20
78.52023409712997
 30
0.0
 10
205.7952871204376
 20
79.41576018506332
 30
0.0
 10
206.2894011684798
 20
80.31204460011557
 30
0.0
 10
206.7817402912609
 20
81.20931463432225
 30
0.0
  0
LINE
  5
212
330
1F
100
AcDbEntity
  8
0
  6
HIDDEN
 62
     7
370
     0
100
AcDbLine
 10
203.6417406444
 20
82.3071519364
 30
0.0
 11
206.8794155885
 21
82.3071519364
 31
0.0
  0
LINE
  5
213
330
1F
100
AcDbEntity
  8
0
  6
HIDDEN
 62
     7
370
     0
100
AcDbLine
 10
210.6017405559
 20
81.9027567734
 30
0.0
 11
210.6017405559
 21
81.2093144734
 31
0.0
  0
SPLINE
  5
214
330
1F
100
AcDbEntity
  8
0
  6
HIDDEN
 62
     7
370
     0
100
AcDbSpline
210
0.0
220
0.0
230
1.0
 70
     8
 71
     3
 72
     8
 73
     4
 74
     0
 42
0.00000001
 43
0.00000001
 40
0.0
 40
0.0
 40
0.0
 40
0.0
 40
1.0
 40
1.0
 40
1.0
 40
1.0
 10
210.601740291261
 20
81.20931463432225
 30
0.0
 10
211.0940794140421
 20
80.31204460011556
 30
0.0
 10
211.5881934620843
 20
79.41576018506332
 30
0.0
 10
212.08367312275
 20
78.52023409712997
 30
0.0
  0
LINE
  5
215
330
1F
100
AcDbEntity
  8
0
  6
HIDDEN
 62
     7
370
     0
100
AcDbLine
 10
212.0836722125
 20
78.5202341606
 30
0.0
 11
216.0417410006
 21
78.5202341606
 31
0.0
  0
LINE
  5
216
330
1F
100
AcDbEntity
  8
0
  6
HIDDEN
 62
     7
370
     0
100
AcDbLine
 10
216.6417399813
 20
79.1468745549
 30
0.0
 11
216.6417399813
 21
82.3071519364
 31
0.0
  0
LINE
  5
217
330
1F
100
AcDbEntity
  8
0
  6
HIDDEN
 62
     7
370
     0
100
AcDbLine
 10
210.5040653069
 20
82.3071519364
 30
0.0
 11
216.6417399813
 21
82.3071519364
 31
0.0
  0
LINE
  5
218
330
1F
100
AcDbEntity
  8
0
  6
HIDDEN
 62
     7
370
     0
100
AcDbLine
 10
246.7186125387
 20
137.4594601323
 30
0.0
 11
247.7653446068
 21
140.757183962
 31
0.0
  0
LWPOLYLINE
  5
219
330
1F
100
AcDbEntity
  8
0
  6
HIDDEN
 62
     7
370
     0
100
AcDbPolyline
 90
       29
 70
   128
 43
0.0
 10
220.6917396207
 20
95.9253194262
 10
221.359302329
 20
95.9869329338
 10
221.9933914412
 20
96.1686842595
 10
222.5622097422
 20
96.4614594807
 10
223.0372364093
 20
96.8505772282
 10
223.3946482111
 20
97.3165253629
 10
223.616522776
 20
97.8359407265
 10
223.6917401124
 20
98.3827760894
 10
223.616522776
 20
98.9296114524
 10
223.3946482111
 20
99.4490258847
 10
223.0372364093
 20
99.9149749507
 10
222.5622097422
 20
100.3040926982
 10
221.9933914412
 20
100.5968669881
 10
221.359302329
 20
100.7786183138
 10
220.6917396207
 20
100.8402318214
 10
220.0241769125
 20
100.7786183138
 10
219.3900896628
 20
100.5968669881
 10
218.8212713619
 20
100.3040926982
 10
218.3462465574
 20
99.9149749507
 10
217.9888328929
 20
99.4490258847
 10
217.7669564654
 20
98.9296114524
 10
217.6917409916
 20
98.3827760894
 10
217.7669564654
 20
97.8359407265
 10
217.9888328929
 20
97.3165253629
 10
218.3462465574
 20
96.8505772282
 10
218.8212713619
 20
96.4614594807
 10
219.3900896628
 20
96.1686842595
 10
220.0241769125
 20
95.9869329338
 10
220.6917396207
 20
95.9253194262
  0
CIRCLE
  5
21A
330
1F
100
AcDbEntity
  8
0
  6
HIDDEN
 62
     7
370
     0
100
AcDbCircle
 10
197.6917402913
 20
108.7071517934
 30
0.0
 40
5.000000000000014
  0
LINE
  5
21B
330
1F
100
AcDbEntity
  8
0
  6
HIDDEN
 62
     7
370
     0
100
AcDbLine
 10
255.373449104
 20
140.6416627098
 30
0.0
 11
255.7987580468
 21
140.0222996701
 31
0.0
  0
LINE
  5
21C
330
1F
100
AcDbEntity
  8
0
  6
HIDDEN
 62
     7
370
     0
100
AcDbLine
 10
255.7980055381
 20
140.0234060813
 30
0.0
 11
252.7493434419
 21
109.0646964833
 31
0.0
  0
LINE
  5
21D
330
1F
100
AcDbEntity
  8
0
  6
HIDDEN
 62
     7
370
     0
100
AcDbLine
 10
252.7493434419
 20
109.0646964833
 30
0.0
 11
252.4950625767
 21
108.7071517934
 31
0.0
  0
LINE
  5
21E
330
1F
100
AcDbEntity
  8
0
  6
HIDDEN
 62
     7
370
     0
100
AcDbLine
 10
190.6917402913
 20
83.3832281162
 30
0.0
 11
190.785901129
 21
84.0532178511
 31
0.0
  0
LINE
  5
21F
330
1F
100
AcDbEntity
  8
0
  6
HIDDEN
 62
     7
370
     0
100
AcDbLine
 10
190.785901129
 20
133.3610857357
 30
0.0
 11
190.6917402913
 21
134.0310754706
 31
0.0
  0
ARC
  5
220
330
1F
100
AcDbEntity
  8
0
  6
HIDDEN
 62
     7
370
     0
100
AcDbCircle
 10
190.1917402913
 20
84.1367209317
 30
0.0
 40
0.5999999999999871
100
AcDbArc
 50
352.0
 51
0.0
  0
ARC
  5
221
330
1F
100
AcDbEntity
  8
0
  6
HIDDEN
 62
     7
370
     0
100
AcDbCircle
 10
190.1917402913
 20
84.1367209317
 30
0.0
 40
0.599999999999994
100
AcDbArc
 50
0.0
 51
33.5573097619
  0
ARC
  5
222
330
1F
100
AcDbEntity
  8
0
  6
HIDDEN
 62
     7
370
     0
100
AcDbCircle
 10
190.1917402913
 20
133.2775826551
 30
0.0
 40
0.599999999999998
100
AcDbArc
 50
348.75
 51
8.0
  0
LWPOLYLINE
  5
223
330
1F
100
AcDbEntity
  8
0
  6
HIDDEN
 62
     7
370
     0
100
AcDbPolyline
 90
        3
 70
   128
 43
0.0
 10
190.7802114611
 20
133.1605291445
 10
190.7460680114
 20
133.0479732235
 10
190.6917402913
 20
132.9459207584
  0
LINE
  5
224
330
1F
100
AcDbEntity
  8
0
  6
HIDDEN
 62
     7
370
     0
100
AcDbLine
 10
190.7917402887
 20
84.1367202331
 30
0.0
 11
190.7917402887
 21
133.2775833537
 31
0.0
  0
LINE
  5
225
330
1F
100
AcDbEntity
  8
0
  6
HIDDEN
 62
     7
370
     0
100
AcDbLine
 10
190.7917402887
 20
84.1367202331
 30
0.0
 11
190.7917402887
 21
133.2775833537
 31
0.0
  0
ARC
  5
226
330
1F
100
AcDbEntity
  8
0
  6
HIDDEN
 62
     7
370
     0
100
AcDbCircle
 10
184.4467422929
 20
96.7071517934
 30
0.0
 40
8.000000000000025
100
AcDbArc
 50
277.1327133752
 51
321.3178125465
  0
ARC
  5
227
330
1F
100
AcDbEntity
  8
0
  6
HIDDEN
 62
     7
370
     0
100
AcDbCircle
 10
184.4467422929
 20
120.7071517934
 30
0.0
 40
8.000000000000025
100
AcDbArc
 50
38.6821874535
 51
82.9421199648
  0
LINE
  5
228
330
1F
100
AcDbEntity
  8
0
  6
HIDDEN
 62
     7
370
     0
100
AcDbLine
 10
173.7741763164
 20
88.7071522404
 30
0.0
 11
177.9448576663
 21
88.7071522404
 31
0.0
  0
LINE
  5
229
330
1F
100
AcDbEntity
  8
0
  6
HIDDEN
 62
     7
370
     0
100
AcDbLine
 10
177.9517122005
 20
128.7071513463
 30
0.0
 11
173.7741763164
 21
128.7071513463
 31
0.0
  0
ARC
  5
22A
330
1F
100
AcDbEntity
  8
0
  6
HIDDEN
 62
     7
370
     0
100
AcDbCircle
 10
173.7741758566
 20
89.3071517934
 30
0.0
 40
0.6000000000000227
100
AcDbArc
 50
210.0
 51
270.0
  0
ARC
  5
22B
330
1F
100
AcDbEntity
  8
0
  6
HIDDEN
 62
     7
370
     0
100
AcDbCircle
 10
173.7741758566
 20
128.1071517934
 30
0.0
 40
0.6000000000000227
100
AcDbArc
 50
90.0
 51
150.0
  0
LINE
  5
22C
330
1F
100
AcDbEntity
  8
0
  6
HIDDEN
 62
     7
370
     0
100
AcDbLine
 10
173.2545597871
 20
128.407151856
 30
0.0
 11
171.695715787
 21
125.7071527172
 31
0.0
  0
LINE
  5
22D
330
1F
100
AcDbEntity
  8
0
  6
HIDDEN
 62
     7
370
     0
100
AcDbLine
 10
171.695715787
 20
91.7071508695
 30
0.0
 11
173.2545597871
 21
89.0071517308
 31
0.0
  0
LINE
  5
22E
330
1F
100
AcDbEntity
  8
0
  6
HIDDEN
 62
     7
370
     0
100
AcDbLine
 10
225.7778803278
 20
127.4731079568
 30
0.0
 11
216.6594928522
 21
119.7667414774
 31
0.0
  0
LINE
  5
22F
330
1F
100
AcDbEntity
  8
0
  6
HIDDEN
 62
     7
370
     0
100
AcDbLine
 10
223.086060064
 20
118.6516186674
 30
0.0
 11
225.6085100044
 21
120.7834570189
 31
0.0
  0
LINE
  5
230
330
1F
100
AcDbEntity
  8
0
  6
HIDDEN
 62
     7
370
     0
100
AcDbLine
 10
219.8869595696
 20
115.9479123992
 30
0.0
 11
221.2050566842
 21
117.0618975986
 31
0.0
  0
LINE
  5
231
330
1F
100
AcDbEntity
  8
0
  6
HIDDEN
 62
     7
370
     0
100
AcDbLine
 10
216.60088286
 20
119.2768862922
 30
0.0
 11
217.1746222694
 21
116.928846993
 31
0.0
  0
LINE
  5
232
330
1F
100
AcDbEntity
  8
0
  6
HIDDEN
 62
     7
370
     0
100
AcDbLine
 10
217.1746222694
 20
116.928846993
 30
0.0
 11
219.3941874821
 21
115.9717705552
 31
0.0
  0
ARC
  5
233
330
1F
100
AcDbEntity
  8
0
  6
HIDDEN
 62
     7
370
     0
100
AcDbCircle
 10
199.1417402913
 20
92.9821517934
 30
0.0
 40
1.500000000000016
100
AcDbArc
 50
238.2116693829
 51
0.0
  0
ARC
  5
234
330
1F
100
AcDbEntity
  8
0
  6
HIDDEN
 62
     7
370
     0
100
AcDbCircle
 10
199.1417402913
 20
124.4321517934
 30
0.0
 40
1.500000000000016
100
AcDbArc
 50
0.0
 51
121.7883306171
  0
LINE
  5
235
330
1F
100
AcDbEntity
  8
0
  6
HIDDEN
 62
     7
370
     0
100
AcDbLine
 10
218.1917401422
 20
118.5537795056
 30
0.0
 11
218.1917401422
 21
111.1153945778
 31
0.0
  0
LINE
  5
236
330
1F
100
AcDbEntity
  8
0
  6
HIDDEN
 62
     7
370
     0
100
AcDbLine
 10
223.1917390992
 20
111.1159501117
 30
0.0
 11
223.1917390992
 21
118.9063521553
 31
0.0
  0
LINE
  5
237
330
1F
100
AcDbEntity
  8
0
  6
HIDDEN
 62
     7
370
     0
100
AcDbLine
 10
190.6917402913
 20
91.7071508695
 30
0.0
 11
198.3515662533
 21
91.7071508695
 31
0.0
  0
LINE
  5
238
330
1F
100
AcDbEntity
  8
0
  6
HIDDEN
 62
     7
370
     0
100
AcDbLine
 10
198.3515662533
 20
125.7071527172
 30
0.0
 11
190.6917402913
 21
125.7071527172
 31
0.0
  0
LINE
  5
239
330
1F
100
AcDbEntity
  8
0
  6
HIDDEN
 62
     7
370
     0
100
AcDbLine
 10
168.8917400707
 20
91.7071508695
 30
0.0
 11
171.695715787
 21
91.7071508695
 31
0.0
  0
LINE
  5
23A
330
1F
100
AcDbEntity
  8
0
  6
HIDDEN
 62
     7
370
     0
100
AcDbLine
 10
171.695715787
 20
125.7071527172
 30
0.0
 11
164.8917394151
 21
125.7071527172
 31
0.0
  0
LINE
  5
23B
330
1F
100
AcDbEntity
  8
0
  6
HIDDEN
 62
     7
370
     0
100
AcDbLine
 10
209.9917410333
 20
99.2071520989
 30
0.0
 11
212.4917405118
 21
99.2071520989
 31
0.0
  0
LINE
  5
23C
330
1F
100
AcDbEntity
  8
0
  6
HIDDEN
 62
     7
370
     0
100
AcDbLine
 10
212.4917405118
 20
118.2071514879
 30
0.0
 11
209.9917410333
 21
118.2071514879
 31
0.0
  0
LINE
  5
23D
330
1F
100
AcDbEntity
  8
0
  6
HIDDEN
 62
     7
370
     0
100
AcDbLine
 10
200.6417401527
 20
99.7071521808
 30
0.0
 11
201.1417402346
 21
100.2071513314
 31
0.0
  0
LINE
  5
23E
330
1F
100
AcDbEntity
  8
0
  6
HIDDEN
 62
     7
370
     0
100
AcDbLine
 10
201.1417402346
 20
117.2071522553
 30
0.0
 11
200.6417401527
 21
117.7071514059
 31
0.0
  0
LINE
  5
23F
330
1F
100
AcDbEntity
  8
0
  6
HIDDEN
 62
     7
370
     0
100
AcDbLine
 10
201.1417402346
 20
100.2071513314
 30
0.0
 11
209.9917410333
 21
100.2071513314
 31
0.0
  0
LINE
  5
240
330
1F
100
AcDbEntity
  8
0
  6
HIDDEN
 62
     7
370
     0
100
AcDbLine
 10
209.9917410333
 20
117.2071522553
 30
0.0
 11
201.1417402346
 21
117.2071522553
 31
0.0
  0
LINE
  5
241
330
1F
100
AcDbEntity
  8
0
  6
HIDDEN
 62
     7
370
     0
100
AcDbLine
 10
195.6417402644
 20
140.2071523
 30
0.0
 11
195.6417402644
 21
135.1071516503
 31
0.0
  0
LINE
  5
242
330
1F
100
AcDbEntity
  8
0
  6
HIDDEN
 62
     7
370
     0
100
AcDbLine
 10
185.8761781287
 20
84.6277805497
 30
0.0
 11
185.44174595
 21
85.1068472941
 31
0.0
  0
LINE
  5
243
330
1F
100
AcDbEntity
  8
0
  6
HIDDEN
 62
     7
370
     0
100
AcDbLine
 10
177.9417423923
 20
85.5285352547
 30
0.0
 11
177.4593089168
 21
85.0494685103
 31
0.0
  0
LINE
  5
244
330
1F
100
AcDbEntity
  8
0
  6
HIDDEN
 62
     7
370
     0
100
AcDbLine
 10
177.4591869135
 20
132.3648294885
 30
0.0
 11
177.9417377357
 21
131.8857087274
 31
0.0
  0
LINE
  5
245
330
1F
100
AcDbEntity
  8
0
  6
HIDDEN
 62
     7
370
     0
100
AcDbLine
 10
185.441740362
 20
132.3074078639
 30
0.0
 11
185.8762824368
 21
132.7865267624
 31
0.0
  0
LINE
  5
246
330
1F
100
AcDbEntity
  8
0
  6
HIDDEN
 62
     7
370
     0
100
AcDbLine
 10
224.7917401065
 20
104.5071519431
 30
0.0
 11
227.3153560628
 21
108.7071517934
 31
0.0
  0
LINE
  5
247
330
1F
100
AcDbEntity
  8
0
  6
HIDDEN
 62
     7
370
     0
100
AcDbLine
 10
227.3153560628
 20
108.7071517934
 30
0.0
 11
224.7917401065
 21
112.9071516436
 31
0.0
  0
LINE
  5
248
330
1F
100
AcDbEntity
  8
0
  6
HIDDEN
 62
     7
370
     0
100
AcDbLine
 10
212.4917405118
 20
104.5071519431
 30
0.0
 11
224.7917401065
 21
104.5071519431
 31
0.0
  0
LINE
  5
249
330
1F
100
AcDbEntity
  8
0
  6
HIDDEN
 62
     7
370
     0
100
AcDbLine
 10
224.7917401065
 20
112.9071516436
 30
0.0
 11
212.4917405118
 21
112.9071516436
 31
0.0
  0
LINE
  5
24A
330
1F
100
AcDbEntity
  8
0
  6
HIDDEN
 62
     7
370
     0
100
AcDbLine
 10
185.441740362
 20
128.6442237426
 30
0.0
 11
185.441740362
 21
132.3071154286
 31
0.0
  0
LINE
  5
24B
330
1F
100
AcDbEntity
  8
0
  6
HIDDEN
 62
     7
370
     0
100
AcDbLine
 10
177.9417405297
 20
131.8855653037
 30
0.0
 11
177.9417405297
 21
128.7052887012
 31
0.0
  0
LINE
  5
24C
330
1F
100
AcDbEntity
  8
0
  6
HIDDEN
 62
     7
370
     0
100
AcDbLine
 10
185.441740362
 20
85.1073297192
 30
0.0
 11
185.441740362
 21
88.7693161596
 31
0.0
  0
LINE
  5
24D
330
1F
100
AcDbEntity
  8
0
  6
HIDDEN
 62
     7
370
     0
100
AcDbLine
 10
177.9417405297
 20
88.7077352483
 30
0.0
 11
177.9417405297
 21
85.5288574923
 31
0.0
  0
LINE
  5
24E
330
1F
100
AcDbEntity
  8
0
  6
HIDDEN
 62
     7
370
     0
100
AcDbLine
 10
246.8350874652
 20
137.3121919562
 30
0.0
 11
246.4086721112
 21
136.8881160845
 31
0.0
  0
LINE
  5
24F
330
1F
100
AcDbEntity
  8
0
  6
HIDDEN
 62
     7
370
     0
100
AcDbLine
 10
251.3448084165
 20
131.9247926105
 30
0.0
 11
251.7712200452
 21
132.3488684822
 31
0.0
  0
LINE
  5
250
330
1F
100
AcDbEntity
  8
0
  6
HIDDEN
 62
     7
370
     0
100
AcDbLine
 10
244.4695094992
 20
143.9296672572
 30
0.0
 11
243.9782256652
 21
143.4410768081
 31
0.0
  0
LINE
  5
251
330
1F
100
AcDbEntity
  8
0
  6
HIDDEN
 62
     7
370
     0
100
AcDbLine
 10
251.7359005679
 20
136.076965787
 30
0.0
 11
253.5815546681
 21
140.0676774312
 31
0.0
  0
LINE
  5
252
330
1F
100
AcDbEntity
  8
0
  6
HIDDEN
 62
     7
370
     0
100
AcDbLine
 10
218.1917401422
 20
106.298353475
 30
0.0
 11
218.1917401422
 21
98.5550959115
 31
0.0
  0
LINE
  5
253
330
1F
100
AcDbEntity
  8
0
  6
HIDDEN
 62
     7
370
     0
100
AcDbLine
 10
223.1917390992
 20
98.5550959115
 30
0.0
 11
223.1917390992
 21
106.3002503463
 31
0.0
  0
LINE
  5
254
330
1F
100
AcDbEntity
  8
0
  6
HIDDEN
 62
     7
370
     0
100
AcDbLine
 10
245.8710940947
 20
137.3407239546
 30
0.0
 11
243.2366321255
 21
134.7206937601
 31
0.0
  0
LINE
  5
255
330
1F
100
AcDbEntity
  8
0
  6
HIDDEN
 62
     7
370
     0
100
AcDbLine
 10
249.1599927117
 20
128.7647052188
 30
0.0
 11
251.7944546808
 21
131.3847354133
 31
0.0
  0
LINE
  5
256
330
1F
100
AcDbEntity
  8
0
  6
HIDDEN
 62
     7
370
     0
100
AcDbLine
 10
244.1328475644
 20
143.5117343892
 30
0.0
 11
243.8255334665
 21
143.2061078478
 31
0.0
  0
ARC
  5
257
330
1F
100
AcDbEntity
  8
0
  6
HIDDEN
 62
     7
370
     0
100
AcDbCircle
 10
163.4917402913
 20
130.9771517934
 30
0.0
 40
1.400000000000013
100
AcDbArc
 50
270.0
 51
303.0397321086
  0
ARC
  5
258
330
1F
100
AcDbEntity
  8
0
  6
HIDDEN
 62
     7
370
     0
100
AcDbCircle
 10
167.4917402913
 20
86.4946517934
 30
0.0
 40
1.400000000000011
100
AcDbArc
 50
37.6438857999
 51
90.0
  0
LINE
  5
259
330
1F
100
AcDbEntity
  8
0
  6
HIDDEN
 62
     7
370
     0
100
AcDbLine
 10
250.6541768481
 20
148.2715750565
 30
0.0
 11
250.0688182582
 21
147.6894239415
 31
0.0
  0
LINE
  5
25A
330
1F
100
AcDbEntity
  8
0
  6
HIDDEN
 62
     7
370
     0
100
AcDbLine
 10
254.5818547179
 20
143.1515248944
 30
0.0
 11
255.1672170331
 21
143.7336797346
 31
0.0
  0
LINE
  5
25B
330
1F
100
AcDbEntity
  8
0
  6
HIDDEN
 62
     7
370
     0
100
AcDbLine
 10
159.9329030533
 20
129.5683155288
 30
0.0
 11
158.8029088844
 21
128.4383194972
 31
0.0
  0
LINE
  5
25C
330
1F
100
AcDbEntity
  8
0
  6
HIDDEN
 62
     7
370
     0
100
AcDbLine
 10
160.0893950482
 20
129.5771519174
 30
0.0
 11
160.0826280583
 21
129.5771519174
 31
0.0
  0
LINE
  5
25D
330
1F
100
AcDbEntity
  8
0
  6
HIDDEN
 62
     7
370
     0
100
AcDbLine
 10
158.7936887909
 20
89.0427021761
 30
0.0
 11
159.9417394419
 21
87.8946515252
 31
0.0
  0
LINE
  5
25E
330
1F
100
AcDbEntity
  8
0
  6
HIDDEN
 62
     7
370
     0
100
AcDbLine
 10
159.9417394419
 20
87.8946515252
 30
0.0
 11
167.4917405863
 21
87.8946515252
 31
0.0
  0
LINE
  5
25F
330
1F
100
AcDbEntity
  8
0
  6
HIDDEN
 62
     7
370
     0
100
AcDbLine
 10
249.553200828
 20
144.6508350302
 30
0.0
 11
247.8326270749
 21
140.9305664231
 31
0.0
  0
LINE
  5
260
330
1F
100
AcDbEntity
  8
0
  6
HIDDEN
 62
     7
370
     0
100
AcDbLine
 10
217.6917409916
 20
98.3827760894
 30
0.0
 11
217.6917409916
 21
93.7941646655
 31
0.0
  0
LINE
  5
261
330
1F
100
AcDbEntity
  8
0
  6
HIDDEN
 62
     7
370
     0
100
AcDbLine
 10
223.6917401124
 20
93.7945642029
 30
0.0
 11
223.6917401124
 21
98.3827760894
 31
0.0
  0
LINE
  5
262
330
1F
100
AcDbEntity
  8
VERMASSUNG
100
AcDbLine
 10
260.6917402913
 20
153.7071517934
 30
0.0
 11
260.6917402913
 21
117.5800815615
 31
0.0
  0
DIMENSION
  5
263
330
1F
100
AcDbEntity
  8
VERMASSUNG
100
AcDbDimension
  2
*D1
 10
260.6917402913
 20
153.7071517934
 30
0.0
 11
258.6373081384
 21
118.0161605836
 31
0.0
 70
   162
 71
     1
 42
-1.0
  3
SLDDIMSTYLE0
100
AcDb2LineAngularDimension
 13
256.0812984022
 23
112.3783975117
 33
0.0
 14
258.5763703008
 24
140.8697879935
 34
0.0
 15
260.6917402913
 25
117.5800815615
 35
0.0
 16
258.6373081384
 26
118.0161605836
 36
0.0
  0
DIMENSION
  5
26E
330
1F
100
AcDbEntity
  8
VERMASSUNG
100
AcDbDimension
  2
*D2
 10
154.1509489051
 20
77.2071517934
 30
0.0
 11
154.1509489051
 21
108.7071517934
 31
0.0
 70
   160
  1
HSK A %%c<>
 71
     2
 42
-1.0
  3
SLDDIMSTYLE1
100
AcDbAlignedDimension
 13
190.9917402913
 23
140.2071517934
 33
0.0
 14
190.9917402913
 24
77.2071517934
 34
0.0
 50
90.0
100
AcDbRotatedDimension
  0
DIMENSION
  5
27B
330
1F
100
AcDbEntity
  8
VERMASSUNG
100
AcDbDimension
  2
*D3
 10
260.6917402913
 20
159.7896350365
 30
0.0
 11
225.6917402913
 21
159.7896350365
 31
0.0
 70
   160
 71
     2
 42
-1.0
  3
SLDDIMSTYLE1
100
AcDbAlignedDimension
 13
190.6917402913
 23
139.9071517934
 33
0.0
 14
260.6917402913
 24
153.7071517934
 34
0.0
100
AcDbRotatedDimension
  0
DIMENSION
  5
285
330
1F
100
AcDbEntity
  8
VERMASSUNG
100
AcDbDimension
  2
*D4
 10
260.6917402913
 20
165.7896350365
 30
0.0
 11
209.7417402913
 21
165.7896350365
 31
0.0
 70
   160
 71
     2
 42
-1.0
  3
SLDDIMSTYLE1
100
AcDbAlignedDimension
 13
158.7917402913
 23
128.3978295399
 33
0.0
 14
260.6917402913
 24
153.7071517934
 34
0.0
100
AcDbRotatedDimension
  0
DIMENSION
  5
28F
330
1F
100
AcDbEntity
  8
VERMASSUNG
100
AcDbDimension
  2
*D5
 10
270.7248978266
 20
108.7071517934
 30
0.0
 11
270.7248978266
 21
131.2071517934
 31
0.0
 70
   160
 71
     2
 42
-1.0
  3
SLDDIMSTYLE1
100
AcDbAlignedDimension
 13
260.6917402913
 23
153.7071517934
 33
0.0
 14
257.342189781
 24
108.7071517934
 34
0.0
 50
90.0
100
AcDbRotatedDimension
  0
LINE
  5
299
330
1F
100
AcDbEntity
  8
VERMASSUNG
  6
CENTERX2
370
     0
100
AcDbLine
 10
156.1164963504
 20
108.7071517934
 30
0.0
 11
257.342189781
 21
108.7071517934
 31
0.0
  0
LINE
  5
29A
330
1F
100
AcDbEntity
  8
0
  6
Continuous
 62
     7
370
    15
100
AcDbLine
 10
86.0916404842
 20
153.2122971941
 30
0.0
 11
81.383649215
 21
153.7071275045
 31
0.0
  0
LINE
  5
29B
330
1F
100
AcDbEntity
  8
0
  6
Continuous
 62
     7
370
    15
100
AcDbLine
 10
80.4877142279
 20
151.538524263
 30
0.0
 11
80.0628471977
 21
150.941755109
 31
0.0
  0
SPLINE
  5
29C
330
1F
100
AcDbEntity
  8
0
  6
Continuous
 62
     7
370
    15
100
AcDbSpline
210
0.0
220
0.0
230
1.0
 70
     8
 71
     3
 72
     9
 73
     5
 74
     0
 42
0.00000001
 43
0.00000001
 40
0.0
 40
0.0
 40
0.0
 40
0.0
 40
0.5414963187379702
 40
1.0
 40
1.0
 40
1.0
 40
1.0
 10
80.59632902471188
 20
151.7468611229822
 30
0.0
 10
80.597084479159
 20
151.7513720661206
 30
0.0
 10
80.5984796030425
 20
151.7597025809962
 30
0.0
 10
80.59092996059252
 20
151.7293253797289
 30
0.0
 10
80.58746842173699
 20
151.7153973211214
 30
0.0
  0
LINE
  5
29D
330
1F
100
AcDbEntity
  8
0
  6
Continuous
 62
     7
370
    15
100
AcDbLine
 10
79.0918018526
 20
142.292286687
 30
0.0
 11
79.3954826283
 21
141.5921556283
 31
0.0
  0
SPLINE
  5
29E
330
1F
100
AcDbEntity
  8
0
  6
Continuous
 62
     7
370
    15
100
AcDbSpline
210
0.0
220
0.0
230
1.0
 70
     8
 71
     3
 72
    13
 73
     9
 74
     0
 42
0.00000001
 43
0.00000001
 40
0.0
 40
0.0
 40
0.0
 40
0.0
 40
0.1558603891081301
 40
0.3558544288290379
 40
0.5264643394571856
 40
0.69090172783794
 40
0.9035231355846931
 40
1.0
 40
1.0
 40
1.0
 40
1.0
 10
79.40755885531965
 20
141.5979782570765
 30
0.0
 10
79.42528317680721
 20
141.5574998809208
 30
0.0
 10
79.4657506639951
 20
141.4650812137455
 30
0.0
 10
79.47381821138765
 20
141.3272185939537
 30
0.0
 10
79.4629630050638
 20
141.2202790832764
 30
0.0
 10
79.44748186544025
 20
141.158935346728
 30
0.0
 10
79.43787237541095
 20
141.133813472136
 30
0.0
 10
79.44034196171056
 20
141.1394698315113
 30
0.0
 10
79.44111277786854
 20
141.1412353147433
 30
0.0
  0
LINE
  5
29F
330
1F
100
AcDbEntity
  8
0
  6
Continuous
 62
     7
370
    15
100
AcDbLine
 10
78.570810924
 20
140.0355058242
 30
0.0
 11
78.8693484708
 21
140.004127704
 31
0.0
  0
LINE
  5
2A0
330
1F
100
AcDbEntity
  8
0
  6
Continuous
 62
     7
370
    15
100
AcDbLine
 10
88.7322622209
 20
152.2328364183
 30
0.0
 11
86.0577021583
 21
152.5139468242
 31
0.0
  0
LINE
  5
2A1
330
1F
100
AcDbEntity
  8
0
  6
Continuous
 62
     7
370
    15
100
AcDbLine
 10
89.0048687204
 20
151.898633175
 30
0.0
 11
88.7426092147
 21
152.2261830498
 31
0.0
  0
LINE
  5
2A2
330
1F
100
AcDbEntity
  8
0
  6
Continuous
 62
     7
370
    15
100
AcDbLine
 10
78.9251379526
 20
138.8430888285
 30
0.0
 11
78.3840893625
 21
138.3999860366
 31
0.0
  0
LINE
  5
2A3
330
1F
100
AcDbEntity
  8
0
  6
Continuous
 62
     7
370
    15
100
AcDbLine
 10
77.656442844
 20
131.4768916447
 30
0.0
 11
78.093541865
 21
130.9309801538
 31
0.0
  0
LINE
  5
2A4
330
1F
100
AcDbEntity
  8
0
  6
Continuous
 62
     7
370
    15
100
AcDbLine
 10
78.5745941891
 20
140.0366383125
 30
0.0
 11
79.9360569424
 21
140.9524972071
 31
0.0
  0
ARC
  5
2A5
330
1F
100
AcDbEntity
  8
0
  6
Continuous
 62
     7
370
    15
100
AcDbCircle
 10
79.4586769721
 20
140.25398649
 30
0.0
 40
0.9104079291005895
100
AcDbArc
 50
166.1227674481
 51
193.8120168349
  0
LINE
  5
2A6
330
1F
100
AcDbEntity
  8
0
  6
Continuous
 62
     7
370
    15
100
AcDbLine
 10
79.9425949433
 20
152.4324859013
 30
0.0
 11
78.5748421538
 21
140.4723408152
 31
0.0
  0
ARC
  5
2A7
330
1F
100
AcDbEntity
  8
0
  6
Continuous
 62
     7
370
    15
100
AcDbCircle
 10
81.011052352
 20
152.3928731874
 30
0.0
 40
1.069191470835136
100
AcDbArc
 50
158.1884788486
 51
177.8767499197
  0
LINE
  5
2A8
330
1F
100
AcDbEntity
  8
0
  6
Continuous
 62
     7
370
    15
100
AcDbLine
 10
81.3798659681
 20
153.7059950162
 30
0.0
 11
80.0184030875
 21
152.7901361216
 31
0.0
  0
ARC
  5
2A9
330
1F
100
AcDbEntity
  8
0
  6
Continuous
 62
     7
370
    15
100
AcDbCircle
 10
80.4957902307
 20
153.4886471889
 30
0.0
 40
0.9104010036805988
100
AcDbArc
 50
346.1226370668
 51
13.8121012897
  0
LINE
  5
2AA
330
1F
100
AcDbEntity
  8
0
  6
Continuous
 62
     7
370
    15
100
AcDbLine
 10
80.0118650866
 20
141.3101474275
 30
0.0
 11
81.3796178288
 21
153.2702925135
 31
0.0
  0
ARC
  5
2AB
330
1F
100
AcDbEntity
  8
0
  6
Continuous
 62
     7
370
    15
100
AcDbCircle
 10
78.9433880962
 20
141.3497642919
 30
0.0
 40
1.069211192801155
100
AcDbArc
 50
338.188662235
 51
357.8765665332
  0
ARC
  5
2AC
330
1F
100
AcDbEntity
  8
0
  6
Continuous
 62
     7
370
    15
100
AcDbCircle
 10
80.5380960648
 20
153.479681315
 30
0.0
 40
0.8648775553167097
100
AcDbArc
 50
346.1225945671
 51
13.8121443349
  0
LINE
  5
2AD
330
1F
100
AcDbEntity
  8
0
  6
Continuous
 62
     7
370
    15
100
AcDbLine
 10
81.3779645602
 20
153.6861615707
 30
0.0
 11
80.016501676
 21
152.7703026761
 31
0.0
  0
ARC
  5
2AE
330
1F
100
AcDbEntity
  8
0
  6
Continuous
 62
     7
370
    15
100
AcDbCircle
 10
80.9595425206
 20
152.3928981421
 30
0.0
 40
1.015755982905469
100
AcDbArc
 50
158.1887341911
 51
177.8765954583
  0
LINE
  5
2AF
330
1F
100
AcDbEntity
  8
0
  6
Continuous
 62
     7
370
    15
100
AcDbLine
 10
79.9444840147
 20
152.4305338491
 30
0.0
 11
78.5767313416
 21
140.4703887631
 31
0.0
  0
ARC
  5
2B0
330
1F
100
AcDbEntity
  8
0
  6
Continuous
 62
     7
370
    15
100
AcDbCircle
 10
79.4163820724
 20
140.2629517451
 30
0.0
 40
0.8648950607926751
100
AcDbArc
 50
166.1228627417
 51
193.8118409097
  0
LINE
  5
2B1
330
1F
100
AcDbEntity
  8
0
  6
Continuous
 62
     7
370
    15
100
AcDbLine
 10
78.5764954842
 20
140.056471758
 30
0.0
 11
79.9379583538
 21
140.9723306526
 31
0.0
  0
ARC
  5
2B2
330
1F
100
AcDbEntity
  8
0
  6
Continuous
 62
     7
370
    15
100
AcDbCircle
 10
78.9949233233
 20
141.349734302
 30
0.0
 40
1.01575025642758
100
AcDbArc
 50
338.1886586634
 51
357.8766334116
  0
LINE
  5
2B3
330
1F
100
AcDbEntity
  8
0
  6
Continuous
 62
     7
370
    15
100
AcDbLine
 10
80.0099761316
 20
141.3120994796
 30
0.0
 11
81.3777288301
 21
153.2722445656
 31
0.0
  0
ARC
  5
2B4
330
1F
100
AcDbEntity
  8
0
  6
Continuous
 62
     7
370
    15
100
AcDbCircle
 10
85.0644935915
 20
153.0033398834
 30
0.0
 40
1.048186003077398
100
AcDbArc
 50
347.4435173495
 51
11.499031209
  0
LINE
  5
2B5
330
1F
100
AcDbEntity
  8
0
  6
Continuous
 62
     7
370
    15
100
AcDbLine
 10
81.3946123005
 20
153.6493780543
 30
0.0
 11
81.3779645602
 21
153.6861615707
 31
0.0
  0
LINE
  5
2B6
330
1F
100
AcDbEntity
  8
0
  6
Continuous
 62
     7
370
    15
100
AcDbLine
 10
84.7198563485
 20
140.8153208424
 30
0.0
 11
86.0876092545
 21
152.7754622032
 31
0.0
  0
LINE
  5
2B7
330
1F
100
AcDbEntity
  8
0
  6
Continuous
 62
     7
370
    15
100
AcDbLine
 10
80.1973709228
 20
152.3706535329
 30
0.0
 11
80.016501676
 21
152.7703026761
 31
0.0
  0
LINE
  5
2B8
330
1F
100
AcDbEntity
  8
0
  6
Continuous
 62
     7
370
    15
100
AcDbLine
 10
80.5519519115
 20
151.7565319766
 30
0.0
 11
80.1973709228
 21
152.3706535329
 31
0.0
  0
ARC
  5
2B9
330
1F
100
AcDbEntity
  8
0
  6
Continuous
 62
     7
370
    15
100
AcDbCircle
 10
83.651355224
 20
140.8549383613
 30
0.0
 40
1.069235334671594
100
AcDbArc
 50
338.1889271715
 51
357.8765794069
  0
LINE
  5
2BA
330
1F
100
AcDbEntity
  8
0
  6
Continuous
 62
     7
370
    15
100
AcDbLine
 10
79.9466911328
 20
140.9845458795
 30
0.0
 11
79.9379583538
 21
140.9723306526
 31
0.0
  0
LINE
  5
2BB
330
1F
100
AcDbEntity
  8
0
  6
Continuous
 62
     7
370
    15
100
AcDbLine
 10
78.8296182497
 20
140.4105084468
 30
0.0
 11
78.5764954842
 21
140.056471758
 31
0.0
  0
LINE
  5
2BC
330
1F
100
AcDbEntity
  8
0
  6
Continuous
 62
     7
370
    15
100
AcDbLine
 10
79.4982679279
 20
141.2642928292
 30
0.0
 11
78.8296182497
 21
140.4105084468
 31
0.0
  0
ARC
  5
2BD
330
1F
100
AcDbEntity
  8
0
  6
Continuous
 62
     7
370
    15
100
AcDbCircle
 10
78.6258365645
 20
150.9227554835
 30
0.0
 40
2.275998341881909
100
AcDbArc
 50
346.1226609247
 51
13.8120802704
  0
LINE
  5
2BE
330
1F
100
AcDbEntity
  8
0
  6
Continuous
 62
     7
370
    15
100
AcDbLine
 10
84.5674563522
 20
140.4061461319
 30
0.0
 11
84.6440483208
 21
140.4576668967
 31
0.0
  0
LINE
  5
2BF
330
1F
100
AcDbEntity
  8
0
  6
Continuous
 62
     7
370
    15
100
AcDbLine
 10
80.0699198942
 20
143.6832095016
 30
0.0
 11
80.8354017415
 21
150.3768707146
 31
0.0
  0
ARC
  5
2C0
330
1F
100
AcDbEntity
  8
0
  6
Continuous
 62
     7
370
    15
100
AcDbCircle
 10
77.3987728487
 20
143.7822418717
 30
0.0
 40
2.672982220057853
100
AcDbArc
 50
338.1884957275
 51
357.8767401799
  0
LINE
  5
2C1
330
1F
100
AcDbEntity
  8
0
  6
Continuous
 62
     7
370
    15
100
AcDbLine
 10
79.1184379111
 20
142.2765100826
 30
0.0
 11
79.8803995919
 21
142.7890839507
 31
0.0
  0
ARC
  5
2C2
330
1F
100
AcDbEntity
  8
0
  6
Continuous
 62
     7
370
    15
100
AcDbCircle
 10
81.3286207199
 20
142.8198774925
 30
0.0
 40
2.275995648118512
100
AcDbArc
 50
166.1226350256
 51
193.8120877988
  0
LINE
  5
2C3
330
1F
100
AcDbEntity
  8
0
  6
Continuous
 62
     7
370
    15
100
AcDbLine
 10
79.8845401357
 20
150.0594238271
 30
0.0
 11
79.1190584048
 21
143.3657626141
 31
0.0
  0
ARC
  5
2C4
330
1F
100
AcDbEntity
  8
0
  6
Continuous
 62
     7
370
    15
100
AcDbCircle
 10
82.5556525014
 20
149.9603984847
 30
0.0
 40
2.672947303731457
100
AcDbArc
 50
158.1883584529
 51
177.8768631761
  0
LINE
  5
2C5
330
1F
100
AcDbEntity
  8
0
  6
Continuous
 62
     7
370
    15
100
AcDbLine
 10
80.8360220605
 20
151.4661232461
 30
0.0
 11
80.0740605543
 21
150.9535493781
 31
0.0
  0
LWPOLYLINE
  5
2C6
330
1F
100
AcDbEntity
  8
0
  6
Continuous
 62
     7
370
    15
100
AcDbPolyline
 90
       27
 70
   128
 43
0.0
 10
80.2209110322
 20
146.6196062495
 10
80.2837181461
 20
147.2380454172
 10
80.3287133665
 20
147.8351759244
 10
80.3532815396
 20
148.3762892414
 10
80.3559950643
 20
148.8299364675
 10
80.3366960815
 20
149.1697574486
 10
80.2965062528
 20
149.3760044207
 10
80.2377612188
 20
149.4366856743
 10
80.1638750915
 20
149.348277085
 10
80.0791418503
 20
149.1159158279
 10
79.9884858632
 20
148.7531060804
 10
79.8971756219
 20
148.280936711
 10
79.8105180354
 20
147.7268444826
 10
79.7335489976
 20
147.1230308045
 10
79.6707418838
 20
146.5045879115
 10
79.6257467798
 20
145.9074574043
 10
79.6011784903
 20
145.3663478125
 10
79.598465082
 20
144.9126968612
 10
79.6177640648
 20
144.5728758801
 10
79.6579538935
 20
144.3666326333
 10
79.7166989275
 20
144.3059513797
 10
79.7905850547
 20
144.394359969
 10
79.875318296
 20
144.6267175008
 10
79.9659742831
 20
144.9895272483
 10
80.057284408
 20
145.461700343
 10
80.1439421109
 20
146.0157925714
 10
80.2209110322
 20
146.6196062495
  0
LINE
  5
2C7
330
1F
100
AcDbEntity
  8
0
  6
Continuous
 62
     7
370
    15
100
AcDbLine
 10
80.5070335252
 20
151.5591362943
 30
0.0
 11
80.5028858219
 21
151.5281642307
 31
0.0
  0
LINE
  5
2C8
330
1F
100
AcDbEntity
  8
0
  6
Continuous
 62
     7
370
    15
100
AcDbLine
 10
78.8296182497
 20
140.4105084468
 30
0.0
 11
78.5767313416
 21
140.4703887631
 31
0.0
  0
LINE
  5
2C9
330
1F
100
AcDbEntity
  8
0
  6
Continuous
 62
     7
370
    15
100
AcDbLine
 10
80.1973709228
 20
152.3706535329
 30
0.0
 11
79.9444840147
 21
152.4305338491
 31
0.0
  0
LINE
  5
2CA
330
1F
100
AcDbEntity
  8
0
  6
Continuous
 62
     7
370
    15
100
AcDbLine
 10
87.6164874851
 20
141.4721305002
 30
0.0
 11
88.722183448
 21
151.1407526661
 31
0.0
  0
LINE
  5
2CB
330
1F
100
AcDbEntity
  8
0
  6
Continuous
 62
     7
370
    15
100
AcDbLine
 10
88.9905705906
 20
151.1388341416
 30
0.0
 11
87.8848746276
 21
141.470215701
 31
0.0
  0
ARC
  5
2CC
330
1F
100
AcDbEntity
  8
0
  6
Continuous
 62
     7
370
    15
100
AcDbCircle
 10
86.164384665
 20
151.710446816
 30
0.0
 40
2.620474391938508
100
AcDbArc
 50
347.4435641864
 51
11.4989074791
  0
ARC
  5
2CD
330
1F
100
AcDbEntity
  8
0
  6
Continuous
 62
     7
370
    15
100
AcDbCircle
 10
86.8960646976
 20
151.558283242
 30
0.0
 40
2.136092807791294
100
AcDbArc
 50
348.6756561846
 51
9.1681794215
  0
ARC
  5
2CE
330
1F
100
AcDbEntity
  8
0
  6
Continuous
 62
     7
370
    15
100
AcDbCircle
 10
83.563964899
 20
141.8067832549
 30
0.0
 40
4.066316733467502
100
AcDbArc
 50
342.9080819644
 51
355.2792901603
  0
LINE
  5
2CF
330
1F
100
AcDbEntity
  8
0
  6
Continuous
 62
     7
370
    15
100
AcDbLine
 10
87.4661045006
 20
140.6100536217
 30
0.0
 11
87.7522105209
 21
140.8443259527
 31
0.0
  0
ARC
  5
2D0
330
1F
100
AcDbEntity
  8
0
  6
Continuous
 62
     7
370
    15
100
AcDbCircle
 10
86.0151176797
 20
141.5395262535
 30
0.0
 40
1.871041153207095
100
AcDbArc
 50
338.1882649556
 51
357.8770584857
  0
LWPOLYLINE
  5
2D1
330
1F
100
AcDbEntity
  8
0
  6
Continuous
 62
     7
370
    15
100
AcDbPolyline
 90
       20
 70
   128
 43
0.0
 10
78.9251379526
 20
138.8430888285
 10
78.9368893809
 20
138.8514800449
 10
79.0146713468
 20
138.8311734874
 10
79.0757689017
 20
138.668149196
 10
79.1179738796
 20
138.3682987173
 10
79.1397607743
 20
137.9424607833
 10
79.1403421524
 20
137.4060264309
 10
79.1196972921
 20
136.7783820708
 10
79.0785719498
 20
136.082214721
 10
79.0184527493
 20
135.3426831294
 10
78.9415124661
 20
134.5865181167
 10
78.8505317966
 20
133.8410484125
 10
78.7487994737
 20
133.1332171787
 10
78.6399918932
 20
132.4886078466
 10
78.5280417974
 20
131.9305165191
 10
78.4169953174
 20
131.479115643
 10
78.3108662206
 20
131.15072199
 10
78.2134899261
 20
130.9572006096
 10
78.1283859021
 20
130.9055475969
 10
78.093541865
 20
130.9309801538
  0
LWPOLYLINE
  5
2D2
330
1F
100
AcDbEntity
  8
0
  6
Continuous
 62
     7
370
    15
100
AcDbPolyline
 90
       32
 70
   128
 43
0.0
 10
77.8417327299
 20
136.1608667751
 10
77.940423819
 20
136.7915565599
 10
78.0439494035
 20
137.3462168951
 10
78.1480710345
 20
137.8021365483
 10
78.2485258157
 20
138.1406518151
 10
78.3412012595
 20
138.3479027529
 10
78.4223031576
 20
138.4154050131
 10
78.4885111122
 20
138.3403962929
 10
78.5371149748
 20
138.1259462316
 10
78.566124276
 20
137.7808353384
 10
78.5743520453
 20
137.319189914
 10
78.561460911
 20
136.7599139441
 10
78.5279787003
 20
136.1259012003
 10
78.4752765528
 20
135.4431076427
 10
78.4055116444
 20
134.7394897123
 10
78.3215403414
 20
134.0438513537
 10
78.2268006212
 20
133.3846742739
 10
78.1251707437
 20
132.7889426131
 10
78.0208118583
 20
132.2810477097
 10
77.9179961744
 20
131.8817822714
 10
77.8209330372
 20
131.6074910094
 10
77.7335964001
 20
131.4694056739
 10
77.6595613777
 20
131.4731775303
 10
77.6018594249
 20
131.6186538418
 10
77.5628528415
 20
131.899877869
 10
77.5441381472
 20
132.3053366025
 10
77.5464820533
 20
132.8184282859
 10
77.5697881679
 20
133.4181515951
 10
77.6131025839
 20
134.0799494167
 10
77.674652063
 20
134.7767295767
 10
77.7519164464
 20
135.4799656649
 10
77.8417327299
 20
136.1608667751
  0
LWPOLYLINE
  5
2D3
330
1F
100
AcDbEntity
  8
0
  6
Continuous
 62
     7
370
    15
100
AcDbPolyline
 90
       24
 70
   128
 43
0.0
 10
77.9346363476
 20
135.6352469404
 10
78.0114164433
 20
136.1115159918
 10
78.0916889987
 20
136.5004847278
 10
78.169500767
 20
136.7733063628
 10
78.2390808078
 20
136.9097469826
 10
78.2952684301
 20
136.8996849735
 10
78.3338964309
 20
136.7438691188
 10
78.3521002947
 20
136.4538534064
 10
78.3485298368
 20
136.0511495252
 10
78.3234495527
 20
135.5656212647
 10
78.2787197593
 20
135.0332810064
 10
78.2176580603
 20
134.4936093767
 10
78.1447927791
 20
133.986629032
 10
78.0655281476
 20
133.54994119
 10
77.9857426739
 20
133.2159353872
 10
77.9113539818
 20
133.0093810786
 10
77.847879226
 20
132.9455985208
 10
77.8000255438
 20
133.0293169696
 10
77.7713424384
 20
133.254328229
 10
77.7639570503
 20
133.6039429982
 10
77.7784169975
 20
134.0522351195
 10
77.8136500946
 20
134.5659545143
 10
77.8670432835
 20
135.1069989134
 10
77.9346363476
 20
135.6352469404
  0
SPLINE
  5
2D4
330
1F
100
AcDbEntity
  8
0
  6
Continuous
 62
     7
370
    15
100
AcDbSpline
210
0.0
220
0.0
230
1.0
 70
     8
 71
     3
 72
     9
 73
     5
 74
     0
 42
0.00000001
 43
0.00000001
 40
0.0
 40
0.0
 40
0.0
 40
0.0
 40
0.3955551944055865
 40
1.0
 40
1.0
 40
1.0
 40
1.0
 10
78.26441650716427
 20
134.8949050982163
 30
0.0
 10
78.25075565478132
 20
134.8567326603842
 30
0.0
 10
78.21621976048344
 20
134.7602292182047
 30
0.0
 10
78.15298885807964
 20
134.6766186645488
 30
0.0
 10
78.11476926756862
 20
134.6260806996987
 30
0.0
  0
LINE
  5
2D5
330
1F
100
AcDbEntity
  8
0
  6
Continuous
 62
     7
370
    15
100
AcDbLine
 10
78.1147692676
 20
134.6260806997
 30
0.0
 11
78.1997387155
 21
134.3872616519
 31
0.0
  0
LINE
  5
2D6
330
1F
100
AcDbEntity
  8
0
  6
Continuous
 62
     7
370
    15
100
AcDbLine
 10
78.35276945
 20
136.2376263817
 30
0.0
 11
78.3464823241
 21
136.2382876207
 31
0.0
  0
LINE
  5
2D7
330
1F
100
AcDbEntity
  8
0
  6
Continuous
 62
     7
370
    15
100
AcDbLine
 10
78.232616265
 20
134.6136941095
 30
0.0
 11
78.1147692676
 21
134.6260806997
 31
0.0
  0
SPLINE
  5
2D8
330
1F
100
AcDbEntity
  8
0
  6
Continuous
 62
     7
370
    15
100
AcDbSpline
210
0.0
220
0.0
230
1.0
 70
     8
 71
     3
 72
    35
 73
    31
 74
     0
 42
0.00000001
 43
0.00000001
 40
0.0
 40
0.0
 40
0.0
 40
0.0
 40
0.0278702770157458
 40
0.0556913512096653
 40
0.083471371290719
 40
0.1112185221378773
 40
0.1389410177433817
 40
0.1666470940280258
 40
0.1943450015593683
 40
0.2220429982047968
 40
0.2497493417520168
 40
0.2774722825298992
 40
0.3052200560626074
 40
0.3330008757895692
 40
0.3608229258831996
 40
0.3886943541952554
 40
0.416623265361405
 40
0.4446177140920065
 40
0.4726856986752463
 40
0.500835154716717
 40
0.5514167601637804
 40
0.6017233078907709
 40
0.6518016670008768
 40
0.7016993496170103
 40
0.7514643853560431
 40
0.8011451885510507
 40
0.8507904199679951
 40
0.9004488449443266
 40
0.9501691899970807
 40
1.0
 40
1.0
 40
1.0
 40
1.0
 10
108.4256934281979
 20
140.0234056991173
 30
0.0
 10
108.2824082914122
 20
140.17874888421
 30
0.0
 10
107.9960909766847
 20
140.4891610079983
 30
0.0
 10
107.5568723003759
 20
140.9449481534228
 30
0.0
 10
107.1110585778368
 20
141.3929400383681
 30
0.0
 10
106.6579211702681
 20
141.8324703376175
 30
0.0
 10
106.1976550316999
 20
142.2637170490972
 30
0.0
 10
105.7302081416956
 20
142.6866323904079
 30
0.0
 10
105.2555945663032
 20
143.1012289930415
 30
0.0
 10
104.7738106939055
 20
143.5075033285139
 30
0.0
 10
104.284857656345
 20
143.9054562066763
 30
0.0
 10
103.7887353238341
 20
144.2950872869708
 30
0.0
 10
103.2854439116881
 20
144.6763965499528
 30
0.0
 10
102.7749835526007
 20
145.0493839023583
 30
0.0
 10
102.2573543949441
 20
145.4140492874848
 30
0.0
 10
101.7325566321369
 20
145.7703926408422
 30
0.0
 10
101.2005902804143
 20
146.118413958613
 30
0.0
 10
100.6614560351983
 20
146.4581130683213
 30
0.0
 10
100.1151520511344
 20
146.7894904807667
 30
0.0
 10
99.41526712624133
 20
147.198007731629
 30
0.0
 10
98.55809064336113
 20
147.6717257760438
 30
0.0
 10
97.5385941542025
 20
148.1950754238986
 30
0.0
 10
96.50790941449027
 20
148.6845379643138
 30
0.0
 10
95.46604207637724
 20
149.1401030155761
 30
0.0
 10
94.41299691649758
 20
149.5617856424347
 30
0.0
 10
93.34876368516193
 20
149.9495235194124
 30
0.0
 10
92.27339461435581
 20
150.3035397883484
 30
0.0
 10
91.18670845846371
 20
150.6229954222675
 30
0.0
 10
90.08939739490671
 20
150.9110212278591
 30
0.0
 10
89.35011554304455
 20
151.0740379703772
 30
0.0
 10
88.98006445244546
 20
151.1556367857718
 30
0.0
  0
LINE
  5
2D9
330
1F
100
AcDbEntity
  8
0
  6
Continuous
 62
     7
370
    15
100
AcDbLine
 10
108.425694131
 20
140.6416627098
 30
0.0
 11
108.425694131
 21
140.0222996701
 31
0.0
  0
SPLINE
  5
2DA
330
1F
100
AcDbEntity
  8
0
  6
Continuous
 62
     7
370
    15
100
AcDbSpline
210
0.0
220
0.0
230
1.0
 70
     8
 71
     3
 72
    42
 73
    38
 74
     0
 42
0.00000001
 43
0.00000001
 40
0.0
 40
0.0
 40
0.0
 40
0.0
 40
0.0272952867003343
 40
0.0546631868952148
 40
0.0821039380555952
 40
0.1096177757659677
 40
0.1372049337383098
 40
0.164865643825958
 40
0.1926001360374882
 40
0.2204086385505678
 40
0.248291377725739
 40
0.2762485781202088
 40
0.3042804625015797
 40
0.332387251861541
 40
0.3605691654295284
 40
0.3888264206863286
 40
0.4171592333776516
 40
0.4455678175276314
 40
0.474052385452316
 40
0.5026131477730634
 40
0.5312503134299218
 40
0.5599640896949215
 40
0.5887546821853432
 40
0.6176222948769028
 40
0.6465671301168953
 40
0.6755893886372661
 40
0.7046892695676246
 40
0.7338669704482046
 40
0.7631226872427419
 40
0.7924566143512964
 40
0.821868944623021
 40
0.8513598693688373
 40
0.8809295783740598
 40
0.9105782599109482
 40
0.9403061007511903
 40
0.9701132861783078
 40
1.0
 40
1.0
 40
1.0
 40
1.0
 10
88.9801671971695
 20
151.6191307568379
 30
0.0
 10
89.18224841757487
 20
151.5754206725435
 30
0.0
 10
89.58694845389641
 20
151.4878842222683
 30
0.0
 10
90.19178907262014
 20
151.3435396836573
 30
0.0
 10
90.79580479280024
 20
151.1893920312134
 30
0.0
 10
91.39860665359087
 20
151.0244772125376
 30
0.0
 10
92.00006388584958
 20
150.8490121454719
 30
0.0
 10
92.59997386651358
 20
150.6629001775354
 30
0.0
 10
93.198150969245
 20
150.4661332267441
 30
0.0
 10
93.79440272578111
 20
150.2586836764817
 30
0.0
 10
94.38853630525675
 20
150.0405335364482
 30
0.0
 10
94.98035683958403
 20
149.8116666754499
 30
0.0
 10
95.56966794466223
 20
149.5720709879344
 30
0.0
 10
96.15627165311099
 20
149.3217378873416
 30
0.0
 10
96.73996850757335
 20
149.0606625177582
 30
0.0
 10
97.3205576130836
 20
148.7888437714309
 30
0.0
 10
97.897836702713
 20
148.5062843575489
 30
0.0
 10
98.47160220191157
 20
148.2129908562159
 30
0.0
 10
99.0416492954698
 20
147.9089737753276
 30
0.0
 10
99.6077719960459
 20
147.5942476055307
 30
0.0
 10
100.1697632145358
 20
147.2688308744947
 30
0.0
 10
100.7274148322267
 20
146.93274620012
 30
0.0
 10
101.2805177746789
 20
146.5860203426604
 30
0.0
 10
101.8288620875968
 20
146.2286842559365
 30
0.0
 10
102.3722370136649
 20
145.8607731366448
 30
0.0
 10
102.9104310741675
 20
145.482326475287
 30
0.0
 10
103.4432321410425
 20
145.093388095262
 30
0.0
 10
103.9704275531014
 20
144.6940062303055
 30
0.0
 10
104.4918040750288
 20
144.2842334519924
 30
0.0
 10
105.0071484537112
 20
143.8641271525615
 30
0.0
 10
105.5162457445203
 20
143.4337479401915
 30
0.0
 10
106.0188860017282
 20
142.9931658493869
 30
0.0
 10
106.5148396363531
 20
142.5424372607297
 30
0.0
 10
107.0039501856931
 20
142.0816915657157
 30
0.0
 10
107.4857871473487
 20
141.6108066073551
 30
0.0
 10
107.9609472640243
 20
141.130624974344
 30
0.0
 10
108.2706885060127
 20
140.8029100635596
 30
0.0
 10
108.425765456498
 20
140.6388343057859
 30
0.0
  0
LINE
  5
2DB
330
1F
100
AcDbEntity
  8
0
  6
Continuous
 62
     7
370
    15
100
AcDbLine
 10
76.8979341581
 20
112.3783974428
 30
0.0
 11
108.425694131
 21
109.0646964833
 31
0.0
  0
LINE
  5
2DC
330
1F
100
AcDbEntity
  8
0
  6
Continuous
 62
     7
370
    15
100
AcDbLine
 10
80.1561871401
 20
140.8697883119
 30
0.0
 11
76.8979341581
 21
112.3783974428
 31
0.0
  0
LINE
  5
2DD
330
1F
100
AcDbEntity
  8
0
  6
Continuous
 62
     7
370
    15
100
AcDbLine
 10
80.1561871401
 20
140.8697883119
 30
0.0
 11
84.8048339455
 21
140.3811941375
 31
0.0
  0
LINE
  5
2DE
330
1F
100
AcDbEntity
  8
0
  6
Continuous
 62
     7
370
    15
100
AcDbLine
 10
84.8048339455
 20
140.3811941375
 30
0.0
 11
84.862302602
 21
140.8837208976
 31
0.0
  0
LINE
  5
2DF
330
1F
100
AcDbEntity
  8
0
  6
Continuous
 62
     7
370
    15
100
AcDbLine
 10
84.862302602
 20
140.8837208976
 30
0.0
 11
87.7701794586
 21
140.5780906309
 31
0.0
  0
LINE
  5
2E0
330
1F
100
AcDbEntity
  8
0
  6
Continuous
 62
     7
370
    15
100
AcDbLine
 10
87.8291792094
 20
141.0940060843
 30
0.0
 11
87.7701794586
 21
140.5780906309
 31
0.0
  0
LINE
  5
2E1
330
1F
100
AcDbEntity
  8
0
  6
Continuous
 62
     7
370
    15
100
AcDbLine
 10
108.425694131
 20
140.0234060813
 30
0.0
 11
108.425694131
 21
109.0646964833
 31
0.0
  0
LWPOLYLINE
  5
2E2
330
1F
100
AcDbEntity
  8
0
  6
Continuous
 62
     7
370
    15
100
AcDbPolyline
 90
       20
 70
   128
 43
0.0
 10
78.0862961753
 20
130.9400307466
 10
78.1193441569
 20
130.908686154
 10
78.2029156896
 20
130.944674321
 10
78.2991185176
 20
131.1229853411
 10
78.4044757809
 20
131.4371763249
 10
78.5151793013
 20
131.8758888621
 10
78.6272278844
 20
132.4232699801
 10
78.7365721396
 20
133.0595327993
 10
78.8392597667
 20
133.7616848279
 10
78.931579678
 20
134.5043438007
 10
79.0101949449
 20
135.2606727262
 10
79.072264102
 20
136.0033335616
 10
79.1155442919
 20
136.7054837276
 10
79.1384706597
 20
137.3417484094
 10
79.1402150269
 20
137.8891276647
 10
79.1207142963
 20
138.3278420646
 10
79.0806730135
 20
138.6420311858
 10
79.0215386867
 20
138.8203422059
 10
78.9454482353
 20
138.8563303728
 10
78.9161688506
 20
138.835742556
  0
ARC
  5
2E3
330
1F
100
AcDbEntity
  8
0
  6
Continuous
 62
     7
370
    15
100
AcDbCircle
 10
98.5833291535
 20
140.1926647349
 30
0.0
 40
19.95229009744654
100
AcDbArc
 50
169.7758313988
 51
177.1762611442
  0
LWPOLYLINE
  5
2E4
330
1F
100
AcDbEntity
  8
0
  6
Continuous
 62
     7
370
    15
100
AcDbPolyline
 90
        3
 70
   128
 43
0.0
 10
78.6835316892
 20
140.0236594011
 10
78.7026040114
 20
139.9662489523
 10
78.7635201911
 20
139.9329374064
  0
LINE
  5
2E5
330
1F
100
AcDbEntity
  8
0
  6
Continuous
 62
     7
370
    15
100
AcDbLine
 10
76.8979341581
 20
112.3783974428
 30
0.0
 11
71.7118276141
 21
83.5150735904
 31
0.0
  0
ARC
  5
2E6
330
1F
100
AcDbEntity
  8
0
  6
Continuous
 62
     7
370
    15
100
AcDbCircle
 10
81.4256934307
 20
108.7071517934
 30
0.0
 40
26.99999999999995
100
AcDbArc
 50
248.2764736094
 51
248.9137564122
  0
LINE
  5
2E7
330
1F
100
AcDbEntity
  8
0
  6
Continuous
 62
     7
370
    15
100
AcDbLine
 10
71.4322306073
 20
83.6246734936
 30
0.0
 11
71.4533148191
 21
83.8950084974
 31
0.0
  0
SPLINE
  5
2E8
330
1F
100
AcDbEntity
  8
0
  6
Continuous
 62
     7
370
    15
100
AcDbSpline
210
0.0
220
0.0
230
1.0
 70
     8
 71
     3
 72
    10
 73
     6
 74
     0
 42
0.00000001
 43
0.00000001
 40
0.0
 40
0.0
 40
0.0
 40
0.0
 40
0.5
 40
0.5
 40
1.0
 40
1.0
 40
1.0
 40
1.0
 10
71.43613568444445
 20
84.70280351988535
 30
0.0
 10
71.45899606967237
 20
84.69329002942385
 30
0.0
 10
71.47250876077302
 20
84.60510718341686
 30
0.0
 10
71.47822331853295
 20
84.31154387380046
 30
0.0
 10
71.47040818601916
 20
84.1141347259926
 30
0.0
 10
71.45331516952363
 20
83.8950089862867
 30
0.0
  0
LINE
  5
2E9
330
1F
100
AcDbEntity
  8
0
  6
Continuous
 62
     7
370
    15
100
AcDbLine
 10
71.4228133549
 20
84.7083520278
 30
0.0
 11
71.4361356844
 21
84.7028035199
 31
0.0
  0
LINE
  5
2EA
330
1F
100
AcDbEntity
  8
0
  6
Continuous
 62
     7
370
    15
100
AcDbLine
 10
76.6452161253
 20
134.2638933058
 30
0.0
 11
76.631031321
 21
134.2612359142
 31
0.0
  0
SPLINE
  5
2EB
330
1F
100
AcDbEntity
  8
0
  6
Continuous
 62
     7
370
    15
100
AcDbSpline
210
0.0
220
0.0
230
1.0
 70
     8
 71
     3
 72
    10
 73
     6
 74
     0
 42
0.00000001
 43
0.00000001
 40
0.0
 40
0.0
 40
0.0
 40
0.0
 40
0.5
 40
0.5
 40
1.0
 40
1.0
 40
1.0
 40
1.0
 10
76.82997012475333
 20
135.0504637749437
 30
0.0
 10
76.80112148623917
 20
134.8325021399872
 30
0.0
 10
76.76764406497362
 20
134.6376502485789
 30
0.0
 10
76.70152915659135
 20
134.353533954844
 30
0.0
 10
76.66956277771206
 20
134.2684474317323
 30
0.0
 10
76.64521612532695
 20
134.2638933058028
 30
0.0
  0
SPLINE
  5
2EC
330
1F
100
AcDbEntity
  8
0
  6
Continuous
 62
     7
370
    15
100
AcDbSpline
210
0.0
220
0.0
230
1.0
 70
     8
 71
     3
 72
     8
 73
     4
 74
     0
 42
0.00000001
 43
0.00000001
 40
0.0
 40
0.0
 40
0.0
 40
0.0
 40
1.0
 40
1.0
 40
1.0
 40
1.0
 10
76.82997012475333
 20
135.0504637749437
 30
0.0
 10
77.52260179613423
 20
140.2835402489954
 30
0.0
 10
78.21757404486468
 20
145.5083101050153
 30
0.0
 10
78.91301301298394
 20
150.7314235920664
 30
0.0
  0
LINE
  5
2ED
330
1F
100
AcDbEntity
  8
0
  6
Continuous
 62
     7
370
    15
100
AcDbLine
 10
78.7635201911
 20
139.9329374064
 30
0.0
 11
80.1561871401
 21
140.8697883119
 31
0.0
  0
LINE
  5
2EE
330
1F
100
AcDbEntity
  8
0
  6
Continuous
 62
     7
370
    15
100
AcDbLine
 10
78.913013064
 20
150.7314252187
 30
0.0
 11
79.8176568557
 21
151.339977466
 31
0.0
  0
LINE
  5
2EF
330
1F
100
AcDbEntity
  8
0
  6
Continuous
 62
     7
370
    15
100
AcDbLine
 10
84.862302602
 20
140.8837208976
 30
0.0
 11
84.7163284986
 21
140.7855259706
 31
0.0
  0
LINE
  5
2F0
330
1F
100
AcDbEntity
  8
0
  6
Continuous
 62
     7
370
    15
100
AcDbLine
 10
108.425694131
 20
109.0646964833
 30
0.0
 11
108.425694131
 21
108.7071517934
 31
0.0
  0
ARC
  5
2F1
330
1F
100
AcDbEntity
  8
0
  6
Continuous
 62
     7
370
    15
100
AcDbCircle
 10
81.4256934307
 20
108.7071517934
 30
0.0
 40
27.00000000000003
100
AcDbArc
 50
248.9137564122
 51
0.0
  0
SPLINE
  5
2F2
330
1F
100
AcDbEntity
  8
0
  6
Continuous
 62
     7
370
    15
100
AcDbSpline
210
0.0
220
0.0
230
1.0
 70
     8
 71
     3
 72
    20
 73
    16
 74
     0
 42
0.00000001
 43
0.00000001
 40
0.0
 40
0.0
 40
0.0
 40
0.0
 40
0.2500000000000001
 40
0.2500000000000001
 40
0.3750000000000003
 40
0.3750000000000003
 40
0.5000000000000004
 40
0.5000000000000004
 40
0.6250000000000007
 40
0.6250000000000007
 40
0.7500000000000008
 40
0.7500000000000008
 40
0.8750000000000004
 40
0.8750000000000004
 40
1.0
 40
1.0
 40
1.0
 40
1.0
 10
76.63103132098013
 20
134.2612359141988
 30
0.0
 10
76.56346664160218
 20
134.2485588874412
 30
0.0
 10
76.39899862222218
 20
134.217978738432
 30
0.0
 10
76.01055627654067
 20
134.1373263431425
 30
0.0
 10
75.85925814831126
 20
134.1048914014958
 30
0.0
 10
75.51925725939726
 20
134.0279809802181
 30
0.0
 10
75.33000832048116
 20
133.9834004381309
 30
0.0
 10
74.91330195332235
 20
133.8792569846354
 30
0.0
 10
74.68785196636465
 20
133.8201314320641
 30
0.0
 10
74.21491049684295
 20
133.6884420605442
 30
0.0
 10
73.96602855016968
 20
133.6155418116409
 30
0.0
 10
73.44477870491815
 20
133.4534544176401
 30
0.0
 10
73.17299137297233
 20
133.3643596370712
 30
0.0
 10
72.62218787251376
 20
133.1731134500907
 30
0.0
 10
72.34138706126252
 20
133.0704264091762
 30
0.0
 10
72.05574133420454
 20
132.9600690964603
 30
0.0
  0
SPLINE
  5
2F3
330
1F
100
AcDbEntity
  8
0
  6
Continuous
 62
     7
370
    15
100
AcDbSpline
210
0.0
220
0.0
230
1.0
 70
     8
 71
     3
 72
    20
 73
    16
 74
     0
 42
0.00000001
 43
0.00000001
 40
0.0
 40
0.0
 40
0.0
 40
0.0
 40
0.2499999999999994
 40
0.2499999999999994
 40
0.3749999999999994
 40
0.3749999999999994
 40
0.4999999999999996
 40
0.4999999999999996
 40
0.6249999999999996
 40
0.6249999999999996
 40
0.7499999999999997
 40
0.7499999999999997
 40
0.8749999999999999
 40
0.8749999999999999
 40
1.0
 40
1.0
 40
1.0
 40
1.0
 10
67.21803222477403
 20
86.9323415058258
 30
0.0
 10
67.731145012632
 20
86.59754489662366
 30
0.0
 10
68.2290767791908
 20
86.2985001891646
 30
0.0
 10
68.94365672538318
 20
85.89765050270044
 30
0.0
 10
69.17589009467792
 20
85.77240522981333
 30
0.0
 10
69.61119103297095
 20
85.54516105855177
 30
0.0
 10
69.81642157081548
 20
85.44193395320951
 30
0.0
 10
70.19992953648075
 20
85.25448074595973
 30
0.0
 10
70.37964644516369
 20
85.16961409728594
 30
0.0
 10
70.6985745309911
 20
85.02256281841137
 30
0.0
 10
70.83857313703426
 20
84.95993898800819
 30
0.0
 10
71.07890106016364
 20
84.85424589541539
 30
0.0
 10
71.17971359516436
 20
84.81097849842467
 30
0.0
 10
71.33591396570517
 20
84.74460703535202
 30
0.0
 10
71.3910589819937
 20
84.72158748900158
 30
0.0
 10
71.42281335488798
 20
84.7083520277683
 30
0.0
  0
ELLIPSE
  5
2F4
330
1F
100
AcDbEntity
  8
0
  6
Continuous
 62
     7
370
    15
100
AcDbEllipse
 10
67.6328399411
 20
124.1282820314
 30
0.0
 11
2.240070073110061
 21
3.090624061489677
 31
0.0
210
0.0
220
0.0
230
1.0
 40
0.6384782664
 41
0.0
 42
6.283185307179586
  0
ARC
  5
2F5
330
1F
100
AcDbEntity
  8
0
  6
Continuous
 62
     7
370
    15
100
AcDbCircle
 10
81.4256934307
 20
108.7071517934
 30
0.0
 40
26.0
100
AcDbArc
 50
111.1237052762
 51
236.8762947238
  0
LINE
  5
2F6
330
1F
100
AcDbEntity
  8
0
  6
Continuous
 62
     7
370
    15
100
AcDbLine
 10
76.8375006362
 20
135.1071516503
 30
0.0
 11
75.7653048119
 21
135.1071516503
 31
0.0
  0
SPLINE
  5
2F7
330
1F
100
AcDbEntity
  8
0
  6
Continuous
 62
     7
370
    15
100
AcDbSpline
210
0.0
220
0.0
230
1.0
 70
    24
 71
     3
 72
    10
 73
     6
 74
     0
 42
0.00000001
 43
0.00000001
 40
0.0
 40
0.0
 40
0.0
 40
0.0
 40
0.5
 40
0.5
 40
1.0
 40
1.0
 40
1.0
 40
1.0
 10
72.42569343065693
 20
79.14687439278427
 30
0.0
 10
72.42569343065693
 20
78.98698712459063
 30
0.0
 10
72.42569343065693
 20
78.82585986907603
 30
0.0
 10
72.42569343065693
 20
78.59176087072122
 30
0.0
 10
72.42569343065693
 20
78.52023409712999
 30
0.0
 10
72.42569343065693
 20
78.52023409712999
 30
0.0
  0
ARC
  5
2F8
330
1F
100
AcDbEntity
  8
0
  6
Continuous
 62
     7
370
    15
100
AcDbCircle
 10
81.4256934307
 20
108.7071517934
 30
0.0
 40
31.50000000000001
100
AcDbArc
 50
140.9381656697
 51
253.398450401
  0
SPLINE
  5
2F9
330
1F
100
AcDbEntity
  8
0
  6
Continuous
 62
     7
370
    15
100
AcDbSpline
210
0.0
220
0.0
230
1.0
 70
    24
 71
     3
 72
    12
 73
     8
 74
     0
 42
0.00000001
 43
0.00000001
 40
0.0
 40
0.0
 40
0.0
 40
0.0
 40
0.2499999999999986
 40
0.2499999999999986
 40
0.4999999999999972
 40
0.4999999999999972
 40
1.0
 40
1.0
 40
1.0
 40
1.0
 10
56.96700376828933
 20
128.5571517933772
 30
0.0
 10
56.96700376828932
 20
128.5571517933772
 30
0.0
 10
56.99483348859281
 20
128.5571517933772
 30
0.0
 10
57.08997594984947
 20
128.5571517933772
 30
0.0
 10
57.15639876614983
 20
128.5571517933772
 30
0.0
 10
57.38059819766994
 20
128.5571517933772
 30
0.0
 10
57.56458460021557
 20
128.5571517933772
 30
0.0
 10
57.74474116939854
 20
128.5571517933772
 30
0.0
  0
SPLINE
  5
2FA
330
1F
100
AcDbEntity
  8
0
  6
Continuous
 62
     7
370
    15
100
AcDbSpline
210
0.0
220
0.0
230
1.0
 70
    24
 71
     3
 72
    10
 73
     6
 74
     0
 42
0.00000001
 43
0.00000001
 40
0.0
 40
0.0
 40
0.0
 40
0.0
 40
0.5
 40
0.5
 40
1.0
 40
1.0
 40
1.0
 40
1.0
 10
73.42569343065692
 20
138.553592117141
 30
0.0
 10
73.42569343065692
 20
138.7139973834918
 30
0.0
 10
73.42569343065692
 20
138.8730591964804
 30
0.0
 10
73.42569343065692
 20
139.1039716621108
 30
0.0
 10
73.42569343065692
 20
139.1743472665414
 30
0.0
 10
73.42569343065692
 20
139.1743472665414
 30
0.0
  0
SPLINE
  5
2FB
330
1F
100
AcDbEntity
  8
0
  6
Continuous
 62
     7
370
    15
100
AcDbSpline
210
0.0
220
0.0
230
1.0
 70
    24
 71
     3
 72
    12
 73
     8
 74
     0
 42
0.00000001
 43
0.00000001
 40
0.0
 40
0.0
 40
0.0
 40
0.0
 40
0.2499999999999987
 40
0.2499999999999987
 40
0.4999999999999973
 40
0.4999999999999973
 40
1.0
 40
1.0
 40
1.0
 40
1.0
 10
61.57569343065691
 20
133.1658414557446
 30
0.0
 10
61.57569343065691
 20
133.1658414557445
 30
0.0
 10
61.57569343065691
 20
133.1376217571567
 30
0.0
 10
61.57569343065691
 20
133.0431787499086
 30
0.0
 10
61.57569343065691
 20
132.9768917732032
 30
0.0
 10
61.57569343065691
 20
132.751266949915
 30
0.0
 10
61.57569343065691
 20
132.5688406868824
 30
0.0
 10
61.57569343065691
 20
132.3881040546355
 30
0.0
  0
ARC
  5
2FC
330
1F
100
AcDbEntity
  8
0
  6
Continuous
 62
     7
370
    15
100
AcDbCircle
 10
81.4256934307
 20
108.7071517934
 30
0.0
 40
31.50000000000001
100
AcDbArc
 50
104.7124579609
 51
129.0618343303
  0
ARC
  5
2FD
330
1F
100
AcDbEntity
  8
0
  6
Continuous
 62
     7
370
    15
100
AcDbCircle
 10
81.4256934307
 20
108.7071517934
 30
0.0
 40
31.50000000000001
100
AcDbArc
 50
286.601549599
 51
31.0027191339
  0
SPLINE
  5
2FE
330
1F
100
AcDbEntity
  8
0
  6
Continuous
 62
     7
370
    15
100
AcDbSpline
210
0.0
220
0.0
230
1.0
 70
    24
 71
     3
 72
    12
 73
     8
 74
     0
 42
0.00000001
 43
0.00000001
 40
0.0
 40
0.0
 40
0.0
 40
0.0
 40
0.2500000000000019
 40
0.2500000000000019
 40
0.5000000000000039
 40
0.5000000000000039
 40
1.0
 40
1.0
 40
1.0
 40
1.0
 10
90.42569343065695
 20
78.52023409712999
 30
0.0
 10
90.42569343065695
 20
78.52023409712999
 30
0.0
 10
90.42569343065695
 20
78.53735118339584
 30
0.0
 10
90.42569343065695
 20
78.60208729487096
 30
0.0
 10
90.42569343065695
 20
78.64954453775127
 30
0.0
 10
90.42569343065695
 20
78.82636898029075
 30
0.0
 10
90.42569343065695
 20
78.98664548749646
 30
0.0
 10
90.42569343065695
 20
79.14687439278423
 30
0.0
  0
LINE
  5
2FF
330
1F
100
AcDbEntity
  8
0
  6
Continuous
 62
     7
370
    15
100
AcDbLine
 10
90.4256930432
 20
79.1468745549
 30
0.0
 11
90.4256930432
 21
82.3071519364
 31
0.0
  0
LINE
  5
300
330
1F
100
AcDbEntity
  8
0
  6
Continuous
 62
     7
370
    15
100
AcDbLine
 10
90.4256930432
 20
82.3071519364
 30
0.0
 11
87.0860820494
 21
82.3071519364
 31
0.0
  0
LINE
  5
301
330
1F
100
AcDbEntity
  8
0
  6
Continuous
 62
     7
370
    15
100
AcDbLine
 10
73.4256930507
 20
135.1071516503
 30
0.0
 11
73.4256930507
 21
138.5535927941
 31
0.0
  0
LINE
  5
302
330
1F
100
AcDbEntity
  8
0
  6
Continuous
 62
     7
370
    15
100
AcDbLine
 10
72.4256938181
 20
82.3071519364
 30
0.0
 11
72.4256938181
 21
79.1468745549
 31
0.0
  0
LINE
  5
303
330
1F
100
AcDbEntity
  8
0
  6
Continuous
 62
     7
370
    15
100
AcDbLine
 10
61.5756926916
 20
132.3881032397
 30
0.0
 11
61.5756926916
 21
128.5571525325
 31
0.0
  0
LINE
  5
304
330
1F
100
AcDbEntity
  8
0
  6
Continuous
 62
     7
370
    15
100
AcDbLine
 10
57.7447419844
 20
128.5571525325
 30
0.0
 11
61.5756926916
 21
128.5571525325
 31
0.0
  0
LINE
  5
305
330
1F
100
AcDbEntity
  8
0
  6
Continuous
 62
     7
370
    15
100
AcDbLine
 10
75.7653048119
 20
135.1071516503
 30
0.0
 11
73.4256930507
 21
135.1071516503
 31
0.0
  0
LINE
  5
306
330
1F
100
AcDbEntity
  8
0
  6
Continuous
 62
     7
370
    15
100
AcDbLine
 10
75.7653048119
 20
82.3071519364
 30
0.0
 11
72.4256938181
 21
82.3071519364
 31
0.0
  0
SPLINE
  5
307
330
1F
100
AcDbEntity
  8
0
  6
Continuous
 62
     7
370
    15
100
AcDbSpline
210
0.0
220
0.0
230
1.0
 70
     8
 71
     3
 72
    30
 73
    26
 74
     0
 42
0.00000001
 43
0.00000001
 40
0.0
 40
0.0
 40
0.0
 40
0.0
 40
0.1249999999999996
 40
0.1249999999999996
 40
0.1874999999999994
 40
0.1874999999999994
 40
0.2499999999999992
 40
0.2499999999999992
 40
0.3749999999999991
 40
0.3749999999999991
 40
0.4374999999999989
 40
0.4374999999999989
 40
0.4999999999999989
 40
0.4999999999999989
 40
0.6249999999999989
 40
0.6249999999999989
 40
0.6874999999999992
 40
0.6874999999999992
 40
0.7499999999999994
 40
0.7499999999999994
 40
0.8124999999999997
 40
0.8124999999999997
 40
0.8749999999999999
 40
0.8749999999999999
 40
1.0
 40
1.0
 40
1.0
 40
1.0
 10
82.425693430657
 20
77.22302881051479
 30
0.0
 10
82.9571113610576
 20
77.2399077285234
 30
0.0
 10
83.47877055863178
 20
77.26992529334811
 30
0.0
 10
84.24741234579079
 20
77.33273568262122
 30
0.0
 10
84.50130214495582
 20
77.35663958984811
 30
0.0
 10
85.00437492090191
 20
77.41007488229052
 30
0.0
 10
85.25383876911853
 20
77.43968175045806
 30
0.0
 10
85.9787496667154
 20
77.53413144917249
 30
0.0
 10
86.43662700360757
 20
77.60515884300172
 30
0.0
 10
87.08639422909043
 20
77.71917312970749
 30
0.0
 10
87.2977809325006
 20
77.75862838084807
 30
0.0
 10
87.70241474327075
 20
77.8381498236187
 30
0.0
 10
87.89515521477196
 20
77.8780859661195
 30
0.0
 10
88.4455860911489
 20
77.99702236894765
 30
0.0
 10
88.77576946842952
 20
78.07518713283152
 30
0.0
 10
89.21444528507995
 20
78.1848965731004
 30
0.0
 10
89.35024384356647
 20
78.21997740980879
 30
0.0
 10
89.59712087641265
 20
78.28521768918841
 30
0.0
 10
89.70889941374065
 20
78.31555250523317
 30
0.0
 10
89.90932960361425
 20
78.37089088445501
 30
0.0
 10
89.99798194681776
 20
78.3958955610151
 30
0.0
 10
90.15164949449887
 20
78.43977536990577
 30
0.0
 10
90.21689719875071
 20
78.45871905466808
 30
0.0
 10
90.37320225211498
 20
78.50443878193828
 30
0.0
 10
90.42569343065698
 20
78.52023409712997
 30
0.0
 10
90.42569343065698
 20
78.52023409712997
 30
0.0
  0
SPLINE
  5
308
330
1F
100
AcDbEntity
  8
0
  6
Continuous
 62
     7
370
    15
100
AcDbSpline
210
0.0
220
0.0
230
1.0
 70
     8
 71
     3
 72
    28
 73
    24
 74
     0
 42
0.00000001
 43
0.00000001
 40
0.0
 40
0.0
 40
0.0
 40
0.0
 40
0.1250000000000002
 40
0.1250000000000002
 40
0.1875000000000003
 40
0.1875000000000003
 40
0.2500000000000004
 40
0.2500000000000004
 40
0.3750000000000005
 40
0.3750000000000005
 40
0.4375000000000004
 40
0.4375000000000004
 40
0.5000000000000004
 40
0.5000000000000004
 40
0.6250000000000003
 40
0.6250000000000003
 40
0.75
 40
0.75
 40
0.8125
 40
0.8125
 40
0.875
 40
0.875
 40
1.0
 40
1.0
 40
1.0
 40
1.0
 10
72.42569343065698
 20
78.52023409712997
 30
0.0
 10
72.42569343065698
 20
78.52023409712997
 30
0.0
 10
72.4781697729752
 20
78.50444938317978
 30
0.0
 10
72.6319667205321
 20
78.45945396910355
 30
0.0
 10
72.69584169556612
 20
78.44089897402785
 30
0.0
 10
72.84933796422264
 20
78.39704625158136
 30
0.0
 10
72.93915293961633
 20
78.37170164462914
 30
0.0
 10
73.24113173466722
 20
78.28829956687902
 30
0.0
 10
73.48708516872296
 20
78.22243400772794
 30
0.0
 10
73.92245234815135
 20
78.11346366723615
 30
0.0
 10
74.07966753032369
 20
78.07522403146949
 30
0.0
 10
74.41183215086615
 20
77.99746529405014
 30
0.0
 10
74.58663941646904
 20
77.95796433187479
 30
0.0
 10
75.13669860705485
 20
77.83905658950879
 30
0.0
 10
75.53732199145033
 20
77.75923890808419
 30
0.0
 10
76.40990810279904
 20
77.60589574628813
 30
0.0
 10
76.8700435504006
 20
77.53456199301887
 30
0.0
 10
77.59000964436679
 20
77.44061848594424
 30
0.0
 10
77.8352833544013
 20
77.41142469258433
 30
0.0
 10
78.33673969083014
 20
77.35795811832091
 30
0.0
 10
78.59417106020267
 20
77.33359878404575
 30
0.0
 10
79.37011085606716
 20
77.27000863860101
 30
0.0
 10
79.8943392559732
 20
77.23990570351175
 30
0.0
 10
80.42569343065702
 20
77.22302881051482
 30
0.0
  0
SPLINE
  5
309
330
1F
100
AcDbEntity
  8
0
  6
Continuous
 62
     7
370
    15
100
AcDbSpline
210
0.0
220
0.0
230
1.0
 70
     8
 71
     3
 72
    14
 73
    10
 74
     0
 42
0.00000001
 43
0.00000001
 40
0.0
 40
0.0
 40
0.0
 40
0.0
 40
0.1564511884888992
 40
0.3129173025780869
 40
0.4692100408288959
 40
0.6255230219358794
 40
0.7850412281564954
 40
0.9445548701068671
 40
1.0
 40
1.0
 40
1.0
 40
1.0
 10
73.42569305067737
 20
139.1743472297356
 30
0.0
 10
73.44734262620905
 20
139.1801655886152
 30
0.0
 10
73.49064384266366
 20
139.1918028614516
 30
0.0
 10
73.82723178107517
 20
139.2779986120569
 30
0.0
 10
74.35761147643598
 20
139.406042749752
 30
0.0
 10
75.0804484529536
 20
139.5658502089402
 30
0.0
 10
75.99185867366845
 20
139.7378939120799
 30
0.0
 10
76.80458838945675
 20
139.8754789818805
 30
0.0
 10
77.34256672975806
 20
139.9377709456049
 30
0.0
 10
77.48132951995215
 20
139.9538381476567
 30
0.0
  0
SPLINE
  5
30A
330
1F
100
AcDbEntity
  8
0
  6
Continuous
 62
     7
370
    15
100
AcDbSpline
210
0.0
220
0.0
230
1.0
 70
     8
 71
     3
 72
    20
 73
    16
 74
     0
 42
0.00000001
 43
0.00000001
 40
0.0
 40
0.0
 40
0.0
 40
0.0
 40
0.2500000000000003
 40
0.2500000000000003
 40
0.3750000000000003
 40
0.3750000000000003
 40
0.5000000000000002
 40
0.5000000000000002
 40
0.6250000000000001
 40
0.6250000000000001
 40
0.7500000000000001
 40
0.7500000000000001
 40
0.875
 40
0.875
 40
1.0
 40
1.0
 40
1.0
 40
1.0
 10
56.96700376828957
 20
128.5571517933772
 30
0.0
 10
57.49766053612426
 20
129.2110142216746
 30
0.0
 10
58.03138853238578
 20
129.8148000036717
 30
0.0
 10
58.81436085037453
 20
130.6416387398403
 30
0.0
 10
59.0723444504712
 20
130.9040673777932
 30
0.0
 10
59.57673970687902
 20
131.4007300318981
 30
0.0
 10
59.81951812930703
 20
131.6313169109197
 30
0.0
 10
60.27019820882008
 20
132.0478711355023
 30
0.0
 10
60.47966207481136
 20
132.2353689374698
 30
0.0
 10
60.85795059139939
 20
132.5667659151062
 30
0.0
 10
61.02169827758389
 20
132.7062699026015
 30
0.0
 10
61.28988407978332
 20
132.9317234100724
 30
0.0
 10
61.39510848787005
 20
133.0183495216161
 30
0.0
 10
61.53916771318359
 20
133.1363303104702
 30
0.0
 10
61.57569343065697
 20
133.1658414557446
 30
0.0
 10
61.57569343065697
 20
133.1658414557446
 30
0.0
  0
ARC
  5
30B
330
1F
100
AcDbEntity
  8
0
  6
Continuous
 62
     7
370
    15
100
AcDbCircle
 10
81.4256934307
 20
108.7071517934
 30
0.0
 40
31.50000000000003
100
AcDbArc
 50
268.180780706
 51
271.819219294
  0
CIRCLE
  5
30C
330
1F
100
AcDbEntity
  8
VERMASSUNG
  6
CENTERX2
100
AcDbCircle
 10
81.4256934307
 20
113.586703789
 30
0.0
 40
40.00000000000001
  0
DIMENSION
  5
30D
330
1F
100
AcDbEntity
  8
VERMASSUNG
100
AcDbDimension
  2
*D6
 10
36.7094890511
 20
153.586703789
 30
0.0
 11
36.7094890511
 21
113.586703789
 31
0.0
 70
   160
  1
%%c<>
 71
     2
 42
-1.0
  3
SLDDIMSTYLE2
100
AcDbAlignedDimension
 13
81.4256934307
 23
73.586703789
 33
0.0
 14
81.4256934307
 24
153.586703789
 34
0.0
 50
90.0
100
AcDbRotatedDimension
  0
INSERT
  5
324
330
1F
100
AcDbEntity
  8
VERMASSUNG
100
AcDbBlockReference
  2
SW_CENTERMARKSYMBOL_0
 10
81.4256934307
 20
108.7071517934
 30
0.0
  0
OLE2FRAME
  5
325
330
1F
100
AcDbEntity
  8
0
100
AcDbOle2Frame
 70
     2
  3
Bitmap Image
 10
13.8511154363
 20
38.264191557
 30
0.0
 11
51.6290888628
 21
31.9806341108
 31
0.0
 71
     2
 72
     0
 73
     1
 90
    12928
310
80552BED0767C5B32B40DDAF6807D121434000000000000000006FFBDDFB85D0
310
4940DDAF6807D121434000000000000000006FFBDDFB85D04940416F4BD60AFB
310
3F4000000000000000002BED0767C5B32B40416F4BD60AFB3F40000000000000
310
0000000000000100000000010000010000000100000000000100000000320000
310
D0CF11E0A1B11AE1000000000000000000000000000000003E000300FEFF0900
310
0600000000000000000000000100000001000000000000000010000002000000
310
01000000FEFFFFFF0000000000000000FFFFFFFFFFFFFFFFFFFFFFFFFFFFFFFF
310
FFFFFFFFFFFFFFFFFFFFFFFFFFFFFFFFFFFFFFFFFFFFFFFFFFFFFFFFFFFFFFFF
310
FFFFFFFFFFFFFFFFFFFFFFFFFFFFFFFFFFFFFFFFFFFFFFFFFFFFFFFFFFFFFFFF
310
FFFFFFFFFFFFFFFFFFFFFFFFFFFFFFFFFFFFFFFFFFFFFFFFFFFFFFFFFFFFFFFF
310
FFFFFFFFFFFFFFFFFFFFFFFFFFFFFFFFFFFFFFFFFFFFFFFFFFFFFFFFFFFFFFFF
310
FFFFFFFFFFFFFFFFFFFFFFFFFFFFFFFFFFFFFFFFFFFFFFFFFFFFFFFFFFFFFFFF
310
FFFFFFFFFFFFFFFFFFFFFFFFFFFFFFFFFFFFFFFFFFFFFFFFFFFFFFFFFFFFFFFF
310
FFFFFFFFFFFFFFFFFFFFFFFFFFFFFFFFFFFFFFFFFFFFFFFFFFFFFFFFFFFFFFFF
310
FFFFFFFFFFFFFFFFFFFFFFFFFFFFFFFFFFFFFFFFFFFFFFFFFFFFFFFFFFFFFFFF
310
FFFFFFFFFFFFFFFFFFFFFFFFFFFFFFFFFFFFFFFFFFFFFFFFFFFFFFFFFFFFFFFF
310
FFFFFFFFFFFFFFFFFFFFFFFFFFFFFFFFFFFFFFFFFFFFFFFFFFFFFFFFFFFFFFFF
310
FFFFFFFFFFFFFFFFFFFFFFFFFFFFFFFFFFFFFFFFFFFFFFFFFFFFFFFFFFFFFFFF
310
FFFFFFFFFFFFFFFFFFFFFFFFFFFFFFFFFFFFFFFFFFFFFFFFFFFFFFFFFFFFFFFF
310
FFFFFFFFFFFFFFFFFFFFFFFFFFFFFFFFFFFFFFFFFFFFFFFFFFFFFFFFFFFFFFFF
310
FDFFFFFFFEFFFFFFFEFFFFFFFEFFFFFF05000000060000000700000008000000
310
090000000A0000000B0000000C0000000D0000000E0000000F00000010000000
310
11000000120000001300000014000000150000001600000017000000FEFFFFFF
310
FFFFFFFFFFFFFFFFFFFFFFFFFFFFFFFFFFFFFFFFFFFFFFFFFFFFFFFFFFFFFFFF
310
FFFFFFFFFFFFFFFFFFFFFFFFFFFFFFFFFFFFFFFFFFFFFFFFFFFFFFFFFFFFFFFF
310
FFFFFFFFFFFFFFFFFFFFFFFFFFFFFFFFFFFFFFFFFFFFFFFFFFFFFFFFFFFFFFFF
310
FFFFFFFFFFFFFFFFFFFFFFFFFFFFFFFFFFFFFFFFFFFFFFFFFFFFFFFFFFFFFFFF
310
FFFFFFFFFFFFFFFFFFFFFFFFFFFFFFFFFFFFFFFFFFFFFFFFFFFFFFFFFFFFFFFF
310
FFFFFFFFFFFFFFFFFFFFFFFFFFFFFFFFFFFFFFFFFFFFFFFFFFFFFFFFFFFFFFFF
310
FFFFFFFFFFFFFFFFFFFFFFFFFFFFFFFFFFFFFFFFFFFFFFFFFFFFFFFFFFFFFFFF
310
FFFFFFFFFFFFFFFFFFFFFFFFFFFFFFFFFFFFFFFFFFFFFFFFFFFFFFFFFFFFFFFF
310
FFFFFFFFFFFFFFFFFFFFFFFFFFFFFFFFFFFFFFFFFFFFFFFFFFFFFFFFFFFFFFFF
310
FFFFFFFFFFFFFFFFFFFFFFFFFFFFFFFFFFFFFFFFFFFFFFFFFFFFFFFFFFFFFFFF
310
FFFFFFFFFFFFFFFFFFFFFFFFFFFFFFFFFFFFFFFFFFFFFFFFFFFFFFFFFFFFFFFF
310
FFFFFFFFFFFFFFFFFFFFFFFFFFFFFFFFFFFFFFFFFFFFFFFFFFFFFFFFFFFFFFFF
310
FFFFFFFFFFFFFFFFFFFFFFFFFFFFFFFFFFFFFFFFFFFFFFFFFFFFFFFFFFFFFFFF
310
52006F006F007400200045006E00740072007900000000000000000000000000
310
0000000000000000000000000000000000000000000000000000000000000000
310
16000500FFFFFFFFFFFFFFFF020000000A00030000000000C000000000000046
310
000000000000000000000000A093D550BCB7CB0103000000C000000000000000
310
01004F006C006500000000000000000000000000000000000000000000000000
310
0000000000000000000000000000000000000000000000000000000000000000
310
0A000200FFFFFFFFFFFFFFFFFFFFFFFF00000000000000000000000000000000
310
0000000000000000000000000000000000000000000000001400000000000000
310
010043006F006D0070004F0062006A0000000000000000000000000000000000
310
0000000000000000000000000000000000000000000000000000000000000000
310
120002010100000003000000FFFFFFFF00000000000000000000000000000000
310
0000000000000000000000000000000000000000010000004D00000000000000
310
01004F006C006500310030004E00610074006900760065000000000000000000
310
0000000000000000000000000000000000000000000000000000000000000000
310
1A000200FFFFFFFFFFFFFFFFFFFFFFFF00000000000000000000000000000000
310
0000000000000000000000000000000000000000040000002426000000000000
310
FEFFFFFF02000000FEFFFFFFFFFFFFFFFFFFFFFFFFFFFFFFFFFFFFFFFFFFFFFF
310
FFFFFFFFFFFFFFFFFFFFFFFFFFFFFFFFFFFFFFFFFFFFFFFFFFFFFFFFFFFFFFFF
310
FFFFFFFFFFFFFFFFFFFFFFFFFFFFFFFFFFFFFFFFFFFFFFFFFFFFFFFFFFFFFFFF
310
FFFFFFFFFFFFFFFFFFFFFFFFFFFFFFFFFFFFFFFFFFFFFFFFFFFFFFFFFFFFFFFF
310
FFFFFFFFFFFFFFFFFFFFFFFFFFFFFFFFFFFFFFFFFFFFFFFFFFFFFFFFFFFFFFFF
310
FFFFFFFFFFFFFFFFFFFFFFFFFFFFFFFFFFFFFFFFFFFFFFFFFFFFFFFFFFFFFFFF
310
FFFFFFFFFFFFFFFFFFFFFFFFFFFFFFFFFFFFFFFFFFFFFFFFFFFFFFFFFFFFFFFF
310
FFFFFFFFFFFFFFFFFFFFFFFFFFFFFFFFFFFFFFFFFFFFFFFFFFFFFFFFFFFFFFFF
310
FFFFFFFFFFFFFFFFFFFFFFFFFFFFFFFFFFFFFFFFFFFFFFFFFFFFFFFFFFFFFFFF
310
FFFFFFFFFFFFFFFFFFFFFFFFFFFFFFFFFFFFFFFFFFFFFFFFFFFFFFFFFFFFFFFF
310
FFFFFFFFFFFFFFFFFFFFFFFFFFFFFFFFFFFFFFFFFFFFFFFFFFFFFFFFFFFFFFFF
310
FFFFFFFFFFFFFFFFFFFFFFFFFFFFFFFFFFFFFFFFFFFFFFFFFFFFFFFFFFFFFFFF
310
FFFFFFFFFFFFFFFFFFFFFFFFFFFFFFFFFFFFFFFFFFFFFFFFFFFFFFFFFFFFFFFF
310
FFFFFFFFFFFFFFFFFFFFFFFFFFFFFFFFFFFFFFFFFFFFFFFFFFFFFFFFFFFFFFFF
310
FFFFFFFFFFFFFFFFFFFFFFFFFFFFFFFFFFFFFFFFFFFFFFFFFFFFFFFFFFFFFFFF
310
FFFFFFFFFFFFFFFFFFFFFFFFFFFFFFFFFFFFFFFFFFFFFFFFFFFFFFFFFFFFFFFF
310
010000020000000000000000000000000000000061007200650064005C003100
310
30002E0030005C0044004C004C005300680061007200650064005C003B004300
310
0100FEFF030A0000FFFFFFFF0A00030000000000C00000000000004607000000
310
5042727573680007000000504272757368000700000050427275736800F439B2
310
71000000000000000000000000004100540049002E004100430045005C004300
310
6F00720065002D005300740061007400690063003B0043003A005C0050007200
310
6F006700720061006D002000460069006C006500730020002800780038003600
310
29005C0043006F006D006D006F006E002000460069006C00650073005C004100
310
750074006F006400650073006B0020005300680061007200650064005C003B00
310
43003A005C00500072006F006700720061006D002000460069006C0065007300
310
5C004E006F0072006D0061006E005C004E0070006D005C00420069006E000000
310
43003A005C00500072006F006700720061006D002000460069006C0065007300
310
5C0053006F006C006900640057006F0072006B007300200043006F0072007000
310
5C0053006F006C006900640057006F0072006B00730020002800320029005C00
310
730065007400750070005C0069003300380036005C0073007700610063007400
310
770069007A002E006500780065000000220043003A005C00500072006F006700
310
20260000424D0E260000000000003E00000028000000B40200006E0000000100
310
01000000000000000000130B0000130B00000200000002000000000000FFFFFF
310
FFFFFFFFFFFFFFFFFFFFFFFFFFFFFFFFFFFFFFFFFFFFFFFFFFFFFFFFFFFFFFFF
310
FFFFFFFFFFFFFFFFFFFFFFFFFFFFFFFFFFFFFFFFFFFFFFFFFFFFFFFFFFFFFFFF
310
FFFFFFFFFFFFFFFFFFFFFFFFFFFFFFFFFFFFFFFFFFFFFFFFF000FFFFFFFFFFFF
310
FFFFFFFFFFFFFFFFFFFFFFFFFFFFFFFFFFFFFFFFFFFFFFFFFFFFFFFFFFFFFFFF
310
FFFFFFFFFFFFFFFFFFFFFFFFFFFFFFFFFFFFFFFFFFFFFFFFFFFFFFFFFFFFFFFF
310
FFFFFFFFFFFFFFFFFFFFFFFFFFFFFFFFF000FFFFFFFFFFFFFFFFFFFFFFFFFFFF
310
FFFFFFFFFFFFFFFFFFFFFFFFFFFFFFFFFFFFFFFFFFFFFFFFFFFFFFFFFFFFFFFF
310
FFFFFFFFFFFFFFFFFFFFFFFFFFFFFFFFFFFFFFFFFFFFFFFFFFFFFFFFFFFFFFFF
310
FFFFFFFFFFFFFFFFF000FFFFFFFFFFFFFFFFFFFFFFFFFFFFFFFFFFFFFFFFFFFF
310
FFFFFFFFFFFFFFFFFFFFFFFFFFFFFFFFFFFFFFFFFFFFFFFFFFFFFFFFFFFFFFFF
310
FFFFFFFFFFFFFFFFFFFFFFFFFFFFFFFFFFFFFFFFFFFFFFFFFFFFFFFFFFFFFFFF
310
F000FFFFFFFFFFFFFFFFFFFFFFFFFFFFFFFFFFFFFFFFFFFFFFFFFFFFFFFFFFFF
310
FFFFFFFFFFFFFFFFFFFFFFFFFFFFFFFFFFFFFFFFFFFFFFFFFFFFFFFFFFFFFFFF
310
FFFFFFFFFFFFFFFFFFFFFFFFFFFFFFFFFFFFFFFFFFFFFFFFF000FFFFFFFFFFFF
310
FFFFFFFFFFFFFFFFFFFFFFFFFFFFFFFFFFFFFFFFFFFFFFFFFFFFFFFFFFFFFFFF
310
FFFFFFFFFFFFFFFFFFFFFFFFFFFFFFFFFFFFFFFFFFFFFFFFFFFFFFFFFFFFFFFF
310
FFFFFFFFFFFFFFFFFFFFFFFFFFFFFFFFF000FFFFFFFFFFFFFFFFFFFFFFFFFFFF
310
FFFFFFFFFFFFFFFFFFFFFFFFFFFFFFFFFFFFFFFFFFFFFFFFFFFFFFFFFFFFFFFF
310
FFFFFFFFFFFFFFFFFFFFFFFFFFFFFFFFFFFFFFFFFFFFFFFFFFFFFFFFFFFFFFFF
310
FFFFFFFFFFFFFFFFF000FFFFFFFFFFFFFFFFFFFFFFFFFFFFFFFFFFFFFFFFFFFF
310
FFFFFFFFFFFFFFFFFFFFFFFFFFFFFFFFFFFFFFFFFFFFFFFFFFFFFFFFFFFFFFFF
310
FFFFFFFFFFFFFFFFFFFFFFFFFFFFFFFFFFFFFFFFFFFFFFFFFFFFFFFFFFFFFFFF
310
F000FFFFFFFFFFFFFFFFFFFFFFFFFFFFFFFFFFFFFFFFFFFFFFFFFFFFFFFFFFFF
310
FFFFFFFFFFFFFFFFFFFFFFFFFFFFFFFFFFFFFFFFFFFFFFFFFFFFFFFFFFFFFFFF
310
FFFFFFFFFFFFFFFFFFFFFFFFFFFFFFFFFFFFFFFFFFFFFFFFF000FFFFFFFFFFFF
310
FFFFFFFFFFFFFFFFFFFFFFFFFFFFFFFFFFFFFFFFFFFFFFFFFFFFFFFFFFFFFFFF
310
FFFFFFFFFFFFFFFFFFFFFFFFFFFFFFFFFFFFFFFFFFFFFFFFFFFFFFFFFFFFFFFF
310
FFFFFFFFFFFFFFFFFFFFFFFFFFFFFFFFF000FFFFFFFFFFFFFFFFFFFFFFFFFFFF
310
FFFFFFFFFFFFFFFFFFFFFFFFFFFFFFFFFFFFFFFFFFFFFFFFFFFFFFFFFFFFFFFF
310
FFFFFFFFFFFFFFFFFFFFFFFFFFFFFFFFFFFFFFFFFFFFFFFFFFFFFFFFFFFFFFFF
310
FFFFFFFFFFFFFFFFF000FFFFFFFFFFFFFFFFFFFFFFFFFFFFFFFFFFFFFFFFFFFF
310
FFFFFFFFFFFFFFFFFFFFFFFFFFFFFFFFFFFFFFFFFFFFFFFFFFFFFFFFFFFFFFFF
310
FFFFFFFFFFFFFFFFFFFFFFFFFFFFFFFFFFFFFFFFFFFFFFFFFFFFFFFFFFFFFFFF
310
F000FFFFFFFFFFFFFFFFFFFFFFFFFFFFFFFFFFFFFFFFFFFFFFFFFFFFFFFFFFFF
310
FFFFFFFFFFFFFFFFFFFFFFFFFFFFFFFFFFFFFFFFFFFFFFFFFFFFFFFFFFFFFFFF
310
FFFFFFFFFFFFFFFFFFFFFFFFFFFFFFFFFFFFFFFFFFFFFFFFF000FFFFFFFFFFFF
310
FFFFFFFFFFFFFFFFFFFFFFFFFFFFFFFFFFFFFFFFFFFFFFFFFFFFFFFFFFFFFFFF
310
FFFFFFFFFFFFFFFFFFFFFFFFFFFFFFFFFFFFFFFFFFFFFFFFFFFFFFFFFFFFFFFF
310
FFFFFFFFFFFFFFFFFFFFFFFFFFFFFFFFF000FFFFFFFFFFFFFFFFFFFFFFFFFFFF
310
FFFFFFFFFFFFFFFFFFFFFFFFFFFFFFFFFFFFFFFFFFFFFFFFFFFFFFFFFFFFFFFF
310
FFFFFFFFFFFFFFFFFFFFFFFFFFFFFFFFFFFFFFFFFFFFFFFFFFFFFFFFFFFFFFFF
310
FFFFFFFFFFFFFFFFF000FFFFFFFFFFFFFFFFFFFFFFFFFFFFFFFFFFFFFFFFFFFF
310
FFFFFFFFFFFFFFFFFFFFFFFFFFFFFFFFFFFFFFFFFFFFFFFFFFFFFFFFFFFFFFFF
310
FFFFFFFFFFFFFFFFFFFFFFFFFFFFFFFFFFFFFFFFFFFFFFFFFFFFFFFFFFFFFFFF
310
F000FFFFFFFFFFFFFFFFFFFFFFFFFFFFFFFFFFFFFFFFFFFFFFFFFFFFFFFFFFFF
310
FFFFFFFFFFFFFFFFFFFFFFFFFFFFFFFFFFFFFFFFFFFFFFFFFFFFFFFFFFFFFFFF
310
FFFFFFFFFFFFFFFFFFFFFFFFFFFFFFFFFFFFFFFFFFFFFFFFF000FFFFFFFFFFFF
310
FFFFFFFFFFFFFFFFFFFFFFFFFFFFFFFFFFFFFFFFFFFFFFFFFFFFFFFFFFFFFFFF
310
FFFFFFFFFFFFFFFFFFFFFFFFFFFFFFFFFFFFFFFFFFFFFFFFFFFFFFFFFFFFFFFF
310
FFFFFFFFFFFFFFFFFFFFFFFFFFFFFFFFF000FFFFFFFFFFFFFFFFFFFFFFFFFFFF
310
FFFFFFFFFFFFFFFFFFFFFFFFFFFFFFFFFFFFFFFFFFFFFFFFFFFFFFFFFFFFFFFF
310
FFFFFFFFFFFFFFFFFFFFFFFFFFFFFFFFFFFFFFFFFFFFFFFFFFFFFFFFFFFFFFFF
310
FFFFFFFFFFFFFFFFF000FFFFF80003FFFFFFFFFFFFFFFFFFFFFFFFFFFFFFFFFF
310
FFFFF00007FFFFFFFFFF00007FFFFFF800000000000000007FFFFFFFFFFFFFFF
310
FFFFFFFC001FFFFFFFFFFFFFFC001FFFFFFFFFFFFFFFFFFFFFFFFFFE0007FFFF
310
F000FFFF8000007FFFFFFFF8000FFFFFC0007FFFFF80007FFFFF0000007FFFFF
310
FFF8000007FFFFF800000000000000007FFFFFF0001FFFFFFFFFFFC00001FFFF
310
FFFFFFFFC00001FFFFFFFF000000000003FFFFE000007FFFF000FFFE0000000F
310
FFFFFFF0000FFFFF80007FFFFF80007FFFFC0000001FFFFFFFC0000001FFFFF8
310
00000000000000007FFFFFF0001FFFFFFFFFFE0000003FFFFFFFFFFE0000003F
310
FFFFFF000000000003FFFF0000000FFFF000FFF800000003FFFFFFF00007FFFF
310
80007FFFFF80007FFFF000000007FFFFFF000000003FFFF80000000000000000
310
7FFFFFF0001FFFFFFFFFF80000000FFFFFFFFFF80000000FFFFFFF0000000000
310
03FFFC00000003FFF000FFE000000000FFFFFFF00007FFFF80003FFFFF80007F
310
FFC000000001FFFFFC000000001FFFF800000000000000007FFFFFF0001FFFFF
310
FFFFE000000003FFFFFFFFE000000003FFFFFF000000000003FFF000000000FF
310
F000FF80000000007FFFFFF00007FFFF80003FFFFF80007FFF8000000000FFFF
310
F80000000007FFF800000000000000007FFFFFF0001FFFFFFFFFC000000001FF
310
FFFFFFC000000001FFFFFF000000000003FFC0000000007FF000FF0000000000
310
3FFFFFE00007FFFF00003FFFFF80007FFE00000000003FFFF00000000003FFF8
310
00000000000000007FFFFFF0001FFFFFFFFF8000000000FFFFFFFF8000000000
310
FFFFFF000000000003FF80000000003FF000FE00000000001FFFFFE00003FFFF
310
00003FFFFF80007FFC00000000001FFFE00000000001FFF8000001FFFE000000
310
7FFFFFF0001FFFFFFFFE00000000003FFFFFFE00000000003FFFFF0000000000
310
03FF00000000001FF000FC00000000000FFFFFE00003FFFF00001FFFFF80007F
310
F800000000001FFFC00000000000FFF8000001FFFE0000007FFFFFF0001FFFFF
310
FFFC00000000001FFFFFFC00000000001FFFFF000000000003FE00000000000F
310
F000F8000000000007FFFFE00003FFFF00001FFFFF80007FF800000000000FFF
310
800000000000FFF8000001FFFE0000007FFFFFF0001FFFFFFFF800000000000F
310
FFFFF800000000000FFFFF000000000003FC000000000007F000F80000000000
310
03FFFFC00003FFFE00001FFFFF80007FF0000000000007FF0000000000007FF8
310
000001FFFE0000007FFFFFF0001FFFFFFFF0000000000007FFFFF00000000000
310
07FFFF000000000003F8000000000003F000F0000000000003FFFFC00001FFFE
310
00001FFFFF80007FE0000000000007FE0000000000003FF8000001FFFE000000
310
7FFFFFF0001FFFFFFFF0000000000007FFFFF0000000000007FFFF0000000000
310
03F800001F800003F000E00001FFF00001FFFFC00001FFFE00000FFFFF80007F
310
E00001FFE00003FE00001FFF00003FF8000001FFFE0000007FFFFFF0001FFFFF
310
FFE000003E000003FFFFE000003E000003FFFF000000000003F00001FFF80001
310
F000E00007FFFC0001FFFFC00001FFFE00000FFFFF80007FC0000FFFFC0003FC
310
0000FFFFC0001FF8000001FFFE0000007FFFFFF0001FFFFFFFC00003FFE00001
310
FFFFC00003FFE00001FFFF0001FFFFFFFFF00007FFFE0001F000E0000FFFFF00
310
00FFFF800001FFFC00000FFFFF80007FC0001FFFFE0001FC0001FFFFE0001FF8
310
000001FFFE0000007FFFFFF0001FFFFFFF80000FFFF80000FFFF80000FFFF800
310
00FFFF0003FFFFFFFFE0000FFFFF8000F000C0003FFFFF8000FFFF800000FFFC
310
000007FFFF80007F80003FFFFF0001FC0003FFFFF0001FF8000001FFFE000000
310
7FFFFFF0001FFFFFFF80003FFFFE0000FFFF80003FFFFE0000FFFF0003FFFFFF
310
FFE0003FFFFF8000F000C0003FFFFF8000FFFF800000FFFC000007FFFF80007F
310
80007FFFFF8001F80007FFFFF8000FF8000001FFFE0000007FFFFFF0001FFFFF
310
FF00007FFFFF00007FFF00007FFFFF00007FFF0003FFFFFFFFE0003FFFFFC000
310
F000C0007FFFFFC000FFFF000000FFFC000007FFFF80007F8000FFFFFF8000F8
310
000FFFFFF8000FF8000001FFFE0000007FFFFFF0001FFFFFFF0000FFFFFF8000
310
7FFF0000FFFFFF80007FFF0003FFFFFFFFC0007FFFFFC00070008000FFFFFFC0
310
00FFFF000000FFF8000007FFFF80007F8000FFFFFF8000F8000FFFFFF8000FF8
310
000001FFFE0000007FFFFFF0001FFFFFFE0001FFFFFFC0003FFE0001FFFFFFC0
310
003FFF0003FFFFFFFFC0007FFFFFE00070008000FFFFFFC0007FFF0000007FF8
310
000003FFFF80007F0001FFFFFF8000F8000FFFFFF8000FF8000001FFFE000000
310
7FFFFFF0001FFFFFFE0001FFFFFFC0003FFE0001FFFFFFC0003FFF0003FFFFFF
310
FFC000FFFFFFE00070008000FFFFFFC0007FFF0000007FF8000003FFFF80007F
310
0001FFFFFF8000F8001FFFFFF8000FF8000001FFFE0000007FFFFFF0001FFFFF
310
FE0003FFFFFFE0003FFE0003FFFFFFE0003FFF0003FFFFFFFFC000FFFFFFE000
310
70008000FFFFFFC0007FFE0000007FF8000003FFFF80007F0001FFFFFF8000F0
310
001FFFFFF8000FF8000001FFFE0000007FFFFFF0001FFFFFFC0003FFFFFFE000
310
1FFC0003FFFFFFE0001FFF0003FFFFFFFFC000FFFFFFC00070008000FFFFFF80
310
007FFE0000007FF0000003FFFF80007F0001FFFFFF0000F0001FFFFFF8000FF8
310
000001FFFE0000007FFFFFF0001FFFFFFC0007FFFFFFF0001FFC0007FFFFFFF0
310
001FFF0003FFFFFFFFC000FFFFFFC00070008001FFFFFF0000FFFE0000003FF0
310
000001FFFF80007F0001FFFFFF0000F8001FFFFFF0000FF8000001FFFE000000
310
7FFFFFF0001FFFFFFC0007FFFFFFF0001FFC0007FFFFFFF0001FFF0003FFFFFF
310
FFC001FFFFFF80007000FFFFFFFFFE0000FFFE0008003FF0008001FFFF80007F
310
FFFFFFFFFC0000FFFFFFFFFFE0000FF8000001FFFE0000007FFFFFF0001FFFFF
310
F8000FFFFFFFF8000FF8000FFFFFFFF8000FFF0003FFFFFFFFFFFFFFFFFF0000
310
7000FFFFFFFFFC0000FFFC0008003FF0008001FFFF80007FFFFFFFFFF80001FF
310
FFFFFFFF80000FF8000001FFFE0000007FFFFFF0001FFFFFF8000FFFFFFFF800
310
0FF8000FFFFFFFF8000FFF0003FFFFFFFFFFFFFFFFFE0000F000FFFFFFFFE000
310
00FFFC000C003FE000C001FFFF80007FFFFFFFFFC00001FFFFFFFFFE00001FF8
310
000001FFFE0000007FFFFFF0001FFFFFF8000FFFFFFFF8000FF8000FFFFFFFF8
310
000FFF0003FFFFFFFFFFFFFFFFF00000F000FFFFFFFE000001FFFC000C001FE0
310
00C000FFFF80007FFFFFFFFE000001FFFFFFFFE000001FF80FFFFFFFFFFFFFC0
310
7FFFFFF0001FFFFFF8000FFFFFFFF8000FF8000FFFFFFFF8000FFF0003FFFFFF
310
FFFFFFFFFF800000F000FFFFFFC0000001FFFC001C001FE001C000FFFF80007F
310
FFFFFF80000003FFFFFFF80000001FF80FFFFFFFFFFFFFC07FFFFFF0001FFFFF
310
F8001FFFFFFFFC000FF8001FFFFFFFFC000FFF0003FFFFFFFFFFFFFFF0000001
310
F000FFFFF800000001FFF8001C001FE001C000FFFF80007FFFFFF800000003FF
310
FFFF800000003FF80FFFFFFFFFFFFFC07FFFFFF0001FFFFFF8001FFFFFFFFC00
310
0FF8001FFFFFFFFC000FFF0003FFFFFFFFFFFFFE00000001F000FFFFC0000000
310
03FFF8001E001FC001E000FFFF80007FFFFF8000000007FFFFFC000000003FF8
310
0FFFFFFFFFFFFFC07FFFFFF0001FFFFFF8001FFFFFFFFC000FF8001FFFFFFFFC
310
000FFF0003FFFFFFFFFFFFE000000003F000FFFE0000000007FFF8001E000FC0
310
01E0007FFF80007FFFFE0000000007FFFFE0000000007FF80FFFFFFFFFFFFFC0
310
7FFFFFF0001FFFFFF0001FFFFFFFFC0007F0001FFFFFFFFC0007FF0003FFFFFF
310
FFFFFF0000000003F000FFF80000000007FFF8001E000FC003E0007FFF80007F
310
FFF0000000000FFFFF8000000000FFF80FFFFFFFFFFFFFC07FFFFFF0001FFFFF
310
F0001FFFFFFFFC0007F0001FFFFFFFFC0007FF0003FFFFFFFFFFFC0000000007
310
F000FFE0000000000FFFF0003E000FC003E0007FFF80007FFFC0000000001FFF
310
FE0000000001FFF80FFFFFFFFFFFFFC07FFFFFF0001FFFFFF0001FFFFFFFFC00
310
07F0001FFFFFFFFC0007FF0003FFFFFFFFFFF0000000000FF000FFC000000000
310
1FFFF0003F000F8003F0003FFF80007FFF80000000003FFFF80000000003FFF8
310
0FFFFFFFFFFFFFC07FFFFFF0001FFFFFF0001FFFFFFFFC0007F0001FFFFFFFFC
310
0007FF0003FFFFFFFFFFE0000000001FF000FF00000000007FFFF0003F000780
310
03F0003FFF80007FFF00000000007FFFF00000000007FFF80FFFFFFFFFFFFFC0
310
7FFFFFF0001FFFFFF0001FFFFFFFFC0007F0001FFFFFFFFC0007FF0003FFFFFF
310
FFFF80000000007FF000FE0000000000FFFFE0003F00078007F0003FFF80007F
310
FE0000000001FFFFE0000000001FFFF80FFFFFFFFFFFFFC07FFFFFF0001FFFFF
310
F0001FFFFFFFFC0007F0001FFFFFFFFC0007FF0003FFFFFFFFFF0000000000FF
310
F000FC0000000003FFFFE0007F00078007F0003FFF80007FFC0000000007FFFF
310
C0000000007FFFF80FFFFFFFFFFFFFC07FFFFFF0001FFFFFF8001FFFFFFFFC00
310
0FF8001FFFFFFFFC000FFF0003FFFFFFFFFE0000000003FFF000FC000000000F
310
FFFFE0007F80070007F8001FFF80007FF8000000001FFFFF8000000001FFFFF8
310
0FFFFFFFFFFFFFC07FFFFFF0001FFFFFF8001FFFFFFFFC000FF8001FFFFFFFFC
310
000FFF0003FFFFFFFFFC000000000FFFF000F8000000007FFFFFE0007F800700
310
07F8001FFF80007FF000000000FFFFFF800000000FFFFFF80FFFFFFFFFFFFFC0
310
7FFFFFF0001FFFFFF8000FFFFFFFF8000FF8000FFFFFFFF8000FFF0003FFFFFF
310
FFFC000000007FFFF000F800000007FFFFFFC0007F8003000FF8001FFF80007F
310
F000000007FFFFFF000000007FFFFFF80FFFFFFFFFFFFFC07FFFFFF0001FFFFF
310
F8000FFFFFFFF8000FF8000FFFFFFFF8000FFF0003FFFFFFFFF80000000FFFFF
310
F000F0000000FFFFFFFFC000FF8003000FF8001FFF80007FE0000000FFFFFFFF
310
0000000FFFFFFFF8000001FFFE0000007FFFFFF0001FFFFFF8000FFFFFFFF800
310
0FF8000FFFFFFFF8000FFF0003FFFFFFFFF8000000FFFFFFF000F000000FFFFF
310
FFFFC000FFC002000FF8000FFF80007FE000001FFFFFFFFE000001FFFFFFFFF8
310
000001FFFE0000007FFFFFF0001FFFFFF8000FFFFFFFF8000FF8000FFFFFFFF8
310
000FFF0003FFFFFFFFF000001FFFFFFFF000E00000FFFFFFFFFFC000FFC00200
310
0FFC000FFF80007FE00001FFFFFFFFFE00001FFFFFFFFFF8000001FFFE000000
310
7FFFFFF0001FFFFFFC000FFFFFFFF8001FFC000FFFFFFFF8001FFF0003FFFFFF
310
FFF00001FFFFFFFFF000E00007FFFFFFFFFF8000FFC000001FFC000FFF80007F
310
C0000FFFFFFFFFFE0000FFFFFFFFFFF8000001FFFE0000007FFFFFF0001FFFFF
310
FC0007FFFFFFF0001FFC0007FFFFFFF0001FFF0003FFFFFFFFF00007FFFFFFFF
310
F000E0001FFFFFFFFFFF8000FFC000001FFC000FFF80007FC0003FFFFFFFFFFE
310
0001FFFFFFFFFFF8000001FFFE0000007FFFFFF0001FFFFFFC0007FFFFFFF000
310
1FFC0007FFFFFFF0001FFF0003FFFFFFFFF0001FFFFFFFFFF000E0003FFFFF00
310
03FF8001FFE000001FFC0007FF80007FC0007FFFFF0007FC0003FFFFF0003FF8
310
000001FFFE0000007FFFFFF0001FFFFFFC0003FFFFFFE0001FFC0003FFFFFFE0
310
001FFF0003FFFFFFFFF0003FFFFFFFFFF000E0003FFFFF0001FF8001FFE00000
310
1FFE0007FF80007FC0007FFFFE0003FC0007FFFFE0003FF8000001FFFE000000
310
7FFFFFF0001FFFFFFE0003FFFFFFE0003FFE0003FFFFFFE0003FFF0003FFFFFF
310
FFF0003FFFFF8001F000E0003FFFFF0001FF0001FFE000001FFE0007FF80007F
310
C0007FFFFE0003FC0007FFFFE0003FF8000001FFFE0000007FFFFFF0001FFFFF
310
FE0001FFFFFFC0003FFE0001FFFFFFC0003FFF0003FFFFFFFFF0003FFFFF0001
310
F000E0003FFFFF0003FF0001FFE000003FFE0007FF80007FC0007FFFFE0003FC
310
0007FFFFE0003FF8000001FFFE0000007FFFFFF0001FFFFFFF0001FFFFFFC000
310
7FFF0001FFFFFFC0007FFF0003FFFFFFFFF0003FFFFF0001F000E0003FFFFE00
310
03FF0003FFF000003FFE0003FF80007FC0007FFFFC0003FE0007FFFFE0003FF8
310
000001FFFE0000007FFFFFF0001FFFFFFF0000FFFFFF80007FFF0000FFFFFF80
310
007FFF0003FFFFFFFFF0003FFFFF0001F000E0003FFFFE0003FF0003FFF00000
310
3FFF0003FF80007FC0007FFFFC0007FE0007FFFFC0003FF8000001FFFE000000
310
7FFFFFF0001FFFFFFF80007FFFFF0000FFFF80007FFFFF0000FFFF0003FFFFFF
310
FFF0003FFFFF0003F000E0003FFFFC0003FE0003FFF000003FFF0003FF80007F
310
E0003FFFF80007FE0003FFFFC0007FF8000001FFFE0000007FFFFFF0001FFFFF
310
FF80003FFFFE0000FFFF80003FFFFE0000FFFF0003FFFFFFFFF0001FFFFE0003
310
F000F0001FFFF80003FE0003FFF000007FFF0001FF80007FE0003FFFF00007FE
310
0001FFFF80007FF8000001FFFE0000007FFFFFF0001FFFFFFFC0000FFFF80001
310
FFFFC0000FFFF80001FFFF0003FFFFFFFFF0001FFFFC0003F000F0000FFFF000
310
07FE0007FFF800007FFF0001FF80007FE0001FFFE00007FF0000FFFE00007FF8
310
000001FFFE0000007FFFFFF0001FFFFFFFC00003FFE00001FFFFC00003FFE000
310
01FFFF0003FFFFFFFFF8000FFFF80003F000F00003FFC00007FC0007FFF80000
310
7FFF8001FF80007FF00007FF80000FFF00007FF80000FFF8000001FFFE000000
310
7F80000000000001FFE000003E000003FFFFE000003E000003FFFF0003FFFFFF
310
FFF80003FFE00007F000F800000000000FFC0007FFF800007FFF8001FF80007F
310
F000000000000FFF000000000000FFF8000001FFFE0000007F80000000000001
310
FFF0000000000007FFFFF0000000000007FFFF0003FFFFFFFFFC00007E000007
310
F000F800000000000FFC0007FFF80000FFFF8000FF80007FF800000000001FFF
310
800000000001FFF8000001FFFE0000007F80000000000001FFF800000000000F
310
FFFFF800000000000FFFFF0003FFFFFFFFFC00000000000FF000FC0000000000
310
1FFC0007FFFC0000FFFF8000FF80007FF800000000003FFFC00000000001FFF8
310
000001FFFE0000007F80000000000001FFF800000000000FFFFFF80000000000
310
0FFFFF0003FFFFFFFFFE00000000001FF000FE00000000003FF8000FFFFC0000
310
FFFF8000FF80007FFC00000000003FFFC00000000003FFF8000001FFFE000000
310
7F80000000000001FFFC00000000001FFFFFFC00000000001FFFFF0003FFFFFF
310
FFFF00000000001FF000FF00000000003FF8000FFFFC0000FFFFC000FF80007F
310
FE00000000007FFFE00000000007FFF8000001FFFE0000007F80000000000001
310
FFFE00000000003FFFFFFE00000000003FFFFF0003FFFFFFFFFF80000000003F
310
F000FF80000000007FF8000FFFFC0001FFFFC0007F80007FFF0000000000FFFF
310
F0000000000FFFF800000000000000007F80000000000001FFFF8000000000FF
310
FFFFFF8000000000FFFFFF0003FFFFFFFFFFC0000000007FF000FFC000000000
310
FFF8000FFFFE0001FFFFC0007F80007FFF8000000001FFFFF8000000001FFFF8
310
00000000000000007F80000000000001FFFFC000000001FFFFFFFFC000000001
310
FFFFFF0003FFFFFFFFFFE000000000FFF000FFE000000003FFF0001FFFFE0001
310
FFFFC0007F80007FFFC000000007FFFFFE000000003FFFF80000000000000000
310
7F80000000000001FFFFE000000003FFFFFFFFE000000003FFFFFF0003FFFFFF
310
FFFFF000000003FFF000FFF80000000FFFF0001FFFFE0001FFFFE0007F80007F
310
FFF00000000FFFFFFF00000000FFFFF800000000000000007F80000000000001
310
FFFFF80000000FFFFFFFFFF80000000FFFFFFF0003FFFFFFFFFFFC0000000FFF
310
F000FFFE0000003FFFF0001FFFFE0003FFFFE0003F80007FFFFC0000003FFFFF
310
FFC0000003FFFFF800000000000000007F80000000000001FFFFFE0000003FFF
310
FFFFFFFE0000003FFFFFFF0003FFFFFFFFFFFF0000003FFFF000FFFF800000FF
310
FFF0001FFFFF0003FFFFE0003F80007FFFFF000001FFFFFFFFF800001FFFFFF8
310
00000000000000007F80000000000001FFFFFFC00001FFFFFFFFFFFFC00001FF
310
FFFFFF0003FFFFFFFFFFFFC00000FFFFF000FFFFF8000FFFFFFFFFFFFFFFFFFF
310
FFFFFFFFFFFFFFFFFFFFF0001FFFFFFFFFFF0000FFFFFFF80000000000000000
310
7FFFFFFFFFFFFFFFFFFFFFFC001FFFFFFFFFFFFFFC001FFFFFFFFFFFFFFFFFFF
310
FFFFFFFC001FFFFFF000FFFFFFFFFFFFFFFFFFFFFFFFFFFFFFFFFFFFFFFFFFFF
310
FFFFFFFFFFFFFFFFFFFFFFFFFFFFFFFFFFFFFFFFFFFFFFFFFFFFFFFFFFFFFFFF
310
FFFFFFFFFFFFFFFFFFFFFFFFFFFFFFFFFFFFFFFFFFFFFFFFFFFFFFFFFFFFFFFF
310
F000FFFFFFFFFFFFFFFFFFFFFFFFFFFFFFFFFFFFFFFFFFFFFFFFFFFFFFFFFFFF
310
FFFFFFFFFFFFFFFFFFFFFFFFFFFFFFFFFFFFFFFFFFFFFFFFFFFFFFFFFFFFFFFF
310
FFFFFFFFFFFFFFFFFFFFFFFFFFFFFFFFFFFFFFFFFFFFFFFFF000FFFFFFFFFFFF
310
FFFFFFFFFFFFFFFFFFFFFFFFFFFFFFFFFFFFFFFFFFFFFFFFFFFFFFFFFFFFFFFF
310
FFFFFFFFFFFFFFFFFFFFFFFFFFFFFFFFFFFFFFFFFFFFFFFFFFFFFFFFFFFFFFFF
310
FFFFFFFFFFFFFFFFFFFFFFFFFFFFFFFFF000FFFFFFFFFFFFFFFFFFFFFFFFFFFF
310
FFFFFFFFFFFFFFFFFFFFFFFFFFFFFFFFFFFFFFFFFFFFFFFFFFFFFFFFFFFFFFFF
310
FFFFFFFFFFFFFFFFFFFFFFFFFFFFFFFFFFFFFFFFFFFFFFFFFFFFFFFFFFFFFFFF
310
FFFFFFFFFFFFFFFFF000FFFFFFFFFFFFFFFFFFFFFFFFFFFFFFFFFFFFFFFFFFFF
310
FFFFFFFFFFFFFFFFFFFFFFFFFFFFFFFFFFFFFFFFFFFFFFFFFFFFFFFFFFFFFFFF
310
FFFFFFFFFFFFFFFFFFFFFFFFFFFFFFFFFFFFFFFFFFFFFFFFFFFFFFFFFFFFFFFF
310
F000FFFFFFFFFFFFFFFFFFFFFFFFFFFFFFFFFFFFFFFFFFFFFFFFFFFFFFFFFFFF
310
FFFFFFFFFFFFFFFFFFFFFFFFFFFFFFFFFFFFFFFFFFFFFFFFFFFFFFFFFFFFFFFF
310
FFFFFFFFFFFFFFFFFFFFFFFFFFFFFFFFFFFFFFFFFFFFFFFFF000FFFFFFFFFFFF
310
FFFFFFFFFFFFFFFFFFFFFFFFFFFFFFFFFFFFFFFFFFFFFFFFFFFFFFFFFFFFFFFF
310
FFFFFFFFFFFFFFFFFFFFFFFFFFFFFFFFFFFFFFFFFFFFFFFFFFFFFFFFFFFFFFFF
310
FFFFFFFFFFFFFFFFFFFFFFFFFFFFFFFFF000FFFFFFFFFFFFFFFFFFFFFFFFFFFF
310
FFFFFFFFFFFFFFFFFFFFFFFFFFFFFFFFFFFFFFFFFFFFFFFFFFFFFFFFFFFFFFFF
310
FFFFFFFFFFFFFFFFFFFFFFFFFFFFFFFFFFFFFFFFFFFFFFFFFFFFFFFFFFFFFFFF
310
FFFFFFFFFFFFFFFFF000FFFFFFFFFFFFFFFFFFFFFFFFFFFFFFFFFFFFFFFFFFFF
310
FFFFFFFFFFFFFFFFFFFFFFFFFFFFFFFFFFFFFFFFFFFFFFFFFFFFFFFFFFFFFFFF
310
FFFFFFFFFFFFFFFFFFFFFFFFFFFFFFFFFFFFFFFFFFFFFFFFFFFFFFFFFFFFFFFF
310
F000FFFFFFFFFFFFFFFFFFFFFFFFFFFFFFFFFFFFFFFFFFFFFFFFFFFFFFFFFFFF
310
FFFFFFFFFFFFFFFFFFFFFFFFFFFFFFFFFFFFFFFFFFFFFFFFFFFFFFFFFFFFFFFF
310
FFFFFFFFFFFFFFFFFFFFFFFFFFFFFFFFFFFFFFFFFFFFFFFFF000FFFFFFFFFFFF
310
FFFFFFFFFFFFFFFFFFFFFFFFFFFFFFFFFFFFFFFFFFFFFFFFFFFFFFFFFFFFFFFF
310
FFFFFFFFFFFFFFFFFFFFFFFFFFFFFFFFFFFFFFFFFFFFFFFFFFFFFFFFFFFFFFFF
310
FFFFFFFFFFFFFFFFFFFFFFFFFFFFFFFFF000FFFFFFFFFFFFFFFFFFFFFFFFFFFF
310
FFFFFFFFFFFFFFFFFFFFFFFFFFFFFFFFFFFFFFFFFFFFFFFFFFFFFFFFFFFFFFFF
310
FFFFFFFFFFFFFFFFFFFFFFFFFFFFFFFFFFFFFFFFFFFFFFFFFFFFFFFFFFFFFFFF
310
FFFFFFFFFFFFFFFFF000FFFFFFFFFFFFFFFFFFFFFFFFFFFFFFFFFFFFFFFFFFFF
310
FFFFFFFFFFFFFFFFFFFFFFFFFFFFFFFFFFFFFFFFFFFFFFFFFFFFFFFFFFFFFFFF
310
FFFFFFFFFFFFFFFFFFFFFFFFFFFFFFFFFFFFFFFFFFFFFFFFFFFFFFFFFFFFFFFF
310
F000FFFFFFFFFFFFFFFFFFFFFFFFFFFFFFFFFFFFFFFFFFFFFFFFFFFFFFFFFFFF
310
FFFFFFFFFFFFFFFFFFFFFFFFFFFFFFFFFFFFFFFFFFFFFFFFFFFFFFFFFFFFFFFF
310
FFFFFFFFFFFFFFFFFFFFFFFFFFFFFFFFFFFFFFFFFFFFFFFFF000FFFFFFFFFFFF
310
FFFFFFFFFFFFFFFFFFFFFFFFFFFFFFFFFFFFFFFFFFFFFFFFFFFFFFFFFFFFFFFF
310
FFFFFFFFFFFFFFFFFFFFFFFFFFFFFFFFFFFFFFFFFFFFFFFFFFFFFFFFFFFFFFFF
310
FFFFFFFFFFFFFFFFFFFFFFFFFFFFFFFFF000FFFFFFFFFFFFFFFFFFFFFFFFFFFF
310
FFFFFFFFFFFFFFFFFFFFFFFFFFFFFFFFFFFFFFFFFFFFFFFFFFFFFFFFFFFFFFFF
310
FFFFFFFFFFFFFFFFFFFFFFFFFFFFFFFFFFFFFFFFFFFFFFFFFFFFFFFFFFFFFFFF
310
FFFFFFFFFFFFFFFFF000FFFFFFFFFFFFFFFFFFFFFFFFFFFFFFFFFFFFFFFFFFFF
310
FFFFFFFFFFFFFFFFFFFFFFFFFFFFFFFFFFFFFFFFFFFFFFFFFFFFFFFFFFFFFFFF
310
FFFFFFFFFFFFFFFFFFFFFFFFFFFFFFFFFFFFFFFFFFFFFFFFFFFFFFFFFFFFFFFF
310
F000FFFFFFFFFFFFFFFFFFFFFFFFFFFFFFFFFFFFFFFFFFFFFFFFFFFFFFFFFFFF
310
FFFFFFFFFFFFFFFFFFFFFFFFFFFFFFFFFFFFFFFFFFFFFFFFFFFFFFFFFFFFFFFF
310
FFFFFFFFFFFFFFFFFFFFFFFFFFFFFFFFFFFFFFFFFFFFFFFFF000FFFFFFFFFFFF
310
FFFFFFFFFFFFFFFFFFFFFFFFFFFFFFFFFFFFFFFFFFFFFFFFFFFFFFFFFFFFFFFF
310
FFFFFFFFFFFFFFFFFFFFFFFFFFFFFFFFFFFFFFFFFFFFFFFFFFFFFFFFFFFFFFFF
310
FFFFFFFFFFFFFFFFFFFFFFFFFFFFFFFFF000FFFFFFFFFFFFFFFFFFFFFFFFFFFF
310
FFFFFFFFFFFFFFFFFFFFFFFFFFFFFFFFFFFFFFFFFFFFFFFFFFFFFFFFFFFFFFFF
310
FFFFFFFFFFFFFFFFFFFFFFFFFFFFFFFFFFFFFFFFFFFFFFFFFFFFFFFFFFFFFFFF
310
FFFFFFFFFFFFFFFFF000FFFFFFFFFFFFFFFFFFFFFFFFFFFFFFFFFFFFFFFFFFFF
310
FFFFFFFFFFFFFFFFFFFFFFFFFFFFFFFFFFFFFFFFFFFFFFFFFFFFFFFFFFFFFFFF
310
FFFFFFFFFFFFFFFFFFFFFFFFFFFFFFFFFFFFFFFFFFFFFFFFFFFFFFFFFFFFFFFF
310
F000FFFFFFFFFFFFFFFFFFFFFFFFFFFFFFFFFFFFFFFFFFFFFFFFFFFFFFFFFFFF
310
FFFFFFFFFFFFFFFFFFFFFFFFFFFFFFFFFFFFFFFFFFFFFFFFFFFFFFFFFFFFFFFF
310
FFFFFFFFFFFFFFFFFFFFFFFFFFFFFFFFFFFFFFFFFFFFFFFFF000FFFFFFFFFFFF
310
FFFFFFFFFFFFFFFFFFFFFFFFFFFFFFFFFFFFFFFFFFFFFFFFFFFFFFFFFFFFFFFF
310
FFFFFFFFFFFFFFFFFFFFFFFFFFFFFFFFFFFFFFFFFFFFFFFFFFFFFFFFFFFFFFFF
310
FFFFFFFFFFFFFFFFFFFFFFFFFFFFFFFFF0000000000000000000000000000000
310
000000001308573E3D3BDF3D1308573EDC9DE13D1308573EE6F4E33D1308573E
310
4737E63D1308573E395CE83D1308573E6B5BEA3D1308573E1D2DEC3D1308573E
310
40CAED3D1308573E902CEF3D1308573EAE4EF03D1308573E352CF13D1308573E
310
C9C1F13D1308573E250DF23D1308573E9716F23D1308573E250DF23D1308573E
310
C9C1F13D1308573E352CF13D1308573EAE4EF03D1308573E902CEF3D1308573E
310
40CAED3D1308573E1D2DEC3D1308573E6B5BEA3D1308573E395CE83D1308573E
310
4737E63D1308573EE6F4E33D1308573EDC9DE13D1308573E3D3BDF3D1308573E
310
4AD6DC3D1308573E5078DA3D1308573E7C2AD83D1308573EC0F5D53D1308573E
310
ACE2D33D1308573E4CF9D13D1308573E0C41D03D1308573E98C0CE3D1308573E
310
C47DCD3D1308573E757DCC3D1308573E8DC3CB3D1308573EDF52CB3D1308573E
310
1F2DCB3D1308573E1F2DCB3D6F97593EDF52CB3D6F97593E1F2DCB3D6F97593E
310
DF52CB3D6F97593E8DC3CB3D6F97593E757DCC3D6F97593EC47DCD3D6F97593E
310
98C0CE3D6F97593E0C41D03D6F97593E4CF9D13D6F97593EACE2D33D6F97593E
310
C0F5D53D6F97593E7C2AD83D6F97593E5078DA3D6F97593E4AD6DC3D6F97593E
310
3D3BDF3D6F97593EDC9DE13D6F97593EE6F4E33D6F97593E4737E63D6F97593E
  1
OLE
  0
ENDSEC
  0
SECTION
  2
OBJECTS
  0
DICTIONARY
  5
C
330
0
100
AcDbDictionary
281
     1
  3
ACAD_GROUP
350
D
  3
ACAD_LAYOUT
350
1A
  3
ACAD_MLEADERSTYLE
350
327
  3
ACAD_MLINESTYLE
350
17
  3
ACAD_PLOTSETTINGS
350
19
  3
ACAD_PLOTSTYLENAME
350
E
  3
ACAD_TABLESTYLE
350
326
  3
ACAD_VISUALSTYLE
350
2A
  3
AcDbVariableDictionary
350
328
  0
DICTIONARY
  5
D
102
{ACAD_REACTORS
330
C
102
}
330
C
100
AcDbDictionary
281
     1
  0
DICTIONARY
  5
1A
102
{ACAD_REACTORS
330
C
102
}
330
C
100
AcDbDictionary
281
     1
  3
Layout1
350
1E
  3
Layout2
350
26
  3
Model
350
22
  0
DICTIONARY
  5
327
102
{ACAD_REACTORS
330
C
102
}
330
C
100
AcDbDictionary
281
     1
  0
DICTIONARY
  5
17
102
{ACAD_REACTORS
330
C
102
}
330
C
100
AcDbDictionary
281
     1
  3
Standard
350
18
  0
DICTIONARY
  5
19
102
{ACAD_REACTORS
330
C
102
}
330
C
100
AcDbDictionary
281
     1
  0
ACDBDICTIONARYWDFLT
  5
E
102
{ACAD_REACTORS
330
C
102
}
330
C
100
AcDbDictionary
281
     1
  3
Normal
350
F
100
AcDbDictionaryWithDefault
340
F
  0
DICTIONARY
  5
326
102
{ACAD_REACTORS
330
C
102
}
330
C
100
AcDbDictionary
281
     1
  0
DICTIONARY
  5
2A
102
{ACAD_REACTORS
330
C
102
}
330
C
100
AcDbDictionary
281
     1
  3
2dWireframe
350
2F
  3
3D Hidden
350
31
  3
3dWireframe
350
30
  3
Basic
350
32
  3
Brighten
350
36
  3
ColorChange
350
3A
  3
Conceptual
350
34
  3
Dim
350
35
  3
Facepattern
350
39
  3
Flat
350
2B
  3
FlatWithEdges
350
2C
  3
Gouraud
350
2D
  3
GouraudWithEdges
350
2E
  3
Linepattern
350
38
  3
Realistic
350
33
  3
Thicken
350
37
  0
DICTIONARY
  5
328
102
{ACAD_REACTORS
330
C
102
}
330
C
100
AcDbDictionary
281
     1
  3
PSOLHEIGHT
350
32A
  3
PSOLWIDTH
350
329
  0
LAYOUT
  5
1E
102
{ACAD_REACTORS
330
1A
102
}
330
1A
100
AcDbPlotSettings
  1

  2
none_device
  4

  6

 40
0.0
 41
0.0
 42
0.0
 43
0.0
 44
0.0
 45
0.0
 46
0.0
 47
0.0
 48
0.0
 49
0.0
140
0.0
141
0.0
142
1.0
143
1.0
 70
   688
 72
     0
 73
     0
 74
     5
  7

 75
    16
147
1.0
148
0.0
149
0.0
100
AcDbLayout
  1
Layout1
 70
     1
 71
     1
 10
0.0
 20
0.0
 11
420.0
 21
297.0
 12
0.0
 22
0.0
 32
0.0
 14
1.0000000000E+20
 24
1.0000000000E+20
 34
1.0000000000E+20
 15
-1.0000000000E+20
 25
-1.0000000000E+20
 35
-1.0000000000E+20
146
0.0
 13
0.0
 23
0.0
 33
0.0
 16
1.0
 26
0.0
 36
0.0
 17
0.0
 27
1.0
 37
0.0
 76
     0
330
1B
  0
LAYOUT
  5
26
102
{ACAD_REACTORS
330
1A
102
}
330
1A
100
AcDbPlotSettings
  1

  2
none_device
  4

  6

 40
0.0
 41
0.0
 42
0.0
 43
0.0
 44
0.0
 45
0.0
 46
0.0
 47
0.0
 48
0.0
 49
0.0
140
0.0
141
0.0
142
1.0
143
1.0
 70
   688
 72
     0
 73
     0
 74
     5
  7

 75
    16
147
1.0
148
0.0
149
0.0
100
AcDbLayout
  1
Layout2
 70
     1
 71
     2
 10
0.0
 20
0.0
 11
0.0
 21
0.0
 12
0.0
 22
0.0
 32
0.0
 14
0.0
 24
0.0
 34
0.0
 15
0.0
 25
0.0
 35
0.0
146
0.0
 13
0.0
 23
0.0
 33
0.0
 16
1.0
 26
0.0
 36
0.0
 17
0.0
 27
1.0
 37
0.0
 76
     0
330
23
  0
LAYOUT
  5
22
102
{ACAD_REACTORS
330
1A
102
}
330
1A
100
AcDbPlotSettings
  1

  2
none_device
  4

  6

 40
0.0
 41
0.0
 42
0.0
 43
0.0
 44
0.0
 45
0.0
 46
0.0
 47
0.0
 48
0.0
 49
0.0
140
0.0
141
0.0
142
1.0
143
1.0
 70
  1712
 72
     0
 73
     0
 74
     0
  7

 75
     0
147
1.0
148
0.0
149
0.0
100
AcDbLayout
  1
Model
 70
     1
 71
     0
 10
0.0
 20
0.0
 11
297.0
 21
210.0
 12
0.0
 22
0.0
 32
0.0
 14
0.0
 24
0.0
 34
0.0
 15
297.0
 25
210.0
 35
0.0
146
0.0
 13
0.0
 23
0.0
 33
0.0
 16
1.0
 26
0.0
 36
0.0
 17
0.0
 27
1.0
 37
0.0
 76
     0
330
1F
331
29
  0
MLINESTYLE
  5
18
102
{ACAD_REACTORS
330
17
102
}
330
17
100
AcDbMlineStyle
  2
Standard
 70
     0
  3

 62
   256
 51
90.0
 52
90.0
 71
     2
 49
0.5
 62
   256
  6
BYLAYER
 49
-0.5
 62
   256
  6
BYLAYER
  0
ACDBPLACEHOLDER
  5
F
102
{ACAD_REACTORS
330
E
102
}
330
E
  0
VISUALSTYLE
  5
2F
102
{ACAD_REACTORS
330
2A
102
}
330
2A
100
AcDbVisualStyle
  2
2dWireframe
 70
     4
 71
     0
 72
     2
 73
     0
 90
        0
 40
-0.6
 41
-30.0
 62
     5
 63
     7
 74
     1
 91
        4
 64
     7
 65
   257
 75
     1
175
     1
 42
1.0
 92
        0
 66
   257
 43
1.0
 76
     1
 77
     6
 78
     2
 67
     7
 79
     5
170
     0
171
     0
290
     0
174
     0
 93
        1
 44
0.0
173
     0
291
     0
 45
0.0
1001
ACAD
1000
AcDbSavedByObjectVersion
1070
     0
  0
VISUALSTYLE
  5
31
102
{ACAD_REACTORS
330
2A
102
}
330
2A
100
AcDbVisualStyle
  2
3D Hidden
 70
     6
 71
     1
 72
     2
 73
     2
 90
        0
 40
-0.6
 41
-30.0
 62
     5
 63
     7
 74
     2
 91
        2
 64
     7
 65
   257
 75
     2
175
     1
 42
40.0
 92
        0
 66
   257
 43
1.0
 76
     1
 77
     6
 78
     2
 67
     7
 79
     3
170
     0
171
     0
290
     0
174
     0
 93
        1
 44
0.0
173
     0
291
     0
 45
0.0
1001
ACAD
1000
AcDbSavedByObjectVersion
1070
     0
  0
VISUALSTYLE
  5
30
102
{ACAD_REACTORS
330
2A
102
}
330
2A
100
AcDbVisualStyle
  2
3dWireframe
 70
     5
 71
     0
 72
     2
 73
     0
 90
        0
 40
-0.6
 41
-30.0
 62
     5
 63
     7
 74
     1
 91
        4
 64
     7
 65
   257
 75
     1
175
     1
 42
1.0
 92
        0
 66
   257
 43
1.0
 76
     1
 77
     6
 78
     2
 67
     7
 79
     5
170
     0
171
     0
290
     0
174
     0
 93
        1
 44
0.0
173
     0
291
     0
 45
0.0
1001
ACAD
1000
AcDbSavedByObjectVersion
1070
     0
  0
VISUALSTYLE
  5
32
102
{ACAD_REACTORS
330
2A
102
}
330
2A
100
AcDbVisualStyle
  2
Basic
 70
     7
 71
     1
 72
     0
 73
     1
 90
        0
 40
-0.6
 41
-30.0
 62
     5
 63
     7
 74
     0
 91
        4
 64
     7
 65
   257
 75
     1
175
     1
 42
1.0
 92
        8
 66
     7
 43
1.0
 76
     1
 77
     6
 78
     2
 67
     7
 79
     5
170
     0
171
     0
290
     0
174
     0
 93
        1
 44
0.0
173
     0
291
     1
 45
0.0
1001
ACAD
1000
AcDbSavedByObjectVersion
1070
     0
  0
VISUALSTYLE
  5
36
102
{ACAD_REACTORS
330
2A
102
}
330
2A
100
AcDbVisualStyle
  2
Brighten
 70
    12
 71
     2
 72
     2
 73
     0
 90
        0
 40
-0.6
 41
-30.0
 62
     5
 63
     7
 74
     1
 91
        4
 64
     7
 65
   257
 75
     1
175
     1
 42
1.0
 92
        8
 66
     7
 43
1.0
 76
     1
 77
     6
 78
     2
 67
     7
 79
     5
170
     0
171
     0
290
     0
174
     0
 93
        1
 44
50.0
173
     0
291
     1
 45
0.0
1001
ACAD
1000
AcDbSavedByObjectVersion
1070
     0
  0
VISUALSTYLE
  5
3A
102
{ACAD_REACTORS
330
2A
102
}
330
2A
100
AcDbVisualStyle
  2
ColorChange
 70
    16
 71
     2
 72
     2
 73
     3
 90
        0
 40
-0.6
 41
-30.0
 62
     5
 63
     8
 74
     1
 91
        4
 64
     7
 65
   257
 75
     1
175
     1
 42
1.0
 92
        8
 66
     8
 43
1.0
 76
     1
 77
     6
 78
     2
 67
     7
 79
     5
170
     0
171
     0
290
     0
174
     0
 93
        1
 44
0.0
173
     0
291
     1
 45
0.0
1001
ACAD
1000
AcDbSavedByObjectVersion
1070
     0
  0
VISUALSTYLE
  5
34
102
{ACAD_REACTORS
330
2A
102
}
330
2A
100
AcDbVisualStyle
  2
Conceptual
 70
     9
 71
     3
 72
     2
 73
     0
 90
        0
 40
-0.6
 41
-30.0
 62
     5
 63
     7
 74
     2
 91
        2
 64
     7
 65
   257
 75
     1
175
     1
 42
40.0
 92
        8
 66
     7
 43
1.0
 76
     1
 77
     6
 78
     2
 67
     7
 79
     3
170
     0
171
     0
290
     0
174
     0
 93
        1
 44
0.0
173
     0
291
     0
 45
0.0
1001
ACAD
1000
AcDbSavedByObjectVersion
1070
     0
  0
VISUALSTYLE
  5
35
102
{ACAD_REACTORS
330
2A
102
}
330
2A
100
AcDbVisualStyle
  2
Dim
 70
    11
 71
     2
 72
     2
 73
     0
 90
        0
 40
-0.6
 41
-30.0
 62
     5
 63
     7
 74
     1
 91
        4
 64
     7
 65
   257
 75
     1
175
     1
 42
1.0
 92
        8
 66
     7
 43
1.0
 76
     1
 77
     6
 78
     2
 67
     7
 79
     5
170
     0
171
     0
290
     0
174
     0
 93
        1
 44
-50.0
173
     0
291
     1
 45
0.0
1001
ACAD
1000
AcDbSavedByObjectVersion
1070
     0
  0
VISUALSTYLE
  5
39
102
{ACAD_REACTORS
330
2A
102
}
330
2A
100
AcDbVisualStyle
  2
Facepattern
 70
    15
 71
     2
 72
     2
 73
     0
 90
        0
 40
-0.6
 41
-30.0
 62
     5
 63
     7
 74
     1
 91
        4
 64
     7
 65
   257
 75
     1
175
     1
 42
1.0
 92
        8
 66
     7
 43
1.0
 76
     1
 77
     6
 78
     2
 67
     7
 79
     5
170
     0
171
     0
290
     0
174
     0
 93
        1
 44
0.0
173
     0
291
     1
 45
0.0
1001
ACAD
1000
AcDbSavedByObjectVersion
1070
     0
  0
VISUALSTYLE
  5
2B
102
{ACAD_REACTORS
330
2A
102
}
330
2A
100
AcDbVisualStyle
  2
Flat
 70
     0
 71
     2
 72
     1
 73
     1
 90
        2
 40
-0.6
 41
30.0
 62
     5
 63
     7
 74
     0
 91
        4
 64
     7
 65
   257
 75
     1
175
     1
 42
1.0
 92
        8
 66
     7
 43
1.0
 76
     1
 77
     6
 78
     2
 67
     7
 79
     5
170
     0
171
     0
290
     0
174
     0
 93
       13
 44
0.0
173
     0
291
     1
 45
0.0
1001
ACAD
1000
AcDbSavedByObjectVersion
1070
     0
  0
VISUALSTYLE
  5
2C
102
{ACAD_REACTORS
330
2A
102
}
330
2A
100
AcDbVisualStyle
  2
FlatWithEdges
 70
     1
 71
     2
 72
     1
 73
     1
 90
        2
 40
-0.6
 41
30.0
 62
     5
 63
     7
 74
     1
 91
        4
 64
     7
 65
   257
 75
     1
175
     1
 42
1.0
 92
        0
 66
   257
 43
1.0
 76
     1
 77
     6
 78
     2
 67
     7
 79
     5
170
     0
171
     0
290
     0
174
     0
 93
       13
 44
0.0
173
     0
291
     1
 45
0.0
1001
ACAD
1000
AcDbSavedByObjectVersion
1070
     0
  0
VISUALSTYLE
  5
2D
102
{ACAD_REACTORS
330
2A
102
}
330
2A
100
AcDbVisualStyle
  2
Gouraud
 70
     2
 71
     2
 72
     2
 73
     1
 90
        2
 40
-0.6
 41
30.0
 62
     5
 63
     7
 74
     0
 91
        4
 64
     7
 65
   257
 75
     1
175
     1
 42
1.0
 92
        0
 66
     7
 43
1.0
 76
     1
 77
     6
 78
     2
 67
     7
 79
     5
170
     0
171
     0
290
     0
174
     0
 93
       13
 44
0.0
173
     0
291
     1
 45
0.0
1001
ACAD
1000
AcDbSavedByObjectVersion
1070
     0
  0
VISUALSTYLE
  5
2E
102
{ACAD_REACTORS
330
2A
102
}
330
2A
100
AcDbVisualStyle
  2
GouraudWithEdges
 70
     3
 71
     2
 72
     2
 73
     1
 90
        2
 40
-0.6
 41
30.0
 62
     5
 63
     7
 74
     1
 91
        4
 64
     7
 65
   257
 75
     1
175
     1
 42
1.0
 92
        0
 66
   257
 43
1.0
 76
     1
 77
     6
 78
     2
 67
     7
 79
     5
170
     0
171
     0
290
     0
174
     0
 93
       13
 44
0.0
173
     0
291
     1
 45
0.0
1001
ACAD
1000
AcDbSavedByObjectVersion
1070
     0
  0
VISUALSTYLE
  5
38
102
{ACAD_REACTORS
330
2A
102
}
330
2A
100
AcDbVisualStyle
  2
Linepattern
 70
    14
 71
     2
 72
     2
 73
     0
 90
        0
 40
-0.6
 41
-30.0
 62
     5
 63
     7
 74
     1
 91
        4
 64
     7
 65
   257
 75
     7
175
     7
 42
1.0
 92
        8
 66
     7
 43
1.0
 76
     1
 77
     6
 78
     2
 67
     7
 79
     5
170
     0
171
     0
290
     0
174
     0
 93
        1
 44
0.0
173
     0
291
     1
 45
0.0
1001
ACAD
1000
AcDbSavedByObjectVersion
1070
     0
  0
VISUALSTYLE
  5
33
102
{ACAD_REACTORS
330
2A
102
}
330
2A
100
AcDbVisualStyle
  2
Realistic
 70
     8
 71
     2
 72
     2
 73
     0
 90
        0
 40
-0.6
 41
-30.0
 62
     5
 63
     7
 74
     1
 91
        0
 64
     7
 65
   257
 75
     1
175
     1
 42
1.0
 92
        8
 66
     8
 43
1.0
 76
     1
 77
     6
 78
     2
 67
     7
 79
     5
170
     0
171
     0
290
     0
174
     0
 93
       13
 44
0.0
173
     0
291
     0
 45
0.0
1001
ACAD
1000
AcDbSavedByObjectVersion
1070
     0
  0
VISUALSTYLE
  5
37
102
{ACAD_REACTORS
330
2A
102
}
330
2A
100
AcDbVisualStyle
  2
Thicken
 70
    13
 71
     2
 72
     2
 73
     0
 90
        0
 40
-0.6
 41
-30.0
 62
     5
 63
     7
 74
     1
 91
        4
 64
     7
 65
   257
 75
     1
175
     1
 42
1.0
 92
       12
 66
     7
 43
1.0
 76
     1
 77
     6
 78
     2
 67
     7
 79
     5
170
     0
171
     0
290
     0
174
     0
 93
        1
 44
0.0
173
     0
291
     1
 45
0.0
1001
ACAD
1000
AcDbSavedByObjectVersion
1070
     0
  0
DICTIONARYVAR
  5
32A
102
{ACAD_REACTORS
330
328
102
}
330
328
100
DictionaryVariables
280
     0
  1
80.000000
  0
DICTIONARYVAR
  5
329
102
{ACAD_REACTORS
330
328
102
}
330
328
100
DictionaryVariables
280
     0
  1
5.000000
  0
ENDSEC
  0
EOF
