  0
SECTION
  2
HEADER
  9
$ACADVER
  1
AC1015
  9
$ACADMAINTVER
 70
     6
  9
$DWGCODEPAGE
  3
ANSI_1252
  9
$INSBASE
 10
0.0
 20
0.0
 30
0.0
  9
$EXTMIN
 10
0.0
 20
0.0
 30
0.0
  9
$EXTMAX
 10
297.0
 20
210.0
 30
0.0
  9
$LIMMIN
 10
0.0
 20
0.0
  9
$LIMMAX
 10
297.0
 20
210.0
  9
$ORTHOMODE
 70
     0
  9
$REGENMODE
 70
     1
  9
$FILLMODE
 70
     1
  9
$QTEXTMODE
 70
     0
  9
$MIRRTEXT
 70
     1
  9
$LTSCALE
 40
1.0
  9
$ATTMODE
 70
     1
  9
$TEXTSIZE
 40
2.0
  9
$TRACEWID
 40
1.0
  9
$TEXTSTYLE
  7
Standard
  9
$CLAYER
  8
0
  9
$CELTYPE
  6
ByLayer
  9
$CECOLOR
 62
   256
  9
$CELTSCALE
 40
1.0
  9
$DISPSILH
 70
     0
  9
$DIMSCALE
 40
1.0
  9
$DIMASZ
 40
3.0
  9
$DIMEXO
 40
0.0
  9
$DIMDLI
 40
3.75
  9
$DIMRND
 40
0.0
  9
$DIMDLE
 40
0.0
  9
$DIMEXE
 40
1.0
  9
$DIMTP
 40
0.0
  9
$DIMTM
 40
0.0
  9
$DIMTXT
 40
2.0
  9
$DIMCEN
 40
2.5
  9
$DIMTSZ
 40
0.0
  9
$DIMTOL
 70
     0
  9
$DIMLIM
 70
     0
  9
$DIMTIH
 70
     1
  9
$DIMTOH
 70
     1
  9
$DIMSE1
 70
     0
  9
$DIMSE2
 70
     0
  9
$DIMTAD
 70
     1
  9
$DIMZIN
 70
     0
  9
$DIMBLK
  1

  9
$DIMASO
 70
     1
  9
$DIMSHO
 70
     1
  9
$DIMPOST
  1

  9
$DIMAPOST
  1

  9
$DIMALT
 70
     0
  9
$DIMALTD
 70
     3
  9
$DIMALTF
 40
0.0393700787
  9
$DIMLFAC
 40
1.0
  9
$DIMTOFL
 70
     1
  9
$DIMTVP
 40
0.0
  9
$DIMTIX
 70
     0
  9
$DIMSOXD
 70
     0
  9
$DIMSAH
 70
     0
  9
$DIMBLK1
  1

  9
$DIMBLK2
  1

  9
$DIMSTYLE
  2
ISO-25
  9
$DIMCLRD
 70
     0
  9
$DIMCLRE
 70
     0
  9
$DIMCLRT
 70
     0
  9
$DIMTFAC
 40
1.0
  9
$DIMGAP
 40
1.524
  9
$DIMJUST
 70
     0
  9
$DIMSD1
 70
     0
  9
$DIMSD2
 70
     0
  9
$DIMTOLJ
 70
     0
  9
$DIMTZIN
 70
     0
  9
$DIMALTZ
 70
     0
  9
$DIMALTTZ
 70
     0
  9
$DIMUPT
 70
     0
  9
$DIMDEC
 70
     2
  9
$DIMTDEC
 70
     3
  9
$DIMALTU
 70
     2
  9
$DIMALTTD
 70
     3
  9
$DIMTXSTY
  7
Standard
  9
$DIMAUNIT
 70
     0
  9
$DIMADEC
 70
     2
  9
$DIMALTRND
 40
0.0
  9
$DIMAZIN
 70
     0
  9
$DIMDSEP
 70
    44
  9
$DIMATFIT
 70
     3
  9
$DIMFRAC
 70
     0
  9
$DIMLDRBLK
  1

  9
$DIMLUNIT
 70
     2
  9
$DIMLWD
 70
    -2
  9
$DIMLWE
 70
    -2
  9
$DIMTMOVE
 70
     0
  9
$LUNITS
 70
     2
  9
$LUPREC
 70
     2
  9
$SKETCHINC
 40
1.0
  9
$FILLETRAD
 40
10.0
  9
$AUNITS
 70
     0
  9
$AUPREC
 70
     2
  9
$MENU
  1
.
  9
$ELEVATION
 40
0.0
  9
$PELEVATION
 40
0.0
  9
$THICKNESS
 40
0.0
  9
$LIMCHECK
 70
     0
  9
$CHAMFERA
 40
10.0
  9
$CHAMFERB
 40
10.0
  9
$CHAMFERC
 40
20.0
  9
$CHAMFERD
 40
0.0
  9
$SKPOLY
 70
     0
  9
$TDCREATE
 40
2455581.444737558
  9
$TDUCREATE
 40
2455581.403070891
  9
$TDUPDATE
 40
2455581.444737569
  9
$TDUUPDATE
 40
2455581.403070903
  9
$TDINDWG
 40
0.0000000116
  9
$TDUSRTIMER
 40
0.0000000116
  9
$USRTIMER
 70
     1
  9
$ANGBASE
 50
0.0
  9
$ANGDIR
 70
     0
  9
$PDMODE
 70
     0
  9
$PDSIZE
 40
-1.0
  9
$PLINEWID
 40
0.0
  9
$SPLFRAME
 70
     0
  9
$SPLINETYPE
 70
     6
  9
$SPLINESEGS
 70
     8
  9
$HANDSEED
  5
32C
  9
$SURFTAB1
 70
     6
  9
$SURFTAB2
 70
     6
  9
$SURFTYPE
 70
     6
  9
$SURFU
 70
     6
  9
$SURFV
 70
     6
  9
$UCSBASE
  2

  9
$UCSNAME
  2

  9
$UCSORG
 10
0.0
 20
0.0
 30
0.0
  9
$UCSXDIR
 10
1.0
 20
0.0
 30
0.0
  9
$UCSYDIR
 10
0.0
 20
1.0
 30
0.0
  9
$UCSORTHOREF
  2

  9
$UCSORTHOVIEW
 70
     0
  9
$UCSORGTOP
 10
0.0
 20
0.0
 30
0.0
  9
$UCSORGBOTTOM
 10
0.0
 20
0.0
 30
0.0
  9
$UCSORGLEFT
 10
0.0
 20
0.0
 30
0.0
  9
$UCSORGRIGHT
 10
0.0
 20
0.0
 30
0.0
  9
$UCSORGFRONT
 10
0.0
 20
0.0
 30
0.0
  9
$UCSORGBACK
 10
0.0
 20
0.0
 30
0.0
  9
$PUCSBASE
  2

  9
$PUCSNAME
  2

  9
$PUCSORG
 10
0.0
 20
0.0
 30
0.0
  9
$PUCSXDIR
 10
1.0
 20
0.0
 30
0.0
  9
$PUCSYDIR
 10
0.0
 20
1.0
 30
0.0
  9
$PUCSORTHOREF
  2

  9
$PUCSORTHOVIEW
 70
     0
  9
$PUCSORGTOP
 10
0.0
 20
0.0
 30
0.0
  9
$PUCSORGBOTTOM
 10
0.0
 20
0.0
 30
0.0
  9
$PUCSORGLEFT
 10
0.0
 20
0.0
 30
0.0
  9
$PUCSORGRIGHT
 10
0.0
 20
0.0
 30
0.0
  9
$PUCSORGFRONT
 10
0.0
 20
0.0
 30
0.0
  9
$PUCSORGBACK
 10
0.0
 20
0.0
 30
0.0
  9
$USERI1
 70
     0
  9
$USERI2
 70
     0
  9
$USERI3
 70
     0
  9
$USERI4
 70
     0
  9
$USERI5
 70
     0
  9
$USERR1
 40
0.0
  9
$USERR2
 40
0.0
  9
$USERR3
 40
0.0
  9
$USERR4
 40
0.0
  9
$USERR5
 40
0.0
  9
$WORLDVIEW
 70
     1
  9
$SHADEDGE
 70
     3
  9
$SHADEDIF
 70
    70
  9
$TILEMODE
 70
     1
  9
$MAXACTVP
 70
    64
  9
$PINSBASE
 10
0.0
 20
0.0
 30
0.0
  9
$PLIMCHECK
 70
     0
  9
$PEXTMIN
 10
1.0000000000E+20
 20
1.0000000000E+20
 30
1.0000000000E+20
  9
$PEXTMAX
 10
-1.0000000000E+20
 20
-1.0000000000E+20
 30
-1.0000000000E+20
  9
$PLIMMIN
 10
0.0
 20
0.0
  9
$PLIMMAX
 10
420.0
 20
297.0
  9
$UNITMODE
 70
     0
  9
$VISRETAIN
 70
     1
  9
$PLINEGEN
 70
     0
  9
$PSLTSCALE
 70
     1
  9
$TREEDEPTH
 70
  3020
  9
$CMLSTYLE
  2
Standard
  9
$CMLJUST
 70
     0
  9
$CMLSCALE
 40
20.0
  9
$PROXYGRAPHICS
 70
     1
  9
$MEASUREMENT
 70
     1
  9
$CELWEIGHT
370
    -1
  9
$ENDCAPS
280
     0
  9
$JOINSTYLE
280
     0
  9
$LWDISPLAY
290
     1
  9
$INSUNITS
 70
     4
  9
$HYPERLINKBASE
  1

  9
$STYLESHEET
  1

  9
$XEDIT
290
     1
  9
$CEPSNTYPE
380
     0
  9
$PSTYLEMODE
290
     1
  9
$FINGERPRINTGUID
  2
{87DBBF84-9CEC-4706-B2E1-1A0A65C7F59C}
  9
$VERSIONGUID
  2
{FAEB1C32-E019-11D5-929B-00C0DF256EC4}
  9
$EXTNAMES
290
     1
  9
$PSVPSCALE
 40
0.0
  9
$OLESTARTUP
290
     0
  0
ENDSEC
  0
SECTION
  2
CLASSES
  0
CLASS
  1
ACDBDICTIONARYWDFLT
  2
AcDbDictionaryWithDefault
  3
ObjectDBX Classes
 90
        0
280
     0
281
     0
  0
CLASS
  1
VISUALSTYLE
  2
AcDbVisualStyle
  3
ObjectDBX Classes
 90
     4095
280
     0
281
     0
  0
CLASS
  1
DICTIONARYVAR
  2
AcDbDictionaryVar
  3
ObjectDBX Classes
 90
        0
280
     0
281
     0
  0
CLASS
  1
ACDBPLACEHOLDER
  2
AcDbPlaceHolder
  3
ObjectDBX Classes
 90
        0
280
     0
281
     0
  0
CLASS
  1
LAYOUT
  2
AcDbLayout
  3
ObjectDBX Classes
 90
        0
280
     0
281
     0
  0
ENDSEC
  0
SECTION
  2
TABLES
  0
TABLE
  2
VPORT
  5
8
330
0
100
AcDbSymbolTable
 70
     1
  0
VPORT
  5
29
330
8
100
AcDbSymbolTableRecord
100
AcDbViewportTableRecord
  2
*Active
 70
     0
 10
0.0
 20
0.0
 11
1.0
 21
1.0
 12
148.5
 22
105.0
 13
0.0
 23
0.0
 14
10.0
 24
10.0
 15
10.0
 25
10.0
 16
0.0
 26
0.0
 36
1.0
 17
0.0
 27
0.0
 37
0.0
 40
210.0
 41
1.4142857143
 42
50.0
 43
0.0
 44
0.0
 50
0.0
 51
0.0
 71
     0
 72
  2000
 73
     1
 74
     3
 75
     0
 76
     0
 77
     0
 78
     0
281
     0
 65
     1
110
0.0
120
0.0
130
0.0
111
1.0
121
0.0
131
0.0
112
0.0
122
1.0
132
0.0
 79
     0
146
0.0
  0
ENDTAB
  0
TABLE
  2
LTYPE
  5
5
330
0
100
AcDbSymbolTable
 70
     6
  0
LTYPE
  5
14
330
5
100
AcDbSymbolTableRecord
100
AcDbLinetypeTableRecord
  2
ByBlock
 70
     0
  3

 72
    65
 73
     0
 40
0.0
  0
LTYPE
  5
15
330
5
100
AcDbSymbolTableRecord
100
AcDbLinetypeTableRecord
  2
ByLayer
 70
     0
  3

 72
    65
 73
     0
 40
0.0
  0
LTYPE
  5
16
330
5
100
AcDbSymbolTableRecord
100
AcDbLinetypeTableRecord
  2
Continuous
 70
     0
  3
Solid line
 72
    65
 73
     0
 40
0.0
  0
LTYPE
  5
3B
330
5
100
AcDbSymbolTableRecord
100
AcDbLinetypeTableRecord
  2
HIDDEN
 70
     0
  3
Hidden __ __ __ __ __ __ __ __ __ __ __ __ __ __
 72
    65
 73
     2
 40
1.905
 49
1.27
 74
     0
 49
-0.635
 74
     0
  0
LTYPE
  5
3C
330
5
100
AcDbSymbolTableRecord
100
AcDbLinetypeTableRecord
  2
PHANTOM
 70
     0
  3
Phantom ______  __  __  ______  __  __  ______
 72
    65
 73
     6
 40
12.7
 49
6.35
 74
     0
 49
-1.27
 74
     0
 49
1.27
 74
     0
 49
-1.27
 74
     0
 49
1.27
 74
     0
 49
-1.27
 74
     0
  0
LTYPE
  5
3D
330
5
100
AcDbSymbolTableRecord
100
AcDbLinetypeTableRecord
  2
CENTER
 70
     0
  3
Center ____ _ ____ _ ____ _ ____ _ ____ _ ____
 72
    65
 73
     4
 40
10.16
 49
6.35
 74
     0
 49
-1.27
 74
     0
 49
1.27
 74
     0
 49
-1.27
 74
     0
  0
LTYPE
  5
3E
330
5
100
AcDbSymbolTableRecord
100
AcDbLinetypeTableRecord
  2
CENTERX2
 70
     0
  3
Center (2x) ________  __  ________  __  _____
 72
    65
 73
     4
 40
20.32
 49
12.7
 74
     0
 49
-2.54
 74
     0
 49
2.54
 74
     0
 49
-2.54
 74
     0
  0
LTYPE
  5
3F
330
5
100
AcDbSymbolTableRecord
100
AcDbLinetypeTableRecord
  2
DOT2
 70
     0
  3
Dot (.5x) ........................................
 72
    65
 73
     2
 40
0.635
 49
0.0
 74
     0
 49
-0.635
 74
     0
  0
ENDTAB
  0
TABLE
  2
LAYER
  5
2
330
0
100
AcDbSymbolTable
 70
     5
  0
LAYER
  5
10
330
2
100
AcDbSymbolTableRecord
100
AcDbLayerTableRecord
  2
0
 70
     0
 62
     7
  6
Continuous
370
    -3
390
F
  0
LAYER
  5
40
330
2
100
AcDbSymbolTableRecord
100
AcDbLayerTableRecord
  2
FORMAT
 70
     0
 62
     7
  6
Continuous
370
    -3
390
F
  0
LAYER
  5
41
330
2
100
AcDbSymbolTableRecord
100
AcDbLayerTableRecord
  2
VERMASSUNG
 70
     0
 62
     7
  6
Continuous
370
    -3
390
F
  0
LAYER
  5
42
330
2
100
AcDbSymbolTableRecord
100
AcDbLayerTableRecord
  2
KOPF_DÜNN
 70
     0
 62
     7
  6
Continuous
370
    -3
390
F
  0
LAYER
  5
43
330
2
100
AcDbSymbolTableRecord
100
AcDbLayerTableRecord
  2
KOPF_DICK
 70
     0
 62
     7
  6
Continuous
370
    15
390
F
  0
ENDTAB
  0
TABLE
  2
STYLE
  5
3
330
0
100
AcDbSymbolTable
 70
     3
  0
STYLE
  5
11
330
3
100
AcDbSymbolTableRecord
100
AcDbTextStyleTableRecord
  2
Standard
 70
     0
 40
0.0
 41
1.0
 50
0.0
 71
     0
 42
2.5
  3
txt
  4

  0
STYLE
  5
44
330
3
100
AcDbSymbolTableRecord
100
AcDbTextStyleTableRecord
  2
SLDTEXTSTYLE0
 70
     0
 40
0.0
 41
0.7
 50
0.0
 71
     0
 42
0.2
  3
TXT
  4

  0
STYLE
  5
48
330
3
100
AcDbSymbolTableRecord
100
AcDbTextStyleTableRecord
  2
SLDTEXTSTYLE1
 70
     0
 40
0.0
 41
0.6526315789
 50
0.0
 71
     0
 42
0.2
  3
TXT
  4

  0
ENDTAB
  0
TABLE
  2
VIEW
  5
6
330
0
100
AcDbSymbolTable
 70
     0
  0
ENDTAB
  0
TABLE
  2
UCS
  5
7
330
0
100
AcDbSymbolTable
 70
     0
  0
ENDTAB
  0
TABLE
  2
APPID
  5
9
330
0
100
AcDbSymbolTable
 70
     1
  0
APPID
  5
12
330
9
100
AcDbSymbolTableRecord
100
AcDbRegAppTableRecord
  2
ACAD
 70
     0
  0
ENDTAB
  0
TABLE
  2
DIMSTYLE
  5
A
330
0
100
AcDbSymbolTable
 70
     4
100
AcDbDimStyleTable
  0
DIMSTYLE
105
27
330
A
100
AcDbSymbolTableRecord
100
AcDbDimStyleTableRecord
  2
ISO-25
 70
     0
 41
2.5
 42
0.625
 43
3.75
 44
1.25
 73
     0
 74
     0
 77
     1
 78
     8
140
2.5
141
2.5
143
0.0393700787
147
0.625
171
     3
172
     1
271
     2
272
     2
274
     3
278
    44
283
     0
284
     8
340
11
  0
DIMSTYLE
105
263
102
{ACAD_REACTORS
330
262
102
}
330
A
100
AcDbSymbolTableRecord
100
AcDbDimStyleTableRecord
  2
SLDDIMSTYLE0
 70
     0
 41
3.0
 44
0.0
 73
     0
 74
     0
 77
     1
 78
    12
140
2.0
147
0.5
173
     1
179
     2
272
     3
284
    12
340
44
  0
DIMSTYLE
105
26F
102
{ACAD_REACTORS
330
26E
330
279
330
283
330
28D
102
}
330
A
100
AcDbSymbolTableRecord
100
AcDbDimStyleTableRecord
  2
SLDDIMSTYLE1
 70
     0
 41
3.0
 44
0.0
 45
0.000000001
 73
     0
 74
     0
 77
     1
 78
    12
140
2.0
147
0.5
173
     1
271
     2
272
     3
284
    12
340
44
  0
DIMSTYLE
105
30F
102
{ACAD_REACTORS
330
30E
102
}
330
A
100
AcDbSymbolTableRecord
100
AcDbDimStyleTableRecord
  2
SLDDIMSTYLE2
 70
     0
 41
3.0
 44
0.0
 45
0.000000001
 73
     0
 74
     0
 77
     1
 78
    12
140
2.0
147
0.5
173
     1
271
     2
272
     3
284
    12
340
44
  0
ENDTAB
  0
TABLE
  2
BLOCK_RECORD
  5
1
330
0
100
AcDbSymbolTable
 70
     8
  0
BLOCK_RECORD
  5
1F
330
1
100
AcDbSymbolTableRecord
100
AcDbBlockTableRecord
  2
*Model_Space
340
22
  0
BLOCK_RECORD
  5
1B
330
1
100
AcDbSymbolTableRecord
100
AcDbBlockTableRecord
  2
*Paper_Space
340
1E
  0
BLOCK_RECORD
  5
23
330
1
100
AcDbSymbolTableRecord
100
AcDbBlockTableRecord
  2
*Paper_Space0
340
26
  0
BLOCK_RECORD
  5
264
330
1
100
AcDbSymbolTableRecord
100
AcDbBlockTableRecord
  2
*D1
340
0
  0
BLOCK_RECORD
  5
270
330
1
100
AcDbSymbolTableRecord
100
AcDbBlockTableRecord
  2
*D2
340
0
  0
BLOCK_RECORD
  5
27A
330
1
100
AcDbSymbolTableRecord
100
AcDbBlockTableRecord
  2
*D3
340
0
  0
BLOCK_RECORD
  5
284
330
1
100
AcDbSymbolTableRecord
100
AcDbBlockTableRecord
  2
*D4
340
0
  0
BLOCK_RECORD
  5
28E
330
1
100
AcDbSymbolTableRecord
100
AcDbBlockTableRecord
  2
*D5
340
0
  0
BLOCK_RECORD
  5
310
330
1
100
AcDbSymbolTableRecord
100
AcDbBlockTableRecord
  2
*D6
340
0
  0
BLOCK_RECORD
  5
31A
330
1
100
AcDbSymbolTableRecord
100
AcDbBlockTableRecord
  2
SW_CENTERMARKSYMBOL_0
340
0
102
{BLKREFS
331
325
102
}
  0
ENDTAB
  0
ENDSEC
  0
SECTION
  2
BLOCKS
  0
BLOCK
  5
20
330
1F
100
AcDbEntity
  8
0
100
AcDbBlockBegin
  2
*Model_Space
 70
     0
 10
0.0
 20
0.0
 30
0.0
  3
*Model_Space
  1

  0
ENDBLK
  5
21
330
1F
100
AcDbEntity
  8
0
100
AcDbBlockEnd
  0
BLOCK
  5
1C
330
1B
100
AcDbEntity
 67
     1
  8
0
100
AcDbBlockBegin
  2
*Paper_Space
 70
     0
 10
0.0
 20
0.0
 30
0.0
  3
*Paper_Space
  1

  0
ENDBLK
  5
1D
330
1B
100
AcDbEntity
 67
     1
  8
0
100
AcDbBlockEnd
  0
BLOCK
  5
24
330
23
100
AcDbEntity
  8
0
100
AcDbBlockBegin
  2
*Paper_Space0
 70
     0
 10
0.0
 20
0.0
 30
0.0
  3
*Paper_Space0
  1

  0
ENDBLK
  5
25
330
23
100
AcDbEntity
  8
0
100
AcDbBlockEnd
  0
BLOCK
  5
265
330
264
100
AcDbEntity
  8
0
100
AcDbBlockBegin
  2
*D1
 70
     1
 10
0.0
 20
0.0
 30
0.0
  3
*D1
  1

  0
ARC
  5
267
330
264
100
AcDbEntity
  8
VERMASSUNG
100
AcDbCircle
 10
254.631290637
 20
66.6060318898
 30
0.0
 40
47.68315781033906
100
AcDbArc
 50
90.0
 51
95.0047861234
  0
ARC
  5
268
330
264
100
AcDbEntity
  8
VERMASSUNG
100
AcDbCircle
 10
254.631290637
 20
66.6060318898
 30
0.0
 40
47.68315781033905
100
AcDbArc
 50
82.803485719
 51
90.0
  0
ARC
  5
269
330
264
100
AcDbEntity
  8
VERMASSUNG
100
AcDbCircle
 10
254.631290637
 20
66.6060318898
 30
0.0
 40
47.68315781033906
100
AcDbArc
 50
95.0047861234
 51
102.2013004044
  0
SOLID
  5
26A
330
264
100
AcDbEntity
  8
VERMASSUNG
100
AcDbTrace
 10
254.631290637
 20
114.2891897001
 30
0.0
 11
257.6156753061
 21
113.7451785358
 31
0.0
 12
257.6439452711
 22
114.6447344313
 32
0.0
 13
257.6439452711
 23
114.6447344313
 33
0.0
  0
SOLID
  5
26B
330
264
100
AcDbEntity
  8
VERMASSUNG
100
AcDbTrace
 10
250.4714616267
 20
114.1073935689
 30
0.0
 11
247.439275645
 21
114.1987619036
 31
0.0
 12
247.5459141474
 22
113.3051018845
 32
0.0
 13
247.5459141474
 23
113.3051018845
 33
0.0
  0
LINE
  5
26C
330
264
100
AcDbEntity
  8
VERMASSUNG
100
AcDbLine
 10
254.631290637
 20
107.3154061783
 30
0.0
 11
254.631290637
 21
115.2891897001
 31
0.0
  0
MTEXT
  5
26D
330
264
100
AcDbEntity
  8
VERMASSUNG
100
AcDbMText
 10
251.1383477315
 20
116.7626486901
 30
0.0
 40
2.0
 41
0.0
 71
     1
 72
     1
  1
5°
  7
SLDTEXTSTYLE0
 11
0.9990463988679614
 21
0.0436611143806266
 31
0.0
 73
     1
 44
1.0
  0
ENDBLK
  5
266
330
264
100
AcDbEntity
  8
0
100
AcDbBlockEnd
  0
BLOCK
  5
271
330
270
100
AcDbEntity
  8
0
100
AcDbBlockBegin
  2
*D2
 70
     1
 10
0.0
 20
0.0
 30
0.0
  3
*D2
  1

  0
SOLID
  5
273
330
270
100
AcDbEntity
  8
VERMASSUNG
100
AcDbTrace
 10
254.631290637
 20
158.2555180506
 30
0.0
 11
251.631290637
 21
158.7055180506
 31
0.0
 12
251.631290637
 22
157.8055180506
 32
0.0
 13
251.631290637
 23
157.8055180506
 33
0.0
  0
SOLID
  5
274
330
270
100
AcDbEntity
  8
VERMASSUNG
100
AcDbTrace
 10
184.631290637
 20
158.2555180506
 30
0.0
 11
187.631290637
 21
157.8055180506
 31
0.0
 12
187.631290637
 22
158.7055180506
 32
0.0
 13
187.631290637
 23
158.7055180506
 33
0.0
  0
LINE
  5
275
330
270
100
AcDbEntity
  8
VERMASSUNG
100
AcDbLine
 10
254.631290637
 20
77.9242174532
 30
0.0
 11
254.631290637
 21
159.2555180506
 31
0.0
  0
LINE
  5
276
330
270
100
AcDbEntity
  8
VERMASSUNG
100
AcDbLine
 10
184.631290637
 20
154.1242174532
 30
0.0
 11
184.631290637
 21
159.2555180506
 31
0.0
  0
LINE
  5
277
330
270
100
AcDbEntity
  8
VERMASSUNG
100
AcDbLine
 10
254.631290637
 20
158.2555180506
 30
0.0
 11
184.631290637
 21
158.2555180506
 31
0.0
  0
MTEXT
  5
278
330
270
100
AcDbEntity
  8
VERMASSUNG
100
AcDbMText
 10
218.2320665494
 20
160.8336534138
 30
0.0
 40
2.0
 41
0.0
 71
     1
 72
     1
  1
70
  7
SLDTEXTSTYLE0
 73
     1
 44
1.0
  0
ENDBLK
  5
272
330
270
100
AcDbEntity
  8
0
100
AcDbBlockEnd
  0
BLOCK
  5
27B
330
27A
100
AcDbEntity
  8
0
100
AcDbBlockBegin
  2
*D3
 70
     1
 10
0.0
 20
0.0
 30
0.0
  3
*D3
  1

  0
SOLID
  5
27D
330
27A
100
AcDbEntity
  8
VERMASSUNG
100
AcDbTrace
 10
254.631290637
 20
164.2555180506
 30
0.0
 11
251.631290637
 21
164.7055180506
 31
0.0
 12
251.631290637
 22
163.8055180506
 32
0.0
 13
251.631290637
 23
163.8055180506
 33
0.0
  0
SOLID
  5
27E
330
27A
100
AcDbEntity
  8
VERMASSUNG
100
AcDbTrace
 10
152.731290637
 20
164.2555180506
 30
0.0
 11
155.731290637
 21
163.8055180506
 31
0.0
 12
155.731290637
 22
164.7055180506
 32
0.0
 13
155.731290637
 23
164.7055180506
 33
0.0
  0
LINE
  5
27F
330
27A
100
AcDbEntity
  8
VERMASSUNG
100
AcDbLine
 10
254.631290637
 20
77.9242174532
 30
0.0
 11
254.631290637
 21
165.2555180506
 31
0.0
  0
LINE
  5
280
330
27A
100
AcDbEntity
  8
VERMASSUNG
100
AcDbLine
 10
152.731290637
 20
142.6148951997
 30
0.0
 11
152.731290637
 21
165.2555180506
 31
0.0
  0
LINE
  5
281
330
27A
100
AcDbEntity
  8
VERMASSUNG
100
AcDbLine
 10
254.631290637
 20
164.2555180506
 30
0.0
 11
152.731290637
 21
164.2555180506
 31
0.0
  0
MTEXT
  5
282
330
27A
100
AcDbEntity
  8
VERMASSUNG
100
AcDbMText
 10
200.9823483012
 20
166.8336534138
 30
0.0
 40
2.0
 41
0.0
 71
     1
 72
     1
  1
101.9
  7
SLDTEXTSTYLE0
 73
     1
 44
1.0
  0
ENDBLK
  5
27C
330
27A
100
AcDbEntity
  8
0
100
AcDbBlockEnd
  0
BLOCK
  5
285
330
284
100
AcDbEntity
  8
0
100
AcDbBlockBegin
  2
*D4
 70
     1
 10
0.0
 20
0.0
 30
0.0
  3
*D4
  1

  0
SOLID
  5
287
330
284
100
AcDbEntity
  8
VERMASSUNG
100
AcDbTrace
 10
262.2653573793
 20
122.9242174532
 30
0.0
 11
261.8153573793
 21
119.9242174532
 31
0.0
 12
262.7153573793
 22
119.9242174532
 32
0.0
 13
262.7153573793
 23
119.9242174532
 33
0.0
  0
SOLID
  5
288
330
284
100
AcDbEntity
  8
VERMASSUNG
100
AcDbTrace
 10
262.2653573793
 20
77.9242174532
 30
0.0
 11
262.7153573793
 21
80.9242174532
 31
0.0
 12
261.8153573793
 22
80.9242174532
 32
0.0
 13
261.8153573793
 23
80.9242174532
 33
0.0
  0
LINE
  5
289
330
284
100
AcDbEntity
  8
VERMASSUNG
100
AcDbLine
 10
252.994240754
 20
122.9242174532
 30
0.0
 11
263.2653573793
 21
122.9242174532
 31
0.0
  0
LINE
  5
28A
330
284
100
AcDbEntity
  8
VERMASSUNG
100
AcDbLine
 10
254.631290637
 20
77.9242174532
 30
0.0
 11
263.2653573793
 21
77.9242174532
 31
0.0
  0
LINE
  5
28B
330
284
100
AcDbEntity
  8
VERMASSUNG
100
AcDbLine
 10
262.2653573793
 20
122.9242174532
 30
0.0
 11
262.2653573793
 21
77.9242174532
 31
0.0
  0
MTEXT
  5
28C
330
284
100
AcDbEntity
  8
VERMASSUNG
100
AcDbMText
 10
259.6872220162
 20
98.9242590591
 30
0.0
 40
2.0
 41
0.0
 71
     1
 72
     1
  1
45
  7
SLDTEXTSTYLE0
 11
-7.044195017643634E-15
 21
1.0
 31
0.0
 73
     1
 44
1.0
  0
ENDBLK
  5
286
330
284
100
AcDbEntity
  8
0
100
AcDbBlockEnd
  0
BLOCK
  5
28F
330
28E
100
AcDbEntity
  8
0
100
AcDbBlockBegin
  2
*D5
 70
     1
 10
0.0
 20
0.0
 30
0.0
  3
*D5
  1

  0
SOLID
  5
291
330
28E
100
AcDbEntity
  8
VERMASSUNG
100
AcDbTrace
 10
145.4994020443
 20
154.4242174532
 30
0.0
 11
145.0494020443
 21
151.4242174532
 31
0.0
 12
145.9494020443
 22
151.4242174532
 32
0.0
 13
145.9494020443
 23
151.4242174532
 33
0.0
  0
SOLID
  5
292
330
28E
100
AcDbEntity
  8
VERMASSUNG
100
AcDbTrace
 10
145.4994020443
 20
91.4242174532
 30
0.0
 11
145.9494020443
 21
94.4242174532
 31
0.0
 12
145.0494020443
 22
94.4242174532
 32
0.0
 13
145.0494020443
 23
94.4242174532
 33
0.0
  0
LINE
  5
293
330
28E
100
AcDbEntity
  8
VERMASSUNG
100
AcDbLine
 10
184.931290637
 20
154.4242174532
 30
0.0
 11
144.4994020443
 21
154.4242174532
 31
0.0
  0
LINE
  5
294
330
28E
100
AcDbEntity
  8
VERMASSUNG
100
AcDbLine
 10
184.931290637
 20
91.4242174532
 30
0.0
 11
144.4994020443
 21
91.4242174532
 31
0.0
  0
LINE
  5
295
330
28E
100
AcDbEntity
  8
VERMASSUNG
100
AcDbLine
 10
145.4994020443
 20
154.4242174532
 30
0.0
 11
145.4994020443
 21
91.4242174532
 31
0.0
  0
MTEXT
  5
296
330
28E
100
AcDbEntity
  8
VERMASSUNG
100
AcDbMText
 10
142.7212665553
 20
115.220499935
 30
0.0
 40
2.0
 41
0.0
 71
     1
 72
     1
  1
HSK A 
  7
SLDTEXTSTYLE0
 11
-7.044195017643634E-15
 21
1.0
 31
0.0
 73
     1
 44
1.0
  0
MTEXT
  5
297
330
28E
100
AcDbEntity
  8
VERMASSUNG
100
AcDbMText
 10
142.9212665648
 20
124.2205004789
 30
0.0
 40
2.0
 41
0.0
 71
     1
 72
     1
  1
%%c
  7
SLDTEXTSTYLE0
 11
-7.044195017643634E-15
 21
1.0
 31
0.0
 73
     1
 44
1.0
  0
MTEXT
  5
298
330
28E
100
AcDbEntity
  8
VERMASSUNG
100
AcDbMText
 10
142.9212666812
 20
127.8294867963
 30
0.0
 40
2.0
 41
0.0
 71
     1
 72
     1
  1
63
  7
SLDTEXTSTYLE0
 11
-7.044195017643634E-15
 21
1.0
 31
0.0
 73
     1
 44
1.0
  0
ENDBLK
  5
290
330
28E
100
AcDbEntity
  8
0
100
AcDbBlockEnd
  0
BLOCK
  5
311
330
310
100
AcDbEntity
  8
0
100
AcDbBlockBegin
  2
*D6
 70
     1
 10
0.0
 20
0.0
 30
0.0
  3
*D6
  1

  0
SOLID
  5
313
330
310
100
AcDbEntity
  8
VERMASSUNG
100
AcDbTrace
 10
29.6215415519
 20
77.9511850667
 30
0.0
 11
30.0715415519
 21
80.9511850667
 31
0.0
 12
29.1715415519
 22
80.9511850667
 32
0.0
 13
29.1715415519
 23
80.9511850667
 33
0.0
  0
SOLID
  5
314
330
310
100
AcDbEntity
  8
VERMASSUNG
100
AcDbTrace
 10
29.6215415519
 20
157.9511850667
 30
0.0
 11
29.1715415519
 21
154.9511850667
 31
0.0
 12
30.0715415519
 22
154.9511850667
 32
0.0
 13
30.0715415519
 23
154.9511850667
 33
0.0
  0
LINE
  5
315
330
310
100
AcDbEntity
  8
VERMASSUNG
100
AcDbLine
 10
76.0945739384
 20
77.9511850667
 30
0.0
 11
28.6215415519
 21
77.9511850667
 31
0.0
  0
LINE
  5
316
330
310
100
AcDbEntity
  8
VERMASSUNG
100
AcDbLine
 10
76.0945739384
 20
157.9511850667
 30
0.0
 11
28.6215415519
 21
157.9511850667
 31
0.0
  0
LINE
  5
317
330
310
100
AcDbEntity
  8
VERMASSUNG
100
AcDbLine
 10
29.6215415519
 20
77.9511850667
 30
0.0
 11
29.6215415519
 21
157.9511850667
 31
0.0
  0
MTEXT
  5
318
330
310
100
AcDbEntity
  8
VERMASSUNG
100
AcDbMText
 10
27.0434060724
 20
114.7473427309
 30
0.0
 40
2.0
 41
0.0
 71
     1
 72
     1
  1
%%c
  7
SLDTEXTSTYLE0
 11
-7.044195017643634E-15
 21
1.0
 31
0.0
 73
     1
 44
1.0
  0
MTEXT
  5
319
330
310
100
AcDbEntity
  8
VERMASSUNG
100
AcDbMText
 10
27.0434061888
 20
118.3565792273
 30
0.0
 40
2.0
 41
0.0
 71
     1
 72
     1
  1
80
  7
SLDTEXTSTYLE0
 11
-7.044195017643634E-15
 21
1.0
 31
0.0
 73
     1
 44
1.0
  0
ENDBLK
  5
312
330
310
100
AcDbEntity
  8
0
100
AcDbBlockEnd
  0
BLOCK
  5
31B
330
31A
100
AcDbEntity
  8
0
100
AcDbBlockBegin
  2
SW_CENTERMARKSYMBOL_0
 70
     0
 10
0.0
 20
0.0
 30
0.0
  3
SW_CENTERMARKSYMBOL_0
  1

  0
LINE
  5
31D
330
31A
100
AcDbEntity
  8
VERMASSUNG
 62
     0
100
AcDbLine
 10
0.0
 20
0.0
 30
0.0
 11
0.0
 21
2.5
 31
0.0
  0
LINE
  5
31E
330
31A
100
AcDbEntity
  8
VERMASSUNG
 62
     0
100
AcDbLine
 10
0.0
 20
0.0
 30
0.0
 11
-2.5
 21
0.0
 31
0.0
  0
LINE
  5
31F
330
31A
100
AcDbEntity
  8
VERMASSUNG
 62
     0
100
AcDbLine
 10
0.0
 20
0.0
 30
0.0
 11
0.0
 21
-2.5
 31
0.0
  0
LINE
  5
320
330
31A
100
AcDbEntity
  8
VERMASSUNG
 62
     0
100
AcDbLine
 10
0.0
 20
0.0
 30
0.0
 11
2.5
 21
0.0
 31
0.0
  0
LINE
  5
321
330
31A
100
AcDbEntity
  8
VERMASSUNG
 62
     0
100
AcDbLine
 10
0.0
 20
5.0
 30
0.0
 11
0.0
 21
34.0
 31
0.0
  0
LINE
  5
322
330
31A
100
AcDbEntity
  8
VERMASSUNG
 62
     0
100
AcDbLine
 10
-5.0
 20
0.0
 30
0.0
 11
-34.0
 21
0.0
 31
0.0
  0
LINE
  5
323
330
31A
100
AcDbEntity
  8
VERMASSUNG
 62
     0
100
AcDbLine
 10
0.0
 20
-5.0
 30
0.0
 11
0.0
 21
-46.6053247128
 31
0.0
  0
LINE
  5
324
330
31A
100
AcDbEntity
  8
VERMASSUNG
 62
     0
100
AcDbLine
 10
5.0
 20
0.0
 30
0.0
 11
34.0
 21
0.0
 31
0.0
  0
ENDBLK
  5
31C
330
31A
100
AcDbEntity
  8
0
100
AcDbBlockEnd
  0
ENDSEC
  0
SECTION
  2
ENTITIES
  0
MTEXT
  5
45
330
1F
100
AcDbEntity
  8
KOPF_DÜNN
100
AcDbMText
 10
13.8892156294
 20
23.8442973028
 30
0.0
 40
3.0
 41
0.0
 71
     1
 72
     1
  1
HA6.PCD.LLA.070
  7
SLDTEXTSTYLE0
 73
     1
 44
1.0
  0
MTEXT
  5
46
330
1F
100
AcDbEntity
  8
VERMASSUNG
100
AcDbMText
 10
13.9329988022
 20
28.8834360957
 30
0.0
 40
3.0
 41
0.0
 71
     1
 72
     1
  1
Klemmhalter links_Turning tool left 95° /80° /95°
  7
SLDTEXTSTYLE0
 73
     1
 44
1.0
  0
MTEXT
  5
47
330
1F
100
AcDbEntity
  8
VERMASSUNG
100
AcDbMText
 10
98.8601118557
 20
13.8365368179
 30
0.0
 40
2.0
 41
0.0
 71
     1
 72
     1
  1
Datum: 20.09.2010
  7
SLDTEXTSTYLE0
 73
     1
 44
1.0
  0
MTEXT
  5
49
330
1F
100
AcDbEntity
  8
VERMASSUNG
100
AcDbMText
 10
13.933048693
 20
18.0482802738
 30
0.0
 40
2.0
 41
0.0
 71
     1
 72
     1
  1
DIN 69893 HSK 63 A ICTM / CN.. 12 04..
  7
SLDTEXTSTYLE1
 73
     1
 44
1.0
  0
MTEXT
  5
4A
330
1F
100
AcDbEntity
  8
VERMASSUNG
100
AcDbMText
 10
13.9808475933
 20
13.9090973692
 30
0.0
 40
2.0
 41
0.0
 71
     1
 72
     1
  1
Gewicht: 1141g
  7
SLDTEXTSTYLE0
 73
     1
 44
1.0
  0
LINE
  5
4B
330
1F
100
AcDbEntity
  8
0
  6
Continuous
 62
     7
370
    15
100
AcDbLine
 10
248.8223116622
 20
86.9556716289
 30
0.0
 11
248.4190191851
 21
87.2376202252
 31
0.0
  0
LINE
  5
4C
330
1F
100
AcDbEntity
  8
0
  6
Continuous
 62
     7
370
    15
100
AcDbLine
 10
245.2842842564
 20
83.9384994116
 30
0.0
 11
246.2319310532
 21
83.2759788837
 31
0.0
  0
LINE
  5
4D
330
1F
100
AcDbEntity
  8
0
  6
Continuous
 62
     7
370
    15
100
AcDbLine
 10
240.4743198082
 20
93.9126754757
 30
0.0
 11
240.4749493823
 21
93.9120514896
 31
0.0
  0
LINE
  5
4E
330
1F
100
AcDbEntity
  8
0
  6
Continuous
 62
     7
370
    15
100
AcDbLine
 10
246.1162458882
 20
99.5844206419
 30
0.0
 11
246.1156163142
 21
99.585044628
 31
0.0
  0
LINE
  5
4F
330
1F
100
AcDbEntity
  8
0
  6
Continuous
 62
     7
370
    15
100
AcDbLine
 10
253.4681658969
 20
90.5658132043
 30
0.0
 11
252.970608674
 21
91.0606435146
 31
0.0
  0
LINE
  5
50
330
1F
100
AcDbEntity
  8
0
  6
Continuous
 62
     7
370
    15
100
AcDbLine
 10
241.4822082744
 20
79.4491185453
 30
0.0
 11
241.9797654972
 21
78.9542919602
 31
0.0
  0
LINE
  5
51
330
1F
100
AcDbEntity
  8
0
  6
Continuous
 62
     7
370
    15
100
AcDbLine
 10
184.9312906513
 20
91.4242169466
 30
0.0
 11
189.5812906102
 21
91.4242169466
 31
0.0
  0
LINE
  5
52
330
1F
100
AcDbEntity
  8
0
  6
Continuous
 62
     7
370
    15
100
AcDbLine
 10
189.5854950659
 20
154.4242179599
 30
0.0
 11
184.9312906513
 21
154.4242179599
 31
0.0
  0
ARC
  5
53
330
1F
100
AcDbEntity
  8
0
  6
Continuous
 62
     7
370
    15
100
AcDbCircle
 10
184.931290637
 20
91.7242174532
 30
0.0
 40
0.3000000000000114
100
AcDbArc
 50
180.0
 51
270.0
  0
ARC
  5
54
330
1F
100
AcDbEntity
  8
0
  6
Continuous
 62
     7
370
    15
100
AcDbCircle
 10
184.931290637
 20
154.1242174532
 30
0.0
 40
0.3000000000000114
100
AcDbArc
 50
90.0
 51
180.0
  0
ARC
  5
55
330
1F
100
AcDbEntity
  8
0
  6
Continuous
 62
     7
370
    15
100
AcDbCircle
 10
211.581290637
 20
95.9242174532
 30
0.0
 40
1.000000000000017
100
AcDbArc
 50
90.0
 51
143.1139143113
  0
ARC
  5
56
330
1F
100
AcDbEntity
  8
0
  6
Continuous
 62
     7
370
    15
100
AcDbCircle
 10
211.581290637
 20
149.9242174532
 30
0.0
 40
1.000000000000009
100
AcDbArc
 50
216.8996843908
 51
270.0
  0
LINE
  5
57
330
1F
100
AcDbEntity
  8
0
  6
Continuous
 62
     7
370
    15
100
AcDbLine
 10
211.581290491
 20
96.9242169168
 30
0.0
 11
225.8639622257
 21
96.9242169168
 31
0.0
  0
LINE
  5
58
330
1F
100
AcDbEntity
  8
0
  6
Continuous
 62
     7
370
    15
100
AcDbLine
 10
225.8639622257
 20
148.9242179897
 30
0.0
 11
211.581290491
 21
148.9242179897
 31
0.0
  0
ARC
  5
59
330
1F
100
AcDbEntity
  8
0
  6
Continuous
 62
     7
370
    15
100
AcDbCircle
 10
184.131290637
 20
98.3537865915
 30
0.0
 40
0.5999999999999943
100
AcDbArc
 50
33.5573097619
 51
90.0
  0
ARC
  5
5A
330
1F
100
AcDbEntity
  8
0
  6
Continuous
 62
     7
370
    15
100
AcDbCircle
 10
184.131290637
 20
147.4946483149
 30
0.0
 40
0.6000000000000227
100
AcDbArc
 50
270.0
 51
326.4426902381
  0
LINE
  5
5B
330
1F
100
AcDbEntity
  8
0
  6
Continuous
 62
     7
370
    15
100
AcDbLine
 10
182.631290542
 20
98.7037862297
 30
0.0
 11
183.4880034682
 21
98.9333423432
 31
0.0
  0
LINE
  5
5C
330
1F
100
AcDbEntity
  8
0
  6
Continuous
 62
     7
370
    15
100
AcDbLine
 10
183.4880034682
 20
146.9150925632
 30
0.0
 11
182.631290542
 21
147.1446486767
 31
0.0
  0
LINE
  5
5D
330
1F
100
AcDbEntity
  8
0
  6
Continuous
 62
     7
370
    15
100
AcDbLine
 10
171.3997822032
 20
146.5819473024
 30
0.0
 11
158.8312897608
 21
145.9522633459
 31
0.0
  0
LINE
  5
5E
330
1F
100
AcDbEntity
  8
0
  6
Continuous
 62
     7
370
    15
100
AcDbLine
 10
182.631290542
 20
147.1446486767
 30
0.0
 11
179.8142891154
 21
147.0035160538
 31
0.0
  0
LINE
  5
5F
330
1F
100
AcDbEntity
  8
0
  6
Continuous
 62
     7
370
    15
100
AcDbLine
 10
179.8143449948
 20
98.84491699
 30
0.0
 11
182.631290542
 21
98.7037862297
 31
0.0
  0
LINE
  5
60
330
1F
100
AcDbEntity
  8
0
  6
Continuous
 62
     7
370
    15
100
AcDbLine
 10
162.8312904165
 20
99.6957714315
 30
0.0
 11
171.4001845345
 21
99.2664671149
 31
0.0
  0
ARC
  5
61
330
1F
100
AcDbEntity
  8
0
  6
Continuous
 62
     7
370
    15
100
AcDbCircle
 10
183.6432948375
 20
98.3537865915
 30
0.0
 40
0.6000000000000145
100
AcDbArc
 50
90.0
 51
105.0
  0
ARC
  5
62
330
1F
100
AcDbEntity
  8
0
  6
Continuous
 62
     7
370
    15
100
AcDbCircle
 10
183.6432948375
 20
147.4946483149
 30
0.0
 40
0.6000000000000282
100
AcDbArc
 50
255.0
 51
270.0
  0
LINE
  5
63
330
1F
100
AcDbEntity
  8
0
  6
Continuous
 62
     7
370
    15
100
AcDbLine
 10
183.6432948718
 20
98.9537867363
 30
0.0
 11
184.1312906133
 21
98.9537867363
 31
0.0
  0
LINE
  5
64
330
1F
100
AcDbEntity
  8
0
  6
Continuous
 62
     7
370
    15
100
AcDbLine
 10
184.1312906133
 20
146.8946481701
 30
0.0
 11
183.6432948718
 21
146.8946481701
 31
0.0
  0
LINE
  5
65
330
1F
100
AcDbEntity
  8
0
  6
Continuous
 62
     7
370
    15
100
AcDbLine
 10
153.8812897876
 20
102.111717185
 30
0.0
 11
161.4312909321
 21
102.111717185
 31
0.0
  0
ARC
  5
66
330
1F
100
AcDbEntity
  8
0
  6
Continuous
 62
     7
370
    15
100
AcDbCircle
 10
161.431290637
 20
100.7117174532
 30
0.0
 40
1.400000000000006
100
AcDbArc
 50
37.6443616934
 51
90.0
  0
ARC
  5
67
330
1F
100
AcDbEntity
  8
0
  6
Continuous
 62
     7
370
    15
100
AcDbCircle
 10
225.863963649
 20
149.9242174532
 30
0.0
 40
1.00000000000001
100
AcDbArc
 50
270.0
 51
345.0
  0
ARC
  5
68
330
1F
100
AcDbEntity
  8
0
  6
Continuous
 62
     7
370
    15
100
AcDbCircle
 10
225.863963649
 20
95.9242174532
 30
0.0
 40
0.9999999999999993
100
AcDbArc
 50
15.0
 51
90.0
  0
LINE
  5
69
330
1F
100
AcDbEntity
  8
0
  6
Continuous
 62
     7
370
    15
100
AcDbLine
 10
153.8724533991
 20
143.7853811886
 30
0.0
 11
152.7411926315
 21
142.6541185584
 31
0.0
  0
LINE
  5
6A
330
1F
100
AcDbEntity
  8
0
  6
Continuous
 62
     7
370
    15
100
AcDbLine
 10
226.8992390261
 20
149.9242181536
 30
0.0
 11
226.8298890219
 21
149.6653980222
 31
0.0
  0
LINE
  5
6B
330
1F
100
AcDbEntity
  8
0
  6
Continuous
 62
     7
370
    15
100
AcDbLine
 10
226.8298890219
 20
96.1830368843
 30
0.0
 11
230.9588741288
 21
80.7734555211
 31
0.0
  0
LINE
  5
6C
330
1F
100
AcDbEntity
  8
0
  6
Continuous
 62
     7
370
    15
100
AcDbLine
 10
228.0675831959
 20
149.9242181536
 30
0.0
 11
226.8992390261
 21
149.9242181536
 31
0.0
  0
LINE
  5
6D
330
1F
100
AcDbEntity
  8
0
  6
Continuous
 62
     7
370
    15
100
AcDbLine
 10
152.7287091837
 20
103.264297789
 30
0.0
 11
153.8812897876
 21
102.111717185
 31
0.0
  0
ARC
  5
6E
330
1F
100
AcDbEntity
  8
0
  6
Continuous
 62
     7
370
    15
100
AcDbCircle
 10
157.431290637
 20
145.1942174532
 30
0.0
 40
1.399999999999977
100
AcDbArc
 50
270.0
 51
301.7485287426
  0
LINE
  5
6F
330
1F
100
AcDbEntity
  8
0
  6
Continuous
 62
     7
370
    15
100
AcDbLine
 10
157.4312902764
 20
143.7942175772
 30
0.0
 11
154.0221784041
 21
143.7942175772
 31
0.0
  0
LINE
  5
70
330
1F
100
AcDbEntity
  8
0
  6
Continuous
 62
     7
370
    15
100
AcDbLine
 10
230.9967677817
 20
80.6962824073
 30
0.0
 11
241.7658779547
 21
79.8724195566
 31
0.0
  0
LINE
  5
71
330
1F
100
AcDbEntity
  8
0
  6
Continuous
 62
     7
370
    15
100
AcDbLine
 10
245.1628286168
 20
84.8876624014
 30
0.0
 11
245.3108455763
 21
84.7841812875
 31
0.0
  0
LINE
  5
72
330
1F
100
AcDbEntity
  8
0
  6
Continuous
 62
     7
370
    15
100
AcDbLine
 10
245.3108455763
 20
84.7841812875
 30
0.0
 11
245.6313956306
 21
83.9056498017
 31
0.0
  0
LINE
  5
73
330
1F
100
AcDbEntity
  8
0
  6
Continuous
 62
     7
370
    15
100
AcDbLine
 10
245.6313956306
 20
83.9056498017
 30
0.0
 11
245.2928039954
 21
84.1423659231
 31
0.0
  0
ELLIPSE
  5
74
330
1F
100
AcDbEntity
  8
0
  6
Continuous
 62
     7
370
    15
100
AcDbEllipse
 10
247.5271193636
 20
85.1158248385
 30
0.0
 11
1.548637656914963
 21
1.632998461080376
 31
0.0
210
0.0
220
0.0
230
1.0
 40
0.9888704261
 41
6.03680129905099
 42
6.855934243217417
  0
ELLIPSE
  5
75
330
1F
100
AcDbEntity
  8
0
  6
Continuous
 62
     7
370
    15
100
AcDbEllipse
 10
247.5271193636
 20
85.1158248385
 30
0.0
 11
1.548637656914963
 21
1.632998461080376
 31
0.0
210
0.0
220
0.0
230
1.0
 40
0.9888704261
 41
1.956400702829884
 42
2.472786884742828
  0
ELLIPSE
  5
76
330
1F
100
AcDbEntity
  8
0
  6
Continuous
 62
     7
370
    15
100
AcDbEllipse
 10
247.5271193636
 20
85.1158248385
 30
0.0
 11
1.548637656914963
 21
1.632998461080376
 31
0.0
210
0.0
220
0.0
230
1.0
 40
0.9888704261
 41
2.895208645461183
 42
5.61437953833264
  0
LINE
  5
77
330
1F
100
AcDbEntity
  8
0
  6
Continuous
 62
     7
370
    15
100
AcDbLine
 10
249.7433971391
 20
85.4474692251
 30
0.0
 11
249.4228433595
 21
86.3260007109
 31
0.0
  0
LINE
  5
78
330
1F
100
AcDbEntity
  8
0
  6
Continuous
 62
     7
370
    15
100
AcDbLine
 10
248.8084833846
 20
86.9346647169
 30
0.0
 11
248.725089036
 21
87.1220281925
 31
0.0
  0
LINE
  5
79
330
1F
100
AcDbEntity
  8
0
  6
Continuous
 62
     7
370
    15
100
AcDbLine
 10
249.2003764734
 20
86.874814203
 30
0.0
 11
249.2322426066
 21
86.7874859478
 31
0.0
  0
LINE
  5
7A
330
1F
100
AcDbEntity
  8
0
  6
Continuous
 62
     7
370
    15
100
AcDbLine
 10
249.2322426066
 20
86.7874859478
 30
0.0
 11
249.3293162212
 21
86.4625810292
 31
0.0
  0
ARC
  5
7B
330
1F
100
AcDbEntity
  8
0
  6
Continuous
 62
     7
370
    15
100
AcDbCircle
 10
246.487602351
 20
85.7761263993
 30
0.0
 40
2.886833851898261
100
AcDbArc
 50
263.5722640589
 51
280.1862327091
  0
CIRCLE
  5
7C
330
1F
100
AcDbEntity
  8
0
  6
Continuous
 62
     7
370
    15
100
AcDbCircle
 10
243.3065090542
 20
96.7837898682
 30
0.0
 40
3.969730861769443
  0
CIRCLE
  5
7D
330
1F
100
AcDbEntity
  8
0
  6
Continuous
 62
     7
370
    15
100
AcDbCircle
 10
243.3576017883
 20
96.7271807646
 30
0.0
 40
3.473397876145176
  0
CIRCLE
  5
7E
330
1F
100
AcDbEntity
  8
0
  6
Continuous
 62
     7
370
    15
100
AcDbCircle
 10
243.3542811674
 20
96.7134555063
 30
0.0
 40
1.984157957139927
  0
SPLINE
  5
7F
330
1F
100
AcDbEntity
  8
0
  6
Continuous
 62
     7
370
    15
100
AcDbSpline
210
0.0
220
0.0
230
1.0
 70
     8
 71
     3
 72
    11
 73
     7
 74
     0
 42
0.00000001
 43
0.00000001
 40
0.0
 40
0.0
 40
0.0
 40
0.0
 40
0.1081098475788483
 40
0.471157528265614
 40
0.8135816202087072
 40
1.0
 40
1.0
 40
1.0
 40
1.0
 10
241.6234601066021
 20
97.00459564290037
 30
0.0
 10
241.6404528121843
 20
96.95300311263082
 30
0.0
 10
241.7145093513427
 20
96.72815579683899
 30
0.0
 10
241.8664165789229
 20
96.28922724896492
 30
0.0
 10
242.0611003775362
 20
95.77405704194999
 30
0.0
 10
242.1731228293808
 20
95.49186290631768
 30
0.0
 10
242.2126110420136
 20
95.39238872191896
 30
0.0
  0
SPLINE
  5
80
330
1F
100
AcDbEntity
  8
0
  6
Continuous
 62
     7
370
    15
100
AcDbSpline
210
0.0
220
0.0
230
1.0
 70
     8
 71
     3
 72
    10
 73
     6
 74
     0
 42
0.00000001
 43
0.00000001
 40
0.0
 40
0.0
 40
0.0
 40
0.0
 40
0.4391168157239331
 40
0.7513662313951431
 40
1.0
 40
1.0
 40
1.0
 40
1.0
 10
242.2126110420136
 20
95.39238872191896
 30
0.0
 10
242.4447243838803
 20
95.36291605591695
 30
0.0
 10
242.8418900598232
 20
95.31248581687777
 30
0.0
 10
243.4541183729576
 20
95.20448337878787
 30
0.0
 10
243.7692910967195
 20
95.14034009006912
 30
0.0
 10
243.9090039358048
 20
95.11190602741232
 30
0.0
  0
SPLINE
  5
81
330
1F
100
AcDbEntity
  8
0
  6
Continuous
 62
     7
370
    15
100
AcDbSpline
210
0.0
220
0.0
230
1.0
 70
     8
 71
     3
 72
    10
 73
     6
 74
     0
 42
0.00000001
 43
0.00000001
 40
0.0
 40
0.0
 40
0.0
 40
0.0
 40
0.439116062072567
 40
0.7513676757700137
 40
1.0
 40
1.0
 40
1.0
 40
1.0
 10
243.9090039358048
 20
95.11190602741232
 30
0.0
 10
244.0567743192405
 20
95.31323301825198
 30
0.0
 10
244.3096229374981
 20
95.65772188177247
 30
0.0
 10
244.7120672503555
 20
96.12380488042679
 30
0.0
 10
244.9228214051017
 20
96.34540007659673
 30
0.0
 10
245.0162458941845
 20
96.44363025388708
 30
0.0
  0
SPLINE
  5
82
330
1F
100
AcDbEntity
  8
0
  6
Continuous
 62
     7
370
    15
100
AcDbSpline
210
0.0
220
0.0
230
1.0
 70
     8
 71
     3
 72
    11
 73
     7
 74
     0
 42
0.00000001
 43
0.00000001
 40
0.0
 40
0.0
 40
0.0
 40
0.0
 40
0.1864184425720567
 40
0.528841616608057
 40
0.8918893067061536
 40
1.0
 40
1.0
 40
1.0
 40
1.0
 10
245.0162458941845
 20
96.44363025388708
 30
0.0
 10
244.9767577056853
 20
96.54310443610935
 30
0.0
 10
244.8647355411678
 20
96.82529801423054
 30
0.0
 10
244.6700511367822
 20
97.34046756077095
 30
0.0
 10
244.5181436649197
 20
97.7793952490893
 30
0.0
 10
244.4440876468712
 20
98.00424400434665
 30
0.0
 10
244.4270949587731
 20
98.05583717486849
 30
0.0
  0
SPLINE
  5
83
330
1F
100
AcDbEntity
  8
0
  6
Continuous
 62
     7
370
    15
100
AcDbSpline
210
0.0
220
0.0
230
1.0
 70
     8
 71
     3
 72
    10
 73
     6
 74
     0
 42
0.00000001
 43
0.00000001
 40
0.0
 40
0.0
 40
0.0
 40
0.0
 40
0.4391164093212906
 40
0.7513665289692655
 40
0.9999999999999999
 40
0.9999999999999999
 40
0.9999999999999999
 40
0.9999999999999999
 10
244.4270949587731
 20
98.05583717486849
 30
0.0
 10
244.1735045295093
 20
98.10666971034847
 30
0.0
 10
243.7395891563393
 20
98.19364861829075
 30
0.0
 10
243.1436953626752
 20
98.2854032151784
 30
0.0
 10
242.8575480105152
 20
98.32068142879741
 30
0.0
 10
242.7307020649819
 20
98.33631986937513
 30
0.0
  0
SPLINE
  5
84
330
1F
100
AcDbEntity
  8
0
  6
Continuous
 62
     7
370
    15
100
AcDbSpline
210
0.0
220
0.0
230
1.0
 70
     8
 71
     3
 72
    10
 73
     6
 74
     0
 42
0.00000001
 43
0.00000001
 40
0.0
 40
0.0
 40
0.0
 40
0.0
 40
0.4391171707420869
 40
0.7513675417622706
 40
1.0
 40
1.0
 40
1.0
 40
1.0
 10
242.7307020649819
 20
98.33631986937513
 30
0.0
 10
242.5614530465614
 20
98.15635271547146
 30
0.0
 10
242.2718533055596
 20
97.84841331561142
 30
0.0
 10
241.8857453808498
 20
97.36608387859643
 30
0.0
 10
241.7040177359676
 20
97.1156222165222
 30
0.0
 10
241.6234601066021
 20
97.00459564290037
 30
0.0
  0
LINE
  5
85
330
1F
100
AcDbEntity
  8
0
  6
Continuous
 62
     7
370
    15
100
AcDbLine
 10
242.0769173429
 20
95.738293102
 30
0.0
 11
242.6707025394
 21
95.6401168015
 31
0.0
  0
LINE
  5
86
330
1F
100
AcDbEntity
  8
0
  6
Continuous
 62
     7
370
    15
100
AcDbLine
 10
242.6707025394
 20
95.6401168015
 30
0.0
 11
243.5188989863
 21
95.4998745229
 31
0.0
  0
LINE
  5
87
330
1F
100
AcDbEntity
  8
0
  6
Continuous
 62
     7
370
    15
100
AcDbLine
 10
243.5188989863
 20
95.4998745229
 30
0.0
 11
243.9090039358
 21
95.1119060274
 31
0.0
  0
LINE
  5
88
330
1F
100
AcDbEntity
  8
0
  6
Continuous
 62
     7
370
    15
100
AcDbLine
 10
244.6261409447
 20
96.8315987494
 30
0.0
 11
245.0162458942
 21
96.4436302539
 31
0.0
  0
LINE
  5
89
330
1F
100
AcDbEntity
  8
0
  6
Continuous
 62
     7
370
    15
100
AcDbLine
 10
244.6261409447
 20
96.8315987494
 30
0.0
 11
244.3315636144
 21
97.6377012785
 31
0.0
  0
LINE
  5
8A
330
1F
100
AcDbEntity
  8
0
  6
Continuous
 62
     7
370
    15
100
AcDbLine
 10
244.3315636144
 20
97.6377012785
 30
0.0
 11
244.160114579
 21
98.1068755146
 31
0.0
  0
LINE
  5
8B
330
1F
100
AcDbEntity
  8
0
  6
Continuous
 62
     7
370
    15
100
AcDbLine
 10
243.5188989863
 20
95.4998745229
 30
0.0
 11
244.0725181029
 21
96.1657366361
 31
0.0
  0
LINE
  5
8C
330
1F
100
AcDbEntity
  8
0
  6
Continuous
 62
     7
370
    15
100
AcDbLine
 10
244.0725181029
 20
96.1657366361
 30
0.0
 11
244.6261409447
 21
96.8315987494
 31
0.0
  0
ARC
  5
8D
330
1F
100
AcDbEntity
  8
0
  6
Continuous
 62
     7
370
    15
100
AcDbCircle
 10
242.9127339574
 20
97.1267390371
 30
0.0
 40
1.506195498211494
100
AcDbArc
 50
260.7530181798
 51
320.3547003967
  0
ARC
  5
8E
330
1F
100
AcDbEntity
  8
0
  6
Continuous
 62
     7
370
    15
100
AcDbCircle
 10
242.9098393929
 20
97.0931796101
 30
0.0
 40
1.472609235483242
100
AcDbArc
 50
230.2648476052
 51
260.6543586374
  0
ARC
  5
8F
330
1F
100
AcDbEntity
  8
0
  6
Continuous
 62
     7
370
    15
100
AcDbCircle
 10
242.9510367398
 20
97.1337238422
 30
0.0
 40
1.469642033829099
100
AcDbArc
 50
20.0551997493
 51
44.419091886
  0
ARC
  5
90
330
1F
100
AcDbEntity
  8
0
  6
Continuous
 62
     7
370
    15
100
AcDbCircle
 10
242.9218767132
 20
97.127010222
 30
0.0
 40
1.499340693291463
100
AcDbArc
 50
320.123803454
 51
19.9140682359
  0
LINE
  5
91
330
1F
100
AcDbEntity
  8
0
  6
Continuous
 62
     7
370
    15
100
AcDbLine
 10
240.8181529269
 20
91.1590284314
 30
0.0
 11
241.8655369208
 21
79.1988833453
 31
0.0
  0
ARC
  5
92
330
1F
100
AcDbEntity
  8
0
  6
Continuous
 62
     7
370
    15
100
AcDbCircle
 10
241.2193720744
 20
91.1931625237
 30
0.0
 40
0.4026685244445382
100
AcDbArc
 50
85.7637502553
 51
184.8627821747
  0
LINE
  5
93
330
1F
100
AcDbEntity
  8
0
  6
Continuous
 62
     7
370
    15
100
AcDbLine
 10
253.2207693682
 20
90.6788720395
 30
0.0
 11
241.2491168604
 21
91.5947309341
 31
0.0
  0
ARC
  5
94
330
1F
100
AcDbEntity
  8
0
  6
Continuous
 62
     7
370
    15
100
AcDbCircle
 10
253.1913857441
 20
90.2875187285
 30
0.0
 40
0.3924548527255723
100
AcDbArc
 50
4.9264936193
 51
85.7061696607
  0
LINE
  5
95
330
1F
100
AcDbEntity
  8
0
  6
Continuous
 62
     7
370
    15
100
AcDbLine
 10
254.6297784672
 20
78.3610767331
 30
0.0
 11
253.582390748
 21
90.3212218191
 31
0.0
  0
ARC
  5
96
330
1F
100
AcDbEntity
  8
0
  6
Continuous
 62
     7
370
    15
100
AcDbCircle
 10
254.2285557105
 20
78.3269457021
 30
0.0
 40
0.4026718611227232
100
AcDbArc
 50
265.7632373326
 51
4.8623046255
  0
LINE
  5
97
330
1F
100
AcDbEntity
  8
0
  6
Continuous
 62
     7
370
    15
100
AcDbLine
 10
242.2271583006
 20
78.8412331249
 30
0.0
 11
254.1988070831
 21
77.9253742304
 31
0.0
  0
ARC
  5
98
330
1F
100
AcDbEntity
  8
0
  6
Continuous
 62
     7
370
    15
100
AcDbCircle
 10
242.2565372742
 20
79.2325817338
 30
0.0
 40
0.3924498155472101
100
AcDbArc
 50
184.9258679636
 51
265.7067953163
  0
ARC
  5
99
330
1F
100
AcDbEntity
  8
0
  6
Continuous
 62
     7
370
    15
100
AcDbCircle
 10
254.2288024974
 20
78.3266968039
 30
0.0
 40
0.3825343776922078
100
AcDbArc
 50
265.7634595506
 51
4.8628649243
  0
LINE
  5
9A
330
1F
100
AcDbEntity
  8
0
  6
Continuous
 62
     7
370
    15
100
AcDbLine
 10
254.6099599228
 20
78.359124681
 30
0.0
 11
253.5625796542
 21
90.319269767
 31
0.0
  0
ARC
  5
9B
330
1F
100
AcDbEntity
  8
0
  6
Continuous
 62
     7
370
    15
100
AcDbCircle
 10
253.1911127216
 20
90.2872402499
 30
0.0
 40
0.3728452386887
100
AcDbArc
 50
4.9281059982
 51
85.7053628515
  0
LINE
  5
9C
330
1F
100
AcDbEntity
  8
0
  6
Continuous
 62
     7
370
    15
100
AcDbLine
 10
253.2190333829
 20
90.659038594
 30
0.0
 11
241.2473846004
 21
91.5748974886
 31
0.0
  0
ARC
  5
9D
330
1F
100
AcDbEntity
  8
0
  6
Continuous
 62
     7
370
    15
100
AcDbCircle
 10
241.2191286823
 20
91.1934048878
 30
0.0
 40
0.3825375816179413
100
AcDbArc
 50
85.7640224004
 51
184.8623020745
  0
LINE
  5
9E
330
1F
100
AcDbEntity
  8
0
  6
Continuous
 62
     7
370
    15
100
AcDbLine
 10
240.837967746
 20
91.1609804835
 30
0.0
 11
241.8853480146
 21
79.2008353975
 31
0.0
  0
ARC
  5
9F
330
1F
100
AcDbEntity
  8
0
  6
Continuous
 62
     7
370
    15
100
AcDbCircle
 10
242.2568085659
 20
79.2328581562
 30
0.0
 40
0.3728383003807519
100
AcDbArc
 50
184.9271554884
 51
265.7056921013
  0
LINE
  5
A0
330
1F
100
AcDbEntity
  8
0
  6
Continuous
 62
     7
370
    15
100
AcDbLine
 10
242.2288905606
 20
78.8610665705
 30
0.0
 11
254.2005430684
 21
77.9452076759
 31
0.0
  0
LINE
  5
A1
330
1F
100
AcDbEntity
  8
0
  6
Continuous
 62
     7
370
    15
100
AcDbLine
 10
240.3191279397
 20
91.694663709
 30
0.0
 11
240.3205957041
 21
91.6538587417
 31
0.0
  0
LINE
  5
A2
330
1F
100
AcDbEntity
  8
0
  6
Continuous
 62
     7
370
    15
100
AcDbLine
 10
241.1915126965
 20
91.2208607998
 30
0.0
 11
240.837967746
 21
91.1609804835
 31
0.0
  0
LINE
  5
A3
330
1F
100
AcDbEntity
  8
0
  6
Continuous
 62
     7
370
    15
100
AcDbLine
 10
241.1915126965
 20
91.2208607998
 30
0.0
 11
241.2473846004
 21
91.5748974886
 31
0.0
  0
LINE
  5
A4
330
1F
100
AcDbEntity
  8
0
  6
Continuous
 62
     7
370
    15
100
AcDbLine
 10
242.2388966904
 20
79.2607157137
 30
0.0
 11
241.8853480146
 21
79.2008353975
 31
0.0
  0
LINE
  5
A5
330
1F
100
AcDbEntity
  8
0
  6
Continuous
 62
     7
370
    15
100
AcDbLine
 10
242.05506479
 20
90.3670764174
 30
0.0
 11
241.1915126965
 21
91.2208607998
 31
0.0
  0
LINE
  5
A6
330
1F
100
AcDbEntity
  8
0
  6
Continuous
 62
     7
370
    15
100
AcDbLine
 10
242.7719410286
 20
79.87483727
 30
0.0
 11
242.2388966904
 21
79.2607157137
 31
0.0
  0
LINE
  5
A7
330
1F
100
AcDbEntity
  8
0
  6
Continuous
 62
     7
370
    15
100
AcDbLine
 10
252.7232121453
 20
91.1737023499
 30
0.0
 11
252.4781849012
 21
91.1924442854
 31
0.0
  0
LINE
  5
A8
330
1F
100
AcDbEntity
  8
0
  6
Continuous
 62
     7
370
    15
100
AcDbLine
 10
240.3205957041
 20
91.6538587417
 30
0.0
 11
240.6929496453
 21
87.4019353297
 31
0.0
  0
LINE
  5
A9
330
1F
100
AcDbEntity
  8
0
  6
Continuous
 62
     7
370
    15
100
AcDbLine
 10
241.349539511
 20
79.9042707886
 30
0.0
 11
241.3679796979
 21
79.6937136557
 31
0.0
  0
LINE
  5
AA
330
1F
100
AcDbEntity
  8
0
  6
Continuous
 62
     7
370
    15
100
AcDbLine
 10
253.1631689296
 20
90.3050019052
 30
0.0
 11
253.2190333829
 21
90.659038594
 31
0.0
  0
LINE
  5
AB
330
1F
100
AcDbEntity
  8
0
  6
Continuous
 62
     7
370
    15
100
AcDbLine
 10
252.5551046953
 20
89.7654867377
 30
0.0
 11
253.1631689296
 21
90.3050019052
 31
0.0
  0
ARC
  5
AC
330
1F
100
AcDbEntity
  8
0
  6
Continuous
 62
     7
370
    15
100
AcDbCircle
 10
244.0931398776
 20
88.350931556
 30
0.0
 40
1.006677874007194
100
AcDbArc
 50
85.7637786568
 51
184.8621616403
  0
SPLINE
  5
AD
330
1F
100
AcDbEntity
  8
0
  6
Continuous
 62
     7
370
    15
100
AcDbSpline
210
0.0
220
0.0
230
1.0
 70
     8
 71
     3
 72
    11
 73
     7
 74
     0
 42
0.00000001
 43
0.00000001
 40
0.0
 40
0.0
 40
0.0
 40
0.0
 40
0.3367810783264394
 40
0.6790113642579209
 40
0.9923720374520052
 40
0.9999999999999999
 40
0.9999999999999999
 40
0.9999999999999999
 40
0.9999999999999999
 10
242.0550647900013
 20
90.3670764174222
 30
0.0
 10
242.1081288455787
 20
90.31460740168482
 30
0.0
 10
242.2151155472952
 20
90.2088204075516
 30
0.0
 10
242.3874370826342
 20
90.03835870716398
 30
0.0
 10
242.4973167393356
 20
89.92967300659902
 30
0.0
 10
242.5479832578417
 20
89.87952858692502
 30
0.0
 10
242.5491872951893
 20
89.87833695671549
 30
0.0
  0
LINE
  5
AE
330
1F
100
AcDbEntity
  8
0
  6
Continuous
 62
     7
370
    15
100
AcDbLine
 10
243.0900845454
 20
88.2656066324
 30
0.0
 11
243.6762664244
 21
81.5719454195
 31
0.0
  0
LINE
  5
AF
330
1F
100
AcDbEntity
  8
0
  6
Continuous
 62
     7
370
    15
100
AcDbLine
 10
250.8676003442
 20
88.8422852959
 30
0.0
 11
244.1675018296
 21
89.354859164
 31
0.0
  0
ARC
  5
B0
330
1F
100
AcDbEntity
  8
0
  6
Continuous
 62
     7
370
    15
100
AcDbCircle
 10
250.7941490702
 20
87.8639017456
 30
0.0
 40
0.9811368208119214
100
AcDbArc
 50
4.9265111687
 51
85.7066242725
  0
LINE
  5
B1
330
1F
100
AcDbEntity
  8
0
  6
Continuous
 62
     7
370
    15
100
AcDbLine
 10
252.3578431234
 20
81.254498532
 30
0.0
 11
251.7716612444
 21
87.948159745
 31
0.0
  0
ARC
  5
B2
330
1F
100
AcDbEntity
  8
0
  6
Continuous
 62
     7
370
    15
100
AcDbCircle
 10
251.3547894213
 20
81.1691722505
 30
0.0
 40
1.006676364936323
100
AcDbArc
 50
265.7638918743
 51
4.8622465179
  0
LINE
  5
B3
330
1F
100
AcDbEntity
  8
0
  6
Continuous
 62
     7
370
    15
100
AcDbLine
 10
244.5803273246
 20
80.6778198685
 30
0.0
 11
251.2804295645
 21
80.1652460005
 31
0.0
  0
ARC
  5
B4
330
1F
100
AcDbEntity
  8
0
  6
Continuous
 62
     7
370
    15
100
AcDbCircle
 10
244.6537831977
 20
81.6562080691
 30
0.0
 40
0.9811418022845432
100
AcDbArc
 50
184.9267586593
 51
265.7063767819
  0
CIRCLE
  5
B5
330
1F
100
AcDbEntity
  8
0
  6
Continuous
 62
     7
370
    15
100
AcDbCircle
 10
247.6970071973
 20
84.7564153654
 30
0.0
 40
2.562480644790816
  0
ARC
  5
B6
330
1F
100
AcDbEntity
  8
0
  6
Continuous
 62
     7
370
    15
100
AcDbCircle
 10
247.1943930541
 20
85.2860247793
 30
0.0
 40
2.596780206934098
100
AcDbArc
 50
265.7683569843
 51
326.1891404335
  0
ARC
  5
B7
330
1F
100
AcDbEntity
  8
0
  6
Continuous
 62
     7
370
    15
100
AcDbCircle
 10
247.2404301358
 20
85.2813469866
 30
0.0
 40
2.552297091553526
100
AcDbArc
 50
343.0983420027
 51
37.0582804932
  0
ARC
  5
B8
330
1F
100
AcDbEntity
  8
0
  6
Continuous
 62
     7
370
    15
100
AcDbCircle
 10
247.1940859323
 20
85.2263146987
 30
0.0
 40
2.537213553242237
100
AcDbArc
 50
233.1693537384
 51
265.6757777094
  0
LINE
  5
B9
330
1F
100
AcDbEntity
  8
0
  6
Continuous
 62
     7
370
    15
100
AcDbLine
 10
254.2105491981
 20
78.3448568191
 30
0.0
 11
254.2005430684
 21
77.9452076759
 31
0.0
  0
LINE
  5
BA
330
1F
100
AcDbEntity
  8
0
  6
Continuous
 62
     7
370
    15
100
AcDbLine
 10
242.2388966904
 20
79.2607157137
 30
0.0
 11
242.2288905606
 21
78.8610665705
 31
0.0
  0
LINE
  5
BB
330
1F
100
AcDbEntity
  8
0
  6
Continuous
 62
     7
370
    15
100
AcDbLine
 10
253.2461683974
 20
79.298922291
 30
0.0
 11
254.2105491981
 21
78.3448568191
 31
0.0
  0
LINE
  5
BC
330
1F
100
AcDbEntity
  8
0
  6
Continuous
 62
     7
370
    15
100
AcDbLine
 10
253.1631689296
 20
90.3050019052
 30
0.0
 11
253.5625796542
 21
90.319269767
 31
0.0
  0
LINE
  5
BD
330
1F
100
AcDbEntity
  8
0
  6
Continuous
 62
     7
370
    15
100
AcDbLine
 10
254.2105491981
 20
78.3448568191
 30
0.0
 11
254.6099599228
 21
78.359124681
 31
0.0
  0
SPLINE
  5
BE
330
1F
100
AcDbEntity
  8
0
  6
Continuous
 62
     7
370
    15
100
AcDbSpline
210
0.0
220
0.0
230
1.0
 70
     8
 71
     3
 72
    11
 73
     7
 74
     0
 42
0.00000001
 43
0.00000001
 40
0.0
 40
0.0
 40
0.0
 40
0.0
 40
0.0081175189319368
 40
0.3263672259766714
 40
0.6627696255178508
 40
1.0
 40
1.0
 40
1.0
 40
1.0
 10
243.2651322111992
 20
80.36297323367586
 30
0.0
 10
243.2638451124309
 20
80.36187406089617
 30
0.0
 10
243.2120969295075
 20
80.31768149738176
 30
0.0
 10
243.1010030556012
 20
80.2177979171427
 30
0.0
 10
242.9277523833277
 20
80.0481296262893
 30
0.0
 10
242.8239206873417
 20
79.93264870203316
 30
0.0
 10
242.7719410285858
 20
79.8748372699975
 30
0.0
  0
SPLINE
  5
BF
330
1F
100
AcDbEntity
  8
0
  6
Continuous
 62
     7
370
    15
100
AcDbSpline
210
0.0
220
0.0
230
1.0
 70
     8
 71
     3
 72
    11
 73
     7
 74
     0
 42
0.00000001
 43
0.00000001
 40
0.0
 40
0.0
 40
0.0
 40
0.0
 40
0.3372338469917919
 40
0.6736334667611001
 40
0.9918799886594516
 40
0.9999999999999999
 40
0.9999999999999999
 40
0.9999999999999999
 40
0.9999999999999999
 10
252.555104695311
 20
89.76548673770418
 30
0.0
 10
252.4978803562071
 20
89.71289051096959
 30
0.0
 10
252.3835732358585
 20
89.60782816663546
 30
0.0
 10
252.215769809883
 20
89.43273418002867
 30
0.0
 10
252.1171265990025
 20
89.32049101818836
 30
0.0
 10
252.073446001564
 20
89.26826043813456
 30
0.0
 10
252.0723592266945
 20
89.26696093938341
 30
0.0
  0
ARC
  5
C0
330
1F
100
AcDbEntity
  8
0
  6
Continuous
 62
     7
370
    15
100
AcDbCircle
 10
252.6931621875
 20
90.7807394604
 30
0.0
 40
0.3941101780870683
100
AcDbArc
 50
45.2526369505
 51
85.6270898091
  0
ARC
  5
C1
330
1F
100
AcDbEntity
  8
0
  6
Continuous
 62
     7
370
    15
100
AcDbCircle
 10
241.7595950264
 20
79.7276317238
 30
0.0
 40
0.393081417596342
100
AcDbArc
 50
184.9500733228
 51
225.116098945
  0
SPLINE
  5
C2
330
1F
100
AcDbEntity
  8
0
  6
Continuous
 62
     7
370
    15
100
AcDbSpline
210
0.0
220
0.0
230
1.0
 70
     8
 71
     3
 72
    11
 73
     7
 74
     0
 42
0.00000001
 43
0.00000001
 40
0.0
 40
0.0
 40
0.0
 40
0.0
 40
0.0076307985121128
 40
0.3209834942514422
 40
0.6632190463271843
 40
1.0
 40
1.0
 40
1.0
 40
1.0
 10
252.7677964196114
 20
79.77199690601816
 30
0.0
 10
252.7688113716951
 20
79.77099311549928
 30
0.0
 10
252.8115045270465
 20
79.72876946253012
 30
0.0
 10
252.9086058992519
 20
79.63279508704949
 30
0.0
 10
253.0733204416304
 20
79.4699056215425
 30
0.0
 10
253.1888617967261
 20
79.35561068749023
 30
0.0
 10
253.2461683974175
 20
79.29892229101648
 30
0.0
  0
LINE
  5
C3
330
1F
100
AcDbEntity
  8
0
  6
Continuous
 62
     7
370
    15
100
AcDbLine
 10
189.5812906102
 20
142.7742181923
 30
0.0
 11
199.2393580974
 21
142.7742181923
 31
0.0
  0
LINE
  5
C4
330
1F
100
AcDbEntity
  8
0
  6
Continuous
 62
     7
370
    15
100
AcDbLine
 10
199.2393580974
 20
92.7372998204
 30
0.0
 11
199.2393580974
 21
142.7742181923
 31
0.0
  0
LINE
  5
C5
330
1F
100
AcDbEntity
  8
0
  6
Continuous
 62
     7
370
    15
100
AcDbLine
 10
199.2393580974
 20
92.7372998204
 30
0.0
 11
197.5812909902
 21
92.7372998204
 31
0.0
  0
SPLINE
  5
C6
330
1F
100
AcDbEntity
  8
0
  6
Continuous
 62
     7
370
    15
100
AcDbSpline
210
0.0
220
0.0
230
1.0
 70
     8
 71
     3
 72
    28
 73
    24
 74
     0
 42
0.00000001
 43
0.00000001
 40
0.0
 40
0.0
 40
0.0
 40
0.0
 40
0.1250000000000001
 40
0.1250000000000001
 40
0.1875
 40
0.1875
 40
0.2499999999999999
 40
0.2499999999999999
 40
0.375
 40
0.375
 40
0.4375000000000002
 40
0.4375000000000002
 40
0.5000000000000001
 40
0.5000000000000001
 40
0.625
 40
0.625
 40
0.7499999999999998
 40
0.7499999999999998
 40
0.8124999999999999
 40
0.8124999999999999
 40
0.8749999999999999
 40
0.8749999999999999
 40
1.0
 40
1.0
 40
1.0
 40
1.0
 10
197.5812906370072
 20
92.73729975697027
 30
0.0
 10
197.0495828795142
 20
92.73729975697027
 30
0.0
 10
196.5273443142039
 20
92.72151504302005
 30
0.0
 10
195.7574738279289
 20
92.67651962894384
 30
0.0
 10
195.5031142557376
 20
92.65796463386812
 30
0.0
 10
194.9989926750391
 20
92.61411191142163
 30
0.0
 10
194.7492698576112
 20
92.58876730446943
 30
0.0
 10
194.0236799061647
 20
92.50536522671932
 30
0.0
 10
193.5653196445832
 20
92.43949966756823
 30
0.0
 10
192.9148217011893
 20
92.33052932707645
 30
0.0
 10
192.7031396503969
 20
92.29228969130979
 30
0.0
 10
192.2990681612588
 20
92.21453095389045
 30
0.0
 10
192.106561647438
 20
92.17502999171509
 30
0.0
 10
191.5567266764167
 20
92.05612224934909
 30
0.0
 10
191.2267978981079
 20
91.97630456792447
 30
0.0
 10
190.6423266295392
 20
91.82296140612841
 30
0.0
 10
190.3960494915258
 20
91.75162765285916
 30
0.0
 10
190.0962066988277
 20
91.65768414578454
 30
0.0
 10
190.0077498417555
 20
91.62849035242459
 30
0.0
 10
189.8543884884504
 20
91.57502377816121
 30
0.0
 10
189.7893002742242
 20
91.55066444388602
 30
0.0
 10
189.6337062582834
 20
91.4870742984413
 30
0.0
 10
189.5812906370072
 20
91.45697136335204
 30
0.0
 10
189.5812906370072
 20
91.44009447035509
 30
0.0
  0
LINE
  5
C7
330
1F
100
AcDbEntity
  8
0
  6
Continuous
 62
     7
370
    15
100
AcDbLine
 10
189.5812906102
 20
91.4400941338
 30
0.0
 11
189.5812906102
 21
91.4242169466
 31
0.0
  0
SPLINE
  5
C8
330
1F
100
AcDbEntity
  8
0
  6
Continuous
 62
     7
370
    15
100
AcDbSpline
210
0.0
220
0.0
230
1.0
 70
     8
 71
     3
 72
    23
 73
    19
 74
     0
 42
0.00000001
 43
0.00000001
 40
0.0
 40
0.0
 40
0.0
 40
0.0
 40
0.0518255938059358
 40
0.1565081934001131
 40
0.2099949698592524
 40
0.2618040537992359
 40
0.3663993007324459
 40
0.4197731054763863
 40
0.5256601655832894
 40
0.5793828112447028
 40
0.6338670458914115
 40
0.6871878703421808
 40
0.7408884360340283
 40
0.7958045181238695
 40
0.851149078431111
 40
0.903539695142705
 40
0.9563116930853344
 40
1.0
 40
1.0
 40
1.0
 40
1.0
 10
197.5812909901647
 20
153.3914128895759
 30
0.0
 10
197.3634099113171
 20
153.3928230969327
 30
0.0
 10
196.7054304937692
 20
153.3970817843792
 30
0.0
 10
195.8303934592107
 20
153.4366583991794
 30
0.0
 10
194.9856194167685
 20
153.4996252695267
 30
0.0
 10
194.1659570748548
 20
153.5776722798761
 30
0.0
 10
193.3901929393748
 20
153.6745886213511
 30
0.0
 10
192.4924781420175
 20
153.8100264401361
 30
0.0
 10
191.8349117518185
 20
153.926182112796
 30
0.0
 10
191.2571914831008
 20
154.0399542721257
 30
0.0
 10
190.865863687842
 20
154.1220389076893
 30
0.0
 10
190.5220581622661
 20
154.1980242957551
 30
0.0
 10
190.2269625627714
 20
154.2660914314542
 30
0.0
 10
189.9816832949819
 20
154.3246775869806
 30
0.0
 10
189.7937296697753
 20
154.3708165634297
 30
0.0
 10
189.6653398682232
 20
154.4029272848365
 30
0.0
 10
189.5917908778834
 20
154.4215448508632
 30
0.0
 10
189.5874576495273
 20
154.4226513685237
 30
0.0
 10
189.5854950659482
 20
154.4231525268315
 30
0.0
  0
LINE
  5
C9
330
1F
100
AcDbEntity
  8
0
  6
Continuous
 62
     7
370
    15
100
AcDbLine
 10
199.2393580974
 20
153.3914128896
 30
0.0
 11
197.5812909902
 21
153.3914128896
 31
0.0
  0
LINE
  5
CA
330
1F
100
AcDbEntity
  8
0
  6
Continuous
 62
     7
370
    15
100
AcDbLine
 10
199.2393580974
 20
147.3829070683
 30
0.0
 11
199.2393580974
 21
153.3914128896
 31
0.0
  0
LINE
  5
CB
330
1F
100
AcDbEntity
  8
0
  6
Continuous
 62
     7
370
    15
100
AcDbLine
 10
196.8269113228
 20
147.3829070683
 30
0.0
 11
199.2393580974
 21
147.3829070683
 31
0.0
  0
SPLINE
  5
CC
330
1F
100
AcDbEntity
  8
0
  6
Continuous
 62
     7
370
    15
100
AcDbSpline
210
0.0
220
0.0
230
1.0
 70
     8
 71
     3
 72
    20
 73
    16
 74
     0
 42
0.00000001
 43
0.00000001
 40
0.0
 40
0.0
 40
0.0
 40
0.0
 40
0.2499999999999997
 40
0.2499999999999997
 40
0.3749999999999997
 40
0.3749999999999997
 40
0.4999999999999998
 40
0.4999999999999998
 40
0.6249999999999998
 40
0.6249999999999998
 40
0.7499999999999999
 40
0.7499999999999999
 40
0.8749999999999999
 40
0.8749999999999999
 40
1.0
 40
1.0
 40
1.0
 40
1.0
 10
189.5812906370072
 20
142.7742174532174
 30
0.0
 10
189.8296643712952
 20
143.4280798815148
 30
0.0
 10
190.1492344636405
 20
144.031865663512
 30
0.0
 10
190.7715406968452
 20
144.8587043996806
 30
0.0
 10
191.002964957276
 20
145.1211330376335
 30
0.0
 10
191.5241792969257
 20
145.6177956917385
 30
0.0
 10
191.8107997795608
 20
145.84838257076
 30
0.0
 10
192.4302845208684
 20
146.2649367953426
 30
0.0
 10
192.7645849003553
 20
146.4524345973101
 30
0.0
 10
193.4898453729801
 20
146.7838315749465
 30
0.0
 10
193.8717604303706
 20
146.9233355624418
 30
0.0
 10
194.6665486065422
 20
147.1487890699127
 30
0.0
 10
195.0807068007486
 20
147.2354151814564
 30
0.0
 10
195.94625314133
 20
147.3533959703105
 30
0.0
 10
196.3841407563418
 20
147.3829071155849
 30
0.0
 10
196.8269109826964
 20
147.3829071155849
 30
0.0
  0
LINE
  5
CD
330
1F
100
AcDbEntity
  8
0
  6
Continuous
 62
     7
370
    15
100
AcDbLine
 10
206.0232225583
 20
92.7372998204
 30
0.0
 11
206.0232225583
 21
142.7742181923
 31
0.0
  0
SPLINE
  5
CE
330
1F
100
AcDbEntity
  8
0
  6
Continuous
 62
     7
370
    15
100
AcDbSpline
210
0.0
220
0.0
230
1.0
 70
     8
 71
     3
 72
     8
 73
     4
 74
     0
 42
0.00000001
 43
0.00000001
 40
0.0
 40
0.0
 40
0.0
 40
0.0
 40
1.0
 40
1.0
 40
1.0
 40
1.0
 10
206.0232234684962
 20
92.73729975697026
 30
0.0
 10
205.5277438078305
 20
93.6328258449036
 30
0.0
 10
205.0336297597884
 20
94.52911025995586
 30
0.0
 10
204.5412906370072
 20
95.42638029416254
 30
0.0
  0
LINE
  5
CF
330
1F
100
AcDbEntity
  8
0
  6
Continuous
 62
     7
370
    15
100
AcDbLine
 10
204.5412909017
 20
95.4263801332
 30
0.0
 11
204.5412909017
 21
142.7742181923
 31
0.0
  0
SPLINE
  5
D0
330
1F
100
AcDbEntity
  8
0
  6
Continuous
 62
     7
370
    15
100
AcDbSpline
210
0.0
220
0.0
230
1.0
 70
    24
 71
     3
 72
     8
 73
     4
 74
     0
 42
0.00000001
 43
0.00000001
 40
0.0
 40
0.0
 40
0.0
 40
0.0
 40
1.0
 40
1.0
 40
1.0
 40
1.0
 10
204.5412906370072
 20
142.7742174532174
 30
0.0
 10
205.0212426313721
 20
142.7742174532174
 30
0.0
 10
205.5165433603457
 20
142.7742174532174
 30
0.0
 10
206.0232234684962
 20
142.7742174532174
 30
0.0
  0
LINE
  5
D1
330
1F
100
AcDbEntity
  8
0
  6
Continuous
 62
     7
370
    15
100
AcDbLine
 10
200.7212906853
 20
95.4263801332
 30
0.0
 11
200.7212906853
 21
142.7742181923
 31
0.0
  0
SPLINE
  5
D2
330
1F
100
AcDbEntity
  8
0
  6
Continuous
 62
     7
370
    15
100
AcDbSpline
210
0.0
220
0.0
230
1.0
 70
     8
 71
     3
 72
     8
 73
     4
 74
     0
 42
0.00000001
 43
0.00000001
 40
0.0
 40
0.0
 40
0.0
 40
0.0
 40
1.0
 40
1.0
 40
1.0
 40
1.0
 10
200.7212906370072
 20
95.42638029416254
 30
0.0
 10
200.228951514226
 20
94.52911025995586
 30
0.0
 10
199.7348374661839
 20
93.63282584490362
 30
0.0
 10
199.2393578055181
 20
92.73729975697027
 30
0.0
  0
SPLINE
  5
D3
330
1F
100
AcDbEntity
  8
0
  6
Continuous
 62
     7
370
    15
100
AcDbSpline
210
0.0
220
0.0
230
1.0
 70
    24
 71
     3
 72
     8
 73
     4
 74
     0
 42
0.00000001
 43
0.00000001
 40
0.0
 40
0.0
 40
0.0
 40
0.0
 40
1.0
 40
1.0
 40
1.0
 40
1.0
 10
199.2393578055181
 20
142.7742174532174
 30
0.0
 10
199.7460379136687
 20
142.7742174532174
 30
0.0
 10
200.2413386426423
 20
142.7742174532174
 30
0.0
 10
200.7212906370072
 20
142.7742174532174
 30
0.0
  0
LINE
  5
D4
330
1F
100
AcDbEntity
  8
0
  6
Continuous
 62
     7
370
    15
100
AcDbLine
 10
210.5812903271
 20
93.3639402147
 30
0.0
 11
210.5812903271
 21
142.7742181923
 31
0.0
  0
SPLINE
  5
D5
330
1F
100
AcDbEntity
  8
0
  6
Continuous
 62
     7
370
    15
100
AcDbSpline
210
0.0
220
0.0
230
1.0
 70
     8
 71
     3
 72
    10
 73
     6
 74
     0
 42
0.00000001
 43
0.00000001
 40
0.0
 40
0.0
 40
0.0
 40
0.0
 40
0.5
 40
0.5
 40
1.0
 40
1.0
 40
1.0
 40
1.0
 10
210.5812906370072
 20
93.36394005262457
 30
0.0
 10
210.5812906370072
 20
93.20405278443091
 30
0.0
 10
210.5199809857714
 20
93.04292552891633
 30
0.0
 10
210.3008813482363
 20
92.80882653056149
 30
0.0
 10
210.1428331419228
 20
92.73729975697027
 30
0.0
 10
209.9812906370072
 20
92.73729975697027
 30
0.0
  0
SPLINE
  5
D6
330
1F
100
AcDbEntity
  8
0
  6
Continuous
 62
     7
370
    15
100
AcDbSpline
210
0.0
220
0.0
230
1.0
 70
    24
 71
     3
 72
    12
 73
     8
 74
     0
 42
0.00000001
 43
0.00000001
 40
0.0
 40
0.0
 40
0.0
 40
0.0
 40
0.2499999999999993
 40
0.2499999999999993
 40
0.4999999999999987
 40
0.4999999999999987
 40
1.0
 40
1.0
 40
1.0
 40
1.0
 10
209.9812906370072
 20
142.7742174532174
 30
0.0
 10
210.0715297046942
 20
142.7742174532174
 30
0.0
 10
210.1624278188007
 20
142.7742174532174
 30
0.0
 10
210.3170248552892
 20
142.7742174532174
 30
0.0
 10
210.3820032713974
 20
142.7742174532174
 30
0.0
 10
210.5338382993336
 20
142.7742174532174
 30
0.0
 10
210.5812906370072
 20
142.7742174532174
 30
0.0
 10
210.5812906370072
 20
142.7742174532174
 30
0.0
  0
LINE
  5
D7
330
1F
100
AcDbEntity
  8
0
  6
Continuous
 62
     7
370
    15
100
AcDbLine
 10
209.9812913463
 20
92.7372998204
 30
0.0
 11
206.0232225583
 21
92.7372998204
 31
0.0
  0
LINE
  5
D8
330
1F
100
AcDbEntity
  8
0
  6
Continuous
 62
     7
370
    15
100
AcDbLine
 10
206.0232225583
 20
142.7742181923
 30
0.0
 11
209.9812913463
 21
142.7742181923
 31
0.0
  0
LINE
  5
D9
330
1F
100
AcDbEntity
  8
0
  6
Continuous
 62
     7
370
    15
100
AcDbLine
 10
184.631290637
 20
91.7242182996
 30
0.0
 11
184.631290637
 21
154.1242166068
 31
0.0
  0
SPLINE
  5
DA
330
1F
100
AcDbEntity
  8
0
  6
Continuous
 62
     7
370
    15
100
AcDbSpline
210
0.0
220
0.0
230
1.0
 70
    24
 71
     3
 72
    14
 73
    10
 74
     0
 42
0.00000001
 43
0.00000001
 40
0.0
 40
0.0
 40
0.0
 40
0.0
 40
0.4999999999999994
 40
0.4999999999999994
 40
0.7499999999999981
 40
0.7499999999999981
 40
0.874999999999999
 40
0.874999999999999
 40
1.0
 40
1.0
 40
1.0
 40
1.0
 10
204.4436158346749
 20
96.5242174532174
 30
0.0
 10
204.3968311296267
 20
96.5242174532174
 30
0.0
 10
204.3347799328471
 20
96.5242174532174
 30
0.0
 10
204.1913882942965
 20
96.5242174532174
 30
0.0
 10
204.1352446407453
 20
96.5242174532174
 30
0.0
 10
204.0222936186091
 20
96.5242174532174
 30
0.0
 10
203.979292856571
 20
96.5242174532174
 30
0.0
 10
203.8752301462646
 20
96.5242174532174
 30
0.0
 10
203.8098979079076
 20
96.5242174532174
 30
0.0
 10
203.7412906370072
 20
96.5242174532174
 30
0.0
  0
SPLINE
  5
DB
330
1F
100
AcDbEntity
  8
0
  6
Continuous
 62
     7
370
    15
100
AcDbSpline
210
0.0
220
0.0
230
1.0
 70
    24
 71
     3
 72
    12
 73
     8
 74
     0
 42
0.00000001
 43
0.00000001
 40
0.0
 40
0.0
 40
0.0
 40
0.0
 40
0.5000000000000091
 40
0.5000000000000091
 40
0.7500000000000046
 40
0.7500000000000046
 40
1.0
 40
1.0
 40
1.0
 40
1.0
 10
204.1469931053162
 20
149.3242174532174
 30
0.0
 10
204.1039075557055
 20
149.3242174532174
 30
0.0
 10
204.0547553539584
 20
149.3242174532174
 30
0.0
 10
203.9582827596688
 20
149.3242174532174
 30
0.0
 10
203.9221811745346
 20
149.3242174532174
 30
0.0
 10
203.839075416672
 20
149.3242174532174
 30
0.0
 10
203.791078819708
 20
149.3242174532174
 30
0.0
 10
203.7412906370072
 20
149.3242174532174
 30
0.0
  0
SPLINE
  5
DC
330
1F
100
AcDbEntity
  8
0
  6
Continuous
 62
     7
370
    15
100
AcDbSpline
210
0.0
220
0.0
230
1.0
 70
     8
 71
     3
 72
    10
 73
     6
 74
     0
 42
0.00000001
 43
0.00000001
 40
0.0
 40
0.0
 40
0.0
 40
0.0
 40
0.5
 40
0.5
 40
1.0
 40
1.0
 40
1.0
 40
1.0
 10
204.5412906370072
 20
150.0438713042532
 30
0.0
 10
204.5412906370072
 20
149.9001012464352
 30
0.0
 10
204.5052415782883
 20
149.75768188394
 30
0.0
 10
204.3697327175143
 20
149.5077875905828
 30
0.0
 10
204.2698567244181
 20
149.3997572543346
 30
0.0
 10
204.1469931053162
 20
149.3242174532174
 30
0.0
  0
SPLINE
  5
DD
330
1F
100
AcDbEntity
  8
0
  6
Continuous
 62
     7
370
    15
100
AcDbSpline
210
0.0
220
0.0
230
1.0
 70
     8
 71
     3
 72
    10
 73
     6
 74
     0
 42
0.00000001
 43
0.00000001
 40
0.0
 40
0.0
 40
0.0
 40
0.0
 40
0.5
 40
0.5
 40
1.0
 40
1.0
 40
1.0
 40
1.0
 10
204.5151430138471
 20
142.7742174532174
 30
0.0
 10
204.5238326567587
 20
142.8210963025356
 30
0.0
 10
204.5303717215092
 20
142.8685187679368
 30
0.0
 10
204.5391303559023
 20
142.9644555665236
 30
0.0
 10
204.5412906370072
 20
143.0123708545341
 30
0.0
 10
204.5412906370072
 20
143.0600840846786
 30
0.0
  0
SPLINE
  5
DE
330
1F
100
AcDbEntity
  8
0
  6
Continuous
 62
     7
370
    15
100
AcDbSpline
210
0.0
220
0.0
230
1.0
 70
     8
 71
     3
 72
    10
 73
     6
 74
     0
 42
0.00000001
 43
0.00000001
 40
0.0
 40
0.0
 40
0.0
 40
0.0
 40
0.5
 40
0.5
 40
1.0
 40
1.0
 40
1.0
 40
1.0
 10
201.1155881686981
 20
149.3242174532174
 30
0.0
 10
200.9940479050296
 20
149.3989436204292
 30
0.0
 10
200.8927135446807
 20
149.507888636346
 30
0.0
 10
200.7570746017923
 20
149.7583191171076
 30
0.0
 10
200.7212906370072
 20
149.9007384792065
 30
0.0
 10
200.7212906370072
 20
150.0438713042532
 30
0.0
  0
SPLINE
  5
DF
330
1F
100
AcDbEntity
  8
0
  6
Continuous
 62
     7
370
    15
100
AcDbSpline
210
0.0
220
0.0
230
1.0
 70
    24
 71
     3
 72
    12
 73
     8
 74
     0
 42
0.00000001
 43
0.00000001
 40
0.0
 40
0.0
 40
0.0
 40
0.0
 40
0.2499999999999983
 40
0.2499999999999983
 40
0.4999999999999967
 40
0.4999999999999967
 40
1.0
 40
1.0
 40
1.0
 40
1.0
 10
201.5212906370072
 20
149.3242174532174
 30
0.0
 10
201.4719472751976
 20
149.3242174532174
 30
0.0
 10
201.4232565768959
 20
149.3242174532174
 30
0.0
 10
201.3404054793255
 20
149.3242174532174
 30
0.0
 10
201.3042055117049
 20
149.3242174532174
 30
0.0
 10
201.2084555951555
 20
149.3242174532174
 30
0.0
 10
201.1585736253434
 20
149.3242174532174
 30
0.0
 10
201.1155881686981
 20
149.3242174532174
 30
0.0
  0
SPLINE
  5
E0
330
1F
100
AcDbEntity
  8
0
  6
Continuous
 62
     7
370
    15
100
AcDbSpline
210
0.0
220
0.0
230
1.0
 70
    24
 71
     3
 72
    14
 73
    10
 74
     0
 42
0.00000001
 43
0.00000001
 40
0.0
 40
0.0
 40
0.0
 40
0.0
 40
0.125000000000001
 40
0.125000000000001
 40
0.2500000000000021
 40
0.2500000000000021
 40
0.5000000000000007
 40
0.5000000000000007
 40
1.0
 40
1.0
 40
1.0
 40
1.0
 10
201.5212906370072
 20
96.5242174532174
 30
0.0
 10
201.451943915276
 20
96.5242174532174
 30
0.0
 10
201.3867458618921
 20
96.5242174532174
 30
0.0
 10
201.2823666692651
 20
96.5242174532174
 30
0.0
 10
201.2394642982561
 20
96.5242174532174
 30
0.0
 10
201.1271386406514
 20
96.5242174532174
 30
0.0
 10
201.0719149462976
 20
96.5242174532174
 30
0.0
 10
200.92785756753
 20
96.5242174532174
 30
0.0
 10
200.8657768706985
 20
96.5242174532174
 30
0.0
 10
200.8189654393395
 20
96.5242174532174
 30
0.0
  0
SPLINE
  5
E1
330
1F
100
AcDbEntity
  8
0
  6
Continuous
 62
     7
370
    15
100
AcDbSpline
210
0.0
220
0.0
230
1.0
 70
     8
 71
     3
 72
     9
 73
     5
 74
     0
 42
0.00000001
 43
0.00000001
 40
0.0
 40
0.0
 40
0.0
 40
0.0
 40
0.5
 40
1.0
 40
1.0
 40
1.0
 40
1.0
 10
200.7212906370072
 20
143.0600840846788
 30
0.0
 10
200.7212906370072
 20
143.0118520325561
 30
0.0
 10
200.7256966117124
 20
142.9159820191165
 30
0.0
 10
200.7387157918062
 20
142.8212733891332
 30
0.0
 10
200.7474382601673
 20
142.7742174532174
 30
0.0
  0
LINE
  5
E2
330
1F
100
AcDbEntity
  8
0
  6
Continuous
 62
     7
370
    15
100
AcDbLine
 10
203.741290398
 20
149.3242173102
 30
0.0
 11
201.5212911889
 21
149.3242173102
 31
0.0
  0
LINE
  5
E3
330
1F
100
AcDbEntity
  8
0
  6
Continuous
 62
     7
370
    15
100
AcDbLine
 10
203.741290398
 20
96.5242175963
 30
0.0
 11
201.5212911889
 21
96.5242175963
 31
0.0
  0
LINE
  5
E4
330
1F
100
AcDbEntity
  8
0
  6
Continuous
 62
     7
370
    15
100
AcDbLine
 10
210.7812899873
 20
149.3242173102
 30
0.0
 11
210.7337701843
 21
149.3242173102
 31
0.0
  0
LINE
  5
E5
330
1F
100
AcDbEntity
  8
0
  6
Continuous
 62
     7
370
    15
100
AcDbLine
 10
210.7812899873
 20
96.5242175963
 30
0.0
 11
210.7300504819
 21
96.5242175963
 31
0.0
  0
ELLIPSE
  5
E6
330
1F
100
AcDbEntity
  8
0
  6
Continuous
 62
     7
370
    15
100
AcDbEllipse
 10
223.7402030106
 20
122.9242174532
 30
0.0
 11
0.7838056803151688
 21
25.99916243029382
 31
0.0
210
0.0
220
0.0
230
0.9999999999999998
 40
0.266256518
 41
0.5861444718469668
 42
2.780941200615204
  0
SPLINE
  5
E7
330
1F
100
AcDbEntity
  8
0
  6
Continuous
 62
     7
370
    15
100
AcDbSpline
210
0.0
220
0.0
230
1.0
 70
     8
 71
     3
 72
    20
 73
    16
 74
     0
 42
0.00000001
 43
0.00000001
 40
0.0
 40
0.0
 40
0.0
 40
0.0
 40
0.2499999999999982
 40
0.2499999999999982
 40
0.3749999999999984
 40
0.3749999999999984
 40
0.4999999999999988
 40
0.4999999999999988
 40
0.6249999999999991
 40
0.6249999999999991
 40
0.7499999999999993
 40
0.7499999999999993
 40
0.8749999999999997
 40
0.8749999999999997
 40
1.0
 40
1.0
 40
1.0
 40
1.0
 10
225.7323864066012
 20
97.37013333239578
 30
0.0
 10
225.1056805207475
 20
97.38281035915338
 30
0.0
 10
224.5071780668419
 20
97.41339050816255
 30
0.0
 10
223.6511560267225
 20
97.49404290345214
 30
0.0
 10
223.3783510505635
 20
97.52647784509881
 30
0.0
 10
222.863535126213
 20
97.60338826637651
 30
0.0
 10
222.6203502039682
 20
97.64796880846372
 30
0.0
 10
222.162663330886
 20
97.75211226195916
 30
0.0
 10
221.9508702402539
 20
97.81123781453053
 30
0.0
 10
221.5684789516693
 20
97.94292718605037
 30
0.0
 10
221.3963438859729
 20
98.01582743495369
 30
0.0
 10
221.0892555797209
 20
98.17791482895456
 30
0.0
 10
220.9550581400769
 20
98.26700960952346
 30
0.0
 10
220.7294973860795
 20
98.4582557965039
 30
0.0
 10
220.6370305615856
 20
98.5609428374185
 30
0.0
 10
220.5640022284728
 20
98.67130015013443
 30
0.0
  0
ELLIPSE
  5
E8
330
1F
100
AcDbEntity
  8
0
  6
Continuous
 62
     7
370
    15
100
AcDbEllipse
 10
296.5147442585
 20
122.9242174532
 30
0.0
 11
247.3733091093125
 21
2.747757092742987
 31
0.0
210
0.0
220
0.0
230
1.0
 40
0.1045157088
 41
4.421036677401629
 42
4.421591738049051
  0
ELLIPSE
  5
E9
330
1F
100
AcDbEntity
  8
0
  6
Continuous
 62
     7
370
    15
100
AcDbEllipse
 10
296.5147442585
 20
122.9242174532
 30
0.0
 11
247.3733091093125
 21
2.747757092742987
 31
0.0
210
0.0
220
0.0
230
1.0
 40
0.1045157088
 41
1.859271704639889
 42
1.859826765287311
  0
SPLINE
  5
EA
330
1F
100
AcDbEntity
  8
0
  6
Continuous
 62
     7
370
    15
100
AcDbSpline
210
0.0
220
0.0
230
1.0
 70
     8
 71
     3
 72
    20
 73
    16
 74
     0
 42
0.00000001
 43
0.00000001
 40
0.0
 40
0.0
 40
0.0
 40
0.0
 40
0.25
 40
0.25
 40
0.375
 40
0.375
 40
0.5
 40
0.5
 40
0.625
 40
0.625
 40
0.75
 40
0.75
 40
0.875
 40
0.875
 40
1.0
 40
1.0
 40
1.0
 40
1.0
 10
220.5640022284728
 20
144.6990277407686
 30
0.0
 10
220.7101143007627
 20
145.0338243499707
 30
0.0
 10
220.9321628445989
 20
145.3328690574298
 30
0.0
 10
221.3915968689847
 20
145.733718743894
 30
0.0
 10
221.5663482132862
 20
145.8589640167811
 30
0.0
 10
221.9483402869436
 20
146.0862081880427
 30
0.0
 10
222.1568321005554
 20
146.1894352933849
 30
0.0
 10
222.6099956049106
 20
146.3768885006347
 30
0.0
 10
222.8572839206573
 20
146.4617551493085
 30
0.0
 10
223.3748217112488
 20
146.6088064281831
 30
0.0
 10
223.6452015621856
 20
146.6714302585863
 30
0.0
 10
224.2090539701566
 20
146.7771233511791
 30
0.0
 10
224.5044758582669
 20
146.8203907481698
 30
0.0
 10
225.1104689054999
 20
146.8867622112425
 30
0.0
 10
225.4187558335125
 20
146.9097817575929
 30
0.0
 10
225.7323864066012
 20
146.9230172188262
 30
0.0
  0
ELLIPSE
  5
EB
330
1F
100
AcDbEntity
  8
0
  6
Continuous
 62
     7
370
    15
100
AcDbEllipse
 10
219.6327450388
 20
107.5030872151
 30
0.0
 11
-0.2362344180672267
 21
3.40514402270766
 31
0.0
210
0.0
220
0.0
230
0.9999999999999999
 40
0.2127709897
 41
0.0
 42
6.283185307179586
  0
LINE
  5
EC
330
1F
100
AcDbEntity
  8
0
  6
Continuous
 62
     7
370
    15
100
AcDbLine
 10
182.631290542
 20
98.7037862297
 30
0.0
 11
182.631290542
 21
147.1446486767
 31
0.0
  0
LINE
  5
ED
330
1F
100
AcDbEntity
  8
0
  6
Continuous
 62
     7
370
    15
100
AcDbLine
 10
162.8312904165
 20
99.6957714315
 30
0.0
 11
162.8312904165
 21
100.9790687468
 31
0.0
  0
SPLINE
  5
EE
330
1F
100
AcDbEntity
  8
0
  6
Continuous
 62
     7
370
    15
100
AcDbSpline
210
0.0
220
0.0
230
1.0
 70
     8
 71
     3
 72
    14
 73
    10
 74
     0
 42
0.00000001
 43
0.00000001
 40
0.0
 40
0.0
 40
0.0
 40
0.0
 40
0.25
 40
0.25
 40
0.5
 40
0.5
 40
0.75
 40
0.75
 40
1.0
 40
1.0
 40
1.0
 40
1.0
 10
162.2096864002674
 20
102.0598462359342
 30
0.0
 10
162.2481227850884
 20
101.9572218382227
 30
0.0
 10
162.3169241784802
 20
101.8580254147831
 30
0.0
 10
162.4602101906392
 20
101.6671333854566
 30
0.0
 10
162.5353922457461
 20
101.5748761194237
 30
0.0
 10
162.6675795343963
 20
101.3952687976087
 30
0.0
 10
162.7250967298661
 20
101.3079592431643
 30
0.0
 10
162.8071415281584
 20
101.1380254096486
 30
0.0
 10
162.8312906370072
 20
101.0561230677774
 30
0.0
 10
162.8312906370072
 20
100.9790691939415
 30
0.0
  0
SPLINE
  5
EF
330
1F
100
AcDbEntity
  8
0
  6
Continuous
 62
     7
370
    15
100
AcDbSpline
210
0.0
220
0.0
230
1.0
 70
     8
 71
     3
 72
    18
 73
    14
 74
     0
 42
0.00000001
 43
0.00000001
 40
0.0
 40
0.0
 40
0.0
 40
0.0
 40
0.0624999999999969
 40
0.0624999999999969
 40
0.1249999999999938
 40
0.1249999999999938
 40
0.2499999999999956
 40
0.2499999999999956
 40
0.499999999999997
 40
0.499999999999997
 40
0.7499999999999984
 40
0.7499999999999984
 40
1.0
 40
1.0
 40
1.0
 40
1.0
 10
161.4312906370072
 20
102.7781286874208
 30
0.0
 10
161.4678628473576
 20
102.7819060909482
 30
0.0
 10
161.506513320793
 20
102.7813490630651
 30
0.0
 10
161.5806048145069
 20
102.7712898579032
 30
0.0
 10
161.6159551082609
 20
102.7619359764787
 30
0.0
 10
161.7105494056504
 20
102.7275515500449
 30
0.0
 10
161.7606875787893
 20
102.696839815382
 30
0.0
 10
161.8898808503705
 20
102.600910505344
 30
0.0
 10
161.9481609951116
 20
102.5323950112267
 30
0.0
 10
162.0483560915351
 20
102.3958230612941
 30
0.0
 10
162.0883713429817
 20
102.3270581587912
 30
0.0
 10
162.1567707637995
 20
102.1920227296836
 30
0.0
 10
162.1851324876615
 20
102.1254047036304
 30
0.0
 10
162.2096864002674
 20
102.0598462359342
 30
0.0
  0
SPLINE
  5
F0
330
1F
100
AcDbEntity
  8
0
  6
Continuous
 62
     7
370
    15
100
AcDbSpline
210
0.0
220
0.0
230
1.0
 70
     8
 71
     3
 72
    10
 73
     6
 74
     0
 42
0.00000001
 43
0.00000001
 40
0.0
 40
0.0
 40
0.0
 40
0.0
 40
0.5
 40
0.5
 40
1.0
 40
1.0
 40
1.0
 40
1.0
 10
157.5176887758852
 20
102.2819350310491
 30
0.0
 10
158.1453164315926
 20
102.3852085897848
 30
0.0
 10
158.796517176624
 20
102.4740337015363
 30
0.0
 10
160.1052218806362
 20
102.6361414084066
 30
0.0
 10
160.7662663179274
 20
102.7094408726932
 30
0.0
 10
161.4312906370071
 20
102.7781286874209
 30
0.0
  0
SPLINE
  5
F1
330
1F
100
AcDbEntity
  8
0
  6
Continuous
 62
     7
370
    15
100
AcDbSpline
210
0.0
220
0.0
230
1.0
 70
     8
 71
     3
 72
    14
 73
    10
 74
     0
 42
0.00000001
 43
0.00000001
 40
0.0
 40
0.0
 40
0.0
 40
0.0
 40
0.5000000000000013
 40
0.5000000000000013
 40
0.750000000000002
 40
0.750000000000002
 40
0.875000000000001
 40
0.875000000000001
 40
1.0
 40
1.0
 40
1.0
 40
1.0
 10
153.8812906370072
 20
102.1175858946899
 30
0.0
 10
154.4973675407625
 20
102.123312014919
 30
0.0
 10
155.1114995368784
 20
102.133202380321
 30
0.0
 10
156.0253961673919
 20
102.1638373479908
 30
0.0
 10
156.3288350949395
 20
102.1766308056288
 30
0.0
 10
156.779971710577
 20
102.2045566335882
 30
0.0
 10
156.9296779601195
 20
102.2153262537479
 30
0.0
 10
157.2265190963676
 20
102.2424589693475
 30
0.0
 10
157.3739046488709
 20
102.2582759421747
 30
0.0
 10
157.5176887758852
 20
102.2819350310492
 30
0.0
  0
SPLINE
  5
F2
330
1F
100
AcDbEntity
  8
0
  6
Continuous
 62
     7
370
    15
100
AcDbSpline
210
0.0
220
0.0
230
1.0
 70
     8
 71
     3
 72
     8
 73
     4
 74
     0
 42
0.00000001
 43
0.00000001
 40
0.0000005954826279
 40
0.0000005954826279
 40
0.0000005954826279
 40
0.0000005954826279
 40
0.0000302093805348
 40
0.0000302093805348
 40
0.0000302093805348
 40
0.0000302093805348
 10
153.8712457065975
 20
102.1294010243418
 30
0.0
 10
153.8745617339177
 20
102.125454244746
 30
0.0
 10
153.87791028531
 20
102.121515853616
 30
0.0
 10
153.8812906370071
 20
102.1175858946899
 30
0.0
  0
SPLINE
  5
F3
330
1F
100
AcDbEntity
  8
0
  6
Continuous
 62
     7
370
    15
100
AcDbSpline
210
0.0
220
0.0
230
1.0
 70
     8
 71
     3
 72
     8
 73
     4
 74
     0
 42
0.00000001
 43
0.00000001
 40
0.0000005099763573
 40
0.0000005099763573
 40
0.0000005099763573
 40
0.0000005099763573
 40
0.0000262827998699
 40
0.0000262827998699
 40
0.0000262827998699
 40
0.0000262827998699
 10
153.8812906370071
 20
143.7941552186125
 30
0.0
 10
153.8779218977794
 20
143.7908335496566
 30
0.0
 10
153.8745734448003
 20
143.7875055923777
 30
0.0
 10
153.8712457065889
 20
143.7841713455051
 30
0.0
  0
SPLINE
  5
F4
330
1F
100
AcDbEntity
  8
0
  6
Continuous
 62
     7
370
    15
100
AcDbSpline
210
0.0
220
0.0
230
1.0
 70
     8
 71
     3
 72
    10
 73
     6
 74
     0
 42
0.00000001
 43
0.00000001
 40
0.0
 40
0.0
 40
0.0
 40
0.0
 40
0.5
 40
0.5
 40
1.0
 40
1.0
 40
1.0
 40
1.0
 10
157.4312906370072
 20
143.7473048450452
 30
0.0
 10
156.8437050899166
 20
143.7683703652816
 30
0.0
 10
156.2529586964562
 20
143.7791288511538
 30
0.0
 10
155.0689395311573
 20
143.7924936316895
 30
0.0
 10
154.4755255429519
 20
143.794636274354
 30
0.0
 10
153.8812906370072
 20
143.7941552186125
 30
0.0
  0
SPLINE
  5
F5
330
1F
100
AcDbEntity
  8
0
  6
Continuous
 62
     7
370
    15
100
AcDbSpline
210
0.0
220
0.0
230
1.0
 70
     8
 71
     3
 72
    18
 73
    14
 74
     0
 42
0.00000001
 43
0.00000001
 40
0.0
 40
0.0
 40
0.0
 40
0.0
 40
0.2499999999999993
 40
0.2499999999999993
 40
0.4999999999999986
 40
0.4999999999999986
 40
0.7499999999999978
 40
0.7499999999999978
 40
0.8749999999999977
 40
0.8749999999999977
 40
0.9374999999999989
 40
0.9374999999999989
 40
1.0
 40
1.0
 40
1.0
 40
1.0
 10
158.8312906370072
 20
144.7683251255804
 30
0.0
 10
158.8312906370072
 20
144.6851182167232
 30
0.0
 10
158.7954415370689
 20
144.5963815614096
 30
0.0
 10
158.670569801035
 20
144.4142563708494
 30
0.0
 10
158.5801693833871
 20
144.3191263222228
 30
0.0
 10
158.3579267286449
 20
144.1299448130985
 30
0.0
 10
158.2281619421992
 20
144.0349996450038
 30
0.0
 10
157.9875244848876
 20
143.8967209374238
 30
0.0
 10
157.8997571867502
 20
143.8510105041214
 30
0.0
 10
157.7452330995434
 20
143.7931871989
 30
0.0
 10
157.6886222134887
 20
143.7754724348621
 30
0.0
 10
157.564578182582
 20
143.7509331316292
 30
0.0
 10
157.4968635075637
 20
143.7449539930909
 30
0.0
 10
157.4312906370072
 20
143.7473048450452
 30
0.0
  0
LINE
  5
F6
330
1F
100
AcDbEntity
  8
0
  6
Continuous
 62
     7
370
    15
100
AcDbLine
 10
158.8312897608
 20
144.7683251109
 30
0.0
 11
158.8312897608
 21
145.9522633459
 31
0.0
  0
SPLINE
  5
F7
330
1F
100
AcDbEntity
  8
0
  6
Continuous
 62
     7
370
    15
100
AcDbSpline
210
0.0
220
0.0
230
1.0
 70
     8
 71
     3
 72
    24
 73
    20
 74
     0
 42
0.00000001
 43
0.00000001
 40
0.0
 40
0.0
 40
0.0
 40
0.0
 40
0.0010489815523775
 40
0.0637843212772741
 40
0.1272220630088516
 40
0.1903789073370505
 40
0.2526748662763491
 40
0.3146354150030102
 40
0.3770891884518245
 40
0.4393540587943444
 40
0.5008133488401828
 40
0.5621845177353679
 40
0.6248438462901906
 40
0.6874304788646655
 40
0.7496743245911356
 40
0.811984857412469
 40
0.8750960476811308
 40
0.9384412548145236
 40
1.0
 40
1.0
 40
1.0
 40
1.0
 10
171.4001966417341
 20
99.26670925877085
 30
0.0
 10
171.3997499759833
 20
99.26665061380439
 30
0.0
 10
171.3725900400597
 20
99.26308465082369
 30
0.0
 10
171.4682199631916
 20
99.2759492602989
 30
0.0
 10
171.7017731392121
 20
99.30518374263895
 30
0.0
 10
172.0973290914465
 20
99.35180295338036
 30
0.0
 10
172.6243690918165
 20
99.40198375280553
 30
0.0
 10
173.2678995336527
 20
99.44636242624858
 30
0.0
 10
174.0065733679225
 20
99.47330562275937
 30
0.0
 10
174.8040880380414
 20
99.4767773710615
 30
0.0
 10
175.6306670878059
 20
99.44915192476807
 30
0.0
 10
176.4561899092246
 20
99.39067078178945
 30
0.0
 10
177.2483163801402
 20
99.30522771839087
 30
0.0
 10
177.9808887589776
 20
99.20349254989836
 30
0.0
 10
178.6165289407983
 20
99.09564889885041
 30
0.0
 10
179.1384398713445
 20
98.99401750357559
 30
0.0
 10
179.5200687089834
 20
98.9115355392831
 30
0.0
 10
179.7708833849168
 20
98.85538343177619
 30
0.0
 10
179.8000047006241
 20
98.84853458086332
 30
0.0
 10
179.8143571019677
 20
98.8451591338872
 30
0.0
  0
SPLINE
  5
F8
330
1F
100
AcDbEntity
  8
0
  6
Continuous
 62
     7
370
    15
100
AcDbSpline
210
0.0
220
0.0
230
1.0
 70
     8
 71
     3
 72
    24
 73
    20
 74
     0
 42
0.00000001
 43
0.00000001
 40
0.0
 40
0.0
 40
0.0
 40
0.0
 40
0.061438429114026
 40
0.1250736777967296
 40
0.1884253375120635
 40
0.2508623992448768
 40
0.3129665476325514
 40
0.3753451442328022
 40
0.4377328732174486
 40
0.499092717251918
 40
0.560580729454827
 40
0.622946985474185
 40
0.6854686070210457
 40
0.7475477863222202
 40
0.8098225081553685
 40
0.873068419947611
 40
0.936404185690527
 40
0.9991757203144552
 40
1.0
 40
1.0
 40
1.0
 40
1.0
 10
179.8143026195971
 20
147.0032459702252
 30
0.0
 10
179.799701811145
 20
146.9998778123523
 30
0.0
 10
179.7699781212939
 20
146.9930210632679
 30
0.0
 10
179.517240121308
 20
146.9366832433718
 30
0.0
 10
179.1342448222869
 20
146.8538254304865
 30
0.0
 10
178.6118888654039
 20
146.7519186822655
 30
0.0
 10
177.9771045207023
 20
146.6440801123765
 30
0.0
 10
177.2468807840881
 20
146.5426138591475
 30
0.0
 10
176.456412689177
 20
146.4575517805802
 30
0.0
 10
175.6319289617193
 20
146.3993504236236
 30
0.0
 10
174.8048925812392
 20
146.3717659759391
 30
0.0
 10
174.0065681222488
 20
146.3752599044733
 30
0.0
 10
173.2667443712492
 20
146.4022135631469
 30
0.0
 10
172.6224894997895
 20
146.4465690637603
 30
0.0
 10
172.095082642692
 20
146.4967742474831
 30
0.0
 10
171.7004174023789
 20
146.5433817075283
 30
0.0
 10
171.4678887167907
 20
146.5725848843666
 30
0.0
 10
171.3725094881244
 20
146.5853430230839
 30
0.0
 10
171.3994424324513
 20
146.5818031931651
 30
0.0
 10
171.3997915164141
 20
146.5817573126315
 30
0.0
  0
SPLINE
  5
F9
330
1F
100
AcDbEntity
  8
0
  6
Continuous
 62
     7
370
    15
100
AcDbSpline
210
0.0
220
0.0
230
1.0
 70
     8
 71
     3
 72
     9
 73
     5
 74
     0
 42
0.00000001
 43
0.00000001
 40
0.0
 40
0.0
 40
0.0
 40
0.0
 40
0.5865081526888636
 40
1.0
 40
1.0
 40
1.0
 40
1.0
 10
152.7378100678829
 20
103.2733986731528
 30
0.0
 10
152.7418105044649
 20
103.267598200939
 30
0.0
 10
152.7486312733896
 20
103.2577083602142
 30
0.0
 10
152.7577849844928
 20
103.3117743657414
 30
0.0
 10
152.7615699694065
 20
103.3341302182435
 30
0.0
  0
LINE
  5
FA
330
1F
100
AcDbEntity
  8
0
  6
Continuous
 62
     7
370
    15
100
AcDbLine
 10
152.7312908099
 20
103.2710573282
 30
0.0
 11
152.7312908099
 21
142.6148949768
 31
0.0
  0
SPLINE
  5
FB
330
1F
100
AcDbEntity
  8
0
  6
Continuous
 62
     7
370
    15
100
AcDbSpline
210
0.0
220
0.0
230
1.0
 70
     8
 71
     3
 72
    10
 73
     6
 74
     0
 42
0.00000001
 43
0.00000001
 40
0.0
 40
0.0
 40
0.0
 40
0.0
 40
0.5
 40
0.5
 40
1.0
 40
1.0
 40
1.0
 40
1.0
 10
152.7939540117306
 20
142.5987699979982
 30
0.0
 10
152.7850497226218
 20
142.6445115172114
 30
0.0
 10
152.7685343424288
 20
142.6617023566804
 30
0.0
 10
152.7414263963672
 20
142.6613790797446
 30
0.0
 10
152.7312906370072
 20
142.6435015374482
 30
0.0
 10
152.7312906370072
 20
142.6148951996956
 30
0.0
  0
SPLINE
  5
FC
330
1F
100
AcDbEntity
  8
0
  6
Continuous
 62
     7
370
    15
100
AcDbSpline
210
0.0
220
0.0
230
1.0
 70
     8
 71
     3
 72
    26
 73
    22
 74
     0
 42
0.00000001
 43
0.00000001
 40
0.0
 40
0.0
 40
0.0
 40
0.0
 40
0.2500000000000014
 40
0.2500000000000014
 40
0.375000000000003
 40
0.375000000000003
 40
0.4375000000000031
 40
0.4375000000000031
 40
0.4687500000000024
 40
0.4687500000000024
 40
0.5000000000000017
 40
0.5000000000000017
 40
0.531250000000001
 40
0.531250000000001
 40
0.5625000000000002
 40
0.5625000000000002
 40
0.6250000000000003
 40
0.6250000000000003
 40
0.7500000000000006
 40
0.7500000000000006
 40
1.0
 40
1.0
 40
1.0
 40
1.0
 10
153.5554442831116
 20
143.3143367868152
 30
0.0
 10
153.5168437602431
 20
143.1965620904598
 30
0.0
 10
153.4705467576889
 20
143.0721724042979
 30
0.0
 10
153.376607409255
 20
142.8669530719444
 30
0.0
 10
153.3412959423415
 20
142.7953802054979
 30
0.0
 10
153.2751159665958
 20
142.6794269728975
 30
0.0
 10
153.2505775999276
 20
142.6388424380872
 30
0.0
 10
153.2072048543738
 20
142.5747007562155
 30
0.0
 10
153.1916964529486
 20
142.5528343309304
 30
0.0
 10
153.1566538083615
 20
142.5072400625872
 30
0.0
 10
153.1371035176418
 20
142.4835697716199
 30
0.0
 10
153.0951762372712
 20
142.43895321228
 30
0.0
 10
153.0725241270396
 20
142.418073199762
 30
0.0
 10
153.031550412953
 20
142.3871997860113
 30
0.0
 10
153.0139511130576
 20
142.3773609161789
 30
0.0
 10
152.9693241272014
 20
142.3583713004827
 30
0.0
 10
152.9487649045481
 20
142.3580469758292
 30
0.0
 10
152.8976394650514
 20
142.3672704167055
 30
0.0
 10
152.8767280520629
 20
142.3885173129224
 30
0.0
 10
152.8252781445019
 20
142.4624861917532
 30
0.0
 10
152.8076128451974
 20
142.5286042850679
 30
0.0
 10
152.7939540117306
 20
142.5987699979982
 30
0.0
  0
SPLINE
  5
FD
330
1F
100
AcDbEntity
  8
0
  6
Continuous
 62
     7
370
    15
100
AcDbSpline
210
0.0
220
0.0
230
1.0
 70
     8
 71
     3
 72
    10
 73
     6
 74
     0
 42
0.00000001
 43
0.00000001
 40
0.0
 40
0.0
 40
0.0
 40
0.0
 40
0.5
 40
0.5
 40
1.0
 40
1.0
 40
1.0
 40
1.0
 10
153.871245706589
 20
143.7841713455051
 30
0.0
 10
153.8036864516707
 20
143.7164799526953
 30
0.0
 10
153.7400497963342
 20
143.6417727879416
 30
0.0
 10
153.6298290417624
 20
143.482806655515
 30
0.0
 10
153.5830127485397
 20
143.398451389507
 30
0.0
 10
153.5554442831117
 20
143.3143367868152
 30
0.0
  0
SPLINE
  5
FE
330
1F
100
AcDbEntity
  8
0
  6
Continuous
 62
     7
370
    15
100
AcDbSpline
210
0.0
220
0.0
230
1.0
 70
     8
 71
     3
 72
     8
 73
     4
 74
     0
 42
0.00000001
 43
0.00000001
 40
0.0
 40
0.0
 40
0.0
 40
0.0
 40
1.0
 40
1.0
 40
1.0
 40
1.0
 10
153.6702002072063
 20
102.4802951502518
 30
0.0
 10
153.7059138655762
 20
102.357063644992
 30
0.0
 10
153.7815819045245
 20
102.236120068045
 30
0.0
 10
153.8712457065976
 20
102.1294010243418
 30
0.0
  0
SPLINE
  5
FF
330
1F
100
AcDbEntity
  8
0
  6
Continuous
 62
     7
370
    15
100
AcDbSpline
210
0.0
220
0.0
230
1.0
 70
     8
 71
     3
 72
    26
 73
    22
 74
     0
 42
0.00000001
 43
0.00000001
 40
0.0
 40
0.0
 40
0.0
 40
0.0
 40
0.2499999999999994
 40
0.2499999999999994
 40
0.3749999999999984
 40
0.3749999999999984
 40
0.4374999999999981
 40
0.4374999999999981
 40
0.4687499999999986
 40
0.4687499999999986
 40
0.4999999999999992
 40
0.4999999999999992
 40
0.5312499999999998
 40
0.5312499999999998
 40
0.5625000000000004
 40
0.5625000000000004
 40
0.6249999999999984
 40
0.6249999999999984
 40
0.7499999999999989
 40
0.7499999999999989
 40
1.0
 40
1.0
 40
1.0
 40
1.0
 10
152.7615682526158
 20
103.3341298929905
 30
0.0
 10
152.7722922860083
 20
103.4370909334795
 30
0.0
 10
152.7870252766029
 20
103.5360896229606
 30
0.0
 10
152.8393788358499
 20
103.6546853030257
 30
0.0
 10
152.8610841185695
 20
103.6903956029745
 30
0.0
 10
152.9199396259349
 20
103.7153750357962
 30
0.0
 10
152.9434018597821
 20
103.7197604835598
 30
0.0
 10
152.9995232364427
 20
103.7000076501156
 30
0.0
 10
153.0223105465733
 20
103.6883512593052
 30
0.0
 10
153.0775630991045
 20
103.646570909868
 30
0.0
 10
153.1089693318453
 20
103.616299322492
 30
0.0
 10
153.1639031524658
 20
103.554656923578
 30
0.0
 10
153.1883269706652
 20
103.5232152712712
 30
0.0
 10
153.2317420766524
 20
103.4634804338575
 30
0.0
 10
153.2513166392207
 20
103.4343154239848
 30
0.0
 10
153.3049493231687
 20
103.3504801482517
 30
0.0
 10
153.3347266712209
 20
103.2984475302755
 30
0.0
 10
153.4162607311937
 20
103.1473818563082
 30
0.0
 10
153.4595035258677
 20
103.0541908144374
 30
0.0
 10
153.5725581155224
 20
102.7898042754431
 30
0.0
 10
153.6265691130016
 20
102.6308461063932
 30
0.0
 10
153.6702002072056
 20
102.4802951502524
 30
0.0
  0
SPLINE
  5
100
330
1F
100
AcDbEntity
  8
0
  6
Continuous
 62
     7
370
    15
100
AcDbSpline
210
0.0
220
0.0
230
1.0
 70
     8
 71
     3
 72
     8
 73
     4
 74
     0
 42
0.00000001
 43
0.00000001
 40
0.0
 40
0.0
 40
0.0
 40
0.0
 40
1.0
 40
1.0
 40
1.0
 40
1.0
 10
199.2393578055181
 20
147.3829071155848
 30
0.0
 10
199.7464446472774
 20
146.2517567614212
 30
0.0
 10
200.2420124864173
 20
145.1153723506534
 30
0.0
 10
200.7212906370072
 20
143.9743611208008
 30
0.0
  0
LINE
  5
101
330
1F
100
AcDbEntity
  8
0
  6
Continuous
 62
     7
370
    15
100
AcDbLine
 10
200.7212906853
 20
143.9743614402
 30
0.0
 11
200.7212906853
 21
143.0600839313
 31
0.0
  0
SPLINE
  5
102
330
1F
100
AcDbEntity
  8
0
  6
Continuous
 62
     7
370
    15
100
AcDbSpline
210
0.0
220
0.0
230
1.0
 70
     8
 71
     3
 72
     8
 73
     4
 74
     0
 42
0.00000001
 43
0.00000001
 40
0.0
 40
0.0
 40
0.0
 40
0.0
 40
1.0
 40
1.0
 40
1.0
 40
1.0
 10
200.7212906370072
 20
150.729451644389
 30
0.0
 10
200.2285805401614
 20
151.6174706425154
 30
0.0
 10
199.7344978348825
 20
152.5047332782014
 30
0.0
 10
199.2393578055181
 20
153.3914129263817
 30
0.0
  0
LINE
  5
103
330
1F
100
AcDbEntity
  8
0
  6
Continuous
 62
     7
370
    15
100
AcDbLine
 10
200.7212906853
 20
143.9743614402
 30
0.0
 11
200.7212906853
 21
150.7294508275
 31
0.0
  0
SPLINE
  5
104
330
1F
100
AcDbEntity
  8
0
  6
Continuous
 62
     7
370
    15
100
AcDbSpline
210
0.0
220
0.0
230
1.0
 70
     8
 71
     3
 72
    10
 73
     6
 74
     0
 42
0.00000001
 43
0.00000001
 40
0.0
 40
0.0
 40
0.0
 40
0.0
 40
0.5
 40
0.5
 40
1.0
 40
1.0
 40
1.0
 40
1.0
 10
210.5812906370072
 20
152.7706577769813
 30
0.0
 10
210.5812906370072
 20
152.9310630433321
 30
0.0
 10
210.5190528059003
 20
153.0901248563207
 30
0.0
 10
210.2999178821578
 20
153.321037321951
 30
0.0
 10
210.1423291871659
 20
153.3914129263816
 30
0.0
 10
209.9812906370072
 20
153.3914129263816
 30
0.0
  0
SPLINE
  5
105
330
1F
100
AcDbEntity
  8
0
  6
Continuous
 62
     7
370
    15
100
AcDbSpline
210
0.0
220
0.0
230
1.0
 70
     8
 71
     3
 72
    12
 73
     8
 74
     0
 42
0.00000001
 43
0.00000001
 40
0.0
 40
0.0
 40
0.0
 40
0.0
 40
0.2500000000000007
 40
0.2500000000000007
 40
0.5000000000000013
 40
0.5000000000000013
 40
1.0
 40
1.0
 40
1.0
 40
1.0
 10
209.9812906370072
 20
147.3829071155849
 30
0.0
 10
210.0724903588329
 20
147.3829071155849
 30
0.0
 10
210.1630853679688
 20
147.3546874169969
 30
0.0
 10
210.3164980944155
 20
147.2602444097489
 30
0.0
 10
210.3817069617392
 20
147.1939574330435
 30
0.0
 10
210.5344914910791
 20
146.9683326097553
 30
0.0
 10
210.5812906370072
 20
146.7859063467227
 30
0.0
 10
210.5812906370072
 20
146.6051697144758
 30
0.0
  0
LINE
  5
106
330
1F
100
AcDbEntity
  8
0
  6
Continuous
 62
     7
370
    15
100
AcDbLine
 10
210.5812903271
 20
146.6051688995
 30
0.0
 11
210.5812903271
 21
152.7706584539
 31
0.0
  0
LINE
  5
107
330
1F
100
AcDbEntity
  8
0
  6
Continuous
 62
     7
370
    15
100
AcDbLine
 10
204.5412909017
 20
143.0600839313
 30
0.0
 11
204.5412909017
 21
143.9743614402
 31
0.0
  0
SPLINE
  5
108
330
1F
100
AcDbEntity
  8
0
  6
Continuous
 62
     7
370
    15
100
AcDbSpline
210
0.0
220
0.0
230
1.0
 70
     8
 71
     3
 72
     8
 73
     4
 74
     0
 42
0.00000001
 43
0.00000001
 40
0.0
 40
0.0
 40
0.0
 40
0.0
 40
1.0
 40
1.0
 40
1.0
 40
1.0
 10
204.5412906370072
 20
143.9743611208008
 30
0.0
 10
205.020568787597
 20
145.1153723506534
 30
0.0
 10
205.516136626737
 20
146.2517567614212
 30
0.0
 10
206.0232234684962
 20
147.3829071155849
 30
0.0
  0
LINE
  5
109
330
1F
100
AcDbEntity
  8
0
  6
Continuous
 62
     7
370
    15
100
AcDbLine
 10
206.0232225583
 20
147.3829070683
 30
0.0
 11
209.9812913463
 21
147.3829070683
 31
0.0
  0
LINE
  5
10A
330
1F
100
AcDbEntity
  8
0
  6
Continuous
 62
     7
370
    15
100
AcDbLine
 10
210.5812903271
 20
146.6051688995
 30
0.0
 11
210.5812903271
 21
142.7742181923
 31
0.0
  0
SPLINE
  5
10B
330
1F
100
AcDbEntity
  8
0
  6
Continuous
 62
     7
370
    15
100
AcDbSpline
210
0.0
220
0.0
230
1.0
 70
     8
 71
     3
 72
     8
 73
     4
 74
     0
 42
0.00000001
 43
0.00000001
 40
0.0
 40
0.0
 40
0.0
 40
0.0
 40
1.0
 40
1.0
 40
1.0
 40
1.0
 10
206.0232234684962
 20
153.3914129263817
 30
0.0
 10
205.5280834391319
 20
152.5047332782014
 30
0.0
 10
205.0340007338529
 20
151.6174706425154
 30
0.0
 10
204.5412906370072
 20
150.7294516443891
 30
0.0
  0
LINE
  5
10C
330
1F
100
AcDbEntity
  8
0
  6
Continuous
 62
     7
370
    15
100
AcDbLine
 10
206.0232225583
 20
147.3829070683
 30
0.0
 11
206.0232225583
 21
153.3914128896
 31
0.0
  0
LINE
  5
10D
330
1F
100
AcDbEntity
  8
0
  6
Continuous
 62
     7
370
    15
100
AcDbLine
 10
204.5412909017
 20
143.9743614402
 30
0.0
 11
204.5412909017
 21
150.7294508275
 31
0.0
  0
LINE
  5
10E
330
1F
100
AcDbEntity
  8
0
  6
Continuous
 62
     7
370
    15
100
AcDbLine
 10
209.9812913463
 20
153.3914128896
 30
0.0
 11
206.0232225583
 21
153.3914128896
 31
0.0
  0
LINE
  5
10F
330
1F
100
AcDbEntity
  8
0
  6
Continuous
 62
     7
370
    15
100
AcDbLine
 10
153.8812897876
 20
102.111717185
 30
0.0
 11
153.8812897876
 21
102.1175863799
 31
0.0
  0
SPLINE
  5
110
330
1F
100
AcDbEntity
  8
0
  6
Continuous
 62
     7
370
    15
100
AcDbSpline
210
0.0
220
0.0
230
1.0
 70
     8
 71
     3
 72
    10
 73
     6
 74
     0
 42
0.00000001
 43
0.00000001
 40
0.0
 40
0.0
 40
0.0
 40
0.0
 40
0.5
 40
0.5
 40
1.0
 40
1.0
 40
1.0
 40
1.0
 10
225.8639636490282
 20
146.9285657267091
 30
0.0
 10
226.0897355613015
 20
146.9380792171706
 30
0.0
 10
226.3052957096377
 20
147.0262620631776
 30
0.0
 10
226.6513233872917
 20
147.319825372794
 30
0.0
 10
226.7737024181903
 20
147.5172345206019
 30
0.0
 10
226.8298894753173
 20
147.7363602603077
 30
0.0
  0
SPLINE
  5
111
330
1F
100
AcDbEntity
  8
0
  6
Continuous
 62
     7
370
    15
100
AcDbSpline
210
0.0
220
0.0
230
1.0
 70
     8
 71
     3
 72
    10
 73
     6
 74
     0
 42
0.00000001
 43
0.00000001
 40
0.0
 40
0.0
 40
0.0
 40
0.0
 40
0.5
 40
0.5
 40
1.0
 40
1.0
 40
1.0
 40
1.0
 10
226.8298894753173
 20
96.58090547165092
 30
0.0
 10
226.7736842435716
 20
96.79886710660654
 30
0.0
 10
226.6506971951178
 20
96.99371899801518
 30
0.0
 10
226.3076616901069
 20
97.27783529175102
 30
0.0
 10
226.0898084309352
 20
97.36292181486233
 30
0.0
 10
225.8639636490291
 20
97.36747594079175
 30
0.0
  0
LINE
  5
112
330
1F
100
AcDbEntity
  8
0
  6
Continuous
 62
     7
370
    15
100
AcDbLine
 10
226.8992390261
 20
148.006695753
 30
0.0
 11
226.8298890219
 21
147.7363607492
 31
0.0
  0
ELLIPSE
  5
113
330
1F
100
AcDbEntity
  8
0
  6
Continuous
 62
     7
370
    15
100
AcDbEllipse
 10
296.5147442585
 20
122.9242174532
 30
0.0
 11
256.8876671519784
 21
2.853440057848474
 31
0.0
210
0.0
220
0.0
230
1.0
 40
0.1045157088
 41
1.832940016914927
 42
1.844062700089056
  0
LINE
  5
114
330
1F
100
AcDbEntity
  8
0
  6
Continuous
 62
     7
370
    15
100
AcDbLine
 10
250.0208493099
 20
119.2529718038
 30
0.0
 11
229.6538527832
 21
148.1162956562
 31
0.0
  0
LINE
  5
115
330
1F
100
AcDbEntity
  8
0
  6
Continuous
 62
     7
370
    15
100
AcDbLine
 10
252.515922092
 20
90.7615809347
 30
0.0
 11
250.0208493099
 21
119.2529718038
 31
0.0
  0
LINE
  5
116
330
1F
100
AcDbEntity
  8
0
  6
Continuous
 62
     7
370
    15
100
AcDbLine
 10
240.3171125576
 20
91.6948183086
 30
0.0
 11
252.515922092
 21
90.7615809347
 31
0.0
  0
ARC
  5
117
330
1F
100
AcDbEntity
  8
0
  6
Continuous
 62
     7
370
    15
100
AcDbCircle
 10
240.116885044
 20
89.3640445548
 30
0.0
 40
2.339358319786233
100
AcDbArc
 50
85.0900018677
 51
264.9195865531
  0
LINE
  5
118
330
1F
100
AcDbEntity
  8
0
  6
Continuous
 62
     7
370
    15
100
AcDbLine
 10
241.1591473744
 20
86.9382931497
 30
0.0
 11
239.9097259865
 21
87.0338766482
 31
0.0
  0
LINE
  5
119
330
1F
100
AcDbEntity
  8
0
  6
Continuous
 62
     7
370
    15
100
AcDbLine
 10
241.7779851482
 20
79.8717080261
 30
0.0
 11
241.1591473744
 21
86.9382931497
 31
0.0
  0
LINE
  5
11A
330
1F
100
AcDbEntity
  8
0
  6
Continuous
 62
     7
370
    15
100
AcDbLine
 10
230.9991296158
 20
80.6963122096
 30
0.0
 11
241.7779851482
 21
79.8717080261
 31
0.0
  0
SPLINE
  5
11B
330
1F
100
AcDbEntity
  8
0
  6
Continuous
 62
     7
370
    15
100
AcDbSpline
210
0.0
220
0.0
230
1.0
 70
     8
 71
     3
 72
     8
 73
     4
 74
     0
 42
0.00000001
 43
0.00000001
 40
0.0
 40
0.0
 40
0.0
 40
0.0
 40
1.0
 40
1.0
 40
1.0
 40
1.0
 10
226.8298894753173
 20
96.58090547165092
 30
0.0
 10
228.1968669213911
 20
91.27982174973
 30
0.0
 10
229.5949699944509
 20
85.98724061807083
 30
0.0
 10
230.9991282319155
 20
80.69631357620472
 30
0.0
  0
CIRCLE
  5
11C
330
1F
100
AcDbEntity
  8
0
  6
Continuous
 62
     7
370
    15
100
AcDbCircle
 10
243.2987362591
 20
96.792228033
 30
0.0
 40
3.974314780495136
  0
LINE
  5
11D
330
1F
100
AcDbEntity
  8
0
  6
Continuous
 62
     7
370
    15
100
AcDbLine
 10
226.8992390261
 20
148.006695753
 30
0.0
 11
226.8992390261
 21
149.9242181536
 31
0.0
  0
LINE
  5
11E
330
1F
100
AcDbEntity
  8
0
  6
Continuous
 62
     7
370
    15
100
AcDbLine
 10
230.9991296158
 20
80.6963122096
 30
0.0
 11
230.9970844314
 21
80.7002684679
 31
0.0
  0
ELLIPSE
  5
11F
330
1F
100
AcDbEntity
  8
0
  6
Continuous
 62
     7
370
    15
100
AcDbEllipse
 10
247.2698208267
 20
122.9242174532
 30
0.0
 11
-19.21239144025139
 21
26.99711638407907
 31
0.0
210
0.0
220
0.0
230
1.0
 40
0.0205386817
 41
5.900545698542889
 42
6.268570076028023
  0
ARC
  5
120
330
1F
100
AcDbEntity
  8
0
  6
Continuous
 62
     7
370
    15
100
AcDbCircle
 10
239.5925764537
 20
89.8266371082
 30
0.0
 40
2.310740615985968
100
AcDbArc
 50
233.8404930532
 51
265.6781700503
  0
ELLIPSE
  5
121
330
1F
100
AcDbEntity
  8
0
  6
Continuous
 62
     7
370
    15
100
AcDbEllipse
 10
238.0565869008
 20
118.2672266998
 30
0.0
 11
-3.768286501278312
 21
38.39421154640809
 31
0.0
210
0.0
220
0.0
230
1.0
 40
0.0930513613
 41
3.125219793363861
 42
3.128558029706119
  0
LINE
  5
122
330
1F
100
AcDbEntity
  8
0
  6
Continuous
 62
     7
370
    15
100
AcDbLine
 10
239.1111280546
 20
87.8280973639
 30
0.0
 11
240.6660455987
 21
87.7091451194
 31
0.0
  0
LINE
  5
123
330
1F
100
AcDbEntity
  8
0
  6
Continuous
 62
     7
370
    15
100
AcDbLine
 10
240.6909193621
 20
87.4251215365
 30
0.0
 11
240.6678635404
 21
87.4268835988
 31
0.0
  0
LINE
  5
124
330
1F
100
AcDbEntity
  8
0
  6
Continuous
 62
     7
370
    15
100
AcDbLine
 10
240.6678635404
 20
87.4268835988
 30
0.0
 11
241.1591473744
 21
86.9382931497
 31
0.0
  0
ARC
  5
125
330
1F
100
AcDbEntity
  8
0
  6
Continuous
 62
     7
370
    15
100
AcDbCircle
 10
239.5735482196
 20
89.5796803365
 30
0.0
 40
2.06305215733192
100
AcDbArc
 50
225.191233932
 51
265.6882735543
  0
LINE
  5
126
330
1F
100
AcDbEntity
  8
0
  6
Continuous
 62
     7
370
    15
100
AcDbLine
 10
239.8436430619
 20
91.6828862037
 30
0.0
 11
240.3212550805
 21
91.6463485565
 31
0.0
  0
ARC
  5
127
330
1F
100
AcDbEntity
  8
0
  6
Continuous
 62
     7
370
    15
100
AcDbCircle
 10
239.2668540419
 20
89.8875210627
 30
0.0
 40
2.065303017481519
100
AcDbArc
 50
234.6869830111
 51
265.6757347736
  0
LWPOLYLINE
  5
128
330
1F
100
AcDbEntity
  8
0
  6
Continuous
 62
     7
370
    15
100
AcDbPolyline
 90
        3
 70
   128
 43
0.0
 10
249.4473334179
 20
86.2588858809
 10
249.4372080789
 20
86.4997445252
 10
249.4278948531
 20
86.5970714595
  0
LINE
  5
129
330
1F
100
AcDbEntity
  8
0
  6
HIDDEN
 62
     7
370
     0
100
AcDbLine
 10
189.5812906102
 20
91.4242169466
 30
0.0
 11
189.5812906102
 21
91.4400941338
 31
0.0
  0
SPLINE
  5
12A
330
1F
100
AcDbEntity
  8
0
  6
HIDDEN
 62
     7
370
     0
100
AcDbSpline
210
0.0
220
0.0
230
1.0
 70
     8
 71
     3
 72
    30
 73
    26
 74
     0
 42
0.00000001
 43
0.00000001
 40
0.0
 40
0.0
 40
0.0
 40
0.0
 40
0.1249999999999999
 40
0.1249999999999999
 40
0.1874999999999998
 40
0.1874999999999998
 40
0.2499999999999997
 40
0.2499999999999997
 40
0.3749999999999996
 40
0.3749999999999996
 40
0.4374999999999996
 40
0.4374999999999996
 40
0.4999999999999996
 40
0.4999999999999996
 40
0.6249999999999992
 40
0.6249999999999992
 40
0.6874999999999992
 40
0.6874999999999992
 40
0.7499999999999992
 40
0.7499999999999992
 40
0.8124999999999993
 40
0.8124999999999993
 40
0.8749999999999993
 40
0.8749999999999993
 40
1.0
 40
1.0
 40
1.0
 40
1.0
 10
189.5812906370072
 20
91.44009447035509
 30
0.0
 10
189.5812906370072
 20
91.45697338836369
 30
0.0
 10
189.6337082029856
 20
91.48699095318841
 30
0.0
 10
189.7870876828879
 20
91.54980134246149
 30
0.0
 10
189.8507688035557
 20
91.5737052496884
 30
0.0
 10
190.0037236710073
 20
91.62714054213079
 30
0.0
 10
190.0932959697766
 20
91.65674741029835
 30
0.0
 10
190.3945200026297
 20
91.75119710901278
 30
0.0
 10
190.6398349987139
 20
91.822224502842
 30
0.0
 10
191.0739319797841
 20
91.93623878954777
 30
0.0
 10
191.2306016688878
 20
91.97569404068834
 30
0.0
 10
191.5625948327302
 20
92.055215483459
 30
0.0
 10
191.7373003617226
 20
92.09515162595979
 30
0.0
 10
192.2869700443142
 20
92.21408802878794
 30
0.0
 10
192.6872210070254
 20
92.29225279267179
 30
0.0
 10
193.340807873663
 20
92.40196223294069
 30
0.0
 10
193.56648399334
 20
92.43704306964909
 30
0.0
 10
194.0261958144714
 20
92.50228334902872
 30
0.0
 10
194.2612491485145
 20
92.53261816507346
 30
0.0
 10
194.7417564308135
 20
92.58795654429531
 30
0.0
 10
194.9872099587276
 20
92.61296122085537
 30
0.0
 10
195.4888253835349
 20
92.65684102974608
 30
0.0
 10
195.7463177661355
 20
92.67578471450837
 30
0.0
 10
196.5243942825716
 20
92.72150444177855
 30
0.0
 10
197.0495565598165
 20
92.73729975697027
 30
0.0
 10
197.5812906370072
 20
92.73729975697027
 30
0.0
  0
LINE
  5
12B
330
1F
100
AcDbEntity
  8
0
  6
HIDDEN
 62
     7
370
     0
100
AcDbLine
 10
197.5812909902
 20
92.7372998204
 30
0.0
 11
199.2393580974
 21
92.7372998204
 31
0.0
  0
LINE
  5
12C
330
1F
100
AcDbEntity
  8
0
  6
HIDDEN
 62
     7
370
     0
100
AcDbLine
 10
199.2393580974
 20
153.3914128896
 30
0.0
 11
199.2393580974
 21
92.7372998204
 31
0.0
  0
LINE
  5
12D
330
1F
100
AcDbEntity
  8
0
  6
HIDDEN
 62
     7
370
     0
100
AcDbLine
 10
197.5812909902
 20
153.3914128896
 30
0.0
 11
199.2393580974
 21
153.3914128896
 31
0.0
  0
SPLINE
  5
12E
330
1F
100
AcDbEntity
  8
0
  6
HIDDEN
 62
     7
370
     0
100
AcDbSpline
210
0.0
220
0.0
230
1.0
 70
     8
 71
     3
 72
    24
 73
    20
 74
     0
 42
0.00000001
 43
0.00000001
 40
0.0
 40
0.0
 40
0.0
 40
0.0
 40
0.0096786141464909
 40
0.0638613259752742
 40
0.1151503802217605
 40
0.218714842963283
 40
0.2715874328241594
 40
0.3233795515300864
 40
0.4279241330775771
 40
0.4812568410497032
 40
0.5874627219097216
 40
0.6419372461903622
 40
0.6968115264931121
 40
0.7499885561407785
 40
0.8035487952149869
 40
0.8583374821508029
 40
0.9135595574220399
 40
0.9566727064272917
 40
0.9999999999999999
 40
0.9999999999999999
 40
0.9999999999999999
 40
0.9999999999999999
 10
189.5854950659482
 20
154.4231525268315
 30
0.0
 10
189.5841714586837
 20
154.423487132193
 30
0.0
 10
189.5754380477118
 20
154.4256949216282
 30
0.0
 10
189.614423478571
 20
154.4157966948752
 30
0.0
 10
189.7332934468535
 20
154.3858355124691
 30
0.0
 10
189.9633105657641
 20
154.3287718353418
 30
0.0
 10
190.2917964841978
 20
154.2509351964125
 30
0.0
 10
190.6870740583427
 20
154.1605541779412
 30
0.0
 10
191.1773482648555
 20
154.0550947350507
 30
0.0
 10
191.89935926532
 20
153.9142409446283
 30
0.0
 10
192.5669410326849
 20
153.7977134301427
 30
0.0
 10
193.3071139569165
 20
153.6879771313316
 30
0.0
 10
193.8970474533739
 20
153.611417486175
 30
0.0
 10
194.5107014220776
 20
153.5436832804554
 30
0.0
 10
195.1466910746889
 20
153.4862537353434
 30
0.0
 10
195.8094398342466
 20
153.4403549798238
 30
0.0
 10
196.4429785272378
 20
153.4107475332631
 30
0.0
 10
197.0356461255867
 20
153.3942456791091
 30
0.0
 10
197.3991092249949
 20
153.3923587109902
 30
0.0
 10
197.5812909901647
 20
153.3914128895759
 30
0.0
  0
SPLINE
  5
12F
330
1F
100
AcDbEntity
  8
0
  6
HIDDEN
 62
     7
370
     0
100
AcDbSpline
210
0.0
220
0.0
230
1.0
 70
     8
 71
     3
 72
    76
 73
    72
 74
     0
 42
0.00000001
 43
0.00000001
 40
-0.0312499999999999
 40
-0.0312499999999999
 40
0.0
 40
0.0
 40
0.03125
 40
0.03125
 40
0.046875
 40
0.046875
 40
0.0625
 40
0.0625
 40
0.09375
 40
0.09375
 40
0.1250000000000001
 40
0.1250000000000001
 40
0.1562500000000001
 40
0.1562500000000001
 40
0.1875000000000001
 40
0.1875000000000001
 40
0.2187500000000001
 40
0.2187500000000001
 40
0.2500000000000002
 40
0.2500000000000002
 40
0.2812500000000002
 40
0.2812500000000002
 40
0.3125000000000001
 40
0.3125000000000001
 40
0.3281250000000001
 40
0.3281250000000001
 40
0.3437500000000001
 40
0.3437500000000001
 40
0.3750000000000001
 40
0.3750000000000001
 40
0.4062500000000001
 40
0.4062500000000001
 40
0.4375000000000001
 40
0.4375000000000001
 40
0.4687500000000001
 40
0.4687500000000001
 40
0.5000000000000001
 40
0.5000000000000001
 40
0.5312500000000001
 40
0.5312500000000001
 40
0.5625000000000001
 40
0.5625000000000001
 40
0.5937500000000001
 40
0.5937500000000001
 40
0.6250000000000001
 40
0.6250000000000001
 40
0.6562500000000001
 40
0.6562500000000001
 40
0.6875000000000001
 40
0.6875000000000001
 40
0.7031250000000001
 40
0.7031250000000001
 40
0.7187500000000001
 40
0.7187500000000001
 40
0.7500000000000001
 40
0.7500000000000001
 40
0.7812500000000001
 40
0.7812500000000001
 40
0.8125000000000001
 40
0.8125000000000001
 40
0.8437500000000001
 40
0.8437500000000001
 40
0.8750000000000001
 40
0.8750000000000001
 40
0.9062500000000001
 40
0.9062500000000001
 40
0.9375000000000001
 40
0.9375000000000001
 40
0.9687500000000001
 40
0.9687500000000001
 40
1.0
 40
1.0
 40
1.03125
 40
1.03125
 10
186.6312906370072
 20
123.2551014490115
 30
0.0
 10
186.6312906370072
 20
122.5933334574233
 30
0.0
 10
186.6638111147916
 20
122.2680822893275
 30
0.0
 10
186.7593043590736
 20
121.7882855684384
 30
0.0
 10
186.7989791944848
 20
121.6297098846447
 30
0.0
 10
186.8943658078204
 20
121.3153274988517
 30
0.0
 10
186.950310049231
 20
121.1592078752675
 30
0.0
 10
187.1386730726807
 20
120.7052673153656
 30
0.0
 10
187.2922853490991
 20
120.4182870693586
 30
0.0
 10
187.6551131428832
 20
119.8751739126193
 30
0.0
 10
187.8659482444657
 20
119.6184346210753
 30
0.0
 10
188.3264478144831
 20
119.1580499868444
 30
0.0
 10
188.5778107554009
 20
118.9512731700905
 30
0.0
 10
189.1241574497544
 20
118.5857489624271
 30
0.0
 10
189.4143720894724
 20
118.4307494037123
 30
0.0
 10
190.015758905774
 20
118.1812183826181
 30
0.0
 10
190.3313885988644
 20
118.0849401089294
 30
0.0
 10
190.977029000144
 20
117.9562911016864
 30
0.0
 10
191.3017847559573
 20
117.9244048425698
 30
0.0
 10
191.9550847863487
 20
117.9240316950591
 30
0.0
 10
192.2869571271794
 20
117.9566111813051
 30
0.0
 10
192.9286083607831
 20
118.0843850860115
 30
0.0
 10
193.2405332777162
 20
118.1789175303086
 30
0.0
 10
193.6950228782331
 20
118.3670371248473
 30
0.0
 10
193.844886186067
 20
118.4379201060681
 30
0.0
 10
194.1339714199897
 20
118.5925367124025
 30
0.0
 10
194.2738323342977
 20
118.6764593111404
 30
0.0
 10
194.679708778002
 20
118.9476548346161
 30
0.0
 10
194.9327469244915
 20
119.1547548400574
 30
0.0
 10
195.398646480655
 20
119.6203572931146
 30
0.0
 10
195.6051525551507
 20
119.8722761455019
 30
0.0
 10
195.9672581185504
 20
120.4131797615028
 30
0.0
 10
196.1241172323656
 20
120.7057226042542
 30
0.0
 10
196.3750673492282
 20
121.3105902610117
 30
0.0
 10
196.4698784485592
 20
121.6222370924584
 30
0.0
 10
196.5983003113523
 20
122.26399039768
 30
0.0
 10
196.6311635978435
 20
122.5957182165593
 30
0.0
 10
196.631416923952
 20
123.2488379818202
 30
0.0
 10
196.5998609233828
 20
123.5737711881633
 30
0.0
 10
196.4716197019584
 20
124.2202981946163
 30
0.0
 10
196.3758136533
 20
124.5353061484773
 30
0.0
 10
196.1266801422059
 20
125.1372648166229
 30
0.0
 10
195.9712200205111
 20
125.4287409868984
 30
0.0
 10
195.6067657661513
 20
125.9743359233951
 30
0.0
 10
195.4003328587156
 20
126.2258130384002
 30
0.0
 10
194.9398637761977
 20
126.687136062455
 30
0.0
 10
194.6830667681418
 20
126.8982593634014
 30
0.0
 10
194.1410215543073
 20
127.2609901451174
 30
0.0
 10
193.8542519743718
 20
127.414879048503
 30
0.0
 10
193.3999447984861
 20
127.603828775195
 30
0.0
 10
193.2438044977126
 20
127.6599015712148
 30
0.0
 10
192.9299585363665
 20
127.7554043367475
 30
0.0
 10
192.7715717486728
 20
127.795184979775
 30
0.0
 10
192.2920955087294
 20
127.8910675169003
 30
0.0
 10
191.9658555643025
 20
127.9239429648998
 30
0.0
 10
191.3049809670246
 20
127.9244885340708
 30
0.0
 10
190.9798446196797
 20
127.8923220154574
 30
0.0
 10
190.3397621191932
 20
127.7655394774702
 30
0.0
 10
190.0214411951254
 20
127.6692717236789
 30
0.0
 10
189.4165249162862
 20
127.4188774022537
 30
0.0
 10
189.1293760026347
 20
127.2655632405322
 30
0.0
 10
188.5854244489618
 20
126.9028553165124
 30
0.0
 10
188.3287784992351
 20
126.6924162437785
 30
0.0
 10
187.8681879458223
 20
126.2325352555022
 30
0.0
 10
187.6610390598314
 20
125.9812534558094
 30
0.0
 10
187.294507816418
 20
125.4343332820694
 30
0.0
 10
187.1398236289135
 20
125.1451931304531
 30
0.0
 10
186.8897239755754
 20
124.5439564565338
 30
0.0
 10
186.7930372010823
 20
124.2279807628931
 30
0.0
 10
186.663815626126
 20
123.5820070047965
 30
0.0
 10
186.6312906370072
 20
123.2551014490115
 30
0.0
 10
186.6312906370072
 20
122.5933334574233
 30
0.0
  0
LINE
  5
130
330
1F
100
AcDbEntity
  8
0
  6
HIDDEN
 62
     7
370
     0
100
AcDbLine
 10
184.631290637
 20
91.7242182996
 30
0.0
 11
184.631290637
 21
154.1242166068
 31
0.0
  0
SPLINE
  5
131
330
1F
100
AcDbEntity
  8
0
  6
HIDDEN
 62
     7
370
     0
100
AcDbSpline
210
0.0
220
0.0
230
1.0
 70
     8
 71
     3
 72
    10
 73
     6
 74
     0
 42
0.00000001
 43
0.00000001
 40
0.0
 40
0.0
 40
0.0
 40
0.0
 40
0.5
 40
0.5
 40
1.0
 40
1.0
 40
1.0
 40
1.0
 10
204.5412906370072
 20
96.11982182488808
 30
0.0
 10
204.5412906370072
 20
96.19005818525885
 30
0.0
 10
204.5330080249167
 20
96.26005228675635
 30
0.0
 10
204.4999080818581
 20
96.39701155131527
 30
0.0
 10
204.4755706898996
 20
96.46231946057053
 30
0.0
 10
204.4436158346749
 20
96.52421745321743
 30
0.0
  0
LINE
  5
132
330
1F
100
AcDbEntity
  8
0
  6
HIDDEN
 62
     7
370
     0
100
AcDbLine
 10
204.5412909017
 20
143.0600839313
 30
0.0
 11
204.5412909017
 21
150.0438707527
 31
0.0
  0
SPLINE
  5
133
330
1F
100
AcDbEntity
  8
0
  6
HIDDEN
 62
     7
370
     0
100
AcDbSpline
210
0.0
220
0.0
230
1.0
 70
    24
 71
     3
 72
    10
 73
     6
 74
     0
 42
0.00000001
 43
0.00000001
 40
0.0
 40
0.0
 40
0.0
 40
0.0
 40
0.5
 40
0.5
 40
1.0
 40
1.0
 40
1.0
 40
1.0
 10
204.5151430138471
 20
142.7742174532174
 30
0.0
 10
204.5238207887547
 20
142.7742174532174
 30
0.0
 10
204.5303738127616
 20
142.7742174532174
 30
0.0
 10
204.5391084222586
 20
142.7742174532174
 30
0.0
 10
204.5412906370072
 20
142.7742174532174
 30
0.0
 10
204.5412906370072
 20
142.7742174532174
 30
0.0
  0
LINE
  5
134
330
1F
100
AcDbEntity
  8
0
  6
HIDDEN
 62
     7
370
     0
100
AcDbLine
 10
204.5412909017
 20
96.1198224332
 30
0.0
 11
204.5412909017
 21
142.7742181923
 31
0.0
  0
SPLINE
  5
135
330
1F
100
AcDbEntity
  8
0
  6
HIDDEN
 62
     7
370
     0
100
AcDbSpline
210
0.0
220
0.0
230
1.0
 70
     8
 71
     3
 72
    10
 73
     6
 74
     0
 42
0.00000001
 43
0.00000001
 40
0.0
 40
0.0
 40
0.0
 40
0.0
 40
0.5
 40
0.5
 40
1.0
 40
1.0
 40
1.0
 40
1.0
 10
200.8189654393395
 20
96.52421745321746
 30
0.0
 10
200.7868102517175
 20
96.46193140770134
 30
0.0
 10
200.7621540205232
 20
96.39540098283214
 30
0.0
 10
200.7293412635977
 20
96.25854235246969
 30
0.0
 10
200.7212906370072
 20
96.18948475729138
 30
0.0
 10
200.7212906370072
 20
96.11982182488808
 30
0.0
  0
SPLINE
  5
136
330
1F
100
AcDbEntity
  8
0
  6
HIDDEN
 62
     7
370
     0
100
AcDbSpline
210
0.0
220
0.0
230
1.0
 70
    24
 71
     3
 72
    10
 73
     6
 74
     0
 42
0.00000001
 43
0.00000001
 40
0.0
 40
0.0
 40
0.0
 40
0.0
 40
0.5
 40
0.5
 40
1.0
 40
1.0
 40
1.0
 40
1.0
 10
200.7212906370072
 20
142.7742174532174
 30
0.0
 10
200.7212906370072
 20
142.7742174532174
 30
0.0
 10
200.7235124954919
 20
142.7742174532174
 30
0.0
 10
200.7322491672155
 20
142.7742174532174
 30
0.0
 10
200.7387606810098
 20
142.7742174532174
 30
0.0
 10
200.7474382601673
 20
142.7742174532174
 30
0.0
  0
LINE
  5
137
330
1F
100
AcDbEntity
  8
0
  6
HIDDEN
 62
     7
370
     0
100
AcDbLine
 10
200.7212906853
 20
143.0600839313
 30
0.0
 11
200.7212906853
 21
150.0438707527
 31
0.0
  0
LINE
  5
138
330
1F
100
AcDbEntity
  8
0
  6
HIDDEN
 62
     7
370
     0
100
AcDbLine
 10
200.7212906853
 20
96.1198224332
 30
0.0
 11
200.7212906853
 21
142.7742181923
 31
0.0
  0
SPLINE
  5
139
330
1F
100
AcDbEntity
  8
0
  6
HIDDEN
 62
     7
370
     0
100
AcDbSpline
210
0.0
220
0.0
230
1.0
 70
    24
 71
     3
 72
    18
 73
    14
 74
     0
 42
0.00000001
 43
0.00000001
 40
0.0
 40
0.0
 40
0.0
 40
0.0
 40
0.5
 40
0.5
 40
0.75
 40
0.75
 40
0.875
 40
0.875
 40
0.9375
 40
0.9375
 40
0.96875
 40
0.96875
 40
1.0
 40
1.0
 40
1.0
 40
1.0
 10
210.5812906370072
 20
149.3242174532174
 30
0.0
 10
210.5812906370072
 20
149.3242174532174
 30
0.0
 10
210.6371397625017
 20
149.3242174532174
 30
0.0
 10
210.7128571471249
 20
149.3242174532174
 30
0.0
 10
210.7370464960715
 20
149.3242174532174
 30
0.0
 10
210.7627902660313
 20
149.3242174532174
 30
0.0
 10
210.7696359150578
 20
149.3242174532174
 30
0.0
 10
210.7765757386725
 20
149.3242174532174
 30
0.0
 10
210.7783381827689
 20
149.3242174532174
 30
0.0
 10
210.7801063598492
 20
149.3242174532174
 30
0.0
 10
210.7805501567061
 20
149.3242174532174
 30
0.0
 10
210.7811423310523
 20
149.3242174532174
 30
0.0
 10
210.7812907020827
 20
149.3242174532174
 30
0.0
 10
210.7812906369842
 20
149.3242174532174
 30
0.0
  0
SPLINE
  5
13A
330
1F
100
AcDbEntity
  8
0
  6
HIDDEN
 62
     7
370
     0
100
AcDbSpline
210
0.0
220
0.0
230
1.0
 70
    24
 71
     3
 72
    10
 73
     6
 74
     0
 42
0.00000001
 43
0.00000001
 40
0.0
 40
0.0
 40
0.0
 40
0.0
 40
0.0405094957859219
 40
0.52022296562335
 40
1.0
 40
1.0
 40
1.0
 40
1.0
 10
210.7337701842694
 20
149.3242173101663
 30
0.0
 10
210.7325141949727
 20
149.3242173101663
 30
0.0
 10
210.7163847797825
 20
149.3242173101663
 30
0.0
 10
210.6174228948497
 20
149.3242173101663
 30
0.0
 10
210.5933350482509
 20
149.3242173101663
 30
0.0
 10
210.581290327063
 20
149.3242173101663
 30
0.0
  0
LINE
  5
13B
330
1F
100
AcDbEntity
  8
0
  6
HIDDEN
 62
     7
370
     0
100
AcDbLine
 10
210.5812903271
 20
149.3242173102
 30
0.0
 11
210.5812903271
 21
96.5242175963
 31
0.0
  0
SPLINE
  5
13C
330
1F
100
AcDbEntity
  8
0
  6
HIDDEN
 62
     7
370
     0
100
AcDbSpline
210
0.0
220
0.0
230
1.0
 70
    24
 71
     3
 72
    18
 73
    14
 74
     0
 42
0.00000001
 43
0.00000001
 40
0.0
 40
0.0
 40
0.0
 40
0.0
 40
0.5000000000000001
 40
0.5000000000000001
 40
0.75
 40
0.75
 40
0.875
 40
0.875
 40
0.9375
 40
0.9375
 40
0.96875
 40
0.96875
 40
1.0
 40
1.0
 40
1.0
 40
1.0
 10
210.5812906370072
 20
96.5242174532174
 30
0.0
 10
210.5812906370072
 20
96.5242174532174
 30
0.0
 10
210.6371397846067
 20
96.5242174532174
 30
0.0
 10
210.7128571824121
 20
96.5242174532174
 30
0.0
 10
210.7370465324769
 20
96.5242174532174
 30
0.0
 10
210.7627902950948
 20
96.5242174532174
 30
0.0
 10
210.7696359402078
 20
96.5242174532174
 30
0.0
 10
210.7765757558281
 20
96.5242174532174
 30
0.0
 10
210.7783381969112
 20
96.5242174532174
 30
0.0
 10
210.78010636901
 20
96.5242174532174
 30
0.0
 10
210.7805501641299
 20
96.5242174532174
 30
0.0
 10
210.7811423348633
 20
96.5242174532174
 30
0.0
 10
210.7812907038858
 20
96.5242174532174
 30
0.0
 10
210.7812906369829
 20
96.5242174532174
 30
0.0
  0
SPLINE
  5
13D
330
1F
100
AcDbEntity
  8
0
  6
HIDDEN
 62
     7
370
     0
100
AcDbSpline
210
0.0
220
0.0
230
1.0
 70
    24
 71
     3
 72
    10
 73
     6
 74
     0
 42
0.00000001
 43
0.00000001
 40
0.0
 40
0.0
 40
0.0
 40
0.0
 40
0.0027676686626403
 40
0.5013508018972522
 40
1.0
 40
1.0
 40
1.0
 40
1.0
 10
210.7300504819063
 20
96.52421759626856
 30
0.0
 10
210.7299632731288
 20
96.52421759626856
 30
0.0
 10
210.7141657930494
 20
96.52421759626864
 30
0.0
 10
210.6167712202515
 20
96.52421759626853
 30
0.0
 10
210.5931178137912
 20
96.52421759626856
 30
0.0
 10
210.581290327063
 20
96.52421759626856
 30
0.0
  0
LINE
  5
13E
330
1F
100
AcDbEntity
  8
0
  6
HIDDEN
 62
     7
370
     0
100
AcDbLine
 10
210.5812903271
 20
96.5242175963
 30
0.0
 11
210.5812903271
 21
149.3242173102
 31
0.0
  0
SPLINE
  5
13F
330
1F
100
AcDbEntity
  8
0
  6
HIDDEN
 62
     7
370
     0
100
AcDbSpline
210
0.0
220
0.0
230
1.0
 70
     8
 71
     3
 72
    70
 73
    66
 74
     0
 42
0.00000001
 43
0.00000001
 40
-0.0312500000000006
 40
-0.0312500000000006
 40
0.0
 40
0.0
 40
0.03125
 40
0.03125
 40
0.0624999999999999
 40
0.0624999999999999
 40
0.0937499999999999
 40
0.0937499999999999
 40
0.1249999999999999
 40
0.1249999999999999
 40
0.1562499999999998
 40
0.1562499999999998
 40
0.1874999999999998
 40
0.1874999999999998
 40
0.2187499999999998
 40
0.2187499999999998
 40
0.2499999999999997
 40
0.2499999999999997
 40
0.2812499999999997
 40
0.2812499999999997
 40
0.3124999999999997
 40
0.3124999999999997
 40
0.3437499999999996
 40
0.3437499999999996
 40
0.3749999999999996
 40
0.3749999999999996
 40
0.4062499999999996
 40
0.4062499999999996
 40
0.4374999999999995
 40
0.4374999999999995
 40
0.4687499999999995
 40
0.4687499999999995
 40
0.4999999999999994
 40
0.4999999999999994
 40
0.5312499999999994
 40
0.5312499999999994
 40
0.5624999999999993
 40
0.5624999999999993
 40
0.5937499999999993
 40
0.5937499999999993
 40
0.6249999999999993
 40
0.6249999999999993
 40
0.6562499999999992
 40
0.6562499999999992
 40
0.6874999999999992
 40
0.6874999999999992
 40
0.7187499999999992
 40
0.7187499999999992
 40
0.7499999999999991
 40
0.7499999999999991
 40
0.7812499999999991
 40
0.7812499999999991
 40
0.8124999999999991
 40
0.8124999999999991
 40
0.8437499999999991
 40
0.8437499999999991
 40
0.874999999999999
 40
0.874999999999999
 40
0.906249999999999
 40
0.906249999999999
 40
0.937499999999999
 40
0.937499999999999
 40
0.9687499999999994
 40
0.9687499999999994
 40
1.0
 40
1.0
 40
1.03125
 40
1.03125
 10
214.8296620282414
 20
140.1950554484713
 30
0.0
 10
214.4329192457733
 20
140.1950554484713
 30
0.0
 10
214.237896078204
 20
140.1804071588382
 30
0.0
 10
213.8542620457579
 20
140.1228894171081
 30
0.0
 10
213.6636507047301
 20
140.0793104374369
 30
0.0
 10
213.3004291917629
 20
139.9651785369927
 30
0.0
 10
213.1281840069266
 20
139.8951730469837
 30
0.0
 10
212.802203385146
 20
139.7288828700577
 30
0.0
 10
212.6479885492074
 20
139.6317695439987
 30
0.0
 10
212.371512989784
 20
139.4182301698033
 30
0.0
 10
212.2473894968707
 20
139.3010577708528
 30
0.0
 10
212.0280726784179
 20
139.0445724890261
 30
0.0
 10
211.9349749923103
 20
138.9072594979972
 30
0.0
 10
211.7853027045222
 20
138.6207797617809
 30
0.0
 10
211.7276237444876
 20
138.4694901585129
 30
0.0
 10
211.6504954461417
 20
138.1572247120901
 30
0.0
 10
211.6313991216472
 20
137.998965590237
 30
0.0
 10
211.6311830653211
 20
137.6781552580954
 30
0.0
 10
211.6506923121769
 20
137.5138943356006
 30
0.0
 10
211.72728697094
 20
137.1936470536006
 30
0.0
 10
211.7839576388077
 20
137.0367534023061
 30
0.0
 10
211.9342918337601
 20
136.7298616752871
 30
0.0
 10
212.0281535060545
 20
136.5805698375711
 30
0.0
 10
212.2451905816267
 20
136.3024524507619
 30
0.0
 10
212.3691826698243
 20
136.1718342582483
 30
0.0
 10
212.6490435898386
 20
135.9292543128392
 30
0.0
 10
212.800390018943
 20
135.8211975753656
 30
0.0
 10
213.1250692017515
 20
135.631195512553
 30
0.0
 10
213.3004796278537
 20
135.5485788924943
 30
0.0
 10
213.6636885446615
 20
135.4159343381301
 30
0.0
 10
213.8506769446462
 20
135.3657143233925
 30
0.0
 10
214.2353697294777
 20
135.2976743479221
 30
0.0
 10
214.4343162021563
 20
135.2802079459445
 30
0.0
 10
214.8260316169197
 20
135.2800787877428
 30
0.0
 10
215.020803638634
 20
135.2968524302093
 30
0.0
 10
215.4081253704136
 20
135.3647425932174
 30
0.0
 10
215.5974796472757
 20
135.4155822433632
 30
0.0
 10
215.9586180995959
 20
135.5471449382021
 30
0.0
 10
216.1331719885586
 20
135.6288773484086
 30
0.0
 10
216.4611394027617
 20
135.8203639973511
 30
0.0
 10
216.6121644104651
 20
135.9283850556887
 30
0.0
 10
216.8889865790528
 20
136.1676955358972
 30
0.0
 10
217.0157374657604
 20
136.3005493021754
 30
0.0
 10
217.233643193412
 20
136.5793515164669
 30
0.0
 10
217.3259376392677
 20
136.7258230480435
 30
0.0
 10
217.4768904737843
 20
137.0324733978595
 30
0.0
 10
217.5348156896542
 20
137.1922905591831
 30
0.0
 10
217.6114519753782
 20
137.5114303176248
 30
0.0
 10
217.6311059658942
 20
137.6724574846071
 30
0.0
 10
217.6314727431226
 20
137.9974073115905
 30
0.0
 10
217.6121635635992
 20
138.1559713739094
 30
0.0
 10
217.5362059799035
 20
138.4653580341001
 30
0.0
 10
217.4786275836967
 20
138.6178222015897
 30
0.0
 10
217.3283029419848
 20
138.9062964721092
 30
0.0
 10
217.2362937918498
 20
139.0420108831983
 30
0.0
 10
217.0188814526307
 20
139.2972048874343
 30
0.0
 10
216.8924133775581
 20
139.4170413560796
 30
0.0
 10
216.6161213416594
 20
139.630737260889
 30
0.0
 10
216.4653129493697
 20
139.7260575442401
 30
0.0
 10
216.1376468055556
 20
139.8938156313554
 30
0.0
 10
215.9633557955263
 20
139.9646572364733
 30
0.0
 10
215.602582619317
 20
140.0783040418119
 30
0.0
 10
215.4136723896264
 20
140.1219177006926
 30
0.0
 10
215.0258026971135
 20
140.1804059396266
 30
0.0
 10
214.8296620282414
 20
140.1950554484713
 30
0.0
 10
214.4329192457733
 20
140.1950554484713
 30
0.0
  0
LINE
  5
140
330
1F
100
AcDbEntity
  8
0
  6
HIDDEN
 62
     7
370
     0
100
AcDbLine
 10
184.631290637
 20
97.600293776
 30
0.0
 11
184.631290637
 21
148.230002692
 31
0.0
  0
LINE
  5
141
330
1F
100
AcDbEntity
  8
0
  6
HIDDEN
 62
     7
370
     0
100
AcDbLine
 10
189.5812906102
 20
142.7742181923
 30
0.0
 11
196.8269113228
 21
142.7742181923
 31
0.0
  0
LWPOLYLINE
  5
142
330
1F
100
AcDbEntity
  8
0
  6
HIDDEN
 62
     7
370
     0
100
AcDbPolyline
 90
        2
 70
   128
 43
0.0
 10
204.5412909017
 20
142.7742181923
 10
204.5412909017
 20
142.7742181923
  0
LWPOLYLINE
  5
143
330
1F
100
AcDbEntity
  8
0
  6
HIDDEN
 62
     7
370
     0
100
AcDbPolyline
 90
        2
 70
   128
 43
0.0
 10
210.5812903271
 20
142.7742181923
 10
210.5812903271
 20
142.7742181923
  0
LWPOLYLINE
  5
144
330
1F
100
AcDbEntity
  8
0
  6
HIDDEN
 62
     7
370
     0
100
AcDbPolyline
 90
        2
 70
   128
 43
0.0
 10
200.7212906853
 20
142.7742181923
 10
200.7212906853
 20
142.7742181923
  0
LINE
  5
145
330
1F
100
AcDbEntity
  8
0
  6
HIDDEN
 62
     7
370
     0
100
AcDbLine
 10
182.631290542
 20
147.1446486767
 30
0.0
 11
182.631290542
 21
98.7037862297
 31
0.0
  0
SPLINE
  5
146
330
1F
100
AcDbEntity
  8
0
  6
HIDDEN
 62
     7
370
     0
100
AcDbSpline
210
0.0
220
0.0
230
1.0
 70
     8
 71
     3
 72
    14
 73
    10
 74
     0
 42
0.00000001
 43
0.00000001
 40
0.0
 40
0.0
 40
0.0
 40
0.0
 40
0.5000000000000017
 40
0.5000000000000017
 40
0.7500000000000009
 40
0.7500000000000009
 40
0.8750000000000004
 40
0.8750000000000004
 40
1.0
 40
1.0
 40
1.0
 40
1.0
 10
153.8812906370072
 20
102.1175858946899
 30
0.0
 10
154.4973675407625
 20
102.123312014919
 30
0.0
 10
155.1114995368784
 20
102.133202380321
 30
0.0
 10
156.0253961673919
 20
102.1638373479908
 30
0.0
 10
156.3288350949395
 20
102.1766308056288
 30
0.0
 10
156.779971710577
 20
102.2045566335882
 30
0.0
 10
156.9296779601195
 20
102.2153262537479
 30
0.0
 10
157.2265190963676
 20
102.2424589693475
 30
0.0
 10
157.3739046488709
 20
102.2582759421747
 30
0.0
 10
157.5176887758852
 20
102.2819350310492
 30
0.0
  0
SPLINE
  5
147
330
1F
100
AcDbEntity
  8
0
  6
HIDDEN
 62
     7
370
     0
100
AcDbSpline
210
0.0
220
0.0
230
1.0
 70
     8
 71
     3
 72
    10
 73
     6
 74
     0
 42
0.00000001
 43
0.00000001
 40
0.0
 40
0.0
 40
0.0
 40
0.0
 40
0.5
 40
0.5
 40
1.0
 40
1.0
 40
1.0
 40
1.0
 10
157.5176887758852
 20
102.2819350310492
 30
0.0
 10
158.1453164315925
 20
102.3852085897848
 30
0.0
 10
158.7965171766239
 20
102.4740337015363
 30
0.0
 10
160.1052218806362
 20
102.6361414084066
 30
0.0
 10
160.7662663179273
 20
102.7094408726932
 30
0.0
 10
161.4312906370069
 20
102.7781286874209
 30
0.0
  0
SPLINE
  5
148
330
1F
100
AcDbEntity
  8
0
  6
HIDDEN
 62
     7
370
     0
100
AcDbSpline
210
0.0
220
0.0
230
1.0
 70
     8
 71
     3
 72
    18
 73
    14
 74
     0
 42
0.00000001
 43
0.00000001
 40
0.0
 40
0.0
 40
0.0
 40
0.0
 40
0.0625000000000001
 40
0.0625000000000001
 40
0.1250000000000002
 40
0.1250000000000002
 40
0.2500000000000035
 40
0.2500000000000035
 40
0.5000000000000023
 40
0.5000000000000023
 40
0.7500000000000011
 40
0.7500000000000011
 40
1.0
 40
1.0
 40
1.0
 40
1.0
 10
161.4312906370071
 20
102.7781286874208
 30
0.0
 10
161.4678628473575
 20
102.7819060909483
 30
0.0
 10
161.5065133207929
 20
102.7813490630651
 30
0.0
 10
161.5806048145068
 20
102.7712898579033
 30
0.0
 10
161.6159551082609
 20
102.7619359764787
 30
0.0
 10
161.7105494056503
 20
102.7275515500449
 30
0.0
 10
161.7606875787893
 20
102.6968398153821
 30
0.0
 10
161.8898808503705
 20
102.600910505344
 30
0.0
 10
161.9481609951116
 20
102.5323950112268
 30
0.0
 10
162.0483560915351
 20
102.3958230612942
 30
0.0
 10
162.0883713429817
 20
102.3270581587912
 30
0.0
 10
162.1567707637995
 20
102.1920227296836
 30
0.0
 10
162.1851324876615
 20
102.1254047036304
 30
0.0
 10
162.2096864002674
 20
102.0598462359342
 30
0.0
  0
SPLINE
  5
149
330
1F
100
AcDbEntity
  8
0
  6
HIDDEN
 62
     7
370
     0
100
AcDbSpline
210
0.0
220
0.0
230
1.0
 70
     8
 71
     3
 72
    14
 73
    10
 74
     0
 42
0.00000001
 43
0.00000001
 40
0.0
 40
0.0
 40
0.0
 40
0.0
 40
0.25
 40
0.25
 40
0.5
 40
0.5
 40
0.75
 40
0.75
 40
1.0
 40
1.0
 40
1.0
 40
1.0
 10
162.2096864002674
 20
102.0598462359342
 30
0.0
 10
162.2481227850884
 20
101.9572218382227
 30
0.0
 10
162.3169241784802
 20
101.8580254147831
 30
0.0
 10
162.4602101906392
 20
101.6671333854566
 30
0.0
 10
162.5353922457461
 20
101.5748761194237
 30
0.0
 10
162.6675795343963
 20
101.3952687976087
 30
0.0
 10
162.7250967298661
 20
101.3079592431643
 30
0.0
 10
162.8071415281584
 20
101.1380254096486
 30
0.0
 10
162.8312906370072
 20
101.0561230677774
 30
0.0
 10
162.8312906370072
 20
100.9790691939415
 30
0.0
  0
LINE
  5
14A
330
1F
100
AcDbEntity
  8
0
  6
HIDDEN
 62
     7
370
     0
100
AcDbLine
 10
162.8312904165
 20
100.9790687468
 30
0.0
 11
162.8312904165
 21
99.6957714315
 31
0.0
  0
LINE
  5
14B
330
1F
100
AcDbEntity
  8
0
  6
HIDDEN
 62
     7
370
     0
100
AcDbLine
 10
158.8312897608
 20
145.9522633459
 30
0.0
 11
158.8312897608
 21
144.7683251109
 31
0.0
  0
SPLINE
  5
14C
330
1F
100
AcDbEntity
  8
0
  6
HIDDEN
 62
     7
370
     0
100
AcDbSpline
210
0.0
220
0.0
230
1.0
 70
     8
 71
     3
 72
    18
 73
    14
 74
     0
 42
0.00000001
 43
0.00000001
 40
0.0
 40
0.0
 40
0.0
 40
0.0
 40
0.2500000000000014
 40
0.2500000000000014
 40
0.5000000000000021
 40
0.5000000000000021
 40
0.7500000000000028
 40
0.7500000000000028
 40
0.8750000000000027
 40
0.8750000000000027
 40
0.9375000000000014
 40
0.9375000000000014
 40
1.0
 40
1.0
 40
1.0
 40
1.0
 10
158.8312906370072
 20
144.7683251255804
 30
0.0
 10
158.8312906370072
 20
144.6851182167232
 30
0.0
 10
158.7954415370689
 20
144.5963815614096
 30
0.0
 10
158.670569801035
 20
144.4142563708494
 30
0.0
 10
158.5801693833871
 20
144.3191263222228
 30
0.0
 10
158.357926728645
 20
144.1299448130985
 30
0.0
 10
158.2281619421992
 20
144.0349996450038
 30
0.0
 10
157.9875244848876
 20
143.8967209374238
 30
0.0
 10
157.8997571867502
 20
143.8510105041214
 30
0.0
 10
157.7452330995434
 20
143.7931871989
 30
0.0
 10
157.6886222134887
 20
143.7754724348621
 30
0.0
 10
157.564578182582
 20
143.7509331316292
 30
0.0
 10
157.4968635075637
 20
143.7449539930909
 30
0.0
 10
157.4312906370072
 20
143.7473048450452
 30
0.0
  0
SPLINE
  5
14D
330
1F
100
AcDbEntity
  8
0
  6
HIDDEN
 62
     7
370
     0
100
AcDbSpline
210
0.0
220
0.0
230
1.0
 70
     8
 71
     3
 72
    10
 73
     6
 74
     0
 42
0.00000001
 43
0.00000001
 40
0.0
 40
0.0
 40
0.0
 40
0.0
 40
0.5
 40
0.5
 40
1.0
 40
1.0
 40
1.0
 40
1.0
 10
157.4312906370072
 20
143.7473048450452
 30
0.0
 10
156.8437050899166
 20
143.7683703652816
 30
0.0
 10
156.2529586964562
 20
143.7791288511538
 30
0.0
 10
155.0689395311573
 20
143.7924936316894
 30
0.0
 10
154.4755255429519
 20
143.794636274354
 30
0.0
 10
153.8812906370072
 20
143.7941552186125
 30
0.0
  0
SPLINE
  5
14E
330
1F
100
AcDbEntity
  8
0
  6
HIDDEN
 62
     7
370
     0
100
AcDbSpline
210
0.0
220
0.0
230
1.0
 70
     8
 71
     3
 72
     8
 73
     4
 74
     0
 42
0.00000001
 43
0.00000001
 40
0.0000005099763571
 40
0.0000005099763571
 40
0.0000005099763571
 40
0.0000005099763571
 40
0.0000262827998697
 40
0.0000262827998697
 40
0.0000262827998697
 40
0.0000262827998697
 10
153.8812906370071
 20
143.7941552186125
 30
0.0
 10
153.8779218977794
 20
143.7908335496566
 30
0.0
 10
153.8745734448002
 20
143.7875055923777
 30
0.0
 10
153.8712457065889
 20
143.7841713455051
 30
0.0
  0
SPLINE
  5
14F
330
1F
100
AcDbEntity
  8
0
  6
HIDDEN
 62
     7
370
     0
100
AcDbSpline
210
0.0
220
0.0
230
1.0
 70
     8
 71
     3
 72
     8
 73
     4
 74
     0
 42
0.00000001
 43
0.00000001
 40
0.0000005954826279
 40
0.0000005954826279
 40
0.0000005954826279
 40
0.0000005954826279
 40
0.0000302093805348
 40
0.0000302093805348
 40
0.0000302093805348
 40
0.0000302093805348
 10
153.8712457065975
 20
102.1294010243418
 30
0.0
 10
153.8745617339177
 20
102.125454244746
 30
0.0
 10
153.87791028531
 20
102.121515853616
 30
0.0
 10
153.8812906370071
 20
102.1175858946899
 30
0.0
  0
SPLINE
  5
150
330
1F
100
AcDbEntity
  8
0
  6
HIDDEN
 62
     7
370
     0
100
AcDbSpline
210
0.0
220
0.0
230
1.0
 70
     8
 71
     3
 72
    12
 73
     8
 74
     0
 42
0.00000001
 43
0.00000001
 40
0.0
 40
0.0
 40
0.0
 40
0.0
 40
0.1192153572537782
 40
0.2486291370015994
 40
0.5007187166807885
 40
0.753705439744719
 40
0.9999999999999999
 40
0.9999999999999999
 40
0.9999999999999999
 40
0.9999999999999999
 10
172.626441136053
 20
99.39961830339422
 30
0.0
 10
172.5442982721571
 20
99.39188258045417
 30
0.0
 10
172.3729855333308
 20
99.375749372762
 30
0.0
 10
172.006631920873
 20
99.34277307878546
 30
0.0
 10
171.7018686597134
 20
99.30459630912249
 30
0.0
 10
171.4434897260533
 20
99.27271884354603
 30
0.0
 10
171.4144981393703
 20
99.2686944733567
 30
0.0
 10
171.4001966417341
 20
99.26670925877085
 30
0.0
  0
SPLINE
  5
151
330
1F
100
AcDbEntity
  8
0
  6
HIDDEN
 62
     7
370
     0
100
AcDbSpline
210
0.0
220
0.0
230
1.0
 70
     8
 71
     3
 72
    20
 73
    16
 74
     0
 42
0.00000001
 43
0.00000001
 40
0.0
 40
0.0
 40
0.0
 40
0.0
 40
0.001437142555551
 40
0.0850458965237325
 40
0.1697599737566609
 40
0.2540983572194236
 40
0.337329559157597
 40
0.4202346543774696
 40
0.5035601673255862
 40
0.5868465303357372
 40
0.6687599864841126
 40
0.7507345960013674
 40
0.8338925311456853
 40
0.9172624283936205
 40
1.0
 40
1.0
 40
1.0
 40
1.0
 10
179.8143571019677
 20
98.8451591338872
 30
0.0
 10
179.8148101820332
 20
98.84505567427168
 30
0.0
 10
179.8416221362208
 20
98.83893323657588
 30
0.0
 10
179.745584102741
 20
98.86099942372468
 30
0.0
 10
179.5125426949998
 20
98.91289002938923
 30
0.0
 10
179.1187563022605
 20
98.99794302191461
 30
0.0
 10
178.5942980412225
 20
99.09970119042056
 30
0.0
 10
177.9553348591498
 20
99.20759638370284
 30
0.0
 10
177.2221695818581
 20
99.30864316270403
 30
0.0
 10
176.4296065850155
 20
99.39305229248332
 30
0.0
 10
175.6048576944401
 20
99.45045451805419
 30
0.0
 10
174.7781403725364
 20
99.4772122456295
 30
0.0
 10
173.9838329397224
 20
99.4727780420068
 30
0.0
 10
173.2404032670857
 20
99.44546146369086
 30
0.0
 10
172.8305751452576
 20
99.41486052703141
 30
0.0
 10
172.626441136053
 20
99.39961830339422
 30
0.0
  0
SPLINE
  5
152
330
1F
100
AcDbEntity
  8
0
  6
HIDDEN
 62
     7
370
     0
100
AcDbSpline
210
0.0
220
0.0
230
1.0
 70
     8
 71
     3
 72
    20
 73
    16
 74
     0
 42
0.00000001
 43
0.00000001
 40
0.0
 40
0.0
 40
0.0
 40
0.0
 40
0.0828182200643154
 40
0.1661936689022571
 40
0.2493852920304393
 40
0.3315154858705138
 40
0.413380769036991
 40
0.4968356030727598
 40
0.5800413963872413
 40
0.6629790193136592
 40
0.7460493153741201
 40
0.8302847929446943
 40
0.9148461955451018
 40
0.9984038503992553
 40
0.9999999999999999
 40
0.9999999999999999
 40
0.9999999999999999
 40
0.9999999999999999
 10
172.6263480037956
 20
146.4487998392343
 30
0.0
 10
172.8309998271737
 20
146.4336106014756
 30
0.0
 10
173.241680440067
 20
146.40312992767
 30
0.0
 10
173.9854056721455
 20
146.3758165099138
 30
0.0
 10
174.7803651687689
 20
146.3714044043155
 30
0.0
 10
175.6074938008851
 20
146.3980725274479
 30
0.0
 10
176.4332355235761
 20
146.4555366256314
 30
0.0
 10
177.225512636971
 20
146.5401238834592
 30
0.0
 10
177.9583357281055
 20
146.6412994406427
 30
0.0
 10
178.5962457155455
 20
146.7490832599905
 30
0.0
 10
179.1201002867041
 20
146.8506908684237
 30
0.0
 10
179.5132442783202
 20
146.935582467951
 30
0.0
 10
179.7459098710307
 20
146.9874117978825
 30
0.0
 10
179.8419720233722
 20
147.0095311489864
 30
0.0
 10
179.8148117208211
 20
147.0033616139242
 30
0.0
 10
179.8143026195971
 20
147.0032459702252
 30
0.0
  0
SPLINE
  5
153
330
1F
100
AcDbEntity
  8
0
  6
HIDDEN
 62
     7
370
     0
100
AcDbSpline
210
0.0
220
0.0
230
1.0
 70
     8
 71
     3
 72
    12
 73
     8
 74
     0
 42
0.00000001
 43
0.00000001
 40
0.0
 40
0.0
 40
0.0
 40
0.0
 40
0.24684126657015
 40
0.4995707768295318
 40
0.7516701332889744
 40
0.8176861283293371
 40
1.0
 40
1.0
 40
1.0
 40
1.0
 10
171.3997915164141
 20
146.5817573126315
 30
0.0
 10
171.4139049410844
 20
146.5797388171133
 30
0.0
 10
171.4424684573241
 20
146.5756536761314
 30
0.0
 10
171.7032587703428
 20
146.5436556177248
 30
0.0
 10
171.9701474443532
 20
146.5093889294516
 30
0.0
 10
172.3288240452556
 20
146.4766964587554
 30
0.0
 10
172.500390652134
 20
146.4606099278484
 30
0.0
 10
172.6263480037956
 20
146.4487998392343
 30
0.0
  0
LINE
  5
154
330
1F
100
AcDbEntity
  8
0
  6
HIDDEN
 62
     7
370
     0
100
AcDbLine
 10
152.7312908099
 20
103.2710573282
 30
0.0
 11
152.7378100679
 21
103.2733986732
 31
0.0
  0
SPLINE
  5
155
330
1F
100
AcDbEntity
  8
0
  6
HIDDEN
 62
     7
370
     0
100
AcDbSpline
210
0.0
220
0.0
230
1.0
 70
    11
 71
     3
 72
    56
 73
    52
 74
     0
 42
0.00000001
 43
0.00000001
 40
0.0
 40
0.0
 40
0.0
 40
0.0
 40
0.0625000000000003
 40
0.0625000000000003
 40
0.0937500000000005
 40
0.0937500000000005
 40
0.1250000000000007
 40
0.1250000000000007
 40
0.1562500000000009
 40
0.1562500000000009
 40
0.1875000000000011
 40
0.1875000000000011
 40
0.2187500000000012
 40
0.2187500000000012
 40
0.2500000000000014
 40
0.2500000000000014
 40
0.3125000000000016
 40
0.3125000000000016
 40
0.3437500000000017
 40
0.3437500000000017
 40
0.3750000000000017
 40
0.3750000000000017
 40
0.4062500000000017
 40
0.4062500000000017
 40
0.4375000000000018
 40
0.4375000000000018
 40
0.4687500000000018
 40
0.4687500000000018
 40
0.5000000000000019
 40
0.5000000000000019
 40
0.562500000000002
 40
0.562500000000002
 40
0.6250000000000021
 40
0.6250000000000021
 40
0.6875000000000022
 40
0.6875000000000022
 40
0.7187500000000021
 40
0.7187500000000021
 40
0.750000000000002
 40
0.750000000000002
 40
0.781250000000002
 40
0.781250000000002
 40
0.8125000000000019
 40
0.8125000000000019
 40
0.8750000000000016
 40
0.8750000000000016
 40
0.9375000000000009
 40
0.9375000000000009
 40
0.9687500000000006
 40
0.9687500000000006
 40
1.0
 40
1.0
 40
1.0
 40
1.0
 10
178.3862926386088
 20
103.086688977401
 30
0.0
 10
178.130505328061
 20
103.1222122812945
 30
0.0
 10
177.8403155211177
 20
103.1577561502627
 30
0.0
 10
177.3536624228269
 20
103.2042278501716
 30
0.0
 10
177.1833165806657
 20
103.2184737634031
 30
0.0
 10
176.8363431705747
 20
103.2427616776015
 30
0.0
 10
176.65840527334
 20
103.2529380239236
 30
0.0
 10
176.2934859957802
 20
103.2686133515275
 30
0.0
 10
176.1051514036849
 20
103.2741003127403
 30
0.0
 10
175.7312645512294
 20
103.2795603070161
 30
0.0
 10
175.5445743370595
 20
103.2796185302752
 30
0.0
 10
175.1716958461402
 20
103.2744343882984
 30
0.0
 10
174.9839916032178
 20
103.269118909827
 30
0.0
 10
174.6170727036703
 20
103.2536165288037
 30
0.0
 10
174.4386229616058
 20
103.243517121043
 30
0.0
 10
173.9178340582451
 20
103.2073852793891
 30
0.0
 10
173.5869503385741
 20
103.174956058371
 30
0.0
 10
173.1504487802426
 20
103.123429567004
 30
0.0
 10
173.01366324119
 20
103.10570495596
 30
0.0
 10
172.7579386317362
 20
103.0703106294507
 30
0.0
 10
172.6403149036306
 20
103.0528141080701
 30
0.0
 10
172.4302454504419
 20
103.0201117120816
 30
0.0
 10
172.3369106117569
 20
103.0047799031355
 30
0.0
 10
172.1739649010778
 20
102.9771837437867
 30
0.0
 10
172.1042619382279
 20
102.9648970606731
 30
0.0
 10
171.9936388718958
 20
102.9450520688866
 30
0.0
 10
171.9519572002854
 20
102.93736595636
 30
0.0
 10
171.8957820599101
 20
102.9269485759827
 30
0.0
 10
171.8813437841496
 20
102.9242274183062
 30
0.0
 10
171.881184789047
 20
102.9241976067256
 30
0.0
 10
171.9368441267838
 20
102.9348597368736
 30
0.0
 10
172.1596688873182
 20
102.9748404086086
 30
0.0
 10
172.3215811729118
 20
103.0031766602409
 30
0.0
 10
172.7453727316476
 20
103.069187569201
 30
0.0
 10
173.0002191541949
 20
103.1056474419922
 30
0.0
 10
173.4388628143086
 20
103.1574989649785
 30
0.0
 10
173.5955603505881
 20
103.1743865990385
 30
0.0
 10
173.9187603003666
 20
103.2050800196594
 30
0.0
 10
174.0864337817869
 20
103.2190398266033
 30
0.0
 10
174.4340186479756
 20
103.2432392557545
 30
0.0
 10
174.6155821287946
 20
103.2535362045853
 30
0.0
 10
174.9817684036034
 20
103.2690421514472
 30
0.0
 10
175.1664258194457
 20
103.2743081333442
 30
0.0
 10
175.7250222260042
 20
103.2822309565997
 30
0.0
 10
176.1073565674747
 20
103.2765168332261
 30
0.0
 10
176.8346537118431
 20
103.2454577470638
 30
0.0
 10
177.1903477859431
 20
103.2197691110138
 30
0.0
 10
177.6736600628941
 20
103.1736971008057
 30
0.0
 10
177.8273576701106
 20
103.1570949423894
 30
0.0
 10
178.1197798949537
 20
103.1224750871751
 30
0.0
 10
178.2583951181589
 20
103.1044511661368
 30
0.0
 10
178.3862926386088
 20
103.086688977401
 30
0.0
  0
SPLINE
  5
156
330
1F
100
AcDbEntity
  8
0
  6
HIDDEN
 62
     7
370
     0
100
AcDbSpline
210
0.0
220
0.0
230
1.0
 70
    11
 71
     3
 72
    56
 73
    52
 74
     0
 42
0.00000001
 43
0.00000001
 40
0.0
 40
0.0
 40
0.0
 40
0.0
 40
0.0625000000000002
 40
0.0625000000000002
 40
0.0937500000000004
 40
0.0937500000000004
 40
0.1250000000000005
 40
0.1250000000000005
 40
0.1562500000000007
 40
0.1562500000000007
 40
0.1875000000000009
 40
0.1875000000000009
 40
0.2187500000000011
 40
0.2187500000000011
 40
0.2500000000000012
 40
0.2500000000000012
 40
0.3125000000000013
 40
0.3125000000000013
 40
0.3437500000000013
 40
0.3437500000000013
 40
0.3750000000000013
 40
0.3750000000000013
 40
0.4062500000000013
 40
0.4062500000000013
 40
0.4375000000000013
 40
0.4375000000000013
 40
0.4687500000000012
 40
0.4687500000000012
 40
0.5000000000000012
 40
0.5000000000000012
 40
0.5625000000000012
 40
0.5625000000000012
 40
0.6250000000000011
 40
0.6250000000000011
 40
0.6875000000000011
 40
0.6875000000000011
 40
0.7187500000000011
 40
0.7187500000000011
 40
0.750000000000001
 40
0.750000000000001
 40
0.781250000000001
 40
0.781250000000001
 40
0.812500000000001
 40
0.812500000000001
 40
0.8750000000000007
 40
0.8750000000000007
 40
0.9375000000000002
 40
0.9375000000000002
 40
0.9687500000000001
 40
0.9687500000000001
 40
1.0
 40
1.0
 40
1.0
 40
1.0
 10
178.3862926386088
 20
142.7617459290339
 30
0.0
 10
178.130505328061
 20
142.7262226251403
 30
0.0
 10
177.8403155211177
 20
142.6906787561721
 30
0.0
 10
177.3536624228269
 20
142.6442070562632
 30
0.0
 10
177.1833165806657
 20
142.6299611430317
 30
0.0
 10
176.8363431705747
 20
142.6056732288333
 30
0.0
 10
176.65840527334
 20
142.5954968825113
 30
0.0
 10
176.2934859957802
 20
142.5798215549074
 30
0.0
 10
176.1051514036849
 20
142.5743345936945
 30
0.0
 10
175.7312645512294
 20
142.5688745994188
 30
0.0
 10
175.5445743370595
 20
142.5688163761596
 30
0.0
 10
175.1716958461402
 20
142.5740005181364
 30
0.0
 10
174.9839916032178
 20
142.5793159966078
 30
0.0
 10
174.6170727036703
 20
142.5948183776311
 30
0.0
 10
174.4386229616058
 20
142.6049177853918
 30
0.0
 10
173.9178340582451
 20
142.6410496270457
 30
0.0
 10
173.5869503385741
 20
142.6734788480638
 30
0.0
 10
173.1504487802426
 20
142.7250053394309
 30
0.0
 10
173.01366324119
 20
142.7427299504749
 30
0.0
 10
172.7579386317362
 20
142.7781242769842
 30
0.0
 10
172.6403149036306
 20
142.7956207983648
 30
0.0
 10
172.430245450442
 20
142.8283231943533
 30
0.0
 10
172.3369106117569
 20
142.8436550032993
 30
0.0
 10
172.1739649010778
 20
142.8712511626481
 30
0.0
 10
172.1042619382279
 20
142.8835378457617
 30
0.0
 10
171.9936388718958
 20
142.9033828375482
 30
0.0
 10
171.9519572002854
 20
142.9110689500749
 30
0.0
 10
171.8957820599101
 20
142.9214863304521
 30
0.0
 10
171.8813437841496
 20
142.9242074881286
 30
0.0
 10
171.881184789047
 20
142.9242372997092
 30
0.0
 10
171.9368441267838
 20
142.9135751695612
 30
0.0
 10
172.1596688873182
 20
142.8735944978262
 30
0.0
 10
172.3215811729118
 20
142.8452582461939
 30
0.0
 10
172.7453727316476
 20
142.7792473372339
 30
0.0
 10
173.0002191541949
 20
142.7427874644427
 30
0.0
 10
173.4388628143086
 20
142.6909359414563
 30
0.0
 10
173.5955603505881
 20
142.6740483073963
 30
0.0
 10
173.9187603003666
 20
142.6433548867754
 30
0.0
 10
174.0864337817869
 20
142.6293950798315
 30
0.0
 10
174.4340186479756
 20
142.6051956506804
 30
0.0
 10
174.6155821287946
 20
142.5948987018496
 30
0.0
 10
174.9817684036034
 20
142.5793927549877
 30
0.0
 10
175.1664258194457
 20
142.5741267730907
 30
0.0
 10
175.7250222260042
 20
142.5662039498352
 30
0.0
 10
176.1073565674747
 20
142.5719180732088
 30
0.0
 10
176.8346537118431
 20
142.602977159371
 30
0.0
 10
177.1903477859431
 20
142.628665795421
 30
0.0
 10
177.6736600628941
 20
142.6747378056291
 30
0.0
 10
177.8273576701106
 20
142.6913399640454
 30
0.0
 10
178.1197798949537
 20
142.7259598192597
 30
0.0
 10
178.2583951181589
 20
142.7439837402981
 30
0.0
 10
178.3862926386088
 20
142.7617459290339
 30
0.0
  0
SPLINE
  5
157
330
1F
100
AcDbEntity
  8
0
  6
HIDDEN
 62
     7
370
     0
100
AcDbSpline
210
0.0
220
0.0
230
1.0
 70
    11
 71
     3
 72
    22
 73
    18
 74
     0
 42
0.00000001
 43
0.00000001
 40
0.0
 40
0.0
 40
0.0
 40
0.0
 40
0.125
 40
0.125
 40
0.25
 40
0.25
 40
0.375
 40
0.375
 40
0.5
 40
0.5
 40
0.625
 40
0.625
 40
0.75
 40
0.75
 40
0.875
 40
0.875
 40
1.0
 40
1.0
 40
1.0
 40
1.0
 10
178.3862926386088
 20
142.7617459290339
 30
0.0
 10
178.5452354675779
 20
142.7838196370809
 30
0.0
 10
178.6859270154682
 20
142.8005034550685
 30
0.0
 10
178.9319132529306
 20
142.8267251499508
 30
0.0
 10
179.0379513356119
 20
142.8363044557962
 30
0.0
 10
179.208443376179
 20
142.8503837228753
 30
0.0
 10
179.2724960756427
 20
142.8548902991223
 30
0.0
 10
179.3590001267357
 20
142.8607544689602
 30
0.0
 10
179.3812336220958
 20
142.8620964014785
 30
0.0
 10
179.3813474281077
 20
142.8621035412281
 30
0.0
 10
179.3598894996225
 20
142.8608109057418
 30
0.0
 10
179.2739037067435
 20
142.8549894762316
 30
0.0
 10
179.208589559994
 20
142.8503900069558
 30
0.0
 10
179.0395837260585
 20
142.8364449861459
 30
0.0
 10
178.9356246881827
 20
142.8270925992876
 30
0.0
 10
178.6881142419438
 20
142.8007641288212
 30
0.0
 10
178.5452301518601
 20
142.7838188988432
 30
0.0
 10
178.3862926386091
 20
142.761745929034
 30
0.0
  0
SPLINE
  5
158
330
1F
100
AcDbEntity
  8
0
  6
HIDDEN
 62
     7
370
     0
100
AcDbSpline
210
0.0
220
0.0
230
1.0
 70
    11
 71
     3
 72
    22
 73
    18
 74
     0
 42
0.00000001
 43
0.00000001
 40
0.0
 40
0.0
 40
0.0
 40
0.0
 40
0.125
 40
0.125
 40
0.2500000000000001
 40
0.2500000000000001
 40
0.3750000000000001
 40
0.3750000000000001
 40
0.5000000000000001
 40
0.5000000000000001
 40
0.6250000000000001
 40
0.6250000000000001
 40
0.7500000000000002
 40
0.7500000000000002
 40
0.8750000000000002
 40
0.8750000000000002
 40
1.0
 40
1.0
 40
1.0
 40
1.0
 10
178.3862926386088
 20
103.086688977401
 30
0.0
 10
178.5452354675779
 20
103.0646152693539
 30
0.0
 10
178.6859270154682
 20
103.0479314513663
 30
0.0
 10
178.9319132529306
 20
103.021709756484
 30
0.0
 10
179.0379513356119
 20
103.0121304506387
 30
0.0
 10
179.208443376179
 20
102.9980511835595
 30
0.0
 10
179.2724960756427
 20
102.9935446073125
 30
0.0
 10
179.3590001267357
 20
102.9876804374746
 30
0.0
 10
179.3812336220958
 20
102.9863385049563
 30
0.0
 10
179.3813474281077
 20
102.9863313652068
 30
0.0
 10
179.3598894996225
 20
102.987624000693
 30
0.0
 10
179.2739037067435
 20
102.9934454302032
 30
0.0
 10
179.208589559994
 20
102.9980448994791
 30
0.0
 10
179.0395837260585
 20
103.0119899202889
 30
0.0
 10
178.9356246881827
 20
103.0213423071472
 30
0.0
 10
178.6881142419438
 20
103.0476707776136
 30
0.0
 10
178.5452301518601
 20
103.0646160075917
 30
0.0
 10
178.3862926386091
 20
103.0866889774009
 30
0.0
  0
LINE
  5
159
330
1F
100
AcDbEntity
  8
0
  6
HIDDEN
 62
     7
370
     0
100
AcDbLine
 10
184.631290637
 20
105.9242165293
 30
0.0
 11
184.631290637
 21
139.9242183771
 31
0.0
  0
LINE
  5
15A
330
1F
100
AcDbEntity
  8
0
  6
HIDDEN
 62
     7
370
     0
100
AcDbLine
 10
196.8269113228
 20
142.7742181923
 30
0.0
 11
200.7474384979
 21
142.7742181923
 31
0.0
  0
LINE
  5
15B
330
1F
100
AcDbEntity
  8
0
  6
HIDDEN
 62
     7
370
     0
100
AcDbLine
 10
204.515143089
 20
142.7742181923
 30
0.0
 11
210.5812903271
 21
142.7742181923
 31
0.0
  0
LINE
  5
15C
330
1F
100
AcDbEntity
  8
0
  6
HIDDEN
 62
     7
370
     0
100
AcDbLine
 10
165.6352661327
 20
139.9242183771
 30
0.0
 11
165.6352661327
 21
105.9242165293
 31
0.0
  0
LWPOLYLINE
  5
15D
330
1F
100
AcDbEntity
  8
0
  6
HIDDEN
 62
     7
370
     0
100
AcDbPolyline
 90
       27
 70
   128
 43
0.0
 10
210.599043198
 20
111.8646277692
 10
210.7776392028
 20
111.8088015001
 10
211.0396425948
 20
111.867187975
 10
211.3698225245
 20
112.0363943856
 10
211.7489918843
 20
112.3065859657
 10
212.1551155821
 20
112.6620615479
 10
212.5645901785
 20
113.0821606722
 10
212.9536185191
 20
113.5424696486
 10
213.299591817
 20
114.0162362363
 10
213.582402818
 20
114.4759286772
 10
213.7856155411
 20
114.8948291894
 10
213.8974226788
 20
115.2485934663
 10
213.9113217369
 20
115.5166625623
 10
213.8265099153
 20
115.6834568474
 10
213.6479120479
 20
115.7392826509
 10
213.3859105185
 20
115.680896176
 10
213.0557287261
 20
115.5116897654
 10
212.6765593663
 20
115.2414981853
 10
212.2704356686
 20
114.8860226031
 10
211.8609610722
 20
114.4659234788
 10
211.4719327316
 20
114.0056145023
 10
211.1259612963
 20
113.5318479147
 10
210.8431484327
 20
113.0721554737
 10
210.6399357096
 20
112.6532549616
 10
210.5281304345
 20
112.299490219
 10
210.5142295138
 20
112.0314220544
 10
210.599043198
 20
111.8646277692
  0
SPLINE
  5
15E
330
1F
100
AcDbEntity
  8
0
  6
HIDDEN
 62
     7
370
     0
100
AcDbSpline
210
0.0
220
0.0
230
1.0
 70
     8
 71
     3
 72
    10
 73
     6
 74
     0
 42
0.00000001
 43
0.00000001
 40
0.0
 40
0.0
 40
0.0
 40
0.0
 40
0.5
 40
0.5
 40
1.0
 40
1.0
 40
1.0
 40
1.0
 10
215.721998898349
 20
113.8689668473222
 30
0.0
 10
215.906315041467
 20
113.7073558194191
 30
0.0
 10
216.0906322765018
 20
113.5551663960504
 30
0.0
 10
216.4583287101655
 20
113.2718199957953
 30
0.0
 10
216.6422500550563
 20
113.140218852398
 30
0.0
 10
216.8187268848664
 20
113.0177852390573
 30
0.0
  0
SPLINE
  5
15F
330
1F
100
AcDbEntity
  8
0
  6
HIDDEN
 62
     7
370
     0
100
AcDbSpline
210
0.0
220
0.0
230
1.0
 70
     8
 71
     3
 72
    72
 73
    68
 74
     0
 42
0.00000001
 43
0.00000001
 40
0.0
 40
0.0
 40
0.0
 40
0.0
 40
0.0312500000000008
 40
0.0312500000000008
 40
0.0625000000000017
 40
0.0625000000000017
 40
0.0937500000000025
 40
0.0937500000000025
 40
0.1250000000000034
 40
0.1250000000000034
 40
0.1562500000000042
 40
0.1562500000000042
 40
0.1875000000000051
 40
0.1875000000000051
 40
0.2187500000000059
 40
0.2187500000000059
 40
0.2500000000000068
 40
0.2500000000000068
 40
0.3125000000000068
 40
0.3125000000000068
 40
0.3437500000000069
 40
0.3437500000000069
 40
0.3750000000000069
 40
0.3750000000000069
 40
0.4062500000000069
 40
0.4062500000000069
 40
0.4375000000000069
 40
0.4375000000000069
 40
0.4531250000000068
 40
0.4531250000000068
 40
0.4687500000000067
 40
0.4687500000000067
 40
0.4843750000000065
 40
0.4843750000000065
 40
0.5000000000000063
 40
0.5000000000000063
 40
0.5312500000000061
 40
0.5312500000000061
 40
0.5625000000000057
 40
0.5625000000000057
 40
0.5937500000000053
 40
0.5937500000000053
 40
0.6250000000000049
 40
0.6250000000000049
 40
0.6562500000000046
 40
0.6562500000000046
 40
0.6875000000000042
 40
0.6875000000000042
 40
0.7187500000000038
 40
0.7187500000000038
 40
0.7500000000000034
 40
0.7500000000000034
 40
0.7812500000000031
 40
0.7812500000000031
 40
0.8125000000000027
 40
0.8125000000000027
 40
0.8437500000000023
 40
0.8437500000000023
 40
0.8750000000000019
 40
0.8750000000000019
 40
0.9062500000000014
 40
0.9062500000000014
 40
0.937500000000001
 40
0.937500000000001
 40
0.9687500000000004
 40
0.9687500000000004
 40
1.0
 40
1.0
 40
1.0
 40
1.0
 10
216.8187268848666
 20
113.0177852390572
 30
0.0
 10
216.8610367300557
 20
113.0445268507207
 30
0.0
 10
216.9107923532009
 20
113.0390098818415
 30
0.0
 10
216.9983876717813
 20
113.005374690684
 30
0.0
 10
217.0375593301557
 20
112.9750301644631
 30
0.0
 10
217.0971637433376
 20
112.8959278227359
 30
0.0
 10
217.1176076538025
 20
112.8473782706109
 30
0.0
 10
217.1352483839016
 20
112.7339817501657
 30
0.0
 10
217.1322937805344
 20
112.6683325922618
 30
0.0
 10
217.0978437602458
 20
112.5231940376722
 30
0.0
 10
217.0667168124767
 20
112.443830593188
 30
0.0
 10
216.9706989070103
 20
112.2700074077746
 30
0.0
 10
216.905905499404
 20
112.1763450260317
 30
0.0
 10
216.7431208169828
 20
111.9819985221184
 30
0.0
 10
216.6428141669388
 20
111.8789597509158
 30
0.0
 10
216.4160027914185
 20
111.6758953745067
 30
0.0
 10
216.2870530191128
 20
111.5734525865724
 30
0.0
 10
215.8696358333877
 20
111.2773628302795
 30
0.0
 10
215.5560252399198
 20
111.0987776811606
 30
0.0
 10
215.0868745668112
 20
110.8810312573843
 30
0.0
 10
214.9297315659165
 20
110.8162480411449
 30
0.0
 10
214.6242784332486
 20
110.7052369964629
 30
0.0
 10
214.4743352556529
 20
110.6581997144514
 30
0.0
 10
214.1781419357557
 20
110.5813641531535
 30
0.0
 10
214.0331122179599
 20
110.5518779676389
 30
0.0
 10
213.7517958182367
 20
110.5152216942063
 30
0.0
 10
213.6148684815315
 20
110.5070573418914
 30
0.0
 10
213.4080746562016
 20
110.5234879728548
 30
0.0
 10
213.3388514703157
 20
110.5339966345342
 30
0.0
 10
213.2010328287877
 20
110.5711801457713
 30
0.0
 10
213.1307171279249
 20
110.598622833986
 30
0.0
 10
212.9941804248485
 20
110.6782929207771
 30
0.0
 10
212.9270627383686
 20
110.7318592231875
 30
0.0
 10
212.8061869067927
 20
110.8562512486208
 30
0.0
 10
212.7511899303856
 20
110.9273707495929
 30
0.0
 10
212.6045026715703
 20
111.1464171930877
 30
0.0
 10
212.5262976283318
 20
111.3032854187756
 30
0.0
 10
212.3909344004583
 20
111.6250587683119
 30
0.0
 10
212.335121220718
 20
111.7889447886494
 30
0.0
 10
212.2424572889604
 20
112.1225665495205
 30
0.0
 10
212.2057794119784
 20
112.2923143681667
 30
0.0
 10
212.1526415302969
 20
112.6384890477402
 30
0.0
 10
212.1364647532281
 20
112.8143456133941
 30
0.0
 10
212.1282220059017
 20
113.1637337658875
 30
0.0
 10
212.1358957239706
 20
113.3383559924591
 30
0.0
 10
212.1806745116576
 20
113.6874126380868
 30
0.0
 10
212.2174684384876
 20
113.8581255818367
 30
0.0
 10
212.3246620405617
 20
114.1845185062591
 30
0.0
 10
212.3964009688333
 20
114.3421366092316
 30
0.0
 10
212.5727378034052
 20
114.6216304421095
 30
0.0
 10
212.6801152137892
 20
114.7472574239616
 30
0.0
 10
212.9180386582199
 20
114.9483648361075
 30
0.0
 10
213.0513406108358
 20
115.0265722901783
 30
0.0
 10
213.3281629783421
 20
115.1324343513044
 30
0.0
 10
213.4728741905983
 20
115.1610499617627
 30
0.0
 10
213.7609435580645
 20
115.1762255431072
 30
0.0
 10
213.9032757886668
 20
115.163358254893
 30
0.0
 10
214.184797641163
 20
115.1052666110977
 30
0.0
 10
214.3236597592316
 20
115.0596867620937
 30
0.0
 10
214.588721729402
 20
114.9450745301425
 30
0.0
 10
214.716347611326
 20
114.8757312672554
 30
0.0
 10
214.962053864879
 20
114.7167652306263
 30
0.0
 10
215.080686292427
 20
114.6265808816558
 30
0.0
 10
215.3022235723546
 20
114.4315415090535
 30
0.0
 10
215.4058703420772
 20
114.3264856544592
 30
0.0
 10
215.5906363480896
 20
114.1037719715352
 30
0.0
 10
215.6738927956569
 20
113.985099583439
 30
0.0
 10
215.7219988983487
 20
113.8689668473224
 30
0.0
  0
LINE
  5
160
330
1F
100
AcDbEntity
  8
0
  6
HIDDEN
 62
     7
370
     0
100
AcDbLine
 10
152.7312908099
 20
106.8942821231
 30
0.0
 11
152.7312908099
 21
138.9541527834
 31
0.0
  0
LINE
  5
161
330
1F
100
AcDbEntity
  8
0
  6
HIDDEN
 62
     7
370
     0
100
AcDbLine
 10
192.291116599
 20
139.9242183771
 30
0.0
 11
192.291116599
 21
105.9242165293
 31
0.0
  0
LINE
  5
162
330
1F
100
AcDbEntity
  8
0
  6
HIDDEN
 62
     7
370
     0
100
AcDbLine
 10
194.5812904984
 20
138.6492172833
 30
0.0
 11
194.5812904984
 21
107.1992176231
 31
0.0
  0
LWPOLYLINE
  5
163
330
1F
100
AcDbEntity
  8
0
  6
HIDDEN
 62
     7
370
     0
100
AcDbPolyline
 90
        2
 70
   128
 43
0.0
 10
194.5812904984
 20
107.1992176231
 10
194.5812904984
 20
107.1992176231
  0
ARC
  5
164
330
1F
100
AcDbEntity
  8
0
  6
HIDDEN
 62
     7
370
     0
100
AcDbCircle
 10
214.8857854229
 20
111.6593823094
 30
0.0
 40
2.362523728073304
100
AcDbArc
 50
35.098191853
 51
69.2709357184
  0
SPLINE
  5
165
330
1F
100
AcDbEntity
  8
0
  6
HIDDEN
 62
     7
370
     0
100
AcDbSpline
210
0.0
220
0.0
230
1.0
 70
     8
 71
     3
 72
    64
 73
    60
 74
     0
 42
0.00000001
 43
0.00000001
 40
-0.0312500000000006
 40
-0.0312500000000006
 40
0.0
 40
0.0
 40
0.03125
 40
0.03125
 40
0.0624999999999999
 40
0.0624999999999999
 40
0.1249999999999993
 40
0.1249999999999993
 40
0.1562499999999989
 40
0.1562499999999989
 40
0.1874999999999986
 40
0.1874999999999986
 40
0.2187499999999983
 40
0.2187499999999983
 40
0.2499999999999981
 40
0.2499999999999981
 40
0.2812499999999978
 40
0.2812499999999978
 40
0.3124999999999976
 40
0.3124999999999976
 40
0.3749999999999969
 40
0.3749999999999969
 40
0.4062499999999967
 40
0.4062499999999967
 40
0.4374999999999964
 40
0.4374999999999964
 40
0.4687499999999962
 40
0.4687499999999962
 40
0.4999999999999959
 40
0.4999999999999959
 40
0.5312499999999957
 40
0.5312499999999957
 40
0.5624999999999953
 40
0.5624999999999953
 40
0.5937499999999957
 40
0.5937499999999957
 40
0.624999999999996
 40
0.624999999999996
 40
0.6562499999999962
 40
0.6562499999999962
 40
0.6874999999999966
 40
0.6874999999999966
 40
0.7187499999999969
 40
0.7187499999999969
 40
0.7499999999999972
 40
0.7499999999999972
 40
0.7812499999999974
 40
0.7812499999999974
 40
0.8124999999999978
 40
0.8124999999999978
 40
0.8749999999999979
 40
0.8749999999999979
 40
0.9062499999999984
 40
0.9062499999999984
 40
0.937499999999999
 40
0.937499999999999
 40
0.9687499999999994
 40
0.9687499999999994
 40
1.0
 40
1.0
 40
1.03125
 40
1.03125
 10
214.8009503263095
 20
123.0363302009131
 30
0.0
 10
214.4616309477049
 20
123.0363302009131
 30
0.0
 10
214.2959444228718
 20
123.0149855293141
 30
0.0
 10
213.9717083466976
 20
122.9339370295362
 30
0.0
 10
213.8119015109696
 20
122.8732545503527
 30
0.0
 10
213.3627266886275
 20
122.6474173503229
 30
0.0
 10
213.0933014725633
 20
122.4353717150178
 30
0.0
 10
212.7552664613662
 20
122.0700620663599
 30
0.0
 10
212.651710296967
 20
121.9380915015127
 30
0.0
 10
212.4713228063294
 20
121.6658783486125
 30
0.0
 10
212.3941764722667
 20
121.5258106159392
 30
0.0
 10
212.266656061489
 20
121.23879124103
 30
0.0
 10
212.216132501449
 20
121.0900469486004
 30
0.0
 10
212.1492116735224
 20
120.801309575168
 30
0.0
 10
212.1318526108841
 20
120.6599294233261
 30
0.0
 10
212.1307552342759
 20
120.3838251892299
 30
0.0
 10
212.1474811557491
 20
120.2511838135947
 30
0.0
 10
212.2128854406492
 20
120.0063218149287
 30
0.0
 10
212.2623712923807
 20
119.8912700742738
 30
0.0
 10
212.4529837073295
 20
119.5807159833196
 30
0.0
 10
212.6375795034783
 20
119.4160610938756
 30
0.0
 10
212.974795647684
 20
119.2292666037427
 30
0.0
 10
213.0988235910701
 20
119.1760562428611
 30
0.0
 10
213.3646544594945
 20
119.0873450209168
 30
0.0
 10
213.5050715837222
 20
119.0520574933888
 30
0.0
 10
213.8027050661754
 20
118.995984942474
 30
0.0
 10
213.9622692904646
 20
118.9750607131254
 30
0.0
 10
214.2878804694731
 20
118.9476135053281
 30
0.0
 10
214.4539927050055
 20
118.9407765517538
 30
0.0
 10
214.7934917522197
 20
118.9403723931734
 30
0.0
 10
214.9601651580775
 20
118.9468380902009
 30
0.0
 10
215.2860702063499
 20
118.9734484461385
 30
0.0
 10
215.4461606155513
 20
118.9939188600368
 30
0.0
 10
215.7465068426939
 20
119.04950777008
 30
0.0
 10
215.8897702916489
 20
119.0850761201029
 30
0.0
 10
216.1569091889316
 20
119.1733425669496
 30
0.0
 10
216.2798686458529
 20
119.2255453510219
 30
0.0
 10
216.506380627466
 20
119.3497292315756
 30
0.0
 10
216.6102273399051
 20
119.422350717723
 30
0.0
 10
216.7903839184871
 20
119.5859310706298
 30
0.0
 10
216.8678816163111
 20
119.6773318170865
 30
0.0
 10
216.9963597747788
 20
119.883454245294
 30
0.0
 10
217.0465845907722
 20
119.9981469737819
 30
0.0
 10
217.1133614115433
 20
120.2414475356182
 30
0.0
 10
217.130898112896
 20
120.3714630655285
 30
0.0
 10
217.1316702598129
 20
120.6496299367413
 30
0.0
 10
217.1149036810452
 20
120.791831475468
 30
0.0
 10
217.0489973771384
 20
121.0817397230495
 30
0.0
 10
216.9990438060012
 20
121.2305994917681
 30
0.0
 10
216.8079663037279
 20
121.6641033907793
 30
0.0
 10
216.6226641776507
 20
121.9449253746862
 30
0.0
 10
216.2836747992675
 20
122.3119835675072
 30
0.0
 10
216.1584678861551
 20
122.4273054271764
 30
0.0
 10
215.8929352120323
 20
122.6316330576222
 30
0.0
 10
215.7521404159968
 20
122.7215390278753
 30
0.0
 10
215.4520773630007
 20
122.8726966168314
 30
0.0
 10
215.2918491212794
 20
122.9336137574665
 30
0.0
 10
214.967561751359
 20
123.0148331262599
 30
0.0
 10
214.8009503263095
 20
123.0363302009131
 30
0.0
 10
214.4616309477049
 20
123.0363302009131
 30
0.0
  0
LINE
  5
166
330
1F
100
AcDbEntity
  8
0
  6
HIDDEN
 62
     7
370
     0
100
AcDbLine
 10
153.8812897876
 20
107.1227262374
 30
0.0
 11
161.4312909321
 21
107.1227262374
 31
0.0
  0
LINE
  5
167
330
1F
100
AcDbEntity
  8
0
  6
HIDDEN
 62
     7
370
     0
100
AcDbLine
 10
153.8812897876
 20
138.725708669
 30
0.0
 11
153.8812897876
 21
107.1227262374
 31
0.0
  0
LINE
  5
168
330
1F
100
AcDbEntity
  8
0
  6
HIDDEN
 62
     7
370
     0
100
AcDbLine
 10
157.4312902764
 20
138.725708669
 30
0.0
 11
153.8812897876
 21
138.725708669
 31
0.0
  0
SPLINE
  5
169
330
1F
100
AcDbEntity
  8
0
  6
HIDDEN
 62
     7
370
     0
100
AcDbSpline
210
0.0
220
0.0
230
1.0
 70
     8
 71
     3
 72
    18
 73
    14
 74
     0
 42
0.00000001
 43
0.00000001
 40
0.0
 40
0.0
 40
0.0
 40
0.0
 40
0.2500000000000014
 40
0.2500000000000014
 40
0.3750000000000013
 40
0.3750000000000013
 40
0.5000000000000012
 40
0.5000000000000012
 40
0.6250000000000011
 40
0.6250000000000011
 40
0.750000000000001
 40
0.750000000000001
 40
1.0
 40
1.0
 40
1.0
 40
1.0
 10
158.8312906370072
 20
139.2117310756215
 30
0.0
 10
158.8312906370071
 20
139.1572565550693
 30
0.0
 10
158.796379945615
 20
139.1008754957169
 30
0.0
 10
158.6943706442819
 20
139.0167986548634
 30
0.0
 10
158.6527342896038
 20
138.9894649508725
 30
0.0
 10
158.5543284941151
 20
138.9365110352735
 30
0.0
 10
158.4967852824108
 20
138.9106236815563
 30
0.0
 10
158.3694871088379
 20
138.862846136723
 30
0.0
 10
158.2998998040804
 20
138.8408982185451
 30
0.0
 10
158.1484655589254
 20
138.8014656536324
 30
0.0
 10
158.0657816558315
 20
138.7839094044066
 30
0.0
 10
157.8096701937934
 20
138.7414706389861
 30
0.0
 10
157.6217551899054
 20
138.7257078892491
 30
0.0
 10
157.4312906370072
 20
138.7257078892491
 30
0.0
  0
LINE
  5
16A
330
1F
100
AcDbEntity
  8
0
  6
HIDDEN
 62
     7
370
     0
100
AcDbLine
 10
158.8312897608
 20
139.2117305305
 30
0.0
 11
158.8312897608
 21
139.9242183771
 31
0.0
  0
SPLINE
  5
16B
330
1F
100
AcDbEntity
  8
0
  6
HIDDEN
 62
     7
370
     0
100
AcDbSpline
210
0.0
220
0.0
230
1.0
 70
     8
 71
     3
 72
    18
 73
    14
 74
     0
 42
0.00000001
 43
0.00000001
 40
0.0
 40
0.0
 40
0.0
 40
0.0
 40
0.2499999999999998
 40
0.2499999999999998
 40
0.374999999999999
 40
0.374999999999999
 40
0.4999999999999982
 40
0.4999999999999982
 40
0.6249999999999974
 40
0.6249999999999974
 40
0.7499999999999967
 40
0.7499999999999967
 40
1.0
 40
1.0
 40
1.0
 40
1.0
 10
158.8312906370072
 20
139.2117310756215
 30
0.0
 10
158.8312906370072
 20
139.1572565550694
 30
0.0
 10
158.796379945615
 20
139.1008754957169
 30
0.0
 10
158.6943706442819
 20
139.0167986548634
 30
0.0
 10
158.6527342896038
 20
138.9894649508725
 30
0.0
 10
158.5543284941151
 20
138.9365110352735
 30
0.0
 10
158.4967852824108
 20
138.9106236815563
 30
0.0
 10
158.3694871088378
 20
138.862846136723
 30
0.0
 10
158.2998998040804
 20
138.8408982185451
 30
0.0
 10
158.1484655589254
 20
138.8014656536324
 30
0.0
 10
158.0657816558315
 20
138.7839094044066
 30
0.0
 10
157.8096701937934
 20
138.7414706389861
 30
0.0
 10
157.6217551899054
 20
138.7257078892491
 30
0.0
 10
157.4312906370072
 20
138.7257078892491
 30
0.0
  0
LINE
  5
16C
330
1F
100
AcDbEntity
  8
0
  6
HIDDEN
 62
     7
370
     0
100
AcDbLine
 10
157.4312902764
 20
138.725708669
 30
0.0
 11
153.8812897876
 21
138.725708669
 31
0.0
  0
LINE
  5
16D
330
1F
100
AcDbEntity
  8
0
  6
HIDDEN
 62
     7
370
     0
100
AcDbLine
 10
153.8812897876
 20
107.1227262374
 30
0.0
 11
161.4312909321
 21
107.1227262374
 31
0.0
  0
SPLINE
  5
16E
330
1F
100
AcDbEntity
  8
0
  6
HIDDEN
 62
     7
370
     0
100
AcDbSpline
210
0.0
220
0.0
230
1.0
 70
     8
 71
     3
 72
    16
 73
    12
 74
     0
 42
0.00000001
 43
0.00000001
 40
0.0
 40
0.0
 40
0.0
 40
0.0
 40
0.1250000000000018
 40
0.1250000000000018
 40
0.2500000000000037
 40
0.2500000000000037
 40
0.5000000000000024
 40
0.5000000000000024
 40
0.7500000000000012
 40
0.7500000000000012
 40
1.0
 40
1.0
 40
1.0
 40
1.0
 10
161.4312906370072
 20
107.1227270171858
 30
0.0
 10
161.526412391673
 20
107.1227270171858
 30
0.0
 10
161.6197424604011
 20
107.118911183793
 30
0.0
 10
161.803004221139
 20
107.1041406310632
 30
0.0
 10
161.8938819366961
 20
107.0929825830876
 30
0.0
 10
162.1506836342158
 20
107.0505113129458
 30
0.0
 10
162.3057509990878
 20
107.009465115743
 30
0.0
 10
162.5594974606424
 20
106.9143189991612
 30
0.0
 10
162.6603679123103
 20
106.8595562650796
 30
0.0
 10
162.7956143270051
 20
106.7482951411757
 30
0.0
 10
162.8312906370072
 20
106.691125403847
 30
0.0
 10
162.8312906370072
 20
106.6367038308133
 30
0.0
  0
LINE
  5
16F
330
1F
100
AcDbEntity
  8
0
  6
HIDDEN
 62
     7
370
     0
100
AcDbLine
 10
162.8312904165
 20
106.636704376
 30
0.0
 11
162.8312904165
 21
105.9242165293
 31
0.0
  0
SPLINE
  5
170
330
1F
100
AcDbEntity
  8
0
  6
HIDDEN
 62
     7
370
     0
100
AcDbSpline
210
0.0
220
0.0
230
1.0
 70
     8
 71
     3
 72
    16
 73
    12
 74
     0
 42
0.00000001
 43
0.00000001
 40
0.0
 40
0.0
 40
0.0
 40
0.0
 40
0.125000000000002
 40
0.125000000000002
 40
0.250000000000004
 40
0.250000000000004
 40
0.5000000000000027
 40
0.5000000000000027
 40
0.7500000000000013
 40
0.7500000000000013
 40
1.0
 40
1.0
 40
1.0
 40
1.0
 10
161.4312906370072
 20
107.1227270171858
 30
0.0
 10
161.526412391673
 20
107.1227270171858
 30
0.0
 10
161.6197424604011
 20
107.118911183793
 30
0.0
 10
161.8030042211391
 20
107.1041406310632
 30
0.0
 10
161.8938819366961
 20
107.0929825830876
 30
0.0
 10
162.1506836342158
 20
107.0505113129458
 30
0.0
 10
162.3057509990878
 20
107.0094651157431
 30
0.0
 10
162.5594974606424
 20
106.9143189991612
 30
0.0
 10
162.6603679123103
 20
106.8595562650796
 30
0.0
 10
162.7956143270051
 20
106.7482951411757
 30
0.0
 10
162.8312906370072
 20
106.691125403847
 30
0.0
 10
162.8312906370072
 20
106.6367038308133
 30
0.0
  0
LINE
  5
171
330
1F
100
AcDbEntity
  8
0
  6
HIDDEN
 62
     7
370
     0
100
AcDbLine
 10
153.8812897876
 20
107.1227262374
 30
0.0
 11
153.8812897876
 21
138.725708669
 31
0.0
  0
LINE
  5
172
330
1F
100
AcDbEntity
  8
0
  6
HIDDEN
 62
     7
370
     0
100
AcDbLine
 10
153.8812897876
 20
104.9342169072
 30
0.0
 11
153.8812897876
 21
102.111717185
 31
0.0
  0
LINE
  5
173
330
1F
100
AcDbEntity
  8
0
  6
HIDDEN
 62
     7
370
     0
100
AcDbLine
 10
162.8312904165
 20
104.9342169072
 30
0.0
 11
162.8312904165
 21
100.9790687468
 31
0.0
  0
LINE
  5
174
330
1F
100
AcDbEntity
  8
0
  6
HIDDEN
 62
     7
370
     0
100
AcDbLine
 10
153.8812897876
 20
140.9142179992
 30
0.0
 11
153.8812897876
 21
143.7941561099
 31
0.0
  0
LINE
  5
175
330
1F
100
AcDbEntity
  8
0
  6
HIDDEN
 62
     7
370
     0
100
AcDbLine
 10
152.7312908099
 20
140.9142179992
 30
0.0
 11
152.7312908099
 21
142.6148949768
 31
0.0
  0
SPLINE
  5
176
330
1F
100
AcDbEntity
  8
0
  6
HIDDEN
 62
     7
370
     0
100
AcDbSpline
210
0.0
220
0.0
230
1.0
 70
     8
 71
     3
 72
    16
 73
    12
 74
     0
 42
0.00000001
 43
0.00000001
 40
0.0
 40
0.0
 40
0.0
 40
0.0
 40
0.1250000000000001
 40
0.1250000000000001
 40
0.2500000000000001
 40
0.2500000000000001
 40
0.5
 40
0.5
 40
0.75
 40
0.75
 40
1.0
 40
1.0
 40
1.0
 40
1.0
 10
226.8992398294383
 20
122.9242174532174
 30
0.0
 10
226.8992398294383
 20
121.7415106358014
 30
0.0
 10
226.9201512018871
 20
120.5572538147287
 30
0.0
 10
227.0030520100904
 20
118.1856953629472
 30
0.0
 10
227.0651348091333
 20
116.9972908599262
 30
0.0
 10
227.3076682729835
 20
113.4435473879471
 30
0.0
 10
227.5444591468051
 20
111.0854291331418
 30
0.0
 10
228.1302617082115
 20
106.385695180958
 30
0.0
 10
228.4788293132142
 20
104.0440141793096
 30
0.0
 10
229.2523213638847
 20
99.37188078063404
 30
0.0
 10
229.6772058572158
 20
97.04142250844244
 30
0.0
 10
230.1275937583243
 20
94.71471462298675
 30
0.0
  0
LINE
  5
177
330
1F
100
AcDbEntity
  8
0
  6
HIDDEN
 62
     7
370
     0
100
AcDbLine
 10
226.8992390261
 20
149.9242181536
 30
0.0
 11
226.8992390261
 21
122.9242174532
 31
0.0
  0
SPLINE
  5
178
330
1F
100
AcDbEntity
  8
0
  6
HIDDEN
 62
     7
370
     0
100
AcDbSpline
210
0.0
220
0.0
230
1.0
 70
     8
 71
     3
 72
    20
 73
    16
 74
     0
 42
0.00000001
 43
0.00000001
 40
0.0
 40
0.0
 40
0.0
 40
0.0
 40
0.0701451140273801
 40
0.0715799599382662
 40
0.1476313143693085
 40
0.2240298106870114
 40
0.3011357458729686
 40
0.3947375285522224
 40
0.4889971741190008
 40
0.5853399707230039
 40
0.6824058916828631
 40
0.7608037699105469
 40
0.839591017740354
 40
0.9195885587559243
 40
1.0
 40
1.0
 40
1.0
 40
1.0
 10
230.9970844314007
 20
80.7002684678792
 30
0.0
 10
230.9844639214744
 20
80.72492443431148
 30
0.0
 10
230.9715852540511
 20
80.75008474823973
 30
0.0
 10
230.9450344430787
 20
80.80050806146912
 30
0.0
 10
230.9132643543525
 20
81.00985183113151
 30
0.0
 10
230.8633706444567
 20
81.41767816696724
 30
0.0
 10
230.8042937100431
 20
82.06363592373562
 30
0.0
 10
230.7355113101856
 20
82.96746622537968
 30
0.0
 10
230.6553028882868
 20
84.18942997511874
 30
0.0
 10
230.5678744517017
 20
85.67458914846301
 30
0.0
 10
230.4796160979585
 20
87.30690890964208
 30
0.0
 10
230.3926664905505
 20
89.0165442649545
 30
0.0
 10
230.3081071047508
 20
90.75947428483502
 30
0.0
 10
230.2198693371167
 20
92.64821609004963
 30
0.0
 10
230.1584054605
 20
94.02469726942772
 30
0.0
 10
230.1275942251591
 20
94.71471371314516
 30
0.0
  0
ELLIPSE
  5
179
330
1F
100
AcDbEntity
  8
0
  6
HIDDEN
 62
     7
370
     0
100
AcDbEllipse
 10
247.2698208267
 20
122.9242174532
 30
0.0
 11
-19.21239144025139
 21
26.99711638407907
 31
0.0
210
0.0
220
0.0
230
1.0
 40
0.0205386817
 41
6.268570076028023
 42
7.839366402822306
  0
LINE
  5
17A
330
1F
100
AcDbEntity
  8
0
  6
HIDDEN
 62
     7
370
     0
100
AcDbLine
 10
152.7312908099
 20
104.9342169072
 30
0.0
 11
152.7312908099
 21
103.2710573282
 31
0.0
  0
LINE
  5
17B
330
1F
100
AcDbEntity
  8
0
  6
HIDDEN
 62
     7
370
     0
100
AcDbLine
 10
158.8312897608
 20
140.9142179992
 30
0.0
 11
158.8312897608
 21
144.7683251109
 31
0.0
  0
LINE
  5
17C
330
1F
100
AcDbEntity
  8
0
  6
HIDDEN
 62
     7
370
     0
100
AcDbLine
 10
203.9312913791
 20
132.4242171477
 30
0.0
 11
203.9312913791
 21
113.4242177587
 31
0.0
  0
LWPOLYLINE
  5
17D
330
1F
100
AcDbEntity
  8
0
  6
HIDDEN
 62
     7
370
     0
100
AcDbPolyline
 90
        2
 70
   128
 43
0.0
 10
203.9312913791
 20
113.4242177587
 10
203.9312913791
 20
113.4242177587
  0
LINE
  5
17E
330
1F
100
AcDbEntity
  8
0
  6
HIDDEN
 62
     7
370
     0
100
AcDbLine
 10
206.4312908575
 20
132.4242171477
 30
0.0
 11
206.4312908575
 21
113.4242177587
 31
0.0
  0
LWPOLYLINE
  5
17F
330
1F
100
AcDbEntity
  8
0
  6
HIDDEN
 62
     7
370
     0
100
AcDbPolyline
 90
        2
 70
   128
 43
0.0
 10
206.4312908575
 20
113.4242177587
 10
206.4312908575
 20
113.4242177587
  0
LWPOLYLINE
  5
180
330
1F
100
AcDbEntity
  8
0
  6
HIDDEN
 62
     7
370
     0
100
AcDbPolyline
 90
        2
 70
   128
 43
0.0
 10
210.5812903271
 20
96.5242175963
 10
210.5812903271
 20
96.5242175963
  0
LINE
  5
181
330
1F
100
AcDbEntity
  8
0
  6
HIDDEN
 62
     7
370
     0
100
AcDbLine
 10
195.0812905804
 20
131.4242179152
 30
0.0
 11
195.0812905804
 21
114.4242169913
 31
0.0
  0
LINE
  5
182
330
1F
100
AcDbEntity
  8
0
  6
HIDDEN
 62
     7
370
     0
100
AcDbLine
 10
194.5812904984
 20
113.9242178406
 30
0.0
 11
194.5812904984
 21
131.9057256561
 31
0.0
  0
LINE
  5
183
330
1F
100
AcDbEntity
  8
0
  6
HIDDEN
 62
     7
370
     0
100
AcDbLine
 10
189.5812906102
 20
91.4400941338
 30
0.0
 11
189.5812906102
 21
96.5242175963
 31
0.0
  0
LINE
  5
184
330
1F
100
AcDbEntity
  8
0
  6
HIDDEN
 62
     7
370
     0
100
AcDbLine
 10
197.5812909902
 20
96.5242175963
 30
0.0
 11
189.5812906102
 21
96.5242175963
 31
0.0
  0
LINE
  5
185
330
1F
100
AcDbEntity
  8
0
  6
HIDDEN
 62
     7
370
     0
100
AcDbLine
 10
200.8189659343
 20
96.5242175963
 30
0.0
 11
197.5812909902
 21
96.5242175963
 31
0.0
  0
LINE
  5
186
330
1F
100
AcDbEntity
  8
0
  6
HIDDEN
 62
     7
370
     0
100
AcDbLine
 10
200.7212906853
 20
96.1198224332
 30
0.0
 11
200.7212906853
 21
95.4263801332
 31
0.0
  0
LINE
  5
187
330
1F
100
AcDbEntity
  8
0
  6
HIDDEN
 62
     7
370
     0
100
AcDbLine
 10
210.5812903271
 20
96.5242175963
 30
0.0
 11
204.4436156527
 21
96.5242175963
 31
0.0
  0
LINE
  5
188
330
1F
100
AcDbEntity
  8
0
  6
HIDDEN
 62
     7
370
     0
100
AcDbLine
 10
204.5412909017
 20
95.4263801332
 30
0.0
 11
204.5412909017
 21
96.1198224332
 31
0.0
  0
LINE
  5
189
330
1F
100
AcDbEntity
  8
0
  6
HIDDEN
 62
     7
370
     0
100
AcDbLine
 10
210.5812903271
 20
96.5242175963
 30
0.0
 11
210.5812903271
 21
93.3639402147
 31
0.0
  0
LINE
  5
18A
330
1F
100
AcDbEntity
  8
0
  6
HIDDEN
 62
     7
370
     0
100
AcDbLine
 10
203.9312913791
 20
114.4242169913
 30
0.0
 11
203.9312913791
 21
131.4242179152
 31
0.0
  0
LWPOLYLINE
  5
18B
330
1F
100
AcDbEntity
  8
0
  6
HIDDEN
 62
     7
370
     0
100
AcDbPolyline
 90
        2
 70
   128
 43
0.0
 10
210.5812903271
 20
149.3242173102
 10
210.5812903271
 20
149.3242173102
  0
LINE
  5
18C
330
1F
100
AcDbEntity
  8
0
  6
HIDDEN
 62
     7
370
     0
100
AcDbLine
 10
197.5812909902
 20
149.3242173102
 30
0.0
 11
189.5812906102
 21
149.3242173102
 31
0.0
  0
LINE
  5
18D
330
1F
100
AcDbEntity
  8
0
  6
HIDDEN
 62
     7
370
     0
100
AcDbLine
 10
210.5812903271
 20
149.3242173102
 30
0.0
 11
204.1469931379
 21
149.3242173102
 31
0.0
  0
LINE
  5
18E
330
1F
100
AcDbEntity
  8
0
  6
HIDDEN
 62
     7
370
     0
100
AcDbLine
 10
204.5412909017
 20
150.7294508275
 30
0.0
 11
204.5412909017
 21
150.0438707527
 31
0.0
  0
LINE
  5
18F
330
1F
100
AcDbEntity
  8
0
  6
HIDDEN
 62
     7
370
     0
100
AcDbLine
 10
210.5812903271
 20
149.3242173102
 30
0.0
 11
210.5812903271
 21
152.7706584539
 31
0.0
  0
LINE
  5
190
330
1F
100
AcDbEntity
  8
0
  6
HIDDEN
 62
     7
370
     0
100
AcDbLine
 10
201.115588449
 20
149.3242173102
 30
0.0
 11
197.5812909902
 21
149.3242173102
 31
0.0
  0
LINE
  5
191
330
1F
100
AcDbEntity
  8
0
  6
HIDDEN
 62
     7
370
     0
100
AcDbLine
 10
200.7212906853
 20
150.0438707527
 30
0.0
 11
200.7212906853
 21
150.7294508275
 31
0.0
  0
ELLIPSE
  5
192
330
1F
100
AcDbEntity
  8
0
  6
HIDDEN
 62
     7
370
     0
100
AcDbEllipse
 10
148.5638587727
 20
122.9242174532
 30
0.0
 11
20.07002071827054
 21
-2.842170943040401E-14
 31
0.0
210
0.0
220
0.0
230
1.0
 40
0.8164965809
 41
4.921555463185702
 42
4.980534842098402
  0
LINE
  5
193
330
1F
100
AcDbEntity
  8
0
  6
HIDDEN
 62
     7
370
     0
100
AcDbLine
 10
152.7312908099
 20
104.9342169072
 30
0.0
 11
152.7312908099
 21
106.8942821231
 31
0.0
  0
ELLIPSE
  5
194
330
1F
100
AcDbEntity
  8
0
  6
HIDDEN
 62
     7
370
     0
100
AcDbEllipse
 10
148.5638587727
 20
122.9242174532
 30
0.0
 11
20.07002071827054
 21
-1.421085471520200E-14
 31
0.0
210
0.0
220
0.0
230
1.0
 40
0.8164965809
 41
1.302650465081197
 42
1.361629843993897
  0
LINE
  5
195
330
1F
100
AcDbEntity
  8
0
  6
HIDDEN
 62
     7
370
     0
100
AcDbLine
 10
152.7312908099
 20
140.9142179992
 30
0.0
 11
152.7312908099
 21
138.9541527834
 31
0.0
  0
LINE
  5
196
330
1F
100
AcDbEntity
  8
0
  6
HIDDEN
 62
     7
370
     0
100
AcDbLine
 10
153.8812897876
 20
104.9342169072
 30
0.0
 11
153.8812897876
 21
107.1227262374
 31
0.0
  0
LINE
  5
197
330
1F
100
AcDbEntity
  8
0
  6
HIDDEN
 62
     7
370
     0
100
AcDbLine
 10
162.8312904165
 20
104.9342169072
 30
0.0
 11
162.8312904165
 21
106.636704376
 31
0.0
  0
LINE
  5
198
330
1F
100
AcDbEntity
  8
0
  6
HIDDEN
 62
     7
370
     0
100
AcDbLine
 10
158.8312897608
 20
140.9142179992
 30
0.0
 11
158.8312897608
 21
139.2117305305
 31
0.0
  0
LINE
  5
199
330
1F
100
AcDbEntity
  8
0
  6
HIDDEN
 62
     7
370
     0
100
AcDbLine
 10
153.8812897876
 20
140.9142179992
 30
0.0
 11
153.8812897876
 21
138.725708669
 31
0.0
  0
LINE
  5
19A
330
1F
100
AcDbEntity
  8
0
  6
HIDDEN
 62
     7
370
     0
100
AcDbLine
 10
246.6888937876
 20
122.5666727633
 30
0.0
 11
250.0208493099
 21
119.2529718038
 31
0.0
  0
SPLINE
  5
19B
330
1F
100
AcDbEntity
  8
0
  6
HIDDEN
 62
     7
370
     0
100
AcDbSpline
210
0.0
220
0.0
230
1.0
 70
    11
 71
     3
 72
    34
 73
    30
 74
     0
 42
0.00000001
 43
0.00000001
 40
0.0
 40
0.0
 40
0.0
 40
0.0
 40
0.0127738749551472
 40
0.0481304964036245
 40
0.080742485854779
 40
0.1375890904937957
 40
0.1884518708074186
 40
0.2226712072700682
 40
0.2626938332470648
 40
0.2986558257954515
 40
0.3315197710924684
 40
0.3878459600227368
 40
0.3881811698986066
 40
0.4440925970954409
 40
0.4768435525187838
 40
0.5126448808410614
 40
0.5530084569617746
 40
0.5873855765890913
 40
0.6380120863287084
 40
0.6949796216247263
 40
0.7275539778390259
 40
0.7628079274865468
 40
0.8028703408001725
 40
0.8370831496007897
 40
0.887774971414222
 40
0.8880467351002763
 40
0.9388397791869649
 40
0.9729712642357164
 40
1.0
 40
1.0
 40
1.0
 40
1.0
 10
172.7913029268889
 20
99.85655496082296
 30
0.0
 10
172.8504964330038
 20
99.86264437460842
 30
0.0
 10
173.0735307779604
 20
99.88558858764719
 30
0.0
 10
173.5968837681403
 20
99.92222989083277
 30
0.0
 10
174.469646771462
 20
99.94991666199675
 30
0.0
 10
175.584484836542
 20
99.93935808291057
 30
0.0
 10
176.6975506767813
 20
99.82321616803566
 30
0.0
 10
177.5919918018365
 20
99.70162503816205
 30
0.0
 10
178.2758274018136
 20
99.57986498549653
 30
0.0
 10
178.8165754000563
 20
99.46351139764725
 30
0.0
 10
179.2300156754247
 20
99.37000740805591
 30
0.0
 10
179.4581383327582
 20
99.30344219269257
 30
0.0
 10
179.3036177896344
 20
99.34460655364083
 30
0.0
 10
179.2767169796009
 20
99.3571396520466
 30
0.0
 10
178.82095400648
 20
99.46267351436141
 30
0.0
 10
178.2970306346203
 20
99.57542019654328
 30
0.0
 10
177.6108207261379
 20
99.69851972651405
 30
0.0
 10
176.7177081626851
 20
99.82051141981441
 30
0.0
 10
175.6042713932962
 20
99.93826333442651
 30
0.0
 10
174.4935206280742
 20
99.95023200078818
 30
0.0
 10
173.6087687925661
 20
99.92317791805446
 30
0.0
 10
172.9415727101456
 20
99.87524223681793
 30
0.0
 10
172.4003008689949
 20
99.81895512079397
 30
0.0
 10
172.012717430689
 20
99.77384564265839
 30
0.0
 10
171.8187060251939
 20
99.73505159194445
 30
0.0
 10
171.9450425432505
 20
99.75634381317562
 30
0.0
 10
171.9741989831024
 20
99.76634582782981
 30
0.0
 10
172.3456853151972
 20
99.81394413160812
 30
0.0
 10
172.6547270885324
 20
99.84349531153983
 30
0.0
 10
172.7913029268889
 20
99.85655496082296
 30
0.0
  0
SPLINE
  5
19C
330
1F
100
AcDbEntity
  8
0
  6
HIDDEN
 62
     7
370
     0
100
AcDbSpline
210
0.0
220
0.0
230
1.0
 70
     8
 71
     3
 72
    38
 73
    34
 74
     0
 42
0.00000001
 43
0.00000001
 40
-0.0939221400677789
 40
-0.065775259775378
 40
-0.0344739496007942
 40
0.0
 40
0.0323124298479836
 40
0.0609695982577461
 40
0.085969868783555
 40
0.1073131755946561
 40
0.125001929016961
 40
0.1562358721977445
 40
0.1978507372990771
 40
0.2498168793248351
 40
0.2782629480307221
 40
0.3049884159832859
 40
0.330004216891384
 40
0.3533239044418168
 40
0.3749644360933808
 40
0.4060267838322921
 40
0.4476555976010198
 40
0.4998320869201298
 40
0.5286685248934815
 40
0.5555536435543464
 40
0.5805015705746597
 40
0.6035302879119625
 40
0.62466296934292
 40
0.6685312637103243
 40
0.7183269153555463
 40
0.7652375706113133
 40
0.7915712044406464
 40
0.8122937035710441
 40
0.8615656629637487
 40
0.9060778599322211
 40
0.934224740224622
 40
0.9655260503992058
 40
1.0
 40
1.032312429847984
 40
1.060969598257746
 40
1.085969868783555
 10
173.5715558011886
 20
145.9272214792448
 30
0.0
 10
172.9674875826792
 20
145.9717549844607
 30
0.0
 10
172.492172519833
 20
146.0198303706938
 30
0.0
 10
172.1725736938332
 20
146.0559931099596
 30
0.0
 10
171.9855792881192
 20
146.082383244148
 30
0.0
 10
171.8972736285668
 20
146.0984528539453
 30
0.0
 10
171.8678601326975
 20
146.1062765391952
 30
0.0
 10
171.9399922027663
 20
146.0881090406115
 30
0.0
 10
172.2611042049608
 20
146.0435024606489
 30
0.0
 10
172.8331316951754
 20
145.9827639319781
 30
0.0
 10
173.4836640429317
 20
145.9334197689581
 30
0.0
 10
174.0335401716731
 20
145.9110573084788
 30
0.0
 10
174.5889780374513
 20
145.9025750985743
 30
0.0
 10
175.1297535850878
 20
145.9090261847229
 30
0.0
 10
175.727683479887
 20
145.9325045613246
 30
0.0
 10
176.467349337054
 20
145.9994244321618
 30
0.0
 10
177.3993989703269
 20
146.1155258660969
 30
0.0
 10
178.1887357040005
 20
146.2508407506882
 30
0.0
 10
178.7276653918379
 20
146.3659525747554
 30
0.0
 10
179.0417697317338
 20
146.4357266513065
 30
0.0
 10
179.2470501000996
 20
146.4862867368023
 30
0.0
 10
179.3581200861905
 20
146.5169648767091
 30
0.0
 10
179.4043915879945
 20
146.5316918939652
 30
0.0
 10
179.2784267196482
 20
146.4938323003779
 30
0.0
 10
178.8081811907751
 20
146.3833465159518
 30
0.0
 10
178.1549832271865
 20
146.2436422975756
 30
0.0
 10
177.5509642716705
 20
146.1405156914303
 30
0.0
 10
176.8766262220322
 20
146.0410796656609
 30
0.0
 10
175.9912767390448
 20
145.9476093313853
 30
0.0
 10
175.0217978484325
 20
145.9006008253126
 30
0.0
 10
174.2334622711654
 20
145.9042850404131
 30
0.0
 10
173.5715558011886
 20
145.9272214792448
 30
0.0
 10
172.9674875826792
 20
145.9717549844607
 30
0.0
 10
172.492172519833
 20
146.0198303706938
 30
0.0
  0
LINE
  5
19D
330
1F
100
AcDbEntity
  8
0
  6
HIDDEN
 62
     7
370
     0
100
AcDbLine
 10
218.7312904522
 20
127.1242173035
 30
0.0
 11
218.7312904522
 21
118.724217603
 31
0.0
  0
SPLINE
  5
19E
330
1F
100
AcDbEntity
  8
0
  6
HIDDEN
 62
     7
370
     0
100
AcDbSpline
210
0.0
220
0.0
230
1.0
 70
     8
 71
     3
 72
    64
 73
    60
 74
     0
 42
0.00000001
 43
0.00000001
 40
-0.0312500000000001
 40
-0.0312500000000001
 40
0.0
 40
0.0
 40
0.0312500000000005
 40
0.0312500000000005
 40
0.0625000000000011
 40
0.0625000000000011
 40
0.125000000000001
 40
0.125000000000001
 40
0.1562500000000009
 40
0.1562500000000009
 40
0.1875000000000009
 40
0.1875000000000009
 40
0.2187500000000009
 40
0.2187500000000009
 40
0.2500000000000008
 40
0.2500000000000008
 40
0.2812500000000008
 40
0.2812500000000008
 40
0.3125000000000007
 40
0.3125000000000007
 40
0.3750000000000005
 40
0.3750000000000005
 40
0.4062500000000004
 40
0.4062500000000004
 40
0.4375000000000003
 40
0.4375000000000003
 40
0.4687500000000003
 40
0.4687500000000003
 40
0.5000000000000002
 40
0.5000000000000002
 40
0.5312500000000001
 40
0.5312500000000001
 40
0.5625
 40
0.5625
 40
0.5937499999999999
 40
0.5937499999999999
 40
0.6249999999999997
 40
0.6249999999999997
 40
0.6562499999999996
 40
0.6562499999999996
 40
0.6874999999999994
 40
0.6874999999999994
 40
0.7187499999999994
 40
0.7187499999999994
 40
0.7499999999999994
 40
0.7499999999999994
 40
0.7812499999999994
 40
0.7812499999999994
 40
0.8124999999999994
 40
0.8124999999999994
 40
0.8749999999999996
 40
0.8749999999999996
 40
0.9062499999999997
 40
0.9062499999999997
 40
0.9374999999999998
 40
0.9374999999999998
 40
0.9687499999999999
 40
0.9687499999999999
 40
1.0
 40
1.0
 40
1.03125
 40
1.03125
 10
214.4616309477049
 20
126.9078649269669
 30
0.0
 10
214.8009503263095
 20
126.9078649269669
 30
0.0
 10
214.9666368511426
 20
126.9012329754224
 30
0.0
 10
215.2908729273168
 20
126.8744239172615
 30
0.0
 10
215.4506797630448
 20
126.8538400834563
 30
0.0
 10
215.8998545853869
 20
126.7702175757607
 30
0.0
 10
216.1692798014512
 20
126.6837910096168
 30
0.0
 10
216.5073148126482
 20
126.4980562612326
 30
0.0
 10
216.6108709770475
 20
126.42561906119
 30
0.0
 10
216.791258467685
 20
126.2615894576981
 30
0.0
 10
216.8684048017477
 20
126.170278919657
 30
0.0
 10
216.9959252125253
 20
125.9656626387027
 30
0.0
 10
217.0464487725655
 20
125.8506975542276
 30
0.0
 10
217.113369600492
 20
125.6070426025006
 30
0.0
 10
217.1307286631304
 20
125.4775877578646
 30
0.0
 10
217.1318260397385
 20
125.2022328418689
 30
0.0
 10
217.1151001182653
 20
125.0580978553727
 30
0.0
 10
217.0496958333653
 20
124.7691457576561
 30
0.0
 10
217.0002099816336
 20
124.6209670761615
 30
0.0
 10
216.8095975666848
 20
124.1870755531582
 30
0.0
 10
216.625001770536
 20
123.9068731944613
 30
0.0
 10
216.2877856263304
 20
123.5404959830957
 30
0.0
 10
216.1637576829443
 20
123.4256934738939
 30
0.0
 10
215.8979268145198
 20
123.2201681130217
 30
0.0
 10
215.7575096902922
 20
123.1301717069359
 30
0.0
 10
215.4598762078389
 20
122.9791206460462
 30
0.0
 10
215.3003119835497
 20
122.9176078675419
 30
0.0
 10
214.9747008045412
 20
122.834753852254
 30
0.0
 10
214.8085885690089
 20
122.8127564957096
 30
0.0
 10
214.4690895217946
 20
122.8114812686521
 30
0.0
 10
214.3024161159369
 20
122.8323105971972
 30
0.0
 10
213.9765110676644
 20
122.9128347075913
 30
0.0
 10
213.816420658463
 20
122.9732606775916
 30
0.0
 10
213.5160744313205
 20
123.1235739682663
 30
0.0
 10
213.3728109823655
 20
123.21459132276
 30
0.0
 10
213.1056720850827
 20
123.4197091200417
 30
0.0
 10
212.9827126281615
 20
123.5327537443966
 30
0.0
 10
212.7562006465484
 20
123.7771868953791
 30
0.0
 10
212.6523539341093
 20
123.9095067302514
 30
0.0
 10
212.4721973555273
 20
124.1811033483357
 30
0.0
 10
212.3946996577033
 20
124.3214625867828
 30
0.0
 10
212.2662214992356
 20
124.6106059094779
 30
0.0
 10
212.2159966832422
 20
124.7588886921284
 30
0.0
 10
212.1492198624711
 20
125.0471754307154
 30
0.0
 10
212.1316831611184
 20
125.1892371044382
 30
0.0
 10
212.1309110142015
 20
125.4679312191499
 30
0.0
 10
212.1476775929692
 20
125.5986104586427
 30
0.0
 10
212.213583896876
 20
125.8440954981097
 30
0.0
 10
212.2635374680133
 20
125.9595259678485
 30
0.0
 10
212.4546149702866
 20
126.2694398221264
 30
0.0
 10
212.6399170963637
 20
126.4343060798594
 30
0.0
 10
212.9789064747469
 20
126.6211192036376
 30
0.0
 10
213.1041133878594
 20
126.6744387054586
 30
0.0
 10
213.3696460619821
 20
126.7624492278261
 30
0.0
 10
213.5104408580176
 20
126.7976485844365
 30
0.0
 10
213.8105039110137
 20
126.8536479332695
 30
0.0
 10
213.9707321527351
 20
126.8743148182323
 30
0.0
 10
214.2950195226554
 20
126.9011847189414
 30
0.0
 10
214.4616309477049
 20
126.9078649269669
 30
0.0
 10
214.8009503263095
 20
126.9078649269669
 30
0.0
  0
LINE
  5
19F
330
1F
100
AcDbEntity
  8
0
  6
HIDDEN
 62
     7
370
     0
100
AcDbLine
 10
206.4312908575
 20
118.724217603
 30
0.0
 11
206.4312908575
 21
127.1051996965
 31
0.0
  0
CIRCLE
  5
1A0
330
1F
100
AcDbEntity
  8
0
  6
HIDDEN
 62
     7
370
     0
100
AcDbCircle
 10
243.2461165761
 20
96.8387328719
 30
0.0
 40
3.477409092754337
  0
CIRCLE
  5
1A1
330
1F
100
AcDbEntity
  8
0
  6
HIDDEN
 62
     7
370
     0
100
AcDbCircle
 10
242.8197043198
 20
97.2628104486
 30
0.0
 40
3.477409738849913
  0
ARC
  5
1A2
330
1F
100
AcDbEntity
  8
0
  6
HIDDEN
 62
     7
370
     0
100
AcDbCircle
 10
239.6372440875
 20
89.8416317101
 30
0.0
 40
2.349360046802385
100
AcDbArc
 50
85.3958776654
 51
233.1767318672
  0
LINE
  5
1A3
330
1F
100
AcDbEntity
  8
0
  6
HIDDEN
 62
     7
370
     0
100
AcDbLine
 10
252.024638258
 20
91.2501751091
 30
0.0
 11
252.515922092
 21
90.7615809347
 31
0.0
  0
ELLIPSE
  5
1A4
330
1F
100
AcDbEntity
  8
0
  6
HIDDEN
 62
     7
370
     0
100
AcDbEllipse
 10
238.0565869008
 20
118.2672266998
 30
0.0
 11
-3.768286501278312
 21
38.39421154640809
 31
0.0
210
0.0
220
0.0
230
1.0
 40
0.0930513613
 41
3.004708868649083
 42
3.125219793363861
  0
LINE
  5
1A5
330
1F
100
AcDbEntity
  8
0
  6
HIDDEN
 62
     7
370
     0
100
AcDbLine
 10
241.3021165655
 20
80.1843045857
 30
0.0
 11
241.805123888
 21
80.1458223369
 31
0.0
  0
ELLIPSE
  5
1A6
330
1F
100
AcDbEntity
  8
0
  6
HIDDEN
 62
     7
370
     0
100
AcDbEllipse
 10
238.5595974814
 20
118.2287452439
 30
0.0
 11
-3.76828650127834
 21
38.3942115464081
 31
0.0
210
0.0
220
0.0
230
1.0
 40
0.0930513613
 41
2.927164987499774
 42
3.004708868649097
  0
LINE
  5
1A7
330
1F
100
AcDbEntity
  8
0
  6
HIDDEN
 62
     7
370
     0
100
AcDbLine
 10
241.481370084
 20
80.6392109599
 30
0.0
 11
252.2467549667
 21
79.8156349566
 31
0.0
  0
SPLINE
  5
1A8
330
1F
100
AcDbEntity
  8
0
  6
HIDDEN
 62
     7
370
     0
100
AcDbSpline
210
0.0
220
0.0
230
1.0
 70
     8
 71
     3
 72
    47
 73
    43
 74
     0
 42
0.00000001
 43
0.00000001
 40
0.0
 40
0.0
 40
0.0
 40
0.0
 40
0.0261546740939018
 40
0.0522484738193394
 40
0.0782815218584849
 40
0.1042539417544598
 40
0.130165857917634
 40
0.1560173956319577
 40
0.1818086810613216
 40
0.2075398412559558
 40
0.2332110041588505
 40
0.2588222986122162
 40
0.2843738543639724
 40
0.3098658020742619
 40
0.3352982733219999
 40
0.360671400611452
 40
0.3859853173788397
 40
0.4112401579989738
 40
0.4364360577919189
 40
0.4615731530296818
 40
0.4866515809429296
 40
0.5116714797277359
 40
0.536632988552346
 40
0.561536247563976
 40
0.5863813978956305
 40
0.6111685816729483
 40
0.6358979420210696
 40
0.6605696230715274
 40
0.6851837699691595
 40
0.7097405288790432
 40
0.7342400469934515
 40
0.7586824725388265
 40
0.7830679547827762
 40
0.8073966440410846
 40
0.8316686916847444
 40
0.8558842501470034
 40
0.8800434729304261
 40
0.9041465146139746
 40
0.9281935308600974
 40
0.9521846784218367
 40
0.9761201151499413
 40
1.0
 40
1.0
 40
1.0
 40
1.0
 10
249.3320696261977
 20
90.78923680589486
 30
0.0
 10
249.3588929504418
 20
90.6457244380361
 30
0.0
 10
249.4124771682946
 20
90.35903372386781
 30
0.0
 10
249.4927209257431
 20
89.93769229416563
 30
0.0
 10
249.5727340198944
 20
89.52343694361356
 30
0.0
 10
249.6525026613342
 20
89.1169048224004
 30
0.0
 10
249.7320153030236
 20
88.71799599208951
 30
0.0
 10
249.8112595226759
 20
88.3268038570959
 30
0.0
 10
249.8902228639434
 20
87.9433667490383
 30
0.0
 10
249.9688926205187
 20
87.56773428017165
 30
0.0
 10
250.0472559024571
 20
87.19994965024677
 30
0.0
 10
250.1252996271074
 20
86.84005439581435
 30
0.0
 10
250.2030105301322
 20
86.48808714800063
 30
0.0
 10
250.2803751711222
 20
86.14408399096021
 30
0.0
 10
250.3573799406089
 20
85.80807839376715
 30
0.0
 10
250.4340110666549
 20
85.48010125701575
 30
0.0
 10
250.5102546215072
 20
85.16018092957918
 30
0.0
 10
250.5860965281795
 20
84.84834323409801
 30
0.0
 10
250.6615225669981
 20
84.54461149087317
 30
0.0
 10
250.736518382098
 20
84.24900654289576
 30
0.0
 10
250.811069487873
 20
83.9615467812585
 30
0.0
 10
250.8851612753736
 20
83.68224817112554
 30
0.0
 10
250.9587790186541
 20
83.41112427818888
 30
0.0
 10
251.0319078810649
 20
83.1481862956057
 30
0.0
 10
251.104532921491
 20
82.89344307139291
 30
0.0
 10
251.1766391005312
 20
82.6469011362653
 30
0.0
 10
251.2482112866223
 20
82.40856473187962
 30
0.0
 10
251.3192342620965
 20
82.17843583953601
 30
0.0
 10
251.389692729196
 20
81.95651420905602
 30
0.0
 10
251.4595713159601
 20
81.74279738879464
 30
0.0
 10
251.5288545822864
 20
81.53728075313946
 30
0.0
 10
251.5975270250427
 20
81.33995754097091
 30
0.0
 10
251.6655730863966
 20
81.15081885489333
 30
0.0
 10
251.732977149866
 20
80.96985380780833
 30
0.0
 10
251.7997235817113
 20
80.79704912288358
 30
0.0
 10
251.8657966033782
 20
80.63239076764405
 30
0.0
 10
251.9311807919347
 20
80.475858024298
 30
0.0
 10
251.9958592446405
 20
80.32744569111598
 30
0.0
 10
252.0598204303668
 20
80.18708166423991
 30
0.0
 10
252.1230327338476
 20
80.05493360581397
 30
0.0
 10
252.1855391517404
 20
79.930268579323
 30
0.0
 10
252.2266307900243
 20
79.8537970462142
 30
0.0
 10
252.2471527390175
 20
79.81560570200332
 30
0.0
  0
ELLIPSE
  5
1A9
330
1F
100
AcDbEntity
  8
0
  6
HIDDEN
 62
     7
370
     0
100
AcDbEllipse
 10
492.0484194741
 20
98.8362725766
 30
0.0
 11
-336.2839460600767
 21
25.72648837591079
 31
2.486899575160350E-14
210
7.352207759866401E-17
220
-5.624606517424810E-18
230
1.0
 40
0.1126705179
 41
0.6866027854613063
 42
0.7731108560088228
  0
LINE
  5
1AA
330
1F
100
AcDbEntity
  8
0
  6
HIDDEN
 62
     7
370
     0
100
AcDbLine
 10
240.6660455987
 20
87.7091451194
 30
0.0
 11
240.8635604904
 21
87.694035342
 31
0.0
  0
LINE
  5
1AB
330
1F
100
AcDbEntity
  8
0
  6
HIDDEN
 62
     7
370
     0
100
AcDbLine
 10
240.8635604904
 20
87.694035342
 30
0.0
 11
241.170870863
 21
87.3884050753
 31
0.0
  0
LINE
  5
1AC
330
1F
100
AcDbEntity
  8
0
  6
HIDDEN
 62
     7
370
     0
100
AcDbLine
 10
241.170870863
 20
87.3884050753
 30
0.0
 11
240.6909193621
 21
87.4251215365
 31
0.0
  0
LWPOLYLINE
  5
1AD
330
1F
100
AcDbEntity
  8
0
  6
HIDDEN
 62
     7
370
     0
100
AcDbPolyline
 90
        2
 70
   128
 43
0.0
 10
189.5812906102
 20
96.5242175963
 10
189.5812906102
 20
96.5242175963
  0
ELLIPSE
  5
1AE
330
1F
100
AcDbEntity
  8
0
  6
HIDDEN
 62
     7
370
     0
100
AcDbEllipse
 10
244.3604354724
 20
92.442087894
 30
0.0
 11
-0.9406553105117724
 21
2.766158975077403
 31
0.0
210
0.0
220
0.0
230
1.0
 40
0.8539059128
 41
1.511530864617707
 42
1.597220060046392
  0
ELLIPSE
  5
1AF
330
1F
100
AcDbEntity
  8
0
  6
HIDDEN
 62
     7
370
     0
100
AcDbEllipse
 10
244.8217849577
 20
91.4445459354
 30
0.0
 11
2.968392757696108
 21
-0.4881156426729661
 31
0.0
210
0.0
220
0.0
230
0.9999999999999999
 40
0.1367129703
 41
3.416618328448573
 42
4.004570546515209
  0
ELLIPSE
  5
1B0
330
1F
100
AcDbEntity
  8
0
  6
HIDDEN
 62
     7
370
     0
100
AcDbEllipse
 10
245.2926377349
 20
90.4264557098
 30
0.0
 11
-0.9406553105117439
 21
2.766158975077403
 31
0.0
210
0.0
220
0.0
230
1.0
 40
0.8539059128
 41
0.7350371165247002
 42
0.923578646551009
  0
ELLIPSE
  5
1B1
330
1F
100
AcDbEntity
  8
0
  6
HIDDEN
 62
     7
370
     0
100
AcDbEllipse
 10
245.2926377349
 20
90.4264557098
 30
0.0
 11
-0.9406553105117439
 21
2.766158975077403
 31
0.0
210
0.0
220
0.0
230
1.0
 40
0.8539059128
 41
4.738812713636198
 42
4.847837731742066
  0
SPLINE
  5
1B2
330
1F
100
AcDbEntity
  8
0
  6
HIDDEN
 62
     7
370
     0
100
AcDbSpline
210
0.0
220
0.0
230
1.0
 70
     8
 71
     3
 72
    22
 73
    18
 74
     0
 42
0.00000001
 43
0.00000001
 40
0.0
 40
0.0
 40
0.0
 40
0.0
 40
0.125
 40
0.125
 40
0.2499999999999999
 40
0.2499999999999999
 40
0.4999999999999999
 40
0.4999999999999999
 40
0.6249999999999999
 40
0.6249999999999999
 40
0.7499999999999998
 40
0.7499999999999998
 40
0.8749999999999998
 40
0.8749999999999998
 40
0.9374999999999999
 40
0.9374999999999999
 40
1.0
 40
1.0
 40
1.0
 40
1.0
 10
245.6285251944191
 20
95.6279691770723
 30
0.0
 10
245.6578634847262
 20
95.59879160498927
 30
0.0
 10
245.6783013933897
 20
95.5560199597746
 30
0.0
 10
245.7051134044795
 20
95.45050462604492
 30
0.0
 10
245.7113962333223
 20
95.38748652465246
 30
0.0
 10
245.7099335121233
 20
95.17728474153422
 30
0.0
 10
245.6832667018815
 20
95.00929592933147
 30
0.0
 10
245.5919412178195
 20
94.72634103725588
 30
0.0
 10
245.5527511592194
 20
94.62668145764655
 30
0.0
 10
245.4492915292686
 20
94.41591469508926
 30
0.0
 10
245.3851605556273
 20
94.30477727461125
 30
0.0
 10
245.2181862656516
 20
94.07243492011355
 30
0.0
 10
245.1155982164754
 20
93.9504225794566
 30
0.0
 10
244.9079140437884
 20
93.76186519166144
 30
0.0
 10
244.8284230479388
 20
93.69712413123587
 30
0.0
 10
244.640978690774
 20
93.56767250164589
 30
0.0
 10
244.5336330672223
 20
93.50347106762577
 30
0.0
 10
244.40982406302
 20
93.44399253211546
 30
0.0
  0
SPLINE
  5
1B3
330
1F
100
AcDbEntity
  8
0
  6
HIDDEN
 62
     7
370
     0
100
AcDbSpline
210
0.0
220
0.0
230
1.0
 70
     8
 71
     3
 72
     8
 73
     4
 74
     0
 42
0.00000001
 43
0.00000001
 40
0.0
 40
0.0
 40
0.0
 40
0.0
 40
1.0
 40
1.0
 40
1.0
 40
1.0
 10
244.4098240630201
 20
93.44399253211547
 30
0.0
 10
244.2674269446192
 20
93.39911306015307
 30
0.0
 10
244.1267866308951
 20
93.34642215296074
 30
0.0
 10
243.9879299458549
 20
93.28580054059448
 30
0.0
  0
SPLINE
  5
1B4
330
1F
100
AcDbEntity
  8
0
  6
HIDDEN
 62
     7
370
     0
100
AcDbSpline
210
0.0
220
0.0
230
1.0
 70
     8
 71
     3
 72
    22
 73
    18
 74
     0
 42
0.00000001
 43
0.00000001
 40
0.0
 40
0.0
 40
0.0
 40
0.0
 40
0.0625000000000007
 40
0.0625000000000007
 40
0.1250000000000014
 40
0.1250000000000014
 40
0.1875000000000021
 40
0.1875000000000021
 40
0.2500000000000028
 40
0.2500000000000028
 40
0.3750000000000022
 40
0.3750000000000022
 40
0.5000000000000017
 40
0.5000000000000017
 40
0.7500000000000009
 40
0.7500000000000009
 40
1.0
 40
1.0
 40
1.0
 40
1.0
 10
243.987929945855
 20
93.2858005405945
 30
0.0
 10
243.8508495317603
 20
93.2475227678253
 30
0.0
 10
243.7222878973538
 20
93.22292297643081
 30
0.0
 10
243.4756354976412
 20
93.19008908454
 30
0.0
 10
243.3630160515648
 20
93.18262469113907
 30
0.0
 10
243.1509659254024
 20
93.17769789569891
 30
0.0
 10
243.0510801247325
 20
93.18044266645863
 30
0.0
 10
242.8646388464468
 20
93.19228663361676
 30
0.0
 10
242.7775191945971
 20
93.20138491073315
 30
0.0
 10
242.5291398180774
 20
93.23489055476772
 30
0.0
 10
242.3806279699634
 20
93.26538513507849
 30
0.0
 10
242.1057735410897
 20
93.33438011800311
 30
0.0
 10
241.9797189242295
 20
93.37308380685998
 30
0.0
 10
241.6341147375958
 20
93.49312471618146
 30
0.0
 10
241.4432933696957
 20
93.57903180615308
 30
0.0
 10
241.1345229382241
 20
93.74056200910181
 30
0.0
 10
241.0152415073882
 20
93.81678510346623
 30
0.0
 10
240.9558007629782
 20
93.87590022525886
 30
0.0
  0
ELLIPSE
  5
1B5
330
1F
100
AcDbEntity
  8
0
  6
HIDDEN
 62
     7
370
     0
100
AcDbEllipse
 10
244.5418430674
 20
92.0498436336
 30
0.0
 11
2.968392757696137
 21
-0.488115642672966
 31
0.0
210
0.0
220
0.0
230
1.0
 40
0.1367129703
 41
4.193112076541457
 42
6.363496768503852
  0
LINE
  5
1B6
330
1F
100
AcDbEntity
  8
0
  6
HIDDEN
 62
     7
370
     0
100
AcDbLine
 10
189.5812906102
 20
91.4400941338
 30
0.0
 11
189.5812906102
 21
96.5242175963
 31
0.0
  0
LINE
  5
1B7
330
1F
100
AcDbEntity
  8
0
  6
HIDDEN
 62
     7
370
     0
100
AcDbLine
 10
189.5812906102
 20
96.5242175963
 30
0.0
 11
197.5812909902
 21
96.5242175963
 31
0.0
  0
LWPOLYLINE
  5
1B8
330
1F
100
AcDbEntity
  8
0
  6
HIDDEN
 62
     7
370
     0
100
AcDbPolyline
 90
       27
 70
   128
 43
0.0
 10
214.6312899665
 20
135.1241538878
 10
215.229579039
 20
135.0646461006
 10
215.7930981145
 20
134.889581671
 10
216.289098166
 20
134.6091334354
 10
216.6887510345
 20
134.2396023329
 10
216.968829535
 20
133.8024618681
 10
217.1130615995
 20
133.3231185209
 10
217.1130615995
 20
132.8294290807
 10
216.968829535
 20
132.3500848021
 10
216.6887510345
 20
131.9129452687
 10
216.289098166
 20
131.5434132349
 10
215.7930981145
 20
131.2629659306
 10
215.229579039
 20
131.087901501
 10
214.6312899665
 20
131.0283937137
 10
214.0330008939
 20
131.087901501
 10
213.4694818184
 20
131.2629659306
 10
212.9734836296
 20
131.5434132349
 10
212.5738307611
 20
131.9129452687
 10
212.2937503979
 20
132.3500848021
 10
212.1495183334
 20
132.8294290807
 10
212.1495183334
 20
133.3231185209
 10
212.2937503979
 20
133.8024618681
 10
212.5738307611
 20
134.2396023329
 10
212.9734836296
 20
134.6091334354
 10
213.4694818184
 20
134.889581671
 10
214.0330008939
 20
135.0646461006
 10
214.6312899665
 20
135.1241538878
  0
ELLIPSE
  5
1B9
330
1F
100
AcDbEntity
  8
0
  6
HIDDEN
 62
     7
370
     0
100
AcDbEllipse
 10
242.0669990193
 20
97.9701032275
 30
0.0
 11
3.518690774465597
 21
2.323872478491182
 31
0.0
210
0.0
220
0.0
230
1.0
 40
0.89827004
 41
3.825400951845967
 42
5.100524793084368
  0
LINE
  5
1BA
330
1F
100
AcDbEntity
  8
0
  6
HIDDEN
 62
     7
370
     0
100
AcDbLine
 10
240.6581628845
 20
94.1719091143
 30
0.0
 11
240.9558024034
 21
93.8758994099
 31
0.0
  0
LINE
  5
1BB
330
1F
100
AcDbEntity
  8
0
  6
HIDDEN
 62
     7
370
     0
100
AcDbLine
 10
245.6285234318
 20
95.6279686298
 30
0.0
 11
245.3308876381
 21
95.9239764716
 31
0.0
  0
ELLIPSE
  5
1BC
330
1F
100
AcDbEntity
  8
0
  6
HIDDEN
 62
     7
370
     0
100
AcDbEllipse
 10
240.137863894
 20
99.8886703488
 30
0.0
 11
-3.010891765567124
 21
2.99439778544064
 31
0.0
210
0.0
220
0.0
230
1.0
 40
0.9890738004
 41
0.0
 42
6.283185307179586
  0
ARC
  5
1BD
330
1F
100
AcDbEntity
  8
0
  6
HIDDEN
 62
     7
370
     0
100
AcDbCircle
 10
242.7321185033
 20
97.276681577
 30
0.0
 40
4.183802021145605
100
AcDbArc
 50
293.6407291193
 51
287.4672584734
  0
ARC
  5
1BE
330
1F
100
AcDbEntity
  8
0
  6
HIDDEN
 62
     7
370
     0
100
AcDbCircle
 10
239.6156811009
 20
89.5923538595
 30
0.0
 40
2.101840908011309
100
AcDbArc
 50
85.4480700971
 51
224.6198549756
  0
LINE
  5
1BF
330
1F
100
AcDbEntity
  8
0
  6
HIDDEN
 62
     7
370
     0
100
AcDbLine
 10
239.7824886963
 20
91.6875651684
 30
0.0
 11
239.8436430619
 21
91.6828862037
 31
0.0
  0
LINE
  5
1C0
330
1F
100
AcDbEntity
  8
0
  6
HIDDEN
 62
     7
370
     0
100
AcDbLine
 10
240.3212550805
 20
91.6463485565
 30
0.0
 11
242.841101043
 21
91.4535759594
 31
0.0
  0
LINE
  5
1C1
330
1F
100
AcDbEntity
  8
0
  6
HIDDEN
 62
     7
370
     0
100
AcDbLine
 10
243.0108364448
 20
91.9397505578
 30
0.0
 11
239.8258287237
 21
92.1834106203
 31
0.0
  0
ARC
  5
1C2
330
1F
100
AcDbEntity
  8
0
  6
HIDDEN
 62
     7
370
     0
100
AcDbCircle
 10
239.3064878203
 20
89.9007948726
 30
0.0
 40
2.099189510188839
100
AcDbArc
 50
85.3907511715
 51
234.0136574291
  0
LINE
  5
1C3
330
1F
100
AcDbEntity
  8
0
  6
HIDDEN
 62
     7
370
     0
100
AcDbLine
 10
241.805123888
 20
80.1458223369
 30
0.0
 11
241.170870863
 21
87.3884050753
 31
0.0
  0
LINE
  5
1C4
330
1F
100
AcDbEntity
  8
0
  6
HIDDEN
 62
     7
370
     0
100
AcDbLine
 10
240.6678635404
 20
87.4268835988
 30
0.0
 11
241.3021165655
 21
80.1843045857
 31
0.0
  0
LINE
  5
1C5
330
1F
100
AcDbEntity
  8
0
  6
HIDDEN
 62
     7
370
     0
100
AcDbLine
 10
247.7099027262
 20
91.0810990836
 30
0.0
 11
247.6289968715
 21
91.3024893608
 31
0.0
  0
LINE
  5
1C6
330
1F
100
AcDbEntity
  8
0
  6
HIDDEN
 62
     7
370
     0
100
AcDbLine
 10
247.7099027262
 20
91.0810990836
 30
0.0
 11
252.068641387
 21
90.747648349
 31
0.0
  0
LINE
  5
1C7
330
1F
100
AcDbEntity
  8
0
  6
HIDDEN
 62
     7
370
     0
100
AcDbLine
 10
252.024638258
 20
91.2501751091
 30
0.0
 11
247.5060250387
 21
91.5958596971
 31
0.0
  0
LINE
  5
1C8
330
1F
100
AcDbEntity
  8
0
  6
HIDDEN
 62
     7
370
     0
100
AcDbLine
 10
252.068641387
 20
90.747648349
 30
0.0
 11
252.024638258
 21
91.2501751091
 31
0.0
  0
LINE
  5
1C9
330
1F
100
AcDbEntity
  8
0
  6
HIDDEN
 62
     7
370
     0
100
AcDbLine
 10
247.4025886283
 20
91.3867293503
 30
0.0
 11
247.7099027262
 21
91.0810990836
 31
0.0
  0
LINE
  5
1CA
330
1F
100
AcDbEntity
  8
0
  6
HIDDEN
 62
     7
370
     0
100
AcDbLine
 10
248.5071670041
 20
88.3640623297
 30
0.0
 11
247.4025886283
 21
91.3867293503
 31
0.0
  0
LINE
  5
1CB
330
1F
100
AcDbEntity
  8
0
  6
HIDDEN
 62
     7
370
     0
100
AcDbLine
 10
248.2139643059
 20
88.6556594279
 30
0.0
 11
248.5071670041
 21
88.3640623297
 31
0.0
  0
LINE
  5
1CC
330
1F
100
AcDbEntity
  8
0
  6
HIDDEN
 62
     7
370
     0
100
AcDbLine
 10
246.3776197061
 20
92.6262545045
 30
0.0
 11
245.3308876381
 21
95.9239764716
 31
0.0
  0
LINE
  5
1CD
330
1F
100
AcDbEntity
  8
0
  6
HIDDEN
 62
     7
370
     0
100
AcDbLine
 10
251.7613272891
 20
91.0532786157
 30
0.0
 11
252.068641387
 21
90.747648349
 31
0.0
  0
LINE
  5
1CE
330
1F
100
AcDbEntity
  8
0
  6
HIDDEN
 62
     7
370
     0
100
AcDbLine
 10
158.8312897608
 20
140.9142179992
 30
0.0
 11
158.8312897608
 21
139.2117305305
 31
0.0
  0
LINE
  5
1CF
330
1F
100
AcDbEntity
  8
0
  6
HIDDEN
 62
     7
370
     0
100
AcDbLine
 10
162.8312904165
 20
104.9342169072
 30
0.0
 11
162.8312904165
 21
106.636704376
 31
0.0
  0
LINE
  5
1D0
330
1F
100
AcDbEntity
  8
0
  6
HIDDEN
 62
     7
370
     0
100
AcDbLine
 10
242.0240741
 20
91.5660536494
 30
0.0
 11
243.8344422505
 21
86.6119949724
 31
0.0
  0
ARC
  5
1D1
330
1F
100
AcDbEntity
  8
0
  6
HIDDEN
 62
     7
370
     0
100
AcDbCircle
 10
246.8657777687
 20
85.6345507084
 30
0.0
 40
3.185026265724341
100
AcDbArc
 50
162.1282526227
 51
58.9794425982
  0
LINE
  5
1D2
330
1F
100
AcDbEntity
  8
0
  6
HIDDEN
 62
     7
370
     0
100
AcDbLine
 10
252.2469710336
 20
79.8133215513
 30
0.0
 11
252.7048688159
 21
80.2791020479
 31
0.0
  0
LINE
  5
1D3
330
1F
100
AcDbEntity
  8
0
  6
HIDDEN
 62
     7
370
     0
100
AcDbLine
 10
251.7613272891
 20
91.0532786157
 30
0.0
 11
247.4025886283
 21
91.3867293503
 31
0.0
  0
LINE
  5
1D4
330
1F
100
AcDbEntity
  8
0
  6
HIDDEN
 62
     7
370
     0
100
AcDbLine
 10
240.8635604904
 20
87.694035342
 30
0.0
 11
241.481370084
 21
80.6392109599
 31
0.0
  0
LINE
  5
1D5
330
1F
100
AcDbEntity
  8
0
  6
HIDDEN
 62
     7
370
     0
100
AcDbLine
 10
241.9468264804
 20
91.8041090127
 30
0.0
 11
239.4751783237
 21
91.993195435
 31
0.0
  0
LINE
  5
1D6
330
1F
100
AcDbEntity
  8
0
  6
HIDDEN
 62
     7
370
     0
100
AcDbLine
 10
252.7048539147
 20
80.2791169491
 30
0.0
 11
251.7613272891
 21
91.0532786157
 31
0.0
  0
LINE
  5
1D7
330
1F
100
AcDbEntity
  8
0
  6
HIDDEN
 62
     7
370
     0
100
AcDbLine
 10
158.8312897608
 20
140.9142179992
 30
0.0
 11
158.8312897608
 21
144.7683251109
 31
0.0
  0
LINE
  5
1D8
330
1F
100
AcDbEntity
  8
0
  6
HIDDEN
 62
     7
370
     0
100
AcDbLine
 10
162.8312904165
 20
104.9342169072
 30
0.0
 11
162.8312904165
 21
100.9790687468
 31
0.0
  0
LWPOLYLINE
  5
1D9
330
1F
100
AcDbEntity
  8
0
  6
HIDDEN
 62
     7
370
     0
100
AcDbPolyline
 90
        2
 70
   128
 43
0.0
 10
210.5812903271
 20
149.3242173102
 10
210.5812903271
 20
149.3242173102
  0
LWPOLYLINE
  5
1DA
330
1F
100
AcDbEntity
  8
0
  6
HIDDEN
 62
     7
370
     0
100
AcDbPolyline
 90
        2
 70
   128
 43
0.0
 10
210.5812903271
 20
96.5242175963
 10
210.5812903271
 20
96.5242175963
  0
SPLINE
  5
1DB
330
1F
100
AcDbEntity
  8
0
  6
HIDDEN
 62
     7
370
     0
100
AcDbSpline
210
0.0
220
0.0
230
1.0
 70
     8
 71
     3
 72
    10
 73
     6
 74
     0
 42
0.00000001
 43
0.00000001
 40
0.0
 40
0.0
 40
0.0
 40
0.0
 40
0.5
 40
0.5
 40
1.0
 40
1.0
 40
1.0
 40
1.0
 10
243.4224040641683
 20
87.61089130336578
 30
0.0
 10
243.4135564692291
 20
87.45033752041914
 30
0.0
 10
243.4205102131138
 20
87.3035262433448
 30
0.0
 10
243.4599435432351
 20
87.05555627968116
 30
0.0
 10
243.4919333033691
 20
86.95262756480298
 30
0.0
 10
243.541241427141
 20
86.90358955609237
 30
0.0
  0
ARC
  5
1DC
330
1F
100
AcDbEntity
  8
0
  6
HIDDEN
 62
     7
370
     0
100
AcDbCircle
 10
246.2708742382
 20
86.2040833307
 30
0.0
 40
3.176931890974787
100
AcDbArc
 50
153.7160875216
 51
0.9884097898
  0
ARC
  5
1DD
330
1F
100
AcDbEntity
  8
0
  6
HIDDEN
 62
     7
370
     0
100
AcDbCircle
 10
246.3086386885
 20
86.2544189907
 30
0.0
 40
3.138020034132552
100
AcDbArc
 50
6.2688462819
 51
67.2453743104
  0
SPLINE
  5
1DE
330
1F
100
AcDbEntity
  8
0
  6
HIDDEN
 62
     7
370
     0
100
AcDbSpline
210
0.0
220
0.0
230
1.0
 70
     8
 71
     3
 72
    10
 73
     6
 74
     0
 42
0.00000001
 43
0.00000001
 40
0.0
 40
0.0
 40
0.0
 40
0.0
 40
0.5
 40
0.5
 40
1.0
 40
1.0
 40
1.0
 40
1.0
 10
248.2139658585789
 20
88.65565850790645
 30
0.0
 10
248.1645698160676
 20
88.70478395372847
 30
0.0
 10
248.0682776898266
 20
88.78244415924014
 30
0.0
 10
247.8297071451739
 20
88.95582841382152
 30
0.0
 10
247.6859848386085
 20
89.05211537178019
 30
0.0
 10
247.5223818489586
 20
89.14820510931776
 30
0.0
  0
LINE
  5
1DF
330
1F
100
AcDbEntity
  8
0
  6
HIDDEN
 62
     7
370
     0
100
AcDbLine
 10
243.8344422505
 20
86.6119949724
 30
0.0
 11
243.5412432775
 21
86.9035883453
 31
0.0
  0
SPLINE
  5
1E0
330
1F
100
AcDbEntity
  8
0
  6
HIDDEN
 62
     7
370
     0
100
AcDbSpline
210
0.0
220
0.0
230
1.0
 70
     8
 71
     3
 72
    10
 73
     6
 74
     0
 42
0.00000001
 43
0.00000001
 40
0.0
 40
0.0
 40
0.0
 40
0.0
 40
0.5
 40
0.5
 40
1.0
 40
1.0
 40
1.0
 40
1.0
 10
153.871245706589
 20
143.7841713455051
 30
0.0
 10
153.8036864516707
 20
143.7164799526953
 30
0.0
 10
153.7400497963342
 20
143.6417727879416
 30
0.0
 10
153.6298290417624
 20
143.482806655515
 30
0.0
 10
153.5830127485397
 20
143.398451389507
 30
0.0
 10
153.5554442831117
 20
143.3143367868153
 30
0.0
  0
LINE
  5
1E1
330
1F
100
AcDbEntity
  8
0
  6
HIDDEN
 62
     7
370
     0
100
AcDbLine
 10
153.8812897876
 20
140.9142179992
 30
0.0
 11
153.8812897876
 21
143.7941561099
 31
0.0
  0
LINE
  5
1E2
330
1F
100
AcDbEntity
  8
0
  6
HIDDEN
 62
     7
370
     0
100
AcDbLine
 10
152.7312908099
 20
140.9142179992
 30
0.0
 11
152.7312908099
 21
142.6148949768
 31
0.0
  0
SPLINE
  5
1E3
330
1F
100
AcDbEntity
  8
0
  6
HIDDEN
 62
     7
370
     0
100
AcDbSpline
210
0.0
220
0.0
230
1.0
 70
     8
 71
     3
 72
    10
 73
     6
 74
     0
 42
0.00000001
 43
0.00000001
 40
0.0
 40
0.0
 40
0.0
 40
0.0
 40
0.5
 40
0.5
 40
1.0
 40
1.0
 40
1.0
 40
1.0
 10
152.7939540117306
 20
142.5987699979982
 30
0.0
 10
152.7850497226218
 20
142.6445115172114
 30
0.0
 10
152.7685343424288
 20
142.6617023566804
 30
0.0
 10
152.7414263963672
 20
142.6613790797446
 30
0.0
 10
152.7312906370072
 20
142.6435015374482
 30
0.0
 10
152.7312906370072
 20
142.6148951996956
 30
0.0
  0
LINE
  5
1E4
330
1F
100
AcDbEntity
  8
0
  6
HIDDEN
 62
     7
370
     0
100
AcDbLine
 10
153.8812897876
 20
140.9142179992
 30
0.0
 11
153.8812897876
 21
138.725708669
 31
0.0
  0
ELLIPSE
  5
1E5
330
1F
100
AcDbEntity
  8
0
  6
HIDDEN
 62
     7
370
     0
100
AcDbEllipse
 10
148.5638587727
 20
122.9242174532
 30
0.0
 11
20.07002071827054
 21
-1.421085471520200E-14
 31
0.0
210
0.0
220
0.0
230
1.0
 40
0.8164965809
 41
1.302650465081198
 42
1.361629843993897
  0
LINE
  5
1E6
330
1F
100
AcDbEntity
  8
0
  6
HIDDEN
 62
     7
370
     0
100
AcDbLine
 10
152.7312908099
 20
140.9142179992
 30
0.0
 11
152.7312908099
 21
138.9541527834
 31
0.0
  0
LINE
  5
1E7
330
1F
100
AcDbEntity
  8
0
  6
HIDDEN
 62
     7
370
     0
100
AcDbLine
 10
153.8812897876
 20
104.9342169072
 30
0.0
 11
153.8812897876
 21
102.1175863799
 31
0.0
  0
ELLIPSE
  5
1E8
330
1F
100
AcDbEntity
  8
0
  6
HIDDEN
 62
     7
370
     0
100
AcDbEllipse
 10
148.5638587727
 20
122.9242174532
 30
0.0
 11
20.07002071827057
 21
-2.842170943040400E-14
 31
0.0
210
0.0
220
0.0
230
1.0
 40
0.8164965809
 41
4.921555463185703
 42
4.980534842098402
  0
LINE
  5
1E9
330
1F
100
AcDbEntity
  8
0
  6
HIDDEN
 62
     7
370
     0
100
AcDbLine
 10
152.7312908099
 20
138.9541527834
 30
0.0
 11
152.7312908099
 21
106.8942821231
 31
0.0
  0
LINE
  5
1EA
330
1F
100
AcDbEntity
  8
0
  6
HIDDEN
 62
     7
370
     0
100
AcDbLine
 10
153.8812897876
 20
104.9342169072
 30
0.0
 11
153.8812897876
 21
107.1227262374
 31
0.0
  0
LINE
  5
1EB
330
1F
100
AcDbEntity
  8
0
  6
HIDDEN
 62
     7
370
     0
100
AcDbLine
 10
152.7312908099
 20
104.9342169072
 30
0.0
 11
152.7312908099
 21
106.8942821231
 31
0.0
  0
SPLINE
  5
1EC
330
1F
100
AcDbEntity
  8
0
  6
HIDDEN
 62
     7
370
     0
100
AcDbSpline
210
0.0
220
0.0
230
1.0
 70
     8
 71
     3
 72
     8
 73
     4
 74
     0
 42
0.00000001
 43
0.00000001
 40
0.0
 40
0.0
 40
0.0
 40
0.0
 40
1.0
 40
1.0
 40
1.0
 40
1.0
 10
153.6702002072063
 20
102.4802951502518
 30
0.0
 10
153.7059138655762
 20
102.357063644992
 30
0.0
 10
153.7815819045245
 20
102.236120068045
 30
0.0
 10
153.8712457065976
 20
102.1294010243418
 30
0.0
  0
SPLINE
  5
1ED
330
1F
100
AcDbEntity
  8
0
  6
HIDDEN
 62
     7
370
     0
100
AcDbSpline
210
0.0
220
0.0
230
1.0
 70
     8
 71
     3
 72
    10
 73
     6
 74
     0
 42
0.00000001
 43
0.00000001
 40
0.0
 40
0.0
 40
0.0
 40
0.0
 40
0.5
 40
0.5
 40
1.0
 40
1.0
 40
1.0
 40
1.0
 10
152.7312906370067
 20
103.2710569282645
 30
0.0
 10
152.7312906370067
 20
103.2575404023968
 30
0.0
 10
152.7366101976349
 20
103.2533696300395
 30
0.0
 10
152.7497384299166
 20
103.2715006734271
 30
0.0
 10
152.7574310845706
 20
103.294409098489
 30
0.0
 10
152.7615682526158
 20
103.3341298929906
 30
0.0
  0
LINE
  5
1EE
330
1F
100
AcDbEntity
  8
0
  6
HIDDEN
 62
     7
370
     0
100
AcDbLine
 10
152.7312908099
 20
104.9342169072
 30
0.0
 11
152.7312908099
 21
103.2710573282
 31
0.0
  0
SPLINE
  5
1EF
330
1F
100
AcDbEntity
  8
0
  6
HIDDEN
 62
     7
370
     0
100
AcDbSpline
210
0.0
220
0.0
230
1.0
 70
     8
 71
     3
 72
    35
 73
    31
 74
     0
 42
0.00000001
 43
0.00000001
 40
0.0
 40
0.0
 40
0.0
 40
0.0
 40
0.027696692152335
 40
0.0553532710620509
 40
0.0829780107159008
 40
0.1105792137339257
 40
0.138165203987803
 40
0.165744319123669
 40
0.1933249030227322
 40
0.2209152982336514
 40
0.2485238384109542
 40
0.2761588407936989
 40
0.3038285987581707
 40
0.3315413744776134
 40
0.3593053917208976
 40
0.3871288288205829
 40
0.4150198118391238
 40
0.4429864079599683
 40
0.4710366191281213
 40
0.4991783759623159
 40
0.5497785171988775
 40
0.6001373626671125
 40
0.6503015541368777
 40
0.7003182779392714
 40
0.7502351386100181
 40
0.8001000266948082
 40
0.8499609824957409
 40
0.899866057670962
 40
0.9498631766709064
 40
0.9999999999999999
 40
0.9999999999999999
 40
0.9999999999999999
 40
0.9999999999999999
 10
252.7048291371247
 20
80.27914100049676
 30
0.0
 10
252.6808354080029
 20
80.32374259529507
 30
0.0
 10
252.632882699984
 20
80.41288118820322
 30
0.0
 10
252.5599731257028
 20
80.55998490755535
 30
0.0
 10
252.4864221381055
 20
80.71676078493253
 30
0.0
 10
252.4121549290913
 20
80.88417508180024
 30
0.0
 10
252.3371915352065
 20
81.06196926929499
 30
0.0
 10
252.2615266184687
 20
81.25021249771955
 30
0.0
 10
252.1851616340759
 20
81.4488861920365
 30
0.0
 10
252.1080962190421
 20
81.65799525489788
 30
0.0
 10
252.030330498307
 20
81.87753828492463
 30
0.0
 10
251.9518644667066
 20
82.10751555680035
 30
0.0
 10
251.8726981543166
 20
82.34792688361314
 30
0.0
 10
251.7928315825031
 20
82.59877218798833
 30
0.0
 10
251.7122647734016
 20
82.86005136085119
 30
0.0
 10
251.6309977551901
 20
83.13176425881895
 30
0.0
 10
251.5490305305735
 20
83.41391086139623
 30
0.0
 10
251.4663631971983
 20
83.70649064758878
 30
0.0
 10
251.3829954949754
 20
84.00950494672722
 30
0.0
 10
251.2766664741308
 20
84.40595194162583
 30
0.0
 10
251.1472607629397
 20
84.90509569418494
 30
0.0
 10
250.9946108072418
 20
85.51913150518348
 30
0.0
 10
250.8415136143257
 20
86.16012390002845
 30
0.0
 10
250.687970285095
 20
86.82807304155757
 30
0.0
 10
250.5339809549111
 20
87.52296722488335
 30
0.0
 10
250.3795463272259
 20
88.24484598621915
 30
0.0
 10
250.2246659228883
 20
88.99355376046758
 30
0.0
 10
250.0693435106673
 20
89.76966257648029
 30
0.0
 10
249.9135670529454
 20
90.5710220730992
 30
0.0
 10
249.8096225248048
 20
91.12650800018243
 30
0.0
 10
249.7575777503538
 20
91.4046384636416
 30
0.0
  0
SPLINE
  5
1F0
330
1F
100
AcDbEntity
  8
0
  6
HIDDEN
 62
     7
370
     0
100
AcDbSpline
210
0.0
220
0.0
230
1.0
 70
     8
 71
     3
 72
    10
 73
     6
 74
     0
 42
0.00000001
 43
0.00000001
 40
0.0
 40
0.0
 40
0.0
 40
0.0
 40
0.5
 40
0.5
 40
1.0
 40
1.0
 40
1.0
 40
1.0
 10
200.7212906370072
 20
150.0438713042532
 30
0.0
 10
200.7212906370072
 20
149.9002589526951
 30
0.0
 10
200.757457912105
 20
149.7572855389766
 30
0.0
 10
200.8932138558589
 20
149.5072929122628
 30
0.0
 10
200.9934835464818
 20
149.3992906029841
 30
0.0
 10
201.1155881686982
 20
149.3242174532174
 30
0.0
  0
LINE
  5
1F1
330
1F
100
AcDbEntity
  8
0
  6
HIDDEN
 62
     7
370
     0
100
AcDbLine
 10
200.7212906853
 20
150.0438707527
 30
0.0
 11
200.7212906853
 21
96.1198224332
 31
0.0
  0
SPLINE
  5
1F2
330
1F
100
AcDbEntity
  8
0
  6
HIDDEN
 62
     7
370
     0
100
AcDbSpline
210
0.0
220
0.0
230
1.0
 70
     8
 71
     3
 72
    10
 73
     6
 74
     0
 42
0.00000001
 43
0.00000001
 40
0.0
 40
0.0
 40
0.0
 40
0.0
 40
0.5
 40
0.5
 40
1.0
 40
1.0
 40
1.0
 40
1.0
 10
200.7212906370072
 20
96.11982182488808
 30
0.0
 10
200.7212906370072
 20
96.1900581852586
 30
0.0
 10
200.7295732490976
 20
96.26005228675585
 30
0.0
 10
200.762673192156
 20
96.39701155131434
 30
0.0
 10
200.7870105841143
 20
96.4623194605694
 30
0.0
 10
200.8189654393387
 20
96.52421745321612
 30
0.0
  0
SPLINE
  5
1F3
330
1F
100
AcDbEntity
  8
0
  6
HIDDEN
 62
     7
370
     0
100
AcDbSpline
210
0.0
220
0.0
230
1.0
 70
    24
 71
     3
 72
    12
 73
     8
 74
     0
 42
0.00000001
 43
0.00000001
 40
0.0
 40
0.0
 40
0.0
 40
0.0
 40
0.5
 40
0.5
 40
0.75
 40
0.75
 40
1.0
 40
1.0
 40
1.0
 40
1.0
 10
201.1155881686981
 20
149.3242174532174
 30
0.0
 10
201.1587115171317
 20
149.3242174532174
 30
0.0
 10
201.2084511044319
 20
149.3242174532174
 30
0.0
 10
201.3049720812539
 20
149.3242174532174
 30
0.0
 10
201.3405372121055
 20
149.3242174532174
 30
0.0
 10
201.4238855427285
 20
149.3242174532174
 30
0.0
 10
201.4723554424188
 20
149.3242174532174
 30
0.0
 10
201.5212906370083
 20
149.3242174532174
 30
0.0
  0
SPLINE
  5
1F4
330
1F
100
AcDbEntity
  8
0
  6
HIDDEN
 62
     7
370
     0
100
AcDbSpline
210
0.0
220
0.0
230
1.0
 70
    24
 71
     3
 72
    14
 73
    10
 74
     0
 42
0.00000001
 43
0.00000001
 40
0.0
 40
0.0
 40
0.0
 40
0.0
 40
0.5
 40
0.5
 40
0.75
 40
0.75
 40
0.875
 40
0.875
 40
1.0
 40
1.0
 40
1.0
 40
1.0
 10
200.8189654393394
 20
96.5242174532174
 30
0.0
 10
200.8661719271792
 20
96.5242174532174
 30
0.0
 10
200.9295119306085
 20
96.5242174532174
 30
0.0
 10
201.0725750368644
 20
96.5242174532174
 30
0.0
 10
201.1286556871353
 20
96.5242174532174
 30
0.0
 10
201.2400910370447
 20
96.5242174532174
 30
0.0
 10
201.2820358277177
 20
96.5242174532174
 30
0.0
 10
201.3870322707378
 20
96.5242174532174
 30
0.0
 10
201.4525962078186
 20
96.5242174532174
 30
0.0
 10
201.521290637007
 20
96.5242174532174
 30
0.0
  0
LINE
  5
1F5
330
1F
100
AcDbEntity
  8
0
  6
HIDDEN
 62
     7
370
     0
100
AcDbLine
 10
204.5412909017
 20
150.0438707527
 30
0.0
 11
204.5412909017
 21
96.1198224332
 31
0.0
  0
SPLINE
  5
1F6
330
1F
100
AcDbEntity
  8
0
  6
HIDDEN
 62
     7
370
     0
100
AcDbSpline
210
0.0
220
0.0
230
1.0
 70
     8
 71
     3
 72
    10
 73
     6
 74
     0
 42
0.00000001
 43
0.00000001
 40
0.0
 40
0.0
 40
0.0
 40
0.0
 40
0.5
 40
0.5
 40
1.0
 40
1.0
 40
1.0
 40
1.0
 10
204.1469931053162
 20
149.3242174532174
 30
0.0
 10
204.268305628414
 20
149.3988035995056
 30
0.0
 10
204.3697339906391
 20
149.507627910657
 30
0.0
 10
204.5056775568993
 20
149.7586484292787
 30
0.0
 10
204.5412906370072
 20
149.901231122418
 30
0.0
 10
204.5412906370072
 20
150.0438713042533
 30
0.0
  0
SPLINE
  5
1F7
330
1F
100
AcDbEntity
  8
0
  6
HIDDEN
 62
     7
370
     0
100
AcDbSpline
210
0.0
220
0.0
230
1.0
 70
     8
 71
     3
 72
    10
 73
     6
 74
     0
 42
0.00000001
 43
0.00000001
 40
0.0
 40
0.0
 40
0.0
 40
0.0
 40
0.5
 40
0.5
 40
1.0
 40
1.0
 40
1.0
 40
1.0
 10
204.4436158346749
 20
96.5242174532174
 30
0.0
 10
204.4757710222969
 20
96.46193140770129
 30
0.0
 10
204.5004272534912
 20
96.39540098283203
 30
0.0
 10
204.5332400104166
 20
96.25854235246953
 30
0.0
 10
204.5412906370072
 20
96.1894847572912
 30
0.0
 10
204.5412906370072
 20
96.11982182488785
 30
0.0
  0
SPLINE
  5
1F8
330
1F
100
AcDbEntity
  8
0
  6
HIDDEN
 62
     7
370
     0
100
AcDbSpline
210
0.0
220
0.0
230
1.0
 70
    24
 71
     3
 72
    12
 73
     8
 74
     0
 42
0.00000001
 43
0.00000001
 40
0.0
 40
0.0
 40
0.0
 40
0.0
 40
0.25
 40
0.25
 40
0.5
 40
0.5
 40
1.0
 40
1.0
 40
1.0
 40
1.0
 10
203.7412906370072
 20
149.3242174532174
 30
0.0
 10
203.7908257432252
 20
149.3242174532174
 30
0.0
 10
203.8392306318267
 20
149.3242174532174
 30
0.0
 10
203.9221171810043
 20
149.3242174532174
 30
0.0
 10
203.9586319024727
 20
149.3242174532174
 30
0.0
 10
204.0549647408273
 20
149.3242174532174
 30
0.0
 10
204.1037172884899
 20
149.3242174532174
 30
0.0
 10
204.1469931053206
 20
149.3242174532174
 30
0.0
  0
SPLINE
  5
1F9
330
1F
100
AcDbEntity
  8
0
  6
HIDDEN
 62
     7
370
     0
100
AcDbSpline
210
0.0
220
0.0
230
1.0
 70
    24
 71
     3
 72
    14
 73
    10
 74
     0
 42
0.00000001
 43
0.00000001
 40
0.0
 40
0.0
 40
0.0
 40
0.0
 40
0.1250000000000003
 40
0.1250000000000003
 40
0.2500000000000006
 40
0.2500000000000006
 40
0.5000000000000011
 40
0.5000000000000011
 40
1.0
 40
1.0
 40
1.0
 40
1.0
 10
203.7412906370072
 20
96.5242174532174
 30
0.0
 10
203.8103872693512
 20
96.5242174532174
 30
0.0
 10
203.8753804349591
 20
96.5242174532174
 30
0.0
 10
203.9797016336042
 20
96.5242174532174
 30
0.0
 10
204.0224820077127
 20
96.5242174532174
 30
0.0
 10
204.134819667359
 20
96.5242174532174
 30
0.0
 10
204.1898668495013
 20
96.5242174532174
 30
0.0
 10
204.3337436232714
 20
96.5242174532174
 30
0.0
 10
204.3967729365465
 20
96.5242174532174
 30
0.0
 10
204.4436158346749
 20
96.5242174532174
 30
0.0
  0
LINE
  5
1FA
330
1F
100
AcDbEntity
  8
0
  6
HIDDEN
 62
     7
370
     0
100
AcDbLine
 10
201.5212911889
 20
149.3242173102
 30
0.0
 11
203.741290398
 21
149.3242173102
 31
0.0
  0
LINE
  5
1FB
330
1F
100
AcDbEntity
  8
0
  6
HIDDEN
 62
     7
370
     0
100
AcDbLine
 10
201.5212911889
 20
96.5242175963
 30
0.0
 11
203.741290398
 21
96.5242175963
 31
0.0
  0
LINE
  5
1FC
330
1F
100
AcDbEntity
  8
0
  6
HIDDEN
 62
     7
370
     0
100
AcDbLine
 10
204.5412909017
 20
150.0438707527
 30
0.0
 11
204.5412909017
 21
150.7294508275
 31
0.0
  0
SPLINE
  5
1FD
330
1F
100
AcDbEntity
  8
0
  6
HIDDEN
 62
     7
370
     0
100
AcDbSpline
210
0.0
220
0.0
230
1.0
 70
     8
 71
     3
 72
     8
 73
     4
 74
     0
 42
0.00000001
 43
0.00000001
 40
0.0
 40
0.0
 40
0.0
 40
0.0
 40
1.0
 40
1.0
 40
1.0
 40
1.0
 10
204.5412906370072
 20
150.7294516443891
 30
0.0
 10
205.0340007338529
 20
151.6174706425154
 30
0.0
 10
205.5280834391319
 20
152.5047332782014
 30
0.0
 10
206.0232234684962
 20
153.3914129263817
 30
0.0
  0
LINE
  5
1FE
330
1F
100
AcDbEntity
  8
0
  6
HIDDEN
 62
     7
370
     0
100
AcDbLine
 10
206.0232225583
 20
153.3914128896
 30
0.0
 11
209.9812913463
 21
153.3914128896
 31
0.0
  0
SPLINE
  5
1FF
330
1F
100
AcDbEntity
  8
0
  6
HIDDEN
 62
     7
370
     0
100
AcDbSpline
210
0.0
220
0.0
230
1.0
 70
     8
 71
     3
 72
    12
 73
     8
 74
     0
 42
0.00000001
 43
0.00000001
 40
0.0
 40
0.0
 40
0.0
 40
0.0
 40
0.2499999999999999
 40
0.2499999999999999
 40
0.4999999999999998
 40
0.4999999999999998
 40
1.0
 40
1.0
 40
1.0
 40
1.0
 10
209.9812906370072
 20
153.3914129263816
 30
0.0
 10
210.0607835860555
 20
153.3914129263816
 30
0.0
 10
210.141867087411
 20
153.3744101764209
 30
0.0
 10
210.2882974845487
 20
153.3103496353092
 30
0.0
 10
210.3548460944225
 20
153.2631910196706
 30
0.0
 10
210.5191359683962
 20
153.0899689869784
 30
0.0
 10
210.5812906370074
 20
152.9298598967441
 30
0.0
 10
210.5812906370072
 20
152.7706577769807
 30
0.0
  0
LINE
  5
200
330
1F
100
AcDbEntity
  8
0
  6
HIDDEN
 62
     7
370
     0
100
AcDbLine
 10
210.5812903271
 20
152.7706584539
 30
0.0
 11
210.5812903271
 21
149.3242173102
 31
0.0
  0
LINE
  5
201
330
1F
100
AcDbEntity
  8
0
  6
HIDDEN
 62
     7
370
     0
100
AcDbLine
 10
204.1469931379
 20
149.3242173102
 30
0.0
 11
210.5812903271
 21
149.3242173102
 31
0.0
  0
SPLINE
  5
202
330
1F
100
AcDbEntity
  8
0
  6
HIDDEN
 62
     7
370
     0
100
AcDbSpline
210
0.0
220
0.0
230
1.0
 70
     8
 71
     3
 72
    12
 73
     8
 74
     0
 42
0.00000001
 43
0.00000001
 40
0.0
 40
0.0
 40
0.0
 40
0.0
 40
0.2499999999999982
 40
0.2499999999999982
 40
0.4999999999999963
 40
0.4999999999999963
 40
1.0
 40
1.0
 40
1.0
 40
1.0
 10
209.9812906370072
 20
92.73729975697027
 30
0.0
 10
210.0611716417543
 20
92.73729975697027
 30
0.0
 10
210.1417657720249
 20
92.75441684323613
 30
0.0
 10
210.2883812178698
 20
92.81915295471121
 30
0.0
 10
210.3548824106138
 20
92.86661019759156
 30
0.0
 10
210.520617311751
 20
93.04343464013104
 30
0.0
 10
210.5812906370072
 20
93.20371114733675
 30
0.0
 10
210.5812906370072
 20
93.36394005262453
 30
0.0
  0
LINE
  5
203
330
1F
100
AcDbEntity
  8
0
  6
HIDDEN
 62
     7
370
     0
100
AcDbLine
 10
210.5812903271
 20
152.7706584539
 30
0.0
 11
210.5812903271
 21
93.3639402147
 31
0.0
  0
LINE
  5
204
330
1F
100
AcDbEntity
  8
0
  6
HIDDEN
 62
     7
370
     0
100
AcDbLine
 10
200.7212906853
 20
150.7294508275
 30
0.0
 11
200.7212906853
 21
150.0438707527
 31
0.0
  0
SPLINE
  5
205
330
1F
100
AcDbEntity
  8
0
  6
HIDDEN
 62
     7
370
     0
100
AcDbSpline
210
0.0
220
0.0
230
1.0
 70
     8
 71
     3
 72
     8
 73
     4
 74
     0
 42
0.00000001
 43
0.00000001
 40
0.0
 40
0.0
 40
0.0
 40
0.0
 40
1.0
 40
1.0
 40
1.0
 40
1.0
 10
199.2393578055181
 20
153.3914129263816
 30
0.0
 10
199.7344978348825
 20
152.5047332782014
 30
0.0
 10
200.2285805401614
 20
151.6174706425154
 30
0.0
 10
200.7212906370072
 20
150.729451644389
 30
0.0
  0
LINE
  5
206
330
1F
100
AcDbEntity
  8
0
  6
HIDDEN
 62
     7
370
     0
100
AcDbLine
 10
197.5812909902
 20
149.3242173102
 30
0.0
 11
201.115588449
 21
149.3242173102
 31
0.0
  0
LINE
  5
207
330
1F
100
AcDbEntity
  8
0
  6
HIDDEN
 62
     7
370
     0
100
AcDbLine
 10
206.0232225583
 20
153.3914128896
 30
0.0
 11
206.0232225583
 21
92.7372998204
 31
0.0
  0
LINE
  5
208
330
1F
100
AcDbEntity
  8
0
  6
HIDDEN
 62
     7
370
     0
100
AcDbLine
 10
200.7212906853
 20
150.7294508275
 30
0.0
 11
200.7212906853
 21
95.4263801332
 31
0.0
  0
LINE
  5
209
330
1F
100
AcDbEntity
  8
0
  6
HIDDEN
 62
     7
370
     0
100
AcDbLine
 10
204.5412909017
 20
150.7294508275
 30
0.0
 11
204.5412909017
 21
95.4263801332
 31
0.0
  0
LWPOLYLINE
  5
20A
330
1F
100
AcDbEntity
  8
0
  6
HIDDEN
 62
     7
370
     0
100
AcDbPolyline
 90
       14
 70
   128
 43
0.0
 10
246.3776197061
 20
92.6262545045
 10
246.4491713569
 20
92.1614854243
 10
246.3807862029
 20
91.6728167441
 10
246.1764316783
 20
91.1886444893
 10
245.8479914591
 20
90.7371095028
 10
245.4145502076
 20
90.3444527294
 10
244.9012983367
 20
90.0334952976
 10
244.3380642459
 20
89.8223048653
 10
243.7575783358
 20
89.7231599893
 10
243.1935805604
 20
89.7418199684
 10
242.6788497493
 20
89.8772007432
 10
242.2432925329
 20
90.1214345004
 10
241.9122297094
 20
90.4603278842
 10
241.7048949525
 20
90.8741852846
  0
ELLIPSE
  5
20B
330
1F
100
AcDbEntity
  8
0
  6
HIDDEN
 62
     7
370
     0
100
AcDbEllipse
 10
244.9913727057
 20
89.6958558106
 30
0.0
 11
-0.9406553105118007
 21
2.766158975077417
 31
0.0
210
0.0
220
0.0
230
0.9999999999999999
 40
0.8539059128
 41
2.097543009497934
 42
4.238489764184651
  0
SPLINE
  5
20C
330
1F
100
AcDbEntity
  8
0
  6
HIDDEN
 62
     7
370
     0
100
AcDbSpline
210
0.0
220
0.0
230
1.0
 70
     8
 71
     3
 72
    26
 73
    22
 74
     0
 42
0.00000001
 43
0.00000001
 40
0.0
 40
0.0
 40
0.0
 40
0.0
 40
0.2500000000000132
 40
0.2500000000000132
 40
0.3750000000000183
 40
0.3750000000000183
 40
0.4375000000000192
 40
0.4375000000000192
 40
0.46875000000002
 40
0.46875000000002
 40
0.5000000000000209
 40
0.5000000000000209
 40
0.5312500000000218
 40
0.5312500000000218
 40
0.5625000000000226
 40
0.5625000000000226
 40
0.6250000000000193
 40
0.6250000000000193
 40
0.7500000000000127
 40
0.7500000000000127
 40
1.0
 40
1.0
 40
1.0
 40
1.0
 10
153.5554442831116
 20
143.3143367868152
 30
0.0
 10
153.5168437602431
 20
143.1965620904598
 30
0.0
 10
153.4705467576889
 20
143.0721724042979
 30
0.0
 10
153.376607409255
 20
142.8669530719444
 30
0.0
 10
153.3412959423415
 20
142.795380205498
 30
0.0
 10
153.2751159665959
 20
142.6794269728975
 30
0.0
 10
153.2505775999276
 20
142.6388424380873
 30
0.0
 10
153.2072048543738
 20
142.5747007562155
 30
0.0
 10
153.1916964529486
 20
142.5528343309305
 30
0.0
 10
153.1566538083616
 20
142.5072400625872
 30
0.0
 10
153.1371035176418
 20
142.4835697716199
 30
0.0
 10
153.0951762372712
 20
142.43895321228
 30
0.0
 10
153.0725241270396
 20
142.4180731997621
 30
0.0
 10
153.031550412953
 20
142.3871997860113
 30
0.0
 10
153.0139511130576
 20
142.3773609161789
 30
0.0
 10
152.9693241272015
 20
142.3583713004827
 30
0.0
 10
152.9487649045481
 20
142.3580469758292
 30
0.0
 10
152.8976394650514
 20
142.3672704167055
 30
0.0
 10
152.8767280520629
 20
142.3885173129224
 30
0.0
 10
152.8252781445019
 20
142.4624861917532
 30
0.0
 10
152.8076128451974
 20
142.5286042850679
 30
0.0
 10
152.7939540117306
 20
142.5987699979982
 30
0.0
  0
SPLINE
  5
20D
330
1F
100
AcDbEntity
  8
0
  6
HIDDEN
 62
     7
370
     0
100
AcDbSpline
210
0.0
220
0.0
230
1.0
 70
     8
 71
     3
 72
    26
 73
    22
 74
     0
 42
0.00000001
 43
0.00000001
 40
0.0
 40
0.0
 40
0.0
 40
0.0
 40
0.2499999999999948
 40
0.2499999999999948
 40
0.3749999999999928
 40
0.3749999999999928
 40
0.4374999999999918
 40
0.4374999999999918
 40
0.4687499999999922
 40
0.4687499999999922
 40
0.4999999999999925
 40
0.4999999999999925
 40
0.5312499999999927
 40
0.5312499999999927
 40
0.5624999999999929
 40
0.5624999999999929
 40
0.6249999999999949
 40
0.6249999999999949
 40
0.7499999999999966
 40
0.7499999999999966
 40
1.0
 40
1.0
 40
1.0
 40
1.0
 10
152.7615682526158
 20
103.3341298929906
 30
0.0
 10
152.7722922860083
 20
103.4370909334795
 30
0.0
 10
152.7870252766029
 20
103.5360896229606
 30
0.0
 10
152.8393788358499
 20
103.6546853030257
 30
0.0
 10
152.8610841185695
 20
103.6903956029745
 30
0.0
 10
152.9199396259349
 20
103.7153750357962
 30
0.0
 10
152.9434018597821
 20
103.7197604835598
 30
0.0
 10
152.9995232364427
 20
103.7000076501157
 30
0.0
 10
153.0223105465733
 20
103.6883512593053
 30
0.0
 10
153.0775630991045
 20
103.646570909868
 30
0.0
 10
153.1089693318453
 20
103.616299322492
 30
0.0
 10
153.1639031524658
 20
103.5546569235781
 30
0.0
 10
153.1883269706652
 20
103.5232152712712
 30
0.0
 10
153.2317420766524
 20
103.4634804338575
 30
0.0
 10
153.2513166392207
 20
103.4343154239848
 30
0.0
 10
153.3049493231687
 20
103.3504801482518
 30
0.0
 10
153.3347266712209
 20
103.2984475302756
 30
0.0
 10
153.4162607311937
 20
103.1473818563082
 30
0.0
 10
153.4595035258677
 20
103.0541908144374
 30
0.0
 10
153.5725581155224
 20
102.7898042754431
 30
0.0
 10
153.6265691130016
 20
102.6308461063932
 30
0.0
 10
153.6702002072056
 20
102.4802951502524
 30
0.0
  0
LINE
  5
20E
330
1F
100
AcDbEntity
  8
0
  6
HIDDEN
 62
     7
370
     0
100
AcDbLine
 10
152.7312908099
 20
142.6148949768
 30
0.0
 11
152.7312908099
 21
103.2710573282
 31
0.0
  0
LINE
  5
20F
330
1F
100
AcDbEntity
  8
0
  6
HIDDEN
 62
     7
370
     0
100
AcDbLine
 10
200.7212906853
 20
95.4263801332
 30
0.0
 11
200.7212906853
 21
96.1198224332
 31
0.0
  0
SPLINE
  5
210
330
1F
100
AcDbEntity
  8
0
  6
HIDDEN
 62
     7
370
     0
100
AcDbSpline
210
0.0
220
0.0
230
1.0
 70
     8
 71
     3
 72
     8
 73
     4
 74
     0
 42
0.00000001
 43
0.00000001
 40
0.0
 40
0.0
 40
0.0
 40
0.0
 40
1.0
 40
1.0
 40
1.0
 40
1.0
 10
199.2393578055181
 20
92.73729975697027
 30
0.0
 10
199.7348374661839
 20
93.63282584490362
 30
0.0
 10
200.228951514226
 20
94.52911025995586
 30
0.0
 10
200.7212906370072
 20
95.42638029416254
 30
0.0
  0
LINE
  5
211
330
1F
100
AcDbEntity
  8
0
  6
HIDDEN
 62
     7
370
     0
100
AcDbLine
 10
197.5812909902
 20
96.5242175963
 30
0.0
 11
200.8189659343
 21
96.5242175963
 31
0.0
  0
LINE
  5
212
330
1F
100
AcDbEntity
  8
0
  6
HIDDEN
 62
     7
370
     0
100
AcDbLine
 10
204.5412909017
 20
96.1198224332
 30
0.0
 11
204.5412909017
 21
95.4263801332
 31
0.0
  0
SPLINE
  5
213
330
1F
100
AcDbEntity
  8
0
  6
HIDDEN
 62
     7
370
     0
100
AcDbSpline
210
0.0
220
0.0
230
1.0
 70
     8
 71
     3
 72
     8
 73
     4
 74
     0
 42
0.00000001
 43
0.00000001
 40
0.0
 40
0.0
 40
0.0
 40
0.0
 40
1.0
 40
1.0
 40
1.0
 40
1.0
 10
204.5412906370072
 20
95.42638029416254
 30
0.0
 10
205.0336297597884
 20
94.52911025995584
 30
0.0
 10
205.5277438078305
 20
93.6328258449036
 30
0.0
 10
206.0232234684962
 20
92.73729975697026
 30
0.0
  0
LINE
  5
214
330
1F
100
AcDbEntity
  8
0
  6
HIDDEN
 62
     7
370
     0
100
AcDbLine
 10
206.0232225583
 20
92.7372998204
 30
0.0
 11
209.9812913463
 21
92.7372998204
 31
0.0
  0
LINE
  5
215
330
1F
100
AcDbEntity
  8
0
  6
HIDDEN
 62
     7
370
     0
100
AcDbLine
 10
210.5812903271
 20
93.3639402147
 30
0.0
 11
210.5812903271
 21
96.5242175963
 31
0.0
  0
LINE
  5
216
330
1F
100
AcDbEntity
  8
0
  6
HIDDEN
 62
     7
370
     0
100
AcDbLine
 10
204.4436156527
 20
96.5242175963
 30
0.0
 11
210.5812903271
 21
96.5242175963
 31
0.0
  0
LINE
  5
217
330
1F
100
AcDbEntity
  8
0
  6
HIDDEN
 62
     7
370
     0
100
AcDbLine
 10
240.6581628845
 20
94.1719091143
 30
0.0
 11
241.7048949525
 21
90.8741852846
 31
0.0
  0
LWPOLYLINE
  5
218
330
1F
100
AcDbEntity
  8
0
  6
HIDDEN
 62
     7
370
     0
100
AcDbPolyline
 90
       29
 70
   128
 43
0.0
 10
214.6312899665
 20
135.7060498204
 10
215.2988526747
 20
135.6444363128
 10
215.932941787
 20
135.4626849871
 10
216.501760088
 20
135.1699097659
 10
216.9767867551
 20
134.7807920184
 10
217.3341985569
 20
134.3148438837
 10
217.5560731218
 20
133.7954285201
 10
217.6312904582
 20
133.2485931571
 10
217.5560731218
 20
132.7017577942
 10
217.3341985569
 20
132.1823433619
 10
216.9767867551
 20
131.7163942959
 10
216.501760088
 20
131.3272765484
 10
215.932941787
 20
131.0345022585
 10
215.2988526747
 20
130.8527509328
 10
214.6312899665
 20
130.7911374252
 10
213.9637272582
 20
130.8527509328
 10
213.3296400086
 20
131.0345022585
 10
212.7608217076
 20
131.3272765484
 10
212.2857969031
 20
131.7163942959
 10
211.9283832387
 20
132.1823433619
 10
211.7065068111
 20
132.7017577942
 10
211.6312913374
 20
133.2485931571
 10
211.7065068111
 20
133.7954285201
 10
211.9283832387
 20
134.3148438837
 10
212.2857969031
 20
134.7807920184
 10
212.7608217076
 20
135.1699097659
 10
213.3296400086
 20
135.4626849871
 10
213.9637272582
 20
135.6444363128
 10
214.6312899665
 20
135.7060498204
  0
CIRCLE
  5
219
330
1F
100
AcDbEntity
  8
0
  6
HIDDEN
 62
     7
370
     0
100
AcDbCircle
 10
191.631290637
 20
122.9242174532
 30
0.0
 40
4.999999999999986
  0
LINE
  5
21A
330
1F
100
AcDbEntity
  8
0
  6
HIDDEN
 62
     7
370
     0
100
AcDbLine
 10
249.7583281026
 20
91.4057395067
 30
0.0
 11
249.332996808
 21
90.7864174452
 31
0.0
  0
LINE
  5
21B
330
1F
100
AcDbEntity
  8
0
  6
HIDDEN
 62
     7
370
     0
100
AcDbLine
 10
249.7575755939
 20
91.4046368208
 30
0.0
 11
246.6888937876
 21
122.5666727633
 31
0.0
  0
LINE
  5
21C
330
1F
100
AcDbEntity
  8
0
  6
HIDDEN
 62
     7
370
     0
100
AcDbLine
 10
246.6888937876
 20
122.5666727633
 30
0.0
 11
246.4346129224
 21
122.9242174532
 31
0.0
  0
LINE
  5
21D
330
1F
100
AcDbEntity
  8
0
  6
HIDDEN
 62
     7
370
     0
100
AcDbLine
 10
184.631290637
 20
97.600293776
 30
0.0
 11
184.7254514748
 21
98.2702835109
 31
0.0
  0
LINE
  5
21E
330
1F
100
AcDbEntity
  8
0
  6
HIDDEN
 62
     7
370
     0
100
AcDbLine
 10
184.7254514748
 20
147.5781513955
 30
0.0
 11
184.631290637
 21
148.2481411304
 31
0.0
  0
ARC
  5
21F
330
1F
100
AcDbEntity
  8
0
  6
HIDDEN
 62
     7
370
     0
100
AcDbCircle
 10
184.131290637
 20
98.3537865915
 30
0.0
 40
0.6000000000000133
100
AcDbArc
 50
352.0
 51
0.0
  0
ARC
  5
220
330
1F
100
AcDbEntity
  8
0
  6
HIDDEN
 62
     7
370
     0
100
AcDbCircle
 10
184.131290637
 20
98.3537865915
 30
0.0
 40
0.5999999999999943
100
AcDbArc
 50
0.0
 51
33.5573097619
  0
ARC
  5
221
330
1F
100
AcDbEntity
  8
0
  6
HIDDEN
 62
     7
370
     0
100
AcDbCircle
 10
184.131290637
 20
147.4946483149
 30
0.0
 40
0.6000000000000133
100
AcDbArc
 50
348.75
 51
8.0
  0
LWPOLYLINE
  5
222
330
1F
100
AcDbEntity
  8
0
  6
HIDDEN
 62
     7
370
     0
100
AcDbPolyline
 90
        3
 70
   128
 43
0.0
 10
184.7197618069
 20
147.3775948044
 10
184.6856183571
 20
147.2650388833
 10
184.631290637
 20
147.1629864182
  0
LINE
  5
223
330
1F
100
AcDbEntity
  8
0
  6
HIDDEN
 62
     7
370
     0
100
AcDbLine
 10
184.7312906345
 20
98.3537858929
 30
0.0
 11
184.7312906345
 21
147.4946490135
 31
0.0
  0
LINE
  5
224
330
1F
100
AcDbEntity
  8
0
  6
HIDDEN
 62
     7
370
     0
100
AcDbLine
 10
184.7312906345
 20
98.3537858929
 30
0.0
 11
184.7312906345
 21
147.4946490135
 31
0.0
  0
ARC
  5
225
330
1F
100
AcDbEntity
  8
0
  6
HIDDEN
 62
     7
370
     0
100
AcDbCircle
 10
167.7137262023
 20
103.5242174532
 30
0.0
 40
0.5999999999999943
100
AcDbArc
 50
210.0
 51
270.0
  0
ARC
  5
226
330
1F
100
AcDbEntity
  8
0
  6
HIDDEN
 62
     7
370
     0
100
AcDbCircle
 10
167.7137262023
 20
142.3242174532
 30
0.0
 40
0.6000000000000227
100
AcDbArc
 50
90.0
 51
150.0
  0
LINE
  5
227
330
1F
100
AcDbEntity
  8
0
  6
HIDDEN
 62
     7
370
     0
100
AcDbLine
 10
167.7137266621
 20
102.9242179003
 30
0.0
 11
171.9053981603
 21
102.9242179003
 31
0.0
  0
LINE
  5
228
330
1F
100
AcDbEntity
  8
0
  6
HIDDEN
 62
     7
370
     0
100
AcDbLine
 10
171.8912625462
 20
142.9242170062
 30
0.0
 11
167.7137266621
 21
142.9242170062
 31
0.0
  0
ARC
  5
229
330
1F
100
AcDbEntity
  8
0
  6
HIDDEN
 62
     7
370
     0
100
AcDbCircle
 10
178.3862926386
 20
110.9242174532
 30
0.0
 40
7.999999999999994
100
AcDbArc
 50
276.8738023254
 51
321.3178125465
  0
ARC
  5
22A
330
1F
100
AcDbEntity
  8
0
  6
HIDDEN
 62
     7
370
     0
100
AcDbCircle
 10
178.3862926386
 20
134.9242174532
 30
0.0
 40
8.00000000000001
100
AcDbArc
 50
38.6821874535
 51
82.9420389415
  0
LINE
  5
22B
330
1F
100
AcDbEntity
  8
0
  6
HIDDEN
 62
     7
370
     0
100
AcDbLine
 10
167.1941101328
 20
142.6242175158
 30
0.0
 11
165.6352661327
 21
139.9242183771
 31
0.0
  0
LINE
  5
22C
330
1F
100
AcDbEntity
  8
0
  6
HIDDEN
 62
     7
370
     0
100
AcDbLine
 10
165.6352661327
 20
105.9242165293
 30
0.0
 11
167.1941101328
 21
103.2242173906
 31
0.0
  0
LINE
  5
22D
330
1F
100
AcDbEntity
  8
0
  6
HIDDEN
 62
     7
370
     0
100
AcDbLine
 10
210.599043198
 20
111.8646277692
 30
0.0
 11
219.7174306736
 21
104.1582612898
 31
0.0
  0
LINE
  5
22E
330
1F
100
AcDbEntity
  8
0
  6
HIDDEN
 62
     7
370
     0
100
AcDbLine
 10
215.1411425099
 20
114.5723997261
 30
0.0
 11
213.8265099153
 21
115.6834568474
 31
0.0
  0
LINE
  5
22F
330
1F
100
AcDbEntity
  8
0
  6
HIDDEN
 62
     7
370
     0
100
AcDbLine
 10
219.5480603502
 20
110.8479122277
 30
0.0
 11
217.0265864358
 21
112.9789244961
 31
0.0
  0
LINE
  5
230
330
1F
100
AcDbEntity
  8
0
  6
HIDDEN
 62
     7
370
     0
100
AcDbLine
 10
213.3337378279
 20
115.6595986914
 30
0.0
 11
211.1141726152
 21
114.7025222536
 31
0.0
  0
LINE
  5
231
330
1F
100
AcDbEntity
  8
0
  6
HIDDEN
 62
     7
370
     0
100
AcDbLine
 10
211.1141726152
 20
114.7025222536
 30
0.0
 11
210.5404332057
 21
112.3544829544
 31
0.0
  0
ARC
  5
232
330
1F
100
AcDbEntity
  8
0
  6
HIDDEN
 62
     7
370
     0
100
AcDbCircle
 10
193.081290637
 20
107.1992174532
 30
0.0
 40
1.500000000000004
100
AcDbArc
 50
238.2116693829
 51
0.0
  0
ARC
  5
233
330
1F
100
AcDbEntity
  8
0
  6
HIDDEN
 62
     7
370
     0
100
AcDbCircle
 10
193.081290637
 20
138.6492174532
 30
0.0
 40
1.500000000000016
100
AcDbArc
 50
0.0
 51
121.7883306171
  0
LINE
  5
234
330
1F
100
AcDbEntity
  8
0
  6
HIDDEN
 62
     7
370
     0
100
AcDbLine
 10
212.131290488
 20
120.5198042672
 30
0.0
 11
212.131290488
 21
113.0648408662
 31
0.0
  0
LINE
  5
235
330
1F
100
AcDbEntity
  8
0
  6
HIDDEN
 62
     7
370
     0
100
AcDbLine
 10
217.1312894449
 20
112.7184494045
 30
0.0
 11
217.1312894449
 21
120.5156428851
 31
0.0
  0
LINE
  5
236
330
1F
100
AcDbEntity
  8
0
  6
HIDDEN
 62
     7
370
     0
100
AcDbLine
 10
162.8312904165
 20
105.9242165293
 30
0.0
 11
165.6352661327
 21
105.9242165293
 31
0.0
  0
LINE
  5
237
330
1F
100
AcDbEntity
  8
0
  6
HIDDEN
 62
     7
370
     0
100
AcDbLine
 10
165.6352661327
 20
139.9242183771
 30
0.0
 11
158.8312897608
 21
139.9242183771
 31
0.0
  0
LINE
  5
238
330
1F
100
AcDbEntity
  8
0
  6
HIDDEN
 62
     7
370
     0
100
AcDbLine
 10
184.631290637
 20
105.9242165293
 30
0.0
 11
192.291116599
 21
105.9242165293
 31
0.0
  0
LINE
  5
239
330
1F
100
AcDbEntity
  8
0
  6
HIDDEN
 62
     7
370
     0
100
AcDbLine
 10
192.291116599
 20
139.9242183771
 30
0.0
 11
184.631290637
 21
139.9242183771
 31
0.0
  0
LINE
  5
23A
330
1F
100
AcDbEntity
  8
0
  6
HIDDEN
 62
     7
370
     0
100
AcDbLine
 10
203.9312913791
 20
113.4242177587
 30
0.0
 11
206.4312908575
 21
113.4242177587
 31
0.0
  0
LINE
  5
23B
330
1F
100
AcDbEntity
  8
0
  6
HIDDEN
 62
     7
370
     0
100
AcDbLine
 10
206.4312908575
 20
132.4242171477
 30
0.0
 11
203.9312913791
 21
132.4242171477
 31
0.0
  0
LINE
  5
23C
330
1F
100
AcDbEntity
  8
0
  6
HIDDEN
 62
     7
370
     0
100
AcDbLine
 10
194.5812904984
 20
113.9242178406
 30
0.0
 11
195.0812905804
 21
114.4242169913
 31
0.0
  0
LINE
  5
23D
330
1F
100
AcDbEntity
  8
0
  6
HIDDEN
 62
     7
370
     0
100
AcDbLine
 10
195.0812905804
 20
131.4242179152
 30
0.0
 11
194.5812904984
 21
131.9242170658
 31
0.0
  0
LINE
  5
23E
330
1F
100
AcDbEntity
  8
0
  6
HIDDEN
 62
     7
370
     0
100
AcDbLine
 10
195.0812905804
 20
114.4242169913
 30
0.0
 11
203.9312913791
 21
114.4242169913
 31
0.0
  0
LINE
  5
23F
330
1F
100
AcDbEntity
  8
0
  6
HIDDEN
 62
     7
370
     0
100
AcDbLine
 10
203.9312913791
 20
131.4242179152
 30
0.0
 11
195.0812905804
 21
131.4242179152
 31
0.0
  0
LINE
  5
240
330
1F
100
AcDbEntity
  8
0
  6
HIDDEN
 62
     7
370
     0
100
AcDbLine
 10
189.5812906102
 20
154.4242179599
 30
0.0
 11
189.5812906102
 21
149.3242173102
 31
0.0
  0
LINE
  5
241
330
1F
100
AcDbEntity
  8
0
  6
HIDDEN
 62
     7
370
     0
100
AcDbLine
 10
179.8157284745
 20
98.8448462095
 30
0.0
 11
179.3812962957
 21
99.3239129539
 31
0.0
  0
LINE
  5
242
330
1F
100
AcDbEntity
  8
0
  6
HIDDEN
 62
     7
370
     0
100
AcDbLine
 10
171.8812927381
 20
99.7456009146
 30
0.0
 11
171.3988592625
 21
99.2665341701
 31
0.0
  0
LINE
  5
243
330
1F
100
AcDbEntity
  8
0
  6
HIDDEN
 62
     7
370
     0
100
AcDbLine
 10
171.3987372593
 20
146.5818951484
 30
0.0
 11
171.8812880815
 21
146.1027743872
 31
0.0
  0
LINE
  5
244
330
1F
100
AcDbEntity
  8
0
  6
HIDDEN
 62
     7
370
     0
100
AcDbLine
 10
179.3812907078
 20
146.5244735237
 30
0.0
 11
179.8158327826
 21
147.0035924222
 31
0.0
  0
LINE
  5
245
330
1F
100
AcDbEntity
  8
0
  6
HIDDEN
 62
     7
370
     0
100
AcDbLine
 10
218.7312904522
 20
118.724217603
 30
0.0
 11
221.2549064085
 21
122.9242174532
 31
0.0
  0
LINE
  5
246
330
1F
100
AcDbEntity
  8
0
  6
HIDDEN
 62
     7
370
     0
100
AcDbLine
 10
221.2549064085
 20
122.9242174532
 30
0.0
 11
218.7312904522
 21
127.1242173035
 31
0.0
  0
LINE
  5
247
330
1F
100
AcDbEntity
  8
0
  6
HIDDEN
 62
     7
370
     0
100
AcDbLine
 10
206.4312908575
 20
118.724217603
 30
0.0
 11
218.7312904522
 21
118.724217603
 31
0.0
  0
LINE
  5
248
330
1F
100
AcDbEntity
  8
0
  6
HIDDEN
 62
     7
370
     0
100
AcDbLine
 10
218.7312904522
 20
127.1242173035
 30
0.0
 11
206.4312908575
 21
127.1242173035
 31
0.0
  0
LINE
  5
249
330
1F
100
AcDbEntity
  8
0
  6
HIDDEN
 62
     7
370
     0
100
AcDbLine
 10
179.3812907078
 20
142.8612894025
 30
0.0
 11
179.3812907078
 21
146.5241810884
 31
0.0
  0
LINE
  5
24A
330
1F
100
AcDbEntity
  8
0
  6
HIDDEN
 62
     7
370
     0
100
AcDbLine
 10
171.8812908754
 20
146.1026309635
 30
0.0
 11
171.8812908754
 21
142.922354361
 31
0.0
  0
LINE
  5
24B
330
1F
100
AcDbEntity
  8
0
  6
HIDDEN
 62
     7
370
     0
100
AcDbLine
 10
179.3812907078
 20
99.324395379
 30
0.0
 11
179.3812907078
 21
102.9888162967
 31
0.0
  0
LINE
  5
24C
330
1F
100
AcDbEntity
  8
0
  6
HIDDEN
 62
     7
370
     0
100
AcDbLine
 10
171.8812908754
 20
102.9285951164
 30
0.0
 11
171.8812908754
 21
99.7459231522
 31
0.0
  0
LINE
  5
24D
330
1F
100
AcDbEntity
  8
0
  6
HIDDEN
 62
     7
370
     0
100
AcDbLine
 10
240.3482224569
 20
94.7432531621
 30
0.0
 11
240.7746378109
 21
94.3191772904
 31
0.0
  0
LINE
  5
24E
330
1F
100
AcDbEntity
  8
0
  6
HIDDEN
 62
     7
370
     0
100
AcDbLine
 10
245.710770391
 20
99.2825007643
 30
0.0
 11
245.2843587623
 21
99.7065766361
 31
0.0
  0
LINE
  5
24F
330
1F
100
AcDbEntity
  8
0
  6
HIDDEN
 62
     7
370
     0
100
AcDbLine
 10
237.9650052414
 20
88.1866826322
 30
0.0
 11
238.4562890754
 21
87.6980884578
 31
0.0
  0
LINE
  5
250
330
1F
100
AcDbEntity
  8
0
  6
HIDDEN
 62
     7
370
     0
100
AcDbLine
 10
247.5211050138
 20
91.5636918154
 30
0.0
 11
245.6710550711
 21
95.5639159884
 31
0.0
  0
LINE
  5
251
330
1F
100
AcDbEntity
  8
0
  6
HIDDEN
 62
     7
370
     0
100
AcDbLine
 10
212.131290488
 20
133.0762733351
 30
0.0
 11
212.131290488
 21
125.3327920213
 31
0.0
  0
LINE
  5
252
330
1F
100
AcDbEntity
  8
0
  6
HIDDEN
 62
     7
370
     0
100
AcDbLine
 10
217.1312894449
 20
125.3286306392
 30
0.0
 11
217.1312894449
 21
133.0762733351
 31
0.0
  0
LINE
  5
253
330
1F
100
AcDbEntity
  8
0
  6
HIDDEN
 62
     7
370
     0
100
AcDbLine
 10
237.1761824713
 20
96.9106754865
 30
0.0
 11
239.8106444404
 21
94.290645292
 31
0.0
  0
LINE
  5
254
330
1F
100
AcDbEntity
  8
0
  6
HIDDEN
 62
     7
370
     0
100
AcDbLine
 10
245.7340050266
 20
100.2466338333
 30
0.0
 11
243.0995430574
 21
102.8666640278
 31
0.0
  0
LINE
  5
255
330
1F
100
AcDbEntity
  8
0
  6
HIDDEN
 62
     7
370
     0
100
AcDbLine
 10
237.8123130426
 20
88.4216515925
 30
0.0
 11
238.1196271405
 21
88.1160213258
 31
0.0
  0
ARC
  5
256
330
1F
100
AcDbEntity
  8
0
  6
HIDDEN
 62
     7
370
     0
100
AcDbCircle
 10
157.431290637
 20
145.1942174532
 30
0.0
 40
1.400000000000006
100
AcDbArc
 50
270.0
 51
301.7485287426
  0
ARC
  5
257
330
1F
100
AcDbEntity
  8
0
  6
HIDDEN
 62
     7
370
     0
100
AcDbCircle
 10
161.431290637
 20
100.7117174532
 30
0.0
 40
1.399999999999996
100
AcDbArc
 50
37.6443616934
 51
90.0
  0
LINE
  5
258
330
1F
100
AcDbEntity
  8
0
  6
HIDDEN
 62
     7
370
     0
100
AcDbLine
 10
249.1067673788
 20
87.897689512
 30
0.0
 11
248.5214050636
 21
88.4798443522
 31
0.0
  0
LINE
  5
259
330
1F
100
AcDbEntity
  8
0
  6
HIDDEN
 62
     7
370
     0
100
AcDbLine
 10
244.0083686039
 20
83.9419453051
 30
0.0
 11
244.5937271938
 21
83.3597941901
 31
0.0
  0
LINE
  5
25A
330
1F
100
AcDbEntity
  8
0
  6
HIDDEN
 62
     7
370
     0
100
AcDbLine
 10
153.8724533991
 20
143.7853811886
 30
0.0
 11
152.7424592302
 21
142.6553851571
 31
0.0
  0
LINE
  5
25B
330
1F
100
AcDbEntity
  8
0
  6
HIDDEN
 62
     7
370
     0
100
AcDbLine
 10
157.4312902764
 20
143.7942175772
 30
0.0
 11
154.0221784041
 21
143.7942175772
 31
0.0
  0
LINE
  5
25C
330
1F
100
AcDbEntity
  8
0
  6
HIDDEN
 62
     7
370
     0
100
AcDbLine
 10
153.8812897876
 20
102.111717185
 30
0.0
 11
161.4312909321
 21
102.111717185
 31
0.0
  0
LINE
  5
25D
330
1F
100
AcDbEntity
  8
0
  6
HIDDEN
 62
     7
370
     0
100
AcDbLine
 10
152.7332391367
 20
103.259767836
 30
0.0
 11
153.8812897876
 21
102.111717185
 31
0.0
  0
LINE
  5
25E
330
1F
100
AcDbEntity
  8
0
  6
HIDDEN
 62
     7
370
     0
100
AcDbLine
 10
241.7721774206
 20
90.7008028235
 30
0.0
 11
243.4965062663
 21
86.9724130835
 31
0.0
  0
LINE
  5
25F
330
1F
100
AcDbEntity
  8
0
  6
HIDDEN
 62
     7
370
     0
100
AcDbLine
 10
211.6312913374
 20
137.8347291257
 30
0.0
 11
211.6312913374
 21
133.2485931571
 31
0.0
  0
LINE
  5
260
330
1F
100
AcDbEntity
  8
0
  6
HIDDEN
 62
     7
370
     0
100
AcDbLine
 10
217.6312904582
 20
133.2485931571
 30
0.0
 11
217.6312904582
 21
137.8371952679
 31
0.0
  0
LINE
  5
261
330
1F
100
AcDbEntity
  8
VERMASSUNG
100
AcDbLine
 10
254.631290637
 20
77.9242174532
 30
0.0
 11
254.631290637
 21
107.3154061783
 31
0.0
  0
DIMENSION
  5
262
330
1F
100
AcDbEntity
  8
VERMASSUNG
100
AcDbDimension
  2
*D1
 10
252.5159206465
 20
90.7615812531
 30
0.0
 11
252.5493908298
 21
114.2437189868
 31
0.0
 70
   162
 71
     1
 42
-1.0
  3
SLDDIMSTYLE0
100
AcDb2LineAngularDimension
 13
254.631290637
 23
107.3154061783
 33
0.0
 14
254.631290637
 24
77.9242174532
 34
0.0
 15
250.0208487479
 25
119.2529717349
 35
0.0
 16
252.5493908298
 26
114.2437189868
 36
0.0
  0
DIMENSION
  5
26E
330
1F
100
AcDbEntity
  8
VERMASSUNG
100
AcDbDimension
  2
*D2
 10
184.631290637
 20
158.2555180506
 30
0.0
 11
219.631290637
 21
158.2555180506
 31
0.0
 70
   160
 71
     2
 42
-1.0
  3
SLDDIMSTYLE1
100
AcDbAlignedDimension
 13
254.631290637
 23
77.9242174532
 33
0.0
 14
184.631290637
 24
154.1242174532
 34
0.0
100
AcDbRotatedDimension
  0
DIMENSION
  5
279
330
1F
100
AcDbEntity
  8
VERMASSUNG
100
AcDbDimension
  2
*D3
 10
152.731290637
 20
164.2555180506
 30
0.0
 11
203.681290637
 21
164.2555180506
 31
0.0
 70
   160
 71
     2
 42
-1.0
  3
SLDDIMSTYLE1
100
AcDbAlignedDimension
 13
254.631290637
 23
77.9242174532
 33
0.0
 14
152.731290637
 24
142.6148951997
 34
0.0
100
AcDbRotatedDimension
  0
DIMENSION
  5
283
330
1F
100
AcDbEntity
  8
VERMASSUNG
100
AcDbDimension
  2
*D4
 10
262.2653573793
 20
77.9242174532
 30
0.0
 11
262.2653573793
 21
100.4242174532
 31
0.0
 70
   160
 71
     2
 42
-1.0
  3
SLDDIMSTYLE1
100
AcDbAlignedDimension
 13
252.994240754
 23
122.9242174532
 33
0.0
 14
254.631290637
 24
77.9242174532
 34
0.0
 50
90.0
100
AcDbRotatedDimension
  0
DIMENSION
  5
28D
330
1F
100
AcDbEntity
  8
VERMASSUNG
100
AcDbDimension
  2
*D5
 10
145.4994020443
 20
91.4242174532
 30
0.0
 11
145.4994020443
 21
122.9242174532
 31
0.0
 70
   160
  1
HSK A %%c<>
 71
     2
 42
-1.0
  3
SLDDIMSTYLE1
100
AcDbAlignedDimension
 13
184.931290637
 23
154.4242174532
 33
0.0
 14
184.931290637
 24
91.4242174532
 34
0.0
 50
90.0
100
AcDbRotatedDimension
  0
LINE
  5
299
330
1F
100
AcDbEntity
  8
VERMASSUNG
  6
CENTERX2
370
     0
100
AcDbLine
 10
147.7545385207
 20
122.9242174532
 30
0.0
 11
252.994240754
 21
122.9242174532
 31
0.0
  0
LINE
  5
29A
330
1F
100
AcDbEntity
  8
0
  6
Continuous
 62
     7
370
    15
100
AcDbLine
 10
72.7558327998
 20
100.6996961888
 30
0.0
 11
72.3187337789
 21
100.1537846979
 31
0.0
  0
LINE
  5
29B
330
1F
100
AcDbEntity
  8
0
  6
Continuous
 62
     7
370
    15
100
AcDbLine
 10
73.0463802974
 20
93.2306921687
 30
0.0
 11
73.5874286547
 21
92.7875893768
 31
0.0
  0
LINE
  5
29C
330
1F
100
AcDbEntity
  8
0
  6
Continuous
 62
     7
370
    15
100
AcDbLine
 10
72.8031658727
 20
100.72694855
 30
0.0
 11
72.7972217064
 21
100.7263227012
 31
0.0
  0
LINE
  5
29D
330
1F
100
AcDbEntity
  8
0
  6
Continuous
 62
     7
370
    15
100
AcDbLine
 10
73.633449494
 20
92.7701475676
 30
0.0
 11
73.6393936604
 21
92.7707734164
 31
0.0
  0
LINE
  5
29E
330
1F
100
AcDbEntity
  8
0
  6
Continuous
 62
     7
370
    15
100
AcDbLine
 10
76.0525297228
 20
77.9242417421
 30
0.0
 11
80.760520992
 21
78.4190720525
 31
0.0
  0
LINE
  5
29F
330
1F
100
AcDbEntity
  8
0
  6
Continuous
 62
     7
370
    15
100
AcDbLine
 10
74.7317277055
 20
80.6896141376
 30
0.0
 11
75.1565947357
 21
80.0928449836
 31
0.0
  0
SPLINE
  5
2A0
330
1F
100
AcDbEntity
  8
0
  6
Continuous
 62
     7
370
    15
100
AcDbSpline
210
0.0
220
0.0
230
1.0
 70
     8
 71
     3
 72
    12
 73
     8
 74
     0
 42
0.00000001
 43
0.00000001
 40
0.0
 40
0.0
 40
0.0
 40
0.0
 40
0.2459204525653438
 40
0.458770494807333
 40
0.6464593430801007
 40
0.8786257601937194
 40
1.0
 40
1.0
 40
1.0
 40
1.0
 10
74.10769408301748
 20
90.49478681943407
 30
0.0
 10
74.10837924273734
 20
90.4933624619739
 30
0.0
 10
74.10965742460641
 20
90.49070528901422
 30
0.0
 10
74.12929195199882
 20
90.42709532647142
 30
0.0
 10
74.14212786410525
 20
90.30356187617798
 30
0.0
 10
74.13499270579808
 20
90.15793642421377
 30
0.0
 10
74.08873170350161
 20
90.06873479375386
 30
0.0
 10
74.07284981304146
 20
90.03811093232622
 30
0.0
  0
LINE
  5
2A1
330
1F
100
AcDbEntity
  8
0
  6
Continuous
 62
     7
370
    15
100
AcDbLine
 10
74.0649533618
 20
90.0405733492
 30
0.0
 11
73.7606823604
 21
89.3390825596
 31
0.0
  0
LINE
  5
2A2
330
1F
100
AcDbEntity
  8
0
  6
Continuous
 62
     7
370
    15
100
AcDbLine
 10
73.5382289785
 20
91.6272415426
 30
0.0
 11
73.2396914318
 21
91.5958634224
 31
0.0
  0
LINE
  5
2A3
330
1F
100
AcDbEntity
  8
0
  6
Continuous
 62
     7
370
    15
100
AcDbLine
 10
80.7265826661
 20
79.1174224224
 30
0.0
 11
83.4011427286
 21
79.3985328283
 31
0.0
  0
LINE
  5
2A4
330
1F
100
AcDbEntity
  8
0
  6
Continuous
 62
     7
370
    15
100
AcDbLine
 10
83.4114897224
 20
79.4051861968
 30
0.0
 11
83.6737492281
 21
79.7327360716
 31
0.0
  0
LWPOLYLINE
  5
2A5
330
1F
100
AcDbEntity
  8
0
  6
Continuous
 62
     7
370
    15
100
AcDbPolyline
 90
       12
 70
   128
 43
0.0
 10
73.4630784645
 20
98.1498914417
 10
73.559873148
 20
97.4199357089
 10
73.644215583
 20
96.6657022592
 10
73.7130568522
 20
95.914452767
 10
73.7639093931
 20
95.193337148
 10
73.7949350077
 20
94.5284212585
 10
73.8050126165
 20
93.9437332209
 10
73.7937773737
 20
93.4604084697
 10
73.7616360347
 20
93.095914891
 10
73.7097497258
 20
92.8634251114
 10
73.6399941306
 20
92.7713415231
 10
73.5874286547
 20
92.7875893768
  0
ARC
  5
2A6
330
1F
100
AcDbEntity
  8
0
  6
Continuous
 62
     7
370
    15
100
AcDbCircle
 10
68.5264587015
 20
98.1535965935
 30
0.0
 40
4.936621153401847
100
AcDbArc
 50
359.956996987
 51
31.0481036457
  0
LWPOLYLINE
  5
2A7
330
1F
100
AcDbEntity
  8
0
  6
Continuous
 62
     7
370
    15
100
AcDbPolyline
 90
       32
 70
   128
 43
0.0
 10
72.9375736482
 20
97.9227064755
 10
73.0273899316
 20
97.2418053653
 10
73.1046543151
 20
96.5385692771
 10
73.1662037942
 20
95.8417891171
 10
73.2095182102
 20
95.1799894329
 10
73.2328243248
 20
94.5802679863
 10
73.2351682308
 20
94.0671744402
 10
73.2164535365
 20
93.6617175694
 10
73.1774469531
 20
93.3804935422
 10
73.1197450004
 20
93.2350172307
 10
73.045709978
 20
93.2312453743
 10
72.9583733409
 20
93.3693307098
 10
72.8613102037
 20
93.6436219718
 10
72.7584945198
 20
94.0428874101
 10
72.6541356343
 20
94.5507823136
 10
72.5525057569
 20
95.1465139743
 10
72.4577660366
 20
95.8056910541
 10
72.3737947337
 20
96.5013294127
 10
72.3040298253
 20
97.2049473431
 10
72.2513276778
 20
97.8877390381
 10
72.217845467
 20
98.5217517819
 10
72.2049543328
 20
99.0810296144
 10
72.2131821021
 20
99.5426731761
 10
72.2421914033
 20
99.887785932
 10
72.2907952658
 20
100.1022359934
 10
72.3570032205
 20
100.1772447135
 10
72.4381051186
 20
100.1097424533
 10
72.5307805623
 20
99.9024896528
 10
72.6312353435
 20
99.5639743861
 10
72.7353569745
 20
99.1080547329
 10
72.8388825591
 20
98.5533962604
 10
72.9375736482
 20
97.9227064755
  0
LWPOLYLINE
  5
2A8
330
1F
100
AcDbEntity
  8
0
  6
Continuous
 62
     7
370
    15
100
AcDbPolyline
 90
       24
 70
   128
 43
0.0
 10
72.8446700304
 20
97.3970847782
 10
72.9122630946
 20
96.8688386138
 10
72.9656562834
 20
96.3277923521
 10
73.0008893806
 20
95.8140748199
 10
73.0153493277
 20
95.3657826986
 10
73.0079639397
 20
95.0161679294
 10
72.9792808342
 20
94.7911566701
 10
72.931427152
 20
94.7074363585
 10
72.8679523963
 20
94.771220779
 10
72.7935637041
 20
94.9777750876
 10
72.7137782305
 20
95.3117808904
 10
72.634513599
 20
95.7484687325
 10
72.5616483177
 20
96.2554472145
 10
72.5005866188
 20
96.7951207068
 10
72.4558568253
 20
97.3274609651
 10
72.4307765412
 20
97.8129892256
 10
72.4272060833
 20
98.2156931069
 10
72.4454099472
 20
98.5057069566
 10
72.484037948
 20
98.6615246739
 10
72.5402255702
 20
98.6715848204
 10
72.6098056111
 20
98.5351460632
 10
72.6876173794
 20
98.2623244282
 10
72.7678899347
 20
97.8733556922
 10
72.8446700304
 20
97.3970847782
  0
SPLINE
  5
2A9
330
1F
100
AcDbEntity
  8
0
  6
Continuous
 62
     7
370
    15
100
AcDbSpline
210
0.0
220
0.0
230
1.0
 70
     8
 71
     3
 72
     9
 73
     5
 74
     0
 42
0.00000001
 43
0.00000001
 40
0.0
 40
0.0
 40
0.0
 40
0.0
 40
0.6201522969330083
 40
1.0
 40
1.0
 40
1.0
 40
1.0
 10
72.77705996961632
 20
97.00459564290037
 30
0.0
 10
72.81537050282479
 20
96.95409911945828
 30
0.0
 10
72.87714651074724
 20
96.87267311540761
 30
0.0
 10
72.91095329959761
 20
96.77868064315564
 30
0.0
 10
72.9237947306905
 20
96.74297781846514
 30
0.0
  0
LINE
  5
2AA
330
1F
100
AcDbEntity
  8
0
  6
Continuous
 62
     7
370
    15
100
AcDbLine
 10
72.8686189904
 20
97.1991042253
 30
0.0
 11
72.7770599696
 21
97.0045956429
 31
0.0
  0
LINE
  5
2AB
330
1F
100
AcDbEntity
  8
0
  6
Continuous
 62
     7
370
    15
100
AcDbLine
 10
73.0150603849
 20
95.3930499609
 30
0.0
 11
73.008773259
 21
95.3923887219
 31
0.0
  0
LINE
  5
2AC
330
1F
100
AcDbEntity
  8
0
  6
Continuous
 62
     7
370
    15
100
AcDbLine
 10
72.8949071999
 20
97.0169822331
 30
0.0
 11
72.7770599696
 21
97.0045956429
 31
0.0
  0
LINE
  5
2AD
330
1F
100
AcDbEntity
  8
0
  6
Continuous
 62
     7
370
    15
100
AcDbLine
 10
73.2437226615
 20
91.1590284314
 30
0.0
 11
74.611475451
 21
79.1988833453
 31
0.0
  0
ARC
  5
2AE
330
1F
100
AcDbEntity
  8
0
  6
Continuous
 62
     7
370
    15
100
AcDbCircle
 10
74.1275574798
 20
91.3773827566
 30
0.0
 40
0.910407929100593
100
AcDbArc
 50
166.1879831651
 51
193.8772325519
  0
LINE
  5
2AF
330
1F
100
AcDbEntity
  8
0
  6
Continuous
 62
     7
370
    15
100
AcDbLine
 10
74.6049374502
 20
90.6788720395
 30
0.0
 11
73.2434746969
 21
91.5947309341
 31
0.0
  0
ARC
  5
2B0
330
1F
100
AcDbEntity
  8
0
  6
Continuous
 62
     7
370
    15
100
AcDbCircle
 10
73.612268604
 20
90.2816049547
 30
0.0
 40
1.069211192801165
100
AcDbArc
 50
2.1234334668
 51
21.811337765
  0
LINE
  5
2B1
330
1F
100
AcDbEntity
  8
0
  6
Continuous
 62
     7
370
    15
100
AcDbLine
 10
76.0484983366
 20
78.3610767331
 30
0.0
 11
74.6807455943
 21
90.3212218191
 31
0.0
  0
ARC
  5
2B2
330
1F
100
AcDbEntity
  8
0
  6
Continuous
 62
     7
370
    15
100
AcDbCircle
 10
75.1646707384
 20
78.1427220577
 30
0.0
 40
0.9104010036805954
100
AcDbArc
 50
346.1878987103
 51
13.8773629332
  0
LINE
  5
2B3
330
1F
100
AcDbEntity
  8
0
  6
Continuous
 62
     7
370
    15
100
AcDbLine
 10
74.6872835952
 20
78.8412331249
 30
0.0
 11
76.0487464758
 21
77.9253742304
 31
0.0
  0
ARC
  5
2B4
330
1F
100
AcDbEntity
  8
0
  6
Continuous
 62
     7
370
    15
100
AcDbCircle
 10
75.6799328597
 20
79.2384960592
 30
0.0
 40
1.069191470835124
100
AcDbArc
 50
182.1232500803
 51
201.8115211514
  0
ARC
  5
2B5
330
1F
100
AcDbEntity
  8
0
  6
Continuous
 62
     7
370
    15
100
AcDbCircle
 10
75.2069765725
 20
78.1516879316
 30
0.0
 40
0.8648775553167084
100
AcDbArc
 50
346.1878556651
 51
13.8774054329
  0
LINE
  5
2B6
330
1F
100
AcDbEntity
  8
0
  6
Continuous
 62
     7
370
    15
100
AcDbLine
 10
76.0466093379
 20
78.359124681
 30
0.0
 11
74.6788566393
 21
90.319269767
 31
0.0
  0
ARC
  5
2B7
330
1F
100
AcDbEntity
  8
0
  6
Continuous
 62
     7
370
    15
100
AcDbCircle
 10
73.663803831
 20
90.2816349446
 30
0.0
 40
1.015750256427617
100
AcDbArc
 50
2.1233665884
 51
21.8113413366
  0
LINE
  5
2B8
330
1F
100
AcDbEntity
  8
0
  6
Continuous
 62
     7
370
    15
100
AcDbLine
 10
74.6068388616
 20
90.659038594
 30
0.0
 11
73.2453759919
 21
91.5748974886
 31
0.0
  0
ARC
  5
2B9
330
1F
100
AcDbEntity
  8
0
  6
Continuous
 62
     7
370
    15
100
AcDbCircle
 10
74.0852625802
 20
91.3684175015
 30
0.0
 40
0.8648950607926821
100
AcDbArc
 50
166.1881590903
 51
193.8771372583
  0
LINE
  5
2BA
330
1F
100
AcDbEntity
  8
0
  6
Continuous
 62
     7
370
    15
100
AcDbLine
 10
73.2456118494
 20
91.1609804835
 30
0.0
 11
74.6133645225
 21
79.2008353975
 31
0.0
  0
ARC
  5
2BB
330
1F
100
AcDbEntity
  8
0
  6
Continuous
 62
     7
370
    15
100
AcDbCircle
 10
75.6284230284
 20
79.2384711044
 30
0.0
 40
1.015755982905457
100
AcDbArc
 50
182.1234045417
 51
201.8112658089
  0
LINE
  5
2BC
330
1F
100
AcDbEntity
  8
0
  6
Continuous
 62
     7
370
    15
100
AcDbLine
 10
74.6853821838
 20
78.8610665705
 30
0.0
 11
76.046845068
 21
77.9452076759
 31
0.0
  0
LINE
  5
2BD
330
1F
100
AcDbEntity
  8
0
  6
Continuous
 62
     7
370
    15
100
AcDbLine
 10
80.7564897622
 20
78.8559070434
 30
0.0
 11
79.3887368563
 21
90.8160484042
 31
0.0
  0
ARC
  5
2BE
330
1F
100
AcDbEntity
  8
0
  6
Continuous
 62
     7
370
    15
100
AcDbCircle
 10
79.7333740992
 20
78.6280293632
 30
0.0
 40
1.048186003077528
100
AcDbArc
 50
348.500968791
 51
12.5564826505
  0
LINE
  5
2BF
330
1F
100
AcDbEntity
  8
0
  6
Continuous
 62
     7
370
    15
100
AcDbLine
 10
76.0634928083
 20
77.9819911923
 30
0.0
 11
76.046845068
 21
77.9452076759
 31
0.0
  0
LINE
  5
2C0
330
1F
100
AcDbEntity
  8
0
  6
Continuous
 62
     7
370
    15
100
AcDbLine
 10
74.8662514306
 20
79.2607157137
 30
0.0
 11
74.6853821838
 21
78.8610665705
 31
0.0
  0
LINE
  5
2C1
330
1F
100
AcDbEntity
  8
0
  6
Continuous
 62
     7
370
    15
100
AcDbLine
 10
75.2208324192
 20
79.87483727
 30
0.0
 11
74.8662514306
 21
79.2607157137
 31
0.0
  0
ARC
  5
2C2
330
1F
100
AcDbEntity
  8
0
  6
Continuous
 62
     7
370
    15
100
AcDbCircle
 10
78.3202357318
 20
90.7764308853
 30
0.0
 40
1.069235334671605
100
AcDbArc
 50
2.1234205931
 51
21.8110728285
  0
LINE
  5
2C3
330
1F
100
AcDbEntity
  8
0
  6
Continuous
 62
     7
370
    15
100
AcDbLine
 10
74.6155716406
 20
90.6468233671
 30
0.0
 11
74.6068388616
 21
90.659038594
 31
0.0
  0
LINE
  5
2C4
330
1F
100
AcDbEntity
  8
0
  6
Continuous
 62
     7
370
    15
100
AcDbLine
 10
75.5042822493
 20
81.254498532
 30
0.0
 11
74.7388004019
 21
87.948159745
 31
0.0
  0
LINE
  5
2C5
330
1F
100
AcDbEntity
  8
0
  6
Continuous
 62
     7
370
    15
100
AcDbLine
 10
79.3129288285
 20
91.1737023499
 30
0.0
 11
79.23633686
 21
91.2252231147
 31
0.0
  0
LINE
  5
2C6
330
1F
100
AcDbEntity
  8
0
  6
Continuous
 62
     7
370
    15
100
AcDbLine
 10
73.4984987575
 20
91.2208607998
 30
0.0
 11
73.2453759919
 21
91.5748974886
 31
0.0
  0
LINE
  5
2C7
330
1F
100
AcDbEntity
  8
0
  6
Continuous
 62
     7
370
    15
100
AcDbLine
 10
74.1671484356
 20
90.3670764174
 30
0.0
 11
73.4984987575
 21
91.2208607998
 31
0.0
  0
ARC
  5
2C8
330
1F
100
AcDbEntity
  8
0
  6
Continuous
 62
     7
370
    15
100
AcDbCircle
 10
73.2947170723
 20
80.7086137631
 30
0.0
 40
2.275998341881922
100
AcDbArc
 50
346.1879197296
 51
13.8773390753
  0
LINE
  5
2C9
330
1F
100
AcDbEntity
  8
0
  6
Continuous
 62
     7
370
    15
100
AcDbLine
 10
73.7879389125
 20
88.2656066324
 30
0.0
 11
74.5534206434
 21
81.5719454195
 31
0.0
  0
ARC
  5
2CA
330
1F
100
AcDbEntity
  8
0
  6
Continuous
 62
     7
370
    15
100
AcDbCircle
 10
75.9975012276
 20
88.8114917541
 30
0.0
 40
2.275995648118526
100
AcDbArc
 50
166.1879122012
 51
193.8773649744
  0
LINE
  5
2CB
330
1F
100
AcDbEntity
  8
0
  6
Continuous
 62
     7
370
    15
100
AcDbLine
 10
74.5492800997
 20
88.8422852959
 30
0.0
 11
73.7873184189
 21
89.354859164
 31
0.0
  0
ARC
  5
2CC
330
1F
100
AcDbEntity
  8
0
  6
Continuous
 62
     7
370
    15
100
AcDbCircle
 10
72.0676533565
 20
87.8491273749
 30
0.0
 40
2.672982220057829
100
AcDbArc
 50
2.1232598201
 51
21.8115042725
  0
LINE
  5
2CD
330
1F
100
AcDbEntity
  8
0
  6
Continuous
 62
     7
370
    15
100
AcDbLine
 10
74.7429410621
 20
80.6778198685
 30
0.0
 11
75.5049025683
 21
80.1652460005
 31
0.0
  0
ARC
  5
2CE
330
1F
100
AcDbEntity
  8
0
  6
Continuous
 62
     7
370
    15
100
AcDbCircle
 10
77.2245330091
 20
81.6709707619
 30
0.0
 40
2.672947303731433
100
AcDbArc
 50
182.1231368239
 51
201.8116415471
  0
LWPOLYLINE
  5
2CF
330
1F
100
AcDbEntity
  8
0
  6
Continuous
 62
     7
370
    15
100
AcDbPolyline
 90
       27
 70
   128
 43
0.0
 10
74.8913920178
 20
82.2014934029
 10
74.9538312593
 20
82.2290419247
 10
74.9983868954
 20
82.4036835339
 10
75.0224695002
 20
82.7152705397
 10
75.0246794123
 20
83.1456905808
 10
75.0048883419
 20
83.6699357834
 10
74.9642464725
 20
84.2575295474
 10
74.9051156381
 20
84.8743295874
 10
74.8309323025
 20
85.4844911601
 10
74.7460079073
 20
86.0525457766
 10
74.6552777636
 20
86.5454873647
 10
74.5640149034
 20
86.9346684422
 10
74.4775230923
 20
87.197465321
 10
74.4008290275
 20
87.3186117615
 10
74.3383897861
 20
87.2910632398
 10
74.2938342664
 20
87.1164179053
 10
74.2697516616
 20
86.8048346247
 10
74.2675416331
 20
86.3744108584
 10
74.2873327035
 20
85.8501693811
 10
74.3279746893
 20
85.2625756171
 10
74.3871055237
 20
84.6457718518
 10
74.4612887428
 20
84.0356140043
 10
74.5462132545
 20
83.4675556626
 10
74.6369432818
 20
82.9746140744
 10
74.728206142
 20
82.5854367223
 10
74.8146979531
 20
82.3226361181
 10
74.8913920178
 20
82.2014934029
  0
LINE
  5
2D0
330
1F
100
AcDbEntity
  8
0
  6
Continuous
 62
     7
370
    15
100
AcDbLine
 10
75.1717663297
 20
80.1032050159
 30
0.0
 11
75.175914033
 21
80.0722329523
 31
0.0
  0
LINE
  5
2D1
330
1F
100
AcDbEntity
  8
0
  6
Continuous
 62
     7
370
    15
100
AcDbLine
 10
74.8662514306
 20
79.2607157137
 30
0.0
 11
74.6133645225
 21
79.2008353975
 31
0.0
  0
LINE
  5
2D2
330
1F
100
AcDbEntity
  8
0
  6
Continuous
 62
     7
370
    15
100
AcDbLine
 10
73.4984987575
 20
91.2208607998
 30
0.0
 11
73.2456118494
 21
91.1609804835
 31
0.0
  0
ARC
  5
2D3
330
1F
100
AcDbEntity
  8
0
  6
Continuous
 62
     7
370
    15
100
AcDbCircle
 10
80.8332651727
 20
79.9209224306
 30
0.0
 40
2.620474391938508
100
AcDbArc
 50
348.5010925209
 51
12.5564358136
  0
LINE
  5
2D4
330
1F
100
AcDbEntity
  8
0
  6
Continuous
 62
     7
370
    15
100
AcDbLine
 10
83.3910639557
 20
80.4906165805
 30
0.0
 11
82.2853679928
 21
90.1592387464
 31
0.0
  0
ARC
  5
2D5
330
1F
100
AcDbEntity
  8
0
  6
Continuous
 62
     7
370
    15
100
AcDbCircle
 10
81.5649452053
 20
80.0730860046
 30
0.0
 40
2.136092807791272
100
AcDbArc
 50
350.8318205785
 51
11.3243438154
  0
LINE
  5
2D6
330
1F
100
AcDbEntity
  8
0
  6
Continuous
 62
     7
370
    15
100
AcDbLine
 10
82.5537551354
 20
90.1611535456
 30
0.0
 11
83.6594510983
 21
80.492535105
 31
0.0
  0
ARC
  5
2D7
330
1F
100
AcDbEntity
  8
0
  6
Continuous
 62
     7
370
    15
100
AcDbCircle
 10
78.8254120639
 20
89.9387640671
 30
0.0
 40
3.466973336299184
100
AcDbArc
 50
3.6460616138
 51
18.1665662614
  0
LINE
  5
2D8
330
1F
100
AcDbEntity
  8
0
  6
Continuous
 62
     7
370
    15
100
AcDbLine
 10
82.1349850084
 20
91.0213156249
 30
0.0
 11
82.4210910286
 21
90.7870432939
 31
0.0
  0
ARC
  5
2D9
330
1F
100
AcDbEntity
  8
0
  6
Continuous
 62
     7
370
    15
100
AcDbCircle
 10
80.6839981875
 20
90.0918429931
 30
0.0
 40
1.871041153207108
100
AcDbArc
 50
2.1229415143
 51
21.8117350444
  0
SPLINE
  5
2DA
330
1F
100
AcDbEntity
  8
0
  6
Continuous
 62
     7
370
    15
100
AcDbSpline
210
0.0
220
0.0
230
1.0
 70
     8
 71
     3
 72
    35
 73
    31
 74
     0
 42
0.00000001
 43
0.00000001
 40
0.0
 40
0.0
 40
0.0
 40
0.0
 40
0.027696692152335
 40
0.0553532710620509
 40
0.0829780107159008
 40
0.1105792137339257
 40
0.138165203987803
 40
0.165744319123669
 40
0.1933249030227322
 40
0.2209152982336514
 40
0.2485238384109542
 40
0.2761588407936989
 40
0.3038285987581707
 40
0.3315413744776134
 40
0.3593053917208976
 40
0.3871288288205829
 40
0.4150198118391238
 40
0.4429864079599683
 40
0.4710366191281213
 40
0.4991783759623159
 40
0.5497785171988775
 40
0.6001373626671125
 40
0.6503015541368777
 40
0.7003182779392714
 40
0.7502351386100181
 40
0.8001000266948082
 40
0.8499609824957409
 40
0.899866057670962
 40
0.9498631766709064
 40
0.9999999999999999
 40
0.9999999999999999
 40
0.9999999999999999
 40
0.9999999999999999
 10
83.67142739700012
 20
80.27914100049676
 30
0.0
 10
83.87703907307329
 20
80.32374259529507
 30
0.0
 10
84.28796463691327
 20
80.41288118820322
 30
0.0
 10
84.9008007749047
 20
80.55998490755535
 30
0.0
 10
85.51037410992684
 20
80.71676078493253
 30
0.0
 10
86.1164712370129
 20
80.88417508180024
 30
0.0
 10
86.7191490314714
 20
81.06196926929499
 30
0.0
 10
87.31839205692266
 20
81.25021249771955
 30
0.0
 10
87.91420423624356
 20
81.4488861920365
 30
0.0
 10
88.50658431275549
 20
81.65799525489788
 30
0.0
 10
89.0955324234664
 20
81.87753828492463
 30
0.0
 10
89.68104833880378
 20
82.10751555680035
 30
0.0
 10
90.2631319363618
 20
82.34792688361314
 30
0.0
 10
90.8417830719442
 20
82.59877218798833
 30
0.0
 10
91.41700162602953
 20
82.86005136085119
 30
0.0
 10
91.9887874511526
 20
83.13176425881895
 30
0.0
 10
92.55714054011047
 20
83.41391086139623
 30
0.0
 10
93.12206040679993
 20
83.70649064758878
 30
0.0
 10
93.68354840629586
 20
84.00950494672722
 30
0.0
 10
94.38937807669647
 20
84.40595194162583
 30
0.0
 10
95.23119022520481
 20
84.90509569418494
 30
0.0
 10
96.19814518145249
 20
85.51913150518348
 30
0.0
 10
97.14194642523002
 20
86.16012390002845
 30
0.0
 10
98.0625822403596
 20
86.82807304155757
 30
0.0
 10
98.96006329762065
 20
87.52296722488335
 30
0.0
 10
99.83434137886496
 20
88.24484598621915
 30
0.0
 10
100.6855822024254
 20
88.99355376046758
 30
0.0
 10
101.513155353694
 20
89.76966257648029
 30
0.0
 10
102.3194083351602
 20
90.5710220730992
 30
0.0
 10
102.8359451828465
 20
91.12650800018243
 30
0.0
 10
103.0945739362248
 20
91.4046384636416
 30
0.0
  0
LINE
  5
2DB
330
1F
100
AcDbEntity
  8
0
  6
Continuous
 62
     7
370
    15
100
AcDbLine
 10
103.0945746388
 20
91.4057395067
 30
0.0
 11
103.0945746388
 21
90.7864174452
 31
0.0
  0
SPLINE
  5
2DC
330
1F
100
AcDbEntity
  8
0
  6
Continuous
 62
     7
370
    15
100
AcDbSpline
210
0.0
220
0.0
230
1.0
 70
     8
 71
     3
 72
    47
 73
    43
 74
     0
 42
0.00000001
 43
0.00000001
 40
0.0
 40
0.0
 40
0.0
 40
0.0
 40
0.0261546740939018
 40
0.0522484738193394
 40
0.0782815218584849
 40
0.1042539417544598
 40
0.130165857917634
 40
0.1560173956319577
 40
0.1818086810613216
 40
0.2075398412559558
 40
0.2332110041588505
 40
0.2588222986122162
 40
0.2843738543639724
 40
0.3098658020742619
 40
0.3352982733219999
 40
0.360671400611452
 40
0.3859853173788397
 40
0.4112401579989738
 40
0.4364360577919189
 40
0.4615731530296818
 40
0.4866515809429296
 40
0.5116714797277359
 40
0.536632988552346
 40
0.561536247563976
 40
0.5863813978956305
 40
0.6111685816729483
 40
0.6358979420210696
 40
0.6605696230715274
 40
0.6851837699691595
 40
0.7097405288790432
 40
0.7342400469934515
 40
0.7586824725388265
 40
0.7830679547827762
 40
0.8073966440410846
 40
0.8316686916847444
 40
0.8558842501470034
 40
0.8800434729304261
 40
0.9041465146139746
 40
0.9281935308600974
 40
0.9521846784218367
 40
0.9761201151499413
 40
1.0
 40
1.0
 40
1.0
 40
1.0
 10
103.0946456788359
 20
90.78923680589486
 30
0.0
 10
102.9591590699615
 20
90.6457244380361
 30
0.0
 10
102.6885011940031
 20
90.35903372386781
 30
0.0
 10
102.2744358548212
 20
89.93769229416563
 30
0.0
 10
101.8552300968632
 20
89.52343694361356
 30
0.0
 10
101.430406842018
 20
89.1169048224004
 30
0.0
 10
101.0002746044739
 20
88.71799599208951
 30
0.0
 10
100.5649322317316
 20
88.3268038570959
 30
0.0
 10
100.1245345903312
 20
87.9433667490383
 30
0.0
 10
99.67922156322146
 20
87.56773428017165
 30
0.0
 10
99.2291369483107
 20
87.19994965024677
 30
0.0
 10
98.7744233531715
 20
86.84005439581435
 30
0.0
 10
98.31522350002567
 20
86.48808714800063
 30
0.0
 10
97.85167982005918
 20
86.14408399096021
 30
0.0
 10
97.38393450546978
 20
85.80807839376715
 30
0.0
 10
96.9121294402643
 20
85.48010125701575
 30
0.0
 10
96.43640616440713
 20
85.16018092957918
 30
0.0
 10
95.95690583004561
 20
84.84834323409801
 30
0.0
 10
95.47376916083829
 20
84.54461149087317
 30
0.0
 10
94.98713641144636
 20
84.24900654289576
 30
0.0
 10
94.49714732797804
 20
83.9615467812585
 30
0.0
 10
94.00394110917799
 20
83.68224817112554
 30
0.0
 10
93.50765636842085
 20
83.41112427818888
 30
0.0
 10
93.00843109649573
 20
83.1481862956057
 30
0.0
 10
92.50640262518701
 20
82.89344307139291
 30
0.0
 10
92.00170759165127
 20
82.6469011362653
 30
0.0
 10
91.49448190359504
 20
82.40856473187962
 30
0.0
 10
90.98486070523826
 20
82.17843583953601
 30
0.0
 10
90.47297834412166
 20
81.95651420905602
 30
0.0
 10
89.95896833854195
 20
81.74279738879464
 30
0.0
 10
89.44296334641692
 20
81.53728075313946
 30
0.0
 10
88.92509513259283
 20
81.33995754097091
 30
0.0
 10
88.40549454570201
 20
81.15081885489333
 30
0.0
 10
87.88429146325153
 20
80.96985380780833
 30
0.0
 10
87.36161485860293
 20
80.79704912288358
 30
0.0
 10
86.8375924183674
 20
80.63239076764405
 30
0.0
 10
86.31235183554118
 20
80.475858024298
 30
0.0
 10
85.78601587420695
 20
80.32744569111598
 30
0.0
 10
85.25872060174741
 20
80.18708166423991
 30
0.0
 10
84.73054746361332
 20
80.05493360581397
 30
0.0
 10
84.20177578608804
 20
79.930268579323
 30
0.0
 10
83.84814426256368
 20
79.8537970462142
 30
0.0
 10
83.67153392549194
 20
79.81560570200332
 30
0.0
  0
LINE
  5
2DD
330
1F
100
AcDbEntity
  8
0
  6
Continuous
 62
     7
370
    15
100
AcDbLine
 10
82.4390599664
 20
91.0532786157
 30
0.0
 11
79.5311831097
 21
90.747648349
 31
0.0
  0
LINE
  5
2DE
330
1F
100
AcDbEntity
  8
0
  6
Continuous
 62
     7
370
    15
100
AcDbLine
 10
79.5311831097
 20
90.747648349
 30
0.0
 11
79.4737144533
 21
91.2501751091
 31
0.0
  0
LINE
  5
2DF
330
1F
100
AcDbEntity
  8
0
  6
Continuous
 62
     7
370
    15
100
AcDbLine
 10
79.4737144533
 20
91.2501751091
 30
0.0
 11
74.8250676479
 21
90.7615809347
 31
0.0
  0
LINE
  5
2E0
330
1F
100
AcDbEntity
  8
0
  6
Continuous
 62
     7
370
    15
100
AcDbLine
 10
74.8250676479
 20
90.7615809347
 30
0.0
 11
71.5668146658
 21
119.2529718038
 31
0.0
  0
LINE
  5
2E1
330
1F
100
AcDbEntity
  8
0
  6
Continuous
 62
     7
370
    15
100
AcDbLine
 10
103.0945746388
 20
122.5666727633
 30
0.0
 11
71.5668146658
 21
119.2529718038
 31
0.0
  0
LINE
  5
2E2
330
1F
100
AcDbEntity
  8
0
  6
Continuous
 62
     7
370
    15
100
AcDbLine
 10
103.0945746388
 20
91.4046368208
 30
0.0
 11
103.0945746388
 21
122.5666727633
 31
0.0
  0
LINE
  5
2E3
330
1F
100
AcDbEntity
  8
0
  6
Continuous
 62
     7
370
    15
100
AcDbLine
 10
82.4980597171
 20
90.5373631623
 30
0.0
 11
82.4390599664
 21
91.0532786157
 31
0.0
  0
SPLINE
  5
2E4
330
1F
100
AcDbEntity
  8
0
  6
Continuous
 62
     7
370
    15
100
AcDbSpline
210
0.0
220
0.0
230
1.0
 70
     8
 71
     3
 72
    10
 73
     6
 74
     0
 42
0.00000001
 43
0.00000001
 40
0.0
 40
0.0
 40
0.0
 40
0.0
 40
0.5
 40
0.5
 40
1.0
 40
1.0
 40
1.0
 40
1.0
 10
71.49885063250815
 20
96.58090547165092
 30
0.0
 10
71.4700019939941
 20
96.79886710660654
 30
0.0
 10
71.43652457272854
 20
96.99371899801518
 30
0.0
 10
71.37040966434604
 20
97.27783529175102
 30
0.0
 10
71.33844328546688
 20
97.36292181486233
 30
0.0
 10
71.31409663308176
 20
97.36747594079175
 30
0.0
  0
LINE
  5
2E5
330
1F
100
AcDbEntity
  8
0
  6
Continuous
 62
     7
370
    15
100
AcDbLine
 10
71.2999118287
 20
97.3701333324
 30
0.0
 11
71.3140966331
 21
97.3674759408
 31
0.0
  0
LINE
  5
2E6
330
1F
100
AcDbEntity
  8
0
  6
Continuous
 62
     7
370
    15
100
AcDbLine
 10
66.1050161922
 20
146.9285657267
 30
0.0
 11
66.0916938626
 21
146.9230172188
 31
0.0
  0
SPLINE
  5
2E7
330
1F
100
AcDbEntity
  8
0
  6
Continuous
 62
     7
370
    15
100
AcDbSpline
210
0.0
220
0.0
230
1.0
 70
     8
 71
     3
 72
    10
 73
     6
 74
     0
 42
0.00000001
 43
0.00000001
 40
0.0
 40
0.0
 40
0.0
 40
0.0
 40
0.5
 40
0.5
 40
1.0
 40
1.0
 40
1.0
 40
1.0
 10
66.10501619219929
 20
146.9285657267091
 30
0.0
 10
66.12787657742717
 20
146.9380792171706
 30
0.0
 10
66.14138926852783
 20
147.0262620631776
 30
0.0
 10
66.14710382628779
 20
147.319825372794
 30
0.0
 10
66.13928869377399
 20
147.5172345206019
 30
0.0
 10
66.12219567727847
 20
147.7363602603077
 30
0.0
  0
LINE
  5
2E8
330
1F
100
AcDbEntity
  8
0
  6
Continuous
 62
     7
370
    15
100
AcDbLine
 10
66.1011111151
 20
148.006695753
 30
0.0
 11
66.1221953268
 21
147.7363607492
 31
0.0
  0
ARC
  5
2E9
330
1F
100
AcDbEntity
  8
0
  6
Continuous
 62
     7
370
    15
100
AcDbCircle
 10
76.0945739384
 20
122.9242174532
 30
0.0
 40
26.99999999999994
100
AcDbArc
 50
111.0862435878
 51
111.7235263906
  0
LINE
  5
2EA
330
1F
100
AcDbEntity
  8
0
  6
Continuous
 62
     7
370
    15
100
AcDbLine
 10
71.5668146658
 20
119.2529718038
 30
0.0
 11
66.3807081218
 21
148.1162956562
 31
0.0
  0
ARC
  5
2EB
330
1F
100
AcDbEntity
  8
0
  6
Continuous
 62
     7
370
    15
100
AcDbCircle
 10
93.4776067942
 20
91.456184396
 30
0.0
 40
20.17316102125791
100
AcDbArc
 50
183.0748776412
 51
189.9730452841
  0
LWPOLYLINE
  5
2EC
330
1F
100
AcDbEntity
  8
0
  6
Continuous
 62
     7
370
    15
100
AcDbPolyline
 90
        3
 70
   128
 43
0.0
 10
73.3588758084
 20
91.6083878484
 10
73.3768554564
 20
91.6615067627
 10
73.437771869
 20
91.6948183086
  0
SPLINE
  5
2ED
330
1F
100
AcDbEntity
  8
0
  6
Continuous
 62
     7
370
    15
100
AcDbSpline
210
0.0
220
0.0
230
1.0
 70
     8
 71
     3
 72
     8
 73
     4
 74
     0
 42
0.00000001
 43
0.00000001
 40
0.0
 40
0.0
 40
0.0
 40
0.0
 40
1.0
 40
1.0
 40
1.0
 40
1.0
 10
71.49885063250815
 20
96.58090547165092
 30
0.0
 10
72.20048350499728
 20
91.27982174973
 30
0.0
 10
72.90451217444047
 20
85.98724061807083
 30
0.0
 10
73.60900692106321
 20
80.69631357620472
 30
0.0
  0
ARC
  5
2EE
330
1F
100
AcDbEntity
  8
0
  6
Continuous
 62
     7
370
    15
100
AcDbCircle
 10
65.4240220299
 20
94.764520882
 30
0.0
 40
8.453836997648121
100
AcDbArc
 50
346.3588949615
 51
13.5754986486
  0
ARC
  5
2EF
330
1F
100
AcDbEntity
  8
0
  6
Continuous
 62
     7
370
    15
100
AcDbCircle
 10
63.9620402434
 20
96.7859928165
 30
0.0
 40
9.679702189966967
100
AcDbArc
 50
359.7802044038
 51
24.0250525794
  0
LINE
  5
2F0
330
1F
100
AcDbEntity
  8
0
  6
Continuous
 62
     7
370
    15
100
AcDbLine
 10
73.437771869
 20
91.6948183086
 30
0.0
 11
74.8250676479
 21
90.7615809347
 31
0.0
  0
LINE
  5
2F1
330
1F
100
AcDbEntity
  8
0
  6
Continuous
 62
     7
370
    15
100
AcDbLine
 10
73.6090069331
 20
80.6963122096
 30
0.0
 11
74.5095056408
 21
80.0905464794
 31
0.0
  0
LINE
  5
2F2
330
1F
100
AcDbEntity
  8
0
  6
Continuous
 62
     7
370
    15
100
AcDbLine
 10
79.3852090064
 20
90.845843276
 30
0.0
 11
79.5311831097
 21
90.747648349
 31
0.0
  0
LINE
  5
2F3
330
1F
100
AcDbEntity
  8
0
  6
Continuous
 62
     7
370
    15
100
AcDbLine
 10
103.0945746388
 20
122.5666727633
 30
0.0
 11
103.0945746388
 21
122.9242174532
 31
0.0
  0
ARC
  5
2F4
330
1F
100
AcDbEntity
  8
0
  6
Continuous
 62
     7
370
    15
100
AcDbCircle
 10
76.0945739384
 20
122.9242174532
 30
0.0
 40
27.00000000000004
100
AcDbArc
 50
0.0
 51
111.0862435878
  0
SPLINE
  5
2F5
330
1F
100
AcDbEntity
  8
0
  6
Continuous
 62
     7
370
    15
100
AcDbSpline
210
0.0
220
0.0
230
1.0
 70
     8
 71
     3
 72
    20
 73
    16
 74
     0
 42
0.00000001
 43
0.00000001
 40
0.0
 40
0.0
 40
0.0
 40
0.0
 40
0.2499999999999982
 40
0.2499999999999982
 40
0.3749999999999984
 40
0.3749999999999984
 40
0.4999999999999988
 40
0.4999999999999988
 40
0.6249999999999991
 40
0.6249999999999991
 40
0.7499999999999993
 40
0.7499999999999993
 40
0.8749999999999997
 40
0.8749999999999997
 40
1.0
 40
1.0
 40
1.0
 40
1.0
 10
71.29991182873502
 20
97.37013333239578
 30
0.0
 10
71.23234714935704
 20
97.38281035915338
 30
0.0
 10
71.06787912997707
 20
97.41339050816255
 30
0.0
 10
70.67943678429553
 20
97.49404290345214
 30
0.0
 10
70.52813865606609
 20
97.52647784509881
 30
0.0
 10
70.18813776715209
 20
97.60338826637651
 30
0.0
 10
69.99888882823599
 20
97.64796880846372
 30
0.0
 10
69.58218246107715
 20
97.75211226195916
 30
0.0
 10
69.35673247411944
 20
97.81123781453053
 30
0.0
 10
68.88379100459775
 20
97.94292718605037
 30
0.0
 10
68.63490905792445
 20
98.01582743495369
 30
0.0
 10
68.11365921267293
 20
98.17791482895456
 30
0.0
 10
67.8418718807271
 20
98.26700960952346
 30
0.0
 10
67.29106838026853
 20
98.4582557965039
 30
0.0
 10
67.01026756901726
 20
98.5609428374185
 30
0.0
 10
66.72462184195928
 20
98.67130015013443
 30
0.0
  0
SPLINE
  5
2F6
330
1F
100
AcDbEntity
  8
0
  6
Continuous
 62
     7
370
    15
100
AcDbSpline
210
0.0
220
0.0
230
1.0
 70
     8
 71
     3
 72
    20
 73
    16
 74
     0
 42
0.00000001
 43
0.00000001
 40
0.0
 40
0.0
 40
0.0
 40
0.0
 40
0.25
 40
0.25
 40
0.375
 40
0.375
 40
0.5
 40
0.5
 40
0.625
 40
0.625
 40
0.75
 40
0.75
 40
0.875
 40
0.875
 40
1.0
 40
1.0
 40
1.0
 40
1.0
 10
61.8869127325288
 20
144.6990277407686
 30
0.0
 10
62.40002552038678
 20
145.0338243499707
 30
0.0
 10
62.89795728694561
 20
145.3328690574298
 30
0.0
 10
63.61253723313798
 20
145.733718743894
 30
0.0
 10
63.84477060243274
 20
145.8589640167811
 30
0.0
 10
64.28007154072576
 20
146.0862081880427
 30
0.0
 10
64.48530207857031
 20
146.1894352933849
 30
0.0
 10
64.8688100442356
 20
146.3768885006347
 30
0.0
 10
65.04852695291855
 20
146.4617551493085
 30
0.0
 10
65.36745503874597
 20
146.6088064281831
 30
0.0
 10
65.50745364478912
 20
146.6714302585863
 30
0.0
 10
65.74778156791854
 20
146.7771233511791
 30
0.0
 10
65.84859410291924
 20
146.8203907481698
 30
0.0
 10
66.00479447346005
 20
146.8867622112425
 30
0.0
 10
66.05993948974857
 20
146.9097817575929
 30
0.0
 10
66.09169386264287
 20
146.9230172188262
 30
0.0
  0
ELLIPSE
  5
2F7
330
1F
100
AcDbEntity
  8
0
  6
Continuous
 62
     7
370
    15
100
AcDbEllipse
 10
62.3017204489
 20
107.5030872151
 30
0.0
 11
-2.240070073110062
 21
3.090624061489649
 31
0.0
210
0.0
220
0.0
230
1.0
 40
0.6384782664
 41
0.0
 42
6.283185307179586
  0
ARC
  5
2F8
330
1F
100
AcDbEntity
  8
0
  6
Continuous
 62
     7
370
    15
100
AcDbCircle
 10
76.0945739384
 20
122.9242174532
 30
0.0
 40
26.00000000000001
100
AcDbArc
 50
123.1237052762
 51
248.8762947238
  0
LINE
  5
2F9
330
1F
100
AcDbEntity
  8
0
  6
Continuous
 62
     7
370
    15
100
AcDbLine
 10
71.5063811439
 20
96.5242175963
 30
0.0
 11
70.4341853197
 21
96.5242175963
 31
0.0
  0
SPLINE
  5
2FA
330
1F
100
AcDbEntity
  8
0
  6
Continuous
 62
     7
370
    15
100
AcDbSpline
210
0.0
220
0.0
230
1.0
 70
    24
 71
     3
 72
    10
 73
     6
 74
     0
 42
0.00000001
 43
0.00000001
 40
0.0
 40
0.0
 40
0.0
 40
0.0
 40
0.5
 40
0.5
 40
1.0
 40
1.0
 40
1.0
 40
1.0
 10
67.09457393841197
 20
93.36394005262457
 30
0.0
 10
67.09457393841197
 20
93.20405278443091
 30
0.0
 10
67.09457393841197
 20
93.04292552891633
 30
0.0
 10
67.09457393841197
 20
92.80882653056149
 30
0.0
 10
67.09457393841197
 20
92.73729975697027
 30
0.0
 10
67.09457393841197
 20
92.73729975697027
 30
0.0
  0
ARC
  5
2FB
330
1F
100
AcDbEntity
  8
0
  6
Continuous
 62
     7
370
    15
100
AcDbCircle
 10
76.0945739384
 20
122.9242174532
 30
0.0
 40
31.5
100
AcDbArc
 50
140.9381656697
 51
253.398450401
  0
SPLINE
  5
2FC
330
1F
100
AcDbEntity
  8
0
  6
Continuous
 62
     7
370
    15
100
AcDbSpline
210
0.0
220
0.0
230
1.0
 70
    24
 71
     3
 72
    12
 73
     8
 74
     0
 42
0.00000001
 43
0.00000001
 40
0.0
 40
0.0
 40
0.0
 40
0.0
 40
0.2499999999999993
 40
0.2499999999999993
 40
0.4999999999999987
 40
0.4999999999999987
 40
1.0
 40
1.0
 40
1.0
 40
1.0
 10
51.63588427604435
 20
142.7742174532174
 30
0.0
 10
51.63588427604436
 20
142.7742174532174
 30
0.0
 10
51.66371399634784
 20
142.7742174532174
 30
0.0
 10
51.7588564576045
 20
142.7742174532174
 30
0.0
 10
51.82527927390488
 20
142.7742174532174
 30
0.0
 10
52.04947870542499
 20
142.7742174532174
 30
0.0
 10
52.23346510797059
 20
142.7742174532174
 30
0.0
 10
52.41362167715358
 20
142.7742174532174
 30
0.0
  0
SPLINE
  5
2FD
330
1F
100
AcDbEntity
  8
0
  6
Continuous
 62
     7
370
    15
100
AcDbSpline
210
0.0
220
0.0
230
1.0
 70
    24
 71
     3
 72
    10
 73
     6
 74
     0
 42
0.00000001
 43
0.00000001
 40
0.0
 40
0.0
 40
0.0
 40
0.0
 40
0.5
 40
0.5
 40
1.0
 40
1.0
 40
1.0
 40
1.0
 10
68.09457393841197
 20
152.7706577769813
 30
0.0
 10
68.09457393841197
 20
152.9310630433321
 30
0.0
 10
68.09457393841197
 20
153.0901248563207
 30
0.0
 10
68.09457393841197
 20
153.321037321951
 30
0.0
 10
68.09457393841197
 20
153.3914129263816
 30
0.0
 10
68.09457393841197
 20
153.3914129263816
 30
0.0
  0
SPLINE
  5
2FE
330
1F
100
AcDbEntity
  8
0
  6
Continuous
 62
     7
370
    15
100
AcDbSpline
210
0.0
220
0.0
230
1.0
 70
    24
 71
     3
 72
    12
 73
     8
 74
     0
 42
0.00000001
 43
0.00000001
 40
0.0
 40
0.0
 40
0.0
 40
0.0
 40
0.2500000000000007
 40
0.2500000000000007
 40
0.5000000000000013
 40
0.5000000000000013
 40
1.0
 40
1.0
 40
1.0
 40
1.0
 10
56.24457393841195
 20
147.3829071155849
 30
0.0
 10
56.24457393841195
 20
147.3829071155849
 30
0.0
 10
56.24457393841195
 20
147.3546874169969
 30
0.0
 10
56.24457393841195
 20
147.2602444097489
 30
0.0
 10
56.24457393841195
 20
147.1939574330435
 30
0.0
 10
56.24457393841195
 20
146.9683326097553
 30
0.0
 10
56.24457393841195
 20
146.7859063467227
 30
0.0
 10
56.24457393841195
 20
146.6051697144758
 30
0.0
  0
ARC
  5
2FF
330
1F
100
AcDbEntity
  8
0
  6
Continuous
 62
     7
370
    15
100
AcDbCircle
 10
76.0945739384
 20
122.9242174532
 30
0.0
 40
31.5
100
AcDbArc
 50
104.7124579609
 51
129.0618343303
  0
SPLINE
  5
300
330
1F
100
AcDbEntity
  8
0
  6
Continuous
 62
     7
370
    15
100
AcDbSpline
210
0.0
220
0.0
230
1.0
 70
    24
 71
     3
 72
    12
 73
     8
 74
     0
 42
0.00000001
 43
0.00000001
 40
0.0
 40
0.0
 40
0.0
 40
0.0
 40
0.2499999999999999
 40
0.2499999999999999
 40
0.4999999999999998
 40
0.4999999999999998
 40
1.0
 40
1.0
 40
1.0
 40
1.0
 10
84.09457393841197
 20
153.3914129263816
 30
0.0
 10
84.09457393841197
 20
153.3914129263816
 30
0.0
 10
84.09457393841197
 20
153.3744101764209
 30
0.0
 10
84.09457393841197
 20
153.3103496353092
 30
0.0
 10
84.09457393841197
 20
153.2631910196706
 30
0.0
 10
84.09457393841197
 20
153.0899689869784
 30
0.0
 10
84.09457393841197
 20
152.9298598967441
 30
0.0
 10
84.09457393841197
 20
152.7706577769807
 30
0.0
  0
ARC
  5
301
330
1F
100
AcDbEntity
  8
0
  6
Continuous
 62
     7
370
    15
100
AcDbCircle
 10
76.0945739384
 20
122.9242174532
 30
0.0
 40
31.49999999999999
100
AcDbArc
 50
328.9972808661
 51
75.2875420391
  0
LINE
  5
302
330
1F
100
AcDbEntity
  8
0
  6
Continuous
 62
     7
370
    15
100
AcDbLine
 10
84.0945743184
 20
152.7706584539
 30
0.0
 11
84.0945743184
 21
149.3242173102
 31
0.0
  0
LINE
  5
303
330
1F
100
AcDbEntity
  8
0
  6
Continuous
 62
     7
370
    15
100
AcDbLine
 10
84.0945743184
 20
149.3242173102
 30
0.0
 11
81.7549625571
 21
149.3242173102
 31
0.0
  0
LINE
  5
304
330
1F
100
AcDbEntity
  8
0
  6
Continuous
 62
     7
370
    15
100
AcDbLine
 10
68.0945735584
 20
149.3242173102
 30
0.0
 11
68.0945735584
 21
152.7706584539
 31
0.0
  0
LINE
  5
305
330
1F
100
AcDbEntity
  8
0
  6
Continuous
 62
     7
370
    15
100
AcDbLine
 10
67.0945743258
 20
96.5242175963
 30
0.0
 11
67.0945743258
 21
93.3639402147
 31
0.0
  0
LINE
  5
306
330
1F
100
AcDbEntity
  8
0
  6
Continuous
 62
     7
370
    15
100
AcDbLine
 10
56.2445731993
 20
146.6051688995
 30
0.0
 11
56.2445731993
 21
142.7742181923
 31
0.0
  0
LINE
  5
307
330
1F
100
AcDbEntity
  8
0
  6
Continuous
 62
     7
370
    15
100
AcDbLine
 10
52.4136224921
 20
142.7742181923
 30
0.0
 11
56.2445731993
 21
142.7742181923
 31
0.0
  0
LINE
  5
308
330
1F
100
AcDbEntity
  8
0
  6
Continuous
 62
     7
370
    15
100
AcDbLine
 10
70.4341853197
 20
149.3242173102
 30
0.0
 11
68.0945735584
 21
149.3242173102
 31
0.0
  0
LINE
  5
309
330
1F
100
AcDbEntity
  8
0
  6
Continuous
 62
     7
370
    15
100
AcDbLine
 10
70.4341853197
 20
96.5242175963
 30
0.0
 11
67.0945743258
 21
96.5242175963
 31
0.0
  0
SPLINE
  5
30A
330
1F
100
AcDbEntity
  8
0
  6
Continuous
 62
     7
370
    15
100
AcDbSpline
210
0.0
220
0.0
230
1.0
 70
     8
 71
     3
 72
    15
 73
    11
 74
     0
 42
0.00000001
 43
0.00000001
 40
0.0
 40
0.0
 40
0.0
 40
0.0
 40
0.1370528704185271
 40
0.2741217649399318
 40
0.4110027217987905
 40
0.5479066094026778
 40
0.6882974011759955
 40
0.8286877672596356
 40
0.9722366754856833
 40
1.0
 40
1.0
 40
1.0
 40
1.0
 10
67.0945743258422
 20
92.73729982039919
 30
0.0
 10
67.11597581775716
 20
92.73077937938385
 30
0.0
 10
67.15878130383099
 20
92.71773773498884
 30
0.0
 10
67.49146483006713
 20
92.6208258579929
 30
0.0
 10
68.014370015469
 20
92.47585849663967
 30
0.0
 10
68.73013485948753
 20
92.29364439859641
 30
0.0
 10
69.62376862480573
 20
92.08998618244476
 30
0.0
 10
70.68907321346545
 20
91.88729875460325
 30
0.0
 10
71.54727241703377
 20
91.74346022528371
 30
0.0
 10
72.06624060964862
 20
91.68597070109838
 30
0.0
 10
72.15034600080308
 20
91.6766537930726
 30
0.0
  0
SPLINE
  5
30B
330
1F
100
AcDbEntity
  8
0
  6
Continuous
 62
     7
370
    15
100
AcDbSpline
210
0.0
220
0.0
230
1.0
 70
     8
 71
     3
 72
    50
 73
    46
 74
     0
 42
0.00000001
 43
0.00000001
 40
0.0
 40
0.0
 40
0.0
 40
0.0
 40
0.0625
 40
0.0625
 40
0.0937500000000002
 40
0.0937500000000002
 40
0.1250000000000003
 40
0.1250000000000003
 40
0.1875000000000005
 40
0.1875000000000005
 40
0.2187500000000005
 40
0.2187500000000005
 40
0.2500000000000005
 40
0.2500000000000005
 40
0.3125000000000004
 40
0.3125000000000004
 40
0.3750000000000003
 40
0.3750000000000003
 40
0.4062500000000003
 40
0.4062500000000003
 40
0.4375000000000003
 40
0.4375000000000003
 40
0.5000000000000001
 40
0.5000000000000001
 40
0.5625
 40
0.5625
 40
0.6249999999999999
 40
0.6249999999999999
 40
0.65625
 40
0.65625
 40
0.6875
 40
0.6875
 40
0.71875
 40
0.71875
 40
0.75
 40
0.75
 40
0.8124999999999999
 40
0.8124999999999999
 40
0.8749999999999998
 40
0.8749999999999998
 40
0.9374999999999998
 40
0.9374999999999998
 40
0.9687499999999999
 40
0.9687499999999999
 40
1.0
 40
1.0
 40
1.0
 40
1.0
 10
68.09457393841201
 20
153.3914129263817
 30
0.0
 10
68.09457393841201
 20
153.3914129263817
 30
0.0
 10
68.14686808036508
 20
153.4052790297629
 30
0.0
 10
68.30022061519783
 20
153.4447161726469
 30
0.0
 10
68.36391811054904
 20
153.4609688749119
 30
0.0
 10
68.51700976083886
 20
153.4993175847623
 30
0.0
 10
68.60666586279967
 20
153.5214710311703
 30
0.0
 10
68.90824725097373
 20
153.5942269770324
 30
0.0
 10
69.15398868140771
 20
153.6515076798771
 30
0.0
 10
69.58914874775837
 20
153.7455001193329
 30
0.0
 10
69.74628957521955
 20
153.7783590865261
 30
0.0
 10
70.07892866794386
 20
153.8449351399743
 30
0.0
 10
70.2539946233839
 20
153.8785785778132
 30
0.0
 10
70.8048501540855
 20
153.9791394423903
 30
0.0
 10
71.20603456327217
 20
154.0457022521404
 30
0.0
 10
72.07952376935955
 20
154.17040130744
 30
0.0
 10
72.54156436234199
 20
154.2269243165106
 30
0.0
 10
73.26267977593591
 20
154.2975932511254
 30
0.0
 10
73.50824041361929
 20
154.3188694611969
 30
0.0
 10
74.0100287127775
 20
154.3561751874388
 30
0.0
 10
74.26778992909415
 20
154.3722663842988
 30
0.0
 10
75.04290239331392
 20
154.4109078559065
 30
0.0
 10
75.56333157703361
 20
154.4240972744629
 30
0.0
 10
76.61146741781897
 20
154.424335997921
 30
0.0
 10
77.14397574819273
 20
154.4109359952168
 30
0.0
 10
78.17166601035935
 20
154.3598720070216
 30
0.0
 10
78.67143019094107
 20
154.3224328722674
 30
0.0
 10
79.39992519096154
 20
154.251269389349
 30
0.0
 10
79.63927618340702
 20
154.2250009311565
 30
0.0
 10
80.10051465489389
 20
154.1693194584042
 30
0.0
 10
80.32378130996115
 20
154.1397816864683
 30
0.0
 10
80.75596891598322
 20
154.0781745414406
 30
0.0
 10
80.9648894962232
 20
154.0461035987194
 30
0.0
 10
81.3683144217469
 20
153.98028662175
 30
0.0
 10
81.56379408171627
 20
153.9463564032868
 30
0.0
 10
82.11965229525251
 20
153.8449277757065
 30
0.0
 10
82.44920968188406
 20
153.7780087470165
 30
0.0
 10
83.02860517967001
 20
153.6529831846747
 30
0.0
 10
83.28012515111438
 20
153.5944063904406
 30
0.0
 10
83.68157964772794
 20
153.4975715387956
 30
0.0
 10
83.83406264327506
 20
153.4588165792365
 30
0.0
 10
83.98937359245029
 20
153.4188890488002
 30
0.0
 10
84.02888703985643
 20
153.4085972575496
 30
0.0
 10
84.08140038715221
 20
153.3948810450107
 30
0.0
 10
84.09457393841201
 20
153.3914129263816
 30
0.0
 10
84.09457393841201
 20
153.3914129263817
 30
0.0
  0
SPLINE
  5
30C
330
1F
100
AcDbEntity
  8
0
  6
Continuous
 62
     7
370
    15
100
AcDbSpline
210
0.0
220
0.0
230
1.0
 70
     8
 71
     3
 72
    20
 73
    16
 74
     0
 42
0.00000001
 43
0.00000001
 40
0.0
 40
0.0
 40
0.0
 40
0.0
 40
0.2499999999999997
 40
0.2499999999999997
 40
0.3749999999999997
 40
0.3749999999999997
 40
0.4999999999999998
 40
0.4999999999999998
 40
0.6249999999999998
 40
0.6249999999999998
 40
0.7499999999999999
 40
0.7499999999999999
 40
0.8749999999999999
 40
0.8749999999999999
 40
1.0
 40
1.0
 40
1.0
 40
1.0
 10
51.63588427604461
 20
142.7742174532174
 30
0.0
 10
52.16654104387928
 20
143.4280798815148
 30
0.0
 10
52.70026904014081
 20
144.031865663512
 30
0.0
 10
53.48324135812956
 20
144.8587043996806
 30
0.0
 10
53.74122495822623
 20
145.1211330376335
 30
0.0
 10
54.24562021463405
 20
145.6177956917385
 30
0.0
 10
54.48839863706205
 20
145.84838257076
 30
0.0
 10
54.93907871657512
 20
146.2649367953426
 30
0.0
 10
55.14854258256639
 20
146.4524345973101
 30
0.0
 10
55.52683109915444
 20
146.7838315749465
 30
0.0
 10
55.69057878533891
 20
146.9233355624418
 30
0.0
 10
55.95876458753835
 20
147.1487890699127
 30
0.0
 10
56.0639889956251
 20
147.2354151814564
 30
0.0
 10
56.20804822093861
 20
147.3533959703105
 30
0.0
 10
56.24457393841201
 20
147.3829071155849
 30
0.0
 10
56.24457393841201
 20
147.3829071155849
 30
0.0
  0
CIRCLE
  5
30D
330
1F
100
AcDbEntity
  8
VERMASSUNG
  6
CENTERX2
100
AcDbCircle
 10
76.0945739384
 20
117.9511850667
 30
0.0
 40
40.00000000000001
  0
DIMENSION
  5
30E
330
1F
100
AcDbEntity
  8
VERMASSUNG
100
AcDbDimension
  2
*D6
 10
29.6215415519
 20
157.9511850667
 30
0.0
 11
29.6215415519
 21
117.9511850667
 31
0.0
 70
   160
  1
%%c<>
 71
     2
 42
-1.0
  3
SLDDIMSTYLE2
100
AcDbAlignedDimension
 13
76.0945739384
 23
77.9511850667
 33
0.0
 14
76.0945739384
 24
157.9511850667
 34
0.0
 50
90.0
100
AcDbRotatedDimension
  0
INSERT
  5
325
330
1F
100
AcDbEntity
  8
VERMASSUNG
100
AcDbBlockReference
  2
SW_CENTERMARKSYMBOL_0
 10
76.0945739384
 20
122.9242174532
 30
0.0
  0
OLE2FRAME
  5
326
330
1F
100
AcDbEntity
  8
0
100
AcDbOle2Frame
 70
     2
  3
Bitmap Image
 10
13.8511154363
 20
38.264191557
 30
0.0
 11
51.6290888628
 21
31.9806341108
 31
0.0
 71
     2
 72
     0
 73
     1
 90
    12928
310
80552BED0767C5B32B40DDAF6807D121434000000000000000006FFBDDFB85D0
310
4940DDAF6807D121434000000000000000006FFBDDFB85D04940416F4BD60AFB
310
3F4000000000000000002BED0767C5B32B40416F4BD60AFB3F40000000000000
310
0000000000000100000000010000010000000100000000000100000000320000
310
D0CF11E0A1B11AE1000000000000000000000000000000003E000300FEFF0900
310
0600000000000000000000000100000001000000000000000010000002000000
310
01000000FEFFFFFF0000000000000000FFFFFFFFFFFFFFFFFFFFFFFFFFFFFFFF
310
FFFFFFFFFFFFFFFFFFFFFFFFFFFFFFFFFFFFFFFFFFFFFFFFFFFFFFFFFFFFFFFF
310
FFFFFFFFFFFFFFFFFFFFFFFFFFFFFFFFFFFFFFFFFFFFFFFFFFFFFFFFFFFFFFFF
310
FFFFFFFFFFFFFFFFFFFFFFFFFFFFFFFFFFFFFFFFFFFFFFFFFFFFFFFFFFFFFFFF
310
FFFFFFFFFFFFFFFFFFFFFFFFFFFFFFFFFFFFFFFFFFFFFFFFFFFFFFFFFFFFFFFF
310
FFFFFFFFFFFFFFFFFFFFFFFFFFFFFFFFFFFFFFFFFFFFFFFFFFFFFFFFFFFFFFFF
310
FFFFFFFFFFFFFFFFFFFFFFFFFFFFFFFFFFFFFFFFFFFFFFFFFFFFFFFFFFFFFFFF
310
FFFFFFFFFFFFFFFFFFFFFFFFFFFFFFFFFFFFFFFFFFFFFFFFFFFFFFFFFFFFFFFF
310
FFFFFFFFFFFFFFFFFFFFFFFFFFFFFFFFFFFFFFFFFFFFFFFFFFFFFFFFFFFFFFFF
310
FFFFFFFFFFFFFFFFFFFFFFFFFFFFFFFFFFFFFFFFFFFFFFFFFFFFFFFFFFFFFFFF
310
FFFFFFFFFFFFFFFFFFFFFFFFFFFFFFFFFFFFFFFFFFFFFFFFFFFFFFFFFFFFFFFF
310
FFFFFFFFFFFFFFFFFFFFFFFFFFFFFFFFFFFFFFFFFFFFFFFFFFFFFFFFFFFFFFFF
310
FFFFFFFFFFFFFFFFFFFFFFFFFFFFFFFFFFFFFFFFFFFFFFFFFFFFFFFFFFFFFFFF
310
FFFFFFFFFFFFFFFFFFFFFFFFFFFFFFFFFFFFFFFFFFFFFFFFFFFFFFFFFFFFFFFF
310
FDFFFFFFFEFFFFFFFEFFFFFFFEFFFFFF05000000060000000700000008000000
310
090000000A0000000B0000000C0000000D0000000E0000000F00000010000000
310
11000000120000001300000014000000150000001600000017000000FEFFFFFF
310
FFFFFFFFFFFFFFFFFFFFFFFFFFFFFFFFFFFFFFFFFFFFFFFFFFFFFFFFFFFFFFFF
310
FFFFFFFFFFFFFFFFFFFFFFFFFFFFFFFFFFFFFFFFFFFFFFFFFFFFFFFFFFFFFFFF
310
FFFFFFFFFFFFFFFFFFFFFFFFFFFFFFFFFFFFFFFFFFFFFFFFFFFFFFFFFFFFFFFF
310
FFFFFFFFFFFFFFFFFFFFFFFFFFFFFFFFFFFFFFFFFFFFFFFFFFFFFFFFFFFFFFFF
310
FFFFFFFFFFFFFFFFFFFFFFFFFFFFFFFFFFFFFFFFFFFFFFFFFFFFFFFFFFFFFFFF
310
FFFFFFFFFFFFFFFFFFFFFFFFFFFFFFFFFFFFFFFFFFFFFFFFFFFFFFFFFFFFFFFF
310
FFFFFFFFFFFFFFFFFFFFFFFFFFFFFFFFFFFFFFFFFFFFFFFFFFFFFFFFFFFFFFFF
310
FFFFFFFFFFFFFFFFFFFFFFFFFFFFFFFFFFFFFFFFFFFFFFFFFFFFFFFFFFFFFFFF
310
FFFFFFFFFFFFFFFFFFFFFFFFFFFFFFFFFFFFFFFFFFFFFFFFFFFFFFFFFFFFFFFF
310
FFFFFFFFFFFFFFFFFFFFFFFFFFFFFFFFFFFFFFFFFFFFFFFFFFFFFFFFFFFFFFFF
310
FFFFFFFFFFFFFFFFFFFFFFFFFFFFFFFFFFFFFFFFFFFFFFFFFFFFFFFFFFFFFFFF
310
FFFFFFFFFFFFFFFFFFFFFFFFFFFFFFFFFFFFFFFFFFFFFFFFFFFFFFFFFFFFFFFF
310
FFFFFFFFFFFFFFFFFFFFFFFFFFFFFFFFFFFFFFFFFFFFFFFFFFFFFFFFFFFFFFFF
310
52006F006F007400200045006E00740072007900000000000000000000000000
310
0000000000000000000000000000000000000000000000000000000000000000
310
16000500FFFFFFFFFFFFFFFF020000000A00030000000000C000000000000046
310
00000000000000000000000090D143E6BCB7CB0103000000C000000000000000
310
01004F006C006500000000000000000000000000000000000000000000000000
310
0000000000000000000000000000000000000000000000000000000000000000
310
0A000200FFFFFFFFFFFFFFFFFFFFFFFF00000000000000000000000000000000
310
0000000000000000000000000000000000000000000000001400000000000000
310
010043006F006D0070004F0062006A0000000000000000000000000000000000
310
0000000000000000000000000000000000000000000000000000000000000000
310
120002010100000003000000FFFFFFFF00000000000000000000000000000000
310
0000000000000000000000000000000000000000010000004D00000000000000
310
01004F006C006500310030004E00610074006900760065000000000000000000
310
0000000000000000000000000000000000000000000000000000000000000000
310
1A000200FFFFFFFFFFFFFFFFFFFFFFFF00000000000000000000000000000000
310
0000000000000000000000000000000000000000040000002426000000000000
310
FEFFFFFF02000000FEFFFFFFFFFFFFFFFFFFFFFFFFFFFFFFFFFFFFFFFFFFFFFF
310
FFFFFFFFFFFFFFFFFFFFFFFFFFFFFFFFFFFFFFFFFFFFFFFFFFFFFFFFFFFFFFFF
310
FFFFFFFFFFFFFFFFFFFFFFFFFFFFFFFFFFFFFFFFFFFFFFFFFFFFFFFFFFFFFFFF
310
FFFFFFFFFFFFFFFFFFFFFFFFFFFFFFFFFFFFFFFFFFFFFFFFFFFFFFFFFFFFFFFF
310
FFFFFFFFFFFFFFFFFFFFFFFFFFFFFFFFFFFFFFFFFFFFFFFFFFFFFFFFFFFFFFFF
310
FFFFFFFFFFFFFFFFFFFFFFFFFFFFFFFFFFFFFFFFFFFFFFFFFFFFFFFFFFFFFFFF
310
FFFFFFFFFFFFFFFFFFFFFFFFFFFFFFFFFFFFFFFFFFFFFFFFFFFFFFFFFFFFFFFF
310
FFFFFFFFFFFFFFFFFFFFFFFFFFFFFFFFFFFFFFFFFFFFFFFFFFFFFFFFFFFFFFFF
310
FFFFFFFFFFFFFFFFFFFFFFFFFFFFFFFFFFFFFFFFFFFFFFFFFFFFFFFFFFFFFFFF
310
FFFFFFFFFFFFFFFFFFFFFFFFFFFFFFFFFFFFFFFFFFFFFFFFFFFFFFFFFFFFFFFF
310
FFFFFFFFFFFFFFFFFFFFFFFFFFFFFFFFFFFFFFFFFFFFFFFFFFFFFFFFFFFFFFFF
310
FFFFFFFFFFFFFFFFFFFFFFFFFFFFFFFFFFFFFFFFFFFFFFFFFFFFFFFFFFFFFFFF
310
FFFFFFFFFFFFFFFFFFFFFFFFFFFFFFFFFFFFFFFFFFFFFFFFFFFFFFFFFFFFFFFF
310
FFFFFFFFFFFFFFFFFFFFFFFFFFFFFFFFFFFFFFFFFFFFFFFFFFFFFFFFFFFFFFFF
310
FFFFFFFFFFFFFFFFFFFFFFFFFFFFFFFFFFFFFFFFFFFFFFFFFFFFFFFFFFFFFFFF
310
FFFFFFFFFFFFFFFFFFFFFFFFFFFFFFFFFFFFFFFFFFFFFFFFFFFFFFFFFFFFFFFF
310
010000020000000000000000000000000000000061007200650064005C003100
310
30002E0030005C0044004C004C005300680061007200650064005C003B004300
310
0100FEFF030A0000FFFFFFFF0A00030000000000C00000000000004607000000
310
5042727573680007000000504272757368000700000050427275736800F439B2
310
71000000000000000000000000004100540049002E004100430045005C004300
310
6F00720065002D005300740061007400690063003B0043003A005C0050007200
310
6F006700720061006D002000460069006C006500730020002800780038003600
310
29005C0043006F006D006D006F006E002000460069006C00650073005C004100
310
750074006F006400650073006B0020005300680061007200650064005C003B00
310
43003A005C00500072006F006700720061006D002000460069006C0065007300
310
5C004E006F0072006D0061006E005C004E0070006D005C00420069006E000000
310
43003A005C00500072006F006700720061006D002000460069006C0065007300
310
5C0053006F006C006900640057006F0072006B007300200043006F0072007000
310
5C0053006F006C006900640057006F0072006B00730020002800320029005C00
310
730065007400750070005C0069003300380036005C0073007700610063007400
310
770069007A002E006500780065000000220043003A005C00500072006F006700
310
20260000424D0E260000000000003E00000028000000B40200006E0000000100
310
01000000000000000000130B0000130B00000200000002000000000000FFFFFF
310
FFFFFFFFFFFFFFFFFFFFFFFFFFFFFFFFFFFFFFFFFFFFFFFFFFFFFFFFFFFFFFFF
310
FFFFFFFFFFFFFFFFFFFFFFFFFFFFFFFFFFFFFFFFFFFFFFFFFFFFFFFFFFFFFFFF
310
FFFFFFFFFFFFFFFFFFFFFFFFFFFFFFFFFFFFFFFFFFFFFFFFF000FFFFFFFFFFFF
310
FFFFFFFFFFFFFFFFFFFFFFFFFFFFFFFFFFFFFFFFFFFFFFFFFFFFFFFFFFFFFFFF
310
FFFFFFFFFFFFFFFFFFFFFFFFFFFFFFFFFFFFFFFFFFFFFFFFFFFFFFFFFFFFFFFF
310
FFFFFFFFFFFFFFFFFFFFFFFFFFFFFFFFF000FFFFFFFFFFFFFFFFFFFFFFFFFFFF
310
FFFFFFFFFFFFFFFFFFFFFFFFFFFFFFFFFFFFFFFFFFFFFFFFFFFFFFFFFFFFFFFF
310
FFFFFFFFFFFFFFFFFFFFFFFFFFFFFFFFFFFFFFFFFFFFFFFFFFFFFFFFFFFFFFFF
310
FFFFFFFFFFFFFFFFF000FFFFFFFFFFFFFFFFFFFFFFFFFFFFFFFFFFFFFFFFFFFF
310
FFFFFFFFFFFFFFFFFFFFFFFFFFFFFFFFFFFFFFFFFFFFFFFFFFFFFFFFFFFFFFFF
310
FFFFFFFFFFFFFFFFFFFFFFFFFFFFFFFFFFFFFFFFFFFFFFFFFFFFFFFFFFFFFFFF
310
F000FFFFFFFFFFFFFFFFFFFFFFFFFFFFFFFFFFFFFFFFFFFFFFFFFFFFFFFFFFFF
310
FFFFFFFFFFFFFFFFFFFFFFFFFFFFFFFFFFFFFFFFFFFFFFFFFFFFFFFFFFFFFFFF
310
FFFFFFFFFFFFFFFFFFFFFFFFFFFFFFFFFFFFFFFFFFFFFFFFF000FFFFFFFFFFFF
310
FFFFFFFFFFFFFFFFFFFFFFFFFFFFFFFFFFFFFFFFFFFFFFFFFFFFFFFFFFFFFFFF
310
FFFFFFFFFFFFFFFFFFFFFFFFFFFFFFFFFFFFFFFFFFFFFFFFFFFFFFFFFFFFFFFF
310
FFFFFFFFFFFFFFFFFFFFFFFFFFFFFFFFF000FFFFFFFFFFFFFFFFFFFFFFFFFFFF
310
FFFFFFFFFFFFFFFFFFFFFFFFFFFFFFFFFFFFFFFFFFFFFFFFFFFFFFFFFFFFFFFF
310
FFFFFFFFFFFFFFFFFFFFFFFFFFFFFFFFFFFFFFFFFFFFFFFFFFFFFFFFFFFFFFFF
310
FFFFFFFFFFFFFFFFF000FFFFFFFFFFFFFFFFFFFFFFFFFFFFFFFFFFFFFFFFFFFF
310
FFFFFFFFFFFFFFFFFFFFFFFFFFFFFFFFFFFFFFFFFFFFFFFFFFFFFFFFFFFFFFFF
310
FFFFFFFFFFFFFFFFFFFFFFFFFFFFFFFFFFFFFFFFFFFFFFFFFFFFFFFFFFFFFFFF
310
F000FFFFFFFFFFFFFFFFFFFFFFFFFFFFFFFFFFFFFFFFFFFFFFFFFFFFFFFFFFFF
310
FFFFFFFFFFFFFFFFFFFFFFFFFFFFFFFFFFFFFFFFFFFFFFFFFFFFFFFFFFFFFFFF
310
FFFFFFFFFFFFFFFFFFFFFFFFFFFFFFFFFFFFFFFFFFFFFFFFF000FFFFFFFFFFFF
310
FFFFFFFFFFFFFFFFFFFFFFFFFFFFFFFFFFFFFFFFFFFFFFFFFFFFFFFFFFFFFFFF
310
FFFFFFFFFFFFFFFFFFFFFFFFFFFFFFFFFFFFFFFFFFFFFFFFFFFFFFFFFFFFFFFF
310
FFFFFFFFFFFFFFFFFFFFFFFFFFFFFFFFF000FFFFFFFFFFFFFFFFFFFFFFFFFFFF
310
FFFFFFFFFFFFFFFFFFFFFFFFFFFFFFFFFFFFFFFFFFFFFFFFFFFFFFFFFFFFFFFF
310
FFFFFFFFFFFFFFFFFFFFFFFFFFFFFFFFFFFFFFFFFFFFFFFFFFFFFFFFFFFFFFFF
310
FFFFFFFFFFFFFFFFF000FFFFFFFFFFFFFFFFFFFFFFFFFFFFFFFFFFFFFFFFFFFF
310
FFFFFFFFFFFFFFFFFFFFFFFFFFFFFFFFFFFFFFFFFFFFFFFFFFFFFFFFFFFFFFFF
310
FFFFFFFFFFFFFFFFFFFFFFFFFFFFFFFFFFFFFFFFFFFFFFFFFFFFFFFFFFFFFFFF
310
F000FFFFFFFFFFFFFFFFFFFFFFFFFFFFFFFFFFFFFFFFFFFFFFFFFFFFFFFFFFFF
310
FFFFFFFFFFFFFFFFFFFFFFFFFFFFFFFFFFFFFFFFFFFFFFFFFFFFFFFFFFFFFFFF
310
FFFFFFFFFFFFFFFFFFFFFFFFFFFFFFFFFFFFFFFFFFFFFFFFF000FFFFFFFFFFFF
310
FFFFFFFFFFFFFFFFFFFFFFFFFFFFFFFFFFFFFFFFFFFFFFFFFFFFFFFFFFFFFFFF
310
FFFFFFFFFFFFFFFFFFFFFFFFFFFFFFFFFFFFFFFFFFFFFFFFFFFFFFFFFFFFFFFF
310
FFFFFFFFFFFFFFFFFFFFFFFFFFFFFFFFF000FFFFFFFFFFFFFFFFFFFFFFFFFFFF
310
FFFFFFFFFFFFFFFFFFFFFFFFFFFFFFFFFFFFFFFFFFFFFFFFFFFFFFFFFFFFFFFF
310
FFFFFFFFFFFFFFFFFFFFFFFFFFFFFFFFFFFFFFFFFFFFFFFFFFFFFFFFFFFFFFFF
310
FFFFFFFFFFFFFFFFF000FFFFFFFFFFFFFFFFFFFFFFFFFFFFFFFFFFFFFFFFFFFF
310
FFFFFFFFFFFFFFFFFFFFFFFFFFFFFFFFFFFFFFFFFFFFFFFFFFFFFFFFFFFFFFFF
310
FFFFFFFFFFFFFFFFFFFFFFFFFFFFFFFFFFFFFFFFFFFFFFFFFFFFFFFFFFFFFFFF
310
F000FFFFFFFFFFFFFFFFFFFFFFFFFFFFFFFFFFFFFFFFFFFFFFFFFFFFFFFFFFFF
310
FFFFFFFFFFFFFFFFFFFFFFFFFFFFFFFFFFFFFFFFFFFFFFFFFFFFFFFFFFFFFFFF
310
FFFFFFFFFFFFFFFFFFFFFFFFFFFFFFFFFFFFFFFFFFFFFFFFF000FFFFFFFFFFFF
310
FFFFFFFFFFFFFFFFFFFFFFFFFFFFFFFFFFFFFFFFFFFFFFFFFFFFFFFFFFFFFFFF
310
FFFFFFFFFFFFFFFFFFFFFFFFFFFFFFFFFFFFFFFFFFFFFFFFFFFFFFFFFFFFFFFF
310
FFFFFFFFFFFFFFFFFFFFFFFFFFFFFFFFF000FFFFFFFFFFFFFFFFFFFFFFFFFFFF
310
FFFFFFFFFFFFFFFFFFFFFFFFFFFFFFFFFFFFFFFFFFFFFFFFFFFFFFFFFFFFFFFF
310
FFFFFFFFFFFFFFFFFFFFFFFFFFFFFFFFFFFFFFFFFFFFFFFFFFFFFFFFFFFFFFFF
310
FFFFFFFFFFFFFFFFF000FFFFF80003FFFFFFFFFFFFFFFFFFFFFFFFFFFFFFFFFF
310
FFFFF00007FFFFFFFFFF00007FFFFFF800000000000000007FFFFFFFFFFFFFFF
310
FFFFFFFC001FFFFFFFFFFFFFFC001FFFFFFFFFFFFFFFFFFFFFFFFFFE0007FFFF
310
F000FFFF8000007FFFFFFFF8000FFFFFC0007FFFFF80007FFFFF0000007FFFFF
310
FFF8000007FFFFF800000000000000007FFFFFF0001FFFFFFFFFFFC00001FFFF
310
FFFFFFFFC00001FFFFFFFF000000000003FFFFE000007FFFF000FFFE0000000F
310
FFFFFFF0000FFFFF80007FFFFF80007FFFFC0000001FFFFFFFC0000001FFFFF8
310
00000000000000007FFFFFF0001FFFFFFFFFFE0000003FFFFFFFFFFE0000003F
310
FFFFFF000000000003FFFF0000000FFFF000FFF800000003FFFFFFF00007FFFF
310
80007FFFFF80007FFFF000000007FFFFFF000000003FFFF80000000000000000
310
7FFFFFF0001FFFFFFFFFF80000000FFFFFFFFFF80000000FFFFFFF0000000000
310
03FFFC00000003FFF000FFE000000000FFFFFFF00007FFFF80003FFFFF80007F
310
FFC000000001FFFFFC000000001FFFF800000000000000007FFFFFF0001FFFFF
310
FFFFE000000003FFFFFFFFE000000003FFFFFF000000000003FFF000000000FF
310
F000FF80000000007FFFFFF00007FFFF80003FFFFF80007FFF8000000000FFFF
310
F80000000007FFF800000000000000007FFFFFF0001FFFFFFFFFC000000001FF
310
FFFFFFC000000001FFFFFF000000000003FFC0000000007FF000FF0000000000
310
3FFFFFE00007FFFF00003FFFFF80007FFE00000000003FFFF00000000003FFF8
310
00000000000000007FFFFFF0001FFFFFFFFF8000000000FFFFFFFF8000000000
310
FFFFFF000000000003FF80000000003FF000FE00000000001FFFFFE00003FFFF
310
00003FFFFF80007FFC00000000001FFFE00000000001FFF8000001FFFE000000
310
7FFFFFF0001FFFFFFFFE00000000003FFFFFFE00000000003FFFFF0000000000
310
03FF00000000001FF000FC00000000000FFFFFE00003FFFF00001FFFFF80007F
310
F800000000001FFFC00000000000FFF8000001FFFE0000007FFFFFF0001FFFFF
310
FFFC00000000001FFFFFFC00000000001FFFFF000000000003FE00000000000F
310
F000F8000000000007FFFFE00003FFFF00001FFFFF80007FF800000000000FFF
310
800000000000FFF8000001FFFE0000007FFFFFF0001FFFFFFFF800000000000F
310
FFFFF800000000000FFFFF000000000003FC000000000007F000F80000000000
310
03FFFFC00003FFFE00001FFFFF80007FF0000000000007FF0000000000007FF8
310
000001FFFE0000007FFFFFF0001FFFFFFFF0000000000007FFFFF00000000000
310
07FFFF000000000003F8000000000003F000F0000000000003FFFFC00001FFFE
310
00001FFFFF80007FE0000000000007FE0000000000003FF8000001FFFE000000
310
7FFFFFF0001FFFFFFFF0000000000007FFFFF0000000000007FFFF0000000000
310
03F800001F800003F000E00001FFF00001FFFFC00001FFFE00000FFFFF80007F
310
E00001FFE00003FE00001FFF00003FF8000001FFFE0000007FFFFFF0001FFFFF
310
FFE000003E000003FFFFE000003E000003FFFF000000000003F00001FFF80001
310
F000E00007FFFC0001FFFFC00001FFFE00000FFFFF80007FC0000FFFFC0003FC
310
0000FFFFC0001FF8000001FFFE0000007FFFFFF0001FFFFFFFC00003FFE00001
310
FFFFC00003FFE00001FFFF0001FFFFFFFFF00007FFFE0001F000E0000FFFFF00
310
00FFFF800001FFFC00000FFFFF80007FC0001FFFFE0001FC0001FFFFE0001FF8
310
000001FFFE0000007FFFFFF0001FFFFFFF80000FFFF80000FFFF80000FFFF800
310
00FFFF0003FFFFFFFFE0000FFFFF8000F000C0003FFFFF8000FFFF800000FFFC
310
000007FFFF80007F80003FFFFF0001FC0003FFFFF0001FF8000001FFFE000000
310
7FFFFFF0001FFFFFFF80003FFFFE0000FFFF80003FFFFE0000FFFF0003FFFFFF
310
FFE0003FFFFF8000F000C0003FFFFF8000FFFF800000FFFC000007FFFF80007F
310
80007FFFFF8001F80007FFFFF8000FF8000001FFFE0000007FFFFFF0001FFFFF
310
FF00007FFFFF00007FFF00007FFFFF00007FFF0003FFFFFFFFE0003FFFFFC000
310
F000C0007FFFFFC000FFFF000000FFFC000007FFFF80007F8000FFFFFF8000F8
310
000FFFFFF8000FF8000001FFFE0000007FFFFFF0001FFFFFFF0000FFFFFF8000
310
7FFF0000FFFFFF80007FFF0003FFFFFFFFC0007FFFFFC00070008000FFFFFFC0
310
00FFFF000000FFF8000007FFFF80007F8000FFFFFF8000F8000FFFFFF8000FF8
310
000001FFFE0000007FFFFFF0001FFFFFFE0001FFFFFFC0003FFE0001FFFFFFC0
310
003FFF0003FFFFFFFFC0007FFFFFE00070008000FFFFFFC0007FFF0000007FF8
310
000003FFFF80007F0001FFFFFF8000F8000FFFFFF8000FF8000001FFFE000000
310
7FFFFFF0001FFFFFFE0001FFFFFFC0003FFE0001FFFFFFC0003FFF0003FFFFFF
310
FFC000FFFFFFE00070008000FFFFFFC0007FFF0000007FF8000003FFFF80007F
310
0001FFFFFF8000F8001FFFFFF8000FF8000001FFFE0000007FFFFFF0001FFFFF
310
FE0003FFFFFFE0003FFE0003FFFFFFE0003FFF0003FFFFFFFFC000FFFFFFE000
310
70008000FFFFFFC0007FFE0000007FF8000003FFFF80007F0001FFFFFF8000F0
310
001FFFFFF8000FF8000001FFFE0000007FFFFFF0001FFFFFFC0003FFFFFFE000
310
1FFC0003FFFFFFE0001FFF0003FFFFFFFFC000FFFFFFC00070008000FFFFFF80
310
007FFE0000007FF0000003FFFF80007F0001FFFFFF0000F0001FFFFFF8000FF8
310
000001FFFE0000007FFFFFF0001FFFFFFC0007FFFFFFF0001FFC0007FFFFFFF0
310
001FFF0003FFFFFFFFC000FFFFFFC00070008001FFFFFF0000FFFE0000003FF0
310
000001FFFF80007F0001FFFFFF0000F8001FFFFFF0000FF8000001FFFE000000
310
7FFFFFF0001FFFFFFC0007FFFFFFF0001FFC0007FFFFFFF0001FFF0003FFFFFF
310
FFC001FFFFFF80007000FFFFFFFFFE0000FFFE0008003FF0008001FFFF80007F
310
FFFFFFFFFC0000FFFFFFFFFFE0000FF8000001FFFE0000007FFFFFF0001FFFFF
310
F8000FFFFFFFF8000FF8000FFFFFFFF8000FFF0003FFFFFFFFFFFFFFFFFF0000
310
7000FFFFFFFFFC0000FFFC0008003FF0008001FFFF80007FFFFFFFFFF80001FF
310
FFFFFFFF80000FF8000001FFFE0000007FFFFFF0001FFFFFF8000FFFFFFFF800
310
0FF8000FFFFFFFF8000FFF0003FFFFFFFFFFFFFFFFFE0000F000FFFFFFFFE000
310
00FFFC000C003FE000C001FFFF80007FFFFFFFFFC00001FFFFFFFFFE00001FF8
310
000001FFFE0000007FFFFFF0001FFFFFF8000FFFFFFFF8000FF8000FFFFFFFF8
310
000FFF0003FFFFFFFFFFFFFFFFF00000F000FFFFFFFE000001FFFC000C001FE0
310
00C000FFFF80007FFFFFFFFE000001FFFFFFFFE000001FF80FFFFFFFFFFFFFC0
310
7FFFFFF0001FFFFFF8000FFFFFFFF8000FF8000FFFFFFFF8000FFF0003FFFFFF
310
FFFFFFFFFF800000F000FFFFFFC0000001FFFC001C001FE001C000FFFF80007F
310
FFFFFF80000003FFFFFFF80000001FF80FFFFFFFFFFFFFC07FFFFFF0001FFFFF
310
F8001FFFFFFFFC000FF8001FFFFFFFFC000FFF0003FFFFFFFFFFFFFFF0000001
310
F000FFFFF800000001FFF8001C001FE001C000FFFF80007FFFFFF800000003FF
310
FFFF800000003FF80FFFFFFFFFFFFFC07FFFFFF0001FFFFFF8001FFFFFFFFC00
310
0FF8001FFFFFFFFC000FFF0003FFFFFFFFFFFFFE00000001F000FFFFC0000000
310
03FFF8001E001FC001E000FFFF80007FFFFF8000000007FFFFFC000000003FF8
310
0FFFFFFFFFFFFFC07FFFFFF0001FFFFFF8001FFFFFFFFC000FF8001FFFFFFFFC
310
000FFF0003FFFFFFFFFFFFE000000003F000FFFE0000000007FFF8001E000FC0
310
01E0007FFF80007FFFFE0000000007FFFFE0000000007FF80FFFFFFFFFFFFFC0
310
7FFFFFF0001FFFFFF0001FFFFFFFFC0007F0001FFFFFFFFC0007FF0003FFFFFF
310
FFFFFF0000000003F000FFF80000000007FFF8001E000FC003E0007FFF80007F
310
FFF0000000000FFFFF8000000000FFF80FFFFFFFFFFFFFC07FFFFFF0001FFFFF
310
F0001FFFFFFFFC0007F0001FFFFFFFFC0007FF0003FFFFFFFFFFFC0000000007
310
F000FFE0000000000FFFF0003E000FC003E0007FFF80007FFFC0000000001FFF
310
FE0000000001FFF80FFFFFFFFFFFFFC07FFFFFF0001FFFFFF0001FFFFFFFFC00
310
07F0001FFFFFFFFC0007FF0003FFFFFFFFFFF0000000000FF000FFC000000000
310
1FFFF0003F000F8003F0003FFF80007FFF80000000003FFFF80000000003FFF8
310
0FFFFFFFFFFFFFC07FFFFFF0001FFFFFF0001FFFFFFFFC0007F0001FFFFFFFFC
310
0007FF0003FFFFFFFFFFE0000000001FF000FF00000000007FFFF0003F000780
310
03F0003FFF80007FFF00000000007FFFF00000000007FFF80FFFFFFFFFFFFFC0
310
7FFFFFF0001FFFFFF0001FFFFFFFFC0007F0001FFFFFFFFC0007FF0003FFFFFF
310
FFFF80000000007FF000FE0000000000FFFFE0003F00078007F0003FFF80007F
310
FE0000000001FFFFE0000000001FFFF80FFFFFFFFFFFFFC07FFFFFF0001FFFFF
310
F0001FFFFFFFFC0007F0001FFFFFFFFC0007FF0003FFFFFFFFFF0000000000FF
310
F000FC0000000003FFFFE0007F00078007F0003FFF80007FFC0000000007FFFF
310
C0000000007FFFF80FFFFFFFFFFFFFC07FFFFFF0001FFFFFF8001FFFFFFFFC00
310
0FF8001FFFFFFFFC000FFF0003FFFFFFFFFE0000000003FFF000FC000000000F
310
FFFFE0007F80070007F8001FFF80007FF8000000001FFFFF8000000001FFFFF8
310
0FFFFFFFFFFFFFC07FFFFFF0001FFFFFF8001FFFFFFFFC000FF8001FFFFFFFFC
310
000FFF0003FFFFFFFFFC000000000FFFF000F8000000007FFFFFE0007F800700
310
07F8001FFF80007FF000000000FFFFFF800000000FFFFFF80FFFFFFFFFFFFFC0
310
7FFFFFF0001FFFFFF8000FFFFFFFF8000FF8000FFFFFFFF8000FFF0003FFFFFF
310
FFFC000000007FFFF000F800000007FFFFFFC0007F8003000FF8001FFF80007F
310
F000000007FFFFFF000000007FFFFFF80FFFFFFFFFFFFFC07FFFFFF0001FFFFF
310
F8000FFFFFFFF8000FF8000FFFFFFFF8000FFF0003FFFFFFFFF80000000FFFFF
310
F000F0000000FFFFFFFFC000FF8003000FF8001FFF80007FE0000000FFFFFFFF
310
0000000FFFFFFFF8000001FFFE0000007FFFFFF0001FFFFFF8000FFFFFFFF800
310
0FF8000FFFFFFFF8000FFF0003FFFFFFFFF8000000FFFFFFF000F000000FFFFF
310
FFFFC000FFC002000FF8000FFF80007FE000001FFFFFFFFE000001FFFFFFFFF8
310
000001FFFE0000007FFFFFF0001FFFFFF8000FFFFFFFF8000FF8000FFFFFFFF8
310
000FFF0003FFFFFFFFF000001FFFFFFFF000E00000FFFFFFFFFFC000FFC00200
310
0FFC000FFF80007FE00001FFFFFFFFFE00001FFFFFFFFFF8000001FFFE000000
310
7FFFFFF0001FFFFFFC000FFFFFFFF8001FFC000FFFFFFFF8001FFF0003FFFFFF
310
FFF00001FFFFFFFFF000E00007FFFFFFFFFF8000FFC000001FFC000FFF80007F
310
C0000FFFFFFFFFFE0000FFFFFFFFFFF8000001FFFE0000007FFFFFF0001FFFFF
310
FC0007FFFFFFF0001FFC0007FFFFFFF0001FFF0003FFFFFFFFF00007FFFFFFFF
310
F000E0001FFFFFFFFFFF8000FFC000001FFC000FFF80007FC0003FFFFFFFFFFE
310
0001FFFFFFFFFFF8000001FFFE0000007FFFFFF0001FFFFFFC0007FFFFFFF000
310
1FFC0007FFFFFFF0001FFF0003FFFFFFFFF0001FFFFFFFFFF000E0003FFFFF00
310
03FF8001FFE000001FFC0007FF80007FC0007FFFFF0007FC0003FFFFF0003FF8
310
000001FFFE0000007FFFFFF0001FFFFFFC0003FFFFFFE0001FFC0003FFFFFFE0
310
001FFF0003FFFFFFFFF0003FFFFFFFFFF000E0003FFFFF0001FF8001FFE00000
310
1FFE0007FF80007FC0007FFFFE0003FC0007FFFFE0003FF8000001FFFE000000
310
7FFFFFF0001FFFFFFE0003FFFFFFE0003FFE0003FFFFFFE0003FFF0003FFFFFF
310
FFF0003FFFFF8001F000E0003FFFFF0001FF0001FFE000001FFE0007FF80007F
310
C0007FFFFE0003FC0007FFFFE0003FF8000001FFFE0000007FFFFFF0001FFFFF
310
FE0001FFFFFFC0003FFE0001FFFFFFC0003FFF0003FFFFFFFFF0003FFFFF0001
310
F000E0003FFFFF0003FF0001FFE000003FFE0007FF80007FC0007FFFFE0003FC
310
0007FFFFE0003FF8000001FFFE0000007FFFFFF0001FFFFFFF0001FFFFFFC000
310
7FFF0001FFFFFFC0007FFF0003FFFFFFFFF0003FFFFF0001F000E0003FFFFE00
310
03FF0003FFF000003FFE0003FF80007FC0007FFFFC0003FE0007FFFFE0003FF8
310
000001FFFE0000007FFFFFF0001FFFFFFF0000FFFFFF80007FFF0000FFFFFF80
310
007FFF0003FFFFFFFFF0003FFFFF0001F000E0003FFFFE0003FF0003FFF00000
310
3FFF0003FF80007FC0007FFFFC0007FE0007FFFFC0003FF8000001FFFE000000
310
7FFFFFF0001FFFFFFF80007FFFFF0000FFFF80007FFFFF0000FFFF0003FFFFFF
310
FFF0003FFFFF0003F000E0003FFFFC0003FE0003FFF000003FFF0003FF80007F
310
E0003FFFF80007FE0003FFFFC0007FF8000001FFFE0000007FFFFFF0001FFFFF
310
FF80003FFFFE0000FFFF80003FFFFE0000FFFF0003FFFFFFFFF0001FFFFE0003
310
F000F0001FFFF80003FE0003FFF000007FFF0001FF80007FE0003FFFF00007FE
310
0001FFFF80007FF8000001FFFE0000007FFFFFF0001FFFFFFFC0000FFFF80001
310
FFFFC0000FFFF80001FFFF0003FFFFFFFFF0001FFFFC0003F000F0000FFFF000
310
07FE0007FFF800007FFF0001FF80007FE0001FFFE00007FF0000FFFE00007FF8
310
000001FFFE0000007FFFFFF0001FFFFFFFC00003FFE00001FFFFC00003FFE000
310
01FFFF0003FFFFFFFFF8000FFFF80003F000F00003FFC00007FC0007FFF80000
310
7FFF8001FF80007FF00007FF80000FFF00007FF80000FFF8000001FFFE000000
310
7F80000000000001FFE000003E000003FFFFE000003E000003FFFF0003FFFFFF
310
FFF80003FFE00007F000F800000000000FFC0007FFF800007FFF8001FF80007F
310
F000000000000FFF000000000000FFF8000001FFFE0000007F80000000000001
310
FFF0000000000007FFFFF0000000000007FFFF0003FFFFFFFFFC00007E000007
310
F000F800000000000FFC0007FFF80000FFFF8000FF80007FF800000000001FFF
310
800000000001FFF8000001FFFE0000007F80000000000001FFF800000000000F
310
FFFFF800000000000FFFFF0003FFFFFFFFFC00000000000FF000FC0000000000
310
1FFC0007FFFC0000FFFF8000FF80007FF800000000003FFFC00000000001FFF8
310
000001FFFE0000007F80000000000001FFF800000000000FFFFFF80000000000
310
0FFFFF0003FFFFFFFFFE00000000001FF000FE00000000003FF8000FFFFC0000
310
FFFF8000FF80007FFC00000000003FFFC00000000003FFF8000001FFFE000000
310
7F80000000000001FFFC00000000001FFFFFFC00000000001FFFFF0003FFFFFF
310
FFFF00000000001FF000FF00000000003FF8000FFFFC0000FFFFC000FF80007F
310
FE00000000007FFFE00000000007FFF8000001FFFE0000007F80000000000001
310
FFFE00000000003FFFFFFE00000000003FFFFF0003FFFFFFFFFF80000000003F
310
F000FF80000000007FF8000FFFFC0001FFFFC0007F80007FFF0000000000FFFF
310
F0000000000FFFF800000000000000007F80000000000001FFFF8000000000FF
310
FFFFFF8000000000FFFFFF0003FFFFFFFFFFC0000000007FF000FFC000000000
310
FFF8000FFFFE0001FFFFC0007F80007FFF8000000001FFFFF8000000001FFFF8
310
00000000000000007F80000000000001FFFFC000000001FFFFFFFFC000000001
310
FFFFFF0003FFFFFFFFFFE000000000FFF000FFE000000003FFF0001FFFFE0001
310
FFFFC0007F80007FFFC000000007FFFFFE000000003FFFF80000000000000000
310
7F80000000000001FFFFE000000003FFFFFFFFE000000003FFFFFF0003FFFFFF
310
FFFFF000000003FFF000FFF80000000FFFF0001FFFFE0001FFFFE0007F80007F
310
FFF00000000FFFFFFF00000000FFFFF800000000000000007F80000000000001
310
FFFFF80000000FFFFFFFFFF80000000FFFFFFF0003FFFFFFFFFFFC0000000FFF
310
F000FFFE0000003FFFF0001FFFFE0003FFFFE0003F80007FFFFC0000003FFFFF
310
FFC0000003FFFFF800000000000000007F80000000000001FFFFFE0000003FFF
310
FFFFFFFE0000003FFFFFFF0003FFFFFFFFFFFF0000003FFFF000FFFF800000FF
310
FFF0001FFFFF0003FFFFE0003F80007FFFFF000001FFFFFFFFF800001FFFFFF8
310
00000000000000007F80000000000001FFFFFFC00001FFFFFFFFFFFFC00001FF
310
FFFFFF0003FFFFFFFFFFFFC00000FFFFF000FFFFF8000FFFFFFFFFFFFFFFFFFF
310
FFFFFFFFFFFFFFFFFFFFF0001FFFFFFFFFFF0000FFFFFFF80000000000000000
310
7FFFFFFFFFFFFFFFFFFFFFFC001FFFFFFFFFFFFFFC001FFFFFFFFFFFFFFFFFFF
310
FFFFFFFC001FFFFFF000FFFFFFFFFFFFFFFFFFFFFFFFFFFFFFFFFFFFFFFFFFFF
310
FFFFFFFFFFFFFFFFFFFFFFFFFFFFFFFFFFFFFFFFFFFFFFFFFFFFFFFFFFFFFFFF
310
FFFFFFFFFFFFFFFFFFFFFFFFFFFFFFFFFFFFFFFFFFFFFFFFFFFFFFFFFFFFFFFF
310
F000FFFFFFFFFFFFFFFFFFFFFFFFFFFFFFFFFFFFFFFFFFFFFFFFFFFFFFFFFFFF
310
FFFFFFFFFFFFFFFFFFFFFFFFFFFFFFFFFFFFFFFFFFFFFFFFFFFFFFFFFFFFFFFF
310
FFFFFFFFFFFFFFFFFFFFFFFFFFFFFFFFFFFFFFFFFFFFFFFFF000FFFFFFFFFFFF
310
FFFFFFFFFFFFFFFFFFFFFFFFFFFFFFFFFFFFFFFFFFFFFFFFFFFFFFFFFFFFFFFF
310
FFFFFFFFFFFFFFFFFFFFFFFFFFFFFFFFFFFFFFFFFFFFFFFFFFFFFFFFFFFFFFFF
310
FFFFFFFFFFFFFFFFFFFFFFFFFFFFFFFFF000FFFFFFFFFFFFFFFFFFFFFFFFFFFF
310
FFFFFFFFFFFFFFFFFFFFFFFFFFFFFFFFFFFFFFFFFFFFFFFFFFFFFFFFFFFFFFFF
310
FFFFFFFFFFFFFFFFFFFFFFFFFFFFFFFFFFFFFFFFFFFFFFFFFFFFFFFFFFFFFFFF
310
FFFFFFFFFFFFFFFFF000FFFFFFFFFFFFFFFFFFFFFFFFFFFFFFFFFFFFFFFFFFFF
310
FFFFFFFFFFFFFFFFFFFFFFFFFFFFFFFFFFFFFFFFFFFFFFFFFFFFFFFFFFFFFFFF
310
FFFFFFFFFFFFFFFFFFFFFFFFFFFFFFFFFFFFFFFFFFFFFFFFFFFFFFFFFFFFFFFF
310
F000FFFFFFFFFFFFFFFFFFFFFFFFFFFFFFFFFFFFFFFFFFFFFFFFFFFFFFFFFFFF
310
FFFFFFFFFFFFFFFFFFFFFFFFFFFFFFFFFFFFFFFFFFFFFFFFFFFFFFFFFFFFFFFF
310
FFFFFFFFFFFFFFFFFFFFFFFFFFFFFFFFFFFFFFFFFFFFFFFFF000FFFFFFFFFFFF
310
FFFFFFFFFFFFFFFFFFFFFFFFFFFFFFFFFFFFFFFFFFFFFFFFFFFFFFFFFFFFFFFF
310
FFFFFFFFFFFFFFFFFFFFFFFFFFFFFFFFFFFFFFFFFFFFFFFFFFFFFFFFFFFFFFFF
310
FFFFFFFFFFFFFFFFFFFFFFFFFFFFFFFFF000FFFFFFFFFFFFFFFFFFFFFFFFFFFF
310
FFFFFFFFFFFFFFFFFFFFFFFFFFFFFFFFFFFFFFFFFFFFFFFFFFFFFFFFFFFFFFFF
310
FFFFFFFFFFFFFFFFFFFFFFFFFFFFFFFFFFFFFFFFFFFFFFFFFFFFFFFFFFFFFFFF
310
FFFFFFFFFFFFFFFFF000FFFFFFFFFFFFFFFFFFFFFFFFFFFFFFFFFFFFFFFFFFFF
310
FFFFFFFFFFFFFFFFFFFFFFFFFFFFFFFFFFFFFFFFFFFFFFFFFFFFFFFFFFFFFFFF
310
FFFFFFFFFFFFFFFFFFFFFFFFFFFFFFFFFFFFFFFFFFFFFFFFFFFFFFFFFFFFFFFF
310
F000FFFFFFFFFFFFFFFFFFFFFFFFFFFFFFFFFFFFFFFFFFFFFFFFFFFFFFFFFFFF
310
FFFFFFFFFFFFFFFFFFFFFFFFFFFFFFFFFFFFFFFFFFFFFFFFFFFFFFFFFFFFFFFF
310
FFFFFFFFFFFFFFFFFFFFFFFFFFFFFFFFFFFFFFFFFFFFFFFFF000FFFFFFFFFFFF
310
FFFFFFFFFFFFFFFFFFFFFFFFFFFFFFFFFFFFFFFFFFFFFFFFFFFFFFFFFFFFFFFF
310
FFFFFFFFFFFFFFFFFFFFFFFFFFFFFFFFFFFFFFFFFFFFFFFFFFFFFFFFFFFFFFFF
310
FFFFFFFFFFFFFFFFFFFFFFFFFFFFFFFFF000FFFFFFFFFFFFFFFFFFFFFFFFFFFF
310
FFFFFFFFFFFFFFFFFFFFFFFFFFFFFFFFFFFFFFFFFFFFFFFFFFFFFFFFFFFFFFFF
310
FFFFFFFFFFFFFFFFFFFFFFFFFFFFFFFFFFFFFFFFFFFFFFFFFFFFFFFFFFFFFFFF
310
FFFFFFFFFFFFFFFFF000FFFFFFFFFFFFFFFFFFFFFFFFFFFFFFFFFFFFFFFFFFFF
310
FFFFFFFFFFFFFFFFFFFFFFFFFFFFFFFFFFFFFFFFFFFFFFFFFFFFFFFFFFFFFFFF
310
FFFFFFFFFFFFFFFFFFFFFFFFFFFFFFFFFFFFFFFFFFFFFFFFFFFFFFFFFFFFFFFF
310
F000FFFFFFFFFFFFFFFFFFFFFFFFFFFFFFFFFFFFFFFFFFFFFFFFFFFFFFFFFFFF
310
FFFFFFFFFFFFFFFFFFFFFFFFFFFFFFFFFFFFFFFFFFFFFFFFFFFFFFFFFFFFFFFF
310
FFFFFFFFFFFFFFFFFFFFFFFFFFFFFFFFFFFFFFFFFFFFFFFFF000FFFFFFFFFFFF
310
FFFFFFFFFFFFFFFFFFFFFFFFFFFFFFFFFFFFFFFFFFFFFFFFFFFFFFFFFFFFFFFF
310
FFFFFFFFFFFFFFFFFFFFFFFFFFFFFFFFFFFFFFFFFFFFFFFFFFFFFFFFFFFFFFFF
310
FFFFFFFFFFFFFFFFFFFFFFFFFFFFFFFFF000FFFFFFFFFFFFFFFFFFFFFFFFFFFF
310
FFFFFFFFFFFFFFFFFFFFFFFFFFFFFFFFFFFFFFFFFFFFFFFFFFFFFFFFFFFFFFFF
310
FFFFFFFFFFFFFFFFFFFFFFFFFFFFFFFFFFFFFFFFFFFFFFFFFFFFFFFFFFFFFFFF
310
FFFFFFFFFFFFFFFFF000FFFFFFFFFFFFFFFFFFFFFFFFFFFFFFFFFFFFFFFFFFFF
310
FFFFFFFFFFFFFFFFFFFFFFFFFFFFFFFFFFFFFFFFFFFFFFFFFFFFFFFFFFFFFFFF
310
FFFFFFFFFFFFFFFFFFFFFFFFFFFFFFFFFFFFFFFFFFFFFFFFFFFFFFFFFFFFFFFF
310
F000FFFFFFFFFFFFFFFFFFFFFFFFFFFFFFFFFFFFFFFFFFFFFFFFFFFFFFFFFFFF
310
FFFFFFFFFFFFFFFFFFFFFFFFFFFFFFFFFFFFFFFFFFFFFFFFFFFFFFFFFFFFFFFF
310
FFFFFFFFFFFFFFFFFFFFFFFFFFFFFFFFFFFFFFFFFFFFFFFFF000FFFFFFFFFFFF
310
FFFFFFFFFFFFFFFFFFFFFFFFFFFFFFFFFFFFFFFFFFFFFFFFFFFFFFFFFFFFFFFF
310
FFFFFFFFFFFFFFFFFFFFFFFFFFFFFFFFFFFFFFFFFFFFFFFFFFFFFFFFFFFFFFFF
310
FFFFFFFFFFFFFFFFFFFFFFFFFFFFFFFFF000FFFFFFFFFFFFFFFFFFFFFFFFFFFF
310
FFFFFFFFFFFFFFFFFFFFFFFFFFFFFFFFFFFFFFFFFFFFFFFFFFFFFFFFFFFFFFFF
310
FFFFFFFFFFFFFFFFFFFFFFFFFFFFFFFFFFFFFFFFFFFFFFFFFFFFFFFFFFFFFFFF
310
FFFFFFFFFFFFFFFFF000FFFFFFFFFFFFFFFFFFFFFFFFFFFFFFFFFFFFFFFFFFFF
310
FFFFFFFFFFFFFFFFFFFFFFFFFFFFFFFFFFFFFFFFFFFFFFFFFFFFFFFFFFFFFFFF
310
FFFFFFFFFFFFFFFFFFFFFFFFFFFFFFFFFFFFFFFFFFFFFFFFFFFFFFFFFFFFFFFF
310
F000FFFFFFFFFFFFFFFFFFFFFFFFFFFFFFFFFFFFFFFFFFFFFFFFFFFFFFFFFFFF
310
FFFFFFFFFFFFFFFFFFFFFFFFFFFFFFFFFFFFFFFFFFFFFFFFFFFFFFFFFFFFFFFF
310
FFFFFFFFFFFFFFFFFFFFFFFFFFFFFFFFFFFFFFFFFFFFFFFFF000FFFFFFFFFFFF
310
FFFFFFFFFFFFFFFFFFFFFFFFFFFFFFFFFFFFFFFFFFFFFFFFFFFFFFFFFFFFFFFF
310
FFFFFFFFFFFFFFFFFFFFFFFFFFFFFFFFFFFFFFFFFFFFFFFFFFFFFFFFFFFFFFFF
310
FFFFFFFFFFFFFFFFFFFFFFFFFFFFFFFFF0000000000000000000000000000000
310
0000000001000000010000000100000001000000010000000100000001000000
310
0000000001000000010000000100000001000000010000000100000001000000
310
0100000001000000010000000100000001000000010000000100000001000000
310
0100000001000000010000000100000001000000010000000100000001000000
310
0000000001000000010000000100000001000000000000000100000001000000
310
0100000000000000010000000100000001000000000000000100000001000000
310
0100000001000000000000000100000001000000010000000000000001000000
310
0100000001000000000000000100000000000000010000000000000001000000
310
0000000001000000000000000100000000000000010000000000000001000000
310
0000000001000000000000000100000001000000010000000100000001000000
310
0100000001000000010000000000000001000000010000000100000001000000
310
0100000000000000010000000100000001000000010000000000000001000000
310
0100000001000000010000000100000001000000010000000100000000000000
310
0100000000000000010000000100000001000000010000000100000001000000
310
0100000001000000000000000100000000000000010000000100000001000000
  1
OLE
  0
ENDSEC
  0
SECTION
  2
OBJECTS
  0
DICTIONARY
  5
C
330
0
100
AcDbDictionary
281
     1
  3
ACAD_GROUP
350
D
  3
ACAD_LAYOUT
350
1A
  3
ACAD_MLEADERSTYLE
350
328
  3
ACAD_MLINESTYLE
350
17
  3
ACAD_PLOTSETTINGS
350
19
  3
ACAD_PLOTSTYLENAME
350
E
  3
ACAD_TABLESTYLE
350
327
  3
ACAD_VISUALSTYLE
350
2A
  3
AcDbVariableDictionary
350
329
  0
DICTIONARY
  5
D
102
{ACAD_REACTORS
330
C
102
}
330
C
100
AcDbDictionary
281
     1
  0
DICTIONARY
  5
1A
102
{ACAD_REACTORS
330
C
102
}
330
C
100
AcDbDictionary
281
     1
  3
Layout1
350
1E
  3
Layout2
350
26
  3
Model
350
22
  0
DICTIONARY
  5
328
102
{ACAD_REACTORS
330
C
102
}
330
C
100
AcDbDictionary
281
     1
  0
DICTIONARY
  5
17
102
{ACAD_REACTORS
330
C
102
}
330
C
100
AcDbDictionary
281
     1
  3
Standard
350
18
  0
DICTIONARY
  5
19
102
{ACAD_REACTORS
330
C
102
}
330
C
100
AcDbDictionary
281
     1
  0
ACDBDICTIONARYWDFLT
  5
E
102
{ACAD_REACTORS
330
C
102
}
330
C
100
AcDbDictionary
281
     1
  3
Normal
350
F
100
AcDbDictionaryWithDefault
340
F
  0
DICTIONARY
  5
327
102
{ACAD_REACTORS
330
C
102
}
330
C
100
AcDbDictionary
281
     1
  0
DICTIONARY
  5
2A
102
{ACAD_REACTORS
330
C
102
}
330
C
100
AcDbDictionary
281
     1
  3
2dWireframe
350
2F
  3
3D Hidden
350
31
  3
3dWireframe
350
30
  3
Basic
350
32
  3
Brighten
350
36
  3
ColorChange
350
3A
  3
Conceptual
350
34
  3
Dim
350
35
  3
Facepattern
350
39
  3
Flat
350
2B
  3
FlatWithEdges
350
2C
  3
Gouraud
350
2D
  3
GouraudWithEdges
350
2E
  3
Linepattern
350
38
  3
Realistic
350
33
  3
Thicken
350
37
  0
DICTIONARY
  5
329
102
{ACAD_REACTORS
330
C
102
}
330
C
100
AcDbDictionary
281
     1
  3
PSOLHEIGHT
350
32B
  3
PSOLWIDTH
350
32A
  0
LAYOUT
  5
1E
102
{ACAD_REACTORS
330
1A
102
}
330
1A
100
AcDbPlotSettings
  1

  2
none_device
  4

  6

 40
0.0
 41
0.0
 42
0.0
 43
0.0
 44
0.0
 45
0.0
 46
0.0
 47
0.0
 48
0.0
 49
0.0
140
0.0
141
0.0
142
1.0
143
1.0
 70
   688
 72
     0
 73
     0
 74
     5
  7

 75
    16
147
1.0
148
0.0
149
0.0
100
AcDbLayout
  1
Layout1
 70
     1
 71
     1
 10
0.0
 20
0.0
 11
420.0
 21
297.0
 12
0.0
 22
0.0
 32
0.0
 14
1.0000000000E+20
 24
1.0000000000E+20
 34
1.0000000000E+20
 15
-1.0000000000E+20
 25
-1.0000000000E+20
 35
-1.0000000000E+20
146
0.0
 13
0.0
 23
0.0
 33
0.0
 16
1.0
 26
0.0
 36
0.0
 17
0.0
 27
1.0
 37
0.0
 76
     0
330
1B
  0
LAYOUT
  5
26
102
{ACAD_REACTORS
330
1A
102
}
330
1A
100
AcDbPlotSettings
  1

  2
none_device
  4

  6

 40
0.0
 41
0.0
 42
0.0
 43
0.0
 44
0.0
 45
0.0
 46
0.0
 47
0.0
 48
0.0
 49
0.0
140
0.0
141
0.0
142
1.0
143
1.0
 70
   688
 72
     0
 73
     0
 74
     5
  7

 75
    16
147
1.0
148
0.0
149
0.0
100
AcDbLayout
  1
Layout2
 70
     1
 71
     2
 10
0.0
 20
0.0
 11
0.0
 21
0.0
 12
0.0
 22
0.0
 32
0.0
 14
0.0
 24
0.0
 34
0.0
 15
0.0
 25
0.0
 35
0.0
146
0.0
 13
0.0
 23
0.0
 33
0.0
 16
1.0
 26
0.0
 36
0.0
 17
0.0
 27
1.0
 37
0.0
 76
     0
330
23
  0
LAYOUT
  5
22
102
{ACAD_REACTORS
330
1A
102
}
330
1A
100
AcDbPlotSettings
  1

  2
none_device
  4

  6

 40
0.0
 41
0.0
 42
0.0
 43
0.0
 44
0.0
 45
0.0
 46
0.0
 47
0.0
 48
0.0
 49
0.0
140
0.0
141
0.0
142
1.0
143
1.0
 70
  1712
 72
     0
 73
     0
 74
     0
  7

 75
     0
147
1.0
148
0.0
149
0.0
100
AcDbLayout
  1
Model
 70
     1
 71
     0
 10
0.0
 20
0.0
 11
297.0
 21
210.0
 12
0.0
 22
0.0
 32
0.0
 14
0.0
 24
0.0
 34
0.0
 15
297.0
 25
210.0
 35
0.0
146
0.0
 13
0.0
 23
0.0
 33
0.0
 16
1.0
 26
0.0
 36
0.0
 17
0.0
 27
1.0
 37
0.0
 76
     0
330
1F
331
29
  0
MLINESTYLE
  5
18
102
{ACAD_REACTORS
330
17
102
}
330
17
100
AcDbMlineStyle
  2
Standard
 70
     0
  3

 62
   256
 51
90.0
 52
90.0
 71
     2
 49
0.5
 62
   256
  6
BYLAYER
 49
-0.5
 62
   256
  6
BYLAYER
  0
ACDBPLACEHOLDER
  5
F
102
{ACAD_REACTORS
330
E
102
}
330
E
  0
VISUALSTYLE
  5
2F
102
{ACAD_REACTORS
330
2A
102
}
330
2A
100
AcDbVisualStyle
  2
2dWireframe
 70
     4
 71
     0
 72
     2
 73
     0
 90
        0
 40
-0.6
 41
-30.0
 62
     5
 63
     7
 74
     1
 91
        4
 64
     7
 65
   257
 75
     1
175
     1
 42
1.0
 92
        0
 66
   257
 43
1.0
 76
     1
 77
     6
 78
     2
 67
     7
 79
     5
170
     0
171
     0
290
     0
174
     0
 93
        1
 44
0.0
173
     0
291
     0
 45
0.0
1001
ACAD
1000
AcDbSavedByObjectVersion
1070
     0
  0
VISUALSTYLE
  5
31
102
{ACAD_REACTORS
330
2A
102
}
330
2A
100
AcDbVisualStyle
  2
3D Hidden
 70
     6
 71
     1
 72
     2
 73
     2
 90
        0
 40
-0.6
 41
-30.0
 62
     5
 63
     7
 74
     2
 91
        2
 64
     7
 65
   257
 75
     2
175
     1
 42
40.0
 92
        0
 66
   257
 43
1.0
 76
     1
 77
     6
 78
     2
 67
     7
 79
     3
170
     0
171
     0
290
     0
174
     0
 93
        1
 44
0.0
173
     0
291
     0
 45
0.0
1001
ACAD
1000
AcDbSavedByObjectVersion
1070
     0
  0
VISUALSTYLE
  5
30
102
{ACAD_REACTORS
330
2A
102
}
330
2A
100
AcDbVisualStyle
  2
3dWireframe
 70
     5
 71
     0
 72
     2
 73
     0
 90
        0
 40
-0.6
 41
-30.0
 62
     5
 63
     7
 74
     1
 91
        4
 64
     7
 65
   257
 75
     1
175
     1
 42
1.0
 92
        0
 66
   257
 43
1.0
 76
     1
 77
     6
 78
     2
 67
     7
 79
     5
170
     0
171
     0
290
     0
174
     0
 93
        1
 44
0.0
173
     0
291
     0
 45
0.0
1001
ACAD
1000
AcDbSavedByObjectVersion
1070
     0
  0
VISUALSTYLE
  5
32
102
{ACAD_REACTORS
330
2A
102
}
330
2A
100
AcDbVisualStyle
  2
Basic
 70
     7
 71
     1
 72
     0
 73
     1
 90
        0
 40
-0.6
 41
-30.0
 62
     5
 63
     7
 74
     0
 91
        4
 64
     7
 65
   257
 75
     1
175
     1
 42
1.0
 92
        8
 66
     7
 43
1.0
 76
     1
 77
     6
 78
     2
 67
     7
 79
     5
170
     0
171
     0
290
     0
174
     0
 93
        1
 44
0.0
173
     0
291
     1
 45
0.0
1001
ACAD
1000
AcDbSavedByObjectVersion
1070
     0
  0
VISUALSTYLE
  5
36
102
{ACAD_REACTORS
330
2A
102
}
330
2A
100
AcDbVisualStyle
  2
Brighten
 70
    12
 71
     2
 72
     2
 73
     0
 90
        0
 40
-0.6
 41
-30.0
 62
     5
 63
     7
 74
     1
 91
        4
 64
     7
 65
   257
 75
     1
175
     1
 42
1.0
 92
        8
 66
     7
 43
1.0
 76
     1
 77
     6
 78
     2
 67
     7
 79
     5
170
     0
171
     0
290
     0
174
     0
 93
        1
 44
50.0
173
     0
291
     1
 45
0.0
1001
ACAD
1000
AcDbSavedByObjectVersion
1070
     0
  0
VISUALSTYLE
  5
3A
102
{ACAD_REACTORS
330
2A
102
}
330
2A
100
AcDbVisualStyle
  2
ColorChange
 70
    16
 71
     2
 72
     2
 73
     3
 90
        0
 40
-0.6
 41
-30.0
 62
     5
 63
     8
 74
     1
 91
        4
 64
     7
 65
   257
 75
     1
175
     1
 42
1.0
 92
        8
 66
     8
 43
1.0
 76
     1
 77
     6
 78
     2
 67
     7
 79
     5
170
     0
171
     0
290
     0
174
     0
 93
        1
 44
0.0
173
     0
291
     1
 45
0.0
1001
ACAD
1000
AcDbSavedByObjectVersion
1070
     0
  0
VISUALSTYLE
  5
34
102
{ACAD_REACTORS
330
2A
102
}
330
2A
100
AcDbVisualStyle
  2
Conceptual
 70
     9
 71
     3
 72
     2
 73
     0
 90
        0
 40
-0.6
 41
-30.0
 62
     5
 63
     7
 74
     2
 91
        2
 64
     7
 65
   257
 75
     1
175
     1
 42
40.0
 92
        8
 66
     7
 43
1.0
 76
     1
 77
     6
 78
     2
 67
     7
 79
     3
170
     0
171
     0
290
     0
174
     0
 93
        1
 44
0.0
173
     0
291
     0
 45
0.0
1001
ACAD
1000
AcDbSavedByObjectVersion
1070
     0
  0
VISUALSTYLE
  5
35
102
{ACAD_REACTORS
330
2A
102
}
330
2A
100
AcDbVisualStyle
  2
Dim
 70
    11
 71
     2
 72
     2
 73
     0
 90
        0
 40
-0.6
 41
-30.0
 62
     5
 63
     7
 74
     1
 91
        4
 64
     7
 65
   257
 75
     1
175
     1
 42
1.0
 92
        8
 66
     7
 43
1.0
 76
     1
 77
     6
 78
     2
 67
     7
 79
     5
170
     0
171
     0
290
     0
174
     0
 93
        1
 44
-50.0
173
     0
291
     1
 45
0.0
1001
ACAD
1000
AcDbSavedByObjectVersion
1070
     0
  0
VISUALSTYLE
  5
39
102
{ACAD_REACTORS
330
2A
102
}
330
2A
100
AcDbVisualStyle
  2
Facepattern
 70
    15
 71
     2
 72
     2
 73
     0
 90
        0
 40
-0.6
 41
-30.0
 62
     5
 63
     7
 74
     1
 91
        4
 64
     7
 65
   257
 75
     1
175
     1
 42
1.0
 92
        8
 66
     7
 43
1.0
 76
     1
 77
     6
 78
     2
 67
     7
 79
     5
170
     0
171
     0
290
     0
174
     0
 93
        1
 44
0.0
173
     0
291
     1
 45
0.0
1001
ACAD
1000
AcDbSavedByObjectVersion
1070
     0
  0
VISUALSTYLE
  5
2B
102
{ACAD_REACTORS
330
2A
102
}
330
2A
100
AcDbVisualStyle
  2
Flat
 70
     0
 71
     2
 72
     1
 73
     1
 90
        2
 40
-0.6
 41
30.0
 62
     5
 63
     7
 74
     0
 91
        4
 64
     7
 65
   257
 75
     1
175
     1
 42
1.0
 92
        8
 66
     7
 43
1.0
 76
     1
 77
     6
 78
     2
 67
     7
 79
     5
170
     0
171
     0
290
     0
174
     0
 93
       13
 44
0.0
173
     0
291
     1
 45
0.0
1001
ACAD
1000
AcDbSavedByObjectVersion
1070
     0
  0
VISUALSTYLE
  5
2C
102
{ACAD_REACTORS
330
2A
102
}
330
2A
100
AcDbVisualStyle
  2
FlatWithEdges
 70
     1
 71
     2
 72
     1
 73
     1
 90
        2
 40
-0.6
 41
30.0
 62
     5
 63
     7
 74
     1
 91
        4
 64
     7
 65
   257
 75
     1
175
     1
 42
1.0
 92
        0
 66
   257
 43
1.0
 76
     1
 77
     6
 78
     2
 67
     7
 79
     5
170
     0
171
     0
290
     0
174
     0
 93
       13
 44
0.0
173
     0
291
     1
 45
0.0
1001
ACAD
1000
AcDbSavedByObjectVersion
1070
     0
  0
VISUALSTYLE
  5
2D
102
{ACAD_REACTORS
330
2A
102
}
330
2A
100
AcDbVisualStyle
  2
Gouraud
 70
     2
 71
     2
 72
     2
 73
     1
 90
        2
 40
-0.6
 41
30.0
 62
     5
 63
     7
 74
     0
 91
        4
 64
     7
 65
   257
 75
     1
175
     1
 42
1.0
 92
        0
 66
     7
 43
1.0
 76
     1
 77
     6
 78
     2
 67
     7
 79
     5
170
     0
171
     0
290
     0
174
     0
 93
       13
 44
0.0
173
     0
291
     1
 45
0.0
1001
ACAD
1000
AcDbSavedByObjectVersion
1070
     0
  0
VISUALSTYLE
  5
2E
102
{ACAD_REACTORS
330
2A
102
}
330
2A
100
AcDbVisualStyle
  2
GouraudWithEdges
 70
     3
 71
     2
 72
     2
 73
     1
 90
        2
 40
-0.6
 41
30.0
 62
     5
 63
     7
 74
     1
 91
        4
 64
     7
 65
   257
 75
     1
175
     1
 42
1.0
 92
        0
 66
   257
 43
1.0
 76
     1
 77
     6
 78
     2
 67
     7
 79
     5
170
     0
171
     0
290
     0
174
     0
 93
       13
 44
0.0
173
     0
291
     1
 45
0.0
1001
ACAD
1000
AcDbSavedByObjectVersion
1070
     0
  0
VISUALSTYLE
  5
38
102
{ACAD_REACTORS
330
2A
102
}
330
2A
100
AcDbVisualStyle
  2
Linepattern
 70
    14
 71
     2
 72
     2
 73
     0
 90
        0
 40
-0.6
 41
-30.0
 62
     5
 63
     7
 74
     1
 91
        4
 64
     7
 65
   257
 75
     7
175
     7
 42
1.0
 92
        8
 66
     7
 43
1.0
 76
     1
 77
     6
 78
     2
 67
     7
 79
     5
170
     0
171
     0
290
     0
174
     0
 93
        1
 44
0.0
173
     0
291
     1
 45
0.0
1001
ACAD
1000
AcDbSavedByObjectVersion
1070
     0
  0
VISUALSTYLE
  5
33
102
{ACAD_REACTORS
330
2A
102
}
330
2A
100
AcDbVisualStyle
  2
Realistic
 70
     8
 71
     2
 72
     2
 73
     0
 90
        0
 40
-0.6
 41
-30.0
 62
     5
 63
     7
 74
     1
 91
        0
 64
     7
 65
   257
 75
     1
175
     1
 42
1.0
 92
        8
 66
     8
 43
1.0
 76
     1
 77
     6
 78
     2
 67
     7
 79
     5
170
     0
171
     0
290
     0
174
     0
 93
       13
 44
0.0
173
     0
291
     0
 45
0.0
1001
ACAD
1000
AcDbSavedByObjectVersion
1070
     0
  0
VISUALSTYLE
  5
37
102
{ACAD_REACTORS
330
2A
102
}
330
2A
100
AcDbVisualStyle
  2
Thicken
 70
    13
 71
     2
 72
     2
 73
     0
 90
        0
 40
-0.6
 41
-30.0
 62
     5
 63
     7
 74
     1
 91
        4
 64
     7
 65
   257
 75
     1
175
     1
 42
1.0
 92
       12
 66
     7
 43
1.0
 76
     1
 77
     6
 78
     2
 67
     7
 79
     5
170
     0
171
     0
290
     0
174
     0
 93
        1
 44
0.0
173
     0
291
     1
 45
0.0
1001
ACAD
1000
AcDbSavedByObjectVersion
1070
     0
  0
DICTIONARYVAR
  5
32B
102
{ACAD_REACTORS
330
329
102
}
330
329
100
DictionaryVariables
280
     0
  1
80.000000
  0
DICTIONARYVAR
  5
32A
102
{ACAD_REACTORS
330
329
102
}
330
329
100
DictionaryVariables
280
     0
  1
5.000000
  0
ENDSEC
  0
EOF
