  0
SECTION
  2
HEADER
  9
$ACADVER
  1
AC1015
  9
$ACADMAINTVER
 70
     6
  9
$DWGCODEPAGE
  3
ANSI_1252
  9
$INSBASE
 10
0.0
 20
0.0
 30
0.0
  9
$EXTMIN
 10
0.0
 20
0.0
 30
0.0
  9
$EXTMAX
 10
297.0
 20
210.0
 30
0.0
  9
$LIMMIN
 10
0.0
 20
0.0
  9
$LIMMAX
 10
297.0
 20
210.0
  9
$ORTHOMODE
 70
     0
  9
$REGENMODE
 70
     1
  9
$FILLMODE
 70
     1
  9
$QTEXTMODE
 70
     0
  9
$MIRRTEXT
 70
     1
  9
$LTSCALE
 40
1.0
  9
$ATTMODE
 70
     1
  9
$TEXTSIZE
 40
2.0
  9
$TRACEWID
 40
1.0
  9
$TEXTSTYLE
  7
Standard
  9
$CLAYER
  8
0
  9
$CELTYPE
  6
ByLayer
  9
$CECOLOR
 62
   256
  9
$CELTSCALE
 40
1.0
  9
$DISPSILH
 70
     0
  9
$DIMSCALE
 40
1.0
  9
$DIMASZ
 40
3.0
  9
$DIMEXO
 40
0.0
  9
$DIMDLI
 40
3.75
  9
$DIMRND
 40
0.0
  9
$DIMDLE
 40
0.0
  9
$DIMEXE
 40
1.0
  9
$DIMTP
 40
0.0
  9
$DIMTM
 40
0.0
  9
$DIMTXT
 40
2.0
  9
$DIMCEN
 40
2.5
  9
$DIMTSZ
 40
0.0
  9
$DIMTOL
 70
     0
  9
$DIMLIM
 70
     0
  9
$DIMTIH
 70
     1
  9
$DIMTOH
 70
     1
  9
$DIMSE1
 70
     0
  9
$DIMSE2
 70
     0
  9
$DIMTAD
 70
     1
  9
$DIMZIN
 70
     0
  9
$DIMBLK
  1

  9
$DIMASO
 70
     1
  9
$DIMSHO
 70
     1
  9
$DIMPOST
  1

  9
$DIMAPOST
  1

  9
$DIMALT
 70
     0
  9
$DIMALTD
 70
     3
  9
$DIMALTF
 40
0.0393700787
  9
$DIMLFAC
 40
1.0
  9
$DIMTOFL
 70
     1
  9
$DIMTVP
 40
0.0
  9
$DIMTIX
 70
     0
  9
$DIMSOXD
 70
     0
  9
$DIMSAH
 70
     0
  9
$DIMBLK1
  1

  9
$DIMBLK2
  1

  9
$DIMSTYLE
  2
ISO-25
  9
$DIMCLRD
 70
     0
  9
$DIMCLRE
 70
     0
  9
$DIMCLRT
 70
     0
  9
$DIMTFAC
 40
1.0
  9
$DIMGAP
 40
1.524
  9
$DIMJUST
 70
     0
  9
$DIMSD1
 70
     0
  9
$DIMSD2
 70
     0
  9
$DIMTOLJ
 70
     0
  9
$DIMTZIN
 70
     0
  9
$DIMALTZ
 70
     0
  9
$DIMALTTZ
 70
     0
  9
$DIMUPT
 70
     0
  9
$DIMDEC
 70
     2
  9
$DIMTDEC
 70
     3
  9
$DIMALTU
 70
     2
  9
$DIMALTTD
 70
     3
  9
$DIMTXSTY
  7
Standard
  9
$DIMAUNIT
 70
     0
  9
$DIMADEC
 70
     2
  9
$DIMALTRND
 40
0.0
  9
$DIMAZIN
 70
     0
  9
$DIMDSEP
 70
    44
  9
$DIMATFIT
 70
     3
  9
$DIMFRAC
 70
     0
  9
$DIMLDRBLK
  1

  9
$DIMLUNIT
 70
     2
  9
$DIMLWD
 70
    -2
  9
$DIMLWE
 70
    -2
  9
$DIMTMOVE
 70
     0
  9
$LUNITS
 70
     2
  9
$LUPREC
 70
     2
  9
$SKETCHINC
 40
1.0
  9
$FILLETRAD
 40
10.0
  9
$AUNITS
 70
     0
  9
$AUPREC
 70
     2
  9
$MENU
  1
.
  9
$ELEVATION
 40
0.0
  9
$PELEVATION
 40
0.0
  9
$THICKNESS
 40
0.0
  9
$LIMCHECK
 70
     0
  9
$CHAMFERA
 40
10.0
  9
$CHAMFERB
 40
10.0
  9
$CHAMFERC
 40
20.0
  9
$CHAMFERD
 40
0.0
  9
$SKPOLY
 70
     0
  9
$TDCREATE
 40
2456465.467575984
  9
$TDUCREATE
 40
2456465.384242651
  9
$TDUPDATE
 40
2456465.46757743
  9
$TDUUPDATE
 40
2456465.384244097
  9
$TDINDWG
 40
0.0000000116
  9
$TDUSRTIMER
 40
0.0000000116
  9
$USRTIMER
 70
     1
  9
$ANGBASE
 50
0.0
  9
$ANGDIR
 70
     0
  9
$PDMODE
 70
     0
  9
$PDSIZE
 40
-1.0
  9
$PLINEWID
 40
0.0
  9
$SPLFRAME
 70
     0
  9
$SPLINETYPE
 70
     6
  9
$SPLINESEGS
 70
     8
  9
$HANDSEED
  5
256
  9
$SURFTAB1
 70
     6
  9
$SURFTAB2
 70
     6
  9
$SURFTYPE
 70
     6
  9
$SURFU
 70
     6
  9
$SURFV
 70
     6
  9
$UCSBASE
  2

  9
$UCSNAME
  2

  9
$UCSORG
 10
0.0
 20
0.0
 30
0.0
  9
$UCSXDIR
 10
1.0
 20
0.0
 30
0.0
  9
$UCSYDIR
 10
0.0
 20
1.0
 30
0.0
  9
$UCSORTHOREF
  2

  9
$UCSORTHOVIEW
 70
     0
  9
$UCSORGTOP
 10
0.0
 20
0.0
 30
0.0
  9
$UCSORGBOTTOM
 10
0.0
 20
0.0
 30
0.0
  9
$UCSORGLEFT
 10
0.0
 20
0.0
 30
0.0
  9
$UCSORGRIGHT
 10
0.0
 20
0.0
 30
0.0
  9
$UCSORGFRONT
 10
0.0
 20
0.0
 30
0.0
  9
$UCSORGBACK
 10
0.0
 20
0.0
 30
0.0
  9
$PUCSBASE
  2

  9
$PUCSNAME
  2

  9
$PUCSORG
 10
0.0
 20
0.0
 30
0.0
  9
$PUCSXDIR
 10
1.0
 20
0.0
 30
0.0
  9
$PUCSYDIR
 10
0.0
 20
1.0
 30
0.0
  9
$PUCSORTHOREF
  2

  9
$PUCSORTHOVIEW
 70
     0
  9
$PUCSORGTOP
 10
0.0
 20
0.0
 30
0.0
  9
$PUCSORGBOTTOM
 10
0.0
 20
0.0
 30
0.0
  9
$PUCSORGLEFT
 10
0.0
 20
0.0
 30
0.0
  9
$PUCSORGRIGHT
 10
0.0
 20
0.0
 30
0.0
  9
$PUCSORGFRONT
 10
0.0
 20
0.0
 30
0.0
  9
$PUCSORGBACK
 10
0.0
 20
0.0
 30
0.0
  9
$USERI1
 70
     0
  9
$USERI2
 70
     0
  9
$USERI3
 70
     0
  9
$USERI4
 70
     0
  9
$USERI5
 70
     0
  9
$USERR1
 40
0.0
  9
$USERR2
 40
0.0
  9
$USERR3
 40
0.0
  9
$USERR4
 40
0.0
  9
$USERR5
 40
0.0
  9
$WORLDVIEW
 70
     1
  9
$SHADEDGE
 70
     3
  9
$SHADEDIF
 70
    70
  9
$TILEMODE
 70
     1
  9
$MAXACTVP
 70
    64
  9
$PINSBASE
 10
0.0
 20
0.0
 30
0.0
  9
$PLIMCHECK
 70
     0
  9
$PEXTMIN
 10
1.0000000000E+20
 20
1.0000000000E+20
 30
1.0000000000E+20
  9
$PEXTMAX
 10
-1.0000000000E+20
 20
-1.0000000000E+20
 30
-1.0000000000E+20
  9
$PLIMMIN
 10
0.0
 20
0.0
  9
$PLIMMAX
 10
420.0
 20
297.0
  9
$UNITMODE
 70
     0
  9
$VISRETAIN
 70
     1
  9
$PLINEGEN
 70
     0
  9
$PSLTSCALE
 70
     1
  9
$TREEDEPTH
 70
  3020
  9
$CMLSTYLE
  2
Standard
  9
$CMLJUST
 70
     0
  9
$CMLSCALE
 40
20.0
  9
$PROXYGRAPHICS
 70
     1
  9
$MEASUREMENT
 70
     1
  9
$CELWEIGHT
370
    -1
  9
$ENDCAPS
280
     0
  9
$JOINSTYLE
280
     0
  9
$LWDISPLAY
290
     1
  9
$INSUNITS
 70
     4
  9
$HYPERLINKBASE
  1

  9
$STYLESHEET
  1

  9
$XEDIT
290
     1
  9
$CEPSNTYPE
380
     0
  9
$PSTYLEMODE
290
     1
  9
$FINGERPRINTGUID
  2
{CEAF1A40-37D5-4904-9580-E35D2C8F8928}
  9
$VERSIONGUID
  2
{FAEB1C32-E019-11D5-929B-00C0DF256EC4}
  9
$EXTNAMES
290
     1
  9
$PSVPSCALE
 40
0.0
  9
$OLESTARTUP
290
     0
  0
ENDSEC
  0
SECTION
  2
CLASSES
  0
CLASS
  1
ACDBDICTIONARYWDFLT
  2
AcDbDictionaryWithDefault
  3
ObjectDBX Classes
 90
        0
280
     0
281
     0
  0
CLASS
  1
VISUALSTYLE
  2
AcDbVisualStyle
  3
ObjectDBX Classes
 90
     4095
280
     0
281
     0
  0
CLASS
  1
MATERIAL
  2
AcDbMaterial
  3
ObjectDBX Classes
 90
     1153
280
     0
281
     0
  0
CLASS
  1
ACDBPLACEHOLDER
  2
AcDbPlaceHolder
  3
ObjectDBX Classes
 90
        0
280
     0
281
     0
  0
CLASS
  1
LAYOUT
  2
AcDbLayout
  3
ObjectDBX Classes
 90
        0
280
     0
281
     0
  0
ENDSEC
  0
SECTION
  2
TABLES
  0
TABLE
  2
VPORT
  5
8
330
0
100
AcDbSymbolTable
 70
     1
  0
VPORT
  5
29
330
8
100
AcDbSymbolTableRecord
100
AcDbViewportTableRecord
  2
*Active
 70
     0
 10
0.0
 20
0.0
 11
1.0
 21
1.0
 12
148.5
 22
105.0
 13
0.0
 23
0.0
 14
10.0
 24
10.0
 15
10.0
 25
10.0
 16
0.0
 26
0.0
 36
1.0
 17
0.0
 27
0.0
 37
0.0
 40
210.0
 41
1.4142857143
 42
50.0
 43
0.0
 44
0.0
 50
0.0
 51
0.0
 71
     0
 72
  2000
 73
     1
 74
     3
 75
     0
 76
     0
 77
     0
 78
     0
281
     0
 65
     1
110
0.0
120
0.0
130
0.0
111
1.0
121
0.0
131
0.0
112
0.0
122
1.0
132
0.0
 79
     0
146
0.0
  0
ENDTAB
  0
TABLE
  2
LTYPE
  5
5
330
0
100
AcDbSymbolTable
 70
     6
  0
LTYPE
  5
14
330
5
100
AcDbSymbolTableRecord
100
AcDbLinetypeTableRecord
  2
ByBlock
 70
     0
  3

 72
    65
 73
     0
 40
0.0
  0
LTYPE
  5
15
330
5
100
AcDbSymbolTableRecord
100
AcDbLinetypeTableRecord
  2
ByLayer
 70
     0
  3

 72
    65
 73
     0
 40
0.0
  0
LTYPE
  5
16
330
5
100
AcDbSymbolTableRecord
100
AcDbLinetypeTableRecord
  2
Continuous
 70
     0
  3
Solid line
 72
    65
 73
     0
 40
0.0
  0
LTYPE
  5
3F
330
5
100
AcDbSymbolTableRecord
100
AcDbLinetypeTableRecord
  2
HIDDEN
 70
     0
  3
Hidden __ __ __ __ __ __ __ __ __ __ __ __ __ __
 72
    65
 73
     2
 40
1.905
 49
1.27
 74
     0
 49
-0.635
 74
     0
  0
LTYPE
  5
40
330
5
100
AcDbSymbolTableRecord
100
AcDbLinetypeTableRecord
  2
PHANTOM
 70
     0
  3
Phantom ______  __  __  ______  __  __  ______
 72
    65
 73
     6
 40
12.7
 49
6.35
 74
     0
 49
-1.27
 74
     0
 49
1.27
 74
     0
 49
-1.27
 74
     0
 49
1.27
 74
     0
 49
-1.27
 74
     0
  0
LTYPE
  5
41
330
5
100
AcDbSymbolTableRecord
100
AcDbLinetypeTableRecord
  2
CENTER
 70
     0
  3
Center ____ _ ____ _ ____ _ ____ _ ____ _ ____
 72
    65
 73
     4
 40
10.16
 49
6.35
 74
     0
 49
-1.27
 74
     0
 49
1.27
 74
     0
 49
-1.27
 74
     0
  0
LTYPE
  5
42
330
5
100
AcDbSymbolTableRecord
100
AcDbLinetypeTableRecord
  2
CENTERX2
 70
     0
  3
Center (2x) ________  __  ________  __  _____
 72
    65
 73
     4
 40
20.32
 49
12.7
 74
     0
 49
-2.54
 74
     0
 49
2.54
 74
     0
 49
-2.54
 74
     0
  0
LTYPE
  5
43
330
5
100
AcDbSymbolTableRecord
100
AcDbLinetypeTableRecord
  2
DOT2
 70
     0
  3
Dot (.5x) ........................................
 72
    65
 73
     2
 40
0.635
 49
0.0
 74
     0
 49
-0.635
 74
     0
  0
ENDTAB
  0
TABLE
  2
LAYER
  5
2
330
0
100
AcDbSymbolTable
 70
     5
  0
LAYER
  5
10
330
2
100
AcDbSymbolTableRecord
100
AcDbLayerTableRecord
  2
0
 70
     0
 62
     7
  6
Continuous
370
    -3
390
F
  0
LAYER
  5
44
330
2
100
AcDbSymbolTableRecord
100
AcDbLayerTableRecord
  2
FORMAT
 70
     0
 62
     7
  6
Continuous
370
    -3
390
F
  0
LAYER
  5
45
330
2
100
AcDbSymbolTableRecord
100
AcDbLayerTableRecord
  2
VERMASSUNG
 70
     0
 62
     7
  6
Continuous
370
    -3
390
F
  0
LAYER
  5
46
330
2
100
AcDbSymbolTableRecord
100
AcDbLayerTableRecord
  2
KOPF_DÜNN
 70
     0
 62
     7
  6
Continuous
370
    -3
390
F
  0
LAYER
  5
47
330
2
100
AcDbSymbolTableRecord
100
AcDbLayerTableRecord
  2
KOPF_DICK
 70
     0
 62
     7
  6
Continuous
370
    15
390
F
  0
ENDTAB
  0
TABLE
  2
STYLE
  5
3
330
0
100
AcDbSymbolTable
 70
     3
  0
STYLE
  5
11
330
3
100
AcDbSymbolTableRecord
100
AcDbTextStyleTableRecord
  2
Standard
 70
     0
 40
0.0
 41
1.0
 50
0.0
 71
     0
 42
2.0
  3
txt
  4

  0
STYLE
  5
48
330
3
100
AcDbSymbolTableRecord
100
AcDbTextStyleTableRecord
  2
SLDTEXTSTYLE0
 70
     0
 40
0.0
 41
0.7
 50
0.0
 71
     0
 42
0.2
  3
TXT
  4

  0
STYLE
  5
4C
330
3
100
AcDbSymbolTableRecord
100
AcDbTextStyleTableRecord
  2
SLDTEXTSTYLE1
 70
     0
 40
0.0
 41
0.6470588235
 50
0.0
 71
     0
 42
0.2
  3
TXT
  4

  0
ENDTAB
  0
TABLE
  2
VIEW
  5
6
330
0
100
AcDbSymbolTable
 70
     0
  0
ENDTAB
  0
TABLE
  2
UCS
  5
7
330
0
100
AcDbSymbolTable
 70
     0
  0
ENDTAB
  0
TABLE
  2
APPID
  5
9
330
0
100
AcDbSymbolTable
 70
     1
  0
APPID
  5
12
330
9
100
AcDbSymbolTableRecord
100
AcDbRegAppTableRecord
  2
ACAD
 70
     0
  0
ENDTAB
  0
TABLE
  2
DIMSTYLE
  5
A
330
0
100
AcDbSymbolTable
 70
     4
100
AcDbDimStyleTable
  0
DIMSTYLE
105
27
330
A
100
AcDbSymbolTableRecord
100
AcDbDimStyleTableRecord
  2
ISO-25
 70
     0
 41
2.5
 42
0.625
 43
3.75
 44
1.25
 73
     0
 74
     0
 77
     1
 78
     8
140
2.5
141
2.5
143
0.0393700787
147
0.625
171
     3
172
     1
178
     0
271
     2
272
     2
274
     3
278
    44
283
     0
284
     8
340
11
  0
DIMSTYLE
105
1D0
102
{ACAD_REACTORS
330
1CF
102
}
330
A
100
AcDbSymbolTableRecord
100
AcDbDimStyleTableRecord
  2
SLDDIMSTYLE0
 70
     0
 41
3.0
 44
0.0
 73
     0
 74
     0
 77
     1
 78
    12
 79
     3
140
2.0
147
0.5
173
     1
178
     0
179
     2
272
     3
276
     2
284
    12
340
48
  0
DIMSTYLE
105
1D9
102
{ACAD_REACTORS
330
1D8
330
1E5
330
1EF
330
1F9
102
}
330
A
100
AcDbSymbolTableRecord
100
AcDbDimStyleTableRecord
  2
SLDDIMSTYLE1
 70
     0
 41
3.0
 44
0.0
 45
0.000000001
 73
     0
 74
     0
 77
     1
 78
    12
 79
     3
140
2.0
147
0.5
173
     1
178
     0
271
     2
272
     3
276
     2
284
    12
340
48
  0
DIMSTYLE
105
240
102
{ACAD_REACTORS
330
23F
102
}
330
A
100
AcDbSymbolTableRecord
100
AcDbDimStyleTableRecord
  2
SLDDIMSTYLE2
 70
     0
 41
3.0
 44
0.0
 45
0.000000001
 73
     0
 74
     0
 77
     1
 78
    12
 79
     3
140
2.0
141
0.0
147
0.5
173
     1
178
     0
271
     2
272
     3
276
     2
284
    12
340
48
  0
ENDTAB
  0
TABLE
  2
BLOCK_RECORD
  5
1
330
0
100
AcDbSymbolTable
 70
     8
  0
BLOCK_RECORD
  5
1F
330
1
100
AcDbSymbolTableRecord
100
AcDbBlockTableRecord
  2
*Model_Space
340
22
  0
BLOCK_RECORD
  5
1B
330
1
100
AcDbSymbolTableRecord
100
AcDbBlockTableRecord
  2
*Paper_Space
340
1E
  0
BLOCK_RECORD
  5
23
330
1
100
AcDbSymbolTableRecord
100
AcDbBlockTableRecord
  2
*Paper_Space0
340
26
  0
BLOCK_RECORD
  5
1D1
330
1
100
AcDbSymbolTableRecord
100
AcDbBlockTableRecord
  2
_D
340
0
  0
BLOCK_RECORD
  5
1DA
330
1
100
AcDbSymbolTableRecord
100
AcDbBlockTableRecord
  2
_D_1
340
0
  0
BLOCK_RECORD
  5
1E6
330
1
100
AcDbSymbolTableRecord
100
AcDbBlockTableRecord
  2
_D_2
340
0
  0
BLOCK_RECORD
  5
1F0
330
1
100
AcDbSymbolTableRecord
100
AcDbBlockTableRecord
  2
_D_3
340
0
  0
BLOCK_RECORD
  5
1FA
330
1
100
AcDbSymbolTableRecord
100
AcDbBlockTableRecord
  2
_D_4
340
0
  0
BLOCK_RECORD
  5
241
330
1
100
AcDbSymbolTableRecord
100
AcDbBlockTableRecord
  2
_D_5
340
0
  0
BLOCK_RECORD
  5
249
330
1
100
AcDbSymbolTableRecord
100
AcDbBlockTableRecord
  2
SW_CENTERMARKSYMBOL_0
340
0
102
{BLKREFS
331
254
102
}
  0
ENDTAB
  0
ENDSEC
  0
SECTION
  2
BLOCKS
  0
BLOCK
  5
20
330
1F
100
AcDbEntity
  8
0
100
AcDbBlockBegin
  2
*Model_Space
 70
     0
 10
0.0
 20
0.0
 30
0.0
  3
*Model_Space
  1

  0
ENDBLK
  5
21
330
1F
100
AcDbEntity
  8
0
100
AcDbBlockEnd
  0
BLOCK
  5
1C
330
1B
100
AcDbEntity
 67
     1
  8
0
100
AcDbBlockBegin
  2
*Paper_Space
 70
     0
 10
0.0
 20
0.0
 30
0.0
  3
*Paper_Space
  1

  0
ENDBLK
  5
1D
330
1B
100
AcDbEntity
 67
     1
  8
0
100
AcDbBlockEnd
  0
BLOCK
  5
24
330
23
100
AcDbEntity
  8
0
100
AcDbBlockBegin
  2
*Paper_Space0
 70
     0
 10
0.0
 20
0.0
 30
0.0
  3
*Paper_Space0
  1

  0
ENDBLK
  5
25
330
23
100
AcDbEntity
  8
0
100
AcDbBlockEnd
  0
BLOCK
  5
1D2
330
1D1
100
AcDbEntity
  8
0
100
AcDbBlockBegin
  2
_D
 70
     0
 10
0.0
 20
0.0
 30
0.0
  3
_D
  1

  0
ARC
  5
1D4
330
1D1
100
AcDbEntity
  8
VERMASSUNG
100
AcDbCircle
 10
252.7461551633
 20
149.299534239
 30
0.0
 40
11.48985346931
100
AcDbArc
 50
267.0
 51
0.0
  0
SOLID
  5
1D5
330
1D1
100
AcDbEntity
  8
VERMASSUNG
100
AcDbTrace
 10
252.1448226949
 20
137.8254272146
 30
0.0
 11
255.1701832965
 21
137.6025074294
 31
0.0
 12
255.10244218
 22
138.4999544424
 32
0.0
 13
255.10244218
 23
138.4999544424
 33
0.0
  0
SOLID
  5
1D6
330
1D1
100
AcDbEntity
  8
VERMASSUNG
100
AcDbTrace
 10
264.2360086326
 20
149.299534239
 30
0.0
 11
263.4076159769
 21
146.3812700961
 31
0.0
 12
264.3002877739
 22
146.2666530689
 32
0.0
 13
264.3002877739
 23
146.2666530689
 33
0.0
  0
MTEXT
  5
1D7
330
1D1
100
AcDbEntity
  8
VERMASSUNG
100
AcDbMText
 10
256.7769912809
 20
140.8389739187
 30
0.1
 40
2.0
 41
0.0
 71
     1
 72
     1
  1
93°
  7
SLDTEXTSTYLE0
 11
0.725374371012294
 21
0.6883545756937474
 31
0.0
 73
     1
 44
1.0
  0
ENDBLK
  5
1D3
330
1D1
100
AcDbEntity
  8
0
100
AcDbBlockEnd
  0
BLOCK
  5
1DB
330
1DA
100
AcDbEntity
  8
0
100
AcDbBlockBegin
  2
_D_1
 70
     0
 10
0.0
 20
0.0
 30
0.0
  3
_D_1
  1

  0
SOLID
  5
1DD
330
1DA
100
AcDbEntity
  8
VERMASSUNG
100
AcDbTrace
 10
140.6633334625
 20
135.799534239
 30
0.0
 11
140.2133334625
 21
132.799534239
 31
0.0
 12
141.1133334625
 22
132.799534239
 32
0.0
 13
141.1133334625
 23
132.799534239
 33
0.0
  0
SOLID
  5
1DE
330
1DA
100
AcDbEntity
  8
VERMASSUNG
100
AcDbTrace
 10
140.6633334625
 20
72.799534239
 30
0.0
 11
141.1133334625
 21
75.799534239
 31
0.0
 12
140.2133334625
 22
75.799534239
 32
0.0
 13
140.2133334625
 23
75.799534239
 33
0.0
  0
LINE
  5
1DF
330
1DA
100
AcDbEntity
  8
VERMASSUNG
100
AcDbLine
 10
183.0246431132
 20
135.799534239
 30
0.0
 11
139.6633334625
 21
135.799534239
 31
0.0
  0
LINE
  5
1E0
330
1DA
100
AcDbEntity
  8
VERMASSUNG
100
AcDbLine
 10
183.0246431132
 20
72.799534239
 30
0.0
 11
139.6633334625
 21
72.799534239
 31
0.0
  0
LINE
  5
1E1
330
1DA
100
AcDbEntity
  8
VERMASSUNG
100
AcDbLine
 10
140.6633334625
 20
135.799534239
 30
0.0
 11
140.6633334625
 21
72.799534239
 31
0.0
  0
MTEXT
  5
1E2
330
1DA
100
AcDbEntity
  8
VERMASSUNG
100
AcDbMText
 10
137.8851979734
 20
96.6967261558
 30
0.0
 40
2.0
 41
0.0
 71
     1
 72
     1
  1
HSK T
  7
SLDTEXTSTYLE0
 11
-7.044195017643634E-15
 21
1.0
 31
0.0
 73
     1
 44
1.0
  0
MTEXT
  5
1E3
330
1DA
100
AcDbEntity
  8
VERMASSUNG
100
AcDbMText
 10
138.0851979829
 20
105.4967261082
 30
0.0
 40
2.0
 41
0.0
 71
     1
 72
     1
  1
%%c
  7
SLDTEXTSTYLE0
 11
-7.044195017643634E-15
 21
1.0
 31
0.0
 73
     1
 44
1.0
  0
MTEXT
  5
1E4
330
1DA
100
AcDbEntity
  8
VERMASSUNG
100
AcDbMText
 10
138.0851980993
 20
109.1042389256
 30
0.0
 40
2.0
 41
0.0
 71
     1
 72
     1
  1
63
  7
SLDTEXTSTYLE0
 11
-7.044195017643634E-15
 21
1.0
 31
0.0
 73
     1
 44
1.0
  0
ENDBLK
  5
1DC
330
1DA
100
AcDbEntity
  8
0
100
AcDbBlockEnd
  0
BLOCK
  5
1E7
330
1E6
100
AcDbEntity
  8
0
100
AcDbBlockBegin
  2
_D_2
 70
     0
 10
0.0
 20
0.0
 30
0.0
  3
_D_2
  1

  0
SOLID
  5
1E9
330
1E6
100
AcDbEntity
  8
VERMASSUNG
100
AcDbTrace
 10
271.3490915958
 20
149.299534239
 30
0.0
 11
270.8990915958
 21
146.299534239
 31
0.0
 12
271.7990915958
 22
146.299534239
 32
0.0
 13
271.7990915958
 23
146.299534239
 33
0.0
  0
SOLID
  5
1EA
330
1E6
100
AcDbEntity
  8
VERMASSUNG
100
AcDbTrace
 10
271.3490915958
 20
104.299534239
 30
0.0
 11
271.7990915958
 21
107.299534239
 31
0.0
 12
270.8990915958
 22
107.299534239
 32
0.0
 13
270.8990915958
 23
107.299534239
 33
0.0
  0
LINE
  5
1EB
330
1E6
100
AcDbEntity
  8
VERMASSUNG
100
AcDbLine
 10
252.7246431132
 20
149.299534239
 30
0.0
 11
272.3490915958
 21
149.299534239
 31
0.0
  0
LINE
  5
1EC
330
1E6
100
AcDbEntity
  8
VERMASSUNG
100
AcDbLine
 10
248.1556675129
 20
104.299534239
 30
0.0
 11
272.3490915958
 21
104.299534239
 31
0.0
  0
LINE
  5
1ED
330
1E6
100
AcDbEntity
  8
VERMASSUNG
100
AcDbLine
 10
271.3490915958
 20
149.299534239
 30
0.0
 11
271.3490915958
 21
104.299534239
 31
0.0
  0
MTEXT
  5
1EE
330
1E6
100
AcDbEntity
  8
VERMASSUNG
100
AcDbMText
 10
268.7709562327
 20
125.3009119132
 30
0.0
 40
2.0
 41
0.0
 71
     1
 72
     1
  1
45
  7
SLDTEXTSTYLE0
 11
-7.044195017643634E-15
 21
1.0
 31
0.0
 73
     1
 44
1.0
  0
ENDBLK
  5
1E8
330
1E6
100
AcDbEntity
  8
0
100
AcDbBlockEnd
  0
BLOCK
  5
1F1
330
1F0
100
AcDbEntity
  8
0
100
AcDbBlockBegin
  2
_D_3
 70
     0
 10
0.0
 20
0.0
 30
0.0
  3
_D_3
  1

  0
SOLID
  5
1F3
330
1F0
100
AcDbEntity
  8
VERMASSUNG
100
AcDbTrace
 10
252.7246431132
 20
151.7161783135
 30
0.0
 11
249.7246431132
 21
152.1661783135
 31
0.0
 12
249.7246431132
 22
151.2661783135
 32
0.0
 13
249.7246431132
 23
151.2661783135
 33
0.0
  0
SOLID
  5
1F4
330
1F0
100
AcDbEntity
  8
VERMASSUNG
100
AcDbTrace
 10
182.7246431132
 20
151.7161783135
 30
0.0
 11
185.7246431132
 21
151.2661783135
 31
0.0
 12
185.7246431132
 22
152.1661783135
 32
0.0
 13
185.7246431132
 23
152.1661783135
 33
0.0
  0
LINE
  5
1F5
330
1F0
100
AcDbEntity
  8
VERMASSUNG
100
AcDbLine
 10
252.7246431132
 20
149.299534239
 30
0.0
 11
252.7246431132
 21
152.7161783135
 31
0.0
  0
LINE
  5
1F6
330
1F0
100
AcDbEntity
  8
VERMASSUNG
100
AcDbLine
 10
182.7246431132
 20
135.499534239
 30
0.0
 11
182.7246431132
 21
152.7161783135
 31
0.0
  0
LINE
  5
1F7
330
1F0
100
AcDbEntity
  8
VERMASSUNG
100
AcDbLine
 10
252.7246431132
 20
151.7161783135
 30
0.0
 11
182.7246431132
 21
151.7161783135
 31
0.0
  0
MTEXT
  5
1F8
330
1F0
100
AcDbEntity
  8
VERMASSUNG
100
AcDbMText
 10
216.3255914149
 20
154.2943136767
 30
0.0
 40
2.0
 41
0.0
 71
     1
 72
     1
  1
70
  7
SLDTEXTSTYLE0
 73
     1
 44
1.0
  0
ENDBLK
  5
1F2
330
1F0
100
AcDbEntity
  8
0
100
AcDbBlockEnd
  0
BLOCK
  5
1FB
330
1FA
100
AcDbEntity
  8
0
100
AcDbBlockBegin
  2
_D_4
 70
     0
 10
0.0
 20
0.0
 30
0.0
  3
_D_4
  1

  0
SOLID
  5
1FD
330
1FA
100
AcDbEntity
  8
VERMASSUNG
100
AcDbTrace
 10
252.7246431132
 20
157.7161783135
 30
0.0
 11
249.7246431132
 21
158.1661783135
 31
0.0
 12
249.7246431132
 22
157.2661783135
 32
0.0
 13
249.7246431132
 23
157.2661783135
 33
0.0
  0
SOLID
  5
1FE
330
1FA
100
AcDbEntity
  8
VERMASSUNG
100
AcDbTrace
 10
150.8246431132
 20
157.7161783135
 30
0.0
 11
153.8246431132
 21
157.2661783135
 31
0.0
 12
153.8246431132
 22
158.1661783135
 32
0.0
 13
153.8246431132
 23
158.1661783135
 33
0.0
  0
LINE
  5
1FF
330
1FA
100
AcDbEntity
  8
VERMASSUNG
100
AcDbLine
 10
252.7246431132
 20
149.299534239
 30
0.0
 11
252.7246431132
 21
158.7161783135
 31
0.0
  0
LINE
  5
200
330
1FA
100
AcDbEntity
  8
VERMASSUNG
100
AcDbLine
 10
150.8246431132
 20
123.9902119855
 30
0.0
 11
150.8246431132
 21
158.7161783135
 31
0.0
  0
LINE
  5
201
330
1FA
100
AcDbEntity
  8
VERMASSUNG
100
AcDbLine
 10
252.7246431132
 20
157.7161783135
 30
0.0
 11
150.8246431132
 21
157.7161783135
 31
0.0
  0
MTEXT
  5
202
330
1FA
100
AcDbEntity
  8
VERMASSUNG
100
AcDbMText
 10
199.0761103441
 20
160.2943136767
 30
0.0
 40
2.0
 41
0.0
 71
     1
 72
     1
  1
101.9
  7
SLDTEXTSTYLE0
 73
     1
 44
1.0
  0
ENDBLK
  5
1FC
330
1FA
100
AcDbEntity
  8
0
100
AcDbBlockEnd
  0
BLOCK
  5
242
330
241
100
AcDbEntity
  8
0
100
AcDbBlockBegin
  2
_D_5
 70
     0
 10
0.0
 20
0.0
 30
0.0
  3
_D_5
  1

  0
SOLID
  5
244
330
241
100
AcDbEntity
  8
VERMASSUNG
100
AcDbTrace
 10
65.7295227092
 20
146.6142850467
 30
0.0
 11
65.0631138269
 21
149.5737443219
 31
0.0
 12
64.2241413253
 22
149.247975782
 32
0.0
 13
64.2241413253
 23
149.247975782
 33
0.0
  0
LINE
  5
245
330
241
100
AcDbEntity
  8
VERMASSUNG
100
AcDbLine
 10
65.7295227092
 20
146.6142850467
 30
0.0
 11
59.7011981758
 21
162.1394137628
 31
0.0
  0
MTEXT
  5
246
330
241
100
AcDbEntity
  8
VERMASSUNG
100
AcDbMText
 10
62.6778494897
 20
161.592255606
 30
0.0
 40
2.0
 41
0.0
 71
     1
 72
     1
  1
%%c
  7
SLDTEXTSTYLE0
 11
0.3619650443707826
 21
-0.9321916684103422
 31
0.0
 73
     1
 44
1.0
  0
MTEXT
  5
247
330
241
100
AcDbEntity
  8
VERMASSUNG
100
AcDbMText
 10
63.9838806211
 20
158.2287500003
 30
0.0
 40
2.0
 41
0.0
 71
     1
 72
     1
  1
80
  7
SLDTEXTSTYLE0
 11
0.3619650443707826
 21
-0.9321916684103422
 31
0.0
 73
     1
 44
1.0
  0
MTEXT
  5
248
330
241
100
AcDbEntity
  8
VERMASSUNG
100
AcDbMText
 10
64.968023699
 20
154.323865487
 30
0.0
 40
1.5
 41
0.0
 71
     1
 72
     1
  1
min.
  7
SLDTEXTSTYLE0
 11
0.3619650443707826
 21
-0.9321916684103422
 31
0.0
 73
     1
 44
1.0
  0
ENDBLK
  5
243
330
241
100
AcDbEntity
  8
0
100
AcDbBlockEnd
  0
BLOCK
  5
24A
330
249
100
AcDbEntity
  8
0
100
AcDbBlockBegin
  2
SW_CENTERMARKSYMBOL_0
 70
     0
 10
0.0
 20
0.0
 30
0.0
  3
SW_CENTERMARKSYMBOL_0
  1

  0
LINE
  5
24C
330
249
100
AcDbEntity
  8
VERMASSUNG
 62
     0
100
AcDbLine
 10
0.0
 20
0.0
 30
0.0
 11
0.0
 21
2.5
 31
0.0
  0
LINE
  5
24D
330
249
100
AcDbEntity
  8
VERMASSUNG
 62
     0
100
AcDbLine
 10
0.0
 20
0.0
 30
0.0
 11
-2.5
 21
0.0
 31
0.0
  0
LINE
  5
24E
330
249
100
AcDbEntity
  8
VERMASSUNG
 62
     0
100
AcDbLine
 10
0.0
 20
0.0
 30
0.0
 11
0.0
 21
-2.5
 31
0.0
  0
LINE
  5
24F
330
249
100
AcDbEntity
  8
VERMASSUNG
 62
     0
100
AcDbLine
 10
0.0
 20
0.0
 30
0.0
 11
2.5
 21
0.0
 31
0.0
  0
LINE
  5
250
330
249
100
AcDbEntity
  8
VERMASSUNG
 62
     0
100
AcDbLine
 10
0.0
 20
5.0
 30
0.0
 11
0.0
 21
34.0
 31
0.0
  0
LINE
  5
251
330
249
100
AcDbEntity
  8
VERMASSUNG
 62
     0
100
AcDbLine
 10
-5.0
 20
0.0
 30
0.0
 11
-34.0
 21
0.0
 31
0.0
  0
LINE
  5
252
330
249
100
AcDbEntity
  8
VERMASSUNG
 62
     0
100
AcDbLine
 10
0.0
 20
-5.0
 30
0.0
 11
0.0
 21
-34.0
 31
0.0
  0
LINE
  5
253
330
249
100
AcDbEntity
  8
VERMASSUNG
 62
     0
100
AcDbLine
 10
5.0
 20
0.0
 30
0.0
 11
34.0
 21
0.0
 31
0.0
  0
ENDBLK
  5
24B
330
249
100
AcDbEntity
  8
0
100
AcDbBlockEnd
  0
ENDSEC
  0
SECTION
  2
ENTITIES
  0
MTEXT
  5
49
330
1F
100
AcDbEntity
  8
KOPF_DÜNN
100
AcDbMText
 10
13.8892156294
 20
23.8442973028
 30
0.0
 40
3.0
 41
0.0
 71
     1
 72
     1
  1
HA6.KVB.RUA.070
  7
SLDTEXTSTYLE0
 73
     1
 44
1.0
  0
MTEXT
  5
4A
330
1F
100
AcDbEntity
  8
VERMASSUNG
100
AcDbMText
 10
13.9329988022
 20
28.8834360957
 30
0.0
 40
3.0
 41
0.0
 71
     1
 72
     1
  1
Klemmhalter rechts_Turning tool right 93° /35°
  7
SLDTEXTSTYLE0
 73
     1
 44
1.0
  0
MTEXT
  5
4B
330
1F
100
AcDbEntity
  8
VERMASSUNG
100
AcDbMText
 10
98.8601118557
 20
13.8365368179
 30
0.0
 40
2.0
 41
0.0
 71
     1
 72
     1
  1
Datum: 02.02.2009
  7
SLDTEXTSTYLE0
 73
     1
 44
1.0
  0
MTEXT
  5
4D
330
1F
100
AcDbEntity
  8
VERMASSUNG
100
AcDbMText
 10
13.933048693
 20
18.0482802738
 30
0.0
 40
2.0
 41
0.0
 71
     1
 72
     1
  1
DIN 69893 HSK T 63  / VC.. 16 04..
  7
SLDTEXTSTYLE1
 73
     1
 44
1.0
  0
MTEXT
  5
4E
330
1F
100
AcDbEntity
  8
VERMASSUNG
100
AcDbMText
 10
13.9808475933
 20
13.9090973692
 30
0.0
 40
2.0
 41
0.0
 71
     1
 72
     1
  1
Gewicht: 1027g
  7
SLDTEXTSTYLE0
 73
     1
 44
1.0
  0
LINE
  5
4F
330
1F
100
AcDbEntity
  8
0
  6
Continuous
 62
     7
370
    15
100
AcDbLine
 10
183.0246431132
 20
72.799534239
 30
0.0
 11
187.6746431132
 21
72.799534239
 31
0.0
  0
LINE
  5
50
330
1F
100
AcDbEntity
  8
0
  6
Continuous
 62
     7
370
    15
100
AcDbLine
 10
187.6839512
 20
135.799534239
 30
0.0
 11
183.0246431132
 21
135.799534239
 31
0.0
  0
ARC
  5
51
330
1F
100
AcDbEntity
  8
0
  6
Continuous
 62
     7
370
    15
100
AcDbCircle
 10
183.0246431132
 20
73.099534239
 30
0.0
 40
0.3000000000000114
100
AcDbArc
 50
180.0
 51
270.0
  0
ARC
  5
52
330
1F
100
AcDbEntity
  8
0
  6
Continuous
 62
     7
370
    15
100
AcDbCircle
 10
183.0246431132
 20
135.499534239
 30
0.0
 40
0.3000000000000114
100
AcDbArc
 50
90.0
 51
180.0
  0
ARC
  5
53
330
1F
100
AcDbEntity
  8
0
  6
Continuous
 62
     7
370
    15
100
AcDbCircle
 10
209.6746431132
 20
77.299534239
 30
0.0
 40
0.9999999999999941
100
AcDbArc
 50
90.0
 51
143.1139143113
  0
ARC
  5
54
330
1F
100
AcDbEntity
  8
0
  6
Continuous
 62
     7
370
    15
100
AcDbCircle
 10
209.6746431132
 20
131.299534239
 30
0.0
 40
1.000000000000003
100
AcDbArc
 50
216.8996843908
 51
270.0
  0
LINE
  5
55
330
1F
100
AcDbEntity
  8
0
  6
Continuous
 62
     7
370
    15
100
AcDbLine
 10
209.6746431132
 20
78.299534239
 30
0.0
 11
222.4613208739
 21
78.299534239
 31
0.0
  0
LINE
  5
56
330
1F
100
AcDbEntity
  8
0
  6
Continuous
 62
     7
370
    15
100
AcDbLine
 10
222.5260068091
 20
130.299534239
 30
0.0
 11
209.6746431132
 21
130.299534239
 31
0.0
  0
ARC
  5
57
330
1F
100
AcDbEntity
  8
0
  6
Continuous
 62
     7
370
    15
100
AcDbCircle
 10
182.2246431132
 20
79.7291033773
 30
0.0
 40
0.6000000000000085
100
AcDbArc
 50
33.5573097619
 51
90.0
  0
ARC
  5
58
330
1F
100
AcDbEntity
  8
0
  6
Continuous
 62
     7
370
    15
100
AcDbCircle
 10
182.2246431132
 20
128.8699651007
 30
0.0
 40
0.6000000000000227
100
AcDbArc
 50
270.0
 51
326.4426902381
  0
LINE
  5
59
330
1F
100
AcDbEntity
  8
0
  6
Continuous
 62
     7
370
    15
100
AcDbLine
 10
169.4931343144
 20
127.9572642591
 30
0.0
 11
156.9246431132
 21
127.3275803312
 31
0.0
  0
LINE
  5
5A
330
1F
100
AcDbEntity
  8
0
  6
Continuous
 62
     7
370
    15
100
AcDbLine
 10
180.7246431132
 20
128.5199651007
 30
0.0
 11
177.9076414559
 21
128.3788327532
 31
0.0
  0
LINE
  5
5B
330
1F
100
AcDbEntity
  8
0
  6
Continuous
 62
     7
370
    15
100
AcDbLine
 10
177.9076975459
 20
80.2202329147
 30
0.0
 11
180.7246431132
 21
80.0791033773
 31
0.0
  0
LINE
  5
5C
330
1F
100
AcDbEntity
  8
0
  6
Continuous
 62
     7
370
    15
100
AcDbLine
 10
160.9246431132
 20
81.0710873452
 30
0.0
 11
169.4935368331
 21
80.6417840527
 31
0.0
  0
LINE
  5
5D
330
1F
100
AcDbEntity
  8
0
  6
Continuous
 62
     7
370
    15
100
AcDbLine
 10
180.7246431132
 20
80.0791033773
 30
0.0
 11
181.5813558866
 21
80.3086588731
 31
0.0
  0
LINE
  5
5E
330
1F
100
AcDbEntity
  8
0
  6
Continuous
 62
     7
370
    15
100
AcDbLine
 10
181.5813558866
 20
128.290409605
 30
0.0
 11
180.7246431132
 21
128.5199651007
 31
0.0
  0
ARC
  5
5F
330
1F
100
AcDbEntity
  8
0
  6
Continuous
 62
     7
370
    15
100
AcDbCircle
 10
181.7366473136
 20
79.7291033773
 30
0.0
 40
0.6000000000000085
100
AcDbArc
 50
90.0
 51
105.0
  0
ARC
  5
60
330
1F
100
AcDbEntity
  8
0
  6
Continuous
 62
     7
370
    15
100
AcDbCircle
 10
181.7366473136
 20
128.8699651007
 30
0.0
 40
0.6000000000000227
100
AcDbArc
 50
255.0
 51
270.0
  0
LINE
  5
61
330
1F
100
AcDbEntity
  8
0
  6
Continuous
 62
     7
370
    15
100
AcDbLine
 10
181.7366473136
 20
80.3291033773
 30
0.0
 11
182.2246431132
 21
80.3291033773
 31
0.0
  0
LINE
  5
62
330
1F
100
AcDbEntity
  8
0
  6
Continuous
 62
     7
370
    15
100
AcDbLine
 10
182.2246431132
 20
128.2699651007
 30
0.0
 11
181.7366473136
 21
128.2699651007
 31
0.0
  0
LINE
  5
63
330
1F
100
AcDbEntity
  8
0
  6
Continuous
 62
     7
370
    15
100
AcDbLine
 10
151.9746431132
 20
83.487034239
 30
0.0
 11
159.5246431132
 21
83.487034239
 31
0.0
  0
ARC
  5
64
330
1F
100
AcDbEntity
  8
0
  6
Continuous
 62
     7
370
    15
100
AcDbCircle
 10
159.5246431132
 20
82.087034239
 30
0.0
 40
1.399999999999996
100
AcDbArc
 50
37.6443616934
 51
90.0
  0
LINE
  5
65
330
1F
100
AcDbEntity
  8
0
  6
Continuous
 62
     7
370
    15
100
AcDbLine
 10
151.9658065714
 20
125.1606976972
 30
0.0
 11
150.8358107324
 21
124.0307018582
 31
0.0
  0
LINE
  5
66
330
1F
100
AcDbEntity
  8
0
  6
Continuous
 62
     7
370
    15
100
AcDbLine
 10
150.826591957
 20
84.6350853952
 30
0.0
 11
151.9746431132
 21
83.487034239
 31
0.0
  0
ARC
  5
67
330
1F
100
AcDbEntity
  8
0
  6
Continuous
 62
     7
370
    15
100
AcDbCircle
 10
155.5246431132
 20
126.569534239
 30
0.0
 40
1.4
100
AcDbArc
 50
270.0
 51
302.5610026528
  0
LINE
  5
68
330
1F
100
AcDbEntity
  8
0
  6
Continuous
 62
     7
370
    15
100
AcDbLine
 10
155.5246431132
 20
125.169534239
 30
0.0
 11
152.1155315146
 21
125.169534239
 31
0.0
  0
LINE
  5
69
330
1F
100
AcDbEntity
  8
0
  6
Continuous
 62
     7
370
    15
100
AcDbLine
 10
198.8146431132
 20
76.80169708
 30
0.0
 11
198.8146431132
 21
124.149534239
 31
0.0
  0
SPLINE
  5
6A
330
1F
100
AcDbEntity
  8
0
  6
Continuous
 62
     7
370
    15
100
AcDbSpline
210
0.0
220
0.0
230
1.0
 70
     8
 71
     3
 72
     8
 73
     4
 74
     0
 42
0.00000001
 43
0.00000001
 12
1.0
 22
0.0
 32
0.0
 13
1.0
 23
0.0
 33
0.0
 40
0.0
 40
0.0
 40
0.0
 40
0.0
 40
1.0
 40
1.0
 40
1.0
 40
1.0
 10
198.8146431132039
 20
76.801697079966
 30
0.0
 10
198.3223039904227
 20
75.9044270457593
 30
0.0
 10
197.8281899423806
 20
75.00814263070707
 30
0.0
 10
197.3327102817148
 20
74.11261654277374
 30
0.0
  0
LINE
  5
6B
330
1F
100
AcDbEntity
  8
0
  6
Continuous
 62
     7
370
    15
100
AcDbLine
 10
197.3327102817
 20
74.1126165428
 30
0.0
 11
197.3327102817
 21
124.149534239
 31
0.0
  0
SPLINE
  5
6C
330
1F
100
AcDbEntity
  8
0
  6
Continuous
 62
     7
370
    15
100
AcDbSpline
210
0.0
220
0.0
230
1.0
 70
    24
 71
     3
 72
     8
 73
     4
 74
     0
 42
0.00000001
 43
0.00000001
 12
1.0
 22
0.0
 32
0.0
 13
1.0
 23
0.0
 33
0.0
 40
0.0
 40
0.0
 40
0.0
 40
0.0
 40
1.0
 40
1.0
 40
1.0
 40
1.0
 10
197.3327102817148
 20
124.1495342390209
 30
0.0
 10
197.8393903898654
 20
124.1495342390209
 30
0.0
 10
198.334691118839
 20
124.1495342390209
 30
0.0
 10
198.8146431132039
 20
124.1495342390209
 30
0.0
  0
LINE
  5
6D
330
1F
100
AcDbEntity
  8
0
  6
Continuous
 62
     7
370
    15
100
AcDbLine
 10
204.1165759447
 20
74.1126165428
 30
0.0
 11
204.1165759447
 21
124.149534239
 31
0.0
  0
SPLINE
  5
6E
330
1F
100
AcDbEntity
  8
0
  6
Continuous
 62
     7
370
    15
100
AcDbSpline
210
0.0
220
0.0
230
1.0
 70
     8
 71
     3
 72
     8
 73
     4
 74
     0
 42
0.00000001
 43
0.00000001
 12
1.0
 22
0.0
 32
0.0
 13
1.0
 23
0.0
 33
0.0
 40
0.0
 40
0.0
 40
0.0
 40
0.0
 40
1.0
 40
1.0
 40
1.0
 40
1.0
 10
204.1165759446929
 20
74.11261654277372
 30
0.0
 10
203.6210962840272
 20
75.00814263070707
 30
0.0
 10
203.1269822359851
 20
75.9044270457593
 30
0.0
 10
202.6346431132039
 20
76.801697079966
 30
0.0
  0
LINE
  5
6F
330
1F
100
AcDbEntity
  8
0
  6
Continuous
 62
     7
370
    15
100
AcDbLine
 10
202.6346431132
 20
76.80169708
 30
0.0
 11
202.6346431132
 21
124.149534239
 31
0.0
  0
SPLINE
  5
70
330
1F
100
AcDbEntity
  8
0
  6
Continuous
 62
     7
370
    15
100
AcDbSpline
210
0.0
220
0.0
230
1.0
 70
    24
 71
     3
 72
     8
 73
     4
 74
     0
 42
0.00000001
 43
0.00000001
 12
1.0
 22
0.0
 32
0.0
 13
1.0
 23
0.0
 33
0.0
 40
0.0
 40
0.0
 40
0.0
 40
0.0
 40
1.0
 40
1.0
 40
1.0
 40
1.0
 10
202.6346431132039
 20
124.1495342390209
 30
0.0
 10
203.1145951075688
 20
124.1495342390209
 30
0.0
 10
203.6098958365424
 20
124.1495342390209
 30
0.0
 10
204.1165759446929
 20
124.1495342390209
 30
0.0
  0
LINE
  5
71
330
1F
100
AcDbEntity
  8
0
  6
Continuous
 62
     7
370
    15
100
AcDbLine
 10
208.6746431132
 20
74.7392568384
 30
0.0
 11
208.6746431132
 21
124.149534239
 31
0.0
  0
SPLINE
  5
72
330
1F
100
AcDbEntity
  8
0
  6
Continuous
 62
     7
370
    15
100
AcDbSpline
210
0.0
220
0.0
230
1.0
 70
     8
 71
     3
 72
    10
 73
     6
 74
     0
 42
0.00000001
 43
0.00000001
 12
1.0
 22
0.0
 32
0.0
 13
1.0
 23
0.0
 33
0.0
 40
0.0
 40
0.0
 40
0.0
 40
0.0
 40
0.5
 40
0.5
 40
1.0
 40
1.0
 40
1.0
 40
1.0
 10
208.6746431132039
 20
74.73925683842805
 30
0.0
 10
208.6746431132039
 20
74.57936957023439
 30
0.0
 10
208.613333461968
 20
74.4182423147198
 30
0.0
 10
208.3942338244329
 20
74.18414331636495
 30
0.0
 10
208.2361856181195
 20
74.11261654277374
 30
0.0
 10
208.0746431132039
 20
74.11261654277374
 30
0.0
  0
SPLINE
  5
73
330
1F
100
AcDbEntity
  8
0
  6
Continuous
 62
     7
370
    15
100
AcDbSpline
210
0.0
220
0.0
230
1.0
 70
    24
 71
     3
 72
    12
 73
     8
 74
     0
 42
0.00000001
 43
0.00000001
 12
1.0
 22
0.0
 32
0.0
 13
1.0
 23
0.0
 33
0.0
 40
0.0
 40
0.0
 40
0.0
 40
0.0
 40
0.2500000000000006
 40
0.2500000000000006
 40
0.5000000000000012
 40
0.5000000000000012
 40
1.0
 40
1.0
 40
1.0
 40
1.0
 10
208.0746431132039
 20
124.1495342390209
 30
0.0
 10
208.1648821808909
 20
124.1495342390209
 30
0.0
 10
208.2557802949974
 20
124.1495342390209
 30
0.0
 10
208.4103773314859
 20
124.1495342390209
 30
0.0
 10
208.4753557475941
 20
124.1495342390209
 30
0.0
 10
208.6271907755303
 20
124.1495342390209
 30
0.0
 10
208.6746431132039
 20
124.1495342390209
 30
0.0
 10
208.6746431132039
 20
124.1495342390209
 30
0.0
  0
LINE
  5
74
330
1F
100
AcDbEntity
  8
0
  6
Continuous
 62
     7
370
    15
100
AcDbLine
 10
208.0746431132
 20
74.1126165428
 30
0.0
 11
204.1165759447
 21
74.1126165428
 31
0.0
  0
LINE
  5
75
330
1F
100
AcDbEntity
  8
0
  6
Continuous
 62
     7
370
    15
100
AcDbLine
 10
204.1165759447
 20
124.149534239
 30
0.0
 11
208.0746431132
 21
124.149534239
 31
0.0
  0
LINE
  5
76
330
1F
100
AcDbEntity
  8
0
  6
Continuous
 62
     7
370
    15
100
AcDbLine
 10
187.6746431132
 20
124.149534239
 30
0.0
 11
197.3327102817
 21
124.149534239
 31
0.0
  0
LINE
  5
77
330
1F
100
AcDbEntity
  8
0
  6
Continuous
 62
     7
370
    15
100
AcDbLine
 10
197.3327102817
 20
74.1126165428
 30
0.0
 11
195.6746431132
 21
74.1126165428
 31
0.0
  0
SPLINE
  5
78
330
1F
100
AcDbEntity
  8
0
  6
Continuous
 62
     7
370
    15
100
AcDbSpline
210
0.0
220
0.0
230
1.0
 70
     8
 71
     3
 72
    28
 73
    24
 74
     0
 42
0.00000001
 43
0.00000001
 12
1.0
 22
0.0
 32
0.0
 13
1.0
 23
0.0
 33
0.0
 40
0.0
 40
0.0
 40
0.0
 40
0.0
 40
0.1250000000000001
 40
0.1250000000000001
 40
0.1875000000000001
 40
0.1875000000000001
 40
0.2500000000000001
 40
0.2500000000000001
 40
0.375
 40
0.375
 40
0.4375000000000001
 40
0.4375000000000001
 40
0.5
 40
0.5
 40
0.625
 40
0.625
 40
0.7499999999999999
 40
0.7499999999999999
 40
0.8124999999999999
 40
0.8124999999999999
 40
0.875
 40
0.875
 40
1.0
 40
1.0
 40
1.0
 40
1.0
 10
195.6746431132039
 20
74.11261654277374
 30
0.0
 10
195.142935355711
 20
74.11261654277374
 30
0.0
 10
194.6206967904006
 20
74.09683182882351
 30
0.0
 10
193.8508263041256
 20
74.0518364147473
 30
0.0
 10
193.5964667319343
 20
74.03328141967158
 30
0.0
 10
193.0923451512357
 20
73.98942869722508
 30
0.0
 10
192.8426223338078
 20
73.96408409027289
 30
0.0
 10
192.1170323823614
 20
73.88068201252278
 30
0.0
 10
191.6586721207799
 20
73.81481645337168
 30
0.0
 10
191.008174177386
 20
73.7058461128799
 30
0.0
 10
190.7964921265936
 20
73.66760647711325
 30
0.0
 10
190.3924206374555
 20
73.58984773969391
 30
0.0
 10
190.1999141236347
 20
73.55034677751856
 30
0.0
 10
189.6500791526134
 20
73.43143903515255
 30
0.0
 10
189.3201503743046
 20
73.35162135372794
 30
0.0
 10
188.7356791057359
 20
73.19827819193186
 30
0.0
 10
188.4894019677225
 20
73.1269444386626
 30
0.0
 10
188.1895591750244
 20
73.03300093158799
 30
0.0
 10
188.1011023179522
 20
73.00380713822807
 30
0.0
 10
187.9477409646471
 20
72.95034056396466
 30
0.0
 10
187.8826527504208
 20
72.92598122968948
 30
0.0
 10
187.7270587344801
 20
72.86239108424475
 30
0.0
 10
187.6746431132039
 20
72.83228814915549
 30
0.0
 10
187.6746431132039
 20
72.81541125615857
 30
0.0
  0
LINE
  5
79
330
1F
100
AcDbEntity
  8
0
  6
Continuous
 62
     7
370
    15
100
AcDbLine
 10
187.6746431132
 20
72.8154112562
 30
0.0
 11
187.6746431132
 21
72.799534239
 31
0.0
  0
SPLINE
  5
7A
330
1F
100
AcDbEntity
  8
0
  6
Continuous
 62
     7
370
    15
100
AcDbSpline
210
0.0
220
0.0
230
1.0
 70
     8
 71
     3
 72
    22
 73
    18
 74
     0
 42
0.00000001
 43
0.00000001
 12
1.0
 22
0.0
 32
0.0
 13
1.0
 23
0.0
 33
0.0
 40
0.0
 40
0.0
 40
0.0
 40
0.0
 40
0.0515773377536172
 40
0.156526484994363
 40
0.2100197540385887
 40
0.2615951369298748
 40
0.3664424119934946
 40
0.4198226601719807
 40
0.4724528789006789
 40
0.5794488992297349
 40
0.633939733648029
 40
0.6872670452602948
 40
0.7409741315029985
 40
0.7958968813361833
 40
0.8512481408256366
 40
0.9034470736265867
 40
1.0
 40
1.0
 40
1.0
 40
1.0
 10
195.6746431132039
 20
134.7667297121851
 30
0.0
 10
195.4578329172014
 20
134.7681263332536
 30
0.0
 10
194.7998590982866
 20
134.7723647875098
 30
0.0
 10
193.9247641209557
 20
134.8118971118641
 30
0.0
 10
193.0799386260989
 20
134.874870358706
 30
0.0
 10
192.2602133424946
 20
134.9528843919612
 30
0.0
 10
191.4844233644662
 20
135.0497675198363
 30
0.0
 10
190.7669349031598
 20
135.1580269317523
 30
0.0
 10
190.0876701559877
 20
135.2717453040568
 30
0.0
 10
189.4793551780787
 20
135.3882454889976
 30
0.0
 10
188.9592632373556
 20
135.4973457404146
 30
0.0
 10
188.6153730596395
 20
135.5733496381446
 30
0.0
 10
188.3204193319119
 20
135.6413830940663
 30
0.0
 10
188.0746450445708
 20
135.7000961448248
 30
0.0
 10
187.8887427355974
 20
135.7457115247585
 30
0.0
 10
187.7171461298736
 20
135.7886709763191
 30
0.0
 10
187.6970168546974
 20
135.7938319981211
 30
0.0
 10
187.6839512000236
 20
135.7971819512634
 30
0.0
  0
LINE
  5
7B
330
1F
100
AcDbEntity
  8
0
  6
Continuous
 62
     7
370
    15
100
AcDbLine
 10
197.3327102817
 20
134.7667297122
 30
0.0
 11
195.6746431132
 21
134.7667297122
 31
0.0
  0
LINE
  5
7C
330
1F
100
AcDbEntity
  8
0
  6
Continuous
 62
     7
370
    15
100
AcDbLine
 10
197.3327102817
 20
128.7582239014
 30
0.0
 11
197.3327102817
 21
134.7667297122
 31
0.0
  0
LINE
  5
7D
330
1F
100
AcDbEntity
  8
0
  6
Continuous
 62
     7
370
    15
100
AcDbLine
 10
194.9202634589
 20
128.7582239014
 30
0.0
 11
197.3327102817
 21
128.7582239014
 31
0.0
  0
SPLINE
  5
7E
330
1F
100
AcDbEntity
  8
0
  6
Continuous
 62
     7
370
    15
100
AcDbSpline
210
0.0
220
0.0
230
1.0
 70
     8
 71
     3
 72
    20
 73
    16
 74
     0
 42
0.00000001
 43
0.00000001
 12
1.0
 22
0.0
 32
0.0
 13
1.0
 23
0.0
 33
0.0
 40
0.0
 40
0.0
 40
0.0
 40
0.0
 40
0.2500000000000005
 40
0.2500000000000005
 40
0.3750000000000004
 40
0.3750000000000004
 40
0.5000000000000003
 40
0.5000000000000003
 40
0.6250000000000002
 40
0.6250000000000002
 40
0.7500000000000001
 40
0.7500000000000001
 40
0.8750000000000001
 40
0.8750000000000001
 40
1.0
 40
1.0
 40
1.0
 40
1.0
 10
187.6746431132039
 20
124.1495342390209
 30
0.0
 10
187.9230168474919
 20
124.8033966673183
 30
0.0
 10
188.2425869398372
 20
125.4071824493154
 30
0.0
 10
188.8648931730419
 20
126.234021185484
 30
0.0
 10
189.0963174334726
 20
126.4964498234369
 30
0.0
 10
189.6175317731224
 20
126.9931124775419
 30
0.0
 10
189.9041522557574
 20
127.2236993565634
 30
0.0
 10
190.523636997065
 20
127.6402535811461
 30
0.0
 10
190.857937376552
 20
127.8277513831136
 30
0.0
 10
191.5831978491768
 20
128.15914836075
 30
0.0
 10
191.9651129065673
 20
128.2986523482452
 30
0.0
 10
192.7599010827389
 20
128.5241058557162
 30
0.0
 10
193.1740592769453
 20
128.6107319672598
 30
0.0
 10
194.0396056175267
 20
128.728712756114
 30
0.0
 10
194.4774932325385
 20
128.7582239013883
 30
0.0
 10
194.9202634588931
 20
128.7582239013883
 30
0.0
  0
LINE
  5
7F
330
1F
100
AcDbEntity
  8
0
  6
Continuous
 62
     7
370
    15
100
AcDbLine
 10
182.7246431132
 20
73.099534239
 30
0.0
 11
182.7246431132
 21
135.4995342329
 31
0.0
  0
SPLINE
  5
80
330
1F
100
AcDbEntity
  8
0
  6
Continuous
 62
     7
370
    15
100
AcDbSpline
210
0.0
220
0.0
230
1.0
 70
     8
 71
     3
 72
    10
 73
     6
 74
     0
 42
0.00000001
 43
0.00000001
 12
1.0
 22
0.0
 32
0.0
 13
1.0
 23
0.0
 33
0.0
 40
0.0
 40
0.0
 40
0.0
 40
0.0
 40
0.5
 40
0.5
 40
1.0
 40
1.0
 40
1.0
 40
1.0
 10
199.2089406448948
 20
130.6995342390209
 30
0.0
 10
199.0874003812263
 20
130.7742604062326
 30
0.0
 10
198.9860660208774
 20
130.8832054221494
 30
0.0
 10
198.8504270779889
 20
131.133635902911
 30
0.0
 10
198.8146431132039
 20
131.27605526501
 30
0.0
 10
198.8146431132039
 20
131.4191880900567
 30
0.0
  0
SPLINE
  5
81
330
1F
100
AcDbEntity
  8
0
  6
Continuous
 62
     7
370
    15
100
AcDbSpline
210
0.0
220
0.0
230
1.0
 70
    24
 71
     3
 72
    12
 73
     8
 74
     0
 42
0.00000001
 43
0.00000001
 12
1.0
 22
0.0
 32
0.0
 13
1.0
 23
0.0
 33
0.0
 40
0.0
 40
0.0
 40
0.0
 40
0.0
 40
0.2500000000000012
 40
0.2500000000000012
 40
0.5000000000000024
 40
0.5000000000000024
 40
1.0
 40
1.0
 40
1.0
 40
1.0
 10
199.6146431132039
 20
130.6995342390209
 30
0.0
 10
199.5652997513943
 20
130.6995342390209
 30
0.0
 10
199.5166090530927
 20
130.6995342390209
 30
0.0
 10
199.4337579555222
 20
130.6995342390209
 30
0.0
 10
199.3975579879016
 20
130.6995342390209
 30
0.0
 10
199.3018080713522
 20
130.6995342390209
 30
0.0
 10
199.2519261015401
 20
130.6995342390209
 30
0.0
 10
199.2089406448948
 20
130.6995342390209
 30
0.0
  0
SPLINE
  5
82
330
1F
100
AcDbEntity
  8
0
  6
Continuous
 62
     7
370
    15
100
AcDbSpline
210
0.0
220
0.0
230
1.0
 70
    24
 71
     3
 72
    14
 73
    10
 74
     0
 42
0.00000001
 43
0.00000001
 12
1.0
 22
0.0
 32
0.0
 13
1.0
 23
0.0
 33
0.0
 40
0.0
 40
0.0
 40
0.0
 40
0.0
 40
0.1250000000000007
 40
0.1250000000000007
 40
0.2500000000000014
 40
0.2500000000000014
 40
0.5000000000000002
 40
0.5000000000000002
 40
1.0
 40
1.0
 40
1.0
 40
1.0
 10
199.6146431132039
 20
77.89953423902088
 30
0.0
 10
199.5452963914728
 20
77.89953423902087
 30
0.0
 10
199.4800983380888
 20
77.89953423902088
 30
0.0
 10
199.3757191454618
 20
77.89953423902087
 30
0.0
 10
199.3328167744528
 20
77.89953423902088
 30
0.0
 10
199.2204911168481
 20
77.89953423902087
 30
0.0
 10
199.1652674224943
 20
77.89953423902087
 30
0.0
 10
199.0212100437267
 20
77.89953423902088
 30
0.0
 10
198.9591293468953
 20
77.89953423902088
 30
0.0
 10
198.9123179155362
 20
77.89953423902088
 30
0.0
  0
SPLINE
  5
83
330
1F
100
AcDbEntity
  8
0
  6
Continuous
 62
     7
370
    15
100
AcDbSpline
210
0.0
220
0.0
230
1.0
 70
     8
 71
     3
 72
     9
 73
     5
 74
     0
 42
0.00000001
 43
0.00000001
 12
1.0
 22
0.0
 32
0.0
 13
1.0
 23
0.0
 33
0.0
 40
0.0
 40
0.0
 40
0.0
 40
0.0
 40
0.5
 40
1.0
 40
1.0
 40
1.0
 40
1.0
 10
198.8146431132039
 20
124.4354008704823
 30
0.0
 10
198.8146431132039
 20
124.3871688183595
 30
0.0
 10
198.819049087909
 20
124.29129880492
 30
0.0
 10
198.8320682680029
 20
124.1965901749366
 30
0.0
 10
198.840790736364
 20
124.1495342390209
 30
0.0
  0
SPLINE
  5
84
330
1F
100
AcDbEntity
  8
0
  6
Continuous
 62
     7
370
    15
100
AcDbSpline
210
0.0
220
0.0
230
1.0
 70
    24
 71
     3
 72
    14
 73
    10
 74
     0
 42
0.00000001
 43
0.00000001
 12
1.0
 22
0.0
 32
0.0
 13
1.0
 23
0.0
 33
0.0
 40
0.0
 40
0.0
 40
0.0
 40
0.0
 40
0.5000000000000027
 40
0.5000000000000027
 40
0.7500000000000013
 40
0.7500000000000013
 40
0.8750000000000007
 40
0.8750000000000007
 40
1.0
 40
1.0
 40
1.0
 40
1.0
 10
202.5369683108716
 20
77.89953423902088
 30
0.0
 10
202.4901836058234
 20
77.89953423902088
 30
0.0
 10
202.4281324090438
 20
77.89953423902088
 30
0.0
 10
202.2847407704934
 20
77.89953423902088
 30
0.0
 10
202.2285971169421
 20
77.89953423902088
 30
0.0
 10
202.1156460948058
 20
77.89953423902088
 30
0.0
 10
202.0726453327676
 20
77.89953423902088
 30
0.0
 10
201.9685826224612
 20
77.89953423902087
 30
0.0
 10
201.9032503841043
 20
77.89953423902088
 30
0.0
 10
201.8346431132039
 20
77.89953423902088
 30
0.0
  0
SPLINE
  5
85
330
1F
100
AcDbEntity
  8
0
  6
Continuous
 62
     7
370
    15
100
AcDbSpline
210
0.0
220
0.0
230
1.0
 70
    24
 71
     3
 72
    12
 73
     8
 74
     0
 42
0.00000001
 43
0.00000001
 12
1.0
 22
0.0
 32
0.0
 13
1.0
 23
0.0
 33
0.0
 40
0.0
 40
0.0
 40
0.0
 40
0.0
 40
0.5000000000000024
 40
0.5000000000000024
 40
0.7500000000000012
 40
0.7500000000000012
 40
1.0
 40
1.0
 40
1.0
 40
1.0
 10
202.2403455815129
 20
130.6995342390209
 30
0.0
 10
202.1972600319021
 20
130.6995342390209
 30
0.0
 10
202.148107830155
 20
130.6995342390209
 30
0.0
 10
202.0516352358654
 20
130.6995342390209
 30
0.0
 10
202.0155336507312
 20
130.6995342390209
 30
0.0
 10
201.9324278928687
 20
130.6995342390209
 30
0.0
 10
201.8844312959046
 20
130.6995342390209
 30
0.0
 10
201.8346431132039
 20
130.6995342390209
 30
0.0
  0
SPLINE
  5
86
330
1F
100
AcDbEntity
  8
0
  6
Continuous
 62
     7
370
    15
100
AcDbSpline
210
0.0
220
0.0
230
1.0
 70
     8
 71
     3
 72
    10
 73
     6
 74
     0
 42
0.00000001
 43
0.00000001
 12
1.0
 22
0.0
 32
0.0
 13
1.0
 23
0.0
 33
0.0
 40
0.0
 40
0.0
 40
0.0
 40
0.0
 40
0.5
 40
0.5
 40
1.0
 40
1.0
 40
1.0
 40
1.0
 10
202.6346431132039
 20
131.4191880900567
 30
0.0
 10
202.6346431132039
 20
131.2754180322387
 30
0.0
 10
202.598594054485
 20
131.1329986697435
 30
0.0
 10
202.463085193711
 20
130.8831043763863
 30
0.0
 10
202.3632092006148
 20
130.775074040138
 30
0.0
 10
202.2403455815129
 20
130.6995342390208
 30
0.0
  0
SPLINE
  5
87
330
1F
100
AcDbEntity
  8
0
  6
Continuous
 62
     7
370
    15
100
AcDbSpline
210
0.0
220
0.0
230
1.0
 70
     8
 71
     3
 72
    10
 73
     6
 74
     0
 42
0.00000001
 43
0.00000001
 12
1.0
 22
0.0
 32
0.0
 13
1.0
 23
0.0
 33
0.0
 40
0.0
 40
0.0
 40
0.0
 40
0.0
 40
0.5
 40
0.5
 40
1.0
 40
1.0
 40
1.0
 40
1.0
 10
202.6084954900437
 20
124.1495342390209
 30
0.0
 10
202.6171851329554
 20
124.196413088339
 30
0.0
 10
202.6237241977059
 20
124.2438355537403
 30
0.0
 10
202.632482832099
 20
124.339772352327
 30
0.0
 10
202.6346431132039
 20
124.3876876403375
 30
0.0
 10
202.6346431132039
 20
124.4354008704821
 30
0.0
  0
LINE
  5
88
330
1F
100
AcDbEntity
  8
0
  6
Continuous
 62
     7
370
    15
100
AcDbLine
 10
201.8346431132
 20
130.699534239
 30
0.0
 11
199.6146431132
 21
130.699534239
 31
0.0
  0
LINE
  5
89
330
1F
100
AcDbEntity
  8
0
  6
Continuous
 62
     7
370
    15
100
AcDbLine
 10
201.8346431132
 20
77.899534239
 30
0.0
 11
199.6146431132
 21
77.899534239
 31
0.0
  0
LINE
  5
8A
330
1F
100
AcDbEntity
  8
0
  6
Continuous
 62
     7
370
    15
100
AcDbLine
 10
208.8746420809
 20
130.699534239
 30
0.0
 11
208.8266855484
 21
130.699534239
 31
0.0
  0
LINE
  5
8B
330
1F
100
AcDbEntity
  8
0
  6
Continuous
 62
     7
370
    15
100
AcDbLine
 10
208.8746420525
 20
77.899534239
 30
0.0
 11
208.8239100428
 21
77.899534239
 31
0.0
  0
ELLIPSE
  5
8C
330
1F
100
AcDbEntity
  8
0
  6
Continuous
 62
     7
370
    15
100
AcDbEllipse
 10
219.6442583555
 20
104.299534239
 30
0.0
 11
0.0
 21
26.00000000000001
 31
0.0
210
0.0
220
0.0
230
1.0
 40
0.2679491924
 41
0.1601874882047376
 42
2.981405165385056
  0
SPLINE
  5
8D
330
1F
100
AcDbEntity
  8
0
  6
Continuous
 62
     7
370
    15
100
AcDbSpline
210
0.0
220
0.0
230
1.0
 70
     8
 71
     3
 72
    20
 73
    16
 74
     0
 42
0.00000001
 43
0.00000001
 12
1.0
 22
0.0
 32
0.0
 13
1.0
 23
0.0
 33
0.0
 40
0.0
 40
0.0
 40
0.0
 40
0.0
 40
0.2500000000000012
 40
0.2500000000000012
 40
0.375000000000001
 40
0.375000000000001
 40
0.5000000000000009
 40
0.5000000000000009
 40
0.6250000000000007
 40
0.6250000000000007
 40
0.7500000000000004
 40
0.7500000000000004
 40
0.8750000000000003
 40
0.8750000000000003
 40
1.0
 40
1.0
 40
1.0
 40
1.0
 10
218.5330500833432
 20
78.63240194978502
 30
0.0
 10
218.6942294900572
 20
78.53521168514351
 30
0.0
 10
218.943659160143
 20
78.46554080647326
 30
0.0
 10
219.4518326268578
 20
78.390640650103
 30
0.0
 10
219.6417823411601
 20
78.37104595711307
 30
0.0
 10
220.0548012908043
 20
78.34049925772739
 30
0.0
 10
220.278835363331
 20
78.32941017666506
 30
0.0
 10
220.762758727576
 20
78.31314715606025
 30
0.0
 10
221.0219558016337
 20
78.30804844051148
 30
0.0
 10
221.5585303780859
 20
78.30167001900504
 30
0.0
 10
221.8379414808367
 20
78.30032088946616
 30
0.0
 10
222.4192760689976
 20
78.29928207949729
 30
0.0
 10
222.7222211838717
 20
78.29959953186946
 30
0.0
 10
223.3329249123146
 20
78.30041995114274
 30
0.0
 10
223.6428052905254
 20
78.30091853334439
 30
0.0
 10
223.9573161252249
 20
78.30113491987291
 30
0.0
  0
SPLINE
  5
8E
330
1F
100
AcDbEntity
  8
0
  6
Continuous
 62
     7
370
    15
100
AcDbSpline
210
0.0
220
0.0
230
1.0
 70
     8
 71
     3
 72
    20
 73
    16
 74
     0
 42
0.00000001
 43
0.00000001
 12
1.0
 22
0.0
 32
0.0
 13
1.0
 23
0.0
 33
0.0
 40
0.0
 40
0.0
 40
0.0
 40
0.0
 40
0.249999999999998
 40
0.249999999999998
 40
0.3749999999999983
 40
0.3749999999999983
 40
0.4999999999999987
 40
0.4999999999999987
 40
0.624999999999999
 40
0.624999999999999
 40
0.7499999999999993
 40
0.7499999999999993
 40
0.8749999999999997
 40
0.8749999999999997
 40
1.0
 40
1.0
 40
1.0
 40
1.0
 10
223.9573161252249
 20
130.2979335581688
 30
0.0
 10
223.3282349076758
 20
130.2983663721956
 30
0.0
 10
222.7216163912135
 20
130.300291936677
 30
0.0
 10
221.8449808848512
 20
130.2987771499934
 30
0.0
 10
221.5619460356555
 20
130.2974213824716
 30
0.0
 10
221.0256208516098
 20
130.2910810525496
 30
0.0
 10
220.7704015028806
 20
130.2861024685782
 30
0.0
 10
220.2863551723127
 20
130.2699843799852
 30
0.0
 10
220.0580521829054
 20
130.2587589639547
 30
0.0
 10
219.6441926449833
 20
130.2282507877544
 30
0.0
 10
219.4563410824069
 20
130.2089200261165
 30
0.0
 10
219.1189581636351
 20
130.1595322141056
 30
0.0
 10
218.9690082877871
 20
130.1292106521115
 30
0.0
 10
218.7170121166593
 20
130.0571278029498
 30
0.0
 10
218.6136504927361
 20
130.0152681162562
 30
0.0
 10
218.5330500833432
 20
129.9666665282567
 30
0.0
  0
ELLIPSE
  5
8F
330
1F
100
AcDbEntity
  8
0
  6
Continuous
 62
     7
370
    15
100
AcDbEllipse
 10
217.7471027439
 20
120.7991647848
 30
0.0
 11
0.2084867322362527
 21
3.3487678444029
 31
0.0
210
0.0
220
0.0
230
1.0
 40
0.2037134593
 41
0.0
 42
6.283185307179586
  0
LINE
  5
90
330
1F
100
AcDbEntity
  8
0
  6
Continuous
 62
     7
370
    15
100
AcDbLine
 10
160.9246431132
 20
81.0710873452
 30
0.0
 11
160.9246431132
 21
82.3543859797
 31
0.0
  0
SPLINE
  5
91
330
1F
100
AcDbEntity
  8
0
  6
Continuous
 62
     7
370
    15
100
AcDbSpline
210
0.0
220
0.0
230
1.0
 70
     8
 71
     3
 72
    14
 73
    10
 74
     0
 42
0.00000001
 43
0.00000001
 12
1.0
 22
0.0
 32
0.0
 13
1.0
 23
0.0
 33
0.0
 40
0.0
 40
0.0
 40
0.0
 40
0.0
 40
0.25
 40
0.25
 40
0.5
 40
0.5
 40
0.75
 40
0.75
 40
1.0
 40
1.0
 40
1.0
 40
1.0
 10
160.3030388764641
 20
83.43516302173767
 30
0.0
 10
160.3414752612851
 20
83.33253862402613
 30
0.0
 10
160.4102766546769
 20
83.23334220058656
 30
0.0
 10
160.5535626668359
 20
83.04245017126004
 30
0.0
 10
160.6287447219428
 20
82.95019290522715
 30
0.0
 10
160.7609320105929
 20
82.77058558341213
 30
0.0
 10
160.8184492060628
 20
82.68327602896778
 30
0.0
 10
160.9004940043551
 20
82.51334219545204
 30
0.0
 10
160.9246431132039
 20
82.43143985358087
 30
0.0
 10
160.9246431132039
 20
82.35438597974496
 30
0.0
  0
SPLINE
  5
92
330
1F
100
AcDbEntity
  8
0
  6
Continuous
 62
     7
370
    15
100
AcDbSpline
210
0.0
220
0.0
230
1.0
 70
     8
 71
     3
 72
    18
 73
    14
 74
     0
 42
0.00000001
 43
0.00000001
 12
1.0
 22
0.0
 32
0.0
 13
1.0
 23
0.0
 33
0.0
 40
0.0
 40
0.0
 40
0.0
 40
0.0
 40
0.0624999999999996
 40
0.0624999999999996
 40
0.1249999999999992
 40
0.1249999999999992
 40
0.2499999999999997
 40
0.2499999999999997
 40
0.4999999999999998
 40
0.4999999999999998
 40
0.7499999999999999
 40
0.7499999999999999
 40
1.0
 40
1.0
 40
1.0
 40
1.0
 10
159.5246431132039
 20
84.15344547322427
 30
0.0
 10
159.5612153235543
 20
84.15722287675172
 30
0.0
 10
159.5998657969897
 20
84.15666584886858
 30
0.0
 10
159.6739572907036
 20
84.14660664370672
 30
0.0
 10
159.7093075844577
 20
84.13725276228215
 30
0.0
 10
159.8039018818471
 20
84.10286833584831
 30
0.0
 10
159.8540400549861
 20
84.0721566011855
 30
0.0
 10
159.9832333265672
 20
83.97622729114747
 30
0.0
 10
160.0415134713083
 20
83.9077117970302
 30
0.0
 10
160.1417085677318
 20
83.7711398470976
 30
0.0
 10
160.1817238191784
 20
83.7023749445947
 30
0.0
 10
160.2501232399962
 20
83.56733951548702
 30
0.0
 10
160.2784849638581
 20
83.50072148943387
 30
0.0
 10
160.3030388764641
 20
83.43516302173767
 30
0.0
  0
SPLINE
  5
93
330
1F
100
AcDbEntity
  8
0
  6
Continuous
 62
     7
370
    15
100
AcDbSpline
210
0.0
220
0.0
230
1.0
 70
     8
 71
     3
 72
    10
 73
     6
 74
     0
 42
0.00000001
 43
0.00000001
 12
1.0
 22
0.0
 32
0.0
 13
1.0
 23
0.0
 33
0.0
 40
0.0
 40
0.0
 40
0.0
 40
0.0
 40
0.5
 40
0.5
 40
1.0
 40
1.0
 40
1.0
 40
1.0
 10
155.6110412520819
 20
83.65725181685265
 30
0.0
 10
156.2386689077892
 20
83.76052537558826
 30
0.0
 10
156.8898696528207
 20
83.84935048733979
 30
0.0
 10
158.1985743568329
 20
84.01145819421012
 30
0.0
 10
158.8596187941241
 20
84.08475765849671
 30
0.0
 10
159.5246431132038
 20
84.1534454732244
 30
0.0
  0
SPLINE
  5
94
330
1F
100
AcDbEntity
  8
0
  6
Continuous
 62
     7
370
    15
100
AcDbSpline
210
0.0
220
0.0
230
1.0
 70
     8
 71
     3
 72
    14
 73
    10
 74
     0
 42
0.00000001
 43
0.00000001
 12
1.0
 22
0.0
 32
0.0
 13
1.0
 23
0.0
 33
0.0
 40
0.0
 40
0.0
 40
0.0
 40
0.0
 40
0.4999999999999998
 40
0.4999999999999998
 40
0.750000000000001
 40
0.750000000000001
 40
0.8750000000000004
 40
0.8750000000000004
 40
1.0
 40
1.0
 40
1.0
 40
1.0
 10
151.9746431132039
 20
83.49290268049332
 30
0.0
 10
152.5907200169592
 20
83.49862880072247
 30
0.0
 10
153.2048520130751
 20
83.50851916612449
 30
0.0
 10
154.1187486435886
 20
83.53915413379427
 30
0.0
 10
154.4221875711362
 20
83.55194759143225
 30
0.0
 10
154.8733241867737
 20
83.57987341939165
 30
0.0
 10
155.0230304363162
 20
83.59064303955141
 30
0.0
 10
155.3198715725643
 20
83.61777575515094
 30
0.0
 10
155.4672571250676
 20
83.63359272797817
 30
0.0
 10
155.6110412520819
 20
83.65725181685265
 30
0.0
  0
SPLINE
  5
95
330
1F
100
AcDbEntity
  8
0
  6
Continuous
 62
     7
370
    15
100
AcDbSpline
210
0.0
220
0.0
230
1.0
 70
     8
 71
     3
 72
     8
 73
     4
 74
     0
 42
0.00000001
 43
0.00000001
 12
1.0
 22
0.0
 32
0.0
 13
1.0
 23
0.0
 33
0.0
 40
0.0000005954826279
 40
0.0000005954826279
 40
0.0000005954826279
 40
0.0000005954826279
 40
0.0000302093805348
 40
0.0000302093805348
 40
0.0000302093805348
 40
0.0000302093805348
 10
151.9645981827943
 20
83.50471781014521
 30
0.0
 10
151.9679142101145
 20
83.50077103054942
 30
0.0
 10
151.9712627615068
 20
83.49683263941948
 30
0.0
 10
151.9746431132038
 20
83.4929026804933
 30
0.0
  0
SPLINE
  5
96
330
1F
100
AcDbEntity
  8
0
  6
Continuous
 62
     7
370
    15
100
AcDbSpline
210
0.0
220
0.0
230
1.0
 70
     8
 71
     3
 72
     8
 73
     4
 74
     0
 42
0.00000001
 43
0.00000001
 12
1.0
 22
0.0
 32
0.0
 13
1.0
 23
0.0
 33
0.0
 40
0.0000005099763573
 40
0.0000005099763573
 40
0.0000005099763573
 40
0.0000005099763573
 40
0.0000262827998699
 40
0.0000262827998699
 40
0.0000262827998699
 40
0.0000262827998699
 10
151.9746431132039
 20
125.1694720044159
 30
0.0
 10
151.9712743739761
 20
125.16615033546
 30
0.0
 10
151.9679259209969
 20
125.1628223781812
 30
0.0
 10
151.9645981827856
 20
125.1594881313085
 30
0.0
  0
SPLINE
  5
97
330
1F
100
AcDbEntity
  8
0
  6
Continuous
 62
     7
370
    15
100
AcDbSpline
210
0.0
220
0.0
230
1.0
 70
     8
 71
     3
 72
    10
 73
     6
 74
     0
 42
0.00000001
 43
0.00000001
 12
1.0
 22
0.0
 32
0.0
 13
1.0
 23
0.0
 33
0.0
 40
0.0
 40
0.0
 40
0.0
 40
0.0
 40
0.5
 40
0.5
 40
1.0
 40
1.0
 40
1.0
 40
1.0
 10
155.5246431132039
 20
125.1226216308486
 30
0.0
 10
154.9370575661133
 20
125.143687151085
 30
0.0
 10
154.3463111726529
 20
125.1544456369572
 30
0.0
 10
153.162292007354
 20
125.1678104174929
 30
0.0
 10
152.5688780191486
 20
125.1699530601575
 30
0.0
 10
151.9746431132039
 20
125.1694720044159
 30
0.0
  0
SPLINE
  5
98
330
1F
100
AcDbEntity
  8
0
  6
Continuous
 62
     7
370
    15
100
AcDbSpline
210
0.0
220
0.0
230
1.0
 70
     8
 71
     3
 72
    18
 73
    14
 74
     0
 42
0.00000001
 43
0.00000001
 12
1.0
 22
0.0
 32
0.0
 13
1.0
 23
0.0
 33
0.0
 40
0.0
 40
0.0
 40
0.0
 40
0.0
 40
0.2500000000000003
 40
0.2500000000000003
 40
0.4999999999999999
 40
0.4999999999999999
 40
0.7499999999999996
 40
0.7499999999999996
 40
0.8749999999999993
 40
0.8749999999999993
 40
0.9374999999999997
 40
0.9374999999999997
 40
1.0
 40
1.0
 40
1.0
 40
1.0
 10
156.9246431132039
 20
126.1436419113839
 30
0.0
 10
156.9246431132039
 20
126.0604350025267
 30
0.0
 10
156.8887940132656
 20
125.9716983472131
 30
0.0
 10
156.7639222772317
 20
125.7895731566529
 30
0.0
 10
156.6735218595838
 20
125.6944431080262
 30
0.0
 10
156.4512792048417
 20
125.5052615989019
 30
0.0
 10
156.3215144183959
 20
125.4103164308072
 30
0.0
 10
156.0808769610844
 20
125.2720377232273
 30
0.0
 10
155.9931096629469
 20
125.2263272899249
 30
0.0
 10
155.8385855757401
 20
125.1685039847034
 30
0.0
 10
155.7819746896853
 20
125.1507892206656
 30
0.0
 10
155.6579306587788
 20
125.1262499174326
 30
0.0
 10
155.5902159837605
 20
125.1202707788944
 30
0.0
 10
155.5246431132039
 20
125.1226216308486
 30
0.0
  0
LINE
  5
99
330
1F
100
AcDbEntity
  8
0
  6
Continuous
 62
     7
370
    15
100
AcDbLine
 10
156.9246431132
 20
126.1436419114
 30
0.0
 11
156.9246431132
 21
127.3275803312
 31
0.0
  0
LINE
  5
9A
330
1F
100
AcDbEntity
  8
0
  6
Continuous
 62
     7
370
    15
100
AcDbLine
 10
180.7246431132
 20
80.0791033773
 30
0.0
 11
180.7246431132
 21
128.5199651007
 31
0.0
  0
SPLINE
  5
9B
330
1F
100
AcDbEntity
  8
0
  6
Continuous
 62
     7
370
    15
100
AcDbSpline
210
0.0
220
0.0
230
1.0
 70
     8
 71
     3
 72
    24
 73
    20
 74
     0
 42
0.00000001
 43
0.00000001
 12
1.0
 22
0.0
 32
0.0
 13
1.0
 23
0.0
 33
0.0
 40
0.0
 40
0.0
 40
0.0
 40
0.0
 40
0.0010489762969683
 40
0.0637843125639743
 40
0.1272220590447995
 40
0.1903788924486898
 40
0.252674865369359
 40
0.3146354154430904
 40
0.3770891997150003
 40
0.4393540298512115
 40
0.500813324253785
 40
0.5621845104595019
 40
0.6248438451115881
 40
0.6874304766624255
 40
0.7496743174679408
 40
0.8119848426977112
 40
0.8750960525413178
 40
0.9384412526965089
 40
1.0
 40
1.0
 40
1.0
 40
1.0
 10
169.4935489451796
 20
80.64202581044071
 30
0.0
 10
169.4931024850754
 20
80.64196752462183
 30
0.0
 10
169.4659549213814
 20
80.63842338267924
 30
0.0
 10
169.5615666989941
 20
80.65125712736217
 30
0.0
 10
169.7951269568896
 20
80.68050381256221
 30
0.0
 10
170.1906812642079
 20
80.72711813562498
 30
0.0
 10
170.7177215680464
 20
80.77730127728444
 30
0.0
 10
171.3612519800341
 20
80.82167773973485
 30
0.0
 10
172.0999258352791
 20
80.84862252067235
 30
0.0
 10
172.8974403407107
 20
80.85209437137843
 30
0.0
 10
173.7240192231563
 20
80.82446712734843
 30
0.0
 10
174.5495422407644
 20
80.76598823837568
 30
0.0
 10
175.3416687887677
 20
80.68054320901459
 30
0.0
 10
176.0742410627679
 20
80.57880896917827
 30
0.0
 10
176.7098812994978
 20
80.4709658472058
 30
0.0
 10
177.2317924065046
 20
80.369335690467
 30
0.0
 10
177.6134211836202
 20
80.2868505337888
 30
0.0
 10
177.8642356538541
 20
80.23070132743918
 30
0.0
 10
177.8933572098384
 20
80.22385186882542
 30
0.0
 10
177.9077097306546
 20
80.22047612209725
 30
0.0
  0
SPLINE
  5
9C
330
1F
100
AcDbEntity
  8
0
  6
Continuous
 62
     7
370
    15
100
AcDbSpline
210
0.0
220
0.0
230
1.0
 70
     8
 71
     3
 72
    24
 73
    20
 74
     0
 42
0.00000001
 43
0.00000001
 12
1.0
 22
0.0
 32
0.0
 13
1.0
 23
0.0
 33
0.0
 40
0.0
 40
0.0
 40
0.0
 40
0.0
 40
0.0614384276249341
 40
0.1250736755369512
 40
0.188425349072644
 40
0.250862390403742
 40
0.3129665632509107
 40
0.3753451453465124
 40
0.4377328972322135
 40
0.4990927322917224
 40
0.5605807588447959
 40
0.6229469893028957
 40
0.6854686282027745
 40
0.7475477813740224
 40
0.8098225060803523
 40
0.8730684085990407
 40
0.9364041844528636
 40
0.9991757196257849
 40
1.0
 40
1.0
 40
1.0
 40
1.0
 10
177.9076549598516
 20
128.3785632134783
 30
0.0
 10
177.8930542355477
 20
128.3751951566257
 30
0.0
 10
177.8633307168188
 20
128.3683386131518
 30
0.0
 10
177.6105929011723
 20
128.3119999926261
 30
0.0
 10
177.2275969847232
 20
128.2291429104961
 30
0.0
 10
176.7052414002863
 20
128.127235880545
 30
0.0
 10
176.0704569222854
 20
128.019396741501
 30
0.0
 10
175.3402333181143
 20
127.917929789526
 30
0.0
 10
174.5497647328795
 20
127.8328700758351
 30
0.0
 10
173.7252812180512
 20
127.7746657819488
 30
0.0
 10
172.8982447591662
 20
127.7470823431218
 30
0.0
 10
172.0999204915141
 20
127.7505753206149
 30
0.0
 10
171.3600965272255
 20
127.7775312404681
 30
0.0
 10
170.7158422942504
 20
127.8218851824671
 30
0.0
 10
170.1884350390358
 20
127.8720906322251
 30
0.0
 10
169.7937704368855
 20
127.9187004874232
 30
0.0
 10
169.5612411576988
 20
127.9478960799708
 30
0.0
 10
169.4658611251473
 20
127.9606741489123
 30
0.0
 10
169.4927947620484
 20
127.9571198904043
 30
0.0
 10
169.4931438552728
 20
127.9570738228209
 30
0.0
  0
SPLINE
  5
9D
330
1F
100
AcDbEntity
  8
0
  6
Continuous
 62
     7
370
    15
100
AcDbSpline
210
0.0
220
0.0
230
1.0
 70
     8
 71
     3
 72
    11
 73
     7
 74
     0
 42
0.00000001
 43
0.00000001
 12
1.0
 22
0.0
 32
0.0
 13
1.0
 23
0.0
 33
0.0
 40
0.0
 40
0.0
 40
0.0
 40
0.0
 40
0.1399691544759538
 40
0.5866252649032367
 40
0.7926282198107636
 40
1.0
 40
1.0
 40
1.0
 40
1.0
 10
150.8287721980699
 20
84.63726563624746
 30
0.0
 10
150.8293162198543
 20
84.6354838331355
 30
0.0
 10
150.8315962716601
 20
84.6280161112187
 30
0.0
 10
150.841749020753
 20
84.64374974168217
 30
0.0
 10
150.8503314879726
 20
84.6742939994991
 30
0.0
 10
150.8533876085786
 20
84.69770328031447
 30
0.0
 10
150.8549207288125
 20
84.70944667879404
 30
0.0
  0
LINE
  5
9E
330
1F
100
AcDbEntity
  8
0
  6
Continuous
 62
     7
370
    15
100
AcDbLine
 10
150.8246431132
 20
84.6463737141
 30
0.0
 11
150.8246431132
 21
123.9902119855
 31
0.0
  0
SPLINE
  5
9F
330
1F
100
AcDbEntity
  8
0
  6
Continuous
 62
     7
370
    15
100
AcDbSpline
210
0.0
220
0.0
230
1.0
 70
     8
 71
     3
 72
    10
 73
     6
 74
     0
 42
0.00000001
 43
0.00000001
 12
1.0
 22
0.0
 32
0.0
 13
1.0
 23
0.0
 33
0.0
 40
0.0
 40
0.0
 40
0.0
 40
0.0
 40
0.5
 40
0.5
 40
1.0
 40
1.0
 40
1.0
 40
1.0
 10
150.8873064879273
 20
123.9740867838016
 30
0.0
 10
150.8784021988185
 20
124.0198283030148
 30
0.0
 10
150.8618868186255
 20
124.0370191424838
 30
0.0
 10
150.8347788725639
 20
124.0366958655481
 30
0.0
 10
150.8246431132039
 20
124.0188183232516
 30
0.0
 10
150.8246431132039
 20
123.990211985499
 30
0.0
  0
SPLINE
  5
A0
330
1F
100
AcDbEntity
  8
0
  6
Continuous
 62
     7
370
    15
100
AcDbSpline
210
0.0
220
0.0
230
1.0
 70
     8
 71
     3
 72
    26
 73
    22
 74
     0
 42
0.00000001
 43
0.00000001
 12
1.0
 22
0.0
 32
0.0
 13
1.0
 23
0.0
 33
0.0
 40
0.0
 40
0.0
 40
0.0
 40
0.0
 40
0.25
 40
0.25
 40
0.3749999999999994
 40
0.3749999999999994
 40
0.437500000000001
 40
0.437500000000001
 40
0.4687500000000001
 40
0.4687500000000001
 40
0.4999999999999991
 40
0.4999999999999991
 40
0.5312499999999981
 40
0.5312499999999981
 40
0.5624999999999971
 40
0.5624999999999971
 40
0.6249999999999971
 40
0.6249999999999971
 40
0.7499999999999971
 40
0.7499999999999971
 40
1.0
 40
1.0
 40
1.0
 40
1.0
 10
151.6487967593084
 20
124.6896535726187
 30
0.0
 10
151.6101962364399
 20
124.5718788762633
 30
0.0
 10
151.5638992338856
 20
124.4474891901014
 30
0.0
 10
151.4699598854517
 20
124.2422698577479
 30
0.0
 10
151.4346484185383
 20
124.1706969913014
 30
0.0
 10
151.3684684427926
 20
124.054743758701
 30
0.0
 10
151.3439300761244
 20
124.0141592238908
 30
0.0
 10
151.3005573305706
 20
123.950017542019
 30
0.0
 10
151.2850489291454
 20
123.928151116734
 30
0.0
 10
151.2500062845584
 20
123.8825568483908
 30
0.0
 10
151.2304559938386
 20
123.8588865574234
 30
0.0
 10
151.188528713468
 20
123.8142699980835
 30
0.0
 10
151.1658766032364
 20
123.7933899855655
 30
0.0
 10
151.1249028891498
 20
123.7625165718147
 30
0.0
 10
151.1073035892543
 20
123.7526777019823
 30
0.0
 10
151.0626766033982
 20
123.7336880862861
 30
0.0
 10
151.0421173807448
 20
123.7333637616326
 30
0.0
 10
150.9909919412482
 20
123.7425872025088
 30
0.0
 10
150.9700805282596
 20
123.7638340987258
 30
0.0
 10
150.9186306206987
 20
123.8378029775566
 30
0.0
 10
150.9009653213941
 20
123.9039210708713
 30
0.0
 10
150.8873064879273
 20
123.9740867838016
 30
0.0
  0
SPLINE
  5
A1
330
1F
100
AcDbEntity
  8
0
  6
Continuous
 62
     7
370
    15
100
AcDbSpline
210
0.0
220
0.0
230
1.0
 70
     8
 71
     3
 72
    10
 73
     6
 74
     0
 42
0.00000001
 43
0.00000001
 12
1.0
 22
0.0
 32
0.0
 13
1.0
 23
0.0
 33
0.0
 40
0.0
 40
0.0
 40
0.0
 40
0.0
 40
0.5
 40
0.5
 40
1.0
 40
1.0
 40
1.0
 40
1.0
 10
151.9645981827857
 20
125.1594881313085
 30
0.0
 10
151.8970389278674
 20
125.0917967384987
 30
0.0
 10
151.8334022725309
 20
125.0170895737451
 30
0.0
 10
151.7231815179591
 20
124.8581234413185
 30
0.0
 10
151.6763652247364
 20
124.7737681753105
 30
0.0
 10
151.6487967593084
 20
124.6896535726187
 30
0.0
  0
SPLINE
  5
A2
330
1F
100
AcDbEntity
  8
0
  6
Continuous
 62
     7
370
    15
100
AcDbSpline
210
0.0
220
0.0
230
1.0
 70
     8
 71
     3
 72
     8
 73
     4
 74
     0
 42
0.00000001
 43
0.00000001
 12
1.0
 22
0.0
 32
0.0
 13
1.0
 23
0.0
 33
0.0
 40
0.0
 40
0.0
 40
0.0
 40
0.0
 40
1.0
 40
1.0
 40
1.0
 40
1.0
 10
151.763552683403
 20
83.85561193605527
 30
0.0
 10
151.7992663417729
 20
83.73238043079547
 30
0.0
 10
151.8749343807212
 20
83.61143685384847
 30
0.0
 10
151.9645981827943
 20
83.50471781014522
 30
0.0
  0
SPLINE
  5
A3
330
1F
100
AcDbEntity
  8
0
  6
Continuous
 62
     7
370
    15
100
AcDbSpline
210
0.0
220
0.0
230
1.0
 70
     8
 71
     3
 72
    26
 73
    22
 74
     0
 42
0.00000001
 43
0.00000001
 12
1.0
 22
0.0
 32
0.0
 13
1.0
 23
0.0
 33
0.0
 40
0.0
 40
0.0
 40
0.0
 40
0.0
 40
0.24999999999999
 40
0.24999999999999
 40
0.3749999999999855
 40
0.3749999999999855
 40
0.4374999999999828
 40
0.4374999999999828
 40
0.4687499999999823
 40
0.4687499999999823
 40
0.4999999999999817
 40
0.4999999999999817
 40
0.5312499999999811
 40
0.5312499999999811
 40
0.5624999999999805
 40
0.5624999999999805
 40
0.6249999999999835
 40
0.6249999999999835
 40
0.7499999999999892
 40
0.7499999999999892
 40
1.0
 40
1.0
 40
1.0
 40
1.0
 10
150.8549207288125
 20
84.70944667879404
 30
0.0
 10
150.8656447622051
 20
84.81240771928303
 30
0.0
 10
150.8803777527995
 20
84.9114064087641
 30
0.0
 10
150.9327313120466
 20
85.03000208882922
 30
0.0
 10
150.9544365947662
 20
85.06571238877802
 30
0.0
 10
151.0132921021316
 20
85.09069182159975
 30
0.0
 10
151.0367543359788
 20
85.0950772693633
 30
0.0
 10
151.0928757126394
 20
85.07532443591913
 30
0.0
 10
151.1156630227701
 20
85.0636680451087
 30
0.0
 10
151.1709155753013
 20
85.02188769567144
 30
0.0
 10
151.2023218080421
 20
84.9916161082954
 30
0.0
 10
151.2572556286625
 20
84.92997370938141
 30
0.0
 10
151.281679446862
 20
84.89853205707459
 30
0.0
 10
151.3250945528492
 20
84.83879721966083
 30
0.0
 10
151.3446691154175
 20
84.80963220978819
 30
0.0
 10
151.3983017993655
 20
84.72579693405513
 30
0.0
 10
151.4280791474177
 20
84.67376431607893
 30
0.0
 10
151.5096132073905
 20
84.52269864211158
 30
0.0
 10
151.5528560020645
 20
84.42950760024085
 30
0.0
 10
151.6659105917192
 20
84.16512106124651
 30
0.0
 10
151.7199215891983
 20
84.00616289219667
 30
0.0
 10
151.7635526834024
 20
83.85561193605582
 30
0.0
  0
LINE
  5
A4
330
1F
100
AcDbEntity
  8
0
  6
Continuous
 62
     7
370
    15
100
AcDbLine
 10
208.0746431132
 20
134.7667297122
 30
0.0
 11
204.1165759447
 21
134.7667297122
 31
0.0
  0
LINE
  5
A5
330
1F
100
AcDbEntity
  8
0
  6
Continuous
 62
     7
370
    15
100
AcDbLine
 10
204.1165759447
 20
128.7582239014
 30
0.0
 11
208.0746431132
 21
128.7582239014
 31
0.0
  0
LINE
  5
A6
330
1F
100
AcDbEntity
  8
0
  6
Continuous
 62
     7
370
    15
100
AcDbLine
 10
204.1165759447
 20
128.7582239014
 30
0.0
 11
204.1165759447
 21
134.7667297122
 31
0.0
  0
SPLINE
  5
A7
330
1F
100
AcDbEntity
  8
0
  6
Continuous
 62
     7
370
    15
100
AcDbSpline
210
0.0
220
0.0
230
1.0
 70
     8
 71
     3
 72
    10
 73
     6
 74
     0
 42
0.00000001
 43
0.00000001
 12
1.0
 22
0.0
 32
0.0
 13
1.0
 23
0.0
 33
0.0
 40
0.0
 40
0.0
 40
0.0
 40
0.0
 40
0.5
 40
0.5
 40
1.0
 40
1.0
 40
1.0
 40
1.0
 10
208.6746431132039
 20
134.1459745627848
 30
0.0
 10
208.6746431132039
 20
134.3063798291356
 30
0.0
 10
208.612405282097
 20
134.4654416421241
 30
0.0
 10
208.3932703583544
 20
134.6963541077545
 30
0.0
 10
208.2356816633626
 20
134.7667297121851
 30
0.0
 10
208.0746431132039
 20
134.7667297121851
 30
0.0
  0
SPLINE
  5
A8
330
1F
100
AcDbEntity
  8
0
  6
Continuous
 62
     7
370
    15
100
AcDbSpline
210
0.0
220
0.0
230
1.0
 70
     8
 71
     3
 72
    12
 73
     8
 74
     0
 42
0.00000001
 43
0.00000001
 12
1.0
 22
0.0
 32
0.0
 13
1.0
 23
0.0
 33
0.0
 40
0.0
 40
0.0
 40
0.0
 40
0.0
 40
0.249999999999998
 40
0.249999999999998
 40
0.499999999999996
 40
0.499999999999996
 40
1.0
 40
1.0
 40
1.0
 40
1.0
 10
208.0746431132039
 20
128.7582239013883
 30
0.0
 10
208.1658428350295
 20
128.7582239013883
 30
0.0
 10
208.2564378441656
 20
128.7300042028004
 30
0.0
 10
208.4098505706122
 20
128.6355611955523
 30
0.0
 10
208.4750594379359
 20
128.569274218847
 30
0.0
 10
208.6278439672758
 20
128.3436493955587
 30
0.0
 10
208.6746431132039
 20
128.1612231325261
 30
0.0
 10
208.6746431132039
 20
127.9804865002792
 30
0.0
  0
LINE
  5
A9
330
1F
100
AcDbEntity
  8
0
  6
Continuous
 62
     7
370
    15
100
AcDbLine
 10
208.6746431132
 20
127.9804865003
 30
0.0
 11
208.6746431132
 21
134.1459745628
 31
0.0
  0
SPLINE
  5
AA
330
1F
100
AcDbEntity
  8
0
  6
Continuous
 62
     7
370
    15
100
AcDbSpline
210
0.0
220
0.0
230
1.0
 70
     8
 71
     3
 72
     8
 73
     4
 74
     0
 42
0.00000001
 43
0.00000001
 12
1.0
 22
0.0
 32
0.0
 13
1.0
 23
0.0
 33
0.0
 40
0.0
 40
0.0
 40
0.0
 40
0.0
 40
1.0
 40
1.0
 40
1.0
 40
1.0
 10
204.1165759446929
 20
134.7667297121851
 30
0.0
 10
203.6214359153286
 20
133.8800500640048
 30
0.0
 10
203.1273532100496
 20
132.9927874283189
 30
0.0
 10
202.6346431132039
 20
132.1047684301925
 30
0.0
  0
SPLINE
  5
AB
330
1F
100
AcDbEntity
  8
0
  6
Continuous
 62
     7
370
    15
100
AcDbSpline
210
0.0
220
0.0
230
1.0
 70
     8
 71
     3
 72
     8
 73
     4
 74
     0
 42
0.00000001
 43
0.00000001
 12
1.0
 22
0.0
 32
0.0
 13
1.0
 23
0.0
 33
0.0
 40
0.0
 40
0.0
 40
0.0
 40
0.0
 40
1.0
 40
1.0
 40
1.0
 40
1.0
 10
202.6346431132039
 20
125.3496779066042
 30
0.0
 10
203.1139212637937
 20
126.4906891364568
 30
0.0
 10
203.6094891029337
 20
127.6270735472246
 30
0.0
 10
204.1165759446929
 20
128.7582239013883
 30
0.0
  0
LINE
  5
AC
330
1F
100
AcDbEntity
  8
0
  6
Continuous
 62
     7
370
    15
100
AcDbLine
 10
202.6346431132
 20
125.3496779066
 30
0.0
 11
202.6346431132
 21
132.1047684302
 31
0.0
  0
LINE
  5
AD
330
1F
100
AcDbEntity
  8
0
  6
Continuous
 62
     7
370
    15
100
AcDbLine
 10
202.6346431132
 20
124.4354008705
 30
0.0
 11
202.6346431132
 21
125.3496779066
 31
0.0
  0
LINE
  5
AE
330
1F
100
AcDbEntity
  8
0
  6
Continuous
 62
     7
370
    15
100
AcDbLine
 10
208.6746431132
 20
127.9804865003
 30
0.0
 11
208.6746431132
 21
124.149534239
 31
0.0
  0
SPLINE
  5
AF
330
1F
100
AcDbEntity
  8
0
  6
Continuous
 62
     7
370
    15
100
AcDbSpline
210
0.0
220
0.0
230
1.0
 70
     8
 71
     3
 72
     8
 73
     4
 74
     0
 42
0.00000001
 43
0.00000001
 12
1.0
 22
0.0
 32
0.0
 13
1.0
 23
0.0
 33
0.0
 40
0.0
 40
0.0
 40
0.0
 40
0.0
 40
1.0
 40
1.0
 40
1.0
 40
1.0
 10
197.3327102817148
 20
128.7582239013883
 30
0.0
 10
197.8397971234741
 20
127.6270735472246
 30
0.0
 10
198.335364962614
 20
126.4906891364568
 30
0.0
 10
198.8146431132039
 20
125.3496779066042
 30
0.0
  0
LINE
  5
B0
330
1F
100
AcDbEntity
  8
0
  6
Continuous
 62
     7
370
    15
100
AcDbLine
 10
198.8146431132
 20
125.3496779066
 30
0.0
 11
198.8146431132
 21
124.4354008705
 31
0.0
  0
SPLINE
  5
B1
330
1F
100
AcDbEntity
  8
0
  6
Continuous
 62
     7
370
    15
100
AcDbSpline
210
0.0
220
0.0
230
1.0
 70
     8
 71
     3
 72
     8
 73
     4
 74
     0
 42
0.00000001
 43
0.00000001
 12
1.0
 22
0.0
 32
0.0
 13
1.0
 23
0.0
 33
0.0
 40
0.0
 40
0.0
 40
0.0
 40
0.0
 40
1.0
 40
1.0
 40
1.0
 40
1.0
 10
198.8146431132039
 20
132.1047684301925
 30
0.0
 10
198.3219330163581
 20
132.9927874283188
 30
0.0
 10
197.8278503110791
 20
133.8800500640048
 30
0.0
 10
197.3327102817148
 20
134.7667297121851
 30
0.0
  0
LINE
  5
B2
330
1F
100
AcDbEntity
  8
0
  6
Continuous
 62
     7
370
    15
100
AcDbLine
 10
198.8146431132
 20
125.3496779066
 30
0.0
 11
198.8146431132
 21
132.1047684302
 31
0.0
  0
LINE
  5
B3
330
1F
100
AcDbEntity
  8
0
  6
Continuous
 62
     7
370
    15
100
AcDbLine
 10
151.9746431132
 20
83.487034239
 30
0.0
 11
151.9746431132
 21
83.4929026805
 31
0.0
  0
SPLINE
  5
B4
330
1F
100
AcDbEntity
  8
0
  6
Continuous
 62
     7
370
    15
100
AcDbSpline
210
0.0
220
0.0
230
1.0
 70
     8
 71
     3
 72
     8
 73
     4
 74
     0
 42
0.00000001
 43
0.00000001
 12
1.0
 22
0.0
 32
0.0
 13
1.0
 23
0.0
 33
0.0
 40
0.0
 40
0.0
 40
0.0
 40
0.0
 40
1.0
 40
1.0
 40
1.0
 40
1.0
 10
224.3286050410776
 20
130.3692907694456
 30
0.0
 10
224.2093199698623
 20
130.321588747162
 30
0.0
 10
224.0855400686972
 20
130.2978453388424
 30
0.0
 10
223.9573161252249
 20
130.2979335581688
 30
0.0
  0
SPLINE
  5
B5
330
1F
100
AcDbEntity
  8
0
  6
Continuous
 62
     7
370
    15
100
AcDbSpline
210
0.0
220
0.0
230
1.0
 70
     8
 71
     3
 72
     8
 73
     4
 74
     0
 42
0.00000001
 43
0.00000001
 12
1.0
 22
0.0
 32
0.0
 13
1.0
 23
0.0
 33
0.0
 40
0.0
 40
0.0
 40
0.0
 40
0.0
 40
1.0
 40
1.0
 40
1.0
 40
1.0
 10
223.9573161252249
 20
78.30113491987291
 30
0.0
 10
224.0855400686973
 20
78.30122313919937
 30
0.0
 10
224.2093199698625
 20
78.27747973087972
 30
0.0
 10
224.3286050410778
 20
78.22977770859603
 30
0.0
  0
LINE
  5
B6
330
1F
100
AcDbEntity
  8
0
  6
Continuous
 62
     7
370
    15
100
AcDbLine
 10
224.8472712506
 20
130.8417907777
 30
0.0
 11
232.8457929876
 21
130.9342932845
 31
0.0
  0
ELLIPSE
  5
B7
330
1F
100
AcDbEntity
  8
0
  6
Continuous
 62
     7
370
    15
100
AcDbEllipse
 10
232.6375580587
 20
141.9649376229
 30
0.0
 11
-8.733214345086026
 21
6.823134841018032
 31
-6.350475700855895E-14
210
-7.271236660525995E-15
220
5.113043226030148E-19
230
1.0
 40
0.9925461516
 41
2.249238564566342
 42
3.141592653589809
  0
LINE
  5
B8
330
1F
100
AcDbEntity
  8
0
  6
Continuous
 62
     7
370
    15
100
AcDbLine
 10
241.3707724037
 20
135.1418027819
 30
0.0
 11
242.5448651506
 21
136.6445729686
 31
0.0
  0
LINE
  5
B9
330
1F
100
AcDbEntity
  8
0
  6
Continuous
 62
     7
370
    15
100
AcDbLine
 10
242.0641400256
 20
127.4717911494
 30
0.0
 11
238.4041424168
 21
122.7872078362
 31
0.0
  0
ARC
  5
BA
330
1F
100
AcDbEntity
  8
0
  6
Continuous
 62
     7
370
    15
100
AcDbCircle
 10
239.9728021222
 20
121.5616365555
 30
0.0
 40
1.990657739369618
100
AcDbArc
 50
142.0
 51
322.0
  0
LINE
  5
BB
330
1F
100
AcDbEntity
  8
0
  6
Continuous
 62
     7
370
    15
100
AcDbLine
 10
241.5414618275
 20
120.3360652748
 30
0.0
 11
242.3317316035
 21
121.3475644617
 31
0.0
  0
LINE
  5
BC
330
1F
100
AcDbEntity
  8
0
  6
Continuous
 62
     7
370
    15
100
AcDbLine
 10
251.6656158277
 20
133.2345609145
 30
0.0
 11
250.4636420118
 21
110.299534239
 31
0.0
  0
LINE
  5
BD
330
1F
100
AcDbEntity
  8
0
  6
Continuous
 62
     7
370
    15
100
AcDbLine
 10
250.4636420118
 20
110.299534239
 30
0.0
 11
227.5371958366
 21
77.8012324066
 31
0.0
  0
LINE
  5
BE
330
1F
100
AcDbEntity
  8
0
  6
Continuous
 62
     7
370
    15
100
AcDbLine
 10
224.823341529
 20
77.8012324066
 30
0.0
 11
227.5371958366
 21
77.8012324066
 31
0.0
  0
SPLINE
  5
BF
330
1F
100
AcDbEntity
  8
0
  6
Continuous
 62
     7
370
    15
100
AcDbSpline
210
0.0
220
0.0
230
1.0
 70
     8
 71
     3
 72
    10
 73
     6
 74
     0
 42
0.00000001
 43
0.00000001
 12
1.0
 22
0.0
 32
0.0
 13
1.0
 23
0.0
 33
0.0
 40
0.0
 40
0.0
 40
0.0
 40
0.0
 40
0.5
 40
0.5
 40
1.0
 40
1.0
 40
1.0
 40
1.0
 10
224.8472712506401
 20
130.8417907776968
 30
0.0
 10
224.7930729189366
 20
130.7360186817773
 30
0.0
 10
224.7185591450012
 20
130.6384294197394
 30
0.0
 10
224.5416502017474
 20
130.4775420506084
 30
0.0
 10
224.4393596789194
 20
130.4135814769794
 30
0.0
 10
224.3286050410776
 20
130.3692907694456
 30
0.0
  0
SPLINE
  5
C0
330
1F
100
AcDbEntity
  8
0
  6
Continuous
 62
     7
370
    15
100
AcDbSpline
210
0.0
220
0.0
230
1.0
 70
     8
 71
     3
 72
    10
 73
     6
 74
     0
 42
0.00000001
 43
0.00000001
 12
1.0
 22
0.0
 32
0.0
 13
1.0
 23
0.0
 33
0.0
 40
0.0
 40
0.0
 40
0.0
 40
0.0
 40
0.5
 40
0.5
 40
1.0
 40
1.0
 40
1.0
 40
1.0
 10
224.3286050410778
 20
78.22977770859603
 30
0.0
 10
224.4312045137268
 20
78.18874824631104
 30
0.0
 10
224.5279508541896
 20
78.12999603811302
 30
0.0
 10
224.6965103333364
 20
77.9839078878752
 30
0.0
 10
224.7678417411946
 20
77.8973670194225
 30
0.0
 10
224.8233415290094
 20
77.80123240663922
 30
0.0
  0
LINE
  5
C1
330
1F
100
AcDbEntity
  8
0
  6
Continuous
 62
     7
370
    15
100
AcDbLine
 10
241.351820941
 20
120.4842289737
 30
0.0
 11
242.0091789579
 21
121.3256088668
 31
0.0
  0
LINE
  5
C2
330
1F
100
AcDbEntity
  8
0
  6
Continuous
 62
     7
370
    15
100
AcDbLine
 10
238.5937833033
 20
122.6390441373
 30
0.0
 11
242.042181221
 21
127.0527921964
 31
0.0
  0
ARC
  5
C3
330
1F
100
AcDbEntity
  8
0
  6
Continuous
 62
     7
370
    15
100
AcDbCircle
 10
239.9728021222
 20
121.5616365555
 30
0.0
 40
1.750000000000005
100
AcDbArc
 50
142.0
 51
322.0
  0
LINE
  5
C4
330
1F
100
AcDbEntity
  8
0
  6
Continuous
 62
     7
370
    15
100
AcDbLine
 10
252.0276645427
 20
149.1691267009
 30
0.0
 11
242.6436802147
 21
137.1581744837
 31
0.0
  0
LINE
  5
C5
330
1F
100
AcDbEntity
  8
0
  6
Continuous
 62
     7
370
    15
100
AcDbLine
 10
251.9279334784
 20
133.6869344279
 30
0.0
 11
252.7256442543
 21
148.9081627802
 31
0.0
  0
LINE
  5
C6
330
1F
100
AcDbEntity
  8
0
  6
Continuous
 62
     7
370
    15
100
AcDbLine
 10
242.4603297947
 20
121.4523320846
 30
0.0
 11
251.8443141227
 21
133.4632843019
 31
0.0
  0
LINE
  5
C7
330
1F
100
AcDbEntity
  8
0
  6
Continuous
 62
     7
370
    15
100
AcDbLine
 10
242.560060859
 20
136.9345243576
 30
0.0
 11
241.7623500831
 21
121.7132960054
 31
0.0
  0
LINE
  5
C8
330
1F
100
AcDbEntity
  8
0
  6
Continuous
 62
     7
370
    15
100
AcDbLine
 10
251.9080101022
 20
133.6889202164
 30
0.0
 11
252.7041223364
 21
148.8796465756
 31
0.0
  0
ARC
  5
C9
330
1F
100
AcDbEntity
  8
0
  6
Continuous
 62
     7
370
    15
100
AcDbCircle
 10
252.3246431132
 20
148.899534239
 30
0.0
 40
0.3800000000000096
100
AcDbArc
 50
357.0
 51
142.0
  0
LINE
  5
CA
330
1F
100
AcDbEntity
  8
0
  6
Continuous
 62
     7
370
    15
100
AcDbLine
 10
252.0251990268
 20
149.1334855996
 30
0.0
 11
242.6600193722
 21
137.1466022663
 31
0.0
  0
ARC
  5
CB
330
1F
100
AcDbEntity
  8
0
  6
Continuous
 62
     7
370
    15
100
AcDbCircle
 10
242.9594634584
 20
136.9126509058
 30
0.0
 40
0.37999999999998
100
AcDbArc
 50
142.0
 51
177.0
  0
LINE
  5
CC
330
1F
100
AcDbEntity
  8
0
  6
Continuous
 62
     7
370
    15
100
AcDbLine
 10
242.5799842351
 20
136.9325385692
 30
0.0
 11
241.783872001
 21
121.7418122099
 31
0.0
  0
ARC
  5
CD
330
1F
100
AcDbEntity
  8
0
  6
Continuous
 62
     7
370
    15
100
AcDbCircle
 10
242.1633512242
 20
121.7219245465
 30
0.0
 40
0.3800000000000096
100
AcDbArc
 50
177.0
 51
322.0
  0
LINE
  5
CE
330
1F
100
AcDbEntity
  8
0
  6
Continuous
 62
     7
370
    15
100
AcDbLine
 10
242.4627953105
 20
121.4879731859
 30
0.0
 11
251.8279749654
 21
133.4748565191
 31
0.0
  0
ARC
  5
CF
330
1F
100
AcDbEntity
  8
0
  6
Continuous
 62
     7
370
    15
100
AcDbCircle
 10
251.528530879
 20
133.7088078798
 30
0.0
 40
0.3800000000000338
100
AcDbArc
 50
322.0
 51
357.0
  0
SPLINE
  5
D0
330
1F
100
AcDbEntity
  8
0
  6
Continuous
 62
     7
370
    15
100
AcDbSpline
210
0.0
220
0.0
230
1.0
 70
     8
 71
     3
 72
    10
 73
     6
 74
     0
 42
0.00000001
 43
0.00000001
 12
1.0
 22
0.0
 32
0.0
 13
1.0
 23
0.0
 33
0.0
 40
0.0
 40
0.0
 40
0.0
 40
0.0
 40
0.2724816576280379
 40
0.5447570452796838
 40
1.0
 40
1.0
 40
1.0
 40
1.0
 10
242.643680214683
 20
137.1581744836806
 30
0.0
 10
242.6310177605322
 20
137.1401745121784
 30
0.0
 10
242.6057024377717
 20
137.1041881952423
 30
0.0
 10
242.5727300362261
 20
137.0296486812743
 30
0.0
 10
242.5649372052933
 20
136.9711375595263
 30
0.0
 10
242.5600608589899
 20
136.9345243576355
 30
0.0
  0
SPLINE
  5
D1
330
1F
100
AcDbEntity
  8
0
  6
Continuous
 62
     7
370
    15
100
AcDbSpline
210
0.0
220
0.0
230
1.0
 70
     8
 71
     3
 72
    10
 73
     6
 74
     0
 42
0.00000001
 43
0.00000001
 12
1.0
 22
0.0
 32
0.0
 13
1.0
 23
0.0
 33
0.0
 40
0.0
 40
0.0
 40
0.0
 40
0.0
 40
0.2724816576280344
 40
0.5447570452796786
 40
1.0
 40
1.0
 40
1.0
 40
1.0
 10
251.844314122689
 20
133.4632843018816
 30
0.0
 10
251.8569765768397
 20
133.4812842733838
 30
0.0
 10
251.8822918996003
 20
133.5172705903198
 30
0.0
 10
251.9152643011459
 20
133.5918101042879
 30
0.0
 10
251.9230571320787
 20
133.6503212260358
 30
0.0
 10
251.9279334783821
 20
133.6869344279267
 30
0.0
  0
SPLINE
  5
D2
330
1F
100
AcDbEntity
  8
0
  6
Continuous
 62
     7
370
    15
100
AcDbSpline
210
0.0
220
0.0
230
1.0
 70
     8
 71
     3
 72
    15
 73
    11
 74
     0
 42
0.00000001
 43
0.00000001
 12
1.0
 22
0.0
 32
0.0
 13
1.0
 23
0.0
 33
0.0
 40
0.0
 40
0.0
 40
0.0
 40
0.0
 40
0.1411619226998997
 40
0.2818342648202457
 40
0.416966684443441
 40
0.5461338408377902
 40
0.6723563608105356
 40
0.7999811958597312
 40
0.9323887207821167
 40
1.0
 40
1.0
 40
1.0
 40
1.0
 10
241.7623500830877
 20
121.7132960053725
 30
0.0
 10
241.7644540872126
 20
121.6660457790563
 30
0.0
 10
241.7686547983136
 20
121.571709200596
 30
0.0
 10
241.8337884932139
 20
121.4448624307557
 30
0.0
 10
241.9326948404087
 20
121.3504402279278
 30
0.0
 10
242.0542852764213
 20
121.2981440645969
 30
0.0
 10
242.1835640281411
 20
121.2897323663784
 30
0.0
 10
242.3090990197116
 20
121.3241916048099
 30
0.0
 10
242.4022534330264
 20
121.3849387588089
 30
0.0
 10
242.4456579870331
 20
121.4353065361004
 30
0.0
 10
242.4603297946809
 20
121.4523320846166
 30
0.0
  0
SPLINE
  5
D3
330
1F
100
AcDbEntity
  8
0
  6
Continuous
 62
     7
370
    15
100
AcDbSpline
210
0.0
220
0.0
230
1.0
 70
     8
 71
     3
 72
    15
 73
    11
 74
     0
 42
0.00000001
 43
0.00000001
 12
1.0
 22
0.0
 32
0.0
 13
1.0
 23
0.0
 33
0.0
 40
0.0
 40
0.0
 40
0.0
 40
0.0
 40
0.1411619226998991
 40
0.2818342648202517
 40
0.416966684443445
 40
0.5461338408378007
 40
0.6723563608105394
 40
0.7999811958597342
 40
0.932388720782116
 40
1.0
 40
1.0
 40
1.0
 40
1.0
 10
252.7256442542843
 20
148.9081627801897
 30
0.0
 10
252.7235402501594
 20
148.9554130065058
 30
0.0
 10
252.7193395390584
 20
149.0497495849662
 30
0.0
 10
252.6542058441581
 20
149.1765963548065
 30
0.0
 10
252.5552994969632
 20
149.2710185576343
 30
0.0
 10
252.4337090609507
 20
149.3233147209652
 30
0.0
 10
252.3044303092309
 20
149.3317264191838
 30
0.0
 10
252.1788953176604
 20
149.2972671807523
 30
0.0
 10
252.0857409043456
 20
149.2365200267533
 30
0.0
 10
252.0423363503389
 20
149.1861522494617
 30
0.0
 10
252.0276645426912
 20
149.1691267009456
 30
0.0
  0
LINE
  5
D4
330
1F
100
AcDbEntity
  8
0
  6
Continuous
 62
     7
370
    15
100
AcDbLine
 10
252.3246431132
 20
148.899534239
 30
0.0
 11
252.0251990268
 21
149.1334855996
 31
0.0
  0
LINE
  5
D5
330
1F
100
AcDbEntity
  8
0
  6
Continuous
 62
     7
370
    15
100
AcDbLine
 10
252.3246431132
 20
148.899534239
 30
0.0
 11
252.7041223364
 21
148.8796465756
 31
0.0
  0
LINE
  5
D6
330
1F
100
AcDbEntity
  8
0
  6
Continuous
 62
     7
370
    15
100
AcDbLine
 10
251.1534559338
 20
145.7670518357
 30
0.0
 11
252.3246431132
 21
148.899534239
 31
0.0
  0
LINE
  5
D7
330
1F
100
AcDbEntity
  8
0
  6
Continuous
 62
     7
370
    15
100
AcDbLine
 10
251.528530879
 20
133.7088078798
 30
0.0
 11
251.9080101022
 21
133.6889202164
 31
0.0
  0
LINE
  5
D8
330
1F
100
AcDbEntity
  8
0
  6
Continuous
 62
     7
370
    15
100
AcDbLine
 10
251.4005644024
 20
133.7566525849
 30
0.0
 11
251.528530879
 21
133.7088078798
 31
0.0
  0
LINE
  5
D9
330
1F
100
AcDbEntity
  8
0
  6
Continuous
 62
     7
370
    15
100
AcDbLine
 10
251.0877242086
 20
144.5128158025
 30
0.0
 11
251.1534559338
 21
145.7670518357
 31
0.0
  0
LINE
  5
DA
330
1F
100
AcDbEntity
  8
0
  6
Continuous
 62
     7
370
    15
100
AcDbLine
 10
242.9594634584
 20
136.9126509058
 30
0.0
 11
242.6600193722
 21
137.1466022663
 31
0.0
  0
LINE
  5
DB
330
1F
100
AcDbEntity
  8
0
  6
Continuous
 62
     7
370
    15
100
AcDbLine
 10
251.1534559338
 20
145.7670518357
 30
0.0
 11
250.3802114225
 21
144.7773439938
 31
0.0
  0
LINE
  5
DC
330
1F
100
AcDbEntity
  8
0
  6
Continuous
 62
     7
370
    15
100
AcDbLine
 10
243.087429935
 20
136.8648062007
 30
0.0
 11
242.9594634584
 21
136.9126509058
 31
0.0
  0
LINE
  5
DD
330
1F
100
AcDbEntity
  8
0
  6
Continuous
 62
     7
370
    15
100
AcDbLine
 10
251.528530879
 20
133.7088078798
 30
0.0
 11
251.8279749654
 21
133.4748565191
 31
0.0
  0
LINE
  5
DE
330
1F
100
AcDbEntity
  8
0
  6
Continuous
 62
     7
370
    15
100
AcDbLine
 10
242.1633512242
 20
121.7219245465
 30
0.0
 11
242.4627953105
 21
121.4879731859
 31
0.0
  0
LINE
  5
DF
330
1F
100
AcDbEntity
  8
0
  6
Continuous
 62
     7
370
    15
100
AcDbLine
 10
243.3345384035
 20
124.8544069499
 30
0.0
 11
242.1633512242
 21
121.7219245465
 31
0.0
  0
LINE
  5
E0
330
1F
100
AcDbEntity
  8
0
  6
Continuous
 62
     7
370
    15
100
AcDbLine
 10
243.3345384035
 20
124.8544069499
 30
0.0
 11
244.1077829148
 21
125.8441147918
 31
0.0
  0
ARC
  5
E1
330
1F
100
AcDbEntity
  8
0
  6
Continuous
 62
     7
370
    15
100
AcDbCircle
 10
249.7391911942
 20
141.9844289648
 30
0.0
 40
1.000000000295361
100
AcDbArc
 50
357.0
 51
142.0
  0
ARC
  5
E2
330
1F
100
AcDbEntity
  8
0
  6
Continuous
 62
     7
370
    15
100
AcDbCircle
 10
249.7391911942
 20
141.9844289648
 30
0.0
 40
2.385640646055122
100
AcDbArc
 50
68.5810823052
 51
70.4189176948
  0
LINE
  5
E3
330
1F
100
AcDbEntity
  8
0
  6
Continuous
 62
     7
370
    15
100
AcDbLine
 10
250.3468360959
 20
134.4716617823
 30
0.0
 11
250.7378207292
 21
141.9320930086
 31
0.0
  0
ARC
  5
E4
330
1F
100
AcDbEntity
  8
0
  6
Continuous
 62
     7
370
    15
100
AcDbCircle
 10
249.3482065611
 20
134.5239977385
 30
0.0
 40
1.000000000000022
100
AcDbArc
 50
322.0
 51
357.0
  0
ARC
  5
E5
330
1F
100
AcDbEntity
  8
0
  6
Continuous
 62
     7
370
    15
100
AcDbCircle
 10
244.7488031432
 20
128.6370298207
 30
0.0
 40
1.000000000000026
100
AcDbArc
 50
177.0
 51
322.0
  0
LINE
  5
E6
330
1F
100
AcDbEntity
  8
0
  6
Continuous
 62
     7
370
    15
100
AcDbLine
 10
244.1411582415
 20
136.1497970033
 30
0.0
 11
243.7501736085
 21
128.689365777
 31
0.0
  0
ARC
  5
E7
330
1F
100
AcDbEntity
  8
0
  6
Continuous
 62
     7
370
    15
100
AcDbCircle
 10
245.1397877763
 20
136.097461047
 30
0.0
 40
0.9999999999999959
100
AcDbArc
 50
142.0
 51
177.0
  0
LINE
  5
E8
330
1F
100
AcDbEntity
  8
0
  6
Continuous
 62
     7
370
    15
100
AcDbLine
 10
248.9511804406
 20
142.6000904402
 30
0.0
 11
244.3517770227
 21
136.7131225224
 31
0.0
  0
LINE
  5
E9
330
1F
100
AcDbEntity
  8
0
  6
Continuous
 62
     7
370
    15
100
AcDbLine
 10
245.5368138968
 20
128.0213683454
 30
0.0
 11
250.1362173147
 21
133.9083362632
 31
0.0
  0
CIRCLE
  5
EA
330
1F
100
AcDbEntity
  8
0
  6
Continuous
 62
     7
370
    15
100
AcDbCircle
 10
247.2439971687
 20
135.3107293928
 30
0.0
 40
3.050000000000016
  0
ARC
  5
EB
330
1F
100
AcDbEntity
  8
0
  6
Continuous
 62
     7
370
    15
100
AcDbCircle
 10
244.7488031432
 20
128.6370298207
 30
0.0
 40
2.385640646055132
100
AcDbArc
 50
248.5810823052
 51
250.4189176948
  0
LINE
  5
EC
330
1F
100
AcDbEntity
  8
0
  6
Continuous
 62
     7
370
    15
100
AcDbLine
 10
242.1633512242
 20
121.7219245465
 30
0.0
 11
241.783872001
 21
121.7418122099
 31
0.0
  0
LINE
  5
ED
330
1F
100
AcDbEntity
  8
0
  6
Continuous
 62
     7
370
    15
100
AcDbLine
 10
242.9594634584
 20
136.9126509058
 30
0.0
 11
242.5799842351
 21
136.9325385692
 31
0.0
  0
LINE
  5
EE
330
1F
100
AcDbEntity
  8
0
  6
Continuous
 62
     7
370
    15
100
AcDbLine
 10
243.4002701287
 20
126.108642983
 30
0.0
 11
243.3345384035
 21
124.8544069499
 31
0.0
  0
SPLINE
  5
EF
330
1F
100
AcDbEntity
  8
0
  6
Continuous
 62
     7
370
    15
100
AcDbSpline
210
0.0
220
0.0
230
1.0
 70
     8
 71
     3
 72
    14
 73
    10
 74
     0
 42
0.00000001
 43
0.00000001
 12
1.0
 22
0.0
 32
0.0
 13
1.0
 23
0.0
 33
0.0
 40
0.0
 40
0.0
 40
0.0
 40
0.0
 40
0.2055181916618882
 40
0.3570166013207979
 40
0.4668471835761888
 40
0.5770815399050526
 40
0.7093665789830467
 40
0.9240585340231819
 40
1.0
 40
1.0
 40
1.0
 40
1.0
 10
250.6103894095966
 20
144.2053060351642
 30
0.0
 10
250.6563834557214
 20
144.1893112605128
 30
0.0
 10
250.7362821639362
 20
144.1615258852193
 30
0.0
 10
250.8483964669369
 20
144.1565359574425
 30
0.0
 10
250.9340761491117
 20
144.1817695422916
 30
0.0
 10
251.0014230161549
 20
144.2338381903568
 30
0.0
 10
251.0586093625686
 20
144.3275562225708
 30
0.0
 10
251.0814943684293
 20
144.4265693241901
 30
0.0
 10
251.0864336041376
 20
144.4949485556541
 30
0.0
 10
251.0877242086358
 20
144.5128158025164
 30
0.0
  0
SPLINE
  5
F0
330
1F
100
AcDbEntity
  8
0
  6
Continuous
 62
     7
370
    15
100
AcDbSpline
210
0.0
220
0.0
230
1.0
 70
     8
 71
     3
 72
    14
 73
    10
 74
     0
 42
0.00000001
 43
0.00000001
 12
1.0
 22
0.0
 32
0.0
 13
1.0
 23
0.0
 33
0.0
 40
0.0
 40
0.0
 40
0.0
 40
0.0
 40
0.2086064885492631
 40
0.3652036095093046
 40
0.4768526932687316
 40
0.5890212938927698
 40
0.7185670083743606
 40
0.935257953097234
 40
1.0
 40
1.0
 40
1.0
 40
1.0
 10
250.3802114225323
 20
144.7773439937801
 30
0.0
 10
250.3515965923259
 20
144.7370122557268
 30
0.0
 10
250.3015011262186
 20
144.6664042108032
 30
0.0
 10
250.2661068782843
 20
144.5573015961113
 30
0.0
 10
250.2671415208166
 20
144.4659379353347
 30
0.0
 10
250.2992791402899
 20
144.3867275973843
 30
0.0
 10
250.3750253716676
 20
144.3068166485463
 30
0.0
 10
250.4622187414756
 20
144.2606297506075
 30
0.0
 10
250.5244094035544
 20
144.237438610472
 30
0.0
 10
250.5387160089667
 20
144.2321036215863
 30
0.0
  0
SPLINE
  5
F1
330
1F
100
AcDbEntity
  8
0
  6
Continuous
 62
     7
370
    15
100
AcDbSpline
210
0.0
220
0.0
230
1.0
 70
     8
 71
     3
 72
    14
 73
    10
 74
     0
 42
0.00000001
 43
0.00000001
 12
1.0
 22
0.0
 32
0.0
 13
1.0
 23
0.0
 33
0.0
 40
0.0
 40
0.0
 40
0.0
 40
0.0
 40
0.2086064885490999
 40
0.365203609509236
 40
0.4768526932686629
 40
0.5890212938927197
 40
0.7185670083743514
 40
0.9352579530973442
 40
1.0
 40
1.0
 40
1.0
 40
1.0
 10
244.1077829148399
 20
125.8441147917821
 30
0.0
 10
244.1363977450462
 20
125.8844465298354
 30
0.0
 10
244.1864932111534
 20
125.955054574759
 30
0.0
 10
244.2218874590878
 20
126.0641571894509
 30
0.0
 10
244.2208528165554
 20
126.1555208502275
 30
0.0
 10
244.1887151970821
 20
126.2347311881779
 30
0.0
 10
244.1129689657044
 20
126.3146421370159
 30
0.0
 10
244.0257755958963
 20
126.3608290349547
 30
0.0
 10
243.9635849338176
 20
126.3840201750902
 30
0.0
 10
243.9492783284053
 20
126.3893551639758
 30
0.0
  0
SPLINE
  5
F2
330
1F
100
AcDbEntity
  8
0
  6
Continuous
 62
     7
370
    15
100
AcDbSpline
210
0.0
220
0.0
230
1.0
 70
     8
 71
     3
 72
    14
 73
    10
 74
     0
 42
0.00000001
 43
0.00000001
 12
1.0
 22
0.0
 32
0.0
 13
1.0
 23
0.0
 33
0.0
 40
0.0
 40
0.0
 40
0.0
 40
0.0
 40
0.2055181916619
 40
0.3570166013207987
 40
0.4668471835761901
 40
0.577081539905058
 40
0.7093665789830456
 40
0.924058534023198
 40
1.0
 40
1.0
 40
1.0
 40
1.0
 10
243.8776049277754
 20
126.4161527503979
 30
0.0
 10
243.8316108816506
 20
126.4321475250494
 30
0.0
 10
243.7517121734357
 20
126.4599329003428
 30
0.0
 10
243.6395978704351
 20
126.4649228281197
 30
0.0
 10
243.5539181882603
 20
126.4396892432706
 30
0.0
 10
243.4865713212171
 20
126.3876205952054
 30
0.0
 10
243.4293849748034
 20
126.2939025629914
 30
0.0
 10
243.4064999689427
 20
126.194889461372
 30
0.0
 10
243.4015607332344
 20
126.126510229908
 30
0.0
 10
243.4002701287362
 20
126.1086429830458
 30
0.0
  0
SPLINE
  5
F3
330
1F
100
AcDbEntity
  8
0
  6
Continuous
 62
     7
370
    15
100
AcDbSpline
210
0.0
220
0.0
230
1.0
 70
     8
 71
     3
 72
    11
 73
     7
 74
     0
 42
0.00000001
 43
0.00000001
 12
1.0
 22
0.0
 32
0.0
 13
1.0
 23
0.0
 33
0.0
 40
0.0
 40
0.0
 40
0.0
 40
0.0
 40
0.3241878797140477
 40
0.6482205889188994
 40
0.9887961381647228
 40
1.0
 40
1.0
 40
1.0
 40
1.0
 10
251.4005644023577
 20
133.7566525848627
 30
0.0
 10
251.3322657840756
 20
133.7821883918718
 30
0.0
 10
251.1957012382197
 20
133.8332477833352
 30
0.0
 10
250.9652546969302
 20
133.9194082145101
 30
0.0
 10
250.8178003827475
 20
133.9745391236504
 30
0.0
 10
250.7485286190463
 20
134.0004387747121
 30
0.0
 10
250.7463223748912
 20
134.0012636555975
 30
0.0
  0
SPLINE
  5
F4
330
1F
100
AcDbEntity
  8
0
  6
Continuous
 62
     7
370
    15
100
AcDbSpline
210
0.0
220
0.0
230
1.0
 70
     8
 71
     3
 72
    11
 73
     7
 74
     0
 42
0.00000001
 43
0.00000001
 12
1.0
 22
0.0
 32
0.0
 13
1.0
 23
0.0
 33
0.0
 40
0.0
 40
0.0
 40
0.0
 40
0.0
 40
0.3241878797140414
 40
0.6482205889188982
 40
0.9887961381644896
 40
1.0
 40
1.0
 40
1.0
 40
1.0
 10
243.0874299350143
 20
136.8648062006995
 30
0.0
 10
243.1557285532964
 20
136.8392703936903
 30
0.0
 10
243.2922930991523
 20
136.7882110022269
 30
0.0
 10
243.5227396404417
 20
136.702050571052
 30
0.0
 10
243.6701939546244
 20
136.6469196619119
 30
0.0
 10
243.7394657183256
 20
136.6210200108501
 30
0.0
 10
243.7416719624808
 20
136.6201951299647
 30
0.0
  0
ARC
  5
F5
330
1F
100
AcDbEntity
  8
0
  6
Continuous
 62
     7
370
    15
100
AcDbCircle
 10
247.2032275124
 20
135.2016859937
 30
0.0
 40
1.675000000000009
100
AcDbArc
 50
77.160805032
 51
135.7607381592
  0
ARC
  5
F6
330
1F
100
AcDbEntity
  8
0
  6
Continuous
 62
     7
370
    15
100
AcDbCircle
 10
247.2032275124
 20
135.2016859937
 30
0.0
 40
1.675000000000009
100
AcDbArc
 50
135.7607381592
 51
195.8675798939
  0
ARC
  5
F7
330
1F
100
AcDbEntity
  8
0
  6
Continuous
 62
     7
370
    15
100
AcDbCircle
 10
247.2032275124
 20
135.2016859937
 30
0.0
 40
1.674999999999966
100
AcDbArc
 50
195.8675798939
 51
254.4675130212
  0
LINE
  5
F8
330
1F
100
AcDbEntity
  8
0
  6
Continuous
 62
     7
370
    15
100
AcDbLine
 10
246.8370999373
 20
133.5671904756
 30
0.0
 11
246.7546881128
 21
133.5878590491
 31
0.0
  0
ARC
  5
F9
330
1F
100
AcDbEntity
  8
0
  6
Continuous
 62
     7
370
    15
100
AcDbCircle
 10
247.2032275124
 20
135.2016859937
 30
0.0
 40
1.674999999999994
100
AcDbArc
 50
257.374143793
 51
313.8178619593
  0
LINE
  5
FA
330
1F
100
AcDbEntity
  8
0
  6
Continuous
 62
     7
370
    15
100
AcDbLine
 10
248.4463692776
 20
134.0790892043
 30
0.0
 11
248.3629441619
 21
133.9930990946
 31
0.0
  0
ARC
  5
FB
330
1F
100
AcDbEntity
  8
0
  6
Continuous
 62
     7
370
    15
100
AcDbCircle
 10
247.2032275124
 20
135.2016859937
 30
0.0
 40
1.67500000000004
100
AcDbArc
 50
317.9169538596
 51
13.7113641936
  0
LINE
  5
FC
330
1F
100
AcDbEntity
  8
0
  6
Continuous
 62
     7
370
    15
100
AcDbLine
 10
248.7979507749
 20
135.7140166643
 30
0.0
 11
248.8304935731
 21
135.5987126523
 31
0.0
  0
ARC
  5
FD
330
1F
100
AcDbEntity
  8
0
  6
Continuous
 62
     7
370
    15
100
AcDbCircle
 10
247.2032275124
 20
135.2016859937
 30
0.0
 40
1.675000000000028
100
AcDbArc
 50
17.8104560938
 51
74.2541742601
  0
LINE
  5
FE
330
1F
100
AcDbEntity
  8
0
  6
Continuous
 62
     7
370
    15
100
AcDbLine
 10
247.5754385203
 20
136.8348069217
 30
0.0
 11
247.6577728149
 21
136.8138316347
 31
0.0
  0
CIRCLE
  5
FF
330
1F
100
AcDbEntity
  8
0
  6
Continuous
 62
     7
370
    15
100
AcDbCircle
 10
247.2032275124
 20
135.2016859937
 30
0.0
 40
1.8
  0
SPLINE
  5
100
330
1F
100
AcDbEntity
  8
0
  6
Continuous
 62
     7
370
    15
100
AcDbSpline
210
0.0
220
0.0
230
1.0
 70
     8
 71
     3
 72
    11
 73
     7
 74
     0
 42
0.00000001
 43
0.00000001
 12
1.0
 22
0.0
 32
0.0
 13
1.0
 23
0.0
 33
0.0
 40
0.0
 40
0.0
 40
0.0
 40
0.0
 40
0.266901046795011
 40
0.554614341079251
 40
0.8439070439786371
 40
1.0
 40
1.0
 40
1.0
 40
1.0
 10
248.4463692775607
 20
134.0790892042618
 30
0.0
 10
248.4630883620015
 20
134.1096928864209
 30
0.0
 10
248.4978302414808
 20
134.1732866460524
 30
0.0
 10
248.5082633863221
 20
134.2845138485777
 30
0.0
 10
248.4884670428264
 20
134.378700876866
 30
0.0
 10
248.4602840690224
 20
134.4284940253842
 30
0.0
 10
248.450406867989
 20
134.4459448785632
 30
0.0
  0
SPLINE
  5
101
330
1F
100
AcDbEntity
  8
0
  6
Continuous
 62
     7
370
    15
100
AcDbSpline
210
0.0
220
0.0
230
1.0
 70
     8
 71
     3
 72
    12
 73
     8
 74
     0
 42
0.00000001
 43
0.00000001
 12
1.0
 22
0.0
 32
0.0
 13
1.0
 23
0.0
 33
0.0
 40
0.0
 40
0.0
 40
0.0
 40
0.0
 40
0.205840128133811
 40
0.4120619935510086
 40
0.6141387330969637
 40
0.8132772113524814
 40
1.0
 40
1.0
 40
1.0
 40
1.0
 10
248.450406867989
 20
134.4459448785632
 30
0.0
 10
248.4206027090969
 20
134.5043503115419
 30
0.0
 10
248.3609391185203
 20
134.6212694922948
 30
0.0
 10
248.3507218306021
 20
134.82241322289
 30
0.0
 10
248.4029626294147
 20
135.0116501896592
 30
0.0
 10
248.5089553667784
 20
135.1719627016615
 30
0.0
 10
248.6105550033942
 20
135.2407276154345
 30
0.0
 10
248.6597202581158
 20
135.2740037630091
 30
0.0
  0
SPLINE
  5
102
330
1F
100
AcDbEntity
  8
0
  6
Continuous
 62
     7
370
    15
100
AcDbSpline
210
0.0
220
0.0
230
1.0
 70
     8
 71
     3
 72
    11
 73
     7
 74
     0
 42
0.00000001
 43
0.00000001
 12
1.0
 22
0.0
 32
0.0
 13
1.0
 23
0.0
 33
0.0
 40
0.0
 40
0.0
 40
0.0
 40
0.0
 40
0.2928993220619401
 40
0.5864344719078955
 40
0.877517886803264
 40
1.0
 40
1.0
 40
1.0
 40
1.0
 10
248.6597202581158
 20
135.2740037630091
 30
0.0
 10
248.690903873641
 20
135.2955562390869
 30
0.0
 10
248.7533387982901
 20
135.3387079775002
 30
0.0
 10
248.8128101249268
 20
135.4384080561643
 30
0.0
 10
248.8341286193898
 20
135.5292589440835
 30
0.0
 10
248.8313241487909
 20
135.5828430983923
 30
0.0
 10
248.8304935730731
 20
135.598712652327
 30
0.0
  0
SPLINE
  5
103
330
1F
100
AcDbEntity
  8
0
  6
Continuous
 62
     7
370
    15
100
AcDbSpline
210
0.0
220
0.0
230
1.0
 70
     8
 71
     3
 72
    12
 73
     8
 74
     0
 42
0.00000001
 43
0.00000001
 12
1.0
 22
0.0
 32
0.0
 13
1.0
 23
0.0
 33
0.0
 40
0.0
 40
0.0
 40
0.0
 40
0.0
 40
0.2057904614204299
 40
0.4120344203360216
 40
0.6141302471428063
 40
0.8132633242113151
 40
1.0
 40
1.0
 40
1.0
 40
1.0
 10
248.4819891493265
 20
135.9015002659088
 30
0.0
 10
248.4165241350284
 20
135.9048893511847
 30
0.0
 10
248.285449842117
 20
135.9116749902154
 30
0.0
 10
248.1061453279763
 20
136.0033806258916
 30
0.0
 10
247.9683654463449
 20
136.1432438212473
 30
0.0
 10
247.8825156643173
 20
136.3152027285845
 30
0.0
 10
247.8737620251026
 20
136.4375783312935
 30
0.0
 10
247.8695258146302
 20
136.4968004213337
 30
0.0
  0
SPLINE
  5
104
330
1F
100
AcDbEntity
  8
0
  6
Continuous
 62
     7
370
    15
100
AcDbSpline
210
0.0
220
0.0
230
1.0
 70
     8
 71
     3
 72
    11
 73
     7
 74
     0
 42
0.00000001
 43
0.00000001
 12
1.0
 22
0.0
 32
0.0
 13
1.0
 23
0.0
 33
0.0
 40
0.0
 40
0.0
 40
0.0
 40
0.0
 40
0.280237141101366
 40
0.5612869875923844
 40
0.8399906057824116
 40
1.0
 40
1.0
 40
1.0
 40
1.0
 10
247.8695258146302
 20
136.4968004213337
 30
0.0
 10
247.8664589136303
 20
136.5345587959283
 30
0.0
 10
247.860316217424
 20
136.610185046786
 30
0.0
 10
247.8037312258651
 20
136.7114546548278
 30
0.0
 10
247.7314998463857
 20
136.7796256507592
 30
0.0
 10
247.6774764663989
 20
136.8046900380377
 30
0.0
 10
247.6577728148983
 20
136.813831634734
 30
0.0
  0
SPLINE
  5
105
330
1F
100
AcDbEntity
  8
0
  6
Continuous
 62
     7
370
    15
100
AcDbSpline
210
0.0
220
0.0
230
1.0
 70
     8
 71
     3
 72
    11
 73
     7
 74
     0
 42
0.00000001
 43
0.00000001
 12
1.0
 22
0.0
 32
0.0
 13
1.0
 23
0.0
 33
0.0
 40
0.0
 40
0.0
 40
0.0
 40
0.0
 40
0.2657596322625194
 40
0.5530029385954204
 40
0.8418208483438717
 40
1.0
 40
1.0
 40
1.0
 40
1.0
 10
248.7979507748684
 20
135.7140166642833
 30
0.0
 10
248.779918028007
 20
135.7437549500938
 30
0.0
 10
248.7423947897316
 20
135.805635527298
 30
0.0
 10
248.6515408775308
 20
135.8704719011273
 30
0.0
 10
248.5598606481107
 20
135.9007750183507
 30
0.0
 10
248.5023429691727
 20
135.9013107028675
 30
0.0
 10
248.4819891493265
 20
135.9015002659088
 30
0.0
  0
SPLINE
  5
106
330
1F
100
AcDbEntity
  8
0
  6
Continuous
 62
     7
370
    15
100
AcDbSpline
210
0.0
220
0.0
230
1.0
 70
     8
 71
     3
 72
    11
 73
     7
 74
     0
 42
0.00000001
 43
0.00000001
 12
1.0
 22
0.0
 32
0.0
 13
1.0
 23
0.0
 33
0.0
 40
0.0
 40
0.0
 40
0.0
 40
0.0
 40
0.2431090893443023
 40
0.5182793655621941
 40
0.7947794085751665
 40
1.0
 40
1.0
 40
1.0
 40
1.0
 10
246.8370999372629
 20
133.5671904755689
 30
0.0
 10
246.8702408318026
 20
133.5661164717582
 30
0.0
 10
246.9408932366245
 20
133.5638268246901
 30
0.0
 10
247.043591830621
 20
133.602852959461
 30
0.0
 10
247.1256841124176
 20
133.6667679566476
 30
0.0
 10
247.1596133813308
 20
133.7219919501969
 30
0.0
 10
247.1740677852637
 20
133.745518242838
 30
0.0
  0
SPLINE
  5
107
330
1F
100
AcDbEntity
  8
0
  6
Continuous
 62
     7
370
    15
100
AcDbSpline
210
0.0
220
0.0
230
1.0
 70
     8
 71
     3
 72
    12
 73
     8
 74
     0
 42
0.00000001
 43
0.00000001
 12
1.0
 22
0.0
 32
0.0
 13
1.0
 23
0.0
 33
0.0
 40
0.0
 40
0.0
 40
0.0
 40
0.0
 40
0.2058179564998613
 40
0.4120215045907379
 40
0.6140779969167804
 40
0.8132130006453994
 40
0.9999999999999999
 40
0.9999999999999999
 40
0.9999999999999999
 40
0.9999999999999999
 10
247.1740677852637
 20
133.745518242838
 30
0.0
 10
247.20974261962
 20
133.8005275440444
 30
0.0
 10
247.2811591236873
 20
133.910649204151
 30
0.0
 10
247.4502286239867
 20
134.0200678935496
 30
0.0
 10
247.6402161630974
 20
134.0694530906014
 30
0.0
 10
247.8320567657005
 20
134.0578342245328
 30
0.0
 10
247.9424257211821
 20
134.0042242861854
 30
0.0
 10
247.9958445100867
 20
133.978276971859
 30
0.0
  0
SPLINE
  5
108
330
1F
100
AcDbEntity
  8
0
  6
Continuous
 62
     7
370
    15
100
AcDbSpline
210
0.0
220
0.0
230
1.0
 70
     8
 71
     3
 72
    11
 73
     7
 74
     0
 42
0.00000001
 43
0.00000001
 12
1.0
 22
0.0
 32
0.0
 13
1.0
 23
0.0
 33
0.0
 40
0.0
 40
0.0
 40
0.0
 40
0.0
 40
0.2908641666076931
 40
0.5839560789892119
 40
0.8745988053617367
 40
1.0
 40
1.0
 40
1.0
 40
1.0
 10
247.9958445100867
 20
133.978276971859
 30
0.0
 10
248.0299062008332
 20
133.9621186270942
 30
0.0
 10
248.0982904628207
 20
133.9296781798508
 30
0.0
 10
248.2141547606846
 20
133.9278174134941
 30
0.0
 10
248.3039551393997
 20
133.954728613158
 30
0.0
 10
248.3492820312942
 20
133.9842123134802
 30
0.0
 10
248.3629441619149
 20
133.9930990945531
 30
0.0
  0
SPLINE
  5
109
330
1F
100
AcDbEntity
  8
0
  6
Continuous
 62
     7
370
    15
100
AcDbSpline
210
0.0
220
0.0
230
1.0
 70
     8
 71
     3
 72
    12
 73
     8
 74
     0
 42
0.00000001
 43
0.00000001
 12
1.0
 22
0.0
 32
0.0
 13
1.0
 23
0.0
 33
0.0
 40
0.0
 40
0.0
 40
0.0
 40
0.0
 40
0.205858574121391
 40
0.4121026961457149
 40
0.614193784196727
 40
0.8133180967416394
 40
1.0
 40
1.0
 40
1.0
 40
1.0
 10
247.2372323479385
 20
136.6566290175293
 30
0.0
 10
247.2015511929034
 20
136.6016118601408
 30
0.0
 10
247.1301220563989
 20
136.4914745049646
 30
0.0
 10
246.9610196855644
 20
136.3820523075797
 30
0.0
 10
246.7710024703743
 20
136.3326845723565
 30
0.0
 10
246.5791815265867
 20
136.3443339788711
 30
0.0
 10
246.4688447892048
 20
136.3979343971477
 30
0.0
 10
246.4154556231156
 20
136.4238702885083
 30
0.0
  0
SPLINE
  5
10A
330
1F
100
AcDbEntity
  8
0
  6
Continuous
 62
     7
370
    15
100
AcDbSpline
210
0.0
220
0.0
230
1.0
 70
     8
 71
     3
 72
    11
 73
     7
 74
     0
 42
0.00000001
 43
0.00000001
 12
1.0
 22
0.0
 32
0.0
 13
1.0
 23
0.0
 33
0.0
 40
0.0
 40
0.0
 40
0.0
 40
0.0
 40
0.2524782265335186
 40
0.5068902417933151
 40
0.7591786113116954
 40
1.0
 40
1.0
 40
1.0
 40
1.0
 10
246.4154556231156
 20
136.4238702885083
 30
0.0
 10
246.381384482906
 20
136.4400364483628
 30
0.0
 10
246.3129812437986
 20
136.4724925884032
 30
0.0
 10
246.197291026905
 20
136.4742287596071
 30
0.0
 10
246.0876160438646
 20
136.4420274218512
 30
0.0
 10
246.0309008727023
 20
136.3938087954537
 30
0.0
 10
246.0032027262924
 20
136.370260130321
 30
0.0
  0
SPLINE
  5
10B
330
1F
100
AcDbEntity
  8
0
  6
Continuous
 62
     7
370
    15
100
AcDbSpline
210
0.0
220
0.0
230
1.0
 70
     8
 71
     3
 72
    11
 73
     7
 74
     0
 42
0.00000001
 43
0.00000001
 12
1.0
 22
0.0
 32
0.0
 13
1.0
 23
0.0
 33
0.0
 40
0.0
 40
0.0
 40
0.0
 40
0.0
 40
0.2423611237745378
 40
0.5166847928457794
 40
0.7923341374633014
 40
0.9999999999999999
 40
0.9999999999999999
 40
0.9999999999999999
 40
0.9999999999999999
 10
247.5754385202763
 20
136.8348069217237
 30
0.0
 10
247.5423016434514
 20
136.8360043620633
 30
0.0
 10
247.4716578039146
 20
136.8385571609784
 30
0.0
 10
247.3688183321753
 20
136.7999128906118
 30
0.0
 10
247.2861395844072
 20
136.736047513173
 30
0.0
 10
247.2519308163786
 20
136.6804972696748
 30
0.0
 10
247.2372323479385
 20
136.6566290175292
 30
0.0
  0
SPLINE
  5
10C
330
1F
100
AcDbEntity
  8
0
  6
Continuous
 62
     7
370
    15
100
AcDbSpline
210
0.0
220
0.0
230
1.0
 70
     8
 71
     3
 72
    12
 73
     8
 74
     0
 42
0.00000001
 43
0.00000001
 12
1.0
 22
0.0
 32
0.0
 13
1.0
 23
0.0
 33
0.0
 40
0.0
 40
0.0
 40
0.0
 40
0.0
 40
0.0091735205190079
 40
0.2576775215524969
 40
0.506189519229898
 40
0.7560357430218885
 40
1.0
 40
1.0
 40
1.0
 40
1.0
 10
245.5920514242578
 20
134.7437158930165
 30
0.0
 10
245.5924317324084
 20
134.7423980921129
 30
0.0
 10
245.6031143118471
 20
134.7053820228695
 30
0.0
 10
245.6372906656256
 20
134.6358274705422
 30
0.0
 10
245.7178800256964
 20
134.556634977385
 30
0.0
 10
245.8194148367766
 20
134.5060560735329
 30
0.0
 10
245.8929709867195
 20
134.502435646048
 30
0.0
 10
245.9293109838758
 20
134.5006469944585
 30
0.0
  0
SPLINE
  5
10D
330
1F
100
AcDbEntity
  8
0
  6
Continuous
 62
     7
370
    15
100
AcDbSpline
210
0.0
220
0.0
230
1.0
 70
     8
 71
     3
 72
    12
 73
     8
 74
     0
 42
0.00000001
 43
0.00000001
 12
1.0
 22
0.0
 32
0.0
 13
1.0
 23
0.0
 33
0.0
 40
0.0
 40
0.0
 40
0.0
 40
0.0
 40
0.2057532787804322
 40
0.4119604088044532
 40
0.6140154573249014
 40
0.8131414684041022
 40
0.9999999999999999
 40
0.9999999999999999
 40
0.9999999999999999
 40
0.9999999999999999
 10
245.9293109838758
 20
134.5006469944585
 30
0.0
 10
245.9947667133253
 20
134.497259368642
 30
0.0
 10
246.1258225546827
 20
134.4904766445731
 30
0.0
 10
246.3051078014758
 20
134.3987964243263
 30
0.0
 10
246.4428839376745
 20
134.2589696169462
 30
0.0
 10
246.5287701867464
 20
134.0870126646081
 30
0.0
 10
246.537532436132
 20
133.9646053182448
 30
0.0
 10
246.541774318572
 20
133.9053468390335
 30
0.0
  0
SPLINE
  5
10E
330
1F
100
AcDbEntity
  8
0
  6
Continuous
 62
     7
370
    15
100
AcDbSpline
210
0.0
220
0.0
230
1.0
 70
     8
 71
     3
 72
    11
 73
     7
 74
     0
 42
0.00000001
 43
0.00000001
 12
1.0
 22
0.0
 32
0.0
 13
1.0
 23
0.0
 33
0.0
 40
0.0
 40
0.0
 40
0.0
 40
0.0
 40
0.2794069064556062
 40
0.5596240257155739
 40
0.8375007392219708
 40
1.0
 40
1.0
 40
1.0
 40
1.0
 10
246.541774318572
 20
133.9053468390335
 30
0.0
 10
246.5448417086043
 20
133.8675851813356
 30
0.0
 10
246.5509853833618
 20
133.7919523662179
 30
0.0
 10
246.6075796787531
 20
133.6906819025484
 30
0.0
 10
246.6801172536722
 20
133.62221261288
 30
0.0
 10
246.7345882500786
 20
133.5971187240612
 30
0.0
 10
246.7546881128477
 20
133.5878590490989
 30
0.0
  0
SPLINE
  5
10F
330
1F
100
AcDbEntity
  8
0
  6
Continuous
 62
     7
370
    15
100
AcDbSpline
210
0.0
220
0.0
230
1.0
 70
     8
 71
     3
 72
    12
 73
     8
 74
     0
 42
0.00000001
 43
0.00000001
 12
1.0
 22
0.0
 32
0.0
 13
1.0
 23
0.0
 33
0.0
 40
0.0
 40
0.0
 40
0.0
 40
0.0
 40
0.0091681771491093
 40
0.257326809700261
 40
0.5054934687429508
 40
0.7549925359453045
 40
1.0
 40
1.0
 40
1.0
 40
1.0
 10
246.0032027262924
 20
136.370260130321
 30
0.0
 10
246.0022490230994
 20
136.369272848245
 30
0.0
 10
245.9754810630078
 20
136.3415624165245
 30
0.0
 10
245.9322130920937
 20
136.2772664122268
 30
0.0
 10
245.9037232736127
 20
136.1679317185408
 30
0.0
 10
245.9104866574896
 20
136.05448188114
 30
0.0
 10
245.9441931145626
 20
135.9887632407649
 30
0.0
 10
245.9608932652133
 20
135.9562023818041
 30
0.0
  0
SPLINE
  5
110
330
1F
100
AcDbEntity
  8
0
  6
Continuous
 62
     7
370
    15
100
AcDbSpline
210
0.0
220
0.0
230
1.0
 70
     8
 71
     3
 72
    12
 73
     8
 74
     0
 42
0.00000001
 43
0.00000001
 12
1.0
 22
0.0
 32
0.0
 13
1.0
 23
0.0
 33
0.0
 40
0.0
 40
0.0
 40
0.0
 40
0.0
 40
0.2058435564095177
 40
0.4120691620553227
 40
0.614139721772705
 40
0.8132604579561505
 40
0.9999999999999999
 40
0.9999999999999999
 40
0.9999999999999999
 40
0.9999999999999999
 10
245.9608932652133
 20
135.9562023818041
 30
0.0
 10
245.9906976890487
 20
135.8977963188513
 30
0.0
 10
246.0503618542508
 20
135.7808757902726
 30
0.0
 10
246.0605781278385
 20
135.5797312349205
 30
0.0
 10
246.0083370138761
 20
135.3904987322905
 30
0.0
 10
245.9023475766409
 20
135.2301879072373
 30
0.0
 10
245.8007491038333
 20
135.1614228063875
 30
0.0
 10
245.7515798750865
 20
135.1281434973582
 30
0.0
  0
SPLINE
  5
111
330
1F
100
AcDbEntity
  8
0
  6
Continuous
 62
     7
370
    15
100
AcDbSpline
210
0.0
220
0.0
230
1.0
 70
     8
 71
     3
 72
    11
 73
     7
 74
     0
 42
0.00000001
 43
0.00000001
 12
1.0
 22
0.0
 32
0.0
 13
1.0
 23
0.0
 33
0.0
 40
0.0
 40
0.0
 40
0.0
 40
0.0
 40
0.2535086227484141
 40
0.5075674742604616
 40
0.759505625192462
 40
1.0
 40
1.0
 40
1.0
 40
1.0
 10
245.7515798750865
 20
135.1281434973582
 30
0.0
 10
245.7203820013286
 20
135.1065846336547
 30
0.0
 10
245.6579185402679
 20
135.0634201137293
 30
0.0
 10
245.5986471773511
 20
134.9638001404605
 30
0.0
 10
245.5719024335767
 20
134.852668871712
 30
0.0
 10
245.5854399614867
 20
134.7794664958055
 30
0.0
 10
245.5920514242578
 20
134.7437158930165
 30
0.0
  0
CIRCLE
  5
112
330
1F
100
AcDbEntity
  8
0
  6
Continuous
 62
     7
370
    15
100
AcDbCircle
 10
247.2032275124
 20
135.2016859937
 30
0.0
 40
2.625000000000036
  0
LINE
  5
113
330
1F
100
AcDbEntity
  8
0
  6
HIDDEN
 62
     7
370
     0
100
AcDbLine
 10
197.3327102817
 20
128.7582239014
 30
0.0
 11
197.3327102817
 21
124.149534239
 31
0.0
  0
SPLINE
  5
114
330
1F
100
AcDbEntity
  8
0
  6
HIDDEN
 62
     7
370
     0
100
AcDbSpline
210
0.0
220
0.0
230
1.0
 70
     8
 71
     3
 72
    70
 73
    66
 74
     0
 42
0.00000001
 43
0.00000001
 12
1.0
 22
0.0
 32
0.0
 13
1.0
 23
0.0
 33
0.0
 40
-0.0312500000000001
 40
-0.0312500000000001
 40
0.0
 40
0.0
 40
0.0312499999999998
 40
0.0312499999999998
 40
0.0624999999999997
 40
0.0624999999999997
 40
0.0937499999999995
 40
0.0937499999999995
 40
0.1249999999999993
 40
0.1249999999999993
 40
0.1562499999999992
 40
0.1562499999999992
 40
0.187499999999999
 40
0.187499999999999
 40
0.2187499999999988
 40
0.2187499999999988
 40
0.2499999999999987
 40
0.2499999999999987
 40
0.2812499999999985
 40
0.2812499999999985
 40
0.3124999999999983
 40
0.3124999999999983
 40
0.3437499999999982
 40
0.3437499999999982
 40
0.3749999999999982
 40
0.3749999999999982
 40
0.4062499999999985
 40
0.4062499999999985
 40
0.4374999999999988
 40
0.4374999999999988
 40
0.4687499999999992
 40
0.4687499999999992
 40
0.4999999999999994
 40
0.4999999999999994
 40
0.5312499999999997
 40
0.5312499999999997
 40
0.5625
 40
0.5625
 40
0.5937499999999998
 40
0.5937499999999998
 40
0.6249999999999997
 40
0.6249999999999997
 40
0.6562499999999994
 40
0.6562499999999994
 40
0.6874999999999994
 40
0.6874999999999994
 40
0.7187499999999994
 40
0.7187499999999994
 40
0.7499999999999996
 40
0.7499999999999996
 40
0.7812499999999996
 40
0.7812499999999996
 40
0.8124999999999997
 40
0.8124999999999997
 40
0.8437499999999997
 40
0.8437499999999997
 40
0.8749999999999998
 40
0.8749999999999998
 40
0.9062499999999998
 40
0.9062499999999998
 40
0.9374999999999999
 40
0.9374999999999999
 40
0.9687499999999999
 40
0.9687499999999999
 40
1.0
 40
1.0
 40
1.03125
 40
1.03125
 10
212.9230145044379
 20
81.00582326455557
 30
0.0
 10
212.5262717219699
 20
81.00582326455557
 30
0.0
 10
212.3312485544005
 20
81.01451810541461
 30
0.0
 10
211.9476145219544
 20
81.04878623345499
 30
0.0
 10
211.7570031809266
 20
81.07478429352915
 30
0.0
 10
211.3937816679594
 20
81.14328425988796
 30
0.0
 10
211.2215364831231
 20
81.18545715634329
 30
0.0
 10
210.8955558613425
 20
81.28642335790235
 30
0.0
 10
210.7413410254039
 20
81.34573502502296
 30
0.0
 10
210.4648654659805
 20
81.4773620880208
 30
0.0
 10
210.3407419730672
 20
81.55012287793697
 30
0.0
 10
210.1214251546144
 20
81.71101635530759
 30
0.0
 10
210.0283274685069
 20
81.79791172559653
 30
0.0
 10
209.8786551807187
 20
81.98108442912982
 30
0.0
 10
209.8209762206841
 20
82.07872016089746
 30
0.0
 10
209.7438479223382
 20
82.28234723770369
 30
0.0
 10
209.7247515978437
 20
82.38655343981779
 30
0.0
 10
209.7245355415177
 20
82.59984289219283
 30
0.0
 10
209.7440447883735
 20
82.71009584348202
 30
0.0
 10
209.8206394471366
 20
82.92698724446315
 30
0.0
 10
209.8773101150043
 20
83.03420728130139
 30
0.0
 10
210.0276443099566
 20
83.24559123014824
 30
0.0
 10
210.121505982251
 20
83.34928765507743
 30
0.0
 10
210.3385430578233
 20
83.54374541915189
 30
0.0
 10
210.4625351460208
 20
83.63574183639791
 30
0.0
 10
210.7423960660352
 20
83.80750994493593
 30
0.0
 10
210.8937424951396
 20
83.88451051558812
 30
0.0
 10
211.2184216779481
 20
84.02041219381405
 30
0.0
 10
211.3938321040503
 20
84.07980079674746
 30
0.0
 10
211.7570410208581
 20
84.17537738923927
 30
0.0
 10
211.9440294208428
 20
84.21169629414128
 30
0.0
 10
212.3287222056743
 20
84.26094093599802
 30
0.0
 10
212.5276686783528
 20
84.27361053085075
 30
0.0
 10
212.9193840931162
 20
84.27370415154098
 30
0.0
 10
213.1141561148306
 20
84.26153646232878
 30
0.0
 10
213.5014778466102
 20
84.21239895625065
 30
0.0
 10
213.6908321234723
 20
84.17563235919856
 30
0.0
 10
214.0519705757924
 20
84.08083277561248
 30
0.0
 10
214.2265244647551
 20
84.02207361754242
 30
0.0
 10
214.5544918789582
 20
83.88510347453557
 30
0.0
 10
214.7055168866616
 20
83.80813223727795
 30
0.0
 10
214.9823390552493
 20
83.63866577799496
 30
0.0
 10
215.1090899419569
 20
83.54508114428874
 30
0.0
 10
215.3269956696085
 20
83.35013449638129
 30
0.0
 10
215.4192901154642
 20
83.24838850280584
 30
0.0
 10
215.5702429499809
 20
83.0371402139132
 30
0.0
 10
215.6281681658507
 20
82.92791362135227
 30
0.0
 10
215.7048044515747
 20
82.71175704681514
 30
0.0
 10
215.7244584420907
 20
82.60364665698522
 30
0.0
 10
215.7248252193191
 20
82.38757417698199
 30
0.0
 10
215.7055160397957
 20
82.28317609398265
 30
0.0
 10
215.6295584561001
 20
82.08140334320689
 30
0.0
 10
215.5719800598933
 20
81.98298369179852
 30
0.0
 10
215.4216554181814
 20
81.7985193632955
 30
0.0
 10
215.3296462680463
 20
81.71263579959975
 30
0.0
 10
215.1122339288272
 20
81.55252756072068
 30
0.0
 10
214.9857658537546
 20
81.47809865004798
 30
0.0
 10
214.7094738178559
 20
81.34636760054777
 30
0.0
 10
214.5586654255662
 20
81.28814462844169
 30
0.0
 10
214.2309992817521
 20
81.18627565912111
 30
0.0
 10
214.0567082717228
 20
81.14359860773065
 30
0.0
 10
213.6959350955135
 20
81.07538686179883
 30
0.0
 10
213.507024865823
 20
81.04936565806322
 30
0.0
 10
213.11915517331
 20
81.01451834802558
 30
0.0
 10
212.9230145044379
 20
81.00582326455557
 30
0.0
 10
212.5262717219699
 20
81.00582326455557
 30
0.0
  0
LINE
  5
115
330
1F
100
AcDbEntity
  8
0
  6
HIDDEN
 62
     7
370
     0
100
AcDbLine
 10
156.6926195912
 20
125.7207328348
 30
0.0
 11
156.2535415764
 21
125.3914274387
 31
0.0
  0
LINE
  5
116
330
1F
100
AcDbEntity
  8
0
  6
HIDDEN
 62
     7
370
     0
100
AcDbLine
 10
170.7197933178
 20
80.7749346162
 30
0.0
 11
170.4681357236
 21
80.7514129947
 31
0.0
  0
LINE
  5
117
330
1F
100
AcDbEntity
  8
0
  6
HIDDEN
 62
     7
370
     0
100
AcDbLine
 10
170.3454441052
 20
127.8589652716
 30
0.0
 11
170.7197005975
 21
127.824117269
 31
0.0
  0
SPLINE
  5
118
330
1F
100
AcDbEntity
  8
0
  6
HIDDEN
 62
     7
370
     0
100
AcDbSpline
210
0.0
220
0.0
230
1.0
 70
     8
 71
     3
 72
    16
 73
    12
 74
     0
 42
0.00000001
 43
0.00000001
 12
1.0
 22
0.0
 32
0.0
 13
1.0
 23
0.0
 33
0.0
 40
0.0
 40
0.0
 40
0.0
 40
0.0
 40
0.110042129201232
 40
0.2208582401959495
 40
0.3341016860822404
 40
0.4481794640118443
 40
0.5582445503622567
 40
0.669068303464342
 40
0.7822776732333807
 40
0.8963093052721873
 40
1.0
 40
1.0
 40
1.0
 40
1.0
 10
176.4796451148055
 20
124.1370627148373
 30
0.0
 10
176.5472389410644
 20
124.1461309662286
 30
0.0
 10
176.6829020150527
 20
124.1643312505966
 30
0.0
 10
176.8633498819051
 20
124.1850523470849
 30
0.0
 10
177.0254891424184
 20
124.2017918720789
 30
0.0
 10
177.1635758301078
 20
124.2143745829797
 30
0.0
 10
177.2768332735698
 20
124.2236283949611
 30
0.0
 10
177.3656488298584
 20
124.2301940639412
 30
0.0
 10
177.4293775940749
 20
124.2345319841801
 30
0.0
 10
177.4680865404229
 20
124.2370082616417
 30
0.0
 10
177.4720201500135
 20
124.2372529156652
 30
0.0
 10
177.4738935394691
 20
124.2373694326345
 30
0.0
  0
SPLINE
  5
119
330
1F
100
AcDbEntity
  8
0
  6
HIDDEN
 62
     7
370
     0
100
AcDbSpline
210
0.0
220
0.0
230
1.0
 70
     8
 71
     3
 72
    16
 73
    12
 74
     0
 42
0.00000001
 43
0.00000001
 12
1.0
 22
0.0
 32
0.0
 13
1.0
 23
0.0
 33
0.0
 40
0.0
 40
0.0
 40
0.0
 40
0.0
 40
0.0069682494102912
 40
0.1183278485798597
 40
0.2321018359347212
 40
0.3467106719879984
 40
0.4574461394879095
 40
0.5689541810116893
 40
0.6829066817639912
 40
0.79770893489092
 40
1.0
 40
1.0
 40
1.0
 40
1.0
 10
177.4738891488003
 20
84.36169932277619
 30
0.0
 10
177.4741387836393
 20
84.36168355813626
 30
0.0
 10
177.4783778330313
 20
84.36141585877358
 30
0.0
 10
177.4624570161285
 20
84.36241265466523
 30
0.0
 10
177.423441012861
 20
84.36492981867048
 30
0.0
 10
177.3549970277418
 20
84.36962469488229
 30
0.0
 10
177.2622135361835
 20
84.376584582975
 30
0.0
 10
177.1450409240392
 20
84.38627638577394
 30
0.0
 10
177.0017488157077
 20
84.3996676296694
 30
0.0
 10
176.7926840351087
 20
84.42119461451301
 30
0.0
 10
176.6015682581254
 20
84.4461105399327
 30
0.0
 10
176.4796451148055
 20
84.46200576320442
 30
0.0
  0
SPLINE
  5
11A
330
1F
100
AcDbEntity
  8
0
  6
HIDDEN
 62
     7
370
     0
100
AcDbSpline
210
0.0
220
0.0
230
1.0
 70
     8
 71
     3
 72
    31
 73
    27
 74
     0
 42
0.00000001
 43
0.00000001
 12
1.0
 22
0.0
 32
0.0
 13
1.0
 23
0.0
 33
0.0
 40
0.0
 40
0.0
 40
0.0
 40
0.0
 40
0.0694314725065394
 40
0.1050471530262527
 40
0.1409237522863542
 40
0.2103605419085754
 40
0.2460055466381145
 40
0.281921042911682
 40
0.316290079027876
 40
0.3858351541973564
 40
0.4213494321319641
 40
0.4554021533251981
 40
0.5242805590762664
 40
0.5594236247780067
 40
0.5938326216116259
 40
0.6284767627745526
 40
0.6634830764091048
 40
0.6989845862681858
 40
0.7686832079241486
 40
0.8044491021091319
 40
0.8404818739778489
 40
0.8752277908925268
 40
0.9102225059199572
 40
0.9456055333248772
 40
0.9815223216878153
 40
1.0
 40
1.0
 40
1.0
 40
1.0
 10
176.4796451148055
 20
84.46200576320442
 30
0.0
 10
176.331761783751
 20
84.48172904053112
 30
0.0
 10
176.1080199798328
 20
84.51156960211972
 30
0.0
 10
175.7621571941402
 20
84.5494439386696
 30
0.0
 10
175.398992913914
 20
84.58453090330325
 30
0.0
 10
175.0089050230137
 20
84.61408317687518
 30
0.0
 10
174.6024287637267
 20
84.63547081973577
 30
0.0
 10
174.2902967623636
 20
84.64692954543062
 30
0.0
 10
173.8730276221015
 20
84.65560805355136
 30
0.0
 10
173.4523913892039
 20
84.65430813812802
 30
0.0
 10
173.0390042599782
 20
84.64308074717098
 30
0.0
 10
172.63417088986
 20
84.62577183948488
 30
0.0
 10
172.2435526255915
 20
84.60004750939574
 30
0.0
 10
171.8747917991817
 20
84.56795727564928
 30
0.0
 10
171.6100923639409
 20
84.54131577919186
 30
0.0
 10
171.3603689009139
 20
84.51297482255228
 30
0.0
 10
171.1245438887481
 20
84.48335501467938
 30
0.0
 10
170.8346406475993
 20
84.4436554890473
 30
0.0
 10
170.5824196721688
 20
84.40503699025277
 30
0.0
 10
170.3750453183925
 20
84.37090037198769
 30
0.0
 10
170.2431368019666
 20
84.34824676272082
 30
0.0
 10
170.137137517513
 20
84.32943291138744
 30
0.0
 10
170.0565535438219
 20
84.31476582799327
 30
0.0
 10
170.0026330101127
 20
84.30477751090423
 30
0.0
 10
169.9758165802652
 20
84.2997544115963
 30
0.0
 10
169.97728615296
 20
84.3000296640089
 30
0.0
 10
169.9777853635079
 20
84.30012316663601
 30
0.0
  0
SPLINE
  5
11B
330
1F
100
AcDbEntity
  8
0
  6
HIDDEN
 62
     7
370
     0
100
AcDbSpline
210
0.0
220
0.0
230
1.0
 70
     8
 71
     3
 72
    30
 73
    26
 74
     0
 42
0.00000001
 43
0.00000001
 12
1.0
 22
0.0
 32
0.0
 13
1.0
 23
0.0
 33
0.0
 40
0.0
 40
0.0
 40
0.0
 40
0.0
 40
0.0501922942899585
 40
0.0849644299006634
 40
0.1203101391364891
 40
0.1887830526854912
 40
0.2234348410699479
 40
0.2586379482251115
 40
0.3279890347716259
 40
0.3631797381000919
 40
0.3988729147665279
 40
0.4336685506841319
 40
0.468708151466363
 40
0.5045230892022956
 40
0.5406088810627212
 40
0.609975461993187
 40
0.6451998065874675
 40
0.6809541093837849
 40
0.7493897074834133
 40
0.7840312643671126
 40
0.8192361390473996
 40
0.8879056388425993
 40
0.9226548111428635
 40
0.9579546040557867
 40
1.0
 40
1.0
 40
1.0
 40
1.0
 10
169.9846781534977
 20
124.2976577359613
 30
0.0
 10
169.9854273620583
 20
124.2975113828096
 30
0.0
 10
169.9866956061011
 20
124.2972636393607
 30
0.0
 10
170.049264568506
 20
124.2856415974289
 30
0.0
 10
170.1494743251018
 20
124.2673630402162
 30
0.0
 10
170.3010978153299
 20
124.2405421205831
 30
0.0
 10
170.4975612616811
 20
124.207905978533
 30
0.0
 10
170.7250965172986
 20
124.1718909103384
 30
0.0
 10
170.9964265099842
 20
124.1323975213711
 30
0.0
 10
171.3052307691436
 20
124.092757405093
 30
0.0
 10
171.5553214325017
 20
124.0636803882288
 30
0.0
 10
171.8205021183908
 20
124.0362806476581
 30
0.0
 10
172.0995561946772
 20
124.0112347768969
 30
0.0
 10
172.3940400850672
 20
123.9890683205543
 30
0.0
 10
172.7961267678388
 20
123.9649408423938
 30
0.0
 10
173.2123745376437
 20
123.9495638317857
 30
0.0
 10
173.6328213338874
 20
123.9441771023822
 30
0.0
 10
174.0514076544412
 20
123.9456080909016
 30
0.0
 10
174.4657155113813
 20
123.9570074973625
 30
0.0
 10
174.8657537480938
 20
123.9771854520507
 30
0.0
 10
175.2556336890009
 20
124.0027510753166
 30
0.0
 10
175.6264460499362
 20
124.0353267449002
 30
0.0
 10
175.9687330192447
 20
124.0720774305008
 30
0.0
 10
176.2301324037768
 20
124.1032830982709
 30
0.0
 10
176.3917750306965
 20
124.1251666565699
 30
0.0
 10
176.4796451148055
 20
124.1370627148373
 30
0.0
  0
LINE
  5
11C
330
1F
100
AcDbEntity
  8
0
  6
HIDDEN
 62
     7
370
     0
100
AcDbLine
 10
163.7286177094
 20
87.299534239
 30
0.0
 11
163.7286177094
 21
121.299534239
 31
0.0
  0
LINE
  5
11D
330
1F
100
AcDbEntity
  8
0
  6
HIDDEN
 62
     7
370
     0
100
AcDbLine
 10
190.3844690817
 20
87.299534239
 30
0.0
 11
190.3844690817
 21
121.299534239
 31
0.0
  0
LINE
  5
11E
330
1F
100
AcDbEntity
  8
0
  6
HIDDEN
 62
     7
370
     0
100
AcDbLine
 10
192.6746431132
 20
88.574534239
 30
0.0
 11
192.6746431132
 21
120.0245342389
 31
0.0
  0
SPLINE
  5
11F
330
1F
100
AcDbEntity
  8
0
  6
HIDDEN
 62
     7
370
     0
100
AcDbSpline
210
0.0
220
0.0
230
1.0
 70
     8
 71
     3
 72
    18
 73
    14
 74
     0
 42
0.00000001
 43
0.00000001
 12
1.0
 22
0.0
 32
0.0
 13
1.0
 23
0.0
 33
0.0
 40
0.0
 40
0.0
 40
0.0
 40
0.0
 40
0.2500000000000009
 40
0.2500000000000009
 40
0.3750000000000007
 40
0.3750000000000007
 40
0.5000000000000006
 40
0.5000000000000006
 40
0.6250000000000003
 40
0.6250000000000003
 40
0.7500000000000001
 40
0.7500000000000001
 40
1.0
 40
1.0
 40
1.0
 40
1.0
 10
156.9246431132039
 20
120.587047861425
 30
0.0
 10
156.9246431132039
 20
120.5325733408728
 30
0.0
 10
156.8897324218117
 20
120.4761922815203
 30
0.0
 10
156.7877231204786
 20
120.3921154406668
 30
0.0
 10
156.7460867658005
 20
120.3647817366759
 30
0.0
 10
156.6476809703118
 20
120.3118278210769
 30
0.0
 10
156.5901377586075
 20
120.2859404673598
 30
0.0
 10
156.4628395850345
 20
120.2381629225265
 30
0.0
 10
156.3932522802771
 20
120.2162150043486
 30
0.0
 10
156.2418180351222
 20
120.1767824394359
 30
0.0
 10
156.1591341320282
 20
120.15922619021
 30
0.0
 10
155.9030226699901
 20
120.1167874247895
 30
0.0
 10
155.7151076661021
 20
120.1010246750525
 30
0.0
 10
155.5246431132039
 20
120.1010246750525
 30
0.0
  0
LINE
  5
120
330
1F
100
AcDbEntity
  8
0
  6
HIDDEN
 62
     7
370
     0
100
AcDbLine
 10
155.5246431132
 20
120.1010246751
 30
0.0
 11
151.9746431132
 21
120.1010246751
 31
0.0
  0
LINE
  5
121
330
1F
100
AcDbEntity
  8
0
  6
HIDDEN
 62
     7
370
     0
100
AcDbLine
 10
151.9746431132
 20
88.498043803
 30
0.0
 11
159.5246431132
 21
88.498043803
 31
0.0
  0
SPLINE
  5
122
330
1F
100
AcDbEntity
  8
0
  6
HIDDEN
 62
     7
370
     0
100
AcDbSpline
210
0.0
220
0.0
230
1.0
 70
     8
 71
     3
 72
    16
 73
    12
 74
     0
 42
0.00000001
 43
0.00000001
 12
1.0
 22
0.0
 32
0.0
 13
1.0
 23
0.0
 33
0.0
 40
0.0
 40
0.0
 40
0.0
 40
0.0
 40
0.1249999999999988
 40
0.1249999999999988
 40
0.2499999999999977
 40
0.2499999999999977
 40
0.4999999999999984
 40
0.4999999999999984
 40
0.7499999999999992
 40
0.7499999999999992
 40
1.0
 40
1.0
 40
1.0
 40
1.0
 10
159.5246431132039
 20
88.49804380298922
 30
0.0
 10
159.6197648678697
 20
88.49804380298922
 30
0.0
 10
159.7130949365978
 20
88.49422796959642
 30
0.0
 10
159.8963566973358
 20
88.47945741686661
 30
0.0
 10
159.9872344128927
 20
88.46829936889102
 30
0.0
 10
160.2440361104125
 20
88.4258280987493
 30
0.0
 10
160.3991034752845
 20
88.3847819015465
 30
0.0
 10
160.6528499368391
 20
88.28963578496462
 30
0.0
 10
160.753720388507
 20
88.23487305088304
 30
0.0
 10
160.8889668032018
 20
88.12361192697915
 30
0.0
 10
160.9246431132039
 20
88.06644218965049
 30
0.0
 10
160.9246431132039
 20
88.01202061661675
 30
0.0
  0
LINE
  5
123
330
1F
100
AcDbEntity
  8
0
  6
HIDDEN
 62
     7
370
     0
100
AcDbLine
 10
151.9746431132
 20
88.498043803
 30
0.0
 11
151.9746431132
 21
120.1010246751
 31
0.0
  0
SPLINE
  5
124
330
1F
100
AcDbEntity
  8
0
  6
HIDDEN
 62
     7
370
     0
100
AcDbSpline
210
0.0
220
0.0
230
1.0
 70
     8
 71
     3
 72
    10
 73
     6
 74
     0
 42
0.00000001
 43
0.00000001
 12
1.0
 22
0.0
 32
0.0
 13
1.0
 23
0.0
 33
0.0
 40
0.0
 40
0.0
 40
0.0
 40
0.0
 40
0.5
 40
0.5
 40
1.0
 40
1.0
 40
1.0
 40
1.0
 10
211.6544148010195
 20
117.4032549570819
 30
0.0
 10
211.5540732634533
 20
117.5182634557355
 30
0.0
 10
211.4645049797575
 20
117.6357451709186
 30
0.0
 10
211.3082282289253
 20
117.8828257386675
 30
0.0
 10
211.2414631272012
 20
118.013133021075
 30
0.0
 10
211.1865622388945
 20
118.1493805577047
 30
0.0
  0
SPLINE
  5
125
330
1F
100
AcDbEntity
  8
0
  6
HIDDEN
 62
     7
370
     0
100
AcDbSpline
210
0.0
220
0.0
230
1.0
 70
     8
 71
     3
 72
    72
 73
    68
 74
     0
 42
0.00000001
 43
0.00000001
 12
1.0
 22
0.0
 32
0.0
 13
1.0
 23
0.0
 33
0.0
 40
0.0
 40
0.0
 40
0.0
 40
0.0
 40
0.0156250000000002
 40
0.0156250000000002
 40
0.0312500000000004
 40
0.0312500000000004
 40
0.0625000000000009
 40
0.0625000000000009
 40
0.1250000000000014
 40
0.1250000000000014
 40
0.1875000000000015
 40
0.1875000000000015
 40
0.2187500000000014
 40
0.2187500000000014
 40
0.2500000000000013
 40
0.2500000000000013
 40
0.2812500000000012
 40
0.2812500000000012
 40
0.2968750000000014
 40
0.2968750000000014
 40
0.3125000000000017
 40
0.3125000000000017
 40
0.3437500000000018
 40
0.3437500000000018
 40
0.3750000000000019
 40
0.3750000000000019
 40
0.4375000000000019
 40
0.4375000000000019
 40
0.5000000000000018
 40
0.5000000000000018
 40
0.5312500000000019
 40
0.5312500000000019
 40
0.5625000000000019
 40
0.5625000000000019
 40
0.5781250000000019
 40
0.5781250000000019
 40
0.5937500000000018
 40
0.5937500000000018
 40
0.6093750000000018
 40
0.6093750000000018
 40
0.6250000000000018
 40
0.6250000000000018
 40
0.6562500000000017
 40
0.6562500000000017
 40
0.6875000000000016
 40
0.6875000000000016
 40
0.7187500000000014
 40
0.7187500000000014
 40
0.7500000000000012
 40
0.7500000000000012
 40
0.7812500000000011
 40
0.7812500000000011
 40
0.812500000000001
 40
0.812500000000001
 40
0.8437500000000009
 40
0.8437500000000009
 40
0.8750000000000008
 40
0.8750000000000008
 40
0.9062500000000007
 40
0.9062500000000007
 40
0.9375000000000004
 40
0.9375000000000004
 40
0.9687500000000003
 40
0.9687500000000003
 40
0.9843750000000002
 40
0.9843750000000002
 40
1.0
 40
1.0
 40
1.0
 40
1.0
 10
211.1865622388944
 20
118.1493805577056
 30
0.0
 10
211.2656152261138
 20
118.179035745862
 30
0.0
 10
211.3486762400798
 20
118.2245906182381
 30
0.0
 10
211.5030401823561
 20
118.3447187928549
 30
0.0
 10
211.5743763092104
 20
118.4169595575712
 30
0.0
 10
211.7708978726601
 20
118.6360849191084
 30
0.0
 10
211.8877837467407
 20
118.790981899084
 30
0.0
 10
212.2339363231351
 20
119.2396401162806
 30
0.0
 10
212.4584742419213
 20
119.525982210348
 30
0.0
 10
212.9325868447627
 20
120.0537888040262
 30
0.0
 10
213.1818470267685
 20
120.2979526271429
 30
0.0
 10
213.5705553901207
 20
120.595295336525
 30
0.0
 10
213.7041327268968
 20
120.6838828186316
 30
0.0
 10
213.9735527388171
 20
120.8252196269581
 30
0.0
 10
214.1090583051305
 20
120.8784141923376
 30
0.0
 10
214.3829294622581
 20
120.9310807844125
 30
0.0
 10
214.5171993816363
 20
120.9289405899848
 30
0.0
 10
214.7035328553387
 20
120.8651338836976
 30
0.0
 10
214.76159237691
 20
120.834300864728
 30
0.0
 10
214.8692487867375
 20
120.7525481232839
 30
0.0
 10
214.9194081854053
 20
120.7006813236506
 30
0.0
 10
215.0504307936945
 20
120.5208503714875
 30
0.0
 10
215.1137883007556
 20
120.3662977671852
 30
0.0
 10
215.1961283621465
 20
120.0301456824479
 30
0.0
 10
215.2167425709041
 20
119.8451530161645
 30
0.0
 10
215.2346979248945
 20
119.28284180684
 30
0.0
 10
215.1911333650863
 20
118.8892253752227
 30
0.0
 10
215.0526376847919
 20
118.1193629210843
 30
0.0
 10
214.9563396044031
 20
117.7396995418091
 30
0.0
 10
214.7901957232274
 20
117.1741291493867
 30
0.0
 10
214.7311902368094
 20
116.9869482488096
 30
0.0
 10
214.6125302994436
 20
116.616257740988
 30
0.0
 10
214.5515239911153
 20
116.4320477936264
 30
0.0
 10
214.4773076710776
 20
116.1608515239093
 30
0.0
 10
214.4554010159302
 20
116.0711629341777
 30
0.0
 10
214.4306246626524
 20
115.8938417326201
 30
0.0
 10
214.4297151205814
 20
115.8069655556154
 30
0.0
 10
214.4680828762271
 20
115.6647306335751
 30
0.0
 10
214.5058822962638
 20
115.6112375910814
 30
0.0
 10
214.5916032775603
 20
115.5314339207373
 30
0.0
 10
214.6395681464537
 20
115.5033303820803
 30
0.0
 10
214.7807006131321
 20
115.4380318903708
 30
0.0
 10
214.8706133934196
 20
115.4191089317934
 30
0.0
 10
215.024857254871
 20
115.4060638297877
 30
0.0
 10
215.0891714508132
 20
115.4134919518827
 30
0.0
 10
215.1824306130054
 20
115.4513862895391
 30
0.0
 10
215.2123930212039
 20
115.4824723108388
 30
0.0
 10
215.2307660060673
 20
115.5669598059823
 30
0.0
 10
215.2196088989228
 20
115.6195519392237
 30
0.0
 10
215.1525615227135
 20
115.7459613055653
 30
0.0
 10
215.0953850299011
 20
115.8206318729606
 30
0.0
 10
214.9390625657731
 20
115.9823922335795
 30
0.0
 10
214.8376454998971
 20
116.0719936971517
 30
0.0
 10
214.5980602662658
 20
116.2583753795117
 30
0.0
 10
214.4612520736037
 20
116.3544382240908
 30
0.0
 10
214.1564343991277
 20
116.5498833277306
 30
0.0
 10
213.9941851335142
 20
116.6456354171419
 30
0.0
 10
213.651562072322
 20
116.8325612371379
 30
0.0
 10
213.4730852338312
 20
116.9225736736045
 30
0.0
 10
213.1136420237585
 20
117.0888779233408
 30
0.0
 10
212.9293803497656
 20
117.1667779033317
 30
0.0
 10
212.5661996272113
 20
117.3011792216517
 30
0.0
 10
212.3864754710598
 20
117.3593570583868
 30
0.0
 10
212.1129344608746
 20
117.4177336974965
 30
0.0
 10
212.021656231955
 20
117.4321039201109
 30
0.0
 10
211.8386081436253
 20
117.4398021248089
 30
0.0
 10
211.7453138124781
 20
117.4330261299872
 30
0.0
 10
211.6544148010192
 20
117.4032549570776
 30
0.0
  0
LWPOLYLINE
  5
126
330
1F
100
AcDbEntity
  8
0
  6
HIDDEN
 62
     7
370
     0
100
AcDbPolyline
 90
       27
 70
   128
 43
0.0
 10
212.7246431132
 20
118.8726774424
 10
213.3229322739
 20
118.9122429937
 10
213.8864510433
 20
119.0286402416
 10
214.3824497588
 20
119.215104601
 10
214.7821027779
 20
119.4607994413
 10
215.0621837199
 20
119.7514458713
 10
215.2064152984
 20
120.0701525769
 10
215.2064152984
 20
120.398397483
 10
215.0621837199
 20
120.7171041887
 10
214.7821027779
 20
121.0077506187
 10
214.3824497588
 20
121.2534454589
 10
213.8864510433
 20
121.4399098184
 10
213.3229322739
 20
121.5563070662
 10
212.7246431132
 20
121.5958726175
 10
212.1263539525
 20
121.5563070662
 10
211.5628351831
 20
121.4399098184
 10
211.0668364676
 20
121.2534454589
 10
210.6671834485
 20
121.0077506187
 10
210.3871025065
 20
120.7171041887
 10
210.242870928
 20
120.398397483
 10
210.242870928
 20
120.0701525769
 10
210.3871025065
 20
119.7514458713
 10
210.6671834485
 20
119.4607994413
 10
211.0668364676
 20
119.215104601
 10
211.5628351831
 20
119.0286402416
 10
212.1263539525
 20
118.9122429937
 10
212.7246431132
 20
118.8726774424
  0
SPLINE
  5
127
330
1F
100
AcDbEntity
  8
0
  6
HIDDEN
 62
     7
370
     0
100
AcDbSpline
210
0.0
220
0.0
230
1.0
 70
     8
 71
     3
 72
    64
 73
    60
 74
     0
 42
0.00000001
 43
0.00000001
 12
1.0
 22
0.0
 32
0.0
 13
1.0
 23
0.0
 33
0.0
 40
-0.0312499999999999
 40
-0.0312499999999999
 40
0.0
 40
0.0
 40
0.0312499999999998
 40
0.0312499999999998
 40
0.0624999999999995
 40
0.0624999999999995
 40
0.1249999999999996
 40
0.1249999999999996
 40
0.1562499999999996
 40
0.1562499999999996
 40
0.1874999999999995
 40
0.1874999999999995
 40
0.2187499999999995
 40
0.2187499999999995
 40
0.2499999999999995
 40
0.2499999999999995
 40
0.2812499999999995
 40
0.2812499999999995
 40
0.3124999999999994
 40
0.3124999999999994
 40
0.3749999999999996
 40
0.3749999999999996
 40
0.4062499999999996
 40
0.4062499999999996
 40
0.4374999999999997
 40
0.4374999999999997
 40
0.4687499999999998
 40
0.4687499999999998
 40
0.4999999999999999
 40
0.4999999999999999
 40
0.53125
 40
0.53125
 40
0.5625000000000001
 40
0.5625000000000001
 40
0.5937500000000001
 40
0.5937500000000001
 40
0.6250000000000002
 40
0.6250000000000002
 40
0.6562500000000003
 40
0.6562500000000003
 40
0.6875000000000004
 40
0.6875000000000004
 40
0.7187500000000006
 40
0.7187500000000006
 40
0.7500000000000006
 40
0.7500000000000006
 40
0.7812500000000007
 40
0.7812500000000007
 40
0.8125000000000008
 40
0.8125000000000008
 40
0.8750000000000006
 40
0.8750000000000006
 40
0.9062500000000004
 40
0.9062500000000004
 40
0.9375000000000002
 40
0.9375000000000002
 40
0.9687500000000001
 40
0.9687500000000001
 40
1.0
 40
1.0
 40
1.03125
 40
1.03125
 10
212.8943028025064
 20
105.7683721625516
 30
0.0
 10
212.5549834239018
 20
105.7683721625516
 30
0.0
 10
212.3892968990687
 20
105.7884290362665
 30
0.0
 10
212.0650608228945
 20
105.8639391293564
 30
0.0
 10
211.9052539871665
 20
105.9202710319643
 30
0.0
 10
211.4560791648244
 20
106.1271196110306
 30
0.0
 10
211.1866539487602
 20
106.3181826217834
 30
0.0
 10
210.8486189375631
 20
106.6326574234181
 30
0.0
 10
210.7450627731639
 20
106.744135067153
 30
0.0
 10
210.5646752825263
 20
106.9682517116391
 30
0.0
 10
210.4875289484636
 20
107.0808171136193
 30
0.0
 10
210.3600085376859
 20
107.3045008138482
 30
0.0
 10
210.3094849776458
 20
107.4168641552569
 30
0.0
 10
210.2425641497193
 20
107.6268123091815
 30
0.0
 10
210.225205087081
 20
107.7255673557471
 30
0.0
 10
210.2241077104728
 20
107.9094426655808
 30
0.0
 10
210.240833631946
 20
107.9930515564795
 30
0.0
 10
210.306237916846
 20
108.1382793377216
 30
0.0
 10
210.3557237685777
 20
108.2015691218872
 30
0.0
 10
210.5463361835265
 20
108.3588825679851
 30
0.0
 10
210.7309319796753
 20
108.4222957881781
 30
0.0
 10
211.0681481238809
 20
108.4749016933732
 30
0.0
 10
211.192176067267
 20
108.4857266902443
 30
0.0
 10
211.4580069356915
 20
108.4981414159853
 30
0.0
 10
211.5984240599191
 20
108.4997938544336
 30
0.0
 10
211.8960575423724
 20
108.4992124618507
 30
0.0
 10
212.0556217666615
 20
108.4969440503654
 30
0.0
 10
212.38123294567
 20
108.4931053773375
 30
0.0
 10
212.5473451812024
 20
108.4916074767674
 30
0.0
 10
212.8868442284166
 20
108.491528944613
 30
0.0
 10
213.0535176342744
 20
108.4929560554365
 30
0.0
 10
213.3794226825468
 20
108.4967559331581
 30
0.0
 10
213.5395130917483
 20
108.4990737367167
 30
0.0
 10
213.8398593188908
 20
108.4998753850077
 30
0.0
 10
213.9831227678458
 20
108.4983312826019
 30
0.0
 10
214.2502616651286
 20
108.4862271138856
 30
0.0
 10
214.3732211220498
 20
108.4757729273826
 30
0.0
 10
214.5997331036629
 20
108.4411424957269
 30
0.0
 10
214.703579816102
 20
108.4166564414487
 30
0.0
 10
214.883736394684
 20
108.3509553611953
 30
0.0
 10
214.961234092508
 20
108.3097019017504
 30
0.0
 10
215.0897122509757
 20
108.2057510281253
 30
0.0
 10
215.1399370669691
 20
108.1428845637103
 30
0.0
 10
215.2067138877402
 20
107.9990521725124
 30
0.0
 10
215.2242505890929
 20
107.9174094240039
 30
0.0
 10
215.2250227360098
 20
107.732671603664
 30
0.0
 10
215.2082561572421
 20
107.6335310904853
 30
0.0
 10
215.1423498533353
 20
107.4230672381935
 30
0.0
 10
215.092396282198
 20
107.3107666092537
 30
0.0
 10
214.9013187799247
 20
106.9732689638215
 30
0.0
 10
214.7160166538476
 20
106.740330104112
 30
0.0
 10
214.3770272754644
 20
106.4244255663757
 30
0.0
 10
214.251820362352
 20
106.3230330794487
 30
0.0
 10
213.9862876882291
 20
106.1408098355735
 30
0.0
 10
213.8454928921937
 20
106.0592243370828
 30
0.0
 10
213.5454298391976
 20
105.9207878104359
 30
0.0
 10
213.3852015974763
 20
105.8642394466295
 30
0.0
 10
213.0609142275559
 20
105.788571884061
 30
0.0
 10
212.8943028025064
 20
105.7683721625516
 30
0.0
 10
212.5549834239018
 20
105.7683721625516
 30
0.0
  0
LINE
  5
128
330
1F
100
AcDbEntity
  8
0
  6
HIDDEN
 62
     7
370
     0
100
AcDbLine
 10
151.9746431132
 20
86.309534239
 30
0.0
 11
151.9746431132
 21
83.4929026805
 31
0.0
  0
ARC
  5
129
330
1F
100
AcDbEntity
  8
0
  6
HIDDEN
 62
     7
370
     0
100
AcDbCircle
 10
217.3685523683
 20
121.5060073818
 30
0.0
 40
7.03448261043473
100
AcDbArc
 50
208.5005729815
 51
215.67835796
  0
LINE
  5
12A
330
1F
100
AcDbEntity
  8
0
  6
HIDDEN
 62
     7
370
     0
100
AcDbLine
 10
160.9246431132
 20
86.309534239
 30
0.0
 11
160.9246431132
 21
82.3543859797
 31
0.0
  0
LINE
  5
12B
330
1F
100
AcDbEntity
  8
0
  6
HIDDEN
 62
     7
370
     0
100
AcDbLine
 10
151.9746431132
 20
122.289534239
 30
0.0
 11
151.9746431132
 21
125.1694720044
 31
0.0
  0
LINE
  5
12C
330
1F
100
AcDbEntity
  8
0
  6
HIDDEN
 62
     7
370
     0
100
AcDbLine
 10
156.9246431132
 20
122.289534239
 30
0.0
 11
156.9246431132
 21
126.1436419114
 31
0.0
  0
LINE
  5
12D
330
1F
100
AcDbEntity
  8
0
  6
HIDDEN
 62
     7
370
     0
100
AcDbLine
 10
202.0246431132
 20
94.799534239
 30
0.0
 11
202.0246431132
 21
113.799534239
 31
0.0
  0
LINE
  5
12E
330
1F
100
AcDbEntity
  8
0
  6
HIDDEN
 62
     7
370
     0
100
AcDbLine
 10
204.5246431132
 20
94.799534239
 30
0.0
 11
204.5246431132
 21
113.799534239
 31
0.0
  0
LINE
  5
12F
330
1F
100
AcDbEntity
  8
0
  6
HIDDEN
 62
     7
370
     0
100
AcDbLine
 10
193.1746431132
 20
95.799534239
 30
0.0
 11
193.1746431132
 21
112.799534239
 31
0.0
  0
LINE
  5
130
330
1F
100
AcDbEntity
  8
0
  6
HIDDEN
 62
     7
370
     0
100
AcDbLine
 10
208.6746431132
 20
77.899534239
 30
0.0
 11
202.5369683109
 21
77.899534239
 31
0.0
  0
LINE
  5
131
330
1F
100
AcDbEntity
  8
0
  6
HIDDEN
 62
     7
370
     0
100
AcDbLine
 10
198.9123179155
 20
77.899534239
 30
0.0
 11
195.6746431132
 21
77.899534239
 31
0.0
  0
LINE
  5
132
330
1F
100
AcDbEntity
  8
0
  6
HIDDEN
 62
     7
370
     0
100
AcDbLine
 10
187.6746431132
 20
72.8154112562
 30
0.0
 11
187.6746431132
 21
77.899534239
 31
0.0
  0
LINE
  5
133
330
1F
100
AcDbEntity
  8
0
  6
HIDDEN
 62
     7
370
     0
100
AcDbLine
 10
195.6746431132
 20
77.899534239
 30
0.0
 11
187.6746431132
 21
77.899534239
 31
0.0
  0
LINE
  5
134
330
1F
100
AcDbEntity
  8
0
  6
HIDDEN
 62
     7
370
     0
100
AcDbLine
 10
199.2089406449
 20
130.699534239
 30
0.0
 11
195.6746431132
 21
130.699534239
 31
0.0
  0
LINE
  5
135
330
1F
100
AcDbEntity
  8
0
  6
HIDDEN
 62
     7
370
     0
100
AcDbLine
 10
208.6746431132
 20
130.699534239
 30
0.0
 11
202.2403455815
 21
130.699534239
 31
0.0
  0
LINE
  5
136
330
1F
100
AcDbEntity
  8
0
  6
HIDDEN
 62
     7
370
     0
100
AcDbLine
 10
195.6746431132
 20
130.699534239
 30
0.0
 11
187.6746431132
 21
130.699534239
 31
0.0
  0
ELLIPSE
  5
137
330
1F
100
AcDbEntity
  8
0
  6
HIDDEN
 62
     7
370
     0
100
AcDbEllipse
 10
146.6572112489
 20
104.299534239
 30
0.0
 11
20.07002071827054
 21
-2.842170943040401E-14
 31
0.0
210
0.0
220
0.0
230
1.0
 40
0.8164965809
 41
4.921555463185704
 42
4.980534842098404
  0
ELLIPSE
  5
138
330
1F
100
AcDbEntity
  8
0
  6
HIDDEN
 62
     7
370
     0
100
AcDbEllipse
 10
146.6572112489
 20
104.299534239
 30
0.0
 11
20.07002071827051
 21
-1.421085471520200E-14
 31
0.0
210
0.0
220
0.0
230
1.0
 40
0.8164965809
 41
1.302650465081198
 42
1.361629843993897
  0
LINE
  5
139
330
1F
100
AcDbEntity
  8
0
  6
HIDDEN
 62
     7
370
     0
100
AcDbLine
 10
151.9746431132
 20
86.309534239
 30
0.0
 11
151.9746431132
 21
88.498043803
 31
0.0
  0
LINE
  5
13A
330
1F
100
AcDbEntity
  8
0
  6
HIDDEN
 62
     7
370
     0
100
AcDbLine
 10
160.9246431132
 20
86.309534239
 30
0.0
 11
160.9246431132
 21
88.0120206166
 31
0.0
  0
LINE
  5
13B
330
1F
100
AcDbEntity
  8
0
  6
HIDDEN
 62
     7
370
     0
100
AcDbLine
 10
151.9746431132
 20
122.289534239
 30
0.0
 11
151.9746431132
 21
120.1010246751
 31
0.0
  0
LINE
  5
13C
330
1F
100
AcDbEntity
  8
0
  6
HIDDEN
 62
     7
370
     0
100
AcDbLine
 10
156.9246431132
 20
122.289534239
 30
0.0
 11
156.9246431132
 21
120.5870478614
 31
0.0
  0
SPLINE
  5
13D
330
1F
100
AcDbEntity
  8
0
  6
HIDDEN
 62
     7
370
     0
100
AcDbSpline
210
0.0
220
0.0
230
1.0
 70
     8
 71
     3
 72
    20
 73
    16
 74
     0
 42
0.00000001
 43
0.00000001
 12
1.0
 22
0.0
 32
0.0
 13
1.0
 23
0.0
 33
0.0
 40
0.0
 40
0.0
 40
0.0
 40
0.0
 40
0.1118515540274106
 40
0.1773710910105714
 40
0.2489930234446912
 40
0.3297418922790166
 40
0.398514650314085
 40
0.499794914532155
 40
0.6137606311564421
 40
0.6789269004558534
 40
0.7494537716694176
 40
0.8296001510192189
 40
0.8980441807770878
 40
0.9994551193627059
 40
1.0
 40
1.0
 40
1.0
 40
1.0
 10
177.4732548574634
 20
80.6996015431291
 30
0.0
 10
177.4299632853663
 20
80.71301978392201
 30
0.0
 10
177.3613127114767
 20
80.73429805787696
 30
0.0
 10
176.9162978655933
 20
80.83756997779176
 30
0.0
 10
176.3897482998763
 20
80.95087137210211
 30
0.0
 10
175.7043206851022
 20
81.07380478721922
 30
0.0
 10
174.8110039526761
 20
81.19583910158794
 30
0.0
 10
173.6976443779377
 20
81.31357547591324
 30
0.0
 10
172.5868701179085
 20
81.32555091321737
 30
0.0
 10
171.7021224139247
 20
81.29849274142494
 30
0.0
 10
171.0349236031853
 20
81.2505602556754
 30
0.0
 10
170.4936601891245
 20
81.19426846677891
 30
0.0
 10
170.1060456834306
 20
81.14917900607547
 30
0.0
 10
169.9121383862216
 20
81.11031042261402
 30
0.0
 10
169.9753332678598
 20
81.12103305339943
 30
0.0
 10
169.9756709991206
 20
81.12109035816086
 30
0.0
  0
LINE
  5
13E
330
1F
100
AcDbEntity
  8
0
  6
HIDDEN
 62
     7
370
     0
100
AcDbLine
 10
170.8846550281
 20
81.2318723827
 30
0.0
 11
171.0685003387
 21
81.250061725
 31
0.0
  0
SPLINE
  5
13F
330
1F
100
AcDbEntity
  8
0
  6
HIDDEN
 62
     7
370
     0
100
AcDbSpline
210
0.0
220
0.0
230
1.0
 70
     8
 71
     3
 72
    27
 73
    23
 74
     0
 42
0.00000001
 43
0.00000001
 12
1.0
 22
0.0
 32
0.0
 13
1.0
 23
0.0
 33
0.0
 40
0.0
 40
0.0
 40
0.0
 40
0.0
 40
0.0008093467636605
 40
0.0456918656911131
 40
0.1022735407713974
 40
0.1705516423926693
 40
0.20914332099522
 40
0.2506705669893194
 40
0.32111635612004
 40
0.3862101014248506
 40
0.4266892580094369
 40
0.4648205172876311
 40
0.5006248400454599
 40
0.5452166118380051
 40
0.6017108774694713
 40
0.6701168637342115
 40
0.7088542003406166
 40
0.7505829528797199
 40
0.8222475503245054
 40
0.8877869860601897
 40
0.9472607511328304
 40
1.0
 40
1.0
 40
1.0
 40
1.0
 10
169.9753121996135
 20
127.4779482509695
 30
0.0
 10
169.975089641086
 20
127.4779962271255
 30
0.0
 10
169.9625250460281
 20
127.4807047325194
 30
0.0
 10
170.0116014852006
 20
127.4688727454326
 30
0.0
 10
170.1567062663848
 20
127.4454284761084
 30
0.0
 10
170.4297583419699
 20
127.4115243496658
 30
0.0
 10
170.7582848375138
 20
127.3779555488373
 30
0.0
 10
171.1510125982436
 20
127.3397722114145
 30
0.0
 10
171.7007405753998
 20
127.3008035383795
 30
0.0
 10
172.3267632200865
 20
127.2813424341131
 30
0.0
 10
172.8699547305943
 20
127.2791567562562
 30
0.0
 10
173.3150236274215
 20
127.2876716374392
 30
0.0
 10
173.7814714238982
 20
127.3074550343643
 30
0.0
 10
174.3187120730276
 20
127.3516174198739
 30
0.0
 10
174.9669255039129
 20
127.4240330399139
 30
0.0
 10
175.552464133539
 20
127.5049351329898
 30
0.0
 10
176.033433748863
 20
127.5831011217031
 30
0.0
 10
176.4788486421832
 20
127.6678732597031
 30
0.0
 10
176.9173483850703
 20
127.761656308643
 30
0.0
 10
177.2563735565211
 20
127.8395600507002
 30
0.0
 10
177.4437138887375
 20
127.8897515231676
 30
0.0
 10
177.4642036388419
 20
127.8964179438388
 30
0.0
 10
177.4738336629544
 20
127.8995511100064
 30
0.0
  0
LINE
  5
140
330
1F
100
AcDbEntity
  8
0
  6
HIDDEN
 62
     7
370
     0
100
AcDbLine
 10
215.8246431132
 20
100.099534239
 30
0.0
 11
215.8246431132
 21
108.499534239
 31
0.0
  0
SPLINE
  5
141
330
1F
100
AcDbEntity
  8
0
  6
HIDDEN
 62
     7
370
     0
100
AcDbSpline
210
0.0
220
0.0
230
1.0
 70
     8
 71
     3
 72
    68
 73
    64
 74
     0
 42
0.00000001
 43
0.00000001
 12
1.0
 22
0.0
 32
0.0
 13
1.0
 23
0.0
 33
0.0
 40
-0.03125
 40
-0.03125
 40
0.0
 40
0.0
 40
0.0312499999999997
 40
0.0312499999999997
 40
0.0624999999999995
 40
0.0624999999999995
 40
0.0937499999999992
 40
0.0937499999999992
 40
0.124999999999999
 40
0.124999999999999
 40
0.1562499999999987
 40
0.1562499999999987
 40
0.1874999999999984
 40
0.1874999999999984
 40
0.2187499999999981
 40
0.2187499999999981
 40
0.2499999999999978
 40
0.2499999999999978
 40
0.2812499999999976
 40
0.2812499999999976
 40
0.3124999999999973
 40
0.3124999999999973
 40
0.3437499999999971
 40
0.3437499999999971
 40
0.3749999999999973
 40
0.3749999999999973
 40
0.4062499999999975
 40
0.4062499999999975
 40
0.4374999999999977
 40
0.4374999999999977
 40
0.4687499999999979
 40
0.4687499999999979
 40
0.4999999999999981
 40
0.4999999999999981
 40
0.5312499999999983
 40
0.5312499999999983
 40
0.5624999999999984
 40
0.5624999999999984
 40
0.5937499999999987
 40
0.5937499999999987
 40
0.6249999999999989
 40
0.6249999999999989
 40
0.656249999999999
 40
0.656249999999999
 40
0.6874999999999992
 40
0.6874999999999992
 40
0.7187499999999994
 40
0.7187499999999994
 40
0.7499999999999996
 40
0.7499999999999996
 40
0.8124999999999997
 40
0.8124999999999997
 40
0.8437499999999998
 40
0.8437499999999998
 40
0.8749999999999998
 40
0.8749999999999998
 40
0.9062499999999999
 40
0.9062499999999999
 40
0.9375
 40
0.9375
 40
0.96875
 40
0.96875
 40
1.0
 40
1.0
 40
1.03125
 40
1.03125
 10
213.5834039920058
 20
100.0995342390209
 30
0.0
 10
213.8832242400408
 20
100.0995342390209
 30
0.0
 10
214.022545677101
 20
100.1017403516611
 30
0.0
 10
214.2833974157063
 20
100.1153747675935
 30
0.0
 10
214.4058060792851
 20
100.1269289098955
 30
0.0
 10
214.6288048624965
 20
100.1641452000053
 30
0.0
 10
214.7283381964654
 20
100.1894944698393
 30
0.0
 10
214.9040916552833
 20
100.2580471429275
 30
0.0
 10
214.9810008328833
 20
100.3020027906153
 30
0.0
 10
215.1037472408114
 20
100.4090746287553
 30
0.0
 10
215.1501923795313
 20
100.4719782354279
 30
0.0
 10
215.2119664456561
 20
100.619348251128
 30
0.0
 10
215.2268018556037
 20
100.7047678859216
 30
0.0
 10
215.2219595010813
 20
100.8891867471352
 30
0.0
 10
215.20285162238
 20
100.9894361744315
 30
0.0
 10
215.1310709366855
 20
101.2035565493905
 30
0.0
 10
215.0796700278412
 20
101.3139642576014
 30
0.0
 10
214.9480106578133
 20
101.5393182849953
 30
0.0
 10
214.8671295637549
 20
101.6546732625189
 30
0.0
 10
214.6832912202033
 20
101.8782991818961
 30
0.0
 10
214.5795299737089
 20
101.9879827474898
 30
0.0
 10
214.3487448196759
 20
102.198425465955
 30
0.0
 10
214.2245170026025
 20
102.2966937837448
 30
0.0
 10
213.9574525449262
 20
102.4756730847223
 30
0.0
 10
213.8129451470919
 20
102.5571290864353
 30
0.0
 10
213.5101042793858
 20
102.6917362604164
 30
0.0
 10
213.3528076952498
 20
102.7447658733984
 30
0.0
 10
213.0246632964062
 20
102.8160211811294
 30
0.0
 10
212.8554317572353
 20
102.8331993749125
 30
0.0
 10
212.5217254589469
 20
102.8275866834656
 30
0.0
 10
212.352924904586
 20
102.8046818946531
 30
0.0
 10
212.0276778897179
 20
102.7232679260801
 30
0.0
 10
211.8718052799465
 20
102.6656382147507
 30
0.0
 10
211.5718978652376
 20
102.5224731235374
 30
0.0
 10
211.4310922676099
 20
102.4384258046183
 30
0.0
 10
211.1683443843291
 20
102.2534472052968
 30
0.0
 10
211.0449211002463
 20
102.1511837721431
 30
0.0
 10
210.82239197414
 20
101.9392532757913
 30
0.0
 10
210.7225428785266
 20
101.8292791515101
 30
0.0
 10
210.545610904887
 20
101.6041937425097
 30
0.0
 10
210.4686897649385
 20
101.4886934844404
 30
0.0
 10
210.3461918387688
 20
101.2657954076462
 30
0.0
 10
210.2994093065223
 20
101.1570175510195
 30
0.0
 10
210.2370803905802
 20
100.9468809841577
 30
0.0
 10
210.222492424675
 20
100.8473840108514
 30
0.0
 10
210.2273144133827
 20
100.6678150336685
 30
0.0
 10
210.2468329111771
 20
100.585600264352
 30
0.0
 10
210.3184953415671
 20
100.4428405806476
 30
0.0
 10
210.3698854393546
 20
100.3824918035772
 30
0.0
 10
210.5687623898074
 20
100.2298086052572
 30
0.0
 10
210.7575707970917
 20
100.1696934048559
 30
0.0
 10
211.102776390419
 20
100.1205584948337
 30
0.0
 10
211.2270826244368
 20
100.1109580989581
 30
0.0
 10
211.4956144141003
 20
100.1001633274673
 30
0.0
 10
211.6411152126924
 20
100.0990435153736
 30
0.0
 10
211.9433147137847
 20
100.1003763618158
 30
0.0
 10
212.1010826999866
 20
100.1027327966855
 30
0.0
 10
212.4324315485756
 20
100.106471410284
 30
0.0
 10
212.5988547257442
 20
100.1076866104239
 30
0.0
 10
212.9332032387263
 20
100.1072632214871
 30
0.0
 10
213.103175449099
 20
100.1055824755956
 30
0.0
 10
213.4272311965489
 20
100.1016866368855
 30
0.0
 10
213.5834039920058
 20
100.0995342390209
 30
0.0
 10
213.8832242400408
 20
100.0995342390209
 30
0.0
  0
LWPOLYLINE
  5
142
330
1F
100
AcDbEntity
  8
0
  6
HIDDEN
 62
     7
370
     0
100
AcDbPolyline
 90
       27
 70
   128
 43
0.0
 10
212.7246431132
 20
87.2551579188
 10
213.3229322739
 20
87.2947234701
 10
213.8864510433
 20
87.411120718
 10
214.3824497588
 20
87.5975850774
 10
214.7821027779
 20
87.8432799177
 10
215.0621837199
 20
88.1339263476
 10
215.2064152984
 20
88.4526330533
 10
215.2064152984
 20
88.7808779594
 10
215.0621837199
 20
89.0995846651
 10
214.7821027779
 20
89.3902310951
 10
214.3824497588
 20
89.6359259353
 10
213.8864510433
 20
89.8223902948
 10
213.3229322739
 20
89.9387875426
 10
212.7246431132
 20
89.9783530939
 10
212.1263539525
 20
89.9387875426
 10
211.5628351831
 20
89.8223902948
 10
211.0668364676
 20
89.6359259353
 10
210.6671834485
 20
89.3902310951
 10
210.3871025065
 20
89.0995846651
 10
210.242870928
 20
88.7808779594
 10
210.242870928
 20
88.4526330533
 10
210.3871025065
 20
88.1339263476
 10
210.6671834485
 20
87.8432799177
 10
211.0668364676
 20
87.5975850774
 10
211.5628351831
 20
87.411120718
 10
212.1263539525
 20
87.2947234701
 10
212.7246431132
 20
87.2551579188
  0
LINE
  5
143
330
1F
100
AcDbEntity
  8
0
  6
HIDDEN
 62
     7
370
     0
100
AcDbLine
 10
242.5448651506
 20
136.6445729686
 30
0.0
 11
242.5844032413
 21
136.695179417
 31
0.0
  0
LINE
  5
144
330
1F
100
AcDbEntity
  8
0
  6
HIDDEN
 62
     7
370
     0
100
AcDbLine
 10
242.5844032413
 20
136.695179417
 30
0.0
 11
242.1036781163
 21
127.5223975978
 31
0.0
  0
LINE
  5
145
330
1F
100
AcDbEntity
  8
0
  6
HIDDEN
 62
     7
370
     0
100
AcDbLine
 10
242.1036781163
 20
127.5223975978
 30
0.0
 11
242.0641400256
 21
127.4717911494
 31
0.0
  0
LINE
  5
146
330
1F
100
AcDbEntity
  8
0
  6
HIDDEN
 62
     7
370
     0
100
AcDbLine
 10
242.3317316035
 20
121.3475644617
 30
0.0
 11
251.6689768692
 21
133.2986934073
 31
0.0
  0
LINE
  5
147
330
1F
100
AcDbEntity
  8
0
  6
HIDDEN
 62
     7
370
     0
100
AcDbLine
 10
251.6689768692
 20
133.2986934073
 30
0.0
 11
251.6656158277
 21
133.2345609145
 31
0.0
  0
LINE
  5
148
330
1F
100
AcDbEntity
  8
0
  6
HIDDEN
 62
     7
370
     0
100
AcDbLine
 10
242.0091789579
 20
121.3256088668
 30
0.0
 11
251.4329741603
 21
133.3875166796
 31
0.0
  0
LINE
  5
149
330
1F
100
AcDbEntity
  8
0
  6
HIDDEN
 62
     7
370
     0
100
AcDbLine
 10
251.6689768692
 20
133.2986934073
 30
0.0
 11
251.4329741603
 21
133.3875166796
 31
0.0
  0
LINE
  5
14A
330
1F
100
AcDbEntity
  8
0
  6
HIDDEN
 62
     7
370
     0
100
AcDbLine
 10
247.2466865161
 20
110.299534239
 30
0.0
 11
250.4636420118
 21
110.299534239
 31
0.0
  0
LINE
  5
14B
330
1F
100
AcDbEntity
  8
0
  6
HIDDEN
 62
     7
370
     0
100
AcDbLine
 10
242.1036781163
 20
127.5223975978
 30
0.0
 11
242.3400348377
 21
127.4340274408
 31
0.0
  0
LINE
  5
14C
330
1F
100
AcDbEntity
  8
0
  6
HIDDEN
 62
     7
370
     0
100
AcDbLine
 10
242.042181221
 20
127.0527921964
 30
0.0
 11
242.3400348377
 21
127.4340274408
 31
0.0
  0
LINE
  5
14D
330
1F
100
AcDbEntity
  8
0
  6
HIDDEN
 62
     7
370
     0
100
AcDbLine
 10
242.8207599627
 20
136.60680926
 30
0.0
 11
242.5844032413
 21
136.695179417
 31
0.0
  0
LINE
  5
14E
330
1F
100
AcDbEntity
  8
0
  6
HIDDEN
 62
     7
370
     0
100
AcDbLine
 10
242.8207599627
 20
136.60680926
 30
0.0
 11
242.3400348377
 21
127.4340274408
 31
0.0
  0
SPLINE
  5
14F
330
1F
100
AcDbEntity
  8
0
  6
HIDDEN
 62
     7
370
     0
100
AcDbSpline
210
0.0
220
0.0
230
1.0
 70
     8
 71
     3
 72
    10
 73
     6
 74
     0
 42
0.00000001
 43
0.00000001
 12
1.0
 22
0.0
 32
0.0
 13
1.0
 23
0.0
 33
0.0
 40
0.0
 40
0.0
 40
0.0
 40
0.0
 40
0.5
 40
0.5
 40
1.0
 40
1.0
 40
1.0
 40
1.0
 10
224.8472712506401
 20
130.8417907776968
 30
0.0
 10
224.8170175088953
 20
130.772606364614
 30
0.0
 10
224.8072935134816
 20
130.70360071392
 30
0.0
 10
224.8450671047304
 20
130.5663444532211
 30
0.0
 10
224.8900688451409
 20
130.4980780013176
 30
0.0
 10
224.923241951514
 20
130.4296477289653
 30
0.0
  0
ELLIPSE
  5
150
330
1F
100
AcDbEntity
  8
0
  6
HIDDEN
 62
     7
370
     0
100
AcDbEllipse
 10
246.2676815324
 20
104.299534239
 30
0.0
 11
18.8523739325689
 21
26.45519241215506
 31
0.0
210
0.0
220
0.0
230
1.0
 40
0.0817078932
 41
1.628956950646968
 42
3.18843228090073
  0
LINE
  5
151
330
1F
100
AcDbEntity
  8
0
  6
HIDDEN
 62
     7
370
     0
100
AcDbLine
 10
224.823341529
 20
77.8012324066
 30
0.0
 11
224.823341529
 21
104.299534239
 31
0.0
  0
LINE
  5
152
330
1F
100
AcDbEntity
  8
0
  6
HIDDEN
 62
     7
370
     0
100
AcDbLine
 10
251.5460224589
 20
147.2760480155
 30
0.0
 11
250.1944098699
 21
143.658611908
 31
0.0
  0
LINE
  5
153
330
1F
100
AcDbEntity
  8
0
  6
HIDDEN
 62
     7
370
     0
100
AcDbLine
 10
250.4360405482
 20
143.3842977393
 30
0.0
 11
251.8479628994
 21
147.1631460095
 31
0.0
  0
CIRCLE
  5
154
330
1F
100
AcDbEntity
  8
0
  6
HIDDEN
 62
     7
370
     0
100
AcDbCircle
 10
247.2032275124
 20
135.2016859937
 30
0.0
 40
2.400000000000006
  0
LINE
  5
155
330
1F
100
AcDbEntity
  8
0
  6
HIDDEN
 62
     7
370
     0
100
AcDbLine
 10
251.8479628994
 20
147.1631460095
 30
0.0
 11
251.5460224589
 21
147.2760480155
 31
0.0
  0
LINE
  5
156
330
1F
100
AcDbEntity
  8
0
  6
HIDDEN
 62
     7
370
     0
100
AcDbLine
 10
251.5460224589
 20
147.2760480155
 30
0.0
 11
242.7927512833
 21
136.0723718199
 31
0.0
  0
LINE
  5
157
330
1F
100
AcDbEntity
  8
0
  6
HIDDEN
 62
     7
370
     0
100
AcDbLine
 10
251.1039416174
 20
132.9663742297
 30
0.0
 11
251.8479628994
 21
147.1631460095
 31
0.0
  0
CIRCLE
  5
158
330
1F
100
AcDbEntity
  8
0
  6
HIDDEN
 62
     7
370
     0
100
AcDbCircle
 10
247.2032275124
 20
135.2016859937
 30
0.0
 40
1.649999999999977
  0
SPLINE
  5
159
330
1F
100
AcDbEntity
  8
0
  6
HIDDEN
 62
     7
370
     0
100
AcDbSpline
210
0.0
220
0.0
230
1.0
 70
     8
 71
     3
 72
    10
 73
     6
 74
     0
 42
0.00000001
 43
0.00000001
 12
1.0
 22
0.0
 32
0.0
 13
1.0
 23
0.0
 33
0.0
 40
0.0
 40
0.0
 40
0.0
 40
0.0
 40
0.5
 40
0.5
 40
1.0
 40
1.0
 40
1.0
 40
1.0
 10
227.2360592683999
 20
128.9460112380845
 30
0.0
 10
226.656237947175
 20
129.1888231385425
 30
0.0
 10
226.1408575916544
 20
129.4331141166377
 30
0.0
 10
225.3343944733844
 20
129.9268442506979
 30
0.0
 10
225.0460356697478
 20
130.176345928181
 30
0.0
 10
224.923241951514
 20
130.4296477289653
 30
0.0
  0
LINE
  5
15A
330
1F
100
AcDbEntity
  8
0
  6
HIDDEN
 62
     7
370
     0
100
AcDbLine
 10
198.8146431132
 20
124.4354008705
 30
0.0
 11
198.8146431132
 21
124.149534239
 31
0.0
  0
LINE
  5
15B
330
1F
100
AcDbEntity
  8
0
  6
HIDDEN
 62
     7
370
     0
100
AcDbLine
 10
202.6346431132
 20
124.4354008705
 30
0.0
 11
202.6346431132
 21
124.149534239
 31
0.0
  0
LWPOLYLINE
  5
15C
330
1F
100
AcDbEntity
  8
0
  6
HIDDEN
 62
     7
370
     0
100
AcDbPolyline
 90
       29
 70
   128
 43
0.0
 10
212.7246431132
 20
86.730876343
 10
213.3922059151
 20
86.7718420562
 10
214.0262943306
 20
86.8926850037
 10
214.5951125188
 20
87.0873456156
 10
215.0701375606
 20
87.346062796
 10
215.4275497169
 20
87.6558633851
 10
215.6494268497
 20
88.0012126878
 10
215.7246431132
 20
88.3647934481
 10
215.6494268497
 20
88.7283742083
 10
215.4275497169
 20
89.073723511
 10
215.0701375606
 20
89.3835241001
 10
214.5951125188
 20
89.6422412805
 10
214.0262943306
 20
89.8369018924
 10
213.3922059151
 20
89.95774484
 10
212.7246431132
 20
89.9987105531
 10
212.0570803113
 20
89.95774484
 10
211.4229918959
 20
89.8369018924
 10
210.8541737076
 20
89.6422412805
 10
210.3791486658
 20
89.3835241001
 10
210.0217365095
 20
89.073723511
 10
209.7998593767
 20
88.7283742083
 10
209.7246431132
 20
88.3647934481
 10
209.7998593767
 20
88.0012126878
 10
210.0217365095
 20
87.6558633851
 10
210.3791486658
 20
87.346062796
 10
210.8541737076
 20
87.0873456156
 10
211.4229918959
 20
86.8926850037
 10
212.0570803113
 20
86.7718420562
 10
212.7246431132
 20
86.730876343
  0
LINE
  5
15D
330
1F
100
AcDbEntity
  8
0
  6
HIDDEN
 62
     7
370
     0
100
AcDbLine
 10
204.1165759447
 20
128.7582239014
 30
0.0
 11
204.1165759447
 21
124.149534239
 31
0.0
  0
SPLINE
  5
15E
330
1F
100
AcDbEntity
  8
0
  6
HIDDEN
 62
     7
370
     0
100
AcDbSpline
210
0.0
220
0.0
230
1.0
 70
     8
 71
     3
 72
    12
 73
     8
 74
     0
 42
0.00000001
 43
0.00000001
 12
1.0
 22
0.0
 32
0.0
 13
1.0
 23
0.0
 33
0.0
 40
0.0
 40
0.0
 40
0.0
 40
0.0
 40
0.4999999999999996
 40
0.4999999999999996
 40
0.7499999999999998
 40
0.7499999999999998
 40
1.0
 40
1.0
 40
1.0
 40
1.0
 10
227.2360592683999
 20
128.9460112380846
 30
0.0
 10
227.078064045882
 20
127.7191055124266
 30
0.0
 10
226.9125134962904
 20
126.4639267517946
 30
0.0
 10
226.6506413478297
 20
124.5372437234409
 30
0.0
 10
226.5614745527483
 20
123.8906062860407
 30
0.0
 10
226.3802827108908
 20
122.5971603911299
 30
0.0
 10
226.2880800743682
 20
121.9490390851625
 30
0.0
 10
226.1941094376548
 20
121.2995342390209
 30
0.0
  0
ELLIPSE
  5
15F
330
1F
100
AcDbEntity
  8
0
  6
HIDDEN
 62
     7
370
     0
100
AcDbEllipse
 10
326.5621320018
 20
121.299534239
 30
0.0
 11
77.24226517022248
 21
-24.69623926254474
 31
0.0
210
0.0
220
0.0
230
1.0
 40
0.1244094853
 41
3.337090441796291
 42
3.356093110792874
  0
ELLIPSE
  5
160
330
1F
100
AcDbEntity
  8
0
  6
HIDDEN
 62
     7
370
     0
100
AcDbEllipse
 10
-602.2440741406
 20
121.299534239
 30
0.0
 11
2298.138678239862
 21
26.42238891750974
 31
0.0
210
0.0
220
0.0
230
1.0
 40
0.0008818716
 41
5.081649799899456
 42
5.085400568208186
  0
SPLINE
  5
161
330
1F
100
AcDbEntity
  8
0
  6
HIDDEN
 62
     7
370
     0
100
AcDbSpline
210
0.0
220
0.0
230
1.0
 70
     8
 71
     3
 72
    18
 73
    14
 74
     0
 42
0.00000001
 43
0.00000001
 12
1.0
 22
0.0
 32
0.0
 13
1.0
 23
0.0
 33
0.0
 40
0.0
 40
0.0
 40
0.0
 40
0.0
 40
0.2500000000000012
 40
0.2500000000000012
 40
0.3750000000000006
 40
0.3750000000000006
 40
0.5000000000000001
 40
0.5000000000000001
 40
0.6249999999999996
 40
0.6249999999999996
 40
0.749999999999999
 40
0.749999999999999
 40
1.0
 40
1.0
 40
1.0
 40
1.0
 10
235.2689380184446
 20
129.041124900929
 30
0.0
 10
236.1097722356528
 20
129.051082438992
 30
0.0
 10
236.9324732755896
 20
129.1577131494662
 30
0.0
 10
238.1394258552104
 20
129.4604061427509
 30
0.0
 10
238.5399535440758
 20
129.5864928429501
 30
0.0
 10
239.3155774656124
 20
129.8829655504348
 30
0.0
 10
239.6902190564592
 20
130.052702927406
 30
0.0
 10
240.4135995059378
 20
130.4334923726241
 30
0.0
 10
240.7623356169755
 20
130.6445516503015
 30
0.0
 10
241.4332985836635
 20
131.1077786782933
 30
0.0
 10
241.756167346567
 20
131.3610272074714
 30
0.0
 10
242.6571916720183
 20
132.1586058759979
 30
0.0
 10
243.1783403549065
 20
132.7465678836281
 30
0.0
 10
243.6237711325601
 20
133.3815672585268
 30
0.0
  0
ELLIPSE
  5
162
330
1F
100
AcDbEntity
  8
0
  6
HIDDEN
 62
     7
370
     0
100
AcDbEllipse
 10
230.5092621997
 20
121.299534239
 30
0.0
 11
20.95821340020117
 21
26.42318985223157
 31
0.0
210
0.0
220
0.0
230
1.0
 40
0.0962006593
 41
5.261957477134138
 42
5.792756457064125
  0
ELLIPSE
  5
163
330
1F
100
AcDbEntity
  8
0
  6
HIDDEN
 62
     7
370
     0
100
AcDbEllipse
 10
251.0769629522
 20
121.299534239
 30
0.0
 11
1.409974411207372
 21
26.49943763273135
 31
0.0
210
0.0
220
0.0
230
1.0
 40
0.1224431285
 41
0.5921027298507763
 42
1.577311153181358
  0
CIRCLE
  5
164
330
1F
100
AcDbEntity
  8
0
  6
HIDDEN
 62
     7
370
     0
100
AcDbCircle
 10
189.7246431132
 20
104.299534239
 30
0.0
 40
5.0
  0
SPLINE
  5
165
330
1F
100
AcDbEntity
  8
0
  6
HIDDEN
 62
     7
370
     0
100
AcDbSpline
210
0.0
220
0.0
230
1.0
 70
     8
 71
     3
 72
     8
 73
     4
 74
     0
 42
0.00000001
 43
0.00000001
 12
1.0
 22
0.0
 32
0.0
 13
1.0
 23
0.0
 33
0.0
 40
0.0
 40
0.0
 40
0.0
 40
0.0
 40
1.0
 40
1.0
 40
1.0
 40
1.0
 10
226.1941094376548
 20
121.2995342390209
 30
0.0
 10
225.5492517112721
 20
116.8424162178387
 30
0.0
 10
225.0844631213207
 20
112.3730227049568
 30
0.0
 10
224.923241951514
 20
107.8829346998362
 30
0.0
  0
LINE
  5
166
330
1F
100
AcDbEntity
  8
0
  6
HIDDEN
 62
     7
370
     0
100
AcDbLine
 10
247.2466865161
 20
110.299534239
 30
0.0
 11
243.0138906685
 21
104.299534239
 31
0.0
  0
LINE
  5
167
330
1F
100
AcDbEntity
  8
0
  6
HIDDEN
 62
     7
370
     0
100
AcDbLine
 10
247.8231720883
 20
121.299534239
 30
0.0
 11
247.2466865161
 21
110.299534239
 31
0.0
  0
SPLINE
  5
168
330
1F
100
AcDbEntity
  8
0
  6
HIDDEN
 62
     7
370
     0
100
AcDbSpline
210
0.0
220
0.0
230
1.0
 70
     8
 71
     3
 72
    10
 73
     6
 74
     0
 42
0.00000001
 43
0.00000001
 12
1.0
 22
0.0
 32
0.0
 13
1.0
 23
0.0
 33
0.0
 40
0.0
 40
0.0
 40
0.0
 40
0.0
 40
0.5000000000000001
 40
0.5000000000000001
 40
1.0
 40
1.0
 40
1.0
 40
1.0
 10
224.8233415290094
 20
104.2995342390209
 30
0.0
 10
224.8233415290094
 20
104.8967993791206
 30
0.0
 10
224.8358477306915
 20
105.4940406862084
 30
0.0
 10
224.875272472655
 20
106.6884958348555
 30
0.0
 10
224.9017980074181
 20
107.2857104253637
 30
0.0
 10
224.923241951514
 20
107.8829346998362
 30
0.0
  0
LWPOLYLINE
  5
169
330
1F
100
AcDbEntity
  8
0
  6
HIDDEN
 62
     7
370
     0
100
AcDbPolyline
 90
       27
 70
   128
 43
0.0
 10
214.3337749029
 20
87.5883383516
 10
214.7387467828
 20
87.8279470857
 10
215.0266662784
 20
88.1133775245
 10
215.1808005551
 20
88.4280414883
 10
215.1921918891
 20
88.7536518515
 10
215.0601782574
 20
89.0712853232
 10
214.7924318125
 20
89.3624822006
 10
214.4045130044
 20
89.6103191796
 10
213.9189662644
 20
89.8003928759
 10
213.364009804
 20
89.9216568972
 10
212.7718956755
 20
89.9670638192
 10
212.1770353999
 20
89.9339747568
 10
211.6140000941
 20
89.8243127259
 10
211.1155113235
 20
89.6444508853
 10
210.7105394436
 20
89.4048421512
 10
210.422619948
 20
89.1194117124
 10
210.2684856713
 20
88.8047477485
 10
210.2570943373
 20
88.4791373854
 10
210.389107969
 20
88.1615039137
 10
210.6568544139
 20
87.8703070363
 10
211.044773222
 20
87.6224700572
 10
211.530319962
 20
87.4323963609
 10
212.0852764224
 20
87.3111323397
 10
212.6773905509
 20
87.2657254177
 10
213.2722508265
 20
87.2988144801
 10
213.8352861323
 20
87.408476511
 10
214.3337749029
 20
87.5883383516
  0
LWPOLYLINE
  5
16A
330
1F
100
AcDbEntity
  8
0
  6
HIDDEN
 62
     7
370
     0
100
AcDbPolyline
 90
       29
 70
   128
 43
0.0
 10
214.6708715578
 20
87.1213699063
 10
215.1300959976
 20
87.3884155363
 10
215.4687009855
 20
87.7044208319
 10
215.6697074535
 20
88.0535399679
 10
215.723036098
 20
88.418266653
 10
215.626012798
 20
88.7803119684
 10
215.3835027069
 20
89.1215214502
 10
215.0076662934
 20
89.42478543
 10
214.5173495646
 20
89.6748969858
 10
213.9371390486
 20
89.8593144797
 10
213.2961289234
 20
89.9687904484
 10
212.6264621134
 20
89.9978353099
 10
211.9617185087
 20
89.9449926334
 10
211.3352311294
 20
89.8129121714
 10
210.7784146686
 20
89.6082169898
 10
210.3191902288
 20
89.3411713598
 10
209.9805852409
 20
89.0251660642
 10
209.7795787729
 20
88.6760469282
 10
209.7262501284
 20
88.3113202431
 10
209.8232734284
 20
87.9492749277
 10
210.0657835195
 20
87.608065446
 10
210.441619933
 20
87.3048014661
 10
210.9319366618
 20
87.0546899103
 10
211.5121471779
 20
86.8702724164
 10
212.153157303
 20
86.7607964477
 10
212.822824113
 20
86.7317515862
 10
213.4875677177
 20
86.7845942627
 10
214.114055097
 20
86.9166747247
 10
214.6708715578
 20
87.1213699063
  0
LWPOLYLINE
  5
16B
330
1F
100
AcDbEntity
  8
0
  6
HIDDEN
 62
     7
370
     0
100
AcDbPolyline
 90
       29
 70
   128
 43
0.0
 10
214.6708715578
 20
84.8150258444
 10
215.1300959976
 20
85.0820714745
 10
215.4687009855
 20
85.39807677
 10
215.6697074535
 20
85.747195906
 10
215.723036098
 20
86.1119225912
 10
215.626012798
 20
86.4739679066
 10
215.3835027069
 20
86.8151773883
 10
215.0076662934
 20
87.1184413682
 10
214.5173495646
 20
87.368552924
 10
213.9371390486
 20
87.5529704178
 10
213.2961289234
 20
87.6624463866
 10
212.6264621134
 20
87.691491248
 10
211.9617185087
 20
87.6386485716
 10
211.3352311294
 20
87.5065681096
 10
210.7784146686
 20
87.301872928
 10
210.3191902288
 20
87.0348272979
 10
209.9805852409
 20
86.7188220024
 10
209.7795787729
 20
86.3697028664
 10
209.7262501284
 20
86.0049761812
 10
209.8232734284
 20
85.6429308658
 10
210.0657835195
 20
85.3017213841
 10
210.441619933
 20
84.9984574042
 10
210.9319366618
 20
84.7483458485
 10
211.5121471779
 20
84.5639283546
 10
212.153157303
 20
84.4544523858
 10
212.822824113
 20
84.4254075244
 10
213.4875677177
 20
84.4782502009
 10
214.114055097
 20
84.6103306628
 10
214.6708715578
 20
84.8150258444
  0
LWPOLYLINE
  5
16C
330
1F
100
AcDbEntity
  8
0
  6
HIDDEN
 62
     7
370
     0
100
AcDbPolyline
 90
       27
 70
   128
 43
0.0
 10
214.3465001504
 20
82.128849642
 10
214.7546746066
 20
82.3703532366
 10
215.0448710113
 20
82.6580409007
 10
215.2002242043
 20
82.9751932728
 10
215.2117056226
 20
83.30337861
 10
215.0786480079
 20
83.6235239732
 10
214.8087841853
 20
83.9170236777
 10
214.4177976591
 20
84.1668205875
 10
213.928411145
 20
84.3583974142
 10
213.3690660085
 20
84.4806204089
 10
212.7722693556
 20
84.5263864154
 10
212.1727048387
 20
84.4930356799
 10
211.6052169681
 20
84.3825064258
 10
211.102786076
 20
84.2012222116
 10
210.6946116198
 20
83.959718617
 10
210.4044152151
 20
83.6720309529
 10
210.2490620221
 20
83.3548785808
 10
210.2375806038
 20
83.0266932436
 10
210.3706382185
 20
82.7065478804
 10
210.6405020411
 20
82.4130481759
 10
211.0314885673
 20
82.1632512661
 10
211.5208750814
 20
81.9716744394
 10
212.0802202179
 20
81.8494514447
 10
212.6770168708
 20
81.8036854382
 10
213.2765813877
 20
81.8370361737
 10
213.8440692583
 20
81.9475654278
 10
214.3465001504
 20
82.128849642
  0
LWPOLYLINE
  5
16D
330
1F
100
AcDbEntity
  8
0
  6
HIDDEN
 62
     7
370
     0
100
AcDbPolyline
 90
       27
 70
   128
 43
0.0
 10
214.3465001504
 20
86.2019575246
 10
214.7546746066
 20
86.4434611193
 10
215.0448710113
 20
86.7311487834
 10
215.2002242043
 20
87.0483011555
 10
215.2117056226
 20
87.3764864926
 10
215.0786480079
 20
87.6966318559
 10
214.8087841853
 20
87.9901315604
 10
214.4177976591
 20
88.2399284702
 10
213.928411145
 20
88.4315052968
 10
213.3690660085
 20
88.5537282915
 10
212.7722693556
 20
88.5994942981
 10
212.1727048387
 20
88.5661435625
 10
211.6052169681
 20
88.4556143084
 10
211.102786076
 20
88.2743300943
 10
210.6946116198
 20
88.0328264996
 10
210.4044152151
 20
87.7451388355
 10
210.2490620221
 20
87.4279864634
 10
210.2375806038
 20
87.0998011263
 10
210.3706382185
 20
86.779655763
 10
210.6405020411
 20
86.4861560585
 10
211.0314885673
 20
86.2363591487
 10
211.5208750814
 20
86.0447823221
 10
212.0802202179
 20
85.9225593274
 10
212.6770168708
 20
85.8767933208
 10
213.2765813877
 20
85.9101440563
 10
213.8440692583
 20
86.0206733104
 10
214.3465001504
 20
86.2019575246
  0
LWPOLYLINE
  5
16E
330
1F
100
AcDbEntity
  8
0
  6
HIDDEN
 62
     7
370
     0
100
AcDbPolyline
 90
       28
 70
   128
 43
0.0
 10
214.5411229948
 20
84.7471797965
 10
214.9835608313
 20
85.0066162385
 10
215.3042198288
 20
85.314630794
 10
215.4858131779
 20
85.6546183187
 10
215.5185511341
 20
86.0082499972
 10
215.4006687858
 20
86.356461454
 10
215.1385212007
 20
86.6804805194
 10
214.7462408232
 20
86.9628392418
 10
214.2449755898
 20
87.1883155892
 10
213.6617488391
 20
87.3447540736
 10
213.0280024762
 20
87.4237210556
 10
212.3779019315
 20
87.4209594049
 10
211.7464942936
 20
87.3366180027
 10
211.1678189118
 20
87.1752437159
 10
210.6730723256
 20
86.9455362741
 10
210.2889264517
 20
86.6598792648
 10
210.0360906934
 20
86.3336725314
 10
209.928195492
 20
85.9845019634
 10
209.9710575057
 20
85.6311914364
 10
210.1623660322
 20
85.2927880124
 10
210.4918075794
 20
84.9875351076
 10
210.9416218681
 20
84.731888985
 10
211.4875592937
 20
84.5396315934
 10
212.1001882282
 20
84.4211275784
 10
212.7464816872
 20
84.3827655223
 10
213.391597823
 20
84.4266135333
 10
214.0007582578
 20
84.5503077538
 10
214.5411229948
 20
84.7471797965
  0
LWPOLYLINE
  5
16F
330
1F
100
AcDbEntity
  8
0
  6
HIDDEN
 62
     7
370
     0
100
AcDbPolyline
 90
       29
 70
   128
 43
0.0
 10
214.6708715578
 20
84.2363431525
 10
215.1300959976
 20
84.5033887826
 10
215.4687009855
 20
84.8193940781
 10
215.6697074535
 20
85.1685132141
 10
215.723036098
 20
85.5332398993
 10
215.626012798
 20
85.8952852147
 10
215.3835027069
 20
86.2364946964
 10
215.0076662934
 20
86.5397586763
 10
214.5173495646
 20
86.7898702321
 10
213.9371390486
 20
86.9742877259
 10
213.2961289234
 20
87.0837636947
 10
212.6264621134
 20
87.1128085562
 10
211.9617185087
 20
87.0599658797
 10
211.3352311294
 20
86.9278854177
 10
210.7784146686
 20
86.7231902361
 10
210.3191902288
 20
86.4561446061
 10
209.9805852409
 20
86.1401393105
 10
209.7795787729
 20
85.7910201745
 10
209.7262501284
 20
85.4262934893
 10
209.8232734284
 20
85.0642481739
 10
210.0657835195
 20
84.7230386922
 10
210.441619933
 20
84.4197747123
 10
210.9319366618
 20
84.1696631566
 10
211.5121471779
 20
83.9852456627
 10
212.153157303
 20
83.8757696939
 10
212.822824113
 20
83.8467248325
 10
213.4875677177
 20
83.899567509
 10
214.114055097
 20
84.031647971
 10
214.6708715578
 20
84.2363431525
  0
LWPOLYLINE
  5
170
330
1F
100
AcDbEntity
  8
0
  6
HIDDEN
 62
     7
370
     0
100
AcDbPolyline
 90
       28
 70
   128
 43
0.0
 10
214.5411229948
 20
84.1684971046
 10
214.9835608313
 20
84.4279335466
 10
215.3042198288
 20
84.7359481021
 10
215.4858131779
 20
85.0759356269
 10
215.5185511341
 20
85.4295673053
 10
215.4006687858
 20
85.7777787621
 10
215.1385212007
 20
86.1017978275
 10
214.7462408232
 20
86.3841565499
 10
214.2449755898
 20
86.6096328974
 10
213.6617488391
 20
86.7660713817
 10
213.0280024762
 20
86.8450383637
 10
212.3779019315
 20
86.842276713
 10
211.7464942936
 20
86.7579353109
 10
211.1678189118
 20
86.5965610241
 10
210.6730723256
 20
86.3668535822
 10
210.2889264517
 20
86.0811965729
 10
210.0360906934
 20
85.7549898396
 10
209.928195492
 20
85.4058192715
 10
209.9710575057
 20
85.0525087445
 10
210.1623660322
 20
84.7141053205
 10
210.4918075794
 20
84.4088524157
 10
210.9416218681
 20
84.1532062931
 10
211.4875592937
 20
83.9609489015
 10
212.1001882282
 20
83.8424448866
 10
212.7464816872
 20
83.8040828304
 10
213.391597823
 20
83.8479308414
 10
214.0007582578
 20
83.971625062
 10
214.5411229948
 20
84.1684971046
  0
LWPOLYLINE
  5
171
330
1F
100
AcDbEntity
  8
0
  6
HIDDEN
 62
     7
370
     0
100
AcDbPolyline
 90
       29
 70
   128
 43
0.0
 10
214.6708715578
 20
83.6576604607
 10
215.1300959976
 20
83.9247060907
 10
215.4687009855
 20
84.2407113863
 10
215.6697074535
 20
84.5898305223
 10
215.723036098
 20
84.9545572074
 10
215.626012798
 20
85.3166025228
 10
215.3835027069
 20
85.6578120046
 10
215.0076662934
 20
85.9610759844
 10
214.5173495646
 20
86.2111875402
 10
213.9371390486
 20
86.3956050341
 10
213.2961289234
 20
86.5050810028
 10
212.6264621134
 20
86.5341258643
 10
211.9617185087
 20
86.4812831878
 10
211.3352311294
 20
86.3492027258
 10
210.7784146686
 20
86.1445075442
 10
210.3191902288
 20
85.8774619142
 10
209.9805852409
 20
85.5614566186
 10
209.7795787729
 20
85.2123374826
 10
209.7262501284
 20
84.8476107975
 10
209.8232734284
 20
84.4855654821
 10
210.0657835195
 20
84.1443560003
 10
210.441619933
 20
83.8410920205
 10
210.9319366618
 20
83.5909804647
 10
211.5121471779
 20
83.4065629708
 10
212.153157303
 20
83.2970870021
 10
212.822824113
 20
83.2680421406
 10
213.4875677177
 20
83.3208848171
 10
214.114055097
 20
83.4529652791
 10
214.6708715578
 20
83.6576604607
  0
LWPOLYLINE
  5
172
330
1F
100
AcDbEntity
  8
0
  6
HIDDEN
 62
     7
370
     0
100
AcDbPolyline
 90
       28
 70
   128
 43
0.0
 10
214.5411229948
 20
83.5898144127
 10
214.9835608313
 20
83.8492508547
 10
215.3042198288
 20
84.1572654103
 10
215.4858131779
 20
84.497252935
 10
215.5185511341
 20
84.8508846134
 10
215.4006687858
 20
85.1990960702
 10
215.1385212007
 20
85.5231151356
 10
214.7462408232
 20
85.805473858
 10
214.2449755898
 20
86.0309502055
 10
213.6617488391
 20
86.1873886898
 10
213.0280024762
 20
86.2663556719
 10
212.3779019315
 20
86.2635940211
 10
211.7464942936
 20
86.179252619
 10
211.1678189118
 20
86.0178783322
 10
210.6730723256
 20
85.7881708903
 10
210.2889264517
 20
85.502513881
 10
210.0360906934
 20
85.1763071477
 10
209.928195492
 20
84.8271365796
 10
209.9710575057
 20
84.4738260526
 10
210.1623660322
 20
84.1354226286
 10
210.4918075794
 20
83.8301697238
 10
210.9416218681
 20
83.5745236012
 10
211.4875592937
 20
83.3822662096
 10
212.1001882282
 20
83.2637621947
 10
212.7464816872
 20
83.2254001385
 10
213.391597823
 20
83.2692481495
 10
214.0007582578
 20
83.3929423701
 10
214.5411229948
 20
83.5898144127
  0
LWPOLYLINE
  5
173
330
1F
100
AcDbEntity
  8
0
  6
HIDDEN
 62
     7
370
     0
100
AcDbPolyline
 90
       29
 70
   128
 43
0.0
 10
214.6708715578
 20
83.0789777688
 10
215.1300959976
 20
83.3460233988
 10
215.4687009855
 20
83.6620286944
 10
215.6697074535
 20
84.0111478304
 10
215.723036098
 20
84.3758745155
 10
215.626012798
 20
84.7379198309
 10
215.3835027069
 20
85.0791293127
 10
215.0076662934
 20
85.3823932925
 10
214.5173495646
 20
85.6325048483
 10
213.9371390486
 20
85.8169223422
 10
213.2961289234
 20
85.9263983109
 10
212.6264621134
 20
85.9554431724
 10
211.9617185087
 20
85.9026004959
 10
211.3352311294
 20
85.7705200339
 10
210.7784146686
 20
85.5658248524
 10
210.3191902288
 20
85.2987792223
 10
209.9805852409
 20
84.9827739268
 10
209.7795787729
 20
84.6336547908
 10
209.7262501284
 20
84.2689281056
 10
209.8232734284
 20
83.9068827902
 10
210.0657835195
 20
83.5656733085
 10
210.441619933
 20
83.2624093286
 10
210.9319366618
 20
83.0122977728
 10
211.5121471779
 20
82.8278802789
 10
212.153157303
 20
82.7184043102
 10
212.822824113
 20
82.6893594487
 10
213.4875677177
 20
82.7422021252
 10
214.114055097
 20
82.8742825872
 10
214.6708715578
 20
83.0789777688
  0
LWPOLYLINE
  5
174
330
1F
100
AcDbEntity
  8
0
  6
HIDDEN
 62
     7
370
     0
100
AcDbPolyline
 90
       28
 70
   128
 43
0.0
 10
214.5411229948
 20
83.0111317208
 10
214.9835608313
 20
83.2705681628
 10
215.3042198288
 20
83.5785827184
 10
215.4858131779
 20
83.9185702431
 10
215.5185511341
 20
84.2722019215
 10
215.4006687858
 20
84.6204133783
 10
215.1385212007
 20
84.9444324437
 10
214.7462408232
 20
85.2267911661
 10
214.2449755898
 20
85.4522675136
 10
213.6617488391
 20
85.6087059979
 10
213.0280024762
 20
85.68767298
 10
212.3779019315
 20
85.6849113293
 10
211.7464942936
 20
85.6005699271
 10
211.1678189118
 20
85.4391956403
 10
210.6730723256
 20
85.2094881984
 10
210.2889264517
 20
84.9238311892
 10
210.0360906934
 20
84.5976244558
 10
209.928195492
 20
84.2484538878
 10
209.9710575057
 20
83.8951433608
 10
210.1623660322
 20
83.5567399367
 10
210.4918075794
 20
83.2514870319
 10
210.9416218681
 20
82.9958409094
 10
211.4875592937
 20
82.8035835177
 10
212.1001882282
 20
82.6850795028
 10
212.7464816872
 20
82.6467174466
 10
213.391597823
 20
82.6905654576
 10
214.0007582578
 20
82.8142596782
 10
214.5411229948
 20
83.0111317208
  0
LWPOLYLINE
  5
175
330
1F
100
AcDbEntity
  8
0
  6
HIDDEN
 62
     7
370
     0
100
AcDbPolyline
 90
       29
 70
   128
 43
0.0
 10
214.6708715578
 20
82.5002950769
 10
215.1300959976
 20
82.7673407069
 10
215.4687009855
 20
83.0833460025
 10
215.6697074535
 20
83.4324651385
 10
215.723036098
 20
83.7971918237
 10
215.626012798
 20
84.1592371391
 10
215.3835027069
 20
84.5004466208
 10
215.0076662934
 20
84.8037106007
 10
214.5173495646
 20
85.0538221564
 10
213.9371390486
 20
85.2382396503
 10
213.2961289234
 20
85.3477156191
 10
212.6264621134
 20
85.3767604805
 10
211.9617185087
 20
85.323917804
 10
211.3352311294
 20
85.1918373421
 10
210.7784146686
 20
84.9871421605
 10
210.3191902288
 20
84.7200965304
 10
209.9805852409
 20
84.4040912349
 10
209.7795787729
 20
84.0549720989
 10
209.7262501284
 20
83.6902454137
 10
209.8232734284
 20
83.3282000983
 10
210.0657835195
 20
82.9869906166
 10
210.441619933
 20
82.6837266367
 10
210.9319366618
 20
82.4336150809
 10
211.5121471779
 20
82.2491975871
 10
212.153157303
 20
82.1397216183
 10
212.822824113
 20
82.1106767568
 10
213.4875677177
 20
82.1635194333
 10
214.114055097
 20
82.2955998953
 10
214.6708715578
 20
82.5002950769
  0
LWPOLYLINE
  5
176
330
1F
100
AcDbEntity
  8
0
  6
HIDDEN
 62
     7
370
     0
100
AcDbPolyline
 90
       29
 70
   128
 43
0.0
 10
214.6708715578
 20
82.0390262645
 10
215.1300959976
 20
82.3060718946
 10
215.4687009855
 20
82.6220771901
 10
215.6697074535
 20
82.9711963261
 10
215.723036098
 20
83.3359230113
 10
215.626012798
 20
83.6979683267
 10
215.3835027069
 20
84.0391778084
 10
215.0076662934
 20
84.3424417883
 10
214.5173495646
 20
84.5925533441
 10
213.9371390486
 20
84.7769708379
 10
213.2961289234
 20
84.8864468067
 10
212.6264621134
 20
84.9154916681
 10
211.9617185087
 20
84.8626489917
 10
211.3352311294
 20
84.7305685297
 10
210.7784146686
 20
84.5258733481
 10
210.3191902288
 20
84.258827718
 10
209.9805852409
 20
83.9428224225
 10
209.7795787729
 20
83.5937032865
 10
209.7262501284
 20
83.2289766013
 10
209.8232734284
 20
82.8669312859
 10
210.0657835195
 20
82.5257218042
 10
210.441619933
 20
82.2224578243
 10
210.9319366618
 20
81.9723462686
 10
211.5121471779
 20
81.7879287747
 10
212.153157303
 20
81.6784528059
 10
212.822824113
 20
81.6494079445
 10
213.4875677177
 20
81.702250621
 10
214.114055097
 20
81.8343310829
 10
214.6708715578
 20
82.0390262645
  0
LWPOLYLINE
  5
177
330
1F
100
AcDbEntity
  8
0
  6
HIDDEN
 62
     7
370
     0
100
AcDbPolyline
 90
       29
 70
   128
 43
0.0
 10
214.5800475637
 20
81.979638817
 10
215.0178415297
 20
82.2342223176
 10
215.3406449515
 20
82.5354806994
 10
215.5322711177
 20
82.868307609
 10
215.583111092
 20
83.2160137155
 10
215.490615546
 20
83.5611635829
 10
215.2594225926
 20
83.8864499555
 10
214.9011252117
 20
84.1755616163
 10
214.4336899302
 20
84.4140012995
 10
213.8805559049
 20
84.5898126436
 10
213.2694595856
 20
84.6941797338
 10
212.6310438934
 20
84.7218691684
 10
211.9973216569
 20
84.6714924835
 10
211.4000703553
 20
84.5455757764
 10
210.8692386627
 20
84.3504330366
 10
210.4314446967
 20
84.095849536
 10
210.1086412749
 20
83.7945911542
 10
209.9170151087
 20
83.4617642446
 10
209.8661751344
 20
83.114058138
 10
209.9586706804
 20
82.7689082707
 10
210.1898636338
 20
82.4436218981
 10
210.5481610147
 20
82.1545102373
 10
211.0155962962
 20
81.9160705541
 10
211.5687303215
 20
81.74025921
 10
212.1798266408
 20
81.6358921198
 10
212.818242333
 20
81.6082026852
 10
213.4519645695
 20
81.6585793701
 10
214.0492158711
 20
81.7844960772
 10
214.5800475637
 20
81.979638817
  0
CIRCLE
  5
178
330
1F
100
AcDbEntity
  8
0
  6
HIDDEN
 62
     7
370
     0
100
AcDbCircle
 10
247.2439971687
 20
135.3107293928
 30
0.0
 40
2.200000000000009
  0
LINE
  5
179
330
1F
100
AcDbEntity
  8
0
  6
HIDDEN
 62
     7
370
     0
100
AcDbLine
 10
243.138983564
 20
136.8136667516
 30
0.0
 11
242.3946453826
 21
122.6108481709
 31
0.0
  0
LINE
  5
17A
330
1F
100
AcDbEntity
  8
0
  6
HIDDEN
 62
     7
370
     0
100
AcDbLine
 10
242.5719776768
 20
122.5445463429
 30
0.0
 11
251.3281058874
 21
133.7518793764
 31
0.0
  0
LINE
  5
17B
330
1F
100
AcDbEntity
  8
0
  6
HIDDEN
 62
     7
370
     0
100
AcDbLine
 10
251.9160166605
 20
148.0769124426
 30
0.0
 11
243.15988845
 21
136.8695794092
 31
0.0
  0
LINE
  5
17C
330
1F
100
AcDbEntity
  8
0
  6
HIDDEN
 62
     7
370
     0
100
AcDbLine
 10
251.3490107734
 20
133.807792034
 30
0.0
 11
252.0933489548
 21
148.0106106146
 31
0.0
  0
SPLINE
  5
17D
330
1F
100
AcDbEntity
  8
0
  6
HIDDEN
 62
     7
370
     0
100
AcDbSpline
210
0.0
220
0.0
230
1.0
 70
     8
 71
     3
 72
    15
 73
    11
 74
     0
 42
0.00000001
 43
0.00000001
 12
1.0
 22
0.0
 32
0.0
 13
1.0
 23
0.0
 33
0.0
 40
0.0
 40
0.0
 40
0.0
 40
0.0
 40
0.1437531771930558
 40
0.2878251343603598
 40
0.4234880042862412
 40
0.5497147666318931
 40
0.671885848106259
 40
0.7962090644528534
 40
0.927608878138611
 40
1.0
 40
1.0
 40
1.0
 40
1.0
 10
242.5719776768397
 20
122.5445463429486
 30
0.0
 10
242.5635140423991
 20
122.5355787848539
 30
0.0
 10
242.5465680049784
 20
122.5176237826487
 30
0.0
 10
242.51220492144
 20
122.5036031391991
 30
0.0
 10
242.4770789994713
 20
122.502116662923
 30
0.0
 10
242.4454420073515
 20
122.5126687259822
 30
0.0
 10
242.4200358951622
 20
122.5325811579149
 30
0.0
 10
242.4022609952761
 20
122.5599091882925
 30
0.0
 10
242.3945547818166
 20
122.5873337120738
 30
0.0
 10
242.3946216348731
 20
122.604684707349
 30
0.0
 10
242.3946453825817
 20
122.6108481709496
 30
0.0
  0
SPLINE
  5
17E
330
1F
100
AcDbEntity
  8
0
  6
HIDDEN
 62
     7
370
     0
100
AcDbSpline
210
0.0
220
0.0
230
1.0
 70
     8
 71
     3
 72
    15
 73
    11
 74
     0
 42
0.00000001
 43
0.00000001
 12
1.0
 22
0.0
 32
0.0
 13
1.0
 23
0.0
 33
0.0
 40
0.0
 40
0.0
 40
0.0
 40
0.0
 40
0.1437531771930874
 40
0.2878251343603581
 40
0.4234880042862151
 40
0.549714766631925
 40
0.6718858481062332
 40
0.7962090644528561
 40
0.9276088781385954
 40
1.0
 40
1.0
 40
1.0
 40
1.0
 10
251.9160166605323
 20
148.0769124426135
 30
0.0
 10
251.924480294973
 20
148.0858800007083
 30
0.0
 10
251.9414263323937
 20
148.1038350029135
 30
0.0
 10
251.9757894159321
 20
148.117855646363
 30
0.0
 10
252.0109153379008
 20
148.1193421226392
 30
0.0
 10
252.0425523300206
 20
148.1087900595799
 30
0.0
 10
252.0679584422098
 20
148.0888776276473
 30
0.0
 10
252.0857333420959
 20
148.0615495972696
 30
0.0
 10
252.0934395555555
 20
148.0341250734884
 30
0.0
 10
252.093372702499
 20
148.0167740782132
 30
0.0
 10
252.0933489547903
 20
148.0106106146125
 30
0.0
  0
CIRCLE
  5
17F
330
1F
100
AcDbEntity
  8
0
  6
HIDDEN
 62
     7
370
     0
100
AcDbCircle
 10
247.2032275124
 20
135.2016859937
 30
0.0
 40
2.000000000000044
  0
CIRCLE
  5
180
330
1F
100
AcDbEntity
  8
0
  6
HIDDEN
 62
     7
370
     0
100
AcDbCircle
 10
247.2032275124
 20
135.2016859937
 30
0.0
 40
1.900000000000012
  0
LINE
  5
181
330
1F
100
AcDbEntity
  8
0
  6
HIDDEN
 62
     7
370
     0
100
AcDbLine
 10
182.7246431132
 20
78.9756103179
 30
0.0
 11
182.8188039544
 21
79.6455995167
 31
0.0
  0
LINE
  5
182
330
1F
100
AcDbEntity
  8
0
  6
HIDDEN
 62
     7
370
     0
100
AcDbLine
 10
182.8188039544
 20
128.9534689613
 30
0.0
 11
182.7246431132
 21
129.6234581601
 31
0.0
  0
ARC
  5
183
330
1F
100
AcDbEntity
  8
0
  6
HIDDEN
 62
     7
370
     0
100
AcDbCircle
 10
182.2246431132
 20
79.7291033773
 30
0.0
 40
0.6000000000000227
100
AcDbArc
 50
352.0
 51
0.0
  0
ARC
  5
184
330
1F
100
AcDbEntity
  8
0
  6
HIDDEN
 62
     7
370
     0
100
AcDbCircle
 10
182.2246431132
 20
79.7291033773
 30
0.0
 40
0.6000000000000227
100
AcDbArc
 50
0.0
 51
33.5573097619
  0
ARC
  5
185
330
1F
100
AcDbEntity
  8
0
  6
HIDDEN
 62
     7
370
     0
100
AcDbCircle
 10
182.2246431132
 20
128.8699651007
 30
0.0
 40
0.6000000000000258
100
AcDbArc
 50
348.75
 51
8.0
  0
LWPOLYLINE
  5
186
330
1F
100
AcDbEntity
  8
0
  6
HIDDEN
 62
     7
370
     0
100
AcDbPolyline
 90
        3
 70
   128
 43
0.0
 10
182.8131142814
 20
128.7529109075
 10
182.7789708327
 20
128.6403550413
 10
182.7246431132
 20
128.5383026217
  0
LINE
  5
187
330
1F
100
AcDbEntity
  8
0
  6
HIDDEN
 62
     7
370
     0
100
AcDbLine
 10
182.8246431132
 20
79.7291033773
 30
0.0
 11
182.8246431132
 21
128.8699651007
 31
0.0
  0
ARC
  5
188
330
1F
100
AcDbEntity
  8
0
  6
HIDDEN
 62
     7
370
     0
100
AcDbCircle
 10
176.4796451148
 20
92.299534239
 30
0.0
 40
8.000000000000002
100
AcDbArc
 50
277.1329601788
 51
321.3178125465
  0
ARC
  5
189
330
1F
100
AcDbEntity
  8
0
  6
HIDDEN
 62
     7
370
     0
100
AcDbCircle
 10
176.4796451148
 20
116.299534239
 30
0.0
 40
7.999999999999993
100
AcDbArc
 50
38.6821874535
 51
82.8567572963
  0
LINE
  5
18A
330
1F
100
AcDbEntity
  8
0
  6
HIDDEN
 62
     7
370
     0
100
AcDbLine
 10
165.8070786785
 20
84.299534239
 30
0.0
 11
169.9777853635
 21
84.299534239
 31
0.0
  0
LINE
  5
18B
330
1F
100
AcDbEntity
  8
0
  6
HIDDEN
 62
     7
370
     0
100
AcDbLine
 10
169.9846781535
 20
124.299534239
 30
0.0
 11
165.8070786785
 21
124.299534239
 31
0.0
  0
ARC
  5
18C
330
1F
100
AcDbEntity
  8
0
  6
HIDDEN
 62
     7
370
     0
100
AcDbCircle
 10
165.8070786785
 20
84.899534239
 30
0.0
 40
0.6000000000000013
100
AcDbArc
 50
210.0
 51
270.0
  0
ARC
  5
18D
330
1F
100
AcDbEntity
  8
0
  6
HIDDEN
 62
     7
370
     0
100
AcDbCircle
 10
165.8070786785
 20
123.699534239
 30
0.0
 40
0.6000000000000013
100
AcDbArc
 50
90.0
 51
150.0
  0
LINE
  5
18E
330
1F
100
AcDbEntity
  8
0
  6
HIDDEN
 62
     7
370
     0
100
AcDbLine
 10
165.2874634362
 20
123.999534239
 30
0.0
 11
163.7286177094
 21
121.299534239
 31
0.0
  0
LINE
  5
18F
330
1F
100
AcDbEntity
  8
0
  6
HIDDEN
 62
     7
370
     0
100
AcDbLine
 10
163.7286177094
 20
87.299534239
 30
0.0
 11
165.2874634362
 21
84.599534239
 31
0.0
  0
ARC
  5
190
330
1F
100
AcDbEntity
  8
0
  6
HIDDEN
 62
     7
370
     0
100
AcDbCircle
 10
191.1746431132
 20
88.574534239
 30
0.0
 40
1.5
100
AcDbArc
 50
238.2116693829
 51
0.0
  0
ARC
  5
191
330
1F
100
AcDbEntity
  8
0
  6
HIDDEN
 62
     7
370
     0
100
AcDbCircle
 10
191.1746431132
 20
120.024534239
 30
0.0
 40
1.5
100
AcDbArc
 50
0.0
 51
121.7883306171
  0
LINE
  5
192
330
1F
100
AcDbEntity
  8
0
  6
HIDDEN
 62
     7
370
     0
100
AcDbLine
 10
182.7246431132
 20
87.299534239
 30
0.0
 11
190.3844690817
 21
87.299534239
 31
0.0
  0
LINE
  5
193
330
1F
100
AcDbEntity
  8
0
  6
HIDDEN
 62
     7
370
     0
100
AcDbLine
 10
190.3844690817
 20
121.299534239
 30
0.0
 11
182.7246431132
 21
121.299534239
 31
0.0
  0
LINE
  5
194
330
1F
100
AcDbEntity
  8
0
  6
HIDDEN
 62
     7
370
     0
100
AcDbLine
 10
160.9246431132
 20
87.299534239
 30
0.0
 11
163.7286177094
 21
87.299534239
 31
0.0
  0
LINE
  5
195
330
1F
100
AcDbEntity
  8
0
  6
HIDDEN
 62
     7
370
     0
100
AcDbLine
 10
163.7286177094
 20
121.299534239
 30
0.0
 11
156.9246431132
 21
121.299534239
 31
0.0
  0
LINE
  5
196
330
1F
100
AcDbEntity
  8
0
  6
HIDDEN
 62
     7
370
     0
100
AcDbLine
 10
210.2246431132
 20
120.23427503
 30
0.0
 11
210.2246431132
 21
107.8208127081
 31
0.0
  0
LINE
  5
197
330
1F
100
AcDbEntity
  8
0
  6
HIDDEN
 62
     7
370
     0
100
AcDbLine
 10
215.2246431132
 20
119.5334260857
 30
0.0
 11
215.2246431132
 21
120.23427503
 31
0.0
  0
LINE
  5
198
330
1F
100
AcDbEntity
  8
0
  6
HIDDEN
 62
     7
370
     0
100
AcDbLine
 10
215.2246431132
 20
107.8216249943
 30
0.0
 11
215.2246431132
 21
115.5548619019
 31
0.0
  0
LINE
  5
199
330
1F
100
AcDbEntity
  8
0
  6
HIDDEN
 62
     7
370
     0
100
AcDbLine
 10
217.8248816053
 20
124.0972457558
 30
0.0
 11
213.3345960486
 21
120.4117842047
 31
0.0
  0
LINE
  5
19A
330
1F
100
AcDbEntity
  8
0
  6
HIDDEN
 62
     7
370
     0
100
AcDbLine
 10
215.1802533965
 20
115.4581461301
 30
0.0
 11
217.6693238825
 21
117.5010838137
 31
0.0
  0
LINE
  5
19B
330
1F
100
AcDbEntity
  8
0
  6
HIDDEN
 62
     7
370
     0
100
AcDbLine
 10
202.0246431132
 20
94.799534239
 30
0.0
 11
204.5246431132
 21
94.799534239
 31
0.0
  0
LINE
  5
19C
330
1F
100
AcDbEntity
  8
0
  6
HIDDEN
 62
     7
370
     0
100
AcDbLine
 10
204.5246431132
 20
113.799534239
 30
0.0
 11
202.0246431132
 21
113.799534239
 31
0.0
  0
LINE
  5
19D
330
1F
100
AcDbEntity
  8
0
  6
HIDDEN
 62
     7
370
     0
100
AcDbLine
 10
192.6746431132
 20
95.299534239
 30
0.0
 11
193.1746431132
 21
95.799534239
 31
0.0
  0
LINE
  5
19E
330
1F
100
AcDbEntity
  8
0
  6
HIDDEN
 62
     7
370
     0
100
AcDbLine
 10
193.1746431132
 20
112.799534239
 30
0.0
 11
192.6746431132
 21
113.299534239
 31
0.0
  0
LINE
  5
19F
330
1F
100
AcDbEntity
  8
0
  6
HIDDEN
 62
     7
370
     0
100
AcDbLine
 10
193.1746431132
 20
95.799534239
 30
0.0
 11
202.0246431132
 21
95.799534239
 31
0.0
  0
LINE
  5
1A0
330
1F
100
AcDbEntity
  8
0
  6
HIDDEN
 62
     7
370
     0
100
AcDbLine
 10
202.0246431132
 20
112.799534239
 30
0.0
 11
193.1746431132
 21
112.799534239
 31
0.0
  0
LINE
  5
1A1
330
1F
100
AcDbEntity
  8
0
  6
HIDDEN
 62
     7
370
     0
100
AcDbLine
 10
187.6746431132
 20
135.799534239
 30
0.0
 11
187.6746431132
 21
130.699534239
 31
0.0
  0
LINE
  5
1A2
330
1F
100
AcDbEntity
  8
0
  6
HIDDEN
 62
     7
370
     0
100
AcDbLine
 10
177.9090809437
 20
80.2201629055
 30
0.0
 11
177.4746487942
 21
80.6992289246
 31
0.0
  0
LINE
  5
1A3
330
1F
100
AcDbEntity
  8
0
  6
HIDDEN
 62
     7
370
     0
100
AcDbLine
 10
169.9746454691
 20
81.1209168837
 30
0.0
 11
169.4922117258
 21
80.6418509083
 31
0.0
  0
LINE
  5
1A4
330
1F
100
AcDbEntity
  8
0
  6
HIDDEN
 62
     7
370
     0
100
AcDbLine
 10
169.4920897975
 20
127.9572122793
 30
0.0
 11
169.9746405485
 21
127.4780920214
 31
0.0
  0
LINE
  5
1A5
330
1F
100
AcDbEntity
  8
0
  6
HIDDEN
 62
     7
370
     0
100
AcDbLine
 10
177.4746429952
 20
127.8997897991
 30
0.0
 11
177.9091853855
 21
128.3789100497
 31
0.0
  0
LINE
  5
1A6
330
1F
100
AcDbEntity
  8
0
  6
HIDDEN
 62
     7
370
     0
100
AcDbLine
 10
215.8246431132
 20
100.099534239
 30
0.0
 11
218.3482577131
 21
104.299534239
 31
0.0
  0
LINE
  5
1A7
330
1F
100
AcDbEntity
  8
0
  6
HIDDEN
 62
     7
370
     0
100
AcDbLine
 10
218.3482577131
 20
104.299534239
 30
0.0
 11
215.8246431132
 21
108.499534239
 31
0.0
  0
LINE
  5
1A8
330
1F
100
AcDbEntity
  8
0
  6
HIDDEN
 62
     7
370
     0
100
AcDbLine
 10
213.733314116
 20
100.099534239
 30
0.0
 11
215.8246431132
 21
100.099534239
 31
0.0
  0
LINE
  5
1A9
330
1F
100
AcDbEntity
  8
0
  6
HIDDEN
 62
     7
370
     0
100
AcDbLine
 10
204.5246431132
 20
100.099534239
 30
0.0
 11
211.7317687738
 21
100.099534239
 31
0.0
  0
LINE
  5
1AA
330
1F
100
AcDbEntity
  8
0
  6
HIDDEN
 62
     7
370
     0
100
AcDbLine
 10
211.7219281987
 20
108.499534239
 30
0.0
 11
204.5246431132
 21
108.499534239
 31
0.0
  0
LINE
  5
1AB
330
1F
100
AcDbEntity
  8
0
  6
HIDDEN
 62
     7
370
     0
100
AcDbLine
 10
215.8246431132
 20
108.499534239
 30
0.0
 11
213.7332525277
 21
108.499534239
 31
0.0
  0
LINE
  5
1AC
330
1F
100
AcDbEntity
  8
0
  6
HIDDEN
 62
     7
370
     0
100
AcDbLine
 10
177.4746431132
 20
124.2373704297
 30
0.0
 11
177.4746431132
 21
127.899498493
 31
0.0
  0
LINE
  5
1AD
330
1F
100
AcDbEntity
  8
0
  6
HIDDEN
 62
     7
370
     0
100
AcDbLine
 10
169.9746431132
 20
127.4779482422
 30
0.0
 11
169.9746431132
 21
124.2976603663
 31
0.0
  0
LINE
  5
1AE
330
1F
100
AcDbEntity
  8
0
  6
HIDDEN
 62
     7
370
     0
100
AcDbLine
 10
177.4746431132
 20
80.6997128263
 30
0.0
 11
177.4746431132
 21
84.3616980484
 31
0.0
  0
LINE
  5
1AF
330
1F
100
AcDbEntity
  8
0
  6
HIDDEN
 62
     7
370
     0
100
AcDbLine
 10
169.9746431132
 20
84.3001231605
 30
0.0
 11
169.9746431132
 21
81.1212401215
 31
0.0
  0
LINE
  5
1B0
330
1F
100
AcDbEntity
  8
0
  6
HIDDEN
 62
     7
370
     0
100
AcDbLine
 10
210.2246431132
 20
100.7773485276
 30
0.0
 11
210.2246431132
 21
88.6167555064
 31
0.0
  0
LINE
  5
1B1
330
1F
100
AcDbEntity
  8
0
  6
HIDDEN
 62
     7
370
     0
100
AcDbLine
 10
215.2246431132
 20
88.6167555064
 30
0.0
 11
215.2246431132
 21
100.780322316
 31
0.0
  0
LINE
  5
1B2
330
1F
100
AcDbEntity
  8
0
  6
HIDDEN
 62
     7
370
     0
100
AcDbLine
 10
209.7246431132
 20
88.3647934481
 30
0.0
 11
209.7246431132
 21
82.4943244177
 31
0.0
  0
LINE
  5
1B3
330
1F
100
AcDbEntity
  8
0
  6
HIDDEN
 62
     7
370
     0
100
AcDbLine
 10
215.7246431132
 20
82.4941030895
 30
0.0
 11
215.7246431132
 21
88.3647934481
 31
0.0
  0
LINE
  5
1B4
330
1F
100
AcDbEntity
  8
0
  6
HIDDEN
 62
     7
370
     0
100
AcDbLine
 10
209.7246431132
 20
88.3647934481
 30
0.0
 11
209.7246431132
 21
86.0584493862
 31
0.0
  0
LINE
  5
1B5
330
1F
100
AcDbEntity
  8
0
  6
HIDDEN
 62
     7
370
     0
100
AcDbLine
 10
215.7246431132
 20
86.0584493862
 30
0.0
 11
215.7246431132
 21
88.3647934481
 31
0.0
  0
LINE
  5
1B6
330
1F
100
AcDbEntity
  8
0
  6
HIDDEN
 62
     7
370
     0
100
AcDbLine
 10
210.2246431132
 20
87.2381438094
 30
0.0
 11
210.2246431132
 21
83.1650359268
 31
0.0
  0
LINE
  5
1B7
330
1F
100
AcDbEntity
  8
0
  6
HIDDEN
 62
     7
370
     0
100
AcDbLine
 10
215.2246431132
 20
83.1650359268
 30
0.0
 11
215.2246431132
 21
87.2381438094
 31
0.0
  0
LINE
  5
1B8
330
1F
100
AcDbEntity
  8
0
  6
HIDDEN
 62
     7
370
     0
100
AcDbLine
 10
210.6508937514
 20
84.8777549151
 30
0.0
 11
210.7891437089
 21
84.8057269291
 31
0.0
  0
LINE
  5
1B9
330
1F
100
AcDbEntity
  8
0
  6
HIDDEN
 62
     7
370
     0
100
AcDbLine
 10
214.6601425175
 20
84.8057269291
 30
0.0
 11
214.798392475
 21
84.8777549151
 31
0.0
  0
LINE
  5
1BA
330
1F
100
AcDbEntity
  8
0
  6
HIDDEN
 62
     7
370
     0
100
AcDbLine
 10
215.6258307451
 20
85.8956621071
 30
0.0
 11
215.4324182363
 21
86.2958774874
 31
0.0
  0
LINE
  5
1BB
330
1F
100
AcDbEntity
  8
0
  6
HIDDEN
 62
     7
370
     0
100
AcDbLine
 10
210.0168679901
 20
86.2958774874
 30
0.0
 11
209.8234554813
 21
85.8956621071
 31
0.0
  0
LINE
  5
1BC
330
1F
100
AcDbEntity
  8
0
  6
HIDDEN
 62
     7
370
     0
100
AcDbLine
 10
210.6508937514
 20
84.2990722232
 30
0.0
 11
210.7891437089
 21
84.2270442372
 31
0.0
  0
LINE
  5
1BD
330
1F
100
AcDbEntity
  8
0
  6
HIDDEN
 62
     7
370
     0
100
AcDbLine
 10
214.6601425175
 20
84.2270442372
 30
0.0
 11
214.798392475
 21
84.2990722232
 31
0.0
  0
LINE
  5
1BE
330
1F
100
AcDbEntity
  8
0
  6
HIDDEN
 62
     7
370
     0
100
AcDbLine
 10
215.6258307451
 20
85.3169794152
 30
0.0
 11
215.4324182363
 21
85.7171947955
 31
0.0
  0
LINE
  5
1BF
330
1F
100
AcDbEntity
  8
0
  6
HIDDEN
 62
     7
370
     0
100
AcDbLine
 10
210.0168679901
 20
85.7171947955
 30
0.0
 11
209.8234554813
 21
85.3169794152
 31
0.0
  0
LINE
  5
1C0
330
1F
100
AcDbEntity
  8
0
  6
HIDDEN
 62
     7
370
     0
100
AcDbLine
 10
210.6508937514
 20
83.7203895313
 30
0.0
 11
210.7891437089
 21
83.6483615454
 31
0.0
  0
LINE
  5
1C1
330
1F
100
AcDbEntity
  8
0
  6
HIDDEN
 62
     7
370
     0
100
AcDbLine
 10
214.6601425175
 20
83.6483615454
 30
0.0
 11
214.798392475
 21
83.7203895313
 31
0.0
  0
LINE
  5
1C2
330
1F
100
AcDbEntity
  8
0
  6
HIDDEN
 62
     7
370
     0
100
AcDbLine
 10
215.6258307451
 20
84.7382967233
 30
0.0
 11
215.4324182363
 21
85.1385121036
 31
0.0
  0
LINE
  5
1C3
330
1F
100
AcDbEntity
  8
0
  6
HIDDEN
 62
     7
370
     0
100
AcDbLine
 10
210.0168679901
 20
85.1385121036
 30
0.0
 11
209.8234554813
 21
84.7382967233
 31
0.0
  0
LINE
  5
1C4
330
1F
100
AcDbEntity
  8
0
  6
HIDDEN
 62
     7
370
     0
100
AcDbLine
 10
210.6508937514
 20
83.1417068394
 30
0.0
 11
210.7891437089
 21
83.0696788535
 31
0.0
  0
LINE
  5
1C5
330
1F
100
AcDbEntity
  8
0
  6
HIDDEN
 62
     7
370
     0
100
AcDbLine
 10
214.6601425175
 20
83.0696788535
 30
0.0
 11
214.798392475
 21
83.1417068394
 31
0.0
  0
LINE
  5
1C6
330
1F
100
AcDbEntity
  8
0
  6
HIDDEN
 62
     7
370
     0
100
AcDbLine
 10
215.6258307451
 20
84.1596140314
 30
0.0
 11
215.4324182363
 21
84.5598294117
 31
0.0
  0
LINE
  5
1C7
330
1F
100
AcDbEntity
  8
0
  6
HIDDEN
 62
     7
370
     0
100
AcDbLine
 10
210.0168679901
 20
84.5598294117
 30
0.0
 11
209.8234554813
 21
84.1596140314
 31
0.0
  0
LINE
  5
1C8
330
1F
100
AcDbEntity
  8
0
  6
HIDDEN
 62
     7
370
     0
100
AcDbLine
 10
209.7246431132
 20
83.7437186187
 30
0.0
 11
209.7246431132
 21
83.2824498063
 31
0.0
  0
LINE
  5
1C9
330
1F
100
AcDbEntity
  8
0
  6
HIDDEN
 62
     7
370
     0
100
AcDbLine
 10
215.7246431132
 20
83.2824498063
 30
0.0
 11
215.7246431132
 21
83.7437186187
 31
0.0
  0
LINE
  5
1CA
330
1F
100
AcDbEntity
  8
0
  6
HIDDEN
 62
     7
370
     0
100
AcDbLine
 10
210.4433215661
 20
82.2213716316
 30
0.0
 11
210.5497832383
 21
82.1534747336
 31
0.0
  0
LINE
  5
1CB
330
1F
100
AcDbEntity
  8
0
  6
HIDDEN
 62
     7
370
     0
100
AcDbLine
 10
214.8995029881
 20
82.1534747336
 30
0.0
 11
215.0059646603
 21
82.2213716316
 31
0.0
  0
CIRCLE
  5
1CC
330
1F
100
AcDbEntity
  8
0
  6
HIDDEN
 62
     7
370
     0
100
AcDbCircle
 10
212.7246431132
 20
86.0165158578
 30
0.0
 40
2.499999999999995
  0
CIRCLE
  5
1CD
330
1F
100
AcDbEntity
  8
0
  6
HIDDEN
 62
     7
370
     0
100
AcDbCircle
 10
247.2032275124
 20
135.2016859937
 30
0.0
 40
1.809570484150192
  0
LINE
  5
1CE
330
1F
100
AcDbEntity
  8
VERMASSUNG
100
AcDbLine
 10
252.7246431132
 20
149.299534239
 30
0.0
 11
265.666909646
 21
149.299534239
 31
0.0
  0
DIMENSION
  5
1CF
330
1F
100
AcDbEntity
  8
VERMASSUNG
100
AcDbDimension
  2
_D
 10
265.666909646
 20
149.299534239
 30
0.0
 11
260.655248373
 21
140.9650890057
 31
0.0
 70
   162
  1
<>
 71
     1
 42
-1.0
  3
SLDDIMSTYLE0
100
AcDb2LineAngularDimension
 13
252.7256442543
 23
148.9081627802
 33
0.0
 14
251.9279334784
 24
133.6869344279
 34
0.0
 15
252.7246431132
 25
149.299534239
 35
0.0
 16
260.655248373
 26
140.9650890057
 36
0.0
  0
DIMENSION
  5
1D8
330
1F
100
AcDbEntity
  8
VERMASSUNG
100
AcDbDimension
  2
_D_1
 10
140.6633334625
 20
72.799534239
 30
0.0
 11
140.6633334625
 21
104.299534239
 31
0.0
 70
   160
  1
HSK T %%c<>
 71
     2
 42
-1.0
  3
SLDDIMSTYLE1
100
AcDbAlignedDimension
 13
183.0246431132
 23
135.799534239
 33
0.0
 14
183.0246431132
 24
72.799534239
 34
0.0
 50
90.0
100
AcDbRotatedDimension
  0
DIMENSION
  5
1E5
330
1F
100
AcDbEntity
  8
VERMASSUNG
100
AcDbDimension
  2
_D_2
 10
271.3490915958
 20
104.299534239
 30
0.0
 11
271.3490915958
 21
126.799534239
 31
0.0
 70
   160
  1
<>
 71
     2
 42
-1.0
  3
SLDDIMSTYLE1
100
AcDbAlignedDimension
 13
252.7246431132
 23
149.299534239
 33
0.0
 14
248.1556675129
 24
104.299534239
 34
0.0
 50
90.0
100
AcDbRotatedDimension
  0
DIMENSION
  5
1EF
330
1F
100
AcDbEntity
  8
VERMASSUNG
100
AcDbDimension
  2
_D_3
 10
182.7246431132
 20
151.7161783135
 30
0.0
 11
217.7246431132
 21
151.7161783135
 31
0.0
 70
   160
  1
<>
 71
     2
 42
-1.0
  3
SLDDIMSTYLE1
100
AcDbAlignedDimension
 13
252.7246431132
 23
149.299534239
 33
0.0
 14
182.7246431132
 24
135.499534239
 34
0.0
100
AcDbRotatedDimension
  0
DIMENSION
  5
1F9
330
1F
100
AcDbEntity
  8
VERMASSUNG
100
AcDbDimension
  2
_D_4
 10
150.8246431132
 20
157.7161783135
 30
0.0
 11
201.7746431132
 21
157.7161783135
 31
0.0
 70
   160
  1
<>
 71
     2
 42
-1.0
  3
SLDDIMSTYLE1
100
AcDbAlignedDimension
 13
252.7246431132
 23
149.299534239
 33
0.0
 14
150.8246431132
 24
123.9902119855
 34
0.0
100
AcDbRotatedDimension
  0
LINE
  5
203
330
1F
100
AcDbEntity
  8
VERMASSUNG
  6
CENTERX2
370
     0
100
AcDbLine
 10
148.0495510971
 20
104.299534239
 30
0.0
 11
248.1556675129
 21
104.299534239
 31
0.0
  0
SPLINE
  5
204
330
1F
100
AcDbEntity
  8
0
  6
Continuous
 62
     7
370
    15
100
AcDbSpline
210
0.0
220
0.0
230
1.0
 70
     8
 71
     3
 72
    11
 73
     7
 74
     0
 42
0.00000001
 43
0.00000001
 12
1.0
 22
0.0
 32
0.0
 13
1.0
 23
0.0
 33
0.0
 40
0.0
 40
0.0
 40
0.0
 40
0.0
 40
0.2014334077177776
 40
0.4362462198286124
 40
0.7038981500431866
 40
1.0
 40
1.0
 40
1.0
 40
1.0
 10
85.01883212770498
 20
148.0988079087406
 30
0.0
 10
84.70289488241211
 20
148.2109621068104
 30
0.0
 10
84.0186666279054
 20
148.4538555051807
 30
0.0
 10
82.8661624016112
 20
148.7054427748259
 30
0.0
 10
81.5512059021238
 20
148.9462271584312
 30
0.0
 10
80.64592287194866
 20
149.2039257362901
 30
0.0
 10
80.17043873437377
 20
149.3392774240642
 30
0.0
  0
LINE
  5
205
330
1F
100
AcDbEntity
  8
0
  6
Continuous
 62
     7
370
    15
100
AcDbLine
 10
80.6993366062
 20
143.8352317886
 30
0.0
 11
80.2081244839
 21
142.9844276385
 31
0.0
  0
LINE
  5
206
330
1F
100
AcDbEntity
  8
0
  6
Continuous
 62
     7
370
    15
100
AcDbLine
 10
80.2081244839
 20
127.6370306836
 30
0.0
 11
80.6993366062
 21
126.7862246709
 31
0.0
  0
LINE
  5
207
330
1F
100
AcDbEntity
  8
0
  6
Continuous
 62
     7
370
    15
100
AcDbLine
 10
80.1704387344
 20
121.2821827607
 30
0.0
 11
80.5081244983
 21
121.3733126746
 31
0.0
  0
LINE
  5
208
330
1F
100
AcDbEntity
  8
0
  6
Continuous
 62
     7
370
    15
100
AcDbLine
 10
106.7081241712
 20
121.2995351629
 30
0.0
 11
106.7081241712
 21
110.2995342912
 31
0.0
  0
LINE
  5
209
330
1F
100
AcDbEntity
  8
0
  6
Continuous
 62
     7
370
    15
100
AcDbLine
 10
106.7081241712
 20
110.2995342912
 30
0.0
 11
80.5081244983
 21
110.2995342912
 31
0.0
  0
LINE
  5
20A
330
1F
100
AcDbEntity
  8
0
  6
Continuous
 62
     7
370
    15
100
AcDbLine
 10
80.5081244983
 20
133.2986933516
 30
0.0
 11
80.5081244983
 21
110.2995342912
 31
0.0
  0
LINE
  5
20B
330
1F
100
AcDbEntity
  8
0
  6
Continuous
 62
     7
370
    15
100
AcDbLine
 10
80.5081244983
 20
133.2986933516
 30
0.0
 11
82.4681244634
 21
133.3875173108
 31
0.0
  0
LINE
  5
20C
330
1F
100
AcDbEntity
  8
0
  6
Continuous
 62
     7
370
    15
100
AcDbLine
 10
82.4681244634
 20
133.3875173108
 30
0.0
 11
84.9681244075
 21
132.9663751052
 31
0.0
  0
LINE
  5
20D
330
1F
100
AcDbEntity
  8
0
  6
Continuous
 62
     7
370
    15
100
AcDbLine
 10
84.9681244075
 20
132.9663751052
 30
0.0
 11
84.9681244075
 21
133.5008108394
 31
0.0
  0
LINE
  5
20E
330
1F
100
AcDbEntity
  8
0
  6
Continuous
 62
     7
370
    15
100
AcDbLine
 10
94.8543947964
 20
143.3842965738
 30
0.0
 11
84.9681244075
 21
147.1631453709
 31
0.0
  0
ARC
  5
20F
330
1F
100
AcDbEntity
  8
0
  6
Continuous
 62
     7
370
    15
100
AcDbCircle
 10
80.2081244841
 20
121.299534239
 30
0.0
 40
26.50000000000002
100
AcDbArc
 50
0.0
 51
56.4482845976
  0
LINE
  5
210
330
1F
100
AcDbEntity
  8
0
  6
Continuous
 62
     7
370
    15
100
AcDbLine
 10
84.9681244075
 20
147.276047744
 30
0.0
 11
94.4321061328
 21
143.6586120503
 31
0.0
  0
ARC
  5
211
330
1F
100
AcDbEntity
  8
0
  6
Continuous
 62
     7
370
    15
100
AcDbCircle
 10
80.2081244841
 20
121.299534239
 30
0.0
 40
26.50000000000002
100
AcDbArc
 50
56.4482845976
 51
57.5370573306
  0
ARC
  5
212
330
1F
100
AcDbEntity
  8
0
  6
Continuous
 62
     7
370
    15
100
AcDbCircle
 10
80.2081244841
 20
104.299534239
 30
0.0
 40
26.50000000000002
100
AcDbArc
 50
270.6486453217
 51
0.0
  0
LINE
  5
213
330
1F
100
AcDbEntity
  8
0
  6
Continuous
 62
     7
370
    15
100
AcDbLine
 10
106.7081241712
 20
110.2995342912
 30
0.0
 11
106.7081241712
 21
104.299534239
 31
0.0
  0
LINE
  5
214
330
1F
100
AcDbEntity
  8
0
  6
Continuous
 62
     7
370
    15
100
AcDbLine
 10
80.5081244983
 20
110.2995342912
 30
0.0
 11
80.5081244983
 21
77.8012332843
 31
0.0
  0
SPLINE
  5
215
330
1F
100
AcDbEntity
  8
0
  6
Continuous
 62
     7
370
    15
100
AcDbSpline
210
0.0
220
0.0
230
1.0
 70
     8
 71
     3
 72
    20
 73
    16
 74
     0
 42
0.00000001
 43
0.00000001
 12
1.0
 22
0.0
 32
0.0
 13
1.0
 23
0.0
 33
0.0
 40
0.0
 40
0.0
 40
0.0
 40
0.0
 40
0.2500000000000012
 40
0.2500000000000012
 40
0.375000000000001
 40
0.375000000000001
 40
0.5000000000000009
 40
0.5000000000000009
 40
0.6250000000000007
 40
0.6250000000000007
 40
0.7500000000000004
 40
0.7500000000000004
 40
0.8750000000000003
 40
0.8750000000000003
 40
1.0
 40
1.0
 40
1.0
 40
1.0
 10
76.06103875469218
 20
78.63240194978502
 30
0.0
 10
76.66256848968264
 20
78.53521168514351
 30
0.0
 10
77.22740997867993
 20
78.46554080647326
 30
0.0
 10
78.0174164005957
 20
78.390640650103
 30
0.0
 10
78.26712540096727
 20
78.37104595711307
 30
0.0
 10
78.73080093601992
 20
78.34049925772739
 30
0.0
 10
78.94629893192896
 20
78.32941017666506
 30
0.0
 10
79.34369755671787
 20
78.31314715606025
 30
0.0
 10
79.52438524893313
 20
78.30804844051148
 30
0.0
 10
79.83949275265513
 20
78.30167001900504
 30
0.0
 10
79.975683872798
 20
78.30032088946616
 30
0.0
 10
80.20479662804661
 20
78.29928207949729
 30
0.0
 10
80.29754336759956
 20
78.29959953186946
 30
0.0
 10
80.43319504794083
 20
78.30041995114274
 30
0.0
 10
80.47712574126224
 20
78.30091853334439
 30
0.0
 10
80.49662551029098
 20
78.30113491987291
 30
0.0
  0
SPLINE
  5
216
330
1F
100
AcDbEntity
  8
0
  6
Continuous
 62
     7
370
    15
100
AcDbSpline
210
0.0
220
0.0
230
1.0
 70
     8
 71
     3
 72
    13
 73
     9
 74
     0
 42
0.00000001
 43
0.00000001
 12
1.0
 22
0.0
 32
0.0
 13
1.0
 23
0.0
 33
0.0
 40
0.0
 40
0.0
 40
0.0
 40
0.0
 40
0.092177320480323
 40
0.2599772999957694
 40
0.4277715926575906
 40
0.5950821988955787
 40
0.7623857758976995
 40
1.0
 40
1.0
 40
1.0
 40
1.0
 10
80.20812448390578
 20
130.2991343067556
 30
0.0
 10
80.15546213577355
 20
130.2992322637197
 30
0.0
 10
80.00693302896597
 20
130.2995085419509
 30
0.0
 10
79.5850009481463
 20
130.2939469253715
 30
0.0
 10
78.97744905988155
 20
130.273530693835
 30
0.0
 10
78.23345487873735
 20
130.227754945099
 30
0.0
 10
77.2769489820714
 20
130.1437637508418
 30
0.0
 10
76.51069342474666
 20
130.0321590301915
 30
0.0
 10
76.06103865723288
 20
129.9666670487791
 30
0.0
  0
ELLIPSE
  5
217
330
1F
100
AcDbEntity
  8
0
  6
Continuous
 62
     7
370
    15
100
AcDbEllipse
 10
73.1278433517
 20
120.7991647848
 30
0.0
 11
1.499497772774674
 21
3.184873685676123
 31
0.0
210
0.0
220
0.0
230
1.0
 40
0.6906834449
 41
0.0
 42
6.283185307179586
  0
ARC
  5
218
330
1F
100
AcDbEntity
  8
0
  6
Continuous
 62
     7
370
    15
100
AcDbCircle
 10
80.2081244841
 20
104.299534239
 30
0.0
 40
26.0
100
AcDbArc
 50
99.1780670049
 51
260.8219329951
  0
SPLINE
  5
219
330
1F
100
AcDbEntity
  8
0
  6
Continuous
 62
     7
370
    15
100
AcDbSpline
210
0.0
220
0.0
230
1.0
 70
     8
 71
     3
 72
    18
 73
    14
 74
     0
 42
0.00000001
 43
0.00000001
 12
1.0
 22
0.0
 32
0.0
 13
1.0
 23
0.0
 33
0.0
 40
0.0
 40
0.0
 40
0.0
 40
0.0
 40
0.0308248489282434
 40
0.0616821859022435
 40
0.1341097651934315
 40
0.2834760736201787
 40
0.4363875652016878
 40
0.5930433686926927
 40
0.7115220076365923
 40
0.7905178109796734
 40
0.8701639019135383
 40
0.9379719038139407
 40
1.0
 40
1.0
 40
1.0
 40
1.0
 10
73.56391556854523
 20
118.149380326417
 30
0.0
 10
73.59720832203121
 20
118.1738125714869
 30
0.0
 10
73.66382891811261
 20
118.2227028121468
 30
0.0
 10
73.70342095729349
 20
118.4152721602323
 30
0.0
 10
73.60734897060662
 20
118.8509160139291
 30
0.0
 10
73.33407116082455
 20
119.4804376434059
 30
0.0
 10
72.89475851509185
 20
120.1685303274172
 30
0.0
 10
72.37636044726983
 20
120.6834257212381
 30
0.0
 10
71.8501964038854
 20
120.9287409275435
 30
0.0
 10
71.38671851332874
 20
120.9287415867442
 30
0.0
 10
71.00772205044503
 20
120.7417700549131
 30
0.0
 10
70.70248533553792
 20
120.4280459944696
 30
0.0
 10
70.57893577337342
 20
120.1685437024667
 30
0.0
 10
70.5199110164789
 20
120.0445686803728
 30
0.0
  0
ARC
  5
21A
330
1F
100
AcDbEntity
  8
0
  6
Continuous
 62
     7
370
    15
100
AcDbCircle
 10
72.1452682919
 20
115.6891232174
 30
0.0
 40
2.839969214309745
100
AcDbArc
 50
53.0883158766
 51
60.0311493501
  0
LINE
  5
21B
330
1F
100
AcDbEntity
  8
0
  6
Continuous
 62
     7
370
    15
100
AcDbLine
 10
73.762942928
 20
117.9605472238
 30
0.0
 11
73.5639155685
 21
118.1493803264
 31
0.0
  0
SPLINE
  5
21C
330
1F
100
AcDbEntity
  8
0
  6
Continuous
 62
     7
370
    15
100
AcDbSpline
210
0.0
220
0.0
230
1.0
 70
    24
 71
     3
 72
    10
 73
     6
 74
     0
 42
0.00000001
 43
0.00000001
 12
1.0
 22
0.0
 32
0.0
 13
1.0
 23
0.0
 33
0.0
 40
0.0
 40
0.0
 40
0.0
 40
0.0
 40
0.5
 40
0.5
 40
1.0
 40
1.0
 40
1.0
 40
1.0
 10
80.20812448407686
 20
130.6995342390209
 30
0.0
 10
79.2639068905482
 20
130.6995342390209
 30
0.0
 10
78.32076909742898
 20
130.6995342390209
 30
0.0
 10
76.43507446837737
 20
130.6995342390209
 30
0.0
 10
75.49242431831237
 20
130.6995342390209
 30
0.0
 10
74.5477358048429
 20
130.6995342390209
 30
0.0
  0
SPLINE
  5
21D
330
1F
100
AcDbEntity
  8
0
  6
Continuous
 62
     7
370
    15
100
AcDbSpline
210
0.0
220
0.0
230
1.0
 70
    24
 71
     3
 72
     9
 73
     5
 74
     0
 42
0.00000001
 43
0.00000001
 12
1.0
 22
0.0
 32
0.0
 13
1.0
 23
0.0
 33
0.0
 40
0.0
 40
0.0
 40
0.0
 40
0.0
 40
0.742919697141969
 40
1.0
 40
1.0
 40
1.0
 40
1.0
 10
85.86851310278452
 20
77.89953438207202
 30
0.0
 10
84.92517034971421
 20
77.89953438207202
 30
0.0
 10
83.65539279946297
 20
77.89953438207202
 30
0.0
 10
82.38531439540739
 20
77.89953438207202
 30
0.0
 10
82.05880225463933
 20
77.89953438207202
 30
0.0
  0
SPLINE
  5
21E
330
1F
100
AcDbEntity
  8
0
  6
Continuous
 62
     7
370
    15
100
AcDbSpline
210
0.0
220
0.0
230
1.0
 70
    24
 71
     3
 72
    10
 73
     6
 74
     0
 42
0.00000001
 43
0.00000001
 12
1.0
 22
0.0
 32
0.0
 13
1.0
 23
0.0
 33
0.0
 40
0.0
 40
0.0
 40
0.0
 40
0.0
 40
0.0503274356820612
 40
0.3857712687057358
 40
1.0
 40
1.0
 40
1.0
 40
1.0
 10
80.5081244983261
 20
77.89953438207202
 30
0.0
 10
80.40812663105231
 20
77.89953438207202
 30
0.0
 10
79.64162017978427
 20
77.899534382072
 30
0.0
 10
77.65369811223806
 20
77.89953438207203
 30
0.0
 10
75.76761544197339
 20
77.89953438207203
 30
0.0
 10
74.5477358653692
 20
77.89953438207202
 30
0.0
  0
SPLINE
  5
21F
330
1F
100
AcDbEntity
  8
0
  6
Continuous
 62
     7
370
    15
100
AcDbSpline
210
0.0
220
0.0
230
1.0
 70
    24
 71
     3
 72
    10
 73
     6
 74
     0
 42
0.00000001
 43
0.00000001
 12
1.0
 22
0.0
 32
0.0
 13
1.0
 23
0.0
 33
0.0
 40
0.0
 40
0.0
 40
0.0
 40
0.0
 40
0.5
 40
0.5
 40
1.0
 40
1.0
 40
1.0
 40
1.0
 10
71.20812448407686
 20
74.73925683842805
 30
0.0
 10
71.20812448407686
 20
74.57936957023439
 30
0.0
 10
71.20812448407686
 20
74.4182423147198
 30
0.0
 10
71.20812448407686
 20
74.18414331636495
 30
0.0
 10
71.20812448407686
 20
74.11261654277374
 30
0.0
 10
71.20812448407686
 20
74.11261654277374
 30
0.0
  0
ARC
  5
220
330
1F
100
AcDbEntity
  8
0
  6
Continuous
 62
     7
370
    15
100
AcDbCircle
 10
80.2081244841
 20
104.299534239
 30
0.0
 40
31.49999999999999
100
AcDbArc
 50
140.9381656697
 51
253.398450401
  0
SPLINE
  5
221
330
1F
100
AcDbEntity
  8
0
  6
Continuous
 62
     7
370
    15
100
AcDbSpline
210
0.0
220
0.0
230
1.0
 70
    24
 71
     3
 72
    12
 73
     8
 74
     0
 42
0.00000001
 43
0.00000001
 12
1.0
 22
0.0
 32
0.0
 13
1.0
 23
0.0
 33
0.0
 40
0.0
 40
0.0
 40
0.0
 40
0.0
 40
0.2500000000000006
 40
0.2500000000000006
 40
0.5000000000000012
 40
0.5000000000000012
 40
1.0
 40
1.0
 40
1.0
 40
1.0
 10
55.74943482170925
 20
124.1495342390209
 30
0.0
 10
55.74943482170924
 20
124.1495342390209
 30
0.0
 10
55.77726454201273
 20
124.1495342390209
 30
0.0
 10
55.87240700326939
 20
124.1495342390209
 30
0.0
 10
55.93882981956976
 20
124.1495342390209
 30
0.0
 10
56.16302925108989
 20
124.1495342390209
 30
0.0
 10
56.34701565363551
 20
124.1495342390209
 30
0.0
 10
56.52717222281848
 20
124.1495342390209
 30
0.0
  0
SPLINE
  5
222
330
1F
100
AcDbEntity
  8
0
  6
Continuous
 62
     7
370
    15
100
AcDbSpline
210
0.0
220
0.0
230
1.0
 70
    24
 71
     3
 72
    10
 73
     6
 74
     0
 42
0.00000001
 43
0.00000001
 12
1.0
 22
0.0
 32
0.0
 13
1.0
 23
0.0
 33
0.0
 40
0.0
 40
0.0
 40
0.0
 40
0.0
 40
0.5
 40
0.5
 40
1.0
 40
1.0
 40
1.0
 40
1.0
 10
72.20812448407686
 20
134.1459745627848
 30
0.0
 10
72.20812448407686
 20
134.3063798291356
 30
0.0
 10
72.20812448407686
 20
134.4654416421241
 30
0.0
 10
72.20812448407686
 20
134.6963541077545
 30
0.0
 10
72.20812448407686
 20
134.7667297121851
 30
0.0
 10
72.20812448407686
 20
134.7667297121851
 30
0.0
  0
SPLINE
  5
223
330
1F
100
AcDbEntity
  8
0
  6
Continuous
 62
     7
370
    15
100
AcDbSpline
210
0.0
220
0.0
230
1.0
 70
    24
 71
     3
 72
    12
 73
     8
 74
     0
 42
0.00000001
 43
0.00000001
 12
1.0
 22
0.0
 32
0.0
 13
1.0
 23
0.0
 33
0.0
 40
0.0
 40
0.0
 40
0.0
 40
0.0
 40
0.249999999999998
 40
0.249999999999998
 40
0.499999999999996
 40
0.499999999999996
 40
1.0
 40
1.0
 40
1.0
 40
1.0
 10
60.35812448407686
 20
128.7582239013883
 30
0.0
 10
60.35812448407686
 20
128.7582239013883
 30
0.0
 10
60.35812448407685
 20
128.7300042028004
 30
0.0
 10
60.35812448407686
 20
128.6355611955523
 30
0.0
 10
60.35812448407685
 20
128.569274218847
 30
0.0
 10
60.35812448407685
 20
128.3436493955587
 30
0.0
 10
60.35812448407685
 20
128.1612231325261
 30
0.0
 10
60.35812448407686
 20
127.9804865002792
 30
0.0
  0
ARC
  5
224
330
1F
100
AcDbEntity
  8
0
  6
Continuous
 62
     7
370
    15
100
AcDbCircle
 10
80.2081244841
 20
104.299534239
 30
0.0
 40
31.49999999999999
100
AcDbArc
 50
104.7124579609
 51
129.0618343303
  0
ARC
  5
225
330
1F
100
AcDbEntity
  8
0
  6
Continuous
 62
     7
370
    15
100
AcDbCircle
 10
80.2081244841
 20
104.299534239
 30
0.0
 40
31.49999999999999
100
AcDbArc
 50
286.601549599
 51
32.7255992735
  0
SPLINE
  5
226
330
1F
100
AcDbEntity
  8
0
  6
Continuous
 62
     7
370
    15
100
AcDbSpline
210
0.0
220
0.0
230
1.0
 70
    24
 71
     3
 72
    12
 73
     8
 74
     0
 42
0.00000001
 43
0.00000001
 12
1.0
 22
0.0
 32
0.0
 13
1.0
 23
0.0
 33
0.0
 40
0.0
 40
0.0
 40
0.0
 40
0.0
 40
0.2499999999999999
 40
0.2499999999999999
 40
0.4999999999999998
 40
0.4999999999999998
 40
1.0
 40
1.0
 40
1.0
 40
1.0
 10
89.20812448407686
 20
74.11261654277374
 30
0.0
 10
89.20812448407686
 20
74.11261654277372
 30
0.0
 10
89.20812448407686
 20
74.12973362903958
 30
0.0
 10
89.20812448407686
 20
74.19446974051469
 30
0.0
 10
89.20812448407686
 20
74.24192698339502
 30
0.0
 10
89.20812448407686
 20
74.4187514259345
 30
0.0
 10
89.20812448407686
 20
74.57902793314021
 30
0.0
 10
89.20812448407686
 20
74.73925683842798
 30
0.0
  0
LINE
  5
227
330
1F
100
AcDbEntity
  8
0
  6
Continuous
 62
     7
370
    15
100
AcDbLine
 10
89.2081240966
 20
74.7392570005
 30
0.0
 11
89.2081240966
 21
77.8995343821
 31
0.0
  0
LINE
  5
228
330
1F
100
AcDbEntity
  8
0
  6
Continuous
 62
     7
370
    15
100
AcDbLine
 10
89.2081240966
 20
77.8995343821
 30
0.0
 11
85.8685131028
 21
77.8995343821
 31
0.0
  0
LINE
  5
229
330
1F
100
AcDbEntity
  8
0
  6
Continuous
 62
     7
370
    15
100
AcDbLine
 10
72.2081241041
 20
130.699534096
 30
0.0
 11
72.2081241041
 21
134.1459752397
 31
0.0
  0
LINE
  5
22A
330
1F
100
AcDbEntity
  8
0
  6
Continuous
 62
     7
370
    15
100
AcDbLine
 10
71.2081248715
 20
77.8995343821
 30
0.0
 11
71.2081248715
 21
74.7392570005
 31
0.0
  0
LINE
  5
22B
330
1F
100
AcDbEntity
  8
0
  6
Continuous
 62
     7
370
    15
100
AcDbLine
 10
60.358123745
 20
127.9804856853
 30
0.0
 11
60.358123745
 21
124.1495349781
 31
0.0
  0
LINE
  5
22C
330
1F
100
AcDbEntity
  8
0
  6
Continuous
 62
     7
370
    15
100
AcDbLine
 10
56.5271730378
 20
124.1495349781
 30
0.0
 11
60.358123745
 21
124.1495349781
 31
0.0
  0
LINE
  5
22D
330
1F
100
AcDbEntity
  8
0
  6
Continuous
 62
     7
370
    15
100
AcDbLine
 10
74.5477358654
 20
130.699534096
 30
0.0
 11
72.2081241041
 21
130.699534096
 31
0.0
  0
LINE
  5
22E
330
1F
100
AcDbEntity
  8
0
  6
Continuous
 62
     7
370
    15
100
AcDbLine
 10
74.5477358654
 20
77.8995343821
 30
0.0
 11
71.2081248715
 21
77.8995343821
 31
0.0
  0
SPLINE
  5
22F
330
1F
100
AcDbEntity
  8
0
  6
Continuous
 62
     7
370
    15
100
AcDbSpline
210
0.0
220
0.0
230
1.0
 70
     8
 71
     3
 72
    30
 73
    26
 74
     0
 42
0.00000001
 43
0.00000001
 12
1.0
 22
0.0
 32
0.0
 13
1.0
 23
0.0
 33
0.0
 40
0.0
 40
0.0
 40
0.0
 40
0.0
 40
0.1250000000000002
 40
0.1250000000000002
 40
0.1875000000000002
 40
0.1875000000000002
 40
0.2500000000000003
 40
0.2500000000000003
 40
0.3750000000000004
 40
0.3750000000000004
 40
0.4375000000000004
 40
0.4375000000000004
 40
0.5000000000000004
 40
0.5000000000000004
 40
0.6250000000000004
 40
0.6250000000000004
 40
0.6875000000000003
 40
0.6875000000000003
 40
0.7500000000000002
 40
0.7500000000000002
 40
0.8125000000000001
 40
0.8125000000000001
 40
0.8749999999999999
 40
0.8749999999999999
 40
1.0
 40
1.0
 40
1.0
 40
1.0
 10
81.20812448407686
 20
72.81541125615857
 30
0.0
 10
81.73954241447746
 20
72.83229017416717
 30
0.0
 10
82.26120161205162
 20
72.86230773899186
 30
0.0
 10
83.02984339921066
 20
72.92511812826497
 30
0.0
 10
83.28373319837567
 20
72.94902203549186
 30
0.0
 10
83.78680597432175
 20
73.00245732793425
 30
0.0
 10
84.0362698225384
 20
73.03206419610181
 30
0.0
 10
84.76118072013526
 20
73.12651389481623
 30
0.0
 10
85.21905805702744
 20
73.19754128864544
 30
0.0
 10
85.86882528251029
 20
73.31155557535122
 30
0.0
 10
86.08021198592046
 20
73.3510108264918
 30
0.0
 10
86.48484579669062
 20
73.43053226926247
 30
0.0
 10
86.67758626819183
 20
73.47046841176325
 30
0.0
 10
87.22801714456877
 20
73.58940481459139
 30
0.0
 10
87.55820052184939
 20
73.66756957847525
 30
0.0
 10
87.99687633849982
 20
73.77727901874414
 30
0.0
 10
88.13267489698634
 20
73.81235985545256
 30
0.0
 10
88.37955192983252
 20
73.87760013483216
 30
0.0
 10
88.49133046716052
 20
73.9079349508769
 30
0.0
 10
88.69176065703412
 20
73.96327333009874
 30
0.0
 10
88.78041300023763
 20
73.98827800665883
 30
0.0
 10
88.93408054791874
 20
74.03215781554951
 30
0.0
 10
88.99932825217059
 20
74.05110150031182
 30
0.0
 10
89.15563330553486
 20
74.09682122758201
 30
0.0
 10
89.20812448407686
 20
74.11261654277374
 30
0.0
 10
89.20812448407686
 20
74.11261654277374
 30
0.0
  0
SPLINE
  5
230
330
1F
100
AcDbEntity
  8
0
  6
Continuous
 62
     7
370
    15
100
AcDbSpline
210
0.0
220
0.0
230
1.0
 70
     8
 71
     3
 72
    28
 73
    24
 74
     0
 42
0.00000001
 43
0.00000001
 12
1.0
 22
0.0
 32
0.0
 13
1.0
 23
0.0
 33
0.0
 40
0.0
 40
0.0
 40
0.0
 40
0.0
 40
0.1250000000000001
 40
0.1250000000000001
 40
0.1875000000000001
 40
0.1875000000000001
 40
0.2500000000000001
 40
0.2500000000000001
 40
0.375
 40
0.375
 40
0.4375000000000001
 40
0.4375000000000001
 40
0.5
 40
0.5
 40
0.625
 40
0.625
 40
0.7499999999999999
 40
0.7499999999999999
 40
0.8124999999999999
 40
0.8124999999999999
 40
0.875
 40
0.875
 40
1.0
 40
1.0
 40
1.0
 40
1.0
 10
71.20812448407686
 20
74.11261654277374
 30
0.0
 10
71.20812448407686
 20
74.11261654277374
 30
0.0
 10
71.26060082639508
 20
74.09683182882351
 30
0.0
 10
71.41439777395198
 20
74.0518364147473
 30
0.0
 10
71.47827274898599
 20
74.03328141967158
 30
0.0
 10
71.63176901764251
 20
73.98942869722508
 30
0.0
 10
71.7215839930362
 20
73.96408409027289
 30
0.0
 10
72.02356278808706
 20
73.88068201252278
 30
0.0
 10
72.26951622214283
 20
73.81481645337168
 30
0.0
 10
72.70488340157121
 20
73.7058461128799
 30
0.0
 10
72.86209858374356
 20
73.66760647711325
 30
0.0
 10
73.194263204286
 20
73.58984773969391
 30
0.0
 10
73.36907046988888
 20
73.55034677751856
 30
0.0
 10
73.91912966047471
 20
73.43143903515255
 30
0.0
 10
74.31975304487018
 20
73.35162135372794
 30
0.0
 10
75.19233915621888
 20
73.19827819193186
 30
0.0
 10
75.65247460382047
 20
73.1269444386626
 30
0.0
 10
76.37244069778663
 20
73.03300093158799
 30
0.0
 10
76.61771440782117
 20
73.00380713822807
 30
0.0
 10
77.11917074425
 20
72.95034056396466
 30
0.0
 10
77.37660211362251
 20
72.92598122968948
 30
0.0
 10
78.15254190948701
 20
72.86239108424475
 30
0.0
 10
78.67677030939305
 20
72.83228814915549
 30
0.0
 10
79.20812448407686
 20
72.81541125615857
 30
0.0
  0
SPLINE
  5
231
330
1F
100
AcDbEntity
  8
0
  6
Continuous
 62
     7
370
    15
100
AcDbSpline
210
0.0
220
0.0
230
1.0
 70
     8
 71
     3
 72
    17
 73
    13
 74
     0
 42
0.00000001
 43
0.00000001
 12
1.0
 22
0.0
 32
0.0
 13
1.0
 23
0.0
 33
0.0
 40
0.0
 40
0.0
 40
0.0
 40
0.0
 40
0.1050066002817086
 40
0.2100232182983962
 40
0.3149234702616523
 40
0.4198373087852114
 40
0.5269024239821591
 40
0.6339644757412017
 40
0.7425768844306437
 40
0.8511728087951212
 40
0.9574949644356824
 40
1.0
 40
1.0
 40
1.0
 40
1.0
 10
72.20812410409725
 20
134.7667296753793
 30
0.0
 10
72.22976619053348
 20
134.7725501748677
 30
0.0
 10
72.27305242808268
 20
134.7841917291259
 30
0.0
 10
72.6097526750027
 20
134.8703553785807
 30
0.0
 10
73.13970602745911
 20
134.9985213779042
 30
0.0
 10
73.86414689807633
 20
135.1578703959067
 30
0.0
 10
74.76945160103261
 20
135.3316592397017
 30
0.0
 10
75.83604701366042
 20
135.5017565792292
 30
0.0
 10
77.0376783065194
 20
135.6480684153251
 30
0.0
 10
78.32951171007
 20
135.7508819168192
 30
0.0
 10
79.40389953565123
 20
135.7997998583191
 30
0.0
 10
80.02946346793362
 20
135.7940851026334
 30
0.0
 10
80.20812448393582
 20
135.792452968803
 30
0.0
  0
SPLINE
  5
232
330
1F
100
AcDbEntity
  8
0
  6
Continuous
 62
     7
370
    15
100
AcDbSpline
210
0.0
220
0.0
230
1.0
 70
     8
 71
     3
 72
    20
 73
    16
 74
     0
 42
0.00000001
 43
0.00000001
 12
1.0
 22
0.0
 32
0.0
 13
1.0
 23
0.0
 33
0.0
 40
0.0
 40
0.0
 40
0.0
 40
0.0
 40
0.2500000000000005
 40
0.2500000000000005
 40
0.3750000000000004
 40
0.3750000000000004
 40
0.5000000000000003
 40
0.5000000000000003
 40
0.6250000000000002
 40
0.6250000000000002
 40
0.7500000000000001
 40
0.7500000000000001
 40
0.8750000000000001
 40
0.8750000000000001
 40
1.0
 40
1.0
 40
1.0
 40
1.0
 10
55.74943482170945
 20
124.1495342390209
 30
0.0
 10
56.28009158954413
 20
124.8033966673183
 30
0.0
 10
56.81381958580564
 20
125.4071824493154
 30
0.0
 10
57.59679190379438
 20
126.234021185484
 30
0.0
 10
57.85477550389106
 20
126.4964498234369
 30
0.0
 10
58.35917076029889
 20
126.9931124775419
 30
0.0
 10
58.60194918272689
 20
127.2236993565634
 30
0.0
 10
59.05262926223996
 20
127.6402535811461
 30
0.0
 10
59.26209312823124
 20
127.8277513831136
 30
0.0
 10
59.64038164481928
 20
128.15914836075
 30
0.0
 10
59.80412933100375
 20
128.2986523482452
 30
0.0
 10
60.0723151332032
 20
128.5241058557162
 30
0.0
 10
60.17753954128996
 20
128.6107319672598
 30
0.0
 10
60.32159876660347
 20
128.728712756114
 30
0.0
 10
60.35812448407686
 20
128.7582239013883
 30
0.0
 10
60.35812448407686
 20
128.7582239013883
 30
0.0
  0
ARC
  5
233
330
1F
100
AcDbEntity
  8
0
  6
Continuous
 62
     7
370
    15
100
AcDbCircle
 10
80.2081244841
 20
104.299534239
 30
0.0
 40
31.49999999999997
100
AcDbArc
 50
268.180780706
 51
271.819219294
  0
SPLINE
  5
234
330
1F
100
AcDbEntity
  8
0
  6
Continuous
 62
     7
370
    15
100
AcDbSpline
210
0.0
220
0.0
230
1.0
 70
    24
 71
     3
 72
    12
 73
     8
 74
     0
 42
0.00000001
 43
0.00000001
 12
1.0
 22
0.0
 32
0.0
 13
1.0
 23
0.0
 33
0.0
 40
0.0
 40
0.0
 40
0.0
 40
0.0
 40
0.2215630423184491
 40
0.4423621328294857
 40
0.6544682909107346
 40
0.8572074437693129
 40
1.0
 40
1.0
 40
1.0
 40
1.0
 10
80.20812448407635
 20
148.9081644789844
 30
0.0
 10
80.20812448407621
 20
148.9553896520279
 30
0.0
 10
80.2081244840759
 20
149.0496771651986
 30
0.0
 10
80.20812448407814
 20
149.1768767779436
 30
0.0
 10
80.20812448407005
 20
149.2700250115342
 30
0.0
 10
80.20812448407433
 20
149.321693575277
 30
0.0
 10
80.20812448407534
 20
149.3221894754296
 30
0.0
 10
80.20812448407575
 20
149.3223944084316
 30
0.0
  0
LINE
  5
235
330
1F
100
AcDbEntity
  8
0
  6
Continuous
 62
     7
370
    15
100
AcDbLine
 10
84.9681244075
 20
133.8077915238
 30
0.0
 11
84.9681244075
 21
148.0106116609
 31
0.0
  0
LINE
  5
236
330
1F
100
AcDbEntity
  8
0
  6
Continuous
 62
     7
370
    15
100
AcDbLine
 10
80.2081244841
 20
133.6869337933
 30
0.0
 11
80.2081244841
 21
148.908164479
 31
0.0
  0
LINE
  5
237
330
1F
100
AcDbEntity
  8
0
  6
Continuous
 62
     7
370
    15
100
AcDbLine
 10
80.5617143127
 20
141.8902241962
 30
0.0
 11
80.56146466
 21
141.8912039475
 31
0.0
  0
SPLINE
  5
238
330
1F
100
AcDbEntity
  8
0
  6
Continuous
 62
     7
370
    15
100
AcDbSpline
210
0.0
220
0.0
230
1.0
 70
    24
 71
     3
 72
    10
 73
     6
 74
     0
 42
0.00000001
 43
0.00000001
 12
1.0
 22
0.0
 32
0.0
 13
1.0
 23
0.0
 33
0.0
 40
0.0
 40
0.0
 40
0.0
 40
0.0
 40
0.4164779768264723
 40
0.7035576943411863
 40
1.0
 40
1.0
 40
1.0
 40
1.0
 10
84.9681244074849
 20
133.8077915237814
 30
0.0
 10
84.9681244074849
 20
133.7994202887884
 30
0.0
 10
84.9681244074849
 20
133.7852787324082
 30
0.0
 10
84.9681244074849
 20
133.7664616720465
 30
0.0
 10
84.9681244074849
 20
133.7567913716743
 30
0.0
 10
84.9681244074849
 20
133.7518786416917
 30
0.0
  0
SPLINE
  5
239
330
1F
100
AcDbEntity
  8
0
  6
Continuous
 62
     7
370
    15
100
AcDbSpline
210
0.0
220
0.0
230
1.0
 70
    24
 71
     3
 72
    10
 73
     6
 74
     0
 42
0.00000001
 43
0.00000001
 12
1.0
 22
0.0
 32
0.0
 13
1.0
 23
0.0
 33
0.0
 40
0.0
 40
0.0
 40
0.0
 40
0.0
 40
0.2724906343330186
 40
0.5447645748624433
 40
1.0
 40
1.0
 40
1.0
 40
1.0
 10
80.20812448407636
 20
133.4632841275602
 30
0.0
 10
80.20812448407636
 20
133.4812843522529
 30
0.0
 10
80.20812448407635
 20
133.5172704872486
 30
0.0
 10
80.20812448407635
 20
133.5918097595221
 30
0.0
 10
80.20812448407635
 20
133.6503207975687
 30
0.0
 10
80.20812448407636
 20
133.6869337932735
 30
0.0
  0
LINE
  5
23A
330
1F
100
AcDbEntity
  8
0
  6
Continuous
 62
     7
370
    15
100
AcDbLine
 10
84.9681244075
 20
133.5008108394
 30
0.0
 11
84.9681244075
 21
133.7518786417
 31
0.0
  0
LINE
  5
23B
330
1F
100
AcDbEntity
  8
0
  6
Continuous
 62
     7
370
    15
100
AcDbLine
 10
80.2081244841
 20
121.4523316698
 30
0.0
 11
80.2081244841
 21
133.4632841276
 31
0.0
  0
SPLINE
  5
23C
330
1F
100
AcDbEntity
  8
0
  6
Continuous
 62
     7
370
    15
100
AcDbSpline
210
0.0
220
0.0
230
1.0
 70
    24
 71
     3
 72
    11
 73
     7
 74
     0
 42
0.00000001
 43
0.00000001
 12
1.0
 22
0.0
 32
0.0
 13
1.0
 23
0.0
 33
0.0
 40
0.0
 40
0.0
 40
0.0
 40
0.0
 40
0.0969199462790876
 40
0.4486927065010933
 40
0.8136451592458418
 40
1.0
 40
1.0
 40
1.0
 40
1.0
 10
80.20812448407584
 20
121.2990601883798
 30
0.0
 10
80.20812448407607
 20
121.2979155851036
 30
0.0
 10
80.20812448407708
 20
121.2926166227992
 30
0.0
 10
80.20812448407617
 20
121.3263349056247
 30
0.0
 10
80.20812448407646
 20
121.3846892366827
 30
0.0
 10
80.20812448407644
 20
121.4352432301466
 30
0.0
 10
80.20812448407644
 20
121.4523316697746
 30
0.0
  0
CIRCLE
  5
23D
330
1F
100
AcDbEntity
  8
VERMASSUNG
  6
CENTERX2
100
AcDbCircle
 10
80.2081244841
 20
109.3266183103
 30
0.0
 40
39.99999999999999
  0
POINT
  5
23E
330
1F
100
AcDbEntity
  8
VERMASSUNG
100
AcDbPoint
 10
80.2081244841
 20
149.3266183103
 30
0.0
  0
DIMENSION
  5
23F
330
1F
100
AcDbEntity
  8
VERMASSUNG
100
AcDbDimension
  2
_D_5
 10
94.6867262589
 20
72.0389515739
 30
0.0
 11
62.1808618317
 21
155.7534135264
 31
0.0
 70
   163
  1
<> min. 
 71
     1
 42
-1.0
  3
SLDDIMSTYLE2
100
AcDbDiametricDimension
 15
65.7295227092
 25
146.6142850467
 35
0.0
 40
0.0
  0
INSERT
  5
254
330
1F
100
AcDbEntity
  8
VERMASSUNG
100
AcDbBlockReference
  2
SW_CENTERMARKSYMBOL_0
 10
80.2081244841
 20
104.299534239
 30
0.0
  0
OLE2FRAME
  5
255
330
1F
100
AcDbEntity
  8
0
100
AcDbOle2Frame
 70
     2
  3
Paintbrush-Bild
 10
13.8511154363
 20
38.264191557
 30
0.0
 11
51.6290888628
 21
31.9806341108
 31
0.0
 71
     2
 72
     0
 73
     1
 90
    12928
310
80552BED0767C5B32B40DDAF6807D121434000000000000000006FFBDDFB85D0
310
4940DDAF6807D121434000000000000000006FFBDDFB85D04940416F4BD60AFB
310
3F4000000000000000002BED0767C5B32B40416F4BD60AFB3F40000000000000
310
0000000000000100000000010000010000000100000000000100000000320000
310
D0CF11E0A1B11AE1000000000000000000000000000000003E000300FEFF0900
310
0600000000000000000000000100000001000000000000000010000002000000
310
01000000FEFFFFFF0000000000000000FFFFFFFFFFFFFFFFFFFFFFFFFFFFFFFF
310
FFFFFFFFFFFFFFFFFFFFFFFFFFFFFFFFFFFFFFFFFFFFFFFFFFFFFFFFFFFFFFFF
310
FFFFFFFFFFFFFFFFFFFFFFFFFFFFFFFFFFFFFFFFFFFFFFFFFFFFFFFFFFFFFFFF
310
FFFFFFFFFFFFFFFFFFFFFFFFFFFFFFFFFFFFFFFFFFFFFFFFFFFFFFFFFFFFFFFF
310
FFFFFFFFFFFFFFFFFFFFFFFFFFFFFFFFFFFFFFFFFFFFFFFFFFFFFFFFFFFFFFFF
310
FFFFFFFFFFFFFFFFFFFFFFFFFFFFFFFFFFFFFFFFFFFFFFFFFFFFFFFFFFFFFFFF
310
FFFFFFFFFFFFFFFFFFFFFFFFFFFFFFFFFFFFFFFFFFFFFFFFFFFFFFFFFFFFFFFF
310
FFFFFFFFFFFFFFFFFFFFFFFFFFFFFFFFFFFFFFFFFFFFFFFFFFFFFFFFFFFFFFFF
310
FFFFFFFFFFFFFFFFFFFFFFFFFFFFFFFFFFFFFFFFFFFFFFFFFFFFFFFFFFFFFFFF
310
FFFFFFFFFFFFFFFFFFFFFFFFFFFFFFFFFFFFFFFFFFFFFFFFFFFFFFFFFFFFFFFF
310
FFFFFFFFFFFFFFFFFFFFFFFFFFFFFFFFFFFFFFFFFFFFFFFFFFFFFFFFFFFFFFFF
310
FFFFFFFFFFFFFFFFFFFFFFFFFFFFFFFFFFFFFFFFFFFFFFFFFFFFFFFFFFFFFFFF
310
FFFFFFFFFFFFFFFFFFFFFFFFFFFFFFFFFFFFFFFFFFFFFFFFFFFFFFFFFFFFFFFF
310
FFFFFFFFFFFFFFFFFFFFFFFFFFFFFFFFFFFFFFFFFFFFFFFFFFFFFFFFFFFFFFFF
310
FDFFFFFFFEFFFFFFFEFFFFFFFEFFFFFF05000000060000000700000008000000
310
090000000A0000000B0000000C0000000D0000000E0000000F00000010000000
310
11000000120000001300000014000000150000001600000017000000FEFFFFFF
310
FFFFFFFFFFFFFFFFFFFFFFFFFFFFFFFFFFFFFFFFFFFFFFFFFFFFFFFFFFFFFFFF
310
FFFFFFFFFFFFFFFFFFFFFFFFFFFFFFFFFFFFFFFFFFFFFFFFFFFFFFFFFFFFFFFF
310
FFFFFFFFFFFFFFFFFFFFFFFFFFFFFFFFFFFFFFFFFFFFFFFFFFFFFFFFFFFFFFFF
310
FFFFFFFFFFFFFFFFFFFFFFFFFFFFFFFFFFFFFFFFFFFFFFFFFFFFFFFFFFFFFFFF
310
FFFFFFFFFFFFFFFFFFFFFFFFFFFFFFFFFFFFFFFFFFFFFFFFFFFFFFFFFFFFFFFF
310
FFFFFFFFFFFFFFFFFFFFFFFFFFFFFFFFFFFFFFFFFFFFFFFFFFFFFFFFFFFFFFFF
310
FFFFFFFFFFFFFFFFFFFFFFFFFFFFFFFFFFFFFFFFFFFFFFFFFFFFFFFFFFFFFFFF
310
FFFFFFFFFFFFFFFFFFFFFFFFFFFFFFFFFFFFFFFFFFFFFFFFFFFFFFFFFFFFFFFF
310
FFFFFFFFFFFFFFFFFFFFFFFFFFFFFFFFFFFFFFFFFFFFFFFFFFFFFFFFFFFFFFFF
310
FFFFFFFFFFFFFFFFFFFFFFFFFFFFFFFFFFFFFFFFFFFFFFFFFFFFFFFFFFFFFFFF
310
FFFFFFFFFFFFFFFFFFFFFFFFFFFFFFFFFFFFFFFFFFFFFFFFFFFFFFFFFFFFFFFF
310
FFFFFFFFFFFFFFFFFFFFFFFFFFFFFFFFFFFFFFFFFFFFFFFFFFFFFFFFFFFFFFFF
310
FFFFFFFFFFFFFFFFFFFFFFFFFFFFFFFFFFFFFFFFFFFFFFFFFFFFFFFFFFFFFFFF
310
52006F006F007400200045006E00740072007900000000000000000000000000
310
0000000000000000000000000000000000000000000000000000000000000000
310
16000500FFFFFFFFFFFFFFFF020000000A00030000000000C000000000000046
310
0000000000000000000000002054C5915F6ECE0103000000C000000000000000
310
01004F006C006500000000000000000000000000000000000000000000000000
310
0000000000000000000000000000000000000000000000000000000000000000
310
0A000200FFFFFFFFFFFFFFFFFFFFFFFF00000000000000000000000000000000
310
0000000000000000000000000000000000000000000000001400000000000000
310
010043006F006D0070004F0062006A0000000000000000000000000000000000
310
0000000000000000000000000000000000000000000000000000000000000000
310
120002010100000003000000FFFFFFFF00000000000000000000000000000000
310
0000000000000000000000000000000000000000010000004D00000000000000
310
01004F006C006500310030004E00610074006900760065000000000000000000
310
0000000000000000000000000000000000000000000000000000000000000000
310
1A000200FFFFFFFFFFFFFFFFFFFFFFFF00000000000000000000000000000000
310
0000000000000000000000000000000000000000040000002426000000000000
310
FEFFFFFF02000000FEFFFFFFFFFFFFFFFFFFFFFFFFFFFFFFFFFFFFFFFFFFFFFF
310
FFFFFFFFFFFFFFFFFFFFFFFFFFFFFFFFFFFFFFFFFFFFFFFFFFFFFFFFFFFFFFFF
310
FFFFFFFFFFFFFFFFFFFFFFFFFFFFFFFFFFFFFFFFFFFFFFFFFFFFFFFFFFFFFFFF
310
FFFFFFFFFFFFFFFFFFFFFFFFFFFFFFFFFFFFFFFFFFFFFFFFFFFFFFFFFFFFFFFF
310
FFFFFFFFFFFFFFFFFFFFFFFFFFFFFFFFFFFFFFFFFFFFFFFFFFFFFFFFFFFFFFFF
310
FFFFFFFFFFFFFFFFFFFFFFFFFFFFFFFFFFFFFFFFFFFFFFFFFFFFFFFFFFFFFFFF
310
FFFFFFFFFFFFFFFFFFFFFFFFFFFFFFFFFFFFFFFFFFFFFFFFFFFFFFFFFFFFFFFF
310
FFFFFFFFFFFFFFFFFFFFFFFFFFFFFFFFFFFFFFFFFFFFFFFFFFFFFFFFFFFFFFFF
310
FFFFFFFFFFFFFFFFFFFFFFFFFFFFFFFFFFFFFFFFFFFFFFFFFFFFFFFFFFFFFFFF
310
FFFFFFFFFFFFFFFFFFFFFFFFFFFFFFFFFFFFFFFFFFFFFFFFFFFFFFFFFFFFFFFF
310
FFFFFFFFFFFFFFFFFFFFFFFFFFFFFFFFFFFFFFFFFFFFFFFFFFFFFFFFFFFFFFFF
310
FFFFFFFFFFFFFFFFFFFFFFFFFFFFFFFFFFFFFFFFFFFFFFFFFFFFFFFFFFFFFFFF
310
FFFFFFFFFFFFFFFFFFFFFFFFFFFFFFFFFFFFFFFFFFFFFFFFFFFFFFFFFFFFFFFF
310
FFFFFFFFFFFFFFFFFFFFFFFFFFFFFFFFFFFFFFFFFFFFFFFFFFFFFFFFFFFFFFFF
310
FFFFFFFFFFFFFFFFFFFFFFFFFFFFFFFFFFFFFFFFFFFFFFFFFFFFFFFFFFFFFFFF
310
FFFFFFFFFFFFFFFFFFFFFFFFFFFFFFFFFFFFFFFFFFFFFFFFFFFFFFFFFFFFFFFF
310
0100000200000000000000000000000000000000000000000000000000000000
310
0000000000000000000000000000000000000000000000000000000000000000
310
0100FEFF030A0000FFFFFFFF0A00030000000000C00000000000004607000000
310
5042727573680007000000504272757368000700000050427275736800F439B2
310
7100000000000000000000000000000000000000000000000000000000000000
310
0000000000000000000000000000000000000000000000000000000000000000
310
0000000000000000000000000000000000000000000000000000000000000000
310
0000000000000000000000000000000000000000000000000000000000000000
310
0000000000000000000000000000000000000000000000000000000000000000
310
0000000000000000000000000000000000000000000000000000000000000000
310
0000000000000000000000000000000000000000000000000000000000000000
310
0000000000000000000000000000000000000000000000000000000000000000
310
0000000000000000000000000000000000000000000000000000000000000000
310
0000000000000000000000000000000000000000000000000000000000000000
310
0000000000000000000000000000000000000000000000000000000000000000
310
0000000000000000000000000000000000000000000000000000000000000000
310
20260000424D0E260000000000003E00000028000000B40200006E0000000100
310
01000000000000000000130B0000130B00000200000002000000000000FFFFFF
310
FFFFFFFFFFFFFFFFFFFFFFFFFFFFFFFFFFFFFFFFFFFFFFFFFFFFFFFFFFFFFFFF
310
FFFFFFFFFFFFFFFFFFFFFFFFFFFFFFFFFFFFFFFFFFFFFFFFFFFFFFFFFFFFFFFF
310
FFFFFFFFFFFFFFFFFFFFFFFFFFFFFFFFFFFFFFFFFFFFFFFFF000FFFFFFFFFFFF
310
FFFFFFFFFFFFFFFFFFFFFFFFFFFFFFFFFFFFFFFFFFFFFFFFFFFFFFFFFFFFFFFF
310
FFFFFFFFFFFFFFFFFFFFFFFFFFFFFFFFFFFFFFFFFFFFFFFFFFFFFFFFFFFFFFFF
310
FFFFFFFFFFFFFFFFFFFFFFFFFFFFFFFFF000FFFFFFFFFFFFFFFFFFFFFFFFFFFF
310
FFFFFFFFFFFFFFFFFFFFFFFFFFFFFFFFFFFFFFFFFFFFFFFFFFFFFFFFFFFFFFFF
310
FFFFFFFFFFFFFFFFFFFFFFFFFFFFFFFFFFFFFFFFFFFFFFFFFFFFFFFFFFFFFFFF
310
FFFFFFFFFFFFFFFFF000FFFFFFFFFFFFFFFFFFFFFFFFFFFFFFFFFFFFFFFFFFFF
310
FFFFFFFFFFFFFFFFFFFFFFFFFFFFFFFFFFFFFFFFFFFFFFFFFFFFFFFFFFFFFFFF
310
FFFFFFFFFFFFFFFFFFFFFFFFFFFFFFFFFFFFFFFFFFFFFFFFFFFFFFFFFFFFFFFF
310
F000FFFFFFFFFFFFFFFFFFFFFFFFFFFFFFFFFFFFFFFFFFFFFFFFFFFFFFFFFFFF
310
FFFFFFFFFFFFFFFFFFFFFFFFFFFFFFFFFFFFFFFFFFFFFFFFFFFFFFFFFFFFFFFF
310
FFFFFFFFFFFFFFFFFFFFFFFFFFFFFFFFFFFFFFFFFFFFFFFFF000FFFFFFFFFFFF
310
FFFFFFFFFFFFFFFFFFFFFFFFFFFFFFFFFFFFFFFFFFFFFFFFFFFFFFFFFFFFFFFF
310
FFFFFFFFFFFFFFFFFFFFFFFFFFFFFFFFFFFFFFFFFFFFFFFFFFFFFFFFFFFFFFFF
310
FFFFFFFFFFFFFFFFFFFFFFFFFFFFFFFFF000FFFFFFFFFFFFFFFFFFFFFFFFFFFF
310
FFFFFFFFFFFFFFFFFFFFFFFFFFFFFFFFFFFFFFFFFFFFFFFFFFFFFFFFFFFFFFFF
310
FFFFFFFFFFFFFFFFFFFFFFFFFFFFFFFFFFFFFFFFFFFFFFFFFFFFFFFFFFFFFFFF
310
FFFFFFFFFFFFFFFFF000FFFFFFFFFFFFFFFFFFFFFFFFFFFFFFFFFFFFFFFFFFFF
310
FFFFFFFFFFFFFFFFFFFFFFFFFFFFFFFFFFFFFFFFFFFFFFFFFFFFFFFFFFFFFFFF
310
FFFFFFFFFFFFFFFFFFFFFFFFFFFFFFFFFFFFFFFFFFFFFFFFFFFFFFFFFFFFFFFF
310
F000FFFFFFFFFFFFFFFFFFFFFFFFFFFFFFFFFFFFFFFFFFFFFFFFFFFFFFFFFFFF
310
FFFFFFFFFFFFFFFFFFFFFFFFFFFFFFFFFFFFFFFFFFFFFFFFFFFFFFFFFFFFFFFF
310
FFFFFFFFFFFFFFFFFFFFFFFFFFFFFFFFFFFFFFFFFFFFFFFFF000FFFFFFFFFFFF
310
FFFFFFFFFFFFFFFFFFFFFFFFFFFFFFFFFFFFFFFFFFFFFFFFFFFFFFFFFFFFFFFF
310
FFFFFFFFFFFFFFFFFFFFFFFFFFFFFFFFFFFFFFFFFFFFFFFFFFFFFFFFFFFFFFFF
310
FFFFFFFFFFFFFFFFFFFFFFFFFFFFFFFFF000FFFFFFFFFFFFFFFFFFFFFFFFFFFF
310
FFFFFFFFFFFFFFFFFFFFFFFFFFFFFFFFFFFFFFFFFFFFFFFFFFFFFFFFFFFFFFFF
310
FFFFFFFFFFFFFFFFFFFFFFFFFFFFFFFFFFFFFFFFFFFFFFFFFFFFFFFFFFFFFFFF
310
FFFFFFFFFFFFFFFFF000FFFFFFFFFFFFFFFFFFFFFFFFFFFFFFFFFFFFFFFFFFFF
310
FFFFFFFFFFFFFFFFFFFFFFFFFFFFFFFFFFFFFFFFFFFFFFFFFFFFFFFFFFFFFFFF
310
FFFFFFFFFFFFFFFFFFFFFFFFFFFFFFFFFFFFFFFFFFFFFFFFFFFFFFFFFFFFFFFF
310
F000FFFFFFFFFFFFFFFFFFFFFFFFFFFFFFFFFFFFFFFFFFFFFFFFFFFFFFFFFFFF
310
FFFFFFFFFFFFFFFFFFFFFFFFFFFFFFFFFFFFFFFFFFFFFFFFFFFFFFFFFFFFFFFF
310
FFFFFFFFFFFFFFFFFFFFFFFFFFFFFFFFFFFFFFFFFFFFFFFFF000FFFFFFFFFFFF
310
FFFFFFFFFFFFFFFFFFFFFFFFFFFFFFFFFFFFFFFFFFFFFFFFFFFFFFFFFFFFFFFF
310
FFFFFFFFFFFFFFFFFFFFFFFFFFFFFFFFFFFFFFFFFFFFFFFFFFFFFFFFFFFFFFFF
310
FFFFFFFFFFFFFFFFFFFFFFFFFFFFFFFFF000FFFFFFFFFFFFFFFFFFFFFFFFFFFF
310
FFFFFFFFFFFFFFFFFFFFFFFFFFFFFFFFFFFFFFFFFFFFFFFFFFFFFFFFFFFFFFFF
310
FFFFFFFFFFFFFFFFFFFFFFFFFFFFFFFFFFFFFFFFFFFFFFFFFFFFFFFFFFFFFFFF
310
FFFFFFFFFFFFFFFFF000FFFFFFFFFFFFFFFFFFFFFFFFFFFFFFFFFFFFFFFFFFFF
310
FFFFFFFFFFFFFFFFFFFFFFFFFFFFFFFFFFFFFFFFFFFFFFFFFFFFFFFFFFFFFFFF
310
FFFFFFFFFFFFFFFFFFFFFFFFFFFFFFFFFFFFFFFFFFFFFFFFFFFFFFFFFFFFFFFF
310
F000FFFFFFFFFFFFFFFFFFFFFFFFFFFFFFFFFFFFFFFFFFFFFFFFFFFFFFFFFFFF
310
FFFFFFFFFFFFFFFFFFFFFFFFFFFFFFFFFFFFFFFFFFFFFFFFFFFFFFFFFFFFFFFF
310
FFFFFFFFFFFFFFFFFFFFFFFFFFFFFFFFFFFFFFFFFFFFFFFFF000FFFFFFFFFFFF
310
FFFFFFFFFFFFFFFFFFFFFFFFFFFFFFFFFFFFFFFFFFFFFFFFFFFFFFFFFFFFFFFF
310
FFFFFFFFFFFFFFFFFFFFFFFFFFFFFFFFFFFFFFFFFFFFFFFFFFFFFFFFFFFFFFFF
310
FFFFFFFFFFFFFFFFFFFFFFFFFFFFFFFFF000FFFFFFFFFFFFFFFFFFFFFFFFFFFF
310
FFFFFFFFFFFFFFFFFFFFFFFFFFFFFFFFFFFFFFFFFFFFFFFFFFFFFFFFFFFFFFFF
310
FFFFFFFFFFFFFFFFFFFFFFFFFFFFFFFFFFFFFFFFFFFFFFFFFFFFFFFFFFFFFFFF
310
FFFFFFFFFFFFFFFFF000FFFFF80003FFFFFFFFFFFFFFFFFFFFFFFFFFFFFFFFFF
310
FFFFF00007FFFFFFFFFF00007FFFFFF800000000000000007FFFFFFFFFFFFFFF
310
FFFFFFFC001FFFFFFFFFFFFFFC001FFFFFFFFFFFFFFFFFFFFFFFFFFE0007FFFF
310
F000FFFF8000007FFFFFFFF8000FFFFFC0007FFFFF80007FFFFF0000007FFFFF
310
FFF8000007FFFFF800000000000000007FFFFFF0001FFFFFFFFFFFC00001FFFF
310
FFFFFFFFC00001FFFFFFFF000000000003FFFFE000007FFFF000FFFE0000000F
310
FFFFFFF0000FFFFF80007FFFFF80007FFFFC0000001FFFFFFFC0000001FFFFF8
310
00000000000000007FFFFFF0001FFFFFFFFFFE0000003FFFFFFFFFFE0000003F
310
FFFFFF000000000003FFFF0000000FFFF000FFF800000003FFFFFFF00007FFFF
310
80007FFFFF80007FFFF000000007FFFFFF000000003FFFF80000000000000000
310
7FFFFFF0001FFFFFFFFFF80000000FFFFFFFFFF80000000FFFFFFF0000000000
310
03FFFC00000003FFF000FFE000000000FFFFFFF00007FFFF80003FFFFF80007F
310
FFC000000001FFFFFC000000001FFFF800000000000000007FFFFFF0001FFFFF
310
FFFFE000000003FFFFFFFFE000000003FFFFFF000000000003FFF000000000FF
310
F000FF80000000007FFFFFF00007FFFF80003FFFFF80007FFF8000000000FFFF
310
F80000000007FFF800000000000000007FFFFFF0001FFFFFFFFFC000000001FF
310
FFFFFFC000000001FFFFFF000000000003FFC0000000007FF000FF0000000000
310
3FFFFFE00007FFFF00003FFFFF80007FFE00000000003FFFF00000000003FFF8
310
00000000000000007FFFFFF0001FFFFFFFFF8000000000FFFFFFFF8000000000
310
FFFFFF000000000003FF80000000003FF000FE00000000001FFFFFE00003FFFF
310
00003FFFFF80007FFC00000000001FFFE00000000001FFF8000001FFFE000000
310
7FFFFFF0001FFFFFFFFE00000000003FFFFFFE00000000003FFFFF0000000000
310
03FF00000000001FF000FC00000000000FFFFFE00003FFFF00001FFFFF80007F
310
F800000000001FFFC00000000000FFF8000001FFFE0000007FFFFFF0001FFFFF
310
FFFC00000000001FFFFFFC00000000001FFFFF000000000003FE00000000000F
310
F000F8000000000007FFFFE00003FFFF00001FFFFF80007FF800000000000FFF
310
800000000000FFF8000001FFFE0000007FFFFFF0001FFFFFFFF800000000000F
310
FFFFF800000000000FFFFF000000000003FC000000000007F000F80000000000
310
03FFFFC00003FFFE00001FFFFF80007FF0000000000007FF0000000000007FF8
310
000001FFFE0000007FFFFFF0001FFFFFFFF0000000000007FFFFF00000000000
310
07FFFF000000000003F8000000000003F000F0000000000003FFFFC00001FFFE
310
00001FFFFF80007FE0000000000007FE0000000000003FF8000001FFFE000000
310
7FFFFFF0001FFFFFFFF0000000000007FFFFF0000000000007FFFF0000000000
310
03F800001F800003F000E00001FFF00001FFFFC00001FFFE00000FFFFF80007F
310
E00001FFE00003FE00001FFF00003FF8000001FFFE0000007FFFFFF0001FFFFF
310
FFE000003E000003FFFFE000003E000003FFFF000000000003F00001FFF80001
310
F000E00007FFFC0001FFFFC00001FFFE00000FFFFF80007FC0000FFFFC0003FC
310
0000FFFFC0001FF8000001FFFE0000007FFFFFF0001FFFFFFFC00003FFE00001
310
FFFFC00003FFE00001FFFF0001FFFFFFFFF00007FFFE0001F000E0000FFFFF00
310
00FFFF800001FFFC00000FFFFF80007FC0001FFFFE0001FC0001FFFFE0001FF8
310
000001FFFE0000007FFFFFF0001FFFFFFF80000FFFF80000FFFF80000FFFF800
310
00FFFF0003FFFFFFFFE0000FFFFF8000F000C0003FFFFF8000FFFF800000FFFC
310
000007FFFF80007F80003FFFFF0001FC0003FFFFF0001FF8000001FFFE000000
310
7FFFFFF0001FFFFFFF80003FFFFE0000FFFF80003FFFFE0000FFFF0003FFFFFF
310
FFE0003FFFFF8000F000C0003FFFFF8000FFFF800000FFFC000007FFFF80007F
310
80007FFFFF8001F80007FFFFF8000FF8000001FFFE0000007FFFFFF0001FFFFF
310
FF00007FFFFF00007FFF00007FFFFF00007FFF0003FFFFFFFFE0003FFFFFC000
310
F000C0007FFFFFC000FFFF000000FFFC000007FFFF80007F8000FFFFFF8000F8
310
000FFFFFF8000FF8000001FFFE0000007FFFFFF0001FFFFFFF0000FFFFFF8000
310
7FFF0000FFFFFF80007FFF0003FFFFFFFFC0007FFFFFC00070008000FFFFFFC0
310
00FFFF000000FFF8000007FFFF80007F8000FFFFFF8000F8000FFFFFF8000FF8
310
000001FFFE0000007FFFFFF0001FFFFFFE0001FFFFFFC0003FFE0001FFFFFFC0
310
003FFF0003FFFFFFFFC0007FFFFFE00070008000FFFFFFC0007FFF0000007FF8
310
000003FFFF80007F0001FFFFFF8000F8000FFFFFF8000FF8000001FFFE000000
310
7FFFFFF0001FFFFFFE0001FFFFFFC0003FFE0001FFFFFFC0003FFF0003FFFFFF
310
FFC000FFFFFFE00070008000FFFFFFC0007FFF0000007FF8000003FFFF80007F
310
0001FFFFFF8000F8001FFFFFF8000FF8000001FFFE0000007FFFFFF0001FFFFF
310
FE0003FFFFFFE0003FFE0003FFFFFFE0003FFF0003FFFFFFFFC000FFFFFFE000
310
70008000FFFFFFC0007FFE0000007FF8000003FFFF80007F0001FFFFFF8000F0
310
001FFFFFF8000FF8000001FFFE0000007FFFFFF0001FFFFFFC0003FFFFFFE000
310
1FFC0003FFFFFFE0001FFF0003FFFFFFFFC000FFFFFFC00070008000FFFFFF80
310
007FFE0000007FF0000003FFFF80007F0001FFFFFF0000F0001FFFFFF8000FF8
310
000001FFFE0000007FFFFFF0001FFFFFFC0007FFFFFFF0001FFC0007FFFFFFF0
310
001FFF0003FFFFFFFFC000FFFFFFC00070008001FFFFFF0000FFFE0000003FF0
310
000001FFFF80007F0001FFFFFF0000F8001FFFFFF0000FF8000001FFFE000000
310
7FFFFFF0001FFFFFFC0007FFFFFFF0001FFC0007FFFFFFF0001FFF0003FFFFFF
310
FFC001FFFFFF80007000FFFFFFFFFE0000FFFE0008003FF0008001FFFF80007F
310
FFFFFFFFFC0000FFFFFFFFFFE0000FF8000001FFFE0000007FFFFFF0001FFFFF
310
F8000FFFFFFFF8000FF8000FFFFFFFF8000FFF0003FFFFFFFFFFFFFFFFFF0000
310
7000FFFFFFFFFC0000FFFC0008003FF0008001FFFF80007FFFFFFFFFF80001FF
310
FFFFFFFF80000FF8000001FFFE0000007FFFFFF0001FFFFFF8000FFFFFFFF800
310
0FF8000FFFFFFFF8000FFF0003FFFFFFFFFFFFFFFFFE0000F000FFFFFFFFE000
310
00FFFC000C003FE000C001FFFF80007FFFFFFFFFC00001FFFFFFFFFE00001FF8
310
000001FFFE0000007FFFFFF0001FFFFFF8000FFFFFFFF8000FF8000FFFFFFFF8
310
000FFF0003FFFFFFFFFFFFFFFFF00000F000FFFFFFFE000001FFFC000C001FE0
310
00C000FFFF80007FFFFFFFFE000001FFFFFFFFE000001FF80FFFFFFFFFFFFFC0
310
7FFFFFF0001FFFFFF8000FFFFFFFF8000FF8000FFFFFFFF8000FFF0003FFFFFF
310
FFFFFFFFFF800000F000FFFFFFC0000001FFFC001C001FE001C000FFFF80007F
310
FFFFFF80000003FFFFFFF80000001FF80FFFFFFFFFFFFFC07FFFFFF0001FFFFF
310
F8001FFFFFFFFC000FF8001FFFFFFFFC000FFF0003FFFFFFFFFFFFFFF0000001
310
F000FFFFF800000001FFF8001C001FE001C000FFFF80007FFFFFF800000003FF
310
FFFF800000003FF80FFFFFFFFFFFFFC07FFFFFF0001FFFFFF8001FFFFFFFFC00
310
0FF8001FFFFFFFFC000FFF0003FFFFFFFFFFFFFE00000001F000FFFFC0000000
310
03FFF8001E001FC001E000FFFF80007FFFFF8000000007FFFFFC000000003FF8
310
0FFFFFFFFFFFFFC07FFFFFF0001FFFFFF8001FFFFFFFFC000FF8001FFFFFFFFC
310
000FFF0003FFFFFFFFFFFFE000000003F000FFFE0000000007FFF8001E000FC0
310
01E0007FFF80007FFFFE0000000007FFFFE0000000007FF80FFFFFFFFFFFFFC0
310
7FFFFFF0001FFFFFF0001FFFFFFFFC0007F0001FFFFFFFFC0007FF0003FFFFFF
310
FFFFFF0000000003F000FFF80000000007FFF8001E000FC003E0007FFF80007F
310
FFF0000000000FFFFF8000000000FFF80FFFFFFFFFFFFFC07FFFFFF0001FFFFF
310
F0001FFFFFFFFC0007F0001FFFFFFFFC0007FF0003FFFFFFFFFFFC0000000007
310
F000FFE0000000000FFFF0003E000FC003E0007FFF80007FFFC0000000001FFF
310
FE0000000001FFF80FFFFFFFFFFFFFC07FFFFFF0001FFFFFF0001FFFFFFFFC00
310
07F0001FFFFFFFFC0007FF0003FFFFFFFFFFF0000000000FF000FFC000000000
310
1FFFF0003F000F8003F0003FFF80007FFF80000000003FFFF80000000003FFF8
310
0FFFFFFFFFFFFFC07FFFFFF0001FFFFFF0001FFFFFFFFC0007F0001FFFFFFFFC
310
0007FF0003FFFFFFFFFFE0000000001FF000FF00000000007FFFF0003F000780
310
03F0003FFF80007FFF00000000007FFFF00000000007FFF80FFFFFFFFFFFFFC0
310
7FFFFFF0001FFFFFF0001FFFFFFFFC0007F0001FFFFFFFFC0007FF0003FFFFFF
310
FFFF80000000007FF000FE0000000000FFFFE0003F00078007F0003FFF80007F
310
FE0000000001FFFFE0000000001FFFF80FFFFFFFFFFFFFC07FFFFFF0001FFFFF
310
F0001FFFFFFFFC0007F0001FFFFFFFFC0007FF0003FFFFFFFFFF0000000000FF
310
F000FC0000000003FFFFE0007F00078007F0003FFF80007FFC0000000007FFFF
310
C0000000007FFFF80FFFFFFFFFFFFFC07FFFFFF0001FFFFFF8001FFFFFFFFC00
310
0FF8001FFFFFFFFC000FFF0003FFFFFFFFFE0000000003FFF000FC000000000F
310
FFFFE0007F80070007F8001FFF80007FF8000000001FFFFF8000000001FFFFF8
310
0FFFFFFFFFFFFFC07FFFFFF0001FFFFFF8001FFFFFFFFC000FF8001FFFFFFFFC
310
000FFF0003FFFFFFFFFC000000000FFFF000F8000000007FFFFFE0007F800700
310
07F8001FFF80007FF000000000FFFFFF800000000FFFFFF80FFFFFFFFFFFFFC0
310
7FFFFFF0001FFFFFF8000FFFFFFFF8000FF8000FFFFFFFF8000FFF0003FFFFFF
310
FFFC000000007FFFF000F800000007FFFFFFC0007F8003000FF8001FFF80007F
310
F000000007FFFFFF000000007FFFFFF80FFFFFFFFFFFFFC07FFFFFF0001FFFFF
310
F8000FFFFFFFF8000FF8000FFFFFFFF8000FFF0003FFFFFFFFF80000000FFFFF
310
F000F0000000FFFFFFFFC000FF8003000FF8001FFF80007FE0000000FFFFFFFF
310
0000000FFFFFFFF8000001FFFE0000007FFFFFF0001FFFFFF8000FFFFFFFF800
310
0FF8000FFFFFFFF8000FFF0003FFFFFFFFF8000000FFFFFFF000F000000FFFFF
310
FFFFC000FFC002000FF8000FFF80007FE000001FFFFFFFFE000001FFFFFFFFF8
310
000001FFFE0000007FFFFFF0001FFFFFF8000FFFFFFFF8000FF8000FFFFFFFF8
310
000FFF0003FFFFFFFFF000001FFFFFFFF000E00000FFFFFFFFFFC000FFC00200
310
0FFC000FFF80007FE00001FFFFFFFFFE00001FFFFFFFFFF8000001FFFE000000
310
7FFFFFF0001FFFFFFC000FFFFFFFF8001FFC000FFFFFFFF8001FFF0003FFFFFF
310
FFF00001FFFFFFFFF000E00007FFFFFFFFFF8000FFC000001FFC000FFF80007F
310
C0000FFFFFFFFFFE0000FFFFFFFFFFF8000001FFFE0000007FFFFFF0001FFFFF
310
FC0007FFFFFFF0001FFC0007FFFFFFF0001FFF0003FFFFFFFFF00007FFFFFFFF
310
F000E0001FFFFFFFFFFF8000FFC000001FFC000FFF80007FC0003FFFFFFFFFFE
310
0001FFFFFFFFFFF8000001FFFE0000007FFFFFF0001FFFFFFC0007FFFFFFF000
310
1FFC0007FFFFFFF0001FFF0003FFFFFFFFF0001FFFFFFFFFF000E0003FFFFF00
310
03FF8001FFE000001FFC0007FF80007FC0007FFFFF0007FC0003FFFFF0003FF8
310
000001FFFE0000007FFFFFF0001FFFFFFC0003FFFFFFE0001FFC0003FFFFFFE0
310
001FFF0003FFFFFFFFF0003FFFFFFFFFF000E0003FFFFF0001FF8001FFE00000
310
1FFE0007FF80007FC0007FFFFE0003FC0007FFFFE0003FF8000001FFFE000000
310
7FFFFFF0001FFFFFFE0003FFFFFFE0003FFE0003FFFFFFE0003FFF0003FFFFFF
310
FFF0003FFFFF8001F000E0003FFFFF0001FF0001FFE000001FFE0007FF80007F
310
C0007FFFFE0003FC0007FFFFE0003FF8000001FFFE0000007FFFFFF0001FFFFF
310
FE0001FFFFFFC0003FFE0001FFFFFFC0003FFF0003FFFFFFFFF0003FFFFF0001
310
F000E0003FFFFF0003FF0001FFE000003FFE0007FF80007FC0007FFFFE0003FC
310
0007FFFFE0003FF8000001FFFE0000007FFFFFF0001FFFFFFF0001FFFFFFC000
310
7FFF0001FFFFFFC0007FFF0003FFFFFFFFF0003FFFFF0001F000E0003FFFFE00
310
03FF0003FFF000003FFE0003FF80007FC0007FFFFC0003FE0007FFFFE0003FF8
310
000001FFFE0000007FFFFFF0001FFFFFFF0000FFFFFF80007FFF0000FFFFFF80
310
007FFF0003FFFFFFFFF0003FFFFF0001F000E0003FFFFE0003FF0003FFF00000
310
3FFF0003FF80007FC0007FFFFC0007FE0007FFFFC0003FF8000001FFFE000000
310
7FFFFFF0001FFFFFFF80007FFFFF0000FFFF80007FFFFF0000FFFF0003FFFFFF
310
FFF0003FFFFF0003F000E0003FFFFC0003FE0003FFF000003FFF0003FF80007F
310
E0003FFFF80007FE0003FFFFC0007FF8000001FFFE0000007FFFFFF0001FFFFF
310
FF80003FFFFE0000FFFF80003FFFFE0000FFFF0003FFFFFFFFF0001FFFFE0003
310
F000F0001FFFF80003FE0003FFF000007FFF0001FF80007FE0003FFFF00007FE
310
0001FFFF80007FF8000001FFFE0000007FFFFFF0001FFFFFFFC0000FFFF80001
310
FFFFC0000FFFF80001FFFF0003FFFFFFFFF0001FFFFC0003F000F0000FFFF000
310
07FE0007FFF800007FFF0001FF80007FE0001FFFE00007FF0000FFFE00007FF8
310
000001FFFE0000007FFFFFF0001FFFFFFFC00003FFE00001FFFFC00003FFE000
310
01FFFF0003FFFFFFFFF8000FFFF80003F000F00003FFC00007FC0007FFF80000
310
7FFF8001FF80007FF00007FF80000FFF00007FF80000FFF8000001FFFE000000
310
7F80000000000001FFE000003E000003FFFFE000003E000003FFFF0003FFFFFF
310
FFF80003FFE00007F000F800000000000FFC0007FFF800007FFF8001FF80007F
310
F000000000000FFF000000000000FFF8000001FFFE0000007F80000000000001
310
FFF0000000000007FFFFF0000000000007FFFF0003FFFFFFFFFC00007E000007
310
F000F800000000000FFC0007FFF80000FFFF8000FF80007FF800000000001FFF
310
800000000001FFF8000001FFFE0000007F80000000000001FFF800000000000F
310
FFFFF800000000000FFFFF0003FFFFFFFFFC00000000000FF000FC0000000000
310
1FFC0007FFFC0000FFFF8000FF80007FF800000000003FFFC00000000001FFF8
310
000001FFFE0000007F80000000000001FFF800000000000FFFFFF80000000000
310
0FFFFF0003FFFFFFFFFE00000000001FF000FE00000000003FF8000FFFFC0000
310
FFFF8000FF80007FFC00000000003FFFC00000000003FFF8000001FFFE000000
310
7F80000000000001FFFC00000000001FFFFFFC00000000001FFFFF0003FFFFFF
310
FFFF00000000001FF000FF00000000003FF8000FFFFC0000FFFFC000FF80007F
310
FE00000000007FFFE00000000007FFF8000001FFFE0000007F80000000000001
310
FFFE00000000003FFFFFFE00000000003FFFFF0003FFFFFFFFFF80000000003F
310
F000FF80000000007FF8000FFFFC0001FFFFC0007F80007FFF0000000000FFFF
310
F0000000000FFFF800000000000000007F80000000000001FFFF8000000000FF
310
FFFFFF8000000000FFFFFF0003FFFFFFFFFFC0000000007FF000FFC000000000
310
FFF8000FFFFE0001FFFFC0007F80007FFF8000000001FFFFF8000000001FFFF8
310
00000000000000007F80000000000001FFFFC000000001FFFFFFFFC000000001
310
FFFFFF0003FFFFFFFFFFE000000000FFF000FFE000000003FFF0001FFFFE0001
310
FFFFC0007F80007FFFC000000007FFFFFE000000003FFFF80000000000000000
310
7F80000000000001FFFFE000000003FFFFFFFFE000000003FFFFFF0003FFFFFF
310
FFFFF000000003FFF000FFF80000000FFFF0001FFFFE0001FFFFE0007F80007F
310
FFF00000000FFFFFFF00000000FFFFF800000000000000007F80000000000001
310
FFFFF80000000FFFFFFFFFF80000000FFFFFFF0003FFFFFFFFFFFC0000000FFF
310
F000FFFE0000003FFFF0001FFFFE0003FFFFE0003F80007FFFFC0000003FFFFF
310
FFC0000003FFFFF800000000000000007F80000000000001FFFFFE0000003FFF
310
FFFFFFFE0000003FFFFFFF0003FFFFFFFFFFFF0000003FFFF000FFFF800000FF
310
FFF0001FFFFF0003FFFFE0003F80007FFFFF000001FFFFFFFFF800001FFFFFF8
310
00000000000000007F80000000000001FFFFFFC00001FFFFFFFFFFFFC00001FF
310
FFFFFF0003FFFFFFFFFFFFC00000FFFFF000FFFFF8000FFFFFFFFFFFFFFFFFFF
310
FFFFFFFFFFFFFFFFFFFFF0001FFFFFFFFFFF0000FFFFFFF80000000000000000
310
7FFFFFFFFFFFFFFFFFFFFFFC001FFFFFFFFFFFFFFC001FFFFFFFFFFFFFFFFFFF
310
FFFFFFFC001FFFFFF000FFFFFFFFFFFFFFFFFFFFFFFFFFFFFFFFFFFFFFFFFFFF
310
FFFFFFFFFFFFFFFFFFFFFFFFFFFFFFFFFFFFFFFFFFFFFFFFFFFFFFFFFFFFFFFF
310
FFFFFFFFFFFFFFFFFFFFFFFFFFFFFFFFFFFFFFFFFFFFFFFFFFFFFFFFFFFFFFFF
310
F000FFFFFFFFFFFFFFFFFFFFFFFFFFFFFFFFFFFFFFFFFFFFFFFFFFFFFFFFFFFF
310
FFFFFFFFFFFFFFFFFFFFFFFFFFFFFFFFFFFFFFFFFFFFFFFFFFFFFFFFFFFFFFFF
310
FFFFFFFFFFFFFFFFFFFFFFFFFFFFFFFFFFFFFFFFFFFFFFFFF000FFFFFFFFFFFF
310
FFFFFFFFFFFFFFFFFFFFFFFFFFFFFFFFFFFFFFFFFFFFFFFFFFFFFFFFFFFFFFFF
310
FFFFFFFFFFFFFFFFFFFFFFFFFFFFFFFFFFFFFFFFFFFFFFFFFFFFFFFFFFFFFFFF
310
FFFFFFFFFFFFFFFFFFFFFFFFFFFFFFFFF000FFFFFFFFFFFFFFFFFFFFFFFFFFFF
310
FFFFFFFFFFFFFFFFFFFFFFFFFFFFFFFFFFFFFFFFFFFFFFFFFFFFFFFFFFFFFFFF
310
FFFFFFFFFFFFFFFFFFFFFFFFFFFFFFFFFFFFFFFFFFFFFFFFFFFFFFFFFFFFFFFF
310
FFFFFFFFFFFFFFFFF000FFFFFFFFFFFFFFFFFFFFFFFFFFFFFFFFFFFFFFFFFFFF
310
FFFFFFFFFFFFFFFFFFFFFFFFFFFFFFFFFFFFFFFFFFFFFFFFFFFFFFFFFFFFFFFF
310
FFFFFFFFFFFFFFFFFFFFFFFFFFFFFFFFFFFFFFFFFFFFFFFFFFFFFFFFFFFFFFFF
310
F000FFFFFFFFFFFFFFFFFFFFFFFFFFFFFFFFFFFFFFFFFFFFFFFFFFFFFFFFFFFF
310
FFFFFFFFFFFFFFFFFFFFFFFFFFFFFFFFFFFFFFFFFFFFFFFFFFFFFFFFFFFFFFFF
310
FFFFFFFFFFFFFFFFFFFFFFFFFFFFFFFFFFFFFFFFFFFFFFFFF000FFFFFFFFFFFF
310
FFFFFFFFFFFFFFFFFFFFFFFFFFFFFFFFFFFFFFFFFFFFFFFFFFFFFFFFFFFFFFFF
310
FFFFFFFFFFFFFFFFFFFFFFFFFFFFFFFFFFFFFFFFFFFFFFFFFFFFFFFFFFFFFFFF
310
FFFFFFFFFFFFFFFFFFFFFFFFFFFFFFFFF000FFFFFFFFFFFFFFFFFFFFFFFFFFFF
310
FFFFFFFFFFFFFFFFFFFFFFFFFFFFFFFFFFFFFFFFFFFFFFFFFFFFFFFFFFFFFFFF
310
FFFFFFFFFFFFFFFFFFFFFFFFFFFFFFFFFFFFFFFFFFFFFFFFFFFFFFFFFFFFFFFF
310
FFFFFFFFFFFFFFFFF000FFFFFFFFFFFFFFFFFFFFFFFFFFFFFFFFFFFFFFFFFFFF
310
FFFFFFFFFFFFFFFFFFFFFFFFFFFFFFFFFFFFFFFFFFFFFFFFFFFFFFFFFFFFFFFF
310
FFFFFFFFFFFFFFFFFFFFFFFFFFFFFFFFFFFFFFFFFFFFFFFFFFFFFFFFFFFFFFFF
310
F000FFFFFFFFFFFFFFFFFFFFFFFFFFFFFFFFFFFFFFFFFFFFFFFFFFFFFFFFFFFF
310
FFFFFFFFFFFFFFFFFFFFFFFFFFFFFFFFFFFFFFFFFFFFFFFFFFFFFFFFFFFFFFFF
310
FFFFFFFFFFFFFFFFFFFFFFFFFFFFFFFFFFFFFFFFFFFFFFFFF000FFFFFFFFFFFF
310
FFFFFFFFFFFFFFFFFFFFFFFFFFFFFFFFFFFFFFFFFFFFFFFFFFFFFFFFFFFFFFFF
310
FFFFFFFFFFFFFFFFFFFFFFFFFFFFFFFFFFFFFFFFFFFFFFFFFFFFFFFFFFFFFFFF
310
FFFFFFFFFFFFFFFFFFFFFFFFFFFFFFFFF000FFFFFFFFFFFFFFFFFFFFFFFFFFFF
310
FFFFFFFFFFFFFFFFFFFFFFFFFFFFFFFFFFFFFFFFFFFFFFFFFFFFFFFFFFFFFFFF
310
FFFFFFFFFFFFFFFFFFFFFFFFFFFFFFFFFFFFFFFFFFFFFFFFFFFFFFFFFFFFFFFF
310
FFFFFFFFFFFFFFFFF000FFFFFFFFFFFFFFFFFFFFFFFFFFFFFFFFFFFFFFFFFFFF
310
FFFFFFFFFFFFFFFFFFFFFFFFFFFFFFFFFFFFFFFFFFFFFFFFFFFFFFFFFFFFFFFF
310
FFFFFFFFFFFFFFFFFFFFFFFFFFFFFFFFFFFFFFFFFFFFFFFFFFFFFFFFFFFFFFFF
310
F000FFFFFFFFFFFFFFFFFFFFFFFFFFFFFFFFFFFFFFFFFFFFFFFFFFFFFFFFFFFF
310
FFFFFFFFFFFFFFFFFFFFFFFFFFFFFFFFFFFFFFFFFFFFFFFFFFFFFFFFFFFFFFFF
310
FFFFFFFFFFFFFFFFFFFFFFFFFFFFFFFFFFFFFFFFFFFFFFFFF000FFFFFFFFFFFF
310
FFFFFFFFFFFFFFFFFFFFFFFFFFFFFFFFFFFFFFFFFFFFFFFFFFFFFFFFFFFFFFFF
310
FFFFFFFFFFFFFFFFFFFFFFFFFFFFFFFFFFFFFFFFFFFFFFFFFFFFFFFFFFFFFFFF
310
FFFFFFFFFFFFFFFFFFFFFFFFFFFFFFFFF000FFFFFFFFFFFFFFFFFFFFFFFFFFFF
310
FFFFFFFFFFFFFFFFFFFFFFFFFFFFFFFFFFFFFFFFFFFFFFFFFFFFFFFFFFFFFFFF
310
FFFFFFFFFFFFFFFFFFFFFFFFFFFFFFFFFFFFFFFFFFFFFFFFFFFFFFFFFFFFFFFF
310
FFFFFFFFFFFFFFFFF000FFFFFFFFFFFFFFFFFFFFFFFFFFFFFFFFFFFFFFFFFFFF
310
FFFFFFFFFFFFFFFFFFFFFFFFFFFFFFFFFFFFFFFFFFFFFFFFFFFFFFFFFFFFFFFF
310
FFFFFFFFFFFFFFFFFFFFFFFFFFFFFFFFFFFFFFFFFFFFFFFFFFFFFFFFFFFFFFFF
310
F000FFFFFFFFFFFFFFFFFFFFFFFFFFFFFFFFFFFFFFFFFFFFFFFFFFFFFFFFFFFF
310
FFFFFFFFFFFFFFFFFFFFFFFFFFFFFFFFFFFFFFFFFFFFFFFFFFFFFFFFFFFFFFFF
310
FFFFFFFFFFFFFFFFFFFFFFFFFFFFFFFFFFFFFFFFFFFFFFFFF000FFFFFFFFFFFF
310
FFFFFFFFFFFFFFFFFFFFFFFFFFFFFFFFFFFFFFFFFFFFFFFFFFFFFFFFFFFFFFFF
310
FFFFFFFFFFFFFFFFFFFFFFFFFFFFFFFFFFFFFFFFFFFFFFFFFFFFFFFFFFFFFFFF
310
FFFFFFFFFFFFFFFFFFFFFFFFFFFFFFFFF000FFFFFFFFFFFFFFFFFFFFFFFFFFFF
310
FFFFFFFFFFFFFFFFFFFFFFFFFFFFFFFFFFFFFFFFFFFFFFFFFFFFFFFFFFFFFFFF
310
FFFFFFFFFFFFFFFFFFFFFFFFFFFFFFFFFFFFFFFFFFFFFFFFFFFFFFFFFFFFFFFF
310
FFFFFFFFFFFFFFFFF000FFFFFFFFFFFFFFFFFFFFFFFFFFFFFFFFFFFFFFFFFFFF
310
FFFFFFFFFFFFFFFFFFFFFFFFFFFFFFFFFFFFFFFFFFFFFFFFFFFFFFFFFFFFFFFF
310
FFFFFFFFFFFFFFFFFFFFFFFFFFFFFFFFFFFFFFFFFFFFFFFFFFFFFFFFFFFFFFFF
310
F000FFFFFFFFFFFFFFFFFFFFFFFFFFFFFFFFFFFFFFFFFFFFFFFFFFFFFFFFFFFF
310
FFFFFFFFFFFFFFFFFFFFFFFFFFFFFFFFFFFFFFFFFFFFFFFFFFFFFFFFFFFFFFFF
310
FFFFFFFFFFFFFFFFFFFFFFFFFFFFFFFFFFFFFFFFFFFFFFFFF000FFFFFFFFFFFF
310
FFFFFFFFFFFFFFFFFFFFFFFFFFFFFFFFFFFFFFFFFFFFFFFFFFFFFFFFFFFFFFFF
310
FFFFFFFFFFFFFFFFFFFFFFFFFFFFFFFFFFFFFFFFFFFFFFFFFFFFFFFFFFFFFFFF
310
FFFFFFFFFFFFFFFFFFFFFFFFFFFFFFFFF0000000000000000000000000000000
310
0000000000000000000000000000000000000000000000000000000000000000
310
0000000000000000000000000000000000000000000000000000000000000000
310
0000000000000000000000000000000000000000000000000000000000000000
310
0000000000000000000000000000000000000000000000000000000000000000
310
0000000000000000000000000000000000000000000000000000000000000000
310
0000000000000000000000000000000000000000000000000000000000000000
310
0000000000000000000000000000000000000000000000000000000000000000
310
0000000000000000000000000000000000000000000000000000000000000000
310
0000000000000000000000000000000000000000000000000000000000000000
310
0000000000000000000000000000000000000000000000000000000000000000
310
0000000000000000000000000000000000000000000000000000000000000000
310
0000000000000000000000000000000000000000000000000000000000000000
310
0000000000000000000000000000000000000000000000000000000000000000
310
0000000000000000000000000000000000000000000000000000000000000000
310
0000000000000000000000000000000000000000000000000000000000000000
  1
OLE
  0
ENDSEC
  0
SECTION
  2
OBJECTS
  0
DICTIONARY
  5
C
330
0
100
AcDbDictionary
281
     1
  3
ACAD_GROUP
350
D
  3
ACAD_LAYOUT
350
1A
  3
ACAD_MLINESTYLE
350
17
  3
ACAD_PLOTSETTINGS
350
19
  3
ACAD_PLOTSTYLENAME
350
E
  0
DICTIONARY
  5
D
102
{ACAD_REACTORS
330
C
102
}
330
C
100
AcDbDictionary
281
     1
  0
DICTIONARY
  5
1A
102
{ACAD_REACTORS
330
C
102
}
330
C
100
AcDbDictionary
281
     1
  3
Layout1
350
1E
  3
Layout2
350
26
  3
Model
350
22
  0
DICTIONARY
  5
17
102
{ACAD_REACTORS
330
C
102
}
330
C
100
AcDbDictionary
281
     1
  3
Standard
350
18
  0
DICTIONARY
  5
19
102
{ACAD_REACTORS
330
C
102
}
330
C
100
AcDbDictionary
281
     1
  0
ACDBDICTIONARYWDFLT
  5
E
102
{ACAD_REACTORS
330
C
102
}
330
C
100
AcDbDictionary
281
     1
  3
Normal
350
F
100
AcDbDictionaryWithDefault
340
F
  0
LAYOUT
  5
1E
102
{ACAD_REACTORS
330
1A
102
}
330
1A
100
AcDbPlotSettings
  1

  2
none_device
  4

  6

 40
0.0
 41
0.0
 42
0.0
 43
0.0
 44
0.0
 45
0.0
 46
0.0
 47
0.0
 48
0.0
 49
0.0
140
0.0
141
0.0
142
1.0
143
1.0
 70
   688
 72
     0
 73
     0
 74
     5
  7

 75
    16
147
1.0
148
0.0
149
0.0
100
AcDbLayout
  1
Layout1
 70
     1
 71
     1
 10
0.0
 20
0.0
 11
420.0
 21
297.0
 12
0.0
 22
0.0
 32
0.0
 14
1.0000000000E+20
 24
1.0000000000E+20
 34
1.0000000000E+20
 15
-1.0000000000E+20
 25
-1.0000000000E+20
 35
-1.0000000000E+20
146
0.0
 13
0.0
 23
0.0
 33
0.0
 16
1.0
 26
0.0
 36
0.0
 17
0.0
 27
1.0
 37
0.0
 76
     0
330
1B
  0
LAYOUT
  5
26
102
{ACAD_REACTORS
330
1A
102
}
330
1A
100
AcDbPlotSettings
  1

  2
none_device
  4

  6

 40
0.0
 41
0.0
 42
0.0
 43
0.0
 44
0.0
 45
0.0
 46
0.0
 47
0.0
 48
0.0
 49
0.0
140
0.0
141
0.0
142
1.0
143
1.0
 70
   688
 72
     0
 73
     0
 74
     5
  7

 75
    16
147
1.0
148
0.0
149
0.0
100
AcDbLayout
  1
Layout2
 70
     1
 71
     2
 10
0.0
 20
0.0
 11
0.0
 21
0.0
 12
0.0
 22
0.0
 32
0.0
 14
0.0
 24
0.0
 34
0.0
 15
0.0
 25
0.0
 35
0.0
146
0.0
 13
0.0
 23
0.0
 33
0.0
 16
1.0
 26
0.0
 36
0.0
 17
0.0
 27
1.0
 37
0.0
 76
     0
330
23
  0
LAYOUT
  5
22
102
{ACAD_REACTORS
330
1A
102
}
330
1A
100
AcDbPlotSettings
  1

  2
none_device
  4

  6

 40
0.0
 41
0.0
 42
0.0
 43
0.0
 44
0.0
 45
0.0
 46
0.0
 47
0.0
 48
0.0
 49
0.0
140
0.0
141
0.0
142
1.0
143
1.0
 70
  1712
 72
     0
 73
     0
 74
     0
  7

 75
     0
147
1.0
148
0.0
149
0.0
100
AcDbLayout
  1
Model
 70
     1
 71
     0
 10
0.0
 20
0.0
 11
297.0
 21
210.0
 12
0.0
 22
0.0
 32
0.0
 14
0.0
 24
0.0
 34
0.0
 15
297.0
 25
210.0
 35
0.0
146
0.0
 13
0.0
 23
0.0
 33
0.0
 16
1.0
 26
0.0
 36
0.0
 17
0.0
 27
1.0
 37
0.0
 76
     0
330
1F
331
29
  0
MLINESTYLE
  5
18
102
{ACAD_REACTORS
330
17
102
}
330
17
100
AcDbMlineStyle
  2
Standard
 70
     0
  3

 62
   256
 51
90.0
 52
90.0
 71
     2
 49
0.5
 62
   256
  6
BYLAYER
 49
-0.5
 62
   256
  6
BYLAYER
  0
ACDBPLACEHOLDER
  5
F
102
{ACAD_REACTORS
330
E
102
}
330
E
  0
ENDSEC
  0
EOF
