  0
SECTION
  2
HEADER
  9
$ACADVER
  1
AC1015
  9
$ACADMAINTVER
 70
     6
  9
$DWGCODEPAGE
  3
ANSI_1252
  9
$INSBASE
 10
0.0
 20
0.0
 30
0.0
  9
$EXTMIN
 10
0.0
 20
0.0
 30
0.0
  9
$EXTMAX
 10
297.0
 20
210.0
 30
0.0
  9
$LIMMIN
 10
0.0
 20
0.0
  9
$LIMMAX
 10
297.0
 20
210.0
  9
$ORTHOMODE
 70
     0
  9
$REGENMODE
 70
     1
  9
$FILLMODE
 70
     1
  9
$QTEXTMODE
 70
     0
  9
$MIRRTEXT
 70
     1
  9
$LTSCALE
 40
1.0
  9
$ATTMODE
 70
     1
  9
$TEXTSIZE
 40
2.0
  9
$TRACEWID
 40
1.0
  9
$TEXTSTYLE
  7
Standard
  9
$CLAYER
  8
0
  9
$CELTYPE
  6
ByLayer
  9
$CECOLOR
 62
   256
  9
$CELTSCALE
 40
1.0
  9
$DISPSILH
 70
     0
  9
$DIMSCALE
 40
1.0
  9
$DIMASZ
 40
3.0
  9
$DIMEXO
 40
0.0
  9
$DIMDLI
 40
3.75
  9
$DIMRND
 40
0.0
  9
$DIMDLE
 40
0.0
  9
$DIMEXE
 40
1.0
  9
$DIMTP
 40
0.0
  9
$DIMTM
 40
0.0
  9
$DIMTXT
 40
2.0
  9
$DIMCEN
 40
2.5
  9
$DIMTSZ
 40
0.0
  9
$DIMTOL
 70
     0
  9
$DIMLIM
 70
     0
  9
$DIMTIH
 70
     1
  9
$DIMTOH
 70
     1
  9
$DIMSE1
 70
     0
  9
$DIMSE2
 70
     0
  9
$DIMTAD
 70
     1
  9
$DIMZIN
 70
     0
  9
$DIMBLK
  1

  9
$DIMASO
 70
     1
  9
$DIMSHO
 70
     1
  9
$DIMPOST
  1

  9
$DIMAPOST
  1

  9
$DIMALT
 70
     0
  9
$DIMALTD
 70
     3
  9
$DIMALTF
 40
0.0393700787
  9
$DIMLFAC
 40
1.0
  9
$DIMTOFL
 70
     1
  9
$DIMTVP
 40
0.0
  9
$DIMTIX
 70
     0
  9
$DIMSOXD
 70
     0
  9
$DIMSAH
 70
     0
  9
$DIMBLK1
  1

  9
$DIMBLK2
  1

  9
$DIMSTYLE
  2
ISO-25
  9
$DIMCLRD
 70
     0
  9
$DIMCLRE
 70
     0
  9
$DIMCLRT
 70
     0
  9
$DIMTFAC
 40
1.0
  9
$DIMGAP
 40
1.524
  9
$DIMJUST
 70
     0
  9
$DIMSD1
 70
     0
  9
$DIMSD2
 70
     0
  9
$DIMTOLJ
 70
     0
  9
$DIMTZIN
 70
     0
  9
$DIMALTZ
 70
     0
  9
$DIMALTTZ
 70
     0
  9
$DIMUPT
 70
     0
  9
$DIMDEC
 70
     2
  9
$DIMTDEC
 70
     3
  9
$DIMALTU
 70
     2
  9
$DIMALTTD
 70
     3
  9
$DIMTXSTY
  7
Standard
  9
$DIMAUNIT
 70
     0
  9
$DIMADEC
 70
     2
  9
$DIMALTRND
 40
0.0
  9
$DIMAZIN
 70
     0
  9
$DIMDSEP
 70
    44
  9
$DIMATFIT
 70
     3
  9
$DIMFRAC
 70
     0
  9
$DIMLDRBLK
  1

  9
$DIMLUNIT
 70
     2
  9
$DIMLWD
 70
    -2
  9
$DIMLWE
 70
    -2
  9
$DIMTMOVE
 70
     0
  9
$LUNITS
 70
     2
  9
$LUPREC
 70
     2
  9
$SKETCHINC
 40
1.0
  9
$FILLETRAD
 40
10.0
  9
$AUNITS
 70
     0
  9
$AUPREC
 70
     2
  9
$MENU
  1
.
  9
$ELEVATION
 40
0.0
  9
$PELEVATION
 40
0.0
  9
$THICKNESS
 40
0.0
  9
$LIMCHECK
 70
     0
  9
$CHAMFERA
 40
10.0
  9
$CHAMFERB
 40
10.0
  9
$CHAMFERC
 40
20.0
  9
$CHAMFERD
 40
0.0
  9
$SKPOLY
 70
     0
  9
$TDCREATE
 40
2455615.403609005
  9
$TDUCREATE
 40
2455615.361942338
  9
$TDUPDATE
 40
2455615.403609016
  9
$TDUUPDATE
 40
2455615.361942349
  9
$TDINDWG
 40
0.0000000116
  9
$TDUSRTIMER
 40
0.0000000116
  9
$USRTIMER
 70
     1
  9
$ANGBASE
 50
0.0
  9
$ANGDIR
 70
     0
  9
$PDMODE
 70
     0
  9
$PDSIZE
 40
-1.0
  9
$PLINEWID
 40
0.0
  9
$SPLFRAME
 70
     0
  9
$SPLINETYPE
 70
     6
  9
$SPLINESEGS
 70
     8
  9
$HANDSEED
  5
30E
  9
$SURFTAB1
 70
     6
  9
$SURFTAB2
 70
     6
  9
$SURFTYPE
 70
     6
  9
$SURFU
 70
     6
  9
$SURFV
 70
     6
  9
$UCSBASE
  2

  9
$UCSNAME
  2

  9
$UCSORG
 10
0.0
 20
0.0
 30
0.0
  9
$UCSXDIR
 10
1.0
 20
0.0
 30
0.0
  9
$UCSYDIR
 10
0.0
 20
1.0
 30
0.0
  9
$UCSORTHOREF
  2

  9
$UCSORTHOVIEW
 70
     0
  9
$UCSORGTOP
 10
0.0
 20
0.0
 30
0.0
  9
$UCSORGBOTTOM
 10
0.0
 20
0.0
 30
0.0
  9
$UCSORGLEFT
 10
0.0
 20
0.0
 30
0.0
  9
$UCSORGRIGHT
 10
0.0
 20
0.0
 30
0.0
  9
$UCSORGFRONT
 10
0.0
 20
0.0
 30
0.0
  9
$UCSORGBACK
 10
0.0
 20
0.0
 30
0.0
  9
$PUCSBASE
  2

  9
$PUCSNAME
  2

  9
$PUCSORG
 10
0.0
 20
0.0
 30
0.0
  9
$PUCSXDIR
 10
1.0
 20
0.0
 30
0.0
  9
$PUCSYDIR
 10
0.0
 20
1.0
 30
0.0
  9
$PUCSORTHOREF
  2

  9
$PUCSORTHOVIEW
 70
     0
  9
$PUCSORGTOP
 10
0.0
 20
0.0
 30
0.0
  9
$PUCSORGBOTTOM
 10
0.0
 20
0.0
 30
0.0
  9
$PUCSORGLEFT
 10
0.0
 20
0.0
 30
0.0
  9
$PUCSORGRIGHT
 10
0.0
 20
0.0
 30
0.0
  9
$PUCSORGFRONT
 10
0.0
 20
0.0
 30
0.0
  9
$PUCSORGBACK
 10
0.0
 20
0.0
 30
0.0
  9
$USERI1
 70
     0
  9
$USERI2
 70
     0
  9
$USERI3
 70
     0
  9
$USERI4
 70
     0
  9
$USERI5
 70
     0
  9
$USERR1
 40
0.0
  9
$USERR2
 40
0.0
  9
$USERR3
 40
0.0
  9
$USERR4
 40
0.0
  9
$USERR5
 40
0.0
  9
$WORLDVIEW
 70
     1
  9
$SHADEDGE
 70
     3
  9
$SHADEDIF
 70
    70
  9
$TILEMODE
 70
     1
  9
$MAXACTVP
 70
    64
  9
$PINSBASE
 10
0.0
 20
0.0
 30
0.0
  9
$PLIMCHECK
 70
     0
  9
$PEXTMIN
 10
1.0000000000E+20
 20
1.0000000000E+20
 30
1.0000000000E+20
  9
$PEXTMAX
 10
-1.0000000000E+20
 20
-1.0000000000E+20
 30
-1.0000000000E+20
  9
$PLIMMIN
 10
0.0
 20
0.0
  9
$PLIMMAX
 10
420.0
 20
297.0
  9
$UNITMODE
 70
     0
  9
$VISRETAIN
 70
     1
  9
$PLINEGEN
 70
     0
  9
$PSLTSCALE
 70
     1
  9
$TREEDEPTH
 70
  3020
  9
$CMLSTYLE
  2
Standard
  9
$CMLJUST
 70
     0
  9
$CMLSCALE
 40
20.0
  9
$PROXYGRAPHICS
 70
     1
  9
$MEASUREMENT
 70
     1
  9
$CELWEIGHT
370
    -1
  9
$ENDCAPS
280
     0
  9
$JOINSTYLE
280
     0
  9
$LWDISPLAY
290
     1
  9
$INSUNITS
 70
     4
  9
$HYPERLINKBASE
  1

  9
$STYLESHEET
  1

  9
$XEDIT
290
     1
  9
$CEPSNTYPE
380
     0
  9
$PSTYLEMODE
290
     1
  9
$FINGERPRINTGUID
  2
{3539EB12-1DCA-4DE6-B3CB-2036D8B54E2B}
  9
$VERSIONGUID
  2
{FAEB1C32-E019-11D5-929B-00C0DF256EC4}
  9
$EXTNAMES
290
     1
  9
$PSVPSCALE
 40
0.0
  9
$OLESTARTUP
290
     0
  0
ENDSEC
  0
SECTION
  2
CLASSES
  0
CLASS
  1
ACDBDICTIONARYWDFLT
  2
AcDbDictionaryWithDefault
  3
ObjectDBX Classes
 90
        0
280
     0
281
     0
  0
CLASS
  1
VISUALSTYLE
  2
AcDbVisualStyle
  3
ObjectDBX Classes
 90
     4095
280
     0
281
     0
  0
CLASS
  1
DICTIONARYVAR
  2
AcDbDictionaryVar
  3
ObjectDBX Classes
 90
        0
280
     0
281
     0
  0
CLASS
  1
ACDBPLACEHOLDER
  2
AcDbPlaceHolder
  3
ObjectDBX Classes
 90
        0
280
     0
281
     0
  0
CLASS
  1
LAYOUT
  2
AcDbLayout
  3
ObjectDBX Classes
 90
        0
280
     0
281
     0
  0
ENDSEC
  0
SECTION
  2
TABLES
  0
TABLE
  2
VPORT
  5
8
330
0
100
AcDbSymbolTable
 70
     1
  0
VPORT
  5
29
330
8
100
AcDbSymbolTableRecord
100
AcDbViewportTableRecord
  2
*Active
 70
     0
 10
0.0
 20
0.0
 11
1.0
 21
1.0
 12
148.5
 22
105.0
 13
0.0
 23
0.0
 14
10.0
 24
10.0
 15
10.0
 25
10.0
 16
0.0
 26
0.0
 36
1.0
 17
0.0
 27
0.0
 37
0.0
 40
210.0
 41
1.4142857143
 42
50.0
 43
0.0
 44
0.0
 50
0.0
 51
0.0
 71
     0
 72
  2000
 73
     1
 74
     3
 75
     0
 76
     0
 77
     0
 78
     0
281
     0
 65
     1
110
0.0
120
0.0
130
0.0
111
1.0
121
0.0
131
0.0
112
0.0
122
1.0
132
0.0
 79
     0
146
0.0
  0
ENDTAB
  0
TABLE
  2
LTYPE
  5
5
330
0
100
AcDbSymbolTable
 70
     6
  0
LTYPE
  5
14
330
5
100
AcDbSymbolTableRecord
100
AcDbLinetypeTableRecord
  2
ByBlock
 70
     0
  3

 72
    65
 73
     0
 40
0.0
  0
LTYPE
  5
15
330
5
100
AcDbSymbolTableRecord
100
AcDbLinetypeTableRecord
  2
ByLayer
 70
     0
  3

 72
    65
 73
     0
 40
0.0
  0
LTYPE
  5
16
330
5
100
AcDbSymbolTableRecord
100
AcDbLinetypeTableRecord
  2
Continuous
 70
     0
  3
Solid line
 72
    65
 73
     0
 40
0.0
  0
LTYPE
  5
3B
330
5
100
AcDbSymbolTableRecord
100
AcDbLinetypeTableRecord
  2
HIDDEN
 70
     0
  3
Hidden __ __ __ __ __ __ __ __ __ __ __ __ __ __
 72
    65
 73
     2
 40
1.905
 49
1.27
 74
     0
 49
-0.635
 74
     0
  0
LTYPE
  5
3C
330
5
100
AcDbSymbolTableRecord
100
AcDbLinetypeTableRecord
  2
PHANTOM
 70
     0
  3
Phantom ______  __  __  ______  __  __  ______
 72
    65
 73
     6
 40
12.7
 49
6.35
 74
     0
 49
-1.27
 74
     0
 49
1.27
 74
     0
 49
-1.27
 74
     0
 49
1.27
 74
     0
 49
-1.27
 74
     0
  0
LTYPE
  5
3D
330
5
100
AcDbSymbolTableRecord
100
AcDbLinetypeTableRecord
  2
CENTER
 70
     0
  3
Center ____ _ ____ _ ____ _ ____ _ ____ _ ____
 72
    65
 73
     4
 40
10.16
 49
6.35
 74
     0
 49
-1.27
 74
     0
 49
1.27
 74
     0
 49
-1.27
 74
     0
  0
LTYPE
  5
3E
330
5
100
AcDbSymbolTableRecord
100
AcDbLinetypeTableRecord
  2
CENTERX2
 70
     0
  3
Center (2x) ________  __  ________  __  _____
 72
    65
 73
     4
 40
20.32
 49
12.7
 74
     0
 49
-2.54
 74
     0
 49
2.54
 74
     0
 49
-2.54
 74
     0
  0
LTYPE
  5
3F
330
5
100
AcDbSymbolTableRecord
100
AcDbLinetypeTableRecord
  2
DOT2
 70
     0
  3
Dot (.5x) ........................................
 72
    65
 73
     2
 40
0.635
 49
0.0
 74
     0
 49
-0.635
 74
     0
  0
ENDTAB
  0
TABLE
  2
LAYER
  5
2
330
0
100
AcDbSymbolTable
 70
     5
  0
LAYER
  5
10
330
2
100
AcDbSymbolTableRecord
100
AcDbLayerTableRecord
  2
0
 70
     0
 62
     7
  6
Continuous
370
    -3
390
F
  0
LAYER
  5
40
330
2
100
AcDbSymbolTableRecord
100
AcDbLayerTableRecord
  2
FORMAT
 70
     0
 62
     7
  6
Continuous
370
    -3
390
F
  0
LAYER
  5
41
330
2
100
AcDbSymbolTableRecord
100
AcDbLayerTableRecord
  2
VERMASSUNG
 70
     0
 62
     7
  6
Continuous
370
    -3
390
F
  0
LAYER
  5
42
330
2
100
AcDbSymbolTableRecord
100
AcDbLayerTableRecord
  2
KOPF_DÜNN
 70
     0
 62
     7
  6
Continuous
370
    -3
390
F
  0
LAYER
  5
43
330
2
100
AcDbSymbolTableRecord
100
AcDbLayerTableRecord
  2
KOPF_DICK
 70
     0
 62
     7
  6
Continuous
370
    15
390
F
  0
ENDTAB
  0
TABLE
  2
STYLE
  5
3
330
0
100
AcDbSymbolTable
 70
     3
  0
STYLE
  5
11
330
3
100
AcDbSymbolTableRecord
100
AcDbTextStyleTableRecord
  2
Standard
 70
     0
 40
0.0
 41
1.0
 50
0.0
 71
     0
 42
2.5
  3
txt
  4

  0
STYLE
  5
44
330
3
100
AcDbSymbolTableRecord
100
AcDbTextStyleTableRecord
  2
SLDTEXTSTYLE0
 70
     0
 40
0.0
 41
0.7
 50
0.0
 71
     0
 42
0.2
  3
TXT
  4

  0
STYLE
  5
48
330
3
100
AcDbSymbolTableRecord
100
AcDbTextStyleTableRecord
  2
SLDTEXTSTYLE1
 70
     0
 40
0.0
 41
0.6526315789
 50
0.0
 71
     0
 42
0.2
  3
TXT
  4

  0
ENDTAB
  0
TABLE
  2
VIEW
  5
6
330
0
100
AcDbSymbolTable
 70
     0
  0
ENDTAB
  0
TABLE
  2
UCS
  5
7
330
0
100
AcDbSymbolTable
 70
     0
  0
ENDTAB
  0
TABLE
  2
APPID
  5
9
330
0
100
AcDbSymbolTable
 70
     1
  0
APPID
  5
12
330
9
100
AcDbSymbolTableRecord
100
AcDbRegAppTableRecord
  2
ACAD
 70
     0
  0
ENDTAB
  0
TABLE
  2
DIMSTYLE
  5
A
330
0
100
AcDbSymbolTable
 70
     4
100
AcDbDimStyleTable
  0
DIMSTYLE
105
27
330
A
100
AcDbSymbolTableRecord
100
AcDbDimStyleTableRecord
  2
ISO-25
 70
     0
 41
2.5
 42
0.625
 43
3.75
 44
1.25
 73
     0
 74
     0
 77
     1
 78
     8
140
2.5
141
2.5
143
0.0393700787
147
0.625
171
     3
172
     1
271
     2
272
     2
274
     3
278
    44
283
     0
284
     8
340
11
  0
DIMSTYLE
105
249
102
{ACAD_REACTORS
330
248
330
255
330
25F
330
269
102
}
330
A
100
AcDbSymbolTableRecord
100
AcDbDimStyleTableRecord
  2
SLDDIMSTYLE0
 70
     0
 41
3.0
 44
0.0
 45
0.000000001
 73
     0
 74
     0
 77
     1
 78
    12
140
2.0
147
0.5
173
     1
271
     2
272
     3
284
    12
340
44
  0
DIMSTYLE
105
274
102
{ACAD_REACTORS
330
273
102
}
330
A
100
AcDbSymbolTableRecord
100
AcDbDimStyleTableRecord
  2
SLDDIMSTYLE1
 70
     0
 41
3.0
 44
0.0
 73
     0
 74
     0
 77
     1
 78
    12
140
2.0
147
0.5
173
     1
179
     2
272
     3
284
    12
340
44
  0
DIMSTYLE
105
2F1
102
{ACAD_REACTORS
330
2F0
102
}
330
A
100
AcDbSymbolTableRecord
100
AcDbDimStyleTableRecord
  2
SLDDIMSTYLE2
 70
     0
 41
3.0
 44
0.0
 45
0.000000001
 73
     0
 74
     0
 77
     1
 78
    12
140
2.0
147
0.5
173
     1
271
     2
272
     3
284
    12
340
44
  0
ENDTAB
  0
TABLE
  2
BLOCK_RECORD
  5
1
330
0
100
AcDbSymbolTable
 70
     8
  0
BLOCK_RECORD
  5
1F
330
1
100
AcDbSymbolTableRecord
100
AcDbBlockTableRecord
  2
*Model_Space
340
22
  0
BLOCK_RECORD
  5
1B
330
1
100
AcDbSymbolTableRecord
100
AcDbBlockTableRecord
  2
*Paper_Space
340
1E
  0
BLOCK_RECORD
  5
23
330
1
100
AcDbSymbolTableRecord
100
AcDbBlockTableRecord
  2
*Paper_Space0
340
26
  0
BLOCK_RECORD
  5
24A
330
1
100
AcDbSymbolTableRecord
100
AcDbBlockTableRecord
  2
*D1
340
0
  0
BLOCK_RECORD
  5
256
330
1
100
AcDbSymbolTableRecord
100
AcDbBlockTableRecord
  2
*D2
340
0
  0
BLOCK_RECORD
  5
260
330
1
100
AcDbSymbolTableRecord
100
AcDbBlockTableRecord
  2
*D3
340
0
  0
BLOCK_RECORD
  5
26A
330
1
100
AcDbSymbolTableRecord
100
AcDbBlockTableRecord
  2
*D4
340
0
  0
BLOCK_RECORD
  5
275
330
1
100
AcDbSymbolTableRecord
100
AcDbBlockTableRecord
  2
*D5
340
0
  0
BLOCK_RECORD
  5
2F2
330
1
100
AcDbSymbolTableRecord
100
AcDbBlockTableRecord
  2
*D6
340
0
  0
BLOCK_RECORD
  5
2FC
330
1
100
AcDbSymbolTableRecord
100
AcDbBlockTableRecord
  2
SW_CENTERMARKSYMBOL_0
340
0
102
{BLKREFS
331
307
102
}
  0
ENDTAB
  0
ENDSEC
  0
SECTION
  2
BLOCKS
  0
BLOCK
  5
20
330
1F
100
AcDbEntity
  8
0
100
AcDbBlockBegin
  2
*Model_Space
 70
     0
 10
0.0
 20
0.0
 30
0.0
  3
*Model_Space
  1

  0
ENDBLK
  5
21
330
1F
100
AcDbEntity
  8
0
100
AcDbBlockEnd
  0
BLOCK
  5
1C
330
1B
100
AcDbEntity
 67
     1
  8
0
100
AcDbBlockBegin
  2
*Paper_Space
 70
     0
 10
0.0
 20
0.0
 30
0.0
  3
*Paper_Space
  1

  0
ENDBLK
  5
1D
330
1B
100
AcDbEntity
 67
     1
  8
0
100
AcDbBlockEnd
  0
BLOCK
  5
24
330
23
100
AcDbEntity
  8
0
100
AcDbBlockBegin
  2
*Paper_Space0
 70
     0
 10
0.0
 20
0.0
 30
0.0
  3
*Paper_Space0
  1

  0
ENDBLK
  5
25
330
23
100
AcDbEntity
  8
0
100
AcDbBlockEnd
  0
BLOCK
  5
24B
330
24A
100
AcDbEntity
  8
0
100
AcDbBlockBegin
  2
*D1
 70
     1
 10
0.0
 20
0.0
 30
0.0
  3
*D1
  1

  0
SOLID
  5
24D
330
24A
100
AcDbEntity
  8
VERMASSUNG
100
AcDbTrace
 10
155.8589231704
 20
134.1093317417
 30
0.0
 11
155.4089231704
 21
131.1093317417
 31
0.0
 12
156.3089231704
 22
131.1093317417
 32
0.0
 13
156.3089231704
 23
131.1093317417
 33
0.0
  0
SOLID
  5
24E
330
24A
100
AcDbEntity
  8
VERMASSUNG
100
AcDbTrace
 10
155.8589231704
 20
71.1093317417
 30
0.0
 11
156.3089231704
 21
74.1093317417
 31
0.0
 12
155.4089231704
 22
74.1093317417
 32
0.0
 13
155.4089231704
 23
74.1093317417
 33
0.0
  0
LINE
  5
24F
330
24A
100
AcDbEntity
  8
VERMASSUNG
100
AcDbLine
 10
194.01516151
 20
134.1093317417
 30
0.0
 11
154.8589231704
 21
134.1093317417
 31
0.0
  0
LINE
  5
250
330
24A
100
AcDbEntity
  8
VERMASSUNG
100
AcDbLine
 10
194.01516151
 20
71.1093317417
 30
0.0
 11
154.8589231704
 21
71.1093317417
 31
0.0
  0
LINE
  5
251
330
24A
100
AcDbEntity
  8
VERMASSUNG
100
AcDbLine
 10
155.8589231704
 20
134.1093317417
 30
0.0
 11
155.8589231704
 21
71.1093317417
 31
0.0
  0
MTEXT
  5
252
330
24A
100
AcDbEntity
  8
VERMASSUNG
100
AcDbMText
 10
153.0807876813
 20
96.4059853904
 30
0.0
 40
2.0
 41
0.0
 71
     1
 72
     1
  1
HSK 
  7
SLDTEXTSTYLE0
 11
-7.044195017643634E-15
 21
1.0
 31
0.0
 73
     1
 44
1.0
  0
MTEXT
  5
253
330
24A
100
AcDbEntity
  8
VERMASSUNG
100
AcDbMText
 10
153.2807876908
 20
102.4059854426
 30
0.0
 40
2.0
 41
0.0
 71
     1
 72
     1
  1
%%c
  7
SLDTEXTSTYLE0
 11
-7.044195017643634E-15
 21
1.0
 31
0.0
 73
     1
 44
1.0
  0
MTEXT
  5
254
330
24A
100
AcDbEntity
  8
VERMASSUNG
100
AcDbMText
 10
153.2807878072
 20
106.0140663848
 30
0.0
 40
2.0
 41
0.0
 71
     1
 72
     1
  1
63
  7
SLDTEXTSTYLE0
 11
-7.044195017643634E-15
 21
1.0
 31
0.0
 73
     1
 44
1.0
  0
ENDBLK
  5
24C
330
24A
100
AcDbEntity
  8
0
100
AcDbBlockEnd
  0
BLOCK
  5
257
330
256
100
AcDbEntity
  8
0
100
AcDbBlockBegin
  2
*D2
 70
     1
 10
0.0
 20
0.0
 30
0.0
  3
*D2
  1

  0
SOLID
  5
259
330
256
100
AcDbEntity
  8
VERMASSUNG
100
AcDbTrace
 10
161.81516151
 20
158.4238533376
 30
0.0
 11
164.81516151
 21
157.9738533376
 31
0.0
 12
164.81516151
 22
158.8738533376
 32
0.0
 13
164.81516151
 23
158.8738533376
 33
0.0
  0
SOLID
  5
25A
330
256
100
AcDbEntity
  8
VERMASSUNG
100
AcDbTrace
 10
263.71516151
 20
158.4238533376
 30
0.0
 11
260.71516151
 21
158.8738533376
 31
0.0
 12
260.71516151
 22
157.9738533376
 32
0.0
 13
260.71516151
 23
157.9738533376
 33
0.0
  0
LINE
  5
25B
330
256
100
AcDbEntity
  8
VERMASSUNG
100
AcDbLine
 10
161.81516151
 20
122.3000094882
 30
0.0
 11
161.81516151
 21
159.4238533376
 31
0.0
  0
LINE
  5
25C
330
256
100
AcDbEntity
  8
VERMASSUNG
100
AcDbLine
 10
263.71516151
 20
147.6093317417
 30
0.0
 11
263.71516151
 21
159.4238533376
 31
0.0
  0
LINE
  5
25D
330
256
100
AcDbEntity
  8
VERMASSUNG
100
AcDbLine
 10
161.81516151
 20
158.4238533376
 30
0.0
 11
263.71516151
 21
158.4238533376
 31
0.0
  0
MTEXT
  5
25E
330
256
100
AcDbEntity
  8
VERMASSUNG
100
AcDbMText
 10
210.06615317
 20
161.0019887007
 30
0.0
 40
2.0
 41
0.0
 71
     1
 72
     1
  1
101.9
  7
SLDTEXTSTYLE0
 73
     1
 44
1.0
  0
ENDBLK
  5
258
330
256
100
AcDbEntity
  8
0
100
AcDbBlockEnd
  0
BLOCK
  5
261
330
260
100
AcDbEntity
  8
0
100
AcDbBlockBegin
  2
*D3
 70
     1
 10
0.0
 20
0.0
 30
0.0
  3
*D3
  1

  0
SOLID
  5
263
330
260
100
AcDbEntity
  8
VERMASSUNG
100
AcDbTrace
 10
193.71516151
 20
152.4238533376
 30
0.0
 11
196.71516151
 21
151.9738533376
 31
0.0
 12
196.71516151
 22
152.8738533376
 32
0.0
 13
196.71516151
 23
152.8738533376
 33
0.0
  0
SOLID
  5
264
330
260
100
AcDbEntity
  8
VERMASSUNG
100
AcDbTrace
 10
263.71516151
 20
152.4238533376
 30
0.0
 11
260.71516151
 21
152.8738533376
 31
0.0
 12
260.71516151
 22
151.9738533376
 32
0.0
 13
260.71516151
 23
151.9738533376
 33
0.0
  0
LINE
  5
265
330
260
100
AcDbEntity
  8
VERMASSUNG
100
AcDbLine
 10
193.71516151
 20
133.8093317417
 30
0.0
 11
193.71516151
 21
153.4238533376
 31
0.0
  0
LINE
  5
266
330
260
100
AcDbEntity
  8
VERMASSUNG
100
AcDbLine
 10
263.71516151
 20
147.6093317417
 30
0.0
 11
263.71516151
 21
153.4238533376
 31
0.0
  0
LINE
  5
267
330
260
100
AcDbEntity
  8
VERMASSUNG
100
AcDbLine
 10
193.71516151
 20
152.4238533376
 30
0.0
 11
263.71516151
 21
152.4238533376
 31
0.0
  0
MTEXT
  5
268
330
260
100
AcDbEntity
  8
VERMASSUNG
100
AcDbMText
 10
227.315855656
 20
155.0019887007
 30
0.0
 40
2.0
 41
0.0
 71
     1
 72
     1
  1
70
  7
SLDTEXTSTYLE0
 73
     1
 44
1.0
  0
ENDBLK
  5
262
330
260
100
AcDbEntity
  8
0
100
AcDbBlockEnd
  0
BLOCK
  5
26B
330
26A
100
AcDbEntity
  8
0
100
AcDbBlockBegin
  2
*D4
 70
     1
 10
0.0
 20
0.0
 30
0.0
  3
*D4
  1

  0
SOLID
  5
26D
330
26A
100
AcDbEntity
  8
VERMASSUNG
100
AcDbTrace
 10
268.9843246647
 20
147.6093317417
 30
0.0
 11
268.5343246647
 21
144.6093317417
 31
0.0
 12
269.4343246647
 22
144.6093317417
 32
0.0
 13
269.4343246647
 23
144.6093317417
 33
0.0
  0
SOLID
  5
26E
330
26A
100
AcDbEntity
  8
VERMASSUNG
100
AcDbTrace
 10
268.9843246647
 20
102.6093317417
 30
0.0
 11
269.4343246647
 21
105.6093317417
 31
0.0
 12
268.5343246647
 22
105.6093317417
 32
0.0
 13
268.5343246647
 23
105.6093317417
 33
0.0
  0
LINE
  5
26F
330
26A
100
AcDbEntity
  8
VERMASSUNG
100
AcDbLine
 10
263.71516151
 20
147.6093317417
 30
0.0
 11
269.9843246647
 21
147.6093317417
 31
0.0
  0
LINE
  5
270
330
26A
100
AcDbEntity
  8
VERMASSUNG
100
AcDbLine
 10
256.3798107842
 20
102.6093317417
 30
0.0
 11
269.9843246647
 21
102.6093317417
 31
0.0
  0
LINE
  5
271
330
26A
100
AcDbEntity
  8
VERMASSUNG
100
AcDbLine
 10
268.9843246647
 20
147.6093317417
 30
0.0
 11
268.9843246647
 21
102.6093317417
 31
0.0
  0
MTEXT
  5
272
330
26A
100
AcDbEntity
  8
VERMASSUNG
100
AcDbMText
 10
266.4061893016
 20
123.6104225196
 30
0.0
 40
2.0
 41
0.0
 71
     1
 72
     1
  1
45
  7
SLDTEXTSTYLE0
 11
-7.044195017643634E-15
 21
1.0
 31
0.0
 73
     1
 44
1.0
  0
ENDBLK
  5
26C
330
26A
100
AcDbEntity
  8
0
100
AcDbBlockEnd
  0
BLOCK
  5
276
330
275
100
AcDbEntity
  8
0
100
AcDbBlockBegin
  2
*D5
 70
     1
 10
0.0
 20
0.0
 30
0.0
  3
*D5
  1

  0
ARC
  5
278
330
275
100
AcDbEntity
  8
VERMASSUNG
100
AcDbCircle
 10
263.71516151
 20
147.1539221418
 30
0.0
 40
19.20468880682117
100
AcDbArc
 50
242.4402922859
 51
270.0
  0
SOLID
  5
279
330
275
100
AcDbEntity
  8
VERMASSUNG
100
AcDbTrace
 10
254.8296760381
 20
130.1284054068
 30
0.0
 11
257.4120209681
 21
128.5365528185
 31
0.0
 12
257.7654197501
 22
129.3642661148
 32
0.0
 13
257.7654197501
 23
129.3642661148
 33
0.0
  0
SOLID
  5
27A
330
275
100
AcDbEntity
  8
VERMASSUNG
100
AcDbTrace
 10
263.71516151
 20
127.949233335
 30
0.0
 11
260.7589926886
 21
128.6300900743
 31
0.0
 12
260.6893306595
 22
127.7327901235
 32
0.0
 13
260.6893306595
 23
127.7327901235
 33
0.0
  0
LINE
  5
27B
330
275
100
AcDbEntity
  8
VERMASSUNG
100
AcDbLine
 10
256.6455659858
 20
133.607839906
 30
0.0
 11
254.3670033252
 21
129.2418762416
 31
0.0
  0
MTEXT
  5
27C
330
275
100
AcDbEntity
  8
VERMASSUNG
100
AcDbMText
 10
256.8421346669
 20
131.7202582515
 30
0.0
 40
2.0
 41
0.0
 71
     1
 72
     1
  1
27.5°
  7
SLDTEXTSTYLE0
 11
0.9712180921808601
 21
-0.2381919759785589
 31
0.0
 73
     1
 44
1.0
  0
ENDBLK
  5
277
330
275
100
AcDbEntity
  8
0
100
AcDbBlockEnd
  0
BLOCK
  5
2F3
330
2F2
100
AcDbEntity
  8
0
100
AcDbBlockBegin
  2
*D6
 70
     1
 10
0.0
 20
0.0
 30
0.0
  3
*D6
  1

  0
SOLID
  5
2F5
330
2F2
100
AcDbEntity
  8
VERMASSUNG
100
AcDbTrace
 10
41.8461701424
 20
67.5856454795
 30
0.0
 11
42.2961701424
 21
70.5856454795
 31
0.0
 12
41.3961701424
 22
70.5856454795
 32
0.0
 13
41.3961701424
 23
70.5856454795
 33
0.0
  0
SOLID
  5
2F6
330
2F2
100
AcDbEntity
  8
VERMASSUNG
100
AcDbTrace
 10
41.8461701424
 20
147.5856454795
 30
0.0
 11
41.3961701424
 21
144.5856454795
 31
0.0
 12
42.2961701424
 22
144.5856454795
 32
0.0
 13
42.2961701424
 23
144.5856454795
 33
0.0
  0
LINE
  5
2F7
330
2F2
100
AcDbEntity
  8
VERMASSUNG
100
AcDbLine
 10
84.0531137628
 20
67.5856454795
 30
0.0
 11
40.8461701424
 21
67.5856454795
 31
0.0
  0
LINE
  5
2F8
330
2F2
100
AcDbEntity
  8
VERMASSUNG
100
AcDbLine
 10
84.0531137628
 20
147.5856454795
 30
0.0
 11
40.8461701424
 21
147.5856454795
 31
0.0
  0
LINE
  5
2F9
330
2F2
100
AcDbEntity
  8
VERMASSUNG
100
AcDbLine
 10
41.8461701424
 20
67.5856454795
 30
0.0
 11
41.8461701424
 21
147.5856454795
 31
0.0
  0
MTEXT
  5
2FA
330
2F2
100
AcDbEntity
  8
VERMASSUNG
100
AcDbMText
 10
39.2680346629
 20
104.3825469229
 30
0.0
 40
2.0
 41
0.0
 71
     1
 72
     1
  1
%%c
  7
SLDTEXTSTYLE0
 11
6.123233995736766E-17
 21
1.0
 31
0.0
 73
     1
 44
1.0
  0
MTEXT
  5
2FB
330
2F2
100
AcDbEntity
  8
VERMASSUNG
100
AcDbMText
 10
39.2680347793
 20
107.9901323279
 30
0.0
 40
2.0
 41
0.0
 71
     1
 72
     1
  1
80
  7
SLDTEXTSTYLE0
 11
6.123233995736766E-17
 21
1.0
 31
0.0
 73
     1
 44
1.0
  0
ENDBLK
  5
2F4
330
2F2
100
AcDbEntity
  8
0
100
AcDbBlockEnd
  0
BLOCK
  5
2FD
330
2FC
100
AcDbEntity
  8
0
100
AcDbBlockBegin
  2
SW_CENTERMARKSYMBOL_0
 70
     0
 10
0.0
 20
0.0
 30
0.0
  3
SW_CENTERMARKSYMBOL_0
  1

  0
LINE
  5
2FF
330
2FC
100
AcDbEntity
  8
VERMASSUNG
 62
     0
100
AcDbLine
 10
0.0
 20
0.0
 30
0.0
 11
0.0
 21
2.5
 31
0.0
  0
LINE
  5
300
330
2FC
100
AcDbEntity
  8
VERMASSUNG
 62
     0
100
AcDbLine
 10
0.0
 20
0.0
 30
0.0
 11
-2.5
 21
0.0
 31
0.0
  0
LINE
  5
301
330
2FC
100
AcDbEntity
  8
VERMASSUNG
 62
     0
100
AcDbLine
 10
0.0
 20
0.0
 30
0.0
 11
0.0
 21
-2.5
 31
0.0
  0
LINE
  5
302
330
2FC
100
AcDbEntity
  8
VERMASSUNG
 62
     0
100
AcDbLine
 10
0.0
 20
0.0
 30
0.0
 11
2.5
 21
0.0
 31
0.0
  0
LINE
  5
303
330
2FC
100
AcDbEntity
  8
VERMASSUNG
 62
     0
100
AcDbLine
 10
0.0
 20
5.0
 30
0.0
 11
0.0
 21
45.4987803672
 31
0.0
  0
LINE
  5
304
330
2FC
100
AcDbEntity
  8
VERMASSUNG
 62
     0
100
AcDbLine
 10
-5.0
 20
0.0
 30
0.0
 11
-34.0
 21
0.0
 31
0.0
  0
LINE
  5
305
330
2FC
100
AcDbEntity
  8
VERMASSUNG
 62
     0
100
AcDbLine
 10
0.0
 20
-5.0
 30
0.0
 11
0.0
 21
-34.0
 31
0.0
  0
LINE
  5
306
330
2FC
100
AcDbEntity
  8
VERMASSUNG
 62
     0
100
AcDbLine
 10
5.0
 20
0.0
 30
0.0
 11
34.0
 21
0.0
 31
0.0
  0
ENDBLK
  5
2FE
330
2FC
100
AcDbEntity
  8
0
100
AcDbBlockEnd
  0
ENDSEC
  0
SECTION
  2
ENTITIES
  0
MTEXT
  5
45
330
1F
100
AcDbEntity
  8
KOPF_DÜNN
100
AcDbMText
 10
13.8892156294
 20
23.8442973028
 30
0.0
 40
3.0
 41
0.0
 71
     1
 72
     1
  1
HA6.KVB.RPA.070
  7
SLDTEXTSTYLE0
 73
     1
 44
1.0
  0
MTEXT
  5
46
330
1F
100
AcDbEntity
  8
VERMASSUNG
100
AcDbMText
 10
13.9329988022
 20
28.8834360957
 30
0.0
 40
3.0
 41
0.0
 71
     1
 72
     1
  1
Klemmhalter rechts_Turning tool right 117.5° /35° /117.5°
  7
SLDTEXTSTYLE0
 73
     1
 44
1.0
  0
MTEXT
  5
47
330
1F
100
AcDbEntity
  8
VERMASSUNG
100
AcDbMText
 10
98.8601118557
 20
13.8365368179
 30
0.0
 40
2.0
 41
0.0
 71
     1
 72
     1
  1
Datum: 05.11.2008
  7
SLDTEXTSTYLE0
 73
     1
 44
1.0
  0
MTEXT
  5
49
330
1F
100
AcDbEntity
  8
VERMASSUNG
100
AcDbMText
 10
13.933048693
 20
18.0482802738
 30
0.0
 40
2.0
 41
0.0
 71
     1
 72
     1
  1
DIN 69893 HSK 63 A ICTM / VC.. 16 04..
  7
SLDTEXTSTYLE1
 73
     1
 44
1.0
  0
MTEXT
  5
4A
330
1F
100
AcDbEntity
  8
VERMASSUNG
100
AcDbMText
 10
13.9808475933
 20
13.9090973692
 30
0.0
 40
2.0
 41
0.0
 71
     1
 72
     1
  1
Gewicht: 1055g
  7
SLDTEXTSTYLE0
 73
     1
 44
1.0
  0
LINE
  5
4B
330
1F
100
AcDbEntity
  8
0
  6
Continuous
 62
     7
370
    15
100
AcDbLine
 10
251.5853792716
 20
136.8810196438
 30
0.0
 11
251.6787030418
 21
136.974116082
 31
0.0
  0
LINE
  5
4C
330
1F
100
AcDbEntity
  8
0
  6
Continuous
 62
     7
370
    15
100
AcDbLine
 10
253.0701099906
 20
135.6307779397
 30
0.0
 11
252.9768535056
 21
135.5377486227
 31
0.0
  0
LINE
  5
4D
330
1F
100
AcDbEntity
  8
0
  6
Continuous
 62
     7
370
    15
100
AcDbLine
 10
251.1275262008
 20
138.7843637963
 30
0.0
 11
251.0769834595
 21
138.7339441746
 31
0.0
  0
LINE
  5
4E
330
1F
100
AcDbEntity
  8
0
  6
Continuous
 62
     7
370
    15
100
AcDbLine
 10
254.784764289
 20
135.0171093222
 30
0.0
 11
254.8353070303
 21
135.0675289439
 31
0.0
  0
LINE
  5
4F
330
1F
100
AcDbEntity
  8
0
  6
Continuous
 62
     7
370
    15
100
AcDbLine
 10
252.833920899
 20
138.1563845161
 30
0.0
 11
252.9271589343
 21
138.2493954283
 31
0.0
  0
LINE
  5
50
330
1F
100
AcDbEntity
  8
0
  6
Continuous
 62
     7
370
    15
100
AcDbLine
 10
254.3187787718
 20
136.906269656
 30
0.0
 11
254.225395133
 21
136.813113495
 31
0.0
  0
LINE
  5
51
330
1F
100
AcDbEntity
  8
0
  6
Continuous
 62
     7
370
    15
100
AcDbLine
 10
194.01516151
 20
71.1093317417
 30
0.0
 11
198.66516151
 21
71.1093317417
 31
0.0
  0
LINE
  5
52
330
1F
100
AcDbEntity
  8
0
  6
Continuous
 62
     7
370
    15
100
AcDbLine
 10
198.6931498691
 20
134.1093317417
 30
0.0
 11
194.01516151
 21
134.1093317417
 31
0.0
  0
ARC
  5
53
330
1F
100
AcDbEntity
  8
0
  6
Continuous
 62
     7
370
    15
100
AcDbCircle
 10
194.01516151
 20
71.4093317417
 30
0.0
 40
0.2999999999999972
100
AcDbArc
 50
180.0
 51
270.0
  0
ARC
  5
54
330
1F
100
AcDbEntity
  8
0
  6
Continuous
 62
     7
370
    15
100
AcDbCircle
 10
194.01516151
 20
133.8093317417
 30
0.0
 40
0.2999999999999829
100
AcDbArc
 50
90.0
 51
180.0
  0
ARC
  5
55
330
1F
100
AcDbEntity
  8
0
  6
Continuous
 62
     7
370
    15
100
AcDbCircle
 10
220.66516151
 20
75.6093317417
 30
0.0
 40
1.000000000000014
100
AcDbArc
 50
90.0
 51
143.1139143113
  0
ARC
  5
56
330
1F
100
AcDbEntity
  8
0
  6
Continuous
 62
     7
370
    15
100
AcDbCircle
 10
220.66516151
 20
129.6093317417
 30
0.0
 40
1.0
100
AcDbArc
 50
216.8996843908
 51
270.0
  0
LINE
  5
57
330
1F
100
AcDbEntity
  8
0
  6
Continuous
 62
     7
370
    15
100
AcDbLine
 10
220.66516151
 20
76.6093317417
 30
0.0
 11
234.9478345221
 21
76.6093317417
 31
0.0
  0
LINE
  5
58
330
1F
100
AcDbEntity
  8
0
  6
Continuous
 62
     7
370
    15
100
AcDbLine
 10
234.9478345221
 20
128.6093317417
 30
0.0
 11
220.66516151
 21
128.6093317417
 31
0.0
  0
ARC
  5
59
330
1F
100
AcDbEntity
  8
0
  6
Continuous
 62
     7
370
    15
100
AcDbCircle
 10
193.21516151
 20
78.03890088
 30
0.0
 40
0.6000000000000019
100
AcDbArc
 50
33.5573097619
 51
90.0
  0
ARC
  5
5A
330
1F
100
AcDbEntity
  8
0
  6
Continuous
 62
     7
370
    15
100
AcDbCircle
 10
193.21516151
 20
127.1797626034
 30
0.0
 40
0.6000000000000019
100
AcDbArc
 50
270.0
 51
326.4426902381
  0
LINE
  5
5B
330
1F
100
AcDbEntity
  8
0
  6
Continuous
 62
     7
370
    15
100
AcDbLine
 10
180.4836527112
 20
126.2670617618
 30
0.0
 11
167.91516151
 21
125.6373778339
 31
0.0
  0
LINE
  5
5C
330
1F
100
AcDbEntity
  8
0
  6
Continuous
 62
     7
370
    15
100
AcDbLine
 10
191.71516151
 20
126.8297626034
 30
0.0
 11
188.8981598527
 21
126.6886302558
 31
0.0
  0
LINE
  5
5D
330
1F
100
AcDbEntity
  8
0
  6
Continuous
 62
     7
370
    15
100
AcDbLine
 10
188.8982159427
 20
78.5300304174
 30
0.0
 11
191.71516151
 21
78.38890088
 31
0.0
  0
LINE
  5
5E
330
1F
100
AcDbEntity
  8
0
  6
Continuous
 62
     7
370
    15
100
AcDbLine
 10
171.91516151
 20
79.3808848479
 30
0.0
 11
180.4840552299
 21
78.9515815553
 31
0.0
  0
LINE
  5
5F
330
1F
100
AcDbEntity
  8
0
  6
Continuous
 62
     7
370
    15
100
AcDbLine
 10
191.71516151
 20
78.38890088
 30
0.0
 11
192.5718742834
 21
78.6184563757
 31
0.0
  0
LINE
  5
60
330
1F
100
AcDbEntity
  8
0
  6
Continuous
 62
     7
370
    15
100
AcDbLine
 10
192.5718742834
 20
126.6002071076
 30
0.0
 11
191.71516151
 21
126.8297626034
 31
0.0
  0
ARC
  5
61
330
1F
100
AcDbEntity
  8
0
  6
Continuous
 62
     7
370
    15
100
AcDbCircle
 10
192.7271657105
 20
78.03890088
 30
0.0
 40
0.6000000000000085
100
AcDbArc
 50
90.0
 51
105.0
  0
ARC
  5
62
330
1F
100
AcDbEntity
  8
0
  6
Continuous
 62
     7
370
    15
100
AcDbCircle
 10
192.7271657105
 20
127.1797626034
 30
0.0
 40
0.6000000000000227
100
AcDbArc
 50
255.0
 51
270.0
  0
LINE
  5
63
330
1F
100
AcDbEntity
  8
0
  6
Continuous
 62
     7
370
    15
100
AcDbLine
 10
192.7271657105
 20
78.63890088
 30
0.0
 11
193.21516151
 21
78.63890088
 31
0.0
  0
LINE
  5
64
330
1F
100
AcDbEntity
  8
0
  6
Continuous
 62
     7
370
    15
100
AcDbLine
 10
193.21516151
 20
126.5797626034
 30
0.0
 11
192.7271657105
 21
126.5797626034
 31
0.0
  0
LINE
  5
65
330
1F
100
AcDbEntity
  8
0
  6
Continuous
 62
     7
370
    15
100
AcDbLine
 10
162.96516151
 20
81.7968317417
 30
0.0
 11
170.51516151
 21
81.7968317417
 31
0.0
  0
ARC
  5
66
330
1F
100
AcDbEntity
  8
0
  6
Continuous
 62
     7
370
    15
100
AcDbCircle
 10
170.51516151
 20
80.3968317417
 30
0.0
 40
1.400000000000005
100
AcDbArc
 50
37.6443616934
 51
90.0
  0
LINE
  5
67
330
1F
100
AcDbEntity
  8
0
  6
Continuous
 62
     7
370
    15
100
AcDbLine
 10
162.9563249682
 20
123.4704951999
 30
0.0
 11
161.8250622834
 21
122.3392325151
 31
0.0
  0
LINE
  5
68
330
1F
100
AcDbEntity
  8
0
  6
Continuous
 62
     7
370
    15
100
AcDbLine
 10
161.8125806303
 20
82.9494126214
 30
0.0
 11
162.96516151
 21
81.7968317417
 31
0.0
  0
ARC
  5
69
330
1F
100
AcDbEntity
  8
0
  6
Continuous
 62
     7
370
    15
100
AcDbCircle
 10
166.51516151
 20
124.8793317417
 30
0.0
 40
1.399999999999991
100
AcDbArc
 50
270.0
 51
301.7485287426
  0
LINE
  5
6A
330
1F
100
AcDbEntity
  8
0
  6
Continuous
 62
     7
370
    15
100
AcDbLine
 10
166.51516151
 20
123.4793317417
 30
0.0
 11
163.1060499114
 21
123.4793317417
 31
0.0
  0
ARC
  5
6B
330
1F
100
AcDbEntity
  8
0
  6
Continuous
 62
     7
370
    15
100
AcDbCircle
 10
234.9478345221
 20
129.6093317417
 30
0.0
 40
1.000000000000016
100
AcDbArc
 50
270.0
 51
345.0
  0
ARC
  5
6C
330
1F
100
AcDbEntity
  8
0
  6
Continuous
 62
     7
370
    15
100
AcDbCircle
 10
234.9478345221
 20
75.6093317417
 30
0.0
 40
1.000000000000016
100
AcDbArc
 50
15.0
 51
90.0
  0
LINE
  5
6D
330
1F
100
AcDbEntity
  8
0
  6
Continuous
 62
     7
370
    15
100
AcDbLine
 10
236.8936511775
 20
133.0075150568
 30
0.0
 11
235.9137603483
 21
129.3505126966
 31
0.0
  0
LINE
  5
6E
330
1F
100
AcDbEntity
  8
0
  6
Continuous
 62
     7
370
    15
100
AcDbLine
 10
235.9137603483
 20
75.8681507868
 30
0.0
 11
235.9831107025
 21
75.6093317417
 31
0.0
  0
LINE
  5
6F
330
1F
100
AcDbEntity
  8
0
  6
Continuous
 62
     7
370
    15
100
AcDbLine
 10
235.9831107025
 20
75.6093317417
 30
0.0
 11
237.5210922322
 21
75.6093317417
 31
0.0
  0
LINE
  5
70
330
1F
100
AcDbEntity
  8
0
  6
Continuous
 62
     7
370
    15
100
AcDbLine
 10
248.8753897461
 20
139.25402226
 30
0.0
 11
236.8954656067
 21
133.0761047317
 31
0.0
  0
CIRCLE
  5
71
330
1F
100
AcDbEntity
  8
0
  6
Continuous
 62
     7
370
    15
100
AcDbCircle
 10
252.9759692673
 20
136.9180541053
 30
0.0
 40
2.621677701236463
  0
CIRCLE
  5
72
330
1F
100
AcDbEntity
  8
0
  6
Continuous
 62
     7
370
    15
100
AcDbCircle
 10
252.9969853808
 20
136.9394857396
 30
0.0
 40
1.797812738024196
  0
ARC
  5
73
330
1F
100
AcDbEntity
  8
0
  6
Continuous
 62
     7
370
    15
100
AcDbCircle
 10
252.9926225529
 20
136.9512289643
 30
0.0
 40
1.665000345804222
100
AcDbArc
 50
76.7623712764
 51
135.5064026178
  0
ARC
  5
74
330
1F
100
AcDbEntity
  8
0
  6
Continuous
 62
     7
370
    15
100
AcDbCircle
 10
252.9952134299
 20
136.9528868537
 30
0.0
 40
1.665689293690013
100
AcDbArc
 50
135.6095399857
 51
195.8472004306
  0
ARC
  5
75
330
1F
100
AcDbEntity
  8
0
  6
Continuous
 62
     7
370
    15
100
AcDbCircle
 10
253.0113334641
 20
136.9557909572
 30
0.0
 40
1.681990460134779
100
AcDbArc
 50
195.7924177443
 51
254.125266625
  0
LINE
  5
76
330
1F
100
AcDbEntity
  8
0
  6
Continuous
 62
     7
370
    15
100
AcDbLine
 10
252.63343632
 20
135.3168303463
 30
0.0
 11
252.5512500727
 21
135.3379482018
 31
0.0
  0
ARC
  5
77
330
1F
100
AcDbEntity
  8
0
  6
Continuous
 62
     7
370
    15
100
AcDbCircle
 10
253.0086243437
 20
136.9392542725
 30
0.0
 40
1.665240357911642
100
AcDbArc
 50
256.979149198
 51
313.5556536091
  0
LINE
  5
78
330
1F
100
AcDbEntity
  8
0
  6
Continuous
 62
     7
370
    15
100
AcDbLine
 10
254.2393978014
 20
135.8177197545
 30
0.0
 11
254.1560729248
 21
135.7324455871
 31
0.0
  0
ARC
  5
79
330
1F
100
AcDbEntity
  8
0
  6
Continuous
 62
     7
370
    15
100
AcDbCircle
 10
253.0060953714
 20
136.9371928079
 30
0.0
 40
1.66560943831094
100
AcDbArc
 50
317.7698611182
 51
13.6868792981
  0
LINE
  5
7A
330
1F
100
AcDbEntity
  8
0
  6
Continuous
 62
     7
370
    15
100
AcDbLine
 10
254.5920817132
 20
137.4465218049
 30
0.0
 11
254.6244070487
 21
137.3313020772
 31
0.0
  0
ARC
  5
7B
330
1F
100
AcDbEntity
  8
0
  6
Continuous
 62
     7
370
    15
100
AcDbCircle
 10
252.9898784087
 20
136.9343699468
 30
0.0
 40
1.682068653383075
100
AcDbArc
 50
17.7267246614
 51
73.9120826769
  0
LINE
  5
7C
330
1F
100
AcDbEntity
  8
0
  6
Continuous
 62
     7
370
    15
100
AcDbLine
 10
253.3738913384
 20
138.5719881274
 30
0.0
 11
253.4559998773
 21
138.5505647777
 31
0.0
  0
SPLINE
  5
7D
330
1F
100
AcDbEntity
  8
0
  6
Continuous
 62
     7
370
    15
100
AcDbSpline
210
0.0
220
0.0
230
1.0
 70
     8
 71
     3
 72
    12
 73
     8
 74
     0
 42
0.00000001
 43
0.00000001
 40
0.0
 40
0.0
 40
0.0
 40
0.0
 40
0.0091735205189965
 40
0.2576775215525056
 40
0.5061895192299232
 40
0.7560357430218941
 40
1.0
 40
1.0
 40
1.0
 40
1.0
 10
251.3928313866049
 20
136.4980323601569
 30
0.0
 10
251.3932091345604
 20
136.4967154174383
 30
0.0
 10
251.403819799977
 20
136.4597234539869
 30
0.0
 10
251.4376940594665
 20
136.3899963940278
 30
0.0
 10
251.5174328286901
 20
136.3099506523423
 30
0.0
 10
251.6177962741433
 20
136.2580183083817
 30
0.0
 10
251.6903939786866
 20
136.2531876739412
 30
0.0
 10
251.7262604613494
 20
136.2508011264945
 30
0.0
  0
SPLINE
  5
7E
330
1F
100
AcDbEntity
  8
0
  6
Continuous
 62
     7
370
    15
100
AcDbSpline
210
0.0
220
0.0
230
1.0
 70
     8
 71
     3
 72
    12
 73
     8
 74
     0
 42
0.00000001
 43
0.00000001
 40
0.0
 40
0.0
 40
0.0
 40
0.0
 40
0.2057532787804197
 40
0.4119604088044668
 40
0.6140154573249039
 40
0.8131414684041041
 40
1.0
 40
1.0
 40
1.0
 40
1.0
 10
251.7262604613494
 20
136.2508011264945
 30
0.0
 10
251.7908722589083
 20
136.246346114331
 30
0.0
 10
251.9202383749366
 20
136.2374262631238
 30
0.0
 10
252.0978849657198
 20
136.1437934652671
 30
0.0
 10
252.2352426842687
 20
136.003557321269
 30
0.0
 10
252.3218740092418
 20
135.8326571195321
 30
0.0
 10
252.3317517934428
 20
135.7117760556847
 30
0.0
 10
252.3365337161552
 20
135.6532564633411
 30
0.0
  0
SPLINE
  5
7F
330
1F
100
AcDbEntity
  8
0
  6
Continuous
 62
     7
370
    15
100
AcDbSpline
210
0.0
220
0.0
230
1.0
 70
     8
 71
     3
 72
    11
 73
     7
 74
     0
 42
0.00000001
 43
0.00000001
 40
0.0
 40
0.0
 40
0.0
 40
0.0
 40
0.2794069064555946
 40
0.5596240257156156
 40
0.8375007392219553
 40
0.9999999999999999
 40
0.9999999999999999
 40
0.9999999999999999
 40
0.9999999999999999
 10
252.3365337161552
 20
135.6532564633411
 30
0.0
 10
252.3399468466236
 20
135.6159659307279
 30
0.0
 10
252.3467830048177
 20
135.541276731929
 30
0.0
 10
252.4039861849862
 20
135.4407764433637
 30
0.0
 10
252.4767525360721
 20
135.3725208894435
 30
0.0
 10
252.5311699733281
 20
135.347266939541
 30
0.0
 10
252.5512500727067
 20
135.3379482018475
 30
0.0
  0
SPLINE
  5
80
330
1F
100
AcDbEntity
  8
0
  6
Continuous
 62
     7
370
    15
100
AcDbSpline
210
0.0
220
0.0
230
1.0
 70
     8
 71
     3
 72
    11
 73
     7
 74
     0
 42
0.00000001
 43
0.00000001
 40
0.0
 40
0.0
 40
0.0
 40
0.0
 40
0.2431090893443138
 40
0.5182793655622617
 40
0.7947794085752
 40
1.0
 40
1.0
 40
1.0
 40
1.0
 10
252.633436319991
 20
135.3168303462745
 30
0.0
 10
252.6664260683489
 20
135.3154890538137
 30
0.0
 10
252.7367562476731
 20
135.3126295794622
 30
0.0
 10
252.8386186295803
 20
135.3503064105706
 30
0.0
 10
252.9197323647677
 20
135.4127144469135
 30
0.0
 10
252.9529552622988
 20
135.4669096093897
 30
0.0
 10
252.9671087408769
 20
135.4899976037595
 30
0.0
  0
SPLINE
  5
81
330
1F
100
AcDbEntity
  8
0
  6
Continuous
 62
     7
370
    15
100
AcDbSpline
210
0.0
220
0.0
230
1.0
 70
     8
 71
     3
 72
    12
 73
     8
 74
     0
 42
0.00000001
 43
0.00000001
 40
0.0
 40
0.0
 40
0.0
 40
0.0
 40
0.2058179564998942
 40
0.4120215045907457
 40
0.614077996916797
 40
0.8132130006453764
 40
1.0
 40
1.0
 40
1.0
 40
1.0
 10
252.9671087408769
 20
135.4899976037595
 30
0.0
 10
253.002082198257
 20
135.5439774946287
 30
0.0
 10
253.0720946343707
 20
135.6520384055024
 30
0.0
 10
253.2397923153204
 20
135.7590762499747
 30
0.0
 10
253.4294612509026
 20
135.8072736408812
 30
0.0
 10
253.621980329943
 20
135.795676811917
 30
0.0
 10
253.7332990857217
 20
135.7428083599155
 30
0.0
 10
253.7871775798154
 20
135.7172199264212
 30
0.0
  0
SPLINE
  5
82
330
1F
100
AcDbEntity
  8
0
  6
Continuous
 62
     7
370
    15
100
AcDbSpline
210
0.0
220
0.0
230
1.0
 70
     8
 71
     3
 72
    11
 73
     7
 74
     0
 42
0.00000001
 43
0.00000001
 40
0.0
 40
0.0
 40
0.0
 40
0.0
 40
0.2908641666076262
 40
0.583956078989188
 40
0.8745988053617607
 40
0.9999999999999999
 40
0.9999999999999999
 40
0.9999999999999999
 40
0.9999999999999999
 10
253.7871775798155
 20
135.7172199264211
 30
0.0
 10
253.8215333979851
 20
135.7012900111942
 30
0.0
 10
253.890508167558
 20
135.669308172582
 30
0.0
 10
254.006956269772
 20
135.6676155637013
 30
0.0
 10
254.0970274138342
 20
135.6943726790186
 30
0.0
 10
254.1423977112209
 20
135.7236277253613
 30
0.0
 10
254.1560729248366
 20
135.7324455870709
 30
0.0
  0
SPLINE
  5
83
330
1F
100
AcDbEntity
  8
0
  6
Continuous
 62
     7
370
    15
100
AcDbSpline
210
0.0
220
0.0
230
1.0
 70
     8
 71
     3
 72
    11
 73
     7
 74
     0
 42
0.00000001
 43
0.00000001
 40
0.0
 40
0.0
 40
0.0
 40
0.0
 40
0.2535086227484072
 40
0.507567474260478
 40
0.7595056251924673
 40
1.0
 40
1.0
 40
1.0
 40
1.0
 10
251.5497074477416
 20
136.8778358876744
 30
0.0
 10
251.518958302022
 20
136.8569164451744
 30
0.0
 10
251.4573932709816
 20
136.8150321554903
 30
0.0
 10
251.3990126875378
 20
136.7168785599973
 30
0.0
 10
251.372760340503
 20
136.6067399476317
 30
0.0
 10
251.3862454996899
 20
136.5337024430357
 30
0.0
 10
251.3928313866049
 20
136.4980323601569
 30
0.0
  0
SPLINE
  5
84
330
1F
100
AcDbEntity
  8
0
  6
Continuous
 62
     7
370
    15
100
AcDbSpline
210
0.0
220
0.0
230
1.0
 70
     8
 71
     3
 72
    12
 73
     8
 74
     0
 42
0.00000001
 43
0.00000001
 40
0.0
 40
0.0
 40
0.0
 40
0.0
 40
0.0091681771491647
 40
0.2573268097002598
 40
0.505493468742971
 40
0.7549925359453101
 40
1.0
 40
1.0
 40
1.0
 40
1.0
 10
251.8049299057636
 20
138.1181104182118
 30
0.0
 10
251.8039772888867
 20
138.1171312767051
 30
0.0
 10
251.7772398188509
 20
138.0896493295245
 30
0.0
 10
251.7338647521144
 20
138.0256376057746
 30
0.0
 10
251.7047539982987
 20
137.916184753445
 30
0.0
 10
251.7105000082238
 20
137.802108162037
 30
0.0
 10
251.7432679180535
 20
137.7355698642434
 30
0.0
 10
251.7595030574951
 20
137.7026028990478
 30
0.0
  0
SPLINE
  5
85
330
1F
100
AcDbEntity
  8
0
  6
Continuous
 62
     7
370
    15
100
AcDbSpline
210
0.0
220
0.0
230
1.0
 70
     8
 71
     3
 72
    12
 73
     8
 74
     0
 42
0.00000001
 43
0.00000001
 40
0.0
 40
0.0
 40
0.0
 40
0.0
 40
0.2058435564095177
 40
0.4120691620553155
 40
0.6141397217727141
 40
0.813260457956133
 40
0.9999999999999999
 40
0.9999999999999999
 40
0.9999999999999999
 40
0.9999999999999999
 10
251.7595030574951
 20
137.7026028990478
 30
0.0
 10
251.7884834686864
 20
137.6434790100957
 30
0.0
 10
251.8464980792183
 20
137.525121497221
 30
0.0
 10
251.8553524788694
 20
137.323313003503
 30
0.0
 10
251.8030929786064
 20
137.1349403823919
 30
0.0
 10
251.6983272784711
 20
136.9768186180466
 30
0.0
 10
251.5981762005189
 20
136.9101167041986
 30
0.0
 10
251.5497074477416
 20
136.8778358876744
 30
0.0
  0
LWPOLYLINE
  5
86
330
1F
100
AcDbEntity
  8
0
  6
Continuous
 62
     7
370
    15
100
AcDbPolyline
 90
        3
 70
   128
 43
0.0
 10
251.4547727084
 20
136.7831324045
 10
251.5525354834
 20
136.8506873122
 10
251.5853792716
 20
136.8810196438
  0
LWPOLYLINE
  5
87
330
1F
100
AcDbEntity
  8
0
  6
Continuous
 62
     7
370
    15
100
AcDbPolyline
 90
        3
 70
   128
 43
0.0
 10
252.9768535056
 20
135.5377486227
 10
252.9376032515
 20
135.4944380682
 10
252.8721377123
 20
135.3952579198
  0
ARC
  5
88
330
1F
100
AcDbEntity
  8
0
  6
Continuous
 62
     7
370
    15
100
AcDbCircle
 10
253.8645542838
 20
135.906675749
 30
0.0
 40
0.3340191670172782
100
AcDbArc
 50
326.3210803173
 51
32.5182265563
  0
SPLINE
  5
89
330
1F
100
AcDbEntity
  8
0
  6
Continuous
 62
     7
370
    15
100
AcDbSpline
210
0.0
220
0.0
230
1.0
 70
     8
 71
     3
 72
    11
 73
     7
 74
     0
 42
0.00000001
 43
0.00000001
 40
0.0
 40
0.0
 40
0.0
 40
0.0
 40
0.2669010467950134
 40
0.5546143410792266
 40
0.8439070439786027
 40
1.0
 40
1.0
 40
1.0
 40
1.0
 10
254.2393978013615
 20
135.8177197545155
 30
0.0
 10
254.2560209171261
 20
135.8480556204116
 30
0.0
 10
254.2905633758656
 20
135.9110928639032
 30
0.0
 10
254.3003952644822
 20
136.0212777350867
 30
0.0
 10
254.2799175553943
 20
136.1145143469807
 30
0.0
 10
254.2512474985246
 20
136.1637428607164
 30
0.0
 10
254.241199590972
 20
136.180995828062
 30
0.0
  0
ARC
  5
8A
330
1F
100
AcDbEntity
  8
0
  6
Continuous
 62
     7
370
    15
100
AcDbCircle
 10
251.9450180527
 20
137.7862987376
 30
0.0
 40
0.3340072269473471
100
AcDbArc
 50
58.6915145784
 51
121.3256658232
  0
SPLINE
  5
8B
330
1F
100
AcDbEntity
  8
0
  6
Continuous
 62
     7
370
    15
100
AcDbSpline
210
0.0
220
0.0
230
1.0
 70
     8
 71
     3
 72
    11
 73
     7
 74
     0
 42
0.00000001
 43
0.00000001
 40
0.0
 40
0.0
 40
0.0
 40
0.0
 40
0.2524782265335856
 40
0.5068902417933472
 40
0.7591786113117195
 40
0.9999999999999999
 40
0.9999999999999999
 40
0.9999999999999999
 40
0.9999999999999999
 10
252.2135250885955
 20
138.1663788205839
 30
0.0
 10
252.1799523926559
 20
138.1831071978331
 30
0.0
 10
252.1125498597875
 20
138.216692078815
 30
0.0
 10
251.9980077826509
 20
138.2199876384583
 30
0.0
 10
251.8891218295156
 20
138.1890890581198
 30
0.0
 10
251.8325554072566
 20
138.1414003067826
 30
0.0
 10
251.8049299057636
 20
138.1181104182118
 30
0.0
  0
SPLINE
  5
8C
330
1F
100
AcDbEntity
  8
0
  6
Continuous
 62
     7
370
    15
100
AcDbSpline
210
0.0
220
0.0
230
1.0
 70
     8
 71
     3
 72
    12
 73
     8
 74
     0
 42
0.00000001
 43
0.00000001
 40
0.0
 40
0.0
 40
0.0
 40
0.0
 40
0.2058401281338006
 40
0.4120619935509877
 40
0.6141387330969481
 40
0.8132772113524603
 40
1.0
 40
1.0
 40
1.0
 40
1.0
 10
254.241199590972
 20
136.180995828062
 30
0.0
 10
254.2108570867146
 20
136.2387600489954
 30
0.0
 10
254.1501158070286
 20
136.3543956165088
 30
0.0
 10
254.1390699753312
 20
136.5540182101874
 30
0.0
 10
254.1914911621187
 20
136.7425568873892
 30
0.0
 10
254.2985738561397
 20
136.9029883782711
 30
0.0
 10
254.4012897675501
 20
136.9722475261738
 30
0.0
 10
254.4509952007255
 20
137.0057628394354
 30
0.0
  0
SPLINE
  5
8D
330
1F
100
AcDbEntity
  8
0
  6
Continuous
 62
     7
370
    15
100
AcDbSpline
210
0.0
220
0.0
230
1.0
 70
     8
 71
     3
 72
    11
 73
     7
 74
     0
 42
0.00000001
 43
0.00000001
 40
0.0
 40
0.0
 40
0.0
 40
0.0
 40
0.292899322061975
 40
0.5864344719079446
 40
0.8775178868032959
 40
0.9999999999999999
 40
0.9999999999999999
 40
0.9999999999999999
 40
0.9999999999999999
 10
254.4509952007255
 20
137.0057628394354
 30
0.0
 10
254.4825268101873
 20
137.0274707505548
 30
0.0
 10
254.5456584781371
 20
137.0709336964705
 30
0.0
 10
254.6059708269361
 20
137.1708939624288
 30
0.0
 10
254.6277982656677
 20
137.2618445896034
 30
0.0
 10
254.6251819116106
 20
137.3154316597489
 30
0.0
 10
254.6244070487363
 20
137.3313020772417
 30
0.0
  0
SPLINE
  5
8E
330
1F
100
AcDbEntity
  8
0
  6
Continuous
 62
     7
370
    15
100
AcDbSpline
210
0.0
220
0.0
230
1.0
 70
     8
 71
     3
 72
    12
 73
     8
 74
     0
 42
0.00000001
 43
0.00000001
 40
0.0
 40
0.0
 40
0.0
 40
0.0
 40
0.205858574121395
 40
0.4121026961457021
 40
0.6141937841967362
 40
0.8133180967416288
 40
1.0
 40
1.0
 40
1.0
 40
1.0
 10
253.0335939531548
 20
138.3936011688039
 30
0.0
 10
252.9972518490551
 20
138.3382544658157
 30
0.0
 10
252.9244995765448
 20
138.2274574022417
 30
0.0
 10
252.7545786565019
 20
138.1182311490496
 30
0.0
 10
252.5650420810465
 20
138.0702129057701
 30
0.0
 10
252.374856317903
 20
138.0841481137766
 30
0.0
 10
252.2661333785134
 20
138.1395643167681
 30
0.0
 10
252.2135250885956
 20
138.1663788205839
 30
0.0
  0
SPLINE
  5
8F
330
1F
100
AcDbEntity
  8
0
  6
Continuous
 62
     7
370
    15
100
AcDbSpline
210
0.0
220
0.0
230
1.0
 70
     8
 71
     3
 72
    11
 73
     7
 74
     0
 42
0.00000001
 43
0.00000001
 40
0.0
 40
0.0
 40
0.0
 40
0.0
 40
0.2423611237745104
 40
0.5166847928458304
 40
0.7923341374633325
 40
1.0
 40
1.0
 40
1.0
 40
1.0
 10
253.3738913384073
 20
138.57198812738
 30
0.0
 10
253.3407675349949
 20
138.5733146562934
 30
0.0
 10
253.2701515664027
 20
138.5761426565359
 30
0.0
 10
253.1668836267583
 20
138.5375852132394
 30
0.0
 10
253.0834712687835
 20
138.4735207609752
 30
0.0
 10
253.048583966956
 20
138.4176200193482
 30
0.0
 10
253.0335939531548
 20
138.3936011688039
 30
0.0
  0
ARC
  5
90
330
1F
100
AcDbEntity
  8
0
  6
Continuous
 62
     7
370
    15
100
AcDbCircle
 10
252.9373282395
 20
136.881965391
 30
0.0
 40
2.625015831371294
100
AcDbArc
 50
135.1291200691
 51
314.7311401613
  0
ARC
  5
91
330
1F
100
AcDbEntity
  8
0
  6
Continuous
 62
     7
370
    15
100
AcDbCircle
 10
252.422236518
 20
138.5701315698
 30
0.0
 40
0.5836699871996529
100
AcDbArc
 50
238.6511209724
 51
314.8568237228
  0
ARC
  5
92
330
1F
100
AcDbEntity
  8
0
  6
Continuous
 62
     7
370
    15
100
AcDbCircle
 10
254.6387797004
 20
136.4003243442
 30
0.0
 40
0.5841931903230017
100
AcDbArc
 50
135.0412925964
 51
212.523708424
  0
ARC
  5
93
330
1F
100
AcDbEntity
  8
0
  6
Continuous
 62
     7
370
    15
100
AcDbCircle
 10
254.1928365809
 20
137.2030037995
 30
0.0
 40
0.335305676486073
100
AcDbArc
 50
325.0773429337
 51
92.2871033034
  0
SPLINE
  5
94
330
1F
100
AcDbEntity
  8
0
  6
Continuous
 62
     7
370
    15
100
AcDbSpline
210
0.0
220
0.0
230
1.0
 70
     8
 71
     3
 72
    11
 73
     7
 74
     0
 42
0.00000001
 43
0.00000001
 40
0.0
 40
0.0
 40
0.0
 40
0.0
 40
0.2657596322624893
 40
0.5530029385954643
 40
0.8418208483438078
 40
0.9999999999999999
 40
0.9999999999999999
 40
0.9999999999999999
 40
0.9999999999999999
 10
254.5920817131714
 20
137.4465218049187
 30
0.0
 10
254.5740369656553
 20
137.4762054572502
 30
0.0
 10
254.5364887559529
 20
137.5379723509948
 30
0.0
 10
254.4452262128698
 20
137.6024953411568
 30
0.0
 10
254.352961166234
 20
137.6324379477122
 30
0.0
 10
254.294965258171
 20
137.6327036103084
 30
0.0
 10
254.2744422070615
 20
137.6327976205106
 30
0.0
  0
SPLINE
  5
95
330
1F
100
AcDbEntity
  8
0
  6
Continuous
 62
     7
370
    15
100
AcDbSpline
210
0.0
220
0.0
230
1.0
 70
     8
 71
     3
 72
    12
 73
     8
 74
     0
 42
0.00000001
 43
0.00000001
 40
0.0
 40
0.0
 40
0.0
 40
0.0
 40
0.205790461420426
 40
0.4120344203360543
 40
0.6141302471427847
 40
0.8132633242113035
 40
1.0
 40
1.0
 40
1.0
 40
1.0
 10
254.2744422070615
 20
137.6327976205106
 30
0.0
 10
254.2084592397047
 20
137.6358955530946
 30
0.0
 10
254.0763478992698
 20
137.6420982451325
 30
0.0
 10
253.8964912191398
 20
137.7335709507013
 30
0.0
 10
253.7592909865362
 20
137.8740042025358
 30
0.0
 10
253.6750093697859
 20
138.0472138258955
 30
0.0
 10
253.6677042136827
 20
138.1706210023911
 30
0.0
 10
253.6641689778766
 20
138.2303423092223
 30
0.0
  0
SPLINE
  5
96
330
1F
100
AcDbEntity
  8
0
  6
Continuous
 62
     7
370
    15
100
AcDbSpline
210
0.0
220
0.0
230
1.0
 70
     8
 71
     3
 72
    11
 73
     7
 74
     0
 42
0.00000001
 43
0.00000001
 40
0.0
 40
0.0
 40
0.0
 40
0.0
 40
0.2802371411013033
 40
0.5612869875923878
 40
0.8399906057824369
 40
1.0
 40
1.0
 40
1.0
 40
1.0
 10
253.6641689778766
 20
138.2303423092223
 30
0.0
 10
253.661552433078
 20
138.2684237262849
 30
0.0
 10
253.6563117553358
 20
138.3446969989223
 30
0.0
 10
253.6008506548111
 20
138.4469249560238
 30
0.0
 10
253.5293590380526
 20
138.5158483683745
 30
0.0
 10
253.4756052148245
 20
138.54128676909
 30
0.0
 10
253.4559998772841
 20
138.5505647776588
 30
0.0
  0
ARC
  5
97
330
1F
100
AcDbEntity
  8
0
  6
Continuous
 62
     7
370
    15
100
AcDbCircle
 10
253.2338152844
 20
138.1416877479
 30
0.0
 40
0.3354378640196924
100
AcDbArc
 50
358.9605497513
 51
123.8539961914
  0
ARC
  5
98
330
1F
100
AcDbEntity
  8
0
  6
Continuous
 62
     7
370
    15
100
AcDbCircle
 10
254.1572226654
 20
138.1257295697
 30
0.0
 40
0.5881075956610451
100
AcDbArc
 50
179.0380825031
 51
272.1665348197
  0
SPLINE
  5
99
330
1F
100
AcDbEntity
  8
0
  6
Continuous
 62
     7
370
    15
100
AcDbSpline
210
0.0
220
0.0
230
1.0
 70
     8
 71
     3
 72
    10
 73
     6
 74
     0
 42
0.00000001
 43
0.00000001
 40
0.0
 40
0.0
 40
0.0
 40
0.0
 40
0.2724816576280316
 40
0.544757045279682
 40
1.0
 40
1.0
 40
1.0
 40
1.0
 10
249.6710918442228
 20
140.6235537698101
 30
0.0
 10
249.6521512857148
 20
140.6125450240402
 30
0.0
 10
249.6142845067963
 20
140.5905358661758
 30
0.0
 10
249.5535182506329
 20
140.5368095539584
 30
0.0
 10
249.5222392895196
 20
140.4870727324129
 30
0.0
 10
249.502666550458
 20
140.4559500289976
 30
0.0
  0
LINE
  5
9A
330
1F
100
AcDbEntity
  8
0
  6
Continuous
 62
     7
370
    15
100
AcDbLine
 10
263.1580810186
 20
147.5786484644
 30
0.0
 11
249.6710918442
 21
140.6235537698
 31
0.0
  0
SPLINE
  5
9B
330
1F
100
AcDbEntity
  8
0
  6
Continuous
 62
     7
370
    15
100
AcDbSpline
210
0.0
220
0.0
230
1.0
 70
     8
 71
     3
 72
    15
 73
    11
 74
     0
 42
0.00000001
 43
0.00000001
 40
0.0
 40
0.0
 40
0.0
 40
0.0
 40
0.1411619226999046
 40
0.281834264820257
 40
0.4169666844434378
 40
0.5461338408377931
 40
0.6723563608105395
 40
0.7999811958597383
 40
0.9323887207821173
 40
1.0
 40
1.0
 40
1.0
 40
1.0
 10
263.683712012182
 20
147.050453522805
 30
0.0
 10
263.7013487324085
 20
147.0941290246499
 30
0.0
 10
263.7365610048388
 20
147.181328552098
 30
0.0
 10
263.7299106029594
 20
147.3234501754759
 30
0.0
 10
263.679189762162
 20
147.4503247149928
 30
0.0
 10
263.5904507316997
 20
147.5485290379527
 30
0.0
 10
263.476578413493
 20
147.6102005948506
 30
0.0
 10
263.3483694928169
 20
147.6314774898935
 30
0.0
 10
263.2386790032114
 20
147.6154060430607
 30
0.0
 10
263.1784424547074
 20
147.5879345165472
 30
0.0
 10
263.1580810186037
 20
147.5786484643801
 30
0.0
  0
LINE
  5
9C
330
1F
100
AcDbEntity
  8
0
  6
Continuous
 62
     7
370
    15
100
AcDbLine
 10
256.6628298369
 20
133.5977111432
 30
0.0
 11
263.6837120122
 21
147.0504535228
 31
0.0
  0
SPLINE
  5
9D
330
1F
100
AcDbEntity
  8
0
  6
Continuous
 62
     7
370
    15
100
AcDbSpline
210
0.0
220
0.0
230
1.0
 70
     8
 71
     3
 72
    10
 73
     6
 74
     0
 42
0.00000001
 43
0.00000001
 40
0.0
 40
0.0
 40
0.0
 40
0.0
 40
0.2724816576280408
 40
0.5447570452797086
 40
1.0
 40
1.0
 40
1.0
 40
1.0
 10
256.4944045430861
 20
133.4301074024345
 30
0.0
 10
256.5133451015941
 20
133.4411161482045
 30
0.0
 10
256.5512118805126
 20
133.4631253060688
 30
0.0
 10
256.611978136676
 20
133.5168516182862
 30
0.0
 10
256.6432570977893
 20
133.5665884398318
 30
0.0
 10
256.662829836851
 20
133.5977111432471
 30
0.0
  0
LINE
  5
9E
330
1F
100
AcDbEntity
  8
0
  6
Continuous
 62
     7
370
    15
100
AcDbLine
 10
243.0074153687
 20
126.4750127079
 30
0.0
 11
256.4944045431
 21
133.4301074024
 31
0.0
  0
LINE
  5
9F
330
1F
100
AcDbEntity
  8
0
  6
Continuous
 62
     7
370
    15
100
AcDbLine
 10
249.5026665505
 20
140.455950029
 30
0.0
 11
242.4817843751
 21
127.0032076494
 31
0.0
  0
LINE
  5
A0
330
1F
100
AcDbEntity
  8
0
  6
Continuous
 62
     7
370
    15
100
AcDbLine
 10
256.6455659858
 20
133.607839906
 30
0.0
 11
263.6523789353
 21
147.0336241817
 31
0.0
  0
ARC
  5
A1
330
1F
100
AcDbEntity
  8
0
  6
Continuous
 62
     7
370
    15
100
AcDbCircle
 10
263.3145974289
 20
147.2087684729
 30
0.0
 40
0.3804889864577439
100
AcDbArc
 50
332.5926484968
 51
117.1285519323
  0
LINE
  5
A2
330
1F
100
AcDbEntity
  8
0
  6
Continuous
 62
     7
370
    15
100
AcDbLine
 10
263.1410988396
 20
147.547398224
 30
0.0
 11
249.6811363966
 21
140.6062409227
 31
0.0
  0
ARC
  5
A3
330
1F
100
AcDbEntity
  8
0
  6
Continuous
 62
     7
370
    15
100
AcDbCircle
 10
249.8536384877
 20
140.2716853454
 30
0.0
 40
0.3764098905403572
100
AcDbArc
 50
117.2763401291
 51
152.4434968967
  0
LINE
  5
A4
330
1F
100
AcDbEntity
  8
0
  6
Continuous
 62
     7
370
    15
100
AcDbLine
 10
249.5199304015
 20
140.4458212663
 30
0.0
 11
242.513117452
 21
127.0200369905
 31
0.0
  0
ARC
  5
A5
330
1F
100
AcDbEntity
  8
0
  6
Continuous
 62
     7
370
    15
100
AcDbCircle
 10
242.8508989585
 20
126.8448926994
 30
0.0
 40
0.3804889864577379
100
AcDbArc
 50
152.5926484968
 51
297.1285519323
  0
LINE
  5
A6
330
1F
100
AcDbEntity
  8
0
  6
Continuous
 62
     7
370
    15
100
AcDbLine
 10
243.0243975478
 20
126.5062629483
 30
0.0
 11
256.4843599908
 21
133.4474202493
 31
0.0
  0
ARC
  5
A7
330
1F
100
AcDbEntity
  8
0
  6
Continuous
 62
     7
370
    15
100
AcDbCircle
 10
256.311857902
 20
133.7819758238
 30
0.0
 40
0.3764098870631767
100
AcDbArc
 50
297.2763400239
 51
332.4434971438
  0
SPLINE
  5
A8
330
1F
100
AcDbEntity
  8
0
  6
Continuous
 62
     7
370
    15
100
AcDbSpline
210
0.0
220
0.0
230
1.0
 70
     8
 71
     3
 72
    15
 73
    11
 74
     0
 42
0.00000001
 43
0.00000001
 40
0.0
 40
0.0
 40
0.0
 40
0.0
 40
0.1411619226999007
 40
0.2818342648202458
 40
0.4169666844434396
 40
0.5461338408377899
 40
0.6723563608105357
 40
0.7999811958597274
 40
0.9323887207821205
 40
1.0
 40
1.0
 40
1.0
 40
1.0
 10
242.481784375127
 20
127.0032076494396
 30
0.0
 10
242.4641476549005
 20
126.9595321475948
 30
0.0
 10
242.4289353824703
 20
126.8723326201467
 30
0.0
 10
242.4355857843493
 20
126.7302109967684
 30
0.0
 10
242.4863066251479
 20
126.6033364572527
 30
0.0
 10
242.5750456556095
 20
126.5051321342922
 30
0.0
 10
242.6889179738159
 20
126.443460577394
 30
0.0
 10
242.817126894492
 20
126.4221836823512
 30
0.0
 10
242.9268173840977
 20
126.4382551291839
 30
0.0
 10
242.9870539326016
 20
126.4657266556974
 30
0.0
 10
243.0074153687052
 20
126.4750127078645
 30
0.0
  0
LINE
  5
A9
330
1F
100
AcDbEntity
  8
0
  6
Continuous
 62
     7
370
    15
100
AcDbLine
 10
242.8340564082
 20
126.8280929885
 30
0.0
 11
243.0243975478
 21
126.5062629483
 31
0.0
  0
LINE
  5
AA
330
1F
100
AcDbEntity
  8
0
  6
Continuous
 62
     7
370
    15
100
AcDbLine
 10
242.8340564082
 20
126.8280929885
 30
0.0
 11
242.513117452
 21
127.0200369905
 31
0.0
  0
LINE
  5
AB
330
1F
100
AcDbEntity
  8
0
  6
Continuous
 62
     7
370
    15
100
AcDbLine
 10
256.2940188513
 20
133.7692502896
 30
0.0
 11
256.4843599908
 21
133.4474202493
 31
0.0
  0
LINE
  5
AC
330
1F
100
AcDbEntity
  8
0
  6
Continuous
 62
     7
370
    15
100
AcDbLine
 10
245.1525491555
 20
129.1351775815
 30
0.0
 11
242.8340564082
 21
126.8280929885
 31
0.0
  0
LINE
  5
AD
330
1F
100
AcDbEntity
  8
0
  6
Continuous
 62
     7
370
    15
100
AcDbLine
 10
245.1525491555
 20
129.1351775815
 30
0.0
 11
246.2638831037
 21
129.7082804992
 31
0.0
  0
LINE
  5
AE
330
1F
100
AcDbEntity
  8
0
  6
Continuous
 62
     7
370
    15
100
AcDbLine
 10
256.1924030167
 20
133.8608539881
 30
0.0
 11
256.2940188513
 21
133.7692502896
 31
0.0
  0
LINE
  5
AF
330
1F
100
AcDbEntity
  8
0
  6
Continuous
 62
     7
370
    15
100
AcDbLine
 10
249.8408693577
 20
140.2538772643
 30
0.0
 11
249.5199304015
 21
140.4458212663
 31
0.0
  0
LINE
  5
B0
330
1F
100
AcDbEntity
  8
0
  6
Continuous
 62
     7
370
    15
100
AcDbLine
 10
249.9319902035
 20
140.1518041423
 30
0.0
 11
249.8408693577
 21
140.2538772643
 31
0.0
  0
LINE
  5
B1
330
1F
100
AcDbEntity
  8
0
  6
Continuous
 62
     7
370
    15
100
AcDbLine
 10
245.7310729911
 20
130.2436895784
 30
0.0
 11
245.1525491555
 21
129.1351775815
 31
0.0
  0
SPLINE
  5
B2
330
1F
100
AcDbEntity
  8
0
  6
Continuous
 62
     7
370
    15
100
AcDbSpline
210
0.0
220
0.0
230
1.0
 70
     8
 71
     3
 72
    14
 73
    10
 74
     0
 42
0.00000001
 43
0.00000001
 40
0.0
 40
0.0
 40
0.0
 40
0.0
 40
0.2055181916618975
 40
0.3570166013208002
 40
0.4668471835761958
 40
0.5770815399050557
 40
0.7093665789830443
 40
0.9240585340231965
 40
1.0
 40
1.0
 40
1.0
 40
1.0
 10
246.2915826864403
 20
130.32263051842
 30
0.0
 10
246.2564486045887
 20
130.3563480264953
 30
0.0
 10
246.195415318962
 20
130.4149205063361
 30
0.0
 10
246.0957084087632
 20
130.4663162308602
 30
0.0
 10
246.0074944287068
 20
130.4792851075832
 30
0.0
 10
245.9248207521679
 20
130.460283599197
 30
0.0
 10
245.8341405887512
 20
130.3993109041842
 30
0.0
 10
245.7724068031709
 20
130.3192005583251
 30
0.0
 10
245.7396359079286
 20
130.2593328063622
 30
0.0
 10
245.7310729910509
 20
130.243689578433
 30
0.0
  0
SPLINE
  5
B3
330
1F
100
AcDbEntity
  8
0
  6
Continuous
 62
     7
370
    15
100
AcDbSpline
210
0.0
220
0.0
230
1.0
 70
     8
 71
     3
 72
    14
 73
    10
 74
     0
 42
0.00000001
 43
0.00000001
 40
0.0
 40
0.0
 40
0.0
 40
0.0
 40
0.2086064885491002
 40
0.3652036095092382
 40
0.4768526932686651
 40
0.5890212938927188
 40
0.7185670083743514
 40
0.9352579530973368
 40
1.0
 40
1.0
 40
1.0
 40
1.0
 10
246.2638831036545
 20
129.7082804991826
 30
0.0
 10
246.3065426199592
 20
129.7328458612065
 30
0.0
 10
246.3812258641995
 20
129.7758519965498
 30
0.0
 10
246.4584887081101
 20
129.859870433874
 30
0.0
 10
246.4953451166316
 20
129.9430535423836
 30
0.0
 10
246.4989403402995
 20
130.0282335551151
 30
0.0
 10
246.463239910639
 20
130.1322813663334
 30
0.0
 10
246.4031973333651
 20
130.2105705754083
 30
0.0
 10
246.3563378745895
 20
130.2575780061861
 30
0.0
 10
246.3455581246378
 20
130.2683917962489
 30
0.0
  0
ARC
  5
B4
330
1F
100
AcDbEntity
  8
0
  6
Continuous
 62
     7
370
    15
100
AcDbCircle
 10
248.0610012134
 20
132.0295840417
 30
0.0
 40
1.00128680646778
100
AcDbArc
 50
152.5926484968
 51
297.1285519323
  0
ARC
  5
B5
330
1F
100
AcDbEntity
  8
0
  6
Continuous
 62
     7
370
    15
100
AcDbCircle
 10
248.0176231951
 20
131.986316456
 30
0.0
 40
2.397304055914729
100
AcDbArc
 50
223.946153643
 51
225.7750467862
  0
LINE
  5
B6
330
1F
100
AcDbEntity
  8
0
  6
Continuous
 62
     7
370
    15
100
AcDbLine
 10
250.6132708204
 20
139.0841273916
 30
0.0
 11
247.1721025123
 21
132.4904900711
 31
0.0
  0
ARC
  5
B7
330
1F
100
AcDbEntity
  8
0
  6
Continuous
 62
     7
370
    15
100
AcDbCircle
 10
251.4914499884
 20
138.6258749763
 30
0.0
 40
0.9905523343760732
100
AcDbArc
 50
117.2763400239
 51
152.4434971438
  0
LINE
  5
B8
330
1F
100
AcDbEntity
  8
0
  6
Continuous
 62
     7
370
    15
100
AcDbLine
 10
257.6479199389
 20
142.9152080545
 30
0.0
 11
251.037497123
 21
139.5062843828
 31
0.0
  0
ARC
  5
B9
330
1F
100
AcDbEntity
  8
0
  6
Continuous
 62
     7
370
    15
100
AcDbCircle
 10
258.1044951742
 20
142.0240771306
 30
0.0
 40
1.001286806532785
100
AcDbArc
 50
332.5926484841
 51
117.1285519493
  0
LINE
  5
BA
330
1F
100
AcDbEntity
  8
0
  6
Continuous
 62
     7
370
    15
100
AcDbLine
 10
255.5522255669
 20
134.9695337806
 30
0.0
 11
258.9933938753
 21
141.563171101
 31
0.0
  0
ARC
  5
BB
330
1F
100
AcDbEntity
  8
0
  6
Continuous
 62
     7
370
    15
100
AcDbCircle
 10
254.674046399
 20
135.427786196
 30
0.0
 40
0.9905523343769235
100
AcDbArc
 50
297.2763400239
 51
332.4434971438
  0
LINE
  5
BC
330
1F
100
AcDbEntity
  8
0
  6
Continuous
 62
     7
370
    15
100
AcDbLine
 10
248.5175764485
 20
131.1384531178
 30
0.0
 11
255.1279992643
 21
134.5473767894
 31
0.0
  0
CIRCLE
  5
BD
330
1F
100
AcDbEntity
  8
0
  6
Continuous
 62
     7
370
    15
100
AcDbCircle
 10
253.0873522842
 20
137.0170420557
 30
0.0
 40
3.040049544422688
  0
ARC
  5
BE
330
1F
100
AcDbEntity
  8
0
  6
Continuous
 62
     7
370
    15
100
AcDbCircle
 10
253.0047185115
 20
136.9471168308
 30
0.0
 40
3.051355193678241
100
AcDbArc
 50
332.5237430296
 51
134.6831257469
  0
LWPOLYLINE
  5
BF
330
1F
100
AcDbEntity
  8
0
  6
Continuous
 62
     7
370
    15
100
AcDbPolyline
 90
        3
 70
   128
 43
0.0
 10
255.1671384928
 20
134.7980424004
 10
255.3316026364
 20
134.9758204195
 10
255.7118872559
 20
135.5392795153
  0
LINE
  5
C0
330
1F
100
AcDbEntity
  8
0
  6
Continuous
 62
     7
370
    15
100
AcDbLine
 10
260.9013368739
 20
144.80714511
 30
0.0
 11
263.3008318008
 21
147.1950345653
 31
0.0
  0
LINE
  5
C1
330
1F
100
AcDbEntity
  8
0
  6
Continuous
 62
     7
370
    15
100
AcDbLine
 10
263.3008318008
 20
147.1950345653
 30
0.0
 11
263.6523789353
 21
147.0336241817
 31
0.0
  0
LINE
  5
C2
330
1F
100
AcDbEntity
  8
0
  6
Continuous
 62
     7
370
    15
100
AcDbLine
 10
256.2940188513
 20
133.7692502896
 30
0.0
 11
256.6455659858
 21
133.607839906
 31
0.0
  0
LINE
  5
C3
330
1F
100
AcDbEntity
  8
0
  6
Continuous
 62
     7
370
    15
100
AcDbLine
 10
260.3228130383
 20
143.6986331131
 30
0.0
 11
260.9013368739
 21
144.80714511
 31
0.0
  0
LINE
  5
C4
330
1F
100
AcDbEntity
  8
0
  6
Continuous
 62
     7
370
    15
100
AcDbLine
 10
249.8408693577
 20
140.2538772643
 30
0.0
 11
249.6811363966
 21
140.6062409227
 31
0.0
  0
LINE
  5
C5
330
1F
100
AcDbEntity
  8
0
  6
Continuous
 62
     7
370
    15
100
AcDbLine
 10
263.3008318008
 20
147.1950345653
 30
0.0
 11
263.1410988396
 21
147.547398224
 31
0.0
  0
LINE
  5
C6
330
1F
100
AcDbEntity
  8
0
  6
Continuous
 62
     7
370
    15
100
AcDbLine
 10
260.9013368739
 20
144.80714511
 30
0.0
 11
259.7900029257
 21
144.2340421923
 31
0.0
  0
SPLINE
  5
C7
330
1F
100
AcDbEntity
  8
0
  6
Continuous
 62
     7
370
    15
100
AcDbSpline
210
0.0
220
0.0
230
1.0
 70
     8
 71
     3
 72
    11
 73
     7
 74
     0
 42
0.00000001
 43
0.00000001
 40
0.0
 40
0.0
 40
0.0
 40
0.0
 40
0.324187879714039
 40
0.648220588918903
 40
0.9887961381647075
 40
1.0
 40
1.0
 40
1.0
 40
1.0
 10
256.192403016744
 20
133.8608539881251
 30
0.0
 10
256.1387939163861
 20
133.9103690220799
 30
0.0
 10
256.0316013753322
 20
134.0093753899268
 30
0.0
 10
255.8584047219466
 20
134.1841114172416
 30
0.0
 10
255.7512013922036
 20
134.2995286704322
 30
0.0
 10
255.701988151115
 20
134.354896347814
 30
0.0
 10
255.7004207530915
 20
134.3566597591678
 30
0.0
  0
SPLINE
  5
C8
330
1F
100
AcDbEntity
  8
0
  6
Continuous
 62
     7
370
    15
100
AcDbSpline
210
0.0
220
0.0
230
1.0
 70
     8
 71
     3
 72
    11
 73
     7
 74
     0
 42
0.00000001
 43
0.00000001
 40
0.0
 40
0.0
 40
0.0
 40
0.0
 40
0.3241878797140361
 40
0.6482205889188947
 40
0.988796138164494
 40
1.0
 40
1.0
 40
1.0
 40
1.0
 10
249.9319902035336
 20
140.1518041423372
 30
0.0
 10
249.9812490518864
 20
140.0979494533726
 30
0.0
 10
250.0797431711509
 20
139.9902658526546
 30
0.0
 10
250.2536335246455
 20
139.8162218356302
 30
0.0
 10
250.368518477248
 20
139.7084674932519
 30
0.0
 10
250.4236388877178
 20
139.6589925956836
 30
0.0
 10
250.42539442384
 20
139.6574168641336
 30
0.0
  0
ARC
  5
C9
330
1F
100
AcDbEntity
  8
0
  6
Continuous
 62
     7
370
    15
100
AcDbCircle
 10
258.036262834
 20
141.9560062353
 30
0.0
 40
2.397304056151936
100
AcDbArc
 50
43.9461536431
 51
45.7750467861
  0
SPLINE
  5
CA
330
1F
100
AcDbEntity
  8
0
  6
Continuous
 62
     7
370
    15
100
AcDbSpline
210
0.0
220
0.0
230
1.0
 70
     8
 71
     3
 72
    14
 73
    10
 74
     0
 42
0.00000001
 43
0.00000001
 40
0.0
 40
0.0
 40
0.0
 40
0.0
 40
0.2055181916619047
 40
0.3570166013208095
 40
0.4668471835761946
 40
0.577081539905066
 40
0.7093665789830328
 40
0.9240585340231832
 40
1.0
 40
1.0
 40
1.0
 40
1.0
 10
259.7623033429019
 20
143.6196921730803
 30
0.0
 10
259.7974374247535
 20
143.585974665005
 30
0.0
 10
259.8584707103802
 20
143.5274021851642
 30
0.0
 10
259.958177620579
 20
143.4760064606401
 30
0.0
 10
260.0463916006353
 20
143.4630375839172
 30
0.0
 10
260.1290652771743
 20
143.4820390923033
 30
0.0
 10
260.2197454405908
 20
143.5430117873161
 30
0.0
 10
260.2814792261713
 20
143.6231221331752
 30
0.0
 10
260.3142501214135
 20
143.6829898851381
 30
0.0
 10
260.3228130382913
 20
143.6986331130673
 30
0.0
  0
SPLINE
  5
CB
330
1F
100
AcDbEntity
  8
0
  6
Continuous
 62
     7
370
    15
100
AcDbSpline
210
0.0
220
0.0
230
1.0
 70
     8
 71
     3
 72
    14
 73
    10
 74
     0
 42
0.00000001
 43
0.00000001
 40
0.0
 40
0.0
 40
0.0
 40
0.0
 40
0.2086064885492659
 40
0.3652036095093086
 40
0.4768526932687311
 40
0.589021293892775
 40
0.7185670083743556
 40
0.935257953097244
 40
1.0
 40
1.0
 40
1.0
 40
1.0
 10
259.7900029256879
 20
144.2340421923176
 30
0.0
 10
259.7473434093831
 20
144.2094768302938
 30
0.0
 10
259.6726601651428
 20
144.1664706949505
 30
0.0
 10
259.595397321232
 20
144.0824522576263
 30
0.0
 10
259.5585409127106
 20
143.9992691491167
 30
0.0
 10
259.5549456890427
 20
143.9140891363853
 30
0.0
 10
259.5906461187031
 20
143.8100413251669
 30
0.0
 10
259.650688695977
 20
143.731752116092
 30
0.0
 10
259.6975481547527
 20
143.6847446853143
 30
0.0
 10
259.7083279047043
 20
143.6739308952514
 30
0.0
  0
LINE
  5
CC
330
1F
100
AcDbEntity
  8
0
  6
Continuous
 62
     7
370
    15
100
AcDbLine
 10
198.66516151
 20
122.4593317417
 30
0.0
 11
208.3232286785
 21
122.4593317417
 31
0.0
  0
LINE
  5
CD
330
1F
100
AcDbEntity
  8
0
  6
Continuous
 62
     7
370
    15
100
AcDbLine
 10
208.3232286785
 20
72.4224140454
 30
0.0
 11
208.3232286785
 21
122.4593317417
 31
0.0
  0
LINE
  5
CE
330
1F
100
AcDbEntity
  8
0
  6
Continuous
 62
     7
370
    15
100
AcDbLine
 10
208.3232286785
 20
72.4224140454
 30
0.0
 11
206.66516151
 21
72.4224140454
 31
0.0
  0
SPLINE
  5
CF
330
1F
100
AcDbEntity
  8
0
  6
Continuous
 62
     7
370
    15
100
AcDbSpline
210
0.0
220
0.0
230
1.0
 70
     8
 71
     3
 72
    28
 73
    24
 74
     0
 42
0.00000001
 43
0.00000001
 40
0.0
 40
0.0
 40
0.0
 40
0.0
 40
0.1250000000000001
 40
0.1250000000000001
 40
0.1875000000000001
 40
0.1875000000000001
 40
0.2500000000000001
 40
0.2500000000000001
 40
0.375
 40
0.375
 40
0.4375000000000001
 40
0.4375000000000001
 40
0.5
 40
0.5
 40
0.625
 40
0.625
 40
0.7499999999999999
 40
0.7499999999999999
 40
0.8124999999999999
 40
0.8124999999999999
 40
0.875
 40
0.875
 40
1.0
 40
1.0
 40
1.0
 40
1.0
 10
206.6651615100362
 20
72.4224140454374
 30
0.0
 10
206.1334537525433
 20
72.42241404543739
 30
0.0
 10
205.6112151872329
 20
72.40662933148718
 30
0.0
 10
204.8413447009579
 20
72.36163391741098
 30
0.0
 10
204.5869851287666
 20
72.34307892233525
 30
0.0
 10
204.0828635480681
 20
72.29922619988875
 30
0.0
 10
203.8331407306402
 20
72.27388159293656
 30
0.0
 10
203.1075507791937
 20
72.19047951518645
 30
0.0
 10
202.6491905176122
 20
72.12461395603536
 30
0.0
 10
201.9986925742183
 20
72.01564361554357
 30
0.0
 10
201.7870105234259
 20
71.97740397977692
 30
0.0
 10
201.3829390342879
 20
71.8996452423576
 30
0.0
 10
201.190432520467
 20
71.86014428018223
 30
0.0
 10
200.6405975494457
 20
71.74123653781622
 30
0.0
 10
200.3106687711369
 20
71.6614188563916
 30
0.0
 10
199.7261975025682
 20
71.50807569459553
 30
0.0
 10
199.4799203645548
 20
71.43674194132629
 30
0.0
 10
199.1800775718567
 20
71.34279843425168
 30
0.0
 10
199.0916207147845
 20
71.31360464089174
 30
0.0
 10
198.9382593614794
 20
71.26013806662831
 30
0.0
 10
198.8731711472532
 20
71.23577873235315
 30
0.0
 10
198.7175771313124
 20
71.17218858690843
 30
0.0
 10
198.6651615100362
 20
71.14208565181917
 30
0.0
 10
198.6651615100362
 20
71.12520875882224
 30
0.0
  0
LINE
  5
D0
330
1F
100
AcDbEntity
  8
0
  6
Continuous
 62
     7
370
    15
100
AcDbLine
 10
198.66516151
 20
71.1252087588
 30
0.0
 11
198.66516151
 21
71.1093317417
 31
0.0
  0
SPLINE
  5
D1
330
1F
100
AcDbEntity
  8
0
  6
Continuous
 62
     7
370
    15
100
AcDbSpline
210
0.0
220
0.0
230
1.0
 70
     8
 71
     3
 72
    17
 73
    13
 74
     0
 42
0.00000001
 43
0.00000001
 40
0.0
 40
0.0
 40
0.0
 40
0.0
 40
0.1034796923964057
 40
0.2100239188807851
 40
0.3134862136955585
 40
0.4198361274354884
 40
0.5254127712915683
 40
0.6339610695419792
 40
0.7409508756305033
 40
0.8511696089308177
 40
0.9558996534551941
 40
1.0
 40
1.0
 40
1.0
 40
1.0
 10
206.6651615100362
 20
133.0765272148488
 30
0.0
 10
206.2299131609262
 20
133.0819754113821
 30
0.0
 10
205.3465266543612
 20
133.0930331518939
 30
0.0
 10
204.0656990691325
 20
133.1793915447955
 30
0.0
 10
202.8482825332585
 20
133.3072617213332
 30
0.0
 10
201.7404766810119
 20
133.4662070199264
 30
0.0
 10
200.7522378770637
 20
133.640700707642
 30
0.0
 10
199.9275143195322
 20
133.8098665582819
 30
0.0
 10
199.2785608188729
 20
133.9577503408102
 30
0.0
 10
198.8615260034111
 20
134.059540925041
 30
0.0
 10
198.6629292904466
 20
134.1098924476441
 30
0.0
 10
198.6862420118799
 20
134.1039867634218
 30
0.0
 10
198.6931498691175
 20
134.1022368337272
 30
0.0
  0
LINE
  5
D2
330
1F
100
AcDbEntity
  8
0
  6
Continuous
 62
     7
370
    15
100
AcDbLine
 10
208.3232286785
 20
133.0765272148
 30
0.0
 11
206.66516151
 21
133.0765272148
 31
0.0
  0
LINE
  5
D3
330
1F
100
AcDbEntity
  8
0
  6
Continuous
 62
     7
370
    15
100
AcDbLine
 10
208.3232286785
 20
127.0680214041
 30
0.0
 11
208.3232286785
 21
133.0765272148
 31
0.0
  0
LINE
  5
D4
330
1F
100
AcDbEntity
  8
0
  6
Continuous
 62
     7
370
    15
100
AcDbLine
 10
205.9107818557
 20
127.0680214041
 30
0.0
 11
208.3232286785
 21
127.0680214041
 31
0.0
  0
SPLINE
  5
D5
330
1F
100
AcDbEntity
  8
0
  6
Continuous
 62
     7
370
    15
100
AcDbSpline
210
0.0
220
0.0
230
1.0
 70
     8
 71
     3
 72
    20
 73
    16
 74
     0
 42
0.00000001
 43
0.00000001
 40
0.0
 40
0.0
 40
0.0
 40
0.0
 40
0.2500000000000005
 40
0.2500000000000005
 40
0.3750000000000004
 40
0.3750000000000004
 40
0.5000000000000003
 40
0.5000000000000003
 40
0.6250000000000002
 40
0.6250000000000002
 40
0.7500000000000001
 40
0.7500000000000001
 40
0.8750000000000001
 40
0.8750000000000001
 40
1.0
 40
1.0
 40
1.0
 40
1.0
 10
198.6651615100362
 20
122.4593317416846
 30
0.0
 10
198.9135352443243
 20
123.113194169982
 30
0.0
 10
199.2331053366695
 20
123.7169799519791
 30
0.0
 10
199.8554115698742
 20
124.5438186881477
 30
0.0
 10
200.0868358303049
 20
124.8062473261006
 30
0.0
 10
200.6080501699547
 20
125.3029099802055
 30
0.0
 10
200.8946706525898
 20
125.5334968592271
 30
0.0
 10
201.5141553938974
 20
125.9500510838097
 30
0.0
 10
201.8484557733843
 20
126.1375488857772
 30
0.0
 10
202.5737162460091
 20
126.4689458634137
 30
0.0
 10
202.9556313033996
 20
126.6084498509089
 30
0.0
 10
203.7504194795713
 20
126.8339033583799
 30
0.0
 10
204.1645776737776
 20
126.9205294699235
 30
0.0
 10
205.030124014359
 20
127.0385102587776
 30
0.0
 10
205.4680116293708
 20
127.068021404052
 30
0.0
 10
205.9107818557255
 20
127.068021404052
 30
0.0
  0
LINE
  5
D6
330
1F
100
AcDbEntity
  8
0
  6
Continuous
 62
     7
370
    15
100
AcDbLine
 10
209.80516151
 20
75.1114945826
 30
0.0
 11
209.80516151
 21
122.4593317417
 31
0.0
  0
SPLINE
  5
D7
330
1F
100
AcDbEntity
  8
0
  6
Continuous
 62
     7
370
    15
100
AcDbSpline
210
0.0
220
0.0
230
1.0
 70
     8
 71
     3
 72
     8
 73
     4
 74
     0
 42
0.00000001
 43
0.00000001
 40
0.0
 40
0.0
 40
0.0
 40
0.0
 40
1.0
 40
1.0
 40
1.0
 40
1.0
 10
209.8051615100362
 20
75.11149458262967
 30
0.0
 10
209.312822387255
 20
74.21422454842299
 30
0.0
 10
208.8187083392129
 20
73.31794013337075
 30
0.0
 10
208.3232286785471
 20
72.42241404543739
 30
0.0
  0
SPLINE
  5
D8
330
1F
100
AcDbEntity
  8
0
  6
Continuous
 62
     7
370
    15
100
AcDbSpline
210
0.0
220
0.0
230
1.0
 70
    24
 71
     3
 72
     8
 73
     4
 74
     0
 42
0.00000001
 43
0.00000001
 40
0.0
 40
0.0
 40
0.0
 40
0.0
 40
1.0
 40
1.0
 40
1.0
 40
1.0
 10
208.3232286785471
 20
122.4593317416846
 30
0.0
 10
208.8299087866977
 20
122.4593317416846
 30
0.0
 10
209.3252095156713
 20
122.4593317416846
 30
0.0
 10
209.8051615100362
 20
122.4593317416846
 30
0.0
  0
LINE
  5
D9
330
1F
100
AcDbEntity
  8
0
  6
Continuous
 62
     7
370
    15
100
AcDbLine
 10
215.1070943415
 20
72.4224140454
 30
0.0
 11
215.1070943415
 21
122.4593317417
 31
0.0
  0
SPLINE
  5
DA
330
1F
100
AcDbEntity
  8
0
  6
Continuous
 62
     7
370
    15
100
AcDbSpline
210
0.0
220
0.0
230
1.0
 70
     8
 71
     3
 72
     8
 73
     4
 74
     0
 42
0.00000001
 43
0.00000001
 40
0.0
 40
0.0
 40
0.0
 40
0.0
 40
1.0
 40
1.0
 40
1.0
 40
1.0
 10
215.1070943415252
 20
72.42241404543739
 30
0.0
 10
214.6116146808595
 20
73.31794013337074
 30
0.0
 10
214.1175006328174
 20
74.21422454842298
 30
0.0
 10
213.6251615100362
 20
75.11149458262967
 30
0.0
  0
LINE
  5
DB
330
1F
100
AcDbEntity
  8
0
  6
Continuous
 62
     7
370
    15
100
AcDbLine
 10
213.62516151
 20
75.1114945826
 30
0.0
 11
213.62516151
 21
122.4593317417
 31
0.0
  0
SPLINE
  5
DC
330
1F
100
AcDbEntity
  8
0
  6
Continuous
 62
     7
370
    15
100
AcDbSpline
210
0.0
220
0.0
230
1.0
 70
    24
 71
     3
 72
     8
 73
     4
 74
     0
 42
0.00000001
 43
0.00000001
 40
0.0
 40
0.0
 40
0.0
 40
0.0
 40
1.0
 40
1.0
 40
1.0
 40
1.0
 10
213.6251615100362
 20
122.4593317416846
 30
0.0
 10
214.1051135044011
 20
122.4593317416846
 30
0.0
 10
214.6004142333747
 20
122.4593317416846
 30
0.0
 10
215.1070943415253
 20
122.4593317416846
 30
0.0
  0
LINE
  5
DD
330
1F
100
AcDbEntity
  8
0
  6
Continuous
 62
     7
370
    15
100
AcDbLine
 10
219.66516151
 20
73.0490543411
 30
0.0
 11
219.66516151
 21
122.4593317417
 31
0.0
  0
SPLINE
  5
DE
330
1F
100
AcDbEntity
  8
0
  6
Continuous
 62
     7
370
    15
100
AcDbSpline
210
0.0
220
0.0
230
1.0
 70
     8
 71
     3
 72
    10
 73
     6
 74
     0
 42
0.00000001
 43
0.00000001
 40
0.0
 40
0.0
 40
0.0
 40
0.0
 40
0.5
 40
0.5
 40
1.0
 40
1.0
 40
1.0
 40
1.0
 10
219.6651615100362
 20
73.04905434109173
 30
0.0
 10
219.6651615100362
 20
72.88916707289806
 30
0.0
 10
219.6038518588003
 20
72.72803981738346
 30
0.0
 10
219.3847522212653
 20
72.49394081902862
 30
0.0
 10
219.2267040149518
 20
72.4224140454374
 30
0.0
 10
219.0651615100362
 20
72.4224140454374
 30
0.0
  0
SPLINE
  5
DF
330
1F
100
AcDbEntity
  8
0
  6
Continuous
 62
     7
370
    15
100
AcDbSpline
210
0.0
220
0.0
230
1.0
 70
    24
 71
     3
 72
    12
 73
     8
 74
     0
 42
0.00000001
 43
0.00000001
 40
0.0
 40
0.0
 40
0.0
 40
0.0
 40
0.2500000000000006
 40
0.2500000000000006
 40
0.5000000000000012
 40
0.5000000000000012
 40
1.0
 40
1.0
 40
1.0
 40
1.0
 10
219.0651615100362
 20
122.4593317416846
 30
0.0
 10
219.1554005777233
 20
122.4593317416846
 30
0.0
 10
219.2462986918297
 20
122.4593317416846
 30
0.0
 10
219.4008957283183
 20
122.4593317416846
 30
0.0
 10
219.4658741444264
 20
122.4593317416846
 30
0.0
 10
219.6177091723626
 20
122.4593317416846
 30
0.0
 10
219.6651615100362
 20
122.4593317416846
 30
0.0
 10
219.6651615100362
 20
122.4593317416846
 30
0.0
  0
LINE
  5
E0
330
1F
100
AcDbEntity
  8
0
  6
Continuous
 62
     7
370
    15
100
AcDbLine
 10
219.06516151
 20
72.4224140454
 30
0.0
 11
215.1070943415
 21
72.4224140454
 31
0.0
  0
LINE
  5
E1
330
1F
100
AcDbEntity
  8
0
  6
Continuous
 62
     7
370
    15
100
AcDbLine
 10
215.1070943415
 20
122.4593317417
 30
0.0
 11
219.06516151
 21
122.4593317417
 31
0.0
  0
LINE
  5
E2
330
1F
100
AcDbEntity
  8
0
  6
Continuous
 62
     7
370
    15
100
AcDbLine
 10
193.71516151
 20
71.4093317417
 30
0.0
 11
193.71516151
 21
133.8093317402
 31
0.0
  0
SPLINE
  5
E3
330
1F
100
AcDbEntity
  8
0
  6
Continuous
 62
     7
370
    15
100
AcDbSpline
210
0.0
220
0.0
230
1.0
 70
    24
 71
     3
 72
    14
 73
    10
 74
     0
 42
0.00000001
 43
0.00000001
 40
0.0
 40
0.0
 40
0.0
 40
0.0
 40
0.5000000000000027
 40
0.5000000000000027
 40
0.7500000000000013
 40
0.7500000000000013
 40
0.8750000000000007
 40
0.8750000000000007
 40
1.0
 40
1.0
 40
1.0
 40
1.0
 10
213.5274867077039
 20
76.20933174168454
 30
0.0
 10
213.4807020026557
 20
76.20933174168454
 30
0.0
 10
213.4186508058761
 20
76.20933174168455
 30
0.0
 10
213.2752591673257
 20
76.20933174168455
 30
0.0
 10
213.2191155137744
 20
76.20933174168455
 30
0.0
 10
213.1061644916381
 20
76.20933174168454
 30
0.0
 10
213.0631637295999
 20
76.20933174168454
 30
0.0
 10
212.9591010192935
 20
76.20933174168454
 30
0.0
 10
212.8937687809366
 20
76.20933174168455
 30
0.0
 10
212.8251615100362
 20
76.20933174168454
 30
0.0
  0
SPLINE
  5
E4
330
1F
100
AcDbEntity
  8
0
  6
Continuous
 62
     7
370
    15
100
AcDbSpline
210
0.0
220
0.0
230
1.0
 70
    24
 71
     3
 72
    12
 73
     8
 74
     0
 42
0.00000001
 43
0.00000001
 40
0.0
 40
0.0
 40
0.0
 40
0.0
 40
0.5000000000000058
 40
0.5000000000000058
 40
0.7500000000000029
 40
0.7500000000000029
 40
1.0
 40
1.0
 40
1.0
 40
1.0
 10
213.2308639783452
 20
129.0093317416845
 30
0.0
 10
213.1877784287344
 20
129.0093317416845
 30
0.0
 10
213.1386262269874
 20
129.0093317416845
 30
0.0
 10
213.0421536326978
 20
129.0093317416845
 30
0.0
 10
213.0060520475636
 20
129.0093317416845
 30
0.0
 10
212.922946289701
 20
129.0093317416845
 30
0.0
 10
212.874949692737
 20
129.0093317416845
 30
0.0
 10
212.8251615100362
 20
129.0093317416845
 30
0.0
  0
SPLINE
  5
E5
330
1F
100
AcDbEntity
  8
0
  6
Continuous
 62
     7
370
    15
100
AcDbSpline
210
0.0
220
0.0
230
1.0
 70
     8
 71
     3
 72
    10
 73
     6
 74
     0
 42
0.00000001
 43
0.00000001
 40
0.0
 40
0.0
 40
0.0
 40
0.0
 40
0.5
 40
0.5
 40
1.0
 40
1.0
 40
1.0
 40
1.0
 10
213.6251615100362
 20
129.7289855927203
 30
0.0
 10
213.6251615100362
 20
129.5852155349023
 30
0.0
 10
213.5891124513173
 20
129.4427961724072
 30
0.0
 10
213.4536035905433
 20
129.1929018790499
 30
0.0
 10
213.3537275974471
 20
129.0848715428017
 30
0.0
 10
213.2308639783452
 20
129.0093317416845
 30
0.0
  0
SPLINE
  5
E6
330
1F
100
AcDbEntity
  8
0
  6
Continuous
 62
     7
370
    15
100
AcDbSpline
210
0.0
220
0.0
230
1.0
 70
     8
 71
     3
 72
    10
 73
     6
 74
     0
 42
0.00000001
 43
0.00000001
 40
0.0
 40
0.0
 40
0.0
 40
0.0
 40
0.5
 40
0.5
 40
1.0
 40
1.0
 40
1.0
 40
1.0
 10
213.599013886876
 20
122.4593317416846
 30
0.0
 10
213.6077035297877
 20
122.5062105910027
 30
0.0
 10
213.6142425945382
 20
122.553633056404
 30
0.0
 10
213.6230012289313
 20
122.6495698549907
 30
0.0
 10
213.6251615100362
 20
122.6974851430012
 30
0.0
 10
213.6251615100362
 20
122.7451983731457
 30
0.0
  0
SPLINE
  5
E7
330
1F
100
AcDbEntity
  8
0
  6
Continuous
 62
     7
370
    15
100
AcDbSpline
210
0.0
220
0.0
230
1.0
 70
     8
 71
     3
 72
    10
 73
     6
 74
     0
 42
0.00000001
 43
0.00000001
 40
0.0
 40
0.0
 40
0.0
 40
0.0
 40
0.5
 40
0.5
 40
1.0
 40
1.0
 40
1.0
 40
1.0
 10
210.1994590417272
 20
129.0093317416845
 30
0.0
 10
210.0779187780586
 20
129.0840579088963
 30
0.0
 10
209.9765844177097
 20
129.1930029248131
 30
0.0
 10
209.8409454748213
 20
129.4434334055747
 30
0.0
 10
209.8051615100362
 20
129.5858527676737
 30
0.0
 10
209.8051615100362
 20
129.7289855927203
 30
0.0
  0
SPLINE
  5
E8
330
1F
100
AcDbEntity
  8
0
  6
Continuous
 62
     7
370
    15
100
AcDbSpline
210
0.0
220
0.0
230
1.0
 70
    24
 71
     3
 72
    12
 73
     8
 74
     0
 42
0.00000001
 43
0.00000001
 40
0.0
 40
0.0
 40
0.0
 40
0.0
 40
0.2499999999999979
 40
0.2499999999999979
 40
0.4999999999999959
 40
0.4999999999999959
 40
1.0
 40
1.0
 40
1.0
 40
1.0
 10
210.6051615100362
 20
129.0093317416845
 30
0.0
 10
210.5558181482265
 20
129.0093317416845
 30
0.0
 10
210.507127449925
 20
129.0093317416845
 30
0.0
 10
210.4242763523546
 20
129.0093317416845
 30
0.0
 10
210.3880763847339
 20
129.0093317416845
 30
0.0
 10
210.2923264681845
 20
129.0093317416845
 30
0.0
 10
210.2424444983724
 20
129.0093317416845
 30
0.0
 10
210.1994590417272
 20
129.0093317416845
 30
0.0
  0
SPLINE
  5
E9
330
1F
100
AcDbEntity
  8
0
  6
Continuous
 62
     7
370
    15
100
AcDbSpline
210
0.0
220
0.0
230
1.0
 70
    24
 71
     3
 72
    14
 73
    10
 74
     0
 42
0.00000001
 43
0.00000001
 40
0.0
 40
0.0
 40
0.0
 40
0.0
 40
0.1250000000000001
 40
0.1250000000000001
 40
0.2500000000000002
 40
0.2500000000000002
 40
0.5000000000000003
 40
0.5000000000000003
 40
1.0
 40
1.0
 40
1.0
 40
1.0
 10
210.6051615100362
 20
76.20933174168454
 30
0.0
 10
210.5358147883051
 20
76.20933174168455
 30
0.0
 10
210.4706167349211
 20
76.20933174168455
 30
0.0
 10
210.3662375422941
 20
76.20933174168455
 30
0.0
 10
210.3233351712851
 20
76.20933174168455
 30
0.0
 10
210.2110095136804
 20
76.20933174168454
 30
0.0
 10
210.1557858193266
 20
76.20933174168455
 30
0.0
 10
210.0117284405591
 20
76.20933174168454
 30
0.0
 10
209.9496477437276
 20
76.20933174168454
 30
0.0
 10
209.9028363123685
 20
76.20933174168454
 30
0.0
  0
SPLINE
  5
EA
330
1F
100
AcDbEntity
  8
0
  6
Continuous
 62
     7
370
    15
100
AcDbSpline
210
0.0
220
0.0
230
1.0
 70
     8
 71
     3
 72
     9
 73
     5
 74
     0
 42
0.00000001
 43
0.00000001
 40
0.0
 40
0.0
 40
0.0
 40
0.0
 40
0.5
 40
1.0
 40
1.0
 40
1.0
 40
1.0
 10
209.8051615100362
 20
122.7451983731459
 30
0.0
 10
209.8051615100362
 20
122.6969663210232
 30
0.0
 10
209.8095674847414
 20
122.6010963075836
 30
0.0
 10
209.8225866648352
 20
122.5063876776003
 30
0.0
 10
209.8313091331963
 20
122.4593317416845
 30
0.0
  0
LINE
  5
EB
330
1F
100
AcDbEntity
  8
0
  6
Continuous
 62
     7
370
    15
100
AcDbLine
 10
212.82516151
 20
129.0093317417
 30
0.0
 11
210.60516151
 21
129.0093317417
 31
0.0
  0
LINE
  5
EC
330
1F
100
AcDbEntity
  8
0
  6
Continuous
 62
     7
370
    15
100
AcDbLine
 10
212.82516151
 20
76.2093317417
 30
0.0
 11
210.60516151
 21
76.2093317417
 31
0.0
  0
LINE
  5
ED
330
1F
100
AcDbEntity
  8
0
  6
Continuous
 62
     7
370
    15
100
AcDbLine
 10
219.8651604606
 20
129.0093317417
 30
0.0
 11
219.822785325
 21
129.0093317417
 31
0.0
  0
SPLINE
  5
EE
330
1F
100
AcDbEntity
  8
0
  6
Continuous
 62
     7
370
    15
100
AcDbSpline
210
0.0
220
0.0
230
1.0
 70
    24
 71
     3
 72
    10
 73
     6
 74
     0
 42
0.00000001
 43
0.00000001
 40
0.0
 40
0.0
 40
0.0
 40
0.0
 40
0.5
 40
0.5
 40
1.0
 40
1.0
 40
1.0
 40
1.0
 10
219.8651615100112
 20
76.20933174168454
 30
0.0
 10
219.8651603844986
 20
76.20933174168454
 30
0.0
 10
219.8219555012635
 20
76.20933174168454
 30
0.0
 10
219.7210284591793
 20
76.20933174168455
 30
0.0
 10
219.6651615100362
 20
76.20933174168454
 30
0.0
 10
219.6651615100362
 20
76.20933174168454
 30
0.0
  0
ELLIPSE
  5
EF
330
1F
100
AcDbEntity
  8
0
  6
Continuous
 62
     7
370
    15
100
AcDbEllipse
 10
227.4659457376
 20
111.1224381781
 30
0.0
 11
0.2922734675699132
 21
3.197112503664542
 31
0.0
210
0.0
220
0.0
230
0.9999999999999998
 40
0.1913229391
 41
0.0
 42
6.283185307179586
  0
ELLIPSE
  5
F0
330
1F
100
AcDbEntity
  8
0
  6
Continuous
 62
     7
370
    15
100
AcDbEllipse
 10
232.1728796853
 20
102.6093317417
 30
0.0
 11
-0.5233412460038096
 21
25.99962396395102
 31
0.0
210
0.0
220
0.0
230
1.0
 40
0.2671959542
 41
0.2895417502571313
 42
2.701667998731583
  0
SPLINE
  5
F1
330
1F
100
AcDbEntity
  8
0
  6
Continuous
 62
     7
370
    15
100
AcDbSpline
210
0.0
220
0.0
230
1.0
 70
     8
 71
     3
 72
    20
 73
    16
 74
     0
 42
0.00000001
 43
0.00000001
 40
0.0
 40
0.0
 40
0.0
 40
0.0
 40
0.25
 40
0.25
 40
0.375
 40
0.375
 40
0.5
 40
0.5
 40
0.625
 40
0.625
 40
0.75
 40
0.75
 40
0.875
 40
0.875
 40
1.0
 40
1.0
 40
1.0
 40
1.0
 10
229.6878648671938
 20
79.02574282253833
 30
0.0
 10
229.8400726345221
 20
78.76975652087027
 30
0.0
 10
230.0731533407655
 20
78.54806455185874
 30
0.0
 10
230.5523677546398
 20
78.25848439535497
 30
0.0
 10
230.7333033932337
 20
78.16996881712947
 30
0.0
 10
231.1276493095351
 20
78.01138038950361
 30
0.0
 10
231.3422862744787
 20
77.94051946453749
 30
0.0
 10
231.8074411268185
 20
77.81357995040652
 30
0.0
 10
232.059654742739
 20
77.75735552008769
 30
0.0
 10
232.5832275590501
 20
77.66156044466018
 30
0.0
 10
232.8563350482672
 20
77.62138673246798
 30
0.0
 10
233.4251989593247
 20
77.55441253698068
 30
0.0
 10
233.7232497596934
 20
77.52750708668383
 30
0.0
 10
234.3280939310586
 20
77.48728254491357
 30
0.0
 10
234.635457557339
 20
77.47376808194106
 30
0.0
 10
234.9478345220572
 20
77.46651132616661
 30
0.0
  0
SPLINE
  5
F2
330
1F
100
AcDbEntity
  8
0
  6
Continuous
 62
     7
370
    15
100
AcDbSpline
210
0.0
220
0.0
230
1.0
 70
     8
 71
     3
 72
    20
 73
    16
 74
     0
 42
0.00000001
 43
0.00000001
 40
0.0
 40
0.0
 40
0.0
 40
0.0
 40
0.2499999999999999
 40
0.2499999999999999
 40
0.3749999999999999
 40
0.3749999999999999
 40
0.5
 40
0.5
 40
0.6250000000000001
 40
0.6250000000000001
 40
0.75
 40
0.75
 40
0.875
 40
0.875
 40
1.0
 40
1.0
 40
1.0
 40
1.0
 10
234.9478345220572
 20
128.4289389438687
 30
0.0
 10
234.3232788660394
 20
128.4222391250105
 30
0.0
 10
233.7241441975402
 20
128.404615143381
 30
0.0
 10
232.8632096476147
 20
128.3544925477398
 30
0.0
 10
232.5867942625245
 20
128.3338531073246
 30
0.0
 10
232.0645028173293
 20
128.2836039657639
 30
0.0
 10
231.8169506464973
 20
128.2539065540324
 30
0.0
 10
231.3494353686075
 20
128.1827084331535
 30
0.0
 10
231.1307225426705
 20
128.1412096031857
 30
0.0
 10
230.7356325908267
 20
128.0467365588677
 30
0.0
 10
230.5571813871715
 20
127.9934793600033
 30
0.0
 10
230.2379713281989
 20
127.8725783320822
 30
0.0
 10
230.0972107169613
 20
127.8046208362257
 30
0.0
 10
229.8608431449771
 20
127.656100570273
 30
0.0
 10
229.7639651228491
 20
127.5751558299532
 30
0.0
 10
229.6878648671938
 20
127.4867918558691
 30
0.0
  0
LINE
  5
F3
330
1F
100
AcDbEntity
  8
0
  6
Continuous
 62
     7
370
    15
100
AcDbLine
 10
171.91516151
 20
79.3808848479
 30
0.0
 11
171.91516151
 21
80.6641834824
 31
0.0
  0
SPLINE
  5
F4
330
1F
100
AcDbEntity
  8
0
  6
Continuous
 62
     7
370
    15
100
AcDbSpline
210
0.0
220
0.0
230
1.0
 70
     8
 71
     3
 72
    14
 73
    10
 74
     0
 42
0.00000001
 43
0.00000001
 40
0.0
 40
0.0
 40
0.0
 40
0.0
 40
0.25
 40
0.25
 40
0.5
 40
0.5
 40
0.75
 40
0.75
 40
1.0
 40
1.0
 40
1.0
 40
1.0
 10
171.2935572732964
 20
81.74496052440134
 30
0.0
 10
171.3319936581174
 20
81.64233612668981
 30
0.0
 10
171.4007950515092
 20
81.54313970325023
 30
0.0
 10
171.5440810636682
 20
81.35224767392371
 30
0.0
 10
171.6192631187751
 20
81.25999040789081
 30
0.0
 10
171.7514504074253
 20
81.0803830860758
 30
0.0
 10
171.8089676028951
 20
80.99307353163147
 30
0.0
 10
171.8910124011874
 20
80.82313969811572
 30
0.0
 10
171.9151615100362
 20
80.74123735624455
 30
0.0
 10
171.9151615100362
 20
80.66418348240865
 30
0.0
  0
SPLINE
  5
F5
330
1F
100
AcDbEntity
  8
0
  6
Continuous
 62
     7
370
    15
100
AcDbSpline
210
0.0
220
0.0
230
1.0
 70
     8
 71
     3
 72
    18
 73
    14
 74
     0
 42
0.00000001
 43
0.00000001
 40
0.0
 40
0.0
 40
0.0
 40
0.0
 40
0.0624999999999986
 40
0.0624999999999986
 40
0.1249999999999972
 40
0.1249999999999972
 40
0.2499999999999957
 40
0.2499999999999957
 40
0.4999999999999971
 40
0.4999999999999971
 40
0.7499999999999986
 40
0.7499999999999986
 40
1.0
 40
1.0
 40
1.0
 40
1.0
 10
170.5151615100362
 20
82.46324297588795
 30
0.0
 10
170.5517337203866
 20
82.46702037941539
 30
0.0
 10
170.590384193822
 20
82.46646335153227
 30
0.0
 10
170.6644756875359
 20
82.45640414637039
 30
0.0
 10
170.69982598129
 20
82.44705026494582
 30
0.0
 10
170.7944202786794
 20
82.412665838512
 30
0.0
 10
170.8445584518184
 20
82.38195410384917
 30
0.0
 10
170.9737517233995
 20
82.28602479381114
 30
0.0
 10
171.0320318681407
 20
82.21750929969387
 30
0.0
 10
171.1322269645642
 20
82.08093734976127
 30
0.0
 10
171.1722422160108
 20
82.01217244725837
 30
0.0
 10
171.2406416368286
 20
81.87713701815069
 30
0.0
 10
171.2690033606905
 20
81.81051899209754
 30
0.0
 10
171.2935572732964
 20
81.74496052440134
 30
0.0
  0
SPLINE
  5
F6
330
1F
100
AcDbEntity
  8
0
  6
Continuous
 62
     7
370
    15
100
AcDbSpline
210
0.0
220
0.0
230
1.0
 70
     8
 71
     3
 72
    10
 73
     6
 74
     0
 42
0.00000001
 43
0.00000001
 40
0.0
 40
0.0
 40
0.0
 40
0.0
 40
0.5
 40
0.5
 40
1.0
 40
1.0
 40
1.0
 40
1.0
 10
166.6015596489142
 20
81.96704931951632
 30
0.0
 10
167.2291873046215
 20
82.07032287825193
 30
0.0
 10
167.880388049653
 20
82.15914799000346
 30
0.0
 10
169.1890927536652
 20
82.32125569687379
 30
0.0
 10
169.8501371909564
 20
82.39455516116037
 30
0.0
 10
170.5151615100361
 20
82.46324297588806
 30
0.0
  0
SPLINE
  5
F7
330
1F
100
AcDbEntity
  8
0
  6
Continuous
 62
     7
370
    15
100
AcDbSpline
210
0.0
220
0.0
230
1.0
 70
     8
 71
     3
 72
    14
 73
    10
 74
     0
 42
0.00000001
 43
0.00000001
 40
0.0
 40
0.0
 40
0.0
 40
0.0
 40
0.4999999999999998
 40
0.4999999999999998
 40
0.750000000000001
 40
0.750000000000001
 40
0.8750000000000004
 40
0.8750000000000004
 40
1.0
 40
1.0
 40
1.0
 40
1.0
 10
162.9651615100362
 20
81.802700183157
 30
0.0
 10
163.5812384137915
 20
81.80842630338614
 30
0.0
 10
164.1953704099074
 20
81.81831666878817
 30
0.0
 10
165.1092670404209
 20
81.84895163645794
 30
0.0
 10
165.4127059679685
 20
81.86174509409592
 30
0.0
 10
165.863842583606
 20
81.88967092205532
 30
0.0
 10
166.0135488331485
 20
81.90044054221507
 30
0.0
 10
166.3103899693966
 20
81.92757325781461
 30
0.0
 10
166.4577755218999
 20
81.94339023064184
 30
0.0
 10
166.6015596489142
 20
81.96704931951632
 30
0.0
  0
SPLINE
  5
F8
330
1F
100
AcDbEntity
  8
0
  6
Continuous
 62
     7
370
    15
100
AcDbSpline
210
0.0
220
0.0
230
1.0
 70
     8
 71
     3
 72
     8
 73
     4
 74
     0
 42
0.00000001
 43
0.00000001
 40
0.0000005954826279
 40
0.0000005954826279
 40
0.0000005954826279
 40
0.0000005954826279
 40
0.0000302093805348
 40
0.0000302093805348
 40
0.0000302093805348
 40
0.0000302093805348
 10
162.9551165796266
 20
81.81451531280888
 30
0.0
 10
162.9584326069468
 20
81.81056853321309
 30
0.0
 10
162.961781158339
 20
81.80663014208314
 30
0.0
 10
162.9651615100362
 20
81.80270018315699
 30
0.0
  0
SPLINE
  5
F9
330
1F
100
AcDbEntity
  8
0
  6
Continuous
 62
     7
370
    15
100
AcDbSpline
210
0.0
220
0.0
230
1.0
 70
     8
 71
     3
 72
     8
 73
     4
 74
     0
 42
0.00000001
 43
0.00000001
 40
0.0000005099763573
 40
0.0000005099763573
 40
0.0000005099763573
 40
0.0000005099763573
 40
0.0000262827998699
 40
0.0000262827998699
 40
0.0000262827998699
 40
0.0000262827998699
 10
162.9651615100362
 20
123.4792695070796
 30
0.0
 10
162.9617927708084
 20
123.4759478381237
 30
0.0
 10
162.9584443178293
 20
123.4726198808449
 30
0.0
 10
162.9551165796179
 20
123.4692856339722
 30
0.0
  0
SPLINE
  5
FA
330
1F
100
AcDbEntity
  8
0
  6
Continuous
 62
     7
370
    15
100
AcDbSpline
210
0.0
220
0.0
230
1.0
 70
     8
 71
     3
 72
    10
 73
     6
 74
     0
 42
0.00000001
 43
0.00000001
 40
0.0
 40
0.0
 40
0.0
 40
0.0
 40
0.5
 40
0.5
 40
1.0
 40
1.0
 40
1.0
 40
1.0
 10
166.5151615100362
 20
123.4324191335123
 30
0.0
 10
165.9275759629456
 20
123.4534846537487
 30
0.0
 10
165.3368295694852
 20
123.4642431396209
 30
0.0
 10
164.1528104041863
 20
123.4776079201566
 30
0.0
 10
163.5593964159809
 20
123.4797505628212
 30
0.0
 10
162.9651615100362
 20
123.4792695070796
 30
0.0
  0
SPLINE
  5
FB
330
1F
100
AcDbEntity
  8
0
  6
Continuous
 62
     7
370
    15
100
AcDbSpline
210
0.0
220
0.0
230
1.0
 70
     8
 71
     3
 72
    18
 73
    14
 74
     0
 42
0.00000001
 43
0.00000001
 40
0.0
 40
0.0
 40
0.0
 40
0.0
 40
0.2500000000000003
 40
0.2500000000000003
 40
0.4999999999999999
 40
0.4999999999999999
 40
0.7499999999999996
 40
0.7499999999999996
 40
0.8749999999999993
 40
0.8749999999999993
 40
0.9374999999999997
 40
0.9374999999999997
 40
1.0
 40
1.0
 40
1.0
 40
1.0
 10
167.9151615100362
 20
124.4534394140476
 30
0.0
 10
167.9151615100362
 20
124.3702325051903
 30
0.0
 10
167.8793124100979
 20
124.2814958498768
 30
0.0
 10
167.754440674064
 20
124.0993706593165
 30
0.0
 10
167.6640402564161
 20
124.0042406106899
 30
0.0
 10
167.441797601674
 20
123.8150591015656
 30
0.0
 10
167.3120328152282
 20
123.7201139334709
 30
0.0
 10
167.0713953579167
 20
123.5818352258909
 30
0.0
 10
166.9836280597792
 20
123.5361247925886
 30
0.0
 10
166.8291039725724
 20
123.4783014873671
 30
0.0
 10
166.7724930865177
 20
123.4605867233292
 30
0.0
 10
166.6484490556111
 20
123.4360474200963
 30
0.0
 10
166.5807343805928
 20
123.430068281558
 30
0.0
 10
166.5151615100362
 20
123.4324191335123
 30
0.0
  0
LINE
  5
FC
330
1F
100
AcDbEntity
  8
0
  6
Continuous
 62
     7
370
    15
100
AcDbLine
 10
167.91516151
 20
124.453439414
 30
0.0
 11
167.91516151
 21
125.6373778339
 31
0.0
  0
LINE
  5
FD
330
1F
100
AcDbEntity
  8
0
  6
Continuous
 62
     7
370
    15
100
AcDbLine
 10
191.71516151
 20
78.38890088
 30
0.0
 11
191.71516151
 21
126.8297626034
 31
0.0
  0
SPLINE
  5
FE
330
1F
100
AcDbEntity
  8
0
  6
Continuous
 62
     7
370
    15
100
AcDbSpline
210
0.0
220
0.0
230
1.0
 70
     8
 71
     3
 72
    24
 73
    20
 74
     0
 42
0.00000001
 43
0.00000001
 40
0.0
 40
0.0
 40
0.0
 40
0.0
 40
0.0010489762969684
 40
0.0637843125638272
 40
0.1272220590447938
 40
0.1903788924487642
 40
0.2526748653693668
 40
0.314635415442616
 40
0.3770891997149718
 40
0.4393540298505315
 40
0.5008133242537844
 40
0.56218451045953
 40
0.6248438451115886
 40
0.6874304766624577
 40
0.7496743174679392
 40
0.8119848426972682
 40
0.8750960525412994
 40
0.9384412526960663
 40
0.9999999999999999
 40
0.9999999999999999
 40
0.9999999999999999
 40
0.9999999999999999
 10
180.4840673420119
 20
78.95182331310441
 30
0.0
 10
180.4836208819077
 20
78.9517650272855
 30
0.0
 10
180.4564733182135
 20
78.94822088534303
 30
0.0
 10
180.552085095827
 20
78.96105463002573
 30
0.0
 10
180.7856453537218
 20
78.99030131522588
 30
0.0
 10
181.1811996610392
 20
79.03691563828878
 30
0.0
 10
181.7082399648772
 20
79.08709877994812
 30
0.0
 10
182.3517703768668
 20
79.13147524239781
 30
0.0
 10
183.0904442321066
 20
79.15842002333594
 30
0.0
 10
183.8879587375396
 20
79.16189187404265
 30
0.0
 10
184.7145376199858
 20
79.13426463001217
 30
0.0
 10
185.5400606375969
 20
79.07578574103941
 30
0.0
 10
186.3321871856003
 20
78.99034071167823
 30
0.0
 10
187.0647594596002
 20
78.88860647184191
 30
0.0
 10
187.7003996963291
 20
78.78076334986972
 30
0.0
 10
188.2223108033343
 20
78.67913319313088
 30
0.0
 10
188.6039395804511
 20
78.5966480364528
 30
0.0
 10
188.8547540506877
 20
78.54049883010285
 30
0.0
 10
188.883875606671
 20
78.53364937148912
 30
0.0
 10
188.8982281274869
 20
78.53027362476092
 30
0.0
  0
SPLINE
  5
FF
330
1F
100
AcDbEntity
  8
0
  6
Continuous
 62
     7
370
    15
100
AcDbSpline
210
0.0
220
0.0
230
1.0
 70
     8
 71
     3
 72
    24
 73
    20
 74
     0
 42
0.00000001
 43
0.00000001
 40
0.0
 40
0.0
 40
0.0
 40
0.0
 40
0.0614384276249341
 40
0.1250736755369512
 40
0.188425349072644
 40
0.250862390403742
 40
0.3129665632509107
 40
0.3753451453465124
 40
0.4377328972322135
 40
0.4990927322917224
 40
0.5605807588447959
 40
0.6229469893028957
 40
0.6854686282027745
 40
0.7475477813740224
 40
0.8098225060803523
 40
0.8730684085990407
 40
0.9364041844528636
 40
0.9991757196257849
 40
1.0
 40
1.0
 40
1.0
 40
1.0
 10
188.8981733566839
 20
126.6883607161419
 30
0.0
 10
188.88357263238
 20
126.6849926592893
 30
0.0
 10
188.8538491136511
 20
126.6781361158155
 30
0.0
 10
188.6011112980046
 20
126.6217974952897
 30
0.0
 10
188.2181153815556
 20
126.5389404131598
 30
0.0
 10
187.6957597971186
 20
126.4370333832086
 30
0.0
 10
187.0609753191177
 20
126.3291942441647
 30
0.0
 10
186.3307517149466
 20
126.2277272921896
 30
0.0
 10
185.5402831297118
 20
126.1426675784988
 30
0.0
 10
184.7157996148835
 20
126.0844632846125
 30
0.0
 10
183.8887631559985
 20
126.0568798457854
 30
0.0
 10
183.0904388883464
 20
126.0603728232785
 30
0.0
 10
182.3506149240579
 20
126.0873287431318
 30
0.0
 10
181.7063606910827
 20
126.1316826851308
 30
0.0
 10
181.1789534358681
 20
126.1818881348888
 30
0.0
 10
180.7842888337178
 20
126.2284979900869
 30
0.0
 10
180.5517595545311
 20
126.2576935826344
 30
0.0
 10
180.4563795219796
 20
126.270471651576
 30
0.0
 10
180.4833131588808
 20
126.2669173930679
 30
0.0
 10
180.4836622521051
 20
126.2668713254846
 30
0.0
  0
SPLINE
  5
100
330
1F
100
AcDbEntity
  8
0
  6
Continuous
 62
     7
370
    15
100
AcDbSpline
210
0.0
220
0.0
230
1.0
 70
     8
 71
     3
 72
     9
 73
     5
 74
     0
 42
0.00000001
 43
0.00000001
 40
0.0
 40
0.0
 40
0.0
 40
0.0
 40
0.5865083119587354
 40
1.0
 40
1.0
 40
1.0
 40
1.0
 10
161.8216813079872
 20
82.95851329910565
 30
0.0
 10
161.8256819369654
 20
82.95271321807665
 30
0.0
 10
161.8325030320745
 20
82.94282404700998
 30
0.0
 10
161.8416549030616
 20
82.99688883925054
 30
0.0
 10
161.8454391256448
 20
83.01924418145771
 30
0.0
  0
LINE
  5
101
330
1F
100
AcDbEntity
  8
0
  6
Continuous
 62
     7
370
    15
100
AcDbLine
 10
161.81516151
 20
82.9561712167
 30
0.0
 11
161.81516151
 21
122.3000094882
 31
0.0
  0
SPLINE
  5
102
330
1F
100
AcDbEntity
  8
0
  6
Continuous
 62
     7
370
    15
100
AcDbSpline
210
0.0
220
0.0
230
1.0
 70
     8
 71
     3
 72
    10
 73
     6
 74
     0
 42
0.00000001
 43
0.00000001
 40
0.0
 40
0.0
 40
0.0
 40
0.0
 40
0.5
 40
0.5
 40
1.0
 40
1.0
 40
1.0
 40
1.0
 10
161.8778248847596
 20
122.2838842864653
 30
0.0
 10
161.8689205956508
 20
122.3296258056785
 30
0.0
 10
161.8524052154578
 20
122.3468166451475
 30
0.0
 10
161.8252972693963
 20
122.3464933682117
 30
0.0
 10
161.8151615100362
 20
122.3286158259153
 30
0.0
 10
161.8151615100362
 20
122.3000094881627
 30
0.0
  0
SPLINE
  5
103
330
1F
100
AcDbEntity
  8
0
  6
Continuous
 62
     7
370
    15
100
AcDbSpline
210
0.0
220
0.0
230
1.0
 70
     8
 71
     3
 72
    26
 73
    22
 74
     0
 42
0.00000001
 43
0.00000001
 40
0.0
 40
0.0
 40
0.0
 40
0.0
 40
0.25
 40
0.25
 40
0.3749999999999994
 40
0.3749999999999994
 40
0.437500000000001
 40
0.437500000000001
 40
0.4687500000000001
 40
0.4687500000000001
 40
0.4999999999999991
 40
0.4999999999999991
 40
0.5312499999999981
 40
0.5312499999999981
 40
0.5624999999999971
 40
0.5624999999999971
 40
0.6249999999999971
 40
0.6249999999999971
 40
0.7499999999999971
 40
0.7499999999999971
 40
1.0
 40
1.0
 40
1.0
 40
1.0
 10
162.6393151561407
 20
122.9994510752824
 30
0.0
 10
162.6007146332722
 20
122.8816763789269
 30
0.0
 10
162.5544176307179
 20
122.757286692765
 30
0.0
 10
162.460478282284
 20
122.5520673604115
 30
0.0
 10
162.4251668153706
 20
122.4804944939651
 30
0.0
 10
162.3589868396249
 20
122.3645412613647
 30
0.0
 10
162.3344484729567
 20
122.3239567265544
 30
0.0
 10
162.2910757274029
 20
122.2598150446827
 30
0.0
 10
162.2755673259777
 20
122.2379486193977
 30
0.0
 10
162.2405246813907
 20
122.1923543510544
 30
0.0
 10
162.2209743906709
 20
122.168684060087
 30
0.0
 10
162.1790471103003
 20
122.1240675007471
 30
0.0
 10
162.1563950000687
 20
122.1031874882292
 30
0.0
 10
162.1154212859821
 20
122.0723140744784
 30
0.0
 10
162.0978219860866
 20
122.0624752046459
 30
0.0
 10
162.0531950002305
 20
122.0434855889498
 30
0.0
 10
162.0326357775772
 20
122.0431612642963
 30
0.0
 10
161.9815103380805
 20
122.0523847051725
 30
0.0
 10
161.9605989250919
 20
122.0736316013895
 30
0.0
 10
161.909149017531
 20
122.1476004802202
 30
0.0
 10
161.8914837182264
 20
122.213718573535
 30
0.0
 10
161.8778248847596
 20
122.2838842864653
 30
0.0
  0
SPLINE
  5
104
330
1F
100
AcDbEntity
  8
0
  6
Continuous
 62
     7
370
    15
100
AcDbSpline
210
0.0
220
0.0
230
1.0
 70
     8
 71
     3
 72
    10
 73
     6
 74
     0
 42
0.00000001
 43
0.00000001
 40
0.0
 40
0.0
 40
0.0
 40
0.0
 40
0.5
 40
0.5
 40
1.0
 40
1.0
 40
1.0
 40
1.0
 10
162.955116579618
 20
123.4692856339722
 30
0.0
 10
162.8875573246997
 20
123.4015942411624
 30
0.0
 10
162.8239206693632
 20
123.3268870764088
 30
0.0
 10
162.7136999147914
 20
123.1679209439822
 30
0.0
 10
162.6668836215688
 20
123.0835656779742
 30
0.0
 10
162.6393151561407
 20
122.9994510752824
 30
0.0
  0
SPLINE
  5
105
330
1F
100
AcDbEntity
  8
0
  6
Continuous
 62
     7
370
    15
100
AcDbSpline
210
0.0
220
0.0
230
1.0
 70
     8
 71
     3
 72
     8
 73
     4
 74
     0
 42
0.00000001
 43
0.00000001
 40
0.0
 40
0.0
 40
0.0
 40
0.0
 40
1.0
 40
1.0
 40
1.0
 40
1.0
 10
162.7540710802353
 20
82.16540943871894
 30
0.0
 10
162.7897847386052
 20
82.04217793345914
 30
0.0
 10
162.8654527775535
 20
81.92123435651214
 30
0.0
 10
162.9551165796266
 20
81.8145153128089
 30
0.0
  0
SPLINE
  5
106
330
1F
100
AcDbEntity
  8
0
  6
Continuous
 62
     7
370
    15
100
AcDbSpline
210
0.0
220
0.0
230
1.0
 70
     8
 71
     3
 72
    26
 73
    22
 74
     0
 42
0.00000001
 43
0.00000001
 40
0.0
 40
0.0
 40
0.0
 40
0.0
 40
0.24999999999999
 40
0.24999999999999
 40
0.3749999999999855
 40
0.3749999999999855
 40
0.4374999999999828
 40
0.4374999999999828
 40
0.4687499999999823
 40
0.4687499999999823
 40
0.4999999999999817
 40
0.4999999999999817
 40
0.5312499999999811
 40
0.5312499999999811
 40
0.5624999999999805
 40
0.5624999999999805
 40
0.6249999999999835
 40
0.6249999999999835
 40
0.7499999999999892
 40
0.7499999999999892
 40
1.0
 40
1.0
 40
1.0
 40
1.0
 10
161.8454391256448
 20
83.01924418145771
 30
0.0
 10
161.8561631590373
 20
83.1222052219467
 30
0.0
 10
161.8708961496319
 20
83.22120391142778
 30
0.0
 10
161.9232497088789
 20
83.3397995914929
 30
0.0
 10
161.9449549915985
 20
83.37550989144168
 30
0.0
 10
162.003810498964
 20
83.40048932426342
 30
0.0
 10
162.0272727328111
 20
83.40487477202697
 30
0.0
 10
162.0833941094718
 20
83.3851219385828
 30
0.0
 10
162.1061814196024
 20
83.3734655477724
 30
0.0
 10
162.1614339721336
 20
83.33168519833511
 30
0.0
 10
162.1928402048744
 20
83.30141361095907
 30
0.0
 10
162.2477740254949
 20
83.2397712120451
 30
0.0
 10
162.2721978436944
 20
83.20832955973826
 30
0.0
 10
162.3156129496816
 20
83.14859472232452
 30
0.0
 10
162.3351875122498
 20
83.11942971245188
 30
0.0
 10
162.3888201961978
 20
83.03559443671882
 30
0.0
 10
162.41859754425
 20
82.98356181874261
 30
0.0
 10
162.5001316042228
 20
82.83249614477525
 30
0.0
 10
162.5433743988968
 20
82.73930510290454
 30
0.0
 10
162.6564289885515
 20
82.47491856391018
 30
0.0
 10
162.7104399860307
 20
82.31596039486033
 30
0.0
 10
162.7540710802347
 20
82.1654094387195
 30
0.0
  0
SPLINE
  5
107
330
1F
100
AcDbEntity
  8
0
  6
Continuous
 62
     7
370
    15
100
AcDbSpline
210
0.0
220
0.0
230
1.0
 70
     8
 71
     3
 72
    10
 73
     6
 74
     0
 42
0.00000001
 43
0.00000001
 40
0.0
 40
0.0
 40
0.0
 40
0.0
 40
0.5
 40
0.5
 40
1.0
 40
1.0
 40
1.0
 40
1.0
 10
219.6651615100362
 20
132.4557720654484
 30
0.0
 10
219.6651615100362
 20
132.6161773317992
 30
0.0
 10
219.6029236789293
 20
132.7752391447878
 30
0.0
 10
219.3837887551868
 20
133.0061516104182
 30
0.0
 10
219.2262000601949
 20
133.0765272148488
 30
0.0
 10
219.0651615100362
 20
133.0765272148488
 30
0.0
  0
SPLINE
  5
108
330
1F
100
AcDbEntity
  8
0
  6
Continuous
 62
     7
370
    15
100
AcDbSpline
210
0.0
220
0.0
230
1.0
 70
     8
 71
     3
 72
    12
 73
     8
 74
     0
 42
0.00000001
 43
0.00000001
 40
0.0
 40
0.0
 40
0.0
 40
0.0
 40
0.249999999999998
 40
0.249999999999998
 40
0.499999999999996
 40
0.499999999999996
 40
1.0
 40
1.0
 40
1.0
 40
1.0
 10
219.0651615100362
 20
127.068021404052
 30
0.0
 10
219.1563612318619
 20
127.068021404052
 30
0.0
 10
219.2469562409979
 20
127.0398017054641
 30
0.0
 10
219.4003689674445
 20
126.945358698216
 30
0.0
 10
219.4655778347682
 20
126.8790717215107
 30
0.0
 10
219.6183623641081
 20
126.6534468982224
 30
0.0
 10
219.6651615100362
 20
126.4710206351898
 30
0.0
 10
219.6651615100362
 20
126.2902840029429
 30
0.0
  0
LINE
  5
109
330
1F
100
AcDbEntity
  8
0
  6
Continuous
 62
     7
370
    15
100
AcDbLine
 10
219.66516151
 20
126.2902840029
 30
0.0
 11
219.66516151
 21
132.4557720654
 31
0.0
  0
SPLINE
  5
10A
330
1F
100
AcDbEntity
  8
0
  6
Continuous
 62
     7
370
    15
100
AcDbSpline
210
0.0
220
0.0
230
1.0
 70
     8
 71
     3
 72
     8
 73
     4
 74
     0
 42
0.00000001
 43
0.00000001
 40
0.0
 40
0.0
 40
0.0
 40
0.0
 40
1.0
 40
1.0
 40
1.0
 40
1.0
 10
213.6251615100362
 20
123.6594754092679
 30
0.0
 10
214.104439660626
 20
124.8004866391205
 30
0.0
 10
214.600007499766
 20
125.9368710498883
 30
0.0
 10
215.1070943415252
 20
127.068021404052
 30
0.0
  0
LINE
  5
10B
330
1F
100
AcDbEntity
  8
0
  6
Continuous
 62
     7
370
    15
100
AcDbLine
 10
215.1070943415
 20
127.0680214041
 30
0.0
 11
219.06516151
 21
127.0680214041
 31
0.0
  0
LINE
  5
10C
330
1F
100
AcDbEntity
  8
0
  6
Continuous
 62
     7
370
    15
100
AcDbLine
 10
213.62516151
 20
122.7451983731
 30
0.0
 11
213.62516151
 21
123.6594754093
 31
0.0
  0
LINE
  5
10D
330
1F
100
AcDbEntity
  8
0
  6
Continuous
 62
     7
370
    15
100
AcDbLine
 10
219.66516151
 20
126.2902840029
 30
0.0
 11
219.66516151
 21
122.4593317417
 31
0.0
  0
LINE
  5
10E
330
1F
100
AcDbEntity
  8
0
  6
Continuous
 62
     7
370
    15
100
AcDbLine
 10
219.06516151
 20
133.0765272148
 30
0.0
 11
215.1070943415
 21
133.0765272148
 31
0.0
  0
LINE
  5
10F
330
1F
100
AcDbEntity
  8
0
  6
Continuous
 62
     7
370
    15
100
AcDbLine
 10
215.1070943415
 20
127.0680214041
 30
0.0
 11
215.1070943415
 21
133.0765272148
 31
0.0
  0
SPLINE
  5
110
330
1F
100
AcDbEntity
  8
0
  6
Continuous
 62
     7
370
    15
100
AcDbSpline
210
0.0
220
0.0
230
1.0
 70
     8
 71
     3
 72
     8
 73
     4
 74
     0
 42
0.00000001
 43
0.00000001
 40
0.0
 40
0.0
 40
0.0
 40
0.0
 40
1.0
 40
1.0
 40
1.0
 40
1.0
 10
215.1070943415252
 20
133.0765272148488
 30
0.0
 10
214.6119543121609
 20
132.1898475666685
 30
0.0
 10
214.1178716068819
 20
131.3025849309825
 30
0.0
 10
213.6251615100362
 20
130.4145659328562
 30
0.0
  0
LINE
  5
111
330
1F
100
AcDbEntity
  8
0
  6
Continuous
 62
     7
370
    15
100
AcDbLine
 10
213.62516151
 20
123.6594754093
 30
0.0
 11
213.62516151
 21
130.4145659329
 31
0.0
  0
SPLINE
  5
112
330
1F
100
AcDbEntity
  8
0
  6
Continuous
 62
     7
370
    15
100
AcDbSpline
210
0.0
220
0.0
230
1.0
 70
     8
 71
     3
 72
     8
 73
     4
 74
     0
 42
0.00000001
 43
0.00000001
 40
0.0
 40
0.0
 40
0.0
 40
0.0
 40
1.0
 40
1.0
 40
1.0
 40
1.0
 10
208.3232286785471
 20
127.068021404052
 30
0.0
 10
208.8303155203064
 20
125.9368710498883
 30
0.0
 10
209.3258833594464
 20
124.8004866391205
 30
0.0
 10
209.8051615100362
 20
123.6594754092679
 30
0.0
  0
LINE
  5
113
330
1F
100
AcDbEntity
  8
0
  6
Continuous
 62
     7
370
    15
100
AcDbLine
 10
209.80516151
 20
123.6594754093
 30
0.0
 11
209.80516151
 21
122.7451983731
 31
0.0
  0
SPLINE
  5
114
330
1F
100
AcDbEntity
  8
0
  6
Continuous
 62
     7
370
    15
100
AcDbSpline
210
0.0
220
0.0
230
1.0
 70
     8
 71
     3
 72
     8
 73
     4
 74
     0
 42
0.00000001
 43
0.00000001
 40
0.0
 40
0.0
 40
0.0
 40
0.0
 40
1.0
 40
1.0
 40
1.0
 40
1.0
 10
209.8051615100362
 20
130.4145659328562
 30
0.0
 10
209.3124514131904
 20
131.3025849309825
 30
0.0
 10
208.8183687079114
 20
132.1898475666685
 30
0.0
 10
208.3232286785471
 20
133.0765272148488
 30
0.0
  0
LINE
  5
115
330
1F
100
AcDbEntity
  8
0
  6
Continuous
 62
     7
370
    15
100
AcDbLine
 10
209.80516151
 20
123.6594754093
 30
0.0
 11
209.80516151
 21
130.4145659329
 31
0.0
  0
SPLINE
  5
116
330
1F
100
AcDbEntity
  8
0
  6
Continuous
 62
     7
370
    15
100
AcDbSpline
210
0.0
220
0.0
230
1.0
 70
     8
 71
     3
 72
     8
 73
     4
 74
     0
 42
0.00000001
 43
0.00000001
 40
0.0000002019071586
 40
0.0000002019071586
 40
0.0000002019071586
 40
0.0000002019071586
 40
0.000117947001209
 40
0.000117947001209
 40
0.000117947001209
 40
0.000117947001209
 10
235.0648809824635
 20
128.4370335635947
 30
0.0
 10
235.026069371505
 20
128.4320656251001
 30
0.0
 10
234.9869205904902
 20
128.4293582332878
 30
0.0
 10
234.9478345220573
 20
128.4289389438685
 30
0.0
  0
SPLINE
  5
117
330
1F
100
AcDbEntity
  8
0
  6
Continuous
 62
     7
370
    15
100
AcDbSpline
210
0.0
220
0.0
230
1.0
 70
     8
 71
     3
 72
     8
 73
     4
 74
     0
 42
0.00000001
 43
0.00000001
 40
0.0000002004868584
 40
0.0000002004868584
 40
0.0000002004868584
 40
0.0000002004868584
 40
0.0001179455808964
 40
0.0001179455808964
 40
0.0001179455808964
 40
0.0001179455808964
 10
234.9478345220573
 20
77.46651132616685
 30
0.0
 10
234.9869205904861
 20
77.46560332690696
 30
0.0
 10
235.0260693714968
 20
77.46246072890158
 30
0.0
 10
235.0648809824513
 20
77.45711415614417
 30
0.0
  0
LINE
  5
118
330
1F
100
AcDbEntity
  8
0
  6
Continuous
 62
     7
370
    15
100
AcDbLine
 10
162.96516151
 20
81.7968317417
 30
0.0
 11
162.96516151
 21
81.8027001832
 31
0.0
  0
LINE
  5
119
330
1F
100
AcDbEntity
  8
0
  6
Continuous
 62
     7
370
    15
100
AcDbLine
 10
245.1307236938
 20
132.0788516131
 30
0.0
 11
239.856721531
 21
129.3591056426
 31
0.0
  0
ARC
  5
11A
330
1F
100
AcDbEntity
  8
0
  6
Continuous
 62
     7
370
    15
100
AcDbCircle
 10
240.7795771402
 20
127.5962685937
 30
0.0
 40
1.989788163670167
100
AcDbArc
 50
117.63232312
 51
297.2487376481
  0
LINE
  5
11B
330
1F
100
AcDbEntity
  8
0
  6
Continuous
 62
     7
370
    15
100
AcDbLine
 10
241.6906102628
 20
125.8272927358
 30
0.0
 11
242.8753442313
 21
126.4382472515
 31
0.0
  0
LINE
  5
11C
330
1F
100
AcDbEntity
  8
0
  6
Continuous
 62
     7
370
    15
100
AcDbLine
 10
255.3572919508
 20
132.8437107163
 30
0.0
 11
254.2173760904
 21
130.6595130584
 31
0.0
  0
LINE
  5
11D
330
1F
100
AcDbEntity
  8
0
  6
Continuous
 62
     7
370
    15
100
AcDbLine
 10
254.2173760904
 20
130.6595130584
 30
0.0
 11
254.2173760904
 21
99.1785201655
 31
0.0
  0
LINE
  5
11E
330
1F
100
AcDbEntity
  8
0
  6
Continuous
 62
     7
370
    15
100
AcDbLine
 10
254.2173760904
 20
99.1785201655
 30
0.0
 11
238.2095481401
 21
76.3950563346
 31
0.0
  0
ELLIPSE
  5
11F
330
1F
100
AcDbEntity
  8
0
  6
Continuous
 62
     7
370
    15
100
AcDbEllipse
 10
304.3048676639
 20
102.6093317417
 30
0.0
 11
386.1179663612645
 21
-1.892633952568971
 31
0.0
210
0.0
220
0.0
230
0.9999999999999999
 40
0.0697548059
 41
4.534849008293033
 42
4.540704615185407
  0
LINE
  5
120
330
1F
100
AcDbEntity
  8
0
  6
Continuous
 62
     7
370
    15
100
AcDbLine
 10
235.9831107025
 20
76.4333690717
 30
0.0
 11
235.9137603483
 21
76.6969552006
 31
0.0
  0
SPLINE
  5
121
330
1F
100
AcDbEntity
  8
0
  6
Continuous
 62
     7
370
    15
100
AcDbSpline
210
0.0
220
0.0
230
1.0
 70
     8
 71
     3
 72
    10
 73
     6
 74
     0
 42
0.00000001
 43
0.00000001
 40
0.0
 40
0.0
 40
0.0
 40
0.0
 40
0.5
 40
0.5
 40
1.0
 40
1.0
 40
1.0
 40
1.0
 10
235.0648809824513
 20
77.45711415614393
 30
0.0
 10
235.2649623010047
 20
77.42955154534964
 30
0.0
 10
235.4533797857065
 20
77.34081150961431
 30
0.0
 10
235.7540195888678
 20
77.0703917911446
 30
0.0
 10
235.8627761846125
 20
76.89077257281004
 30
0.0
 10
235.9137603483463
 20
76.6969552005868
 30
0.0
  0
SPLINE
  5
122
330
1F
100
AcDbEntity
  8
0
  6
Continuous
 62
     7
370
    15
100
AcDbSpline
210
0.0
220
0.0
230
1.0
 70
     8
 71
     3
 72
    10
 73
     6
 74
     0
 42
0.00000001
 43
0.00000001
 40
0.0
 40
0.0
 40
0.0
 40
0.0
 40
0.5
 40
0.5
 40
1.0
 40
1.0
 40
1.0
 40
1.0
 10
235.9137603483463
 20
129.1889111104194
 30
0.0
 10
235.862827132326
 20
128.9957843059562
 30
0.0
 10
235.7529728640401
 20
128.8160824549016
 30
0.0
 10
235.454317654785
 20
128.5503997365249
 30
0.0
 10
235.2659494092709
 20
128.4627705931306
 30
0.0
 10
235.0648809824635
 20
128.4370335635949
 30
0.0
  0
SPLINE
  5
123
330
1F
100
AcDbEntity
  8
0
  6
Continuous
 62
     7
370
    15
100
AcDbSpline
210
0.0
220
0.0
230
1.0
 70
     8
 71
     3
 72
     8
 73
     4
 74
     0
 42
0.00000001
 43
0.00000001
 40
0.0
 40
0.0
 40
0.0
 40
0.0
 40
1.0
 40
1.0
 40
1.0
 40
1.0
 10
235.9137603483463
 20
129.1889111104194
 30
0.0
 10
236.2541422681337
 20
130.4795594849395
 30
0.0
 10
236.5954212053869
 20
131.769965301078
 30
0.0
 10
236.9372984574237
 20
133.0602093296582
 30
0.0
  0
LINE
  5
124
330
1F
100
AcDbEntity
  8
0
  6
Continuous
 62
     7
370
    15
100
AcDbLine
 10
236.9372984574
 20
133.0602093297
 30
0.0
 11
248.8486347131
 21
139.2027568268
 31
0.0
  0
LINE
  5
125
330
1F
100
AcDbEntity
  8
0
  6
Continuous
 62
     7
370
    15
100
AcDbLine
 10
235.9831107025
 20
76.4333690717
 30
0.0
 11
235.9831107025
 21
75.6093317417
 31
0.0
  0
LINE
  5
126
330
1F
100
AcDbEntity
  8
0
  6
Continuous
 62
     7
370
    15
100
AcDbLine
 10
236.9220621492
 20
133.024713246
 30
0.0
 11
236.9372984574
 21
133.0602093297
 31
0.0
  0
ELLIPSE
  5
127
330
1F
100
AcDbEntity
  8
0
  6
Continuous
 62
     7
370
    15
100
AcDbEllipse
 10
256.558397655
 20
102.6093317417
 30
0.0
 11
19.04189087378847
 21
26.99870500558242
 31
0.0
210
0.0
220
0.0
230
1.0
 40
0.0138872275
 41
3.151386849800502
 42
3.393226302111096
  0
ARC
  5
128
330
1F
100
AcDbEntity
  8
0
  6
Continuous
 62
     7
370
    15
100
AcDbCircle
 10
240.6414338823
 20
127.4591413262
 30
0.0
 40
1.749233068634201
100
AcDbArc
 50
117.6062690327
 51
297.2747917355
  0
LINE
  5
129
330
1F
100
AcDbEntity
  8
0
  6
Continuous
 62
     7
370
    15
100
AcDbLine
 10
241.4430348878
 20
125.9043898488
 30
0.0
 11
242.5986498435
 21
126.500328004
 31
0.0
  0
LINE
  5
12A
330
1F
100
AcDbEntity
  8
0
  6
Continuous
 62
     7
370
    15
100
AcDbLine
 10
239.8308515289
 20
129.0092292517
 30
0.0
 11
244.8904124348
 21
131.6183901814
 31
0.0
  0
LINE
  5
12B
330
1F
100
AcDbEntity
  8
0
  6
Continuous
 62
     7
370
    15
100
AcDbLine
 10
239.6564603446
 20
128.8352628755
 30
0.0
 11
239.3169154458
 21
128.6056689831
 31
0.0
  0
LINE
  5
12C
330
1F
100
AcDbEntity
  8
0
  6
Continuous
 62
     7
370
    15
100
AcDbLine
 10
244.830405422
 20
131.5034104875
 30
0.0
 11
239.6564603446
 21
128.8352628755
 31
0.0
  0
LINE
  5
12D
330
1F
100
AcDbEntity
  8
0
  6
HIDDEN
 62
     7
370
     0
100
AcDbLine
 10
198.66516151
 20
71.1093317417
 30
0.0
 11
198.66516151
 21
71.1252087588
 31
0.0
  0
SPLINE
  5
12E
330
1F
100
AcDbEntity
  8
0
  6
HIDDEN
 62
     7
370
     0
100
AcDbSpline
210
0.0
220
0.0
230
1.0
 70
     8
 71
     3
 72
    30
 73
    26
 74
     0
 42
0.00000001
 43
0.00000001
 40
0.0
 40
0.0
 40
0.0
 40
0.0
 40
0.1250000000000002
 40
0.1250000000000002
 40
0.1875000000000002
 40
0.1875000000000002
 40
0.2500000000000003
 40
0.2500000000000003
 40
0.3750000000000004
 40
0.3750000000000004
 40
0.4375000000000004
 40
0.4375000000000004
 40
0.5000000000000004
 40
0.5000000000000004
 40
0.6250000000000004
 40
0.6250000000000004
 40
0.6875000000000003
 40
0.6875000000000003
 40
0.7500000000000002
 40
0.7500000000000002
 40
0.8125000000000001
 40
0.8125000000000001
 40
0.8749999999999999
 40
0.8749999999999999
 40
1.0
 40
1.0
 40
1.0
 40
1.0
 10
198.6651615100362
 20
71.12520875882223
 30
0.0
 10
198.6651615100362
 20
71.14208767683085
 30
0.0
 10
198.7175790760146
 20
71.17210524165553
 30
0.0
 10
198.8709585559169
 20
71.23491563092863
 30
0.0
 10
198.9346396765847
 20
71.25881953815552
 30
0.0
 10
199.0875945440364
 20
71.31225483059792
 30
0.0
 10
199.1771668428056
 20
71.34186169876547
 30
0.0
 10
199.4783908756587
 20
71.4363113974799
 30
0.0
 10
199.7237058717429
 20
71.50733879130914
 30
0.0
 10
200.1578028528131
 20
71.6213530780149
 30
0.0
 10
200.3144725419168
 20
71.66080832915547
 30
0.0
 10
200.6464657057592
 20
71.74032977192613
 30
0.0
 10
200.8211712347517
 20
71.78026591442692
 30
0.0
 10
201.3708409173432
 20
71.89920231725506
 30
0.0
 10
201.7710918800545
 20
71.97736708113892
 30
0.0
 10
202.424678746692
 20
72.08707652140781
 30
0.0
 10
202.6503548663691
 20
72.12215735811623
 30
0.0
 10
203.1100666875003
 20
72.18739763749583
 30
0.0
 10
203.3451200215435
 20
72.21773245354059
 30
0.0
 10
203.8256273038425
 20
72.27307083276243
 30
0.0
 10
204.0710808317566
 20
72.2980755093225
 30
0.0
 10
204.572696256564
 20
72.3419553182132
 30
0.0
 10
204.8301886391645
 20
72.36089900297549
 30
0.0
 10
205.6082651556006
 20
72.40661873024568
 30
0.0
 10
206.1334274328455
 20
72.4224140454374
 30
0.0
 10
206.6651615100362
 20
72.4224140454374
 30
0.0
  0
LINE
  5
12F
330
1F
100
AcDbEntity
  8
0
  6
HIDDEN
 62
     7
370
     0
100
AcDbLine
 10
206.66516151
 20
72.4224140454
 30
0.0
 11
208.3232286785
 21
72.4224140454
 31
0.0
  0
LINE
  5
130
330
1F
100
AcDbEntity
  8
0
  6
HIDDEN
 62
     7
370
     0
100
AcDbLine
 10
208.3232286785
 20
133.0765272148
 30
0.0
 11
208.3232286785
 21
72.4224140454
 31
0.0
  0
LINE
  5
131
330
1F
100
AcDbEntity
  8
0
  6
HIDDEN
 62
     7
370
     0
100
AcDbLine
 10
206.66516151
 20
133.0765272148
 30
0.0
 11
208.3232286785
 21
133.0765272148
 31
0.0
  0
SPLINE
  5
132
330
1F
100
AcDbEntity
  8
0
  6
HIDDEN
 62
     7
370
     0
100
AcDbSpline
210
0.0
220
0.0
230
1.0
 70
     8
 71
     3
 72
    17
 73
    13
 74
     0
 42
0.00000001
 43
0.00000001
 40
0.0
 40
0.0
 40
0.0
 40
0.0
 40
0.0638118569779108
 40
0.1662334015758577
 40
0.2715772286555437
 40
0.3750121755717072
 40
0.4812892574314439
 40
0.5875617939750555
 40
0.696879251692842
 40
0.8035874883160895
 40
0.9135588806005728
 40
1.0
 40
1.0
 40
1.0
 40
1.0
 10
198.6931498691175
 20
134.1022368337272
 30
0.0
 10
198.6899527354791
 20
134.1030409150651
 30
0.0
 10
198.6816240262837
 20
134.1051355912313
 30
0.0
 10
198.9132598574301
 20
134.0466597521072
 30
0.0
 10
199.3483606140302
 20
133.9413500350015
 30
0.0
 10
199.9943629768022
 20
133.7955375739788
 30
0.0
 10
200.818634177349
 20
133.6280879263765
 30
0.0
 10
201.8211664608062
 20
133.4531148215935
 30
0.0
 10
202.9639143506396
 20
133.2925266734276
 30
0.0
 10
204.229248446034
 20
133.165177263463
 30
0.0
 10
205.4759882619362
 20
133.089089228908
 30
0.0
 10
206.3017457520983
 20
133.080366212966
 30
0.0
 10
206.6651615100362
 20
133.0765272148488
 30
0.0
  0
SPLINE
  5
133
330
1F
100
AcDbEntity
  8
0
  6
HIDDEN
 62
     7
370
     0
100
AcDbSpline
210
0.0
220
0.0
230
1.0
 70
     8
 71
     3
 72
    76
 73
    72
 74
     0
 42
0.00000001
 43
0.00000001
 40
-0.0312500000000002
 40
-0.0312500000000002
 40
0.0
 40
0.0
 40
0.0312499999999998
 40
0.0312499999999998
 40
0.0468749999999998
 40
0.0468749999999998
 40
0.0624999999999997
 40
0.0624999999999997
 40
0.0937499999999995
 40
0.0937499999999995
 40
0.1249999999999993
 40
0.1249999999999993
 40
0.1562499999999991
 40
0.1562499999999991
 40
0.1874999999999989
 40
0.1874999999999989
 40
0.2187499999999988
 40
0.2187499999999988
 40
0.2499999999999986
 40
0.2499999999999986
 40
0.2812499999999983
 40
0.2812499999999983
 40
0.3124999999999982
 40
0.3124999999999982
 40
0.3281249999999982
 40
0.3281249999999982
 40
0.3437499999999981
 40
0.3437499999999981
 40
0.3749999999999981
 40
0.3749999999999981
 40
0.4062499999999981
 40
0.4062499999999981
 40
0.437499999999998
 40
0.437499999999998
 40
0.4687499999999979
 40
0.4687499999999979
 40
0.4999999999999979
 40
0.4999999999999979
 40
0.5312499999999979
 40
0.5312499999999979
 40
0.5624999999999978
 40
0.5624999999999978
 40
0.5937499999999978
 40
0.5937499999999978
 40
0.6249999999999977
 40
0.6249999999999977
 40
0.6562499999999977
 40
0.6562499999999977
 40
0.6874999999999976
 40
0.6874999999999976
 40
0.7031249999999977
 40
0.7031249999999977
 40
0.7187499999999977
 40
0.7187499999999977
 40
0.7499999999999978
 40
0.7499999999999978
 40
0.7812499999999981
 40
0.7812499999999981
 40
0.8124999999999984
 40
0.8124999999999984
 40
0.8437499999999987
 40
0.8437499999999987
 40
0.874999999999999
 40
0.874999999999999
 40
0.9062499999999992
 40
0.9062499999999992
 40
0.9374999999999996
 40
0.9374999999999996
 40
0.9687499999999998
 40
0.9687499999999998
 40
1.0
 40
1.0
 40
1.03125
 40
1.03125
 10
195.7151615100362
 20
102.9402157374786
 30
0.0
 10
195.7151615100362
 20
102.2784477458905
 30
0.0
 10
195.7476819878206
 20
101.9531965777946
 30
0.0
 10
195.8431752321026
 20
101.4733998569055
 30
0.0
 10
195.8828500675138
 20
101.3148241731119
 30
0.0
 10
195.9782366808494
 20
101.0004417873188
 30
0.0
 10
196.03418092226
 20
100.8443221637347
 30
0.0
 10
196.2225439457097
 20
100.3903816038327
 30
0.0
 10
196.3761562221281
 20
100.1034013578257
 30
0.0
 10
196.7389840159122
 20
99.5602882010864
 30
0.0
 10
196.9498191174947
 20
99.30354890954243
 30
0.0
 10
197.4103186875122
 20
98.8431642753115
 30
0.0
 10
197.66168162843
 20
98.63638745855764
 30
0.0
 10
198.2080283227834
 20
98.27086325089424
 30
0.0
 10
198.4982429625013
 20
98.11586369217942
 30
0.0
 10
199.099629778803
 20
97.8663326710852
 30
0.0
 10
199.4152594718934
 20
97.7700543973965
 30
0.0
 10
200.060899873173
 20
97.64140539015352
 30
0.0
 10
200.3856556289863
 20
97.60951913103695
 30
0.0
 10
201.0389556593777
 20
97.60914598352623
 30
0.0
 10
201.3708280002084
 20
97.64172546977224
 30
0.0
 10
202.0124792338121
 20
97.76949937447861
 30
0.0
 10
202.3244041507452
 20
97.86403181877571
 30
0.0
 10
202.7788937512621
 20
98.05215141331445
 30
0.0
 10
202.9287570590961
 20
98.12303439453522
 30
0.0
 10
203.2178422930187
 20
98.27765100086962
 30
0.0
 10
203.3577032073268
 20
98.36157359960752
 30
0.0
 10
203.7635796510309
 20
98.63276912308325
 30
0.0
 10
204.0166177975206
 20
98.83986912852447
 30
0.0
 10
204.482517353684
 20
99.30547158158173
 30
0.0
 10
204.6890234281798
 20
99.557390433969
 30
0.0
 10
205.0511289915794
 20
100.0982940499699
 30
0.0
 10
205.2079881053946
 20
100.3908368927213
 30
0.0
 10
205.4589382222572
 20
100.9957045494788
 30
0.0
 10
205.5537493215882
 20
101.3073513809255
 30
0.0
 10
205.6821711843813
 20
101.9491046861471
 30
0.0
 10
205.7150344708725
 20
102.2808325050264
 30
0.0
 10
205.715287796981
 20
102.9339522702873
 30
0.0
 10
205.6837317964118
 20
103.2588854766304
 30
0.0
 10
205.5554905749874
 20
103.9054124830835
 30
0.0
 10
205.459684526329
 20
104.2204204369444
 30
0.0
 10
205.2105510152349
 20
104.82237910509
 30
0.0
 10
205.0550908935402
 20
105.1138552753655
 30
0.0
 10
204.6906366391804
 20
105.6594502118622
 30
0.0
 10
204.4842037317446
 20
105.9109273268674
 30
0.0
 10
204.0237346492267
 20
106.3722503509222
 30
0.0
 10
203.7669376411708
 20
106.5833736518685
 30
0.0
 10
203.2248924273363
 20
106.9461044335845
 30
0.0
 10
202.9381228474008
 20
107.0999933369701
 30
0.0
 10
202.4838156715151
 20
107.2889430636621
 30
0.0
 10
202.3276753707416
 20
107.3450158596819
 30
0.0
 10
202.0138294093956
 20
107.4405186252146
 30
0.0
 10
201.8554426217018
 20
107.4802992682421
 30
0.0
 10
201.3759663817584
 20
107.5761818053674
 30
0.0
 10
201.0497264373315
 20
107.6090572533669
 30
0.0
 10
200.3888518400535
 20
107.609602822538
 30
0.0
 10
200.0637154927087
 20
107.5774363039246
 30
0.0
 10
199.4236329922222
 20
107.4506537659373
 30
0.0
 10
199.1053120681544
 20
107.354386012146
 30
0.0
 10
198.5003957893152
 20
107.1039916907208
 30
0.0
 10
198.2132468756637
 20
106.9506775289993
 30
0.0
 10
197.6692953219908
 20
106.5879696049795
 30
0.0
 10
197.4126493722642
 20
106.3775305322457
 30
0.0
 10
196.9520588188512
 20
105.9176495439693
 30
0.0
 10
196.7449099328604
 20
105.6663677442765
 30
0.0
 10
196.3783786894471
 20
105.1194475705365
 30
0.0
 10
196.2236945019426
 20
104.8303074189203
 30
0.0
 10
195.9735948486044
 20
104.229070745001
 30
0.0
 10
195.8769080741113
 20
103.9130950513602
 30
0.0
 10
195.747686499155
 20
103.2671212932636
 30
0.0
 10
195.7151615100362
 20
102.9402157374786
 30
0.0
 10
195.7151615100362
 20
102.2784477458905
 30
0.0
  0
LINE
  5
134
330
1F
100
AcDbEntity
  8
0
  6
HIDDEN
 62
     7
370
     0
100
AcDbLine
 10
193.71516151
 20
71.4093317417
 30
0.0
 11
193.71516151
 21
133.8093317417
 31
0.0
  0
SPLINE
  5
135
330
1F
100
AcDbEntity
  8
0
  6
HIDDEN
 62
     7
370
     0
100
AcDbSpline
210
0.0
220
0.0
230
1.0
 70
     8
 71
     3
 72
    10
 73
     6
 74
     0
 42
0.00000001
 43
0.00000001
 40
0.0
 40
0.0
 40
0.0
 40
0.0
 40
0.5
 40
0.5
 40
1.0
 40
1.0
 40
1.0
 40
1.0
 10
213.6251615100362
 20
75.80493611335521
 30
0.0
 10
213.6251615100362
 20
75.87517247372598
 30
0.0
 10
213.6168788979457
 20
75.94516657522347
 30
0.0
 10
213.5837789548871
 20
76.08212583978239
 30
0.0
 10
213.5594415629286
 20
76.14743374903766
 30
0.0
 10
213.5274867077039
 20
76.20933174168457
 30
0.0
  0
LINE
  5
136
330
1F
100
AcDbEntity
  8
0
  6
HIDDEN
 62
     7
370
     0
100
AcDbLine
 10
213.62516151
 20
122.7451983731
 30
0.0
 11
213.62516151
 21
129.7289855927
 31
0.0
  0
SPLINE
  5
137
330
1F
100
AcDbEntity
  8
0
  6
HIDDEN
 62
     7
370
     0
100
AcDbSpline
210
0.0
220
0.0
230
1.0
 70
    24
 71
     3
 72
    10
 73
     6
 74
     0
 42
0.00000001
 43
0.00000001
 40
0.0
 40
0.0
 40
0.0
 40
0.0
 40
0.5
 40
0.5
 40
1.0
 40
1.0
 40
1.0
 40
1.0
 10
213.5990138868761
 20
122.4593317416846
 30
0.0
 10
213.6076916617837
 20
122.4593317416846
 30
0.0
 10
213.6142446857906
 20
122.4593317416846
 30
0.0
 10
213.6229792952876
 20
122.4593317416846
 30
0.0
 10
213.6251615100362
 20
122.4593317416846
 30
0.0
 10
213.6251615100362
 20
122.4593317416846
 30
0.0
  0
LINE
  5
138
330
1F
100
AcDbEntity
  8
0
  6
HIDDEN
 62
     7
370
     0
100
AcDbLine
 10
213.62516151
 20
75.8049361134
 30
0.0
 11
213.62516151
 21
122.4593317417
 31
0.0
  0
SPLINE
  5
139
330
1F
100
AcDbEntity
  8
0
  6
HIDDEN
 62
     7
370
     0
100
AcDbSpline
210
0.0
220
0.0
230
1.0
 70
     8
 71
     3
 72
    10
 73
     6
 74
     0
 42
0.00000001
 43
0.00000001
 40
0.0
 40
0.0
 40
0.0
 40
0.0
 40
0.5
 40
0.5
 40
1.0
 40
1.0
 40
1.0
 40
1.0
 10
209.9028363123685
 20
76.20933174168458
 30
0.0
 10
209.8706811247465
 20
76.14704569616848
 30
0.0
 10
209.8460248935523
 20
76.08051527129928
 30
0.0
 10
209.8132121366268
 20
75.94365664093684
 30
0.0
 10
209.8051615100362
 20
75.87459904575853
 30
0.0
 10
209.8051615100362
 20
75.80493611335521
 30
0.0
  0
SPLINE
  5
13A
330
1F
100
AcDbEntity
  8
0
  6
HIDDEN
 62
     7
370
     0
100
AcDbSpline
210
0.0
220
0.0
230
1.0
 70
    24
 71
     3
 72
    10
 73
     6
 74
     0
 42
0.00000001
 43
0.00000001
 40
0.0
 40
0.0
 40
0.0
 40
0.0
 40
0.5
 40
0.5
 40
1.0
 40
1.0
 40
1.0
 40
1.0
 10
209.8051615100362
 20
122.4593317416846
 30
0.0
 10
209.8051615100362
 20
122.4593317416846
 30
0.0
 10
209.8073833685209
 20
122.4593317416846
 30
0.0
 10
209.8161200402445
 20
122.4593317416846
 30
0.0
 10
209.8226315540388
 20
122.4593317416846
 30
0.0
 10
209.8313091331963
 20
122.4593317416846
 30
0.0
  0
LINE
  5
13B
330
1F
100
AcDbEntity
  8
0
  6
HIDDEN
 62
     7
370
     0
100
AcDbLine
 10
209.80516151
 20
122.7451983731
 30
0.0
 11
209.80516151
 21
129.7289855927
 31
0.0
  0
LINE
  5
13C
330
1F
100
AcDbEntity
  8
0
  6
HIDDEN
 62
     7
370
     0
100
AcDbLine
 10
209.80516151
 20
75.8049361134
 30
0.0
 11
209.80516151
 21
122.4593317417
 31
0.0
  0
SPLINE
  5
13D
330
1F
100
AcDbEntity
  8
0
  6
HIDDEN
 62
     7
370
     0
100
AcDbSpline
210
0.0
220
0.0
230
1.0
 70
    24
 71
     3
 72
    18
 73
    14
 74
     0
 42
0.00000001
 43
0.00000001
 40
0.0
 40
0.0
 40
0.0
 40
0.0
 40
0.5
 40
0.5
 40
0.75
 40
0.75
 40
0.875
 40
0.875
 40
0.9375
 40
0.9375
 40
0.96875
 40
0.96875
 40
1.0
 40
1.0
 40
1.0
 40
1.0
 10
219.6651615100362
 20
129.0093317416845
 30
0.0
 10
219.6651615100362
 20
129.0093317416845
 30
0.0
 10
219.7210106463071
 20
129.0093317416845
 30
0.0
 10
219.7967280373567
 20
129.0093317416845
 30
0.0
 10
219.8209173868484
 20
129.0093317416845
 30
0.0
 10
219.846661153229
 20
129.0093317416845
 30
0.0
 10
219.8535068003477
 20
129.0093317416845
 30
0.0
 10
219.860446620065
 20
129.0093317416845
 30
0.0
 10
219.8622090626924
 20
129.0093317416845
 30
0.0
 10
219.8639772373442
 20
129.0093317416845
 30
0.0
 10
219.8644210333543
 20
129.0093317416845
 30
0.0
 10
219.8650132059392
 20
129.0093317416845
 30
0.0
 10
219.8651615759907
 20
129.0093317416845
 30
0.0
 10
219.8651615100126
 20
129.0093317416845
 30
0.0
  0
SPLINE
  5
13E
330
1F
100
AcDbEntity
  8
0
  6
HIDDEN
 62
     7
370
     0
100
AcDbSpline
210
0.0
220
0.0
230
1.0
 70
    24
 71
     3
 72
     9
 73
     5
 74
     0
 42
0.00000001
 43
0.00000001
 40
0.0
 40
0.0
 40
0.0
 40
0.0
 40
0.088233587274389
 40
1.0
 40
1.0
 40
1.0
 40
1.0
 10
219.8227853249607
 20
129.0093317416845
 30
0.0
 10
219.8198203951745
 20
129.0093317416845
 30
0.0
 10
219.7862172075693
 20
129.0093317416845
 30
0.0
 10
219.7228958223167
 20
129.0093317416845
 30
0.0
 10
219.6651615100362
 20
129.0093317416845
 30
0.0
  0
LINE
  5
13F
330
1F
100
AcDbEntity
  8
0
  6
HIDDEN
 62
     7
370
     0
100
AcDbLine
 10
219.66516151
 20
129.0093317417
 30
0.0
 11
219.66516151
 21
76.2093317417
 31
0.0
  0
SPLINE
  5
140
330
1F
100
AcDbEntity
  8
0
  6
HIDDEN
 62
     7
370
     0
100
AcDbSpline
210
0.0
220
0.0
230
1.0
 70
    24
 71
     3
 72
    18
 73
    14
 74
     0
 42
0.00000001
 43
0.00000001
 40
0.0
 40
0.0
 40
0.0
 40
0.0
 40
0.4999999999999999
 40
0.4999999999999999
 40
0.7499999999999999
 40
0.7499999999999999
 40
0.875
 40
0.875
 40
0.9375
 40
0.9375
 40
0.96875
 40
0.96875
 40
1.0
 40
1.0
 40
1.0
 40
1.0
 10
219.6651615100362
 20
76.20933174168454
 30
0.0
 10
219.6651615100362
 20
76.20933174168454
 30
0.0
 10
219.7210106696499
 20
76.20933174168454
 30
0.0
 10
219.7967280746199
 20
76.20933174168454
 30
0.0
 10
219.8209174252925
 20
76.20933174168454
 30
0.0
 10
219.8466611839199
 20
76.20933174168455
 30
0.0
 10
219.853506826906
 20
76.20933174168455
 30
0.0
 10
219.8604466381813
 20
76.20933174168454
 30
0.0
 10
219.8622090776267
 20
76.20933174168454
 30
0.0
 10
219.863977247018
 20
76.20933174168454
 30
0.0
 10
219.8644210411938
 20
76.20933174168454
 30
0.0
 10
219.8650132099636
 20
76.20933174168455
 30
0.0
 10
219.8651615778948
 20
76.20933174168454
 30
0.0
 10
219.8651615100112
 20
76.20933174168454
 30
0.0
  0
LINE
  5
141
330
1F
100
AcDbEntity
  8
0
  6
HIDDEN
 62
     7
370
     0
100
AcDbLine
 10
219.66516151
 20
76.2093317417
 30
0.0
 11
219.66516151
 21
129.0093317417
 31
0.0
  0
SPLINE
  5
142
330
1F
100
AcDbEntity
  8
0
  6
HIDDEN
 62
     7
370
     0
100
AcDbSpline
210
0.0
220
0.0
230
1.0
 70
     8
 71
     3
 72
    66
 73
    62
 74
     0
 42
0.00000001
 43
0.00000001
 40
-0.0625000000000004
 40
-0.0625000000000004
 40
0.0
 40
0.0
 40
0.0312499999999997
 40
0.0312499999999997
 40
0.0624999999999995
 40
0.0624999999999995
 40
0.0937499999999992
 40
0.0937499999999992
 40
0.1249999999999989
 40
0.1249999999999989
 40
0.1874999999999978
 40
0.1874999999999978
 40
0.2187499999999979
 40
0.2187499999999979
 40
0.249999999999998
 40
0.249999999999998
 40
0.2812499999999981
 40
0.2812499999999981
 40
0.3124999999999981
 40
0.3124999999999981
 40
0.3437499999999982
 40
0.3437499999999982
 40
0.3749999999999983
 40
0.3749999999999983
 40
0.4062499999999983
 40
0.4062499999999983
 40
0.4374999999999984
 40
0.4374999999999984
 40
0.4687499999999985
 40
0.4687499999999985
 40
0.4999999999999986
 40
0.4999999999999986
 40
0.5312499999999987
 40
0.5312499999999987
 40
0.5624999999999987
 40
0.5624999999999987
 40
0.5937499999999988
 40
0.5937499999999988
 40
0.6249999999999988
 40
0.6249999999999988
 40
0.6562499999999989
 40
0.6562499999999989
 40
0.687499999999999
 40
0.687499999999999
 40
0.718749999999999
 40
0.718749999999999
 40
0.7499999999999991
 40
0.7499999999999991
 40
0.7812499999999992
 40
0.7812499999999992
 40
0.8124999999999992
 40
0.8124999999999992
 40
0.8437499999999993
 40
0.8437499999999993
 40
0.8749999999999993
 40
0.8749999999999993
 40
0.9062499999999994
 40
0.9062499999999994
 40
0.9374999999999996
 40
0.9374999999999996
 40
1.0
 40
1.0
 40
1.03125
 40
1.03125
 10
223.1819351064706
 20
104.50571830517
 30
0.0
 10
223.1743569398611
 20
105.0034612150536
 30
0.0
 10
223.1883203204093
 20
105.1666834289864
 30
0.0
 10
223.2478998313725
 20
105.4879757277137
 30
0.0
 10
223.2943043494074
 20
105.6477523856049
 30
0.0
 10
223.4170162823855
 20
105.9521047072307
 30
0.0
 10
223.4927580407195
 20
106.0965071060227
 30
0.0
 10
223.6728952907631
 20
106.3699278033013
 30
0.0
 10
223.7780837777999
 20
106.4991942282813
 30
0.0
 10
224.123758059422
 20
106.8467149303066
 30
0.0
 10
224.4038098175649
 20
107.0337807200685
 30
0.0
 10
224.8577142174045
 20
107.2223099287037
 30
0.0
 10
225.0168870198324
 20
107.2710117254911
 30
0.0
 10
225.341176452918
 20
107.3367050037816
 30
0.0
 10
225.5045519057328
 20
107.3536861201907
 30
0.0
 10
225.833697342922
 20
107.3568143047752
 30
0.0
 10
226.0008577682761
 20
107.3424769822933
 30
0.0
 10
226.3246206186801
 20
107.2835630710381
 30
0.0
 10
226.4825514924762
 20
107.2392494336458
 30
0.0
 10
226.7904448485769
 20
107.1205714619795
 30
0.0
 10
226.9393987475479
 20
107.0461935149653
 30
0.0
 10
227.2168585530301
 20
106.8730883228792
 30
0.0
 10
227.3469798392565
 20
106.7738062802271
 30
0.0
 10
227.5891124858028
 20
106.5483178519243
 30
0.0
 10
227.6973956694491
 20
106.4255153080971
 30
0.0
 10
227.8881392512856
 20
106.161203957565
 30
0.0
 10
227.9714409063276
 20
106.0179604765169
 30
0.0
 10
228.1069153819501
 20
105.7184178228963
 30
0.0
 10
228.1587635111074
 20
105.5637593536011
 30
0.0
 10
228.2307928127649
 20
105.2446430342612
 30
0.0
 10
228.2507248650255
 20
105.0785910849121
 30
0.0
 10
228.2560881929224
 20
104.7507841034143
 30
0.0
 10
228.2421379644497
 20
104.5876203050032
 30
0.0
 10
228.1804339717721
 20
104.26280845249
 30
0.0
 10
228.1328003530081
 20
104.1035123788412
 30
0.0
 10
228.0079402636607
 20
103.7999715859682
 30
0.0
 10
227.9296106454163
 20
103.6530616317944
 30
0.0
 10
227.7455684144151
 20
103.3777447355109
 30
0.0
 10
227.6412133268755
 20
103.2507834167859
 30
0.0
 10
227.4086669793496
 20
103.0175556454197
 30
0.0
 10
227.2792444352023
 20
102.9107679190675
 30
0.0
 10
227.0064384342953
 20
102.7265027295649
 30
0.0
 10
226.8621914153033
 20
102.6478421134174
 30
0.0
 10
226.5578175292157
 20
102.5177985287203
 30
0.0
 10
226.398902479325
 20
102.4673026003713
 30
0.0
 10
226.0779838745865
 20
102.3979690029739
 30
0.0
 10
225.9143500380561
 20
102.3784678899831
 30
0.0
 10
225.5816044513079
 20
102.3714597914126
 30
0.0
 10
225.4176002978536
 20
102.3840272922518
 30
0.0
 10
225.0941837425774
 20
102.4403188478203
 30
0.0
 10
224.9331134188166
 20
102.4847458309685
 30
0.0
 10
224.6246317471233
 20
102.6037509983579
 30
0.0
 10
224.47801788538
 20
102.6775828081962
 30
0.0
 10
224.1999288027545
 20
102.8536856163396
 30
0.0
 10
224.0676373307483
 20
102.9571217716117
 30
0.0
 10
223.8297780639022
 20
103.1844846928814
 30
0.0
 10
223.7227570608946
 20
103.3090364130337
 30
0.0
 10
223.5329802122538
 20
103.5802676963676
 30
0.0
 10
223.4515686666966
 20
103.7256273177486
 30
0.0
 10
223.254359436738
 20
104.1764855328309
 30
0.0
 10
223.1819351064706
 20
104.50571830517
 30
0.0
 10
223.1743569398611
 20
105.0034612150536
 30
0.0
  0
LINE
  5
143
330
1F
100
AcDbEntity
  8
0
  6
HIDDEN
 62
     7
370
     0
100
AcDbLine
 10
193.71516151
 20
77.2854078206
 30
0.0
 11
193.71516151
 21
127.9151175243
 31
0.0
  0
LINE
  5
144
330
1F
100
AcDbEntity
  8
0
  6
HIDDEN
 62
     7
370
     0
100
AcDbLine
 10
198.66516151
 20
122.4593317417
 30
0.0
 11
205.9107818557
 21
122.4593317417
 31
0.0
  0
LWPOLYLINE
  5
145
330
1F
100
AcDbEntity
  8
0
  6
HIDDEN
 62
     7
370
     0
100
AcDbPolyline
 90
        2
 70
   128
 43
0.0
 10
213.62516151
 20
122.4593317417
 10
213.62516151
 20
122.4593317417
  0
LWPOLYLINE
  5
146
330
1F
100
AcDbEntity
  8
0
  6
HIDDEN
 62
     7
370
     0
100
AcDbPolyline
 90
        2
 70
   128
 43
0.0
 10
219.66516151
 20
122.4593317417
 10
219.66516151
 20
122.4593317417
  0
LWPOLYLINE
  5
147
330
1F
100
AcDbEntity
  8
0
  6
HIDDEN
 62
     7
370
     0
100
AcDbPolyline
 90
        2
 70
   128
 43
0.0
 10
209.80516151
 20
122.4593317417
 10
209.80516151
 20
122.4593317417
  0
SPLINE
  5
148
330
1F
100
AcDbEntity
  8
0
  6
HIDDEN
 62
     7
370
     0
100
AcDbSpline
210
0.0
220
0.0
230
1.0
 70
     8
 71
     3
 72
   110
 73
   106
 74
     0
 42
0.00000001
 43
0.00000001
 40
0.0
 40
0.0
 40
0.0
 40
0.0
 40
0.015625
 40
0.015625
 40
0.03125
 40
0.03125
 40
0.0468749999999999
 40
0.0468749999999999
 40
0.0624999999999999
 40
0.0624999999999999
 40
0.0781249999999999
 40
0.0781249999999999
 40
0.0937499999999999
 40
0.0937499999999999
 40
0.1249999999999999
 40
0.1249999999999999
 40
0.1562499999999998
 40
0.1562499999999998
 40
0.1874999999999998
 40
0.1874999999999998
 40
0.2031249999999997
 40
0.2031249999999997
 40
0.2187499999999995
 40
0.2187499999999995
 40
0.2499999999999996
 40
0.2499999999999996
 40
0.2656249999999995
 40
0.2656249999999995
 40
0.2812499999999994
 40
0.2812499999999994
 40
0.2968749999999993
 40
0.2968749999999993
 40
0.3124999999999993
 40
0.3124999999999993
 40
0.3281249999999992
 40
0.3281249999999992
 40
0.3437499999999991
 40
0.3437499999999991
 40
0.3749999999999991
 40
0.3749999999999991
 40
0.4062499999999991
 40
0.4062499999999991
 40
0.437499999999999
 40
0.437499999999999
 40
0.4531249999999992
 40
0.4531249999999992
 40
0.4687499999999993
 40
0.4687499999999993
 40
0.4843749999999994
 40
0.4843749999999994
 40
0.4999999999999996
 40
0.4999999999999996
 40
0.5156249999999997
 40
0.5156249999999997
 40
0.5312499999999998
 40
0.5312499999999998
 40
0.5468749999999999
 40
0.5468749999999999
 40
0.5624999999999999
 40
0.5624999999999999
 40
0.5937499999999998
 40
0.5937499999999998
 40
0.6249999999999997
 40
0.6249999999999997
 40
0.6562499999999994
 40
0.6562499999999994
 40
0.6718749999999994
 40
0.6718749999999994
 40
0.6874999999999994
 40
0.6874999999999994
 40
0.7031249999999994
 40
0.7031249999999994
 40
0.7187499999999994
 40
0.7187499999999994
 40
0.7343749999999994
 40
0.7343749999999994
 40
0.7499999999999993
 40
0.7499999999999993
 40
0.7656249999999993
 40
0.7656249999999993
 40
0.7812499999999993
 40
0.7812499999999993
 40
0.7968749999999993
 40
0.7968749999999993
 40
0.8124999999999993
 40
0.8124999999999993
 40
0.8281249999999993
 40
0.8281249999999993
 40
0.8437499999999993
 40
0.8437499999999993
 40
0.874999999999999
 40
0.874999999999999
 40
0.9062499999999988
 40
0.9062499999999988
 40
0.921874999999999
 40
0.921874999999999
 40
0.9374999999999992
 40
0.9374999999999992
 40
0.9531249999999993
 40
0.9531249999999993
 40
0.9687499999999996
 40
0.9687499999999996
 40
0.9843749999999998
 40
0.9843749999999998
 40
1.0
 40
1.0
 40
1.0
 40
1.0
 10
215.1812295616483
 20
101.5442550517695
 30
0.0
 10
215.2331349743721
 20
101.6232273292625
 30
0.0
 10
215.2893357108976
 20
101.7015600913729
 30
0.0
 10
215.4149168259373
 20
101.8610506181823
 30
0.0
 10
215.4843964636629
 20
101.94249894658
 30
0.0
 10
215.6441523204707
 20
102.1102478623296
 30
0.0
 10
215.7361597228447
 20
102.1976993437273
 30
0.0
 10
215.9320114319099
 20
102.3558123225447
 30
0.0
 10
216.0333518575104
 20
102.4243465478382
 30
0.0
 10
216.2354498641791
 20
102.5359346589091
 30
0.0
 10
216.3379938059173
 20
102.5804789012153
 30
0.0
 10
216.5475186598936
 20
102.6494409991977
 30
0.0
 10
216.6531036902607
 20
102.6734719998851
 30
0.0
 10
216.9762585131497
 20
102.7169804675767
 30
0.0
 10
217.2034818841812
 20
102.7068960505288
 30
0.0
 10
217.6505206199941
 20
102.6068140363975
 30
0.0
 10
217.8779131251707
 20
102.514283578524
 30
0.0
 10
218.2936482025844
 20
102.2578773147342
 30
0.0
 10
218.4879771432172
 20
102.0901112344568
 30
0.0
 10
218.7290066624647
 20
101.8067076584931
 30
0.0
 10
218.8027060957367
 20
101.7051383970593
 30
0.0
 10
218.9306579715208
 20
101.4981477057878
 30
0.0
 10
218.9855512006976
 20
101.3922482504808
 30
0.0
 10
219.1250371805882
 20
101.0683989908843
 30
0.0
 10
219.1810876980963
 20
100.851128655599
 30
0.0
 10
219.2195632244687
 20
100.5400369891367
 30
0.0
 10
219.2245922267294
 20
100.4407326377317
 30
0.0
 10
219.2232824673678
 20
100.2530514676275
 30
0.0
 10
219.216698583343
 20
100.1641889222906
 30
0.0
 10
219.1995259880944
 20
100.0059284394947
 30
0.0
 10
219.1887795209686
 20
99.9372640034101
 30
0.0
 10
219.1849795787379
 20
99.84964976862653
 30
0.0
 10
219.1946074995983
 20
99.83445023660418
 30
0.0
 10
219.2394204925679
 20
99.85868255160258
 30
0.0
 10
219.2720859489482
 20
99.89397609192322
 30
0.0
 10
219.3411883618598
 20
99.98197818294796
 30
0.0
 10
219.3782379860628
 20
100.0357200054117
 30
0.0
 10
219.4858268621998
 20
100.2092599287792
 30
0.0
 10
219.5538184578195
 20
100.342449079957
 30
0.0
 10
219.6674848070512
 20
100.6301501046515
 30
0.0
 10
219.7139172828534
 20
100.7860007593544
 30
0.0
 10
219.771730532426
 20
101.1200776089222
 30
0.0
 10
219.7833948592855
 20
101.2963141047344
 30
0.0
 10
219.7572702792161
 20
101.5789876532852
 30
0.0
 10
219.7412646127805
 20
101.6747913283857
 30
0.0
 10
219.6899118740896
 20
101.8702926481409
 30
0.0
 10
219.6539966976357
 20
101.9713007579091
 30
0.0
 10
219.5572485622412
 20
102.1713257739303
 30
0.0
 10
219.495783671338
 20
102.2714140697482
 30
0.0
 10
219.3453415147607
 20
102.4608274431709
 30
0.0
 10
219.2581785296291
 20
102.5482244796101
 30
0.0
 10
219.0595370053165
 20
102.7052131271498
 30
0.0
 10
218.9534188451598
 20
102.770603420964
 30
0.0
 10
218.7323096761906
 20
102.8781794901526
 30
0.0
 10
218.621655187981
 20
102.9184749755051
 30
0.0
 10
218.4000691559037
 20
102.9796228891223
 30
0.0
 10
218.289511644825
 20
103.0000982073874
 30
0.0
 10
218.07570600867
 20
103.0249914159052
 30
0.0
 10
217.9712656783462
 20
103.0296944010188
 30
0.0
 10
217.6633849975886
 20
103.0256635466967
 30
0.0
 10
217.467232667056
 20
102.9988946761973
 30
0.0
 10
217.0957413475319
 20
102.9134010931888
 30
0.0
 10
216.9185968743575
 20
102.8544530044709
 30
0.0
 10
216.5736642613483
 20
102.7054863376733
 30
0.0
 10
216.4071390498193
 20
102.6167298632171
 30
0.0
 10
216.1575491679954
 20
102.4478059643594
 30
0.0
 10
216.074788548013
 20
102.3857926748741
 30
0.0
 10
215.9069221864684
 20
102.2394768429485
 30
0.0
 10
215.8211187251524
 20
102.1538737949429
 30
0.0
 10
215.6643286552421
 20
101.9582940202425
 30
0.0
 10
215.5971353292817
 20
101.8522484247785
 30
0.0
 10
215.4917531190928
 20
101.6390816358931
 30
0.0
 10
215.4518994409528
 20
101.5302454941974
 30
0.0
 10
215.3937229402349
 20
101.3104941936574
 30
0.0
 10
215.3754150253315
 20
101.2000998136994
 30
0.0
 10
215.3576202415392
 20
100.9755964180498
 30
0.0
 10
215.3583205968505
 20
100.8605429590531
 30
0.0
 10
215.3789119251537
 20
100.6303565620243
 30
0.0
 10
215.3985746278955
 20
100.5158837641916
 30
0.0
 10
215.4566709401018
 20
100.2875458884192
 30
0.0
 10
215.4955826192341
 20
100.172608680372
 30
0.0
 10
215.5920380297134
 20
99.94817703509287
 30
0.0
 10
215.6487836471412
 20
99.84006869641587
 30
0.0
 10
215.7792703493087
 20
99.63193377849743
 30
0.0
 10
215.8540069035671
 20
99.53080605302716
 30
0.0
 10
216.0170870924704
 20
99.34295558422336
 30
0.0
 10
216.1045228497621
 20
99.25688578029168
 30
0.0
 10
216.290653924693
 20
99.0999244984999
 30
0.0
 10
216.390244914731
 20
99.02870089442328
 30
0.0
 10
216.6927137425464
 20
98.84630014342174
 30
0.0
 10
216.9062448143422
 20
98.76215351934873
 30
0.0
 10
217.3169228262487
 20
98.66946850480628
 30
0.0
 10
217.5181373799807
 20
98.66010129934955
 30
0.0
 10
217.7850566225816
 20
98.68741319408194
 30
0.0
 10
217.8695621162654
 20
98.70344605297876
 30
0.0
 10
218.0202722197261
 20
98.74338003027431
 30
0.0
 10
218.0871081777534
 20
98.76769569734698
 30
0.0
 10
218.1828200424565
 20
98.80836178850716
 30
0.0
 10
218.2093278463769
 20
98.82318004373774
 30
0.0
 10
218.2010093376991
 20
98.82033907843712
 30
0.0
 10
218.168348302454
 20
98.8036190204806
 30
0.0
 10
218.0790527771368
 20
98.75829717773483
 30
0.0
 10
218.0220256486176
 20
98.7298696342623
 30
0.0
 10
217.898087128576
 20
98.67231251458414
 30
0.0
 10
217.8305208801748
 20
98.64280429863543
 30
0.0
 10
217.7591606363943
 20
98.61442271795904
 30
0.0
  0
LWPOLYLINE
  5
149
330
1F
100
AcDbEntity
  8
0
  6
HIDDEN
 62
     7
370
     0
100
AcDbPolyline
 90
       24
 70
   128
 43
0.0
 10
217.7591606364
 20
98.614422718
 10
217.745278124
 20
98.3849536422
 10
217.6180243758
 20
98.2589965165
 10
217.3867773244
 20
98.2458337192
 10
217.0685786626
 20
98.3464352794
 10
216.6868779599
 20
98.5533873906
 10
216.2698045528
 20
98.8514387695
 10
215.8480945601
 20
99.2186245954
 10
215.4528257927
 20
99.6278852021
 10
215.113127482
 20
100.0490602331
 10
214.8540336088
 20
100.4511113013
 10
214.6946380302
 20
100.8044093555
 10
214.6466873631
 20
101.0829181851
 10
214.7137153197
 20
101.2661131527
 10
214.8907822916
 20
101.3404937516
 10
215.1648393734
 20
101.3005785225
 10
215.515689998
 20
101.1493090081
 10
215.9174783176
 20
100.8978329769
 10
216.3405946442
 20
100.564682891
 10
216.7538575273
 20
100.1744101616
 10
217.1268116637
 20
99.7557758383
 10
217.4319722931
 20
99.3396310713
 10
217.6468506803
 20
98.9566435435
 10
217.7556114172
 20
98.6350374237
  0
SPLINE
  5
14A
330
1F
100
AcDbEntity
  8
0
  6
HIDDEN
 62
     7
370
     0
100
AcDbSpline
210
0.0
220
0.0
230
1.0
 70
     8
 71
     3
 72
    42
 73
    38
 74
     0
 42
0.00000001
 43
0.00000001
 40
0.0
 40
0.0
 40
0.0
 40
0.0
 40
0.124999999999999
 40
0.124999999999999
 40
0.1874999999999986
 40
0.1874999999999986
 40
0.2499999999999982
 40
0.2499999999999982
 40
0.3124999999999977
 40
0.3124999999999977
 40
0.3749999999999973
 40
0.3749999999999973
 40
0.4374999999999969
 40
0.4374999999999969
 40
0.4687499999999967
 40
0.4687499999999967
 40
0.4999999999999966
 40
0.4999999999999966
 40
0.5312499999999963
 40
0.5312499999999963
 40
0.5624999999999961
 40
0.5624999999999961
 40
0.6249999999999957
 40
0.6249999999999957
 40
0.6874999999999953
 40
0.6874999999999953
 40
0.7187499999999949
 40
0.7187499999999949
 40
0.7499999999999943
 40
0.7499999999999943
 40
0.8124999999999958
 40
0.8124999999999958
 40
0.8749999999999972
 40
0.8749999999999972
 40
0.9374999999999986
 40
0.9374999999999986
 40
1.0
 40
1.0
 40
1.0
 40
1.0
 10
217.7556114171722
 20
98.63503742368069
 30
0.0
 10
217.8298505652566
 20
98.82197606348313
 30
0.0
 10
217.8791426511036
 20
99.01782739118255
 30
0.0
 10
217.8936649632989
 20
99.32638857687546
 30
0.0
 10
217.8880530055241
 20
99.43048486753594
 30
0.0
 10
217.8471593458562
 20
99.63397220627165
 30
0.0
 10
217.811530595885
 20
99.73338265477943
 30
0.0
 10
217.7012262153484
 20
99.90933711386573
 30
0.0
 10
217.6239186722667
 20
99.98625962712221
 30
0.0
 10
217.4416998721232
 20
100.0976314088002
 30
0.0
 10
217.3359646975901
 20
100.1338652331093
 30
0.0
 10
217.1204900641817
 20
100.1899288998777
 30
0.0
 10
217.0076320235505
 20
100.2094351844818
 30
0.0
 10
216.8443430098943
 20
100.2696228575648
 30
0.0
 10
216.7904426057791
 20
100.2959551771162
 30
0.0
 10
216.6992569803371
 20
100.3723832154243
 30
0.0
 10
216.6643511996089
 20
100.4226590032738
 30
0.0
 10
216.6204371376244
 20
100.5300058730471
 30
0.0
 10
216.6095482441625
 20
100.5867083915903
 30
0.0
 10
216.5972606904068
 20
100.6980379449828
 30
0.0
 10
216.5958248944291
 20
100.7531506414461
 30
0.0
 10
216.5954788944412
 20
100.9173322620073
 30
0.0
 10
216.6008448346427
 20
101.025625720215
 30
0.0
 10
216.591786770864
 20
101.2367966665043
 30
0.0
 10
216.57712365569
 20
101.3419012858733
 30
0.0
 10
216.5150180427327
 20
101.4792358744948
 30
0.0
 10
216.4872533391293
 20
101.5218347835089
 30
0.0
 10
216.4197050922772
 20
101.5944784782989
 30
0.0
 10
216.3804312362776
 20
101.6245357649346
 30
0.0
 10
216.2493656250233
 20
101.6981569448378
 30
0.0
 10
216.151100769542
 20
101.7225590145405
 30
0.0
 10
215.950926295266
 20
101.7428606928444
 30
0.0
 10
215.8507122034148
 20
101.7384512782638
 30
0.0
 10
215.6519250864462
 20
101.7107401834692
 30
0.0
 10
215.5531550411422
 20
101.6869929805098
 30
0.0
 10
215.3629726103031
 20
101.6256690552942
 30
0.0
 10
215.2707625638417
 20
101.5879439250075
 30
0.0
 10
215.1812295616483
 20
101.5442550517696
 30
0.0
  0
SPLINE
  5
14B
330
1F
100
AcDbEntity
  8
0
  6
HIDDEN
 62
     7
370
     0
100
AcDbSpline
210
0.0
220
0.0
230
1.0
 70
     8
 71
     3
 72
    16
 73
    12
 74
     0
 42
0.00000001
 43
0.00000001
 40
0.0
 40
0.0
 40
0.0
 40
0.0
 40
0.2499999999999994
 40
0.2499999999999994
 40
0.4999999999999989
 40
0.4999999999999989
 40
0.624999999999999
 40
0.624999999999999
 40
0.7499999999999992
 40
0.7499999999999992
 40
1.0
 40
1.0
 40
1.0
 40
1.0
 10
217.7591606363943
 20
98.61442271795902
 30
0.0
 10
217.6340036156395
 20
98.57154059153926
 30
0.0
 10
217.4991202182233
 20
98.54262743784601
 30
0.0
 10
217.1965496266553
 20
98.51828706629472
 30
0.0
 10
217.0250529624132
 20
98.52412213763526
 30
0.0
 10
216.7535088518969
 20
98.56557763371084
 30
0.0
 10
216.662672000534
 20
98.5842470366395
 30
0.0
 10
216.4798308331389
 20
98.63027910902767
 30
0.0
 10
216.3931625354733
 20
98.65620304425228
 30
0.0
 10
216.1431506656867
 20
98.74089032790513
 30
0.0
 10
215.9975221275937
 20
98.80155327612047
 30
0.0
 10
215.852738975542
 20
98.88388672966057
 30
0.0
  0
SPLINE
  5
14C
330
1F
100
AcDbEntity
  8
0
  6
HIDDEN
 62
     7
370
     0
100
AcDbSpline
210
0.0
220
0.0
230
1.0
 70
     8
 71
     3
 72
    14
 73
    10
 74
     0
 42
0.00000001
 43
0.00000001
 40
0.0
 40
0.0
 40
0.0
 40
0.0
 40
0.25
 40
0.25
 40
0.5
 40
0.5
 40
0.75
 40
0.75
 40
1.0
 40
1.0
 40
1.0
 40
1.0
 10
215.2518886846696
 20
99.5475597490552
 30
0.0
 10
215.2049789645921
 20
99.64868034137794
 30
0.0
 10
215.1651923080469
 20
99.7536802352812
 30
0.0
 10
215.0932788752936
 20
99.97962373911797
 30
0.0
 10
215.0618586270189
 20
100.100206027006
 30
0.0
 10
215.013778603586
 20
100.3408218530177
 30
0.0
 10
214.9970375343969
 20
100.4616481399711
 30
0.0
 10
214.9796903612436
 20
100.6921246466124
 30
0.0
 10
214.9788691166637
 20
100.8027305514555
 30
0.0
 10
214.9848329828306
 20
100.9067822325056
 30
0.0
  0
SPLINE
  5
14D
330
1F
100
AcDbEntity
  8
0
  6
HIDDEN
 62
     7
370
     0
100
AcDbSpline
210
0.0
220
0.0
230
1.0
 70
     8
 71
     3
 72
    14
 73
    10
 74
     0
 42
0.00000001
 43
0.00000001
 40
0.0
 40
0.0
 40
0.0
 40
0.0
 40
0.2500000000000003
 40
0.2500000000000003
 40
0.5000000000000002
 40
0.5000000000000002
 40
0.7500000000000001
 40
0.7500000000000001
 40
1.0
 40
1.0
 40
1.0
 40
1.0
 10
214.9848329828306
 20
100.9067822325056
 30
0.0
 10
215.0240361479718
 20
100.7992657877201
 30
0.0
 10
215.062267024687
 20
100.6903108779971
 30
0.0
 10
215.132606555648
 20
100.4664440402171
 30
0.0
 10
215.1649697838037
 20
100.3496484354206
 30
0.0
 10
215.2135848355481
 20
100.1171307640343
 30
0.0
 10
215.2296533279073
 20
100.0011288865186
 30
0.0
 10
215.2475264751155
 20
99.76998459368016
 30
0.0
 10
215.2493615322136
 20
99.65815812885508
 30
0.0
 10
215.2518886846702
 20
99.5475597490552
 30
0.0
  0
SPLINE
  5
14E
330
1F
100
AcDbEntity
  8
0
  6
HIDDEN
 62
     7
370
     0
100
AcDbSpline
210
0.0
220
0.0
230
1.0
 70
     8
 71
     3
 72
    16
 73
    12
 74
     0
 42
0.00000001
 43
0.00000001
 40
0.0
 40
0.0
 40
0.0
 40
0.0
 40
0.2500000000000001
 40
0.2500000000000001
 40
0.3750000000000001
 40
0.3750000000000001
 40
0.5000000000000001
 40
0.5000000000000001
 40
0.7500000000000001
 40
0.7500000000000001
 40
1.0
 40
1.0
 40
1.0
 40
1.0
 10
215.8527389755419
 20
98.88388672965796
 30
0.0
 10
215.9961827290972
 20
98.90709696812833
 30
0.0
 10
216.1362867220284
 20
98.94418081287493
 30
0.0
 10
216.3621496053639
 20
98.97800521392293
 30
0.0
 10
216.4409031502503
 20
98.98564820471528
 30
0.0
 10
216.6052792019025
 20
98.98557340859688
 30
0.0
 10
216.6891807695148
 20
98.97768522125169
 30
0.0
 10
216.9466186241818
 20
98.93132198804851
 30
0.0
 10
217.1135564342341
 20
98.87512520001484
 30
0.0
 10
217.4394911541605
 20
98.75794281466865
 30
0.0
 10
217.5980111246986
 20
98.69612236000536
 30
0.0
 10
217.7556114171722
 20
98.63503742368069
 30
0.0
  0
SPLINE
  5
14F
330
1F
100
AcDbEntity
  8
0
  6
HIDDEN
 62
     7
370
     0
100
AcDbSpline
210
0.0
220
0.0
230
1.0
 70
     8
 71
     3
 72
    14
 73
    10
 74
     0
 42
0.00000001
 43
0.00000001
 40
0.0
 40
0.0
 40
0.0
 40
0.0
 40
0.5000000000000012
 40
0.5000000000000012
 40
0.7500000000000018
 40
0.7500000000000018
 40
0.8750000000000009
 40
0.8750000000000009
 40
1.0
 40
1.0
 40
1.0
 40
1.0
 10
162.9651615100362
 20
81.802700183157
 30
0.0
 10
163.5812384137915
 20
81.80842630338614
 30
0.0
 10
164.1953704099074
 20
81.81831666878817
 30
0.0
 10
165.1092670404209
 20
81.84895163645794
 30
0.0
 10
165.4127059679685
 20
81.86174509409592
 30
0.0
 10
165.863842583606
 20
81.88967092205532
 30
0.0
 10
166.0135488331485
 20
81.90044054221507
 30
0.0
 10
166.3103899693966
 20
81.92757325781461
 30
0.0
 10
166.4577755218999
 20
81.94339023064184
 30
0.0
 10
166.6015596489142
 20
81.96704931951632
 30
0.0
  0
SPLINE
  5
150
330
1F
100
AcDbEntity
  8
0
  6
HIDDEN
 62
     7
370
     0
100
AcDbSpline
210
0.0
220
0.0
230
1.0
 70
     8
 71
     3
 72
    10
 73
     6
 74
     0
 42
0.00000001
 43
0.00000001
 40
0.0
 40
0.0
 40
0.0
 40
0.0
 40
0.5
 40
0.5
 40
1.0
 40
1.0
 40
1.0
 40
1.0
 10
166.6015596489142
 20
81.96704931951632
 30
0.0
 10
167.2291873046215
 20
82.07032287825191
 30
0.0
 10
167.8803880496529
 20
82.15914799000346
 30
0.0
 10
169.1890927536651
 20
82.32125569687379
 30
0.0
 10
169.8501371909563
 20
82.39455516116037
 30
0.0
 10
170.5151615100359
 20
82.46324297588805
 30
0.0
  0
SPLINE
  5
151
330
1F
100
AcDbEntity
  8
0
  6
HIDDEN
 62
     7
370
     0
100
AcDbSpline
210
0.0
220
0.0
230
1.0
 70
     8
 71
     3
 72
    18
 73
    14
 74
     0
 42
0.00000001
 43
0.00000001
 40
0.0
 40
0.0
 40
0.0
 40
0.0
 40
0.0624999999999991
 40
0.0624999999999991
 40
0.1249999999999982
 40
0.1249999999999982
 40
0.2499999999999995
 40
0.2499999999999995
 40
0.4999999999999997
 40
0.4999999999999997
 40
0.7499999999999998
 40
0.7499999999999998
 40
1.0
 40
1.0
 40
1.0
 40
1.0
 10
170.5151615100361
 20
82.46324297588794
 30
0.0
 10
170.5517337203865
 20
82.46702037941539
 30
0.0
 10
170.5903841938219
 20
82.46646335153227
 30
0.0
 10
170.6644756875358
 20
82.4564041463704
 30
0.0
 10
170.6998259812899
 20
82.44705026494584
 30
0.0
 10
170.7944202786794
 20
82.41266583851203
 30
0.0
 10
170.8445584518183
 20
82.3819541038492
 30
0.0
 10
170.9737517233995
 20
82.28602479381117
 30
0.0
 10
171.0320318681406
 20
82.2175092996939
 30
0.0
 10
171.1322269645642
 20
82.08093734976129
 30
0.0
 10
171.1722422160108
 20
82.01217244725838
 30
0.0
 10
171.2406416368286
 20
81.8771370181507
 30
0.0
 10
171.2690033606905
 20
81.81051899209754
 30
0.0
 10
171.2935572732964
 20
81.74496052440134
 30
0.0
  0
SPLINE
  5
152
330
1F
100
AcDbEntity
  8
0
  6
HIDDEN
 62
     7
370
     0
100
AcDbSpline
210
0.0
220
0.0
230
1.0
 70
     8
 71
     3
 72
    14
 73
    10
 74
     0
 42
0.00000001
 43
0.00000001
 40
0.0
 40
0.0
 40
0.0
 40
0.0
 40
0.25
 40
0.25
 40
0.5
 40
0.5
 40
0.75
 40
0.75
 40
1.0
 40
1.0
 40
1.0
 40
1.0
 10
171.2935572732964
 20
81.74496052440134
 30
0.0
 10
171.3319936581174
 20
81.64233612668981
 30
0.0
 10
171.4007950515092
 20
81.54313970325023
 30
0.0
 10
171.5440810636682
 20
81.35224767392371
 30
0.0
 10
171.6192631187751
 20
81.25999040789081
 30
0.0
 10
171.7514504074253
 20
81.0803830860758
 30
0.0
 10
171.8089676028951
 20
80.99307353163147
 30
0.0
 10
171.8910124011874
 20
80.82313969811572
 30
0.0
 10
171.9151615100362
 20
80.74123735624455
 30
0.0
 10
171.9151615100362
 20
80.66418348240865
 30
0.0
  0
LINE
  5
153
330
1F
100
AcDbEntity
  8
0
  6
HIDDEN
 62
     7
370
     0
100
AcDbLine
 10
171.91516151
 20
80.6641834824
 30
0.0
 11
171.91516151
 21
79.3808848479
 31
0.0
  0
LINE
  5
154
330
1F
100
AcDbEntity
  8
0
  6
HIDDEN
 62
     7
370
     0
100
AcDbLine
 10
167.91516151
 20
125.6373778339
 30
0.0
 11
167.91516151
 21
124.453439414
 31
0.0
  0
SPLINE
  5
155
330
1F
100
AcDbEntity
  8
0
  6
HIDDEN
 62
     7
370
     0
100
AcDbSpline
210
0.0
220
0.0
230
1.0
 70
     8
 71
     3
 72
    18
 73
    14
 74
     0
 42
0.00000001
 43
0.00000001
 40
0.0
 40
0.0
 40
0.0
 40
0.0
 40
0.2499999999999996
 40
0.2499999999999996
 40
0.5
 40
0.5
 40
0.7500000000000003
 40
0.7500000000000003
 40
0.8750000000000007
 40
0.8750000000000007
 40
0.9375000000000003
 40
0.9375000000000003
 40
1.0
 40
1.0
 40
1.0
 40
1.0
 10
167.9151615100362
 20
124.4534394140476
 30
0.0
 10
167.9151615100362
 20
124.3702325051903
 30
0.0
 10
167.8793124100979
 20
124.2814958498768
 30
0.0
 10
167.754440674064
 20
124.0993706593165
 30
0.0
 10
167.6640402564161
 20
124.0042406106899
 30
0.0
 10
167.441797601674
 20
123.8150591015656
 30
0.0
 10
167.3120328152282
 20
123.7201139334709
 30
0.0
 10
167.0713953579167
 20
123.5818352258909
 30
0.0
 10
166.9836280597792
 20
123.5361247925886
 30
0.0
 10
166.8291039725724
 20
123.4783014873671
 30
0.0
 10
166.7724930865177
 20
123.4605867233292
 30
0.0
 10
166.6484490556111
 20
123.4360474200963
 30
0.0
 10
166.5807343805928
 20
123.430068281558
 30
0.0
 10
166.5151615100362
 20
123.4324191335123
 30
0.0
  0
SPLINE
  5
156
330
1F
100
AcDbEntity
  8
0
  6
HIDDEN
 62
     7
370
     0
100
AcDbSpline
210
0.0
220
0.0
230
1.0
 70
     8
 71
     3
 72
    10
 73
     6
 74
     0
 42
0.00000001
 43
0.00000001
 40
0.0
 40
0.0
 40
0.0
 40
0.0
 40
0.5
 40
0.5
 40
1.0
 40
1.0
 40
1.0
 40
1.0
 10
166.5151615100362
 20
123.4324191335123
 30
0.0
 10
165.9275759629456
 20
123.4534846537487
 30
0.0
 10
165.3368295694852
 20
123.4642431396209
 30
0.0
 10
164.1528104041863
 20
123.4776079201566
 30
0.0
 10
163.5593964159809
 20
123.4797505628212
 30
0.0
 10
162.9651615100362
 20
123.4792695070796
 30
0.0
  0
SPLINE
  5
157
330
1F
100
AcDbEntity
  8
0
  6
HIDDEN
 62
     7
370
     0
100
AcDbSpline
210
0.0
220
0.0
230
1.0
 70
     8
 71
     3
 72
     8
 73
     4
 74
     0
 42
0.00000001
 43
0.00000001
 40
0.0000005099763571
 40
0.0000005099763571
 40
0.0000005099763571
 40
0.0000005099763571
 40
0.0000262827998697
 40
0.0000262827998697
 40
0.0000262827998697
 40
0.0000262827998697
 10
162.9651615100362
 20
123.4792695070796
 30
0.0
 10
162.9617927708084
 20
123.4759478381237
 30
0.0
 10
162.9584443178293
 20
123.4726198808449
 30
0.0
 10
162.9551165796179
 20
123.4692856339722
 30
0.0
  0
SPLINE
  5
158
330
1F
100
AcDbEntity
  8
0
  6
HIDDEN
 62
     7
370
     0
100
AcDbSpline
210
0.0
220
0.0
230
1.0
 70
     8
 71
     3
 72
     8
 73
     4
 74
     0
 42
0.00000001
 43
0.00000001
 40
0.0000005954826279
 40
0.0000005954826279
 40
0.0000005954826279
 40
0.0000005954826279
 40
0.0000302093805348
 40
0.0000302093805348
 40
0.0000302093805348
 40
0.0000302093805348
 10
162.9551165796266
 20
81.81451531280888
 30
0.0
 10
162.9584326069468
 20
81.81056853321309
 30
0.0
 10
162.9617811583391
 20
81.80663014208314
 30
0.0
 10
162.9651615100362
 20
81.80270018315697
 30
0.0
  0
LINE
  5
159
330
1F
100
AcDbEntity
  8
0
  6
HIDDEN
 62
     7
370
     0
100
AcDbLine
 10
191.71516151
 20
126.8297626034
 30
0.0
 11
191.71516151
 21
78.38890088
 31
0.0
  0
SPLINE
  5
15A
330
1F
100
AcDbEntity
  8
0
  6
HIDDEN
 62
     7
370
     0
100
AcDbSpline
210
0.0
220
0.0
230
1.0
 70
     8
 71
     3
 72
    12
 73
     8
 74
     0
 42
0.00000001
 43
0.00000001
 40
0.0
 40
0.0
 40
0.0
 40
0.0
 40
0.1205464713236028
 40
0.2485930839663096
 40
0.5007193850167737
 40
0.7537057457121326
 40
1.0
 40
1.0
 40
1.0
 40
1.0
 10
181.7103117146078
 20
79.08473211886277
 30
0.0
 10
181.6272504301451
 20
79.076910175605
 30
0.0
 10
181.4559599673381
 20
79.06077962465886
 30
0.0
 10
181.0897546284087
 20
79.02781135398057
 30
0.0
 10
180.7857956257289
 20
78.98971144054416
 30
0.0
 10
180.527350537901
 20
78.95783441533995
 30
0.0
 10
180.4983655740126
 20
78.9538090290983
 30
0.0
 10
180.4840673420119
 20
78.95182331310441
 30
0.0
  0
SPLINE
  5
15B
330
1F
100
AcDbEntity
  8
0
  6
HIDDEN
 62
     7
370
     0
100
AcDbSpline
210
0.0
220
0.0
230
1.0
 70
     8
 71
     3
 72
    20
 73
    16
 74
     0
 42
0.00000001
 43
0.00000001
 40
0.0
 40
0.0
 40
0.0
 40
0.0
 40
0.0014371424778236
 40
0.0850459318463898
 40
0.1697600561423239
 40
0.2540984869915266
 40
0.3373296983306948
 40
0.4202348334910951
 40
0.50356040680426
 40
0.5868467937449193
 40
0.6687603287984166
 40
0.7507349414639855
 40
0.8338929048078365
 40
0.9172507849620606
 40
1.0
 40
1.0
 40
1.0
 40
1.0
 10
188.8982281274869
 20
78.53027362476092
 30
0.0
 10
188.8986810972643
 20
78.53016979893223
 30
0.0
 10
188.9254865375138
 20
78.52402568692752
 30
0.0
 10
188.8294580261006
 20
78.54612250902035
 30
0.0
 10
188.5964124887523
 20
78.59800213899524
 30
0.0
 10
188.2026274235783
 20
78.68305927687439
 30
0.0
 10
187.6781690427464
 20
78.78481452680722
 30
0.0
 10
187.0392057416373
 20
78.892710728333
 30
0.0
 10
186.306040454079
 20
78.99375665399818
 30
0.0
 10
185.5134773680591
 20
79.0781657714995
 30
0.0
 10
184.6887281081874
 20
79.13556953214638
 30
0.0
 10
183.8620125931889
 20
79.16232708335107
 30
0.0
 10
183.0677370584168
 20
79.15789401088033
 30
0.0
 10
182.3243299242404
 20
79.1305728437572
 30
0.0
 10
181.9144838524134
 20
79.09997498732079
 30
0.0
 10
181.7103117146078
 20
79.08473211886277
 30
0.0
  0
SPLINE
  5
15C
330
1F
100
AcDbEntity
  8
0
  6
HIDDEN
 62
     7
370
     0
100
AcDbSpline
210
0.0
220
0.0
230
1.0
 70
     8
 71
     3
 72
    20
 73
    16
 74
     0
 42
0.00000001
 43
0.00000001
 40
0.0
 40
0.0
 40
0.0
 40
0.0
 40
0.0828065917079229
 40
0.166194087582821
 40
0.2493856421482905
 40
0.3315158327405055
 40
0.4133810396657588
 40
0.4968358491751835
 40
0.5800415793685884
 40
0.6629791768815302
 40
0.7460494348820437
 40
0.8302848770890748
 40
0.9148462360056123
 40
0.9984038495213694
 40
1.0
 40
1.0
 40
1.0
 40
1.0
 10
181.7102189943259
 20
126.1339147716663
 30
0.0
 10
181.9148327775871
 20
126.1187248845111
 30
0.0
 10
182.3254957491523
 20
126.0882385502209
 30
0.0
 10
183.0692432644794
 20
126.0609337510188
 30
0.0
 10
183.8642347108114
 20
126.056518686185
 30
0.0
 10
184.6913650909036
 20
126.0831875001665
 30
0.0
 10
185.5171063613215
 20
126.1406513631244
 30
0.0
 10
186.3093834849966
 20
126.2252389271084
 30
0.0
 10
187.0422069088058
 20
126.3264125139977
 30
0.0
 10
187.6801164099619
 20
126.4341980772337
 30
0.0
 10
188.2039713694726
 20
126.5358054486756
 30
0.0
 10
188.5971158553771
 20
126.6206954782488
 30
0.0
 10
188.8297784453469
 20
126.672530739433
 30
0.0
 10
188.9258486862142
 20
126.6946330563297
 30
0.0
 10
188.8986825674508
 20
126.6884761237346
 30
0.0
 10
188.8981733566839
 20
126.6883607161419
 30
0.0
  0
SPLINE
  5
15D
330
1F
100
AcDbEntity
  8
0
  6
HIDDEN
 62
     7
370
     0
100
AcDbSpline
210
0.0
220
0.0
230
1.0
 70
     8
 71
     3
 72
    12
 73
     8
 74
     0
 42
0.00000001
 43
0.00000001
 40
0.0
 40
0.0
 40
0.0
 40
0.0
 40
0.246841615383369
 40
0.4995714204662966
 40
0.7516343865010906
 40
0.8210595748183471
 40
1.0
 40
1.0
 40
1.0
 40
1.0
 10
180.4836622521051
 20
126.2668713254846
 30
0.0
 10
180.4977877653484
 20
126.2648527105409
 30
0.0
 10
180.5263757435337
 20
126.2607673283687
 30
0.0
 10
180.7869687949484
 20
126.2287728870016
 30
0.0
 10
181.0559596832792
 20
126.1942983963721
 30
0.0
 10
181.4150742797143
 20
126.1615946584241
 30
0.0
 10
181.5866229859807
 20
126.1455061143038
 30
0.0
 10
181.7102189943259
 20
126.1339147716663
 30
0.0
  0
SPLINE
  5
15E
330
1F
100
AcDbEntity
  8
0
  6
HIDDEN
 62
     7
370
     0
100
AcDbSpline
210
0.0
220
0.0
230
1.0
 70
     8
 71
     3
 72
    62
 73
    58
 74
     0
 42
0.00000001
 43
0.00000001
 40
-0.03125
 40
-0.03125
 40
0.0
 40
0.0
 40
0.0312500000000002
 40
0.0312500000000002
 40
0.0625000000000004
 40
0.0625000000000004
 40
0.1250000000000004
 40
0.1250000000000004
 40
0.1562500000000004
 40
0.1562500000000004
 40
0.1875000000000004
 40
0.1875000000000004
 40
0.2187500000000004
 40
0.2187500000000004
 40
0.2500000000000004
 40
0.2500000000000004
 40
0.2812500000000003
 40
0.2812500000000003
 40
0.3125000000000003
 40
0.3125000000000003
 40
0.3750000000000003
 40
0.3750000000000003
 40
0.4062500000000005
 40
0.4062500000000005
 40
0.4375000000000007
 40
0.4375000000000007
 40
0.468750000000001
 40
0.468750000000001
 40
0.5000000000000012
 40
0.5000000000000012
 40
0.5312500000000014
 40
0.5312500000000014
 40
0.5625000000000016
 40
0.5625000000000016
 40
0.5937500000000018
 40
0.5937500000000018
 40
0.6250000000000019
 40
0.6250000000000019
 40
0.6875000000000019
 40
0.6875000000000019
 40
0.7187500000000014
 40
0.7187500000000014
 40
0.7500000000000011
 40
0.7500000000000011
 40
0.8125000000000002
 40
0.8125000000000002
 40
0.8437500000000002
 40
0.8437500000000002
 40
0.8750000000000001
 40
0.8750000000000001
 40
0.9062500000000001
 40
0.9062500000000001
 40
0.9375000000000001
 40
0.9375000000000001
 40
0.96875
 40
0.96875
 40
1.0
 40
1.0
 40
1.03125
 40
1.03125
 10
218.2603452671908
 20
102.069769792261
 30
0.0
 10
218.2555711519221
 20
102.353249272623
 30
0.0
 10
218.2690535759798
 20
102.4928113011443
 30
0.0
 10
218.3256619016297
 20
102.767857129363
 30
0.0
 10
218.3695702682334
 20
102.9043745749705
 30
0.0
 10
218.5380362116155
 20
103.2891993221265
 30
0.0
 10
218.7019705649071
 20
103.5214610022014
 30
0.0
 10
218.9969304894208
 20
103.8127997352597
 30
0.0
 10
219.1050267446293
 20
103.9019412443848
 30
0.0
 10
219.3325525660255
 20
104.0582212240197
 30
0.0
 10
219.4523980709637
 20
104.1260314469165
 30
0.0
 10
219.705181666745
 20
104.2406743420973
 30
0.0
 10
219.8389105268819
 20
104.2874455813096
 30
0.0
 10
220.1100021625032
 20
104.3543797190245
 30
0.0
 10
220.2485488853607
 20
104.375242750403
 30
0.0
 10
220.5325188149841
 20
104.3887184992557
 30
0.0
 10
220.6728968733868
 20
104.3809908780318
 30
0.0
 10
220.9486175750064
 20
104.3366795239315
 30
0.0
 10
221.0859831365699
 20
104.2993004012548
 30
0.0
 10
221.4750370476235
 20
104.1465099877722
 30
0.0
 10
221.7090562564458
 20
103.9888459008569
 30
0.0
 10
221.9980809483684
 20
103.6942767240476
 30
0.0
 10
222.0857216205842
 20
103.5848226397772
 30
0.0
 10
222.2373229357054
 20
103.3521903837099
 30
0.0
 10
222.301555514345
 20
103.2292740405879
 30
0.0
 10
222.4074298248485
 20
102.9700261214313
 30
0.0
 10
222.4487903366828
 20
102.8332278089093
 30
0.0
 10
222.5047323643811
 20
102.5585556572619
 30
0.0
 10
222.5200597282901
 20
102.4191595746968
 30
0.0
 10
222.5243810497883
 20
102.1360779062211
 30
0.0
 10
222.5132068259821
 20
101.9965263380706
 30
0.0
 10
222.465427465476
 20
101.7244331625211
 30
0.0
 10
222.4281733200099
 20
101.5898968351346
 30
0.0
 10
222.3298904536027
 20
101.3355906067689
 30
0.0
 10
222.2692310974376
 20
101.2156301753186
 30
0.0
 10
222.124388839587
 20
100.9893838782162
 30
0.0
 10
222.0402397988403
 20
100.8837878640419
 30
0.0
 10
221.7611946130761
 20
100.5998623229904
 30
0.0
 10
221.5322118029596
 20
100.4478417078821
 30
0.0
 10
221.1519908852133
 20
100.29726985429
 30
0.0
 10
221.0161800823495
 20
100.2588388157112
 30
0.0
 10
220.7407885027515
 20
100.2098041157539
 30
0.0
 10
220.6012597667228
 20
100.1986887960189
 30
0.0
 10
220.1772624539488
 20
100.2041192867165
 30
0.0
 10
219.8967327956207
 20
100.2602799224432
 30
0.0
 10
219.5109408446789
 20
100.4080955661958
 30
0.0
 10
219.3886877524663
 20
100.4674773230278
 30
0.0
 10
219.15589260891
 20
100.6066196349783
 30
0.0
 10
219.0456497774877
 20
100.6865233479035
 30
0.0
 10
218.8443744001116
 20
100.8624361551753
 30
0.0
 10
218.7522475971921
 20
100.9590182702183
 30
0.0
 10
218.5860640168973
 20
101.1719136052493
 30
0.0
 10
218.5130589729744
 20
101.2873644426836
 30
0.0
 10
218.3930368520583
 20
101.5307236479296
 30
0.0
 10
218.3448722968772
 20
101.6611274688851
 30
0.0
 10
218.2785523059103
 20
101.9312311988104
 30
0.0
 10
218.2603452671908
 20
102.069769792261
 30
0.0
 10
218.2555711519221
 20
102.353249272623
 30
0.0
  0
ARC
  5
15F
330
1F
100
AcDbEntity
  8
0
  6
HIDDEN
 62
     7
370
     0
100
AcDbCircle
 10
217.0395797167
 20
100.5983925534
 30
0.0
 40
2.085214896523534
100
AcDbArc
 50
235.3076665461
 51
153.0248299707
  0
ARC
  5
160
330
1F
100
AcDbEntity
  8
0
  6
HIDDEN
 62
     7
370
     0
100
AcDbCircle
 10
217.0945448622
 20
100.6154453308
 30
0.0
 40
2.12973270721042
100
AcDbArc
 50
172.1375679747
 51
210.093835764
  0
LINE
  5
161
330
1F
100
AcDbEntity
  8
0
  6
HIDDEN
 62
     7
370
     0
100
AcDbLine
 10
161.81516151
 20
82.9561712167
 30
0.0
 11
161.821681308
 21
82.9585132991
 31
0.0
  0
SPLINE
  5
162
330
1F
100
AcDbEntity
  8
0
  6
HIDDEN
 62
     7
370
     0
100
AcDbSpline
210
0.0
220
0.0
230
1.0
 70
    11
 71
     3
 72
    56
 73
    52
 74
     0
 42
0.00000001
 43
0.00000001
 40
0.0
 40
0.0
 40
0.0
 40
0.0
 40
0.0625000000000001
 40
0.0625000000000001
 40
0.0937500000000002
 40
0.0937500000000002
 40
0.1250000000000004
 40
0.1250000000000004
 40
0.1562500000000005
 40
0.1562500000000005
 40
0.1875000000000006
 40
0.1875000000000006
 40
0.2187500000000007
 40
0.2187500000000007
 40
0.2500000000000008
 40
0.2500000000000008
 40
0.3125000000000008
 40
0.3125000000000008
 40
0.3437500000000007
 40
0.3437500000000007
 40
0.3750000000000007
 40
0.3750000000000007
 40
0.4062500000000006
 40
0.4062500000000006
 40
0.4375000000000006
 40
0.4375000000000006
 40
0.4687500000000006
 40
0.4687500000000006
 40
0.5000000000000004
 40
0.5000000000000004
 40
0.5625000000000003
 40
0.5625000000000003
 40
0.6250000000000002
 40
0.6250000000000002
 40
0.6875000000000002
 40
0.6875000000000002
 40
0.7187500000000002
 40
0.7187500000000002
 40
0.7500000000000003
 40
0.7500000000000003
 40
0.7812500000000004
 40
0.7812500000000004
 40
0.8125000000000004
 40
0.8125000000000004
 40
0.8750000000000003
 40
0.8750000000000003
 40
0.9375000000000003
 40
0.9375000000000003
 40
0.9687500000000001
 40
0.9687500000000001
 40
1.0
 40
1.0
 40
1.0
 40
1.0
 10
187.4701635116378
 20
82.77180326586809
 30
0.0
 10
187.2143762010901
 20
82.80732656976163
 30
0.0
 10
186.9241863941467
 20
82.84287043872988
 30
0.0
 10
186.437533295856
 20
82.88934213863875
 30
0.0
 10
186.2671874536948
 20
82.90358805187026
 30
0.0
 10
185.9202140436037
 20
82.92787596606865
 30
0.0
 10
185.742276146369
 20
82.93805231239071
 30
0.0
 10
185.3773568688092
 20
82.9537276399946
 30
0.0
 10
185.1890222767139
 20
82.95921460120748
 30
0.0
 10
184.8151354242584
 20
82.9646745954832
 30
0.0
 10
184.6284452100885
 20
82.96473281874236
 30
0.0
 10
184.2555667191692
 20
82.95954867676556
 30
0.0
 10
184.0678624762469
 20
82.95423319829413
 30
0.0
 10
183.7009435766994
 20
82.93873081727085
 30
0.0
 10
183.5224938346348
 20
82.92863140951015
 30
0.0
 10
183.0017049312741
 20
82.89249956785625
 30
0.0
 10
182.6708212116032
 20
82.86007034683817
 30
0.0
 10
182.2343196532716
 20
82.80854385547107
 30
0.0
 10
182.097534114219
 20
82.7908192444271
 30
0.0
 10
181.8418095047652
 20
82.7554249179178
 30
0.0
 10
181.7241857766596
 20
82.73792839653721
 30
0.0
 10
181.514116323471
 20
82.70522600054869
 30
0.0
 10
181.4207814847859
 20
82.68989419160263
 30
0.0
 10
181.2578357741068
 20
82.66229803225383
 30
0.0
 10
181.188132811257
 20
82.65001134914021
 30
0.0
 10
181.0775097449248
 20
82.63016635735376
 30
0.0
 10
181.0358280733144
 20
82.62248024482707
 30
0.0
 10
180.9796529329392
 20
82.61206286444983
 30
0.0
 10
180.9652146571786
 20
82.60934170677336
 30
0.0
 10
180.965055662076
 20
82.60931189519277
 30
0.0
 10
181.0207149998128
 20
82.61997402534074
 30
0.0
 10
181.2435397603472
 20
82.65995469707573
 30
0.0
 10
181.4054520459408
 20
82.68829094870804
 30
0.0
 10
181.8292436046766
 20
82.75430185766808
 30
0.0
 10
182.0840900272239
 20
82.79076173045931
 30
0.0
 10
182.5227336873376
 20
82.84261325344566
 30
0.0
 10
182.6794312236171
 20
82.85950088750565
 30
0.0
 10
183.0026311733957
 20
82.89019430812658
 30
0.0
 10
183.170304654816
 20
82.90415411507043
 30
0.0
 10
183.5178895210046
 20
82.92835354422161
 30
0.0
 10
183.6994530018236
 20
82.9386504930524
 30
0.0
 10
184.0656392766325
 20
82.95415643991433
 30
0.0
 10
184.2502966924748
 20
82.95942242181131
 30
0.0
 10
184.8088930990332
 20
82.96734524506681
 30
0.0
 10
185.1912274405037
 20
82.96163112169319
 30
0.0
 10
185.9185245848721
 20
82.93057203553091
 30
0.0
 10
186.2742186589722
 20
82.90488339948097
 30
0.0
 10
186.7575309359231
 20
82.85881138927287
 30
0.0
 10
186.9112285431396
 20
82.84220923085658
 30
0.0
 10
187.2036507679827
 20
82.80758937564225
 30
0.0
 10
187.3422659911879
 20
82.78956545460389
 30
0.0
 10
187.4701635116378
 20
82.7718032658681
 30
0.0
  0
SPLINE
  5
163
330
1F
100
AcDbEntity
  8
0
  6
HIDDEN
 62
     7
370
     0
100
AcDbSpline
210
0.0
220
0.0
230
1.0
 70
    11
 71
     3
 72
    56
 73
    52
 74
     0
 42
0.00000001
 43
0.00000001
 40
0.0
 40
0.0
 40
0.0
 40
0.0
 40
0.0625000000000001
 40
0.0625000000000001
 40
0.0937500000000002
 40
0.0937500000000002
 40
0.1250000000000004
 40
0.1250000000000004
 40
0.1562500000000005
 40
0.1562500000000005
 40
0.1875000000000006
 40
0.1875000000000006
 40
0.2187500000000007
 40
0.2187500000000007
 40
0.2500000000000008
 40
0.2500000000000008
 40
0.3125000000000008
 40
0.3125000000000008
 40
0.3437500000000007
 40
0.3437500000000007
 40
0.3750000000000007
 40
0.3750000000000007
 40
0.4062500000000006
 40
0.4062500000000006
 40
0.4375000000000006
 40
0.4375000000000006
 40
0.4687500000000006
 40
0.4687500000000006
 40
0.5000000000000004
 40
0.5000000000000004
 40
0.5625000000000003
 40
0.5625000000000003
 40
0.6250000000000002
 40
0.6250000000000002
 40
0.6875000000000002
 40
0.6875000000000002
 40
0.7187500000000002
 40
0.7187500000000002
 40
0.7500000000000003
 40
0.7500000000000003
 40
0.7812500000000004
 40
0.7812500000000004
 40
0.8125000000000004
 40
0.8125000000000004
 40
0.8750000000000003
 40
0.8750000000000003
 40
0.9375000000000003
 40
0.9375000000000003
 40
0.9687500000000001
 40
0.9687500000000001
 40
1.0
 40
1.0
 40
1.0
 40
1.0
 10
187.4701635116378
 20
122.446860217501
 30
0.0
 10
187.2143762010901
 20
122.4113369136075
 30
0.0
 10
186.9241863941467
 20
122.3757930446392
 30
0.0
 10
186.437533295856
 20
122.3293213447303
 30
0.0
 10
186.2671874536948
 20
122.3150754314988
 30
0.0
 10
185.9202140436037
 20
122.2907875173004
 30
0.0
 10
185.742276146369
 20
122.2806111709784
 30
0.0
 10
185.3773568688092
 20
122.2649358433745
 30
0.0
 10
185.1890222767139
 20
122.2594488821616
 30
0.0
 10
184.8151354242584
 20
122.2539888878859
 30
0.0
 10
184.6284452100885
 20
122.2539306646267
 30
0.0
 10
184.2555667191692
 20
122.2591148066035
 30
0.0
 10
184.0678624762469
 20
122.264430285075
 30
0.0
 10
183.7009435766994
 20
122.2799326660982
 30
0.0
 10
183.5224938346348
 20
122.2900320738589
 30
0.0
 10
183.0017049312741
 20
122.3261639155129
 30
0.0
 10
182.6708212116032
 20
122.3585931365309
 30
0.0
 10
182.2343196532716
 20
122.410119627898
 30
0.0
 10
182.097534114219
 20
122.427844238942
 30
0.0
 10
181.8418095047652
 20
122.4632385654513
 30
0.0
 10
181.7241857766596
 20
122.4807350868319
 30
0.0
 10
181.514116323471
 20
122.5134374828204
 30
0.0
 10
181.4207814847859
 20
122.5287692917665
 30
0.0
 10
181.2578357741068
 20
122.5563654511153
 30
0.0
 10
181.188132811257
 20
122.5686521342289
 30
0.0
 10
181.0775097449248
 20
122.5884971260153
 30
0.0
 10
181.0358280733144
 20
122.596183238542
 30
0.0
 10
180.9796529329392
 20
122.6066006189193
 30
0.0
 10
180.9652146571786
 20
122.6093217765957
 30
0.0
 10
180.965055662076
 20
122.6093515881763
 30
0.0
 10
181.0207149998128
 20
122.5986894580283
 30
0.0
 10
181.2435397603472
 20
122.5587087862934
 30
0.0
 10
181.4054520459408
 20
122.5303725346611
 30
0.0
 10
181.8292436046766
 20
122.464361625701
 30
0.0
 10
182.0840900272239
 20
122.4279017529098
 30
0.0
 10
182.5227336873376
 20
122.3760502299234
 30
0.0
 10
182.6794312236171
 20
122.3591625958635
 30
0.0
 10
183.0026311733957
 20
122.3284691752425
 30
0.0
 10
183.170304654816
 20
122.3145093682987
 30
0.0
 10
183.5178895210046
 20
122.2903099391475
 30
0.0
 10
183.6994530018236
 20
122.2800129903167
 30
0.0
 10
184.0656392766325
 20
122.2645070434548
 30
0.0
 10
184.2502966924748
 20
122.2592410615578
 30
0.0
 10
184.8088930990332
 20
122.2513182383023
 30
0.0
 10
185.1912274405037
 20
122.2570323616759
 30
0.0
 10
185.9185245848721
 20
122.2880914478382
 30
0.0
 10
186.2742186589722
 20
122.3137800838881
 30
0.0
 10
186.7575309359231
 20
122.3598520940962
 30
0.0
 10
186.9112285431396
 20
122.3764542525125
 30
0.0
 10
187.2036507679827
 20
122.4110741077268
 30
0.0
 10
187.3422659911879
 20
122.4290980287652
 30
0.0
 10
187.4701635116378
 20
122.446860217501
 30
0.0
  0
SPLINE
  5
164
330
1F
100
AcDbEntity
  8
0
  6
HIDDEN
 62
     7
370
     0
100
AcDbSpline
210
0.0
220
0.0
230
1.0
 70
    11
 71
     3
 72
    22
 73
    18
 74
     0
 42
0.00000001
 43
0.00000001
 40
0.0
 40
0.0
 40
0.0
 40
0.0
 40
0.1250000000000001
 40
0.1250000000000001
 40
0.2500000000000001
 40
0.2500000000000001
 40
0.3750000000000001
 40
0.3750000000000001
 40
0.5000000000000001
 40
0.5000000000000001
 40
0.6250000000000001
 40
0.6250000000000001
 40
0.75
 40
0.75
 40
0.875
 40
0.875
 40
1.0
 40
1.0
 40
1.0
 40
1.0
 10
187.4701635116378
 20
122.446860217501
 30
0.0
 10
187.6291063406069
 20
122.468933925548
 30
0.0
 10
187.7697978884972
 20
122.4856177435357
 30
0.0
 10
188.0157841259596
 20
122.511839438418
 30
0.0
 10
188.121822208641
 20
122.5214187442633
 30
0.0
 10
188.292314249208
 20
122.5354980113424
 30
0.0
 10
188.3563669486717
 20
122.5400045875895
 30
0.0
 10
188.4428709997647
 20
122.5458687574274
 30
0.0
 10
188.4651044951248
 20
122.5472106899457
 30
0.0
 10
188.4652183011368
 20
122.5472178296952
 30
0.0
 10
188.4437603726515
 20
122.5459251942089
 30
0.0
 10
188.3577745797726
 20
122.5401037646987
 30
0.0
 10
188.292460433023
 20
122.5355042954229
 30
0.0
 10
188.1234545990876
 20
122.5215592746131
 30
0.0
 10
188.0194955612118
 20
122.5122068877547
 30
0.0
 10
187.7719851149728
 20
122.4858784172883
 30
0.0
 10
187.6291010248891
 20
122.4689331873103
 30
0.0
 10
187.4701635116381
 20
122.4468602175011
 30
0.0
  0
SPLINE
  5
165
330
1F
100
AcDbEntity
  8
0
  6
HIDDEN
 62
     7
370
     0
100
AcDbSpline
210
0.0
220
0.0
230
1.0
 70
    11
 71
     3
 72
    22
 73
    18
 74
     0
 42
0.00000001
 43
0.00000001
 40
0.0
 40
0.0
 40
0.0
 40
0.0
 40
0.1250000000000001
 40
0.1250000000000001
 40
0.2500000000000001
 40
0.2500000000000001
 40
0.3750000000000001
 40
0.3750000000000001
 40
0.5000000000000001
 40
0.5000000000000001
 40
0.6250000000000001
 40
0.6250000000000001
 40
0.75
 40
0.75
 40
0.875
 40
0.875
 40
1.0
 40
1.0
 40
1.0
 40
1.0
 10
187.4701635116378
 20
82.77180326586809
 30
0.0
 10
187.6291063406069
 20
82.74972955782104
 30
0.0
 10
187.7697978884972
 20
82.73304573983341
 30
0.0
 10
188.0157841259596
 20
82.70682404495112
 30
0.0
 10
188.121822208641
 20
82.69724473910583
 30
0.0
 10
188.292314249208
 20
82.68316547202667
 30
0.0
 10
188.3563669486717
 20
82.67865889577962
 30
0.0
 10
188.4428709997647
 20
82.67279472594171
 30
0.0
 10
188.4651044951248
 20
82.67145279342341
 30
0.0
 10
188.4652183011368
 20
82.67144565367391
 30
0.0
 10
188.4437603726515
 20
82.67273828916014
 30
0.0
 10
188.3577745797726
 20
82.67855971867034
 30
0.0
 10
188.292460433023
 20
82.68315918794617
 30
0.0
 10
188.1234545990876
 20
82.69710420875603
 30
0.0
 10
188.0194955612118
 20
82.70645659561436
 30
0.0
 10
187.7719851149728
 20
82.73278506608078
 30
0.0
 10
187.6291010248891
 20
82.74973029605879
 30
0.0
 10
187.4701635116381
 20
82.771803265868
 30
0.0
  0
LINE
  5
166
330
1F
100
AcDbEntity
  8
0
  6
HIDDEN
 62
     7
370
     0
100
AcDbLine
 10
193.71516151
 20
85.6093317417
 30
0.0
 11
193.71516151
 21
119.6093317417
 31
0.0
  0
LINE
  5
167
330
1F
100
AcDbEntity
  8
0
  6
HIDDEN
 62
     7
370
     0
100
AcDbLine
 10
213.5990138869
 20
122.4593317417
 30
0.0
 11
219.66516151
 21
122.4593317417
 31
0.0
  0
LINE
  5
168
330
1F
100
AcDbEntity
  8
0
  6
HIDDEN
 62
     7
370
     0
100
AcDbLine
 10
205.9107818557
 20
122.4593317417
 30
0.0
 11
209.8313091332
 21
122.4593317417
 31
0.0
  0
LINE
  5
169
330
1F
100
AcDbEntity
  8
0
  6
HIDDEN
 62
     7
370
     0
100
AcDbLine
 10
174.7191361063
 20
119.6093317417
 30
0.0
 11
174.7191361063
 21
85.6093317417
 31
0.0
  0
LINE
  5
16A
330
1F
100
AcDbEntity
  8
0
  6
HIDDEN
 62
     7
370
     0
100
AcDbLine
 10
161.81516151
 20
86.5793963439
 30
0.0
 11
161.81516151
 21
118.6392671395
 31
0.0
  0
LINE
  5
16B
330
1F
100
AcDbEntity
  8
0
  6
HIDDEN
 62
     7
370
     0
100
AcDbLine
 10
201.3749874786
 20
119.6093317417
 30
0.0
 11
201.3749874786
 21
85.6093317417
 31
0.0
  0
LINE
  5
16C
330
1F
100
AcDbEntity
  8
0
  6
HIDDEN
 62
     7
370
     0
100
AcDbLine
 10
203.66516151
 20
118.3343317309
 30
0.0
 11
203.66516151
 21
86.8843317417
 31
0.0
  0
LWPOLYLINE
  5
16D
330
1F
100
AcDbEntity
  8
0
  6
HIDDEN
 62
     7
370
     0
100
AcDbPolyline
 90
        2
 70
   128
 43
0.0
 10
203.66516151
 20
86.8843317417
 10
203.66516151
 20
86.8843317417
  0
LINE
  5
16E
330
1F
100
AcDbEntity
  8
0
  6
HIDDEN
 62
     7
370
     0
100
AcDbLine
 10
162.96516151
 20
86.8078413057
 30
0.0
 11
170.51516151
 21
86.8078413057
 31
0.0
  0
LINE
  5
16F
330
1F
100
AcDbEntity
  8
0
  6
HIDDEN
 62
     7
370
     0
100
AcDbLine
 10
162.96516151
 20
118.4108221777
 30
0.0
 11
162.96516151
 21
86.8078413057
 31
0.0
  0
LINE
  5
170
330
1F
100
AcDbEntity
  8
0
  6
HIDDEN
 62
     7
370
     0
100
AcDbLine
 10
166.51516151
 20
118.4108221777
 30
0.0
 11
162.96516151
 21
118.4108221777
 31
0.0
  0
SPLINE
  5
171
330
1F
100
AcDbEntity
  8
0
  6
HIDDEN
 62
     7
370
     0
100
AcDbSpline
210
0.0
220
0.0
230
1.0
 70
     8
 71
     3
 72
    18
 73
    14
 74
     0
 42
0.00000001
 43
0.00000001
 40
0.0
 40
0.0
 40
0.0
 40
0.0
 40
0.2499999999999974
 40
0.2499999999999974
 40
0.3749999999999971
 40
0.3749999999999971
 40
0.4999999999999968
 40
0.4999999999999968
 40
0.6249999999999964
 40
0.6249999999999964
 40
0.7499999999999961
 40
0.7499999999999961
 40
1.0
 40
1.0
 40
1.0
 40
1.0
 10
167.9151615100362
 20
118.8968453640887
 30
0.0
 10
167.9151615100362
 20
118.8423708435365
 30
0.0
 10
167.880250818644
 20
118.785989784184
 30
0.0
 10
167.778241517311
 20
118.7019129433305
 30
0.0
 10
167.7366051626329
 20
118.6745792393396
 30
0.0
 10
167.6381993671441
 20
118.6216253237406
 30
0.0
 10
167.5806561554398
 20
118.5957379700234
 30
0.0
 10
167.4533579818669
 20
118.5479604251902
 30
0.0
 10
167.3837706771094
 20
118.5260125070123
 30
0.0
 10
167.2323364319545
 20
118.4865799420996
 30
0.0
 10
167.1496525288605
 20
118.4690236928737
 30
0.0
 10
166.8935410668225
 20
118.4265849274532
 30
0.0
 10
166.7056260629345
 20
118.4108221777162
 30
0.0
 10
166.5151615100362
 20
118.4108221777162
 30
0.0
  0
LINE
  5
172
330
1F
100
AcDbEntity
  8
0
  6
HIDDEN
 62
     7
370
     0
100
AcDbLine
 10
167.91516151
 20
118.8968453641
 30
0.0
 11
167.91516151
 21
119.6093317417
 31
0.0
  0
SPLINE
  5
173
330
1F
100
AcDbEntity
  8
0
  6
HIDDEN
 62
     7
370
     0
100
AcDbSpline
210
0.0
220
0.0
230
1.0
 70
     8
 71
     3
 72
    18
 73
    14
 74
     0
 42
0.00000001
 43
0.00000001
 40
0.0
 40
0.0
 40
0.0
 40
0.0
 40
0.2500000000000009
 40
0.2500000000000009
 40
0.3750000000000007
 40
0.3750000000000007
 40
0.5000000000000006
 40
0.5000000000000006
 40
0.6250000000000003
 40
0.6250000000000003
 40
0.7500000000000001
 40
0.7500000000000001
 40
1.0
 40
1.0
 40
1.0
 40
1.0
 10
167.9151615100362
 20
118.8968453640887
 30
0.0
 10
167.9151615100362
 20
118.8423708435365
 30
0.0
 10
167.880250818644
 20
118.785989784184
 30
0.0
 10
167.778241517311
 20
118.7019129433305
 30
0.0
 10
167.7366051626329
 20
118.6745792393396
 30
0.0
 10
167.6381993671441
 20
118.6216253237406
 30
0.0
 10
167.5806561554398
 20
118.5957379700234
 30
0.0
 10
167.4533579818669
 20
118.5479604251902
 30
0.0
 10
167.3837706771094
 20
118.5260125070123
 30
0.0
 10
167.2323364319545
 20
118.4865799420996
 30
0.0
 10
167.1496525288605
 20
118.4690236928737
 30
0.0
 10
166.8935410668225
 20
118.4265849274532
 30
0.0
 10
166.7056260629345
 20
118.4108221777162
 30
0.0
 10
166.5151615100362
 20
118.4108221777162
 30
0.0
  0
LINE
  5
174
330
1F
100
AcDbEntity
  8
0
  6
HIDDEN
 62
     7
370
     0
100
AcDbLine
 10
166.51516151
 20
118.4108221777
 30
0.0
 11
162.96516151
 21
118.4108221777
 31
0.0
  0
LINE
  5
175
330
1F
100
AcDbEntity
  8
0
  6
HIDDEN
 62
     7
370
     0
100
AcDbLine
 10
162.96516151
 20
86.8078413057
 30
0.0
 11
170.51516151
 21
86.8078413057
 31
0.0
  0
SPLINE
  5
176
330
1F
100
AcDbEntity
  8
0
  6
HIDDEN
 62
     7
370
     0
100
AcDbSpline
210
0.0
220
0.0
230
1.0
 70
     8
 71
     3
 72
    16
 73
    12
 74
     0
 42
0.00000001
 43
0.00000001
 40
0.0
 40
0.0
 40
0.0
 40
0.0
 40
0.1249999999999988
 40
0.1249999999999988
 40
0.2499999999999977
 40
0.2499999999999977
 40
0.4999999999999984
 40
0.4999999999999984
 40
0.7499999999999992
 40
0.7499999999999992
 40
1.0
 40
1.0
 40
1.0
 40
1.0
 10
170.5151615100362
 20
86.80784130565289
 30
0.0
 10
170.610283264702
 20
86.80784130565289
 30
0.0
 10
170.7036133334301
 20
86.8040254722601
 30
0.0
 10
170.8868750941681
 20
86.78925491953028
 30
0.0
 10
170.9777528097251
 20
86.77809687155471
 30
0.0
 10
171.2345545072448
 20
86.73562560141299
 30
0.0
 10
171.3896218721168
 20
86.69457940421019
 30
0.0
 10
171.6433683336715
 20
86.59943328762829
 30
0.0
 10
171.7442387853393
 20
86.54467055354671
 30
0.0
 10
171.8794852000342
 20
86.43340942964284
 30
0.0
 10
171.9151615100362
 20
86.37623969231416
 30
0.0
 10
171.9151615100362
 20
86.32181811928042
 30
0.0
  0
LINE
  5
177
330
1F
100
AcDbEntity
  8
0
  6
HIDDEN
 62
     7
370
     0
100
AcDbLine
 10
171.91516151
 20
86.3218181193
 30
0.0
 11
171.91516151
 21
85.6093317417
 31
0.0
  0
SPLINE
  5
178
330
1F
100
AcDbEntity
  8
0
  6
HIDDEN
 62
     7
370
     0
100
AcDbSpline
210
0.0
220
0.0
230
1.0
 70
     8
 71
     3
 72
    16
 73
    12
 74
     0
 42
0.00000001
 43
0.00000001
 40
0.0
 40
0.0
 40
0.0
 40
0.0
 40
0.1249999999999988
 40
0.1249999999999988
 40
0.2499999999999977
 40
0.2499999999999977
 40
0.4999999999999984
 40
0.4999999999999984
 40
0.7499999999999992
 40
0.7499999999999992
 40
1.0
 40
1.0
 40
1.0
 40
1.0
 10
170.5151615100362
 20
86.80784130565289
 30
0.0
 10
170.610283264702
 20
86.80784130565289
 30
0.0
 10
170.7036133334301
 20
86.8040254722601
 30
0.0
 10
170.8868750941681
 20
86.78925491953028
 30
0.0
 10
170.9777528097251
 20
86.77809687155471
 30
0.0
 10
171.2345545072448
 20
86.73562560141299
 30
0.0
 10
171.3896218721168
 20
86.69457940421019
 30
0.0
 10
171.6433683336715
 20
86.59943328762829
 30
0.0
 10
171.7442387853393
 20
86.54467055354671
 30
0.0
 10
171.8794852000342
 20
86.43340942964284
 30
0.0
 10
171.9151615100362
 20
86.37623969231416
 30
0.0
 10
171.9151615100362
 20
86.32181811928042
 30
0.0
  0
LINE
  5
179
330
1F
100
AcDbEntity
  8
0
  6
HIDDEN
 62
     7
370
     0
100
AcDbLine
 10
162.96516151
 20
86.8078413057
 30
0.0
 11
162.96516151
 21
118.4108221777
 31
0.0
  0
LINE
  5
17A
330
1F
100
AcDbEntity
  8
0
  6
HIDDEN
 62
     7
370
     0
100
AcDbLine
 10
162.96516151
 20
84.6193317417
 30
0.0
 11
162.96516151
 21
81.7968317417
 31
0.0
  0
LINE
  5
17B
330
1F
100
AcDbEntity
  8
0
  6
HIDDEN
 62
     7
370
     0
100
AcDbLine
 10
171.91516151
 20
84.6193317417
 30
0.0
 11
171.91516151
 21
80.6641834824
 31
0.0
  0
LINE
  5
17C
330
1F
100
AcDbEntity
  8
0
  6
HIDDEN
 62
     7
370
     0
100
AcDbLine
 10
162.96516151
 20
120.5993317417
 30
0.0
 11
162.96516151
 21
123.4792695071
 31
0.0
  0
LINE
  5
17D
330
1F
100
AcDbEntity
  8
0
  6
HIDDEN
 62
     7
370
     0
100
AcDbLine
 10
161.81516151
 20
120.5993317417
 30
0.0
 11
161.81516151
 21
122.3000094882
 31
0.0
  0
LINE
  5
17E
330
1F
100
AcDbEntity
  8
0
  6
HIDDEN
 62
     7
370
     0
100
AcDbLine
 10
161.81516151
 20
84.6193317417
 30
0.0
 11
161.81516151
 21
82.9561712167
 31
0.0
  0
LINE
  5
17F
330
1F
100
AcDbEntity
  8
0
  6
HIDDEN
 62
     7
370
     0
100
AcDbLine
 10
167.91516151
 20
120.5993317417
 30
0.0
 11
167.91516151
 21
124.453439414
 31
0.0
  0
LINE
  5
180
330
1F
100
AcDbEntity
  8
0
  6
HIDDEN
 62
     7
370
     0
100
AcDbLine
 10
213.01516151
 20
112.1093317417
 30
0.0
 11
213.01516151
 21
93.1093317417
 31
0.0
  0
LINE
  5
181
330
1F
100
AcDbEntity
  8
0
  6
HIDDEN
 62
     7
370
     0
100
AcDbLine
 10
215.51516151
 20
112.1093317417
 30
0.0
 11
215.51516151
 21
93.1093317417
 31
0.0
  0
LWPOLYLINE
  5
182
330
1F
100
AcDbEntity
  8
0
  6
HIDDEN
 62
     7
370
     0
100
AcDbPolyline
 90
        2
 70
   128
 43
0.0
 10
219.66516151
 20
76.2093317417
 10
219.66516151
 20
76.2093317417
  0
LINE
  5
183
330
1F
100
AcDbEntity
  8
0
  6
HIDDEN
 62
     7
370
     0
100
AcDbLine
 10
204.16516151
 20
111.1093317417
 30
0.0
 11
204.16516151
 21
94.1093317417
 31
0.0
  0
LWPOLYLINE
  5
184
330
1F
100
AcDbEntity
  8
0
  6
HIDDEN
 62
     7
370
     0
100
AcDbPolyline
 90
        2
 70
   128
 43
0.0
 10
204.16516151
 20
94.1093317417
 10
204.16516151
 20
94.1093317417
  0
LINE
  5
185
330
1F
100
AcDbEntity
  8
0
  6
HIDDEN
 62
     7
370
     0
100
AcDbLine
 10
203.66516151
 20
93.6093317417
 30
0.0
 11
203.66516151
 21
111.5908402764
 31
0.0
  0
LINE
  5
186
330
1F
100
AcDbEntity
  8
0
  6
HIDDEN
 62
     7
370
     0
100
AcDbLine
 10
219.66516151
 20
76.2093317417
 30
0.0
 11
213.5274867077
 21
76.2093317417
 31
0.0
  0
LINE
  5
187
330
1F
100
AcDbEntity
  8
0
  6
HIDDEN
 62
     7
370
     0
100
AcDbLine
 10
213.62516151
 20
75.1114945826
 30
0.0
 11
213.62516151
 21
75.8049361134
 31
0.0
  0
LINE
  5
188
330
1F
100
AcDbEntity
  8
0
  6
HIDDEN
 62
     7
370
     0
100
AcDbLine
 10
219.66516151
 20
76.2093317417
 30
0.0
 11
219.66516151
 21
73.0490543411
 31
0.0
  0
LINE
  5
189
330
1F
100
AcDbEntity
  8
0
  6
HIDDEN
 62
     7
370
     0
100
AcDbLine
 10
198.66516151
 20
71.1252087588
 30
0.0
 11
198.66516151
 21
76.2093317417
 31
0.0
  0
LINE
  5
18A
330
1F
100
AcDbEntity
  8
0
  6
HIDDEN
 62
     7
370
     0
100
AcDbLine
 10
206.66516151
 20
76.2093317417
 30
0.0
 11
198.66516151
 21
76.2093317417
 31
0.0
  0
LINE
  5
18B
330
1F
100
AcDbEntity
  8
0
  6
HIDDEN
 62
     7
370
     0
100
AcDbLine
 10
209.9028363124
 20
76.2093317417
 30
0.0
 11
206.66516151
 21
76.2093317417
 31
0.0
  0
LINE
  5
18C
330
1F
100
AcDbEntity
  8
0
  6
HIDDEN
 62
     7
370
     0
100
AcDbLine
 10
209.80516151
 20
75.8049361134
 30
0.0
 11
209.80516151
 21
75.1114945826
 31
0.0
  0
LINE
  5
18D
330
1F
100
AcDbEntity
  8
0
  6
HIDDEN
 62
     7
370
     0
100
AcDbLine
 10
213.01516151
 20
94.1093317417
 30
0.0
 11
213.01516151
 21
111.1093317417
 31
0.0
  0
LWPOLYLINE
  5
18E
330
1F
100
AcDbEntity
  8
0
  6
HIDDEN
 62
     7
370
     0
100
AcDbPolyline
 90
        2
 70
   128
 43
0.0
 10
219.66516151
 20
129.0093317417
 10
219.66516151
 20
129.0093317417
  0
LINE
  5
18F
330
1F
100
AcDbEntity
  8
0
  6
HIDDEN
 62
     7
370
     0
100
AcDbLine
 10
210.1994590417
 20
129.0093317417
 30
0.0
 11
206.66516151
 21
129.0093317417
 31
0.0
  0
LINE
  5
190
330
1F
100
AcDbEntity
  8
0
  6
HIDDEN
 62
     7
370
     0
100
AcDbLine
 10
209.80516151
 20
129.7289855927
 30
0.0
 11
209.80516151
 21
130.4145659329
 31
0.0
  0
LINE
  5
191
330
1F
100
AcDbEntity
  8
0
  6
HIDDEN
 62
     7
370
     0
100
AcDbLine
 10
219.66516151
 20
129.0093317417
 30
0.0
 11
213.2308639783
 21
129.0093317417
 31
0.0
  0
LINE
  5
192
330
1F
100
AcDbEntity
  8
0
  6
HIDDEN
 62
     7
370
     0
100
AcDbLine
 10
213.62516151
 20
130.4145659329
 30
0.0
 11
213.62516151
 21
129.7289855927
 31
0.0
  0
LINE
  5
193
330
1F
100
AcDbEntity
  8
0
  6
HIDDEN
 62
     7
370
     0
100
AcDbLine
 10
219.66516151
 20
129.0093317417
 30
0.0
 11
219.66516151
 21
132.4557720654
 31
0.0
  0
LINE
  5
194
330
1F
100
AcDbEntity
  8
0
  6
HIDDEN
 62
     7
370
     0
100
AcDbLine
 10
206.66516151
 20
129.0093317417
 30
0.0
 11
198.66516151
 21
129.0093317417
 31
0.0
  0
ELLIPSE
  5
195
330
1F
100
AcDbEntity
  8
0
  6
HIDDEN
 62
     7
370
     0
100
AcDbEllipse
 10
157.6477296457
 20
102.6093317417
 30
0.0
 11
20.07002071827051
 21
-2.842170943040401E-14
 31
0.0
210
0.0
220
0.0
230
1.0
 40
0.8164965809
 41
4.921555463185703
 42
4.980534842098403
  0
LINE
  5
196
330
1F
100
AcDbEntity
  8
0
  6
HIDDEN
 62
     7
370
     0
100
AcDbLine
 10
161.81516151
 20
84.6193317417
 30
0.0
 11
161.81516151
 21
86.5793963439
 31
0.0
  0
ELLIPSE
  5
197
330
1F
100
AcDbEntity
  8
0
  6
HIDDEN
 62
     7
370
     0
100
AcDbEllipse
 10
157.6477296457
 20
102.6093317417
 30
0.0
 11
20.07002071827051
 21
0.0
 31
0.0
210
0.0
220
0.0
230
1.0
 40
0.8164965809
 41
1.302650465081197
 42
1.361629843993897
  0
LINE
  5
198
330
1F
100
AcDbEntity
  8
0
  6
HIDDEN
 62
     7
370
     0
100
AcDbLine
 10
161.81516151
 20
120.5993317417
 30
0.0
 11
161.81516151
 21
118.6392671395
 31
0.0
  0
LINE
  5
199
330
1F
100
AcDbEntity
  8
0
  6
HIDDEN
 62
     7
370
     0
100
AcDbLine
 10
248.8917341339
 20
139.2249827327
 30
0.0
 11
245.1738231145
 21
132.101077519
 31
0.0
  0
LINE
  5
19A
330
1F
100
AcDbEntity
  8
0
  6
HIDDEN
 62
     7
370
     0
100
AcDbLine
 10
245.1738231145
 20
132.101077519
 30
0.0
 11
245.1307236938
 21
132.0788516131
 31
0.0
  0
LINE
  5
19B
330
1F
100
AcDbEntity
  8
0
  6
HIDDEN
 62
     7
370
     0
100
AcDbLine
 10
242.8753442313
 20
126.4382472515
 30
0.0
 11
255.3796726033
 21
132.8865943803
 31
0.0
  0
LINE
  5
19C
330
1F
100
AcDbEntity
  8
0
  6
HIDDEN
 62
     7
370
     0
100
AcDbLine
 10
255.3796726033
 20
132.8865943803
 30
0.0
 11
255.3572919508
 21
132.8437107163
 31
0.0
  0
LINE
  5
19D
330
1F
100
AcDbEntity
  8
0
  6
HIDDEN
 62
     7
370
     0
100
AcDbLine
 10
248.8486347131
 20
139.2027568268
 30
0.0
 11
248.8917341339
 21
139.2249827327
 31
0.0
  0
LINE
  5
19E
330
1F
100
AcDbEntity
  8
0
  6
HIDDEN
 62
     7
370
     0
100
AcDbLine
 10
235.9831107025
 20
75.6093317417
 30
0.0
 11
235.9831107025
 21
102.6093317417
 31
0.0
  0
SPLINE
  5
19F
330
1F
100
AcDbEntity
  8
0
  6
HIDDEN
 62
     7
370
     0
100
AcDbSpline
210
0.0
220
0.0
230
1.0
 70
     8
 71
     3
 72
    10
 73
     6
 74
     0
 42
0.00000001
 43
0.00000001
 40
0.0
 40
0.0
 40
0.0
 40
0.0
 40
0.5
 40
0.5
 40
1.0
 40
1.0
 40
1.0
 40
1.0
 10
237.2058325002578
 20
118.9567894584889
 30
0.0
 10
236.8300769883166
 20
116.2491892689917
 30
0.0
 10
236.5216735747277
 20
113.5349403302942
 30
0.0
 10
236.09741370024
 20
108.0874349322867
 30
0.0
 10
235.9831107024673
 20
105.3540251208619
 30
0.0
 10
235.9831107024673
 20
102.6093317416845
 30
0.0
  0
SPLINE
  5
1A0
330
1F
100
AcDbEntity
  8
0
  6
HIDDEN
 62
     7
370
     0
100
AcDbSpline
210
0.0
220
0.0
230
1.0
 70
     8
 71
     3
 72
     8
 73
     4
 74
     0
 42
0.00000001
 43
0.00000001
 40
0.0
 40
0.0
 40
0.0
 40
0.0
 40
1.0
 40
1.0
 40
1.0
 40
1.0
 10
237.2058325002578
 20
118.9567894584889
 30
0.0
 10
237.1480343243599
 20
119.9790356851618
 30
0.0
 10
237.1032527412867
 20
120.9787075977119
 30
0.0
 10
237.0715008306857
 20
121.9527152243834
 30
0.0
  0
SPLINE
  5
1A1
330
1F
100
AcDbEntity
  8
0
  6
HIDDEN
 62
     7
370
     0
100
AcDbSpline
210
0.0
220
0.0
230
1.0
 70
     8
 71
     3
 72
    15
 73
    11
 74
     0
 42
0.00000001
 43
0.00000001
 40
0.0
 40
0.0
 40
0.0
 40
0.0
 40
0.151733744249085
 40
0.3055731890045617
 40
0.414677828823324
 40
0.5246366308022279
 40
0.6373731794295731
 40
0.7511008281506699
 40
0.902400190130451
 40
0.9999999999999999
 40
0.9999999999999999
 40
0.9999999999999999
 40
0.9999999999999999
 10
237.0715008306857
 20
121.9527152243834
 30
0.0
 10
237.0403323704996
 20
122.9614005652873
 30
0.0
 10
236.9775629066432
 20
124.9927693807578
 30
0.0
 10
236.9239002527324
 20
127.3117945842886
 30
0.0
 10
236.8909995959232
 20
129.1069917157028
 30
0.0
 10
236.8737744159491
 20
130.4539948192413
 30
0.0
 10
236.8672609412317
 20
131.5565918231424
 30
0.0
 10
236.8725616080464
 20
132.4586778156563
 30
0.0
 10
236.8882542774716
 20
133.0215720516784
 30
0.0
 10
236.9125393453085
 20
133.0238284527246
 30
0.0
 10
236.9220621492051
 20
133.0247132459984
 30
0.0
  0
ELLIPSE
  5
1A2
330
1F
100
AcDbEntity
  8
0
  6
HIDDEN
 62
     7
370
     0
100
AcDbEllipse
 10
256.558397655
 20
102.6093317417
 30
0.0
 11
19.04189087378847
 21
26.99870500558242
 31
0.0
210
0.0
220
0.0
230
1.0
 40
0.0138872275
 41
1.787279017326129
 42
3.151386849800502
  0
ELLIPSE
  5
1A3
330
1F
100
AcDbEntity
  8
0
  6
HIDDEN
 62
     7
370
     0
100
AcDbEllipse
 10
253.9724603263
 20
102.6093317417
 30
0.0
 11
0.1323458584791695
 21
26.99999842175209
 31
0.0
210
0.0
220
0.0
230
0.9999999999999998
 40
0.0697548059
 41
1.571138243826492
 42
1.777826738148023
  0
LINE
  5
1A4
330
1F
100
AcDbEntity
  8
0
  6
HIDDEN
 62
     7
370
     0
100
AcDbLine
 10
171.91516151
 20
84.6193317417
 30
0.0
 11
171.91516151
 21
86.3218181193
 31
0.0
  0
LINE
  5
1A5
330
1F
100
AcDbEntity
  8
0
  6
HIDDEN
 62
     7
370
     0
100
AcDbLine
 10
162.96516151
 20
84.6193317417
 30
0.0
 11
162.96516151
 21
86.8078413057
 31
0.0
  0
LINE
  5
1A6
330
1F
100
AcDbEntity
  8
0
  6
HIDDEN
 62
     7
370
     0
100
AcDbLine
 10
167.91516151
 20
120.5993317417
 30
0.0
 11
167.91516151
 21
118.8968453641
 31
0.0
  0
LINE
  5
1A7
330
1F
100
AcDbEntity
  8
0
  6
HIDDEN
 62
     7
370
     0
100
AcDbLine
 10
162.96516151
 20
120.5993317417
 30
0.0
 11
162.96516151
 21
118.4108221777
 31
0.0
  0
SPLINE
  5
1A8
330
1F
100
AcDbEntity
  8
0
  6
HIDDEN
 62
     7
370
     0
100
AcDbSpline
210
0.0
220
0.0
230
1.0
 70
    11
 71
     3
 72
    34
 73
    30
 74
     0
 42
0.00000001
 43
0.00000001
 40
0.0
 40
0.0
 40
0.0
 40
0.0
 40
0.0127738776556719
 40
0.0481305038678095
 40
0.0807425036597233
 40
0.1375890933866521
 40
0.1884518750769709
 40
0.2226712157899129
 40
0.2626938393202071
 40
0.2986558379460142
 40
0.3315197784331848
 40
0.3878459735946831
 40
0.3881783788180032
 40
0.444092613252755
 40
0.4768435673124494
 40
0.5126448980964349
 40
0.5530084690747541
 40
0.587385595895417
 40
0.6380121026636987
 40
0.6949796288800785
 40
0.7275539965608165
 40
0.762807944032403
 40
0.8028703513054117
 40
0.8370831582065021
 40
0.8877749846026075
 40
0.8880443184052493
 40
0.9388397965827773
 40
0.9729712778442388
 40
1.0
 40
1.0
 40
1.0
 40
1.0
 10
181.8751733984294
 20
79.5416698827569
 30
0.0
 10
181.9343670603327
 20
79.54775878752021
 30
0.0
 10
182.1574019797195
 20
79.57070108132959
 30
0.0
 10
182.6807544351829
 20
79.60734583476504
 30
0.0
 10
183.5535179083801
 20
79.63502986066533
 30
0.0
 10
184.6683557963187
 20
79.62447428727914
 30
0.0
 10
185.7814212109382
 20
79.50832918386564
 30
0.0
 10
186.6758626601513
 20
79.38673843313411
 30
0.0
 10
187.359697703575
 20
79.26497972627995
 30
0.0
 10
187.9004478052786
 20
79.1486212175597
 30
0.0
 10
188.3138799954928
 20
79.05513751877533
 30
0.0
 10
188.5420279571136
 20
78.98850397616724
 30
0.0
 10
188.387477655558
 20
79.0297707773758
 30
0.0
 10
188.3606015953871
 20
79.04224060509209
 30
0.0
 10
187.9048238850901
 20
79.14778880917531
 30
0.0
 10
187.3809018730794
 20
79.26053455396772
 30
0.0
 10
186.6946916596421
 20
79.38363346437866
 30
0.0
 10
185.8015789525412
 20
79.50562463702788
 30
0.0
 10
184.6881423982506
 20
79.62337726830675
 30
0.0
 10
183.5773917643702
 20
79.63534778959028
 30
0.0
 10
182.6926397245444
 20
79.60829034285457
 30
0.0
 10
182.0254439709859
 20
79.56035790797388
 30
0.0
 10
181.4841714509544
 20
79.50406518967185
 30
0.0
 10
181.0965906144854
 20
79.45897946259159
 30
0.0
 10
180.9025766556854
 20
79.42009959800258
 30
0.0
 10
181.0289077864421
 20
79.4415242841085
 30
0.0
 10
181.0580636747683
 20
79.45144068540407
 30
0.0
 10
181.429556514584
 20
79.49905977136297
 30
0.0
 10
181.7385978038962
 20
79.52861045546022
 30
0.0
 10
181.8751733984294
 20
79.5416698827569
 30
0.0
  0
SPLINE
  5
1A9
330
1F
100
AcDbEntity
  8
0
  6
HIDDEN
 62
     7
370
     0
100
AcDbSpline
210
0.0
220
0.0
230
1.0
 70
     8
 71
     3
 72
    38
 73
    34
 74
     0
 42
0.00000001
 43
0.00000001
 40
-0.0939221400672665
 40
-0.0657752597376123
 40
-0.0344739495632796
 40
0.0
 40
0.0323124298800044
 40
0.0609695983057976
 40
0.0859698688315848
 40
0.1073131756265473
 40
0.1250019290165292
 40
0.1562358723016264
 40
0.1978507374026424
 40
0.249816879324602
 40
0.2782629480404316
 40
0.3049884159979992
 40
0.3300042169061052
 40
0.3533239044514899
 40
0.3749644360928887
 40
0.4060267839203694
 40
0.4476555976887463
 40
0.499832086919725
 40
0.5286685249108927
 40
0.5555536436046659
 40
0.5805015706730043
 40
0.6035302880734357
 40
0.6246629695825433
 40
0.668531263775153
 40
0.7183269153565629
 40
0.7652375706119532
 40
0.7915712044598845
 40
0.812293703571462
 40
0.861565662988707
 40
0.9060778599327335
 40
0.9342247402623877
 40
0.9655260504367204
 40
1.0
 40
1.032312429880004
 40
1.060969598305798
 40
1.085969868831585
 10
182.6554266785285
 20
125.6123357674277
 30
0.0
 10
182.0513584593814
 20
125.6568692725836
 30
0.0
 10
181.5760433956464
 20
125.7049446588375
 30
0.0
 10
181.2564445687118
 20
125.741107398165
 30
0.0
 10
181.0694501623191
 20
125.7674975324254
 30
0.0
 10
180.9811445022072
 20
125.7835671423095
 30
0.0
 10
180.9517310055322
 20
125.7913908276909
 30
0.0
 10
181.0238630748153
 20
125.7732233292997
 30
0.0
 10
181.3449750762188
 20
125.7286167494596
 30
0.0
 10
181.9170025650032
 20
125.6678782207902
 30
0.0
 10
182.5675349114201
 20
125.6185340576923
 30
0.0
 10
183.1174110398112
 20
125.5961715970903
 30
0.0
 10
183.6728489052949
 20
125.587689387047
 30
0.0
 10
184.2136244526565
 20
125.594140473035
 30
0.0
 10
184.8115543479824
 20
125.6176188494811
 30
0.0
 10
185.5512202059155
 20
125.6845387201042
 30
0.0
 10
186.4832698395151
 20
125.8006401538807
 30
0.0
 10
187.2726065733709
 20
125.9359550384381
 30
0.0
 10
187.8115362619648
 20
126.0510668625571
 30
0.0
 10
188.125640602958
 20
126.1208409392401
 30
0.0
 10
188.3309209722946
 20
126.1714010248985
 30
0.0
 10
188.4419909590596
 20
126.2020791649585
 30
0.0
 10
188.4882624610161
 20
126.216806182509
 30
0.0
 10
188.3622975933596
 20
126.1789465891807
 30
0.0
 10
187.8920520666306
 20
126.0684608050251
 30
0.0
 10
187.2388541043473
 20
125.9287565868597
 30
0.0
 10
186.634835149439
 20
125.8256299806518
 30
0.0
 10
185.9604971001262
 20
125.7261939547668
 30
0.0
 10
185.0751476175963
 20
125.6327236202819
 30
0.0
 10
184.1056687266428
 20
125.5857151138902
 30
0.0
 10
183.3173331489405
 20
125.5893993287597
 30
0.0
 10
182.6554266785285
 20
125.6123357674277
 30
0.0
 10
182.0513584593814
 20
125.6568692725836
 30
0.0
 10
181.5760433956464
 20
125.7049446588375
 30
0.0
  0
LINE
  5
1AA
330
1F
100
AcDbEntity
  8
0
  6
HIDDEN
 62
     7
370
     0
100
AcDbLine
 10
223.81516151
 20
106.8093317417
 30
0.0
 11
223.81516151
 21
98.4093317417
 31
0.0
  0
SPLINE
  5
1AB
330
1F
100
AcDbEntity
  8
0
  6
HIDDEN
 62
     7
370
     0
100
AcDbSpline
210
0.0
220
0.0
230
1.0
 70
     8
 71
     3
 72
    14
 73
    10
 74
     0
 42
0.00000001
 43
0.00000001
 40
0.0
 40
0.0
 40
0.0
 40
0.0
 40
0.25
 40
0.25
 40
0.5
 40
0.5
 40
0.75
 40
0.75
 40
1.0
 40
1.0
 40
1.0
 40
1.0
 10
223.8151615100362
 20
102.1408097048059
 30
0.0
 10
223.8616238464842
 20
102.2633845159608
 30
0.0
 10
223.897965970969
 20
102.3930841169863
 30
0.0
 10
223.9478216080412
 20
102.6667920997266
 30
0.0
 10
223.9608709077954
 20
102.8109620480202
 30
0.0
 10
223.9608690679835
 20
103.0975704102453
 30
0.0
 10
223.9478133086951
 20
103.2441185492101
 30
0.0
 10
223.8979619397071
 20
103.5270932315425
 30
0.0
 10
223.86162368169
 20
103.6636713964008
 30
0.0
 10
223.8151615100362
 20
103.7955061574909
 30
0.0
  0
SPLINE
  5
1AC
330
1F
100
AcDbEntity
  8
0
  6
HIDDEN
 62
     7
370
     0
100
AcDbSpline
210
0.0
220
0.0
230
1.0
 70
     8
 71
     3
 72
    52
 73
    48
 74
     0
 42
0.00000001
 43
0.00000001
 40
0.0
 40
0.0
 40
0.0
 40
0.0
 40
0.0625000000000012
 40
0.0625000000000012
 40
0.1250000000000023
 40
0.1250000000000023
 40
0.1875000000000035
 40
0.1875000000000035
 40
0.2187500000000041
 40
0.2187500000000041
 40
0.2500000000000047
 40
0.2500000000000047
 40
0.2812500000000052
 40
0.2812500000000052
 40
0.3125000000000058
 40
0.3125000000000058
 40
0.3750000000000062
 40
0.3750000000000062
 40
0.4062500000000061
 40
0.4062500000000061
 40
0.4375000000000061
 40
0.4375000000000061
 40
0.4687500000000059
 40
0.4687500000000059
 40
0.5000000000000059
 40
0.5000000000000059
 40
0.5312500000000058
 40
0.5312500000000058
 40
0.5625000000000057
 40
0.5625000000000057
 40
0.5937500000000057
 40
0.5937500000000057
 40
0.6250000000000056
 40
0.6250000000000056
 40
0.6562500000000054
 40
0.6562500000000054
 40
0.6875000000000053
 40
0.6875000000000053
 40
0.7187500000000053
 40
0.7187500000000053
 40
0.7500000000000052
 40
0.7500000000000052
 40
0.8125000000000041
 40
0.8125000000000041
 40
0.8750000000000031
 40
0.8750000000000031
 40
1.0
 40
1.0
 40
1.0
 40
1.0
 10
223.8151615100362
 20
103.7955061574909
 30
0.0
 10
223.7107907229131
 20
104.0115374783133
 30
0.0
 10
223.5723835431768
 20
104.1988358001226
 30
0.0
 10
223.23537004474
 20
104.5277811160439
 30
0.0
 10
223.0437749200104
 20
104.66219853018
 30
0.0
 10
222.6163119929456
 20
104.8747081458636
 30
0.0
 10
222.3878981341424
 20
104.9488394616494
 30
0.0
 10
222.026393681278
 20
105.0074850433499
 30
0.0
 10
221.9019713255499
 20
105.01792215765
 30
0.0
 10
221.657709408352
 20
105.018756652796
 30
0.0
 10
221.5363899822097
 20
105.0094874955268
 30
0.0
 10
221.2954402689799
 20
104.9704452708449
 30
0.0
 10
221.1756314421452
 20
104.9402838504142
 30
0.0
 10
220.9490745944843
 20
104.8614328260263
 30
0.0
 10
220.8407799712163
 20
104.8125923105315
 30
0.0
 10
220.5302425191333
 20
104.6368451454009
 30
0.0
 10
220.3509275122896
 20
104.4856183183322
 30
0.0
 10
220.1277623239881
 20
104.2149985053179
 30
0.0
 10
220.0621925939891
 20
104.1189255833239
 30
0.0
 10
219.9477443960856
 20
103.9148025174594
 30
0.0
 10
219.8985083316591
 20
103.8056032789809
 30
0.0
 10
219.8196191554522
 20
103.5799954860477
 30
0.0
 10
219.7899229924015
 20
103.4641909284996
 30
0.0
 10
219.7496464465626
 20
103.2264599010984
 30
0.0
 10
219.7391214824452
 20
103.1031629265319
 30
0.0
 10
219.7385649686937
 20
102.8578025807746
 30
0.0
 10
219.7482535933549
 20
102.7358989058446
 30
0.0
 10
219.7873100625415
 20
102.4936386379836
 30
0.0
 10
219.8171403551416
 20
102.3722798768647
 30
0.0
 10
219.894854892375
 20
102.1398544441792
 30
0.0
 10
219.9426993249907
 20
102.0279527683027
 30
0.0
 10
220.056615327784
 20
101.8126599857569
 30
0.0
 10
220.1230282631334
 20
101.7091865880426
 30
0.0
 10
220.2699461252351
 20
101.5183548732822
 30
0.0
 10
220.3509275744212
 20
101.4299290294812
 30
0.0
 10
220.5290557189106
 20
101.2673102416624
 30
0.0
 10
220.6260984136576
 20
101.1935837637767
 30
0.0
 10
220.8296895574331
 20
101.0666410239885
 30
0.0
 10
220.9371028979617
 20
101.012565353229
 30
0.0
 10
221.1642886311559
 20
100.9240759295565
 30
0.0
 10
221.2833505806134
 20
100.8902824435496
 30
0.0
 10
221.6429154380615
 20
100.8235206254738
 30
0.0
 10
221.8954105506947
 20
100.8241268228299
 30
0.0
 10
222.3777228136484
 20
100.908130133714
 30
0.0
 10
222.6117488971673
 20
100.9911089684378
 30
0.0
 10
223.2511776991605
 20
101.3351931846199
 30
0.0
 10
223.6062331955457
 20
101.6928221534558
 30
0.0
 10
223.8151615100362
 20
102.1408097048059
 30
0.0
  0
LINE
  5
1AD
330
1F
100
AcDbEntity
  8
0
  6
HIDDEN
 62
     7
370
     0
100
AcDbLine
 10
215.51516151
 20
98.4093317417
 30
0.0
 11
215.51516151
 21
106.7903138165
 31
0.0
  0
LINE
  5
1AE
330
1F
100
AcDbEntity
  8
0
  6
HIDDEN
 62
     7
370
     0
100
AcDbLine
 10
252.1020947358
 20
97.0683915298
 30
0.0
 11
254.2173760904
 21
99.1785201655
 31
0.0
  0
LINE
  5
1AF
330
1F
100
AcDbEntity
  8
0
  6
HIDDEN
 62
     7
370
     0
100
AcDbLine
 10
242.5986498435
 20
126.500328004
 30
0.0
 11
255.4362156757
 21
133.120522093
 31
0.0
  0
LINE
  5
1B0
330
1F
100
AcDbEntity
  8
0
  6
HIDDEN
 62
     7
370
     0
100
AcDbLine
 10
255.3796726033
 20
132.8865943803
 30
0.0
 11
255.4362156757
 21
133.120522093
 31
0.0
  0
LINE
  5
1B1
330
1F
100
AcDbEntity
  8
0
  6
HIDDEN
 62
     7
370
     0
100
AcDbLine
 10
245.1738231145
 20
132.101077519
 30
0.0
 11
245.2150947376
 21
131.7858253393
 31
0.0
  0
LINE
  5
1B2
330
1F
100
AcDbEntity
  8
0
  6
HIDDEN
 62
     7
370
     0
100
AcDbLine
 10
244.8904124348
 20
131.6183901814
 30
0.0
 11
245.2150947376
 21
131.7858253393
 31
0.0
  0
ELLIPSE
  5
1B3
330
1F
100
AcDbEntity
  8
0
  6
HIDDEN
 62
     7
370
     0
100
AcDbEllipse
 10
518.0528723473
 20
235.3107024458
 30
0.0
 11
359.5465388960532
 21
185.414267987778
 31
5.684341886080801E-14
210
3.666444814541481E-18
220
-3.136850094393149E-16
230
1.0
 40
0.0939339791
 41
2.353239973162084
 42
2.413404849059054
  0
ELLIPSE
  5
1B4
330
1F
100
AcDbEntity
  8
0
  6
HIDDEN
 62
     7
370
     0
100
AcDbEllipse
 10
231.6665831233
 20
87.624385283
 30
0.0
 11
30.61546507943604
 21
58.53076743139681
 31
0.0
210
0.0
220
0.0
230
0.9999999999999999
 40
0.0170295863
 41
0.0997966893237095
 42
0.8025598751638452
  0
LINE
  5
1B5
330
1F
100
AcDbEntity
  8
0
  6
HIDDEN
 62
     7
370
     0
100
AcDbLine
 10
248.9985345366
 20
139.1954758465
 30
0.0
 11
262.0304113857
 21
145.9158740289
 31
0.0
  0
ELLIPSE
  5
1B6
330
1F
100
AcDbEntity
  8
0
  6
HIDDEN
 62
     7
370
     0
100
AcDbEllipse
 10
218.6347062742
 20
80.9039871006
 30
0.0
 11
30.61546507943268
 21
58.53076743139025
 31
0.0
210
0.0
220
0.0
230
0.9999999999999998
 40
0.0170295863
 41
0.0339899569051161
 42
0.0997966893236395
  0
ELLIPSE
  5
1B7
330
1F
100
AcDbEntity
  8
0
  6
HIDDEN
 62
     7
370
     0
100
AcDbEllipse
 10
218.7794373198
 20
80.9786233381
 30
0.0
 11
30.69467752928622
 21
58.46000262158027
 31
0.0
210
0.0
220
0.0
230
0.9999999999999998
 40
0.0535142116
 41
0.0664549317187248
 42
0.1180940648829752
  0
ELLIPSE
  5
1B8
330
1F
100
AcDbEntity
  8
0
  6
HIDDEN
 62
     7
370
     0
100
AcDbEllipse
 10
254.0273537903
 20
99.1555932807
 30
0.0
 11
0.1643285549532436
 21
42.81788464320645
 31
0.0
210
0.0
220
0.0
230
1.0
 40
0.0617883738
 41
0.8104942635806205
 42
0.8145969507627978
  0
LINE
  5
1B9
330
1F
100
AcDbEntity
  8
0
  6
HIDDEN
 62
     7
370
     0
100
AcDbLine
 10
249.1986146421
 20
139.4186648744
 30
0.0
 11
245.2150947376
 21
131.7858253393
 31
0.0
  0
LINE
  5
1BA
330
1F
100
AcDbEntity
  8
0
  6
HIDDEN
 62
     7
370
     0
100
AcDbLine
 10
252.2234893184
 20
128.6704832944
 30
0.0
 11
254.2173760904
 21
130.6595130584
 31
0.0
  0
LWPOLYLINE
  5
1BB
330
1F
100
AcDbEntity
  8
0
  6
HIDDEN
 62
     7
370
     0
100
AcDbPolyline
 90
        2
 70
   128
 43
0.0
 10
198.66516151
 20
76.2093317417
 10
198.66516151
 20
76.2093317417
  0
ARC
  5
1BC
330
1F
100
AcDbEntity
  8
0
  6
HIDDEN
 62
     7
370
     0
100
AcDbCircle
 10
240.4676234615
 20
127.286730964
 30
0.0
 40
1.750350375115331
100
AcDbArc
 50
131.1030845594
 51
297.234553582
  0
LINE
  5
1BD
330
1F
100
AcDbEntity
  8
0
  6
HIDDEN
 62
     7
370
     0
100
AcDbLine
 10
255.4362156757
 20
133.120522093
 30
0.0
 11
255.2618244914
 21
132.9465557168
 31
0.0
  0
LINE
  5
1BE
330
1F
100
AcDbEntity
  8
0
  6
HIDDEN
 62
     7
370
     0
100
AcDbLine
 10
245.2150947376
 20
131.7858253393
 30
0.0
 11
245.0407035532
 21
131.6118589631
 31
0.0
  0
LINE
  5
1BF
330
1F
100
AcDbEntity
  8
0
  6
HIDDEN
 62
     7
370
     0
100
AcDbLine
 10
245.0407035532
 20
131.6118589631
 30
0.0
 11
244.830405422
 21
131.5034104875
 31
0.0
  0
LINE
  5
1C0
330
1F
100
AcDbEntity
  8
0
  6
HIDDEN
 62
     7
370
     0
100
AcDbLine
 10
198.66516151
 20
71.1252087588
 30
0.0
 11
198.66516151
 21
76.2093317417
 31
0.0
  0
LINE
  5
1C1
330
1F
100
AcDbEntity
  8
0
  6
HIDDEN
 62
     7
370
     0
100
AcDbLine
 10
198.66516151
 20
76.2093317417
 30
0.0
 11
206.66516151
 21
76.2093317417
 31
0.0
  0
CIRCLE
  5
1C2
330
1F
100
AcDbEntity
  8
0
  6
HIDDEN
 62
     7
370
     0
100
AcDbCircle
 10
252.667135992
 20
136.6253901165
 30
0.0
 40
2.392699376256071
  0
LINE
  5
1C3
330
1F
100
AcDbEntity
  8
0
  6
HIDDEN
 62
     7
370
     0
100
AcDbLine
 10
248.9985345366
 20
139.1954758465
 30
0.0
 11
245.0407035532
 21
131.6118589631
 31
0.0
  0
LINE
  5
1C4
330
1F
100
AcDbEntity
  8
0
  6
HIDDEN
 62
     7
370
     0
100
AcDbLine
 10
241.2686437034
 20
125.7304234726
 30
0.0
 11
255.2618244914
 21
132.9465557168
 31
0.0
  0
LINE
  5
1C5
330
1F
100
AcDbEntity
  8
0
  6
HIDDEN
 62
     7
370
     0
100
AcDbLine
 10
262.0304113857
 20
145.9158740289
 30
0.0
 11
255.2618244914
 21
132.9465557168
 31
0.0
  0
CIRCLE
  5
1C6
330
1F
100
AcDbEntity
  8
0
  6
HIDDEN
 62
     7
370
     0
100
AcDbCircle
 10
252.6144244205
 20
136.5681164895
 30
0.0
 40
1.644578384355342
  0
CIRCLE
  5
1C7
330
1F
100
AcDbEntity
  8
0
  6
HIDDEN
 62
     7
370
     0
100
AcDbCircle
 10
224.6445501608
 20
104.374693722
 30
0.0
 40
2.081163897072249
  0
CIRCLE
  5
1C8
330
1F
100
AcDbEntity
  8
0
  6
HIDDEN
 62
     7
370
     0
100
AcDbCircle
 10
252.0047017638
 20
135.9606734728
 30
0.0
 40
1.644778634448265
  0
LINE
  5
1C9
330
1F
100
AcDbEntity
  8
0
  6
HIDDEN
 62
     7
370
     0
100
AcDbLine
 10
167.91516151
 20
120.5993317417
 30
0.0
 11
167.91516151
 21
118.8968453641
 31
0.0
  0
LINE
  5
1CA
330
1F
100
AcDbEntity
  8
0
  6
HIDDEN
 62
     7
370
     0
100
AcDbLine
 10
171.91516151
 20
84.6193317417
 30
0.0
 11
171.91516151
 21
86.3218181193
 31
0.0
  0
LINE
  5
1CB
330
1F
100
AcDbEntity
  8
0
  6
HIDDEN
 62
     7
370
     0
100
AcDbLine
 10
167.91516151
 20
120.5993317417
 30
0.0
 11
167.91516151
 21
124.453439414
 31
0.0
  0
LINE
  5
1CC
330
1F
100
AcDbEntity
  8
0
  6
HIDDEN
 62
     7
370
     0
100
AcDbLine
 10
171.91516151
 20
84.6193317417
 30
0.0
 11
171.91516151
 21
80.6641834824
 31
0.0
  0
LWPOLYLINE
  5
1CD
330
1F
100
AcDbEntity
  8
0
  6
HIDDEN
 62
     7
370
     0
100
AcDbPolyline
 90
        2
 70
   128
 43
0.0
 10
219.66516151
 20
129.0093317417
 10
219.66516151
 20
129.0093317417
  0
LWPOLYLINE
  5
1CE
330
1F
100
AcDbEntity
  8
0
  6
HIDDEN
 62
     7
370
     0
100
AcDbPolyline
 90
        2
 70
   128
 43
0.0
 10
219.66516151
 20
76.2093317417
 10
219.66516151
 20
76.2093317417
  0
SPLINE
  5
1CF
330
1F
100
AcDbEntity
  8
0
  6
HIDDEN
 62
     7
370
     0
100
AcDbSpline
210
0.0
220
0.0
230
1.0
 70
     8
 71
     3
 72
    10
 73
     6
 74
     0
 42
0.00000001
 43
0.00000001
 40
0.0
 40
0.0
 40
0.0
 40
0.0
 40
0.5
 40
0.5
 40
1.0
 40
1.0
 40
1.0
 40
1.0
 10
162.955116579618
 20
123.4692856339722
 30
0.0
 10
162.8875573246997
 20
123.4015942411624
 30
0.0
 10
162.8239206693632
 20
123.3268870764088
 30
0.0
 10
162.7136999147914
 20
123.1679209439822
 30
0.0
 10
162.6668836215688
 20
123.0835656779742
 30
0.0
 10
162.6393151561407
 20
122.9994510752824
 30
0.0
  0
LINE
  5
1D0
330
1F
100
AcDbEntity
  8
0
  6
HIDDEN
 62
     7
370
     0
100
AcDbLine
 10
162.96516151
 20
120.5993317417
 30
0.0
 11
162.96516151
 21
123.4792695071
 31
0.0
  0
LINE
  5
1D1
330
1F
100
AcDbEntity
  8
0
  6
HIDDEN
 62
     7
370
     0
100
AcDbLine
 10
161.81516151
 20
120.5993317417
 30
0.0
 11
161.81516151
 21
122.3000094882
 31
0.0
  0
SPLINE
  5
1D2
330
1F
100
AcDbEntity
  8
0
  6
HIDDEN
 62
     7
370
     0
100
AcDbSpline
210
0.0
220
0.0
230
1.0
 70
     8
 71
     3
 72
    10
 73
     6
 74
     0
 42
0.00000001
 43
0.00000001
 40
0.0
 40
0.0
 40
0.0
 40
0.0
 40
0.5
 40
0.5
 40
1.0
 40
1.0
 40
1.0
 40
1.0
 10
161.8778248847596
 20
122.2838842864653
 30
0.0
 10
161.8689205956508
 20
122.3296258056785
 30
0.0
 10
161.8524052154578
 20
122.3468166451475
 30
0.0
 10
161.8252972693963
 20
122.3464933682117
 30
0.0
 10
161.8151615100362
 20
122.3286158259153
 30
0.0
 10
161.8151615100362
 20
122.3000094881627
 30
0.0
  0
ELLIPSE
  5
1D3
330
1F
100
AcDbEntity
  8
0
  6
HIDDEN
 62
     7
370
     0
100
AcDbEllipse
 10
157.6477296457
 20
102.6093317417
 30
0.0
 11
20.07002071827051
 21
0.0
 31
0.0
210
0.0
220
0.0
230
1.0
 40
0.8164965809
 41
1.302650465081197
 42
1.361629843993897
  0
LINE
  5
1D4
330
1F
100
AcDbEntity
  8
0
  6
HIDDEN
 62
     7
370
     0
100
AcDbLine
 10
161.81516151
 20
120.5993317417
 30
0.0
 11
161.81516151
 21
118.6392671395
 31
0.0
  0
LINE
  5
1D5
330
1F
100
AcDbEntity
  8
0
  6
HIDDEN
 62
     7
370
     0
100
AcDbLine
 10
162.96516151
 20
120.5993317417
 30
0.0
 11
162.96516151
 21
118.4108221777
 31
0.0
  0
ELLIPSE
  5
1D6
330
1F
100
AcDbEntity
  8
0
  6
HIDDEN
 62
     7
370
     0
100
AcDbEllipse
 10
157.6477296457
 20
102.6093317417
 30
0.0
 11
20.07002071827051
 21
-2.842170943040401E-14
 31
0.0
210
0.0
220
0.0
230
1.0
 40
0.8164965809
 41
4.921555463185703
 42
4.980534842098403
  0
LINE
  5
1D7
330
1F
100
AcDbEntity
  8
0
  6
HIDDEN
 62
     7
370
     0
100
AcDbLine
 10
161.81516151
 20
118.6392671395
 30
0.0
 11
161.81516151
 21
86.5793963439
 31
0.0
  0
LINE
  5
1D8
330
1F
100
AcDbEntity
  8
0
  6
HIDDEN
 62
     7
370
     0
100
AcDbLine
 10
162.96516151
 20
84.6193317417
 30
0.0
 11
162.96516151
 21
86.8078413057
 31
0.0
  0
LINE
  5
1D9
330
1F
100
AcDbEntity
  8
0
  6
HIDDEN
 62
     7
370
     0
100
AcDbLine
 10
161.81516151
 20
84.6193317417
 30
0.0
 11
161.81516151
 21
86.5793963439
 31
0.0
  0
LINE
  5
1DA
330
1F
100
AcDbEntity
  8
0
  6
HIDDEN
 62
     7
370
     0
100
AcDbLine
 10
162.96516151
 20
84.6193317417
 30
0.0
 11
162.96516151
 21
81.8027001832
 31
0.0
  0
SPLINE
  5
1DB
330
1F
100
AcDbEntity
  8
0
  6
HIDDEN
 62
     7
370
     0
100
AcDbSpline
210
0.0
220
0.0
230
1.0
 70
     8
 71
     3
 72
     8
 73
     4
 74
     0
 42
0.00000001
 43
0.00000001
 40
0.0
 40
0.0
 40
0.0
 40
0.0
 40
1.0
 40
1.0
 40
1.0
 40
1.0
 10
162.7540710802353
 20
82.16540943871894
 30
0.0
 10
162.7897847386052
 20
82.04217793345914
 30
0.0
 10
162.8654527775535
 20
81.92123435651214
 30
0.0
 10
162.9551165796266
 20
81.8145153128089
 30
0.0
  0
SPLINE
  5
1DC
330
1F
100
AcDbEntity
  8
0
  6
HIDDEN
 62
     7
370
     0
100
AcDbSpline
210
0.0
220
0.0
230
1.0
 70
     8
 71
     3
 72
    10
 73
     6
 74
     0
 42
0.00000001
 43
0.00000001
 40
0.0
 40
0.0
 40
0.0
 40
0.0
 40
0.5
 40
0.5
 40
1.0
 40
1.0
 40
1.0
 40
1.0
 10
161.8151615100358
 20
82.95617121673166
 30
0.0
 10
161.8151615100357
 20
82.9426546908639
 30
0.0
 10
161.820481070664
 20
82.9384839185066
 30
0.0
 10
161.8336093029456
 20
82.95661496189419
 30
0.0
 10
161.8413019575996
 20
82.97952338695613
 30
0.0
 10
161.8454391256448
 20
83.01924418145771
 30
0.0
  0
LINE
  5
1DD
330
1F
100
AcDbEntity
  8
0
  6
HIDDEN
 62
     7
370
     0
100
AcDbLine
 10
161.81516151
 20
84.6193317417
 30
0.0
 11
161.81516151
 21
82.9561712167
 31
0.0
  0
SPLINE
  5
1DE
330
1F
100
AcDbEntity
  8
0
  6
HIDDEN
 62
     7
370
     0
100
AcDbSpline
210
0.0
220
0.0
230
1.0
 70
     8
 71
     3
 72
    10
 73
     6
 74
     0
 42
0.00000001
 43
0.00000001
 40
0.0
 40
0.0
 40
0.0
 40
0.0
 40
0.5
 40
0.5
 40
1.0
 40
1.0
 40
1.0
 40
1.0
 10
209.8051615100362
 20
129.7289855927203
 30
0.0
 10
209.8051615100362
 20
129.5853732411623
 30
0.0
 10
209.841328785134
 20
129.4423998274437
 30
0.0
 10
209.9770847288879
 20
129.1924072007299
 30
0.0
 10
210.0773544195109
 20
129.0844048914512
 30
0.0
 10
210.1994590417272
 20
129.0093317416845
 30
0.0
  0
LINE
  5
1DF
330
1F
100
AcDbEntity
  8
0
  6
HIDDEN
 62
     7
370
     0
100
AcDbLine
 10
209.80516151
 20
129.7289855927
 30
0.0
 11
209.80516151
 21
75.8049361134
 31
0.0
  0
SPLINE
  5
1E0
330
1F
100
AcDbEntity
  8
0
  6
HIDDEN
 62
     7
370
     0
100
AcDbSpline
210
0.0
220
0.0
230
1.0
 70
     8
 71
     3
 72
    10
 73
     6
 74
     0
 42
0.00000001
 43
0.00000001
 40
0.0
 40
0.0
 40
0.0
 40
0.0
 40
0.5
 40
0.5
 40
1.0
 40
1.0
 40
1.0
 40
1.0
 10
209.8051615100362
 20
75.80493611335521
 30
0.0
 10
209.8051615100362
 20
75.87517247372574
 30
0.0
 10
209.8134441221266
 20
75.94516657522298
 30
0.0
 10
209.846544065185
 20
76.08212583978147
 30
0.0
 10
209.8708814571433
 20
76.14743374903654
 30
0.0
 10
209.9028363123678
 20
76.20933174168326
 30
0.0
  0
SPLINE
  5
1E1
330
1F
100
AcDbEntity
  8
0
  6
HIDDEN
 62
     7
370
     0
100
AcDbSpline
210
0.0
220
0.0
230
1.0
 70
    24
 71
     3
 72
    12
 73
     8
 74
     0
 42
0.00000001
 43
0.00000001
 40
0.0
 40
0.0
 40
0.0
 40
0.0
 40
0.5
 40
0.5
 40
0.75
 40
0.75
 40
1.0
 40
1.0
 40
1.0
 40
1.0
 10
210.1994590417272
 20
129.0093317416845
 30
0.0
 10
210.2425823901607
 20
129.0093317416845
 30
0.0
 10
210.292321977461
 20
129.0093317416845
 30
0.0
 10
210.3888429542829
 20
129.0093317416845
 30
0.0
 10
210.4244080851346
 20
129.0093317416845
 30
0.0
 10
210.5077564157575
 20
129.0093317416845
 30
0.0
 10
210.5562263154478
 20
129.0093317416845
 30
0.0
 10
210.6051615100374
 20
129.0093317416845
 30
0.0
  0
SPLINE
  5
1E2
330
1F
100
AcDbEntity
  8
0
  6
HIDDEN
 62
     7
370
     0
100
AcDbSpline
210
0.0
220
0.0
230
1.0
 70
    24
 71
     3
 72
    14
 73
    10
 74
     0
 42
0.00000001
 43
0.00000001
 40
0.0
 40
0.0
 40
0.0
 40
0.0
 40
0.5
 40
0.5
 40
0.75
 40
0.75
 40
0.875
 40
0.875
 40
1.0
 40
1.0
 40
1.0
 40
1.0
 10
209.9028363123684
 20
76.20933174168454
 30
0.0
 10
209.9500428002082
 20
76.20933174168455
 30
0.0
 10
210.0133828036375
 20
76.20933174168455
 30
0.0
 10
210.1564459098934
 20
76.20933174168454
 30
0.0
 10
210.2125265601644
 20
76.20933174168455
 30
0.0
 10
210.3239619100737
 20
76.20933174168454
 30
0.0
 10
210.3659067007467
 20
76.20933174168454
 30
0.0
 10
210.4709031437669
 20
76.20933174168454
 30
0.0
 10
210.5364670808476
 20
76.20933174168454
 30
0.0
 10
210.6051615100361
 20
76.20933174168454
 30
0.0
  0
LINE
  5
1E3
330
1F
100
AcDbEntity
  8
0
  6
HIDDEN
 62
     7
370
     0
100
AcDbLine
 10
213.62516151
 20
129.7289855927
 30
0.0
 11
213.62516151
 21
75.8049361134
 31
0.0
  0
SPLINE
  5
1E4
330
1F
100
AcDbEntity
  8
0
  6
HIDDEN
 62
     7
370
     0
100
AcDbSpline
210
0.0
220
0.0
230
1.0
 70
     8
 71
     3
 72
    10
 73
     6
 74
     0
 42
0.00000001
 43
0.00000001
 40
0.0
 40
0.0
 40
0.0
 40
0.0
 40
0.5
 40
0.5
 40
1.0
 40
1.0
 40
1.0
 40
1.0
 10
213.2308639783452
 20
129.0093317416846
 30
0.0
 10
213.352176501443
 20
129.0839178879727
 30
0.0
 10
213.4536048636681
 20
129.1927421991241
 30
0.0
 10
213.5895484299282
 20
129.4437627177458
 30
0.0
 10
213.6251615100362
 20
129.5863454108851
 30
0.0
 10
213.6251615100362
 20
129.7289855927204
 30
0.0
  0
SPLINE
  5
1E5
330
1F
100
AcDbEntity
  8
0
  6
HIDDEN
 62
     7
370
     0
100
AcDbSpline
210
0.0
220
0.0
230
1.0
 70
     8
 71
     3
 72
    10
 73
     6
 74
     0
 42
0.00000001
 43
0.00000001
 40
0.0
 40
0.0
 40
0.0
 40
0.0
 40
0.5
 40
0.5
 40
1.0
 40
1.0
 40
1.0
 40
1.0
 10
213.5274867077039
 20
76.20933174168454
 30
0.0
 10
213.5596418953259
 20
76.1470456961684
 30
0.0
 10
213.5842981265201
 20
76.08051527129918
 30
0.0
 10
213.6171108834457
 20
75.94365664093668
 30
0.0
 10
213.6251615100362
 20
75.87459904575833
 30
0.0
 10
213.6251615100362
 20
75.80493611335498
 30
0.0
  0
SPLINE
  5
1E6
330
1F
100
AcDbEntity
  8
0
  6
HIDDEN
 62
     7
370
     0
100
AcDbSpline
210
0.0
220
0.0
230
1.0
 70
    24
 71
     3
 72
    12
 73
     8
 74
     0
 42
0.00000001
 43
0.00000001
 40
0.0
 40
0.0
 40
0.0
 40
0.0
 40
0.2499999999999983
 40
0.2499999999999983
 40
0.4999999999999967
 40
0.4999999999999967
 40
1.0
 40
1.0
 40
1.0
 40
1.0
 10
212.8251615100362
 20
129.0093317416845
 30
0.0
 10
212.8746966162542
 20
129.0093317416845
 30
0.0
 10
212.9231015048556
 20
129.0093317416845
 30
0.0
 10
213.0059880540333
 20
129.0093317416845
 30
0.0
 10
213.0425027755016
 20
129.0093317416845
 30
0.0
 10
213.1388356138563
 20
129.0093317416845
 30
0.0
 10
213.1875881615189
 20
129.0093317416845
 30
0.0
 10
213.2308639783496
 20
129.0093317416845
 30
0.0
  0
SPLINE
  5
1E7
330
1F
100
AcDbEntity
  8
0
  6
HIDDEN
 62
     7
370
     0
100
AcDbSpline
210
0.0
220
0.0
230
1.0
 70
    24
 71
     3
 72
    14
 73
    10
 74
     0
 42
0.00000001
 43
0.00000001
 40
0.0
 40
0.0
 40
0.0
 40
0.0
 40
0.1249999999999997
 40
0.1249999999999997
 40
0.2499999999999993
 40
0.2499999999999993
 40
0.4999999999999996
 40
0.4999999999999996
 40
1.0
 40
1.0
 40
1.0
 40
1.0
 10
212.8251615100362
 20
76.20933174168454
 30
0.0
 10
212.8942581423802
 20
76.20933174168455
 30
0.0
 10
212.9592513079881
 20
76.20933174168454
 30
0.0
 10
213.0635725066332
 20
76.20933174168454
 30
0.0
 10
213.1063528807417
 20
76.20933174168455
 30
0.0
 10
213.2186905403879
 20
76.20933174168454
 30
0.0
 10
213.2737377225303
 20
76.20933174168455
 30
0.0
 10
213.4176144963004
 20
76.20933174168454
 30
0.0
 10
213.4806438095755
 20
76.20933174168455
 30
0.0
 10
213.5274867077039
 20
76.20933174168454
 30
0.0
  0
LINE
  5
1E8
330
1F
100
AcDbEntity
  8
0
  6
HIDDEN
 62
     7
370
     0
100
AcDbLine
 10
210.60516151
 20
129.0093317417
 30
0.0
 11
212.82516151
 21
129.0093317417
 31
0.0
  0
LINE
  5
1E9
330
1F
100
AcDbEntity
  8
0
  6
HIDDEN
 62
     7
370
     0
100
AcDbLine
 10
210.60516151
 20
76.2093317417
 30
0.0
 11
212.82516151
 21
76.2093317417
 31
0.0
  0
LINE
  5
1EA
330
1F
100
AcDbEntity
  8
0
  6
HIDDEN
 62
     7
370
     0
100
AcDbLine
 10
213.62516151
 20
129.7289855927
 30
0.0
 11
213.62516151
 21
130.4145659329
 31
0.0
  0
SPLINE
  5
1EB
330
1F
100
AcDbEntity
  8
0
  6
HIDDEN
 62
     7
370
     0
100
AcDbSpline
210
0.0
220
0.0
230
1.0
 70
     8
 71
     3
 72
     8
 73
     4
 74
     0
 42
0.00000001
 43
0.00000001
 40
0.0
 40
0.0
 40
0.0
 40
0.0
 40
1.0
 40
1.0
 40
1.0
 40
1.0
 10
213.6251615100362
 20
130.4145659328562
 30
0.0
 10
214.1178716068819
 20
131.3025849309825
 30
0.0
 10
214.6119543121609
 20
132.1898475666685
 30
0.0
 10
215.1070943415252
 20
133.0765272148488
 30
0.0
  0
SPLINE
  5
1EC
330
1F
100
AcDbEntity
  8
0
  6
HIDDEN
 62
     7
370
     0
100
AcDbSpline
210
0.0
220
0.0
230
1.0
 70
     8
 71
     3
 72
    12
 73
     8
 74
     0
 42
0.00000001
 43
0.00000001
 40
0.0
 40
0.0
 40
0.0
 40
0.0
 40
0.2500000000000038
 40
0.2500000000000038
 40
0.5000000000000077
 40
0.5000000000000077
 40
1.0
 40
1.0
 40
1.0
 40
1.0
 10
219.0651615100362
 20
133.0765272148488
 30
0.0
 10
219.1446544590844
 20
133.0765272148488
 30
0.0
 10
219.22573796044
 20
133.059524464888
 30
0.0
 10
219.3721683575778
 20
132.9954639237763
 30
0.0
 10
219.4387169674515
 20
132.9483053081377
 30
0.0
 10
219.6030068414252
 20
132.7750832754455
 30
0.0
 10
219.6651615100363
 20
132.6149741852112
 30
0.0
 10
219.6651615100362
 20
132.4557720654478
 30
0.0
  0
LINE
  5
1ED
330
1F
100
AcDbEntity
  8
0
  6
HIDDEN
 62
     7
370
     0
100
AcDbLine
 10
215.1070943415
 20
133.0765272148
 30
0.0
 11
219.06516151
 21
133.0765272148
 31
0.0
  0
LINE
  5
1EE
330
1F
100
AcDbEntity
  8
0
  6
HIDDEN
 62
     7
370
     0
100
AcDbLine
 10
219.66516151
 20
132.4557720654
 30
0.0
 11
219.66516151
 21
129.0093317417
 31
0.0
  0
LINE
  5
1EF
330
1F
100
AcDbEntity
  8
0
  6
HIDDEN
 62
     7
370
     0
100
AcDbLine
 10
213.2308639783
 20
129.0093317417
 30
0.0
 11
219.66516151
 21
129.0093317417
 31
0.0
  0
LINE
  5
1F0
330
1F
100
AcDbEntity
  8
0
  6
HIDDEN
 62
     7
370
     0
100
AcDbLine
 10
209.80516151
 20
130.4145659329
 30
0.0
 11
209.80516151
 21
129.7289855927
 31
0.0
  0
SPLINE
  5
1F1
330
1F
100
AcDbEntity
  8
0
  6
HIDDEN
 62
     7
370
     0
100
AcDbSpline
210
0.0
220
0.0
230
1.0
 70
     8
 71
     3
 72
     8
 73
     4
 74
     0
 42
0.00000001
 43
0.00000001
 40
0.0
 40
0.0
 40
0.0
 40
0.0
 40
1.0
 40
1.0
 40
1.0
 40
1.0
 10
208.3232286785471
 20
133.0765272148488
 30
0.0
 10
208.8183687079114
 20
132.1898475666685
 30
0.0
 10
209.3124514131904
 20
131.3025849309825
 30
0.0
 10
209.8051615100362
 20
130.4145659328562
 30
0.0
  0
LINE
  5
1F2
330
1F
100
AcDbEntity
  8
0
  6
HIDDEN
 62
     7
370
     0
100
AcDbLine
 10
206.66516151
 20
129.0093317417
 30
0.0
 11
210.1994590417
 21
129.0093317417
 31
0.0
  0
SPLINE
  5
1F3
330
1F
100
AcDbEntity
  8
0
  6
HIDDEN
 62
     7
370
     0
100
AcDbSpline
210
0.0
220
0.0
230
1.0
 70
     8
 71
     3
 72
    12
 73
     8
 74
     0
 42
0.00000001
 43
0.00000001
 40
0.0
 40
0.0
 40
0.0
 40
0.0
 40
0.2499999999999999
 40
0.2499999999999999
 40
0.4999999999999998
 40
0.4999999999999998
 40
1.0
 40
1.0
 40
1.0
 40
1.0
 10
219.0651615100362
 20
72.42241404543739
 30
0.0
 10
219.1450425147833
 20
72.42241404543739
 30
0.0
 10
219.2256366450539
 20
72.43953113170326
 30
0.0
 10
219.3722520908988
 20
72.50426724317835
 30
0.0
 10
219.4387532836428
 20
72.55172448605869
 30
0.0
 10
219.60448818478
 20
72.72854892859817
 30
0.0
 10
219.6651615100362
 20
72.88882543580388
 30
0.0
 10
219.6651615100362
 20
73.04905434109166
 30
0.0
  0
LINE
  5
1F4
330
1F
100
AcDbEntity
  8
0
  6
HIDDEN
 62
     7
370
     0
100
AcDbLine
 10
219.66516151
 20
132.4557720654
 30
0.0
 11
219.66516151
 21
73.0490543411
 31
0.0
  0
LINE
  5
1F5
330
1F
100
AcDbEntity
  8
0
  6
HIDDEN
 62
     7
370
     0
100
AcDbLine
 10
209.80516151
 20
130.4145659329
 30
0.0
 11
209.80516151
 21
75.1114945826
 31
0.0
  0
LINE
  5
1F6
330
1F
100
AcDbEntity
  8
0
  6
HIDDEN
 62
     7
370
     0
100
AcDbLine
 10
213.62516151
 20
130.4145659329
 30
0.0
 11
213.62516151
 21
75.1114945826
 31
0.0
  0
LINE
  5
1F7
330
1F
100
AcDbEntity
  8
0
  6
HIDDEN
 62
     7
370
     0
100
AcDbLine
 10
215.1070943415
 20
133.0765272148
 30
0.0
 11
215.1070943415
 21
72.4224140454
 31
0.0
  0
SPLINE
  5
1F8
330
1F
100
AcDbEntity
  8
0
  6
HIDDEN
 62
     7
370
     0
100
AcDbSpline
210
0.0
220
0.0
230
1.0
 70
     8
 71
     3
 72
    26
 73
    22
 74
     0
 42
0.00000001
 43
0.00000001
 40
0.0
 40
0.0
 40
0.0
 40
0.0
 40
0.2499999999999852
 40
0.2499999999999852
 40
0.3749999999999783
 40
0.3749999999999783
 40
0.4374999999999766
 40
0.4374999999999766
 40
0.468749999999977
 40
0.468749999999977
 40
0.4999999999999774
 40
0.4999999999999774
 40
0.5312499999999777
 40
0.5312499999999777
 40
0.5624999999999781
 40
0.5624999999999781
 40
0.6249999999999808
 40
0.6249999999999808
 40
0.7499999999999863
 40
0.7499999999999863
 40
1.0
 40
1.0
 40
1.0
 40
1.0
 10
162.6393151561407
 20
122.9994510752824
 30
0.0
 10
162.6007146332722
 20
122.8816763789269
 30
0.0
 10
162.554417630718
 20
122.757286692765
 30
0.0
 10
162.460478282284
 20
122.5520673604115
 30
0.0
 10
162.4251668153706
 20
122.4804944939651
 30
0.0
 10
162.3589868396249
 20
122.3645412613647
 30
0.0
 10
162.3344484729567
 20
122.3239567265545
 30
0.0
 10
162.2910757274029
 20
122.2598150446827
 30
0.0
 10
162.2755673259777
 20
122.2379486193977
 30
0.0
 10
162.2405246813907
 20
122.1923543510544
 30
0.0
 10
162.2209743906709
 20
122.168684060087
 30
0.0
 10
162.1790471103003
 20
122.1240675007471
 30
0.0
 10
162.1563950000687
 20
122.1031874882292
 30
0.0
 10
162.1154212859821
 20
122.0723140744784
 30
0.0
 10
162.0978219860866
 20
122.0624752046459
 30
0.0
 10
162.0531950002305
 20
122.0434855889498
 30
0.0
 10
162.0326357775772
 20
122.0431612642963
 30
0.0
 10
161.9815103380805
 20
122.0523847051725
 30
0.0
 10
161.9605989250919
 20
122.0736316013895
 30
0.0
 10
161.909149017531
 20
122.1476004802202
 30
0.0
 10
161.8914837182264
 20
122.213718573535
 30
0.0
 10
161.8778248847596
 20
122.2838842864653
 30
0.0
  0
SPLINE
  5
1F9
330
1F
100
AcDbEntity
  8
0
  6
HIDDEN
 62
     7
370
     0
100
AcDbSpline
210
0.0
220
0.0
230
1.0
 70
     8
 71
     3
 72
    26
 73
    22
 74
     0
 42
0.00000001
 43
0.00000001
 40
0.0
 40
0.0
 40
0.0
 40
0.0
 40
0.24999999999999
 40
0.24999999999999
 40
0.3749999999999855
 40
0.3749999999999855
 40
0.4374999999999828
 40
0.4374999999999828
 40
0.4687499999999823
 40
0.4687499999999823
 40
0.4999999999999817
 40
0.4999999999999817
 40
0.5312499999999811
 40
0.5312499999999811
 40
0.5624999999999805
 40
0.5624999999999805
 40
0.6249999999999835
 40
0.6249999999999835
 40
0.7499999999999892
 40
0.7499999999999892
 40
1.0
 40
1.0
 40
1.0
 40
1.0
 10
161.8454391256448
 20
83.01924418145771
 30
0.0
 10
161.8561631590373
 20
83.1222052219467
 30
0.0
 10
161.8708961496319
 20
83.22120391142778
 30
0.0
 10
161.9232497088789
 20
83.3397995914929
 30
0.0
 10
161.9449549915985
 20
83.37550989144168
 30
0.0
 10
162.003810498964
 20
83.40048932426342
 30
0.0
 10
162.0272727328111
 20
83.40487477202697
 30
0.0
 10
162.0833941094718
 20
83.3851219385828
 30
0.0
 10
162.1061814196024
 20
83.3734655477724
 30
0.0
 10
162.1614339721336
 20
83.33168519833511
 30
0.0
 10
162.1928402048744
 20
83.30141361095907
 30
0.0
 10
162.2477740254949
 20
83.2397712120451
 30
0.0
 10
162.2721978436944
 20
83.20832955973826
 30
0.0
 10
162.3156129496816
 20
83.14859472232452
 30
0.0
 10
162.3351875122498
 20
83.11942971245188
 30
0.0
 10
162.3888201961978
 20
83.03559443671882
 30
0.0
 10
162.41859754425
 20
82.98356181874261
 30
0.0
 10
162.5001316042228
 20
82.83249614477525
 30
0.0
 10
162.5433743988968
 20
82.73930510290454
 30
0.0
 10
162.6564289885515
 20
82.47491856391018
 30
0.0
 10
162.7104399860307
 20
82.31596039486033
 30
0.0
 10
162.7540710802347
 20
82.1654094387195
 30
0.0
  0
LINE
  5
1FA
330
1F
100
AcDbEntity
  8
0
  6
HIDDEN
 62
     7
370
     0
100
AcDbLine
 10
161.81516151
 20
122.3000094882
 30
0.0
 11
161.81516151
 21
82.9561712167
 31
0.0
  0
LINE
  5
1FB
330
1F
100
AcDbEntity
  8
0
  6
HIDDEN
 62
     7
370
     0
100
AcDbLine
 10
209.80516151
 20
75.1114945826
 30
0.0
 11
209.80516151
 21
75.8049361134
 31
0.0
  0
SPLINE
  5
1FC
330
1F
100
AcDbEntity
  8
0
  6
HIDDEN
 62
     7
370
     0
100
AcDbSpline
210
0.0
220
0.0
230
1.0
 70
     8
 71
     3
 72
     8
 73
     4
 74
     0
 42
0.00000001
 43
0.00000001
 40
0.0
 40
0.0
 40
0.0
 40
0.0
 40
1.0
 40
1.0
 40
1.0
 40
1.0
 10
208.3232286785471
 20
72.4224140454374
 30
0.0
 10
208.8187083392129
 20
73.31794013337075
 30
0.0
 10
209.312822387255
 20
74.21422454842299
 30
0.0
 10
209.8051615100362
 20
75.11149458262969
 30
0.0
  0
LINE
  5
1FD
330
1F
100
AcDbEntity
  8
0
  6
HIDDEN
 62
     7
370
     0
100
AcDbLine
 10
206.66516151
 20
76.2093317417
 30
0.0
 11
209.9028363124
 21
76.2093317417
 31
0.0
  0
SPLINE
  5
1FE
330
1F
100
AcDbEntity
  8
0
  6
HIDDEN
 62
     7
370
     0
100
AcDbSpline
210
0.0
220
0.0
230
1.0
 70
     8
 71
     3
 72
     8
 73
     4
 74
     0
 42
0.00000001
 43
0.00000001
 40
0.0
 40
0.0
 40
0.0
 40
0.0
 40
1.0
 40
1.0
 40
1.0
 40
1.0
 10
213.6251615100362
 20
75.11149458262967
 30
0.0
 10
214.1175006328174
 20
74.21422454842298
 30
0.0
 10
214.6116146808595
 20
73.31794013337074
 30
0.0
 10
215.1070943415252
 20
72.42241404543739
 30
0.0
  0
LINE
  5
1FF
330
1F
100
AcDbEntity
  8
0
  6
HIDDEN
 62
     7
370
     0
100
AcDbLine
 10
213.62516151
 20
75.8049361134
 30
0.0
 11
213.62516151
 21
75.1114945826
 31
0.0
  0
LINE
  5
200
330
1F
100
AcDbEntity
  8
0
  6
HIDDEN
 62
     7
370
     0
100
AcDbLine
 10
215.1070943415
 20
72.4224140454
 30
0.0
 11
219.06516151
 21
72.4224140454
 31
0.0
  0
LINE
  5
201
330
1F
100
AcDbEntity
  8
0
  6
HIDDEN
 62
     7
370
     0
100
AcDbLine
 10
219.66516151
 20
73.0490543411
 30
0.0
 11
219.66516151
 21
76.2093317417
 31
0.0
  0
LINE
  5
202
330
1F
100
AcDbEntity
  8
0
  6
HIDDEN
 62
     7
370
     0
100
AcDbLine
 10
213.5274867077
 20
76.2093317417
 30
0.0
 11
219.66516151
 21
76.2093317417
 31
0.0
  0
CIRCLE
  5
203
330
1F
100
AcDbEntity
  8
0
  6
HIDDEN
 62
     7
370
     0
100
AcDbCircle
 10
224.6916421839
 20
104.4013277982
 30
0.0
 40
2.480442876674404
  0
CIRCLE
  5
204
330
1F
100
AcDbEntity
  8
0
  6
HIDDEN
 62
     7
370
     0
100
AcDbCircle
 10
200.71516151
 20
102.6093317417
 30
0.0
 40
5.0
  0
SPLINE
  5
205
330
1F
100
AcDbEntity
  8
0
  6
HIDDEN
 62
     7
370
     0
100
AcDbSpline
210
0.0
220
0.0
230
1.0
 70
     8
 71
     3
 72
     8
 73
     4
 74
     0
 42
0.00000001
 43
0.00000001
 40
0.0
 40
0.0
 40
0.0
 40
0.0
 40
1.0
 40
1.0
 40
1.0
 40
1.0
 10
238.1027942079294
 20
119.3978584103419
 30
0.0
 10
237.8204256125009
 20
119.212423126816
 30
0.0
 10
237.5214113647986
 20
119.0654625779246
 30
0.0
 10
237.2058325002578
 20
118.9567894584889
 30
0.0
  0
LINE
  5
206
330
1F
100
AcDbEntity
  8
0
  6
HIDDEN
 62
     7
370
     0
100
AcDbLine
 10
252.2155358749
 20
128.5429697509
 30
0.0
 11
252.0890355352
 21
102.6093317417
 31
0.0
  0
LINE
  5
207
330
1F
100
AcDbEntity
  8
0
  6
HIDDEN
 62
     7
370
     0
100
AcDbLine
 10
193.71516151
 20
77.2854078206
 30
0.0
 11
193.8093223513
 21
77.9553970194
 31
0.0
  0
LINE
  5
208
330
1F
100
AcDbEntity
  8
0
  6
HIDDEN
 62
     7
370
     0
100
AcDbLine
 10
193.8093223513
 20
127.263266464
 30
0.0
 11
193.71516151
 21
127.9332556628
 31
0.0
  0
ARC
  5
209
330
1F
100
AcDbEntity
  8
0
  6
HIDDEN
 62
     7
370
     0
100
AcDbCircle
 10
193.21516151
 20
78.03890088
 30
0.0
 40
0.5999999999999943
100
AcDbArc
 50
352.0
 51
0.0
  0
ARC
  5
20A
330
1F
100
AcDbEntity
  8
0
  6
HIDDEN
 62
     7
370
     0
100
AcDbCircle
 10
193.21516151
 20
78.03890088
 30
0.0
 40
0.6000000000000019
100
AcDbArc
 50
0.0
 51
33.5573097619
  0
ARC
  5
20B
330
1F
100
AcDbEntity
  8
0
  6
HIDDEN
 62
     7
370
     0
100
AcDbCircle
 10
193.21516151
 20
127.1797626034
 30
0.0
 40
0.5999999999999729
100
AcDbArc
 50
348.75
 51
8.0
  0
LWPOLYLINE
  5
20C
330
1F
100
AcDbEntity
  8
0
  6
HIDDEN
 62
     7
370
     0
100
AcDbPolyline
 90
        3
 70
   128
 43
0.0
 10
193.8036326783
 20
127.0627084102
 10
193.7694892295
 20
126.950152544
 10
193.71516151
 20
126.8481001244
  0
LINE
  5
20D
330
1F
100
AcDbEntity
  8
0
  6
HIDDEN
 62
     7
370
     0
100
AcDbLine
 10
193.81516151
 20
78.03890088
 30
0.0
 11
193.81516151
 21
127.1797626034
 31
0.0
  0
LINE
  5
20E
330
1F
100
AcDbEntity
  8
0
  6
HIDDEN
 62
     7
370
     0
100
AcDbLine
 10
193.81516151
 20
78.03890088
 30
0.0
 11
193.81516151
 21
127.1797626034
 31
0.0
  0
LINE
  5
20F
330
1F
100
AcDbEntity
  8
0
  6
HIDDEN
 62
     7
370
     0
100
AcDbLine
 10
227.612823164
 20
114.2498793421
 30
0.0
 11
214.7171199254
 21
101.2696219361
 31
0.0
  0
LINE
  5
210
330
1F
100
AcDbEntity
  8
0
  6
HIDDEN
 62
     7
370
     0
100
AcDbLine
 10
219.2629214296
 20
99.8860278257
 30
0.0
 11
227.3190683112
 21
107.994997014
 31
0.0
  0
LINE
  5
211
330
1F
100
AcDbEntity
  8
0
  6
HIDDEN
 62
     7
370
     0
100
AcDbLine
 10
217.6966569917
 20
98.3094937512
 30
0.0
 11
218.1961812843
 21
98.81229331
 31
0.0
  0
LINE
  5
212
330
1F
100
AcDbEntity
  8
0
  6
HIDDEN
 62
     7
370
     0
100
AcDbLine
 10
214.7073105117
 20
100.7675208548
 30
0.0
 11
215.3625745748
 21
98.9397079875
 31
0.0
  0
LINE
  5
213
330
1F
100
AcDbEntity
  8
0
  6
HIDDEN
 62
     7
370
     0
100
AcDbLine
 10
215.3625745748
 20
98.9397079875
 30
0.0
 11
217.19463074
 21
98.2964031781
 31
0.0
  0
LINE
  5
214
330
1F
100
AcDbEntity
  8
0
  6
HIDDEN
 62
     7
370
     0
100
AcDbLine
 10
218.0616177768
 20
98.7498223458
 30
0.0
 11
221.4254251638
 21
100.4125011377
 31
0.0
  0
LINE
  5
215
330
1F
100
AcDbEntity
  8
0
  6
HIDDEN
 62
     7
370
     0
100
AcDbLine
 10
217.9632838227
 20
98.701217369
 30
0.0
 11
218.0616177768
 21
98.7498223458
 31
0.0
  0
LINE
  5
216
330
1F
100
AcDbEntity
  8
0
  6
HIDDEN
 62
     7
370
     0
100
AcDbLine
 10
216.2070779054
 20
102.518208579
 30
0.0
 11
216.1022214306
 21
102.4663796195
 31
0.0
  0
LINE
  5
217
330
1F
100
AcDbEntity
  8
0
  6
HIDDEN
 62
     7
370
     0
100
AcDbLine
 10
219.5077213036
 20
104.1496663727
 30
0.0
 11
216.5983348752
 21
102.711600944
 31
0.0
  0
LINE
  5
218
330
1F
100
AcDbEntity
  8
0
  6
HIDDEN
 62
     7
370
     0
100
AcDbLine
 10
176.7975970753
 20
82.6093317417
 30
0.0
 11
180.9892689635
 21
82.6093317417
 31
0.0
  0
LINE
  5
219
330
1F
100
AcDbEntity
  8
0
  6
HIDDEN
 62
     7
370
     0
100
AcDbLine
 10
180.9892689635
 20
122.6093317417
 30
0.0
 11
176.7975970753
 21
122.6093317417
 31
0.0
  0
ARC
  5
21A
330
1F
100
AcDbEntity
  8
0
  6
HIDDEN
 62
     7
370
     0
100
AcDbCircle
 10
176.7975970753
 20
83.2093317417
 30
0.0
 40
0.6000000000000085
100
AcDbArc
 50
210.0
 51
270.0
  0
ARC
  5
21B
330
1F
100
AcDbEntity
  8
0
  6
HIDDEN
 62
     7
370
     0
100
AcDbCircle
 10
176.7975970753
 20
122.0093317417
 30
0.0
 40
0.5999999999999943
100
AcDbArc
 50
90.0
 51
150.0
  0
ARC
  5
21C
330
1F
100
AcDbEntity
  8
0
  6
HIDDEN
 62
     7
370
     0
100
AcDbCircle
 10
187.4701635116
 20
90.6093317417
 30
0.0
 40
8.000000000000016
100
AcDbArc
 50
276.8733152944
 51
321.3178125465
  0
ARC
  5
21D
330
1F
100
AcDbEntity
  8
0
  6
HIDDEN
 62
     7
370
     0
100
AcDbCircle
 10
187.4701635116
 20
114.6093317417
 30
0.0
 40
8.000000000000016
100
AcDbArc
 50
38.6821874535
 51
83.11781863
  0
LINE
  5
21E
330
1F
100
AcDbEntity
  8
0
  6
HIDDEN
 62
     7
370
     0
100
AcDbLine
 10
176.2779818331
 20
122.3093317417
 30
0.0
 11
174.7191361063
 21
119.6093317417
 31
0.0
  0
LINE
  5
21F
330
1F
100
AcDbEntity
  8
0
  6
HIDDEN
 62
     7
370
     0
100
AcDbLine
 10
174.7191361063
 20
85.6093317417
 30
0.0
 11
176.2779818331
 21
82.9093317417
 31
0.0
  0
ARC
  5
220
330
1F
100
AcDbEntity
  8
0
  6
HIDDEN
 62
     7
370
     0
100
AcDbCircle
 10
202.16516151
 20
86.8843317417
 30
0.0
 40
1.500000000000001
100
AcDbArc
 50
238.2116693829
 51
0.0
  0
ARC
  5
221
330
1F
100
AcDbEntity
  8
0
  6
HIDDEN
 62
     7
370
     0
100
AcDbCircle
 10
202.16516151
 20
118.3343317417
 30
0.0
 40
1.5
100
AcDbArc
 50
0.0
 51
121.7883306171
  0
LINE
  5
222
330
1F
100
AcDbEntity
  8
0
  6
HIDDEN
 62
     7
370
     0
100
AcDbLine
 10
193.71516151
 20
85.6093317417
 30
0.0
 11
201.3749874786
 21
85.6093317417
 31
0.0
  0
LINE
  5
223
330
1F
100
AcDbEntity
  8
0
  6
HIDDEN
 62
     7
370
     0
100
AcDbLine
 10
201.3749874786
 20
119.6093317417
 30
0.0
 11
193.71516151
 21
119.6093317417
 31
0.0
  0
LINE
  5
224
330
1F
100
AcDbEntity
  8
0
  6
HIDDEN
 62
     7
370
     0
100
AcDbLine
 10
171.91516151
 20
85.6093317417
 30
0.0
 11
174.7191361063
 21
85.6093317417
 31
0.0
  0
LINE
  5
225
330
1F
100
AcDbEntity
  8
0
  6
HIDDEN
 62
     7
370
     0
100
AcDbLine
 10
174.7191361063
 20
119.6093317417
 30
0.0
 11
167.91516151
 21
119.6093317417
 31
0.0
  0
LINE
  5
226
330
1F
100
AcDbEntity
  8
0
  6
HIDDEN
 62
     7
370
     0
100
AcDbLine
 10
213.01516151
 20
93.1093317417
 30
0.0
 11
215.51516151
 21
93.1093317417
 31
0.0
  0
LINE
  5
227
330
1F
100
AcDbEntity
  8
0
  6
HIDDEN
 62
     7
370
     0
100
AcDbLine
 10
215.51516151
 20
112.1093317417
 30
0.0
 11
213.01516151
 21
112.1093317417
 31
0.0
  0
LINE
  5
228
330
1F
100
AcDbEntity
  8
0
  6
HIDDEN
 62
     7
370
     0
100
AcDbLine
 10
203.66516151
 20
93.6093317417
 30
0.0
 11
204.16516151
 21
94.1093317417
 31
0.0
  0
LINE
  5
229
330
1F
100
AcDbEntity
  8
0
  6
HIDDEN
 62
     7
370
     0
100
AcDbLine
 10
204.16516151
 20
111.1093317417
 30
0.0
 11
203.66516151
 21
111.6093317417
 31
0.0
  0
LINE
  5
22A
330
1F
100
AcDbEntity
  8
0
  6
HIDDEN
 62
     7
370
     0
100
AcDbLine
 10
204.16516151
 20
94.1093317417
 30
0.0
 11
213.01516151
 21
94.1093317417
 31
0.0
  0
LINE
  5
22B
330
1F
100
AcDbEntity
  8
0
  6
HIDDEN
 62
     7
370
     0
100
AcDbLine
 10
213.01516151
 20
111.1093317417
 30
0.0
 11
204.16516151
 21
111.1093317417
 31
0.0
  0
LINE
  5
22C
330
1F
100
AcDbEntity
  8
0
  6
HIDDEN
 62
     7
370
     0
100
AcDbLine
 10
198.66516151
 20
134.1093317417
 30
0.0
 11
198.66516151
 21
129.0093317417
 31
0.0
  0
LINE
  5
22D
330
1F
100
AcDbEntity
  8
0
  6
HIDDEN
 62
     7
370
     0
100
AcDbLine
 10
188.8995993405
 20
78.5299604081
 30
0.0
 11
188.465167191
 21
79.0090264272
 31
0.0
  0
LINE
  5
22E
330
1F
100
AcDbEntity
  8
0
  6
HIDDEN
 62
     7
370
     0
100
AcDbLine
 10
180.9651638659
 20
79.4307143864
 30
0.0
 11
180.4827301226
 21
78.9516484109
 31
0.0
  0
LINE
  5
22F
330
1F
100
AcDbEntity
  8
0
  6
HIDDEN
 62
     7
370
     0
100
AcDbLine
 10
180.4826081944
 20
126.267009782
 30
0.0
 11
180.9651589453
 21
125.7878895241
 31
0.0
  0
LINE
  5
230
330
1F
100
AcDbEntity
  8
0
  6
HIDDEN
 62
     7
370
     0
100
AcDbLine
 10
188.465161392
 20
126.2095873018
 30
0.0
 11
188.8997037824
 21
126.6887075523
 31
0.0
  0
LINE
  5
231
330
1F
100
AcDbEntity
  8
0
  6
HIDDEN
 62
     7
370
     0
100
AcDbLine
 10
223.81516151
 20
98.4093317417
 30
0.0
 11
226.33877611
 21
102.6093317417
 31
0.0
  0
LINE
  5
232
330
1F
100
AcDbEntity
  8
0
  6
HIDDEN
 62
     7
370
     0
100
AcDbLine
 10
226.33877611
 20
102.6093317417
 30
0.0
 11
223.81516151
 21
106.8093317417
 31
0.0
  0
LINE
  5
233
330
1F
100
AcDbEntity
  8
0
  6
HIDDEN
 62
     7
370
     0
100
AcDbLine
 10
215.51516151
 20
98.4093317417
 30
0.0
 11
223.81516151
 21
98.4093317417
 31
0.0
  0
LINE
  5
234
330
1F
100
AcDbEntity
  8
0
  6
HIDDEN
 62
     7
370
     0
100
AcDbLine
 10
223.81516151
 20
106.8093317417
 30
0.0
 11
215.51516151
 21
106.8093317417
 31
0.0
  0
LINE
  5
235
330
1F
100
AcDbEntity
  8
0
  6
HIDDEN
 62
     7
370
     0
100
AcDbLine
 10
188.46516151
 20
79.0095103289
 30
0.0
 11
188.46516151
 21
82.6739314034
 31
0.0
  0
LINE
  5
236
330
1F
100
AcDbEntity
  8
0
  6
HIDDEN
 62
     7
370
     0
100
AcDbLine
 10
180.96516151
 20
82.6137095097
 30
0.0
 11
180.96516151
 21
79.431037624
 31
0.0
  0
LINE
  5
237
330
1F
100
AcDbEntity
  8
0
  6
HIDDEN
 62
     7
370
     0
100
AcDbLine
 10
188.46516151
 20
122.5447320799
 30
0.0
 11
188.46516151
 21
126.2092959957
 31
0.0
  0
LINE
  5
238
330
1F
100
AcDbEntity
  8
0
  6
HIDDEN
 62
     7
370
     0
100
AcDbLine
 10
180.96516151
 20
125.787745745
 30
0.0
 11
180.96516151
 21
122.6049539736
 31
0.0
  0
LINE
  5
239
330
1F
100
AcDbEntity
  8
0
  6
HIDDEN
 62
     7
370
     0
100
AcDbLine
 10
249.1467462697
 20
139.3939578893
 30
0.0
 11
248.8753897461
 21
139.25402226
 31
0.0
  0
LINE
  5
23A
330
1F
100
AcDbEntity
  8
0
  6
HIDDEN
 62
     7
370
     0
100
AcDbLine
 10
239.4010162652
 20
128.6957545011
 30
0.0
 11
239.2266250808
 21
128.5217881249
 31
0.0
  0
LINE
  5
23B
330
1F
100
AcDbEntity
  8
0
  6
HIDDEN
 62
     7
370
     0
100
AcDbLine
 10
222.7537588163
 20
101.069076244
 30
0.0
 11
225.5620682995
 21
102.4571808772
 31
0.0
  0
LINE
  5
23C
330
1F
100
AcDbEntity
  8
0
  6
HIDDEN
 62
     7
370
     0
100
AcDbLine
 10
223.7010059074
 20
106.2223431277
 30
0.0
 11
220.8350576262
 21
104.805748514
 31
0.0
  0
LINE
  5
23D
330
1F
100
AcDbEntity
  8
0
  6
HIDDEN
 62
     7
370
     0
100
AcDbLine
 10
251.4509696313
 20
137.7298395022
 30
0.0
 11
250.840600486
 21
137.1209571855
 31
0.0
  0
LINE
  5
23E
330
1F
100
AcDbEntity
  8
0
  6
HIDDEN
 62
     7
370
     0
100
AcDbLine
 10
253.1712055789
 20
134.7846609925
 30
0.0
 11
253.7815747241
 21
135.3935433092
 31
0.0
  0
ARC
  5
23F
330
1F
100
AcDbEntity
  8
0
  6
HIDDEN
 62
     7
370
     0
100
AcDbCircle
 10
166.51516151
 20
124.8793317417
 30
0.0
 40
1.399999999999991
100
AcDbArc
 50
270.0
 51
301.7485287426
  0
ARC
  5
240
330
1F
100
AcDbEntity
  8
0
  6
HIDDEN
 62
     7
370
     0
100
AcDbCircle
 10
170.51516151
 20
80.3968317417
 30
0.0
 40
1.400000000000005
100
AcDbArc
 50
37.6443616934
 51
90.0
  0
LINE
  5
241
330
1F
100
AcDbEntity
  8
0
  6
HIDDEN
 62
     7
370
     0
100
AcDbLine
 10
162.9563249682
 20
123.4704951999
 30
0.0
 11
161.8250622834
 21
122.3392325151
 31
0.0
  0
LINE
  5
242
330
1F
100
AcDbEntity
  8
0
  6
HIDDEN
 62
     7
370
     0
100
AcDbLine
 10
166.51516151
 20
123.4793317417
 30
0.0
 11
163.1060499114
 21
123.4793317417
 31
0.0
  0
LINE
  5
243
330
1F
100
AcDbEntity
  8
0
  6
HIDDEN
 62
     7
370
     0
100
AcDbLine
 10
162.96516151
 20
81.7968317417
 30
0.0
 11
170.51516151
 21
81.7968317417
 31
0.0
  0
LINE
  5
244
330
1F
100
AcDbEntity
  8
0
  6
HIDDEN
 62
     7
370
     0
100
AcDbLine
 10
161.8125806303
 20
82.9494126214
 30
0.0
 11
162.96516151
 21
81.7968317417
 31
0.0
  0
LINE
  5
245
330
1F
100
AcDbEntity
  8
0
  6
HIDDEN
 62
     7
370
     0
100
AcDbLine
 10
225.7810476774
 20
102.1192231398
 30
0.0
 11
226.8404487944
 21
102.6428689871
 31
0.0
  0
LINE
  5
246
330
1F
100
AcDbEntity
  8
0
  6
HIDDEN
 62
     7
370
     0
100
AcDbLine
 10
224.5567349722
 20
107.0915128906
 30
0.0
 11
223.5654972106
 21
106.6015591523
 31
0.0
  0
LINE
  5
247
330
1F
100
AcDbEntity
  8
VERMASSUNG
100
AcDbLine
 10
263.71516151
 20
147.6093317417
 30
0.0
 11
263.71516151
 21
126.666044624
 31
0.0
  0
DIMENSION
  5
248
330
1F
100
AcDbEntity
  8
VERMASSUNG
100
AcDbDimension
  2
*D1
 10
155.8589231704
 20
71.1093317417
 30
0.0
 11
155.8589231704
 21
102.6093317417
 31
0.0
 70
   160
  1
HSK %%c<>
 71
     2
 42
-1.0
  3
SLDDIMSTYLE0
100
AcDbAlignedDimension
 13
194.01516151
 23
134.1093317417
 33
0.0
 14
194.01516151
 24
71.1093317417
 34
0.0
 50
90.0
100
AcDbRotatedDimension
  0
DIMENSION
  5
255
330
1F
100
AcDbEntity
  8
VERMASSUNG
100
AcDbDimension
  2
*D2
 10
263.71516151
 20
158.4238533376
 30
0.0
 11
212.76516151
 21
158.4238533376
 31
0.0
 70
   160
 71
     2
 42
-1.0
  3
SLDDIMSTYLE0
100
AcDbAlignedDimension
 13
161.81516151
 23
122.3000094882
 33
0.0
 14
263.71516151
 24
147.6093317417
 34
0.0
100
AcDbRotatedDimension
  0
DIMENSION
  5
25F
330
1F
100
AcDbEntity
  8
VERMASSUNG
100
AcDbDimension
  2
*D3
 10
263.71516151
 20
152.4238533376
 30
0.0
 11
228.71516151
 21
152.4238533376
 31
0.0
 70
   160
 71
     2
 42
-1.0
  3
SLDDIMSTYLE0
100
AcDbAlignedDimension
 13
193.71516151
 23
133.8093317417
 33
0.0
 14
263.71516151
 24
147.6093317417
 34
0.0
100
AcDbRotatedDimension
  0
DIMENSION
  5
269
330
1F
100
AcDbEntity
  8
VERMASSUNG
100
AcDbDimension
  2
*D4
 10
268.9843246647
 20
102.6093317417
 30
0.0
 11
268.9843246647
 21
125.1093317417
 31
0.0
 70
   160
 71
     2
 42
-1.0
  3
SLDDIMSTYLE0
100
AcDbAlignedDimension
 13
263.71516151
 23
147.6093317417
 33
0.0
 14
256.3798107842
 24
102.6093317417
 34
0.0
 50
90.0
100
AcDbRotatedDimension
  0
DIMENSION
  5
273
330
1F
100
AcDbEntity
  8
VERMASSUNG
100
AcDbDimension
  2
*D5
 10
263.71516151
 20
147.6093317417
 30
0.0
 11
259.1407587351
 21
128.5019809179
 31
0.0
 70
   162
 71
     1
 42
-1.0
  3
SLDDIMSTYLE1
100
AcDb2LineAngularDimension
 13
256.6455659858
 23
133.607839906
 33
0.0
 14
263.6523789353
 24
147.0336241817
 34
0.0
 15
263.71516151
 25
102.6093317417
 35
0.0
 16
259.1407587351
 26
128.5019809179
 36
0.0
  0
LINE
  5
27D
330
1F
100
AcDbEntity
  8
VERMASSUNG
  6
CENTERX2
370
     0
100
AcDbLine
 10
160.118004473
 20
102.6093317417
 30
0.0
 11
256.3798107842
 21
102.6093317417
 31
0.0
  0
ARC
  5
27E
330
1F
100
AcDbEntity
  8
0
  6
Continuous
 62
     7
370
    15
100
AcDbCircle
 10
88.5810902204
 20
136.4743871585
 30
0.0
 40
6.999999999999992
100
AcDbArc
 50
190.365394812
 51
195.2181090159
  0
ARC
  5
27F
330
1F
100
AcDbEntity
  8
0
  6
Continuous
 62
     7
370
    15
100
AcDbCircle
 10
88.5810902204
 20
136.4743871585
 30
0.0
 40
7.000000000000005
100
AcDbArc
 50
156.5120254166
 51
161.634605188
  0
LINE
  5
280
330
1F
100
AcDbEntity
  8
0
  6
Continuous
 62
     7
370
    15
100
AcDbLine
 10
81.9705239965
 20
138.0787610895
 30
0.0
 11
82.0143085101
 21
138.0756993781
 31
0.0
  0
LINE
  5
281
330
1F
100
AcDbEntity
  8
0
  6
Continuous
 62
     7
370
    15
100
AcDbLine
 10
81.906561221
 20
136.2404594051
 30
0.0
 11
81.7559657949
 21
136.2509900631
 31
0.0
  0
SPLINE
  5
282
330
1F
100
AcDbEntity
  8
0
  6
Continuous
 62
     7
370
    15
100
AcDbSpline
210
0.0
220
0.0
230
1.0
 70
     8
 71
     3
 72
    10
 73
     6
 74
     0
 42
0.00000001
 43
0.00000001
 40
0.0
 40
0.0
 40
0.0
 40
0.0
 40
0.3309171212594726
 40
0.6672604625618078
 40
1.0
 40
1.0
 40
1.0
 40
1.0
 10
87.98341498327905
 20
146.3014814266844
 30
0.0
 10
87.47750946599331
 20
146.4712245230959
 30
0.0
 10
86.45740283569307
 20
146.8134940817004
 30
0.0
 10
84.82328625519543
 20
147.1737810149951
 30
0.0
 10
83.77857619239742
 20
147.4891018367255
 30
0.0
 10
83.25903466159816
 20
147.6459130595216
 30
0.0
  0
LINE
  5
283
330
1F
100
AcDbEntity
  8
0
  6
Continuous
 62
     7
370
    15
100
AcDbLine
 10
82.9213378177
 20
143.4642565304
 30
0.0
 11
82.6236977615
 21
143.0189206793
 31
0.0
  0
LINE
  5
284
330
1F
100
AcDbEntity
  8
0
  6
Continuous
 62
     7
370
    15
100
AcDbLine
 10
81.0811725969
 20
131.0359191932
 30
0.0
 11
81.271418177
 21
130.6416184082
 31
0.0
  0
LINE
  5
285
330
1F
100
AcDbEntity
  8
0
  6
Continuous
 62
     7
370
    15
100
AcDbLine
 10
80.3294312645
 20
126.4162299243
 30
0.0
 11
80.7126756069
 21
126.4687803851
 31
0.0
  0
LWPOLYLINE
  5
286
330
1F
100
AcDbEntity
  8
0
  6
Continuous
 62
     7
370
    15
100
AcDbPolyline
 90
       23
 70
   128
 43
0.0
 10
82.0267371835
 20
138.2239269962
 10
82.0190110264
 20
138.5272595842
 10
81.9975434084
 20
138.7024160895
 10
81.9640735082
 20
138.7352063739
 10
81.9213128582
 20
138.6229739633
 10
81.8727256719
 20
138.3748112604
 10
81.8222481941
 20
138.0108229314
 10
81.77396981
 20
137.5604971459
 10
81.731801747
 20
137.060316621
 10
81.6991602108
 20
136.5508030081
 10
81.6786896247
 20
136.0732340698
 10
81.6720483936
 20
135.6662996015
 10
81.6797745508
 20
135.3629670135
 10
81.7012421688
 20
135.1878105082
 10
81.7347120689
 20
135.1550202238
 10
81.7774727189
 20
135.2672526344
 10
81.8260599052
 20
135.5154153373
 10
81.876537383
 20
135.8794036663
 10
81.9248157671
 20
136.3297294518
 10
81.9669838301
 20
136.8299099767
 10
81.9996253663
 20
137.3394235896
 10
82.0200959524
 20
137.8169925279
 10
82.0267371835
 20
138.2239269962
  0
LWPOLYLINE
  5
287
330
1F
100
AcDbEntity
  8
0
  6
Continuous
 62
     7
370
    15
100
AcDbPolyline
 90
        9
 70
   128
 43
0.0
 10
81.9893196457
 20
138.5719881274
 10
81.9770202668
 20
138.6073137333
 10
81.962637733
 20
138.6155086523
 10
81.946406798
 20
138.5964391257
 10
81.9285923857
 20
138.5504164092
 10
81.9094852656
 20
138.4781916926
 10
81.889397307
 20
138.3809438385
 10
81.8686563886
 20
138.2602601412
 10
81.8476010468
 20
138.1181104182
  0
ARC
  5
288
330
1F
100
AcDbEntity
  8
0
  6
Continuous
 62
     7
370
    15
100
AcDbCircle
 10
101.7674663155
 20
135.5537154363
 30
0.0
 40
20.08425139125881
100
AcDbArc
 50
172.6643425012
 51
177.305086063
  0
ARC
  5
289
330
1F
100
AcDbEntity
  8
0
  6
Continuous
 62
     7
370
    15
100
AcDbCircle
 10
89.1218212678
 20
135.9185103063
 30
0.0
 40
7.43900188242779
100
AcDbArc
 50
175.5319482493
 51
184.4760867658
  0
LINE
  5
28A
330
1F
100
AcDbEntity
  8
0
  6
Continuous
 62
     7
370
    15
100
AcDbLine
 10
81.7097927451
 20
135.3168303463
 30
0.0
 11
81.7055083935
 21
135.3379482018
 31
0.0
  0
LWPOLYLINE
  5
28B
330
1F
100
AcDbEntity
  8
0
  6
Continuous
 62
     7
370
    15
100
AcDbPolyline
 90
        9
 70
   128
 43
0.0
 10
81.7097927451
 20
135.3168303463
 10
81.7216627574
 20
135.2830810365
 10
81.7354671868
 20
135.2745025012
 10
81.7509969713
 20
135.2912246586
 10
81.7680169187
 20
135.3329942587
 10
81.7862692691
 20
135.3991787186
 10
81.8054775985
 20
135.4887757027
 10
81.8253510049
 20
135.6004283026
 10
81.8455885139
 20
135.7324455871
  0
LINE
  5
28C
330
1F
100
AcDbEntity
  8
0
  6
Continuous
 62
     7
370
    15
100
AcDbLine
 10
81.8573923356
 20
135.8177197545
 30
0.0
 11
81.8455885139
 21
135.7324455871
 31
0.0
  0
ARC
  5
28D
330
1F
100
AcDbEntity
  8
0
  6
Continuous
 62
     7
370
    15
100
AcDbCircle
 10
61.6886619541
 20
138.3502965664
 30
0.0
 40
20.32711564660866
100
AcDbArc
 50
352.8428595747
 51
357.1265689895
  0
LINE
  5
28E
330
1F
100
AcDbEntity
  8
0
  6
Continuous
 62
     7
370
    15
100
AcDbLine
 10
81.9960115541
 20
137.4465218049
 30
0.0
 11
81.9902205332
 21
137.3313020772
 31
0.0
  0
ARC
  5
28F
330
1F
100
AcDbEntity
  8
0
  6
Continuous
 62
     7
370
    15
100
AcDbCircle
 10
74.8606740842
 20
137.9828128695
 30
0.0
 40
7.155462872200711
100
AcDbArc
 50
355.7017379164
 51
4.5509310267
  0
LINE
  5
290
330
1F
100
AcDbEntity
  8
0
  6
Continuous
 62
     7
370
    15
100
AcDbLine
 10
81.9893196457
 20
138.5719881274
 30
0.0
 11
81.9935771879
 21
138.5505647777
 31
0.0
  0
SPLINE
  5
291
330
1F
100
AcDbEntity
  8
0
  6
Continuous
 62
     7
370
    15
100
AcDbSpline
210
0.0
220
0.0
230
1.0
 70
     8
 71
     3
 72
    10
 73
     6
 74
     0
 42
0.00000001
 43
0.00000001
 40
0.0
 40
0.0
 40
0.0
 40
0.0
 40
0.259863494177254
 40
0.7300540659027027
 40
0.9999999999999999
 40
0.9999999999999999
 40
0.9999999999999999
 40
0.9999999999999999
 10
82.01069773391247
 20
138.3882235810962
 30
0.0
 10
82.00899890921504
 20
138.407224299465
 30
0.0
 10
82.00422627317569
 20
138.4606044471619
 30
0.0
 10
81.99842322182363
 20
138.5156019048924
 30
0.0
 10
81.99487229717236
 20
138.5412209013823
 30
0.0
 10
81.99357718787246
 20
138.5505647776587
 30
0.0
  0
SPLINE
  5
292
330
1F
100
AcDbEntity
  8
0
  6
Continuous
 62
     7
370
    15
100
AcDbSpline
210
0.0
220
0.0
230
1.0
 70
     8
 71
     3
 72
    11
 73
     7
 74
     0
 42
0.00000001
 43
0.00000001
 40
0.0
 40
0.0
 40
0.0
 40
0.0
 40
0.1604689666331068
 40
0.4656833417733182
 40
0.772372672519305
 40
1.0
 40
1.0
 40
1.0
 40
1.0
 10
81.71418406204596
 20
135.3176446747854
 30
0.0
 10
81.71615692649993
 20
135.317148045011
 30
0.0
 10
81.72188220865925
 20
135.3157068179762
 30
0.0
 10
81.73885646108977
 20
135.3508446554264
 30
0.0
 10
81.76109845731153
 20
135.4126193041747
 30
0.0
 10
81.77716835350668
 20
135.4668811859258
 30
0.0
 10
81.78401438285552
 20
135.4899976037595
 30
0.0
  0
LINE
  5
293
330
1F
100
AcDbEntity
  8
0
  6
Continuous
 62
     7
370
    15
100
AcDbLine
 10
81.9893196457
 20
138.5719881274
 30
0.0
 11
81.9879668552
 21
138.5710800204
 31
0.0
  0
SPLINE
  5
294
330
1F
100
AcDbEntity
  8
0
  6
Continuous
 62
     7
370
    15
100
AcDbSpline
210
0.0
220
0.0
230
1.0
 70
     8
 71
     3
 72
    10
 73
     6
 74
     0
 42
0.00000001
 43
0.00000001
 40
0.0
 40
0.0
 40
0.0
 40
0.0
 40
0.3620770761368284
 40
0.7259038982117251
 40
1.0
 40
1.0
 40
1.0
 40
1.0
 10
81.98607977246193
 20
138.5698132514157
 30
0.0
 10
81.98554615227523
 20
138.559798006919
 30
0.0
 10
81.9844763331698
 20
138.5397191190223
 30
0.0
 10
81.98670599902617
 20
138.4731369092476
 30
0.0
 10
81.99034803606371
 20
138.4175046574322
 30
0.0
 10
81.99191290874224
 20
138.3936011688039
 30
0.0
  0
SPLINE
  5
295
330
1F
100
AcDbEntity
  8
0
  6
Continuous
 62
     7
370
    15
100
AcDbSpline
210
0.0
220
0.0
230
1.0
 70
     8
 71
     3
 72
    12
 73
     8
 74
     0
 42
0.00000001
 43
0.00000001
 40
0.0
 40
0.0
 40
0.0
 40
0.0
 40
0.2058585741213969
 40
0.4121026961457099
 40
0.614193784196739
 40
0.8133180967416481
 40
1.0
 40
1.0
 40
1.0
 40
1.0
 10
81.99191290874224
 20
138.3936011688039
 30
0.0
 10
81.99531938767736
 20
138.3382544658157
 30
0.0
 10
82.00213872546556
 20
138.2274574022416
 30
0.0
 10
81.9984285614185
 20
138.1182311490495
 30
0.0
 10
81.98067857667633
 20
138.0702129057701
 30
0.0
 10
81.95169993627071
 20
138.0841481137766
 30
0.0
 10
81.9295042180139
 20
138.1395643167681
 30
0.0
 10
81.9187642694111
 20
138.1663788205839
 30
0.0
  0
SPLINE
  5
296
330
1F
100
AcDbEntity
  8
0
  6
Continuous
 62
     7
370
    15
100
AcDbSpline
210
0.0
220
0.0
230
1.0
 70
     8
 71
     3
 72
    11
 73
     7
 74
     0
 42
0.00000001
 43
0.00000001
 40
0.0
 40
0.0
 40
0.0
 40
0.0
 40
0.2524782265336071
 40
0.5068902417933429
 40
0.7591786113117294
 40
1.0
 40
1.0
 40
1.0
 40
1.0
 10
81.9187642694111
 20
138.1663788205839
 30
0.0
 10
81.91187525892279
 20
138.1831071978331
 30
0.0
 10
81.89804447343263
 20
138.216692078815
 30
0.0
 10
81.87779697668584
 20
138.2199876384582
 30
0.0
 10
81.85993111922937
 20
138.1890890581198
 30
0.0
 10
81.8516468556684
 20
138.1414003067826
 30
0.0
 10
81.84760104675507
 20
138.1181104182118
 30
0.0
  0
SPLINE
  5
297
330
1F
100
AcDbEntity
  8
0
  6
Continuous
 62
     7
370
    15
100
AcDbSpline
210
0.0
220
0.0
230
1.0
 70
     8
 71
     3
 72
    11
 73
     7
 74
     0
 42
0.00000001
 43
0.00000001
 40
0.0
 40
0.0
 40
0.0
 40
0.0
 40
0.2794069064555929
 40
0.5596240257156336
 40
0.8375007392219345
 40
1.0
 40
1.0
 40
1.0
 40
1.0
 10
81.75142711383018
 20
135.6532564633411
 30
0.0
 10
81.74331861515087
 20
135.6159659307279
 30
0.0
 10
81.72707810509698
 20
135.541276731929
 30
0.0
 10
81.71155413864038
 20
135.4407764433637
 30
0.0
 10
81.7048581853051
 20
135.3725208894435
 30
0.0
 10
81.70533313609683
 20
135.347266939541
 30
0.0
 10
81.70550839350656
 20
135.3379482018475
 30
0.0
  0
SPLINE
  5
298
330
1F
100
AcDbEntity
  8
0
  6
Continuous
 62
     7
370
    15
100
AcDbSpline
210
0.0
220
0.0
230
1.0
 70
     8
 71
     3
 72
    12
 73
     8
 74
     0
 42
0.00000001
 43
0.00000001
 40
0.0
 40
0.0
 40
0.0
 40
0.0
 40
0.0091735205190114
 40
0.257677521552505
 40
0.5061895192298987
 40
0.7560357430218817
 40
0.9999999999999999
 40
0.9999999999999999
 40
0.9999999999999999
 40
0.9999999999999999
 10
81.70542704987275
 20
136.4980323601569
 30
0.0
 10
81.70536222335424
 20
136.4967154174383
 30
0.0
 10
81.70354129358257
 20
136.4597234539869
 30
0.0
 10
81.70299157145271
 20
136.3899963940278
 30
0.0
 10
81.71104120074172
 20
136.3099506523423
 30
0.0
 10
81.72688213468277
 20
136.2580183083817
 30
0.0
 10
81.74279587232748
 20
136.2531876739411
 30
0.0
 10
81.75065796382093
 20
136.2508011264945
 30
0.0
  0
SPLINE
  5
299
330
1F
100
AcDbEntity
  8
0
  6
Continuous
 62
     7
370
    15
100
AcDbSpline
210
0.0
220
0.0
230
1.0
 70
     8
 71
     3
 72
    12
 73
     8
 74
     0
 42
0.00000001
 43
0.00000001
 40
0.0
 40
0.0
 40
0.0
 40
0.0
 40
0.2057532787804199
 40
0.4119604088044674
 40
0.6140154573248999
 40
0.8131414684040971
 40
1.0
 40
1.0
 40
1.0
 40
1.0
 10
81.75065796382093
 20
136.2508011264945
 30
0.0
 10
81.76467688811697
 20
136.246346114331
 30
0.0
 10
81.79274565969732
 20
136.2374262631238
 30
0.0
 10
81.8143809314859
 20
136.1437934652671
 30
0.0
 10
81.81298079817691
 20
136.0035573212689
 30
0.0
 10
81.79038650800496
 20
135.8326571195321
 30
0.0
 10
81.76413547239177
 20
135.7117760556847
 30
0.0
 10
81.75142711383018
 20
135.6532564633411
 30
0.0
  0
SPLINE
  5
29A
330
1F
100
AcDbEntity
  8
0
  6
Continuous
 62
     7
370
    15
100
AcDbSpline
210
0.0
220
0.0
230
1.0
 70
     8
 71
     3
 72
    12
 73
     8
 74
     0
 42
0.00000001
 43
0.00000001
 40
0.0
 40
0.0
 40
0.0
 40
0.0
 40
0.0091681771491545
 40
0.2573268097002612
 40
0.505493468743001
 40
0.754992535945301
 40
1.0
 40
1.0
 40
1.0
 40
1.0
 10
81.84760104675507
 20
138.1181104182118
 30
0.0
 10
81.84746658752707
 20
138.1171312767051
 30
0.0
 10
81.84369266784628
 20
138.0896493295243
 30
0.0
 10
81.83812774042335
 20
138.0256376057747
 30
0.0
 10
81.83649116178917
 20
137.916184753445
 30
0.0
 10
81.84137711387322
 20
137.802108162037
 30
0.0
 10
81.85022406981075
 20
137.7355698642434
 30
0.0
 10
81.85460736932622
 20
137.7026028990478
 30
0.0
  0
SPLINE
  5
29B
330
1F
100
AcDbEntity
  8
0
  6
Continuous
 62
     7
370
    15
100
AcDbSpline
210
0.0
220
0.0
230
1.0
 70
     8
 71
     3
 72
    12
 73
     8
 74
     0
 42
0.00000001
 43
0.00000001
 40
0.0
 40
0.0
 40
0.0
 40
0.0
 40
0.2058435564095266
 40
0.4120691620553063
 40
0.6141397217727091
 40
0.8132604579561542
 40
1.0
 40
1.0
 40
1.0
 40
1.0
 10
81.85460736932622
 20
137.7026028990478
 30
0.0
 10
81.86232054636562
 20
137.6434790100957
 30
0.0
 10
81.87776121623571
 20
137.525121497221
 30
0.0
 10
81.88005801057903
 20
137.323313003503
 30
0.0
 10
81.862054536848
 20
137.1349403823918
 30
0.0
 10
81.82697812978765
 20
136.9768186180466
 30
0.0
 10
81.79682208848124
 20
136.9101167041986
 30
0.0
 10
81.78222788000431
 20
136.8778358876744
 30
0.0
  0
SPLINE
  5
29C
330
1F
100
AcDbEntity
  8
0
  6
Continuous
 62
     7
370
    15
100
AcDbSpline
210
0.0
220
0.0
230
1.0
 70
     8
 71
     3
 72
    11
 73
     7
 74
     0
 42
0.00000001
 43
0.00000001
 40
0.0
 40
0.0
 40
0.0
 40
0.0
 40
0.2535086227484485
 40
0.507567474260518
 40
0.759505625192494
 40
0.9999999999999999
 40
0.9999999999999999
 40
0.9999999999999999
 40
0.9999999999999999
 10
81.78222788000431
 20
136.8778358876744
 30
0.0
 10
81.77286832925789
 20
136.8569164451744
 30
0.0
 10
81.75412891329216
 20
136.8150321554902
 30
0.0
 10
81.73070161161685
 20
136.7168785599973
 30
0.0
 10
81.71308686861325
 20
136.6067399476317
 30
0.0
 10
81.70794045648638
 20
136.5337024430357
 30
0.0
 10
81.70542704987275
 20
136.4980323601569
 30
0.0
  0
SPLINE
  5
29D
330
1F
100
AcDbEntity
  8
0
  6
Continuous
 62
     7
370
    15
100
AcDbSpline
210
0.0
220
0.0
230
1.0
 70
     8
 71
     3
 72
    15
 73
    11
 74
     0
 42
0.00000001
 43
0.00000001
 40
0.0
 40
0.0
 40
0.0
 40
0.0
 40
0.1411619226998855
 40
0.2818342648202359
 40
0.4169666844434218
 40
0.5461338408377809
 40
0.6723563608105292
 40
0.7999811958597256
 40
0.9323887207821023
 40
1.0
 40
1.0
 40
1.0
 40
1.0
 10
83.30488503703522
 20
147.050453522805
 30
0.0
 10
83.30917541680083
 20
147.0941290246499
 30
0.0
 10
83.31774129635187
 20
147.181328552098
 30
0.0
 10
83.32721323139988
 20
147.3234501754759
 30
0.0
 10
83.33252975596703
 20
147.4503247149928
 30
0.0
 10
83.33317648114243
 20
147.5485290379527
 30
0.0
 10
83.32950680415473
 20
147.6102005948506
 30
0.0
 10
83.3220074963019
 20
147.6314774898935
 30
0.0
 10
83.313194634917
 20
147.6154060430607
 30
0.0
 10
83.30705120320879
 20
147.5879345165472
 30
0.0
 10
83.30497457207221
 20
147.5786484643801
 30
0.0
  0
SPLINE
  5
29E
330
1F
100
AcDbEntity
  8
0
  6
Continuous
 62
     7
370
    15
100
AcDbSpline
210
0.0
220
0.0
230
1.0
 70
     8
 71
     3
 72
    15
 73
    11
 74
     0
 42
0.00000001
 43
0.00000001
 40
0.0
 40
0.0
 40
0.0
 40
0.0
 40
0.1437531771930454
 40
0.2878251343603118
 40
0.4234880042861937
 40
0.549714766631838
 40
0.6718858481061605
 40
0.7962090644528224
 40
0.9276088781385412
 40
1.0
 40
1.0
 40
1.0
 40
1.0
 10
87.93712545224898
 20
146.3048499917766
 30
0.0
 10
87.93824454589904
 20
146.3094334112791
 30
0.0
 10
87.94048521484616
 20
146.3186104142496
 30
0.0
 10
87.94296164724018
 20
146.3169417061609
 30
0.0
 10
87.9443070020677
 20
146.3036015162791
 30
0.0
 10
87.9444208087042
 20
146.2808164587125
 30
0.0
 10
87.9434560446928
 20
146.2521586633842
 30
0.0
 10
87.94154411368427
 20
146.2199750551726
 30
0.0
 10
87.93927697552901
 20
146.1919138779571
 30
0.0
 10
87.93767261090345
 20
146.1762265690793
 30
0.0
 10
87.9371027045197
 20
146.1706540842893
 30
0.0
  0
SPLINE
  5
29F
330
1F
100
AcDbEntity
  8
0
  6
Continuous
 62
     7
370
    15
100
AcDbSpline
210
0.0
220
0.0
230
1.0
 70
     8
 71
     3
 72
    10
 73
     6
 74
     0
 42
0.00000001
 43
0.00000001
 40
0.0
 40
0.0
 40
0.0
 40
0.0
 40
0.2724816576280524
 40
0.544757045279689
 40
1.0
 40
1.0
 40
1.0
 40
1.0
 10
81.8732218582904
 20
140.6235537698101
 30
0.0
 10
81.8711243647434
 20
140.6125450240402
 30
0.0
 10
81.86693096546246
 20
140.5905358661758
 30
0.0
 10
81.85891448907407
 20
140.5368095539584
 30
0.0
 10
81.85324397266328
 20
140.4870727324129
 30
0.0
 10
81.84969565986442
 20
140.4559500289976
 30
0.0
  0
LINE
  5
2A0
330
1F
100
AcDbEntity
  8
0
  6
Continuous
 62
     7
370
    15
100
AcDbLine
 10
83.3049745721
 20
147.5786484644
 30
0.0
 11
81.8732218583
 21
140.6235537698
 31
0.0
  0
LINE
  5
2A1
330
1F
100
AcDbEntity
  8
0
  6
Continuous
 62
     7
370
    15
100
AcDbLine
 10
81.8720308982
 20
133.5977111432
 30
0.0
 11
83.304885037
 21
147.0504535228
 31
0.0
  0
SPLINE
  5
2A2
330
1F
100
AcDbEntity
  8
0
  6
Continuous
 62
     7
370
    15
100
AcDbSpline
210
0.0
220
0.0
230
1.0
 70
     8
 71
     3
 72
    10
 73
     6
 74
     0
 42
0.00000001
 43
0.00000001
 40
0.0
 40
0.0
 40
0.0
 40
0.0
 40
0.2724816576280594
 40
0.5447570452796359
 40
1.0
 40
1.0
 40
1.0
 40
1.0
 10
81.84850469980412
 20
133.4301074024345
 30
0.0
 10
81.85060219335112
 20
133.4411161482045
 30
0.0
 10
81.85479559263204
 20
133.4631253060688
 30
0.0
 10
81.86281206902042
 20
133.5168516182862
 30
0.0
 10
81.86848258543122
 20
133.5665884398318
 30
0.0
 10
81.87203089823008
 20
133.5977111432471
 30
0.0
  0
LINE
  5
2A3
330
1F
100
AcDbEntity
  8
0
  6
Continuous
 62
     7
370
    15
100
AcDbLine
 10
80.416751986
 20
126.4750127079
 30
0.0
 11
81.8485046998
 21
133.4301074024
 31
0.0
  0
SPLINE
  5
2A4
330
1F
100
AcDbEntity
  8
0
  6
Continuous
 62
     7
370
    15
100
AcDbSpline
210
0.0
220
0.0
230
1.0
 70
     8
 71
     3
 72
    15
 73
    11
 74
     0
 42
0.00000001
 43
0.00000001
 40
0.0
 40
0.0
 40
0.0
 40
0.0
 40
0.1411619226998939
 40
0.2818342648202461
 40
0.4169666844434341
 40
0.546133840837785
 40
0.6723563608105375
 40
0.7999811958597374
 40
0.9323887207821202
 40
1.0
 40
1.0
 40
1.0
 40
1.0
 10
80.4168415210593
 20
127.0032076494396
 30
0.0
 10
80.41255114129339
 20
126.9595321475948
 30
0.0
 10
80.40398526174175
 20
126.8723326201466
 30
0.0
 10
80.39451332669819
 20
126.7302109967685
 30
0.0
 10
80.38919680211504
 20
126.6033364572527
 30
0.0
 10
80.38855007694849
 20
126.5051321342922
 30
0.0
 10
80.39221975394076
 20
126.443460577394
 30
0.0
 10
80.39971906179234
 20
126.4221836823512
 30
0.0
 10
80.40853192317756
 20
126.4382551291839
 30
0.0
 10
80.41467535488573
 20
126.4657266556975
 30
0.0
 10
80.4167519860223
 20
126.4750127078645
 30
0.0
  0
LINE
  5
2A5
330
1F
100
AcDbEntity
  8
0
  6
Continuous
 62
     7
370
    15
100
AcDbLine
 10
81.8496956599
 20
140.455950029
 30
0.0
 11
80.4168415211
 21
127.0032076494
 31
0.0
  0
LINE
  5
2A6
330
1F
100
AcDbEntity
  8
0
  6
Continuous
 62
     7
370
    15
100
AcDbLine
 10
81.8715290162
 20
133.607839906
 30
0.0
 11
83.3015118423
 21
147.0336241817
 31
0.0
  0
LWPOLYLINE
  5
2A7
330
1F
100
AcDbEntity
  8
0
  6
Continuous
 62
     7
370
    15
100
AcDbPolyline
 90
        9
 70
   128
 43
0.0
 10
83.3015118423
 20
147.0336241817
 10
83.3120682511
 20
147.146727511
 10
83.3204640345
 20
147.2661399
 10
83.3258659964
 20
147.380010883
 10
83.327738047
 20
147.4770399225
 10
83.3258944043
 20
147.5475978728
 10
83.3205180311
 20
147.5846825746
 10
83.3121424777
 20
147.5846137482
 10
83.3015989328
 20
147.547398224
  0
LINE
  5
2A8
330
1F
100
AcDbEntity
  8
0
  6
Continuous
 62
     7
370
    15
100
AcDbLine
 10
83.3015989328
 20
147.547398224
 30
0.0
 11
81.8727153248
 21
140.6062409227
 31
0.0
  0
ARC
  5
2A9
330
1F
100
AcDbEntity
  8
0
  6
Continuous
 62
     7
370
    15
100
AcDbCircle
 10
83.6937663467
 20
140.2688334521
 30
0.0
 40
1.852044984822013
100
AcDbArc
 50
169.5031752809
 51
174.516249149
  0
LINE
  5
2AA
330
1F
100
AcDbEntity
  8
0
  6
Continuous
 62
     7
370
    15
100
AcDbLine
 10
81.8501975416
 20
140.4458212663
 30
0.0
 11
80.4202147155
 21
127.0200369905
 31
0.0
  0
LWPOLYLINE
  5
2AB
330
1F
100
AcDbEntity
  8
0
  6
Continuous
 62
     7
370
    15
100
AcDbPolyline
 90
        9
 70
   128
 43
0.0
 10
80.4202147155
 20
127.0200369905
 10
80.4096583067
 20
126.9069336612
 10
80.4012625233
 20
126.7875212722
 10
80.3958605614
 20
126.6736502893
 10
80.3939885108
 20
126.5766212498
 10
80.3958321535
 20
126.5060632995
 10
80.4012085267
 20
126.4689785977
 10
80.40958408
 20
126.4690474241
 10
80.420127625
 20
126.5062629483
  0
LINE
  5
2AC
330
1F
100
AcDbEntity
  8
0
  6
Continuous
 62
     7
370
    15
100
AcDbLine
 10
80.420127625
 20
126.5062629483
 30
0.0
 11
81.8490112332
 21
133.4474202493
 31
0.0
  0
ARC
  5
2AD
330
1F
100
AcDbEntity
  8
0
  6
Continuous
 62
     7
370
    15
100
AcDbCircle
 10
80.0279603127
 20
133.7848277035
 30
0.0
 40
1.852044882036781
100
AcDbArc
 50
349.5031752076
 51
354.5162493619
  0
LINE
  5
2AE
330
1F
100
AcDbEntity
  8
0
  6
Continuous
 62
     7
370
    15
100
AcDbLine
 10
83.3275456507
 20
147.5032356152
 30
0.0
 11
83.3015989328
 21
147.547398224
 31
0.0
  0
LINE
  5
2AF
330
1F
100
AcDbEntity
  8
0
  6
Continuous
 62
     7
370
    15
100
AcDbLine
 10
86.6001168243
 20
133.6179970315
 30
0.0
 11
87.9371027045
 21
146.1706540843
 31
0.0
  0
LINE
  5
2B0
330
1F
100
AcDbEntity
  8
0
  6
Continuous
 62
     7
370
    15
100
AcDbLine
 10
82.0538456986
 20
140.2979479868
 30
0.0
 11
81.8727153248
 21
140.6062409227
 31
0.0
  0
LWPOLYLINE
  5
2B1
330
1F
100
AcDbEntity
  8
0
  6
Continuous
 62
     7
370
    15
100
AcDbPolyline
 90
        9
 70
   128
 43
0.0
 10
82.5923969855
 20
141.563171101
 10
82.6201770086
 20
141.8608114414
 10
82.6422711755
 20
142.1750545704
 10
82.6564868647
 20
142.474715052
 10
82.6614133136
 20
142.7300546297
 10
82.6565616222
 20
142.9157334463
 10
82.6424132716
 20
143.0133247668
 10
82.6203723417
 20
143.0131436448
 10
82.5926261709
 20
142.9152080545
  0
LWPOLYLINE
  5
2B2
330
1F
100
AcDbEntity
  8
0
  6
Continuous
 62
     7
370
    15
100
AcDbPolyline
 90
        9
 70
   128
 43
0.0
 10
81.1293295725
 20
132.4904900711
 10
81.1015495494
 20
132.1928497308
 10
81.0794553824
 20
131.8786066019
 10
81.0652396932
 20
131.5789461204
 10
81.0603132442
 20
131.3236065427
 10
81.0651649356
 20
131.1379277262
 10
81.0793132861
 20
131.0403364057
 10
81.101354216
 20
131.0405175278
 10
81.1291003869
 20
131.1384531178
  0
LINE
  5
2B3
330
1F
100
AcDbEntity
  8
0
  6
Continuous
 62
     7
370
    15
100
AcDbLine
 10
81.8316191323
 20
139.0841273916
 30
0.0
 11
81.1293295725
 21
132.4904900711
 31
0.0
  0
ARC
  5
2B4
330
1F
100
AcDbEntity
  8
0
  6
Continuous
 62
     7
370
    15
100
AcDbCircle
 10
86.6831157205
 20
138.6183700298
 30
0.0
 40
4.873802321132087
100
AcDbArc
 50
169.5031752076
 51
174.5162493619
  0
LINE
  5
2B5
330
1F
100
AcDbEntity
  8
0
  6
Continuous
 62
     7
370
    15
100
AcDbLine
 10
82.5926261709
 20
142.9152080545
 30
0.0
 11
81.8908764561
 21
139.5062843828
 31
0.0
  0
LINE
  5
2B6
330
1F
100
AcDbEntity
  8
0
  6
Continuous
 62
     7
370
    15
100
AcDbLine
 10
81.8901074254
 20
134.9695337806
 30
0.0
 11
82.5923969855
 21
141.563171101
 31
0.0
  0
ARC
  5
2B7
330
1F
100
AcDbEntity
  8
0
  6
Continuous
 62
     7
370
    15
100
AcDbCircle
 10
77.0386108372
 20
135.4352911424
 30
0.0
 40
4.873802321144059
100
AcDbArc
 50
349.5031752076
 51
354.5162493619
  0
LINE
  5
2B8
330
1F
100
AcDbEntity
  8
0
  6
Continuous
 62
     7
370
    15
100
AcDbLine
 10
81.1291003869
 20
131.1384531178
 30
0.0
 11
81.8308501016
 21
134.5473767894
 31
0.0
  0
LWPOLYLINE
  5
2B9
330
1F
100
AcDbEntity
  8
0
  6
Continuous
 62
     7
370
    15
100
AcDbPolyline
 90
       29
 70
   128
 43
0.0
 10
81.9508811898
 20
135.6087636439
 10
82.0124252404
 20
136.2433305375
 10
82.0663693413
 20
136.9171853951
 10
82.1100085102
 20
137.5965383205
 10
82.1411544968
 20
138.2473237211
 10
82.1582455114
 20
138.8369084997
 10
82.1604245391
 20
139.3357284134
 10
82.1475823143
 20
139.7187705489
 10
82.1203627999
 20
139.9668275742
 10
82.080130896
 20
140.0674608741
 10
82.0289039981
 20
140.0156242748
 10
81.9692508369
 20
139.8139170798
 10
81.904162671
 20
139.4724537302
 10
81.8369032928
 20
139.0083566241
 10
81.7708453683
 20
138.4448975283
 10
81.7093013177
 20
137.8103306347
 10
81.6553572168
 20
137.1364757771
 10
81.6117180479
 20
136.4571228518
 10
81.5805720613
 20
135.8063374511
 10
81.5634810467
 20
135.2167526726
 10
81.561302019
 20
134.7179327589
 10
81.5741442438
 20
134.3348906233
 10
81.6013637582
 20
134.0868335981
 10
81.6415956621
 20
133.9862002982
 10
81.69282256
 20
134.0380368975
 10
81.7524757212
 20
134.2397440925
 10
81.8175638871
 20
134.5812074421
 10
81.8848232653
 20
135.0453045482
 10
81.9508811898
 20
135.6087636439
  0
SPLINE
  5
2BA
330
1F
100
AcDbEntity
  8
0
  6
Continuous
 62
     7
370
    15
100
AcDbSpline
210
0.0
220
0.0
230
1.0
 70
     8
 71
     3
 72
    10
 73
     6
 74
     0
 42
0.00000001
 43
0.00000001
 40
0.0
 40
0.0
 40
0.0
 40
0.0
 40
0.416475508079335
 40
0.7035821713602535
 40
1.0
 40
1.0
 40
1.0
 40
1.0
 10
86.6001168243436
 20
133.6179970314826
 30
0.0
 10
86.59930724701536
 20
133.6108589584916
 30
0.0
 10
86.5979395695327
 20
133.5988000959731
 30
0.0
 10
86.59593151784043
 20
133.5850527125604
 30
0.0
 10
86.59480666327663
 20
133.579113164042
 30
0.0
 10
86.59423526147266
 20
133.5760960017818
 30
0.0
  0
LINE
  5
2BB
330
1F
100
AcDbEntity
  8
0
  6
Continuous
 62
     7
370
    15
100
AcDbLine
 10
86.4653060923
 20
132.9497905151
 30
0.0
 11
86.5942352615
 21
133.5760960018
 31
0.0
  0
LINE
  5
2BC
330
1F
100
AcDbEntity
  8
0
  6
Continuous
 62
     7
370
    15
100
AcDbLine
 10
80.5103718748
 20
126.9446468236
 30
0.0
 11
80.4202147155
 21
127.0200369905
 31
0.0
  0
LINE
  5
2BD
330
1F
100
AcDbEntity
  8
0
  6
Continuous
 62
     7
370
    15
100
AcDbLine
 10
82.0499083656
 20
140.2788214131
 30
0.0
 11
81.8501975416
 21
140.4458212663
 31
0.0
  0
LINE
  5
2BE
330
1F
100
AcDbEntity
  8
0
  6
Continuous
 62
     7
370
    15
100
AcDbLine
 10
82.0338254988
 20
132.8865943803
 30
0.0
 11
81.7966186454
 21
130.6595130584
 31
0.0
  0
LINE
  5
2BF
330
1F
100
AcDbEntity
  8
0
  6
Continuous
 62
     7
370
    15
100
AcDbLine
 10
82.0338254988
 20
132.8865943803
 30
0.0
 11
84.0237307774
 21
133.120522093
 31
0.0
  0
LINE
  5
2C0
330
1F
100
AcDbEntity
  8
0
  6
Continuous
 62
     7
370
    15
100
AcDbLine
 10
84.0237307774
 20
133.120522093
 30
0.0
 11
86.5115658634
 21
132.9465557168
 31
0.0
  0
LINE
  5
2C1
330
1F
100
AcDbEntity
  8
0
  6
Continuous
 62
     7
370
    15
100
AcDbLine
 10
86.5618752655
 20
133.4188992776
 30
0.0
 11
86.5115658634
 21
132.9465557168
 31
0.0
  0
LINE
  5
2C2
330
1F
100
AcDbEntity
  8
0
  6
Continuous
 62
     7
370
    15
100
AcDbLine
 10
110.2410694757
 20
128.6704832944
 30
0.0
 11
81.7966186454
 21
130.6595130584
 31
0.0
  0
ELLIPSE
  5
2C3
330
1F
100
AcDbEntity
  8
0
  6
Continuous
 62
     7
370
    15
100
AcDbEllipse
 10
79.943954979
 20
87.624385283
 30
0.0
 11
7.733037905256596
 21
58.32110399342406
 31
0.0
210
0.0
220
0.0
230
1.0
 40
0.6436133639
 41
5.574665902172554
 42
6.277429088012707
  0
LWPOLYLINE
  5
2C4
330
1F
100
AcDbEntity
  8
0
  6
Continuous
 62
     7
370
    15
100
AcDbPolyline
 90
        6
 70
   128
 43
0.0
 10
80.4457137898
 20
126.4105565858
 10
80.4451411173
 20
126.033348767
 10
80.4597383976
 20
125.7502894835
 10
80.4889256065
 20
125.6165317841
 10
80.5303381698
 20
125.6429119222
 10
80.5806210881
 20
125.8272927358
  0
LINE
  5
2C5
330
1F
100
AcDbEntity
  8
0
  6
Continuous
 62
     7
370
    15
100
AcDbLine
 10
81.7966186454
 20
130.6595130584
 30
0.0
 11
79.5952531756
 21
99.1785201655
 31
0.0
  0
LINE
  5
2C6
330
1F
100
AcDbEntity
  8
0
  6
Continuous
 62
     7
370
    15
100
AcDbLine
 10
79.5952531756
 20
99.1785201655
 30
0.0
 11
76.8799684071
 21
76.3950563346
 31
0.0
  0
LINE
  5
2C7
330
1F
100
AcDbEntity
  8
0
  6
Continuous
 62
     7
370
    15
100
AcDbLine
 10
76.7265796492
 20
76.4333690717
 30
0.0
 11
76.8799684071
 21
76.3950563346
 31
0.0
  0
LINE
  5
2C8
330
1F
100
AcDbEntity
  8
0
  6
Continuous
 62
     7
370
    15
100
AcDbLine
 10
76.7265796492
 20
76.4333690717
 30
0.0
 11
76.7401500959
 21
76.6969552006
 31
0.0
  0
SPLINE
  5
2C9
330
1F
100
AcDbEntity
  8
0
  6
Continuous
 62
     7
370
    15
100
AcDbSpline
210
0.0
220
0.0
230
1.0
 70
     8
 71
     3
 72
    10
 73
     6
 74
     0
 42
0.00000001
 43
0.00000001
 40
0.0
 40
0.0
 40
0.0
 40
0.0
 40
0.5
 40
0.5
 40
1.0
 40
1.0
 40
1.0
 40
1.0
 10
76.73380121076475
 20
77.45711415614393
 30
0.0
 10
76.74589905871404
 20
77.42955154534964
 30
0.0
 10
76.75290135800996
 20
77.34081150961431
 30
0.0
 10
76.75506588768252
 20
77.0703917911446
 30
0.0
 10
76.7501292610387
 20
76.89077257281004
 30
0.0
 10
76.7401500958868
 20
76.6969552005868
 30
0.0
  0
SPLINE
  5
2CA
330
1F
100
AcDbEntity
  8
0
  6
Continuous
 62
     7
370
    15
100
AcDbSpline
210
0.0
220
0.0
230
1.0
 70
     8
 71
     3
 72
    10
 73
     6
 74
     0
 42
0.00000001
 43
0.00000001
 40
0.0
 40
0.0
 40
0.0
 40
0.0
 40
0.5
 40
0.5
 40
1.0
 40
1.0
 40
1.0
 40
1.0
 10
80.4107452253407
 20
129.1889111104194
 30
0.0
 10
80.39367018912753
 20
128.9957843059562
 30
0.0
 10
80.37340369475135
 20
128.8160824549016
 30
0.0
 10
80.33389034599747
 20
128.5503997365249
 30
0.0
 10
80.31455856382712
 20
128.4627705931306
 30
0.0
 10
80.29866444806576
 20
128.4370335635949
 30
0.0
  0
SPLINE
  5
2CB
330
1F
100
AcDbEntity
  8
0
  6
Continuous
 62
     7
370
    15
100
AcDbSpline
210
0.0
220
0.0
230
1.0
 70
     8
 71
     3
 72
     8
 73
     4
 74
     0
 42
0.00000001
 43
0.00000001
 40
0.0
 40
0.0
 40
0.0
 40
0.0
 40
1.0
 40
1.0
 40
1.0
 40
1.0
 10
80.41074522534072
 20
129.1889111104194
 30
0.0
 10
80.52485609562959
 20
130.4795594849395
 30
0.0
 10
80.63901288332524
 20
131.769965301078
 30
0.0
 10
80.7532002981428
 20
133.0602093296582
 30
0.0
  0
LINE
  5
2CC
330
1F
100
AcDbEntity
  8
0
  6
Continuous
 62
     7
370
    15
100
AcDbLine
 10
80.5806210881
 20
125.8272927358
 30
0.0
 11
82.0338254988
 21
132.8865943803
 31
0.0
  0
LINE
  5
2CD
330
1F
100
AcDbEntity
  8
0
  6
Continuous
 62
     7
370
    15
100
AcDbLine
 10
80.7532002981
 20
133.0602093297
 30
0.0
 11
81.3930126478
 21
136.1682568546
 31
0.0
  0
ARC
  5
2CE
330
1F
100
AcDbEntity
  8
0
  6
Continuous
 62
     7
370
    15
100
AcDbCircle
 10
83.3461701424
 20
102.6093317417
 30
0.0
 40
27.00000000000001
100
AcDbArc
 50
348.1576216015
 51
0.0
  0
LINE
  5
2CF
330
1F
100
AcDbEntity
  8
0
  6
Continuous
 62
     7
370
    15
100
AcDbLine
 10
109.7714985523
 20
97.0683915298
 30
0.0
 11
79.5952531756
 21
99.1785201655
 31
0.0
  0
LINE
  5
2D0
330
1F
100
AcDbEntity
  8
0
  6
Continuous
 62
     7
370
    15
100
AcDbLine
 10
110.3461701424
 20
128.5429697509
 30
0.0
 11
110.3461701424
 21
102.6093317417
 31
0.0
  0
ELLIPSE
  5
2D1
330
1F
100
AcDbEntity
  8
0
  6
Continuous
 62
     7
370
    15
100
AcDbEllipse
 10
82.3177311918
 20
99.1555932807
 30
0.0
 11
2.988403188694961
 21
42.73615664202005
 31
0.0
210
0.0
220
0.0
230
0.9999999999999998
 40
0.8848501194
 41
5.530621457445459
 42
5.534724144627637
  0
ARC
  5
2D2
330
1F
100
AcDbEntity
  8
0
  6
Continuous
 62
     7
370
    15
100
AcDbCircle
 10
83.3461701424
 20
102.6093317417
 30
0.0
 40
27.00000000000003
100
AcDbArc
 50
256.1436200628
 51
348.1576216015
  0
SPLINE
  5
2D3
330
1F
100
AcDbEntity
  8
0
  6
Continuous
 62
     7
370
    15
100
AcDbSpline
210
0.0
220
0.0
230
1.0
 70
     8
 71
     3
 72
     8
 73
     4
 74
     0
 42
0.00000001
 43
0.00000001
 40
0.0000002004868584
 40
0.0000002004868584
 40
0.0000002004868584
 40
0.0000002004868584
 40
0.0001179455808964
 40
0.0001179455808964
 40
0.0001179455808964
 40
0.0001179455808964
 10
76.72509911476335
 20
77.46651132616685
 30
0.0
 10
76.72854714639351
 20
77.46560332690696
 30
0.0
 10
76.73145448008847
 20
77.46246072890158
 30
0.0
 10
76.7338012107648
 20
77.45711415614417
 30
0.0
  0
SPLINE
  5
2D4
330
1F
100
AcDbEntity
  8
0
  6
Continuous
 62
     7
370
    15
100
AcDbSpline
210
0.0
220
0.0
230
1.0
 70
     8
 71
     3
 72
     8
 73
     4
 74
     0
 42
0.00000001
 43
0.00000001
 40
0.0000002019071586
 40
0.0000002019071586
 40
0.0000002019071586
 40
0.0000002019071586
 40
0.000117947001209
 40
0.000117947001209
 40
0.000117947001209
 40
0.000117947001209
 10
80.29866444806576
 20
128.4370335635947
 30
0.0
 10
80.29559645650065
 20
128.4320656251001
 30
0.0
 10
80.29228005166755
 20
128.4293582332878
 30
0.0
 10
80.28873920697114
 20
128.4289389438685
 30
0.0
  0
SPLINE
  5
2D5
330
1F
100
AcDbEntity
  8
0
  6
Continuous
 62
     7
370
    15
100
AcDbSpline
210
0.0
220
0.0
230
1.0
 70
     8
 71
     3
 72
    20
 73
    16
 74
     0
 42
0.00000001
 43
0.00000001
 40
0.0
 40
0.0
 40
0.0
 40
0.0
 40
0.25
 40
0.25
 40
0.375
 40
0.375
 40
0.5
 40
0.5
 40
0.625
 40
0.625
 40
0.75
 40
0.75
 40
0.875
 40
0.875
 40
1.0
 40
1.0
 40
1.0
 40
1.0
 10
72.40019674152255
 20
79.02574282253833
 30
0.0
 10
72.95173066969637
 20
78.76975652087027
 30
0.0
 10
73.479934404683
 20
78.54806455185874
 30
0.0
 10
74.22980956819896
 20
78.25848439535497
 30
0.0
 10
74.4706793707644
 20
78.16996881712947
 30
0.0
 10
74.92016362262761
 20
78.01138038950361
 30
0.0
 10
75.13081604013102
 20
77.94051946453749
 30
0.0
 10
75.52229416587006
 20
77.81357995040652
 30
0.0
 10
75.70372461255616
 20
77.75735552008769
 30
0.0
 10
76.02248233455248
 20
77.66156044466018
 30
0.0
 10
76.16161815675586
 20
77.62138673246798
 30
0.0
 10
76.39878166443114
 20
77.55441253698068
 30
0.0
 10
76.49722640573478
 20
77.52750708668383
 30
0.0
 10
76.64627443520973
 20
77.48728254491357
 30
0.0
 10
76.69754234842225
 20
77.47376808194106
 30
0.0
 10
76.7250991147633
 20
77.46651132616661
 30
0.0
  0
SPLINE
  5
2D6
330
1F
100
AcDbEntity
  8
0
  6
Continuous
 62
     7
370
    15
100
AcDbSpline
210
0.0
220
0.0
230
1.0
 70
     8
 71
     3
 72
    20
 73
    16
 74
     0
 42
0.00000001
 43
0.00000001
 40
0.0
 40
0.0
 40
0.0
 40
0.0
 40
0.2499999999999999
 40
0.2499999999999999
 40
0.3749999999999999
 40
0.3749999999999999
 40
0.5
 40
0.5
 40
0.6250000000000001
 40
0.6250000000000001
 40
0.75
 40
0.75
 40
0.875
 40
0.875
 40
1.0
 40
1.0
 40
1.0
 40
1.0
 10
80.28873920697112
 20
128.4289389438687
 30
0.0
 10
80.23216010677295
 20
128.4222391250105
 30
0.0
 10
80.08050177939137
 20
128.404615143381
 30
0.0
 10
79.71271393953978
 20
128.3544925477398
 30
0.0
 10
79.5677500682476
 20
128.3338531073246
 30
0.0
 10
79.240174098576
 20
128.2836039657639
 30
0.0
 10
79.05685383678578
 20
128.2539065540324
 30
0.0
 10
78.65097512281378
 20
128.1827084331535
 30
0.0
 10
78.42884761140206
 20
128.1412096031857
 30
0.0
 10
77.96144320640548
 20
128.0467365588677
 30
0.0
 10
77.71445476056277
 20
127.9934793600033
 30
0.0
 10
77.1947849192669
 20
127.8725783320822
 30
0.0
 10
76.9211899591805
 20
127.8046208362257
 30
0.0
 10
76.36459910433707
 20
127.656100570273
 30
0.0
 10
76.07980595895879
 20
127.5751558299532
 30
0.0
 10
75.78892340386152
 20
127.4867918558691
 30
0.0
  0
ELLIPSE
  5
2D7
330
1F
100
AcDbEntity
  8
0
  6
Continuous
 62
     7
370
    15
100
AcDbEllipse
 10
66.3320522514
 20
111.1224381781
 30
0.0
 11
2.019609832756203
 21
2.9847131989697
 31
0.0
210
0.0
220
0.0
230
1.0
 40
0.5680465928
 41
0.0
 42
6.283185307179586
  0
ARC
  5
2D8
330
1F
100
AcDbEntity
  8
0
  6
Continuous
 62
     7
370
    15
100
AcDbCircle
 10
83.3461701424
 20
102.6093317417
 30
0.0
 40
26.00000000000001
100
AcDbArc
 50
106.8976731548
 51
245.1023268452
  0
LINE
  5
2D9
330
1F
100
AcDbEntity
  8
0
  6
Continuous
 62
     7
370
    15
100
AcDbLine
 10
80.3930685618
 20
129.0093317417
 30
0.0
 11
77.6857814632
 21
129.0093317417
 31
0.0
  0
SPLINE
  5
2DA
330
1F
100
AcDbEntity
  8
0
  6
Continuous
 62
     7
370
    15
100
AcDbSpline
210
0.0
220
0.0
230
1.0
 70
    24
 71
     3
 72
    10
 73
     6
 74
     0
 42
0.00000001
 43
0.00000001
 40
0.0
 40
0.0
 40
0.0
 40
0.0
 40
0.5
 40
0.5
 40
1.0
 40
1.0
 40
1.0
 40
1.0
 10
74.34617014240041
 20
73.04905434109173
 30
0.0
 10
74.34617014240041
 20
72.88916707289806
 30
0.0
 10
74.34617014240041
 20
72.72803981738346
 30
0.0
 10
74.34617014240041
 20
72.49394081902862
 30
0.0
 10
74.34617014240041
 20
72.4224140454374
 30
0.0
 10
74.34617014240041
 20
72.4224140454374
 30
0.0
  0
ARC
  5
2DB
330
1F
100
AcDbEntity
  8
0
  6
Continuous
 62
     7
370
    15
100
AcDbCircle
 10
83.3461701424
 20
102.6093317417
 30
0.0
 40
31.49999999999999
100
AcDbArc
 50
140.9381656697
 51
253.398450401
  0
SPLINE
  5
2DC
330
1F
100
AcDbEntity
  8
0
  6
Continuous
 62
     7
370
    15
100
AcDbSpline
210
0.0
220
0.0
230
1.0
 70
    24
 71
     3
 72
    12
 73
     8
 74
     0
 42
0.00000001
 43
0.00000001
 40
0.0
 40
0.0
 40
0.0
 40
0.0
 40
0.2500000000000006
 40
0.2500000000000006
 40
0.5000000000000012
 40
0.5000000000000012
 40
1.0
 40
1.0
 40
1.0
 40
1.0
 10
58.8874804800328
 20
122.4593317416846
 30
0.0
 10
58.88748048003279
 20
122.4593317416846
 30
0.0
 10
58.91531020033627
 20
122.4593317416846
 30
0.0
 10
59.01045266159295
 20
122.4593317416846
 30
0.0
 10
59.07687547789331
 20
122.4593317416846
 30
0.0
 10
59.30107490941343
 20
122.4593317416846
 30
0.0
 10
59.48506131195905
 20
122.4593317416846
 30
0.0
 10
59.66521788114203
 20
122.4593317416846
 30
0.0
  0
SPLINE
  5
2DD
330
1F
100
AcDbEntity
  8
0
  6
Continuous
 62
     7
370
    15
100
AcDbSpline
210
0.0
220
0.0
230
1.0
 70
    24
 71
     3
 72
    10
 73
     6
 74
     0
 42
0.00000001
 43
0.00000001
 40
0.0
 40
0.0
 40
0.0
 40
0.0
 40
0.5
 40
0.5
 40
1.0
 40
1.0
 40
1.0
 40
1.0
 10
75.34617014240041
 20
132.4557720654484
 30
0.0
 10
75.34617014240041
 20
132.6161773317992
 30
0.0
 10
75.34617014240041
 20
132.7752391447878
 30
0.0
 10
75.34617014240041
 20
133.0061516104182
 30
0.0
 10
75.34617014240041
 20
133.0765272148488
 30
0.0
 10
75.34617014240041
 20
133.0765272148488
 30
0.0
  0
SPLINE
  5
2DE
330
1F
100
AcDbEntity
  8
0
  6
Continuous
 62
     7
370
    15
100
AcDbSpline
210
0.0
220
0.0
230
1.0
 70
    24
 71
     3
 72
    12
 73
     8
 74
     0
 42
0.00000001
 43
0.00000001
 40
0.0
 40
0.0
 40
0.0
 40
0.0
 40
0.249999999999998
 40
0.249999999999998
 40
0.499999999999996
 40
0.499999999999996
 40
1.0
 40
1.0
 40
1.0
 40
1.0
 10
63.4961701424004
 20
127.068021404052
 30
0.0
 10
63.4961701424004
 20
127.068021404052
 30
0.0
 10
63.4961701424004
 20
127.0398017054641
 30
0.0
 10
63.49617014240042
 20
126.945358698216
 30
0.0
 10
63.4961701424004
 20
126.8790717215107
 30
0.0
 10
63.4961701424004
 20
126.6534468982224
 30
0.0
 10
63.4961701424004
 20
126.4710206351898
 30
0.0
 10
63.4961701424004
 20
126.2902840029429
 30
0.0
  0
ARC
  5
2DF
330
1F
100
AcDbEntity
  8
0
  6
Continuous
 62
     7
370
    15
100
AcDbCircle
 10
83.3461701424
 20
102.6093317417
 30
0.0
 40
31.49999999999999
100
AcDbArc
 50
104.7124579609
 51
129.0618343303
  0
ARC
  5
2E0
330
1F
100
AcDbEntity
  8
0
  6
Continuous
 62
     7
370
    15
100
AcDbCircle
 10
83.3461701424
 20
102.6093317417
 30
0.0
 40
31.5
100
AcDbArc
 50
286.601549599
 51
31.0027191339
  0
SPLINE
  5
2E1
330
1F
100
AcDbEntity
  8
0
  6
Continuous
 62
     7
370
    15
100
AcDbSpline
210
0.0
220
0.0
230
1.0
 70
    24
 71
     3
 72
    12
 73
     8
 74
     0
 42
0.00000001
 43
0.00000001
 40
0.0
 40
0.0
 40
0.0
 40
0.0
 40
0.2499999999999999
 40
0.2499999999999999
 40
0.4999999999999998
 40
0.4999999999999998
 40
1.0
 40
1.0
 40
1.0
 40
1.0
 10
92.34617014240041
 20
72.42241404543739
 30
0.0
 10
92.34617014240041
 20
72.42241404543739
 30
0.0
 10
92.34617014240041
 20
72.43953113170326
 30
0.0
 10
92.3461701424004
 20
72.50426724317835
 30
0.0
 10
92.34617014240041
 20
72.55172448605869
 30
0.0
 10
92.34617014240041
 20
72.72854892859817
 30
0.0
 10
92.34617014240041
 20
72.88882543580388
 30
0.0
 10
92.34617014240041
 20
73.04905434109166
 30
0.0
  0
LINE
  5
2E2
330
1F
100
AcDbEntity
  8
0
  6
Continuous
 62
     7
370
    15
100
AcDbLine
 10
92.3461701424
 20
73.0490543411
 30
0.0
 11
92.3461701424
 21
76.2093317417
 31
0.0
  0
LINE
  5
2E3
330
1F
100
AcDbEntity
  8
0
  6
Continuous
 62
     7
370
    15
100
AcDbLine
 10
92.3461701424
 20
76.2093317417
 30
0.0
 11
89.0065588216
 21
76.2093317417
 31
0.0
  0
LINE
  5
2E4
330
1F
100
AcDbEntity
  8
0
  6
Continuous
 62
     7
370
    15
100
AcDbLine
 10
75.3461701424
 20
129.0093317417
 30
0.0
 11
75.3461701424
 21
132.4557720654
 31
0.0
  0
LINE
  5
2E5
330
1F
100
AcDbEntity
  8
0
  6
Continuous
 62
     7
370
    15
100
AcDbLine
 10
74.3461701424
 20
76.2093317417
 30
0.0
 11
74.3461701424
 21
73.0490543411
 31
0.0
  0
LINE
  5
2E6
330
1F
100
AcDbEntity
  8
0
  6
Continuous
 62
     7
370
    15
100
AcDbLine
 10
63.4961701424
 20
126.2902840029
 30
0.0
 11
63.4961701424
 21
122.4593317417
 31
0.0
  0
LINE
  5
2E7
330
1F
100
AcDbEntity
  8
0
  6
Continuous
 62
     7
370
    15
100
AcDbLine
 10
59.6652178811
 20
122.4593317417
 30
0.0
 11
63.4961701424
 21
122.4593317417
 31
0.0
  0
LINE
  5
2E8
330
1F
100
AcDbEntity
  8
0
  6
Continuous
 62
     7
370
    15
100
AcDbLine
 10
77.6857814632
 20
129.0093317417
 30
0.0
 11
75.3461701424
 21
129.0093317417
 31
0.0
  0
LINE
  5
2E9
330
1F
100
AcDbEntity
  8
0
  6
Continuous
 62
     7
370
    15
100
AcDbLine
 10
77.6857814632
 20
76.2093317417
 30
0.0
 11
74.3461701424
 21
76.2093317417
 31
0.0
  0
SPLINE
  5
2EA
330
1F
100
AcDbEntity
  8
0
  6
Continuous
 62
     7
370
    15
100
AcDbSpline
210
0.0
220
0.0
230
1.0
 70
     8
 71
     3
 72
    30
 73
    26
 74
     0
 42
0.00000001
 43
0.00000001
 40
0.0
 40
0.0
 40
0.0
 40
0.0
 40
0.1250000000000002
 40
0.1250000000000002
 40
0.1875000000000002
 40
0.1875000000000002
 40
0.2500000000000003
 40
0.2500000000000003
 40
0.3750000000000004
 40
0.3750000000000004
 40
0.4375000000000004
 40
0.4375000000000004
 40
0.5000000000000004
 40
0.5000000000000004
 40
0.6250000000000004
 40
0.6250000000000004
 40
0.6875000000000003
 40
0.6875000000000003
 40
0.7500000000000002
 40
0.7500000000000002
 40
0.8125000000000001
 40
0.8125000000000001
 40
0.8749999999999999
 40
0.8749999999999999
 40
1.0
 40
1.0
 40
1.0
 40
1.0
 10
84.34617014240048
 20
71.12520875882223
 30
0.0
 10
84.87758807280107
 20
71.14208767683085
 30
0.0
 10
85.39924727037524
 20
71.17210524165553
 30
0.0
 10
86.16788905753427
 20
71.23491563092863
 30
0.0
 10
86.4217788566993
 20
71.25881953815552
 30
0.0
 10
86.92485163264537
 20
71.31225483059792
 30
0.0
 10
87.17431548086202
 20
71.34186169876547
 30
0.0
 10
87.89922637845889
 20
71.4363113974799
 30
0.0
 10
88.35710371535106
 20
71.50733879130914
 30
0.0
 10
89.00687094083389
 20
71.6213530780149
 30
0.0
 10
89.21825764424408
 20
71.66080832915547
 30
0.0
 10
89.62289145501423
 20
71.74032977192613
 30
0.0
 10
89.81563192651544
 20
71.78026591442692
 30
0.0
 10
90.36606280289237
 20
71.89920231725506
 30
0.0
 10
90.69624618017299
 20
71.97736708113892
 30
0.0
 10
91.13492199682342
 20
72.08707652140781
 30
0.0
 10
91.27072055530995
 20
72.12215735811623
 30
0.0
 10
91.51759758815612
 20
72.18739763749583
 30
0.0
 10
91.62937612548413
 20
72.21773245354059
 30
0.0
 10
91.82980631535774
 20
72.27307083276243
 30
0.0
 10
91.91845865856122
 20
72.2980755093225
 30
0.0
 10
92.07212620624234
 20
72.3419553182132
 30
0.0
 10
92.13737391049419
 20
72.36089900297549
 30
0.0
 10
92.29367896385845
 20
72.40661873024568
 30
0.0
 10
92.34617014240045
 20
72.4224140454374
 30
0.0
 10
92.34617014240045
 20
72.4224140454374
 30
0.0
  0
SPLINE
  5
2EB
330
1F
100
AcDbEntity
  8
0
  6
Continuous
 62
     7
370
    15
100
AcDbSpline
210
0.0
220
0.0
230
1.0
 70
     8
 71
     3
 72
    28
 73
    24
 74
     0
 42
0.00000001
 43
0.00000001
 40
0.0
 40
0.0
 40
0.0
 40
0.0
 40
0.1250000000000001
 40
0.1250000000000001
 40
0.1875000000000001
 40
0.1875000000000001
 40
0.2500000000000001
 40
0.2500000000000001
 40
0.375
 40
0.375
 40
0.4375000000000001
 40
0.4375000000000001
 40
0.5
 40
0.5
 40
0.625
 40
0.625
 40
0.7499999999999999
 40
0.7499999999999999
 40
0.8124999999999999
 40
0.8124999999999999
 40
0.875
 40
0.875
 40
1.0
 40
1.0
 40
1.0
 40
1.0
 10
74.34617014240045
 20
72.4224140454374
 30
0.0
 10
74.34617014240045
 20
72.42241404543739
 30
0.0
 10
74.39864648471867
 20
72.40662933148718
 30
0.0
 10
74.55244343227557
 20
72.36163391741098
 30
0.0
 10
74.61631840730958
 20
72.34307892233525
 30
0.0
 10
74.7698146759661
 20
72.29922619988875
 30
0.0
 10
74.85962965135981
 20
72.27388159293656
 30
0.0
 10
75.16160844641068
 20
72.19047951518645
 30
0.0
 10
75.40756188046643
 20
72.12461395603536
 30
0.0
 10
75.84292905989481
 20
72.01564361554357
 30
0.0
 10
76.00014424206717
 20
71.97740397977692
 30
0.0
 10
76.33230886260961
 20
71.8996452423576
 30
0.0
 10
76.5071161282125
 20
71.86014428018223
 30
0.0
 10
77.05717531879833
 20
71.74123653781622
 30
0.0
 10
77.45779870319379
 20
71.6614188563916
 30
0.0
 10
78.33038481454251
 20
71.50807569459553
 30
0.0
 10
78.79052026214407
 20
71.43674194132629
 30
0.0
 10
79.51048635611026
 20
71.34279843425168
 30
0.0
 10
79.75576006614477
 20
71.31360464089174
 30
0.0
 10
80.25721640257362
 20
71.26013806662831
 30
0.0
 10
80.51464777194614
 20
71.23577873235315
 30
0.0
 10
81.29058756781065
 20
71.17218858690843
 30
0.0
 10
81.81481596771667
 20
71.14208565181917
 30
0.0
 10
82.3461701424005
 20
71.12520875882224
 30
0.0
  0
SPLINE
  5
2EC
330
1F
100
AcDbEntity
  8
0
  6
Continuous
 62
     7
370
    15
100
AcDbSpline
210
0.0
220
0.0
230
1.0
 70
     8
 71
     3
 72
    21
 73
    17
 74
     0
 42
0.00000001
 43
0.00000001
 40
0.0
 40
0.0
 40
0.0
 40
0.0
 40
0.1286431450365229
 40
0.1939624743745381
 40
0.2602485898307502
 40
0.3888427821677311
 40
0.4540811891558143
 40
0.5202272549517751
 40
0.5854439227207973
 40
0.6515639627199509
 40
0.7181423980688828
 40
0.7856646453738692
 40
0.8517451148919611
 40
0.918296181654348
 40
0.9863536363895457
 40
1.0
 40
1.0
 40
1.0
 40
1.0
 10
75.34617014240045
 20
133.0765272148488
 30
0.0
 10
75.36597802322653
 20
133.0817694600952
 30
0.0
 10
75.3958434744797
 20
133.089673486843
 30
0.0
 10
75.5812143394098
 20
133.1374417256597
 30
0.0
 10
75.83086092885017
 20
133.2002501698519
 30
0.0
 10
76.18551785182929
 20
133.2859795331015
 30
0.0
 10
76.63269795910479
 20
133.3863527438435
 30
0.0
 10
77.01679376304863
 20
133.467823066885
 30
0.0
 10
77.44587385542312
 20
133.5529254537625
 30
0.0
 10
77.91652677320214
 20
133.6391896805828
 30
0.0
 10
78.43103430361157
 20
133.7250867777627
 30
0.0
 10
78.9809903427023
 20
133.8071013457124
 30
0.0
 10
79.56207456534239
 20
133.8833199451186
 30
0.0
 10
80.17388247050195
 20
133.9505183894435
 30
0.0
 10
80.63919301739104
 20
133.9956948015271
 30
0.0
 10
80.90564441500602
 20
134.013891321647
 30
0.0
 10
80.95014775316075
 20
134.0169305471695
 30
0.0
  0
SPLINE
  5
2ED
330
1F
100
AcDbEntity
  8
0
  6
Continuous
 62
     7
370
    15
100
AcDbSpline
210
0.0
220
0.0
230
1.0
 70
     8
 71
     3
 72
    20
 73
    16
 74
     0
 42
0.00000001
 43
0.00000001
 40
0.0
 40
0.0
 40
0.0
 40
0.0
 40
0.2500000000000005
 40
0.2500000000000005
 40
0.3750000000000004
 40
0.3750000000000004
 40
0.5000000000000003
 40
0.5000000000000003
 40
0.6250000000000002
 40
0.6250000000000002
 40
0.7500000000000001
 40
0.7500000000000001
 40
0.8750000000000001
 40
0.8750000000000001
 40
1.0
 40
1.0
 40
1.0
 40
1.0
 10
58.88748048003307
 20
122.4593317416846
 30
0.0
 10
59.41813724786774
 20
123.113194169982
 30
0.0
 10
59.95186524412927
 20
123.7169799519791
 30
0.0
 10
60.734837562118
 20
124.5438186881477
 30
0.0
 10
60.99282116221467
 20
124.8062473261006
 30
0.0
 10
61.49721641862251
 20
125.3029099802055
 30
0.0
 10
61.7399948410505
 20
125.5334968592271
 30
0.0
 10
62.19067492056357
 20
125.9500510838097
 30
0.0
 10
62.40013878655484
 20
126.1375488857772
 30
0.0
 10
62.77842730314288
 20
126.4689458634137
 30
0.0
 10
62.94217498932736
 20
126.6084498509089
 30
0.0
 10
63.21036079152681
 20
126.8339033583799
 30
0.0
 10
63.31558519961356
 20
126.9205294699235
 30
0.0
 10
63.45964442492708
 20
127.0385102587776
 30
0.0
 10
63.49617014240046
 20
127.068021404052
 30
0.0
 10
63.49617014240046
 20
127.068021404052
 30
0.0
  0
ARC
  5
2EE
330
1F
100
AcDbEntity
  8
0
  6
Continuous
 62
     7
370
    15
100
AcDbCircle
 10
83.3461701424
 20
102.6093317417
 30
0.0
 40
31.49999999999999
100
AcDbArc
 50
268.180780706
 51
271.819219294
  0
CIRCLE
  5
2EF
330
1F
100
AcDbEntity
  8
VERMASSUNG
  6
CENTERX2
100
AcDbCircle
 10
84.0531137628
 20
107.5856454795
 30
0.0
 40
39.99999999999999
  0
DIMENSION
  5
2F0
330
1F
100
AcDbEntity
  8
VERMASSUNG
100
AcDbDimension
  2
*D6
 10
41.8461701424
 20
147.5856454795
 30
0.0
 11
41.8461701424
 21
107.5856454795
 31
0.0
 70
   160
  1
%%c<>
 71
     2
 42
-1.0
  3
SLDDIMSTYLE2
100
AcDbAlignedDimension
 13
84.0531137628
 23
67.5856454795
 33
0.0
 14
84.0531137628
 24
147.5856454795
 34
0.0
 50
90.0
100
AcDbRotatedDimension
  0
INSERT
  5
307
330
1F
100
AcDbEntity
  8
VERMASSUNG
100
AcDbBlockReference
  2
SW_CENTERMARKSYMBOL_0
 10
83.3461701424
 20
102.6093317417
 30
0.0
  0
OLE2FRAME
  5
308
330
1F
100
AcDbEntity
  8
0
100
AcDbOle2Frame
 70
     2
  3
Bitmap Image
 10
13.8511154363
 20
38.264191557
 30
0.0
 11
51.6290888628
 21
31.9806341108
 31
0.0
 71
     2
 72
     0
 73
     1
 90
    12928
310
80552BED0767C5B32B40DDAF6807D121434000000000000000006FFBDDFB85D0
310
4940DDAF6807D121434000000000000000006FFBDDFB85D04940416F4BD60AFB
310
3F4000000000000000002BED0767C5B32B40416F4BD60AFB3F40000000000000
310
0000000000000100000000010000010000000100000000000100000000320000
310
D0CF11E0A1B11AE1000000000000000000000000000000003E000300FEFF0900
310
0600000000000000000000000100000001000000000000000010000002000000
310
01000000FEFFFFFF0000000000000000FFFFFFFFFFFFFFFFFFFFFFFFFFFFFFFF
310
FFFFFFFFFFFFFFFFFFFFFFFFFFFFFFFFFFFFFFFFFFFFFFFFFFFFFFFFFFFFFFFF
310
FFFFFFFFFFFFFFFFFFFFFFFFFFFFFFFFFFFFFFFFFFFFFFFFFFFFFFFFFFFFFFFF
310
FFFFFFFFFFFFFFFFFFFFFFFFFFFFFFFFFFFFFFFFFFFFFFFFFFFFFFFFFFFFFFFF
310
FFFFFFFFFFFFFFFFFFFFFFFFFFFFFFFFFFFFFFFFFFFFFFFFFFFFFFFFFFFFFFFF
310
FFFFFFFFFFFFFFFFFFFFFFFFFFFFFFFFFFFFFFFFFFFFFFFFFFFFFFFFFFFFFFFF
310
FFFFFFFFFFFFFFFFFFFFFFFFFFFFFFFFFFFFFFFFFFFFFFFFFFFFFFFFFFFFFFFF
310
FFFFFFFFFFFFFFFFFFFFFFFFFFFFFFFFFFFFFFFFFFFFFFFFFFFFFFFFFFFFFFFF
310
FFFFFFFFFFFFFFFFFFFFFFFFFFFFFFFFFFFFFFFFFFFFFFFFFFFFFFFFFFFFFFFF
310
FFFFFFFFFFFFFFFFFFFFFFFFFFFFFFFFFFFFFFFFFFFFFFFFFFFFFFFFFFFFFFFF
310
FFFFFFFFFFFFFFFFFFFFFFFFFFFFFFFFFFFFFFFFFFFFFFFFFFFFFFFFFFFFFFFF
310
FFFFFFFFFFFFFFFFFFFFFFFFFFFFFFFFFFFFFFFFFFFFFFFFFFFFFFFFFFFFFFFF
310
FFFFFFFFFFFFFFFFFFFFFFFFFFFFFFFFFFFFFFFFFFFFFFFFFFFFFFFFFFFFFFFF
310
FFFFFFFFFFFFFFFFFFFFFFFFFFFFFFFFFFFFFFFFFFFFFFFFFFFFFFFFFFFFFFFF
310
FDFFFFFFFEFFFFFFFEFFFFFFFEFFFFFF05000000060000000700000008000000
310
090000000A0000000B0000000C0000000D0000000E0000000F00000010000000
310
11000000120000001300000014000000150000001600000017000000FEFFFFFF
310
FFFFFFFFFFFFFFFFFFFFFFFFFFFFFFFFFFFFFFFFFFFFFFFFFFFFFFFFFFFFFFFF
310
FFFFFFFFFFFFFFFFFFFFFFFFFFFFFFFFFFFFFFFFFFFFFFFFFFFFFFFFFFFFFFFF
310
FFFFFFFFFFFFFFFFFFFFFFFFFFFFFFFFFFFFFFFFFFFFFFFFFFFFFFFFFFFFFFFF
310
FFFFFFFFFFFFFFFFFFFFFFFFFFFFFFFFFFFFFFFFFFFFFFFFFFFFFFFFFFFFFFFF
310
FFFFFFFFFFFFFFFFFFFFFFFFFFFFFFFFFFFFFFFFFFFFFFFFFFFFFFFFFFFFFFFF
310
FFFFFFFFFFFFFFFFFFFFFFFFFFFFFFFFFFFFFFFFFFFFFFFFFFFFFFFFFFFFFFFF
310
FFFFFFFFFFFFFFFFFFFFFFFFFFFFFFFFFFFFFFFFFFFFFFFFFFFFFFFFFFFFFFFF
310
FFFFFFFFFFFFFFFFFFFFFFFFFFFFFFFFFFFFFFFFFFFFFFFFFFFFFFFFFFFFFFFF
310
FFFFFFFFFFFFFFFFFFFFFFFFFFFFFFFFFFFFFFFFFFFFFFFFFFFFFFFFFFFFFFFF
310
FFFFFFFFFFFFFFFFFFFFFFFFFFFFFFFFFFFFFFFFFFFFFFFFFFFFFFFFFFFFFFFF
310
FFFFFFFFFFFFFFFFFFFFFFFFFFFFFFFFFFFFFFFFFFFFFFFFFFFFFFFFFFFFFFFF
310
FFFFFFFFFFFFFFFFFFFFFFFFFFFFFFFFFFFFFFFFFFFFFFFFFFFFFFFFFFFFFFFF
310
FFFFFFFFFFFFFFFFFFFFFFFFFFFFFFFFFFFFFFFFFFFFFFFFFFFFFFFFFFFFFFFF
310
52006F006F007400200045006E00740072007900000000000000000000000000
310
0000000000000000000000000000000000000000000000000000000000000000
310
16000500FFFFFFFFFFFFFFFF020000000A00030000000000C000000000000046
310
000000000000000000000000604C3C426CD2CB0103000000C000000000000000
310
01004F006C006500000000000000000000000000000000000000000000000000
310
0000000000000000000000000000000000000000000000000000000000000000
310
0A000200FFFFFFFFFFFFFFFFFFFFFFFF00000000000000000000000000000000
310
0000000000000000000000000000000000000000000000001400000000000000
310
010043006F006D0070004F0062006A0000000000000000000000000000000000
310
0000000000000000000000000000000000000000000000000000000000000000
310
120002010100000003000000FFFFFFFF00000000000000000000000000000000
310
0000000000000000000000000000000000000000010000004D00000000000000
310
01004F006C006500310030004E00610074006900760065000000000000000000
310
0000000000000000000000000000000000000000000000000000000000000000
310
1A000200FFFFFFFFFFFFFFFFFFFFFFFF00000000000000000000000000000000
310
0000000000000000000000000000000000000000040000002426000000000000
310
FEFFFFFF02000000FEFFFFFFFFFFFFFFFFFFFFFFFFFFFFFFFFFFFFFFFFFFFFFF
310
FFFFFFFFFFFFFFFFFFFFFFFFFFFFFFFFFFFFFFFFFFFFFFFFFFFFFFFFFFFFFFFF
310
FFFFFFFFFFFFFFFFFFFFFFFFFFFFFFFFFFFFFFFFFFFFFFFFFFFFFFFFFFFFFFFF
310
FFFFFFFFFFFFFFFFFFFFFFFFFFFFFFFFFFFFFFFFFFFFFFFFFFFFFFFFFFFFFFFF
310
FFFFFFFFFFFFFFFFFFFFFFFFFFFFFFFFFFFFFFFFFFFFFFFFFFFFFFFFFFFFFFFF
310
FFFFFFFFFFFFFFFFFFFFFFFFFFFFFFFFFFFFFFFFFFFFFFFFFFFFFFFFFFFFFFFF
310
FFFFFFFFFFFFFFFFFFFFFFFFFFFFFFFFFFFFFFFFFFFFFFFFFFFFFFFFFFFFFFFF
310
FFFFFFFFFFFFFFFFFFFFFFFFFFFFFFFFFFFFFFFFFFFFFFFFFFFFFFFFFFFFFFFF
310
FFFFFFFFFFFFFFFFFFFFFFFFFFFFFFFFFFFFFFFFFFFFFFFFFFFFFFFFFFFFFFFF
310
FFFFFFFFFFFFFFFFFFFFFFFFFFFFFFFFFFFFFFFFFFFFFFFFFFFFFFFFFFFFFFFF
310
FFFFFFFFFFFFFFFFFFFFFFFFFFFFFFFFFFFFFFFFFFFFFFFFFFFFFFFFFFFFFFFF
310
FFFFFFFFFFFFFFFFFFFFFFFFFFFFFFFFFFFFFFFFFFFFFFFFFFFFFFFFFFFFFFFF
310
FFFFFFFFFFFFFFFFFFFFFFFFFFFFFFFFFFFFFFFFFFFFFFFFFFFFFFFFFFFFFFFF
310
FFFFFFFFFFFFFFFFFFFFFFFFFFFFFFFFFFFFFFFFFFFFFFFFFFFFFFFFFFFFFFFF
310
FFFFFFFFFFFFFFFFFFFFFFFFFFFFFFFFFFFFFFFFFFFFFFFFFFFFFFFFFFFFFFFF
310
FFFFFFFFFFFFFFFFFFFFFFFFFFFFFFFFFFFFFFFFFFFFFFFFFFFFFFFFFFFFFFFF
310
0100000200000000000000000000000000000000000000003E03820000000004
310
B0BE153100000000C80225000000000000000000000000000000000000000000
310
0100FEFF030A0000FFFFFFFF0A00030000000000C00000000000004607000000
310
5042727573680007000000504272757368000700000050427275736800F439B2
310
7100000000000000000000000000000000000000000000000000000000000000
310
0000000000000000000000000000000000000000000000000000000000000000
310
0000000000000000000000000000000000000000000000000000000000000000
310
0000000000000000000000000000000000000000000000000000000000000000
310
0000000000000000000000000000000000000000000000000000000000000000
310
0000000000000000000000000000000000000000000000000000000000000000
310
0000000000000000000000000000000000000000000000000000000000000000
310
0000000000000000000000000000000000000000000000000000000000000000
310
0000000000000000000000000000000000000000000000000000000000000000
310
0000000000000000000000000000000000000000000000000000000000000000
310
0000000000000000000000000000000000000000000000000000000000000000
310
0000000000000000000000000000000000000000000000000000000000000000
310
20260000424D0E260000000000003E00000028000000B40200006E0000000100
310
01000000000000000000130B0000130B00000200000002000000000000FFFFFF
310
FFFFFFFFFFFFFFFFFFFFFFFFFFFFFFFFFFFFFFFFFFFFFFFFFFFFFFFFFFFFFFFF
310
FFFFFFFFFFFFFFFFFFFFFFFFFFFFFFFFFFFFFFFFFFFFFFFFFFFFFFFFFFFFFFFF
310
FFFFFFFFFFFFFFFFFFFFFFFFFFFFFFFFFFFFFFFFFFFFFFFFF000FFFFFFFFFFFF
310
FFFFFFFFFFFFFFFFFFFFFFFFFFFFFFFFFFFFFFFFFFFFFFFFFFFFFFFFFFFFFFFF
310
FFFFFFFFFFFFFFFFFFFFFFFFFFFFFFFFFFFFFFFFFFFFFFFFFFFFFFFFFFFFFFFF
310
FFFFFFFFFFFFFFFFFFFFFFFFFFFFFFFFF000FFFFFFFFFFFFFFFFFFFFFFFFFFFF
310
FFFFFFFFFFFFFFFFFFFFFFFFFFFFFFFFFFFFFFFFFFFFFFFFFFFFFFFFFFFFFFFF
310
FFFFFFFFFFFFFFFFFFFFFFFFFFFFFFFFFFFFFFFFFFFFFFFFFFFFFFFFFFFFFFFF
310
FFFFFFFFFFFFFFFFF000FFFFFFFFFFFFFFFFFFFFFFFFFFFFFFFFFFFFFFFFFFFF
310
FFFFFFFFFFFFFFFFFFFFFFFFFFFFFFFFFFFFFFFFFFFFFFFFFFFFFFFFFFFFFFFF
310
FFFFFFFFFFFFFFFFFFFFFFFFFFFFFFFFFFFFFFFFFFFFFFFFFFFFFFFFFFFFFFFF
310
F000FFFFFFFFFFFFFFFFFFFFFFFFFFFFFFFFFFFFFFFFFFFFFFFFFFFFFFFFFFFF
310
FFFFFFFFFFFFFFFFFFFFFFFFFFFFFFFFFFFFFFFFFFFFFFFFFFFFFFFFFFFFFFFF
310
FFFFFFFFFFFFFFFFFFFFFFFFFFFFFFFFFFFFFFFFFFFFFFFFF000FFFFFFFFFFFF
310
FFFFFFFFFFFFFFFFFFFFFFFFFFFFFFFFFFFFFFFFFFFFFFFFFFFFFFFFFFFFFFFF
310
FFFFFFFFFFFFFFFFFFFFFFFFFFFFFFFFFFFFFFFFFFFFFFFFFFFFFFFFFFFFFFFF
310
FFFFFFFFFFFFFFFFFFFFFFFFFFFFFFFFF000FFFFFFFFFFFFFFFFFFFFFFFFFFFF
310
FFFFFFFFFFFFFFFFFFFFFFFFFFFFFFFFFFFFFFFFFFFFFFFFFFFFFFFFFFFFFFFF
310
FFFFFFFFFFFFFFFFFFFFFFFFFFFFFFFFFFFFFFFFFFFFFFFFFFFFFFFFFFFFFFFF
310
FFFFFFFFFFFFFFFFF000FFFFFFFFFFFFFFFFFFFFFFFFFFFFFFFFFFFFFFFFFFFF
310
FFFFFFFFFFFFFFFFFFFFFFFFFFFFFFFFFFFFFFFFFFFFFFFFFFFFFFFFFFFFFFFF
310
FFFFFFFFFFFFFFFFFFFFFFFFFFFFFFFFFFFFFFFFFFFFFFFFFFFFFFFFFFFFFFFF
310
F000FFFFFFFFFFFFFFFFFFFFFFFFFFFFFFFFFFFFFFFFFFFFFFFFFFFFFFFFFFFF
310
FFFFFFFFFFFFFFFFFFFFFFFFFFFFFFFFFFFFFFFFFFFFFFFFFFFFFFFFFFFFFFFF
310
FFFFFFFFFFFFFFFFFFFFFFFFFFFFFFFFFFFFFFFFFFFFFFFFF000FFFFFFFFFFFF
310
FFFFFFFFFFFFFFFFFFFFFFFFFFFFFFFFFFFFFFFFFFFFFFFFFFFFFFFFFFFFFFFF
310
FFFFFFFFFFFFFFFFFFFFFFFFFFFFFFFFFFFFFFFFFFFFFFFFFFFFFFFFFFFFFFFF
310
FFFFFFFFFFFFFFFFFFFFFFFFFFFFFFFFF000FFFFFFFFFFFFFFFFFFFFFFFFFFFF
310
FFFFFFFFFFFFFFFFFFFFFFFFFFFFFFFFFFFFFFFFFFFFFFFFFFFFFFFFFFFFFFFF
310
FFFFFFFFFFFFFFFFFFFFFFFFFFFFFFFFFFFFFFFFFFFFFFFFFFFFFFFFFFFFFFFF
310
FFFFFFFFFFFFFFFFF000FFFFFFFFFFFFFFFFFFFFFFFFFFFFFFFFFFFFFFFFFFFF
310
FFFFFFFFFFFFFFFFFFFFFFFFFFFFFFFFFFFFFFFFFFFFFFFFFFFFFFFFFFFFFFFF
310
FFFFFFFFFFFFFFFFFFFFFFFFFFFFFFFFFFFFFFFFFFFFFFFFFFFFFFFFFFFFFFFF
310
F000FFFFFFFFFFFFFFFFFFFFFFFFFFFFFFFFFFFFFFFFFFFFFFFFFFFFFFFFFFFF
310
FFFFFFFFFFFFFFFFFFFFFFFFFFFFFFFFFFFFFFFFFFFFFFFFFFFFFFFFFFFFFFFF
310
FFFFFFFFFFFFFFFFFFFFFFFFFFFFFFFFFFFFFFFFFFFFFFFFF000FFFFFFFFFFFF
310
FFFFFFFFFFFFFFFFFFFFFFFFFFFFFFFFFFFFFFFFFFFFFFFFFFFFFFFFFFFFFFFF
310
FFFFFFFFFFFFFFFFFFFFFFFFFFFFFFFFFFFFFFFFFFFFFFFFFFFFFFFFFFFFFFFF
310
FFFFFFFFFFFFFFFFFFFFFFFFFFFFFFFFF000FFFFFFFFFFFFFFFFFFFFFFFFFFFF
310
FFFFFFFFFFFFFFFFFFFFFFFFFFFFFFFFFFFFFFFFFFFFFFFFFFFFFFFFFFFFFFFF
310
FFFFFFFFFFFFFFFFFFFFFFFFFFFFFFFFFFFFFFFFFFFFFFFFFFFFFFFFFFFFFFFF
310
FFFFFFFFFFFFFFFFF000FFFFFFFFFFFFFFFFFFFFFFFFFFFFFFFFFFFFFFFFFFFF
310
FFFFFFFFFFFFFFFFFFFFFFFFFFFFFFFFFFFFFFFFFFFFFFFFFFFFFFFFFFFFFFFF
310
FFFFFFFFFFFFFFFFFFFFFFFFFFFFFFFFFFFFFFFFFFFFFFFFFFFFFFFFFFFFFFFF
310
F000FFFFFFFFFFFFFFFFFFFFFFFFFFFFFFFFFFFFFFFFFFFFFFFFFFFFFFFFFFFF
310
FFFFFFFFFFFFFFFFFFFFFFFFFFFFFFFFFFFFFFFFFFFFFFFFFFFFFFFFFFFFFFFF
310
FFFFFFFFFFFFFFFFFFFFFFFFFFFFFFFFFFFFFFFFFFFFFFFFF000FFFFFFFFFFFF
310
FFFFFFFFFFFFFFFFFFFFFFFFFFFFFFFFFFFFFFFFFFFFFFFFFFFFFFFFFFFFFFFF
310
FFFFFFFFFFFFFFFFFFFFFFFFFFFFFFFFFFFFFFFFFFFFFFFFFFFFFFFFFFFFFFFF
310
FFFFFFFFFFFFFFFFFFFFFFFFFFFFFFFFF000FFFFFFFFFFFFFFFFFFFFFFFFFFFF
310
FFFFFFFFFFFFFFFFFFFFFFFFFFFFFFFFFFFFFFFFFFFFFFFFFFFFFFFFFFFFFFFF
310
FFFFFFFFFFFFFFFFFFFFFFFFFFFFFFFFFFFFFFFFFFFFFFFFFFFFFFFFFFFFFFFF
310
FFFFFFFFFFFFFFFFF000FFFFF80003FFFFFFFFFFFFFFFFFFFFFFFFFFFFFFFFFF
310
FFFFF00007FFFFFFFFFF00007FFFFFF800000000000000007FFFFFFFFFFFFFFF
310
FFFFFFFC001FFFFFFFFFFFFFFC001FFFFFFFFFFFFFFFFFFFFFFFFFFE0007FFFF
310
F000FFFF8000007FFFFFFFF8000FFFFFC0007FFFFF80007FFFFF0000007FFFFF
310
FFF8000007FFFFF800000000000000007FFFFFF0001FFFFFFFFFFFC00001FFFF
310
FFFFFFFFC00001FFFFFFFF000000000003FFFFE000007FFFF000FFFE0000000F
310
FFFFFFF0000FFFFF80007FFFFF80007FFFFC0000001FFFFFFFC0000001FFFFF8
310
00000000000000007FFFFFF0001FFFFFFFFFFE0000003FFFFFFFFFFE0000003F
310
FFFFFF000000000003FFFF0000000FFFF000FFF800000003FFFFFFF00007FFFF
310
80007FFFFF80007FFFF000000007FFFFFF000000003FFFF80000000000000000
310
7FFFFFF0001FFFFFFFFFF80000000FFFFFFFFFF80000000FFFFFFF0000000000
310
03FFFC00000003FFF000FFE000000000FFFFFFF00007FFFF80003FFFFF80007F
310
FFC000000001FFFFFC000000001FFFF800000000000000007FFFFFF0001FFFFF
310
FFFFE000000003FFFFFFFFE000000003FFFFFF000000000003FFF000000000FF
310
F000FF80000000007FFFFFF00007FFFF80003FFFFF80007FFF8000000000FFFF
310
F80000000007FFF800000000000000007FFFFFF0001FFFFFFFFFC000000001FF
310
FFFFFFC000000001FFFFFF000000000003FFC0000000007FF000FF0000000000
310
3FFFFFE00007FFFF00003FFFFF80007FFE00000000003FFFF00000000003FFF8
310
00000000000000007FFFFFF0001FFFFFFFFF8000000000FFFFFFFF8000000000
310
FFFFFF000000000003FF80000000003FF000FE00000000001FFFFFE00003FFFF
310
00003FFFFF80007FFC00000000001FFFE00000000001FFF8000001FFFE000000
310
7FFFFFF0001FFFFFFFFE00000000003FFFFFFE00000000003FFFFF0000000000
310
03FF00000000001FF000FC00000000000FFFFFE00003FFFF00001FFFFF80007F
310
F800000000001FFFC00000000000FFF8000001FFFE0000007FFFFFF0001FFFFF
310
FFFC00000000001FFFFFFC00000000001FFFFF000000000003FE00000000000F
310
F000F8000000000007FFFFE00003FFFF00001FFFFF80007FF800000000000FFF
310
800000000000FFF8000001FFFE0000007FFFFFF0001FFFFFFFF800000000000F
310
FFFFF800000000000FFFFF000000000003FC000000000007F000F80000000000
310
03FFFFC00003FFFE00001FFFFF80007FF0000000000007FF0000000000007FF8
310
000001FFFE0000007FFFFFF0001FFFFFFFF0000000000007FFFFF00000000000
310
07FFFF000000000003F8000000000003F000F0000000000003FFFFC00001FFFE
310
00001FFFFF80007FE0000000000007FE0000000000003FF8000001FFFE000000
310
7FFFFFF0001FFFFFFFF0000000000007FFFFF0000000000007FFFF0000000000
310
03F800001F800003F000E00001FFF00001FFFFC00001FFFE00000FFFFF80007F
310
E00001FFE00003FE00001FFF00003FF8000001FFFE0000007FFFFFF0001FFFFF
310
FFE000003E000003FFFFE000003E000003FFFF000000000003F00001FFF80001
310
F000E00007FFFC0001FFFFC00001FFFE00000FFFFF80007FC0000FFFFC0003FC
310
0000FFFFC0001FF8000001FFFE0000007FFFFFF0001FFFFFFFC00003FFE00001
310
FFFFC00003FFE00001FFFF0001FFFFFFFFF00007FFFE0001F000E0000FFFFF00
310
00FFFF800001FFFC00000FFFFF80007FC0001FFFFE0001FC0001FFFFE0001FF8
310
000001FFFE0000007FFFFFF0001FFFFFFF80000FFFF80000FFFF80000FFFF800
310
00FFFF0003FFFFFFFFE0000FFFFF8000F000C0003FFFFF8000FFFF800000FFFC
310
000007FFFF80007F80003FFFFF0001FC0003FFFFF0001FF8000001FFFE000000
310
7FFFFFF0001FFFFFFF80003FFFFE0000FFFF80003FFFFE0000FFFF0003FFFFFF
310
FFE0003FFFFF8000F000C0003FFFFF8000FFFF800000FFFC000007FFFF80007F
310
80007FFFFF8001F80007FFFFF8000FF8000001FFFE0000007FFFFFF0001FFFFF
310
FF00007FFFFF00007FFF00007FFFFF00007FFF0003FFFFFFFFE0003FFFFFC000
310
F000C0007FFFFFC000FFFF000000FFFC000007FFFF80007F8000FFFFFF8000F8
310
000FFFFFF8000FF8000001FFFE0000007FFFFFF0001FFFFFFF0000FFFFFF8000
310
7FFF0000FFFFFF80007FFF0003FFFFFFFFC0007FFFFFC00070008000FFFFFFC0
310
00FFFF000000FFF8000007FFFF80007F8000FFFFFF8000F8000FFFFFF8000FF8
310
000001FFFE0000007FFFFFF0001FFFFFFE0001FFFFFFC0003FFE0001FFFFFFC0
310
003FFF0003FFFFFFFFC0007FFFFFE00070008000FFFFFFC0007FFF0000007FF8
310
000003FFFF80007F0001FFFFFF8000F8000FFFFFF8000FF8000001FFFE000000
310
7FFFFFF0001FFFFFFE0001FFFFFFC0003FFE0001FFFFFFC0003FFF0003FFFFFF
310
FFC000FFFFFFE00070008000FFFFFFC0007FFF0000007FF8000003FFFF80007F
310
0001FFFFFF8000F8001FFFFFF8000FF8000001FFFE0000007FFFFFF0001FFFFF
310
FE0003FFFFFFE0003FFE0003FFFFFFE0003FFF0003FFFFFFFFC000FFFFFFE000
310
70008000FFFFFFC0007FFE0000007FF8000003FFFF80007F0001FFFFFF8000F0
310
001FFFFFF8000FF8000001FFFE0000007FFFFFF0001FFFFFFC0003FFFFFFE000
310
1FFC0003FFFFFFE0001FFF0003FFFFFFFFC000FFFFFFC00070008000FFFFFF80
310
007FFE0000007FF0000003FFFF80007F0001FFFFFF0000F0001FFFFFF8000FF8
310
000001FFFE0000007FFFFFF0001FFFFFFC0007FFFFFFF0001FFC0007FFFFFFF0
310
001FFF0003FFFFFFFFC000FFFFFFC00070008001FFFFFF0000FFFE0000003FF0
310
000001FFFF80007F0001FFFFFF0000F8001FFFFFF0000FF8000001FFFE000000
310
7FFFFFF0001FFFFFFC0007FFFFFFF0001FFC0007FFFFFFF0001FFF0003FFFFFF
310
FFC001FFFFFF80007000FFFFFFFFFE0000FFFE0008003FF0008001FFFF80007F
310
FFFFFFFFFC0000FFFFFFFFFFE0000FF8000001FFFE0000007FFFFFF0001FFFFF
310
F8000FFFFFFFF8000FF8000FFFFFFFF8000FFF0003FFFFFFFFFFFFFFFFFF0000
310
7000FFFFFFFFFC0000FFFC0008003FF0008001FFFF80007FFFFFFFFFF80001FF
310
FFFFFFFF80000FF8000001FFFE0000007FFFFFF0001FFFFFF8000FFFFFFFF800
310
0FF8000FFFFFFFF8000FFF0003FFFFFFFFFFFFFFFFFE0000F000FFFFFFFFE000
310
00FFFC000C003FE000C001FFFF80007FFFFFFFFFC00001FFFFFFFFFE00001FF8
310
000001FFFE0000007FFFFFF0001FFFFFF8000FFFFFFFF8000FF8000FFFFFFFF8
310
000FFF0003FFFFFFFFFFFFFFFFF00000F000FFFFFFFE000001FFFC000C001FE0
310
00C000FFFF80007FFFFFFFFE000001FFFFFFFFE000001FF80FFFFFFFFFFFFFC0
310
7FFFFFF0001FFFFFF8000FFFFFFFF8000FF8000FFFFFFFF8000FFF0003FFFFFF
310
FFFFFFFFFF800000F000FFFFFFC0000001FFFC001C001FE001C000FFFF80007F
310
FFFFFF80000003FFFFFFF80000001FF80FFFFFFFFFFFFFC07FFFFFF0001FFFFF
310
F8001FFFFFFFFC000FF8001FFFFFFFFC000FFF0003FFFFFFFFFFFFFFF0000001
310
F000FFFFF800000001FFF8001C001FE001C000FFFF80007FFFFFF800000003FF
310
FFFF800000003FF80FFFFFFFFFFFFFC07FFFFFF0001FFFFFF8001FFFFFFFFC00
310
0FF8001FFFFFFFFC000FFF0003FFFFFFFFFFFFFE00000001F000FFFFC0000000
310
03FFF8001E001FC001E000FFFF80007FFFFF8000000007FFFFFC000000003FF8
310
0FFFFFFFFFFFFFC07FFFFFF0001FFFFFF8001FFFFFFFFC000FF8001FFFFFFFFC
310
000FFF0003FFFFFFFFFFFFE000000003F000FFFE0000000007FFF8001E000FC0
310
01E0007FFF80007FFFFE0000000007FFFFE0000000007FF80FFFFFFFFFFFFFC0
310
7FFFFFF0001FFFFFF0001FFFFFFFFC0007F0001FFFFFFFFC0007FF0003FFFFFF
310
FFFFFF0000000003F000FFF80000000007FFF8001E000FC003E0007FFF80007F
310
FFF0000000000FFFFF8000000000FFF80FFFFFFFFFFFFFC07FFFFFF0001FFFFF
310
F0001FFFFFFFFC0007F0001FFFFFFFFC0007FF0003FFFFFFFFFFFC0000000007
310
F000FFE0000000000FFFF0003E000FC003E0007FFF80007FFFC0000000001FFF
310
FE0000000001FFF80FFFFFFFFFFFFFC07FFFFFF0001FFFFFF0001FFFFFFFFC00
310
07F0001FFFFFFFFC0007FF0003FFFFFFFFFFF0000000000FF000FFC000000000
310
1FFFF0003F000F8003F0003FFF80007FFF80000000003FFFF80000000003FFF8
310
0FFFFFFFFFFFFFC07FFFFFF0001FFFFFF0001FFFFFFFFC0007F0001FFFFFFFFC
310
0007FF0003FFFFFFFFFFE0000000001FF000FF00000000007FFFF0003F000780
310
03F0003FFF80007FFF00000000007FFFF00000000007FFF80FFFFFFFFFFFFFC0
310
7FFFFFF0001FFFFFF0001FFFFFFFFC0007F0001FFFFFFFFC0007FF0003FFFFFF
310
FFFF80000000007FF000FE0000000000FFFFE0003F00078007F0003FFF80007F
310
FE0000000001FFFFE0000000001FFFF80FFFFFFFFFFFFFC07FFFFFF0001FFFFF
310
F0001FFFFFFFFC0007F0001FFFFFFFFC0007FF0003FFFFFFFFFF0000000000FF
310
F000FC0000000003FFFFE0007F00078007F0003FFF80007FFC0000000007FFFF
310
C0000000007FFFF80FFFFFFFFFFFFFC07FFFFFF0001FFFFFF8001FFFFFFFFC00
310
0FF8001FFFFFFFFC000FFF0003FFFFFFFFFE0000000003FFF000FC000000000F
310
FFFFE0007F80070007F8001FFF80007FF8000000001FFFFF8000000001FFFFF8
310
0FFFFFFFFFFFFFC07FFFFFF0001FFFFFF8001FFFFFFFFC000FF8001FFFFFFFFC
310
000FFF0003FFFFFFFFFC000000000FFFF000F8000000007FFFFFE0007F800700
310
07F8001FFF80007FF000000000FFFFFF800000000FFFFFF80FFFFFFFFFFFFFC0
310
7FFFFFF0001FFFFFF8000FFFFFFFF8000FF8000FFFFFFFF8000FFF0003FFFFFF
310
FFFC000000007FFFF000F800000007FFFFFFC0007F8003000FF8001FFF80007F
310
F000000007FFFFFF000000007FFFFFF80FFFFFFFFFFFFFC07FFFFFF0001FFFFF
310
F8000FFFFFFFF8000FF8000FFFFFFFF8000FFF0003FFFFFFFFF80000000FFFFF
310
F000F0000000FFFFFFFFC000FF8003000FF8001FFF80007FE0000000FFFFFFFF
310
0000000FFFFFFFF8000001FFFE0000007FFFFFF0001FFFFFF8000FFFFFFFF800
310
0FF8000FFFFFFFF8000FFF0003FFFFFFFFF8000000FFFFFFF000F000000FFFFF
310
FFFFC000FFC002000FF8000FFF80007FE000001FFFFFFFFE000001FFFFFFFFF8
310
000001FFFE0000007FFFFFF0001FFFFFF8000FFFFFFFF8000FF8000FFFFFFFF8
310
000FFF0003FFFFFFFFF000001FFFFFFFF000E00000FFFFFFFFFFC000FFC00200
310
0FFC000FFF80007FE00001FFFFFFFFFE00001FFFFFFFFFF8000001FFFE000000
310
7FFFFFF0001FFFFFFC000FFFFFFFF8001FFC000FFFFFFFF8001FFF0003FFFFFF
310
FFF00001FFFFFFFFF000E00007FFFFFFFFFF8000FFC000001FFC000FFF80007F
310
C0000FFFFFFFFFFE0000FFFFFFFFFFF8000001FFFE0000007FFFFFF0001FFFFF
310
FC0007FFFFFFF0001FFC0007FFFFFFF0001FFF0003FFFFFFFFF00007FFFFFFFF
310
F000E0001FFFFFFFFFFF8000FFC000001FFC000FFF80007FC0003FFFFFFFFFFE
310
0001FFFFFFFFFFF8000001FFFE0000007FFFFFF0001FFFFFFC0007FFFFFFF000
310
1FFC0007FFFFFFF0001FFF0003FFFFFFFFF0001FFFFFFFFFF000E0003FFFFF00
310
03FF8001FFE000001FFC0007FF80007FC0007FFFFF0007FC0003FFFFF0003FF8
310
000001FFFE0000007FFFFFF0001FFFFFFC0003FFFFFFE0001FFC0003FFFFFFE0
310
001FFF0003FFFFFFFFF0003FFFFFFFFFF000E0003FFFFF0001FF8001FFE00000
310
1FFE0007FF80007FC0007FFFFE0003FC0007FFFFE0003FF8000001FFFE000000
310
7FFFFFF0001FFFFFFE0003FFFFFFE0003FFE0003FFFFFFE0003FFF0003FFFFFF
310
FFF0003FFFFF8001F000E0003FFFFF0001FF0001FFE000001FFE0007FF80007F
310
C0007FFFFE0003FC0007FFFFE0003FF8000001FFFE0000007FFFFFF0001FFFFF
310
FE0001FFFFFFC0003FFE0001FFFFFFC0003FFF0003FFFFFFFFF0003FFFFF0001
310
F000E0003FFFFF0003FF0001FFE000003FFE0007FF80007FC0007FFFFE0003FC
310
0007FFFFE0003FF8000001FFFE0000007FFFFFF0001FFFFFFF0001FFFFFFC000
310
7FFF0001FFFFFFC0007FFF0003FFFFFFFFF0003FFFFF0001F000E0003FFFFE00
310
03FF0003FFF000003FFE0003FF80007FC0007FFFFC0003FE0007FFFFE0003FF8
310
000001FFFE0000007FFFFFF0001FFFFFFF0000FFFFFF80007FFF0000FFFFFF80
310
007FFF0003FFFFFFFFF0003FFFFF0001F000E0003FFFFE0003FF0003FFF00000
310
3FFF0003FF80007FC0007FFFFC0007FE0007FFFFC0003FF8000001FFFE000000
310
7FFFFFF0001FFFFFFF80007FFFFF0000FFFF80007FFFFF0000FFFF0003FFFFFF
310
FFF0003FFFFF0003F000E0003FFFFC0003FE0003FFF000003FFF0003FF80007F
310
E0003FFFF80007FE0003FFFFC0007FF8000001FFFE0000007FFFFFF0001FFFFF
310
FF80003FFFFE0000FFFF80003FFFFE0000FFFF0003FFFFFFFFF0001FFFFE0003
310
F000F0001FFFF80003FE0003FFF000007FFF0001FF80007FE0003FFFF00007FE
310
0001FFFF80007FF8000001FFFE0000007FFFFFF0001FFFFFFFC0000FFFF80001
310
FFFFC0000FFFF80001FFFF0003FFFFFFFFF0001FFFFC0003F000F0000FFFF000
310
07FE0007FFF800007FFF0001FF80007FE0001FFFE00007FF0000FFFE00007FF8
310
000001FFFE0000007FFFFFF0001FFFFFFFC00003FFE00001FFFFC00003FFE000
310
01FFFF0003FFFFFFFFF8000FFFF80003F000F00003FFC00007FC0007FFF80000
310
7FFF8001FF80007FF00007FF80000FFF00007FF80000FFF8000001FFFE000000
310
7F80000000000001FFE000003E000003FFFFE000003E000003FFFF0003FFFFFF
310
FFF80003FFE00007F000F800000000000FFC0007FFF800007FFF8001FF80007F
310
F000000000000FFF000000000000FFF8000001FFFE0000007F80000000000001
310
FFF0000000000007FFFFF0000000000007FFFF0003FFFFFFFFFC00007E000007
310
F000F800000000000FFC0007FFF80000FFFF8000FF80007FF800000000001FFF
310
800000000001FFF8000001FFFE0000007F80000000000001FFF800000000000F
310
FFFFF800000000000FFFFF0003FFFFFFFFFC00000000000FF000FC0000000000
310
1FFC0007FFFC0000FFFF8000FF80007FF800000000003FFFC00000000001FFF8
310
000001FFFE0000007F80000000000001FFF800000000000FFFFFF80000000000
310
0FFFFF0003FFFFFFFFFE00000000001FF000FE00000000003FF8000FFFFC0000
310
FFFF8000FF80007FFC00000000003FFFC00000000003FFF8000001FFFE000000
310
7F80000000000001FFFC00000000001FFFFFFC00000000001FFFFF0003FFFFFF
310
FFFF00000000001FF000FF00000000003FF8000FFFFC0000FFFFC000FF80007F
310
FE00000000007FFFE00000000007FFF8000001FFFE0000007F80000000000001
310
FFFE00000000003FFFFFFE00000000003FFFFF0003FFFFFFFFFF80000000003F
310
F000FF80000000007FF8000FFFFC0001FFFFC0007F80007FFF0000000000FFFF
310
F0000000000FFFF800000000000000007F80000000000001FFFF8000000000FF
310
FFFFFF8000000000FFFFFF0003FFFFFFFFFFC0000000007FF000FFC000000000
310
FFF8000FFFFE0001FFFFC0007F80007FFF8000000001FFFFF8000000001FFFF8
310
00000000000000007F80000000000001FFFFC000000001FFFFFFFFC000000001
310
FFFFFF0003FFFFFFFFFFE000000000FFF000FFE000000003FFF0001FFFFE0001
310
FFFFC0007F80007FFFC000000007FFFFFE000000003FFFF80000000000000000
310
7F80000000000001FFFFE000000003FFFFFFFFE000000003FFFFFF0003FFFFFF
310
FFFFF000000003FFF000FFF80000000FFFF0001FFFFE0001FFFFE0007F80007F
310
FFF00000000FFFFFFF00000000FFFFF800000000000000007F80000000000001
310
FFFFF80000000FFFFFFFFFF80000000FFFFFFF0003FFFFFFFFFFFC0000000FFF
310
F000FFFE0000003FFFF0001FFFFE0003FFFFE0003F80007FFFFC0000003FFFFF
310
FFC0000003FFFFF800000000000000007F80000000000001FFFFFE0000003FFF
310
FFFFFFFE0000003FFFFFFF0003FFFFFFFFFFFF0000003FFFF000FFFF800000FF
310
FFF0001FFFFF0003FFFFE0003F80007FFFFF000001FFFFFFFFF800001FFFFFF8
310
00000000000000007F80000000000001FFFFFFC00001FFFFFFFFFFFFC00001FF
310
FFFFFF0003FFFFFFFFFFFFC00000FFFFF000FFFFF8000FFFFFFFFFFFFFFFFFFF
310
FFFFFFFFFFFFFFFFFFFFF0001FFFFFFFFFFF0000FFFFFFF80000000000000000
310
7FFFFFFFFFFFFFFFFFFFFFFC001FFFFFFFFFFFFFFC001FFFFFFFFFFFFFFFFFFF
310
FFFFFFFC001FFFFFF000FFFFFFFFFFFFFFFFFFFFFFFFFFFFFFFFFFFFFFFFFFFF
310
FFFFFFFFFFFFFFFFFFFFFFFFFFFFFFFFFFFFFFFFFFFFFFFFFFFFFFFFFFFFFFFF
310
FFFFFFFFFFFFFFFFFFFFFFFFFFFFFFFFFFFFFFFFFFFFFFFFFFFFFFFFFFFFFFFF
310
F000FFFFFFFFFFFFFFFFFFFFFFFFFFFFFFFFFFFFFFFFFFFFFFFFFFFFFFFFFFFF
310
FFFFFFFFFFFFFFFFFFFFFFFFFFFFFFFFFFFFFFFFFFFFFFFFFFFFFFFFFFFFFFFF
310
FFFFFFFFFFFFFFFFFFFFFFFFFFFFFFFFFFFFFFFFFFFFFFFFF000FFFFFFFFFFFF
310
FFFFFFFFFFFFFFFFFFFFFFFFFFFFFFFFFFFFFFFFFFFFFFFFFFFFFFFFFFFFFFFF
310
FFFFFFFFFFFFFFFFFFFFFFFFFFFFFFFFFFFFFFFFFFFFFFFFFFFFFFFFFFFFFFFF
310
FFFFFFFFFFFFFFFFFFFFFFFFFFFFFFFFF000FFFFFFFFFFFFFFFFFFFFFFFFFFFF
310
FFFFFFFFFFFFFFFFFFFFFFFFFFFFFFFFFFFFFFFFFFFFFFFFFFFFFFFFFFFFFFFF
310
FFFFFFFFFFFFFFFFFFFFFFFFFFFFFFFFFFFFFFFFFFFFFFFFFFFFFFFFFFFFFFFF
310
FFFFFFFFFFFFFFFFF000FFFFFFFFFFFFFFFFFFFFFFFFFFFFFFFFFFFFFFFFFFFF
310
FFFFFFFFFFFFFFFFFFFFFFFFFFFFFFFFFFFFFFFFFFFFFFFFFFFFFFFFFFFFFFFF
310
FFFFFFFFFFFFFFFFFFFFFFFFFFFFFFFFFFFFFFFFFFFFFFFFFFFFFFFFFFFFFFFF
310
F000FFFFFFFFFFFFFFFFFFFFFFFFFFFFFFFFFFFFFFFFFFFFFFFFFFFFFFFFFFFF
310
FFFFFFFFFFFFFFFFFFFFFFFFFFFFFFFFFFFFFFFFFFFFFFFFFFFFFFFFFFFFFFFF
310
FFFFFFFFFFFFFFFFFFFFFFFFFFFFFFFFFFFFFFFFFFFFFFFFF000FFFFFFFFFFFF
310
FFFFFFFFFFFFFFFFFFFFFFFFFFFFFFFFFFFFFFFFFFFFFFFFFFFFFFFFFFFFFFFF
310
FFFFFFFFFFFFFFFFFFFFFFFFFFFFFFFFFFFFFFFFFFFFFFFFFFFFFFFFFFFFFFFF
310
FFFFFFFFFFFFFFFFFFFFFFFFFFFFFFFFF000FFFFFFFFFFFFFFFFFFFFFFFFFFFF
310
FFFFFFFFFFFFFFFFFFFFFFFFFFFFFFFFFFFFFFFFFFFFFFFFFFFFFFFFFFFFFFFF
310
FFFFFFFFFFFFFFFFFFFFFFFFFFFFFFFFFFFFFFFFFFFFFFFFFFFFFFFFFFFFFFFF
310
FFFFFFFFFFFFFFFFF000FFFFFFFFFFFFFFFFFFFFFFFFFFFFFFFFFFFFFFFFFFFF
310
FFFFFFFFFFFFFFFFFFFFFFFFFFFFFFFFFFFFFFFFFFFFFFFFFFFFFFFFFFFFFFFF
310
FFFFFFFFFFFFFFFFFFFFFFFFFFFFFFFFFFFFFFFFFFFFFFFFFFFFFFFFFFFFFFFF
310
F000FFFFFFFFFFFFFFFFFFFFFFFFFFFFFFFFFFFFFFFFFFFFFFFFFFFFFFFFFFFF
310
FFFFFFFFFFFFFFFFFFFFFFFFFFFFFFFFFFFFFFFFFFFFFFFFFFFFFFFFFFFFFFFF
310
FFFFFFFFFFFFFFFFFFFFFFFFFFFFFFFFFFFFFFFFFFFFFFFFF000FFFFFFFFFFFF
310
FFFFFFFFFFFFFFFFFFFFFFFFFFFFFFFFFFFFFFFFFFFFFFFFFFFFFFFFFFFFFFFF
310
FFFFFFFFFFFFFFFFFFFFFFFFFFFFFFFFFFFFFFFFFFFFFFFFFFFFFFFFFFFFFFFF
310
FFFFFFFFFFFFFFFFFFFFFFFFFFFFFFFFF000FFFFFFFFFFFFFFFFFFFFFFFFFFFF
310
FFFFFFFFFFFFFFFFFFFFFFFFFFFFFFFFFFFFFFFFFFFFFFFFFFFFFFFFFFFFFFFF
310
FFFFFFFFFFFFFFFFFFFFFFFFFFFFFFFFFFFFFFFFFFFFFFFFFFFFFFFFFFFFFFFF
310
FFFFFFFFFFFFFFFFF000FFFFFFFFFFFFFFFFFFFFFFFFFFFFFFFFFFFFFFFFFFFF
310
FFFFFFFFFFFFFFFFFFFFFFFFFFFFFFFFFFFFFFFFFFFFFFFFFFFFFFFFFFFFFFFF
310
FFFFFFFFFFFFFFFFFFFFFFFFFFFFFFFFFFFFFFFFFFFFFFFFFFFFFFFFFFFFFFFF
310
F000FFFFFFFFFFFFFFFFFFFFFFFFFFFFFFFFFFFFFFFFFFFFFFFFFFFFFFFFFFFF
310
FFFFFFFFFFFFFFFFFFFFFFFFFFFFFFFFFFFFFFFFFFFFFFFFFFFFFFFFFFFFFFFF
310
FFFFFFFFFFFFFFFFFFFFFFFFFFFFFFFFFFFFFFFFFFFFFFFFF000FFFFFFFFFFFF
310
FFFFFFFFFFFFFFFFFFFFFFFFFFFFFFFFFFFFFFFFFFFFFFFFFFFFFFFFFFFFFFFF
310
FFFFFFFFFFFFFFFFFFFFFFFFFFFFFFFFFFFFFFFFFFFFFFFFFFFFFFFFFFFFFFFF
310
FFFFFFFFFFFFFFFFFFFFFFFFFFFFFFFFF000FFFFFFFFFFFFFFFFFFFFFFFFFFFF
310
FFFFFFFFFFFFFFFFFFFFFFFFFFFFFFFFFFFFFFFFFFFFFFFFFFFFFFFFFFFFFFFF
310
FFFFFFFFFFFFFFFFFFFFFFFFFFFFFFFFFFFFFFFFFFFFFFFFFFFFFFFFFFFFFFFF
310
FFFFFFFFFFFFFFFFF000FFFFFFFFFFFFFFFFFFFFFFFFFFFFFFFFFFFFFFFFFFFF
310
FFFFFFFFFFFFFFFFFFFFFFFFFFFFFFFFFFFFFFFFFFFFFFFFFFFFFFFFFFFFFFFF
310
FFFFFFFFFFFFFFFFFFFFFFFFFFFFFFFFFFFFFFFFFFFFFFFFFFFFFFFFFFFFFFFF
310
F000FFFFFFFFFFFFFFFFFFFFFFFFFFFFFFFFFFFFFFFFFFFFFFFFFFFFFFFFFFFF
310
FFFFFFFFFFFFFFFFFFFFFFFFFFFFFFFFFFFFFFFFFFFFFFFFFFFFFFFFFFFFFFFF
310
FFFFFFFFFFFFFFFFFFFFFFFFFFFFFFFFFFFFFFFFFFFFFFFFF000FFFFFFFFFFFF
310
FFFFFFFFFFFFFFFFFFFFFFFFFFFFFFFFFFFFFFFFFFFFFFFFFFFFFFFFFFFFFFFF
310
FFFFFFFFFFFFFFFFFFFFFFFFFFFFFFFFFFFFFFFFFFFFFFFFFFFFFFFFFFFFFFFF
310
FFFFFFFFFFFFFFFFFFFFFFFFFFFFFFFFF000FFFFFFFFFFFFFFFFFFFFFFFFFFFF
310
FFFFFFFFFFFFFFFFFFFFFFFFFFFFFFFFFFFFFFFFFFFFFFFFFFFFFFFFFFFFFFFF
310
FFFFFFFFFFFFFFFFFFFFFFFFFFFFFFFFFFFFFFFFFFFFFFFFFFFFFFFFFFFFFFFF
310
FFFFFFFFFFFFFFFFF000FFFFFFFFFFFFFFFFFFFFFFFFFFFFFFFFFFFFFFFFFFFF
310
FFFFFFFFFFFFFFFFFFFFFFFFFFFFFFFFFFFFFFFFFFFFFFFFFFFFFFFFFFFFFFFF
310
FFFFFFFFFFFFFFFFFFFFFFFFFFFFFFFFFFFFFFFFFFFFFFFFFFFFFFFFFFFFFFFF
310
F000FFFFFFFFFFFFFFFFFFFFFFFFFFFFFFFFFFFFFFFFFFFFFFFFFFFFFFFFFFFF
310
FFFFFFFFFFFFFFFFFFFFFFFFFFFFFFFFFFFFFFFFFFFFFFFFFFFFFFFFFFFFFFFF
310
FFFFFFFFFFFFFFFFFFFFFFFFFFFFFFFFFFFFFFFFFFFFFFFFF000FFFFFFFFFFFF
310
FFFFFFFFFFFFFFFFFFFFFFFFFFFFFFFFFFFFFFFFFFFFFFFFFFFFFFFFFFFFFFFF
310
FFFFFFFFFFFFFFFFFFFFFFFFFFFFFFFFFFFFFFFFFFFFFFFFFFFFFFFFFFFFFFFF
310
FFFFFFFFFFFFFFFFFFFFFFFFFFFFFFFFF0000000000000000000000000000000
310
00000000FFFFFF7FFFFFFF7FFFFFFF7FFFFFFF7FFFFFFF7FFFFFFF7FFFFFFF7F
310
FFFFFF7FFFFFFF7FFFFFFF7FFFFFFF7FFFFFFF7FFFFFFF7FFFFFFF7FFFFFFF7F
310
FFFFFF7FFFFFFF7FFFFFFF7FFFFFFF7FFFFFFF7FFFFFFF7FFFFFFF7FFFFFFF7F
310
FFFFFF7FFFFFFF7FFFFFFF7FFFFFFF7FFFFFFF7FFFFFFF7FFFFFFF7FFFFFFF7F
310
FFFFFF7FFFFFFF7FFFFFFF7FFFFFFF7FFFFFFF7FFFFFFF7FFFFFFF7FFFFFFF7F
310
FFFFFF7FFFFFFF7FFFFFFF7FFFFFFF7FFFFFFF7FFFFFFF7FFFFFFF7FFFFFFF7F
310
FFFFFF7FFFFFFF7FFFFFFF7FFFFFFF7FFFFFFF7FFFFFFF7FFFFFFF7FFFFFFF7F
310
FFFFFF7FFFFFFF7FFFFFFF7FFFFFFF7FFFFFFF7FFFFFFF7FFFFFFF7FFFFFFF7F
310
FFFFFF7FFFFFFF7FFFFFFF7FFFFFFF7FFFFFFF7FFFFFFF7FFFFFFF7FFFFFFF7F
310
FFFFFF7FFFFFFF7FFFFFFF7FFFFFFF7FFFFFFF7FFFFFFF7FFFFFFF7FFFFFFF7F
310
FFFFFF7FFFFFFF7FFFFFFF7FFFFFFF7FFFFFFF7FFFFFFF7FFFFFFF7FFFFFFF7F
310
FFFFFF7FFFFFFF7FFFFFFF7FFFFFFF7FFFFFFF7FFFFFFF7FFFFFFF7FFFFFFF7F
310
FFFFFF7FFFFFFF7FFFFFFF7FFFFFFF7FFFFFFF7FFFFFFF7FFFFFFF7FFFFFFF7F
310
FFFFFF7FFFFFFF7FFFFFFF7FFFFFFF7FFFFFFF7FFFFFFF7FFFFFFF7FFFFFFF7F
310
FFFFFF7FFFFFFF7FFFFFFF7FFFFFFF7FFFFFFF7FFFFFFF7FFFFFFF7FFFFFFF7F
  1
OLE
  0
ENDSEC
  0
SECTION
  2
OBJECTS
  0
DICTIONARY
  5
C
330
0
100
AcDbDictionary
281
     1
  3
ACAD_GROUP
350
D
  3
ACAD_LAYOUT
350
1A
  3
ACAD_MLEADERSTYLE
350
30A
  3
ACAD_MLINESTYLE
350
17
  3
ACAD_PLOTSETTINGS
350
19
  3
ACAD_PLOTSTYLENAME
350
E
  3
ACAD_TABLESTYLE
350
309
  3
ACAD_VISUALSTYLE
350
2A
  3
AcDbVariableDictionary
350
30B
  0
DICTIONARY
  5
D
102
{ACAD_REACTORS
330
C
102
}
330
C
100
AcDbDictionary
281
     1
  0
DICTIONARY
  5
1A
102
{ACAD_REACTORS
330
C
102
}
330
C
100
AcDbDictionary
281
     1
  3
Layout1
350
1E
  3
Layout2
350
26
  3
Model
350
22
  0
DICTIONARY
  5
30A
102
{ACAD_REACTORS
330
C
102
}
330
C
100
AcDbDictionary
281
     1
  0
DICTIONARY
  5
17
102
{ACAD_REACTORS
330
C
102
}
330
C
100
AcDbDictionary
281
     1
  3
Standard
350
18
  0
DICTIONARY
  5
19
102
{ACAD_REACTORS
330
C
102
}
330
C
100
AcDbDictionary
281
     1
  0
ACDBDICTIONARYWDFLT
  5
E
102
{ACAD_REACTORS
330
C
102
}
330
C
100
AcDbDictionary
281
     1
  3
Normal
350
F
100
AcDbDictionaryWithDefault
340
F
  0
DICTIONARY
  5
309
102
{ACAD_REACTORS
330
C
102
}
330
C
100
AcDbDictionary
281
     1
  0
DICTIONARY
  5
2A
102
{ACAD_REACTORS
330
C
102
}
330
C
100
AcDbDictionary
281
     1
  3
2dWireframe
350
2F
  3
3D Hidden
350
31
  3
3dWireframe
350
30
  3
Basic
350
32
  3
Brighten
350
36
  3
ColorChange
350
3A
  3
Conceptual
350
34
  3
Dim
350
35
  3
Facepattern
350
39
  3
Flat
350
2B
  3
FlatWithEdges
350
2C
  3
Gouraud
350
2D
  3
GouraudWithEdges
350
2E
  3
Linepattern
350
38
  3
Realistic
350
33
  3
Thicken
350
37
  0
DICTIONARY
  5
30B
102
{ACAD_REACTORS
330
C
102
}
330
C
100
AcDbDictionary
281
     1
  3
PSOLHEIGHT
350
30D
  3
PSOLWIDTH
350
30C
  0
LAYOUT
  5
1E
102
{ACAD_REACTORS
330
1A
102
}
330
1A
100
AcDbPlotSettings
  1

  2
none_device
  4

  6

 40
0.0
 41
0.0
 42
0.0
 43
0.0
 44
0.0
 45
0.0
 46
0.0
 47
0.0
 48
0.0
 49
0.0
140
0.0
141
0.0
142
1.0
143
1.0
 70
   688
 72
     0
 73
     0
 74
     5
  7

 75
    16
147
1.0
148
0.0
149
0.0
100
AcDbLayout
  1
Layout1
 70
     1
 71
     1
 10
0.0
 20
0.0
 11
420.0
 21
297.0
 12
0.0
 22
0.0
 32
0.0
 14
1.0000000000E+20
 24
1.0000000000E+20
 34
1.0000000000E+20
 15
-1.0000000000E+20
 25
-1.0000000000E+20
 35
-1.0000000000E+20
146
0.0
 13
0.0
 23
0.0
 33
0.0
 16
1.0
 26
0.0
 36
0.0
 17
0.0
 27
1.0
 37
0.0
 76
     0
330
1B
  0
LAYOUT
  5
26
102
{ACAD_REACTORS
330
1A
102
}
330
1A
100
AcDbPlotSettings
  1

  2
none_device
  4

  6

 40
0.0
 41
0.0
 42
0.0
 43
0.0
 44
0.0
 45
0.0
 46
0.0
 47
0.0
 48
0.0
 49
0.0
140
0.0
141
0.0
142
1.0
143
1.0
 70
   688
 72
     0
 73
     0
 74
     5
  7

 75
    16
147
1.0
148
0.0
149
0.0
100
AcDbLayout
  1
Layout2
 70
     1
 71
     2
 10
0.0
 20
0.0
 11
0.0
 21
0.0
 12
0.0
 22
0.0
 32
0.0
 14
0.0
 24
0.0
 34
0.0
 15
0.0
 25
0.0
 35
0.0
146
0.0
 13
0.0
 23
0.0
 33
0.0
 16
1.0
 26
0.0
 36
0.0
 17
0.0
 27
1.0
 37
0.0
 76
     0
330
23
  0
LAYOUT
  5
22
102
{ACAD_REACTORS
330
1A
102
}
330
1A
100
AcDbPlotSettings
  1

  2
none_device
  4

  6

 40
0.0
 41
0.0
 42
0.0
 43
0.0
 44
0.0
 45
0.0
 46
0.0
 47
0.0
 48
0.0
 49
0.0
140
0.0
141
0.0
142
1.0
143
1.0
 70
  1712
 72
     0
 73
     0
 74
     0
  7

 75
     0
147
1.0
148
0.0
149
0.0
100
AcDbLayout
  1
Model
 70
     1
 71
     0
 10
0.0
 20
0.0
 11
297.0
 21
210.0
 12
0.0
 22
0.0
 32
0.0
 14
0.0
 24
0.0
 34
0.0
 15
297.0
 25
210.0
 35
0.0
146
0.0
 13
0.0
 23
0.0
 33
0.0
 16
1.0
 26
0.0
 36
0.0
 17
0.0
 27
1.0
 37
0.0
 76
     0
330
1F
331
29
  0
MLINESTYLE
  5
18
102
{ACAD_REACTORS
330
17
102
}
330
17
100
AcDbMlineStyle
  2
Standard
 70
     0
  3

 62
   256
 51
90.0
 52
90.0
 71
     2
 49
0.5
 62
   256
  6
BYLAYER
 49
-0.5
 62
   256
  6
BYLAYER
  0
ACDBPLACEHOLDER
  5
F
102
{ACAD_REACTORS
330
E
102
}
330
E
  0
VISUALSTYLE
  5
2F
102
{ACAD_REACTORS
330
2A
102
}
330
2A
100
AcDbVisualStyle
  2
2dWireframe
 70
     4
 71
     0
 72
     2
 73
     0
 90
        0
 40
-0.6
 41
-30.0
 62
     5
 63
     7
 74
     1
 91
        4
 64
     7
 65
   257
 75
     1
175
     1
 42
1.0
 92
        0
 66
   257
 43
1.0
 76
     1
 77
     6
 78
     2
 67
     7
 79
     5
170
     0
171
     0
290
     0
174
     0
 93
        1
 44
0.0
173
     0
291
     0
 45
0.0
1001
ACAD
1000
AcDbSavedByObjectVersion
1070
     0
  0
VISUALSTYLE
  5
31
102
{ACAD_REACTORS
330
2A
102
}
330
2A
100
AcDbVisualStyle
  2
3D Hidden
 70
     6
 71
     1
 72
     2
 73
     2
 90
        0
 40
-0.6
 41
-30.0
 62
     5
 63
     7
 74
     2
 91
        2
 64
     7
 65
   257
 75
     2
175
     1
 42
40.0
 92
        0
 66
   257
 43
1.0
 76
     1
 77
     6
 78
     2
 67
     7
 79
     3
170
     0
171
     0
290
     0
174
     0
 93
        1
 44
0.0
173
     0
291
     0
 45
0.0
1001
ACAD
1000
AcDbSavedByObjectVersion
1070
     0
  0
VISUALSTYLE
  5
30
102
{ACAD_REACTORS
330
2A
102
}
330
2A
100
AcDbVisualStyle
  2
3dWireframe
 70
     5
 71
     0
 72
     2
 73
     0
 90
        0
 40
-0.6
 41
-30.0
 62
     5
 63
     7
 74
     1
 91
        4
 64
     7
 65
   257
 75
     1
175
     1
 42
1.0
 92
        0
 66
   257
 43
1.0
 76
     1
 77
     6
 78
     2
 67
     7
 79
     5
170
     0
171
     0
290
     0
174
     0
 93
        1
 44
0.0
173
     0
291
     0
 45
0.0
1001
ACAD
1000
AcDbSavedByObjectVersion
1070
     0
  0
VISUALSTYLE
  5
32
102
{ACAD_REACTORS
330
2A
102
}
330
2A
100
AcDbVisualStyle
  2
Basic
 70
     7
 71
     1
 72
     0
 73
     1
 90
        0
 40
-0.6
 41
-30.0
 62
     5
 63
     7
 74
     0
 91
        4
 64
     7
 65
   257
 75
     1
175
     1
 42
1.0
 92
        8
 66
     7
 43
1.0
 76
     1
 77
     6
 78
     2
 67
     7
 79
     5
170
     0
171
     0
290
     0
174
     0
 93
        1
 44
0.0
173
     0
291
     1
 45
0.0
1001
ACAD
1000
AcDbSavedByObjectVersion
1070
     0
  0
VISUALSTYLE
  5
36
102
{ACAD_REACTORS
330
2A
102
}
330
2A
100
AcDbVisualStyle
  2
Brighten
 70
    12
 71
     2
 72
     2
 73
     0
 90
        0
 40
-0.6
 41
-30.0
 62
     5
 63
     7
 74
     1
 91
        4
 64
     7
 65
   257
 75
     1
175
     1
 42
1.0
 92
        8
 66
     7
 43
1.0
 76
     1
 77
     6
 78
     2
 67
     7
 79
     5
170
     0
171
     0
290
     0
174
     0
 93
        1
 44
50.0
173
     0
291
     1
 45
0.0
1001
ACAD
1000
AcDbSavedByObjectVersion
1070
     0
  0
VISUALSTYLE
  5
3A
102
{ACAD_REACTORS
330
2A
102
}
330
2A
100
AcDbVisualStyle
  2
ColorChange
 70
    16
 71
     2
 72
     2
 73
     3
 90
        0
 40
-0.6
 41
-30.0
 62
     5
 63
     8
 74
     1
 91
        4
 64
     7
 65
   257
 75
     1
175
     1
 42
1.0
 92
        8
 66
     8
 43
1.0
 76
     1
 77
     6
 78
     2
 67
     7
 79
     5
170
     0
171
     0
290
     0
174
     0
 93
        1
 44
0.0
173
     0
291
     1
 45
0.0
1001
ACAD
1000
AcDbSavedByObjectVersion
1070
     0
  0
VISUALSTYLE
  5
34
102
{ACAD_REACTORS
330
2A
102
}
330
2A
100
AcDbVisualStyle
  2
Conceptual
 70
     9
 71
     3
 72
     2
 73
     0
 90
        0
 40
-0.6
 41
-30.0
 62
     5
 63
     7
 74
     2
 91
        2
 64
     7
 65
   257
 75
     1
175
     1
 42
40.0
 92
        8
 66
     7
 43
1.0
 76
     1
 77
     6
 78
     2
 67
     7
 79
     3
170
     0
171
     0
290
     0
174
     0
 93
        1
 44
0.0
173
     0
291
     0
 45
0.0
1001
ACAD
1000
AcDbSavedByObjectVersion
1070
     0
  0
VISUALSTYLE
  5
35
102
{ACAD_REACTORS
330
2A
102
}
330
2A
100
AcDbVisualStyle
  2
Dim
 70
    11
 71
     2
 72
     2
 73
     0
 90
        0
 40
-0.6
 41
-30.0
 62
     5
 63
     7
 74
     1
 91
        4
 64
     7
 65
   257
 75
     1
175
     1
 42
1.0
 92
        8
 66
     7
 43
1.0
 76
     1
 77
     6
 78
     2
 67
     7
 79
     5
170
     0
171
     0
290
     0
174
     0
 93
        1
 44
-50.0
173
     0
291
     1
 45
0.0
1001
ACAD
1000
AcDbSavedByObjectVersion
1070
     0
  0
VISUALSTYLE
  5
39
102
{ACAD_REACTORS
330
2A
102
}
330
2A
100
AcDbVisualStyle
  2
Facepattern
 70
    15
 71
     2
 72
     2
 73
     0
 90
        0
 40
-0.6
 41
-30.0
 62
     5
 63
     7
 74
     1
 91
        4
 64
     7
 65
   257
 75
     1
175
     1
 42
1.0
 92
        8
 66
     7
 43
1.0
 76
     1
 77
     6
 78
     2
 67
     7
 79
     5
170
     0
171
     0
290
     0
174
     0
 93
        1
 44
0.0
173
     0
291
     1
 45
0.0
1001
ACAD
1000
AcDbSavedByObjectVersion
1070
     0
  0
VISUALSTYLE
  5
2B
102
{ACAD_REACTORS
330
2A
102
}
330
2A
100
AcDbVisualStyle
  2
Flat
 70
     0
 71
     2
 72
     1
 73
     1
 90
        2
 40
-0.6
 41
30.0
 62
     5
 63
     7
 74
     0
 91
        4
 64
     7
 65
   257
 75
     1
175
     1
 42
1.0
 92
        8
 66
     7
 43
1.0
 76
     1
 77
     6
 78
     2
 67
     7
 79
     5
170
     0
171
     0
290
     0
174
     0
 93
       13
 44
0.0
173
     0
291
     1
 45
0.0
1001
ACAD
1000
AcDbSavedByObjectVersion
1070
     0
  0
VISUALSTYLE
  5
2C
102
{ACAD_REACTORS
330
2A
102
}
330
2A
100
AcDbVisualStyle
  2
FlatWithEdges
 70
     1
 71
     2
 72
     1
 73
     1
 90
        2
 40
-0.6
 41
30.0
 62
     5
 63
     7
 74
     1
 91
        4
 64
     7
 65
   257
 75
     1
175
     1
 42
1.0
 92
        0
 66
   257
 43
1.0
 76
     1
 77
     6
 78
     2
 67
     7
 79
     5
170
     0
171
     0
290
     0
174
     0
 93
       13
 44
0.0
173
     0
291
     1
 45
0.0
1001
ACAD
1000
AcDbSavedByObjectVersion
1070
     0
  0
VISUALSTYLE
  5
2D
102
{ACAD_REACTORS
330
2A
102
}
330
2A
100
AcDbVisualStyle
  2
Gouraud
 70
     2
 71
     2
 72
     2
 73
     1
 90
        2
 40
-0.6
 41
30.0
 62
     5
 63
     7
 74
     0
 91
        4
 64
     7
 65
   257
 75
     1
175
     1
 42
1.0
 92
        0
 66
     7
 43
1.0
 76
     1
 77
     6
 78
     2
 67
     7
 79
     5
170
     0
171
     0
290
     0
174
     0
 93
       13
 44
0.0
173
     0
291
     1
 45
0.0
1001
ACAD
1000
AcDbSavedByObjectVersion
1070
     0
  0
VISUALSTYLE
  5
2E
102
{ACAD_REACTORS
330
2A
102
}
330
2A
100
AcDbVisualStyle
  2
GouraudWithEdges
 70
     3
 71
     2
 72
     2
 73
     1
 90
        2
 40
-0.6
 41
30.0
 62
     5
 63
     7
 74
     1
 91
        4
 64
     7
 65
   257
 75
     1
175
     1
 42
1.0
 92
        0
 66
   257
 43
1.0
 76
     1
 77
     6
 78
     2
 67
     7
 79
     5
170
     0
171
     0
290
     0
174
     0
 93
       13
 44
0.0
173
     0
291
     1
 45
0.0
1001
ACAD
1000
AcDbSavedByObjectVersion
1070
     0
  0
VISUALSTYLE
  5
38
102
{ACAD_REACTORS
330
2A
102
}
330
2A
100
AcDbVisualStyle
  2
Linepattern
 70
    14
 71
     2
 72
     2
 73
     0
 90
        0
 40
-0.6
 41
-30.0
 62
     5
 63
     7
 74
     1
 91
        4
 64
     7
 65
   257
 75
     7
175
     7
 42
1.0
 92
        8
 66
     7
 43
1.0
 76
     1
 77
     6
 78
     2
 67
     7
 79
     5
170
     0
171
     0
290
     0
174
     0
 93
        1
 44
0.0
173
     0
291
     1
 45
0.0
1001
ACAD
1000
AcDbSavedByObjectVersion
1070
     0
  0
VISUALSTYLE
  5
33
102
{ACAD_REACTORS
330
2A
102
}
330
2A
100
AcDbVisualStyle
  2
Realistic
 70
     8
 71
     2
 72
     2
 73
     0
 90
        0
 40
-0.6
 41
-30.0
 62
     5
 63
     7
 74
     1
 91
        0
 64
     7
 65
   257
 75
     1
175
     1
 42
1.0
 92
        8
 66
     8
 43
1.0
 76
     1
 77
     6
 78
     2
 67
     7
 79
     5
170
     0
171
     0
290
     0
174
     0
 93
       13
 44
0.0
173
     0
291
     0
 45
0.0
1001
ACAD
1000
AcDbSavedByObjectVersion
1070
     0
  0
VISUALSTYLE
  5
37
102
{ACAD_REACTORS
330
2A
102
}
330
2A
100
AcDbVisualStyle
  2
Thicken
 70
    13
 71
     2
 72
     2
 73
     0
 90
        0
 40
-0.6
 41
-30.0
 62
     5
 63
     7
 74
     1
 91
        4
 64
     7
 65
   257
 75
     1
175
     1
 42
1.0
 92
       12
 66
     7
 43
1.0
 76
     1
 77
     6
 78
     2
 67
     7
 79
     5
170
     0
171
     0
290
     0
174
     0
 93
        1
 44
0.0
173
     0
291
     1
 45
0.0
1001
ACAD
1000
AcDbSavedByObjectVersion
1070
     0
  0
DICTIONARYVAR
  5
30D
102
{ACAD_REACTORS
330
30B
102
}
330
30B
100
DictionaryVariables
280
     0
  1
80.000000
  0
DICTIONARYVAR
  5
30C
102
{ACAD_REACTORS
330
30B
102
}
330
30B
100
DictionaryVariables
280
     0
  1
5.000000
  0
ENDSEC
  0
EOF
