  0
SECTION
  2
HEADER
  9
$ACADVER
  1
AC1015
  9
$ACADMAINTVER
 70
     6
  9
$DWGCODEPAGE
  3
ANSI_1252
  9
$INSBASE
 10
0.0
 20
0.0
 30
0.0
  9
$EXTMIN
 10
0.0
 20
0.0
 30
0.0
  9
$EXTMAX
 10
297.0
 20
210.0
 30
0.0
  9
$LIMMIN
 10
0.0
 20
0.0
  9
$LIMMAX
 10
297.0
 20
210.0
  9
$ORTHOMODE
 70
     0
  9
$REGENMODE
 70
     1
  9
$FILLMODE
 70
     1
  9
$QTEXTMODE
 70
     0
  9
$MIRRTEXT
 70
     1
  9
$LTSCALE
 40
1.0
  9
$ATTMODE
 70
     1
  9
$TEXTSIZE
 40
2.0
  9
$TRACEWID
 40
1.0
  9
$TEXTSTYLE
  7
Standard
  9
$CLAYER
  8
0
  9
$CELTYPE
  6
ByLayer
  9
$CECOLOR
 62
   256
  9
$CELTSCALE
 40
1.0
  9
$DISPSILH
 70
     0
  9
$DIMSCALE
 40
1.0
  9
$DIMASZ
 40
3.0
  9
$DIMEXO
 40
0.0
  9
$DIMDLI
 40
3.75
  9
$DIMRND
 40
0.0
  9
$DIMDLE
 40
0.0
  9
$DIMEXE
 40
1.0
  9
$DIMTP
 40
0.0
  9
$DIMTM
 40
0.0
  9
$DIMTXT
 40
2.0
  9
$DIMCEN
 40
2.5
  9
$DIMTSZ
 40
0.0
  9
$DIMTOL
 70
     0
  9
$DIMLIM
 70
     0
  9
$DIMTIH
 70
     1
  9
$DIMTOH
 70
     1
  9
$DIMSE1
 70
     0
  9
$DIMSE2
 70
     0
  9
$DIMTAD
 70
     1
  9
$DIMZIN
 70
     0
  9
$DIMBLK
  1

  9
$DIMASO
 70
     1
  9
$DIMSHO
 70
     1
  9
$DIMPOST
  1

  9
$DIMAPOST
  1

  9
$DIMALT
 70
     0
  9
$DIMALTD
 70
     3
  9
$DIMALTF
 40
0.0393700787
  9
$DIMLFAC
 40
1.0
  9
$DIMTOFL
 70
     1
  9
$DIMTVP
 40
0.0
  9
$DIMTIX
 70
     0
  9
$DIMSOXD
 70
     0
  9
$DIMSAH
 70
     0
  9
$DIMBLK1
  1

  9
$DIMBLK2
  1

  9
$DIMSTYLE
  2
ISO-25
  9
$DIMCLRD
 70
     0
  9
$DIMCLRE
 70
     0
  9
$DIMCLRT
 70
     0
  9
$DIMTFAC
 40
1.0
  9
$DIMGAP
 40
1.524
  9
$DIMJUST
 70
     0
  9
$DIMSD1
 70
     0
  9
$DIMSD2
 70
     0
  9
$DIMTOLJ
 70
     0
  9
$DIMTZIN
 70
     0
  9
$DIMALTZ
 70
     0
  9
$DIMALTTZ
 70
     0
  9
$DIMUPT
 70
     0
  9
$DIMDEC
 70
     2
  9
$DIMTDEC
 70
     3
  9
$DIMALTU
 70
     2
  9
$DIMALTTD
 70
     3
  9
$DIMTXSTY
  7
Standard
  9
$DIMAUNIT
 70
     0
  9
$DIMADEC
 70
     2
  9
$DIMALTRND
 40
0.0
  9
$DIMAZIN
 70
     0
  9
$DIMDSEP
 70
    44
  9
$DIMATFIT
 70
     3
  9
$DIMFRAC
 70
     0
  9
$DIMLDRBLK
  1

  9
$DIMLUNIT
 70
     2
  9
$DIMLWD
 70
    -2
  9
$DIMLWE
 70
    -2
  9
$DIMTMOVE
 70
     0
  9
$LUNITS
 70
     2
  9
$LUPREC
 70
     2
  9
$SKETCHINC
 40
1.0
  9
$FILLETRAD
 40
10.0
  9
$AUNITS
 70
     0
  9
$AUPREC
 70
     2
  9
$MENU
  1
.
  9
$ELEVATION
 40
0.0
  9
$PELEVATION
 40
0.0
  9
$THICKNESS
 40
0.0
  9
$LIMCHECK
 70
     0
  9
$CHAMFERA
 40
10.0
  9
$CHAMFERB
 40
10.0
  9
$CHAMFERC
 40
20.0
  9
$CHAMFERD
 40
0.0
  9
$SKPOLY
 70
     0
  9
$TDCREATE
 40
2455615.404754676
  9
$TDUCREATE
 40
2455615.363088009
  9
$TDUPDATE
 40
2455615.404754688
  9
$TDUUPDATE
 40
2455615.363088021
  9
$TDINDWG
 40
0.0000000116
  9
$TDUSRTIMER
 40
0.0000000116
  9
$USRTIMER
 70
     1
  9
$ANGBASE
 50
0.0
  9
$ANGDIR
 70
     0
  9
$PDMODE
 70
     0
  9
$PDSIZE
 40
-1.0
  9
$PLINEWID
 40
0.0
  9
$SPLFRAME
 70
     0
  9
$SPLINETYPE
 70
     6
  9
$SPLINESEGS
 70
     8
  9
$HANDSEED
  5
30B
  9
$SURFTAB1
 70
     6
  9
$SURFTAB2
 70
     6
  9
$SURFTYPE
 70
     6
  9
$SURFU
 70
     6
  9
$SURFV
 70
     6
  9
$UCSBASE
  2

  9
$UCSNAME
  2

  9
$UCSORG
 10
0.0
 20
0.0
 30
0.0
  9
$UCSXDIR
 10
1.0
 20
0.0
 30
0.0
  9
$UCSYDIR
 10
0.0
 20
1.0
 30
0.0
  9
$UCSORTHOREF
  2

  9
$UCSORTHOVIEW
 70
     0
  9
$UCSORGTOP
 10
0.0
 20
0.0
 30
0.0
  9
$UCSORGBOTTOM
 10
0.0
 20
0.0
 30
0.0
  9
$UCSORGLEFT
 10
0.0
 20
0.0
 30
0.0
  9
$UCSORGRIGHT
 10
0.0
 20
0.0
 30
0.0
  9
$UCSORGFRONT
 10
0.0
 20
0.0
 30
0.0
  9
$UCSORGBACK
 10
0.0
 20
0.0
 30
0.0
  9
$PUCSBASE
  2

  9
$PUCSNAME
  2

  9
$PUCSORG
 10
0.0
 20
0.0
 30
0.0
  9
$PUCSXDIR
 10
1.0
 20
0.0
 30
0.0
  9
$PUCSYDIR
 10
0.0
 20
1.0
 30
0.0
  9
$PUCSORTHOREF
  2

  9
$PUCSORTHOVIEW
 70
     0
  9
$PUCSORGTOP
 10
0.0
 20
0.0
 30
0.0
  9
$PUCSORGBOTTOM
 10
0.0
 20
0.0
 30
0.0
  9
$PUCSORGLEFT
 10
0.0
 20
0.0
 30
0.0
  9
$PUCSORGRIGHT
 10
0.0
 20
0.0
 30
0.0
  9
$PUCSORGFRONT
 10
0.0
 20
0.0
 30
0.0
  9
$PUCSORGBACK
 10
0.0
 20
0.0
 30
0.0
  9
$USERI1
 70
     0
  9
$USERI2
 70
     0
  9
$USERI3
 70
     0
  9
$USERI4
 70
     0
  9
$USERI5
 70
     0
  9
$USERR1
 40
0.0
  9
$USERR2
 40
0.0
  9
$USERR3
 40
0.0
  9
$USERR4
 40
0.0
  9
$USERR5
 40
0.0
  9
$WORLDVIEW
 70
     1
  9
$SHADEDGE
 70
     3
  9
$SHADEDIF
 70
    70
  9
$TILEMODE
 70
     1
  9
$MAXACTVP
 70
    64
  9
$PINSBASE
 10
0.0
 20
0.0
 30
0.0
  9
$PLIMCHECK
 70
     0
  9
$PEXTMIN
 10
1.0000000000E+20
 20
1.0000000000E+20
 30
1.0000000000E+20
  9
$PEXTMAX
 10
-1.0000000000E+20
 20
-1.0000000000E+20
 30
-1.0000000000E+20
  9
$PLIMMIN
 10
0.0
 20
0.0
  9
$PLIMMAX
 10
420.0
 20
297.0
  9
$UNITMODE
 70
     0
  9
$VISRETAIN
 70
     1
  9
$PLINEGEN
 70
     0
  9
$PSLTSCALE
 70
     1
  9
$TREEDEPTH
 70
  3020
  9
$CMLSTYLE
  2
Standard
  9
$CMLJUST
 70
     0
  9
$CMLSCALE
 40
20.0
  9
$PROXYGRAPHICS
 70
     1
  9
$MEASUREMENT
 70
     1
  9
$CELWEIGHT
370
    -1
  9
$ENDCAPS
280
     0
  9
$JOINSTYLE
280
     0
  9
$LWDISPLAY
290
     1
  9
$INSUNITS
 70
     4
  9
$HYPERLINKBASE
  1

  9
$STYLESHEET
  1

  9
$XEDIT
290
     1
  9
$CEPSNTYPE
380
     0
  9
$PSTYLEMODE
290
     1
  9
$FINGERPRINTGUID
  2
{A334B302-8AEE-422A-AD66-6E762217D5F7}
  9
$VERSIONGUID
  2
{FAEB1C32-E019-11D5-929B-00C0DF256EC4}
  9
$EXTNAMES
290
     1
  9
$PSVPSCALE
 40
0.0
  9
$OLESTARTUP
290
     0
  0
ENDSEC
  0
SECTION
  2
CLASSES
  0
CLASS
  1
ACDBDICTIONARYWDFLT
  2
AcDbDictionaryWithDefault
  3
ObjectDBX Classes
 90
        0
280
     0
281
     0
  0
CLASS
  1
VISUALSTYLE
  2
AcDbVisualStyle
  3
ObjectDBX Classes
 90
     4095
280
     0
281
     0
  0
CLASS
  1
DICTIONARYVAR
  2
AcDbDictionaryVar
  3
ObjectDBX Classes
 90
        0
280
     0
281
     0
  0
CLASS
  1
ACDBPLACEHOLDER
  2
AcDbPlaceHolder
  3
ObjectDBX Classes
 90
        0
280
     0
281
     0
  0
CLASS
  1
LAYOUT
  2
AcDbLayout
  3
ObjectDBX Classes
 90
        0
280
     0
281
     0
  0
ENDSEC
  0
SECTION
  2
TABLES
  0
TABLE
  2
VPORT
  5
8
330
0
100
AcDbSymbolTable
 70
     1
  0
VPORT
  5
29
330
8
100
AcDbSymbolTableRecord
100
AcDbViewportTableRecord
  2
*Active
 70
     0
 10
0.0
 20
0.0
 11
1.0
 21
1.0
 12
148.5
 22
105.0
 13
0.0
 23
0.0
 14
10.0
 24
10.0
 15
10.0
 25
10.0
 16
0.0
 26
0.0
 36
1.0
 17
0.0
 27
0.0
 37
0.0
 40
210.0
 41
1.4142857143
 42
50.0
 43
0.0
 44
0.0
 50
0.0
 51
0.0
 71
     0
 72
  2000
 73
     1
 74
     3
 75
     0
 76
     0
 77
     0
 78
     0
281
     0
 65
     1
110
0.0
120
0.0
130
0.0
111
1.0
121
0.0
131
0.0
112
0.0
122
1.0
132
0.0
 79
     0
146
0.0
  0
ENDTAB
  0
TABLE
  2
LTYPE
  5
5
330
0
100
AcDbSymbolTable
 70
     6
  0
LTYPE
  5
14
330
5
100
AcDbSymbolTableRecord
100
AcDbLinetypeTableRecord
  2
ByBlock
 70
     0
  3

 72
    65
 73
     0
 40
0.0
  0
LTYPE
  5
15
330
5
100
AcDbSymbolTableRecord
100
AcDbLinetypeTableRecord
  2
ByLayer
 70
     0
  3

 72
    65
 73
     0
 40
0.0
  0
LTYPE
  5
16
330
5
100
AcDbSymbolTableRecord
100
AcDbLinetypeTableRecord
  2
Continuous
 70
     0
  3
Solid line
 72
    65
 73
     0
 40
0.0
  0
LTYPE
  5
3B
330
5
100
AcDbSymbolTableRecord
100
AcDbLinetypeTableRecord
  2
HIDDEN
 70
     0
  3
Hidden __ __ __ __ __ __ __ __ __ __ __ __ __ __
 72
    65
 73
     2
 40
1.905
 49
1.27
 74
     0
 49
-0.635
 74
     0
  0
LTYPE
  5
3C
330
5
100
AcDbSymbolTableRecord
100
AcDbLinetypeTableRecord
  2
PHANTOM
 70
     0
  3
Phantom ______  __  __  ______  __  __  ______
 72
    65
 73
     6
 40
12.7
 49
6.35
 74
     0
 49
-1.27
 74
     0
 49
1.27
 74
     0
 49
-1.27
 74
     0
 49
1.27
 74
     0
 49
-1.27
 74
     0
  0
LTYPE
  5
3D
330
5
100
AcDbSymbolTableRecord
100
AcDbLinetypeTableRecord
  2
CENTER
 70
     0
  3
Center ____ _ ____ _ ____ _ ____ _ ____ _ ____
 72
    65
 73
     4
 40
10.16
 49
6.35
 74
     0
 49
-1.27
 74
     0
 49
1.27
 74
     0
 49
-1.27
 74
     0
  0
LTYPE
  5
3E
330
5
100
AcDbSymbolTableRecord
100
AcDbLinetypeTableRecord
  2
CENTERX2
 70
     0
  3
Center (2x) ________  __  ________  __  _____
 72
    65
 73
     4
 40
20.32
 49
12.7
 74
     0
 49
-2.54
 74
     0
 49
2.54
 74
     0
 49
-2.54
 74
     0
  0
LTYPE
  5
3F
330
5
100
AcDbSymbolTableRecord
100
AcDbLinetypeTableRecord
  2
DOT2
 70
     0
  3
Dot (.5x) ........................................
 72
    65
 73
     2
 40
0.635
 49
0.0
 74
     0
 49
-0.635
 74
     0
  0
ENDTAB
  0
TABLE
  2
LAYER
  5
2
330
0
100
AcDbSymbolTable
 70
     5
  0
LAYER
  5
10
330
2
100
AcDbSymbolTableRecord
100
AcDbLayerTableRecord
  2
0
 70
     0
 62
     7
  6
Continuous
370
    -3
390
F
  0
LAYER
  5
40
330
2
100
AcDbSymbolTableRecord
100
AcDbLayerTableRecord
  2
FORMAT
 70
     0
 62
     7
  6
Continuous
370
    -3
390
F
  0
LAYER
  5
41
330
2
100
AcDbSymbolTableRecord
100
AcDbLayerTableRecord
  2
VERMASSUNG
 70
     0
 62
     7
  6
Continuous
370
    -3
390
F
  0
LAYER
  5
42
330
2
100
AcDbSymbolTableRecord
100
AcDbLayerTableRecord
  2
KOPF_DÜNN
 70
     0
 62
     7
  6
Continuous
370
    -3
390
F
  0
LAYER
  5
43
330
2
100
AcDbSymbolTableRecord
100
AcDbLayerTableRecord
  2
KOPF_DICK
 70
     0
 62
     7
  6
Continuous
370
    15
390
F
  0
ENDTAB
  0
TABLE
  2
STYLE
  5
3
330
0
100
AcDbSymbolTable
 70
     3
  0
STYLE
  5
11
330
3
100
AcDbSymbolTableRecord
100
AcDbTextStyleTableRecord
  2
Standard
 70
     0
 40
0.0
 41
1.0
 50
0.0
 71
     0
 42
2.5
  3
txt
  4

  0
STYLE
  5
44
330
3
100
AcDbSymbolTableRecord
100
AcDbTextStyleTableRecord
  2
SLDTEXTSTYLE0
 70
     0
 40
0.0
 41
0.7
 50
0.0
 71
     0
 42
0.2
  3
TXT
  4

  0
STYLE
  5
48
330
3
100
AcDbSymbolTableRecord
100
AcDbTextStyleTableRecord
  2
SLDTEXTSTYLE1
 70
     0
 40
0.0
 41
0.6526315789
 50
0.0
 71
     0
 42
0.2
  3
TXT
  4

  0
ENDTAB
  0
TABLE
  2
VIEW
  5
6
330
0
100
AcDbSymbolTable
 70
     0
  0
ENDTAB
  0
TABLE
  2
UCS
  5
7
330
0
100
AcDbSymbolTable
 70
     0
  0
ENDTAB
  0
TABLE
  2
APPID
  5
9
330
0
100
AcDbSymbolTable
 70
     1
  0
APPID
  5
12
330
9
100
AcDbSymbolTableRecord
100
AcDbRegAppTableRecord
  2
ACAD
 70
     0
  0
ENDTAB
  0
TABLE
  2
DIMSTYLE
  5
A
330
0
100
AcDbSymbolTable
 70
     4
100
AcDbDimStyleTable
  0
DIMSTYLE
105
27
330
A
100
AcDbSymbolTableRecord
100
AcDbDimStyleTableRecord
  2
ISO-25
 70
     0
 41
2.5
 42
0.625
 43
3.75
 44
1.25
 73
     0
 74
     0
 77
     1
 78
     8
140
2.5
141
2.5
143
0.0393700787
147
0.625
171
     3
172
     1
271
     2
272
     2
274
     3
278
    44
283
     0
284
     8
340
11
  0
DIMSTYLE
105
247
102
{ACAD_REACTORS
330
246
330
253
330
25D
330
267
102
}
330
A
100
AcDbSymbolTableRecord
100
AcDbDimStyleTableRecord
  2
SLDDIMSTYLE0
 70
     0
 41
3.0
 44
0.0
 45
0.000000001
 73
     0
 74
     0
 77
     1
 78
    12
140
2.0
147
0.5
173
     1
271
     2
272
     3
284
    12
340
44
  0
DIMSTYLE
105
272
102
{ACAD_REACTORS
330
271
102
}
330
A
100
AcDbSymbolTableRecord
100
AcDbDimStyleTableRecord
  2
SLDDIMSTYLE1
 70
     0
 41
3.0
 44
0.0
 73
     0
 74
     0
 77
     1
 78
    12
140
2.0
147
0.5
173
     1
179
     1
272
     3
284
    12
340
44
  0
DIMSTYLE
105
2EE
102
{ACAD_REACTORS
330
2ED
102
}
330
A
100
AcDbSymbolTableRecord
100
AcDbDimStyleTableRecord
  2
SLDDIMSTYLE2
 70
     0
 41
3.0
 44
0.0
 45
0.000000001
 73
     0
 74
     0
 77
     1
 78
    12
140
2.0
147
0.5
173
     1
271
     2
272
     3
284
    12
340
44
  0
ENDTAB
  0
TABLE
  2
BLOCK_RECORD
  5
1
330
0
100
AcDbSymbolTable
 70
     8
  0
BLOCK_RECORD
  5
1F
330
1
100
AcDbSymbolTableRecord
100
AcDbBlockTableRecord
  2
*Model_Space
340
22
  0
BLOCK_RECORD
  5
1B
330
1
100
AcDbSymbolTableRecord
100
AcDbBlockTableRecord
  2
*Paper_Space
340
1E
  0
BLOCK_RECORD
  5
23
330
1
100
AcDbSymbolTableRecord
100
AcDbBlockTableRecord
  2
*Paper_Space0
340
26
  0
BLOCK_RECORD
  5
248
330
1
100
AcDbSymbolTableRecord
100
AcDbBlockTableRecord
  2
*D1
340
0
  0
BLOCK_RECORD
  5
254
330
1
100
AcDbSymbolTableRecord
100
AcDbBlockTableRecord
  2
*D2
340
0
  0
BLOCK_RECORD
  5
25E
330
1
100
AcDbSymbolTableRecord
100
AcDbBlockTableRecord
  2
*D3
340
0
  0
BLOCK_RECORD
  5
268
330
1
100
AcDbSymbolTableRecord
100
AcDbBlockTableRecord
  2
*D4
340
0
  0
BLOCK_RECORD
  5
273
330
1
100
AcDbSymbolTableRecord
100
AcDbBlockTableRecord
  2
*D5
340
0
  0
BLOCK_RECORD
  5
2EF
330
1
100
AcDbSymbolTableRecord
100
AcDbBlockTableRecord
  2
*D6
340
0
  0
BLOCK_RECORD
  5
2F9
330
1
100
AcDbSymbolTableRecord
100
AcDbBlockTableRecord
  2
SW_CENTERMARKSYMBOL_0
340
0
102
{BLKREFS
331
304
102
}
  0
ENDTAB
  0
ENDSEC
  0
SECTION
  2
BLOCKS
  0
BLOCK
  5
20
330
1F
100
AcDbEntity
  8
0
100
AcDbBlockBegin
  2
*Model_Space
 70
     0
 10
0.0
 20
0.0
 30
0.0
  3
*Model_Space
  1

  0
ENDBLK
  5
21
330
1F
100
AcDbEntity
  8
0
100
AcDbBlockEnd
  0
BLOCK
  5
1C
330
1B
100
AcDbEntity
 67
     1
  8
0
100
AcDbBlockBegin
  2
*Paper_Space
 70
     0
 10
0.0
 20
0.0
 30
0.0
  3
*Paper_Space
  1

  0
ENDBLK
  5
1D
330
1B
100
AcDbEntity
 67
     1
  8
0
100
AcDbBlockEnd
  0
BLOCK
  5
24
330
23
100
AcDbEntity
  8
0
100
AcDbBlockBegin
  2
*Paper_Space0
 70
     0
 10
0.0
 20
0.0
 30
0.0
  3
*Paper_Space0
  1

  0
ENDBLK
  5
25
330
23
100
AcDbEntity
  8
0
100
AcDbBlockEnd
  0
BLOCK
  5
249
330
248
100
AcDbEntity
  8
0
100
AcDbBlockBegin
  2
*D1
 70
     1
 10
0.0
 20
0.0
 30
0.0
  3
*D1
  1

  0
SOLID
  5
24B
330
248
100
AcDbEntity
  8
VERMASSUNG
100
AcDbTrace
 10
153.5221863098
 20
146.3696531129
 30
0.0
 11
153.0721863098
 21
143.3696531129
 31
0.0
 12
153.9721863098
 22
143.3696531129
 32
0.0
 13
153.9721863098
 23
143.3696531129
 33
0.0
  0
SOLID
  5
24C
330
248
100
AcDbEntity
  8
VERMASSUNG
100
AcDbTrace
 10
153.5221863098
 20
83.3696531129
 30
0.0
 11
153.9721863098
 21
86.3696531129
 31
0.0
 12
153.0721863098
 22
86.3696531129
 32
0.0
 13
153.0721863098
 23
86.3696531129
 33
0.0
  0
LINE
  5
24D
330
248
100
AcDbEntity
  8
VERMASSUNG
100
AcDbLine
 10
189.8211573258
 20
146.3696531129
 30
0.0
 11
152.5221863098
 21
146.3696531129
 31
0.0
  0
LINE
  5
24E
330
248
100
AcDbEntity
  8
VERMASSUNG
100
AcDbLine
 10
189.8211573258
 20
83.3696531129
 30
0.0
 11
152.5221863098
 21
83.3696531129
 31
0.0
  0
LINE
  5
24F
330
248
100
AcDbEntity
  8
VERMASSUNG
100
AcDbLine
 10
153.5221863098
 20
146.3696531129
 30
0.0
 11
153.5221863098
 21
83.3696531129
 31
0.0
  0
MTEXT
  5
250
330
248
100
AcDbEntity
  8
VERMASSUNG
100
AcDbMText
 10
150.7440508207
 20
108.6663067616
 30
0.0
 40
2.0
 41
0.0
 71
     1
 72
     1
  1
HSK 
  7
SLDTEXTSTYLE0
 11
-7.044195017643634E-15
 21
1.0
 31
0.0
 73
     1
 44
1.0
  0
MTEXT
  5
251
330
248
100
AcDbEntity
  8
VERMASSUNG
100
AcDbMText
 10
150.9440508302
 20
114.6663068138
 30
0.0
 40
2.0
 41
0.0
 71
     1
 72
     1
  1
%%c
  7
SLDTEXTSTYLE0
 11
-7.044195017643634E-15
 21
1.0
 31
0.0
 73
     1
 44
1.0
  0
MTEXT
  5
252
330
248
100
AcDbEntity
  8
VERMASSUNG
100
AcDbMText
 10
150.9440509466
 20
118.274387756
 30
0.0
 40
2.0
 41
0.0
 71
     1
 72
     1
  1
63
  7
SLDTEXTSTYLE0
 11
-7.044195017643634E-15
 21
1.0
 31
0.0
 73
     1
 44
1.0
  0
ENDBLK
  5
24A
330
248
100
AcDbEntity
  8
0
100
AcDbBlockEnd
  0
BLOCK
  5
255
330
254
100
AcDbEntity
  8
0
100
AcDbBlockBegin
  2
*D2
 70
     1
 10
0.0
 20
0.0
 30
0.0
  3
*D2
  1

  0
SOLID
  5
257
330
254
100
AcDbEntity
  8
VERMASSUNG
100
AcDbTrace
 10
157.6211573258
 20
156.3696531129
 30
0.0
 11
160.6211573258
 21
155.9196531129
 31
0.0
 12
160.6211573258
 22
156.8196531129
 32
0.0
 13
160.6211573258
 23
156.8196531129
 33
0.0
  0
SOLID
  5
258
330
254
100
AcDbEntity
  8
VERMASSUNG
100
AcDbTrace
 10
259.5211573258
 20
156.3696531129
 30
0.0
 11
256.5211573258
 21
156.8196531129
 31
0.0
 12
256.5211573258
 22
155.9196531129
 32
0.0
 13
256.5211573258
 23
155.9196531129
 33
0.0
  0
LINE
  5
259
330
254
100
AcDbEntity
  8
VERMASSUNG
100
AcDbLine
 10
157.6211573258
 20
134.5603308594
 30
0.0
 11
157.6211573258
 21
157.3696531129
 31
0.0
  0
LINE
  5
25A
330
254
100
AcDbEntity
  8
VERMASSUNG
100
AcDbLine
 10
259.5211573258
 20
69.8696531129
 30
0.0
 11
259.5211573258
 21
157.3696531129
 31
0.0
  0
LINE
  5
25B
330
254
100
AcDbEntity
  8
VERMASSUNG
100
AcDbLine
 10
157.6211573258
 20
156.3696531129
 30
0.0
 11
259.5211573258
 21
156.3696531129
 31
0.0
  0
MTEXT
  5
25C
330
254
100
AcDbEntity
  8
VERMASSUNG
100
AcDbMText
 10
205.8721489858
 20
158.947788476
 30
0.0
 40
2.0
 41
0.0
 71
     1
 72
     1
  1
101.9
  7
SLDTEXTSTYLE0
 73
     1
 44
1.0
  0
ENDBLK
  5
256
330
254
100
AcDbEntity
  8
0
100
AcDbBlockEnd
  0
BLOCK
  5
25F
330
25E
100
AcDbEntity
  8
0
100
AcDbBlockBegin
  2
*D3
 70
     1
 10
0.0
 20
0.0
 30
0.0
  3
*D3
  1

  0
SOLID
  5
261
330
25E
100
AcDbEntity
  8
VERMASSUNG
100
AcDbTrace
 10
189.5211573258
 20
150.3696531129
 30
0.0
 11
192.5211573258
 21
149.9196531129
 31
0.0
 12
192.5211573258
 22
150.8196531129
 32
0.0
 13
192.5211573258
 23
150.8196531129
 33
0.0
  0
SOLID
  5
262
330
25E
100
AcDbEntity
  8
VERMASSUNG
100
AcDbTrace
 10
259.5211573258
 20
150.3696531129
 30
0.0
 11
256.5211573258
 21
150.8196531129
 31
0.0
 12
256.5211573258
 22
149.9196531129
 32
0.0
 13
256.5211573258
 23
149.9196531129
 33
0.0
  0
LINE
  5
263
330
25E
100
AcDbEntity
  8
VERMASSUNG
100
AcDbLine
 10
189.5211573258
 20
146.0696531129
 30
0.0
 11
189.5211573258
 21
151.3696531129
 31
0.0
  0
LINE
  5
264
330
25E
100
AcDbEntity
  8
VERMASSUNG
100
AcDbLine
 10
259.5211573258
 20
69.8696531129
 30
0.0
 11
259.5211573258
 21
151.3696531129
 31
0.0
  0
LINE
  5
265
330
25E
100
AcDbEntity
  8
VERMASSUNG
100
AcDbLine
 10
189.5211573258
 20
150.3696531129
 30
0.0
 11
259.5211573258
 21
150.3696531129
 31
0.0
  0
MTEXT
  5
266
330
25E
100
AcDbEntity
  8
VERMASSUNG
100
AcDbMText
 10
223.1218514718
 20
152.947788476
 30
0.0
 40
2.0
 41
0.0
 71
     1
 72
     1
  1
70
  7
SLDTEXTSTYLE0
 73
     1
 44
1.0
  0
ENDBLK
  5
260
330
25E
100
AcDbEntity
  8
0
100
AcDbBlockEnd
  0
BLOCK
  5
269
330
268
100
AcDbEntity
  8
0
100
AcDbBlockBegin
  2
*D4
 70
     1
 10
0.0
 20
0.0
 30
0.0
  3
*D4
  1

  0
SOLID
  5
26B
330
268
100
AcDbEntity
  8
VERMASSUNG
100
AcDbTrace
 10
268.1972679202
 20
114.8696531129
 30
0.0
 11
267.7472679202
 21
111.8696531129
 31
0.0
 12
268.6472679202
 22
111.8696531129
 32
0.0
 13
268.6472679202
 23
111.8696531129
 33
0.0
  0
SOLID
  5
26C
330
268
100
AcDbEntity
  8
VERMASSUNG
100
AcDbTrace
 10
268.1972679202
 20
69.8696531129
 30
0.0
 11
268.6472679202
 21
72.8696531129
 31
0.0
 12
267.7472679202
 22
72.8696531129
 32
0.0
 13
267.7472679202
 23
72.8696531129
 33
0.0
  0
LINE
  5
26D
330
268
100
AcDbEntity
  8
VERMASSUNG
100
AcDbLine
 10
259.5211573258
 20
114.8696531129
 30
0.0
 11
269.1972679202
 21
114.8696531129
 31
0.0
  0
LINE
  5
26E
330
268
100
AcDbEntity
  8
VERMASSUNG
100
AcDbLine
 10
259.5211573258
 20
69.8696531129
 30
0.0
 11
269.1972679202
 21
69.8696531129
 31
0.0
  0
LINE
  5
26F
330
268
100
AcDbEntity
  8
VERMASSUNG
100
AcDbLine
 10
268.1972679202
 20
114.8696531129
 30
0.0
 11
268.1972679202
 21
69.8696531129
 31
0.0
  0
MTEXT
  5
270
330
268
100
AcDbEntity
  8
VERMASSUNG
100
AcDbMText
 10
265.6191325571
 20
90.8707438908
 30
0.0
 40
2.0
 41
0.0
 71
     1
 72
     1
  1
45
  7
SLDTEXTSTYLE0
 11
-7.044195017643634E-15
 21
1.0
 31
0.0
 73
     1
 44
1.0
  0
ENDBLK
  5
26A
330
268
100
AcDbEntity
  8
0
100
AcDbBlockEnd
  0
BLOCK
  5
274
330
273
100
AcDbEntity
  8
0
100
AcDbBlockBegin
  2
*D5
 70
     1
 10
0.0
 20
0.0
 30
0.0
  3
*D5
  1

  0
ARC
  5
276
330
273
100
AcDbEntity
  8
VERMASSUNG
100
AcDbCircle
 10
259.5211573258
 20
70.3250627127
 30
0.0
 40
17.89280843096542
100
AcDbArc
 50
90.0
 51
117.5597077153
  0
SOLID
  5
277
330
273
100
AcDbEntity
  8
VERMASSUNG
100
AcDbTrace
 10
259.5211573258
 20
88.2178711437
 30
0.0
 11
256.4941657859
 21
88.417426192
 31
0.0
 12
256.5688338591
 22
87.520528941
 32
0.0
 13
256.5688338591
 23
87.520528941
 33
0.0
  0
SOLID
  5
278
330
273
100
AcDbEntity
  8
VERMASSUNG
100
AcDbTrace
 10
251.2426431062
 20
86.1875592332
 30
0.0
 11
254.1826051732
 21
86.9353045404
 31
0.0
 12
253.8338307134
 22
87.7649769916
 32
0.0
 13
253.8338307134
 23
87.7649769916
 33
0.0
  0
LINE
  5
279
330
273
100
AcDbEntity
  8
VERMASSUNG
100
AcDbLine
 10
252.4515618013
 20
83.8711449485
 30
0.0
 11
250.7799703932
 21
87.0740883984
 31
0.0
  0
MTEXT
  5
27A
330
273
100
AcDbEntity
  8
VERMASSUNG
100
AcDbMText
 10
251.7324275485
 20
89.4924680648
 30
0.0
 40
2.0
 41
0.0
 71
     1
 72
     1
  1
27.5°
  7
SLDTEXTSTYLE0
 11
0.9712180921784928
 21
0.2381919759882114
 31
0.0
 73
     1
 44
1.0
  0
ENDBLK
  5
275
330
273
100
AcDbEntity
  8
0
100
AcDbBlockEnd
  0
BLOCK
  5
2F0
330
2EF
100
AcDbEntity
  8
0
100
AcDbBlockBegin
  2
*D6
 70
     1
 10
0.0
 20
0.0
 30
0.0
  3
*D6
  1

  0
SOLID
  5
2F2
330
2EF
100
AcDbEntity
  8
VERMASSUNG
100
AcDbTrace
 10
40.7629469768
 20
70.4234252839
 30
0.0
 11
41.2129469768
 21
73.4234252839
 31
0.0
 12
40.3129469768
 22
73.4234252839
 32
0.0
 13
40.3129469768
 23
73.4234252839
 33
0.0
  0
SOLID
  5
2F3
330
2EF
100
AcDbEntity
  8
VERMASSUNG
100
AcDbTrace
 10
40.7629469768
 20
150.4234252839
 30
0.0
 11
40.3129469768
 21
147.4234252839
 31
0.0
 12
41.2129469768
 22
147.4234252839
 32
0.0
 13
41.2129469768
 23
147.4234252839
 33
0.0
  0
LINE
  5
2F4
330
2EF
100
AcDbEntity
  8
VERMASSUNG
100
AcDbLine
 10
82.8607688711
 20
70.4234252839
 30
0.0
 11
39.7629469768
 21
70.4234252839
 31
0.0
  0
LINE
  5
2F5
330
2EF
100
AcDbEntity
  8
VERMASSUNG
100
AcDbLine
 10
82.8607688711
 20
150.4234252839
 30
0.0
 11
39.7629469768
 21
150.4234252839
 31
0.0
  0
LINE
  5
2F6
330
2EF
100
AcDbEntity
  8
VERMASSUNG
100
AcDbLine
 10
40.7629469768
 20
70.4234252839
 30
0.0
 11
40.7629469768
 21
150.4234252839
 31
0.0
  0
MTEXT
  5
2F7
330
2EF
100
AcDbEntity
  8
VERMASSUNG
100
AcDbMText
 10
38.1848114973
 20
107.2203267274
 30
0.0
 40
2.0
 41
0.0
 71
     1
 72
     1
  1
%%c
  7
SLDTEXTSTYLE0
 11
6.123233995736766E-17
 21
1.0
 31
0.0
 73
     1
 44
1.0
  0
MTEXT
  5
2F8
330
2EF
100
AcDbEntity
  8
VERMASSUNG
100
AcDbMText
 10
38.1848116137
 20
110.8279121323
 30
0.0
 40
2.0
 41
0.0
 71
     1
 72
     1
  1
80
  7
SLDTEXTSTYLE0
 11
6.123233995736766E-17
 21
1.0
 31
0.0
 73
     1
 44
1.0
  0
ENDBLK
  5
2F1
330
2EF
100
AcDbEntity
  8
0
100
AcDbBlockEnd
  0
BLOCK
  5
2FA
330
2F9
100
AcDbEntity
  8
0
100
AcDbBlockBegin
  2
SW_CENTERMARKSYMBOL_0
 70
     0
 10
0.0
 20
0.0
 30
0.0
  3
SW_CENTERMARKSYMBOL_0
  1

  0
LINE
  5
2FC
330
2F9
100
AcDbEntity
  8
VERMASSUNG
 62
     0
100
AcDbLine
 10
0.0
 20
0.0
 30
0.0
 11
0.0
 21
2.5
 31
0.0
  0
LINE
  5
2FD
330
2F9
100
AcDbEntity
  8
VERMASSUNG
 62
     0
100
AcDbLine
 10
0.0
 20
0.0
 30
0.0
 11
-2.5
 21
0.0
 31
0.0
  0
LINE
  5
2FE
330
2F9
100
AcDbEntity
  8
VERMASSUNG
 62
     0
100
AcDbLine
 10
0.0
 20
0.0
 30
0.0
 11
0.0
 21
-2.5
 31
0.0
  0
LINE
  5
2FF
330
2F9
100
AcDbEntity
  8
VERMASSUNG
 62
     0
100
AcDbLine
 10
0.0
 20
0.0
 30
0.0
 11
2.5
 21
0.0
 31
0.0
  0
LINE
  5
300
330
2F9
100
AcDbEntity
  8
VERMASSUNG
 62
     0
100
AcDbLine
 10
0.0
 20
5.0
 30
0.0
 11
0.0
 21
34.0
 31
0.0
  0
LINE
  5
301
330
2F9
100
AcDbEntity
  8
VERMASSUNG
 62
     0
100
AcDbLine
 10
-5.0
 20
0.0
 30
0.0
 11
-34.0
 21
0.0
 31
0.0
  0
LINE
  5
302
330
2F9
100
AcDbEntity
  8
VERMASSUNG
 62
     0
100
AcDbLine
 10
0.0
 20
-5.0
 30
0.0
 11
0.0
 21
-47.2405655103
 31
0.0
  0
LINE
  5
303
330
2F9
100
AcDbEntity
  8
VERMASSUNG
 62
     0
100
AcDbLine
 10
5.0
 20
0.0
 30
0.0
 11
34.0
 21
0.0
 31
0.0
  0
ENDBLK
  5
2FB
330
2F9
100
AcDbEntity
  8
0
100
AcDbBlockEnd
  0
ENDSEC
  0
SECTION
  2
ENTITIES
  0
MTEXT
  5
45
330
1F
100
AcDbEntity
  8
KOPF_DÜNN
100
AcDbMText
 10
13.8892156294
 20
23.8442973028
 30
0.0
 40
3.0
 41
0.0
 71
     1
 72
     1
  1
HA6.KVB.LPA.070
  7
SLDTEXTSTYLE0
 73
     1
 44
1.0
  0
MTEXT
  5
46
330
1F
100
AcDbEntity
  8
VERMASSUNG
100
AcDbMText
 10
13.9329988022
 20
28.8834360957
 30
0.0
 40
3.0
 41
0.0
 71
     1
 72
     1
  1
Klemmhalter links_Turning tool left 117.5° /35° /117.5°
  7
SLDTEXTSTYLE0
 73
     1
 44
1.0
  0
MTEXT
  5
47
330
1F
100
AcDbEntity
  8
VERMASSUNG
100
AcDbMText
 10
98.8601118557
 20
13.8365368179
 30
0.0
 40
2.0
 41
0.0
 71
     1
 72
     1
  1
Datum: 05.11.2008
  7
SLDTEXTSTYLE0
 73
     1
 44
1.0
  0
MTEXT
  5
49
330
1F
100
AcDbEntity
  8
VERMASSUNG
100
AcDbMText
 10
13.933048693
 20
18.0482802738
 30
0.0
 40
2.0
 41
0.0
 71
     1
 72
     1
  1
DIN 69893 HSK 63 A ICTM / VC.. 16 04..
  7
SLDTEXTSTYLE1
 73
     1
 44
1.0
  0
MTEXT
  5
4A
330
1F
100
AcDbEntity
  8
VERMASSUNG
100
AcDbMText
 10
13.9808475933
 20
13.9090973692
 30
0.0
 40
2.0
 41
0.0
 71
     1
 72
     1
  1
Gewicht: 1055g
  7
SLDTEXTSTYLE0
 73
     1
 44
1.0
  0
LINE
  5
4B
330
1F
100
AcDbEntity
  8
0
  6
Continuous
 62
     7
370
    15
100
AcDbLine
 10
247.4393038153
 20
80.7321798833
 30
0.0
 11
247.3451722257
 21
80.8260821731
 31
0.0
  0
LINE
  5
4C
330
1F
100
AcDbEntity
  8
0
  6
Continuous
 62
     7
370
    15
100
AcDbLine
 10
250.6413028461
 20
82.4114559107
 30
0.0
 11
250.5907601048
 21
82.4618755324
 31
0.0
  0
LINE
  5
4D
330
1F
100
AcDbEntity
  8
0
  6
Continuous
 62
     7
370
    15
100
AcDbLine
 10
246.8829792753
 20
78.74504068
 30
0.0
 11
246.9335220166
 21
78.6946210583
 31
0.0
  0
LINE
  5
4E
330
1F
100
AcDbEntity
  8
0
  6
Continuous
 62
     7
370
    15
100
AcDbLine
 10
248.9966387228
 20
81.8668047686
 30
0.0
 11
249.0894308462
 21
81.7742386821
 31
0.0
  0
LINE
  5
4F
330
1F
100
AcDbEntity
  8
0
  6
Continuous
 62
     7
370
    15
100
AcDbLine
 10
248.5110582591
 20
79.3072280047
 30
0.0
 11
248.4183052409
 21
79.3997550812
 31
0.0
  0
LINE
  5
50
330
1F
100
AcDbEntity
  8
0
  6
Continuous
 62
     7
370
    15
100
AcDbLine
 10
250.0697717381
 20
80.4404776767
 30
0.0
 11
250.1638600467
 21
80.3466185624
 31
0.0
  0
LINE
  5
51
330
1F
100
AcDbEntity
  8
0
  6
Continuous
 62
     7
370
    15
100
AcDbLine
 10
189.8211573258
 20
83.3696531129
 30
0.0
 11
194.4711573258
 21
83.3696531129
 31
0.0
  0
LINE
  5
52
330
1F
100
AcDbEntity
  8
0
  6
Continuous
 62
     7
370
    15
100
AcDbLine
 10
194.4991456849
 20
146.3696531129
 30
0.0
 11
189.8211573258
 21
146.3696531129
 31
0.0
  0
ARC
  5
53
330
1F
100
AcDbEntity
  8
0
  6
Continuous
 62
     7
370
    15
100
AcDbCircle
 10
189.8211573258
 20
83.6696531129
 30
0.0
 40
0.2999999999999972
100
AcDbArc
 50
180.0
 51
270.0
  0
ARC
  5
54
330
1F
100
AcDbEntity
  8
0
  6
Continuous
 62
     7
370
    15
100
AcDbCircle
 10
189.8211573258
 20
146.0696531129
 30
0.0
 40
0.2999999999999829
100
AcDbArc
 50
90.0
 51
180.0
  0
ARC
  5
55
330
1F
100
AcDbEntity
  8
0
  6
Continuous
 62
     7
370
    15
100
AcDbCircle
 10
216.4711573258
 20
87.8696531129
 30
0.0
 40
1.000000000000003
100
AcDbArc
 50
90.0
 51
143.1139143113
  0
ARC
  5
56
330
1F
100
AcDbEntity
  8
0
  6
Continuous
 62
     7
370
    15
100
AcDbCircle
 10
216.4711573258
 20
141.8696531129
 30
0.0
 40
1.000000000000003
100
AcDbArc
 50
216.8996843908
 51
270.0
  0
LINE
  5
57
330
1F
100
AcDbEntity
  8
0
  6
Continuous
 62
     7
370
    15
100
AcDbLine
 10
216.4711573258
 20
88.8696531129
 30
0.0
 11
230.7538303379
 21
88.8696531129
 31
0.0
  0
LINE
  5
58
330
1F
100
AcDbEntity
  8
0
  6
Continuous
 62
     7
370
    15
100
AcDbLine
 10
230.7538303379
 20
140.8696531129
 30
0.0
 11
216.4711573258
 21
140.8696531129
 31
0.0
  0
ARC
  5
59
330
1F
100
AcDbEntity
  8
0
  6
Continuous
 62
     7
370
    15
100
AcDbCircle
 10
189.0211573258
 20
90.2992222512
 30
0.0
 40
0.6000000000000085
100
AcDbArc
 50
33.5573097619
 51
90.0
  0
ARC
  5
5A
330
1F
100
AcDbEntity
  8
0
  6
Continuous
 62
     7
370
    15
100
AcDbCircle
 10
189.0211573258
 20
139.4400839746
 30
0.0
 40
0.5999999999999943
100
AcDbArc
 50
270.0
 51
326.4426902381
  0
LINE
  5
5B
330
1F
100
AcDbEntity
  8
0
  6
Continuous
 62
     7
370
    15
100
AcDbLine
 10
187.5211573258
 20
90.6492222512
 30
0.0
 11
188.3778700992
 21
90.8787777469
 31
0.0
  0
LINE
  5
5C
330
1F
100
AcDbEntity
  8
0
  6
Continuous
 62
     7
370
    15
100
AcDbLine
 10
188.3778700992
 20
138.8605284788
 30
0.0
 11
187.5211573258
 21
139.0900839746
 31
0.0
  0
LINE
  5
5D
330
1F
100
AcDbEntity
  8
0
  6
Continuous
 62
     7
370
    15
100
AcDbLine
 10
176.289648527
 20
138.527383133
 30
0.0
 11
163.7211573258
 21
137.8976992051
 31
0.0
  0
LINE
  5
5E
330
1F
100
AcDbEntity
  8
0
  6
Continuous
 62
     7
370
    15
100
AcDbLine
 10
187.5211573258
 20
139.0900839746
 30
0.0
 11
184.7041556685
 21
138.948951627
 31
0.0
  0
LINE
  5
5F
330
1F
100
AcDbEntity
  8
0
  6
Continuous
 62
     7
370
    15
100
AcDbLine
 10
184.7042117586
 20
90.7903517886
 30
0.0
 11
187.5211573258
 21
90.6492222512
 31
0.0
  0
LINE
  5
60
330
1F
100
AcDbEntity
  8
0
  6
Continuous
 62
     7
370
    15
100
AcDbLine
 10
167.7211573258
 20
91.6412062191
 30
0.0
 11
176.2900510457
 21
91.2119029265
 31
0.0
  0
ARC
  5
61
330
1F
100
AcDbEntity
  8
0
  6
Continuous
 62
     7
370
    15
100
AcDbCircle
 10
188.5331615263
 20
90.2992222512
 30
0.0
 40
0.6000000000000227
100
AcDbArc
 50
90.0
 51
105.0
  0
ARC
  5
62
330
1F
100
AcDbEntity
  8
0
  6
Continuous
 62
     7
370
    15
100
AcDbCircle
 10
188.5331615263
 20
139.4400839746
 30
0.0
 40
0.6000000000000008
100
AcDbArc
 50
255.0
 51
270.0
  0
LINE
  5
63
330
1F
100
AcDbEntity
  8
0
  6
Continuous
 62
     7
370
    15
100
AcDbLine
 10
188.5331615263
 20
90.8992222512
 30
0.0
 11
189.0211573258
 21
90.8992222512
 31
0.0
  0
LINE
  5
64
330
1F
100
AcDbEntity
  8
0
  6
Continuous
 62
     7
370
    15
100
AcDbLine
 10
189.0211573258
 20
138.8400839746
 30
0.0
 11
188.5331615263
 21
138.8400839746
 31
0.0
  0
LINE
  5
65
330
1F
100
AcDbEntity
  8
0
  6
Continuous
 62
     7
370
    15
100
AcDbLine
 10
158.7711573258
 20
94.0571531129
 30
0.0
 11
166.3211573258
 21
94.0571531129
 31
0.0
  0
ARC
  5
66
330
1F
100
AcDbEntity
  8
0
  6
Continuous
 62
     7
370
    15
100
AcDbCircle
 10
166.3211573258
 20
92.6571531129
 30
0.0
 40
1.400000000000006
100
AcDbArc
 50
37.6443616934
 51
90.0
  0
LINE
  5
67
330
1F
100
AcDbEntity
  8
0
  6
Continuous
 62
     7
370
    15
100
AcDbLine
 10
158.762320784
 20
135.7308165711
 30
0.0
 11
157.6310580992
 21
134.5995538863
 31
0.0
  0
LINE
  5
68
330
1F
100
AcDbEntity
  8
0
  6
Continuous
 62
     7
370
    15
100
AcDbLine
 10
157.6185764461
 20
95.2097339926
 30
0.0
 11
158.7711573258
 21
94.0571531129
 31
0.0
  0
ARC
  5
69
330
1F
100
AcDbEntity
  8
0
  6
Continuous
 62
     7
370
    15
100
AcDbCircle
 10
162.3211573258
 20
137.1396531129
 30
0.0
 40
1.40000000000003
100
AcDbArc
 50
270.0
 51
301.7485287426
  0
LINE
  5
6A
330
1F
100
AcDbEntity
  8
0
  6
Continuous
 62
     7
370
    15
100
AcDbLine
 10
162.3211573258
 20
135.7396531129
 30
0.0
 11
158.8954230597
 21
135.7396531129
 31
0.0
  0
ARC
  5
6B
330
1F
100
AcDbEntity
  8
0
  6
Continuous
 62
     7
370
    15
100
AcDbCircle
 10
230.7538303379
 20
141.8696531129
 30
0.0
 40
1.000000000000003
100
AcDbArc
 50
270.0
 51
345.0
  0
ARC
  5
6C
330
1F
100
AcDbEntity
  8
0
  6
Continuous
 62
     7
370
    15
100
AcDbCircle
 10
230.7538303379
 20
87.8696531129
 30
0.0
 40
1.0
100
AcDbArc
 50
15.0
 51
90.0
  0
LINE
  5
6D
330
1F
100
AcDbEntity
  8
0
  6
Continuous
 62
     7
370
    15
100
AcDbLine
 10
231.7891065183
 20
141.8696531129
 30
0.0
 11
231.7197561641
 21
141.6108340678
 31
0.0
  0
LINE
  5
6E
330
1F
100
AcDbEntity
  8
0
  6
Continuous
 62
     7
370
    15
100
AcDbLine
 10
231.7197561641
 20
88.128472158
 30
0.0
 11
232.7154779242
 21
84.4123879592
 31
0.0
  0
LINE
  5
6F
330
1F
100
AcDbEntity
  8
0
  6
Continuous
 62
     7
370
    15
100
AcDbLine
 10
233.3222952311
 20
141.8696531129
 30
0.0
 11
231.7891065183
 21
141.8696531129
 31
0.0
  0
LINE
  5
70
330
1F
100
AcDbEntity
  8
0
  6
Continuous
 62
     7
370
    15
100
AcDbLine
 10
232.7164366948
 20
84.3951575366
 30
0.0
 11
244.6813855619
 21
78.2249625946
 31
0.0
  0
CIRCLE
  5
71
330
1F
100
AcDbEntity
  8
0
  6
Continuous
 62
     7
370
    15
100
AcDbCircle
 10
248.7878538371
 20
80.5403576119
 30
0.0
 40
2.619044210617452
  0
CIRCLE
  5
72
330
1F
100
AcDbEntity
  8
0
  6
Continuous
 62
     7
370
    15
100
AcDbCircle
 10
248.8070584085
 20
80.5251990981
 30
0.0
 40
1.796047408448559
  0
ARC
  5
73
330
1F
100
AcDbEntity
  8
0
  6
Continuous
 62
     7
370
    15
100
AcDbCircle
 10
248.7979391974
 20
80.5259717855
 30
0.0
 40
1.663174117135187
100
AcDbArc
 50
218.3473635387
 51
277.1360206156
  0
ARC
  5
74
330
1F
100
AcDbEntity
  8
0
  6
Continuous
 62
     7
370
    15
100
AcDbCircle
 10
248.7963523018
 20
80.5442382875
 30
0.0
 40
1.681496403534488
100
AcDbArc
 50
277.1123540422
 51
336.956889122
  0
ARC
  5
75
330
1F
100
AcDbEntity
  8
0
  6
Continuous
 62
     7
370
    15
100
AcDbCircle
 10
248.8091004992
 20
80.541123315
 30
0.0
 40
1.668547454570233
100
AcDbArc
 50
336.8839703192
 51
35.5415639966
  0
LINE
  5
76
330
1F
100
AcDbEntity
  8
0
  6
Continuous
 62
     7
370
    15
100
AcDbLine
 10
250.1158234969
 20
81.5785134991
 30
0.0
 11
250.1667876279
 21
81.5110389138
 31
0.0
  0
ARC
  5
77
330
1F
100
AcDbEntity
  8
0
  6
Continuous
 62
     7
370
    15
100
AcDbCircle
 10
248.8154866011
 20
80.5420289868
 30
0.0
 40
1.66288189205071
100
AcDbArc
 50
38.5579711759
 51
95.1898354056
  0
LINE
  5
78
330
1F
100
AcDbEntity
  8
0
  6
Continuous
 62
     7
370
    15
100
AcDbLine
 10
248.5464205445
 20
82.1831373652
 30
0.0
 11
248.6650691175
 21
82.1980938308
 31
0.0
  0
ARC
  5
79
330
1F
100
AcDbEntity
  8
0
  6
Continuous
 62
     7
370
    15
100
AcDbCircle
 10
248.8170339628
 20
80.5233957559
 30
0.0
 40
1.681658060356866
100
AcDbArc
 50
99.2603349634
 51
154.8089082009
  0
LINE
  5
7A
330
1F
100
AcDbEntity
  8
0
  6
Continuous
 62
     7
370
    15
100
AcDbLine
 10
247.2482358605
 20
81.1290904918
 30
0.0
 11
247.295312951
 21
81.2391743488
 31
0.0
  0
ARC
  5
7B
330
1F
100
AcDbEntity
  8
0
  6
Continuous
 62
     7
370
    15
100
AcDbCircle
 10
248.8038041836
 20
80.5265040458
 30
0.0
 40
1.668203594505976
100
AcDbArc
 50
158.8249364293
 51
215.3320753462
  0
LINE
  5
7C
330
1F
100
AcDbEntity
  8
0
  6
Continuous
 62
     7
370
    15
100
AcDbLine
 10
247.4935720069
 20
79.4940927343
 30
0.0
 11
247.4428603935
 21
79.5617578445
 31
0.0
  0
SPLINE
  5
7D
330
1F
100
AcDbEntity
  8
0
  6
Continuous
 62
     7
370
    15
100
AcDbSpline
210
0.0
220
0.0
230
1.0
 70
     8
 71
     3
 72
    11
 73
     7
 74
     0
 42
0.00000001
 43
0.00000001
 40
0.0
 40
0.0
 40
0.0
 40
0.0
 40
0.2669010467950117
 40
0.5546143410792309
 40
0.8439070439786103
 40
0.9999999999999999
 40
0.9999999999999999
 40
0.9999999999999999
 40
0.9999999999999999
 10
248.5464205445323
 20
82.18313736521363
 30
0.0
 10
248.5141642133567
 20
82.16981903496261
 30
0.0
 10
248.4471362864324
 20
82.14214384580492
 30
0.0
 10
248.3685701676127
 20
82.06273502338357
 30
0.0
 10
248.3240080167541
 20
81.97788348685317
 30
0.0
 10
248.3140232343247
 20
81.92214963511283
 30
0.0
 10
248.3105238980228
 20
81.9026167617606
 30
0.0
  0
SPLINE
  5
7E
330
1F
100
AcDbEntity
  8
0
  6
Continuous
 62
     7
370
    15
100
AcDbSpline
210
0.0
220
0.0
230
1.0
 70
     8
 71
     3
 72
    12
 73
     8
 74
     0
 42
0.00000001
 43
0.00000001
 40
0.0
 40
0.0
 40
0.0
 40
0.0
 40
0.2058401281337994
 40
0.4120619935509831
 40
0.6141387330969494
 40
0.813277211352461
 40
1.0
 40
1.0
 40
1.0
 40
1.0
 10
248.3105238980228
 20
81.9026167617606
 30
0.0
 10
248.2963293624325
 20
81.83923057393535
 30
0.0
 10
248.267913967019
 20
81.71234064651611
 30
0.0
 10
248.1485838806066
 20
81.55041756213556
 30
0.0
 10
247.989447833109
 20
81.43553321207497
 30
0.0
 10
247.8078329354263
 20
81.37561271026928
 30
0.0
 10
247.6871715838026
 20
81.38412307028719
 30
0.0
 10
247.6287821418201
 20
81.38824133322584
 30
0.0
  0
SPLINE
  5
7F
330
1F
100
AcDbEntity
  8
0
  6
Continuous
 62
     7
370
    15
100
AcDbSpline
210
0.0
220
0.0
230
1.0
 70
     8
 71
     3
 72
    11
 73
     7
 74
     0
 42
0.00000001
 43
0.00000001
 40
0.0
 40
0.0
 40
0.0
 40
0.0
 40
0.2928993220619799
 40
0.586434471907949
 40
0.8775178868033017
 40
0.9999999999999999
 40
0.9999999999999999
 40
0.9999999999999999
 40
0.9999999999999999
 10
247.6287821418201
 20
81.38824133322584
 30
0.0
 10
247.5914726438408
 20
81.39050067364172
 30
0.0
 10
247.5167726561774
 20
81.39502425906461
 30
0.0
 10
247.4089726358152
 20
81.35359285162785
 30
0.0
 10
247.3359041828855
 20
81.29568053237217
 30
0.0
 10
247.3045876860447
 20
81.25208550864724
 30
0.0
 10
247.2953129509654
 20
81.23917434882372
 30
0.0
  0
SPLINE
  5
80
330
1F
100
AcDbEntity
  8
0
  6
Continuous
 62
     7
370
    15
100
AcDbSpline
210
0.0
220
0.0
230
1.0
 70
     8
 71
     3
 72
    11
 73
     7
 74
     0
 42
0.00000001
 43
0.00000001
 40
0.0
 40
0.0
 40
0.0
 40
0.0
 40
0.2657596322624881
 40
0.5530029385954799
 40
0.8418208483438115
 40
1.0
 40
1.0
 40
1.0
 40
1.0
 10
247.2482358604511
 20
81.12909049177115
 30
0.0
 10
247.243480072154
 20
81.09478024582309
 30
0.0
 10
247.2335840436215
 20
81.0233861568424
 30
0.0
 10
247.2626861906564
 20
80.91695781519415
 30
0.0
 10
247.3139524392022
 20
80.83704432957123
 30
0.0
 10
247.3576145958329
 20
80.8013860869066
 30
0.0
 10
247.3730653526536
 20
80.78876768052041
 30
0.0
  0
SPLINE
  5
81
330
1F
100
AcDbEntity
  8
0
  6
Continuous
 62
     7
370
    15
100
AcDbSpline
210
0.0
220
0.0
230
1.0
 70
     8
 71
     3
 72
    12
 73
     8
 74
     0
 42
0.00000001
 43
0.00000001
 40
0.0
 40
0.0
 40
0.0
 40
0.0
 40
0.2057904614204305
 40
0.412034420336051
 40
0.6141302471427843
 40
0.813263324211301
 40
1.0
 40
1.0
 40
1.0
 40
1.0
 10
247.3730653526536
 20
80.78876768052041
 30
0.0
 10
247.4210401379833
 20
80.74599499218988
 30
0.0
 10
247.5170954299909
 20
80.66035535796759
 30
0.0
 10
247.5975656116634
 20
80.4782490235955
 30
0.0
 10
247.6167945490183
 20
80.2833544563752
 30
0.0
 10
247.5766862018806
 20
80.0947657680455
 30
0.0
 10
247.5080006406315
 20
79.99272837574067
 30
0.0
 10
247.4747611516916
 20
79.94334869955705
 30
0.0
  0
SPLINE
  5
82
330
1F
100
AcDbEntity
  8
0
  6
Continuous
 62
     7
370
    15
100
AcDbSpline
210
0.0
220
0.0
230
1.0
 70
     8
 71
     3
 72
    11
 73
     7
 74
     0
 42
0.00000001
 43
0.00000001
 40
0.0
 40
0.0
 40
0.0
 40
0.0
 40
0.2802371411013079
 40
0.5612869875923963
 40
0.8399906057824369
 40
0.9999999999999999
 40
0.9999999999999999
 40
0.9999999999999999
 40
0.9999999999999999
 10
247.4747611516916
 20
79.94334869955705
 30
0.0
 10
247.4538550289258
 20
79.9116348575075
 30
0.0
 10
247.4119821543192
 20
79.84811520126556
 30
0.0
 10
247.3932222051953
 20
79.7331096210265
 30
0.0
 10
247.4069768588387
 20
79.63450744723346
 30
0.0
 10
247.4332704690484
 20
79.58120027677742
 30
0.0
 10
247.4428603934921
 20
79.56175784445632
 30
0.0
  0
SPLINE
  5
83
330
1F
100
AcDbEntity
  8
0
  6
Continuous
 62
     7
370
    15
100
AcDbSpline
210
0.0
220
0.0
230
1.0
 70
     8
 71
     3
 72
    11
 73
     7
 74
     0
 42
0.00000001
 43
0.00000001
 40
0.0
 40
0.0
 40
0.0
 40
0.0
 40
0.2908641666076264
 40
0.5839560789891933
 40
0.8745988053617803
 40
1.0
 40
1.0
 40
1.0
 40
1.0
 10
248.9564571266972
 20
81.98343973178024
 30
0.0
 10
248.9405663719155
 20
82.01686315194156
 30
0.0
 10
248.9086631541257
 20
82.08396598420671
 30
0.0
 10
248.820821259286
 20
82.1567828083642
 30
0.0
 10
248.7347401002833
 20
82.19135368024835
 30
0.0
 10
248.6812052395467
 20
82.19653278075475
 30
0.0
 10
248.6650691174881
 20
82.19809383082149
 30
0.0
  0
SPLINE
  5
84
330
1F
100
AcDbEntity
  8
0
  6
Continuous
 62
     7
370
    15
100
AcDbSpline
210
0.0
220
0.0
230
1.0
 70
     8
 71
     3
 72
    11
 73
     7
 74
     0
 42
0.00000001
 43
0.00000001
 40
0.0
 40
0.0
 40
0.0
 40
0.0
 40
0.2431090893443351
 40
0.518279365562271
 40
0.7947794085752118
 40
1.0
 40
1.0
 40
1.0
 40
1.0
 10
250.1158234969436
 20
81.57851349905158
 30
0.0
 10
250.0907202278382
 20
81.60008006117663
 30
0.0
 10
250.0372030746107
 20
81.64605738010648
 30
0.0
 10
249.9324278204292
 20
81.68032210230673
 30
0.0
 10
249.8278039839525
 20
81.68257919505753
 30
0.0
 10
249.7661571892267
 20
81.66141321909382
 30
0.0
 10
249.739894681938
 20
81.65239617935163
 30
0.0
  0
SPLINE
  5
85
330
1F
100
AcDbEntity
  8
0
  6
Continuous
 62
     7
370
    15
100
AcDbSpline
210
0.0
220
0.0
230
1.0
 70
     8
 71
     3
 72
    12
 73
     8
 74
     0
 42
0.00000001
 43
0.00000001
 40
0.0
 40
0.0
 40
0.0
 40
0.0
 40
0.2058179564998981
 40
0.4120215045907459
 40
0.6140779969167932
 40
0.8132130006453717
 40
1.0
 40
1.0
 40
1.0
 40
1.0
 10
249.739894681938
 20
81.65239617935161
 30
0.0
 10
249.6770379949109
 20
81.63247616587113
 30
0.0
 10
249.551206861404
 20
81.59259881957307
 30
0.0
 10
249.3503370535601
 20
81.61387892407066
 30
0.0
 10
249.1720711735415
 20
81.69377921494025
 30
0.0
 10
249.0317054903757
 20
81.82127093758987
 30
0.0
 10
248.9809991122396
 20
81.93054895771024
 30
0.0
 10
248.9564571266972
 20
81.9834397317802
 30
0.0
  0
ARC
  5
86
330
1F
100
AcDbEntity
  8
0
  6
Continuous
 62
     7
370
    15
100
AcDbCircle
 10
248.7224698551
 20
80.5881564308
 30
0.0
 40
2.603997170495071
100
AcDbArc
 50
186.7830092632
 51
225.0564021544
  0
ARC
  5
87
330
1F
100
AcDbEntity
  8
0
  6
Continuous
 62
     7
370
    15
100
AcDbCircle
 10
248.7443980102
 20
80.5939309839
 30
0.0
 40
2.626455752724626
100
AcDbArc
 50
45.3329207084
 51
186.8515998213
  0
ARC
  5
88
330
1F
100
AcDbEntity
  8
0
  6
Continuous
 62
     7
370
    15
100
AcDbCircle
 10
249.4069366632
 20
82.278069699
 30
0.0
 40
0.5809330794827199
100
AcDbArc
 50
200.1243080024
 51
225.0674378364
  0
ARC
  5
89
330
1F
100
AcDbEntity
  8
0
  6
Continuous
 62
     7
370
    15
100
AcDbCircle
 10
247.6346987284
 20
79.8242872735
 30
0.0
 40
0.3335469297195356
100
AcDbArc
 50
234.8788749144
 51
293.9352994977
  0
SPLINE
  5
8A
330
1F
100
AcDbEntity
  8
0
  6
Continuous
 62
     7
370
    15
100
AcDbSpline
210
0.0
220
0.0
230
1.0
 70
     8
 71
     3
 72
    11
 73
     7
 74
     0
 42
0.00000001
 43
0.00000001
 40
0.0
 40
0.0
 40
0.0
 40
0.0
 40
0.2423611237745047
 40
0.5166847928458405
 40
0.7923341374633305
 40
0.9999999999999999
 40
0.9999999999999999
 40
0.9999999999999999
 40
0.9999999999999999
 10
247.4935720069286
 20
79.49409273428435
 30
0.0
 10
247.5184565267384
 20
79.47257042227729
 30
0.0
 10
247.5715073327536
 20
79.42668743928178
 30
0.0
 10
247.6748868738357
 20
79.3932999018275
 30
0.0
 10
247.7782208714029
 20
79.39234801366732
 30
0.0
 10
247.8389039121129
 20
79.41497563514777
 30
0.0
 10
247.8649775712982
 20
79.42469803672408
 30
0.0
  0
SPLINE
  5
8B
330
1F
100
AcDbEntity
  8
0
  6
Continuous
 62
     7
370
    15
100
AcDbSpline
210
0.0
220
0.0
230
1.0
 70
     8
 71
     3
 72
    12
 73
     8
 74
     0
 42
0.00000001
 43
0.00000001
 40
0.0
 40
0.0
 40
0.0
 40
0.0
 40
0.2058585741213945
 40
0.4121026961457018
 40
0.6141937841967359
 40
0.8133180967416246
 40
1.0
 40
1.0
 40
1.0
 40
1.0
 10
247.8649775712982
 20
79.42469803672408
 30
0.0
 10
247.9264817568769
 20
79.44597924129582
 30
0.0
 10
248.0496053178431
 20
79.48858150752963
 30
0.0
 10
248.248312379594
 20
79.46946875092056
 30
0.0
 10
248.426752270282
 20
79.3893748116544
 30
0.0
 10
248.5693972166831
 20
79.25956352856937
 30
0.0
 10
248.6226482622201
 20
79.14775556514267
 30
0.0
 10
248.6484151009182
 20
79.09365450985383
 30
0.0
  0
SPLINE
  5
8C
330
1F
100
AcDbEntity
  8
0
  6
Continuous
 62
     7
370
    15
100
AcDbSpline
210
0.0
220
0.0
230
1.0
 70
     8
 71
     3
 72
    11
 73
     7
 74
     0
 42
0.00000001
 43
0.00000001
 40
0.0
 40
0.0
 40
0.0
 40
0.0
 40
0.2524782265335806
 40
0.5068902417933455
 40
0.7591786113117193
 40
1.0
 40
1.0
 40
1.0
 40
1.0
 10
248.6484151009182
 20
79.09365450985383
 30
0.0
 10
248.6651008232902
 20
79.05942850367018
 30
0.0
 10
248.6986000678142
 20
78.99071434646049
 30
0.0
 10
248.7881175920139
 20
78.91637478454562
 30
0.0
 10
248.893951510991
 20
78.8725179552773
 30
0.0
 10
248.9682581680166
 20
78.87464282586055
 30
0.0
 10
249.0045475174684
 20
78.87568055483693
 30
0.0
  0
ARC
  5
8D
330
1F
100
AcDbEntity
  8
0
  6
Continuous
 62
     7
370
    15
100
AcDbCircle
 10
249.7786131573
 20
81.4428832373
 30
0.0
 40
0.334343430868544
100
AcDbArc
 50
320.111770925
 51
34.8319014748
  0
SPLINE
  5
8E
330
1F
100
AcDbEntity
  8
0
  6
Continuous
 62
     7
370
    15
100
AcDbSpline
210
0.0
220
0.0
230
1.0
 70
     8
 71
     3
 72
    11
 73
     7
 74
     0
 42
0.00000001
 43
0.00000001
 40
0.0
 40
0.0
 40
0.0
 40
0.0
 40
0.279406906455586
 40
0.5596240257156053
 40
0.8375007392219512
 40
0.9999999999999999
 40
0.9999999999999999
 40
0.9999999999999999
 40
0.9999999999999999
 10
250.1301111015445
 20
81.13374551651867
 30
0.0
 10
250.1518150059521
 20
81.1646680577373
 30
0.0
 10
250.1952857508681
 20
81.22660280810425
 30
0.0
 10
250.2157718190683
 20
81.33988627652975
 30
0.0
 10
250.2029363839667
 20
81.43794436584906
 30
0.0
 10
250.176531179792
 20
81.49133697663203
 30
0.0
 10
250.1667876278962
 20
81.51103891381725
 30
0.0
  0
SPLINE
  5
8F
330
1F
100
AcDbEntity
  8
0
  6
Continuous
 62
     7
370
    15
100
AcDbSpline
210
0.0
220
0.0
230
1.0
 70
     8
 71
     3
 72
    12
 73
     8
 74
     0
 42
0.00000001
 43
0.00000001
 40
0.0
 40
0.0
 40
0.0
 40
0.0
 40
0.0091735205189979
 40
0.257677521552513
 40
0.5061895192299355
 40
0.7560357430219012
 40
0.9999999999999999
 40
0.9999999999999999
 40
0.9999999999999999
 40
0.9999999999999999
 10
250.3436831100095
 20
79.88606086088737
 30
0.0
 10
250.344214596476
 20
79.88732427905207
 30
0.0
 10
250.3591436648913
 20
79.92281277670016
 30
0.0
 10
250.3761231553241
 20
79.99842180449305
 30
0.0
 10
250.3627207570652
 20
80.11089494126743
 30
0.0
 10
250.3148196852385
 20
80.21444605069382
 30
0.0
 10
250.2592572030127
 20
80.26389606369007
 30
0.0
 10
250.2318068749619
 20
80.28832656111364
 30
0.0
  0
SPLINE
  5
90
330
1F
100
AcDbEntity
  8
0
  6
Continuous
 62
     7
370
    15
100
AcDbSpline
210
0.0
220
0.0
230
1.0
 70
     8
 71
     3
 72
    12
 73
     8
 74
     0
 42
0.00000001
 43
0.00000001
 40
0.0
 40
0.0
 40
0.0
 40
0.0
 40
0.2057532787804217
 40
0.4119604088044742
 40
0.6140154573249085
 40
0.8131414684041044
 40
0.9999999999999999
 40
0.9999999999999999
 40
0.9999999999999999
 40
0.9999999999999999
 10
250.2318068749619
 20
80.28832656111364
 30
0.0
 10
250.1824764672793
 20
80.33245091613088
 30
0.0
 10
250.0837068387423
 20
80.42079695580948
 30
0.0
 10
250.0010447625299
 20
80.6050570478892
 30
0.0
 10
249.9819570859492
 20
80.7997601561183
 30
0.0
 10
250.0243492466325
 20
80.98606236426751
 30
0.0
 10
250.0956121160538
 20
81.08557201454131
 30
0.0
 10
250.1301111015445
 20
81.13374551651866
 30
0.0
  0
ARC
  5
91
330
1F
100
AcDbEntity
  8
0
  6
Continuous
 62
     7
370
    15
100
AcDbCircle
 10
248.0067664846
 20
78.9861357291
 30
0.0
 40
0.5834767488663206
100
AcDbArc
 50
45.1444682001
 51
113.9381864639
  0
ARC
  5
92
330
1F
100
AcDbEntity
  8
0
  6
Continuous
 62
     7
370
    15
100
AcDbCircle
 10
250.4832749442
 20
80.8534008767
 30
0.0
 40
0.5843718598348127
100
AcDbArc
 50
140.0711772785
 51
224.959788438
  0
SPLINE
  5
93
330
1F
100
AcDbEntity
  8
0
  6
Continuous
 62
     7
370
    15
100
AcDbSpline
210
0.0
220
0.0
230
1.0
 70
     8
 71
     3
 72
    12
 73
     8
 74
     0
 42
0.00000001
 43
0.00000001
 40
0.0
 40
0.0
 40
0.0
 40
0.0
 40
0.0091681771491491
 40
0.2573268097002475
 40
0.5054934687429739
 40
0.7549925359452923
 40
1.0
 40
1.0
 40
1.0
 40
1.0
 10
249.0045475174684
 20
78.87568055483693
 30
0.0
 10
249.0059065049601
 20
78.87585490389601
 30
0.0
 10
249.0440497377909
 20
78.8807484270493
 30
0.0
 10
249.1178054700155
 20
78.90398068885284
 30
0.0
 10
249.2079228965399
 20
78.97192386920695
 30
0.0
 10
249.2729694721392
 20
79.06535477918233
 30
0.0
 10
249.2872653135245
 20
79.13832418663186
 30
0.0
 10
249.2943483096487
 20
79.17447749976877
 30
0.0
  0
SPLINE
  5
94
330
1F
100
AcDbEntity
  8
0
  6
Continuous
 62
     7
370
    15
100
AcDbSpline
210
0.0
220
0.0
230
1.0
 70
     8
 71
     3
 72
    12
 73
     8
 74
     0
 42
0.00000001
 43
0.00000001
 40
0.0
 40
0.0
 40
0.0
 40
0.0
 40
0.2058435564095131
 40
0.412069162055319
 40
0.6141397217727167
 40
0.8132604579561374
 40
1.0
 40
1.0
 40
1.0
 40
1.0
 10
249.2943483096487
 20
79.17447749976877
 30
0.0
 10
249.3071806782425
 20
79.23922338135174
 30
0.0
 10
249.3328692325303
 20
79.36883531400485
 30
0.0
 10
249.450010203876
 20
79.53294349176089
 30
0.0
 10
249.6093056914004
 20
79.64766256785613
 30
0.0
 10
249.7932306708224
 20
79.7052757496111
 30
0.0
 10
249.916454909714
 20
79.69420883311082
 30
0.0
 10
249.9760900658514
 20
79.68885292830353
 30
0.0
  0
SPLINE
  5
95
330
1F
100
AcDbEntity
  8
0
  6
Continuous
 62
     7
370
    15
100
AcDbSpline
210
0.0
220
0.0
230
1.0
 70
     8
 71
     3
 72
    11
 73
     7
 74
     0
 42
0.00000001
 43
0.00000001
 40
0.0
 40
0.0
 40
0.0
 40
0.0
 40
0.2535086227484027
 40
0.5075674742604821
 40
0.7595056251924714
 40
0.9999999999999999
 40
0.9999999999999999
 40
0.9999999999999999
 40
0.9999999999999999
 10
249.9760900658514
 20
79.68885292830353
 30
0.0
 10
250.0142113254479
 20
79.68579491911942
 30
0.0
 10
250.090536585075
 20
79.67967226348338
 30
0.0
 10
250.1998634403357
 20
79.7194379782872
 30
0.0
 10
250.2908737751315
 20
79.78875121326413
 30
0.0
 10
250.3263548498979
 20
79.85413076956391
 30
0.0
 10
250.3436831100095
 20
79.88606086088737
 30
0.0
  0
ARC
  5
96
330
1F
100
AcDbEntity
  8
0
  6
Continuous
 62
     7
370
    15
100
AcDbCircle
 10
248.8661937477
 20
79.3057955497
 30
0.0
 40
0.3352254117470075
100
AcDbArc
 50
238.0723610404
 51
353.7294315754
  0
ARC
  5
97
330
1F
100
AcDbEntity
  8
0
  6
Continuous
 62
     7
370
    15
100
AcDbCircle
 10
249.937102242
 20
80.1143779812
 30
0.0
 40
0.3355189537945189
100
AcDbArc
 50
260.4012400452
 51
30.5343213573
  0
ARC
  5
98
330
1F
100
AcDbEntity
  8
0
  6
Continuous
 62
     7
370
    15
100
AcDbCircle
 10
249.783735365
 20
79.2037042652
 30
0.0
 40
0.5879788775122341
100
AcDbArc
 50
80.4629028849
 51
173.6063402793
  0
SPLINE
  5
99
330
1F
100
AcDbEntity
  8
0
  6
Continuous
 62
     7
370
    15
100
AcDbSpline
210
0.0
220
0.0
230
1.0
 70
     8
 71
     3
 72
    10
 73
     6
 74
     0
 42
0.00000001
 43
0.00000001
 40
0.0
 40
0.0
 40
0.0
 40
0.0
 40
0.272481657628022
 40
0.5447570452796816
 40
0.9999999999999999
 40
0.9999999999999999
 40
0.9999999999999999
 40
0.9999999999999999
 10
252.4688256526523
 20
83.88127371132217
 30
0.0
 10
252.4577245177203
 20
83.90016012018329
 30
0.0
 10
252.4355306514709
 20
83.93791864079964
 30
0.0
 10
252.3815079307032
 20
83.99842138235228
 30
0.0
 10
252.3316185351453
 20
84.02945699058616
 30
0.0
 10
252.3004003588875
 20
84.04887745213475
 30
0.0
  0
LINE
  5
9A
330
1F
100
AcDbEntity
  8
0
  6
Continuous
 62
     7
370
    15
100
AcDbLine
 10
259.489707828
 20
70.4285313318
 30
0.0
 11
252.4688256527
 21
83.8812737113
 31
0.0
  0
SPLINE
  5
9B
330
1F
100
AcDbEntity
  8
0
  6
Continuous
 62
     7
370
    15
100
AcDbSpline
210
0.0
220
0.0
230
1.0
 70
     8
 71
     3
 72
    15
 73
    11
 74
     0
 42
0.00000001
 43
0.00000001
 40
0.0
 40
0.0
 40
0.0
 40
0.0
 40
0.1411619226999007
 40
0.281834264820256
 40
0.4169666844434385
 40
0.5461338408377933
 40
0.6723563608105401
 40
0.7999811958597312
 40
0.932388720782117
 40
1.0
 40
1.0
 40
1.0
 40
1.0
 10
258.964076834405
 20
69.90033639018914
 30
0.0
 10
259.0078383654873
 20
69.88291313205161
 30
0.0
 10
259.0952096530417
 20
69.84812704346596
 30
0.0
 10
259.2372988367713
 20
69.85547053476068
 30
0.0
 10
259.3639259677454
 20
69.906809043433
 30
0.0
 10
259.4616974352189
 20
69.99602498823491
 30
0.0
 10
259.5228135402775
 20
70.11019542150146
 30
0.0
 10
259.543465051716
 20
70.23850507710765
 30
0.0
 10
259.5268585513675
 20
70.34811456273174
 30
0.0
 10
259.4990932001371
 20
70.40821567607769
 30
0.0
 10
259.4897078279832
 20
70.42853133176419
 30
0.0
  0
LINE
  5
9C
330
1F
100
AcDbEntity
  8
0
  6
Continuous
 62
     7
370
    15
100
AcDbLine
 10
245.47708766
 20
76.8554310848
 30
0.0
 11
258.9640768344
 21
69.9003363902
 31
0.0
  0
SPLINE
  5
9D
330
1F
100
AcDbEntity
  8
0
  6
Continuous
 62
     7
370
    15
100
AcDbSpline
210
0.0
220
0.0
230
1.0
 70
     8
 71
     3
 72
    10
 73
     6
 74
     0
 42
0.00000001
 43
0.00000001
 40
0.0
 40
0.0
 40
0.0
 40
0.0
 40
0.2724816576280356
 40
0.5447570452796874
 40
1.0
 40
1.0
 40
1.0
 40
1.0
 10
245.3086623662593
 20
77.0230348255717
 30
0.0
 10
245.3197635011913
 20
77.00414841671058
 30
0.0
 10
245.3419573674407
 20
76.96638989609421
 30
0.0
 10
245.3959800882083
 20
76.9058871545416
 30
0.0
 10
245.4458694837662
 20
76.87485154630771
 30
0.0
 10
245.4770876600241
 20
76.85543108475912
 30
0.0
  0
LINE
  5
9E
330
1F
100
AcDbEntity
  8
0
  6
Continuous
 62
     7
370
    15
100
AcDbLine
 10
238.2877801909
 20
90.4757772051
 30
0.0
 11
245.3086623663
 21
77.0230348256
 31
0.0
  0
LINE
  5
9F
330
1F
100
AcDbEntity
  8
0
  6
Continuous
 62
     7
370
    15
100
AcDbLine
 10
252.3004003589
 20
84.0488774521
 30
0.0
 11
238.8134111845
 21
91.0039721467
 31
0.0
  0
LINE
  5
A0
330
1F
100
AcDbEntity
  8
0
  6
Continuous
 62
     7
370
    15
100
AcDbLine
 10
245.4871322123
 20
76.8727439316
 30
0.0
 11
258.9470946554
 21
69.9315866306
 31
0.0
  0
ARC
  5
A1
330
1F
100
AcDbEntity
  8
0
  6
Continuous
 62
     7
370
    15
100
AcDbCircle
 10
259.1205932447
 20
70.2702163817
 30
0.0
 40
0.3804889864577818
100
AcDbArc
 50
242.8714480677
 51
27.4073515032
  0
LINE
  5
A2
330
1F
100
AcDbEntity
  8
0
  6
Continuous
 62
     7
370
    15
100
AcDbLine
 10
259.4583747511
 20
70.4453606728
 30
0.0
 11
252.4515618013
 21
83.8711449485
 31
0.0
  0
ARC
  5
A3
330
1F
100
AcDbEntity
  8
0
  6
Continuous
 62
     7
370
    15
100
AcDbCircle
 10
252.1178537148
 20
83.6970090284
 30
0.0
 40
0.3764098905410356
100
AcDbArc
 50
27.5565029614
 51
62.7236597289
  0
LINE
  5
A4
330
1F
100
AcDbEntity
  8
0
  6
Continuous
 62
     7
370
    15
100
AcDbLine
 10
252.2903558066
 20
84.0315646053
 30
0.0
 11
238.8303933636
 21
90.9727219063
 31
0.0
  0
ARC
  5
A5
330
1F
100
AcDbEntity
  8
0
  6
Continuous
 62
     7
370
    15
100
AcDbCircle
 10
238.6568947743
 20
90.6340921552
 30
0.0
 40
0.3804889864577686
100
AcDbArc
 50
62.8714480677
 51
207.4073515032
  0
LINE
  5
A6
330
1F
100
AcDbEntity
  8
0
  6
Continuous
 62
     7
370
    15
100
AcDbLine
 10
238.3191132678
 20
90.458947864
 30
0.0
 11
245.3259262173
 21
77.0331635883
 31
0.0
  0
ARC
  5
A7
330
1F
100
AcDbEntity
  8
0
  6
Continuous
 62
     7
370
    15
100
AcDbCircle
 10
245.6596343011
 20
77.2072995061
 30
0.0
 40
0.3764098870635987
100
AcDbArc
 50
207.5565028562
 51
242.723659976
  0
SPLINE
  5
A8
330
1F
100
AcDbEntity
  8
0
  6
Continuous
 62
     7
370
    15
100
AcDbSpline
210
0.0
220
0.0
230
1.0
 70
     8
 71
     3
 72
    15
 73
    11
 74
     0
 42
0.00000001
 43
0.00000001
 40
0.0
 40
0.0
 40
0.0
 40
0.0
 40
0.1411619226998997
 40
0.2818342648202403
 40
0.416966684443441
 40
0.5461338408377872
 40
0.672356360810535
 40
0.7999811958597289
 40
0.9323887207821203
 40
1.0
 40
1.0
 40
1.0
 40
1.0
 10
238.8134111845065
 20
91.00397214670473
 30
0.0
 10
238.7696496534244
 20
91.02139540484222
 30
0.0
 10
238.6822783658699
 20
91.05618149342781
 30
0.0
 10
238.54018918214
 20
91.04883800213345
 30
0.0
 10
238.4135620511671
 20
90.99749949346
 30
0.0
 10
238.3157905836929
 20
90.90828354865872
 30
0.0
 10
238.254674478634
 20
90.79411311539248
 30
0.0
 10
238.2340229671956
 20
90.6658034597862
 30
0.0
 10
238.2506294675441
 20
90.55619397416213
 30
0.0
 10
238.2783948187745
 20
90.49609286081616
 30
0.0
 10
238.2877801909284
 20
90.47577720512967
 30
0.0
  0
LINE
  5
A9
330
1F
100
AcDbEntity
  8
0
  6
Continuous
 62
     7
370
    15
100
AcDbLine
 10
238.640052224
 20
90.650891866
 30
0.0
 11
238.3191132678
 21
90.458947864
 31
0.0
  0
LINE
  5
AA
330
1F
100
AcDbEntity
  8
0
  6
Continuous
 62
     7
370
    15
100
AcDbLine
 10
238.640052224
 20
90.650891866
 30
0.0
 11
238.8303933636
 21
90.9727219063
 31
0.0
  0
LINE
  5
AB
330
1F
100
AcDbEntity
  8
0
  6
Continuous
 62
     7
370
    15
100
AcDbLine
 10
245.6468651735
 20
77.2251075903
 30
0.0
 11
245.3259262173
 21
77.0331635883
 31
0.0
  0
LINE
  5
AC
330
1F
100
AcDbEntity
  8
0
  6
Continuous
 62
     7
370
    15
100
AcDbLine
 10
240.9585449713
 20
88.3438072731
 30
0.0
 11
238.640052224
 21
90.650891866
 31
0.0
  0
LINE
  5
AD
330
1F
100
AcDbEntity
  8
0
  6
Continuous
 62
     7
370
    15
100
AcDbLine
 10
240.9585449713
 20
88.3438072731
 30
0.0
 11
241.5370688069
 21
87.2352952761
 31
0.0
  0
LINE
  5
AE
330
1F
100
AcDbEntity
  8
0
  6
Continuous
 62
     7
370
    15
100
AcDbLine
 10
245.7379860193
 20
77.3271807122
 30
0.0
 11
245.6468651735
 21
77.2251075903
 31
0.0
  0
LINE
  5
AF
330
1F
100
AcDbEntity
  8
0
  6
Continuous
 62
     7
370
    15
100
AcDbLine
 10
252.1000146671
 20
83.709734565
 30
0.0
 11
252.2903558066
 21
84.0315646053
 31
0.0
  0
LINE
  5
B0
330
1F
100
AcDbEntity
  8
0
  6
Continuous
 62
     7
370
    15
100
AcDbLine
 10
251.9983988325
 20
83.6181308664
 30
0.0
 11
252.1000146671
 21
83.709734565
 31
0.0
  0
LINE
  5
B1
330
1F
100
AcDbEntity
  8
0
  6
Continuous
 62
     7
370
    15
100
AcDbLine
 10
242.0698789195
 20
87.7707043554
 30
0.0
 11
240.9585449713
 21
88.3438072731
 31
0.0
  0
SPLINE
  5
B2
330
1F
100
AcDbEntity
  8
0
  6
Continuous
 62
     7
370
    15
100
AcDbSpline
210
0.0
220
0.0
230
1.0
 70
     8
 71
     3
 72
    14
 73
    10
 74
     0
 42
0.00000001
 43
0.00000001
 40
0.0
 40
0.0
 40
0.0
 40
0.0
 40
0.2055181916619003
 40
0.3570166013207996
 40
0.4668471835761941
 40
0.5770815399050581
 40
0.7093665789830471
 40
0.9240585340231972
 40
1.0
 40
1.0
 40
1.0
 40
1.0
 10
242.1515539404391
 20
87.2105930583204
 30
0.0
 10
242.1851000698097
 20
87.24589077308606
 30
0.0
 10
242.2433748385712
 20
87.30720831416659
 30
0.0
 10
242.2942842079607
 20
87.40716355252191
 30
0.0
 10
242.3068227903132
 20
87.49543869387495
 30
0.0
 10
242.2874180123141
 20
87.5780177168598
 30
0.0
 10
242.2260029932637
 20
87.6683983071595
 30
0.0
 10
242.1455915193931
 20
87.7297398578073
 30
0.0
 10
242.0855639159902
 20
87.76221794753502
 30
0.0
 10
242.0698789194556
 20
87.77070435538661
 30
0.0
  0
SPLINE
  5
B3
330
1F
100
AcDbEntity
  8
0
  6
Continuous
 62
     7
370
    15
100
AcDbSpline
210
0.0
220
0.0
230
1.0
 70
     8
 71
     3
 72
    14
 73
    10
 74
     0
 42
0.00000001
 43
0.00000001
 40
0.0
 40
0.0
 40
0.0
 40
0.0
 40
0.2086064885490933
 40
0.3652036095092326
 40
0.4768526932686603
 40
0.5890212938927228
 40
0.718567008374346
 40
0.9352579530973333
 40
1.0
 40
1.0
 40
1.0
 40
1.0
 10
241.5370688068522
 20
87.23529527613603
 30
0.0
 10
241.5618422555048
 20
87.19275660094384
 30
0.0
 10
241.6052126843483
 20
87.11828491105547
 30
0.0
 10
241.6896079980673
 20
87.04143373464197
 30
0.0
 10
241.7729708865289
 20
87.00498395760434
 30
0.0
 10
241.8581684362143
 20
87.00180431461857
 30
0.0
 10
241.9620421061696
 20
87.0380114242337
 30
0.0
 10
242.0400384366897
 20
87.09843445573854
 30
0.0
 10
242.0868172941586
 20
87.14552209466214
 30
0.0
 10
242.0975785022416
 20
87.15635433614923
 30
0.0
  0
ARC
  5
B4
330
1F
100
AcDbEntity
  8
0
  6
Continuous
 62
     7
370
    15
100
AcDbCircle
 10
243.8669970292
 20
85.4494008129
 30
0.0
 40
1.001286806467786
100
AcDbArc
 50
62.8714480677
 51
207.4073515032
  0
ARC
  5
B5
330
1F
100
AcDbEntity
  8
0
  6
Continuous
 62
     7
370
    15
100
AcDbCircle
 10
243.823619011
 20
85.4926683986
 30
0.0
 40
2.397304055941618
100
AcDbArc
 50
134.2249532139
 51
136.0538463571
  0
LINE
  5
B6
330
1F
100
AcDbEntity
  8
0
  6
Continuous
 62
     7
370
    15
100
AcDbLine
 10
250.9339950801
 20
82.9316080651
 30
0.0
 11
244.3235722643
 21
86.3405317368
 31
0.0
  0
ARC
  5
B7
330
1F
100
AcDbEntity
  8
0
  6
Continuous
 62
     7
370
    15
100
AcDbCircle
 10
250.4800422148
 20
82.0511986586
 30
0.0
 40
0.9905523343768203
100
AcDbArc
 50
27.5565028562
 51
62.7236599761
  0
LINE
  5
B8
330
1F
100
AcDbEntity
  8
0
  6
Continuous
 62
     7
370
    15
100
AcDbLine
 10
254.7993896908
 20
75.9158137534
 30
0.0
 11
251.3582213827
 21
82.5094510739
 31
0.0
  0
ARC
  5
B9
330
1F
100
AcDbEntity
  8
0
  6
Continuous
 62
     7
370
    15
100
AcDbCircle
 10
253.9104909898
 20
75.4549077237
 30
0.0
 40
1.001286806532778
100
AcDbArc
 50
242.871448055
 51
27.4073515202
  0
LINE
  5
BA
330
1F
100
AcDbEntity
  8
0
  6
Continuous
 62
     7
370
    15
100
AcDbLine
 10
246.8434929388
 20
77.9727004717
 30
0.0
 11
253.4539157545
 21
74.5637767999
 31
0.0
  0
ARC
  5
BB
330
1F
100
AcDbEntity
  8
0
  6
Continuous
 62
     7
370
    15
100
AcDbCircle
 10
247.2974458042
 20
78.8531098783
 30
0.0
 40
0.9905523343764127
100
AcDbArc
 50
207.5565028562
 51
242.7236599761
  0
LINE
  5
BC
330
1F
100
AcDbEntity
  8
0
  6
Continuous
 62
     7
370
    15
100
AcDbLine
 10
242.9780983281
 20
84.9884947835
 30
0.0
 11
246.4192666362
 21
78.3948574629
 31
0.0
  0
CIRCLE
  5
BD
330
1F
100
AcDbEntity
  8
0
  6
Continuous
 62
     7
370
    15
100
AcDbCircle
 10
248.8789313312
 20
80.4475525445
 30
0.0
 40
3.040051795395875
  0
ARC
  5
BE
330
1F
100
AcDbEntity
  8
0
  6
Continuous
 62
     7
370
    15
100
AcDbCircle
 10
248.8088373526
 20
80.529984659
 30
0.0
 40
3.051360475357762
100
AcDbArc
 50
242.8025494623
 51
44.8228899028
  0
LWPOLYLINE
  5
BF
330
1F
100
AcDbEntity
  8
0
  6
Continuous
 62
     7
370
    15
100
AcDbPolyline
 90
        3
 70
   128
 43
0.0
 10
246.6650461067
 20
78.36233434
 10
246.8488735001
 20
78.1935197353
 10
247.4141875664
 20
77.8159926317
  0
LINE
  5
C0
330
1F
100
AcDbEntity
  8
0
  6
Continuous
 62
     7
370
    15
100
AcDbLine
 10
256.7073326897
 20
72.6718397445
 30
0.0
 11
259.1068276166
 21
70.2839502892
 31
0.0
  0
LINE
  5
C1
330
1F
100
AcDbEntity
  8
0
  6
Continuous
 62
     7
370
    15
100
AcDbLine
 10
259.1068276166
 20
70.2839502892
 30
0.0
 11
258.9470946554
 21
69.9315866306
 31
0.0
  0
LINE
  5
C2
330
1F
100
AcDbEntity
  8
0
  6
Continuous
 62
     7
370
    15
100
AcDbLine
 10
245.6468651735
 20
77.2251075903
 30
0.0
 11
245.4871322123
 21
76.8727439316
 31
0.0
  0
LINE
  5
C3
330
1F
100
AcDbEntity
  8
0
  6
Continuous
 62
     7
370
    15
100
AcDbLine
 10
255.5959987415
 20
73.2449426623
 30
0.0
 11
256.7073326897
 21
72.6718397445
 31
0.0
  0
LINE
  5
C4
330
1F
100
AcDbEntity
  8
0
  6
Continuous
 62
     7
370
    15
100
AcDbLine
 10
252.1000146671
 20
83.709734565
 30
0.0
 11
252.4515618013
 21
83.8711449485
 31
0.0
  0
LINE
  5
C5
330
1F
100
AcDbEntity
  8
0
  6
Continuous
 62
     7
370
    15
100
AcDbLine
 10
259.1068276166
 20
70.2839502892
 30
0.0
 11
259.4583747511
 21
70.4453606728
 31
0.0
  0
LINE
  5
C6
330
1F
100
AcDbEntity
  8
0
  6
Continuous
 62
     7
370
    15
100
AcDbLine
 10
256.7073326897
 20
72.6718397445
 30
0.0
 11
256.1288088541
 21
73.7803517415
 31
0.0
  0
SPLINE
  5
C7
330
1F
100
AcDbEntity
  8
0
  6
Continuous
 62
     7
370
    15
100
AcDbSpline
210
0.0
220
0.0
230
1.0
 70
     8
 71
     3
 72
    11
 73
     7
 74
     0
 42
0.00000001
 43
0.00000001
 40
0.0
 40
0.0
 40
0.0
 40
0.0
 40
0.3241878797140425
 40
0.6482205889189013
 40
0.9887961381647149
 40
1.0
 40
1.0
 40
1.0
 40
1.0
 10
245.737986019335
 20
77.32718071223204
 30
0.0
 10
245.7872448676923
 20
77.3810354011921
 30
0.0
 10
245.8857389869661
 20
77.48871900190082
 30
0.0
 10
246.0596293403902
 20
77.66276301899559
 30
0.0
 10
246.1745142931819
 20
77.77051736118528
 30
0.0
 10
246.2296347035104
 20
77.81999225889442
 30
0.0
 10
246.2313902396281
 20
77.82156799044887
 30
0.0
  0
SPLINE
  5
C8
330
1F
100
AcDbEntity
  8
0
  6
Continuous
 62
     7
370
    15
100
AcDbSpline
210
0.0
220
0.0
230
1.0
 70
     8
 71
     3
 72
    11
 73
     7
 74
     0
 42
0.00000001
 43
0.00000001
 40
0.0
 40
0.0
 40
0.0
 40
0.0
 40
0.3241878797140376
 40
0.6482205889188931
 40
0.9887961381644882
 40
0.9999999999999999
 40
0.9999999999999999
 40
0.9999999999999999
 40
0.9999999999999999
 10
251.9983988325453
 20
83.61813086644409
 30
0.0
 10
251.9447897321828
 20
83.56861583249398
 30
0.0
 10
251.8375971911196
 20
83.46960946465629
 30
0.0
 10
251.6644005378046
 20
83.29487343727119
 30
0.0
 10
251.5571972078724
 20
83.1794561842692
 30
0.0
 10
251.5079839669251
 20
83.12408850674653
 30
0.0
 10
251.5064165689062
 20
83.12232509538823
 30
0.0
  0
ARC
  5
C9
330
1F
100
AcDbEntity
  8
0
  6
Continuous
 62
     7
370
    15
100
AcDbCircle
 10
253.8422586499
 20
75.5229786192
 30
0.0
 40
2.397304056089336
100
AcDbArc
 50
314.2249532139
 51
316.053846357
  0
SPLINE
  5
CA
330
1F
100
AcDbEntity
  8
0
  6
Continuous
 62
     7
370
    15
100
AcDbSpline
210
0.0
220
0.0
230
1.0
 70
     8
 71
     3
 72
    14
 73
    10
 74
     0
 42
0.00000001
 43
0.00000001
 40
0.0
 40
0.0
 40
0.0
 40
0.0
 40
0.2055181916619002
 40
0.3570166013208036
 40
0.4668471835761921
 40
0.5770815399050512
 40
0.709366578983039
 40
0.9240585340231753
 40
1.0
 40
1.0
 40
1.0
 40
1.0
 10
255.5143237205056
 20
73.8050539593178
 30
0.0
 10
255.4807775911351
 20
73.76975624455214
 30
0.0
 10
255.4225028223736
 20
73.7084387034716
 30
0.0
 10
255.3715934529841
 20
73.60848346511628
 30
0.0
 10
255.3590548706316
 20
73.52020832376327
 30
0.0
 10
255.3784596486307
 20
73.43762930077841
 30
0.0
 10
255.439874667681
 20
73.34724871047871
 30
0.0
 10
255.5202861415518
 20
73.2859071598309
 30
0.0
 10
255.5803137449546
 20
73.25342907010318
 30
0.0
 10
255.5959987414892
 20
73.24494266225159
 30
0.0
  0
SPLINE
  5
CB
330
1F
100
AcDbEntity
  8
0
  6
Continuous
 62
     7
370
    15
100
AcDbSpline
210
0.0
220
0.0
230
1.0
 70
     8
 71
     3
 72
    14
 73
    10
 74
     0
 42
0.00000001
 43
0.00000001
 40
0.0
 40
0.0
 40
0.0
 40
0.0
 40
0.2086064885492727
 40
0.3652036095093074
 40
0.4768526932687221
 40
0.589021293892781
 40
0.7185670083743543
 40
0.9352579530972468
 40
0.9999999999999999
 40
0.9999999999999999
 40
0.9999999999999999
 40
0.9999999999999999
 10
256.1288088540925
 20
73.78035174150193
 30
0.0
 10
256.10403540544
 20
73.82289041669424
 30
0.0
 10
256.0606649765966
 20
73.89736210658269
 30
0.0
 10
255.9762696628776
 20
73.97421328299617
 30
0.0
 10
255.8929067744159
 20
74.01066306003385
 30
0.0
 10
255.8077092247306
 20
74.01384270301963
 30
0.0
 10
255.7038355547752
 20
73.9776355934045
 30
0.0
 10
255.6258392242551
 20
73.91721256189967
 30
0.0
 10
255.5790603667862
 20
73.87012492297606
 30
0.0
 10
255.5682991587032
 20
73.85929268148894
 30
0.0
  0
LINE
  5
CC
330
1F
100
AcDbEntity
  8
0
  6
Continuous
 62
     7
370
    15
100
AcDbLine
 10
194.4711573258
 20
134.7196531129
 30
0.0
 11
204.1292244943
 21
134.7196531129
 31
0.0
  0
LINE
  5
CD
330
1F
100
AcDbEntity
  8
0
  6
Continuous
 62
     7
370
    15
100
AcDbLine
 10
204.1292244943
 20
84.6827354166
 30
0.0
 11
204.1292244943
 21
134.7196531129
 31
0.0
  0
LINE
  5
CE
330
1F
100
AcDbEntity
  8
0
  6
Continuous
 62
     7
370
    15
100
AcDbLine
 10
204.1292244943
 20
84.6827354166
 30
0.0
 11
202.4711573258
 21
84.6827354166
 31
0.0
  0
SPLINE
  5
CF
330
1F
100
AcDbEntity
  8
0
  6
Continuous
 62
     7
370
    15
100
AcDbSpline
210
0.0
220
0.0
230
1.0
 70
     8
 71
     3
 72
    28
 73
    24
 74
     0
 42
0.00000001
 43
0.00000001
 40
0.0
 40
0.0
 40
0.0
 40
0.0
 40
0.1250000000000001
 40
0.1250000000000001
 40
0.1875000000000001
 40
0.1875000000000001
 40
0.2500000000000001
 40
0.2500000000000001
 40
0.3749999999999999
 40
0.3749999999999999
 40
0.4375
 40
0.4375
 40
0.4999999999999999
 40
0.4999999999999999
 40
0.6249999999999999
 40
0.6249999999999999
 40
0.7499999999999997
 40
0.7499999999999997
 40
0.8124999999999998
 40
0.8124999999999998
 40
0.8749999999999998
 40
0.8749999999999998
 40
1.0
 40
1.0
 40
1.0
 40
1.0
 10
202.4711573258375
 20
84.68273541663758
 30
0.0
 10
201.9394495683446
 20
84.6827354166376
 30
0.0
 10
201.4172110030343
 20
84.66695070268736
 30
0.0
 10
200.6473405167592
 20
84.62195528861116
 30
0.0
 10
200.3929809445679
 20
84.60340029353544
 30
0.0
 10
199.8888593638694
 20
84.55954757108894
 30
0.0
 10
199.6391365464415
 20
84.53420296413672
 30
0.0
 10
198.9135465949951
 20
84.45080088638662
 30
0.0
 10
198.4551863334135
 20
84.38493532723554
 30
0.0
 10
197.8046883900197
 20
84.27596498674374
 30
0.0
 10
197.5930063392272
 20
84.2377253509771
 30
0.0
 10
197.1889348500892
 20
84.15996661355774
 30
0.0
 10
196.9964283362683
 20
84.1204656513824
 30
0.0
 10
196.4465933652471
 20
84.0015579090164
 30
0.0
 10
196.1166645869382
 20
83.92174022759178
 30
0.0
 10
195.5321933183695
 20
83.76839706579572
 30
0.0
 10
195.2859161803561
 20
83.69706331252647
 30
0.0
 10
194.9860733876581
 20
83.60311980545185
 30
0.0
 10
194.8976165305859
 20
83.57392601209193
 30
0.0
 10
194.7442551772807
 20
83.5204594378285
 30
0.0
 10
194.6791669630545
 20
83.49610010355333
 30
0.0
 10
194.5235729471137
 20
83.4325099581086
 30
0.0
 10
194.4711573258375
 20
83.40240702301934
 30
0.0
 10
194.4711573258375
 20
83.38553013002242
 30
0.0
  0
LINE
  5
D0
330
1F
100
AcDbEntity
  8
0
  6
Continuous
 62
     7
370
    15
100
AcDbLine
 10
194.4711573258
 20
83.38553013
 30
0.0
 11
194.4711573258
 21
83.3696531129
 31
0.0
  0
SPLINE
  5
D1
330
1F
100
AcDbEntity
  8
0
  6
Continuous
 62
     7
370
    15
100
AcDbSpline
210
0.0
220
0.0
230
1.0
 70
     8
 71
     3
 72
    17
 73
    13
 74
     0
 42
0.00000001
 43
0.00000001
 40
0.0
 40
0.0
 40
0.0
 40
0.0
 40
0.1034796923964057
 40
0.2100239188807851
 40
0.3134862136955585
 40
0.4198361274354884
 40
0.5254127712915683
 40
0.6339610695419792
 40
0.7409508756305033
 40
0.8511696089308176
 40
0.9558996534551939
 40
1.0
 40
1.0
 40
1.0
 40
1.0
 10
202.4711573258375
 20
145.3368485860489
 30
0.0
 10
202.0359089767275
 20
145.3422967825823
 30
0.0
 10
201.1525224701625
 20
145.3533545230941
 30
0.0
 10
199.8716948849338
 20
145.4397129159957
 30
0.0
 10
198.6542783490598
 20
145.5675830925334
 30
0.0
 10
197.5464724968133
 20
145.7265283911266
 30
0.0
 10
196.558233692865
 20
145.9010220788422
 30
0.0
 10
195.7335101353335
 20
146.070187929482
 30
0.0
 10
195.0845566346742
 20
146.2180717120104
 30
0.0
 10
194.6675218192125
 20
146.3198622962412
 30
0.0
 10
194.468925106248
 20
146.3702138188443
 30
0.0
 10
194.4922378276812
 20
146.364308134622
 30
0.0
 10
194.4991456849188
 20
146.3625582049274
 30
0.0
  0
LINE
  5
D2
330
1F
100
AcDbEntity
  8
0
  6
Continuous
 62
     7
370
    15
100
AcDbLine
 10
204.1292244943
 20
145.336848586
 30
0.0
 11
202.4711573258
 21
145.336848586
 31
0.0
  0
LINE
  5
D3
330
1F
100
AcDbEntity
  8
0
  6
Continuous
 62
     7
370
    15
100
AcDbLine
 10
204.1292244943
 20
139.3283427753
 30
0.0
 11
204.1292244943
 21
145.336848586
 31
0.0
  0
LINE
  5
D4
330
1F
100
AcDbEntity
  8
0
  6
Continuous
 62
     7
370
    15
100
AcDbLine
 10
201.7167776715
 20
139.3283427753
 30
0.0
 11
204.1292244943
 21
139.3283427753
 31
0.0
  0
SPLINE
  5
D5
330
1F
100
AcDbEntity
  8
0
  6
Continuous
 62
     7
370
    15
100
AcDbSpline
210
0.0
220
0.0
230
1.0
 70
     8
 71
     3
 72
    20
 73
    16
 74
     0
 42
0.00000001
 43
0.00000001
 40
0.0
 40
0.0
 40
0.0
 40
0.0
 40
0.2500000000000005
 40
0.2500000000000005
 40
0.3750000000000004
 40
0.3750000000000004
 40
0.5000000000000003
 40
0.5000000000000003
 40
0.6250000000000002
 40
0.6250000000000002
 40
0.7500000000000001
 40
0.7500000000000001
 40
0.8750000000000001
 40
0.8750000000000001
 40
1.0
 40
1.0
 40
1.0
 40
1.0
 10
194.4711573258375
 20
134.7196531128847
 30
0.0
 10
194.7195310601256
 20
135.3735155411821
 30
0.0
 10
195.0391011524709
 20
135.9773013231793
 30
0.0
 10
195.6614073856755
 20
136.8041400593479
 30
0.0
 10
195.8928316461063
 20
137.0665686973008
 30
0.0
 10
196.414045985756
 20
137.5632313514057
 30
0.0
 10
196.7006664683911
 20
137.7938182304273
 30
0.0
 10
197.3201512096987
 20
138.2103724550099
 30
0.0
 10
197.6544515891856
 20
138.3978702569774
 30
0.0
 10
198.3797120618104
 20
138.7292672346138
 30
0.0
 10
198.7616271192009
 20
138.8687712221091
 30
0.0
 10
199.5564152953726
 20
139.09422472958
 30
0.0
 10
199.970573489579
 20
139.1808508411237
 30
0.0
 10
200.8361198301604
 20
139.2988316299778
 30
0.0
 10
201.2740074451722
 20
139.3283427752521
 30
0.0
 10
201.7167776715268
 20
139.3283427752521
 30
0.0
  0
LINE
  5
D6
330
1F
100
AcDbEntity
  8
0
  6
Continuous
 62
     7
370
    15
100
AcDbLine
 10
215.4711573258
 20
85.3093757123
 30
0.0
 11
215.4711573258
 21
134.7196531129
 31
0.0
  0
SPLINE
  5
D7
330
1F
100
AcDbEntity
  8
0
  6
Continuous
 62
     7
370
    15
100
AcDbSpline
210
0.0
220
0.0
230
1.0
 70
     8
 71
     3
 72
    10
 73
     6
 74
     0
 42
0.00000001
 43
0.00000001
 40
0.0
 40
0.0
 40
0.0
 40
0.0
 40
0.5
 40
0.5
 40
1.0
 40
1.0
 40
1.0
 40
1.0
 10
215.4711573258375
 20
85.3093757122919
 30
0.0
 10
215.4711573258375
 20
85.14948844409824
 30
0.0
 10
215.4098476746017
 20
84.98836118858365
 30
0.0
 10
215.1907480370666
 20
84.7542621902288
 30
0.0
 10
215.0326998307531
 20
84.68273541663758
 30
0.0
 10
214.8711573258375
 20
84.68273541663758
 30
0.0
  0
SPLINE
  5
D8
330
1F
100
AcDbEntity
  8
0
  6
Continuous
 62
     7
370
    15
100
AcDbSpline
210
0.0
220
0.0
230
1.0
 70
    24
 71
     3
 72
    12
 73
     8
 74
     0
 42
0.00000001
 43
0.00000001
 40
0.0
 40
0.0
 40
0.0
 40
0.0
 40
0.2500000000000006
 40
0.2500000000000006
 40
0.5000000000000012
 40
0.5000000000000012
 40
1.0
 40
1.0
 40
1.0
 40
1.0
 10
214.8711573258375
 20
134.7196531128847
 30
0.0
 10
214.9613963935246
 20
134.7196531128847
 30
0.0
 10
215.052294507631
 20
134.7196531128847
 30
0.0
 10
215.2068915441196
 20
134.7196531128847
 30
0.0
 10
215.2718699602277
 20
134.7196531128847
 30
0.0
 10
215.4237049881639
 20
134.7196531128847
 30
0.0
 10
215.4711573258375
 20
134.7196531128847
 30
0.0
 10
215.4711573258375
 20
134.7196531128847
 30
0.0
  0
LINE
  5
D9
330
1F
100
AcDbEntity
  8
0
  6
Continuous
 62
     7
370
    15
100
AcDbLine
 10
214.8711573258
 20
84.6827354166
 30
0.0
 11
210.9130901573
 21
84.6827354166
 31
0.0
  0
LINE
  5
DA
330
1F
100
AcDbEntity
  8
0
  6
Continuous
 62
     7
370
    15
100
AcDbLine
 10
210.9130901573
 20
84.6827354166
 30
0.0
 11
210.9130901573
 21
134.7196531129
 31
0.0
  0
LINE
  5
DB
330
1F
100
AcDbEntity
  8
0
  6
Continuous
 62
     7
370
    15
100
AcDbLine
 10
210.9130901573
 20
134.7196531129
 30
0.0
 11
214.8711573258
 21
134.7196531129
 31
0.0
  0
SPLINE
  5
DC
330
1F
100
AcDbEntity
  8
0
  6
Continuous
 62
     7
370
    15
100
AcDbSpline
210
0.0
220
0.0
230
1.0
 70
     8
 71
     3
 72
     8
 73
     4
 74
     0
 42
0.00000001
 43
0.00000001
 40
0.0
 40
0.0
 40
0.0
 40
0.0
 40
1.0
 40
1.0
 40
1.0
 40
1.0
 10
210.9130901573266
 20
84.68273541663758
 30
0.0
 10
210.4176104966608
 20
85.57826150457093
 30
0.0
 10
209.9234964486187
 20
86.47454591962317
 30
0.0
 10
209.4311573258375
 20
87.37181595382985
 30
0.0
  0
LINE
  5
DD
330
1F
100
AcDbEntity
  8
0
  6
Continuous
 62
     7
370
    15
100
AcDbLine
 10
209.4311573258
 20
87.3718159538
 30
0.0
 11
209.4311573258
 21
134.7196531129
 31
0.0
  0
SPLINE
  5
DE
330
1F
100
AcDbEntity
  8
0
  6
Continuous
 62
     7
370
    15
100
AcDbSpline
210
0.0
220
0.0
230
1.0
 70
    24
 71
     3
 72
     8
 73
     4
 74
     0
 42
0.00000001
 43
0.00000001
 40
0.0
 40
0.0
 40
0.0
 40
0.0
 40
1.0
 40
1.0
 40
1.0
 40
1.0
 10
209.4311573258375
 20
134.7196531128847
 30
0.0
 10
209.9111093202024
 20
134.7196531128847
 30
0.0
 10
210.406410049176
 20
134.7196531128847
 30
0.0
 10
210.9130901573266
 20
134.7196531128847
 30
0.0
  0
LINE
  5
DF
330
1F
100
AcDbEntity
  8
0
  6
Continuous
 62
     7
370
    15
100
AcDbLine
 10
205.6111573258
 20
87.3718159538
 30
0.0
 11
205.6111573258
 21
134.7196531129
 31
0.0
  0
SPLINE
  5
E0
330
1F
100
AcDbEntity
  8
0
  6
Continuous
 62
     7
370
    15
100
AcDbSpline
210
0.0
220
0.0
230
1.0
 70
     8
 71
     3
 72
     8
 73
     4
 74
     0
 42
0.00000001
 43
0.00000001
 40
0.0
 40
0.0
 40
0.0
 40
0.0
 40
1.0
 40
1.0
 40
1.0
 40
1.0
 10
205.6111573258375
 20
87.37181595382987
 30
0.0
 10
205.1188182030563
 20
86.47454591962317
 30
0.0
 10
204.6247041550142
 20
85.57826150457093
 30
0.0
 10
204.1292244943485
 20
84.68273541663758
 30
0.0
  0
SPLINE
  5
E1
330
1F
100
AcDbEntity
  8
0
  6
Continuous
 62
     7
370
    15
100
AcDbSpline
210
0.0
220
0.0
230
1.0
 70
    24
 71
     3
 72
     8
 73
     4
 74
     0
 42
0.00000001
 43
0.00000001
 40
0.0
 40
0.0
 40
0.0
 40
0.0
 40
1.0
 40
1.0
 40
1.0
 40
1.0
 10
204.1292244943485
 20
134.7196531128847
 30
0.0
 10
204.635904602499
 20
134.7196531128847
 30
0.0
 10
205.1312053314726
 20
134.7196531128847
 30
0.0
 10
205.6111573258375
 20
134.7196531128847
 30
0.0
  0
LINE
  5
E2
330
1F
100
AcDbEntity
  8
0
  6
Continuous
 62
     7
370
    15
100
AcDbLine
 10
189.5211573258
 20
83.6696531129
 30
0.0
 11
189.5211573258
 21
146.0696531129
 31
0.0
  0
SPLINE
  5
E3
330
1F
100
AcDbEntity
  8
0
  6
Continuous
 62
     7
370
    15
100
AcDbSpline
210
0.0
220
0.0
230
1.0
 70
     8
 71
     3
 72
    10
 73
     6
 74
     0
 42
0.00000001
 43
0.00000001
 40
0.0
 40
0.0
 40
0.0
 40
0.0
 40
0.5
 40
0.5
 40
1.0
 40
1.0
 40
1.0
 40
1.0
 10
206.0054548575285
 20
141.2696531128847
 30
0.0
 10
205.88391459386
 20
141.3443792800965
 30
0.0
 10
205.782580233511
 20
141.4533242960132
 30
0.0
 10
205.6469412906226
 20
141.7037547767749
 30
0.0
 10
205.6111573258375
 20
141.8461741388738
 30
0.0
 10
205.6111573258375
 20
141.9893069639205
 30
0.0
  0
SPLINE
  5
E4
330
1F
100
AcDbEntity
  8
0
  6
Continuous
 62
     7
370
    15
100
AcDbSpline
210
0.0
220
0.0
230
1.0
 70
    24
 71
     3
 72
    12
 73
     8
 74
     0
 42
0.00000001
 43
0.00000001
 40
0.0
 40
0.0
 40
0.0
 40
0.0
 40
0.2500000000000037
 40
0.2500000000000037
 40
0.5000000000000074
 40
0.5000000000000074
 40
1.0
 40
1.0
 40
1.0
 40
1.0
 10
206.4111573258376
 20
141.2696531128847
 30
0.0
 10
206.3618139640279
 20
141.2696531128847
 30
0.0
 10
206.3131232657263
 20
141.2696531128847
 30
0.0
 10
206.2302721681559
 20
141.2696531128847
 30
0.0
 10
206.1940722005353
 20
141.2696531128847
 30
0.0
 10
206.0983222839859
 20
141.2696531128847
 30
0.0
 10
206.0484403141738
 20
141.2696531128847
 30
0.0
 10
206.0054548575285
 20
141.2696531128847
 30
0.0
  0
SPLINE
  5
E5
330
1F
100
AcDbEntity
  8
0
  6
Continuous
 62
     7
370
    15
100
AcDbSpline
210
0.0
220
0.0
230
1.0
 70
    24
 71
     3
 72
    14
 73
    10
 74
     0
 42
0.00000001
 43
0.00000001
 40
0.0
 40
0.0
 40
0.0
 40
0.0
 40
0.1250000000000013
 40
0.1250000000000013
 40
0.2500000000000026
 40
0.2500000000000026
 40
0.5000000000000017
 40
0.5000000000000017
 40
1.0
 40
1.0
 40
1.0
 40
1.0
 10
206.4111573258375
 20
88.46965311288473
 30
0.0
 10
206.3418106041064
 20
88.46965311288471
 30
0.0
 10
206.2766125507224
 20
88.46965311288473
 30
0.0
 10
206.1722333580954
 20
88.46965311288473
 30
0.0
 10
206.1293309870865
 20
88.46965311288473
 30
0.0
 10
206.0170053294817
 20
88.46965311288471
 30
0.0
 10
205.9617816351279
 20
88.46965311288474
 30
0.0
 10
205.8177242563604
 20
88.46965311288473
 30
0.0
 10
205.7556435595289
 20
88.46965311288473
 30
0.0
 10
205.7088321281698
 20
88.46965311288473
 30
0.0
  0
SPLINE
  5
E6
330
1F
100
AcDbEntity
  8
0
  6
Continuous
 62
     7
370
    15
100
AcDbSpline
210
0.0
220
0.0
230
1.0
 70
     8
 71
     3
 72
     9
 73
     5
 74
     0
 42
0.00000001
 43
0.00000001
 40
0.0
 40
0.0
 40
0.0
 40
0.0
 40
0.5
 40
1.0
 40
1.0
 40
1.0
 40
1.0
 10
205.6111573258375
 20
135.0055197443461
 30
0.0
 10
205.6111573258375
 20
134.9572876922234
 30
0.0
 10
205.6155633005427
 20
134.8614176787838
 30
0.0
 10
205.6285824806365
 20
134.7667090488005
 30
0.0
 10
205.6373049489976
 20
134.7196531128847
 30
0.0
  0
SPLINE
  5
E7
330
1F
100
AcDbEntity
  8
0
  6
Continuous
 62
     7
370
    15
100
AcDbSpline
210
0.0
220
0.0
230
1.0
 70
    24
 71
     3
 72
    14
 73
    10
 74
     0
 42
0.00000001
 43
0.00000001
 40
0.0
 40
0.0
 40
0.0
 40
0.0
 40
0.5
 40
0.5
 40
0.75
 40
0.75
 40
0.875
 40
0.875
 40
1.0
 40
1.0
 40
1.0
 40
1.0
 10
209.3334825235052
 20
88.46965311288473
 30
0.0
 10
209.286697818457
 20
88.46965311288473
 30
0.0
 10
209.2246466216774
 20
88.46965311288474
 30
0.0
 10
209.0812549831268
 20
88.46965311288471
 30
0.0
 10
209.0251113295757
 20
88.46965311288473
 30
0.0
 10
208.9121603074394
 20
88.46965311288473
 30
0.0
 10
208.8691595454013
 20
88.46965311288473
 30
0.0
 10
208.7650968350949
 20
88.46965311288471
 30
0.0
 10
208.6997645967379
 20
88.46965311288473
 30
0.0
 10
208.6311573258375
 20
88.46965311288473
 30
0.0
  0
SPLINE
  5
E8
330
1F
100
AcDbEntity
  8
0
  6
Continuous
 62
     7
370
    15
100
AcDbSpline
210
0.0
220
0.0
230
1.0
 70
    24
 71
     3
 72
    12
 73
     8
 74
     0
 42
0.00000001
 43
0.00000001
 40
0.0
 40
0.0
 40
0.0
 40
0.0
 40
0.5
 40
0.5
 40
0.75
 40
0.75
 40
1.0
 40
1.0
 40
1.0
 40
1.0
 10
209.0368597941466
 20
141.2696531128847
 30
0.0
 10
208.9937742445358
 20
141.2696531128847
 30
0.0
 10
208.9446220427887
 20
141.2696531128847
 30
0.0
 10
208.8481494484991
 20
141.2696531128847
 30
0.0
 10
208.8120478633649
 20
141.2696531128847
 30
0.0
 10
208.7289421055023
 20
141.2696531128847
 30
0.0
 10
208.6809455085383
 20
141.2696531128847
 30
0.0
 10
208.6311573258375
 20
141.2696531128847
 30
0.0
  0
SPLINE
  5
E9
330
1F
100
AcDbEntity
  8
0
  6
Continuous
 62
     7
370
    15
100
AcDbSpline
210
0.0
220
0.0
230
1.0
 70
     8
 71
     3
 72
    10
 73
     6
 74
     0
 42
0.00000001
 43
0.00000001
 40
0.0
 40
0.0
 40
0.0
 40
0.0
 40
0.5
 40
0.5
 40
1.0
 40
1.0
 40
1.0
 40
1.0
 10
209.4311573258375
 20
141.9893069639205
 30
0.0
 10
209.4311573258375
 20
141.8455369061025
 30
0.0
 10
209.3951082671186
 20
141.7031175436073
 30
0.0
 10
209.2595994063446
 20
141.4532232502501
 30
0.0
 10
209.1597234132485
 20
141.3451929140019
 30
0.0
 10
209.0368597941465
 20
141.2696531128847
 30
0.0
  0
SPLINE
  5
EA
330
1F
100
AcDbEntity
  8
0
  6
Continuous
 62
     7
370
    15
100
AcDbSpline
210
0.0
220
0.0
230
1.0
 70
     8
 71
     3
 72
    10
 73
     6
 74
     0
 42
0.00000001
 43
0.00000001
 40
0.0
 40
0.0
 40
0.0
 40
0.0
 40
0.5
 40
0.5
 40
1.0
 40
1.0
 40
1.0
 40
1.0
 10
209.4050097026774
 20
134.7196531128847
 30
0.0
 10
209.4136993455891
 20
134.7665319622029
 30
0.0
 10
209.4202384103396
 20
134.8139544276041
 30
0.0
 10
209.4289970447326
 20
134.9098912261909
 30
0.0
 10
209.4311573258375
 20
134.9578065142014
 30
0.0
 10
209.4311573258375
 20
135.0055197443459
 30
0.0
  0
LINE
  5
EB
330
1F
100
AcDbEntity
  8
0
  6
Continuous
 62
     7
370
    15
100
AcDbLine
 10
208.6311573258
 20
141.2696531129
 30
0.0
 11
206.4111573258
 21
141.2696531129
 31
0.0
  0
LINE
  5
EC
330
1F
100
AcDbEntity
  8
0
  6
Continuous
 62
     7
370
    15
100
AcDbLine
 10
208.6311573258
 20
88.4696531129
 30
0.0
 11
206.4111573258
 21
88.4696531129
 31
0.0
  0
LINE
  5
ED
330
1F
100
AcDbEntity
  8
0
  6
Continuous
 62
     7
370
    15
100
AcDbLine
 10
215.6711562709
 20
141.2696531129
 30
0.0
 11
215.6294847578
 21
141.2696531129
 31
0.0
  0
SPLINE
  5
EE
330
1F
100
AcDbEntity
  8
0
  6
Continuous
 62
     7
370
    15
100
AcDbSpline
210
0.0
220
0.0
230
1.0
 70
    24
 71
     3
 72
    10
 73
     6
 74
     0
 42
0.00000001
 43
0.00000001
 40
0.0
 40
0.0
 40
0.0
 40
0.0
 40
0.5
 40
0.5
 40
1.0
 40
1.0
 40
1.0
 40
1.0
 10
215.6711573258122
 20
88.46965311288473
 30
0.0
 10
215.6711561939383
 20
88.46965311288473
 30
0.0
 10
215.6279513089244
 20
88.46965311288473
 30
0.0
 10
215.5270242704464
 20
88.46965311288473
 30
0.0
 10
215.4711573258375
 20
88.46965311288473
 30
0.0
 10
215.4711573258375
 20
88.46965311288473
 30
0.0
  0
SPLINE
  5
EF
330
1F
100
AcDbEntity
  8
0
  6
Continuous
 62
     7
370
    15
100
AcDbSpline
210
0.0
220
0.0
230
1.0
 70
     8
 71
     3
 72
    20
 73
    16
 74
     0
 42
0.00000001
 43
0.00000001
 40
0.0
 40
0.0
 40
0.0
 40
0.0
 40
0.2500000000000007
 40
0.2500000000000007
 40
0.3750000000000006
 40
0.3750000000000006
 40
0.5000000000000004
 40
0.5000000000000004
 40
0.6250000000000003
 40
0.6250000000000003
 40
0.7500000000000002
 40
0.7500000000000002
 40
0.8750000000000002
 40
0.8750000000000002
 40
1.0
 40
1.0
 40
1.0
 40
1.0
 10
225.4134743415695
 20
138.4507081534166
 30
0.0
 10
225.567326366383
 20
138.7096117020306
 30
0.0
 10
225.8037731478001
 20
138.9334741311005
 30
0.0
 10
226.2910733533731
 20
139.2254347007262
 30
0.0
 10
226.4748903014211
 20
139.3144198671958
 30
0.0
 10
226.8758207037464
 20
139.4737301043793
 30
0.0
 10
227.0941274311012
 20
139.5448072382175
 30
0.0
 10
227.5674993355631
 20
139.6719210605384
 30
0.0
 10
227.8238431306284
 20
139.7279876759907
 30
0.0
 10
228.3556033030825
 20
139.8232013643817
 30
0.0
 10
228.6330304103302
 20
139.862988550564
 30
0.0
 10
229.2110843498255
 20
139.9289761397943
 30
0.0
 10
229.5138609864427
 20
139.9552427301035
 30
0.0
 10
230.1264996494965
 20
139.9938817739471
 30
0.0
 10
230.4376876879037
 20
140.0065088120714
 30
0.0
 10
230.7538303378586
 20
140.0127427869021
 30
0.0
  0
ELLIPSE
  5
F0
330
1F
100
AcDbEntity
  8
0
  6
Continuous
 62
     7
370
    15
100
AcDbEllipse
 10
227.8999953451
 20
114.8696531129
 30
0.0
 11
0.5233412460038096
 21
25.99962396395102
 31
0.0
210
0.0
220
0.0
230
1.0
 40
0.2671959542
 41
0.4401560867251777
 42
2.851819471465696
  0
SPLINE
  5
F1
330
1F
100
AcDbEntity
  8
0
  6
Continuous
 62
     7
370
    15
100
AcDbSpline
210
0.0
220
0.0
230
1.0
 70
     8
 71
     3
 72
    20
 73
    16
 74
     0
 42
0.00000001
 43
0.00000001
 40
0.0
 40
0.0
 40
0.0
 40
0.0
 40
0.2500000000000001
 40
0.2500000000000001
 40
0.375
 40
0.375
 40
0.5
 40
0.5
 40
0.625
 40
0.625
 40
0.75
 40
0.75
 40
0.8750000000000001
 40
0.8750000000000001
 40
1.0
 40
1.0
 40
1.0
 40
1.0
 10
230.7538303378586
 20
89.04992158618343
 30
0.0
 10
230.1217234584467
 20
89.055676234305
 30
0.0
 10
229.5142406723914
 20
89.07255577133905
 30
0.0
 10
228.639660162472
 20
89.12180184962024
 30
0.0
 10
228.3592013560285
 20
89.14215869725317
 30
0.0
 10
227.828457904232
 20
89.19200320877377
 30
0.0
 10
227.5766919268792
 20
89.22156508019324
 30
0.0
 10
227.1008662990366
 20
89.29273775619255
 30
0.0
 10
226.8788056493768
 20
89.33422288697824
 30
0.0
 10
226.4771831937862
 20
89.42898273573589
 30
0.0
 10
226.2956708565732
 20
89.48252501386817
 30
0.0
 10
225.9709140403962
 20
89.6044281969999
 30
0.0
 10
225.8281001153604
 20
89.67293398071317
 30
0.0
 10
225.5885123746756
 20
89.82277690502585
 30
0.0
 10
225.4903977796802
 20
89.90454689138345
 30
0.0
 10
225.4134743415695
 20
89.99394265263366
 30
0.0
  0
ELLIPSE
  5
F2
330
1F
100
AcDbEntity
  8
0
  6
Continuous
 62
     7
370
    15
100
AcDbEllipse
 10
223.1836449236
 20
106.4454222471
 30
0.0
 11
-0.2922734675698848
 21
3.197112503664528
 31
0.0
210
0.0
220
0.0
230
1.0
 40
0.1913229391
 41
0.0
 42
6.283185307179586
  0
LINE
  5
F3
330
1F
100
AcDbEntity
  8
0
  6
Continuous
 62
     7
370
    15
100
AcDbLine
 10
187.5211573258
 20
90.6492222512
 30
0.0
 11
187.5211573258
 21
139.0900839746
 31
0.0
  0
LINE
  5
F4
330
1F
100
AcDbEntity
  8
0
  6
Continuous
 62
     7
370
    15
100
AcDbLine
 10
167.7211573258
 20
91.6412062191
 30
0.0
 11
167.7211573258
 21
92.9245048536
 31
0.0
  0
SPLINE
  5
F5
330
1F
100
AcDbEntity
  8
0
  6
Continuous
 62
     7
370
    15
100
AcDbSpline
210
0.0
220
0.0
230
1.0
 70
     8
 71
     3
 72
    14
 73
    10
 74
     0
 42
0.00000001
 43
0.00000001
 40
0.0
 40
0.0
 40
0.0
 40
0.0
 40
0.25
 40
0.25
 40
0.5
 40
0.5
 40
0.75
 40
0.75
 40
1.0
 40
1.0
 40
1.0
 40
1.0
 10
167.0995530890978
 20
94.0052818956015
 30
0.0
 10
167.1379894739188
 20
93.90265749788998
 30
0.0
 10
167.2067908673106
 20
93.80346107445041
 30
0.0
 10
167.3500768794695
 20
93.61256904512389
 30
0.0
 10
167.4252589345765
 20
93.52031177909099
 30
0.0
 10
167.5574462232266
 20
93.34070445727599
 30
0.0
 10
167.6149634186964
 20
93.25339490283163
 30
0.0
 10
167.6970082169887
 20
93.08346106931589
 30
0.0
 10
167.7211573258375
 20
93.00155872744473
 30
0.0
 10
167.7211573258375
 20
92.92450485360881
 30
0.0
  0
SPLINE
  5
F6
330
1F
100
AcDbEntity
  8
0
  6
Continuous
 62
     7
370
    15
100
AcDbSpline
210
0.0
220
0.0
230
1.0
 70
     8
 71
     3
 72
    18
 73
    14
 74
     0
 42
0.00000001
 43
0.00000001
 40
0.0
 40
0.0
 40
0.0
 40
0.0
 40
0.0624999999999998
 40
0.0624999999999998
 40
0.1249999999999997
 40
0.1249999999999997
 40
0.2499999999999993
 40
0.2499999999999993
 40
0.4999999999999996
 40
0.4999999999999996
 40
0.7499999999999998
 40
0.7499999999999998
 40
1.0
 40
1.0
 40
1.0
 40
1.0
 10
166.3211573258375
 20
94.72356434708811
 30
0.0
 10
166.3577295361879
 20
94.72734175061558
 30
0.0
 10
166.3963800096234
 20
94.72678472273242
 30
0.0
 10
166.4704715033372
 20
94.71672551757055
 30
0.0
 10
166.5058217970913
 20
94.707371636146
 30
0.0
 10
166.6004160944807
 20
94.67298720971218
 30
0.0
 10
166.6505542676197
 20
94.64227547504936
 30
0.0
 10
166.7797475392009
 20
94.54634616501131
 30
0.0
 10
166.838027683942
 20
94.47783067089406
 30
0.0
 10
166.9382227803655
 20
94.34125872096143
 30
0.0
 10
166.9782380318121
 20
94.27249381845854
 30
0.0
 10
167.0466374526299
 20
94.13745838935088
 30
0.0
 10
167.0749991764918
 20
94.07084036329772
 30
0.0
 10
167.0995530890978
 20
94.0052818956015
 30
0.0
  0
SPLINE
  5
F7
330
1F
100
AcDbEntity
  8
0
  6
Continuous
 62
     7
370
    15
100
AcDbSpline
210
0.0
220
0.0
230
1.0
 70
     8
 71
     3
 72
    10
 73
     6
 74
     0
 42
0.00000001
 43
0.00000001
 40
0.0
 40
0.0
 40
0.0
 40
0.0
 40
0.5
 40
0.5
 40
1.0
 40
1.0
 40
1.0
 40
1.0
 10
162.4075554647155
 20
94.2273706907165
 30
0.0
 10
163.0351831204229
 20
94.33064424945212
 30
0.0
 10
163.6863838654543
 20
94.41946936120365
 30
0.0
 10
164.9950885694666
 20
94.58157706807398
 30
0.0
 10
165.6561330067578
 20
94.65487653236056
 30
0.0
 10
166.3211573258374
 20
94.72356434708824
 30
0.0
  0
SPLINE
  5
F8
330
1F
100
AcDbEntity
  8
0
  6
Continuous
 62
     7
370
    15
100
AcDbSpline
210
0.0
220
0.0
230
1.0
 70
     8
 71
     3
 72
    14
 73
    10
 74
     0
 42
0.00000001
 43
0.00000001
 40
0.0
 40
0.0
 40
0.0
 40
0.0
 40
0.4999999999999998
 40
0.4999999999999998
 40
0.750000000000001
 40
0.750000000000001
 40
0.8750000000000004
 40
0.8750000000000004
 40
1.0
 40
1.0
 40
1.0
 40
1.0
 10
158.7711573258375
 20
94.06302155435716
 30
0.0
 10
159.3872342295928
 20
94.06874767458632
 30
0.0
 10
160.0013662257087
 20
94.07863803998835
 30
0.0
 10
160.9152628562223
 20
94.10927300765812
 30
0.0
 10
161.2187017837699
 20
94.1220664652961
 30
0.0
 10
161.6698383994074
 20
94.1499922932555
 30
0.0
 10
161.8195446489499
 20
94.16076191341526
 30
0.0
 10
162.1163857851979
 20
94.18789462901479
 30
0.0
 10
162.2637713377013
 20
94.20371160184202
 30
0.0
 10
162.4075554647155
 20
94.22737069071648
 30
0.0
  0
SPLINE
  5
F9
330
1F
100
AcDbEntity
  8
0
  6
Continuous
 62
     7
370
    15
100
AcDbSpline
210
0.0
220
0.0
230
1.0
 70
     8
 71
     3
 72
     8
 73
     4
 74
     0
 42
0.00000001
 43
0.00000001
 40
0.0000005954826279
 40
0.0000005954826279
 40
0.0000005954826279
 40
0.0000005954826279
 40
0.0000302093805348
 40
0.0000302093805348
 40
0.0000302093805348
 40
0.0000302093805348
 10
158.7611123954279
 20
94.07483668400907
 30
0.0
 10
158.7644284227481
 20
94.07088990441326
 30
0.0
 10
158.7677769741404
 20
94.06695151328333
 30
0.0
 10
158.7711573258375
 20
94.06302155435716
 30
0.0
  0
SPLINE
  5
FA
330
1F
100
AcDbEntity
  8
0
  6
Continuous
 62
     7
370
    15
100
AcDbSpline
210
0.0
220
0.0
230
1.0
 70
     8
 71
     3
 72
     8
 73
     4
 74
     0
 42
0.00000001
 43
0.00000001
 40
0.0000005099763573
 40
0.0000005099763573
 40
0.0000005099763573
 40
0.0000005099763573
 40
0.0000262827998699
 40
0.0000262827998699
 40
0.0000262827998699
 40
0.0000262827998699
 10
158.7711573258375
 20
135.7395908782798
 30
0.0
 10
158.7677885866098
 20
135.7362692093239
 30
0.0
 10
158.7644401336306
 20
135.732941252045
 30
0.0
 10
158.7611123954193
 20
135.7296070051724
 30
0.0
  0
SPLINE
  5
FB
330
1F
100
AcDbEntity
  8
0
  6
Continuous
 62
     7
370
    15
100
AcDbSpline
210
0.0
220
0.0
230
1.0
 70
     8
 71
     3
 72
    10
 73
     6
 74
     0
 42
0.00000001
 43
0.00000001
 40
0.0
 40
0.0
 40
0.0
 40
0.0
 40
0.5
 40
0.5
 40
1.0
 40
1.0
 40
1.0
 40
1.0
 10
162.3211573258375
 20
135.6927405047125
 30
0.0
 10
161.7335717787469
 20
135.7138060249489
 30
0.0
 10
161.1428253852865
 20
135.7245645108211
 30
0.0
 10
159.9588062199877
 20
135.7379292913568
 30
0.0
 10
159.3653922317822
 20
135.7400719340214
 30
0.0
 10
158.7711573258375
 20
135.7395908782798
 30
0.0
  0
SPLINE
  5
FC
330
1F
100
AcDbEntity
  8
0
  6
Continuous
 62
     7
370
    15
100
AcDbSpline
210
0.0
220
0.0
230
1.0
 70
     8
 71
     3
 72
    18
 73
    14
 74
     0
 42
0.00000001
 43
0.00000001
 40
0.0
 40
0.0
 40
0.0
 40
0.0
 40
0.2500000000000003
 40
0.2500000000000003
 40
0.4999999999999999
 40
0.4999999999999999
 40
0.7499999999999996
 40
0.7499999999999996
 40
0.8749999999999993
 40
0.8749999999999993
 40
0.9374999999999997
 40
0.9374999999999997
 40
1.0
 40
1.0
 40
1.0
 40
1.0
 10
163.7211573258375
 20
136.7137607852477
 30
0.0
 10
163.7211573258375
 20
136.6305538763905
 30
0.0
 10
163.6853082258993
 20
136.5418172210769
 30
0.0
 10
163.5604364898653
 20
136.3596920305167
 30
0.0
 10
163.4700360722175
 20
136.2645619818901
 30
0.0
 10
163.2477934174753
 20
136.0753804727658
 30
0.0
 10
163.1180286310295
 20
135.9804353046711
 30
0.0
 10
162.877391173718
 20
135.8421565970911
 30
0.0
 10
162.7896238755806
 20
135.7964461637887
 30
0.0
 10
162.6350997883738
 20
135.7386228585673
 30
0.0
 10
162.578488902319
 20
135.7209080945294
 30
0.0
 10
162.4544448714124
 20
135.6963687912965
 30
0.0
 10
162.3867301963941
 20
135.6903896527582
 30
0.0
 10
162.3211573258375
 20
135.6927405047125
 30
0.0
  0
LINE
  5
FD
330
1F
100
AcDbEntity
  8
0
  6
Continuous
 62
     7
370
    15
100
AcDbLine
 10
163.7211573258
 20
136.7137607852
 30
0.0
 11
163.7211573258
 21
137.8976992051
 31
0.0
  0
SPLINE
  5
FE
330
1F
100
AcDbEntity
  8
0
  6
Continuous
 62
     7
370
    15
100
AcDbSpline
210
0.0
220
0.0
230
1.0
 70
     8
 71
     3
 72
    24
 73
    20
 74
     0
 42
0.00000001
 43
0.00000001
 40
0.0
 40
0.0
 40
0.0
 40
0.0
 40
0.0010489762969676
 40
0.0637843125636786
 40
0.1272220590447881
 40
0.190378892448397
 40
0.2526748653693583
 40
0.3146354154422258
 40
0.3770891997149646
 40
0.4393540298503556
 40
0.5008133242537847
 40
0.5621845104596218
 40
0.6248438451115926
 40
0.6874304766625545
 40
0.7496743174679397
 40
0.8119848426976357
 40
0.8750960525413143
 40
0.9384412526964341
 40
1.0
 40
1.0
 40
1.0
 40
1.0
 10
176.2900631578132
 20
91.21214468430458
 30
0.0
 10
176.289616697709
 20
91.21208639848567
 30
0.0
 10
176.262469134015
 20
91.20854225654334
 30
0.0
 10
176.3580809116289
 20
91.2213760012258
 30
0.0
 10
176.5916411695221
 20
91.25062268642597
 30
0.0
 10
176.9871954768399
 20
91.29723700948881
 30
0.0
 10
177.5142357806762
 20
91.3474201511481
 30
0.0
 10
178.1577661926665
 20
91.39179661359795
 30
0.0
 10
178.8964400479057
 20
91.41874139453604
 30
0.0
 10
179.69395455334
 20
91.42221324524301
 30
0.0
 10
180.5205334357867
 20
91.39458600121233
 30
0.0
 10
181.3460564533987
 20
91.33610711223962
 30
0.0
 10
182.1381830014024
 20
91.25066208287829
 30
0.0
 10
182.8707552754017
 20
91.14892784304202
 30
0.0
 10
183.5063955121317
 20
91.04108472106961
 30
0.0
 10
184.0283066191378
 20
90.9394545643309
 30
0.0
 10
184.4099353962536
 20
90.8569694076527
 30
0.0
 10
184.6607498664879
 20
90.80082020130304
 30
0.0
 10
184.6898714224721
 20
90.79397074268927
 30
0.0
 10
184.7042239432882
 20
90.7905949959611
 30
0.0
  0
SPLINE
  5
FF
330
1F
100
AcDbEntity
  8
0
  6
Continuous
 62
     7
370
    15
100
AcDbSpline
210
0.0
220
0.0
230
1.0
 70
     8
 71
     3
 72
    24
 73
    20
 74
     0
 42
0.00000001
 43
0.00000001
 40
0.0
 40
0.0
 40
0.0
 40
0.0
 40
0.0614384276250092
 40
0.1250736755369638
 40
0.1884253490728546
 40
0.250862390403747
 40
0.3129665632511463
 40
0.3753451453465217
 40
0.4377328972327366
 40
0.4990927322917387
 40
0.560580758844976
 40
0.6229469893028905
 40
0.6854686282028751
 40
0.7475477813740348
 40
0.809822506080776
 40
0.8730684085990464
 40
0.9364041844530122
 40
0.9991757196257861
 40
1.0
 40
1.0
 40
1.0
 40
1.0
 10
184.7041691724853
 20
138.9486820873421
 30
0.0
 10
184.6895684481816
 20
138.9453140304895
 30
0.0
 10
184.6598449294532
 20
138.9384574870157
 30
0.0
 10
184.4071071138054
 20
138.8821188664898
 30
0.0
 10
184.0241111973561
 20
138.7992617843598
 30
0.0
 10
183.5017556129186
 20
138.6973547544086
 30
0.0
 10
182.8669711349185
 20
138.5895156153646
 30
0.0
 10
182.1367475307448
 20
138.4880486633895
 30
0.0
 10
181.346278945511
 20
138.4029889496987
 30
0.0
 10
180.5217954306817
 20
138.3447846558124
 30
0.0
 10
179.6947589717994
 20
138.317201216986
 30
0.0
 10
178.8964347041467
 20
138.3206941944787
 30
0.0
 10
178.1566107398577
 20
138.3476501143317
 30
0.0
 10
177.5123565068826
 20
138.3920040563312
 30
0.0
 10
176.9849492516688
 20
138.4422095060891
 30
0.0
 10
176.590284649518
 20
138.4888193612871
 30
0.0
 10
176.3577553703333
 20
138.5180149538347
 30
0.0
 10
176.2623753377805
 20
138.5307930227761
 30
0.0
 10
176.2893089746821
 20
138.5272387642681
 30
0.0
 10
176.2896580679065
 20
138.5271926966848
 30
0.0
  0
SPLINE
  5
100
330
1F
100
AcDbEntity
  8
0
  6
Continuous
 62
     7
370
    15
100
AcDbSpline
210
0.0
220
0.0
230
1.0
 70
     8
 71
     3
 72
     9
 73
     5
 74
     0
 42
0.00000001
 43
0.00000001
 40
0.0
 40
0.0
 40
0.0
 40
0.0
 40
0.5865083119587354
 40
1.0
 40
1.0
 40
1.0
 40
1.0
 10
157.6276771237885
 20
95.21883467030582
 30
0.0
 10
157.6316777527667
 20
95.21303458927684
 30
0.0
 10
157.6384988478758
 20
95.20314541821016
 30
0.0
 10
157.6476507188629
 20
95.25721021045074
 30
0.0
 10
157.6514349414461
 20
95.27956555265789
 30
0.0
  0
LINE
  5
101
330
1F
100
AcDbEntity
  8
0
  6
Continuous
 62
     7
370
    15
100
AcDbLine
 10
157.6211573258
 20
95.2164925879
 30
0.0
 11
157.6211573258
 21
134.5603308594
 31
0.0
  0
SPLINE
  5
102
330
1F
100
AcDbEntity
  8
0
  6
Continuous
 62
     7
370
    15
100
AcDbSpline
210
0.0
220
0.0
230
1.0
 70
     8
 71
     3
 72
    10
 73
     6
 74
     0
 42
0.00000001
 43
0.00000001
 40
0.0
 40
0.0
 40
0.0
 40
0.0
 40
0.5
 40
0.5
 40
1.0
 40
1.0
 40
1.0
 40
1.0
 10
157.6838207005609
 20
134.5442056576655
 30
0.0
 10
157.6749164114522
 20
134.5899471768787
 30
0.0
 10
157.6584010312592
 20
134.6071380163476
 30
0.0
 10
157.6312930851976
 20
134.6068147394119
 30
0.0
 10
157.6211573258375
 20
134.5889371971155
 30
0.0
 10
157.6211573258375
 20
134.5603308593629
 30
0.0
  0
SPLINE
  5
103
330
1F
100
AcDbEntity
  8
0
  6
Continuous
 62
     7
370
    15
100
AcDbSpline
210
0.0
220
0.0
230
1.0
 70
     8
 71
     3
 72
    26
 73
    22
 74
     0
 42
0.00000001
 43
0.00000001
 40
0.0
 40
0.0
 40
0.0
 40
0.0
 40
0.2500000000000214
 40
0.2500000000000214
 40
0.3750000000000319
 40
0.3750000000000319
 40
0.437500000000036
 40
0.437500000000036
 40
0.4687500000000356
 40
0.4687500000000356
 40
0.5000000000000352
 40
0.5000000000000352
 40
0.5312500000000349
 40
0.5312500000000349
 40
0.5625000000000345
 40
0.5625000000000345
 40
0.6250000000000303
 40
0.6250000000000303
 40
0.75000000000002
 40
0.75000000000002
 40
1.0
 40
1.0
 40
1.0
 40
1.0
 10
158.445310971942
 20
135.2597724464826
 30
0.0
 10
158.4067104490736
 20
135.1419977501271
 30
0.0
 10
158.3604134465193
 20
135.0176080639652
 30
0.0
 10
158.2664740980854
 20
134.8123887316117
 30
0.0
 10
158.2311626311719
 20
134.7408158651652
 30
0.0
 10
158.1649826554262
 20
134.6248626325648
 30
0.0
 10
158.140444288758
 20
134.5842780977546
 30
0.0
 10
158.0970715432042
 20
134.5201364158828
 30
0.0
 10
158.081563141779
 20
134.4982699905977
 30
0.0
 10
158.046520497192
 20
134.4526757222546
 30
0.0
 10
158.0269702064722
 20
134.4290054312871
 30
0.0
 10
157.9850429261016
 20
134.3843888719472
 30
0.0
 10
157.96239081587
 20
134.3635088594293
 30
0.0
 10
157.9214171017834
 20
134.3326354456785
 30
0.0
 10
157.9038178018879
 20
134.3227965758461
 30
0.0
 10
157.8591908160318
 20
134.3038069601499
 30
0.0
 10
157.8386315933784
 20
134.3034826354965
 30
0.0
 10
157.7875061538818
 20
134.3127060763727
 30
0.0
 10
157.7665947408933
 20
134.3339529725897
 30
0.0
 10
157.7151448333323
 20
134.4079218514204
 30
0.0
 10
157.6974795340277
 20
134.4740399447352
 30
0.0
 10
157.6838207005609
 20
134.5442056576655
 30
0.0
  0
SPLINE
  5
104
330
1F
100
AcDbEntity
  8
0
  6
Continuous
 62
     7
370
    15
100
AcDbSpline
210
0.0
220
0.0
230
1.0
 70
     8
 71
     3
 72
    10
 73
     6
 74
     0
 42
0.00000001
 43
0.00000001
 40
0.0
 40
0.0
 40
0.0
 40
0.0
 40
0.5
 40
0.5
 40
1.0
 40
1.0
 40
1.0
 40
1.0
 10
158.7611123954193
 20
135.7296070051724
 30
0.0
 10
158.6935531405011
 20
135.6619156123626
 30
0.0
 10
158.6299164851646
 20
135.587208447609
 30
0.0
 10
158.5196957305927
 20
135.4282423151824
 30
0.0
 10
158.4728794373701
 20
135.3438870491744
 30
0.0
 10
158.445310971942
 20
135.2597724464825
 30
0.0
  0
SPLINE
  5
105
330
1F
100
AcDbEntity
  8
0
  6
Continuous
 62
     7
370
    15
100
AcDbSpline
210
0.0
220
0.0
230
1.0
 70
     8
 71
     3
 72
     8
 73
     4
 74
     0
 42
0.00000001
 43
0.00000001
 40
0.0
 40
0.0
 40
0.0
 40
0.0
 40
1.0
 40
1.0
 40
1.0
 40
1.0
 10
158.5600668960367
 20
94.42573080991912
 30
0.0
 10
158.5957805544066
 20
94.30249930465932
 30
0.0
 10
158.6714485933549
 20
94.18155572771234
 30
0.0
 10
158.761112395428
 20
94.07483668400907
 30
0.0
  0
SPLINE
  5
106
330
1F
100
AcDbEntity
  8
0
  6
Continuous
 62
     7
370
    15
100
AcDbSpline
210
0.0
220
0.0
230
1.0
 70
     8
 71
     3
 72
    26
 73
    22
 74
     0
 42
0.00000001
 43
0.00000001
 40
0.0
 40
0.0
 40
0.0
 40
0.0
 40
0.2500000000000047
 40
0.2500000000000047
 40
0.375000000000008
 40
0.375000000000008
 40
0.437500000000009
 40
0.437500000000009
 40
0.468750000000009
 40
0.468750000000009
 40
0.5000000000000091
 40
0.5000000000000091
 40
0.5312500000000092
 40
0.5312500000000092
 40
0.5625000000000094
 40
0.5625000000000094
 40
0.6250000000000078
 40
0.6250000000000078
 40
0.7500000000000054
 40
0.7500000000000054
 40
1.0
 40
1.0
 40
1.0
 40
1.0
 10
157.6514349414462
 20
95.27956555265789
 30
0.0
 10
157.6621589748387
 20
95.38252659314688
 30
0.0
 10
157.6768919654332
 20
95.48152528262793
 30
0.0
 10
157.7292455246802
 20
95.60012096269305
 30
0.0
 10
157.7509508073998
 20
95.63583126264186
 30
0.0
 10
157.8098063147652
 20
95.66081069546358
 30
0.0
 10
157.8332685486124
 20
95.66519614322715
 30
0.0
 10
157.889389925273
 20
95.64544330978302
 30
0.0
 10
157.9121772354036
 20
95.6337869189726
 30
0.0
 10
157.9674297879349
 20
95.59200656953536
 30
0.0
 10
157.9988360206757
 20
95.56173498215935
 30
0.0
 10
158.0537698412961
 20
95.50009258324536
 30
0.0
 10
158.0781936594956
 20
95.46865093093854
 30
0.0
 10
158.1216087654828
 20
95.40891609352477
 30
0.0
 10
158.1411833280511
 20
95.37975108365212
 30
0.0
 10
158.1948160119991
 20
95.29591580791906
 30
0.0
 10
158.2245933600513
 20
95.24388318994284
 30
0.0
 10
158.3061274200241
 20
95.09281751597548
 30
0.0
 10
158.3493702146981
 20
94.99962647410476
 30
0.0
 10
158.4624248043528
 20
94.73523993511037
 30
0.0
 10
158.516435801832
 20
94.57628176606055
 30
0.0
 10
158.560066896036
 20
94.42573080991968
 30
0.0
  0
SPLINE
  5
107
330
1F
100
AcDbEntity
  8
0
  6
Continuous
 62
     7
370
    15
100
AcDbSpline
210
0.0
220
0.0
230
1.0
 70
     8
 71
     3
 72
    10
 73
     6
 74
     0
 42
0.00000001
 43
0.00000001
 40
0.0
 40
0.0
 40
0.0
 40
0.0
 40
0.5
 40
0.5
 40
1.0
 40
1.0
 40
1.0
 40
1.0
 10
215.4711573258375
 20
144.7160934366486
 30
0.0
 10
215.4711573258375
 20
144.8764987029994
 30
0.0
 10
215.4089194947307
 20
145.035560515988
 30
0.0
 10
215.1897845709881
 20
145.2664729816183
 30
0.0
 10
215.0321958759962
 20
145.3368485860489
 30
0.0
 10
214.8711573258375
 20
145.3368485860489
 30
0.0
  0
SPLINE
  5
108
330
1F
100
AcDbEntity
  8
0
  6
Continuous
 62
     7
370
    15
100
AcDbSpline
210
0.0
220
0.0
230
1.0
 70
     8
 71
     3
 72
    12
 73
     8
 74
     0
 42
0.00000001
 43
0.00000001
 40
0.0
 40
0.0
 40
0.0
 40
0.0
 40
0.249999999999998
 40
0.249999999999998
 40
0.499999999999996
 40
0.499999999999996
 40
1.0
 40
1.0
 40
1.0
 40
1.0
 10
214.8711573258375
 20
139.3283427752521
 30
0.0
 10
214.9623570476632
 20
139.3283427752521
 30
0.0
 10
215.0529520567992
 20
139.3001230766643
 30
0.0
 10
215.2063647832458
 20
139.2056800694162
 30
0.0
 10
215.2715736505695
 20
139.1393930927108
 30
0.0
 10
215.4243581799095
 20
138.9137682694225
 30
0.0
 10
215.4711573258375
 20
138.73134200639
 30
0.0
 10
215.4711573258375
 20
138.5506053741431
 30
0.0
  0
LINE
  5
109
330
1F
100
AcDbEntity
  8
0
  6
Continuous
 62
     7
370
    15
100
AcDbLine
 10
215.4711573258
 20
138.5506053741
 30
0.0
 11
215.4711573258
 21
144.7160934366
 31
0.0
  0
SPLINE
  5
10A
330
1F
100
AcDbEntity
  8
0
  6
Continuous
 62
     7
370
    15
100
AcDbSpline
210
0.0
220
0.0
230
1.0
 70
     8
 71
     3
 72
     8
 73
     4
 74
     0
 42
0.00000001
 43
0.00000001
 40
0.0
 40
0.0
 40
0.0
 40
0.0
 40
1.0
 40
1.0
 40
1.0
 40
1.0
 10
210.9130901573266
 20
145.3368485860489
 30
0.0
 10
210.4179501279623
 20
144.4501689378687
 30
0.0
 10
209.9238674226833
 20
143.5629063021827
 30
0.0
 10
209.4311573258375
 20
142.6748873040563
 30
0.0
  0
LINE
  5
10B
330
1F
100
AcDbEntity
  8
0
  6
Continuous
 62
     7
370
    15
100
AcDbLine
 10
210.9130901573
 20
139.3283427753
 30
0.0
 11
210.9130901573
 21
145.336848586
 31
0.0
  0
SPLINE
  5
10C
330
1F
100
AcDbEntity
  8
0
  6
Continuous
 62
     7
370
    15
100
AcDbSpline
210
0.0
220
0.0
230
1.0
 70
     8
 71
     3
 72
     8
 73
     4
 74
     0
 42
0.00000001
 43
0.00000001
 40
0.0
 40
0.0
 40
0.0
 40
0.0
 40
1.0
 40
1.0
 40
1.0
 40
1.0
 10
209.4311573258375
 20
135.9197967804681
 30
0.0
 10
209.9104354764274
 20
137.0608080103206
 30
0.0
 10
210.4060033155673
 20
138.1971924210885
 30
0.0
 10
210.9130901573266
 20
139.3283427752521
 30
0.0
  0
LINE
  5
10D
330
1F
100
AcDbEntity
  8
0
  6
Continuous
 62
     7
370
    15
100
AcDbLine
 10
209.4311573258
 20
135.9197967805
 30
0.0
 11
209.4311573258
 21
142.6748873041
 31
0.0
  0
LINE
  5
10E
330
1F
100
AcDbEntity
  8
0
  6
Continuous
 62
     7
370
    15
100
AcDbLine
 10
209.4311573258
 20
135.0055197443
 30
0.0
 11
209.4311573258
 21
135.9197967805
 31
0.0
  0
LINE
  5
10F
330
1F
100
AcDbEntity
  8
0
  6
Continuous
 62
     7
370
    15
100
AcDbLine
 10
210.9130901573
 20
139.3283427753
 30
0.0
 11
214.8711573258
 21
139.3283427753
 31
0.0
  0
LINE
  5
110
330
1F
100
AcDbEntity
  8
0
  6
Continuous
 62
     7
370
    15
100
AcDbLine
 10
215.4711573258
 20
138.5506053741
 30
0.0
 11
215.4711573258
 21
134.7196531129
 31
0.0
  0
SPLINE
  5
111
330
1F
100
AcDbEntity
  8
0
  6
Continuous
 62
     7
370
    15
100
AcDbSpline
210
0.0
220
0.0
230
1.0
 70
     8
 71
     3
 72
     8
 73
     4
 74
     0
 42
0.00000001
 43
0.00000001
 40
0.0
 40
0.0
 40
0.0
 40
0.0
 40
1.0
 40
1.0
 40
1.0
 40
1.0
 10
204.1292244943485
 20
139.3283427752521
 30
0.0
 10
204.6363113361078
 20
138.1971924210885
 30
0.0
 10
205.1318791752477
 20
137.0608080103207
 30
0.0
 10
205.6111573258375
 20
135.9197967804681
 30
0.0
  0
LINE
  5
112
330
1F
100
AcDbEntity
  8
0
  6
Continuous
 62
     7
370
    15
100
AcDbLine
 10
205.6111573258
 20
135.9197967805
 30
0.0
 11
205.6111573258
 21
135.0055197443
 31
0.0
  0
LINE
  5
113
330
1F
100
AcDbEntity
  8
0
  6
Continuous
 62
     7
370
    15
100
AcDbLine
 10
214.8711573258
 20
145.336848586
 30
0.0
 11
210.9130901573
 21
145.336848586
 31
0.0
  0
SPLINE
  5
114
330
1F
100
AcDbEntity
  8
0
  6
Continuous
 62
     7
370
    15
100
AcDbSpline
210
0.0
220
0.0
230
1.0
 70
     8
 71
     3
 72
     8
 73
     4
 74
     0
 42
0.00000001
 43
0.00000001
 40
0.0
 40
0.0
 40
0.0
 40
0.0
 40
1.0
 40
1.0
 40
1.0
 40
1.0
 10
205.6111573258375
 20
142.6748873040563
 30
0.0
 10
205.1184472289918
 20
143.5629063021827
 30
0.0
 10
204.6243645237128
 20
144.4501689378687
 30
0.0
 10
204.1292244943485
 20
145.3368485860489
 30
0.0
  0
LINE
  5
115
330
1F
100
AcDbEntity
  8
0
  6
Continuous
 62
     7
370
    15
100
AcDbLine
 10
205.6111573258
 20
135.9197967805
 30
0.0
 11
205.6111573258
 21
142.6748873041
 31
0.0
  0
SPLINE
  5
116
330
1F
100
AcDbEntity
  8
0
  6
Continuous
 62
     7
370
    15
100
AcDbSpline
210
0.0
220
0.0
230
1.0
 70
     8
 71
     3
 72
     8
 73
     4
 74
     0
 42
0.00000001
 43
0.00000001
 40
0.0
 40
0.0
 40
0.0
 40
0.0
 40
1.0
 40
1.0
 40
1.0
 40
1.0
 10
230.7538303378586
 20
140.0127427869021
 30
0.0
 10
230.7660458033144
 20
140.0129836620394
 30
0.0
 10
230.7782658397585
 20
140.013442016369
 30
0.0
 10
230.7904904568391
 20
140.0141188103519
 30
0.0
  0
SPLINE
  5
117
330
1F
100
AcDbEntity
  8
0
  6
Continuous
 62
     7
370
    15
100
AcDbSpline
210
0.0
220
0.0
230
1.0
 70
     8
 71
     3
 72
     8
 73
     4
 74
     0
 42
0.00000001
 43
0.00000001
 40
0.0
 40
0.0
 40
0.0
 40
0.0
 40
1.0
 40
1.0
 40
1.0
 40
1.0
 10
230.7904904568391
 20
89.04891895436873
 30
0.0
 10
230.7782603956699
 20
89.04947673699932
 30
0.0
 10
230.7660403758686
 20
89.04981042701941
 30
0.0
 10
230.7538303378586
 20
89.04992158618346
 30
0.0
  0
LINE
  5
118
330
1F
100
AcDbEntity
  8
0
  6
Continuous
 62
     7
370
    15
100
AcDbLine
 10
158.7711573258
 20
94.0571531129
 30
0.0
 11
158.7711573258
 21
94.0630215544
 31
0.0
  0
SPLINE
  5
119
330
1F
100
AcDbEntity
  8
0
  6
Continuous
 62
     7
370
    15
100
AcDbSpline
210
0.0
220
0.0
230
1.0
 70
     8
 71
     3
 72
    10
 73
     6
 74
     0
 42
0.00000001
 43
0.00000001
 40
0.0
 40
0.0
 40
0.0
 40
0.0
 40
0.5
 40
0.5
 40
1.0
 40
1.0
 40
1.0
 40
1.0
 10
230.7904904568391
 20
140.0141188103519
 30
0.0
 10
231.0055850344523
 20
140.0260271355709
 30
0.0
 10
231.2125921019117
 20
140.1084931406944
 30
0.0
 10
231.5460692999043
 20
140.385749236731
 30
0.0
 10
231.6649658463037
 20
140.5737431067476
 30
0.0
 10
231.7197561641476
 20
140.7820296539824
 30
0.0
  0
SPLINE
  5
11A
330
1F
100
AcDbEntity
  8
0
  6
Continuous
 62
     7
370
    15
100
AcDbSpline
210
0.0
220
0.0
230
1.0
 70
     8
 71
     3
 72
    10
 73
     6
 74
     0
 42
0.00000001
 43
0.00000001
 40
0.0
 40
0.0
 40
0.0
 40
0.0
 40
0.5
 40
0.5
 40
1.0
 40
1.0
 40
1.0
 40
1.0
 10
231.7197561641476
 20
88.29007374414986
 30
0.0
 10
231.6654384342301
 20
88.49603383118803
 30
0.0
 10
231.5437524165181
 20
88.68654084809259
 30
0.0
 10
231.2150375130285
 20
88.95667578222023
 30
0.0
 10
231.0062240912855
 20
89.03907988059265
 30
0.0
 10
230.7904904568391
 20
89.04891895436873
 30
0.0
  0
LINE
  5
11B
330
1F
100
AcDbEntity
  8
0
  6
Continuous
 62
     7
370
    15
100
AcDbLine
 10
231.7891065183
 20
141.0456157829
 30
0.0
 11
231.7197561641
 21
140.782029654
 31
0.0
  0
ELLIPSE
  5
11C
330
1F
100
AcDbEntity
  8
0
  6
Continuous
 62
     7
370
    15
100
AcDbEllipse
 10
300.1108634797
 20
114.8696531129
 30
0.0
 11
386.1179663612241
 21
1.892633952568971
 31
0.0
210
0.0
220
0.0
230
0.9999999999999999
 40
0.0697548059
 41
1.742493123985309
 42
1.748336298886567
  0
LINE
  5
11D
330
1F
100
AcDbEntity
  8
0
  6
Continuous
 62
     7
370
    15
100
AcDbLine
 10
250.0233719062
 20
118.2936531441
 30
0.0
 11
234.0108145971
 21
141.0838481302
 31
0.0
  0
LINE
  5
11E
330
1F
100
AcDbEntity
  8
0
  6
Continuous
 62
     7
370
    15
100
AcDbLine
 10
250.0233719062
 20
86.8194717961
 30
0.0
 11
250.0233719062
 21
118.2936531441
 31
0.0
  0
LINE
  5
11F
330
1F
100
AcDbEntity
  8
0
  6
Continuous
 62
     7
370
    15
100
AcDbLine
 10
251.1632877666
 20
84.6352741383
 30
0.0
 11
250.0233719062
 21
86.8194717961
 31
0.0
  0
LINE
  5
120
330
1F
100
AcDbEntity
  8
0
  6
Continuous
 62
     7
370
    15
100
AcDbLine
 10
237.4966060786
 20
91.6516921187
 30
0.0
 11
238.6712592118
 21
91.045936181
 31
0.0
  0
ARC
  5
121
330
1F
100
AcDbEntity
  8
0
  6
Continuous
 62
     7
370
    15
100
AcDbCircle
 10
236.585572956
 20
89.8827162608
 30
0.0
 40
1.989788163670137
100
AcDbArc
 50
62.7512623519
 51
242.36767688
  0
LINE
  5
122
330
1F
100
AcDbEntity
  8
0
  6
Continuous
 62
     7
370
    15
100
AcDbLine
 10
240.9367195096
 20
85.4001332415
 30
0.0
 11
235.6627173468
 21
88.119879212
 31
0.0
  0
LINE
  5
123
330
1F
100
AcDbEntity
  8
0
  6
Continuous
 62
     7
370
    15
100
AcDbLine
 10
232.7432942732
 20
84.4187755249
 30
0.0
 11
244.6546305289
 21
78.2762280277
 31
0.0
  0
SPLINE
  5
124
330
1F
100
AcDbEntity
  8
0
  6
Continuous
 62
     7
370
    15
100
AcDbSpline
210
0.0
220
0.0
230
1.0
 70
     8
 71
     3
 72
     8
 73
     4
 74
     0
 42
0.00000001
 43
0.00000001
 40
0.0
 40
0.0
 40
0.0
 40
0.0
 40
1.0
 40
1.0
 40
1.0
 40
1.0
 10
231.7197561641476
 20
88.29007374414986
 30
0.0
 10
232.060138083935
 20
86.99942536962976
 30
0.0
 10
232.4014170211883
 20
85.70901955349125
 30
0.0
 10
232.743294273225
 20
84.41877552491103
 30
0.0
  0
LINE
  5
125
330
1F
100
AcDbEntity
  8
0
  6
Continuous
 62
     7
370
    15
100
AcDbLine
 10
231.7891065183
 20
141.0456157829
 30
0.0
 11
231.7891065183
 21
141.8696531129
 31
0.0
  0
LINE
  5
126
330
1F
100
AcDbEntity
  8
0
  6
Continuous
 62
     7
370
    15
100
AcDbLine
 10
232.7432942732
 20
84.4187755249
 30
0.0
 11
232.7266365959
 21
84.4149683336
 31
0.0
  0
ELLIPSE
  5
127
330
1F
100
AcDbEntity
  8
0
  6
Continuous
 62
     7
370
    15
100
AcDbEllipse
 10
252.359600654
 20
114.8696531129
 30
0.0
 11
-19.04189087378847
 21
26.99870500558234
 31
0.0
210
0.0
220
0.0
230
1.0
 40
0.0138872275
 41
6.031539226669031
 42
6.273391110970802
  0
ARC
  5
128
330
1F
100
AcDbEntity
  8
0
  6
Continuous
 62
     7
370
    15
100
AcDbCircle
 10
236.4474296981
 20
90.0198435284
 30
0.0
 40
1.749233068634201
100
AcDbArc
 50
62.7252082645
 51
242.3937309673
  0
LINE
  5
129
330
1F
100
AcDbEntity
  8
0
  6
Continuous
 62
     7
370
    15
100
AcDbLine
 10
238.4041528658
 20
90.9789109789
 30
0.0
 11
237.2490307036
 21
91.5745950057
 31
0.0
  0
LINE
  5
12A
330
1F
100
AcDbEntity
  8
0
  6
Continuous
 62
     7
370
    15
100
AcDbLine
 10
240.6964082506
 20
85.8605946732
 30
0.0
 11
235.6368473447
 21
88.4697556029
 31
0.0
  0
LINE
  5
12B
330
1F
100
AcDbEntity
  8
0
  6
Continuous
 62
     7
370
    15
100
AcDbLine
 10
235.1229112616
 20
88.8733158715
 30
0.0
 11
235.4624561604
 21
88.6437219791
 31
0.0
  0
LINE
  5
12C
330
1F
100
AcDbEntity
  8
0
  6
Continuous
 62
     7
370
    15
100
AcDbLine
 10
235.4624561604
 20
88.6437219791
 30
0.0
 11
240.6364012378
 21
85.9755743671
 31
0.0
  0
LINE
  5
12D
330
1F
100
AcDbEntity
  8
0
  6
HIDDEN
 62
     7
370
     0
100
AcDbLine
 10
194.4711573258
 20
83.3696531129
 30
0.0
 11
194.4711573258
 21
83.38553013
 31
0.0
  0
SPLINE
  5
12E
330
1F
100
AcDbEntity
  8
0
  6
HIDDEN
 62
     7
370
     0
100
AcDbSpline
210
0.0
220
0.0
230
1.0
 70
     8
 71
     3
 72
    30
 73
    26
 74
     0
 42
0.00000001
 43
0.00000001
 40
0.0
 40
0.0
 40
0.0
 40
0.0
 40
0.1250000000000002
 40
0.1250000000000002
 40
0.1875000000000002
 40
0.1875000000000002
 40
0.2500000000000003
 40
0.2500000000000003
 40
0.3750000000000004
 40
0.3750000000000004
 40
0.4375000000000004
 40
0.4375000000000004
 40
0.5000000000000004
 40
0.5000000000000004
 40
0.6250000000000004
 40
0.6250000000000004
 40
0.6875000000000003
 40
0.6875000000000003
 40
0.7500000000000002
 40
0.7500000000000002
 40
0.8125000000000001
 40
0.8125000000000001
 40
0.8749999999999999
 40
0.8749999999999999
 40
1.0
 40
1.0
 40
1.0
 40
1.0
 10
194.4711573258375
 20
83.3855301300224
 30
0.0
 10
194.4711573258375
 20
83.40240904803103
 30
0.0
 10
194.5235748918159
 20
83.43242661285572
 30
0.0
 10
194.6769543717182
 20
83.49523700212882
 30
0.0
 10
194.740635492386
 20
83.51914090935571
 30
0.0
 10
194.8935903598377
 20
83.5725762017981
 30
0.0
 10
194.9831626586069
 20
83.60218306996566
 30
0.0
 10
195.2843866914601
 20
83.69663276868009
 30
0.0
 10
195.5297016875442
 20
83.7676601625093
 30
0.0
 10
195.9637986686145
 20
83.88167444921507
 30
0.0
 10
196.1204683577181
 20
83.92112970035565
 30
0.0
 10
196.4524615215605
 20
84.0006511431263
 30
0.0
 10
196.627167050553
 20
84.04058728562711
 30
0.0
 10
197.1768367331445
 20
84.15952368845525
 30
0.0
 10
197.5770876958558
 20
84.2376884523391
 30
0.0
 10
198.2306745624933
 20
84.34739789260799
 30
0.0
 10
198.4563506821704
 20
84.3824787293164
 30
0.0
 10
198.9160625033016
 20
84.44771900869601
 30
0.0
 10
199.1511158373448
 20
84.47805382474077
 30
0.0
 10
199.6316231196438
 20
84.5333922039626
 30
0.0
 10
199.8770766475579
 20
84.5583968805227
 30
0.0
 10
200.3786920723653
 20
84.60227668941336
 30
0.0
 10
200.6361844549658
 20
84.62122037417566
 30
0.0
 10
201.4142609714019
 20
84.66694010144586
 30
0.0
 10
201.9394232486468
 20
84.6827354166376
 30
0.0
 10
202.4711573258375
 20
84.6827354166376
 30
0.0
  0
LINE
  5
12F
330
1F
100
AcDbEntity
  8
0
  6
HIDDEN
 62
     7
370
     0
100
AcDbLine
 10
202.4711573258
 20
84.6827354166
 30
0.0
 11
204.1292244943
 21
84.6827354166
 31
0.0
  0
LINE
  5
130
330
1F
100
AcDbEntity
  8
0
  6
HIDDEN
 62
     7
370
     0
100
AcDbLine
 10
204.1292244943
 20
145.336848586
 30
0.0
 11
204.1292244943
 21
84.6827354166
 31
0.0
  0
LINE
  5
131
330
1F
100
AcDbEntity
  8
0
  6
HIDDEN
 62
     7
370
     0
100
AcDbLine
 10
202.4711573258
 20
145.336848586
 30
0.0
 11
204.1292244943
 21
145.336848586
 31
0.0
  0
SPLINE
  5
132
330
1F
100
AcDbEntity
  8
0
  6
HIDDEN
 62
     7
370
     0
100
AcDbSpline
210
0.0
220
0.0
230
1.0
 70
     8
 71
     3
 72
    17
 73
    13
 74
     0
 42
0.00000001
 43
0.00000001
 40
0.0
 40
0.0
 40
0.0
 40
0.0
 40
0.0638118569779106
 40
0.1662334015758575
 40
0.2715772286555434
 40
0.375012175571707
 40
0.4812892574314436
 40
0.5875617939750553
 40
0.696879251692842
 40
0.8035874883160896
 40
0.9135588806005728
 40
1.0
 40
1.0
 40
1.0
 40
1.0
 10
194.4991456849188
 20
146.3625582049274
 30
0.0
 10
194.4959485512805
 20
146.3633622862653
 30
0.0
 10
194.4876198420851
 20
146.3654569624315
 30
0.0
 10
194.7192556732315
 20
146.3069811233074
 30
0.0
 10
195.1543564298315
 20
146.2016714062017
 30
0.0
 10
195.8003587926035
 20
146.055858945179
 30
0.0
 10
196.6246299931503
 20
145.8884092975766
 30
0.0
 10
197.6271622766075
 20
145.7134361927937
 30
0.0
 10
198.769910166441
 20
145.5528480446278
 30
0.0
 10
200.0352442618354
 20
145.4254986346632
 30
0.0
 10
201.2819840777375
 20
145.3494106001082
 30
0.0
 10
202.1077415678997
 20
145.3406875841662
 30
0.0
 10
202.4711573258375
 20
145.3368485860489
 30
0.0
  0
SPLINE
  5
133
330
1F
100
AcDbEntity
  8
0
  6
HIDDEN
 62
     7
370
     0
100
AcDbSpline
210
0.0
220
0.0
230
1.0
 70
     8
 71
     3
 72
    76
 73
    72
 74
     0
 42
0.00000001
 43
0.00000001
 40
-0.0312499999999999
 40
-0.0312499999999999
 40
0.0
 40
0.0
 40
0.03125
 40
0.03125
 40
0.0468750000000001
 40
0.0468750000000001
 40
0.0625000000000001
 40
0.0625000000000001
 40
0.0937500000000001
 40
0.0937500000000001
 40
0.1250000000000001
 40
0.1250000000000001
 40
0.1562500000000001
 40
0.1562500000000001
 40
0.1875000000000001
 40
0.1875000000000001
 40
0.2187500000000001
 40
0.2187500000000001
 40
0.2500000000000001
 40
0.2500000000000001
 40
0.2812500000000001
 40
0.2812500000000001
 40
0.3125000000000001
 40
0.3125000000000001
 40
0.3281250000000002
 40
0.3281250000000002
 40
0.3437500000000002
 40
0.3437500000000002
 40
0.3750000000000002
 40
0.3750000000000002
 40
0.4062500000000002
 40
0.4062500000000002
 40
0.4375000000000003
 40
0.4375000000000003
 40
0.4687500000000003
 40
0.4687500000000003
 40
0.5000000000000003
 40
0.5000000000000003
 40
0.5312500000000003
 40
0.5312500000000003
 40
0.5625000000000004
 40
0.5625000000000004
 40
0.5937500000000004
 40
0.5937500000000004
 40
0.6250000000000004
 40
0.6250000000000004
 40
0.6562500000000006
 40
0.6562500000000006
 40
0.6875000000000006
 40
0.6875000000000006
 40
0.7031250000000004
 40
0.7031250000000004
 40
0.7187500000000003
 40
0.7187500000000003
 40
0.7500000000000002
 40
0.7500000000000002
 40
0.7812500000000002
 40
0.7812500000000002
 40
0.8125000000000002
 40
0.8125000000000002
 40
0.8437500000000002
 40
0.8437500000000002
 40
0.8750000000000003
 40
0.8750000000000003
 40
0.9062500000000002
 40
0.9062500000000002
 40
0.9375000000000001
 40
0.9375000000000001
 40
0.9687500000000001
 40
0.9687500000000001
 40
1.0
 40
1.0
 40
1.03125
 40
1.03125
 10
191.5211573258375
 20
115.2005371086788
 30
0.0
 10
191.5211573258375
 20
114.5387691170907
 30
0.0
 10
191.5536778036219
 20
114.2135179489948
 30
0.0
 10
191.6491710479039
 20
113.7337212281057
 30
0.0
 10
191.6888458833151
 20
113.5751455443121
 30
0.0
 10
191.7842324966508
 20
113.260763158519
 30
0.0
 10
191.8401767380614
 20
113.1046435349348
 30
0.0
 10
192.028539761511
 20
112.6507029750329
 30
0.0
 10
192.1821520379294
 20
112.3637227290259
 30
0.0
 10
192.5449798317135
 20
111.8206095722866
 30
0.0
 10
192.755814933296
 20
111.5638702807426
 30
0.0
 10
193.2163145033135
 20
111.1034856465117
 30
0.0
 10
193.4676774442313
 20
110.8967088297578
 30
0.0
 10
194.0140241385847
 20
110.5311846220944
 30
0.0
 10
194.3042387783027
 20
110.3761850633796
 30
0.0
 10
194.9056255946044
 20
110.1266540422854
 30
0.0
 10
195.2212552876948
 20
110.0303757685967
 30
0.0
 10
195.8668956889743
 20
109.9017267613537
 30
0.0
 10
196.1916514447877
 20
109.8698405022371
 30
0.0
 10
196.844951475179
 20
109.8694673547264
 30
0.0
 10
197.1768238160098
 20
109.9020468409724
 30
0.0
 10
197.8184750496134
 20
110.0298207456788
 30
0.0
 10
198.1303999665465
 20
110.1243531899759
 30
0.0
 10
198.5848895670634
 20
110.3124727845146
 30
0.0
 10
198.7347528748974
 20
110.3833557657354
 30
0.0
 10
199.02383810882
 20
110.5379723720698
 30
0.0
 10
199.1636990231281
 20
110.6218949708077
 30
0.0
 10
199.5695754668323
 20
110.8930904942834
 30
0.0
 10
199.8226136133219
 20
111.1001904997246
 30
0.0
 10
200.2885131694853
 20
111.5657929527819
 30
0.0
 10
200.4950192439811
 20
111.8177118051692
 30
0.0
 10
200.8571248073808
 20
112.3586154211701
 30
0.0
 10
201.0139839211959
 20
112.6511582639215
 30
0.0
 10
201.2649340380586
 20
113.256025920679
 30
0.0
 10
201.3597451373895
 20
113.5676727521257
 30
0.0
 10
201.4881670001826
 20
114.2094260573473
 30
0.0
 10
201.5210302866738
 20
114.5411538762266
 30
0.0
 10
201.5212836127824
 20
115.1942736414875
 30
0.0
 10
201.4897276122131
 20
115.5192068478306
 30
0.0
 10
201.3614863907887
 20
116.1657338542836
 30
0.0
 10
201.2656803421304
 20
116.4807418081446
 30
0.0
 10
201.0165468310362
 20
117.0827004762902
 30
0.0
 10
200.8610867093415
 20
117.3741766465657
 30
0.0
 10
200.4966324549817
 20
117.9197715830624
 30
0.0
 10
200.290199547546
 20
118.1712486980675
 30
0.0
 10
199.829730465028
 20
118.6325717221223
 30
0.0
 10
199.5729334569721
 20
118.8436950230687
 30
0.0
 10
199.0308882431376
 20
119.2064258047847
 30
0.0
 10
198.7441186632021
 20
119.3603147081703
 30
0.0
 10
198.2898114873165
 20
119.5492644348623
 30
0.0
 10
198.133671186543
 20
119.6053372308821
 30
0.0
 10
197.8198252251969
 20
119.7008399964148
 30
0.0
 10
197.6614384375031
 20
119.7406206394423
 30
0.0
 10
197.1819621975598
 20
119.8365031765676
 30
0.0
 10
196.8557222531329
 20
119.869378624567
 30
0.0
 10
196.1948476558549
 20
119.8699241937382
 30
0.0
 10
195.86971130851
 20
119.8377576751247
 30
0.0
 10
195.2296288080235
 20
119.7109751371375
 30
0.0
 10
194.9113078839557
 20
119.6147073833462
 30
0.0
 10
194.3063916051166
 20
119.364313061921
 30
0.0
 10
194.0192426914651
 20
119.2109989001995
 30
0.0
 10
193.4752911377921
 20
118.8482909761797
 30
0.0
 10
193.2186451880655
 20
118.6378519034458
 30
0.0
 10
192.7580546346526
 20
118.1779709151695
 30
0.0
 10
192.5509057486617
 20
117.9266891154767
 30
0.0
 10
192.1843745052484
 20
117.3797689417367
 30
0.0
 10
192.0296903177439
 20
117.0906287901205
 30
0.0
 10
191.7795906644057
 20
116.4893921162011
 30
0.0
 10
191.6829038899126
 20
116.1734164225604
 30
0.0
 10
191.5536823149563
 20
115.5274426644638
 30
0.0
 10
191.5211573258375
 20
115.2005371086788
 30
0.0
 10
191.5211573258375
 20
114.5387691170907
 30
0.0
  0
LINE
  5
134
330
1F
100
AcDbEntity
  8
0
  6
HIDDEN
 62
     7
370
     0
100
AcDbLine
 10
189.5211573258
 20
146.0696531129
 30
0.0
 11
189.5211573258
 21
83.6696531129
 31
0.0
  0
SPLINE
  5
135
330
1F
100
AcDbEntity
  8
0
  6
HIDDEN
 62
     7
370
     0
100
AcDbSpline
210
0.0
220
0.0
230
1.0
 70
     8
 71
     3
 72
    10
 73
     6
 74
     0
 42
0.00000001
 43
0.00000001
 40
0.0
 40
0.0
 40
0.0
 40
0.0
 40
0.5
 40
0.5
 40
1.0
 40
1.0
 40
1.0
 40
1.0
 10
205.7088321281698
 20
88.46965311288477
 30
0.0
 10
205.6766769405478
 20
88.40736706736867
 30
0.0
 10
205.6520207093536
 20
88.34083664249945
 30
0.0
 10
205.6192079524281
 20
88.20397801213703
 30
0.0
 10
205.6111573258375
 20
88.13492041695869
 30
0.0
 10
205.6111573258375
 20
88.0652574845554
 30
0.0
  0
SPLINE
  5
136
330
1F
100
AcDbEntity
  8
0
  6
HIDDEN
 62
     7
370
     0
100
AcDbSpline
210
0.0
220
0.0
230
1.0
 70
    24
 71
     3
 72
    10
 73
     6
 74
     0
 42
0.00000001
 43
0.00000001
 40
0.0
 40
0.0
 40
0.0
 40
0.0
 40
0.5
 40
0.5
 40
1.0
 40
1.0
 40
1.0
 40
1.0
 10
205.6111573258375
 20
134.7196531128847
 30
0.0
 10
205.6111573258375
 20
134.7196531128847
 30
0.0
 10
205.6133791843222
 20
134.7196531128847
 30
0.0
 10
205.6221158560458
 20
134.7196531128847
 30
0.0
 10
205.6286273698401
 20
134.7196531128847
 30
0.0
 10
205.6373049489976
 20
134.7196531128847
 30
0.0
  0
LINE
  5
137
330
1F
100
AcDbEntity
  8
0
  6
HIDDEN
 62
     7
370
     0
100
AcDbLine
 10
205.6111573258
 20
135.0055197443
 30
0.0
 11
205.6111573258
 21
141.9893069639
 31
0.0
  0
LINE
  5
138
330
1F
100
AcDbEntity
  8
0
  6
HIDDEN
 62
     7
370
     0
100
AcDbLine
 10
205.6111573258
 20
88.0652574846
 30
0.0
 11
205.6111573258
 21
134.7196531129
 31
0.0
  0
SPLINE
  5
139
330
1F
100
AcDbEntity
  8
0
  6
HIDDEN
 62
     7
370
     0
100
AcDbSpline
210
0.0
220
0.0
230
1.0
 70
     8
 71
     3
 72
    10
 73
     6
 74
     0
 42
0.00000001
 43
0.00000001
 40
0.0
 40
0.0
 40
0.0
 40
0.0
 40
0.5
 40
0.5
 40
1.0
 40
1.0
 40
1.0
 40
1.0
 10
209.4311573258375
 20
88.0652574845554
 30
0.0
 10
209.4311573258375
 20
88.13549384492616
 30
0.0
 10
209.422874713747
 20
88.20548794642366
 30
0.0
 10
209.3897747706884
 20
88.34244721098258
 30
0.0
 10
209.36543737873
 20
88.40775512023785
 30
0.0
 10
209.3334825235053
 20
88.46965311288474
 30
0.0
  0
LINE
  5
13A
330
1F
100
AcDbEntity
  8
0
  6
HIDDEN
 62
     7
370
     0
100
AcDbLine
 10
209.4311573258
 20
135.0055197443
 30
0.0
 11
209.4311573258
 21
141.9893069639
 31
0.0
  0
SPLINE
  5
13B
330
1F
100
AcDbEntity
  8
0
  6
HIDDEN
 62
     7
370
     0
100
AcDbSpline
210
0.0
220
0.0
230
1.0
 70
    24
 71
     3
 72
    10
 73
     6
 74
     0
 42
0.00000001
 43
0.00000001
 40
0.0
 40
0.0
 40
0.0
 40
0.0
 40
0.5
 40
0.5
 40
1.0
 40
1.0
 40
1.0
 40
1.0
 10
209.4050097026774
 20
134.7196531128847
 30
0.0
 10
209.413687477585
 20
134.7196531128847
 30
0.0
 10
209.4202405015919
 20
134.7196531128847
 30
0.0
 10
209.428975111089
 20
134.7196531128847
 30
0.0
 10
209.4311573258375
 20
134.7196531128847
 30
0.0
 10
209.4311573258375
 20
134.7196531128847
 30
0.0
  0
LINE
  5
13C
330
1F
100
AcDbEntity
  8
0
  6
HIDDEN
 62
     7
370
     0
100
AcDbLine
 10
209.4311573258
 20
88.0652574846
 30
0.0
 11
209.4311573258
 21
134.7196531129
 31
0.0
  0
SPLINE
  5
13D
330
1F
100
AcDbEntity
  8
0
  6
HIDDEN
 62
     7
370
     0
100
AcDbSpline
210
0.0
220
0.0
230
1.0
 70
    24
 71
     3
 72
    18
 73
    14
 74
     0
 42
0.00000001
 43
0.00000001
 40
0.0
 40
0.0
 40
0.0
 40
0.0
 40
0.4999999999999998
 40
0.4999999999999998
 40
0.7499999999999998
 40
0.7499999999999998
 40
0.8749999999999998
 40
0.8749999999999998
 40
0.9374999999999999
 40
0.9374999999999999
 40
0.9687499999999999
 40
0.9687499999999999
 40
1.0
 40
1.0
 40
1.0
 40
1.0
 10
215.4711573258375
 20
141.2696531128847
 30
0.0
 10
215.4711573258375
 20
141.2696531128847
 30
0.0
 10
215.5270064663222
 20
141.2696531128847
 30
0.0
 10
215.6027238598847
 20
141.2696531128847
 30
0.0
 10
215.6269132095896
 20
141.2696531128847
 30
0.0
 10
215.6526569745706
 20
141.2696531128847
 30
0.0
 10
215.6595026209432
 20
141.2696531128847
 30
0.0
 10
215.6664424391367
 20
141.2696531128847
 30
0.0
 10
215.6682048811896
 20
141.2696531128847
 30
0.0
 10
215.6699730548918
 20
141.2696531128847
 30
0.0
 10
215.6704168505707
 20
141.2696531128847
 30
0.0
 10
215.671009022467
 20
141.2696531128847
 30
0.0
 10
215.6711573921358
 20
141.2696531128847
 30
0.0
 10
215.6711573258137
 20
141.2696531128847
 30
0.0
  0
SPLINE
  5
13E
330
1F
100
AcDbEntity
  8
0
  6
HIDDEN
 62
     7
370
     0
100
AcDbSpline
210
0.0
220
0.0
230
1.0
 70
    24
 71
     3
 72
     9
 73
     5
 74
     0
 42
0.00000001
 43
0.00000001
 40
0.0
 40
0.0
 40
0.0
 40
0.0
 40
0.0943941708964088
 40
1.0
 40
1.0
 40
1.0
 40
1.0
 10
215.6294847577812
 20
141.2696531128847
 30
0.0
 10
215.626297034686
 20
141.2696531128847
 30
0.0
 10
215.5925266962751
 20
141.2696531128847
 30
0.0
 10
215.5288359956149
 20
141.2696531128847
 30
0.0
 10
215.4711573258375
 20
141.2696531128847
 30
0.0
  0
LINE
  5
13F
330
1F
100
AcDbEntity
  8
0
  6
HIDDEN
 62
     7
370
     0
100
AcDbLine
 10
215.4711573258
 20
141.2696531129
 30
0.0
 11
215.4711573258
 21
88.4696531129
 31
0.0
  0
SPLINE
  5
140
330
1F
100
AcDbEntity
  8
0
  6
HIDDEN
 62
     7
370
     0
100
AcDbSpline
210
0.0
220
0.0
230
1.0
 70
    24
 71
     3
 72
    18
 73
    14
 74
     0
 42
0.00000001
 43
0.00000001
 40
0.0
 40
0.0
 40
0.0
 40
0.0
 40
0.5000000000000001
 40
0.5000000000000001
 40
0.7499999999999999
 40
0.7499999999999999
 40
0.875
 40
0.875
 40
0.9375
 40
0.9375
 40
0.96875
 40
0.96875
 40
1.0
 40
1.0
 40
1.0
 40
1.0
 10
215.4711573258375
 20
88.46965311288473
 30
0.0
 10
215.4711573258375
 20
88.46965311288473
 30
0.0
 10
215.5270064901515
 20
88.46965311288473
 30
0.0
 10
215.6027238979246
 20
88.46965311288473
 30
0.0
 10
215.626913248835
 20
88.46965311288473
 30
0.0
 10
215.6526570059012
 20
88.46965311288474
 30
0.0
 10
215.6595026480551
 20
88.46965311288474
 30
0.0
 10
215.6664424576305
 20
88.46965311288471
 30
0.0
 10
215.6682048964352
 20
88.46965311288473
 30
0.0
 10
215.6699730647672
 20
88.46965311288471
 30
0.0
 10
215.6704168585737
 20
88.46965311288473
 30
0.0
 10
215.6710090265752
 20
88.46965311288473
 30
0.0
 10
215.6711573940795
 20
88.46965311288473
 30
0.0
 10
215.6711573258122
 20
88.46965311288473
 30
0.0
  0
LINE
  5
141
330
1F
100
AcDbEntity
  8
0
  6
HIDDEN
 62
     7
370
     0
100
AcDbLine
 10
215.4711573258
 20
88.4696531129
 30
0.0
 11
215.4711573258
 21
141.2696531129
 31
0.0
  0
SPLINE
  5
142
330
1F
100
AcDbEntity
  8
0
  6
HIDDEN
 62
     7
370
     0
100
AcDbSpline
210
0.0
220
0.0
230
1.0
 70
    11
 71
     3
 72
    29
 73
    25
 74
     0
 42
0.00000001
 43
0.00000001
 40
0.0
 40
0.0
 40
0.0
 40
0.0
 40
0.0314529557804419
 40
0.0845317250957439
 40
0.137610608720399
 40
0.1831891744770736
 40
0.1906892730573723
 40
0.2438851322016082
 40
0.2975364503863865
 40
0.3520264174121347
 40
0.4072476243386297
 40
0.4622340663933731
 40
0.5157649872427886
 40
0.5676641560795813
 40
0.619109116521335
 40
0.6715780814733988
 40
0.7257119653131988
 40
0.7809146054846551
 40
0.8359677794217932
 40
0.8901496229982214
 40
0.9435873588409301
 40
0.9602671723183696
 40
0.9967137359697451
 40
1.0
 40
1.0
 40
1.0
 40
1.0
 10
219.0296316212078
 20
112.150079040124
 30
0.0
 10
219.0068987657693
 20
112.3137663125589
 30
0.0
 10
218.9458028388878
 20
112.7536857786887
 30
0.0
 10
219.0985118229421
 20
113.4733312860907
 30
0.0
 10
219.4769406265357
 20
114.2033190360022
 30
0.0
 10
219.9457727939262
 20
114.5232897288937
 30
0.0
 10
220.3586171382198
 20
114.9007379727664
 30
0.0
 10
220.9649905396778
 20
115.0801859565038
 30
0.0
 10
221.8133921456983
 20
115.1369623876297
 30
0.0
 10
222.6560468831288
 20
114.8851290369486
 30
0.0
 10
223.3728135170595
 20
114.3737783003387
 30
0.0
 10
223.8756313768268
 20
113.6539240266209
 30
0.0
 10
224.098275365151
 20
112.8245915808552
 30
0.0
 10
224.0281154860172
 20
111.9907491863121
 30
0.0
 10
223.6885240852412
 20
111.2353021040586
 30
0.0
 10
223.1142388350005
 20
110.6224522185287
 30
0.0
 10
222.3528115463269
 20
110.2157839201105
 30
0.0
 10
221.4855599631894
 20
110.0749458038654
 30
0.0
 10
220.6127804466016
 20
110.2246914291006
 30
0.0
 10
219.8749407700377
 20
110.6585653538065
 30
0.0
 10
219.3874989727201
 20
111.1360763511399
 30
0.0
 10
219.2202842597366
 20
111.6686068645341
 30
0.0
 10
219.0478223277864
 20
111.9252616962498
 30
0.0
 10
219.031021224343
 20
112.1329050571051
 30
0.0
 10
219.0296316212078
 20
112.150079040124
 30
0.0
  0
LINE
  5
143
330
1F
100
AcDbEntity
  8
0
  6
HIDDEN
 62
     7
370
     0
100
AcDbLine
 10
189.5211573258
 20
89.5457291918
 30
0.0
 11
189.5211573258
 21
140.193577034
 31
0.0
  0
LINE
  5
144
330
1F
100
AcDbEntity
  8
0
  6
HIDDEN
 62
     7
370
     0
100
AcDbLine
 10
194.4711573258
 20
134.7196531129
 30
0.0
 11
201.7167776715
 21
134.7196531129
 31
0.0
  0
LWPOLYLINE
  5
145
330
1F
100
AcDbEntity
  8
0
  6
HIDDEN
 62
     7
370
     0
100
AcDbPolyline
 90
        2
 70
   128
 43
0.0
 10
209.4311573258
 20
134.7196531129
 10
209.4311573258
 20
134.7196531129
  0
LWPOLYLINE
  5
146
330
1F
100
AcDbEntity
  8
0
  6
HIDDEN
 62
     7
370
     0
100
AcDbPolyline
 90
        2
 70
   128
 43
0.0
 10
215.4711573258
 20
134.7196531129
 10
215.4711573258
 20
134.7196531129
  0
LWPOLYLINE
  5
147
330
1F
100
AcDbEntity
  8
0
  6
HIDDEN
 62
     7
370
     0
100
AcDbPolyline
 90
        2
 70
   128
 43
0.0
 10
205.6111573258
 20
134.7196531129
 10
205.6111573258
 20
134.7196531129
  0
LWPOLYLINE
  5
148
330
1F
100
AcDbEntity
  8
0
  6
HIDDEN
 62
     7
370
     0
100
AcDbPolyline
 90
       24
 70
   128
 43
0.0
 10
213.5651564522
 20
118.8645621366
 10
213.5512739398
 20
119.0940312124
 10
213.4240201916
 20
119.2199883381
 10
213.1927731402
 20
119.2331511353
 10
212.8745744784
 20
119.1325495751
 10
212.4928737757
 20
118.925597464
 10
212.0758003686
 20
118.6275460851
 10
211.6540903759
 20
118.2603602592
 10
211.2588216085
 20
117.8510996525
 10
210.9191232978
 20
117.4299246215
 10
210.6600294246
 20
117.0278735532
 10
210.500633846
 20
116.6745754991
 10
210.4526831789
 20
116.3960666695
 10
210.5197111355
 20
116.2128717019
 10
210.6967781074
 20
116.138491103
 10
210.9708351892
 20
116.178406332
 10
211.3216858138
 20
116.3296758464
 10
211.7234741334
 20
116.5811518777
 10
212.14659046
 20
116.9143019636
 10
212.5598533431
 20
117.304574693
 10
212.9328074795
 20
117.7232090163
 10
213.2379681089
 20
118.1393537833
 10
213.4528464961
 20
118.522341311
 10
213.561607233
 20
118.8439474309
  0
SPLINE
  5
149
330
1F
100
AcDbEntity
  8
0
  6
HIDDEN
 62
     7
370
     0
100
AcDbSpline
210
0.0
220
0.0
230
1.0
 70
     8
 71
     3
 72
   110
 73
   106
 74
     0
 42
0.00000001
 43
0.00000001
 40
0.0
 40
0.0
 40
0.0
 40
0.0
 40
0.0156249999999997
 40
0.0156249999999997
 40
0.0312499999999994
 40
0.0312499999999994
 40
0.0468749999999991
 40
0.0468749999999991
 40
0.0624999999999988
 40
0.0624999999999988
 40
0.0781249999999985
 40
0.0781249999999985
 40
0.0937499999999982
 40
0.0937499999999982
 40
0.1249999999999982
 40
0.1249999999999982
 40
0.1562499999999982
 40
0.1562499999999982
 40
0.1874999999999982
 40
0.1874999999999982
 40
0.2031249999999982
 40
0.2031249999999982
 40
0.2187499999999982
 40
0.2187499999999982
 40
0.2499999999999984
 40
0.2499999999999984
 40
0.2656249999999984
 40
0.2656249999999984
 40
0.2812499999999984
 40
0.2812499999999984
 40
0.2968749999999984
 40
0.2968749999999984
 40
0.3124999999999983
 40
0.3124999999999983
 40
0.3281249999999983
 40
0.3281249999999983
 40
0.3437499999999983
 40
0.3437499999999983
 40
0.3749999999999984
 40
0.3749999999999984
 40
0.4062499999999984
 40
0.4062499999999984
 40
0.4374999999999985
 40
0.4374999999999985
 40
0.4531249999999986
 40
0.4531249999999986
 40
0.4687499999999986
 40
0.4687499999999986
 40
0.4843749999999986
 40
0.4843749999999986
 40
0.4999999999999987
 40
0.4999999999999987
 40
0.5156249999999987
 40
0.5156249999999987
 40
0.5312499999999988
 40
0.5312499999999988
 40
0.5468749999999988
 40
0.5468749999999988
 40
0.5624999999999988
 40
0.5624999999999988
 40
0.5937499999999989
 40
0.5937499999999989
 40
0.6249999999999989
 40
0.6249999999999989
 40
0.656249999999999
 40
0.656249999999999
 40
0.671874999999999
 40
0.671874999999999
 40
0.6874999999999991
 40
0.6874999999999991
 40
0.7031249999999991
 40
0.7031249999999991
 40
0.7187499999999991
 40
0.7187499999999991
 40
0.7343749999999992
 40
0.7343749999999992
 40
0.7499999999999992
 40
0.7499999999999992
 40
0.7656249999999992
 40
0.7656249999999992
 40
0.7812499999999993
 40
0.7812499999999993
 40
0.7968749999999993
 40
0.7968749999999993
 40
0.8124999999999993
 40
0.8124999999999993
 40
0.8281249999999994
 40
0.8281249999999994
 40
0.8437499999999994
 40
0.8437499999999994
 40
0.8749999999999996
 40
0.8749999999999996
 40
0.9062499999999998
 40
0.9062499999999998
 40
0.9218749999999998
 40
0.9218749999999998
 40
0.9374999999999999
 40
0.9374999999999999
 40
0.9531249999999999
 40
0.9531249999999999
 40
0.9687499999999999
 40
0.9687499999999999
 40
0.984375
 40
0.984375
 40
1.0
 40
1.0
 40
1.0
 40
1.0
 10
210.9872253774496
 20
115.9347298027996
 30
0.0
 10
211.0391307901734
 20
115.8557575253066
 30
0.0
 10
211.0953315266989
 20
115.7774247631963
 30
0.0
 10
211.2209126417386
 20
115.6179342363868
 30
0.0
 10
211.2903922794642
 20
115.5364859079891
 30
0.0
 10
211.4501481362719
 20
115.3687369922395
 30
0.0
 10
211.542155538646
 20
115.2812855108417
 30
0.0
 10
211.7380072477112
 20
115.1231725320243
 30
0.0
 10
211.8393476733117
 20
115.0546383067308
 30
0.0
 10
212.0414456799803
 20
114.9430501956599
 30
0.0
 10
212.1439896217186
 20
114.8985059533537
 30
0.0
 10
212.3535144756949
 20
114.8295438553713
 30
0.0
 10
212.4590995060619
 20
114.8055128546839
 30
0.0
 10
212.782254328951
 20
114.7620043869923
 30
0.0
 10
213.0094776999825
 20
114.7720888040401
 30
0.0
 10
213.4565164357955
 20
114.8721708181715
 30
0.0
 10
213.6839089409722
 20
114.964701276045
 30
0.0
 10
214.0996440183859
 20
115.221107539835
 30
0.0
 10
214.2939729590187
 20
115.3888736201124
 30
0.0
 10
214.5350024782662
 20
115.6722771960762
 30
0.0
 10
214.6087019115382
 20
115.7738464575101
 30
0.0
 10
214.7366537873223
 20
115.9808371487816
 30
0.0
 10
214.7915470164991
 20
116.0867366040886
 30
0.0
 10
214.9310329963896
 20
116.4105858636852
 30
0.0
 10
214.9870835138977
 20
116.6278561989706
 30
0.0
 10
215.0255590402699
 20
116.938947865433
 30
0.0
 10
215.0305880425307
 20
117.038252216838
 30
0.0
 10
215.029278283169
 20
117.2259333869422
 30
0.0
 10
215.0226943991441
 20
117.3147959322792
 30
0.0
 10
215.0055218038954
 20
117.4730564150751
 30
0.0
 10
214.9947753367696
 20
117.5417208511597
 30
0.0
 10
214.9909753945388
 20
117.6293350859432
 30
0.0
 10
215.0006033153993
 20
117.6445346179655
 30
0.0
 10
215.045416308369
 20
117.6203023029669
 30
0.0
 10
215.0780817647494
 20
117.5850087626462
 30
0.0
 10
215.147184177661
 20
117.4970066716214
 30
0.0
 10
215.184233801864
 20
117.4432648491576
 30
0.0
 10
215.291822678001
 20
117.26972492579
 30
0.0
 10
215.3598142736208
 20
117.1365357746122
 30
0.0
 10
215.4734806228526
 20
116.8488347499175
 30
0.0
 10
215.5199130986547
 20
116.6929840952145
 30
0.0
 10
215.5777263482274
 20
116.3589072456467
 30
0.0
 10
215.5893906750868
 20
116.1826707498344
 30
0.0
 10
215.5632660950174
 20
115.8999972012836
 30
0.0
 10
215.5472604285818
 20
115.8041935261831
 30
0.0
 10
215.4959076898907
 20
115.6086922064278
 30
0.0
 10
215.4599925134368
 20
115.5076840966595
 30
0.0
 10
215.3632443780423
 20
115.3076590806383
 30
0.0
 10
215.301779487139
 20
115.2075707848204
 30
0.0
 10
215.1513373305617
 20
115.0181574113978
 30
0.0
 10
215.06417434543
 20
114.9307603749586
 30
0.0
 10
214.8655328211173
 20
114.7737717274189
 30
0.0
 10
214.7594146609606
 20
114.7083814336048
 30
0.0
 10
214.5383054919913
 20
114.6008053644162
 30
0.0
 10
214.4276510037817
 20
114.5605098790638
 30
0.0
 10
214.2060649717044
 20
114.4993619654466
 30
0.0
 10
214.0955074606258
 20
114.4788866471816
 30
0.0
 10
213.8817018244707
 20
114.4539934386638
 30
0.0
 10
213.777261494147
 20
114.4492904535503
 30
0.0
 10
213.4693808133893
 20
114.4533213078724
 30
0.0
 10
213.2732284828568
 20
114.4800901783718
 30
0.0
 10
212.9017371633327
 20
114.5655837613804
 30
0.0
 10
212.7245926901583
 20
114.6245318500983
 30
0.0
 10
212.3796600771491
 20
114.773498516896
 30
0.0
 10
212.2131348656202
 20
114.8622549913522
 30
0.0
 10
211.9635449837962
 20
115.0311788902099
 30
0.0
 10
211.8807843638138
 20
115.0931921796952
 30
0.0
 10
211.7129180022692
 20
115.2395080116209
 30
0.0
 10
211.6271145409532
 20
115.3251110596266
 30
0.0
 10
211.4703244710429
 20
115.520690834327
 30
0.0
 10
211.4031311450826
 20
115.626736429791
 30
0.0
 10
211.2977489348938
 20
115.8399032186764
 30
0.0
 10
211.2578952567538
 20
115.9487393603722
 30
0.0
 10
211.199718756036
 20
116.1684906609122
 30
0.0
 10
211.1814108411326
 20
116.2788850408702
 30
0.0
 10
211.1636160573404
 20
116.5033884365198
 30
0.0
 10
211.1643164126517
 20
116.6184418955166
 30
0.0
 10
211.1849077409551
 20
116.8486282925453
 30
0.0
 10
211.2045704436969
 20
116.963101090378
 30
0.0
 10
211.2626667559033
 20
117.1914389661504
 30
0.0
 10
211.3015784350356
 20
117.3063761741978
 30
0.0
 10
211.3980338455149
 20
117.5308078194768
 30
0.0
 10
211.4547794629428
 20
117.6389161581537
 30
0.0
 10
211.5852661651104
 20
117.8470510760722
 30
0.0
 10
211.6600027193689
 20
117.9481788015425
 30
0.0
 10
211.8230829082722
 20
118.1360292703462
 30
0.0
 10
211.910518665564
 20
118.2220990742779
 30
0.0
 10
212.096649740495
 20
118.3790603560696
 30
0.0
 10
212.1962407305329
 20
118.4502839601462
 30
0.0
 10
212.4987095583485
 20
118.6326847111476
 30
0.0
 10
212.7122406301443
 20
118.7168313352206
 30
0.0
 10
213.1229186420508
 20
118.8095163497628
 30
0.0
 10
213.3241331957829
 20
118.8188835552195
 30
0.0
 10
213.5910524383838
 20
118.7915716604869
 30
0.0
 10
213.6755579320677
 20
118.77553880159
 30
0.0
 10
213.8262680355283
 20
118.7356048242944
 30
0.0
 10
213.8931039935556
 20
118.7112891572217
 30
0.0
 10
213.9888158582586
 20
118.6706230660614
 30
0.0
 10
214.015323662179
 20
118.6558048108309
 30
0.0
 10
214.0070051535009
 20
118.6586457761316
 30
0.0
 10
213.9743441182557
 20
118.6753658340882
 30
0.0
 10
213.8850485929383
 20
118.720687676834
 30
0.0
 10
213.8280214644191
 20
118.7491152203066
 30
0.0
 10
213.7040829443774
 20
118.8066723399848
 30
0.0
 10
213.6365166959762
 20
118.8361805559335
 30
0.0
 10
213.5651564521957
 20
118.8645621366099
 30
0.0
  0
SPLINE
  5
14A
330
1F
100
AcDbEntity
  8
0
  6
HIDDEN
 62
     7
370
     0
100
AcDbSpline
210
0.0
220
0.0
230
1.0
 70
     8
 71
     3
 72
    42
 73
    38
 74
     0
 42
0.00000001
 43
0.00000001
 40
0.0
 40
0.0
 40
0.0
 40
0.0
 40
0.1250000000000006
 40
0.1250000000000006
 40
0.1875000000000008
 40
0.1875000000000008
 40
0.2500000000000011
 40
0.2500000000000011
 40
0.3125000000000014
 40
0.3125000000000014
 40
0.3750000000000017
 40
0.3750000000000017
 40
0.4375000000000019
 40
0.4375000000000019
 40
0.4687500000000023
 40
0.4687500000000023
 40
0.5000000000000026
 40
0.5000000000000026
 40
0.5312500000000029
 40
0.5312500000000029
 40
0.5625000000000033
 40
0.5625000000000033
 40
0.6250000000000046
 40
0.6250000000000046
 40
0.6875000000000059
 40
0.6875000000000059
 40
0.7187500000000062
 40
0.7187500000000062
 40
0.7500000000000066
 40
0.7500000000000066
 40
0.812500000000005
 40
0.812500000000005
 40
0.8750000000000033
 40
0.8750000000000033
 40
0.9375000000000017
 40
0.9375000000000017
 40
1.0
 40
1.0
 40
1.0
 40
1.0
 10
213.5616072329738
 20
118.8439474308889
 30
0.0
 10
213.6358463810583
 20
118.6570087910864
 30
0.0
 10
213.6851384669054
 20
118.4611574633869
 30
0.0
 10
213.6996607791008
 20
118.1525962776938
 30
0.0
 10
213.6940488213262
 20
118.0484999870333
 30
0.0
 10
213.6531551616584
 20
117.8450126482975
 30
0.0
 10
213.6175264116872
 20
117.7456021997896
 30
0.0
 10
213.5072220311509
 20
117.5696477407031
 30
0.0
 10
213.4299144880691
 20
117.4927252274465
 30
0.0
 10
213.2476956879257
 20
117.3813534457684
 30
0.0
 10
213.1419605133925
 20
117.3451196214593
 30
0.0
 10
212.926485879984
 20
117.2890559546909
 30
0.0
 10
212.8136278393528
 20
117.2695496700869
 30
0.0
 10
212.6503388256965
 20
117.2093619970042
 30
0.0
 10
212.5964384215812
 20
117.1830296774529
 30
0.0
 10
212.505252796139
 20
117.1066016391449
 30
0.0
 10
212.4703470154107
 20
117.0563258512955
 30
0.0
 10
212.426432953426
 20
116.9489789815221
 30
0.0
 10
212.4155440599642
 20
116.8922764629789
 30
0.0
 10
212.4032565062085
 20
116.7809469095864
 30
0.0
 10
212.4018207102308
 20
116.725834213123
 30
0.0
 10
212.4014747102429
 20
116.5616525925618
 30
0.0
 10
212.4068406504445
 20
116.4533591343539
 30
0.0
 10
212.3977825866659
 20
116.2421881880646
 30
0.0
 10
212.3831194714919
 20
116.1370835686956
 30
0.0
 10
212.3210138585346
 20
115.9997489800739
 30
0.0
 10
212.2932491549312
 20
115.9571500710599
 30
0.0
 10
212.2257009080789
 20
115.8845063762699
 30
0.0
 10
212.1864270520794
 20
115.8544490896342
 30
0.0
 10
212.055361440825
 20
115.780827909731
 30
0.0
 10
211.9570965853436
 20
115.7564258400284
 30
0.0
 10
211.7569221110675
 20
115.7361241617245
 30
0.0
 10
211.6567080192162
 20
115.7405335763051
 30
0.0
 10
211.4579209022476
 20
115.7682446710999
 30
0.0
 10
211.3591508569435
 20
115.7919918740592
 30
0.0
 10
211.1689684261044
 20
115.8533157992749
 30
0.0
 10
211.0767583796429
 20
115.8910409295617
 30
0.0
 10
210.9872253774495
 20
115.9347298027996
 30
0.0
  0
SPLINE
  5
14B
330
1F
100
AcDbEntity
  8
0
  6
HIDDEN
 62
     7
370
     0
100
AcDbSpline
210
0.0
220
0.0
230
1.0
 70
     8
 71
     3
 72
    14
 73
    10
 74
     0
 42
0.00000001
 43
0.00000001
 40
0.0
 40
0.0
 40
0.0
 40
0.0
 40
0.25
 40
0.25
 40
0.5
 40
0.5
 40
0.75
 40
0.75
 40
1.0
 40
1.0
 40
1.0
 40
1.0
 10
210.7908287986319
 20
116.5722026220636
 30
0.0
 10
210.8300319637731
 20
116.6797190668492
 30
0.0
 10
210.8682628404883
 20
116.7886739765722
 30
0.0
 10
210.9386023714493
 20
117.0125408143524
 30
0.0
 10
210.970965599605
 20
117.129336419149
 30
0.0
 10
211.0195806513493
 20
117.3618540905355
 30
0.0
 10
211.0356491437085
 20
117.4778559680513
 30
0.0
 10
211.0535222909167
 20
117.7090002608898
 30
0.0
 10
211.0553573480147
 20
117.820826725715
 30
0.0
 10
211.0578845004714
 20
117.9314251055149
 30
0.0
  0
SPLINE
  5
14C
330
1F
100
AcDbEntity
  8
0
  6
HIDDEN
 62
     7
370
     0
100
AcDbSpline
210
0.0
220
0.0
230
1.0
 70
     8
 71
     3
 72
    14
 73
    10
 74
     0
 42
0.00000001
 43
0.00000001
 40
0.0
 40
0.0
 40
0.0
 40
0.0
 40
0.25
 40
0.25
 40
0.5
 40
0.5
 40
0.75
 40
0.75
 40
1.0
 40
1.0
 40
1.0
 40
1.0
 10
211.0578845004713
 20
117.9314251055148
 30
0.0
 10
211.0109747803938
 20
117.830304513192
 30
0.0
 10
210.9711881238485
 20
117.7253046192888
 30
0.0
 10
210.8992746910952
 20
117.4993611154519
 30
0.0
 10
210.8678544428204
 20
117.3787788275638
 30
0.0
 10
210.8197744193874
 20
117.138163001552
 30
0.0
 10
210.8030333501982
 20
117.0173367145984
 30
0.0
 10
210.7856861770449
 20
116.786860207957
 30
0.0
 10
210.784864932465
 20
116.6762543031139
 30
0.0
 10
210.7908287986319
 20
116.5722026220636
 30
0.0
  0
SPLINE
  5
14D
330
1F
100
AcDbEntity
  8
0
  6
HIDDEN
 62
     7
370
     0
100
AcDbSpline
210
0.0
220
0.0
230
1.0
 70
     8
 71
     3
 72
    16
 73
    12
 74
     0
 42
0.00000001
 43
0.00000001
 40
0.0
 40
0.0
 40
0.0
 40
0.0
 40
0.2500000000000009
 40
0.2500000000000009
 40
0.5000000000000019
 40
0.5000000000000019
 40
0.6250000000000019
 40
0.6250000000000019
 40
0.7500000000000019
 40
0.7500000000000019
 40
1.0
 40
1.0
 40
1.0
 40
1.0
 10
213.5651564521957
 20
118.8645621366099
 30
0.0
 10
213.439999431441
 20
118.9074442630297
 30
0.0
 10
213.3051160340249
 20
118.936357416723
 30
0.0
 10
213.002545442457
 20
118.9606977882743
 30
0.0
 10
212.831048778215
 20
118.9548627169338
 30
0.0
 10
212.5595046676988
 20
118.9134072208583
 30
0.0
 10
212.4686678163359
 20
118.8947378179297
 30
0.0
 10
212.2858266489409
 20
118.8487057455416
 30
0.0
 10
212.1991583512753
 20
118.822781810317
 30
0.0
 10
211.9491464814888
 20
118.7380945266642
 30
0.0
 10
211.8035179433956
 20
118.6774315784489
 30
0.0
 10
211.658734791344
 20
118.5950981249089
 30
0.0
  0
SPLINE
  5
14E
330
1F
100
AcDbEntity
  8
0
  6
HIDDEN
 62
     7
370
     0
100
AcDbSpline
210
0.0
220
0.0
230
1.0
 70
     8
 71
     3
 72
    16
 73
    12
 74
     0
 42
0.00000001
 43
0.00000001
 40
0.0
 40
0.0
 40
0.0
 40
0.0
 40
0.2500000000000009
 40
0.2500000000000009
 40
0.3750000000000027
 40
0.3750000000000027
 40
0.5000000000000043
 40
0.5000000000000043
 40
0.7500000000000021
 40
0.7500000000000021
 40
1.0
 40
1.0
 40
1.0
 40
1.0
 10
211.6587347913439
 20
118.5950981249115
 30
0.0
 10
211.8021785448992
 20
118.5718878864412
 30
0.0
 10
211.9422825378304
 20
118.5348040416948
 30
0.0
 10
212.1681454211659
 20
118.5009796406469
 30
0.0
 10
212.2468989660522
 20
118.4933366498546
 30
0.0
 10
212.4112750177045
 20
118.4934114459731
 30
0.0
 10
212.4951765853167
 20
118.5012996333184
 30
0.0
 10
212.7526144399835
 20
118.5476628665215
 30
0.0
 10
212.9195522500358
 20
118.603859654555
 30
0.0
 10
213.2454869699621
 20
118.7210420399011
 30
0.0
 10
213.4040069405002
 20
118.7828624945643
 30
0.0
 10
213.5616072329738
 20
118.8439474308889
 30
0.0
  0
LINE
  5
14F
330
1F
100
AcDbEntity
  8
0
  6
HIDDEN
 62
     7
370
     0
100
AcDbLine
 10
187.5211573258
 20
139.0900839746
 30
0.0
 11
187.5211573258
 21
90.6492222512
 31
0.0
  0
SPLINE
  5
150
330
1F
100
AcDbEntity
  8
0
  6
HIDDEN
 62
     7
370
     0
100
AcDbSpline
210
0.0
220
0.0
230
1.0
 70
     8
 71
     3
 72
    14
 73
    10
 74
     0
 42
0.00000001
 43
0.00000001
 40
0.0
 40
0.0
 40
0.0
 40
0.0
 40
0.5000000000000012
 40
0.5000000000000012
 40
0.7500000000000018
 40
0.7500000000000018
 40
0.8750000000000009
 40
0.8750000000000009
 40
1.0
 40
1.0
 40
1.0
 40
1.0
 10
158.7711573258375
 20
94.06302155435716
 30
0.0
 10
159.3872342295928
 20
94.06874767458632
 30
0.0
 10
160.0013662257087
 20
94.07863803998833
 30
0.0
 10
160.9152628562223
 20
94.10927300765812
 30
0.0
 10
161.2187017837699
 20
94.1220664652961
 30
0.0
 10
161.6698383994074
 20
94.1499922932555
 30
0.0
 10
161.8195446489499
 20
94.16076191341526
 30
0.0
 10
162.1163857851979
 20
94.1878946290148
 30
0.0
 10
162.2637713377013
 20
94.20371160184203
 30
0.0
 10
162.4075554647155
 20
94.22737069071648
 30
0.0
  0
SPLINE
  5
151
330
1F
100
AcDbEntity
  8
0
  6
HIDDEN
 62
     7
370
     0
100
AcDbSpline
210
0.0
220
0.0
230
1.0
 70
     8
 71
     3
 72
    10
 73
     6
 74
     0
 42
0.00000001
 43
0.00000001
 40
0.0
 40
0.0
 40
0.0
 40
0.0
 40
0.5
 40
0.5
 40
1.0
 40
1.0
 40
1.0
 40
1.0
 10
162.4075554647155
 20
94.2273706907165
 30
0.0
 10
163.0351831204228
 20
94.3306442494521
 30
0.0
 10
163.6863838654542
 20
94.41946936120364
 30
0.0
 10
164.9950885694665
 20
94.58157706807397
 30
0.0
 10
165.6561330067576
 20
94.65487653236055
 30
0.0
 10
166.3211573258372
 20
94.72356434708823
 30
0.0
  0
SPLINE
  5
152
330
1F
100
AcDbEntity
  8
0
  6
HIDDEN
 62
     7
370
     0
100
AcDbSpline
210
0.0
220
0.0
230
1.0
 70
     8
 71
     3
 72
    18
 73
    14
 74
     0
 42
0.00000001
 43
0.00000001
 40
0.0
 40
0.0
 40
0.0
 40
0.0
 40
0.0625000000000028
 40
0.0625000000000028
 40
0.1250000000000055
 40
0.1250000000000055
 40
0.2500000000000058
 40
0.2500000000000058
 40
0.5000000000000039
 40
0.5000000000000039
 40
0.7500000000000019
 40
0.7500000000000019
 40
1.0
 40
1.0
 40
1.0
 40
1.0
 10
166.3211573258374
 20
94.72356434708811
 30
0.0
 10
166.3577295361878
 20
94.72734175061557
 30
0.0
 10
166.3963800096233
 20
94.72678472273243
 30
0.0
 10
166.4704715033372
 20
94.71672551757058
 30
0.0
 10
166.5058217970913
 20
94.70737163614602
 30
0.0
 10
166.6004160944807
 20
94.6729872097122
 30
0.0
 10
166.6505542676197
 20
94.64227547504939
 30
0.0
 10
166.7797475392008
 20
94.54634616501134
 30
0.0
 10
166.838027683942
 20
94.47783067089408
 30
0.0
 10
166.9382227803655
 20
94.34125872096146
 30
0.0
 10
166.9782380318121
 20
94.27249381845856
 30
0.0
 10
167.0466374526299
 20
94.13745838935087
 30
0.0
 10
167.0749991764918
 20
94.07084036329772
 30
0.0
 10
167.0995530890978
 20
94.0052818956015
 30
0.0
  0
SPLINE
  5
153
330
1F
100
AcDbEntity
  8
0
  6
HIDDEN
 62
     7
370
     0
100
AcDbSpline
210
0.0
220
0.0
230
1.0
 70
     8
 71
     3
 72
    14
 73
    10
 74
     0
 42
0.00000001
 43
0.00000001
 40
0.0
 40
0.0
 40
0.0
 40
0.0
 40
0.25
 40
0.25
 40
0.5
 40
0.5
 40
0.75
 40
0.75
 40
1.0
 40
1.0
 40
1.0
 40
1.0
 10
167.0995530890978
 20
94.0052818956015
 30
0.0
 10
167.1379894739188
 20
93.90265749788998
 30
0.0
 10
167.2067908673106
 20
93.80346107445041
 30
0.0
 10
167.3500768794695
 20
93.61256904512389
 30
0.0
 10
167.4252589345765
 20
93.52031177909099
 30
0.0
 10
167.5574462232266
 20
93.34070445727599
 30
0.0
 10
167.6149634186964
 20
93.25339490283163
 30
0.0
 10
167.6970082169887
 20
93.08346106931589
 30
0.0
 10
167.7211573258375
 20
93.00155872744473
 30
0.0
 10
167.7211573258375
 20
92.92450485360881
 30
0.0
  0
LINE
  5
154
330
1F
100
AcDbEntity
  8
0
  6
HIDDEN
 62
     7
370
     0
100
AcDbLine
 10
167.7211573258
 20
92.9245048536
 30
0.0
 11
167.7211573258
 21
91.6412062191
 31
0.0
  0
LINE
  5
155
330
1F
100
AcDbEntity
  8
0
  6
HIDDEN
 62
     7
370
     0
100
AcDbLine
 10
163.7211573258
 20
137.8976992051
 30
0.0
 11
163.7211573258
 21
136.7137607852
 31
0.0
  0
SPLINE
  5
156
330
1F
100
AcDbEntity
  8
0
  6
HIDDEN
 62
     7
370
     0
100
AcDbSpline
210
0.0
220
0.0
230
1.0
 70
     8
 71
     3
 72
    18
 73
    14
 74
     0
 42
0.00000001
 43
0.00000001
 40
0.0
 40
0.0
 40
0.0
 40
0.0
 40
0.2499999999999996
 40
0.2499999999999996
 40
0.5
 40
0.5
 40
0.7500000000000003
 40
0.7500000000000003
 40
0.8750000000000007
 40
0.8750000000000007
 40
0.9375000000000003
 40
0.9375000000000003
 40
1.0
 40
1.0
 40
1.0
 40
1.0
 10
163.7211573258375
 20
136.7137607852477
 30
0.0
 10
163.7211573258375
 20
136.6305538763905
 30
0.0
 10
163.6853082258993
 20
136.5418172210769
 30
0.0
 10
163.5604364898653
 20
136.3596920305167
 30
0.0
 10
163.4700360722175
 20
136.2645619818901
 30
0.0
 10
163.2477934174753
 20
136.0753804727658
 30
0.0
 10
163.1180286310295
 20
135.9804353046711
 30
0.0
 10
162.877391173718
 20
135.8421565970911
 30
0.0
 10
162.7896238755806
 20
135.7964461637887
 30
0.0
 10
162.6350997883738
 20
135.7386228585673
 30
0.0
 10
162.578488902319
 20
135.7209080945294
 30
0.0
 10
162.4544448714124
 20
135.6963687912965
 30
0.0
 10
162.3867301963941
 20
135.6903896527582
 30
0.0
 10
162.3211573258375
 20
135.6927405047125
 30
0.0
  0
SPLINE
  5
157
330
1F
100
AcDbEntity
  8
0
  6
HIDDEN
 62
     7
370
     0
100
AcDbSpline
210
0.0
220
0.0
230
1.0
 70
     8
 71
     3
 72
    10
 73
     6
 74
     0
 42
0.00000001
 43
0.00000001
 40
0.0
 40
0.0
 40
0.0
 40
0.0
 40
0.5
 40
0.5
 40
1.0
 40
1.0
 40
1.0
 40
1.0
 10
162.3211573258375
 20
135.6927405047125
 30
0.0
 10
161.7335717787469
 20
135.7138060249489
 30
0.0
 10
161.1428253852865
 20
135.7245645108211
 30
0.0
 10
159.9588062199877
 20
135.7379292913568
 30
0.0
 10
159.3653922317822
 20
135.7400719340214
 30
0.0
 10
158.7711573258375
 20
135.7395908782798
 30
0.0
  0
SPLINE
  5
158
330
1F
100
AcDbEntity
  8
0
  6
HIDDEN
 62
     7
370
     0
100
AcDbSpline
210
0.0
220
0.0
230
1.0
 70
     8
 71
     3
 72
     8
 73
     4
 74
     0
 42
0.00000001
 43
0.00000001
 40
0.0000005099763571
 40
0.0000005099763571
 40
0.0000005099763571
 40
0.0000005099763571
 40
0.0000262827998697
 40
0.0000262827998697
 40
0.0000262827998697
 40
0.0000262827998697
 10
158.7711573258375
 20
135.7395908782798
 30
0.0
 10
158.7677885866098
 20
135.7362692093239
 30
0.0
 10
158.7644401336306
 20
135.732941252045
 30
0.0
 10
158.7611123954193
 20
135.7296070051724
 30
0.0
  0
SPLINE
  5
159
330
1F
100
AcDbEntity
  8
0
  6
HIDDEN
 62
     7
370
     0
100
AcDbSpline
210
0.0
220
0.0
230
1.0
 70
     8
 71
     3
 72
     8
 73
     4
 74
     0
 42
0.00000001
 43
0.00000001
 40
0.0000005954826279
 40
0.0000005954826279
 40
0.0000005954826279
 40
0.0000005954826279
 40
0.0000302093805348
 40
0.0000302093805348
 40
0.0000302093805348
 40
0.0000302093805348
 10
158.7611123954279
 20
94.07483668400907
 30
0.0
 10
158.7644284227481
 20
94.07088990441326
 30
0.0
 10
158.7677769741404
 20
94.06695151328331
 30
0.0
 10
158.7711573258375
 20
94.06302155435715
 30
0.0
  0
SPLINE
  5
15A
330
1F
100
AcDbEntity
  8
0
  6
HIDDEN
 62
     7
370
     0
100
AcDbSpline
210
0.0
220
0.0
230
1.0
 70
     8
 71
     3
 72
    12
 73
     8
 74
     0
 42
0.00000001
 43
0.00000001
 40
0.0
 40
0.0
 40
0.0
 40
0.0
 40
0.1192152782080953
 40
0.2486291495149586
 40
0.50071869543888
 40
0.7537054055439844
 40
1.0
 40
1.0
 40
1.0
 40
1.0
 10
177.5163075304091
 20
91.34505349006295
 30
0.0
 10
177.4341648323401
 20
91.33731753856364
 30
0.0
 10
177.2628523171429
 20
91.32118384269117
 30
0.0
 10
176.89649835341
 20
91.28820914690247
 30
0.0
 10
176.5917353311528
 20
91.25003164487431
 30
0.0
 10
176.3333568726694
 20
91.21815568773732
 30
0.0
 10
176.3043648646643
 20
91.2141303676598
 30
0.0
 10
176.2900631578132
 20
91.21214468430458
 30
0.0
  0
SPLINE
  5
15B
330
1F
100
AcDbEntity
  8
0
  6
HIDDEN
 62
     7
370
     0
100
AcDbSpline
210
0.0
220
0.0
230
1.0
 70
     8
 71
     3
 72
    20
 73
    16
 74
     0
 42
0.00000001
 43
0.00000001
 40
0.0
 40
0.0
 40
0.0
 40
0.0
 40
0.0014371417843427
 40
0.0850458908086342
 40
0.1697599742259442
 40
0.2540983643787713
 40
0.3373295355548651
 40
0.4202346307100779
 40
0.5035601638150927
 40
0.5868465105665925
 40
0.6687600060933068
 40
0.750734579201687
 40
0.8338925024192405
 40
0.9172623649586593
 40
1.0
 40
1.0
 40
1.0
 40
1.0
 10
184.7042239432882
 20
90.7905949959611
 30
0.0
 10
184.7046769130656
 20
90.79049117013241
 30
0.0
 10
184.7314823533156
 20
90.78434705812776
 30
0.0
 10
184.635453841863
 20
90.80644388023246
 30
0.0
 10
184.4024083046955
 20
90.85832351015296
 30
0.0
 10
184.0086232388518
 20
90.94338064823191
 30
0.0
 10
183.4841648604764
 20
91.04513589743068
 30
0.0
 10
182.8452015502498
 20
91.1530321016825
 30
0.0
 10
182.1120362968591
 20
91.25407801713214
 30
0.0
 10
181.3194730839427
 20
91.33848717257322
 30
0.0
 10
180.49472429017
 20
91.39589079386569
 30
0.0
 10
179.6680070321557
 20
91.4226488662008
 30
0.0
 10
178.8736996718921
 20
91.41821360488048
 30
0.0
 10
178.130270233347
 20
91.39089812318865
 30
0.0
 10
177.7204418106718
 20
91.36029620943701
 30
0.0
 10
177.5163075304091
 20
91.34505349006295
 30
0.0
  0
SPLINE
  5
15C
330
1F
100
AcDbEntity
  8
0
  6
HIDDEN
 62
     7
370
     0
100
AcDbSpline
210
0.0
220
0.0
230
1.0
 70
     8
 71
     3
 72
    20
 73
    16
 74
     0
 42
0.00000001
 43
0.00000001
 40
0.0
 40
0.0
 40
0.0
 40
0.0
 40
0.0828182133813295
 40
0.16619368811573
 40
0.2493852825370401
 40
0.3315155124772279
 40
0.4133807586231848
 40
0.4968356081148763
 40
0.5800413781711405
 40
0.6629790154186295
 40
0.7460493132171997
 40
0.8302847957804698
 40
0.9148461952092953
 40
0.9984038487566717
 40
1.0
 40
1.0
 40
1.0
 40
1.0
 10
177.5162148101273
 20
138.3942361428665
 30
0.0
 10
177.7208665668269
 20
138.3790461056995
 30
0.0
 10
178.1315471265326
 20
138.3485638217149
 30
0.0
 10
178.8752724182361
 20
138.3212533465058
 30
0.0
 10
179.6702319029147
 20
138.3168404695176
 30
0.0
 10
180.4973605414773
 20
138.3435087619999
 30
0.0
 10
181.3231022769768
 20
138.4009727642257
 30
0.0
 10
182.1153792739116
 20
138.4855602902575
 30
0.0
 10
182.8482027317753
 20
138.5867338873445
 30
0.0
 10
183.4861122238423
 20
138.6945194478587
 30
0.0
 10
184.0099671857976
 20
138.7961268200324
 30
0.0
 10
184.403111671036
 20
138.8810168494064
 30
0.0
 10
184.6357742611873
 20
138.9328521106451
 30
0.0
 10
184.7318445020152
 20
138.95495442753
 30
0.0
 10
184.7046783832521
 20
138.9487974949348
 30
0.0
 10
184.7041691724853
 20
138.9486820873421
 30
0.0
  0
SPLINE
  5
15D
330
1F
100
AcDbEntity
  8
0
  6
HIDDEN
 62
     7
370
     0
100
AcDbSpline
210
0.0
220
0.0
230
1.0
 70
     8
 71
     3
 72
    12
 73
     8
 74
     0
 42
0.00000001
 43
0.00000001
 40
0.0
 40
0.0
 40
0.0
 40
0.0
 40
0.2468412763863426
 40
0.499570734391429
 40
0.7516700890846411
 40
0.8176861511893379
 40
1.0
 40
1.0
 40
1.0
 40
1.0
 10
176.2896580679065
 20
138.5271926966848
 30
0.0
 10
176.3037716849207
 20
138.5251742159772
 30
0.0
 10
176.3323355868739
 20
138.5210891054796
 30
0.0
 10
176.5931250960992
 20
138.4890910273361
 30
0.0
 10
176.8600135102174
 20
138.4548242302348
 30
0.0
 10
177.2186909804632
 20
138.4221323198136
 30
0.0
 10
177.390257535062
 20
138.4060460420499
 30
0.0
 10
177.5162148101273
 20
138.3942361428665
 30
0.0
  0
SPLINE
  5
15E
330
1F
100
AcDbEntity
  8
0
  6
HIDDEN
 62
     7
370
     0
100
AcDbSpline
210
0.0
220
0.0
230
1.0
 70
     8
 71
     3
 72
    62
 73
    58
 74
     0
 42
0.00000001
 43
0.00000001
 40
-0.03125
 40
-0.03125
 40
0.0
 40
0.0
 40
0.0312499999999999
 40
0.0312499999999999
 40
0.0624999999999997
 40
0.0624999999999997
 40
0.1249999999999994
 40
0.1249999999999994
 40
0.1562499999999993
 40
0.1562499999999993
 40
0.1874999999999992
 40
0.1874999999999992
 40
0.218749999999999
 40
0.218749999999999
 40
0.2499999999999989
 40
0.2499999999999989
 40
0.2812499999999988
 40
0.2812499999999988
 40
0.3124999999999986
 40
0.3124999999999986
 40
0.3749999999999983
 40
0.3749999999999983
 40
0.4062499999999984
 40
0.4062499999999984
 40
0.4374999999999985
 40
0.4374999999999985
 40
0.4687499999999986
 40
0.4687499999999986
 40
0.4999999999999987
 40
0.4999999999999987
 40
0.5312499999999988
 40
0.5312499999999988
 40
0.5624999999999988
 40
0.5624999999999988
 40
0.5937499999999989
 40
0.5937499999999989
 40
0.624999999999999
 40
0.624999999999999
 40
0.6874999999999996
 40
0.6874999999999996
 40
0.7187499999999996
 40
0.7187499999999996
 40
0.7499999999999996
 40
0.7499999999999996
 40
0.8125000000000001
 40
0.8125000000000001
 40
0.8437500000000001
 40
0.8437500000000001
 40
0.8750000000000001
 40
0.8750000000000001
 40
0.9062500000000001
 40
0.9062500000000001
 40
0.9375
 40
0.9375
 40
0.96875
 40
0.96875
 40
1.0
 40
1.0
 40
1.03125
 40
1.03125
 10
214.0615669114227
 20
115.1257322389006
 30
0.0
 10
214.0663411392928
 20
115.4092184053538
 30
0.0
 10
214.0844893410314
 20
115.5468724356922
 30
0.0
 10
214.1499437590059
 20
115.8147250134106
 30
0.0
 10
214.1980681835764
 20
115.9459400683874
 30
0.0
 10
214.3779700003956
 20
116.3117999811536
 30
0.0
 10
214.5480867792558
 20
116.5268621223013
 30
0.0
 10
214.8504497530678
 20
116.7915608002408
 30
0.0
 10
214.9607914310165
 20
116.8715841782712
 30
0.0
 10
215.1926325711718
 20
117.0104053196153
 30
0.0
 10
215.3142763443087
 20
117.0696409871512
 30
0.0
 10
215.5698902654648
 20
117.1680310127766
 30
0.0
 10
215.7051597236877
 20
117.2072753067267
 30
0.0
 10
215.9786527918637
 20
117.2610668067352
 30
0.0
 10
216.1178122392253
 20
117.2761960619994
 30
0.0
 10
216.4015772431337
 20
117.2805993059853
 30
0.0
 10
216.542319321309
 20
117.2696243943123
 30
0.0
 10
216.8163053858803
 20
117.2215296534759
 30
0.0
 10
216.9520475120942
 20
117.183676514465
 30
0.0
 10
217.3355505193971
 20
117.0329545341544
 30
0.0
 10
217.5641418946685
 20
116.8815383133942
 30
0.0
 10
217.8441411546992
 20
116.5976645030475
 30
0.0
 10
217.9285203445914
 20
116.4920965909407
 30
0.0
 10
218.0735764895455
 20
116.2663391626428
 30
0.0
 10
218.1343317865037
 20
116.1466843875931
 30
0.0
 10
218.2328674839387
 20
115.8931671426303
 30
0.0
 10
218.270468253872
 20
115.7584630430207
 30
0.0
 10
218.3187330227969
 20
115.4866155628113
 30
0.0
 10
218.3301142104744
 20
115.3480491220346
 30
0.0
 10
218.3264683759075
 20
115.0653483795725
 30
0.0
 10
218.3113223455128
 20
114.9246341647816
 30
0.0
 10
218.2558250412921
 20
114.6496074575649
 30
0.0
 10
218.214798061218
 20
114.5129898326154
 30
0.0
 10
218.1091870395263
 20
114.2530643285742
 30
0.0
 10
218.0450588729273
 20
114.1298707718601
 30
0.0
 10
217.8936735861605
 20
113.8967676272644
 30
0.0
 10
217.8062443304526
 20
113.7872670069189
 30
0.0
 10
217.5182791004409
 20
113.4927420163678
 30
0.0
 10
217.2838145648429
 20
113.3343911626916
 30
0.0
 10
216.8980163407918
 20
113.1816553227646
 30
0.0
 10
216.7608655369972
 20
113.1437036848838
 30
0.0
 10
216.4832776002941
 20
113.0983199078196
 30
0.0
 10
216.3432975337166
 20
113.0904275594614
 30
0.0
 10
215.9199111459091
 20
113.1093775745567
 30
0.0
 10
215.6417426283558
 20
113.1795308549674
 30
0.0
 10
215.2607990945548
 20
113.3516491669302
 30
0.0
 10
215.1404438846974
 20
113.4195872954221
 30
0.0
 10
214.9120190846373
 20
113.5762350882153
 30
0.0
 10
214.8039425292934
 20
113.665325835775
 30
0.0
 10
214.6077141040178
 20
113.8588580455521
 30
0.0
 10
214.5184546258048
 20
113.9639488887908
 30
0.0
 10
214.3587764925412
 20
114.192627192487
 30
0.0
 10
214.2889591574901
 20
114.3160048112817
 30
0.0
 10
214.1764650308153
 20
114.5721471383505
 30
0.0
 10
214.1325656321402
 20
114.7075556604524
 30
0.0
 10
214.0750799739776
 20
114.9851993242934
 30
0.0
 10
214.0615669114227
 20
115.1257322389006
 30
0.0
 10
214.0663411392928
 20
115.4092184053538
 30
0.0
  0
ARC
  5
15F
330
1F
100
AcDbEntity
  8
0
  6
HIDDEN
 62
     7
370
     0
100
AcDbCircle
 10
212.8455755325
 20
116.8805923011
 30
0.0
 40
2.0852148965224
100
AcDbArc
 50
206.9751700293
 51
124.6923334538
  0
ARC
  5
160
330
1F
100
AcDbEntity
  8
0
  6
HIDDEN
 62
     7
370
     0
100
AcDbCircle
 10
212.900540678
 20
116.8635395238
 30
0.0
 40
2.129732707209112
100
AcDbArc
 50
149.9061642359
 51
187.8624320253
  0
LINE
  5
161
330
1F
100
AcDbEntity
  8
0
  6
HIDDEN
 62
     7
370
     0
100
AcDbLine
 10
157.6211573258
 20
95.2164925879
 30
0.0
 11
157.6276771238
 21
95.2188346703
 31
0.0
  0
SPLINE
  5
162
330
1F
100
AcDbEntity
  8
0
  6
HIDDEN
 62
     7
370
     0
100
AcDbSpline
210
0.0
220
0.0
230
1.0
 70
    11
 71
     3
 72
    22
 73
    18
 74
     0
 42
0.00000001
 43
0.00000001
 40
0.0
 40
0.0
 40
0.0
 40
0.0
 40
0.1250000000000001
 40
0.1250000000000001
 40
0.2500000000000001
 40
0.2500000000000001
 40
0.3750000000000001
 40
0.3750000000000001
 40
0.5000000000000001
 40
0.5000000000000001
 40
0.6250000000000001
 40
0.6250000000000001
 40
0.75
 40
0.75
 40
0.875
 40
0.875
 40
1.0
 40
1.0
 40
1.0
 40
1.0
 10
183.2761593274391
 20
134.7071815887012
 30
0.0
 10
183.4351021564082
 20
134.7292552967482
 30
0.0
 10
183.5757937042985
 20
134.7459391147358
 30
0.0
 10
183.821779941761
 20
134.7721608096182
 30
0.0
 10
183.9278180244423
 20
134.7817401154635
 30
0.0
 10
184.0983100650093
 20
134.7958193825426
 30
0.0
 10
184.162362764473
 20
134.8003259587897
 30
0.0
 10
184.248866815566
 20
134.8061901286275
 30
0.0
 10
184.2711003109261
 20
134.8075320611458
 30
0.0
 10
184.2712141169381
 20
134.8075392008953
 30
0.0
 10
184.2497561884528
 20
134.8062465654091
 30
0.0
 10
184.1637703955739
 20
134.8004251358989
 30
0.0
 10
184.0984562488243
 20
134.7958256666231
 30
0.0
 10
183.9294504148889
 20
134.7818806458132
 30
0.0
 10
183.8254913770131
 20
134.7725282589549
 30
0.0
 10
183.5779809307742
 20
134.7461997884885
 30
0.0
 10
183.4350968406904
 20
134.7292545585105
 30
0.0
 10
183.2761593274394
 20
134.7071815887013
 30
0.0
  0
SPLINE
  5
163
330
1F
100
AcDbEntity
  8
0
  6
HIDDEN
 62
     7
370
     0
100
AcDbSpline
210
0.0
220
0.0
230
1.0
 70
    11
 71
     3
 72
    22
 73
    18
 74
     0
 42
0.00000001
 43
0.00000001
 40
0.0
 40
0.0
 40
0.0
 40
0.0
 40
0.1250000000000001
 40
0.1250000000000001
 40
0.2500000000000001
 40
0.2500000000000001
 40
0.3750000000000001
 40
0.3750000000000001
 40
0.5000000000000001
 40
0.5000000000000001
 40
0.6250000000000001
 40
0.6250000000000001
 40
0.75
 40
0.75
 40
0.875
 40
0.875
 40
1.0
 40
1.0
 40
1.0
 40
1.0
 10
183.2761593274391
 20
95.03212463706826
 30
0.0
 10
183.4351021564082
 20
95.01005092902122
 30
0.0
 10
183.5757937042985
 20
94.9933671110336
 30
0.0
 10
183.821779941761
 20
94.96714541615131
 30
0.0
 10
183.9278180244423
 20
94.957566110306
 30
0.0
 10
184.0983100650093
 20
94.94348684322685
 30
0.0
 10
184.162362764473
 20
94.93898026697981
 30
0.0
 10
184.248866815566
 20
94.93311609714189
 30
0.0
 10
184.2711003109261
 20
94.9317741646236
 30
0.0
 10
184.2712141169381
 20
94.9317670248741
 30
0.0
 10
184.2497561884528
 20
94.93305966036033
 30
0.0
 10
184.1637703955739
 20
94.93888108987053
 30
0.0
 10
184.0984562488243
 20
94.94348055914637
 30
0.0
 10
183.9294504148889
 20
94.95742557995621
 30
0.0
 10
183.8254913770131
 20
94.96677796681455
 30
0.0
 10
183.5779809307742
 20
94.99310643728096
 30
0.0
 10
183.4350968406904
 20
95.01005166725895
 30
0.0
 10
183.2761593274394
 20
95.03212463706816
 30
0.0
  0
LINE
  5
164
330
1F
100
AcDbEntity
  8
0
  6
HIDDEN
 62
     7
370
     0
100
AcDbLine
 10
189.5211573258
 20
97.8696531129
 30
0.0
 11
189.5211573258
 21
131.8509682681
 31
0.0
  0
SPLINE
  5
165
330
1F
100
AcDbEntity
  8
0
  6
HIDDEN
 62
     7
370
     0
100
AcDbSpline
210
0.0
220
0.0
230
1.0
 70
    11
 71
     3
 72
    56
 73
    52
 74
     0
 42
0.00000001
 43
0.00000001
 40
0.0
 40
0.0
 40
0.0
 40
0.0
 40
0.0625000000000003
 40
0.0625000000000003
 40
0.0937500000000004
 40
0.0937500000000004
 40
0.1250000000000004
 40
0.1250000000000004
 40
0.1562500000000005
 40
0.1562500000000005
 40
0.1875000000000006
 40
0.1875000000000006
 40
0.2187500000000007
 40
0.2187500000000007
 40
0.2500000000000008
 40
0.2500000000000008
 40
0.3125000000000007
 40
0.3125000000000007
 40
0.3437500000000006
 40
0.3437500000000006
 40
0.3750000000000005
 40
0.3750000000000005
 40
0.4062500000000003
 40
0.4062500000000003
 40
0.4375000000000002
 40
0.4375000000000002
 40
0.4687500000000001
 40
0.4687500000000001
 40
0.4999999999999999
 40
0.4999999999999999
 40
0.5624999999999997
 40
0.5624999999999997
 40
0.6249999999999994
 40
0.6249999999999994
 40
0.6874999999999991
 40
0.6874999999999991
 40
0.7187499999999992
 40
0.7187499999999992
 40
0.7499999999999992
 40
0.7499999999999992
 40
0.7812499999999992
 40
0.7812499999999992
 40
0.8124999999999992
 40
0.8124999999999992
 40
0.8749999999999996
 40
0.8749999999999996
 40
0.9374999999999998
 40
0.9374999999999998
 40
0.96875
 40
0.96875
 40
1.0
 40
1.0
 40
1.0
 40
1.0
 10
183.2761593274391
 20
95.03212463706826
 30
0.0
 10
183.0203720168914
 20
95.06764794096182
 30
0.0
 10
182.7301822099481
 20
95.10319180993004
 30
0.0
 10
182.2435291116573
 20
95.14966350983893
 30
0.0
 10
182.0731832694961
 20
95.16390942307044
 30
0.0
 10
181.7262098594051
 20
95.18819733726883
 30
0.0
 10
181.5482719621703
 20
95.19837368359089
 30
0.0
 10
181.1833526846106
 20
95.21404901119477
 30
0.0
 10
180.9950180925152
 20
95.21953597240766
 30
0.0
 10
180.6211312400598
 20
95.22499596668338
 30
0.0
 10
180.4344410258898
 20
95.22505418994254
 30
0.0
 10
180.0615625349706
 20
95.21987004796576
 30
0.0
 10
179.8738582920482
 20
95.21455456949433
 30
0.0
 10
179.5069393925007
 20
95.19905218847103
 30
0.0
 10
179.3284896504362
 20
95.18895278071034
 30
0.0
 10
178.8077007470755
 20
95.15282093905641
 30
0.0
 10
178.4768170274045
 20
95.12039171803835
 30
0.0
 10
178.040315469073
 20
95.06886522667126
 30
0.0
 10
177.9035299300203
 20
95.05114061562728
 30
0.0
 10
177.6478053205665
 20
95.01574628911798
 30
0.0
 10
177.5301815924609
 20
94.99824976773739
 30
0.0
 10
177.3201121392723
 20
94.96554737174887
 30
0.0
 10
177.2267773005873
 20
94.95021556280281
 30
0.0
 10
177.0638315899081
 20
94.92261940345401
 30
0.0
 10
176.9941286270583
 20
94.91033272034038
 30
0.0
 10
176.8835055607261
 20
94.89048772855394
 30
0.0
 10
176.8418238891157
 20
94.88280161602727
 30
0.0
 10
176.7856487487405
 20
94.87238423565
 30
0.0
 10
176.7712104729799
 20
94.86966307797354
 30
0.0
 10
176.7710514778773
 20
94.86963326639295
 30
0.0
 10
176.8267108156141
 20
94.88029539654093
 30
0.0
 10
177.0495355761485
 20
94.9202760682759
 30
0.0
 10
177.2114478617422
 20
94.94861231990822
 30
0.0
 10
177.6352394204779
 20
95.01462322886826
 30
0.0
 10
177.8900858430252
 20
95.0510831016595
 30
0.0
 10
178.328729503139
 20
95.10293462464585
 30
0.0
 10
178.4854270394184
 20
95.11982225870582
 30
0.0
 10
178.808626989197
 20
95.15051567932676
 30
0.0
 10
178.9763004706173
 20
95.16447548627062
 30
0.0
 10
179.323885336806
 20
95.1886749154218
 30
0.0
 10
179.5054488176249
 20
95.19897186425258
 30
0.0
 10
179.8716350924338
 20
95.2144778111145
 30
0.0
 10
180.0562925082761
 20
95.21974379301149
 30
0.0
 10
180.6148889148345
 20
95.227666616267
 30
0.0
 10
180.9972232563051
 20
95.22195249289337
 30
0.0
 10
181.7245204006735
 20
95.1908934067311
 30
0.0
 10
182.0802144747735
 20
95.16520477068114
 30
0.0
 10
182.5635267517244
 20
95.11913276047304
 30
0.0
 10
182.7172243589409
 20
95.10253060205676
 30
0.0
 10
183.009646583784
 20
95.06791074684246
 30
0.0
 10
183.1482618069893
 20
95.04988682580408
 30
0.0
 10
183.2761593274392
 20
95.03212463706826
 30
0.0
  0
SPLINE
  5
166
330
1F
100
AcDbEntity
  8
0
  6
HIDDEN
 62
     7
370
     0
100
AcDbSpline
210
0.0
220
0.0
230
1.0
 70
    11
 71
     3
 72
    56
 73
    52
 74
     0
 42
0.00000001
 43
0.00000001
 40
0.0
 40
0.0
 40
0.0
 40
0.0
 40
0.0625000000000003
 40
0.0625000000000003
 40
0.0937500000000004
 40
0.0937500000000004
 40
0.1250000000000004
 40
0.1250000000000004
 40
0.1562500000000005
 40
0.1562500000000005
 40
0.1875000000000006
 40
0.1875000000000006
 40
0.2187500000000007
 40
0.2187500000000007
 40
0.2500000000000008
 40
0.2500000000000008
 40
0.3125000000000007
 40
0.3125000000000007
 40
0.3437500000000006
 40
0.3437500000000006
 40
0.3750000000000005
 40
0.3750000000000005
 40
0.4062500000000003
 40
0.4062500000000003
 40
0.4375000000000002
 40
0.4375000000000002
 40
0.4687500000000001
 40
0.4687500000000001
 40
0.4999999999999999
 40
0.4999999999999999
 40
0.5624999999999997
 40
0.5624999999999997
 40
0.6249999999999994
 40
0.6249999999999994
 40
0.6874999999999991
 40
0.6874999999999991
 40
0.7187499999999992
 40
0.7187499999999992
 40
0.7499999999999992
 40
0.7499999999999992
 40
0.7812499999999992
 40
0.7812499999999992
 40
0.8124999999999992
 40
0.8124999999999992
 40
0.8749999999999996
 40
0.8749999999999996
 40
0.9374999999999998
 40
0.9374999999999998
 40
0.96875
 40
0.96875
 40
1.0
 40
1.0
 40
1.0
 40
1.0
 10
183.2761593274391
 20
134.7071815887012
 30
0.0
 10
183.0203720168914
 20
134.6716582848076
 30
0.0
 10
182.7301822099481
 20
134.6361144158394
 30
0.0
 10
182.2435291116573
 20
134.5896427159305
 30
0.0
 10
182.0731832694961
 20
134.575396802699
 30
0.0
 10
181.7262098594051
 20
134.5511088885006
 30
0.0
 10
181.5482719621703
 20
134.5409325421786
 30
0.0
 10
181.1833526846106
 20
134.5252572145747
 30
0.0
 10
180.9950180925152
 20
134.5197702533618
 30
0.0
 10
180.6211312400598
 20
134.514310259086
 30
0.0
 10
180.4344410258898
 20
134.5142520358269
 30
0.0
 10
180.0615625349706
 20
134.5194361778037
 30
0.0
 10
179.8738582920482
 20
134.5247516562752
 30
0.0
 10
179.5069393925007
 20
134.5402540372984
 30
0.0
 10
179.3284896504362
 20
134.5503534450591
 30
0.0
 10
178.8077007470755
 20
134.586485286713
 30
0.0
 10
178.4768170274045
 20
134.6189145077311
 30
0.0
 10
178.040315469073
 20
134.6704409990982
 30
0.0
 10
177.9035299300203
 20
134.6881656101422
 30
0.0
 10
177.6478053205665
 20
134.7235599366515
 30
0.0
 10
177.5301815924609
 20
134.7410564580321
 30
0.0
 10
177.3201121392723
 20
134.7737588540206
 30
0.0
 10
177.2267773005873
 20
134.7890906629666
 30
0.0
 10
177.0638315899081
 20
134.8166868223154
 30
0.0
 10
176.9941286270583
 20
134.828973505429
 30
0.0
 10
176.8835055607261
 20
134.8488184972155
 30
0.0
 10
176.8418238891157
 20
134.8565046097422
 30
0.0
 10
176.7856487487405
 20
134.8669219901194
 30
0.0
 10
176.7712104729799
 20
134.8696431477959
 30
0.0
 10
176.7710514778773
 20
134.8696729593765
 30
0.0
 10
176.8267108156141
 20
134.8590108292285
 30
0.0
 10
177.0495355761485
 20
134.8190301574936
 30
0.0
 10
177.2114478617422
 20
134.7906939058612
 30
0.0
 10
177.6352394204779
 20
134.7246829969012
 30
0.0
 10
177.8900858430252
 20
134.68822312411
 30
0.0
 10
178.328729503139
 20
134.6363716011236
 30
0.0
 10
178.4854270394184
 20
134.6194839670636
 30
0.0
 10
178.808626989197
 20
134.5887905464427
 30
0.0
 10
178.9763004706173
 20
134.5748307394988
 30
0.0
 10
179.323885336806
 20
134.5506313103477
 30
0.0
 10
179.5054488176249
 20
134.5403343615169
 30
0.0
 10
179.8716350924338
 20
134.524828414655
 30
0.0
 10
180.0562925082761
 20
134.5195624327579
 30
0.0
 10
180.6148889148345
 20
134.5116396095025
 30
0.0
 10
180.9972232563051
 20
134.5173537328761
 30
0.0
 10
181.7245204006735
 20
134.5484128190383
 30
0.0
 10
182.0802144747735
 20
134.5741014550883
 30
0.0
 10
182.5635267517244
 20
134.6201734652964
 30
0.0
 10
182.7172243589409
 20
134.6367756237127
 30
0.0
 10
183.009646583784
 20
134.671395478927
 30
0.0
 10
183.1482618069893
 20
134.6894193999654
 30
0.0
 10
183.2761593274392
 20
134.7071815887012
 30
0.0
  0
LINE
  5
167
330
1F
100
AcDbEntity
  8
0
  6
HIDDEN
 62
     7
370
     0
100
AcDbLine
 10
209.4050097027
 20
134.7196531129
 30
0.0
 11
215.4711573258
 21
134.7196531129
 31
0.0
  0
LINE
  5
168
330
1F
100
AcDbEntity
  8
0
  6
HIDDEN
 62
     7
370
     0
100
AcDbLine
 10
201.7167776715
 20
134.7196531129
 30
0.0
 11
205.637304949
 21
134.7196531129
 31
0.0
  0
LINE
  5
169
330
1F
100
AcDbEntity
  8
0
  6
HIDDEN
 62
     7
370
     0
100
AcDbLine
 10
170.5251319221
 20
131.8696531129
 30
0.0
 11
170.5251319221
 21
97.8696531129
 31
0.0
  0
LWPOLYLINE
  5
16A
330
1F
100
AcDbEntity
  8
0
  6
HIDDEN
 62
     7
370
     0
100
AcDbPolyline
 90
        2
 70
   128
 43
0.0
 10
170.5251319221
 20
97.8696531129
 10
170.5251319221
 20
97.8696531129
  0
LINE
  5
16B
330
1F
100
AcDbEntity
  8
0
  6
HIDDEN
 62
     7
370
     0
100
AcDbLine
 10
157.6211573258
 20
98.8397177151
 30
0.0
 11
157.6211573258
 21
130.8995885107
 31
0.0
  0
LINE
  5
16C
330
1F
100
AcDbEntity
  8
0
  6
HIDDEN
 62
     7
370
     0
100
AcDbLine
 10
197.1809832944
 20
131.8696531129
 30
0.0
 11
197.1809832944
 21
97.8696531129
 31
0.0
  0
LWPOLYLINE
  5
16D
330
1F
100
AcDbEntity
  8
0
  6
HIDDEN
 62
     7
370
     0
100
AcDbPolyline
 90
        2
 70
   128
 43
0.0
 10
197.1809832944
 20
97.8696531129
 10
197.1809832944
 20
97.8696531129
  0
LINE
  5
16E
330
1F
100
AcDbEntity
  8
0
  6
HIDDEN
 62
     7
370
     0
100
AcDbLine
 10
199.4711573258
 20
130.5946530965
 30
0.0
 11
199.4711573258
 21
99.1446531129
 31
0.0
  0
LWPOLYLINE
  5
16F
330
1F
100
AcDbEntity
  8
0
  6
HIDDEN
 62
     7
370
     0
100
AcDbPolyline
 90
        2
 70
   128
 43
0.0
 10
199.4711573258
 20
99.1446531129
 10
199.4711573258
 20
99.1446531129
  0
LINE
  5
170
330
1F
100
AcDbEntity
  8
0
  6
HIDDEN
 62
     7
370
     0
100
AcDbLine
 10
158.7711573258
 20
99.0681626769
 30
0.0
 11
166.3211573258
 21
99.0681626769
 31
0.0
  0
LINE
  5
171
330
1F
100
AcDbEntity
  8
0
  6
HIDDEN
 62
     7
370
     0
100
AcDbLine
 10
158.7711573258
 20
130.6711435489
 30
0.0
 11
158.7711573258
 21
99.0681626769
 31
0.0
  0
LINE
  5
172
330
1F
100
AcDbEntity
  8
0
  6
HIDDEN
 62
     7
370
     0
100
AcDbLine
 10
162.3211573258
 20
130.6711435489
 30
0.0
 11
158.7711573258
 21
130.6711435489
 31
0.0
  0
SPLINE
  5
173
330
1F
100
AcDbEntity
  8
0
  6
HIDDEN
 62
     7
370
     0
100
AcDbSpline
210
0.0
220
0.0
230
1.0
 70
     8
 71
     3
 72
    18
 73
    14
 74
     0
 42
0.00000001
 43
0.00000001
 40
0.0
 40
0.0
 40
0.0
 40
0.0
 40
0.2499999999999974
 40
0.2499999999999974
 40
0.3749999999999971
 40
0.3749999999999971
 40
0.4999999999999968
 40
0.4999999999999968
 40
0.6249999999999964
 40
0.6249999999999964
 40
0.7499999999999961
 40
0.7499999999999961
 40
1.0
 40
1.0
 40
1.0
 40
1.0
 10
163.7211573258375
 20
131.1571667352889
 30
0.0
 10
163.7211573258375
 20
131.1026922147366
 30
0.0
 10
163.6862466344454
 20
131.0463111553842
 30
0.0
 10
163.5842373331123
 20
130.9622343145307
 30
0.0
 10
163.5426009784342
 20
130.9349006105398
 30
0.0
 10
163.4441951829455
 20
130.8819466949408
 30
0.0
 10
163.3866519712412
 20
130.8560593412236
 30
0.0
 10
163.2593537976682
 20
130.8082817963903
 30
0.0
 10
163.1897664929107
 20
130.7863338782124
 30
0.0
 10
163.0383322477558
 20
130.7469013132998
 30
0.0
 10
162.9556483446618
 20
130.7293450640739
 30
0.0
 10
162.6995368826238
 20
130.6869062986534
 30
0.0
 10
162.5116218787358
 20
130.6711435489164
 30
0.0
 10
162.3211573258375
 20
130.6711435489164
 30
0.0
  0
LINE
  5
174
330
1F
100
AcDbEntity
  8
0
  6
HIDDEN
 62
     7
370
     0
100
AcDbLine
 10
163.7211573258
 20
131.1571667353
 30
0.0
 11
163.7211573258
 21
131.8696531129
 31
0.0
  0
SPLINE
  5
175
330
1F
100
AcDbEntity
  8
0
  6
HIDDEN
 62
     7
370
     0
100
AcDbSpline
210
0.0
220
0.0
230
1.0
 70
     8
 71
     3
 72
    18
 73
    14
 74
     0
 42
0.00000001
 43
0.00000001
 40
0.0
 40
0.0
 40
0.0
 40
0.0
 40
0.2500000000000009
 40
0.2500000000000009
 40
0.3750000000000007
 40
0.3750000000000007
 40
0.5000000000000006
 40
0.5000000000000006
 40
0.6250000000000003
 40
0.6250000000000003
 40
0.7500000000000001
 40
0.7500000000000001
 40
1.0
 40
1.0
 40
1.0
 40
1.0
 10
163.7211573258375
 20
131.1571667352889
 30
0.0
 10
163.7211573258375
 20
131.1026922147366
 30
0.0
 10
163.6862466344453
 20
131.0463111553842
 30
0.0
 10
163.5842373331123
 20
130.9622343145307
 30
0.0
 10
163.5426009784342
 20
130.9349006105398
 30
0.0
 10
163.4441951829455
 20
130.8819466949408
 30
0.0
 10
163.3866519712412
 20
130.8560593412236
 30
0.0
 10
163.2593537976682
 20
130.8082817963903
 30
0.0
 10
163.1897664929107
 20
130.7863338782124
 30
0.0
 10
163.0383322477558
 20
130.7469013132998
 30
0.0
 10
162.9556483446618
 20
130.7293450640739
 30
0.0
 10
162.6995368826238
 20
130.6869062986534
 30
0.0
 10
162.5116218787358
 20
130.6711435489164
 30
0.0
 10
162.3211573258375
 20
130.6711435489164
 30
0.0
  0
LINE
  5
176
330
1F
100
AcDbEntity
  8
0
  6
HIDDEN
 62
     7
370
     0
100
AcDbLine
 10
162.3211573258
 20
130.6711435489
 30
0.0
 11
158.7711573258
 21
130.6711435489
 31
0.0
  0
LINE
  5
177
330
1F
100
AcDbEntity
  8
0
  6
HIDDEN
 62
     7
370
     0
100
AcDbLine
 10
158.7711573258
 20
99.0681626769
 30
0.0
 11
166.3211573258
 21
99.0681626769
 31
0.0
  0
SPLINE
  5
178
330
1F
100
AcDbEntity
  8
0
  6
HIDDEN
 62
     7
370
     0
100
AcDbSpline
210
0.0
220
0.0
230
1.0
 70
     8
 71
     3
 72
    16
 73
    12
 74
     0
 42
0.00000001
 43
0.00000001
 40
0.0
 40
0.0
 40
0.0
 40
0.0
 40
0.1249999999999988
 40
0.1249999999999988
 40
0.2499999999999977
 40
0.2499999999999977
 40
0.4999999999999984
 40
0.4999999999999984
 40
0.7499999999999992
 40
0.7499999999999992
 40
1.0
 40
1.0
 40
1.0
 40
1.0
 10
166.3211573258375
 20
99.06816267685306
 30
0.0
 10
166.4162790805033
 20
99.06816267685306
 30
0.0
 10
166.5096091492314
 20
99.06434684346027
 30
0.0
 10
166.6928709099694
 20
99.04957629073047
 30
0.0
 10
166.7837486255264
 20
99.03841824275487
 30
0.0
 10
167.0405503230461
 20
98.99594697261315
 30
0.0
 10
167.1956176879181
 20
98.95490077541037
 30
0.0
 10
167.4493641494728
 20
98.85975465882846
 30
0.0
 10
167.5502346011407
 20
98.8049919247469
 30
0.0
 10
167.6854810158355
 20
98.69373080084301
 30
0.0
 10
167.7211573258375
 20
98.63656106351434
 30
0.0
 10
167.7211573258375
 20
98.5821394904806
 30
0.0
  0
LINE
  5
179
330
1F
100
AcDbEntity
  8
0
  6
HIDDEN
 62
     7
370
     0
100
AcDbLine
 10
167.7211573258
 20
98.5821394905
 30
0.0
 11
167.7211573258
 21
97.8696531129
 31
0.0
  0
SPLINE
  5
17A
330
1F
100
AcDbEntity
  8
0
  6
HIDDEN
 62
     7
370
     0
100
AcDbSpline
210
0.0
220
0.0
230
1.0
 70
     8
 71
     3
 72
    16
 73
    12
 74
     0
 42
0.00000001
 43
0.00000001
 40
0.0
 40
0.0
 40
0.0
 40
0.0
 40
0.1249999999999988
 40
0.1249999999999988
 40
0.2499999999999977
 40
0.2499999999999977
 40
0.4999999999999984
 40
0.4999999999999984
 40
0.7499999999999992
 40
0.7499999999999992
 40
1.0
 40
1.0
 40
1.0
 40
1.0
 10
166.3211573258375
 20
99.06816267685306
 30
0.0
 10
166.4162790805033
 20
99.06816267685306
 30
0.0
 10
166.5096091492314
 20
99.06434684346027
 30
0.0
 10
166.6928709099694
 20
99.04957629073047
 30
0.0
 10
166.7837486255264
 20
99.03841824275487
 30
0.0
 10
167.0405503230461
 20
98.99594697261315
 30
0.0
 10
167.1956176879181
 20
98.95490077541037
 30
0.0
 10
167.4493641494728
 20
98.85975465882846
 30
0.0
 10
167.5502346011407
 20
98.8049919247469
 30
0.0
 10
167.6854810158355
 20
98.69373080084301
 30
0.0
 10
167.7211573258375
 20
98.63656106351434
 30
0.0
 10
167.7211573258375
 20
98.5821394904806
 30
0.0
  0
LINE
  5
17B
330
1F
100
AcDbEntity
  8
0
  6
HIDDEN
 62
     7
370
     0
100
AcDbLine
 10
158.7711573258
 20
99.0681626769
 30
0.0
 11
158.7711573258
 21
130.6711435489
 31
0.0
  0
LINE
  5
17C
330
1F
100
AcDbEntity
  8
0
  6
HIDDEN
 62
     7
370
     0
100
AcDbLine
 10
158.7711573258
 20
96.8796531129
 30
0.0
 11
158.7711573258
 21
94.0571531129
 31
0.0
  0
LINE
  5
17D
330
1F
100
AcDbEntity
  8
0
  6
HIDDEN
 62
     7
370
     0
100
AcDbLine
 10
167.7211573258
 20
96.8796531129
 30
0.0
 11
167.7211573258
 21
92.9245048536
 31
0.0
  0
LINE
  5
17E
330
1F
100
AcDbEntity
  8
0
  6
HIDDEN
 62
     7
370
     0
100
AcDbLine
 10
158.7711573258
 20
132.8596531129
 30
0.0
 11
158.7711573258
 21
135.7395908783
 31
0.0
  0
LINE
  5
17F
330
1F
100
AcDbEntity
  8
0
  6
HIDDEN
 62
     7
370
     0
100
AcDbLine
 10
157.6211573258
 20
132.8596531129
 30
0.0
 11
157.6211573258
 21
134.5603308594
 31
0.0
  0
LINE
  5
180
330
1F
100
AcDbEntity
  8
0
  6
HIDDEN
 62
     7
370
     0
100
AcDbLine
 10
157.6211573258
 20
96.8796531129
 30
0.0
 11
157.6211573258
 21
95.2164925879
 31
0.0
  0
LINE
  5
181
330
1F
100
AcDbEntity
  8
0
  6
HIDDEN
 62
     7
370
     0
100
AcDbLine
 10
163.7211573258
 20
132.8596531129
 30
0.0
 11
163.7211573258
 21
136.7137607852
 31
0.0
  0
LINE
  5
182
330
1F
100
AcDbEntity
  8
0
  6
HIDDEN
 62
     7
370
     0
100
AcDbLine
 10
208.8211573258
 20
124.3696531129
 30
0.0
 11
208.8211573258
 21
105.3696531129
 31
0.0
  0
LINE
  5
183
330
1F
100
AcDbEntity
  8
0
  6
HIDDEN
 62
     7
370
     0
100
AcDbLine
 10
211.3211573258
 20
124.3696531129
 30
0.0
 11
211.3211573258
 21
105.3696531129
 31
0.0
  0
LWPOLYLINE
  5
184
330
1F
100
AcDbEntity
  8
0
  6
HIDDEN
 62
     7
370
     0
100
AcDbPolyline
 90
        2
 70
   128
 43
0.0
 10
215.4711573258
 20
88.4696531129
 10
215.4711573258
 20
88.4696531129
  0
LINE
  5
185
330
1F
100
AcDbEntity
  8
0
  6
HIDDEN
 62
     7
370
     0
100
AcDbLine
 10
199.9711573258
 20
123.3696531129
 30
0.0
 11
199.9711573258
 21
106.3696531129
 31
0.0
  0
LINE
  5
186
330
1F
100
AcDbEntity
  8
0
  6
HIDDEN
 62
     7
370
     0
100
AcDbLine
 10
199.4711573258
 20
105.8696531129
 30
0.0
 11
199.4711573258
 21
123.8511616476
 31
0.0
  0
LINE
  5
187
330
1F
100
AcDbEntity
  8
0
  6
HIDDEN
 62
     7
370
     0
100
AcDbLine
 10
215.4711573258
 20
88.4696531129
 30
0.0
 11
209.3334825235
 21
88.4696531129
 31
0.0
  0
LINE
  5
188
330
1F
100
AcDbEntity
  8
0
  6
HIDDEN
 62
     7
370
     0
100
AcDbLine
 10
209.4311573258
 20
87.3718159538
 30
0.0
 11
209.4311573258
 21
88.0652574846
 31
0.0
  0
LINE
  5
189
330
1F
100
AcDbEntity
  8
0
  6
HIDDEN
 62
     7
370
     0
100
AcDbLine
 10
215.4711573258
 20
88.4696531129
 30
0.0
 11
215.4711573258
 21
85.3093757123
 31
0.0
  0
LINE
  5
18A
330
1F
100
AcDbEntity
  8
0
  6
HIDDEN
 62
     7
370
     0
100
AcDbLine
 10
205.7088321282
 20
88.4696531129
 30
0.0
 11
202.4711573258
 21
88.4696531129
 31
0.0
  0
LINE
  5
18B
330
1F
100
AcDbEntity
  8
0
  6
HIDDEN
 62
     7
370
     0
100
AcDbLine
 10
205.6111573258
 20
88.0652574846
 30
0.0
 11
205.6111573258
 21
87.3718159538
 31
0.0
  0
LINE
  5
18C
330
1F
100
AcDbEntity
  8
0
  6
HIDDEN
 62
     7
370
     0
100
AcDbLine
 10
194.4711573258
 20
83.38553013
 30
0.0
 11
194.4711573258
 21
88.4696531129
 31
0.0
  0
LINE
  5
18D
330
1F
100
AcDbEntity
  8
0
  6
HIDDEN
 62
     7
370
     0
100
AcDbLine
 10
202.4711573258
 20
88.4696531129
 30
0.0
 11
194.4711573258
 21
88.4696531129
 31
0.0
  0
LINE
  5
18E
330
1F
100
AcDbEntity
  8
0
  6
HIDDEN
 62
     7
370
     0
100
AcDbLine
 10
208.8211573258
 20
106.3696531129
 30
0.0
 11
208.8211573258
 21
123.3506715812
 31
0.0
  0
LWPOLYLINE
  5
18F
330
1F
100
AcDbEntity
  8
0
  6
HIDDEN
 62
     7
370
     0
100
AcDbPolyline
 90
        2
 70
   128
 43
0.0
 10
215.4711573258
 20
141.2696531129
 10
215.4711573258
 20
141.2696531129
  0
LINE
  5
190
330
1F
100
AcDbEntity
  8
0
  6
HIDDEN
 62
     7
370
     0
100
AcDbLine
 10
206.0054548575
 20
141.2696531129
 30
0.0
 11
202.4711573258
 21
141.2696531129
 31
0.0
  0
LINE
  5
191
330
1F
100
AcDbEntity
  8
0
  6
HIDDEN
 62
     7
370
     0
100
AcDbLine
 10
205.6111573258
 20
141.9893069639
 30
0.0
 11
205.6111573258
 21
142.6748873041
 31
0.0
  0
LINE
  5
192
330
1F
100
AcDbEntity
  8
0
  6
HIDDEN
 62
     7
370
     0
100
AcDbLine
 10
215.4711573258
 20
141.2696531129
 30
0.0
 11
209.0368597941
 21
141.2696531129
 31
0.0
  0
LINE
  5
193
330
1F
100
AcDbEntity
  8
0
  6
HIDDEN
 62
     7
370
     0
100
AcDbLine
 10
209.4311573258
 20
142.6748873041
 30
0.0
 11
209.4311573258
 21
141.9893069639
 31
0.0
  0
LINE
  5
194
330
1F
100
AcDbEntity
  8
0
  6
HIDDEN
 62
     7
370
     0
100
AcDbLine
 10
215.4711573258
 20
141.2696531129
 30
0.0
 11
215.4711573258
 21
144.7160934366
 31
0.0
  0
LINE
  5
195
330
1F
100
AcDbEntity
  8
0
  6
HIDDEN
 62
     7
370
     0
100
AcDbLine
 10
202.4711573258
 20
141.2696531129
 30
0.0
 11
194.4711573258
 21
141.2696531129
 31
0.0
  0
ELLIPSE
  5
196
330
1F
100
AcDbEntity
  8
0
  6
HIDDEN
 62
     7
370
     0
100
AcDbEllipse
 10
153.4537254615
 20
114.8696531129
 30
0.0
 11
20.07002071827051
 21
-2.842170943040401E-14
 31
0.0
210
0.0
220
0.0
230
1.0
 40
0.8164965809
 41
4.921555463185704
 42
4.980534842098404
  0
LINE
  5
197
330
1F
100
AcDbEntity
  8
0
  6
HIDDEN
 62
     7
370
     0
100
AcDbLine
 10
157.6211573258
 20
96.8796531129
 30
0.0
 11
157.6211573258
 21
98.8397177151
 31
0.0
  0
ELLIPSE
  5
198
330
1F
100
AcDbEntity
  8
0
  6
HIDDEN
 62
     7
370
     0
100
AcDbEllipse
 10
153.4537254615
 20
114.8696531129
 30
0.0
 11
20.07002071827051
 21
-1.421085471520200E-14
 31
0.0
210
0.0
220
0.0
230
1.0
 40
0.8164965809
 41
1.302650465081196
 42
1.361629843993896
  0
LINE
  5
199
330
1F
100
AcDbEntity
  8
0
  6
HIDDEN
 62
     7
370
     0
100
AcDbLine
 10
157.6211573258
 20
132.8596531129
 30
0.0
 11
157.6211573258
 21
130.8995885107
 31
0.0
  0
LINE
  5
19A
330
1F
100
AcDbEntity
  8
0
  6
HIDDEN
 62
     7
370
     0
100
AcDbLine
 10
251.1856684191
 20
84.5923904743
 30
0.0
 11
251.1632877666
 21
84.6352741383
 31
0.0
  0
LINE
  5
19B
330
1F
100
AcDbEntity
  8
0
  6
HIDDEN
 62
     7
370
     0
100
AcDbLine
 10
238.6712592118
 20
91.045936181
 30
0.0
 11
251.1856684191
 21
84.5923904743
 31
0.0
  0
LINE
  5
19C
330
1F
100
AcDbEntity
  8
0
  6
HIDDEN
 62
     7
370
     0
100
AcDbLine
 10
240.9798189303
 20
85.3779073356
 30
0.0
 11
240.9367195096
 21
85.4001332415
 31
0.0
  0
LINE
  5
19D
330
1F
100
AcDbEntity
  8
0
  6
HIDDEN
 62
     7
370
     0
100
AcDbLine
 10
244.6977299497
 20
78.2540021218
 30
0.0
 11
240.9798189303
 21
85.3779073356
 31
0.0
  0
LINE
  5
19E
330
1F
100
AcDbEntity
  8
0
  6
HIDDEN
 62
     7
370
     0
100
AcDbLine
 10
244.6546305289
 20
78.2762280277
 30
0.0
 11
244.6977299497
 21
78.2540021218
 31
0.0
  0
SPLINE
  5
19F
330
1F
100
AcDbEntity
  8
0
  6
HIDDEN
 62
     7
370
     0
100
AcDbSpline
210
0.0
220
0.0
230
1.0
 70
     8
 71
     3
 72
    12
 73
     8
 74
     0
 42
0.00000001
 43
0.00000001
 40
0.0
 40
0.0
 40
0.0
 40
0.0
 40
0.25
 40
0.25
 40
0.5
 40
0.5
 40
1.0
 40
1.0
 40
1.0
 40
1.0
 10
231.7891065182687
 20
114.8696531128847
 30
0.0
 10
231.7891065182687
 20
113.5195423235327
 30
0.0
 10
231.816390776732
 20
112.1674329563402
 30
0.0
 10
231.9241954741645
 20
109.4593146602054
 30
0.0
 10
232.0047782089705
 20
108.1031453548409
 30
0.0
 10
232.3173897847488
 20
104.0508911660333
 30
0.0
 10
232.6203487093257
 20
101.3633603708153
 30
0.0
 10
232.989238318449
 20
98.68557226818939
 30
0.0
  0
LINE
  5
1A0
330
1F
100
AcDbEntity
  8
0
  6
HIDDEN
 62
     7
370
     0
100
AcDbLine
 10
231.7891065183
 20
141.8696531129
 30
0.0
 11
231.7891065183
 21
114.8696531129
 31
0.0
  0
SPLINE
  5
1A1
330
1F
100
AcDbEntity
  8
0
  6
HIDDEN
 62
     7
370
     0
100
AcDbSpline
210
0.0
220
0.0
230
1.0
 70
     8
 71
     3
 72
    20
 73
    16
 74
     0
 42
0.00000001
 43
0.00000001
 40
0.0
 40
0.0
 40
0.0
 40
0.0
 40
0.0306037180383457
 40
0.0328053955658673
 40
0.115654126802728
 40
0.1990201480404298
 40
0.2834455583865522
 40
0.3709769943954138
 40
0.4591139341880409
 40
0.5491223625107241
 40
0.6397585587784282
 40
0.7284212280993387
 40
0.8176411305213458
 40
0.9085449224380961
 40
1.0
 40
1.0
 40
1.0
 40
1.0
 10
232.7266365959442
 20
84.41496833355771
 30
0.0
 10
232.7231759860558
 20
84.41431713303803
 30
0.0
 10
232.7194664146846
 20
84.41361908417304
 30
0.0
 10
232.7063271412267
 20
84.40944590070033
 30
0.0
 10
232.6940931843944
 20
84.59600627179236
 30
0.0
 10
232.6799483796758
 20
84.99451247955177
 30
0.0
 10
232.6740627952962
 20
85.64311564267973
 30
0.0
 10
232.6759485694277
 20
86.51900065348974
 30
0.0
 10
232.6868346562997
 20
87.63972954738107
 30
0.0
 10
232.7075339774622
 20
88.99261814961054
 30
0.0
 10
232.7389070660033
 20
90.55892710365022
 30
0.0
 10
232.7814167849439
 20
92.31392949210205
 30
0.0
 10
232.8362332989038
 20
94.25111827413477
 30
0.0
 10
232.9035965695272
 20
96.36490704561439
 30
0.0
 10
232.9606335929599
 20
97.9104597502928
 30
0.0
 10
232.989238318449
 20
98.68557226818939
 30
0.0
  0
ELLIPSE
  5
1A2
330
1F
100
AcDbEntity
  8
0
  6
HIDDEN
 62
     7
370
     0
100
AcDbEllipse
 10
249.7784561421
 20
114.8696531129
 30
0.0
 11
-0.1323458584791979
 21
26.99999842175206
 31
0.0
210
0.0
220
0.0
230
0.9999999999999998
 40
0.0697548059
 41
1.364021194057789
 42
1.570454409763302
  0
ELLIPSE
  5
1A3
330
1F
100
AcDbEntity
  8
0
  6
HIDDEN
 62
     7
370
     0
100
AcDbEllipse
 10
252.359600654
 20
114.8696531129
 30
0.0
 11
-19.04189087378847
 21
26.99870500558234
 31
0.0
210
0.0
220
0.0
230
1.0
 40
0.0138872275
 41
6.273391110970802
 42
7.637754222059325
  0
LINE
  5
1A4
330
1F
100
AcDbEntity
  8
0
  6
HIDDEN
 62
     7
370
     0
100
AcDbLine
 10
158.7711573258
 20
96.8796531129
 30
0.0
 11
158.7711573258
 21
99.0681626769
 31
0.0
  0
LINE
  5
1A5
330
1F
100
AcDbEntity
  8
0
  6
HIDDEN
 62
     7
370
     0
100
AcDbLine
 10
167.7211573258
 20
96.8796531129
 30
0.0
 11
167.7211573258
 21
98.5821394905
 31
0.0
  0
LINE
  5
1A6
330
1F
100
AcDbEntity
  8
0
  6
HIDDEN
 62
     7
370
     0
100
AcDbLine
 10
158.7711573258
 20
132.8596531129
 30
0.0
 11
158.7711573258
 21
130.6711435489
 31
0.0
  0
LINE
  5
1A7
330
1F
100
AcDbEntity
  8
0
  6
HIDDEN
 62
     7
370
     0
100
AcDbLine
 10
163.7211573258
 20
132.8596531129
 30
0.0
 11
163.7211573258
 21
131.1571667353
 31
0.0
  0
SPLINE
  5
1A8
330
1F
100
AcDbEntity
  8
0
  6
HIDDEN
 62
     7
370
     0
100
AcDbSpline
210
0.0
220
0.0
230
1.0
 70
    11
 71
     3
 72
    34
 73
    30
 74
     0
 42
0.00000001
 43
0.00000001
 40
0.0
 40
0.0
 40
0.0
 40
0.0
 40
0.0127738756313335
 40
0.048130501886128
 40
0.080742501692392
 40
0.1375890913626837
 40
0.1884518731192191
 40
0.2226712138150606
 40
0.2626938372949106
 40
0.2986558359810496
 40
0.331519776542945
 40
0.3878459718944463
 40
0.3881772580504154
 40
0.4440926113325779
 40
0.4768435653244591
 40
0.5126448960710561
 40
0.5530084671478274
 40
0.5873855940016006
 40
0.6380121006395885
 40
0.6949796268749238
 40
0.7275539945507965
 40
0.7628079420080975
 40
0.8028703493977667
 40
0.83708315633781
 40
0.8877749825785547
 40
0.8880433483385705
 40
0.9388397946263322
 40
0.9729712758707673
 40
1.0
 40
1.0
 40
1.0
 40
1.0
 10
177.6811692383261
 20
91.80199125634567
 30
0.0
 10
177.7403628909286
 20
91.80808016013748
 30
0.0
 10
177.9633978014332
 20
91.8310224529775
 30
0.0
 10
178.4867502456213
 20
91.8676672055482
 30
0.0
 10
179.359513716966
 20
91.8953512317864
 30
0.0
 10
180.4743516067138
 20
91.88479565842592
 30
0.0
 10
181.5874170159153
 20
91.76865055713962
 30
0.0
 10
182.4818584809001
 20
91.64705980210677
 30
0.0
 10
183.1656934675935
 20
91.52530111227968
 30
0.0
 10
183.7064437667475
 20
91.40894254571994
 30
0.0
 10
184.1198751552725
 20
91.3154590836476
 30
0.0
 10
184.3480234197182
 20
91.24882544392628
 30
0.0
 10
184.1934768144794
 20
91.2900912553341
 30
0.0
 10
184.1666007151634
 20
91.30256122142217
 30
0.0
 10
183.7108198851918
 20
91.40811013526624
 30
0.0
 10
183.1868976361002
 20
91.5208559383086
 30
0.0
 10
182.5006874939104
 20
91.64395483135166
 30
0.0
 10
181.6075747690959
 20
91.76594600869153
 30
0.0
 10
180.4941382214053
 20
91.88369863843205
 30
0.0
 10
179.3833875915344
 20
91.89566916180611
 30
0.0
 10
178.4986355377883
 20
91.86861171255808
 30
0.0
 10
177.8314398311817
 20
91.8206792876531
 30
0.0
 10
177.2901671097244
 20
91.76438652904646
 30
0.0
 10
176.9025870305757
 20
91.719300955032
 30
0.0
 10
176.7085727130774
 20
91.68042101461683
 30
0.0
 10
176.8349010036328
 20
91.70184521152284
 30
0.0
 10
176.8640569739894
 20
91.71176174634044
 30
0.0
 10
177.2355522248273
 20
91.75938112699117
 30
0.0
 10
177.5445936001702
 20
91.78893182317276
 30
0.0
 10
177.6811692383261
 20
91.80199125634567
 30
0.0
  0
SPLINE
  5
1A9
330
1F
100
AcDbEntity
  8
0
  6
HIDDEN
 62
     7
370
     0
100
AcDbSpline
210
0.0
220
0.0
230
1.0
 70
     8
 71
     3
 72
    38
 73
    34
 74
     0
 42
0.00000001
 43
0.00000001
 40
-0.0939221400677788
 40
-0.0657752597753779
 40
-0.0344739496007943
 40
0.0
 40
0.0323124298479836
 40
0.0609695982577461
 40
0.085969868783555
 40
0.1073131755946561
 40
0.1250019290169611
 40
0.1562358721977445
 40
0.1978507372990771
 40
0.2498168793248351
 40
0.2782629480307221
 40
0.304988415983286
 40
0.3300042168913842
 40
0.3533239044418168
 40
0.3749644360933809
 40
0.4060267838322921
 40
0.4476555976010198
 40
0.4998320869201298
 40
0.5286685248934816
 40
0.5555536435543466
 40
0.5805015705746598
 40
0.6035302879119625
 40
0.6246629693429201
 40
0.6685312637103245
 40
0.7183269153555463
 40
0.7652375706113131
 40
0.7915712044406463
 40
0.812293703571044
 40
0.8615656629637487
 40
0.9060778599322212
 40
0.9342247402246221
 40
0.9655260503992057
 40
1.0
 40
1.032312429847984
 40
1.060969598257746
 40
1.085969868783555
 10
178.4614224900189
 20
137.8726571389122
 30
0.0
 10
177.8573542715096
 20
137.9171906441281
 30
0.0
 10
177.3820392086634
 20
137.9652660303611
 30
0.0
 10
177.0624403826635
 20
138.0014287696269
 30
0.0
 10
176.8754459769495
 20
138.0278189038153
 30
0.0
 10
176.7871403173971
 20
138.0438885136126
 30
0.0
 10
176.7577268215279
 20
138.0517121988625
 30
0.0
 10
176.8298588915967
 20
138.0335447002788
 30
0.0
 10
177.1509708937912
 20
137.9889381203161
 30
0.0
 10
177.7229983840058
 20
137.9281995916454
 30
0.0
 10
178.373530731762
 20
137.8788554286254
 30
0.0
 10
178.9234068605035
 20
137.8564929681461
 30
0.0
 10
179.4788447262816
 20
137.8480107582416
 30
0.0
 10
180.0196202739181
 20
137.8544618443902
 30
0.0
 10
180.6175501687174
 20
137.8779402209919
 30
0.0
 10
181.3572160258843
 20
137.9448600918291
 30
0.0
 10
182.2892656591572
 20
138.0609615257642
 30
0.0
 10
183.0786023928308
 20
138.1962764103555
 30
0.0
 10
183.6175320806682
 20
138.3113882344227
 30
0.0
 10
183.9316364205641
 20
138.3811623109737
 30
0.0
 10
184.13691678893
 20
138.4317223964696
 30
0.0
 10
184.2479867750208
 20
138.4624005363764
 30
0.0
 10
184.2942582768248
 20
138.4771275536325
 30
0.0
 10
184.1682934084786
 20
138.4392679600452
 30
0.0
 10
183.6980478796055
 20
138.3287821756191
 30
0.0
 10
183.0448499160169
 20
138.1890779572429
 30
0.0
 10
182.4408309605009
 20
138.0859513510976
 30
0.0
 10
181.7664929108626
 20
137.9865153253282
 30
0.0
 10
180.8811434278751
 20
137.8930449910526
 30
0.0
 10
179.9116645372628
 20
137.8460364849799
 30
0.0
 10
179.1233289599958
 20
137.8497207000804
 30
0.0
 10
178.4614224900189
 20
137.8726571389122
 30
0.0
 10
177.8573542715096
 20
137.9171906441281
 30
0.0
 10
177.3820392086634
 20
137.9652660303611
 30
0.0
  0
LINE
  5
1AA
330
1F
100
AcDbEntity
  8
0
  6
HIDDEN
 62
     7
370
     0
100
AcDbLine
 10
219.6211573258
 20
119.0696531129
 30
0.0
 11
219.6211573258
 21
110.6696531129
 31
0.0
  0
SPLINE
  5
1AB
330
1F
100
AcDbEntity
  8
0
  6
HIDDEN
 62
     7
370
     0
100
AcDbSpline
210
0.0
220
0.0
230
1.0
 70
     8
 71
     3
 72
    52
 73
    48
 74
     0
 42
0.00000001
 43
0.00000001
 40
0.0
 40
0.0
 40
0.0
 40
0.0
 40
0.0624999999999997
 40
0.0624999999999997
 40
0.1249999999999993
 40
0.1249999999999993
 40
0.1874999999999989
 40
0.1874999999999989
 40
0.2187499999999992
 40
0.2187499999999992
 40
0.2499999999999995
 40
0.2499999999999995
 40
0.2812499999999998
 40
0.2812499999999998
 40
0.3125000000000001
 40
0.3125000000000001
 40
0.3749999999999998
 40
0.3749999999999998
 40
0.40625
 40
0.40625
 40
0.4375000000000002
 40
0.4375000000000002
 40
0.4687500000000004
 40
0.4687500000000004
 40
0.5000000000000006
 40
0.5000000000000006
 40
0.5312500000000007
 40
0.5312500000000007
 40
0.5625000000000009
 40
0.5625000000000009
 40
0.593750000000001
 40
0.593750000000001
 40
0.6250000000000012
 40
0.6250000000000012
 40
0.6562500000000013
 40
0.6562500000000013
 40
0.6875000000000016
 40
0.6875000000000016
 40
0.7187500000000017
 40
0.7187500000000017
 40
0.7500000000000018
 40
0.7500000000000018
 40
0.8125000000000013
 40
0.8125000000000013
 40
0.8750000000000009
 40
0.8750000000000009
 40
1.0
 40
1.0
 40
1.0
 40
1.0
 10
219.6211573258375
 20
115.3381751497634
 30
0.0
 10
219.5167865387145
 20
115.5619687196765
 30
0.0
 10
219.3783793589782
 20
115.7592020385476
 30
0.0
 10
219.0413658605414
 20
116.1094032359718
 30
0.0
 10
218.8497707358117
 20
116.2547018479253
 30
0.0
 10
218.422307808747
 20
116.4860995866413
 30
0.0
 10
218.1938939499437
 20
116.5678636676381
 30
0.0
 10
217.8323894970793
 20
116.6326160475716
 30
0.0
 10
217.7079671413512
 20
116.6441733793649
 30
0.0
 10
217.4637052241533
 20
116.6450966618824
 30
0.0
 10
217.342385798011
 20
116.6348300966303
 30
0.0
 10
217.1014360847812
 20
116.5917165262385
 30
0.0
 10
216.9816272579465
 20
116.5584452287809
 30
0.0
 10
216.7550704102856
 20
116.4718778542878
 30
0.0
 10
216.6467757870176
 20
116.4184143983139
 30
0.0
 10
216.3362383349346
 20
116.2272123126204
 30
0.0
 10
216.1569233280909
 20
116.0640365276425
 30
0.0
 10
215.9337581397894
 20
115.7767874516717
 30
0.0
 10
215.8681884097904
 20
115.6754688884522
 30
0.0
 10
215.7537402118869
 20
115.4618390698758
 30
0.0
 10
215.7045041474604
 20
115.3483435423472
 30
0.0
 10
215.6256149712535
 20
115.1157029198048
 30
0.0
 10
215.5959188082028
 20
114.997161866791
 30
0.0
 10
215.5556422623639
 20
114.7556947718943
 30
0.0
 10
215.5451172982465
 20
114.6314027559065
 30
0.0
 10
215.5445607844951
 20
114.3859901021797
 30
0.0
 10
215.5542494091562
 20
114.2650029315516
 30
0.0
 10
215.5933058783428
 20
114.0263686830692
 30
0.0
 10
215.623136170943
 20
113.9077612626977
 30
0.0
 10
215.7008507081763
 20
113.6822736925093
 30
0.0
 10
215.748695140792
 20
113.5745568229798
 30
0.0
 10
215.8626111435853
 20
113.3687522374576
 30
0.0
 10
215.9290240789348
 20
113.2706036579632
 30
0.0
 10
216.0759419410364
 20
113.0907564112559
 30
0.0
 10
216.1569233902225
 20
113.0080348518152
 30
0.0
 10
216.3350515347119
 20
112.8567727082349
 30
0.0
 10
216.432094229459
 20
112.7886738046113
 30
0.0
 10
216.6356853732345
 20
112.6719546713809
 30
0.0
 10
216.743098713763
 20
112.6225349325895
 30
0.0
 10
216.9702844469572
 20
112.541912073908
 30
0.0
 10
217.0893463964147
 20
112.5112720442644
 30
0.0
 10
217.4489112538628
 20
112.4508062577667
 30
0.0
 10
217.701406366496
 20
112.4513597660878
 30
0.0
 10
218.1837186294497
 20
112.5274323115893
 30
0.0
 10
218.4177447129686
 20
112.6026617877144
 30
0.0
 10
219.0571735149618
 20
112.9186111404897
 30
0.0
 10
219.412229011347
 20
113.2510295321282
 30
0.0
 10
219.6211573258375
 20
113.6834786970784
 30
0.0
  0
LINE
  5
1AC
330
1F
100
AcDbEntity
  8
0
  6
HIDDEN
 62
     7
370
     0
100
AcDbLine
 10
211.3211573258
 20
110.6696531129
 30
0.0
 11
211.3211573258
 21
119.0506351877
 31
0.0
  0
SPLINE
  5
1AD
330
1F
100
AcDbEntity
  8
0
  6
HIDDEN
 62
     7
370
     0
100
AcDbSpline
210
0.0
220
0.0
230
1.0
 70
     8
 71
     3
 72
    14
 73
    10
 74
     0
 42
0.00000001
 43
0.00000001
 40
0.0
 40
0.0
 40
0.0
 40
0.0
 40
0.25
 40
0.25
 40
0.5
 40
0.5
 40
0.75
 40
0.75
 40
1.0
 40
1.0
 40
1.0
 40
1.0
 10
219.6211573258375
 20
113.6834786970784
 30
0.0
 10
219.6676196622855
 20
113.815313925766
 30
0.0
 10
219.7039617867704
 20
113.9519029175619
 30
0.0
 10
219.7538174238425
 20
114.2349250067512
 30
0.0
 10
219.7668667235967
 20
114.381445818526
 30
0.0
 10
219.7668648837848
 20
114.6680538454982
 30
0.0
 10
219.7538091244964
 20
114.812249924142
 30
0.0
 10
219.7039577555084
 20
115.0859112605832
 30
0.0
 10
219.6676194974914
 20
115.2156007733609
 30
0.0
 10
219.6211573258375
 20
115.3381751497634
 30
0.0
  0
LINE
  5
1AE
330
1F
100
AcDbEntity
  8
0
  6
HIDDEN
 62
     7
370
     0
100
AcDbLine
 10
247.9080248482
 20
120.403847323
 30
0.0
 11
250.0233719062
 21
118.2936531441
 31
0.0
  0
LINE
  5
1AF
330
1F
100
AcDbEntity
  8
0
  6
HIDDEN
 62
     7
370
     0
100
AcDbLine
 10
251.2422114915
 20
84.3584627616
 30
0.0
 11
251.1856684191
 21
84.5923904743
 31
0.0
  0
LINE
  5
1B0
330
1F
100
AcDbEntity
  8
0
  6
HIDDEN
 62
     7
370
     0
100
AcDbLine
 10
251.2422114915
 20
84.3584627616
 30
0.0
 11
238.4041528658
 21
90.9789109789
 31
0.0
  0
LINE
  5
1B1
330
1F
100
AcDbEntity
  8
0
  6
HIDDEN
 62
     7
370
     0
100
AcDbLine
 10
241.0210905534
 20
85.6931595153
 30
0.0
 11
240.6964082506
 21
85.8605946732
 31
0.0
  0
LINE
  5
1B2
330
1F
100
AcDbEntity
  8
0
  6
HIDDEN
 62
     7
370
     0
100
AcDbLine
 10
241.0210905534
 20
85.6931595153
 30
0.0
 11
240.9798189303
 21
85.3779073356
 31
0.0
  0
ELLIPSE
  5
1B3
330
1F
100
AcDbEntity
  8
0
  6
HIDDEN
 62
     7
370
     0
100
AcDbEllipse
 10
214.5854331356
 20
136.5003615165
 30
0.0
 11
-30.69467752928648
 21
58.46000262158083
 31
0.0
210
0.0
220
0.0
230
1.0
 40
0.0535142116
 41
3.02349858870681
 42
3.075137721871058
  0
ELLIPSE
  5
1B4
330
1F
100
AcDbEntity
  8
0
  6
HIDDEN
 62
     7
370
     0
100
AcDbEllipse
 10
214.44070209
 20
136.574997754
 30
0.0
 11
-30.6154650794326
 21
58.53076743139005
 31
0.0
210
0.0
220
0.0
230
1.0
 40
0.0170295863
 41
3.041795964266147
 42
3.107602696684707
  0
LINE
  5
1B5
330
1F
100
AcDbEntity
  8
0
  6
HIDDEN
 62
     7
370
     0
100
AcDbLine
 10
244.8045303524
 20
78.2835090081
 30
0.0
 11
257.8364072015
 21
71.5631108257
 31
0.0
  0
ELLIPSE
  5
1B6
330
1F
100
AcDbEntity
  8
0
  6
HIDDEN
 62
     7
370
     0
100
AcDbEllipse
 10
227.4725789391
 20
129.8545995716
 30
0.0
 11
-30.61546507943263
 21
58.53076743139022
 31
0.0
210
0.0
220
0.0
230
1.0
 40
0.0170295863
 41
2.339032778426037
 42
3.041795964266174
  0
ELLIPSE
  5
1B7
330
1F
100
AcDbEntity
  8
0
  6
HIDDEN
 62
     7
370
     0
100
AcDbEllipse
 10
513.8588681631
 20
-17.8317175912
 30
0.0
 11
-359.5465388960539
 21
185.4142679877791
 31
0.0
210
0.0
220
0.0
230
1.0
 40
0.0939339791
 41
0.724113842613147
 42
0.7883526804277141
  0
ELLIPSE
  5
1B8
330
1F
100
AcDbEntity
  8
0
  6
HIDDEN
 62
     7
370
     0
100
AcDbEllipse
 10
249.8333496061
 20
118.3233915739
 30
0.0
 11
-0.164328554953272
 21
42.81788464320655
 31
0.0
210
0.0
220
0.0
230
1.0
 40
0.0617883738
 41
2.326995702826987
 42
2.331098390009173
  0
LINE
  5
1B9
330
1F
100
AcDbEntity
  8
0
  6
HIDDEN
 62
     7
370
     0
100
AcDbLine
 10
241.0210905534
 20
85.6931595153
 30
0.0
 11
245.0046104579
 21
78.0603199802
 31
0.0
  0
LINE
  5
1BA
330
1F
100
AcDbEntity
  8
0
  6
HIDDEN
 62
     7
370
     0
100
AcDbLine
 10
248.0294851342
 20
88.8085015602
 30
0.0
 11
250.0233719062
 21
86.8194717961
 31
0.0
  0
LWPOLYLINE
  5
1BB
330
1F
100
AcDbEntity
  8
0
  6
HIDDEN
 62
     7
370
     0
100
AcDbPolyline
 90
        2
 70
   128
 43
0.0
 10
194.4711573258
 20
88.4696531129
 10
194.4711573258
 20
88.4696531129
  0
ARC
  5
1BC
330
1F
100
AcDbEntity
  8
0
  6
HIDDEN
 62
     7
370
     0
100
AcDbCircle
 10
236.2736192773
 20
90.1922538906
 30
0.0
 40
1.750350375115326
100
AcDbArc
 50
62.765446418
 51
228.8969154406
  0
LINE
  5
1BD
330
1F
100
AcDbEntity
  8
0
  6
HIDDEN
 62
     7
370
     0
100
AcDbLine
 10
251.0678203072
 20
84.5324291378
 30
0.0
 11
251.2422114915
 21
84.3584627616
 31
0.0
  0
LINE
  5
1BE
330
1F
100
AcDbEntity
  8
0
  6
HIDDEN
 62
     7
370
     0
100
AcDbLine
 10
240.6364012378
 20
85.9755743671
 30
0.0
 11
240.846699369
 21
85.8671258915
 31
0.0
  0
LINE
  5
1BF
330
1F
100
AcDbEntity
  8
0
  6
HIDDEN
 62
     7
370
     0
100
AcDbLine
 10
241.0210905534
 20
85.6931595153
 30
0.0
 11
240.846699369
 21
85.8671258915
 31
0.0
  0
LINE
  5
1C0
330
1F
100
AcDbEntity
  8
0
  6
HIDDEN
 62
     7
370
     0
100
AcDbLine
 10
194.4711573258
 20
83.38553013
 30
0.0
 11
194.4711573258
 21
88.4696531129
 31
0.0
  0
LINE
  5
1C1
330
1F
100
AcDbEntity
  8
0
  6
HIDDEN
 62
     7
370
     0
100
AcDbLine
 10
194.4711573258
 20
88.4696531129
 30
0.0
 11
202.4711573258
 21
88.4696531129
 31
0.0
  0
CIRCLE
  5
1C2
330
1F
100
AcDbEntity
  8
0
  6
HIDDEN
 62
     7
370
     0
100
AcDbCircle
 10
248.4761576255
 20
80.8536074782
 30
0.0
 40
2.395725097740614
  0
LINE
  5
1C3
330
1F
100
AcDbEntity
  8
0
  6
HIDDEN
 62
     7
370
     0
100
AcDbLine
 10
240.846699369
 20
85.8671258915
 30
0.0
 11
244.8045303524
 21
78.2835090081
 31
0.0
  0
LINE
  5
1C4
330
1F
100
AcDbEntity
  8
0
  6
HIDDEN
 62
     7
370
     0
100
AcDbLine
 10
251.0678203072
 20
84.5324291378
 30
0.0
 11
237.0746395192
 21
91.7485613819
 31
0.0
  0
LINE
  5
1C5
330
1F
100
AcDbEntity
  8
0
  6
HIDDEN
 62
     7
370
     0
100
AcDbLine
 10
257.8364072015
 20
71.5631108257
 30
0.0
 11
251.0678203072
 21
84.5324291378
 31
0.0
  0
CIRCLE
  5
1C6
330
1F
100
AcDbEntity
  8
0
  6
HIDDEN
 62
     7
370
     0
100
AcDbCircle
 10
248.4235511397
 20
80.9094392359
 30
0.0
 40
1.647262972437678
  0
CIRCLE
  5
1C7
330
1F
100
AcDbEntity
  8
0
  6
HIDDEN
 62
     7
370
     0
100
AcDbCircle
 10
220.4590217512
 20
113.1126896158
 30
0.0
 40
2.089514961746659
  0
CIRCLE
  5
1C8
330
1F
100
AcDbEntity
  8
0
  6
HIDDEN
 62
     7
370
     0
100
AcDbCircle
 10
247.8131819944
 20
81.5183215526
 30
0.0
 40
1.647262972437621
  0
LINE
  5
1C9
330
1F
100
AcDbEntity
  8
0
  6
HIDDEN
 62
     7
370
     0
100
AcDbLine
 10
163.7211573258
 20
132.8596531129
 30
0.0
 11
163.7211573258
 21
131.1571667353
 31
0.0
  0
LINE
  5
1CA
330
1F
100
AcDbEntity
  8
0
  6
HIDDEN
 62
     7
370
     0
100
AcDbLine
 10
167.7211573258
 20
96.8796531129
 30
0.0
 11
167.7211573258
 21
98.5821394905
 31
0.0
  0
LINE
  5
1CB
330
1F
100
AcDbEntity
  8
0
  6
HIDDEN
 62
     7
370
     0
100
AcDbLine
 10
163.7211573258
 20
132.8596531129
 30
0.0
 11
163.7211573258
 21
136.7137607852
 31
0.0
  0
LINE
  5
1CC
330
1F
100
AcDbEntity
  8
0
  6
HIDDEN
 62
     7
370
     0
100
AcDbLine
 10
167.7211573258
 20
96.8796531129
 30
0.0
 11
167.7211573258
 21
92.9245048536
 31
0.0
  0
LWPOLYLINE
  5
1CD
330
1F
100
AcDbEntity
  8
0
  6
HIDDEN
 62
     7
370
     0
100
AcDbPolyline
 90
        2
 70
   128
 43
0.0
 10
215.4711573258
 20
141.2696531129
 10
215.4711573258
 20
141.2696531129
  0
LWPOLYLINE
  5
1CE
330
1F
100
AcDbEntity
  8
0
  6
HIDDEN
 62
     7
370
     0
100
AcDbPolyline
 90
        2
 70
   128
 43
0.0
 10
215.4711573258
 20
88.4696531129
 10
215.4711573258
 20
88.4696531129
  0
ELLIPSE
  5
1CF
330
1F
100
AcDbEntity
  8
0
  6
HIDDEN
 62
     7
370
     0
100
AcDbEllipse
 10
153.4537254615
 20
114.8696531129
 30
0.0
 11
20.07002071827051
 21
-1.421085471520200E-14
 31
0.0
210
0.0
220
0.0
230
1.0
 40
0.8164965809
 41
1.302650465081196
 42
1.361629843993896
  0
LINE
  5
1D0
330
1F
100
AcDbEntity
  8
0
  6
HIDDEN
 62
     7
370
     0
100
AcDbLine
 10
157.6211573258
 20
132.8596531129
 30
0.0
 11
157.6211573258
 21
130.8995885107
 31
0.0
  0
LINE
  5
1D1
330
1F
100
AcDbEntity
  8
0
  6
HIDDEN
 62
     7
370
     0
100
AcDbLine
 10
158.7711573258
 20
132.8596531129
 30
0.0
 11
158.7711573258
 21
130.6711435489
 31
0.0
  0
LINE
  5
1D2
330
1F
100
AcDbEntity
  8
0
  6
HIDDEN
 62
     7
370
     0
100
AcDbLine
 10
158.7711573258
 20
132.8596531129
 30
0.0
 11
158.7711573258
 21
135.7395908783
 31
0.0
  0
SPLINE
  5
1D3
330
1F
100
AcDbEntity
  8
0
  6
HIDDEN
 62
     7
370
     0
100
AcDbSpline
210
0.0
220
0.0
230
1.0
 70
     8
 71
     3
 72
    10
 73
     6
 74
     0
 42
0.00000001
 43
0.00000001
 40
0.0
 40
0.0
 40
0.0
 40
0.0
 40
0.5
 40
0.5
 40
1.0
 40
1.0
 40
1.0
 40
1.0
 10
158.7611123954193
 20
135.7296070051724
 30
0.0
 10
158.6935531405011
 20
135.6619156123626
 30
0.0
 10
158.6299164851646
 20
135.587208447609
 30
0.0
 10
158.5196957305927
 20
135.4282423151824
 30
0.0
 10
158.4728794373701
 20
135.3438870491744
 30
0.0
 10
158.445310971942
 20
135.2597724464825
 30
0.0
  0
LINE
  5
1D4
330
1F
100
AcDbEntity
  8
0
  6
HIDDEN
 62
     7
370
     0
100
AcDbLine
 10
157.6211573258
 20
132.8596531129
 30
0.0
 11
157.6211573258
 21
134.5603308594
 31
0.0
  0
SPLINE
  5
1D5
330
1F
100
AcDbEntity
  8
0
  6
HIDDEN
 62
     7
370
     0
100
AcDbSpline
210
0.0
220
0.0
230
1.0
 70
     8
 71
     3
 72
    10
 73
     6
 74
     0
 42
0.00000001
 43
0.00000001
 40
0.0
 40
0.0
 40
0.0
 40
0.0
 40
0.5
 40
0.5
 40
1.0
 40
1.0
 40
1.0
 40
1.0
 10
157.6838207005609
 20
134.5442056576655
 30
0.0
 10
157.6749164114522
 20
134.5899471768787
 30
0.0
 10
157.6584010312592
 20
134.6071380163476
 30
0.0
 10
157.6312930851976
 20
134.6068147394119
 30
0.0
 10
157.6211573258375
 20
134.5889371971155
 30
0.0
 10
157.6211573258375
 20
134.5603308593629
 30
0.0
  0
ELLIPSE
  5
1D6
330
1F
100
AcDbEntity
  8
0
  6
HIDDEN
 62
     7
370
     0
100
AcDbEllipse
 10
153.4537254615
 20
114.8696531129
 30
0.0
 11
20.07002071827051
 21
-2.842170943040401E-14
 31
0.0
210
0.0
220
0.0
230
1.0
 40
0.8164965809
 41
4.921555463185704
 42
4.980534842098404
  0
LINE
  5
1D7
330
1F
100
AcDbEntity
  8
0
  6
HIDDEN
 62
     7
370
     0
100
AcDbLine
 10
157.6211573258
 20
130.8995885107
 30
0.0
 11
157.6211573258
 21
98.8397177151
 31
0.0
  0
LINE
  5
1D8
330
1F
100
AcDbEntity
  8
0
  6
HIDDEN
 62
     7
370
     0
100
AcDbLine
 10
158.7711573258
 20
96.8796531129
 30
0.0
 11
158.7711573258
 21
99.0681626769
 31
0.0
  0
LINE
  5
1D9
330
1F
100
AcDbEntity
  8
0
  6
HIDDEN
 62
     7
370
     0
100
AcDbLine
 10
157.6211573258
 20
96.8796531129
 30
0.0
 11
157.6211573258
 21
98.8397177151
 31
0.0
  0
SPLINE
  5
1DA
330
1F
100
AcDbEntity
  8
0
  6
HIDDEN
 62
     7
370
     0
100
AcDbSpline
210
0.0
220
0.0
230
1.0
 70
     8
 71
     3
 72
     8
 73
     4
 74
     0
 42
0.00000001
 43
0.00000001
 40
0.0
 40
0.0
 40
0.0
 40
0.0
 40
1.0
 40
1.0
 40
1.0
 40
1.0
 10
158.5600668960367
 20
94.42573080991912
 30
0.0
 10
158.5957805544066
 20
94.30249930465932
 30
0.0
 10
158.6714485933549
 20
94.18155572771234
 30
0.0
 10
158.761112395428
 20
94.07483668400907
 30
0.0
  0
SPLINE
  5
1DB
330
1F
100
AcDbEntity
  8
0
  6
HIDDEN
 62
     7
370
     0
100
AcDbSpline
210
0.0
220
0.0
230
1.0
 70
     8
 71
     3
 72
    10
 73
     6
 74
     0
 42
0.00000001
 43
0.00000001
 40
0.0
 40
0.0
 40
0.0
 40
0.0
 40
0.5
 40
0.5
 40
1.0
 40
1.0
 40
1.0
 40
1.0
 10
157.6211573258371
 20
95.21649258793184
 30
0.0
 10
157.621157325837
 20
95.20297606206408
 30
0.0
 10
157.6264768864653
 20
95.19880528970678
 30
0.0
 10
157.6396051187469
 20
95.21693633309437
 30
0.0
 10
157.6472977734009
 20
95.23984475815631
 30
0.0
 10
157.6514349414462
 20
95.27956555265789
 30
0.0
  0
LINE
  5
1DC
330
1F
100
AcDbEntity
  8
0
  6
HIDDEN
 62
     7
370
     0
100
AcDbLine
 10
157.6211573258
 20
96.8796531129
 30
0.0
 11
157.6211573258
 21
95.2164925879
 31
0.0
  0
LINE
  5
1DD
330
1F
100
AcDbEntity
  8
0
  6
HIDDEN
 62
     7
370
     0
100
AcDbLine
 10
158.7711573258
 20
96.8796531129
 30
0.0
 11
158.7711573258
 21
94.0630215544
 31
0.0
  0
SPLINE
  5
1DE
330
1F
100
AcDbEntity
  8
0
  6
HIDDEN
 62
     7
370
     0
100
AcDbSpline
210
0.0
220
0.0
230
1.0
 70
     8
 71
     3
 72
    10
 73
     6
 74
     0
 42
0.00000001
 43
0.00000001
 40
0.0
 40
0.0
 40
0.0
 40
0.0
 40
0.5
 40
0.5
 40
1.0
 40
1.0
 40
1.0
 40
1.0
 10
205.6111573258375
 20
141.9893069639205
 30
0.0
 10
205.6111573258375
 20
141.8456946123625
 30
0.0
 10
205.6473246009353
 20
141.7027211986439
 30
0.0
 10
205.7830805446893
 20
141.4527285719302
 30
0.0
 10
205.8833502353122
 20
141.3447262626513
 30
0.0
 10
206.0054548575285
 20
141.2696531128847
 30
0.0
  0
LINE
  5
1DF
330
1F
100
AcDbEntity
  8
0
  6
HIDDEN
 62
     7
370
     0
100
AcDbLine
 10
205.6111573258
 20
141.9893069639
 30
0.0
 11
205.6111573258
 21
88.0652574846
 31
0.0
  0
SPLINE
  5
1E0
330
1F
100
AcDbEntity
  8
0
  6
HIDDEN
 62
     7
370
     0
100
AcDbSpline
210
0.0
220
0.0
230
1.0
 70
     8
 71
     3
 72
    10
 73
     6
 74
     0
 42
0.00000001
 43
0.00000001
 40
0.0
 40
0.0
 40
0.0
 40
0.0
 40
0.5
 40
0.5
 40
1.0
 40
1.0
 40
1.0
 40
1.0
 10
205.6111573258375
 20
88.0652574845554
 30
0.0
 10
205.6111573258375
 20
88.13549384492592
 30
0.0
 10
205.619439937928
 20
88.20548794642318
 30
0.0
 10
205.6525398809863
 20
88.34244721098165
 30
0.0
 10
205.6768772729446
 20
88.40775512023671
 30
0.0
 10
205.7088321281691
 20
88.46965311288345
 30
0.0
  0
SPLINE
  5
1E1
330
1F
100
AcDbEntity
  8
0
  6
HIDDEN
 62
     7
370
     0
100
AcDbSpline
210
0.0
220
0.0
230
1.0
 70
    24
 71
     3
 72
    12
 73
     8
 74
     0
 42
0.00000001
 43
0.00000001
 40
0.0
 40
0.0
 40
0.0
 40
0.0
 40
0.5
 40
0.5
 40
0.75
 40
0.75
 40
1.0
 40
1.0
 40
1.0
 40
1.0
 10
206.0054548575285
 20
141.2696531128847
 30
0.0
 10
206.0485782059621
 20
141.2696531128847
 30
0.0
 10
206.0983177932623
 20
141.2696531128847
 30
0.0
 10
206.1948387700842
 20
141.2696531128847
 30
0.0
 10
206.2304039009359
 20
141.2696531128847
 30
0.0
 10
206.3137522315589
 20
141.2696531128847
 30
0.0
 10
206.3622221312491
 20
141.2696531128847
 30
0.0
 10
206.4111573258387
 20
141.2696531128847
 30
0.0
  0
SPLINE
  5
1E2
330
1F
100
AcDbEntity
  8
0
  6
HIDDEN
 62
     7
370
     0
100
AcDbSpline
210
0.0
220
0.0
230
1.0
 70
    24
 71
     3
 72
    14
 73
    10
 74
     0
 42
0.00000001
 43
0.00000001
 40
0.0
 40
0.0
 40
0.0
 40
0.0
 40
0.5000000000000008
 40
0.5000000000000008
 40
0.7500000000000007
 40
0.7500000000000007
 40
0.8750000000000003
 40
0.8750000000000003
 40
1.0
 40
1.0
 40
1.0
 40
1.0
 10
205.7088321281697
 20
88.46965311288473
 30
0.0
 10
205.7560386160095
 20
88.46965311288473
 30
0.0
 10
205.8193786194389
 20
88.46965311288473
 30
0.0
 10
205.9624417256947
 20
88.46965311288474
 30
0.0
 10
206.0185223759657
 20
88.46965311288473
 30
0.0
 10
206.129957725875
 20
88.46965311288473
 30
0.0
 10
206.1719025165481
 20
88.46965311288473
 30
0.0
 10
206.2768989595682
 20
88.46965311288473
 30
0.0
 10
206.3424628966489
 20
88.46965311288471
 30
0.0
 10
206.4111573258374
 20
88.46965311288473
 30
0.0
  0
LINE
  5
1E3
330
1F
100
AcDbEntity
  8
0
  6
HIDDEN
 62
     7
370
     0
100
AcDbLine
 10
209.4311573258
 20
141.9893069639
 30
0.0
 11
209.4311573258
 21
88.0652574846
 31
0.0
  0
SPLINE
  5
1E4
330
1F
100
AcDbEntity
  8
0
  6
HIDDEN
 62
     7
370
     0
100
AcDbSpline
210
0.0
220
0.0
230
1.0
 70
     8
 71
     3
 72
    10
 73
     6
 74
     0
 42
0.00000001
 43
0.00000001
 40
0.0
 40
0.0
 40
0.0
 40
0.0
 40
0.5
 40
0.5
 40
1.0
 40
1.0
 40
1.0
 40
1.0
 10
209.0368597941466
 20
141.2696531128848
 30
0.0
 10
209.1581723172443
 20
141.344239259173
 30
0.0
 10
209.2596006794694
 20
141.4530635703243
 30
0.0
 10
209.3955442457296
 20
141.704084088946
 30
0.0
 10
209.4311573258375
 20
141.8466667820853
 30
0.0
 10
209.4311573258375
 20
141.9893069639206
 30
0.0
  0
SPLINE
  5
1E5
330
1F
100
AcDbEntity
  8
0
  6
HIDDEN
 62
     7
370
     0
100
AcDbSpline
210
0.0
220
0.0
230
1.0
 70
     8
 71
     3
 72
    10
 73
     6
 74
     0
 42
0.00000001
 43
0.00000001
 40
0.0
 40
0.0
 40
0.0
 40
0.0
 40
0.5
 40
0.5
 40
1.0
 40
1.0
 40
1.0
 40
1.0
 10
209.3334825235052
 20
88.46965311288473
 30
0.0
 10
209.3656377111272
 20
88.4073670673686
 30
0.0
 10
209.3902939423215
 20
88.34083664249937
 30
0.0
 10
209.423106699247
 20
88.20397801213684
 30
0.0
 10
209.4311573258375
 20
88.13492041695851
 30
0.0
 10
209.4311573258375
 20
88.06525748455516
 30
0.0
  0
SPLINE
  5
1E6
330
1F
100
AcDbEntity
  8
0
  6
HIDDEN
 62
     7
370
     0
100
AcDbSpline
210
0.0
220
0.0
230
1.0
 70
    24
 71
     3
 72
    12
 73
     8
 74
     0
 42
0.00000001
 43
0.00000001
 40
0.0
 40
0.0
 40
0.0
 40
0.0
 40
0.25
 40
0.25
 40
0.5
 40
0.5
 40
1.0
 40
1.0
 40
1.0
 40
1.0
 10
208.6311573258375
 20
141.2696531128847
 30
0.0
 10
208.6806924320555
 20
141.2696531128847
 30
0.0
 10
208.729097320657
 20
141.2696531128847
 30
0.0
 10
208.8119838698346
 20
141.2696531128847
 30
0.0
 10
208.848498591303
 20
141.2696531128847
 30
0.0
 10
208.9448314296576
 20
141.2696531128847
 30
0.0
 10
208.9935839773203
 20
141.2696531128847
 30
0.0
 10
209.0368597941509
 20
141.2696531128847
 30
0.0
  0
SPLINE
  5
1E7
330
1F
100
AcDbEntity
  8
0
  6
HIDDEN
 62
     7
370
     0
100
AcDbSpline
210
0.0
220
0.0
230
1.0
 70
    24
 71
     3
 72
    14
 73
    10
 74
     0
 42
0.00000001
 43
0.00000001
 40
0.0
 40
0.0
 40
0.0
 40
0.0
 40
0.1249999999999981
 40
0.1249999999999981
 40
0.2499999999999962
 40
0.2499999999999962
 40
0.4999999999999984
 40
0.4999999999999984
 40
1.0
 40
1.0
 40
1.0
 40
1.0
 10
208.6311573258375
 20
88.46965311288473
 30
0.0
 10
208.7002539581815
 20
88.46965311288473
 30
0.0
 10
208.7652471237894
 20
88.46965311288473
 30
0.0
 10
208.8695683224346
 20
88.46965311288473
 30
0.0
 10
208.912348696543
 20
88.46965311288473
 30
0.0
 10
209.0246863561893
 20
88.46965311288474
 30
0.0
 10
209.0797335383317
 20
88.46965311288473
 30
0.0
 10
209.2236103121017
 20
88.46965311288473
 30
0.0
 10
209.2866396253768
 20
88.46965311288473
 30
0.0
 10
209.3334825235052
 20
88.46965311288473
 30
0.0
  0
LINE
  5
1E8
330
1F
100
AcDbEntity
  8
0
  6
HIDDEN
 62
     7
370
     0
100
AcDbLine
 10
206.4111573258
 20
141.2696531129
 30
0.0
 11
208.6311573258
 21
141.2696531129
 31
0.0
  0
LINE
  5
1E9
330
1F
100
AcDbEntity
  8
0
  6
HIDDEN
 62
     7
370
     0
100
AcDbLine
 10
206.4111573258
 20
88.4696531129
 30
0.0
 11
208.6311573258
 21
88.4696531129
 31
0.0
  0
LINE
  5
1EA
330
1F
100
AcDbEntity
  8
0
  6
HIDDEN
 62
     7
370
     0
100
AcDbLine
 10
209.4311573258
 20
141.9893069639
 30
0.0
 11
209.4311573258
 21
142.6748873041
 31
0.0
  0
SPLINE
  5
1EB
330
1F
100
AcDbEntity
  8
0
  6
HIDDEN
 62
     7
370
     0
100
AcDbSpline
210
0.0
220
0.0
230
1.0
 70
     8
 71
     3
 72
     8
 73
     4
 74
     0
 42
0.00000001
 43
0.00000001
 40
0.0
 40
0.0
 40
0.0
 40
0.0
 40
1.0
 40
1.0
 40
1.0
 40
1.0
 10
209.4311573258375
 20
142.6748873040563
 30
0.0
 10
209.9238674226833
 20
143.5629063021827
 30
0.0
 10
210.4179501279623
 20
144.4501689378687
 30
0.0
 10
210.9130901573266
 20
145.3368485860489
 30
0.0
  0
LINE
  5
1EC
330
1F
100
AcDbEntity
  8
0
  6
HIDDEN
 62
     7
370
     0
100
AcDbLine
 10
210.9130901573
 20
145.336848586
 30
0.0
 11
214.8711573258
 21
145.336848586
 31
0.0
  0
SPLINE
  5
1ED
330
1F
100
AcDbEntity
  8
0
  6
HIDDEN
 62
     7
370
     0
100
AcDbSpline
210
0.0
220
0.0
230
1.0
 70
     8
 71
     3
 72
    12
 73
     8
 74
     0
 42
0.00000001
 43
0.00000001
 40
0.0
 40
0.0
 40
0.0
 40
0.0
 40
0.2500000000000038
 40
0.2500000000000038
 40
0.5000000000000077
 40
0.5000000000000077
 40
1.0
 40
1.0
 40
1.0
 40
1.0
 10
214.8711573258375
 20
145.3368485860489
 30
0.0
 10
214.9506502748858
 20
145.3368485860489
 30
0.0
 10
215.0317337762413
 20
145.3198458360882
 30
0.0
 10
215.1781641733791
 20
145.2557852949765
 30
0.0
 10
215.2447127832529
 20
145.2086266793379
 30
0.0
 10
215.4090026572266
 20
145.0354046466457
 30
0.0
 10
215.4711573258377
 20
144.8752955564114
 30
0.0
 10
215.4711573258375
 20
144.716093436648
 30
0.0
  0
LINE
  5
1EE
330
1F
100
AcDbEntity
  8
0
  6
HIDDEN
 62
     7
370
     0
100
AcDbLine
 10
215.4711573258
 20
144.7160934366
 30
0.0
 11
215.4711573258
 21
141.2696531129
 31
0.0
  0
LINE
  5
1EF
330
1F
100
AcDbEntity
  8
0
  6
HIDDEN
 62
     7
370
     0
100
AcDbLine
 10
209.0368597941
 20
141.2696531129
 30
0.0
 11
215.4711573258
 21
141.2696531129
 31
0.0
  0
LINE
  5
1F0
330
1F
100
AcDbEntity
  8
0
  6
HIDDEN
 62
     7
370
     0
100
AcDbLine
 10
205.6111573258
 20
142.6748873041
 30
0.0
 11
205.6111573258
 21
141.9893069639
 31
0.0
  0
SPLINE
  5
1F1
330
1F
100
AcDbEntity
  8
0
  6
HIDDEN
 62
     7
370
     0
100
AcDbSpline
210
0.0
220
0.0
230
1.0
 70
     8
 71
     3
 72
     8
 73
     4
 74
     0
 42
0.00000001
 43
0.00000001
 40
0.0
 40
0.0
 40
0.0
 40
0.0
 40
1.0
 40
1.0
 40
1.0
 40
1.0
 10
204.1292244943485
 20
145.3368485860489
 30
0.0
 10
204.6243645237128
 20
144.4501689378687
 30
0.0
 10
205.1184472289918
 20
143.5629063021827
 30
0.0
 10
205.6111573258375
 20
142.6748873040563
 30
0.0
  0
LINE
  5
1F2
330
1F
100
AcDbEntity
  8
0
  6
HIDDEN
 62
     7
370
     0
100
AcDbLine
 10
202.4711573258
 20
141.2696531129
 30
0.0
 11
206.0054548575
 21
141.2696531129
 31
0.0
  0
SPLINE
  5
1F3
330
1F
100
AcDbEntity
  8
0
  6
HIDDEN
 62
     7
370
     0
100
AcDbSpline
210
0.0
220
0.0
230
1.0
 70
     8
 71
     3
 72
    12
 73
     8
 74
     0
 42
0.00000001
 43
0.00000001
 40
0.0
 40
0.0
 40
0.0
 40
0.0
 40
0.2499999999999999
 40
0.2499999999999999
 40
0.4999999999999998
 40
0.4999999999999998
 40
1.0
 40
1.0
 40
1.0
 40
1.0
 10
214.8711573258375
 20
84.68273541663758
 30
0.0
 10
214.9510383305846
 20
84.68273541663758
 30
0.0
 10
215.0316324608552
 20
84.69985250290344
 30
0.0
 10
215.1782479067001
 20
84.76458861437854
 30
0.0
 10
215.2447490994441
 20
84.81204585725888
 30
0.0
 10
215.4104840005813
 20
84.98887029979835
 30
0.0
 10
215.4711573258375
 20
85.14914680700406
 30
0.0
 10
215.4711573258375
 20
85.30937571229184
 30
0.0
  0
LINE
  5
1F4
330
1F
100
AcDbEntity
  8
0
  6
HIDDEN
 62
     7
370
     0
100
AcDbLine
 10
215.4711573258
 20
144.7160934366
 30
0.0
 11
215.4711573258
 21
85.3093757123
 31
0.0
  0
LINE
  5
1F5
330
1F
100
AcDbEntity
  8
0
  6
HIDDEN
 62
     7
370
     0
100
AcDbLine
 10
205.6111573258
 20
142.6748873041
 30
0.0
 11
205.6111573258
 21
87.3718159538
 31
0.0
  0
LINE
  5
1F6
330
1F
100
AcDbEntity
  8
0
  6
HIDDEN
 62
     7
370
     0
100
AcDbLine
 10
210.9130901573
 20
145.336848586
 30
0.0
 11
210.9130901573
 21
84.6827354166
 31
0.0
  0
LINE
  5
1F7
330
1F
100
AcDbEntity
  8
0
  6
HIDDEN
 62
     7
370
     0
100
AcDbLine
 10
209.4311573258
 20
142.6748873041
 30
0.0
 11
209.4311573258
 21
87.3718159538
 31
0.0
  0
SPLINE
  5
1F8
330
1F
100
AcDbEntity
  8
0
  6
HIDDEN
 62
     7
370
     0
100
AcDbSpline
210
0.0
220
0.0
230
1.0
 70
     8
 71
     3
 72
    26
 73
    22
 74
     0
 42
0.00000001
 43
0.00000001
 40
0.0
 40
0.0
 40
0.0
 40
0.0
 40
0.250000000000023
 40
0.250000000000023
 40
0.3750000000000333
 40
0.3750000000000333
 40
0.4375000000000372
 40
0.4375000000000372
 40
0.4687500000000367
 40
0.4687500000000367
 40
0.5000000000000363
 40
0.5000000000000363
 40
0.5312500000000359
 40
0.5312500000000359
 40
0.5625000000000354
 40
0.5625000000000354
 40
0.6250000000000311
 40
0.6250000000000311
 40
0.7500000000000205
 40
0.7500000000000205
 40
1.0
 40
1.0
 40
1.0
 40
1.0
 10
158.445310971942
 20
135.2597724464826
 30
0.0
 10
158.4067104490736
 20
135.1419977501271
 30
0.0
 10
158.3604134465193
 20
135.0176080639652
 30
0.0
 10
158.2664740980854
 20
134.8123887316117
 30
0.0
 10
158.2311626311719
 20
134.7408158651652
 30
0.0
 10
158.1649826554262
 20
134.6248626325648
 30
0.0
 10
158.140444288758
 20
134.5842780977546
 30
0.0
 10
158.0970715432042
 20
134.5201364158828
 30
0.0
 10
158.081563141779
 20
134.4982699905978
 30
0.0
 10
158.046520497192
 20
134.4526757222546
 30
0.0
 10
158.0269702064722
 20
134.4290054312871
 30
0.0
 10
157.9850429261016
 20
134.3843888719472
 30
0.0
 10
157.96239081587
 20
134.3635088594293
 30
0.0
 10
157.9214171017833
 20
134.3326354456785
 30
0.0
 10
157.9038178018879
 20
134.3227965758461
 30
0.0
 10
157.8591908160318
 20
134.3038069601499
 30
0.0
 10
157.8386315933784
 20
134.3034826354965
 30
0.0
 10
157.7875061538818
 20
134.3127060763727
 30
0.0
 10
157.7665947408933
 20
134.3339529725897
 30
0.0
 10
157.7151448333323
 20
134.4079218514204
 30
0.0
 10
157.6974795340277
 20
134.4740399447352
 30
0.0
 10
157.6838207005609
 20
134.5442056576655
 30
0.0
  0
SPLINE
  5
1F9
330
1F
100
AcDbEntity
  8
0
  6
HIDDEN
 62
     7
370
     0
100
AcDbSpline
210
0.0
220
0.0
230
1.0
 70
     8
 71
     3
 72
    26
 73
    22
 74
     0
 42
0.00000001
 43
0.00000001
 40
0.0
 40
0.0
 40
0.0
 40
0.0
 40
0.2500000000000047
 40
0.2500000000000047
 40
0.375000000000008
 40
0.375000000000008
 40
0.437500000000009
 40
0.437500000000009
 40
0.468750000000009
 40
0.468750000000009
 40
0.5000000000000091
 40
0.5000000000000091
 40
0.5312500000000092
 40
0.5312500000000092
 40
0.5625000000000094
 40
0.5625000000000094
 40
0.6250000000000078
 40
0.6250000000000078
 40
0.7500000000000054
 40
0.7500000000000054
 40
1.0
 40
1.0
 40
1.0
 40
1.0
 10
157.6514349414462
 20
95.27956555265789
 30
0.0
 10
157.6621589748387
 20
95.38252659314688
 30
0.0
 10
157.6768919654332
 20
95.48152528262793
 30
0.0
 10
157.7292455246802
 20
95.60012096269305
 30
0.0
 10
157.7509508073998
 20
95.63583126264186
 30
0.0
 10
157.8098063147652
 20
95.66081069546358
 30
0.0
 10
157.8332685486124
 20
95.66519614322715
 30
0.0
 10
157.889389925273
 20
95.64544330978302
 30
0.0
 10
157.9121772354036
 20
95.6337869189726
 30
0.0
 10
157.9674297879349
 20
95.59200656953536
 30
0.0
 10
157.9988360206757
 20
95.56173498215935
 30
0.0
 10
158.0537698412961
 20
95.50009258324536
 30
0.0
 10
158.0781936594956
 20
95.46865093093854
 30
0.0
 10
158.1216087654828
 20
95.40891609352477
 30
0.0
 10
158.1411833280511
 20
95.37975108365212
 30
0.0
 10
158.1948160119991
 20
95.29591580791906
 30
0.0
 10
158.2245933600513
 20
95.24388318994284
 30
0.0
 10
158.3061274200241
 20
95.09281751597548
 30
0.0
 10
158.3493702146981
 20
94.99962647410476
 30
0.0
 10
158.4624248043528
 20
94.73523993511037
 30
0.0
 10
158.516435801832
 20
94.57628176606055
 30
0.0
 10
158.560066896036
 20
94.42573080991968
 30
0.0
  0
LINE
  5
1FA
330
1F
100
AcDbEntity
  8
0
  6
HIDDEN
 62
     7
370
     0
100
AcDbLine
 10
157.6211573258
 20
134.5603308594
 30
0.0
 11
157.6211573258
 21
95.2164925879
 31
0.0
  0
LINE
  5
1FB
330
1F
100
AcDbEntity
  8
0
  6
HIDDEN
 62
     7
370
     0
100
AcDbLine
 10
209.4311573258
 20
88.0652574846
 30
0.0
 11
209.4311573258
 21
87.3718159538
 31
0.0
  0
SPLINE
  5
1FC
330
1F
100
AcDbEntity
  8
0
  6
HIDDEN
 62
     7
370
     0
100
AcDbSpline
210
0.0
220
0.0
230
1.0
 70
     8
 71
     3
 72
     8
 73
     4
 74
     0
 42
0.00000001
 43
0.00000001
 40
0.0
 40
0.0
 40
0.0
 40
0.0
 40
1.0
 40
1.0
 40
1.0
 40
1.0
 10
209.4311573258375
 20
87.37181595382985
 30
0.0
 10
209.9234964486187
 20
86.47454591962317
 30
0.0
 10
210.4176104966608
 20
85.57826150457093
 30
0.0
 10
210.9130901573266
 20
84.68273541663757
 30
0.0
  0
LINE
  5
1FD
330
1F
100
AcDbEntity
  8
0
  6
HIDDEN
 62
     7
370
     0
100
AcDbLine
 10
210.9130901573
 20
84.6827354166
 30
0.0
 11
214.8711573258
 21
84.6827354166
 31
0.0
  0
LINE
  5
1FE
330
1F
100
AcDbEntity
  8
0
  6
HIDDEN
 62
     7
370
     0
100
AcDbLine
 10
215.4711573258
 20
85.3093757123
 30
0.0
 11
215.4711573258
 21
88.4696531129
 31
0.0
  0
LINE
  5
1FF
330
1F
100
AcDbEntity
  8
0
  6
HIDDEN
 62
     7
370
     0
100
AcDbLine
 10
209.3334825235
 20
88.4696531129
 30
0.0
 11
215.4711573258
 21
88.4696531129
 31
0.0
  0
LINE
  5
200
330
1F
100
AcDbEntity
  8
0
  6
HIDDEN
 62
     7
370
     0
100
AcDbLine
 10
205.6111573258
 20
87.3718159538
 30
0.0
 11
205.6111573258
 21
88.0652574846
 31
0.0
  0
SPLINE
  5
201
330
1F
100
AcDbEntity
  8
0
  6
HIDDEN
 62
     7
370
     0
100
AcDbSpline
210
0.0
220
0.0
230
1.0
 70
     8
 71
     3
 72
     8
 73
     4
 74
     0
 42
0.00000001
 43
0.00000001
 40
0.0
 40
0.0
 40
0.0
 40
0.0
 40
1.0
 40
1.0
 40
1.0
 40
1.0
 10
204.1292244943485
 20
84.68273541663758
 30
0.0
 10
204.6247041550142
 20
85.57826150457093
 30
0.0
 10
205.1188182030563
 20
86.47454591962317
 30
0.0
 10
205.6111573258375
 20
87.37181595382987
 30
0.0
  0
LINE
  5
202
330
1F
100
AcDbEntity
  8
0
  6
HIDDEN
 62
     7
370
     0
100
AcDbLine
 10
202.4711573258
 20
88.4696531129
 30
0.0
 11
205.7088321282
 21
88.4696531129
 31
0.0
  0
CIRCLE
  5
203
330
1F
100
AcDbEntity
  8
0
  6
HIDDEN
 62
     7
370
     0
100
AcDbCircle
 10
220.5046055921
 20
113.0864971251
 30
0.0
 40
2.487279742025533
  0
CIRCLE
  5
204
330
1F
100
AcDbEntity
  8
0
  6
HIDDEN
 62
     7
370
     0
100
AcDbCircle
 10
196.5211573258
 20
114.8696531129
 30
0.0
 40
4.999999999999986
  0
LINE
  5
205
330
1F
100
AcDbEntity
  8
0
  6
HIDDEN
 62
     7
370
     0
100
AcDbLine
 10
248.0215316907
 20
88.9360151037
 30
0.0
 11
247.895031351
 21
114.8696531129
 31
0.0
  0
LINE
  5
206
330
1F
100
AcDbEntity
  8
0
  6
HIDDEN
 62
     7
370
     0
100
AcDbLine
 10
189.5211573258
 20
89.5457291918
 30
0.0
 11
189.6153181671
 21
90.2157183906
 31
0.0
  0
LINE
  5
207
330
1F
100
AcDbEntity
  8
0
  6
HIDDEN
 62
     7
370
     0
100
AcDbLine
 10
189.6153181671
 20
139.5235878352
 30
0.0
 11
189.5211573258
 21
140.193577034
 31
0.0
  0
ARC
  5
208
330
1F
100
AcDbEntity
  8
0
  6
HIDDEN
 62
     7
370
     0
100
AcDbCircle
 10
189.0211573258
 20
90.2992222512
 30
0.0
 40
0.6000000000000133
100
AcDbArc
 50
352.0
 51
0.0
  0
ARC
  5
209
330
1F
100
AcDbEntity
  8
0
  6
HIDDEN
 62
     7
370
     0
100
AcDbCircle
 10
189.0211573258
 20
90.2992222512
 30
0.0
 40
0.6000000000000019
100
AcDbArc
 50
0.0
 51
33.5573097619
  0
ARC
  5
20A
330
1F
100
AcDbEntity
  8
0
  6
HIDDEN
 62
     7
370
     0
100
AcDbCircle
 10
189.0211573258
 20
139.4400839746
 30
0.0
 40
0.6000000000000133
100
AcDbArc
 50
348.75
 51
8.0
  0
LWPOLYLINE
  5
20B
330
1F
100
AcDbEntity
  8
0
  6
HIDDEN
 62
     7
370
     0
100
AcDbPolyline
 90
        3
 70
   128
 43
0.0
 10
189.6096284941
 20
139.3230297814
 10
189.5754850453
 20
139.2104739152
 10
189.5211573258
 20
139.1084214956
  0
LINE
  5
20C
330
1F
100
AcDbEntity
  8
0
  6
HIDDEN
 62
     7
370
     0
100
AcDbLine
 10
189.6211573258
 20
90.2992222512
 30
0.0
 11
189.6211573258
 21
139.4400839746
 31
0.0
  0
LINE
  5
20D
330
1F
100
AcDbEntity
  8
0
  6
HIDDEN
 62
     7
370
     0
100
AcDbLine
 10
189.6211573258
 20
90.2992222512
 30
0.0
 11
189.6211573258
 21
139.4400839746
 31
0.0
  0
LINE
  5
20E
330
1F
100
AcDbEntity
  8
0
  6
HIDDEN
 62
     7
370
     0
100
AcDbLine
 10
210.5231157412
 20
116.2093629185
 30
0.0
 11
223.33052235
 21
103.317981083
 31
0.0
  0
LINE
  5
20F
330
1F
100
AcDbEntity
  8
0
  6
HIDDEN
 62
     7
370
     0
100
AcDbLine
 10
214.0021771001
 20
118.6666915445
 30
0.0
 11
213.5026528075
 21
119.1694911034
 31
0.0
  0
LINE
  5
210
330
1F
100
AcDbEntity
  8
0
  6
HIDDEN
 62
     7
370
     0
100
AcDbLine
 10
223.0367674971
 20
109.5728634111
 30
0.0
 11
215.0689172454
 21
117.5929570289
 31
0.0
  0
LINE
  5
211
330
1F
100
AcDbEntity
  8
0
  6
HIDDEN
 62
     7
370
     0
100
AcDbLine
 10
213.0006265558
 20
119.1825816765
 30
0.0
 11
211.1685703906
 21
118.5392768671
 31
0.0
  0
LINE
  5
212
330
1F
100
AcDbEntity
  8
0
  6
HIDDEN
 62
     7
370
     0
100
AcDbLine
 10
211.1685703906
 20
118.5392768671
 30
0.0
 11
210.5133063275
 21
116.7114639998
 31
0.0
  0
LINE
  5
213
330
1F
100
AcDbEntity
  8
0
  6
HIDDEN
 62
     7
370
     0
100
AcDbLine
 10
212.404330691
 20
114.7673839106
 30
0.0
 11
215.313925453
 21
113.3292155057
 31
0.0
  0
LINE
  5
214
330
1F
100
AcDbEntity
  8
0
  6
HIDDEN
 62
     7
370
     0
100
AcDbLine
 10
211.9082172464
 20
115.0126052351
 30
0.0
 11
212.0130737212
 21
114.9607762756
 31
0.0
  0
LINE
  5
215
330
1F
100
AcDbEntity
  8
0
  6
HIDDEN
 62
     7
370
     0
100
AcDbLine
 10
213.8676135926
 20
118.7291625088
 30
0.0
 11
213.7692796385
 21
118.7777674856
 31
0.0
  0
LINE
  5
216
330
1F
100
AcDbEntity
  8
0
  6
HIDDEN
 62
     7
370
     0
100
AcDbLine
 10
217.2319380487
 20
117.0662281374
 30
0.0
 11
213.8676135926
 21
118.7291625088
 31
0.0
  0
ARC
  5
217
330
1F
100
AcDbEntity
  8
0
  6
HIDDEN
 62
     7
370
     0
100
AcDbCircle
 10
183.2761593274
 20
102.8696531129
 30
0.0
 40
7.999999999999997
100
AcDbArc
 50
276.8732155116
 51
321.3178125465
  0
ARC
  5
218
330
1F
100
AcDbEntity
  8
0
  6
HIDDEN
 62
     7
370
     0
100
AcDbCircle
 10
183.2761593274
 20
126.8696531129
 30
0.0
 40
7.99999999999999
100
AcDbArc
 50
38.6821874535
 51
83.1174429911
  0
LINE
  5
219
330
1F
100
AcDbEntity
  8
0
  6
HIDDEN
 62
     7
370
     0
100
AcDbLine
 10
172.6035928911
 20
94.8696531129
 30
0.0
 11
176.7952647793
 21
94.8696531129
 31
0.0
  0
LINE
  5
21A
330
1F
100
AcDbEntity
  8
0
  6
HIDDEN
 62
     7
370
     0
100
AcDbLine
 10
176.7952647793
 20
134.8696531129
 30
0.0
 11
172.6035928911
 21
134.8696531129
 31
0.0
  0
ARC
  5
21B
330
1F
100
AcDbEntity
  8
0
  6
HIDDEN
 62
     7
370
     0
100
AcDbCircle
 10
172.6035928911
 20
95.4696531129
 30
0.0
 40
0.5999999999999943
100
AcDbArc
 50
210.0
 51
270.0
  0
ARC
  5
21C
330
1F
100
AcDbEntity
  8
0
  6
HIDDEN
 62
     7
370
     0
100
AcDbCircle
 10
172.6035928911
 20
134.2696531129
 30
0.0
 40
0.6000000000000227
100
AcDbArc
 50
90.0
 51
150.0
  0
LINE
  5
21D
330
1F
100
AcDbEntity
  8
0
  6
HIDDEN
 62
     7
370
     0
100
AcDbLine
 10
172.0839776489
 20
134.5696531129
 30
0.0
 11
170.5251319221
 21
131.8696531129
 31
0.0
  0
LINE
  5
21E
330
1F
100
AcDbEntity
  8
0
  6
HIDDEN
 62
     7
370
     0
100
AcDbLine
 10
170.5251319221
 20
97.8696531129
 30
0.0
 11
172.0839776489
 21
95.1696531129
 31
0.0
  0
ARC
  5
21F
330
1F
100
AcDbEntity
  8
0
  6
HIDDEN
 62
     7
370
     0
100
AcDbCircle
 10
197.9711573258
 20
99.1446531129
 30
0.0
 40
1.500000000000004
100
AcDbArc
 50
238.2116693829
 51
0.0
  0
ARC
  5
220
330
1F
100
AcDbEntity
  8
0
  6
HIDDEN
 62
     7
370
     0
100
AcDbCircle
 10
197.9711573258
 20
130.5946531129
 30
0.0
 40
1.5
100
AcDbArc
 50
0.0
 51
121.7883306171
  0
LINE
  5
221
330
1F
100
AcDbEntity
  8
0
  6
HIDDEN
 62
     7
370
     0
100
AcDbLine
 10
167.7211573258
 20
97.8696531129
 30
0.0
 11
170.5251319221
 21
97.8696531129
 31
0.0
  0
LINE
  5
222
330
1F
100
AcDbEntity
  8
0
  6
HIDDEN
 62
     7
370
     0
100
AcDbLine
 10
170.5251319221
 20
131.8696531129
 30
0.0
 11
163.7211573258
 21
131.8696531129
 31
0.0
  0
LINE
  5
223
330
1F
100
AcDbEntity
  8
0
  6
HIDDEN
 62
     7
370
     0
100
AcDbLine
 10
189.5211573258
 20
97.8696531129
 30
0.0
 11
197.1809832944
 21
97.8696531129
 31
0.0
  0
LINE
  5
224
330
1F
100
AcDbEntity
  8
0
  6
HIDDEN
 62
     7
370
     0
100
AcDbLine
 10
197.1809832944
 20
131.8696531129
 30
0.0
 11
189.5211573258
 21
131.8696531129
 31
0.0
  0
LINE
  5
225
330
1F
100
AcDbEntity
  8
0
  6
HIDDEN
 62
     7
370
     0
100
AcDbLine
 10
208.8211573258
 20
105.3696531129
 30
0.0
 11
211.3211573258
 21
105.3696531129
 31
0.0
  0
LINE
  5
226
330
1F
100
AcDbEntity
  8
0
  6
HIDDEN
 62
     7
370
     0
100
AcDbLine
 10
211.3211573258
 20
124.3696531129
 30
0.0
 11
208.8211573258
 21
124.3696531129
 31
0.0
  0
LINE
  5
227
330
1F
100
AcDbEntity
  8
0
  6
HIDDEN
 62
     7
370
     0
100
AcDbLine
 10
199.4711573258
 20
105.8696531129
 30
0.0
 11
199.9711573258
 21
106.3696531129
 31
0.0
  0
LINE
  5
228
330
1F
100
AcDbEntity
  8
0
  6
HIDDEN
 62
     7
370
     0
100
AcDbLine
 10
199.9711573258
 20
123.3696531129
 30
0.0
 11
199.4711573258
 21
123.8696531129
 31
0.0
  0
LINE
  5
229
330
1F
100
AcDbEntity
  8
0
  6
HIDDEN
 62
     7
370
     0
100
AcDbLine
 10
199.9711573258
 20
106.3696531129
 30
0.0
 11
208.8211573258
 21
106.3696531129
 31
0.0
  0
LINE
  5
22A
330
1F
100
AcDbEntity
  8
0
  6
HIDDEN
 62
     7
370
     0
100
AcDbLine
 10
208.8211573258
 20
123.3696531129
 30
0.0
 11
199.9711573258
 21
123.3696531129
 31
0.0
  0
LINE
  5
22B
330
1F
100
AcDbEntity
  8
0
  6
HIDDEN
 62
     7
370
     0
100
AcDbLine
 10
194.4711573258
 20
146.3696531129
 30
0.0
 11
194.4711573258
 21
141.2696531129
 31
0.0
  0
LINE
  5
22C
330
1F
100
AcDbEntity
  8
0
  6
HIDDEN
 62
     7
370
     0
100
AcDbLine
 10
184.7055951563
 20
90.7902817793
 30
0.0
 11
184.2711630068
 21
91.2693477984
 31
0.0
  0
LINE
  5
22D
330
1F
100
AcDbEntity
  8
0
  6
HIDDEN
 62
     7
370
     0
100
AcDbLine
 10
176.7711596817
 20
91.6910357576
 30
0.0
 11
176.2887259384
 21
91.2119697821
 31
0.0
  0
LINE
  5
22E
330
1F
100
AcDbEntity
  8
0
  6
HIDDEN
 62
     7
370
     0
100
AcDbLine
 10
176.2886040102
 20
138.5273311532
 30
0.0
 11
176.7711547611
 21
138.0482108953
 31
0.0
  0
LINE
  5
22F
330
1F
100
AcDbEntity
  8
0
  6
HIDDEN
 62
     7
370
     0
100
AcDbLine
 10
184.2711572078
 20
138.469908673
 30
0.0
 11
184.7056995982
 21
138.9490289235
 31
0.0
  0
LINE
  5
230
330
1F
100
AcDbEntity
  8
0
  6
HIDDEN
 62
     7
370
     0
100
AcDbLine
 10
211.3211573258
 20
110.6696531129
 30
0.0
 11
219.6211573258
 21
110.6696531129
 31
0.0
  0
LINE
  5
231
330
1F
100
AcDbEntity
  8
0
  6
HIDDEN
 62
     7
370
     0
100
AcDbLine
 10
219.6211573258
 20
119.0696531129
 30
0.0
 11
211.3211573258
 21
119.0696531129
 31
0.0
  0
LINE
  5
232
330
1F
100
AcDbEntity
  8
0
  6
HIDDEN
 62
     7
370
     0
100
AcDbLine
 10
219.6211573258
 20
110.6696531129
 30
0.0
 11
222.1447719258
 21
114.8696531129
 31
0.0
  0
LINE
  5
233
330
1F
100
AcDbEntity
  8
0
  6
HIDDEN
 62
     7
370
     0
100
AcDbLine
 10
222.1447719258
 20
114.8696531129
 30
0.0
 11
219.6211573258
 21
119.0696531129
 31
0.0
  0
LINE
  5
234
330
1F
100
AcDbEntity
  8
0
  6
HIDDEN
 62
     7
370
     0
100
AcDbLine
 10
184.2711573258
 20
91.2698317001
 30
0.0
 11
184.2711573258
 21
94.9342527746
 31
0.0
  0
LINE
  5
235
330
1F
100
AcDbEntity
  8
0
  6
HIDDEN
 62
     7
370
     0
100
AcDbLine
 10
176.7711573258
 20
94.8740308809
 30
0.0
 11
176.7711573258
 21
91.6913589954
 31
0.0
  0
LINE
  5
236
330
1F
100
AcDbEntity
  8
0
  6
HIDDEN
 62
     7
370
     0
100
AcDbLine
 10
184.2711573258
 20
134.8050534511
 30
0.0
 11
184.2711573258
 21
138.4696173669
 31
0.0
  0
LINE
  5
237
330
1F
100
AcDbEntity
  8
0
  6
HIDDEN
 62
     7
370
     0
100
AcDbLine
 10
176.7711573258
 20
138.0480671161
 30
0.0
 11
176.7711573258
 21
134.8652753448
 31
0.0
  0
LINE
  5
238
330
1F
100
AcDbEntity
  8
0
  6
HIDDEN
 62
     7
370
     0
100
AcDbLine
 10
244.6813855619
 20
78.2249625946
 30
0.0
 11
244.9527420855
 21
78.0850269653
 31
0.0
  0
LINE
  5
239
330
1F
100
AcDbEntity
  8
0
  6
HIDDEN
 62
     7
370
     0
100
AcDbLine
 10
235.0326208966
 20
88.9571967297
 30
0.0
 11
235.207012081
 21
88.7832303535
 31
0.0
  0
LINE
  5
23A
330
1F
100
AcDbEntity
  8
0
  6
HIDDEN
 62
     7
370
     0
100
AcDbLine
 10
216.6418502408
 20
112.672842495
 30
0.0
 11
219.5070017232
 21
111.2566417269
 31
0.0
  0
LINE
  5
23B
330
1F
100
AcDbEntity
  8
0
  6
HIDDEN
 62
     7
370
     0
100
AcDbLine
 10
221.3680641153
 20
115.0218039774
 30
0.0
 11
218.559201268
 21
116.41018213
 31
0.0
  0
LINE
  5
23C
330
1F
100
AcDbEntity
  8
0
  6
HIDDEN
 62
     7
370
     0
100
AcDbLine
 10
249.5875705399
 20
82.0854415453
 30
0.0
 11
248.9772013947
 21
82.694323862
 31
0.0
  0
LINE
  5
23D
330
1F
100
AcDbEntity
  8
0
  6
HIDDEN
 62
     7
370
     0
100
AcDbLine
 10
246.6465963018
 20
80.3580276691
 30
0.0
 11
247.2569654471
 21
79.7491453524
 31
0.0
  0
ARC
  5
23E
330
1F
100
AcDbEntity
  8
0
  6
HIDDEN
 62
     7
370
     0
100
AcDbCircle
 10
162.3211573258
 20
137.1396531129
 30
0.0
 40
1.40000000000003
100
AcDbArc
 50
270.0
 51
301.7485287426
  0
ARC
  5
23F
330
1F
100
AcDbEntity
  8
0
  6
HIDDEN
 62
     7
370
     0
100
AcDbCircle
 10
166.3211573258
 20
92.6571531129
 30
0.0
 40
1.400000000000006
100
AcDbArc
 50
37.6443616934
 51
90.0
  0
LINE
  5
240
330
1F
100
AcDbEntity
  8
0
  6
HIDDEN
 62
     7
370
     0
100
AcDbLine
 10
162.3211573258
 20
135.7396531129
 30
0.0
 11
158.8954230597
 21
135.7396531129
 31
0.0
  0
LINE
  5
241
330
1F
100
AcDbEntity
  8
0
  6
HIDDEN
 62
     7
370
     0
100
AcDbLine
 10
158.762320784
 20
135.7308165711
 30
0.0
 11
157.6310580992
 21
134.5995538863
 31
0.0
  0
LINE
  5
242
330
1F
100
AcDbEntity
  8
0
  6
HIDDEN
 62
     7
370
     0
100
AcDbLine
 10
157.6185764461
 20
95.2097339926
 30
0.0
 11
158.7711573258
 21
94.0571531129
 31
0.0
  0
LINE
  5
243
330
1F
100
AcDbEntity
  8
0
  6
HIDDEN
 62
     7
370
     0
100
AcDbLine
 10
158.7711573258
 20
94.0571531129
 30
0.0
 11
166.3211573258
 21
94.0571531129
 31
0.0
  0
LINE
  5
244
330
1F
100
AcDbEntity
  8
0
  6
HIDDEN
 62
     7
370
     0
100
AcDbLine
 10
219.3714930264
 20
110.8774257023
 30
0.0
 11
220.3627911457
 21
110.3874421301
 31
0.0
  0
LINE
  5
245
330
1F
100
AcDbEntity
  8
0
  6
HIDDEN
 62
     7
370
     0
100
AcDbLine
 10
222.6464446102
 20
114.8361158675
 30
0.0
 11
221.5870434932
 21
115.3597617148
 31
0.0
  0
DIMENSION
  5
246
330
1F
100
AcDbEntity
  8
VERMASSUNG
100
AcDbDimension
  2
*D1
 10
153.5221863098
 20
83.3696531129
 30
0.0
 11
153.5221863098
 21
114.8696531129
 31
0.0
 70
   160
  1
HSK %%c<>
 71
     2
 42
-1.0
  3
SLDDIMSTYLE0
100
AcDbAlignedDimension
 13
189.8211573258
 23
146.3696531129
 33
0.0
 14
189.8211573258
 24
83.3696531129
 34
0.0
 50
90.0
100
AcDbRotatedDimension
  0
DIMENSION
  5
253
330
1F
100
AcDbEntity
  8
VERMASSUNG
100
AcDbDimension
  2
*D2
 10
259.5211573258
 20
156.3696531129
 30
0.0
 11
208.5711573258
 21
156.3696531129
 31
0.0
 70
   160
 71
     2
 42
-1.0
  3
SLDDIMSTYLE0
100
AcDbAlignedDimension
 13
157.6211573258
 23
134.5603308594
 33
0.0
 14
259.5211573258
 24
69.8696531129
 34
0.0
100
AcDbRotatedDimension
  0
DIMENSION
  5
25D
330
1F
100
AcDbEntity
  8
VERMASSUNG
100
AcDbDimension
  2
*D3
 10
259.5211573258
 20
150.3696531129
 30
0.0
 11
224.5211573258
 21
150.3696531129
 31
0.0
 70
   160
 71
     2
 42
-1.0
  3
SLDDIMSTYLE0
100
AcDbAlignedDimension
 13
189.5211573258
 23
146.0696531129
 33
0.0
 14
259.5211573258
 24
69.8696531129
 34
0.0
100
AcDbRotatedDimension
  0
DIMENSION
  5
267
330
1F
100
AcDbEntity
  8
VERMASSUNG
100
AcDbDimension
  2
*D4
 10
268.1972679202
 20
69.8696531129
 30
0.0
 11
268.1972679202
 21
92.3696531129
 31
0.0
 70
   160
 71
     2
 42
-1.0
  3
SLDDIMSTYLE0
100
AcDbAlignedDimension
 13
259.5211573258
 23
114.8696531129
 33
0.0
 14
259.5211573258
 24
69.8696531129
 34
0.0
 50
90.0
100
AcDbRotatedDimension
  0
DIMENSION
  5
271
330
1F
100
AcDbEntity
  8
VERMASSUNG
100
AcDbDimension
  2
*D5
 10
259.5211573258
 20
114.8696531129
 30
0.0
 11
255.2592339297
 21
87.7028819808
 31
0.0
 70
   162
 71
     1
 42
-1.0
  3
SLDDIMSTYLE1
100
AcDb2LineAngularDimension
 13
252.4515618013
 23
83.8711449485
 33
0.0
 14
259.4583747511
 24
70.4453606728
 34
0.0
 15
259.5211573258
 25
69.8696531129
 35
0.0
 16
255.2592339297
 26
87.7028819808
 36
0.0
  0
LINE
  5
27B
330
1F
100
AcDbEntity
  8
VERMASSUNG
  6
CENTERX2
370
     0
100
AcDbLine
 10
156.7852983881
 20
114.8696531129
 30
0.0
 11
259.8064082902
 21
114.8696531129
 31
0.0
  0
ARC
  5
27C
330
1F
100
AcDbEntity
  8
0
  6
Continuous
 62
     7
370
    15
100
AcDbCircle
 10
87.4978670548
 20
81.0045976961
 30
0.0
 40
6.999999999999997
100
AcDbArc
 50
198.365394812
 51
203.4879745834
  0
ARC
  5
27D
330
1F
100
AcDbEntity
  8
0
  6
Continuous
 62
     7
370
    15
100
AcDbCircle
 10
87.4978670548
 20
81.0045976961
 30
0.0
 40
6.999999999999998
100
AcDbArc
 50
164.7818909841
 51
169.634605188
  0
LINE
  5
27E
330
1F
100
AcDbEntity
  8
0
  6
Continuous
 62
     7
370
    15
100
AcDbLine
 10
80.9303719805
 20
79.4818538769
 30
0.0
 11
80.8599917881
 21
79.4769324144
 31
0.0
  0
LINE
  5
27F
330
1F
100
AcDbEntity
  8
0
  6
Continuous
 62
     7
370
    15
100
AcDbLine
 10
80.6840232966
 20
81.3810116693
 30
0.0
 11
80.8072217722
 21
81.389626546
 31
0.0
  0
SPLINE
  5
280
330
1F
100
AcDbEntity
  8
0
  6
Continuous
 62
     7
370
    15
100
AcDbSpline
210
0.0
220
0.0
230
1.0
 70
     8
 71
     3
 72
    10
 73
     6
 74
     0
 42
0.00000001
 43
0.00000001
 40
0.0
 40
0.0
 40
0.0
 40
0.0
 40
0.3327395374381919
 40
0.6690828787405275
 40
1.0
 40
1.0
 40
1.0
 40
1.0
 10
82.17581149602418
 20
69.83307179504763
 30
0.0
 10
82.69535302682344
 20
69.98988301784367
 30
0.0
 10
83.74006308962146
 20
70.30520383957406
 30
0.0
 10
85.37417967011908
 20
70.66549077286876
 30
0.0
 10
86.39428630041931
 20
71.00776033147335
 30
0.0
 10
86.90019181770506
 20
71.17750342788482
 30
0.0
  0
LINE
  5
281
330
1F
100
AcDbEntity
  8
0
  6
Continuous
 62
     7
370
    15
100
AcDbLine
 10
81.5404745959
 20
74.4600641753
 30
0.0
 11
81.8381146522
 21
74.0147283241
 31
0.0
  0
LINE
  5
282
330
1F
100
AcDbEntity
  8
0
  6
Continuous
 62
     7
370
    15
100
AcDbLine
 10
80.1881950114
 20
86.8373664464
 30
0.0
 11
79.9979494313
 21
86.4430656613
 31
0.0
  0
LINE
  5
283
330
1F
100
AcDbEntity
  8
0
  6
Continuous
 62
     7
370
    15
100
AcDbLine
 10
79.6294524413
 20
91.0102044694
 30
0.0
 11
79.2462080989
 21
91.0627549303
 31
0.0
  0
LWPOLYLINE
  5
284
330
1F
100
AcDbEntity
  8
0
  6
Continuous
 62
     7
370
    15
100
AcDbPolyline
 90
       23
 70
   128
 43
0.0
 10
80.6566684845
 20
80.3124828756
 10
80.700409773
 20
79.8194211188
 10
80.7494785335
 20
79.3842398875
 10
80.7998995068
 20
79.0421949767
 10
80.8475878855
 20
78.8209968311
 10
80.8886802408
 20
78.7385656088
 10
80.9198475144
 20
78.8015793972
 10
80.9385647193
 20
79.004933194
 10
80.9433154986
 20
79.3321524838
 10
80.9337149727
 20
79.756727906
 10
80.910540919
 20
80.2442628849
 10
80.8756707615
 20
80.7552602358
 10
80.8319294729
 20
81.2483219926
 10
80.7828607124
 20
81.683503224
 10
80.7324397391
 20
82.0255481347
 10
80.6847513604
 20
82.2467462804
 10
80.6436590052
 20
82.3291775027
 10
80.6124917315
 20
82.2661637143
 10
80.5937745267
 20
82.0628099175
 10
80.5890237473
 20
81.7355906276
 10
80.5986242732
 20
81.3110152054
 10
80.621798327
 20
80.8234802266
 10
80.6566684845
 20
80.3124828756
  0
LWPOLYLINE
  5
285
330
1F
100
AcDbEntity
  8
0
  6
Continuous
 62
     7
370
    15
100
AcDbPolyline
 90
        9
 70
   128
 43
0.0
 10
80.7468361405
 20
79.4940927343
 10
80.7678910036
 20
79.335810325
 10
80.78891777
 20
79.1970828524
 10
80.8095732378
 20
79.0801746472
 10
80.8295202651
 20
78.9869939027
 10
80.8484332737
 20
78.9190615293
 10
80.8660035626
 20
78.8774863294
 10
80.8819443468
 20
78.8629468996
 10
80.8959954384
 20
78.8756805548
  0
ARC
  5
286
330
1F
100
AcDbEntity
  8
0
  6
Continuous
 62
     7
370
    15
100
AcDbCircle
 10
76.5907228303
 20
79.4800680807
 30
0.0
 40
4.347488529205397
100
AcDbArc
 50
352.0088625348
 51
5.3584078183
  0
ARC
  5
287
330
1F
100
AcDbEntity
  8
0
  6
Continuous
 62
     7
370
    15
100
AcDbCircle
 10
59.1133265465
 20
79.0122238815
 30
0.0
 40
21.82338816919735
100
AcDbArc
 50
2.2948113743
 51
6.5748846777
  0
LINE
  5
288
330
1F
100
AcDbEntity
  8
0
  6
Continuous
 62
     7
370
    15
100
AcDbLine
 10
80.7848926888
 20
81.5785134991
 30
0.0
 11
80.793183433
 21
81.5110389138
 31
0.0
  0
ARC
  5
289
330
1F
100
AcDbEntity
  8
0
  6
Continuous
 62
     7
370
    15
100
AcDbCircle
 10
79.6936288401
 20
81.6498530171
 30
0.0
 40
1.093593212520826
100
AcDbArc
 50
356.2597080596
 51
30.0874092184
  0
LINE
  5
28A
330
1F
100
AcDbEntity
  8
0
  6
Continuous
 62
     7
370
    15
100
AcDbLine
 10
80.6326019423
 20
82.1831373652
 30
0.0
 11
80.6398730605
 21
82.1980938308
 31
0.0
  0
ARC
  5
28B
330
1F
100
AcDbEntity
  8
0
  6
Continuous
 62
     7
370
    15
100
AcDbCircle
 10
85.0647557391
 20
81.6090604237
 30
0.0
 40
4.46917795718639
100
AcDbArc
 50
172.6198244544
 51
184.7474458987
  0
LINE
  5
28C
330
1F
100
AcDbEntity
  8
0
  6
Continuous
 62
     7
370
    15
100
AcDbLine
 10
80.6153084931
 20
81.1290904918
 30
0.0
 11
80.6109106694
 21
81.2391743488
 31
0.0
  0
ARC
  5
28D
330
1F
100
AcDbEntity
  8
0
  6
Continuous
 62
     7
370
    15
100
AcDbCircle
 10
102.4257124259
 20
82.0555575755
 30
0.0
 40
21.83007239955632
100
AcDbArc
 50
182.432360309
 51
186.559612402
  0
LINE
  5
28E
330
1F
100
AcDbEntity
  8
0
  6
Continuous
 62
     7
370
    15
100
AcDbLine
 10
80.7468361405
 20
79.4940927343
 30
0.0
 11
80.7385497744
 21
79.5617578445
 31
0.0
  0
SPLINE
  5
28F
330
1F
100
AcDbEntity
  8
0
  6
Continuous
 62
     7
370
    15
100
AcDbSpline
210
0.0
220
0.0
230
1.0
 70
     8
 71
     3
 72
    12
 73
     8
 74
     0
 42
0.00000001
 43
0.00000001
 40
0.0
 40
0.0
 40
0.0
 40
0.0
 40
0.0091681771491516
 40
0.2573268097002635
 40
0.5054934687429994
 40
0.7549925359452966
 40
1.0
 40
1.0
 40
1.0
 40
1.0
 10
80.89599543843532
 20
78.87568055483693
 30
0.0
 10
80.89607929361746
 20
78.87585490389603
 30
0.0
 10
80.89843288977303
 20
78.88074842704923
 30
0.0
 10
80.90393012403823
 20
78.90398068885285
 30
0.0
 10
80.91355378968147
 20
78.97192386920696
 30
0.0
 10
80.92404025377013
 20
79.06535477918233
 30
0.0
 10
80.93114265567353
 20
79.13832418663186
 30
0.0
 10
80.93466160106466
 20
79.17447749976877
 30
0.0
  0
SPLINE
  5
290
330
1F
100
AcDbEntity
  8
0
  6
Continuous
 62
     7
370
    15
100
AcDbSpline
210
0.0
220
0.0
230
1.0
 70
     8
 71
     3
 72
    15
 73
    11
 74
     0
 42
0.00000001
 43
0.00000001
 40
0.0
 40
0.0
 40
0.0
 40
0.0
 40
0.1434386850239784
 40
0.2909427070429391
 40
0.435419490619702
 40
0.5841537044395954
 40
0.7274182992331969
 40
0.8749170444728953
 40
0.937289278736359
 40
1.0
 40
1.0
 40
1.0
 40
1.0
 10
80.7138069490657
 20
81.98343973178027
 30
0.0
 10
80.70926855557546
 20
82.00021156615158
 30
0.0
 10
80.70006314151682
 20
82.03423058196485
 30
0.0
 10
80.68689529489502
 20
82.079780376145
 30
0.0
 10
80.6744142955498
 20
82.12012999783514
 30
0.0
 10
80.66319751201661
 20
82.15290074004903
 30
0.0
 10
80.65331259425454
 20
82.17776098869601
 30
0.0
 10
80.64670144083105
 20
82.19050182518697
 30
0.0
 10
80.64239420577205
 20
82.1963011844345
 30
0.0
 10
80.64071495700092
 20
82.19749520497946
 30
0.0
 10
80.63987306050771
 20
82.19809383082149
 30
0.0
  0
SPLINE
  5
291
330
1F
100
AcDbEntity
  8
0
  6
Continuous
 62
     7
370
    15
100
AcDbSpline
210
0.0
220
0.0
230
1.0
 70
     8
 71
     3
 72
    10
 73
     6
 74
     0
 42
0.00000001
 43
0.00000001
 40
0.0
 40
0.0
 40
0.0
 40
0.0
 40
0.3325676234441546
 40
0.6676824587003841
 40
1.0
 40
1.0
 40
1.0
 40
1.0
 10
80.8949356383952
 20
79.09365450985383
 30
0.0
 10
80.89280764763886
 20
79.05960944919256
 30
0.0
 10
80.88853536735621
 20
78.99125856893095
 30
0.0
 10
80.88734122985282
 20
78.91418607314716
 30
0.0
 10
80.88952775924987
 20
78.89134634179287
 30
0.0
 10
80.89061644193704
 20
78.87997433822488
 30
0.0
  0
LINE
  5
292
330
1F
100
AcDbEntity
  8
0
  6
Continuous
 62
     7
370
    15
100
AcDbLine
 10
80.8940257962
 20
78.8772528215
 30
0.0
 11
80.8959954384
 21
78.8756805548
 31
0.0
  0
SPLINE
  5
293
330
1F
100
AcDbEntity
  8
0
  6
Continuous
 62
     7
370
    15
100
AcDbSpline
210
0.0
220
0.0
230
1.0
 70
     8
 71
     3
 72
    12
 73
     8
 74
     0
 42
0.00000001
 43
0.00000001
 40
0.0
 40
0.0
 40
0.0
 40
0.0
 40
0.2058585741213892
 40
0.4121026961457014
 40
0.6141937841967399
 40
0.8133180967416164
 40
1.0
 40
1.0
 40
1.0
 40
1.0
 10
80.81664462942045
 20
79.42469803672408
 30
0.0
 10
80.82929198681464
 20
79.44597924129582
 30
0.0
 10
80.85461038855479
 20
79.48858150752966
 30
0.0
 10
80.88571448662806
 20
79.46946875092057
 30
0.0
 10
80.902717233038
 20
79.38937481165442
 30
0.0
 10
80.90517205980271
 20
79.25956352856939
 30
0.0
 10
80.89827361968648
 20
79.14775556514266
 30
0.0
 10
80.8949356383952
 20
79.09365450985383
 30
0.0
  0
SPLINE
  5
294
330
1F
100
AcDbEntity
  8
0
  6
Continuous
 62
     7
370
    15
100
AcDbSpline
210
0.0
220
0.0
230
1.0
 70
     8
 71
     3
 72
    11
 73
     7
 74
     0
 42
0.00000001
 43
0.00000001
 40
0.0
 40
0.0
 40
0.0
 40
0.0
 40
0.2423611237745009
 40
0.5166847928458844
 40
0.7923341374633339
 40
1.0
 40
1.0
 40
1.0
 40
1.0
 10
80.74683614054696
 20
79.49409273428435
 30
0.0
 10
80.7510809773569
 20
79.4725704222773
 30
0.0
 10
80.76013045935984
 20
79.42668743928178
 30
0.0
 10
80.77882695148428
 20
79.39329990182752
 30
0.0
 10
80.79850486558992
 20
79.39234801366732
 30
0.0
 10
80.81119294649118
 20
79.41497563514777
 30
0.0
 10
80.81664462942045
 20
79.42469803672408
 30
0.0
  0
SPLINE
  5
295
330
1F
100
AcDbEntity
  8
0
  6
Continuous
 62
     7
370
    15
100
AcDbSpline
210
0.0
220
0.0
230
1.0
 70
     8
 71
     3
 72
    11
 73
     7
 74
     0
 42
0.00000001
 43
0.00000001
 40
0.0
 40
0.0
 40
0.0
 40
0.0
 40
0.2669010467949943
 40
0.5546143410792116
 40
0.8439070439785655
 40
1.0
 40
1.0
 40
1.0
 40
1.0
 10
80.6326019422812
 20
82.18313736521363
 30
0.0
 10
80.63259606585454
 20
82.16981903496261
 30
0.0
 10
80.63258385477286
 20
82.14214384580497
 30
0.0
 10
80.64284466159052
 20
82.06273502338357
 30
0.0
 10
80.65779064948121
 20
81.97788348685317
 30
0.0
 10
80.6698536039741
 20
81.92214963511285
 30
0.0
 10
80.67408127091272
 20
81.9026167617606
 30
0.0
  0
SPLINE
  5
296
330
1F
100
AcDbEntity
  8
0
  6
Continuous
 62
     7
370
    15
100
AcDbSpline
210
0.0
220
0.0
230
1.0
 70
     8
 71
     3
 72
    12
 73
     8
 74
     0
 42
0.00000001
 43
0.00000001
 40
0.0
 40
0.0
 40
0.0
 40
0.0
 40
0.2303709654974271
 40
0.461169161522445
 40
0.687328239520687
 40
0.9101988912217636
 40
1.0
 40
1.0
 40
1.0
 40
1.0
 10
80.67408127091272
 20
81.9026167617606
 30
0.0
 10
80.68732057177456
 20
81.8392641477014
 30
0.0
 10
80.71382372621687
 20
81.71244143007792
 30
0.0
 10
80.73266334730249
 20
81.55001693974113
 30
0.0
 10
80.72794917025395
 20
81.4369927798855
 30
0.0
 10
80.70857278424377
 20
81.38245220156278
 30
0.0
 10
80.68915143064099
 20
81.38643881222163
 30
0.0
 10
80.68357350737466
 20
81.38758378948752
 30
0.0
  0
LINE
  5
297
330
1F
100
AcDbEntity
  8
0
  6
Continuous
 62
     7
370
    15
100
AcDbLine
 10
80.662261467
 20
81.3882413332
 30
0.0
 11
80.6499208773
 21
81.387598371
 31
0.0
  0
SPLINE
  5
298
330
1F
100
AcDbEntity
  8
0
  6
Continuous
 62
     7
370
    15
100
AcDbSpline
210
0.0
220
0.0
230
1.0
 70
     8
 71
     3
 72
    10
 73
     6
 74
     0
 42
0.00000001
 43
0.00000001
 40
0.0
 40
0.0
 40
0.0
 40
0.0
 40
0.4151249730121865
 40
0.8267826392786445
 40
1.0
 40
1.0
 40
1.0
 40
1.0
 10
80.63812684673134
 20
81.3869838853106
 30
0.0
 10
80.63179860990186
 20
81.37655515817472
 30
0.0
 10
80.61919499246618
 20
81.3557848092286
 30
0.0
 10
80.61202512825756
 20
81.29548203724093
 30
0.0
 10
80.6111653133125
 20
81.25204015427708
 30
0.0
 10
80.6109106693824
 20
81.23917434882372
 30
0.0
  0
SPLINE
  5
299
330
1F
100
AcDbEntity
  8
0
  6
Continuous
 62
     7
370
    15
100
AcDbSpline
210
0.0
220
0.0
230
1.0
 70
     8
 71
     3
 72
    11
 73
     7
 74
     0
 42
0.00000001
 43
0.00000001
 40
0.0
 40
0.0
 40
0.0
 40
0.0
 40
0.2802371411012855
 40
0.5612869875923894
 40
0.8399906057824615
 40
1.0
 40
1.0
 40
1.0
 40
1.0
 10
80.7528254869192
 20
79.94334869955705
 30
0.0
 10
80.74784941831763
 20
79.9116348575075
 30
0.0
 10
80.73788285020154
 20
79.84811520126556
 30
0.0
 10
80.73215373922926
 20
79.7331096210265
 30
0.0
 10
80.73306828385826
 20
79.63450744723345
 30
0.0
 10
80.73708483847233
 20
79.58120027677742
 30
0.0
 10
80.73854977443837
 20
79.56175784445632
 30
0.0
  0
SPLINE
  5
29A
330
1F
100
AcDbEntity
  8
0
  6
Continuous
 62
     7
370
    15
100
AcDbSpline
210
0.0
220
0.0
230
1.0
 70
     8
 71
     3
 72
    11
 73
     7
 74
     0
 42
0.00000001
 43
0.00000001
 40
0.0
 40
0.0
 40
0.0
 40
0.0
 40
0.2657596322624965
 40
0.5530029385954724
 40
0.8418208483437926
 40
1.0
 40
1.0
 40
1.0
 40
1.0
 10
80.61530849308882
 20
81.12909049177115
 30
0.0
 10
80.61869353517285
 20
81.09478024582307
 30
0.0
 10
80.6257372618811
 20
81.0233861568424
 30
0.0
 10
80.64541440712772
 20
80.91695781519415
 30
0.0
 10
80.66676207759286
 20
80.83704432957124
 30
0.0
 10
80.6812336000016
 20
80.8013860869066
 30
0.0
 10
80.68635464739864
 20
80.78876768052041
 30
0.0
  0
SPLINE
  5
29B
330
1F
100
AcDbEntity
  8
0
  6
Continuous
 62
     7
370
    15
100
AcDbSpline
210
0.0
220
0.0
230
1.0
 70
     8
 71
     3
 72
    12
 73
     8
 74
     0
 42
0.00000001
 43
0.00000001
 40
0.0
 40
0.0
 40
0.0
 40
0.0
 40
0.2057904614204314
 40
0.4120344203360577
 40
0.6141302471427881
 40
0.8132633242112886
 40
1.0
 40
1.0
 40
1.0
 40
1.0
 10
80.68635464739864
 20
80.78876768052041
 30
0.0
 10
80.70252643761532
 20
80.74599499218988
 30
0.0
 10
80.73490565559135
 20
80.6603553579676
 30
0.0
 10
80.76911181943252
 20
80.4782490235955
 30
0.0
 10
80.78298849670921
 20
80.28335445637522
 30
0.0
 10
80.77675576475116
 20
80.0947657680455
 30
0.0
 10
80.76062955671215
 20
79.99272837574067
 30
0.0
 10
80.7528254869192
 20
79.94334869955705
 30
0.0
  0
SPLINE
  5
29C
330
1F
100
AcDbEntity
  8
0
  6
Continuous
 62
     7
370
    15
100
AcDbSpline
210
0.0
220
0.0
230
1.0
 70
     8
 71
     3
 72
    10
 73
     6
 74
     0
 42
0.00000001
 43
0.00000001
 40
0.0
 40
0.0
 40
0.0
 40
0.0
 40
0.2724816576280166
 40
0.5447570452796814
 40
0.9999999999999999
 40
0.9999999999999999
 40
0.9999999999999999
 40
0.9999999999999999
 10
80.78880773265614
 20
83.88127371132217
 30
0.0
 10
80.78670890375584
 20
83.90016012018329
 30
0.0
 10
80.78251283477918
 20
83.93791864079965
 30
0.0
 10
80.77449520970912
 20
83.99842138235225
 30
0.0
 10
80.76882786336621
 20
84.02945699058616
 30
0.0
 10
80.76528153423017
 20
84.04887745213476
 30
0.0
  0
LINE
  5
29D
330
1F
100
AcDbEntity
  8
0
  6
Continuous
 62
     7
370
    15
100
AcDbLine
 10
82.2216618715
 20
70.4285313318
 30
0.0
 11
80.7888077327
 21
83.8812737113
 31
0.0
  0
SPLINE
  5
29E
330
1F
100
AcDbEntity
  8
0
  6
Continuous
 62
     7
370
    15
100
AcDbSpline
210
0.0
220
0.0
230
1.0
 70
     8
 71
     3
 72
    22
 73
    18
 74
     0
 42
0.00000001
 43
0.00000001
 40
0.0
 40
0.0
 40
0.0
 40
0.0
 40
0.0695849111767062
 40
0.141195166842937
 40
0.2104824720229772
 40
0.2819402484401987
 40
0.3484896588974354
 40
0.417147873146415
 40
0.4807888792640761
 40
0.5463642015397316
 40
0.6085983472132487
 40
0.6726025293940819
 40
0.7355606598055512
 40
0.8002202653894788
 40
0.8655463270961358
 40
0.9326150852232584
 40
1.0
 40
1.0
 40
1.0
 40
1.0
 10
82.22175140649823
 20
69.90033639018914
 30
0.0
 10
82.22389742929599
 20
69.8907343197113
 30
0.0
 10
82.22825193721812
 20
69.87125070005543
 30
0.0
 10
82.23411926660644
 20
69.85626606027739
 30
0.0
 10
82.23934047715845
 20
69.85245510876886
 30
0.0
 10
82.24355836752633
 20
69.8610758788711
 30
0.0
 10
82.24675395628417
 20
69.88151272156988
 30
0.0
 10
82.24876286622114
 20
69.91206184000673
 30
0.0
 10
82.24964276882939
 20
69.95222420951008
 30
0.0
 10
82.24940481852252
 20
69.99925987376906
 30
0.0
 10
82.24809633151268
 20
70.05303127652567
 30
0.0
 10
82.24580954644702
 20
70.11103792317137
 30
0.0
 10
82.24256039002127
 20
70.17310987990358
 30
0.0
 10
82.23845154525435
 20
70.23730533273236
 30
0.0
 10
82.23350703493112
 20
70.30274534936106
 30
0.0
 10
82.22789515625279
 20
70.36770468958966
 30
0.0
 10
82.22374288763007
 20
70.40822402508817
 30
0.0
 10
82.22166187146124
 20
70.42853133176419
 30
0.0
  0
LINE
  5
29F
330
1F
100
AcDbEntity
  8
0
  6
Continuous
 62
     7
370
    15
100
AcDbLine
 10
80.7899986927
 20
76.8554310848
 30
0.0
 11
82.2217514065
 21
69.9003363902
 31
0.0
  0
SPLINE
  5
2A0
330
1F
100
AcDbEntity
  8
0
  6
Continuous
 62
     7
370
    15
100
AcDbSpline
210
0.0
220
0.0
230
1.0
 70
     8
 71
     3
 72
    10
 73
     6
 74
     0
 42
0.00000001
 43
0.00000001
 40
0.0
 40
0.0
 40
0.0
 40
0.0
 40
0.2724816576280815
 40
0.544757045279668
 40
1.0
 40
1.0
 40
1.0
 40
1.0
 10
80.76647249429047
 20
77.0230348255717
 30
0.0
 10
80.76857132319078
 20
77.00414841671058
 30
0.0
 10
80.77276739216742
 20
76.96638989609421
 30
0.0
 10
80.78078501723746
 20
76.9058871545416
 30
0.0
 10
80.7864523635804
 20
76.87485154630771
 30
0.0
 10
80.78999869271645
 20
76.85543108475912
 30
0.0
  0
LINE
  5
2A1
330
1F
100
AcDbEntity
  8
0
  6
Continuous
 62
     7
370
    15
100
AcDbLine
 10
79.3336183555
 20
90.4757772051
 30
0.0
 11
80.7664724943
 21
77.0230348256
 31
0.0
  0
SPLINE
  5
2A2
330
1F
100
AcDbEntity
  8
0
  6
Continuous
 62
     7
370
    15
100
AcDbSpline
210
0.0
220
0.0
230
1.0
 70
     8
 71
     3
 72
    22
 73
    18
 74
     0
 42
0.00000001
 43
0.00000001
 40
0.0
 40
0.0
 40
0.0
 40
0.0
 40
0.0695849111766932
 40
0.1411951668429212
 40
0.2104824720229525
 40
0.2819402484401634
 40
0.3484896588974162
 40
0.4171478731464141
 40
0.4807888792640743
 40
0.5463642015397379
 40
0.6085983472132315
 40
0.6726025293940685
 40
0.7355606598055366
 40
0.8002202653894702
 40
0.8655463270961354
 40
0.9326150852232656
 40
1.0
 40
1.0
 40
1.0
 40
1.0
 10
79.33352882044838
 20
91.00397214670474
 30
0.0
 10
79.33138279765059
 20
91.01357421718257
 30
0.0
 10
79.3270282897284
 20
91.03305783683847
 30
0.0
 10
79.32116096034055
 20
91.04804247661646
 30
0.0
 10
79.31593974978684
 20
91.05185342812491
 30
0.0
 10
79.31172185941956
 20
91.04323265802272
 30
0.0
 10
79.30852627066625
 20
91.02279581532424
 30
0.0
 10
79.30651736071043
 20
90.9922466968861
 30
0.0
 10
79.30563745812303
 20
90.95208432738418
 30
0.0
 10
79.30587540841586
 20
90.9050486631242
 30
0.0
 10
79.30718389543581
 20
90.85127726036832
 30
0.0
 10
79.30947068049974
 20
90.7932706137225
 30
0.0
 10
79.31271983692292
 20
90.73119865699013
 30
0.0
 10
79.31682868169291
 20
90.66700320416155
 30
0.0
 10
79.3217731920153
 20
90.6015631875328
 30
0.0
 10
79.32738507069388
 20
90.5366038473042
 30
0.0
 10
79.33153733931655
 20
90.49608451180572
 30
0.0
 10
79.33361835548537
 20
90.47577720512967
 30
0.0
  0
LINE
  5
2A3
330
1F
100
AcDbEntity
  8
0
  6
Continuous
 62
     7
370
    15
100
AcDbLine
 10
80.7652815342
 20
84.0488774521
 30
0.0
 11
79.3335288204
 21
91.0039721467
 31
0.0
  0
LINE
  5
2A4
330
1F
100
AcDbEntity
  8
0
  6
Continuous
 62
     7
370
    15
100
AcDbLine
 10
80.789492159
 20
76.8727439316
 30
0.0
 11
82.2183757672
 21
69.9315866306
 31
0.0
  0
LWPOLYLINE
  5
2A5
330
1F
100
AcDbEntity
  8
0
  6
Continuous
 62
     7
370
    15
100
AcDbPolyline
 90
        9
 70
   128
 43
0.0
 10
82.2183757672
 20
69.9315866306
 10
82.2289193122
 20
69.8943711064
 10
82.2372948655
 20
69.89430228
 10
82.2426712387
 20
69.9313869818
 10
82.2445148814
 20
70.0019449321
 10
82.2426428308
 20
70.0989739716
 10
82.2372408689
 20
70.2128449545
 10
82.2288450855
 20
70.3322573435
 10
82.2182886767
 20
70.4453606728
  0
LINE
  5
2A6
330
1F
100
AcDbEntity
  8
0
  6
Continuous
 62
     7
370
    15
100
AcDbLine
 10
82.2182886767
 20
70.4453606728
 30
0.0
 11
80.7883058508
 21
83.8711449485
 31
0.0
  0
ARC
  5
2A7
330
1F
100
AcDbEntity
  8
0
  6
Continuous
 62
     7
370
    15
100
AcDbCircle
 10
78.9447372275
 20
83.6941571607
 30
0.0
 40
1.852044801232836
100
AcDbArc
 50
5.4837505766
 51
10.4968249543
  0
LINE
  5
2A8
330
1F
100
AcDbEntity
  8
0
  6
Continuous
 62
     7
370
    15
100
AcDbLine
 10
80.7657880676
 20
84.0315646053
 30
0.0
 11
79.3369044594
 21
90.9727219063
 31
0.0
  0
LWPOLYLINE
  5
2A9
330
1F
100
AcDbEntity
  8
0
  6
Continuous
 62
     7
370
    15
100
AcDbPolyline
 90
        9
 70
   128
 43
0.0
 10
79.3369044594
 20
90.9727219063
 10
79.3263609144
 20
91.0099374305
 10
79.3179853611
 20
91.0100062569
 10
79.3126089879
 20
90.9729215551
 10
79.3107653452
 20
90.9023636048
 10
79.3126373958
 20
90.8053345653
 10
79.3180393577
 20
90.6914635823
 10
79.3264351411
 20
90.5720511933
 10
79.3369915499
 20
90.458947864
  0
LINE
  5
2AA
330
1F
100
AcDbEntity
  8
0
  6
Continuous
 62
     7
370
    15
100
AcDbLine
 10
79.3369915499
 20
90.458947864
 30
0.0
 11
80.766974376
 21
77.0331635883
 31
0.0
  0
ARC
  5
2AB
330
1F
100
AcDbEntity
  8
0
  6
Continuous
 62
     7
370
    15
100
AcDbCircle
 10
82.6105430795
 20
77.2101513858
 30
0.0
 40
1.852044882023711
100
AcDbArc
 50
185.4837506381
 51
190.4968247924
  0
LINE
  5
2AC
330
1F
100
AcDbEntity
  8
0
  6
Continuous
 62
     7
370
    15
100
AcDbLine
 10
86.8538795389
 20
71.3083307703
 30
0.0
 11
85.5168936588
 21
83.8609878231
 31
0.0
  0
SPLINE
  5
2AD
330
1F
100
AcDbEntity
  8
0
  6
Continuous
 62
     7
370
    15
100
AcDbSpline
210
0.0
220
0.0
230
1.0
 70
     8
 71
     3
 72
    15
 73
    11
 74
     0
 42
0.00000001
 43
0.00000001
 40
0.0
 40
0.0
 40
0.0
 40
0.0
 40
0.1437531771931456
 40
0.2878251343604172
 40
0.4234880042862625
 40
0.5497147666318791
 40
0.6718858481062342
 40
0.7962090644528995
 40
0.9276088781385857
 40
1.0
 40
1.0
 40
1.0
 40
1.0
 10
86.85387953894572
 20
71.30833077027988
 30
0.0
 10
86.85499978298421
 20
71.29696085270909
 30
0.0
 10
86.85724275525928
 20
71.27419580419762
 30
0.0
 10
86.85972574248352
 20
71.23719553657443
 30
0.0
 10
86.8610788786932
 20
71.20463094060334
 30
0.0
 10
86.86120069452406
 20
71.18016727748306
 30
0.0
 10
86.86024332494645
 20
71.16520301539848
 30
0.0
 10
86.85833769474372
 20
71.16021621680721
 30
0.0
 10
86.85607459915813
 20
71.16442902232376
 30
0.0
 10
86.85447167970206
 20
71.17159082830045
 30
0.0
 10
86.853902286675
 20
71.17413486279256
 30
0.0
  0
LINE
  5
2AE
330
1F
100
AcDbEntity
  8
0
  6
Continuous
 62
     7
370
    15
100
AcDbLine
 10
82.2443224851
 20
69.9757492393
 30
0.0
 11
82.2183757672
 21
69.9315866306
 31
0.0
  0
LINE
  5
2AF
330
1F
100
AcDbEntity
  8
0
  6
Continuous
 62
     7
370
    15
100
AcDbLine
 10
80.970622533
 20
77.1810368678
 30
0.0
 11
80.789492159
 21
76.8727439316
 31
0.0
  0
LWPOLYLINE
  5
2B0
330
1F
100
AcDbEntity
  8
0
  6
Continuous
 62
     7
370
    15
100
AcDbPolyline
 90
        9
 70
   128
 43
0.0
 10
80.0458772213
 20
86.3405317368
 10
80.0181310504
 20
86.4384673268
 10
79.9960901206
 20
86.4386484488
 10
79.98194177
 20
86.3410571284
 10
79.9770900787
 20
86.1553783118
 10
79.9820165276
 20
85.9000387341
 10
79.9962322169
 20
85.6003782526
 10
80.0183263838
 20
85.2861351238
 10
80.0461064069
 20
84.9884947835
  0
LINE
  5
2B1
330
1F
100
AcDbEntity
  8
0
  6
Continuous
 62
     7
370
    15
100
AcDbLine
 10
80.747626936
 20
82.9316080651
 30
0.0
 11
80.0458772213
 21
86.3405317368
 31
0.0
  0
ARC
  5
2B2
330
1F
100
AcDbEntity
  8
0
  6
Continuous
 62
     7
370
    15
100
AcDbCircle
 10
75.9553876716
 20
82.0436937121
 30
0.0
 40
4.873802321146355
100
AcDbArc
 50
5.4837506381
 51
10.4968247924
  0
LINE
  5
2B3
330
1F
100
AcDbEntity
  8
0
  6
Continuous
 62
     7
370
    15
100
AcDbLine
 10
81.5091738197
 20
75.9158137534
 30
0.0
 11
80.8068842599
 21
82.5094510739
 31
0.0
  0
LWPOLYLINE
  5
2B4
330
1F
100
AcDbEntity
  8
0
  6
Continuous
 62
     7
370
    15
100
AcDbPolyline
 90
        9
 70
   128
 43
0.0
 10
81.5094030055
 20
74.5637767999
 10
81.5371491764
 20
74.4658412098
 10
81.5591901062
 20
74.4656600877
 10
81.5733384567
 20
74.5632514082
 10
81.578190148
 20
74.7489302248
 10
81.573263699
 20
75.0042698026
 10
81.5590480097
 20
75.3039302842
 10
81.5369538427
 20
75.6181734131
 10
81.5091738197
 20
75.9158137534
  0
LINE
  5
2B5
330
1F
100
AcDbEntity
  8
0
  6
Continuous
 62
     7
370
    15
100
AcDbLine
 10
80.8076532906
 20
77.9727004717
 30
0.0
 11
81.5094030055
 21
74.5637767999
 31
0.0
  0
ARC
  5
2B6
330
1F
100
AcDbEntity
  8
0
  6
Continuous
 62
     7
370
    15
100
AcDbCircle
 10
85.599892555
 20
78.8606148247
 30
0.0
 40
4.873802321142482
100
AcDbArc
 50
185.4837506381
 51
190.4968247924
  0
LINE
  5
2B7
330
1F
100
AcDbEntity
  8
0
  6
Continuous
 62
     7
370
    15
100
AcDbLine
 10
80.0461064069
 20
84.9884947835
 30
0.0
 11
80.7483959668
 21
78.3948574629
 31
0.0
  0
LWPOLYLINE
  5
2B8
330
1F
100
AcDbEntity
  8
0
  6
Continuous
 62
     7
370
    15
100
AcDbPolyline
 90
       29
 70
   128
 43
0.0
 10
80.8683570403
 20
77.7465085031
 10
80.9298345217
 20
77.504653776
 10
80.98368034
 20
77.4105990313
 10
81.0271944409
 20
77.4690605666
 10
81.0581948458
 20
77.6771068764
 10
81.075127065
 20
78.0243056501
 10
81.0771420462
 20
78.4932468913
 10
81.0641387498
 20
79.060415928
 10
81.0367692156
 20
79.6973725366
 10
80.9964058661
 20
80.3721770529
 10
80.9450726883
 20
81.0509919607
 10
80.8853437421
 20
81.6997786461
 10
80.8202140862
 20
82.2860042356
 10
80.7529495935
 20
82.7802729302
 10
80.6869231866
 20
83.1578000338
 10
80.6254457052
 20
83.3996547609
 10
80.571599887
 20
83.4937095056
 10
80.528085786
 20
83.4352479703
 10
80.4970853811
 20
83.2272016605
 10
80.480153162
 20
82.8800028868
 10
80.4781381808
 20
82.4110616456
 10
80.4911414771
 20
81.8438926089
 10
80.5185110114
 20
81.2069360003
 10
80.5588743608
 20
80.532131484
 10
80.6102075386
 20
79.8533165762
 10
80.6699364849
 20
79.2045298908
 10
80.7350661408
 20
78.6183043013
 10
80.8023306334
 20
78.1240356066
 10
80.8683570403
 20
77.7465085031
  0
SPLINE
  5
2B9
330
1F
100
AcDbEntity
  8
0
  6
Continuous
 62
     7
370
    15
100
AcDbSpline
210
0.0
220
0.0
230
1.0
 70
     8
 71
     3
 72
    10
 73
     6
 74
     0
 42
0.00000001
 43
0.00000001
 40
0.0
 40
0.0
 40
0.0
 40
0.0
 40
0.4164755080794862
 40
0.7035821713602898
 40
1.0
 40
1.0
 40
1.0
 40
1.0
 10
85.51101209589872
 20
83.90288885278741
 30
0.0
 10
85.5118212080215
 20
83.89849516861578
 30
0.0
 10
85.51318809959902
 20
83.89107260044607
 30
0.0
 10
85.515196340778
 20
83.87620738367418
 30
0.0
 10
85.51632189934651
 20
83.86611469219706
 30
0.0
 10
85.51689365876965
 20
83.86098782308667
 30
0.0
  0
LINE
  5
2BA
330
1F
100
AcDbEntity
  8
0
  6
Continuous
 62
     7
370
    15
100
AcDbLine
 10
85.5110120959
 20
83.9028888528
 30
0.0
 11
85.3820829268
 21
84.5291943395
 31
0.0
  0
LINE
  5
2BB
330
1F
100
AcDbEntity
  8
0
  6
Continuous
 62
     7
370
    15
100
AcDbLine
 10
80.9666852
 20
77.2001634415
 30
0.0
 11
80.766974376
 21
77.0331635883
 31
0.0
  0
LINE
  5
2BC
330
1F
100
AcDbEntity
  8
0
  6
Continuous
 62
     7
370
    15
100
AcDbLine
 10
79.4271487092
 20
90.534338031
 30
0.0
 11
79.3369915499
 21
90.458947864
 31
0.0
  0
LINE
  5
2BD
330
1F
100
AcDbEntity
  8
0
  6
Continuous
 62
     7
370
    15
100
AcDbLine
 10
85.4283426978
 20
84.5324291378
 30
0.0
 11
82.9405076119
 21
84.3584627616
 31
0.0
  0
LINE
  5
2BE
330
1F
100
AcDbEntity
  8
0
  6
Continuous
 62
     7
370
    15
100
AcDbLine
 10
82.9405076119
 20
84.3584627616
 30
0.0
 11
80.9506023332
 21
84.5923904743
 31
0.0
  0
LINE
  5
2BF
330
1F
100
AcDbEntity
  8
0
  6
Continuous
 62
     7
370
    15
100
AcDbLine
 10
80.9506023332
 20
84.5923904743
 30
0.0
 11
80.7133954798
 21
86.8194717961
 31
0.0
  0
LINE
  5
2C0
330
1F
100
AcDbEntity
  8
0
  6
Continuous
 62
     7
370
    15
100
AcDbLine
 10
109.1578463102
 20
88.8085015602
 30
0.0
 11
80.7133954798
 21
86.8194717961
 31
0.0
  0
ELLIPSE
  5
2C1
330
1F
100
AcDbEntity
  8
0
  6
Continuous
 62
     7
370
    15
100
AcDbEllipse
 10
78.8607318134
 20
129.8545995716
 30
0.0
 11
-7.733037905256609
 21
58.32110399342429
 31
0.0
210
0.0
220
0.0
230
0.9999999999999999
 40
0.6436133639
 41
3.147348872756702
 42
3.850112058596852
  0
LINE
  5
2C2
330
1F
100
AcDbEntity
  8
0
  6
Continuous
 62
     7
370
    15
100
AcDbLine
 10
85.4786520999
 20
84.060085577
 30
0.0
 11
85.4283426978
 21
84.5324291378
 31
0.0
  0
SPLINE
  5
2C3
330
1F
100
AcDbEntity
  8
0
  6
Continuous
 62
     7
370
    15
100
AcDbSpline
210
0.0
220
0.0
230
1.0
 70
     8
 71
     3
 72
    10
 73
     6
 74
     0
 42
0.00000001
 43
0.00000001
 40
0.0
 40
0.0
 40
0.0
 40
0.0
 40
0.5
 40
0.5
 40
1.0
 40
1.0
 40
1.0
 40
1.0
 10
79.32752205976728
 20
88.29007374414986
 30
0.0
 10
79.30931238683026
 20
88.49603383118803
 30
0.0
 10
79.28746094481629
 20
88.68654084809259
 30
0.0
 10
79.24552915540558
 20
88.95667578222023
 30
0.0
 10
79.22512958688391
 20
89.03907988059265
 30
0.0
 10
79.20931916912352
 20
89.04891895436873
 30
0.0
  0
SPLINE
  5
2C4
330
1F
100
AcDbEntity
  8
0
  6
Continuous
 62
     7
370
    15
100
AcDbSpline
210
0.0
220
0.0
230
1.0
 70
     8
 71
     3
 72
    10
 73
     6
 74
     0
 42
0.00000001
 43
0.00000001
 40
0.0
 40
0.0
 40
0.0
 40
0.0
 40
0.5
 40
0.5
 40
1.0
 40
1.0
 40
1.0
 40
1.0
 10
75.64548522313075
 20
140.0141188103519
 30
0.0
 10
75.65973011828274
 20
140.0260271355709
 30
0.0
 10
75.66847422504337
 20
140.1084931406944
 30
0.0
 10
75.67246253008189
 20
140.385749236731
 30
0.0
 10
75.66765107660598
 20
140.5737431067476
 30
0.0
 10
75.65692693031336
 20
140.7820296539824
 30
0.0
  0
LINE
  5
2C5
330
1F
100
AcDbEntity
  8
0
  6
Continuous
 62
     7
370
    15
100
AcDbLine
 10
75.6433564837
 20
141.0456157829
 30
0.0
 11
75.6569269303
 21
140.782029654
 31
0.0
  0
LINE
  5
2C6
330
1F
100
AcDbEntity
  8
0
  6
Continuous
 62
     7
370
    15
100
AcDbLine
 10
75.7964193464
 20
141.0838481302
 30
0.0
 11
75.6433564837
 21
141.0456157829
 31
0.0
  0
LINE
  5
2C7
330
1F
100
AcDbEntity
  8
0
  6
Continuous
 62
     7
370
    15
100
AcDbLine
 10
78.5125063196
 20
118.2936531441
 30
0.0
 11
75.7964193464
 21
141.0838481302
 31
0.0
  0
LINE
  5
2C8
330
1F
100
AcDbEntity
  8
0
  6
Continuous
 62
     7
370
    15
100
AcDbLine
 10
80.7133954798
 20
86.8194717961
 30
0.0
 11
78.5125063196
 21
118.2936531441
 31
0.0
  0
LWPOLYLINE
  5
2C9
330
1F
100
AcDbEntity
  8
0
  6
Continuous
 62
     7
370
    15
100
AcDbPolyline
 90
        6
 70
   128
 43
0.0
 10
79.3627409738
 20
91.0545876014
 10
79.3619179517
 20
91.4456360875
 10
79.376515232
 20
91.7286953711
 10
79.4057024409
 20
91.8624530705
 10
79.4471150043
 20
91.8360729324
 10
79.4973979225
 20
91.6516921187
  0
SPLINE
  5
2CA
330
1F
100
AcDbEntity
  8
0
  6
Continuous
 62
     7
370
    15
100
AcDbSpline
210
0.0
220
0.0
230
1.0
 70
     8
 71
     3
 72
     8
 73
     4
 74
     0
 42
0.00000001
 43
0.00000001
 40
0.0
 40
0.0
 40
0.0
 40
0.0
 40
1.0
 40
1.0
 40
1.0
 40
1.0
 10
79.32752205976728
 20
88.29007374414986
 30
0.0
 10
79.44163293005616
 20
86.99942536962976
 30
0.0
 10
79.55578971775181
 20
85.70901955349125
 30
0.0
 10
79.66997713256937
 20
84.41877552491103
 30
0.0
  0
LINE
  5
2CB
330
1F
100
AcDbEntity
  8
0
  6
Continuous
 62
     7
370
    15
100
AcDbLine
 10
79.4973979225
 20
91.6516921187
 30
0.0
 11
80.9506023332
 21
84.5923904743
 31
0.0
  0
LINE
  5
2CC
330
1F
100
AcDbEntity
  8
0
  6
Continuous
 62
     7
370
    15
100
AcDbLine
 10
79.6699771326
 20
84.4187755249
 30
0.0
 11
80.3097894822
 21
81.310728
 31
0.0
  0
LINE
  5
2CD
330
1F
100
AcDbEntity
  8
0
  6
Continuous
 62
     7
370
    15
100
AcDbLine
 10
108.6896890092
 20
120.403847323
 30
0.0
 11
78.5125063196
 21
118.2936531441
 31
0.0
  0
ARC
  5
2CE
330
1F
100
AcDbEntity
  8
0
  6
Continuous
 62
     7
370
    15
100
AcDbCircle
 10
82.2629469768
 20
114.8696531129
 30
0.0
 40
27.00000000000003
100
AcDbArc
 50
0.0
 51
11.8277520112
  0
LINE
  5
2CF
330
1F
100
AcDbEntity
  8
0
  6
Continuous
 62
     7
370
    15
100
AcDbLine
 10
109.2629469768
 20
88.9360151037
 30
0.0
 11
109.2629469768
 21
114.8696531129
 31
0.0
  0
ELLIPSE
  5
2D0
330
1F
100
AcDbEntity
  8
0
  6
Continuous
 62
     7
370
    15
100
AcDbEllipse
 10
81.2345080262
 20
118.3233915739
 30
0.0
 11
-2.98840318869496
 21
42.73615664202016
 31
0.0
210
0.0
220
0.0
230
1.0
 40
0.8848501194
 41
3.890053816141766
 42
3.894156503323948
  0
ARC
  5
2D1
330
1F
100
AcDbEntity
  8
0
  6
Continuous
 62
     7
370
    15
100
AcDbCircle
 10
82.2629469768
 20
114.8696531129
 30
0.0
 40
27.00000000000003
100
AcDbArc
 50
11.8277520112
 51
103.8570922378
  0
SPLINE
  5
2D2
330
1F
100
AcDbEntity
  8
0
  6
Continuous
 62
     7
370
    15
100
AcDbSpline
210
0.0
220
0.0
230
1.0
 70
     8
 71
     3
 72
     8
 73
     4
 74
     0
 42
0.00000001
 43
0.00000001
 40
0.0
 40
0.0
 40
0.0
 40
0.0
 40
1.0
 40
1.0
 40
1.0
 40
1.0
 10
75.6428985144426
 20
140.0127427869021
 30
0.0
 10
75.64381336351211
 20
140.0129836620394
 30
0.0
 10
75.64467563327263
 20
140.013442016369
 30
0.0
 10
75.64548522313082
 20
140.0141188103519
 30
0.0
  0
SPLINE
  5
2D3
330
1F
100
AcDbEntity
  8
0
  6
Continuous
 62
     7
370
    15
100
AcDbSpline
210
0.0
220
0.0
230
1.0
 70
     8
 71
     3
 72
     8
 73
     4
 74
     0
 42
0.00000001
 43
0.00000001
 40
0.0
 40
0.0
 40
0.0
 40
0.0
 40
1.0
 40
1.0
 40
1.0
 40
1.0
 10
79.20931916912357
 20
89.04891895436873
 30
0.0
 10
79.20842286764136
 20
89.04947673699932
 30
0.0
 10
79.20750518040211
 20
89.04981042701941
 30
0.0
 10
79.20656612865601
 20
89.04992158618346
 30
0.0
  0
SPLINE
  5
2D4
330
1F
100
AcDbEntity
  8
0
  6
Continuous
 62
     7
370
    15
100
AcDbSpline
210
0.0
220
0.0
230
1.0
 70
     8
 71
     3
 72
    20
 73
    16
 74
     0
 42
0.00000001
 43
0.00000001
 40
0.0
 40
0.0
 40
0.0
 40
0.0
 40
0.2500000000000001
 40
0.2500000000000001
 40
0.375
 40
0.375
 40
0.5
 40
0.5
 40
0.625
 40
0.625
 40
0.75
 40
0.75
 40
0.8750000000000001
 40
0.8750000000000001
 40
1.0
 40
1.0
 40
1.0
 40
1.0
 10
79.20656612865601
 20
89.04992158618343
 30
0.0
 10
79.15795194184129
 20
89.055676234305
 30
0.0
 10
79.01187330422844
 20
89.07255577133905
 30
0.0
 10
78.64865823030023
 20
89.12180184962024
 30
0.0
 10
78.50484437330647
 20
89.14215869725317
 30
0.0
 10
78.17814594289025
 20
89.19200320877377
 30
0.0
 10
77.99464700102916
 20
89.22156508019324
 30
0.0
 10
77.5870293927917
 20
89.29273775619255
 30
0.0
 10
77.3640313926453
 20
89.33422288697824
 30
0.0
 10
76.89360237209756
 20
89.42898273573589
 30
0.0
 10
76.64455372021595
 20
89.48252501386817
 30
0.0
 10
76.11957446235564
 20
89.6044281969999
 30
0.0
 10
75.84345597062395
 20
89.67293398071317
 30
0.0
 10
75.28164967385715
 20
89.82277690502585
 30
0.0
 10
74.99397736901595
 20
89.90454689138345
 30
0.0
 10
74.69994300368555
 20
89.99394265263366
 30
0.0
  0
SPLINE
  5
2D5
330
1F
100
AcDbEntity
  8
0
  6
Continuous
 62
     7
370
    15
100
AcDbSpline
210
0.0
220
0.0
230
1.0
 70
     8
 71
     3
 72
    20
 73
    16
 74
     0
 42
0.00000001
 43
0.00000001
 40
0.0
 40
0.0
 40
0.0
 40
0.0
 40
0.2500000000000007
 40
0.2500000000000007
 40
0.3750000000000006
 40
0.3750000000000006
 40
0.5000000000000004
 40
0.5000000000000004
 40
0.6250000000000003
 40
0.6250000000000003
 40
0.7500000000000002
 40
0.7500000000000002
 40
0.8750000000000002
 40
0.8750000000000002
 40
1.0
 40
1.0
 40
1.0
 40
1.0
 10
71.3115158751215
 20
138.4507081534166
 30
0.0
 10
71.86899724658397
 20
138.7096117020306
 30
0.0
 10
72.40266730099282
 20
138.9334741311005
 30
0.0
 10
73.1597029085862
 20
139.2254347007262
 30
0.0
 10
73.40230871172237
 20
139.3144198671958
 30
0.0
 10
73.85480047867935
 20
139.4737301043793
 30
0.0
 10
74.0666405856526
 20
139.5448072382175
 30
0.0
 10
74.45973134353017
 20
139.6719210605384
 30
0.0
 10
74.64122067292325
 20
139.7279876759907
 30
0.0
 10
74.95897964645499
 20
139.8232013643817
 30
0.0
 10
75.09719541854682
 20
139.862988550564
 30
0.0
 10
75.33148673180327
 20
139.9289761397943
 30
0.0
 10
75.42783839161545
 20
139.9552427301035
 30
0.0
 10
75.57126183765658
 20
139.9938817739471
 30
0.0
 10
75.61922174091386
 20
140.0065088120714
 30
0.0
 10
75.6428985144426
 20
140.0127427869021
 30
0.0
  0
ELLIPSE
  5
2D6
330
1F
100
AcDbEntity
  8
0
  6
Continuous
 62
     7
370
    15
100
AcDbEllipse
 10
65.2073857266
 20
106.4454222471
 30
0.0
 11
-2.019609832756224
 21
2.984713198969686
 31
0.0
210
0.0
220
0.0
230
1.0
 40
0.5680465928
 41
0.0
 42
6.283185307179586
  0
ARC
  5
2D7
330
1F
100
AcDbEntity
  8
0
  6
Continuous
 62
     7
370
    15
100
AcDbCircle
 10
82.2629469768
 20
114.8696531129
 30
0.0
 40
26.00000000000001
100
AcDbArc
 50
114.9109332241
 51
253.0890667759
  0
LINE
  5
2D8
330
1F
100
AcDbEntity
  8
0
  6
Continuous
 62
     7
370
    15
100
AcDbLine
 10
79.3098453963
 20
88.4696531129
 30
0.0
 11
76.6025582976
 21
88.4696531129
 31
0.0
  0
SPLINE
  5
2D9
330
1F
100
AcDbEntity
  8
0
  6
Continuous
 62
     7
370
    15
100
AcDbSpline
210
0.0
220
0.0
230
1.0
 70
    24
 71
     3
 72
    10
 73
     6
 74
     0
 42
0.00000001
 43
0.00000001
 40
0.0
 40
0.0
 40
0.0
 40
0.0
 40
0.5
 40
0.5
 40
1.0
 40
1.0
 40
1.0
 40
1.0
 10
73.26294697682717
 20
85.3093757122919
 30
0.0
 10
73.26294697682717
 20
85.14948844409824
 30
0.0
 10
73.26294697682717
 20
84.98836118858365
 30
0.0
 10
73.26294697682717
 20
84.7542621902288
 30
0.0
 10
73.26294697682717
 20
84.68273541663758
 30
0.0
 10
73.26294697682717
 20
84.68273541663758
 30
0.0
  0
ARC
  5
2DA
330
1F
100
AcDbEntity
  8
0
  6
Continuous
 62
     7
370
    15
100
AcDbCircle
 10
82.2629469768
 20
114.8696531129
 30
0.0
 40
31.49999999999999
100
AcDbArc
 50
140.9381656697
 51
253.398450401
  0
SPLINE
  5
2DB
330
1F
100
AcDbEntity
  8
0
  6
Continuous
 62
     7
370
    15
100
AcDbSpline
210
0.0
220
0.0
230
1.0
 70
    24
 71
     3
 72
    12
 73
     8
 74
     0
 42
0.00000001
 43
0.00000001
 40
0.0
 40
0.0
 40
0.0
 40
0.0
 40
0.2500000000000006
 40
0.2500000000000006
 40
0.5000000000000012
 40
0.5000000000000012
 40
1.0
 40
1.0
 40
1.0
 40
1.0
 10
57.80425731445956
 20
134.7196531128847
 30
0.0
 10
57.80425731445956
 20
134.7196531128847
 30
0.0
 10
57.83208703476304
 20
134.7196531128847
 30
0.0
 10
57.92722949601971
 20
134.7196531128847
 30
0.0
 10
57.99365231232007
 20
134.7196531128847
 30
0.0
 10
58.2178517438402
 20
134.7196531128847
 30
0.0
 10
58.40183814638582
 20
134.7196531128847
 30
0.0
 10
58.58199471556879
 20
134.7196531128847
 30
0.0
  0
SPLINE
  5
2DC
330
1F
100
AcDbEntity
  8
0
  6
Continuous
 62
     7
370
    15
100
AcDbSpline
210
0.0
220
0.0
230
1.0
 70
    24
 71
     3
 72
    10
 73
     6
 74
     0
 42
0.00000001
 43
0.00000001
 40
0.0
 40
0.0
 40
0.0
 40
0.0
 40
0.5
 40
0.5
 40
1.0
 40
1.0
 40
1.0
 40
1.0
 10
74.26294697682717
 20
144.7160934366486
 30
0.0
 10
74.26294697682717
 20
144.8764987029994
 30
0.0
 10
74.26294697682717
 20
145.035560515988
 30
0.0
 10
74.26294697682717
 20
145.2664729816183
 30
0.0
 10
74.26294697682717
 20
145.3368485860489
 30
0.0
 10
74.26294697682717
 20
145.3368485860489
 30
0.0
  0
SPLINE
  5
2DD
330
1F
100
AcDbEntity
  8
0
  6
Continuous
 62
     7
370
    15
100
AcDbSpline
210
0.0
220
0.0
230
1.0
 70
    24
 71
     3
 72
    12
 73
     8
 74
     0
 42
0.00000001
 43
0.00000001
 40
0.0
 40
0.0
 40
0.0
 40
0.0
 40
0.249999999999998
 40
0.249999999999998
 40
0.499999999999996
 40
0.499999999999996
 40
1.0
 40
1.0
 40
1.0
 40
1.0
 10
62.41294697682717
 20
139.3283427752521
 30
0.0
 10
62.41294697682717
 20
139.3283427752521
 30
0.0
 10
62.41294697682716
 20
139.3001230766643
 30
0.0
 10
62.41294697682717
 20
139.2056800694162
 30
0.0
 10
62.41294697682716
 20
139.1393930927108
 30
0.0
 10
62.41294697682716
 20
138.9137682694225
 30
0.0
 10
62.41294697682716
 20
138.73134200639
 30
0.0
 10
62.41294697682717
 20
138.5506053741431
 30
0.0
  0
ARC
  5
2DE
330
1F
100
AcDbEntity
  8
0
  6
Continuous
 62
     7
370
    15
100
AcDbCircle
 10
82.2629469768
 20
114.8696531129
 30
0.0
 40
31.49999999999999
100
AcDbArc
 50
104.7124579609
 51
129.0618343303
  0
SPLINE
  5
2DF
330
1F
100
AcDbEntity
  8
0
  6
Continuous
 62
     7
370
    15
100
AcDbSpline
210
0.0
220
0.0
230
1.0
 70
    24
 71
     3
 72
    12
 73
     8
 74
     0
 42
0.00000001
 43
0.00000001
 40
0.0
 40
0.0
 40
0.0
 40
0.0
 40
0.2500000000000038
 40
0.2500000000000038
 40
0.5000000000000077
 40
0.5000000000000077
 40
1.0
 40
1.0
 40
1.0
 40
1.0
 10
90.26294697682717
 20
145.3368485860489
 30
0.0
 10
90.26294697682717
 20
145.3368485860489
 30
0.0
 10
90.26294697682717
 20
145.3198458360882
 30
0.0
 10
90.26294697682717
 20
145.2557852949765
 30
0.0
 10
90.26294697682717
 20
145.2086266793379
 30
0.0
 10
90.26294697682717
 20
145.0354046466457
 30
0.0
 10
90.26294697682717
 20
144.8752955564114
 30
0.0
 10
90.26294697682717
 20
144.716093436648
 30
0.0
  0
ARC
  5
2E0
330
1F
100
AcDbEntity
  8
0
  6
Continuous
 62
     7
370
    15
100
AcDbCircle
 10
82.2629469768
 20
114.8696531129
 30
0.0
 40
31.49999999999999
100
AcDbArc
 50
328.9972808661
 51
75.2875420391
  0
LINE
  5
2E1
330
1F
100
AcDbEntity
  8
0
  6
Continuous
 62
     7
370
    15
100
AcDbLine
 10
90.2629469768
 20
144.7160934366
 30
0.0
 11
90.2629469768
 21
141.2696531129
 31
0.0
  0
LINE
  5
2E2
330
1F
100
AcDbEntity
  8
0
  6
Continuous
 62
     7
370
    15
100
AcDbLine
 10
90.2629469768
 20
141.2696531129
 30
0.0
 11
87.9233356561
 21
141.2696531129
 31
0.0
  0
LINE
  5
2E3
330
1F
100
AcDbEntity
  8
0
  6
Continuous
 62
     7
370
    15
100
AcDbLine
 10
74.2629469768
 20
141.2696531129
 30
0.0
 11
74.2629469768
 21
144.7160934366
 31
0.0
  0
LINE
  5
2E4
330
1F
100
AcDbEntity
  8
0
  6
Continuous
 62
     7
370
    15
100
AcDbLine
 10
73.2629469768
 20
88.4696531129
 30
0.0
 11
73.2629469768
 21
85.3093757123
 31
0.0
  0
LINE
  5
2E5
330
1F
100
AcDbEntity
  8
0
  6
Continuous
 62
     7
370
    15
100
AcDbLine
 10
62.4129469768
 20
138.5506053741
 30
0.0
 11
62.4129469768
 21
134.7196531129
 31
0.0
  0
LINE
  5
2E6
330
1F
100
AcDbEntity
  8
0
  6
Continuous
 62
     7
370
    15
100
AcDbLine
 10
58.5819947156
 20
134.7196531129
 30
0.0
 11
62.4129469768
 21
134.7196531129
 31
0.0
  0
LINE
  5
2E7
330
1F
100
AcDbEntity
  8
0
  6
Continuous
 62
     7
370
    15
100
AcDbLine
 10
76.6025582976
 20
141.2696531129
 30
0.0
 11
74.2629469768
 21
141.2696531129
 31
0.0
  0
LINE
  5
2E8
330
1F
100
AcDbEntity
  8
0
  6
Continuous
 62
     7
370
    15
100
AcDbLine
 10
76.6025582976
 20
88.4696531129
 30
0.0
 11
73.2629469768
 21
88.4696531129
 31
0.0
  0
SPLINE
  5
2E9
330
1F
100
AcDbEntity
  8
0
  6
Continuous
 62
     7
370
    15
100
AcDbSpline
210
0.0
220
0.0
230
1.0
 70
     8
 71
     3
 72
    23
 73
    19
 74
     0
 42
0.00000001
 43
0.00000001
 40
0.0
 40
0.0
 40
0.0
 40
0.0
 40
0.0950186360866704
 40
0.188309159300667
 40
0.2344759553292825
 40
0.3294227916881649
 40
0.4225784598332594
 40
0.4686510874166757
 40
0.5406643910196056
 40
0.6101430609396289
 40
0.6764074481157707
 40
0.708879986332843
 40
0.7392271903246592
 40
0.8001694716831622
 40
0.8615751250092448
 40
0.923454767391924
 40
0.9545423484533465
 40
1.0
 40
1.0
 40
1.0
 40
1.0
 10
73.26294697682722
 20
84.68273541663758
 30
0.0
 10
73.27662429810769
 20
84.67864027933446
 30
0.0
 10
73.30373018993993
 20
84.67052448337556
 30
0.0
 10
73.48474344009857
 20
84.61721459577365
 30
0.0
 10
73.73942020095005
 20
84.54438297709066
 30
0.0
 10
74.07679858555086
 20
84.45066182303992
 30
0.0
 10
74.51489026358281
 20
84.33626240487271
 30
0.0
 10
74.97211931480737
 20
84.22409251052169
 30
0.0
 10
75.42310016871188
 20
84.11955885771144
 30
0.0
 10
75.97729168160235
 20
84.00134268066257
 30
0.0
 10
76.46487094321078
 20
83.90671201648719
 30
0.0
 10
76.85836636764145
 20
83.83628907342401
 30
0.0
 10
77.24683598447481
 20
83.77052295447417
 30
0.0
 10
77.74529175985123
 20
83.6932810007488
 30
0.0
 10
78.37301898100407
 20
83.6083846005069
 30
0.0
 10
78.91849895035132
 20
83.54671897619743
 30
0.0
 10
79.41600806467707
 20
83.49679565210936
 30
0.0
 10
79.69860596075159
 20
83.47650190420978
 30
0.0
 10
79.86643139219744
 20
83.46445012659854
 30
0.0
  0
SPLINE
  5
2EA
330
1F
100
AcDbEntity
  8
0
  6
Continuous
 62
     7
370
    15
100
AcDbSpline
210
0.0
220
0.0
230
1.0
 70
     8
 71
     3
 72
    50
 73
    46
 74
     0
 42
0.00000001
 43
0.00000001
 40
0.0
 40
0.0
 40
0.0
 40
0.0
 40
0.0625000000000004
 40
0.0625000000000004
 40
0.0937500000000005
 40
0.0937500000000005
 40
0.1250000000000006
 40
0.1250000000000006
 40
0.1875000000000006
 40
0.1875000000000006
 40
0.2187500000000006
 40
0.2187500000000006
 40
0.2500000000000006
 40
0.2500000000000006
 40
0.3125000000000006
 40
0.3125000000000006
 40
0.3750000000000005
 40
0.3750000000000005
 40
0.4062500000000006
 40
0.4062500000000006
 40
0.4375000000000006
 40
0.4375000000000006
 40
0.5000000000000006
 40
0.5000000000000006
 40
0.5625000000000007
 40
0.5625000000000007
 40
0.6250000000000006
 40
0.6250000000000006
 40
0.6562500000000006
 40
0.6562500000000006
 40
0.6875000000000006
 40
0.6875000000000006
 40
0.7187500000000006
 40
0.7187500000000006
 40
0.7500000000000004
 40
0.7500000000000004
 40
0.8125000000000004
 40
0.8125000000000004
 40
0.8750000000000004
 40
0.8750000000000004
 40
0.9375000000000003
 40
0.9375000000000003
 40
0.9687500000000002
 40
0.9687500000000002
 40
1.0
 40
1.0
 40
1.0
 40
1.0
 10
74.26294697682722
 20
145.3368485860489
 30
0.0
 10
74.26294697682722
 20
145.3368485860489
 30
0.0
 10
74.31524111878028
 20
145.3507146894302
 30
0.0
 10
74.46859365361304
 20
145.3901518323142
 30
0.0
 10
74.53229114896426
 20
145.4064045345792
 30
0.0
 10
74.68538279925407
 20
145.4447532444295
 30
0.0
 10
74.7750389012149
 20
145.4669066908376
 30
0.0
 10
75.07662028938894
 20
145.5396626366997
 30
0.0
 10
75.32236171982292
 20
145.5969433395444
 30
0.0
 10
75.7575217861736
 20
145.6909357790002
 30
0.0
 10
75.91466261363476
 20
145.7237947461934
 30
0.0
 10
76.24730170635907
 20
145.7903707996416
 30
0.0
 10
76.4223676617991
 20
145.8240142374805
 30
0.0
 10
76.97322319250071
 20
145.9245751020576
 30
0.0
 10
77.37440760168737
 20
145.9911379118077
 30
0.0
 10
78.24789680777477
 20
146.1158369671072
 30
0.0
 10
78.7099374007572
 20
146.1723599761779
 30
0.0
 10
79.43105281435112
 20
146.2430289107927
 30
0.0
 10
79.6766134520345
 20
146.2643051208642
 30
0.0
 10
80.1784017511927
 20
146.3016108471061
 30
0.0
 10
80.43616296750936
 20
146.3177020439661
 30
0.0
 10
81.21127543172912
 20
146.3563435155738
 30
0.0
 10
81.73170461544882
 20
146.3695329341302
 30
0.0
 10
82.77984045623418
 20
146.3697716575883
 30
0.0
 10
83.31234878660796
 20
146.3563716548841
 30
0.0
 10
84.34003904877454
 20
146.3053076666889
 30
0.0
 10
84.83980322935628
 20
146.2678685319347
 30
0.0
 10
85.56829822937674
 20
146.1967050490163
 30
0.0
 10
85.80764922182223
 20
146.1704365908238
 30
0.0
 10
86.2688876933091
 20
146.1147551180715
 30
0.0
 10
86.49215434837636
 20
146.0852173461356
 30
0.0
 10
86.92434195439844
 20
146.0236102011079
 30
0.0
 10
87.1332625346384
 20
145.9915392583867
 30
0.0
 10
87.53668746016211
 20
145.9257222814173
 30
0.0
 10
87.73216712013148
 20
145.8917920629541
 30
0.0
 10
88.2880253336677
 20
145.7903634353739
 30
0.0
 10
88.61758272029928
 20
145.7234444066838
 30
0.0
 10
89.19697821808522
 20
145.5984188443419
 30
0.0
 10
89.44849818952959
 20
145.5398420501079
 30
0.0
 10
89.84995268614315
 20
145.4430071984629
 30
0.0
 10
90.00243568169027
 20
145.4042522389038
 30
0.0
 10
90.1577466308655
 20
145.3643247084675
 30
0.0
 10
90.19726007827165
 20
145.354032917217
 30
0.0
 10
90.24977342556743
 20
145.340316704678
 30
0.0
 10
90.26294697682721
 20
145.3368485860489
 30
0.0
 10
90.26294697682721
 20
145.3368485860489
 30
0.0
  0
SPLINE
  5
2EB
330
1F
100
AcDbEntity
  8
0
  6
Continuous
 62
     7
370
    15
100
AcDbSpline
210
0.0
220
0.0
230
1.0
 70
     8
 71
     3
 72
    20
 73
    16
 74
     0
 42
0.00000001
 43
0.00000001
 40
0.0
 40
0.0
 40
0.0
 40
0.0
 40
0.2500000000000005
 40
0.2500000000000005
 40
0.3750000000000004
 40
0.3750000000000004
 40
0.5000000000000003
 40
0.5000000000000003
 40
0.6250000000000002
 40
0.6250000000000002
 40
0.7500000000000001
 40
0.7500000000000001
 40
0.8750000000000001
 40
0.8750000000000001
 40
1.0
 40
1.0
 40
1.0
 40
1.0
 10
57.80425731445983
 20
134.7196531128847
 30
0.0
 10
58.3349140822945
 20
135.3735155411821
 30
0.0
 10
58.86864207855602
 20
135.9773013231793
 30
0.0
 10
59.65161439654476
 20
136.8041400593479
 30
0.0
 10
59.90959799664144
 20
137.0665686973008
 30
0.0
 10
60.41399325304928
 20
137.5632313514057
 30
0.0
 10
60.65677167547727
 20
137.7938182304273
 30
0.0
 10
61.10745175499033
 20
138.2103724550099
 30
0.0
 10
61.3169156209816
 20
138.3978702569774
 30
0.0
 10
61.69520413756965
 20
138.7292672346138
 30
0.0
 10
61.85895182375413
 20
138.8687712221091
 30
0.0
 10
62.12713762595357
 20
139.09422472958
 30
0.0
 10
62.23236203404032
 20
139.1808508411237
 30
0.0
 10
62.37642125935383
 20
139.2988316299778
 30
0.0
 10
62.41294697682721
 20
139.3283427752521
 30
0.0
 10
62.41294697682722
 20
139.3283427752521
 30
0.0
  0
CIRCLE
  5
2EC
330
1F
100
AcDbEntity
  8
VERMASSUNG
  6
CENTERX2
100
AcDbCircle
 10
82.8607688711
 20
110.4234252839
 30
0.0
 40
40.00000000000001
  0
DIMENSION
  5
2ED
330
1F
100
AcDbEntity
  8
VERMASSUNG
100
AcDbDimension
  2
*D6
 10
40.7629469768
 20
150.4234252839
 30
0.0
 11
40.7629469768
 21
110.4234252839
 31
0.0
 70
   160
  1
%%c<>
 71
     2
 42
-1.0
  3
SLDDIMSTYLE2
100
AcDbAlignedDimension
 13
82.8607688711
 23
70.4234252839
 33
0.0
 14
82.8607688711
 24
150.4234252839
 34
0.0
 50
90.0
100
AcDbRotatedDimension
  0
INSERT
  5
304
330
1F
100
AcDbEntity
  8
VERMASSUNG
100
AcDbBlockReference
  2
SW_CENTERMARKSYMBOL_0
 10
82.2629469768
 20
114.8696531129
 30
0.0
  0
OLE2FRAME
  5
305
330
1F
100
AcDbEntity
  8
0
100
AcDbOle2Frame
 70
     2
  3
Bitmap Image
 10
13.8511154363
 20
38.264191557
 30
0.0
 11
51.6290888628
 21
31.9806341108
 31
0.0
 71
     2
 72
     0
 73
     1
 90
    12928
310
80552BED0767C5B32B40DDAF6807D121434000000000000000006FFBDDFB85D0
310
4940DDAF6807D121434000000000000000006FFBDDFB85D04940416F4BD60AFB
310
3F4000000000000000002BED0767C5B32B40416F4BD60AFB3F40000000000000
310
0000000000000100000000010000010000000100000000000100000000320000
310
D0CF11E0A1B11AE1000000000000000000000000000000003E000300FEFF0900
310
0600000000000000000000000100000001000000000000000010000002000000
310
01000000FEFFFFFF0000000000000000FFFFFFFFFFFFFFFFFFFFFFFFFFFFFFFF
310
FFFFFFFFFFFFFFFFFFFFFFFFFFFFFFFFFFFFFFFFFFFFFFFFFFFFFFFFFFFFFFFF
310
FFFFFFFFFFFFFFFFFFFFFFFFFFFFFFFFFFFFFFFFFFFFFFFFFFFFFFFFFFFFFFFF
310
FFFFFFFFFFFFFFFFFFFFFFFFFFFFFFFFFFFFFFFFFFFFFFFFFFFFFFFFFFFFFFFF
310
FFFFFFFFFFFFFFFFFFFFFFFFFFFFFFFFFFFFFFFFFFFFFFFFFFFFFFFFFFFFFFFF
310
FFFFFFFFFFFFFFFFFFFFFFFFFFFFFFFFFFFFFFFFFFFFFFFFFFFFFFFFFFFFFFFF
310
FFFFFFFFFFFFFFFFFFFFFFFFFFFFFFFFFFFFFFFFFFFFFFFFFFFFFFFFFFFFFFFF
310
FFFFFFFFFFFFFFFFFFFFFFFFFFFFFFFFFFFFFFFFFFFFFFFFFFFFFFFFFFFFFFFF
310
FFFFFFFFFFFFFFFFFFFFFFFFFFFFFFFFFFFFFFFFFFFFFFFFFFFFFFFFFFFFFFFF
310
FFFFFFFFFFFFFFFFFFFFFFFFFFFFFFFFFFFFFFFFFFFFFFFFFFFFFFFFFFFFFFFF
310
FFFFFFFFFFFFFFFFFFFFFFFFFFFFFFFFFFFFFFFFFFFFFFFFFFFFFFFFFFFFFFFF
310
FFFFFFFFFFFFFFFFFFFFFFFFFFFFFFFFFFFFFFFFFFFFFFFFFFFFFFFFFFFFFFFF
310
FFFFFFFFFFFFFFFFFFFFFFFFFFFFFFFFFFFFFFFFFFFFFFFFFFFFFFFFFFFFFFFF
310
FFFFFFFFFFFFFFFFFFFFFFFFFFFFFFFFFFFFFFFFFFFFFFFFFFFFFFFFFFFFFFFF
310
FDFFFFFFFEFFFFFFFEFFFFFFFEFFFFFF05000000060000000700000008000000
310
090000000A0000000B0000000C0000000D0000000E0000000F00000010000000
310
11000000120000001300000014000000150000001600000017000000FEFFFFFF
310
FFFFFFFFFFFFFFFFFFFFFFFFFFFFFFFFFFFFFFFFFFFFFFFFFFFFFFFFFFFFFFFF
310
FFFFFFFFFFFFFFFFFFFFFFFFFFFFFFFFFFFFFFFFFFFFFFFFFFFFFFFFFFFFFFFF
310
FFFFFFFFFFFFFFFFFFFFFFFFFFFFFFFFFFFFFFFFFFFFFFFFFFFFFFFFFFFFFFFF
310
FFFFFFFFFFFFFFFFFFFFFFFFFFFFFFFFFFFFFFFFFFFFFFFFFFFFFFFFFFFFFFFF
310
FFFFFFFFFFFFFFFFFFFFFFFFFFFFFFFFFFFFFFFFFFFFFFFFFFFFFFFFFFFFFFFF
310
FFFFFFFFFFFFFFFFFFFFFFFFFFFFFFFFFFFFFFFFFFFFFFFFFFFFFFFFFFFFFFFF
310
FFFFFFFFFFFFFFFFFFFFFFFFFFFFFFFFFFFFFFFFFFFFFFFFFFFFFFFFFFFFFFFF
310
FFFFFFFFFFFFFFFFFFFFFFFFFFFFFFFFFFFFFFFFFFFFFFFFFFFFFFFFFFFFFFFF
310
FFFFFFFFFFFFFFFFFFFFFFFFFFFFFFFFFFFFFFFFFFFFFFFFFFFFFFFFFFFFFFFF
310
FFFFFFFFFFFFFFFFFFFFFFFFFFFFFFFFFFFFFFFFFFFFFFFFFFFFFFFFFFFFFFFF
310
FFFFFFFFFFFFFFFFFFFFFFFFFFFFFFFFFFFFFFFFFFFFFFFFFFFFFFFFFFFFFFFF
310
FFFFFFFFFFFFFFFFFFFFFFFFFFFFFFFFFFFFFFFFFFFFFFFFFFFFFFFFFFFFFFFF
310
FFFFFFFFFFFFFFFFFFFFFFFFFFFFFFFFFFFFFFFFFFFFFFFFFFFFFFFFFFFFFFFF
310
52006F006F007400200045006E00740072007900000000000000000000000000
310
0000000000000000000000000000000000000000000000000000000000000000
310
16000500FFFFFFFFFFFFFFFF020000000A00030000000000C000000000000046
310
00000000000000000000000010843C7D6CD2CB0103000000C000000000000000
310
01004F006C006500000000000000000000000000000000000000000000000000
310
0000000000000000000000000000000000000000000000000000000000000000
310
0A000200FFFFFFFFFFFFFFFFFFFFFFFF00000000000000000000000000000000
310
0000000000000000000000000000000000000000000000001400000000000000
310
010043006F006D0070004F0062006A0000000000000000000000000000000000
310
0000000000000000000000000000000000000000000000000000000000000000
310
120002010100000003000000FFFFFFFF00000000000000000000000000000000
310
0000000000000000000000000000000000000000010000004D00000000000000
310
01004F006C006500310030004E00610074006900760065000000000000000000
310
0000000000000000000000000000000000000000000000000000000000000000
310
1A000200FFFFFFFFFFFFFFFFFFFFFFFF00000000000000000000000000000000
310
0000000000000000000000000000000000000000040000002426000000000000
310
FEFFFFFF02000000FEFFFFFFFFFFFFFFFFFFFFFFFFFFFFFFFFFFFFFFFFFFFFFF
310
FFFFFFFFFFFFFFFFFFFFFFFFFFFFFFFFFFFFFFFFFFFFFFFFFFFFFFFFFFFFFFFF
310
FFFFFFFFFFFFFFFFFFFFFFFFFFFFFFFFFFFFFFFFFFFFFFFFFFFFFFFFFFFFFFFF
310
FFFFFFFFFFFFFFFFFFFFFFFFFFFFFFFFFFFFFFFFFFFFFFFFFFFFFFFFFFFFFFFF
310
FFFFFFFFFFFFFFFFFFFFFFFFFFFFFFFFFFFFFFFFFFFFFFFFFFFFFFFFFFFFFFFF
310
FFFFFFFFFFFFFFFFFFFFFFFFFFFFFFFFFFFFFFFFFFFFFFFFFFFFFFFFFFFFFFFF
310
FFFFFFFFFFFFFFFFFFFFFFFFFFFFFFFFFFFFFFFFFFFFFFFFFFFFFFFFFFFFFFFF
310
FFFFFFFFFFFFFFFFFFFFFFFFFFFFFFFFFFFFFFFFFFFFFFFFFFFFFFFFFFFFFFFF
310
FFFFFFFFFFFFFFFFFFFFFFFFFFFFFFFFFFFFFFFFFFFFFFFFFFFFFFFFFFFFFFFF
310
FFFFFFFFFFFFFFFFFFFFFFFFFFFFFFFFFFFFFFFFFFFFFFFFFFFFFFFFFFFFFFFF
310
FFFFFFFFFFFFFFFFFFFFFFFFFFFFFFFFFFFFFFFFFFFFFFFFFFFFFFFFFFFFFFFF
310
FFFFFFFFFFFFFFFFFFFFFFFFFFFFFFFFFFFFFFFFFFFFFFFFFFFFFFFFFFFFFFFF
310
FFFFFFFFFFFFFFFFFFFFFFFFFFFFFFFFFFFFFFFFFFFFFFFFFFFFFFFFFFFFFFFF
310
FFFFFFFFFFFFFFFFFFFFFFFFFFFFFFFFFFFFFFFFFFFFFFFFFFFFFFFFFFFFFFFF
310
FFFFFFFFFFFFFFFFFFFFFFFFFFFFFFFFFFFFFFFFFFFFFFFFFFFFFFFFFFFFFFFF
310
FFFFFFFFFFFFFFFFFFFFFFFFFFFFFFFFFFFFFFFFFFFFFFFFFFFFFFFFFFFFFFFF
310
010000020000000000000000000000000000000061007200AC0582005C003104
310
D03C163100000000C802250000000000680061007200650064005C003B004300
310
0100FEFF030A0000FFFFFFFF0A00030000000000C00000000000004607000000
310
5042727573680007000000504272757368000700000050427275736800F439B2
310
71000000000000000000000000004100540049002E004100430045005C004300
310
6F00720065002D005300740061007400690063003B0043003A005C0050007200
310
6F006700720061006D002000460069006C006500730020002800780038003600
310
29005C0043006F006D006D006F006E002000460069006C00650073005C004100
310
750074006F006400650073006B0020005300680061007200650064005C003B00
310
43003A005C00500072006F006700720061006D002000460069006C0065007300
310
5C004E006F0072006D0061006E005C004E0070006D005C00420069006E000000
310
43003A005C00500072006F006700720061006D002000460069006C0065007300
310
5C0053006F006C006900640057006F0072006B007300200043006F0072007000
310
5C0053006F006C006900640057006F0072006B00730020002800320029005C00
310
730065007400750070005C0069003300380036005C0073007700610063007400
310
770069007A002E006500780065000000220043003A005C00500072006F006700
310
20260000424D0E260000000000003E00000028000000B40200006E0000000100
310
01000000000000000000130B0000130B00000200000002000000000000FFFFFF
310
FFFFFFFFFFFFFFFFFFFFFFFFFFFFFFFFFFFFFFFFFFFFFFFFFFFFFFFFFFFFFFFF
310
FFFFFFFFFFFFFFFFFFFFFFFFFFFFFFFFFFFFFFFFFFFFFFFFFFFFFFFFFFFFFFFF
310
FFFFFFFFFFFFFFFFFFFFFFFFFFFFFFFFFFFFFFFFFFFFFFFFF000FFFFFFFFFFFF
310
FFFFFFFFFFFFFFFFFFFFFFFFFFFFFFFFFFFFFFFFFFFFFFFFFFFFFFFFFFFFFFFF
310
FFFFFFFFFFFFFFFFFFFFFFFFFFFFFFFFFFFFFFFFFFFFFFFFFFFFFFFFFFFFFFFF
310
FFFFFFFFFFFFFFFFFFFFFFFFFFFFFFFFF000FFFFFFFFFFFFFFFFFFFFFFFFFFFF
310
FFFFFFFFFFFFFFFFFFFFFFFFFFFFFFFFFFFFFFFFFFFFFFFFFFFFFFFFFFFFFFFF
310
FFFFFFFFFFFFFFFFFFFFFFFFFFFFFFFFFFFFFFFFFFFFFFFFFFFFFFFFFFFFFFFF
310
FFFFFFFFFFFFFFFFF000FFFFFFFFFFFFFFFFFFFFFFFFFFFFFFFFFFFFFFFFFFFF
310
FFFFFFFFFFFFFFFFFFFFFFFFFFFFFFFFFFFFFFFFFFFFFFFFFFFFFFFFFFFFFFFF
310
FFFFFFFFFFFFFFFFFFFFFFFFFFFFFFFFFFFFFFFFFFFFFFFFFFFFFFFFFFFFFFFF
310
F000FFFFFFFFFFFFFFFFFFFFFFFFFFFFFFFFFFFFFFFFFFFFFFFFFFFFFFFFFFFF
310
FFFFFFFFFFFFFFFFFFFFFFFFFFFFFFFFFFFFFFFFFFFFFFFFFFFFFFFFFFFFFFFF
310
FFFFFFFFFFFFFFFFFFFFFFFFFFFFFFFFFFFFFFFFFFFFFFFFF000FFFFFFFFFFFF
310
FFFFFFFFFFFFFFFFFFFFFFFFFFFFFFFFFFFFFFFFFFFFFFFFFFFFFFFFFFFFFFFF
310
FFFFFFFFFFFFFFFFFFFFFFFFFFFFFFFFFFFFFFFFFFFFFFFFFFFFFFFFFFFFFFFF
310
FFFFFFFFFFFFFFFFFFFFFFFFFFFFFFFFF000FFFFFFFFFFFFFFFFFFFFFFFFFFFF
310
FFFFFFFFFFFFFFFFFFFFFFFFFFFFFFFFFFFFFFFFFFFFFFFFFFFFFFFFFFFFFFFF
310
FFFFFFFFFFFFFFFFFFFFFFFFFFFFFFFFFFFFFFFFFFFFFFFFFFFFFFFFFFFFFFFF
310
FFFFFFFFFFFFFFFFF000FFFFFFFFFFFFFFFFFFFFFFFFFFFFFFFFFFFFFFFFFFFF
310
FFFFFFFFFFFFFFFFFFFFFFFFFFFFFFFFFFFFFFFFFFFFFFFFFFFFFFFFFFFFFFFF
310
FFFFFFFFFFFFFFFFFFFFFFFFFFFFFFFFFFFFFFFFFFFFFFFFFFFFFFFFFFFFFFFF
310
F000FFFFFFFFFFFFFFFFFFFFFFFFFFFFFFFFFFFFFFFFFFFFFFFFFFFFFFFFFFFF
310
FFFFFFFFFFFFFFFFFFFFFFFFFFFFFFFFFFFFFFFFFFFFFFFFFFFFFFFFFFFFFFFF
310
FFFFFFFFFFFFFFFFFFFFFFFFFFFFFFFFFFFFFFFFFFFFFFFFF000FFFFFFFFFFFF
310
FFFFFFFFFFFFFFFFFFFFFFFFFFFFFFFFFFFFFFFFFFFFFFFFFFFFFFFFFFFFFFFF
310
FFFFFFFFFFFFFFFFFFFFFFFFFFFFFFFFFFFFFFFFFFFFFFFFFFFFFFFFFFFFFFFF
310
FFFFFFFFFFFFFFFFFFFFFFFFFFFFFFFFF000FFFFFFFFFFFFFFFFFFFFFFFFFFFF
310
FFFFFFFFFFFFFFFFFFFFFFFFFFFFFFFFFFFFFFFFFFFFFFFFFFFFFFFFFFFFFFFF
310
FFFFFFFFFFFFFFFFFFFFFFFFFFFFFFFFFFFFFFFFFFFFFFFFFFFFFFFFFFFFFFFF
310
FFFFFFFFFFFFFFFFF000FFFFFFFFFFFFFFFFFFFFFFFFFFFFFFFFFFFFFFFFFFFF
310
FFFFFFFFFFFFFFFFFFFFFFFFFFFFFFFFFFFFFFFFFFFFFFFFFFFFFFFFFFFFFFFF
310
FFFFFFFFFFFFFFFFFFFFFFFFFFFFFFFFFFFFFFFFFFFFFFFFFFFFFFFFFFFFFFFF
310
F000FFFFFFFFFFFFFFFFFFFFFFFFFFFFFFFFFFFFFFFFFFFFFFFFFFFFFFFFFFFF
310
FFFFFFFFFFFFFFFFFFFFFFFFFFFFFFFFFFFFFFFFFFFFFFFFFFFFFFFFFFFFFFFF
310
FFFFFFFFFFFFFFFFFFFFFFFFFFFFFFFFFFFFFFFFFFFFFFFFF000FFFFFFFFFFFF
310
FFFFFFFFFFFFFFFFFFFFFFFFFFFFFFFFFFFFFFFFFFFFFFFFFFFFFFFFFFFFFFFF
310
FFFFFFFFFFFFFFFFFFFFFFFFFFFFFFFFFFFFFFFFFFFFFFFFFFFFFFFFFFFFFFFF
310
FFFFFFFFFFFFFFFFFFFFFFFFFFFFFFFFF000FFFFFFFFFFFFFFFFFFFFFFFFFFFF
310
FFFFFFFFFFFFFFFFFFFFFFFFFFFFFFFFFFFFFFFFFFFFFFFFFFFFFFFFFFFFFFFF
310
FFFFFFFFFFFFFFFFFFFFFFFFFFFFFFFFFFFFFFFFFFFFFFFFFFFFFFFFFFFFFFFF
310
FFFFFFFFFFFFFFFFF000FFFFFFFFFFFFFFFFFFFFFFFFFFFFFFFFFFFFFFFFFFFF
310
FFFFFFFFFFFFFFFFFFFFFFFFFFFFFFFFFFFFFFFFFFFFFFFFFFFFFFFFFFFFFFFF
310
FFFFFFFFFFFFFFFFFFFFFFFFFFFFFFFFFFFFFFFFFFFFFFFFFFFFFFFFFFFFFFFF
310
F000FFFFFFFFFFFFFFFFFFFFFFFFFFFFFFFFFFFFFFFFFFFFFFFFFFFFFFFFFFFF
310
FFFFFFFFFFFFFFFFFFFFFFFFFFFFFFFFFFFFFFFFFFFFFFFFFFFFFFFFFFFFFFFF
310
FFFFFFFFFFFFFFFFFFFFFFFFFFFFFFFFFFFFFFFFFFFFFFFFF000FFFFFFFFFFFF
310
FFFFFFFFFFFFFFFFFFFFFFFFFFFFFFFFFFFFFFFFFFFFFFFFFFFFFFFFFFFFFFFF
310
FFFFFFFFFFFFFFFFFFFFFFFFFFFFFFFFFFFFFFFFFFFFFFFFFFFFFFFFFFFFFFFF
310
FFFFFFFFFFFFFFFFFFFFFFFFFFFFFFFFF000FFFFFFFFFFFFFFFFFFFFFFFFFFFF
310
FFFFFFFFFFFFFFFFFFFFFFFFFFFFFFFFFFFFFFFFFFFFFFFFFFFFFFFFFFFFFFFF
310
FFFFFFFFFFFFFFFFFFFFFFFFFFFFFFFFFFFFFFFFFFFFFFFFFFFFFFFFFFFFFFFF
310
FFFFFFFFFFFFFFFFF000FFFFF80003FFFFFFFFFFFFFFFFFFFFFFFFFFFFFFFFFF
310
FFFFF00007FFFFFFFFFF00007FFFFFF800000000000000007FFFFFFFFFFFFFFF
310
FFFFFFFC001FFFFFFFFFFFFFFC001FFFFFFFFFFFFFFFFFFFFFFFFFFE0007FFFF
310
F000FFFF8000007FFFFFFFF8000FFFFFC0007FFFFF80007FFFFF0000007FFFFF
310
FFF8000007FFFFF800000000000000007FFFFFF0001FFFFFFFFFFFC00001FFFF
310
FFFFFFFFC00001FFFFFFFF000000000003FFFFE000007FFFF000FFFE0000000F
310
FFFFFFF0000FFFFF80007FFFFF80007FFFFC0000001FFFFFFFC0000001FFFFF8
310
00000000000000007FFFFFF0001FFFFFFFFFFE0000003FFFFFFFFFFE0000003F
310
FFFFFF000000000003FFFF0000000FFFF000FFF800000003FFFFFFF00007FFFF
310
80007FFFFF80007FFFF000000007FFFFFF000000003FFFF80000000000000000
310
7FFFFFF0001FFFFFFFFFF80000000FFFFFFFFFF80000000FFFFFFF0000000000
310
03FFFC00000003FFF000FFE000000000FFFFFFF00007FFFF80003FFFFF80007F
310
FFC000000001FFFFFC000000001FFFF800000000000000007FFFFFF0001FFFFF
310
FFFFE000000003FFFFFFFFE000000003FFFFFF000000000003FFF000000000FF
310
F000FF80000000007FFFFFF00007FFFF80003FFFFF80007FFF8000000000FFFF
310
F80000000007FFF800000000000000007FFFFFF0001FFFFFFFFFC000000001FF
310
FFFFFFC000000001FFFFFF000000000003FFC0000000007FF000FF0000000000
310
3FFFFFE00007FFFF00003FFFFF80007FFE00000000003FFFF00000000003FFF8
310
00000000000000007FFFFFF0001FFFFFFFFF8000000000FFFFFFFF8000000000
310
FFFFFF000000000003FF80000000003FF000FE00000000001FFFFFE00003FFFF
310
00003FFFFF80007FFC00000000001FFFE00000000001FFF8000001FFFE000000
310
7FFFFFF0001FFFFFFFFE00000000003FFFFFFE00000000003FFFFF0000000000
310
03FF00000000001FF000FC00000000000FFFFFE00003FFFF00001FFFFF80007F
310
F800000000001FFFC00000000000FFF8000001FFFE0000007FFFFFF0001FFFFF
310
FFFC00000000001FFFFFFC00000000001FFFFF000000000003FE00000000000F
310
F000F8000000000007FFFFE00003FFFF00001FFFFF80007FF800000000000FFF
310
800000000000FFF8000001FFFE0000007FFFFFF0001FFFFFFFF800000000000F
310
FFFFF800000000000FFFFF000000000003FC000000000007F000F80000000000
310
03FFFFC00003FFFE00001FFFFF80007FF0000000000007FF0000000000007FF8
310
000001FFFE0000007FFFFFF0001FFFFFFFF0000000000007FFFFF00000000000
310
07FFFF000000000003F8000000000003F000F0000000000003FFFFC00001FFFE
310
00001FFFFF80007FE0000000000007FE0000000000003FF8000001FFFE000000
310
7FFFFFF0001FFFFFFFF0000000000007FFFFF0000000000007FFFF0000000000
310
03F800001F800003F000E00001FFF00001FFFFC00001FFFE00000FFFFF80007F
310
E00001FFE00003FE00001FFF00003FF8000001FFFE0000007FFFFFF0001FFFFF
310
FFE000003E000003FFFFE000003E000003FFFF000000000003F00001FFF80001
310
F000E00007FFFC0001FFFFC00001FFFE00000FFFFF80007FC0000FFFFC0003FC
310
0000FFFFC0001FF8000001FFFE0000007FFFFFF0001FFFFFFFC00003FFE00001
310
FFFFC00003FFE00001FFFF0001FFFFFFFFF00007FFFE0001F000E0000FFFFF00
310
00FFFF800001FFFC00000FFFFF80007FC0001FFFFE0001FC0001FFFFE0001FF8
310
000001FFFE0000007FFFFFF0001FFFFFFF80000FFFF80000FFFF80000FFFF800
310
00FFFF0003FFFFFFFFE0000FFFFF8000F000C0003FFFFF8000FFFF800000FFFC
310
000007FFFF80007F80003FFFFF0001FC0003FFFFF0001FF8000001FFFE000000
310
7FFFFFF0001FFFFFFF80003FFFFE0000FFFF80003FFFFE0000FFFF0003FFFFFF
310
FFE0003FFFFF8000F000C0003FFFFF8000FFFF800000FFFC000007FFFF80007F
310
80007FFFFF8001F80007FFFFF8000FF8000001FFFE0000007FFFFFF0001FFFFF
310
FF00007FFFFF00007FFF00007FFFFF00007FFF0003FFFFFFFFE0003FFFFFC000
310
F000C0007FFFFFC000FFFF000000FFFC000007FFFF80007F8000FFFFFF8000F8
310
000FFFFFF8000FF8000001FFFE0000007FFFFFF0001FFFFFFF0000FFFFFF8000
310
7FFF0000FFFFFF80007FFF0003FFFFFFFFC0007FFFFFC00070008000FFFFFFC0
310
00FFFF000000FFF8000007FFFF80007F8000FFFFFF8000F8000FFFFFF8000FF8
310
000001FFFE0000007FFFFFF0001FFFFFFE0001FFFFFFC0003FFE0001FFFFFFC0
310
003FFF0003FFFFFFFFC0007FFFFFE00070008000FFFFFFC0007FFF0000007FF8
310
000003FFFF80007F0001FFFFFF8000F8000FFFFFF8000FF8000001FFFE000000
310
7FFFFFF0001FFFFFFE0001FFFFFFC0003FFE0001FFFFFFC0003FFF0003FFFFFF
310
FFC000FFFFFFE00070008000FFFFFFC0007FFF0000007FF8000003FFFF80007F
310
0001FFFFFF8000F8001FFFFFF8000FF8000001FFFE0000007FFFFFF0001FFFFF
310
FE0003FFFFFFE0003FFE0003FFFFFFE0003FFF0003FFFFFFFFC000FFFFFFE000
310
70008000FFFFFFC0007FFE0000007FF8000003FFFF80007F0001FFFFFF8000F0
310
001FFFFFF8000FF8000001FFFE0000007FFFFFF0001FFFFFFC0003FFFFFFE000
310
1FFC0003FFFFFFE0001FFF0003FFFFFFFFC000FFFFFFC00070008000FFFFFF80
310
007FFE0000007FF0000003FFFF80007F0001FFFFFF0000F0001FFFFFF8000FF8
310
000001FFFE0000007FFFFFF0001FFFFFFC0007FFFFFFF0001FFC0007FFFFFFF0
310
001FFF0003FFFFFFFFC000FFFFFFC00070008001FFFFFF0000FFFE0000003FF0
310
000001FFFF80007F0001FFFFFF0000F8001FFFFFF0000FF8000001FFFE000000
310
7FFFFFF0001FFFFFFC0007FFFFFFF0001FFC0007FFFFFFF0001FFF0003FFFFFF
310
FFC001FFFFFF80007000FFFFFFFFFE0000FFFE0008003FF0008001FFFF80007F
310
FFFFFFFFFC0000FFFFFFFFFFE0000FF8000001FFFE0000007FFFFFF0001FFFFF
310
F8000FFFFFFFF8000FF8000FFFFFFFF8000FFF0003FFFFFFFFFFFFFFFFFF0000
310
7000FFFFFFFFFC0000FFFC0008003FF0008001FFFF80007FFFFFFFFFF80001FF
310
FFFFFFFF80000FF8000001FFFE0000007FFFFFF0001FFFFFF8000FFFFFFFF800
310
0FF8000FFFFFFFF8000FFF0003FFFFFFFFFFFFFFFFFE0000F000FFFFFFFFE000
310
00FFFC000C003FE000C001FFFF80007FFFFFFFFFC00001FFFFFFFFFE00001FF8
310
000001FFFE0000007FFFFFF0001FFFFFF8000FFFFFFFF8000FF8000FFFFFFFF8
310
000FFF0003FFFFFFFFFFFFFFFFF00000F000FFFFFFFE000001FFFC000C001FE0
310
00C000FFFF80007FFFFFFFFE000001FFFFFFFFE000001FF80FFFFFFFFFFFFFC0
310
7FFFFFF0001FFFFFF8000FFFFFFFF8000FF8000FFFFFFFF8000FFF0003FFFFFF
310
FFFFFFFFFF800000F000FFFFFFC0000001FFFC001C001FE001C000FFFF80007F
310
FFFFFF80000003FFFFFFF80000001FF80FFFFFFFFFFFFFC07FFFFFF0001FFFFF
310
F8001FFFFFFFFC000FF8001FFFFFFFFC000FFF0003FFFFFFFFFFFFFFF0000001
310
F000FFFFF800000001FFF8001C001FE001C000FFFF80007FFFFFF800000003FF
310
FFFF800000003FF80FFFFFFFFFFFFFC07FFFFFF0001FFFFFF8001FFFFFFFFC00
310
0FF8001FFFFFFFFC000FFF0003FFFFFFFFFFFFFE00000001F000FFFFC0000000
310
03FFF8001E001FC001E000FFFF80007FFFFF8000000007FFFFFC000000003FF8
310
0FFFFFFFFFFFFFC07FFFFFF0001FFFFFF8001FFFFFFFFC000FF8001FFFFFFFFC
310
000FFF0003FFFFFFFFFFFFE000000003F000FFFE0000000007FFF8001E000FC0
310
01E0007FFF80007FFFFE0000000007FFFFE0000000007FF80FFFFFFFFFFFFFC0
310
7FFFFFF0001FFFFFF0001FFFFFFFFC0007F0001FFFFFFFFC0007FF0003FFFFFF
310
FFFFFF0000000003F000FFF80000000007FFF8001E000FC003E0007FFF80007F
310
FFF0000000000FFFFF8000000000FFF80FFFFFFFFFFFFFC07FFFFFF0001FFFFF
310
F0001FFFFFFFFC0007F0001FFFFFFFFC0007FF0003FFFFFFFFFFFC0000000007
310
F000FFE0000000000FFFF0003E000FC003E0007FFF80007FFFC0000000001FFF
310
FE0000000001FFF80FFFFFFFFFFFFFC07FFFFFF0001FFFFFF0001FFFFFFFFC00
310
07F0001FFFFFFFFC0007FF0003FFFFFFFFFFF0000000000FF000FFC000000000
310
1FFFF0003F000F8003F0003FFF80007FFF80000000003FFFF80000000003FFF8
310
0FFFFFFFFFFFFFC07FFFFFF0001FFFFFF0001FFFFFFFFC0007F0001FFFFFFFFC
310
0007FF0003FFFFFFFFFFE0000000001FF000FF00000000007FFFF0003F000780
310
03F0003FFF80007FFF00000000007FFFF00000000007FFF80FFFFFFFFFFFFFC0
310
7FFFFFF0001FFFFFF0001FFFFFFFFC0007F0001FFFFFFFFC0007FF0003FFFFFF
310
FFFF80000000007FF000FE0000000000FFFFE0003F00078007F0003FFF80007F
310
FE0000000001FFFFE0000000001FFFF80FFFFFFFFFFFFFC07FFFFFF0001FFFFF
310
F0001FFFFFFFFC0007F0001FFFFFFFFC0007FF0003FFFFFFFFFF0000000000FF
310
F000FC0000000003FFFFE0007F00078007F0003FFF80007FFC0000000007FFFF
310
C0000000007FFFF80FFFFFFFFFFFFFC07FFFFFF0001FFFFFF8001FFFFFFFFC00
310
0FF8001FFFFFFFFC000FFF0003FFFFFFFFFE0000000003FFF000FC000000000F
310
FFFFE0007F80070007F8001FFF80007FF8000000001FFFFF8000000001FFFFF8
310
0FFFFFFFFFFFFFC07FFFFFF0001FFFFFF8001FFFFFFFFC000FF8001FFFFFFFFC
310
000FFF0003FFFFFFFFFC000000000FFFF000F8000000007FFFFFE0007F800700
310
07F8001FFF80007FF000000000FFFFFF800000000FFFFFF80FFFFFFFFFFFFFC0
310
7FFFFFF0001FFFFFF8000FFFFFFFF8000FF8000FFFFFFFF8000FFF0003FFFFFF
310
FFFC000000007FFFF000F800000007FFFFFFC0007F8003000FF8001FFF80007F
310
F000000007FFFFFF000000007FFFFFF80FFFFFFFFFFFFFC07FFFFFF0001FFFFF
310
F8000FFFFFFFF8000FF8000FFFFFFFF8000FFF0003FFFFFFFFF80000000FFFFF
310
F000F0000000FFFFFFFFC000FF8003000FF8001FFF80007FE0000000FFFFFFFF
310
0000000FFFFFFFF8000001FFFE0000007FFFFFF0001FFFFFF8000FFFFFFFF800
310
0FF8000FFFFFFFF8000FFF0003FFFFFFFFF8000000FFFFFFF000F000000FFFFF
310
FFFFC000FFC002000FF8000FFF80007FE000001FFFFFFFFE000001FFFFFFFFF8
310
000001FFFE0000007FFFFFF0001FFFFFF8000FFFFFFFF8000FF8000FFFFFFFF8
310
000FFF0003FFFFFFFFF000001FFFFFFFF000E00000FFFFFFFFFFC000FFC00200
310
0FFC000FFF80007FE00001FFFFFFFFFE00001FFFFFFFFFF8000001FFFE000000
310
7FFFFFF0001FFFFFFC000FFFFFFFF8001FFC000FFFFFFFF8001FFF0003FFFFFF
310
FFF00001FFFFFFFFF000E00007FFFFFFFFFF8000FFC000001FFC000FFF80007F
310
C0000FFFFFFFFFFE0000FFFFFFFFFFF8000001FFFE0000007FFFFFF0001FFFFF
310
FC0007FFFFFFF0001FFC0007FFFFFFF0001FFF0003FFFFFFFFF00007FFFFFFFF
310
F000E0001FFFFFFFFFFF8000FFC000001FFC000FFF80007FC0003FFFFFFFFFFE
310
0001FFFFFFFFFFF8000001FFFE0000007FFFFFF0001FFFFFFC0007FFFFFFF000
310
1FFC0007FFFFFFF0001FFF0003FFFFFFFFF0001FFFFFFFFFF000E0003FFFFF00
310
03FF8001FFE000001FFC0007FF80007FC0007FFFFF0007FC0003FFFFF0003FF8
310
000001FFFE0000007FFFFFF0001FFFFFFC0003FFFFFFE0001FFC0003FFFFFFE0
310
001FFF0003FFFFFFFFF0003FFFFFFFFFF000E0003FFFFF0001FF8001FFE00000
310
1FFE0007FF80007FC0007FFFFE0003FC0007FFFFE0003FF8000001FFFE000000
310
7FFFFFF0001FFFFFFE0003FFFFFFE0003FFE0003FFFFFFE0003FFF0003FFFFFF
310
FFF0003FFFFF8001F000E0003FFFFF0001FF0001FFE000001FFE0007FF80007F
310
C0007FFFFE0003FC0007FFFFE0003FF8000001FFFE0000007FFFFFF0001FFFFF
310
FE0001FFFFFFC0003FFE0001FFFFFFC0003FFF0003FFFFFFFFF0003FFFFF0001
310
F000E0003FFFFF0003FF0001FFE000003FFE0007FF80007FC0007FFFFE0003FC
310
0007FFFFE0003FF8000001FFFE0000007FFFFFF0001FFFFFFF0001FFFFFFC000
310
7FFF0001FFFFFFC0007FFF0003FFFFFFFFF0003FFFFF0001F000E0003FFFFE00
310
03FF0003FFF000003FFE0003FF80007FC0007FFFFC0003FE0007FFFFE0003FF8
310
000001FFFE0000007FFFFFF0001FFFFFFF0000FFFFFF80007FFF0000FFFFFF80
310
007FFF0003FFFFFFFFF0003FFFFF0001F000E0003FFFFE0003FF0003FFF00000
310
3FFF0003FF80007FC0007FFFFC0007FE0007FFFFC0003FF8000001FFFE000000
310
7FFFFFF0001FFFFFFF80007FFFFF0000FFFF80007FFFFF0000FFFF0003FFFFFF
310
FFF0003FFFFF0003F000E0003FFFFC0003FE0003FFF000003FFF0003FF80007F
310
E0003FFFF80007FE0003FFFFC0007FF8000001FFFE0000007FFFFFF0001FFFFF
310
FF80003FFFFE0000FFFF80003FFFFE0000FFFF0003FFFFFFFFF0001FFFFE0003
310
F000F0001FFFF80003FE0003FFF000007FFF0001FF80007FE0003FFFF00007FE
310
0001FFFF80007FF8000001FFFE0000007FFFFFF0001FFFFFFFC0000FFFF80001
310
FFFFC0000FFFF80001FFFF0003FFFFFFFFF0001FFFFC0003F000F0000FFFF000
310
07FE0007FFF800007FFF0001FF80007FE0001FFFE00007FF0000FFFE00007FF8
310
000001FFFE0000007FFFFFF0001FFFFFFFC00003FFE00001FFFFC00003FFE000
310
01FFFF0003FFFFFFFFF8000FFFF80003F000F00003FFC00007FC0007FFF80000
310
7FFF8001FF80007FF00007FF80000FFF00007FF80000FFF8000001FFFE000000
310
7F80000000000001FFE000003E000003FFFFE000003E000003FFFF0003FFFFFF
310
FFF80003FFE00007F000F800000000000FFC0007FFF800007FFF8001FF80007F
310
F000000000000FFF000000000000FFF8000001FFFE0000007F80000000000001
310
FFF0000000000007FFFFF0000000000007FFFF0003FFFFFFFFFC00007E000007
310
F000F800000000000FFC0007FFF80000FFFF8000FF80007FF800000000001FFF
310
800000000001FFF8000001FFFE0000007F80000000000001FFF800000000000F
310
FFFFF800000000000FFFFF0003FFFFFFFFFC00000000000FF000FC0000000000
310
1FFC0007FFFC0000FFFF8000FF80007FF800000000003FFFC00000000001FFF8
310
000001FFFE0000007F80000000000001FFF800000000000FFFFFF80000000000
310
0FFFFF0003FFFFFFFFFE00000000001FF000FE00000000003FF8000FFFFC0000
310
FFFF8000FF80007FFC00000000003FFFC00000000003FFF8000001FFFE000000
310
7F80000000000001FFFC00000000001FFFFFFC00000000001FFFFF0003FFFFFF
310
FFFF00000000001FF000FF00000000003FF8000FFFFC0000FFFFC000FF80007F
310
FE00000000007FFFE00000000007FFF8000001FFFE0000007F80000000000001
310
FFFE00000000003FFFFFFE00000000003FFFFF0003FFFFFFFFFF80000000003F
310
F000FF80000000007FF8000FFFFC0001FFFFC0007F80007FFF0000000000FFFF
310
F0000000000FFFF800000000000000007F80000000000001FFFF8000000000FF
310
FFFFFF8000000000FFFFFF0003FFFFFFFFFFC0000000007FF000FFC000000000
310
FFF8000FFFFE0001FFFFC0007F80007FFF8000000001FFFFF8000000001FFFF8
310
00000000000000007F80000000000001FFFFC000000001FFFFFFFFC000000001
310
FFFFFF0003FFFFFFFFFFE000000000FFF000FFE000000003FFF0001FFFFE0001
310
FFFFC0007F80007FFFC000000007FFFFFE000000003FFFF80000000000000000
310
7F80000000000001FFFFE000000003FFFFFFFFE000000003FFFFFF0003FFFFFF
310
FFFFF000000003FFF000FFF80000000FFFF0001FFFFE0001FFFFE0007F80007F
310
FFF00000000FFFFFFF00000000FFFFF800000000000000007F80000000000001
310
FFFFF80000000FFFFFFFFFF80000000FFFFFFF0003FFFFFFFFFFFC0000000FFF
310
F000FFFE0000003FFFF0001FFFFE0003FFFFE0003F80007FFFFC0000003FFFFF
310
FFC0000003FFFFF800000000000000007F80000000000001FFFFFE0000003FFF
310
FFFFFFFE0000003FFFFFFF0003FFFFFFFFFFFF0000003FFFF000FFFF800000FF
310
FFF0001FFFFF0003FFFFE0003F80007FFFFF000001FFFFFFFFF800001FFFFFF8
310
00000000000000007F80000000000001FFFFFFC00001FFFFFFFFFFFFC00001FF
310
FFFFFF0003FFFFFFFFFFFFC00000FFFFF000FFFFF8000FFFFFFFFFFFFFFFFFFF
310
FFFFFFFFFFFFFFFFFFFFF0001FFFFFFFFFFF0000FFFFFFF80000000000000000
310
7FFFFFFFFFFFFFFFFFFFFFFC001FFFFFFFFFFFFFFC001FFFFFFFFFFFFFFFFFFF
310
FFFFFFFC001FFFFFF000FFFFFFFFFFFFFFFFFFFFFFFFFFFFFFFFFFFFFFFFFFFF
310
FFFFFFFFFFFFFFFFFFFFFFFFFFFFFFFFFFFFFFFFFFFFFFFFFFFFFFFFFFFFFFFF
310
FFFFFFFFFFFFFFFFFFFFFFFFFFFFFFFFFFFFFFFFFFFFFFFFFFFFFFFFFFFFFFFF
310
F000FFFFFFFFFFFFFFFFFFFFFFFFFFFFFFFFFFFFFFFFFFFFFFFFFFFFFFFFFFFF
310
FFFFFFFFFFFFFFFFFFFFFFFFFFFFFFFFFFFFFFFFFFFFFFFFFFFFFFFFFFFFFFFF
310
FFFFFFFFFFFFFFFFFFFFFFFFFFFFFFFFFFFFFFFFFFFFFFFFF000FFFFFFFFFFFF
310
FFFFFFFFFFFFFFFFFFFFFFFFFFFFFFFFFFFFFFFFFFFFFFFFFFFFFFFFFFFFFFFF
310
FFFFFFFFFFFFFFFFFFFFFFFFFFFFFFFFFFFFFFFFFFFFFFFFFFFFFFFFFFFFFFFF
310
FFFFFFFFFFFFFFFFFFFFFFFFFFFFFFFFF000FFFFFFFFFFFFFFFFFFFFFFFFFFFF
310
FFFFFFFFFFFFFFFFFFFFFFFFFFFFFFFFFFFFFFFFFFFFFFFFFFFFFFFFFFFFFFFF
310
FFFFFFFFFFFFFFFFFFFFFFFFFFFFFFFFFFFFFFFFFFFFFFFFFFFFFFFFFFFFFFFF
310
FFFFFFFFFFFFFFFFF000FFFFFFFFFFFFFFFFFFFFFFFFFFFFFFFFFFFFFFFFFFFF
310
FFFFFFFFFFFFFFFFFFFFFFFFFFFFFFFFFFFFFFFFFFFFFFFFFFFFFFFFFFFFFFFF
310
FFFFFFFFFFFFFFFFFFFFFFFFFFFFFFFFFFFFFFFFFFFFFFFFFFFFFFFFFFFFFFFF
310
F000FFFFFFFFFFFFFFFFFFFFFFFFFFFFFFFFFFFFFFFFFFFFFFFFFFFFFFFFFFFF
310
FFFFFFFFFFFFFFFFFFFFFFFFFFFFFFFFFFFFFFFFFFFFFFFFFFFFFFFFFFFFFFFF
310
FFFFFFFFFFFFFFFFFFFFFFFFFFFFFFFFFFFFFFFFFFFFFFFFF000FFFFFFFFFFFF
310
FFFFFFFFFFFFFFFFFFFFFFFFFFFFFFFFFFFFFFFFFFFFFFFFFFFFFFFFFFFFFFFF
310
FFFFFFFFFFFFFFFFFFFFFFFFFFFFFFFFFFFFFFFFFFFFFFFFFFFFFFFFFFFFFFFF
310
FFFFFFFFFFFFFFFFFFFFFFFFFFFFFFFFF000FFFFFFFFFFFFFFFFFFFFFFFFFFFF
310
FFFFFFFFFFFFFFFFFFFFFFFFFFFFFFFFFFFFFFFFFFFFFFFFFFFFFFFFFFFFFFFF
310
FFFFFFFFFFFFFFFFFFFFFFFFFFFFFFFFFFFFFFFFFFFFFFFFFFFFFFFFFFFFFFFF
310
FFFFFFFFFFFFFFFFF000FFFFFFFFFFFFFFFFFFFFFFFFFFFFFFFFFFFFFFFFFFFF
310
FFFFFFFFFFFFFFFFFFFFFFFFFFFFFFFFFFFFFFFFFFFFFFFFFFFFFFFFFFFFFFFF
310
FFFFFFFFFFFFFFFFFFFFFFFFFFFFFFFFFFFFFFFFFFFFFFFFFFFFFFFFFFFFFFFF
310
F000FFFFFFFFFFFFFFFFFFFFFFFFFFFFFFFFFFFFFFFFFFFFFFFFFFFFFFFFFFFF
310
FFFFFFFFFFFFFFFFFFFFFFFFFFFFFFFFFFFFFFFFFFFFFFFFFFFFFFFFFFFFFFFF
310
FFFFFFFFFFFFFFFFFFFFFFFFFFFFFFFFFFFFFFFFFFFFFFFFF000FFFFFFFFFFFF
310
FFFFFFFFFFFFFFFFFFFFFFFFFFFFFFFFFFFFFFFFFFFFFFFFFFFFFFFFFFFFFFFF
310
FFFFFFFFFFFFFFFFFFFFFFFFFFFFFFFFFFFFFFFFFFFFFFFFFFFFFFFFFFFFFFFF
310
FFFFFFFFFFFFFFFFFFFFFFFFFFFFFFFFF000FFFFFFFFFFFFFFFFFFFFFFFFFFFF
310
FFFFFFFFFFFFFFFFFFFFFFFFFFFFFFFFFFFFFFFFFFFFFFFFFFFFFFFFFFFFFFFF
310
FFFFFFFFFFFFFFFFFFFFFFFFFFFFFFFFFFFFFFFFFFFFFFFFFFFFFFFFFFFFFFFF
310
FFFFFFFFFFFFFFFFF000FFFFFFFFFFFFFFFFFFFFFFFFFFFFFFFFFFFFFFFFFFFF
310
FFFFFFFFFFFFFFFFFFFFFFFFFFFFFFFFFFFFFFFFFFFFFFFFFFFFFFFFFFFFFFFF
310
FFFFFFFFFFFFFFFFFFFFFFFFFFFFFFFFFFFFFFFFFFFFFFFFFFFFFFFFFFFFFFFF
310
F000FFFFFFFFFFFFFFFFFFFFFFFFFFFFFFFFFFFFFFFFFFFFFFFFFFFFFFFFFFFF
310
FFFFFFFFFFFFFFFFFFFFFFFFFFFFFFFFFFFFFFFFFFFFFFFFFFFFFFFFFFFFFFFF
310
FFFFFFFFFFFFFFFFFFFFFFFFFFFFFFFFFFFFFFFFFFFFFFFFF000FFFFFFFFFFFF
310
FFFFFFFFFFFFFFFFFFFFFFFFFFFFFFFFFFFFFFFFFFFFFFFFFFFFFFFFFFFFFFFF
310
FFFFFFFFFFFFFFFFFFFFFFFFFFFFFFFFFFFFFFFFFFFFFFFFFFFFFFFFFFFFFFFF
310
FFFFFFFFFFFFFFFFFFFFFFFFFFFFFFFFF000FFFFFFFFFFFFFFFFFFFFFFFFFFFF
310
FFFFFFFFFFFFFFFFFFFFFFFFFFFFFFFFFFFFFFFFFFFFFFFFFFFFFFFFFFFFFFFF
310
FFFFFFFFFFFFFFFFFFFFFFFFFFFFFFFFFFFFFFFFFFFFFFFFFFFFFFFFFFFFFFFF
310
FFFFFFFFFFFFFFFFF000FFFFFFFFFFFFFFFFFFFFFFFFFFFFFFFFFFFFFFFFFFFF
310
FFFFFFFFFFFFFFFFFFFFFFFFFFFFFFFFFFFFFFFFFFFFFFFFFFFFFFFFFFFFFFFF
310
FFFFFFFFFFFFFFFFFFFFFFFFFFFFFFFFFFFFFFFFFFFFFFFFFFFFFFFFFFFFFFFF
310
F000FFFFFFFFFFFFFFFFFFFFFFFFFFFFFFFFFFFFFFFFFFFFFFFFFFFFFFFFFFFF
310
FFFFFFFFFFFFFFFFFFFFFFFFFFFFFFFFFFFFFFFFFFFFFFFFFFFFFFFFFFFFFFFF
310
FFFFFFFFFFFFFFFFFFFFFFFFFFFFFFFFFFFFFFFFFFFFFFFFF000FFFFFFFFFFFF
310
FFFFFFFFFFFFFFFFFFFFFFFFFFFFFFFFFFFFFFFFFFFFFFFFFFFFFFFFFFFFFFFF
310
FFFFFFFFFFFFFFFFFFFFFFFFFFFFFFFFFFFFFFFFFFFFFFFFFFFFFFFFFFFFFFFF
310
FFFFFFFFFFFFFFFFFFFFFFFFFFFFFFFFF000FFFFFFFFFFFFFFFFFFFFFFFFFFFF
310
FFFFFFFFFFFFFFFFFFFFFFFFFFFFFFFFFFFFFFFFFFFFFFFFFFFFFFFFFFFFFFFF
310
FFFFFFFFFFFFFFFFFFFFFFFFFFFFFFFFFFFFFFFFFFFFFFFFFFFFFFFFFFFFFFFF
310
FFFFFFFFFFFFFFFFF000FFFFFFFFFFFFFFFFFFFFFFFFFFFFFFFFFFFFFFFFFFFF
310
FFFFFFFFFFFFFFFFFFFFFFFFFFFFFFFFFFFFFFFFFFFFFFFFFFFFFFFFFFFFFFFF
310
FFFFFFFFFFFFFFFFFFFFFFFFFFFFFFFFFFFFFFFFFFFFFFFFFFFFFFFFFFFFFFFF
310
F000FFFFFFFFFFFFFFFFFFFFFFFFFFFFFFFFFFFFFFFFFFFFFFFFFFFFFFFFFFFF
310
FFFFFFFFFFFFFFFFFFFFFFFFFFFFFFFFFFFFFFFFFFFFFFFFFFFFFFFFFFFFFFFF
310
FFFFFFFFFFFFFFFFFFFFFFFFFFFFFFFFFFFFFFFFFFFFFFFFF000FFFFFFFFFFFF
310
FFFFFFFFFFFFFFFFFFFFFFFFFFFFFFFFFFFFFFFFFFFFFFFFFFFFFFFFFFFFFFFF
310
FFFFFFFFFFFFFFFFFFFFFFFFFFFFFFFFFFFFFFFFFFFFFFFFFFFFFFFFFFFFFFFF
310
FFFFFFFFFFFFFFFFFFFFFFFFFFFFFFFFF0000000000000000000000000000000
310
0000000001000000010000000000000001000000010000000100000001000000
310
0100000001000000010000000100000001000000010000000100000001000000
310
0100000001000000010000000100000001000000010000000100000001000000
310
0100000001000000000000000100000001000000010000000100000001000000
310
0100000001000000010000000000000001000000010000000100000001000000
310
0100000001000000010000000100000000000000010000000100000001000000
310
0100000001000000010000000100000001000000000000000100000000000000
310
0100000001000000010000000100000001000000010000000100000001000000
310
0000000001000000000000000100000001000000010000000100000001000000
310
0100000001000000010000000000000001000000000000000100000001000000
310
0100000001000000010000000100000001000000010000000000000001000000
310
0000000001000000010000000100000001000000000000000100000001000000
310
0100000001000000010000000000000001000000010000000100000001000000
310
0000000001000000010000000100000001000000000000000100000001000000
310
0100000001000000010000000000000001000000010000000100000001000000
  1
OLE
  0
ENDSEC
  0
SECTION
  2
OBJECTS
  0
DICTIONARY
  5
C
330
0
100
AcDbDictionary
281
     1
  3
ACAD_GROUP
350
D
  3
ACAD_LAYOUT
350
1A
  3
ACAD_MLEADERSTYLE
350
307
  3
ACAD_MLINESTYLE
350
17
  3
ACAD_PLOTSETTINGS
350
19
  3
ACAD_PLOTSTYLENAME
350
E
  3
ACAD_TABLESTYLE
350
306
  3
ACAD_VISUALSTYLE
350
2A
  3
AcDbVariableDictionary
350
308
  0
DICTIONARY
  5
D
102
{ACAD_REACTORS
330
C
102
}
330
C
100
AcDbDictionary
281
     1
  0
DICTIONARY
  5
1A
102
{ACAD_REACTORS
330
C
102
}
330
C
100
AcDbDictionary
281
     1
  3
Layout1
350
1E
  3
Layout2
350
26
  3
Model
350
22
  0
DICTIONARY
  5
307
102
{ACAD_REACTORS
330
C
102
}
330
C
100
AcDbDictionary
281
     1
  0
DICTIONARY
  5
17
102
{ACAD_REACTORS
330
C
102
}
330
C
100
AcDbDictionary
281
     1
  3
Standard
350
18
  0
DICTIONARY
  5
19
102
{ACAD_REACTORS
330
C
102
}
330
C
100
AcDbDictionary
281
     1
  0
ACDBDICTIONARYWDFLT
  5
E
102
{ACAD_REACTORS
330
C
102
}
330
C
100
AcDbDictionary
281
     1
  3
Normal
350
F
100
AcDbDictionaryWithDefault
340
F
  0
DICTIONARY
  5
306
102
{ACAD_REACTORS
330
C
102
}
330
C
100
AcDbDictionary
281
     1
  0
DICTIONARY
  5
2A
102
{ACAD_REACTORS
330
C
102
}
330
C
100
AcDbDictionary
281
     1
  3
2dWireframe
350
2F
  3
3D Hidden
350
31
  3
3dWireframe
350
30
  3
Basic
350
32
  3
Brighten
350
36
  3
ColorChange
350
3A
  3
Conceptual
350
34
  3
Dim
350
35
  3
Facepattern
350
39
  3
Flat
350
2B
  3
FlatWithEdges
350
2C
  3
Gouraud
350
2D
  3
GouraudWithEdges
350
2E
  3
Linepattern
350
38
  3
Realistic
350
33
  3
Thicken
350
37
  0
DICTIONARY
  5
308
102
{ACAD_REACTORS
330
C
102
}
330
C
100
AcDbDictionary
281
     1
  3
PSOLHEIGHT
350
30A
  3
PSOLWIDTH
350
309
  0
LAYOUT
  5
1E
102
{ACAD_REACTORS
330
1A
102
}
330
1A
100
AcDbPlotSettings
  1

  2
none_device
  4

  6

 40
0.0
 41
0.0
 42
0.0
 43
0.0
 44
0.0
 45
0.0
 46
0.0
 47
0.0
 48
0.0
 49
0.0
140
0.0
141
0.0
142
1.0
143
1.0
 70
   688
 72
     0
 73
     0
 74
     5
  7

 75
    16
147
1.0
148
0.0
149
0.0
100
AcDbLayout
  1
Layout1
 70
     1
 71
     1
 10
0.0
 20
0.0
 11
420.0
 21
297.0
 12
0.0
 22
0.0
 32
0.0
 14
1.0000000000E+20
 24
1.0000000000E+20
 34
1.0000000000E+20
 15
-1.0000000000E+20
 25
-1.0000000000E+20
 35
-1.0000000000E+20
146
0.0
 13
0.0
 23
0.0
 33
0.0
 16
1.0
 26
0.0
 36
0.0
 17
0.0
 27
1.0
 37
0.0
 76
     0
330
1B
  0
LAYOUT
  5
26
102
{ACAD_REACTORS
330
1A
102
}
330
1A
100
AcDbPlotSettings
  1

  2
none_device
  4

  6

 40
0.0
 41
0.0
 42
0.0
 43
0.0
 44
0.0
 45
0.0
 46
0.0
 47
0.0
 48
0.0
 49
0.0
140
0.0
141
0.0
142
1.0
143
1.0
 70
   688
 72
     0
 73
     0
 74
     5
  7

 75
    16
147
1.0
148
0.0
149
0.0
100
AcDbLayout
  1
Layout2
 70
     1
 71
     2
 10
0.0
 20
0.0
 11
0.0
 21
0.0
 12
0.0
 22
0.0
 32
0.0
 14
0.0
 24
0.0
 34
0.0
 15
0.0
 25
0.0
 35
0.0
146
0.0
 13
0.0
 23
0.0
 33
0.0
 16
1.0
 26
0.0
 36
0.0
 17
0.0
 27
1.0
 37
0.0
 76
     0
330
23
  0
LAYOUT
  5
22
102
{ACAD_REACTORS
330
1A
102
}
330
1A
100
AcDbPlotSettings
  1

  2
none_device
  4

  6

 40
0.0
 41
0.0
 42
0.0
 43
0.0
 44
0.0
 45
0.0
 46
0.0
 47
0.0
 48
0.0
 49
0.0
140
0.0
141
0.0
142
1.0
143
1.0
 70
  1712
 72
     0
 73
     0
 74
     0
  7

 75
     0
147
1.0
148
0.0
149
0.0
100
AcDbLayout
  1
Model
 70
     1
 71
     0
 10
0.0
 20
0.0
 11
297.0
 21
210.0
 12
0.0
 22
0.0
 32
0.0
 14
0.0
 24
0.0
 34
0.0
 15
297.0
 25
210.0
 35
0.0
146
0.0
 13
0.0
 23
0.0
 33
0.0
 16
1.0
 26
0.0
 36
0.0
 17
0.0
 27
1.0
 37
0.0
 76
     0
330
1F
331
29
  0
MLINESTYLE
  5
18
102
{ACAD_REACTORS
330
17
102
}
330
17
100
AcDbMlineStyle
  2
Standard
 70
     0
  3

 62
   256
 51
90.0
 52
90.0
 71
     2
 49
0.5
 62
   256
  6
BYLAYER
 49
-0.5
 62
   256
  6
BYLAYER
  0
ACDBPLACEHOLDER
  5
F
102
{ACAD_REACTORS
330
E
102
}
330
E
  0
VISUALSTYLE
  5
2F
102
{ACAD_REACTORS
330
2A
102
}
330
2A
100
AcDbVisualStyle
  2
2dWireframe
 70
     4
 71
     0
 72
     2
 73
     0
 90
        0
 40
-0.6
 41
-30.0
 62
     5
 63
     7
 74
     1
 91
        4
 64
     7
 65
   257
 75
     1
175
     1
 42
1.0
 92
        0
 66
   257
 43
1.0
 76
     1
 77
     6
 78
     2
 67
     7
 79
     5
170
     0
171
     0
290
     0
174
     0
 93
        1
 44
0.0
173
     0
291
     0
 45
0.0
1001
ACAD
1000
AcDbSavedByObjectVersion
1070
     0
  0
VISUALSTYLE
  5
31
102
{ACAD_REACTORS
330
2A
102
}
330
2A
100
AcDbVisualStyle
  2
3D Hidden
 70
     6
 71
     1
 72
     2
 73
     2
 90
        0
 40
-0.6
 41
-30.0
 62
     5
 63
     7
 74
     2
 91
        2
 64
     7
 65
   257
 75
     2
175
     1
 42
40.0
 92
        0
 66
   257
 43
1.0
 76
     1
 77
     6
 78
     2
 67
     7
 79
     3
170
     0
171
     0
290
     0
174
     0
 93
        1
 44
0.0
173
     0
291
     0
 45
0.0
1001
ACAD
1000
AcDbSavedByObjectVersion
1070
     0
  0
VISUALSTYLE
  5
30
102
{ACAD_REACTORS
330
2A
102
}
330
2A
100
AcDbVisualStyle
  2
3dWireframe
 70
     5
 71
     0
 72
     2
 73
     0
 90
        0
 40
-0.6
 41
-30.0
 62
     5
 63
     7
 74
     1
 91
        4
 64
     7
 65
   257
 75
     1
175
     1
 42
1.0
 92
        0
 66
   257
 43
1.0
 76
     1
 77
     6
 78
     2
 67
     7
 79
     5
170
     0
171
     0
290
     0
174
     0
 93
        1
 44
0.0
173
     0
291
     0
 45
0.0
1001
ACAD
1000
AcDbSavedByObjectVersion
1070
     0
  0
VISUALSTYLE
  5
32
102
{ACAD_REACTORS
330
2A
102
}
330
2A
100
AcDbVisualStyle
  2
Basic
 70
     7
 71
     1
 72
     0
 73
     1
 90
        0
 40
-0.6
 41
-30.0
 62
     5
 63
     7
 74
     0
 91
        4
 64
     7
 65
   257
 75
     1
175
     1
 42
1.0
 92
        8
 66
     7
 43
1.0
 76
     1
 77
     6
 78
     2
 67
     7
 79
     5
170
     0
171
     0
290
     0
174
     0
 93
        1
 44
0.0
173
     0
291
     1
 45
0.0
1001
ACAD
1000
AcDbSavedByObjectVersion
1070
     0
  0
VISUALSTYLE
  5
36
102
{ACAD_REACTORS
330
2A
102
}
330
2A
100
AcDbVisualStyle
  2
Brighten
 70
    12
 71
     2
 72
     2
 73
     0
 90
        0
 40
-0.6
 41
-30.0
 62
     5
 63
     7
 74
     1
 91
        4
 64
     7
 65
   257
 75
     1
175
     1
 42
1.0
 92
        8
 66
     7
 43
1.0
 76
     1
 77
     6
 78
     2
 67
     7
 79
     5
170
     0
171
     0
290
     0
174
     0
 93
        1
 44
50.0
173
     0
291
     1
 45
0.0
1001
ACAD
1000
AcDbSavedByObjectVersion
1070
     0
  0
VISUALSTYLE
  5
3A
102
{ACAD_REACTORS
330
2A
102
}
330
2A
100
AcDbVisualStyle
  2
ColorChange
 70
    16
 71
     2
 72
     2
 73
     3
 90
        0
 40
-0.6
 41
-30.0
 62
     5
 63
     8
 74
     1
 91
        4
 64
     7
 65
   257
 75
     1
175
     1
 42
1.0
 92
        8
 66
     8
 43
1.0
 76
     1
 77
     6
 78
     2
 67
     7
 79
     5
170
     0
171
     0
290
     0
174
     0
 93
        1
 44
0.0
173
     0
291
     1
 45
0.0
1001
ACAD
1000
AcDbSavedByObjectVersion
1070
     0
  0
VISUALSTYLE
  5
34
102
{ACAD_REACTORS
330
2A
102
}
330
2A
100
AcDbVisualStyle
  2
Conceptual
 70
     9
 71
     3
 72
     2
 73
     0
 90
        0
 40
-0.6
 41
-30.0
 62
     5
 63
     7
 74
     2
 91
        2
 64
     7
 65
   257
 75
     1
175
     1
 42
40.0
 92
        8
 66
     7
 43
1.0
 76
     1
 77
     6
 78
     2
 67
     7
 79
     3
170
     0
171
     0
290
     0
174
     0
 93
        1
 44
0.0
173
     0
291
     0
 45
0.0
1001
ACAD
1000
AcDbSavedByObjectVersion
1070
     0
  0
VISUALSTYLE
  5
35
102
{ACAD_REACTORS
330
2A
102
}
330
2A
100
AcDbVisualStyle
  2
Dim
 70
    11
 71
     2
 72
     2
 73
     0
 90
        0
 40
-0.6
 41
-30.0
 62
     5
 63
     7
 74
     1
 91
        4
 64
     7
 65
   257
 75
     1
175
     1
 42
1.0
 92
        8
 66
     7
 43
1.0
 76
     1
 77
     6
 78
     2
 67
     7
 79
     5
170
     0
171
     0
290
     0
174
     0
 93
        1
 44
-50.0
173
     0
291
     1
 45
0.0
1001
ACAD
1000
AcDbSavedByObjectVersion
1070
     0
  0
VISUALSTYLE
  5
39
102
{ACAD_REACTORS
330
2A
102
}
330
2A
100
AcDbVisualStyle
  2
Facepattern
 70
    15
 71
     2
 72
     2
 73
     0
 90
        0
 40
-0.6
 41
-30.0
 62
     5
 63
     7
 74
     1
 91
        4
 64
     7
 65
   257
 75
     1
175
     1
 42
1.0
 92
        8
 66
     7
 43
1.0
 76
     1
 77
     6
 78
     2
 67
     7
 79
     5
170
     0
171
     0
290
     0
174
     0
 93
        1
 44
0.0
173
     0
291
     1
 45
0.0
1001
ACAD
1000
AcDbSavedByObjectVersion
1070
     0
  0
VISUALSTYLE
  5
2B
102
{ACAD_REACTORS
330
2A
102
}
330
2A
100
AcDbVisualStyle
  2
Flat
 70
     0
 71
     2
 72
     1
 73
     1
 90
        2
 40
-0.6
 41
30.0
 62
     5
 63
     7
 74
     0
 91
        4
 64
     7
 65
   257
 75
     1
175
     1
 42
1.0
 92
        8
 66
     7
 43
1.0
 76
     1
 77
     6
 78
     2
 67
     7
 79
     5
170
     0
171
     0
290
     0
174
     0
 93
       13
 44
0.0
173
     0
291
     1
 45
0.0
1001
ACAD
1000
AcDbSavedByObjectVersion
1070
     0
  0
VISUALSTYLE
  5
2C
102
{ACAD_REACTORS
330
2A
102
}
330
2A
100
AcDbVisualStyle
  2
FlatWithEdges
 70
     1
 71
     2
 72
     1
 73
     1
 90
        2
 40
-0.6
 41
30.0
 62
     5
 63
     7
 74
     1
 91
        4
 64
     7
 65
   257
 75
     1
175
     1
 42
1.0
 92
        0
 66
   257
 43
1.0
 76
     1
 77
     6
 78
     2
 67
     7
 79
     5
170
     0
171
     0
290
     0
174
     0
 93
       13
 44
0.0
173
     0
291
     1
 45
0.0
1001
ACAD
1000
AcDbSavedByObjectVersion
1070
     0
  0
VISUALSTYLE
  5
2D
102
{ACAD_REACTORS
330
2A
102
}
330
2A
100
AcDbVisualStyle
  2
Gouraud
 70
     2
 71
     2
 72
     2
 73
     1
 90
        2
 40
-0.6
 41
30.0
 62
     5
 63
     7
 74
     0
 91
        4
 64
     7
 65
   257
 75
     1
175
     1
 42
1.0
 92
        0
 66
     7
 43
1.0
 76
     1
 77
     6
 78
     2
 67
     7
 79
     5
170
     0
171
     0
290
     0
174
     0
 93
       13
 44
0.0
173
     0
291
     1
 45
0.0
1001
ACAD
1000
AcDbSavedByObjectVersion
1070
     0
  0
VISUALSTYLE
  5
2E
102
{ACAD_REACTORS
330
2A
102
}
330
2A
100
AcDbVisualStyle
  2
GouraudWithEdges
 70
     3
 71
     2
 72
     2
 73
     1
 90
        2
 40
-0.6
 41
30.0
 62
     5
 63
     7
 74
     1
 91
        4
 64
     7
 65
   257
 75
     1
175
     1
 42
1.0
 92
        0
 66
   257
 43
1.0
 76
     1
 77
     6
 78
     2
 67
     7
 79
     5
170
     0
171
     0
290
     0
174
     0
 93
       13
 44
0.0
173
     0
291
     1
 45
0.0
1001
ACAD
1000
AcDbSavedByObjectVersion
1070
     0
  0
VISUALSTYLE
  5
38
102
{ACAD_REACTORS
330
2A
102
}
330
2A
100
AcDbVisualStyle
  2
Linepattern
 70
    14
 71
     2
 72
     2
 73
     0
 90
        0
 40
-0.6
 41
-30.0
 62
     5
 63
     7
 74
     1
 91
        4
 64
     7
 65
   257
 75
     7
175
     7
 42
1.0
 92
        8
 66
     7
 43
1.0
 76
     1
 77
     6
 78
     2
 67
     7
 79
     5
170
     0
171
     0
290
     0
174
     0
 93
        1
 44
0.0
173
     0
291
     1
 45
0.0
1001
ACAD
1000
AcDbSavedByObjectVersion
1070
     0
  0
VISUALSTYLE
  5
33
102
{ACAD_REACTORS
330
2A
102
}
330
2A
100
AcDbVisualStyle
  2
Realistic
 70
     8
 71
     2
 72
     2
 73
     0
 90
        0
 40
-0.6
 41
-30.0
 62
     5
 63
     7
 74
     1
 91
        0
 64
     7
 65
   257
 75
     1
175
     1
 42
1.0
 92
        8
 66
     8
 43
1.0
 76
     1
 77
     6
 78
     2
 67
     7
 79
     5
170
     0
171
     0
290
     0
174
     0
 93
       13
 44
0.0
173
     0
291
     0
 45
0.0
1001
ACAD
1000
AcDbSavedByObjectVersion
1070
     0
  0
VISUALSTYLE
  5
37
102
{ACAD_REACTORS
330
2A
102
}
330
2A
100
AcDbVisualStyle
  2
Thicken
 70
    13
 71
     2
 72
     2
 73
     0
 90
        0
 40
-0.6
 41
-30.0
 62
     5
 63
     7
 74
     1
 91
        4
 64
     7
 65
   257
 75
     1
175
     1
 42
1.0
 92
       12
 66
     7
 43
1.0
 76
     1
 77
     6
 78
     2
 67
     7
 79
     5
170
     0
171
     0
290
     0
174
     0
 93
        1
 44
0.0
173
     0
291
     1
 45
0.0
1001
ACAD
1000
AcDbSavedByObjectVersion
1070
     0
  0
DICTIONARYVAR
  5
30A
102
{ACAD_REACTORS
330
308
102
}
330
308
100
DictionaryVariables
280
     0
  1
80.000000
  0
DICTIONARYVAR
  5
309
102
{ACAD_REACTORS
330
308
102
}
330
308
100
DictionaryVariables
280
     0
  1
5.000000
  0
ENDSEC
  0
EOF
