  0
SECTION
  2
HEADER
  9
$ACADVER
  1
AC1015
  9
$ACADMAINTVER
 70
     6
  9
$DWGCODEPAGE
  3
ANSI_1252
  9
$INSBASE
 10
0.0
 20
0.0
 30
0.0
  9
$EXTMIN
 10
0.0
 20
0.0
 30
0.0
  9
$EXTMAX
 10
297.0
 20
210.0
 30
0.0
  9
$LIMMIN
 10
0.0
 20
0.0
  9
$LIMMAX
 10
297.0
 20
210.0
  9
$ORTHOMODE
 70
     0
  9
$REGENMODE
 70
     1
  9
$FILLMODE
 70
     1
  9
$QTEXTMODE
 70
     0
  9
$MIRRTEXT
 70
     1
  9
$LTSCALE
 40
1.0
  9
$ATTMODE
 70
     1
  9
$TEXTSIZE
 40
2.0
  9
$TRACEWID
 40
1.0
  9
$TEXTSTYLE
  7
STANDARD
  9
$CLAYER
  8
0
  9
$CELTYPE
  6
ByLayer
  9
$CECOLOR
 62
   256
  9
$CELTSCALE
 40
1.0
  9
$DISPSILH
 70
     0
  9
$DIMSCALE
 40
1.0
  9
$DIMASZ
 40
3.0
  9
$DIMEXO
 40
0.0
  9
$DIMDLI
 40
3.75
  9
$DIMRND
 40
0.0
  9
$DIMDLE
 40
0.0
  9
$DIMEXE
 40
1.0
  9
$DIMTP
 40
0.0
  9
$DIMTM
 40
0.0
  9
$DIMTXT
 40
2.0
  9
$DIMCEN
 40
2.5
  9
$DIMTSZ
 40
0.0
  9
$DIMTOL
 70
     0
  9
$DIMLIM
 70
     0
  9
$DIMTIH
 70
     1
  9
$DIMTOH
 70
     1
  9
$DIMSE1
 70
     0
  9
$DIMSE2
 70
     0
  9
$DIMTAD
 70
     1
  9
$DIMZIN
 70
     0
  9
$DIMBLK
  1

  9
$DIMASO
 70
     1
  9
$DIMSHO
 70
     1
  9
$DIMPOST
  1

  9
$DIMAPOST
  1

  9
$DIMALT
 70
     0
  9
$DIMALTD
 70
     3
  9
$DIMALTF
 40
0.0393700787
  9
$DIMLFAC
 40
1.0
  9
$DIMTOFL
 70
     1
  9
$DIMTVP
 40
0.0
  9
$DIMTIX
 70
     0
  9
$DIMSOXD
 70
     0
  9
$DIMSAH
 70
     0
  9
$DIMBLK1
  1

  9
$DIMBLK2
  1

  9
$DIMSTYLE
  2
ISO-25
  9
$DIMCLRD
 70
     0
  9
$DIMCLRE
 70
     0
  9
$DIMCLRT
 70
     0
  9
$DIMTFAC
 40
1.0
  9
$DIMGAP
 40
1.524
  9
$DIMJUST
 70
     0
  9
$DIMSD1
 70
     0
  9
$DIMSD2
 70
     0
  9
$DIMTOLJ
 70
     0
  9
$DIMTZIN
 70
     0
  9
$DIMALTZ
 70
     0
  9
$DIMALTTZ
 70
     0
  9
$DIMUPT
 70
     0
  9
$DIMDEC
 70
     2
  9
$DIMTDEC
 70
     3
  9
$DIMALTU
 70
     2
  9
$DIMALTTD
 70
     3
  9
$DIMTXSTY
  7
STANDARD
  9
$DIMAUNIT
 70
     0
  9
$DIMADEC
 70
     2
  9
$DIMALTRND
 40
0.0
  9
$DIMAZIN
 70
     0
  9
$DIMDSEP
 70
    44
  9
$DIMATFIT
 70
     3
  9
$DIMFRAC
 70
     0
  9
$DIMLDRBLK
  1

  9
$DIMLUNIT
 70
     2
  9
$DIMLWD
 70
    -2
  9
$DIMLWE
 70
    -2
  9
$DIMTMOVE
 70
     0
  9
$LUNITS
 70
     2
  9
$LUPREC
 70
     2
  9
$SKETCHINC
 40
1.0
  9
$FILLETRAD
 40
10.0
  9
$AUNITS
 70
     0
  9
$AUPREC
 70
     2
  9
$MENU
  1
.
  9
$ELEVATION
 40
0.0
  9
$PELEVATION
 40
0.0
  9
$THICKNESS
 40
0.0
  9
$LIMCHECK
 70
     0
  9
$CHAMFERA
 40
10.0
  9
$CHAMFERB
 40
10.0
  9
$CHAMFERC
 40
20.0
  9
$CHAMFERD
 40
0.0
  9
$SKPOLY
 70
     0
  9
$TDCREATE
 40
2457070.399969861
  9
$TDUCREATE
 40
2457070.358303194
  9
$TDUPDATE
 40
2457070.39997059
  9
$TDUUPDATE
 40
2457070.358303924
  9
$TDINDWG
 40
0.0000000116
  9
$TDUSRTIMER
 40
0.0000000116
  9
$USRTIMER
 70
     1
  9
$ANGBASE
 50
0.0
  9
$ANGDIR
 70
     0
  9
$PDMODE
 70
     0
  9
$PDSIZE
 40
-1.0
  9
$PLINEWID
 40
0.0
  9
$SPLFRAME
 70
     0
  9
$SPLINETYPE
 70
     6
  9
$SPLINESEGS
 70
     8
  9
$HANDSEED
  5
284
  9
$SURFTAB1
 70
     6
  9
$SURFTAB2
 70
     6
  9
$SURFTYPE
 70
     6
  9
$SURFU
 70
     6
  9
$SURFV
 70
     6
  9
$UCSBASE
  2

  9
$UCSNAME
  2

  9
$UCSORG
 10
0.0
 20
0.0
 30
0.0
  9
$UCSXDIR
 10
1.0
 20
0.0
 30
0.0
  9
$UCSYDIR
 10
0.0
 20
1.0
 30
0.0
  9
$UCSORTHOREF
  2

  9
$UCSORTHOVIEW
 70
     0
  9
$UCSORGTOP
 10
0.0
 20
0.0
 30
0.0
  9
$UCSORGBOTTOM
 10
0.0
 20
0.0
 30
0.0
  9
$UCSORGLEFT
 10
0.0
 20
0.0
 30
0.0
  9
$UCSORGRIGHT
 10
0.0
 20
0.0
 30
0.0
  9
$UCSORGFRONT
 10
0.0
 20
0.0
 30
0.0
  9
$UCSORGBACK
 10
0.0
 20
0.0
 30
0.0
  9
$PUCSBASE
  2

  9
$PUCSNAME
  2

  9
$PUCSORG
 10
0.0
 20
0.0
 30
0.0
  9
$PUCSXDIR
 10
1.0
 20
0.0
 30
0.0
  9
$PUCSYDIR
 10
0.0
 20
1.0
 30
0.0
  9
$PUCSORTHOREF
  2

  9
$PUCSORTHOVIEW
 70
     0
  9
$PUCSORGTOP
 10
0.0
 20
0.0
 30
0.0
  9
$PUCSORGBOTTOM
 10
0.0
 20
0.0
 30
0.0
  9
$PUCSORGLEFT
 10
0.0
 20
0.0
 30
0.0
  9
$PUCSORGRIGHT
 10
0.0
 20
0.0
 30
0.0
  9
$PUCSORGFRONT
 10
0.0
 20
0.0
 30
0.0
  9
$PUCSORGBACK
 10
0.0
 20
0.0
 30
0.0
  9
$USERI1
 70
     0
  9
$USERI2
 70
     0
  9
$USERI3
 70
     0
  9
$USERI4
 70
     0
  9
$USERI5
 70
     0
  9
$USERR1
 40
0.0
  9
$USERR2
 40
0.0
  9
$USERR3
 40
0.0
  9
$USERR4
 40
0.0
  9
$USERR5
 40
0.0
  9
$WORLDVIEW
 70
     1
  9
$SHADEDGE
 70
     3
  9
$SHADEDIF
 70
    70
  9
$TILEMODE
 70
     1
  9
$MAXACTVP
 70
    64
  9
$PINSBASE
 10
0.0
 20
0.0
 30
0.0
  9
$PLIMCHECK
 70
     0
  9
$PEXTMIN
 10
1.0000000000E+20
 20
1.0000000000E+20
 30
1.0000000000E+20
  9
$PEXTMAX
 10
-1.0000000000E+20
 20
-1.0000000000E+20
 30
-1.0000000000E+20
  9
$PLIMMIN
 10
0.0
 20
0.0
  9
$PLIMMAX
 10
420.0
 20
297.0
  9
$UNITMODE
 70
     0
  9
$VISRETAIN
 70
     1
  9
$PLINEGEN
 70
     0
  9
$PSLTSCALE
 70
     1
  9
$TREEDEPTH
 70
  3020
  9
$CMLSTYLE
  2
Standard
  9
$CMLJUST
 70
     0
  9
$CMLSCALE
 40
20.0
  9
$PROXYGRAPHICS
 70
     1
  9
$MEASUREMENT
 70
     1
  9
$CELWEIGHT
370
    -1
  9
$ENDCAPS
280
     0
  9
$JOINSTYLE
280
     0
  9
$LWDISPLAY
290
     1
  9
$INSUNITS
 70
     4
  9
$HYPERLINKBASE
  1

  9
$STYLESHEET
  1

  9
$XEDIT
290
     1
  9
$CEPSNTYPE
380
     0
  9
$PSTYLEMODE
290
     1
  9
$FINGERPRINTGUID
  2
{DC19A2F3-FFFD-4605-A015-4C69C23AD70C}
  9
$VERSIONGUID
  2
{FAEB1C32-E019-11D5-929B-00C0DF256EC4}
  9
$EXTNAMES
290
     1
  9
$PSVPSCALE
 40
0.0
  9
$OLESTARTUP
290
     0
  0
ENDSEC
  0
SECTION
  2
CLASSES
  0
CLASS
  1
ACDBDICTIONARYWDFLT
  2
AcDbDictionaryWithDefault
  3
ObjectDBX Classes
 90
        0
280
     0
281
     0
  0
CLASS
  1
VISUALSTYLE
  2
AcDbVisualStyle
  3
ObjectDBX Classes
 90
     4095
280
     0
281
     0
  0
CLASS
  1
MATERIAL
  2
AcDbMaterial
  3
ObjectDBX Classes
 90
     1153
280
     0
281
     0
  0
CLASS
  1
ACDBPLACEHOLDER
  2
AcDbPlaceHolder
  3
ObjectDBX Classes
 90
        0
280
     0
281
     0
  0
CLASS
  1
LAYOUT
  2
AcDbLayout
  3
ObjectDBX Classes
 90
        0
280
     0
281
     0
  0
ENDSEC
  0
SECTION
  2
TABLES
  0
TABLE
  2
VPORT
  5
8
330
0
100
AcDbSymbolTable
 70
     1
  0
VPORT
  5
29
330
8
100
AcDbSymbolTableRecord
100
AcDbViewportTableRecord
  2
*Active
 70
     0
 10
0.0
 20
0.0
 11
1.0
 21
1.0
 12
148.5
 22
105.0
 13
0.0
 23
0.0
 14
10.0
 24
10.0
 15
10.0
 25
10.0
 16
0.0
 26
0.0
 36
1.0
 17
0.0
 27
0.0
 37
0.0
 40
210.0
 41
1.4142857143
 42
50.0
 43
0.0
 44
0.0
 50
0.0
 51
0.0
 71
     0
 72
  2000
 73
     1
 74
     3
 75
     0
 76
     0
 77
     0
 78
     0
281
     0
 65
     1
110
0.0
120
0.0
130
0.0
111
1.0
121
0.0
131
0.0
112
0.0
122
1.0
132
0.0
 79
     0
146
0.0
  0
ENDTAB
  0
TABLE
  2
LTYPE
  5
5
330
0
100
AcDbSymbolTable
 70
     8
  0
LTYPE
  5
14
330
5
100
AcDbSymbolTableRecord
100
AcDbLinetypeTableRecord
  2
ByBlock
 70
     0
  3

 72
    65
 73
     0
 40
0.0
  0
LTYPE
  5
15
330
5
100
AcDbSymbolTableRecord
100
AcDbLinetypeTableRecord
  2
ByLayer
 70
     0
  3

 72
    65
 73
     0
 40
0.0
  0
LTYPE
  5
16
330
5
100
AcDbSymbolTableRecord
100
AcDbLinetypeTableRecord
  2
Continuous
 70
     0
  3
Solid line
 72
    65
 73
     0
 40
0.0
  0
LTYPE
  5
3F
330
5
100
AcDbSymbolTableRecord
100
AcDbLinetypeTableRecord
  2
SLD-Durchgehend
 70
     0
  3
SolidWorks Line Style
 72
    65
 73
     0
 40
0.0
  0
LTYPE
  5
40
330
5
100
AcDbSymbolTableRecord
100
AcDbLinetypeTableRecord
  2
SLD-Gestrichelt
 70
     0
  3
SolidWorks Line Style
 72
    65
 73
     2
 40
1.905
 49
1.27
 74
     0
 49
-0.635
 74
     0
  0
LTYPE
  5
41
330
5
100
AcDbSymbolTableRecord
100
AcDbLinetypeTableRecord
  2
SLD-Phantom
 70
     0
  3
SolidWorks Line Style
 72
    65
 73
     6
 40
12.7
 49
6.35
 74
     0
 49
-1.27
 74
     0
 49
1.27
 74
     0
 49
-1.27
 74
     0
 49
1.27
 74
     0
 49
-1.27
 74
     0
  0
LTYPE
  5
42
330
5
100
AcDbSymbolTableRecord
100
AcDbLinetypeTableRecord
  2
SLD-Kette
 70
     0
  3
SolidWorks Line Style
 72
    65
 73
     4
 40
10.16
 49
6.35
 74
     0
 49
-1.27
 74
     0
 49
1.27
 74
     0
 49
-1.27
 74
     0
  0
LTYPE
  5
43
330
5
100
AcDbSymbolTableRecord
100
AcDbLinetypeTableRecord
  2
SLD-Punktstrich
 70
     0
  3
SolidWorks Line Style
 72
    65
 73
     4
 40
19.05
 49
15.24
 74
     0
 49
-1.27
 74
     0
 49
1.27
 74
     0
 49
-1.27
 74
     0
  0
LTYPE
  5
44
330
5
100
AcDbSymbolTableRecord
100
AcDbLinetypeTableRecord
  2
SLD-Naht
 70
     0
  3
SolidWorks Line Style
 72
    65
 73
     2
 40
0.635
 49
0.0
 74
     0
 49
-0.635
 74
     0
  0
LTYPE
  5
45
330
5
100
AcDbSymbolTableRecord
100
AcDbLinetypeTableRecord
  2
SLD-Dicke-Dünne-Kette
 70
     0
  3
SolidWorks Line Style
 72
    65
 73
     4
 40
10.16
 49
6.35
 74
     0
 49
-1.27
 74
     0
 49
1.27
 74
     0
 49
-1.27
 74
     0
  0
ENDTAB
  0
TABLE
  2
LAYER
  5
2
330
0
100
AcDbSymbolTable
 70
     5
  0
LAYER
  5
10
330
2
100
AcDbSymbolTableRecord
100
AcDbLayerTableRecord
  2
0
 70
     0
 62
     7
  6
Continuous
370
    -3
390
F
  0
LAYER
  5
46
330
2
100
AcDbSymbolTableRecord
100
AcDbLayerTableRecord
  2
FORMAT
 70
     0
 62
     7
  6
SLD-Durchgehend
370
    -3
390
F
  0
LAYER
  5
47
330
2
100
AcDbSymbolTableRecord
100
AcDbLayerTableRecord
  2
VERMASSUNG
 70
     0
 62
     7
  6
SLD-Durchgehend
370
    -3
390
F
  0
LAYER
  5
48
330
2
100
AcDbSymbolTableRecord
100
AcDbLayerTableRecord
  2
KOPF_DÜNN
 70
     0
 62
     7
  6
SLD-Durchgehend
370
    -3
390
F
  0
LAYER
  5
49
330
2
100
AcDbSymbolTableRecord
100
AcDbLayerTableRecord
  2
KOPF_DICK
 70
     0
 62
     7
  6
SLD-Durchgehend
370
    15
390
F
  0
ENDTAB
  0
TABLE
  2
STYLE
  5
3
330
0
100
AcDbSymbolTable
 70
     2
  0
STYLE
  5
11
330
3
100
AcDbSymbolTableRecord
100
AcDbTextStyleTableRecord
  2
STANDARD
 70
     0
 40
0.0
 41
1.0
 50
0.0
 71
     0
 42
2.0
  3
ISOCPEUR.TTF
  4

1001
ACAD
1000
ISOCPEUR
1071
       34
  0
STYLE
  5
4A
330
3
100
AcDbSymbolTableRecord
100
AcDbTextStyleTableRecord
  2
SLDTEXTSTYLE0
 70
     0
 40
0.0
 41
1.0
 50
0.0
 71
     0
 42
0.2
  3
ISOCPEUR.TTF
  4

1001
ACAD
1000
ISOCPEUR
1071
      290
  0
ENDTAB
  0
TABLE
  2
VIEW
  5
6
330
0
100
AcDbSymbolTable
 70
     0
  0
ENDTAB
  0
TABLE
  2
UCS
  5
7
330
0
100
AcDbSymbolTable
 70
     0
  0
ENDTAB
  0
TABLE
  2
APPID
  5
9
330
0
100
AcDbSymbolTable
 70
     1
  0
APPID
  5
12
330
9
100
AcDbSymbolTableRecord
100
AcDbRegAppTableRecord
  2
ACAD
 70
     0
  0
ENDTAB
  0
TABLE
  2
DIMSTYLE
  5
A
330
0
100
AcDbSymbolTable
 70
     3
100
AcDbDimStyleTable
  0
DIMSTYLE
105
27
330
A
100
AcDbSymbolTableRecord
100
AcDbDimStyleTableRecord
  2
ISO-25
 70
     0
 41
2.5
 42
0.625
 43
3.75
 44
1.25
 73
     0
 74
     0
 77
     1
 78
     8
140
2.5
141
2.5
143
0.0393700787
147
0.625
171
     3
172
     1
178
     0
271
     2
272
     2
274
     3
278
    44
283
     0
284
     8
340
11
  0
DIMSTYLE
105
1FE
102
{ACAD_REACTORS
330
1FD
330
20A
330
214
330
21E
330
26C
102
}
330
A
100
AcDbSymbolTableRecord
100
AcDbDimStyleTableRecord
  2
SLDDIMSTYLE0
 70
     0
 41
3.0
 44
0.0
 45
0.000000001
 73
     0
 74
     0
 77
     1
 78
    12
 79
     3
140
2.0
147
0.5
173
     1
178
     0
271
     2
272
     3
276
     2
284
    12
340
4A
  0
DIMSTYLE
105
229
102
{ACAD_REACTORS
330
228
102
}
330
A
100
AcDbSymbolTableRecord
100
AcDbDimStyleTableRecord
  2
SLDDIMSTYLE1
 70
     0
 41
3.0
 44
0.0
 73
     0
 74
     0
 77
     1
 78
    12
 79
     3
140
2.0
147
0.5
173
     1
178
     0
179
     2
272
     3
276
     2
284
    12
340
4A
  0
ENDTAB
  0
TABLE
  2
BLOCK_RECORD
  5
1
330
0
100
AcDbSymbolTable
 70
     8
  0
BLOCK_RECORD
  5
1F
330
1
100
AcDbSymbolTableRecord
100
AcDbBlockTableRecord
  2
*Model_Space
340
22
  0
BLOCK_RECORD
  5
1B
330
1
100
AcDbSymbolTableRecord
100
AcDbBlockTableRecord
  2
*Paper_Space
340
1E
  0
BLOCK_RECORD
  5
23
330
1
100
AcDbSymbolTableRecord
100
AcDbBlockTableRecord
  2
*Paper_Space0
340
26
  0
BLOCK_RECORD
  5
1FF
330
1
100
AcDbSymbolTableRecord
100
AcDbBlockTableRecord
  2
_D
340
0
  0
BLOCK_RECORD
  5
20B
330
1
100
AcDbSymbolTableRecord
100
AcDbBlockTableRecord
  2
_D_1
340
0
  0
BLOCK_RECORD
  5
215
330
1
100
AcDbSymbolTableRecord
100
AcDbBlockTableRecord
  2
_D_2
340
0
  0
BLOCK_RECORD
  5
21F
330
1
100
AcDbSymbolTableRecord
100
AcDbBlockTableRecord
  2
_D_3
340
0
  0
BLOCK_RECORD
  5
22A
330
1
100
AcDbSymbolTableRecord
100
AcDbBlockTableRecord
  2
_D_4
340
0
  0
BLOCK_RECORD
  5
26D
330
1
100
AcDbSymbolTableRecord
100
AcDbBlockTableRecord
  2
_D_5
340
0
  0
BLOCK_RECORD
  5
277
330
1
100
AcDbSymbolTableRecord
100
AcDbBlockTableRecord
  2
SW_CENTERMARKSYMBOL_0
340
0
102
{BLKREFS
331
282
102
}
  0
ENDTAB
  0
ENDSEC
  0
SECTION
  2
BLOCKS
  0
BLOCK
  5
20
330
1F
100
AcDbEntity
  8
0
100
AcDbBlockBegin
  2
*Model_Space
 70
     0
 10
0.0
 20
0.0
 30
0.0
  3
*Model_Space
  1

  0
ENDBLK
  5
21
330
1F
100
AcDbEntity
  8
0
100
AcDbBlockEnd
  0
BLOCK
  5
1C
330
1B
100
AcDbEntity
 67
     1
  8
0
100
AcDbBlockBegin
  2
*Paper_Space
 70
     0
 10
0.0
 20
0.0
 30
0.0
  3
*Paper_Space
  1

  0
ENDBLK
  5
1D
330
1B
100
AcDbEntity
 67
     1
  8
0
100
AcDbBlockEnd
  0
BLOCK
  5
24
330
23
100
AcDbEntity
  8
0
100
AcDbBlockBegin
  2
*Paper_Space0
 70
     0
 10
0.0
 20
0.0
 30
0.0
  3
*Paper_Space0
  1

  0
ENDBLK
  5
25
330
23
100
AcDbEntity
  8
0
100
AcDbBlockEnd
  0
BLOCK
  5
200
330
1FF
100
AcDbEntity
  8
0
100
AcDbBlockBegin
  2
_D
 70
     0
 10
0.0
 20
0.0
 30
0.0
  3
_D
  1

  0
SOLID
  5
202
330
1FF
100
AcDbEntity
  8
VERMASSUNG
100
AcDbTrace
 10
146.6353645267
 20
133.3179112442
 30
0.0
 11
146.1853645267
 21
130.3179112442
 31
0.0
 12
147.0853645267
 22
130.3179112442
 32
0.0
 13
147.0853645267
 23
130.3179112442
 33
0.0
  0
SOLID
  5
203
330
1FF
100
AcDbEntity
  8
VERMASSUNG
100
AcDbTrace
 10
146.6353645267
 20
70.3179112442
 30
0.0
 11
147.0853645267
 21
73.3179112442
 31
0.0
 12
146.1853645267
 22
73.3179112442
 32
0.0
 13
146.1853645267
 23
73.3179112442
 33
0.0
  0
LINE
  5
204
330
1FF
100
AcDbEntity
  8
VERMASSUNG
100
AcDbLine
 10
183.1478257637
 20
133.3179112442
 30
0.0
 11
145.6353645267
 21
133.3179112442
 31
0.0
  0
LINE
  5
205
330
1FF
100
AcDbEntity
  8
VERMASSUNG
100
AcDbLine
 10
183.1478257637
 20
70.3179112442
 30
0.0
 11
145.6353645267
 21
70.3179112442
 31
0.0
  0
LINE
  5
206
330
1FF
100
AcDbEntity
  8
VERMASSUNG
100
AcDbLine
 10
146.6353645267
 20
133.3179112442
 30
0.0
 11
146.6353645267
 21
70.3179112442
 31
0.0
  0
MTEXT
  5
207
330
1FF
100
AcDbEntity
  8
VERMASSUNG
100
AcDbMText
 10
143.8353645172
 20
95.6156174647
 30
0.0
 40
2.0
 41
0.0
 71
     1
 72
     1
  1
HSK 
  7
SLDTEXTSTYLE0
 11
-7.044195017643634E-15
 21
1.0
 31
0.0
 73
     1
 44
1.0
  0
MTEXT
  5
208
330
1FF
100
AcDbEntity
  8
VERMASSUNG
100
AcDbMText
 10
144.0353645267
 20
101.6156175169
 30
0.0
 40
2.0
 41
0.0
 71
     1
 72
     1
  1
%%c
  7
SLDTEXTSTYLE0
 11
-7.044195017643634E-15
 21
1.0
 31
0.0
 73
     1
 44
1.0
  0
MTEXT
  5
209
330
1FF
100
AcDbEntity
  8
VERMASSUNG
100
AcDbMText
 10
144.0353646431
 20
105.2228841546
 30
0.0
 40
2.0
 41
0.0
 71
     1
 72
     1
  1
63
  7
SLDTEXTSTYLE0
 11
-7.044195017643634E-15
 21
1.0
 31
0.0
 73
     1
 44
1.0
  0
ENDBLK
  5
201
330
1FF
100
AcDbEntity
  8
0
100
AcDbBlockEnd
  0
BLOCK
  5
20C
330
20B
100
AcDbEntity
  8
0
100
AcDbBlockBegin
  2
_D_1
 70
     0
 10
0.0
 20
0.0
 30
0.0
  3
_D_1
  1

  0
SOLID
  5
20E
330
20B
100
AcDbEntity
  8
VERMASSUNG
100
AcDbTrace
 10
252.8478257637
 20
157.3737100833
 30
0.0
 11
249.8478257637
 21
157.8237100833
 31
0.0
 12
249.8478257637
 22
156.9237100833
 32
0.0
 13
249.8478257637
 23
156.9237100833
 33
0.0
  0
SOLID
  5
20F
330
20B
100
AcDbEntity
  8
VERMASSUNG
100
AcDbTrace
 10
150.9478257637
 20
157.3737100833
 30
0.0
 11
153.9478257637
 21
156.9237100833
 31
0.0
 12
153.9478257637
 22
157.8237100833
 32
0.0
 13
153.9478257637
 23
157.8237100833
 33
0.0
  0
LINE
  5
210
330
20B
100
AcDbEntity
  8
VERMASSUNG
100
AcDbLine
 10
252.8478257637
 20
146.8179112442
 30
0.0
 11
252.8478257637
 21
158.3737100833
 31
0.0
  0
LINE
  5
211
330
20B
100
AcDbEntity
  8
VERMASSUNG
100
AcDbLine
 10
150.9478257637
 20
121.5085889907
 30
0.0
 11
150.9478257637
 21
158.3737100833
 31
0.0
  0
LINE
  5
212
330
20B
100
AcDbEntity
  8
VERMASSUNG
100
AcDbLine
 10
252.8478257637
 20
157.3737100833
 30
0.0
 11
150.9478257637
 21
157.3737100833
 31
0.0
  0
MTEXT
  5
213
330
20B
100
AcDbEntity
  8
VERMASSUNG
100
AcDbMText
 10
199.1990021084
 20
159.9737099669
 30
0.0
 40
2.0
 41
0.0
 71
     1
 72
     1
  1
101.9
  7
SLDTEXTSTYLE0
 73
     1
 44
1.0
  0
ENDBLK
  5
20D
330
20B
100
AcDbEntity
  8
0
100
AcDbBlockEnd
  0
BLOCK
  5
216
330
215
100
AcDbEntity
  8
0
100
AcDbBlockBegin
  2
_D_2
 70
     0
 10
0.0
 20
0.0
 30
0.0
  3
_D_2
  1

  0
SOLID
  5
218
330
215
100
AcDbEntity
  8
VERMASSUNG
100
AcDbTrace
 10
182.8478257637
 20
151.3737100833
 30
0.0
 11
185.8478257637
 21
150.9237100833
 31
0.0
 12
185.8478257637
 22
151.8237100833
 32
0.0
 13
185.8478257637
 23
151.8237100833
 33
0.0
  0
SOLID
  5
219
330
215
100
AcDbEntity
  8
VERMASSUNG
100
AcDbTrace
 10
252.8478257637
 20
151.3737100833
 30
0.0
 11
249.8478257637
 21
151.8237100833
 31
0.0
 12
249.8478257637
 22
150.9237100833
 32
0.0
 13
249.8478257637
 23
150.9237100833
 33
0.0
  0
LINE
  5
21A
330
215
100
AcDbEntity
  8
VERMASSUNG
100
AcDbLine
 10
182.8478257637
 20
133.0179112442
 30
0.0
 11
182.8478257637
 21
152.3737100833
 31
0.0
  0
LINE
  5
21B
330
215
100
AcDbEntity
  8
VERMASSUNG
100
AcDbLine
 10
252.8478257637
 20
146.8179112442
 30
0.0
 11
252.8478257637
 21
152.3737100833
 31
0.0
  0
LINE
  5
21C
330
215
100
AcDbEntity
  8
VERMASSUNG
100
AcDbLine
 10
182.8478257637
 20
151.3737100833
 30
0.0
 11
252.8478257637
 21
151.3737100833
 31
0.0
  0
MTEXT
  5
21D
330
215
100
AcDbEntity
  8
VERMASSUNG
100
AcDbMText
 10
216.4491653292
 20
153.9737099669
 30
0.0
 40
2.0
 41
0.0
 71
     1
 72
     1
  1
70
  7
SLDTEXTSTYLE0
 73
     1
 44
1.0
  0
ENDBLK
  5
217
330
215
100
AcDbEntity
  8
0
100
AcDbBlockEnd
  0
BLOCK
  5
220
330
21F
100
AcDbEntity
  8
0
100
AcDbBlockBegin
  2
_D_3
 70
     0
 10
0.0
 20
0.0
 30
0.0
  3
_D_3
  1

  0
SOLID
  5
222
330
21F
100
AcDbEntity
  8
VERMASSUNG
100
AcDbTrace
 10
262.7035549026
 20
146.8179112442
 30
0.0
 11
262.2535549026
 21
143.8179112442
 31
0.0
 12
263.1535549026
 22
143.8179112442
 32
0.0
 13
263.1535549026
 23
143.8179112442
 33
0.0
  0
SOLID
  5
223
330
21F
100
AcDbEntity
  8
VERMASSUNG
100
AcDbTrace
 10
262.7035549026
 20
101.8179112442
 30
0.0
 11
263.1535549026
 21
104.8179112442
 31
0.0
 12
262.2535549026
 22
104.8179112442
 32
0.0
 13
262.2535549026
 23
104.8179112442
 33
0.0
  0
LINE
  5
224
330
21F
100
AcDbEntity
  8
VERMASSUNG
100
AcDbLine
 10
252.8478257637
 20
146.8179112442
 30
0.0
 11
263.7035549026
 21
146.8179112442
 31
0.0
  0
LINE
  5
225
330
21F
100
AcDbEntity
  8
VERMASSUNG
100
AcDbLine
 10
252.8478257637
 20
101.8179112442
 30
0.0
 11
263.7035549026
 21
101.8179112442
 31
0.0
  0
LINE
  5
226
330
21F
100
AcDbEntity
  8
VERMASSUNG
100
AcDbLine
 10
262.7035549026
 20
146.8179112442
 30
0.0
 11
262.7035549026
 21
101.8179112442
 31
0.0
  0
MTEXT
  5
227
330
21F
100
AcDbEntity
  8
VERMASSUNG
100
AcDbMText
 10
260.103555019
 20
122.8192382542
 30
0.0
 40
2.0
 41
0.0
 71
     1
 72
     1
  1
45
  7
SLDTEXTSTYLE0
 11
-7.044195017643634E-15
 21
1.0
 31
0.0
 73
     1
 44
1.0
  0
ENDBLK
  5
221
330
21F
100
AcDbEntity
  8
0
100
AcDbBlockEnd
  0
BLOCK
  5
22B
330
22A
100
AcDbEntity
  8
0
100
AcDbBlockBegin
  2
_D_4
 70
     0
 10
0.0
 20
0.0
 30
0.0
  3
_D_4
  1

  0
ARC
  5
22D
330
22A
100
AcDbEntity
  8
VERMASSUNG
100
AcDbCircle
 10
252.8478257637
 20
150.9327266624
 30
0.0
 40
34.16443788236574
100
AcDbArc
 50
267.0
 51
270.0
  0
ARC
  5
22E
330
22A
100
AcDbEntity
  8
VERMASSUNG
100
AcDbCircle
 10
252.8478257637
 20
150.9327266624
 30
0.0
 40
34.16443788236575
100
AcDbArc
 50
253.0689690281
 51
267.0
  0
ARC
  5
22F
330
22A
100
AcDbEntity
  8
VERMASSUNG
100
AcDbCircle
 10
252.8478257637
 20
150.9327266624
 30
0.0
 40
34.16443788236573
100
AcDbArc
 50
270.0
 51
280.0269636988
  0
SOLID
  5
230
330
22A
100
AcDbEntity
  8
VERMASSUNG
100
AcDbTrace
 10
251.0597972376
 20
116.8151099548
 30
0.0
 11
248.116856755
 21
117.5510456284
 31
0.0
 12
248.030452471
 22
116.655202841
 32
0.0
 13
248.030452471
 23
116.655202841
 33
0.0
  0
SOLID
  5
231
330
22A
100
AcDbEntity
  8
VERMASSUNG
100
AcDbTrace
 10
252.8478257637
 20
116.76828878
 30
0.0
 11
255.8646500269
 21
116.4500571582
 31
0.0
 12
255.8252489459
 22
117.349194275
 32
0.0
 13
255.8252489459
 23
117.349194275
 33
0.0
  0
MTEXT
  5
232
330
22A
100
AcDbEntity
  8
VERMASSUNG
100
AcDbMText
 10
244.9603331471
 20
120.342079518
 30
0.0
 40
2.0
 41
0.0
 71
     1
 72
     1
  1
3°
  7
SLDTEXTSTYLE0
 11
0.9777749833319167
 21
-0.209657058002515
 31
0.0
 73
     1
 44
1.0
  0
ENDBLK
  5
22C
330
22A
100
AcDbEntity
  8
0
100
AcDbBlockEnd
  0
BLOCK
  5
26E
330
26D
100
AcDbEntity
  8
0
100
AcDbBlockBegin
  2
_D_5
 70
     0
 10
0.0
 20
0.0
 30
0.0
  3
_D_5
  1

  0
SOLID
  5
270
330
26D
100
AcDbEntity
  8
VERMASSUNG
100
AcDbTrace
 10
28.7453754081
 20
66.4910774263
 30
0.0
 11
29.1953754081
 21
69.4910774263
 31
0.0
 12
28.2953754081
 22
69.4910774263
 32
0.0
 13
28.2953754081
 23
69.4910774263
 33
0.0
  0
SOLID
  5
271
330
26D
100
AcDbEntity
  8
VERMASSUNG
100
AcDbTrace
 10
28.7453754081
 20
146.4910774263
 30
0.0
 11
28.2953754081
 21
143.4910774263
 31
0.0
 12
29.1953754081
 22
143.4910774263
 32
0.0
 13
29.1953754081
 23
143.4910774263
 33
0.0
  0
LINE
  5
272
330
26D
100
AcDbEntity
  8
VERMASSUNG
100
AcDbLine
 10
76.2453754081
 20
66.4910774263
 30
0.0
 11
27.7453754081
 21
66.4910774263
 31
0.0
  0
LINE
  5
273
330
26D
100
AcDbEntity
  8
VERMASSUNG
100
AcDbLine
 10
76.2453754081
 20
146.4910774263
 30
0.0
 11
27.7453754081
 21
146.4910774263
 31
0.0
  0
LINE
  5
274
330
26D
100
AcDbEntity
  8
VERMASSUNG
100
AcDbLine
 10
28.7453754081
 20
66.4910774263
 30
0.0
 11
28.7453754081
 21
146.4910774263
 31
0.0
  0
MTEXT
  5
275
330
26D
100
AcDbEntity
  8
VERMASSUNG
100
AcDbMText
 10
26.1453754081
 20
103.2876449685
 30
0.0
 40
2.0
 41
0.0
 71
     1
 72
     1
  1
%%c
  7
SLDTEXTSTYLE0
 11
6.123233995736766E-17
 21
1.0
 31
0.0
 73
     1
 44
1.0
  0
MTEXT
  5
276
330
26D
100
AcDbEntity
  8
VERMASSUNG
100
AcDbMText
 10
26.1453755245
 20
106.8971890151
 30
0.0
 40
2.0
 41
0.0
 71
     1
 72
     1
  1
80
  7
SLDTEXTSTYLE0
 11
6.123233995736766E-17
 21
1.0
 31
0.0
 73
     1
 44
1.0
  0
ENDBLK
  5
26F
330
26D
100
AcDbEntity
  8
0
100
AcDbBlockEnd
  0
BLOCK
  5
278
330
277
100
AcDbEntity
  8
0
100
AcDbBlockBegin
  2
SW_CENTERMARKSYMBOL_0
 70
     0
 10
0.0
 20
0.0
 30
0.0
  3
SW_CENTERMARKSYMBOL_0
  1

  0
LINE
  5
27A
330
277
100
AcDbEntity
  8
VERMASSUNG
 62
     0
100
AcDbLine
 10
0.0
 20
0.0
 30
0.0
 11
0.0
 21
2.5
 31
0.0
  0
LINE
  5
27B
330
277
100
AcDbEntity
  8
VERMASSUNG
 62
     0
100
AcDbLine
 10
0.0
 20
0.0
 30
0.0
 11
-2.5
 21
0.0
 31
0.0
  0
LINE
  5
27C
330
277
100
AcDbEntity
  8
VERMASSUNG
 62
     0
100
AcDbLine
 10
0.0
 20
0.0
 30
0.0
 11
0.0
 21
-2.5
 31
0.0
  0
LINE
  5
27D
330
277
100
AcDbEntity
  8
VERMASSUNG
 62
     0
100
AcDbLine
 10
0.0
 20
0.0
 30
0.0
 11
2.5
 21
0.0
 31
0.0
  0
LINE
  5
27E
330
277
100
AcDbEntity
  8
VERMASSUNG
 62
     0
100
AcDbLine
 10
0.0
 20
5.0
 30
0.0
 11
0.0
 21
47.1175620964
 31
0.0
  0
LINE
  5
27F
330
277
100
AcDbEntity
  8
VERMASSUNG
 62
     0
100
AcDbLine
 10
-5.0
 20
0.0
 30
0.0
 11
-34.0
 21
0.0
 31
0.0
  0
LINE
  5
280
330
277
100
AcDbEntity
  8
VERMASSUNG
 62
     0
100
AcDbLine
 10
0.0
 20
-5.0
 30
0.0
 11
0.0
 21
-34.0
 31
0.0
  0
LINE
  5
281
330
277
100
AcDbEntity
  8
VERMASSUNG
 62
     0
100
AcDbLine
 10
5.0
 20
0.0
 30
0.0
 11
34.0
 21
0.0
 31
0.0
  0
ENDBLK
  5
279
330
277
100
AcDbEntity
  8
0
100
AcDbBlockEnd
  0
ENDSEC
  0
SECTION
  2
ENTITIES
  0
MTEXT
  5
4B
330
1F
100
AcDbEntity
  8
KOPF_DÜNN
100
AcDbMText
 10
13.8892156294
 20
23.8770940835
 30
0.0
 40
3.0
 41
0.0
 71
     1
 72
     1
  1
HA6.KDB.RUA.070
  7
SLDTEXTSTYLE0
 73
     1
 44
1.0
  0
MTEXT
  5
4C
330
1F
100
AcDbEntity
  8
VERMASSUNG
100
AcDbMText
 10
13.9329988022
 20
28.9162328764
 30
0.0
 40
3.0
 41
0.0
 71
     1
 72
     1
  1
Klemmhalter rechts_Turning tool right 93° /55°
  7
SLDTEXTSTYLE0
 73
     1
 44
1.0
  0
MTEXT
  5
4D
330
1F
100
AcDbEntity
  8
VERMASSUNG
100
AcDbMText
 10
98.8601118557
 20
13.8584013384
 30
0.0
 40
2.0
 41
0.0
 71
     1
 72
     1
  1
Datum: 05.11.2008
  7
SLDTEXTSTYLE0
 73
     1
 44
1.0
  0
MTEXT
  5
4E
330
1F
100
AcDbEntity
  8
VERMASSUNG
100
AcDbMText
 10
13.933048693
 20
18.0701447943
 30
0.0
 40
2.0
 41
0.0
 71
     1
 72
     1
  1
DIN 69893 HSK 63 A ICTM / DC.. 11 T3..
  7
SLDTEXTSTYLE0
 73
     1
 44
1.0
  0
MTEXT
  5
4F
330
1F
100
AcDbEntity
  8
VERMASSUNG
100
AcDbMText
 10
13.9808475933
 20
13.9309618897
 30
0.0
 40
2.0
 41
0.0
 71
     1
 72
     1
  1
Gewicht: 1044g
  7
SLDTEXTSTYLE0
 73
     1
 44
1.0
  0
LINE
  5
50
330
1F
100
AcDbEntity
  8
0
  6
SLD-Durchgehend
 62
     7
370
    15
100
AcDbLine
 10
183.147825778
 20
70.3179107375
 30
0.0
 11
187.7978257369
 21
70.3179107375
 31
0.0
  0
LINE
  5
51
330
1F
100
AcDbEntity
  8
0
  6
SLD-Durchgehend
 62
     7
370
    15
100
AcDbLine
 10
187.8258143086
 20
133.3179117508
 30
0.0
 11
183.147825778
 21
133.3179117508
 31
0.0
  0
ARC
  5
52
330
1F
100
AcDbEntity
  8
0
  6
SLD-Durchgehend
 62
     7
370
    15
100
AcDbCircle
 10
183.1478257637
 20
70.6179112442
 30
0.0
 40
0.3000000000000114
100
AcDbArc
 50
180.0
 51
270.0
  0
ARC
  5
53
330
1F
100
AcDbEntity
  8
0
  6
SLD-Durchgehend
 62
     7
370
    15
100
AcDbCircle
 10
183.1478257637
 20
133.0179112442
 30
0.0
 40
0.3000000000000114
100
AcDbArc
 50
90.0
 51
180.0
  0
ARC
  5
54
330
1F
100
AcDbEntity
  8
0
  6
SLD-Durchgehend
 62
     7
370
    15
100
AcDbCircle
 10
209.7978257637
 20
74.8179112442
 30
0.0
 40
1.000000000000017
100
AcDbArc
 50
90.0
 51
143.1139143113
  0
ARC
  5
55
330
1F
100
AcDbEntity
  8
0
  6
SLD-Durchgehend
 62
     7
370
    15
100
AcDbCircle
 10
209.7978257637
 20
128.8179112442
 30
0.0
 40
1.000000000000014
100
AcDbArc
 50
216.8996843908
 51
270.0
  0
LINE
  5
56
330
1F
100
AcDbEntity
  8
0
  6
SLD-Durchgehend
 62
     7
370
    15
100
AcDbLine
 10
209.7978256177
 20
75.8179107077
 30
0.0
 11
222.5845027249
 21
75.8179107077
 31
0.0
  0
LINE
  5
57
330
1F
100
AcDbEntity
  8
0
  6
SLD-Durchgehend
 62
     7
370
    15
100
AcDbLine
 10
222.6491886656
 20
127.8179117806
 30
0.0
 11
209.7978256177
 21
127.8179117806
 31
0.0
  0
ARC
  5
58
330
1F
100
AcDbEntity
  8
0
  6
SLD-Durchgehend
 62
     7
370
    15
100
AcDbCircle
 10
182.3478257637
 20
77.2474803825
 30
0.0
 40
0.6000000000000085
100
AcDbArc
 50
33.5573097619
 51
90.0
  0
ARC
  5
59
330
1F
100
AcDbEntity
  8
0
  6
SLD-Durchgehend
 62
     7
370
    15
100
AcDbCircle
 10
182.3478257637
 20
126.3883421059
 30
0.0
 40
0.6000000000000085
100
AcDbArc
 50
270.0
 51
326.4426902381
  0
LINE
  5
5A
330
1F
100
AcDbEntity
  8
0
  6
SLD-Durchgehend
 62
     7
370
    15
100
AcDbLine
 10
180.8478256687
 20
77.5974800207
 30
0.0
 11
181.7045385949
 21
77.8270361342
 31
0.0
  0
LINE
  5
5B
330
1F
100
AcDbEntity
  8
0
  6
SLD-Durchgehend
 62
     7
370
    15
100
AcDbLine
 10
181.7045385949
 20
125.8087863542
 30
0.0
 11
180.8478256687
 21
126.0383424677
 31
0.0
  0
LINE
  5
5C
330
1F
100
AcDbEntity
  8
0
  6
SLD-Durchgehend
 62
     7
370
    15
100
AcDbLine
 10
169.6163173299
 20
125.4756410934
 30
0.0
 11
157.0478248875
 21
124.8459571369
 31
0.0
  0
LINE
  5
5D
330
1F
100
AcDbEntity
  8
0
  6
SLD-Durchgehend
 62
     7
370
    15
100
AcDbLine
 10
180.8478256687
 20
126.0383424677
 30
0.0
 11
178.0308242421
 21
125.8972098447
 31
0.0
  0
LINE
  5
5E
330
1F
100
AcDbEntity
  8
0
  6
SLD-Durchgehend
 62
     7
370
    15
100
AcDbLine
 10
178.0308801215
 20
77.738610781
 30
0.0
 11
180.8478256687
 21
77.5974800207
 31
0.0
  0
LINE
  5
5F
330
1F
100
AcDbEntity
  8
0
  6
SLD-Durchgehend
 62
     7
370
    15
100
AcDbLine
 10
161.0478255432
 20
78.5894652225
 30
0.0
 11
169.6167196612
 21
78.1601609059
 31
0.0
  0
ARC
  5
60
330
1F
100
AcDbEntity
  8
0
  6
SLD-Durchgehend
 62
     7
370
    15
100
AcDbCircle
 10
181.8598299642
 20
77.2474803825
 30
0.0
 40
0.6000000000000227
100
AcDbArc
 50
90.0
 51
105.0
  0
ARC
  5
61
330
1F
100
AcDbEntity
  8
0
  6
SLD-Durchgehend
 62
     7
370
    15
100
AcDbCircle
 10
181.8598299642
 20
126.3883421059
 30
0.0
 40
0.6000000000000218
100
AcDbArc
 50
255.0
 51
270.0
  0
LINE
  5
62
330
1F
100
AcDbEntity
  8
0
  6
SLD-Durchgehend
 62
     7
370
    15
100
AcDbLine
 10
181.8598299985
 20
77.8474805273
 30
0.0
 11
182.34782574
 21
77.8474805273
 31
0.0
  0
LINE
  5
63
330
1F
100
AcDbEntity
  8
0
  6
SLD-Durchgehend
 62
     7
370
    15
100
AcDbLine
 10
182.34782574
 20
125.7883419611
 30
0.0
 11
181.8598299985
 21
125.7883419611
 31
0.0
  0
LINE
  5
64
330
1F
100
AcDbEntity
  8
0
  6
SLD-Durchgehend
 62
     7
370
    15
100
AcDbLine
 10
152.0978249143
 20
81.005410976
 30
0.0
 11
159.6478260588
 21
81.005410976
 31
0.0
  0
ARC
  5
65
330
1F
100
AcDbEntity
  8
0
  6
SLD-Durchgehend
 62
     7
370
    15
100
AcDbCircle
 10
159.6478257637
 20
79.6054112442
 30
0.0
 40
1.399999999999996
100
AcDbArc
 50
37.6443616934
 51
90.0
  0
LINE
  5
66
330
1F
100
AcDbEntity
  8
0
  6
SLD-Durchgehend
 62
     7
370
    15
100
AcDbLine
 10
152.0889885258
 20
122.6790749796
 30
0.0
 11
150.9577277582
 21
121.5478123493
 31
0.0
  0
LINE
  5
67
330
1F
100
AcDbEntity
  8
0
  6
SLD-Durchgehend
 62
     7
370
    15
100
AcDbLine
 10
150.9452443104
 20
82.1579915799
 30
0.0
 11
152.0978249143
 21
81.005410976
 31
0.0
  0
ARC
  5
68
330
1F
100
AcDbEntity
  8
0
  6
SLD-Durchgehend
 62
     7
370
    15
100
AcDbCircle
 10
155.6478257637
 20
124.0879112442
 30
0.0
 40
1.400000000000006
100
AcDbArc
 50
270.0
 51
301.7485287426
  0
LINE
  5
69
330
1F
100
AcDbEntity
  8
0
  6
SLD-Durchgehend
 62
     7
370
    15
100
AcDbLine
 10
155.6478254031
 20
122.6879113682
 30
0.0
 11
152.2220912855
 21
122.6879113682
 31
0.0
  0
LINE
  5
6A
330
1F
100
AcDbEntity
  8
0
  6
SLD-Durchgehend
 62
     7
370
    15
100
AcDbLine
 10
252.2464598994
 20
146.7401699491
 30
0.0
 11
243.2136777322
 21
141.0958634086
 31
0.0
  0
LINE
  5
6B
330
1F
100
AcDbEntity
  8
0
  6
SLD-Durchgehend
 62
     7
370
    15
100
AcDbLine
 10
251.4289672952
 20
144.6882278986
 30
0.0
 11
252.4478267412
 21
146.4179099865
 31
0.0
  0
LINE
  5
6C
330
1F
100
AcDbEntity
  8
0
  6
SLD-Durchgehend
 62
     7
370
    15
100
AcDbLine
 10
243.6292152386
 20
140.6474502154
 30
0.0
 11
243.4150482993
 21
140.773603446
 31
0.0
  0
LWPOLYLINE
  5
6D
330
1F
100
AcDbEntity
  8
0
  6
SLD-Durchgehend
 62
     7
370
    15
100
AcDbPolyline
 90
        5
 70
   128
 43
0.0
 10
243.6292152386
 20
140.6474502154
 10
243.8242453616
 20
140.5325697131
 10
244.0281752031
 20
140.4124440022
 10
244.224308012
 20
140.2969115742
 10
244.2292924504
 20
140.2939760454
  0
LINE
  5
6E
330
1F
100
AcDbEntity
  8
0
  6
SLD-Durchgehend
 62
     7
370
    15
100
AcDbLine
 10
243.0589701514
 20
129.8146841444
 30
0.0
 11
252.0917485933
 21
135.4589925475
 31
0.0
  0
LINE
  5
6F
330
1F
100
AcDbEntity
  8
0
  6
SLD-Durchgehend
 62
     7
370
    15
100
AcDbLine
 10
243.8764627557
 20
131.8666280575
 30
0.0
 11
242.8576033096
 21
130.136944107
 31
0.0
  0
LINE
  5
70
330
1F
100
AcDbEntity
  8
0
  6
SLD-Durchgehend
 62
     7
370
    15
100
AcDbLine
 10
251.6762148123
 20
135.9074057408
 30
0.0
 11
251.8903817515
 21
135.7812487848
 31
0.0
  0
LWPOLYLINE
  5
71
330
1F
100
AcDbEntity
  8
0
  6
SLD-Durchgehend
 62
     7
370
    15
100
AcDbPolyline
 90
        5
 70
   128
 43
0.0
 10
251.0761376004
 20
136.2608799107
 10
251.0811220389
 20
136.2579406567
 10
251.2772511225
 20
136.142411954
 10
251.481180964
 20
136.022286243
 10
251.6762148123
 20
135.9074057408
  0
LINE
  5
72
330
1F
100
AcDbEntity
  8
0
  6
SLD-Durchgehend
 62
     7
370
    15
100
AcDbLine
 10
252.2432263475
 20
146.7617356546
 30
0.0
 11
243.2017568033
 21
141.1119976409
 31
0.0
  0
LINE
  5
73
330
1F
100
AcDbEntity
  8
0
  6
SLD-Durchgehend
 62
     7
370
    15
100
AcDbLine
 10
252.2897552233
 20
135.7587592073
 30
0.0
 11
252.8477292042
 21
146.4056575067
 31
0.0
  0
LINE
  5
74
330
1F
100
AcDbEntity
  8
0
  6
SLD-Durchgehend
 62
     7
370
    15
100
AcDbLine
 10
243.0621999781
 20
129.7931184389
 30
0.0
 11
252.1036695223
 21
135.44285459
 31
0.0
  0
LINE
  5
75
330
1F
100
AcDbEntity
  8
0
  6
SLD-Durchgehend
 62
     7
370
    15
100
AcDbLine
 10
243.0156748276
 20
140.7960930236
 30
0.0
 11
242.4576971214
 21
130.1491984494
 31
0.0
  0
ARC
  5
76
330
1F
100
AcDbEntity
  8
0
  6
SLD-Durchgehend
 62
     7
370
    15
100
AcDbCircle
 10
252.4478257637
 20
146.4179112442
 30
0.0
 40
0.3800000000000338
100
AcDbArc
 50
357.0
 51
122.0
  0
ARC
  5
77
330
1F
100
AcDbEntity
  8
0
  6
SLD-Durchgehend
 62
     7
370
    15
100
AcDbCircle
 10
243.4150464518
 20
140.7736042896
 30
0.0
 40
0.3799999999999785
100
AcDbArc
 50
122.0
 51
177.0
  0
LINE
  5
78
330
1F
100
AcDbEntity
  8
0
  6
SLD-Durchgehend
 62
     7
370
    15
100
AcDbLine
 10
243.0355678778
 20
140.7934927709
 30
0.0
 11
242.4781228881
 21
130.1568315692
 31
0.0
  0
ARC
  5
79
330
1F
100
AcDbEntity
  8
0
  6
SLD-Durchgehend
 62
     7
370
    15
100
AcDbCircle
 10
242.8576026642
 20
130.136943182
 30
0.0
 40
0.3800000000000338
100
AcDbArc
 50
177.0
 51
302.0
  0
ARC
  5
7A
330
1F
100
AcDbEntity
  8
0
  6
SLD-Durchgehend
 62
     7
370
    15
100
AcDbCircle
 10
251.8903819761
 20
135.7812501365
 30
0.0
 40
0.3799999999999977
100
AcDbArc
 50
302.0
 51
357.0
  0
LINE
  5
7B
330
1F
100
AcDbEntity
  8
0
  6
SLD-Durchgehend
 62
     7
370
    15
100
AcDbLine
 10
252.2698621731
 20
135.7613631852
 30
0.0
 11
252.8273071628
 21
146.3980243869
 31
0.0
  0
ARC
  5
7C
330
1F
100
AcDbEntity
  8
0
  6
SLD-Durchgehend
 62
     7
370
    15
100
AcDbCircle
 10
243.4118316995
 20
140.7754964935
 30
0.0
 40
0.3966919260483106
100
AcDbArc
 50
121.9761937222
 51
177.0238237264
  0
ARC
  5
7D
330
1F
100
AcDbEntity
  8
0
  6
SLD-Durchgehend
 62
     7
370
    15
100
AcDbCircle
 10
251.893563817
 20
135.7793785573
 30
0.0
 40
0.3967275992606386
100
AcDbArc
 50
301.9782227903
 51
357.02079144
  0
ARC
  5
7E
330
1F
100
AcDbEntity
  8
0
  6
SLD-Durchgehend
 62
     7
370
    15
100
AcDbCircle
 10
242.8507852906
 20
130.1253683625
 30
0.0
 40
0.3938098295494768
100
AcDbArc
 50
176.5308178551
 51
302.4690955431
  0
ARC
  5
7F
330
1F
100
AcDbEntity
  8
0
  6
SLD-Durchgehend
 62
     7
370
    15
100
AcDbCircle
 10
252.4546435938
 20
146.4294901997
 30
0.0
 40
0.3938074330718078
100
AcDbArc
 50
356.5304168505
 51
122.4697586829
  0
ARC
  5
80
330
1F
100
AcDbEntity
  8
0
  6
SLD-Durchgehend
 62
     7
370
    15
100
AcDbCircle
 10
250.0076773074
 20
142.2753612043
 30
0.0
 40
1.000000000295361
100
AcDbArc
 50
357.0
 51
122.0
  0
LINE
  5
81
330
1F
100
AcDbEntity
  8
0
  6
SLD-Durchgehend
 62
     7
370
    15
100
AcDbLine
 10
250.732539175
 20
136.9991765685
 30
0.0
 11
251.0063033085
 21
142.2230244942
 31
0.0
  0
ARC
  5
82
330
1F
100
AcDbEntity
  8
0
  6
SLD-Durchgehend
 62
     7
370
    15
100
AcDbCircle
 10
249.73390692
 20
137.0515110213
 30
0.0
 40
1.000000000000006
100
AcDbArc
 50
302.0
 51
357.0
  0
LINE
  5
83
330
1F
100
AcDbEntity
  8
0
  6
SLD-Durchgehend
 62
     7
370
    15
100
AcDbLine
 10
245.8276729565
 20
133.431443698
 30
0.0
 11
250.2638231497
 21
136.2034620114
 31
0.0
  0
ARC
  5
84
330
1F
100
AcDbEntity
  8
0
  6
SLD-Durchgehend
 62
     7
370
    15
100
AcDbCircle
 10
245.2977511204
 20
134.2794932219
 30
0.0
 40
1.000000000000024
100
AcDbArc
 50
177.0
 51
302.0
  0
LINE
  5
85
330
1F
100
AcDbEntity
  8
0
  6
SLD-Durchgehend
 62
     7
370
    15
100
AcDbLine
 10
244.5728908758
 20
139.5556793876
 30
0.0
 11
244.2991230171
 21
134.3318277366
 31
0.0
  0
ARC
  5
86
330
1F
100
AcDbEntity
  8
0
  6
SLD-Durchgehend
 62
     7
370
    15
100
AcDbCircle
 10
245.5715215078
 20
139.5033434048
 30
0.0
 40
0.999999999999991
100
AcDbArc
 50
122.0
 51
177.0
  0
LINE
  5
87
330
1F
100
AcDbEntity
  8
0
  6
SLD-Durchgehend
 62
     7
370
    15
100
AcDbLine
 10
249.4777570944
 20
143.1234085329
 30
0.0
 11
245.0416031759
 21
140.3513902195
 31
0.0
  0
CIRCLE
  5
88
330
1F
100
AcDbEntity
  8
0
  6
SLD-Durchgehend
 62
     7
370
    15
100
AcDbCircle
 10
247.6527142139
 20
138.2774272131
 30
0.0
 40
3.049999999999988
  0
LWPOLYLINE
  5
89
330
1F
100
AcDbEntity
  8
0
  6
SLD-Durchgehend
 62
     7
370
    15
100
AcDbPolyline
 90
        5
 70
   128
 43
0.0
 10
251.0800044518
 20
144.0958136089
 10
251.08229178
 20
144.0996953614
 10
251.1205728631
 20
144.1646830507
 10
251.2803803663
 20
144.4359810419
 10
251.4289672952
 20
144.6882278986
  0
LWPOLYLINE
  5
8A
330
1F
100
AcDbEntity
  8
0
  6
SLD-Durchgehend
 62
     7
370
    15
100
AcDbPolyline
 90
        5
 70
   128
 43
0.0
 10
243.8764627557
 20
131.8666280575
 10
244.0250496845
 20
132.1188730516
 10
244.1848571878
 20
132.3901729055
 10
244.2231382709
 20
132.4551605947
 10
244.2254218738
 20
132.4590404846
  0
ARC
  5
8B
330
1F
100
AcDbEntity
  8
0
  6
SLD-Durchgehend
 62
     7
370
    15
100
AcDbCircle
 10
247.5876192589
 20
138.1669179086
 30
0.0
 40
1.675000000000026
100
AcDbArc
 50
149.07804828
 51
207.6779814073
  0
ARC
  5
8C
330
1F
100
AcDbEntity
  8
0
  6
SLD-Durchgehend
 62
     7
370
    15
100
AcDbCircle
 10
247.5876192589
 20
138.1669179086
 30
0.0
 40
1.675000000000026
100
AcDbArc
 50
207.6779814073
 51
267.784823142
  0
ARC
  5
8D
330
1F
100
AcDbEntity
  8
0
  6
SLD-Durchgehend
 62
     7
370
    15
100
AcDbCircle
 10
247.5876192589
 20
138.1669179086
 30
0.0
 40
1.675000000000032
100
AcDbArc
 50
267.784823142
 51
326.3847562692
  0
LINE
  5
8E
330
1F
100
AcDbEntity
  8
0
  6
SLD-Durchgehend
 62
     7
370
    15
100
AcDbLine
 10
249.0277420263
 20
137.3115421601
 30
0.0
 11
248.9825170021
 21
137.239614255
 31
0.0
  0
ARC
  5
8F
330
1F
100
AcDbEntity
  8
0
  6
SLD-Durchgehend
 62
     7
370
    15
100
AcDbCircle
 10
247.5876192589
 20
138.1669179086
 30
0.0
 40
1.675000000000038
100
AcDbArc
 50
329.2913870411
 51
25.7351052074
  0
LINE
  5
90
330
1F
100
AcDbEntity
  8
0
  6
SLD-Durchgehend
 62
     7
370
    15
100
AcDbLine
 10
249.0406315308
 20
139.0002162524
 30
0.0
 11
249.0964810829
 21
138.8942205675
 31
0.0
  0
ARC
  5
91
330
1F
100
AcDbEntity
  8
0
  6
SLD-Durchgehend
 62
     7
370
    15
100
AcDbCircle
 10
247.5876192589
 20
138.1669179086
 30
0.0
 40
1.675000000000006
100
AcDbArc
 50
29.8341971076
 51
85.6286074416
  0
LINE
  5
92
330
1F
100
AcDbEntity
  8
0
  6
SLD-Durchgehend
 62
     7
370
    15
100
AcDbLine
 10
247.5955765228
 20
139.8418971665
 30
0.0
 11
247.7152924519
 21
139.8370468386
 31
0.0
  0
ARC
  5
93
330
1F
100
AcDbEntity
  8
0
  6
SLD-Durchgehend
 62
     7
370
    15
100
AcDbCircle
 10
247.5876192589
 20
138.1669179086
 30
0.0
 40
1.674999999999979
100
AcDbArc
 50
89.7276993419
 51
146.1714175082
  0
LINE
  5
94
330
1F
100
AcDbEntity
  8
0
  6
SLD-Durchgehend
 62
     7
370
    15
100
AcDbLine
 10
246.1506928783
 20
139.0276492901
 30
0.0
 11
246.1961861234
 21
139.0994058318
 31
0.0
  0
CIRCLE
  5
95
330
1F
100
AcDbEntity
  8
0
  6
SLD-Durchgehend
 62
     7
370
    15
100
AcDbCircle
 10
247.5876192589
 20
138.1669179086
 30
0.0
 40
1.8
  0
ARC
  5
96
330
1F
100
AcDbEntity
  8
0
  6
SLD-Durchgehend
 62
     7
370
    15
100
AcDbCircle
 10
248.7769507798
 20
138.7935660074
 30
0.0
 40
0.3350102419105131
100
AcDbArc
 50
38.0862891256
 51
104.4871067196
  0
ARC
  5
97
330
1F
100
AcDbEntity
  8
0
  6
SLD-Durchgehend
 62
     7
370
    15
100
AcDbCircle
 10
248.5464770753
 20
139.6855291103
 30
0.0
 40
0.5862477596519543
100
AcDbArc
 50
190.9750463024
 51
284.4880995572
  0
ARC
  5
98
330
1F
100
AcDbEntity
  8
0
  6
SLD-Durchgehend
 62
     7
370
    15
100
AcDbCircle
 10
247.6420752703
 20
139.5101427783
 30
0.0
 40
0.3350030152967939
100
AcDbArc
 50
10.9745705352
 51
77.3757199068
  0
ARC
  5
99
330
1F
100
AcDbEntity
  8
0
  6
SLD-Durchgehend
 62
     7
370
    15
100
AcDbCircle
 10
246.7543853535
 20
139.7565371334
 30
0.0
 40
0.586259736577121
100
AcDbArc
 50
250.9757935576
 51
344.486676809
  0
ARC
  5
9A
330
1F
100
AcDbEntity
  8
0
  6
SLD-Durchgehend
 62
     7
370
    15
100
AcDbCircle
 10
246.4540790046
 20
138.8856089124
 30
0.0
 40
0.3349893445331061
100
AcDbArc
 50
70.974164184
 51
140.3407784814
  0
ARC
  5
9B
330
1F
100
AcDbEntity
  8
0
  6
SLD-Durchgehend
 62
     7
370
    15
100
AcDbCircle
 10
247.6420675751
 20
139.5101596151
 30
0.0
 40
0.3349794336392645
100
AcDbArc
 50
97.9777064259
 51
164.4901138751
  0
ARC
  5
9C
330
1F
100
AcDbEntity
  8
0
  6
SLD-Durchgehend
 62
     7
370
    15
100
AcDbCircle
 10
248.7238220624
 20
137.4524673644
 30
0.0
 40
0.3350033697097053
100
AcDbArc
 50
335.12323041
 51
44.4867483969
  0
ARC
  5
9D
330
1F
100
AcDbEntity
  8
0
  6
SLD-Durchgehend
 62
     7
370
    15
100
AcDbCircle
 10
249.3810457855
 20
138.0980402063
 30
0.0
 40
0.5862497532495266
100
AcDbArc
 50
130.9754506816
 51
224.4881161076
  0
ARC
  5
9E
330
1F
100
AcDbEntity
  8
0
  6
SLD-Durchgehend
 62
     7
370
    15
100
AcDbCircle
 10
248.7769368026
 20
138.7935856745
 30
0.0
 40
0.3350163111800912
100
AcDbArc
 50
310.9759097065
 51
17.4809111756
  0
ARC
  5
9F
330
1F
100
AcDbEntity
  8
0
  6
SLD-Durchgehend
 62
     7
370
    15
100
AcDbCircle
 10
245.7968615127
 20
138.240022426
 30
0.0
 40
0.5862488037720104
100
AcDbArc
 50
310.9753520155
 51
44.4882147737
  0
ARC
  5
A0
330
1F
100
AcDbEntity
  8
0
  6
SLD-Durchgehend
 62
     7
370
    15
100
AcDbCircle
 10
246.400954316
 20
137.5444831335
 30
0.0
 40
0.3350019886540561
100
AcDbArc
 50
130.9746857821
 51
207.6770030885
  0
ARC
  5
A1
330
1F
100
AcDbEntity
  8
0
  6
SLD-Durchgehend
 62
     7
370
    15
100
AcDbCircle
 10
246.4540913047
 20
138.8855941474
 30
0.0
 40
0.3350078636519861
100
AcDbArc
 50
154.9103869461
 51
224.485711685
  0
ARC
  5
A2
330
1F
100
AcDbEntity
  8
0
  6
SLD-Durchgehend
 62
     7
370
    15
100
AcDbCircle
 10
247.5358378805
 20
136.827899289
 30
0.0
 40
0.3349798592951042
100
AcDbArc
 50
267.7820305623
 51
344.4901443424
  0
ARC
  5
A3
330
1F
100
AcDbEntity
  8
0
  6
SLD-Durchgehend
 62
     7
370
    15
100
AcDbCircle
 10
248.4235213744
 20
136.5815254742
 30
0.0
 40
0.5862595463801694
100
AcDbArc
 50
70.9758713528
 51
164.4870414109
  0
ARC
  5
A4
330
1F
100
AcDbEntity
  8
0
  6
SLD-Durchgehend
 62
     7
370
    15
100
AcDbCircle
 10
248.7238280901
 20
137.4524657894
 30
0.0
 40
0.3350010879101371
100
AcDbArc
 50
250.9746430516
 51
320.5521486017
  0
ARC
  5
A5
330
1F
100
AcDbEntity
  8
0
  6
SLD-Durchgehend
 62
     7
370
    15
100
AcDbCircle
 10
246.4009759911
 20
137.5445412538
 30
0.0
 40
0.3350481823623314
100
AcDbArc
 50
207.6840832138
 51
284.4817464766
  0
ARC
  5
A6
330
1F
100
AcDbEntity
  8
0
  6
SLD-Durchgehend
 62
     7
370
    15
100
AcDbCircle
 10
246.6314232643
 20
136.6525256612
 30
0.0
 40
0.5862540292714837
100
AcDbArc
 50
10.9753446451
 51
104.4873786005
  0
ARC
  5
A7
330
1F
100
AcDbEntity
  8
0
  6
SLD-Durchgehend
 62
     7
370
    15
100
AcDbCircle
 10
247.5358248981
 20
136.8279175885
 30
0.0
 40
0.3349976428925134
100
AcDbArc
 50
190.9749934793
 51
267.7843704529
  0
CIRCLE
  5
A8
330
1F
100
AcDbEntity
  8
0
  6
SLD-Durchgehend
 62
     7
370
    15
100
AcDbCircle
 10
247.5876192589
 20
138.1669179086
 30
0.0
 40
2.624999999999982
  0
LINE
  5
A9
330
1F
100
AcDbEntity
  8
0
  6
SLD-Durchgehend
 62
     7
370
    15
100
AcDbLine
 10
204.239757685
 20
71.6309936114
 30
0.0
 11
204.239757685
 21
121.6679119833
 31
0.0
  0
LINE
  5
AA
330
1F
100
AcDbEntity
  8
0
  6
SLD-Durchgehend
 62
     7
370
    15
100
AcDbLine
 10
204.239757685
 20
71.6309936114
 30
0.0
 11
202.7578260284
 21
74.3200739242
 31
0.0
  0
LINE
  5
AB
330
1F
100
AcDbEntity
  8
0
  6
SLD-Durchgehend
 62
     7
370
    15
100
AcDbLine
 10
202.7578260284
 20
74.3200739242
 30
0.0
 11
202.7578260284
 21
121.6679119833
 31
0.0
  0
LINE
  5
AC
330
1F
100
AcDbEntity
  8
0
  6
SLD-Durchgehend
 62
     7
370
    15
100
AcDbLine
 10
202.7578260284
 20
121.6679119833
 30
0.0
 11
204.239757685
 21
121.6679119833
 31
0.0
  0
LINE
  5
AD
330
1F
100
AcDbEntity
  8
0
  6
SLD-Durchgehend
 62
     7
370
    15
100
AcDbLine
 10
208.7978254538
 20
72.2576340057
 30
0.0
 11
208.7978254538
 21
121.6679119833
 31
0.0
  0
ARC
  5
AE
330
1F
100
AcDbEntity
  8
0
  6
SLD-Durchgehend
 62
     7
370
    15
100
AcDbCircle
 10
208.185407537
 20
72.2434498666
 30
0.0
 40
0.6125821533107654
100
AcDbArc
 50
271.1616423437
 51
1.3267835803
  0
LINE
  5
AF
330
1F
100
AcDbEntity
  8
0
  6
SLD-Durchgehend
 62
     7
370
    15
100
AcDbLine
 10
208.197826473
 20
121.6679119833
 30
0.0
 11
208.7978254538
 21
121.6679119833
 31
0.0
  0
LINE
  5
B0
330
1F
100
AcDbEntity
  8
0
  6
SLD-Durchgehend
 62
     7
370
    15
100
AcDbLine
 10
208.197826473
 20
71.6309936114
 30
0.0
 11
204.239757685
 21
71.6309936114
 31
0.0
  0
LINE
  5
B1
330
1F
100
AcDbEntity
  8
0
  6
SLD-Durchgehend
 62
     7
370
    15
100
AcDbLine
 10
204.239757685
 20
121.6679119833
 30
0.0
 11
208.197826473
 21
121.6679119833
 31
0.0
  0
LINE
  5
B2
330
1F
100
AcDbEntity
  8
0
  6
SLD-Durchgehend
 62
     7
370
    15
100
AcDbLine
 10
198.937825812
 20
74.3200739242
 30
0.0
 11
198.937825812
 21
121.6679119833
 31
0.0
  0
LINE
  5
B3
330
1F
100
AcDbEntity
  8
0
  6
SLD-Durchgehend
 62
     7
370
    15
100
AcDbLine
 10
198.937825812
 20
74.3200739242
 30
0.0
 11
197.4558932241
 21
71.6309936114
 31
0.0
  0
LINE
  5
B4
330
1F
100
AcDbEntity
  8
0
  6
SLD-Durchgehend
 62
     7
370
    15
100
AcDbLine
 10
197.4558932241
 20
71.6309936114
 30
0.0
 11
197.4558932241
 21
121.6679119833
 31
0.0
  0
LINE
  5
B5
330
1F
100
AcDbEntity
  8
0
  6
SLD-Durchgehend
 62
     7
370
    15
100
AcDbLine
 10
197.4558932241
 20
121.6679119833
 30
0.0
 11
198.937825812
 21
121.6679119833
 31
0.0
  0
LINE
  5
B6
330
1F
100
AcDbEntity
  8
0
  6
SLD-Durchgehend
 62
     7
370
    15
100
AcDbLine
 10
187.7978257369
 20
121.6679119833
 30
0.0
 11
197.4558932241
 21
121.6679119833
 31
0.0
  0
LINE
  5
B7
330
1F
100
AcDbEntity
  8
0
  6
SLD-Durchgehend
 62
     7
370
    15
100
AcDbLine
 10
197.4558932241
 20
71.6309936114
 30
0.0
 11
195.7978261169
 21
71.6309936114
 31
0.0
  0
ARC
  5
B8
330
1F
100
AcDbEntity
  8
0
  6
SLD-Durchgehend
 62
     7
370
    15
100
AcDbCircle
 10
195.138083341
 20
50.3826810543
 30
0.0
 40
21.25855232734714
100
AcDbArc
 50
88.2215841219
 51
110.1991894934
  0
LINE
  5
B9
330
1F
100
AcDbEntity
  8
0
  6
SLD-Durchgehend
 62
     7
370
    15
100
AcDbLine
 10
187.7978257369
 20
70.3337879248
 30
0.0
 11
187.7978257369
 21
70.3179107375
 31
0.0
  0
LWPOLYLINE
  5
BA
330
1F
100
AcDbEntity
  8
0
  6
SLD-Durchgehend
 62
     7
370
    15
100
AcDbPolyline
 90
       11
 70
   128
 43
0.0
 10
195.7978261169
 20
132.2851066805
 10
194.4982176181
 20
132.3128116645
 10
193.1986100506
 20
132.3957776047
 10
192.0091881882
 20
132.5197645791
 10
190.8933110069
 20
132.6773387708
 10
189.9208928924
 20
132.8467426218
 10
189.0876735095
 20
133.0152859308
 10
188.454376487
 20
133.1576013334
 10
188.0169631447
 20
133.2629711695
 10
187.8171553369
 20
133.3130092688
 10
187.8258143086
 20
133.3108150728
  0
LINE
  5
BB
330
1F
100
AcDbEntity
  8
0
  6
SLD-Durchgehend
 62
     7
370
    15
100
AcDbLine
 10
197.4558932241
 20
132.2851066805
 30
0.0
 11
195.7978261169
 21
132.2851066805
 31
0.0
  0
LINE
  5
BC
330
1F
100
AcDbEntity
  8
0
  6
SLD-Durchgehend
 62
     7
370
    15
100
AcDbLine
 10
197.4558932241
 20
126.2766008593
 30
0.0
 11
197.4558932241
 21
132.2851066805
 31
0.0
  0
LINE
  5
BD
330
1F
100
AcDbEntity
  8
0
  6
SLD-Durchgehend
 62
     7
370
    15
100
AcDbLine
 10
195.0434464495
 20
126.2766008593
 30
0.0
 11
197.4558932241
 21
126.2766008593
 31
0.0
  0
ARC
  5
BE
330
1F
100
AcDbEntity
  8
0
  6
SLD-Durchgehend
 62
     7
370
    15
100
AcDbCircle
 10
194.6736330664
 20
118.8580074708
 30
0.0
 40
7.42780518068092
100
AcDbArc
 50
87.1461947163
 51
157.7718644507
  0
LINE
  5
BF
330
1F
100
AcDbEntity
  8
0
  6
SLD-Durchgehend
 62
     7
370
    15
100
AcDbLine
 10
182.8478257637
 20
70.6179120906
 30
0.0
 11
182.8478257637
 21
133.0179103978
 31
0.0
  0
LINE
  5
C0
330
1F
100
AcDbEntity
  8
0
  6
SLD-Durchgehend
 62
     7
370
    15
100
AcDbLine
 10
202.6601507794
 20
75.4179113872
 30
0.0
 11
201.9578255247
 21
75.4179113872
 31
0.0
  0
LINE
  5
C1
330
1F
100
AcDbEntity
  8
0
  6
SLD-Durchgehend
 62
     7
370
    15
100
AcDbLine
 10
202.3635282647
 20
128.2179111011
 30
0.0
 11
201.9578255247
 21
128.2179111011
 31
0.0
  0
ARC
  5
C2
330
1F
100
AcDbEntity
  8
0
  6
SLD-Durchgehend
 62
     7
370
    15
100
AcDbCircle
 10
201.9193825076
 20
128.9291028365
 30
0.0
 40
0.8384862181329132
100
AcDbArc
 50
301.9851556421
 51
0.5782186088
  0
LWPOLYLINE
  5
C3
330
1F
100
AcDbEntity
  8
0
  6
SLD-Durchgehend
 62
     7
370
    15
100
AcDbPolyline
 90
        3
 70
   128
 43
0.0
 10
202.7316782158
 20
121.6679119833
 10
202.7517742943
 20
121.8156253316
 10
202.7578260284
 20
121.9537777223
  0
ARC
  5
C4
330
1F
100
AcDbEntity
  8
0
  6
SLD-Durchgehend
 62
     7
370
    15
100
AcDbCircle
 10
199.7777568186
 20
128.9299178293
 30
0.0
 40
0.8399658136910744
100
AcDbArc
 50
179.4783948307
 51
237.9582309184
  0
LINE
  5
C5
330
1F
100
AcDbEntity
  8
0
  6
SLD-Durchgehend
 62
     7
370
    15
100
AcDbLine
 10
199.7378263157
 20
128.2179111011
 30
0.0
 11
199.3321235757
 21
128.2179111011
 31
0.0
  0
LINE
  5
C6
330
1F
100
AcDbEntity
  8
0
  6
SLD-Durchgehend
 62
     7
370
    15
100
AcDbLine
 10
199.7378263157
 20
75.4179113872
 30
0.0
 11
199.035501061
 21
75.4179113872
 31
0.0
  0
LINE
  5
C7
330
1F
100
AcDbEntity
  8
0
  6
SLD-Durchgehend
 62
     7
370
    15
100
AcDbLine
 10
198.937825812
 20
121.9537777223
 30
0.0
 11
198.9639736246
 21
121.6679119833
 31
0.0
  0
LINE
  5
C8
330
1F
100
AcDbEntity
  8
0
  6
SLD-Durchgehend
 62
     7
370
    15
100
AcDbLine
 10
201.9578255247
 20
128.2179111011
 30
0.0
 11
199.7378263157
 21
128.2179111011
 31
0.0
  0
LINE
  5
C9
330
1F
100
AcDbEntity
  8
0
  6
SLD-Durchgehend
 62
     7
370
    15
100
AcDbLine
 10
201.9578255247
 20
75.4179113872
 30
0.0
 11
199.7378263157
 21
75.4179113872
 31
0.0
  0
LINE
  5
CA
330
1F
100
AcDbEntity
  8
0
  6
SLD-Durchgehend
 62
     7
370
    15
100
AcDbLine
 10
208.997825114
 20
128.2179111011
 30
0.0
 11
208.9532203506
 21
128.2179111011
 31
0.0
  0
LINE
  5
CB
330
1F
100
AcDbEntity
  8
0
  6
SLD-Durchgehend
 62
     7
370
    15
100
AcDbLine
 10
208.997825114
 20
75.4179113872
 30
0.0
 11
208.9493870269
 21
75.4179113872
 31
0.0
  0
ELLIPSE
  5
CC
330
1F
100
AcDbEntity
  8
0
  6
SLD-Durchgehend
 62
     7
370
    15
100
AcDbEllipse
 10
219.767441006
 20
101.8179112442
 30
0.0
 11
0.0
 21
25.99999999999999
 31
0.0
210
0.0
220
0.0
230
1.0
 40
0.2679491924
 41
0.1601874882047335
 42
2.98140516538506
  0
ELLIPSE
  5
CD
330
1F
100
AcDbEntity
  8
0
  6
SLD-Durchgehend
 62
     7
370
    15
100
AcDbEllipse
 10
216.868436201
 20
118.6328450847
 30
0.0
 11
0.2772987300533316
 21
3.333070681680866
 31
0.0
210
0.0
220
0.0
230
1.0
 40
0.2125577949
 41
0.0
 42
6.283185307179586
  0
ARC
  5
CE
330
1F
100
AcDbEntity
  8
0
  6
SLD-Durchgehend
 62
     7
370
    15
100
AcDbCircle
 10
222.6260527349
 20
96.5789724998
 30
0.0
 40
20.81034803168921
100
AcDbArc
 50
259.0027525862
 51
274.0076951346
  0
ARC
  5
CF
330
1F
100
AcDbEntity
  8
0
  6
SLD-Durchgehend
 62
     7
370
    15
100
AcDbCircle
 10
222.4603442961
 20
109.7702188721
 30
0.0
 40
18.11867262026987
100
AcDbArc
 50
84.8698182075
 51
102.1197340717
  0
LINE
  5
D0
330
1F
100
AcDbEntity
  8
0
  6
SLD-Durchgehend
 62
     7
370
    15
100
AcDbLine
 10
180.8478256687
 20
77.5974800207
 30
0.0
 11
180.8478256687
 21
126.0383424677
 31
0.0
  0
LINE
  5
D1
330
1F
100
AcDbEntity
  8
0
  6
SLD-Durchgehend
 62
     7
370
    15
100
AcDbLine
 10
161.0478255432
 20
78.5894652225
 30
0.0
 11
161.0478255432
 21
79.8727625377
 31
0.0
  0
LWPOLYLINE
  5
D2
330
1F
100
AcDbEntity
  8
0
  6
SLD-Durchgehend
 62
     7
370
    15
100
AcDbPolyline
 90
        5
 70
   128
 43
0.0
 10
160.4262217413
 20
80.9535400338
 10
160.4810654651
 20
80.8393990017
 10
160.7715542894
 20
80.4406644173
 10
161.0019839834
 20
80.0738611586
 10
161.0478255432
 20
79.8727625377
  0
LWPOLYLINE
  5
D3
330
1F
100
AcDbEntity
  8
0
  6
SLD-Durchgehend
 62
     7
370
    15
100
AcDbPolyline
 90
        7
 70
   128
 43
0.0
 10
159.6478260588
 20
81.6718225695
 10
159.7275826614
 20
81.6732959218
 10
159.8063818644
 20
81.6614196964
 10
159.9012016784
 20
81.6290804513
 10
160.029785661
 20
81.5513839342
 10
160.2655220311
 20
81.2832934178
 10
160.4262217413
 20
80.9535400338
  0
LWPOLYLINE
  5
D4
330
1F
100
AcDbEntity
  8
0
  6
SLD-Durchgehend
 62
     7
370
    15
100
AcDbPolyline
 90
        3
 70
   128
 43
0.0
 10
155.7342241984
 20
81.1756288029
 10
156.4427427482
 20
81.2849902876
 10
159.6478260588
 20
81.6718225695
  0
ARC
  5
D5
330
1F
100
AcDbEntity
  8
0
  6
SLD-Durchgehend
 62
     7
370
    15
100
AcDbCircle
 10
152.5841300538
 20
110.5631260839
 30
0.0
 40
29.55584696060028
100
AcDbArc
 50
269.0572258187
 51
276.1182671045
  0
LINE
  5
D6
330
1F
100
AcDbEntity
  8
0
  6
SLD-Durchgehend
 62
     7
370
    15
100
AcDbLine
 10
152.0877815317
 20
81.023094929
 30
0.0
 11
152.0978249143
 21
81.0112801708
 31
0.0
  0
LINE
  5
D7
330
1F
100
AcDbEntity
  8
0
  6
SLD-Durchgehend
 62
     7
370
    15
100
AcDbLine
 10
152.0978249143
 20
122.6878499009
 30
0.0
 11
152.0877815317
 21
122.6778642602
 31
0.0
  0
LINE
  5
D8
330
1F
100
AcDbEntity
  8
0
  6
SLD-Durchgehend
 62
     7
370
    15
100
AcDbLine
 10
155.6478254031
 20
122.6409987874
 30
0.0
 11
152.0978249143
 21
122.6878499009
 31
0.0
  0
ARC
  5
D9
330
1F
100
AcDbEntity
  8
0
  6
SLD-Durchgehend
 62
     7
370
    15
100
AcDbCircle
 10
155.5899010055
 20
124.1907571317
 30
0.0
 40
1.550840469419331
100
AcDbArc
 50
272.1405139456
 51
340.0660547734
  0
LINE
  5
DA
330
1F
100
AcDbEntity
  8
0
  6
SLD-Durchgehend
 62
     7
370
    15
100
AcDbLine
 10
157.0478248875
 20
123.6620189019
 30
0.0
 11
157.0478248875
 21
124.8459571369
 31
0.0
  0
LWPOLYLINE
  5
DB
330
1F
100
AcDbEntity
  8
0
  6
SLD-Durchgehend
 62
     7
370
    15
100
AcDbPolyline
 90
       18
 70
   128
 43
0.0
 10
169.6167317684
 20
78.1604030497
 10
169.6154120844
 20
78.1602298237
 10
169.6992590557
 20
78.1712343313
 10
169.9460101779
 20
78.2018580802
 10
170.3384983819
 20
78.2463752992
 10
170.8616641815
 20
78.2948282875
 10
171.498479275
 20
78.3370581783
 10
172.2340732347
 20
78.3630960949
 10
173.02977941
 20
78.3652250983
 10
173.8471285905
 20
78.3377268679
 10
174.6607413049
 20
78.2804412164
 10
175.4545834381
 20
78.1962310292
 10
176.1827384587
 20
78.0959443517
 10
176.8136918079
 20
77.9904608943
 10
177.3292407859
 20
77.8913830735
 10
177.7144707273
 20
77.8096874572
 10
177.9544357676
 20
77.7563766904
 10
178.0308922287
 20
77.7388529249
  0
LWPOLYLINE
  5
DC
330
1F
100
AcDbEntity
  8
0
  6
SLD-Durchgehend
 62
     7
370
    15
100
AcDbPolyline
 90
       18
 70
   128
 43
0.0
 10
178.0308377463
 20
125.8969397612
 10
177.9537270311
 20
125.879466287
 10
177.7116921264
 20
125.8258779861
 10
177.3247401695
 20
125.7437707253
 10
176.8082179594
 20
125.6443501778
 10
176.1787198018
 20
125.538984067
 10
175.4528698045
 20
125.4389935501
 10
174.6621643658
 20
125.3552676506
 10
173.8485963549
 20
125.2981496371
 10
173.0309016537
 20
125.2707091488
 10
172.2339353989
 20
125.2728567787
 10
171.4975116308
 20
125.2988946952
 10
170.8594141062
 20
125.3411543883
 10
170.336642256
 20
125.3895645358
 10
169.9443719815
 20
125.434128321
 10
169.6988911833
 20
125.464657075
 10
169.6152919437
 20
125.4755870767
 10
169.6163266431
 20
125.4754511036
  0
LWPOLYLINE
  5
DD
330
1F
100
AcDbEntity
  8
0
  6
SLD-Durchgehend
 62
     7
370
    15
100
AcDbPolyline
 90
        3
 70
   128
 43
0.0
 10
150.9543451946
 20
82.1670924641
 10
150.9671490173
 20
82.171691335
 10
150.9781050961
 20
82.2278240092
  0
LINE
  5
DE
330
1F
100
AcDbEntity
  8
0
  6
SLD-Durchgehend
 62
     7
370
    15
100
AcDbLine
 10
150.9478259366
 20
82.1647511192
 30
0.0
 11
150.9478259366
 21
121.5085887678
 31
0.0
  0
LWPOLYLINE
  5
DF
330
1F
100
AcDbEntity
  8
0
  6
SLD-Durchgehend
 62
     7
370
    15
100
AcDbPolyline
 90
        3
 70
   128
 43
0.0
 10
151.0104890447
 20
121.4924638487
 10
150.9689818602
 20
121.5549891211
 10
150.9478259366
 20
121.5085887678
  0
LWPOLYLINE
  5
E0
330
1F
100
AcDbEntity
  8
0
  6
SLD-Durchgehend
 62
     7
370
    15
100
AcDbPolyline
 90
       12
 70
   128
 43
0.0
 10
151.7719793599
 20
122.2080306478
 10
151.7061199527
 20
122.0232264467
 10
151.5916864853
 20
121.7597310759
 10
151.4623518567
 20
121.5265539803
 10
151.3878050726
 20
121.4199678369
 10
151.3490583282
 20
121.3729677118
 10
151.3050067704
 20
121.3272285976
 10
151.266055135
 20
121.2944497682
 10
151.2294355314
 20
121.2712691493
 10
151.18315625
 20
121.2549169876
 10
151.1027160566
 20
121.2769781567
 10
151.0104890447
 20
121.4924638487
  0
LINE
  5
E1
330
1F
100
AcDbEntity
  8
0
  6
SLD-Durchgehend
 62
     7
370
    15
100
AcDbLine
 10
152.0877815317
 20
122.6778642602
 30
0.0
 11
151.7719793599
 21
122.2080306478
 31
0.0
  0
LINE
  5
E2
330
1F
100
AcDbEntity
  8
0
  6
SLD-Durchgehend
 62
     7
370
    15
100
AcDbLine
 10
151.8867350649
 20
81.3739893354
 30
0.0
 11
152.0877815317
 21
81.023094929
 31
0.0
  0
LWPOLYLINE
  5
E3
330
1F
100
AcDbEntity
  8
0
  6
SLD-Durchgehend
 62
     7
370
    15
100
AcDbPolyline
 90
       12
 70
   128
 43
0.0
 10
150.9781050961
 20
82.2278240092
 10
151.0628479998
 20
82.5533734031
 10
151.1138919275
 20
82.5994235791
 10
151.1809397023
 20
82.6050804324
 10
151.2154284399
 20
82.5928130515
 10
151.2602101545
 20
82.565793521
 10
151.2975673657
 20
82.5353578992
 10
151.3360272627
 20
82.4976467855
 10
151.3859834056
 20
82.4401581056
 10
151.4602992218
 20
82.3388097204
 10
151.6206245403
 20
82.0607298382
 10
151.8867350649
 20
81.3739893354
  0
LINE
  5
E4
330
1F
100
AcDbEntity
  8
0
  6
SLD-Durchgehend
 62
     7
370
    15
100
AcDbLine
 10
202.7578260284
 20
121.9537777223
 30
0.0
 11
202.7578260284
 21
122.8680552311
 31
0.0
  0
LWPOLYLINE
  5
E5
330
1F
100
AcDbEntity
  8
0
  6
SLD-Durchgehend
 62
     7
370
    15
100
AcDbPolyline
 90
        3
 70
   128
 43
0.0
 10
202.7578260284
 20
122.8680552311
 10
203.8842737209
 20
125.4783512421
 10
204.239757685
 20
126.2766008593
  0
LINE
  5
E6
330
1F
100
AcDbEntity
  8
0
  6
SLD-Durchgehend
 62
     7
370
    15
100
AcDbLine
 10
204.239757685
 20
126.2766008593
 30
0.0
 11
208.197826473
 21
126.2766008593
 31
0.0
  0
ARC
  5
E7
330
1F
100
AcDbEntity
  8
0
  6
SLD-Durchgehend
 62
     7
370
    15
100
AcDbCircle
 10
208.1147972912
 20
125.5922379672
 30
0.0
 40
0.6893811813573135
100
AcDbArc
 50
352.2154757984
 51
83.0824936921
  0
LINE
  5
E8
330
1F
100
AcDbEntity
  8
0
  6
SLD-Durchgehend
 62
     7
370
    15
100
AcDbLine
 10
208.7978254538
 20
125.4988626905
 30
0.0
 11
208.7978254538
 21
121.6679119833
 31
0.0
  0
ARC
  5
E9
330
1F
100
AcDbEntity
  8
0
  6
SLD-Durchgehend
 62
     7
370
    15
100
AcDbCircle
 10
208.1897189744
 20
131.6769242942
 30
0.0
 40
0.6082364232875822
100
AcDbArc
 50
358.8156305045
 51
89.2362522385
  0
LINE
  5
EA
330
1F
100
AcDbEntity
  8
0
  6
SLD-Durchgehend
 62
     7
370
    15
100
AcDbLine
 10
208.7978254538
 20
125.4988626905
 30
0.0
 11
208.7978254538
 21
131.6643522449
 31
0.0
  0
LWPOLYLINE
  5
EB
330
1F
100
AcDbEntity
  8
0
  6
SLD-Durchgehend
 62
     7
370
    15
100
AcDbPolyline
 90
        3
 70
   128
 43
0.0
 10
204.239757685
 20
132.2851066805
 10
204.2317538987
 20
132.2707736261
 10
202.7578260284
 20
129.6231446184
  0
LINE
  5
EC
330
1F
100
AcDbEntity
  8
0
  6
SLD-Durchgehend
 62
     7
370
    15
100
AcDbLine
 10
204.239757685
 20
126.2766008593
 30
0.0
 11
204.239757685
 21
132.2851066805
 31
0.0
  0
LINE
  5
ED
330
1F
100
AcDbEntity
  8
0
  6
SLD-Durchgehend
 62
     7
370
    15
100
AcDbLine
 10
202.7578260284
 20
122.8680552311
 30
0.0
 11
202.7578260284
 21
129.6231446184
 31
0.0
  0
LINE
  5
EE
330
1F
100
AcDbEntity
  8
0
  6
SLD-Durchgehend
 62
     7
370
    15
100
AcDbLine
 10
208.197826473
 20
132.2851066805
 30
0.0
 11
204.239757685
 21
132.2851066805
 31
0.0
  0
LWPOLYLINE
  5
EF
330
1F
100
AcDbEntity
  8
0
  6
SLD-Durchgehend
 62
     7
370
    15
100
AcDbPolyline
 90
        3
 70
   128
 43
0.0
 10
198.937825812
 20
129.6231446184
 10
197.4638970103
 20
132.2707736261
 10
197.4558932241
 20
132.2851066805
  0
LWPOLYLINE
  5
F0
330
1F
100
AcDbEntity
  8
0
  6
SLD-Durchgehend
 62
     7
370
    15
100
AcDbPolyline
 90
        3
 70
   128
 43
0.0
 10
197.4558932241
 20
126.2766008593
 10
197.8113771882
 20
125.4783512421
 10
198.937825812
 20
122.8680552311
  0
LINE
  5
F1
330
1F
100
AcDbEntity
  8
0
  6
SLD-Durchgehend
 62
     7
370
    15
100
AcDbLine
 10
198.937825812
 20
122.8680552311
 30
0.0
 11
198.937825812
 21
129.6231446184
 31
0.0
  0
LINE
  5
F2
330
1F
100
AcDbEntity
  8
0
  6
SLD-Durchgehend
 62
     7
370
    15
100
AcDbLine
 10
198.937825812
 20
122.8680552311
 30
0.0
 11
198.937825812
 21
121.9537777223
 31
0.0
  0
LINE
  5
F3
330
1F
100
AcDbEntity
  8
0
  6
SLD-Durchgehend
 62
     7
370
    15
100
AcDbLine
 10
152.0978249143
 20
81.005410976
 30
0.0
 11
152.0978249143
 21
81.0112801708
 31
0.0
  0
LINE
  5
F4
330
1F
100
AcDbEntity
  8
0
  6
SLD-Durchgehend
 62
     7
370
    15
100
AcDbLine
 10
224.4517858605
 20
127.8876678415
 30
0.0
 11
224.0804973524
 21
127.8163099058
 31
0.0
  0
LINE
  5
F5
330
1F
100
AcDbEntity
  8
0
  6
SLD-Durchgehend
 62
     7
370
    15
100
AcDbLine
 10
224.0804973524
 20
75.8195125826
 30
0.0
 11
224.4517858605
 21
75.7481546469
 31
0.0
  0
LINE
  5
F6
330
1F
100
AcDbEntity
  8
0
  6
SLD-Durchgehend
 62
     7
370
    15
100
AcDbLine
 10
225.0464241486
 20
128.5574098445
 30
0.0
 11
225.3453339915
 21
129.6730243929
 31
0.0
  0
LINE
  5
F7
330
1F
100
AcDbEntity
  8
0
  6
SLD-Durchgehend
 62
     7
370
    15
100
AcDbLine
 10
225.3453339915
 20
129.6730243929
 30
0.0
 11
243.0112640839
 21
140.7119238146
 31
0.0
  0
LINE
  5
F8
330
1F
100
AcDbEntity
  8
0
  6
SLD-Durchgehend
 62
     7
370
    15
100
AcDbLine
 10
242.6140624564
 20
133.1328393288
 30
0.0
 11
240.6512293499
 21
131.9063247509
 31
0.0
  0
ARC
  5
F9
330
1F
100
AcDbEntity
  8
0
  6
SLD-Durchgehend
 62
     7
370
    15
100
AcDbCircle
 10
241.4548224566
 20
130.6203091748
 30
0.0
 40
1.516442497159267
100
AcDbArc
 50
122.0
 51
302.0
  0
LINE
  5
FA
330
1F
100
AcDbEntity
  8
0
  6
SLD-Durchgehend
 62
     7
370
    15
100
AcDbLine
 10
242.2584127169
 20
129.3342930593
 30
0.0
 11
242.9068702738
 21
129.739492885
 31
0.0
  0
LINE
  5
FB
330
1F
100
AcDbEntity
  8
0
  6
SLD-Durchgehend
 62
     7
370
    15
100
AcDbLine
 10
250.6353016477
 20
108.7152373374
 30
0.0
 11
227.2514309268
 21
75.3196102895
 31
0.0
  0
LINE
  5
FC
330
1F
100
AcDbEntity
  8
0
  6
SLD-Durchgehend
 62
     7
370
    15
100
AcDbLine
 10
224.9465230386
 20
75.3196102895
 30
0.0
 11
227.2514309268
 21
75.3196102895
 31
0.0
  0
LINE
  5
FD
330
1F
100
AcDbEntity
  8
0
  6
SLD-Durchgehend
 62
     7
370
    15
100
AcDbLine
 10
252.0337458234
 20
135.3991643853
 30
0.0
 11
250.6353016477
 21
108.7152373374
 31
0.0
  0
ARC
  5
FE
330
1F
100
AcDbEntity
  8
0
  6
SLD-Durchgehend
 62
     7
370
    15
100
AcDbCircle
 10
224.0804687341
 20
128.8161953933
 30
0.0
 40
1.000019911259612
100
AcDbArc
 50
291.7964146142
 51
345.0022925273
  0
ARC
  5
FF
330
1F
100
AcDbEntity
  8
0
  6
SLD-Durchgehend
 62
     7
370
    15
100
AcDbCircle
 10
224.0804792211
 20
74.8196468672
 30
0.0
 40
0.9999976587705468
100
AcDbArc
 50
29.9976575102
 51
68.2037226478
  0
LINE
  5
100
330
1F
100
AcDbEntity
  8
0
  6
SLD-Durchgehend
 62
     7
370
    15
100
AcDbLine
 10
242.1172204893
 20
129.5602486797
 30
0.0
 11
242.5780388992
 21
129.8482005812
 31
0.0
  0
LINE
  5
101
330
1F
100
AcDbEntity
  8
0
  6
SLD-Durchgehend
 62
     7
370
    15
100
AcDbLine
 10
240.7924215775
 20
131.6803691305
 30
0.0
 11
242.5970378797
 21
132.8080182292
 31
0.0
  0
ARC
  5
102
330
1F
100
AcDbEntity
  8
0
  6
SLD-Durchgehend
 62
     7
370
    15
100
AcDbCircle
 10
241.4548224566
 20
130.6203091748
 30
0.0
 40
1.250000000000003
100
AcDbArc
 50
122.0
 51
302.0
  0
LINE
  5
103
330
1F
100
AcDbEntity
  8
0
  6
SLD-Gestrichelt
 62
     7
370
     0
100
AcDbLine
 10
187.7978257369
 20
70.3179107375
 30
0.0
 11
187.7978257369
 21
70.3337879248
 31
0.0
  0
ARC
  5
104
330
1F
100
AcDbEntity
  8
0
  6
SLD-Gestrichelt
 62
     7
370
     0
100
AcDbCircle
 10
195.0651679325
 20
50.8323578497
 30
0.0
 40
20.81153616533801
100
AcDbArc
 50
87.9825180967
 51
110.4382555186
  0
LINE
  5
105
330
1F
100
AcDbEntity
  8
0
  6
SLD-Gestrichelt
 62
     7
370
     0
100
AcDbLine
 10
195.7978261169
 20
71.6309936114
 30
0.0
 11
197.4558932241
 21
71.6309936114
 31
0.0
  0
LINE
  5
106
330
1F
100
AcDbEntity
  8
0
  6
SLD-Gestrichelt
 62
     7
370
     0
100
AcDbLine
 10
197.4558932241
 20
132.2851066805
 30
0.0
 11
197.4558932241
 21
71.6309936114
 31
0.0
  0
LINE
  5
107
330
1F
100
AcDbEntity
  8
0
  6
SLD-Gestrichelt
 62
     7
370
     0
100
AcDbLine
 10
195.7978261169
 20
132.2851066805
 30
0.0
 11
197.4558932241
 21
132.2851066805
 31
0.0
  0
ARC
  5
108
330
1F
100
AcDbEntity
  8
0
  6
SLD-Gestrichelt
 62
     7
370
     0
100
AcDbCircle
 10
195.9577645622
 20
165.0210737616
 30
0.0
 40
32.73635778517227
100
AcDbArc
 50
255.616715589
 51
269.720071658
  0
CIRCLE
  5
109
330
1F
100
AcDbEntity
  8
0
  6
SLD-Gestrichelt
 62
     7
370
     0
100
AcDbCircle
 10
189.8475758632
 20
101.8179409598
 30
0.0
 40
4.999750004549298
  0
LINE
  5
10A
330
1F
100
AcDbEntity
  8
0
  6
SLD-Gestrichelt
 62
     7
370
     0
100
AcDbLine
 10
182.8478257637
 20
70.6179120906
 30
0.0
 11
182.8478257637
 21
133.0179103978
 31
0.0
  0
ARC
  5
10B
330
1F
100
AcDbEntity
  8
0
  6
SLD-Gestrichelt
 62
     7
370
     0
100
AcDbCircle
 10
201.8737049462
 20
75.0139643113
 30
0.0
 40
0.8841211956749518
100
AcDbArc
 50
359.9709615589
 51
27.1866749334
  0
LINE
  5
10C
330
1F
100
AcDbEntity
  8
0
  6
SLD-Gestrichelt
 62
     7
370
     0
100
AcDbLine
 10
202.7578260284
 20
121.9537777223
 30
0.0
 11
202.7578260284
 21
128.9375645436
 31
0.0
  0
LINE
  5
10D
330
1F
100
AcDbEntity
  8
0
  6
SLD-Gestrichelt
 62
     7
370
     0
100
AcDbLine
 10
202.7316782158
 20
121.6679119833
 30
0.0
 11
202.7578260284
 21
121.6679119833
 31
0.0
  0
LINE
  5
10E
330
1F
100
AcDbEntity
  8
0
  6
SLD-Gestrichelt
 62
     7
370
     0
100
AcDbLine
 10
202.7578260284
 20
75.0135162242
 30
0.0
 11
202.7578260284
 21
121.6679119833
 31
0.0
  0
ARC
  5
10F
330
1F
100
AcDbEntity
  8
0
  6
SLD-Gestrichelt
 62
     7
370
     0
100
AcDbCircle
 10
199.8179575158
 20
75.0149278825
 30
0.0
 40
0.8801328359032539
100
AcDbArc
 50
152.7504659068
 51
180.0918976009
  0
LINE
  5
110
330
1F
100
AcDbEntity
  8
0
  6
SLD-Gestrichelt
 62
     7
370
     0
100
AcDbLine
 10
198.937825812
 20
121.6679119833
 30
0.0
 11
198.9639736246
 21
121.6679119833
 31
0.0
  0
LINE
  5
111
330
1F
100
AcDbEntity
  8
0
  6
SLD-Gestrichelt
 62
     7
370
     0
100
AcDbLine
 10
198.937825812
 20
121.9537777223
 30
0.0
 11
198.937825812
 21
128.9375645436
 31
0.0
  0
LINE
  5
112
330
1F
100
AcDbEntity
  8
0
  6
SLD-Gestrichelt
 62
     7
370
     0
100
AcDbLine
 10
198.937825812
 20
75.0135162242
 30
0.0
 11
198.937825812
 21
121.6679119833
 31
0.0
  0
LINE
  5
113
330
1F
100
AcDbEntity
  8
0
  6
SLD-Gestrichelt
 62
     7
370
     0
100
AcDbLine
 10
208.7978254538
 20
128.2179111011
 30
0.0
 11
208.997825114
 21
128.2179111011
 31
0.0
  0
LINE
  5
114
330
1F
100
AcDbEntity
  8
0
  6
SLD-Gestrichelt
 62
     7
370
     0
100
AcDbLine
 10
208.9532203506
 20
128.2179111011
 30
0.0
 11
208.7978254538
 21
128.2179111011
 31
0.0
  0
LINE
  5
115
330
1F
100
AcDbEntity
  8
0
  6
SLD-Gestrichelt
 62
     7
370
     0
100
AcDbLine
 10
208.7978254538
 20
128.2179111011
 30
0.0
 11
208.7978254538
 21
75.4179113872
 31
0.0
  0
LINE
  5
116
330
1F
100
AcDbEntity
  8
0
  6
SLD-Gestrichelt
 62
     7
370
     0
100
AcDbLine
 10
208.7978254538
 20
75.4179113872
 30
0.0
 11
208.997825114
 21
75.4179113872
 31
0.0
  0
LINE
  5
117
330
1F
100
AcDbEntity
  8
0
  6
SLD-Gestrichelt
 62
     7
370
     0
100
AcDbLine
 10
208.9493870269
 20
75.4179113872
 30
0.0
 11
208.7978254538
 21
75.4179113872
 31
0.0
  0
LINE
  5
118
330
1F
100
AcDbEntity
  8
0
  6
SLD-Gestrichelt
 62
     7
370
     0
100
AcDbLine
 10
208.7978254538
 20
75.4179113872
 30
0.0
 11
208.7978254538
 21
128.2179111011
 31
0.0
  0
LWPOLYLINE
  5
119
330
1F
100
AcDbEntity
  8
0
  6
SLD-Gestrichelt
 62
     7
370
     0
100
AcDbPolyline
 90
       20
 70
   128
 43
0.0
 10
212.8478250932
 20
84.2946988858
 10
213.8370908331
 20
84.1703188933
 10
214.7147748153
 20
83.8162840672
 10
215.3861242812
 20
83.2816974588
 10
215.7728541176
 20
82.6391724266
 10
215.8287483733
 20
81.9755138226
 10
215.5518363695
 20
81.3675259568
 10
214.9730938952
 20
80.87152218
 10
214.1519542317
 20
80.5292052545
 10
213.182350574
 20
80.368984244
 10
212.1802046429
 20
80.4011893786
 10
211.2558763008
 20
80.621318645
 10
210.5061038863
 20
81.0163279392
 10
210.0167925935
 20
81.5585625686
 10
209.8478264641
 20
82.1960361071
 10
210.015419824
 20
82.8582828261
 10
210.4981801938
 20
83.4697389372
 10
211.2468815874
 20
83.9536094435
 10
212.1791801881
 20
84.2386593439
 10
212.8478250932
 20
84.2946988858
  0
LINE
  5
11A
330
1F
100
AcDbEntity
  8
0
  6
SLD-Gestrichelt
 62
     7
370
     0
100
AcDbLine
 10
182.8478257637
 20
76.493987567
 30
0.0
 11
182.8478257637
 21
127.1236964829
 31
0.0
  0
LINE
  5
11B
330
1F
100
AcDbEntity
  8
0
  6
SLD-Gestrichelt
 62
     7
370
     0
100
AcDbLine
 10
187.7978257369
 20
121.6679119833
 30
0.0
 11
195.0434464495
 21
121.6679119833
 31
0.0
  0
LINE
  5
11C
330
1F
100
AcDbEntity
  8
0
  6
SLD-Gestrichelt
 62
     7
370
     0
100
AcDbLine
 10
180.8478256687
 20
126.0383424677
 30
0.0
 11
180.8478256687
 21
77.5974800207
 31
0.0
  0
ARC
  5
11D
330
1F
100
AcDbEntity
  8
0
  6
SLD-Gestrichelt
 62
     7
370
     0
100
AcDbCircle
 10
152.5841300538
 20
110.5631260839
 30
0.0
 40
29.55584696060028
100
AcDbArc
 50
269.0572258187
 51
276.1182671045
  0
LWPOLYLINE
  5
11E
330
1F
100
AcDbEntity
  8
0
  6
SLD-Gestrichelt
 62
     7
370
     0
100
AcDbPolyline
 90
        3
 70
   128
 43
0.0
 10
155.7342241984
 20
81.1756288029
 10
156.4427427482
 20
81.2849902876
 10
159.6478260588
 20
81.6718225695
  0
LWPOLYLINE
  5
11F
330
1F
100
AcDbEntity
  8
0
  6
SLD-Gestrichelt
 62
     7
370
     0
100
AcDbPolyline
 90
        7
 70
   128
 43
0.0
 10
159.6478260588
 20
81.6718225695
 10
159.7275826614
 20
81.6732959218
 10
159.8063818644
 20
81.6614196964
 10
159.9012016784
 20
81.6290804513
 10
160.029785661
 20
81.5513839342
 10
160.2655220311
 20
81.2832934178
 10
160.4262217413
 20
80.9535400338
  0
LWPOLYLINE
  5
120
330
1F
100
AcDbEntity
  8
0
  6
SLD-Gestrichelt
 62
     7
370
     0
100
AcDbPolyline
 90
        5
 70
   128
 43
0.0
 10
160.4262217413
 20
80.9535400338
 10
160.4810654651
 20
80.8393990017
 10
160.7715542894
 20
80.4406644173
 10
161.0019839834
 20
80.0738611586
 10
161.0478255432
 20
79.8727625377
  0
LINE
  5
121
330
1F
100
AcDbEntity
  8
0
  6
SLD-Gestrichelt
 62
     7
370
     0
100
AcDbLine
 10
161.0478255432
 20
79.8727625377
 30
0.0
 11
161.0478255432
 21
78.5894652225
 31
0.0
  0
LINE
  5
122
330
1F
100
AcDbEntity
  8
0
  6
SLD-Gestrichelt
 62
     7
370
     0
100
AcDbLine
 10
157.0478248875
 20
124.8459571369
 30
0.0
 11
157.0478248875
 21
123.6620189019
 31
0.0
  0
ARC
  5
123
330
1F
100
AcDbEntity
  8
0
  6
SLD-Gestrichelt
 62
     7
370
     0
100
AcDbCircle
 10
155.5899010055
 20
124.1907571317
 30
0.0
 40
1.550840469419331
100
AcDbArc
 50
272.1405139456
 51
340.0660547734
  0
LINE
  5
124
330
1F
100
AcDbEntity
  8
0
  6
SLD-Gestrichelt
 62
     7
370
     0
100
AcDbLine
 10
155.6478254031
 20
122.6409987874
 30
0.0
 11
152.0978249143
 21
122.6878499009
 31
0.0
  0
LINE
  5
125
330
1F
100
AcDbEntity
  8
0
  6
SLD-Gestrichelt
 62
     7
370
     0
100
AcDbLine
 10
152.0978249143
 20
122.6878499009
 30
0.0
 11
152.0877815317
 21
122.6778642602
 31
0.0
  0
LINE
  5
126
330
1F
100
AcDbEntity
  8
0
  6
SLD-Gestrichelt
 62
     7
370
     0
100
AcDbLine
 10
152.0877815317
 20
81.023094929
 30
0.0
 11
152.0978249143
 21
81.0112801708
 31
0.0
  0
ARC
  5
127
330
1F
100
AcDbEntity
  8
0
  6
SLD-Gestrichelt
 62
     7
370
     0
100
AcDbCircle
 10
173.3248368423
 20
49.6719487466
 30
0.0
 40
28.72876732164226
100
AcDbArc
 50
94.9559247666
 51
97.4160215714
  0
LWPOLYLINE
  5
128
330
1F
100
AcDbEntity
  8
0
  6
SLD-Gestrichelt
 62
     7
370
     0
100
AcDbPolyline
 90
       14
 70
   128
 43
0.0
 10
178.0308922287
 20
77.7388529249
 10
178.0322300736
 20
77.738547451
 10
177.9479342047
 20
77.757680542
 10
177.7016245294
 20
77.8122541822
 10
177.3109398316
 20
77.894944451
 10
176.7906564753
 20
77.9946220435
 10
176.1573599185
 20
78.0999695279
 10
175.4281413275
 20
78.1996303566
 10
174.6355639305
 20
78.2827024676
 10
173.8211996387
 20
78.3390605219
 10
173.0047408025
 20
78.3656441934
 10
172.2099277656
 20
78.3626658238
 10
171.4767235797
 20
78.3359648056
 10
170.8429762628
 20
78.2933120944
  0
LWPOLYLINE
  5
129
330
1F
100
AcDbEntity
  8
0
  6
SLD-Gestrichelt
 62
     7
370
     0
100
AcDbPolyline
 90
       14
 70
   128
 43
0.0
 10
170.8428831305
 20
125.3424936302
 10
171.477821609
 20
125.2999750294
 10
172.2114309203
 20
125.2733205773
 10
173.0065587442
 20
125.2703384824
 10
173.8245384302
 20
125.2969091155
 10
174.6384221594
 20
125.353244818
 10
175.4323150497
 20
125.4366186775
 10
176.159976935
 20
125.5362329401
 10
176.7931193579
 20
125.6416232653
 10
177.31223437
 20
125.7410661645
 10
177.7024119626
 20
125.8236316361
 10
177.9482303653
 20
125.8781195946
 10
178.0323385726
 20
125.8972806253
 10
178.0308377463
 20
125.8969397612
  0
ARC
  5
12A
330
1F
100
AcDbEntity
  8
0
  6
SLD-Gestrichelt
 62
     7
370
     0
100
AcDbCircle
 10
172.9866299751
 20
150.8430222293
 30
0.0
 40
25.59047888119716
100
AcDbArc
 50
262.4320759669
 51
265.1946283453
  0
LINE
  5
12B
330
1F
100
AcDbEntity
  8
0
  6
SLD-Gestrichelt
 62
     7
370
     0
100
AcDbLine
 10
150.9478259366
 20
82.1647511192
 30
0.0
 11
150.9543451946
 21
82.1670924641
 31
0.0
  0
LWPOLYLINE
  5
12C
330
1F
100
AcDbEntity
  8
0
  6
SLD-Gestrichelt
 62
     7
370
     0
100
AcDbPolyline
 90
        7
 70
   128
 43
0.0
 10
176.6028278041
 20
121.6554397114
 10
177.2842686157
 20
121.7323390163
 10
177.5865717325
 20
121.7550837763
 10
177.5601203087
 20
121.7532844611
 10
177.4731068406
 20
121.7473705627
 10
176.9534083549
 20
121.6994298019
 10
176.6028278041
 20
121.6554397114
  0
LWPOLYLINE
  5
12D
330
1F
100
AcDbEntity
  8
0
  6
SLD-Gestrichelt
 62
     7
370
     0
100
AcDbPolyline
 90
        7
 70
   128
 43
0.0
 10
176.6028278041
 20
81.980382777
 10
177.2842686157
 20
81.903483472
 10
177.5865717325
 20
81.8807387121
 10
177.560100751
 20
81.88253989
 10
177.4731068406
 20
81.8884519257
 10
176.9534083549
 20
81.9363926865
 10
176.6028278041
 20
81.980382777
  0
LINE
  5
12E
330
1F
100
AcDbEntity
  8
0
  6
SLD-Gestrichelt
 62
     7
370
     0
100
AcDbLine
 10
182.8478257637
 20
84.8179103203
 30
0.0
 11
182.8478257637
 21
118.8179121681
 31
0.0
  0
ARC
  5
12F
330
1F
100
AcDbEntity
  8
0
  6
SLD-Gestrichelt
 62
     7
370
     0
100
AcDbCircle
 10
173.8430605992
 20
62.1422461715
 30
0.0
 40
20.02917819093252
100
AcDbArc
 50
82.0801706333
 51
100.7665046695
  0
ARC
  5
130
330
1F
100
AcDbEntity
  8
0
  6
SLD-Gestrichelt
 62
     7
370
     0
100
AcDbCircle
 10
173.8430605992
 20
141.4935763169
 30
0.0
 40
20.02917819093253
100
AcDbArc
 50
259.2334953305
 51
277.9198293667
  0
LINE
  5
131
330
1F
100
AcDbEntity
  8
0
  6
SLD-Gestrichelt
 62
     7
370
     0
100
AcDbLine
 10
202.7316782158
 20
121.6679119833
 30
0.0
 11
208.7978254538
 21
121.6679119833
 31
0.0
  0
LINE
  5
132
330
1F
100
AcDbEntity
  8
0
  6
SLD-Gestrichelt
 62
     7
370
     0
100
AcDbLine
 10
195.0434464495
 20
121.6679119833
 30
0.0
 11
198.9639736246
 21
121.6679119833
 31
0.0
  0
LINE
  5
133
330
1F
100
AcDbEntity
  8
0
  6
SLD-Gestrichelt
 62
     7
370
     0
100
AcDbLine
 10
163.8518012594
 20
118.8179121681
 30
0.0
 11
163.8518012594
 21
84.8179103203
 31
0.0
  0
LINE
  5
134
330
1F
100
AcDbEntity
  8
0
  6
SLD-Gestrichelt
 62
     7
370
     0
100
AcDbLine
 10
150.9478259366
 20
85.787975914
 30
0.0
 11
150.9478259366
 21
117.8478465743
 31
0.0
  0
LINE
  5
135
330
1F
100
AcDbEntity
  8
0
  6
SLD-Gestrichelt
 62
     7
370
     0
100
AcDbLine
 10
190.5076517257
 20
118.8179121681
 30
0.0
 11
190.5076517257
 21
84.8179103203
 31
0.0
  0
LINE
  5
136
330
1F
100
AcDbEntity
  8
0
  6
SLD-Gestrichelt
 62
     7
370
     0
100
AcDbLine
 10
192.7978256251
 20
117.5429110743
 30
0.0
 11
192.7978256251
 21
86.0929114141
 31
0.0
  0
LINE
  5
137
330
1F
100
AcDbEntity
  8
0
  6
SLD-Gestrichelt
 62
     7
370
     0
100
AcDbLine
 10
152.0978249143
 20
86.0164200284
 30
0.0
 11
159.6478260588
 21
86.0164200284
 31
0.0
  0
LINE
  5
138
330
1F
100
AcDbEntity
  8
0
  6
SLD-Gestrichelt
 62
     7
370
     0
100
AcDbLine
 10
152.0978249143
 20
117.61940246
 30
0.0
 11
152.0978249143
 21
86.0164200284
 31
0.0
  0
LINE
  5
139
330
1F
100
AcDbEntity
  8
0
  6
SLD-Gestrichelt
 62
     7
370
     0
100
AcDbLine
 10
155.6478254031
 20
117.61940246
 30
0.0
 11
152.0978249143
 21
117.61940246
 31
0.0
  0
LWPOLYLINE
  5
13A
330
1F
100
AcDbEntity
  8
0
  6
SLD-Gestrichelt
 62
     7
370
     0
100
AcDbPolyline
 90
        6
 70
   128
 43
0.0
 10
157.0478248875
 20
118.1054243214
 10
156.9616999011
 20
117.9529798545
 10
156.7128598224
 20
117.8056204088
 10
156.3291977625
 20
117.6884916939
 10
155.876764981
 20
117.6268660791
 10
155.6478254031
 20
117.61940246
  0
LINE
  5
13B
330
1F
100
AcDbEntity
  8
0
  6
SLD-Gestrichelt
 62
     7
370
     0
100
AcDbLine
 10
157.0478248875
 20
118.1054243214
 30
0.0
 11
157.0478248875
 21
118.8179121681
 31
0.0
  0
LWPOLYLINE
  5
13C
330
1F
100
AcDbEntity
  8
0
  6
SLD-Gestrichelt
 62
     7
370
     0
100
AcDbPolyline
 90
        6
 70
   128
 43
0.0
 10
157.0478248875
 20
118.1054243214
 10
156.9616999011
 20
117.9529798545
 10
156.7128598224
 20
117.8056204088
 10
156.3291977625
 20
117.6884916939
 10
155.876764981
 20
117.6268660791
 10
155.6478254031
 20
117.61940246
  0
LWPOLYLINE
  5
13D
330
1F
100
AcDbEntity
  8
0
  6
SLD-Gestrichelt
 62
     7
370
     0
100
AcDbPolyline
 90
        6
 70
   128
 43
0.0
 10
159.6478260588
 20
86.0164200284
 10
160.0884198676
 20
85.9883779056
 10
160.4789569508
 20
85.9106534489
 10
160.7915572356
 20
85.7939531423
 10
160.9942931216
 20
85.649998612
 10
161.0478255432
 20
85.5303981669
  0
LINE
  5
13E
330
1F
100
AcDbEntity
  8
0
  6
SLD-Gestrichelt
 62
     7
370
     0
100
AcDbLine
 10
161.0478255432
 20
85.5303981669
 30
0.0
 11
161.0478255432
 21
84.8179103203
 31
0.0
  0
LWPOLYLINE
  5
13F
330
1F
100
AcDbEntity
  8
0
  6
SLD-Gestrichelt
 62
     7
370
     0
100
AcDbPolyline
 90
        6
 70
   128
 43
0.0
 10
159.6478260588
 20
86.0164200284
 10
160.0884198676
 20
85.9883779056
 10
160.4789569508
 20
85.9106534489
 10
160.7915572356
 20
85.7939531423
 10
160.9942931216
 20
85.649998612
 10
161.0478255432
 20
85.5303981669
  0
LINE
  5
140
330
1F
100
AcDbEntity
  8
0
  6
SLD-Gestrichelt
 62
     7
370
     0
100
AcDbLine
 10
152.0978249143
 20
86.0164200284
 30
0.0
 11
152.0978249143
 21
117.61940246
 31
0.0
  0
LWPOLYLINE
  5
141
330
1F
100
AcDbEntity
  8
0
  6
SLD-Gestrichelt
 62
     7
370
     0
100
AcDbPolyline
 90
       22
 70
   128
 43
0.0
 10
210.3538698982
 20
113.3354536586
 10
209.9858745467
 20
113.8190540813
 10
209.660943551
 20
114.3021301694
 10
209.3983422499
 20
114.7560381658
 10
209.2136423569
 20
115.1538637795
 10
209.1177943628
 20
115.4720184721
 10
209.1164830606
 20
115.6916364424
 10
209.2097848188
 20
115.7996968694
 10
209.3921694439
 20
115.7897913225
 10
209.6528205555
 20
115.6625074662
 10
209.9762819241
 20
115.4253927387
 10
210.3433776181
 20
115.0925073169
 10
210.7323389034
 20
114.6835877888
 10
211.120102508
 20
114.2228820689
 10
211.4836759399
 20
113.737707711
 10
211.801502807
 20
113.2568314068
 10
212.0547368656
 20
112.8087674595
 10
212.2283614706
 20
112.4200837083
 10
212.3120836448
 20
112.1138257302
 10
212.3009375762
 20
111.9081552468
 10
212.1955845039
 20
111.8152642019
 10
212.0022736024
 20
111.8406632312
  0
ARC
  5
142
330
1F
100
AcDbEntity
  8
0
  6
SLD-Gestrichelt
 62
     7
370
     0
100
AcDbCircle
 10
212.5402764708
 20
114.0902511709
 30
0.0
 40
2.313026801663018
100
AcDbArc
 50
199.0458439267
 51
256.5499894083
  0
LWPOLYLINE
  5
143
330
1F
100
AcDbEntity
  8
0
  6
SLD-Gestrichelt
 62
     7
370
     0
100
AcDbPolyline
 90
        3
 70
   128
 43
0.0
 10
210.8778599184
 20
116.4125099175
 10
211.5432563703
 20
116.7715655036
 10
212.0844535064
 20
116.9644982882
  0
ARC
  5
144
330
1F
100
AcDbEntity
  8
0
  6
SLD-Gestrichelt
 62
     7
370
     0
100
AcDbCircle
 10
222.8596072481
 20
112.7890024261
 30
0.0
 40
12.51767053465764
100
AcDbArc
 50
163.1736884249
 51
177.4979927629
  0
LWPOLYLINE
  5
145
330
1F
100
AcDbEntity
  8
0
  6
SLD-Gestrichelt
 62
     7
370
     0
100
AcDbPolyline
 90
       17
 70
   128
 43
0.0
 10
212.0844535064
 20
116.9644982882
 10
212.6957401167
 20
116.575696259
 10
213.4155816864
 20
116.1810054772
 10
214.1177411656
 20
115.7453197382
 10
214.7414441686
 20
115.2724872671
 10
215.1274065952
 20
114.8821262039
 10
215.317724226
 20
114.566999241
 10
215.3295147698
 20
114.3075150765
 10
215.1207495015
 20
114.103443674
 10
214.8045803886
 20
113.9784620471
 10
214.603537647
 20
113.8954169445
 10
214.4172358792
 20
113.787369556
 10
214.2258677166
 20
113.6346978463
 10
213.9212376903
 20
113.329992383
 10
213.4179379325
 20
112.8064680241
 10
212.8858584445
 20
112.337409272
 10
212.0022736024
 20
111.8406632312
  0
LWPOLYLINE
  5
146
330
1F
100
AcDbEntity
  8
0
  6
SLD-Gestrichelt
 62
     7
370
     0
100
AcDbPolyline
 90
       12
 70
   128
 43
0.0
 10
212.9478249233
 20
100.9085533304
 10
212.216239376
 20
100.8135621531
 10
211.5594017785
 20
100.4970895454
 10
210.9657395165
 20
99.9811031951
 10
210.5079013388
 20
99.2959856384
 10
210.3481515776
 20
98.6747569267
 10
210.4470151942
 20
98.2346965328
 10
210.7423673849
 20
97.9314686127
 10
211.2550083082
 20
97.7372529313
 10
212.0175435673
 20
97.6478366509
 10
212.705817027
 20
97.6310830891
 10
212.9478249233
 20
97.6308833204
  0
LWPOLYLINE
  5
147
330
1F
100
AcDbEntity
  8
0
  6
SLD-Gestrichelt
 62
     7
370
     0
100
AcDbPolyline
 90
        7
 70
   128
 43
0.0
 10
212.9478249233
 20
106.0049391679
 10
213.7196473311
 20
104.6644798342
 10
214.1187842469
 20
103.7270367241
 10
214.212154923
 20
103.1458466176
 10
214.0852268319
 20
102.6567002271
 10
213.5727945249
 20
101.8032705414
 10
212.9478249233
 20
100.9085533304
  0
LWPOLYLINE
  5
148
330
1F
100
AcDbEntity
  8
0
  6
SLD-Gestrichelt
 62
     7
370
     0
100
AcDbPolyline
 90
       12
 70
   128
 43
0.0
 10
212.9478249233
 20
102.727269158
 10
212.216239376
 20
102.8222603353
 10
211.5594017785
 20
103.1387329429
 10
210.9657395165
 20
103.6547192933
 10
210.5079013388
 20
104.33983685
 10
210.3481515776
 20
104.9610655617
 10
210.4470151942
 20
105.4011259556
 10
210.7423673849
 20
105.7043538757
 10
211.2550083082
 20
105.8985695571
 10
212.0175435673
 20
105.9879858375
 10
212.705817027
 20
106.0047393993
 10
212.9478249233
 20
106.0049391679
  0
LWPOLYLINE
  5
149
330
1F
100
AcDbEntity
  8
0
  6
SLD-Gestrichelt
 62
     7
370
     0
100
AcDbPolyline
 90
        7
 70
   128
 43
0.0
 10
212.9478249233
 20
97.6308833204
 10
213.7196473311
 20
98.9713426542
 10
214.1187842469
 20
99.9087857643
 10
214.212154923
 20
100.4899758708
 10
214.0852268319
 20
100.9791222612
 10
213.5727945249
 20
101.832551947
 10
212.9478249233
 20
102.727269158
  0
LWPOLYLINE
  5
14A
330
1F
100
AcDbEntity
  8
0
  6
SLD-Gestrichelt
 62
     7
370
     0
100
AcDbPolyline
 90
       27
 70
   128
 43
0.0
 10
212.8478250932
 20
89.3453142934
 10
213.4461141657
 20
89.2976547919
 10
214.0096332412
 20
89.1574451096
 10
214.5056332927
 20
88.9328352503
 10
214.9052861612
 20
88.6368767686
 10
215.1853646617
 20
88.2867711924
 10
215.3295967262
 20
87.902865126
 10
215.3295967262
 20
87.507469333
 10
215.1853646617
 20
87.1235623352
 10
214.9052861612
 20
86.773456759
 10
214.5056332927
 20
86.4774992086
 10
214.0096332412
 20
86.252888418
 10
213.4461141657
 20
86.112679667
 10
212.8478250932
 20
86.0650201656
 10
212.2495360206
 20
86.112679667
 10
211.6860169451
 20
86.252888418
 10
211.1900187563
 20
86.4774992086
 10
210.7903658878
 20
86.773456759
 10
210.5102855246
 20
87.1235623352
 10
210.3660534601
 20
87.507469333
 10
210.3660534601
 20
87.902865126
 10
210.5102855246
 20
88.2867711924
 10
210.7903658878
 20
88.6368767686
 10
211.1900187563
 20
88.9328352503
 10
211.6860169451
 20
89.1574451096
 10
212.2495360206
 20
89.2976547919
 10
212.8478250932
 20
89.3453142934
  0
LWPOLYLINE
  5
14B
330
1F
100
AcDbEntity
  8
0
  6
SLD-Gestrichelt
 62
     7
370
     0
100
AcDbPolyline
 90
       20
 70
   128
 43
0.0
 10
215.3462599497
 20
101.7336491503
 10
215.3431158047
 20
101.806369228
 10
215.3398002963
 20
101.8819750396
 10
215.3380456846
 20
101.9461774566
 10
215.3383660596
 20
101.992815108
 10
215.3403553646
 20
102.0212045122
 10
215.3433057945
 20
102.0306937724
 10
215.3462077956
 20
102.0188256669
 10
215.3477724176
 20
101.9834876796
 10
215.3470534365
 20
101.926205244
 10
215.3442296665
 20
101.8536090095
 10
215.3407278936
 20
101.7766455378
 10
215.3383697848
 20
101.7078596277
 10
215.3380605857
 20
101.6555403338
 10
215.3395954053
 20
101.6214912823
 10
215.3423409443
 20
101.6059296388
 10
215.3453882318
 20
101.6108473276
 10
215.3475004714
 20
101.6388252618
 10
215.3475377243
 20
101.6897578673
 10
215.3462599497
 20
101.7336491503
  0
ARC
  5
14C
330
1F
100
AcDbEntity
  8
0
  6
SLD-Gestrichelt
 62
     7
370
     0
100
AcDbCircle
 10
212.598329428
 20
114.246471794
 30
0.0
 40
2.766177233266577
100
AcDbArc
 50
100.7060953489
 51
128.4598797064
  0
LINE
  5
14D
330
1F
100
AcDbEntity
  8
0
  6
SLD-Gestrichelt
 62
     7
370
     0
100
AcDbLine
 10
152.0978249143
 20
83.8279106982
 30
0.0
 11
152.0978249143
 21
81.005410976
 31
0.0
  0
LINE
  5
14E
330
1F
100
AcDbEntity
  8
0
  6
SLD-Gestrichelt
 62
     7
370
     0
100
AcDbLine
 10
161.0478255432
 20
83.8279106982
 30
0.0
 11
161.0478255432
 21
79.8727625377
 31
0.0
  0
LINE
  5
14F
330
1F
100
AcDbEntity
  8
0
  6
SLD-Gestrichelt
 62
     7
370
     0
100
AcDbLine
 10
152.0978249143
 20
119.8079117902
 30
0.0
 11
152.0978249143
 21
122.6878499009
 31
0.0
  0
LINE
  5
150
330
1F
100
AcDbEntity
  8
0
  6
SLD-Gestrichelt
 62
     7
370
     0
100
AcDbLine
 10
150.9478259366
 20
119.8079117902
 30
0.0
 11
150.9478259366
 21
121.5085887678
 31
0.0
  0
LINE
  5
151
330
1F
100
AcDbEntity
  8
0
  6
SLD-Gestrichelt
 62
     7
370
     0
100
AcDbLine
 10
150.9478259366
 20
83.8279106982
 30
0.0
 11
150.9478259366
 21
82.1647511192
 31
0.0
  0
LINE
  5
152
330
1F
100
AcDbEntity
  8
0
  6
SLD-Gestrichelt
 62
     7
370
     0
100
AcDbLine
 10
157.0478248875
 20
119.8079117902
 30
0.0
 11
157.0478248875
 21
123.6620189019
 31
0.0
  0
LINE
  5
153
330
1F
100
AcDbEntity
  8
0
  6
SLD-Gestrichelt
 62
     7
370
     0
100
AcDbLine
 10
202.1478265058
 20
111.3179109387
 30
0.0
 11
202.1478265058
 21
92.3179115497
 31
0.0
  0
LINE
  5
154
330
1F
100
AcDbEntity
  8
0
  6
SLD-Gestrichelt
 62
     7
370
     0
100
AcDbLine
 10
204.6478259842
 20
111.3179109387
 30
0.0
 11
204.6478259842
 21
92.3179115497
 31
0.0
  0
LINE
  5
155
330
1F
100
AcDbEntity
  8
0
  6
SLD-Gestrichelt
 62
     7
370
     0
100
AcDbLine
 10
193.2978257071
 20
110.3179117061
 30
0.0
 11
193.2978257071
 21
93.3179107822
 31
0.0
  0
LINE
  5
156
330
1F
100
AcDbEntity
  8
0
  6
SLD-Gestrichelt
 62
     7
370
     0
100
AcDbLine
 10
192.7978256251
 20
92.8179116316
 30
0.0
 11
192.7978256251
 21
110.799419447
 31
0.0
  0
LINE
  5
157
330
1F
100
AcDbEntity
  8
0
  6
SLD-Gestrichelt
 62
     7
370
     0
100
AcDbLine
 10
208.7978254538
 20
75.4179113872
 30
0.0
 11
202.6601507794
 21
75.4179113872
 31
0.0
  0
LINE
  5
158
330
1F
100
AcDbEntity
  8
0
  6
SLD-Gestrichelt
 62
     7
370
     0
100
AcDbLine
 10
202.7578260284
 20
74.3200739242
 30
0.0
 11
202.7578260284
 21
75.0135162242
 31
0.0
  0
LINE
  5
159
330
1F
100
AcDbEntity
  8
0
  6
SLD-Gestrichelt
 62
     7
370
     0
100
AcDbLine
 10
208.7978254538
 20
75.4179113872
 30
0.0
 11
208.7978254538
 21
72.2576340057
 31
0.0
  0
LINE
  5
15A
330
1F
100
AcDbEntity
  8
0
  6
SLD-Gestrichelt
 62
     7
370
     0
100
AcDbLine
 10
187.7978257369
 20
70.3337879248
 30
0.0
 11
187.7978257369
 21
75.4179113872
 31
0.0
  0
LINE
  5
15B
330
1F
100
AcDbEntity
  8
0
  6
SLD-Gestrichelt
 62
     7
370
     0
100
AcDbLine
 10
195.7978261169
 20
75.4179113872
 30
0.0
 11
187.7978257369
 21
75.4179113872
 31
0.0
  0
LINE
  5
15C
330
1F
100
AcDbEntity
  8
0
  6
SLD-Gestrichelt
 62
     7
370
     0
100
AcDbLine
 10
199.035501061
 20
75.4179113872
 30
0.0
 11
195.7978261169
 21
75.4179113872
 31
0.0
  0
LINE
  5
15D
330
1F
100
AcDbEntity
  8
0
  6
SLD-Gestrichelt
 62
     7
370
     0
100
AcDbLine
 10
198.937825812
 20
75.0135162242
 30
0.0
 11
198.937825812
 21
74.3200739242
 31
0.0
  0
LINE
  5
15E
330
1F
100
AcDbEntity
  8
0
  6
SLD-Gestrichelt
 62
     7
370
     0
100
AcDbLine
 10
202.1478265058
 20
93.3179107822
 30
0.0
 11
202.1478265058
 21
110.3179117061
 31
0.0
  0
LINE
  5
15F
330
1F
100
AcDbEntity
  8
0
  6
SLD-Gestrichelt
 62
     7
370
     0
100
AcDbLine
 10
208.7978254538
 20
128.2179111011
 30
0.0
 11
202.3635282647
 21
128.2179111011
 31
0.0
  0
LINE
  5
160
330
1F
100
AcDbEntity
  8
0
  6
SLD-Gestrichelt
 62
     7
370
     0
100
AcDbLine
 10
202.7578260284
 20
129.6231446184
 30
0.0
 11
202.7578260284
 21
128.9375645436
 31
0.0
  0
LINE
  5
161
330
1F
100
AcDbEntity
  8
0
  6
SLD-Gestrichelt
 62
     7
370
     0
100
AcDbLine
 10
208.7978254538
 20
128.2179111011
 30
0.0
 11
208.7978254538
 21
131.6643522449
 31
0.0
  0
LINE
  5
162
330
1F
100
AcDbEntity
  8
0
  6
SLD-Gestrichelt
 62
     7
370
     0
100
AcDbLine
 10
199.3321235757
 20
128.2179111011
 30
0.0
 11
195.7978261169
 21
128.2179111011
 31
0.0
  0
LINE
  5
163
330
1F
100
AcDbEntity
  8
0
  6
SLD-Gestrichelt
 62
     7
370
     0
100
AcDbLine
 10
198.937825812
 20
128.9375645436
 30
0.0
 11
198.937825812
 21
129.6231446184
 31
0.0
  0
LINE
  5
164
330
1F
100
AcDbEntity
  8
0
  6
SLD-Gestrichelt
 62
     7
370
     0
100
AcDbLine
 10
195.7978261169
 20
128.2179111011
 30
0.0
 11
187.7978257369
 21
128.2179111011
 31
0.0
  0
ELLIPSE
  5
165
330
1F
100
AcDbEntity
  8
0
  6
SLD-Gestrichelt
 62
     7
370
     0
100
AcDbEllipse
 10
146.7803938994
 20
101.8179112442
 30
0.0
 11
20.07002071827054
 21
-2.842170943040401E-14
 31
0.0
210
0.0
220
0.0
230
1.0
 40
0.8164965809
 41
4.9215554631857
 42
4.980534842098402
  0
LINE
  5
166
330
1F
100
AcDbEntity
  8
0
  6
SLD-Gestrichelt
 62
     7
370
     0
100
AcDbLine
 10
150.9478259366
 20
83.8279106982
 30
0.0
 11
150.9478259366
 21
85.787975914
 31
0.0
  0
ELLIPSE
  5
167
330
1F
100
AcDbEntity
  8
0
  6
SLD-Gestrichelt
 62
     7
370
     0
100
AcDbEllipse
 10
146.7803938994
 20
101.8179112442
 30
0.0
 11
20.07002071827051
 21
-1.421085471520200E-14
 31
0.0
210
0.0
220
0.0
230
1.0
 40
0.8164965809
 41
1.302650465081197
 42
1.361629843993899
  0
LINE
  5
168
330
1F
100
AcDbEntity
  8
0
  6
SLD-Gestrichelt
 62
     7
370
     0
100
AcDbLine
 10
150.9478259366
 20
119.8079117902
 30
0.0
 11
150.9478259366
 21
117.8478465743
 31
0.0
  0
LINE
  5
169
330
1F
100
AcDbEntity
  8
0
  6
SLD-Gestrichelt
 62
     7
370
     0
100
AcDbLine
 10
161.0478255432
 20
83.8279106982
 30
0.0
 11
161.0478255432
 21
85.5303981669
 31
0.0
  0
LINE
  5
16A
330
1F
100
AcDbEntity
  8
0
  6
SLD-Gestrichelt
 62
     7
370
     0
100
AcDbLine
 10
152.0978249143
 20
83.8279106982
 30
0.0
 11
152.0978249143
 21
86.0164200284
 31
0.0
  0
LINE
  5
16B
330
1F
100
AcDbEntity
  8
0
  6
SLD-Gestrichelt
 62
     7
370
     0
100
AcDbLine
 10
152.0978249143
 20
119.8079117902
 30
0.0
 11
152.0978249143
 21
117.61940246
 31
0.0
  0
LINE
  5
16C
330
1F
100
AcDbEntity
  8
0
  6
SLD-Gestrichelt
 62
     7
370
     0
100
AcDbLine
 10
157.0478248875
 20
119.8079117902
 30
0.0
 11
157.0478248875
 21
118.1054243214
 31
0.0
  0
LINE
  5
16D
330
1F
100
AcDbEntity
  8
0
  6
SLD-Gestrichelt
 62
     7
370
     0
100
AcDbLine
 10
212.9478249233
 20
102.727269158
 30
0.0
 11
212.9478249233
 21
97.6179113939
 31
0.0
  0
LWPOLYLINE
  5
16E
330
1F
100
AcDbEntity
  8
0
  6
SLD-Gestrichelt
 62
     7
370
     0
100
AcDbPolyline
 90
       28
 70
   128
 43
0.0
 10
171.0078380536
 20
78.7502487518
 10
171.1916829925
 20
78.7684393443
 10
171.8406015541
 20
78.8129025467
 10
172.5280461367
 20
78.8347029455
 10
173.8454866688
 20
78.810307882
 10
175.0235426705
 20
78.6986199535
 10
175.7521414663
 20
78.5988622673
 10
176.4914765488
 20
78.4698293872
 10
177.0172267686
 20
78.359940774
 10
177.3598961997
 20
78.2812738188
 10
177.5978109333
 20
78.2176123329
 10
177.5964372325
 20
78.2179792739
 10
177.3677994031
 20
78.2790256061
 10
177.0306881051
 20
78.3567109473
 10
176.5119968447
 20
78.4657110788
 10
175.7702203001
 20
78.5958168425
 10
175.0400112476
 20
78.6963959552
 10
173.8685909193
 20
78.8089742281
 10
172.5470106583
 20
78.8350568481
 10
171.8584680464
 20
78.8138934739
 10
171.2083415594
 20
78.7699238725
 10
170.6276954617
 20
78.71294742
 10
170.2917180489
 20
78.6721852936
 10
170.0978455599
 20
78.6392965682
 10
170.0988541823
 20
78.6394679315
 10
170.2868444379
 20
78.6713452406
 10
170.6188320648
 20
78.7117627777
 10
171.0078380536
 20
78.7502487518
  0
LWPOLYLINE
  5
16F
330
1F
100
AcDbEntity
  8
0
  6
SLD-Gestrichelt
 62
     7
370
     0
100
AcDbPolyline
 90
       41
 70
   128
 43
0.0
 10
171.8226819764
 20
124.8233166851
 10
171.1916801985
 20
124.8673142262
 10
170.6185591872
 20
124.9239758916
 10
170.2867568936
 20
124.9643878408
 10
170.134602068
 20
124.9885519363
 10
170.0984946917
 20
124.9963247545
 10
170.0978381093
 20
124.9964663155
 10
170.1366155874
 20
124.9881570555
 10
170.2908053528
 20
124.9636446454
 10
170.6262332853
 20
124.9229234971
 10
170.8823022898
 20
124.8964869745
 10
171.2064081337
 20
124.8659991987
 10
171.8570859637
 20
124.8220128335
 10
172.5464537274
 20
124.8008252449
 10
173.0043058749
 20
124.7993667938
 10
173.4481509309
 20
124.8080411322
 10
173.8699003588
 20
124.8268482603
 10
174.3932123761
 20
124.8682120211
 10
175.0382617581
 20
124.9390372403
 10
175.7666319143
 20
125.0393183298
 10
176.141302986
 20
125.1005080856
 10
176.5070557128
 20
125.1690608777
 10
177.028333256
 20
125.2784521647
 10
177.3669970687
 20
125.3564318039
 10
177.5465281214
 20
125.4030016579
 10
177.5970165152
 20
125.4179288961
 10
177.5978067424
 20
125.4181617267
 10
177.5348232593
 20
125.40068639
 10
177.3302466143
 20
125.3494301207
 10
177.1021536085
 20
125.2964956082
 10
176.8640847411
 20
125.2435014911
 10
176.5622053761
 20
125.1795661964
 10
176.2205305975
 20
125.1136117943
 10
175.8784902747
 20
125.0540108748
 10
175.5623844918
 20
125.0044496126
 10
175.2816033084
 20
124.9646374352
 10
174.5308739598
 20
124.8794810243
 10
173.7985191401
 20
124.8244081952
 10
173.1153949629
 20
124.7994208105
 10
172.4790371488
 20
124.8006855465
 10
171.8226819764
 20
124.8233166851
  0
LINE
  5
170
330
1F
100
AcDbEntity
  8
0
  6
SLD-Gestrichelt
 62
     7
370
     0
100
AcDbLine
 10
212.9478249233
 20
100.9085533304
 30
0.0
 11
212.9478249233
 21
106.0179110944
 31
0.0
  0
LINE
  5
171
330
1F
100
AcDbEntity
  8
0
  6
SLD-Gestrichelt
 62
     7
370
     0
100
AcDbLine
 10
204.6478259842
 20
97.6179113939
 30
0.0
 11
204.6478259842
 21
106.0179110944
 31
0.0
  0
LINE
  5
172
330
1F
100
AcDbEntity
  8
0
  6
SLD-Gestrichelt
 62
     7
370
     0
100
AcDbLine
 10
243.0112640839
 20
140.7119238146
 30
0.0
 11
243.0493998807
 21
140.7357507713
 31
0.0
  0
LINE
  5
173
330
1F
100
AcDbEntity
  8
0
  6
SLD-Gestrichelt
 62
     7
370
     0
100
AcDbLine
 10
243.0493998807
 20
140.7357507713
 30
0.0
 11
242.6521982532
 21
133.1566662855
 31
0.0
  0
LINE
  5
174
330
1F
100
AcDbEntity
  8
0
  6
SLD-Gestrichelt
 62
     7
370
     0
100
AcDbLine
 10
242.6521982532
 20
133.1566662855
 30
0.0
 11
242.6140624564
 21
133.1328393288
 31
0.0
  0
LINE
  5
175
330
1F
100
AcDbEntity
  8
0
  6
SLD-Gestrichelt
 62
     7
370
     0
100
AcDbLine
 10
242.9068702738
 20
129.739492885
 30
0.0
 11
252.0361002069
 21
135.4440690346
 31
0.0
  0
LINE
  5
176
330
1F
100
AcDbEntity
  8
0
  6
SLD-Gestrichelt
 62
     7
370
     0
100
AcDbLine
 10
252.0361002069
 20
135.4440690346
 30
0.0
 11
252.0337458234
 21
135.3991643853
 31
0.0
  0
LINE
  5
177
330
1F
100
AcDbEntity
  8
0
  6
SLD-Gestrichelt
 62
     7
370
     0
100
AcDbLine
 10
250.6353016477
 20
108.7152373374
 30
0.0
 11
247.4710326176
 21
109.8047827698
 31
0.0
  0
LINE
  5
178
330
1F
100
AcDbEntity
  8
0
  6
SLD-Gestrichelt
 62
     7
370
     0
100
AcDbLine
 10
242.5780388992
 20
129.8482005812
 30
0.0
 11
251.7772819381
 21
135.5965228148
 31
0.0
  0
LINE
  5
179
330
1F
100
AcDbEntity
  8
0
  6
SLD-Gestrichelt
 62
     7
370
     0
100
AcDbLine
 10
252.0361002069
 20
135.4440690346
 30
0.0
 11
251.7772819381
 21
135.5965228148
 31
0.0
  0
LINE
  5
17A
330
1F
100
AcDbEntity
  8
0
  6
SLD-Gestrichelt
 62
     7
370
     0
100
AcDbLine
 10
242.6521982532
 20
133.1566662855
 30
0.0
 11
242.9110165219
 21
133.0042125054
 31
0.0
  0
LINE
  5
17B
330
1F
100
AcDbEntity
  8
0
  6
SLD-Gestrichelt
 62
     7
370
     0
100
AcDbLine
 10
243.3082181494
 20
140.5832969911
 30
0.0
 11
243.0493998807
 21
140.7357507713
 31
0.0
  0
LINE
  5
17C
330
1F
100
AcDbEntity
  8
0
  6
SLD-Gestrichelt
 62
     7
370
     0
100
AcDbLine
 10
243.3082181494
 20
140.5832969911
 30
0.0
 11
242.9110165219
 21
133.0042125054
 31
0.0
  0
LINE
  5
17D
330
1F
100
AcDbEntity
  8
0
  6
SLD-Gestrichelt
 62
     7
370
     0
100
AcDbLine
 10
242.5970378797
 20
132.8080182292
 30
0.0
 11
242.9110165219
 21
133.0042125054
 31
0.0
  0
LWPOLYLINE
  5
17E
330
1F
100
AcDbEntity
  8
0
  6
SLD-Gestrichelt
 62
     7
370
     0
100
AcDbPolyline
 90
        6
 70
   128
 43
0.0
 10
227.5409195106
 20
127.41255363
 10
226.5055533033
 20
127.6633047827
 10
225.7281485479
 20
128.0791347243
 10
225.4037837963
 20
128.4884621717
 10
225.2717855852
 20
129.0179693468
 10
225.3453339915
 20
129.6730243929
  0
ELLIPSE
  5
17F
330
1F
100
AcDbEntity
  8
0
  6
SLD-Gestrichelt
 62
     7
370
     0
100
AcDbEllipse
 10
245.8507087124
 20
101.8179112442
 30
0.0
 11
18.79059593978305
 21
26.43319198626121
 31
0.0
210
0.0
220
0.0
230
1.0
 40
0.1000778042
 41
1.641819099524553
 42
3.201294429778303
  0
LINE
  5
180
330
1F
100
AcDbEntity
  8
0
  6
SLD-Gestrichelt
 62
     7
370
     0
100
AcDbLine
 10
224.9465230386
 20
75.3196102895
 30
0.0
 11
224.9465230386
 21
101.8179112442
 31
0.0
  0
LINE
  5
181
330
1F
100
AcDbEntity
  8
0
  6
SLD-Gestrichelt
 62
     7
370
     0
100
AcDbLine
 10
187.7978257369
 20
75.4179113872
 30
0.0
 11
195.7978261169
 21
75.4179113872
 31
0.0
  0
LINE
  5
182
330
1F
100
AcDbEntity
  8
0
  6
SLD-Gestrichelt
 62
     7
370
     0
100
AcDbLine
 10
251.7772819381
 20
135.5965228148
 30
0.0
 11
251.5866066794
 21
135.4773768552
 31
0.0
  0
LINE
  5
183
330
1F
100
AcDbEntity
  8
0
  6
SLD-Gestrichelt
 62
     7
370
     0
100
AcDbLine
 10
243.2964499574
 20
140.3587662943
 30
0.0
 11
243.3082181494
 21
140.5832969911
 31
0.0
  0
LINE
  5
184
330
1F
100
AcDbEntity
  8
0
  6
SLD-Gestrichelt
 62
     7
370
     0
100
AcDbLine
 10
251.6962792258
 20
145.6075624891
 30
0.0
 11
250.7904972415
 21
144.0698483355
 31
0.0
  0
LINE
  5
185
330
1F
100
AcDbEntity
  8
0
  6
SLD-Gestrichelt
 62
     7
370
     0
100
AcDbLine
 10
251.0619442444
 20
143.5962968834
 30
0.0
 11
252.1048914175
 21
145.3668714829
 31
0.0
  0
CIRCLE
  5
186
330
1F
100
AcDbEntity
  8
0
  6
SLD-Gestrichelt
 62
     7
370
     0
100
AcDbCircle
 10
247.5876192589
 20
138.1669179086
 30
0.0
 40
2.400000000000034
  0
LINE
  5
187
330
1F
100
AcDbEntity
  8
0
  6
SLD-Gestrichelt
 62
     7
370
     0
100
AcDbLine
 10
252.1048914175
 20
145.3668714829
 30
0.0
 11
251.6962792258
 21
145.6075624891
 31
0.0
  0
LINE
  5
188
330
1F
100
AcDbEntity
  8
0
  6
SLD-Gestrichelt
 62
     7
370
     0
100
AcDbLine
 10
242.9110165219
 20
133.0042125054
 30
0.0
 11
240.7924215775
 21
131.6803691305
 31
0.0
  0
ARC
  5
189
330
1F
100
AcDbEntity
  8
0
  6
SLD-Gestrichelt
 62
     7
370
     0
100
AcDbCircle
 10
241.4548224566
 20
130.6203091748
 30
0.0
 40
1.249999999999988
100
AcDbArc
 50
122.0
 51
302.0
  0
LINE
  5
18A
330
1F
100
AcDbEntity
  8
0
  6
SLD-Gestrichelt
 62
     7
370
     0
100
AcDbLine
 10
243.2964499574
 20
140.3587662943
 30
0.0
 11
242.9110165219
 21
133.0042125054
 31
0.0
  0
LINE
  5
18B
330
1F
100
AcDbEntity
  8
0
  6
SLD-Gestrichelt
 62
     7
370
     0
100
AcDbLine
 10
242.1172204893
 20
129.5602486797
 30
0.0
 11
251.5866066794
 21
135.4773768552
 31
0.0
  0
LINE
  5
18C
330
1F
100
AcDbEntity
  8
0
  6
SLD-Gestrichelt
 62
     7
370
     0
100
AcDbLine
 10
243.2964499574
 20
140.3587662943
 30
0.0
 11
251.6962792258
 21
145.6075624891
 31
0.0
  0
LINE
  5
18D
330
1F
100
AcDbEntity
  8
0
  6
SLD-Gestrichelt
 62
     7
370
     0
100
AcDbLine
 10
252.1048914175
 20
145.3668714829
 30
0.0
 11
251.5866066794
 21
135.4773768552
 31
0.0
  0
CIRCLE
  5
18E
330
1F
100
AcDbEntity
  8
0
  6
SLD-Gestrichelt
 62
     7
370
     0
100
AcDbCircle
 10
247.5876192589
 20
138.1669179086
 30
0.0
 40
1.650000000000034
  0
LINE
  5
18F
330
1F
100
AcDbEntity
  8
0
  6
SLD-Gestrichelt
 62
     7
370
     0
100
AcDbLine
 10
157.0478248875
 20
119.8079117902
 30
0.0
 11
157.0478248875
 21
123.6620189019
 31
0.0
  0
LINE
  5
190
330
1F
100
AcDbEntity
  8
0
  6
SLD-Gestrichelt
 62
     7
370
     0
100
AcDbLine
 10
161.0478255432
 20
83.8279106982
 30
0.0
 11
161.0478255432
 21
79.8727625377
 31
0.0
  0
LINE
  5
191
330
1F
100
AcDbEntity
  8
0
  6
SLD-Gestrichelt
 62
     7
370
     0
100
AcDbLine
 10
152.0978249143
 20
119.8079117902
 30
0.0
 11
152.0978249143
 21
122.6878499009
 31
0.0
  0
LINE
  5
192
330
1F
100
AcDbEntity
  8
0
  6
SLD-Gestrichelt
 62
     7
370
     0
100
AcDbLine
 10
150.9478259366
 20
117.8478465743
 30
0.0
 11
150.9478259366
 21
85.787975914
 31
0.0
  0
LINE
  5
193
330
1F
100
AcDbEntity
  8
0
  6
SLD-Gestrichelt
 62
     7
370
     0
100
AcDbLine
 10
152.0877815317
 20
122.6778642602
 30
0.0
 11
151.7719793599
 21
122.2080306478
 31
0.0
  0
LINE
  5
194
330
1F
100
AcDbEntity
  8
0
  6
SLD-Gestrichelt
 62
     7
370
     0
100
AcDbLine
 10
150.9478259366
 20
119.8079117902
 30
0.0
 11
150.9478259366
 21
121.5085887678
 31
0.0
  0
LWPOLYLINE
  5
195
330
1F
100
AcDbEntity
  8
0
  6
SLD-Gestrichelt
 62
     7
370
     0
100
AcDbPolyline
 90
        3
 70
   128
 43
0.0
 10
151.0104890447
 20
121.4924638487
 10
150.9689818602
 20
121.5549891211
 10
150.9478259366
 20
121.5085887678
  0
LINE
  5
196
330
1F
100
AcDbEntity
  8
0
  6
SLD-Gestrichelt
 62
     7
370
     0
100
AcDbLine
 10
152.0978249143
 20
83.8279106982
 30
0.0
 11
152.0978249143
 21
81.0112801708
 31
0.0
  0
LINE
  5
197
330
1F
100
AcDbEntity
  8
0
  6
SLD-Gestrichelt
 62
     7
370
     0
100
AcDbLine
 10
151.8867350649
 20
81.3739893354
 30
0.0
 11
152.0877815317
 21
81.023094929
 31
0.0
  0
LWPOLYLINE
  5
198
330
1F
100
AcDbEntity
  8
0
  6
SLD-Gestrichelt
 62
     7
370
     0
100
AcDbPolyline
 90
        3
 70
   128
 43
0.0
 10
150.9478259366
 20
82.1647511192
 10
150.9671490173
 20
82.171691335
 10
150.9781050961
 20
82.2278240092
  0
LINE
  5
199
330
1F
100
AcDbEntity
  8
0
  6
SLD-Gestrichelt
 62
     7
370
     0
100
AcDbLine
 10
150.9478259366
 20
83.8279106982
 30
0.0
 11
150.9478259366
 21
82.1647511192
 31
0.0
  0
ARC
  5
19A
330
1F
100
AcDbEntity
  8
0
  6
SLD-Gestrichelt
 62
     7
370
     0
100
AcDbCircle
 10
199.7836994676
 20
128.9331738037
 30
0.0
 40
0.8458850511768495
100
AcDbArc
 50
179.7025931636
 51
237.7340325855
  0
LINE
  5
19B
330
1F
100
AcDbEntity
  8
0
  6
SLD-Gestrichelt
 62
     7
370
     0
100
AcDbLine
 10
198.937825812
 20
128.9375645436
 30
0.0
 11
198.937825812
 21
75.0135162242
 31
0.0
  0
ARC
  5
19C
330
1F
100
AcDbEntity
  8
0
  6
SLD-Gestrichelt
 62
     7
370
     0
100
AcDbCircle
 10
199.8219468941
 20
75.0139643113
 30
0.0
 40
0.8841211956749518
100
AcDbArc
 50
152.8133250666
 51
180.0290384411
  0
LINE
  5
19D
330
1F
100
AcDbEntity
  8
0
  6
SLD-Gestrichelt
 62
     7
370
     0
100
AcDbLine
 10
199.3321235757
 20
128.2179111011
 30
0.0
 11
199.7378263157
 21
128.2179111011
 31
0.0
  0
LINE
  5
19E
330
1F
100
AcDbEntity
  8
0
  6
SLD-Gestrichelt
 62
     7
370
     0
100
AcDbLine
 10
199.035501061
 20
75.4179113872
 30
0.0
 11
199.7378263157
 21
75.4179113872
 31
0.0
  0
LINE
  5
19F
330
1F
100
AcDbEntity
  8
0
  6
SLD-Gestrichelt
 62
     7
370
     0
100
AcDbLine
 10
202.7578260284
 20
128.9375645436
 30
0.0
 11
202.7578260284
 21
75.0135162242
 31
0.0
  0
ARC
  5
1A0
330
1F
100
AcDbEntity
  8
0
  6
SLD-Gestrichelt
 62
     7
370
     0
100
AcDbCircle
 10
201.9169967551
 20
128.9304099891
 30
0.0
 40
0.8408597114901676
100
AcDbArc
 50
302.075860438
 51
0.4875138129
  0
ARC
  5
1A1
330
1F
100
AcDbEntity
  8
0
  6
SLD-Gestrichelt
 62
     7
370
     0
100
AcDbCircle
 10
201.8776943245
 20
75.0149278825
 30
0.0
 40
0.8801328359032539
100
AcDbArc
 50
359.9081023991
 51
27.2495340932
  0
LINE
  5
1A2
330
1F
100
AcDbEntity
  8
0
  6
SLD-Gestrichelt
 62
     7
370
     0
100
AcDbLine
 10
201.9578255247
 20
128.2179111011
 30
0.0
 11
202.3635282647
 21
128.2179111011
 31
0.0
  0
LINE
  5
1A3
330
1F
100
AcDbEntity
  8
0
  6
SLD-Gestrichelt
 62
     7
370
     0
100
AcDbLine
 10
201.9578255247
 20
75.4179113872
 30
0.0
 11
202.6601507794
 21
75.4179113872
 31
0.0
  0
LINE
  5
1A4
330
1F
100
AcDbEntity
  8
0
  6
SLD-Gestrichelt
 62
     7
370
     0
100
AcDbLine
 10
199.7378263157
 20
128.2179111011
 30
0.0
 11
201.9578255247
 21
128.2179111011
 31
0.0
  0
LINE
  5
1A5
330
1F
100
AcDbEntity
  8
0
  6
SLD-Gestrichelt
 62
     7
370
     0
100
AcDbLine
 10
199.7378263157
 20
75.4179113872
 30
0.0
 11
201.9578255247
 21
75.4179113872
 31
0.0
  0
LWPOLYLINE
  5
1A6
330
1F
100
AcDbEntity
  8
0
  6
SLD-Gestrichelt
 62
     7
370
     0
100
AcDbPolyline
 90
        3
 70
   128
 43
0.0
 10
197.4558932241
 20
132.2851066805
 10
197.4638970103
 20
132.2707736261
 10
198.937825812
 20
129.6231446184
  0
LWPOLYLINE
  5
1A7
330
1F
100
AcDbEntity
  8
0
  6
SLD-Gestrichelt
 62
     7
370
     0
100
AcDbPolyline
 90
        3
 70
   128
 43
0.0
 10
202.7578260284
 20
129.6231446184
 10
204.2317538987
 20
132.2707736261
 10
204.239757685
 20
132.2851066805
  0
LINE
  5
1A8
330
1F
100
AcDbEntity
  8
0
  6
SLD-Gestrichelt
 62
     7
370
     0
100
AcDbLine
 10
204.239757685
 20
132.2851066805
 30
0.0
 11
208.197826473
 21
132.2851066805
 31
0.0
  0
ARC
  5
1A9
330
1F
100
AcDbEntity
  8
0
  6
SLD-Gestrichelt
 62
     7
370
     0
100
AcDbCircle
 10
208.1882666473
 20
131.6755205269
 30
0.0
 40
0.6096611099671669
100
AcDbArc
 50
358.9503492893
 51
89.1015334537
  0
ARC
  5
1AA
330
1F
100
AcDbEntity
  8
0
  6
SLD-Gestrichelt
 62
     7
370
     0
100
AcDbCircle
 10
208.1837026587
 20
72.2450822626
 30
0.0
 40
0.6142510510424941
100
AcDbArc
 50
271.317549681
 51
1.1708762429
  0
LINE
  5
1AB
330
1F
100
AcDbEntity
  8
0
  6
SLD-Gestrichelt
 62
     7
370
     0
100
AcDbLine
 10
208.7978254538
 20
131.6643522449
 30
0.0
 11
208.7978254538
 21
72.2576340057
 31
0.0
  0
LINE
  5
1AC
330
1F
100
AcDbEntity
  8
0
  6
SLD-Gestrichelt
 62
     7
370
     0
100
AcDbLine
 10
204.239757685
 20
132.2851066805
 30
0.0
 11
204.239757685
 21
71.6309936114
 31
0.0
  0
LINE
  5
1AD
330
1F
100
AcDbEntity
  8
0
  6
SLD-Gestrichelt
 62
     7
370
     0
100
AcDbLine
 10
202.7578260284
 20
129.6231446184
 30
0.0
 11
202.7578260284
 21
74.3200739242
 31
0.0
  0
LINE
  5
1AE
330
1F
100
AcDbEntity
  8
0
  6
SLD-Gestrichelt
 62
     7
370
     0
100
AcDbLine
 10
198.937825812
 20
129.6231446184
 30
0.0
 11
198.937825812
 21
74.3200739242
 31
0.0
  0
LWPOLYLINE
  5
1AF
330
1F
100
AcDbEntity
  8
0
  6
SLD-Gestrichelt
 62
     7
370
     0
100
AcDbPolyline
 90
       12
 70
   128
 43
0.0
 10
151.7719793599
 20
122.2080306478
 10
151.7061199527
 20
122.0232264467
 10
151.5916864853
 20
121.7597310759
 10
151.4623518567
 20
121.5265539803
 10
151.3878050726
 20
121.4199678369
 10
151.3490583282
 20
121.3729677118
 10
151.3050067704
 20
121.3272285976
 10
151.266055135
 20
121.2944497682
 10
151.2294355314
 20
121.2712691493
 10
151.18315625
 20
121.2549169876
 10
151.1027160566
 20
121.2769781567
 10
151.0104890447
 20
121.4924638487
  0
LWPOLYLINE
  5
1B0
330
1F
100
AcDbEntity
  8
0
  6
SLD-Gestrichelt
 62
     7
370
     0
100
AcDbPolyline
 90
       12
 70
   128
 43
0.0
 10
150.9781050961
 20
82.2278240092
 10
151.0628479998
 20
82.5533734031
 10
151.1138919275
 20
82.5994235791
 10
151.1809397023
 20
82.6050804324
 10
151.2154284399
 20
82.5928130515
 10
151.2602101545
 20
82.565793521
 10
151.2975673657
 20
82.5353578992
 10
151.3360272627
 20
82.4976467855
 10
151.3859834056
 20
82.4401581056
 10
151.4602992218
 20
82.3388097204
 10
151.6206245403
 20
82.0607298382
 10
151.8867350649
 20
81.3739893354
  0
LINE
  5
1B1
330
1F
100
AcDbEntity
  8
0
  6
SLD-Gestrichelt
 62
     7
370
     0
100
AcDbLine
 10
150.9478259366
 20
121.5085887678
 30
0.0
 11
150.9478259366
 21
82.1647511192
 31
0.0
  0
LINE
  5
1B2
330
1F
100
AcDbEntity
  8
0
  6
SLD-Gestrichelt
 62
     7
370
     0
100
AcDbLine
 10
197.4558932241
 20
71.6309936114
 30
0.0
 11
198.937825812
 21
74.3200739242
 31
0.0
  0
LINE
  5
1B3
330
1F
100
AcDbEntity
  8
0
  6
SLD-Gestrichelt
 62
     7
370
     0
100
AcDbLine
 10
202.7578260284
 20
74.3200739242
 30
0.0
 11
204.239757685
 21
71.6309936114
 31
0.0
  0
LINE
  5
1B4
330
1F
100
AcDbEntity
  8
0
  6
SLD-Gestrichelt
 62
     7
370
     0
100
AcDbLine
 10
204.239757685
 20
71.6309936114
 30
0.0
 11
208.197826473
 21
71.6309936114
 31
0.0
  0
LWPOLYLINE
  5
1B5
330
1F
100
AcDbEntity
  8
0
  6
SLD-Gestrichelt
 62
     7
370
     0
100
AcDbPolyline
 90
       29
 70
   128
 43
0.0
 10
212.8478250932
 20
89.4466058679
 10
213.5153878014
 20
89.3972597413
 10
214.1494769137
 20
89.2516958855
 10
214.7182952147
 20
89.0172121443
 10
215.1933218818
 20
88.7055673964
 10
215.5507336836
 20
88.3323892348
 10
215.7726082485
 20
87.9163897924
 10
215.8478255849
 20
87.4784288324
 10
215.7726082485
 20
87.0404688038
 10
215.5507336836
 20
86.6244693615
 10
215.1933218818
 20
86.2512911998
 10
214.7182952147
 20
85.9396455206
 10
214.1494769137
 20
85.7051627107
 10
213.5153878014
 20
85.5595988549
 10
212.8478250932
 20
85.510251797
 10
212.1802623849
 20
85.5595988549
 10
211.5461751353
 20
85.7051627107
 10
210.9773568343
 20
85.9396455206
 10
210.5023320298
 20
86.2512911998
 10
210.1449183654
 20
86.6244693615
 10
209.9230419378
 20
87.0404688038
 10
209.8478264641
 20
87.4784288324
 10
209.9230419378
 20
87.9163897924
 10
210.1449183654
 20
88.3323892348
 10
210.5023320298
 20
88.7055673964
 10
210.9773568343
 20
89.0172121443
 10
211.5461751353
 20
89.2516958855
 10
212.1802623849
 20
89.3972597413
 10
212.8478250932
 20
89.4466058679
  0
ELLIPSE
  5
1B6
330
1F
100
AcDbEntity
  8
0
  6
SLD-Gestrichelt
 62
     7
370
     0
100
AcDbEllipse
 10
297.5584029571
 20
119.8179112442
 30
0.0
 11
46.96552170164374
 21
-25.80784456815195
 31
0.0
210
0.0
220
0.0
230
1.0
 40
0.1281167984
 41
3.327408704162975
 42
3.369723074502919
  0
ELLIPSE
  5
1B7
330
1F
100
AcDbEntity
  8
0
  6
SLD-Gestrichelt
 62
     7
370
     0
100
AcDbEllipse
 10
209.5043456364
 20
119.8179112442
 30
0.0
 11
42.81746813853042
 21
26.35630357298639
 31
0.0
210
0.0
220
0.0
230
1.0
 40
0.0643650922
 41
5.107241431347397
 42
5.972498687821369
  0
ARC
  5
1B8
330
1F
100
AcDbEntity
  8
0
  6
SLD-Gestrichelt
 62
     7
370
     0
100
AcDbCircle
 10
-230.7713816578
 20
188.4711293354
 30
0.0
 40
462.3616712806211
100
AcDbArc
 50
351.4609291155
 51
352.4114652434
  0
ELLIPSE
  5
1B9
330
1F
100
AcDbEntity
  8
0
  6
SLD-Gestrichelt
 62
     7
370
     0
100
AcDbEllipse
 10
251.254053304
 20
119.8179112442
 30
0.0
 11
1.4100334363103
 21
26.49943604104728
 31
0.0
210
0.0
220
0.0
230
1.0
 40
0.1226111485
 41
0.4637115385941721
 42
1.577320366248773
  0
CIRCLE
  5
1BA
330
1F
100
AcDbEntity
  8
0
  6
SLD-Gestrichelt
 62
     7
370
     0
100
AcDbCircle
 10
247.5876192589
 20
138.1669179086
 30
0.0
 40
1.650000000000034
  0
CIRCLE
  5
1BB
330
1F
100
AcDbEntity
  8
0
  6
SLD-Gestrichelt
 62
     7
370
     0
100
AcDbCircle
 10
189.8478257637
 20
101.8179112442
 30
0.0
 40
5.000000000000014
  0
LWPOLYLINE
  5
1BC
330
1F
100
AcDbEntity
  8
0
  6
SLD-Gestrichelt
 62
     7
370
     0
100
AcDbPolyline
 90
        3
 70
   128
 43
0.0
 10
226.4649364631
 20
119.8179104693
 10
225.5511264782
 20
112.6404085524
 10
225.0464241486
 20
105.4013117544
  0
LINE
  5
1BD
330
1F
100
AcDbEntity
  8
0
  6
SLD-Gestrichelt
 62
     7
370
     0
100
AcDbLine
 10
247.4710326176
 20
109.8047827698
 30
0.0
 11
241.8785634916
 21
101.8179112442
 31
0.0
  0
LINE
  5
1BE
330
1F
100
AcDbEntity
  8
0
  6
SLD-Gestrichelt
 62
     7
370
     0
100
AcDbLine
 10
247.9957993608
 20
119.8179104693
 30
0.0
 11
247.4710326176
 21
109.8047827698
 31
0.0
  0
LINE
  5
1BF
330
1F
100
AcDbEntity
  8
0
  6
SLD-Gestrichelt
 62
     7
370
     0
100
AcDbLine
 10
224.9465230386
 20
101.8179112442
 30
0.0
 11
225.0464241486
 21
105.4013117544
 31
0.0
  0
LINE
  5
1C0
330
1F
100
AcDbEntity
  8
0
  6
SLD-Gestrichelt
 62
     7
370
     0
100
AcDbLine
 10
182.8478257637
 20
76.493987567
 30
0.0
 11
182.9419866015
 21
77.1639773019
 31
0.0
  0
LINE
  5
1C1
330
1F
100
AcDbEntity
  8
0
  6
SLD-Gestrichelt
 62
     7
370
     0
100
AcDbLine
 10
182.9419866015
 20
126.4718451865
 30
0.0
 11
182.8478257637
 21
127.1418349214
 31
0.0
  0
ARC
  5
1C2
330
1F
100
AcDbEntity
  8
0
  6
SLD-Gestrichelt
 62
     7
370
     0
100
AcDbCircle
 10
182.3478257637
 20
77.2474803825
 30
0.0
 40
0.6000000000000172
100
AcDbArc
 50
352.0
 51
0.0
  0
ARC
  5
1C3
330
1F
100
AcDbEntity
  8
0
  6
SLD-Gestrichelt
 62
     7
370
     0
100
AcDbCircle
 10
182.3478257637
 20
77.2474803825
 30
0.0
 40
0.6000000000000019
100
AcDbArc
 50
0.0
 51
33.5573097619
  0
ARC
  5
1C4
330
1F
100
AcDbEntity
  8
0
  6
SLD-Gestrichelt
 62
     7
370
     0
100
AcDbCircle
 10
182.3478257637
 20
126.3883421059
 30
0.0
 40
0.6000000000000152
100
AcDbArc
 50
348.75
 51
8.0
  0
LWPOLYLINE
  5
1C5
330
1F
100
AcDbEntity
  8
0
  6
SLD-Gestrichelt
 62
     7
370
     0
100
AcDbPolyline
 90
        3
 70
   128
 43
0.0
 10
182.9362969336
 20
126.2712885953
 10
182.9021534838
 20
126.1587326743
 10
182.8478257637
 20
126.0566802092
  0
LINE
  5
1C6
330
1F
100
AcDbEntity
  8
0
  6
SLD-Gestrichelt
 62
     7
370
     0
100
AcDbLine
 10
182.9478257612
 20
77.2474796839
 30
0.0
 11
182.9478257612
 21
126.3883428045
 31
0.0
  0
LINE
  5
1C7
330
1F
100
AcDbEntity
  8
0
  6
SLD-Gestrichelt
 62
     7
370
     0
100
AcDbLine
 10
182.9478257612
 20
77.2474796839
 30
0.0
 11
182.9478257612
 21
126.3883428045
 31
0.0
  0
ARC
  5
1C8
330
1F
100
AcDbEntity
  8
0
  6
SLD-Gestrichelt
 62
     7
370
     0
100
AcDbCircle
 10
165.930261329
 20
82.4179112442
 30
0.0
 40
0.6000000000000155
100
AcDbArc
 50
210.0
 51
270.0
  0
ARC
  5
1C9
330
1F
100
AcDbEntity
  8
0
  6
SLD-Gestrichelt
 62
     7
370
     0
100
AcDbCircle
 10
165.930261329
 20
121.2179112442
 30
0.0
 40
0.6000000000000155
100
AcDbArc
 50
90.0
 51
150.0
  0
ARC
  5
1CA
330
1F
100
AcDbEntity
  8
0
  6
SLD-Gestrichelt
 62
     7
370
     0
100
AcDbCircle
 10
176.6028277653
 20
89.8179112442
 30
0.0
 40
7.999999999999993
100
AcDbArc
 50
276.8739769364
 51
321.3178125465
  0
ARC
  5
1CB
330
1F
100
AcDbEntity
  8
0
  6
SLD-Gestrichelt
 62
     7
370
     0
100
AcDbCircle
 10
176.6028277653
 20
113.8179112442
 30
0.0
 40
8.0
100
AcDbArc
 50
38.6821874535
 51
83.1190973658
  0
LINE
  5
1CC
330
1F
100
AcDbEntity
  8
0
  6
SLD-Gestrichelt
 62
     7
370
     0
100
AcDbLine
 10
165.9302617889
 20
81.8179116912
 30
0.0
 11
170.121933287
 21
81.8179116912
 31
0.0
  0
LINE
  5
1CD
330
1F
100
AcDbEntity
  8
0
  6
SLD-Gestrichelt
 62
     7
370
     0
100
AcDbLine
 10
170.121933287
 20
121.8179107971
 30
0.0
 11
165.9302617889
 21
121.8179107971
 31
0.0
  0
LINE
  5
1CE
330
1F
100
AcDbEntity
  8
0
  6
SLD-Gestrichelt
 62
     7
370
     0
100
AcDbLine
 10
165.4106452595
 20
121.5179113068
 30
0.0
 11
163.8518012594
 21
118.8179121681
 31
0.0
  0
LINE
  5
1CF
330
1F
100
AcDbEntity
  8
0
  6
SLD-Gestrichelt
 62
     7
370
     0
100
AcDbLine
 10
163.8518012594
 20
84.8179103203
 30
0.0
 11
165.4106452595
 21
82.1179111816
 31
0.0
  0
ARC
  5
1D0
330
1F
100
AcDbEntity
  8
0
  6
SLD-Gestrichelt
 62
     7
370
     0
100
AcDbCircle
 10
191.2978257637
 20
86.0929112442
 30
0.0
 40
1.500000000000001
100
AcDbArc
 50
238.2116693829
 51
0.0
  0
ARC
  5
1D1
330
1F
100
AcDbEntity
  8
0
  6
SLD-Gestrichelt
 62
     7
370
     0
100
AcDbCircle
 10
191.2978257637
 20
117.5429112442
 30
0.0
 40
1.500000000000001
100
AcDbArc
 50
0.0
 51
121.7883306171
  0
LINE
  5
1D2
330
1F
100
AcDbEntity
  8
0
  6
SLD-Gestrichelt
 62
     7
370
     0
100
AcDbLine
 10
182.8478257637
 20
84.8179103203
 30
0.0
 11
190.5076517257
 21
84.8179103203
 31
0.0
  0
LINE
  5
1D3
330
1F
100
AcDbEntity
  8
0
  6
SLD-Gestrichelt
 62
     7
370
     0
100
AcDbLine
 10
190.5076517257
 20
118.8179121681
 30
0.0
 11
182.8478257637
 21
118.8179121681
 31
0.0
  0
LINE
  5
1D4
330
1F
100
AcDbEntity
  8
0
  6
SLD-Gestrichelt
 62
     7
370
     0
100
AcDbLine
 10
161.0478255432
 20
84.8179103203
 30
0.0
 11
163.8518012594
 21
84.8179103203
 31
0.0
  0
LINE
  5
1D5
330
1F
100
AcDbEntity
  8
0
  6
SLD-Gestrichelt
 62
     7
370
     0
100
AcDbLine
 10
163.8518012594
 20
118.8179121681
 30
0.0
 11
157.0478248875
 21
118.8179121681
 31
0.0
  0
LINE
  5
1D6
330
1F
100
AcDbEntity
  8
0
  6
SLD-Gestrichelt
 62
     7
370
     0
100
AcDbLine
 10
209.1165296267
 20
115.4791654415
 30
0.0
 11
209.5614280086
 21
112.9087766029
 31
0.0
  0
LINE
  5
1D7
330
1F
100
AcDbEntity
  8
0
  6
SLD-Gestrichelt
 62
     7
370
     0
100
AcDbLine
 10
209.5614280086
 20
112.9087766029
 30
0.0
 11
211.8239998351
 21
111.9169022284
 31
0.0
  0
LINE
  5
1D8
330
1F
100
AcDbEntity
  8
0
  6
SLD-Gestrichelt
 62
     7
370
     0
100
AcDbLine
 10
217.0035447459
 20
121.9144349314
 30
0.0
 11
209.1704476159
 21
115.7782466479
 31
0.0
  0
LINE
  5
1D9
330
1F
100
AcDbEntity
  8
0
  6
SLD-Gestrichelt
 62
     7
370
     0
100
AcDbLine
 10
215.206542937
 20
114.1552205525
 30
0.0
 11
216.7333308141
 21
115.3512548052
 31
0.0
  0
LINE
  5
1DA
330
1F
100
AcDbEntity
  8
0
  6
SLD-Gestrichelt
 62
     7
370
     0
100
AcDbLine
 10
212.2538387309
 20
111.8421701111
 30
0.0
 11
212.9128928762
 21
112.358450643
 31
0.0
  0
LINE
  5
1DB
330
1F
100
AcDbEntity
  8
0
  6
SLD-Gestrichelt
 62
     7
370
     0
100
AcDbLine
 10
215.3478245716
 20
101.9715426963
 30
0.0
 11
215.3478245716
 21
114.4214055829
 31
0.0
  0
LINE
  5
1DC
330
1F
100
AcDbEntity
  8
0
  6
SLD-Gestrichelt
 62
     7
370
     0
100
AcDbLine
 10
215.3478245716
 20
87.7051667638
 30
0.0
 11
215.3478245716
 21
101.6650753016
 31
0.0
  0
LINE
  5
1DD
330
1F
100
AcDbEntity
  8
0
  6
SLD-Gestrichelt
 62
     7
370
     0
100
AcDbLine
 10
210.3478256147
 20
98.6506312482
 30
0.0
 11
210.3478256147
 21
87.7051667638
 31
0.0
  0
LINE
  5
1DE
330
1F
100
AcDbEntity
  8
0
  6
SLD-Gestrichelt
 62
     7
370
     0
100
AcDbLine
 10
210.3478256147
 20
113.5804222293
 30
0.0
 11
210.3478256147
 21
104.9851912402
 31
0.0
  0
LINE
  5
1DF
330
1F
100
AcDbEntity
  8
0
  6
SLD-Gestrichelt
 62
     7
370
     0
100
AcDbLine
 10
202.1478265058
 20
92.3179115497
 30
0.0
 11
204.6478259842
 21
92.3179115497
 31
0.0
  0
LINE
  5
1E0
330
1F
100
AcDbEntity
  8
0
  6
SLD-Gestrichelt
 62
     7
370
     0
100
AcDbLine
 10
204.6478259842
 20
111.3179109387
 30
0.0
 11
202.1478265058
 21
111.3179109387
 31
0.0
  0
LINE
  5
1E1
330
1F
100
AcDbEntity
  8
0
  6
SLD-Gestrichelt
 62
     7
370
     0
100
AcDbLine
 10
192.7978256251
 20
92.8179116316
 30
0.0
 11
193.2978257071
 21
93.3179107822
 31
0.0
  0
LINE
  5
1E2
330
1F
100
AcDbEntity
  8
0
  6
SLD-Gestrichelt
 62
     7
370
     0
100
AcDbLine
 10
193.2978257071
 20
110.3179117061
 30
0.0
 11
192.7978256251
 21
110.8179108568
 31
0.0
  0
LINE
  5
1E3
330
1F
100
AcDbEntity
  8
0
  6
SLD-Gestrichelt
 62
     7
370
     0
100
AcDbLine
 10
193.2978257071
 20
93.3179107822
 30
0.0
 11
202.1478265058
 21
93.3179107822
 31
0.0
  0
LINE
  5
1E4
330
1F
100
AcDbEntity
  8
0
  6
SLD-Gestrichelt
 62
     7
370
     0
100
AcDbLine
 10
202.1478265058
 20
110.3179117061
 30
0.0
 11
193.2978257071
 21
110.3179117061
 31
0.0
  0
LINE
  5
1E5
330
1F
100
AcDbEntity
  8
0
  6
SLD-Gestrichelt
 62
     7
370
     0
100
AcDbLine
 10
187.7978257369
 20
133.3179117508
 30
0.0
 11
187.7978257369
 21
128.2179111011
 31
0.0
  0
LINE
  5
1E6
330
1F
100
AcDbEntity
  8
0
  6
SLD-Gestrichelt
 62
     7
370
     0
100
AcDbLine
 10
212.9478249233
 20
97.6179113939
 30
0.0
 11
213.2268305402
 21
98.0822522987
 31
0.0
  0
LINE
  5
1E7
330
1F
100
AcDbEntity
  8
0
  6
SLD-Gestrichelt
 62
     7
370
     0
100
AcDbLine
 10
178.0322636012
 20
77.7385400005
 30
0.0
 11
177.5978314224
 21
78.2176067449
 31
0.0
  0
LINE
  5
1E8
330
1F
100
AcDbEntity
  8
0
  6
SLD-Gestrichelt
 62
     7
370
     0
100
AcDbLine
 10
170.0978278648
 20
78.6392947055
 30
0.0
 11
169.6153943892
 21
78.1602279611
 31
0.0
  0
LINE
  5
1E9
330
1F
100
AcDbEntity
  8
0
  6
SLD-Gestrichelt
 62
     7
370
     0
100
AcDbLine
 10
169.615272386
 20
125.4755889393
 30
0.0
 11
170.0978232082
 21
124.9964681782
 31
0.0
  0
LINE
  5
1EA
330
1F
100
AcDbEntity
  8
0
  6
SLD-Gestrichelt
 62
     7
370
     0
100
AcDbLine
 10
177.5978258345
 20
125.4181673147
 30
0.0
 11
178.0323679093
 21
125.8972862132
 31
0.0
  0
LINE
  5
1EB
330
1F
100
AcDbEntity
  8
0
  6
SLD-Gestrichelt
 62
     7
370
     0
100
AcDbLine
 10
204.6478259842
 20
97.6179113939
 30
0.0
 11
212.9478249233
 21
97.6179113939
 31
0.0
  0
LINE
  5
1EC
330
1F
100
AcDbEntity
  8
0
  6
SLD-Gestrichelt
 62
     7
370
     0
100
AcDbLine
 10
212.9478249233
 20
106.0179110944
 30
0.0
 11
204.6478259842
 21
106.0179110944
 31
0.0
  0
LINE
  5
1ED
330
1F
100
AcDbEntity
  8
0
  6
SLD-Gestrichelt
 62
     7
370
     0
100
AcDbLine
 10
177.5978258345
 20
78.21808917
 30
0.0
 11
177.5978258345
 21
81.8825100876
 31
0.0
  0
LINE
  5
1EE
330
1F
100
AcDbEntity
  8
0
  6
SLD-Gestrichelt
 62
     7
370
     0
100
AcDbLine
 10
170.0978260021
 20
81.8222889073
 30
0.0
 11
170.0978260021
 21
78.6396169432
 31
0.0
  0
LINE
  5
1EF
330
1F
100
AcDbEntity
  8
0
  6
SLD-Gestrichelt
 62
     7
370
     0
100
AcDbLine
 10
177.5978258345
 20
121.7533124007
 30
0.0
 11
177.5978258345
 21
125.4178748794
 31
0.0
  0
LINE
  5
1F0
330
1F
100
AcDbEntity
  8
0
  6
SLD-Gestrichelt
 62
     7
370
     0
100
AcDbLine
 10
170.0978260021
 20
124.9963247545
 30
0.0
 11
170.0978260021
 21
121.813533581
 31
0.0
  0
LINE
  5
1F1
330
1F
100
AcDbEntity
  8
0
  6
SLD-Gestrichelt
 62
     7
370
     0
100
AcDbLine
 10
213.2268305402
 20
105.5535701897
 30
0.0
 11
212.9478249233
 21
106.0179110944
 31
0.0
  0
LINE
  5
1F2
330
1F
100
AcDbEntity
  8
0
  6
SLD-Gestrichelt
 62
     7
370
     0
100
AcDbLine
 10
215.3451274614
 20
101.6076938984
 30
0.0
 11
215.4714408796
 21
101.8179112442
 31
0.0
  0
LINE
  5
1F3
330
1F
100
AcDbEntity
  8
0
  6
SLD-Gestrichelt
 62
     7
370
     0
100
AcDbLine
 10
215.4714408796
 20
101.8179112442
 30
0.0
 11
215.3447251301
 21
102.0287977306
 31
0.0
  0
ARC
  5
1F4
330
1F
100
AcDbEntity
  8
0
  6
SLD-Gestrichelt
 62
     7
370
     0
100
AcDbCircle
 10
155.6478257637
 20
124.0879112442
 30
0.0
 40
1.400000000000006
100
AcDbArc
 50
270.0
 51
301.7485287426
  0
ARC
  5
1F5
330
1F
100
AcDbEntity
  8
0
  6
SLD-Gestrichelt
 62
     7
370
     0
100
AcDbCircle
 10
159.6478257637
 20
79.6054112442
 30
0.0
 40
1.399999999999996
100
AcDbArc
 50
37.6443616934
 51
90.0
  0
LINE
  5
1F6
330
1F
100
AcDbEntity
  8
0
  6
SLD-Gestrichelt
 62
     7
370
     0
100
AcDbLine
 10
155.6478254031
 20
122.6879113682
 30
0.0
 11
152.2220912855
 21
122.6879113682
 31
0.0
  0
LINE
  5
1F7
330
1F
100
AcDbEntity
  8
0
  6
SLD-Gestrichelt
 62
     7
370
     0
100
AcDbLine
 10
152.0889885258
 20
122.6790749796
 30
0.0
 11
150.9577277582
 21
121.5478123493
 31
0.0
  0
LINE
  5
1F8
330
1F
100
AcDbEntity
  8
0
  6
SLD-Gestrichelt
 62
     7
370
     0
100
AcDbLine
 10
152.0978249143
 20
81.005410976
 30
0.0
 11
159.6478260588
 21
81.005410976
 31
0.0
  0
LINE
  5
1F9
330
1F
100
AcDbEntity
  8
0
  6
SLD-Gestrichelt
 62
     7
370
     0
100
AcDbLine
 10
150.9452443104
 20
82.1579915799
 30
0.0
 11
152.0978249143
 21
81.005410976
 31
0.0
  0
LINE
  5
1FA
330
1F
100
AcDbEntity
  8
0
  6
SLD-Gestrichelt
 62
     7
370
     0
100
AcDbLine
 10
215.8478255849
 20
82.1987201788
 30
0.0
 11
215.8478255849
 21
87.4784288324
 31
0.0
  0
LINE
  5
1FB
330
1F
100
AcDbEntity
  8
0
  6
SLD-Gestrichelt
 62
     7
370
     0
100
AcDbLine
 10
209.8478264641
 20
87.4784288324
 30
0.0
 11
209.8478264641
 21
82.1954735883
 31
0.0
  0
LINE
  5
1FC
330
1F
100
AcDbEntity
  8
VERMASSUNG
100
AcDbLine
 10
252.8478257637
 20
146.8179112442
 30
0.0
 11
252.8478257637
 21
115.7275556025
 31
0.0
  0
DIMENSION
  5
1FD
330
1F
100
AcDbEntity
  8
VERMASSUNG
100
AcDbDimension
  2
_D
 10
146.6353645267
 20
70.3179112442
 30
0.0
 11
146.6353645267
 21
101.8179112442
 31
0.0
 70
   160
  1
HSK %%c<>
 71
     2
 42
-1.0
  3
SLDDIMSTYLE0
100
AcDbAlignedDimension
 13
183.1478257637
 23
133.3179112442
 33
0.0
 14
183.1478257637
 24
70.3179112442
 34
0.0
 50
90.0
100
AcDbRotatedDimension
  0
DIMENSION
  5
20A
330
1F
100
AcDbEntity
  8
VERMASSUNG
100
AcDbDimension
  2
_D_1
 10
150.9478257637
 20
157.3737100833
 30
0.0
 11
201.8978257637
 21
157.3737100833
 31
0.0
 70
   160
  1
<>
 71
     2
 42
-1.0
  3
SLDDIMSTYLE0
100
AcDbAlignedDimension
 13
252.8478257637
 23
146.8179112442
 33
0.0
 14
150.9478257637
 24
121.5085889907
 34
0.0
100
AcDbRotatedDimension
  0
DIMENSION
  5
214
330
1F
100
AcDbEntity
  8
VERMASSUNG
100
AcDbDimension
  2
_D_2
 10
252.8478257637
 20
151.3737100833
 30
0.0
 11
217.8478257637
 21
151.3737100833
 31
0.0
 70
   160
  1
<>
 71
     2
 42
-1.0
  3
SLDDIMSTYLE0
100
AcDbAlignedDimension
 13
182.8478257637
 23
133.0179112442
 33
0.0
 14
252.8478257637
 24
146.8179112442
 34
0.0
100
AcDbRotatedDimension
  0
DIMENSION
  5
21E
330
1F
100
AcDbEntity
  8
VERMASSUNG
100
AcDbDimension
  2
_D_3
 10
262.7035549026
 20
101.8179112442
 30
0.0
 11
262.7035549026
 21
124.3179112442
 31
0.0
 70
   160
  1
<>
 71
     2
 42
-1.0
  3
SLDDIMSTYLE0
100
AcDbAlignedDimension
 13
252.8478257637
 23
146.8179112442
 33
0.0
 14
252.8478257637
 24
101.8179112442
 34
0.0
 50
90.0
100
AcDbRotatedDimension
  0
DIMENSION
  5
228
330
1F
100
AcDbEntity
  8
VERMASSUNG
100
AcDbDimension
  2
_D_4
 10
252.0360995969
 20
135.4440687213
 30
0.0
 11
245.685010229
 21
117.5275939814
 31
0.0
 70
   162
  1
<>
 71
     1
 42
-1.0
  3
SLDDIMSTYLE1
100
AcDb2LineAngularDimension
 13
252.8478257637
 23
101.8179112442
 33
0.0
 14
252.8478257637
 24
146.8179112442
 34
0.0
 15
250.6353009131
 25
108.7152375635
 35
0.0
 16
251.9535050393
 26
116.7799960796
 36
0.0
  0
LINE
  5
233
330
1F
100
AcDbEntity
  8
VERMASSUNG
  6
SLD-Punktstrich
370
     0
100
AcDbLine
 10
149.4323177367
 20
101.8179112442
 30
0.0
 11
255.0124818289
 21
101.8179112442
 31
0.0
  0
ARC
  5
234
330
1F
100
AcDbEntity
  8
0
  6
SLD-Durchgehend
 62
     7
370
    15
100
AcDbCircle
 10
85.0028879584
 20
187.3578005924
 30
0.0
 40
41.46956159983963
100
AcDbArc
 50
257.7545027608
 51
263.4170045338
  0
LINE
  5
235
330
1F
100
AcDbEntity
  8
0
  6
SLD-Durchgehend
 62
     7
370
    15
100
AcDbLine
 10
76.2071577458
 20
129.7230904318
 30
0.0
 11
76.5453754223
 21
129.7821455963
 31
0.0
  0
LINE
  5
236
330
1F
100
AcDbEntity
  8
0
  6
SLD-Durchgehend
 62
     7
370
    15
100
AcDbLine
 10
76.2453754081
 20
146.4056575067
 30
0.0
 11
76.2453754081
 21
146.8199284144
 31
0.0
  0
LINE
  5
237
330
1F
100
AcDbEntity
  8
0
  6
SLD-Durchgehend
 62
     7
370
    15
100
AcDbLine
 10
80.2153753696
 20
135.8828896053
 30
0.0
 11
80.2153753696
 21
146.064312882
 31
0.0
  0
LINE
  5
238
330
1F
100
AcDbEntity
  8
0
  6
SLD-Durchgehend
 62
     7
370
    15
100
AcDbLine
 10
76.2453754081
 20
135.7587592073
 30
0.0
 11
76.2453754081
 21
146.4056575067
 31
0.0
  0
LINE
  5
239
330
1F
100
AcDbEntity
  8
0
  6
SLD-Durchgehend
 62
     7
370
    15
100
AcDbLine
 10
80.2153753696
 20
135.8828896053
 30
0.0
 11
80.2153753696
 21
135.8039097257
 31
0.0
  0
LINE
  5
23A
330
1F
100
AcDbEntity
  8
0
  6
SLD-Durchgehend
 62
     7
370
    15
100
AcDbLine
 10
76.2453754081
 20
135.44285459
 30
0.0
 11
76.2453754081
 21
135.7587592073
 31
0.0
  0
LINE
  5
23B
330
1F
100
AcDbEntity
  8
0
  6
SLD-Durchgehend
 62
     7
370
    15
100
AcDbLine
 10
80.2153753696
 20
135.701907552
 30
0.0
 11
80.2153753696
 21
135.8039097257
 31
0.0
  0
LINE
  5
23C
330
1F
100
AcDbEntity
  8
0
  6
SLD-Durchgehend
 62
     7
370
    15
100
AcDbLine
 10
76.2453754081
 20
129.7931184389
 30
0.0
 11
76.2453754081
 21
135.44285459
 31
0.0
  0
LINE
  5
23D
330
1F
100
AcDbEntity
  8
0
  6
SLD-Durchgehend
 62
     7
370
    15
100
AcDbLine
 10
76.2453754081
 20
129.7931184389
 30
0.0
 11
76.2453754081
 21
129.7325787462
 31
0.0
  0
LINE
  5
23E
330
1F
100
AcDbEntity
  8
0
  6
SLD-Durchgehend
 62
     7
370
    15
100
AcDbLine
 10
102.7453750951
 20
119.8179104693
 30
0.0
 11
102.7453750951
 21
109.8047827698
 31
0.0
  0
LINE
  5
23F
330
1F
100
AcDbEntity
  8
0
  6
SLD-Durchgehend
 62
     7
370
    15
100
AcDbLine
 10
76.5453754223
 20
108.7152373374
 30
0.0
 11
102.7453750951
 21
109.8047827698
 31
0.0
  0
LINE
  5
240
330
1F
100
AcDbEntity
  8
0
  6
SLD-Durchgehend
 62
     7
370
    15
100
AcDbLine
 10
76.5453754223
 20
135.4440690346
 30
0.0
 11
76.5453754223
 21
108.7152373374
 31
0.0
  0
LINE
  5
241
330
1F
100
AcDbEntity
  8
0
  6
SLD-Durchgehend
 62
     7
370
    15
100
AcDbLine
 10
78.7153753566
 20
135.5965228148
 30
0.0
 11
80.2153753696
 21
135.4773768552
 31
0.0
  0
LINE
  5
242
330
1F
100
AcDbEntity
  8
0
  6
SLD-Durchgehend
 62
     7
370
    15
100
AcDbLine
 10
80.2153753696
 20
135.701907552
 30
0.0
 11
80.2153753696
 21
135.4773768552
 31
0.0
  0
LINE
  5
243
330
1F
100
AcDbEntity
  8
0
  6
SLD-Durchgehend
 62
     7
370
    15
100
AcDbLine
 10
87.9431697188
 20
143.5962968834
 30
0.0
 11
80.2153753696
 21
145.3668714829
 31
0.0
  0
ARC
  5
244
330
1F
100
AcDbEntity
  8
0
  6
SLD-Durchgehend
 62
     7
370
    15
100
AcDbCircle
 10
76.2453754081
 20
119.8179112442
 30
0.0
 40
26.49999999999999
100
AcDbArc
 50
0.0
 51
63.8050858531
  0
LINE
  5
245
330
1F
100
AcDbEntity
  8
0
  6
SLD-Durchgehend
 62
     7
370
    15
100
AcDbLine
 10
80.2153753696
 20
145.6075624891
 30
0.0
 11
86.926831363
 21
144.0698483355
 31
0.0
  0
ARC
  5
246
330
1F
100
AcDbEntity
  8
0
  6
SLD-Durchgehend
 62
     7
370
    15
100
AcDbCircle
 10
76.2453754081
 20
119.8179112442
 30
0.0
 40
26.5
100
AcDbArc
 50
63.8050858531
 51
66.2295206864
  0
LINE
  5
247
330
1F
100
AcDbEntity
  8
0
  6
SLD-Durchgehend
 62
     7
370
    15
100
AcDbLine
 10
102.7453750951
 20
109.8047827698
 30
0.0
 11
102.7453750951
 21
101.8179112442
 31
0.0
  0
ARC
  5
248
330
1F
100
AcDbEntity
  8
0
  6
SLD-Durchgehend
 62
     7
370
    15
100
AcDbCircle
 10
76.2453754081
 20
101.8179112442
 30
0.0
 40
26.50000000000001
100
AcDbArc
 50
270.6486453217
 51
0.0
  0
LINE
  5
249
330
1F
100
AcDbEntity
  8
0
  6
SLD-Durchgehend
 62
     7
370
    15
100
AcDbLine
 10
76.5453754223
 20
108.7152373374
 30
0.0
 11
76.5453754223
 21
75.3196102895
 31
0.0
  0
ARC
  5
24A
330
1F
100
AcDbEntity
  8
0
  6
SLD-Durchgehend
 62
     7
370
    15
100
AcDbCircle
 10
76.2453494008
 20
101.8176561625
 30
0.0
 40
25.99974456520509
100
AcDbArc
 50
260.8218998838
 51
270.6358416693
  0
ARC
  5
24B
330
1F
100
AcDbEntity
  8
0
  6
SLD-Durchgehend
 62
     7
370
    15
100
AcDbCircle
 10
76.2453551212
 20
101.8180897311
 30
0.0
 40
25.99982109175
100
AcDbArc
 50
89.3641728091
 51
99.1780856379
  0
ELLIPSE
  5
24C
330
1F
100
AcDbEntity
  8
0
  6
SLD-Durchgehend
 62
     7
370
    15
100
AcDbEllipse
 10
65.4261421843
 20
118.6328450847
 30
0.0
 11
1.957335096790032
 21
3.063638676449543
 31
0.0
210
0.0
220
0.0
230
1.0
 40
0.6713902017
 41
0.0
 42
6.283185307179586
  0
ARC
  5
24D
330
1F
100
AcDbEntity
  8
0
  6
SLD-Durchgehend
 62
     7
370
    15
100
AcDbCircle
 10
76.2453754081
 20
101.8179112442
 30
0.0
 40
26.0
100
AcDbArc
 50
99.1780670049
 51
260.8219329951
  0
LWPOLYLINE
  5
24E
330
1F
100
AcDbEntity
  8
0
  6
SLD-Durchgehend
 62
     7
370
    15
100
AcDbPolyline
 90
        3
 70
   128
 43
0.0
 10
65.5979853703
 20
116.4125099175
 10
65.924816264
 20
116.7715655036
 10
66.2329760028
 20
116.9644982882
  0
ARC
  5
24F
330
1F
100
AcDbEntity
  8
0
  6
SLD-Durchgehend
 62
     7
370
    15
100
AcDbCircle
 10
64.6260903313
 20
115.5838029343
 30
0.0
 40
1.277237343163073
100
AcDbArc
 50
9.6023654926
 51
40.453274593
  0
ARC
  5
250
330
1F
100
AcDbEntity
  8
0
  6
SLD-Durchgehend
 62
     7
370
    15
100
AcDbCircle
 10
63.120032113
 20
112.6228552621
 30
0.0
 40
3.187463452043036
100
AcDbArc
 50
58.1135050362
 51
89.0352954814
  0
LWPOLYLINE
  5
251
330
1F
100
AcDbEntity
  8
0
  6
SLD-Durchgehend
 62
     7
370
    15
100
AcDbPolyline
 90
        3
 70
   128
 43
0.0
 10
66.2329760028
 20
116.9644982882
 10
66.7230258344
 20
116.575696259
 10
66.7779906301
 20
116.4931084357
  0
LWPOLYLINE
  5
252
330
1F
100
AcDbEntity
  8
0
  6
SLD-Durchgehend
 62
     7
370
    15
100
AcDbPolyline
 90
        9
 70
   128
 43
0.0
 10
65.5979853703
 20
116.4125099175
 10
65.705637878
 20
116.5060910724
 10
65.8062188534
 20
116.5935254984
 10
65.899169503
 20
116.6743261136
 10
65.98397108
 20
116.7480430894
 10
66.0601523353
 20
116.8142657124
 10
66.1272867231
 20
116.8726242475
 10
66.1850017143
 20
116.9227955259
 10
66.2329760028
 20
116.9644982882
  0
LINE
  5
253
330
1F
100
AcDbEntity
  8
0
  6
SLD-Durchgehend
 62
     7
370
    15
100
AcDbLine
 10
76.5453754223
 20
128.2179111011
 30
0.0
 11
70.5849867893
 21
128.2179111011
 31
0.0
  0
LINE
  5
254
330
1F
100
AcDbEntity
  8
0
  6
SLD-Durchgehend
 62
     7
370
    15
100
AcDbLine
 10
81.9057640268
 20
75.4179113872
 30
0.0
 11
78.0949806443
 21
75.4179113872
 31
0.0
  0
LINE
  5
255
330
1F
100
AcDbEntity
  8
0
  6
SLD-Durchgehend
 62
     7
370
    15
100
AcDbLine
 10
76.5453754223
 20
75.4179113872
 30
0.0
 11
70.5849867893
 21
75.4179113872
 31
0.0
  0
LINE
  5
256
330
1F
100
AcDbEntity
  8
0
  6
SLD-Durchgehend
 62
     7
370
    15
100
AcDbLine
 10
67.2453757955
 20
72.2576340057
 30
0.0
 11
67.2453757955
 21
71.6309936114
 31
0.0
  0
ARC
  5
257
330
1F
100
AcDbEntity
  8
0
  6
SLD-Durchgehend
 62
     7
370
    15
100
AcDbCircle
 10
76.2453754081
 20
101.8179112442
 30
0.0
 40
31.49999999999999
100
AcDbArc
 50
140.9381656697
 51
253.398450401
  0
LINE
  5
258
330
1F
100
AcDbEntity
  8
0
  6
SLD-Durchgehend
 62
     7
370
    15
100
AcDbLine
 10
51.7866857929
 20
121.6679119833
 30
0.0
 11
52.5644239618
 21
121.6679119833
 31
0.0
  0
LINE
  5
259
330
1F
100
AcDbEntity
  8
0
  6
SLD-Durchgehend
 62
     7
370
    15
100
AcDbLine
 10
68.2453750281
 20
131.6643522449
 30
0.0
 11
68.2453750281
 21
132.2851066805
 31
0.0
  0
LINE
  5
25A
330
1F
100
AcDbEntity
  8
0
  6
SLD-Durchgehend
 62
     7
370
    15
100
AcDbLine
 10
56.395374669
 20
126.2766008593
 30
0.0
 11
56.395374669
 21
125.4988626905
 31
0.0
  0
ARC
  5
25B
330
1F
100
AcDbEntity
  8
0
  6
SLD-Durchgehend
 62
     7
370
    15
100
AcDbCircle
 10
76.2453754081
 20
101.8179112442
 30
0.0
 40
31.49999999999999
100
AcDbArc
 50
104.7124579609
 51
129.0618343303
  0
ARC
  5
25C
330
1F
100
AcDbEntity
  8
0
  6
SLD-Durchgehend
 62
     7
370
    15
100
AcDbCircle
 10
76.2453754081
 20
101.8179112442
 30
0.0
 40
31.49999999999999
100
AcDbArc
 50
286.601549599
 51
32.7255443586
  0
LINE
  5
25D
330
1F
100
AcDbEntity
  8
0
  6
SLD-Durchgehend
 62
     7
370
    15
100
AcDbLine
 10
85.2453750206
 20
71.6309936114
 30
0.0
 11
85.2453750206
 21
72.2576340057
 31
0.0
  0
LINE
  5
25E
330
1F
100
AcDbEntity
  8
0
  6
SLD-Durchgehend
 62
     7
370
    15
100
AcDbLine
 10
85.2453750206
 20
72.2576340057
 30
0.0
 11
85.2453750206
 21
75.4179113872
 31
0.0
  0
LINE
  5
25F
330
1F
100
AcDbEntity
  8
0
  6
SLD-Durchgehend
 62
     7
370
    15
100
AcDbLine
 10
85.2453750206
 20
75.4179113872
 30
0.0
 11
81.9057640268
 21
75.4179113872
 31
0.0
  0
LINE
  5
260
330
1F
100
AcDbEntity
  8
0
  6
SLD-Durchgehend
 62
     7
370
    15
100
AcDbLine
 10
68.2453750281
 20
128.2179111011
 30
0.0
 11
68.2453750281
 21
131.6643522449
 31
0.0
  0
LINE
  5
261
330
1F
100
AcDbEntity
  8
0
  6
SLD-Durchgehend
 62
     7
370
    15
100
AcDbLine
 10
67.2453757955
 20
75.4179113872
 30
0.0
 11
67.2453757955
 21
72.2576340057
 31
0.0
  0
LINE
  5
262
330
1F
100
AcDbEntity
  8
0
  6
SLD-Durchgehend
 62
     7
370
    15
100
AcDbLine
 10
56.395374669
 20
125.4988626905
 30
0.0
 11
56.395374669
 21
121.6679119833
 31
0.0
  0
LINE
  5
263
330
1F
100
AcDbEntity
  8
0
  6
SLD-Durchgehend
 62
     7
370
    15
100
AcDbLine
 10
52.5644239618
 20
121.6679119833
 30
0.0
 11
56.395374669
 21
121.6679119833
 31
0.0
  0
LINE
  5
264
330
1F
100
AcDbEntity
  8
0
  6
SLD-Durchgehend
 62
     7
370
    15
100
AcDbLine
 10
70.5849867893
 20
128.2179111011
 30
0.0
 11
68.2453750281
 21
128.2179111011
 31
0.0
  0
LINE
  5
265
330
1F
100
AcDbEntity
  8
0
  6
SLD-Durchgehend
 62
     7
370
    15
100
AcDbLine
 10
70.5849867893
 20
75.4179113872
 30
0.0
 11
67.2453757955
 21
75.4179113872
 31
0.0
  0
ARC
  5
266
330
1F
100
AcDbEntity
  8
0
  6
SLD-Durchgehend
 62
     7
370
    15
100
AcDbCircle
 10
76.2467807767
 20
101.8092318242
 30
0.0
 40
31.49128069790735
100
AcDbArc
 50
271.8171650148
 51
286.6036104447
  0
ARC
  5
267
330
1F
100
AcDbEntity
  8
0
  6
SLD-Durchgehend
 62
     7
370
    15
100
AcDbCircle
 10
76.2485222509
 20
101.837305776
 30
0.0
 40
31.5194850954945
100
AcDbArc
 50
253.4030421033
 51
268.1761824372
  0
ARC
  5
268
330
1F
100
AcDbEntity
  8
0
  6
SLD-Durchgehend
 62
     7
370
    15
100
AcDbCircle
 10
76.1572095153
 20
102.2881065891
 30
0.0
 40
31.02284866740632
100
AcDbArc
 50
89.837167102
 51
104.7755106202
  0
ARC
  5
269
330
1F
100
AcDbEntity
  8
0
  6
SLD-Durchgehend
 62
     7
370
    15
100
AcDbCircle
 10
76.2450245376
 20
101.8182621147
 30
0.0
 40
31.49950688590018
100
AcDbArc
 50
129.0617420529
 51
140.9382579471
  0
ARC
  5
26A
330
1F
100
AcDbEntity
  8
0
  6
SLD-Durchgehend
 62
     7
370
    15
100
AcDbCircle
 10
76.2453754081
 20
101.8179112442
 30
0.0
 40
31.5
100
AcDbArc
 50
268.180780706
 51
271.819219294
  0
CIRCLE
  5
26B
330
1F
100
AcDbEntity
  8
VERMASSUNG
  6
SLD-Punktstrich
100
AcDbCircle
 10
76.2453754081
 20
106.4910774263
 30
0.0
 40
39.99999999999999
  0
DIMENSION
  5
26C
330
1F
100
AcDbEntity
  8
VERMASSUNG
100
AcDbDimension
  2
_D_5
 10
28.7453754081
 20
146.4910774263
 30
0.0
 11
28.7453754081
 21
106.4910774263
 31
0.0
 70
   160
  1
%%c<>
 71
     2
 42
-1.0
  3
SLDDIMSTYLE0
100
AcDbAlignedDimension
 13
76.2453754081
 23
66.4910774263
 33
0.0
 14
76.2453754081
 24
146.4910774263
 34
0.0
 50
90.0
100
AcDbRotatedDimension
  0
INSERT
  5
282
330
1F
100
AcDbEntity
  8
VERMASSUNG
100
AcDbBlockReference
  2
SW_CENTERMARKSYMBOL_0
 10
76.2453754081
 20
101.8179112442
 30
0.0
  0
OLE2FRAME
  5
283
330
1F
100
AcDbEntity
  8
0
100
AcDbOle2Frame
 70
     2
  3
Paintbrush-Bild
 10
13.8511154363
 20
38.264191557
 30
0.0
 11
51.6290888628
 21
31.9806341108
 31
0.0
 71
     2
 72
     0
 73
     1
 90
    12928
310
80552BED0767C5B32B40DDAF6807D121434000000000000000006FFBDDFB85D0
310
4940DDAF6807D121434000000000000000006FFBDDFB85D04940416F4BD60AFB
310
3F4000000000000000002BED0767C5B32B40416F4BD60AFB3F40000000000000
310
0000000000000100000000010000010000000100000000000100000000320000
310
D0CF11E0A1B11AE1000000000000000000000000000000003E000300FEFF0900
310
0600000000000000000000000100000001000000000000000010000002000000
310
01000000FEFFFFFF0000000000000000FFFFFFFFFFFFFFFFFFFFFFFFFFFFFFFF
310
FFFFFFFFFFFFFFFFFFFFFFFFFFFFFFFFFFFFFFFFFFFFFFFFFFFFFFFFFFFFFFFF
310
FFFFFFFFFFFFFFFFFFFFFFFFFFFFFFFFFFFFFFFFFFFFFFFFFFFFFFFFFFFFFFFF
310
FFFFFFFFFFFFFFFFFFFFFFFFFFFFFFFFFFFFFFFFFFFFFFFFFFFFFFFFFFFFFFFF
310
FFFFFFFFFFFFFFFFFFFFFFFFFFFFFFFFFFFFFFFFFFFFFFFFFFFFFFFFFFFFFFFF
310
FFFFFFFFFFFFFFFFFFFFFFFFFFFFFFFFFFFFFFFFFFFFFFFFFFFFFFFFFFFFFFFF
310
FFFFFFFFFFFFFFFFFFFFFFFFFFFFFFFFFFFFFFFFFFFFFFFFFFFFFFFFFFFFFFFF
310
FFFFFFFFFFFFFFFFFFFFFFFFFFFFFFFFFFFFFFFFFFFFFFFFFFFFFFFFFFFFFFFF
310
FFFFFFFFFFFFFFFFFFFFFFFFFFFFFFFFFFFFFFFFFFFFFFFFFFFFFFFFFFFFFFFF
310
FFFFFFFFFFFFFFFFFFFFFFFFFFFFFFFFFFFFFFFFFFFFFFFFFFFFFFFFFFFFFFFF
310
FFFFFFFFFFFFFFFFFFFFFFFFFFFFFFFFFFFFFFFFFFFFFFFFFFFFFFFFFFFFFFFF
310
FFFFFFFFFFFFFFFFFFFFFFFFFFFFFFFFFFFFFFFFFFFFFFFFFFFFFFFFFFFFFFFF
310
FFFFFFFFFFFFFFFFFFFFFFFFFFFFFFFFFFFFFFFFFFFFFFFFFFFFFFFFFFFFFFFF
310
FFFFFFFFFFFFFFFFFFFFFFFFFFFFFFFFFFFFFFFFFFFFFFFFFFFFFFFFFFFFFFFF
310
FDFFFFFFFEFFFFFFFEFFFFFFFEFFFFFF05000000060000000700000008000000
310
090000000A0000000B0000000C0000000D0000000E0000000F00000010000000
310
11000000120000001300000014000000150000001600000017000000FEFFFFFF
310
FFFFFFFFFFFFFFFFFFFFFFFFFFFFFFFFFFFFFFFFFFFFFFFFFFFFFFFFFFFFFFFF
310
FFFFFFFFFFFFFFFFFFFFFFFFFFFFFFFFFFFFFFFFFFFFFFFFFFFFFFFFFFFFFFFF
310
FFFFFFFFFFFFFFFFFFFFFFFFFFFFFFFFFFFFFFFFFFFFFFFFFFFFFFFFFFFFFFFF
310
FFFFFFFFFFFFFFFFFFFFFFFFFFFFFFFFFFFFFFFFFFFFFFFFFFFFFFFFFFFFFFFF
310
FFFFFFFFFFFFFFFFFFFFFFFFFFFFFFFFFFFFFFFFFFFFFFFFFFFFFFFFFFFFFFFF
310
FFFFFFFFFFFFFFFFFFFFFFFFFFFFFFFFFFFFFFFFFFFFFFFFFFFFFFFFFFFFFFFF
310
FFFFFFFFFFFFFFFFFFFFFFFFFFFFFFFFFFFFFFFFFFFFFFFFFFFFFFFFFFFFFFFF
310
FFFFFFFFFFFFFFFFFFFFFFFFFFFFFFFFFFFFFFFFFFFFFFFFFFFFFFFFFFFFFFFF
310
FFFFFFFFFFFFFFFFFFFFFFFFFFFFFFFFFFFFFFFFFFFFFFFFFFFFFFFFFFFFFFFF
310
FFFFFFFFFFFFFFFFFFFFFFFFFFFFFFFFFFFFFFFFFFFFFFFFFFFFFFFFFFFFFFFF
310
FFFFFFFFFFFFFFFFFFFFFFFFFFFFFFFFFFFFFFFFFFFFFFFFFFFFFFFFFFFFFFFF
310
FFFFFFFFFFFFFFFFFFFFFFFFFFFFFFFFFFFFFFFFFFFFFFFFFFFFFFFFFFFFFFFF
310
FFFFFFFFFFFFFFFFFFFFFFFFFFFFFFFFFFFFFFFFFFFFFFFFFFFFFFFFFFFFFFFF
310
52006F006F007400200045006E00740072007900000000000000000000000000
310
0000000000000000000000000000000000000000000000000000000000000000
310
16000500FFFFFFFFFFFFFFFF020000000A00030000000000C000000000000046
310
000000000000000000000000305ECF95C349D00103000000C000000000000000
310
01004F006C006500000000000000000000000000000000000000000000000000
310
0000000000000000000000000000000000000000000000000000000000000000
310
0A000200FFFFFFFFFFFFFFFFFFFFFFFF00000000000000000000000000000000
310
0000000000000000000000000000000000000000000000001400000000000000
310
010043006F006D0070004F0062006A0000000000000000000000000000000000
310
0000000000000000000000000000000000000000000000000000000000000000
310
120002010100000003000000FFFFFFFF00000000000000000000000000000000
310
0000000000000000000000000000000000000000010000004D00000000000000
310
01004F006C006500310030004E00610074006900760065000000000000000000
310
0000000000000000000000000000000000000000000000000000000000000000
310
1A000200FFFFFFFFFFFFFFFFFFFFFFFF00000000000000000000000000000000
310
0000000000000000000000000000000000000000040000002426000000000000
310
FEFFFFFF02000000FEFFFFFFFFFFFFFFFFFFFFFFFFFFFFFFFFFFFFFFFFFFFFFF
310
FFFFFFFFFFFFFFFFFFFFFFFFFFFFFFFFFFFFFFFFFFFFFFFFFFFFFFFFFFFFFFFF
310
FFFFFFFFFFFFFFFFFFFFFFFFFFFFFFFFFFFFFFFFFFFFFFFFFFFFFFFFFFFFFFFF
310
FFFFFFFFFFFFFFFFFFFFFFFFFFFFFFFFFFFFFFFFFFFFFFFFFFFFFFFFFFFFFFFF
310
FFFFFFFFFFFFFFFFFFFFFFFFFFFFFFFFFFFFFFFFFFFFFFFFFFFFFFFFFFFFFFFF
310
FFFFFFFFFFFFFFFFFFFFFFFFFFFFFFFFFFFFFFFFFFFFFFFFFFFFFFFFFFFFFFFF
310
FFFFFFFFFFFFFFFFFFFFFFFFFFFFFFFFFFFFFFFFFFFFFFFFFFFFFFFFFFFFFFFF
310
FFFFFFFFFFFFFFFFFFFFFFFFFFFFFFFFFFFFFFFFFFFFFFFFFFFFFFFFFFFFFFFF
310
FFFFFFFFFFFFFFFFFFFFFFFFFFFFFFFFFFFFFFFFFFFFFFFFFFFFFFFFFFFFFFFF
310
FFFFFFFFFFFFFFFFFFFFFFFFFFFFFFFFFFFFFFFFFFFFFFFFFFFFFFFFFFFFFFFF
310
FFFFFFFFFFFFFFFFFFFFFFFFFFFFFFFFFFFFFFFFFFFFFFFFFFFFFFFFFFFFFFFF
310
FFFFFFFFFFFFFFFFFFFFFFFFFFFFFFFFFFFFFFFFFFFFFFFFFFFFFFFFFFFFFFFF
310
FFFFFFFFFFFFFFFFFFFFFFFFFFFFFFFFFFFFFFFFFFFFFFFFFFFFFFFFFFFFFFFF
310
FFFFFFFFFFFFFFFFFFFFFFFFFFFFFFFFFFFFFFFFFFFFFFFFFFFFFFFFFFFFFFFF
310
FFFFFFFFFFFFFFFFFFFFFFFFFFFFFFFFFFFFFFFFFFFFFFFFFFFFFFFFFFFFFFFF
310
FFFFFFFFFFFFFFFFFFFFFFFFFFFFFFFFFFFFFFFFFFFFFFFFFFFFFFFFFFFFFFFF
310
0100000200000000000000000000000000000000000000000000000000000000
310
0000000000000000000000000000000000000000000000000000000000000000
310
0100FEFF030A0000FFFFFFFF0A00030000000000C00000000000004607000000
310
5042727573680007000000504272757368000700000050427275736800F439B2
310
7100000000000000000000000000000000000000000000000000000000000000
310
0000000000000000000000000000000000000000000000000000000000000000
310
0000000000000000000000000000000000000000000000000000000000000000
310
0000000000000000000000000000000000000000000000000000000000000000
310
0000000000000000000000000000000000000000000000000000000000000000
310
0000000000000000000000000000000000000000000000000000000000000000
310
0000000000000000000000000000000000000000000000000000000000000000
310
0000000000000000000000000000000000000000000000000000000000000000
310
0000000000000000000000000000000000000000000000000000000000000000
310
0000000000000000000000000000000000000000000000000000000000000000
310
0000000000000000000000000000000000000000000000000000000000000000
310
0000000000000000000000000000000000000000000000000000000000000000
310
20260000424D0E260000000000003E00000028000000B40200006E0000000100
310
01000000000000000000130B0000130B00000200000002000000000000FFFFFF
310
FFFFFFFFFFFFFFFFFFFFFFFFFFFFFFFFFFFFFFFFFFFFFFFFFFFFFFFFFFFFFFFF
310
FFFFFFFFFFFFFFFFFFFFFFFFFFFFFFFFFFFFFFFFFFFFFFFFFFFFFFFFFFFFFFFF
310
FFFFFFFFFFFFFFFFFFFFFFFFFFFFFFFFFFFFFFFFFFFFFFFFF000FFFFFFFFFFFF
310
FFFFFFFFFFFFFFFFFFFFFFFFFFFFFFFFFFFFFFFFFFFFFFFFFFFFFFFFFFFFFFFF
310
FFFFFFFFFFFFFFFFFFFFFFFFFFFFFFFFFFFFFFFFFFFFFFFFFFFFFFFFFFFFFFFF
310
FFFFFFFFFFFFFFFFFFFFFFFFFFFFFFFFF000FFFFFFFFFFFFFFFFFFFFFFFFFFFF
310
FFFFFFFFFFFFFFFFFFFFFFFFFFFFFFFFFFFFFFFFFFFFFFFFFFFFFFFFFFFFFFFF
310
FFFFFFFFFFFFFFFFFFFFFFFFFFFFFFFFFFFFFFFFFFFFFFFFFFFFFFFFFFFFFFFF
310
FFFFFFFFFFFFFFFFF000FFFFFFFFFFFFFFFFFFFFFFFFFFFFFFFFFFFFFFFFFFFF
310
FFFFFFFFFFFFFFFFFFFFFFFFFFFFFFFFFFFFFFFFFFFFFFFFFFFFFFFFFFFFFFFF
310
FFFFFFFFFFFFFFFFFFFFFFFFFFFFFFFFFFFFFFFFFFFFFFFFFFFFFFFFFFFFFFFF
310
F000FFFFFFFFFFFFFFFFFFFFFFFFFFFFFFFFFFFFFFFFFFFFFFFFFFFFFFFFFFFF
310
FFFFFFFFFFFFFFFFFFFFFFFFFFFFFFFFFFFFFFFFFFFFFFFFFFFFFFFFFFFFFFFF
310
FFFFFFFFFFFFFFFFFFFFFFFFFFFFFFFFFFFFFFFFFFFFFFFFF000FFFFFFFFFFFF
310
FFFFFFFFFFFFFFFFFFFFFFFFFFFFFFFFFFFFFFFFFFFFFFFFFFFFFFFFFFFFFFFF
310
FFFFFFFFFFFFFFFFFFFFFFFFFFFFFFFFFFFFFFFFFFFFFFFFFFFFFFFFFFFFFFFF
310
FFFFFFFFFFFFFFFFFFFFFFFFFFFFFFFFF000FFFFFFFFFFFFFFFFFFFFFFFFFFFF
310
FFFFFFFFFFFFFFFFFFFFFFFFFFFFFFFFFFFFFFFFFFFFFFFFFFFFFFFFFFFFFFFF
310
FFFFFFFFFFFFFFFFFFFFFFFFFFFFFFFFFFFFFFFFFFFFFFFFFFFFFFFFFFFFFFFF
310
FFFFFFFFFFFFFFFFF000FFFFFFFFFFFFFFFFFFFFFFFFFFFFFFFFFFFFFFFFFFFF
310
FFFFFFFFFFFFFFFFFFFFFFFFFFFFFFFFFFFFFFFFFFFFFFFFFFFFFFFFFFFFFFFF
310
FFFFFFFFFFFFFFFFFFFFFFFFFFFFFFFFFFFFFFFFFFFFFFFFFFFFFFFFFFFFFFFF
310
F000FFFFFFFFFFFFFFFFFFFFFFFFFFFFFFFFFFFFFFFFFFFFFFFFFFFFFFFFFFFF
310
FFFFFFFFFFFFFFFFFFFFFFFFFFFFFFFFFFFFFFFFFFFFFFFFFFFFFFFFFFFFFFFF
310
FFFFFFFFFFFFFFFFFFFFFFFFFFFFFFFFFFFFFFFFFFFFFFFFF000FFFFFFFFFFFF
310
FFFFFFFFFFFFFFFFFFFFFFFFFFFFFFFFFFFFFFFFFFFFFFFFFFFFFFFFFFFFFFFF
310
FFFFFFFFFFFFFFFFFFFFFFFFFFFFFFFFFFFFFFFFFFFFFFFFFFFFFFFFFFFFFFFF
310
FFFFFFFFFFFFFFFFFFFFFFFFFFFFFFFFF000FFFFFFFFFFFFFFFFFFFFFFFFFFFF
310
FFFFFFFFFFFFFFFFFFFFFFFFFFFFFFFFFFFFFFFFFFFFFFFFFFFFFFFFFFFFFFFF
310
FFFFFFFFFFFFFFFFFFFFFFFFFFFFFFFFFFFFFFFFFFFFFFFFFFFFFFFFFFFFFFFF
310
FFFFFFFFFFFFFFFFF000FFFFFFFFFFFFFFFFFFFFFFFFFFFFFFFFFFFFFFFFFFFF
310
FFFFFFFFFFFFFFFFFFFFFFFFFFFFFFFFFFFFFFFFFFFFFFFFFFFFFFFFFFFFFFFF
310
FFFFFFFFFFFFFFFFFFFFFFFFFFFFFFFFFFFFFFFFFFFFFFFFFFFFFFFFFFFFFFFF
310
F000FFFFFFFFFFFFFFFFFFFFFFFFFFFFFFFFFFFFFFFFFFFFFFFFFFFFFFFFFFFF
310
FFFFFFFFFFFFFFFFFFFFFFFFFFFFFFFFFFFFFFFFFFFFFFFFFFFFFFFFFFFFFFFF
310
FFFFFFFFFFFFFFFFFFFFFFFFFFFFFFFFFFFFFFFFFFFFFFFFF000FFFFFFFFFFFF
310
FFFFFFFFFFFFFFFFFFFFFFFFFFFFFFFFFFFFFFFFFFFFFFFFFFFFFFFFFFFFFFFF
310
FFFFFFFFFFFFFFFFFFFFFFFFFFFFFFFFFFFFFFFFFFFFFFFFFFFFFFFFFFFFFFFF
310
FFFFFFFFFFFFFFFFFFFFFFFFFFFFFFFFF000FFFFFFFFFFFFFFFFFFFFFFFFFFFF
310
FFFFFFFFFFFFFFFFFFFFFFFFFFFFFFFFFFFFFFFFFFFFFFFFFFFFFFFFFFFFFFFF
310
FFFFFFFFFFFFFFFFFFFFFFFFFFFFFFFFFFFFFFFFFFFFFFFFFFFFFFFFFFFFFFFF
310
FFFFFFFFFFFFFFFFF000FFFFFFFFFFFFFFFFFFFFFFFFFFFFFFFFFFFFFFFFFFFF
310
FFFFFFFFFFFFFFFFFFFFFFFFFFFFFFFFFFFFFFFFFFFFFFFFFFFFFFFFFFFFFFFF
310
FFFFFFFFFFFFFFFFFFFFFFFFFFFFFFFFFFFFFFFFFFFFFFFFFFFFFFFFFFFFFFFF
310
F000FFFFFFFFFFFFFFFFFFFFFFFFFFFFFFFFFFFFFFFFFFFFFFFFFFFFFFFFFFFF
310
FFFFFFFFFFFFFFFFFFFFFFFFFFFFFFFFFFFFFFFFFFFFFFFFFFFFFFFFFFFFFFFF
310
FFFFFFFFFFFFFFFFFFFFFFFFFFFFFFFFFFFFFFFFFFFFFFFFF000FFFFFFFFFFFF
310
FFFFFFFFFFFFFFFFFFFFFFFFFFFFFFFFFFFFFFFFFFFFFFFFFFFFFFFFFFFFFFFF
310
FFFFFFFFFFFFFFFFFFFFFFFFFFFFFFFFFFFFFFFFFFFFFFFFFFFFFFFFFFFFFFFF
310
FFFFFFFFFFFFFFFFFFFFFFFFFFFFFFFFF000FFFFFFFFFFFFFFFFFFFFFFFFFFFF
310
FFFFFFFFFFFFFFFFFFFFFFFFFFFFFFFFFFFFFFFFFFFFFFFFFFFFFFFFFFFFFFFF
310
FFFFFFFFFFFFFFFFFFFFFFFFFFFFFFFFFFFFFFFFFFFFFFFFFFFFFFFFFFFFFFFF
310
FFFFFFFFFFFFFFFFF000FFFFF80003FFFFFFFFFFFFFFFFFFFFFFFFFFFFFFFFFF
310
FFFFF00007FFFFFFFFFF00007FFFFFF800000000000000007FFFFFFFFFFFFFFF
310
FFFFFFFC001FFFFFFFFFFFFFFC001FFFFFFFFFFFFFFFFFFFFFFFFFFE0007FFFF
310
F000FFFF8000007FFFFFFFF8000FFFFFC0007FFFFF80007FFFFF0000007FFFFF
310
FFF8000007FFFFF800000000000000007FFFFFF0001FFFFFFFFFFFC00001FFFF
310
FFFFFFFFC00001FFFFFFFF000000000003FFFFE000007FFFF000FFFE0000000F
310
FFFFFFF0000FFFFF80007FFFFF80007FFFFC0000001FFFFFFFC0000001FFFFF8
310
00000000000000007FFFFFF0001FFFFFFFFFFE0000003FFFFFFFFFFE0000003F
310
FFFFFF000000000003FFFF0000000FFFF000FFF800000003FFFFFFF00007FFFF
310
80007FFFFF80007FFFF000000007FFFFFF000000003FFFF80000000000000000
310
7FFFFFF0001FFFFFFFFFF80000000FFFFFFFFFF80000000FFFFFFF0000000000
310
03FFFC00000003FFF000FFE000000000FFFFFFF00007FFFF80003FFFFF80007F
310
FFC000000001FFFFFC000000001FFFF800000000000000007FFFFFF0001FFFFF
310
FFFFE000000003FFFFFFFFE000000003FFFFFF000000000003FFF000000000FF
310
F000FF80000000007FFFFFF00007FFFF80003FFFFF80007FFF8000000000FFFF
310
F80000000007FFF800000000000000007FFFFFF0001FFFFFFFFFC000000001FF
310
FFFFFFC000000001FFFFFF000000000003FFC0000000007FF000FF0000000000
310
3FFFFFE00007FFFF00003FFFFF80007FFE00000000003FFFF00000000003FFF8
310
00000000000000007FFFFFF0001FFFFFFFFF8000000000FFFFFFFF8000000000
310
FFFFFF000000000003FF80000000003FF000FE00000000001FFFFFE00003FFFF
310
00003FFFFF80007FFC00000000001FFFE00000000001FFF8000001FFFE000000
310
7FFFFFF0001FFFFFFFFE00000000003FFFFFFE00000000003FFFFF0000000000
310
03FF00000000001FF000FC00000000000FFFFFE00003FFFF00001FFFFF80007F
310
F800000000001FFFC00000000000FFF8000001FFFE0000007FFFFFF0001FFFFF
310
FFFC00000000001FFFFFFC00000000001FFFFF000000000003FE00000000000F
310
F000F8000000000007FFFFE00003FFFF00001FFFFF80007FF800000000000FFF
310
800000000000FFF8000001FFFE0000007FFFFFF0001FFFFFFFF800000000000F
310
FFFFF800000000000FFFFF000000000003FC000000000007F000F80000000000
310
03FFFFC00003FFFE00001FFFFF80007FF0000000000007FF0000000000007FF8
310
000001FFFE0000007FFFFFF0001FFFFFFFF0000000000007FFFFF00000000000
310
07FFFF000000000003F8000000000003F000F0000000000003FFFFC00001FFFE
310
00001FFFFF80007FE0000000000007FE0000000000003FF8000001FFFE000000
310
7FFFFFF0001FFFFFFFF0000000000007FFFFF0000000000007FFFF0000000000
310
03F800001F800003F000E00001FFF00001FFFFC00001FFFE00000FFFFF80007F
310
E00001FFE00003FE00001FFF00003FF8000001FFFE0000007FFFFFF0001FFFFF
310
FFE000003E000003FFFFE000003E000003FFFF000000000003F00001FFF80001
310
F000E00007FFFC0001FFFFC00001FFFE00000FFFFF80007FC0000FFFFC0003FC
310
0000FFFFC0001FF8000001FFFE0000007FFFFFF0001FFFFFFFC00003FFE00001
310
FFFFC00003FFE00001FFFF0001FFFFFFFFF00007FFFE0001F000E0000FFFFF00
310
00FFFF800001FFFC00000FFFFF80007FC0001FFFFE0001FC0001FFFFE0001FF8
310
000001FFFE0000007FFFFFF0001FFFFFFF80000FFFF80000FFFF80000FFFF800
310
00FFFF0003FFFFFFFFE0000FFFFF8000F000C0003FFFFF8000FFFF800000FFFC
310
000007FFFF80007F80003FFFFF0001FC0003FFFFF0001FF8000001FFFE000000
310
7FFFFFF0001FFFFFFF80003FFFFE0000FFFF80003FFFFE0000FFFF0003FFFFFF
310
FFE0003FFFFF8000F000C0003FFFFF8000FFFF800000FFFC000007FFFF80007F
310
80007FFFFF8001F80007FFFFF8000FF8000001FFFE0000007FFFFFF0001FFFFF
310
FF00007FFFFF00007FFF00007FFFFF00007FFF0003FFFFFFFFE0003FFFFFC000
310
F000C0007FFFFFC000FFFF000000FFFC000007FFFF80007F8000FFFFFF8000F8
310
000FFFFFF8000FF8000001FFFE0000007FFFFFF0001FFFFFFF0000FFFFFF8000
310
7FFF0000FFFFFF80007FFF0003FFFFFFFFC0007FFFFFC00070008000FFFFFFC0
310
00FFFF000000FFF8000007FFFF80007F8000FFFFFF8000F8000FFFFFF8000FF8
310
000001FFFE0000007FFFFFF0001FFFFFFE0001FFFFFFC0003FFE0001FFFFFFC0
310
003FFF0003FFFFFFFFC0007FFFFFE00070008000FFFFFFC0007FFF0000007FF8
310
000003FFFF80007F0001FFFFFF8000F8000FFFFFF8000FF8000001FFFE000000
310
7FFFFFF0001FFFFFFE0001FFFFFFC0003FFE0001FFFFFFC0003FFF0003FFFFFF
310
FFC000FFFFFFE00070008000FFFFFFC0007FFF0000007FF8000003FFFF80007F
310
0001FFFFFF8000F8001FFFFFF8000FF8000001FFFE0000007FFFFFF0001FFFFF
310
FE0003FFFFFFE0003FFE0003FFFFFFE0003FFF0003FFFFFFFFC000FFFFFFE000
310
70008000FFFFFFC0007FFE0000007FF8000003FFFF80007F0001FFFFFF8000F0
310
001FFFFFF8000FF8000001FFFE0000007FFFFFF0001FFFFFFC0003FFFFFFE000
310
1FFC0003FFFFFFE0001FFF0003FFFFFFFFC000FFFFFFC00070008000FFFFFF80
310
007FFE0000007FF0000003FFFF80007F0001FFFFFF0000F0001FFFFFF8000FF8
310
000001FFFE0000007FFFFFF0001FFFFFFC0007FFFFFFF0001FFC0007FFFFFFF0
310
001FFF0003FFFFFFFFC000FFFFFFC00070008001FFFFFF0000FFFE0000003FF0
310
000001FFFF80007F0001FFFFFF0000F8001FFFFFF0000FF8000001FFFE000000
310
7FFFFFF0001FFFFFFC0007FFFFFFF0001FFC0007FFFFFFF0001FFF0003FFFFFF
310
FFC001FFFFFF80007000FFFFFFFFFE0000FFFE0008003FF0008001FFFF80007F
310
FFFFFFFFFC0000FFFFFFFFFFE0000FF8000001FFFE0000007FFFFFF0001FFFFF
310
F8000FFFFFFFF8000FF8000FFFFFFFF8000FFF0003FFFFFFFFFFFFFFFFFF0000
310
7000FFFFFFFFFC0000FFFC0008003FF0008001FFFF80007FFFFFFFFFF80001FF
310
FFFFFFFF80000FF8000001FFFE0000007FFFFFF0001FFFFFF8000FFFFFFFF800
310
0FF8000FFFFFFFF8000FFF0003FFFFFFFFFFFFFFFFFE0000F000FFFFFFFFE000
310
00FFFC000C003FE000C001FFFF80007FFFFFFFFFC00001FFFFFFFFFE00001FF8
310
000001FFFE0000007FFFFFF0001FFFFFF8000FFFFFFFF8000FF8000FFFFFFFF8
310
000FFF0003FFFFFFFFFFFFFFFFF00000F000FFFFFFFE000001FFFC000C001FE0
310
00C000FFFF80007FFFFFFFFE000001FFFFFFFFE000001FF80FFFFFFFFFFFFFC0
310
7FFFFFF0001FFFFFF8000FFFFFFFF8000FF8000FFFFFFFF8000FFF0003FFFFFF
310
FFFFFFFFFF800000F000FFFFFFC0000001FFFC001C001FE001C000FFFF80007F
310
FFFFFF80000003FFFFFFF80000001FF80FFFFFFFFFFFFFC07FFFFFF0001FFFFF
310
F8001FFFFFFFFC000FF8001FFFFFFFFC000FFF0003FFFFFFFFFFFFFFF0000001
310
F000FFFFF800000001FFF8001C001FE001C000FFFF80007FFFFFF800000003FF
310
FFFF800000003FF80FFFFFFFFFFFFFC07FFFFFF0001FFFFFF8001FFFFFFFFC00
310
0FF8001FFFFFFFFC000FFF0003FFFFFFFFFFFFFE00000001F000FFFFC0000000
310
03FFF8001E001FC001E000FFFF80007FFFFF8000000007FFFFFC000000003FF8
310
0FFFFFFFFFFFFFC07FFFFFF0001FFFFFF8001FFFFFFFFC000FF8001FFFFFFFFC
310
000FFF0003FFFFFFFFFFFFE000000003F000FFFE0000000007FFF8001E000FC0
310
01E0007FFF80007FFFFE0000000007FFFFE0000000007FF80FFFFFFFFFFFFFC0
310
7FFFFFF0001FFFFFF0001FFFFFFFFC0007F0001FFFFFFFFC0007FF0003FFFFFF
310
FFFFFF0000000003F000FFF80000000007FFF8001E000FC003E0007FFF80007F
310
FFF0000000000FFFFF8000000000FFF80FFFFFFFFFFFFFC07FFFFFF0001FFFFF
310
F0001FFFFFFFFC0007F0001FFFFFFFFC0007FF0003FFFFFFFFFFFC0000000007
310
F000FFE0000000000FFFF0003E000FC003E0007FFF80007FFFC0000000001FFF
310
FE0000000001FFF80FFFFFFFFFFFFFC07FFFFFF0001FFFFFF0001FFFFFFFFC00
310
07F0001FFFFFFFFC0007FF0003FFFFFFFFFFF0000000000FF000FFC000000000
310
1FFFF0003F000F8003F0003FFF80007FFF80000000003FFFF80000000003FFF8
310
0FFFFFFFFFFFFFC07FFFFFF0001FFFFFF0001FFFFFFFFC0007F0001FFFFFFFFC
310
0007FF0003FFFFFFFFFFE0000000001FF000FF00000000007FFFF0003F000780
310
03F0003FFF80007FFF00000000007FFFF00000000007FFF80FFFFFFFFFFFFFC0
310
7FFFFFF0001FFFFFF0001FFFFFFFFC0007F0001FFFFFFFFC0007FF0003FFFFFF
310
FFFF80000000007FF000FE0000000000FFFFE0003F00078007F0003FFF80007F
310
FE0000000001FFFFE0000000001FFFF80FFFFFFFFFFFFFC07FFFFFF0001FFFFF
310
F0001FFFFFFFFC0007F0001FFFFFFFFC0007FF0003FFFFFFFFFF0000000000FF
310
F000FC0000000003FFFFE0007F00078007F0003FFF80007FFC0000000007FFFF
310
C0000000007FFFF80FFFFFFFFFFFFFC07FFFFFF0001FFFFFF8001FFFFFFFFC00
310
0FF8001FFFFFFFFC000FFF0003FFFFFFFFFE0000000003FFF000FC000000000F
310
FFFFE0007F80070007F8001FFF80007FF8000000001FFFFF8000000001FFFFF8
310
0FFFFFFFFFFFFFC07FFFFFF0001FFFFFF8001FFFFFFFFC000FF8001FFFFFFFFC
310
000FFF0003FFFFFFFFFC000000000FFFF000F8000000007FFFFFE0007F800700
310
07F8001FFF80007FF000000000FFFFFF800000000FFFFFF80FFFFFFFFFFFFFC0
310
7FFFFFF0001FFFFFF8000FFFFFFFF8000FF8000FFFFFFFF8000FFF0003FFFFFF
310
FFFC000000007FFFF000F800000007FFFFFFC0007F8003000FF8001FFF80007F
310
F000000007FFFFFF000000007FFFFFF80FFFFFFFFFFFFFC07FFFFFF0001FFFFF
310
F8000FFFFFFFF8000FF8000FFFFFFFF8000FFF0003FFFFFFFFF80000000FFFFF
310
F000F0000000FFFFFFFFC000FF8003000FF8001FFF80007FE0000000FFFFFFFF
310
0000000FFFFFFFF8000001FFFE0000007FFFFFF0001FFFFFF8000FFFFFFFF800
310
0FF8000FFFFFFFF8000FFF0003FFFFFFFFF8000000FFFFFFF000F000000FFFFF
310
FFFFC000FFC002000FF8000FFF80007FE000001FFFFFFFFE000001FFFFFFFFF8
310
000001FFFE0000007FFFFFF0001FFFFFF8000FFFFFFFF8000FF8000FFFFFFFF8
310
000FFF0003FFFFFFFFF000001FFFFFFFF000E00000FFFFFFFFFFC000FFC00200
310
0FFC000FFF80007FE00001FFFFFFFFFE00001FFFFFFFFFF8000001FFFE000000
310
7FFFFFF0001FFFFFFC000FFFFFFFF8001FFC000FFFFFFFF8001FFF0003FFFFFF
310
FFF00001FFFFFFFFF000E00007FFFFFFFFFF8000FFC000001FFC000FFF80007F
310
C0000FFFFFFFFFFE0000FFFFFFFFFFF8000001FFFE0000007FFFFFF0001FFFFF
310
FC0007FFFFFFF0001FFC0007FFFFFFF0001FFF0003FFFFFFFFF00007FFFFFFFF
310
F000E0001FFFFFFFFFFF8000FFC000001FFC000FFF80007FC0003FFFFFFFFFFE
310
0001FFFFFFFFFFF8000001FFFE0000007FFFFFF0001FFFFFFC0007FFFFFFF000
310
1FFC0007FFFFFFF0001FFF0003FFFFFFFFF0001FFFFFFFFFF000E0003FFFFF00
310
03FF8001FFE000001FFC0007FF80007FC0007FFFFF0007FC0003FFFFF0003FF8
310
000001FFFE0000007FFFFFF0001FFFFFFC0003FFFFFFE0001FFC0003FFFFFFE0
310
001FFF0003FFFFFFFFF0003FFFFFFFFFF000E0003FFFFF0001FF8001FFE00000
310
1FFE0007FF80007FC0007FFFFE0003FC0007FFFFE0003FF8000001FFFE000000
310
7FFFFFF0001FFFFFFE0003FFFFFFE0003FFE0003FFFFFFE0003FFF0003FFFFFF
310
FFF0003FFFFF8001F000E0003FFFFF0001FF0001FFE000001FFE0007FF80007F
310
C0007FFFFE0003FC0007FFFFE0003FF8000001FFFE0000007FFFFFF0001FFFFF
310
FE0001FFFFFFC0003FFE0001FFFFFFC0003FFF0003FFFFFFFFF0003FFFFF0001
310
F000E0003FFFFF0003FF0001FFE000003FFE0007FF80007FC0007FFFFE0003FC
310
0007FFFFE0003FF8000001FFFE0000007FFFFFF0001FFFFFFF0001FFFFFFC000
310
7FFF0001FFFFFFC0007FFF0003FFFFFFFFF0003FFFFF0001F000E0003FFFFE00
310
03FF0003FFF000003FFE0003FF80007FC0007FFFFC0003FE0007FFFFE0003FF8
310
000001FFFE0000007FFFFFF0001FFFFFFF0000FFFFFF80007FFF0000FFFFFF80
310
007FFF0003FFFFFFFFF0003FFFFF0001F000E0003FFFFE0003FF0003FFF00000
310
3FFF0003FF80007FC0007FFFFC0007FE0007FFFFC0003FF8000001FFFE000000
310
7FFFFFF0001FFFFFFF80007FFFFF0000FFFF80007FFFFF0000FFFF0003FFFFFF
310
FFF0003FFFFF0003F000E0003FFFFC0003FE0003FFF000003FFF0003FF80007F
310
E0003FFFF80007FE0003FFFFC0007FF8000001FFFE0000007FFFFFF0001FFFFF
310
FF80003FFFFE0000FFFF80003FFFFE0000FFFF0003FFFFFFFFF0001FFFFE0003
310
F000F0001FFFF80003FE0003FFF000007FFF0001FF80007FE0003FFFF00007FE
310
0001FFFF80007FF8000001FFFE0000007FFFFFF0001FFFFFFFC0000FFFF80001
310
FFFFC0000FFFF80001FFFF0003FFFFFFFFF0001FFFFC0003F000F0000FFFF000
310
07FE0007FFF800007FFF0001FF80007FE0001FFFE00007FF0000FFFE00007FF8
310
000001FFFE0000007FFFFFF0001FFFFFFFC00003FFE00001FFFFC00003FFE000
310
01FFFF0003FFFFFFFFF8000FFFF80003F000F00003FFC00007FC0007FFF80000
310
7FFF8001FF80007FF00007FF80000FFF00007FF80000FFF8000001FFFE000000
310
7F80000000000001FFE000003E000003FFFFE000003E000003FFFF0003FFFFFF
310
FFF80003FFE00007F000F800000000000FFC0007FFF800007FFF8001FF80007F
310
F000000000000FFF000000000000FFF8000001FFFE0000007F80000000000001
310
FFF0000000000007FFFFF0000000000007FFFF0003FFFFFFFFFC00007E000007
310
F000F800000000000FFC0007FFF80000FFFF8000FF80007FF800000000001FFF
310
800000000001FFF8000001FFFE0000007F80000000000001FFF800000000000F
310
FFFFF800000000000FFFFF0003FFFFFFFFFC00000000000FF000FC0000000000
310
1FFC0007FFFC0000FFFF8000FF80007FF800000000003FFFC00000000001FFF8
310
000001FFFE0000007F80000000000001FFF800000000000FFFFFF80000000000
310
0FFFFF0003FFFFFFFFFE00000000001FF000FE00000000003FF8000FFFFC0000
310
FFFF8000FF80007FFC00000000003FFFC00000000003FFF8000001FFFE000000
310
7F80000000000001FFFC00000000001FFFFFFC00000000001FFFFF0003FFFFFF
310
FFFF00000000001FF000FF00000000003FF8000FFFFC0000FFFFC000FF80007F
310
FE00000000007FFFE00000000007FFF8000001FFFE0000007F80000000000001
310
FFFE00000000003FFFFFFE00000000003FFFFF0003FFFFFFFFFF80000000003F
310
F000FF80000000007FF8000FFFFC0001FFFFC0007F80007FFF0000000000FFFF
310
F0000000000FFFF800000000000000007F80000000000001FFFF8000000000FF
310
FFFFFF8000000000FFFFFF0003FFFFFFFFFFC0000000007FF000FFC000000000
310
FFF8000FFFFE0001FFFFC0007F80007FFF8000000001FFFFF8000000001FFFF8
310
00000000000000007F80000000000001FFFFC000000001FFFFFFFFC000000001
310
FFFFFF0003FFFFFFFFFFE000000000FFF000FFE000000003FFF0001FFFFE0001
310
FFFFC0007F80007FFFC000000007FFFFFE000000003FFFF80000000000000000
310
7F80000000000001FFFFE000000003FFFFFFFFE000000003FFFFFF0003FFFFFF
310
FFFFF000000003FFF000FFF80000000FFFF0001FFFFE0001FFFFE0007F80007F
310
FFF00000000FFFFFFF00000000FFFFF800000000000000007F80000000000001
310
FFFFF80000000FFFFFFFFFF80000000FFFFFFF0003FFFFFFFFFFFC0000000FFF
310
F000FFFE0000003FFFF0001FFFFE0003FFFFE0003F80007FFFFC0000003FFFFF
310
FFC0000003FFFFF800000000000000007F80000000000001FFFFFE0000003FFF
310
FFFFFFFE0000003FFFFFFF0003FFFFFFFFFFFF0000003FFFF000FFFF800000FF
310
FFF0001FFFFF0003FFFFE0003F80007FFFFF000001FFFFFFFFF800001FFFFFF8
310
00000000000000007F80000000000001FFFFFFC00001FFFFFFFFFFFFC00001FF
310
FFFFFF0003FFFFFFFFFFFFC00000FFFFF000FFFFF8000FFFFFFFFFFFFFFFFFFF
310
FFFFFFFFFFFFFFFFFFFFF0001FFFFFFFFFFF0000FFFFFFF80000000000000000
310
7FFFFFFFFFFFFFFFFFFFFFFC001FFFFFFFFFFFFFFC001FFFFFFFFFFFFFFFFFFF
310
FFFFFFFC001FFFFFF000FFFFFFFFFFFFFFFFFFFFFFFFFFFFFFFFFFFFFFFFFFFF
310
FFFFFFFFFFFFFFFFFFFFFFFFFFFFFFFFFFFFFFFFFFFFFFFFFFFFFFFFFFFFFFFF
310
FFFFFFFFFFFFFFFFFFFFFFFFFFFFFFFFFFFFFFFFFFFFFFFFFFFFFFFFFFFFFFFF
310
F000FFFFFFFFFFFFFFFFFFFFFFFFFFFFFFFFFFFFFFFFFFFFFFFFFFFFFFFFFFFF
310
FFFFFFFFFFFFFFFFFFFFFFFFFFFFFFFFFFFFFFFFFFFFFFFFFFFFFFFFFFFFFFFF
310
FFFFFFFFFFFFFFFFFFFFFFFFFFFFFFFFFFFFFFFFFFFFFFFFF000FFFFFFFFFFFF
310
FFFFFFFFFFFFFFFFFFFFFFFFFFFFFFFFFFFFFFFFFFFFFFFFFFFFFFFFFFFFFFFF
310
FFFFFFFFFFFFFFFFFFFFFFFFFFFFFFFFFFFFFFFFFFFFFFFFFFFFFFFFFFFFFFFF
310
FFFFFFFFFFFFFFFFFFFFFFFFFFFFFFFFF000FFFFFFFFFFFFFFFFFFFFFFFFFFFF
310
FFFFFFFFFFFFFFFFFFFFFFFFFFFFFFFFFFFFFFFFFFFFFFFFFFFFFFFFFFFFFFFF
310
FFFFFFFFFFFFFFFFFFFFFFFFFFFFFFFFFFFFFFFFFFFFFFFFFFFFFFFFFFFFFFFF
310
FFFFFFFFFFFFFFFFF000FFFFFFFFFFFFFFFFFFFFFFFFFFFFFFFFFFFFFFFFFFFF
310
FFFFFFFFFFFFFFFFFFFFFFFFFFFFFFFFFFFFFFFFFFFFFFFFFFFFFFFFFFFFFFFF
310
FFFFFFFFFFFFFFFFFFFFFFFFFFFFFFFFFFFFFFFFFFFFFFFFFFFFFFFFFFFFFFFF
310
F000FFFFFFFFFFFFFFFFFFFFFFFFFFFFFFFFFFFFFFFFFFFFFFFFFFFFFFFFFFFF
310
FFFFFFFFFFFFFFFFFFFFFFFFFFFFFFFFFFFFFFFFFFFFFFFFFFFFFFFFFFFFFFFF
310
FFFFFFFFFFFFFFFFFFFFFFFFFFFFFFFFFFFFFFFFFFFFFFFFF000FFFFFFFFFFFF
310
FFFFFFFFFFFFFFFFFFFFFFFFFFFFFFFFFFFFFFFFFFFFFFFFFFFFFFFFFFFFFFFF
310
FFFFFFFFFFFFFFFFFFFFFFFFFFFFFFFFFFFFFFFFFFFFFFFFFFFFFFFFFFFFFFFF
310
FFFFFFFFFFFFFFFFFFFFFFFFFFFFFFFFF000FFFFFFFFFFFFFFFFFFFFFFFFFFFF
310
FFFFFFFFFFFFFFFFFFFFFFFFFFFFFFFFFFFFFFFFFFFFFFFFFFFFFFFFFFFFFFFF
310
FFFFFFFFFFFFFFFFFFFFFFFFFFFFFFFFFFFFFFFFFFFFFFFFFFFFFFFFFFFFFFFF
310
FFFFFFFFFFFFFFFFF000FFFFFFFFFFFFFFFFFFFFFFFFFFFFFFFFFFFFFFFFFFFF
310
FFFFFFFFFFFFFFFFFFFFFFFFFFFFFFFFFFFFFFFFFFFFFFFFFFFFFFFFFFFFFFFF
310
FFFFFFFFFFFFFFFFFFFFFFFFFFFFFFFFFFFFFFFFFFFFFFFFFFFFFFFFFFFFFFFF
310
F000FFFFFFFFFFFFFFFFFFFFFFFFFFFFFFFFFFFFFFFFFFFFFFFFFFFFFFFFFFFF
310
FFFFFFFFFFFFFFFFFFFFFFFFFFFFFFFFFFFFFFFFFFFFFFFFFFFFFFFFFFFFFFFF
310
FFFFFFFFFFFFFFFFFFFFFFFFFFFFFFFFFFFFFFFFFFFFFFFFF000FFFFFFFFFFFF
310
FFFFFFFFFFFFFFFFFFFFFFFFFFFFFFFFFFFFFFFFFFFFFFFFFFFFFFFFFFFFFFFF
310
FFFFFFFFFFFFFFFFFFFFFFFFFFFFFFFFFFFFFFFFFFFFFFFFFFFFFFFFFFFFFFFF
310
FFFFFFFFFFFFFFFFFFFFFFFFFFFFFFFFF000FFFFFFFFFFFFFFFFFFFFFFFFFFFF
310
FFFFFFFFFFFFFFFFFFFFFFFFFFFFFFFFFFFFFFFFFFFFFFFFFFFFFFFFFFFFFFFF
310
FFFFFFFFFFFFFFFFFFFFFFFFFFFFFFFFFFFFFFFFFFFFFFFFFFFFFFFFFFFFFFFF
310
FFFFFFFFFFFFFFFFF000FFFFFFFFFFFFFFFFFFFFFFFFFFFFFFFFFFFFFFFFFFFF
310
FFFFFFFFFFFFFFFFFFFFFFFFFFFFFFFFFFFFFFFFFFFFFFFFFFFFFFFFFFFFFFFF
310
FFFFFFFFFFFFFFFFFFFFFFFFFFFFFFFFFFFFFFFFFFFFFFFFFFFFFFFFFFFFFFFF
310
F000FFFFFFFFFFFFFFFFFFFFFFFFFFFFFFFFFFFFFFFFFFFFFFFFFFFFFFFFFFFF
310
FFFFFFFFFFFFFFFFFFFFFFFFFFFFFFFFFFFFFFFFFFFFFFFFFFFFFFFFFFFFFFFF
310
FFFFFFFFFFFFFFFFFFFFFFFFFFFFFFFFFFFFFFFFFFFFFFFFF000FFFFFFFFFFFF
310
FFFFFFFFFFFFFFFFFFFFFFFFFFFFFFFFFFFFFFFFFFFFFFFFFFFFFFFFFFFFFFFF
310
FFFFFFFFFFFFFFFFFFFFFFFFFFFFFFFFFFFFFFFFFFFFFFFFFFFFFFFFFFFFFFFF
310
FFFFFFFFFFFFFFFFFFFFFFFFFFFFFFFFF000FFFFFFFFFFFFFFFFFFFFFFFFFFFF
310
FFFFFFFFFFFFFFFFFFFFFFFFFFFFFFFFFFFFFFFFFFFFFFFFFFFFFFFFFFFFFFFF
310
FFFFFFFFFFFFFFFFFFFFFFFFFFFFFFFFFFFFFFFFFFFFFFFFFFFFFFFFFFFFFFFF
310
FFFFFFFFFFFFFFFFF000FFFFFFFFFFFFFFFFFFFFFFFFFFFFFFFFFFFFFFFFFFFF
310
FFFFFFFFFFFFFFFFFFFFFFFFFFFFFFFFFFFFFFFFFFFFFFFFFFFFFFFFFFFFFFFF
310
FFFFFFFFFFFFFFFFFFFFFFFFFFFFFFFFFFFFFFFFFFFFFFFFFFFFFFFFFFFFFFFF
310
F000FFFFFFFFFFFFFFFFFFFFFFFFFFFFFFFFFFFFFFFFFFFFFFFFFFFFFFFFFFFF
310
FFFFFFFFFFFFFFFFFFFFFFFFFFFFFFFFFFFFFFFFFFFFFFFFFFFFFFFFFFFFFFFF
310
FFFFFFFFFFFFFFFFFFFFFFFFFFFFFFFFFFFFFFFFFFFFFFFFF000FFFFFFFFFFFF
310
FFFFFFFFFFFFFFFFFFFFFFFFFFFFFFFFFFFFFFFFFFFFFFFFFFFFFFFFFFFFFFFF
310
FFFFFFFFFFFFFFFFFFFFFFFFFFFFFFFFFFFFFFFFFFFFFFFFFFFFFFFFFFFFFFFF
310
FFFFFFFFFFFFFFFFFFFFFFFFFFFFFFFFF000FFFFFFFFFFFFFFFFFFFFFFFFFFFF
310
FFFFFFFFFFFFFFFFFFFFFFFFFFFFFFFFFFFFFFFFFFFFFFFFFFFFFFFFFFFFFFFF
310
FFFFFFFFFFFFFFFFFFFFFFFFFFFFFFFFFFFFFFFFFFFFFFFFFFFFFFFFFFFFFFFF
310
FFFFFFFFFFFFFFFFF000FFFFFFFFFFFFFFFFFFFFFFFFFFFFFFFFFFFFFFFFFFFF
310
FFFFFFFFFFFFFFFFFFFFFFFFFFFFFFFFFFFFFFFFFFFFFFFFFFFFFFFFFFFFFFFF
310
FFFFFFFFFFFFFFFFFFFFFFFFFFFFFFFFFFFFFFFFFFFFFFFFFFFFFFFFFFFFFFFF
310
F000FFFFFFFFFFFFFFFFFFFFFFFFFFFFFFFFFFFFFFFFFFFFFFFFFFFFFFFFFFFF
310
FFFFFFFFFFFFFFFFFFFFFFFFFFFFFFFFFFFFFFFFFFFFFFFFFFFFFFFFFFFFFFFF
310
FFFFFFFFFFFFFFFFFFFFFFFFFFFFFFFFFFFFFFFFFFFFFFFFF000FFFFFFFFFFFF
310
FFFFFFFFFFFFFFFFFFFFFFFFFFFFFFFFFFFFFFFFFFFFFFFFFFFFFFFFFFFFFFFF
310
FFFFFFFFFFFFFFFFFFFFFFFFFFFFFFFFFFFFFFFFFFFFFFFFFFFFFFFFFFFFFFFF
310
FFFFFFFFFFFFFFFFFFFFFFFFFFFFFFFFF0000000000000000000000000000000
310
0000000000000000000000000000000000000000000000000000000000000000
310
0000000000000000000000000000000000000000000000000000000000000000
310
0000000000000000000000000000000000000000000000000000000000000000
310
0000000000000000000000000000000000000000000000000000000000000000
310
0000000000000000000000000000000000000000000000000000000000000000
310
0000000000000000000000000000000000000000000000000000000000000000
310
0000000000000000000000000000000000000000000000000000000000000000
310
0000000000000000000000000000000000000000000000000000000000000000
310
0000000000000000000000000000000000000000000000000000000000000000
310
0000000000000000000000000000000000000000000000000000000000000000
310
0000000000000000000000000000000000000000000000000000000000000000
310
0000000000000000000000000000000000000000000000000000000000000000
310
0000000000000000000000000000000000000000000000000000000000000000
310
0000000000000000000000000000000000000000000000000000000000000000
310
0000000000000000000000000000000000000000000000000000000000000000
  1
OLE
  0
ENDSEC
  0
SECTION
  2
OBJECTS
  0
DICTIONARY
  5
C
330
0
100
AcDbDictionary
281
     1
  3
ACAD_GROUP
350
D
  3
ACAD_LAYOUT
350
1A
  3
ACAD_MLINESTYLE
350
17
  3
ACAD_PLOTSETTINGS
350
19
  3
ACAD_PLOTSTYLENAME
350
E
  0
DICTIONARY
  5
D
102
{ACAD_REACTORS
330
C
102
}
330
C
100
AcDbDictionary
281
     1
  0
DICTIONARY
  5
1A
102
{ACAD_REACTORS
330
C
102
}
330
C
100
AcDbDictionary
281
     1
  3
Layout1
350
1E
  3
Layout2
350
26
  3
Model
350
22
  0
DICTIONARY
  5
17
102
{ACAD_REACTORS
330
C
102
}
330
C
100
AcDbDictionary
281
     1
  3
Standard
350
18
  0
DICTIONARY
  5
19
102
{ACAD_REACTORS
330
C
102
}
330
C
100
AcDbDictionary
281
     1
  0
ACDBDICTIONARYWDFLT
  5
E
102
{ACAD_REACTORS
330
C
102
}
330
C
100
AcDbDictionary
281
     1
  3
Normal
350
F
100
AcDbDictionaryWithDefault
340
F
  0
LAYOUT
  5
1E
102
{ACAD_REACTORS
330
1A
102
}
330
1A
100
AcDbPlotSettings
  1

  2
none_device
  4

  6

 40
0.0
 41
0.0
 42
0.0
 43
0.0
 44
0.0
 45
0.0
 46
0.0
 47
0.0
 48
0.0
 49
0.0
140
0.0
141
0.0
142
1.0
143
1.0
 70
   688
 72
     0
 73
     0
 74
     5
  7

 75
    16
147
1.0
148
0.0
149
0.0
100
AcDbLayout
  1
Layout1
 70
     1
 71
     1
 10
0.0
 20
0.0
 11
420.0
 21
297.0
 12
0.0
 22
0.0
 32
0.0
 14
1.0000000000E+20
 24
1.0000000000E+20
 34
1.0000000000E+20
 15
-1.0000000000E+20
 25
-1.0000000000E+20
 35
-1.0000000000E+20
146
0.0
 13
0.0
 23
0.0
 33
0.0
 16
1.0
 26
0.0
 36
0.0
 17
0.0
 27
1.0
 37
0.0
 76
     0
330
1B
  0
LAYOUT
  5
26
102
{ACAD_REACTORS
330
1A
102
}
330
1A
100
AcDbPlotSettings
  1

  2
none_device
  4

  6

 40
0.0
 41
0.0
 42
0.0
 43
0.0
 44
0.0
 45
0.0
 46
0.0
 47
0.0
 48
0.0
 49
0.0
140
0.0
141
0.0
142
1.0
143
1.0
 70
   688
 72
     0
 73
     0
 74
     5
  7

 75
    16
147
1.0
148
0.0
149
0.0
100
AcDbLayout
  1
Layout2
 70
     1
 71
     2
 10
0.0
 20
0.0
 11
0.0
 21
0.0
 12
0.0
 22
0.0
 32
0.0
 14
0.0
 24
0.0
 34
0.0
 15
0.0
 25
0.0
 35
0.0
146
0.0
 13
0.0
 23
0.0
 33
0.0
 16
1.0
 26
0.0
 36
0.0
 17
0.0
 27
1.0
 37
0.0
 76
     0
330
23
  0
LAYOUT
  5
22
102
{ACAD_REACTORS
330
1A
102
}
330
1A
100
AcDbPlotSettings
  1

  2
none_device
  4

  6

 40
0.0
 41
0.0
 42
0.0
 43
0.0
 44
0.0
 45
0.0
 46
0.0
 47
0.0
 48
0.0
 49
0.0
140
0.0
141
0.0
142
1.0
143
1.0
 70
  1712
 72
     0
 73
     0
 74
     0
  7

 75
     0
147
1.0
148
0.0
149
0.0
100
AcDbLayout
  1
Model
 70
     1
 71
     0
 10
0.0
 20
0.0
 11
297.0
 21
210.0
 12
0.0
 22
0.0
 32
0.0
 14
0.0
 24
0.0
 34
0.0
 15
297.0
 25
210.0
 35
0.0
146
0.0
 13
0.0
 23
0.0
 33
0.0
 16
1.0
 26
0.0
 36
0.0
 17
0.0
 27
1.0
 37
0.0
 76
     0
330
1F
331
29
  0
MLINESTYLE
  5
18
102
{ACAD_REACTORS
330
17
102
}
330
17
100
AcDbMlineStyle
  2
Standard
 70
     0
  3

 62
   256
 51
90.0
 52
90.0
 71
     2
 49
0.5
 62
   256
  6
BYLAYER
 49
-0.5
 62
   256
  6
BYLAYER
  0
ACDBPLACEHOLDER
  5
F
102
{ACAD_REACTORS
330
E
102
}
330
E
  0
ENDSEC
  0
EOF
