  0
SECTION
  2
HEADER
  9
$ACADVER
  1
AC1015
  9
$ACADMAINTVER
 70
     6
  9
$DWGCODEPAGE
  3
ANSI_1252
  9
$INSBASE
 10
0.0
 20
0.0
 30
0.0
  9
$EXTMIN
 10
0.0
 20
0.0
 30
0.0
  9
$EXTMAX
 10
297.0
 20
210.0
 30
0.0
  9
$LIMMIN
 10
0.0
 20
0.0
  9
$LIMMAX
 10
297.0
 20
210.0
  9
$ORTHOMODE
 70
     0
  9
$REGENMODE
 70
     1
  9
$FILLMODE
 70
     1
  9
$QTEXTMODE
 70
     0
  9
$MIRRTEXT
 70
     1
  9
$LTSCALE
 40
1.0
  9
$ATTMODE
 70
     1
  9
$TEXTSIZE
 40
2.0
  9
$TRACEWID
 40
1.0
  9
$TEXTSTYLE
  7
Standard
  9
$CLAYER
  8
0
  9
$CELTYPE
  6
ByLayer
  9
$CECOLOR
 62
   256
  9
$CELTSCALE
 40
1.0
  9
$DISPSILH
 70
     0
  9
$DIMSCALE
 40
1.0
  9
$DIMASZ
 40
3.0
  9
$DIMEXO
 40
0.0
  9
$DIMDLI
 40
3.75
  9
$DIMRND
 40
0.0
  9
$DIMDLE
 40
0.0
  9
$DIMEXE
 40
1.0
  9
$DIMTP
 40
0.0
  9
$DIMTM
 40
0.0
  9
$DIMTXT
 40
2.0
  9
$DIMCEN
 40
2.5
  9
$DIMTSZ
 40
0.0
  9
$DIMTOL
 70
     0
  9
$DIMLIM
 70
     0
  9
$DIMTIH
 70
     1
  9
$DIMTOH
 70
     1
  9
$DIMSE1
 70
     0
  9
$DIMSE2
 70
     0
  9
$DIMTAD
 70
     1
  9
$DIMZIN
 70
     0
  9
$DIMBLK
  1

  9
$DIMASO
 70
     1
  9
$DIMSHO
 70
     1
  9
$DIMPOST
  1

  9
$DIMAPOST
  1

  9
$DIMALT
 70
     0
  9
$DIMALTD
 70
     3
  9
$DIMALTF
 40
0.0393700787
  9
$DIMLFAC
 40
1.0
  9
$DIMTOFL
 70
     1
  9
$DIMTVP
 40
0.0
  9
$DIMTIX
 70
     0
  9
$DIMSOXD
 70
     0
  9
$DIMSAH
 70
     0
  9
$DIMBLK1
  1

  9
$DIMBLK2
  1

  9
$DIMSTYLE
  2
ISO-25
  9
$DIMCLRD
 70
     0
  9
$DIMCLRE
 70
     0
  9
$DIMCLRT
 70
     0
  9
$DIMTFAC
 40
1.0
  9
$DIMGAP
 40
1.524
  9
$DIMJUST
 70
     0
  9
$DIMSD1
 70
     0
  9
$DIMSD2
 70
     0
  9
$DIMTOLJ
 70
     0
  9
$DIMTZIN
 70
     0
  9
$DIMALTZ
 70
     0
  9
$DIMALTTZ
 70
     0
  9
$DIMUPT
 70
     0
  9
$DIMDEC
 70
     2
  9
$DIMTDEC
 70
     3
  9
$DIMALTU
 70
     2
  9
$DIMALTTD
 70
     3
  9
$DIMTXSTY
  7
Standard
  9
$DIMAUNIT
 70
     0
  9
$DIMADEC
 70
     2
  9
$DIMALTRND
 40
0.0
  9
$DIMAZIN
 70
     0
  9
$DIMDSEP
 70
    44
  9
$DIMATFIT
 70
     3
  9
$DIMFRAC
 70
     0
  9
$DIMLDRBLK
  1

  9
$DIMLUNIT
 70
     2
  9
$DIMLWD
 70
    -2
  9
$DIMLWE
 70
    -2
  9
$DIMTMOVE
 70
     0
  9
$LUNITS
 70
     2
  9
$LUPREC
 70
     2
  9
$SKETCHINC
 40
1.0
  9
$FILLETRAD
 40
10.0
  9
$AUNITS
 70
     0
  9
$AUPREC
 70
     2
  9
$MENU
  1
.
  9
$ELEVATION
 40
0.0
  9
$PELEVATION
 40
0.0
  9
$THICKNESS
 40
0.0
  9
$LIMCHECK
 70
     0
  9
$CHAMFERA
 40
10.0
  9
$CHAMFERB
 40
10.0
  9
$CHAMFERC
 40
20.0
  9
$CHAMFERD
 40
0.0
  9
$SKPOLY
 70
     0
  9
$TDCREATE
 40
2456279.385133577
  9
$TDUCREATE
 40
2456279.34346691
  9
$TDUPDATE
 40
2456279.385135197
  9
$TDUUPDATE
 40
2456279.34346853
  9
$TDINDWG
 40
0.0000000116
  9
$TDUSRTIMER
 40
0.0000000116
  9
$USRTIMER
 70
     1
  9
$ANGBASE
 50
0.0
  9
$ANGDIR
 70
     0
  9
$PDMODE
 70
     0
  9
$PDSIZE
 40
-1.0
  9
$PLINEWID
 40
0.0
  9
$SPLFRAME
 70
     0
  9
$SPLINETYPE
 70
     6
  9
$SPLINESEGS
 70
     8
  9
$HANDSEED
  5
355
  9
$SURFTAB1
 70
     6
  9
$SURFTAB2
 70
     6
  9
$SURFTYPE
 70
     6
  9
$SURFU
 70
     6
  9
$SURFV
 70
     6
  9
$UCSBASE
  2

  9
$UCSNAME
  2

  9
$UCSORG
 10
0.0
 20
0.0
 30
0.0
  9
$UCSXDIR
 10
1.0
 20
0.0
 30
0.0
  9
$UCSYDIR
 10
0.0
 20
1.0
 30
0.0
  9
$UCSORTHOREF
  2

  9
$UCSORTHOVIEW
 70
     0
  9
$UCSORGTOP
 10
0.0
 20
0.0
 30
0.0
  9
$UCSORGBOTTOM
 10
0.0
 20
0.0
 30
0.0
  9
$UCSORGLEFT
 10
0.0
 20
0.0
 30
0.0
  9
$UCSORGRIGHT
 10
0.0
 20
0.0
 30
0.0
  9
$UCSORGFRONT
 10
0.0
 20
0.0
 30
0.0
  9
$UCSORGBACK
 10
0.0
 20
0.0
 30
0.0
  9
$PUCSBASE
  2

  9
$PUCSNAME
  2

  9
$PUCSORG
 10
0.0
 20
0.0
 30
0.0
  9
$PUCSXDIR
 10
1.0
 20
0.0
 30
0.0
  9
$PUCSYDIR
 10
0.0
 20
1.0
 30
0.0
  9
$PUCSORTHOREF
  2

  9
$PUCSORTHOVIEW
 70
     0
  9
$PUCSORGTOP
 10
0.0
 20
0.0
 30
0.0
  9
$PUCSORGBOTTOM
 10
0.0
 20
0.0
 30
0.0
  9
$PUCSORGLEFT
 10
0.0
 20
0.0
 30
0.0
  9
$PUCSORGRIGHT
 10
0.0
 20
0.0
 30
0.0
  9
$PUCSORGFRONT
 10
0.0
 20
0.0
 30
0.0
  9
$PUCSORGBACK
 10
0.0
 20
0.0
 30
0.0
  9
$USERI1
 70
     0
  9
$USERI2
 70
     0
  9
$USERI3
 70
     0
  9
$USERI4
 70
     0
  9
$USERI5
 70
     0
  9
$USERR1
 40
0.0
  9
$USERR2
 40
0.0
  9
$USERR3
 40
0.0
  9
$USERR4
 40
0.0
  9
$USERR5
 40
0.0
  9
$WORLDVIEW
 70
     1
  9
$SHADEDGE
 70
     3
  9
$SHADEDIF
 70
    70
  9
$TILEMODE
 70
     1
  9
$MAXACTVP
 70
    64
  9
$PINSBASE
 10
0.0
 20
0.0
 30
0.0
  9
$PLIMCHECK
 70
     0
  9
$PEXTMIN
 10
1.0000000000E+20
 20
1.0000000000E+20
 30
1.0000000000E+20
  9
$PEXTMAX
 10
-1.0000000000E+20
 20
-1.0000000000E+20
 30
-1.0000000000E+20
  9
$PLIMMIN
 10
0.0
 20
0.0
  9
$PLIMMAX
 10
420.0
 20
297.0
  9
$UNITMODE
 70
     0
  9
$VISRETAIN
 70
     1
  9
$PLINEGEN
 70
     0
  9
$PSLTSCALE
 70
     1
  9
$TREEDEPTH
 70
  3020
  9
$CMLSTYLE
  2
Standard
  9
$CMLJUST
 70
     0
  9
$CMLSCALE
 40
20.0
  9
$PROXYGRAPHICS
 70
     1
  9
$MEASUREMENT
 70
     1
  9
$CELWEIGHT
370
    -1
  9
$ENDCAPS
280
     0
  9
$JOINSTYLE
280
     0
  9
$LWDISPLAY
290
     1
  9
$INSUNITS
 70
     4
  9
$HYPERLINKBASE
  1

  9
$STYLESHEET
  1

  9
$XEDIT
290
     1
  9
$CEPSNTYPE
380
     0
  9
$PSTYLEMODE
290
     1
  9
$FINGERPRINTGUID
  2
{B098DDA2-D9D9-4D0E-BCA6-406F89246C65}
  9
$VERSIONGUID
  2
{FAEB1C32-E019-11D5-929B-00C0DF256EC4}
  9
$EXTNAMES
290
     1
  9
$PSVPSCALE
 40
0.0
  9
$OLESTARTUP
290
     0
  0
ENDSEC
  0
SECTION
  2
CLASSES
  0
CLASS
  1
ACDBDICTIONARYWDFLT
  2
AcDbDictionaryWithDefault
  3
ObjectDBX Classes
 90
        0
280
     0
281
     0
  0
CLASS
  1
VISUALSTYLE
  2
AcDbVisualStyle
  3
ObjectDBX Classes
 90
     4095
280
     0
281
     0
  0
CLASS
  1
MATERIAL
  2
AcDbMaterial
  3
ObjectDBX Classes
 90
     1153
280
     0
281
     0
  0
CLASS
  1
ACDBPLACEHOLDER
  2
AcDbPlaceHolder
  3
ObjectDBX Classes
 90
        0
280
     0
281
     0
  0
CLASS
  1
LAYOUT
  2
AcDbLayout
  3
ObjectDBX Classes
 90
        0
280
     0
281
     0
  0
ENDSEC
  0
SECTION
  2
TABLES
  0
TABLE
  2
VPORT
  5
8
330
0
100
AcDbSymbolTable
 70
     1
  0
VPORT
  5
29
330
8
100
AcDbSymbolTableRecord
100
AcDbViewportTableRecord
  2
*Active
 70
     0
 10
0.0
 20
0.0
 11
1.0
 21
1.0
 12
148.5
 22
105.0
 13
0.0
 23
0.0
 14
10.0
 24
10.0
 15
10.0
 25
10.0
 16
0.0
 26
0.0
 36
1.0
 17
0.0
 27
0.0
 37
0.0
 40
210.0
 41
1.4142857143
 42
50.0
 43
0.0
 44
0.0
 50
0.0
 51
0.0
 71
     0
 72
  2000
 73
     1
 74
     3
 75
     0
 76
     0
 77
     0
 78
     0
281
     0
 65
     1
110
0.0
120
0.0
130
0.0
111
1.0
121
0.0
131
0.0
112
0.0
122
1.0
132
0.0
 79
     0
146
0.0
  0
ENDTAB
  0
TABLE
  2
LTYPE
  5
5
330
0
100
AcDbSymbolTable
 70
     6
  0
LTYPE
  5
14
330
5
100
AcDbSymbolTableRecord
100
AcDbLinetypeTableRecord
  2
ByBlock
 70
     0
  3

 72
    65
 73
     0
 40
0.0
  0
LTYPE
  5
15
330
5
100
AcDbSymbolTableRecord
100
AcDbLinetypeTableRecord
  2
ByLayer
 70
     0
  3

 72
    65
 73
     0
 40
0.0
  0
LTYPE
  5
16
330
5
100
AcDbSymbolTableRecord
100
AcDbLinetypeTableRecord
  2
Continuous
 70
     0
  3
Solid line
 72
    65
 73
     0
 40
0.0
  0
LTYPE
  5
3F
330
5
100
AcDbSymbolTableRecord
100
AcDbLinetypeTableRecord
  2
HIDDEN
 70
     0
  3
Hidden __ __ __ __ __ __ __ __ __ __ __ __ __ __
 72
    65
 73
     2
 40
1.905
 49
1.27
 74
     0
 49
-0.635
 74
     0
  0
LTYPE
  5
40
330
5
100
AcDbSymbolTableRecord
100
AcDbLinetypeTableRecord
  2
PHANTOM
 70
     0
  3
Phantom ______  __  __  ______  __  __  ______
 72
    65
 73
     6
 40
12.7
 49
6.35
 74
     0
 49
-1.27
 74
     0
 49
1.27
 74
     0
 49
-1.27
 74
     0
 49
1.27
 74
     0
 49
-1.27
 74
     0
  0
LTYPE
  5
41
330
5
100
AcDbSymbolTableRecord
100
AcDbLinetypeTableRecord
  2
CENTER
 70
     0
  3
Center ____ _ ____ _ ____ _ ____ _ ____ _ ____
 72
    65
 73
     4
 40
10.16
 49
6.35
 74
     0
 49
-1.27
 74
     0
 49
1.27
 74
     0
 49
-1.27
 74
     0
  0
LTYPE
  5
42
330
5
100
AcDbSymbolTableRecord
100
AcDbLinetypeTableRecord
  2
CENTERX2
 70
     0
  3
Center (2x) ________  __  ________  __  _____
 72
    65
 73
     4
 40
20.32
 49
12.7
 74
     0
 49
-2.54
 74
     0
 49
2.54
 74
     0
 49
-2.54
 74
     0
  0
LTYPE
  5
43
330
5
100
AcDbSymbolTableRecord
100
AcDbLinetypeTableRecord
  2
DOT2
 70
     0
  3
Dot (.5x) ........................................
 72
    65
 73
     2
 40
0.635
 49
0.0
 74
     0
 49
-0.635
 74
     0
  0
ENDTAB
  0
TABLE
  2
LAYER
  5
2
330
0
100
AcDbSymbolTable
 70
     5
  0
LAYER
  5
10
330
2
100
AcDbSymbolTableRecord
100
AcDbLayerTableRecord
  2
0
 70
     0
 62
     7
  6
Continuous
370
    -3
390
F
  0
LAYER
  5
44
330
2
100
AcDbSymbolTableRecord
100
AcDbLayerTableRecord
  2
FORMAT
 70
     0
 62
     7
  6
Continuous
370
    -3
390
F
  0
LAYER
  5
45
330
2
100
AcDbSymbolTableRecord
100
AcDbLayerTableRecord
  2
VERMASSUNG
 70
     0
 62
     7
  6
Continuous
370
    -3
390
F
  0
LAYER
  5
46
330
2
100
AcDbSymbolTableRecord
100
AcDbLayerTableRecord
  2
KOPF_DÜNN
 70
     0
 62
     7
  6
Continuous
370
    -3
390
F
  0
LAYER
  5
47
330
2
100
AcDbSymbolTableRecord
100
AcDbLayerTableRecord
  2
KOPF_DICK
 70
     0
 62
     7
  6
Continuous
370
    15
390
F
  0
ENDTAB
  0
TABLE
  2
STYLE
  5
3
330
0
100
AcDbSymbolTable
 70
     3
  0
STYLE
  5
11
330
3
100
AcDbSymbolTableRecord
100
AcDbTextStyleTableRecord
  2
Standard
 70
     0
 40
0.0
 41
1.0
 50
0.0
 71
     0
 42
2.0
  3
txt
  4

  0
STYLE
  5
48
330
3
100
AcDbSymbolTableRecord
100
AcDbTextStyleTableRecord
  2
SLDTEXTSTYLE0
 70
     0
 40
0.0
 41
0.7
 50
0.0
 71
     0
 42
0.2
  3
TXT
  4

  0
STYLE
  5
4C
330
3
100
AcDbSymbolTableRecord
100
AcDbTextStyleTableRecord
  2
SLDTEXTSTYLE1
 70
     0
 40
0.0
 41
0.6526315789
 50
0.0
 71
     0
 42
0.2
  3
TXT
  4

  0
ENDTAB
  0
TABLE
  2
VIEW
  5
6
330
0
100
AcDbSymbolTable
 70
     0
  0
ENDTAB
  0
TABLE
  2
UCS
  5
7
330
0
100
AcDbSymbolTable
 70
     0
  0
ENDTAB
  0
TABLE
  2
APPID
  5
9
330
0
100
AcDbSymbolTable
 70
     1
  0
APPID
  5
12
330
9
100
AcDbSymbolTableRecord
100
AcDbRegAppTableRecord
  2
ACAD
 70
     0
  0
ENDTAB
  0
TABLE
  2
DIMSTYLE
  5
A
330
0
100
AcDbSymbolTable
 70
     2
100
AcDbDimStyleTable
  0
DIMSTYLE
105
27
330
A
100
AcDbSymbolTableRecord
100
AcDbDimStyleTableRecord
  2
ISO-25
 70
     0
 41
2.5
 42
0.625
 43
3.75
 44
1.25
 73
     0
 74
     0
 77
     1
 78
     8
140
2.5
141
2.5
143
0.0393700787
147
0.625
171
     3
172
     1
178
     0
271
     2
272
     2
274
     3
278
    44
283
     0
284
     8
340
11
  0
DIMSTYLE
105
1E4
102
{ACAD_REACTORS
330
1E3
330
1F0
330
1FA
330
348
102
}
330
A
100
AcDbSymbolTableRecord
100
AcDbDimStyleTableRecord
  2
SLDDIMSTYLE0
 70
     0
 41
3.0
 44
0.0
 45
0.000000001
 73
     0
 74
     0
 77
     1
 78
    12
 79
     3
140
2.0
147
0.5
173
     1
178
     0
271
     2
272
     3
276
     2
284
    12
340
48
  0
ENDTAB
  0
TABLE
  2
BLOCK_RECORD
  5
1
330
0
100
AcDbSymbolTable
 70
     5
  0
BLOCK_RECORD
  5
1F
330
1
100
AcDbSymbolTableRecord
100
AcDbBlockTableRecord
  2
*Model_Space
340
22
  0
BLOCK_RECORD
  5
1B
330
1
100
AcDbSymbolTableRecord
100
AcDbBlockTableRecord
  2
*Paper_Space
340
1E
  0
BLOCK_RECORD
  5
23
330
1
100
AcDbSymbolTableRecord
100
AcDbBlockTableRecord
  2
*Paper_Space0
340
26
  0
BLOCK_RECORD
  5
1E5
330
1
100
AcDbSymbolTableRecord
100
AcDbBlockTableRecord
  2
_D
340
0
  0
BLOCK_RECORD
  5
1F1
330
1
100
AcDbSymbolTableRecord
100
AcDbBlockTableRecord
  2
_D_1
340
0
  0
BLOCK_RECORD
  5
1FB
330
1
100
AcDbSymbolTableRecord
100
AcDbBlockTableRecord
  2
_D_2
340
0
  0
BLOCK_RECORD
  5
349
330
1
100
AcDbSymbolTableRecord
100
AcDbBlockTableRecord
  2
_D_3
340
0
  0
ENDTAB
  0
ENDSEC
  0
SECTION
  2
BLOCKS
  0
BLOCK
  5
20
330
1F
100
AcDbEntity
  8
0
100
AcDbBlockBegin
  2
*Model_Space
 70
     0
 10
0.0
 20
0.0
 30
0.0
  3
*Model_Space
  1

  0
ENDBLK
  5
21
330
1F
100
AcDbEntity
  8
0
100
AcDbBlockEnd
  0
BLOCK
  5
1C
330
1B
100
AcDbEntity
 67
     1
  8
0
100
AcDbBlockBegin
  2
*Paper_Space
 70
     0
 10
0.0
 20
0.0
 30
0.0
  3
*Paper_Space
  1

  0
ENDBLK
  5
1D
330
1B
100
AcDbEntity
 67
     1
  8
0
100
AcDbBlockEnd
  0
BLOCK
  5
24
330
23
100
AcDbEntity
  8
0
100
AcDbBlockBegin
  2
*Paper_Space0
 70
     0
 10
0.0
 20
0.0
 30
0.0
  3
*Paper_Space0
  1

  0
ENDBLK
  5
25
330
23
100
AcDbEntity
  8
0
100
AcDbBlockEnd
  0
BLOCK
  5
1E6
330
1E5
100
AcDbEntity
  8
0
100
AcDbBlockBegin
  2
_D
 70
     0
 10
0.0
 20
0.0
 30
0.0
  3
_D
  1

  0
SOLID
  5
1E8
330
1E5
100
AcDbEntity
  8
VERMASSUNG
100
AcDbTrace
 10
84.7766942272
 20
177.7414253541
 30
0.0
 11
84.3266942272
 21
174.7414253541
 31
0.0
 12
85.2266942272
 22
174.7414253541
 32
0.0
 13
85.2266942272
 23
174.7414253541
 33
0.0
  0
SOLID
  5
1E9
330
1E5
100
AcDbEntity
  8
VERMASSUNG
100
AcDbTrace
 10
84.7766942272
 20
114.7414253541
 30
0.0
 11
85.2266942272
 21
117.7414253541
 31
0.0
 12
84.3266942272
 22
117.7414253541
 32
0.0
 13
84.3266942272
 23
117.7414253541
 33
0.0
  0
LINE
  5
1EA
330
1E5
100
AcDbEntity
  8
VERMASSUNG
100
AcDbLine
 10
124.9880891163
 20
177.7414253541
 30
0.0
 11
83.7766942272
 21
177.7414253541
 31
0.0
  0
LINE
  5
1EB
330
1E5
100
AcDbEntity
  8
VERMASSUNG
100
AcDbLine
 10
124.9880891163
 20
114.7414253541
 30
0.0
 11
83.7766942272
 21
114.7414253541
 31
0.0
  0
LINE
  5
1EC
330
1E5
100
AcDbEntity
  8
VERMASSUNG
100
AcDbLine
 10
84.7766942272
 20
177.7414253541
 30
0.0
 11
84.7766942272
 21
114.7414253541
 31
0.0
  0
MTEXT
  5
1ED
330
1E5
100
AcDbEntity
  8
VERMASSUNG
100
AcDbMText
 10
81.9985587382
 20
140.0377686746
 30
0.0
 40
2.0
 41
0.0
 71
     1
 72
     1
  1
HSK
  7
SLDTEXTSTYLE0
 11
-7.044195017643634E-15
 21
1.0
 31
0.0
 73
     1
 44
1.0
  0
MTEXT
  5
1EE
330
1E5
100
AcDbEntity
  8
VERMASSUNG
100
AcDbMText
 10
82.1985587477
 20
146.0377687268
 30
0.0
 40
2.0
 41
0.0
 71
     1
 72
     1
  1
%%c
  7
SLDTEXTSTYLE0
 11
-7.044195017643634E-15
 21
1.0
 31
0.0
 73
     1
 44
1.0
  0
MTEXT
  5
1EF
330
1E5
100
AcDbEntity
  8
VERMASSUNG
100
AcDbMText
 10
82.1985588641
 20
149.6458710929
 30
0.0
 40
2.0
 41
0.0
 71
     1
 72
     1
  1
63
  7
SLDTEXTSTYLE0
 11
-7.044195017643634E-15
 21
1.0
 31
0.0
 73
     1
 44
1.0
  0
ENDBLK
  5
1E7
330
1E5
100
AcDbEntity
  8
0
100
AcDbBlockEnd
  0
BLOCK
  5
1F2
330
1F1
100
AcDbEntity
  8
0
100
AcDbBlockBegin
  2
_D_1
 70
     0
 10
0.0
 20
0.0
 30
0.0
  3
_D_1
  1

  0
SOLID
  5
1F4
330
1F1
100
AcDbEntity
  8
VERMASSUNG
100
AcDbTrace
 10
224.6880891163
 20
188.9892566079
 30
0.0
 11
221.6880891163
 21
189.4392566079
 31
0.0
 12
221.6880891163
 22
188.5392566079
 32
0.0
 13
221.6880891163
 23
188.5392566079
 33
0.0
  0
SOLID
  5
1F5
330
1F1
100
AcDbEntity
  8
VERMASSUNG
100
AcDbTrace
 10
92.7880891163
 20
188.9892566079
 30
0.0
 11
95.7880891163
 21
188.5392566079
 31
0.0
 12
95.7880891163
 22
189.4392566079
 32
0.0
 13
95.7880891163
 23
189.4392566079
 33
0.0
  0
LINE
  5
1F6
330
1F1
100
AcDbEntity
  8
VERMASSUNG
100
AcDbLine
 10
224.6880891163
 20
146.2414253541
 30
0.0
 11
224.6880891163
 21
189.9892566079
 31
0.0
  0
LINE
  5
1F7
330
1F1
100
AcDbEntity
  8
VERMASSUNG
100
AcDbLine
 10
92.7880891163
 20
167.8224753902
 30
0.0
 11
92.7880891163
 21
189.9892566079
 31
0.0
  0
LINE
  5
1F8
330
1F1
100
AcDbEntity
  8
VERMASSUNG
100
AcDbLine
 10
224.6880891163
 20
188.9892566079
 30
0.0
 11
92.7880891163
 21
188.9892566079
 31
0.0
  0
MTEXT
  5
1F9
330
1F1
100
AcDbEntity
  8
VERMASSUNG
100
AcDbMText
 10
156.0392024219
 20
191.567391971
 30
0.0
 40
2.0
 41
0.0
 71
     1
 72
     1
  1
131.9
  7
SLDTEXTSTYLE0
 73
     1
 44
1.0
  0
ENDBLK
  5
1F3
330
1F1
100
AcDbEntity
  8
0
100
AcDbBlockEnd
  0
BLOCK
  5
1FC
330
1FB
100
AcDbEntity
  8
0
100
AcDbBlockBegin
  2
_D_2
 70
     0
 10
0.0
 20
0.0
 30
0.0
  3
_D_2
  1

  0
SOLID
  5
1FE
330
1FB
100
AcDbEntity
  8
VERMASSUNG
100
AcDbTrace
 10
124.6880891163
 20
182.9892566079
 30
0.0
 11
127.6880891163
 21
182.5392566079
 31
0.0
 12
127.6880891163
 22
183.4392566079
 32
0.0
 13
127.6880891163
 23
183.4392566079
 33
0.0
  0
SOLID
  5
1FF
330
1FB
100
AcDbEntity
  8
VERMASSUNG
100
AcDbTrace
 10
224.6880891163
 20
182.9892566079
 30
0.0
 11
221.6880891163
 21
183.4392566079
 31
0.0
 12
221.6880891163
 22
182.5392566079
 32
0.0
 13
221.6880891163
 23
182.5392566079
 33
0.0
  0
LINE
  5
200
330
1FB
100
AcDbEntity
  8
VERMASSUNG
100
AcDbLine
 10
124.6880891163
 20
177.4414253541
 30
0.0
 11
124.6880891163
 21
183.9892566079
 31
0.0
  0
LINE
  5
201
330
1FB
100
AcDbEntity
  8
VERMASSUNG
100
AcDbLine
 10
224.6880891163
 20
146.2414253541
 30
0.0
 11
224.6880891163
 21
183.9892566079
 31
0.0
  0
LINE
  5
202
330
1FB
100
AcDbEntity
  8
VERMASSUNG
100
AcDbLine
 10
124.6880891163
 20
182.9892566079
 30
0.0
 11
224.6880891163
 21
182.9892566079
 31
0.0
  0
MTEXT
  5
203
330
1FB
100
AcDbEntity
  8
VERMASSUNG
100
AcDbMText
 10
172.7885070737
 20
185.567391971
 30
0.0
 40
2.0
 41
0.0
 71
     1
 72
     1
  1
100
  7
SLDTEXTSTYLE0
 73
     1
 44
1.0
  0
ENDBLK
  5
1FD
330
1FB
100
AcDbEntity
  8
0
100
AcDbBlockEnd
  0
BLOCK
  5
34A
330
349
100
AcDbEntity
  8
0
100
AcDbBlockBegin
  2
_D_3
 70
     0
 10
0.0
 20
0.0
 30
0.0
  3
_D_3
  1

  0
SOLID
  5
34C
330
349
100
AcDbEntity
  8
VERMASSUNG
100
AcDbTrace
 10
231.6618454168
 20
98.8225694711
 30
0.0
 11
231.2118454168
 21
95.8225694711
 31
0.0
 12
232.1118454168
 22
95.8225694711
 32
0.0
 13
232.1118454168
 23
95.8225694711
 33
0.0
  0
SOLID
  5
34D
330
349
100
AcDbEntity
  8
VERMASSUNG
100
AcDbTrace
 10
231.6618454168
 20
46.8225694711
 30
0.0
 11
232.1118454168
 21
49.8225694711
 31
0.0
 12
231.2118454168
 22
49.8225694711
 32
0.0
 13
231.2118454168
 23
49.8225694711
 33
0.0
  0
LINE
  5
34E
330
349
100
AcDbEntity
  8
VERMASSUNG
100
AcDbLine
 10
174.6123042996
 20
98.8225694711
 30
0.0
 11
232.6618454168
 21
98.8225694711
 31
0.0
  0
LINE
  5
34F
330
349
100
AcDbEntity
  8
VERMASSUNG
100
AcDbLine
 10
174.6123042996
 20
46.8225694711
 30
0.0
 11
232.6618454168
 21
46.8225694711
 31
0.0
  0
LINE
  5
350
330
349
100
AcDbEntity
  8
VERMASSUNG
100
AcDbLine
 10
231.6618454168
 20
98.8225694711
 30
0.0
 11
231.6618454168
 21
46.8225694711
 31
0.0
  0
MTEXT
  5
351
330
349
100
AcDbEntity
  8
VERMASSUNG
100
AcDbMText
 10
229.0837099372
 20
69.6187722251
 30
0.0
 40
2.0
 41
0.0
 71
     1
 72
     1
  1
%%c
  7
SLDTEXTSTYLE0
 11
-7.044195017643634E-15
 21
1.0
 31
0.0
 73
     1
 44
1.0
  0
MTEXT
  5
352
330
349
100
AcDbEntity
  8
VERMASSUNG
100
AcDbMText
 10
229.0837100537
 20
73.2271557763
 30
0.0
 40
2.0
 41
0.0
 71
     1
 72
     1
  1
52
  7
SLDTEXTSTYLE0
 11
-7.044195017643634E-15
 21
1.0
 31
0.0
 73
     1
 44
1.0
  0
ENDBLK
  5
34B
330
349
100
AcDbEntity
  8
0
100
AcDbBlockEnd
  0
ENDSEC
  0
SECTION
  2
ENTITIES
  0
MTEXT
  5
49
330
1F
100
AcDbEntity
  8
KOPF_DÜNN
100
AcDbMText
 10
13.8892156294
 20
23.8442973028
 30
0.0
 40
3.0
 41
0.0
 71
     1
 72
     1
  1
HA6.KDB.NNA.100
  7
SLDTEXTSTYLE0
 73
     1
 44
1.0
  0
MTEXT
  5
4A
330
1F
100
AcDbEntity
  8
VERMASSUNG
100
AcDbMText
 10
13.9329988022
 20
28.8834360957
 30
0.0
 40
3.0
 41
0.0
 71
     1
 72
     1
  1
Klemmhalter_Turning tool
  7
SLDTEXTSTYLE0
 73
     1
 44
1.0
  0
MTEXT
  5
4B
330
1F
100
AcDbEntity
  8
VERMASSUNG
100
AcDbMText
 10
98.8601118557
 20
13.8365368179
 30
0.0
 40
2.0
 41
0.0
 71
     1
 72
     1
  1
Datum: 03.02.2009
  7
SLDTEXTSTYLE0
 73
     1
 44
1.0
  0
MTEXT
  5
4D
330
1F
100
AcDbEntity
  8
VERMASSUNG
100
AcDbMText
 10
13.933048693
 20
18.0482802738
 30
0.0
 40
2.0
 41
0.0
 71
     1
 72
     1
  1
DIN 69893 HSK 63 A ICTM / DC.. 11 T3..
  7
SLDTEXTSTYLE1
 73
     1
 44
1.0
  0
MTEXT
  5
4E
330
1F
100
AcDbEntity
  8
VERMASSUNG
100
AcDbMText
 10
13.9808475933
 20
13.9090973692
 30
0.0
 40
2.0
 41
0.0
 71
     1
 72
     1
  1
Gewicht: 1234g
  7
SLDTEXTSTYLE0
 73
     1
 44
1.0
  0
LINE
  5
4F
330
1F
100
AcDbEntity
  8
0
  6
Continuous
 62
     7
370
    15
100
AcDbLine
 10
213.0611764628
 20
146.0729561726
 30
0.0
 11
213.0611764628
 21
146.0414253592
 31
0.0
  0
LINE
  5
50
330
1F
100
AcDbEntity
  8
0
  6
Continuous
 62
     7
370
    15
100
AcDbLine
 10
204.9782427389
 20
146.0653813478
 30
0.0
 11
205.0000431377
 21
145.9414253399
 31
0.0
  0
SPLINE
  5
51
330
1F
100
AcDbEntity
  8
0
  6
Continuous
 62
     7
370
    15
100
AcDbSpline
210
0.0
220
0.0
230
1.0
 70
     8
 71
     3
 72
     9
 73
     5
 74
     0
 42
0.00000001
 43
0.00000001
 12
1.0
 22
0.0
 32
0.0
 13
1.0
 23
0.0
 33
0.0
 40
0.0
 40
0.0
 40
0.0
 40
0.0
 40
0.4998121040471883
 40
1.0
 40
1.0
 40
1.0
 40
1.0
 10
223.9741610724533
 20
142.0345216096515
 30
0.0
 10
224.100142846617
 20
142.7052374653153
 30
0.0
 10
224.3522011164021
 20
144.0471734653295
 30
0.0
 10
224.5856200460966
 20
145.392476868916
 30
0.0
 10
224.7023733694161
 20
146.0653813477742
 30
0.0
  0
LINE
  5
52
330
1F
100
AcDbEntity
  8
0
  6
Continuous
 62
     7
370
    15
100
AcDbLine
 10
136.6242247064
 20
114.7414248475
 30
0.0
 11
139.2961565767
 21
114.7414248475
 31
0.0
  0
LINE
  5
53
330
1F
100
AcDbEntity
  8
0
  6
Continuous
 62
     7
370
    15
100
AcDbLine
 10
124.9880891305
 20
114.7414248475
 30
0.0
 11
126.6880892113
 21
114.7414248475
 31
0.0
  0
LINE
  5
54
330
1F
100
AcDbEntity
  8
0
  6
Continuous
 62
     7
370
    15
100
AcDbLine
 10
139.2961565767
 20
177.7414258608
 30
0.0
 11
124.9880891305
 21
177.7414258608
 31
0.0
  0
ARC
  5
55
330
1F
100
AcDbEntity
  8
0
  6
Continuous
 62
     7
370
    15
100
AcDbCircle
 10
124.9880891163
 20
115.0414253541
 30
0.0
 40
0.2999999999999972
100
AcDbArc
 50
180.0
 51
270.0
  0
ARC
  5
56
330
1F
100
AcDbEntity
  8
0
  6
Continuous
 62
     7
370
    15
100
AcDbCircle
 10
124.9880891163
 20
177.4414253541
 30
0.0
 40
0.3000000000000114
100
AcDbArc
 50
90.0
 51
180.0
  0
ARC
  5
57
330
1F
100
AcDbEntity
  8
0
  6
Continuous
 62
     7
370
    15
100
AcDbCircle
 10
150.0380891163
 20
177.1414253541
 30
0.0
 40
0.6000000000000227
100
AcDbArc
 50
0.0
 51
90.0
  0
ARC
  5
58
330
1F
100
AcDbEntity
  8
0
  6
Continuous
 62
     7
370
    15
100
AcDbCircle
 10
150.0380891163
 20
115.3414253541
 30
0.0
 40
0.6000000000000227
100
AcDbArc
 50
270.0
 51
0.0
  0
LINE
  5
59
330
1F
100
AcDbEntity
  8
0
  6
Continuous
 62
     7
370
    15
100
AcDbLine
 10
146.0800210375
 20
114.7414248475
 30
0.0
 11
150.0380898256
 21
114.7414248475
 31
0.0
  0
LINE
  5
5A
330
1F
100
AcDbEntity
  8
0
  6
Continuous
 62
     7
370
    15
100
AcDbLine
 10
150.0380898256
 20
177.7414258608
 30
0.0
 11
146.0800210375
 21
177.7414258608
 31
0.0
  0
LINE
  5
5B
330
1F
100
AcDbEntity
  8
0
  6
Continuous
 62
     7
370
    15
100
AcDbLine
 10
144.5980893809
 20
117.3082076051
 30
0.0
 11
146.0800210375
 21
114.7414248475
 31
0.0
  0
LINE
  5
5C
330
1F
100
AcDbEntity
  8
0
  6
Continuous
 62
     7
370
    15
100
AcDbLine
 10
146.0800210375
 20
177.7414258608
 30
0.0
 11
144.5980893809
 21
175.1746431031
 31
0.0
  0
LINE
  5
5D
330
1F
100
AcDbEntity
  8
0
  6
Continuous
 62
     7
370
    15
100
AcDbLine
 10
139.2961565767
 20
114.7414248475
 30
0.0
 11
140.7780891646
 21
117.3082076051
 31
0.0
  0
LINE
  5
5E
330
1F
100
AcDbEntity
  8
0
  6
Continuous
 62
     7
370
    15
100
AcDbLine
 10
140.7780891646
 20
175.1746431031
 30
0.0
 11
139.2961565767
 21
177.7414258608
 31
0.0
  0
ARC
  5
5F
330
1F
100
AcDbEntity
  8
0
  6
Continuous
 62
     7
370
    15
100
AcDbCircle
 10
143.7980891163
 20
117.9664253541
 30
0.0
 40
0.8000000000000114
100
AcDbArc
 50
0.0
 51
90.0
  0
ARC
  5
60
330
1F
100
AcDbEntity
  8
0
  6
Continuous
 62
     7
370
    15
100
AcDbCircle
 10
141.5780891163
 20
174.5164253541
 30
0.0
 40
0.8000000000000114
100
AcDbArc
 50
180.0
 51
270.0
  0
ARC
  5
61
330
1F
100
AcDbEntity
  8
0
  6
Continuous
 62
     7
370
    15
100
AcDbCircle
 10
143.7980891163
 20
174.5164253541
 30
0.0
 40
0.799999999999983
100
AcDbArc
 50
270.0
 51
0.0
  0
ARC
  5
62
330
1F
100
AcDbEntity
  8
0
  6
Continuous
 62
     7
370
    15
100
AcDbCircle
 10
141.5780891163
 20
117.9664253541
 30
0.0
 40
0.8000000000000114
100
AcDbArc
 50
90.0
 51
180.0
  0
LINE
  5
63
330
1F
100
AcDbEntity
  8
0
  6
Continuous
 62
     7
370
    15
100
AcDbLine
 10
143.7980888773
 20
173.7164247819
 30
0.0
 11
141.5780896682
 21
173.7164247819
 31
0.0
  0
ARC
  5
64
330
1F
100
AcDbEntity
  8
0
  6
Continuous
 62
     7
370
    15
100
AcDbCircle
 10
151.6380891163
 20
119.2414253541
 30
0.0
 40
1.0
100
AcDbArc
 50
90.0
 51
180.0
  0
ARC
  5
65
330
1F
100
AcDbEntity
  8
0
  6
Continuous
 62
     7
370
    15
100
AcDbCircle
 10
151.6380891163
 20
173.2414253541
 30
0.0
 40
1.0
100
AcDbArc
 50
180.0
 51
270.0
  0
LINE
  5
66
330
1F
100
AcDbEntity
  8
0
  6
Continuous
 62
     7
370
    15
100
AcDbLine
 10
141.5780896682
 20
118.7664259263
 30
0.0
 11
143.7980888773
 21
118.7664259263
 31
0.0
  0
LINE
  5
67
330
1F
100
AcDbEntity
  8
0
  6
Continuous
 62
     7
370
    15
100
AcDbLine
 10
151.6380889703
 20
120.2414248177
 30
0.0
 11
217.0975285012
 21
120.2414248177
 31
0.0
  0
LINE
  5
68
330
1F
100
AcDbEntity
  8
0
  6
Continuous
 62
     7
370
    15
100
AcDbLine
 10
155.6880886097
 20
172.2414258906
 30
0.0
 11
151.6380889703
 21
172.2414258906
 31
0.0
  0
LINE
  5
69
330
1F
100
AcDbEntity
  8
0
  6
Continuous
 62
     7
370
    15
100
AcDbLine
 10
169.6410255868
 20
172.2414258906
 30
0.0
 11
161.6505088646
 21
172.2414258906
 31
0.0
  0
ARC
  5
6A
330
1F
100
AcDbEntity
  8
0
  6
Continuous
 62
     7
370
    15
100
AcDbCircle
 10
124.1880891163
 20
121.6709944924
 30
0.0
 40
0.5999999999999943
100
AcDbArc
 50
33.5573097619
 51
90.0
  0
ARC
  5
6B
330
1F
100
AcDbEntity
  8
0
  6
Continuous
 62
     7
370
    15
100
AcDbCircle
 10
124.1880891163
 20
170.8118562159
 30
0.0
 40
0.6000000000000019
100
AcDbArc
 50
270.0
 51
326.4426902381
  0
LINE
  5
6C
330
1F
100
AcDbEntity
  8
0
  6
Continuous
 62
     7
370
    15
100
AcDbLine
 10
122.6880890213
 20
122.0209941306
 30
0.0
 11
123.5448019475
 21
122.2505502441
 31
0.0
  0
LINE
  5
6D
330
1F
100
AcDbEntity
  8
0
  6
Continuous
 62
     7
370
    15
100
AcDbLine
 10
123.5448019475
 20
170.2323004642
 30
0.0
 11
122.6880890213
 21
170.4618565777
 31
0.0
  0
LINE
  5
6E
330
1F
100
AcDbEntity
  8
0
  6
Continuous
 62
     7
370
    15
100
AcDbLine
 10
122.6880890213
 20
170.4618565777
 30
0.0
 11
93.9280448843
 21
169.0209720322
 31
0.0
  0
LINE
  5
6F
330
1F
100
AcDbEntity
  8
0
  6
Continuous
 62
     7
370
    15
100
AcDbLine
 10
93.9280448843
 20
123.4618786761
 30
0.0
 11
122.6880890213
 21
122.0209941306
 31
0.0
  0
ARC
  5
70
330
1F
100
AcDbEntity
  8
0
  6
Continuous
 62
     7
370
    15
100
AcDbCircle
 10
123.7000933167
 20
121.6709944924
 30
0.0
 40
0.6000000000000227
100
AcDbArc
 50
90.0
 51
105.0
  0
ARC
  5
71
330
1F
100
AcDbEntity
  8
0
  6
Continuous
 62
     7
370
    15
100
AcDbCircle
 10
123.7000933167
 20
170.8118562159
 30
0.0
 40
0.6000000000000208
100
AcDbArc
 50
255.0
 51
270.0
  0
LINE
  5
72
330
1F
100
AcDbEntity
  8
0
  6
Continuous
 62
     7
370
    15
100
AcDbLine
 10
123.7000933511
 20
122.2709946373
 30
0.0
 11
124.1880890925
 21
122.2709946373
 31
0.0
  0
LINE
  5
73
330
1F
100
AcDbEntity
  8
0
  6
Continuous
 62
     7
370
    15
100
AcDbLine
 10
124.1880890925
 20
170.211856071
 30
0.0
 11
123.7000933511
 21
170.211856071
 31
0.0
  0
ARC
  5
74
330
1F
100
AcDbEntity
  8
0
  6
Continuous
 62
     7
370
    15
100
AcDbCircle
 10
93.9880891163
 20
124.6603753181
 30
0.0
 40
1.200000000000003
100
AcDbArc
 50
180.0
 51
267.1318680593
  0
ARC
  5
75
330
1F
100
AcDbEntity
  8
0
  6
Continuous
 62
     7
370
    15
100
AcDbCircle
 10
93.9880891163
 20
167.8224753902
 30
0.0
 40
1.200000000000003
100
AcDbArc
 50
92.8681319407
 51
180.0
  0
LINE
  5
76
330
1F
100
AcDbEntity
  8
0
  6
Continuous
 62
     7
370
    15
100
AcDbLine
 10
214.5154552896
 20
142.0714252667
 30
0.0
 11
214.7944795329
 21
142.0714252667
 31
0.0
  0
LINE
  5
77
330
1F
100
AcDbEntity
  8
0
  6
Continuous
 62
     7
370
    15
100
AcDbLine
 10
205.2001210291
 20
146.0414253592
 30
0.0
 11
214.6569865186
 21
146.0414253592
 31
0.0
  0
SPLINE
  5
78
330
1F
100
AcDbEntity
  8
0
  6
Continuous
 62
     7
370
    15
100
AcDbSpline
210
0.0
220
0.0
230
1.0
 70
    24
 71
     3
 72
    10
 73
     6
 74
     0
 42
0.00000001
 43
0.00000001
 12
1.0
 22
0.0
 32
0.0
 13
1.0
 23
0.0
 33
0.0
 40
0.0
 40
0.0
 40
0.0
 40
0.0
 40
0.2657098871013806
 40
0.6165528848652352
 40
1.0
 40
1.0
 40
1.0
 40
1.0
 10
214.8861365754211
 20
142.0714252666706
 30
0.0
 10
214.8783898520185
 20
142.0714252666706
 30
0.0
 10
214.860414364865
 20
142.0714252666706
 30
0.0
 10
214.8276967922658
 20
142.0714252666706
 30
0.0
 10
214.8058749324359
 20
142.0714252666706
 30
0.0
 10
214.7944795329178
 20
142.0714252666706
 30
0.0
  0
SPLINE
  5
79
330
1F
100
AcDbEntity
  8
0
  6
Continuous
 62
     7
370
    15
100
AcDbSpline
210
0.0
220
0.0
230
1.0
 70
    24
 71
     3
 72
    10
 73
     6
 74
     0
 42
0.00000001
 43
0.00000001
 12
1.0
 22
0.0
 32
0.0
 13
1.0
 23
0.0
 33
0.0
 40
0.0
 40
0.0
 40
0.0
 40
0.0
 40
0.3518049704329291
 40
0.7034153775661658
 40
0.9999999999999999
 40
0.9999999999999999
 40
0.9999999999999999
 40
0.9999999999999999
 10
214.6569865185822
 20
146.0414253591929
 30
0.0
 10
214.6985964296574
 20
146.0414253591929
 30
0.0
 10
214.781793239735
 20
146.0414253591929
 30
0.0
 10
214.9128837812873
 20
146.0414253591929
 30
0.0
 10
214.9888643365875
 20
146.0414253591929
 30
0.0
 10
215.0236295897568
 20
146.0414253591929
 30
0.0
  0
LINE
  5
7A
330
1F
100
AcDbEntity
  8
0
  6
Continuous
 62
     7
370
    15
100
AcDbLine
 10
214.8861365754
 20
142.0714252667
 30
0.0
 11
223.9295693476
 21
142.0714252667
 31
0.0
  0
LINE
  5
7B
330
1F
100
AcDbEntity
  8
0
  6
Continuous
 62
     7
370
    15
100
AcDbLine
 10
215.0236295898
 20
146.0414253592
 30
0.0
 11
224.4804950792
 21
146.0414253592
 31
0.0
  0
SPLINE
  5
7C
330
1F
100
AcDbEntity
  8
0
  6
Continuous
 62
     7
370
    15
100
AcDbSpline
210
0.0
220
0.0
230
1.0
 70
    24
 71
     3
 72
    11
 73
     7
 74
     0
 42
0.00000001
 43
0.00000001
 12
1.0
 22
0.0
 32
0.0
 13
1.0
 23
0.0
 33
0.0
 40
0.0
 40
0.0
 40
0.0
 40
0.0
 40
0.2481100882715654
 40
0.5498165463251433
 40
0.8556311972686067
 40
1.0
 40
1.0
 40
1.0
 40
1.0
 10
204.9875783164108
 20
146.0414253591929
 30
0.0
 10
204.9891206843548
 20
146.0414253591929
 30
0.0
 10
204.9925386002568
 20
146.0414253591929
 30
0.0
 10
205.0501818024308
 20
146.0414253591929
 30
0.0
 10
205.1259479049275
 20
146.0414253591929
 30
0.0
 10
205.1821103580168
 20
146.0414253591929
 30
0.0
 10
205.2001210290993
 20
146.0414253591929
 30
0.0
  0
SPLINE
  5
7D
330
1F
100
AcDbEntity
  8
0
  6
Continuous
 62
     7
370
    15
100
AcDbSpline
210
0.0
220
0.0
230
1.0
 70
    24
 71
     3
 72
    11
 73
     7
 74
     0
 42
0.00000001
 43
0.00000001
 12
1.0
 22
0.0
 32
0.0
 13
1.0
 23
0.0
 33
0.0
 40
0.0
 40
0.0
 40
0.0
 40
0.0
 40
0.3180523868744626
 40
0.6353584338922027
 40
0.945063737315484
 40
1.0
 40
1.0
 40
1.0
 40
1.0
 10
224.4804950792397
 20
146.0414253591929
 30
0.0
 10
224.519345584677
 20
146.0414253591929
 30
0.0
 10
224.5969554291847
 20
146.0414253591929
 30
0.0
 10
224.6685121111996
 20
146.0414253591929
 30
0.0
 10
224.7008938812529
 20
146.0414253591929
 30
0.0
 10
224.6940599321987
 20
146.0414253591929
 30
0.0
 10
224.6930303413475
 20
146.0414253591929
 30
0.0
  0
LINE
  5
7E
330
1F
100
AcDbEntity
  8
0
  6
Continuous
 62
     7
370
    15
100
AcDbLine
 10
139.2961565767
 20
155.2414249667
 30
0.0
 11
139.2961565767
 21
177.7414258608
 31
0.0
  0
LINE
  5
7F
330
1F
100
AcDbEntity
  8
0
  6
Continuous
 62
     7
370
    15
100
AcDbLine
 10
139.2961565767
 20
155.2414249667
 30
0.0
 11
137.6380894695
 21
155.2414249667
 31
0.0
  0
LINE
  5
80
330
1F
100
AcDbEntity
  8
0
  6
Continuous
 62
     7
370
    15
100
AcDbLine
 10
129.6380890895
 20
147.2414254016
 30
0.0
 11
129.6380890895
 21
145.2414253066
 31
0.0
  0
LINE
  5
81
330
1F
100
AcDbEntity
  8
0
  6
Continuous
 62
     7
370
    15
100
AcDbLine
 10
137.6380894695
 20
137.2414257416
 30
0.0
 11
139.2961565767
 21
137.2414257416
 31
0.0
  0
LINE
  5
82
330
1F
100
AcDbEntity
  8
0
  6
Continuous
 62
     7
370
    15
100
AcDbLine
 10
139.2961565767
 20
114.7414248475
 30
0.0
 11
139.2961565767
 21
137.2414257416
 31
0.0
  0
SPLINE
  5
83
330
1F
100
AcDbEntity
  8
0
  6
Continuous
 62
     7
370
    15
100
AcDbSpline
210
0.0
220
0.0
230
1.0
 70
     8
 71
     3
 72
    17
 73
    13
 74
     0
 42
0.00000001
 43
0.00000001
 12
1.0
 22
0.0
 32
0.0
 13
1.0
 23
0.0
 33
0.0
 40
0.0
 40
0.0
 40
0.0
 40
0.0
 40
0.1064584947925926
 40
0.2128853820649122
 40
0.3201358678267675
 40
0.4279706072970569
 40
0.5348959099635372
 40
0.640833893296311
 40
0.7472465223320981
 40
0.8548490544915606
 40
0.9625155229041981
 40
1.0
 40
1.0
 40
1.0
 40
1.0
 10
126.6880892112905
 20
114.741424847501
 30
0.0
 10
126.742664987566
 20
114.7503267890823
 30
0.0
 10
126.8518003365723
 20
114.7681280292592
 30
0.0
 10
127.701695096997
 20
114.8922596271395
 30
0.0
 10
128.9588189559517
 20
115.0321837776968
 30
0.0
 10
130.5391754507284
 20
115.1347029866681
 30
0.0
 10
132.2430964540306
 20
115.1511608628344
 30
0.0
 10
133.8731471494628
 20
115.0767361013926
 30
0.0
 10
135.2710203022442
 20
114.9424763710306
 30
0.0
 10
136.2393251345184
 20
114.8125558163761
 30
0.0
 10
136.7083279452046
 20
114.7382562756593
 30
0.0
 10
136.6414862314626
 20
114.7487625023111
 30
0.0
 10
136.6242247063721
 20
114.7514756807262
 30
0.0
  0
SPLINE
  5
84
330
1F
100
AcDbEntity
  8
0
  6
Continuous
 62
     7
370
    15
100
AcDbSpline
210
0.0
220
0.0
230
1.0
 70
     8
 71
     3
 72
    28
 73
    24
 74
     0
 42
0.00000001
 43
0.00000001
 12
1.0
 22
0.0
 32
0.0
 13
1.0
 23
0.0
 33
0.0
 40
0.0
 40
0.0
 40
0.0
 40
0.0
 40
0.1250000000000001
 40
0.1250000000000001
 40
0.1875000000000001
 40
0.1875000000000001
 40
0.2500000000000001
 40
0.2500000000000001
 40
0.375
 40
0.375
 40
0.4375000000000001
 40
0.4375000000000001
 40
0.5
 40
0.5
 40
0.625
 40
0.625
 40
0.7499999999999999
 40
0.7499999999999999
 40
0.8124999999999999
 40
0.8124999999999999
 40
0.875
 40
0.875
 40
1.0
 40
1.0
 40
1.0
 40
1.0
 10
137.6380891162956
 20
155.2414253541405
 30
0.0
 10
137.1063813588027
 20
155.2414253541405
 30
0.0
 10
136.5841427934924
 20
155.1889490118222
 30
0.0
 10
135.8142723072174
 20
155.0351520642653
 30
0.0
 10
135.559912735026
 20
154.9712770892313
 30
0.0
 10
135.0557911543275
 20
154.8177808205748
 30
0.0
 10
134.8060683368996
 20
154.7279658451811
 30
0.0
 10
134.0804783854532
 20
154.4259870501303
 30
0.0
 10
133.6221181238716
 20
154.1800336160745
 30
0.0
 10
132.9716201804778
 20
153.7446664366461
 30
0.0
 10
132.7599381296853
 20
153.5874512544738
 30
0.0
 10
132.3558666405473
 20
153.2552866339313
 30
0.0
 10
132.1633601267264
 20
153.0804793683284
 30
0.0
 10
131.6135251557052
 20
152.5304201777426
 30
0.0
 10
131.2835963773964
 20
152.1297967933471
 30
0.0
 10
130.6991251088277
 20
151.2572106819984
 30
0.0
 10
130.4528479708142
 20
150.7970752343968
 30
0.0
 10
130.1530051781162
 20
150.0771091404307
 30
0.0
 10
130.064548321044
 20
149.8318354303962
 30
0.0
 10
129.9111869677389
 20
149.3303790939673
 30
0.0
 10
129.8460987535126
 20
149.0729477245948
 30
0.0
 10
129.6905047375718
 20
148.2970079287303
 30
0.0
 10
129.6380891162956
 20
147.7727795288243
 30
0.0
 10
129.6380891162956
 20
147.2414253541405
 30
0.0
  0
SPLINE
  5
85
330
1F
100
AcDbEntity
  8
0
  6
Continuous
 62
     7
370
    15
100
AcDbSpline
210
0.0
220
0.0
230
1.0
 70
     8
 71
     3
 72
    30
 73
    26
 74
     0
 42
0.00000001
 43
0.00000001
 12
1.0
 22
0.0
 32
0.0
 13
1.0
 23
0.0
 33
0.0
 40
0.0
 40
0.0
 40
0.0
 40
0.0
 40
0.1250000000000002
 40
0.1250000000000002
 40
0.1875000000000002
 40
0.1875000000000002
 40
0.2500000000000003
 40
0.2500000000000003
 40
0.3750000000000004
 40
0.3750000000000004
 40
0.4375000000000004
 40
0.4375000000000004
 40
0.5000000000000004
 40
0.5000000000000004
 40
0.6250000000000004
 40
0.6250000000000004
 40
0.6875000000000003
 40
0.6875000000000003
 40
0.7500000000000002
 40
0.7500000000000002
 40
0.8125000000000001
 40
0.8125000000000001
 40
0.8749999999999999
 40
0.8749999999999999
 40
1.0
 40
1.0
 40
1.0
 40
1.0
 10
129.6380891162956
 20
145.2414253541405
 30
0.0
 10
129.6380891162956
 20
144.7100074237399
 30
0.0
 10
129.690506682274
 20
144.1883482261657
 30
0.0
 10
129.8438861621763
 20
143.4197064390067
 30
0.0
 10
129.9075672828441
 20
143.1658166398416
 30
0.0
 10
130.0605221502958
 20
142.6627438638955
 30
0.0
 10
130.150094449065
 20
142.4132800156789
 30
0.0
 10
130.4513184819182
 20
141.6883691180821
 30
0.0
 10
130.6966334780023
 20
141.2304917811899
 30
0.0
 10
131.1307304590726
 20
140.580724555707
 30
0.0
 10
131.2874001481762
 20
140.3693378522969
 30
0.0
 10
131.6193933120186
 20
139.9647040415267
 30
0.0
 10
131.7940988410111
 20
139.7719635700255
 30
0.0
 10
132.3437685236026
 20
139.2215326936485
 30
0.0
 10
132.7440194863139
 20
138.8913493163679
 30
0.0
 10
133.3976063529514
 20
138.4526734997175
 30
0.0
 10
133.6232824726285
 20
138.316874941231
 30
0.0
 10
134.0829942937598
 20
138.0699979083848
 30
0.0
 10
134.3180476278029
 20
137.9582193710568
 30
0.0
 10
134.7985549101019
 20
137.7577891811832
 30
0.0
 10
135.044008438016
 20
137.6691368379797
 30
0.0
 10
135.5456238628234
 20
137.5154692902986
 30
0.0
 10
135.8031162454239
 20
137.4502215860467
 30
0.0
 10
136.5811927618601
 20
137.2939165326825
 30
0.0
 10
137.1063550391049
 20
137.2414253541404
 30
0.0
 10
137.6380891162956
 20
137.2414253541404
 30
0.0
  0
LINE
  5
86
330
1F
100
AcDbEntity
  8
0
  6
Continuous
 62
     7
370
    15
100
AcDbLine
 10
124.6880891163
 20
146.2414253541
 30
0.0
 11
124.6880891163
 21
177.4414245078
 31
0.0
  0
LINE
  5
87
330
1F
100
AcDbEntity
  8
0
  6
Continuous
 62
     7
370
    15
100
AcDbLine
 10
124.6880891163
 20
115.0414262005
 30
0.0
 11
124.6880891163
 21
146.2414253541
 31
0.0
  0
LINE
  5
88
330
1F
100
AcDbEntity
  8
0
  6
Continuous
 62
     7
370
    15
100
AcDbLine
 10
150.6380888064
 20
155.2414249667
 30
0.0
 11
150.6380888064
 21
177.1414250174
 31
0.0
  0
SPLINE
  5
89
330
1F
100
AcDbEntity
  8
0
  6
Continuous
 62
     7
370
    15
100
AcDbSpline
210
0.0
220
0.0
230
1.0
 70
    24
 71
     3
 72
    10
 73
     6
 74
     0
 42
0.00000001
 43
0.00000001
 12
1.0
 22
0.0
 32
0.0
 13
1.0
 23
0.0
 33
0.0
 40
0.0
 40
0.0
 40
0.0
 40
0.0
 40
0.5
 40
0.5
 40
1.0
 40
1.0
 40
1.0
 40
1.0
 10
150.6380891162956
 20
155.2414253541405
 30
0.0
 10
150.6380891162956
 20
155.2414253541405
 30
0.0
 10
150.5767794650598
 20
155.2414253541405
 30
0.0
 10
150.3576798275247
 20
155.2414253541405
 30
0.0
 10
150.1996316212112
 20
155.2414253541405
 30
0.0
 10
150.0380891162957
 20
155.2414253541405
 30
0.0
  0
LINE
  5
8A
330
1F
100
AcDbEntity
  8
0
  6
Continuous
 62
     7
370
    15
100
AcDbLine
 10
150.6380888064
 20
115.3414256909
 30
0.0
 11
150.6380888064
 21
137.2414257416
 31
0.0
  0
SPLINE
  5
8B
330
1F
100
AcDbEntity
  8
0
  6
Continuous
 62
     7
370
    15
100
AcDbSpline
210
0.0
220
0.0
230
1.0
 70
    24
 71
     3
 72
    12
 73
     8
 74
     0
 42
0.00000001
 43
0.00000001
 12
1.0
 22
0.0
 32
0.0
 13
1.0
 23
0.0
 33
0.0
 40
0.0
 40
0.0
 40
0.0
 40
0.0
 40
0.2499999999999999
 40
0.2499999999999999
 40
0.4999999999999998
 40
0.4999999999999998
 40
1.0
 40
1.0
 40
1.0
 40
1.0
 10
150.0380891162956
 20
137.2414253541404
 30
0.0
 10
150.1179701210428
 20
137.2414253541404
 30
0.0
 10
150.1985642513133
 20
137.2414253541404
 30
0.0
 10
150.3451796971583
 20
137.2414253541404
 30
0.0
 10
150.4116808899022
 20
137.2414253541404
 30
0.0
 10
150.5774157910394
 20
137.2414253541404
 30
0.0
 10
150.6380891162956
 20
137.2414253541404
 30
0.0
 10
150.6380891162956
 20
137.2414253541404
 30
0.0
  0
LINE
  5
8C
330
1F
100
AcDbEntity
  8
0
  6
Continuous
 62
     7
370
    15
100
AcDbLine
 10
146.0800210375
 20
114.7414248475
 30
0.0
 11
146.0800210375
 21
137.2414257416
 31
0.0
  0
LINE
  5
8D
330
1F
100
AcDbEntity
  8
0
  6
Continuous
 62
     7
370
    15
100
AcDbLine
 10
146.0800210375
 20
137.2414257416
 30
0.0
 11
150.0380898256
 21
137.2414257416
 31
0.0
  0
LINE
  5
8E
330
1F
100
AcDbEntity
  8
0
  6
Continuous
 62
     7
370
    15
100
AcDbLine
 10
146.0800210375
 20
155.2414249667
 30
0.0
 11
146.0800210375
 21
177.7414258608
 31
0.0
  0
LINE
  5
8F
330
1F
100
AcDbEntity
  8
0
  6
Continuous
 62
     7
370
    15
100
AcDbLine
 10
150.0380898256
 20
155.2414249667
 30
0.0
 11
146.0800210375
 21
155.2414249667
 31
0.0
  0
LINE
  5
90
330
1F
100
AcDbEntity
  8
0
  6
Continuous
 62
     7
370
    15
100
AcDbLine
 10
144.5980893809
 20
117.3082076051
 30
0.0
 11
144.5980893809
 21
137.2414257416
 31
0.0
  0
SPLINE
  5
91
330
1F
100
AcDbEntity
  8
0
  6
Continuous
 62
     7
370
    15
100
AcDbSpline
210
0.0
220
0.0
230
1.0
 70
    24
 71
     3
 72
     8
 73
     4
 74
     0
 42
0.00000001
 43
0.00000001
 12
1.0
 22
0.0
 32
0.0
 13
1.0
 23
0.0
 33
0.0
 40
0.0
 40
0.0
 40
0.0
 40
0.0
 40
1.0
 40
1.0
 40
1.0
 40
1.0
 10
144.5980891162956
 20
137.2414253541404
 30
0.0
 10
145.0904282390768
 20
137.2414253541404
 30
0.0
 10
145.5845422871189
 20
137.2414253541404
 30
0.0
 10
146.0800219477847
 20
137.2414253541404
 30
0.0
  0
LINE
  5
92
330
1F
100
AcDbEntity
  8
0
  6
Continuous
 62
     7
370
    15
100
AcDbLine
 10
144.5980893809
 20
155.2414249667
 30
0.0
 11
144.5980893809
 21
175.1746431031
 31
0.0
  0
SPLINE
  5
93
330
1F
100
AcDbEntity
  8
0
  6
Continuous
 62
     7
370
    15
100
AcDbSpline
210
0.0
220
0.0
230
1.0
 70
    24
 71
     3
 72
     8
 73
     4
 74
     0
 42
0.00000001
 43
0.00000001
 12
1.0
 22
0.0
 32
0.0
 13
1.0
 23
0.0
 33
0.0
 40
0.0
 40
0.0
 40
0.0
 40
0.0
 40
1.0
 40
1.0
 40
1.0
 40
1.0
 10
146.0800219477847
 20
155.2414253541405
 30
0.0
 10
145.5845422871189
 20
155.2414253541405
 30
0.0
 10
145.0904282390768
 20
155.2414253541405
 30
0.0
 10
144.5980891162956
 20
155.2414253541405
 30
0.0
  0
LINE
  5
94
330
1F
100
AcDbEntity
  8
0
  6
Continuous
 62
     7
370
    15
100
AcDbLine
 10
140.7780891646
 20
117.3082076051
 30
0.0
 11
140.7780891646
 21
137.2414257416
 31
0.0
  0
SPLINE
  5
95
330
1F
100
AcDbEntity
  8
0
  6
Continuous
 62
     7
370
    15
100
AcDbSpline
210
0.0
220
0.0
230
1.0
 70
    24
 71
     3
 72
     8
 73
     4
 74
     0
 42
0.00000001
 43
0.00000001
 12
1.0
 22
0.0
 32
0.0
 13
1.0
 23
0.0
 33
0.0
 40
0.0
 40
0.0
 40
0.0
 40
0.0
 40
1.0
 40
1.0
 40
1.0
 40
1.0
 10
139.2961562848066
 20
137.2414253541404
 30
0.0
 10
139.7916359454723
 20
137.2414253541404
 30
0.0
 10
140.2857499935145
 20
137.2414253541404
 30
0.0
 10
140.7780891162956
 20
137.2414253541404
 30
0.0
  0
LINE
  5
96
330
1F
100
AcDbEntity
  8
0
  6
Continuous
 62
     7
370
    15
100
AcDbLine
 10
140.7780891646
 20
155.2414249667
 30
0.0
 11
140.7780891646
 21
175.1746431031
 31
0.0
  0
SPLINE
  5
97
330
1F
100
AcDbEntity
  8
0
  6
Continuous
 62
     7
370
    15
100
AcDbSpline
210
0.0
220
0.0
230
1.0
 70
    24
 71
     3
 72
     8
 73
     4
 74
     0
 42
0.00000001
 43
0.00000001
 12
1.0
 22
0.0
 32
0.0
 13
1.0
 23
0.0
 33
0.0
 40
0.0
 40
0.0
 40
0.0
 40
0.0
 40
1.0
 40
1.0
 40
1.0
 40
1.0
 10
140.7780891162956
 20
155.2414253541405
 30
0.0
 10
140.2857499935145
 20
155.2414253541405
 30
0.0
 10
139.7916359454723
 20
155.2414253541405
 30
0.0
 10
139.2961562848066
 20
155.2414253541405
 30
0.0
  0
SPLINE
  5
98
330
1F
100
AcDbEntity
  8
0
  6
Continuous
 62
     7
370
    15
100
AcDbSpline
210
0.0
220
0.0
230
1.0
 70
     8
 71
     3
 72
    14
 73
    10
 74
     0
 42
0.00000001
 43
0.00000001
 12
1.0
 22
0.0
 32
0.0
 13
1.0
 23
0.0
 33
0.0
 40
0.0
 40
0.0
 40
0.0
 40
0.0
 40
0.1249999999999997
 40
0.1249999999999997
 40
0.2499999999999993
 40
0.2499999999999993
 40
0.4999999999999996
 40
0.4999999999999996
 40
1.0
 40
1.0
 40
1.0
 40
1.0
 10
143.7980891162956
 20
138.6311937545109
 30
0.0
 10
143.8671857486396
 20
138.6311937545109
 30
0.0
 10
143.9321789142475
 20
138.5968613788309
 30
0.0
 10
144.0365001128927
 20
138.507554794828
 30
0.0
 10
144.0792804870011
 20
138.4526499566813
 30
0.0
 10
144.1916181466474
 20
138.2814184483751
 30
0.0
 10
144.2466653287898
 20
138.157198746016
 30
0.0
 10
144.3905421025598
 20
137.7737539459116
 30
0.0
 10
144.4535714158349
 20
137.5075866393143
 30
0.0
 10
144.5004143139633
 20
137.2414253541404
 30
0.0
  0
SPLINE
  5
99
330
1F
100
AcDbEntity
  8
0
  6
Continuous
 62
     7
370
    15
100
AcDbSpline
210
0.0
220
0.0
230
1.0
 70
     8
 71
     3
 72
    14
 73
    10
 74
     0
 42
0.00000001
 43
0.00000001
 12
1.0
 22
0.0
 32
0.0
 13
1.0
 23
0.0
 33
0.0
 40
0.0
 40
0.0
 40
0.0
 40
0.0
 40
0.1250000000000007
 40
0.1250000000000007
 40
0.2500000000000014
 40
0.2500000000000014
 40
0.5000000000000002
 40
0.5000000000000002
 40
1.0
 40
1.0
 40
1.0
 40
1.0
 10
141.5780891162956
 20
153.85165695377
 30
0.0
 10
141.5087423945645
 20
153.85165695377
 30
0.0
 10
141.4435443411806
 20
153.886258832832
 30
0.0
 10
141.3391651485536
 20
153.9758561625347
 30
0.0
 10
141.2962627775446
 20
154.0310417373749
 30
0.0
 10
141.1839371199399
 20
154.2026387921364
 30
0.0
 10
141.128713425586
 20
154.327457260461
 30
0.0
 10
140.9846560468185
 20
154.7123683559104
 30
0.0
 10
140.922575349987
 20
154.9754428631083
 30
0.0
 10
140.8757639186279
 20
155.2414253541404
 30
0.0
  0
SPLINE
  5
9A
330
1F
100
AcDbEntity
  8
0
  6
Continuous
 62
     7
370
    15
100
AcDbSpline
210
0.0
220
0.0
230
1.0
 70
     8
 71
     3
 72
    14
 73
    10
 74
     0
 42
0.00000001
 43
0.00000001
 12
1.0
 22
0.0
 32
0.0
 13
1.0
 23
0.0
 33
0.0
 40
0.0
 40
0.0
 40
0.0
 40
0.0
 40
0.5000000000000027
 40
0.5000000000000027
 40
0.7500000000000013
 40
0.7500000000000013
 40
0.8750000000000007
 40
0.8750000000000007
 40
1.0
 40
1.0
 40
1.0
 40
1.0
 10
144.5004143139633
 20
155.2414253541405
 30
0.0
 10
144.4536296089152
 20
154.9755947219714
 30
0.0
 10
144.3915784121355
 20
154.7129006254124
 30
0.0
 10
144.2481867735852
 20
154.3291967801153
 30
0.0
 10
144.1920431200339
 20
154.2020865783313
 30
0.0
 10
144.0790920978975
 20
154.0299103243639
 30
0.0
 10
144.0360913358594
 20
153.9748767580546
 30
0.0
 10
143.932028625553
 20
153.8859302565006
 30
0.0
 10
143.866696387196
 20
153.8516569537701
 30
0.0
 10
143.7980891162956
 20
153.8516569537701
 30
0.0
  0
SPLINE
  5
9B
330
1F
100
AcDbEntity
  8
0
  6
Continuous
 62
     7
370
    15
100
AcDbSpline
210
0.0
220
0.0
230
1.0
 70
     8
 71
     3
 72
    14
 73
    10
 74
     0
 42
0.00000001
 43
0.00000001
 12
1.0
 22
0.0
 32
0.0
 13
1.0
 23
0.0
 33
0.0
 40
0.0
 40
0.0
 40
0.0
 40
0.0
 40
0.5000000000000022
 40
0.5000000000000022
 40
0.7500000000000029
 40
0.7500000000000029
 40
0.8750000000000014
 40
0.8750000000000014
 40
1.0
 40
1.0
 40
1.0
 40
1.0
 10
140.8757639186278
 20
137.2414253541399
 30
0.0
 10
140.9229704064676
 20
137.5096525555728
 30
0.0
 10
140.986310409897
 20
137.7756507353778
 30
0.0
 10
141.1293735161528
 20
138.1567772757471
 30
0.0
 10
141.1854541664238
 20
138.2828986549505
 30
0.0
 10
141.2968895163332
 20
138.4525783668549
 30
0.0
 10
141.3388343070062
 20
138.5067049884793
 30
0.0
 10
141.4438307500263
 20
138.5968432900819
 30
0.0
 10
141.509394687107
 20
138.6311937545106
 30
0.0
 10
141.5780891162955
 20
138.6311937545107
 30
0.0
  0
LINE
  5
9C
330
1F
100
AcDbEntity
  8
0
  6
Continuous
 62
     7
370
    15
100
AcDbLine
 10
141.5780896682
 20
138.6311937162
 30
0.0
 11
143.7980888773
 21
138.6311937162
 31
0.0
  0
LINE
  5
9D
330
1F
100
AcDbEntity
  8
0
  6
Continuous
 62
     7
370
    15
100
AcDbLine
 10
143.7980888773
 20
153.8516569921
 30
0.0
 11
141.5780896682
 21
153.8516569921
 31
0.0
  0
SPLINE
  5
9E
330
1F
100
AcDbEntity
  8
0
  6
Continuous
 62
     7
370
    15
100
AcDbSpline
210
0.0
220
0.0
230
1.0
 70
     8
 71
     3
 72
    20
 73
    16
 74
     0
 42
0.00000001
 43
0.00000001
 12
1.0
 22
0.0
 32
0.0
 13
1.0
 23
0.0
 33
0.0
 40
0.0
 40
0.0
 40
0.0
 40
0.0
 40
0.2500000000000001
 40
0.2500000000000001
 40
0.375
 40
0.375
 40
0.4375000000000001
 40
0.4375000000000001
 40
0.4687500000000001
 40
0.4687500000000001
 40
0.5
 40
0.5
 40
0.75
 40
0.75
 40
1.0
 40
1.0
 40
1.0
 40
1.0
 10
150.6380891162956
 20
140.5810366749065
 30
0.0
 10
150.6380891162956
 20
141.5421207280461
 30
0.0
 10
150.6959185130827
 20
142.5022190499426
 30
0.0
 10
150.772776991724
 20
143.9425350381084
 30
0.0
 10
150.7970459706738
 20
144.4226633876883
 30
0.0
 10
150.8220955897113
 20
145.143049444149
 30
0.0
 10
150.8285777985756
 20
145.3832099649136
 30
0.0
 10
150.8347840286554
 20
145.7435106965182
 30
0.0
 10
150.8362710511039
 20
145.8636208561128
 30
0.0
 10
150.8380239193127
 20
146.1038619908748
 30
0.0
 10
150.8382759549332
 20
146.2246067063233
 30
0.0
 10
150.8353383337857
 20
147.2681874098161
 30
0.0
 10
150.7914602642077
 20
148.1947810053655
 30
0.0
 10
150.6920764657286
 20
150.0474693630709
 30
0.0
 10
150.6380891162956
 20
150.9736568202325
 30
0.0
 10
150.6380891162956
 20
151.9018140333744
 30
0.0
  0
LINE
  5
9F
330
1F
100
AcDbEntity
  8
0
  6
Continuous
 62
     7
370
    15
100
AcDbLine
 10
150.6380888064
 20
151.9018139728
 30
0.0
 11
150.6380888064
 21
155.2414249667
 31
0.0
  0
LINE
  5
A0
330
1F
100
AcDbEntity
  8
0
  6
Continuous
 62
     7
370
    15
100
AcDbLine
 10
150.6380888064
 20
137.2414257416
 30
0.0
 11
150.6380888064
 21
140.5810367354
 31
0.0
  0
SPLINE
  5
A1
330
1F
100
AcDbEntity
  8
0
  6
Continuous
 62
     7
370
    15
100
AcDbSpline
210
0.0
220
0.0
230
1.0
 70
     8
 71
     3
 72
    17
 73
    13
 74
     0
 42
0.00000001
 43
0.00000001
 12
1.0
 22
0.0
 32
0.0
 13
1.0
 23
0.0
 33
0.0
 40
0.0
 40
0.0
 40
0.0
 40
0.0
 40
0.1068867607014431
 40
0.2137566292792833
 40
0.3210682449641328
 40
0.4286808171662931
 40
0.5358091011680618
 40
0.6424229009703282
 40
0.7492946348440189
 40
0.8567924948716324
 40
0.9643120190406339
 40
1.0
 40
1.0
 40
1.0
 40
1.0
 10
155.6880886096561
 20
172.2414258905823
 30
0.0
 10
155.7210328144027
 20
172.2375184505231
 30
0.0
 10
155.7869160174738
 20
172.229704187927
 30
0.0
 10
156.3002290413879
 20
172.1752843063181
 30
0.0
 10
157.0579521576666
 20
172.1143826816647
 30
0.0
 10
158.0073995149766
 20
172.070172130819
 30
0.0
 10
159.0310534983366
 20
172.0633611742134
 30
0.0
 10
160.0119018118522
 20
172.0961459222184
 30
0.0
 10
160.8510222460411
 20
172.1549728015248
 30
0.0
 10
161.4268223091734
 20
172.2112846687425
 30
0.0
 10
161.7027217240187
 20
172.2430917623854
 30
0.0
 10
161.6609248430788
 20
172.238318329943
 30
0.0
 10
161.6505088646019
 20
172.237128768223
 30
0.0
  0
LWPOLYLINE
  5
A2
330
1F
100
AcDbEntity
  8
0
  6
Continuous
 62
     7
370
    15
100
AcDbPolyline
 90
       19
 70
   128
 43
0.0
 10
169.6410255868
 20
172.2414258906
 10
169.6624087531
 20
172.1616283097
 10
169.7264204163
 20
171.9227254429
 10
169.8326731462
 20
171.5261831918
 10
169.980515017
 20
170.9744378963
 10
170.1690333325
 20
170.2708739826
 10
170.3970732529
 20
169.4198109248
 10
170.6632377941
 20
168.4264715799
 10
170.9658915538
 20
167.2969561109
 10
171.3031756122
 20
166.0381954202
 10
171.6730187077
 20
164.6579176226
 10
172.073155864
 20
163.1645940283
 10
172.501124664
 20
161.5673907139
 10
172.9543025035
 20
159.8761126437
 10
173.4299028654
 20
158.1011412704
 10
173.9250125725
 20
156.2533721366
 10
174.4365880627
 20
154.3441468888
 10
174.9614889164
 20
152.3851852902
 10
175.4964964826
 20
150.388511181
  0
SPLINE
  5
A3
330
1F
100
AcDbEntity
  8
0
  6
Continuous
 62
     7
370
    15
100
AcDbSpline
210
0.0
220
0.0
230
1.0
 70
     8
 71
     3
 72
     8
 73
     4
 74
     0
 42
0.00000001
 43
0.00000001
 12
1.0
 22
0.0
 32
0.0
 13
1.0
 23
0.0
 33
0.0
 40
0.0
 40
0.0
 40
0.0
 40
0.0
 40
1.0
 40
1.0
 40
1.0
 40
1.0
 10
175.496496086435
 20
150.3885110835253
 30
0.0
 10
175.5845440318771
 20
150.0599116776334
 30
0.0
 10
175.6993530733197
 20
149.7424484638937
 30
0.0
 10
175.8402008544536
 20
149.4359654145495
 30
0.0
  0
ELLIPSE
  5
A4
330
1F
100
AcDbEntity
  8
0
  6
Continuous
 62
     7
370
    15
100
AcDbEllipse
 10
224.5578396009
 20
146.2414253541
 30
0.0
 11
50.36277620003997
 21
4.806470380044972
 31
0.0
210
0.0
220
0.0
230
1.0
 40
0.5073561797
 41
2.832480745066869
 42
4.515511190405218
  0
LINE
  5
A5
330
1F
100
AcDbEntity
  8
0
  6
Continuous
 62
     7
370
    15
100
AcDbLine
 10
217.0975285012
 20
120.2414248177
 30
0.0
 11
217.0979382832
 21
120.242981989
 31
0.0
  0
LINE
  5
A6
330
1F
100
AcDbEntity
  8
0
  6
Continuous
 62
     7
370
    15
100
AcDbLine
 10
217.0979382832
 20
120.242981989
 30
0.0
 11
222.902387603
 21
142.0714252667
 31
0.0
  0
ARC
  5
A7
330
1F
100
AcDbEntity
  8
0
  6
Continuous
 62
     7
370
    15
100
AcDbCircle
 10
181.2920510442
 20
151.9414253541
 30
0.0
 40
6.0
100
AcDbArc
 50
204.6816859577
 51
270.0
  0
LINE
  5
A8
330
1F
100
AcDbEntity
  8
0
  6
Continuous
 62
     7
370
    15
100
AcDbLine
 10
214.5154552896
 20
145.9414253399
 30
0.0
 11
181.2920498092
 21
145.9414253399
 31
0.0
  0
LINE
  5
A9
330
1F
100
AcDbEntity
  8
0
  6
Continuous
 62
     7
370
    15
100
AcDbLine
 10
214.5154552896
 20
145.9414253399
 30
0.0
 11
214.5154552896
 21
143.5414252841
 31
0.0
  0
LINE
  5
AA
330
1F
100
AcDbEntity
  8
0
  6
Continuous
 62
     7
370
    15
100
AcDbLine
 10
214.3200116593
 20
142.0714252667
 30
0.0
 11
214.5154552896
 21
143.5414252841
 31
0.0
  0
LINE
  5
AB
330
1F
100
AcDbEntity
  8
0
  6
Continuous
 62
     7
370
    15
100
AcDbLine
 10
214.5154552896
 20
142.0714252667
 30
0.0
 11
214.3200116593
 21
142.0714252667
 31
0.0
  0
LINE
  5
AC
330
1F
100
AcDbEntity
  8
0
  6
Continuous
 62
     7
370
    15
100
AcDbLine
 10
122.6880890213
 20
146.2414253541
 30
0.0
 11
122.6880890213
 21
170.4618565777
 31
0.0
  0
LINE
  5
AD
330
1F
100
AcDbEntity
  8
0
  6
Continuous
 62
     7
370
    15
100
AcDbLine
 10
122.6880890213
 20
122.0209941306
 30
0.0
 11
122.6880890213
 21
146.2414253541
 31
0.0
  0
SPLINE
  5
AE
330
1F
100
AcDbEntity
  8
0
  6
Continuous
 62
     7
370
    15
100
AcDbSpline
210
0.0
220
0.0
230
1.0
 70
     8
 71
     3
 72
    14
 73
    10
 74
     0
 42
0.00000001
 43
0.00000001
 12
1.0
 22
0.0
 32
0.0
 13
1.0
 23
0.0
 33
0.0
 40
0.0
 40
0.0
 40
0.0
 40
0.0
 40
0.5000000000000012
 40
0.5000000000000012
 40
0.7500000000000018
 40
0.7500000000000018
 40
0.8750000000000009
 40
0.8750000000000009
 40
1.0
 40
1.0
 40
1.0
 40
1.0
 10
93.93808911629564
 20
136.9670107766415
 30
0.0
 10
94.55416602005094
 20
136.8783517413564
 30
0.0
 10
95.16829801616682
 20
136.7815399902797
 30
0.0
 10
96.08219464668038
 20
136.6057512373901
 30
0.0
 10
96.385633574228
 20
136.542158588512
 30
0.0
 10
96.83677018986548
 20
136.4299371734388
 30
0.0
 10
96.98647643940798
 20
136.3897148950903
 30
0.0
 10
97.28331757565607
 20
136.2985100789967
 30
0.0
 10
97.43070312815938
 20
136.2485763120513
 30
0.0
 10
97.57448725517365
 20
136.1835734996037
 30
0.0
  0
SPLINE
  5
AF
330
1F
100
AcDbEntity
  8
0
  6
Continuous
 62
     7
370
    15
100
AcDbSpline
210
0.0
220
0.0
230
1.0
 70
     8
 71
     3
 72
    10
 73
     6
 74
     0
 42
0.00000001
 43
0.00000001
 12
1.0
 22
0.0
 32
0.0
 13
1.0
 23
0.0
 33
0.0
 40
0.0
 40
0.0
 40
0.0
 40
0.0
 40
0.5
 40
0.5
 40
1.0
 40
1.0
 40
1.0
 40
1.0
 10
97.57448725517365
 20
136.1835734996037
 30
0.0
 10
98.20211491088097
 20
135.8998317289509
 30
0.0
 10
98.85331565591238
 20
135.6557867401331
 30
0.0
 10
100.1620203599246
 20
135.2103994759873
 30
0.0
 10
100.8230647972157
 20
135.0090108530018
 30
0.0
 10
101.4880891162954
 20
134.8202926330458
 30
0.0
  0
SPLINE
  5
B0
330
1F
100
AcDbEntity
  8
0
  6
Continuous
 62
     7
370
    15
100
AcDbSpline
210
0.0
220
0.0
230
1.0
 70
     8
 71
     3
 72
    18
 73
    14
 74
     0
 42
0.00000001
 43
0.00000001
 12
1.0
 22
0.0
 32
0.0
 13
1.0
 23
0.0
 33
0.0
 40
0.0
 40
0.0
 40
0.0
 40
0.0
 40
0.0624999999999991
 40
0.0624999999999991
 40
0.1249999999999982
 40
0.1249999999999982
 40
0.2499999999999995
 40
0.2499999999999995
 40
0.4999999999999997
 40
0.4999999999999997
 40
0.7499999999999998
 40
0.7499999999999998
 40
1.0
 40
1.0
 40
1.0
 40
1.0
 10
101.4880891162956
 20
134.8202926330461
 30
0.0
 10
101.524661326646
 20
134.8099143021503
 30
0.0
 10
101.5633118000814
 20
134.8069759828658
 30
0.0
 10
101.6374032937953
 20
134.8171854358742
 30
0.0
 10
101.6727535875494
 20
134.8300895114136
 30
0.0
 10
101.7673478849388
 20
134.8813310836983
 30
0.0
 10
101.8174860580778
 20
134.9308627880244
 30
0.0
 10
101.9466793296589
 20
135.0901749824667
 30
0.0
 10
102.0049594744001
 20
135.2096296153919
 30
0.0
 10
102.1051545708236
 20
135.4551030675802
 30
0.0
 10
102.1451698222702
 20
135.5825726526636
 30
0.0
 10
102.213569243088
 20
135.8400230383272
 30
0.0
 10
102.24193096695
 20
135.9706418066905
 30
0.0
 10
102.2664848795559
 20
136.1027397888178
 30
0.0
  0
SPLINE
  5
B1
330
1F
100
AcDbEntity
  8
0
  6
Continuous
 62
     7
370
    15
100
AcDbSpline
210
0.0
220
0.0
230
1.0
 70
     8
 71
     3
 72
    14
 73
    10
 74
     0
 42
0.00000001
 43
0.00000001
 12
1.0
 22
0.0
 32
0.0
 13
1.0
 23
0.0
 33
0.0
 40
0.0
 40
0.0
 40
0.0
 40
0.0
 40
0.25
 40
0.25
 40
0.5
 40
0.5
 40
0.75
 40
0.75
 40
1.0
 40
1.0
 40
1.0
 40
1.0
 10
102.2664848795559
 20
136.1027397888178
 30
0.0
 10
102.3049212643769
 20
136.309524302415
 30
0.0
 10
102.3737226577687
 20
136.5136193504512
 30
0.0
 10
102.5170086699277
 20
136.9202551873894
 30
0.0
 10
102.5921907250346
 20
137.1239159696537
 30
0.0
 10
102.7243780136847
 20
137.5388259766736
 30
0.0
 10
102.7818952091545
 20
137.7499399694252
 30
0.0
 10
102.8639400074468
 20
138.1840863589405
 30
0.0
 10
102.8880891162956
 20
138.4054535691865
 30
0.0
 10
102.8880891162956
 20
138.6275424435678
 30
0.0
  0
LINE
  5
B2
330
1F
100
AcDbEntity
  8
0
  6
Continuous
 62
     7
370
    15
100
AcDbLine
 10
102.8880888958
 20
138.627542466
 30
0.0
 11
102.8880888958
 21
153.8553082422
 31
0.0
  0
SPLINE
  5
B3
330
1F
100
AcDbEntity
  8
0
  6
Continuous
 62
     7
370
    15
100
AcDbSpline
210
0.0
220
0.0
230
1.0
 70
     8
 71
     3
 72
    14
 73
    10
 74
     0
 42
0.00000001
 43
0.00000001
 12
1.0
 22
0.0
 32
0.0
 13
1.0
 23
0.0
 33
0.0
 40
0.0
 40
0.0
 40
0.0
 40
0.0
 40
0.25
 40
0.25
 40
0.5
 40
0.5
 40
0.75
 40
0.75
 40
1.0
 40
1.0
 40
1.0
 40
1.0
 10
102.2664848795559
 20
156.380110919463
 30
0.0
 10
102.3049212643769
 20
156.1733264058659
 30
0.0
 10
102.3737226577687
 20
155.9692313578297
 30
0.0
 10
102.5170086699277
 20
155.5625955208915
 30
0.0
 10
102.5921907250346
 20
155.3589347386272
 30
0.0
 10
102.7243780136847
 20
154.9440247316073
 30
0.0
 10
102.7818952091545
 20
154.7329107388557
 30
0.0
 10
102.8639400074468
 20
154.2987643493404
 30
0.0
 10
102.8880891162956
 20
154.0773971390944
 30
0.0
 10
102.8880891162956
 20
153.855308264713
 30
0.0
  0
SPLINE
  5
B4
330
1F
100
AcDbEntity
  8
0
  6
Continuous
 62
     7
370
    15
100
AcDbSpline
210
0.0
220
0.0
230
1.0
 70
     8
 71
     3
 72
    18
 73
    14
 74
     0
 42
0.00000001
 43
0.00000001
 12
1.0
 22
0.0
 32
0.0
 13
1.0
 23
0.0
 33
0.0
 40
0.0
 40
0.0
 40
0.0
 40
0.0
 40
0.0624999999999996
 40
0.0624999999999996
 40
0.1249999999999992
 40
0.1249999999999992
 40
0.2499999999999997
 40
0.2499999999999997
 40
0.4999999999999998
 40
0.4999999999999998
 40
0.7499999999999999
 40
0.7499999999999999
 40
1.0
 40
1.0
 40
1.0
 40
1.0
 10
101.4880891162956
 20
157.6625580752348
 30
0.0
 10
101.524661326646
 20
157.6729364061306
 30
0.0
 10
101.5633118000815
 20
157.6758747254151
 30
0.0
 10
101.6374032937954
 20
157.6656652724067
 30
0.0
 10
101.6727535875495
 20
157.6527611968673
 30
0.0
 10
101.7673478849389
 20
157.6015196245826
 30
0.0
 10
101.8174860580778
 20
157.5519879202564
 30
0.0
 10
101.946679329659
 20
157.3926757258141
 30
0.0
 10
102.0049594744001
 20
157.2732210928889
 30
0.0
 10
102.1051545708236
 20
157.0277476407007
 30
0.0
 10
102.1451698222702
 20
156.9002780556173
 30
0.0
 10
102.213569243088
 20
156.6428276699537
 30
0.0
 10
102.2419309669499
 20
156.5122089015904
 30
0.0
 10
102.2664848795559
 20
156.380110919463
 30
0.0
  0
SPLINE
  5
B5
330
1F
100
AcDbEntity
  8
0
  6
Continuous
 62
     7
370
    15
100
AcDbSpline
210
0.0
220
0.0
230
1.0
 70
     8
 71
     3
 72
    10
 73
     6
 74
     0
 42
0.00000001
 43
0.00000001
 12
1.0
 22
0.0
 32
0.0
 13
1.0
 23
0.0
 33
0.0
 40
0.0
 40
0.0
 40
0.0
 40
0.0
 40
0.5
 40
0.5
 40
1.0
 40
1.0
 40
1.0
 40
1.0
 10
97.57448725517365
 20
156.2992772086772
 30
0.0
 10
98.202114910881
 20
156.5830189793299
 30
0.0
 10
98.85331565591245
 20
156.8270639681478
 30
0.0
 10
100.1620203599247
 20
157.2724512322936
 30
0.0
 10
100.8230647972159
 20
157.4738398552791
 30
0.0
 10
101.4880891162955
 20
157.6625580752351
 30
0.0
  0
SPLINE
  5
B6
330
1F
100
AcDbEntity
  8
0
  6
Continuous
 62
     7
370
    15
100
AcDbSpline
210
0.0
220
0.0
230
1.0
 70
     8
 71
     3
 72
    14
 73
    10
 74
     0
 42
0.00000001
 43
0.00000001
 12
1.0
 22
0.0
 32
0.0
 13
1.0
 23
0.0
 33
0.0
 40
0.0
 40
0.0
 40
0.0
 40
0.0
 40
0.4999999999999998
 40
0.4999999999999998
 40
0.750000000000001
 40
0.750000000000001
 40
0.8750000000000004
 40
0.8750000000000004
 40
1.0
 40
1.0
 40
1.0
 40
1.0
 10
93.93808911629564
 20
155.5158399316394
 30
0.0
 10
94.55416602005096
 20
155.6044989669245
 30
0.0
 10
95.16829801616683
 20
155.7013107180012
 30
0.0
 10
96.08219464668039
 20
155.8770994708908
 30
0.0
 10
96.385633574228
 20
155.9406921197689
 30
0.0
 10
96.83677018986549
 20
156.0529135348421
 30
0.0
 10
96.986476439408
 20
156.0931358131906
 30
0.0
 10
97.28331757565607
 20
156.1843406292842
 30
0.0
 10
97.43070312815937
 20
156.2342743962296
 30
0.0
 10
97.57448725517365
 20
156.2992772086772
 30
0.0
  0
SPLINE
  5
B7
330
1F
100
AcDbEntity
  8
0
  6
Continuous
 62
     7
370
    15
100
AcDbSpline
210
0.0
220
0.0
230
1.0
 70
     8
 71
     3
 72
     8
 73
     4
 74
     0
 42
0.00000001
 43
0.00000001
 12
1.0
 22
0.0
 32
0.0
 13
1.0
 23
0.0
 33
0.0
 40
0.0000005954826279
 40
0.0000005954826279
 40
0.0000005954826279
 40
0.0000005954826279
 40
0.0000302093805348
 40
0.0000302093805348
 40
0.0000302093805348
 40
0.0000302093805348
 10
93.92804418588605
 20
155.5410685866495
 30
0.0
 10
93.93136021320623
 20
155.5326501875411
 30
0.0
 10
93.9347087645985
 20
155.5242405979915
 30
0.0
 10
93.93808911629559
 20
155.5158399316394
 30
0.0
  0
SPLINE
  5
B8
330
1F
100
AcDbEntity
  8
0
  6
Continuous
 62
     7
370
    15
100
AcDbSpline
210
0.0
220
0.0
230
1.0
 70
     8
 71
     3
 72
     8
 73
     4
 74
     0
 42
0.00000001
 43
0.00000001
 12
1.0
 22
0.0
 32
0.0
 13
1.0
 23
0.0
 33
0.0
 40
0.0000005954826279
 40
0.0000005954826279
 40
0.0000005954826279
 40
0.0000005954826279
 40
0.0000302093805348
 40
0.0000302093805348
 40
0.0000302093805348
 40
0.0000302093805348
 10
93.92804418588605
 20
136.9417821216313
 30
0.0
 10
93.93136021320625
 20
136.9502005207399
 30
0.0
 10
93.93470876459851
 20
136.9586101102894
 30
0.0
 10
93.93808911629559
 20
136.9670107766415
 30
0.0
  0
SPLINE
  5
B9
330
1F
100
AcDbEntity
  8
0
  6
Continuous
 62
     7
370
    15
100
AcDbSpline
210
0.0
220
0.0
230
1.0
 70
     8
 71
     3
 72
    39
 73
    35
 74
     0
 42
0.00000001
 43
0.00000001
 12
1.0
 22
0.0
 32
0.0
 13
1.0
 23
0.0
 33
0.0
 40
-0.0933917898681681
 40
-0.062235112377337
 40
-0.0310035323363815
 40
0.0
 40
0.0311554731469189
 40
0.0627537544701209
 40
0.0944598246528823
 40
0.1258516844974789
 40
0.1572196167873313
 40
0.1889387571416946
 40
0.2205174397747647
 40
0.2516656885414448
 40
0.2826462244723088
 40
0.3138733795790971
 40
0.3450060568224169
 40
0.3757359628070913
 40
0.4064218143223449
 40
0.4377517454847213
 40
0.4690453247903464
 40
0.5001675072799395
 40
0.5313230322624448
 40
0.5628789029232684
 40
0.5945517697251348
 40
0.6258698547354901
 40
0.657195442580426
 40
0.6889351647119851
 40
0.7205341263071136
 40
0.7517182475210312
 40
0.7827801982310626
 40
0.8139996739131332
 40
0.8452044676928825
 40
0.8758948969807201
 40
0.9066082101318319
 40
0.937764887622663
 40
0.9689964676636185
 40
1.0
 40
1.031155473146919
 40
1.062753754470121
 40
1.094459824652882
 10
113.3025320611559
 20
142.6522624002686
 30
0.0
 10
112.6626757382521
 20
143.1914210690556
 30
0.0
 10
112.1386721441838
 20
143.8472073598913
 30
0.0
 10
111.751930138732
 20
144.5991785038909
 30
0.0
 10
111.5076856088771
 20
145.4117074329332
 30
0.0
 10
111.4285720656537
 20
146.255254110123
 30
0.0
 10
111.5126526624037
 20
147.0984350872379
 30
0.0
 10
111.7618855610569
 20
147.9091553065586
 30
0.0
 10
112.1532546162964
 20
148.6585744636636
 30
0.0
 10
112.6813985903214
 20
149.3104976719743
 30
0.0
 10
113.3246356539774
 20
149.8451195885592
 30
0.0
 10
114.0633885959402
 20
150.2379854209952
 30
0.0
 10
114.8608817399908
 20
150.4854730704721
 30
0.0
 10
115.6874671257569
 20
150.5636856143587
 30
0.0
 10
116.5129851843069
 20
150.4747348600096
 30
0.0
 10
117.3051253336684
 20
150.2187366798054
 30
0.0
 10
118.0376481909515
 20
149.8193155409127
 30
0.0
 10
118.6734714856836
 20
149.2821469782527
 30
0.0
 10
119.1946966657542
 20
148.6291978079446
 30
0.0
 10
119.578921111193
 20
147.8798048042493
 30
0.0
 10
119.8214609886637
 20
147.0692566775498
 30
0.0
 10
119.8995273112568
 20
146.2269080685271
 30
0.0
 10
119.8147216509205
 20
145.3846689532677
 30
0.0
 10
119.5660312103252
 20
144.5750126325265
 30
0.0
 10
119.1764272871043
 20
143.8271368061851
 30
0.0
 10
118.6508648026547
 20
143.1775998016183
 30
0.0
 10
118.0121975266934
 20
142.6453222950113
 30
0.0
 10
117.2789440469384
 20
142.2519011504247
 30
0.0
 10
116.4864364120364
 20
142.0025062326063
 30
0.0
 10
115.6615554370003
 20
141.9192242510842
 30
0.0
 10
114.8353131654243
 20
142.0021969014223
 30
0.0
 10
114.0392500116253
 20
142.2546568280068
 30
0.0
 10
113.3025320611559
 20
142.6522624002686
 30
0.0
 10
112.6626757382521
 20
143.1914210690556
 30
0.0
 10
112.1386721441838
 20
143.8472073598913
 30
0.0
  0
SPLINE
  5
BA
330
1F
100
AcDbEntity
  8
0
  6
Continuous
 62
     7
370
    15
100
AcDbSpline
210
0.0
220
0.0
230
1.0
 70
     8
 71
     3
 72
    42
 73
    38
 74
     0
 42
0.00000001
 43
0.00000001
 12
1.0
 22
0.0
 32
0.0
 13
1.0
 23
0.0
 33
0.0
 40
-0.0859316076417099
 40
-0.0609210129164024
 40
-0.032276621489006
 40
0.0
 40
0.0284830186126943
 40
0.0552061382827513
 40
0.0801799850298142
 40
0.103417815852785
 40
0.1249363295284943
 40
0.1563046583289859
 40
0.197944235984845
 40
0.2498399451110505
 40
0.2789581882689109
 40
0.3060722233739813
 40
0.3311961508891147
 40
0.3543480223637211
 40
0.3755512451170889
 40
0.4116849508060994
 40
0.4530713443513679
 40
0.4997879465807339
 40
0.5273607821057333
 40
0.5522672815896564
 40
0.5745075514542536
 40
0.5940825939304012
 40
0.6109947617058109
 40
0.6252486355470234
 40
0.6621224546740642
 40
0.70366283702268
 40
0.7499274679880161
 40
0.782426472339801
 40
0.8111789305167617
 40
0.8361828742185502
 40
0.8574379105447573
 40
0.8749461318774902
 40
0.8926915954039033
 40
0.91406839235829
 40
0.9390789870835975
 40
0.9677233785109939
 40
0.9999999999999999
 40
1.028483018612694
 40
1.055206138282751
 40
1.080179985029814
 10
112.5491380079806
 20
144.1478722543646
 30
0.0
 10
112.9947661473731
 20
143.5992765284301
 30
0.0
 10
113.5240422646641
 20
143.1557209513489
 30
0.0
 10
114.0724182938505
 20
142.8389335401519
 30
0.0
 10
114.6260866629414
 20
142.6298871885488
 30
0.0
 10
115.1645794065854
 20
142.5155928689684
 30
0.0
 10
115.763350837661
 20
142.4746541070905
 30
0.0
 10
116.5055089848769
 20
142.5477058578211
 30
0.0
 10
117.4397516215167
 20
142.8643202236756
 30
0.0
 10
118.2322334620769
 20
143.4305814095952
 30
0.0
 10
118.7758363392766
 20
144.07959751799
 30
0.0
 10
119.0945937159899
 20
144.6337228086083
 30
0.0
 10
119.3024978832843
 20
145.1893546130176
 30
0.0
 10
119.4147248311142
 20
145.7254278003142
 30
0.0
 10
119.4571707593727
 20
146.3587677276516
 30
0.0
 10
119.3681156592417
 20
147.1373605362224
 30
0.0
 10
119.0229771054994
 20
148.0594043507742
 30
0.0
 10
118.4792984942722
 20
148.7970932019007
 30
0.0
 10
117.8879317948448
 20
149.2990754727113
 30
0.0
 10
117.3862053920169
 20
149.6001703707147
 30
0.0
 10
116.9035130275912
 20
149.8003133317958
 30
0.0
 10
116.4590083720604
 20
149.9196938604518
 30
0.0
 10
116.0652800231012
 20
149.9784150884216
 30
0.0
 10
115.5316685294672
 20
150.0053804533643
 30
0.0
 10
114.7999153330389
 20
149.9243910923859
 30
0.0
 10
113.8710450573486
 20
149.5769890658274
 30
0.0
 10
113.0987565778549
 20
149.0076565554641
 30
0.0
 10
112.5597602979364
 20
148.3511700626308
 30
0.0
 10
112.236054118783
 20
147.7517186925189
 30
0.0
 10
112.0465770230655
 20
147.1910305116135
 30
0.0
 10
111.9563745618155
 20
146.6963661376215
 30
0.0
 10
111.930399517647
 20
146.2517758721321
 30
0.0
 10
111.9538684530525
 20
145.8060472680863
 30
0.0
 10
112.0422896316447
 20
145.308105697565
 30
0.0
 10
112.2294884801849
 20
144.7464428950525
 30
0.0
 10
112.5491380079806
 20
144.1478722543646
 30
0.0
 10
112.9947661473731
 20
143.5992765284301
 30
0.0
 10
113.5240422646641
 20
143.1557209513489
 30
0.0
  0
ARC
  5
BB
330
1F
100
AcDbEntity
  8
0
  6
Continuous
 62
     7
370
    15
100
AcDbCircle
 10
101.4880891163
 20
151.1114253541
 30
0.0
 40
1.400000000000006
100
AcDbArc
 50
0.0
 51
90.0
  0
ARC
  5
BC
330
1F
100
AcDbEntity
  8
0
  6
Continuous
 62
     7
370
    15
100
AcDbCircle
 10
101.4880891163
 20
141.3714253541
 30
0.0
 40
1.400000000000006
100
AcDbArc
 50
270.0
 51
0.0
  0
LINE
  5
BD
330
1F
100
AcDbEntity
  8
0
  6
Continuous
 62
     7
370
    15
100
AcDbLine
 10
93.9380882669
 20
152.5114251339
 30
0.0
 11
93.9380882669
 21
155.5158400946
 31
0.0
  0
LINE
  5
BE
330
1F
100
AcDbEntity
  8
0
  6
Continuous
 62
     7
370
    15
100
AcDbLine
 10
93.9380882669
 20
152.5114251339
 30
0.0
 11
92.7880892891
 21
153.6614255087
 31
0.0
  0
LINE
  5
BF
330
1F
100
AcDbEntity
  8
0
  6
Continuous
 62
     7
370
    15
100
AcDbLine
 10
92.7880892891
 20
153.6614255087
 30
0.0
 11
92.7880892891
 21
155.1574224644
 31
0.0
  0
SPLINE
  5
C0
330
1F
100
AcDbEntity
  8
0
  6
Continuous
 62
     7
370
    15
100
AcDbSpline
210
0.0
220
0.0
230
1.0
 70
     8
 71
     3
 72
    10
 73
     6
 74
     0
 42
0.00000001
 43
0.00000001
 12
1.0
 22
0.0
 32
0.0
 13
1.0
 23
0.0
 33
0.0
 40
0.0
 40
0.0
 40
0.0
 40
0.0
 40
0.5
 40
0.5
 40
1.0
 40
1.0
 40
1.0
 40
1.0
 10
92.78808911629518
 20
155.1574223279995
 30
0.0
 10
92.78808911629517
 20
155.2847864460506
 30
0.0
 10
92.79340867692343
 20
155.41211725839
 30
0.0
 10
92.80653690920504
 20
155.6670353196109
 30
0.0
 10
92.81422956385906
 20
155.795081342172
 30
0.0
 10
92.81836673190428
 20
155.9163095982827
 30
0.0
  0
SPLINE
  5
C1
330
1F
100
AcDbEntity
  8
0
  6
Continuous
 62
     7
370
    15
100
AcDbSpline
210
0.0
220
0.0
230
1.0
 70
     8
 71
     3
 72
     8
 73
     4
 74
     0
 42
0.00000001
 43
0.00000001
 12
1.0
 22
0.0
 32
0.0
 13
1.0
 23
0.0
 33
0.0
 40
0.0
 40
0.0
 40
0.0
 40
0.0
 40
1.0
 40
1.0
 40
1.0
 40
1.0
 10
93.72699868649478
 20
156.2270800296227
 30
0.0
 10
93.7627123448647
 20
155.9929240030441
 30
0.0
 10
93.83838038381298
 20
155.7686980958657
 30
0.0
 10
93.9280441858861
 20
155.5410685866495
 30
0.0
  0
LINE
  5
C2
330
1F
100
AcDbEntity
  8
0
  6
Continuous
 62
     7
370
    15
100
AcDbLine
 10
101.4880894113
 20
152.5114251339
 30
0.0
 11
93.9380882669
 21
152.5114251339
 31
0.0
  0
SPLINE
  5
C3
330
1F
100
AcDbEntity
  8
0
  6
Continuous
 62
     7
370
    15
100
AcDbSpline
210
0.0
220
0.0
230
1.0
 70
     8
 71
     3
 72
     8
 73
     4
 74
     0
 42
0.00000001
 43
0.00000001
 12
1.0
 22
0.0
 32
0.0
 13
1.0
 23
0.0
 33
0.0
 40
0.0
 40
0.0
 40
0.0
 40
0.0
 40
1.0
 40
1.0
 40
1.0
 40
1.0
 10
93.72699868649478
 20
136.2557706786582
 30
0.0
 10
93.7627123448647
 20
136.4899267052368
 30
0.0
 10
93.83838038381298
 20
136.7141526124152
 30
0.0
 10
93.9280441858861
 20
136.9417821216313
 30
0.0
  0
SPLINE
  5
C4
330
1F
100
AcDbEntity
  8
0
  6
Continuous
 62
     7
370
    15
100
AcDbSpline
210
0.0
220
0.0
230
1.0
 70
     8
 71
     3
 72
    10
 73
     6
 74
     0
 42
0.00000001
 43
0.00000001
 12
1.0
 22
0.0
 32
0.0
 13
1.0
 23
0.0
 33
0.0
 40
0.0
 40
0.0
 40
0.0
 40
0.0
 40
0.5
 40
0.5
 40
1.0
 40
1.0
 40
1.0
 40
1.0
 10
92.78808911629518
 20
137.3254283802814
 30
0.0
 10
92.78808911629517
 20
137.1980642622302
 30
0.0
 10
92.79340867692343
 20
137.0707334498909
 30
0.0
 10
92.80653690920504
 20
136.81581538867
 30
0.0
 10
92.81422956385906
 20
136.6877693661089
 30
0.0
 10
92.81836673190428
 20
136.5665411099982
 30
0.0
  0
LINE
  5
C5
330
1F
100
AcDbEntity
  8
0
  6
Continuous
 62
     7
370
    15
100
AcDbLine
 10
92.7880892891
 20
138.8214251996
 30
0.0
 11
92.7880892891
 21
137.3254282438
 31
0.0
  0
LINE
  5
C6
330
1F
100
AcDbEntity
  8
0
  6
Continuous
 62
     7
370
    15
100
AcDbLine
 10
93.9380882669
 20
139.9714255744
 30
0.0
 11
92.7880892891
 21
138.8214251996
 31
0.0
  0
LINE
  5
C7
330
1F
100
AcDbEntity
  8
0
  6
Continuous
 62
     7
370
    15
100
AcDbLine
 10
93.9380882669
 20
139.9714255744
 30
0.0
 11
93.9380882669
 21
136.9670106136
 31
0.0
  0
LINE
  5
C8
330
1F
100
AcDbEntity
  8
0
  6
Continuous
 62
     7
370
    15
100
AcDbLine
 10
101.4880894113
 20
139.9714255744
 30
0.0
 11
93.9380882669
 21
139.9714255744
 31
0.0
  0
LINE
  5
C9
330
1F
100
AcDbEntity
  8
0
  6
Continuous
 62
     7
370
    15
100
AcDbLine
 10
92.7880892891
 20
124.6603753456
 30
0.0
 11
92.7880892891
 21
137.3254282438
 31
0.0
  0
SPLINE
  5
CA
330
1F
100
AcDbEntity
  8
0
  6
Continuous
 62
     7
370
    15
100
AcDbSpline
210
0.0
220
0.0
230
1.0
 70
     8
 71
     3
 72
    26
 73
    22
 74
     0
 42
0.00000001
 43
0.00000001
 12
1.0
 22
0.0
 32
0.0
 13
1.0
 23
0.0
 33
0.0
 40
0.0
 40
0.0
 40
0.0
 40
0.0
 40
0.24999999999999
 40
0.24999999999999
 40
0.3749999999999855
 40
0.3749999999999855
 40
0.4374999999999828
 40
0.4374999999999828
 40
0.4687499999999823
 40
0.4687499999999823
 40
0.4999999999999817
 40
0.4999999999999817
 40
0.5312499999999811
 40
0.5312499999999811
 40
0.5624999999999805
 40
0.5624999999999805
 40
0.6249999999999835
 40
0.6249999999999835
 40
0.7499999999999892
 40
0.7499999999999892
 40
1.0
 40
1.0
 40
1.0
 40
1.0
 10
92.81836673190428
 20
136.5665411099982
 30
0.0
 10
92.8290907652968
 20
136.2523030001506
 30
0.0
 10
92.84382375589134
 20
135.9372299535179
 30
0.0
 10
92.89617731513836
 20
135.4583194336035
 30
0.0
 10
92.917882597858
 20
135.2967441897298
 30
0.0
 10
92.97673810522339
 20
135.0560317706925
 30
0.0
 10
93.00020033907056
 20
134.9753838694279
 30
0.0
 10
93.0563217157312
 20
134.8655664052624
 30
0.0
 10
93.07910902586185
 20
134.8309664381785
 30
0.0
 10
93.13436157839307
 20
134.7842093486233
 30
0.0
 10
93.16576781113389
 20
134.7755541699098
 30
0.0
 10
93.22070163175431
 20
134.7842995225593
 30
0.0
 10
93.2451254499538
 20
134.7992742851822
 30
0.0
 10
93.28854055594101
 20
134.8364571242123
 30
0.0
 10
93.30811511850928
 20
134.8593551381072
 30
0.0
 10
93.36174780245723
 20
134.9328791878179
 30
0.0
 10
93.39152515050942
 20
134.9887744895225
 30
0.0
 10
93.47305921048222
 20
135.1654343742908
 30
0.0
 10
93.51630200515626
 20
135.2950411841829
 30
0.0
 10
93.62935659481094
 20
135.6908877233865
 30
0.0
 10
93.6833675922901
 20
135.969704111402
 30
0.0
 10
93.72699868649413
 20
136.2557706786586
 30
0.0
  0
LINE
  5
CB
330
1F
100
AcDbEntity
  8
0
  6
Continuous
 62
     7
370
    15
100
AcDbLine
 10
92.7880892891
 20
155.1574224644
 30
0.0
 11
92.7880892891
 21
167.8224753627
 31
0.0
  0
SPLINE
  5
CC
330
1F
100
AcDbEntity
  8
0
  6
Continuous
 62
     7
370
    15
100
AcDbSpline
210
0.0
220
0.0
230
1.0
 70
     8
 71
     3
 72
    26
 73
    22
 74
     0
 42
0.00000001
 43
0.00000001
 12
1.0
 22
0.0
 32
0.0
 13
1.0
 23
0.0
 33
0.0
 40
0.0
 40
0.0
 40
0.0
 40
0.0
 40
0.24999999999999
 40
0.24999999999999
 40
0.3749999999999855
 40
0.3749999999999855
 40
0.4374999999999828
 40
0.4374999999999828
 40
0.4687499999999823
 40
0.4687499999999823
 40
0.4999999999999817
 40
0.4999999999999817
 40
0.5312499999999811
 40
0.5312499999999811
 40
0.5624999999999805
 40
0.5624999999999805
 40
0.6249999999999835
 40
0.6249999999999835
 40
0.7499999999999892
 40
0.7499999999999892
 40
1.0
 40
1.0
 40
1.0
 40
1.0
 10
92.81836673190428
 20
155.9163095982827
 30
0.0
 10
92.8290907652968
 20
156.2305477081303
 30
0.0
 10
92.84382375589134
 20
156.545620754763
 30
0.0
 10
92.89617731513836
 20
157.0245312746774
 30
0.0
 10
92.917882597858
 20
157.1861065185511
 30
0.0
 10
92.97673810522339
 20
157.4268189375884
 30
0.0
 10
93.00020033907056
 20
157.507466838853
 30
0.0
 10
93.0563217157312
 20
157.6172843030185
 30
0.0
 10
93.07910902586185
 20
157.6518842701024
 30
0.0
 10
93.13436157839307
 20
157.6986413596576
 30
0.0
 10
93.16576781113389
 20
157.7072965383711
 30
0.0
 10
93.22070163175431
 20
157.6985511857216
 30
0.0
 10
93.2451254499538
 20
157.6835764230987
 30
0.0
 10
93.28854055594101
 20
157.6463935840686
 30
0.0
 10
93.30811511850928
 20
157.6234955701737
 30
0.0
 10
93.36174780245723
 20
157.549971520463
 30
0.0
 10
93.39152515050942
 20
157.4940762187584
 30
0.0
 10
93.47305921048222
 20
157.3174163339901
 30
0.0
 10
93.51630200515626
 20
157.187809524098
 30
0.0
 10
93.62935659481094
 20
156.7919629848944
 30
0.0
 10
93.6833675922901
 20
156.5131465968789
 30
0.0
 10
93.72699868649413
 20
156.2270800296222
 30
0.0
  0
SPLINE
  5
CD
330
1F
100
AcDbEntity
  8
0
  6
Continuous
 62
     7
370
    15
100
AcDbSpline
210
0.0
220
0.0
230
1.0
 70
     8
 71
     3
 72
     9
 73
     5
 74
     0
 42
0.00000001
 43
0.00000001
 12
1.0
 22
0.0
 32
0.0
 13
1.0
 23
0.0
 33
0.0
 40
0.0
 40
0.0
 40
0.0
 40
0.0
 40
0.5131028265951941
 40
1.0
 40
1.0
 40
1.0
 40
1.0
 10
113.7875963363851
 20
143.0206706785733
 30
0.0
 10
113.4571023045611
 20
143.2464414048421
 30
0.0
 10
112.8129935320233
 20
143.6864520899654
 30
0.0
 10
112.4576219795974
 20
144.3808611529315
 30
0.0
 10
112.2845925752128
 20
144.7189669628764
 30
0.0
  0
LINE
  5
CE
330
1F
100
AcDbEntity
  8
0
  6
Continuous
 62
     7
370
    15
100
AcDbLine
 10
118.3733187977
 20
148.853855258
 30
0.0
 11
118.4430911567
 21
148.7855290101
 31
0.0
  0
SPLINE
  5
CF
330
1F
100
AcDbEntity
  8
0
  6
Continuous
 62
     7
370
    15
100
AcDbSpline
210
0.0
220
0.0
230
1.0
 70
     8
 71
     3
 72
    18
 73
    14
 74
     0
 42
0.00000001
 43
0.00000001
 12
1.0
 22
0.0
 32
0.0
 13
1.0
 23
0.0
 33
0.0
 40
0.0
 40
0.0
 40
0.0
 40
0.0
 40
0.2499999999999974
 40
0.2499999999999974
 40
0.3749999999999971
 40
0.3749999999999971
 40
0.4999999999999968
 40
0.4999999999999968
 40
0.6249999999999964
 40
0.6249999999999964
 40
0.7499999999999961
 40
0.7499999999999961
 40
1.0
 40
1.0
 40
1.0
 40
1.0
 10
98.88808911629565
 20
141.3714253541405
 30
0.0
 10
98.88808911629563
 20
141.1892375727097
 30
0.0
 10
98.85317842490349
 20
141.011998219312
 30
0.0
 10
98.7511691235704
 20
140.7608575310001
 30
0.0
 10
98.70953276889232
 20
140.6813711919532
 30
0.0
 10
98.61112697340356
 20
140.5306606339463
 30
0.0
 10
98.55358376169927
 20
140.4587236899608
 30
0.0
 10
98.42628558812633
 20
140.3283095660207
 30
0.0
 10
98.35669828336886
 20
140.2696275154431
 30
0.0
 10
98.20526403821391
 20
140.1655644608973
 30
0.0
 10
98.12258013511996
 20
140.12001241135
 30
0.0
 10
97.86646867308191
 20
140.0108072091729
 30
0.0
 10
97.6785536691939
 20
139.9714253541405
 30
0.0
 10
97.48808911629564
 20
139.9714253541405
 30
0.0
  0
LINE
  5
D0
330
1F
100
AcDbEntity
  8
0
  6
Continuous
 62
     7
370
    15
100
AcDbLine
 10
98.8880882401
 20
141.3714255245
 30
0.0
 11
98.8880882401
 21
151.1114251838
 31
0.0
  0
SPLINE
  5
D1
330
1F
100
AcDbEntity
  8
0
  6
Continuous
 62
     7
370
    15
100
AcDbSpline
210
0.0
220
0.0
230
1.0
 70
     8
 71
     3
 72
    18
 73
    14
 74
     0
 42
0.00000001
 43
0.00000001
 12
1.0
 22
0.0
 32
0.0
 13
1.0
 23
0.0
 33
0.0
 40
0.0
 40
0.0
 40
0.0
 40
0.0
 40
0.2500000000000009
 40
0.2500000000000009
 40
0.3750000000000007
 40
0.3750000000000007
 40
0.5000000000000006
 40
0.5000000000000006
 40
0.6250000000000003
 40
0.6250000000000003
 40
0.7500000000000001
 40
0.7500000000000001
 40
1.0
 40
1.0
 40
1.0
 40
1.0
 10
98.88808911629565
 20
151.1114253541404
 30
0.0
 10
98.88808911629563
 20
151.2936131355712
 30
0.0
 10
98.85317842490346
 20
151.4708524889689
 30
0.0
 10
98.75116912357043
 20
151.7219931772808
 30
0.0
 10
98.7095327688923
 20
151.8014795163277
 30
0.0
 10
98.61112697340356
 20
151.9521900743346
 30
0.0
 10
98.55358376169929
 20
152.0241270183201
 30
0.0
 10
98.42628558812633
 20
152.1545411422601
 30
0.0
 10
98.35669828336886
 20
152.2132231928378
 30
0.0
 10
98.20526403821391
 20
152.3172862473836
 30
0.0
 10
98.12258013511996
 20
152.3628382969309
 30
0.0
 10
97.8664686730819
 20
152.472043499108
 30
0.0
 10
97.67855366919392
 20
152.5114253541404
 30
0.0
 10
97.48808911629564
 20
152.5114253541404
 30
0.0
  0
LINE
  5
D2
330
1F
100
AcDbEntity
  8
0
  6
HIDDEN
 62
     7
370
     0
100
AcDbLine
 10
214.6904619772
 20
145.7659852089
 30
0.0
 11
217.3653098185
 21
145.7659852089
 31
0.0
  0
LINE
  5
D3
330
1F
100
AcDbEntity
  8
0
  6
HIDDEN
 62
     7
370
     0
100
AcDbLine
 10
212.1153103549
 20
145.7659852089
 30
0.0
 11
214.6904619772
 21
145.7659852089
 31
0.0
  0
LINE
  5
D4
330
1F
100
AcDbEntity
  8
0
  6
HIDDEN
 62
     7
370
     0
100
AcDbLine
 10
214.6904619772
 20
145.0414252971
 30
0.0
 11
217.3653098185
 21
145.0414252971
 31
0.0
  0
LINE
  5
D5
330
1F
100
AcDbEntity
  8
0
  6
HIDDEN
 62
     7
370
     0
100
AcDbLine
 10
212.1153103549
 20
145.0414252971
 30
0.0
 11
214.6904619772
 21
145.0414252971
 31
0.0
  0
LINE
  5
D6
330
1F
100
AcDbEntity
  8
0
  6
HIDDEN
 62
     7
370
     0
100
AcDbLine
 10
214.7023307521
 20
142.2414251642
 30
0.0
 11
216.7403104145
 21
142.2414251642
 31
0.0
  0
LINE
  5
D7
330
1F
100
AcDbEntity
  8
0
  6
HIDDEN
 62
     7
370
     0
100
AcDbLine
 10
212.7403097589
 20
142.2414251642
 30
0.0
 11
214.7023307521
 21
142.2414251642
 31
0.0
  0
LINE
  5
D8
330
1F
100
AcDbEntity
  8
0
  6
HIDDEN
 62
     7
370
     0
100
AcDbLine
 10
214.7023307521
 20
137.1414249801
 30
0.0
 11
216.7403104145
 21
137.1414249801
 31
0.0
  0
LINE
  5
D9
330
1F
100
AcDbEntity
  8
0
  6
HIDDEN
 62
     7
370
     0
100
AcDbLine
 10
212.7403097589
 20
137.1414249801
 30
0.0
 11
214.7023307521
 21
137.1414249801
 31
0.0
  0
LINE
  5
DA
330
1F
100
AcDbEntity
  8
0
  6
HIDDEN
 62
     7
370
     0
100
AcDbLine
 10
214.7042306501
 20
137.04142515
 30
0.0
 11
216.6403087217
 21
137.04142515
 31
0.0
  0
LINE
  5
DB
330
1F
100
AcDbEntity
  8
0
  6
HIDDEN
 62
     7
370
     0
100
AcDbLine
 10
212.8403040011
 20
137.04142515
 30
0.0
 11
214.7042306501
 21
137.04142515
 31
0.0
  0
SPLINE
  5
DC
330
1F
100
AcDbEntity
  8
0
  6
HIDDEN
 62
     7
370
     0
100
AcDbSpline
210
0.0
220
0.0
230
1.0
 70
     8
 71
     3
 72
    11
 73
     7
 74
     0
 42
0.00000001
 43
0.00000001
 12
1.0
 22
0.0
 32
0.0
 13
1.0
 23
0.0
 33
0.0
 40
0.0
 40
0.0
 40
0.0
 40
0.0
 40
0.2423585358393012
 40
0.5166851909877179
 40
0.7923345361929774
 40
1.0
 40
1.0
 40
1.0
 40
1.0
 10
215.5856939394081
 20
146.0414253591929
 30
0.0
 10
215.6106870956876
 20
146.0404346801285
 30
0.0
 10
215.6639701116167
 20
146.0383226472273
 30
0.0
 10
215.7125709548582
 20
146.0292519927886
 30
0.0
 10
215.729206898524
 20
146.0169442269411
 30
0.0
 10
215.7161732692304
 20
146.006976327529
 30
0.0
 10
215.7105731207932
 20
146.0026934286483
 30
0.0
  0
LINE
  5
DD
330
1F
100
AcDbEntity
  8
0
  6
HIDDEN
 62
     7
370
     0
100
AcDbLine
 10
215.7231049974
 20
144.6414253946
 30
0.0
 11
215.1399704058
 21
144.6414253946
 31
0.0
  0
SPLINE
  5
DE
330
1F
100
AcDbEntity
  8
0
  6
HIDDEN
 62
     7
370
     0
100
AcDbSpline
210
0.0
220
0.0
230
1.0
 70
     8
 71
     3
 72
    11
 73
     7
 74
     0
 42
0.00000001
 43
0.00000001
 12
1.0
 22
0.0
 32
0.0
 13
1.0
 23
0.0
 33
0.0
 40
0.0
 40
0.0
 40
0.0
 40
0.0
 40
0.2802359889888647
 40
0.56129581302818
 40
0.8399855975253998
 40
1.0
 40
1.0
 40
1.0
 40
1.0
 10
215.1399704057777
 20
146.0028907962745
 30
0.0
 10
215.1680320238104
 20
146.0085912330199
 30
0.0
 10
215.224237755149
 20
146.0200088645996
 30
0.0
 10
215.3347816667861
 20
146.0324032895517
 30
0.0
 10
215.4341025528372
 20
146.0393148874347
 30
0.0
 10
215.4906571001216
 20
146.0408613114361
 30
0.0
 10
215.5112849909866
 20
146.0414253591929
 30
0.0
  0
SPLINE
  5
DF
330
1F
100
AcDbEntity
  8
0
  6
HIDDEN
 62
     7
370
     0
100
AcDbSpline
210
0.0
220
0.0
230
1.0
 70
     8
 71
     3
 72
    11
 73
     7
 74
     0
 42
0.00000001
 43
0.00000001
 12
1.0
 22
0.0
 32
0.0
 13
1.0
 23
0.0
 33
0.0
 40
0.0
 40
0.0
 40
0.0
 40
0.0
 40
0.0323240313497831
 40
0.4340226104078531
 40
0.8323730969599327
 40
1.0
 40
1.0
 40
1.0
 40
1.0
 10
213.7125732738579
 20
146.0182382501565
 30
0.0
 10
213.712111327854
 20
146.0186809085107
 30
0.0
 10
213.7059086667972
 20
146.0246245896162
 30
0.0
 10
213.7300894791942
 20
146.0325630059405
 30
0.0
 10
213.7743212459539
 20
146.0392688115426
 30
0.0
 10
213.813169058258
 20
146.040932592987
 30
0.0
 10
213.8246747095192
 20
146.0414253591929
 30
0.0
  0
LINE
  5
E0
330
1F
100
AcDbEntity
  8
0
  6
HIDDEN
 62
     7
370
     0
100
AcDbLine
 10
214.2860072095
 20
144.6414253946
 30
0.0
 11
213.7111651141
 21
144.6414253946
 31
0.0
  0
SPLINE
  5
E1
330
1F
100
AcDbEntity
  8
0
  6
HIDDEN
 62
     7
370
     0
100
AcDbSpline
210
0.0
220
0.0
230
1.0
 70
     8
 71
     3
 72
    11
 73
     7
 74
     0
 42
0.00000001
 43
0.00000001
 12
1.0
 22
0.0
 32
0.0
 13
1.0
 23
0.0
 33
0.0
 40
0.0
 40
0.0
 40
0.0
 40
0.0
 40
0.2657453236140456
 40
0.5529927991831477
 40
0.8418229756872421
 40
0.9999999999999999
 40
0.9999999999999999
 40
0.9999999999999999
 40
0.9999999999999999
 10
213.9272766549194
 20
146.0414253591929
 30
0.0
 10
213.9607690115385
 20
146.0401125302016
 30
0.0
 10
214.0304636792982
 20
146.0373806477781
 30
0.0
 10
214.1410881769343
 20
146.0272352279123
 30
0.0
 10
214.2287012623919
 20
146.015129227346
 30
0.0
 10
214.2710291518896
 20
146.0062547596233
 30
0.0
 10
214.2860072095001
 20
146.0031144592116
 30
0.0
  0
LINE
  5
E2
330
1F
100
AcDbEntity
  8
0
  6
HIDDEN
 62
     7
370
     0
100
AcDbLine
 10
215.1399704058
 20
144.6414253946
 30
0.0
 11
214.2860072095
 21
144.6414253946
 31
0.0
  0
SPLINE
  5
E3
330
1F
100
AcDbEntity
  8
0
  6
HIDDEN
 62
     7
370
     0
100
AcDbSpline
210
0.0
220
0.0
230
1.0
 70
     8
 71
     3
 72
    12
 73
     8
 74
     0
 42
0.00000001
 43
0.00000001
 12
1.0
 22
0.0
 32
0.0
 13
1.0
 23
0.0
 33
0.0
 40
0.0
 40
0.0
 40
0.0
 40
0.0
 40
0.2057885038992962
 40
0.4120370023219282
 40
0.6141333748284371
 40
0.8132623356289891
 40
1.0
 40
1.0
 40
1.0
 40
1.0
 10
214.2860072095001
 20
146.0031144592116
 30
0.0
 10
214.3360842069568
 20
145.9933442792167
 30
0.0
 10
214.4363501378827
 20
145.9737820801583
 30
0.0
 10
214.6298835955641
 20
145.9580284690138
 30
0.0
 10
214.8260573388178
 20
145.959122246712
 30
0.0
 10
215.0062942474719
 20
145.9756506539209
 30
0.0
 10
215.0963759478947
 20
145.9940072432639
 30
0.0
 10
215.1399704057777
 20
146.0028907962745
 30
0.0
  0
SPLINE
  5
E4
330
1F
100
AcDbEntity
  8
0
  6
HIDDEN
 62
     7
370
     0
100
AcDbSpline
210
0.0
220
0.0
230
1.0
 70
     8
 71
     3
 72
    10
 73
     6
 74
     0
 42
0.00000001
 43
0.00000001
 12
1.0
 22
0.0
 32
0.0
 13
1.0
 23
0.0
 33
0.0
 40
0.0
 40
0.0
 40
0.0
 40
0.0
 40
0.3351696039251743
 40
0.6709554789224066
 40
0.9999999999999999
 40
0.9999999999999999
 40
0.9999999999999999
 40
0.9999999999999999
 10
213.3135574299896
 20
146.0032130047815
 30
0.0
 10
213.3750244394071
 20
145.9935122935349
 30
0.0
 10
213.4980714766641
 20
145.9740930344967
 30
0.0
 10
213.6464017052525
 20
145.9574896711496
 30
0.0
 10
213.6995171010871
 20
145.9605467828937
 30
0.0
 10
213.725805504998
 20
145.9620598392697
 30
0.0
  0
SPLINE
  5
E5
330
1F
100
AcDbEntity
  8
0
  6
HIDDEN
 62
     7
370
     0
100
AcDbSpline
210
0.0
220
0.0
230
1.0
 70
     8
 71
     3
 72
     9
 73
     5
 74
     0
 42
0.00000001
 43
0.00000001
 12
1.0
 22
0.0
 32
0.0
 13
1.0
 23
0.0
 33
0.0
 40
0.0
 40
0.0
 40
0.0
 40
0.0
 40
0.0234068303236148
 40
1.0
 40
1.0
 40
1.0
 40
1.0
 10
213.7545423943604
 20
145.9779340579311
 30
0.0
 10
213.7547686351778
 20
145.9780547865706
 30
0.0
 10
213.7644342248518
 20
145.9832126245983
 30
0.0
 10
213.7455884841021
 20
145.9933312370119
 30
0.0
 10
213.7271838624085
 20
146.0032130047815
 30
0.0
  0
LINE
  5
E6
330
1F
100
AcDbEntity
  8
0
  6
HIDDEN
 62
     7
370
     0
100
AcDbLine
 10
215.7105731208
 20
146.0026934286
 30
0.0
 11
215.6934367854
 21
145.9804565742
 31
0.0
  0
SPLINE
  5
E7
330
1F
100
AcDbEntity
  8
0
  6
HIDDEN
 62
     7
370
     0
100
AcDbSpline
210
0.0
220
0.0
230
1.0
 70
     8
 71
     3
 72
    11
 73
     7
 74
     0
 42
0.00000001
 43
0.00000001
 12
1.0
 22
0.0
 32
0.0
 13
1.0
 23
0.0
 33
0.0
 40
0.0
 40
0.0
 40
0.0
 40
0.0
 40
0.2597090167842804
 40
0.5141862291468725
 40
0.7649290081251274
 40
1.0
 40
1.0
 40
1.0
 40
1.0
 10
215.6897040445412
 20
145.9756089529159
 30
0.0
 10
215.7000852345327
 20
145.9693620063879
 30
0.0
 10
215.7206384867911
 20
145.9569939572586
 30
0.0
 10
215.8301130521664
 20
145.9588390251757
 30
0.0
 10
215.9768494713345
 20
145.9751900866644
 30
0.0
 10
216.0941510847435
 20
145.9935739778112
 30
0.0
 10
216.150909884652
 20
146.0024694019133
 30
0.0
  0
LINE
  5
E8
330
1F
100
AcDbEntity
  8
0
  6
HIDDEN
 62
     7
370
     0
100
AcDbLine
 10
216.1509098847
 20
144.6414253946
 30
0.0
 11
215.7231049974
 21
144.6414253946
 31
0.0
  0
LINE
  5
E9
330
1F
100
AcDbEntity
  8
0
  6
HIDDEN
 62
     7
370
     0
100
AcDbLine
 10
213.7111651141
 20
144.6414253946
 30
0.0
 11
213.31355743
 21
144.6414253946
 31
0.0
  0
LINE
  5
EA
330
1F
100
AcDbEntity
  8
0
  6
HIDDEN
 62
     7
370
     0
100
AcDbLine
 10
216.4150627691
 20
144.6414253946
 30
0.0
 11
216.1509098847
 21
144.6414253946
 31
0.0
  0
LINE
  5
EB
330
1F
100
AcDbEntity
  8
0
  6
HIDDEN
 62
     7
370
     0
100
AcDbLine
 10
213.31355743
 20
144.6414253946
 30
0.0
 11
213.0611764628
 21
144.6414253946
 31
0.0
  0
SPLINE
  5
EC
330
1F
100
AcDbEntity
  8
0
  6
HIDDEN
 62
     7
370
     0
100
AcDbSpline
210
0.0
220
0.0
230
1.0
 70
     8
 71
     3
 72
    11
 73
     7
 74
     0
 42
0.00000001
 43
0.00000001
 12
1.0
 22
0.0
 32
0.0
 13
1.0
 23
0.0
 33
0.0
 40
0.0
 40
0.0
 40
0.0
 40
0.0
 40
0.2545097565912195
 40
0.5094795773229037
 40
0.7593219995181184
 40
0.9999999999999999
 40
0.9999999999999999
 40
0.9999999999999999
 40
0.9999999999999999
 10
216.1626892525757
 20
146.0023705653051
 30
0.0
 10
216.1009133367296
 20
145.9925889451778
 30
0.0
 10
215.9772498359053
 20
145.9730080231938
 30
0.0
 10
215.8334923505916
 20
145.9574957511425
 30
0.0
 10
215.7382163645701
 20
145.9579141613764
 30
0.0
 10
215.7271343311805
 20
145.9707669718252
 30
0.0
 10
215.7216968376244
 20
145.9770733121453
 30
0.0
  0
LINE
  5
ED
330
1F
100
AcDbEntity
  8
0
  6
HIDDEN
 62
     7
370
     0
100
AcDbLine
 10
215.7490628202
 20
146.0023705653
 30
0.0
 11
215.7636734087
 21
146.0174066082
 31
0.0
  0
SPLINE
  5
EE
330
1F
100
AcDbEntity
  8
0
  6
HIDDEN
 62
     7
370
     0
100
AcDbSpline
210
0.0
220
0.0
230
1.0
 70
     8
 71
     3
 72
     9
 73
     5
 74
     0
 42
0.00000001
 43
0.00000001
 12
1.0
 22
0.0
 32
0.0
 13
1.0
 23
0.0
 33
0.0
 40
0.0
 40
0.0
 40
0.0
 40
0.0
 40
0.0997689630922446
 40
0.9999999999999999
 40
0.9999999999999999
 40
0.9999999999999999
 40
0.9999999999999999
 10
213.7545423943604
 20
146.0162584911935
 30
0.0
 10
213.7540736791734
 20
146.015893639621
 30
0.0
 10
213.749375673176
 20
146.0122366749576
 30
0.0
 10
213.7579485454737
 20
146.0073183894957
 30
0.0
 10
213.7656661111916
 20
146.0028907962745
 30
0.0
  0
LINE
  5
EF
330
1F
100
AcDbEntity
  8
0
  6
HIDDEN
 62
     7
370
     0
100
AcDbLine
 10
214.8403080542
 20
145.6947391775
 30
0.0
 11
214.8403080542
 21
145.8220322597
 31
0.0
  0
SPLINE
  5
F0
330
1F
100
AcDbEntity
  8
0
  6
HIDDEN
 62
     7
370
     0
100
AcDbSpline
210
0.0
220
0.0
230
1.0
 70
    24
 71
     3
 72
     9
 73
     5
 74
     0
 42
0.00000001
 43
0.00000001
 12
1.0
 22
0.0
 32
0.0
 13
1.0
 23
0.0
 33
0.0
 40
0.0
 40
0.0
 40
0.0
 40
0.0
 40
0.3489761742368095
 40
1.0
 40
1.0
 40
1.0
 40
1.0
 10
214.8403080541695
 20
145.6282365174169
 30
0.0
 10
214.8403080541695
 20
145.6244680582422
 30
0.0
 10
214.8403080541695
 20
145.6136694437437
 30
0.0
 10
214.8403080541695
 20
145.6627721474451
 30
0.0
 10
214.8403080541695
 20
145.6947391774642
 30
0.0
  0
LINE
  5
F1
330
1F
100
AcDbEntity
  8
0
  6
HIDDEN
 62
     7
370
     0
100
AcDbLine
 10
215.6605722744
 20
145.6882322595
 30
0.0
 11
215.6714575727
 21
145.687835516
 31
0.0
  0
LINE
  5
F2
330
1F
100
AcDbEntity
  8
0
  6
HIDDEN
 62
     7
370
     0
100
AcDbLine
 10
216.2486391503
 20
145.0428972525
 30
0.0
 11
217.8903075296
 21
145.0428972525
 31
0.0
  0
LINE
  5
F3
330
1F
100
AcDbEntity
  8
0
  6
HIDDEN
 62
     7
370
     0
100
AcDbLine
 10
211.7903085787
 20
145.0428972525
 30
0.0
 11
216.2486391503
 21
145.0428972525
 31
0.0
  0
LINE
  5
F4
330
1F
100
AcDbEntity
  8
0
  6
HIDDEN
 62
     7
370
     0
100
AcDbLine
 10
222.2806292016
 20
145.2868626724
 30
0.0
 11
224.2880912859
 21
145.8220322597
 31
0.0
  0
SPLINE
  5
F5
330
1F
100
AcDbEntity
  8
0
  6
HIDDEN
 62
     7
370
     0
100
AcDbSpline
210
0.0
220
0.0
230
1.0
 70
     8
 71
     3
 72
    11
 73
     7
 74
     0
 42
0.00000001
 43
0.00000001
 12
1.0
 22
0.0
 32
0.0
 13
1.0
 23
0.0
 33
0.0
 40
0.0
 40
0.0
 40
0.0
 40
0.0
 40
0.4125631754624179
 40
0.8731489170277578
 40
0.9927034768351636
 40
1.0
 40
1.0
 40
1.0
 40
1.0
 10
207.3999869067276
 20
145.2868626724133
 30
0.0
 10
207.4978161811842
 20
145.2729946387619
 30
0.0
 10
207.7048621080284
 20
145.2436443251995
 30
0.0
 10
207.9364910457253
 20
145.3192338213368
 30
0.0
 10
208.0599673913828
 20
145.383080540242
 30
0.0
 10
208.0860345422325
 20
145.3980847613507
 30
0.0
 10
208.0875339347923
 20
145.3989478099296
 30
0.0
  0
SPLINE
  5
F6
330
1F
100
AcDbEntity
  8
0
  6
HIDDEN
 62
     7
370
     0
100
AcDbSpline
210
0.0
220
0.0
230
1.0
 70
     8
 71
     3
 72
    11
 73
     7
 74
     0
 42
0.00000001
 43
0.00000001
 12
1.0
 22
0.0
 32
0.0
 13
1.0
 23
0.0
 33
0.0
 40
0.0
 40
0.0
 40
0.0
 40
0.0
 40
0.007296520375546
 40
0.126851034480034
 40
0.5874265321205067
 40
1.0
 40
1.0
 40
1.0
 40
1.0
 10
221.5930821735466
 20
145.3989478099296
 30
0.0
 10
221.5945815660993
 20
145.3980847613267
 30
0.0
 10
221.6206487168248
 20
145.3830805397997
 30
0.0
 10
221.7441229756846
 20
145.3192350142111
 30
0.0
 10
221.9757511618328
 20
145.2436434391879
 30
0.0
 10
222.1827973625735
 20
145.27299412002
 30
0.0
 10
222.2806292016113
 20
145.2868626724133
 30
0.0
  0
LINE
  5
F7
330
1F
100
AcDbEntity
  8
0
  6
HIDDEN
 62
     7
370
     0
100
AcDbLine
 10
207.3999869067
 20
145.2868626724
 30
0.0
 11
205.3925248224
 21
145.8220322597
 31
0.0
  0
LINE
  5
F8
330
1F
100
AcDbEntity
  8
0
  6
HIDDEN
 62
     7
370
     0
100
AcDbLine
 10
220.300175472
 20
145.6882596753
 30
0.0
 11
220.3114258487
 21
145.687835516
 31
0.0
  0
SPLINE
  5
F9
330
1F
100
AcDbEntity
  8
0
  6
HIDDEN
 62
     7
370
     0
100
AcDbSpline
210
0.0
220
0.0
230
1.0
 70
    27
 71
     3
 72
    14
 73
    10
 74
     0
 42
0.00000001
 43
0.00000001
 12
1.0
 22
0.0
 32
0.0
 13
1.0
 23
0.0
 33
0.0
 40
0.0
 40
0.0
 40
0.0
 40
0.0
 40
0.1583022901920167
 40
0.3167884932694209
 40
0.4713679310064706
 40
0.6221215435568823
 40
0.7721301983573061
 40
0.9245864941255484
 40
1.0
 40
1.0
 40
1.0
 40
1.0
 10
223.9295693475807
 20
142.0714252666706
 30
0.0
 10
223.9392505357066
 20
142.0714252666706
 30
0.0
 10
223.9586241593967
 20
142.0714252666706
 30
0.0
 10
223.9775437996366
 20
142.0714252666706
 30
0.0
 10
223.9856910964786
 20
142.0714252666706
 30
0.0
 10
223.9821341512587
 20
142.0714252666706
 30
0.0
 10
223.9678085850886
 20
142.0714252666706
 30
0.0
 10
223.9485316790328
 20
142.0714252666706
 30
0.0
 10
223.9342844633121
 20
142.0714252666706
 30
0.0
 10
223.9295693475807
 20
142.0714252666706
 30
0.0
  0
LINE
  5
FA
330
1F
100
AcDbEntity
  8
0
  6
HIDDEN
 62
     7
370
     0
100
AcDbLine
 10
129.6380890895
 20
170.7001149693
 30
0.0
 11
139.2961565767
 21
170.7001149693
 31
0.0
  0
LINE
  5
FB
330
1F
100
AcDbEntity
  8
0
  6
HIDDEN
 62
     7
370
     0
100
AcDbLine
 10
139.2961565767
 20
138.2414249742
 30
0.0
 11
139.2961565767
 21
137.2414257416
 31
0.0
  0
LINE
  5
FC
330
1F
100
AcDbEntity
  8
0
  6
HIDDEN
 62
     7
370
     0
100
AcDbLine
 10
139.2961565767
 20
155.2414249667
 30
0.0
 11
139.2961565767
 21
154.2414257341
 31
0.0
  0
SPLINE
  5
FD
330
1F
100
AcDbEntity
  8
0
  6
HIDDEN
 62
     7
370
     0
100
AcDbSpline
210
0.0
220
0.0
230
1.0
 70
     8
 71
     3
 72
    12
 73
     8
 74
     0
 42
0.00000001
 43
0.00000001
 12
1.0
 22
0.0
 32
0.0
 13
1.0
 23
0.0
 33
0.0
 40
0.0
 40
0.0
 40
0.0
 40
0.0
 40
0.25
 40
0.25
 40
0.5
 40
0.5
 40
1.0
 40
1.0
 40
1.0
 40
1.0
 10
150.0380891162956
 20
170.7001150165079
 30
0.0
 10
150.1287547521456
 20
170.7001150165079
 30
0.0
 10
150.2191851578766
 20
170.6722535275088
 30
0.0
 10
150.3733596262915
 20
170.5774851120105
 30
0.0
 10
150.438443284619
 20
170.5112933115864
 30
0.0
 10
150.5916950609562
 20
170.2848698168398
 30
0.0
 10
150.6380891162956
 20
170.1042163301085
 30
0.0
 10
150.6380891162956
 20
169.9223776153988
 30
0.0
  0
LINE
  5
FE
330
1F
100
AcDbEntity
  8
0
  6
HIDDEN
 62
     7
370
     0
100
AcDbLine
 10
146.0800210375
 20
138.2414249742
 30
0.0
 11
146.0800210375
 21
137.2414257416
 31
0.0
  0
LINE
  5
FF
330
1F
100
AcDbEntity
  8
0
  6
HIDDEN
 62
     7
370
     0
100
AcDbLine
 10
146.0800210375
 20
170.7001149693
 30
0.0
 11
150.0380898256
 21
170.7001149693
 31
0.0
  0
SPLINE
  5
100
330
1F
100
AcDbEntity
  8
0
  6
HIDDEN
 62
     7
370
     0
100
AcDbSpline
210
0.0
220
0.0
230
1.0
 70
     8
 71
     3
 72
     8
 73
     4
 74
     0
 42
0.00000001
 43
0.00000001
 12
1.0
 22
0.0
 32
0.0
 13
1.0
 23
0.0
 33
0.0
 40
0.0
 40
0.0
 40
0.0
 40
0.0
 40
1.0
 40
1.0
 40
1.0
 40
1.0
 10
144.5980891162956
 20
167.2915690217238
 30
0.0
 10
145.0780411106605
 20
168.4341844626458
 30
0.0
 10
145.5733418396342
 20
169.5698719563769
 30
0.0
 10
146.0800219477847
 20
170.7001150165079
 30
0.0
  0
SPLINE
  5
101
330
1F
100
AcDbEntity
  8
0
  6
HIDDEN
 62
     7
370
     0
100
AcDbSpline
210
0.0
220
0.0
230
1.0
 70
     8
 71
     3
 72
     8
 73
     4
 74
     0
 42
0.00000001
 43
0.00000001
 12
1.0
 22
0.0
 32
0.0
 13
1.0
 23
0.0
 33
0.0
 40
0.0
 40
0.0
 40
0.0
 40
0.0
 40
1.0
 40
1.0
 40
1.0
 40
1.0
 10
139.2961562848066
 20
170.7001150165079
 30
0.0
 10
139.8028363929571
 20
169.5698719563769
 30
0.0
 10
140.2981371219307
 20
168.4341844626458
 30
0.0
 10
140.7780891162956
 20
167.2915690217238
 30
0.0
  0
LINE
  5
102
330
1F
100
AcDbEntity
  8
0
  6
HIDDEN
 62
     7
370
     0
100
AcDbLine
 10
144.5980893809
 20
138.2414249742
 30
0.0
 11
144.5980893809
 21
137.2414257416
 31
0.0
  0
LINE
  5
103
330
1F
100
AcDbEntity
  8
0
  6
HIDDEN
 62
     7
370
     0
100
AcDbLine
 10
140.7780891646
 20
155.2414249667
 30
0.0
 11
140.7780891646
 21
154.2414257341
 31
0.0
  0
LINE
  5
104
330
1F
100
AcDbEntity
  8
0
  6
HIDDEN
 62
     7
370
     0
100
AcDbLine
 10
144.5980893809
 20
155.2414249667
 30
0.0
 11
144.5980893809
 21
154.2414257341
 31
0.0
  0
LINE
  5
105
330
1F
100
AcDbEntity
  8
0
  6
HIDDEN
 62
     7
370
     0
100
AcDbLine
 10
140.7780891646
 20
138.2414249742
 30
0.0
 11
140.7780891646
 21
137.2414257416
 31
0.0
  0
SPLINE
  5
106
330
1F
100
AcDbEntity
  8
0
  6
HIDDEN
 62
     7
370
     0
100
AcDbSpline
210
0.0
220
0.0
230
1.0
 70
     8
 71
     3
 72
    10
 73
     6
 74
     0
 42
0.00000001
 43
0.00000001
 12
1.0
 22
0.0
 32
0.0
 13
1.0
 23
0.0
 33
0.0
 40
0.0
 40
0.0
 40
0.0
 40
0.0
 40
0.5
 40
0.5
 40
1.0
 40
1.0
 40
1.0
 40
1.0
 10
97.48808911629564
 20
155.9091278075504
 30
0.0
 10
96.90050356920506
 20
155.793848346557
 30
0.0
 10
96.30975717574466
 20
155.6985787927167
 30
0.0
 10
95.1257380104458
 20
155.5240405617728
 30
0.0
 10
94.53232402224035
 20
155.4456655859291
 30
0.0
 10
93.93808911629564
 20
155.3724921174588
 30
0.0
  0
SPLINE
  5
107
330
1F
100
AcDbEntity
  8
0
  6
HIDDEN
 62
     7
370
     0
100
AcDbSpline
210
0.0
220
0.0
230
1.0
 70
     8
 71
     3
 72
    18
 73
    14
 74
     0
 42
0.00000001
 43
0.00000001
 12
1.0
 22
0.0
 32
0.0
 13
1.0
 23
0.0
 33
0.0
 40
0.0
 40
0.0
 40
0.0
 40
0.0
 40
0.2500000000000003
 40
0.2500000000000003
 40
0.4999999999999999
 40
0.4999999999999999
 40
0.7499999999999996
 40
0.7499999999999996
 40
0.8749999999999993
 40
0.8749999999999993
 40
0.9374999999999997
 40
0.9374999999999997
 40
1.0
 40
1.0
 40
1.0
 40
1.0
 10
98.88808911629565
 20
153.5301746859518
 30
0.0
 10
98.88808911629566
 20
153.7795426630104
 30
0.0
 10
98.8522400163574
 20
154.0253512173892
 30
0.0
 10
98.72736828032347
 20
154.4974750411674
 30
0.0
 10
98.63696786267559
 20
154.7282036201188
 30
0.0
 10
98.41472520793342
 20
155.1617535491841
 30
0.0
 10
98.28496042148764
 20
155.3671513796289
 30
0.0
 10
98.04432296417615
 20
155.6494449014956
 30
0.0
 10
97.9565556660387
 20
155.7398244937602
 30
0.0
 10
97.80203157883189
 20
155.8474458986298
 30
0.0
 10
97.74542069277713
 20
155.8790204746041
 30
0.0
 10
97.62137666187053
 20
155.9171949167015
 30
0.0
 10
97.55366198685223
 20
155.921992666482
 30
0.0
 10
97.48808911629564
 20
155.9091278075504
 30
0.0
  0
SPLINE
  5
108
330
1F
100
AcDbEntity
  8
0
  6
HIDDEN
 62
     7
370
     0
100
AcDbSpline
210
0.0
220
0.0
230
1.0
 70
     8
 71
     3
 72
    18
 73
    14
 74
     0
 42
0.00000001
 43
0.00000001
 12
1.0
 22
0.0
 32
0.0
 13
1.0
 23
0.0
 33
0.0
 40
0.0
 40
0.0
 40
0.0
 40
0.0
 40
0.2499999999999996
 40
0.2499999999999996
 40
0.5
 40
0.5
 40
0.7500000000000003
 40
0.7500000000000003
 40
0.8750000000000007
 40
0.8750000000000007
 40
0.9375000000000003
 40
0.9375000000000003
 40
1.0
 40
1.0
 40
1.0
 40
1.0
 10
98.88808911629565
 20
138.9526760223291
 30
0.0
 10
98.88808911629565
 20
138.7033080452705
 30
0.0
 10
98.8522400163574
 20
138.4574994908917
 30
0.0
 10
98.72736828032349
 20
137.9853756671135
 30
0.0
 10
98.63696786267559
 20
137.754647088162
 30
0.0
 10
98.41472520793342
 20
137.3210971590968
 30
0.0
 10
98.28496042148765
 20
137.115699328652
 30
0.0
 10
98.04432296417615
 20
136.8334058067853
 30
0.0
 10
97.9565556660387
 20
136.7430262145207
 30
0.0
 10
97.80203157883187
 20
136.635404809651
 30
0.0
 10
97.74542069277712
 20
136.6038302336767
 30
0.0
 10
97.62137666187054
 20
136.5656557915794
 30
0.0
 10
97.55366198685223
 20
136.5608580417989
 30
0.0
 10
97.48808911629564
 20
136.5737229007305
 30
0.0
  0
SPLINE
  5
109
330
1F
100
AcDbEntity
  8
0
  6
HIDDEN
 62
     7
370
     0
100
AcDbSpline
210
0.0
220
0.0
230
1.0
 70
     8
 71
     3
 72
    10
 73
     6
 74
     0
 42
0.00000001
 43
0.00000001
 12
1.0
 22
0.0
 32
0.0
 13
1.0
 23
0.0
 33
0.0
 40
0.0
 40
0.0
 40
0.0
 40
0.0
 40
0.5
 40
0.5
 40
1.0
 40
1.0
 40
1.0
 40
1.0
 10
97.48808911629564
 20
136.5737229007305
 30
0.0
 10
96.90050356920506
 20
136.6890023617239
 30
0.0
 10
96.30975717574466
 20
136.7842719155642
 30
0.0
 10
95.1257380104458
 20
136.9588101465081
 30
0.0
 10
94.53232402224035
 20
137.0371851223518
 30
0.0
 10
93.93808911629564
 20
137.1103585908221
 30
0.0
  0
SPLINE
  5
10A
330
1F
100
AcDbEntity
  8
0
  6
HIDDEN
 62
     7
370
     0
100
AcDbSpline
210
0.0
220
0.0
230
1.0
 70
     8
 71
     3
 72
    41
 73
    37
 74
     0
 42
0.00000001
 43
0.00000001
 12
1.0
 22
0.0
 32
0.0
 13
1.0
 23
0.0
 33
0.0
 40
-0.0940863461924268
 40
-0.0625078247652152
 40
-0.0310258629075543
 40
0.0
 40
0.0310242906252945
 40
0.0622662226162681
 40
0.0934347433001396
 40
0.1242056137042264
 40
0.1548772054141126
 40
0.1861443571093866
 40
0.2173181888294382
 40
0.2483915620469009
 40
0.2795146377993596
 40
0.3110742610863739
 40
0.3427559922214088
 40
0.37406166043216
 40
0.3746570645539
 40
0.4058392842981873
 40
0.4375138685462118
 40
0.4690250607370177
 40
0.500090738002294
 40
0.5311420762716377
 40
0.5623306158594548
 40
0.5935237402318553
 40
0.6242029185742297
 40
0.6549461911190941
 40
0.6861285550369575
 40
0.7173886213035418
 40
0.7484274500363312
 40
0.7795640621806577
 40
0.8111862515316146
 40
0.8428533764674562
 40
0.8742383878601205
 40
0.8746487878253315
 40
0.905913653807573
 40
0.9374921752347847
 40
0.9689741370924456
 40
0.9999999999999999
 40
1.031024290625294
 40
1.062266222616268
 40
1.093434743300139
 10
112.1395803165661
 20
143.8436125688123
 30
0.0
 10
112.6636185170782
 20
143.1903822335126
 30
0.0
 10
113.3036944516588
 20
142.6528900213574
 30
0.0
 10
114.0407573255469
 20
142.255160305336
 30
0.0
 10
114.8375356487282
 20
142.0025763046364
 30
0.0
 10
115.6641925351435
 20
141.9190030038061
 30
0.0
 10
116.4900654443019
 20
142.0023274872111
 30
0.0
 10
117.2822869940778
 20
142.2528206352121
 30
0.0
 10
118.0151988622958
 20
142.647332999065
 30
0.0
 10
118.6528112653119
 20
143.1795654885224
 30
0.0
 10
119.1777726017091
 20
143.8285469696368
 30
0.0
 10
119.5667273209391
 20
144.5752879490908
 30
0.0
 10
119.8150670645687
 20
145.3836750704523
 30
0.0
 10
119.872106692606
 20
145.95184927749
 30
0.0
 10
119.8731444624751
 20
146.5139838385365
 30
0.0
 10
119.8179102333519
 20
147.0811815408317
 30
0.0
 10
119.5727942585226
 20
147.8888793070467
 30
0.0
 10
119.1879916156713
 20
148.6366005102194
 30
0.0
 10
118.6677989417378
 20
149.2879576464854
 30
0.0
 10
118.0338639809069
 20
149.8237106174107
 30
0.0
 10
117.303689863613
 20
150.2217824786568
 30
0.0
 10
116.5132076648183
 20
150.4759434370165
 30
0.0
 10
115.688729131238
 20
150.5636851239166
 30
0.0
 10
114.8616861306012
 20
150.4851053574281
 30
0.0
 10
114.0633833692542
 20
150.2372377914266
 30
0.0
 10
113.3234797844404
 20
149.8438431514884
 30
0.0
 10
112.6795208565653
 20
149.308895354462
 30
0.0
 10
112.1510041454068
 20
148.6561790583734
 30
0.0
 10
111.7605476326243
 20
147.9063213414351
 30
0.0
 10
111.5122886870574
 20
147.0955358003368
 30
0.0
 10
111.4560272945764
 20
146.5284144651281
 30
0.0
 10
111.4550566370342
 20
145.9664785049773
 30
0.0
 10
111.5092087345637
 20
145.4010403672
 30
0.0
 10
111.7535838024013
 20
144.5923408678316
 30
0.0
 10
112.1395803165661
 20
143.8436125688123
 30
0.0
 10
112.6636185170782
 20
143.1903822335126
 30
0.0
 10
113.3036944516588
 20
142.6528900213574
 30
0.0
  0
SPLINE
  5
10B
330
1F
100
AcDbEntity
  8
0
  6
HIDDEN
 62
     7
370
     0
100
AcDbSpline
210
0.0
220
0.0
230
1.0
 70
     8
 71
     3
 72
    10
 73
     6
 74
     0
 42
0.00000001
 43
0.00000001
 12
1.0
 22
0.0
 32
0.0
 13
1.0
 23
0.0
 33
0.0
 40
0.0
 40
0.0
 40
0.0
 40
0.0
 40
0.5
 40
0.5
 40
1.0
 40
1.0
 40
1.0
 40
1.0
 10
93.92804418587743
 20
137.0888258231764
 30
0.0
 10
93.86048493095917
 20
136.9429725426467
 30
0.0
 10
93.79684827562268
 20
136.7995859360198
 30
0.0
 10
93.68662752105084
 20
136.5122101331156
 30
0.0
 10
93.63981122782822
 20
136.3683515290418
 30
0.0
 10
93.61224276240014
 20
136.217853358024
 30
0.0
  0
SPLINE
  5
10C
330
1F
100
AcDbEntity
  8
0
  6
HIDDEN
 62
     7
370
     0
100
AcDbSpline
210
0.0
220
0.0
230
1.0
 70
     8
 71
     3
 72
    26
 73
    22
 74
     0
 42
0.00000001
 43
0.00000001
 12
1.0
 22
0.0
 32
0.0
 13
1.0
 23
0.0
 33
0.0
 40
0.0
 40
0.0
 40
0.0
 40
0.0
 40
0.2499999999999852
 40
0.2499999999999852
 40
0.3749999999999783
 40
0.3749999999999783
 40
0.4374999999999766
 40
0.4374999999999766
 40
0.468749999999977
 40
0.468749999999977
 40
0.4999999999999774
 40
0.4999999999999774
 40
0.5312499999999777
 40
0.5312499999999777
 40
0.5624999999999781
 40
0.5624999999999781
 40
0.6249999999999808
 40
0.6249999999999808
 40
0.7499999999999863
 40
0.7499999999999863
 40
1.0
 40
1.0
 40
1.0
 40
1.0
 10
93.61224276240016
 20
136.217853358024
 30
0.0
 10
93.57364223953168
 20
136.0071304178157
 30
0.0
 10
93.52734523697742
 20
135.8007359436554
 30
0.0
 10
93.4334058885435
 20
135.5115607422782
 30
0.0
 10
93.39809442163003
 20
135.4181597302087
 30
0.0
 10
93.3319144458844
 20
135.2930781462141
 30
0.0
 10
93.30737607921618
 20
135.2533184376812
 30
0.0
 10
93.26400333366236
 20
135.2039040393902
 30
0.0
 10
93.24849493223716
 20
135.1891700620018
 30
0.0
 10
93.21345228765016
 20
135.1663586777092
 30
0.0
 10
93.19390199693036
 20
135.1584863137952
 30
0.0
 10
93.1519747165598
 20
135.1584904913094
 30
0.0
 10
93.12932260632816
 20
135.1673534679667
 30
0.0
 10
93.08834889224154
 20
135.2023285863624
 30
0.0
 10
93.0707495923461
 20
135.2267534241388
 30
0.0
 10
93.02612260648993
 20
135.3050604614218
 30
0.0
 10
93.00556338383659
 20
135.3642805324176
 30
0.0
 10
92.95443794433992
 20
135.5391025129153
 30
0.0
 10
92.93352653135138
 20
135.6586187618144
 30
0.0
 10
92.88207662379041
 20
136.012276052259
 30
0.0
 10
92.86441132448587
 20
136.2455839004956
 30
0.0
 10
92.85075249101904
 20
136.4782983697829
 30
0.0
  0
SPLINE
  5
10D
330
1F
100
AcDbEntity
  8
0
  6
HIDDEN
 62
     7
370
     0
100
AcDbSpline
210
0.0
220
0.0
230
1.0
 70
     8
 71
     3
 72
    10
 73
     6
 74
     0
 42
0.00000001
 43
0.00000001
 12
1.0
 22
0.0
 32
0.0
 13
1.0
 23
0.0
 33
0.0
 40
0.0
 40
0.0
 40
0.0
 40
0.0
 40
0.5
 40
0.5
 40
1.0
 40
1.0
 40
1.0
 40
1.0
 10
92.85075249101904
 20
156.004552338498
 30
0.0
 10
92.8418482019103
 20
155.8528441476517
 30
0.0
 10
92.82533282171731
 20
155.6980399315871
 30
0.0
 10
92.7982248756557
 20
155.3834013666332
 30
0.0
 10
92.78808911629564
 20
155.2276473949148
 30
0.0
 10
92.78808911629564
 20
155.0742578863352
 30
0.0
  0
SPLINE
  5
10E
330
1F
100
AcDbEntity
  8
0
  6
HIDDEN
 62
     7
370
     0
100
AcDbSpline
210
0.0
220
0.0
230
1.0
 70
     8
 71
     3
 72
    26
 73
    22
 74
     0
 42
0.00000001
 43
0.00000001
 12
1.0
 22
0.0
 32
0.0
 13
1.0
 23
0.0
 33
0.0
 40
0.0
 40
0.0
 40
0.0
 40
0.0
 40
0.25
 40
0.25
 40
0.3749999999999994
 40
0.3749999999999994
 40
0.437500000000001
 40
0.437500000000001
 40
0.4687500000000001
 40
0.4687500000000001
 40
0.4999999999999991
 40
0.4999999999999991
 40
0.5312499999999981
 40
0.5312499999999981
 40
0.5624999999999971
 40
0.5624999999999971
 40
0.6249999999999971
 40
0.6249999999999971
 40
0.7499999999999971
 40
0.7499999999999971
 40
1.0
 40
1.0
 40
1.0
 40
1.0
 10
93.61224276240016
 20
156.2649973502569
 30
0.0
 10
93.57364223953168
 20
156.4757202904651
 30
0.0
 10
93.52734523697742
 20
156.6821147646255
 30
0.0
 10
93.43340588854349
 20
156.9712899660027
 30
0.0
 10
93.39809442163005
 20
157.0646909780722
 30
0.0
 10
93.3319144458844
 20
157.1897725620668
 30
0.0
 10
93.30737607921616
 20
157.2295322705996
 30
0.0
 10
93.26400333366234
 20
157.2789466688907
 30
0.0
 10
93.24849493223716
 20
157.2936806462791
 30
0.0
 10
93.21345228765014
 20
157.3164920305717
 30
0.0
 10
93.19390199693038
 20
157.3243643944857
 30
0.0
 10
93.1519747165598
 20
157.3243602169715
 30
0.0
 10
93.12932260632816
 20
157.3154972403142
 30
0.0
 10
93.08834889224154
 20
157.2805221219185
 30
0.0
 10
93.07074959234609
 20
157.256097284142
 30
0.0
 10
93.02612260648993
 20
157.1777902468591
 30
0.0
 10
93.00556338383659
 20
157.1185701758633
 30
0.0
 10
92.95443794433992
 20
156.9437481953656
 30
0.0
 10
92.93352653135138
 20
156.8242319464665
 30
0.0
 10
92.88207662379041
 20
156.4705746560219
 30
0.0
 10
92.86441132448589
 20
156.2372668077853
 30
0.0
 10
92.85075249101904
 20
156.004552338498
 30
0.0
  0
SPLINE
  5
10F
330
1F
100
AcDbEntity
  8
0
  6
HIDDEN
 62
     7
370
     0
100
AcDbSpline
210
0.0
220
0.0
230
1.0
 70
     8
 71
     3
 72
    10
 73
     6
 74
     0
 42
0.00000001
 43
0.00000001
 12
1.0
 22
0.0
 32
0.0
 13
1.0
 23
0.0
 33
0.0
 40
0.0
 40
0.0
 40
0.0
 40
0.0
 40
0.5
 40
0.5
 40
1.0
 40
1.0
 40
1.0
 40
1.0
 10
93.92804418587743
 20
155.3940248851045
 30
0.0
 10
93.86048493095919
 20
155.5398781656342
 30
0.0
 10
93.79684827562268
 20
155.6832647722611
 30
0.0
 10
93.68662752105084
 20
155.9706405751652
 30
0.0
 10
93.63981122782822
 20
156.1144991792391
 30
0.0
 10
93.61224276240014
 20
156.2649973502569
 30
0.0
  0
LINE
  5
110
330
1F
100
AcDbEntity
  8
0
  6
HIDDEN
 62
     7
370
     0
100
AcDbLine
 10
105.692064612
 20
146.2414253541
 30
0.0
 11
105.692064612
 21
163.241426278
 31
0.0
  0
LINE
  5
111
330
1F
100
AcDbEntity
  8
0
  6
HIDDEN
 62
     7
370
     0
100
AcDbLine
 10
105.692064612
 20
129.2414244303
 30
0.0
 11
105.692064612
 21
146.2414253541
 31
0.0
  0
LINE
  5
112
330
1F
100
AcDbEntity
  8
0
  6
HIDDEN
 62
     7
370
     0
100
AcDbLine
 10
132.3479150783
 20
146.2414253541
 30
0.0
 11
132.3479150783
 21
163.241426278
 31
0.0
  0
LINE
  5
113
330
1F
100
AcDbEntity
  8
0
  6
HIDDEN
 62
     7
370
     0
100
AcDbLine
 10
132.3479150783
 20
129.2414244303
 30
0.0
 11
132.3479150783
 21
146.2414253541
 31
0.0
  0
LINE
  5
114
330
1F
100
AcDbEntity
  8
0
  6
HIDDEN
 62
     7
370
     0
100
AcDbLine
 10
134.6380889777
 20
146.2414253541
 30
0.0
 11
134.6380889777
 21
161.9664251843
 31
0.0
  0
LINE
  5
115
330
1F
100
AcDbEntity
  8
0
  6
HIDDEN
 62
     7
370
     0
100
AcDbLine
 10
134.6380889777
 20
130.516425524
 30
0.0
 11
134.6380889777
 21
146.2414253541
 31
0.0
  0
LINE
  5
116
330
1F
100
AcDbEntity
  8
0
  6
HIDDEN
 62
     7
370
     0
100
AcDbLine
 10
93.9380882669
 20
129.2414244303
 30
0.0
 11
93.9380882669
 21
136.9670106136
 31
0.0
  0
LINE
  5
117
330
1F
100
AcDbEntity
  8
0
  6
HIDDEN
 62
     7
370
     0
100
AcDbLine
 10
93.9380882669
 20
155.5214541071
 30
0.0
 11
93.9380882669
 21
163.241426278
 31
0.0
  0
LINE
  5
118
330
1F
100
AcDbEntity
  8
0
  6
HIDDEN
 62
     7
370
     0
100
AcDbLine
 10
143.9880898584
 20
146.2414253541
 30
0.0
 11
143.9880898584
 21
155.7414250487
 31
0.0
  0
LINE
  5
119
330
1F
100
AcDbEntity
  8
0
  6
HIDDEN
 62
     7
370
     0
100
AcDbLine
 10
143.9880898584
 20
136.7414256596
 30
0.0
 11
143.9880898584
 21
146.2414253541
 31
0.0
  0
LINE
  5
11A
330
1F
100
AcDbEntity
  8
0
  6
HIDDEN
 62
     7
370
     0
100
AcDbLine
 10
146.4880893368
 20
146.2414253541
 30
0.0
 11
146.4880893368
 21
155.7414250487
 31
0.0
  0
LINE
  5
11B
330
1F
100
AcDbEntity
  8
0
  6
HIDDEN
 62
     7
370
     0
100
AcDbLine
 10
146.4880893368
 20
136.7414256596
 30
0.0
 11
146.4880893368
 21
146.2414253541
 31
0.0
  0
LINE
  5
11C
330
1F
100
AcDbEntity
  8
0
  6
HIDDEN
 62
     7
370
     0
100
AcDbLine
 10
135.1380890597
 20
146.2414253541
 30
0.0
 11
135.1380890597
 21
154.7414258161
 31
0.0
  0
LINE
  5
11D
330
1F
100
AcDbEntity
  8
0
  6
HIDDEN
 62
     7
370
     0
100
AcDbLine
 10
135.1380890597
 20
137.7414248922
 30
0.0
 11
135.1380890597
 21
146.2414253541
 31
0.0
  0
LINE
  5
11E
330
1F
100
AcDbEntity
  8
0
  6
HIDDEN
 62
     7
370
     0
100
AcDbLine
 10
131.6880893324
 20
119.8414254972
 30
0.0
 11
126.9880891673
 21
119.8414254972
 31
0.0
  0
LINE
  5
11F
330
1F
100
AcDbEntity
  8
0
  6
HIDDEN
 62
     7
370
     0
100
AcDbLine
 10
136.3880887989
 20
119.8414254972
 30
0.0
 11
131.6880893324
 21
119.8414254972
 31
0.0
  0
LINE
  5
120
330
1F
100
AcDbEntity
  8
0
  6
HIDDEN
 62
     7
370
     0
100
AcDbLine
 10
205.1910313208
 20
143.5414252841
 30
0.0
 11
214.5154552896
 21
143.5414252841
 31
0.0
  0
LINE
  5
121
330
1F
100
AcDbEntity
  8
0
  6
HIDDEN
 62
     7
370
     0
100
AcDbLine
 10
204.6224700648
 20
142.0714252667
 30
0.0
 11
214.3200116593
 21
142.0714252667
 31
0.0
  0
ARC
  5
122
330
1F
100
AcDbEntity
  8
0
  6
HIDDEN
 62
     7
370
     0
100
AcDbCircle
 10
158.6876248363
 20
154.1830362882
 30
0.0
 40
4.499703299738267
100
AcDbArc
 50
236.2556047491
 51
303.6375150877
  0
LINE
  5
123
330
1F
100
AcDbEntity
  8
0
  6
HIDDEN
 62
     7
370
     0
100
AcDbLine
 10
161.4880899329
 20
146.2414253541
 30
0.0
 11
161.4880899329
 21
150.4414252044
 31
0.0
  0
LINE
  5
124
330
1F
100
AcDbEntity
  8
0
  6
HIDDEN
 62
     7
370
     0
100
AcDbLine
 10
161.4880899329
 20
142.0414255039
 30
0.0
 11
161.4880899329
 21
146.2414253541
 31
0.0
  0
LINE
  5
125
330
1F
100
AcDbEntity
  8
0
  6
HIDDEN
 62
     7
370
     0
100
AcDbLine
 10
162.5095533568
 20
146.2414253541
 30
0.0
 11
162.5095533568
 21
148.7414252983
 31
0.0
  0
LINE
  5
126
330
1F
100
AcDbEntity
  8
0
  6
HIDDEN
 62
     7
370
     0
100
AcDbLine
 10
162.5095533568
 20
143.74142541
 30
0.0
 11
162.5095533568
 21
146.2414253541
 31
0.0
  0
LINE
  5
127
330
1F
100
AcDbEntity
  8
0
  6
HIDDEN
 62
     7
370
     0
100
AcDbLine
 10
155.6880886097
 20
165.2414247432
 30
0.0
 11
161.6880895931
 21
165.2414247432
 31
0.0
  0
LINE
  5
128
330
1F
100
AcDbEntity
  8
0
  6
HIDDEN
 62
     7
370
     0
100
AcDbLine
 10
156.1880896229
 20
164.9409949818
 30
0.0
 11
161.1880885799
 21
164.9409949818
 31
0.0
  0
LWPOLYLINE
  5
129
330
1F
100
AcDbEntity
  8
0
  6
HIDDEN
 62
     7
370
     0
100
AcDbPolyline
 90
        4
 70
   128
 43
0.0
 10
160.8706305165
 20
163.214797903
 10
161.0722059745
 20
163.3751381227
 10
161.1751245696
 20
163.4570032396
 10
161.1880885799
 20
163.4673148432
  0
LWPOLYLINE
  5
12A
330
1F
100
AcDbEntity
  8
0
  6
HIDDEN
 62
     7
370
     0
100
AcDbPolyline
 90
        9
 70
   128
 43
0.0
 10
160.8706305165
 20
163.214797903
 10
160.804216041
 20
162.9271253982
 10
160.719879194
 20
162.5618271568
 10
160.6211813528
 20
162.1343221554
 10
160.5122911174
 20
161.6626584941
 10
160.3977980454
 20
161.1667450556
 10
160.2825450141
 20
160.6675151774
 10
160.1713860769
 20
160.1860437581
 10
160.0690225501
 20
159.7426550501
  0
LWPOLYLINE
  5
12B
330
1F
100
AcDbEntity
  8
0
  6
HIDDEN
 62
     7
370
     0
100
AcDbPolyline
 90
        7
 70
   128
 43
0.0
 10
161.1880885799
 20
158.3357954436
 10
161.1780600984
 20
158.3484027573
 10
161.0983165342
 20
158.4486540445
 10
160.9413849551
 20
158.6459472814
 10
160.7122870524
 20
158.9339625129
 10
160.4183616478
 20
159.3034759202
 10
160.0690225501
 20
159.7426550501
  0
LINE
  5
12C
330
1F
100
AcDbEntity
  8
0
  6
HIDDEN
 62
     7
370
     0
100
AcDbLine
 10
173.4880881745
 20
148.7414252983
 30
0.0
 11
173.4880881745
 21
143.74142541
 31
0.0
  0
SPLINE
  5
12D
330
1F
100
AcDbEntity
  8
0
  6
HIDDEN
 62
     7
370
     0
100
AcDbSpline
210
0.0
220
0.0
230
1.0
 70
     8
 71
     3
 72
    16
 73
    12
 74
     0
 42
0.00000001
 43
0.00000001
 12
1.0
 22
0.0
 32
0.0
 13
1.0
 23
0.0
 33
0.0
 40
0.0
 40
0.0
 40
0.0
 40
0.0
 40
0.2499999999999995
 40
0.2499999999999995
 40
0.499999999999999
 40
0.499999999999999
 40
0.7499999999999984
 40
0.7499999999999984
 40
0.8749999999999992
 40
0.8749999999999992
 40
1.0
 40
1.0
 40
1.0
 40
1.0
 10
160.0690224345501
 20
159.7426548540634
 30
0.0
 10
160.0466285859495
 20
160.0567933677148
 30
0.0
 10
160.0412754878029
 20
160.3726301789463
 30
0.0
 10
160.0869005337212
 20
161.0098884966475
 30
0.0
 10
160.1382423347387
 20
161.3205102081635
 30
0.0
 10
160.2951816991382
 20
161.9217515362091
 30
0.0
 10
160.4013649753442
 20
162.2141118305379
 30
0.0
 10
160.5728491642797
 20
162.6146493565724
 30
0.0
 10
160.6322630677908
 20
162.7429097858397
 30
0.0
 10
160.7520282955335
 20
162.988367639055
 30
0.0
 10
160.8129101060453
 20
163.1065099501583
 30
0.0
 10
160.8706296302275
 20
163.2147970827916
 30
0.0
  0
LINE
  5
12E
330
1F
100
AcDbEntity
  8
0
  6
HIDDEN
 62
     7
370
     0
100
AcDbLine
 10
214.7403063614
 20
141.6214255654
 30
0.0
 11
216.3903044898
 21
141.6214255654
 31
0.0
  0
LINE
  5
12F
330
1F
100
AcDbEntity
  8
0
  6
HIDDEN
 62
     7
370
     0
100
AcDbLine
 10
213.090308233
 20
141.6214255654
 30
0.0
 11
214.7403063614
 21
141.6214255654
 31
0.0
  0
LINE
  5
130
330
1F
100
AcDbEntity
  8
0
  6
HIDDEN
 62
     7
370
     0
100
AcDbLine
 10
214.7403063614
 20
130.57142571
 30
0.0
 11
216.3903044898
 21
130.57142571
 31
0.0
  0
LINE
  5
131
330
1F
100
AcDbEntity
  8
0
  6
HIDDEN
 62
     7
370
     0
100
AcDbLine
 10
213.090308233
 20
130.57142571
 30
0.0
 11
214.7403063614
 21
130.57142571
 31
0.0
  0
LINE
  5
132
330
1F
100
AcDbEntity
  8
0
  6
HIDDEN
 62
     7
370
     0
100
AcDbLine
 10
205.177739485
 20
143.6414253471
 30
0.0
 11
204.5661436755
 21
145.9414253399
 31
0.0
  0
LINE
  5
133
330
1F
100
AcDbEntity
  8
0
  6
HIDDEN
 62
     7
370
     0
100
AcDbLine
 10
205.1910313208
 20
143.5414252841
 30
0.0
 11
205.177739485
 21
143.6414253471
 31
0.0
  0
LINE
  5
134
330
1F
100
AcDbEntity
  8
0
  6
HIDDEN
 62
     7
370
     0
100
AcDbLine
 10
205.1910313208
 20
143.5414252841
 30
0.0
 11
204.5528443892
 21
145.9414253399
 31
0.0
  0
LINE
  5
135
330
1F
100
AcDbEntity
  8
0
  6
HIDDEN
 62
     7
370
     0
100
AcDbLine
 10
204.6224700648
 20
143.6414253471
 30
0.0
 11
205.177739485
 21
143.6414253471
 31
0.0
  0
LINE
  5
136
330
1F
100
AcDbEntity
  8
0
  6
HIDDEN
 62
     7
370
     0
100
AcDbLine
 10
205.7768406708
 20
143.6414253471
 30
0.0
 11
205.177739485
 21
143.6414253471
 31
0.0
  0
LINE
  5
137
330
1F
100
AcDbEntity
  8
0
  6
HIDDEN
 62
     7
370
     0
100
AcDbLine
 10
203.9496528346
 20
143.6414253471
 30
0.0
 11
204.6224700648
 21
143.6414253471
 31
0.0
  0
LINE
  5
138
330
1F
100
AcDbEntity
  8
0
  6
HIDDEN
 62
     7
370
     0
100
AcDbLine
 10
203.9496528346
 20
142.0714252667
 30
0.0
 11
204.6224700648
 21
142.0714252667
 31
0.0
  0
LINE
  5
139
330
1F
100
AcDbEntity
  8
0
  6
HIDDEN
 62
     7
370
     0
100
AcDbLine
 10
207.8981327254
 20
142.0714252667
 30
0.0
 11
207.8981327254
 21
143.5414252841
 31
0.0
  0
LINE
  5
13A
330
1F
100
AcDbEntity
  8
0
  6
HIDDEN
 62
     7
370
     0
100
AcDbLine
 10
207.8848408897
 20
143.6414253471
 30
0.0
 11
207.8981327254
 21
143.5414252841
 31
0.0
  0
LINE
  5
13B
330
1F
100
AcDbEntity
  8
0
  6
HIDDEN
 62
     7
370
     0
100
AcDbLine
 10
207.8848408897
 20
145.9414253399
 30
0.0
 11
207.8848408897
 21
143.6414253471
 31
0.0
  0
LINE
  5
13C
330
1F
100
AcDbEntity
  8
0
  6
HIDDEN
 62
     7
370
     0
100
AcDbLine
 10
207.8848408897
 20
143.6414253471
 30
0.0
 11
205.7768406708
 21
143.6414253471
 31
0.0
  0
LINE
  5
13D
330
1F
100
AcDbEntity
  8
0
  6
HIDDEN
 62
     7
370
     0
100
AcDbLine
 10
98.8880882401
 20
141.3714255245
 30
0.0
 11
98.8880882401
 21
138.9526760244
 31
0.0
  0
LINE
  5
13E
330
1F
100
AcDbEntity
  8
0
  6
HIDDEN
 62
     7
370
     0
100
AcDbLine
 10
98.8880882401
 20
151.1114251838
 30
0.0
 11
98.8880882401
 21
153.5301746839
 31
0.0
  0
LINE
  5
13F
330
1F
100
AcDbEntity
  8
0
  6
HIDDEN
 62
     7
370
     0
100
AcDbLine
 10
136.8837098021
 20
166.0914260932
 30
0.0
 11
140.8042369772
 21
166.0914260932
 31
0.0
  0
ARC
  5
140
330
1F
100
AcDbEntity
  8
0
  6
HIDDEN
 62
     7
370
     0
100
AcDbCircle
 10
136.883709462
 20
174.0914253541
 30
0.0
 40
8.000000000000009
100
AcDbArc
 50
205.0819293509
 51
270.0
  0
LINE
  5
141
330
1F
100
AcDbEntity
  8
0
  6
HIDDEN
 62
     7
370
     0
100
AcDbLine
 10
144.5719415683
 20
166.0914260932
 30
0.0
 11
150.6380888064
 21
166.0914260932
 31
0.0
  0
LINE
  5
142
330
1F
100
AcDbEntity
  8
0
  6
HIDDEN
 62
     7
370
     0
100
AcDbLine
 10
146.0800210375
 20
155.2414249667
 30
0.0
 11
146.0800210375
 21
154.2414257341
 31
0.0
  0
LINE
  5
143
330
1F
100
AcDbEntity
  8
0
  6
HIDDEN
 62
     7
370
     0
100
AcDbLine
 10
141.1723869283
 20
154.2414257341
 30
0.0
 11
137.6380894695
 21
154.2414257341
 31
0.0
  0
LINE
  5
144
330
1F
100
AcDbEntity
  8
0
  6
HIDDEN
 62
     7
370
     0
100
AcDbLine
 10
144.2037916172
 20
138.2414249742
 30
0.0
 11
150.6380888064
 21
138.2414249742
 31
0.0
  0
LINE
  5
145
330
1F
100
AcDbEntity
  8
0
  6
HIDDEN
 62
     7
370
     0
100
AcDbLine
 10
137.6380894695
 20
138.2414249742
 30
0.0
 11
141.1723869283
 21
138.2414249742
 31
0.0
  0
ARC
  5
146
330
1F
100
AcDbEntity
  8
0
  6
HIDDEN
 62
     7
370
     0
100
AcDbCircle
 10
137.6380891163
 20
146.2414253541
 30
0.0
 40
8.000000000000028
100
AcDbArc
 50
90.0
 51
270.0
  0
LINE
  5
147
330
1F
100
AcDbEntity
  8
0
  6
HIDDEN
 62
     7
370
     0
100
AcDbLine
 10
150.6380888064
 20
154.2414257341
 30
0.0
 11
144.2037916172
 21
154.2414257341
 31
0.0
  0
LINE
  5
148
330
1F
100
AcDbEntity
  8
0
  6
HIDDEN
 62
     7
370
     0
100
AcDbLine
 10
158.2478883106
 20
169.5511627981
 30
0.0
 11
155.8880882699
 21
169.5511627981
 31
0.0
  0
LINE
  5
149
330
1F
100
AcDbEntity
  8
0
  6
HIDDEN
 62
     7
370
     0
100
AcDbLine
 10
161.4880899329
 20
169.5511627981
 30
0.0
 11
158.2478883106
 21
169.5511627981
 31
0.0
  0
LINE
  5
14A
330
1F
100
AcDbEntity
  8
0
  6
HIDDEN
 62
     7
370
     0
100
AcDbLine
 10
158.2164468605
 20
170.0614251235
 30
0.0
 11
155.6880886097
 21
170.0614251235
 31
0.0
  0
LINE
  5
14B
330
1F
100
AcDbEntity
  8
0
  6
HIDDEN
 62
     7
370
     0
100
AcDbLine
 10
161.6880895931
 20
170.0614251235
 30
0.0
 11
158.2164468605
 21
170.0614251235
 31
0.0
  0
LINE
  5
14C
330
1F
100
AcDbEntity
  8
0
  6
HIDDEN
 62
     7
370
     0
100
AcDbLine
 10
158.2478883106
 20
170.2411629298
 30
0.0
 11
155.8880882699
 21
170.2411629298
 31
0.0
  0
LINE
  5
14D
330
1F
100
AcDbEntity
  8
0
  6
HIDDEN
 62
     7
370
     0
100
AcDbLine
 10
161.4880899329
 20
170.2411629298
 30
0.0
 11
158.2478883106
 21
170.2411629298
 31
0.0
  0
LINE
  5
14E
330
1F
100
AcDbEntity
  8
0
  6
HIDDEN
 62
     7
370
     0
100
AcDbLine
 10
158.2164468605
 20
171.3014252522
 30
0.0
 11
155.6880886097
 21
171.3014252522
 31
0.0
  0
LINE
  5
14F
330
1F
100
AcDbEntity
  8
0
  6
HIDDEN
 62
     7
370
     0
100
AcDbLine
 10
161.6880895931
 20
171.3014252522
 30
0.0
 11
158.2164468605
 21
171.3014252522
 31
0.0
  0
LINE
  5
150
330
1F
100
AcDbEntity
  8
0
  6
HIDDEN
 62
     7
370
     0
100
AcDbLine
 10
158.2384558756
 20
171.4414253869
 30
0.0
 11
155.8280887444
 21
171.4414253869
 31
0.0
  0
LINE
  5
151
330
1F
100
AcDbEntity
  8
0
  6
HIDDEN
 62
     7
370
     0
100
AcDbLine
 10
161.5480894584
 20
171.4414253869
 30
0.0
 11
158.2384558756
 21
171.4414253869
 31
0.0
  0
LINE
  5
152
330
1F
100
AcDbEntity
  8
0
  6
HIDDEN
 62
     7
370
     0
100
AcDbLine
 10
158.2164468605
 20
168.68142486
 30
0.0
 11
155.6880886097
 21
168.68142486
 31
0.0
  0
LINE
  5
153
330
1F
100
AcDbEntity
  8
0
  6
HIDDEN
 62
     7
370
     0
100
AcDbLine
 10
161.6880895931
 20
168.68142486
 30
0.0
 11
158.2164468605
 21
168.68142486
 31
0.0
  0
LINE
  5
154
330
1F
100
AcDbEntity
  8
0
  6
HIDDEN
 62
     7
370
     0
100
AcDbLine
 10
158.2478883106
 20
168.8611626663
 30
0.0
 11
155.8880882699
 21
168.8611626663
 31
0.0
  0
LINE
  5
155
330
1F
100
AcDbEntity
  8
0
  6
HIDDEN
 62
     7
370
     0
100
AcDbLine
 10
161.4880899329
 20
168.8611626663
 30
0.0
 11
158.2478883106
 21
168.8611626663
 31
0.0
  0
LINE
  5
156
330
1F
100
AcDbEntity
  8
0
  6
HIDDEN
 62
     7
370
     0
100
AcDbLine
 10
158.2164468605
 20
170.7514252552
 30
0.0
 11
155.6880886097
 21
170.7514252552
 31
0.0
  0
LINE
  5
157
330
1F
100
AcDbEntity
  8
0
  6
HIDDEN
 62
     7
370
     0
100
AcDbLine
 10
161.6880895931
 20
170.7514252552
 30
0.0
 11
158.2164468605
 21
170.7514252552
 31
0.0
  0
LINE
  5
158
330
1F
100
AcDbEntity
  8
0
  6
HIDDEN
 62
     7
370
     0
100
AcDbLine
 10
158.2164468605
 20
169.3714249917
 30
0.0
 11
155.6880886097
 21
169.3714249917
 31
0.0
  0
LINE
  5
159
330
1F
100
AcDbEntity
  8
0
  6
HIDDEN
 62
     7
370
     0
100
AcDbLine
 10
161.6880895931
 20
169.3714249917
 30
0.0
 11
158.2164468605
 21
169.3714249917
 31
0.0
  0
LINE
  5
15A
330
1F
100
AcDbEntity
  8
0
  6
HIDDEN
 62
     7
370
     0
100
AcDbLine
 10
158.2478883106
 20
168.1711625346
 30
0.0
 11
155.8880882699
 21
168.1711625346
 31
0.0
  0
LINE
  5
15B
330
1F
100
AcDbEntity
  8
0
  6
HIDDEN
 62
     7
370
     0
100
AcDbLine
 10
161.4880899329
 20
168.1711625346
 30
0.0
 11
158.2478883106
 21
168.1711625346
 31
0.0
  0
LINE
  5
15C
330
1F
100
AcDbEntity
  8
0
  6
HIDDEN
 62
     7
370
     0
100
AcDbLine
 10
158.2164468605
 20
167.9914247283
 30
0.0
 11
155.6880886097
 21
167.9914247283
 31
0.0
  0
LINE
  5
15D
330
1F
100
AcDbEntity
  8
0
  6
HIDDEN
 62
     7
370
     0
100
AcDbLine
 10
161.6880895931
 20
167.9914247283
 30
0.0
 11
158.2164468605
 21
167.9914247283
 31
0.0
  0
LINE
  5
15E
330
1F
100
AcDbEntity
  8
0
  6
HIDDEN
 62
     7
370
     0
100
AcDbLine
 10
158.2164468605
 20
165.2414247432
 30
0.0
 11
155.6880886097
 21
165.2414247432
 31
0.0
  0
LINE
  5
15F
330
1F
100
AcDbEntity
  8
0
  6
HIDDEN
 62
     7
370
     0
100
AcDbLine
 10
161.6880895931
 20
165.2414247432
 30
0.0
 11
158.2164468605
 21
165.2414247432
 31
0.0
  0
LINE
  5
160
330
1F
100
AcDbEntity
  8
0
  6
HIDDEN
 62
     7
370
     0
100
AcDbLine
 10
158.2981350262
 20
164.9414252528
 30
0.0
 11
156.2077032764
 21
164.9414252528
 31
0.0
  0
LINE
  5
161
330
1F
100
AcDbEntity
  8
0
  6
HIDDEN
 62
     7
370
     0
100
AcDbLine
 10
161.1684749264
 20
164.9414252528
 30
0.0
 11
158.2981350262
 21
164.9414252528
 31
0.0
  0
LINE
  5
162
330
1F
100
AcDbEntity
  8
0
  6
HIDDEN
 62
     7
370
     0
100
AcDbLine
 10
158.2950542111
 20
166.5848016777
 30
0.0
 11
156.1880896229
 21
166.5848016777
 31
0.0
  0
LINE
  5
163
330
1F
100
AcDbEntity
  8
0
  6
HIDDEN
 62
     7
370
     0
100
AcDbLine
 10
161.1880885799
 20
166.5848016777
 30
0.0
 11
158.2950542111
 21
166.5848016777
 31
0.0
  0
ARC
  5
164
330
1F
100
AcDbEntity
  8
0
  6
HIDDEN
 62
     7
370
     0
100
AcDbCircle
 10
214.7403076288
 20
139.276811544
 30
0.0
 40
7.000000000000012
100
AcDbArc
 50
104.9005966878
 51
112.024312837
  0
ARC
  5
165
330
1F
100
AcDbEntity
  8
0
  6
HIDDEN
 62
     7
370
     0
100
AcDbCircle
 10
214.7403076288
 20
139.276811544
 30
0.0
 40
7.000000000000012
100
AcDbArc
 50
67.975687163
 51
75.0994033122
  0
LINE
  5
166
330
1F
100
AcDbEntity
  8
0
  6
HIDDEN
 62
     7
370
     0
100
AcDbLine
 10
212.1153103549
 20
145.7659852089
 30
0.0
 11
212.1153103549
 21
145.0414252971
 31
0.0
  0
LINE
  5
167
330
1F
100
AcDbEntity
  8
0
  6
HIDDEN
 62
     7
370
     0
100
AcDbLine
 10
217.3653098185
 20
145.0414252971
 30
0.0
 11
217.3653098185
 21
145.7659852089
 31
0.0
  0
LINE
  5
168
330
1F
100
AcDbEntity
  8
0
  6
HIDDEN
 62
     7
370
     0
100
AcDbLine
 10
212.1153103549
 20
145.0414252971
 30
0.0
 11
212.6627864678
 21
144.0931617321
 31
0.0
  0
LINE
  5
169
330
1F
100
AcDbEntity
  8
0
  6
HIDDEN
 62
     7
370
     0
100
AcDbLine
 10
216.817826255
 20
144.0931617321
 30
0.0
 11
217.3653098185
 21
145.0414252971
 31
0.0
  0
ARC
  5
16A
330
1F
100
AcDbEntity
  8
0
  6
HIDDEN
 62
     7
370
     0
100
AcDbCircle
 10
210.9307371446
 20
143.0931616178
 30
0.0
 40
2.000000000000016
100
AcDbArc
 50
334.7943742942
 51
30.0
  0
ARC
  5
16B
330
1F
100
AcDbEntity
  8
0
  6
HIDDEN
 62
     7
370
     0
100
AcDbCircle
 10
218.5498781129
 20
143.0931616178
 30
0.0
 40
2.000000000000001
100
AcDbArc
 50
150.0
 51
205.2056257058
  0
LINE
  5
16C
330
1F
100
AcDbEntity
  8
0
  6
HIDDEN
 62
     7
370
     0
100
AcDbLine
 10
212.7403097589
 20
142.2414251642
 30
0.0
 11
212.7403097589
 21
137.1414249801
 31
0.0
  0
LINE
  5
16D
330
1F
100
AcDbEntity
  8
0
  6
HIDDEN
 62
     7
370
     0
100
AcDbLine
 10
216.7403104145
 20
137.1414249801
 30
0.0
 11
216.7403104145
 21
142.2414251642
 31
0.0
  0
LINE
  5
16E
330
1F
100
AcDbEntity
  8
0
  6
HIDDEN
 62
     7
370
     0
100
AcDbLine
 10
212.7403097589
 20
137.1414249801
 30
0.0
 11
212.8403040011
 21
137.04142515
 31
0.0
  0
LINE
  5
16F
330
1F
100
AcDbEntity
  8
0
  6
HIDDEN
 62
     7
370
     0
100
AcDbLine
 10
216.6403087217
 20
137.04142515
 30
0.0
 11
216.7403104145
 21
137.1414249801
 31
0.0
  0
LINE
  5
170
330
1F
100
AcDbEntity
  8
0
  6
HIDDEN
 62
     7
370
     0
100
AcDbLine
 10
215.7231049974
 20
144.6414253946
 30
0.0
 11
215.7231049974
 21
146.0161093923
 31
0.0
  0
LINE
  5
171
330
1F
100
AcDbEntity
  8
0
  6
HIDDEN
 62
     7
370
     0
100
AcDbLine
 10
213.7111651141
 20
146.0182382502
 30
0.0
 11
213.7111651141
 21
144.6414253946
 31
0.0
  0
LINE
  5
172
330
1F
100
AcDbEntity
  8
0
  6
HIDDEN
 62
     7
370
     0
100
AcDbLine
 10
215.6886386115
 20
145.9804565742
 30
0.0
 11
215.6886386115
 21
144.6414253946
 31
0.0
  0
LINE
  5
173
330
1F
100
AcDbEntity
  8
0
  6
HIDDEN
 62
     7
370
     0
100
AcDbLine
 10
213.7552203972
 20
144.6414253946
 30
0.0
 11
213.7552203972
 21
145.9779340579
 31
0.0
  0
LINE
  5
174
330
1F
100
AcDbEntity
  8
0
  6
HIDDEN
 62
     7
370
     0
100
AcDbLine
 10
216.4150627691
 20
144.6414253946
 30
0.0
 11
216.4150627691
 21
146.0414253592
 31
0.0
  0
LINE
  5
175
330
1F
100
AcDbEntity
  8
0
  6
HIDDEN
 62
     7
370
     0
100
AcDbLine
 10
213.0611764628
 20
146.0414253592
 30
0.0
 11
213.0611764628
 21
144.6414253946
 31
0.0
  0
LINE
  5
176
330
1F
100
AcDbEntity
  8
0
  6
HIDDEN
 62
     7
370
     0
100
AcDbLine
 10
215.7210262854
 20
145.9770733121
 30
0.0
 11
215.7210262854
 21
144.6414253946
 31
0.0
  0
LINE
  5
177
330
1F
100
AcDbEntity
  8
0
  6
HIDDEN
 62
     7
370
     0
100
AcDbLine
 10
213.7876006205
 20
144.6414253946
 30
0.0
 11
213.7876006205
 21
145.9807144924
 31
0.0
  0
LINE
  5
178
330
1F
100
AcDbEntity
  8
0
  6
HIDDEN
 62
     7
370
     0
100
AcDbLine
 10
215.7650815684
 20
144.6414253946
 30
0.0
 11
215.7650815684
 21
146.0174066082
 31
0.0
  0
LINE
  5
179
330
1F
100
AcDbEntity
  8
0
  6
HIDDEN
 62
     7
370
     0
100
AcDbLine
 10
213.7531342346
 20
146.0162584912
 30
0.0
 11
213.7531342346
 21
144.6414253946
 31
0.0
  0
LINE
  5
17A
330
1F
100
AcDbEntity
  8
0
  6
HIDDEN
 62
     7
370
     0
100
AcDbLine
 10
209.3691902597
 20
145.687835516
 30
0.0
 11
214.0091585357
 21
145.687835516
 31
0.0
  0
SPLINE
  5
17B
330
1F
100
AcDbEntity
  8
0
  6
HIDDEN
 62
     7
370
     0
100
AcDbSpline
210
0.0
220
0.0
230
1.0
 70
     8
 71
     3
 72
     9
 73
     5
 74
     0
 42
0.00000001
 43
0.00000001
 12
1.0
 22
0.0
 32
0.0
 13
1.0
 23
0.0
 33
0.0
 40
0.0
 40
0.0
 40
0.0
 40
0.0
 40
0.6210113572507736
 40
1.0
 40
1.0
 40
1.0
 40
1.0
 10
214.0137257415855
 20
145.6791047743658
 30
0.0
 10
214.1774400614239
 20
145.6747418170293
 30
0.0
 10
214.4410653847402
 20
145.6677162493233
 30
0.0
 10
214.7281039002614
 20
145.6211368785415
 30
0.0
 10
214.8368882376755
 20
145.6034838260288
 30
0.0
  0
SPLINE
  5
17C
330
1F
100
AcDbEntity
  8
0
  6
HIDDEN
 62
     7
370
     0
100
AcDbSpline
210
0.0
220
0.0
230
1.0
 70
     8
 71
     3
 72
     9
 73
     5
 74
     0
 42
0.00000001
 43
0.00000001
 12
1.0
 22
0.0
 32
0.0
 13
1.0
 23
0.0
 33
0.0
 40
0.0
 40
0.0
 40
0.0
 40
0.0
 40
0.5722013043950708
 40
1.0
 40
1.0
 40
1.0
 40
1.0
 10
214.8427890975082
 20
145.6059839032727
 30
0.0
 10
215.0070109439602
 20
145.6300728113877
 30
0.0
 10
215.2940110699484
 20
145.6721714712998
 30
0.0
 10
215.5515776992543
 20
145.6737918227187
 30
0.0
 10
215.6617643673027
 20
145.6744850069421
 30
0.0
  0
LINE
  5
17D
330
1F
100
AcDbEntity
  8
0
  6
HIDDEN
 62
     7
370
     0
100
AcDbLine
 10
215.6714575727
 20
145.687835516
 30
0.0
 11
220.3114258487
 21
145.687835516
 31
0.0
  0
LINE
  5
17E
330
1F
100
AcDbEntity
  8
0
  6
HIDDEN
 62
     7
370
     0
100
AcDbLine
 10
211.7903085787
 20
146.0414253592
 30
0.0
 11
211.7903085787
 21
145.0428972525
 31
0.0
  0
LINE
  5
17F
330
1F
100
AcDbEntity
  8
0
  6
HIDDEN
 62
     7
370
     0
100
AcDbLine
 10
217.8903075296
 20
145.0428972525
 30
0.0
 11
217.8903075296
 21
146.0414253592
 31
0.0
  0
ARC
  5
180
330
1F
100
AcDbEntity
  8
0
  6
HIDDEN
 62
     7
370
     0
100
AcDbCircle
 10
211.7903076288
 20
144.1928972169
 30
0.0
 40
0.8499999999999943
100
AcDbArc
 50
0.0
 51
90.0
  0
ARC
  5
181
330
1F
100
AcDbEntity
  8
0
  6
HIDDEN
 62
     7
370
     0
100
AcDbCircle
 10
217.8903076288
 20
144.1928972169
 30
0.0
 40
0.8499999999999943
100
AcDbArc
 50
90.0
 51
180.0
  0
LINE
  5
182
330
1F
100
AcDbEntity
  8
0
  6
HIDDEN
 62
     7
370
     0
100
AcDbLine
 10
212.6403080661
 20
144.1928972994
 30
0.0
 11
212.6403080661
 21
142.0714252667
 31
0.0
  0
LINE
  5
183
330
1F
100
AcDbEntity
  8
0
  6
HIDDEN
 62
     7
370
     0
100
AcDbLine
 10
217.0403080422
 20
142.0714252667
 30
0.0
 11
217.0403080422
 21
144.1928972994
 31
0.0
  0
SPLINE
  5
184
330
1F
100
AcDbEntity
  8
0
  6
HIDDEN
 62
     7
370
     0
100
AcDbSpline
210
0.0
220
0.0
230
1.0
 70
     8
 71
     3
 72
    11
 73
     7
 74
     0
 42
0.00000001
 43
0.00000001
 12
1.0
 22
0.0
 32
0.0
 13
1.0
 23
0.0
 33
0.0
 40
0.0
 40
0.0
 40
0.0
 40
0.0
 40
0.100711415021693
 40
0.4056803304316043
 40
0.731310820854039
 40
1.0
 40
1.0
 40
1.0
 40
1.0
 10
208.1040965754593
 20
145.4007979404317
 30
0.0
 10
208.1287149687324
 20
145.4171934080264
 30
0.0
 10
208.2278814625757
 20
145.4832367528645
 30
0.0
 10
208.4786347980335
 20
145.5716536562178
 30
0.0
 10
208.8827120539824
 20
145.6634879959913
 30
0.0
 10
209.224759488754
 20
145.673525119865
 30
0.0
 10
209.3793975550736
 20
145.6780628572354
 30
0.0
  0
SPLINE
  5
185
330
1F
100
AcDbEntity
  8
0
  6
HIDDEN
 62
     7
370
     0
100
AcDbSpline
210
0.0
220
0.0
230
1.0
 70
     8
 71
     3
 72
    11
 73
     7
 74
     0
 42
0.00000001
 43
0.00000001
 12
1.0
 22
0.0
 32
0.0
 13
1.0
 23
0.0
 33
0.0
 40
0.0
 40
0.0
 40
0.0
 40
0.0
 40
0.224320551270574
 40
0.5236439742941165
 40
0.8334241793306466
 40
1.0
 40
1.0
 40
1.0
 40
1.0
 10
220.3000488121117
 20
145.6771875304306
 30
0.0
 10
220.4317262295425
 20
145.6745822868114
 30
0.0
 10
220.73910816935
 20
145.6685007213237
 30
0.0
 10
221.1344213053152
 20
145.5905020001255
 30
0.0
 10
221.4164224403008
 20
145.4990784747751
 30
0.0
 10
221.5424263857521
 20
145.4227810309039
 30
0.0
 10
221.5864884097183
 20
145.396100756819
 30
0.0
  0
LINE
  5
186
330
1F
100
AcDbEntity
  8
0
  6
HIDDEN
 62
     7
370
     0
100
AcDbLine
 10
209.2003377516
 20
146.0414253592
 30
0.0
 11
208.0875339348
 21
145.3989478099
 31
0.0
  0
LINE
  5
187
330
1F
100
AcDbEntity
  8
0
  6
HIDDEN
 62
     7
370
     0
100
AcDbLine
 10
221.5930821735
 20
145.3989478099
 30
0.0
 11
220.4802783568
 21
146.0414253592
 31
0.0
  0
SPLINE
  5
188
330
1F
100
AcDbEntity
  8
0
  6
HIDDEN
 62
     7
370
     0
100
AcDbSpline
210
0.0
220
0.0
230
1.0
 70
     8
 71
     3
 72
     9
 73
     5
 74
     0
 42
0.00000001
 43
0.00000001
 12
1.0
 22
0.0
 32
0.0
 13
1.0
 23
0.0
 33
0.0
 40
0.0
 40
0.0
 40
0.0
 40
0.0
 40
0.4843438443497684
 40
1.0
 40
1.0
 40
1.0
 40
1.0
 10
205.0000431377495
 20
145.9414253398912
 30
0.0
 10
205.1096715376686
 20
145.3098651610082
 30
0.0
 10
205.3360156962619
 20
144.0059151134324
 30
0.0
 10
205.5804242570313
 20
142.7052286111332
 30
0.0
 10
205.7064550358856
 20
142.0345216096515
 30
0.0
  0
LINE
  5
189
330
1F
100
AcDbEntity
  8
0
  6
HIDDEN
 62
     7
370
     0
100
AcDbLine
 10
205.0125228602
 20
146.0414253592
 30
0.0
 11
205.3925248224
 21
145.8220322597
 31
0.0
  0
LINE
  5
18A
330
1F
100
AcDbEntity
  8
0
  6
HIDDEN
 62
     7
370
     0
100
AcDbLine
 10
224.2880912859
 20
145.8220322597
 30
0.0
 11
224.6680857975
 21
146.0414253592
 31
0.0
  0
LINE
  5
18B
330
1F
100
AcDbEntity
  8
0
  6
HIDDEN
 62
     7
370
     0
100
AcDbLine
 10
124.6880891163
 20
120.9175016769
 30
0.0
 11
124.7822499541
 21
121.5874914118
 31
0.0
  0
LINE
  5
18C
330
1F
100
AcDbEntity
  8
0
  6
HIDDEN
 62
     7
370
     0
100
AcDbLine
 10
124.7822499541
 20
170.8953592965
 30
0.0
 11
124.6880891163
 21
171.5653490313
 31
0.0
  0
ARC
  5
18D
330
1F
100
AcDbEntity
  8
0
  6
HIDDEN
 62
     7
370
     0
100
AcDbCircle
 10
124.1880891163
 20
121.6709944924
 30
0.0
 40
0.5999999999999992
100
AcDbArc
 50
352.0
 51
0.0
  0
ARC
  5
18E
330
1F
100
AcDbEntity
  8
0
  6
HIDDEN
 62
     7
370
     0
100
AcDbCircle
 10
124.1880891163
 20
121.6709944924
 30
0.0
 40
0.5999999999999943
100
AcDbArc
 50
0.0
 51
33.5573097619
  0
ARC
  5
18F
330
1F
100
AcDbEntity
  8
0
  6
HIDDEN
 62
     7
370
     0
100
AcDbCircle
 10
124.1880891163
 20
170.8118562159
 30
0.0
 40
0.6000000000000031
100
AcDbArc
 50
348.75
 51
8.0
  0
LWPOLYLINE
  5
190
330
1F
100
AcDbEntity
  8
0
  6
HIDDEN
 62
     7
370
     0
100
AcDbPolyline
 90
        3
 70
   128
 43
0.0
 10
124.7765602862
 20
170.6948027053
 10
124.7424168364
 20
170.5822467842
 10
124.6880891163
 20
170.4801943191
  0
LINE
  5
191
330
1F
100
AcDbEntity
  8
0
  6
HIDDEN
 62
     7
370
     0
100
AcDbLine
 10
124.7880891138
 20
121.6709937939
 30
0.0
 11
124.7880891138
 21
170.8118569144
 31
0.0
  0
ARC
  5
192
330
1F
100
AcDbEntity
  8
0
  6
HIDDEN
 62
     7
370
     0
100
AcDbCircle
 10
118.4430911179
 20
134.2414253541
 30
0.0
 40
7.999999999999975
100
AcDbArc
 50
270.0
 51
321.3178125465
  0
ARC
  5
193
330
1F
100
AcDbEntity
  8
0
  6
HIDDEN
 62
     7
370
     0
100
AcDbCircle
 10
118.4430911179
 20
158.2414253541
 30
0.0
 40
7.999999999999975
100
AcDbArc
 50
38.6821874535
 51
90.0
  0
ARC
  5
194
330
1F
100
AcDbEntity
  8
0
  6
HIDDEN
 62
     7
370
     0
100
AcDbCircle
 10
107.7705246816
 20
126.8414253541
 30
0.0
 40
0.599999999999989
100
AcDbArc
 50
210.0
 51
270.0
  0
ARC
  5
195
330
1F
100
AcDbEntity
  8
0
  6
HIDDEN
 62
     7
370
     0
100
AcDbCircle
 10
107.7705246816
 20
165.6414253541
 30
0.0
 40
0.6000000000000032
100
AcDbArc
 50
90.0
 51
150.0
  0
LINE
  5
196
330
1F
100
AcDbEntity
  8
0
  6
HIDDEN
 62
     7
370
     0
100
AcDbLine
 10
107.7705251414
 20
126.2414258012
 30
0.0
 11
118.4430911567
 21
126.2414258012
 31
0.0
  0
LINE
  5
197
330
1F
100
AcDbEntity
  8
0
  6
HIDDEN
 62
     7
370
     0
100
AcDbLine
 10
118.4430911567
 20
166.2414249071
 30
0.0
 11
107.7705251414
 21
166.2414249071
 31
0.0
  0
LINE
  5
198
330
1F
100
AcDbEntity
  8
0
  6
HIDDEN
 62
     7
370
     0
100
AcDbLine
 10
107.2509086121
 20
165.9414254167
 30
0.0
 11
105.692064612
 21
163.241426278
 31
0.0
  0
LINE
  5
199
330
1F
100
AcDbEntity
  8
0
  6
HIDDEN
 62
     7
370
     0
100
AcDbLine
 10
105.692064612
 20
129.2414244303
 30
0.0
 11
107.2509086121
 21
126.5414252916
 31
0.0
  0
ARC
  5
19A
330
1F
100
AcDbEntity
  8
0
  6
HIDDEN
 62
     7
370
     0
100
AcDbCircle
 10
133.1380891163
 20
130.5164253541
 30
0.0
 40
1.500000000000016
100
AcDbArc
 50
238.2116693829
 51
0.0
  0
ARC
  5
19B
330
1F
100
AcDbEntity
  8
0
  6
HIDDEN
 62
     7
370
     0
100
AcDbCircle
 10
133.1380891163
 20
161.9664253541
 30
0.0
 40
1.500000000000016
100
AcDbArc
 50
0.0
 51
121.7883306171
  0
LINE
  5
19C
330
1F
100
AcDbEntity
  8
0
  6
HIDDEN
 62
     7
370
     0
100
AcDbLine
 10
93.9380882669
 20
129.2414244303
 30
0.0
 11
105.692064612
 21
129.2414244303
 31
0.0
  0
LINE
  5
19D
330
1F
100
AcDbEntity
  8
0
  6
HIDDEN
 62
     7
370
     0
100
AcDbLine
 10
105.692064612
 20
163.241426278
 30
0.0
 11
93.9380882669
 21
163.241426278
 31
0.0
  0
LINE
  5
19E
330
1F
100
AcDbEntity
  8
0
  6
HIDDEN
 62
     7
370
     0
100
AcDbLine
 10
124.6880891163
 20
129.2414244303
 30
0.0
 11
132.3479150783
 21
129.2414244303
 31
0.0
  0
LINE
  5
19F
330
1F
100
AcDbEntity
  8
0
  6
HIDDEN
 62
     7
370
     0
100
AcDbLine
 10
132.3479150783
 20
163.241426278
 30
0.0
 11
124.6880891163
 21
163.241426278
 31
0.0
  0
LINE
  5
1A0
330
1F
100
AcDbEntity
  8
0
  6
HIDDEN
 62
     7
370
     0
100
AcDbLine
 10
93.9380882669
 20
163.241426278
 30
0.0
 11
92.7880892891
 21
163.9053773173
 31
0.0
  0
LINE
  5
1A1
330
1F
100
AcDbEntity
  8
0
  6
HIDDEN
 62
     7
370
     0
100
AcDbLine
 10
92.7880892891
 20
128.577473391
 30
0.0
 11
93.9380882669
 21
129.2414244303
 31
0.0
  0
LINE
  5
1A2
330
1F
100
AcDbEntity
  8
0
  6
HIDDEN
 62
     7
370
     0
100
AcDbLine
 10
143.9880898584
 20
136.7414256596
 30
0.0
 11
146.4880893368
 21
136.7414256596
 31
0.0
  0
LINE
  5
1A3
330
1F
100
AcDbEntity
  8
0
  6
HIDDEN
 62
     7
370
     0
100
AcDbLine
 10
146.4880893368
 20
155.7414250487
 30
0.0
 11
143.9880898584
 21
155.7414250487
 31
0.0
  0
LINE
  5
1A4
330
1F
100
AcDbEntity
  8
0
  6
HIDDEN
 62
     7
370
     0
100
AcDbLine
 10
134.6380889777
 20
137.2414257416
 30
0.0
 11
135.1380890597
 21
137.7414248922
 31
0.0
  0
LINE
  5
1A5
330
1F
100
AcDbEntity
  8
0
  6
HIDDEN
 62
     7
370
     0
100
AcDbLine
 10
135.1380890597
 20
154.7414258161
 30
0.0
 11
134.6380889777
 21
155.2414249667
 31
0.0
  0
LINE
  5
1A6
330
1F
100
AcDbEntity
  8
0
  6
HIDDEN
 62
     7
370
     0
100
AcDbLine
 10
135.1380890597
 20
137.7414248922
 30
0.0
 11
143.9880898584
 21
137.7414248922
 31
0.0
  0
LINE
  5
1A7
330
1F
100
AcDbEntity
  8
0
  6
HIDDEN
 62
     7
370
     0
100
AcDbLine
 10
143.9880898584
 20
154.7414258161
 30
0.0
 11
135.1380890597
 21
154.7414258161
 31
0.0
  0
ARC
  5
1A8
330
1F
100
AcDbEntity
  8
0
  6
HIDDEN
 62
     7
370
     0
100
AcDbCircle
 10
126.9880891163
 20
119.5414253541
 30
0.0
 40
0.3000000000000114
100
AcDbArc
 50
90.0
 51
180.0
  0
ARC
  5
1A9
330
1F
100
AcDbEntity
  8
0
  6
HIDDEN
 62
     7
370
     0
100
AcDbCircle
 10
136.3880891163
 20
119.5414253541
 30
0.0
 40
0.3000000000000114
100
AcDbArc
 50
0.0
 51
90.0
  0
LINE
  5
1AA
330
1F
100
AcDbEntity
  8
0
  6
HIDDEN
 62
     7
370
     0
100
AcDbLine
 10
126.6880892113
 20
119.5414260068
 30
0.0
 11
126.6880892113
 21
114.7414248475
 31
0.0
  0
LINE
  5
1AB
330
1F
100
AcDbEntity
  8
0
  6
HIDDEN
 62
     7
370
     0
100
AcDbLine
 10
136.6880892206
 20
114.7414248475
 30
0.0
 11
136.6880892206
 21
119.5414260068
 31
0.0
  0
LINE
  5
1AC
330
1F
100
AcDbEntity
  8
0
  6
HIDDEN
 62
     7
370
     0
100
AcDbLine
 10
146.4880893368
 20
142.0414255039
 30
0.0
 11
161.4880899329
 21
142.0414255039
 31
0.0
  0
LINE
  5
1AD
330
1F
100
AcDbEntity
  8
0
  6
HIDDEN
 62
     7
370
     0
100
AcDbLine
 10
156.1880896229
 20
150.4414252044
 30
0.0
 11
146.4880893368
 21
150.4414252044
 31
0.0
  0
LINE
  5
1AE
330
1F
100
AcDbEntity
  8
0
  6
HIDDEN
 62
     7
370
     0
100
AcDbLine
 10
161.4880899329
 20
150.4414252044
 30
0.0
 11
161.1801760633
 21
150.4414252044
 31
0.0
  0
LINE
  5
1AF
330
1F
100
AcDbEntity
  8
0
  6
HIDDEN
 62
     7
370
     0
100
AcDbLine
 10
161.4880899329
 20
142.0414255039
 30
0.0
 11
162.5095533568
 21
143.74142541
 31
0.0
  0
LINE
  5
1B0
330
1F
100
AcDbEntity
  8
0
  6
HIDDEN
 62
     7
370
     0
100
AcDbLine
 10
162.5095533568
 20
148.7414252983
 30
0.0
 11
161.4880899329
 21
150.4414252044
 31
0.0
  0
LINE
  5
1B1
330
1F
100
AcDbEntity
  8
0
  6
HIDDEN
 62
     7
370
     0
100
AcDbLine
 10
155.6880886097
 20
172.2414258906
 30
0.0
 11
155.6880886097
 21
165.2414247432
 31
0.0
  0
LINE
  5
1B2
330
1F
100
AcDbEntity
  8
0
  6
HIDDEN
 62
     7
370
     0
100
AcDbLine
 10
161.6880895931
 20
165.2414247432
 30
0.0
 11
161.6880895931
 21
172.2414258906
 31
0.0
  0
LINE
  5
1B3
330
1F
100
AcDbEntity
  8
0
  6
HIDDEN
 62
     7
370
     0
100
AcDbLine
 10
155.6880886097
 20
165.2414247432
 30
0.0
 11
156.1880896229
 21
164.9409949818
 31
0.0
  0
LINE
  5
1B4
330
1F
100
AcDbEntity
  8
0
  6
HIDDEN
 62
     7
370
     0
100
AcDbLine
 10
161.1880885799
 20
164.9409949818
 30
0.0
 11
161.6880895931
 21
165.2414247432
 31
0.0
  0
LINE
  5
1B5
330
1F
100
AcDbEntity
  8
0
  6
HIDDEN
 62
     7
370
     0
100
AcDbLine
 10
172.7044547338
 20
160.8085537368
 30
0.0
 11
161.1880885799
 21
163.4673148432
 31
0.0
  0
LINE
  5
1B6
330
1F
100
AcDbEntity
  8
0
  6
HIDDEN
 62
     7
370
     0
100
AcDbLine
 10
161.1880885799
 20
158.3357954436
 30
0.0
 11
174.1701068718
 21
155.3386597001
 31
0.0
  0
LINE
  5
1B7
330
1F
100
AcDbEntity
  8
0
  6
HIDDEN
 62
     7
370
     0
100
AcDbLine
 10
173.4880881745
 20
143.74142541
 30
0.0
 11
174.9902407069
 21
146.2414253541
 31
0.0
  0
LINE
  5
1B8
330
1F
100
AcDbEntity
  8
0
  6
HIDDEN
 62
     7
370
     0
100
AcDbLine
 10
174.9902407069
 20
146.2414253541
 30
0.0
 11
173.4880881745
 21
148.7414252983
 31
0.0
  0
LINE
  5
1B9
330
1F
100
AcDbEntity
  8
0
  6
HIDDEN
 62
     7
370
     0
100
AcDbLine
 10
156.1880896229
 20
164.9409949818
 30
0.0
 11
156.1880896229
 21
150.4414252044
 31
0.0
  0
LINE
  5
1BA
330
1F
100
AcDbEntity
  8
0
  6
HIDDEN
 62
     7
370
     0
100
AcDbLine
 10
161.1880885799
 20
163.4673148432
 30
0.0
 11
161.1880885799
 21
164.9409949818
 31
0.0
  0
LINE
  5
1BB
330
1F
100
AcDbEntity
  8
0
  6
HIDDEN
 62
     7
370
     0
100
AcDbLine
 10
161.1880885799
 20
150.4368179516
 30
0.0
 11
161.1880885799
 21
158.3357954436
 31
0.0
  0
LINE
  5
1BC
330
1F
100
AcDbEntity
  8
0
  6
HIDDEN
 62
     7
370
     0
100
AcDbLine
 10
162.5095533568
 20
143.74142541
 30
0.0
 11
173.4880881745
 21
143.74142541
 31
0.0
  0
LINE
  5
1BD
330
1F
100
AcDbEntity
  8
0
  6
HIDDEN
 62
     7
370
     0
100
AcDbLine
 10
173.4880881745
 20
148.7414252983
 30
0.0
 11
162.5095533568
 21
148.7414252983
 31
0.0
  0
LINE
  5
1BE
330
1F
100
AcDbEntity
  8
0
  6
HIDDEN
 62
     7
370
     0
100
AcDbLine
 10
212.6403080661
 20
142.0714252667
 30
0.0
 11
213.090308233
 21
141.6214255654
 31
0.0
  0
LINE
  5
1BF
330
1F
100
AcDbEntity
  8
0
  6
HIDDEN
 62
     7
370
     0
100
AcDbLine
 10
216.3903044898
 20
141.6214255654
 30
0.0
 11
216.8403046567
 21
142.0714252667
 31
0.0
  0
LINE
  5
1C0
330
1F
100
AcDbEntity
  8
0
  6
HIDDEN
 62
     7
370
     0
100
AcDbLine
 10
213.090308233
 20
141.6214255654
 30
0.0
 11
213.090308233
 21
130.57142571
 31
0.0
  0
LINE
  5
1C1
330
1F
100
AcDbEntity
  8
0
  6
HIDDEN
 62
     7
370
     0
100
AcDbLine
 10
216.3903044898
 20
130.57142571
 30
0.0
 11
216.3903044898
 21
141.6214255654
 31
0.0
  0
LINE
  5
1C2
330
1F
100
AcDbEntity
  8
0
  6
HIDDEN
 62
     7
370
     0
100
AcDbLine
 10
213.090308233
 20
130.57142571
 30
0.0
 11
214.7403063614
 21
129.5800048896
 31
0.0
  0
LINE
  5
1C3
330
1F
100
AcDbEntity
  8
0
  6
HIDDEN
 62
     7
370
     0
100
AcDbLine
 10
214.7403063614
 20
129.5800048896
 30
0.0
 11
216.3903044898
 21
130.57142571
 31
0.0
  0
LINE
  5
1C4
330
1F
100
AcDbEntity
  8
0
  6
HIDDEN
 62
     7
370
     0
100
AcDbLine
 10
203.6672534782
 20
145.9414253399
 30
0.0
 11
203.9496528346
 21
143.6414253471
 31
0.0
  0
LINE
  5
1C5
330
1F
100
AcDbEntity
  8
0
  6
HIDDEN
 62
     7
370
     0
100
AcDbLine
 10
203.9496528346
 20
143.6414253471
 30
0.0
 11
203.9496528346
 21
142.0714252667
 31
0.0
  0
LINE
  5
1C6
330
1F
100
AcDbEntity
  8
0
  6
HIDDEN
 62
     7
370
     0
100
AcDbLine
 10
155.6880886097
 20
170.0614251235
 30
0.0
 11
155.8880882699
 21
169.5511627981
 31
0.0
  0
LINE
  5
1C7
330
1F
100
AcDbEntity
  8
0
  6
HIDDEN
 62
     7
370
     0
100
AcDbLine
 10
161.4880899329
 20
169.5511627981
 30
0.0
 11
161.6880895931
 21
170.0614251235
 31
0.0
  0
LINE
  5
1C8
330
1F
100
AcDbEntity
  8
0
  6
HIDDEN
 62
     7
370
     0
100
AcDbLine
 10
161.6880895931
 20
170.0614251235
 30
0.0
 11
161.4880899329
 21
170.2411629298
 31
0.0
  0
LINE
  5
1C9
330
1F
100
AcDbEntity
  8
0
  6
HIDDEN
 62
     7
370
     0
100
AcDbLine
 10
155.8880882699
 20
170.2411629298
 30
0.0
 11
155.6880886097
 21
170.0614251235
 31
0.0
  0
LINE
  5
1CA
330
1F
100
AcDbEntity
  8
0
  6
HIDDEN
 62
     7
370
     0
100
AcDbLine
 10
161.6880895931
 20
171.3014252522
 30
0.0
 11
161.5480894584
 21
171.4414253869
 31
0.0
  0
LINE
  5
1CB
330
1F
100
AcDbEntity
  8
0
  6
HIDDEN
 62
     7
370
     0
100
AcDbLine
 10
155.8280887444
 20
171.4414253869
 30
0.0
 11
155.6880886097
 21
171.3014252522
 31
0.0
  0
LINE
  5
1CC
330
1F
100
AcDbEntity
  8
0
  6
HIDDEN
 62
     7
370
     0
100
AcDbLine
 10
161.6880895931
 20
168.68142486
 30
0.0
 11
161.4880899329
 21
168.8611626663
 31
0.0
  0
LINE
  5
1CD
330
1F
100
AcDbEntity
  8
0
  6
HIDDEN
 62
     7
370
     0
100
AcDbLine
 10
155.8880882699
 20
168.8611626663
 30
0.0
 11
155.6880886097
 21
168.68142486
 31
0.0
  0
LINE
  5
1CE
330
1F
100
AcDbEntity
  8
0
  6
HIDDEN
 62
     7
370
     0
100
AcDbLine
 10
161.6880895931
 20
170.7514252552
 30
0.0
 11
161.6880895931
 21
171.3014252522
 31
0.0
  0
LINE
  5
1CF
330
1F
100
AcDbEntity
  8
0
  6
HIDDEN
 62
     7
370
     0
100
AcDbLine
 10
155.6880886097
 20
171.3014252522
 30
0.0
 11
155.6880886097
 21
170.7514252552
 31
0.0
  0
LINE
  5
1D0
330
1F
100
AcDbEntity
  8
0
  6
HIDDEN
 62
     7
370
     0
100
AcDbLine
 10
161.6880895931
 20
169.3714249917
 30
0.0
 11
161.4880899329
 21
169.5511627981
 31
0.0
  0
LINE
  5
1D1
330
1F
100
AcDbEntity
  8
0
  6
HIDDEN
 62
     7
370
     0
100
AcDbLine
 10
155.8880882699
 20
169.5511627981
 30
0.0
 11
155.6880886097
 21
169.3714249917
 31
0.0
  0
LINE
  5
1D2
330
1F
100
AcDbEntity
  8
0
  6
HIDDEN
 62
     7
370
     0
100
AcDbLine
 10
155.6880886097
 20
169.3714249917
 30
0.0
 11
155.8880882699
 21
168.8611626663
 31
0.0
  0
LINE
  5
1D3
330
1F
100
AcDbEntity
  8
0
  6
HIDDEN
 62
     7
370
     0
100
AcDbLine
 10
161.4880899329
 20
168.8611626663
 30
0.0
 11
161.6880895931
 21
169.3714249917
 31
0.0
  0
LINE
  5
1D4
330
1F
100
AcDbEntity
  8
0
  6
HIDDEN
 62
     7
370
     0
100
AcDbLine
 10
155.6880886097
 20
170.7514252552
 30
0.0
 11
155.8880882699
 21
170.2411629298
 31
0.0
  0
LINE
  5
1D5
330
1F
100
AcDbEntity
  8
0
  6
HIDDEN
 62
     7
370
     0
100
AcDbLine
 10
161.4880899329
 20
170.2411629298
 30
0.0
 11
161.6880895931
 21
170.7514252552
 31
0.0
  0
LINE
  5
1D6
330
1F
100
AcDbEntity
  8
0
  6
HIDDEN
 62
     7
370
     0
100
AcDbLine
 10
155.6880886097
 20
168.68142486
 30
0.0
 11
155.8880882699
 21
168.1711625346
 31
0.0
  0
LINE
  5
1D7
330
1F
100
AcDbEntity
  8
0
  6
HIDDEN
 62
     7
370
     0
100
AcDbLine
 10
161.4880899329
 20
168.1711625346
 30
0.0
 11
161.6880895931
 21
168.68142486
 31
0.0
  0
LINE
  5
1D8
330
1F
100
AcDbEntity
  8
0
  6
HIDDEN
 62
     7
370
     0
100
AcDbLine
 10
161.6880895931
 20
167.9914247283
 30
0.0
 11
161.4880899329
 21
168.1711625346
 31
0.0
  0
LINE
  5
1D9
330
1F
100
AcDbEntity
  8
0
  6
HIDDEN
 62
     7
370
     0
100
AcDbLine
 10
155.8880882699
 20
168.1711625346
 30
0.0
 11
155.6880886097
 21
167.9914247283
 31
0.0
  0
LINE
  5
1DA
330
1F
100
AcDbEntity
  8
0
  6
HIDDEN
 62
     7
370
     0
100
AcDbLine
 10
161.6880895931
 20
165.2414247432
 30
0.0
 11
161.6880895931
 21
167.9914247283
 31
0.0
  0
LINE
  5
1DB
330
1F
100
AcDbEntity
  8
0
  6
HIDDEN
 62
     7
370
     0
100
AcDbLine
 10
155.6880886097
 20
167.9914247283
 30
0.0
 11
155.6880886097
 21
165.2414247432
 31
0.0
  0
LINE
  5
1DC
330
1F
100
AcDbEntity
  8
0
  6
HIDDEN
 62
     7
370
     0
100
AcDbLine
 10
155.6880886097
 20
165.2414247432
 30
0.0
 11
156.2077032764
 21
164.9414252528
 31
0.0
  0
LINE
  5
1DD
330
1F
100
AcDbEntity
  8
0
  6
HIDDEN
 62
     7
370
     0
100
AcDbLine
 10
161.1684749264
 20
164.9414252528
 30
0.0
 11
161.6880895931
 21
165.2414247432
 31
0.0
  0
LINE
  5
1DE
330
1F
100
AcDbEntity
  8
0
  6
HIDDEN
 62
     7
370
     0
100
AcDbLine
 10
161.1880885799
 20
166.5848016777
 30
0.0
 11
161.1880885799
 21
171.4414253869
 31
0.0
  0
LINE
  5
1DF
330
1F
100
AcDbEntity
  8
0
  6
HIDDEN
 62
     7
370
     0
100
AcDbLine
 10
156.1880896229
 20
171.4414253869
 30
0.0
 11
156.1880896229
 21
166.5848016777
 31
0.0
  0
LINE
  5
1E0
330
1F
100
AcDbEntity
  8
0
  6
HIDDEN
 62
     7
370
     0
100
AcDbLine
 10
156.1880896229
 20
166.5848016777
 30
0.0
 11
158.688090964
 21
165.1414249131
 31
0.0
  0
LINE
  5
1E1
330
1F
100
AcDbEntity
  8
0
  6
HIDDEN
 62
     7
370
     0
100
AcDbLine
 10
158.688090964
 20
165.1414249131
 30
0.0
 11
161.1880885799
 21
166.5848016777
 31
0.0
  0
CIRCLE
  5
1E2
330
1F
100
AcDbEntity
  8
0
  6
HIDDEN
 62
     7
370
     0
100
AcDbCircle
 10
158.6880891163
 20
168.0414253541
 30
0.0
 40
2.5
  0
DIMENSION
  5
1E3
330
1F
100
AcDbEntity
  8
VERMASSUNG
100
AcDbDimension
  2
_D
 10
84.7766942272
 20
114.7414253541
 30
0.0
 11
84.7766942272
 21
146.2414253541
 31
0.0
 70
   160
  1
HSK %%c<>
 71
     2
 42
-1.0
  3
SLDDIMSTYLE0
100
AcDbAlignedDimension
 13
124.9880891163
 23
177.7414253541
 33
0.0
 14
124.9880891163
 24
114.7414253541
 34
0.0
 50
90.0
100
AcDbRotatedDimension
  0
DIMENSION
  5
1F0
330
1F
100
AcDbEntity
  8
VERMASSUNG
100
AcDbDimension
  2
_D_1
 10
92.7880891163
 20
188.9892566079
 30
0.0
 11
158.7380891163
 21
188.9892566079
 31
0.0
 70
   160
  1
<>
 71
     2
 42
-1.0
  3
SLDDIMSTYLE0
100
AcDbAlignedDimension
 13
224.6880891163
 23
146.2414253541
 33
0.0
 14
92.7880891163
 24
167.8224753902
 34
0.0
100
AcDbRotatedDimension
  0
DIMENSION
  5
1FA
330
1F
100
AcDbEntity
  8
VERMASSUNG
100
AcDbDimension
  2
_D_2
 10
224.6880891163
 20
182.9892566079
 30
0.0
 11
174.6880891163
 21
182.9892566079
 31
0.0
 70
   160
  1
<>
 71
     2
 42
-1.0
  3
SLDDIMSTYLE0
100
AcDbAlignedDimension
 13
124.6880891163
 23
177.4414253541
 33
0.0
 14
224.6880891163
 24
146.2414253541
 34
0.0
100
AcDbRotatedDimension
  0
LINE
  5
204
330
1F
100
AcDbEntity
  8
VERMASSUNG
  6
CENTERX2
370
     0
100
AcDbLine
 10
90.3785059758
 20
146.2414253541
 30
0.0
 11
224.4244396604
 21
146.2414253541
 31
0.0
  0
LINE
  5
205
330
1F
100
AcDbEntity
  8
0
  6
Continuous
 62
     7
370
    15
100
AcDbLine
 10
124.9880891305
 20
41.3225689644
 30
0.0
 11
129.6380890895
 21
41.3225689644
 31
0.0
  0
LINE
  5
206
330
1F
100
AcDbEntity
  8
0
  6
Continuous
 62
     7
370
    15
100
AcDbLine
 10
129.6660776611
 20
104.3225699777
 30
0.0
 11
124.9880891305
 21
104.3225699777
 31
0.0
  0
ARC
  5
207
330
1F
100
AcDbEntity
  8
0
  6
Continuous
 62
     7
370
    15
100
AcDbCircle
 10
124.9880891163
 20
41.6225694711
 30
0.0
 40
0.2999999999999972
100
AcDbArc
 50
180.0
 51
270.0
  0
ARC
  5
208
330
1F
100
AcDbEntity
  8
0
  6
Continuous
 62
     7
370
    15
100
AcDbCircle
 10
124.9880891163
 20
104.0225694711
 30
0.0
 40
0.2999999999999972
100
AcDbArc
 50
90.0
 51
180.0
  0
ARC
  5
209
330
1F
100
AcDbEntity
  8
0
  6
Continuous
 62
     7
370
    15
100
AcDbCircle
 10
151.6380891163
 20
45.8225694711
 30
0.0
 40
0.9999999999999929
100
AcDbArc
 50
90.0
 51
143.1139143113
  0
ARC
  5
20A
330
1F
100
AcDbEntity
  8
0
  6
Continuous
 62
     7
370
    15
100
AcDbCircle
 10
151.6380891163
 20
99.8225694711
 30
0.0
 40
1.0
100
AcDbArc
 50
216.9027556998
 51
270.0
  0
LINE
  5
20B
330
1F
100
AcDbEntity
  8
0
  6
Continuous
 62
     7
370
    15
100
AcDbLine
 10
151.6380889703
 20
46.8225689346
 30
0.0
 11
174.6123025555
 21
46.8225689346
 31
0.0
  0
LINE
  5
20C
330
1F
100
AcDbEntity
  8
0
  6
Continuous
 62
     7
370
    15
100
AcDbLine
 10
174.6123025555
 20
98.8225700075
 30
0.0
 11
151.6380889703
 21
98.8225700075
 31
0.0
  0
ARC
  5
20D
330
1F
100
AcDbEntity
  8
0
  6
Continuous
 62
     7
370
    15
100
AcDbCircle
 10
124.1880891163
 20
48.2521386094
 30
0.0
 40
0.5999999999999943
100
AcDbArc
 50
33.5573097619
 51
90.0
  0
ARC
  5
20E
330
1F
100
AcDbEntity
  8
0
  6
Continuous
 62
     7
370
    15
100
AcDbCircle
 10
124.1880891163
 20
97.3930003328
 30
0.0
 40
0.599999999999994
100
AcDbArc
 50
270.0
 51
326.4426902381
  0
LINE
  5
20F
330
1F
100
AcDbEntity
  8
0
  6
Continuous
 62
     7
370
    15
100
AcDbLine
 10
111.4565806825
 20
96.4802993203
 30
0.0
 11
98.8880882401
 21
95.8506153638
 31
0.0
  0
LINE
  5
210
330
1F
100
AcDbEntity
  8
0
  6
Continuous
 62
     7
370
    15
100
AcDbLine
 10
122.6880890213
 20
97.0430006946
 30
0.0
 11
119.8710875947
 21
96.9018680716
 31
0.0
  0
LINE
  5
211
330
1F
100
AcDbEntity
  8
0
  6
Continuous
 62
     7
370
    15
100
AcDbLine
 10
119.8711434741
 20
48.7432690079
 30
0.0
 11
122.6880890213
 21
48.6021382476
 31
0.0
  0
LINE
  5
212
330
1F
100
AcDbEntity
  8
0
  6
Continuous
 62
     7
370
    15
100
AcDbLine
 10
102.8880888958
 20
49.5941234494
 30
0.0
 11
111.4569830138
 21
49.1648191328
 31
0.0
  0
LINE
  5
213
330
1F
100
AcDbEntity
  8
0
  6
Continuous
 62
     7
370
    15
100
AcDbLine
 10
122.6880890213
 20
48.6021382476
 30
0.0
 11
123.5448019475
 21
48.831694361
 31
0.0
  0
LINE
  5
214
330
1F
100
AcDbEntity
  8
0
  6
Continuous
 62
     7
370
    15
100
AcDbLine
 10
123.5448019475
 20
96.8134445811
 30
0.0
 11
122.6880890213
 21
97.0430006946
 31
0.0
  0
ARC
  5
215
330
1F
100
AcDbEntity
  8
0
  6
Continuous
 62
     7
370
    15
100
AcDbCircle
 10
123.7000933167
 20
48.2521386094
 30
0.0
 40
0.6000000000000085
100
AcDbArc
 50
90.0
 51
105.0
  0
ARC
  5
216
330
1F
100
AcDbEntity
  8
0
  6
Continuous
 62
     7
370
    15
100
AcDbCircle
 10
123.7000933167
 20
97.3930003328
 30
0.0
 40
0.6000000000000085
100
AcDbArc
 50
255.0
 51
270.0
  0
LINE
  5
217
330
1F
100
AcDbEntity
  8
0
  6
Continuous
 62
     7
370
    15
100
AcDbLine
 10
123.7000933511
 20
48.8521387542
 30
0.0
 11
124.1880890925
 21
48.8521387542
 31
0.0
  0
LINE
  5
218
330
1F
100
AcDbEntity
  8
0
  6
Continuous
 62
     7
370
    15
100
AcDbLine
 10
124.1880890925
 20
96.7930001879
 30
0.0
 11
123.7000933511
 21
96.7930001879
 31
0.0
  0
LINE
  5
219
330
1F
100
AcDbEntity
  8
0
  6
Continuous
 62
     7
370
    15
100
AcDbLine
 10
93.9380882669
 20
52.0100692029
 30
0.0
 11
101.4880894113
 21
52.0100692029
 31
0.0
  0
ARC
  5
21A
330
1F
100
AcDbEntity
  8
0
  6
Continuous
 62
     7
370
    15
100
AcDbCircle
 10
101.4880891163
 20
50.6100694711
 30
0.0
 40
1.4
100
AcDbArc
 50
37.6443616934
 51
90.0
  0
LINE
  5
21B
330
1F
100
AcDbEntity
  8
0
  6
Continuous
 62
     7
370
    15
100
AcDbLine
 10
93.9292518783
 20
93.6837332065
 30
0.0
 11
92.7979911108
 21
92.5524705762
 31
0.0
  0
LINE
  5
21C
330
1F
100
AcDbEntity
  8
0
  6
Continuous
 62
     7
370
    15
100
AcDbLine
 10
92.785507663
 20
53.1626498068
 30
0.0
 11
93.9380882669
 21
52.0100692029
 31
0.0
  0
ARC
  5
21D
330
1F
100
AcDbEntity
  8
0
  6
Continuous
 62
     7
370
    15
100
AcDbCircle
 10
97.4880891163
 20
95.0925694711
 30
0.0
 40
1.400000000000008
100
AcDbArc
 50
270.0
 51
301.7485287426
  0
LINE
  5
21E
330
1F
100
AcDbEntity
  8
0
  6
Continuous
 62
     7
370
    15
100
AcDbLine
 10
97.4880887557
 20
93.6925695951
 30
0.0
 11
94.0623546381
 21
93.6925695951
 31
0.0
  0
ARC
  5
21F
330
1F
100
AcDbEntity
  8
0
  6
Continuous
 62
     7
370
    15
100
AcDbCircle
 10
214.7403076288
 20
72.8225694711
 30
0.0
 40
1.675000000000002
100
AcDbArc
 50
300.3120697157
 51
358.912002843
  0
ARC
  5
220
330
1F
100
AcDbEntity
  8
0
  6
Continuous
 62
     7
370
    15
100
AcDbCircle
 10
214.7403076288
 20
72.8225694711
 30
0.0
 40
1.674999999999996
100
AcDbArc
 50
358.912002843
 51
59.0188445777
  0
ARC
  5
221
330
1F
100
AcDbEntity
  8
0
  6
Continuous
 62
     7
370
    15
100
AcDbCircle
 10
214.7403076288
 20
72.8225694711
 30
0.0
 40
1.675000000000006
100
AcDbArc
 50
59.0188445777
 51
117.6187777049
  0
LINE
  5
222
330
1F
100
AcDbEntity
  8
0
  6
Continuous
 62
     7
370
    15
100
AcDbLine
 10
213.8895394642
 20
74.2654212026
 30
0.0
 11
213.963799401
 21
74.3067060339
 31
0.0
  0
ARC
  5
223
330
1F
100
AcDbEntity
  8
0
  6
Continuous
 62
     7
370
    15
100
AcDbCircle
 10
214.7403076288
 20
72.8225694711
 30
0.0
 40
1.675
100
AcDbArc
 50
120.5254084768
 51
176.9691266431
  0
LINE
  5
224
330
1F
100
AcDbEntity
  8
0
  6
Continuous
 62
     7
370
    15
100
AcDbLine
 10
213.0656021077
 20
72.7913426944
 30
0.0
 11
213.0676510174
 21
72.9111335113
 31
0.0
  0
ARC
  5
225
330
1F
100
AcDbEntity
  8
0
  6
Continuous
 62
     7
370
    15
100
AcDbCircle
 10
214.7403076288
 20
72.8225694711
 30
0.0
 40
1.675000000000024
100
AcDbArc
 50
181.0682185433
 51
236.8626288773
  0
LINE
  5
226
330
1F
100
AcDbEntity
  8
0
  6
Continuous
 62
     7
370
    15
100
AcDbLine
 10
213.9272766549
 20
71.3581243271
 30
0.0
 11
213.8246747095
 21
71.4199875456
 31
0.0
  0
ARC
  5
227
330
1F
100
AcDbEntity
  8
0
  6
Continuous
 62
     7
370
    15
100
AcDbCircle
 10
214.7403076288
 20
72.8225694711
 30
0.0
 40
1.675000000000029
100
AcDbArc
 50
240.9617207776
 51
297.4054389439
  0
LINE
  5
228
330
1F
100
AcDbEntity
  8
0
  6
Continuous
 62
     7
370
    15
100
AcDbLine
 10
215.5856939394
 20
71.3765599739
 30
0.0
 11
215.511284991
 21
71.3355518619
 31
0.0
  0
CIRCLE
  5
229
330
1F
100
AcDbEntity
  8
0
  6
Continuous
 62
     7
370
    15
100
AcDbCircle
 10
214.7403076288
 20
72.8225694711
 30
0.0
 40
1.799999999999998
  0
SPLINE
  5
22A
330
1F
100
AcDbEntity
  8
0
  6
Continuous
 62
     7
370
    15
100
AcDbSpline
210
0.0
220
0.0
230
1.0
 70
     8
 71
     3
 72
    11
 73
     7
 74
     0
 42
0.00000001
 43
0.00000001
 12
1.0
 22
0.0
 32
0.0
 13
1.0
 23
0.0
 33
0.0
 40
0.0
 40
0.0
 40
0.0
 40
0.0
 40
0.2668946003239498
 40
0.5546115670404821
 40
0.8439014415317364
 40
1.0
 40
1.0
 40
1.0
 40
1.0
 10
213.065602107724
 20
72.79134269444774
 30
0.0
 10
213.0743325273608
 20
72.75758082754916
 30
0.0
 10
213.0924744894306
 20
72.68742308781181
 30
0.0
 10
213.1609401020151
 20
72.59914553056204
 30
0.0
 10
213.2397985218115
 20
72.54396796802774
 30
0.0
 10
213.2944154378852
 20
72.52691733616288
 30
0.0
 10
213.3135574299896
 20
72.52094147586183
 30
0.0
  0
SPLINE
  5
22B
330
1F
100
AcDbEntity
  8
0
  6
Continuous
 62
     7
370
    15
100
AcDbSpline
210
0.0
220
0.0
230
1.0
 70
     8
 71
     3
 72
    12
 73
     8
 74
     0
 42
0.00000001
 43
0.00000001
 12
1.0
 22
0.0
 32
0.0
 13
1.0
 23
0.0
 33
0.0
 40
0.0
 40
0.0
 40
0.0
 40
0.0
 40
0.2058401486710964
 40
0.4120587723817208
 40
0.6141372793370896
 40
0.8132766150014474
 40
1.0
 40
1.0
 40
1.0
 40
1.0
 10
213.3135574299896
 20
72.52094147586183
 30
0.0
 10
213.3752463162762
 20
72.49871593986121
 30
0.0
 10
213.498737515233
 20
72.45422400211697
 30
0.0
 10
213.6437541729692
 20
72.31446354618976
 30
0.0
 10
213.7350690222968
 20
72.14067997180415
 30
0.0
 10
213.7673890098512
 20
71.95123185515983
 30
0.0
 10
213.7402949755679
 20
71.83157762255242
 30
0.0
 10
213.7271838624085
 20
71.77367557048717
 30
0.0
  0
SPLINE
  5
22C
330
1F
100
AcDbEntity
  8
0
  6
Continuous
 62
     7
370
    15
100
AcDbSpline
210
0.0
220
0.0
230
1.0
 70
     8
 71
     3
 72
    11
 73
     7
 74
     0
 42
0.00000001
 43
0.00000001
 12
1.0
 22
0.0
 32
0.0
 13
1.0
 23
0.0
 33
0.0
 40
0.0
 40
0.0
 40
0.0
 40
0.0
 40
0.2928969767541347
 40
0.5864273411401923
 40
0.8775111775460267
 40
1.0
 40
1.0
 40
1.0
 40
1.0
 10
213.7271838624085
 20
71.77367557048717
 30
0.0
 10
213.7191757111015
 20
71.73662472294478
 30
0.0
 10
213.7031420909174
 20
71.66244290566536
 30
0.0
 10
213.727931261275
 20
71.54903118328573
 30
0.0
 10
213.7745166994238
 20
71.468169550138
 30
0.0
 10
213.8132137189288
 20
71.43099702341782
 30
0.0
 10
213.8246747095192
 20
71.41998754557142
 30
0.0
  0
SPLINE
  5
22D
330
1F
100
AcDbEntity
  8
0
  6
Continuous
 62
     7
370
    15
100
AcDbSpline
210
0.0
220
0.0
230
1.0
 70
     8
 71
     3
 72
    11
 73
     7
 74
     0
 42
0.00000001
 43
0.00000001
 12
1.0
 22
0.0
 32
0.0
 13
1.0
 23
0.0
 33
0.0
 40
0.0
 40
0.0
 40
0.0
 40
0.0
 40
0.2431036337200767
 40
0.5182820997106111
 40
0.7947807856448659
 40
1.0
 40
1.0
 40
1.0
 40
1.0
 10
213.889539464196
 20
74.265421202629
 30
0.0
 10
213.8646291903424
 20
74.24353829143685
 30
0.0
 10
213.8115220078635
 20
74.19688526125836
 30
0.0
 10
213.7632765372112
 20
74.09818074890717
 30
0.0
 10
213.7471159771877
 20
73.9954038255999
 30
0.0
 10
213.7601243463847
 20
73.93191004152153
 30
0.0
 10
213.7656661111916
 20
73.90486071560451
 30
0.0
  0
SPLINE
  5
22E
330
1F
100
AcDbEntity
  8
0
  6
Continuous
 62
     7
370
    15
100
AcDbSpline
210
0.0
220
0.0
230
1.0
 70
     8
 71
     3
 72
    12
 73
     8
 74
     0
 42
0.00000001
 43
0.00000001
 12
1.0
 22
0.0
 32
0.0
 13
1.0
 23
0.0
 33
0.0
 40
0.0
 40
0.0
 40
0.0
 40
0.0
 40
0.2058180121688921
 40
0.4120215786623327
 40
0.6140782708430489
 40
0.8132088647573688
 40
0.9999999999999999
 40
0.9999999999999999
 40
0.9999999999999999
 40
0.9999999999999999
 10
213.7656661111916
 20
73.90486071560451
 30
0.0
 10
213.7772635698495
 20
73.84032967639273
 30
0.0
 10
213.8004802124277
 20
73.7111467134024
 30
0.0
 10
213.7519659855199
 20
73.51568867738386
 30
0.0
 10
213.647135822069
 20
73.34972470085575
 30
0.0
 10
213.4992352769845
 20
73.22699153197607
 30
0.0
 10
213.3820490196927
 20
73.19062039362053
 30
0.0
 10
213.3253293473328
 20
73.1730162897046
 30
0.0
  0
SPLINE
  5
22F
330
1F
100
AcDbEntity
  8
0
  6
Continuous
 62
     7
370
    15
100
AcDbSpline
210
0.0
220
0.0
230
1.0
 70
     8
 71
     3
 72
    11
 73
     7
 74
     0
 42
0.00000001
 43
0.00000001
 12
1.0
 22
0.0
 32
0.0
 13
1.0
 23
0.0
 33
0.0
 40
0.0
 40
0.0
 40
0.0
 40
0.0
 40
0.29086305769332
 40
0.583955442934638
 40
0.8745966477102499
 40
0.9999999999999999
 40
0.9999999999999999
 40
0.9999999999999999
 40
0.9999999999999999
 10
213.3253293473328
 20
73.1730162897046
 30
0.0
 10
213.2894289907842
 20
73.16150884252919
 30
0.0
 10
213.217353118461
 20
73.13840574904714
 30
0.0
 10
213.1315511374207
 20
73.06052151832789
 30
0.0
 10
213.0844474499604
 20
72.97946980884215
 30
0.0
 10
213.0715411957685
 20
72.9269607047114
 30
0.0
 10
213.0676510173882
 20
72.91113351127285
 30
0.0
  0
SPLINE
  5
230
330
1F
100
AcDbEntity
  8
0
  6
Continuous
 62
     7
370
    15
100
AcDbSpline
210
0.0
220
0.0
230
1.0
 70
     8
 71
     3
 72
    12
 73
     8
 74
     0
 42
0.00000001
 43
0.00000001
 12
1.0
 22
0.0
 32
0.0
 13
1.0
 23
0.0
 33
0.0
 40
0.0
 40
0.0
 40
0.0
 40
0.0
 40
0.2057885038992962
 40
0.4120370023219282
 40
0.6141333748284371
 40
0.8132623356289891
 40
1.0
 40
1.0
 40
1.0
 40
1.0
 10
214.2860072095001
 20
71.43744018137374
 30
0.0
 10
214.3360842069568
 20
71.47974110394424
 30
0.0
 10
214.4363501378827
 20
71.56443750340846
 30
0.0
 10
214.6298835955641
 20
71.62016210178648
 30
0.0
 10
214.8260573388178
 20
71.61235804687509
 30
0.0
 10
215.0062942474719
 20
71.54561776157142
 30
0.0
 10
215.0963759478947
 20
71.46232677796968
 30
0.0
 10
215.1399704057777
 20
71.42201864369133
 30
0.0
  0
SPLINE
  5
231
330
1F
100
AcDbEntity
  8
0
  6
Continuous
 62
     7
370
    15
100
AcDbSpline
210
0.0
220
0.0
230
1.0
 70
     8
 71
     3
 72
    11
 73
     7
 74
     0
 42
0.00000001
 43
0.00000001
 12
1.0
 22
0.0
 32
0.0
 13
1.0
 23
0.0
 33
0.0
 40
0.0
 40
0.0
 40
0.0
 40
0.0
 40
0.2802359889888647
 40
0.56129581302818
 40
0.8399855975253998
 40
1.0
 40
1.0
 40
1.0
 40
1.0
 10
215.1399704057777
 20
71.42201864369133
 30
0.0
 10
215.1680320238104
 20
71.396569476124
 30
0.0
 10
215.224237755149
 20
71.34559632577262
 30
0.0
 10
215.3347816667861
 20
71.31041710629407
 30
0.0
 10
215.4341025528372
 20
71.31008368674327
 30
0.0
 10
215.4906571001216
 20
71.32874520030092
 30
0.0
 10
215.5112849909866
 20
71.3355518618963
 30
0.0
  0
SPLINE
  5
232
330
1F
100
AcDbEntity
  8
0
  6
Continuous
 62
     7
370
    15
100
AcDbSpline
210
0.0
220
0.0
230
1.0
 70
     8
 71
     3
 72
    11
 73
     7
 74
     0
 42
0.00000001
 43
0.00000001
 12
1.0
 22
0.0
 32
0.0
 13
1.0
 23
0.0
 33
0.0
 40
0.0
 40
0.0
 40
0.0
 40
0.0
 40
0.2657453236140456
 40
0.5529927991831477
 40
0.8418229756872421
 40
0.9999999999999999
 40
0.9999999999999999
 40
0.9999999999999999
 40
0.9999999999999999
 10
213.9272766549194
 20
71.35812432713726
 30
0.0
 10
213.9607690115385
 20
71.34876185583303
 30
0.0
 10
214.0304636792982
 20
71.3292793710864
 30
0.0
 10
214.1410881769343
 20
71.34411703128336
 30
0.0
 10
214.2287012623919
 20
71.3847090864032
 30
0.0
 10
214.2710291518896
 20
71.42365785304321
 30
0.0
 10
214.2860072095001
 20
71.43744018137374
 30
0.0
  0
SPLINE
  5
233
330
1F
100
AcDbEntity
  8
0
  6
Continuous
 62
     7
370
    15
100
AcDbSpline
210
0.0
220
0.0
230
1.0
 70
     8
 71
     3
 72
    12
 73
     8
 74
     0
 42
0.00000001
 43
0.00000001
 12
1.0
 22
0.0
 32
0.0
 13
1.0
 23
0.0
 33
0.0
 40
0.0
 40
0.0
 40
0.0
 40
0.0
 40
0.2058591836599307
 40
0.4121047142598758
 40
0.61419545542545
 40
0.8133205306146188
 40
1.0
 40
1.0
 40
1.0
 40
1.0
 10
215.7105731207932
 20
71.73785806842068
 30
0.0
 10
215.6989771810579
 20
71.8023992726989
 30
0.0
 10
215.6757635388672
 20
71.93160280918534
 30
0.0
 10
215.7242992792428
 20
72.12708384998955
 30
0.0
 10
215.8291590305361
 20
72.29305969765637
 30
0.0
 10
215.9770692925388
 20
72.41575075122365
 30
0.0
 10
216.0942227655325
 20
72.45210952446196
 30
0.0
 10
216.150909884652
 20
72.46970246521676
 30
0.0
  0
SPLINE
  5
234
330
1F
100
AcDbEntity
  8
0
  6
Continuous
 62
     7
370
    15
100
AcDbSpline
210
0.0
220
0.0
230
1.0
 70
     8
 71
     3
 72
    11
 73
     7
 74
     0
 42
0.00000001
 43
0.00000001
 12
1.0
 22
0.0
 32
0.0
 13
1.0
 23
0.0
 33
0.0
 40
0.0
 40
0.0
 40
0.0
 40
0.0
 40
0.2524839745229699
 40
0.5068976231995522
 40
0.7591805621755889
 40
1.0
 40
1.0
 40
1.0
 40
1.0
 10
216.150909884652
 20
72.46970246521676
 30
0.0
 10
216.1868240345512
 20
72.48121055974983
 30
0.0
 10
216.2589268175399
 20
72.50431470240832
 30
0.0
 10
216.3445191385215
 20
72.58217038914891
 30
0.0
 10
216.4025045074065
 20
72.68067516699136
 30
0.0
 10
216.4109020197738
 20
72.75464129461247
 30
0.0
 10
216.4150031644905
 20
72.79076458687348
 30
0.0
  0
SPLINE
  5
235
330
1F
100
AcDbEntity
  8
0
  6
Continuous
 62
     7
370
    15
100
AcDbSpline
210
0.0
220
0.0
230
1.0
 70
     8
 71
     3
 72
    11
 73
     7
 74
     0
 42
0.00000001
 43
0.00000001
 12
1.0
 22
0.0
 32
0.0
 13
1.0
 23
0.0
 33
0.0
 40
0.0
 40
0.0
 40
0.0
 40
0.0
 40
0.2423585358393012
 40
0.5166851909877179
 40
0.7923345361929774
 40
1.0
 40
1.0
 40
1.0
 40
1.0
 10
215.5856939394081
 20
71.3765599739171
 30
0.0
 10
215.6106870956876
 20
71.39834975459533
 30
0.0
 10
215.6639701116167
 20
71.44480348048673
 30
0.0
 10
215.7125709548582
 20
71.54332915143172
 30
0.0
 10
215.729206898524
 20
71.64646928594392
 30
0.0
 10
215.7161732692304
 20
71.71039231484372
 30
0.0
 10
215.7105731207932
 20
71.73785806842068
 30
0.0
  0
SPLINE
  5
236
330
1F
100
AcDbEntity
  8
0
  6
Continuous
 62
     7
370
    15
100
AcDbSpline
210
0.0
220
0.0
230
1.0
 70
     8
 71
     3
 72
    12
 73
     8
 74
     0
 42
0.00000001
 43
0.00000001
 12
1.0
 22
0.0
 32
0.0
 13
1.0
 23
0.0
 33
0.0
 40
0.0
 40
0.0
 40
0.0
 40
0.0
 40
0.0091697029587399
 40
0.2576799350241689
 40
0.5061817143846299
 40
0.7560332844888924
 40
0.9999999999999999
 40
0.9999999999999999
 40
0.9999999999999999
 40
0.9999999999999999
 10
215.6025248009766
 20
74.25860834516504
 30
0.0
 10
215.6013467329329
 20
74.25930966582405
 30
0.0
 10
215.5682415714786
 20
74.27901763920742
 30
0.0
 10
215.4957309047848
 20
74.30637345631804
 30
0.0
 10
215.3827772967096
 20
74.30903649462248
 30
0.0
 10
215.2741088108877
 20
74.27649329214474
 30
0.0
 10
215.2179679408661
 20
74.22882748730657
 30
0.0
 10
215.1902320224846
 20
74.20527860265145
 30
0.0
  0
SPLINE
  5
237
330
1F
100
AcDbEntity
  8
0
  6
Continuous
 62
     7
370
    15
100
AcDbSpline
210
0.0
220
0.0
230
1.0
 70
     8
 71
     3
 72
    12
 73
     8
 74
     0
 42
0.00000001
 43
0.00000001
 12
1.0
 22
0.0
 32
0.0
 13
1.0
 23
0.0
 33
0.0
 40
0.0
 40
0.0
 40
0.0
 40
0.0
 40
0.20575332568875
 40
0.411957836938813
 40
0.6140142241452893
 40
0.8131379117594064
 40
1.0
 40
1.0
 40
1.0
 40
1.0
 10
215.1902320224846
 20
74.20527860265145
 30
0.0
 10
215.1401620101945
 20
74.16298314631436
 30
0.0
 10
215.0399121897385
 20
74.078299486176
 30
0.0
 10
214.8464133199494
 20
74.02256604567216
 30
0.0
 10
214.6502683874038
 20
74.03034752072445
 30
0.0
 10
214.4700050382869
 20
74.09706134258626
 30
0.0
 10
214.3798933719703
 20
74.18036935552564
 30
0.0
 10
214.336268826207
 20
74.22070014033386
 30
0.0
  0
SPLINE
  5
238
330
1F
100
AcDbEntity
  8
0
  6
Continuous
 62
     7
370
    15
100
AcDbSpline
210
0.0
220
0.0
230
1.0
 70
     8
 71
     3
 72
    11
 73
     7
 74
     0
 42
0.00000001
 43
0.00000001
 12
1.0
 22
0.0
 32
0.0
 13
1.0
 23
0.0
 33
0.0
 40
0.0
 40
0.0
 40
0.0
 40
0.0
 40
0.2794076898179373
 40
0.5596148288872195
 40
0.8374931659882778
 40
1.0
 40
1.0
 40
1.0
 40
1.0
 10
214.336268826207
 20
74.22070014033386
 30
0.0
 10
214.3082046517357
 20
74.24615116150736
 30
0.0
 10
214.2519960047768
 20
74.29712602504206
 30
0.0
 10
214.1414480566123
 20
74.33230378271485
 30
0.0
 10
214.0417003580034
 20
74.33264380848175
 30
0.0
 10
213.9847972543202
 20
74.31369744459951
 30
0.0
 10
213.9637994010056
 20
74.30670603386977
 30
0.0
  0
CIRCLE
  5
239
330
1F
100
AcDbEntity
  8
0
  6
Continuous
 62
     7
370
    15
100
AcDbCircle
 10
214.7403076288
 20
72.8225694711
 30
0.0
 40
2.625000000000006
  0
SPLINE
  5
23A
330
1F
100
AcDbEntity
  8
0
  6
Continuous
 62
     7
370
    15
100
AcDbSpline
210
0.0
220
0.0
230
1.0
 70
     8
 71
     3
 72
    12
 73
     8
 74
     0
 42
0.00000001
 43
0.00000001
 12
1.0
 22
0.0
 32
0.0
 13
1.0
 23
0.0
 33
0.0
 40
0.0
 40
0.0
 40
0.0
 40
0.0
 40
0.0091682157840433
 40
0.2573283939056696
 40
0.5054950663009261
 40
0.7549895573116717
 40
0.9999999999999999
 40
0.9999999999999999
 40
0.9999999999999999
 40
0.9999999999999999
 10
216.4150031644905
 20
72.79076458687348
 30
0.0
 10
216.4150234607039
 20
72.79213712199642
 30
0.0
 10
216.4155931235594
 20
72.83066067631572
 30
0.0
 10
216.4031952768183
 20
72.9071596102786
 30
0.0
 10
216.3492011749139
 20
73.00640904636712
 30
0.0
 10
216.2666797893178
 20
73.08455295300229
 30
0.0
 10
216.1971425827648
 20
73.10944438742636
 30
0.0
 10
216.1626892525757
 20
73.1217772499557
 30
0.0
  0
SPLINE
  5
23B
330
1F
100
AcDbEntity
  8
0
  6
Continuous
 62
     7
370
    15
100
AcDbSpline
210
0.0
220
0.0
230
1.0
 70
     8
 71
     3
 72
    12
 73
     8
 74
     0
 42
0.00000001
 43
0.00000001
 12
1.0
 22
0.0
 32
0.0
 13
1.0
 23
0.0
 33
0.0
 40
0.0
 40
0.0
 40
0.0
 40
0.0
 40
0.2058479593825605
 40
0.412068019488363
 40
0.6141410302243898
 40
0.8132606615796273
 40
1.0
 40
1.0
 40
1.0
 40
1.0
 10
216.1626892525757
 20
73.1217772499557
 30
0.0
 10
216.1009974725755
 20
73.14400256770921
 30
0.0
 10
215.9775023955311
 20
73.18849337877512
 30
0.0
 10
215.8324884654765
 20
73.32825915366581
 30
0.0
 10
215.7411690569067
 20
73.50203613804354
 30
0.0
 10
215.7088604603386
 20
73.69148334644095
 30
0.0
 10
215.7359517753495
 20
73.81113628011346
 30
0.0
 10
215.7490628201569
 20
73.86904321353802
 30
0.0
  0
SPLINE
  5
23C
330
1F
100
AcDbEntity
  8
0
  6
Continuous
 62
     7
370
    15
100
AcDbSpline
210
0.0
220
0.0
230
1.0
 70
     8
 71
     3
 72
    11
 73
     7
 74
     0
 42
0.00000001
 43
0.00000001
 12
1.0
 22
0.0
 32
0.0
 13
1.0
 23
0.0
 33
0.0
 40
0.0
 40
0.0
 40
0.0
 40
0.0
 40
0.253508406488253
 40
0.5075673864402689
 40
0.7595110137618468
 40
1.0
 40
1.0
 40
1.0
 40
1.0
 10
215.7490628201569
 20
73.86904321353802
 30
0.0
 10
215.7570774894314
 20
73.90610846882745
 30
0.0
 10
215.7731242343626
 20
73.98031947829897
 30
0.0
 10
215.7482368454667
 20
74.0935363834128
 30
0.0
 10
215.6917363122061
 20
74.19289968124052
 30
0.0
 10
215.6317972168834
 20
74.2370477717304
 30
0.0
 10
215.6025248009766
 20
74.25860834516504
 30
0.0
  0
LINE
  5
23D
330
1F
100
AcDbEntity
  8
0
  6
Continuous
 62
     7
370
    15
100
AcDbLine
 10
224.463552459
 20
73.1596335918
 30
0.0
 11
215.0157692272
 21
78.0778374264
 31
0.0
  0
LINE
  5
23E
330
1F
100
AcDbEntity
  8
0
  6
Continuous
 62
     7
370
    15
100
AcDbLine
 10
222.2806292016
 20
72.8225694711
 30
0.0
 11
224.2880912859
 21
72.8225694711
 31
0.0
  0
LINE
  5
23F
330
1F
100
AcDbEntity
  8
0
  6
Continuous
 62
     7
370
    15
100
AcDbLine
 10
214.8403080542
 20
77.49221015
 30
0.0
 11
214.8403080542
 21
77.7407731602
 31
0.0
  0
SPLINE
  5
240
330
1F
100
AcDbEntity
  8
0
  6
Continuous
 62
     7
370
    15
100
AcDbSpline
210
0.0
220
0.0
230
1.0
 70
    24
 71
     3
 72
    11
 73
     7
 74
     0
 42
0.00000001
 43
0.00000001
 12
1.0
 22
0.0
 32
0.0
 13
1.0
 23
0.0
 33
0.0
 40
0.0
 40
0.0
 40
0.0
 40
0.0
 40
0.3277692306154399
 40
0.6551509520088001
 40
0.9907857594881774
 40
1.0
 40
1.0
 40
1.0
 40
1.0
 10
214.8403080541695
 20
77.49221014998773
 30
0.0
 10
214.8403080541695
 20
77.41788002586802
 30
0.0
 10
214.8403080541695
 20
77.26930765533608
 30
0.0
 10
214.8403080541693
 20
77.02432497786567
 30
0.0
 10
214.84030805417
 20
76.86981325674978
 30
0.0
 10
214.8403080541695
 20
76.79769140425886
 30
0.0
 10
214.8403080541695
 20
76.79576433472255
 30
0.0
  0
LINE
  5
241
330
1F
100
AcDbEntity
  8
0
  6
Continuous
 62
     7
370
    15
100
AcDbLine
 10
205.2170636494
 20
72.4855053504
 30
0.0
 11
214.6648394305
 21
67.5673015157
 31
0.0
  0
LINE
  5
242
330
1F
100
AcDbEntity
  8
0
  6
Continuous
 62
     7
370
    15
100
AcDbLine
 10
207.3999869067
 20
72.8225694711
 30
0.0
 11
205.3925248224
 21
72.8225694711
 31
0.0
  0
LINE
  5
243
330
1F
100
AcDbEntity
  8
0
  6
Continuous
 62
     7
370
    15
100
AcDbLine
 10
214.8403080542
 20
68.1529287922
 30
0.0
 11
214.8403080542
 21
67.9043657819
 31
0.0
  0
SPLINE
  5
244
330
1F
100
AcDbEntity
  8
0
  6
Continuous
 62
     7
370
    15
100
AcDbSpline
210
0.0
220
0.0
230
1.0
 70
    24
 71
     3
 72
    11
 73
     7
 74
     0
 42
0.00000001
 43
0.00000001
 12
1.0
 22
0.0
 32
0.0
 13
1.0
 23
0.0
 33
0.0
 40
0.0
 40
0.0
 40
0.0
 40
0.0
 40
0.0092142405118227
 40
0.3448490479912
 40
0.6722307693845602
 40
1.0
 40
1.0
 40
1.0
 40
1.0
 10
214.8403080541695
 20
68.8493746074281
 30
0.0
 10
214.8403080541695
 20
68.8474475378918
 30
0.0
 10
214.8403080541694
 20
68.77532568540089
 30
0.0
 10
214.8403080541695
 20
68.62081396428496
 30
0.0
 10
214.8403080541694
 20
68.37583128681457
 30
0.0
 10
214.8403080541695
 20
68.22725891628264
 30
0.0
 10
214.8403080541695
 20
68.15292879216292
 30
0.0
  0
LINE
  5
245
330
1F
100
AcDbEntity
  8
0
  6
Continuous
 62
     7
370
    15
100
AcDbLine
 10
224.4804950792
 20
73.1733606753
 30
0.0
 11
215.0236295898
 21
78.0962967055
 31
0.0
  0
LINE
  5
246
330
1F
100
AcDbEntity
  8
0
  6
Continuous
 62
     7
370
    15
100
AcDbLine
 10
215.0236295898
 20
67.5488422366
 30
0.0
 11
224.4804950792
 21
72.4717782668
 31
0.0
  0
LINE
  5
247
330
1F
100
AcDbEntity
  8
0
  6
Continuous
 62
     7
370
    15
100
AcDbLine
 10
205.2001210291
 20
72.4717782668
 30
0.0
 11
214.6569865186
 21
67.5488422366
 31
0.0
  0
LINE
  5
248
330
1F
100
AcDbEntity
  8
0
  6
Continuous
 62
     7
370
    15
100
AcDbLine
 10
214.6569865186
 20
78.0962967055
 30
0.0
 11
205.2001210291
 21
73.1733606753
 31
0.0
  0
ARC
  5
249
330
1F
100
AcDbEntity
  8
0
  6
Continuous
 62
     7
370
    15
100
AcDbCircle
 10
224.2880891163
 20
72.8225694711
 30
0.0
 40
0.3800000000000208
100
AcDbArc
 50
297.5
 51
62.5
  0
ARC
  5
24A
330
1F
100
AcDbEntity
  8
0
  6
Continuous
 62
     7
370
    15
100
AcDbCircle
 10
214.8403076288
 20
77.7407732143
 30
0.0
 40
0.3799999999999945
100
AcDbArc
 50
62.5
 51
117.5
  0
LINE
  5
24B
330
1F
100
AcDbEntity
  8
0
  6
Continuous
 62
     7
370
    15
100
AcDbLine
 10
214.6648394305
 20
78.0778374264
 30
0.0
 11
205.2170636494
 21
73.1596335918
 31
0.0
  0
ARC
  5
24C
330
1F
100
AcDbEntity
  8
0
  6
Continuous
 62
     7
370
    15
100
AcDbCircle
 10
205.3925261413
 20
72.8225694711
 30
0.0
 40
0.3800000000000066
100
AcDbArc
 50
117.5
 51
242.5
  0
ARC
  5
24D
330
1F
100
AcDbEntity
  8
0
  6
Continuous
 62
     7
370
    15
100
AcDbCircle
 10
214.8403076288
 20
67.9043657279
 30
0.0
 40
0.3800000000000203
100
AcDbArc
 50
242.5
 51
297.5
  0
LINE
  5
24E
330
1F
100
AcDbEntity
  8
0
  6
Continuous
 62
     7
370
    15
100
AcDbLine
 10
215.0157692272
 20
67.5673015157
 30
0.0
 11
224.463552459
 21
72.4855053504
 31
0.0
  0
SPLINE
  5
24F
330
1F
100
AcDbEntity
  8
0
  6
Continuous
 62
     7
370
    15
100
AcDbSpline
210
0.0
220
0.0
230
1.0
 70
     8
 71
     3
 72
    10
 73
     6
 74
     0
 42
0.00000001
 43
0.00000001
 12
1.0
 22
0.0
 32
0.0
 13
1.0
 23
0.0
 33
0.0
 40
0.0
 40
0.0
 40
0.0
 40
0.0
 40
0.3518049704329291
 40
0.7034153775661658
 40
0.9999999999999999
 40
0.9999999999999999
 40
0.9999999999999999
 40
0.9999999999999999
 10
214.6569865185822
 20
67.54884223662236
 30
0.0
 10
214.6985964296574
 20
67.53222213630055
 30
0.0
 10
214.781793239735
 20
67.49899112728815
 30
0.0
 10
214.9128837812873
 20
67.50271096300065
 30
0.0
 10
214.9888643365875
 20
67.53436073679272
 30
0.0
 10
215.0236295897568
 20
67.54884223662236
 30
0.0
  0
SPLINE
  5
250
330
1F
100
AcDbEntity
  8
0
  6
Continuous
 62
     7
370
    15
100
AcDbSpline
210
0.0
220
0.0
230
1.0
 70
     8
 71
     3
 72
    10
 73
     6
 74
     0
 42
0.00000001
 43
0.00000001
 12
1.0
 22
0.0
 32
0.0
 13
1.0
 23
0.0
 33
0.0
 40
0.0
 40
0.0
 40
0.0
 40
0.0
 40
0.3518049704329291
 40
0.7034153775661658
 40
0.9999999999999999
 40
0.9999999999999999
 40
0.9999999999999999
 40
0.9999999999999999
 10
215.0236295897568
 20
78.09629670552829
 30
0.0
 10
214.9820196786816
 20
78.1129168058501
 30
0.0
 10
214.898822868604
 20
78.1461478148625
 30
0.0
 10
214.7677323270517
 20
78.14242797915
 30
0.0
 10
214.6917517717515
 20
78.11077820535792
 30
0.0
 10
214.6569865185822
 20
78.09629670552829
 30
0.0
  0
SPLINE
  5
251
330
1F
100
AcDbEntity
  8
0
  6
Continuous
 62
     7
370
    15
100
AcDbSpline
210
0.0
220
0.0
230
1.0
 70
     8
 71
     3
 72
    14
 73
    10
 74
     0
 42
0.00000001
 43
0.00000001
 12
1.0
 22
0.0
 32
0.0
 13
1.0
 23
0.0
 33
0.0
 40
0.0
 40
0.0
 40
0.0
 40
0.0
 40
0.1588523971279079
 40
0.3173320321568498
 40
0.4720154487332292
 40
0.6236434852023462
 40
0.774661858070209
 40
0.9277365760679052
 40
1.0
 40
1.0
 40
1.0
 40
1.0
 10
205.2001210290993
 20
73.1733606753304
 30
0.0
 10
205.1614917155666
 20
73.14821266737705
 30
0.0
 10
205.0843237358206
 20
73.09797566363763
 30
0.0
 10
205.0094854225896
 20
72.97999982584872
 30
0.0
 10
204.9773937854487
 20
72.84812935234325
 30
0.0
 10
204.9918487451159
 20
72.71465219651279
 30
0.0
 10
205.0493505304602
 20
72.59464449754451
 30
0.0
 10
205.126034805082
 20
72.51476745251139
 30
0.0
 10
205.1821314590573
 20
72.4822168736908
 30
0.0
 10
205.2001210290993
 20
72.47177826682025
 30
0.0
  0
SPLINE
  5
252
330
1F
100
AcDbEntity
  8
0
  6
Continuous
 62
     7
370
    15
100
AcDbSpline
210
0.0
220
0.0
230
1.0
 70
     8
 71
     3
 72
    14
 73
    10
 74
     0
 42
0.00000001
 43
0.00000001
 12
1.0
 22
0.0
 32
0.0
 13
1.0
 23
0.0
 33
0.0
 40
0.0
 40
0.0
 40
0.0
 40
0.0
 40
0.1588523971279079
 40
0.3173320321568498
 40
0.4720154487332292
 40
0.6236434852023462
 40
0.774661858070209
 40
0.9277365760679052
 40
1.0
 40
1.0
 40
1.0
 40
1.0
 10
224.4804950792397
 20
72.47177826682025
 30
0.0
 10
224.5191243927724
 20
72.4969262747736
 30
0.0
 10
224.5962923725183
 20
72.54716327851301
 30
0.0
 10
224.6711306857494
 20
72.66513911630192
 30
0.0
 10
224.7032223228903
 20
72.79700958980739
 30
0.0
 10
224.6887673632231
 20
72.93048674563786
 30
0.0
 10
224.6312655778788
 20
73.05049444460613
 30
0.0
 10
224.554581303257
 20
73.13037148963924
 30
0.0
 10
224.4984846492817
 20
73.16292206845984
 30
0.0
 10
224.4804950792397
 20
73.1733606753304
 30
0.0
  0
LINE
  5
253
330
1F
100
AcDbEntity
  8
0
  6
Continuous
 62
     7
370
    15
100
AcDbLine
 10
209.7385900457
 20
71.9355586425
 30
0.0
 11
214.3785583217
 21
69.520142928
 31
0.0
  0
ARC
  5
254
330
1F
100
AcDbEntity
  8
0
  6
Continuous
 62
     7
370
    15
100
AcDbCircle
 10
210.2003370071
 20
72.8225694711
 30
0.0
 40
1.000000000000033
100
AcDbArc
 50
117.5
 51
242.5
  0
LINE
  5
255
330
1F
100
AcDbEntity
  8
0
  6
Continuous
 62
     7
370
    15
100
AcDbLine
 10
214.3785583217
 20
76.1249960142
 30
0.0
 11
209.7385900457
 21
73.7095802997
 31
0.0
  0
ARC
  5
256
330
1F
100
AcDbEntity
  8
0
  6
Continuous
 62
     7
370
    15
100
AcDbCircle
 10
214.8403076288
 20
75.2379852922
 30
0.0
 40
1.00000000000002
100
AcDbArc
 50
62.5
 51
117.5
  0
LINE
  5
257
330
1F
100
AcDbEntity
  8
0
  6
Continuous
 62
     7
370
    15
100
AcDbLine
 10
219.9420260627
 20
73.7095802997
 30
0.0
 11
215.3020577867
 21
76.1249960142
 31
0.0
  0
ARC
  5
258
330
1F
100
AcDbEntity
  8
0
  6
Continuous
 62
     7
370
    15
100
AcDbCircle
 10
219.4802782505
 20
72.8225694711
 30
0.0
 40
1.000000000295363
100
AcDbArc
 50
297.5
 51
62.5
  0
LINE
  5
259
330
1F
100
AcDbEntity
  8
0
  6
Continuous
 62
     7
370
    15
100
AcDbLine
 10
215.3020577867
 20
69.520142928
 30
0.0
 11
219.9420260627
 21
71.9355586425
 31
0.0
  0
ARC
  5
25A
330
1F
100
AcDbEntity
  8
0
  6
Continuous
 62
     7
370
    15
100
AcDbCircle
 10
214.8403076288
 20
70.4071536499
 30
0.0
 40
1.00000000000002
100
AcDbArc
 50
242.5
 51
297.5
  0
CIRCLE
  5
25B
330
1F
100
AcDbEntity
  8
0
  6
Continuous
 62
     7
370
    15
100
AcDbCircle
 10
214.8403076288
 20
72.8225694711
 30
0.0
 40
3.050000000000008
  0
SPLINE
  5
25C
330
1F
100
AcDbEntity
  8
0
  6
Continuous
 62
     7
370
    15
100
AcDbSpline
210
0.0
220
0.0
230
1.0
 70
    24
 71
     3
 72
    11
 73
     7
 74
     0
 42
0.00000001
 43
0.00000001
 12
1.0
 22
0.0
 32
0.0
 13
1.0
 23
0.0
 33
0.0
 40
0.0
 40
0.0
 40
0.0
 40
0.0
 40
0.007296520375546
 40
0.126851034480034
 40
0.5874265321205067
 40
1.0
 40
1.0
 40
1.0
 40
1.0
 10
221.5930821735466
 20
72.82256947107533
 30
0.0
 10
221.5945815660993
 20
72.82256947107533
 30
0.0
 10
221.6206487168248
 20
72.82256947107537
 30
0.0
 10
221.7441229756846
 20
72.82256947107524
 30
0.0
 10
221.9757511618328
 20
72.82256947107561
 30
0.0
 10
222.1827973625735
 20
72.82256947107484
 30
0.0
 10
222.2806292016113
 20
72.82256947107449
 30
0.0
  0
SPLINE
  5
25D
330
1F
100
AcDbEntity
  8
0
  6
Continuous
 62
     7
370
    15
100
AcDbSpline
210
0.0
220
0.0
230
1.0
 70
    24
 71
     3
 72
    11
 73
     7
 74
     0
 42
0.00000001
 43
0.00000001
 12
1.0
 22
0.0
 32
0.0
 13
1.0
 23
0.0
 33
0.0
 40
0.0
 40
0.0
 40
0.0
 40
0.0
 40
0.4125631754624179
 40
0.8731489170277578
 40
0.9927034768351636
 40
1.0
 40
1.0
 40
1.0
 40
1.0
 10
207.3999869067276
 20
72.82256947107535
 30
0.0
 10
207.4978161811842
 20
72.82256947107537
 30
0.0
 10
207.7048621080284
 20
72.82256947107543
 30
0.0
 10
207.9364910457253
 20
72.82256947107508
 30
0.0
 10
208.0599673913828
 20
72.82256947107547
 30
0.0
 10
208.0860345422325
 20
72.82256947107537
 30
0.0
 10
208.0875339347923
 20
72.82256947107535
 30
0.0
  0
LINE
  5
25E
330
1F
100
AcDbEntity
  8
0
  6
Continuous
 62
     7
370
    15
100
AcDbLine
 10
129.6380890895
 20
92.6725702102
 30
0.0
 11
139.2961565767
 21
92.6725702102
 31
0.0
  0
LINE
  5
25F
330
1F
100
AcDbEntity
  8
0
  6
Continuous
 62
     7
370
    15
100
AcDbLine
 10
139.2961565767
 20
42.6356518383
 30
0.0
 11
139.2961565767
 21
92.6725702102
 31
0.0
  0
LINE
  5
260
330
1F
100
AcDbEntity
  8
0
  6
Continuous
 62
     7
370
    15
100
AcDbLine
 10
139.2961565767
 20
42.6356518383
 30
0.0
 11
137.6380894695
 21
42.6356518383
 31
0.0
  0
SPLINE
  5
261
330
1F
100
AcDbEntity
  8
0
  6
Continuous
 62
     7
370
    15
100
AcDbSpline
210
0.0
220
0.0
230
1.0
 70
     8
 71
     3
 72
    28
 73
    24
 74
     0
 42
0.00000001
 43
0.00000001
 12
1.0
 22
0.0
 32
0.0
 13
1.0
 23
0.0
 33
0.0
 40
0.0
 40
0.0
 40
0.0
 40
0.0
 40
0.1250000000000001
 40
0.1250000000000001
 40
0.1875000000000001
 40
0.1875000000000001
 40
0.2500000000000001
 40
0.2500000000000001
 40
0.375
 40
0.375
 40
0.4375000000000001
 40
0.4375000000000001
 40
0.5
 40
0.5
 40
0.625
 40
0.625
 40
0.7499999999999999
 40
0.7499999999999999
 40
0.8124999999999999
 40
0.8124999999999999
 40
0.875
 40
0.875
 40
1.0
 40
1.0
 40
1.0
 40
1.0
 10
137.6380891162956
 20
42.63565177482818
 30
0.0
 10
137.1063813588027
 20
42.63565177482818
 30
0.0
 10
136.5841427934924
 20
42.61986706087796
 30
0.0
 10
135.8142723072174
 20
42.57487164680176
 30
0.0
 10
135.559912735026
 20
42.55631665172603
 30
0.0
 10
135.0557911543275
 20
42.51246392927953
 30
0.0
 10
134.8060683368996
 20
42.48711932232734
 30
0.0
 10
134.0804783854532
 20
42.40371724457723
 30
0.0
 10
133.6221181238716
 20
42.33785168542614
 30
0.0
 10
132.9716201804778
 20
42.22888134493434
 30
0.0
 10
132.7599381296853
 20
42.1906417091677
 30
0.0
 10
132.3558666405473
 20
42.11288297174836
 30
0.0
 10
132.1633601267264
 20
42.073382009573
 30
0.0
 10
131.6135251557052
 20
41.954474267207
 30
0.0
 10
131.2835963773964
 20
41.87465658578238
 30
0.0
 10
130.6991251088277
 20
41.72131342398632
 30
0.0
 10
130.4528479708142
 20
41.64997967071706
 30
0.0
 10
130.1530051781162
 20
41.55603616364245
 30
0.0
 10
130.064548321044
 20
41.52684237028252
 30
0.0
 10
129.9111869677389
 20
41.4733757960191
 30
0.0
 10
129.8460987535126
 20
41.44901646174392
 30
0.0
 10
129.6905047375718
 20
41.3854263162992
 30
0.0
 10
129.6380891162956
 20
41.35532338120994
 30
0.0
 10
129.6380891162956
 20
41.33844648821302
 30
0.0
  0
LINE
  5
262
330
1F
100
AcDbEntity
  8
0
  6
Continuous
 62
     7
370
    15
100
AcDbLine
 10
129.6380890895
 20
41.3384461517
 30
0.0
 11
129.6380890895
 21
41.3225689644
 31
0.0
  0
SPLINE
  5
263
330
1F
100
AcDbEntity
  8
0
  6
Continuous
 62
     7
370
    15
100
AcDbSpline
210
0.0
220
0.0
230
1.0
 70
     8
 71
     3
 72
    17
 73
    13
 74
     0
 42
0.00000001
 43
0.00000001
 12
1.0
 22
0.0
 32
0.0
 13
1.0
 23
0.0
 33
0.0
 40
0.0
 40
0.0
 40
0.0
 40
0.0
 40
0.1034797280380778
 40
0.2100239090909901
 40
0.3134862262879433
 40
0.4198361712144981
 40
0.5254127947779869
 40
0.6339610881168427
 40
0.7409508662120068
 40
0.8511696072047016
 40
0.9558996557845765
 40
1.0
 40
1.0
 40
1.0
 40
1.0
 10
137.6380894694531
 20
103.2897649074338
 30
0.0
 10
137.2028409777272
 20
103.2952128990714
 30
0.0
 10
136.3194545271502
 20
103.3062702194
 30
0.0
 10
135.0386266649275
 20
103.3926289797751
 30
0.0
 10
133.8212104694855
 20
103.5205001229081
 30
0.0
 10
132.7134038531597
 20
103.6794445302266
 30
0.0
 10
131.7251653738309
 20
103.8539391032112
 30
0.0
 10
130.9004422740151
 20
104.023105536398
 30
0.0
 10
130.2514886165165
 20
104.1709863448657
 30
0.0
 10
129.8344533130368
 20
104.2727770963883
 30
0.0
 10
129.6358565701589
 20
104.3231339960228
 30
0.0
 10
129.6591696871468
 20
104.3172243910473
 30
0.0
 10
129.6660776611472
 20
104.3154732996962
 30
0.0
  0
LINE
  5
264
330
1F
100
AcDbEntity
  8
0
  6
Continuous
 62
     7
370
    15
100
AcDbLine
 10
139.2961565767
 20
103.2897649074
 30
0.0
 11
137.6380894695
 21
103.2897649074
 31
0.0
  0
LINE
  5
265
330
1F
100
AcDbEntity
  8
0
  6
Continuous
 62
     7
370
    15
100
AcDbLine
 10
139.2961565767
 20
97.2812590862
 30
0.0
 11
139.2961565767
 21
103.2897649074
 31
0.0
  0
LINE
  5
266
330
1F
100
AcDbEntity
  8
0
  6
Continuous
 62
     7
370
    15
100
AcDbLine
 10
136.8837098021
 20
97.2812590862
 30
0.0
 11
139.2961565767
 21
97.2812590862
 31
0.0
  0
SPLINE
  5
267
330
1F
100
AcDbEntity
  8
0
  6
Continuous
 62
     7
370
    15
100
AcDbSpline
210
0.0
220
0.0
230
1.0
 70
     8
 71
     3
 72
    20
 73
    16
 74
     0
 42
0.00000001
 43
0.00000001
 12
1.0
 22
0.0
 32
0.0
 13
1.0
 23
0.0
 33
0.0
 40
0.0
 40
0.0
 40
0.0
 40
0.0
 40
0.2500000000000005
 40
0.2500000000000005
 40
0.3750000000000004
 40
0.3750000000000004
 40
0.5000000000000003
 40
0.5000000000000003
 40
0.6250000000000002
 40
0.6250000000000002
 40
0.7500000000000001
 40
0.7500000000000001
 40
0.8750000000000001
 40
0.8750000000000001
 40
1.0
 40
1.0
 40
1.0
 40
1.0
 10
129.6380891162956
 20
92.67256947107533
 30
0.0
 10
129.8864628505837
 20
93.32643189937274
 30
0.0
 10
130.206032942929
 20
93.93021768136987
 30
0.0
 10
130.8283391761337
 20
94.75705641753845
 30
0.0
 10
131.0597634365644
 20
95.01948505549137
 30
0.0
 10
131.5809777762141
 20
95.51614770959634
 30
0.0
 10
131.8675982588492
 20
95.74673458861788
 30
0.0
 10
132.4870830001568
 20
96.1632888132005
 30
0.0
 10
132.8213833796438
 20
96.35078661516802
 30
0.0
 10
133.5466438522685
 20
96.68218359280442
 30
0.0
 10
133.928558909659
 20
96.8216875802997
 30
0.0
 10
134.7233470858307
 20
97.04714108777064
 30
0.0
 10
135.1375052800371
 20
97.13376719931428
 30
0.0
 10
136.0030516206185
 20
97.2517479881684
 30
0.0
 10
136.4409392356303
 20
97.28125913344273
 30
0.0
 10
136.8837094619849
 20
97.28125913344273
 30
0.0
  0
LINE
  5
268
330
1F
100
AcDbEntity
  8
0
  6
Continuous
 62
     7
370
    15
100
AcDbLine
 10
124.6880891163
 20
41.6225703175
 30
0.0
 11
124.6880891163
 21
104.0225686247
 31
0.0
  0
LINE
  5
269
330
1F
100
AcDbEntity
  8
0
  6
Continuous
 62
     7
370
    15
100
AcDbLine
 10
140.7780891646
 20
45.3247321511
 30
0.0
 11
140.7780891646
 21
92.6725702102
 31
0.0
  0
SPLINE
  5
26A
330
1F
100
AcDbEntity
  8
0
  6
Continuous
 62
     7
370
    15
100
AcDbSpline
210
0.0
220
0.0
230
1.0
 70
     8
 71
     3
 72
     8
 73
     4
 74
     0
 42
0.00000001
 43
0.00000001
 12
1.0
 22
0.0
 32
0.0
 13
1.0
 23
0.0
 33
0.0
 40
0.0
 40
0.0
 40
0.0
 40
0.0
 40
1.0
 40
1.0
 40
1.0
 40
1.0
 10
140.7780891162956
 20
45.32473231202046
 30
0.0
 10
140.2857499935145
 20
44.42746227781377
 30
0.0
 10
139.7916359454723
 20
43.53117786276152
 30
0.0
 10
139.2961562848066
 20
42.63565177482818
 30
0.0
  0
SPLINE
  5
26B
330
1F
100
AcDbEntity
  8
0
  6
Continuous
 62
     7
370
    15
100
AcDbSpline
210
0.0
220
0.0
230
1.0
 70
    24
 71
     3
 72
     8
 73
     4
 74
     0
 42
0.00000001
 43
0.00000001
 12
1.0
 22
0.0
 32
0.0
 13
1.0
 23
0.0
 33
0.0
 40
0.0
 40
0.0
 40
0.0
 40
0.0
 40
1.0
 40
1.0
 40
1.0
 40
1.0
 10
139.2961562848066
 20
92.67256947107533
 30
0.0
 10
139.8028363929571
 20
92.67256947107533
 30
0.0
 10
140.2981371219307
 20
92.67256947107533
 30
0.0
 10
140.7780891162956
 20
92.67256947107533
 30
0.0
  0
LINE
  5
26C
330
1F
100
AcDbEntity
  8
0
  6
Continuous
 62
     7
370
    15
100
AcDbLine
 10
146.0800210375
 20
42.6356518383
 30
0.0
 11
146.0800210375
 21
92.6725702102
 31
0.0
  0
SPLINE
  5
26D
330
1F
100
AcDbEntity
  8
0
  6
Continuous
 62
     7
370
    15
100
AcDbSpline
210
0.0
220
0.0
230
1.0
 70
     8
 71
     3
 72
     8
 73
     4
 74
     0
 42
0.00000001
 43
0.00000001
 12
1.0
 22
0.0
 32
0.0
 13
1.0
 23
0.0
 33
0.0
 40
0.0
 40
0.0
 40
0.0
 40
0.0
 40
1.0
 40
1.0
 40
1.0
 40
1.0
 10
146.0800219477847
 20
42.63565177482817
 30
0.0
 10
145.5845422871189
 20
43.53117786276152
 30
0.0
 10
145.0904282390768
 20
44.42746227781376
 30
0.0
 10
144.5980891162956
 20
45.32473231202046
 30
0.0
  0
LINE
  5
26E
330
1F
100
AcDbEntity
  8
0
  6
Continuous
 62
     7
370
    15
100
AcDbLine
 10
144.5980893809
 20
45.3247321511
 30
0.0
 11
144.5980893809
 21
92.6725702102
 31
0.0
  0
SPLINE
  5
26F
330
1F
100
AcDbEntity
  8
0
  6
Continuous
 62
     7
370
    15
100
AcDbSpline
210
0.0
220
0.0
230
1.0
 70
    24
 71
     3
 72
     8
 73
     4
 74
     0
 42
0.00000001
 43
0.00000001
 12
1.0
 22
0.0
 32
0.0
 13
1.0
 23
0.0
 33
0.0
 40
0.0
 40
0.0
 40
0.0
 40
0.0
 40
1.0
 40
1.0
 40
1.0
 40
1.0
 10
144.5980891162956
 20
92.67256947107533
 30
0.0
 10
145.0780411106605
 20
92.67256947107533
 30
0.0
 10
145.5733418396342
 20
92.67256947107533
 30
0.0
 10
146.0800219477847
 20
92.67256947107533
 30
0.0
  0
LINE
  5
270
330
1F
100
AcDbEntity
  8
0
  6
Continuous
 62
     7
370
    15
100
AcDbLine
 10
150.6380888064
 20
43.2622922326
 30
0.0
 11
150.6380888064
 21
92.6725702102
 31
0.0
  0
SPLINE
  5
271
330
1F
100
AcDbEntity
  8
0
  6
Continuous
 62
     7
370
    15
100
AcDbSpline
210
0.0
220
0.0
230
1.0
 70
     8
 71
     3
 72
    10
 73
     6
 74
     0
 42
0.00000001
 43
0.00000001
 12
1.0
 22
0.0
 32
0.0
 13
1.0
 23
0.0
 33
0.0
 40
0.0
 40
0.0
 40
0.0
 40
0.0
 40
0.5
 40
0.5
 40
1.0
 40
1.0
 40
1.0
 40
1.0
 10
150.6380891162956
 20
43.2622920704825
 30
0.0
 10
150.6380891162956
 20
43.10240480228885
 30
0.0
 10
150.5767794650598
 20
42.94127754677424
 30
0.0
 10
150.3576798275247
 20
42.70717854841941
 30
0.0
 10
150.1996316212112
 20
42.63565177482818
 30
0.0
 10
150.0380891162957
 20
42.63565177482818
 30
0.0
  0
SPLINE
  5
272
330
1F
100
AcDbEntity
  8
0
  6
Continuous
 62
     7
370
    15
100
AcDbSpline
210
0.0
220
0.0
230
1.0
 70
    24
 71
     3
 72
    12
 73
     8
 74
     0
 42
0.00000001
 43
0.00000001
 12
1.0
 22
0.0
 32
0.0
 13
1.0
 23
0.0
 33
0.0
 40
0.0
 40
0.0
 40
0.0
 40
0.0
 40
0.25
 40
0.25
 40
0.5
 40
0.5
 40
1.0
 40
1.0
 40
1.0
 40
1.0
 10
150.0380891162956
 20
92.67256947107533
 30
0.0
 10
150.1287547521456
 20
92.67256947107533
 30
0.0
 10
150.2191851578766
 20
92.67256947107533
 30
0.0
 10
150.3733596262915
 20
92.67256947107533
 30
0.0
 10
150.438443284619
 20
92.67256947107533
 30
0.0
 10
150.5916950609562
 20
92.67256947107533
 30
0.0
 10
150.6380891162956
 20
92.67256947107533
 30
0.0
 10
150.6380891162956
 20
92.67256947107533
 30
0.0
  0
LINE
  5
273
330
1F
100
AcDbEntity
  8
0
  6
Continuous
 62
     7
370
    15
100
AcDbLine
 10
150.0380898256
 20
42.6356518383
 30
0.0
 11
146.0800210375
 21
42.6356518383
 31
0.0
  0
LINE
  5
274
330
1F
100
AcDbEntity
  8
0
  6
Continuous
 62
     7
370
    15
100
AcDbLine
 10
146.0800210375
 20
92.6725702102
 30
0.0
 11
150.0380898256
 21
92.6725702102
 31
0.0
  0
SPLINE
  5
275
330
1F
100
AcDbEntity
  8
0
  6
Continuous
 62
     7
370
    15
100
AcDbSpline
210
0.0
220
0.0
230
1.0
 70
     8
 71
     3
 72
    10
 73
     6
 74
     0
 42
0.00000001
 43
0.00000001
 12
1.0
 22
0.0
 32
0.0
 13
1.0
 23
0.0
 33
0.0
 40
0.0
 40
0.0
 40
0.0
 40
0.0
 40
0.5
 40
0.5
 40
1.0
 40
1.0
 40
1.0
 40
1.0
 10
141.1723866479866
 20
99.22256947107533
 30
0.0
 10
141.0508463843181
 20
99.2972956382871
 30
0.0
 10
140.9495120239692
 20
99.40624065420387
 30
0.0
 10
140.8138730810807
 20
99.65667113496548
 30
0.0
 10
140.7780891162956
 20
99.79909049706441
 30
0.0
 10
140.7780891162956
 20
99.94222332211112
 30
0.0
  0
SPLINE
  5
276
330
1F
100
AcDbEntity
  8
0
  6
Continuous
 62
     7
370
    15
100
AcDbSpline
210
0.0
220
0.0
230
1.0
 70
    24
 71
     3
 72
    12
 73
     8
 74
     0
 42
0.00000001
 43
0.00000001
 12
1.0
 22
0.0
 32
0.0
 13
1.0
 23
0.0
 33
0.0
 40
0.0
 40
0.0
 40
0.0
 40
0.0
 40
0.2500000000000012
 40
0.2500000000000012
 40
0.5000000000000024
 40
0.5000000000000024
 40
1.0
 40
1.0
 40
1.0
 40
1.0
 10
141.5780891162956
 20
99.22256947107533
 30
0.0
 10
141.528745754486
 20
99.22256947107532
 30
0.0
 10
141.4800550561844
 20
99.22256947107533
 30
0.0
 10
141.397203958614
 20
99.22256947107533
 30
0.0
 10
141.3610039909934
 20
99.22256947107533
 30
0.0
 10
141.265254074444
 20
99.22256947107533
 30
0.0
 10
141.2153721046319
 20
99.22256947107533
 30
0.0
 10
141.1723866479866
 20
99.22256947107533
 30
0.0
  0
SPLINE
  5
277
330
1F
100
AcDbEntity
  8
0
  6
Continuous
 62
     7
370
    15
100
AcDbSpline
210
0.0
220
0.0
230
1.0
 70
    24
 71
     3
 72
    14
 73
    10
 74
     0
 42
0.00000001
 43
0.00000001
 12
1.0
 22
0.0
 32
0.0
 13
1.0
 23
0.0
 33
0.0
 40
0.0
 40
0.0
 40
0.0
 40
0.0
 40
0.1250000000000007
 40
0.1250000000000007
 40
0.2500000000000014
 40
0.2500000000000014
 40
0.5000000000000002
 40
0.5000000000000002
 40
1.0
 40
1.0
 40
1.0
 40
1.0
 10
141.5780891162956
 20
46.42256947107532
 30
0.0
 10
141.5087423945645
 20
46.42256947107531
 30
0.0
 10
141.4435443411806
 20
46.42256947107533
 30
0.0
 10
141.3391651485536
 20
46.42256947107531
 30
0.0
 10
141.2962627775446
 20
46.42256947107532
 30
0.0
 10
141.1839371199399
 20
46.42256947107531
 30
0.0
 10
141.128713425586
 20
46.42256947107531
 30
0.0
 10
140.9846560468185
 20
46.42256947107533
 30
0.0
 10
140.922575349987
 20
46.42256947107532
 30
0.0
 10
140.8757639186279
 20
46.42256947107532
 30
0.0
  0
SPLINE
  5
278
330
1F
100
AcDbEntity
  8
0
  6
Continuous
 62
     7
370
    15
100
AcDbSpline
210
0.0
220
0.0
230
1.0
 70
     8
 71
     3
 72
    10
 73
     6
 74
     0
 42
0.00000001
 43
0.00000001
 12
1.0
 22
0.0
 32
0.0
 13
1.0
 23
0.0
 33
0.0
 40
0.0
 40
0.0
 40
0.0
 40
0.0
 40
0.5
 40
0.5
 40
1.0
 40
1.0
 40
1.0
 40
1.0
 10
140.7780891162956
 20
92.95843610253671
 30
0.0
 10
140.7780891162956
 20
92.9103892990301
 30
0.0
 10
140.7803049068395
 20
92.86203618689349
 30
0.0
 10
140.7890419674415
 20
92.76666413981921
 30
0.0
 10
140.795555602537
 20
92.7194024322984
 30
0.0
 10
140.8042367394558
 20
92.67256947107533
 30
0.0
  0
SPLINE
  5
279
330
1F
100
AcDbEntity
  8
0
  6
Continuous
 62
     7
370
    15
100
AcDbSpline
210
0.0
220
0.0
230
1.0
 70
    24
 71
     3
 72
    14
 73
    10
 74
     0
 42
0.00000001
 43
0.00000001
 12
1.0
 22
0.0
 32
0.0
 13
1.0
 23
0.0
 33
0.0
 40
0.0
 40
0.0
 40
0.0
 40
0.0
 40
0.5000000000000027
 40
0.5000000000000027
 40
0.7500000000000013
 40
0.7500000000000013
 40
0.8750000000000007
 40
0.8750000000000007
 40
1.0
 40
1.0
 40
1.0
 40
1.0
 10
144.5004143139633
 20
46.42256947107532
 30
0.0
 10
144.4536296089152
 20
46.42256947107532
 30
0.0
 10
144.3915784121355
 20
46.42256947107533
 30
0.0
 10
144.2481867735852
 20
46.42256947107533
 30
0.0
 10
144.1920431200339
 20
46.42256947107533
 30
0.0
 10
144.0790920978975
 20
46.42256947107532
 30
0.0
 10
144.0360913358594
 20
46.42256947107532
 30
0.0
 10
143.932028625553
 20
46.42256947107531
 30
0.0
 10
143.866696387196
 20
46.42256947107533
 30
0.0
 10
143.7980891162956
 20
46.42256947107532
 30
0.0
  0
SPLINE
  5
27A
330
1F
100
AcDbEntity
  8
0
  6
Continuous
 62
     7
370
    15
100
AcDbSpline
210
0.0
220
0.0
230
1.0
 70
    24
 71
     3
 72
    12
 73
     8
 74
     0
 42
0.00000001
 43
0.00000001
 12
1.0
 22
0.0
 32
0.0
 13
1.0
 23
0.0
 33
0.0
 40
0.0
 40
0.0
 40
0.0
 40
0.0
 40
0.5000000000000024
 40
0.5000000000000024
 40
0.7500000000000012
 40
0.7500000000000012
 40
1.0
 40
1.0
 40
1.0
 40
1.0
 10
144.2037915846047
 20
99.22256947107533
 30
0.0
 10
144.1607060349939
 20
99.22256947107532
 30
0.0
 10
144.1115538332467
 20
99.22256947107533
 30
0.0
 10
144.0150812389572
 20
99.22256947107533
 30
0.0
 10
143.978979653823
 20
99.22256947107533
 30
0.0
 10
143.8958738959604
 20
99.22256947107533
 30
0.0
 10
143.8478772989964
 20
99.22256947107533
 30
0.0
 10
143.7980891162956
 20
99.22256947107533
 30
0.0
  0
SPLINE
  5
27B
330
1F
100
AcDbEntity
  8
0
  6
Continuous
 62
     7
370
    15
100
AcDbSpline
210
0.0
220
0.0
230
1.0
 70
     8
 71
     3
 72
    10
 73
     6
 74
     0
 42
0.00000001
 43
0.00000001
 12
1.0
 22
0.0
 32
0.0
 13
1.0
 23
0.0
 33
0.0
 40
0.0
 40
0.0
 40
0.0
 40
0.0
 40
0.5
 40
0.5
 40
1.0
 40
1.0
 40
1.0
 40
1.0
 10
144.5980891162956
 20
99.94222332211112
 30
0.0
 10
144.5980891162956
 20
99.7984532642931
 30
0.0
 10
144.5620400575768
 20
99.65603390179793
 30
0.0
 10
144.4265311968027
 20
99.40613960844072
 30
0.0
 10
144.3266552037066
 20
99.29810927219252
 30
0.0
 10
144.2037915846046
 20
99.2225694710753
 30
0.0
  0
SPLINE
  5
27C
330
1F
100
AcDbEntity
  8
0
  6
Continuous
 62
     7
370
    15
100
AcDbSpline
210
0.0
220
0.0
230
1.0
 70
     8
 71
     3
 72
     9
 73
     5
 74
     0
 42
0.00000001
 43
0.00000001
 12
1.0
 22
0.0
 32
0.0
 13
1.0
 23
0.0
 33
0.0
 40
0.0
 40
0.0
 40
0.0
 40
0.0
 40
0.5
 40
1.0
 40
1.0
 40
1.0
 40
1.0
 10
144.5719414931355
 20
92.67256947107533
 30
0.0
 10
144.5806731562118
 20
92.71967501060233
 30
0.0
 10
144.5936924991882
 20
92.81443364530466
 30
0.0
 10
144.5980891162956
 20
92.91025471027872
 30
0.0
 10
144.5980891162956
 20
92.95843610253671
 30
0.0
  0
LINE
  5
27D
330
1F
100
AcDbEntity
  8
0
  6
Continuous
 62
     7
370
    15
100
AcDbLine
 10
143.7980888773
 20
99.222569328
 30
0.0
 11
141.5780896682
 21
99.222569328
 31
0.0
  0
LINE
  5
27E
330
1F
100
AcDbEntity
  8
0
  6
Continuous
 62
     7
370
    15
100
AcDbLine
 10
143.7980888773
 20
46.4225696141
 30
0.0
 11
141.5780896682
 21
46.4225696141
 31
0.0
  0
LINE
  5
27F
330
1F
100
AcDbEntity
  8
0
  6
Continuous
 62
     7
370
    15
100
AcDbLine
 10
150.8380884666
 20
99.222569328
 30
0.0
 11
150.8104207356
 21
99.222569328
 31
0.0
  0
SPLINE
  5
280
330
1F
100
AcDbEntity
  8
0
  6
Continuous
 62
     7
370
    15
100
AcDbSpline
210
0.0
220
0.0
230
1.0
 70
    24
 71
     3
 72
    10
 73
     6
 74
     0
 42
0.00000001
 43
0.00000001
 12
1.0
 22
0.0
 32
0.0
 13
1.0
 23
0.0
 33
0.0
 40
0.0
 40
0.0
 40
0.0
 40
0.0
 40
0.5
 40
0.5
 40
1.0
 40
1.0
 40
1.0
 40
1.0
 10
150.8380891162643
 20
46.42256947107532
 30
0.0
 10
150.8380878561179
 20
46.42256947107532
 30
0.0
 10
150.7948829352364
 20
46.42256947107531
 30
0.0
 10
150.6939559694749
 20
46.42256947107533
 30
0.0
 10
150.6380891162956
 20
46.42256947107532
 30
0.0
 10
150.6380891162956
 20
46.42256947107532
 30
0.0
  0
SPLINE
  5
281
330
1F
100
AcDbEntity
  8
0
  6
Continuous
 62
     7
370
    15
100
AcDbSpline
210
0.0
220
0.0
230
1.0
 70
     8
 71
     3
 72
    70
 73
    66
 74
     0
 42
0.00000001
 43
0.00000001
 12
1.0
 22
0.0
 32
0.0
 13
1.0
 23
0.0
 33
0.0
 40
-0.03125
 40
-0.03125
 40
0.0
 40
0.0
 40
0.0312500000000002
 40
0.0312500000000002
 40
0.0625000000000004
 40
0.0625000000000004
 40
0.0937500000000004
 40
0.0937500000000004
 40
0.1250000000000004
 40
0.1250000000000004
 40
0.1562500000000004
 40
0.1562500000000004
 40
0.1875000000000004
 40
0.1875000000000004
 40
0.2187500000000003
 40
0.2187500000000003
 40
0.2500000000000003
 40
0.2500000000000003
 40
0.2812500000000003
 40
0.2812500000000003
 40
0.3125000000000003
 40
0.3125000000000003
 40
0.3437500000000003
 40
0.3437500000000003
 40
0.3750000000000003
 40
0.3750000000000003
 40
0.4062500000000003
 40
0.4062500000000003
 40
0.4375000000000002
 40
0.4375000000000002
 40
0.4687500000000002
 40
0.4687500000000002
 40
0.5000000000000002
 40
0.5000000000000002
 40
0.5312500000000002
 40
0.5312500000000002
 40
0.5625000000000002
 40
0.5625000000000002
 40
0.5937500000000002
 40
0.5937500000000002
 40
0.6250000000000001
 40
0.6250000000000001
 40
0.6562500000000001
 40
0.6562500000000001
 40
0.6875000000000001
 40
0.6875000000000001
 40
0.7187500000000001
 40
0.7187500000000001
 40
0.7500000000000001
 40
0.7500000000000001
 40
0.7812500000000001
 40
0.7812500000000001
 40
0.8125000000000001
 40
0.8125000000000001
 40
0.8437500000000001
 40
0.8437500000000001
 40
0.875
 40
0.875
 40
0.90625
 40
0.90625
 40
0.9375
 40
0.9375
 40
0.96875
 40
0.96875
 40
1.0
 40
1.0
 40
1.03125
 40
1.03125
 10
155.6880891162956
 20
73.02094068137865
 30
0.0
 10
155.6880891162956
 20
72.62419826077199
 30
0.0
 10
155.7075706831748
 20
72.4291748020154
 30
0.0
 10
155.7838725287538
 20
72.04553954342448
 30
0.0
 10
155.8416308940293
 20
71.85492725112293
 30
0.0
 10
155.9922682453555
 20
71.49170294555668
 30
0.0
 10
156.0844251639162
 20
71.31945661196823
 30
0.0
 10
156.3021244015477
 20
70.99347498906758
 30
0.0
 10
156.4287287232596
 20
70.83925960370287
 30
0.0
 10
156.7052629869966
 20
70.56278453515638
 30
0.0
 10
156.8561817122849
 20
70.43866214694978
 30
0.0
 10
157.1840487800119
 20
70.21934809483388
 30
0.0
 10
157.3584151569465
 20
70.12625148532285
 30
0.0
 10
157.7193206532847
 20
69.97658085838923
 30
0.0
 10
157.9085323635574
 20
69.9189024309118
 30
0.0
 10
158.2958504438914
 20
69.84177430287902
 30
0.0
 10
158.4906064495633
 20
69.8226780180268
 30
0.0
 10
158.8822599803776
 20
69.82246183812698
 30
0.0
 10
159.0811947218455
 20
69.84197094905997
 30
0.0
 10
159.4660733621666
 20
69.918565325119
 30
0.0
 10
159.65315737019
 20
69.97523566741886
 30
0.0
 10
160.0165664398602
 20
70.12556844680887
 30
0.0
 10
160.192025568466
 20
70.21942864639182
 30
0.0
 10
160.5169316070585
 20
70.4364634069447
 30
0.0
 10
160.6685013335691
 20
70.56045542606793
 30
0.0
 10
160.9485886065361
 20
70.84031455367239
 30
0.0
 10
161.0726083896268
 20
70.9916608373225
 30
0.0
 10
161.2899029786491
 20
71.31634132909153
 30
0.0
 10
161.3839342925162
 20
71.49175339537747
 30
0.0
 10
161.5345595665269
 20
71.85496489406677
 30
0.0
 10
161.5913833640156
 20
72.04195463980417
 30
0.0
 10
161.668311314196
 20
72.42664946048451
 30
0.0
 10
161.6880160374698
 20
72.62559557950144
 30
0.0
 10
161.6881617798315
 20
73.0173109916915
 30
0.0
 10
161.6692393333062
 20
73.2120834762904
 30
0.0
 10
161.5924825550814
 20
73.59940698907963
 30
0.0
 10
161.5349572258899
 20
73.78876150942645
 30
0.0
 10
161.3855646624482
 20
74.14990167000191
 30
0.0
 10
161.2925498553557
 20
74.324456194464
 30
0.0
 10
161.0735668201455
 20
74.6524261855837
 30
0.0
 10
160.9495816516169
 20
74.80345143795789
 30
0.0
 10
160.6732891457302
 20
75.08027244028258
 30
0.0
 10
160.5191476018775
 20
75.20702201923311
 30
0.0
 10
160.1934567202971
 20
75.42492561673649
 30
0.0
 10
160.0213246592276
 20
75.51721889769495
 30
0.0
 10
159.6582489843429
 20
75.6681700009721
 30
0.0
 10
159.4676923653172
 20
75.72609481940862
 30
0.0
 10
159.0841696912539
 20
75.80273068356698
 30
0.0
 10
158.8891947667444
 20
75.82238468642188
 30
0.0
 10
158.4925348358478
 20
75.8227516875858
 30
0.0
 10
158.2973881751399
 20
75.80344247291008
 30
0.0
 10
157.9136762802312
 20
75.72748527670994
 30
0.0
 10
157.7230347943406
 20
75.66990737287261
 30
0.0
 10
157.359641244291
 20
75.51958434361532
 30
0.0
 10
157.1873043919106
 20
75.42757625583013
 30
0.0
 10
156.8611246531978
 20
75.21016574937362
 30
0.0
 10
156.706796284537
 20
75.08369904159929
 30
0.0
 10
156.4300718147805
 20
74.80740852901793
 30
0.0
 10
156.3058150320889
 20
74.65660009250028
 30
0.0
 10
156.0862108135783
 20
74.32893178820088
 30
0.0
 10
155.9929540371151
 20
74.15463972009331
 30
0.0
 10
155.8429614575099
 20
73.79386389016823
 30
0.0
 10
155.7851606714436
 20
73.60495189315918
 30
0.0
 10
155.7075730487573
 20
73.21708155132465
 30
0.0
 10
155.6880891162956
 20
73.02094068137865
 30
0.0
 10
155.6880891162956
 20
72.62419826077199
 30
0.0
  0
SPLINE
  5
282
330
1F
100
AcDbEntity
  8
0
  6
Continuous
 62
     7
370
    15
100
AcDbSpline
210
0.0
220
0.0
230
1.0
 70
     8
 71
     3
 72
     8
 73
     4
 74
     0
 42
0.00000001
 43
0.00000001
 12
1.0
 22
0.0
 32
0.0
 13
1.0
 23
0.0
 33
0.0
 40
0.0
 40
0.0
 40
0.0
 40
0.0
 40
1.0
 40
1.0
 40
1.0
 40
1.0
 10
175.8402008544536
 20
98.62557150189416
 30
0.0
 10
175.6991526382079
 20
98.58757337832698
 30
0.0
 10
175.5844176553704
 20
98.54271796583477
 30
0.0
 10
175.496496086435
 20
98.48970176031115
 30
0.0
  0
ELLIPSE
  5
283
330
1F
100
AcDbEntity
  8
0
  6
Continuous
 62
     7
370
    15
100
AcDbEllipse
 10
176.6077043586
 20
72.8225694711
 30
0.0
 11
0.0
 21
25.99999999999999
 31
0.0
210
0.0
220
0.0
230
1.0
 40
0.2679491924
 41
0.1601874882047423
 42
2.98140516538505
  0
SPLINE
  5
284
330
1F
100
AcDbEntity
  8
0
  6
Continuous
 62
     7
370
    15
100
AcDbSpline
210
0.0
220
0.0
230
1.0
 70
     8
 71
     3
 72
     8
 73
     4
 74
     0
 42
0.00000001
 43
0.00000001
 12
1.0
 22
0.0
 32
0.0
 13
1.0
 23
0.0
 33
0.0
 40
0.0
 40
0.0
 40
0.0
 40
0.0
 40
1.0
 40
1.0
 40
1.0
 40
1.0
 10
175.496496086435
 20
47.1554371818395
 30
0.0
 10
175.5845440318771
 20
47.1023447720018
 30
0.0
 10
175.6993530733197
 20
47.05751156698238
 30
0.0
 10
175.8402008544536
 20
47.01956744025647
 30
0.0
  0
ELLIPSE
  5
285
330
1F
100
AcDbEntity
  8
0
  6
Continuous
 62
     7
370
    15
100
AcDbEllipse
 10
224.5578396009
 20
72.8225694711
 30
0.0
 11
50.4009808414489
 21
25.84618980319092
 31
0.0
210
0.0
220
0.0
230
1.0
 40
0.0560288874
 41
3.25041929329857
 42
3.373597476793774
  0
ELLIPSE
  5
286
330
1F
100
AcDbEntity
  8
0
  6
Continuous
 62
     7
370
    15
100
AcDbEllipse
 10
224.5578396009
 20
72.8225694711
 30
0.0
 11
50.40098084144891
 21
-25.84618980319092
 31
0.0
210
0.0
220
0.0
230
1.0
 40
0.0560288874
 41
2.909587830386057
 42
3.032766013881279
  0
ELLIPSE
  5
287
330
1F
100
AcDbEntity
  8
0
  6
Continuous
 62
     7
370
    15
100
AcDbEllipse
 10
173.4372809121
 20
72.8225694711
 30
0.0
 11
0.0
 21
2.5
 31
0.0
210
0.0
220
0.0
230
1.0
 40
0.293130699
 41
0.0
 42
6.283185307179586
  0
LINE
  5
288
330
1F
100
AcDbEntity
  8
0
  6
Continuous
 62
     7
370
    15
100
AcDbLine
 10
102.8880888958
 20
49.5941234494
 30
0.0
 11
102.8880888958
 21
50.8774207646
 31
0.0
  0
SPLINE
  5
289
330
1F
100
AcDbEntity
  8
0
  6
Continuous
 62
     7
370
    15
100
AcDbSpline
210
0.0
220
0.0
230
1.0
 70
     8
 71
     3
 72
    14
 73
    10
 74
     0
 42
0.00000001
 43
0.00000001
 12
1.0
 22
0.0
 32
0.0
 13
1.0
 23
0.0
 33
0.0
 40
0.0
 40
0.0
 40
0.0
 40
0.0
 40
0.25
 40
0.25
 40
0.5
 40
0.5
 40
0.75
 40
0.75
 40
1.0
 40
1.0
 40
1.0
 40
1.0
 10
102.2664848795559
 20
51.95819825379211
 30
0.0
 10
102.3049212643769
 20
51.85557385608058
 30
0.0
 10
102.3737226577687
 20
51.75637743264101
 30
0.0
 10
102.5170086699277
 20
51.56548540331449
 30
0.0
 10
102.5921907250346
 20
51.47322813728159
 30
0.0
 10
102.7243780136847
 20
51.29362081546658
 30
0.0
 10
102.7818952091545
 20
51.20631126102224
 30
0.0
 10
102.8639400074468
 20
51.03637742750649
 30
0.0
 10
102.8880891162956
 20
50.95447508563532
 30
0.0
 10
102.8880891162956
 20
50.87742121179942
 30
0.0
  0
SPLINE
  5
28A
330
1F
100
AcDbEntity
  8
0
  6
Continuous
 62
     7
370
    15
100
AcDbSpline
210
0.0
220
0.0
230
1.0
 70
     8
 71
     3
 72
    18
 73
    14
 74
     0
 42
0.00000001
 43
0.00000001
 12
1.0
 22
0.0
 32
0.0
 13
1.0
 23
0.0
 33
0.0
 40
0.0
 40
0.0
 40
0.0
 40
0.0
 40
0.0624999999999996
 40
0.0624999999999996
 40
0.1249999999999992
 40
0.1249999999999992
 40
0.2499999999999997
 40
0.2499999999999997
 40
0.4999999999999998
 40
0.4999999999999998
 40
0.7499999999999999
 40
0.7499999999999999
 40
1.0
 40
1.0
 40
1.0
 40
1.0
 10
101.4880891162956
 20
52.67648070527872
 30
0.0
 10
101.524661326646
 20
52.68025810880616
 30
0.0
 10
101.5633118000815
 20
52.67970108092303
 30
0.0
 10
101.6374032937954
 20
52.66964187576116
 30
0.0
 10
101.6727535875495
 20
52.66028799433659
 30
0.0
 10
101.7673478849389
 20
52.62590356790277
 30
0.0
 10
101.8174860580778
 20
52.59519183323995
 30
0.0
 10
101.946679329659
 20
52.49926252320192
 30
0.0
 10
102.0049594744001
 20
52.43074702908465
 30
0.0
 10
102.1051545708236
 20
52.29417507915205
 30
0.0
 10
102.1451698222702
 20
52.22541017664914
 30
0.0
 10
102.213569243088
 20
52.09037474754147
 30
0.0
 10
102.2419309669499
 20
52.02375672148832
 30
0.0
 10
102.2664848795559
 20
51.95819825379211
 30
0.0
  0
SPLINE
  5
28B
330
1F
100
AcDbEntity
  8
0
  6
Continuous
 62
     7
370
    15
100
AcDbSpline
210
0.0
220
0.0
230
1.0
 70
     8
 71
     3
 72
    10
 73
     6
 74
     0
 42
0.00000001
 43
0.00000001
 12
1.0
 22
0.0
 32
0.0
 13
1.0
 23
0.0
 33
0.0
 40
0.0
 40
0.0
 40
0.0
 40
0.0
 40
0.5
 40
0.5
 40
1.0
 40
1.0
 40
1.0
 40
1.0
 10
97.57448725517365
 20
52.1802870489071
 30
0.0
 10
98.202114910881
 20
52.28356060764271
 30
0.0
 10
98.85331565591245
 20
52.37238571939424
 30
0.0
 10
100.1620203599247
 20
52.53449342626457
 30
0.0
 10
100.8230647972159
 20
52.60779289055115
 30
0.0
 10
101.4880891162955
 20
52.67648070527885
 30
0.0
  0
SPLINE
  5
28C
330
1F
100
AcDbEntity
  8
0
  6
Continuous
 62
     7
370
    15
100
AcDbSpline
210
0.0
220
0.0
230
1.0
 70
     8
 71
     3
 72
    14
 73
    10
 74
     0
 42
0.00000001
 43
0.00000001
 12
1.0
 22
0.0
 32
0.0
 13
1.0
 23
0.0
 33
0.0
 40
0.0
 40
0.0
 40
0.0
 40
0.0
 40
0.4999999999999998
 40
0.4999999999999998
 40
0.750000000000001
 40
0.750000000000001
 40
0.8750000000000004
 40
0.8750000000000004
 40
1.0
 40
1.0
 40
1.0
 40
1.0
 10
93.93808911629564
 20
52.01593791254777
 30
0.0
 10
94.55416602005096
 20
52.02166403277692
 30
0.0
 10
95.16829801616683
 20
52.03155439817894
 30
0.0
 10
96.08219464668039
 20
52.06218936584872
 30
0.0
 10
96.385633574228
 20
52.0749828234867
 30
0.0
 10
96.83677018986549
 20
52.10290865144609
 30
0.0
 10
96.986476439408
 20
52.11367827160585
 30
0.0
 10
97.28331757565607
 20
52.1408109872054
 30
0.0
 10
97.43070312815937
 20
52.15662796003262
 30
0.0
 10
97.57448725517365
 20
52.18028704890709
 30
0.0
  0
SPLINE
  5
28D
330
1F
100
AcDbEntity
  8
0
  6
Continuous
 62
     7
370
    15
100
AcDbSpline
210
0.0
220
0.0
230
1.0
 70
     8
 71
     3
 72
     8
 73
     4
 74
     0
 42
0.00000001
 43
0.00000001
 12
1.0
 22
0.0
 32
0.0
 13
1.0
 23
0.0
 33
0.0
 40
0.0000005954826279
 40
0.0000005954826279
 40
0.0000005954826279
 40
0.0000005954826279
 40
0.0000302093805348
 40
0.0000302093805348
 40
0.0000302093805348
 40
0.0000302093805348
 10
93.92804418588605
 20
52.02775304219966
 30
0.0
 10
93.93136021320623
 20
52.02380626260386
 30
0.0
 10
93.9347087645985
 20
52.01986787147393
 30
0.0
 10
93.93808911629559
 20
52.01593791254776
 30
0.0
  0
SPLINE
  5
28E
330
1F
100
AcDbEntity
  8
0
  6
Continuous
 62
     7
370
    15
100
AcDbSpline
210
0.0
220
0.0
230
1.0
 70
     8
 71
     3
 72
     8
 73
     4
 74
     0
 42
0.00000001
 43
0.00000001
 12
1.0
 22
0.0
 32
0.0
 13
1.0
 23
0.0
 33
0.0
 40
0.0000005099763573
 40
0.0000005099763573
 40
0.0000005099763573
 40
0.0000005099763573
 40
0.0000262827998699
 40
0.0000262827998699
 40
0.0000262827998699
 40
0.0000262827998699
 10
93.93808911629561
 20
93.6925072364704
 30
0.0
 10
93.93472037706788
 20
93.68918556751451
 30
0.0
 10
93.93137192408874
 20
93.68585761023564
 30
0.0
 10
93.92804418587741
 20
93.68252336336298
 30
0.0
  0
SPLINE
  5
28F
330
1F
100
AcDbEntity
  8
0
  6
Continuous
 62
     7
370
    15
100
AcDbSpline
210
0.0
220
0.0
230
1.0
 70
     8
 71
     3
 72
    10
 73
     6
 74
     0
 42
0.00000001
 43
0.00000001
 12
1.0
 22
0.0
 32
0.0
 13
1.0
 23
0.0
 33
0.0
 40
0.0
 40
0.0
 40
0.0
 40
0.0
 40
0.5
 40
0.5
 40
1.0
 40
1.0
 40
1.0
 40
1.0
 10
97.48808911629564
 20
93.64565686290307
 30
0.0
 10
96.90050356920506
 20
93.66672238313947
 30
0.0
 10
96.30975717574466
 20
93.67748086901169
 30
0.0
 10
95.1257380104458
 20
93.69084564954737
 30
0.0
 10
94.53232402224035
 20
93.69298829221195
 30
0.0
 10
93.93808911629564
 20
93.69250723647039
 30
0.0
  0
SPLINE
  5
290
330
1F
100
AcDbEntity
  8
0
  6
Continuous
 62
     7
370
    15
100
AcDbSpline
210
0.0
220
0.0
230
1.0
 70
     8
 71
     3
 72
    18
 73
    14
 74
     0
 42
0.00000001
 43
0.00000001
 12
1.0
 22
0.0
 32
0.0
 13
1.0
 23
0.0
 33
0.0
 40
0.0
 40
0.0
 40
0.0
 40
0.0
 40
0.2500000000000003
 40
0.2500000000000003
 40
0.4999999999999999
 40
0.4999999999999999
 40
0.7499999999999996
 40
0.7499999999999996
 40
0.8749999999999993
 40
0.8749999999999993
 40
0.9374999999999997
 40
0.9374999999999997
 40
1.0
 40
1.0
 40
1.0
 40
1.0
 10
98.88808911629565
 20
94.66667714343832
 30
0.0
 10
98.88808911629566
 20
94.58347023458111
 30
0.0
 10
98.8522400163574
 20
94.49473357926755
 30
0.0
 10
98.72736828032347
 20
94.31260838870732
 30
0.0
 10
98.63696786267559
 20
94.2174783400807
 30
0.0
 10
98.41472520793342
 20
94.02829683095636
 30
0.0
 10
98.28496042148764
 20
93.93335166286165
 30
0.0
 10
98.04432296417615
 20
93.79507295528173
 30
0.0
 10
97.9565556660387
 20
93.74936252197932
 30
0.0
 10
97.80203157883189
 20
93.69153921675786
 30
0.0
 10
97.74542069277713
 20
93.67382445272001
 30
0.0
 10
97.62137666187053
 20
93.64928514948707
 30
0.0
 10
97.55366198685223
 20
93.6433060109488
 30
0.0
 10
97.48808911629564
 20
93.64565686290307
 30
0.0
  0
LINE
  5
291
330
1F
100
AcDbEntity
  8
0
  6
Continuous
 62
     7
370
    15
100
AcDbLine
 10
98.8880882401
 20
94.6666771287
 30
0.0
 11
98.8880882401
 21
95.8506153638
 31
0.0
  0
LINE
  5
292
330
1F
100
AcDbEntity
  8
0
  6
Continuous
 62
     7
370
    15
100
AcDbLine
 10
122.6880890213
 20
48.6021382476
 30
0.0
 11
122.6880890213
 21
97.0430006946
 31
0.0
  0
SPLINE
  5
293
330
1F
100
AcDbEntity
  8
0
  6
Continuous
 62
     7
370
    15
100
AcDbSpline
210
0.0
220
0.0
230
1.0
 70
     8
 71
     3
 72
    24
 73
    20
 74
     0
 42
0.00000001
 43
0.00000001
 12
1.0
 22
0.0
 32
0.0
 13
1.0
 23
0.0
 33
0.0
 40
0.0
 40
0.0
 40
0.0
 40
0.0
 40
0.0010489815523775
 40
0.0637843212772741
 40
0.1272220630088516
 40
0.1903789073370505
 40
0.2526748662763491
 40
0.3146354150030102
 40
0.3770891884518245
 40
0.4393540587943444
 40
0.5008133488401828
 40
0.5621845177353679
 40
0.6248438462901906
 40
0.6874304788646655
 40
0.7496743245911356
 40
0.811984857412469
 40
0.8750960476811308
 40
0.9384412548145236
 40
1.0
 40
1.0
 40
1.0
 40
1.0
 10
111.4569951210225
 20
49.16506127662876
 30
0.0
 10
111.4565484552718
 20
49.16500263166228
 30
0.0
 10
111.4293885193482
 20
49.16143666868159
 30
0.0
 10
111.52501844248
 20
49.17430127815679
 30
0.0
 10
111.7585716185005
 20
49.20353576049686
 30
0.0
 10
112.1541275707349
 20
49.25015497123827
 30
0.0
 10
112.681167571105
 20
49.30033577066344
 30
0.0
 10
113.3246980129412
 20
49.34471444410649
 30
0.0
 10
114.0633718472109
 20
49.37165764061728
 30
0.0
 10
114.8608865173298
 20
49.37512938891941
 30
0.0
 10
115.6874655670944
 20
49.34750394262599
 30
0.0
 10
116.512988388513
 20
49.28902279964735
 30
0.0
 10
117.3051148594287
 20
49.20357973624877
 30
0.0
 10
118.037687238266
 20
49.10184456775625
 30
0.0
 10
118.6733274200868
 20
48.99400091670833
 30
0.0
 10
119.195238350633
 20
48.8923695214335
 30
0.0
 10
119.5768671882719
 20
48.809887557141
 30
0.0
 10
119.8276818642053
 20
48.75373544963409
 30
0.0
 10
119.8568031799126
 20
48.74688659872121
 30
0.0
 10
119.8711555812562
 20
48.7435111517451
 30
0.0
  0
SPLINE
  5
294
330
1F
100
AcDbEntity
  8
0
  6
Continuous
 62
     7
370
    15
100
AcDbSpline
210
0.0
220
0.0
230
1.0
 70
     8
 71
     3
 72
    24
 73
    20
 74
     0
 42
0.00000001
 43
0.00000001
 12
1.0
 22
0.0
 32
0.0
 13
1.0
 23
0.0
 33
0.0
 40
0.0
 40
0.0
 40
0.0
 40
0.0
 40
0.061438429114025
 40
0.1250736777967275
 40
0.1884253375120604
 40
0.2508623992448726
 40
0.3129665476325462
 40
0.375345144232796
 40
0.4377328732174414
 40
0.4990927172519097
 40
0.5605807294548177
 40
0.6229469854741747
 40
0.6854686070210344
 40
0.7475477863222079
 40
0.8098225081553552
 40
0.8730684199475965
 40
0.9364041856905114
 40
0.9991757203144387
 40
1.0
 40
1.0
 40
1.0
 40
1.0
 10
119.8711010988856
 20
96.90159798808315
 30
0.0
 10
119.8565002904334
 20
96.89822983021018
 30
0.0
 10
119.8267766005824
 20
96.89137308112579
 30
0.0
 10
119.5740386005965
 20
96.8350352612297
 30
0.0
 10
119.1910433015753
 20
96.75217744834444
 30
0.0
 10
118.6686873446924
 20
96.65027070012341
 30
0.0
 10
118.0339029999907
 20
96.54243213023437
 30
0.0
 10
117.3036792633766
 20
96.44096587700537
 30
0.0
 10
116.5132111684655
 20
96.35590379843816
 30
0.0
 10
115.6887274410077
 20
96.29770244148153
 30
0.0
 10
114.8616910605277
 20
96.270117993797
 30
0.0
 10
114.0633666015372
 20
96.27361192233117
 30
0.0
 10
113.3235428505376
 20
96.30056558100483
 30
0.0
 10
112.679287979078
 20
96.34492108161821
 30
0.0
 10
112.1518811219804
 20
96.39512626534099
 30
0.0
 10
111.7572158816674
 20
96.44173372538619
 30
0.0
 10
111.524687196079
 20
96.47093690222454
 30
0.0
 10
111.4293079674133
 20
96.48369504094175
 30
0.0
 10
111.4562409117397
 20
96.48015521102297
 30
0.0
 10
111.4565899957026
 20
96.48010933048943
 30
0.0
  0
SPLINE
  5
295
330
1F
100
AcDbEntity
  8
0
  6
Continuous
 62
     7
370
    15
100
AcDbSpline
210
0.0
220
0.0
230
1.0
 70
     8
 71
     3
 72
     9
 73
     5
 74
     0
 42
0.00000001
 43
0.00000001
 12
1.0
 22
0.0
 32
0.0
 13
1.0
 23
0.0
 33
0.0
 40
0.0
 40
0.0
 40
0.0
 40
0.0
 40
0.5865081526888636
 40
1.0
 40
1.0
 40
1.0
 40
1.0
 10
92.79460854717142
 20
53.17175069101074
 30
0.0
 10
92.79860898375335
 20
53.16595021879687
 30
0.0
 10
92.80542975267805
 20
53.15606037807211
 30
0.0
 10
92.81458346378122
 20
53.21012638359927
 30
0.0
 10
92.81836844869501
 20
53.23248223610141
 30
0.0
  0
LINE
  5
296
330
1F
100
AcDbEntity
  8
0
  6
Continuous
 62
     7
370
    15
100
AcDbLine
 10
92.7880892891
 20
53.1694093461
 30
0.0
 11
92.7880892891
 21
92.5132469947
 31
0.0
  0
SPLINE
  5
297
330
1F
100
AcDbEntity
  8
0
  6
Continuous
 62
     7
370
    15
100
AcDbSpline
210
0.0
220
0.0
230
1.0
 70
     8
 71
     3
 72
    10
 73
     6
 74
     0
 42
0.00000001
 43
0.00000001
 12
1.0
 22
0.0
 32
0.0
 13
1.0
 23
0.0
 33
0.0
 40
0.0
 40
0.0
 40
0.0
 40
0.0
 40
0.5
 40
0.5
 40
1.0
 40
1.0
 40
1.0
 40
1.0
 10
92.85075249101904
 20
92.49712201585606
 30
0.0
 10
92.8418482019103
 20
92.54286353506926
 30
0.0
 10
92.82533282171731
 20
92.56005437453824
 30
0.0
 10
92.7982248756557
 20
92.55973109760251
 30
0.0
 10
92.78808911629564
 20
92.54185355530608
 30
0.0
 10
92.78808911629564
 20
92.51324721755347
 30
0.0
  0
SPLINE
  5
298
330
1F
100
AcDbEntity
  8
0
  6
Continuous
 62
     7
370
    15
100
AcDbSpline
210
0.0
220
0.0
230
1.0
 70
     8
 71
     3
 72
    26
 73
    22
 74
     0
 42
0.00000001
 43
0.00000001
 12
1.0
 22
0.0
 32
0.0
 13
1.0
 23
0.0
 33
0.0
 40
0.0
 40
0.0
 40
0.0
 40
0.0
 40
0.25
 40
0.25
 40
0.3749999999999994
 40
0.3749999999999994
 40
0.437500000000001
 40
0.437500000000001
 40
0.4687500000000001
 40
0.4687500000000001
 40
0.4999999999999991
 40
0.4999999999999991
 40
0.5312499999999981
 40
0.5312499999999981
 40
0.5624999999999971
 40
0.5624999999999971
 40
0.6249999999999971
 40
0.6249999999999971
 40
0.7499999999999971
 40
0.7499999999999971
 40
1.0
 40
1.0
 40
1.0
 40
1.0
 10
93.61224276240016
 20
93.21268880467315
 30
0.0
 10
93.57364223953168
 20
93.09491410831771
 30
0.0
 10
93.52734523697742
 20
92.9705244221558
 30
0.0
 10
93.43340588854349
 20
92.76530508980233
 30
0.0
 10
93.39809442163005
 20
92.6937322233559
 30
0.0
 10
93.3319144458844
 20
92.57777899075546
 30
0.0
 10
93.30737607921616
 20
92.53719445594521
 30
0.0
 10
93.26400333366234
 20
92.47305277407348
 30
0.0
 10
93.24849493223716
 20
92.45118634878844
 30
0.0
 10
93.21345228765014
 20
92.40559208044523
 30
0.0
 10
93.19390199693038
 20
92.38192178947781
 30
0.0
 10
93.1519747165598
 20
92.3373052301379
 30
0.0
 10
93.12932260632816
 20
92.31642521761998
 30
0.0
 10
93.08834889224154
 20
92.28555180386914
 30
0.0
 10
93.07074959234609
 20
92.27571293403672
 30
0.0
 10
93.02612260648993
 20
92.25672331834053
 30
0.0
 10
93.00556338383659
 20
92.25639899368709
 30
0.0
 10
92.95443794433992
 20
92.2656224345633
 30
0.0
 10
92.93352653135138
 20
92.28686933078026
 30
0.0
 10
92.88207662379041
 20
92.36083820961102
 30
0.0
 10
92.86441132448589
 20
92.42695630292577
 30
0.0
 10
92.85075249101904
 20
92.49712201585605
 30
0.0
  0
SPLINE
  5
299
330
1F
100
AcDbEntity
  8
0
  6
Continuous
 62
     7
370
    15
100
AcDbSpline
210
0.0
220
0.0
230
1.0
 70
     8
 71
     3
 72
    10
 73
     6
 74
     0
 42
0.00000001
 43
0.00000001
 12
1.0
 22
0.0
 32
0.0
 13
1.0
 23
0.0
 33
0.0
 40
0.0
 40
0.0
 40
0.0
 40
0.0
 40
0.5
 40
0.5
 40
1.0
 40
1.0
 40
1.0
 40
1.0
 10
93.92804418587743
 20
93.68252336336298
 30
0.0
 10
93.86048493095919
 20
93.6148319705532
 30
0.0
 10
93.79684827562268
 20
93.54012480579955
 30
0.0
 10
93.68662752105084
 20
93.38115867337294
 30
0.0
 10
93.63981122782822
 20
93.29680340736495
 30
0.0
 10
93.61224276240014
 20
93.21268880467315
 30
0.0
  0
SPLINE
  5
29A
330
1F
100
AcDbEntity
  8
0
  6
Continuous
 62
     7
370
    15
100
AcDbSpline
210
0.0
220
0.0
230
1.0
 70
     8
 71
     3
 72
     8
 73
     4
 74
     0
 42
0.00000001
 43
0.00000001
 12
1.0
 22
0.0
 32
0.0
 13
1.0
 23
0.0
 33
0.0
 40
0.0
 40
0.0
 40
0.0
 40
0.0
 40
1.0
 40
1.0
 40
1.0
 40
1.0
 10
93.72699868649478
 20
52.37864716810972
 30
0.0
 10
93.7627123448647
 20
52.25541566284992
 30
0.0
 10
93.83838038381298
 20
52.13447208590293
 30
0.0
 10
93.9280441858861
 20
52.02775304219967
 30
0.0
  0
SPLINE
  5
29B
330
1F
100
AcDbEntity
  8
0
  6
Continuous
 62
     7
370
    15
100
AcDbSpline
210
0.0
220
0.0
230
1.0
 70
     8
 71
     3
 72
    26
 73
    22
 74
     0
 42
0.00000001
 43
0.00000001
 12
1.0
 22
0.0
 32
0.0
 13
1.0
 23
0.0
 33
0.0
 40
0.0
 40
0.0
 40
0.0
 40
0.0
 40
0.24999999999999
 40
0.24999999999999
 40
0.3749999999999855
 40
0.3749999999999855
 40
0.4374999999999828
 40
0.4374999999999828
 40
0.4687499999999823
 40
0.4687499999999823
 40
0.4999999999999817
 40
0.4999999999999817
 40
0.5312499999999811
 40
0.5312499999999811
 40
0.5624999999999805
 40
0.5624999999999805
 40
0.6249999999999835
 40
0.6249999999999835
 40
0.7499999999999892
 40
0.7499999999999892
 40
1.0
 40
1.0
 40
1.0
 40
1.0
 10
92.81836673190428
 20
53.23248191084848
 30
0.0
 10
92.8290907652968
 20
53.33544295133748
 30
0.0
 10
92.84382375589134
 20
53.43444164081855
 30
0.0
 10
92.89617731513836
 20
53.55303732088367
 30
0.0
 10
92.917882597858
 20
53.58874762083247
 30
0.0
 10
92.97673810522339
 20
53.61372705365419
 30
0.0
 10
93.00020033907056
 20
53.61811250141775
 30
0.0
 10
93.0563217157312
 20
53.59835966797358
 30
0.0
 10
93.07910902586185
 20
53.58670327716316
 30
0.0
 10
93.13436157839307
 20
53.54492292772589
 30
0.0
 10
93.16576781113389
 20
53.51465134034986
 30
0.0
 10
93.22070163175431
 20
53.45300894143587
 30
0.0
 10
93.2451254499538
 20
53.42156728912904
 30
0.0
 10
93.28854055594101
 20
53.36183245171529
 30
0.0
 10
93.30811511850928
 20
53.33266744184264
 30
0.0
 10
93.36174780245723
 20
53.24883216610959
 30
0.0
 10
93.39152515050942
 20
53.19679954813338
 30
0.0
 10
93.47305921048222
 20
53.04573387416603
 30
0.0
 10
93.51630200515626
 20
52.95254283229531
 30
0.0
 10
93.62935659481094
 20
52.68815629330096
 30
0.0
 10
93.6833675922901
 20
52.52919812425112
 30
0.0
 10
93.72699868649413
 20
52.37864716811028
 30
0.0
  0
SPLINE
  5
29C
330
1F
100
AcDbEntity
  8
0
  6
Continuous
 62
     7
370
    15
100
AcDbSpline
210
0.0
220
0.0
230
1.0
 70
     8
 71
     3
 72
     8
 73
     4
 74
     0
 42
0.00000001
 43
0.00000001
 12
1.0
 22
0.0
 32
0.0
 13
1.0
 23
0.0
 33
0.0
 40
0.0
 40
0.0
 40
0.0
 40
0.0
 40
1.0
 40
1.0
 40
1.0
 40
1.0
 10
146.0800219477847
 20
103.2897649442396
 30
0.0
 10
145.5848819184204
 20
102.4030852960593
 30
0.0
 10
145.0907992131414
 20
101.5158226603733
 30
0.0
 10
144.5980891162956
 20
100.6278036622469
 30
0.0
  0
LINE
  5
29D
330
1F
100
AcDbEntity
  8
0
  6
Continuous
 62
     7
370
    15
100
AcDbLine
 10
146.0800210375
 20
97.2812590862
 30
0.0
 11
146.0800210375
 21
103.2897649074
 31
0.0
  0
SPLINE
  5
29E
330
1F
100
AcDbEntity
  8
0
  6
Continuous
 62
     7
370
    15
100
AcDbSpline
210
0.0
220
0.0
230
1.0
 70
     8
 71
     3
 72
     8
 73
     4
 74
     0
 42
0.00000001
 43
0.00000001
 12
1.0
 22
0.0
 32
0.0
 13
1.0
 23
0.0
 33
0.0
 40
0.0
 40
0.0
 40
0.0
 40
0.0
 40
1.0
 40
1.0
 40
1.0
 40
1.0
 10
144.5980891162956
 20
93.87271313865865
 30
0.0
 10
145.0773672668855
 20
95.01372436851125
 30
0.0
 10
145.5729351060254
 20
96.15010877927907
 30
0.0
 10
146.0800219477847
 20
97.28125913344273
 30
0.0
  0
LINE
  5
29F
330
1F
100
AcDbEntity
  8
0
  6
Continuous
 62
     7
370
    15
100
AcDbLine
 10
144.5980893809
 20
93.872713458
 30
0.0
 11
144.5980893809
 21
100.6278028453
 31
0.0
  0
LINE
  5
2A0
330
1F
100
AcDbEntity
  8
0
  6
Continuous
 62
     7
370
    15
100
AcDbLine
 10
150.0380898256
 20
103.2897649074
 30
0.0
 11
146.0800210375
 21
103.2897649074
 31
0.0
  0
LINE
  5
2A1
330
1F
100
AcDbEntity
  8
0
  6
Continuous
 62
     7
370
    15
100
AcDbLine
 10
146.0800210375
 20
97.2812590862
 30
0.0
 11
150.0380898256
 21
97.2812590862
 31
0.0
  0
SPLINE
  5
2A2
330
1F
100
AcDbEntity
  8
0
  6
Continuous
 62
     7
370
    15
100
AcDbSpline
210
0.0
220
0.0
230
1.0
 70
     8
 71
     3
 72
    10
 73
     6
 74
     0
 42
0.00000001
 43
0.00000001
 12
1.0
 22
0.0
 32
0.0
 13
1.0
 23
0.0
 33
0.0
 40
0.0
 40
0.0
 40
0.0
 40
0.0
 40
0.5
 40
0.5
 40
1.0
 40
1.0
 40
1.0
 40
1.0
 10
150.6380891162956
 20
102.6690097948392
 30
0.0
 10
150.6380891162956
 20
102.82941506119
 30
0.0
 10
150.5758512851888
 20
102.9884768741786
 30
0.0
 10
150.3567163614462
 20
103.2193893398089
 30
0.0
 10
150.1991276664544
 20
103.2897649442396
 30
0.0
 10
150.0380891162956
 20
103.2897649442396
 30
0.0
  0
SPLINE
  5
2A3
330
1F
100
AcDbEntity
  8
0
  6
Continuous
 62
     7
370
    15
100
AcDbSpline
210
0.0
220
0.0
230
1.0
 70
     8
 71
     3
 72
    12
 73
     8
 74
     0
 42
0.00000001
 43
0.00000001
 12
1.0
 22
0.0
 32
0.0
 13
1.0
 23
0.0
 33
0.0
 40
0.0
 40
0.0
 40
0.0
 40
0.0
 40
0.2499999999999993
 40
0.2499999999999993
 40
0.4999999999999987
 40
0.4999999999999987
 40
1.0
 40
1.0
 40
1.0
 40
1.0
 10
150.0380891162956
 20
97.28125913344273
 30
0.0
 10
150.1295302898409
 20
97.28125913344273
 30
0.0
 10
150.2187725179062
 20
97.25371782474048
 30
0.0
 10
150.3743573770114
 20
97.1579491403853
 30
0.0
 10
150.4390770904909
 20
97.09152073246769
 30
0.0
 10
150.590582114583
 20
96.86761878363593
 30
0.0
 10
150.6380891162956
 20
96.68404734542155
 30
0.0
 10
150.6380891162956
 20
96.50352173233372
 30
0.0
  0
LINE
  5
2A4
330
1F
100
AcDbEntity
  8
0
  6
Continuous
 62
     7
370
    15
100
AcDbLine
 10
150.6380888064
 20
96.5035209174
 30
0.0
 11
150.6380888064
 21
102.6690104718
 31
0.0
  0
SPLINE
  5
2A5
330
1F
100
AcDbEntity
  8
0
  6
Continuous
 62
     7
370
    15
100
AcDbSpline
210
0.0
220
0.0
230
1.0
 70
     8
 71
     3
 72
     8
 73
     4
 74
     0
 42
0.00000001
 43
0.00000001
 12
1.0
 22
0.0
 32
0.0
 13
1.0
 23
0.0
 33
0.0
 40
0.0
 40
0.0
 40
0.0
 40
0.0
 40
1.0
 40
1.0
 40
1.0
 40
1.0
 10
140.7780891162956
 20
100.6278036622469
 30
0.0
 10
140.2853790194499
 20
101.5158226603733
 30
0.0
 10
139.7912963141709
 20
102.4030852960593
 30
0.0
 10
139.2961562848066
 20
103.2897649442396
 30
0.0
  0
LINE
  5
2A6
330
1F
100
AcDbEntity
  8
0
  6
Continuous
 62
     7
370
    15
100
AcDbLine
 10
140.7780891646
 20
93.872713458
 30
0.0
 11
140.7780891646
 21
100.6278028453
 31
0.0
  0
SPLINE
  5
2A7
330
1F
100
AcDbEntity
  8
0
  6
Continuous
 62
     7
370
    15
100
AcDbSpline
210
0.0
220
0.0
230
1.0
 70
     8
 71
     3
 72
     8
 73
     4
 74
     0
 42
0.00000001
 43
0.00000001
 12
1.0
 22
0.0
 32
0.0
 13
1.0
 23
0.0
 33
0.0
 40
0.0
 40
0.0
 40
0.0
 40
0.0
 40
1.0
 40
1.0
 40
1.0
 40
1.0
 10
139.2961562848066
 20
97.28125913344273
 30
0.0
 10
139.8032431265659
 20
96.15010877927908
 30
0.0
 10
140.2988109657058
 20
95.01372436851125
 30
0.0
 10
140.7780891162956
 20
93.87271313865867
 30
0.0
  0
LINE
  5
2A8
330
1F
100
AcDbEntity
  8
0
  6
Continuous
 62
     7
370
    15
100
AcDbLine
 10
140.7780891646
 20
93.872713458
 30
0.0
 11
140.7780891646
 21
92.9584359492
 31
0.0
  0
LINE
  5
2A9
330
1F
100
AcDbEntity
  8
0
  6
Continuous
 62
     7
370
    15
100
AcDbLine
 10
144.5980893809
 20
92.9584359492
 30
0.0
 11
144.5980893809
 21
93.872713458
 31
0.0
  0
LINE
  5
2AA
330
1F
100
AcDbEntity
  8
0
  6
Continuous
 62
     7
370
    15
100
AcDbLine
 10
150.6380888064
 20
96.5035209174
 30
0.0
 11
150.6380888064
 21
92.6725702102
 31
0.0
  0
LINE
  5
2AB
330
1F
100
AcDbEntity
  8
0
  6
Continuous
 62
     7
370
    15
100
AcDbLine
 10
93.9380882669
 20
52.0100692029
 30
0.0
 11
93.9380882669
 21
52.0159383977
 31
0.0
  0
ELLIPSE
  5
2AC
330
1F
100
AcDbEntity
  8
0
  6
Continuous
 62
     7
370
    15
100
AcDbEllipse
 10
181.2920510442
 20
49.5108024776
 30
0.0
 11
5.990149005310795
 21
3.165847926406471
 31
0.0
210
0.0
220
0.0
230
1.0
 40
0.1085581124
 41
1.513485212445796
 42
2.653504854335953
  0
ELLIPSE
  5
2AD
330
1F
100
AcDbEntity
  8
0
  6
Continuous
 62
     7
370
    15
100
AcDbEllipse
 10
181.2920510442
 20
96.1343364645
 30
0.0
 11
5.990149005310795
 21
-3.165847926406471
 31
0.0
210
0.0
220
0.0
230
1.0
 40
0.1085581124
 41
3.62968045284375
 42
4.769700094733787
  0
ARC
  5
2AE
330
1F
100
AcDbEntity
  8
0
  6
Continuous
 62
     7
370
    15
100
AcDbCircle
 10
205.1996549614
 20
74.2273092505
 30
0.0
 40
1.532404490076682
100
AcDbArc
 50
62.5
 51
242.5
  0
LINE
  5
2AF
330
1F
100
AcDbEntity
  8
0
  6
Continuous
 62
     7
370
    15
100
AcDbLine
 10
204.4920700032
 20
72.8680498669
 30
0.0
 11
204.5661436755
 21
72.8294907258
 31
0.0
  0
LINE
  5
2B0
330
1F
100
AcDbEntity
  8
0
  6
Continuous
 62
     7
370
    15
100
AcDbLine
 10
204.5661436755
 20
72.8294907258
 30
0.0
 11
204.5528443892
 21
72.8225694711
 31
0.0
  0
LINE
  5
2B1
330
1F
100
AcDbEntity
  8
0
  6
Continuous
 62
     7
370
    15
100
AcDbLine
 10
204.5528443892
 20
72.8225694711
 30
0.0
 11
205.1302569348
 21
72.521988166
 31
0.0
  0
LINE
  5
2B2
330
1F
100
AcDbEntity
  8
0
  6
Continuous
 62
     7
370
    15
100
AcDbLine
 10
207.8715416033
 20
74.5640171899
 30
0.0
 11
205.9072407324
 21
75.5865686315
 31
0.0
  0
LINE
  5
2B3
330
1F
100
AcDbEntity
  8
0
  6
Continuous
 62
     7
370
    15
100
AcDbLine
 10
214.5021634538
 20
67.6294416862
 30
0.0
 11
181.2920498092
 21
50.3413533533
 31
0.0
  0
LINE
  5
2B4
330
1F
100
AcDbEntity
  8
0
  6
Continuous
 62
     7
370
    15
100
AcDbLine
 10
214.5021634538
 20
78.015697256
 30
0.0
 11
181.2920498092
 21
95.3037855888
 31
0.0
  0
LINE
  5
2B5
330
1F
100
AcDbEntity
  8
0
  6
Continuous
 62
     7
370
    15
100
AcDbLine
 10
207.5657474238
 20
74.4048283177
 30
0.0
 11
205.7768406708
 21
75.336072894
 31
0.0
  0
ARC
  5
2B6
330
1F
100
AcDbEntity
  8
0
  6
Continuous
 62
     7
370
    15
100
AcDbCircle
 10
205.1996549614
 20
74.2273092505
 30
0.0
 40
1.250000000000011
100
AcDbArc
 50
62.5
 51
242.5
  0
LINE
  5
2B7
330
1F
100
AcDbEntity
  8
0
  6
Continuous
 62
     7
370
    15
100
AcDbLine
 10
204.6224700648
 20
73.1185457061
 30
0.0
 11
205.0027327973
 21
72.9205935586
 31
0.0
  0
LINE
  5
2B8
330
1F
100
AcDbEntity
  8
0
  6
Continuous
 62
     7
370
    15
100
AcDbLine
 10
204.986892863
 20
72.8294907258
 30
0.0
 11
204.5661436755
 21
72.8294907258
 31
0.0
  0
LINE
  5
2B9
330
1F
100
AcDbEntity
  8
0
  6
Continuous
 62
     7
370
    15
100
AcDbLine
 10
204.9876379211
 20
72.8225694711
 30
0.0
 11
204.5528443892
 21
72.8225694711
 31
0.0
  0
LINE
  5
2BA
330
1F
100
AcDbEntity
  8
0
  6
Continuous
 62
     7
370
    15
100
AcDbLine
 10
158.2164468605
 20
69.8598761319
 30
0.0
 11
158.1273453672
 21
69.8754410932
 31
0.0
  0
LWPOLYLINE
  5
2BB
330
1F
100
AcDbEntity
  8
0
  6
Continuous
 62
     7
370
    15
100
AcDbPolyline
 90
        3
 70
   128
 43
0.0
 10
155.7120217372
 20
72.44438222
 10
155.6885058422
 20
72.7725814704
 10
155.7276195277
 20
73.3079774163
  0
LWPOLYLINE
  5
2BC
330
1F
100
AcDbEntity
  8
0
  6
Continuous
 62
     7
370
    15
100
AcDbPolyline
 90
        3
 70
   128
 43
0.0
 10
159.029104038
 20
69.8420140634
 10
158.9124018688
 20
69.8309674135
 10
158.2164468605
 20
69.8598761319
  0
CIRCLE
  5
2BD
330
1F
100
AcDbEntity
  8
0
  6
Continuous
 62
     7
370
    15
100
AcDbCircle
 10
158.6880891163
 20
72.8225694711
 30
0.0
 40
2.860000000000001
  0
CIRCLE
  5
2BE
330
1F
100
AcDbEntity
  8
0
  6
Continuous
 62
     7
370
    15
100
AcDbCircle
 10
158.6880891163
 20
72.8225694711
 30
0.0
 40
2.500000000000006
  0
CIRCLE
  5
2BF
330
1F
100
AcDbEntity
  8
0
  6
HIDDEN
 62
     7
370
     0
100
AcDbCircle
 10
214.7403076288
 20
72.8225694711
 30
0.0
 40
1.999999999999998
  0
CIRCLE
  5
2C0
330
1F
100
AcDbEntity
  8
0
  6
HIDDEN
 62
     7
370
     0
100
AcDbCircle
 10
214.7403076288
 20
72.8225694711
 30
0.0
 40
1.900000000000005
  0
CIRCLE
  5
2C1
330
1F
100
AcDbEntity
  8
0
  6
HIDDEN
 62
     7
370
     0
100
AcDbCircle
 10
214.8403076288
 20
72.8225694711
 30
0.0
 40
2.200000000000017
  0
LINE
  5
2C2
330
1F
100
AcDbEntity
  8
0
  6
HIDDEN
 62
     7
370
     0
100
AcDbLine
 10
214.8861365754
 20
68.0268184023
 30
0.0
 11
223.9295693476
 21
72.7345295545
 31
0.0
  0
LINE
  5
2C3
330
1F
100
AcDbEntity
  8
0
  6
HIDDEN
 62
     7
370
     0
100
AcDbLine
 10
205.7510467608
 20
72.7345295545
 30
0.0
 11
214.7944795329
 21
68.0268184023
 31
0.0
  0
LINE
  5
2C4
330
1F
100
AcDbEntity
  8
0
  6
HIDDEN
 62
     7
370
     0
100
AcDbLine
 10
214.7944795329
 20
77.6183205398
 30
0.0
 11
205.7510467608
 21
72.9106093877
 31
0.0
  0
LINE
  5
2C5
330
1F
100
AcDbEntity
  8
0
  6
HIDDEN
 62
     7
370
     0
100
AcDbLine
 10
223.9295693476
 20
72.9106093877
 30
0.0
 11
214.8861365754
 21
77.6183205398
 31
0.0
  0
SPLINE
  5
2C6
330
1F
100
AcDbEntity
  8
0
  6
HIDDEN
 62
     7
370
     0
100
AcDbSpline
210
0.0
220
0.0
230
1.0
 70
     8
 71
     3
 72
    10
 73
     6
 74
     0
 42
0.00000001
 43
0.00000001
 12
1.0
 22
0.0
 32
0.0
 13
1.0
 23
0.0
 33
0.0
 40
0.0
 40
0.0
 40
0.0
 40
0.0
 40
0.2657098871013806
 40
0.6165528848652352
 40
1.0
 40
1.0
 40
1.0
 40
1.0
 10
214.8861365754211
 20
68.02681840233424
 30
0.0
 10
214.8783898520185
 20
68.0235157787558
 30
0.0
 10
214.860414364865
 20
68.01585237519511
 30
0.0
 10
214.8276967922658
 20
68.01386984286837
 30
0.0
 10
214.8058749324359
 20
68.0223763137576
 30
0.0
 10
214.7944795329178
 20
68.02681840233424
 30
0.0
  0
SPLINE
  5
2C7
330
1F
100
AcDbEntity
  8
0
  6
HIDDEN
 62
     7
370
     0
100
AcDbSpline
210
0.0
220
0.0
230
1.0
 70
     8
 71
     3
 72
    10
 73
     6
 74
     0
 42
0.00000001
 43
0.00000001
 12
1.0
 22
0.0
 32
0.0
 13
1.0
 23
0.0
 33
0.0
 40
0.0
 40
0.0
 40
0.0
 40
0.0
 40
0.2657098871013806
 40
0.6165528848652352
 40
1.0
 40
1.0
 40
1.0
 40
1.0
 10
214.7944795329178
 20
77.61832053981641
 30
0.0
 10
214.8022262563204
 20
77.62162316339486
 30
0.0
 10
214.820201743474
 20
77.62928656695553
 30
0.0
 10
214.8529193160732
 20
77.63126909928226
 30
0.0
 10
214.874741175903
 20
77.62276262839305
 30
0.0
 10
214.8861365754211
 20
77.61832053981641
 30
0.0
  0
SPLINE
  5
2C8
330
1F
100
AcDbEntity
  8
0
  6
HIDDEN
 62
     7
370
     0
100
AcDbSpline
210
0.0
220
0.0
230
1.0
 70
     8
 71
     3
 72
    14
 73
    10
 74
     0
 42
0.00000001
 43
0.00000001
 12
1.0
 22
0.0
 32
0.0
 13
1.0
 23
0.0
 33
0.0
 40
0.0
 40
0.0
 40
0.0
 40
0.0
 40
0.1583283970225315
 40
0.3167942927538051
 40
0.4713724183334534
 40
0.6221247512022244
 40
0.772132132644629
 40
0.9245871342778956
 40
0.9999999999999999
 40
0.9999999999999999
 40
0.9999999999999999
 40
0.9999999999999999
 10
205.7510467607582
 20
72.73452955448454
 30
0.0
 10
205.7413620788392
 20
72.74081033919076
 30
0.0
 10
205.7219843044364
 20
72.7533773630877
 30
0.0
 10
205.7030738043606
 20
72.78289662279762
 30
0.0
 10
205.6949245402521
 20
72.81594911533243
 30
0.0
 10
205.6984820815135
 20
72.84935377253845
 30
0.0
 10
205.7128074887653
 20
72.87936434373631
 30
0.0
 10
205.7320844331173
 20
72.89957575801063
 30
0.0
 10
205.7463316459744
 20
72.90786579883607
 30
0.0
 10
205.7510467607582
 20
72.91060938766611
 30
0.0
  0
SPLINE
  5
2C9
330
1F
100
AcDbEntity
  8
0
  6
HIDDEN
 62
     7
370
     0
100
AcDbSpline
210
0.0
220
0.0
230
1.0
 70
     8
 71
     3
 72
    14
 73
    10
 74
     0
 42
0.00000001
 43
0.00000001
 12
1.0
 22
0.0
 32
0.0
 13
1.0
 23
0.0
 33
0.0
 40
0.0
 40
0.0
 40
0.0
 40
0.0
 40
0.1583022901920167
 40
0.3167884932694209
 40
0.4713679310064706
 40
0.6221215435568823
 40
0.7721301983573061
 40
0.9245864941255484
 40
1.0
 40
1.0
 40
1.0
 40
1.0
 10
223.9295693475807
 20
72.91060938766611
 30
0.0
 10
223.9392505357066
 20
72.90432770340806
 30
0.0
 10
223.9586241593967
 20
72.89175703693896
 30
0.0
 10
223.9775437996366
 20
72.86224500553301
 30
0.0
 10
223.9856910964786
 20
72.82918948259601
 30
0.0
 10
223.9821341512587
 20
72.79578526043477
 30
0.0
 10
223.9678085850886
 20
72.76577457324402
 30
0.0
 10
223.9485316790328
 20
72.74556318692176
 30
0.0
 10
223.9342844633121
 20
72.73727314400627
 30
0.0
 10
223.9295693475807
 20
72.73452955448454
 30
0.0
  0
LINE
  5
2CA
330
1F
100
AcDbEntity
  8
0
  6
HIDDEN
 62
     7
370
     0
100
AcDbLine
 10
139.2961565767
 20
97.2812590862
 30
0.0
 11
139.2961565767
 21
92.6725702102
 31
0.0
  0
ELLIPSE
  5
2CB
330
1F
100
AcDbEntity
  8
0
  6
HIDDEN
 62
     7
370
     0
100
AcDbEllipse
 10
224.5578396009
 20
72.8225694711
 30
0.0
 11
50.4009808414489
 21
25.84618980319092
 31
0.0
210
0.0
220
0.0
230
1.0
 40
0.0560288874
 41
1.690567031455194
 42
3.25041929329857
  0
ELLIPSE
  5
2CC
330
1F
100
AcDbEntity
  8
0
  6
HIDDEN
 62
     7
370
     0
100
AcDbEllipse
 10
224.0112433299
 20
72.8225694711
 30
0.0
 11
0.0
 21
25.99999999999999
 31
0.0
210
0.0
220
0.0
230
1.0
 40
0.2659121379
 41
1.559852261843127
 42
1.581740391746667
  0
ELLIPSE
  5
2CD
330
1F
100
AcDbEntity
  8
0
  6
HIDDEN
 62
     7
370
     0
100
AcDbEllipse
 10
224.5578396009
 20
72.8225694711
 30
0.0
 11
50.40098084144891
 21
-25.84618980319092
 31
0.0
210
0.0
220
0.0
230
1.0
 40
0.0560288874
 41
3.032766013881279
 42
4.592618275724398
  0
LINE
  5
2CE
330
1F
100
AcDbEntity
  8
0
  6
HIDDEN
 62
     7
370
     0
100
AcDbLine
 10
112.6832396153
 20
49.2979703213
 30
0.0
 11
112.4315813545
 21
49.2744488383
 31
0.0
  0
LINE
  5
2CF
330
1F
100
AcDbEntity
  8
0
  6
HIDDEN
 62
     7
370
     0
100
AcDbLine
 10
112.3088898499
 20
96.3820000852
 30
0.0
 11
112.6831464831
 21
96.3471518571
 31
0.0
  0
SPLINE
  5
2D0
330
1F
100
AcDbEntity
  8
0
  6
HIDDEN
 62
     7
370
     0
100
AcDbSpline
210
0.0
220
0.0
230
1.0
 70
     8
 71
     3
 72
    15
 73
    11
 74
     0
 42
0.00000001
 43
0.00000001
 12
1.0
 22
0.0
 32
0.0
 13
1.0
 23
0.0
 33
0.0
 40
0.0
 40
0.0
 40
0.0
 40
0.0
 40
0.1409172263352446
 40
0.281889861653346
 40
0.4212989542022905
 40
0.5593768841673977
 40
0.6988856533029646
 40
0.840367202775075
 40
0.9813164473602943
 40
1.0
 40
1.0
 40
1.0
 40
1.0
 10
118.4430911567116
 20
52.98504100389697
 30
0.0
 10
118.127049437099
 20
53.02539432567166
 30
0.0
 10
117.4948417295306
 20
53.10611683624149
 30
0.0
 10
116.2606785572164
 20
53.18267478262425
 30
0.0
 10
114.9899564334007
 20
53.17799671460931
 30
0.0
 10
113.8013969668643
 20
53.09720024938608
 30
0.0
 10
112.8082742875738
 20
52.97280570253186
 30
0.0
 10
112.1688657562601
 20
52.86639875577063
 30
0.0
 10
111.8878457679067
 20
52.81332169646108
 30
0.0
 10
111.9544063363955
 20
52.82557618842299
 30
0.0
 10
111.9621966395581
 20
52.82701046414592
 30
0.0
  0
SPLINE
  5
2D1
330
1F
100
AcDbEntity
  8
0
  6
HIDDEN
 62
     7
370
     0
100
AcDbSpline
210
0.0
220
0.0
230
1.0
 70
     8
 71
     3
 72
    15
 73
    11
 74
     0
 42
0.00000001
 43
0.00000001
 12
1.0
 22
0.0
 32
0.0
 13
1.0
 23
0.0
 33
0.0
 40
0.0
 40
0.0
 40
0.0
 40
0.0
 40
0.1201202497733958
 40
0.2584739452442804
 40
0.3987302041697883
 40
0.5404022600041716
 40
0.680739511736143
 40
0.8190355942651634
 40
0.9577823154231621
 40
1.0
 40
1.0
 40
1.0
 40
1.0
 10
111.9621966395581
 20
92.81812847800472
 30
0.0
 10
111.9829058883616
 20
92.81410397393041
 30
0.0
 10
112.0274679105966
 20
92.80544407314184
 30
0.0
 10
112.5899073803251
 20
92.70615115443067
 30
0.0
 10
113.4833696357723
 20
92.58223514271937
 30
0.0
 10
114.6423484596245
 20
92.48252376718568
 30
0.0
 10
115.9153853284442
 20
92.45538670948767
 30
0.0
 10
117.1496706751713
 20
92.51072407161777
 30
0.0
 10
117.9776337528672
 20
92.59720380740912
 30
0.0
 10
118.3550440655135
 20
92.6482007265463
 30
0.0
 10
118.4430911567116
 20
92.66009793825367
 30
0.0
  0
SPLINE
  5
2D2
330
1F
100
AcDbEntity
  8
0
  6
HIDDEN
 62
     7
370
     0
100
AcDbSpline
210
0.0
220
0.0
230
1.0
 70
     8
 71
     3
 72
    10
 73
     6
 74
     0
 42
0.00000001
 43
0.00000001
 12
1.0
 22
0.0
 32
0.0
 13
1.0
 23
0.0
 33
0.0
 40
0.0
 40
0.0
 40
0.0
 40
0.0
 40
0.4476917172239279
 40
0.8953667720759324
 40
1.0
 40
1.0
 40
1.0
 40
1.0
 10
118.4430911567116
 20
92.66009793825367
 30
0.0
 10
118.6897905017381
 20
92.68960947667962
 30
0.0
 10
119.1831800100346
 20
92.74863145515913
 30
0.0
 10
119.4721893354852
 20
92.76257263532796
 30
0.0
 10
119.4118763700561
 20
92.75868481276686
 30
0.0
 10
119.4004502508844
 20
92.75794827587822
 30
0.0
  0
SPLINE
  5
2D3
330
1F
100
AcDbEntity
  8
0
  6
HIDDEN
 62
     7
370
     0
100
AcDbSpline
210
0.0
220
0.0
230
1.0
 70
     8
 71
     3
 72
    10
 73
     6
 74
     0
 42
0.00000001
 43
0.00000001
 12
1.0
 22
0.0
 32
0.0
 13
1.0
 23
0.0
 33
0.0
 40
0.0
 40
0.0
 40
0.0
 40
0.0
 40
0.3457469859783195
 40
0.7967816104736412
 40
1.0
 40
1.0
 40
1.0
 40
1.0
 10
119.4004716713036
 20
52.88719066627242
 30
0.0
 10
119.3909121747965
 20
52.88774537409459
 30
0.0
 10
119.3688821027174
 20
52.88902371059441
 30
0.0
 10
118.9518240297421
 20
52.91899153792243
 30
0.0
 10
118.5636594633964
 20
52.96938746017658
 30
0.0
 10
118.4430911567116
 20
52.98504100389697
 30
0.0
  0
LINE
  5
2D4
330
1F
100
AcDbEntity
  8
0
  6
HIDDEN
 62
     7
370
     0
100
AcDbLine
 10
105.692064612
 20
55.8225685472
 30
0.0
 11
105.692064612
 21
89.8225703949
 31
0.0
  0
LWPOLYLINE
  5
2D5
330
1F
100
AcDbEntity
  8
0
  6
HIDDEN
 62
     7
370
     0
100
AcDbPolyline
 90
        9
 70
   128
 43
0.0
 10
160.0690225501
 20
74.906561591
 10
160.1713860769
 20
75.1447976308
 10
160.2825450141
 20
75.2850066146
 10
160.3977980454
 20
75.3212692889
 10
160.5122911174
 20
75.2520554906
 10
160.6211813528
 20
75.0802865459
 10
160.719879194
 20
74.8132134995
 10
160.804216041
 20
74.4621101275
 10
160.8706305165
 20
74.0417974975
  0
LWPOLYLINE
  5
2D6
330
1F
100
AcDbEntity
  8
0
  6
HIDDEN
 62
     7
370
     0
100
AcDbPolyline
 90
        9
 70
   128
 43
0.0
 10
160.8706305165
 20
71.6033414446
 10
160.804216041
 20
71.1830288146
 10
160.719879194
 20
70.8319254427
 10
160.6211813528
 20
70.5648523962
 10
160.5122911174
 20
70.3930834515
 10
160.3977980454
 20
70.3238696533
 10
160.2825450141
 20
70.3601323275
 10
160.1713860769
 20
70.5003413113
 10
160.0690225501
 20
70.7385773512
  0
LINE
  5
2D7
330
1F
100
AcDbEntity
  8
0
  6
HIDDEN
 62
     7
370
     0
100
AcDbLine
 10
132.3479150783
 20
55.8225685472
 30
0.0
 11
132.3479150783
 21
89.8225703949
 31
0.0
  0
LINE
  5
2D8
330
1F
100
AcDbEntity
  8
0
  6
HIDDEN
 62
     7
370
     0
100
AcDbLine
 10
134.6380889777
 20
57.0975696409
 30
0.0
 11
134.6380889777
 21
88.5475693012
 31
0.0
  0
SPLINE
  5
2D9
330
1F
100
AcDbEntity
  8
0
  6
HIDDEN
 62
     7
370
     0
100
AcDbSpline
210
0.0
220
0.0
230
1.0
 70
     8
 71
     3
 72
    18
 73
    14
 74
     0
 42
0.00000001
 43
0.00000001
 12
1.0
 22
0.0
 32
0.0
 13
1.0
 23
0.0
 33
0.0
 40
0.0
 40
0.0
 40
0.0
 40
0.0
 40
0.2500000000000009
 40
0.2500000000000009
 40
0.3750000000000007
 40
0.3750000000000007
 40
0.5000000000000006
 40
0.5000000000000006
 40
0.6250000000000003
 40
0.6250000000000003
 40
0.7500000000000001
 40
0.7500000000000001
 40
1.0
 40
1.0
 40
1.0
 40
1.0
 10
98.88808911629565
 20
89.11008309347946
 30
0.0
 10
98.88808911629563
 20
89.05560857292724
 30
0.0
 10
98.85317842490346
 20
88.99922751357477
 30
0.0
 10
98.75116912357043
 20
88.91515067272127
 30
0.0
 10
98.7095327688923
 20
88.88781696873036
 30
0.0
 10
98.61112697340356
 20
88.83486305313139
 30
0.0
 10
98.55358376169929
 20
88.80897569941422
 30
0.0
 10
98.42628558812633
 20
88.76119815458094
 30
0.0
 10
98.35669828336886
 20
88.73925023640305
 30
0.0
 10
98.20526403821391
 20
88.69981767149035
 30
0.0
 10
98.12258013511996
 20
88.68226142226449
 30
0.0
 10
97.8664686730819
 20
88.63982265684398
 30
0.0
 10
97.67855366919392
 20
88.62405990710697
 30
0.0
 10
97.48808911629564
 20
88.62405990710698
 30
0.0
  0
LINE
  5
2DA
330
1F
100
AcDbEntity
  8
0
  6
HIDDEN
 62
     7
370
     0
100
AcDbLine
 10
97.4880887557
 20
88.6240606869
 30
0.0
 11
93.9380882669
 21
88.6240606869
 31
0.0
  0
LINE
  5
2DB
330
1F
100
AcDbEntity
  8
0
  6
HIDDEN
 62
     7
370
     0
100
AcDbLine
 10
93.9380882669
 20
57.0210782553
 30
0.0
 11
101.4880894113
 21
57.0210782553
 31
0.0
  0
SPLINE
  5
2DC
330
1F
100
AcDbEntity
  8
0
  6
HIDDEN
 62
     7
370
     0
100
AcDbSpline
210
0.0
220
0.0
230
1.0
 70
     8
 71
     3
 72
    16
 73
    12
 74
     0
 42
0.00000001
 43
0.00000001
 12
1.0
 22
0.0
 32
0.0
 13
1.0
 23
0.0
 33
0.0
 40
0.0
 40
0.0
 40
0.0
 40
0.0
 40
0.1249999999999988
 40
0.1249999999999988
 40
0.2499999999999977
 40
0.2499999999999977
 40
0.4999999999999984
 40
0.4999999999999984
 40
0.7499999999999992
 40
0.7499999999999992
 40
1.0
 40
1.0
 40
1.0
 40
1.0
 10
101.4880891162956
 20
57.02107903504366
 30
0.0
 10
101.5832108709615
 20
57.02107903504366
 30
0.0
 10
101.6765409396896
 20
57.01726320165088
 30
0.0
 10
101.8598027004276
 20
57.00249264892106
 30
0.0
 10
101.9506804159845
 20
56.99133460094548
 30
0.0
 10
102.2074821135043
 20
56.94886333080376
 30
0.0
 10
102.3625494783763
 20
56.90781713360096
 30
0.0
 10
102.6162959399309
 20
56.81267101701906
 30
0.0
 10
102.7171663915988
 20
56.75790828293749
 30
0.0
 10
102.8524128062936
 20
56.64664715903361
 30
0.0
 10
102.8880891162956
 20
56.58947742170493
 30
0.0
 10
102.8880891162956
 20
56.53505584867121
 30
0.0
  0
LINE
  5
2DD
330
1F
100
AcDbEntity
  8
0
  6
HIDDEN
 62
     7
370
     0
100
AcDbLine
 10
93.9380882669
 20
57.0210782553
 30
0.0
 11
93.9380882669
 21
88.6240606869
 31
0.0
  0
LINE
  5
2DE
330
1F
100
AcDbEntity
  8
0
  6
HIDDEN
 62
     7
370
     0
100
AcDbLine
 10
93.9380882669
 20
54.8325689251
 30
0.0
 11
93.9380882669
 21
52.0159383977
 31
0.0
  0
LINE
  5
2DF
330
1F
100
AcDbEntity
  8
0
  6
HIDDEN
 62
     7
370
     0
100
AcDbLine
 10
102.8880888958
 20
54.8325689251
 30
0.0
 11
102.8880888958
 21
50.8774207646
 31
0.0
  0
LINE
  5
2E0
330
1F
100
AcDbEntity
  8
0
  6
HIDDEN
 62
     7
370
     0
100
AcDbLine
 10
93.9380882669
 20
90.8125700171
 30
0.0
 11
93.9380882669
 21
93.6925081278
 31
0.0
  0
LINE
  5
2E1
330
1F
100
AcDbEntity
  8
0
  6
HIDDEN
 62
     7
370
     0
100
AcDbLine
 10
98.8880882401
 20
90.8125700171
 30
0.0
 11
98.8880882401
 21
94.6666771287
 31
0.0
  0
LINE
  5
2E2
330
1F
100
AcDbEntity
  8
0
  6
HIDDEN
 62
     7
370
     0
100
AcDbLine
 10
143.9880898584
 20
63.3225697765
 30
0.0
 11
143.9880898584
 21
82.3225691656
 31
0.0
  0
LINE
  5
2E3
330
1F
100
AcDbEntity
  8
0
  6
HIDDEN
 62
     7
370
     0
100
AcDbLine
 10
146.4880893368
 20
63.3225697765
 30
0.0
 11
146.4880893368
 21
82.3225691656
 31
0.0
  0
LINE
  5
2E4
330
1F
100
AcDbEntity
  8
0
  6
HIDDEN
 62
     7
370
     0
100
AcDbLine
 10
135.1380890597
 20
64.3225690091
 30
0.0
 11
135.1380890597
 21
81.322569933
 31
0.0
  0
LINE
  5
2E5
330
1F
100
AcDbEntity
  8
0
  6
HIDDEN
 62
     7
370
     0
100
AcDbLine
 10
150.6380888064
 20
46.4225696141
 30
0.0
 11
144.500414132
 21
46.4225696141
 31
0.0
  0
LINE
  5
2E6
330
1F
100
AcDbEntity
  8
0
  6
HIDDEN
 62
     7
370
     0
100
AcDbLine
 10
129.6380890895
 20
41.3384461517
 30
0.0
 11
129.6380890895
 21
46.4225696141
 31
0.0
  0
LINE
  5
2E7
330
1F
100
AcDbEntity
  8
0
  6
HIDDEN
 62
     7
370
     0
100
AcDbLine
 10
137.6380894695
 20
46.4225696141
 30
0.0
 11
129.6380890895
 21
46.4225696141
 31
0.0
  0
LINE
  5
2E8
330
1F
100
AcDbEntity
  8
0
  6
HIDDEN
 62
     7
370
     0
100
AcDbLine
 10
140.8757644136
 20
46.4225696141
 30
0.0
 11
137.6380894695
 21
46.4225696141
 31
0.0
  0
LINE
  5
2E9
330
1F
100
AcDbEntity
  8
0
  6
HIDDEN
 62
     7
370
     0
100
AcDbLine
 10
150.6380888064
 20
99.222569328
 30
0.0
 11
144.2037916172
 21
99.222569328
 31
0.0
  0
LINE
  5
2EA
330
1F
100
AcDbEntity
  8
0
  6
HIDDEN
 62
     7
370
     0
100
AcDbLine
 10
137.6380894695
 20
99.222569328
 30
0.0
 11
129.6380890895
 21
99.222569328
 31
0.0
  0
LINE
  5
2EB
330
1F
100
AcDbEntity
  8
0
  6
HIDDEN
 62
     7
370
     0
100
AcDbLine
 10
141.1723869283
 20
99.222569328
 30
0.0
 11
137.6380894695
 21
99.222569328
 31
0.0
  0
ELLIPSE
  5
2EC
330
1F
100
AcDbEntity
  8
0
  6
HIDDEN
 62
     7
370
     0
100
AcDbEllipse
 10
88.620657252
 20
72.8225694711
 30
0.0
 11
20.07002071827051
 21
-1.421085471520200E-14
 31
0.0
210
0.0
220
0.0
230
1.0
 40
0.8164965809
 41
1.302650465081197
 42
1.361629843993898
  0
ELLIPSE
  5
2ED
330
1F
100
AcDbEntity
  8
0
  6
HIDDEN
 62
     7
370
     0
100
AcDbEllipse
 10
88.620657252
 20
72.8225694711
 30
0.0
 11
20.07002071827054
 21
-2.842170943040401E-14
 31
0.0
210
0.0
220
0.0
230
1.0
 40
0.8164965809
 41
4.921555463185702
 42
4.980534842098404
  0
LINE
  5
2EE
330
1F
100
AcDbEntity
  8
0
  6
HIDDEN
 62
     7
370
     0
100
AcDbLine
 10
93.9380882669
 20
90.8125700171
 30
0.0
 11
93.9380882669
 21
88.6240606869
 31
0.0
  0
LINE
  5
2EF
330
1F
100
AcDbEntity
  8
0
  6
HIDDEN
 62
     7
370
     0
100
AcDbLine
 10
98.8880882401
 20
90.8125700171
 30
0.0
 11
98.8880882401
 21
89.1100825483
 31
0.0
  0
LINE
  5
2F0
330
1F
100
AcDbEntity
  8
0
  6
HIDDEN
 62
     7
370
     0
100
AcDbLine
 10
102.8880888958
 20
54.8325689251
 30
0.0
 11
102.8880888958
 21
56.5350563938
 31
0.0
  0
LINE
  5
2F1
330
1F
100
AcDbEntity
  8
0
  6
HIDDEN
 62
     7
370
     0
100
AcDbLine
 10
93.9380882669
 20
54.8325689251
 30
0.0
 11
93.9380882669
 21
57.0210782553
 31
0.0
  0
SPLINE
  5
2F2
330
1F
100
AcDbEntity
  8
0
  6
HIDDEN
 62
     7
370
     0
100
AcDbSpline
210
0.0
220
0.0
230
1.0
 70
     8
 71
     3
 72
    20
 73
    16
 74
     0
 42
0.00000001
 43
0.00000001
 12
1.0
 22
0.0
 32
0.0
 13
1.0
 23
0.0
 33
0.0
 40
0.0
 40
0.0
 40
0.0
 40
0.0
 40
0.111905328786186
 40
0.1774243863388888
 40
0.2490457867069119
 40
0.3297940712287434
 40
0.3985663085648477
 40
0.4998458334656172
 40
0.6138107293121413
 40
0.6789764959885475
 40
0.7495028524278995
 40
0.8296486536622897
 40
0.8980921833203461
 40
0.999502366562769
 40
1.0
 40
1.0
 40
1.0
 40
1.0
 10
119.4368123438264
 20
49.22260769851425
 30
0.0
 10
119.3935050046534
 20
49.23603021895161
 30
0.0
 10
119.3248418037131
 20
49.25731144369357
 30
0.0
 10
118.8797473671659
 20
49.3606065148326
 30
0.0
 10
118.3531931337398
 20
49.47390580026752
 30
0.0
 10
117.6677668056183
 20
49.59684073890492
 30
0.0
 10
116.7744499714766
 20
49.7188753508055
 30
0.0
 10
115.6610902105902
 20
49.83661102116567
 30
0.0
 10
114.5503160431052
 20
49.84858486526885
 30
0.0
 10
113.6655679462023
 20
49.82152937463795
 30
0.0
 10
112.9983709987837
 20
49.7735961386917
 30
0.0
 10
112.4570992890547
 20
49.71729972332767
 30
0.0
 10
112.0695163026318
 20
49.67222539133819
 30
0.0
 10
111.8755555638182
 20
49.63332311229125
 30
0.0
 10
111.9387215401626
 20
49.64405883289467
 30
0.0
 10
111.9390299905146
 20
49.64411125726917
 30
0.0
  0
LINE
  5
2F3
330
1F
100
AcDbEntity
  8
0
  6
HIDDEN
 62
     7
370
     0
100
AcDbLine
 10
112.8481014062
 20
49.7549069787
 30
0.0
 11
113.0319463451
 21
49.7730975712
 31
0.0
  0
SPLINE
  5
2F4
330
1F
100
AcDbEntity
  8
0
  6
HIDDEN
 62
     7
370
     0
100
AcDbSpline
210
0.0
220
0.0
230
1.0
 70
     8
 71
     3
 72
    27
 73
    23
 74
     0
 42
0.00000001
 43
0.00000001
 12
1.0
 22
0.0
 32
0.0
 13
1.0
 23
0.0
 33
0.0
 40
0.0
 40
0.0
 40
0.0
 40
0.0
 40
0.0007881974184464
 40
0.0456704994988144
 40
0.102251900411015
 40
0.1705296706381278
 40
0.2091211476426859
 40
0.2506481929463169
 40
0.3210936225903464
 40
0.3861870703255123
 40
0.4266660530792978
 40
0.4647971368773433
 40
0.5006012334796984
 40
0.5451928551496932
 40
0.6016868428246941
 40
0.6700924580845221
 40
0.7088296449679938
 40
0.7505581856881655
 40
0.8222224444428965
 40
0.8877615490365993
 40
0.9472350308203805
 40
1.0
 40
1.0
 40
1.0
 40
1.0
 10
111.9387412805165
 20
96.0009867066882
 30
0.0
 10
111.9385245843127
 20
96.00103344577307
 30
0.0
 10
111.9259685626431
 20
96.00374164717387
 30
0.0
 10
111.9750551164549
 20
95.9919035201277
 30
0.0
 10
112.1201501094085
 20
95.96846699152894
 30
0.0
 10
112.3932050673369
 20
95.93455808127946
 30
0.0
 10
112.7217304771433
 20
95.9009904516722
 30
0.0
 10
113.1144585517093
 20
95.86280742734014
 30
0.0
 10
113.6641863201031
 20
95.8238393391029
 30
0.0
 10
114.2902089594664
 20
95.80437771134316
 30
0.0
 10
114.8334007986928
 20
95.80219255509806
 30
0.0
 10
115.2784695482599
 20
95.8107072763998
 30
0.0
 10
115.7449174026715
 20
95.8304908265546
 30
0.0
 10
116.2821583284227
 20
95.87465070837025
 30
0.0
 10
116.9303712972955
 20
95.94707054313287
 30
0.0
 10
117.5159104450468
 20
96.02796820416633
 30
0.0
 10
117.9968795823199
 20
96.1061375587252
 30
0.0
 10
118.4422946942881
 20
96.19090814600202
 30
0.0
 10
118.880794051204
 20
96.28469272678656
 30
0.0
 10
119.2198214828515
 20
96.36259565646583
 30
0.0
 10
119.4071806170818
 20
96.41279149858097
 30
0.0
 10
119.427671485202
 20
96.41945973582514
 30
0.0
 10
119.437304547807
 20
96.42259457357147
 30
0.0
  0
LINE
  5
2F5
330
1F
100
AcDbEntity
  8
0
  6
HIDDEN
 62
     7
370
     0
100
AcDbLine
 10
161.4880899329
 20
68.6225696208
 30
0.0
 11
161.4880899329
 21
71.8427337215
 31
0.0
  0
LINE
  5
2F6
330
1F
100
AcDbEntity
  8
0
  6
HIDDEN
 62
     7
370
     0
100
AcDbLine
 10
161.4880899329
 20
73.8070519382
 30
0.0
 11
161.4880899329
 21
77.0225693213
 31
0.0
  0
LINE
  5
2F7
330
1F
100
AcDbEntity
  8
0
  6
HIDDEN
 62
     7
370
     0
100
AcDbLine
 10
162.5095533568
 20
70.322569527
 30
0.0
 11
162.5095533568
 21
75.3225694152
 31
0.0
  0
LINE
  5
2F8
330
1F
100
AcDbEntity
  8
0
  6
HIDDEN
 62
     7
370
     0
100
AcDbLine
 10
173.4880881745
 20
72.8225694711
 30
0.0
 11
173.4880881745
 21
70.322569527
 31
0.0
  0
LINE
  5
2F9
330
1F
100
AcDbEntity
  8
0
  6
HIDDEN
 62
     7
370
     0
100
AcDbLine
 10
173.4880881745
 20
75.3225694152
 30
0.0
 11
173.4880881745
 21
72.8225694711
 31
0.0
  0
LINE
  5
2FA
330
1F
100
AcDbEntity
  8
0
  6
HIDDEN
 62
     7
370
     0
100
AcDbLine
 10
205.1302569348
 20
72.521988166
 30
0.0
 11
214.5154552896
 21
67.6363628099
 31
0.0
  0
LINE
  5
2FB
330
1F
100
AcDbEntity
  8
0
  6
HIDDEN
 62
     7
370
     0
100
AcDbLine
 10
214.5154552896
 20
78.0087761322
 30
0.0
 11
207.8848408897
 21
74.5570958333
 31
0.0
  0
LINE
  5
2FC
330
1F
100
AcDbEntity
  8
0
  6
HIDDEN
 62
     7
370
     0
100
AcDbLine
 10
207.8848408897
 20
74.5570958333
 30
0.0
 11
207.8715416033
 21
74.5640171899
 31
0.0
  0
LINE
  5
2FD
330
1F
100
AcDbEntity
  8
0
  6
HIDDEN
 62
     7
370
     0
100
AcDbLine
 10
214.5154552896
 20
67.6363628099
 30
0.0
 11
214.5021634538
 21
67.6294416862
 31
0.0
  0
LINE
  5
2FE
330
1F
100
AcDbEntity
  8
0
  6
HIDDEN
 62
     7
370
     0
100
AcDbLine
 10
214.5154552896
 20
78.0087761322
 30
0.0
 11
214.5021634538
 21
78.015697256
 31
0.0
  0
LINE
  5
2FF
330
1F
100
AcDbEntity
  8
0
  6
HIDDEN
 62
     7
370
     0
100
AcDbLine
 10
214.5154552896
 20
77.6765561404
 30
0.0
 11
207.8981327254
 21
74.2317968488
 31
0.0
  0
LINE
  5
300
330
1F
100
AcDbEntity
  8
0
  6
HIDDEN
 62
     7
370
     0
100
AcDbLine
 10
207.8848408897
 20
74.2387182054
 30
0.0
 11
207.8981327254
 21
74.2317968488
 31
0.0
  0
LINE
  5
301
330
1F
100
AcDbEntity
  8
0
  6
HIDDEN
 62
     7
370
     0
100
AcDbLine
 10
207.8848408897
 20
74.5570958333
 30
0.0
 11
207.8848408897
 21
74.2387182054
 31
0.0
  0
LINE
  5
302
330
1F
100
AcDbEntity
  8
0
  6
HIDDEN
 62
     7
370
     0
100
AcDbLine
 10
214.5154552896
 20
78.0087761322
 30
0.0
 11
214.5154552896
 21
77.6765561404
 31
0.0
  0
LINE
  5
303
330
1F
100
AcDbEntity
  8
0
  6
HIDDEN
 62
     7
370
     0
100
AcDbLine
 10
207.8848408897
 20
74.2387182054
 30
0.0
 11
207.5657474238
 21
74.4048283177
 31
0.0
  0
LINE
  5
304
330
1F
100
AcDbEntity
  8
0
  6
HIDDEN
 62
     7
370
     0
100
AcDbLine
 10
205.0027327973
 20
72.9205935586
 30
0.0
 11
205.177739485
 21
72.8294907258
 31
0.0
  0
LINE
  5
305
330
1F
100
AcDbEntity
  8
0
  6
HIDDEN
 62
     7
370
     0
100
AcDbLine
 10
205.177739485
 20
72.8294907258
 30
0.0
 11
204.986892863
 21
72.8294907258
 31
0.0
  0
LINE
  5
306
330
1F
100
AcDbEntity
  8
0
  6
HIDDEN
 62
     7
370
     0
100
AcDbLine
 10
205.1910313208
 20
72.8225694711
 30
0.0
 11
204.9876379211
 21
72.8225694711
 31
0.0
  0
LINE
  5
307
330
1F
100
AcDbEntity
  8
0
  6
HIDDEN
 62
     7
370
     0
100
AcDbLine
 10
205.1910313208
 20
72.8225694711
 30
0.0
 11
205.177739485
 21
72.8294907258
 31
0.0
  0
LINE
  5
308
330
1F
100
AcDbEntity
  8
0
  6
HIDDEN
 62
     7
370
     0
100
AcDbLine
 10
205.1910313208
 20
72.8225694711
 30
0.0
 11
214.5154552896
 21
67.9685828017
 31
0.0
  0
LINE
  5
309
330
1F
100
AcDbEntity
  8
0
  6
HIDDEN
 62
     7
370
     0
100
AcDbLine
 10
214.5154552896
 20
67.6363628099
 30
0.0
 11
214.5154552896
 21
67.9685828017
 31
0.0
  0
LINE
  5
30A
330
1F
100
AcDbEntity
  8
0
  6
HIDDEN
 62
     7
370
     0
100
AcDbLine
 10
222.902387603
 20
72.5380294698
 30
0.0
 11
222.902387603
 21
73.1071094724
 31
0.0
  0
CIRCLE
  5
30B
330
1F
100
AcDbEntity
  8
0
  6
HIDDEN
 62
     7
370
     0
100
AcDbCircle
 10
214.7403076288
 20
72.8225694711
 30
0.0
 40
2.100000000000009
  0
LINE
  5
30C
330
1F
100
AcDbEntity
  8
0
  6
HIDDEN
 62
     7
370
     0
100
AcDbLine
 10
222.902387603
 20
72.5380294698
 30
0.0
 11
214.3200116593
 21
68.0703256021
 31
0.0
  0
LINE
  5
30D
330
1F
100
AcDbEntity
  8
0
  6
HIDDEN
 62
     7
370
     0
100
AcDbLine
 10
222.902387603
 20
73.1071094724
 30
0.0
 11
214.3200116593
 21
77.5748133401
 31
0.0
  0
CIRCLE
  5
30E
330
1F
100
AcDbEntity
  8
0
  6
HIDDEN
 62
     7
370
     0
100
AcDbCircle
 10
214.7403076288
 20
72.8225694711
 30
0.0
 40
1.650000000000006
  0
LINE
  5
30F
330
1F
100
AcDbEntity
  8
0
  6
HIDDEN
 62
     7
370
     0
100
AcDbLine
 10
217.0979382832
 20
72.5380294698
 30
0.0
 11
222.902387603
 21
72.5380294698
 31
0.0
  0
LINE
  5
310
330
1F
100
AcDbEntity
  8
0
  6
HIDDEN
 62
     7
370
     0
100
AcDbLine
 10
222.902387603
 20
73.1071094724
 30
0.0
 11
217.0979382832
 21
73.1071094724
 31
0.0
  0
LINE
  5
311
330
1F
100
AcDbEntity
  8
0
  6
HIDDEN
 62
     7
370
     0
100
AcDbLine
 10
140.7780891646
 20
93.0007887746
 30
0.0
 11
140.7780891646
 21
92.6725702102
 31
0.0
  0
LINE
  5
312
330
1F
100
AcDbEntity
  8
0
  6
HIDDEN
 62
     7
370
     0
100
AcDbLine
 10
144.5980893809
 20
93.0007887746
 30
0.0
 11
144.5980893809
 21
92.6725702102
 31
0.0
  0
LINE
  5
313
330
1F
100
AcDbEntity
  8
0
  6
HIDDEN
 62
     7
370
     0
100
AcDbLine
 10
146.0800210375
 20
97.2812590862
 30
0.0
 11
146.0800210375
 21
92.6725702102
 31
0.0
  0
CIRCLE
  5
314
330
1F
100
AcDbEntity
  8
0
  6
HIDDEN
 62
     7
370
     0
100
AcDbCircle
 10
131.6880891163
 20
72.8225694711
 30
0.0
 40
5.000000000000014
  0
CIRCLE
  5
315
330
1F
100
AcDbEntity
  8
0
  6
HIDDEN
 62
     7
370
     0
100
AcDbCircle
 10
158.6880891163
 20
72.8225694711
 30
0.0
 40
2.80000000000001
  0
CIRCLE
  5
316
330
1F
100
AcDbEntity
  8
0
  6
HIDDEN
 62
     7
370
     0
100
AcDbCircle
 10
158.6880891163
 20
72.8225694711
 30
0.0
 40
2.480384757729346
  0
CIRCLE
  5
317
330
1F
100
AcDbEntity
  8
0
  6
HIDDEN
 62
     7
370
     0
100
AcDbCircle
 10
214.7403076288
 20
72.8225694711
 30
0.0
 40
1.809570484150191
  0
LINE
  5
318
330
1F
100
AcDbEntity
  8
0
  6
HIDDEN
 62
     7
370
     0
100
AcDbLine
 10
124.6880891163
 20
47.4986457939
 30
0.0
 11
124.7822499541
 21
48.1686355288
 31
0.0
  0
LINE
  5
319
330
1F
100
AcDbEntity
  8
0
  6
HIDDEN
 62
     7
370
     0
100
AcDbLine
 10
124.7822499541
 20
97.4765034134
 30
0.0
 11
124.6880891163
 21
98.1464931483
 31
0.0
  0
ARC
  5
31A
330
1F
100
AcDbEntity
  8
0
  6
HIDDEN
 62
     7
370
     0
100
AcDbCircle
 10
124.1880891163
 20
48.2521386094
 30
0.0
 40
0.6000000000000012
100
AcDbArc
 50
352.0
 51
0.0
  0
ARC
  5
31B
330
1F
100
AcDbEntity
  8
0
  6
HIDDEN
 62
     7
370
     0
100
AcDbCircle
 10
124.1880891163
 20
48.2521386094
 30
0.0
 40
0.5999999999999943
100
AcDbArc
 50
0.0
 51
33.5573097619
  0
ARC
  5
31C
330
1F
100
AcDbEntity
  8
0
  6
HIDDEN
 62
     7
370
     0
100
AcDbCircle
 10
124.1880891163
 20
97.3930003328
 30
0.0
 40
0.6000000000000012
100
AcDbArc
 50
348.75
 51
8.0
  0
LWPOLYLINE
  5
31D
330
1F
100
AcDbEntity
  8
0
  6
HIDDEN
 62
     7
370
     0
100
AcDbPolyline
 90
        3
 70
   128
 43
0.0
 10
124.7765602862
 20
97.2759468222
 10
124.7424168364
 20
97.1633909012
 10
124.6880891163
 20
97.0613384361
  0
LINE
  5
31E
330
1F
100
AcDbEntity
  8
0
  6
HIDDEN
 62
     7
370
     0
100
AcDbLine
 10
124.7880891138
 20
48.2521379108
 30
0.0
 11
124.7880891138
 21
97.3930010314
 31
0.0
  0
LINE
  5
31F
330
1F
100
AcDbEntity
  8
0
  6
HIDDEN
 62
     7
370
     0
100
AcDbLine
 10
107.7705251414
 20
52.8225699181
 30
0.0
 11
111.9621966396
 21
52.8225699181
 31
0.0
  0
LINE
  5
320
330
1F
100
AcDbEntity
  8
0
  6
HIDDEN
 62
     7
370
     0
100
AcDbLine
 10
111.9621966396
 20
92.822569024
 30
0.0
 11
107.7705251414
 21
92.822569024
 31
0.0
  0
ARC
  5
321
330
1F
100
AcDbEntity
  8
0
  6
HIDDEN
 62
     7
370
     0
100
AcDbCircle
 10
107.7705246816
 20
53.4225694711
 30
0.0
 40
0.6000000000000014
100
AcDbArc
 50
210.0
 51
270.0
  0
ARC
  5
322
330
1F
100
AcDbEntity
  8
0
  6
HIDDEN
 62
     7
370
     0
100
AcDbCircle
 10
107.7705246816
 20
92.2225694711
 30
0.0
 40
0.6000000000000085
100
AcDbArc
 50
90.0
 51
150.0
  0
ARC
  5
323
330
1F
100
AcDbEntity
  8
0
  6
HIDDEN
 62
     7
370
     0
100
AcDbCircle
 10
118.4430911179
 20
60.8225694711
 30
0.0
 40
7.999999999999999
100
AcDbArc
 50
276.8741718533
 51
321.3178125465
  0
ARC
  5
324
330
1F
100
AcDbEntity
  8
0
  6
HIDDEN
 62
     7
370
     0
100
AcDbCircle
 10
118.4430911179
 20
84.8225694711
 30
0.0
 40
8.000000000000007
100
AcDbArc
 50
38.6821874535
 51
83.1169565599
  0
LINE
  5
325
330
1F
100
AcDbEntity
  8
0
  6
HIDDEN
 62
     7
370
     0
100
AcDbLine
 10
107.2509086121
 20
92.5225695337
 30
0.0
 11
105.692064612
 21
89.8225703949
 31
0.0
  0
LINE
  5
326
330
1F
100
AcDbEntity
  8
0
  6
HIDDEN
 62
     7
370
     0
100
AcDbLine
 10
105.692064612
 20
55.8225685472
 30
0.0
 11
107.2509086121
 21
53.1225694085
 31
0.0
  0
LINE
  5
327
330
1F
100
AcDbEntity
  8
0
  6
HIDDEN
 62
     7
370
     0
100
AcDbLine
 10
173.4372826655
 20
75.3225694152
 30
0.0
 11
160.3796633322
 21
75.3225694152
 31
0.0
  0
LINE
  5
328
330
1F
100
AcDbEntity
  8
0
  6
HIDDEN
 62
     7
370
     0
100
AcDbLine
 10
160.3796633322
 20
70.322569527
 30
0.0
 11
173.4372826655
 21
70.322569527
 31
0.0
  0
ARC
  5
329
330
1F
100
AcDbEntity
  8
0
  6
HIDDEN
 62
     7
370
     0
100
AcDbCircle
 10
133.1380891163
 20
57.0975694711
 30
0.0
 40
1.50000000000001
100
AcDbArc
 50
238.2116693829
 51
0.0
  0
ARC
  5
32A
330
1F
100
AcDbEntity
  8
0
  6
HIDDEN
 62
     7
370
     0
100
AcDbCircle
 10
133.1380891163
 20
88.5475694711
 30
0.0
 40
1.500000000000016
100
AcDbArc
 50
0.0
 51
121.7883306171
  0
LINE
  5
32B
330
1F
100
AcDbEntity
  8
0
  6
HIDDEN
 62
     7
370
     0
100
AcDbLine
 10
102.8880888958
 20
55.8225685472
 30
0.0
 11
105.692064612
 21
55.8225685472
 31
0.0
  0
LINE
  5
32C
330
1F
100
AcDbEntity
  8
0
  6
HIDDEN
 62
     7
370
     0
100
AcDbLine
 10
105.692064612
 20
89.8225703949
 30
0.0
 11
98.8880882401
 21
89.8225703949
 31
0.0
  0
LINE
  5
32D
330
1F
100
AcDbEntity
  8
0
  6
HIDDEN
 62
     7
370
     0
100
AcDbLine
 10
124.6880891163
 20
55.8225685472
 30
0.0
 11
132.3479150783
 21
55.8225685472
 31
0.0
  0
LINE
  5
32E
330
1F
100
AcDbEntity
  8
0
  6
HIDDEN
 62
     7
370
     0
100
AcDbLine
 10
132.3479150783
 20
89.8225703949
 30
0.0
 11
124.6880891163
 21
89.8225703949
 31
0.0
  0
LINE
  5
32F
330
1F
100
AcDbEntity
  8
0
  6
HIDDEN
 62
     7
370
     0
100
AcDbLine
 10
160.1635815937
 20
75.1306638794
 30
0.0
 11
160.0492263574
 21
74.9190990555
 31
0.0
  0
LINE
  5
330
330
1F
100
AcDbEntity
  8
0
  6
HIDDEN
 62
     7
370
     0
100
AcDbLine
 10
160.0485446293
 20
70.7273008975
 30
0.0
 11
160.1635815937
 21
70.5144750627
 31
0.0
  0
LINE
  5
331
330
1F
100
AcDbEntity
  8
0
  6
HIDDEN
 62
     7
370
     0
100
AcDbLine
 10
143.9880898584
 20
63.3225697765
 30
0.0
 11
146.4880893368
 21
63.3225697765
 31
0.0
  0
LINE
  5
332
330
1F
100
AcDbEntity
  8
0
  6
HIDDEN
 62
     7
370
     0
100
AcDbLine
 10
146.4880893368
 20
82.3225691656
 30
0.0
 11
143.9880898584
 21
82.3225691656
 31
0.0
  0
LINE
  5
333
330
1F
100
AcDbEntity
  8
0
  6
HIDDEN
 62
     7
370
     0
100
AcDbLine
 10
134.6380889777
 20
63.8225698585
 30
0.0
 11
135.1380890597
 21
64.3225690091
 31
0.0
  0
LINE
  5
334
330
1F
100
AcDbEntity
  8
0
  6
HIDDEN
 62
     7
370
     0
100
AcDbLine
 10
135.1380890597
 20
81.322569933
 30
0.0
 11
134.6380889777
 21
81.8225690836
 31
0.0
  0
LINE
  5
335
330
1F
100
AcDbEntity
  8
0
  6
HIDDEN
 62
     7
370
     0
100
AcDbLine
 10
135.1380890597
 20
64.3225690091
 30
0.0
 11
143.9880898584
 21
64.3225690091
 31
0.0
  0
LINE
  5
336
330
1F
100
AcDbEntity
  8
0
  6
HIDDEN
 62
     7
370
     0
100
AcDbLine
 10
143.9880898584
 20
81.322569933
 30
0.0
 11
135.1380890597
 21
81.322569933
 31
0.0
  0
LINE
  5
337
330
1F
100
AcDbEntity
  8
0
  6
HIDDEN
 62
     7
370
     0
100
AcDbLine
 10
129.6380890895
 20
104.3225699777
 30
0.0
 11
129.6380890895
 21
99.222569328
 31
0.0
  0
LINE
  5
338
330
1F
100
AcDbEntity
  8
0
  6
HIDDEN
 62
     7
370
     0
100
AcDbLine
 10
119.8725269537
 20
48.7431982274
 30
0.0
 11
119.438094775
 21
49.2222649718
 31
0.0
  0
LINE
  5
339
330
1F
100
AcDbEntity
  8
0
  6
HIDDEN
 62
     7
370
     0
100
AcDbLine
 10
111.9380912174
 20
49.6439529324
 30
0.0
 11
111.4556577418
 21
49.164886188
 31
0.0
  0
LINE
  5
33A
330
1F
100
AcDbEntity
  8
0
  6
HIDDEN
 62
     7
370
     0
100
AcDbLine
 10
111.4555357385
 20
96.4802471662
 30
0.0
 11
111.9380865607
 21
96.0011264051
 31
0.0
  0
LINE
  5
33B
330
1F
100
AcDbEntity
  8
0
  6
HIDDEN
 62
     7
370
     0
100
AcDbLine
 10
119.4380891871
 20
96.4228255416
 30
0.0
 11
119.8726312619
 21
96.9019444401
 31
0.0
  0
LINE
  5
33C
330
1F
100
AcDbEntity
  8
0
  6
HIDDEN
 62
     7
370
     0
100
AcDbLine
 10
161.4880899329
 20
68.6225696208
 30
0.0
 11
162.5095533568
 21
70.322569527
 31
0.0
  0
LINE
  5
33D
330
1F
100
AcDbEntity
  8
0
  6
HIDDEN
 62
     7
370
     0
100
AcDbLine
 10
162.5095533568
 20
75.3225694152
 30
0.0
 11
161.4880899329
 21
77.0225693213
 31
0.0
  0
LINE
  5
33E
330
1F
100
AcDbEntity
  8
0
  6
HIDDEN
 62
     7
370
     0
100
AcDbLine
 10
146.4880893368
 20
68.6225696208
 30
0.0
 11
161.4880899329
 21
68.6225696208
 31
0.0
  0
LINE
  5
33F
330
1F
100
AcDbEntity
  8
0
  6
HIDDEN
 62
     7
370
     0
100
AcDbLine
 10
161.4880899329
 20
77.0225693213
 30
0.0
 11
146.4880893368
 21
77.0225693213
 31
0.0
  0
LINE
  5
340
330
1F
100
AcDbEntity
  8
0
  6
HIDDEN
 62
     7
370
     0
100
AcDbLine
 10
119.4380891871
 20
92.7579706276
 30
0.0
 11
119.4380891871
 21
96.4225331063
 31
0.0
  0
LINE
  5
341
330
1F
100
AcDbEntity
  8
0
  6
HIDDEN
 62
     7
370
     0
100
AcDbLine
 10
111.9380893547
 20
96.0009829814
 30
0.0
 11
111.9380893547
 21
92.8181918079
 31
0.0
  0
LINE
  5
342
330
1F
100
AcDbEntity
  8
0
  6
HIDDEN
 62
     7
370
     0
100
AcDbLine
 10
119.4380891871
 20
49.2227473969
 30
0.0
 11
119.4380891871
 21
52.8871683145
 31
0.0
  0
LINE
  5
343
330
1F
100
AcDbEntity
  8
0
  6
HIDDEN
 62
     7
370
     0
100
AcDbLine
 10
111.9380893547
 20
52.8269471342
 30
0.0
 11
111.9380893547
 21
49.64427517
 31
0.0
  0
LINE
  5
344
330
1F
100
AcDbEntity
  8
0
  6
HIDDEN
 62
     7
370
     0
100
AcDbLine
 10
173.4372826655
 20
70.322569527
 30
0.0
 11
173.4880881745
 21
70.322569527
 31
0.0
  0
LINE
  5
345
330
1F
100
AcDbEntity
  8
0
  6
HIDDEN
 62
     7
370
     0
100
AcDbLine
 10
173.4880881745
 20
75.3225694152
 30
0.0
 11
173.4372826655
 21
75.3225694152
 31
0.0
  0
LINE
  5
346
330
1F
100
AcDbEntity
  8
0
  6
HIDDEN
 62
     7
370
     0
100
AcDbLine
 10
173.4880881745
 20
70.322569527
 30
0.0
 11
174.9902407069
 21
72.8225694711
 31
0.0
  0
LINE
  5
347
330
1F
100
AcDbEntity
  8
0
  6
HIDDEN
 62
     7
370
     0
100
AcDbLine
 10
174.9902407069
 20
72.8225694711
 30
0.0
 11
173.4880881745
 21
75.3225694152
 31
0.0
  0
DIMENSION
  5
348
330
1F
100
AcDbEntity
  8
VERMASSUNG
100
AcDbDimension
  2
_D_3
 10
231.6618454168
 20
46.8225694711
 30
0.0
 11
231.6618454168
 21
72.8225694711
 31
0.0
 70
   160
  1
%%c<>
 71
     2
 42
-1.0
  3
SLDDIMSTYLE0
100
AcDbAlignedDimension
 13
174.6123042996
 23
98.8225694711
 33
0.0
 14
174.6123042996
 24
46.8225694711
 34
0.0
 50
90.0
100
AcDbRotatedDimension
  0
LINE
  5
353
330
1F
100
AcDbEntity
  8
VERMASSUNG
  6
CENTERX2
370
     0
100
AcDbLine
 10
89.8442202615
 20
72.8225694711
 30
0.0
 11
226.0870774044
 21
72.8225694711
 31
0.0
  0
OLE2FRAME
  5
354
330
1F
100
AcDbEntity
  8
0
100
AcDbOle2Frame
 70
     2
  3
Paintbrush-Bild
 10
13.8511154363
 20
38.264191557
 30
0.0
 11
51.6290888628
 21
31.9806341108
 31
0.0
 71
     2
 72
     0
 73
     1
 90
    12928
310
80552BED0767C5B32B40DDAF6807D121434000000000000000006FFBDDFB85D0
310
4940DDAF6807D121434000000000000000006FFBDDFB85D04940416F4BD60AFB
310
3F4000000000000000002BED0767C5B32B40416F4BD60AFB3F40000000000000
310
0000000000000100000000010000010000000100000000000100000000320000
310
D0CF11E0A1B11AE1000000000000000000000000000000003E000300FEFF0900
310
0600000000000000000000000100000001000000000000000010000002000000
310
01000000FEFFFFFF0000000000000000FFFFFFFFFFFFFFFFFFFFFFFFFFFFFFFF
310
FFFFFFFFFFFFFFFFFFFFFFFFFFFFFFFFFFFFFFFFFFFFFFFFFFFFFFFFFFFFFFFF
310
FFFFFFFFFFFFFFFFFFFFFFFFFFFFFFFFFFFFFFFFFFFFFFFFFFFFFFFFFFFFFFFF
310
FFFFFFFFFFFFFFFFFFFFFFFFFFFFFFFFFFFFFFFFFFFFFFFFFFFFFFFFFFFFFFFF
310
FFFFFFFFFFFFFFFFFFFFFFFFFFFFFFFFFFFFFFFFFFFFFFFFFFFFFFFFFFFFFFFF
310
FFFFFFFFFFFFFFFFFFFFFFFFFFFFFFFFFFFFFFFFFFFFFFFFFFFFFFFFFFFFFFFF
310
FFFFFFFFFFFFFFFFFFFFFFFFFFFFFFFFFFFFFFFFFFFFFFFFFFFFFFFFFFFFFFFF
310
FFFFFFFFFFFFFFFFFFFFFFFFFFFFFFFFFFFFFFFFFFFFFFFFFFFFFFFFFFFFFFFF
310
FFFFFFFFFFFFFFFFFFFFFFFFFFFFFFFFFFFFFFFFFFFFFFFFFFFFFFFFFFFFFFFF
310
FFFFFFFFFFFFFFFFFFFFFFFFFFFFFFFFFFFFFFFFFFFFFFFFFFFFFFFFFFFFFFFF
310
FFFFFFFFFFFFFFFFFFFFFFFFFFFFFFFFFFFFFFFFFFFFFFFFFFFFFFFFFFFFFFFF
310
FFFFFFFFFFFFFFFFFFFFFFFFFFFFFFFFFFFFFFFFFFFFFFFFFFFFFFFFFFFFFFFF
310
FFFFFFFFFFFFFFFFFFFFFFFFFFFFFFFFFFFFFFFFFFFFFFFFFFFFFFFFFFFFFFFF
310
FFFFFFFFFFFFFFFFFFFFFFFFFFFFFFFFFFFFFFFFFFFFFFFFFFFFFFFFFFFFFFFF
310
FDFFFFFFFEFFFFFFFEFFFFFFFEFFFFFF05000000060000000700000008000000
310
090000000A0000000B0000000C0000000D0000000E0000000F00000010000000
310
11000000120000001300000014000000150000001600000017000000FEFFFFFF
310
FFFFFFFFFFFFFFFFFFFFFFFFFFFFFFFFFFFFFFFFFFFFFFFFFFFFFFFFFFFFFFFF
310
FFFFFFFFFFFFFFFFFFFFFFFFFFFFFFFFFFFFFFFFFFFFFFFFFFFFFFFFFFFFFFFF
310
FFFFFFFFFFFFFFFFFFFFFFFFFFFFFFFFFFFFFFFFFFFFFFFFFFFFFFFFFFFFFFFF
310
FFFFFFFFFFFFFFFFFFFFFFFFFFFFFFFFFFFFFFFFFFFFFFFFFFFFFFFFFFFFFFFF
310
FFFFFFFFFFFFFFFFFFFFFFFFFFFFFFFFFFFFFFFFFFFFFFFFFFFFFFFFFFFFFFFF
310
FFFFFFFFFFFFFFFFFFFFFFFFFFFFFFFFFFFFFFFFFFFFFFFFFFFFFFFFFFFFFFFF
310
FFFFFFFFFFFFFFFFFFFFFFFFFFFFFFFFFFFFFFFFFFFFFFFFFFFFFFFFFFFFFFFF
310
FFFFFFFFFFFFFFFFFFFFFFFFFFFFFFFFFFFFFFFFFFFFFFFFFFFFFFFFFFFFFFFF
310
FFFFFFFFFFFFFFFFFFFFFFFFFFFFFFFFFFFFFFFFFFFFFFFFFFFFFFFFFFFFFFFF
310
FFFFFFFFFFFFFFFFFFFFFFFFFFFFFFFFFFFFFFFFFFFFFFFFFFFFFFFFFFFFFFFF
310
FFFFFFFFFFFFFFFFFFFFFFFFFFFFFFFFFFFFFFFFFFFFFFFFFFFFFFFFFFFFFFFF
310
FFFFFFFFFFFFFFFFFFFFFFFFFFFFFFFFFFFFFFFFFFFFFFFFFFFFFFFFFFFFFFFF
310
FFFFFFFFFFFFFFFFFFFFFFFFFFFFFFFFFFFFFFFFFFFFFFFFFFFFFFFFFFFFFFFF
310
52006F006F007400200045006E00740072007900000000000000000000000000
310
0000000000000000000000000000000000000000000000000000000000000000
310
16000500FFFFFFFFFFFFFFFF020000000A00030000000000C000000000000046
310
00000000000000000000000020070D8D2EDCCD0103000000C000000000000000
310
01004F006C006500000000000000000000000000000000000000000000000000
310
0000000000000000000000000000000000000000000000000000000000000000
310
0A000200FFFFFFFFFFFFFFFFFFFFFFFF00000000000000000000000000000000
310
0000000000000000000000000000000000000000000000001400000000000000
310
010043006F006D0070004F0062006A0000000000000000000000000000000000
310
0000000000000000000000000000000000000000000000000000000000000000
310
120002010100000003000000FFFFFFFF00000000000000000000000000000000
310
0000000000000000000000000000000000000000010000004D00000000000000
310
01004F006C006500310030004E00610074006900760065000000000000000000
310
0000000000000000000000000000000000000000000000000000000000000000
310
1A000200FFFFFFFFFFFFFFFFFFFFFFFF00000000000000000000000000000000
310
0000000000000000000000000000000000000000040000002426000000000000
310
FEFFFFFF02000000FEFFFFFFFFFFFFFFFFFFFFFFFFFFFFFFFFFFFFFFFFFFFFFF
310
FFFFFFFFFFFFFFFFFFFFFFFFFFFFFFFFFFFFFFFFFFFFFFFFFFFFFFFFFFFFFFFF
310
FFFFFFFFFFFFFFFFFFFFFFFFFFFFFFFFFFFFFFFFFFFFFFFFFFFFFFFFFFFFFFFF
310
FFFFFFFFFFFFFFFFFFFFFFFFFFFFFFFFFFFFFFFFFFFFFFFFFFFFFFFFFFFFFFFF
310
FFFFFFFFFFFFFFFFFFFFFFFFFFFFFFFFFFFFFFFFFFFFFFFFFFFFFFFFFFFFFFFF
310
FFFFFFFFFFFFFFFFFFFFFFFFFFFFFFFFFFFFFFFFFFFFFFFFFFFFFFFFFFFFFFFF
310
FFFFFFFFFFFFFFFFFFFFFFFFFFFFFFFFFFFFFFFFFFFFFFFFFFFFFFFFFFFFFFFF
310
FFFFFFFFFFFFFFFFFFFFFFFFFFFFFFFFFFFFFFFFFFFFFFFFFFFFFFFFFFFFFFFF
310
FFFFFFFFFFFFFFFFFFFFFFFFFFFFFFFFFFFFFFFFFFFFFFFFFFFFFFFFFFFFFFFF
310
FFFFFFFFFFFFFFFFFFFFFFFFFFFFFFFFFFFFFFFFFFFFFFFFFFFFFFFFFFFFFFFF
310
FFFFFFFFFFFFFFFFFFFFFFFFFFFFFFFFFFFFFFFFFFFFFFFFFFFFFFFFFFFFFFFF
310
FFFFFFFFFFFFFFFFFFFFFFFFFFFFFFFFFFFFFFFFFFFFFFFFFFFFFFFFFFFFFFFF
310
FFFFFFFFFFFFFFFFFFFFFFFFFFFFFFFFFFFFFFFFFFFFFFFFFFFFFFFFFFFFFFFF
310
FFFFFFFFFFFFFFFFFFFFFFFFFFFFFFFFFFFFFFFFFFFFFFFFFFFFFFFFFFFFFFFF
310
FFFFFFFFFFFFFFFFFFFFFFFFFFFFFFFFFFFFFFFFFFFFFFFFFFFFFFFFFFFFFFFF
310
FFFFFFFFFFFFFFFFFFFFFFFFFFFFFFFFFFFFFFFFFFFFFFFFFFFFFFFFFFFFFFFF
310
0100000200000000000000000000000000000000000000000000000000000000
310
0000000000000000000000000000000000000000000000000000000000000000
310
0100FEFF030A0000FFFFFFFF0A00030000000000C00000000000004607000000
310
5042727573680007000000504272757368000700000050427275736800F439B2
310
7100000000000000000000000000000000000000000000000000000000000000
310
0000000000000000000000000000000000000000000000000000000000000000
310
0000000000000000000000000000000000000000000000000000000000000000
310
0000000000000000000000000000000000000000000000000000000000000000
310
0000000000000000000000000000000000000000000000000000000000000000
310
0000000000000000000000000000000000000000000000000000000000000000
310
0000000000000000000000000000000000000000000000000000000000000000
310
0000000000000000000000000000000000000000000000000000000000000000
310
0000000000000000000000000000000000000000000000000000000000000000
310
0000000000000000000000000000000000000000000000000000000000000000
310
0000000000000000000000000000000000000000000000000000000000000000
310
0000000000000000000000000000000000000000000000000000000000000000
310
20260000424D0E260000000000003E00000028000000B40200006E0000000100
310
01000000000000000000130B0000130B00000200000002000000000000FFFFFF
310
FFFFFFFFFFFFFFFFFFFFFFFFFFFFFFFFFFFFFFFFFFFFFFFFFFFFFFFFFFFFFFFF
310
FFFFFFFFFFFFFFFFFFFFFFFFFFFFFFFFFFFFFFFFFFFFFFFFFFFFFFFFFFFFFFFF
310
FFFFFFFFFFFFFFFFFFFFFFFFFFFFFFFFFFFFFFFFFFFFFFFFF000FFFFFFFFFFFF
310
FFFFFFFFFFFFFFFFFFFFFFFFFFFFFFFFFFFFFFFFFFFFFFFFFFFFFFFFFFFFFFFF
310
FFFFFFFFFFFFFFFFFFFFFFFFFFFFFFFFFFFFFFFFFFFFFFFFFFFFFFFFFFFFFFFF
310
FFFFFFFFFFFFFFFFFFFFFFFFFFFFFFFFF000FFFFFFFFFFFFFFFFFFFFFFFFFFFF
310
FFFFFFFFFFFFFFFFFFFFFFFFFFFFFFFFFFFFFFFFFFFFFFFFFFFFFFFFFFFFFFFF
310
FFFFFFFFFFFFFFFFFFFFFFFFFFFFFFFFFFFFFFFFFFFFFFFFFFFFFFFFFFFFFFFF
310
FFFFFFFFFFFFFFFFF000FFFFFFFFFFFFFFFFFFFFFFFFFFFFFFFFFFFFFFFFFFFF
310
FFFFFFFFFFFFFFFFFFFFFFFFFFFFFFFFFFFFFFFFFFFFFFFFFFFFFFFFFFFFFFFF
310
FFFFFFFFFFFFFFFFFFFFFFFFFFFFFFFFFFFFFFFFFFFFFFFFFFFFFFFFFFFFFFFF
310
F000FFFFFFFFFFFFFFFFFFFFFFFFFFFFFFFFFFFFFFFFFFFFFFFFFFFFFFFFFFFF
310
FFFFFFFFFFFFFFFFFFFFFFFFFFFFFFFFFFFFFFFFFFFFFFFFFFFFFFFFFFFFFFFF
310
FFFFFFFFFFFFFFFFFFFFFFFFFFFFFFFFFFFFFFFFFFFFFFFFF000FFFFFFFFFFFF
310
FFFFFFFFFFFFFFFFFFFFFFFFFFFFFFFFFFFFFFFFFFFFFFFFFFFFFFFFFFFFFFFF
310
FFFFFFFFFFFFFFFFFFFFFFFFFFFFFFFFFFFFFFFFFFFFFFFFFFFFFFFFFFFFFFFF
310
FFFFFFFFFFFFFFFFFFFFFFFFFFFFFFFFF000FFFFFFFFFFFFFFFFFFFFFFFFFFFF
310
FFFFFFFFFFFFFFFFFFFFFFFFFFFFFFFFFFFFFFFFFFFFFFFFFFFFFFFFFFFFFFFF
310
FFFFFFFFFFFFFFFFFFFFFFFFFFFFFFFFFFFFFFFFFFFFFFFFFFFFFFFFFFFFFFFF
310
FFFFFFFFFFFFFFFFF000FFFFFFFFFFFFFFFFFFFFFFFFFFFFFFFFFFFFFFFFFFFF
310
FFFFFFFFFFFFFFFFFFFFFFFFFFFFFFFFFFFFFFFFFFFFFFFFFFFFFFFFFFFFFFFF
310
FFFFFFFFFFFFFFFFFFFFFFFFFFFFFFFFFFFFFFFFFFFFFFFFFFFFFFFFFFFFFFFF
310
F000FFFFFFFFFFFFFFFFFFFFFFFFFFFFFFFFFFFFFFFFFFFFFFFFFFFFFFFFFFFF
310
FFFFFFFFFFFFFFFFFFFFFFFFFFFFFFFFFFFFFFFFFFFFFFFFFFFFFFFFFFFFFFFF
310
FFFFFFFFFFFFFFFFFFFFFFFFFFFFFFFFFFFFFFFFFFFFFFFFF000FFFFFFFFFFFF
310
FFFFFFFFFFFFFFFFFFFFFFFFFFFFFFFFFFFFFFFFFFFFFFFFFFFFFFFFFFFFFFFF
310
FFFFFFFFFFFFFFFFFFFFFFFFFFFFFFFFFFFFFFFFFFFFFFFFFFFFFFFFFFFFFFFF
310
FFFFFFFFFFFFFFFFFFFFFFFFFFFFFFFFF000FFFFFFFFFFFFFFFFFFFFFFFFFFFF
310
FFFFFFFFFFFFFFFFFFFFFFFFFFFFFFFFFFFFFFFFFFFFFFFFFFFFFFFFFFFFFFFF
310
FFFFFFFFFFFFFFFFFFFFFFFFFFFFFFFFFFFFFFFFFFFFFFFFFFFFFFFFFFFFFFFF
310
FFFFFFFFFFFFFFFFF000FFFFFFFFFFFFFFFFFFFFFFFFFFFFFFFFFFFFFFFFFFFF
310
FFFFFFFFFFFFFFFFFFFFFFFFFFFFFFFFFFFFFFFFFFFFFFFFFFFFFFFFFFFFFFFF
310
FFFFFFFFFFFFFFFFFFFFFFFFFFFFFFFFFFFFFFFFFFFFFFFFFFFFFFFFFFFFFFFF
310
F000FFFFFFFFFFFFFFFFFFFFFFFFFFFFFFFFFFFFFFFFFFFFFFFFFFFFFFFFFFFF
310
FFFFFFFFFFFFFFFFFFFFFFFFFFFFFFFFFFFFFFFFFFFFFFFFFFFFFFFFFFFFFFFF
310
FFFFFFFFFFFFFFFFFFFFFFFFFFFFFFFFFFFFFFFFFFFFFFFFF000FFFFFFFFFFFF
310
FFFFFFFFFFFFFFFFFFFFFFFFFFFFFFFFFFFFFFFFFFFFFFFFFFFFFFFFFFFFFFFF
310
FFFFFFFFFFFFFFFFFFFFFFFFFFFFFFFFFFFFFFFFFFFFFFFFFFFFFFFFFFFFFFFF
310
FFFFFFFFFFFFFFFFFFFFFFFFFFFFFFFFF000FFFFFFFFFFFFFFFFFFFFFFFFFFFF
310
FFFFFFFFFFFFFFFFFFFFFFFFFFFFFFFFFFFFFFFFFFFFFFFFFFFFFFFFFFFFFFFF
310
FFFFFFFFFFFFFFFFFFFFFFFFFFFFFFFFFFFFFFFFFFFFFFFFFFFFFFFFFFFFFFFF
310
FFFFFFFFFFFFFFFFF000FFFFFFFFFFFFFFFFFFFFFFFFFFFFFFFFFFFFFFFFFFFF
310
FFFFFFFFFFFFFFFFFFFFFFFFFFFFFFFFFFFFFFFFFFFFFFFFFFFFFFFFFFFFFFFF
310
FFFFFFFFFFFFFFFFFFFFFFFFFFFFFFFFFFFFFFFFFFFFFFFFFFFFFFFFFFFFFFFF
310
F000FFFFFFFFFFFFFFFFFFFFFFFFFFFFFFFFFFFFFFFFFFFFFFFFFFFFFFFFFFFF
310
FFFFFFFFFFFFFFFFFFFFFFFFFFFFFFFFFFFFFFFFFFFFFFFFFFFFFFFFFFFFFFFF
310
FFFFFFFFFFFFFFFFFFFFFFFFFFFFFFFFFFFFFFFFFFFFFFFFF000FFFFFFFFFFFF
310
FFFFFFFFFFFFFFFFFFFFFFFFFFFFFFFFFFFFFFFFFFFFFFFFFFFFFFFFFFFFFFFF
310
FFFFFFFFFFFFFFFFFFFFFFFFFFFFFFFFFFFFFFFFFFFFFFFFFFFFFFFFFFFFFFFF
310
FFFFFFFFFFFFFFFFFFFFFFFFFFFFFFFFF000FFFFFFFFFFFFFFFFFFFFFFFFFFFF
310
FFFFFFFFFFFFFFFFFFFFFFFFFFFFFFFFFFFFFFFFFFFFFFFFFFFFFFFFFFFFFFFF
310
FFFFFFFFFFFFFFFFFFFFFFFFFFFFFFFFFFFFFFFFFFFFFFFFFFFFFFFFFFFFFFFF
310
FFFFFFFFFFFFFFFFF000FFFFF80003FFFFFFFFFFFFFFFFFFFFFFFFFFFFFFFFFF
310
FFFFF00007FFFFFFFFFF00007FFFFFF800000000000000007FFFFFFFFFFFFFFF
310
FFFFFFFC001FFFFFFFFFFFFFFC001FFFFFFFFFFFFFFFFFFFFFFFFFFE0007FFFF
310
F000FFFF8000007FFFFFFFF8000FFFFFC0007FFFFF80007FFFFF0000007FFFFF
310
FFF8000007FFFFF800000000000000007FFFFFF0001FFFFFFFFFFFC00001FFFF
310
FFFFFFFFC00001FFFFFFFF000000000003FFFFE000007FFFF000FFFE0000000F
310
FFFFFFF0000FFFFF80007FFFFF80007FFFFC0000001FFFFFFFC0000001FFFFF8
310
00000000000000007FFFFFF0001FFFFFFFFFFE0000003FFFFFFFFFFE0000003F
310
FFFFFF000000000003FFFF0000000FFFF000FFF800000003FFFFFFF00007FFFF
310
80007FFFFF80007FFFF000000007FFFFFF000000003FFFF80000000000000000
310
7FFFFFF0001FFFFFFFFFF80000000FFFFFFFFFF80000000FFFFFFF0000000000
310
03FFFC00000003FFF000FFE000000000FFFFFFF00007FFFF80003FFFFF80007F
310
FFC000000001FFFFFC000000001FFFF800000000000000007FFFFFF0001FFFFF
310
FFFFE000000003FFFFFFFFE000000003FFFFFF000000000003FFF000000000FF
310
F000FF80000000007FFFFFF00007FFFF80003FFFFF80007FFF8000000000FFFF
310
F80000000007FFF800000000000000007FFFFFF0001FFFFFFFFFC000000001FF
310
FFFFFFC000000001FFFFFF000000000003FFC0000000007FF000FF0000000000
310
3FFFFFE00007FFFF00003FFFFF80007FFE00000000003FFFF00000000003FFF8
310
00000000000000007FFFFFF0001FFFFFFFFF8000000000FFFFFFFF8000000000
310
FFFFFF000000000003FF80000000003FF000FE00000000001FFFFFE00003FFFF
310
00003FFFFF80007FFC00000000001FFFE00000000001FFF8000001FFFE000000
310
7FFFFFF0001FFFFFFFFE00000000003FFFFFFE00000000003FFFFF0000000000
310
03FF00000000001FF000FC00000000000FFFFFE00003FFFF00001FFFFF80007F
310
F800000000001FFFC00000000000FFF8000001FFFE0000007FFFFFF0001FFFFF
310
FFFC00000000001FFFFFFC00000000001FFFFF000000000003FE00000000000F
310
F000F8000000000007FFFFE00003FFFF00001FFFFF80007FF800000000000FFF
310
800000000000FFF8000001FFFE0000007FFFFFF0001FFFFFFFF800000000000F
310
FFFFF800000000000FFFFF000000000003FC000000000007F000F80000000000
310
03FFFFC00003FFFE00001FFFFF80007FF0000000000007FF0000000000007FF8
310
000001FFFE0000007FFFFFF0001FFFFFFFF0000000000007FFFFF00000000000
310
07FFFF000000000003F8000000000003F000F0000000000003FFFFC00001FFFE
310
00001FFFFF80007FE0000000000007FE0000000000003FF8000001FFFE000000
310
7FFFFFF0001FFFFFFFF0000000000007FFFFF0000000000007FFFF0000000000
310
03F800001F800003F000E00001FFF00001FFFFC00001FFFE00000FFFFF80007F
310
E00001FFE00003FE00001FFF00003FF8000001FFFE0000007FFFFFF0001FFFFF
310
FFE000003E000003FFFFE000003E000003FFFF000000000003F00001FFF80001
310
F000E00007FFFC0001FFFFC00001FFFE00000FFFFF80007FC0000FFFFC0003FC
310
0000FFFFC0001FF8000001FFFE0000007FFFFFF0001FFFFFFFC00003FFE00001
310
FFFFC00003FFE00001FFFF0001FFFFFFFFF00007FFFE0001F000E0000FFFFF00
310
00FFFF800001FFFC00000FFFFF80007FC0001FFFFE0001FC0001FFFFE0001FF8
310
000001FFFE0000007FFFFFF0001FFFFFFF80000FFFF80000FFFF80000FFFF800
310
00FFFF0003FFFFFFFFE0000FFFFF8000F000C0003FFFFF8000FFFF800000FFFC
310
000007FFFF80007F80003FFFFF0001FC0003FFFFF0001FF8000001FFFE000000
310
7FFFFFF0001FFFFFFF80003FFFFE0000FFFF80003FFFFE0000FFFF0003FFFFFF
310
FFE0003FFFFF8000F000C0003FFFFF8000FFFF800000FFFC000007FFFF80007F
310
80007FFFFF8001F80007FFFFF8000FF8000001FFFE0000007FFFFFF0001FFFFF
310
FF00007FFFFF00007FFF00007FFFFF00007FFF0003FFFFFFFFE0003FFFFFC000
310
F000C0007FFFFFC000FFFF000000FFFC000007FFFF80007F8000FFFFFF8000F8
310
000FFFFFF8000FF8000001FFFE0000007FFFFFF0001FFFFFFF0000FFFFFF8000
310
7FFF0000FFFFFF80007FFF0003FFFFFFFFC0007FFFFFC00070008000FFFFFFC0
310
00FFFF000000FFF8000007FFFF80007F8000FFFFFF8000F8000FFFFFF8000FF8
310
000001FFFE0000007FFFFFF0001FFFFFFE0001FFFFFFC0003FFE0001FFFFFFC0
310
003FFF0003FFFFFFFFC0007FFFFFE00070008000FFFFFFC0007FFF0000007FF8
310
000003FFFF80007F0001FFFFFF8000F8000FFFFFF8000FF8000001FFFE000000
310
7FFFFFF0001FFFFFFE0001FFFFFFC0003FFE0001FFFFFFC0003FFF0003FFFFFF
310
FFC000FFFFFFE00070008000FFFFFFC0007FFF0000007FF8000003FFFF80007F
310
0001FFFFFF8000F8001FFFFFF8000FF8000001FFFE0000007FFFFFF0001FFFFF
310
FE0003FFFFFFE0003FFE0003FFFFFFE0003FFF0003FFFFFFFFC000FFFFFFE000
310
70008000FFFFFFC0007FFE0000007FF8000003FFFF80007F0001FFFFFF8000F0
310
001FFFFFF8000FF8000001FFFE0000007FFFFFF0001FFFFFFC0003FFFFFFE000
310
1FFC0003FFFFFFE0001FFF0003FFFFFFFFC000FFFFFFC00070008000FFFFFF80
310
007FFE0000007FF0000003FFFF80007F0001FFFFFF0000F0001FFFFFF8000FF8
310
000001FFFE0000007FFFFFF0001FFFFFFC0007FFFFFFF0001FFC0007FFFFFFF0
310
001FFF0003FFFFFFFFC000FFFFFFC00070008001FFFFFF0000FFFE0000003FF0
310
000001FFFF80007F0001FFFFFF0000F8001FFFFFF0000FF8000001FFFE000000
310
7FFFFFF0001FFFFFFC0007FFFFFFF0001FFC0007FFFFFFF0001FFF0003FFFFFF
310
FFC001FFFFFF80007000FFFFFFFFFE0000FFFE0008003FF0008001FFFF80007F
310
FFFFFFFFFC0000FFFFFFFFFFE0000FF8000001FFFE0000007FFFFFF0001FFFFF
310
F8000FFFFFFFF8000FF8000FFFFFFFF8000FFF0003FFFFFFFFFFFFFFFFFF0000
310
7000FFFFFFFFFC0000FFFC0008003FF0008001FFFF80007FFFFFFFFFF80001FF
310
FFFFFFFF80000FF8000001FFFE0000007FFFFFF0001FFFFFF8000FFFFFFFF800
310
0FF8000FFFFFFFF8000FFF0003FFFFFFFFFFFFFFFFFE0000F000FFFFFFFFE000
310
00FFFC000C003FE000C001FFFF80007FFFFFFFFFC00001FFFFFFFFFE00001FF8
310
000001FFFE0000007FFFFFF0001FFFFFF8000FFFFFFFF8000FF8000FFFFFFFF8
310
000FFF0003FFFFFFFFFFFFFFFFF00000F000FFFFFFFE000001FFFC000C001FE0
310
00C000FFFF80007FFFFFFFFE000001FFFFFFFFE000001FF80FFFFFFFFFFFFFC0
310
7FFFFFF0001FFFFFF8000FFFFFFFF8000FF8000FFFFFFFF8000FFF0003FFFFFF
310
FFFFFFFFFF800000F000FFFFFFC0000001FFFC001C001FE001C000FFFF80007F
310
FFFFFF80000003FFFFFFF80000001FF80FFFFFFFFFFFFFC07FFFFFF0001FFFFF
310
F8001FFFFFFFFC000FF8001FFFFFFFFC000FFF0003FFFFFFFFFFFFFFF0000001
310
F000FFFFF800000001FFF8001C001FE001C000FFFF80007FFFFFF800000003FF
310
FFFF800000003FF80FFFFFFFFFFFFFC07FFFFFF0001FFFFFF8001FFFFFFFFC00
310
0FF8001FFFFFFFFC000FFF0003FFFFFFFFFFFFFE00000001F000FFFFC0000000
310
03FFF8001E001FC001E000FFFF80007FFFFF8000000007FFFFFC000000003FF8
310
0FFFFFFFFFFFFFC07FFFFFF0001FFFFFF8001FFFFFFFFC000FF8001FFFFFFFFC
310
000FFF0003FFFFFFFFFFFFE000000003F000FFFE0000000007FFF8001E000FC0
310
01E0007FFF80007FFFFE0000000007FFFFE0000000007FF80FFFFFFFFFFFFFC0
310
7FFFFFF0001FFFFFF0001FFFFFFFFC0007F0001FFFFFFFFC0007FF0003FFFFFF
310
FFFFFF0000000003F000FFF80000000007FFF8001E000FC003E0007FFF80007F
310
FFF0000000000FFFFF8000000000FFF80FFFFFFFFFFFFFC07FFFFFF0001FFFFF
310
F0001FFFFFFFFC0007F0001FFFFFFFFC0007FF0003FFFFFFFFFFFC0000000007
310
F000FFE0000000000FFFF0003E000FC003E0007FFF80007FFFC0000000001FFF
310
FE0000000001FFF80FFFFFFFFFFFFFC07FFFFFF0001FFFFFF0001FFFFFFFFC00
310
07F0001FFFFFFFFC0007FF0003FFFFFFFFFFF0000000000FF000FFC000000000
310
1FFFF0003F000F8003F0003FFF80007FFF80000000003FFFF80000000003FFF8
310
0FFFFFFFFFFFFFC07FFFFFF0001FFFFFF0001FFFFFFFFC0007F0001FFFFFFFFC
310
0007FF0003FFFFFFFFFFE0000000001FF000FF00000000007FFFF0003F000780
310
03F0003FFF80007FFF00000000007FFFF00000000007FFF80FFFFFFFFFFFFFC0
310
7FFFFFF0001FFFFFF0001FFFFFFFFC0007F0001FFFFFFFFC0007FF0003FFFFFF
310
FFFF80000000007FF000FE0000000000FFFFE0003F00078007F0003FFF80007F
310
FE0000000001FFFFE0000000001FFFF80FFFFFFFFFFFFFC07FFFFFF0001FFFFF
310
F0001FFFFFFFFC0007F0001FFFFFFFFC0007FF0003FFFFFFFFFF0000000000FF
310
F000FC0000000003FFFFE0007F00078007F0003FFF80007FFC0000000007FFFF
310
C0000000007FFFF80FFFFFFFFFFFFFC07FFFFFF0001FFFFFF8001FFFFFFFFC00
310
0FF8001FFFFFFFFC000FFF0003FFFFFFFFFE0000000003FFF000FC000000000F
310
FFFFE0007F80070007F8001FFF80007FF8000000001FFFFF8000000001FFFFF8
310
0FFFFFFFFFFFFFC07FFFFFF0001FFFFFF8001FFFFFFFFC000FF8001FFFFFFFFC
310
000FFF0003FFFFFFFFFC000000000FFFF000F8000000007FFFFFE0007F800700
310
07F8001FFF80007FF000000000FFFFFF800000000FFFFFF80FFFFFFFFFFFFFC0
310
7FFFFFF0001FFFFFF8000FFFFFFFF8000FF8000FFFFFFFF8000FFF0003FFFFFF
310
FFFC000000007FFFF000F800000007FFFFFFC0007F8003000FF8001FFF80007F
310
F000000007FFFFFF000000007FFFFFF80FFFFFFFFFFFFFC07FFFFFF0001FFFFF
310
F8000FFFFFFFF8000FF8000FFFFFFFF8000FFF0003FFFFFFFFF80000000FFFFF
310
F000F0000000FFFFFFFFC000FF8003000FF8001FFF80007FE0000000FFFFFFFF
310
0000000FFFFFFFF8000001FFFE0000007FFFFFF0001FFFFFF8000FFFFFFFF800
310
0FF8000FFFFFFFF8000FFF0003FFFFFFFFF8000000FFFFFFF000F000000FFFFF
310
FFFFC000FFC002000FF8000FFF80007FE000001FFFFFFFFE000001FFFFFFFFF8
310
000001FFFE0000007FFFFFF0001FFFFFF8000FFFFFFFF8000FF8000FFFFFFFF8
310
000FFF0003FFFFFFFFF000001FFFFFFFF000E00000FFFFFFFFFFC000FFC00200
310
0FFC000FFF80007FE00001FFFFFFFFFE00001FFFFFFFFFF8000001FFFE000000
310
7FFFFFF0001FFFFFFC000FFFFFFFF8001FFC000FFFFFFFF8001FFF0003FFFFFF
310
FFF00001FFFFFFFFF000E00007FFFFFFFFFF8000FFC000001FFC000FFF80007F
310
C0000FFFFFFFFFFE0000FFFFFFFFFFF8000001FFFE0000007FFFFFF0001FFFFF
310
FC0007FFFFFFF0001FFC0007FFFFFFF0001FFF0003FFFFFFFFF00007FFFFFFFF
310
F000E0001FFFFFFFFFFF8000FFC000001FFC000FFF80007FC0003FFFFFFFFFFE
310
0001FFFFFFFFFFF8000001FFFE0000007FFFFFF0001FFFFFFC0007FFFFFFF000
310
1FFC0007FFFFFFF0001FFF0003FFFFFFFFF0001FFFFFFFFFF000E0003FFFFF00
310
03FF8001FFE000001FFC0007FF80007FC0007FFFFF0007FC0003FFFFF0003FF8
310
000001FFFE0000007FFFFFF0001FFFFFFC0003FFFFFFE0001FFC0003FFFFFFE0
310
001FFF0003FFFFFFFFF0003FFFFFFFFFF000E0003FFFFF0001FF8001FFE00000
310
1FFE0007FF80007FC0007FFFFE0003FC0007FFFFE0003FF8000001FFFE000000
310
7FFFFFF0001FFFFFFE0003FFFFFFE0003FFE0003FFFFFFE0003FFF0003FFFFFF
310
FFF0003FFFFF8001F000E0003FFFFF0001FF0001FFE000001FFE0007FF80007F
310
C0007FFFFE0003FC0007FFFFE0003FF8000001FFFE0000007FFFFFF0001FFFFF
310
FE0001FFFFFFC0003FFE0001FFFFFFC0003FFF0003FFFFFFFFF0003FFFFF0001
310
F000E0003FFFFF0003FF0001FFE000003FFE0007FF80007FC0007FFFFE0003FC
310
0007FFFFE0003FF8000001FFFE0000007FFFFFF0001FFFFFFF0001FFFFFFC000
310
7FFF0001FFFFFFC0007FFF0003FFFFFFFFF0003FFFFF0001F000E0003FFFFE00
310
03FF0003FFF000003FFE0003FF80007FC0007FFFFC0003FE0007FFFFE0003FF8
310
000001FFFE0000007FFFFFF0001FFFFFFF0000FFFFFF80007FFF0000FFFFFF80
310
007FFF0003FFFFFFFFF0003FFFFF0001F000E0003FFFFE0003FF0003FFF00000
310
3FFF0003FF80007FC0007FFFFC0007FE0007FFFFC0003FF8000001FFFE000000
310
7FFFFFF0001FFFFFFF80007FFFFF0000FFFF80007FFFFF0000FFFF0003FFFFFF
310
FFF0003FFFFF0003F000E0003FFFFC0003FE0003FFF000003FFF0003FF80007F
310
E0003FFFF80007FE0003FFFFC0007FF8000001FFFE0000007FFFFFF0001FFFFF
310
FF80003FFFFE0000FFFF80003FFFFE0000FFFF0003FFFFFFFFF0001FFFFE0003
310
F000F0001FFFF80003FE0003FFF000007FFF0001FF80007FE0003FFFF00007FE
310
0001FFFF80007FF8000001FFFE0000007FFFFFF0001FFFFFFFC0000FFFF80001
310
FFFFC0000FFFF80001FFFF0003FFFFFFFFF0001FFFFC0003F000F0000FFFF000
310
07FE0007FFF800007FFF0001FF80007FE0001FFFE00007FF0000FFFE00007FF8
310
000001FFFE0000007FFFFFF0001FFFFFFFC00003FFE00001FFFFC00003FFE000
310
01FFFF0003FFFFFFFFF8000FFFF80003F000F00003FFC00007FC0007FFF80000
310
7FFF8001FF80007FF00007FF80000FFF00007FF80000FFF8000001FFFE000000
310
7F80000000000001FFE000003E000003FFFFE000003E000003FFFF0003FFFFFF
310
FFF80003FFE00007F000F800000000000FFC0007FFF800007FFF8001FF80007F
310
F000000000000FFF000000000000FFF8000001FFFE0000007F80000000000001
310
FFF0000000000007FFFFF0000000000007FFFF0003FFFFFFFFFC00007E000007
310
F000F800000000000FFC0007FFF80000FFFF8000FF80007FF800000000001FFF
310
800000000001FFF8000001FFFE0000007F80000000000001FFF800000000000F
310
FFFFF800000000000FFFFF0003FFFFFFFFFC00000000000FF000FC0000000000
310
1FFC0007FFFC0000FFFF8000FF80007FF800000000003FFFC00000000001FFF8
310
000001FFFE0000007F80000000000001FFF800000000000FFFFFF80000000000
310
0FFFFF0003FFFFFFFFFE00000000001FF000FE00000000003FF8000FFFFC0000
310
FFFF8000FF80007FFC00000000003FFFC00000000003FFF8000001FFFE000000
310
7F80000000000001FFFC00000000001FFFFFFC00000000001FFFFF0003FFFFFF
310
FFFF00000000001FF000FF00000000003FF8000FFFFC0000FFFFC000FF80007F
310
FE00000000007FFFE00000000007FFF8000001FFFE0000007F80000000000001
310
FFFE00000000003FFFFFFE00000000003FFFFF0003FFFFFFFFFF80000000003F
310
F000FF80000000007FF8000FFFFC0001FFFFC0007F80007FFF0000000000FFFF
310
F0000000000FFFF800000000000000007F80000000000001FFFF8000000000FF
310
FFFFFF8000000000FFFFFF0003FFFFFFFFFFC0000000007FF000FFC000000000
310
FFF8000FFFFE0001FFFFC0007F80007FFF8000000001FFFFF8000000001FFFF8
310
00000000000000007F80000000000001FFFFC000000001FFFFFFFFC000000001
310
FFFFFF0003FFFFFFFFFFE000000000FFF000FFE000000003FFF0001FFFFE0001
310
FFFFC0007F80007FFFC000000007FFFFFE000000003FFFF80000000000000000
310
7F80000000000001FFFFE000000003FFFFFFFFE000000003FFFFFF0003FFFFFF
310
FFFFF000000003FFF000FFF80000000FFFF0001FFFFE0001FFFFE0007F80007F
310
FFF00000000FFFFFFF00000000FFFFF800000000000000007F80000000000001
310
FFFFF80000000FFFFFFFFFF80000000FFFFFFF0003FFFFFFFFFFFC0000000FFF
310
F000FFFE0000003FFFF0001FFFFE0003FFFFE0003F80007FFFFC0000003FFFFF
310
FFC0000003FFFFF800000000000000007F80000000000001FFFFFE0000003FFF
310
FFFFFFFE0000003FFFFFFF0003FFFFFFFFFFFF0000003FFFF000FFFF800000FF
310
FFF0001FFFFF0003FFFFE0003F80007FFFFF000001FFFFFFFFF800001FFFFFF8
310
00000000000000007F80000000000001FFFFFFC00001FFFFFFFFFFFFC00001FF
310
FFFFFF0003FFFFFFFFFFFFC00000FFFFF000FFFFF8000FFFFFFFFFFFFFFFFFFF
310
FFFFFFFFFFFFFFFFFFFFF0001FFFFFFFFFFF0000FFFFFFF80000000000000000
310
7FFFFFFFFFFFFFFFFFFFFFFC001FFFFFFFFFFFFFFC001FFFFFFFFFFFFFFFFFFF
310
FFFFFFFC001FFFFFF000FFFFFFFFFFFFFFFFFFFFFFFFFFFFFFFFFFFFFFFFFFFF
310
FFFFFFFFFFFFFFFFFFFFFFFFFFFFFFFFFFFFFFFFFFFFFFFFFFFFFFFFFFFFFFFF
310
FFFFFFFFFFFFFFFFFFFFFFFFFFFFFFFFFFFFFFFFFFFFFFFFFFFFFFFFFFFFFFFF
310
F000FFFFFFFFFFFFFFFFFFFFFFFFFFFFFFFFFFFFFFFFFFFFFFFFFFFFFFFFFFFF
310
FFFFFFFFFFFFFFFFFFFFFFFFFFFFFFFFFFFFFFFFFFFFFFFFFFFFFFFFFFFFFFFF
310
FFFFFFFFFFFFFFFFFFFFFFFFFFFFFFFFFFFFFFFFFFFFFFFFF000FFFFFFFFFFFF
310
FFFFFFFFFFFFFFFFFFFFFFFFFFFFFFFFFFFFFFFFFFFFFFFFFFFFFFFFFFFFFFFF
310
FFFFFFFFFFFFFFFFFFFFFFFFFFFFFFFFFFFFFFFFFFFFFFFFFFFFFFFFFFFFFFFF
310
FFFFFFFFFFFFFFFFFFFFFFFFFFFFFFFFF000FFFFFFFFFFFFFFFFFFFFFFFFFFFF
310
FFFFFFFFFFFFFFFFFFFFFFFFFFFFFFFFFFFFFFFFFFFFFFFFFFFFFFFFFFFFFFFF
310
FFFFFFFFFFFFFFFFFFFFFFFFFFFFFFFFFFFFFFFFFFFFFFFFFFFFFFFFFFFFFFFF
310
FFFFFFFFFFFFFFFFF000FFFFFFFFFFFFFFFFFFFFFFFFFFFFFFFFFFFFFFFFFFFF
310
FFFFFFFFFFFFFFFFFFFFFFFFFFFFFFFFFFFFFFFFFFFFFFFFFFFFFFFFFFFFFFFF
310
FFFFFFFFFFFFFFFFFFFFFFFFFFFFFFFFFFFFFFFFFFFFFFFFFFFFFFFFFFFFFFFF
310
F000FFFFFFFFFFFFFFFFFFFFFFFFFFFFFFFFFFFFFFFFFFFFFFFFFFFFFFFFFFFF
310
FFFFFFFFFFFFFFFFFFFFFFFFFFFFFFFFFFFFFFFFFFFFFFFFFFFFFFFFFFFFFFFF
310
FFFFFFFFFFFFFFFFFFFFFFFFFFFFFFFFFFFFFFFFFFFFFFFFF000FFFFFFFFFFFF
310
FFFFFFFFFFFFFFFFFFFFFFFFFFFFFFFFFFFFFFFFFFFFFFFFFFFFFFFFFFFFFFFF
310
FFFFFFFFFFFFFFFFFFFFFFFFFFFFFFFFFFFFFFFFFFFFFFFFFFFFFFFFFFFFFFFF
310
FFFFFFFFFFFFFFFFFFFFFFFFFFFFFFFFF000FFFFFFFFFFFFFFFFFFFFFFFFFFFF
310
FFFFFFFFFFFFFFFFFFFFFFFFFFFFFFFFFFFFFFFFFFFFFFFFFFFFFFFFFFFFFFFF
310
FFFFFFFFFFFFFFFFFFFFFFFFFFFFFFFFFFFFFFFFFFFFFFFFFFFFFFFFFFFFFFFF
310
FFFFFFFFFFFFFFFFF000FFFFFFFFFFFFFFFFFFFFFFFFFFFFFFFFFFFFFFFFFFFF
310
FFFFFFFFFFFFFFFFFFFFFFFFFFFFFFFFFFFFFFFFFFFFFFFFFFFFFFFFFFFFFFFF
310
FFFFFFFFFFFFFFFFFFFFFFFFFFFFFFFFFFFFFFFFFFFFFFFFFFFFFFFFFFFFFFFF
310
F000FFFFFFFFFFFFFFFFFFFFFFFFFFFFFFFFFFFFFFFFFFFFFFFFFFFFFFFFFFFF
310
FFFFFFFFFFFFFFFFFFFFFFFFFFFFFFFFFFFFFFFFFFFFFFFFFFFFFFFFFFFFFFFF
310
FFFFFFFFFFFFFFFFFFFFFFFFFFFFFFFFFFFFFFFFFFFFFFFFF000FFFFFFFFFFFF
310
FFFFFFFFFFFFFFFFFFFFFFFFFFFFFFFFFFFFFFFFFFFFFFFFFFFFFFFFFFFFFFFF
310
FFFFFFFFFFFFFFFFFFFFFFFFFFFFFFFFFFFFFFFFFFFFFFFFFFFFFFFFFFFFFFFF
310
FFFFFFFFFFFFFFFFFFFFFFFFFFFFFFFFF000FFFFFFFFFFFFFFFFFFFFFFFFFFFF
310
FFFFFFFFFFFFFFFFFFFFFFFFFFFFFFFFFFFFFFFFFFFFFFFFFFFFFFFFFFFFFFFF
310
FFFFFFFFFFFFFFFFFFFFFFFFFFFFFFFFFFFFFFFFFFFFFFFFFFFFFFFFFFFFFFFF
310
FFFFFFFFFFFFFFFFF000FFFFFFFFFFFFFFFFFFFFFFFFFFFFFFFFFFFFFFFFFFFF
310
FFFFFFFFFFFFFFFFFFFFFFFFFFFFFFFFFFFFFFFFFFFFFFFFFFFFFFFFFFFFFFFF
310
FFFFFFFFFFFFFFFFFFFFFFFFFFFFFFFFFFFFFFFFFFFFFFFFFFFFFFFFFFFFFFFF
310
F000FFFFFFFFFFFFFFFFFFFFFFFFFFFFFFFFFFFFFFFFFFFFFFFFFFFFFFFFFFFF
310
FFFFFFFFFFFFFFFFFFFFFFFFFFFFFFFFFFFFFFFFFFFFFFFFFFFFFFFFFFFFFFFF
310
FFFFFFFFFFFFFFFFFFFFFFFFFFFFFFFFFFFFFFFFFFFFFFFFF000FFFFFFFFFFFF
310
FFFFFFFFFFFFFFFFFFFFFFFFFFFFFFFFFFFFFFFFFFFFFFFFFFFFFFFFFFFFFFFF
310
FFFFFFFFFFFFFFFFFFFFFFFFFFFFFFFFFFFFFFFFFFFFFFFFFFFFFFFFFFFFFFFF
310
FFFFFFFFFFFFFFFFFFFFFFFFFFFFFFFFF000FFFFFFFFFFFFFFFFFFFFFFFFFFFF
310
FFFFFFFFFFFFFFFFFFFFFFFFFFFFFFFFFFFFFFFFFFFFFFFFFFFFFFFFFFFFFFFF
310
FFFFFFFFFFFFFFFFFFFFFFFFFFFFFFFFFFFFFFFFFFFFFFFFFFFFFFFFFFFFFFFF
310
FFFFFFFFFFFFFFFFF000FFFFFFFFFFFFFFFFFFFFFFFFFFFFFFFFFFFFFFFFFFFF
310
FFFFFFFFFFFFFFFFFFFFFFFFFFFFFFFFFFFFFFFFFFFFFFFFFFFFFFFFFFFFFFFF
310
FFFFFFFFFFFFFFFFFFFFFFFFFFFFFFFFFFFFFFFFFFFFFFFFFFFFFFFFFFFFFFFF
310
F000FFFFFFFFFFFFFFFFFFFFFFFFFFFFFFFFFFFFFFFFFFFFFFFFFFFFFFFFFFFF
310
FFFFFFFFFFFFFFFFFFFFFFFFFFFFFFFFFFFFFFFFFFFFFFFFFFFFFFFFFFFFFFFF
310
FFFFFFFFFFFFFFFFFFFFFFFFFFFFFFFFFFFFFFFFFFFFFFFFF000FFFFFFFFFFFF
310
FFFFFFFFFFFFFFFFFFFFFFFFFFFFFFFFFFFFFFFFFFFFFFFFFFFFFFFFFFFFFFFF
310
FFFFFFFFFFFFFFFFFFFFFFFFFFFFFFFFFFFFFFFFFFFFFFFFFFFFFFFFFFFFFFFF
310
FFFFFFFFFFFFFFFFFFFFFFFFFFFFFFFFF000FFFFFFFFFFFFFFFFFFFFFFFFFFFF
310
FFFFFFFFFFFFFFFFFFFFFFFFFFFFFFFFFFFFFFFFFFFFFFFFFFFFFFFFFFFFFFFF
310
FFFFFFFFFFFFFFFFFFFFFFFFFFFFFFFFFFFFFFFFFFFFFFFFFFFFFFFFFFFFFFFF
310
FFFFFFFFFFFFFFFFF000FFFFFFFFFFFFFFFFFFFFFFFFFFFFFFFFFFFFFFFFFFFF
310
FFFFFFFFFFFFFFFFFFFFFFFFFFFFFFFFFFFFFFFFFFFFFFFFFFFFFFFFFFFFFFFF
310
FFFFFFFFFFFFFFFFFFFFFFFFFFFFFFFFFFFFFFFFFFFFFFFFFFFFFFFFFFFFFFFF
310
F000FFFFFFFFFFFFFFFFFFFFFFFFFFFFFFFFFFFFFFFFFFFFFFFFFFFFFFFFFFFF
310
FFFFFFFFFFFFFFFFFFFFFFFFFFFFFFFFFFFFFFFFFFFFFFFFFFFFFFFFFFFFFFFF
310
FFFFFFFFFFFFFFFFFFFFFFFFFFFFFFFFFFFFFFFFFFFFFFFFF000FFFFFFFFFFFF
310
FFFFFFFFFFFFFFFFFFFFFFFFFFFFFFFFFFFFFFFFFFFFFFFFFFFFFFFFFFFFFFFF
310
FFFFFFFFFFFFFFFFFFFFFFFFFFFFFFFFFFFFFFFFFFFFFFFFFFFFFFFFFFFFFFFF
310
FFFFFFFFFFFFFFFFFFFFFFFFFFFFFFFFF0000000000000000000000000000000
310
0000000000000000000000000000000000000000000000000000000000000000
310
0000000000000000000000000000000000000000000000000000000000000000
310
0000000000000000000000000000000000000000000000000000000000000000
310
0000000000000000000000000000000000000000000000000000000000000000
310
0000000000000000000000000000000000000000000000000000000000000000
310
0000000000000000000000000000000000000000000000000000000000000000
310
0000000000000000000000000000000000000000000000000000000000000000
310
0000000000000000000000000000000000000000000000000000000000000000
310
0000000000000000000000000000000000000000000000000000000000000000
310
0000000000000000000000000000000000000000000000000000000000000000
310
0000000000000000000000000000000000000000000000000000000000000000
310
0000000000000000000000000000000000000000000000000000000000000000
310
0000000000000000000000000000000000000000000000000000000000000000
310
0000000000000000000000000000000000000000000000000000000000000000
310
0000000000000000000000000000000000000000000000000000000000000000
  1
OLE
  0
ENDSEC
  0
SECTION
  2
OBJECTS
  0
DICTIONARY
  5
C
330
0
100
AcDbDictionary
281
     1
  3
ACAD_GROUP
350
D
  3
ACAD_LAYOUT
350
1A
  3
ACAD_MLINESTYLE
350
17
  3
ACAD_PLOTSETTINGS
350
19
  3
ACAD_PLOTSTYLENAME
350
E
  0
DICTIONARY
  5
D
102
{ACAD_REACTORS
330
C
102
}
330
C
100
AcDbDictionary
281
     1
  0
DICTIONARY
  5
1A
102
{ACAD_REACTORS
330
C
102
}
330
C
100
AcDbDictionary
281
     1
  3
Layout1
350
1E
  3
Layout2
350
26
  3
Model
350
22
  0
DICTIONARY
  5
17
102
{ACAD_REACTORS
330
C
102
}
330
C
100
AcDbDictionary
281
     1
  3
Standard
350
18
  0
DICTIONARY
  5
19
102
{ACAD_REACTORS
330
C
102
}
330
C
100
AcDbDictionary
281
     1
  0
ACDBDICTIONARYWDFLT
  5
E
102
{ACAD_REACTORS
330
C
102
}
330
C
100
AcDbDictionary
281
     1
  3
Normal
350
F
100
AcDbDictionaryWithDefault
340
F
  0
LAYOUT
  5
1E
102
{ACAD_REACTORS
330
1A
102
}
330
1A
100
AcDbPlotSettings
  1

  2
none_device
  4

  6

 40
0.0
 41
0.0
 42
0.0
 43
0.0
 44
0.0
 45
0.0
 46
0.0
 47
0.0
 48
0.0
 49
0.0
140
0.0
141
0.0
142
1.0
143
1.0
 70
   688
 72
     0
 73
     0
 74
     5
  7

 75
    16
147
1.0
148
0.0
149
0.0
100
AcDbLayout
  1
Layout1
 70
     1
 71
     1
 10
0.0
 20
0.0
 11
420.0
 21
297.0
 12
0.0
 22
0.0
 32
0.0
 14
1.0000000000E+20
 24
1.0000000000E+20
 34
1.0000000000E+20
 15
-1.0000000000E+20
 25
-1.0000000000E+20
 35
-1.0000000000E+20
146
0.0
 13
0.0
 23
0.0
 33
0.0
 16
1.0
 26
0.0
 36
0.0
 17
0.0
 27
1.0
 37
0.0
 76
     0
330
1B
  0
LAYOUT
  5
26
102
{ACAD_REACTORS
330
1A
102
}
330
1A
100
AcDbPlotSettings
  1

  2
none_device
  4

  6

 40
0.0
 41
0.0
 42
0.0
 43
0.0
 44
0.0
 45
0.0
 46
0.0
 47
0.0
 48
0.0
 49
0.0
140
0.0
141
0.0
142
1.0
143
1.0
 70
   688
 72
     0
 73
     0
 74
     5
  7

 75
    16
147
1.0
148
0.0
149
0.0
100
AcDbLayout
  1
Layout2
 70
     1
 71
     2
 10
0.0
 20
0.0
 11
0.0
 21
0.0
 12
0.0
 22
0.0
 32
0.0
 14
0.0
 24
0.0
 34
0.0
 15
0.0
 25
0.0
 35
0.0
146
0.0
 13
0.0
 23
0.0
 33
0.0
 16
1.0
 26
0.0
 36
0.0
 17
0.0
 27
1.0
 37
0.0
 76
     0
330
23
  0
LAYOUT
  5
22
102
{ACAD_REACTORS
330
1A
102
}
330
1A
100
AcDbPlotSettings
  1

  2
none_device
  4

  6

 40
0.0
 41
0.0
 42
0.0
 43
0.0
 44
0.0
 45
0.0
 46
0.0
 47
0.0
 48
0.0
 49
0.0
140
0.0
141
0.0
142
1.0
143
1.0
 70
  1712
 72
     0
 73
     0
 74
     0
  7

 75
     0
147
1.0
148
0.0
149
0.0
100
AcDbLayout
  1
Model
 70
     1
 71
     0
 10
0.0
 20
0.0
 11
297.0
 21
210.0
 12
0.0
 22
0.0
 32
0.0
 14
0.0
 24
0.0
 34
0.0
 15
297.0
 25
210.0
 35
0.0
146
0.0
 13
0.0
 23
0.0
 33
0.0
 16
1.0
 26
0.0
 36
0.0
 17
0.0
 27
1.0
 37
0.0
 76
     0
330
1F
331
29
  0
MLINESTYLE
  5
18
102
{ACAD_REACTORS
330
17
102
}
330
17
100
AcDbMlineStyle
  2
Standard
 70
     0
  3

 62
   256
 51
90.0
 52
90.0
 71
     2
 49
0.5
 62
   256
  6
BYLAYER
 49
-0.5
 62
   256
  6
BYLAYER
  0
ACDBPLACEHOLDER
  5
F
102
{ACAD_REACTORS
330
E
102
}
330
E
  0
ENDSEC
  0
EOF
