  0
SECTION
  2
HEADER
  9
$ACADVER
  1
AC1015
  9
$ACADMAINTVER
 70
     6
  9
$DWGCODEPAGE
  3
ANSI_1252
  9
$INSBASE
 10
0.0
 20
0.0
 30
0.0
  9
$EXTMIN
 10
0.0
 20
0.0
 30
0.0
  9
$EXTMAX
 10
297.0
 20
210.0
 30
0.0
  9
$LIMMIN
 10
0.0
 20
0.0
  9
$LIMMAX
 10
297.0
 20
210.0
  9
$ORTHOMODE
 70
     0
  9
$REGENMODE
 70
     1
  9
$FILLMODE
 70
     1
  9
$QTEXTMODE
 70
     0
  9
$MIRRTEXT
 70
     1
  9
$LTSCALE
 40
1.0
  9
$ATTMODE
 70
     1
  9
$TEXTSIZE
 40
2.0
  9
$TRACEWID
 40
1.0
  9
$TEXTSTYLE
  7
Standard
  9
$CLAYER
  8
0
  9
$CELTYPE
  6
ByLayer
  9
$CECOLOR
 62
   256
  9
$CELTSCALE
 40
1.0
  9
$DISPSILH
 70
     0
  9
$DIMSCALE
 40
1.0
  9
$DIMASZ
 40
3.0
  9
$DIMEXO
 40
0.0
  9
$DIMDLI
 40
3.75
  9
$DIMRND
 40
0.0
  9
$DIMDLE
 40
0.0
  9
$DIMEXE
 40
1.0
  9
$DIMTP
 40
0.0
  9
$DIMTM
 40
0.0
  9
$DIMTXT
 40
2.0
  9
$DIMCEN
 40
2.5
  9
$DIMTSZ
 40
0.0
  9
$DIMTOL
 70
     0
  9
$DIMLIM
 70
     0
  9
$DIMTIH
 70
     1
  9
$DIMTOH
 70
     1
  9
$DIMSE1
 70
     0
  9
$DIMSE2
 70
     0
  9
$DIMTAD
 70
     1
  9
$DIMZIN
 70
     0
  9
$DIMBLK
  1

  9
$DIMASO
 70
     1
  9
$DIMSHO
 70
     1
  9
$DIMPOST
  1

  9
$DIMAPOST
  1

  9
$DIMALT
 70
     0
  9
$DIMALTD
 70
     3
  9
$DIMALTF
 40
0.0393700787
  9
$DIMLFAC
 40
1.0
  9
$DIMTOFL
 70
     1
  9
$DIMTVP
 40
0.0
  9
$DIMTIX
 70
     0
  9
$DIMSOXD
 70
     0
  9
$DIMSAH
 70
     0
  9
$DIMBLK1
  1

  9
$DIMBLK2
  1

  9
$DIMSTYLE
  2
ISO-25
  9
$DIMCLRD
 70
     0
  9
$DIMCLRE
 70
     0
  9
$DIMCLRT
 70
     0
  9
$DIMTFAC
 40
1.0
  9
$DIMGAP
 40
1.524
  9
$DIMJUST
 70
     0
  9
$DIMSD1
 70
     0
  9
$DIMSD2
 70
     0
  9
$DIMTOLJ
 70
     0
  9
$DIMTZIN
 70
     0
  9
$DIMALTZ
 70
     0
  9
$DIMALTTZ
 70
     0
  9
$DIMUPT
 70
     0
  9
$DIMDEC
 70
     2
  9
$DIMTDEC
 70
     3
  9
$DIMALTU
 70
     2
  9
$DIMALTTD
 70
     3
  9
$DIMTXSTY
  7
Standard
  9
$DIMAUNIT
 70
     0
  9
$DIMADEC
 70
     2
  9
$DIMALTRND
 40
0.0
  9
$DIMAZIN
 70
     0
  9
$DIMDSEP
 70
    44
  9
$DIMATFIT
 70
     3
  9
$DIMFRAC
 70
     0
  9
$DIMLDRBLK
  1

  9
$DIMLUNIT
 70
     2
  9
$DIMLWD
 70
    -2
  9
$DIMLWE
 70
    -2
  9
$DIMTMOVE
 70
     0
  9
$LUNITS
 70
     2
  9
$LUPREC
 70
     2
  9
$SKETCHINC
 40
1.0
  9
$FILLETRAD
 40
10.0
  9
$AUNITS
 70
     0
  9
$AUPREC
 70
     2
  9
$MENU
  1
.
  9
$ELEVATION
 40
0.0
  9
$PELEVATION
 40
0.0
  9
$THICKNESS
 40
0.0
  9
$LIMCHECK
 70
     0
  9
$CHAMFERA
 40
10.0
  9
$CHAMFERB
 40
10.0
  9
$CHAMFERC
 40
20.0
  9
$CHAMFERD
 40
0.0
  9
$SKPOLY
 70
     0
  9
$TDCREATE
 40
2455608.415864352
  9
$TDUCREATE
 40
2455608.374197685
  9
$TDUPDATE
 40
2455608.415864363
  9
$TDUUPDATE
 40
2455608.374197697
  9
$TDINDWG
 40
0.0000000116
  9
$TDUSRTIMER
 40
0.0000000116
  9
$USRTIMER
 70
     1
  9
$ANGBASE
 50
0.0
  9
$ANGDIR
 70
     0
  9
$PDMODE
 70
     0
  9
$PDSIZE
 40
-1.0
  9
$PLINEWID
 40
0.0
  9
$SPLFRAME
 70
     0
  9
$SPLINETYPE
 70
     6
  9
$SPLINESEGS
 70
     8
  9
$HANDSEED
  5
2A0
  9
$SURFTAB1
 70
     6
  9
$SURFTAB2
 70
     6
  9
$SURFTYPE
 70
     6
  9
$SURFU
 70
     6
  9
$SURFV
 70
     6
  9
$UCSBASE
  2

  9
$UCSNAME
  2

  9
$UCSORG
 10
0.0
 20
0.0
 30
0.0
  9
$UCSXDIR
 10
1.0
 20
0.0
 30
0.0
  9
$UCSYDIR
 10
0.0
 20
1.0
 30
0.0
  9
$UCSORTHOREF
  2

  9
$UCSORTHOVIEW
 70
     0
  9
$UCSORGTOP
 10
0.0
 20
0.0
 30
0.0
  9
$UCSORGBOTTOM
 10
0.0
 20
0.0
 30
0.0
  9
$UCSORGLEFT
 10
0.0
 20
0.0
 30
0.0
  9
$UCSORGRIGHT
 10
0.0
 20
0.0
 30
0.0
  9
$UCSORGFRONT
 10
0.0
 20
0.0
 30
0.0
  9
$UCSORGBACK
 10
0.0
 20
0.0
 30
0.0
  9
$PUCSBASE
  2

  9
$PUCSNAME
  2

  9
$PUCSORG
 10
0.0
 20
0.0
 30
0.0
  9
$PUCSXDIR
 10
1.0
 20
0.0
 30
0.0
  9
$PUCSYDIR
 10
0.0
 20
1.0
 30
0.0
  9
$PUCSORTHOREF
  2

  9
$PUCSORTHOVIEW
 70
     0
  9
$PUCSORGTOP
 10
0.0
 20
0.0
 30
0.0
  9
$PUCSORGBOTTOM
 10
0.0
 20
0.0
 30
0.0
  9
$PUCSORGLEFT
 10
0.0
 20
0.0
 30
0.0
  9
$PUCSORGRIGHT
 10
0.0
 20
0.0
 30
0.0
  9
$PUCSORGFRONT
 10
0.0
 20
0.0
 30
0.0
  9
$PUCSORGBACK
 10
0.0
 20
0.0
 30
0.0
  9
$USERI1
 70
     0
  9
$USERI2
 70
     0
  9
$USERI3
 70
     0
  9
$USERI4
 70
     0
  9
$USERI5
 70
     0
  9
$USERR1
 40
0.0
  9
$USERR2
 40
0.0
  9
$USERR3
 40
0.0
  9
$USERR4
 40
0.0
  9
$USERR5
 40
0.0
  9
$WORLDVIEW
 70
     1
  9
$SHADEDGE
 70
     3
  9
$SHADEDIF
 70
    70
  9
$TILEMODE
 70
     1
  9
$MAXACTVP
 70
    64
  9
$PINSBASE
 10
0.0
 20
0.0
 30
0.0
  9
$PLIMCHECK
 70
     0
  9
$PEXTMIN
 10
1.0000000000E+20
 20
1.0000000000E+20
 30
1.0000000000E+20
  9
$PEXTMAX
 10
-1.0000000000E+20
 20
-1.0000000000E+20
 30
-1.0000000000E+20
  9
$PLIMMIN
 10
0.0
 20
0.0
  9
$PLIMMAX
 10
420.0
 20
297.0
  9
$UNITMODE
 70
     0
  9
$VISRETAIN
 70
     1
  9
$PLINEGEN
 70
     0
  9
$PSLTSCALE
 70
     1
  9
$TREEDEPTH
 70
  3020
  9
$CMLSTYLE
  2
Standard
  9
$CMLJUST
 70
     0
  9
$CMLSCALE
 40
20.0
  9
$PROXYGRAPHICS
 70
     1
  9
$MEASUREMENT
 70
     1
  9
$CELWEIGHT
370
    -1
  9
$ENDCAPS
280
     0
  9
$JOINSTYLE
280
     0
  9
$LWDISPLAY
290
     1
  9
$INSUNITS
 70
     4
  9
$HYPERLINKBASE
  1

  9
$STYLESHEET
  1

  9
$XEDIT
290
     1
  9
$CEPSNTYPE
380
     0
  9
$PSTYLEMODE
290
     1
  9
$FINGERPRINTGUID
  2
{F11295F7-B90B-46AD-9E6E-202FF93E1BE6}
  9
$VERSIONGUID
  2
{FAEB1C32-E019-11D5-929B-00C0DF256EC4}
  9
$EXTNAMES
290
     1
  9
$PSVPSCALE
 40
0.0
  9
$OLESTARTUP
290
     0
  0
ENDSEC
  0
SECTION
  2
CLASSES
  0
CLASS
  1
ACDBDICTIONARYWDFLT
  2
AcDbDictionaryWithDefault
  3
ObjectDBX Classes
 90
        0
280
     0
281
     0
  0
CLASS
  1
VISUALSTYLE
  2
AcDbVisualStyle
  3
ObjectDBX Classes
 90
     4095
280
     0
281
     0
  0
CLASS
  1
DICTIONARYVAR
  2
AcDbDictionaryVar
  3
ObjectDBX Classes
 90
        0
280
     0
281
     0
  0
CLASS
  1
ACDBPLACEHOLDER
  2
AcDbPlaceHolder
  3
ObjectDBX Classes
 90
        0
280
     0
281
     0
  0
CLASS
  1
LAYOUT
  2
AcDbLayout
  3
ObjectDBX Classes
 90
        0
280
     0
281
     0
  0
ENDSEC
  0
SECTION
  2
TABLES
  0
TABLE
  2
VPORT
  5
8
330
0
100
AcDbSymbolTable
 70
     1
  0
VPORT
  5
29
330
8
100
AcDbSymbolTableRecord
100
AcDbViewportTableRecord
  2
*Active
 70
     0
 10
0.0
 20
0.0
 11
1.0
 21
1.0
 12
148.5
 22
105.0
 13
0.0
 23
0.0
 14
10.0
 24
10.0
 15
10.0
 25
10.0
 16
0.0
 26
0.0
 36
1.0
 17
0.0
 27
0.0
 37
0.0
 40
210.0
 41
1.4142857143
 42
50.0
 43
0.0
 44
0.0
 50
0.0
 51
0.0
 71
     0
 72
  2000
 73
     1
 74
     3
 75
     0
 76
     0
 77
     0
 78
     0
281
     0
 65
     1
110
0.0
120
0.0
130
0.0
111
1.0
121
0.0
131
0.0
112
0.0
122
1.0
132
0.0
 79
     0
146
0.0
  0
ENDTAB
  0
TABLE
  2
LTYPE
  5
5
330
0
100
AcDbSymbolTable
 70
     6
  0
LTYPE
  5
14
330
5
100
AcDbSymbolTableRecord
100
AcDbLinetypeTableRecord
  2
ByBlock
 70
     0
  3

 72
    65
 73
     0
 40
0.0
  0
LTYPE
  5
15
330
5
100
AcDbSymbolTableRecord
100
AcDbLinetypeTableRecord
  2
ByLayer
 70
     0
  3

 72
    65
 73
     0
 40
0.0
  0
LTYPE
  5
16
330
5
100
AcDbSymbolTableRecord
100
AcDbLinetypeTableRecord
  2
Continuous
 70
     0
  3
Solid line
 72
    65
 73
     0
 40
0.0
  0
LTYPE
  5
3B
330
5
100
AcDbSymbolTableRecord
100
AcDbLinetypeTableRecord
  2
HIDDEN
 70
     0
  3
Hidden __ __ __ __ __ __ __ __ __ __ __ __ __ __
 72
    65
 73
     2
 40
1.905
 49
1.27
 74
     0
 49
-0.635
 74
     0
  0
LTYPE
  5
3C
330
5
100
AcDbSymbolTableRecord
100
AcDbLinetypeTableRecord
  2
PHANTOM
 70
     0
  3
Phantom ______  __  __  ______  __  __  ______
 72
    65
 73
     6
 40
12.7
 49
6.35
 74
     0
 49
-1.27
 74
     0
 49
1.27
 74
     0
 49
-1.27
 74
     0
 49
1.27
 74
     0
 49
-1.27
 74
     0
  0
LTYPE
  5
3D
330
5
100
AcDbSymbolTableRecord
100
AcDbLinetypeTableRecord
  2
CENTER
 70
     0
  3
Center ____ _ ____ _ ____ _ ____ _ ____ _ ____
 72
    65
 73
     4
 40
10.16
 49
6.35
 74
     0
 49
-1.27
 74
     0
 49
1.27
 74
     0
 49
-1.27
 74
     0
  0
LTYPE
  5
3E
330
5
100
AcDbSymbolTableRecord
100
AcDbLinetypeTableRecord
  2
CENTERX2
 70
     0
  3
Center (2x) ________  __  ________  __  _____
 72
    65
 73
     4
 40
20.32
 49
12.7
 74
     0
 49
-2.54
 74
     0
 49
2.54
 74
     0
 49
-2.54
 74
     0
  0
LTYPE
  5
3F
330
5
100
AcDbSymbolTableRecord
100
AcDbLinetypeTableRecord
  2
DOT2
 70
     0
  3
Dot (.5x) ........................................
 72
    65
 73
     2
 40
0.635
 49
0.0
 74
     0
 49
-0.635
 74
     0
  0
ENDTAB
  0
TABLE
  2
LAYER
  5
2
330
0
100
AcDbSymbolTable
 70
     5
  0
LAYER
  5
10
330
2
100
AcDbSymbolTableRecord
100
AcDbLayerTableRecord
  2
0
 70
     0
 62
     7
  6
Continuous
370
    -3
390
F
  0
LAYER
  5
40
330
2
100
AcDbSymbolTableRecord
100
AcDbLayerTableRecord
  2
FORMAT
 70
     0
 62
     7
  6
Continuous
370
    -3
390
F
  0
LAYER
  5
41
330
2
100
AcDbSymbolTableRecord
100
AcDbLayerTableRecord
  2
VERMASSUNG
 70
     0
 62
     7
  6
Continuous
370
    -3
390
F
  0
LAYER
  5
42
330
2
100
AcDbSymbolTableRecord
100
AcDbLayerTableRecord
  2
KOPF_DÜNN
 70
     0
 62
     7
  6
Continuous
370
    -3
390
F
  0
LAYER
  5
43
330
2
100
AcDbSymbolTableRecord
100
AcDbLayerTableRecord
  2
KOPF_DICK
 70
     0
 62
     7
  6
Continuous
370
    15
390
F
  0
ENDTAB
  0
TABLE
  2
STYLE
  5
3
330
0
100
AcDbSymbolTable
 70
     3
  0
STYLE
  5
11
330
3
100
AcDbSymbolTableRecord
100
AcDbTextStyleTableRecord
  2
Standard
 70
     0
 40
0.0
 41
1.0
 50
0.0
 71
     0
 42
2.5
  3
txt
  4

  0
STYLE
  5
44
330
3
100
AcDbSymbolTableRecord
100
AcDbTextStyleTableRecord
  2
SLDTEXTSTYLE0
 70
     0
 40
0.0
 41
0.7
 50
0.0
 71
     0
 42
0.2
  3
TXT
  4

  0
STYLE
  5
48
330
3
100
AcDbSymbolTableRecord
100
AcDbTextStyleTableRecord
  2
SLDTEXTSTYLE1
 70
     0
 40
0.0
 41
0.6526315789
 50
0.0
 71
     0
 42
0.2
  3
TXT
  4

  0
ENDTAB
  0
TABLE
  2
VIEW
  5
6
330
0
100
AcDbSymbolTable
 70
     0
  0
ENDTAB
  0
TABLE
  2
UCS
  5
7
330
0
100
AcDbSymbolTable
 70
     0
  0
ENDTAB
  0
TABLE
  2
APPID
  5
9
330
0
100
AcDbSymbolTable
 70
     1
  0
APPID
  5
12
330
9
100
AcDbSymbolTableRecord
100
AcDbRegAppTableRecord
  2
ACAD
 70
     0
  0
ENDTAB
  0
TABLE
  2
DIMSTYLE
  5
A
330
0
100
AcDbSymbolTable
 70
     4
100
AcDbDimStyleTable
  0
DIMSTYLE
105
27
330
A
100
AcDbSymbolTableRecord
100
AcDbDimStyleTableRecord
  2
ISO-25
 70
     0
 41
2.5
 42
0.625
 43
3.75
 44
1.25
 73
     0
 74
     0
 77
     1
 78
     8
140
2.5
141
2.5
143
0.0393700787
147
0.625
171
     3
172
     1
271
     2
272
     2
274
     3
278
    44
283
     0
284
     8
340
11
  0
DIMSTYLE
105
21B
102
{ACAD_REACTORS
330
21A
330
227
330
231
330
23B
102
}
330
A
100
AcDbSymbolTableRecord
100
AcDbDimStyleTableRecord
  2
SLDDIMSTYLE0
 70
     0
 41
3.0
 44
0.0
 45
0.000000001
 73
     0
 74
     0
 77
     1
 78
    12
140
2.0
147
0.5
173
     1
271
     2
272
     3
284
    12
340
44
  0
DIMSTYLE
105
246
102
{ACAD_REACTORS
330
245
102
}
330
A
100
AcDbSymbolTableRecord
100
AcDbDimStyleTableRecord
  2
SLDDIMSTYLE1
 70
     0
 41
3.0
 44
0.0
 73
     0
 74
     0
 77
     1
 78
    12
140
2.0
147
0.5
173
     1
179
     2
272
     3
284
    12
340
44
  0
DIMSTYLE
105
283
102
{ACAD_REACTORS
330
282
102
}
330
A
100
AcDbSymbolTableRecord
100
AcDbDimStyleTableRecord
  2
SLDDIMSTYLE2
 70
     0
 41
3.0
 44
0.0
 45
0.000000001
 73
     0
 74
     0
 77
     1
 78
    12
140
2.0
147
0.5
173
     1
271
     2
272
     3
284
    12
340
44
  0
ENDTAB
  0
TABLE
  2
BLOCK_RECORD
  5
1
330
0
100
AcDbSymbolTable
 70
     8
  0
BLOCK_RECORD
  5
1F
330
1
100
AcDbSymbolTableRecord
100
AcDbBlockTableRecord
  2
*Model_Space
340
22
  0
BLOCK_RECORD
  5
1B
330
1
100
AcDbSymbolTableRecord
100
AcDbBlockTableRecord
  2
*Paper_Space
340
1E
  0
BLOCK_RECORD
  5
23
330
1
100
AcDbSymbolTableRecord
100
AcDbBlockTableRecord
  2
*Paper_Space0
340
26
  0
BLOCK_RECORD
  5
21C
330
1
100
AcDbSymbolTableRecord
100
AcDbBlockTableRecord
  2
*D1
340
0
  0
BLOCK_RECORD
  5
228
330
1
100
AcDbSymbolTableRecord
100
AcDbBlockTableRecord
  2
*D2
340
0
  0
BLOCK_RECORD
  5
232
330
1
100
AcDbSymbolTableRecord
100
AcDbBlockTableRecord
  2
*D3
340
0
  0
BLOCK_RECORD
  5
23C
330
1
100
AcDbSymbolTableRecord
100
AcDbBlockTableRecord
  2
*D4
340
0
  0
BLOCK_RECORD
  5
247
330
1
100
AcDbSymbolTableRecord
100
AcDbBlockTableRecord
  2
*D5
340
0
  0
BLOCK_RECORD
  5
284
330
1
100
AcDbSymbolTableRecord
100
AcDbBlockTableRecord
  2
*D6
340
0
  0
BLOCK_RECORD
  5
28E
330
1
100
AcDbSymbolTableRecord
100
AcDbBlockTableRecord
  2
SW_CENTERMARKSYMBOL_0
340
0
102
{BLKREFS
331
299
102
}
  0
ENDTAB
  0
ENDSEC
  0
SECTION
  2
BLOCKS
  0
BLOCK
  5
20
330
1F
100
AcDbEntity
  8
0
100
AcDbBlockBegin
  2
*Model_Space
 70
     0
 10
0.0
 20
0.0
 30
0.0
  3
*Model_Space
  1

  0
ENDBLK
  5
21
330
1F
100
AcDbEntity
  8
0
100
AcDbBlockEnd
  0
BLOCK
  5
1C
330
1B
100
AcDbEntity
 67
     1
  8
0
100
AcDbBlockBegin
  2
*Paper_Space
 70
     0
 10
0.0
 20
0.0
 30
0.0
  3
*Paper_Space
  1

  0
ENDBLK
  5
1D
330
1B
100
AcDbEntity
 67
     1
  8
0
100
AcDbBlockEnd
  0
BLOCK
  5
24
330
23
100
AcDbEntity
  8
0
100
AcDbBlockBegin
  2
*Paper_Space0
 70
     0
 10
0.0
 20
0.0
 30
0.0
  3
*Paper_Space0
  1

  0
ENDBLK
  5
25
330
23
100
AcDbEntity
  8
0
100
AcDbBlockEnd
  0
BLOCK
  5
21D
330
21C
100
AcDbEntity
  8
0
100
AcDbBlockBegin
  2
*D1
 70
     1
 10
0.0
 20
0.0
 30
0.0
  3
*D1
  1

  0
SOLID
  5
21F
330
21C
100
AcDbEntity
  8
VERMASSUNG
100
AcDbTrace
 10
146.8684439608
 20
146.7358333719
 30
0.0
 11
146.4184439608
 21
143.7358333719
 31
0.0
 12
147.3184439608
 22
143.7358333719
 32
0.0
 13
147.3184439608
 23
143.7358333719
 33
0.0
  0
SOLID
  5
220
330
21C
100
AcDbEntity
  8
VERMASSUNG
100
AcDbTrace
 10
146.8684439608
 20
83.7358333719
 30
0.0
 11
147.3184439608
 21
86.7358333719
 31
0.0
 12
146.4184439608
 22
86.7358333719
 32
0.0
 13
146.4184439608
 23
86.7358333719
 33
0.0
  0
LINE
  5
221
330
21C
100
AcDbEntity
  8
VERMASSUNG
100
AcDbLine
 10
183.5762488014
 20
146.7358333719
 30
0.0
 11
145.8684439608
 21
146.7358333719
 31
0.0
  0
LINE
  5
222
330
21C
100
AcDbEntity
  8
VERMASSUNG
100
AcDbLine
 10
183.5762488014
 20
83.7358333719
 30
0.0
 11
145.8684439608
 21
83.7358333719
 31
0.0
  0
LINE
  5
223
330
21C
100
AcDbEntity
  8
VERMASSUNG
100
AcDbLine
 10
146.8684439608
 20
146.7358333719
 30
0.0
 11
146.8684439608
 21
83.7358333719
 31
0.0
  0
MTEXT
  5
224
330
21C
100
AcDbEntity
  8
VERMASSUNG
100
AcDbMText
 10
144.0903084718
 20
109.0313184972
 30
0.0
 40
2.0
 41
0.0
 71
     1
 72
     1
  1
HSK 
  7
SLDTEXTSTYLE0
 11
-7.044195017643634E-15
 21
1.0
 31
0.0
 73
     1
 44
1.0
  0
MTEXT
  5
225
330
21C
100
AcDbEntity
  8
VERMASSUNG
100
AcDbMText
 10
144.2903084813
 20
115.0313185494
 30
0.0
 40
2.0
 41
0.0
 71
     1
 72
     1
  1
%%c
  7
SLDTEXTSTYLE0
 11
-7.044195017643634E-15
 21
1.0
 31
0.0
 73
     1
 44
1.0
  0
MTEXT
  5
226
330
21C
100
AcDbEntity
  8
VERMASSUNG
100
AcDbMText
 10
144.2903085977
 20
118.6411532587
 30
0.0
 40
2.0
 41
0.0
 71
     1
 72
     1
  1
63
  7
SLDTEXTSTYLE0
 11
-7.044195017643634E-15
 21
1.0
 31
0.0
 73
     1
 44
1.0
  0
ENDBLK
  5
21E
330
21C
100
AcDbEntity
  8
0
100
AcDbBlockEnd
  0
BLOCK
  5
229
330
228
100
AcDbEntity
  8
0
100
AcDbBlockBegin
  2
*D2
 70
     1
 10
0.0
 20
0.0
 30
0.0
  3
*D2
  1

  0
SOLID
  5
22B
330
228
100
AcDbEntity
  8
VERMASSUNG
100
AcDbTrace
 10
151.3762488014
 20
156.7358333719
 30
0.0
 11
154.3762488014
 21
156.2858333719
 31
0.0
 12
154.3762488014
 22
157.1858333719
 32
0.0
 13
154.3762488014
 23
157.1858333719
 33
0.0
  0
SOLID
  5
22C
330
228
100
AcDbEntity
  8
VERMASSUNG
100
AcDbTrace
 10
253.2762488014
 20
156.7358333719
 30
0.0
 11
250.2762488014
 21
157.1858333719
 31
0.0
 12
250.2762488014
 22
156.2858333719
 32
0.0
 13
250.2762488014
 23
156.2858333719
 33
0.0
  0
LINE
  5
22D
330
228
100
AcDbEntity
  8
VERMASSUNG
100
AcDbLine
 10
151.3762488014
 20
134.9265111184
 30
0.0
 11
151.3762488014
 21
157.7358333719
 31
0.0
  0
LINE
  5
22E
330
228
100
AcDbEntity
  8
VERMASSUNG
100
AcDbLine
 10
253.2762488014
 20
70.2358333719
 30
0.0
 11
253.2762488014
 21
157.7358333719
 31
0.0
  0
LINE
  5
22F
330
228
100
AcDbEntity
  8
VERMASSUNG
100
AcDbLine
 10
151.3762488014
 20
156.7358333719
 30
0.0
 11
253.2762488014
 21
156.7358333719
 31
0.0
  0
MTEXT
  5
230
330
228
100
AcDbEntity
  8
VERMASSUNG
100
AcDbMText
 10
199.6274623826
 20
159.313968735
 30
0.0
 40
2.0
 41
0.0
 71
     1
 72
     1
  1
101.9
  7
SLDTEXTSTYLE0
 73
     1
 44
1.0
  0
ENDBLK
  5
22A
330
228
100
AcDbEntity
  8
0
100
AcDbBlockEnd
  0
BLOCK
  5
233
330
232
100
AcDbEntity
  8
0
100
AcDbBlockBegin
  2
*D3
 70
     1
 10
0.0
 20
0.0
 30
0.0
  3
*D3
  1

  0
SOLID
  5
235
330
232
100
AcDbEntity
  8
VERMASSUNG
100
AcDbTrace
 10
183.2762488014
 20
150.7358333719
 30
0.0
 11
186.2762488014
 21
150.2858333719
 31
0.0
 12
186.2762488014
 22
151.1858333719
 32
0.0
 13
186.2762488014
 23
151.1858333719
 33
0.0
  0
SOLID
  5
236
330
232
100
AcDbEntity
  8
VERMASSUNG
100
AcDbTrace
 10
253.2762488014
 20
150.7358333719
 30
0.0
 11
250.2762488014
 21
151.1858333719
 31
0.0
 12
250.2762488014
 22
150.2858333719
 32
0.0
 13
250.2762488014
 23
150.2858333719
 33
0.0
  0
LINE
  5
237
330
232
100
AcDbEntity
  8
VERMASSUNG
100
AcDbLine
 10
183.2762488014
 20
146.4358333719
 30
0.0
 11
183.2762488014
 21
151.7358333719
 31
0.0
  0
LINE
  5
238
330
232
100
AcDbEntity
  8
VERMASSUNG
100
AcDbLine
 10
253.2762488014
 20
70.2358333719
 30
0.0
 11
253.2762488014
 21
151.7358333719
 31
0.0
  0
LINE
  5
239
330
232
100
AcDbEntity
  8
VERMASSUNG
100
AcDbLine
 10
183.2762488014
 20
150.7358333719
 30
0.0
 11
253.2762488014
 21
150.7358333719
 31
0.0
  0
MTEXT
  5
23A
330
232
100
AcDbEntity
  8
VERMASSUNG
100
AcDbMText
 10
216.8766513075
 20
153.313968735
 30
0.0
 40
2.0
 41
0.0
 71
     1
 72
     1
  1
70
  7
SLDTEXTSTYLE0
 73
     1
 44
1.0
  0
ENDBLK
  5
234
330
232
100
AcDbEntity
  8
0
100
AcDbBlockEnd
  0
BLOCK
  5
23D
330
23C
100
AcDbEntity
  8
0
100
AcDbBlockBegin
  2
*D4
 70
     1
 10
0.0
 20
0.0
 30
0.0
  3
*D4
  1

  0
SOLID
  5
23F
330
23C
100
AcDbEntity
  8
VERMASSUNG
100
AcDbTrace
 10
262.6963806095
 20
115.2358333719
 30
0.0
 11
262.2463806095
 21
112.2358333719
 31
0.0
 12
263.1463806095
 22
112.2358333719
 32
0.0
 13
263.1463806095
 23
112.2358333719
 33
0.0
  0
SOLID
  5
240
330
23C
100
AcDbEntity
  8
VERMASSUNG
100
AcDbTrace
 10
262.6963806095
 20
70.2358333719
 30
0.0
 11
263.1463806095
 21
73.2358333719
 31
0.0
 12
262.2463806095
 22
73.2358333719
 32
0.0
 13
262.2463806095
 23
73.2358333719
 33
0.0
  0
LINE
  5
241
330
23C
100
AcDbEntity
  8
VERMASSUNG
100
AcDbLine
 10
248.9572361262
 20
115.2358333719
 30
0.0
 11
263.6963806095
 21
115.2358333719
 31
0.0
  0
LINE
  5
242
330
23C
100
AcDbEntity
  8
VERMASSUNG
100
AcDbLine
 10
253.2762488014
 20
70.2358333719
 30
0.0
 11
263.6963806095
 21
70.2358333719
 31
0.0
  0
LINE
  5
243
330
23C
100
AcDbEntity
  8
VERMASSUNG
100
AcDbLine
 10
262.6963806095
 20
115.2358333719
 30
0.0
 11
262.6963806095
 21
70.2358333719
 31
0.0
  0
MTEXT
  5
244
330
23C
100
AcDbEntity
  8
VERMASSUNG
100
AcDbMText
 10
260.1182452464
 20
91.2370518036
 30
0.0
 40
2.0
 41
0.0
 71
     1
 72
     1
  1
45
  7
SLDTEXTSTYLE0
 11
-7.044195017643634E-15
 21
1.0
 31
0.0
 73
     1
 44
1.0
  0
ENDBLK
  5
23E
330
23C
100
AcDbEntity
  8
0
100
AcDbBlockEnd
  0
BLOCK
  5
248
330
247
100
AcDbEntity
  8
0
100
AcDbBlockBegin
  2
*D5
 70
     1
 10
0.0
 20
0.0
 30
0.0
  3
*D5
  1

  0
ARC
  5
24A
330
247
100
AcDbEntity
  8
VERMASSUNG
100
AcDbCircle
 10
253.2762488014
 20
59.181914175
 30
0.0
 40
44.19127323748368
100
AcDbArc
 50
90.0
 51
93.0
  0
ARC
  5
24B
330
247
100
AcDbEntity
  8
VERMASSUNG
100
AcDbCircle
 10
253.2762488014
 20
59.181914175
 30
0.0
 40
44.19127323748369
100
AcDbArc
 50
82.2371412192
 51
90.0
  0
ARC
  5
24C
330
247
100
AcDbEntity
  8
VERMASSUNG
100
AcDbCircle
 10
253.2762488014
 20
59.181914175
 30
0.0
 40
44.19127323748368
100
AcDbArc
 50
93.0
 51
102.1458034779
  0
SOLID
  5
24D
330
247
100
AcDbEntity
  8
VERMASSUNG
100
AcDbTrace
 10
253.2762488014
 20
103.3731874125
 30
0.0
 11
256.2592778411
 21
102.8217912316
 31
0.0
 12
256.28977422
 22
103.7212744004
 32
0.0
 13
256.28977422
 23
103.7212744004
 33
0.0
  0
SOLID
  5
24E
330
247
100
AcDbEntity
  8
VERMASSUNG
100
AcDbTrace
 10
250.9634562589
 20
103.3126248083
 30
0.0
 11
247.9358433068
 21
103.5025190207
 31
0.0
 12
248.0133732032
 22
102.6058646195
 32
0.0
 13
248.0133732032
 23
102.6058646195
 33
0.0
  0
MTEXT
  5
24F
330
247
100
AcDbEntity
  8
VERMASSUNG
100
AcDbMText
 10
245.152021822
 20
105.2586155402
 30
0.0
 40
2.0
 41
0.0
 71
     1
 72
     1
  1
3°
  7
SLDTEXTSTYLE0
 11
0.9892508953369765
 21
0.1462281302451423
 31
0.0
 73
     1
 44
1.0
  0
ENDBLK
  5
249
330
247
100
AcDbEntity
  8
0
100
AcDbBlockEnd
  0
BLOCK
  5
285
330
284
100
AcDbEntity
  8
0
100
AcDbBlockBegin
  2
*D6
 70
     1
 10
0.0
 20
0.0
 30
0.0
  3
*D6
  1

  0
SOLID
  5
287
330
284
100
AcDbEntity
  8
VERMASSUNG
100
AcDbTrace
 10
39.1857453754
 20
70.5390836217
 30
0.0
 11
39.6357453754
 21
73.5390836217
 31
0.0
 12
38.7357453754
 22
73.5390836217
 32
0.0
 13
38.7357453754
 23
73.5390836217
 33
0.0
  0
SOLID
  5
288
330
284
100
AcDbEntity
  8
VERMASSUNG
100
AcDbTrace
 10
39.1857453754
 20
150.5390836217
 30
0.0
 11
38.7357453754
 21
147.5390836217
 31
0.0
 12
39.6357453754
 22
147.5390836217
 32
0.0
 13
39.6357453754
 23
147.5390836217
 33
0.0
  0
LINE
  5
289
330
284
100
AcDbEntity
  8
VERMASSUNG
100
AcDbLine
 10
84.1700761697
 20
70.5390836217
 30
0.0
 11
38.1857453754
 21
70.5390836217
 31
0.0
  0
LINE
  5
28A
330
284
100
AcDbEntity
  8
VERMASSUNG
100
AcDbLine
 10
84.1700761697
 20
150.5390836217
 30
0.0
 11
38.1857453754
 21
150.5390836217
 31
0.0
  0
LINE
  5
28B
330
284
100
AcDbEntity
  8
VERMASSUNG
100
AcDbLine
 10
39.1857453754
 20
70.5390836217
 30
0.0
 11
39.1857453754
 21
150.5390836217
 31
0.0
  0
MTEXT
  5
28C
330
284
100
AcDbEntity
  8
VERMASSUNG
100
AcDbMText
 10
36.6076098959
 20
107.3345808731
 30
0.0
 40
2.0
 41
0.0
 71
     1
 72
     1
  1
%%c
  7
SLDTEXTSTYLE0
 11
6.123233995736766E-17
 21
1.0
 31
0.0
 73
     1
 44
1.0
  0
MTEXT
  5
28D
330
284
100
AcDbEntity
  8
VERMASSUNG
100
AcDbMText
 10
36.6076100123
 20
110.9443913824
 30
0.0
 40
2.0
 41
0.0
 71
     1
 72
     1
  1
80
  7
SLDTEXTSTYLE0
 11
6.123233995736766E-17
 21
1.0
 31
0.0
 73
     1
 44
1.0
  0
ENDBLK
  5
286
330
284
100
AcDbEntity
  8
0
100
AcDbBlockEnd
  0
BLOCK
  5
28F
330
28E
100
AcDbEntity
  8
0
100
AcDbBlockBegin
  2
SW_CENTERMARKSYMBOL_0
 70
     0
 10
0.0
 20
0.0
 30
0.0
  3
SW_CENTERMARKSYMBOL_0
  1

  0
LINE
  5
291
330
28E
100
AcDbEntity
  8
VERMASSUNG
 62
     0
100
AcDbLine
 10
0.0
 20
0.0
 30
0.0
 11
0.0
 21
2.5
 31
0.0
  0
LINE
  5
292
330
28E
100
AcDbEntity
  8
VERMASSUNG
 62
     0
100
AcDbLine
 10
0.0
 20
0.0
 30
0.0
 11
-2.5
 21
0.0
 31
0.0
  0
LINE
  5
293
330
28E
100
AcDbEntity
  8
VERMASSUNG
 62
     0
100
AcDbLine
 10
0.0
 20
0.0
 30
0.0
 11
0.0
 21
-2.5
 31
0.0
  0
LINE
  5
294
330
28E
100
AcDbEntity
  8
VERMASSUNG
 62
     0
100
AcDbLine
 10
0.0
 20
0.0
 30
0.0
 11
2.5
 21
0.0
 31
0.0
  0
LINE
  5
295
330
28E
100
AcDbEntity
  8
VERMASSUNG
 62
     0
100
AcDbLine
 10
0.0
 20
5.0
 30
0.0
 11
0.0
 21
34.0
 31
0.0
  0
LINE
  5
296
330
28E
100
AcDbEntity
  8
VERMASSUNG
 62
     0
100
AcDbLine
 10
-5.0
 20
0.0
 30
0.0
 11
-34.0
 21
0.0
 31
0.0
  0
LINE
  5
297
330
28E
100
AcDbEntity
  8
VERMASSUNG
 62
     0
100
AcDbLine
 10
0.0
 20
-5.0
 30
0.0
 11
0.0
 21
-34.0
 31
0.0
  0
LINE
  5
298
330
28E
100
AcDbEntity
  8
VERMASSUNG
 62
     0
100
AcDbLine
 10
5.0
 20
0.0
 30
0.0
 11
34.0
 21
0.0
 31
0.0
  0
ENDBLK
  5
290
330
28E
100
AcDbEntity
  8
0
100
AcDbBlockEnd
  0
ENDSEC
  0
SECTION
  2
ENTITIES
  0
MTEXT
  5
45
330
1F
100
AcDbEntity
  8
KOPF_DÜNN
100
AcDbMText
 10
13.8892156294
 20
23.8442973028
 30
0.0
 40
3.0
 41
0.0
 71
     1
 72
     1
  1
HA6.KDB.LUA.070
  7
SLDTEXTSTYLE0
 73
     1
 44
1.0
  0
MTEXT
  5
46
330
1F
100
AcDbEntity
  8
VERMASSUNG
100
AcDbMText
 10
13.9329988022
 20
28.8834360957
 30
0.0
 40
3.0
 41
0.0
 71
     1
 72
     1
  1
Klemmhalter links_Turning tool left 93° /55°
  7
SLDTEXTSTYLE0
 73
     1
 44
1.0
  0
MTEXT
  5
47
330
1F
100
AcDbEntity
  8
VERMASSUNG
100
AcDbMText
 10
98.8601118557
 20
13.8365368179
 30
0.0
 40
2.0
 41
0.0
 71
     1
 72
     1
  1
Datum: 05.11.2008
  7
SLDTEXTSTYLE0
 73
     1
 44
1.0
  0
MTEXT
  5
49
330
1F
100
AcDbEntity
  8
VERMASSUNG
100
AcDbMText
 10
13.933048693
 20
18.0482802738
 30
0.0
 40
2.0
 41
0.0
 71
     1
 72
     1
  1
DIN 69893 HSK 63 A ICTM / DC.. 11 T3..
  7
SLDTEXTSTYLE1
 73
     1
 44
1.0
  0
MTEXT
  5
4A
330
1F
100
AcDbEntity
  8
VERMASSUNG
100
AcDbMText
 10
13.9808475933
 20
13.9090973692
 30
0.0
 40
2.0
 41
0.0
 71
     1
 72
     1
  1
Gewicht: 1064g
  7
SLDTEXTSTYLE0
 73
     1
 44
1.0
  0
LINE
  5
4B
330
1F
100
AcDbEntity
  8
0
  6
Continuous
 62
     7
370
    15
100
AcDbLine
 10
183.5762488014
 20
83.7358333719
 30
0.0
 11
188.2262488014
 21
83.7358333719
 31
0.0
  0
LINE
  5
4C
330
1F
100
AcDbEntity
  8
0
  6
Continuous
 62
     7
370
    15
100
AcDbLine
 10
188.2542371605
 20
146.7358333719
 30
0.0
 11
183.5762488014
 21
146.7358333719
 31
0.0
  0
ARC
  5
4D
330
1F
100
AcDbEntity
  8
0
  6
Continuous
 62
     7
370
    15
100
AcDbCircle
 10
183.5762488014
 20
84.0358333719
 30
0.0
 40
0.3000000000000398
100
AcDbArc
 50
180.0
 51
270.0
  0
ARC
  5
4E
330
1F
100
AcDbEntity
  8
0
  6
Continuous
 62
     7
370
    15
100
AcDbCircle
 10
183.5762488014
 20
146.4358333719
 30
0.0
 40
0.3000000000000398
100
AcDbArc
 50
90.0
 51
180.0
  0
ARC
  5
4F
330
1F
100
AcDbEntity
  8
0
  6
Continuous
 62
     7
370
    15
100
AcDbCircle
 10
210.2262488014
 20
88.2358333719
 30
0.0
 40
1.000000000000017
100
AcDbArc
 50
90.0
 51
143.1139143113
  0
ARC
  5
50
330
1F
100
AcDbEntity
  8
0
  6
Continuous
 62
     7
370
    15
100
AcDbCircle
 10
210.2262488014
 20
142.2358333719
 30
0.0
 40
1.0
100
AcDbArc
 50
216.8996843908
 51
270.0
  0
LINE
  5
51
330
1F
100
AcDbEntity
  8
0
  6
Continuous
 62
     7
370
    15
100
AcDbLine
 10
210.2262488014
 20
89.2358333719
 30
0.0
 11
223.0776124973
 21
89.2358333719
 31
0.0
  0
LINE
  5
52
330
1F
100
AcDbEntity
  8
0
  6
Continuous
 62
     7
370
    15
100
AcDbLine
 10
223.012926562
 20
141.2358333719
 30
0.0
 11
210.2262488014
 21
141.2358333719
 31
0.0
  0
ARC
  5
53
330
1F
100
AcDbEntity
  8
0
  6
Continuous
 62
     7
370
    15
100
AcDbCircle
 10
182.7762488014
 20
90.6654025102
 30
0.0
 40
0.6000000000000019
100
AcDbArc
 50
33.5573097619
 51
90.0
  0
ARC
  5
54
330
1F
100
AcDbEntity
  8
0
  6
Continuous
 62
     7
370
    15
100
AcDbCircle
 10
182.7762488014
 20
139.8062642336
 30
0.0
 40
0.6000000000000019
100
AcDbArc
 50
270.0
 51
326.4426902381
  0
LINE
  5
55
330
1F
100
AcDbEntity
  8
0
  6
Continuous
 62
     7
370
    15
100
AcDbLine
 10
170.0447400026
 20
138.893563392
 30
0.0
 11
157.4762488014
 21
138.2638794641
 31
0.0
  0
LINE
  5
56
330
1F
100
AcDbEntity
  8
0
  6
Continuous
 62
     7
370
    15
100
AcDbLine
 10
181.2762488014
 20
139.4562642336
 30
0.0
 11
178.459247144
 21
139.3151318861
 31
0.0
  0
LINE
  5
57
330
1F
100
AcDbEntity
  8
0
  6
Continuous
 62
     7
370
    15
100
AcDbLine
 10
178.4593032341
 20
91.1565320476
 30
0.0
 11
181.2762488014
 21
91.0154025102
 31
0.0
  0
LINE
  5
58
330
1F
100
AcDbEntity
  8
0
  6
Continuous
 62
     7
370
    15
100
AcDbLine
 10
161.4762488014
 20
92.0073864781
 30
0.0
 11
170.0451425213
 21
91.5780831856
 31
0.0
  0
LINE
  5
59
330
1F
100
AcDbEntity
  8
0
  6
Continuous
 62
     7
370
    15
100
AcDbLine
 10
181.2762488014
 20
91.0154025102
 30
0.0
 11
182.1329615748
 21
91.244958006
 31
0.0
  0
LINE
  5
5A
330
1F
100
AcDbEntity
  8
0
  6
Continuous
 62
     7
370
    15
100
AcDbLine
 10
182.1329615748
 20
139.2267087379
 30
0.0
 11
181.2762488014
 21
139.4562642336
 31
0.0
  0
ARC
  5
5B
330
1F
100
AcDbEntity
  8
0
  6
Continuous
 62
     7
370
    15
100
AcDbCircle
 10
182.2882530018
 20
90.6654025102
 30
0.0
 40
0.6000000000000227
100
AcDbArc
 50
90.0
 51
105.0
  0
ARC
  5
5C
330
1F
100
AcDbEntity
  8
0
  6
Continuous
 62
     7
370
    15
100
AcDbCircle
 10
182.2882530018
 20
139.8062642336
 30
0.0
 40
0.6000000000000008
100
AcDbArc
 50
255.0
 51
270.0
  0
LINE
  5
5D
330
1F
100
AcDbEntity
  8
0
  6
Continuous
 62
     7
370
    15
100
AcDbLine
 10
182.2882530018
 20
91.2654025102
 30
0.0
 11
182.7762488014
 21
91.2654025102
 31
0.0
  0
LINE
  5
5E
330
1F
100
AcDbEntity
  8
0
  6
Continuous
 62
     7
370
    15
100
AcDbLine
 10
182.7762488014
 20
139.2062642336
 30
0.0
 11
182.2882530018
 21
139.2062642336
 31
0.0
  0
LINE
  5
5F
330
1F
100
AcDbEntity
  8
0
  6
Continuous
 62
     7
370
    15
100
AcDbLine
 10
152.5262488014
 20
94.4233333719
 30
0.0
 11
160.0762488014
 21
94.4233333719
 31
0.0
  0
ARC
  5
60
330
1F
100
AcDbEntity
  8
0
  6
Continuous
 62
     7
370
    15
100
AcDbCircle
 10
160.0762488014
 20
93.0233333719
 30
0.0
 40
1.399999999999996
100
AcDbArc
 50
37.6443616934
 51
90.0
  0
LINE
  5
61
330
1F
100
AcDbEntity
  8
0
  6
Continuous
 62
     7
370
    15
100
AcDbLine
 10
152.5174122596
 20
136.0969968301
 30
0.0
 11
151.3861495748
 21
134.9657341453
 31
0.0
  0
LINE
  5
62
330
1F
100
AcDbEntity
  8
0
  6
Continuous
 62
     7
370
    15
100
AcDbLine
 10
151.3736679217
 20
95.5759142517
 30
0.0
 11
152.5262488014
 21
94.4233333719
 31
0.0
  0
ARC
  5
63
330
1F
100
AcDbEntity
  8
0
  6
Continuous
 62
     7
370
    15
100
AcDbCircle
 10
156.0762488014
 20
137.5058333719
 30
0.0
 40
1.40000000000004
100
AcDbArc
 50
270.0
 51
301.7485287426
  0
LINE
  5
64
330
1F
100
AcDbEntity
  8
0
  6
Continuous
 62
     7
370
    15
100
AcDbLine
 10
156.0762488014
 20
136.1058333719
 30
0.0
 11
152.6505145353
 21
136.1058333719
 31
0.0
  0
ARC
  5
65
330
1F
100
AcDbEntity
  8
0
  6
Continuous
 62
     7
370
    15
100
AcDbCircle
 10
248.0160422966
 20
78.8868267075
 30
0.0
 40
1.675000000000001
100
AcDbArc
 50
100.8069086448
 51
159.4068417721
  0
ARC
  5
66
330
1F
100
AcDbEntity
  8
0
  6
Continuous
 62
     7
370
    15
100
AcDbCircle
 10
248.0160422966
 20
78.8868267075
 30
0.0
 40
1.674999999999978
100
AcDbArc
 50
159.4068417721
 51
219.5136835068
  0
ARC
  5
67
330
1F
100
AcDbEntity
  8
0
  6
Continuous
 62
     7
370
    15
100
AcDbCircle
 10
248.0160422966
 20
78.8868267075
 30
0.0
 40
1.674999999999998
100
AcDbArc
 50
219.5136835068
 51
278.113616634
  0
LINE
  5
68
330
1F
100
AcDbEntity
  8
0
  6
Continuous
 62
     7
370
    15
100
AcDbLine
 10
248.3362283867
 20
77.2427142212
 30
0.0
 11
248.2524459544
 21
77.2285932165
 31
0.0
  0
ARC
  5
69
330
1F
100
AcDbEntity
  8
0
  6
Continuous
 62
     7
370
    15
100
AcDbCircle
 10
248.0160422966
 20
78.8868267075
 30
0.0
 40
1.675000000000018
100
AcDbArc
 50
281.0202474059
 51
337.4639655722
  0
LINE
  5
6A
330
1F
100
AcDbEntity
  8
0
  6
Continuous
 62
     7
370
    15
100
AcDbLine
 10
249.6050683886
 20
78.3570899062
 30
0.0
 11
249.5631370734
 21
78.2448588335
 31
0.0
  0
ARC
  5
6B
330
1F
100
AcDbEntity
  8
0
  6
Continuous
 62
     7
370
    15
100
AcDbCircle
 10
248.0160422966
 20
78.8868267075
 30
0.0
 40
1.675000000000006
100
AcDbArc
 50
341.5630574724
 51
37.3574678064
  0
LINE
  5
6C
330
1F
100
AcDbEntity
  8
0
  6
Continuous
 62
     7
370
    15
100
AcDbLine
 10
249.2713842593
 20
79.9957638367
 30
0.0
 11
249.3474416288
 21
79.9031931857
 31
0.0
  0
ARC
  5
6D
330
1F
100
AcDbEntity
  8
0
  6
Continuous
 62
     7
370
    15
100
AcDbCircle
 10
248.0160422966
 20
78.8868267075
 30
0.0
 40
1.67500000000002
100
AcDbArc
 50
41.4565597067
 51
97.900277873
  0
LINE
  5
6E
330
1F
100
AcDbEntity
  8
0
  6
Continuous
 62
     7
370
    15
100
AcDbLine
 10
247.7019802052
 20
80.5321199953
 30
0.0
 11
247.7858146356
 21
80.5459289419
 31
0.0
  0
CIRCLE
  5
6F
330
1F
100
AcDbEntity
  8
0
  6
Continuous
 62
     7
370
    15
100
AcDbCircle
 10
248.0160422966
 20
78.8868267075
 30
0.0
 40
1.799999999999993
  0
SPLINE
  5
70
330
1F
100
AcDbEntity
  8
0
  6
Continuous
 62
     7
370
    15
100
AcDbSpline
210
0.0
220
0.0
230
1.0
 70
     8
 71
     3
 72
    11
 73
     7
 74
     0
 42
0.00000001
 43
0.00000001
 40
0.0
 40
0.0
 40
0.0
 40
0.0
 40
0.2669010467950143
 40
0.5546143410792441
 40
0.8439070439786109
 40
1.0
 40
1.0
 40
1.0
 40
1.0
 10
249.6050683886488
 20
78.35708990621787
 30
0.0
 10
249.6081090270615
 20
78.39182990714305
 30
0.0
 10
249.6144274049397
 20
78.46401884365554
 30
0.0
 10
249.5793728829239
 20
78.57009203338394
 30
0.0
 10
249.5234615115098
 20
78.64843110447978
 30
0.0
 10
249.4776734241956
 20
78.68273983094842
 30
0.0
 10
249.4616262126245
 20
78.6947639058699
 30
0.0
  0
SPLINE
  5
71
330
1F
100
AcDbEntity
  8
0
  6
Continuous
 62
     7
370
    15
100
AcDbSpline
210
0.0
220
0.0
230
1.0
 70
     8
 71
     3
 72
    12
 73
     8
 74
     0
 42
0.00000001
 43
0.00000001
 40
0.0
 40
0.0
 40
0.0
 40
0.0
 40
0.2058401281337999
 40
0.4120619935509864
 40
0.6141387330969457
 40
0.8132772113524577
 40
0.9999999999999999
 40
0.9999999999999999
 40
0.9999999999999999
 40
0.9999999999999999
 10
249.4616262126245
 20
78.6947639058699
 30
0.0
 10
249.4108987854634
 20
78.73631159680848
 30
0.0
 10
249.3093498554602
 20
78.81948403024413
 30
0.0
 10
249.2193144208295
 20
78.99964177734654
 30
0.0
 10
249.191268749374
 20
79.19394352969378
 30
0.0
 10
249.2240632206736
 20
79.38330848033276
 30
0.0
 10
249.2895519187731
 20
79.48705013034811
 30
0.0
 10
249.321242667192
 20
79.53725193045422
 30
0.0
  0
SPLINE
  5
72
330
1F
100
AcDbEntity
  8
0
  6
Continuous
 62
     7
370
    15
100
AcDbSpline
210
0.0
220
0.0
230
1.0
 70
     8
 71
     3
 72
    11
 73
     7
 74
     0
 42
0.00000001
 43
0.00000001
 40
0.0
 40
0.0
 40
0.0
 40
0.0
 40
0.2928993220619712
 40
0.5864344719079537
 40
0.8775178868033163
 40
1.0
 40
1.0
 40
1.0
 40
1.0
 10
249.321242667192
 20
79.53725193045422
 30
0.0
 10
249.3411637132513
 20
79.5695021866736
 30
0.0
 10
249.3810490501083
 20
79.6340727081817
 30
0.0
 10
249.3955388493091
 20
79.74925512913514
 30
0.0
 10
249.3786284059798
 20
79.8410287579632
 30
0.0
 10
249.3545675297081
 20
79.8889891674836
 30
0.0
 10
249.3474416288026
 20
79.90319318573178
 30
0.0
  0
SPLINE
  5
73
330
1F
100
AcDbEntity
  8
0
  6
Continuous
 62
     7
370
    15
100
AcDbSpline
210
0.0
220
0.0
230
1.0
 70
     8
 71
     3
 72
    12
 73
     8
 74
     0
 42
0.00000001
 43
0.00000001
 40
0.0
 40
0.0
 40
0.0
 40
0.0
 40
0.2057904614204203
 40
0.4120344203360553
 40
0.6141302471427793
 40
0.8132633242113064
 40
1.0
 40
1.0
 40
1.0
 40
1.0
 10
248.9067535835917
 20
80.04077850150976
 30
0.0
 10
248.8454256774818
 20
80.01762592221014
 30
0.0
 10
248.7226347178327
 20
79.97126974260316
 30
0.0
 10
248.5216026883096
 20
79.9833592219886
 30
0.0
 10
248.3392935594607
 20
80.05621792590148
 30
0.0
 10
248.1916813448344
 20
80.17930604466142
 30
0.0
 10
248.1345794854536
 20
80.28789606258734
 30
0.0
 10
248.1069457792013
 20
80.3404467971841
 30
0.0
  0
SPLINE
  5
74
330
1F
100
AcDbEntity
  8
0
  6
Continuous
 62
     7
370
    15
100
AcDbSpline
210
0.0
220
0.0
230
1.0
 70
     8
 71
     3
 72
    11
 73
     7
 74
     0
 42
0.00000001
 43
0.00000001
 40
0.0
 40
0.0
 40
0.0
 40
0.0
 40
0.2802371411013168
 40
0.5612869875924082
 40
0.8399906057824282
 40
1.0
 40
1.0
 40
1.0
 40
1.0
 10
248.1069457792013
 20
80.3404467971841
 30
0.0
 10
248.0889920089565
 20
80.3738048976661
 30
0.0
 10
248.0530324014006
 20
80.4406178392261
 30
0.0
 10
247.9605804207673
 20
80.51068941734192
 30
0.0
 10
247.867071117082
 20
80.54416578202006
 30
0.0
 10
247.8075305430804
 20
80.54545773496272
 30
0.0
 10
247.7858146356241
 20
80.54592894188359
 30
0.0
  0
SPLINE
  5
75
330
1F
100
AcDbEntity
  8
0
  6
Continuous
 62
     7
370
    15
100
AcDbSpline
210
0.0
220
0.0
230
1.0
 70
     8
 71
     3
 72
    11
 73
     7
 74
     0
 42
0.00000001
 43
0.00000001
 40
0.0
 40
0.0
 40
0.0
 40
0.0
 40
0.2657596322624894
 40
0.5530029385954687
 40
0.8418208483438021
 40
1.0
 40
1.0
 40
1.0
 40
1.0
 10
249.2713842592755
 20
79.99576383674403
 30
0.0
 10
249.242937918716
 20
80.01577261759368
 30
0.0
 10
249.1837456712411
 20
80.05740766394503
 30
0.0
 10
249.0745148484338
 20
80.08036013837207
 30
0.0
 10
248.9783779006092
 20
80.07134733398155
 30
0.0
 10
248.9254745337204
 20
80.0487684916699
 30
0.0
 10
248.9067535835917
 20
80.04077850150976
 30
0.0
  0
SPLINE
  5
76
330
1F
100
AcDbEntity
  8
0
  6
Continuous
 62
     7
370
    15
100
AcDbSpline
210
0.0
220
0.0
230
1.0
 70
     8
 71
     3
 72
    11
 73
     7
 74
     0
 42
0.00000001
 43
0.00000001
 40
0.0
 40
0.0
 40
0.0
 40
0.0
 40
0.2431090893443426
 40
0.5182793655622688
 40
0.7947794085751897
 40
1.0
 40
1.0
 40
1.0
 40
1.0
 10
248.3362283866648
 20
77.24271422117037
 30
0.0
 10
248.3670175494235
 20
77.25502274795876
 30
0.0
 10
248.4326563446811
 20
77.2812630480318
 30
0.0
 10
248.5110795477571
 20
77.35820355507026
 30
0.0
 10
248.5606439578473
 20
77.44967835404981
 30
0.0
 10
248.5695749499098
 20
77.51387432069335
 30
0.0
 10
248.5733796934521
 20
77.54122281544292
 30
0.0
  0
SPLINE
  5
77
330
1F
100
AcDbEntity
  8
0
  6
Continuous
 62
     7
370
    15
100
AcDbSpline
210
0.0
220
0.0
230
1.0
 70
     8
 71
     3
 72
    12
 73
     8
 74
     0
 42
0.00000001
 43
0.00000001
 40
0.0
 40
0.0
 40
0.0
 40
0.0
 40
0.205817956499896
 40
0.4120215045907384
 40
0.6140779969167866
 40
0.8132130006453747
 40
1.0
 40
1.0
 40
1.0
 40
1.0
 10
248.5733796934521
 20
77.54122281544292
 30
0.0
 10
248.5839958039356
 20
77.6059222375714
 30
0.0
 10
248.6052479137549
 20
77.73544229357074
 30
0.0
 10
248.7162360542754
 20
77.90348567542493
 30
0.0
 10
248.8704645702056
 20
78.02492589767085
 30
0.0
 10
249.0508584586658
 20
78.09122717866946
 30
0.0
 10
249.1734630782874
 20
78.08638578722096
 30
0.0
 10
249.2328039524101
 20
78.08404254435288
 30
0.0
  0
SPLINE
  5
78
330
1F
100
AcDbEntity
  8
0
  6
Continuous
 62
     7
370
    15
100
AcDbSpline
210
0.0
220
0.0
230
1.0
 70
     8
 71
     3
 72
    11
 73
     7
 74
     0
 42
0.00000001
 43
0.00000001
 40
0.0
 40
0.0
 40
0.0
 40
0.0
 40
0.2908641666076281
 40
0.5839560789891937
 40
0.8745988053617527
 40
1.0
 40
1.0
 40
1.0
 40
1.0
 10
249.2328039524101
 20
78.08404254435288
 30
0.0
 10
249.2704867235368
 20
78.08290252581693
 30
0.0
 10
249.3461408803525
 20
78.08061375727593
 30
0.0
 10
249.4530235729781
 20
78.12538079859
 30
0.0
 10
249.5244906252617
 20
78.18605024001337
 30
0.0
 10
249.5541863771872
 20
78.23123849104262
 30
0.0
 10
249.5631370734456
 20
78.24485883345481
 30
0.0
  0
SPLINE
  5
79
330
1F
100
AcDbEntity
  8
0
  6
Continuous
 62
     7
370
    15
100
AcDbSpline
210
0.0
220
0.0
230
1.0
 70
     8
 71
     3
 72
    12
 73
     8
 74
     0
 42
0.00000001
 43
0.00000001
 40
0.0
 40
0.0
 40
0.0
 40
0.0
 40
0.2058585741213982
 40
0.4121026961457014
 40
0.6141937841967376
 40
0.8133180967416271
 40
1.0
 40
1.0
 40
1.0
 40
1.0
 10
247.4636344353865
 20
80.23325200672262
 30
0.0
 10
247.4530156859133
 20
80.16854285287735
 30
0.0
 10
247.4317582993493
 20
80.03900335286498
 30
0.0
 10
247.3207414550995
 20
79.87094357363382
 30
0.0
 10
247.1664787509854
 20
79.74950744445866
 30
0.0
 10
246.9860906214388
 20
79.68324202461994
 30
0.0
 10
246.8635193332643
 20
79.6880876175372
 30
0.0
 10
246.8042101764285
 20
79.69043227781263
 30
0.0
  0
SPLINE
  5
7A
330
1F
100
AcDbEntity
  8
0
  6
Continuous
 62
     7
370
    15
100
AcDbSpline
210
0.0
220
0.0
230
1.0
 70
     8
 71
     3
 72
    11
 73
     7
 74
     0
 42
0.00000001
 43
0.00000001
 40
0.0
 40
0.0
 40
0.0
 40
0.0
 40
0.2524782265335789
 40
0.5068902417933302
 40
0.7591786113117146
 40
0.9999999999999999
 40
0.9999999999999999
 40
0.9999999999999999
 40
0.9999999999999999
 10
246.8042101764285
 20
79.69043227781263
 30
0.0
 10
246.7665156146878
 20
79.6915756652358
 30
0.0
 10
246.6908377799004
 20
79.69387119754897
 30
0.0
 10
246.5841645258611
 20
79.6490598435412
 30
0.0
 10
246.4966133370237
 20
79.57557299171506
 30
0.0
 10
246.4639997839663
 20
79.5086551112301
 30
0.0
 10
246.4480722120483
 20
79.4759742391965
 30
0.0
  0
SPLINE
  5
7B
330
1F
100
AcDbEntity
  8
0
  6
Continuous
 62
     7
370
    15
100
AcDbSpline
210
0.0
220
0.0
230
1.0
 70
     8
 71
     3
 72
    11
 73
     7
 74
     0
 42
0.00000001
 43
0.00000001
 40
0.0
 40
0.0
 40
0.0
 40
0.0
 40
0.2423611237745195
 40
0.5166847928458427
 40
0.792334137463348
 40
1.0
 40
1.0
 40
1.0
 40
1.0
 10
247.7019802051769
 20
80.53211999526191
 30
0.0
 10
247.6711452141107
 20
80.51992615275724
 30
0.0
 10
247.6054087184083
 20
80.49393034579609
 30
0.0
 10
247.5267033050773
 20
80.41728313780929
 30
0.0
 10
247.4765817667302
 20
80.32561856907277
 30
0.0
 10
247.4675255965905
 20
80.2610116410764
 30
0.0
 10
247.4636344353865
 20
80.23325200672262
 30
0.0
  0
SPLINE
  5
7C
330
1F
100
AcDbEntity
  8
0
  6
Continuous
 62
     7
370
    15
100
AcDbSpline
210
0.0
220
0.0
230
1.0
 70
     8
 71
     3
 72
    12
 73
     8
 74
     0
 42
0.00000001
 43
0.00000001
 40
0.0
 40
0.0
 40
0.0
 40
0.0
 40
0.0091735205190063
 40
0.2576775215525072
 40
0.5061895192299436
 40
0.7560357430219029
 40
1.0
 40
1.0
 40
1.0
 40
1.0
 10
246.723825604862
 20
77.82108704804874
 30
0.0
 10
246.7247025342899
 20
77.82003242570426
 30
0.0
 10
246.749334844327
 20
77.79040885083663
 30
0.0
 10
246.8085391367681
 20
77.74040174470598
 30
0.0
 10
246.9141252585396
 20
77.70018151573646
 30
0.0
 10
247.027421739679
 20
77.69457342003425
 30
0.0
 10
247.0962542401985
 20
77.72075932391056
 30
0.0
 10
247.130260545247
 20
77.73369632065577
 30
0.0
  0
SPLINE
  5
7D
330
1F
100
AcDbEntity
  8
0
  6
Continuous
 62
     7
370
    15
100
AcDbSpline
210
0.0
220
0.0
230
1.0
 70
     8
 71
     3
 72
    12
 73
     8
 74
     0
 42
0.00000001
 43
0.00000001
 40
0.0
 40
0.0
 40
0.0
 40
0.0
 40
0.2057532787804085
 40
0.4119604088044627
 40
0.6140154573248917
 40
0.8131414684041021
 40
1.0
 40
1.0
 40
1.0
 40
1.0
 10
247.130260545247
 20
77.73369632065577
 30
0.0
 10
247.1915793606924
 20
77.75684651285384
 30
0.0
 10
247.3143522488234
 20
77.80319796201837
 30
0.0
 10
247.5153564349003
 20
77.7911240363217
 30
0.0
 10
247.6976475380647
 20
77.71829716301903
 30
0.0
 10
247.8452923738495
 20
77.59522546154734
 30
0.0
 10
247.9024148524375
 20
77.48660981857658
 30
0.0
 10
247.9300683496374
 20
77.43402802498142
 30
0.0
  0
SPLINE
  5
7E
330
1F
100
AcDbEntity
  8
0
  6
Continuous
 62
     7
370
    15
100
AcDbSpline
210
0.0
220
0.0
230
1.0
 70
     8
 71
     3
 72
    11
 73
     7
 74
     0
 42
0.00000001
 43
0.00000001
 40
0.0
 40
0.0
 40
0.0
 40
0.0
 40
0.2794069064555904
 40
0.5596240257156092
 40
0.8375007392219479
 40
1.0
 40
1.0
 40
1.0
 40
1.0
 10
247.9300683496374
 20
77.43402802498142
 30
0.0
 10
247.948023884663
 20
77.40066711318866
 30
0.0
 10
247.9839870214458
 20
77.33384855098544
 30
0.0
 10
248.076447867945
 20
77.26377992071959
 30
0.0
 10
248.1703573005094
 20
77.23015311774543
 30
0.0
 10
248.2303197418476
 20
77.22901367300025
 30
0.0
 10
248.2524459543589
 20
77.2285932165276
 30
0.0
  0
CIRCLE
  5
7F
330
1F
100
AcDbEntity
  8
0
  6
Continuous
 62
     7
370
    15
100
AcDbCircle
 10
248.0160422966
 20
78.8868267075
 30
0.0
 40
2.625000000000016
  0
SPLINE
  5
80
330
1F
100
AcDbEntity
  8
0
  6
Continuous
 62
     7
370
    15
100
AcDbSpline
210
0.0
220
0.0
230
1.0
 70
     8
 71
     3
 72
    12
 73
     8
 74
     0
 42
0.00000001
 43
0.00000001
 40
0.0
 40
0.0
 40
0.0
 40
0.0
 40
0.0091681771491569
 40
0.2573268097002513
 40
0.5054934687429676
 40
0.75499253594531
 40
1.0
 40
1.0
 40
1.0
 40
1.0
 10
246.4480722120483
 20
79.4759742391965
 30
0.0
 10
246.4475945667791
 20
79.4746873317893
 30
0.0
 10
246.434188310413
 20
79.43856719884593
 30
0.0
 10
246.420341349969
 20
79.362315279774
 30
0.0
 10
246.4380961721625
 20
79.25073342063304
 30
0.0
 10
246.4897948756169
 20
79.1495214992558
 30
0.0
 10
246.5470301921543
 20
79.10283977390169
 30
0.0
 10
246.5753879162141
 20
79.07971091629562
 30
0.0
  0
SPLINE
  5
81
330
1F
100
AcDbEntity
  8
0
  6
Continuous
 62
     7
370
    15
100
AcDbSpline
210
0.0
220
0.0
230
1.0
 70
     8
 71
     3
 72
    12
 73
     8
 74
     0
 42
0.00000001
 43
0.00000001
 40
0.0
 40
0.0
 40
0.0
 40
0.0
 40
0.2058435564095156
 40
0.4120691620553198
 40
0.6141397217727173
 40
0.8132604579561391
 40
1.0
 40
1.0
 40
1.0
 40
1.0
 10
246.5753879162141
 20
79.07971091629562
 30
0.0
 10
246.6261158387479
 20
79.03816275454058
 30
0.0
 10
246.7276658357256
 20
78.95498931691652
 30
0.0
 10
246.8177006719874
 20
78.77483040746951
 30
0.0
 10
246.8457442642481
 20
78.58053261805145
 30
0.0
 10
246.8129521393871
 20
78.39117053636194
 30
0.0
 10
246.7474645824167
 20
78.28742918176424
 30
0.0
 10
246.7157714616466
 20
78.23722289171131
 30
0.0
  0
SPLINE
  5
82
330
1F
100
AcDbEntity
  8
0
  6
Continuous
 62
     7
370
    15
100
AcDbSpline
210
0.0
220
0.0
230
1.0
 70
     8
 71
     3
 72
    11
 73
     7
 74
     0
 42
0.00000001
 43
0.00000001
 40
0.0
 40
0.0
 40
0.0
 40
0.0
 40
0.2535086227484135
 40
0.5075674742604873
 40
0.7595056251924833
 40
1.0
 40
1.0
 40
1.0
 40
1.0
 10
246.7157714616466
 20
78.23722289171131
 30
0.0
 10
246.6958399164606
 20
78.20496106538828
 30
0.0
 10
246.6559335655899
 20
78.14036738993741
 30
0.0
 10
246.641594812039
 20
78.02533855145461
 30
0.0
 10
246.6616687745478
 20
77.9128108826687
 30
0.0
 10
246.7034301629219
 20
77.85118427363209
 30
0.0
 10
246.723825604862
 20
77.82108704804874
 30
0.0
  0
LINE
  5
83
330
1F
100
AcDbEntity
  8
0
  6
Continuous
 62
     7
370
    15
100
AcDbLine
 10
252.3188050138
 20
81.2724944796
 30
0.0
 11
252.6982842367
 21
81.2923821429
 31
0.0
  0
LINE
  5
84
330
1F
100
AcDbEntity
  8
0
  6
Continuous
 62
     7
370
    15
100
AcDbLine
 10
253.2557280246
 20
70.6557210353
 30
0.0
 11
252.6982842367
 21
81.2923821429
 31
0.0
  0
LINE
  5
85
330
1F
100
AcDbEntity
  8
0
  6
Continuous
 62
     7
370
    15
100
AcDbLine
 10
252.8762488014
 20
70.6358333719
 30
0.0
 11
253.2557280246
 21
70.6557210353
 31
0.0
  0
LINE
  5
86
330
1F
100
AcDbEntity
  8
0
  6
Continuous
 62
     7
370
    15
100
AcDbLine
 10
251.8573868782
 20
72.3655176827
 30
0.0
 11
252.8762488014
 21
70.6358333719
 31
0.0
  0
LINE
  5
87
330
1F
100
AcDbEntity
  8
0
  6
Continuous
 62
     7
370
    15
100
AcDbLine
 10
252.1046358924
 20
81.146339226
 30
0.0
 11
252.3188050138
 21
81.2724944796
 31
0.0
  0
SPLINE
  5
88
330
1F
100
AcDbEntity
  8
0
  6
Continuous
 62
     7
370
    15
100
AcDbSpline
210
0.0
220
0.0
230
1.0
 70
    24
 71
     3
 72
    11
 73
     7
 74
     0
 42
0.00000001
 43
0.00000001
 40
0.0
 40
0.0
 40
0.0
 40
0.0
 40
0.3277695037502443
 40
0.6551509568910043
 40
0.9907861901609738
 40
0.9999999999999999
 40
0.9999999999999999
 40
0.9999999999999999
 40
0.9999999999999999
 10
252.1046358924057
 20
81.14633922595792
 30
0.0
 10
252.0405908102157
 20
81.10861378946765
 30
0.0
 10
251.9125764696475
 20
81.03320758012563
 30
0.0
 10
251.7014926078594
 20
80.90886968329245
 30
0.0
 10
251.5683597645215
 20
80.83044844540265
 30
0.0
 10
251.5062182547268
 20
80.79384429874499
 30
0.0
 10
251.5045579338826
 20
80.79286629502609
 30
0.0
  0
LINE
  5
89
330
1F
100
AcDbEntity
  8
0
  6
Continuous
 62
     7
370
    15
100
AcDbLine
 10
243.8434694895
 20
76.2801403265
 30
0.0
 11
243.4639902663
 21
76.2602526631
 31
0.0
  0
LINE
  5
8A
330
1F
100
AcDbEntity
  8
0
  6
Continuous
 62
     7
370
    15
100
AcDbLine
 10
242.9065464786
 20
86.8969137708
 30
0.0
 11
243.4639902663
 21
76.2602526631
 31
0.0
  0
LINE
  5
8B
330
1F
100
AcDbEntity
  8
0
  6
Continuous
 62
     7
370
    15
100
AcDbLine
 10
243.2860257018
 20
86.9168014341
 30
0.0
 11
242.9065464786
 21
86.8969137708
 31
0.0
  0
LINE
  5
8C
330
1F
100
AcDbEntity
  8
0
  6
Continuous
 62
     7
370
    15
100
AcDbLine
 10
244.3048876251
 20
85.1871171234
 30
0.0
 11
243.2860257018
 21
86.9168014341
 31
0.0
  0
LINE
  5
8D
330
1F
100
AcDbEntity
  8
0
  6
Continuous
 62
     7
370
    15
100
AcDbLine
 10
244.0576386108
 20
76.4062955801
 30
0.0
 11
243.8434694895
 21
76.2801403265
 31
0.0
  0
SPLINE
  5
8E
330
1F
100
AcDbEntity
  8
0
  6
Continuous
 62
     7
370
    15
100
AcDbSpline
210
0.0
220
0.0
230
1.0
 70
    24
 71
     3
 72
    11
 73
     7
 74
     0
 42
0.00000001
 43
0.00000001
 40
0.0
 40
0.0
 40
0.0
 40
0.0
 40
0.0092138098389929
 40
0.3448490431109658
 40
0.6722304962507482
 40
1.0
 40
1.0
 40
1.0
 40
1.0
 10
244.6577165693506
 20
76.75976851102646
 30
0.0
 10
244.6560562485064
 20
76.75879050730755
 30
0.0
 10
244.5939147387111
 20
76.7221863606497
 30
0.0
 10
244.4607818953726
 20
76.64376512275936
 30
0.0
 10
244.2496980335839
 20
76.51942722592587
 30
0.0
 10
244.1216836930159
 20
76.44402101658396
 30
0.0
 10
244.057638610826
 20
76.40629558009374
 30
0.0
  0
LINE
  5
8F
330
1F
100
AcDbEntity
  8
0
  6
Continuous
 62
     7
370
    15
100
AcDbLine
 10
253.2761554762
 20
70.6480884909
 30
0.0
 11
252.7181753386
 21
81.2949837653
 31
0.0
  0
LINE
  5
90
330
1F
100
AcDbEntity
  8
0
  6
Continuous
 62
     7
370
    15
100
AcDbLine
 10
243.6301813414
 20
75.941746192
 30
0.0
 11
252.6716516296
 21
70.2920085127
 31
0.0
  0
LINE
  5
91
330
1F
100
AcDbEntity
  8
0
  6
Continuous
 62
     7
370
    15
100
AcDbLine
 10
242.886119027
 20
86.9045463151
 30
0.0
 11
243.4440991646
 21
76.2576510407
 31
0.0
  0
LINE
  5
92
330
1F
100
AcDbEntity
  8
0
  6
Continuous
 62
     7
370
    15
100
AcDbLine
 10
252.5320931618
 20
81.6108886141
 30
0.0
 11
243.4906228736
 21
87.2606262934
 31
0.0
  0
ARC
  5
93
330
1F
100
AcDbEntity
  8
0
  6
Continuous
 62
     7
370
    15
100
AcDbCircle
 10
252.8762488014
 20
70.6358333719
 30
0.0
 40
0.3800000000000338
100
AcDbArc
 50
238.0
 51
3.0
  0
ARC
  5
94
330
1F
100
AcDbEntity
  8
0
  6
Continuous
 62
     7
370
    15
100
AcDbCircle
 10
252.3188050138
 20
81.2724944796
 30
0.0
 40
0.3800000000000038
100
AcDbArc
 50
3.0
 51
58.0
  0
LINE
  5
95
330
1F
100
AcDbEntity
  8
0
  6
Continuous
 62
     7
370
    15
100
AcDbLine
 10
252.5201743342
 20
81.5947527561
 30
0.0
 11
243.4873950222
 21
87.2390597107
 31
0.0
  0
ARC
  5
96
330
1F
100
AcDbEntity
  8
0
  6
Continuous
 62
     7
370
    15
100
AcDbCircle
 10
243.2860257018
 20
86.9168014341
 30
0.0
 40
0.3800000000000128
100
AcDbArc
 50
58.0
 51
183.0
  0
ARC
  5
97
330
1F
100
AcDbEntity
  8
0
  6
Continuous
 62
     7
370
    15
100
AcDbCircle
 10
243.8434694895
 20
76.2801403265
 30
0.0
 40
0.3800000000000047
100
AcDbArc
 50
183.0
 51
238.0
  0
LINE
  5
98
330
1F
100
AcDbEntity
  8
0
  6
Continuous
 62
     7
370
    15
100
AcDbLine
 10
243.6421001691
 20
75.95788205
 30
0.0
 11
252.674879481
 21
70.3135750954
 31
0.0
  0
SPLINE
  5
99
330
1F
100
AcDbEntity
  8
0
  6
Continuous
 62
     7
370
    15
100
AcDbSpline
210
0.0
220
0.0
230
1.0
 70
     8
 71
     3
 72
    10
 73
     6
 74
     0
 42
0.00000001
 43
0.00000001
 40
0.0
 40
0.0
 40
0.0
 40
0.0
 40
0.3518022785810148
 40
0.7034245935031924
 40
1.0
 40
1.0
 40
1.0
 40
1.0
 10
243.4440991646033
 20
76.25765104074998
 30
0.0
 10
243.4508968227389
 20
76.21336434993383
 30
0.0
 10
243.4644886616834
 20
76.12481362305789
 30
0.0
 10
243.5342264394416
 20
76.01375139418163
 30
0.0
 10
243.6000599681362
 20
75.96434947258663
 30
0.0
 10
243.6301813414279
 20
75.9417461919909
 30
0.0
  0
SPLINE
  5
9A
330
1F
100
AcDbEntity
  8
0
  6
Continuous
 62
     7
370
    15
100
AcDbSpline
210
0.0
220
0.0
230
1.0
 70
     8
 71
     3
 72
    10
 73
     6
 74
     0
 42
0.00000001
 43
0.00000001
 40
0.0
 40
0.0
 40
0.0
 40
0.0
 40
0.3518022785810087
 40
0.7034245935031943
 40
1.0
 40
1.0
 40
1.0
 40
1.0
 10
252.7181753386299
 20
81.29498376530256
 30
0.0
 10
252.7113776804943
 20
81.33927045611871
 30
0.0
 10
252.6977858415498
 20
81.42782118299463
 30
0.0
 10
252.6280480637917
 20
81.53888341187093
 30
0.0
 10
252.5622145350971
 20
81.5882853334659
 30
0.0
 10
252.5320931618053
 20
81.61088861406164
 30
0.0
  0
SPLINE
  5
9B
330
1F
100
AcDbEntity
  8
0
  6
Continuous
 62
     7
370
    15
100
AcDbSpline
210
0.0
220
0.0
230
1.0
 70
     8
 71
     3
 72
    14
 73
    10
 74
     0
 42
0.00000001
 43
0.00000001
 40
0.0
 40
0.0
 40
0.0
 40
0.0
 40
0.1588501103508021
 40
0.3173321153184901
 40
0.4720153553660852
 40
0.6236441635915837
 40
0.7746618341644272
 40
0.9277417761107901
 40
1.0
 40
1.0
 40
1.0
 40
1.0
 10
243.4906228735956
 20
87.26062629336278
 30
0.0
 10
243.4493493043418
 20
87.2811451889214
 30
0.0
 10
243.3668978096019
 20
87.32213543134074
 30
0.0
 10
243.2272637540474
 20
87.32674656390108
 30
0.0
 10
243.0973548678285
 20
87.28745966454684
 30
0.0
 10
242.9896833753628
 20
87.20726469500909
 30
0.0
 10
242.9154591078396
 20
87.0968126107707
 30
0.0
 10
242.8855638835473
 20
86.99019744422024
 30
0.0
 10
242.8859842347844
 20
86.92534293321799
 30
0.0
 10
242.8861190270141
 20
86.90454631512692
 30
0.0
  0
SPLINE
  5
9C
330
1F
100
AcDbEntity
  8
0
  6
Continuous
 62
     7
370
    15
100
AcDbSpline
210
0.0
220
0.0
230
1.0
 70
     8
 71
     3
 72
    14
 73
    10
 74
     0
 42
0.00000001
 43
0.00000001
 40
0.0
 40
0.0
 40
0.0
 40
0.0
 40
0.1588501103508019
 40
0.3173321153184914
 40
0.472015355366089
 40
0.6236441635915865
 40
0.7746618341644335
 40
0.9277417761107976
 40
1.0
 40
1.0
 40
1.0
 40
1.0
 10
252.6716516296377
 20
70.29200851268976
 30
0.0
 10
252.7129251988914
 20
70.27148961713114
 30
0.0
 10
252.7953766936313
 20
70.2304993747118
 30
0.0
 10
252.9350107491858
 20
70.22588824215148
 30
0.0
 10
253.0649196354048
 20
70.26517514150568
 30
0.0
 10
253.1725911278704
 20
70.34537011104347
 30
0.0
 10
253.2468153953936
 20
70.45582219528184
 30
0.0
 10
253.2767106196859
 20
70.5624373618323
 30
0.0
 10
253.2762902684488
 20
70.62729187283453
 30
0.0
 10
253.2761554762191
 20
70.64808849092563
 30
0.0
  0
LINE
  5
9D
330
1F
100
AcDbEntity
  8
0
  6
Continuous
 62
     7
370
    15
100
AcDbLine
 10
244.7275446234
 20
82.721915438
 30
0.0
 11
245.0013150108
 21
77.498065255
 31
0.0
  0
ARC
  5
9E
330
1F
100
AcDbEntity
  8
0
  6
Continuous
 62
     7
370
    15
100
AcDbCircle
 10
245.7261741581
 20
82.7742513942
 30
0.0
 40
1.000000000000024
100
AcDbArc
 50
58.0
 51
183.0
  0
LINE
  5
9F
330
1F
100
AcDbEntity
  8
0
  6
Continuous
 62
     7
370
    15
100
AcDbLine
 10
250.692249222
 20
80.8502816909
 30
0.0
 11
246.2560934223
 21
83.6222994904
 31
0.0
  0
ARC
  5
A0
330
1F
100
AcDbEntity
  8
0
  6
Continuous
 62
     7
370
    15
100
AcDbCircle
 10
250.1623299577
 20
80.0022335948
 30
0.0
 40
1.000000000000033
100
AcDbArc
 50
3.0
 51
58.0
  0
LINE
  5
A1
330
1F
100
AcDbEntity
  8
0
  6
Continuous
 62
     7
370
    15
100
AcDbLine
 10
251.4347298799
 20
74.8307193681
 30
0.0
 11
251.1609594925
 21
80.054569551
 31
0.0
  0
ARC
  5
A2
330
1F
100
AcDbEntity
  8
0
  6
Continuous
 62
     7
370
    15
100
AcDbCircle
 10
250.4361003451
 20
74.7783834118
 30
0.0
 40
1.000000000295365
100
AcDbArc
 50
238.0
 51
3.0
  0
LINE
  5
A3
330
1F
100
AcDbEntity
  8
0
  6
Continuous
 62
     7
370
    15
100
AcDbLine
 10
245.4700252813
 20
76.7023531151
 30
0.0
 11
249.9061810807
 21
73.9303353154
 31
0.0
  0
ARC
  5
A4
330
1F
100
AcDbEntity
  8
0
  6
Continuous
 62
     7
370
    15
100
AcDbCircle
 10
245.9999445455
 20
77.5504012113
 30
0.0
 40
1.000000000000045
100
AcDbArc
 50
183.0
 51
238.0
  0
CIRCLE
  5
A5
330
1F
100
AcDbEntity
  8
0
  6
Continuous
 62
     7
370
    15
100
AcDbCircle
 10
248.0811372516
 20
78.776317403
 30
0.0
 40
3.049999999999995
  0
LINE
  5
A6
330
1F
100
AcDbEntity
  8
0
  6
Continuous
 62
     7
370
    15
100
AcDbLine
 10
252.3188050138
 20
81.2724944796
 30
0.0
 11
252.5201743342
 21
81.5947527561
 31
0.0
  0
LINE
  5
A7
330
1F
100
AcDbEntity
  8
0
  6
Continuous
 62
     7
370
    15
100
AcDbLine
 10
243.2860257018
 20
86.9168014341
 30
0.0
 11
243.4873950222
 21
87.2390597107
 31
0.0
  0
LINE
  5
A8
330
1F
100
AcDbEntity
  8
0
  6
Continuous
 62
     7
370
    15
100
AcDbLine
 10
252.8762488014
 20
70.6358333719
 30
0.0
 11
252.674879481
 21
70.3135750954
 31
0.0
  0
LINE
  5
A9
330
1F
100
AcDbEntity
  8
0
  6
Continuous
 62
     7
370
    15
100
AcDbLine
 10
243.8434694895
 20
76.2801403265
 30
0.0
 11
243.6421001691
 21
75.95788205
 31
0.0
  0
SPLINE
  5
AA
330
1F
100
AcDbEntity
  8
0
  6
Continuous
 62
     7
370
    15
100
AcDbSpline
210
0.0
220
0.0
230
1.0
 70
    24
 71
     3
 72
    11
 73
     7
 74
     0
 42
0.00000001
 43
0.00000001
 40
0.0
 40
0.0
 40
0.0
 40
0.0
 40
0.0072987238691119
 40
0.1268462096079024
 40
0.5874298328382588
 40
1.0
 40
1.0
 40
1.0
 40
1.0
 10
251.5084293133734
 20
72.95793007062277
 30
0.0
 10
251.5091906272902
 20
72.95663761606392
 30
0.0
 10
251.5224216778689
 20
72.93417574946662
 30
0.0
 10
251.5850849228278
 20
72.82779466956232
 30
0.0
 10
251.7026501135391
 20
72.62820858117607
 30
0.0
 10
251.8077340950191
 20
72.44981138138385
 30
0.0
 10
251.8573868781626
 20
72.36551768266852
 30
0.0
  0
SPLINE
  5
AB
330
1F
100
AcDbEntity
  8
0
  6
Continuous
 62
     7
370
    15
100
AcDbSpline
210
0.0
220
0.0
230
1.0
 70
    24
 71
     3
 72
    11
 73
     7
 74
     0
 42
0.00000001
 43
0.00000001
 40
0.0
 40
0.0
 40
0.0
 40
0.0
 40
0.4125701671613153
 40
0.8731537903910505
 40
0.9927012761302768
 40
1.0
 40
1.0
 40
1.0
 40
1.0
 10
244.3048876250697
 20
85.18711712338401
 30
0.0
 10
244.3545404082136
 20
85.10282342466874
 30
0.0
 10
244.4596243896945
 20
84.92442622487664
 30
0.0
 10
244.5771895804044
 20
84.72484013649151
 30
0.0
 10
244.6398528253649
 20
84.61845905658538
 30
0.0
 10
244.6530838759431
 20
84.59599718998854
 30
0.0
 10
244.65384518986
 20
84.59470473542963
 30
0.0
  0
LINE
  5
AC
330
1F
100
AcDbEntity
  8
0
  6
Continuous
 62
     7
370
    15
100
AcDbLine
 10
204.6681816329
 20
85.0489156757
 30
0.0
 11
204.6681816329
 21
135.0858333719
 31
0.0
  0
SPLINE
  5
AD
330
1F
100
AcDbEntity
  8
0
  6
Continuous
 62
     7
370
    15
100
AcDbSpline
210
0.0
220
0.0
230
1.0
 70
     8
 71
     3
 72
     8
 73
     4
 74
     0
 42
0.00000001
 43
0.00000001
 40
0.0
 40
0.0
 40
0.0
 40
0.0
 40
1.0
 40
1.0
 40
1.0
 40
1.0
 10
204.6681816328812
 20
85.04891567567147
 30
0.0
 10
204.1727019722155
 20
85.94444176360481
 30
0.0
 10
203.6785879241734
 20
86.84072617865705
 30
0.0
 10
203.1862488013922
 20
87.73799621286375
 30
0.0
  0
LINE
  5
AE
330
1F
100
AcDbEntity
  8
0
  6
Continuous
 62
     7
370
    15
100
AcDbLine
 10
203.1862488014
 20
87.7379962129
 30
0.0
 11
203.1862488014
 21
135.0858333719
 31
0.0
  0
SPLINE
  5
AF
330
1F
100
AcDbEntity
  8
0
  6
Continuous
 62
     7
370
    15
100
AcDbSpline
210
0.0
220
0.0
230
1.0
 70
    24
 71
     3
 72
     8
 73
     4
 74
     0
 42
0.00000001
 43
0.00000001
 40
0.0
 40
0.0
 40
0.0
 40
0.0
 40
1.0
 40
1.0
 40
1.0
 40
1.0
 10
203.1862488013922
 20
135.0858333719186
 30
0.0
 10
203.6662007957571
 20
135.0858333719186
 30
0.0
 10
204.1615015247307
 20
135.0858333719186
 30
0.0
 10
204.6681816328813
 20
135.0858333719186
 30
0.0
  0
LINE
  5
B0
330
1F
100
AcDbEntity
  8
0
  6
Continuous
 62
     7
370
    15
100
AcDbLine
 10
209.2262488014
 20
85.6755559713
 30
0.0
 11
209.2262488014
 21
135.0858333719
 31
0.0
  0
SPLINE
  5
B1
330
1F
100
AcDbEntity
  8
0
  6
Continuous
 62
     7
370
    15
100
AcDbSpline
210
0.0
220
0.0
230
1.0
 70
     8
 71
     3
 72
    10
 73
     6
 74
     0
 42
0.00000001
 43
0.00000001
 40
0.0
 40
0.0
 40
0.0
 40
0.0
 40
0.5
 40
0.5
 40
1.0
 40
1.0
 40
1.0
 40
1.0
 10
209.2262488013922
 20
85.67555597132579
 30
0.0
 10
209.2262488013922
 20
85.51566870313214
 30
0.0
 10
209.1649391501564
 20
85.35454144761754
 30
0.0
 10
208.9458395126213
 20
85.1204424492627
 30
0.0
 10
208.7877913063078
 20
85.04891567567148
 30
0.0
 10
208.6262488013922
 20
85.04891567567148
 30
0.0
  0
SPLINE
  5
B2
330
1F
100
AcDbEntity
  8
0
  6
Continuous
 62
     7
370
    15
100
AcDbSpline
210
0.0
220
0.0
230
1.0
 70
    24
 71
     3
 72
    12
 73
     8
 74
     0
 42
0.00000001
 43
0.00000001
 40
0.0
 40
0.0
 40
0.0
 40
0.0
 40
0.2500000000000006
 40
0.2500000000000006
 40
0.5000000000000012
 40
0.5000000000000012
 40
1.0
 40
1.0
 40
1.0
 40
1.0
 10
208.6262488013922
 20
135.0858333719186
 30
0.0
 10
208.7164878690793
 20
135.0858333719186
 30
0.0
 10
208.8073859831858
 20
135.0858333719186
 30
0.0
 10
208.9619830196743
 20
135.0858333719186
 30
0.0
 10
209.0269614357824
 20
135.0858333719186
 30
0.0
 10
209.1787964637186
 20
135.0858333719186
 30
0.0
 10
209.2262488013922
 20
135.0858333719186
 30
0.0
 10
209.2262488013922
 20
135.0858333719186
 30
0.0
  0
LINE
  5
B3
330
1F
100
AcDbEntity
  8
0
  6
Continuous
 62
     7
370
    15
100
AcDbLine
 10
208.6262488014
 20
85.0489156757
 30
0.0
 11
204.6681816329
 21
85.0489156757
 31
0.0
  0
LINE
  5
B4
330
1F
100
AcDbEntity
  8
0
  6
Continuous
 62
     7
370
    15
100
AcDbLine
 10
204.6681816329
 20
135.0858333719
 30
0.0
 11
208.6262488014
 21
135.0858333719
 31
0.0
  0
LINE
  5
B5
330
1F
100
AcDbEntity
  8
0
  6
Continuous
 62
     7
370
    15
100
AcDbLine
 10
199.3662488014
 20
87.7379962129
 30
0.0
 11
199.3662488014
 21
135.0858333719
 31
0.0
  0
SPLINE
  5
B6
330
1F
100
AcDbEntity
  8
0
  6
Continuous
 62
     7
370
    15
100
AcDbSpline
210
0.0
220
0.0
230
1.0
 70
     8
 71
     3
 72
     8
 73
     4
 74
     0
 42
0.00000001
 43
0.00000001
 40
0.0
 40
0.0
 40
0.0
 40
0.0
 40
1.0
 40
1.0
 40
1.0
 40
1.0
 10
199.3662488013922
 20
87.73799621286375
 30
0.0
 10
198.8739096786111
 20
86.84072617865706
 30
0.0
 10
198.3797956305689
 20
85.94444176360483
 30
0.0
 10
197.8843159699032
 20
85.04891567567147
 30
0.0
  0
LINE
  5
B7
330
1F
100
AcDbEntity
  8
0
  6
Continuous
 62
     7
370
    15
100
AcDbLine
 10
197.8843159699
 20
85.0489156757
 30
0.0
 11
197.8843159699
 21
135.0858333719
 31
0.0
  0
SPLINE
  5
B8
330
1F
100
AcDbEntity
  8
0
  6
Continuous
 62
     7
370
    15
100
AcDbSpline
210
0.0
220
0.0
230
1.0
 70
    24
 71
     3
 72
     8
 73
     4
 74
     0
 42
0.00000001
 43
0.00000001
 40
0.0
 40
0.0
 40
0.0
 40
0.0
 40
1.0
 40
1.0
 40
1.0
 40
1.0
 10
197.8843159699032
 20
135.0858333719186
 30
0.0
 10
198.3909960780537
 20
135.0858333719186
 30
0.0
 10
198.8862968070273
 20
135.0858333719186
 30
0.0
 10
199.3662488013922
 20
135.0858333719186
 30
0.0
  0
LINE
  5
B9
330
1F
100
AcDbEntity
  8
0
  6
Continuous
 62
     7
370
    15
100
AcDbLine
 10
188.2262488014
 20
135.0858333719
 30
0.0
 11
197.8843159699
 21
135.0858333719
 31
0.0
  0
LINE
  5
BA
330
1F
100
AcDbEntity
  8
0
  6
Continuous
 62
     7
370
    15
100
AcDbLine
 10
197.8843159699
 20
85.0489156757
 30
0.0
 11
196.2262488014
 21
85.0489156757
 31
0.0
  0
SPLINE
  5
BB
330
1F
100
AcDbEntity
  8
0
  6
Continuous
 62
     7
370
    15
100
AcDbSpline
210
0.0
220
0.0
230
1.0
 70
     8
 71
     3
 72
    28
 73
    24
 74
     0
 42
0.00000001
 43
0.00000001
 40
0.0
 40
0.0
 40
0.0
 40
0.0
 40
0.1250000000000001
 40
0.1250000000000001
 40
0.1875000000000001
 40
0.1875000000000001
 40
0.2500000000000001
 40
0.2500000000000001
 40
0.375
 40
0.375
 40
0.4375000000000001
 40
0.4375000000000001
 40
0.5
 40
0.5
 40
0.625
 40
0.625
 40
0.7499999999999999
 40
0.7499999999999999
 40
0.8124999999999999
 40
0.8124999999999999
 40
0.875
 40
0.875
 40
1.0
 40
1.0
 40
1.0
 40
1.0
 10
196.2262488013922
 20
85.04891567567148
 30
0.0
 10
195.6945410438993
 20
85.04891567567147
 30
0.0
 10
195.172302478589
 20
85.03313096172126
 30
0.0
 10
194.402431992314
 20
84.98813554764506
 30
0.0
 10
194.1480724201226
 20
84.96958055256933
 30
0.0
 10
193.6439508394241
 20
84.92572783012282
 30
0.0
 10
193.3942280219962
 20
84.90038322317064
 30
0.0
 10
192.6686380705498
 20
84.81698114542053
 30
0.0
 10
192.2102778089682
 20
84.75111558626944
 30
0.0
 10
191.5597798655743
 20
84.64214524577764
 30
0.0
 10
191.3480978147819
 20
84.603905610011
 30
0.0
 10
190.9440263256439
 20
84.52614687259167
 30
0.0
 10
190.751519811823
 20
84.4866459104163
 30
0.0
 10
190.2016848408017
 20
84.3677381680503
 30
0.0
 10
189.8717560624929
 20
84.28792048662567
 30
0.0
 10
189.2872847939243
 20
84.1345773248296
 30
0.0
 10
189.0410076559108
 20
84.06324357156036
 30
0.0
 10
188.7411648632127
 20
83.96930006448575
 30
0.0
 10
188.6527080061406
 20
83.94010627112581
 30
0.0
 10
188.4993466528354
 20
83.88663969686239
 30
0.0
 10
188.4342584386092
 20
83.86228036258723
 30
0.0
 10
188.2786644226684
 20
83.79869021714251
 30
0.0
 10
188.2262488013922
 20
83.76858728205325
 30
0.0
 10
188.2262488013922
 20
83.75171038905631
 30
0.0
  0
LINE
  5
BC
330
1F
100
AcDbEntity
  8
0
  6
Continuous
 62
     7
370
    15
100
AcDbLine
 10
188.2262488014
 20
83.7517103891
 30
0.0
 11
188.2262488014
 21
83.7358333719
 31
0.0
  0
SPLINE
  5
BD
330
1F
100
AcDbEntity
  8
0
  6
Continuous
 62
     7
370
    15
100
AcDbSpline
210
0.0
220
0.0
230
1.0
 70
     8
 71
     3
 72
    17
 73
    13
 74
     0
 42
0.00000001
 43
0.00000001
 40
0.0
 40
0.0
 40
0.0
 40
0.0
 40
0.1034796923964057
 40
0.2100239188807851
 40
0.3134862136955585
 40
0.4198361274354884
 40
0.5254127712915683
 40
0.6339610695419792
 40
0.7409508756305033
 40
0.8511696089308177
 40
0.9558996534551941
 40
1.0
 40
1.0
 40
1.0
 40
1.0
 10
196.2262488013922
 20
145.7030288450829
 30
0.0
 10
195.7910004522822
 20
145.7084770416162
 30
0.0
 10
194.9076139457172
 20
145.719534782128
 30
0.0
 10
193.6267863604886
 20
145.8058931750296
 30
0.0
 10
192.4093698246145
 20
145.9337633515673
 30
0.0
 10
191.3015639723679
 20
146.0927086501605
 30
0.0
 10
190.3133251684197
 20
146.2672023378761
 30
0.0
 10
189.4886016108882
 20
146.4363681885159
 30
0.0
 10
188.8396481102289
 20
146.5842519710443
 30
0.0
 10
188.4226132947672
 20
146.6860425552751
 30
0.0
 10
188.2240165818027
 20
146.7363940778782
 30
0.0
 10
188.2473293032359
 20
146.7304883936559
 30
0.0
 10
188.2542371604735
 20
146.7287384639613
 30
0.0
  0
LINE
  5
BE
330
1F
100
AcDbEntity
  8
0
  6
Continuous
 62
     7
370
    15
100
AcDbLine
 10
197.8843159699
 20
145.7030288451
 30
0.0
 11
196.2262488014
 21
145.7030288451
 31
0.0
  0
LINE
  5
BF
330
1F
100
AcDbEntity
  8
0
  6
Continuous
 62
     7
370
    15
100
AcDbLine
 10
197.8843159699
 20
139.6945230343
 30
0.0
 11
197.8843159699
 21
145.7030288451
 31
0.0
  0
LINE
  5
C0
330
1F
100
AcDbEntity
  8
0
  6
Continuous
 62
     7
370
    15
100
AcDbLine
 10
195.4718691471
 20
139.6945230343
 30
0.0
 11
197.8843159699
 21
139.6945230343
 31
0.0
  0
SPLINE
  5
C1
330
1F
100
AcDbEntity
  8
0
  6
Continuous
 62
     7
370
    15
100
AcDbSpline
210
0.0
220
0.0
230
1.0
 70
     8
 71
     3
 72
    20
 73
    16
 74
     0
 42
0.00000001
 43
0.00000001
 40
0.0
 40
0.0
 40
0.0
 40
0.0
 40
0.2500000000000005
 40
0.2500000000000005
 40
0.3750000000000004
 40
0.3750000000000004
 40
0.5000000000000003
 40
0.5000000000000003
 40
0.6250000000000002
 40
0.6250000000000002
 40
0.7500000000000001
 40
0.7500000000000001
 40
0.8750000000000001
 40
0.8750000000000001
 40
1.0
 40
1.0
 40
1.0
 40
1.0
 10
188.2262488013922
 20
135.0858333719186
 30
0.0
 10
188.4746225356803
 20
135.739695800216
 30
0.0
 10
188.7941926280255
 20
136.3434815822131
 30
0.0
 10
189.4164988612303
 20
137.1703203183818
 30
0.0
 10
189.647923121661
 20
137.4327489563347
 30
0.0
 10
190.1691374613107
 20
137.9294116104396
 30
0.0
 10
190.4557579439458
 20
138.1599984894612
 30
0.0
 10
191.0752426852534
 20
138.5765527140438
 30
0.0
 10
191.4095430647403
 20
138.7640505160113
 30
0.0
 10
192.1348035373651
 20
139.0954474936477
 30
0.0
 10
192.5167185947556
 20
139.234951481143
 30
0.0
 10
193.3115067709273
 20
139.460404988614
 30
0.0
 10
193.7256649651337
 20
139.5470311001576
 30
0.0
 10
194.5912113057151
 20
139.6650118890117
 30
0.0
 10
195.0290989207269
 20
139.694523034286
 30
0.0
 10
195.4718691470815
 20
139.694523034286
 30
0.0
  0
LINE
  5
C2
330
1F
100
AcDbEntity
  8
0
  6
Continuous
 62
     7
370
    15
100
AcDbLine
 10
183.2762488014
 20
84.0358333719
 30
0.0
 11
183.2762488014
 21
146.4358333713
 31
0.0
  0
SPLINE
  5
C3
330
1F
100
AcDbEntity
  8
0
  6
Continuous
 62
     7
370
    15
100
AcDbSpline
210
0.0
220
0.0
230
1.0
 70
    24
 71
     3
 72
    14
 73
    10
 74
     0
 42
0.00000001
 43
0.00000001
 40
0.0
 40
0.0
 40
0.0
 40
0.0
 40
0.5000000000000027
 40
0.5000000000000027
 40
0.7500000000000013
 40
0.7500000000000013
 40
0.8750000000000007
 40
0.8750000000000007
 40
1.0
 40
1.0
 40
1.0
 40
1.0
 10
203.0885739990599
 20
88.83583337191861
 30
0.0
 10
203.0417892940117
 20
88.83583337191861
 30
0.0
 10
202.9797380972321
 20
88.83583337191862
 30
0.0
 10
202.8363464586818
 20
88.83583337191862
 30
0.0
 10
202.7802028051305
 20
88.83583337191862
 30
0.0
 10
202.6672517829941
 20
88.83583337191861
 30
0.0
 10
202.624251020956
 20
88.83583337191861
 30
0.0
 10
202.5201883106496
 20
88.83583337191861
 30
0.0
 10
202.4548560722926
 20
88.83583337191862
 30
0.0
 10
202.3862488013922
 20
88.83583337191861
 30
0.0
  0
SPLINE
  5
C4
330
1F
100
AcDbEntity
  8
0
  6
Continuous
 62
     7
370
    15
100
AcDbSpline
210
0.0
220
0.0
230
1.0
 70
    24
 71
     3
 72
    12
 73
     8
 74
     0
 42
0.00000001
 43
0.00000001
 40
0.0
 40
0.0
 40
0.0
 40
0.0
 40
0.5000000000000058
 40
0.5000000000000058
 40
0.7500000000000029
 40
0.7500000000000029
 40
1.0
 40
1.0
 40
1.0
 40
1.0
 10
202.7919512697012
 20
141.6358333719186
 30
0.0
 10
202.7488657200905
 20
141.6358333719186
 30
0.0
 10
202.6997135183434
 20
141.6358333719186
 30
0.0
 10
202.6032409240538
 20
141.6358333719186
 30
0.0
 10
202.5671393389196
 20
141.6358333719186
 30
0.0
 10
202.484033581057
 20
141.6358333719186
 30
0.0
 10
202.436036984093
 20
141.6358333719186
 30
0.0
 10
202.3862488013922
 20
141.6358333719186
 30
0.0
  0
SPLINE
  5
C5
330
1F
100
AcDbEntity
  8
0
  6
Continuous
 62
     7
370
    15
100
AcDbSpline
210
0.0
220
0.0
230
1.0
 70
     8
 71
     3
 72
    10
 73
     6
 74
     0
 42
0.00000001
 43
0.00000001
 40
0.0
 40
0.0
 40
0.0
 40
0.0
 40
0.5
 40
0.5
 40
1.0
 40
1.0
 40
1.0
 40
1.0
 10
203.1862488013922
 20
142.3554872229544
 30
0.0
 10
203.1862488013922
 20
142.2117171651364
 30
0.0
 10
203.1501997426734
 20
142.0692978026412
 30
0.0
 10
203.0146908818993
 20
141.819403509284
 30
0.0
 10
202.9148148888031
 20
141.7113731730358
 30
0.0
 10
202.7919512697012
 20
141.6358333719186
 30
0.0
  0
SPLINE
  5
C6
330
1F
100
AcDbEntity
  8
0
  6
Continuous
 62
     7
370
    15
100
AcDbSpline
210
0.0
220
0.0
230
1.0
 70
     8
 71
     3
 72
    10
 73
     6
 74
     0
 42
0.00000001
 43
0.00000001
 40
0.0
 40
0.0
 40
0.0
 40
0.0
 40
0.5
 40
0.5
 40
1.0
 40
1.0
 40
1.0
 40
1.0
 10
203.1601011782321
 20
135.0858333719186
 30
0.0
 10
203.1687908211437
 20
135.1327122212368
 30
0.0
 10
203.1753298858942
 20
135.180134686638
 30
0.0
 10
203.1840885202873
 20
135.2760714852248
 30
0.0
 10
203.1862488013922
 20
135.3239867732352
 30
0.0
 10
203.1862488013922
 20
135.3717000033798
 30
0.0
  0
SPLINE
  5
C7
330
1F
100
AcDbEntity
  8
0
  6
Continuous
 62
     7
370
    15
100
AcDbSpline
210
0.0
220
0.0
230
1.0
 70
     8
 71
     3
 72
    10
 73
     6
 74
     0
 42
0.00000001
 43
0.00000001
 40
0.0
 40
0.0
 40
0.0
 40
0.0
 40
0.5
 40
0.5
 40
1.0
 40
1.0
 40
1.0
 40
1.0
 10
199.7605463330831
 20
141.6358333719186
 30
0.0
 10
199.6390060694146
 20
141.7105595391304
 30
0.0
 10
199.5376717090657
 20
141.8195045550472
 30
0.0
 10
199.4020327661773
 20
142.0699350358088
 30
0.0
 10
199.3662488013922
 20
142.2123543979077
 30
0.0
 10
199.3662488013922
 20
142.3554872229544
 30
0.0
  0
SPLINE
  5
C8
330
1F
100
AcDbEntity
  8
0
  6
Continuous
 62
     7
370
    15
100
AcDbSpline
210
0.0
220
0.0
230
1.0
 70
    24
 71
     3
 72
    12
 73
     8
 74
     0
 42
0.00000001
 43
0.00000001
 40
0.0
 40
0.0
 40
0.0
 40
0.0
 40
0.2499999999999979
 40
0.2499999999999979
 40
0.4999999999999959
 40
0.4999999999999959
 40
1.0
 40
1.0
 40
1.0
 40
1.0
 10
200.1662488013922
 20
141.6358333719186
 30
0.0
 10
200.1169054395826
 20
141.6358333719186
 30
0.0
 10
200.068214741281
 20
141.6358333719186
 30
0.0
 10
199.9853636437106
 20
141.6358333719186
 30
0.0
 10
199.94916367609
 20
141.6358333719186
 30
0.0
 10
199.8534137595406
 20
141.6358333719186
 30
0.0
 10
199.8035317897285
 20
141.6358333719186
 30
0.0
 10
199.7605463330832
 20
141.6358333719186
 30
0.0
  0
SPLINE
  5
C9
330
1F
100
AcDbEntity
  8
0
  6
Continuous
 62
     7
370
    15
100
AcDbSpline
210
0.0
220
0.0
230
1.0
 70
    24
 71
     3
 72
    14
 73
    10
 74
     0
 42
0.00000001
 43
0.00000001
 40
0.0
 40
0.0
 40
0.0
 40
0.0
 40
0.1250000000000001
 40
0.1250000000000001
 40
0.2500000000000002
 40
0.2500000000000002
 40
0.5000000000000003
 40
0.5000000000000003
 40
1.0
 40
1.0
 40
1.0
 40
1.0
 10
200.1662488013922
 20
88.83583337191861
 30
0.0
 10
200.0969020796611
 20
88.83583337191862
 30
0.0
 10
200.0317040262771
 20
88.83583337191862
 30
0.0
 10
199.9273248336501
 20
88.83583337191862
 30
0.0
 10
199.8844224626411
 20
88.83583337191862
 30
0.0
 10
199.7720968050365
 20
88.83583337191861
 30
0.0
 10
199.7168731106826
 20
88.83583337191862
 30
0.0
 10
199.5728157319151
 20
88.83583337191861
 30
0.0
 10
199.5107350350836
 20
88.83583337191861
 30
0.0
 10
199.4639236037245
 20
88.83583337191861
 30
0.0
  0
SPLINE
  5
CA
330
1F
100
AcDbEntity
  8
0
  6
Continuous
 62
     7
370
    15
100
AcDbSpline
210
0.0
220
0.0
230
1.0
 70
     8
 71
     3
 72
     9
 73
     5
 74
     0
 42
0.00000001
 43
0.00000001
 40
0.0
 40
0.0
 40
0.0
 40
0.0
 40
0.5
 40
1.0
 40
1.0
 40
1.0
 40
1.0
 10
199.3662488013922
 20
135.37170000338
 30
0.0
 10
199.3662488013922
 20
135.3234679512573
 30
0.0
 10
199.3706547760974
 20
135.2275979378177
 30
0.0
 10
199.3836739561912
 20
135.1328893078344
 30
0.0
 10
199.3923964245523
 20
135.0858333719186
 30
0.0
  0
LINE
  5
CB
330
1F
100
AcDbEntity
  8
0
  6
Continuous
 62
     7
370
    15
100
AcDbLine
 10
202.3862488014
 20
141.6358333719
 30
0.0
 11
200.1662488014
 21
141.6358333719
 31
0.0
  0
LINE
  5
CC
330
1F
100
AcDbEntity
  8
0
  6
Continuous
 62
     7
370
    15
100
AcDbLine
 10
202.3862488014
 20
88.8358333719
 30
0.0
 11
200.1662488014
 21
88.8358333719
 31
0.0
  0
LINE
  5
CD
330
1F
100
AcDbEntity
  8
0
  6
Continuous
 62
     7
370
    15
100
AcDbLine
 10
209.4262477431
 20
141.6358333719
 30
0.0
 11
209.3850050539
 21
141.6358333719
 31
0.0
  0
SPLINE
  5
CE
330
1F
100
AcDbEntity
  8
0
  6
Continuous
 62
     7
370
    15
100
AcDbSpline
210
0.0
220
0.0
230
1.0
 70
    24
 71
     3
 72
    10
 73
     6
 74
     0
 42
0.00000001
 43
0.00000001
 40
0.0
 40
0.0
 40
0.0
 40
0.0
 40
0.5
 40
0.5
 40
1.0
 40
1.0
 40
1.0
 40
1.0
 10
209.4262488013668
 20
88.83583337191861
 30
0.0
 10
209.4262476656108
 20
88.83583337191861
 30
0.0
 10
209.3830427795114
 20
88.83583337191861
 30
0.0
 10
209.2821157432341
 20
88.83583337191862
 30
0.0
 10
209.2262488013922
 20
88.83583337191861
 30
0.0
 10
209.2262488013922
 20
88.83583337191861
 30
0.0
  0
SPLINE
  5
CF
330
1F
100
AcDbEntity
  8
0
  6
Continuous
 62
     7
370
    15
100
AcDbSpline
210
0.0
220
0.0
230
1.0
 70
     8
 71
     3
 72
    20
 73
    16
 74
     0
 42
0.00000001
 43
0.00000001
 40
0.0
 40
0.0
 40
0.0
 40
0.0
 40
0.250000000000001
 40
0.250000000000001
 40
0.3750000000000009
 40
0.3750000000000009
 40
0.5000000000000008
 40
0.5000000000000008
 40
0.6250000000000006
 40
0.6250000000000006
 40
0.7500000000000004
 40
0.7500000000000004
 40
0.8750000000000002
 40
0.8750000000000002
 40
1.0
 40
1.0
 40
1.0
 40
1.0
 10
219.0846557715315
 20
140.9029656611545
 30
0.0
 10
219.2458351782456
 20
141.000155925796
 30
0.0
 10
219.4952648483314
 20
141.0698268044662
 30
0.0
 10
220.0034383150462
 20
141.1447269608365
 30
0.0
 10
220.1933880293485
 20
141.1643216538264
 30
0.0
 10
220.6064069789927
 20
141.1948683532121
 30
0.0
 10
220.8304410515193
 20
141.2059574342744
 30
0.0
 10
221.3143644157644
 20
141.2222204548792
 30
0.0
 10
221.5735614898221
 20
141.227319170428
 30
0.0
 10
222.1101360662743
 20
141.2336975919344
 30
0.0
 10
222.3895471690251
 20
141.2350467214734
 30
0.0
 10
222.970881757186
 20
141.2360855314422
 30
0.0
 10
223.2738268720601
 20
141.23576807907
 30
0.0
 10
223.884530600503
 20
141.2349476597967
 30
0.0
 10
224.1944109787137
 20
141.2344490775951
 30
0.0
 10
224.5089218134133
 20
141.2342326910666
 30
0.0
  0
ELLIPSE
  5
D0
330
1F
100
AcDbEntity
  8
0
  6
Continuous
 62
     7
370
    15
100
AcDbEllipse
 10
220.1958640437
 20
115.2358333719
 30
0.0
 11
0.0
 21
25.99999999999999
 31
0.0
210
0.0
220
0.0
230
1.0
 40
0.2679491924
 41
0.1601874882047366
 42
2.981405165385056
  0
SPLINE
  5
D1
330
1F
100
AcDbEntity
  8
0
  6
Continuous
 62
     7
370
    15
100
AcDbSpline
210
0.0
220
0.0
230
1.0
 70
     8
 71
     3
 72
    20
 73
    16
 74
     0
 42
0.00000001
 43
0.00000001
 40
0.0
 40
0.0
 40
0.0
 40
0.0
 40
0.2499999999999981
 40
0.2499999999999981
 40
0.3749999999999983
 40
0.3749999999999983
 40
0.4999999999999987
 40
0.4999999999999987
 40
0.6249999999999989
 40
0.6249999999999989
 40
0.7499999999999992
 40
0.7499999999999992
 40
0.8749999999999997
 40
0.8749999999999997
 40
1.0
 40
1.0
 40
1.0
 40
1.0
 10
224.5089218134133
 20
89.23743405277065
 30
0.0
 10
223.8798405958642
 20
89.23700123874391
 30
0.0
 10
223.2732220794019
 20
89.23507567426246
 30
0.0
 10
222.3965865730396
 20
89.2365904609461
 30
0.0
 10
222.1135517238439
 20
89.23794622846789
 30
0.0
 10
221.5772265397982
 20
89.2442865583899
 30
0.0
 10
221.3220071910689
 20
89.24926514236125
 30
0.0
 10
220.8379608605011
 20
89.26538323095424
 30
0.0
 10
220.6096578710938
 20
89.2766086469848
 30
0.0
 10
220.1957983331716
 20
89.3071168231851
 30
0.0
 10
220.0079467705953
 20
89.32644758482297
 30
0.0
 10
219.6705638518234
 20
89.3758353968339
 30
0.0
 10
219.5206139759755
 20
89.40615695882796
 30
0.0
 10
219.2686178048477
 20
89.47823980798971
 30
0.0
 10
219.1652561809245
 20
89.52009949468331
 30
0.0
 10
219.0846557715315
 20
89.56870108268275
 30
0.0
  0
ELLIPSE
  5
D2
330
1F
100
AcDbEntity
  8
0
  6
Continuous
 62
     7
370
    15
100
AcDbEllipse
 10
216.3984228415
 20
107.1557899492
 30
0.0
 11
-0.3095778208845843
 21
3.208458578462555
 31
0.0
210
0.0
220
0.0
230
1.0
 40
0.1859024213
 41
0.0
 42
6.283185307179586
  0
LINE
  5
D3
330
1F
100
AcDbEntity
  8
0
  6
Continuous
 62
     7
370
    15
100
AcDbLine
 10
161.4762488014
 20
92.0073864781
 30
0.0
 11
161.4762488014
 21
93.2906851126
 31
0.0
  0
SPLINE
  5
D4
330
1F
100
AcDbEntity
  8
0
  6
Continuous
 62
     7
370
    15
100
AcDbSpline
210
0.0
220
0.0
230
1.0
 70
     8
 71
     3
 72
    14
 73
    10
 74
     0
 42
0.00000001
 43
0.00000001
 40
0.0
 40
0.0
 40
0.0
 40
0.0
 40
0.25
 40
0.25
 40
0.5
 40
0.5
 40
0.75
 40
0.75
 40
1.0
 40
1.0
 40
1.0
 40
1.0
 10
160.8546445646525
 20
94.37146215463541
 30
0.0
 10
160.8930809494735
 20
94.26883775692387
 30
0.0
 10
160.9618823428653
 20
94.16964133348431
 30
0.0
 10
161.1051683550243
 20
93.97874930415779
 30
0.0
 10
161.1803504101312
 20
93.88649203812489
 30
0.0
 10
161.3125376987813
 20
93.70688471630987
 30
0.0
 10
161.3700548942511
 20
93.61957516186553
 30
0.0
 10
161.4520996925434
 20
93.4496413283498
 30
0.0
 10
161.4762488013922
 20
93.36773898647863
 30
0.0
 10
161.4762488013922
 20
93.2906851126427
 30
0.0
  0
SPLINE
  5
D5
330
1F
100
AcDbEntity
  8
0
  6
Continuous
 62
     7
370
    15
100
AcDbSpline
210
0.0
220
0.0
230
1.0
 70
     8
 71
     3
 72
    18
 73
    14
 74
     0
 42
0.00000001
 43
0.00000001
 40
0.0
 40
0.0
 40
0.0
 40
0.0
 40
0.0624999999999986
 40
0.0624999999999986
 40
0.1249999999999972
 40
0.1249999999999972
 40
0.2499999999999957
 40
0.2499999999999957
 40
0.4999999999999971
 40
0.4999999999999971
 40
0.7499999999999986
 40
0.7499999999999986
 40
1.0
 40
1.0
 40
1.0
 40
1.0
 10
160.0762488013922
 20
95.08974460612201
 30
0.0
 10
160.1128210117426
 20
95.09352200964946
 30
0.0
 10
160.1514714851781
 20
95.09296498176634
 30
0.0
 10
160.2255629788919
 20
95.08290577660446
 30
0.0
 10
160.260913272646
 20
95.07355189517988
 30
0.0
 10
160.3555075700355
 20
95.03916746874606
 30
0.0
 10
160.4056457431744
 20
95.00845573408324
 30
0.0
 10
160.5348390147556
 20
94.91252642404521
 30
0.0
 10
160.5931191594967
 20
94.84401092992795
 30
0.0
 10
160.6933142559202
 20
94.70743897999535
 30
0.0
 10
160.7333295073668
 20
94.63867407749244
 30
0.0
 10
160.8017289281846
 20
94.50363864838477
 30
0.0
 10
160.8300906520465
 20
94.43702062233162
 30
0.0
 10
160.8546445646525
 20
94.37146215463541
 30
0.0
  0
SPLINE
  5
D6
330
1F
100
AcDbEntity
  8
0
  6
Continuous
 62
     7
370
    15
100
AcDbSpline
210
0.0
220
0.0
230
1.0
 70
     8
 71
     3
 72
    10
 73
     6
 74
     0
 42
0.00000001
 43
0.00000001
 40
0.0
 40
0.0
 40
0.0
 40
0.0
 40
0.5
 40
0.5
 40
1.0
 40
1.0
 40
1.0
 40
1.0
 10
156.1626469402702
 20
94.5935509497504
 30
0.0
 10
156.7902745959776
 20
94.696824508486
 30
0.0
 10
157.441475341009
 20
94.78564962023752
 30
0.0
 10
158.7501800450213
 20
94.94775732710787
 30
0.0
 10
159.4112244823125
 20
95.02105679139444
 30
0.0
 10
160.0762488013921
 20
95.08974460612214
 30
0.0
  0
SPLINE
  5
D7
330
1F
100
AcDbEntity
  8
0
  6
Continuous
 62
     7
370
    15
100
AcDbSpline
210
0.0
220
0.0
230
1.0
 70
     8
 71
     3
 72
    14
 73
    10
 74
     0
 42
0.00000001
 43
0.00000001
 40
0.0
 40
0.0
 40
0.0
 40
0.0
 40
0.4999999999999998
 40
0.4999999999999998
 40
0.750000000000001
 40
0.750000000000001
 40
0.8750000000000004
 40
0.8750000000000004
 40
1.0
 40
1.0
 40
1.0
 40
1.0
 10
152.5262488013922
 20
94.42920181339106
 30
0.0
 10
153.1423257051475
 20
94.43492793362022
 30
0.0
 10
153.7564577012634
 20
94.44481829902223
 30
0.0
 10
154.670354331777
 20
94.47545326669201
 30
0.0
 10
154.9737932593246
 20
94.48824672433
 30
0.0
 10
155.4249298749621
 20
94.51617255228939
 30
0.0
 10
155.5746361245046
 20
94.52694217244914
 30
0.0
 10
155.8714772607526
 20
94.55407488804869
 30
0.0
 10
156.0188628132559
 20
94.56989186087591
 30
0.0
 10
156.1626469402702
 20
94.5935509497504
 30
0.0
  0
SPLINE
  5
D8
330
1F
100
AcDbEntity
  8
0
  6
Continuous
 62
     7
370
    15
100
AcDbSpline
210
0.0
220
0.0
230
1.0
 70
     8
 71
     3
 72
     8
 73
     4
 74
     0
 42
0.00000001
 43
0.00000001
 40
0.0000005954826279
 40
0.0000005954826279
 40
0.0000005954826279
 40
0.0000005954826279
 40
0.0000302093805348
 40
0.0000302093805348
 40
0.0000302093805348
 40
0.0000302093805348
 10
152.5162038709826
 20
94.44101694304295
 30
0.0
 10
152.5195198983028
 20
94.43707016344716
 30
0.0
 10
152.5228684496951
 20
94.43313177231721
 30
0.0
 10
152.5262488013921
 20
94.42920181339106
 30
0.0
  0
SPLINE
  5
D9
330
1F
100
AcDbEntity
  8
0
  6
Continuous
 62
     7
370
    15
100
AcDbSpline
210
0.0
220
0.0
230
1.0
 70
     8
 71
     3
 72
     8
 73
     4
 74
     0
 42
0.00000001
 43
0.00000001
 40
0.0000005099763573
 40
0.0000005099763573
 40
0.0000005099763573
 40
0.0000005099763573
 40
0.0000262827998699
 40
0.0000262827998699
 40
0.0000262827998699
 40
0.0000262827998699
 10
152.5262488013922
 20
136.1057711373137
 30
0.0
 10
152.5228800621645
 20
136.1024494683578
 30
0.0
 10
152.5195316091853
 20
136.0991215110789
 30
0.0
 10
152.516203870974
 20
136.0957872642063
 30
0.0
  0
SPLINE
  5
DA
330
1F
100
AcDbEntity
  8
0
  6
Continuous
 62
     7
370
    15
100
AcDbSpline
210
0.0
220
0.0
230
1.0
 70
     8
 71
     3
 72
    10
 73
     6
 74
     0
 42
0.00000001
 43
0.00000001
 40
0.0
 40
0.0
 40
0.0
 40
0.0
 40
0.5
 40
0.5
 40
1.0
 40
1.0
 40
1.0
 40
1.0
 10
156.0762488013922
 20
136.0589207637464
 30
0.0
 10
155.4886632543016
 20
136.0799862839828
 30
0.0
 10
154.8979168608413
 20
136.090744769855
 30
0.0
 10
153.7138976955424
 20
136.1041095503907
 30
0.0
 10
153.1204837073369
 20
136.1062521930552
 30
0.0
 10
152.5262488013922
 20
136.1057711373137
 30
0.0
  0
SPLINE
  5
DB
330
1F
100
AcDbEntity
  8
0
  6
Continuous
 62
     7
370
    15
100
AcDbSpline
210
0.0
220
0.0
230
1.0
 70
     8
 71
     3
 72
    18
 73
    14
 74
     0
 42
0.00000001
 43
0.00000001
 40
0.0
 40
0.0
 40
0.0
 40
0.0
 40
0.2500000000000003
 40
0.2500000000000003
 40
0.4999999999999999
 40
0.4999999999999999
 40
0.7499999999999996
 40
0.7499999999999996
 40
0.8749999999999993
 40
0.8749999999999993
 40
0.9374999999999997
 40
0.9374999999999997
 40
1.0
 40
1.0
 40
1.0
 40
1.0
 10
157.4762488013922
 20
137.0799410442816
 30
0.0
 10
157.4762488013922
 20
136.9967341354244
 30
0.0
 10
157.440399701454
 20
136.9079974801109
 30
0.0
 10
157.31552796542
 20
136.7258722895506
 30
0.0
 10
157.2251275477722
 20
136.630742240924
 30
0.0
 10
157.00288489303
 20
136.4415607317997
 30
0.0
 10
156.8731201065842
 20
136.3466155637049
 30
0.0
 10
156.6324826492727
 20
136.208336856125
 30
0.0
 10
156.5447153511353
 20
136.1626264228226
 30
0.0
 10
156.3901912639284
 20
136.1048031176012
 30
0.0
 10
156.3335803778737
 20
136.0870883535633
 30
0.0
 10
156.2095363469671
 20
136.0625490503304
 30
0.0
 10
156.1418216719488
 20
136.0565699117921
 30
0.0
 10
156.0762488013922
 20
136.0589207637464
 30
0.0
  0
LINE
  5
DC
330
1F
100
AcDbEntity
  8
0
  6
Continuous
 62
     7
370
    15
100
AcDbLine
 10
157.4762488014
 20
137.0799410443
 30
0.0
 11
157.4762488014
 21
138.2638794641
 31
0.0
  0
LINE
  5
DD
330
1F
100
AcDbEntity
  8
0
  6
Continuous
 62
     7
370
    15
100
AcDbLine
 10
181.2762488014
 20
91.0154025102
 30
0.0
 11
181.2762488014
 21
139.4562642336
 31
0.0
  0
SPLINE
  5
DE
330
1F
100
AcDbEntity
  8
0
  6
Continuous
 62
     7
370
    15
100
AcDbSpline
210
0.0
220
0.0
230
1.0
 70
     8
 71
     3
 72
    24
 73
    20
 74
     0
 42
0.00000001
 43
0.00000001
 40
0.0
 40
0.0
 40
0.0
 40
0.0
 40
0.0010489762969684
 40
0.0637843125638272
 40
0.1272220590447938
 40
0.1903788924487642
 40
0.2526748653693668
 40
0.314635415442616
 40
0.3770891997149718
 40
0.4393540298505315
 40
0.5008133242537844
 40
0.56218451045953
 40
0.6248438451115886
 40
0.6874304766624577
 40
0.7496743174679392
 40
0.8119848426972682
 40
0.8750960525412994
 40
0.9384412526960663
 40
0.9999999999999999
 40
0.9999999999999999
 40
0.9999999999999999
 40
0.9999999999999999
 10
170.045154633368
 20
91.57832494333847
 30
0.0
 10
170.0447081732637
 20
91.57826665751958
 30
0.0
 10
170.0175606095696
 20
91.57472251557711
 30
0.0
 10
170.113172387183
 20
91.5875562602598
 30
0.0
 10
170.3467326450778
 20
91.61680294545994
 30
0.0
 10
170.7422869523952
 20
91.66341726852284
 30
0.0
 10
171.2693272562333
 20
91.7136004101822
 30
0.0
 10
171.9128576682228
 20
91.75797687263189
 30
0.0
 10
172.6515315234626
 20
91.78492165357001
 30
0.0
 10
173.4490460288956
 20
91.78839350427673
 30
0.0
 10
174.2756249113418
 20
91.76076626024623
 30
0.0
 10
175.1011479289529
 20
91.70228737127347
 30
0.0
 10
175.8932744769563
 20
91.61684234191229
 30
0.0
 10
176.6258467509562
 20
91.51510810207598
 30
0.0
 10
177.2614869876851
 20
91.40726498010379
 30
0.0
 10
177.7833980946903
 20
91.30563482336495
 30
0.0
 10
178.1650268718071
 20
91.22314966668688
 30
0.0
 10
178.4158413420437
 20
91.16700046033692
 30
0.0
 10
178.4449628980271
 20
91.16015100172318
 30
0.0
 10
178.4593154188429
 20
91.156775254995
 30
0.0
  0
SPLINE
  5
DF
330
1F
100
AcDbEntity
  8
0
  6
Continuous
 62
     7
370
    15
100
AcDbSpline
210
0.0
220
0.0
230
1.0
 70
     8
 71
     3
 72
    24
 73
    20
 74
     0
 42
0.00000001
 43
0.00000001
 40
0.0
 40
0.0
 40
0.0
 40
0.0
 40
0.0614384276249341
 40
0.1250736755369512
 40
0.188425349072644
 40
0.250862390403742
 40
0.3129665632509107
 40
0.3753451453465124
 40
0.4377328972322135
 40
0.4990927322917224
 40
0.5605807588447959
 40
0.6229469893028957
 40
0.6854686282027745
 40
0.7475477813740224
 40
0.8098225060803523
 40
0.8730684085990407
 40
0.9364041844528636
 40
0.9991757196257849
 40
1.0
 40
1.0
 40
1.0
 40
1.0
 10
178.4592606480399
 20
139.314862346376
 30
0.0
 10
178.4446599237361
 20
139.3114942895234
 30
0.0
 10
178.4149364050071
 20
139.3046377460496
 30
0.0
 10
178.1621985893606
 20
139.2482991255238
 30
0.0
 10
177.7792026729116
 20
139.1654420433938
 30
0.0
 10
177.2568470884746
 20
139.0635350134427
 30
0.0
 10
176.6220626104738
 20
138.9556958743987
 30
0.0
 10
175.8918390063026
 20
138.8542289224237
 30
0.0
 10
175.1013704210679
 20
138.7691692087329
 30
0.0
 10
174.2768869062395
 20
138.7109649148465
 30
0.0
 10
173.4498504473545
 20
138.6833814760195
 30
0.0
 10
172.6515261797024
 20
138.6868744535126
 30
0.0
 10
171.9117022154139
 20
138.7138303733659
 30
0.0
 10
171.2674479824387
 20
138.7581843153649
 30
0.0
 10
170.7400407272241
 20
138.8083897651228
 30
0.0
 10
170.3453761250739
 20
138.854999620321
 30
0.0
 10
170.1128468458871
 20
138.8841952128685
 30
0.0
 10
170.0174668133357
 20
138.8969732818101
 30
0.0
 10
170.0444004502368
 20
138.893419023302
 30
0.0
 10
170.0447495434611
 20
138.8933729557187
 30
0.0
  0
SPLINE
  5
E0
330
1F
100
AcDbEntity
  8
0
  6
Continuous
 62
     7
370
    15
100
AcDbSpline
210
0.0
220
0.0
230
1.0
 70
     8
 71
     3
 72
     9
 73
     5
 74
     0
 42
0.00000001
 43
0.00000001
 40
0.0
 40
0.0
 40
0.0
 40
0.0
 40
0.5865083119587354
 40
1.0
 40
1.0
 40
1.0
 40
1.0
 10
151.3827685993433
 20
95.5850149293397
 30
0.0
 10
151.3867692283214
 20
95.57921484831073
 30
0.0
 10
151.3935903234305
 20
95.56932567724405
 30
0.0
 10
151.4027421944176
 20
95.62339046948462
 30
0.0
 10
151.4065264170008
 20
95.64574581169177
 30
0.0
  0
LINE
  5
E1
330
1F
100
AcDbEntity
  8
0
  6
Continuous
 62
     7
370
    15
100
AcDbLine
 10
151.3762488014
 20
95.582672847
 30
0.0
 11
151.3762488014
 21
134.9265111184
 31
0.0
  0
SPLINE
  5
E2
330
1F
100
AcDbEntity
  8
0
  6
Continuous
 62
     7
370
    15
100
AcDbSpline
210
0.0
220
0.0
230
1.0
 70
     8
 71
     3
 72
    10
 73
     6
 74
     0
 42
0.00000001
 43
0.00000001
 40
0.0
 40
0.0
 40
0.0
 40
0.0
 40
0.5
 40
0.5
 40
1.0
 40
1.0
 40
1.0
 40
1.0
 10
151.4389121761156
 20
134.9103859166993
 30
0.0
 10
151.4300078870069
 20
134.9561274359126
 30
0.0
 10
151.4134925068139
 20
134.9733182753815
 30
0.0
 10
151.3863845607523
 20
134.9729949984458
 30
0.0
 10
151.3762488013922
 20
134.9551174561494
 30
0.0
 10
151.3762488013922
 20
134.9265111183968
 30
0.0
  0
SPLINE
  5
E3
330
1F
100
AcDbEntity
  8
0
  6
Continuous
 62
     7
370
    15
100
AcDbSpline
210
0.0
220
0.0
230
1.0
 70
     8
 71
     3
 72
    26
 73
    22
 74
     0
 42
0.00000001
 43
0.00000001
 40
0.0
 40
0.0
 40
0.0
 40
0.0
 40
0.25
 40
0.25
 40
0.3749999999999994
 40
0.3749999999999994
 40
0.437500000000001
 40
0.437500000000001
 40
0.4687500000000001
 40
0.4687500000000001
 40
0.4999999999999991
 40
0.4999999999999991
 40
0.5312499999999981
 40
0.5312499999999981
 40
0.5624999999999971
 40
0.5624999999999971
 40
0.6249999999999971
 40
0.6249999999999971
 40
0.7499999999999971
 40
0.7499999999999971
 40
1.0
 40
1.0
 40
1.0
 40
1.0
 10
152.2004024474967
 20
135.6259527055165
 30
0.0
 10
152.1618019246282
 20
135.508178009161
 30
0.0
 10
152.115504922074
 20
135.3837883229991
 30
0.0
 10
152.0215655736401
 20
135.1785689906456
 30
0.0
 10
151.9862541067266
 20
135.1069961241992
 30
0.0
 10
151.920074130981
 20
134.9910428915987
 30
0.0
 10
151.8955357643127
 20
134.9504583567885
 30
0.0
 10
151.8521630187589
 20
134.8863166749168
 30
0.0
 10
151.8366546173337
 20
134.8644502496317
 30
0.0
 10
151.8016119727467
 20
134.8188559812886
 30
0.0
 10
151.7820616820269
 20
134.7951856903211
 30
0.0
 10
151.7401344016564
 20
134.7505691309812
 30
0.0
 10
151.7174822914247
 20
134.7296891184633
 30
0.0
 10
151.6765085773381
 20
134.6988157047124
 30
0.0
 10
151.6589092774427
 20
134.68897683488
 30
0.0
 10
151.6142822915865
 20
134.6699872191838
 30
0.0
 10
151.5937230689331
 20
134.6696628945304
 30
0.0
 10
151.5425976294365
 20
134.6788863354066
 30
0.0
 10
151.521686216448
 20
134.7001332316236
 30
0.0
 10
151.470236308887
 20
134.7741021104543
 30
0.0
 10
151.4525710095824
 20
134.8402202037691
 30
0.0
 10
151.4389121761156
 20
134.9103859166993
 30
0.0
  0
SPLINE
  5
E4
330
1F
100
AcDbEntity
  8
0
  6
Continuous
 62
     7
370
    15
100
AcDbSpline
210
0.0
220
0.0
230
1.0
 70
     8
 71
     3
 72
    10
 73
     6
 74
     0
 42
0.00000001
 43
0.00000001
 40
0.0
 40
0.0
 40
0.0
 40
0.0
 40
0.5
 40
0.5
 40
1.0
 40
1.0
 40
1.0
 40
1.0
 10
152.516203870974
 20
136.0957872642063
 30
0.0
 10
152.4486446160558
 20
136.0280958713965
 30
0.0
 10
152.3850079607192
 20
135.9533887066429
 30
0.0
 10
152.2747872061474
 20
135.7944225742162
 30
0.0
 10
152.2279709129248
 20
135.7100673082082
 30
0.0
 10
152.2004024474967
 20
135.6259527055165
 30
0.0
  0
SPLINE
  5
E5
330
1F
100
AcDbEntity
  8
0
  6
Continuous
 62
     7
370
    15
100
AcDbSpline
210
0.0
220
0.0
230
1.0
 70
     8
 71
     3
 72
     8
 73
     4
 74
     0
 42
0.00000001
 43
0.00000001
 40
0.0
 40
0.0
 40
0.0
 40
0.0
 40
1.0
 40
1.0
 40
1.0
 40
1.0
 10
152.3151583715914
 20
94.79191106895301
 30
0.0
 10
152.3508720299613
 20
94.6686795636932
 30
0.0
 10
152.4265400689095
 20
94.54773598674622
 30
0.0
 10
152.5162038709827
 20
94.44101694304297
 30
0.0
  0
SPLINE
  5
E6
330
1F
100
AcDbEntity
  8
0
  6
Continuous
 62
     7
370
    15
100
AcDbSpline
210
0.0
220
0.0
230
1.0
 70
     8
 71
     3
 72
    26
 73
    22
 74
     0
 42
0.00000001
 43
0.00000001
 40
0.0
 40
0.0
 40
0.0
 40
0.0
 40
0.24999999999999
 40
0.24999999999999
 40
0.3749999999999855
 40
0.3749999999999855
 40
0.4374999999999828
 40
0.4374999999999828
 40
0.4687499999999823
 40
0.4687499999999823
 40
0.4999999999999817
 40
0.4999999999999817
 40
0.5312499999999811
 40
0.5312499999999811
 40
0.5624999999999805
 40
0.5624999999999805
 40
0.6249999999999835
 40
0.6249999999999835
 40
0.7499999999999892
 40
0.7499999999999892
 40
1.0
 40
1.0
 40
1.0
 40
1.0
 10
151.4065264170009
 20
95.64574581169177
 30
0.0
 10
151.4172504503934
 20
95.74870685218077
 30
0.0
 10
151.4319834409879
 20
95.84770554166185
 30
0.0
 10
151.4843370002349
 20
95.96630122172698
 30
0.0
 10
151.5060422829546
 20
96.00201152167575
 30
0.0
 10
151.5648977903199
 20
96.02699095449749
 30
0.0
 10
151.5883600241671
 20
96.03137640226105
 30
0.0
 10
151.6444814008278
 20
96.01162356881687
 30
0.0
 10
151.6672687109584
 20
95.99996717800646
 30
0.0
 10
151.7225212634897
 20
95.95818682856918
 30
0.0
 10
151.7539274962305
 20
95.92791524119315
 30
0.0
 10
151.8088613168509
 20
95.86627284227916
 30
0.0
 10
151.8332851350504
 20
95.83483118997232
 30
0.0
 10
151.8767002410376
 20
95.77509635255858
 30
0.0
 10
151.8962748036058
 20
95.74593134268594
 30
0.0
 10
151.9499074875538
 20
95.66209606695288
 30
0.0
 10
151.979684835606
 20
95.61006344897669
 30
0.0
 10
152.0612188955788
 20
95.45899777500932
 30
0.0
 10
152.1044616902528
 20
95.3658067331386
 30
0.0
 10
152.2175162799075
 20
95.10142019414425
 30
0.0
 10
152.2715272773867
 20
94.9424620250944
 30
0.0
 10
152.3151583715907
 20
94.79191106895357
 30
0.0
  0
SPLINE
  5
E7
330
1F
100
AcDbEntity
  8
0
  6
Continuous
 62
     7
370
    15
100
AcDbSpline
210
0.0
220
0.0
230
1.0
 70
     8
 71
     3
 72
     8
 73
     4
 74
     0
 42
0.00000001
 43
0.00000001
 40
0.0
 40
0.0
 40
0.0
 40
0.0
 40
1.0
 40
1.0
 40
1.0
 40
1.0
 10
204.6681816328812
 20
145.7030288450829
 30
0.0
 10
204.1730416035169
 20
144.8163491969026
 30
0.0
 10
203.678958898238
 20
143.9290865612166
 30
0.0
 10
203.1862488013922
 20
143.0410675630902
 30
0.0
  0
LINE
  5
E8
330
1F
100
AcDbEntity
  8
0
  6
Continuous
 62
     7
370
    15
100
AcDbLine
 10
204.6681816329
 20
139.6945230343
 30
0.0
 11
204.6681816329
 21
145.7030288451
 31
0.0
  0
SPLINE
  5
E9
330
1F
100
AcDbEntity
  8
0
  6
Continuous
 62
     7
370
    15
100
AcDbSpline
210
0.0
220
0.0
230
1.0
 70
     8
 71
     3
 72
     8
 73
     4
 74
     0
 42
0.00000001
 43
0.00000001
 40
0.0
 40
0.0
 40
0.0
 40
0.0
 40
1.0
 40
1.0
 40
1.0
 40
1.0
 10
203.1862488013922
 20
136.2859770395019
 30
0.0
 10
203.6655269519821
 20
137.4269882693546
 30
0.0
 10
204.161094791122
 20
138.5633726801224
 30
0.0
 10
204.6681816328812
 20
139.694523034286
 30
0.0
  0
LINE
  5
EA
330
1F
100
AcDbEntity
  8
0
  6
Continuous
 62
     7
370
    15
100
AcDbLine
 10
203.1862488014
 20
136.2859770395
 30
0.0
 11
203.1862488014
 21
143.0410675631
 31
0.0
  0
SPLINE
  5
EB
330
1F
100
AcDbEntity
  8
0
  6
Continuous
 62
     7
370
    15
100
AcDbSpline
210
0.0
220
0.0
230
1.0
 70
     8
 71
     3
 72
     8
 73
     4
 74
     0
 42
0.00000001
 43
0.00000001
 40
0.0
 40
0.0
 40
0.0
 40
0.0
 40
1.0
 40
1.0
 40
1.0
 40
1.0
 10
197.8843159699032
 20
139.694523034286
 30
0.0
 10
198.3914028116625
 20
138.5633726801224
 30
0.0
 10
198.8869706508024
 20
137.4269882693546
 30
0.0
 10
199.3662488013922
 20
136.285977039502
 30
0.0
  0
LINE
  5
EC
330
1F
100
AcDbEntity
  8
0
  6
Continuous
 62
     7
370
    15
100
AcDbLine
 10
199.3662488014
 20
136.2859770395
 30
0.0
 11
199.3662488014
 21
135.3717000034
 31
0.0
  0
SPLINE
  5
ED
330
1F
100
AcDbEntity
  8
0
  6
Continuous
 62
     7
370
    15
100
AcDbSpline
210
0.0
220
0.0
230
1.0
 70
     8
 71
     3
 72
    10
 73
     6
 74
     0
 42
0.00000001
 43
0.00000001
 40
0.0
 40
0.0
 40
0.0
 40
0.0
 40
0.5
 40
0.5
 40
1.0
 40
1.0
 40
1.0
 40
1.0
 10
209.2262488013922
 20
145.0822736956825
 30
0.0
 10
209.2262488013922
 20
145.2426789620333
 30
0.0
 10
209.1640109702854
 20
145.4017407750219
 30
0.0
 10
208.9448760465428
 20
145.6326532406522
 30
0.0
 10
208.7872873515509
 20
145.7030288450829
 30
0.0
 10
208.6262488013922
 20
145.7030288450829
 30
0.0
  0
SPLINE
  5
EE
330
1F
100
AcDbEntity
  8
0
  6
Continuous
 62
     7
370
    15
100
AcDbSpline
210
0.0
220
0.0
230
1.0
 70
     8
 71
     3
 72
    12
 73
     8
 74
     0
 42
0.00000001
 43
0.00000001
 40
0.0
 40
0.0
 40
0.0
 40
0.0
 40
0.249999999999998
 40
0.249999999999998
 40
0.499999999999996
 40
0.499999999999996
 40
1.0
 40
1.0
 40
1.0
 40
1.0
 10
208.6262488013922
 20
139.694523034286
 30
0.0
 10
208.7174485232179
 20
139.694523034286
 30
0.0
 10
208.8080435323539
 20
139.6663033356982
 30
0.0
 10
208.9614562588006
 20
139.5718603284501
 30
0.0
 10
209.0266651261242
 20
139.5055733517447
 30
0.0
 10
209.1794496554641
 20
139.2799485284564
 30
0.0
 10
209.2262488013922
 20
139.0975222654239
 30
0.0
 10
209.2262488013922
 20
138.916785633177
 30
0.0
  0
LINE
  5
EF
330
1F
100
AcDbEntity
  8
0
  6
Continuous
 62
     7
370
    15
100
AcDbLine
 10
209.2262488014
 20
138.9167856332
 30
0.0
 11
209.2262488014
 21
145.0822736957
 31
0.0
  0
LINE
  5
F0
330
1F
100
AcDbEntity
  8
0
  6
Continuous
 62
     7
370
    15
100
AcDbLine
 10
208.6262488014
 20
145.7030288451
 30
0.0
 11
204.6681816329
 21
145.7030288451
 31
0.0
  0
LINE
  5
F1
330
1F
100
AcDbEntity
  8
0
  6
Continuous
 62
     7
370
    15
100
AcDbLine
 10
204.6681816329
 20
139.6945230343
 30
0.0
 11
208.6262488014
 21
139.6945230343
 31
0.0
  0
SPLINE
  5
F2
330
1F
100
AcDbEntity
  8
0
  6
Continuous
 62
     7
370
    15
100
AcDbSpline
210
0.0
220
0.0
230
1.0
 70
     8
 71
     3
 72
     8
 73
     4
 74
     0
 42
0.00000001
 43
0.00000001
 40
0.0
 40
0.0
 40
0.0
 40
0.0
 40
1.0
 40
1.0
 40
1.0
 40
1.0
 10
199.3662488013922
 20
143.0410675630902
 30
0.0
 10
198.8735387045465
 20
143.9290865612166
 30
0.0
 10
198.3794559992675
 20
144.8163491969026
 30
0.0
 10
197.8843159699032
 20
145.7030288450829
 30
0.0
  0
LINE
  5
F3
330
1F
100
AcDbEntity
  8
0
  6
Continuous
 62
     7
370
    15
100
AcDbLine
 10
199.3662488014
 20
136.2859770395
 30
0.0
 11
199.3662488014
 21
143.0410675631
 31
0.0
  0
LINE
  5
F4
330
1F
100
AcDbEntity
  8
0
  6
Continuous
 62
     7
370
    15
100
AcDbLine
 10
203.1862488014
 20
135.3717000034
 30
0.0
 11
203.1862488014
 21
136.2859770395
 31
0.0
  0
LINE
  5
F5
330
1F
100
AcDbEntity
  8
0
  6
Continuous
 62
     7
370
    15
100
AcDbLine
 10
209.2262488014
 20
138.9167856332
 30
0.0
 11
209.2262488014
 21
135.0858333719
 31
0.0
  0
LINE
  5
F6
330
1F
100
AcDbEntity
  8
0
  6
Continuous
 62
     7
370
    15
100
AcDbLine
 10
152.5262488014
 20
94.4233333719
 30
0.0
 11
152.5262488014
 21
94.4292018134
 31
0.0
  0
SPLINE
  5
F7
330
1F
100
AcDbEntity
  8
0
  6
Continuous
 62
     7
370
    15
100
AcDbSpline
210
0.0
220
0.0
230
1.0
 70
     8
 71
     3
 72
     8
 73
     4
 74
     0
 42
0.00000001
 43
0.00000001
 40
0.0
 40
0.0
 40
0.0
 40
0.0
 40
1.0
 40
1.0
 40
1.0
 40
1.0
 10
224.5089218134133
 20
141.2342326910666
 30
0.0
 10
224.6371457568856
 20
141.2341444717401
 30
0.0
 10
224.7609256580507
 20
141.2578878800597
 30
0.0
 10
224.880210729266
 20
141.3055899023434
 30
0.0
  0
SPLINE
  5
F8
330
1F
100
AcDbEntity
  8
0
  6
Continuous
 62
     7
370
    15
100
AcDbSpline
210
0.0
220
0.0
230
1.0
 70
     8
 71
     3
 72
     8
 73
     4
 74
     0
 42
0.00000001
 43
0.00000001
 40
0.0
 40
0.0
 40
0.0
 40
0.0
 40
1.0
 40
1.0
 40
1.0
 40
1.0
 10
224.8802107292644
 20
89.1660768414945
 30
0.0
 10
224.7609256580496
 20
89.21377886377768
 30
0.0
 10
224.637145756885
 20
89.23752227209711
 30
0.0
 10
224.5089218134133
 20
89.23743405277065
 30
0.0
  0
LINE
  5
F9
330
1F
100
AcDbEntity
  8
0
  6
Continuous
 62
     7
370
    15
100
AcDbLine
 10
225.5441979938
 20
142.2341666538
 30
0.0
 11
227.3697369362
 21
142.2341666538
 31
0.0
  0
LINE
  5
FA
330
1F
100
AcDbEntity
  8
0
  6
Continuous
 62
     7
370
    15
100
AcDbLine
 10
250.6674033515
 20
108.961650801
 30
0.0
 11
227.3697369362
 21
142.2341666538
 31
0.0
  0
LINE
  5
FB
330
1F
100
AcDbEntity
  8
0
  6
Continuous
 62
     7
370
    15
100
AcDbLine
 10
252.0861937384
 20
81.8895174978
 30
0.0
 11
250.6674033515
 21
108.961650801
 31
0.0
  0
LINE
  5
FC
330
1F
100
AcDbEntity
  8
0
  6
Continuous
 62
     7
370
    15
100
AcDbLine
 10
242.6868375866
 20
87.719451614
 30
0.0
 11
243.3356260825
 21
87.314043567
 31
0.0
  0
ARC
  5
FD
330
1F
100
AcDbEntity
  8
0
  6
Continuous
 62
     7
370
    15
100
AcDbCircle
 10
241.8832454942
 20
86.4334354413
 30
0.0
 40
1.516442497159267
100
AcDbArc
 50
58.0
 51
238.0
  0
LINE
  5
FE
330
1F
100
AcDbEntity
  8
0
  6
Continuous
 62
     7
370
    15
100
AcDbLine
 10
243.0424849919
 20
83.9209059651
 30
0.0
 11
241.0796534019
 21
85.1474192687
 31
0.0
  0
LINE
  5
FF
330
1F
100
AcDbEntity
  8
0
  6
Continuous
 62
     7
370
    15
100
AcDbLine
 10
225.7120227797
 20
87.6111316731
 30
0.0
 11
243.4292939199
 21
76.5401519381
 31
0.0
  0
LINE
  5
100
330
1F
100
AcDbEntity
  8
0
  6
Continuous
 62
     7
370
    15
100
AcDbLine
 10
225.5441979938
 20
142.2341666538
 30
0.0
 11
225.4748476397
 21
141.9753314761
 31
0.0
  0
LINE
  5
101
330
1F
100
AcDbEntity
  8
0
  6
Continuous
 62
     7
370
    15
100
AcDbLine
 10
225.4748476397
 20
88.4963352678
 30
0.0
 11
225.7120227797
 21
87.6111316731
 31
0.0
  0
SPLINE
  5
102
330
1F
100
AcDbEntity
  8
0
  6
Continuous
 62
     7
370
    15
100
AcDbSpline
210
0.0
220
0.0
230
1.0
 70
     8
 71
     3
 72
    10
 73
     6
 74
     0
 42
0.00000001
 43
0.00000001
 40
0.0
 40
0.0
 40
0.0
 40
0.0
 40
0.5
 40
0.5
 40
1.0
 40
1.0
 40
1.0
 40
1.0
 10
224.880210729266
 20
141.3055899023434
 30
0.0
 10
225.0231118743815
 20
141.3627359771975
 30
0.0
 10
225.1547045907436
 20
141.4550823174678
 30
0.0
 10
225.3599121068018
 20
141.6866413575653
 30
0.0
 10
225.4350158040647
 20
141.8266676861545
 30
0.0
 10
225.4748476397023
 20
141.9753314760823
 30
0.0
  0
SPLINE
  5
103
330
1F
100
AcDbEntity
  8
0
  6
Continuous
 62
     7
370
    15
100
AcDbSpline
210
0.0
220
0.0
230
1.0
 70
     8
 71
     3
 72
    10
 73
     6
 74
     0
 42
0.00000001
 43
0.00000001
 40
0.0
 40
0.0
 40
0.0
 40
0.0
 40
0.5
 40
0.5
 40
1.0
 40
1.0
 40
1.0
 40
1.0
 10
225.4748476397023
 20
88.49633526775497
 30
0.0
 10
225.4345947400858
 20
88.64657058874299
 30
0.0
 10
225.3598295299577
 20
88.78532130383803
 30
0.0
 10
225.1536347813033
 20
89.01758774086164
 30
0.0
 10
225.0238278244276
 20
89.10864445868302
 30
0.0
 10
224.8802107292638
 20
89.16607684149477
 30
0.0
  0
LINE
  5
104
330
1F
100
AcDbEntity
  8
0
  6
Continuous
 62
     7
370
    15
100
AcDbLine
 10
243.0028012342
 20
87.2078323759
 30
0.0
 11
242.5456445745
 21
87.4934955615
 31
0.0
  0
LINE
  5
105
330
1F
100
AcDbEntity
  8
0
  6
Continuous
 62
     7
370
    15
100
AcDbLine
 10
243.0254618728
 20
84.2457264289
 30
0.0
 11
241.220846414
 21
85.3733753211
 31
0.0
  0
ARC
  5
106
330
1F
100
AcDbEntity
  8
0
  6
Continuous
 62
     7
370
    15
100
AcDbCircle
 10
241.8832454942
 20
86.4334354413
 30
0.0
 40
1.249999999999991
100
AcDbArc
 50
58.0
 51
238.0
  0
LINE
  5
107
330
1F
100
AcDbEntity
  8
0
  6
HIDDEN
 62
     7
370
     0
100
AcDbLine
 10
188.2262488014
 20
83.7358333719
 30
0.0
 11
188.2262488014
 21
83.7517103891
 31
0.0
  0
SPLINE
  5
108
330
1F
100
AcDbEntity
  8
0
  6
HIDDEN
 62
     7
370
     0
100
AcDbSpline
210
0.0
220
0.0
230
1.0
 70
     8
 71
     3
 72
    30
 73
    26
 74
     0
 42
0.00000001
 43
0.00000001
 40
0.0
 40
0.0
 40
0.0
 40
0.0
 40
0.1250000000000002
 40
0.1250000000000002
 40
0.1875000000000002
 40
0.1875000000000002
 40
0.2500000000000003
 40
0.2500000000000003
 40
0.3750000000000004
 40
0.3750000000000004
 40
0.4375000000000004
 40
0.4375000000000004
 40
0.5000000000000004
 40
0.5000000000000004
 40
0.6250000000000004
 40
0.6250000000000004
 40
0.6875000000000003
 40
0.6875000000000003
 40
0.7500000000000002
 40
0.7500000000000002
 40
0.8125000000000001
 40
0.8125000000000001
 40
0.8749999999999999
 40
0.8749999999999999
 40
1.0
 40
1.0
 40
1.0
 40
1.0
 10
188.2262488013922
 20
83.7517103890563
 30
0.0
 10
188.2262488013922
 20
83.76858930706491
 30
0.0
 10
188.2786663673706
 20
83.7986068718896
 30
0.0
 10
188.4320458472729
 20
83.8614172611627
 30
0.0
 10
188.4957269679407
 20
83.8853211683896
 30
0.0
 10
188.6486818353924
 20
83.93875646083198
 30
0.0
 10
188.7382541341616
 20
83.96836332899954
 30
0.0
 10
189.0394781670148
 20
84.06281302771397
 30
0.0
 10
189.2847931630989
 20
84.1338404215432
 30
0.0
 10
189.7188901441691
 20
84.24785470824897
 30
0.0
 10
189.8755598332728
 20
84.28730995938955
 30
0.0
 10
190.2075529971152
 20
84.3668314021602
 30
0.0
 10
190.3822585261077
 20
84.406767544661
 30
0.0
 10
190.9319282086992
 20
84.52570394748913
 30
0.0
 10
191.3321791714105
 20
84.60386871137298
 30
0.0
 10
191.985766038048
 20
84.71357815164188
 30
0.0
 10
192.2114421577251
 20
84.7486589883503
 30
0.0
 10
192.6711539788564
 20
84.81389926772991
 30
0.0
 10
192.9062073128995
 20
84.84423408377465
 30
0.0
 10
193.3867145951985
 20
84.89957246299649
 30
0.0
 10
193.6321681231126
 20
84.92457713955658
 30
0.0
 10
194.13378354792
 20
84.96845694844727
 30
0.0
 10
194.3912759305205
 20
84.98740063320956
 30
0.0
 10
195.1693524469566
 20
85.03312036047976
 30
0.0
 10
195.6945147242015
 20
85.04891567567148
 30
0.0
 10
196.2262488013922
 20
85.04891567567148
 30
0.0
  0
LINE
  5
109
330
1F
100
AcDbEntity
  8
0
  6
HIDDEN
 62
     7
370
     0
100
AcDbLine
 10
196.2262488014
 20
85.0489156757
 30
0.0
 11
197.8843159699
 21
85.0489156757
 31
0.0
  0
LINE
  5
10A
330
1F
100
AcDbEntity
  8
0
  6
HIDDEN
 62
     7
370
     0
100
AcDbLine
 10
197.8843159699
 20
145.7030288451
 30
0.0
 11
197.8843159699
 21
85.0489156757
 31
0.0
  0
LINE
  5
10B
330
1F
100
AcDbEntity
  8
0
  6
HIDDEN
 62
     7
370
     0
100
AcDbLine
 10
196.2262488014
 20
145.7030288451
 30
0.0
 11
197.8843159699
 21
145.7030288451
 31
0.0
  0
SPLINE
  5
10C
330
1F
100
AcDbEntity
  8
0
  6
HIDDEN
 62
     7
370
     0
100
AcDbSpline
210
0.0
220
0.0
230
1.0
 70
     8
 71
     3
 72
    17
 73
    13
 74
     0
 42
0.00000001
 43
0.00000001
 40
0.0
 40
0.0
 40
0.0
 40
0.0
 40
0.0638118569779108
 40
0.1662334015758577
 40
0.2715772286555437
 40
0.3750121755717072
 40
0.4812892574314439
 40
0.5875617939750555
 40
0.696879251692842
 40
0.8035874883160895
 40
0.9135588806005728
 40
1.0
 40
1.0
 40
1.0
 40
1.0
 10
188.2542371604735
 20
146.7287384639613
 30
0.0
 10
188.2510400268351
 20
146.7295425452992
 30
0.0
 10
188.2427113176398
 20
146.7316372214654
 30
0.0
 10
188.4743471487862
 20
146.6731613823413
 30
0.0
 10
188.9094479053862
 20
146.5678516652356
 30
0.0
 10
189.5554502681582
 20
146.4220392042129
 30
0.0
 10
190.379721468705
 20
146.2545895566105
 30
0.0
 10
191.3822537521622
 20
146.0796164518276
 30
0.0
 10
192.5250016419957
 20
145.9190283036617
 30
0.0
 10
193.7903357373901
 20
145.7916788936971
 30
0.0
 10
195.0370755532921
 20
145.7155908591421
 30
0.0
 10
195.8628330434544
 20
145.7068678432001
 30
0.0
 10
196.2262488013922
 20
145.7030288450829
 30
0.0
  0
SPLINE
  5
10D
330
1F
100
AcDbEntity
  8
0
  6
HIDDEN
 62
     7
370
     0
100
AcDbSpline
210
0.0
220
0.0
230
1.0
 70
     8
 71
     3
 72
    76
 73
    72
 74
     0
 42
0.00000001
 43
0.00000001
 40
-0.0312500000000002
 40
-0.0312500000000002
 40
0.0
 40
0.0
 40
0.0312499999999998
 40
0.0312499999999998
 40
0.0468749999999998
 40
0.0468749999999998
 40
0.0624999999999997
 40
0.0624999999999997
 40
0.0937499999999995
 40
0.0937499999999995
 40
0.1249999999999993
 40
0.1249999999999993
 40
0.1562499999999991
 40
0.1562499999999991
 40
0.1874999999999989
 40
0.1874999999999989
 40
0.2187499999999988
 40
0.2187499999999988
 40
0.2499999999999986
 40
0.2499999999999986
 40
0.2812499999999983
 40
0.2812499999999983
 40
0.3124999999999982
 40
0.3124999999999982
 40
0.3281249999999982
 40
0.3281249999999982
 40
0.3437499999999981
 40
0.3437499999999981
 40
0.3749999999999981
 40
0.3749999999999981
 40
0.4062499999999981
 40
0.4062499999999981
 40
0.437499999999998
 40
0.437499999999998
 40
0.4687499999999979
 40
0.4687499999999979
 40
0.4999999999999979
 40
0.4999999999999979
 40
0.5312499999999979
 40
0.5312499999999979
 40
0.5624999999999978
 40
0.5624999999999978
 40
0.5937499999999978
 40
0.5937499999999978
 40
0.6249999999999977
 40
0.6249999999999977
 40
0.6562499999999977
 40
0.6562499999999977
 40
0.6874999999999976
 40
0.6874999999999976
 40
0.7031249999999977
 40
0.7031249999999977
 40
0.7187499999999977
 40
0.7187499999999977
 40
0.7499999999999978
 40
0.7499999999999978
 40
0.7812499999999981
 40
0.7812499999999981
 40
0.8124999999999984
 40
0.8124999999999984
 40
0.8437499999999987
 40
0.8437499999999987
 40
0.874999999999999
 40
0.874999999999999
 40
0.9062499999999992
 40
0.9062499999999992
 40
0.9374999999999996
 40
0.9374999999999996
 40
0.9687499999999998
 40
0.9687499999999998
 40
1.0
 40
1.0
 40
1.03125
 40
1.03125
 10
185.2762488013922
 20
115.5667173677127
 30
0.0
 10
185.2762488013922
 20
114.9049493761245
 30
0.0
 10
185.3087692791766
 20
114.5796982080287
 30
0.0
 10
185.4042625234586
 20
114.0999014871396
 30
0.0
 10
185.4439373588698
 20
113.9413258033459
 30
0.0
 10
185.5393239722055
 20
113.6269434175529
 30
0.0
 10
185.5952682136161
 20
113.4708237939687
 30
0.0
 10
185.7836312370657
 20
113.0168832340668
 30
0.0
 10
185.9372435134841
 20
112.7299029880598
 30
0.0
 10
186.3000713072682
 20
112.1867898313205
 30
0.0
 10
186.5109064088507
 20
111.9300505397765
 30
0.0
 10
186.9714059788682
 20
111.4696659055456
 30
0.0
 10
187.222768919786
 20
111.2628890887917
 30
0.0
 10
187.7691156141395
 20
110.8973648811283
 30
0.0
 10
188.0593302538574
 20
110.7423653224135
 30
0.0
 10
188.6607170701591
 20
110.4928343013193
 30
0.0
 10
188.9763467632495
 20
110.3965560276306
 30
0.0
 10
189.621987164529
 20
110.2679070203876
 30
0.0
 10
189.9467429203424
 20
110.236020761271
 30
0.0
 10
190.6000429507338
 20
110.2356476137603
 30
0.0
 10
190.9319152915645
 20
110.2682271000063
 30
0.0
 10
191.5735665251681
 20
110.3960010047127
 30
0.0
 10
191.8854914421012
 20
110.4905334490098
 30
0.0
 10
192.3399810426181
 20
110.6786530435485
 30
0.0
 10
192.4898443504521
 20
110.7495360247693
 30
0.0
 10
192.7789295843747
 20
110.9041526311037
 30
0.0
 10
192.9187904986828
 20
110.9880752298416
 30
0.0
 10
193.324666942387
 20
111.2592707533173
 30
0.0
 10
193.5777050888766
 20
111.4663707587585
 30
0.0
 10
194.04360464504
 20
111.9319732118158
 30
0.0
 10
194.2501107195358
 20
112.1838920642031
 30
0.0
 10
194.6122162829355
 20
112.724795680204
 30
0.0
 10
194.7690753967507
 20
113.0173385229554
 30
0.0
 10
195.0200255136133
 20
113.6222061797129
 30
0.0
 10
195.1148366129442
 20
113.9338530111596
 30
0.0
 10
195.2432584757373
 20
114.5756063163812
 30
0.0
 10
195.2761217622285
 20
114.9073341352605
 30
0.0
 10
195.2763750883371
 20
115.5604539005214
 30
0.0
 10
195.2448190877678
 20
115.8853871068644
 30
0.0
 10
195.1165778663434
 20
116.5319141133175
 30
0.0
 10
195.020771817685
 20
116.8469220671785
 30
0.0
 10
194.7716383065909
 20
117.4488807353241
 30
0.0
 10
194.6161781848962
 20
117.7403569055996
 30
0.0
 10
194.2517239305364
 20
118.2859518420963
 30
0.0
 10
194.0452910231006
 20
118.5374289571014
 30
0.0
 10
193.5848219405827
 20
118.9987519811562
 30
0.0
 10
193.3280249325268
 20
119.2098752821026
 30
0.0
 10
192.7859797186923
 20
119.5726060638186
 30
0.0
 10
192.4992101387568
 20
119.7264949672041
 30
0.0
 10
192.0449029628712
 20
119.9154446938962
 30
0.0
 10
191.8887626620977
 20
119.971517489916
 30
0.0
 10
191.5749167007516
 20
120.0670202554487
 30
0.0
 10
191.4165299130578
 20
120.1068008984762
 30
0.0
 10
190.9370536731145
 20
120.2026834356015
 30
0.0
 10
190.6108137286876
 20
120.2355588836009
 30
0.0
 10
189.9499391314096
 20
120.2361044527721
 30
0.0
 10
189.6248027840647
 20
120.2039379341586
 30
0.0
 10
188.9847202835782
 20
120.0771553961714
 30
0.0
 10
188.6663993595104
 20
119.9808876423801
 30
0.0
 10
188.0614830806713
 20
119.7304933209549
 30
0.0
 10
187.7743341670198
 20
119.5771791592334
 30
0.0
 10
187.2303826133468
 20
119.2144712352136
 30
0.0
 10
186.9737366636202
 20
119.0040321624797
 30
0.0
 10
186.5131461102073
 20
118.5441511742034
 30
0.0
 10
186.3059972242164
 20
118.2928693745106
 30
0.0
 10
185.9394659808031
 20
117.7459492007706
 30
0.0
 10
185.7847817932986
 20
117.4568090491543
 30
0.0
 10
185.5346821399604
 20
116.855572375235
 30
0.0
 10
185.4379953654673
 20
116.5395966815943
 30
0.0
 10
185.308773790511
 20
115.8936229234977
 30
0.0
 10
185.2762488013922
 20
115.5667173677127
 30
0.0
 10
185.2762488013922
 20
114.9049493761245
 30
0.0
  0
LINE
  5
10E
330
1F
100
AcDbEntity
  8
0
  6
HIDDEN
 62
     7
370
     0
100
AcDbLine
 10
183.2762488014
 20
146.4358333713
 30
0.0
 11
183.2762488014
 21
84.0358333719
 31
0.0
  0
SPLINE
  5
10F
330
1F
100
AcDbEntity
  8
0
  6
HIDDEN
 62
     7
370
     0
100
AcDbSpline
210
0.0
220
0.0
230
1.0
 70
     8
 71
     3
 72
    10
 73
     6
 74
     0
 42
0.00000001
 43
0.00000001
 40
0.0
 40
0.0
 40
0.0
 40
0.0
 40
0.5
 40
0.5
 40
1.0
 40
1.0
 40
1.0
 40
1.0
 10
203.1862488013922
 20
88.43143774358929
 30
0.0
 10
203.1862488013922
 20
88.50167410396006
 30
0.0
 10
203.1779661893017
 20
88.57166820545754
 30
0.0
 10
203.1448662462431
 20
88.70862747001647
 30
0.0
 10
203.1205288542846
 20
88.77393537927173
 30
0.0
 10
203.08857399906
 20
88.83583337191864
 30
0.0
  0
LINE
  5
110
330
1F
100
AcDbEntity
  8
0
  6
HIDDEN
 62
     7
370
     0
100
AcDbLine
 10
203.1862488014
 20
135.3717000034
 30
0.0
 11
203.1862488014
 21
142.355487223
 31
0.0
  0
SPLINE
  5
111
330
1F
100
AcDbEntity
  8
0
  6
HIDDEN
 62
     7
370
     0
100
AcDbSpline
210
0.0
220
0.0
230
1.0
 70
    24
 71
     3
 72
    10
 73
     6
 74
     0
 42
0.00000001
 43
0.00000001
 40
0.0
 40
0.0
 40
0.0
 40
0.0
 40
0.5
 40
0.5
 40
1.0
 40
1.0
 40
1.0
 40
1.0
 10
203.1601011782321
 20
135.0858333719186
 30
0.0
 10
203.1687789531397
 20
135.0858333719186
 30
0.0
 10
203.1753319771466
 20
135.0858333719186
 30
0.0
 10
203.1840665866437
 20
135.0858333719186
 30
0.0
 10
203.1862488013922
 20
135.0858333719186
 30
0.0
 10
203.1862488013922
 20
135.0858333719186
 30
0.0
  0
LINE
  5
112
330
1F
100
AcDbEntity
  8
0
  6
HIDDEN
 62
     7
370
     0
100
AcDbLine
 10
203.1862488014
 20
88.4314377436
 30
0.0
 11
203.1862488014
 21
135.0858333719
 31
0.0
  0
SPLINE
  5
113
330
1F
100
AcDbEntity
  8
0
  6
HIDDEN
 62
     7
370
     0
100
AcDbSpline
210
0.0
220
0.0
230
1.0
 70
     8
 71
     3
 72
    10
 73
     6
 74
     0
 42
0.00000001
 43
0.00000001
 40
0.0
 40
0.0
 40
0.0
 40
0.0
 40
0.5
 40
0.5
 40
1.0
 40
1.0
 40
1.0
 40
1.0
 10
199.4639236037245
 20
88.83583337191865
 30
0.0
 10
199.4317684161026
 20
88.77354732640255
 30
0.0
 10
199.4071121849083
 20
88.70701690153335
 30
0.0
 10
199.3742994279828
 20
88.57015827117091
 30
0.0
 10
199.3662488013922
 20
88.50110067599259
 30
0.0
 10
199.3662488013922
 20
88.43143774358929
 30
0.0
  0
SPLINE
  5
114
330
1F
100
AcDbEntity
  8
0
  6
HIDDEN
 62
     7
370
     0
100
AcDbSpline
210
0.0
220
0.0
230
1.0
 70
    24
 71
     3
 72
    10
 73
     6
 74
     0
 42
0.00000001
 43
0.00000001
 40
0.0
 40
0.0
 40
0.0
 40
0.0
 40
0.5
 40
0.5
 40
1.0
 40
1.0
 40
1.0
 40
1.0
 10
199.3662488013922
 20
135.0858333719186
 30
0.0
 10
199.3662488013922
 20
135.0858333719186
 30
0.0
 10
199.3684706598769
 20
135.0858333719186
 30
0.0
 10
199.3772073316005
 20
135.0858333719186
 30
0.0
 10
199.3837188453949
 20
135.0858333719186
 30
0.0
 10
199.3923964245524
 20
135.0858333719186
 30
0.0
  0
LINE
  5
115
330
1F
100
AcDbEntity
  8
0
  6
HIDDEN
 62
     7
370
     0
100
AcDbLine
 10
199.3662488014
 20
135.3717000034
 30
0.0
 11
199.3662488014
 21
142.355487223
 31
0.0
  0
LINE
  5
116
330
1F
100
AcDbEntity
  8
0
  6
HIDDEN
 62
     7
370
     0
100
AcDbLine
 10
199.3662488014
 20
88.4314377436
 30
0.0
 11
199.3662488014
 21
135.0858333719
 31
0.0
  0
SPLINE
  5
117
330
1F
100
AcDbEntity
  8
0
  6
HIDDEN
 62
     7
370
     0
100
AcDbSpline
210
0.0
220
0.0
230
1.0
 70
    24
 71
     3
 72
    18
 73
    14
 74
     0
 42
0.00000001
 43
0.00000001
 40
0.0
 40
0.0
 40
0.0
 40
0.0
 40
0.5
 40
0.5
 40
0.75
 40
0.75
 40
0.875
 40
0.875
 40
0.9375
 40
0.9375
 40
0.96875
 40
0.96875
 40
1.0
 40
1.0
 40
1.0
 40
1.0
 10
209.2262488013922
 20
141.6358333719186
 30
0.0
 10
209.2262488013922
 20
141.6358333719186
 30
0.0
 10
209.2820979444485
 20
141.6358333719186
 30
0.0
 10
209.3578153395446
 20
141.6358333719186
 30
0.0
 10
209.3820046893796
 20
141.6358333719186
 30
0.0
 10
209.4077484535064
 20
141.6358333719186
 30
0.0
 10
209.4145940994238
 20
141.6358333719186
 30
0.0
 10
209.4215339166872
 20
141.6358333719186
 30
0.0
 10
209.4232963583896
 20
141.6358333719186
 30
0.0
 10
209.4250645315122
 20
141.6358333719186
 30
0.0
 10
209.4255083269891
 20
141.6358333719186
 30
0.0
 10
209.426100498465
 20
141.6358333719186
 30
0.0
 10
209.4262488679002
 20
141.6358333719186
 30
0.0
 10
209.4262488013682
 20
141.6358333719186
 30
0.0
  0
SPLINE
  5
118
330
1F
100
AcDbEntity
  8
0
  6
HIDDEN
 62
     7
370
     0
100
AcDbSpline
210
0.0
220
0.0
230
1.0
 70
    24
 71
     3
 72
     9
 73
     5
 74
     0
 42
0.00000001
 43
0.00000001
 40
0.0
 40
0.0
 40
0.0
 40
0.0
 40
0.0981080867037001
 40
0.9999999999999999
 40
0.9999999999999999
 40
0.9999999999999999
 40
0.9999999999999999
 10
209.3850050539258
 20
141.6358333719186
 30
0.0
 10
209.3816819163325
 20
141.6358333719186
 30
0.0
 10
209.3478097075784
 20
141.6358333719186
 30
0.0
 10
209.2838939270146
 20
141.6358333719186
 30
0.0
 10
209.2262488013922
 20
141.6358333719186
 30
0.0
  0
LINE
  5
119
330
1F
100
AcDbEntity
  8
0
  6
HIDDEN
 62
     7
370
     0
100
AcDbLine
 10
209.2262488014
 20
141.6358333719
 30
0.0
 11
209.2262488014
 21
88.8358333719
 31
0.0
  0
SPLINE
  5
11A
330
1F
100
AcDbEntity
  8
0
  6
HIDDEN
 62
     7
370
     0
100
AcDbSpline
210
0.0
220
0.0
230
1.0
 70
    24
 71
     3
 72
    18
 73
    14
 74
     0
 42
0.00000001
 43
0.00000001
 40
0.0
 40
0.0
 40
0.0
 40
0.0
 40
0.5
 40
0.5
 40
0.75
 40
0.75
 40
0.875
 40
0.875
 40
0.9375
 40
0.9375
 40
0.96875
 40
0.96875
 40
1.0
 40
1.0
 40
1.0
 40
1.0
 10
209.2262488013922
 20
88.83583337191861
 30
0.0
 10
209.2262488013922
 20
88.83583337191862
 30
0.0
 10
209.2820979685746
 20
88.83583337191862
 30
0.0
 10
209.3578153780582
 20
88.83583337191861
 30
0.0
 10
209.3820047291137
 20
88.83583337191862
 30
0.0
 10
209.4077484852272
 20
88.83583337191861
 30
0.0
 10
209.4145941268733
 20
88.83583337191862
 30
0.0
 10
209.4215339354114
 20
88.83583337191862
 30
0.0
 10
209.423296373825
 20
88.83583337191862
 30
0.0
 10
209.4250645415107
 20
88.83583337191862
 30
0.0
 10
209.4255083350917
 20
88.83583337191861
 30
0.0
 10
209.4261005026245
 20
88.83583337191862
 30
0.0
 10
209.4262488698682
 20
88.83583337191861
 30
0.0
 10
209.4262488013668
 20
88.83583337191861
 30
0.0
  0
LINE
  5
11B
330
1F
100
AcDbEntity
  8
0
  6
HIDDEN
 62
     7
370
     0
100
AcDbLine
 10
209.2262488014
 20
88.8358333719
 30
0.0
 11
209.2262488014
 21
141.6358333719
 31
0.0
  0
SPLINE
  5
11C
330
1F
100
AcDbEntity
  8
0
  6
HIDDEN
 62
     7
370
     0
100
AcDbSpline
210
0.0
220
0.0
230
1.0
 70
     8
 71
     3
 72
    66
 73
    62
 74
     0
 42
0.00000001
 43
0.00000001
 40
-0.0624999999999997
 40
-0.0624999999999997
 40
0.0
 40
0.0
 40
0.0312500000000005
 40
0.0312500000000005
 40
0.062500000000001
 40
0.062500000000001
 40
0.0937500000000014
 40
0.0937500000000014
 40
0.1250000000000019
 40
0.1250000000000019
 40
0.1875000000000019
 40
0.1875000000000019
 40
0.2187500000000014
 40
0.2187500000000014
 40
0.2500000000000008
 40
0.2500000000000008
 40
0.2812500000000002
 40
0.2812500000000002
 40
0.3124999999999996
 40
0.3124999999999996
 40
0.3437499999999997
 40
0.3437499999999997
 40
0.3749999999999997
 40
0.3749999999999997
 40
0.4062499999999997
 40
0.4062499999999997
 40
0.4374999999999998
 40
0.4374999999999998
 40
0.4687499999999998
 40
0.4687499999999998
 40
0.4999999999999998
 40
0.4999999999999998
 40
0.5312499999999999
 40
0.5312499999999999
 40
0.5625
 40
0.5625
 40
0.59375
 40
0.59375
 40
0.625
 40
0.625
 40
0.6562500000000001
 40
0.6562500000000001
 40
0.6875000000000001
 40
0.6875000000000001
 40
0.7187500000000001
 40
0.7187500000000001
 40
0.7500000000000001
 40
0.7500000000000001
 40
0.7812500000000002
 40
0.7812500000000002
 40
0.8125000000000002
 40
0.8125000000000002
 40
0.8437500000000002
 40
0.8437500000000002
 40
0.8750000000000003
 40
0.8750000000000003
 40
0.9062500000000003
 40
0.9062500000000003
 40
0.9375000000000003
 40
0.9375000000000003
 40
1.0
 40
1.0
 40
1.03125
 40
1.03125
 10
217.8148153311066
 20
115.5690367752093
 30
0.0
 10
217.8148153311066
 20
115.0692316702733
 30
0.0
 10
217.7977925869503
 20
114.905569786276
 30
0.0
 10
217.7312694060799
 20
114.5838521949839
 30
0.0
 10
217.680889902845
 20
114.4240710993452
 30
0.0
 10
217.5504118050243
 20
114.12101250119
 30
0.0
 10
217.4707581608558
 20
113.9774905785279
 30
0.0
 10
217.2831143056627
 20
113.7061547838532
 30
0.0
 10
217.1748113372999
 20
113.5786881093959
 30
0.0
 10
216.821124782794
 20
113.2358618118826
 30
0.0
 10
216.5379794843637
 20
113.0517800253848
 30
0.0
 10
216.0819730841253
 20
112.8659843843353
 30
0.0
 10
215.9221818128655
 20
112.8178889875944
 30
0.0
 10
215.5978611591644
 20
112.7533809817898
 30
0.0
 10
215.4345413859737
 20
112.7368384544702
 30
0.0
 10
215.1056008788299
 20
112.7349163220559
 30
0.0
 10
214.9384376985057
 20
112.7500507112611
 30
0.0
 10
214.6150517816711
 20
112.811439201616
 30
0.0
 10
214.4575736821567
 20
112.8573967757379
 30
0.0
 10
214.1512082819426
 20
112.9804671537241
 30
0.0
 10
214.002982293827
 20
113.0577978776806
 30
0.0
 10
213.7284414569446
 20
113.2374163167675
 30
0.0
 10
213.6003472637375
 20
113.3403237992694
 30
0.0
 10
213.3633212864595
 20
113.5735632304332
 30
0.0
 10
213.2581962394298
 20
113.7001967601772
 30
0.0
 10
213.0743084364869
 20
113.9719483378662
 30
0.0
 10
212.9947746266249
 20
114.1189321784655
 30
0.0
 10
212.8673642714454
 20
114.4236720839828
 30
0.0
 10
212.81934187333
 20
114.5806330419276
 30
0.0
 10
212.754348871918
 20
114.9036588568818
 30
0.0
 10
212.7377309356475
 20
115.0706673357063
 30
0.0
 10
212.7376338260434
 20
115.399520660712
 30
0.0
 10
212.7536206352506
 20
115.5630871269227
 30
0.0
 10
212.818566625873
 20
115.8884522327609
 30
0.0
 10
212.86713877015
 20
116.0471211353612
 30
0.0
 10
212.9934987046311
 20
116.3500130442424
 30
0.0
 10
213.0723585154402
 20
116.4965636962163
 30
0.0
 10
213.2575854661155
 20
116.7708367219258
 30
0.0
 10
213.362510208474
 20
116.8969998559864
 30
0.0
 10
213.5965049362985
 20
117.127861523358
 30
0.0
 10
213.7270066959115
 20
117.2332063977843
 30
0.0
 10
214.0021837416608
 20
117.4134508982009
 30
0.0
 10
214.1476300529041
 20
117.4895018755511
 30
0.0
 10
214.4543929760858
 20
117.613246872467
 30
0.0
 10
214.6144709889335
 20
117.6600534784998
 30
0.0
 10
214.9371110759472
 20
117.7214276346949
 30
0.0
 10
215.1018762621894
 20
117.7366383869329
 30
0.0
 10
215.4341385548125
 20
117.7349627907402
 30
0.0
 10
215.597737352157
 20
117.7182367638591
 30
0.0
 10
215.9200740165501
 20
117.6542701166772
 30
0.0
 10
216.0804464032337
 20
117.6062471560503
 30
0.0
 10
216.3859597892988
 20
117.481882701176
 30
0.0
 10
216.5313378879104
 20
117.4059286927169
 30
0.0
 10
216.8073528067179
 20
117.2264461851507
 30
0.0
 10
216.9384151880763
 20
117.1220431802851
 30
0.0
 10
217.174251941646
 20
116.8935933459919
 30
0.0
 10
217.2805816123154
 20
116.7687477258989
 30
0.0
 10
217.4691486229646
 20
116.4969208492337
 30
0.0
 10
217.5499736027191
 20
116.3513616553189
 30
0.0
 10
217.7448270936348
 20
115.8997057425104
 30
0.0
 10
217.8148153311066
 20
115.5690367752093
 30
0.0
 10
217.8148153311066
 20
115.0692316702733
 30
0.0
  0
LINE
  5
11D
330
1F
100
AcDbEntity
  8
0
  6
HIDDEN
 62
     7
370
     0
100
AcDbLine
 10
183.2762488014
 20
89.9119094508
 30
0.0
 11
183.2762488014
 21
140.559757293
 31
0.0
  0
LINE
  5
11E
330
1F
100
AcDbEntity
  8
0
  6
HIDDEN
 62
     7
370
     0
100
AcDbLine
 10
188.2262488014
 20
135.0858333719
 30
0.0
 11
195.4718691471
 21
135.0858333719
 31
0.0
  0
LWPOLYLINE
  5
11F
330
1F
100
AcDbEntity
  8
0
  6
HIDDEN
 62
     7
370
     0
100
AcDbPolyline
 90
        2
 70
   128
 43
0.0
 10
203.1862488014
 20
135.0858333719
 10
203.1862488014
 20
135.0858333719
  0
LWPOLYLINE
  5
120
330
1F
100
AcDbEntity
  8
0
  6
HIDDEN
 62
     7
370
     0
100
AcDbPolyline
 90
        2
 70
   128
 43
0.0
 10
209.2262488014
 20
135.0858333719
 10
209.2262488014
 20
135.0858333719
  0
LWPOLYLINE
  5
121
330
1F
100
AcDbEntity
  8
0
  6
HIDDEN
 62
     7
370
     0
100
AcDbPolyline
 90
        2
 70
   128
 43
0.0
 10
199.3662488014
 20
135.0858333719
 10
199.3662488014
 20
135.0858333719
  0
SPLINE
  5
122
330
1F
100
AcDbEntity
  8
0
  6
HIDDEN
 62
     7
370
     0
100
AcDbSpline
210
0.0
220
0.0
230
1.0
 70
     8
 71
     3
 72
    14
 73
    10
 74
     0
 42
0.00000001
 43
0.00000001
 40
0.0
 40
0.0
 40
0.0
 40
0.0
 40
0.5000000000000012
 40
0.5000000000000012
 40
0.7500000000000018
 40
0.7500000000000018
 40
0.8750000000000009
 40
0.8750000000000009
 40
1.0
 40
1.0
 40
1.0
 40
1.0
 10
152.5262488013922
 20
94.42920181339106
 30
0.0
 10
153.1423257051475
 20
94.43492793362022
 30
0.0
 10
153.7564577012634
 20
94.44481829902223
 30
0.0
 10
154.670354331777
 20
94.47545326669201
 30
0.0
 10
154.9737932593246
 20
94.48824672433
 30
0.0
 10
155.424929874962
 20
94.51617255228939
 30
0.0
 10
155.5746361245046
 20
94.52694217244914
 30
0.0
 10
155.8714772607526
 20
94.55407488804869
 30
0.0
 10
156.0188628132559
 20
94.56989186087591
 30
0.0
 10
156.1626469402702
 20
94.5935509497504
 30
0.0
  0
SPLINE
  5
123
330
1F
100
AcDbEntity
  8
0
  6
HIDDEN
 62
     7
370
     0
100
AcDbSpline
210
0.0
220
0.0
230
1.0
 70
     8
 71
     3
 72
    10
 73
     6
 74
     0
 42
0.00000001
 43
0.00000001
 40
0.0
 40
0.0
 40
0.0
 40
0.0
 40
0.5
 40
0.5
 40
1.0
 40
1.0
 40
1.0
 40
1.0
 10
156.1626469402702
 20
94.5935509497504
 30
0.0
 10
156.7902745959776
 20
94.69682450848599
 30
0.0
 10
157.441475341009
 20
94.78564962023752
 30
0.0
 10
158.7501800450212
 20
94.94775732710787
 30
0.0
 10
159.4112244823123
 20
95.02105679139444
 30
0.0
 10
160.0762488013919
 20
95.08974460612212
 30
0.0
  0
SPLINE
  5
124
330
1F
100
AcDbEntity
  8
0
  6
HIDDEN
 62
     7
370
     0
100
AcDbSpline
210
0.0
220
0.0
230
1.0
 70
     8
 71
     3
 72
    18
 73
    14
 74
     0
 42
0.00000001
 43
0.00000001
 40
0.0
 40
0.0
 40
0.0
 40
0.0
 40
0.0624999999999991
 40
0.0624999999999991
 40
0.1249999999999982
 40
0.1249999999999982
 40
0.2499999999999995
 40
0.2499999999999995
 40
0.4999999999999997
 40
0.4999999999999997
 40
0.7499999999999998
 40
0.7499999999999998
 40
1.0
 40
1.0
 40
1.0
 40
1.0
 10
160.0762488013922
 20
95.089744606122
 30
0.0
 10
160.1128210117425
 20
95.09352200964946
 30
0.0
 10
160.151471485178
 20
95.09296498176634
 30
0.0
 10
160.2255629788918
 20
95.08290577660448
 30
0.0
 10
160.260913272646
 20
95.0735518951799
 30
0.0
 10
160.3555075700354
 20
95.0391674687461
 30
0.0
 10
160.4056457431744
 20
95.00845573408327
 30
0.0
 10
160.5348390147555
 20
94.91252642404524
 30
0.0
 10
160.5931191594967
 20
94.84401092992798
 30
0.0
 10
160.6933142559202
 20
94.70743897999536
 30
0.0
 10
160.7333295073668
 20
94.63867407749245
 30
0.0
 10
160.8017289281846
 20
94.50363864838478
 30
0.0
 10
160.8300906520465
 20
94.43702062233162
 30
0.0
 10
160.8546445646525
 20
94.37146215463541
 30
0.0
  0
SPLINE
  5
125
330
1F
100
AcDbEntity
  8
0
  6
HIDDEN
 62
     7
370
     0
100
AcDbSpline
210
0.0
220
0.0
230
1.0
 70
     8
 71
     3
 72
    14
 73
    10
 74
     0
 42
0.00000001
 43
0.00000001
 40
0.0
 40
0.0
 40
0.0
 40
0.0
 40
0.25
 40
0.25
 40
0.5
 40
0.5
 40
0.75
 40
0.75
 40
1.0
 40
1.0
 40
1.0
 40
1.0
 10
160.8546445646525
 20
94.37146215463541
 30
0.0
 10
160.8930809494735
 20
94.26883775692387
 30
0.0
 10
160.9618823428653
 20
94.16964133348431
 30
0.0
 10
161.1051683550243
 20
93.97874930415779
 30
0.0
 10
161.1803504101312
 20
93.88649203812489
 30
0.0
 10
161.3125376987813
 20
93.70688471630987
 30
0.0
 10
161.3700548942511
 20
93.61957516186553
 30
0.0
 10
161.4520996925434
 20
93.4496413283498
 30
0.0
 10
161.4762488013922
 20
93.36773898647863
 30
0.0
 10
161.4762488013922
 20
93.2906851126427
 30
0.0
  0
LINE
  5
126
330
1F
100
AcDbEntity
  8
0
  6
HIDDEN
 62
     7
370
     0
100
AcDbLine
 10
161.4762488014
 20
93.2906851126
 30
0.0
 11
161.4762488014
 21
92.0073864781
 31
0.0
  0
LINE
  5
127
330
1F
100
AcDbEntity
  8
0
  6
HIDDEN
 62
     7
370
     0
100
AcDbLine
 10
157.4762488014
 20
138.2638794641
 30
0.0
 11
157.4762488014
 21
137.0799410443
 31
0.0
  0
SPLINE
  5
128
330
1F
100
AcDbEntity
  8
0
  6
HIDDEN
 62
     7
370
     0
100
AcDbSpline
210
0.0
220
0.0
230
1.0
 70
     8
 71
     3
 72
    18
 73
    14
 74
     0
 42
0.00000001
 43
0.00000001
 40
0.0
 40
0.0
 40
0.0
 40
0.0
 40
0.2499999999999996
 40
0.2499999999999996
 40
0.5
 40
0.5
 40
0.7500000000000003
 40
0.7500000000000003
 40
0.8750000000000007
 40
0.8750000000000007
 40
0.9375000000000003
 40
0.9375000000000003
 40
1.0
 40
1.0
 40
1.0
 40
1.0
 10
157.4762488013922
 20
137.0799410442816
 30
0.0
 10
157.4762488013922
 20
136.9967341354244
 30
0.0
 10
157.440399701454
 20
136.9079974801109
 30
0.0
 10
157.3155279654201
 20
136.7258722895506
 30
0.0
 10
157.2251275477722
 20
136.630742240924
 30
0.0
 10
157.00288489303
 20
136.4415607317997
 30
0.0
 10
156.8731201065842
 20
136.3466155637049
 30
0.0
 10
156.6324826492727
 20
136.208336856125
 30
0.0
 10
156.5447153511353
 20
136.1626264228226
 30
0.0
 10
156.3901912639284
 20
136.1048031176012
 30
0.0
 10
156.3335803778737
 20
136.0870883535633
 30
0.0
 10
156.2095363469671
 20
136.0625490503304
 30
0.0
 10
156.1418216719488
 20
136.0565699117921
 30
0.0
 10
156.0762488013922
 20
136.0589207637464
 30
0.0
  0
SPLINE
  5
129
330
1F
100
AcDbEntity
  8
0
  6
HIDDEN
 62
     7
370
     0
100
AcDbSpline
210
0.0
220
0.0
230
1.0
 70
     8
 71
     3
 72
    10
 73
     6
 74
     0
 42
0.00000001
 43
0.00000001
 40
0.0
 40
0.0
 40
0.0
 40
0.0
 40
0.5
 40
0.5
 40
1.0
 40
1.0
 40
1.0
 40
1.0
 10
156.0762488013922
 20
136.0589207637464
 30
0.0
 10
155.4886632543016
 20
136.0799862839828
 30
0.0
 10
154.8979168608413
 20
136.090744769855
 30
0.0
 10
153.7138976955424
 20
136.1041095503907
 30
0.0
 10
153.1204837073369
 20
136.1062521930552
 30
0.0
 10
152.5262488013922
 20
136.1057711373137
 30
0.0
  0
SPLINE
  5
12A
330
1F
100
AcDbEntity
  8
0
  6
HIDDEN
 62
     7
370
     0
100
AcDbSpline
210
0.0
220
0.0
230
1.0
 70
     8
 71
     3
 72
     8
 73
     4
 74
     0
 42
0.00000001
 43
0.00000001
 40
0.0000005099763571
 40
0.0000005099763571
 40
0.0000005099763571
 40
0.0000005099763571
 40
0.0000262827998697
 40
0.0000262827998697
 40
0.0000262827998697
 40
0.0000262827998697
 10
152.5262488013922
 20
136.1057711373137
 30
0.0
 10
152.5228800621645
 20
136.1024494683578
 30
0.0
 10
152.5195316091853
 20
136.0991215110789
 30
0.0
 10
152.516203870974
 20
136.0957872642063
 30
0.0
  0
SPLINE
  5
12B
330
1F
100
AcDbEntity
  8
0
  6
HIDDEN
 62
     7
370
     0
100
AcDbSpline
210
0.0
220
0.0
230
1.0
 70
     8
 71
     3
 72
     8
 73
     4
 74
     0
 42
0.00000001
 43
0.00000001
 40
0.0000005954826279
 40
0.0000005954826279
 40
0.0000005954826279
 40
0.0000005954826279
 40
0.0000302093805348
 40
0.0000302093805348
 40
0.0000302093805348
 40
0.0000302093805348
 10
152.5162038709826
 20
94.44101694304295
 30
0.0
 10
152.5195198983028
 20
94.43707016344716
 30
0.0
 10
152.5228684496951
 20
94.43313177231721
 30
0.0
 10
152.5262488013922
 20
94.42920181339105
 30
0.0
  0
LINE
  5
12C
330
1F
100
AcDbEntity
  8
0
  6
HIDDEN
 62
     7
370
     0
100
AcDbLine
 10
181.2762488014
 20
139.4562642336
 30
0.0
 11
181.2762488014
 21
91.0154025102
 31
0.0
  0
SPLINE
  5
12D
330
1F
100
AcDbEntity
  8
0
  6
HIDDEN
 62
     7
370
     0
100
AcDbSpline
210
0.0
220
0.0
230
1.0
 70
     8
 71
     3
 72
    12
 73
     8
 74
     0
 42
0.00000001
 43
0.00000001
 40
0.0
 40
0.0
 40
0.0
 40
0.0
 40
0.1205464713236028
 40
0.2485930839663096
 40
0.5007193850167737
 40
0.7537057457121326
 40
1.0
 40
1.0
 40
1.0
 40
1.0
 10
171.2713990059638
 20
91.71123374909685
 30
0.0
 10
171.1883377215012
 20
91.70341180583907
 30
0.0
 10
171.0170472586941
 20
91.68728125489294
 30
0.0
 10
170.6508419197648
 20
91.65431298421464
 30
0.0
 10
170.3468829170849
 20
91.61621307077823
 30
0.0
 10
170.088437829257
 20
91.58433604557402
 30
0.0
 10
170.0594528653686
 20
91.58031065933237
 30
0.0
 10
170.045154633368
 20
91.57832494333847
 30
0.0
  0
SPLINE
  5
12E
330
1F
100
AcDbEntity
  8
0
  6
HIDDEN
 62
     7
370
     0
100
AcDbSpline
210
0.0
220
0.0
230
1.0
 70
     8
 71
     3
 72
    20
 73
    16
 74
     0
 42
0.00000001
 43
0.00000001
 40
0.0
 40
0.0
 40
0.0
 40
0.0
 40
0.0014371424778236
 40
0.0850459318463898
 40
0.1697600561423239
 40
0.2540984869915266
 40
0.3373296983306948
 40
0.4202348334910951
 40
0.50356040680426
 40
0.5868467937449193
 40
0.6687603287984166
 40
0.7507349414639855
 40
0.8338929048078365
 40
0.9172507849620606
 40
1.0
 40
1.0
 40
1.0
 40
1.0
 10
178.4593154188429
 20
91.156775254995
 30
0.0
 10
178.4597683886203
 20
91.15667142916631
 30
0.0
 10
178.4865738288698
 20
91.15052731716159
 30
0.0
 10
178.3905453174566
 20
91.17262413925442
 30
0.0
 10
178.1574997801084
 20
91.22450376922932
 30
0.0
 10
177.7637147149344
 20
91.30956090710846
 30
0.0
 10
177.2392563341025
 20
91.4113161570413
 30
0.0
 10
176.6002930329933
 20
91.51921235856707
 30
0.0
 10
175.867127745435
 20
91.62025828423225
 30
0.0
 10
175.0745646594151
 20
91.70466740173357
 30
0.0
 10
174.2498153995434
 20
91.76207116238044
 30
0.0
 10
173.423099884545
 20
91.78882871358513
 30
0.0
 10
172.6288243497728
 20
91.7843956411144
 30
0.0
 10
171.8854172155964
 20
91.75707447399127
 30
0.0
 10
171.4755711437694
 20
91.72647661755487
 30
0.0
 10
171.2713990059638
 20
91.71123374909685
 30
0.0
  0
SPLINE
  5
12F
330
1F
100
AcDbEntity
  8
0
  6
HIDDEN
 62
     7
370
     0
100
AcDbSpline
210
0.0
220
0.0
230
1.0
 70
     8
 71
     3
 72
    20
 73
    16
 74
     0
 42
0.00000001
 43
0.00000001
 40
0.0
 40
0.0
 40
0.0
 40
0.0
 40
0.0828065917079229
 40
0.166194087582821
 40
0.2493856421482905
 40
0.3315158327405055
 40
0.4133810396657588
 40
0.4968358491751835
 40
0.5800415793685884
 40
0.6629791768815302
 40
0.7460494348820437
 40
0.8302848770890748
 40
0.9148462360056123
 40
0.9984038495213694
 40
1.0
 40
1.0
 40
1.0
 40
1.0
 10
171.271306285682
 20
138.7604164019004
 30
0.0
 10
171.4759200689431
 20
138.7452265147452
 30
0.0
 10
171.8865830405083
 20
138.714740180455
 30
0.0
 10
172.6303305558354
 20
138.6874353812528
 30
0.0
 10
173.4253220021674
 20
138.6830203164191
 30
0.0
 10
174.2524523822597
 20
138.7096891304006
 30
0.0
 10
175.0781936526775
 20
138.7671529933585
 30
0.0
 10
175.8704707763526
 20
138.8517405573424
 30
0.0
 10
176.6032942001618
 20
138.9529141442318
 30
0.0
 10
177.241203701318
 20
139.0606997074678
 30
0.0
 10
177.7650586608287
 20
139.1623070789097
 30
0.0
 10
178.1582031467331
 20
139.2471971084829
 30
0.0
 10
178.3908657367029
 20
139.2990323696671
 30
0.0
 10
178.4869359775702
 20
139.3211346865638
 30
0.0
 10
178.4597698588068
 20
139.3149777539687
 30
0.0
 10
178.4592606480399
 20
139.314862346376
 30
0.0
  0
SPLINE
  5
130
330
1F
100
AcDbEntity
  8
0
  6
HIDDEN
 62
     7
370
     0
100
AcDbSpline
210
0.0
220
0.0
230
1.0
 70
     8
 71
     3
 72
    12
 73
     8
 74
     0
 42
0.00000001
 43
0.00000001
 40
0.0
 40
0.0
 40
0.0
 40
0.0
 40
0.246841615383369
 40
0.4995714204662966
 40
0.7516343865010906
 40
0.8210595748183471
 40
1.0
 40
1.0
 40
1.0
 40
1.0
 10
170.0447495434611
 20
138.8933729557187
 30
0.0
 10
170.0588750567045
 20
138.8913543407749
 30
0.0
 10
170.0874630348897
 20
138.8872689586028
 30
0.0
 10
170.3480560863044
 20
138.8552745172357
 30
0.0
 10
170.6170469746352
 20
138.8208000266062
 30
0.0
 10
170.9761615710703
 20
138.7880962886581
 30
0.0
 10
171.1477102773368
 20
138.7720077445379
 30
0.0
 10
171.271306285682
 20
138.7604164019004
 30
0.0
  0
LINE
  5
131
330
1F
100
AcDbEntity
  8
0
  6
HIDDEN
 62
     7
370
     0
100
AcDbLine
 10
151.3762488014
 20
95.582672847
 30
0.0
 11
151.3827685993
 21
95.5850149293
 31
0.0
  0
SPLINE
  5
132
330
1F
100
AcDbEntity
  8
0
  6
HIDDEN
 62
     7
370
     0
100
AcDbSpline
210
0.0
220
0.0
230
1.0
 70
    11
 71
     3
 72
    56
 73
    52
 74
     0
 42
0.00000001
 43
0.00000001
 40
0.0
 40
0.0
 40
0.0
 40
0.0
 40
0.0625000000000001
 40
0.0625000000000001
 40
0.0937500000000002
 40
0.0937500000000002
 40
0.1250000000000004
 40
0.1250000000000004
 40
0.1562500000000005
 40
0.1562500000000005
 40
0.1875000000000006
 40
0.1875000000000006
 40
0.2187500000000007
 40
0.2187500000000007
 40
0.2500000000000008
 40
0.2500000000000008
 40
0.3125000000000008
 40
0.3125000000000008
 40
0.3437500000000007
 40
0.3437500000000007
 40
0.3750000000000007
 40
0.3750000000000007
 40
0.4062500000000006
 40
0.4062500000000006
 40
0.4375000000000006
 40
0.4375000000000006
 40
0.4687500000000006
 40
0.4687500000000006
 40
0.5000000000000004
 40
0.5000000000000004
 40
0.5625000000000003
 40
0.5625000000000003
 40
0.6250000000000002
 40
0.6250000000000002
 40
0.6875000000000002
 40
0.6875000000000002
 40
0.7187500000000002
 40
0.7187500000000002
 40
0.7500000000000003
 40
0.7500000000000003
 40
0.7812500000000004
 40
0.7812500000000004
 40
0.8125000000000004
 40
0.8125000000000004
 40
0.8750000000000003
 40
0.8750000000000003
 40
0.9375000000000003
 40
0.9375000000000003
 40
0.9687500000000001
 40
0.9687500000000001
 40
1.0
 40
1.0
 40
1.0
 40
1.0
 10
177.0312508029938
 20
95.39830489610216
 30
0.0
 10
176.7754634924461
 20
95.4338281999957
 30
0.0
 10
176.4852736855028
 20
95.46937206896395
 30
0.0
 10
175.998620587212
 20
95.51584376887283
 30
0.0
 10
175.8282747450508
 20
95.53008968210433
 30
0.0
 10
175.4813013349598
 20
95.55437759630273
 30
0.0
 10
175.303363437725
 20
95.56455394262478
 30
0.0
 10
174.9384441601652
 20
95.58022927022866
 30
0.0
 10
174.7501095680699
 20
95.58571623144155
 30
0.0
 10
174.3762227156144
 20
95.59117622571728
 30
0.0
 10
174.1895325014445
 20
95.59123444897644
 30
0.0
 10
173.8166540105253
 20
95.58605030699964
 30
0.0
 10
173.6289497676029
 20
95.58073482852821
 30
0.0
 10
173.2620308680554
 20
95.56523244750493
 30
0.0
 10
173.0835811259909
 20
95.55513303974422
 30
0.0
 10
172.5627922226302
 20
95.51900119809031
 30
0.0
 10
172.2319085029592
 20
95.48657197707224
 30
0.0
 10
171.7954069446276
 20
95.43504548570513
 30
0.0
 10
171.658621405575
 20
95.41732087466116
 30
0.0
 10
171.4028967961212
 20
95.38192654815187
 30
0.0
 10
171.2852730680156
 20
95.36443002677127
 30
0.0
 10
171.075203614827
 20
95.33172763078277
 30
0.0
 10
170.981868776142
 20
95.31639582183671
 30
0.0
 10
170.8189230654628
 20
95.2887996624879
 30
0.0
 10
170.749220102613
 20
95.27651297937429
 30
0.0
 10
170.6385970362809
 20
95.25666798758783
 30
0.0
 10
170.5969153646704
 20
95.24898187506115
 30
0.0
 10
170.5407402242952
 20
95.2385644946839
 30
0.0
 10
170.5263019485346
 20
95.23584333700744
 30
0.0
 10
170.526142953432
 20
95.23581352542685
 30
0.0
 10
170.5818022911688
 20
95.24647565557481
 30
0.0
 10
170.8046270517032
 20
95.2864563273098
 30
0.0
 10
170.9665393372969
 20
95.31479257894212
 30
0.0
 10
171.3903308960327
 20
95.38080348790216
 30
0.0
 10
171.6451773185799
 20
95.41726336069338
 30
0.0
 10
172.0838209786937
 20
95.46911488367974
 30
0.0
 10
172.2405185149731
 20
95.4860025177397
 30
0.0
 10
172.5637184647517
 20
95.51669593836066
 30
0.0
 10
172.731391946172
 20
95.5306557453045
 30
0.0
 10
173.0789768123607
 20
95.55485517445568
 30
0.0
 10
173.2605402931796
 20
95.56515212328648
 30
0.0
 10
173.6267265679885
 20
95.5806580701484
 30
0.0
 10
173.8113839838308
 20
95.58592405204539
 30
0.0
 10
174.3699803903892
 20
95.59384687530088
 30
0.0
 10
174.7523147318598
 20
95.58813275192726
 30
0.0
 10
175.4796118762281
 20
95.55707366576499
 30
0.0
 10
175.8353059503281
 20
95.53138502971504
 30
0.0
 10
176.3186182272791
 20
95.48531301950695
 30
0.0
 10
176.4723158344956
 20
95.46871086109066
 30
0.0
 10
176.7647380593388
 20
95.43409100587633
 30
0.0
 10
176.903353282544
 20
95.41606708483796
 30
0.0
 10
177.0312508029938
 20
95.39830489610216
 30
0.0
  0
SPLINE
  5
133
330
1F
100
AcDbEntity
  8
0
  6
HIDDEN
 62
     7
370
     0
100
AcDbSpline
210
0.0
220
0.0
230
1.0
 70
    11
 71
     3
 72
    56
 73
    52
 74
     0
 42
0.00000001
 43
0.00000001
 40
0.0
 40
0.0
 40
0.0
 40
0.0
 40
0.0625000000000001
 40
0.0625000000000001
 40
0.0937500000000002
 40
0.0937500000000002
 40
0.1250000000000004
 40
0.1250000000000004
 40
0.1562500000000005
 40
0.1562500000000005
 40
0.1875000000000006
 40
0.1875000000000006
 40
0.2187500000000007
 40
0.2187500000000007
 40
0.2500000000000008
 40
0.2500000000000008
 40
0.3125000000000008
 40
0.3125000000000008
 40
0.3437500000000007
 40
0.3437500000000007
 40
0.3750000000000007
 40
0.3750000000000007
 40
0.4062500000000006
 40
0.4062500000000006
 40
0.4375000000000006
 40
0.4375000000000006
 40
0.4687500000000006
 40
0.4687500000000006
 40
0.5000000000000004
 40
0.5000000000000004
 40
0.5625000000000003
 40
0.5625000000000003
 40
0.6250000000000002
 40
0.6250000000000002
 40
0.6875000000000002
 40
0.6875000000000002
 40
0.7187500000000002
 40
0.7187500000000002
 40
0.7500000000000003
 40
0.7500000000000003
 40
0.7812500000000004
 40
0.7812500000000004
 40
0.8125000000000004
 40
0.8125000000000004
 40
0.8750000000000003
 40
0.8750000000000003
 40
0.9375000000000003
 40
0.9375000000000003
 40
0.9687500000000001
 40
0.9687500000000001
 40
1.0
 40
1.0
 40
1.0
 40
1.0
 10
177.0312508029938
 20
135.0733618477351
 30
0.0
 10
176.7754634924461
 20
135.0378385438415
 30
0.0
 10
176.4852736855028
 20
135.0022946748733
 30
0.0
 10
175.998620587212
 20
134.9558229749644
 30
0.0
 10
175.8282747450508
 20
134.9415770617329
 30
0.0
 10
175.4813013349598
 20
134.9172891475345
 30
0.0
 10
175.303363437725
 20
134.9071128012125
 30
0.0
 10
174.9384441601652
 20
134.8914374736086
 30
0.0
 10
174.7501095680699
 20
134.8859505123957
 30
0.0
 10
174.3762227156144
 20
134.88049051812
 30
0.0
 10
174.1895325014445
 20
134.8804322948608
 30
0.0
 10
173.8166540105253
 20
134.8856164368376
 30
0.0
 10
173.6289497676029
 20
134.890931915309
 30
0.0
 10
173.2620308680554
 20
134.9064342963323
 30
0.0
 10
173.0835811259909
 20
134.916533704093
 30
0.0
 10
172.5627922226302
 20
134.9526655457469
 30
0.0
 10
172.2319085029592
 20
134.985094766765
 30
0.0
 10
171.7954069446276
 20
135.0366212581321
 30
0.0
 10
171.658621405575
 20
135.054345869176
 30
0.0
 10
171.4028967961212
 20
135.0897401956854
 30
0.0
 10
171.2852730680156
 20
135.1072367170659
 30
0.0
 10
171.075203614827
 20
135.1399391130545
 30
0.0
 10
170.981868776142
 20
135.1552709220005
 30
0.0
 10
170.8189230654628
 20
135.1828670813493
 30
0.0
 10
170.749220102613
 20
135.195153764463
 30
0.0
 10
170.6385970362809
 20
135.2149987562494
 30
0.0
 10
170.5969153646704
 20
135.2226848687761
 30
0.0
 10
170.5407402242952
 20
135.2331022491533
 30
0.0
 10
170.5263019485346
 20
135.2358234068298
 30
0.0
 10
170.526142953432
 20
135.2358532184104
 30
0.0
 10
170.5818022911688
 20
135.2251910882624
 30
0.0
 10
170.8046270517032
 20
135.1852104165274
 30
0.0
 10
170.9665393372969
 20
135.1568741648951
 30
0.0
 10
171.3903308960327
 20
135.0908632559351
 30
0.0
 10
171.6451773185799
 20
135.0544033831438
 30
0.0
 10
172.0838209786937
 20
135.0025518601575
 30
0.0
 10
172.2405185149731
 20
134.9856642260975
 30
0.0
 10
172.5637184647517
 20
134.9549708054766
 30
0.0
 10
172.731391946172
 20
134.9410109985327
 30
0.0
 10
173.0789768123607
 20
134.9168115693815
 30
0.0
 10
173.2605402931796
 20
134.9065146205508
 30
0.0
 10
173.6267265679885
 20
134.8910086736888
 30
0.0
 10
173.8113839838308
 20
134.8857426917918
 30
0.0
 10
174.3699803903892
 20
134.8778198685363
 30
0.0
 10
174.7523147318598
 20
134.88353399191
 30
0.0
 10
175.4796118762281
 20
134.9145930780722
 30
0.0
 10
175.8353059503281
 20
134.9402817141222
 30
0.0
 10
176.3186182272791
 20
134.9863537243303
 30
0.0
 10
176.4723158344956
 20
135.0029558827466
 30
0.0
 10
176.7647380593388
 20
135.0375757379609
 30
0.0
 10
176.903353282544
 20
135.0555996589993
 30
0.0
 10
177.0312508029938
 20
135.0733618477351
 30
0.0
  0
SPLINE
  5
134
330
1F
100
AcDbEntity
  8
0
  6
HIDDEN
 62
     7
370
     0
100
AcDbSpline
210
0.0
220
0.0
230
1.0
 70
    11
 71
     3
 72
    22
 73
    18
 74
     0
 42
0.00000001
 43
0.00000001
 40
0.0
 40
0.0
 40
0.0
 40
0.0
 40
0.1250000000000001
 40
0.1250000000000001
 40
0.2500000000000001
 40
0.2500000000000001
 40
0.3750000000000001
 40
0.3750000000000001
 40
0.5000000000000001
 40
0.5000000000000001
 40
0.6250000000000001
 40
0.6250000000000001
 40
0.75
 40
0.75
 40
0.875
 40
0.875
 40
1.0
 40
1.0
 40
1.0
 40
1.0
 10
177.0312508029938
 20
135.0733618477351
 30
0.0
 10
177.1901936319629
 20
135.0954355557821
 30
0.0
 10
177.3308851798533
 20
135.1121193737697
 30
0.0
 10
177.5768714173157
 20
135.138341068652
 30
0.0
 10
177.682909499997
 20
135.1479203744973
 30
0.0
 10
177.853401540564
 20
135.1619996415765
 30
0.0
 10
177.9174542400277
 20
135.1665062178235
 30
0.0
 10
178.0039582911207
 20
135.1723703876614
 30
0.0
 10
178.0261917864809
 20
135.1737123201797
 30
0.0
 10
178.0263055924928
 20
135.1737194599292
 30
0.0
 10
178.0048476640075
 20
135.172426824443
 30
0.0
 10
177.9188618711286
 20
135.1666053949328
 30
0.0
 10
177.853547724379
 20
135.162005925657
 30
0.0
 10
177.6845418904436
 20
135.1480609048471
 30
0.0
 10
177.5805828525678
 20
135.1387085179888
 30
0.0
 10
177.3330724063289
 20
135.1123800475224
 30
0.0
 10
177.1901883162452
 20
135.0954348175444
 30
0.0
 10
177.0312508029942
 20
135.0733618477352
 30
0.0
  0
SPLINE
  5
135
330
1F
100
AcDbEntity
  8
0
  6
HIDDEN
 62
     7
370
     0
100
AcDbSpline
210
0.0
220
0.0
230
1.0
 70
    11
 71
     3
 72
    22
 73
    18
 74
     0
 42
0.00000001
 43
0.00000001
 40
0.0
 40
0.0
 40
0.0
 40
0.0
 40
0.1250000000000001
 40
0.1250000000000001
 40
0.2500000000000001
 40
0.2500000000000001
 40
0.3750000000000001
 40
0.3750000000000001
 40
0.5000000000000001
 40
0.5000000000000001
 40
0.6250000000000001
 40
0.6250000000000001
 40
0.75
 40
0.75
 40
0.875
 40
0.875
 40
1.0
 40
1.0
 40
1.0
 40
1.0
 10
177.0312508029938
 20
95.39830489610216
 30
0.0
 10
177.1901936319629
 20
95.37623118805512
 30
0.0
 10
177.3308851798533
 20
95.35954737006749
 30
0.0
 10
177.5768714173157
 20
95.3333256751852
 30
0.0
 10
177.682909499997
 20
95.32374636933989
 30
0.0
 10
177.853401540564
 20
95.30966710226075
 30
0.0
 10
177.9174542400277
 20
95.3051605260137
 30
0.0
 10
178.0039582911207
 20
95.29929635617579
 30
0.0
 10
178.0261917864809
 20
95.29795442365749
 30
0.0
 10
178.0263055924928
 20
95.29794728390799
 30
0.0
 10
178.0048476640075
 20
95.29923991939421
 30
0.0
 10
177.9188618711286
 20
95.30506134890442
 30
0.0
 10
177.853547724379
 20
95.30966081818025
 30
0.0
 10
177.6845418904436
 20
95.3236058389901
 30
0.0
 10
177.5805828525678
 20
95.33295822584843
 30
0.0
 10
177.3330724063289
 20
95.35928669631485
 30
0.0
 10
177.1901883162452
 20
95.37623192629286
 30
0.0
 10
177.0312508029942
 20
95.39830489610208
 30
0.0
  0
LINE
  5
136
330
1F
100
AcDbEntity
  8
0
  6
HIDDEN
 62
     7
370
     0
100
AcDbLine
 10
183.2762488014
 20
98.2358333719
 30
0.0
 11
183.2762488014
 21
132.2171485272
 31
0.0
  0
LINE
  5
137
330
1F
100
AcDbEntity
  8
0
  6
HIDDEN
 62
     7
370
     0
100
AcDbLine
 10
195.4718691471
 20
135.0858333719
 30
0.0
 11
199.3923964246
 21
135.0858333719
 31
0.0
  0
LINE
  5
138
330
1F
100
AcDbEntity
  8
0
  6
HIDDEN
 62
     7
370
     0
100
AcDbLine
 10
203.1601011782
 20
135.0858333719
 30
0.0
 11
209.2262488014
 21
135.0858333719
 31
0.0
  0
LINE
  5
139
330
1F
100
AcDbEntity
  8
0
  6
HIDDEN
 62
     7
370
     0
100
AcDbLine
 10
164.2802233976
 20
132.2358333719
 30
0.0
 11
164.2802233976
 21
98.2358333719
 31
0.0
  0
LWPOLYLINE
  5
13A
330
1F
100
AcDbEntity
  8
0
  6
HIDDEN
 62
     7
370
     0
100
AcDbPolyline
 90
        2
 70
   128
 43
0.0
 10
164.2802233976
 20
98.2358333719
 10
164.2802233976
 20
98.2358333719
  0
LWPOLYLINE
  5
13B
330
1F
100
AcDbEntity
  8
0
  6
HIDDEN
 62
     7
370
     0
100
AcDbPolyline
 90
       16
 70
   128
 43
0.0
 10
208.3213163761
 20
117.2849836523
 10
208.6561605396
 20
117.4548163591
 10
208.9118947779
 20
117.5161371915
 10
209.0696784488
 20
117.4644284757
 10
209.117887197
 20
117.3034997345
 10
209.0529693519
 20
117.0452070292
 10
208.8797075891
 20
116.708579491
 10
208.6108665773
 20
116.3184173932
 10
208.2662525705
 20
115.9034650463
 10
207.8712542268
 20
115.4942931269
 10
207.4549721564
 20
115.1210464511
 10
207.048075
 20
114.8112231244
 10
206.680539986
 20
114.58764868
 10
206.3794444259
 20
114.4667944599
 10
206.1669708545
 20
114.4575641256
 10
206.0587727821
 20
114.5606377011
  0
SPLINE
  5
13C
330
1F
100
AcDbEntity
  8
0
  6
HIDDEN
 62
     7
370
     0
100
AcDbSpline
210
0.0
220
0.0
230
1.0
 70
     8
 71
     3
 72
    12
 73
     8
 74
     0
 42
0.00000001
 43
0.00000001
 40
0.0
 40
0.0
 40
0.0
 40
0.0
 40
0.5
 40
0.5
 40
0.7499999999999999
 40
0.7499999999999999
 40
1.0
 40
1.0
 40
1.0
 40
1.0
 10
207.4730089507014
 20
113.1423437101908
 30
0.0
 10
207.2409844412147
 20
113.3748133688434
 30
0.0
 10
207.0035848652046
 20
113.6064269570377
 30
0.0
 10
206.6357197794725
 20
113.961573926374
 30
0.0
 10
206.5123780305205
 20
114.080709628663
 30
0.0
 10
206.2775315645686
 20
114.3178709654431
 30
0.0
 10
206.1648754989082
 20
114.4372442732281
 30
0.0
 10
206.0587727821161
 20
114.5606377011406
 30
0.0
  0
SPLINE
  5
13D
330
1F
100
AcDbEntity
  8
0
  6
HIDDEN
 62
     7
370
     0
100
AcDbSpline
210
0.0
220
0.0
230
1.0
 70
     8
 71
     3
 72
    38
 73
    34
 74
     0
 42
0.00000001
 43
0.00000001
 40
0.0
 40
0.0
 40
0.0
 40
0.0
 40
0.0625000000000001
 40
0.0625000000000001
 40
0.1250000000000002
 40
0.1250000000000002
 40
0.1875000000000003
 40
0.1875000000000003
 40
0.2500000000000004
 40
0.2500000000000004
 40
0.3125000000000006
 40
0.3125000000000006
 40
0.3750000000000007
 40
0.3750000000000007
 40
0.4375000000000008
 40
0.4375000000000008
 40
0.5000000000000009
 40
0.5000000000000009
 40
0.562500000000001
 40
0.562500000000001
 40
0.6250000000000011
 40
0.6250000000000011
 40
0.6875000000000012
 40
0.6875000000000012
 40
0.7500000000000013
 40
0.7500000000000013
 40
0.8125000000000014
 40
0.8125000000000014
 40
0.875000000000001
 40
0.875000000000001
 40
0.9375000000000006
 40
0.9375000000000006
 40
1.0
 40
1.0
 40
1.0
 40
1.0
 10
208.3213163760698
 20
117.2849836523316
 30
0.0
 10
208.4964006518358
 20
117.2443135142089
 30
0.0
 10
208.6642552022332
 20
117.1806935447255
 30
0.0
 10
208.9917830880059
 20
117.0060127572367
 30
0.0
 10
209.1425004059822
 20
116.899516481616
 30
0.0
 10
209.4202588276708
 20
116.6563642201131
 30
0.0
 10
209.5404591924648
 20
116.5257906894891
 30
0.0
 10
209.7476463998817
 20
116.2579034119846
 30
0.0
 10
209.8325592974067
 20
116.1237177789556
 30
0.0
 10
209.9750266294933
 20
115.8488410690804
 30
0.0
 10
210.0324426984193
 20
115.7073396282584
 30
0.0
 10
210.1167919317657
 20
115.4198194229406
 30
0.0
 10
210.1443420849571
 20
115.2730894956349
 30
0.0
 10
210.164290612537
 20
114.9670957505977
 30
0.0
 10
210.1563614745151
 20
114.809521250781
 30
0.0
 10
210.092292985816
 20
114.488091222044
 30
0.0
 10
210.0358607755346
 20
114.3246663593563
 30
0.0
 10
209.8621173234855
 20
114.0075254585586
 30
0.0
 10
209.747171327435
 20
113.8597205080789
 30
0.0
 10
209.4755547262498
 20
113.6043300107071
 30
0.0
 10
209.3236727650828
 20
113.5010164914753
 30
0.0
 10
209.0216528752558
 20
113.3421872578041
 30
0.0
 10
208.8688039695047
 20
113.2846044274632
 30
0.0
 10
208.5784339590764
 20
113.2018300947093
 30
0.0
 10
208.4399635057868
 20
113.1760008618688
 30
0.0
 10
208.1766463065217
 20
113.1434246138039
 30
0.0
 10
208.0532265906125
 20
113.1370978708981
 30
0.0
 10
207.8301924340851
 20
113.1349197647844
 30
0.0
 10
207.7288886475197
 20
113.1391685233482
 30
0.0
 10
207.5633365259721
 20
113.1483432085407
 30
0.0
 10
207.4989230745691
 20
113.1529685419883
 30
0.0
 10
207.4339760337079
 20
113.1530249435795
 30
0.0
 10
207.4351744468368
 20
113.1478003885304
 30
0.0
 10
207.4730089507046
 20
113.1423437101871
 30
0.0
  0
SPLINE
  5
13E
330
1F
100
AcDbEntity
  8
0
  6
HIDDEN
 62
     7
370
     0
100
AcDbSpline
210
0.0
220
0.0
230
1.0
 70
     8
 71
     3
 72
    22
 73
    18
 74
     0
 42
0.00000001
 43
0.00000001
 40
0.0
 40
0.0
 40
0.0
 40
0.0
 40
0.125
 40
0.125
 40
0.25
 40
0.25
 40
0.375
 40
0.375
 40
0.5
 40
0.5
 40
0.625
 40
0.625
 40
0.75
 40
0.75
 40
0.875
 40
0.875
 40
1.0
 40
1.0
 40
1.0
 40
1.0
 10
206.0587727821158
 20
114.5606377011404
 30
0.0
 10
206.1048022248889
 20
114.6970252890507
 30
0.0
 10
206.1510621948109
 20
114.8353337522799
 30
0.0
 10
206.2420906919977
 20
115.1218321133374
 30
0.0
 10
206.2873693121441
 20
115.2726276490129
 30
0.0
 10
206.3695360358364
 20
115.5845984384766
 30
0.0
 10
206.4042884718111
 20
115.7402062780602
 30
0.0
 10
206.4753206814082
 20
116.0487266346305
 30
0.0
 10
206.5116741522428
 20
116.2022155918753
 30
0.0
 10
206.6217160590027
 20
116.495993836323
 30
0.0
 10
206.6993244199058
 20
116.6384563195889
 30
0.0
 10
206.9326230927207
 20
116.8639368644722
 30
0.0
 10
207.0784981381131
 20
116.9392549625724
 30
0.0
 10
207.3763031496867
 20
117.0558702956935
 30
0.0
 10
207.5300011437921
 20
117.1001542251158
 30
0.0
 10
207.8384822698113
 20
117.1868319781978
 30
0.0
 10
207.9937739695742
 20
117.2284375087521
 30
0.0
 10
208.1475075262755
 20
117.2705174752166
 30
0.0
  0
SPLINE
  5
13F
330
1F
100
AcDbEntity
  8
0
  6
HIDDEN
 62
     7
370
     0
100
AcDbSpline
210
0.0
220
0.0
230
1.0
 70
     8
 71
     3
 72
    12
 73
     8
 74
     0
 42
0.00000001
 43
0.00000001
 40
0.0
 40
0.0
 40
0.0
 40
0.0
 40
0.25
 40
0.25
 40
0.5
 40
0.5
 40
1.0
 40
1.0
 40
1.0
 40
1.0
 10
208.1475075262755
 20
117.2705174752166
 30
0.0
 10
208.1287763109083
 20
117.2801481074349
 30
0.0
 10
208.1226417250461
 20
117.2857901718586
 30
0.0
 10
208.1312348636085
 20
117.2924292408607
 30
0.0
 10
208.1451376714258
 20
117.293542603718
 30
0.0
 10
208.2021426792151
 20
117.293875548522
 30
0.0
 10
208.2594596334622
 20
117.2901721593839
 30
0.0
 10
208.3213163760698
 20
117.2849836523316
 30
0.0
  0
LINE
  5
140
330
1F
100
AcDbEntity
  8
0
  6
HIDDEN
 62
     7
370
     0
100
AcDbLine
 10
151.3762488014
 20
99.2058979741
 30
0.0
 11
151.3762488014
 21
131.2657687697
 31
0.0
  0
SPLINE
  5
141
330
1F
100
AcDbEntity
  8
0
  6
HIDDEN
 62
     7
370
     0
100
AcDbSpline
210
0.0
220
0.0
230
1.0
 70
     8
 71
     3
 72
    60
 73
    56
 74
     0
 42
0.00000001
 43
0.00000001
 40
-0.0312499999999999
 40
-0.0312499999999999
 40
0.0
 40
0.0
 40
0.0312499999999997
 40
0.0312499999999997
 40
0.0624999999999995
 40
0.0624999999999995
 40
0.0937499999999993
 40
0.0937499999999993
 40
0.1249999999999991
 40
0.1249999999999991
 40
0.1874999999999986
 40
0.1874999999999986
 40
0.218749999999998
 40
0.218749999999998
 40
0.2499999999999974
 40
0.2499999999999974
 40
0.312499999999997
 40
0.312499999999997
 40
0.3437499999999971
 40
0.3437499999999971
 40
0.3749999999999972
 40
0.3749999999999972
 40
0.4062499999999974
 40
0.4062499999999974
 40
0.4374999999999975
 40
0.4374999999999975
 40
0.4687499999999977
 40
0.4687499999999977
 40
0.4999999999999978
 40
0.4999999999999978
 40
0.5312499999999979
 40
0.5312499999999979
 40
0.5624999999999979
 40
0.5624999999999979
 40
0.6249999999999984
 40
0.6249999999999984
 40
0.6874999999999989
 40
0.6874999999999989
 40
0.7187499999999992
 40
0.7187499999999992
 40
0.7499999999999993
 40
0.7499999999999993
 40
0.7812499999999996
 40
0.7812499999999996
 40
0.8124999999999998
 40
0.8124999999999998
 40
0.8437500000000001
 40
0.8437500000000001
 40
0.8750000000000003
 40
0.8750000000000003
 40
0.9375000000000003
 40
0.9375000000000003
 40
0.9687500000000001
 40
0.9687500000000001
 40
1.0
 40
1.0
 40
1.03125
 40
1.03125
 10
212.0835698689567
 20
115.3780122592747
 30
0.0
 10
212.0835698689566
 20
115.0936544845626
 30
0.0
 10
212.0703299802051
 20
114.9540924187427
 30
0.0
 10
212.0185119112097
 20
114.6799206699304
 30
0.0
 10
211.9792319273726
 20
114.543857212895
 30
0.0
 10
211.8773076141127
 20
114.2864586518957
 30
0.0
 10
211.8149315842055
 20
114.1646318734558
 30
0.0
 10
211.6667603180115
 20
113.9343021150933
 30
0.0
 10
211.5810735615071
 20
113.8265866255237
 30
0.0
 10
211.2977483945259
 20
113.5365997422144
 30
0.0
 10
211.0662502090316
 20
113.3808998193491
 30
0.0
 10
210.6834591791053
 20
113.2284856926665
 30
0.0
 10
210.5469641567431
 20
113.190039580963
 30
0.0
 10
210.2708620552886
 20
113.142449916752
 30
0.0
 10
210.1312134951142
 20
113.1327498661437
 30
0.0
 10
209.7075714257607
 20
113.1445203668103
 30
0.0
 10
209.4284978423369
 20
113.2075817414944
 30
0.0
 10
209.0454417396399
 20
113.3675663098673
 30
0.0
 10
208.9241742166816
 20
113.4312875489074
 30
0.0
 10
208.6935337341712
 20
113.5794521558754
 30
0.0
 10
208.5844498102254
 20
113.6640450432694
 30
0.0
 10
208.3856947024522
 20
113.8490907364944
 30
0.0
 10
208.2949321952769
 20
113.9501615211943
 30
0.0
 10
208.1317554006621
 20
114.1716180231666
 30
0.0
 10
208.0603177220908
 20
114.2912040133874
 30
0.0
 10
207.9437727665281
 20
114.5416182092795
 30
0.0
 10
207.8974788353838
 20
114.6752582227455
 30
0.0
 10
207.8352863162219
 20
114.949247540765
 30
0.0
 10
207.8193096104195
 20
115.0880854019911
 30
0.0
 10
207.818272425089
 20
115.3695577301453
 30
0.0
 10
207.8338099770271
 20
115.5122210258538
 30
0.0
 10
207.894196126879
 20
115.7853640228919
 30
0.0
 10
207.9396062701803
 20
115.9193333113346
 30
0.0
 10
208.1138239071345
 20
116.2987639575776
 30
0.0
 10
208.2805944098296
 20
116.5234127750666
 30
0.0
 10
208.6781160270936
 20
116.8961023902284
 30
0.0
 10
208.9121219550339
 20
117.0473556603039
 30
0.0
 10
209.2921942120815
 20
117.2076654219227
 30
0.0
 10
209.4262519784639
 20
117.250938722502
 30
0.0
 10
209.699908119632
 20
117.3120833017345
 30
0.0
 10
209.8387767029186
 20
117.3301146659715
 30
0.0
 10
210.1210040365498
 20
117.3392635069446
 30
0.0
 10
210.2638353633072
 20
117.329895814625
 30
0.0
 10
210.539134847581
 20
117.2834808186419
 30
0.0
 10
210.6746129524941
 20
117.2461245306439
 30
0.0
 10
210.9337134289996
 20
117.1440872385353
 30
0.0
 10
211.0550709432806
 20
117.0806124654779
 30
0.0
 10
211.2829243265056
 20
116.9292947672598
 30
0.0
 10
211.389106833079
 20
116.8411953964551
 30
0.0
 10
211.6739502866604
 20
116.5507351208227
 30
0.0
 10
211.8253208096329
 20
116.315581301681
 30
0.0
 10
211.9782947256793
 20
115.9306267102939
 30
0.0
 10
212.0178984935569
 20
115.7943894069566
 30
0.0
 10
212.0702846457921
 20
115.5184089371491
 30
0.0
 10
212.0835698689567
 20
115.3780122592747
 30
0.0
 10
212.0835698689566
 20
115.0936544845626
 30
0.0
  0
ARC
  5
142
330
1F
100
AcDbEntity
  8
0
  6
HIDDEN
 62
     7
370
     0
100
AcDbCircle
 10
207.6565528607
 20
115.2315443753
 30
0.0
 40
2.097247669190564
100
AcDbArc
 50
76.4617326875
 51
264.9792471631
  0
LINE
  5
143
330
1F
100
AcDbEntity
  8
0
  6
HIDDEN
 62
     7
370
     0
100
AcDbLine
 10
190.9360747699
 20
132.2358333719
 30
0.0
 11
190.9360747699
 21
98.2358333719
 31
0.0
  0
LWPOLYLINE
  5
144
330
1F
100
AcDbEntity
  8
0
  6
HIDDEN
 62
     7
370
     0
100
AcDbPolyline
 90
        2
 70
   128
 43
0.0
 10
190.9360747699
 20
98.2358333719
 10
190.9360747699
 20
98.2358333719
  0
LINE
  5
145
330
1F
100
AcDbEntity
  8
0
  6
HIDDEN
 62
     7
370
     0
100
AcDbLine
 10
193.2262488014
 20
130.9608333523
 30
0.0
 11
193.2262488014
 21
99.5108333719
 31
0.0
  0
LWPOLYLINE
  5
146
330
1F
100
AcDbEntity
  8
0
  6
HIDDEN
 62
     7
370
     0
100
AcDbPolyline
 90
        2
 70
   128
 43
0.0
 10
193.2262488014
 20
99.5108333719
 10
193.2262488014
 20
99.5108333719
  0
LINE
  5
147
330
1F
100
AcDbEntity
  8
0
  6
HIDDEN
 62
     7
370
     0
100
AcDbLine
 10
152.5262488014
 20
99.4343429359
 30
0.0
 11
160.0762488014
 21
99.4343429359
 31
0.0
  0
LINE
  5
148
330
1F
100
AcDbEntity
  8
0
  6
HIDDEN
 62
     7
370
     0
100
AcDbLine
 10
152.5262488014
 20
131.037323808
 30
0.0
 11
152.5262488014
 21
99.4343429359
 31
0.0
  0
LINE
  5
149
330
1F
100
AcDbEntity
  8
0
  6
HIDDEN
 62
     7
370
     0
100
AcDbLine
 10
156.0762488014
 20
131.037323808
 30
0.0
 11
152.5262488014
 21
131.037323808
 31
0.0
  0
SPLINE
  5
14A
330
1F
100
AcDbEntity
  8
0
  6
HIDDEN
 62
     7
370
     0
100
AcDbSpline
210
0.0
220
0.0
230
1.0
 70
     8
 71
     3
 72
    18
 73
    14
 74
     0
 42
0.00000001
 43
0.00000001
 40
0.0
 40
0.0
 40
0.0
 40
0.0
 40
0.2499999999999974
 40
0.2499999999999974
 40
0.3749999999999971
 40
0.3749999999999971
 40
0.4999999999999968
 40
0.4999999999999968
 40
0.6249999999999964
 40
0.6249999999999964
 40
0.7499999999999961
 40
0.7499999999999961
 40
1.0
 40
1.0
 40
1.0
 40
1.0
 10
157.4762488013922
 20
131.5233469943227
 30
0.0
 10
157.4762488013922
 20
131.4688724737705
 30
0.0
 10
157.4413381100001
 20
131.4124914144181
 30
0.0
 10
157.339328808667
 20
131.3284145735646
 30
0.0
 10
157.2976924539889
 20
131.3010808695736
 30
0.0
 10
157.1992866585001
 20
131.2481269539747
 30
0.0
 10
157.1417434467959
 20
131.2222396002575
 30
0.0
 10
157.0144452732229
 20
131.1744620554242
 30
0.0
 10
156.9448579684654
 20
131.1525141372464
 30
0.0
 10
156.7934237233105
 20
131.1130815723336
 30
0.0
 10
156.7107398202165
 20
131.0955253231078
 30
0.0
 10
156.4546283581785
 20
131.0530865576873
 30
0.0
 10
156.2667133542905
 20
131.0373238079503
 30
0.0
 10
156.0762488013922
 20
131.0373238079503
 30
0.0
  0
LINE
  5
14B
330
1F
100
AcDbEntity
  8
0
  6
HIDDEN
 62
     7
370
     0
100
AcDbLine
 10
157.4762488014
 20
131.5233469943
 30
0.0
 11
157.4762488014
 21
132.2358333719
 31
0.0
  0
SPLINE
  5
14C
330
1F
100
AcDbEntity
  8
0
  6
HIDDEN
 62
     7
370
     0
100
AcDbSpline
210
0.0
220
0.0
230
1.0
 70
     8
 71
     3
 72
    18
 73
    14
 74
     0
 42
0.00000001
 43
0.00000001
 40
0.0
 40
0.0
 40
0.0
 40
0.0
 40
0.2500000000000009
 40
0.2500000000000009
 40
0.3750000000000007
 40
0.3750000000000007
 40
0.5000000000000006
 40
0.5000000000000006
 40
0.6250000000000003
 40
0.6250000000000003
 40
0.7500000000000001
 40
0.7500000000000001
 40
1.0
 40
1.0
 40
1.0
 40
1.0
 10
157.4762488013922
 20
131.5233469943227
 30
0.0
 10
157.4762488013922
 20
131.4688724737705
 30
0.0
 10
157.4413381100001
 20
131.4124914144181
 30
0.0
 10
157.339328808667
 20
131.3284145735646
 30
0.0
 10
157.2976924539889
 20
131.3010808695736
 30
0.0
 10
157.1992866585001
 20
131.2481269539747
 30
0.0
 10
157.1417434467959
 20
131.2222396002575
 30
0.0
 10
157.0144452732229
 20
131.1744620554242
 30
0.0
 10
156.9448579684654
 20
131.1525141372464
 30
0.0
 10
156.7934237233105
 20
131.1130815723336
 30
0.0
 10
156.7107398202166
 20
131.0955253231078
 30
0.0
 10
156.4546283581785
 20
131.0530865576873
 30
0.0
 10
156.2667133542905
 20
131.0373238079503
 30
0.0
 10
156.0762488013922
 20
131.0373238079503
 30
0.0
  0
LINE
  5
14D
330
1F
100
AcDbEntity
  8
0
  6
HIDDEN
 62
     7
370
     0
100
AcDbLine
 10
156.0762488014
 20
131.037323808
 30
0.0
 11
152.5262488014
 21
131.037323808
 31
0.0
  0
LINE
  5
14E
330
1F
100
AcDbEntity
  8
0
  6
HIDDEN
 62
     7
370
     0
100
AcDbLine
 10
152.5262488014
 20
99.4343429359
 30
0.0
 11
160.0762488014
 21
99.4343429359
 31
0.0
  0
SPLINE
  5
14F
330
1F
100
AcDbEntity
  8
0
  6
HIDDEN
 62
     7
370
     0
100
AcDbSpline
210
0.0
220
0.0
230
1.0
 70
     8
 71
     3
 72
    16
 73
    12
 74
     0
 42
0.00000001
 43
0.00000001
 40
0.0
 40
0.0
 40
0.0
 40
0.0
 40
0.1249999999999988
 40
0.1249999999999988
 40
0.2499999999999977
 40
0.2499999999999977
 40
0.4999999999999984
 40
0.4999999999999984
 40
0.7499999999999992
 40
0.7499999999999992
 40
1.0
 40
1.0
 40
1.0
 40
1.0
 10
160.0762488013922
 20
99.43434293588696
 30
0.0
 10
160.171370556058
 20
99.43434293588696
 30
0.0
 10
160.2647006247861
 20
99.43052710249417
 30
0.0
 10
160.4479623855241
 20
99.41575654976435
 30
0.0
 10
160.5388401010811
 20
99.40459850178877
 30
0.0
 10
160.7956417986009
 20
99.36212723164705
 30
0.0
 10
160.9507091634729
 20
99.32108103444426
 30
0.0
 10
161.2044556250275
 20
99.22593491786236
 30
0.0
 10
161.3053260766953
 20
99.17117218378078
 30
0.0
 10
161.4405724913902
 20
99.05991105987691
 30
0.0
 10
161.4762488013922
 20
99.00274132254823
 30
0.0
 10
161.4762488013922
 20
98.9483197495145
 30
0.0
  0
LINE
  5
150
330
1F
100
AcDbEntity
  8
0
  6
HIDDEN
 62
     7
370
     0
100
AcDbLine
 10
161.4762488014
 20
98.9483197495
 30
0.0
 11
161.4762488014
 21
98.2358333719
 31
0.0
  0
SPLINE
  5
151
330
1F
100
AcDbEntity
  8
0
  6
HIDDEN
 62
     7
370
     0
100
AcDbSpline
210
0.0
220
0.0
230
1.0
 70
     8
 71
     3
 72
    16
 73
    12
 74
     0
 42
0.00000001
 43
0.00000001
 40
0.0
 40
0.0
 40
0.0
 40
0.0
 40
0.1249999999999988
 40
0.1249999999999988
 40
0.2499999999999977
 40
0.2499999999999977
 40
0.4999999999999984
 40
0.4999999999999984
 40
0.7499999999999992
 40
0.7499999999999992
 40
1.0
 40
1.0
 40
1.0
 40
1.0
 10
160.0762488013922
 20
99.43434293588696
 30
0.0
 10
160.171370556058
 20
99.43434293588696
 30
0.0
 10
160.2647006247861
 20
99.43052710249417
 30
0.0
 10
160.4479623855241
 20
99.41575654976435
 30
0.0
 10
160.5388401010811
 20
99.40459850178877
 30
0.0
 10
160.7956417986009
 20
99.36212723164705
 30
0.0
 10
160.9507091634729
 20
99.32108103444426
 30
0.0
 10
161.2044556250275
 20
99.22593491786236
 30
0.0
 10
161.3053260766953
 20
99.17117218378078
 30
0.0
 10
161.4405724913902
 20
99.05991105987691
 30
0.0
 10
161.4762488013922
 20
99.00274132254823
 30
0.0
 10
161.4762488013922
 20
98.9483197495145
 30
0.0
  0
LINE
  5
152
330
1F
100
AcDbEntity
  8
0
  6
HIDDEN
 62
     7
370
     0
100
AcDbLine
 10
152.5262488014
 20
99.4343429359
 30
0.0
 11
152.5262488014
 21
131.037323808
 31
0.0
  0
LINE
  5
153
330
1F
100
AcDbEntity
  8
0
  6
HIDDEN
 62
     7
370
     0
100
AcDbLine
 10
152.5262488014
 20
97.2458333719
 30
0.0
 11
152.5262488014
 21
94.4233333719
 31
0.0
  0
LINE
  5
154
330
1F
100
AcDbEntity
  8
0
  6
HIDDEN
 62
     7
370
     0
100
AcDbLine
 10
161.4762488014
 20
97.2458333719
 30
0.0
 11
161.4762488014
 21
93.2906851126
 31
0.0
  0
LINE
  5
155
330
1F
100
AcDbEntity
  8
0
  6
HIDDEN
 62
     7
370
     0
100
AcDbLine
 10
152.5262488014
 20
133.2258333719
 30
0.0
 11
152.5262488014
 21
136.1057711373
 31
0.0
  0
LINE
  5
156
330
1F
100
AcDbEntity
  8
0
  6
HIDDEN
 62
     7
370
     0
100
AcDbLine
 10
151.3762488014
 20
133.2258333719
 30
0.0
 11
151.3762488014
 21
134.9265111184
 31
0.0
  0
LINE
  5
157
330
1F
100
AcDbEntity
  8
0
  6
HIDDEN
 62
     7
370
     0
100
AcDbLine
 10
151.3762488014
 20
97.2458333719
 30
0.0
 11
151.3762488014
 21
95.582672847
 31
0.0
  0
LINE
  5
158
330
1F
100
AcDbEntity
  8
0
  6
HIDDEN
 62
     7
370
     0
100
AcDbLine
 10
157.4762488014
 20
133.2258333719
 30
0.0
 11
157.4762488014
 21
137.0799410443
 31
0.0
  0
LINE
  5
159
330
1F
100
AcDbEntity
  8
0
  6
HIDDEN
 62
     7
370
     0
100
AcDbLine
 10
205.0762488014
 20
124.7358333719
 30
0.0
 11
205.0762488014
 21
105.7358333719
 31
0.0
  0
LINE
  5
15A
330
1F
100
AcDbEntity
  8
0
  6
HIDDEN
 62
     7
370
     0
100
AcDbLine
 10
202.5762488014
 20
124.7358333719
 30
0.0
 11
202.5762488014
 21
105.7358333719
 31
0.0
  0
LWPOLYLINE
  5
15B
330
1F
100
AcDbEntity
  8
0
  6
HIDDEN
 62
     7
370
     0
100
AcDbPolyline
 90
        2
 70
   128
 43
0.0
 10
209.2262488014
 20
88.8358333719
 10
209.2262488014
 20
88.8358333719
  0
LINE
  5
15C
330
1F
100
AcDbEntity
  8
0
  6
HIDDEN
 62
     7
370
     0
100
AcDbLine
 10
193.7262488014
 20
123.7358333719
 30
0.0
 11
193.7262488014
 21
106.7358333719
 31
0.0
  0
LINE
  5
15D
330
1F
100
AcDbEntity
  8
0
  6
HIDDEN
 62
     7
370
     0
100
AcDbLine
 10
193.2262488014
 20
106.2358333719
 30
0.0
 11
193.2262488014
 21
124.2173419067
 31
0.0
  0
LINE
  5
15E
330
1F
100
AcDbEntity
  8
0
  6
HIDDEN
 62
     7
370
     0
100
AcDbLine
 10
209.2262488014
 20
88.8358333719
 30
0.0
 11
203.0885739991
 21
88.8358333719
 31
0.0
  0
LINE
  5
15F
330
1F
100
AcDbEntity
  8
0
  6
HIDDEN
 62
     7
370
     0
100
AcDbLine
 10
203.1862488014
 20
87.7379962129
 30
0.0
 11
203.1862488014
 21
88.4314377436
 31
0.0
  0
LINE
  5
160
330
1F
100
AcDbEntity
  8
0
  6
HIDDEN
 62
     7
370
     0
100
AcDbLine
 10
209.2262488014
 20
88.8358333719
 30
0.0
 11
209.2262488014
 21
85.6755559713
 31
0.0
  0
LINE
  5
161
330
1F
100
AcDbEntity
  8
0
  6
HIDDEN
 62
     7
370
     0
100
AcDbLine
 10
188.2262488014
 20
83.7517103891
 30
0.0
 11
188.2262488014
 21
88.8358333719
 31
0.0
  0
LINE
  5
162
330
1F
100
AcDbEntity
  8
0
  6
HIDDEN
 62
     7
370
     0
100
AcDbLine
 10
196.2262488014
 20
88.8358333719
 30
0.0
 11
188.2262488014
 21
88.8358333719
 31
0.0
  0
LINE
  5
163
330
1F
100
AcDbEntity
  8
0
  6
HIDDEN
 62
     7
370
     0
100
AcDbLine
 10
199.4639236037
 20
88.8358333719
 30
0.0
 11
196.2262488014
 21
88.8358333719
 31
0.0
  0
LINE
  5
164
330
1F
100
AcDbEntity
  8
0
  6
HIDDEN
 62
     7
370
     0
100
AcDbLine
 10
199.3662488014
 20
88.4314377436
 30
0.0
 11
199.3662488014
 21
87.7379962129
 31
0.0
  0
LINE
  5
165
330
1F
100
AcDbEntity
  8
0
  6
HIDDEN
 62
     7
370
     0
100
AcDbLine
 10
202.5762488014
 20
106.7358333719
 30
0.0
 11
202.5762488014
 21
123.7168518402
 31
0.0
  0
LWPOLYLINE
  5
166
330
1F
100
AcDbEntity
  8
0
  6
HIDDEN
 62
     7
370
     0
100
AcDbPolyline
 90
        2
 70
   128
 43
0.0
 10
209.2262488014
 20
141.6358333719
 10
209.2262488014
 20
141.6358333719
  0
LINE
  5
167
330
1F
100
AcDbEntity
  8
0
  6
HIDDEN
 62
     7
370
     0
100
AcDbLine
 10
209.2262488014
 20
141.6358333719
 30
0.0
 11
202.7919512697
 21
141.6358333719
 31
0.0
  0
LINE
  5
168
330
1F
100
AcDbEntity
  8
0
  6
HIDDEN
 62
     7
370
     0
100
AcDbLine
 10
203.1862488014
 20
143.0410675631
 30
0.0
 11
203.1862488014
 21
142.355487223
 31
0.0
  0
LINE
  5
169
330
1F
100
AcDbEntity
  8
0
  6
HIDDEN
 62
     7
370
     0
100
AcDbLine
 10
209.2262488014
 20
141.6358333719
 30
0.0
 11
209.2262488014
 21
145.0822736957
 31
0.0
  0
LINE
  5
16A
330
1F
100
AcDbEntity
  8
0
  6
HIDDEN
 62
     7
370
     0
100
AcDbLine
 10
199.7605463331
 20
141.6358333719
 30
0.0
 11
196.2262488014
 21
141.6358333719
 31
0.0
  0
LINE
  5
16B
330
1F
100
AcDbEntity
  8
0
  6
HIDDEN
 62
     7
370
     0
100
AcDbLine
 10
199.3662488014
 20
142.355487223
 30
0.0
 11
199.3662488014
 21
143.0410675631
 31
0.0
  0
LINE
  5
16C
330
1F
100
AcDbEntity
  8
0
  6
HIDDEN
 62
     7
370
     0
100
AcDbLine
 10
196.2262488014
 20
141.6358333719
 30
0.0
 11
188.2262488014
 21
141.6358333719
 31
0.0
  0
ELLIPSE
  5
16D
330
1F
100
AcDbEntity
  8
0
  6
HIDDEN
 62
     7
370
     0
100
AcDbEllipse
 10
147.2088169371
 20
115.2358333719
 30
0.0
 11
20.07002071827057
 21
-2.842170943040400E-14
 31
0.0
210
0.0
220
0.0
230
1.0
 40
0.8164965809
 41
4.921555463185704
 42
4.980534842098404
  0
LINE
  5
16E
330
1F
100
AcDbEntity
  8
0
  6
HIDDEN
 62
     7
370
     0
100
AcDbLine
 10
151.3762488014
 20
97.2458333719
 30
0.0
 11
151.3762488014
 21
99.2058979741
 31
0.0
  0
ELLIPSE
  5
16F
330
1F
100
AcDbEntity
  8
0
  6
HIDDEN
 62
     7
370
     0
100
AcDbEllipse
 10
147.2088169371
 20
115.2358333719
 30
0.0
 11
20.07002071827054
 21
-1.421085471520200E-14
 31
0.0
210
0.0
220
0.0
230
1.0
 40
0.8164965809
 41
1.302650465081198
 42
1.361629843993898
  0
LINE
  5
170
330
1F
100
AcDbEntity
  8
0
  6
HIDDEN
 62
     7
370
     0
100
AcDbLine
 10
151.3762488014
 20
133.2258333719
 30
0.0
 11
151.3762488014
 21
131.2657687697
 31
0.0
  0
LINE
  5
171
330
1F
100
AcDbEntity
  8
0
  6
HIDDEN
 62
     7
370
     0
100
AcDbLine
 10
152.5262488014
 20
97.2458333719
 30
0.0
 11
152.5262488014
 21
99.4343429359
 31
0.0
  0
LINE
  5
172
330
1F
100
AcDbEntity
  8
0
  6
HIDDEN
 62
     7
370
     0
100
AcDbLine
 10
161.4762488014
 20
97.2458333719
 30
0.0
 11
161.4762488014
 21
98.9483197495
 31
0.0
  0
LINE
  5
173
330
1F
100
AcDbEntity
  8
0
  6
HIDDEN
 62
     7
370
     0
100
AcDbLine
 10
157.4762488014
 20
133.2258333719
 30
0.0
 11
157.4762488014
 21
131.5233469943
 31
0.0
  0
LINE
  5
174
330
1F
100
AcDbEntity
  8
0
  6
HIDDEN
 62
     7
370
     0
100
AcDbLine
 10
152.5262488014
 20
133.2258333719
 30
0.0
 11
152.5262488014
 21
131.037323808
 31
0.0
  0
SPLINE
  5
175
330
1F
100
AcDbEntity
  8
0
  6
HIDDEN
 62
     7
370
     0
100
AcDbSpline
210
0.0
220
0.0
230
1.0
 70
    11
 71
     3
 72
    34
 73
    30
 74
     0
 42
0.00000001
 43
0.00000001
 40
0.0
 40
0.0
 40
0.0
 40
0.0
 40
0.0127738776556719
 40
0.0481305038678095
 40
0.0807425036597233
 40
0.1375890933866521
 40
0.188451875076971
 40
0.222671215789913
 40
0.2626938393202071
 40
0.2986558379460142
 40
0.3315197784331849
 40
0.3878459735946833
 40
0.3881765767430606
 40
0.4440926132527551
 40
0.4768435673124495
 40
0.512644898096435
 40
0.5530084690747542
 40
0.5873855958954171
 40
0.6380121026636988
 40
0.6949796288800786
 40
0.7275539965608167
 40
0.7628079440324033
 40
0.8028703513054118
 40
0.8370831582065023
 40
0.8877749846026076
 40
0.8880427589998898
 40
0.9388397965827773
 40
0.9729712778442388
 40
1.0
 40
1.0
 40
1.0
 40
1.0
 10
171.4362606897854
 20
92.16817151299098
 30
0.0
 10
171.4954543516873
 20
92.1742604177547
 30
0.0
 10
171.7184892710689
 20
92.19720271156564
 30
0.0
 10
172.2418417266231
 20
92.2338474649743
 30
0.0
 10
173.1146051993686
 20
92.26153149100774
 30
0.0
 10
174.2294430901027
 20
92.25097591679763
 30
0.0
 10
175.3425084955
 20
92.13483081610214
 30
0.0
 10
176.2369499689881
 20
92.01324005821618
 30
0.0
 10
176.9207849195215
 20
91.89148137873897
 30
0.0
 10
177.4615353365209
 20
91.77512277709374
 30
0.0
 10
177.8749662317386
 20
91.68163945997487
 30
0.0
 10
178.1031146798123
 20
91.61500576177998
 30
0.0
 10
177.9485703295394
 20
91.65627096949939
 30
0.0
 10
177.9216942059243
 20
91.66874102054483
 30
0.0
 10
177.4659114675698
 20
91.77429036811643
 30
0.0
 10
176.9419890716445
 20
91.88703620693465
 30
0.0
 10
176.2557789724482
 20
92.01013508931963
 30
0.0
 10
175.3626662359634
 20
92.13212626935517
 30
0.0
 10
174.2492296905228
 20
92.24987889739967
 30
0.0
 10
173.138479062315
 20
92.26184942135463
 30
0.0
 10
172.2537270014537
 20
92.23479197012743
 30
0.0
 10
171.5865313262294
 20
92.18685955112119
 30
0.0
 10
171.0452584848425
 20
92.13056676791913
 30
0.0
 10
170.6576788699563
 20
92.0854812874843
 30
0.0
 10
170.4636643346693
 20
92.04660130115268
 30
0.0
 10
170.5899908927025
 20
92.06802519959612
 30
0.0
 10
170.619146916269
 20
92.07794181640148
 30
0.0
 10
170.9906436287958
 20
92.1255613757577
 30
0.0
 10
171.2996850409599
 20
92.15511207777489
 30
0.0
 10
171.4362606897854
 20
92.16817151299098
 30
0.0
  0
SPLINE
  5
176
330
1F
100
AcDbEntity
  8
0
  6
HIDDEN
 62
     7
370
     0
100
AcDbSpline
210
0.0
220
0.0
230
1.0
 70
     8
 71
     3
 72
    38
 73
    34
 74
     0
 42
0.00000001
 43
0.00000001
 40
-0.0939221400672665
 40
-0.0657752597376123
 40
-0.0344739495632796
 40
0.0
 40
0.0323124298800044
 40
0.0609695983057976
 40
0.0859698688315848
 40
0.1073131756265473
 40
0.1250019290165292
 40
0.1562358723016264
 40
0.1978507374026424
 40
0.249816879324602
 40
0.2782629480404316
 40
0.3049884159979992
 40
0.3300042169061052
 40
0.3533239044514899
 40
0.3749644360928887
 40
0.4060267839203694
 40
0.4476555976887463
 40
0.499832086919725
 40
0.5286685249108927
 40
0.5555536436046659
 40
0.5805015706730043
 40
0.6035302880734357
 40
0.6246629695825433
 40
0.668531263775153
 40
0.7183269153565629
 40
0.7652375706119532
 40
0.7915712044598845
 40
0.812293703571462
 40
0.861565662988707
 40
0.9060778599327335
 40
0.9342247402623877
 40
0.9655260504367204
 40
1.0
 40
1.032312429880004
 40
1.060969598305798
 40
1.085969868831585
 10
172.2165139698845
 20
138.2388373976618
 30
0.0
 10
171.6124457507375
 20
138.2833709028177
 30
0.0
 10
171.1371306870024
 20
138.3314462890716
 30
0.0
 10
170.8175318600679
 20
138.3676090283991
 30
0.0
 10
170.6305374536751
 20
138.3939991626595
 30
0.0
 10
170.5422317935632
 20
138.4100687725436
 30
0.0
 10
170.5128182968882
 20
138.4178924579249
 30
0.0
 10
170.5849503661713
 20
138.3997249595338
 30
0.0
 10
170.9060623675748
 20
138.3551183796937
 30
0.0
 10
171.4780898563592
 20
138.2943798510243
 30
0.0
 10
172.1286222027761
 20
138.2450356879264
 30
0.0
 10
172.6784983311672
 20
138.2226732273243
 30
0.0
 10
173.2339361966509
 20
138.214191017281
 30
0.0
 10
173.7747117440126
 20
138.220642103269
 30
0.0
 10
174.3726416393384
 20
138.2441204797151
 30
0.0
 10
175.1123074972716
 20
138.3110403503382
 30
0.0
 10
176.0443571308711
 20
138.4271417841147
 30
0.0
 10
176.8336938647269
 20
138.5624566686722
 30
0.0
 10
177.3726235533208
 20
138.6775684927912
 30
0.0
 10
177.6867278943141
 20
138.7473425694742
 30
0.0
 10
177.8920082636506
 20
138.7979026551326
 30
0.0
 10
178.0030782504156
 20
138.8285807951926
 30
0.0
 10
178.0493497523721
 20
138.843307812743
 30
0.0
 10
177.9233848847156
 20
138.8054482194148
 30
0.0
 10
177.4531393579867
 20
138.6949624352591
 30
0.0
 10
176.7999413957033
 20
138.5552582170938
 30
0.0
 10
176.195922440795
 20
138.4521316108859
 30
0.0
 10
175.5215843914822
 20
138.3526955850009
 30
0.0
 10
174.6362349089524
 20
138.259225250516
 30
0.0
 10
173.6667560179989
 20
138.2122167441243
 30
0.0
 10
172.8784204402966
 20
138.2159009589938
 30
0.0
 10
172.2165139698845
 20
138.2388373976618
 30
0.0
 10
171.6124457507375
 20
138.2833709028177
 30
0.0
 10
171.1371306870024
 20
138.3314462890716
 30
0.0
  0
LINE
  5
177
330
1F
100
AcDbEntity
  8
0
  6
HIDDEN
 62
     7
370
     0
100
AcDbLine
 10
213.3762488014
 20
119.4358333719
 30
0.0
 11
213.3762488014
 21
111.0358333719
 31
0.0
  0
SPLINE
  5
178
330
1F
100
AcDbEntity
  8
0
  6
HIDDEN
 62
     7
370
     0
100
AcDbSpline
210
0.0
220
0.0
230
1.0
 70
     8
 71
     3
 72
    14
 73
    10
 74
     0
 42
0.00000001
 43
0.00000001
 40
0.0
 40
0.0
 40
0.0
 40
0.0
 40
0.2499999999999999
 40
0.2499999999999999
 40
0.4999999999999999
 40
0.4999999999999999
 40
0.7499999999999999
 40
0.7499999999999999
 40
1.0
 40
1.0
 40
1.0
 40
1.0
 10
213.3762488013922
 20
114.4053248097601
 30
0.0
 10
213.4227111378401
 20
114.5330157321921
 30
0.0
 10
213.459053262325
 20
114.6666686181848
 30
0.0
 10
213.5089088993971
 20
114.9460969633647
 30
0.0
 10
213.5219581991513
 20
115.0919975391382
 30
0.0
 10
213.5219563593394
 20
115.3797005304787
 30
0.0
 10
213.508900600051
 20
115.5256279371218
 30
0.0
 10
213.459049231063
 20
115.8050090760897
 30
0.0
 10
213.422710973046
 20
115.9386514645435
 30
0.0
 10
213.3762488013922
 20
116.0663419340771
 30
0.0
  0
SPLINE
  5
179
330
1F
100
AcDbEntity
  8
0
  6
HIDDEN
 62
     7
370
     0
100
AcDbSpline
210
0.0
220
0.0
230
1.0
 70
     8
 71
     3
 72
    52
 73
    48
 74
     0
 42
0.00000001
 43
0.00000001
 40
0.0
 40
0.0
 40
0.0
 40
0.0
 40
0.062499999999999
 40
0.062499999999999
 40
0.124999999999998
 40
0.124999999999998
 40
0.1874999999999969
 40
0.1874999999999969
 40
0.2187499999999964
 40
0.2187499999999964
 40
0.2499999999999959
 40
0.2499999999999959
 40
0.2812499999999954
 40
0.2812499999999954
 40
0.3124999999999949
 40
0.3124999999999949
 40
0.3749999999999946
 40
0.3749999999999946
 40
0.4062499999999946
 40
0.4062499999999946
 40
0.4374999999999947
 40
0.4374999999999947
 40
0.4687499999999947
 40
0.4687499999999947
 40
0.4999999999999948
 40
0.4999999999999948
 40
0.5312499999999948
 40
0.5312499999999948
 40
0.5624999999999949
 40
0.5624999999999949
 40
0.5937499999999949
 40
0.5937499999999949
 40
0.624999999999995
 40
0.624999999999995
 40
0.656249999999995
 40
0.656249999999995
 40
0.6874999999999952
 40
0.6874999999999952
 40
0.7187499999999953
 40
0.7187499999999953
 40
0.7499999999999956
 40
0.7499999999999956
 40
0.8124999999999967
 40
0.8124999999999967
 40
0.8749999999999978
 40
0.8749999999999978
 40
1.0
 40
1.0
 40
1.0
 40
1.0
 10
213.3762488013922
 20
116.0663419340771
 30
0.0
 10
213.2718780142692
 20
116.28709440926
 30
0.0
 10
213.133470834533
 20
116.4800946537991
 30
0.0
 10
212.7964573360962
 20
116.8209650251464
 30
0.0
 10
212.6048622113665
 20
116.9613572730802
 30
0.0
 10
212.1773992843018
 20
117.1841587772692
 30
0.0
 10
211.9489854254986
 20
117.2624042232052
 30
0.0
 10
211.5874809726341
 20
117.3243388841056
 30
0.0
 10
211.463058616906
 20
117.3353781147577
 30
0.0
 10
211.2187966997081
 20
117.3362603608021
 30
0.0
 10
211.0974772735658
 20
117.3264551878983
 30
0.0
 10
210.8565275603359
 20
117.2852203794663
 30
0.0
 10
210.7367187335012
 20
117.2533828691835
 30
0.0
 10
210.5101618858403
 20
117.1703577340378
 30
0.0
 10
210.4018672625723
 20
117.119010356028
 30
0.0
 10
210.0913298104893
 20
116.9348348873535
 30
0.0
 10
209.9120148036455
 20
116.7770330978795
 30
0.0
 10
209.6888496153441
 20
116.4970331691238
 30
0.0
 10
209.6232798853451
 20
116.3979604248141
 30
0.0
 10
209.5088316874415
 20
116.1882861085177
 30
0.0
 10
209.459595623015
 20
116.0765133966002
 30
0.0
 10
209.3807064468081
 20
115.8465139716116
 30
0.0
 10
209.3510102837574
 20
115.72889358525
 30
0.0
 10
209.3107337379185
 20
115.4883792946119
 30
0.0
 10
209.3002087738011
 20
115.364111924474
 30
0.0
 10
209.2996522600496
 20
115.1177880881676
 30
0.0
 10
209.3093408847108
 20
114.9958787636031
 30
0.0
 10
209.3483973538974
 20
114.7545130359675
 30
0.0
 10
209.3782276464975
 20
114.6340716293077
 30
0.0
 10
209.4559421837309
 20
114.4042405512307
 30
0.0
 10
209.5037866163466
 20
114.2940118249452
 30
0.0
 10
209.6177026191399
 20
114.0826588791432
 30
0.0
 10
209.6841155544894
 20
113.9814628089399
 30
0.0
 10
209.831033416591
 20
113.7954153614992
 30
0.0
 10
209.9120148657772
 20
113.7095147822401
 30
0.0
 10
210.0901430102666
 20
113.5519748294577
 30
0.0
 10
210.1871857050136
 20
113.4807912637446
 30
0.0
 10
210.3907768487892
 20
113.3584949528501
 30
0.0
 10
210.4981901893178
 20
113.3065495802491
 30
0.0
 10
210.725375922512
 20
113.2216704483496
 30
0.0
 10
210.8444378719694
 20
113.1893306277433
 30
0.0
 10
211.2040027294177
 20
113.1254738310663
 30
0.0
 10
211.4564978420509
 20
113.1260558988485
 30
0.0
 10
211.9388101050045
 20
113.2063995589245
 30
0.0
 10
212.1728361885234
 20
113.2858058793716
 30
0.0
 10
212.8122649905166
 20
113.6170832743537
 30
0.0
 10
213.1673204869018
 20
113.9634248889981
 30
0.0
 10
213.3762488013922
 20
114.4053248097601
 30
0.0
  0
LINE
  5
17A
330
1F
100
AcDbEntity
  8
0
  6
HIDDEN
 62
     7
370
     0
100
AcDbLine
 10
205.0762488014
 20
111.0358333719
 30
0.0
 11
205.0762488014
 21
119.4168154467
 31
0.0
  0
LWPOLYLINE
  5
17B
330
1F
100
AcDbEntity
  8
0
  6
HIDDEN
 62
     7
370
     0
100
AcDbPolyline
 90
        2
 70
   128
 43
0.0
 10
188.2262488014
 20
88.8358333719
 10
188.2262488014
 20
88.8358333719
  0
LINE
  5
17C
330
1F
100
AcDbEntity
  8
0
  6
HIDDEN
 62
     7
370
     0
100
AcDbLine
 10
252.088547165
 20
81.8446114429
 30
0.0
 11
252.0861937384
 21
81.8895174978
 31
0.0
  0
LINE
  5
17D
330
1F
100
AcDbEntity
  8
0
  6
HIDDEN
 62
     7
370
     0
100
AcDbLine
 10
243.3356260825
 20
87.314043567
 30
0.0
 11
252.088547165
 21
81.8446114429
 31
0.0
  0
LINE
  5
17E
330
1F
100
AcDbEntity
  8
0
  6
HIDDEN
 62
     7
370
     0
100
AcDbLine
 10
243.0806197487
 20
83.8970767244
 30
0.0
 11
243.0424849919
 21
83.9209059651
 31
0.0
  0
LINE
  5
17F
330
1F
100
AcDbEntity
  8
0
  6
HIDDEN
 62
     7
370
     0
100
AcDbLine
 10
243.4674286767
 20
76.5163226974
 30
0.0
 11
243.0806197487
 21
83.8970767244
 31
0.0
  0
LINE
  5
180
330
1F
100
AcDbEntity
  8
0
  6
HIDDEN
 62
     7
370
     0
100
AcDbLine
 10
243.4292939199
 20
76.5401519381
 30
0.0
 11
243.4674286767
 21
76.5163226974
 31
0.0
  0
LINE
  5
181
330
1F
100
AcDbEntity
  8
0
  6
HIDDEN
 62
     7
370
     0
100
AcDbLine
 10
252.1055702842
 20
81.519790979
 30
0.0
 11
252.088547165
 21
81.8446114429
 31
0.0
  0
LINE
  5
182
330
1F
100
AcDbEntity
  8
0
  6
HIDDEN
 62
     7
370
     0
100
AcDbLine
 10
252.1055702842
 20
81.519790979
 30
0.0
 11
243.0028012342
 21
87.2078323759
 31
0.0
  0
LWPOLYLINE
  5
183
330
1F
100
AcDbEntity
  8
0
  6
HIDDEN
 62
     7
370
     0
100
AcDbPolyline
 90
        2
 70
   128
 43
0.0
 10
250.6674033515
 20
108.961650801
 10
250.6674033515
 20
108.961650801
  0
LINE
  5
184
330
1F
100
AcDbEntity
  8
0
  6
HIDDEN
 62
     7
370
     0
100
AcDbLine
 10
243.3394380365
 20
84.049532347
 30
0.0
 11
243.0806197487
 21
83.8970767244
 31
0.0
  0
LINE
  5
185
330
1F
100
AcDbEntity
  8
0
  6
HIDDEN
 62
     7
370
     0
100
AcDbLine
 10
243.3394380365
 20
84.049532347
 30
0.0
 11
243.7389025116
 21
76.4272960956
 31
0.0
  0
ELLIPSE
  5
186
330
1F
100
AcDbEntity
  8
0
  6
HIDDEN
 62
     7
370
     0
100
AcDbEllipse
 10
240.6181814229
 20
130.1793737383
 30
0.0
 11
-3.200994128379904
 21
53.75325072546337
 31
0.0
210
0.0
220
0.0
230
1.0
 40
0.1000778042
 41
3.077388115506232
 42
3.126735770057914
  0
LINE
  5
187
330
1F
100
AcDbEntity
  8
0
  6
HIDDEN
 62
     7
370
     0
100
AcDbLine
 10
252.6577274598
 20
70.9840044384
 30
0.0
 11
252.0776902789
 21
82.0517731712
 31
0.0
  0
SPLINE
  5
188
330
1F
100
AcDbEntity
  8
0
  6
HIDDEN
 62
     7
370
     0
100
AcDbSpline
210
0.0
220
0.0
230
1.0
 70
     8
 71
     3
 72
     8
 73
     4
 74
     0
 42
0.00000001
 43
0.00000001
 40
0.0
 40
0.0
 40
0.0
 40
0.0
 40
1.0
 40
1.0
 40
1.0
 40
1.0
 10
225.7120227796862
 20
87.61113167314907
 30
0.0
 10
225.7146462171698
 20
87.63273616218154
 30
0.0
 10
225.754824146267
 20
87.96313466857468
 30
0.0
 10
225.830268962841
 20
88.58672134131832
 30
0.0
  0
LINE
  5
189
330
1F
100
AcDbEntity
  8
0
  6
HIDDEN
 62
     7
370
     0
100
AcDbLine
 10
243.3394380365
 20
84.049532347
 30
0.0
 11
243.0254618728
 21
84.2457264289
 31
0.0
  0
LINE
  5
18A
330
1F
100
AcDbEntity
  8
0
  6
HIDDEN
 62
     7
370
     0
100
AcDbLine
 10
227.3697369362
 20
142.2341666538
 30
0.0
 11
246.2741734193
 21
115.2358333719
 31
0.0
  0
LINE
  5
18B
330
1F
100
AcDbEntity
  8
0
  6
HIDDEN
 62
     7
370
     0
100
AcDbLine
 10
225.5441979938
 20
142.2341666538
 30
0.0
 11
225.5441979938
 21
115.2358333719
 31
0.0
  0
LINE
  5
18C
330
1F
100
AcDbEntity
  8
0
  6
HIDDEN
 62
     7
370
     0
100
AcDbLine
 10
188.2262488014
 20
83.7517103891
 30
0.0
 11
188.2262488014
 21
88.8358333719
 31
0.0
  0
LINE
  5
18D
330
1F
100
AcDbEntity
  8
0
  6
HIDDEN
 62
     7
370
     0
100
AcDbLine
 10
188.2262488014
 20
88.8358333719
 30
0.0
 11
196.2262488014
 21
88.8358333719
 31
0.0
  0
LWPOLYLINE
  5
18E
330
1F
100
AcDbEntity
  8
0
  6
HIDDEN
 62
     7
370
     0
100
AcDbPolyline
 90
        2
 70
   128
 43
0.0
 10
243.3394380365
 20
84.049532347
 10
243.3394380365
 20
84.049532347
  0
LINE
  5
18F
330
1F
100
AcDbEntity
  8
0
  6
HIDDEN
 62
     7
370
     0
100
AcDbLine
 10
243.7389025116
 20
76.4272960956
 30
0.0
 11
243.7318691984
 21
76.5614997054
 31
0.0
  0
LWPOLYLINE
  5
190
330
1F
100
AcDbEntity
  8
0
  6
HIDDEN
 62
     7
370
     0
100
AcDbPolyline
 90
        2
 70
   128
 43
0.0
 10
252.1055702842
 20
81.519790979
 10
252.1055702842
 20
81.519790979
  0
LWPOLYLINE
  5
191
330
1F
100
AcDbEntity
  8
0
  6
HIDDEN
 62
     7
370
     0
100
AcDbPolyline
 90
        2
 70
   128
 43
0.0
 10
242.5456445745
 20
87.4934955615
 10
242.5456445745
 20
87.4934955615
  0
LWPOLYLINE
  5
192
330
1F
100
AcDbEntity
  8
0
  6
HIDDEN
 62
     7
370
     0
100
AcDbPolyline
 90
        2
 70
   128
 43
0.0
 10
241.220846414
 20
85.3733753211
 10
241.220846414
 20
85.3733753211
  0
CIRCLE
  5
193
330
1F
100
AcDbEntity
  8
0
  6
HIDDEN
 62
     7
370
     0
100
AcDbCircle
 10
214.1702384494
 20
115.2413453757
 30
0.0
 40
2.090489493522679
  0
CIRCLE
  5
194
330
1F
100
AcDbEntity
  8
0
  6
HIDDEN
 62
     7
370
     0
100
AcDbCircle
 10
248.0160422966
 20
78.8868267075
 30
0.0
 40
2.399999999999991
  0
ARC
  5
195
330
1F
100
AcDbEntity
  8
0
  6
HIDDEN
 62
     7
370
     0
100
AcDbCircle
 10
241.8832454942
 20
86.4334354413
 30
0.0
 40
1.249999999999991
100
AcDbArc
 50
58.0
 51
238.0
  0
LINE
  5
196
330
1F
100
AcDbEntity
  8
0
  6
HIDDEN
 62
     7
370
     0
100
AcDbLine
 10
252.1055702842
 20
81.519790979
 30
0.0
 11
242.5456445745
 21
87.4934955615
 31
0.0
  0
LINE
  5
197
330
1F
100
AcDbEntity
  8
0
  6
HIDDEN
 62
     7
370
     0
100
AcDbLine
 10
243.3394380365
 20
84.049532347
 30
0.0
 11
243.7318691984
 21
76.5614997054
 31
0.0
  0
LINE
  5
198
330
1F
100
AcDbEntity
  8
0
  6
HIDDEN
 62
     7
370
     0
100
AcDbLine
 10
241.220846414
 20
85.3733753211
 30
0.0
 11
243.3394380365
 21
84.049532347
 31
0.0
  0
LINE
  5
199
330
1F
100
AcDbEntity
  8
0
  6
HIDDEN
 62
     7
370
     0
100
AcDbLine
 10
252.6577274598
 20
70.9840044384
 30
0.0
 11
243.7318691984
 21
76.5614997054
 31
0.0
  0
LINE
  5
19A
330
1F
100
AcDbEntity
  8
0
  6
HIDDEN
 62
     7
370
     0
100
AcDbLine
 10
252.1055702842
 20
81.519790979
 30
0.0
 11
252.6577274598
 21
70.9840044384
 31
0.0
  0
CIRCLE
  5
19B
330
1F
100
AcDbEntity
  8
0
  6
HIDDEN
 62
     7
370
     0
100
AcDbCircle
 10
248.0160422966
 20
78.8868267075
 30
0.0
 40
1.649999999999991
  0
LINE
  5
19C
330
1F
100
AcDbEntity
  8
0
  6
HIDDEN
 62
     7
370
     0
100
AcDbLine
 10
157.4762488014
 20
133.2258333719
 30
0.0
 11
157.4762488014
 21
131.5233469943
 31
0.0
  0
LINE
  5
19D
330
1F
100
AcDbEntity
  8
0
  6
HIDDEN
 62
     7
370
     0
100
AcDbLine
 10
161.4762488014
 20
97.2458333719
 30
0.0
 11
161.4762488014
 21
98.9483197495
 31
0.0
  0
LINE
  5
19E
330
1F
100
AcDbEntity
  8
0
  6
HIDDEN
 62
     7
370
     0
100
AcDbLine
 10
157.4762488014
 20
133.2258333719
 30
0.0
 11
157.4762488014
 21
137.0799410443
 31
0.0
  0
LINE
  5
19F
330
1F
100
AcDbEntity
  8
0
  6
HIDDEN
 62
     7
370
     0
100
AcDbLine
 10
161.4762488014
 20
97.2458333719
 30
0.0
 11
161.4762488014
 21
93.2906851126
 31
0.0
  0
LWPOLYLINE
  5
1A0
330
1F
100
AcDbEntity
  8
0
  6
HIDDEN
 62
     7
370
     0
100
AcDbPolyline
 90
        2
 70
   128
 43
0.0
 10
209.2262488014
 20
141.6358333719
 10
209.2262488014
 20
141.6358333719
  0
LWPOLYLINE
  5
1A1
330
1F
100
AcDbEntity
  8
0
  6
HIDDEN
 62
     7
370
     0
100
AcDbPolyline
 90
        2
 70
   128
 43
0.0
 10
209.2262488014
 20
88.8358333719
 10
209.2262488014
 20
88.8358333719
  0
ELLIPSE
  5
1A2
330
1F
100
AcDbEntity
  8
0
  6
HIDDEN
 62
     7
370
     0
100
AcDbEllipse
 10
147.2088169371
 20
115.2358333719
 30
0.0
 11
20.07002071827054
 21
-1.421085471520200E-14
 31
0.0
210
0.0
220
0.0
230
1.0
 40
0.8164965809
 41
1.302650465081198
 42
1.361629843993898
  0
LINE
  5
1A3
330
1F
100
AcDbEntity
  8
0
  6
HIDDEN
 62
     7
370
     0
100
AcDbLine
 10
151.3762488014
 20
133.2258333719
 30
0.0
 11
151.3762488014
 21
131.2657687697
 31
0.0
  0
LINE
  5
1A4
330
1F
100
AcDbEntity
  8
0
  6
HIDDEN
 62
     7
370
     0
100
AcDbLine
 10
152.5262488014
 20
133.2258333719
 30
0.0
 11
152.5262488014
 21
131.037323808
 31
0.0
  0
LINE
  5
1A5
330
1F
100
AcDbEntity
  8
0
  6
HIDDEN
 62
     7
370
     0
100
AcDbLine
 10
152.5262488014
 20
133.2258333719
 30
0.0
 11
152.5262488014
 21
136.1057711373
 31
0.0
  0
SPLINE
  5
1A6
330
1F
100
AcDbEntity
  8
0
  6
HIDDEN
 62
     7
370
     0
100
AcDbSpline
210
0.0
220
0.0
230
1.0
 70
     8
 71
     3
 72
    10
 73
     6
 74
     0
 42
0.00000001
 43
0.00000001
 40
0.0
 40
0.0
 40
0.0
 40
0.0
 40
0.5
 40
0.5
 40
1.0
 40
1.0
 40
1.0
 40
1.0
 10
152.516203870974
 20
136.0957872642063
 30
0.0
 10
152.4486446160558
 20
136.0280958713965
 30
0.0
 10
152.3850079607193
 20
135.9533887066429
 30
0.0
 10
152.2747872061474
 20
135.7944225742162
 30
0.0
 10
152.2279709129248
 20
135.7100673082082
 30
0.0
 10
152.2004024474967
 20
135.6259527055165
 30
0.0
  0
LINE
  5
1A7
330
1F
100
AcDbEntity
  8
0
  6
HIDDEN
 62
     7
370
     0
100
AcDbLine
 10
151.3762488014
 20
133.2258333719
 30
0.0
 11
151.3762488014
 21
134.9265111184
 31
0.0
  0
SPLINE
  5
1A8
330
1F
100
AcDbEntity
  8
0
  6
HIDDEN
 62
     7
370
     0
100
AcDbSpline
210
0.0
220
0.0
230
1.0
 70
     8
 71
     3
 72
    10
 73
     6
 74
     0
 42
0.00000001
 43
0.00000001
 40
0.0
 40
0.0
 40
0.0
 40
0.0
 40
0.5
 40
0.5
 40
1.0
 40
1.0
 40
1.0
 40
1.0
 10
151.4389121761156
 20
134.9103859166993
 30
0.0
 10
151.4300078870069
 20
134.9561274359126
 30
0.0
 10
151.4134925068139
 20
134.9733182753815
 30
0.0
 10
151.3863845607523
 20
134.9729949984458
 30
0.0
 10
151.3762488013922
 20
134.9551174561494
 30
0.0
 10
151.3762488013922
 20
134.9265111183968
 30
0.0
  0
ELLIPSE
  5
1A9
330
1F
100
AcDbEntity
  8
0
  6
HIDDEN
 62
     7
370
     0
100
AcDbEllipse
 10
147.2088169371
 20
115.2358333719
 30
0.0
 11
20.07002071827057
 21
-2.842170943040400E-14
 31
0.0
210
0.0
220
0.0
230
1.0
 40
0.8164965809
 41
4.921555463185704
 42
4.980534842098404
  0
LINE
  5
1AA
330
1F
100
AcDbEntity
  8
0
  6
HIDDEN
 62
     7
370
     0
100
AcDbLine
 10
151.3762488014
 20
131.2657687697
 30
0.0
 11
151.3762488014
 21
99.2058979741
 31
0.0
  0
LINE
  5
1AB
330
1F
100
AcDbEntity
  8
0
  6
HIDDEN
 62
     7
370
     0
100
AcDbLine
 10
152.5262488014
 20
97.2458333719
 30
0.0
 11
152.5262488014
 21
99.4343429359
 31
0.0
  0
LINE
  5
1AC
330
1F
100
AcDbEntity
  8
0
  6
HIDDEN
 62
     7
370
     0
100
AcDbLine
 10
151.3762488014
 20
97.2458333719
 30
0.0
 11
151.3762488014
 21
99.2058979741
 31
0.0
  0
SPLINE
  5
1AD
330
1F
100
AcDbEntity
  8
0
  6
HIDDEN
 62
     7
370
     0
100
AcDbSpline
210
0.0
220
0.0
230
1.0
 70
     8
 71
     3
 72
     8
 73
     4
 74
     0
 42
0.00000001
 43
0.00000001
 40
0.0
 40
0.0
 40
0.0
 40
0.0
 40
1.0
 40
1.0
 40
1.0
 40
1.0
 10
152.3151583715914
 20
94.79191106895301
 30
0.0
 10
152.3508720299613
 20
94.6686795636932
 30
0.0
 10
152.4265400689095
 20
94.54773598674622
 30
0.0
 10
152.5162038709827
 20
94.44101694304297
 30
0.0
  0
SPLINE
  5
1AE
330
1F
100
AcDbEntity
  8
0
  6
HIDDEN
 62
     7
370
     0
100
AcDbSpline
210
0.0
220
0.0
230
1.0
 70
     8
 71
     3
 72
    10
 73
     6
 74
     0
 42
0.00000001
 43
0.00000001
 40
0.0
 40
0.0
 40
0.0
 40
0.0
 40
0.5
 40
0.5
 40
1.0
 40
1.0
 40
1.0
 40
1.0
 10
151.3762488013918
 20
95.58267284696572
 30
0.0
 10
151.3762488013917
 20
95.56915632109796
 30
0.0
 10
151.38156836202
 20
95.56498554874068
 30
0.0
 10
151.3946965943016
 20
95.58311659212826
 30
0.0
 10
151.4023892489556
 20
95.6060250171902
 30
0.0
 10
151.4065264170009
 20
95.64574581169177
 30
0.0
  0
LINE
  5
1AF
330
1F
100
AcDbEntity
  8
0
  6
HIDDEN
 62
     7
370
     0
100
AcDbLine
 10
151.3762488014
 20
97.2458333719
 30
0.0
 11
151.3762488014
 21
95.582672847
 31
0.0
  0
LINE
  5
1B0
330
1F
100
AcDbEntity
  8
0
  6
HIDDEN
 62
     7
370
     0
100
AcDbLine
 10
152.5262488014
 20
97.2458333719
 30
0.0
 11
152.5262488014
 21
94.4292018134
 31
0.0
  0
SPLINE
  5
1B1
330
1F
100
AcDbEntity
  8
0
  6
HIDDEN
 62
     7
370
     0
100
AcDbSpline
210
0.0
220
0.0
230
1.0
 70
     8
 71
     3
 72
    10
 73
     6
 74
     0
 42
0.00000001
 43
0.00000001
 40
0.0
 40
0.0
 40
0.0
 40
0.0
 40
0.5
 40
0.5
 40
1.0
 40
1.0
 40
1.0
 40
1.0
 10
199.3662488013922
 20
142.3554872229544
 30
0.0
 10
199.3662488013922
 20
142.2118748713964
 30
0.0
 10
199.40241607649
 20
142.0689014576778
 30
0.0
 10
199.538172020244
 20
141.818908830964
 30
0.0
 10
199.6384417108669
 20
141.7109065216852
 30
0.0
 10
199.7605463330832
 20
141.6358333719186
 30
0.0
  0
LINE
  5
1B2
330
1F
100
AcDbEntity
  8
0
  6
HIDDEN
 62
     7
370
     0
100
AcDbLine
 10
199.3662488014
 20
142.355487223
 30
0.0
 11
199.3662488014
 21
88.4314377436
 31
0.0
  0
SPLINE
  5
1B3
330
1F
100
AcDbEntity
  8
0
  6
HIDDEN
 62
     7
370
     0
100
AcDbSpline
210
0.0
220
0.0
230
1.0
 70
     8
 71
     3
 72
    10
 73
     6
 74
     0
 42
0.00000001
 43
0.00000001
 40
0.0
 40
0.0
 40
0.0
 40
0.0
 40
0.5
 40
0.5
 40
1.0
 40
1.0
 40
1.0
 40
1.0
 10
199.3662488013922
 20
88.43143774358929
 30
0.0
 10
199.3662488013922
 20
88.50167410395981
 30
0.0
 10
199.3745314134827
 20
88.57166820545706
 30
0.0
 10
199.407631356541
 20
88.70862747001554
 30
0.0
 10
199.4319687484993
 20
88.77393537927061
 30
0.0
 10
199.4639236037238
 20
88.83583337191733
 30
0.0
  0
SPLINE
  5
1B4
330
1F
100
AcDbEntity
  8
0
  6
HIDDEN
 62
     7
370
     0
100
AcDbSpline
210
0.0
220
0.0
230
1.0
 70
    24
 71
     3
 72
    12
 73
     8
 74
     0
 42
0.00000001
 43
0.00000001
 40
0.0
 40
0.0
 40
0.0
 40
0.0
 40
0.5
 40
0.5
 40
0.75
 40
0.75
 40
1.0
 40
1.0
 40
1.0
 40
1.0
 10
199.7605463330832
 20
141.6358333719186
 30
0.0
 10
199.8036696815168
 20
141.6358333719186
 30
0.0
 10
199.853409268817
 20
141.6358333719186
 30
0.0
 10
199.9499302456389
 20
141.6358333719186
 30
0.0
 10
199.9854953764906
 20
141.6358333719186
 30
0.0
 10
200.0688437071136
 20
141.6358333719186
 30
0.0
 10
200.1173136068039
 20
141.6358333719186
 30
0.0
 10
200.1662488013934
 20
141.6358333719186
 30
0.0
  0
SPLINE
  5
1B5
330
1F
100
AcDbEntity
  8
0
  6
HIDDEN
 62
     7
370
     0
100
AcDbSpline
210
0.0
220
0.0
230
1.0
 70
    24
 71
     3
 72
    14
 73
    10
 74
     0
 42
0.00000001
 43
0.00000001
 40
0.0
 40
0.0
 40
0.0
 40
0.0
 40
0.5
 40
0.5
 40
0.75
 40
0.75
 40
0.875
 40
0.875
 40
1.0
 40
1.0
 40
1.0
 40
1.0
 10
199.4639236037244
 20
88.83583337191861
 30
0.0
 10
199.5111300915642
 20
88.83583337191862
 30
0.0
 10
199.5744700949936
 20
88.83583337191862
 30
0.0
 10
199.7175332012494
 20
88.83583337191861
 30
0.0
 10
199.7736138515204
 20
88.83583337191862
 30
0.0
 10
199.8850492014298
 20
88.83583337191861
 30
0.0
 10
199.9269939921028
 20
88.83583337191861
 30
0.0
 10
200.0319904351229
 20
88.83583337191861
 30
0.0
 10
200.0975543722036
 20
88.83583337191861
 30
0.0
 10
200.1662488013921
 20
88.83583337191861
 30
0.0
  0
LINE
  5
1B6
330
1F
100
AcDbEntity
  8
0
  6
HIDDEN
 62
     7
370
     0
100
AcDbLine
 10
203.1862488014
 20
142.355487223
 30
0.0
 11
203.1862488014
 21
88.4314377436
 31
0.0
  0
SPLINE
  5
1B7
330
1F
100
AcDbEntity
  8
0
  6
HIDDEN
 62
     7
370
     0
100
AcDbSpline
210
0.0
220
0.0
230
1.0
 70
     8
 71
     3
 72
    10
 73
     6
 74
     0
 42
0.00000001
 43
0.00000001
 40
0.0
 40
0.0
 40
0.0
 40
0.0
 40
0.5
 40
0.5
 40
1.0
 40
1.0
 40
1.0
 40
1.0
 10
202.7919512697013
 20
141.6358333719187
 30
0.0
 10
202.913263792799
 20
141.7104195182068
 30
0.0
 10
203.0146921550242
 20
141.8192438293582
 30
0.0
 10
203.1506357212843
 20
142.0702643479799
 30
0.0
 10
203.1862488013923
 20
142.2128470411191
 30
0.0
 10
203.1862488013922
 20
142.3554872229545
 30
0.0
  0
SPLINE
  5
1B8
330
1F
100
AcDbEntity
  8
0
  6
HIDDEN
 62
     7
370
     0
100
AcDbSpline
210
0.0
220
0.0
230
1.0
 70
     8
 71
     3
 72
    10
 73
     6
 74
     0
 42
0.00000001
 43
0.00000001
 40
0.0
 40
0.0
 40
0.0
 40
0.0
 40
0.5
 40
0.5
 40
1.0
 40
1.0
 40
1.0
 40
1.0
 10
203.0885739990599
 20
88.83583337191861
 30
0.0
 10
203.1207291866819
 20
88.77354732640248
 30
0.0
 10
203.1453854178762
 20
88.70701690153325
 30
0.0
 10
203.1781981748017
 20
88.57015827117075
 30
0.0
 10
203.1862488013923
 20
88.5011006759924
 30
0.0
 10
203.1862488013922
 20
88.43143774358906
 30
0.0
  0
SPLINE
  5
1B9
330
1F
100
AcDbEntity
  8
0
  6
HIDDEN
 62
     7
370
     0
100
AcDbSpline
210
0.0
220
0.0
230
1.0
 70
    24
 71
     3
 72
    12
 73
     8
 74
     0
 42
0.00000001
 43
0.00000001
 40
0.0
 40
0.0
 40
0.0
 40
0.0
 40
0.2499999999999983
 40
0.2499999999999983
 40
0.4999999999999967
 40
0.4999999999999967
 40
1.0
 40
1.0
 40
1.0
 40
1.0
 10
202.3862488013922
 20
141.6358333719186
 30
0.0
 10
202.4357839076102
 20
141.6358333719186
 30
0.0
 10
202.4841887962117
 20
141.6358333719186
 30
0.0
 10
202.5670753453893
 20
141.6358333719186
 30
0.0
 10
202.6035900668576
 20
141.6358333719186
 30
0.0
 10
202.6999229052123
 20
141.6358333719186
 30
0.0
 10
202.7486754528749
 20
141.6358333719186
 30
0.0
 10
202.7919512697056
 20
141.6358333719186
 30
0.0
  0
SPLINE
  5
1BA
330
1F
100
AcDbEntity
  8
0
  6
HIDDEN
 62
     7
370
     0
100
AcDbSpline
210
0.0
220
0.0
230
1.0
 70
    24
 71
     3
 72
    14
 73
    10
 74
     0
 42
0.00000001
 43
0.00000001
 40
0.0
 40
0.0
 40
0.0
 40
0.0
 40
0.1249999999999997
 40
0.1249999999999997
 40
0.2499999999999993
 40
0.2499999999999993
 40
0.4999999999999996
 40
0.4999999999999996
 40
1.0
 40
1.0
 40
1.0
 40
1.0
 10
202.3862488013922
 20
88.83583337191861
 30
0.0
 10
202.4553454337362
 20
88.83583337191862
 30
0.0
 10
202.5203385993441
 20
88.83583337191861
 30
0.0
 10
202.6246597979893
 20
88.83583337191861
 30
0.0
 10
202.6674401720977
 20
88.83583337191862
 30
0.0
 10
202.779777831744
 20
88.83583337191861
 30
0.0
 10
202.8348250138864
 20
88.83583337191862
 30
0.0
 10
202.9787017876564
 20
88.83583337191861
 30
0.0
 10
203.0417311009315
 20
88.83583337191862
 30
0.0
 10
203.0885739990599
 20
88.83583337191861
 30
0.0
  0
LINE
  5
1BB
330
1F
100
AcDbEntity
  8
0
  6
HIDDEN
 62
     7
370
     0
100
AcDbLine
 10
200.1662488014
 20
141.6358333719
 30
0.0
 11
202.3862488014
 21
141.6358333719
 31
0.0
  0
LINE
  5
1BC
330
1F
100
AcDbEntity
  8
0
  6
HIDDEN
 62
     7
370
     0
100
AcDbLine
 10
200.1662488014
 20
88.8358333719
 30
0.0
 11
202.3862488014
 21
88.8358333719
 31
0.0
  0
SPLINE
  5
1BD
330
1F
100
AcDbEntity
  8
0
  6
HIDDEN
 62
     7
370
     0
100
AcDbSpline
210
0.0
220
0.0
230
1.0
 70
     8
 71
     3
 72
     8
 73
     4
 74
     0
 42
0.00000001
 43
0.00000001
 40
0.0
 40
0.0
 40
0.0
 40
0.0
 40
1.0
 40
1.0
 40
1.0
 40
1.0
 10
197.8843159699032
 20
145.7030288450829
 30
0.0
 10
198.3794559992675
 20
144.8163491969026
 30
0.0
 10
198.8735387045465
 20
143.9290865612166
 30
0.0
 10
199.3662488013922
 20
143.0410675630902
 30
0.0
  0
LINE
  5
1BE
330
1F
100
AcDbEntity
  8
0
  6
HIDDEN
 62
     7
370
     0
100
AcDbLine
 10
199.3662488014
 20
143.0410675631
 30
0.0
 11
199.3662488014
 21
142.355487223
 31
0.0
  0
LINE
  5
1BF
330
1F
100
AcDbEntity
  8
0
  6
HIDDEN
 62
     7
370
     0
100
AcDbLine
 10
196.2262488014
 20
141.6358333719
 30
0.0
 11
199.7605463331
 21
141.6358333719
 31
0.0
  0
LINE
  5
1C0
330
1F
100
AcDbEntity
  8
0
  6
HIDDEN
 62
     7
370
     0
100
AcDbLine
 10
203.1862488014
 20
142.355487223
 30
0.0
 11
203.1862488014
 21
143.0410675631
 31
0.0
  0
SPLINE
  5
1C1
330
1F
100
AcDbEntity
  8
0
  6
HIDDEN
 62
     7
370
     0
100
AcDbSpline
210
0.0
220
0.0
230
1.0
 70
     8
 71
     3
 72
     8
 73
     4
 74
     0
 42
0.00000001
 43
0.00000001
 40
0.0
 40
0.0
 40
0.0
 40
0.0
 40
1.0
 40
1.0
 40
1.0
 40
1.0
 10
203.1862488013922
 20
143.0410675630902
 30
0.0
 10
203.678958898238
 20
143.9290865612166
 30
0.0
 10
204.1730416035169
 20
144.8163491969026
 30
0.0
 10
204.6681816328812
 20
145.7030288450829
 30
0.0
  0
LINE
  5
1C2
330
1F
100
AcDbEntity
  8
0
  6
HIDDEN
 62
     7
370
     0
100
AcDbLine
 10
204.6681816329
 20
145.7030288451
 30
0.0
 11
208.6262488014
 21
145.7030288451
 31
0.0
  0
SPLINE
  5
1C3
330
1F
100
AcDbEntity
  8
0
  6
HIDDEN
 62
     7
370
     0
100
AcDbSpline
210
0.0
220
0.0
230
1.0
 70
     8
 71
     3
 72
    12
 73
     8
 74
     0
 42
0.00000001
 43
0.00000001
 40
0.0
 40
0.0
 40
0.0
 40
0.0
 40
0.2500000000000038
 40
0.2500000000000038
 40
0.5000000000000077
 40
0.5000000000000077
 40
1.0
 40
1.0
 40
1.0
 40
1.0
 10
208.6262488013922
 20
145.7030288450829
 30
0.0
 10
208.7057417504405
 20
145.7030288450829
 30
0.0
 10
208.786825251796
 20
145.6860260951221
 30
0.0
 10
208.9332556489338
 20
145.6219655540104
 30
0.0
 10
208.9998042588075
 20
145.5748069383718
 30
0.0
 10
209.1640941327812
 20
145.4015849056795
 30
0.0
 10
209.2262488013924
 20
145.2414758154453
 30
0.0
 10
209.2262488013922
 20
145.0822736956819
 30
0.0
  0
LINE
  5
1C4
330
1F
100
AcDbEntity
  8
0
  6
HIDDEN
 62
     7
370
     0
100
AcDbLine
 10
209.2262488014
 20
145.0822736957
 30
0.0
 11
209.2262488014
 21
141.6358333719
 31
0.0
  0
LINE
  5
1C5
330
1F
100
AcDbEntity
  8
0
  6
HIDDEN
 62
     7
370
     0
100
AcDbLine
 10
202.7919512697
 20
141.6358333719
 30
0.0
 11
209.2262488014
 21
141.6358333719
 31
0.0
  0
SPLINE
  5
1C6
330
1F
100
AcDbEntity
  8
0
  6
HIDDEN
 62
     7
370
     0
100
AcDbSpline
210
0.0
220
0.0
230
1.0
 70
     8
 71
     3
 72
    12
 73
     8
 74
     0
 42
0.00000001
 43
0.00000001
 40
0.0
 40
0.0
 40
0.0
 40
0.0
 40
0.2499999999999999
 40
0.2499999999999999
 40
0.4999999999999998
 40
0.4999999999999998
 40
1.0
 40
1.0
 40
1.0
 40
1.0
 10
208.6262488013922
 20
85.04891567567147
 30
0.0
 10
208.7061298061393
 20
85.04891567567147
 30
0.0
 10
208.7867239364099
 20
85.06603276193734
 30
0.0
 10
208.9333393822548
 20
85.13076887341242
 30
0.0
 10
208.9998405749988
 20
85.17822611629276
 30
0.0
 10
209.165575476136
 20
85.35505055883225
 30
0.0
 10
209.2262488013922
 20
85.51532706603795
 30
0.0
 10
209.2262488013922
 20
85.67555597132574
 30
0.0
  0
LINE
  5
1C7
330
1F
100
AcDbEntity
  8
0
  6
HIDDEN
 62
     7
370
     0
100
AcDbLine
 10
209.2262488014
 20
145.0822736957
 30
0.0
 11
209.2262488014
 21
85.6755559713
 31
0.0
  0
LINE
  5
1C8
330
1F
100
AcDbEntity
  8
0
  6
HIDDEN
 62
     7
370
     0
100
AcDbLine
 10
204.6681816329
 20
145.7030288451
 30
0.0
 11
204.6681816329
 21
85.0489156757
 31
0.0
  0
LINE
  5
1C9
330
1F
100
AcDbEntity
  8
0
  6
HIDDEN
 62
     7
370
     0
100
AcDbLine
 10
203.1862488014
 20
143.0410675631
 30
0.0
 11
203.1862488014
 21
87.7379962129
 31
0.0
  0
LINE
  5
1CA
330
1F
100
AcDbEntity
  8
0
  6
HIDDEN
 62
     7
370
     0
100
AcDbLine
 10
199.3662488014
 20
143.0410675631
 30
0.0
 11
199.3662488014
 21
87.7379962129
 31
0.0
  0
SPLINE
  5
1CB
330
1F
100
AcDbEntity
  8
0
  6
HIDDEN
 62
     7
370
     0
100
AcDbSpline
210
0.0
220
0.0
230
1.0
 70
     8
 71
     3
 72
    14
 73
    10
 74
     0
 42
0.00000001
 43
0.00000001
 40
0.0
 40
0.0
 40
0.0
 40
0.0
 40
0.1250000000000001
 40
0.1250000000000001
 40
0.2500000000000002
 40
0.2500000000000002
 40
0.5
 40
0.5
 40
1.0
 40
1.0
 40
1.0
 40
1.0
 10
225.830268962841
 20
88.58672134131832
 30
0.0
 10
225.852217436764
 20
88.76813573725603
 30
0.0
 10
225.8777430448197
 20
88.97261325598275
 30
0.0
 10
225.9366744810376
 20
89.42513359209856
 30
0.0
 10
225.9701483054167
 20
89.67360268710756
 30
0.0
 10
226.082248397216
 20
90.47282555012876
 30
0.0
 10
226.1728197361319
 20
91.07903026007901
 30
0.0
 10
226.4948917629135
 20
93.08179408280084
 30
0.0
 10
226.776681617953
 20
94.66427058698595
 30
0.0
 10
227.1292553606463
 20
96.40949270020359
 30
0.0
  0
SPLINE
  5
1CC
330
1F
100
AcDbEntity
  8
0
  6
HIDDEN
 62
     7
370
     0
100
AcDbSpline
210
0.0
220
0.0
230
1.0
 70
     8
 71
     3
 72
    26
 73
    22
 74
     0
 42
0.00000001
 43
0.00000001
 40
0.0
 40
0.0
 40
0.0
 40
0.0
 40
0.2499999999999852
 40
0.2499999999999852
 40
0.3749999999999783
 40
0.3749999999999783
 40
0.4374999999999766
 40
0.4374999999999766
 40
0.468749999999977
 40
0.468749999999977
 40
0.4999999999999774
 40
0.4999999999999774
 40
0.5312499999999777
 40
0.5312499999999777
 40
0.5624999999999781
 40
0.5624999999999781
 40
0.6249999999999808
 40
0.6249999999999808
 40
0.7499999999999863
 40
0.7499999999999863
 40
1.0
 40
1.0
 40
1.0
 40
1.0
 10
152.2004024474967
 20
135.6259527055165
 30
0.0
 10
152.1618019246282
 20
135.508178009161
 30
0.0
 10
152.115504922074
 20
135.3837883229991
 30
0.0
 10
152.0215655736401
 20
135.1785689906456
 30
0.0
 10
151.9862541067266
 20
135.1069961241992
 30
0.0
 10
151.920074130981
 20
134.9910428915988
 30
0.0
 10
151.8955357643127
 20
134.9504583567885
 30
0.0
 10
151.8521630187589
 20
134.8863166749168
 30
0.0
 10
151.8366546173337
 20
134.8644502496317
 30
0.0
 10
151.8016119727467
 20
134.8188559812886
 30
0.0
 10
151.7820616820269
 20
134.7951856903211
 30
0.0
 10
151.7401344016564
 20
134.7505691309812
 30
0.0
 10
151.7174822914247
 20
134.7296891184633
 30
0.0
 10
151.6765085773381
 20
134.6988157047124
 30
0.0
 10
151.6589092774427
 20
134.68897683488
 30
0.0
 10
151.6142822915865
 20
134.6699872191838
 30
0.0
 10
151.5937230689331
 20
134.6696628945304
 30
0.0
 10
151.5425976294365
 20
134.6788863354066
 30
0.0
 10
151.521686216448
 20
134.7001332316236
 30
0.0
 10
151.470236308887
 20
134.7741021104543
 30
0.0
 10
151.4525710095824
 20
134.8402202037691
 30
0.0
 10
151.4389121761156
 20
134.9103859166993
 30
0.0
  0
SPLINE
  5
1CD
330
1F
100
AcDbEntity
  8
0
  6
HIDDEN
 62
     7
370
     0
100
AcDbSpline
210
0.0
220
0.0
230
1.0
 70
     8
 71
     3
 72
    26
 73
    22
 74
     0
 42
0.00000001
 43
0.00000001
 40
0.0
 40
0.0
 40
0.0
 40
0.0
 40
0.24999999999999
 40
0.24999999999999
 40
0.3749999999999855
 40
0.3749999999999855
 40
0.4374999999999828
 40
0.4374999999999828
 40
0.4687499999999823
 40
0.4687499999999823
 40
0.4999999999999817
 40
0.4999999999999817
 40
0.5312499999999811
 40
0.5312499999999811
 40
0.5624999999999805
 40
0.5624999999999805
 40
0.6249999999999835
 40
0.6249999999999835
 40
0.7499999999999892
 40
0.7499999999999892
 40
1.0
 40
1.0
 40
1.0
 40
1.0
 10
151.4065264170009
 20
95.64574581169177
 30
0.0
 10
151.4172504503934
 20
95.74870685218077
 30
0.0
 10
151.4319834409879
 20
95.84770554166185
 30
0.0
 10
151.4843370002349
 20
95.96630122172698
 30
0.0
 10
151.5060422829546
 20
96.00201152167575
 30
0.0
 10
151.5648977903199
 20
96.02699095449749
 30
0.0
 10
151.5883600241671
 20
96.03137640226105
 30
0.0
 10
151.6444814008278
 20
96.01162356881687
 30
0.0
 10
151.6672687109584
 20
95.99996717800646
 30
0.0
 10
151.7225212634897
 20
95.95818682856918
 30
0.0
 10
151.7539274962305
 20
95.92791524119315
 30
0.0
 10
151.8088613168509
 20
95.86627284227916
 30
0.0
 10
151.8332851350504
 20
95.83483118997232
 30
0.0
 10
151.8767002410376
 20
95.77509635255858
 30
0.0
 10
151.8962748036058
 20
95.74593134268594
 30
0.0
 10
151.9499074875538
 20
95.66209606695288
 30
0.0
 10
151.979684835606
 20
95.61006344897669
 30
0.0
 10
152.0612188955788
 20
95.45899777500932
 30
0.0
 10
152.1044616902528
 20
95.3658067331386
 30
0.0
 10
152.2175162799075
 20
95.10142019414425
 30
0.0
 10
152.2715272773867
 20
94.9424620250944
 30
0.0
 10
152.3151583715907
 20
94.79191106895357
 30
0.0
  0
LINE
  5
1CE
330
1F
100
AcDbEntity
  8
0
  6
HIDDEN
 62
     7
370
     0
100
AcDbLine
 10
151.3762488014
 20
134.9265111184
 30
0.0
 11
151.3762488014
 21
95.582672847
 31
0.0
  0
LINE
  5
1CF
330
1F
100
AcDbEntity
  8
0
  6
HIDDEN
 62
     7
370
     0
100
AcDbLine
 10
199.3662488014
 20
87.7379962129
 30
0.0
 11
199.3662488014
 21
88.4314377436
 31
0.0
  0
SPLINE
  5
1D0
330
1F
100
AcDbEntity
  8
0
  6
HIDDEN
 62
     7
370
     0
100
AcDbSpline
210
0.0
220
0.0
230
1.0
 70
     8
 71
     3
 72
     8
 73
     4
 74
     0
 42
0.00000001
 43
0.00000001
 40
0.0
 40
0.0
 40
0.0
 40
0.0
 40
1.0
 40
1.0
 40
1.0
 40
1.0
 10
197.8843159699032
 20
85.04891567567148
 30
0.0
 10
198.3797956305689
 20
85.94444176360483
 30
0.0
 10
198.8739096786111
 20
86.84072617865706
 30
0.0
 10
199.3662488013922
 20
87.73799621286376
 30
0.0
  0
LINE
  5
1D1
330
1F
100
AcDbEntity
  8
0
  6
HIDDEN
 62
     7
370
     0
100
AcDbLine
 10
196.2262488014
 20
88.8358333719
 30
0.0
 11
199.4639236037
 21
88.8358333719
 31
0.0
  0
LINE
  5
1D2
330
1F
100
AcDbEntity
  8
0
  6
HIDDEN
 62
     7
370
     0
100
AcDbLine
 10
203.1862488014
 20
88.4314377436
 30
0.0
 11
203.1862488014
 21
87.7379962129
 31
0.0
  0
SPLINE
  5
1D3
330
1F
100
AcDbEntity
  8
0
  6
HIDDEN
 62
     7
370
     0
100
AcDbSpline
210
0.0
220
0.0
230
1.0
 70
     8
 71
     3
 72
     8
 73
     4
 74
     0
 42
0.00000001
 43
0.00000001
 40
0.0
 40
0.0
 40
0.0
 40
0.0
 40
1.0
 40
1.0
 40
1.0
 40
1.0
 10
203.1862488013922
 20
87.73799621286375
 30
0.0
 10
203.6785879241734
 20
86.84072617865705
 30
0.0
 10
204.1727019722155
 20
85.94444176360481
 30
0.0
 10
204.6681816328812
 20
85.04891567567147
 30
0.0
  0
LINE
  5
1D4
330
1F
100
AcDbEntity
  8
0
  6
HIDDEN
 62
     7
370
     0
100
AcDbLine
 10
204.6681816329
 20
85.0489156757
 30
0.0
 11
208.6262488014
 21
85.0489156757
 31
0.0
  0
LINE
  5
1D5
330
1F
100
AcDbEntity
  8
0
  6
HIDDEN
 62
     7
370
     0
100
AcDbLine
 10
209.2262488014
 20
85.6755559713
 30
0.0
 11
209.2262488014
 21
88.8358333719
 31
0.0
  0
LINE
  5
1D6
330
1F
100
AcDbEntity
  8
0
  6
HIDDEN
 62
     7
370
     0
100
AcDbLine
 10
203.0885739991
 20
88.8358333719
 30
0.0
 11
209.2262488014
 21
88.8358333719
 31
0.0
  0
CIRCLE
  5
1D7
330
1F
100
AcDbEntity
  8
0
  6
HIDDEN
 62
     7
370
     0
100
AcDbCircle
 10
248.0160422966
 20
78.8868267075
 30
0.0
 40
1.649999999999991
  0
CIRCLE
  5
1D8
330
1F
100
AcDbEntity
  8
0
  6
HIDDEN
 62
     7
370
     0
100
AcDbCircle
 10
214.2077676596
 20
115.2418986948
 30
0.0
 40
2.488618849599239
  0
CIRCLE
  5
1D9
330
1F
100
AcDbEntity
  8
0
  6
HIDDEN
 62
     7
370
     0
100
AcDbCircle
 10
190.2762488014
 20
115.2358333719
 30
0.0
 40
5.0
  0
SPLINE
  5
1DA
330
1F
100
AcDbEntity
  8
0
  6
HIDDEN
 62
     7
370
     0
100
AcDbSpline
210
0.0
220
0.0
230
1.0
 70
     8
 71
     3
 72
    14
 73
    10
 74
     0
 42
0.00000001
 43
0.00000001
 40
0.0
 40
0.0
 40
0.0
 40
0.0
 40
0.25
 40
0.25
 40
0.5
 40
0.5
 40
0.75
 40
0.75
 40
1.0
 40
1.0
 40
1.0
 40
1.0
 10
230.2641372754894
 20
95.68239389926777
 30
0.0
 10
230.0338849371004
 20
95.82627152873246
 30
0.0
 10
229.7877015588482
 20
95.95206829795494
 30
0.0
 10
229.2798664181633
 20
96.15861505301875
 30
0.0
 10
229.0194843163868
 20
96.23943694552523
 30
0.0
 10
228.4865923225084
 20
96.35896060077111
 30
0.0
 10
228.2122417267254
 20
96.39750880998417
 30
0.0
 10
227.6692618724245
 20
96.43282688029855
 30
0.0
 10
227.3987971386315
 20
96.43026291825207
 30
0.0
 10
227.1292553606463
 20
96.40949270020366
 30
0.0
  0
LINE
  5
1DB
330
1F
100
AcDbEntity
  8
0
  6
HIDDEN
 62
     7
370
     0
100
AcDbLine
 10
252.0776902789
 20
82.0517731712
 30
0.0
 11
230.2641372755
 21
95.6823938993
 31
0.0
  0
LINE
  5
1DC
330
1F
100
AcDbEntity
  8
0
  6
HIDDEN
 62
     7
370
     0
100
AcDbLine
 10
250.6674033515
 20
108.961650801
 30
0.0
 11
246.2741734193
 21
115.2358333719
 31
0.0
  0
LINE
  5
1DD
330
1F
100
AcDbEntity
  8
0
  6
HIDDEN
 62
     7
370
     0
100
AcDbLine
 10
252.0776902789
 20
82.0517731712
 30
0.0
 11
250.6674033515
 21
108.961650801
 31
0.0
  0
SPLINE
  5
1DE
330
1F
100
AcDbEntity
  8
0
  6
HIDDEN
 62
     7
370
     0
100
AcDbSpline
210
0.0
220
0.0
230
1.0
 70
     8
 71
     3
 72
    12
 73
     8
 74
     0
 42
0.00000001
 43
0.00000001
 40
0.0
 40
0.0
 40
0.0
 40
0.0
 40
0.2499999999999999
 40
0.2499999999999999
 40
0.4999999999999999
 40
0.4999999999999999
 40
1.0
 40
1.0
 40
1.0
 40
1.0
 10
225.5441979938234
 20
115.2358333719186
 30
0.0
 10
225.5441979938234
 20
113.6637685573568
 30
0.0
 10
225.5812603112348
 20
112.0890531307525
 30
0.0
 10
225.7269379789368
 20
108.9345049685392
 30
0.0
 10
225.8354564973076
 20
107.356930155202
 30
0.0
 10
226.2525581938094
 20
102.6446753407801
 30
0.0
 10
226.6523471553828
 20
99.5213314070036
 30
0.0
 10
227.1292553606463
 20
96.40949270020364
 30
0.0
  0
LINE
  5
1DF
330
1F
100
AcDbEntity
  8
0
  6
HIDDEN
 62
     7
370
     0
100
AcDbLine
 10
183.2762488014
 20
89.9119094508
 30
0.0
 11
183.3704096426
 21
90.5818986496
 31
0.0
  0
LINE
  5
1E0
330
1F
100
AcDbEntity
  8
0
  6
HIDDEN
 62
     7
370
     0
100
AcDbLine
 10
183.3704096426
 20
139.8897680942
 30
0.0
 11
183.2762488014
 21
140.559757293
 31
0.0
  0
ARC
  5
1E1
330
1F
100
AcDbEntity
  8
0
  6
HIDDEN
 62
     7
370
     0
100
AcDbCircle
 10
182.7762488014
 20
90.6654025102
 30
0.0
 40
0.6000000000000227
100
AcDbArc
 50
352.0
 51
0.0
  0
ARC
  5
1E2
330
1F
100
AcDbEntity
  8
0
  6
HIDDEN
 62
     7
370
     0
100
AcDbCircle
 10
182.7762488014
 20
90.6654025102
 30
0.0
 40
0.6000000000000227
100
AcDbArc
 50
0.0
 51
33.5573097619
  0
ARC
  5
1E3
330
1F
100
AcDbEntity
  8
0
  6
HIDDEN
 62
     7
370
     0
100
AcDbCircle
 10
182.7762488014
 20
139.8062642336
 30
0.0
 40
0.6000000000000258
100
AcDbArc
 50
348.75
 51
8.0
  0
LWPOLYLINE
  5
1E4
330
1F
100
AcDbEntity
  8
0
  6
HIDDEN
 62
     7
370
     0
100
AcDbPolyline
 90
        3
 70
   128
 43
0.0
 10
183.3647199696
 20
139.6892100404
 10
183.3305765209
 20
139.5766541742
 10
183.2762488014
 20
139.4746017546
  0
LINE
  5
1E5
330
1F
100
AcDbEntity
  8
0
  6
HIDDEN
 62
     7
370
     0
100
AcDbLine
 10
183.3762488014
 20
90.6654025102
 30
0.0
 11
183.3762488014
 21
139.8062642336
 31
0.0
  0
LINE
  5
1E6
330
1F
100
AcDbEntity
  8
0
  6
HIDDEN
 62
     7
370
     0
100
AcDbLine
 10
183.3762488014
 20
90.6654025102
 30
0.0
 11
183.3762488014
 21
139.8062642336
 31
0.0
  0
LINE
  5
1E7
330
1F
100
AcDbEntity
  8
0
  6
HIDDEN
 62
     7
370
     0
100
AcDbLine
 10
166.3586843667
 20
95.2358333719
 30
0.0
 11
170.5503562549
 21
95.2358333719
 31
0.0
  0
LINE
  5
1E8
330
1F
100
AcDbEntity
  8
0
  6
HIDDEN
 62
     7
370
     0
100
AcDbLine
 10
170.5503562549
 20
135.2358333719
 30
0.0
 11
166.3586843667
 21
135.2358333719
 31
0.0
  0
ARC
  5
1E9
330
1F
100
AcDbEntity
  8
0
  6
HIDDEN
 62
     7
370
     0
100
AcDbCircle
 10
177.031250803
 20
103.2358333719
 30
0.0
 40
8.000000000000002
100
AcDbArc
 50
276.873183613
 51
321.3178125465
  0
ARC
  5
1EA
330
1F
100
AcDbEntity
  8
0
  6
HIDDEN
 62
     7
370
     0
100
AcDbCircle
 10
177.031250803
 20
127.2358333719
 30
0.0
 40
7.999999999999977
100
AcDbArc
 50
38.6821874535
 51
83.1172226323
  0
ARC
  5
1EB
330
1F
100
AcDbEntity
  8
0
  6
HIDDEN
 62
     7
370
     0
100
AcDbCircle
 10
166.3586843667
 20
95.8358333719
 30
0.0
 40
0.6000000000000013
100
AcDbArc
 50
210.0
 51
270.0
  0
ARC
  5
1EC
330
1F
100
AcDbEntity
  8
0
  6
HIDDEN
 62
     7
370
     0
100
AcDbCircle
 10
166.3586843667
 20
134.6358333719
 30
0.0
 40
0.6000000000000155
100
AcDbArc
 50
90.0
 51
150.0
  0
LINE
  5
1ED
330
1F
100
AcDbEntity
  8
0
  6
HIDDEN
 62
     7
370
     0
100
AcDbLine
 10
165.8390691244
 20
134.9358333719
 30
0.0
 11
164.2802233976
 21
132.2358333719
 31
0.0
  0
LINE
  5
1EE
330
1F
100
AcDbEntity
  8
0
  6
HIDDEN
 62
     7
370
     0
100
AcDbLine
 10
164.2802233976
 20
98.2358333719
 30
0.0
 11
165.8390691244
 21
95.5358333719
 31
0.0
  0
LINE
  5
1EF
330
1F
100
AcDbEntity
  8
0
  6
HIDDEN
 62
     7
370
     0
100
AcDbLine
 10
216.2278646443
 20
110.2980883972
 30
0.0
 11
209.068130408
 21
117.4660021835
 31
0.0
  0
LINE
  5
1F0
330
1F
100
AcDbEntity
  8
0
  6
HIDDEN
 62
     7
370
     0
100
AcDbLine
 10
207.4514545561
 20
113.1414341897
 30
0.0
 11
216.5689810388
 21
104.0134915013
 31
0.0
  0
LINE
  5
1F1
330
1F
100
AcDbEntity
  8
0
  6
HIDDEN
 62
     7
370
     0
100
AcDbLine
 10
206.0965869464
 20
114.4978496511
 30
0.0
 11
206.4787090031
 21
114.1152910438
 31
0.0
  0
LINE
  5
1F2
330
1F
100
AcDbEntity
  8
0
  6
HIDDEN
 62
     7
370
     0
100
AcDbLine
 10
207.4550880017
 20
117.0763142018
 30
0.0
 11
206.7218081679
 21
116.8434595519
 31
0.0
  0
LINE
  5
1F3
330
1F
100
AcDbEntity
  8
0
  6
HIDDEN
 62
     7
370
     0
100
AcDbLine
 10
208.7318829155
 20
117.4817632798
 30
0.0
 11
208.14113137
 21
117.2941688064
 31
0.0
  0
LINE
  5
1F4
330
1F
100
AcDbEntity
  8
0
  6
HIDDEN
 62
     7
370
     0
100
AcDbLine
 10
206.7218081679
 20
116.8434595519
 30
0.0
 11
206.5341359473
 21
116.2547940516
 31
0.0
  0
LINE
  5
1F5
330
1F
100
AcDbEntity
  8
0
  6
HIDDEN
 62
     7
370
     0
100
AcDbLine
 10
210.04971869
 20
117.3358333719
 30
0.0
 11
207.635728984
 21
117.3358333719
 31
0.0
  0
LINE
  5
1F6
330
1F
100
AcDbEntity
  8
0
  6
HIDDEN
 62
     7
370
     0
100
AcDbLine
 10
207.894848478
 20
113.1358333719
 30
0.0
 11
210.048634379
 21
113.1358333719
 31
0.0
  0
ARC
  5
1F7
330
1F
100
AcDbEntity
  8
0
  6
HIDDEN
 62
     7
370
     0
100
AcDbCircle
 10
191.7262488014
 20
99.5108333719
 30
0.0
 40
1.5
100
AcDbArc
 50
238.2116693829
 51
0.0
  0
ARC
  5
1F8
330
1F
100
AcDbEntity
  8
0
  6
HIDDEN
 62
     7
370
     0
100
AcDbCircle
 10
191.7262488014
 20
130.9608333719
 30
0.0
 40
1.500000000000025
100
AcDbArc
 50
0.0
 51
121.7883306171
  0
LINE
  5
1F9
330
1F
100
AcDbEntity
  8
0
  6
HIDDEN
 62
     7
370
     0
100
AcDbLine
 10
161.4762488014
 20
98.2358333719
 30
0.0
 11
164.2802233976
 21
98.2358333719
 31
0.0
  0
LINE
  5
1FA
330
1F
100
AcDbEntity
  8
0
  6
HIDDEN
 62
     7
370
     0
100
AcDbLine
 10
164.2802233976
 20
132.2358333719
 30
0.0
 11
157.4762488014
 21
132.2358333719
 31
0.0
  0
LINE
  5
1FB
330
1F
100
AcDbEntity
  8
0
  6
HIDDEN
 62
     7
370
     0
100
AcDbLine
 10
183.2762488014
 20
98.2358333719
 30
0.0
 11
190.9360747699
 21
98.2358333719
 31
0.0
  0
LINE
  5
1FC
330
1F
100
AcDbEntity
  8
0
  6
HIDDEN
 62
     7
370
     0
100
AcDbLine
 10
190.9360747699
 20
132.2358333719
 30
0.0
 11
183.2762488014
 21
132.2358333719
 31
0.0
  0
LINE
  5
1FD
330
1F
100
AcDbEntity
  8
0
  6
HIDDEN
 62
     7
370
     0
100
AcDbLine
 10
202.5762488014
 20
105.7358333719
 30
0.0
 11
205.0762488014
 21
105.7358333719
 31
0.0
  0
LINE
  5
1FE
330
1F
100
AcDbEntity
  8
0
  6
HIDDEN
 62
     7
370
     0
100
AcDbLine
 10
205.0762488014
 20
124.7358333719
 30
0.0
 11
202.5762488014
 21
124.7358333719
 31
0.0
  0
LINE
  5
1FF
330
1F
100
AcDbEntity
  8
0
  6
HIDDEN
 62
     7
370
     0
100
AcDbLine
 10
193.2262488014
 20
106.2358333719
 30
0.0
 11
193.7262488014
 21
106.7358333719
 31
0.0
  0
LINE
  5
200
330
1F
100
AcDbEntity
  8
0
  6
HIDDEN
 62
     7
370
     0
100
AcDbLine
 10
193.7262488014
 20
123.7358333719
 30
0.0
 11
193.2262488014
 21
124.2358333719
 31
0.0
  0
LINE
  5
201
330
1F
100
AcDbEntity
  8
0
  6
HIDDEN
 62
     7
370
     0
100
AcDbLine
 10
193.7262488014
 20
106.7358333719
 30
0.0
 11
202.5762488014
 21
106.7358333719
 31
0.0
  0
LINE
  5
202
330
1F
100
AcDbEntity
  8
0
  6
HIDDEN
 62
     7
370
     0
100
AcDbLine
 10
202.5762488014
 20
123.7358333719
 30
0.0
 11
193.7262488014
 21
123.7358333719
 31
0.0
  0
LINE
  5
203
330
1F
100
AcDbEntity
  8
0
  6
HIDDEN
 62
     7
370
     0
100
AcDbLine
 10
188.2262488014
 20
146.7358333719
 30
0.0
 11
188.2262488014
 21
141.6358333719
 31
0.0
  0
LINE
  5
204
330
1F
100
AcDbEntity
  8
0
  6
HIDDEN
 62
     7
370
     0
100
AcDbLine
 10
178.4606866319
 20
91.1564620384
 30
0.0
 11
178.0262544824
 21
91.6355280575
 31
0.0
  0
LINE
  5
205
330
1F
100
AcDbEntity
  8
0
  6
HIDDEN
 62
     7
370
     0
100
AcDbLine
 10
170.5262511573
 20
92.0572160166
 30
0.0
 11
170.043817414
 21
91.5781500412
 31
0.0
  0
LINE
  5
206
330
1F
100
AcDbEntity
  8
0
  6
HIDDEN
 62
     7
370
     0
100
AcDbLine
 10
170.0436954857
 20
138.8935114122
 30
0.0
 11
170.5262462367
 21
138.4143911543
 31
0.0
  0
LINE
  5
207
330
1F
100
AcDbEntity
  8
0
  6
HIDDEN
 62
     7
370
     0
100
AcDbLine
 10
178.0262486834
 20
138.836088932
 30
0.0
 11
178.4607910737
 21
139.3152091826
 31
0.0
  0
LINE
  5
208
330
1F
100
AcDbEntity
  8
0
  6
HIDDEN
 62
     7
370
     0
100
AcDbLine
 10
213.3762488014
 20
111.0358333719
 30
0.0
 11
215.8998634013
 21
115.2358333719
 31
0.0
  0
LINE
  5
209
330
1F
100
AcDbEntity
  8
0
  6
HIDDEN
 62
     7
370
     0
100
AcDbLine
 10
215.8998634013
 20
115.2358333719
 30
0.0
 11
213.3762488014
 21
119.4358333719
 31
0.0
  0
LINE
  5
20A
330
1F
100
AcDbEntity
  8
0
  6
HIDDEN
 62
     7
370
     0
100
AcDbLine
 10
205.0762488014
 20
111.0358333719
 30
0.0
 11
213.3762488014
 21
111.0358333719
 31
0.0
  0
LINE
  5
20B
330
1F
100
AcDbEntity
  8
0
  6
HIDDEN
 62
     7
370
     0
100
AcDbLine
 10
213.3762488014
 20
119.4358333719
 30
0.0
 11
205.0762488014
 21
119.4358333719
 31
0.0
  0
LINE
  5
20C
330
1F
100
AcDbEntity
  8
0
  6
HIDDEN
 62
     7
370
     0
100
AcDbLine
 10
178.0262488014
 20
91.6360119592
 30
0.0
 11
178.0262488014
 21
95.3004330337
 31
0.0
  0
LINE
  5
20D
330
1F
100
AcDbEntity
  8
0
  6
HIDDEN
 62
     7
370
     0
100
AcDbLine
 10
170.5262488014
 20
95.24021114
 30
0.0
 11
170.5262488014
 21
92.0575392542
 31
0.0
  0
LINE
  5
20E
330
1F
100
AcDbEntity
  8
0
  6
HIDDEN
 62
     7
370
     0
100
AcDbLine
 10
178.0262488014
 20
135.1712337102
 30
0.0
 11
178.0262488014
 21
138.8357976259
 31
0.0
  0
LINE
  5
20F
330
1F
100
AcDbEntity
  8
0
  6
HIDDEN
 62
     7
370
     0
100
AcDbLine
 10
170.5262488014
 20
138.4142473752
 30
0.0
 11
170.5262488014
 21
135.2314556039
 31
0.0
  0
LINE
  5
210
330
1F
100
AcDbEntity
  8
0
  6
HIDDEN
 62
     7
370
     0
100
AcDbLine
 10
214.1926243948
 20
117.3358333719
 30
0.0
 11
211.3359331168
 21
117.3358333719
 31
0.0
  0
LINE
  5
211
330
1F
100
AcDbEntity
  8
0
  6
HIDDEN
 62
     7
370
     0
100
AcDbLine
 10
211.3333960602
 20
113.1358333719
 30
0.0
 11
214.1926243948
 21
113.1358333719
 31
0.0
  0
ARC
  5
212
330
1F
100
AcDbEntity
  8
0
  6
HIDDEN
 62
     7
370
     0
100
AcDbCircle
 10
156.0762488014
 20
137.5058333719
 30
0.0
 40
1.40000000000004
100
AcDbArc
 50
270.0
 51
301.7485287426
  0
ARC
  5
213
330
1F
100
AcDbEntity
  8
0
  6
HIDDEN
 62
     7
370
     0
100
AcDbCircle
 10
160.0762488014
 20
93.0233333719
 30
0.0
 40
1.399999999999996
100
AcDbArc
 50
37.6443616934
 51
90.0
  0
LINE
  5
214
330
1F
100
AcDbEntity
  8
0
  6
HIDDEN
 62
     7
370
     0
100
AcDbLine
 10
156.0762488014
 20
136.1058333719
 30
0.0
 11
152.6505145353
 21
136.1058333719
 31
0.0
  0
LINE
  5
215
330
1F
100
AcDbEntity
  8
0
  6
HIDDEN
 62
     7
370
     0
100
AcDbLine
 10
152.5174122596
 20
136.0969968301
 30
0.0
 11
151.3861495748
 21
134.9657341453
 31
0.0
  0
LINE
  5
216
330
1F
100
AcDbEntity
  8
0
  6
HIDDEN
 62
     7
370
     0
100
AcDbLine
 10
151.3736679217
 20
95.5759142517
 30
0.0
 11
152.5262488014
 21
94.4233333719
 31
0.0
  0
LINE
  5
217
330
1F
100
AcDbEntity
  8
0
  6
HIDDEN
 62
     7
370
     0
100
AcDbLine
 10
152.5262488014
 20
94.4233333719
 30
0.0
 11
160.0762488014
 21
94.4233333719
 31
0.0
  0
LINE
  5
218
330
1F
100
AcDbEntity
  8
0
  6
HIDDEN
 62
     7
370
     0
100
AcDbLine
 10
215.2550491337
 20
117.7358333719
 30
0.0
 11
214.2343597354
 21
117.7358333719
 31
0.0
  0
LINE
  5
219
330
1F
100
AcDbEntity
  8
0
  6
HIDDEN
 62
     7
370
     0
100
AcDbLine
 10
214.2343597354
 20
112.7358333719
 30
0.0
 11
215.2554438988
 21
112.7358333719
 31
0.0
  0
DIMENSION
  5
21A
330
1F
100
AcDbEntity
  8
VERMASSUNG
100
AcDbDimension
  2
*D1
 10
146.8684439608
 20
83.7358333719
 30
0.0
 11
146.8684439608
 21
115.2358333719
 31
0.0
 70
   160
  1
HSK %%c<>
 71
     2
 42
-1.0
  3
SLDDIMSTYLE0
100
AcDbAlignedDimension
 13
183.5762488014
 23
146.7358333719
 33
0.0
 14
183.5762488014
 24
83.7358333719
 34
0.0
 50
90.0
100
AcDbRotatedDimension
  0
DIMENSION
  5
227
330
1F
100
AcDbEntity
  8
VERMASSUNG
100
AcDbDimension
  2
*D2
 10
253.2762488014
 20
156.7358333719
 30
0.0
 11
202.3262488014
 21
156.7358333719
 31
0.0
 70
   160
 71
     2
 42
-1.0
  3
SLDDIMSTYLE0
100
AcDbAlignedDimension
 13
151.3762488014
 23
134.9265111184
 33
0.0
 14
253.2762488014
 24
70.2358333719
 34
0.0
100
AcDbRotatedDimension
  0
DIMENSION
  5
231
330
1F
100
AcDbEntity
  8
VERMASSUNG
100
AcDbDimension
  2
*D3
 10
253.2762488014
 20
150.7358333719
 30
0.0
 11
218.2762488014
 21
150.7358333719
 31
0.0
 70
   160
 71
     2
 42
-1.0
  3
SLDDIMSTYLE0
100
AcDbAlignedDimension
 13
183.2762488014
 23
146.4358333719
 33
0.0
 14
253.2762488014
 24
70.2358333719
 34
0.0
100
AcDbRotatedDimension
  0
DIMENSION
  5
23B
330
1F
100
AcDbEntity
  8
VERMASSUNG
100
AcDbDimension
  2
*D4
 10
262.6963806095
 20
70.2358333719
 30
0.0
 11
262.6963806095
 21
92.7358333719
 31
0.0
 70
   160
 71
     2
 42
-1.0
  3
SLDDIMSTYLE0
100
AcDbAlignedDimension
 13
248.9572361262
 23
115.2358333719
 33
0.0
 14
253.2762488014
 24
70.2358333719
 34
0.0
 50
90.0
100
AcDbRotatedDimension
  0
DIMENSION
  5
245
330
1F
100
AcDbEntity
  8
VERMASSUNG
100
AcDbDimension
  2
*D5
 10
252.6577274598
 20
70.9840044384
 30
0.0
 11
246.8142415427
 21
102.8981707912
 31
0.0
 70
   162
 71
     1
 42
-1.0
  3
SLDDIMSTYLE1
100
AcDb2LineAngularDimension
 13
253.2762488014
 23
70.2358333719
 33
0.0
 14
253.2762488014
 24
140.5656398829
 34
0.0
 15
250.6674033515
 25
108.961650801
 35
0.0
 16
252.1194561262
 26
103.3580441668
 36
0.0
  0
LINE
  5
250
330
1F
100
AcDbEntity
  8
VERMASSUNG
  6
CENTERX2
370
     0
100
AcDbLine
 10
150.3646354733
 20
115.2358333719
 30
0.0
 11
248.9572361262
 21
115.2358333719
 31
0.0
  0
SPLINE
  5
251
330
1F
100
AcDbEntity
  8
0
  6
Continuous
 62
     7
370
    15
100
AcDbSpline
210
0.0
220
0.0
230
1.0
 70
     8
 71
     3
 72
     9
 73
     5
 74
     0
 42
0.00000001
 43
0.00000001
 40
0.0
 40
0.0
 40
0.0
 40
0.0
 40
0.5002779614873196
 40
1.0
 40
1.0
 40
1.0
 40
1.0
 10
84.1318585079232
 20
70.22198118953769
 30
0.0
 10
84.80664288298546
 20
70.33028872043931
 30
0.0
 10
86.15546179368891
 20
70.5467834278608
 30
0.0
 10
87.50101761867347
 20
70.77702921415732
 30
0.0
 10
88.17342151846738
 20
70.89208810784436
 30
0.0
  0
LINE
  5
252
330
1F
100
AcDbEntity
  8
0
  6
Continuous
 62
     7
370
    15
100
AcDbLine
 10
84.4700761697
 20
87.2757702131
 30
0.0
 11
84.1318585079
 21
87.3306536165
 31
0.0
  0
LINE
  5
253
330
1F
100
AcDbEntity
  8
0
  6
Continuous
 62
     7
370
    15
100
AcDbLine
 10
88.1400761697
 20
70.9894300783
 30
0.0
 11
88.1400761697
 21
81.1708559348
 31
0.0
  0
LINE
  5
254
330
1F
100
AcDbEntity
  8
0
  6
Continuous
 62
     7
370
    15
100
AcDbLine
 10
84.1700761697
 20
70.6480884909
 30
0.0
 11
84.1700761697
 21
81.2949837653
 31
0.0
  0
SPLINE
  5
255
330
1F
100
AcDbEntity
  8
0
  6
Continuous
 62
     7
370
    15
100
AcDbSpline
210
0.0
220
0.0
230
1.0
 70
    24
 71
     3
 72
    14
 73
    10
 74
     0
 42
0.00000001
 43
0.00000001
 40
0.0
 40
0.0
 40
0.0
 40
0.0
 40
0.1583203796596531
 40
0.3168008057739617
 40
0.4713744813487689
 40
0.622125906900549
 40
0.7721262731744307
 40
0.9245922366698562
 40
1.0
 40
1.0
 40
1.0
 40
1.0
 10
88.14007616974912
 20
70.98943007832497
 30
0.0
 10
88.14007616974884
 20
70.97789852272088
 30
0.0
 10
88.14007616974828
 20
70.95482375423524
 30
0.0
 10
88.14007616974934
 20
70.92354273215784
 30
0.0
 10
88.14007616974907
 20
70.89974712850753
 30
0.0
 10
88.14007616974914
 20
70.88586255330728
 30
0.0
 10
88.14007616974912
 20
70.88296805896752
 30
0.0
 10
88.14007616974912
 20
70.8893255292478
 30
0.0
 10
88.14007616974912
 20
70.8973930944685
 30
0.0
 10
88.14007616974912
 20
70.90006280570412
 30
0.0
  0
SPLINE
  5
256
330
1F
100
AcDbEntity
  8
0
  6
Continuous
 62
     7
370
    15
100
AcDbSpline
210
0.0
220
0.0
230
1.0
 70
    24
 71
     3
 72
    13
 73
     9
 74
     0
 42
0.00000001
 43
0.00000001
 40
0.0
 40
0.0
 40
0.0
 40
0.0
 40
0.0814738225234019
 40
0.2895993377099019
 40
0.4936151303667763
 40
0.6968086404107108
 40
0.9027769261312846
 40
1.0
 40
1.0
 40
1.0
 40
1.0
 10
84.17007616974911
 20
70.23590974522004
 30
0.0
 10
84.17007616974912
 20
70.23433673087767
 30
0.0
 10
84.17007616974914
 20
70.22874543912717
 30
0.0
 10
84.17007616974875
 20
70.26708916970155
 30
0.0
 10
84.17007616974921
 20
70.34486337628063
 30
0.0
 10
84.17007616974908
 20
70.45596247486576
 30
0.0
 10
84.17007616974911
 20
70.56242269873574
 30
0.0
 10
84.17007616974911
 20
70.62728831254502
 30
0.0
 10
84.17007616974911
 20
70.64808849092562
 30
0.0
  0
SPLINE
  5
257
330
1F
100
AcDbEntity
  8
0
  6
Continuous
 62
     7
370
    15
100
AcDbSpline
210
0.0
220
0.0
230
1.0
 70
    24
 71
     3
 72
    10
 73
     6
 74
     0
 42
0.00000001
 43
0.00000001
 40
0.0
 40
0.0
 40
0.0
 40
0.0
 40
0.2657122957246011
 40
0.616515762168255
 40
1.0
 40
1.0
 40
1.0
 40
1.0
 10
88.14007616974911
 20
81.24983403703035
 30
0.0
 10
88.14007616974897
 20
81.24483513628739
 30
0.0
 10
88.14007616974865
 20
81.23323649689006
 30
0.0
 10
88.14007616974922
 20
81.20605107824167
 30
0.0
 10
88.14007616974914
 20
81.18293065438367
 30
0.0
 10
88.14007616974911
 20
81.1708559348018
 30
0.0
  0
SPLINE
  5
258
330
1F
100
AcDbEntity
  8
0
  6
Continuous
 62
     7
370
    15
100
AcDbSpline
210
0.0
220
0.0
230
1.0
 70
    24
 71
     3
 72
    10
 73
     6
 74
     0
 42
0.00000001
 43
0.00000001
 40
0.0
 40
0.0
 40
0.0
 40
0.0
 40
0.3518022785810377
 40
0.7034245935031915
 40
1.0
 40
1.0
 40
1.0
 40
1.0
 10
84.17007616974908
 20
81.29498376530256
 30
0.0
 10
84.17007616974908
 20
81.33927045611871
 30
0.0
 10
84.1700761697491
 20
81.42782118299463
 30
0.0
 10
84.17007616974908
 20
81.53888341187093
 30
0.0
 10
84.1700761697491
 20
81.5882853334659
 30
0.0
 10
84.1700761697491
 20
81.61088861406165
 30
0.0
  0
LINE
  5
259
330
1F
100
AcDbEntity
  8
0
  6
Continuous
 62
     7
370
    15
100
AcDbLine
 10
88.1400761697
 20
81.249834037
 30
0.0
 11
88.1400761697
 21
81.2952607045
 31
0.0
  0
LINE
  5
25A
330
1F
100
AcDbEntity
  8
0
  6
Continuous
 62
     7
370
    15
100
AcDbLine
 10
84.1700761697
 20
81.6108886141
 30
0.0
 11
84.1700761697
 21
87.2606262934
 31
0.0
  0
SPLINE
  5
25B
330
1F
100
AcDbEntity
  8
0
  6
Continuous
 62
     7
370
    15
100
AcDbSpline
210
0.0
220
0.0
230
1.0
 70
    24
 71
     3
 72
     9
 73
     5
 74
     0
 42
0.00000001
 43
0.00000001
 40
0.0
 40
0.0
 40
0.0
 40
0.0
 40
0.6186256286482038
 40
1.0
 40
1.0
 40
1.0
 40
1.0
 10
84.17007616974918
 20
87.26062629336276
 30
0.0
 10
84.17007616974918
 20
87.28267306570181
 30
0.0
 10
84.17007616974918
 20
87.31831137636672
 30
0.0
 10
84.17007616974918
 20
87.31716301603291
 30
0.0
 10
84.17007616974918
 20
87.3167250608325
 30
0.0
  0
LINE
  5
25C
330
1F
100
AcDbEntity
  8
0
  6
Continuous
 62
     7
370
    15
100
AcDbLine
 10
88.1400761697
 20
81.519790979
 30
0.0
 11
86.6400761697
 21
81.519790979
 31
0.0
  0
LINE
  5
25D
330
1F
100
AcDbEntity
  8
0
  6
Continuous
 62
     7
370
    15
100
AcDbLine
 10
86.6400761697
 20
81.519790979
 30
0.0
 11
84.4700761697
 21
81.8446114429
 31
0.0
  0
LINE
  5
25E
330
1F
100
AcDbEntity
  8
0
  6
Continuous
 62
     7
370
    15
100
AcDbLine
 10
84.4700761697
 20
81.8446114429
 30
0.0
 11
84.4700761697
 21
108.961650801
 31
0.0
  0
LINE
  5
25F
330
1F
100
AcDbEntity
  8
0
  6
Continuous
 62
     7
370
    15
100
AcDbLine
 10
111.1700761697
 20
108.961650801
 30
0.0
 11
84.4700761697
 21
108.961650801
 31
0.0
  0
LINE
  5
260
330
1F
100
AcDbEntity
  8
0
  6
Continuous
 62
     7
370
    15
100
AcDbLine
 10
111.1700761697
 20
82.0517731712
 30
0.0
 11
111.1700761697
 21
108.961650801
 31
0.0
  0
ELLIPSE
  5
261
330
1F
100
AcDbEntity
  8
0
  6
Continuous
 62
     7
370
    15
100
AcDbEllipse
 10
84.1700761697
 20
124.4056843894
 30
0.0
 11
8.526512829121202E-14
 21
53.64046862306245
 31
0.0
210
0.0
220
0.0
230
1.0
 40
0.8202762043
 41
3.231942799770928
 42
3.802250437706364
  0
LINE
  5
262
330
1F
100
AcDbEntity
  8
0
  6
Continuous
 62
     7
370
    15
100
AcDbLine
 10
88.1400761697
 20
81.519790979
 30
0.0
 11
88.1400761697
 21
81.2952607045
 31
0.0
  0
LINE
  5
263
330
1F
100
AcDbEntity
  8
0
  6
Continuous
 62
     7
370
    15
100
AcDbLine
 10
88.1400761697
 20
81.249834037
 30
0.0
 11
88.1400761697
 21
81.2405654382
 31
0.0
  0
ARC
  5
264
330
1F
100
AcDbEntity
  8
0
  6
Continuous
 62
     7
370
    15
100
AcDbCircle
 10
84.1700761697
 20
115.2358333719
 30
0.0
 40
27.0
100
AcDbArc
 50
0.0
 51
89.3633671277
  0
LINE
  5
265
330
1F
100
AcDbEntity
  8
0
  6
Continuous
 62
     7
370
    15
100
AcDbLine
 10
111.1700761697
 20
108.961650801
 30
0.0
 11
111.1700761697
 21
115.2358333719
 31
0.0
  0
LINE
  5
266
330
1F
100
AcDbEntity
  8
0
  6
Continuous
 62
     7
370
    15
100
AcDbLine
 10
84.4700761697
 20
108.961650801
 30
0.0
 11
84.4700761697
 21
142.2341666538
 31
0.0
  0
SPLINE
  5
267
330
1F
100
AcDbEntity
  8
0
  6
Continuous
 62
     7
370
    15
100
AcDbSpline
210
0.0
220
0.0
230
1.0
 70
     8
 71
     3
 72
    20
 73
    16
 74
     0
 42
0.00000001
 43
0.00000001
 40
0.0
 40
0.0
 40
0.0
 40
0.0
 40
0.2499999999999981
 40
0.2499999999999981
 40
0.3749999999999983
 40
0.3749999999999983
 40
0.4999999999999987
 40
0.4999999999999987
 40
0.6249999999999989
 40
0.6249999999999989
 40
0.7499999999999992
 40
0.7499999999999992
 40
0.8749999999999997
 40
0.8749999999999997
 40
1.0
 40
1.0
 40
1.0
 40
1.0
 10
84.45857719596371
 20
89.23743405277065
 30
0.0
 10
84.41957396590253
 20
89.23700123874391
 30
0.0
 10
84.28486023455147
 20
89.23507567426246
 30
0.0
 10
83.94092095011736
 20
89.2365904609461
 30
0.0
 10
83.80320204669118
 20
89.23794622846789
 30
0.0
 10
83.4887342688547
 20
89.2442865583899
 30
0.0
 10
83.3112539061131
 20
89.24926514236125
 30
0.0
 10
82.91507676511172
 20
89.26538323095424
 30
0.0
 10
82.69606861249113
 20
89.2766086469848
 30
0.0
 10
82.23211210044838
 20
89.3071168231851
 30
0.0
 10
81.98544132773824
 20
89.32644758482297
 30
0.0
 10
81.4627885998563
 20
89.3758353968339
 30
0.0
 10
81.18511851890499
 20
89.40615695882796
 30
0.0
 10
80.6164119231226
 20
89.47823980798971
 30
0.0
 10
80.32379526333017
 20
89.52009949468331
 30
0.0
 10
80.02299044036498
 20
89.56870108268275
 30
0.0
  0
SPLINE
  5
268
330
1F
100
AcDbEntity
  8
0
  6
Continuous
 62
     7
370
    15
100
AcDbSpline
210
0.0
220
0.0
230
1.0
 70
     8
 71
     3
 72
    20
 73
    16
 74
     0
 42
0.00000001
 43
0.00000001
 40
0.0
 40
0.0
 40
0.0
 40
0.0
 40
0.250000000000001
 40
0.250000000000001
 40
0.3750000000000009
 40
0.3750000000000009
 40
0.5000000000000008
 40
0.5000000000000008
 40
0.6250000000000006
 40
0.6250000000000006
 40
0.7500000000000004
 40
0.7500000000000004
 40
0.8750000000000002
 40
0.8750000000000002
 40
1.0
 40
1.0
 40
1.0
 40
1.0
 10
80.02299044036498
 20
140.9029656611545
 30
0.0
 10
80.62452017535544
 20
141.000155925796
 30
0.0
 10
81.18936166435273
 20
141.0698268044662
 30
0.0
 10
81.97936808626851
 20
141.1447269608365
 30
0.0
 10
82.22907708664007
 20
141.1643216538264
 30
0.0
 10
82.69275262169269
 20
141.1948683532121
 30
0.0
 10
82.90825061760174
 20
141.2059574342744
 30
0.0
 10
83.30564924239064
 20
141.2222204548792
 30
0.0
 10
83.48633693460589
 20
141.227319170428
 30
0.0
 10
83.80144443832789
 20
141.2336975919344
 30
0.0
 10
83.93763555847076
 20
141.2350467214734
 30
0.0
 10
84.16674831371937
 20
141.2360855314422
 30
0.0
 10
84.2594950532723
 20
141.23576807907
 30
0.0
 10
84.39514673361357
 20
141.2349476597967
 30
0.0
 10
84.43907742693497
 20
141.2344490775951
 30
0.0
 10
84.45857719596371
 20
141.2342326910666
 30
0.0
  0
ELLIPSE
  5
269
330
1F
100
AcDbEntity
  8
0
  6
Continuous
 62
     7
370
    15
100
AcDbEllipse
 10
69.9978326646
 20
107.1557899492
 30
0.0
 11
-1.780425551617967
 21
3.03733942091911
 31
0.0
210
0.0
220
0.0
230
1.0
 40
0.5815557669
 41
0.0
 42
6.283185307179586
  0
ARC
  5
26A
330
1F
100
AcDbEntity
  8
0
  6
Continuous
 62
     7
370
    15
100
AcDbCircle
 10
84.1700761697
 20
115.2358333719
 30
0.0
 40
26.00000000000005
100
AcDbArc
 50
99.1780670049
 51
260.8219329951
  0
SPLINE
  5
26B
330
1F
100
AcDbEntity
  8
0
  6
Continuous
 62
     7
370
    15
100
AcDbSpline
210
0.0
220
0.0
230
1.0
 70
    24
 71
     3
 72
    10
 73
     6
 74
     0
 42
0.00000001
 43
0.00000001
 40
0.0
 40
0.0
 40
0.0
 40
0.0
 40
0.0503274374758694
 40
0.3857712505729932
 40
1.0
 40
1.0
 40
1.0
 40
1.0
 10
84.47007616974979
 20
141.6358333719186
 30
0.0
 10
84.37007830789615
 20
141.6358333719186
 30
0.0
 10
83.60357196152403
 20
141.6358333719186
 30
0.0
 10
81.61564976626698
 20
141.6358333719186
 30
0.0
 10
79.72956710173108
 20
141.6358333719186
 30
0.0
 10
78.5096874905157
 20
141.6358333719186
 30
0.0
  0
SPLINE
  5
26C
330
1F
100
AcDbEntity
  8
0
  6
Continuous
 62
     7
370
    15
100
AcDbSpline
210
0.0
220
0.0
230
1.0
 70
    24
 71
     3
 72
    10
 73
     6
 74
     0
 42
0.00000001
 43
0.00000001
 40
0.0
 40
0.0
 40
0.0
 40
0.0
 40
0.0503274374758282
 40
0.3857712505729665
 40
0.9999999999999999
 40
0.9999999999999999
 40
0.9999999999999999
 40
0.9999999999999999
 10
84.47007616974952
 20
88.83583337191861
 30
0.0
 10
84.370078307896
 20
88.83583337191861
 30
0.0
 10
83.60357196152394
 20
88.83583337191862
 30
0.0
 10
81.61564976626698
 20
88.83583337191861
 30
0.0
 10
79.72956710173108
 20
88.83583337191861
 30
0.0
 10
78.5096874905157
 20
88.83583337191861
 30
0.0
  0
SPLINE
  5
26D
330
1F
100
AcDbEntity
  8
0
  6
Continuous
 62
     7
370
    15
100
AcDbSpline
210
0.0
220
0.0
230
1.0
 70
    24
 71
     3
 72
    10
 73
     6
 74
     0
 42
0.00000001
 43
0.00000001
 40
0.0
 40
0.0
 40
0.0
 40
0.0
 40
0.5
 40
0.5
 40
1.0
 40
1.0
 40
1.0
 40
1.0
 10
75.17007616974966
 20
85.67555597132579
 30
0.0
 10
75.17007616974966
 20
85.51566870313214
 30
0.0
 10
75.17007616974966
 20
85.35454144761754
 30
0.0
 10
75.17007616974966
 20
85.1204424492627
 30
0.0
 10
75.17007616974966
 20
85.04891567567148
 30
0.0
 10
75.17007616974966
 20
85.04891567567148
 30
0.0
  0
ARC
  5
26E
330
1F
100
AcDbEntity
  8
0
  6
Continuous
 62
     7
370
    15
100
AcDbCircle
 10
84.1700761697
 20
115.2358333719
 30
0.0
 40
31.49999999999999
100
AcDbArc
 50
140.9381656697
 51
253.398450401
  0
SPLINE
  5
26F
330
1F
100
AcDbEntity
  8
0
  6
Continuous
 62
     7
370
    15
100
AcDbSpline
210
0.0
220
0.0
230
1.0
 70
    24
 71
     3
 72
    12
 73
     8
 74
     0
 42
0.00000001
 43
0.00000001
 40
0.0
 40
0.0
 40
0.0
 40
0.0
 40
0.2500000000000006
 40
0.2500000000000006
 40
0.5000000000000012
 40
0.5000000000000012
 40
1.0
 40
1.0
 40
1.0
 40
1.0
 10
59.71138650738206
 20
135.0858333719186
 30
0.0
 10
59.71138650738204
 20
135.0858333719186
 30
0.0
 10
59.73921622768553
 20
135.0858333719186
 30
0.0
 10
59.8343586889422
 20
135.0858333719186
 30
0.0
 10
59.90078150524257
 20
135.0858333719186
 30
0.0
 10
60.12498093676269
 20
135.0858333719186
 30
0.0
 10
60.30896733930831
 20
135.0858333719186
 30
0.0
 10
60.48912390849129
 20
135.0858333719186
 30
0.0
  0
SPLINE
  5
270
330
1F
100
AcDbEntity
  8
0
  6
Continuous
 62
     7
370
    15
100
AcDbSpline
210
0.0
220
0.0
230
1.0
 70
    24
 71
     3
 72
    10
 73
     6
 74
     0
 42
0.00000001
 43
0.00000001
 40
0.0
 40
0.0
 40
0.0
 40
0.0
 40
0.5
 40
0.5
 40
1.0
 40
1.0
 40
1.0
 40
1.0
 10
76.17007616974966
 20
145.0822736956825
 30
0.0
 10
76.17007616974966
 20
145.2426789620333
 30
0.0
 10
76.17007616974966
 20
145.4017407750219
 30
0.0
 10
76.17007616974966
 20
145.6326532406522
 30
0.0
 10
76.17007616974966
 20
145.7030288450829
 30
0.0
 10
76.17007616974966
 20
145.7030288450829
 30
0.0
  0
SPLINE
  5
271
330
1F
100
AcDbEntity
  8
0
  6
Continuous
 62
     7
370
    15
100
AcDbSpline
210
0.0
220
0.0
230
1.0
 70
    24
 71
     3
 72
    12
 73
     8
 74
     0
 42
0.00000001
 43
0.00000001
 40
0.0
 40
0.0
 40
0.0
 40
0.0
 40
0.249999999999998
 40
0.249999999999998
 40
0.499999999999996
 40
0.499999999999996
 40
1.0
 40
1.0
 40
1.0
 40
1.0
 10
64.32007616974967
 20
139.694523034286
 30
0.0
 10
64.32007616974967
 20
139.694523034286
 30
0.0
 10
64.32007616974967
 20
139.6663033356982
 30
0.0
 10
64.32007616974967
 20
139.5718603284501
 30
0.0
 10
64.32007616974967
 20
139.5055733517447
 30
0.0
 10
64.32007616974967
 20
139.2799485284564
 30
0.0
 10
64.32007616974967
 20
139.0975222654239
 30
0.0
 10
64.32007616974967
 20
138.916785633177
 30
0.0
  0
ARC
  5
272
330
1F
100
AcDbEntity
  8
0
  6
Continuous
 62
     7
370
    15
100
AcDbCircle
 10
84.1700761697
 20
115.2358333719
 30
0.0
 40
31.49999999999998
100
AcDbArc
 50
104.7124579609
 51
129.0618343303
  0
SPLINE
  5
273
330
1F
100
AcDbEntity
  8
0
  6
Continuous
 62
     7
370
    15
100
AcDbSpline
210
0.0
220
0.0
230
1.0
 70
    24
 71
     3
 72
    12
 73
     8
 74
     0
 42
0.00000001
 43
0.00000001
 40
0.0
 40
0.0
 40
0.0
 40
0.0
 40
0.2500000000000038
 40
0.2500000000000038
 40
0.5000000000000077
 40
0.5000000000000077
 40
1.0
 40
1.0
 40
1.0
 40
1.0
 10
92.17007616974968
 20
145.7030288450829
 30
0.0
 10
92.17007616974968
 20
145.7030288450829
 30
0.0
 10
92.17007616974968
 20
145.6860260951221
 30
0.0
 10
92.17007616974966
 20
145.6219655540104
 30
0.0
 10
92.17007616974968
 20
145.5748069383718
 30
0.0
 10
92.17007616974968
 20
145.4015849056795
 30
0.0
 10
92.17007616974966
 20
145.2414758154453
 30
0.0
 10
92.17007616974966
 20
145.0822736956819
 30
0.0
  0
ARC
  5
274
330
1F
100
AcDbEntity
  8
0
  6
Continuous
 62
     7
370
    15
100
AcDbCircle
 10
84.1700761697
 20
115.2358333719
 30
0.0
 40
31.49999999999999
100
AcDbArc
 50
328.9972808661
 51
75.2875420391
  0
LINE
  5
275
330
1F
100
AcDbEntity
  8
0
  6
Continuous
 62
     7
370
    15
100
AcDbLine
 10
92.1700761697
 20
145.0822736957
 30
0.0
 11
92.1700761697
 21
141.6358333719
 31
0.0
  0
LINE
  5
276
330
1F
100
AcDbEntity
  8
0
  6
Continuous
 62
     7
370
    15
100
AcDbLine
 10
92.1700761697
 20
141.6358333719
 30
0.0
 11
89.830464849
 21
141.6358333719
 31
0.0
  0
LINE
  5
277
330
1F
100
AcDbEntity
  8
0
  6
Continuous
 62
     7
370
    15
100
AcDbLine
 10
76.1700761697
 20
141.6358333719
 30
0.0
 11
76.1700761697
 21
145.0822736957
 31
0.0
  0
LINE
  5
278
330
1F
100
AcDbEntity
  8
0
  6
Continuous
 62
     7
370
    15
100
AcDbLine
 10
75.1700761697
 20
88.8358333719
 30
0.0
 11
75.1700761697
 21
85.6755559713
 31
0.0
  0
LINE
  5
279
330
1F
100
AcDbEntity
  8
0
  6
Continuous
 62
     7
370
    15
100
AcDbLine
 10
64.3200761697
 20
138.9167856332
 30
0.0
 11
64.3200761697
 21
135.0858333719
 31
0.0
  0
LINE
  5
27A
330
1F
100
AcDbEntity
  8
0
  6
Continuous
 62
     7
370
    15
100
AcDbLine
 10
60.4891239085
 20
135.0858333719
 30
0.0
 11
64.3200761697
 21
135.0858333719
 31
0.0
  0
LINE
  5
27B
330
1F
100
AcDbEntity
  8
0
  6
Continuous
 62
     7
370
    15
100
AcDbLine
 10
78.5096874905
 20
141.6358333719
 30
0.0
 11
76.1700761697
 21
141.6358333719
 31
0.0
  0
LINE
  5
27C
330
1F
100
AcDbEntity
  8
0
  6
Continuous
 62
     7
370
    15
100
AcDbLine
 10
78.5096874905
 20
88.8358333719
 30
0.0
 11
75.1700761697
 21
88.8358333719
 31
0.0
  0
SPLINE
  5
27D
330
1F
100
AcDbEntity
  8
0
  6
Continuous
 62
     7
370
    15
100
AcDbSpline
210
0.0
220
0.0
230
1.0
 70
     8
 71
     3
 72
    28
 73
    24
 74
     0
 42
0.00000001
 43
0.00000001
 40
0.0
 40
0.0
 40
0.0
 40
0.0
 40
0.1250000000000001
 40
0.1250000000000001
 40
0.1875000000000001
 40
0.1875000000000001
 40
0.2500000000000001
 40
0.2500000000000001
 40
0.375
 40
0.375
 40
0.4375000000000001
 40
0.4375000000000001
 40
0.5
 40
0.5
 40
0.625
 40
0.625
 40
0.7499999999999999
 40
0.7499999999999999
 40
0.8124999999999999
 40
0.8124999999999999
 40
0.875
 40
0.875
 40
1.0
 40
1.0
 40
1.0
 40
1.0
 10
75.17007616974972
 20
85.04891567567148
 30
0.0
 10
75.17007616974972
 20
85.04891567567147
 30
0.0
 10
75.22255251206792
 20
85.03313096172126
 30
0.0
 10
75.37634945962483
 20
84.98813554764506
 30
0.0
 10
75.44022443465883
 20
84.96958055256933
 30
0.0
 10
75.59372070331537
 20
84.92572783012282
 30
0.0
 10
75.68353567870906
 20
84.90038322317064
 30
0.0
 10
75.98551447375992
 20
84.81698114542053
 30
0.0
 10
76.23146790781568
 20
84.75111558626944
 30
0.0
 10
76.66683508724407
 20
84.64214524577764
 30
0.0
 10
76.8240502694164
 20
84.603905610011
 30
0.0
 10
77.15621488995887
 20
84.52614687259167
 30
0.0
 10
77.33102215556175
 20
84.4866459104163
 30
0.0
 10
77.88108134614757
 20
84.3677381680503
 30
0.0
 10
78.28170473054305
 20
84.28792048662567
 30
0.0
 10
79.15429084189175
 20
84.1345773248296
 30
0.0
 10
79.61442628949334
 20
84.06324357156036
 30
0.0
 10
80.33439238345952
 20
83.96930006448575
 30
0.0
 10
80.57966609349404
 20
83.94010627112581
 30
0.0
 10
81.08112242992287
 20
83.88663969686239
 30
0.0
 10
81.33855379929538
 20
83.86228036258723
 30
0.0
 10
82.11449359515989
 20
83.79869021714251
 30
0.0
 10
82.63872199506592
 20
83.76858728205325
 30
0.0
 10
83.17007616974973
 20
83.75171038905631
 30
0.0
  0
SPLINE
  5
27E
330
1F
100
AcDbEntity
  8
0
  6
Continuous
 62
     7
370
    15
100
AcDbSpline
210
0.0
220
0.0
230
1.0
 70
     8
 71
     3
 72
    50
 73
    46
 74
     0
 42
0.00000001
 43
0.00000001
 40
0.0
 40
0.0
 40
0.0
 40
0.0
 40
0.0625000000000004
 40
0.0625000000000004
 40
0.0937500000000005
 40
0.0937500000000005
 40
0.1250000000000006
 40
0.1250000000000006
 40
0.1875000000000006
 40
0.1875000000000006
 40
0.2187500000000005
 40
0.2187500000000005
 40
0.2500000000000006
 40
0.2500000000000006
 40
0.3125000000000006
 40
0.3125000000000006
 40
0.3750000000000007
 40
0.3750000000000007
 40
0.4062500000000007
 40
0.4062500000000007
 40
0.4375000000000007
 40
0.4375000000000007
 40
0.5000000000000008
 40
0.5000000000000008
 40
0.5625000000000008
 40
0.5625000000000008
 40
0.6250000000000009
 40
0.6250000000000009
 40
0.6562500000000009
 40
0.6562500000000009
 40
0.6875000000000008
 40
0.6875000000000008
 40
0.7187500000000008
 40
0.7187500000000008
 40
0.7500000000000008
 40
0.7500000000000008
 40
0.8125000000000006
 40
0.8125000000000006
 40
0.8750000000000004
 40
0.8750000000000004
 40
0.9375000000000002
 40
0.9375000000000002
 40
0.9687500000000001
 40
0.9687500000000001
 40
1.0
 40
1.0
 40
1.0
 40
1.0
 10
76.17007616974972
 20
145.7030288450829
 30
0.0
 10
76.17007616974972
 20
145.7030288450829
 30
0.0
 10
76.22237031170278
 20
145.7168949484641
 30
0.0
 10
76.37572284653552
 20
145.7563320913481
 30
0.0
 10
76.43942034188674
 20
145.7725847936131
 30
0.0
 10
76.59251199217657
 20
145.8109335034635
 30
0.0
 10
76.68216809413738
 20
145.8330869498715
 30
0.0
 10
76.98374948231142
 20
145.9058428957335
 30
0.0
 10
77.22949091274542
 20
145.9631235985783
 30
0.0
 10
77.66465097909608
 20
146.0571160380341
 30
0.0
 10
77.82179180655726
 20
146.0899750052273
 30
0.0
 10
78.15443089928156
 20
146.1565510586755
 30
0.0
 10
78.3294968547216
 20
146.1901944965144
 30
0.0
 10
78.88035238542321
 20
146.2907553610915
 30
0.0
 10
79.28153679460986
 20
146.3573181708416
 30
0.0
 10
80.15502600069725
 20
146.4820172261411
 30
0.0
 10
80.61706659367971
 20
146.5385402352118
 30
0.0
 10
81.3381820072736
 20
146.6092091698266
 30
0.0
 10
81.58374264495698
 20
146.6304853798981
 30
0.0
 10
82.08553094411519
 20
146.66779110614
 30
0.0
 10
82.34329216043184
 20
146.683882303
 30
0.0
 10
83.11840462465163
 20
146.7225237746077
 30
0.0
 10
83.63883380837132
 20
146.7357131931641
 30
0.0
 10
84.68696964915668
 20
146.7359519166222
 30
0.0
 10
85.21947797953044
 20
146.722551913918
 30
0.0
 10
86.24716824169704
 20
146.6714879257229
 30
0.0
 10
86.74693242227876
 20
146.6340487909686
 30
0.0
 10
87.47542742229923
 20
146.5628853080502
 30
0.0
 10
87.71477841474471
 20
146.5366168498577
 30
0.0
 10
88.17601688623158
 20
146.4809353771054
 30
0.0
 10
88.39928354129886
 20
146.4513976051695
 30
0.0
 10
88.83147114732093
 20
146.3897904601418
 30
0.0
 10
89.0403917275609
 20
146.3577195174206
 30
0.0
 10
89.44381665308461
 20
146.2919025404512
 30
0.0
 10
89.63929631305396
 20
146.257972321988
 30
0.0
 10
90.1951545265902
 20
146.1565436944078
 30
0.0
 10
90.52471191322176
 20
146.0896246657177
 30
0.0
 10
91.10410741100772
 20
145.9645991033758
 30
0.0
 10
91.3556273824521
 20
145.9060223091418
 30
0.0
 10
91.75708187906565
 20
145.8091874574968
 30
0.0
 10
91.90956487461276
 20
145.7704324979377
 30
0.0
 10
92.064875823788
 20
145.7305049675014
 30
0.0
 10
92.10438927119415
 20
145.7202131762509
 30
0.0
 10
92.15690261848991
 20
145.7064969637119
 30
0.0
 10
92.1700761697497
 20
145.7030288450829
 30
0.0
 10
92.1700761697497
 20
145.7030288450829
 30
0.0
  0
SPLINE
  5
27F
330
1F
100
AcDbEntity
  8
0
  6
Continuous
 62
     7
370
    15
100
AcDbSpline
210
0.0
220
0.0
230
1.0
 70
     8
 71
     3
 72
    20
 73
    16
 74
     0
 42
0.00000001
 43
0.00000001
 40
0.0
 40
0.0
 40
0.0
 40
0.0
 40
0.2500000000000005
 40
0.2500000000000005
 40
0.3750000000000004
 40
0.3750000000000004
 40
0.5000000000000003
 40
0.5000000000000003
 40
0.6250000000000002
 40
0.6250000000000002
 40
0.7500000000000001
 40
0.7500000000000001
 40
0.8750000000000001
 40
0.8750000000000001
 40
1.0
 40
1.0
 40
1.0
 40
1.0
 10
59.71138650738232
 20
135.0858333719186
 30
0.0
 10
60.242043275217
 20
135.739695800216
 30
0.0
 10
60.77577127147852
 20
136.3434815822131
 30
0.0
 10
61.55874358946726
 20
137.1703203183818
 30
0.0
 10
61.81672718956393
 20
137.4327489563347
 30
0.0
 10
62.32112244597176
 20
137.9294116104396
 30
0.0
 10
62.56390086839976
 20
138.1599984894612
 30
0.0
 10
63.01458094791283
 20
138.5765527140438
 30
0.0
 10
63.2240448139041
 20
138.7640505160113
 30
0.0
 10
63.60233333049214
 20
139.0954474936477
 30
0.0
 10
63.76608101667662
 20
139.234951481143
 30
0.0
 10
64.03426681887606
 20
139.460404988614
 30
0.0
 10
64.13949122696282
 20
139.5470311001576
 30
0.0
 10
64.28355045227632
 20
139.6650118890117
 30
0.0
 10
64.32007616974971
 20
139.694523034286
 30
0.0
 10
64.32007616974971
 20
139.694523034286
 30
0.0
  0
ARC
  5
280
330
1F
100
AcDbEntity
  8
0
  6
Continuous
 62
     7
370
    15
100
AcDbCircle
 10
84.1700761697
 20
115.2358333719
 30
0.0
 40
31.49999999999999
100
AcDbArc
 50
268.180780706
 51
270.0
  0
CIRCLE
  5
281
330
1F
100
AcDbEntity
  8
VERMASSUNG
  6
CENTERX2
100
AcDbCircle
 10
84.1700761697
 20
110.5390836217
 30
0.0
 40
39.99999999999998
  0
DIMENSION
  5
282
330
1F
100
AcDbEntity
  8
VERMASSUNG
100
AcDbDimension
  2
*D6
 10
39.1857453754
 20
150.5390836217
 30
0.0
 11
39.1857453754
 21
110.5390836217
 31
0.0
 70
   160
  1
%%c<>
 71
     2
 42
-1.0
  3
SLDDIMSTYLE2
100
AcDbAlignedDimension
 13
84.1700761697
 23
70.5390836217
 33
0.0
 14
84.1700761697
 24
150.5390836217
 34
0.0
 50
90.0
100
AcDbRotatedDimension
  0
INSERT
  5
299
330
1F
100
AcDbEntity
  8
VERMASSUNG
100
AcDbBlockReference
  2
SW_CENTERMARKSYMBOL_0
 10
84.1700761697
 20
115.2358333719
 30
0.0
  0
OLE2FRAME
  5
29A
330
1F
100
AcDbEntity
  8
0
100
AcDbOle2Frame
 70
     2
  3
Bitmap Image
 10
13.8511154363
 20
38.264191557
 30
0.0
 11
51.6290888628
 21
31.9806341108
 31
0.0
 71
     2
 72
     0
 73
     1
 90
    12928
310
80552BED0767C5B32B40DDAF6807D121434000000000000000006FFBDDFB85D0
310
4940DDAF6807D121434000000000000000006FFBDDFB85D04940416F4BD60AFB
310
3F4000000000000000002BED0767C5B32B40416F4BD60AFB3F40000000000000
310
0000000000000100000000010000010000000100000000000100000000320000
310
D0CF11E0A1B11AE1000000000000000000000000000000003E000300FEFF0900
310
0600000000000000000000000100000001000000000000000010000002000000
310
01000000FEFFFFFF0000000000000000FFFFFFFFFFFFFFFFFFFFFFFFFFFFFFFF
310
FFFFFFFFFFFFFFFFFFFFFFFFFFFFFFFFFFFFFFFFFFFFFFFFFFFFFFFFFFFFFFFF
310
FFFFFFFFFFFFFFFFFFFFFFFFFFFFFFFFFFFFFFFFFFFFFFFFFFFFFFFFFFFFFFFF
310
FFFFFFFFFFFFFFFFFFFFFFFFFFFFFFFFFFFFFFFFFFFFFFFFFFFFFFFFFFFFFFFF
310
FFFFFFFFFFFFFFFFFFFFFFFFFFFFFFFFFFFFFFFFFFFFFFFFFFFFFFFFFFFFFFFF
310
FFFFFFFFFFFFFFFFFFFFFFFFFFFFFFFFFFFFFFFFFFFFFFFFFFFFFFFFFFFFFFFF
310
FFFFFFFFFFFFFFFFFFFFFFFFFFFFFFFFFFFFFFFFFFFFFFFFFFFFFFFFFFFFFFFF
310
FFFFFFFFFFFFFFFFFFFFFFFFFFFFFFFFFFFFFFFFFFFFFFFFFFFFFFFFFFFFFFFF
310
FFFFFFFFFFFFFFFFFFFFFFFFFFFFFFFFFFFFFFFFFFFFFFFFFFFFFFFFFFFFFFFF
310
FFFFFFFFFFFFFFFFFFFFFFFFFFFFFFFFFFFFFFFFFFFFFFFFFFFFFFFFFFFFFFFF
310
FFFFFFFFFFFFFFFFFFFFFFFFFFFFFFFFFFFFFFFFFFFFFFFFFFFFFFFFFFFFFFFF
310
FFFFFFFFFFFFFFFFFFFFFFFFFFFFFFFFFFFFFFFFFFFFFFFFFFFFFFFFFFFFFFFF
310
FFFFFFFFFFFFFFFFFFFFFFFFFFFFFFFFFFFFFFFFFFFFFFFFFFFFFFFFFFFFFFFF
310
FFFFFFFFFFFFFFFFFFFFFFFFFFFFFFFFFFFFFFFFFFFFFFFFFFFFFFFFFFFFFFFF
310
FDFFFFFFFEFFFFFFFEFFFFFFFEFFFFFF05000000060000000700000008000000
310
090000000A0000000B0000000C0000000D0000000E0000000F00000010000000
310
11000000120000001300000014000000150000001600000017000000FEFFFFFF
310
FFFFFFFFFFFFFFFFFFFFFFFFFFFFFFFFFFFFFFFFFFFFFFFFFFFFFFFFFFFFFFFF
310
FFFFFFFFFFFFFFFFFFFFFFFFFFFFFFFFFFFFFFFFFFFFFFFFFFFFFFFFFFFFFFFF
310
FFFFFFFFFFFFFFFFFFFFFFFFFFFFFFFFFFFFFFFFFFFFFFFFFFFFFFFFFFFFFFFF
310
FFFFFFFFFFFFFFFFFFFFFFFFFFFFFFFFFFFFFFFFFFFFFFFFFFFFFFFFFFFFFFFF
310
FFFFFFFFFFFFFFFFFFFFFFFFFFFFFFFFFFFFFFFFFFFFFFFFFFFFFFFFFFFFFFFF
310
FFFFFFFFFFFFFFFFFFFFFFFFFFFFFFFFFFFFFFFFFFFFFFFFFFFFFFFFFFFFFFFF
310
FFFFFFFFFFFFFFFFFFFFFFFFFFFFFFFFFFFFFFFFFFFFFFFFFFFFFFFFFFFFFFFF
310
FFFFFFFFFFFFFFFFFFFFFFFFFFFFFFFFFFFFFFFFFFFFFFFFFFFFFFFFFFFFFFFF
310
FFFFFFFFFFFFFFFFFFFFFFFFFFFFFFFFFFFFFFFFFFFFFFFFFFFFFFFFFFFFFFFF
310
FFFFFFFFFFFFFFFFFFFFFFFFFFFFFFFFFFFFFFFFFFFFFFFFFFFFFFFFFFFFFFFF
310
FFFFFFFFFFFFFFFFFFFFFFFFFFFFFFFFFFFFFFFFFFFFFFFFFFFFFFFFFFFFFFFF
310
FFFFFFFFFFFFFFFFFFFFFFFFFFFFFFFFFFFFFFFFFFFFFFFFFFFFFFFFFFFFFFFF
310
FFFFFFFFFFFFFFFFFFFFFFFFFFFFFFFFFFFFFFFFFFFFFFFFFFFFFFFFFFFFFFFF
310
52006F006F007400200045006E00740072007900000000000000000000000000
310
0000000000000000000000000000000000000000000000000000000000000000
310
16000500FFFFFFFFFFFFFFFF020000000A00030000000000C000000000000046
310
00000000000000000000000050477790EECCCB0103000000C000000000000000
310
01004F006C006500000000000000000000000000000000000000000000000000
310
0000000000000000000000000000000000000000000000000000000000000000
310
0A000200FFFFFFFFFFFFFFFFFFFFFFFF00000000000000000000000000000000
310
0000000000000000000000000000000000000000000000001400000000000000
310
010043006F006D0070004F0062006A0000000000000000000000000000000000
310
0000000000000000000000000000000000000000000000000000000000000000
310
120002010100000003000000FFFFFFFF00000000000000000000000000000000
310
0000000000000000000000000000000000000000010000004D00000000000000
310
01004F006C006500310030004E00610074006900760065000000000000000000
310
0000000000000000000000000000000000000000000000000000000000000000
310
1A000200FFFFFFFFFFFFFFFFFFFFFFFF00000000000000000000000000000000
310
0000000000000000000000000000000000000000040000002426000000000000
310
FEFFFFFF02000000FEFFFFFFFFFFFFFFFFFFFFFFFFFFFFFFFFFFFFFFFFFFFFFF
310
FFFFFFFFFFFFFFFFFFFFFFFFFFFFFFFFFFFFFFFFFFFFFFFFFFFFFFFFFFFFFFFF
310
FFFFFFFFFFFFFFFFFFFFFFFFFFFFFFFFFFFFFFFFFFFFFFFFFFFFFFFFFFFFFFFF
310
FFFFFFFFFFFFFFFFFFFFFFFFFFFFFFFFFFFFFFFFFFFFFFFFFFFFFFFFFFFFFFFF
310
FFFFFFFFFFFFFFFFFFFFFFFFFFFFFFFFFFFFFFFFFFFFFFFFFFFFFFFFFFFFFFFF
310
FFFFFFFFFFFFFFFFFFFFFFFFFFFFFFFFFFFFFFFFFFFFFFFFFFFFFFFFFFFFFFFF
310
FFFFFFFFFFFFFFFFFFFFFFFFFFFFFFFFFFFFFFFFFFFFFFFFFFFFFFFFFFFFFFFF
310
FFFFFFFFFFFFFFFFFFFFFFFFFFFFFFFFFFFFFFFFFFFFFFFFFFFFFFFFFFFFFFFF
310
FFFFFFFFFFFFFFFFFFFFFFFFFFFFFFFFFFFFFFFFFFFFFFFFFFFFFFFFFFFFFFFF
310
FFFFFFFFFFFFFFFFFFFFFFFFFFFFFFFFFFFFFFFFFFFFFFFFFFFFFFFFFFFFFFFF
310
FFFFFFFFFFFFFFFFFFFFFFFFFFFFFFFFFFFFFFFFFFFFFFFFFFFFFFFFFFFFFFFF
310
FFFFFFFFFFFFFFFFFFFFFFFFFFFFFFFFFFFFFFFFFFFFFFFFFFFFFFFFFFFFFFFF
310
FFFFFFFFFFFFFFFFFFFFFFFFFFFFFFFFFFFFFFFFFFFFFFFFFFFFFFFFFFFFFFFF
310
FFFFFFFFFFFFFFFFFFFFFFFFFFFFFFFFFFFFFFFFFFFFFFFFFFFFFFFFFFFFFFFF
310
FFFFFFFFFFFFFFFFFFFFFFFFFFFFFFFFFFFFFFFFFFFFFFFFFFFFFFFFFFFFFFFF
310
FFFFFFFFFFFFFFFFFFFFFFFFFFFFFFFFFFFFFFFFFFFFFFFFFFFFFFFFFFFFFFFF
310
0100000200000000000000000000000000000000000000002B00820000000005
310
7805250000000000704B290F0000000000000000000000000000000000000000
310
0100FEFF030A0000FFFFFFFF0A00030000000000C00000000000004607000000
310
5042727573680007000000504272757368000700000050427275736800F439B2
310
7100000000000000000000000000000000000000000000000000000000000000
310
0000000000000000000000000000000000000000000000000000000000000000
310
0000000000000000000000000000000000000000000000000000000000000000
310
0000000000000000000000000000000000000000000000000000000000000000
310
0000000000000000000000000000000000000000000000000000000000000000
310
0000000000000000000000000000000000000000000000000000000000000000
310
0000000000000000000000000000000000000000000000000000000000000000
310
0000000000000000000000000000000000000000000000000000000000000000
310
0000000000000000000000000000000000000000000000000000000000000000
310
0000000000000000000000000000000000000000000000000000000000000000
310
0000000000000000000000000000000000000000000000000000000000000000
310
0000000000000000000000000000000000000000000000000000000000000000
310
20260000424D0E260000000000003E00000028000000B40200006E0000000100
310
01000000000000000000130B0000130B00000200000002000000000000FFFFFF
310
FFFFFFFFFFFFFFFFFFFFFFFFFFFFFFFFFFFFFFFFFFFFFFFFFFFFFFFFFFFFFFFF
310
FFFFFFFFFFFFFFFFFFFFFFFFFFFFFFFFFFFFFFFFFFFFFFFFFFFFFFFFFFFFFFFF
310
FFFFFFFFFFFFFFFFFFFFFFFFFFFFFFFFFFFFFFFFFFFFFFFFF000FFFFFFFFFFFF
310
FFFFFFFFFFFFFFFFFFFFFFFFFFFFFFFFFFFFFFFFFFFFFFFFFFFFFFFFFFFFFFFF
310
FFFFFFFFFFFFFFFFFFFFFFFFFFFFFFFFFFFFFFFFFFFFFFFFFFFFFFFFFFFFFFFF
310
FFFFFFFFFFFFFFFFFFFFFFFFFFFFFFFFF000FFFFFFFFFFFFFFFFFFFFFFFFFFFF
310
FFFFFFFFFFFFFFFFFFFFFFFFFFFFFFFFFFFFFFFFFFFFFFFFFFFFFFFFFFFFFFFF
310
FFFFFFFFFFFFFFFFFFFFFFFFFFFFFFFFFFFFFFFFFFFFFFFFFFFFFFFFFFFFFFFF
310
FFFFFFFFFFFFFFFFF000FFFFFFFFFFFFFFFFFFFFFFFFFFFFFFFFFFFFFFFFFFFF
310
FFFFFFFFFFFFFFFFFFFFFFFFFFFFFFFFFFFFFFFFFFFFFFFFFFFFFFFFFFFFFFFF
310
FFFFFFFFFFFFFFFFFFFFFFFFFFFFFFFFFFFFFFFFFFFFFFFFFFFFFFFFFFFFFFFF
310
F000FFFFFFFFFFFFFFFFFFFFFFFFFFFFFFFFFFFFFFFFFFFFFFFFFFFFFFFFFFFF
310
FFFFFFFFFFFFFFFFFFFFFFFFFFFFFFFFFFFFFFFFFFFFFFFFFFFFFFFFFFFFFFFF
310
FFFFFFFFFFFFFFFFFFFFFFFFFFFFFFFFFFFFFFFFFFFFFFFFF000FFFFFFFFFFFF
310
FFFFFFFFFFFFFFFFFFFFFFFFFFFFFFFFFFFFFFFFFFFFFFFFFFFFFFFFFFFFFFFF
310
FFFFFFFFFFFFFFFFFFFFFFFFFFFFFFFFFFFFFFFFFFFFFFFFFFFFFFFFFFFFFFFF
310
FFFFFFFFFFFFFFFFFFFFFFFFFFFFFFFFF000FFFFFFFFFFFFFFFFFFFFFFFFFFFF
310
FFFFFFFFFFFFFFFFFFFFFFFFFFFFFFFFFFFFFFFFFFFFFFFFFFFFFFFFFFFFFFFF
310
FFFFFFFFFFFFFFFFFFFFFFFFFFFFFFFFFFFFFFFFFFFFFFFFFFFFFFFFFFFFFFFF
310
FFFFFFFFFFFFFFFFF000FFFFFFFFFFFFFFFFFFFFFFFFFFFFFFFFFFFFFFFFFFFF
310
FFFFFFFFFFFFFFFFFFFFFFFFFFFFFFFFFFFFFFFFFFFFFFFFFFFFFFFFFFFFFFFF
310
FFFFFFFFFFFFFFFFFFFFFFFFFFFFFFFFFFFFFFFFFFFFFFFFFFFFFFFFFFFFFFFF
310
F000FFFFFFFFFFFFFFFFFFFFFFFFFFFFFFFFFFFFFFFFFFFFFFFFFFFFFFFFFFFF
310
FFFFFFFFFFFFFFFFFFFFFFFFFFFFFFFFFFFFFFFFFFFFFFFFFFFFFFFFFFFFFFFF
310
FFFFFFFFFFFFFFFFFFFFFFFFFFFFFFFFFFFFFFFFFFFFFFFFF000FFFFFFFFFFFF
310
FFFFFFFFFFFFFFFFFFFFFFFFFFFFFFFFFFFFFFFFFFFFFFFFFFFFFFFFFFFFFFFF
310
FFFFFFFFFFFFFFFFFFFFFFFFFFFFFFFFFFFFFFFFFFFFFFFFFFFFFFFFFFFFFFFF
310
FFFFFFFFFFFFFFFFFFFFFFFFFFFFFFFFF000FFFFFFFFFFFFFFFFFFFFFFFFFFFF
310
FFFFFFFFFFFFFFFFFFFFFFFFFFFFFFFFFFFFFFFFFFFFFFFFFFFFFFFFFFFFFFFF
310
FFFFFFFFFFFFFFFFFFFFFFFFFFFFFFFFFFFFFFFFFFFFFFFFFFFFFFFFFFFFFFFF
310
FFFFFFFFFFFFFFFFF000FFFFFFFFFFFFFFFFFFFFFFFFFFFFFFFFFFFFFFFFFFFF
310
FFFFFFFFFFFFFFFFFFFFFFFFFFFFFFFFFFFFFFFFFFFFFFFFFFFFFFFFFFFFFFFF
310
FFFFFFFFFFFFFFFFFFFFFFFFFFFFFFFFFFFFFFFFFFFFFFFFFFFFFFFFFFFFFFFF
310
F000FFFFFFFFFFFFFFFFFFFFFFFFFFFFFFFFFFFFFFFFFFFFFFFFFFFFFFFFFFFF
310
FFFFFFFFFFFFFFFFFFFFFFFFFFFFFFFFFFFFFFFFFFFFFFFFFFFFFFFFFFFFFFFF
310
FFFFFFFFFFFFFFFFFFFFFFFFFFFFFFFFFFFFFFFFFFFFFFFFF000FFFFFFFFFFFF
310
FFFFFFFFFFFFFFFFFFFFFFFFFFFFFFFFFFFFFFFFFFFFFFFFFFFFFFFFFFFFFFFF
310
FFFFFFFFFFFFFFFFFFFFFFFFFFFFFFFFFFFFFFFFFFFFFFFFFFFFFFFFFFFFFFFF
310
FFFFFFFFFFFFFFFFFFFFFFFFFFFFFFFFF000FFFFFFFFFFFFFFFFFFFFFFFFFFFF
310
FFFFFFFFFFFFFFFFFFFFFFFFFFFFFFFFFFFFFFFFFFFFFFFFFFFFFFFFFFFFFFFF
310
FFFFFFFFFFFFFFFFFFFFFFFFFFFFFFFFFFFFFFFFFFFFFFFFFFFFFFFFFFFFFFFF
310
FFFFFFFFFFFFFFFFF000FFFFFFFFFFFFFFFFFFFFFFFFFFFFFFFFFFFFFFFFFFFF
310
FFFFFFFFFFFFFFFFFFFFFFFFFFFFFFFFFFFFFFFFFFFFFFFFFFFFFFFFFFFFFFFF
310
FFFFFFFFFFFFFFFFFFFFFFFFFFFFFFFFFFFFFFFFFFFFFFFFFFFFFFFFFFFFFFFF
310
F000FFFFFFFFFFFFFFFFFFFFFFFFFFFFFFFFFFFFFFFFFFFFFFFFFFFFFFFFFFFF
310
FFFFFFFFFFFFFFFFFFFFFFFFFFFFFFFFFFFFFFFFFFFFFFFFFFFFFFFFFFFFFFFF
310
FFFFFFFFFFFFFFFFFFFFFFFFFFFFFFFFFFFFFFFFFFFFFFFFF000FFFFFFFFFFFF
310
FFFFFFFFFFFFFFFFFFFFFFFFFFFFFFFFFFFFFFFFFFFFFFFFFFFFFFFFFFFFFFFF
310
FFFFFFFFFFFFFFFFFFFFFFFFFFFFFFFFFFFFFFFFFFFFFFFFFFFFFFFFFFFFFFFF
310
FFFFFFFFFFFFFFFFFFFFFFFFFFFFFFFFF000FFFFFFFFFFFFFFFFFFFFFFFFFFFF
310
FFFFFFFFFFFFFFFFFFFFFFFFFFFFFFFFFFFFFFFFFFFFFFFFFFFFFFFFFFFFFFFF
310
FFFFFFFFFFFFFFFFFFFFFFFFFFFFFFFFFFFFFFFFFFFFFFFFFFFFFFFFFFFFFFFF
310
FFFFFFFFFFFFFFFFF000FFFFF80003FFFFFFFFFFFFFFFFFFFFFFFFFFFFFFFFFF
310
FFFFF00007FFFFFFFFFF00007FFFFFF800000000000000007FFFFFFFFFFFFFFF
310
FFFFFFFC001FFFFFFFFFFFFFFC001FFFFFFFFFFFFFFFFFFFFFFFFFFE0007FFFF
310
F000FFFF8000007FFFFFFFF8000FFFFFC0007FFFFF80007FFFFF0000007FFFFF
310
FFF8000007FFFFF800000000000000007FFFFFF0001FFFFFFFFFFFC00001FFFF
310
FFFFFFFFC00001FFFFFFFF000000000003FFFFE000007FFFF000FFFE0000000F
310
FFFFFFF0000FFFFF80007FFFFF80007FFFFC0000001FFFFFFFC0000001FFFFF8
310
00000000000000007FFFFFF0001FFFFFFFFFFE0000003FFFFFFFFFFE0000003F
310
FFFFFF000000000003FFFF0000000FFFF000FFF800000003FFFFFFF00007FFFF
310
80007FFFFF80007FFFF000000007FFFFFF000000003FFFF80000000000000000
310
7FFFFFF0001FFFFFFFFFF80000000FFFFFFFFFF80000000FFFFFFF0000000000
310
03FFFC00000003FFF000FFE000000000FFFFFFF00007FFFF80003FFFFF80007F
310
FFC000000001FFFFFC000000001FFFF800000000000000007FFFFFF0001FFFFF
310
FFFFE000000003FFFFFFFFE000000003FFFFFF000000000003FFF000000000FF
310
F000FF80000000007FFFFFF00007FFFF80003FFFFF80007FFF8000000000FFFF
310
F80000000007FFF800000000000000007FFFFFF0001FFFFFFFFFC000000001FF
310
FFFFFFC000000001FFFFFF000000000003FFC0000000007FF000FF0000000000
310
3FFFFFE00007FFFF00003FFFFF80007FFE00000000003FFFF00000000003FFF8
310
00000000000000007FFFFFF0001FFFFFFFFF8000000000FFFFFFFF8000000000
310
FFFFFF000000000003FF80000000003FF000FE00000000001FFFFFE00003FFFF
310
00003FFFFF80007FFC00000000001FFFE00000000001FFF8000001FFFE000000
310
7FFFFFF0001FFFFFFFFE00000000003FFFFFFE00000000003FFFFF0000000000
310
03FF00000000001FF000FC00000000000FFFFFE00003FFFF00001FFFFF80007F
310
F800000000001FFFC00000000000FFF8000001FFFE0000007FFFFFF0001FFFFF
310
FFFC00000000001FFFFFFC00000000001FFFFF000000000003FE00000000000F
310
F000F8000000000007FFFFE00003FFFF00001FFFFF80007FF800000000000FFF
310
800000000000FFF8000001FFFE0000007FFFFFF0001FFFFFFFF800000000000F
310
FFFFF800000000000FFFFF000000000003FC000000000007F000F80000000000
310
03FFFFC00003FFFE00001FFFFF80007FF0000000000007FF0000000000007FF8
310
000001FFFE0000007FFFFFF0001FFFFFFFF0000000000007FFFFF00000000000
310
07FFFF000000000003F8000000000003F000F0000000000003FFFFC00001FFFE
310
00001FFFFF80007FE0000000000007FE0000000000003FF8000001FFFE000000
310
7FFFFFF0001FFFFFFFF0000000000007FFFFF0000000000007FFFF0000000000
310
03F800001F800003F000E00001FFF00001FFFFC00001FFFE00000FFFFF80007F
310
E00001FFE00003FE00001FFF00003FF8000001FFFE0000007FFFFFF0001FFFFF
310
FFE000003E000003FFFFE000003E000003FFFF000000000003F00001FFF80001
310
F000E00007FFFC0001FFFFC00001FFFE00000FFFFF80007FC0000FFFFC0003FC
310
0000FFFFC0001FF8000001FFFE0000007FFFFFF0001FFFFFFFC00003FFE00001
310
FFFFC00003FFE00001FFFF0001FFFFFFFFF00007FFFE0001F000E0000FFFFF00
310
00FFFF800001FFFC00000FFFFF80007FC0001FFFFE0001FC0001FFFFE0001FF8
310
000001FFFE0000007FFFFFF0001FFFFFFF80000FFFF80000FFFF80000FFFF800
310
00FFFF0003FFFFFFFFE0000FFFFF8000F000C0003FFFFF8000FFFF800000FFFC
310
000007FFFF80007F80003FFFFF0001FC0003FFFFF0001FF8000001FFFE000000
310
7FFFFFF0001FFFFFFF80003FFFFE0000FFFF80003FFFFE0000FFFF0003FFFFFF
310
FFE0003FFFFF8000F000C0003FFFFF8000FFFF800000FFFC000007FFFF80007F
310
80007FFFFF8001F80007FFFFF8000FF8000001FFFE0000007FFFFFF0001FFFFF
310
FF00007FFFFF00007FFF00007FFFFF00007FFF0003FFFFFFFFE0003FFFFFC000
310
F000C0007FFFFFC000FFFF000000FFFC000007FFFF80007F8000FFFFFF8000F8
310
000FFFFFF8000FF8000001FFFE0000007FFFFFF0001FFFFFFF0000FFFFFF8000
310
7FFF0000FFFFFF80007FFF0003FFFFFFFFC0007FFFFFC00070008000FFFFFFC0
310
00FFFF000000FFF8000007FFFF80007F8000FFFFFF8000F8000FFFFFF8000FF8
310
000001FFFE0000007FFFFFF0001FFFFFFE0001FFFFFFC0003FFE0001FFFFFFC0
310
003FFF0003FFFFFFFFC0007FFFFFE00070008000FFFFFFC0007FFF0000007FF8
310
000003FFFF80007F0001FFFFFF8000F8000FFFFFF8000FF8000001FFFE000000
310
7FFFFFF0001FFFFFFE0001FFFFFFC0003FFE0001FFFFFFC0003FFF0003FFFFFF
310
FFC000FFFFFFE00070008000FFFFFFC0007FFF0000007FF8000003FFFF80007F
310
0001FFFFFF8000F8001FFFFFF8000FF8000001FFFE0000007FFFFFF0001FFFFF
310
FE0003FFFFFFE0003FFE0003FFFFFFE0003FFF0003FFFFFFFFC000FFFFFFE000
310
70008000FFFFFFC0007FFE0000007FF8000003FFFF80007F0001FFFFFF8000F0
310
001FFFFFF8000FF8000001FFFE0000007FFFFFF0001FFFFFFC0003FFFFFFE000
310
1FFC0003FFFFFFE0001FFF0003FFFFFFFFC000FFFFFFC00070008000FFFFFF80
310
007FFE0000007FF0000003FFFF80007F0001FFFFFF0000F0001FFFFFF8000FF8
310
000001FFFE0000007FFFFFF0001FFFFFFC0007FFFFFFF0001FFC0007FFFFFFF0
310
001FFF0003FFFFFFFFC000FFFFFFC00070008001FFFFFF0000FFFE0000003FF0
310
000001FFFF80007F0001FFFFFF0000F8001FFFFFF0000FF8000001FFFE000000
310
7FFFFFF0001FFFFFFC0007FFFFFFF0001FFC0007FFFFFFF0001FFF0003FFFFFF
310
FFC001FFFFFF80007000FFFFFFFFFE0000FFFE0008003FF0008001FFFF80007F
310
FFFFFFFFFC0000FFFFFFFFFFE0000FF8000001FFFE0000007FFFFFF0001FFFFF
310
F8000FFFFFFFF8000FF8000FFFFFFFF8000FFF0003FFFFFFFFFFFFFFFFFF0000
310
7000FFFFFFFFFC0000FFFC0008003FF0008001FFFF80007FFFFFFFFFF80001FF
310
FFFFFFFF80000FF8000001FFFE0000007FFFFFF0001FFFFFF8000FFFFFFFF800
310
0FF8000FFFFFFFF8000FFF0003FFFFFFFFFFFFFFFFFE0000F000FFFFFFFFE000
310
00FFFC000C003FE000C001FFFF80007FFFFFFFFFC00001FFFFFFFFFE00001FF8
310
000001FFFE0000007FFFFFF0001FFFFFF8000FFFFFFFF8000FF8000FFFFFFFF8
310
000FFF0003FFFFFFFFFFFFFFFFF00000F000FFFFFFFE000001FFFC000C001FE0
310
00C000FFFF80007FFFFFFFFE000001FFFFFFFFE000001FF80FFFFFFFFFFFFFC0
310
7FFFFFF0001FFFFFF8000FFFFFFFF8000FF8000FFFFFFFF8000FFF0003FFFFFF
310
FFFFFFFFFF800000F000FFFFFFC0000001FFFC001C001FE001C000FFFF80007F
310
FFFFFF80000003FFFFFFF80000001FF80FFFFFFFFFFFFFC07FFFFFF0001FFFFF
310
F8001FFFFFFFFC000FF8001FFFFFFFFC000FFF0003FFFFFFFFFFFFFFF0000001
310
F000FFFFF800000001FFF8001C001FE001C000FFFF80007FFFFFF800000003FF
310
FFFF800000003FF80FFFFFFFFFFFFFC07FFFFFF0001FFFFFF8001FFFFFFFFC00
310
0FF8001FFFFFFFFC000FFF0003FFFFFFFFFFFFFE00000001F000FFFFC0000000
310
03FFF8001E001FC001E000FFFF80007FFFFF8000000007FFFFFC000000003FF8
310
0FFFFFFFFFFFFFC07FFFFFF0001FFFFFF8001FFFFFFFFC000FF8001FFFFFFFFC
310
000FFF0003FFFFFFFFFFFFE000000003F000FFFE0000000007FFF8001E000FC0
310
01E0007FFF80007FFFFE0000000007FFFFE0000000007FF80FFFFFFFFFFFFFC0
310
7FFFFFF0001FFFFFF0001FFFFFFFFC0007F0001FFFFFFFFC0007FF0003FFFFFF
310
FFFFFF0000000003F000FFF80000000007FFF8001E000FC003E0007FFF80007F
310
FFF0000000000FFFFF8000000000FFF80FFFFFFFFFFFFFC07FFFFFF0001FFFFF
310
F0001FFFFFFFFC0007F0001FFFFFFFFC0007FF0003FFFFFFFFFFFC0000000007
310
F000FFE0000000000FFFF0003E000FC003E0007FFF80007FFFC0000000001FFF
310
FE0000000001FFF80FFFFFFFFFFFFFC07FFFFFF0001FFFFFF0001FFFFFFFFC00
310
07F0001FFFFFFFFC0007FF0003FFFFFFFFFFF0000000000FF000FFC000000000
310
1FFFF0003F000F8003F0003FFF80007FFF80000000003FFFF80000000003FFF8
310
0FFFFFFFFFFFFFC07FFFFFF0001FFFFFF0001FFFFFFFFC0007F0001FFFFFFFFC
310
0007FF0003FFFFFFFFFFE0000000001FF000FF00000000007FFFF0003F000780
310
03F0003FFF80007FFF00000000007FFFF00000000007FFF80FFFFFFFFFFFFFC0
310
7FFFFFF0001FFFFFF0001FFFFFFFFC0007F0001FFFFFFFFC0007FF0003FFFFFF
310
FFFF80000000007FF000FE0000000000FFFFE0003F00078007F0003FFF80007F
310
FE0000000001FFFFE0000000001FFFF80FFFFFFFFFFFFFC07FFFFFF0001FFFFF
310
F0001FFFFFFFFC0007F0001FFFFFFFFC0007FF0003FFFFFFFFFF0000000000FF
310
F000FC0000000003FFFFE0007F00078007F0003FFF80007FFC0000000007FFFF
310
C0000000007FFFF80FFFFFFFFFFFFFC07FFFFFF0001FFFFFF8001FFFFFFFFC00
310
0FF8001FFFFFFFFC000FFF0003FFFFFFFFFE0000000003FFF000FC000000000F
310
FFFFE0007F80070007F8001FFF80007FF8000000001FFFFF8000000001FFFFF8
310
0FFFFFFFFFFFFFC07FFFFFF0001FFFFFF8001FFFFFFFFC000FF8001FFFFFFFFC
310
000FFF0003FFFFFFFFFC000000000FFFF000F8000000007FFFFFE0007F800700
310
07F8001FFF80007FF000000000FFFFFF800000000FFFFFF80FFFFFFFFFFFFFC0
310
7FFFFFF0001FFFFFF8000FFFFFFFF8000FF8000FFFFFFFF8000FFF0003FFFFFF
310
FFFC000000007FFFF000F800000007FFFFFFC0007F8003000FF8001FFF80007F
310
F000000007FFFFFF000000007FFFFFF80FFFFFFFFFFFFFC07FFFFFF0001FFFFF
310
F8000FFFFFFFF8000FF8000FFFFFFFF8000FFF0003FFFFFFFFF80000000FFFFF
310
F000F0000000FFFFFFFFC000FF8003000FF8001FFF80007FE0000000FFFFFFFF
310
0000000FFFFFFFF8000001FFFE0000007FFFFFF0001FFFFFF8000FFFFFFFF800
310
0FF8000FFFFFFFF8000FFF0003FFFFFFFFF8000000FFFFFFF000F000000FFFFF
310
FFFFC000FFC002000FF8000FFF80007FE000001FFFFFFFFE000001FFFFFFFFF8
310
000001FFFE0000007FFFFFF0001FFFFFF8000FFFFFFFF8000FF8000FFFFFFFF8
310
000FFF0003FFFFFFFFF000001FFFFFFFF000E00000FFFFFFFFFFC000FFC00200
310
0FFC000FFF80007FE00001FFFFFFFFFE00001FFFFFFFFFF8000001FFFE000000
310
7FFFFFF0001FFFFFFC000FFFFFFFF8001FFC000FFFFFFFF8001FFF0003FFFFFF
310
FFF00001FFFFFFFFF000E00007FFFFFFFFFF8000FFC000001FFC000FFF80007F
310
C0000FFFFFFFFFFE0000FFFFFFFFFFF8000001FFFE0000007FFFFFF0001FFFFF
310
FC0007FFFFFFF0001FFC0007FFFFFFF0001FFF0003FFFFFFFFF00007FFFFFFFF
310
F000E0001FFFFFFFFFFF8000FFC000001FFC000FFF80007FC0003FFFFFFFFFFE
310
0001FFFFFFFFFFF8000001FFFE0000007FFFFFF0001FFFFFFC0007FFFFFFF000
310
1FFC0007FFFFFFF0001FFF0003FFFFFFFFF0001FFFFFFFFFF000E0003FFFFF00
310
03FF8001FFE000001FFC0007FF80007FC0007FFFFF0007FC0003FFFFF0003FF8
310
000001FFFE0000007FFFFFF0001FFFFFFC0003FFFFFFE0001FFC0003FFFFFFE0
310
001FFF0003FFFFFFFFF0003FFFFFFFFFF000E0003FFFFF0001FF8001FFE00000
310
1FFE0007FF80007FC0007FFFFE0003FC0007FFFFE0003FF8000001FFFE000000
310
7FFFFFF0001FFFFFFE0003FFFFFFE0003FFE0003FFFFFFE0003FFF0003FFFFFF
310
FFF0003FFFFF8001F000E0003FFFFF0001FF0001FFE000001FFE0007FF80007F
310
C0007FFFFE0003FC0007FFFFE0003FF8000001FFFE0000007FFFFFF0001FFFFF
310
FE0001FFFFFFC0003FFE0001FFFFFFC0003FFF0003FFFFFFFFF0003FFFFF0001
310
F000E0003FFFFF0003FF0001FFE000003FFE0007FF80007FC0007FFFFE0003FC
310
0007FFFFE0003FF8000001FFFE0000007FFFFFF0001FFFFFFF0001FFFFFFC000
310
7FFF0001FFFFFFC0007FFF0003FFFFFFFFF0003FFFFF0001F000E0003FFFFE00
310
03FF0003FFF000003FFE0003FF80007FC0007FFFFC0003FE0007FFFFE0003FF8
310
000001FFFE0000007FFFFFF0001FFFFFFF0000FFFFFF80007FFF0000FFFFFF80
310
007FFF0003FFFFFFFFF0003FFFFF0001F000E0003FFFFE0003FF0003FFF00000
310
3FFF0003FF80007FC0007FFFFC0007FE0007FFFFC0003FF8000001FFFE000000
310
7FFFFFF0001FFFFFFF80007FFFFF0000FFFF80007FFFFF0000FFFF0003FFFFFF
310
FFF0003FFFFF0003F000E0003FFFFC0003FE0003FFF000003FFF0003FF80007F
310
E0003FFFF80007FE0003FFFFC0007FF8000001FFFE0000007FFFFFF0001FFFFF
310
FF80003FFFFE0000FFFF80003FFFFE0000FFFF0003FFFFFFFFF0001FFFFE0003
310
F000F0001FFFF80003FE0003FFF000007FFF0001FF80007FE0003FFFF00007FE
310
0001FFFF80007FF8000001FFFE0000007FFFFFF0001FFFFFFFC0000FFFF80001
310
FFFFC0000FFFF80001FFFF0003FFFFFFFFF0001FFFFC0003F000F0000FFFF000
310
07FE0007FFF800007FFF0001FF80007FE0001FFFE00007FF0000FFFE00007FF8
310
000001FFFE0000007FFFFFF0001FFFFFFFC00003FFE00001FFFFC00003FFE000
310
01FFFF0003FFFFFFFFF8000FFFF80003F000F00003FFC00007FC0007FFF80000
310
7FFF8001FF80007FF00007FF80000FFF00007FF80000FFF8000001FFFE000000
310
7F80000000000001FFE000003E000003FFFFE000003E000003FFFF0003FFFFFF
310
FFF80003FFE00007F000F800000000000FFC0007FFF800007FFF8001FF80007F
310
F000000000000FFF000000000000FFF8000001FFFE0000007F80000000000001
310
FFF0000000000007FFFFF0000000000007FFFF0003FFFFFFFFFC00007E000007
310
F000F800000000000FFC0007FFF80000FFFF8000FF80007FF800000000001FFF
310
800000000001FFF8000001FFFE0000007F80000000000001FFF800000000000F
310
FFFFF800000000000FFFFF0003FFFFFFFFFC00000000000FF000FC0000000000
310
1FFC0007FFFC0000FFFF8000FF80007FF800000000003FFFC00000000001FFF8
310
000001FFFE0000007F80000000000001FFF800000000000FFFFFF80000000000
310
0FFFFF0003FFFFFFFFFE00000000001FF000FE00000000003FF8000FFFFC0000
310
FFFF8000FF80007FFC00000000003FFFC00000000003FFF8000001FFFE000000
310
7F80000000000001FFFC00000000001FFFFFFC00000000001FFFFF0003FFFFFF
310
FFFF00000000001FF000FF00000000003FF8000FFFFC0000FFFFC000FF80007F
310
FE00000000007FFFE00000000007FFF8000001FFFE0000007F80000000000001
310
FFFE00000000003FFFFFFE00000000003FFFFF0003FFFFFFFFFF80000000003F
310
F000FF80000000007FF8000FFFFC0001FFFFC0007F80007FFF0000000000FFFF
310
F0000000000FFFF800000000000000007F80000000000001FFFF8000000000FF
310
FFFFFF8000000000FFFFFF0003FFFFFFFFFFC0000000007FF000FFC000000000
310
FFF8000FFFFE0001FFFFC0007F80007FFF8000000001FFFFF8000000001FFFF8
310
00000000000000007F80000000000001FFFFC000000001FFFFFFFFC000000001
310
FFFFFF0003FFFFFFFFFFE000000000FFF000FFE000000003FFF0001FFFFE0001
310
FFFFC0007F80007FFFC000000007FFFFFE000000003FFFF80000000000000000
310
7F80000000000001FFFFE000000003FFFFFFFFE000000003FFFFFF0003FFFFFF
310
FFFFF000000003FFF000FFF80000000FFFF0001FFFFE0001FFFFE0007F80007F
310
FFF00000000FFFFFFF00000000FFFFF800000000000000007F80000000000001
310
FFFFF80000000FFFFFFFFFF80000000FFFFFFF0003FFFFFFFFFFFC0000000FFF
310
F000FFFE0000003FFFF0001FFFFE0003FFFFE0003F80007FFFFC0000003FFFFF
310
FFC0000003FFFFF800000000000000007F80000000000001FFFFFE0000003FFF
310
FFFFFFFE0000003FFFFFFF0003FFFFFFFFFFFF0000003FFFF000FFFF800000FF
310
FFF0001FFFFF0003FFFFE0003F80007FFFFF000001FFFFFFFFF800001FFFFFF8
310
00000000000000007F80000000000001FFFFFFC00001FFFFFFFFFFFFC00001FF
310
FFFFFF0003FFFFFFFFFFFFC00000FFFFF000FFFFF8000FFFFFFFFFFFFFFFFFFF
310
FFFFFFFFFFFFFFFFFFFFF0001FFFFFFFFFFF0000FFFFFFF80000000000000000
310
7FFFFFFFFFFFFFFFFFFFFFFC001FFFFFFFFFFFFFFC001FFFFFFFFFFFFFFFFFFF
310
FFFFFFFC001FFFFFF000FFFFFFFFFFFFFFFFFFFFFFFFFFFFFFFFFFFFFFFFFFFF
310
FFFFFFFFFFFFFFFFFFFFFFFFFFFFFFFFFFFFFFFFFFFFFFFFFFFFFFFFFFFFFFFF
310
FFFFFFFFFFFFFFFFFFFFFFFFFFFFFFFFFFFFFFFFFFFFFFFFFFFFFFFFFFFFFFFF
310
F000FFFFFFFFFFFFFFFFFFFFFFFFFFFFFFFFFFFFFFFFFFFFFFFFFFFFFFFFFFFF
310
FFFFFFFFFFFFFFFFFFFFFFFFFFFFFFFFFFFFFFFFFFFFFFFFFFFFFFFFFFFFFFFF
310
FFFFFFFFFFFFFFFFFFFFFFFFFFFFFFFFFFFFFFFFFFFFFFFFF000FFFFFFFFFFFF
310
FFFFFFFFFFFFFFFFFFFFFFFFFFFFFFFFFFFFFFFFFFFFFFFFFFFFFFFFFFFFFFFF
310
FFFFFFFFFFFFFFFFFFFFFFFFFFFFFFFFFFFFFFFFFFFFFFFFFFFFFFFFFFFFFFFF
310
FFFFFFFFFFFFFFFFFFFFFFFFFFFFFFFFF000FFFFFFFFFFFFFFFFFFFFFFFFFFFF
310
FFFFFFFFFFFFFFFFFFFFFFFFFFFFFFFFFFFFFFFFFFFFFFFFFFFFFFFFFFFFFFFF
310
FFFFFFFFFFFFFFFFFFFFFFFFFFFFFFFFFFFFFFFFFFFFFFFFFFFFFFFFFFFFFFFF
310
FFFFFFFFFFFFFFFFF000FFFFFFFFFFFFFFFFFFFFFFFFFFFFFFFFFFFFFFFFFFFF
310
FFFFFFFFFFFFFFFFFFFFFFFFFFFFFFFFFFFFFFFFFFFFFFFFFFFFFFFFFFFFFFFF
310
FFFFFFFFFFFFFFFFFFFFFFFFFFFFFFFFFFFFFFFFFFFFFFFFFFFFFFFFFFFFFFFF
310
F000FFFFFFFFFFFFFFFFFFFFFFFFFFFFFFFFFFFFFFFFFFFFFFFFFFFFFFFFFFFF
310
FFFFFFFFFFFFFFFFFFFFFFFFFFFFFFFFFFFFFFFFFFFFFFFFFFFFFFFFFFFFFFFF
310
FFFFFFFFFFFFFFFFFFFFFFFFFFFFFFFFFFFFFFFFFFFFFFFFF000FFFFFFFFFFFF
310
FFFFFFFFFFFFFFFFFFFFFFFFFFFFFFFFFFFFFFFFFFFFFFFFFFFFFFFFFFFFFFFF
310
FFFFFFFFFFFFFFFFFFFFFFFFFFFFFFFFFFFFFFFFFFFFFFFFFFFFFFFFFFFFFFFF
310
FFFFFFFFFFFFFFFFFFFFFFFFFFFFFFFFF000FFFFFFFFFFFFFFFFFFFFFFFFFFFF
310
FFFFFFFFFFFFFFFFFFFFFFFFFFFFFFFFFFFFFFFFFFFFFFFFFFFFFFFFFFFFFFFF
310
FFFFFFFFFFFFFFFFFFFFFFFFFFFFFFFFFFFFFFFFFFFFFFFFFFFFFFFFFFFFFFFF
310
FFFFFFFFFFFFFFFFF000FFFFFFFFFFFFFFFFFFFFFFFFFFFFFFFFFFFFFFFFFFFF
310
FFFFFFFFFFFFFFFFFFFFFFFFFFFFFFFFFFFFFFFFFFFFFFFFFFFFFFFFFFFFFFFF
310
FFFFFFFFFFFFFFFFFFFFFFFFFFFFFFFFFFFFFFFFFFFFFFFFFFFFFFFFFFFFFFFF
310
F000FFFFFFFFFFFFFFFFFFFFFFFFFFFFFFFFFFFFFFFFFFFFFFFFFFFFFFFFFFFF
310
FFFFFFFFFFFFFFFFFFFFFFFFFFFFFFFFFFFFFFFFFFFFFFFFFFFFFFFFFFFFFFFF
310
FFFFFFFFFFFFFFFFFFFFFFFFFFFFFFFFFFFFFFFFFFFFFFFFF000FFFFFFFFFFFF
310
FFFFFFFFFFFFFFFFFFFFFFFFFFFFFFFFFFFFFFFFFFFFFFFFFFFFFFFFFFFFFFFF
310
FFFFFFFFFFFFFFFFFFFFFFFFFFFFFFFFFFFFFFFFFFFFFFFFFFFFFFFFFFFFFFFF
310
FFFFFFFFFFFFFFFFFFFFFFFFFFFFFFFFF000FFFFFFFFFFFFFFFFFFFFFFFFFFFF
310
FFFFFFFFFFFFFFFFFFFFFFFFFFFFFFFFFFFFFFFFFFFFFFFFFFFFFFFFFFFFFFFF
310
FFFFFFFFFFFFFFFFFFFFFFFFFFFFFFFFFFFFFFFFFFFFFFFFFFFFFFFFFFFFFFFF
310
FFFFFFFFFFFFFFFFF000FFFFFFFFFFFFFFFFFFFFFFFFFFFFFFFFFFFFFFFFFFFF
310
FFFFFFFFFFFFFFFFFFFFFFFFFFFFFFFFFFFFFFFFFFFFFFFFFFFFFFFFFFFFFFFF
310
FFFFFFFFFFFFFFFFFFFFFFFFFFFFFFFFFFFFFFFFFFFFFFFFFFFFFFFFFFFFFFFF
310
F000FFFFFFFFFFFFFFFFFFFFFFFFFFFFFFFFFFFFFFFFFFFFFFFFFFFFFFFFFFFF
310
FFFFFFFFFFFFFFFFFFFFFFFFFFFFFFFFFFFFFFFFFFFFFFFFFFFFFFFFFFFFFFFF
310
FFFFFFFFFFFFFFFFFFFFFFFFFFFFFFFFFFFFFFFFFFFFFFFFF000FFFFFFFFFFFF
310
FFFFFFFFFFFFFFFFFFFFFFFFFFFFFFFFFFFFFFFFFFFFFFFFFFFFFFFFFFFFFFFF
310
FFFFFFFFFFFFFFFFFFFFFFFFFFFFFFFFFFFFFFFFFFFFFFFFFFFFFFFFFFFFFFFF
310
FFFFFFFFFFFFFFFFFFFFFFFFFFFFFFFFF000FFFFFFFFFFFFFFFFFFFFFFFFFFFF
310
FFFFFFFFFFFFFFFFFFFFFFFFFFFFFFFFFFFFFFFFFFFFFFFFFFFFFFFFFFFFFFFF
310
FFFFFFFFFFFFFFFFFFFFFFFFFFFFFFFFFFFFFFFFFFFFFFFFFFFFFFFFFFFFFFFF
310
FFFFFFFFFFFFFFFFF000FFFFFFFFFFFFFFFFFFFFFFFFFFFFFFFFFFFFFFFFFFFF
310
FFFFFFFFFFFFFFFFFFFFFFFFFFFFFFFFFFFFFFFFFFFFFFFFFFFFFFFFFFFFFFFF
310
FFFFFFFFFFFFFFFFFFFFFFFFFFFFFFFFFFFFFFFFFFFFFFFFFFFFFFFFFFFFFFFF
310
F000FFFFFFFFFFFFFFFFFFFFFFFFFFFFFFFFFFFFFFFFFFFFFFFFFFFFFFFFFFFF
310
FFFFFFFFFFFFFFFFFFFFFFFFFFFFFFFFFFFFFFFFFFFFFFFFFFFFFFFFFFFFFFFF
310
FFFFFFFFFFFFFFFFFFFFFFFFFFFFFFFFFFFFFFFFFFFFFFFFF000FFFFFFFFFFFF
310
FFFFFFFFFFFFFFFFFFFFFFFFFFFFFFFFFFFFFFFFFFFFFFFFFFFFFFFFFFFFFFFF
310
FFFFFFFFFFFFFFFFFFFFFFFFFFFFFFFFFFFFFFFFFFFFFFFFFFFFFFFFFFFFFFFF
310
FFFFFFFFFFFFFFFFFFFFFFFFFFFFFFFFF000FFFFFFFFFFFFFFFFFFFFFFFFFFFF
310
FFFFFFFFFFFFFFFFFFFFFFFFFFFFFFFFFFFFFFFFFFFFFFFFFFFFFFFFFFFFFFFF
310
FFFFFFFFFFFFFFFFFFFFFFFFFFFFFFFFFFFFFFFFFFFFFFFFFFFFFFFFFFFFFFFF
310
FFFFFFFFFFFFFFFFF000FFFFFFFFFFFFFFFFFFFFFFFFFFFFFFFFFFFFFFFFFFFF
310
FFFFFFFFFFFFFFFFFFFFFFFFFFFFFFFFFFFFFFFFFFFFFFFFFFFFFFFFFFFFFFFF
310
FFFFFFFFFFFFFFFFFFFFFFFFFFFFFFFFFFFFFFFFFFFFFFFFFFFFFFFFFFFFFFFF
310
F000FFFFFFFFFFFFFFFFFFFFFFFFFFFFFFFFFFFFFFFFFFFFFFFFFFFFFFFFFFFF
310
FFFFFFFFFFFFFFFFFFFFFFFFFFFFFFFFFFFFFFFFFFFFFFFFFFFFFFFFFFFFFFFF
310
FFFFFFFFFFFFFFFFFFFFFFFFFFFFFFFFFFFFFFFFFFFFFFFFF000FFFFFFFFFFFF
310
FFFFFFFFFFFFFFFFFFFFFFFFFFFFFFFFFFFFFFFFFFFFFFFFFFFFFFFFFFFFFFFF
310
FFFFFFFFFFFFFFFFFFFFFFFFFFFFFFFFFFFFFFFFFFFFFFFFFFFFFFFFFFFFFFFF
310
FFFFFFFFFFFFFFFFFFFFFFFFFFFFFFFFF0000000000000000000000000000000
310
0000000000310033000000000000000040EE0000000000000000000000000000
310
0000000000000000006500000000000000000000000000000000D80E00000000
310
00000000000064A41E000000FFFEFF0000FFFF000001FFFFFFFFFFFFFFFF0000
310
80BF000000000000000000000000000004000000000000000000FFFFFFFF0000
310
0000000000000000000000000000000000000000000000000000000000000000
310
0000000000000000000000000000000000000000000000000000000000000000
310
00F03F0000000000000000000000000000000000000000000000000000000000
310
5E812481FFFEFF074500620065006E0065003100330000000000000000C0F000
310
0000000000000000000000000000000000000000000065000000000000000000
310
00000000000000D80E0000000000000000000064A41E000000FFFEFF0000FFFF
310
000001FFFFFFFFFFFFFFFF000080BF0000000000000000000000000000040000
310
00000000000000FFFFFFFF000000000000000000000000000000000000000000
310
0000000000000000000000000000000000010000000000000000000000000000
310
0000000000000000000000000000000000000000000000000000000000000000
310
0000000000000000000400000000000000C984AA6D534528EEF5BF0000000000
  1
OLE
  0
ENDSEC
  0
SECTION
  2
OBJECTS
  0
DICTIONARY
  5
C
330
0
100
AcDbDictionary
281
     1
  3
ACAD_GROUP
350
D
  3
ACAD_LAYOUT
350
1A
  3
ACAD_MLEADERSTYLE
350
29C
  3
ACAD_MLINESTYLE
350
17
  3
ACAD_PLOTSETTINGS
350
19
  3
ACAD_PLOTSTYLENAME
350
E
  3
ACAD_TABLESTYLE
350
29B
  3
ACAD_VISUALSTYLE
350
2A
  3
AcDbVariableDictionary
350
29D
  0
DICTIONARY
  5
D
102
{ACAD_REACTORS
330
C
102
}
330
C
100
AcDbDictionary
281
     1
  0
DICTIONARY
  5
1A
102
{ACAD_REACTORS
330
C
102
}
330
C
100
AcDbDictionary
281
     1
  3
Layout1
350
1E
  3
Layout2
350
26
  3
Model
350
22
  0
DICTIONARY
  5
29C
102
{ACAD_REACTORS
330
C
102
}
330
C
100
AcDbDictionary
281
     1
  0
DICTIONARY
  5
17
102
{ACAD_REACTORS
330
C
102
}
330
C
100
AcDbDictionary
281
     1
  3
Standard
350
18
  0
DICTIONARY
  5
19
102
{ACAD_REACTORS
330
C
102
}
330
C
100
AcDbDictionary
281
     1
  0
ACDBDICTIONARYWDFLT
  5
E
102
{ACAD_REACTORS
330
C
102
}
330
C
100
AcDbDictionary
281
     1
  3
Normal
350
F
100
AcDbDictionaryWithDefault
340
F
  0
DICTIONARY
  5
29B
102
{ACAD_REACTORS
330
C
102
}
330
C
100
AcDbDictionary
281
     1
  0
DICTIONARY
  5
2A
102
{ACAD_REACTORS
330
C
102
}
330
C
100
AcDbDictionary
281
     1
  3
2dWireframe
350
2F
  3
3D Hidden
350
31
  3
3dWireframe
350
30
  3
Basic
350
32
  3
Brighten
350
36
  3
ColorChange
350
3A
  3
Conceptual
350
34
  3
Dim
350
35
  3
Facepattern
350
39
  3
Flat
350
2B
  3
FlatWithEdges
350
2C
  3
Gouraud
350
2D
  3
GouraudWithEdges
350
2E
  3
Linepattern
350
38
  3
Realistic
350
33
  3
Thicken
350
37
  0
DICTIONARY
  5
29D
102
{ACAD_REACTORS
330
C
102
}
330
C
100
AcDbDictionary
281
     1
  3
PSOLHEIGHT
350
29F
  3
PSOLWIDTH
350
29E
  0
LAYOUT
  5
1E
102
{ACAD_REACTORS
330
1A
102
}
330
1A
100
AcDbPlotSettings
  1

  2
none_device
  4

  6

 40
0.0
 41
0.0
 42
0.0
 43
0.0
 44
0.0
 45
0.0
 46
0.0
 47
0.0
 48
0.0
 49
0.0
140
0.0
141
0.0
142
1.0
143
1.0
 70
   688
 72
     0
 73
     0
 74
     5
  7

 75
    16
147
1.0
148
0.0
149
0.0
100
AcDbLayout
  1
Layout1
 70
     1
 71
     1
 10
0.0
 20
0.0
 11
420.0
 21
297.0
 12
0.0
 22
0.0
 32
0.0
 14
1.0000000000E+20
 24
1.0000000000E+20
 34
1.0000000000E+20
 15
-1.0000000000E+20
 25
-1.0000000000E+20
 35
-1.0000000000E+20
146
0.0
 13
0.0
 23
0.0
 33
0.0
 16
1.0
 26
0.0
 36
0.0
 17
0.0
 27
1.0
 37
0.0
 76
     0
330
1B
  0
LAYOUT
  5
26
102
{ACAD_REACTORS
330
1A
102
}
330
1A
100
AcDbPlotSettings
  1

  2
none_device
  4

  6

 40
0.0
 41
0.0
 42
0.0
 43
0.0
 44
0.0
 45
0.0
 46
0.0
 47
0.0
 48
0.0
 49
0.0
140
0.0
141
0.0
142
1.0
143
1.0
 70
   688
 72
     0
 73
     0
 74
     5
  7

 75
    16
147
1.0
148
0.0
149
0.0
100
AcDbLayout
  1
Layout2
 70
     1
 71
     2
 10
0.0
 20
0.0
 11
0.0
 21
0.0
 12
0.0
 22
0.0
 32
0.0
 14
0.0
 24
0.0
 34
0.0
 15
0.0
 25
0.0
 35
0.0
146
0.0
 13
0.0
 23
0.0
 33
0.0
 16
1.0
 26
0.0
 36
0.0
 17
0.0
 27
1.0
 37
0.0
 76
     0
330
23
  0
LAYOUT
  5
22
102
{ACAD_REACTORS
330
1A
102
}
330
1A
100
AcDbPlotSettings
  1

  2
none_device
  4

  6

 40
0.0
 41
0.0
 42
0.0
 43
0.0
 44
0.0
 45
0.0
 46
0.0
 47
0.0
 48
0.0
 49
0.0
140
0.0
141
0.0
142
1.0
143
1.0
 70
  1712
 72
     0
 73
     0
 74
     0
  7

 75
     0
147
1.0
148
0.0
149
0.0
100
AcDbLayout
  1
Model
 70
     1
 71
     0
 10
0.0
 20
0.0
 11
297.0
 21
210.0
 12
0.0
 22
0.0
 32
0.0
 14
0.0
 24
0.0
 34
0.0
 15
297.0
 25
210.0
 35
0.0
146
0.0
 13
0.0
 23
0.0
 33
0.0
 16
1.0
 26
0.0
 36
0.0
 17
0.0
 27
1.0
 37
0.0
 76
     0
330
1F
331
29
  0
MLINESTYLE
  5
18
102
{ACAD_REACTORS
330
17
102
}
330
17
100
AcDbMlineStyle
  2
Standard
 70
     0
  3

 62
   256
 51
90.0
 52
90.0
 71
     2
 49
0.5
 62
   256
  6
BYLAYER
 49
-0.5
 62
   256
  6
BYLAYER
  0
ACDBPLACEHOLDER
  5
F
102
{ACAD_REACTORS
330
E
102
}
330
E
  0
VISUALSTYLE
  5
2F
102
{ACAD_REACTORS
330
2A
102
}
330
2A
100
AcDbVisualStyle
  2
2dWireframe
 70
     4
 71
     0
 72
     2
 73
     0
 90
        0
 40
-0.6
 41
-30.0
 62
     5
 63
     7
 74
     1
 91
        4
 64
     7
 65
   257
 75
     1
175
     1
 42
1.0
 92
        0
 66
   257
 43
1.0
 76
     1
 77
     6
 78
     2
 67
     7
 79
     5
170
     0
171
     0
290
     0
174
     0
 93
        1
 44
0.0
173
     0
291
     0
 45
0.0
1001
ACAD
1000
AcDbSavedByObjectVersion
1070
     0
  0
VISUALSTYLE
  5
31
102
{ACAD_REACTORS
330
2A
102
}
330
2A
100
AcDbVisualStyle
  2
3D Hidden
 70
     6
 71
     1
 72
     2
 73
     2
 90
        0
 40
-0.6
 41
-30.0
 62
     5
 63
     7
 74
     2
 91
        2
 64
     7
 65
   257
 75
     2
175
     1
 42
40.0
 92
        0
 66
   257
 43
1.0
 76
     1
 77
     6
 78
     2
 67
     7
 79
     3
170
     0
171
     0
290
     0
174
     0
 93
        1
 44
0.0
173
     0
291
     0
 45
0.0
1001
ACAD
1000
AcDbSavedByObjectVersion
1070
     0
  0
VISUALSTYLE
  5
30
102
{ACAD_REACTORS
330
2A
102
}
330
2A
100
AcDbVisualStyle
  2
3dWireframe
 70
     5
 71
     0
 72
     2
 73
     0
 90
        0
 40
-0.6
 41
-30.0
 62
     5
 63
     7
 74
     1
 91
        4
 64
     7
 65
   257
 75
     1
175
     1
 42
1.0
 92
        0
 66
   257
 43
1.0
 76
     1
 77
     6
 78
     2
 67
     7
 79
     5
170
     0
171
     0
290
     0
174
     0
 93
        1
 44
0.0
173
     0
291
     0
 45
0.0
1001
ACAD
1000
AcDbSavedByObjectVersion
1070
     0
  0
VISUALSTYLE
  5
32
102
{ACAD_REACTORS
330
2A
102
}
330
2A
100
AcDbVisualStyle
  2
Basic
 70
     7
 71
     1
 72
     0
 73
     1
 90
        0
 40
-0.6
 41
-30.0
 62
     5
 63
     7
 74
     0
 91
        4
 64
     7
 65
   257
 75
     1
175
     1
 42
1.0
 92
        8
 66
     7
 43
1.0
 76
     1
 77
     6
 78
     2
 67
     7
 79
     5
170
     0
171
     0
290
     0
174
     0
 93
        1
 44
0.0
173
     0
291
     1
 45
0.0
1001
ACAD
1000
AcDbSavedByObjectVersion
1070
     0
  0
VISUALSTYLE
  5
36
102
{ACAD_REACTORS
330
2A
102
}
330
2A
100
AcDbVisualStyle
  2
Brighten
 70
    12
 71
     2
 72
     2
 73
     0
 90
        0
 40
-0.6
 41
-30.0
 62
     5
 63
     7
 74
     1
 91
        4
 64
     7
 65
   257
 75
     1
175
     1
 42
1.0
 92
        8
 66
     7
 43
1.0
 76
     1
 77
     6
 78
     2
 67
     7
 79
     5
170
     0
171
     0
290
     0
174
     0
 93
        1
 44
50.0
173
     0
291
     1
 45
0.0
1001
ACAD
1000
AcDbSavedByObjectVersion
1070
     0
  0
VISUALSTYLE
  5
3A
102
{ACAD_REACTORS
330
2A
102
}
330
2A
100
AcDbVisualStyle
  2
ColorChange
 70
    16
 71
     2
 72
     2
 73
     3
 90
        0
 40
-0.6
 41
-30.0
 62
     5
 63
     8
 74
     1
 91
        4
 64
     7
 65
   257
 75
     1
175
     1
 42
1.0
 92
        8
 66
     8
 43
1.0
 76
     1
 77
     6
 78
     2
 67
     7
 79
     5
170
     0
171
     0
290
     0
174
     0
 93
        1
 44
0.0
173
     0
291
     1
 45
0.0
1001
ACAD
1000
AcDbSavedByObjectVersion
1070
     0
  0
VISUALSTYLE
  5
34
102
{ACAD_REACTORS
330
2A
102
}
330
2A
100
AcDbVisualStyle
  2
Conceptual
 70
     9
 71
     3
 72
     2
 73
     0
 90
        0
 40
-0.6
 41
-30.0
 62
     5
 63
     7
 74
     2
 91
        2
 64
     7
 65
   257
 75
     1
175
     1
 42
40.0
 92
        8
 66
     7
 43
1.0
 76
     1
 77
     6
 78
     2
 67
     7
 79
     3
170
     0
171
     0
290
     0
174
     0
 93
        1
 44
0.0
173
     0
291
     0
 45
0.0
1001
ACAD
1000
AcDbSavedByObjectVersion
1070
     0
  0
VISUALSTYLE
  5
35
102
{ACAD_REACTORS
330
2A
102
}
330
2A
100
AcDbVisualStyle
  2
Dim
 70
    11
 71
     2
 72
     2
 73
     0
 90
        0
 40
-0.6
 41
-30.0
 62
     5
 63
     7
 74
     1
 91
        4
 64
     7
 65
   257
 75
     1
175
     1
 42
1.0
 92
        8
 66
     7
 43
1.0
 76
     1
 77
     6
 78
     2
 67
     7
 79
     5
170
     0
171
     0
290
     0
174
     0
 93
        1
 44
-50.0
173
     0
291
     1
 45
0.0
1001
ACAD
1000
AcDbSavedByObjectVersion
1070
     0
  0
VISUALSTYLE
  5
39
102
{ACAD_REACTORS
330
2A
102
}
330
2A
100
AcDbVisualStyle
  2
Facepattern
 70
    15
 71
     2
 72
     2
 73
     0
 90
        0
 40
-0.6
 41
-30.0
 62
     5
 63
     7
 74
     1
 91
        4
 64
     7
 65
   257
 75
     1
175
     1
 42
1.0
 92
        8
 66
     7
 43
1.0
 76
     1
 77
     6
 78
     2
 67
     7
 79
     5
170
     0
171
     0
290
     0
174
     0
 93
        1
 44
0.0
173
     0
291
     1
 45
0.0
1001
ACAD
1000
AcDbSavedByObjectVersion
1070
     0
  0
VISUALSTYLE
  5
2B
102
{ACAD_REACTORS
330
2A
102
}
330
2A
100
AcDbVisualStyle
  2
Flat
 70
     0
 71
     2
 72
     1
 73
     1
 90
        2
 40
-0.6
 41
30.0
 62
     5
 63
     7
 74
     0
 91
        4
 64
     7
 65
   257
 75
     1
175
     1
 42
1.0
 92
        8
 66
     7
 43
1.0
 76
     1
 77
     6
 78
     2
 67
     7
 79
     5
170
     0
171
     0
290
     0
174
     0
 93
       13
 44
0.0
173
     0
291
     1
 45
0.0
1001
ACAD
1000
AcDbSavedByObjectVersion
1070
     0
  0
VISUALSTYLE
  5
2C
102
{ACAD_REACTORS
330
2A
102
}
330
2A
100
AcDbVisualStyle
  2
FlatWithEdges
 70
     1
 71
     2
 72
     1
 73
     1
 90
        2
 40
-0.6
 41
30.0
 62
     5
 63
     7
 74
     1
 91
        4
 64
     7
 65
   257
 75
     1
175
     1
 42
1.0
 92
        0
 66
   257
 43
1.0
 76
     1
 77
     6
 78
     2
 67
     7
 79
     5
170
     0
171
     0
290
     0
174
     0
 93
       13
 44
0.0
173
     0
291
     1
 45
0.0
1001
ACAD
1000
AcDbSavedByObjectVersion
1070
     0
  0
VISUALSTYLE
  5
2D
102
{ACAD_REACTORS
330
2A
102
}
330
2A
100
AcDbVisualStyle
  2
Gouraud
 70
     2
 71
     2
 72
     2
 73
     1
 90
        2
 40
-0.6
 41
30.0
 62
     5
 63
     7
 74
     0
 91
        4
 64
     7
 65
   257
 75
     1
175
     1
 42
1.0
 92
        0
 66
     7
 43
1.0
 76
     1
 77
     6
 78
     2
 67
     7
 79
     5
170
     0
171
     0
290
     0
174
     0
 93
       13
 44
0.0
173
     0
291
     1
 45
0.0
1001
ACAD
1000
AcDbSavedByObjectVersion
1070
     0
  0
VISUALSTYLE
  5
2E
102
{ACAD_REACTORS
330
2A
102
}
330
2A
100
AcDbVisualStyle
  2
GouraudWithEdges
 70
     3
 71
     2
 72
     2
 73
     1
 90
        2
 40
-0.6
 41
30.0
 62
     5
 63
     7
 74
     1
 91
        4
 64
     7
 65
   257
 75
     1
175
     1
 42
1.0
 92
        0
 66
   257
 43
1.0
 76
     1
 77
     6
 78
     2
 67
     7
 79
     5
170
     0
171
     0
290
     0
174
     0
 93
       13
 44
0.0
173
     0
291
     1
 45
0.0
1001
ACAD
1000
AcDbSavedByObjectVersion
1070
     0
  0
VISUALSTYLE
  5
38
102
{ACAD_REACTORS
330
2A
102
}
330
2A
100
AcDbVisualStyle
  2
Linepattern
 70
    14
 71
     2
 72
     2
 73
     0
 90
        0
 40
-0.6
 41
-30.0
 62
     5
 63
     7
 74
     1
 91
        4
 64
     7
 65
   257
 75
     7
175
     7
 42
1.0
 92
        8
 66
     7
 43
1.0
 76
     1
 77
     6
 78
     2
 67
     7
 79
     5
170
     0
171
     0
290
     0
174
     0
 93
        1
 44
0.0
173
     0
291
     1
 45
0.0
1001
ACAD
1000
AcDbSavedByObjectVersion
1070
     0
  0
VISUALSTYLE
  5
33
102
{ACAD_REACTORS
330
2A
102
}
330
2A
100
AcDbVisualStyle
  2
Realistic
 70
     8
 71
     2
 72
     2
 73
     0
 90
        0
 40
-0.6
 41
-30.0
 62
     5
 63
     7
 74
     1
 91
        0
 64
     7
 65
   257
 75
     1
175
     1
 42
1.0
 92
        8
 66
     8
 43
1.0
 76
     1
 77
     6
 78
     2
 67
     7
 79
     5
170
     0
171
     0
290
     0
174
     0
 93
       13
 44
0.0
173
     0
291
     0
 45
0.0
1001
ACAD
1000
AcDbSavedByObjectVersion
1070
     0
  0
VISUALSTYLE
  5
37
102
{ACAD_REACTORS
330
2A
102
}
330
2A
100
AcDbVisualStyle
  2
Thicken
 70
    13
 71
     2
 72
     2
 73
     0
 90
        0
 40
-0.6
 41
-30.0
 62
     5
 63
     7
 74
     1
 91
        4
 64
     7
 65
   257
 75
     1
175
     1
 42
1.0
 92
       12
 66
     7
 43
1.0
 76
     1
 77
     6
 78
     2
 67
     7
 79
     5
170
     0
171
     0
290
     0
174
     0
 93
        1
 44
0.0
173
     0
291
     1
 45
0.0
1001
ACAD
1000
AcDbSavedByObjectVersion
1070
     0
  0
DICTIONARYVAR
  5
29F
102
{ACAD_REACTORS
330
29D
102
}
330
29D
100
DictionaryVariables
280
     0
  1
80.000000
  0
DICTIONARYVAR
  5
29E
102
{ACAD_REACTORS
330
29D
102
}
330
29D
100
DictionaryVariables
280
     0
  1
5.000000
  0
ENDSEC
  0
EOF
