  0
SECTION
  2
HEADER
  9
$ACADVER
  1
AC1015
  9
$ACADMAINTVER
 70
     6
  9
$DWGCODEPAGE
  3
ANSI_1252
  9
$INSBASE
 10
0.0
 20
0.0
 30
0.0
  9
$EXTMIN
 10
0.0
 20
0.0
 30
0.0
  9
$EXTMAX
 10
297.0
 20
210.0
 30
0.0
  9
$LIMMIN
 10
0.0
 20
0.0
  9
$LIMMAX
 10
297.0
 20
210.0
  9
$ORTHOMODE
 70
     0
  9
$REGENMODE
 70
     1
  9
$FILLMODE
 70
     1
  9
$QTEXTMODE
 70
     0
  9
$MIRRTEXT
 70
     1
  9
$LTSCALE
 40
1.0
  9
$ATTMODE
 70
     1
  9
$TEXTSIZE
 40
2.0
  9
$TRACEWID
 40
1.0
  9
$TEXTSTYLE
  7
STANDARD
  9
$CLAYER
  8
0
  9
$CELTYPE
  6
ByLayer
  9
$CECOLOR
 62
   256
  9
$CELTSCALE
 40
1.0
  9
$DISPSILH
 70
     0
  9
$DIMSCALE
 40
1.0
  9
$DIMASZ
 40
3.0
  9
$DIMEXO
 40
0.0
  9
$DIMDLI
 40
3.75
  9
$DIMRND
 40
0.0
  9
$DIMDLE
 40
0.0
  9
$DIMEXE
 40
1.0
  9
$DIMTP
 40
0.0
  9
$DIMTM
 40
0.0
  9
$DIMTXT
 40
2.0
  9
$DIMCEN
 40
2.5
  9
$DIMTSZ
 40
0.0
  9
$DIMTOL
 70
     0
  9
$DIMLIM
 70
     0
  9
$DIMTIH
 70
     1
  9
$DIMTOH
 70
     1
  9
$DIMSE1
 70
     0
  9
$DIMSE2
 70
     0
  9
$DIMTAD
 70
     1
  9
$DIMZIN
 70
     0
  9
$DIMBLK
  1

  9
$DIMASO
 70
     1
  9
$DIMSHO
 70
     1
  9
$DIMPOST
  1

  9
$DIMAPOST
  1

  9
$DIMALT
 70
     0
  9
$DIMALTD
 70
     3
  9
$DIMALTF
 40
0.0393700787
  9
$DIMLFAC
 40
1.0
  9
$DIMTOFL
 70
     1
  9
$DIMTVP
 40
0.0
  9
$DIMTIX
 70
     0
  9
$DIMSOXD
 70
     0
  9
$DIMSAH
 70
     0
  9
$DIMBLK1
  1

  9
$DIMBLK2
  1

  9
$DIMSTYLE
  2
ISO-25
  9
$DIMCLRD
 70
     0
  9
$DIMCLRE
 70
     0
  9
$DIMCLRT
 70
     0
  9
$DIMTFAC
 40
1.0
  9
$DIMGAP
 40
1.524
  9
$DIMJUST
 70
     0
  9
$DIMSD1
 70
     0
  9
$DIMSD2
 70
     0
  9
$DIMTOLJ
 70
     0
  9
$DIMTZIN
 70
     0
  9
$DIMALTZ
 70
     0
  9
$DIMALTTZ
 70
     0
  9
$DIMUPT
 70
     0
  9
$DIMDEC
 70
     2
  9
$DIMTDEC
 70
     3
  9
$DIMALTU
 70
     2
  9
$DIMALTTD
 70
     3
  9
$DIMTXSTY
  7
STANDARD
  9
$DIMAUNIT
 70
     0
  9
$DIMADEC
 70
     2
  9
$DIMALTRND
 40
0.0
  9
$DIMAZIN
 70
     0
  9
$DIMDSEP
 70
    44
  9
$DIMATFIT
 70
     3
  9
$DIMFRAC
 70
     0
  9
$DIMLDRBLK
  1

  9
$DIMLUNIT
 70
     2
  9
$DIMLWD
 70
    -2
  9
$DIMLWE
 70
    -2
  9
$DIMTMOVE
 70
     0
  9
$LUNITS
 70
     2
  9
$LUPREC
 70
     2
  9
$SKETCHINC
 40
1.0
  9
$FILLETRAD
 40
10.0
  9
$AUNITS
 70
     0
  9
$AUPREC
 70
     2
  9
$MENU
  1
.
  9
$ELEVATION
 40
0.0
  9
$PELEVATION
 40
0.0
  9
$THICKNESS
 40
0.0
  9
$LIMCHECK
 70
     0
  9
$CHAMFERA
 40
10.0
  9
$CHAMFERB
 40
10.0
  9
$CHAMFERC
 40
20.0
  9
$CHAMFERD
 40
0.0
  9
$SKPOLY
 70
     0
  9
$TDCREATE
 40
2457070.389289861
  9
$TDUCREATE
 40
2457070.347623195
  9
$TDUPDATE
 40
2457070.389290579
  9
$TDUUPDATE
 40
2457070.347623912
  9
$TDINDWG
 40
0.0000000116
  9
$TDUSRTIMER
 40
0.0000000116
  9
$USRTIMER
 70
     1
  9
$ANGBASE
 50
0.0
  9
$ANGDIR
 70
     0
  9
$PDMODE
 70
     0
  9
$PDSIZE
 40
-1.0
  9
$PLINEWID
 40
0.0
  9
$SPLFRAME
 70
     0
  9
$SPLINETYPE
 70
     6
  9
$SPLINESEGS
 70
     8
  9
$HANDSEED
  5
272
  9
$SURFTAB1
 70
     6
  9
$SURFTAB2
 70
     6
  9
$SURFTYPE
 70
     6
  9
$SURFU
 70
     6
  9
$SURFV
 70
     6
  9
$UCSBASE
  2

  9
$UCSNAME
  2

  9
$UCSORG
 10
0.0
 20
0.0
 30
0.0
  9
$UCSXDIR
 10
1.0
 20
0.0
 30
0.0
  9
$UCSYDIR
 10
0.0
 20
1.0
 30
0.0
  9
$UCSORTHOREF
  2

  9
$UCSORTHOVIEW
 70
     0
  9
$UCSORGTOP
 10
0.0
 20
0.0
 30
0.0
  9
$UCSORGBOTTOM
 10
0.0
 20
0.0
 30
0.0
  9
$UCSORGLEFT
 10
0.0
 20
0.0
 30
0.0
  9
$UCSORGRIGHT
 10
0.0
 20
0.0
 30
0.0
  9
$UCSORGFRONT
 10
0.0
 20
0.0
 30
0.0
  9
$UCSORGBACK
 10
0.0
 20
0.0
 30
0.0
  9
$PUCSBASE
  2

  9
$PUCSNAME
  2

  9
$PUCSORG
 10
0.0
 20
0.0
 30
0.0
  9
$PUCSXDIR
 10
1.0
 20
0.0
 30
0.0
  9
$PUCSYDIR
 10
0.0
 20
1.0
 30
0.0
  9
$PUCSORTHOREF
  2

  9
$PUCSORTHOVIEW
 70
     0
  9
$PUCSORGTOP
 10
0.0
 20
0.0
 30
0.0
  9
$PUCSORGBOTTOM
 10
0.0
 20
0.0
 30
0.0
  9
$PUCSORGLEFT
 10
0.0
 20
0.0
 30
0.0
  9
$PUCSORGRIGHT
 10
0.0
 20
0.0
 30
0.0
  9
$PUCSORGFRONT
 10
0.0
 20
0.0
 30
0.0
  9
$PUCSORGBACK
 10
0.0
 20
0.0
 30
0.0
  9
$USERI1
 70
     0
  9
$USERI2
 70
     0
  9
$USERI3
 70
     0
  9
$USERI4
 70
     0
  9
$USERI5
 70
     0
  9
$USERR1
 40
0.0
  9
$USERR2
 40
0.0
  9
$USERR3
 40
0.0
  9
$USERR4
 40
0.0
  9
$USERR5
 40
0.0
  9
$WORLDVIEW
 70
     1
  9
$SHADEDGE
 70
     3
  9
$SHADEDIF
 70
    70
  9
$TILEMODE
 70
     1
  9
$MAXACTVP
 70
    64
  9
$PINSBASE
 10
0.0
 20
0.0
 30
0.0
  9
$PLIMCHECK
 70
     0
  9
$PEXTMIN
 10
1.0000000000E+20
 20
1.0000000000E+20
 30
1.0000000000E+20
  9
$PEXTMAX
 10
-1.0000000000E+20
 20
-1.0000000000E+20
 30
-1.0000000000E+20
  9
$PLIMMIN
 10
0.0
 20
0.0
  9
$PLIMMAX
 10
420.0
 20
297.0
  9
$UNITMODE
 70
     0
  9
$VISRETAIN
 70
     1
  9
$PLINEGEN
 70
     0
  9
$PSLTSCALE
 70
     1
  9
$TREEDEPTH
 70
  3020
  9
$CMLSTYLE
  2
Standard
  9
$CMLJUST
 70
     0
  9
$CMLSCALE
 40
20.0
  9
$PROXYGRAPHICS
 70
     1
  9
$MEASUREMENT
 70
     1
  9
$CELWEIGHT
370
    -1
  9
$ENDCAPS
280
     0
  9
$JOINSTYLE
280
     0
  9
$LWDISPLAY
290
     1
  9
$INSUNITS
 70
     4
  9
$HYPERLINKBASE
  1

  9
$STYLESHEET
  1

  9
$XEDIT
290
     1
  9
$CEPSNTYPE
380
     0
  9
$PSTYLEMODE
290
     1
  9
$FINGERPRINTGUID
  2
{2DFD576A-84DC-41BE-A538-065E70AC2711}
  9
$VERSIONGUID
  2
{FAEB1C32-E019-11D5-929B-00C0DF256EC4}
  9
$EXTNAMES
290
     1
  9
$PSVPSCALE
 40
0.0
  9
$OLESTARTUP
290
     0
  0
ENDSEC
  0
SECTION
  2
CLASSES
  0
CLASS
  1
ACDBDICTIONARYWDFLT
  2
AcDbDictionaryWithDefault
  3
ObjectDBX Classes
 90
        0
280
     0
281
     0
  0
CLASS
  1
VISUALSTYLE
  2
AcDbVisualStyle
  3
ObjectDBX Classes
 90
     4095
280
     0
281
     0
  0
CLASS
  1
MATERIAL
  2
AcDbMaterial
  3
ObjectDBX Classes
 90
     1153
280
     0
281
     0
  0
CLASS
  1
ACDBPLACEHOLDER
  2
AcDbPlaceHolder
  3
ObjectDBX Classes
 90
        0
280
     0
281
     0
  0
CLASS
  1
LAYOUT
  2
AcDbLayout
  3
ObjectDBX Classes
 90
        0
280
     0
281
     0
  0
ENDSEC
  0
SECTION
  2
TABLES
  0
TABLE
  2
VPORT
  5
8
330
0
100
AcDbSymbolTable
 70
     1
  0
VPORT
  5
29
330
8
100
AcDbSymbolTableRecord
100
AcDbViewportTableRecord
  2
*Active
 70
     0
 10
0.0
 20
0.0
 11
1.0
 21
1.0
 12
148.5
 22
105.0
 13
0.0
 23
0.0
 14
10.0
 24
10.0
 15
10.0
 25
10.0
 16
0.0
 26
0.0
 36
1.0
 17
0.0
 27
0.0
 37
0.0
 40
210.0
 41
1.4142857143
 42
50.0
 43
0.0
 44
0.0
 50
0.0
 51
0.0
 71
     0
 72
  2000
 73
     1
 74
     3
 75
     0
 76
     0
 77
     0
 78
     0
281
     0
 65
     1
110
0.0
120
0.0
130
0.0
111
1.0
121
0.0
131
0.0
112
0.0
122
1.0
132
0.0
 79
     0
146
0.0
  0
ENDTAB
  0
TABLE
  2
LTYPE
  5
5
330
0
100
AcDbSymbolTable
 70
     8
  0
LTYPE
  5
14
330
5
100
AcDbSymbolTableRecord
100
AcDbLinetypeTableRecord
  2
ByBlock
 70
     0
  3

 72
    65
 73
     0
 40
0.0
  0
LTYPE
  5
15
330
5
100
AcDbSymbolTableRecord
100
AcDbLinetypeTableRecord
  2
ByLayer
 70
     0
  3

 72
    65
 73
     0
 40
0.0
  0
LTYPE
  5
16
330
5
100
AcDbSymbolTableRecord
100
AcDbLinetypeTableRecord
  2
Continuous
 70
     0
  3
Solid line
 72
    65
 73
     0
 40
0.0
  0
LTYPE
  5
3F
330
5
100
AcDbSymbolTableRecord
100
AcDbLinetypeTableRecord
  2
SLD-Durchgehend
 70
     0
  3
SolidWorks Line Style
 72
    65
 73
     0
 40
0.0
  0
LTYPE
  5
40
330
5
100
AcDbSymbolTableRecord
100
AcDbLinetypeTableRecord
  2
SLD-Gestrichelt
 70
     0
  3
SolidWorks Line Style
 72
    65
 73
     2
 40
1.905
 49
1.27
 74
     0
 49
-0.635
 74
     0
  0
LTYPE
  5
41
330
5
100
AcDbSymbolTableRecord
100
AcDbLinetypeTableRecord
  2
SLD-Phantom
 70
     0
  3
SolidWorks Line Style
 72
    65
 73
     6
 40
12.7
 49
6.35
 74
     0
 49
-1.27
 74
     0
 49
1.27
 74
     0
 49
-1.27
 74
     0
 49
1.27
 74
     0
 49
-1.27
 74
     0
  0
LTYPE
  5
42
330
5
100
AcDbSymbolTableRecord
100
AcDbLinetypeTableRecord
  2
SLD-Kette
 70
     0
  3
SolidWorks Line Style
 72
    65
 73
     4
 40
10.16
 49
6.35
 74
     0
 49
-1.27
 74
     0
 49
1.27
 74
     0
 49
-1.27
 74
     0
  0
LTYPE
  5
43
330
5
100
AcDbSymbolTableRecord
100
AcDbLinetypeTableRecord
  2
SLD-Punktstrich
 70
     0
  3
SolidWorks Line Style
 72
    65
 73
     4
 40
19.05
 49
15.24
 74
     0
 49
-1.27
 74
     0
 49
1.27
 74
     0
 49
-1.27
 74
     0
  0
LTYPE
  5
44
330
5
100
AcDbSymbolTableRecord
100
AcDbLinetypeTableRecord
  2
SLD-Naht
 70
     0
  3
SolidWorks Line Style
 72
    65
 73
     2
 40
0.635
 49
0.0
 74
     0
 49
-0.635
 74
     0
  0
LTYPE
  5
45
330
5
100
AcDbSymbolTableRecord
100
AcDbLinetypeTableRecord
  2
SLD-Dicke-Dünne-Kette
 70
     0
  3
SolidWorks Line Style
 72
    65
 73
     4
 40
10.16
 49
6.35
 74
     0
 49
-1.27
 74
     0
 49
1.27
 74
     0
 49
-1.27
 74
     0
  0
ENDTAB
  0
TABLE
  2
LAYER
  5
2
330
0
100
AcDbSymbolTable
 70
     5
  0
LAYER
  5
10
330
2
100
AcDbSymbolTableRecord
100
AcDbLayerTableRecord
  2
0
 70
     0
 62
     7
  6
Continuous
370
    -3
390
F
  0
LAYER
  5
46
330
2
100
AcDbSymbolTableRecord
100
AcDbLayerTableRecord
  2
FORMAT
 70
     0
 62
     7
  6
SLD-Durchgehend
370
    -3
390
F
  0
LAYER
  5
47
330
2
100
AcDbSymbolTableRecord
100
AcDbLayerTableRecord
  2
VERMASSUNG
 70
     0
 62
     7
  6
SLD-Durchgehend
370
    -3
390
F
  0
LAYER
  5
48
330
2
100
AcDbSymbolTableRecord
100
AcDbLayerTableRecord
  2
KOPF_DÜNN
 70
     0
 62
     7
  6
SLD-Durchgehend
370
    -3
390
F
  0
LAYER
  5
49
330
2
100
AcDbSymbolTableRecord
100
AcDbLayerTableRecord
  2
KOPF_DICK
 70
     0
 62
     7
  6
SLD-Durchgehend
370
    15
390
F
  0
ENDTAB
  0
TABLE
  2
STYLE
  5
3
330
0
100
AcDbSymbolTable
 70
     2
  0
STYLE
  5
11
330
3
100
AcDbSymbolTableRecord
100
AcDbTextStyleTableRecord
  2
STANDARD
 70
     0
 40
0.0
 41
1.0
 50
0.0
 71
     0
 42
2.0
  3
ISOCPEUR.TTF
  4

1001
ACAD
1000
ISOCPEUR
1071
       34
  0
STYLE
  5
4A
330
3
100
AcDbSymbolTableRecord
100
AcDbTextStyleTableRecord
  2
SLDTEXTSTYLE0
 70
     0
 40
0.0
 41
1.0
 50
0.0
 71
     0
 42
0.2
  3
ISOCPEUR.TTF
  4

1001
ACAD
1000
ISOCPEUR
1071
      290
  0
ENDTAB
  0
TABLE
  2
VIEW
  5
6
330
0
100
AcDbSymbolTable
 70
     0
  0
ENDTAB
  0
TABLE
  2
UCS
  5
7
330
0
100
AcDbSymbolTable
 70
     0
  0
ENDTAB
  0
TABLE
  2
APPID
  5
9
330
0
100
AcDbSymbolTable
 70
     1
  0
APPID
  5
12
330
9
100
AcDbSymbolTableRecord
100
AcDbRegAppTableRecord
  2
ACAD
 70
     0
  0
ENDTAB
  0
TABLE
  2
DIMSTYLE
  5
A
330
0
100
AcDbSymbolTable
 70
     3
100
AcDbDimStyleTable
  0
DIMSTYLE
105
27
330
A
100
AcDbSymbolTableRecord
100
AcDbDimStyleTableRecord
  2
ISO-25
 70
     0
 41
2.5
 42
0.625
 43
3.75
 44
1.25
 73
     0
 74
     0
 77
     1
 78
     8
140
2.5
141
2.5
143
0.0393700787
147
0.625
171
     3
172
     1
178
     0
271
     2
272
     2
274
     3
278
    44
283
     0
284
     8
340
11
  0
DIMSTYLE
105
1F4
102
{ACAD_REACTORS
330
1F3
330
200
330
20A
330
214
330
25A
102
}
330
A
100
AcDbSymbolTableRecord
100
AcDbDimStyleTableRecord
  2
SLDDIMSTYLE0
 70
     0
 41
3.0
 44
0.0
 45
0.000000001
 73
     0
 74
     0
 77
     1
 78
    12
 79
     3
140
2.0
147
0.5
173
     1
178
     0
271
     2
272
     3
276
     2
284
    12
340
4A
  0
DIMSTYLE
105
21F
102
{ACAD_REACTORS
330
21E
102
}
330
A
100
AcDbSymbolTableRecord
100
AcDbDimStyleTableRecord
  2
SLDDIMSTYLE1
 70
     0
 41
3.0
 44
0.0
 73
     0
 74
     0
 77
     1
 78
    12
 79
     3
140
2.0
147
0.5
173
     1
178
     0
179
     2
272
     3
276
     2
284
    12
340
4A
  0
ENDTAB
  0
TABLE
  2
BLOCK_RECORD
  5
1
330
0
100
AcDbSymbolTable
 70
     8
  0
BLOCK_RECORD
  5
1F
330
1
100
AcDbSymbolTableRecord
100
AcDbBlockTableRecord
  2
*Model_Space
340
22
  0
BLOCK_RECORD
  5
1B
330
1
100
AcDbSymbolTableRecord
100
AcDbBlockTableRecord
  2
*Paper_Space
340
1E
  0
BLOCK_RECORD
  5
23
330
1
100
AcDbSymbolTableRecord
100
AcDbBlockTableRecord
  2
*Paper_Space0
340
26
  0
BLOCK_RECORD
  5
1F5
330
1
100
AcDbSymbolTableRecord
100
AcDbBlockTableRecord
  2
_D
340
0
  0
BLOCK_RECORD
  5
201
330
1
100
AcDbSymbolTableRecord
100
AcDbBlockTableRecord
  2
_D_1
340
0
  0
BLOCK_RECORD
  5
20B
330
1
100
AcDbSymbolTableRecord
100
AcDbBlockTableRecord
  2
_D_2
340
0
  0
BLOCK_RECORD
  5
215
330
1
100
AcDbSymbolTableRecord
100
AcDbBlockTableRecord
  2
_D_3
340
0
  0
BLOCK_RECORD
  5
220
330
1
100
AcDbSymbolTableRecord
100
AcDbBlockTableRecord
  2
_D_4
340
0
  0
BLOCK_RECORD
  5
25B
330
1
100
AcDbSymbolTableRecord
100
AcDbBlockTableRecord
  2
_D_5
340
0
  0
BLOCK_RECORD
  5
265
330
1
100
AcDbSymbolTableRecord
100
AcDbBlockTableRecord
  2
SW_CENTERMARKSYMBOL_0
340
0
102
{BLKREFS
331
270
102
}
  0
ENDTAB
  0
ENDSEC
  0
SECTION
  2
BLOCKS
  0
BLOCK
  5
20
330
1F
100
AcDbEntity
  8
0
100
AcDbBlockBegin
  2
*Model_Space
 70
     0
 10
0.0
 20
0.0
 30
0.0
  3
*Model_Space
  1

  0
ENDBLK
  5
21
330
1F
100
AcDbEntity
  8
0
100
AcDbBlockEnd
  0
BLOCK
  5
1C
330
1B
100
AcDbEntity
 67
     1
  8
0
100
AcDbBlockBegin
  2
*Paper_Space
 70
     0
 10
0.0
 20
0.0
 30
0.0
  3
*Paper_Space
  1

  0
ENDBLK
  5
1D
330
1B
100
AcDbEntity
 67
     1
  8
0
100
AcDbBlockEnd
  0
BLOCK
  5
24
330
23
100
AcDbEntity
  8
0
100
AcDbBlockBegin
  2
*Paper_Space0
 70
     0
 10
0.0
 20
0.0
 30
0.0
  3
*Paper_Space0
  1

  0
ENDBLK
  5
25
330
23
100
AcDbEntity
  8
0
100
AcDbBlockEnd
  0
BLOCK
  5
1F6
330
1F5
100
AcDbEntity
  8
0
100
AcDbBlockBegin
  2
_D
 70
     0
 10
0.0
 20
0.0
 30
0.0
  3
_D
  1

  0
SOLID
  5
1F8
330
1F5
100
AcDbEntity
  8
VERMASSUNG
100
AcDbTrace
 10
142.90609358
 20
150.1996642349
 30
0.0
 11
142.45609358
 21
147.1996642349
 31
0.0
 12
143.35609358
 22
147.1996642349
 32
0.0
 13
143.35609358
 23
147.1996642349
 33
0.0
  0
SOLID
  5
1F9
330
1F5
100
AcDbEntity
  8
VERMASSUNG
100
AcDbTrace
 10
142.90609358
 20
87.1996642349
 30
0.0
 11
143.35609358
 21
90.1996642349
 31
0.0
 12
142.45609358
 22
90.1996642349
 32
0.0
 13
142.45609358
 23
90.1996642349
 33
0.0
  0
LINE
  5
1FA
330
1F5
100
AcDbEntity
  8
VERMASSUNG
100
AcDbLine
 10
181.8025520388
 20
150.1996642349
 30
0.0
 11
141.90609358
 21
150.1996642349
 31
0.0
  0
LINE
  5
1FB
330
1F5
100
AcDbEntity
  8
VERMASSUNG
100
AcDbLine
 10
181.8025520388
 20
87.1996642349
 30
0.0
 11
141.90609358
 21
87.1996642349
 31
0.0
  0
LINE
  5
1FC
330
1F5
100
AcDbEntity
  8
VERMASSUNG
100
AcDbLine
 10
142.90609358
 20
150.1996642349
 30
0.0
 11
142.90609358
 21
87.1996642349
 31
0.0
  0
MTEXT
  5
1FD
330
1F5
100
AcDbEntity
  8
VERMASSUNG
100
AcDbMText
 10
140.1060935705
 20
112.4960021273
 30
0.0
 40
2.0
 41
0.0
 71
     1
 72
     1
  1
HSK 
  7
SLDTEXTSTYLE0
 11
-7.044195017643634E-15
 21
1.0
 31
0.0
 73
     1
 44
1.0
  0
MTEXT
  5
1FE
330
1F5
100
AcDbEntity
  8
VERMASSUNG
100
AcDbMText
 10
140.30609358
 20
118.4960021794
 30
0.0
 40
2.0
 41
0.0
 71
     1
 72
     1
  1
%%c
  7
SLDTEXTSTYLE0
 11
-7.044195017643634E-15
 21
1.0
 31
0.0
 73
     1
 44
1.0
  0
MTEXT
  5
1FF
330
1F5
100
AcDbEntity
  8
VERMASSUNG
100
AcDbMText
 10
140.3060936964
 20
122.1042472105
 30
0.0
 40
2.0
 41
0.0
 71
     1
 72
     1
  1
63
  7
SLDTEXTSTYLE0
 11
-7.044195017643634E-15
 21
1.0
 31
0.0
 73
     1
 44
1.0
  0
ENDBLK
  5
1F7
330
1F5
100
AcDbEntity
  8
0
100
AcDbBlockEnd
  0
BLOCK
  5
202
330
201
100
AcDbEntity
  8
0
100
AcDbBlockBegin
  2
_D_1
 70
     0
 10
0.0
 20
0.0
 30
0.0
  3
_D_1
  1

  0
SOLID
  5
204
330
201
100
AcDbEntity
  8
VERMASSUNG
100
AcDbTrace
 10
149.6025520388
 20
160.1996642349
 30
0.0
 11
152.6025520388
 21
159.7496642349
 31
0.0
 12
152.6025520388
 22
160.6496642349
 32
0.0
 13
152.6025520388
 23
160.6496642349
 33
0.0
  0
SOLID
  5
205
330
201
100
AcDbEntity
  8
VERMASSUNG
100
AcDbTrace
 10
251.5025520388
 20
160.1996642349
 30
0.0
 11
248.5025520388
 21
160.6496642349
 31
0.0
 12
248.5025520388
 22
159.7496642349
 32
0.0
 13
248.5025520388
 23
159.7496642349
 33
0.0
  0
LINE
  5
206
330
201
100
AcDbEntity
  8
VERMASSUNG
100
AcDbLine
 10
149.6025520388
 20
138.3903419814
 30
0.0
 11
149.6025520388
 21
161.1996642349
 31
0.0
  0
LINE
  5
207
330
201
100
AcDbEntity
  8
VERMASSUNG
100
AcDbLine
 10
251.5025520388
 20
73.6996642349
 30
0.0
 11
251.5025520388
 21
161.1996642349
 31
0.0
  0
LINE
  5
208
330
201
100
AcDbEntity
  8
VERMASSUNG
100
AcDbLine
 10
149.6025520388
 20
160.1996642349
 30
0.0
 11
251.5025520388
 21
160.1996642349
 31
0.0
  0
MTEXT
  5
209
330
201
100
AcDbEntity
  8
VERMASSUNG
100
AcDbMText
 10
197.852555354
 20
162.7996641185
 30
0.0
 40
2.0
 41
0.0
 71
     1
 72
     1
  1
101.9
  7
SLDTEXTSTYLE0
 73
     1
 44
1.0
  0
ENDBLK
  5
203
330
201
100
AcDbEntity
  8
0
100
AcDbBlockEnd
  0
BLOCK
  5
20C
330
20B
100
AcDbEntity
  8
0
100
AcDbBlockBegin
  2
_D_2
 70
     0
 10
0.0
 20
0.0
 30
0.0
  3
_D_2
  1

  0
SOLID
  5
20E
330
20B
100
AcDbEntity
  8
VERMASSUNG
100
AcDbTrace
 10
181.5025520388
 20
154.1996642349
 30
0.0
 11
184.5025520388
 21
153.7496642349
 31
0.0
 12
184.5025520388
 22
154.6496642349
 32
0.0
 13
184.5025520388
 23
154.6496642349
 33
0.0
  0
SOLID
  5
20F
330
20B
100
AcDbEntity
  8
VERMASSUNG
100
AcDbTrace
 10
251.5025520388
 20
154.1996642349
 30
0.0
 11
248.5025520388
 21
154.6496642349
 31
0.0
 12
248.5025520388
 22
153.7496642349
 32
0.0
 13
248.5025520388
 23
153.7496642349
 33
0.0
  0
LINE
  5
210
330
20B
100
AcDbEntity
  8
VERMASSUNG
100
AcDbLine
 10
181.5025520388
 20
149.8996642349
 30
0.0
 11
181.5025520388
 21
155.1996642349
 31
0.0
  0
LINE
  5
211
330
20B
100
AcDbEntity
  8
VERMASSUNG
100
AcDbLine
 10
251.5025520388
 20
73.6996642349
 30
0.0
 11
251.5025520388
 21
155.1996642349
 31
0.0
  0
LINE
  5
212
330
20B
100
AcDbEntity
  8
VERMASSUNG
100
AcDbLine
 10
181.5025520388
 20
154.1996642349
 30
0.0
 11
251.5025520388
 21
154.1996642349
 31
0.0
  0
MTEXT
  5
213
330
20B
100
AcDbEntity
  8
VERMASSUNG
100
AcDbMText
 10
215.1030124729
 20
156.7996641185
 30
0.0
 40
2.0
 41
0.0
 71
     1
 72
     1
  1
70
  7
SLDTEXTSTYLE0
 73
     1
 44
1.0
  0
ENDBLK
  5
20D
330
20B
100
AcDbEntity
  8
0
100
AcDbBlockEnd
  0
BLOCK
  5
216
330
215
100
AcDbEntity
  8
0
100
AcDbBlockBegin
  2
_D_3
 70
     0
 10
0.0
 20
0.0
 30
0.0
  3
_D_3
  1

  0
SOLID
  5
218
330
215
100
AcDbEntity
  8
VERMASSUNG
100
AcDbTrace
 10
257.8142546246
 20
118.6996642349
 30
0.0
 11
257.3642546246
 21
115.6996642349
 31
0.0
 12
258.2642546246
 22
115.6996642349
 32
0.0
 13
258.2642546246
 23
115.6996642349
 33
0.0
  0
SOLID
  5
219
330
215
100
AcDbEntity
  8
VERMASSUNG
100
AcDbTrace
 10
257.8142546246
 20
73.6996642349
 30
0.0
 11
258.2642546246
 21
76.6996642349
 31
0.0
 12
257.3642546246
 22
76.6996642349
 32
0.0
 13
257.3642546246
 23
76.6996642349
 33
0.0
  0
LINE
  5
21A
330
215
100
AcDbEntity
  8
VERMASSUNG
100
AcDbLine
 10
239.1678998912
 20
118.6996642349
 30
0.0
 11
258.8142546246
 21
118.6996642349
 31
0.0
  0
LINE
  5
21B
330
215
100
AcDbEntity
  8
VERMASSUNG
100
AcDbLine
 10
251.5025520388
 20
73.6996642349
 30
0.0
 11
258.8142546246
 21
73.6996642349
 31
0.0
  0
LINE
  5
21C
330
215
100
AcDbEntity
  8
VERMASSUNG
100
AcDbLine
 10
257.8142546246
 20
118.6996642349
 30
0.0
 11
257.8142546246
 21
73.6996642349
 31
0.0
  0
MTEXT
  5
21D
330
215
100
AcDbEntity
  8
VERMASSUNG
100
AcDbMText
 10
255.214254741
 20
94.6996660767
 30
0.0
 40
2.0
 41
0.0
 71
     1
 72
     1
  1
45
  7
SLDTEXTSTYLE0
 11
-7.044195017643634E-15
 21
1.0
 31
0.0
 73
     1
 44
1.0
  0
ENDBLK
  5
217
330
215
100
AcDbEntity
  8
0
100
AcDbBlockEnd
  0
BLOCK
  5
221
330
220
100
AcDbEntity
  8
0
100
AcDbBlockBegin
  2
_D_4
 70
     0
 10
0.0
 20
0.0
 30
0.0
  3
_D_4
  1

  0
ARC
  5
223
330
220
100
AcDbEntity
  8
VERMASSUNG
100
AcDbCircle
 10
251.5025520388
 20
73.706182803
 30
0.0
 40
36.11256785378318
100
AcDbArc
 50
90.0
 51
107.5
  0
SOLID
  5
224
330
220
100
AcDbEntity
  8
VERMASSUNG
100
AcDbTrace
 10
251.5025520388
 20
109.8187506568
 30
0.0
 11
248.4864843878
 21
110.1440749937
 31
0.0
 12
248.5237711782
 22
109.244847717
 32
0.0
 13
248.5237711782
 23
109.244847717
 33
0.0
  0
SOLID
  5
225
330
220
100
AcDbEntity
  8
VERMASSUNG
100
AcDbTrace
 10
240.6432934502
 20
108.1473509002
 30
0.0
 11
243.6567831919
 21
108.4957466187
 31
0.0
 12
243.4219413788
 22
109.3645672692
 32
0.0
 13
243.4219413788
 23
109.3645672692
 33
0.0
  0
MTEXT
  5
226
330
220
100
AcDbEntity
  8
VERMASSUNG
100
AcDbMText
 10
242.8469630677
 20
111.5423893302
 30
0.0
 40
2.0
 41
0.0
 71
     1
 72
     1
  1
17.5°
  7
SLDTEXTSTYLE0
 11
0.9883615104677597
 21
0.1521233861899235
 31
0.0
 73
     1
 44
1.0
  0
ENDBLK
  5
222
330
220
100
AcDbEntity
  8
0
100
AcDbBlockEnd
  0
BLOCK
  5
25C
330
25B
100
AcDbEntity
  8
0
100
AcDbBlockBegin
  2
_D_5
 70
     0
 10
0.0
 20
0.0
 30
0.0
  3
_D_5
  1

  0
SOLID
  5
25E
330
25B
100
AcDbEntity
  8
VERMASSUNG
100
AcDbTrace
 10
34.5241566921
 20
73.8694318582
 30
0.0
 11
34.9741566921
 21
76.8694318582
 31
0.0
 12
34.0741566921
 22
76.8694318582
 32
0.0
 13
34.0741566921
 23
76.8694318582
 33
0.0
  0
SOLID
  5
25F
330
25B
100
AcDbEntity
  8
VERMASSUNG
100
AcDbTrace
 10
34.5241566921
 20
153.8694318582
 30
0.0
 11
34.0741566921
 21
150.8694318582
 31
0.0
 12
34.9741566921
 22
150.8694318582
 32
0.0
 13
34.9741566921
 23
150.8694318582
 33
0.0
  0
LINE
  5
260
330
25B
100
AcDbEntity
  8
VERMASSUNG
100
AcDbLine
 10
79.5084874864
 20
73.8694318582
 30
0.0
 11
33.5241566921
 21
73.8694318582
 31
0.0
  0
LINE
  5
261
330
25B
100
AcDbEntity
  8
VERMASSUNG
100
AcDbLine
 10
79.5084874864
 20
153.8694318582
 30
0.0
 11
33.5241566921
 21
153.8694318582
 31
0.0
  0
LINE
  5
262
330
25B
100
AcDbEntity
  8
VERMASSUNG
100
AcDbLine
 10
34.5241566921
 20
73.8694318582
 30
0.0
 11
34.5241566921
 21
153.8694318582
 31
0.0
  0
MTEXT
  5
263
330
25B
100
AcDbEntity
  8
VERMASSUNG
100
AcDbMText
 10
31.9241566921
 20
110.665766067
 30
0.0
 40
2.0
 41
0.0
 71
     1
 72
     1
  1
%%c
  7
SLDTEXTSTYLE0
 11
6.123233995736766E-17
 21
1.0
 31
0.0
 73
     1
 44
1.0
  0
MTEXT
  5
264
330
25B
100
AcDbEntity
  8
VERMASSUNG
100
AcDbMText
 10
31.9241568085
 20
114.2740185174
 30
0.0
 40
2.0
 41
0.0
 71
     1
 72
     1
  1
80
  7
SLDTEXTSTYLE0
 11
6.123233995736766E-17
 21
1.0
 31
0.0
 73
     1
 44
1.0
  0
ENDBLK
  5
25D
330
25B
100
AcDbEntity
  8
0
100
AcDbBlockEnd
  0
BLOCK
  5
266
330
265
100
AcDbEntity
  8
0
100
AcDbBlockBegin
  2
SW_CENTERMARKSYMBOL_0
 70
     0
 10
0.0
 20
0.0
 30
0.0
  3
SW_CENTERMARKSYMBOL_0
  1

  0
LINE
  5
268
330
265
100
AcDbEntity
  8
VERMASSUNG
 62
     0
100
AcDbLine
 10
0.0
 20
0.0
 30
0.0
 11
0.0
 21
2.5
 31
0.0
  0
LINE
  5
269
330
265
100
AcDbEntity
  8
VERMASSUNG
 62
     0
100
AcDbLine
 10
0.0
 20
0.0
 30
0.0
 11
-2.5
 21
0.0
 31
0.0
  0
LINE
  5
26A
330
265
100
AcDbEntity
  8
VERMASSUNG
 62
     0
100
AcDbLine
 10
0.0
 20
0.0
 30
0.0
 11
0.0
 21
-2.5
 31
0.0
  0
LINE
  5
26B
330
265
100
AcDbEntity
  8
VERMASSUNG
 62
     0
100
AcDbLine
 10
0.0
 20
0.0
 30
0.0
 11
2.5
 21
0.0
 31
0.0
  0
LINE
  5
26C
330
265
100
AcDbEntity
  8
VERMASSUNG
 62
     0
100
AcDbLine
 10
0.0
 20
5.0
 30
0.0
 11
0.0
 21
34.0
 31
0.0
  0
LINE
  5
26D
330
265
100
AcDbEntity
  8
VERMASSUNG
 62
     0
100
AcDbLine
 10
-5.0
 20
0.0
 30
0.0
 11
-34.0
 21
0.0
 31
0.0
  0
LINE
  5
26E
330
265
100
AcDbEntity
  8
VERMASSUNG
 62
     0
100
AcDbLine
 10
0.0
 20
-5.0
 30
0.0
 11
0.0
 21
-34.0
 31
0.0
  0
LINE
  5
26F
330
265
100
AcDbEntity
  8
VERMASSUNG
 62
     0
100
AcDbLine
 10
5.0
 20
0.0
 30
0.0
 11
34.0
 21
0.0
 31
0.0
  0
ENDBLK
  5
267
330
265
100
AcDbEntity
  8
0
100
AcDbBlockEnd
  0
ENDSEC
  0
SECTION
  2
ENTITIES
  0
MTEXT
  5
4B
330
1F
100
AcDbEntity
  8
KOPF_DÜNN
100
AcDbMText
 10
13.8892156294
 20
23.8770940835
 30
0.0
 40
3.0
 41
0.0
 71
     1
 72
     1
  1
HA6.KDB.LHA.070
  7
SLDTEXTSTYLE0
 73
     1
 44
1.0
  0
MTEXT
  5
4C
330
1F
100
AcDbEntity
  8
VERMASSUNG
100
AcDbMText
 10
13.9329988022
 20
28.9162328764
 30
0.0
 40
3.0
 41
0.0
 71
     1
 72
     1
  1
Klemmhalter links_Turning tool left 107.5° /55° /107.5°
  7
SLDTEXTSTYLE0
 73
     1
 44
1.0
  0
MTEXT
  5
4D
330
1F
100
AcDbEntity
  8
VERMASSUNG
100
AcDbMText
 10
98.8601118557
 20
13.8584013384
 30
0.0
 40
2.0
 41
0.0
 71
     1
 72
     1
  1
Datum: 05.11.2008
  7
SLDTEXTSTYLE0
 73
     1
 44
1.0
  0
MTEXT
  5
4E
330
1F
100
AcDbEntity
  8
VERMASSUNG
100
AcDbMText
 10
13.933048693
 20
18.0701447943
 30
0.0
 40
2.0
 41
0.0
 71
     1
 72
     1
  1
DIN 69893 HSK 63 A ICTM / DC.. 11 T3..
  7
SLDTEXTSTYLE0
 73
     1
 44
1.0
  0
MTEXT
  5
4F
330
1F
100
AcDbEntity
  8
VERMASSUNG
100
AcDbMText
 10
13.9808475933
 20
13.9309618897
 30
0.0
 40
2.0
 41
0.0
 71
     1
 72
     1
  1
Gewicht: 1004g
  7
SLDTEXTSTYLE0
 73
     1
 44
1.0
  0
LINE
  5
50
330
1F
100
AcDbEntity
  8
0
  6
SLD-Durchgehend
 62
     7
370
    15
100
AcDbLine
 10
181.8025520531
 20
87.1996637283
 30
0.0
 11
186.452552012
 21
87.1996637283
 31
0.0
  0
LINE
  5
51
330
1F
100
AcDbEntity
  8
0
  6
SLD-Durchgehend
 62
     7
370
    15
100
AcDbLine
 10
186.4805405837
 20
150.1996647415
 30
0.0
 11
181.8025520531
 21
150.1996647415
 31
0.0
  0
ARC
  5
52
330
1F
100
AcDbEntity
  8
0
  6
SLD-Durchgehend
 62
     7
370
    15
100
AcDbCircle
 10
181.8025520388
 20
87.4996642349
 30
0.0
 40
0.3000000000000114
100
AcDbArc
 50
180.0
 51
270.0
  0
ARC
  5
53
330
1F
100
AcDbEntity
  8
0
  6
SLD-Durchgehend
 62
     7
370
    15
100
AcDbCircle
 10
181.8025520388
 20
149.8996642349
 30
0.0
 40
0.3000000000000114
100
AcDbArc
 50
90.0
 51
180.0
  0
ARC
  5
54
330
1F
100
AcDbEntity
  8
0
  6
SLD-Durchgehend
 62
     7
370
    15
100
AcDbCircle
 10
208.4525520388
 20
91.6996642349
 30
0.0
 40
1.0
100
AcDbArc
 50
90.0
 51
143.1139143113
  0
ARC
  5
55
330
1F
100
AcDbEntity
  8
0
  6
SLD-Durchgehend
 62
     7
370
    15
100
AcDbCircle
 10
208.4525520388
 20
145.6996642349
 30
0.0
 40
1.0
100
AcDbArc
 50
216.8996843908
 51
270.0
  0
LINE
  5
56
330
1F
100
AcDbEntity
  8
0
  6
SLD-Durchgehend
 62
     7
370
    15
100
AcDbLine
 10
208.4525518928
 20
92.6996636985
 30
0.0
 11
221.3039149408
 21
92.6996636985
 31
0.0
  0
LINE
  5
57
330
1F
100
AcDbEntity
  8
0
  6
SLD-Durchgehend
 62
     7
370
    15
100
AcDbLine
 10
221.239229
 20
144.6996647713
 30
0.0
 11
208.4525518928
 21
144.6996647713
 31
0.0
  0
ARC
  5
58
330
1F
100
AcDbEntity
  8
0
  6
SLD-Durchgehend
 62
     7
370
    15
100
AcDbCircle
 10
181.0025520388
 20
94.1292333732
 30
0.0
 40
0.5999999999999943
100
AcDbArc
 50
33.5573097619
 51
90.0
  0
ARC
  5
59
330
1F
100
AcDbEntity
  8
0
  6
SLD-Durchgehend
 62
     7
370
    15
100
AcDbCircle
 10
181.0025520388
 20
143.2700950966
 30
0.0
 40
0.6000000000000019
100
AcDbArc
 50
270.0
 51
326.4426902381
  0
LINE
  5
5A
330
1F
100
AcDbEntity
  8
0
  6
SLD-Durchgehend
 62
     7
370
    15
100
AcDbLine
 10
168.271043605
 20
142.3573940841
 30
0.0
 11
155.7025511627
 21
141.7277101276
 31
0.0
  0
LINE
  5
5B
330
1F
100
AcDbEntity
  8
0
  6
SLD-Durchgehend
 62
     7
370
    15
100
AcDbLine
 10
179.5025519438
 20
142.9200954584
 30
0.0
 11
176.6855505173
 21
142.7789628354
 31
0.0
  0
LINE
  5
5C
330
1F
100
AcDbEntity
  8
0
  6
SLD-Durchgehend
 62
     7
370
    15
100
AcDbLine
 10
176.6856063966
 20
94.6203637717
 30
0.0
 11
179.5025519438
 21
94.4792330114
 31
0.0
  0
LINE
  5
5D
330
1F
100
AcDbEntity
  8
0
  6
SLD-Durchgehend
 62
     7
370
    15
100
AcDbLine
 10
159.7025518183
 20
95.4712182132
 30
0.0
 11
168.2714459364
 21
95.0419138966
 31
0.0
  0
LINE
  5
5E
330
1F
100
AcDbEntity
  8
0
  6
SLD-Durchgehend
 62
     7
370
    15
100
AcDbLine
 10
179.5025519438
 20
94.4792330114
 30
0.0
 11
180.35926487
 21
94.7087891249
 31
0.0
  0
LINE
  5
5F
330
1F
100
AcDbEntity
  8
0
  6
SLD-Durchgehend
 62
     7
370
    15
100
AcDbLine
 10
180.35926487
 20
142.6905393449
 30
0.0
 11
179.5025519438
 21
142.9200954584
 31
0.0
  0
ARC
  5
60
330
1F
100
AcDbEntity
  8
0
  6
SLD-Durchgehend
 62
     7
370
    15
100
AcDbCircle
 10
180.5145562393
 20
94.1292333732
 30
0.0
 40
0.6000000000000085
100
AcDbArc
 50
90.0
 51
105.0
  0
ARC
  5
61
330
1F
100
AcDbEntity
  8
0
  6
SLD-Durchgehend
 62
     7
370
    15
100
AcDbCircle
 10
180.5145562393
 20
143.2700950966
 30
0.0
 40
0.6000000000000081
100
AcDbArc
 50
255.0
 51
270.0
  0
LINE
  5
62
330
1F
100
AcDbEntity
  8
0
  6
SLD-Durchgehend
 62
     7
370
    15
100
AcDbLine
 10
180.5145562737
 20
94.729233518
 30
0.0
 11
181.0025520151
 21
94.729233518
 31
0.0
  0
LINE
  5
63
330
1F
100
AcDbEntity
  8
0
  6
SLD-Durchgehend
 62
     7
370
    15
100
AcDbLine
 10
181.0025520151
 20
142.6700949518
 30
0.0
 11
180.5145562737
 21
142.6700949518
 31
0.0
  0
LINE
  5
64
330
1F
100
AcDbEntity
  8
0
  6
SLD-Durchgehend
 62
     7
370
    15
100
AcDbLine
 10
150.7525511895
 20
97.8871639667
 30
0.0
 11
158.3025523339
 21
97.8871639667
 31
0.0
  0
ARC
  5
65
330
1F
100
AcDbEntity
  8
0
  6
SLD-Durchgehend
 62
     7
370
    15
100
AcDbCircle
 10
158.3025520388
 20
96.4871642349
 30
0.0
 40
1.400000000000006
100
AcDbArc
 50
37.6443616934
 51
90.0
  0
LINE
  5
66
330
1F
100
AcDbEntity
  8
0
  6
SLD-Durchgehend
 62
     7
370
    15
100
AcDbLine
 10
150.7437148009
 20
139.5608279703
 30
0.0
 11
149.6124540333
 21
138.4295653401
 31
0.0
  0
LINE
  5
67
330
1F
100
AcDbEntity
  8
0
  6
SLD-Durchgehend
 62
     7
370
    15
100
AcDbLine
 10
149.5999705855
 20
99.0397445706
 30
0.0
 11
150.7525511895
 21
97.8871639667
 31
0.0
  0
ARC
  5
68
330
1F
100
AcDbEntity
  8
0
  6
SLD-Durchgehend
 62
     7
370
    15
100
AcDbCircle
 10
154.3025520388
 20
140.9696642349
 30
0.0
 40
1.400000000000006
100
AcDbArc
 50
270.0
 51
301.7485287426
  0
LINE
  5
69
330
1F
100
AcDbEntity
  8
0
  6
SLD-Durchgehend
 62
     7
370
    15
100
AcDbLine
 10
154.3025516782
 20
139.5696643589
 30
0.0
 11
150.8768175606
 21
139.5696643589
 31
0.0
  0
ARC
  5
6A
330
1F
100
AcDbEntity
  8
0
  6
SLD-Durchgehend
 62
     7
370
    15
100
AcDbCircle
 10
244.3312708346
 20
80.8709454391
 30
0.0
 40
1.675
100
AcDbArc
 50
100.8069086448
 51
159.4068417721
  0
ARC
  5
6B
330
1F
100
AcDbEntity
  8
0
  6
SLD-Durchgehend
 62
     7
370
    15
100
AcDbCircle
 10
244.3312708346
 20
80.8709454391
 30
0.0
 40
1.675
100
AcDbArc
 50
159.4068417721
 51
219.5136835068
  0
ARC
  5
6C
330
1F
100
AcDbEntity
  8
0
  6
SLD-Durchgehend
 62
     7
370
    15
100
AcDbCircle
 10
244.3312708346
 20
80.8709454391
 30
0.0
 40
1.675000000000002
100
AcDbArc
 50
219.5136835068
 51
278.113616634
  0
LINE
  5
6D
330
1F
100
AcDbEntity
  8
0
  6
SLD-Durchgehend
 62
     7
370
    15
100
AcDbLine
 10
244.6514603559
 20
79.2268346844
 30
0.0
 11
244.5676711265
 21
79.2127121089
 31
0.0
  0
ARC
  5
6E
330
1F
100
AcDbEntity
  8
0
  6
SLD-Durchgehend
 62
     7
370
    15
100
AcDbCircle
 10
244.3312708346
 20
80.8709454391
 30
0.0
 40
1.675000000000013
100
AcDbArc
 50
281.0202474059
 51
337.4639655722
  0
LINE
  5
6F
330
1F
100
AcDbEntity
  8
0
  6
SLD-Durchgehend
 62
     7
370
    15
100
AcDbLine
 10
245.9202942316
 20
80.3412068484
 30
0.0
 11
245.878362364
 21
80.2289787529
 31
0.0
  0
ARC
  5
70
330
1F
100
AcDbEntity
  8
0
  6
SLD-Durchgehend
 62
     7
370
    15
100
AcDbCircle
 10
244.3312708346
 20
80.8709454391
 30
0.0
 40
1.675000000000028
100
AcDbArc
 50
341.5630574724
 51
37.3574678064
  0
LINE
  5
71
330
1F
100
AcDbEntity
  8
0
  6
SLD-Durchgehend
 62
     7
370
    15
100
AcDbLine
 10
245.586612529
 20
81.9798838196
 30
0.0
 11
245.6626680557
 21
81.8873103557
 31
0.0
  0
ARC
  5
72
330
1F
100
AcDbEntity
  8
0
  6
SLD-Durchgehend
 62
     7
370
    15
100
AcDbCircle
 10
244.3312708346
 20
80.8709454391
 30
0.0
 40
1.67500000000002
100
AcDbArc
 50
41.4565597067
 51
97.900277873
  0
LINE
  5
73
330
1F
100
AcDbEntity
  8
0
  6
SLD-Durchgehend
 62
     7
370
    15
100
AcDbLine
 10
244.0172073309
 20
82.5162399409
 30
0.0
 11
244.1010412638
 21
82.5300458667
 31
0.0
  0
CIRCLE
  5
74
330
1F
100
AcDbEntity
  8
0
  6
SLD-Durchgehend
 62
     7
370
    15
100
AcDbCircle
 10
244.3312708346
 20
80.8709454391
 30
0.0
 40
1.800000000000017
  0
ARC
  5
75
330
1F
100
AcDbEntity
  8
0
  6
SLD-Durchgehend
 62
     7
370
    15
100
AcDbCircle
 10
245.5905733659
 20
80.4004498576
 30
0.0
 40
0.3350008707317903
100
AcDbArc
 50
349.8139945716
 51
56.2158933642
  0
ARC
  5
76
330
1F
100
AcDbEntity
  8
0
  6
SLD-Durchgehend
 62
     7
370
    15
100
AcDbCircle
 10
246.102837104
 20
81.1661410101
 30
0.0
 40
0.5862466955386644
100
AcDbArc
 50
142.7034821729
 51
236.2170538644
  0
ARC
  5
77
330
1F
100
AcDbEntity
  8
0
  6
SLD-Durchgehend
 62
     7
370
    15
100
AcDbCircle
 10
245.3700044172
 20
81.7243539386
 30
0.0
 40
0.3349728335076305
100
AcDbArc
 50
322.7015217712
 51
29.1092551009
  0
ARC
  5
78
330
1F
100
AcDbEntity
  8
0
  6
SLD-Durchgehend
 62
     7
370
    15
100
AcDbCircle
 10
244.9629969345
 20
82.5508358222
 30
0.0
 40
0.5862465127766836
100
AcDbArc
 50
202.7035433124
 51
296.2166571937
  0
ARC
  5
79
330
1F
100
AcDbEntity
  8
0
  6
SLD-Durchgehend
 62
     7
370
    15
100
AcDbCircle
 10
244.1131407657
 20
82.1952720731
 30
0.0
 40
0.334992374349431
100
AcDbArc
 50
22.7034577008
 51
92.069901501
  0
ARC
  5
7A
330
1F
100
AcDbEntity
  8
0
  6
SLD-Durchgehend
 62
     7
370
    15
100
AcDbCircle
 10
245.3699743344
 20
81.7243561411
 30
0.0
 40
0.335002241494848
100
AcDbArc
 50
49.7084832817
 51
116.2167314063
  0
ARC
  5
7B
330
1F
100
AcDbEntity
  8
0
  6
SLD-Durchgehend
 62
     7
370
    15
100
AcDbCircle
 10
244.5543639488
 20
79.5474229756
 30
0.0
 40
0.3349694982641079
100
AcDbArc
 50
286.8499585719
 51
356.2203916673
  0
ARC
  5
7C
330
1F
100
AcDbEntity
  8
0
  6
SLD-Durchgehend
 62
     7
370
    15
100
AcDbCircle
 10
245.4735816239
 20
79.486653733
 30
0.0
 40
0.5862547068725432
100
AcDbArc
 50
82.7039831889
 51
176.2161536052
  0
ARC
  5
7D
330
1F
100
AcDbEntity
  8
0
  6
SLD-Durchgehend
 62
     7
370
    15
100
AcDbCircle
 10
245.5905797137
 20
80.4004361286
 30
0.0
 40
0.3349872915198244
100
AcDbArc
 50
262.7032310969
 51
329.2140325051
  0
ARC
  5
7E
330
1F
100
AcDbEntity
  8
0
  6
SLD-Durchgehend
 62
     7
370
    15
100
AcDbCircle
 10
243.1938929204
 20
82.2560522741
 30
0.0
 40
0.5862478405149116
100
AcDbArc
 50
262.7036336386
 51
356.2168208026
  0
ARC
  5
7F
330
1F
100
AcDbEntity
  8
0
  6
SLD-Durchgehend
 62
     7
370
    15
100
AcDbCircle
 10
243.07689777
 20
81.3422586188
 30
0.0
 40
0.3350049531296442
100
AcDbArc
 50
82.7045860692
 51
159.4060749699
  0
ARC
  5
80
330
1F
100
AcDbEntity
  8
0
  6
SLD-Durchgehend
 62
     7
370
    15
100
AcDbCircle
 10
244.1131375722
 20
82.1952642102
 30
0.0
 40
0.335004523716226
100
AcDbArc
 50
106.6398642107
 51
176.2163161336
  0
ARC
  5
81
330
1F
100
AcDbEntity
  8
0
  6
SLD-Durchgehend
 62
     7
370
    15
100
AcDbCircle
 10
243.2974901321
 20
80.0183254461
 30
0.0
 40
0.3349770866561616
100
AcDbArc
 50
219.510904066
 51
296.2202614111
  0
ARC
  5
82
330
1F
100
AcDbEntity
  8
0
  6
SLD-Durchgehend
 62
     7
370
    15
100
AcDbCircle
 10
243.7044711233
 20
79.1918605556
 30
0.0
 40
0.5862599857565277
100
AcDbArc
 50
22.7047822061
 51
116.2155936617
  0
ARC
  5
83
330
1F
100
AcDbEntity
  8
0
  6
SLD-Durchgehend
 62
     7
370
    15
100
AcDbCircle
 10
244.5543292992
 20
79.5474287995
 30
0.0
 40
0.334982488151259
100
AcDbArc
 50
202.7018662059
 51
272.2826048358
  0
CIRCLE
  5
84
330
1F
100
AcDbEntity
  8
0
  6
SLD-Durchgehend
 62
     7
370
    15
100
AcDbCircle
 10
244.3312708346
 20
80.8709454391
 30
0.0
 40
2.625000000000002
  0
ARC
  5
85
330
1F
100
AcDbEntity
  8
0
  6
SLD-Durchgehend
 62
     7
370
    15
100
AcDbCircle
 10
243.0770021306
 20
81.3422993143
 30
0.0
 40
0.3350883388050776
100
AcDbArc
 50
159.4188653111
 51
236.2045797328
  0
ARC
  5
86
330
1F
100
AcDbEntity
  8
0
  6
SLD-Durchgehend
 62
     7
370
    15
100
AcDbCircle
 10
242.5646263396
 20
80.5765708582
 30
0.0
 40
0.5862525470880304
100
AcDbArc
 50
322.7040902455
 51
56.2164457918
  0
ARC
  5
87
330
1F
100
AcDbEntity
  8
0
  6
SLD-Durchgehend
 62
     7
370
    15
100
AcDbCircle
 10
243.2975017305
 20
80.0183533017
 30
0.0
 40
0.3350037576329964
100
AcDbArc
 50
142.7042537687
 51
219.5133175605
  0
LINE
  5
88
330
1F
100
AcDbEntity
  8
0
  6
SLD-Durchgehend
 62
     7
370
    15
100
AcDbLine
 10
251.4649641578
 20
74.2139313219
 30
0.0
 11
248.2620713178
 21
84.3722168205
 31
0.0
  0
LINE
  5
89
330
1F
100
AcDbEntity
  8
0
  6
SLD-Durchgehend
 62
     7
370
    15
100
AcDbLine
 10
249.683068401
 20
75.5191501079
 30
0.0
 11
251.1025530164
 21
74.0996654926
 31
0.0
  0
LINE
  5
8A
330
1F
100
AcDbEntity
  8
0
  6
SLD-Durchgehend
 62
     7
370
    15
100
AcDbLine
 10
247.7238935296
 20
84.0821880696
 30
0.0
 11
247.8996601764
 21
84.2579509912
 31
0.0
  0
LWPOLYLINE
  5
8B
330
1F
100
AcDbEntity
  8
0
  6
SLD-Durchgehend
 62
     7
370
    15
100
AcDbPolyline
 90
        5
 70
   128
 43
0.0
 10
247.7238935296
 20
84.0821880696
 10
247.5638401572
 20
83.9221346972
 10
247.3964852158
 20
83.7547760306
 10
247.2355228726
 20
83.5938174126
 10
247.2314325039
 20
83.5897270439
  0
LINE
  5
8C
330
1F
100
AcDbEntity
  8
0
  6
SLD-Durchgehend
 62
     7
370
    15
100
AcDbLine
 10
237.3789598111
 20
87.3465780018
 30
0.0
 11
240.5818526511
 21
77.1882925031
 31
0.0
  0
LINE
  5
8D
330
1F
100
AcDbEntity
  8
0
  6
SLD-Durchgehend
 62
     7
370
    15
100
AcDbLine
 10
239.1608592932
 20
86.0413592158
 30
0.0
 11
237.7413709525
 21
87.4608456937
 31
0.0
  0
LINE
  5
8E
330
1F
100
AcDbEntity
  8
0
  6
SLD-Durchgehend
 62
     7
370
    15
100
AcDbLine
 10
241.120026714
 20
77.478321254
 30
0.0
 11
240.9442675177
 21
77.3025583325
 31
0.0
  0
LINE
  5
8F
330
1F
100
AcDbEntity
  8
0
  6
SLD-Durchgehend
 62
     7
370
    15
100
AcDbLine
 10
241.6124877397
 20
77.9707822797
 30
0.0
 11
241.120026714
 21
77.478321254
 31
0.0
  0
LINE
  5
90
330
1F
100
AcDbEntity
  8
0
  6
SLD-Durchgehend
 62
     7
370
    15
100
AcDbLine
 10
251.4866527979
 20
74.2116588948
 30
0.0
 11
248.2806754176
 21
84.3797158299
 31
0.0
  0
LINE
  5
91
330
1F
100
AcDbEntity
  8
0
  6
SLD-Durchgehend
 62
     7
370
    15
100
AcDbLine
 10
240.8224989538
 20
76.921539366
 30
0.0
 11
250.9905558888
 21
73.715565711
 31
0.0
  0
LINE
  5
92
330
1F
100
AcDbEntity
  8
0
  6
SLD-Durchgehend
 62
     7
370
    15
100
AcDbLine
 10
237.357271171
 20
87.3488504288
 30
0.0
 11
240.5632485513
 21
77.1807934938
 31
0.0
  0
LINE
  5
93
330
1F
100
AcDbEntity
  8
0
  6
SLD-Durchgehend
 62
     7
370
    15
100
AcDbLine
 10
248.0214250151
 20
84.6389699576
 30
0.0
 11
237.8533643548
 21
87.8449454752
 31
0.0
  0
ARC
  5
94
330
1F
100
AcDbEntity
  8
0
  6
SLD-Durchgehend
 62
     7
370
    15
100
AcDbCircle
 10
251.1025520388
 20
74.0996642349
 30
0.0
 40
0.3800000000000157
100
AcDbArc
 50
252.5
 51
17.5
  0
ARC
  5
95
330
1F
100
AcDbEntity
  8
0
  6
SLD-Durchgehend
 62
     7
370
    15
100
AcDbCircle
 10
247.8996568999
 20
84.2579498099
 30
0.0
 40
0.3799999999999885
100
AcDbArc
 50
17.5
 51
72.5
  0
LINE
  5
96
330
1F
100
AcDbEntity
  8
0
  6
SLD-Durchgehend
 62
     7
370
    15
100
AcDbLine
 10
248.0139222805
 20
84.6203621326
 30
0.0
 11
237.8556405072
 21
87.8232568351
 31
0.0
  0
ARC
  5
97
330
1F
100
AcDbEntity
  8
0
  6
SLD-Durchgehend
 62
     7
370
    15
100
AcDbCircle
 10
237.7413713249
 20
87.4608449489
 30
0.0
 40
0.3800000000000056
100
AcDbArc
 50
72.5
 51
197.5
  0
ARC
  5
98
330
1F
100
AcDbEntity
  8
0
  6
SLD-Durchgehend
 62
     7
370
    15
100
AcDbCircle
 10
240.9442664638
 20
77.3025593738
 30
0.0
 40
0.3800000000000021
100
AcDbArc
 50
197.5
 51
252.5
  0
LINE
  5
99
330
1F
100
AcDbEntity
  8
0
  6
SLD-Durchgehend
 62
     7
370
    15
100
AcDbLine
 10
240.8299979631
 20
76.9401471911
 30
0.0
 11
250.9882834617
 21
73.7372506259
 31
0.0
  0
ARC
  5
9A
330
1F
100
AcDbEntity
  8
0
  6
SLD-Durchgehend
 62
     7
370
    15
100
AcDbCircle
 10
240.9416324292
 20
77.2999215321
 30
0.0
 40
0.3966936457322709
100
AcDbArc
 50
197.4757645122
 51
252.5234121838
  0
ARC
  5
9B
330
1F
100
AcDbEntity
  8
0
  6
SLD-Durchgehend
 62
     7
370
    15
100
AcDbCircle
 10
247.9022891011
 20
84.260585353
 30
0.0
 40
0.3966967040319028
100
AcDbArc
 50
17.4759946888
 51
72.5231820073
  0
ARC
  5
9C
330
1F
100
AcDbEntity
  8
0
  6
SLD-Durchgehend
 62
     7
370
    15
100
AcDbCircle
 10
237.7318718834
 20
87.4703443067
 30
0.0
 40
0.3938101777411013
100
AcDbArc
 50
72.0308325191
 51
197.9693826048
  0
ARC
  5
9D
330
1F
100
AcDbEntity
  8
0
  6
SLD-Durchgehend
 62
     7
370
    15
100
AcDbCircle
 10
251.1120512097
 20
74.0901663869
 30
0.0
 40
0.3938105881619254
100
AcDbArc
 50
252.0304160475
 51
17.9691537055
  0
LINE
  5
9E
330
1F
100
AcDbEntity
  8
0
  6
SLD-Durchgehend
 62
     7
370
    15
100
AcDbLine
 10
248.6566317145
 20
77.8000075219
 30
0.0
 11
247.0836353366
 21
82.7889162896
 31
0.0
  0
LINE
  5
9F
330
1F
100
AcDbEntity
  8
0
  6
SLD-Durchgehend
 62
     7
370
    15
100
AcDbLine
 10
240.1872885291
 20
83.7605018017
 30
0.0
 11
241.7602886323
 21
78.771593034
 31
0.0
  0
ARC
  5
A0
330
1F
100
AcDbEntity
  8
0
  6
SLD-Durchgehend
 62
     7
370
    15
100
AcDbCircle
 10
241.1410069908
 20
84.0612092829
 30
0.0
 40
1.000000000000026
100
AcDbArc
 50
72.5
 51
197.5
  0
LINE
  5
A1
330
1F
100
AcDbEntity
  8
0
  6
SLD-Durchgehend
 62
     7
370
    15
100
AcDbLine
 10
246.4306217496
 20
83.4419298766
 30
0.0
 11
241.4417129819
 21
85.0149262545
 31
0.0
  0
ARC
  5
A2
330
1F
100
AcDbEntity
  8
0
  6
SLD-Durchgehend
 62
     7
370
    15
100
AcDbCircle
 10
246.1299185884
 20
82.4882114984
 30
0.0
 40
1.000000000000034
100
AcDbArc
 50
17.5
 51
72.5
  0
ARC
  5
A3
330
1F
100
AcDbEntity
  8
0
  6
SLD-Durchgehend
 62
     7
370
    15
100
AcDbCircle
 10
247.7029163729
 20
77.4992999008
 30
0.0
 40
1.000000000295375
100
AcDbArc
 50
252.5
 51
17.5
  0
LINE
  5
A4
330
1F
100
AcDbEntity
  8
0
  6
SLD-Durchgehend
 62
     7
370
    15
100
AcDbLine
 10
242.413298494
 20
78.118579447
 30
0.0
 11
247.4022072617
 21
76.5455830691
 31
0.0
  0
ARC
  5
A5
330
1F
100
AcDbEntity
  8
0
  6
SLD-Durchgehend
 62
     7
370
    15
100
AcDbCircle
 10
242.7140047753
 20
79.0722976853
 30
0.0
 40
1.000000000000038
100
AcDbArc
 50
197.5
 51
252.5
  0
CIRCLE
  5
A6
330
1F
100
AcDbEntity
  8
0
  6
SLD-Durchgehend
 62
     7
370
    15
100
AcDbCircle
 10
244.4219616819
 20
80.7802545919
 30
0.0
 40
3.049999999999998
  0
LWPOLYLINE
  5
A7
330
1F
100
AcDbEntity
  8
0
  6
SLD-Durchgehend
 62
     7
370
    15
100
AcDbPolyline
 90
        5
 70
   128
 43
0.0
 10
249.1968956653
 20
76.0053228436
 10
249.2000770633
 20
76.0021377204
 10
249.2534083192
 20
75.9488064644
 10
249.4760540191
 20
75.7261607645
 10
249.683068401
 20
75.5191501079
  0
LWPOLYLINE
  5
A8
330
1F
100
AcDbEntity
  8
0
  6
SLD-Durchgehend
 62
     7
370
    15
100
AcDbPolyline
 90
        5
 70
   128
 43
0.0
 10
239.1608592932
 20
86.0413592158
 10
239.3678662245
 20
85.8343485592
 10
239.5905119244
 20
85.6117028592
 10
239.6438469056
 20
85.5583716033
 10
239.6470283036
 20
85.5551864801
  0
LINE
  5
A9
330
1F
100
AcDbEntity
  8
0
  6
SLD-Durchgehend
 62
     7
370
    15
100
AcDbLine
 10
202.8944839601
 20
88.5127466021
 30
0.0
 11
202.8944839601
 21
138.549664974
 31
0.0
  0
LINE
  5
AA
330
1F
100
AcDbEntity
  8
0
  6
SLD-Durchgehend
 62
     7
370
    15
100
AcDbLine
 10
202.8944839601
 20
88.5127466021
 30
0.0
 11
201.4125523035
 21
91.2018269149
 31
0.0
  0
LINE
  5
AB
330
1F
100
AcDbEntity
  8
0
  6
SLD-Durchgehend
 62
     7
370
    15
100
AcDbLine
 10
201.4125523035
 20
91.2018269149
 30
0.0
 11
201.4125523035
 21
138.549664974
 31
0.0
  0
LINE
  5
AC
330
1F
100
AcDbEntity
  8
0
  6
SLD-Durchgehend
 62
     7
370
    15
100
AcDbLine
 10
201.4125523035
 20
138.549664974
 30
0.0
 11
202.8944839601
 21
138.549664974
 31
0.0
  0
LINE
  5
AD
330
1F
100
AcDbEntity
  8
0
  6
SLD-Durchgehend
 62
     7
370
    15
100
AcDbLine
 10
186.452552012
 20
138.549664974
 30
0.0
 11
196.1106194992
 21
138.549664974
 31
0.0
  0
LINE
  5
AE
330
1F
100
AcDbEntity
  8
0
  6
SLD-Durchgehend
 62
     7
370
    15
100
AcDbLine
 10
196.1106194992
 20
88.5127466021
 30
0.0
 11
196.1106194992
 21
138.549664974
 31
0.0
  0
LINE
  5
AF
330
1F
100
AcDbEntity
  8
0
  6
SLD-Durchgehend
 62
     7
370
    15
100
AcDbLine
 10
196.1106194992
 20
88.5127466021
 30
0.0
 11
194.452552392
 21
88.5127466021
 31
0.0
  0
ARC
  5
B0
330
1F
100
AcDbEntity
  8
0
  6
SLD-Durchgehend
 62
     7
370
    15
100
AcDbCircle
 10
193.7928096162
 20
67.264434045
 30
0.0
 40
21.25855232734715
100
AcDbArc
 50
88.2215841219
 51
110.1991894934
  0
LINE
  5
B1
330
1F
100
AcDbEntity
  8
0
  6
SLD-Durchgehend
 62
     7
370
    15
100
AcDbLine
 10
186.452552012
 20
87.2155409155
 30
0.0
 11
186.452552012
 21
87.1996637283
 31
0.0
  0
LWPOLYLINE
  5
B2
330
1F
100
AcDbEntity
  8
0
  6
SLD-Durchgehend
 62
     7
370
    15
100
AcDbPolyline
 90
       11
 70
   128
 43
0.0
 10
194.452552392
 20
149.1668596713
 10
193.1529438932
 20
149.1945646552
 10
191.8533363257
 20
149.2775305954
 10
190.6639144633
 20
149.4015175698
 10
189.548037282
 20
149.5590917615
 10
188.5756191675
 20
149.7284956125
 10
187.7423997846
 20
149.8970389215
 10
187.1091027622
 20
150.0393543241
 10
186.6716894199
 20
150.1447241602
 10
186.4718816121
 20
150.1947622595
 10
186.4805405837
 20
150.1925680635
  0
LINE
  5
B3
330
1F
100
AcDbEntity
  8
0
  6
SLD-Durchgehend
 62
     7
370
    15
100
AcDbLine
 10
196.1106194992
 20
149.1668596713
 30
0.0
 11
194.452552392
 21
149.1668596713
 31
0.0
  0
LINE
  5
B4
330
1F
100
AcDbEntity
  8
0
  6
SLD-Durchgehend
 62
     7
370
    15
100
AcDbLine
 10
196.1106194992
 20
143.15835385
 30
0.0
 11
196.1106194992
 21
149.1668596713
 31
0.0
  0
LINE
  5
B5
330
1F
100
AcDbEntity
  8
0
  6
SLD-Durchgehend
 62
     7
370
    15
100
AcDbLine
 10
193.6981727247
 20
143.15835385
 30
0.0
 11
196.1106194992
 21
143.15835385
 31
0.0
  0
ARC
  5
B6
330
1F
100
AcDbEntity
  8
0
  6
SLD-Durchgehend
 62
     7
370
    15
100
AcDbCircle
 10
193.3283593416
 20
135.7397604615
 30
0.0
 40
7.427805180680926
100
AcDbArc
 50
87.1461947163
 51
157.7718644507
  0
LINE
  5
B7
330
1F
100
AcDbEntity
  8
0
  6
SLD-Durchgehend
 62
     7
370
    15
100
AcDbLine
 10
197.5925520871
 20
91.2018269149
 30
0.0
 11
197.5925520871
 21
138.549664974
 31
0.0
  0
LINE
  5
B8
330
1F
100
AcDbEntity
  8
0
  6
SLD-Durchgehend
 62
     7
370
    15
100
AcDbLine
 10
197.5925520871
 20
91.2018269149
 30
0.0
 11
196.1106194992
 21
88.5127466021
 31
0.0
  0
LINE
  5
B9
330
1F
100
AcDbEntity
  8
0
  6
SLD-Durchgehend
 62
     7
370
    15
100
AcDbLine
 10
196.1106194992
 20
138.549664974
 30
0.0
 11
197.5925520871
 21
138.549664974
 31
0.0
  0
LINE
  5
BA
330
1F
100
AcDbEntity
  8
0
  6
SLD-Durchgehend
 62
     7
370
    15
100
AcDbLine
 10
206.8525527481
 20
88.5127466021
 30
0.0
 11
202.8944839601
 21
88.5127466021
 31
0.0
  0
LINE
  5
BB
330
1F
100
AcDbEntity
  8
0
  6
SLD-Durchgehend
 62
     7
370
    15
100
AcDbLine
 10
202.8944839601
 20
138.549664974
 30
0.0
 11
206.8525527481
 21
138.549664974
 31
0.0
  0
LINE
  5
BC
330
1F
100
AcDbEntity
  8
0
  6
SLD-Durchgehend
 62
     7
370
    15
100
AcDbLine
 10
207.4525517289
 20
89.1393869964
 30
0.0
 11
207.4525517289
 21
138.549664974
 31
0.0
  0
ARC
  5
BD
330
1F
100
AcDbEntity
  8
0
  6
SLD-Durchgehend
 62
     7
370
    15
100
AcDbCircle
 10
206.8401338121
 20
89.1252028573
 30
0.0
 40
0.6125821533107513
100
AcDbArc
 50
271.1616423437
 51
1.3267835803
  0
LINE
  5
BE
330
1F
100
AcDbEntity
  8
0
  6
SLD-Durchgehend
 62
     7
370
    15
100
AcDbLine
 10
206.8525527481
 20
138.549664974
 30
0.0
 11
207.4525517289
 21
138.549664974
 31
0.0
  0
LINE
  5
BF
330
1F
100
AcDbEntity
  8
0
  6
SLD-Durchgehend
 62
     7
370
    15
100
AcDbLine
 10
181.5025520388
 20
87.4996650813
 30
0.0
 11
181.5025520388
 21
149.8996633885
 31
0.0
  0
ARC
  5
C0
330
1F
100
AcDbEntity
  8
0
  6
SLD-Durchgehend
 62
     7
370
    15
100
AcDbCircle
 10
198.4324830938
 20
145.81167082
 30
0.0
 40
0.8399658136910396
100
AcDbArc
 50
179.4783948307
 51
237.9582309184
  0
LINE
  5
C1
330
1F
100
AcDbEntity
  8
0
  6
SLD-Durchgehend
 62
     7
370
    15
100
AcDbLine
 10
198.3925525908
 20
145.0996640918
 30
0.0
 11
197.9868498508
 21
145.0996640918
 31
0.0
  0
LINE
  5
C2
330
1F
100
AcDbEntity
  8
0
  6
SLD-Durchgehend
 62
     7
370
    15
100
AcDbLine
 10
198.3925525908
 20
92.2996643779
 30
0.0
 11
197.6902273361
 21
92.2996643779
 31
0.0
  0
LINE
  5
C3
330
1F
100
AcDbEntity
  8
0
  6
SLD-Durchgehend
 62
     7
370
    15
100
AcDbLine
 10
197.5925520871
 20
138.835530713
 30
0.0
 11
197.6186998997
 21
138.549664974
 31
0.0
  0
LINE
  5
C4
330
1F
100
AcDbEntity
  8
0
  6
SLD-Durchgehend
 62
     7
370
    15
100
AcDbLine
 10
201.3148770545
 20
92.2996643779
 30
0.0
 11
200.6125517998
 21
92.2996643779
 31
0.0
  0
LINE
  5
C5
330
1F
100
AcDbEntity
  8
0
  6
SLD-Durchgehend
 62
     7
370
    15
100
AcDbLine
 10
201.0182545398
 20
145.0996640918
 30
0.0
 11
200.6125517998
 21
145.0996640918
 31
0.0
  0
ARC
  5
C6
330
1F
100
AcDbEntity
  8
0
  6
SLD-Durchgehend
 62
     7
370
    15
100
AcDbCircle
 10
200.5741087827
 20
145.8108558272
 30
0.0
 40
0.838486218132929
100
AcDbArc
 50
301.9851556421
 51
0.5782186088
  0
LWPOLYLINE
  5
C7
330
1F
100
AcDbEntity
  8
0
  6
SLD-Durchgehend
 62
     7
370
    15
100
AcDbPolyline
 90
        3
 70
   128
 43
0.0
 10
201.3864044909
 20
138.549664974
 10
201.4065005694
 20
138.6973783223
 10
201.4125523035
 20
138.835530713
  0
LINE
  5
C8
330
1F
100
AcDbEntity
  8
0
  6
SLD-Durchgehend
 62
     7
370
    15
100
AcDbLine
 10
200.6125517998
 20
145.0996640918
 30
0.0
 11
198.3925525908
 21
145.0996640918
 31
0.0
  0
LINE
  5
C9
330
1F
100
AcDbEntity
  8
0
  6
SLD-Durchgehend
 62
     7
370
    15
100
AcDbLine
 10
200.6125517998
 20
92.2996643779
 30
0.0
 11
198.3925525908
 21
92.2996643779
 31
0.0
  0
LINE
  5
CA
330
1F
100
AcDbEntity
  8
0
  6
SLD-Durchgehend
 62
     7
370
    15
100
AcDbLine
 10
207.6525513892
 20
145.0996640918
 30
0.0
 11
207.6097552542
 21
145.0996640918
 31
0.0
  0
LINE
  5
CB
330
1F
100
AcDbEntity
  8
0
  6
SLD-Durchgehend
 62
     7
370
    15
100
AcDbLine
 10
207.6525513892
 20
92.2996643779
 30
0.0
 11
207.4525517289
 21
92.2996643779
 31
0.0
  0
ELLIPSE
  5
CC
330
1F
100
AcDbEntity
  8
0
  6
SLD-Durchgehend
 62
     7
370
    15
100
AcDbEllipse
 10
218.4221672811
 20
118.6996642349
 30
0.0
 11
0.0
 21
26.0
 31
0.0
210
0.0
220
0.0
230
1.0
 40
0.2679491924
 41
0.1601874882047374
 42
2.981405165385056
  0
ELLIPSE
  5
CD
330
1F
100
AcDbEntity
  8
0
  6
SLD-Durchgehend
 62
     7
370
    15
100
AcDbEllipse
 10
216.0446888483
 20
101.0075511004
 30
0.0
 11
-0.2445571147370061
 21
3.288185115546483
 31
0.0
210
0.0
220
0.0
230
1.0
 40
0.2124533856
 41
0.0
 42
6.283185307179586
  0
ARC
  5
CE
330
1F
100
AcDbEntity
  8
0
  6
SLD-Durchgehend
 62
     7
370
    15
100
AcDbCircle
 10
221.28077901
 20
123.9386029793
 30
0.0
 40
20.81034803168921
100
AcDbArc
 50
85.9923048654
 51
100.9972474138
  0
ARC
  5
CF
330
1F
100
AcDbEntity
  8
0
  6
SLD-Durchgehend
 62
     7
370
    15
100
AcDbCircle
 10
221.1150705712
 20
110.7473566069
 30
0.0
 40
18.11867262026988
100
AcDbArc
 50
257.8802659283
 51
275.1301817925
  0
LINE
  5
D0
330
1F
100
AcDbEntity
  8
0
  6
SLD-Durchgehend
 62
     7
370
    15
100
AcDbLine
 10
159.7025518183
 20
95.4712182132
 30
0.0
 11
159.7025518183
 21
96.7545155285
 31
0.0
  0
LWPOLYLINE
  5
D1
330
1F
100
AcDbEntity
  8
0
  6
SLD-Durchgehend
 62
     7
370
    15
100
AcDbPolyline
 90
        5
 70
   128
 43
0.0
 10
159.0809480165
 20
97.8352930246
 10
159.1357917402
 20
97.7211519925
 10
159.4262805645
 20
97.322417408
 10
159.6567102585
 20
96.9556141493
 10
159.7025518183
 20
96.7545155285
  0
LWPOLYLINE
  5
D2
330
1F
100
AcDbEntity
  8
0
  6
SLD-Durchgehend
 62
     7
370
    15
100
AcDbPolyline
 90
        7
 70
   128
 43
0.0
 10
158.3025523339
 20
98.5535755602
 10
158.3823089365
 20
98.5550489125
 10
158.4611081396
 20
98.5431726871
 10
158.5559279535
 20
98.510833442
 10
158.6845119361
 20
98.4331369249
 10
158.9202483062
 20
98.1650464085
 10
159.0809480165
 20
97.8352930246
  0
LWPOLYLINE
  5
D3
330
1F
100
AcDbEntity
  8
0
  6
SLD-Durchgehend
 62
     7
370
    15
100
AcDbPolyline
 90
        3
 70
   128
 43
0.0
 10
154.3889504735
 20
98.0573817936
 10
155.0974690233
 20
98.1667432783
 10
158.3025523339
 20
98.5535755602
  0
ARC
  5
D4
330
1F
100
AcDbEntity
  8
0
  6
SLD-Durchgehend
 62
     7
370
    15
100
AcDbCircle
 10
151.238856329
 20
127.4448790746
 30
0.0
 40
29.55584696060028
100
AcDbArc
 50
269.0572258187
 51
276.1182671045
  0
LINE
  5
D5
330
1F
100
AcDbEntity
  8
0
  6
SLD-Durchgehend
 62
     7
370
    15
100
AcDbLine
 10
150.7425078068
 20
97.9048479197
 30
0.0
 11
150.7525511895
 21
97.8930331615
 31
0.0
  0
LINE
  5
D6
330
1F
100
AcDbEntity
  8
0
  6
SLD-Durchgehend
 62
     7
370
    15
100
AcDbLine
 10
150.7525511895
 20
139.5696028916
 30
0.0
 11
150.7425078068
 21
139.5596172509
 31
0.0
  0
LINE
  5
D7
330
1F
100
AcDbEntity
  8
0
  6
SLD-Durchgehend
 62
     7
370
    15
100
AcDbLine
 10
154.3025516782
 20
139.5227517781
 30
0.0
 11
150.7525511895
 21
139.5696028916
 31
0.0
  0
ARC
  5
D8
330
1F
100
AcDbEntity
  8
0
  6
SLD-Durchgehend
 62
     7
370
    15
100
AcDbCircle
 10
154.2446272806
 20
141.0725101224
 30
0.0
 40
1.550840469419331
100
AcDbArc
 50
272.1405139456
 51
340.0660547734
  0
LINE
  5
D9
330
1F
100
AcDbEntity
  8
0
  6
SLD-Durchgehend
 62
     7
370
    15
100
AcDbLine
 10
155.7025511627
 20
140.5437718926
 30
0.0
 11
155.7025511627
 21
141.7277101276
 31
0.0
  0
LINE
  5
DA
330
1F
100
AcDbEntity
  8
0
  6
SLD-Durchgehend
 62
     7
370
    15
100
AcDbLine
 10
179.5025519438
 20
94.4792330114
 30
0.0
 11
179.5025519438
 21
142.9200954584
 31
0.0
  0
LWPOLYLINE
  5
DB
330
1F
100
AcDbEntity
  8
0
  6
SLD-Durchgehend
 62
     7
370
    15
100
AcDbPolyline
 90
       18
 70
   128
 43
0.0
 10
168.2714580436
 20
95.0421560404
 10
168.2701383595
 20
95.0419828144
 10
168.3539853309
 20
95.052987322
 10
168.600736453
 20
95.0836110709
 10
168.993224657
 20
95.12812829
 10
169.5163904567
 20
95.1765812782
 10
170.1532055501
 20
95.218811169
 10
170.8887995098
 20
95.2448490856
 10
171.6845056851
 20
95.246978089
 10
172.5018548657
 20
95.2194798587
 10
173.3154675801
 20
95.1621942071
 10
174.1093097132
 20
95.0779840199
 10
174.8374647338
 20
94.9776973424
 10
175.468418083
 20
94.872213885
 10
175.983967061
 20
94.7731360642
 10
176.3691970025
 20
94.6914404479
 10
176.6091620427
 20
94.6381296811
 10
176.6856185038
 20
94.6206059156
  0
LWPOLYLINE
  5
DC
330
1F
100
AcDbEntity
  8
0
  6
SLD-Durchgehend
 62
     7
370
    15
100
AcDbPolyline
 90
       18
 70
   128
 43
0.0
 10
176.6855640214
 20
142.7786927519
 10
176.6084533062
 20
142.7612192778
 10
176.3664184016
 20
142.7076309768
 10
175.9794664447
 20
142.625523716
 10
175.4629442346
 20
142.5261031685
 10
174.8334460769
 20
142.4207370577
 10
174.1075960797
 20
142.3207465408
 10
173.316890641
 20
142.2370206413
 10
172.50332263
 20
142.1799026278
 10
171.6856279288
 20
142.1524621395
 10
170.8886616741
 20
142.1546097694
 10
170.152237906
 20
142.1806476859
 10
169.5141403813
 20
142.222907379
 10
168.9913685311
 20
142.2713175265
 10
168.5990982566
 20
142.3158813117
 10
168.3536174585
 20
142.3464100657
 10
168.2700182189
 20
142.3573400674
 10
168.2710529182
 20
142.3572040943
  0
LWPOLYLINE
  5
DD
330
1F
100
AcDbEntity
  8
0
  6
SLD-Durchgehend
 62
     7
370
    15
100
AcDbPolyline
 90
        3
 70
   128
 43
0.0
 10
149.6090714697
 20
99.0488454548
 10
149.6218752925
 20
99.0534443257
 10
149.6328313712
 20
99.1095769999
  0
LINE
  5
DE
330
1F
100
AcDbEntity
  8
0
  6
SLD-Durchgehend
 62
     7
370
    15
100
AcDbLine
 10
149.6025522117
 20
99.0465041099
 30
0.0
 11
149.6025522117
 21
138.3903417585
 31
0.0
  0
LWPOLYLINE
  5
DF
330
1F
100
AcDbEntity
  8
0
  6
SLD-Durchgehend
 62
     7
370
    15
100
AcDbPolyline
 90
        3
 70
   128
 43
0.0
 10
149.6652153198
 20
138.3742168394
 10
149.6237081353
 20
138.4367421118
 10
149.6025522117
 20
138.3903417585
  0
LWPOLYLINE
  5
E0
330
1F
100
AcDbEntity
  8
0
  6
SLD-Durchgehend
 62
     7
370
    15
100
AcDbPolyline
 90
       12
 70
   128
 43
0.0
 10
150.426705635
 20
139.0897836385
 10
150.3608462278
 20
138.9049794374
 10
150.2464127604
 20
138.6414840666
 10
150.1170781318
 20
138.408306971
 10
150.0425313477
 20
138.3017208276
 10
150.0037846033
 20
138.2547207025
 10
149.9597330455
 20
138.2089815883
 10
149.9207814102
 20
138.1762027589
 10
149.8841618065
 20
138.15302214
 10
149.8378825251
 20
138.1366699783
 10
149.7574423317
 20
138.1587311474
 10
149.6652153198
 20
138.3742168394
  0
LINE
  5
E1
330
1F
100
AcDbEntity
  8
0
  6
SLD-Durchgehend
 62
     7
370
    15
100
AcDbLine
 10
150.7425078068
 20
139.5596172509
 30
0.0
 11
150.426705635
 21
139.0897836385
 31
0.0
  0
LINE
  5
E2
330
1F
100
AcDbEntity
  8
0
  6
SLD-Durchgehend
 62
     7
370
    15
100
AcDbLine
 10
150.54146134
 20
98.2557423262
 30
0.0
 11
150.7425078068
 21
97.9048479197
 31
0.0
  0
LWPOLYLINE
  5
E3
330
1F
100
AcDbEntity
  8
0
  6
SLD-Durchgehend
 62
     7
370
    15
100
AcDbPolyline
 90
       12
 70
   128
 43
0.0
 10
149.6328313712
 20
99.1095769999
 10
149.717574275
 20
99.4351263938
 10
149.7686182026
 20
99.4811765698
 10
149.8356659774
 20
99.4868334232
 10
149.870154715
 20
99.4745660422
 10
149.9149364297
 20
99.4475465117
 10
149.9522936408
 20
99.4171108899
 10
149.9907535378
 20
99.3793997762
 10
150.0407096807
 20
99.3219110964
 10
150.1150254969
 20
99.2205627111
 10
150.2753508155
 20
98.9424828289
 10
150.54146134
 20
98.2557423262
  0
LWPOLYLINE
  5
E4
330
1F
100
AcDbEntity
  8
0
  6
SLD-Durchgehend
 62
     7
370
    15
100
AcDbPolyline
 90
        3
 70
   128
 43
0.0
 10
196.1106194992
 20
143.15835385
 10
196.4661034633
 20
142.3601042328
 10
197.5925520871
 20
139.7498082218
  0
LINE
  5
E5
330
1F
100
AcDbEntity
  8
0
  6
SLD-Durchgehend
 62
     7
370
    15
100
AcDbLine
 10
197.5925520871
 20
139.7498082218
 30
0.0
 11
197.5925520871
 21
138.835530713
 31
0.0
  0
ARC
  5
E6
330
1F
100
AcDbEntity
  8
0
  6
SLD-Durchgehend
 62
     7
370
    15
100
AcDbCircle
 10
206.8444452496
 20
148.5586772849
 30
0.0
 40
0.6082364232875819
100
AcDbArc
 50
358.8156305045
 51
89.2362522385
  0
ARC
  5
E7
330
1F
100
AcDbEntity
  8
0
  6
SLD-Durchgehend
 62
     7
370
    15
100
AcDbCircle
 10
206.7695235663
 20
142.4739909579
 30
0.0
 40
0.6893811813573116
100
AcDbArc
 50
352.2154757984
 51
83.0824936921
  0
LINE
  5
E8
330
1F
100
AcDbEntity
  8
0
  6
SLD-Durchgehend
 62
     7
370
    15
100
AcDbLine
 10
207.4525517289
 20
142.3806156812
 30
0.0
 11
207.4525517289
 21
148.5461052356
 31
0.0
  0
LWPOLYLINE
  5
E9
330
1F
100
AcDbEntity
  8
0
  6
SLD-Durchgehend
 62
     7
370
    15
100
AcDbPolyline
 90
        3
 70
   128
 43
0.0
 10
202.8944839601
 20
149.1668596713
 10
202.8864801739
 20
149.1525266168
 10
201.4125523035
 20
146.5048976091
  0
LINE
  5
EA
330
1F
100
AcDbEntity
  8
0
  6
SLD-Durchgehend
 62
     7
370
    15
100
AcDbLine
 10
202.8944839601
 20
143.15835385
 30
0.0
 11
202.8944839601
 21
149.1668596713
 31
0.0
  0
LWPOLYLINE
  5
EB
330
1F
100
AcDbEntity
  8
0
  6
SLD-Durchgehend
 62
     7
370
    15
100
AcDbPolyline
 90
        3
 70
   128
 43
0.0
 10
201.4125523035
 20
139.7498082218
 10
202.538999996
 20
142.3601042328
 10
202.8944839601
 20
143.15835385
  0
LINE
  5
EC
330
1F
100
AcDbEntity
  8
0
  6
SLD-Durchgehend
 62
     7
370
    15
100
AcDbLine
 10
201.4125523035
 20
139.7498082218
 30
0.0
 11
201.4125523035
 21
146.5048976091
 31
0.0
  0
LINE
  5
ED
330
1F
100
AcDbEntity
  8
0
  6
SLD-Durchgehend
 62
     7
370
    15
100
AcDbLine
 10
206.8525527481
 20
149.1668596713
 30
0.0
 11
202.8944839601
 21
149.1668596713
 31
0.0
  0
LINE
  5
EE
330
1F
100
AcDbEntity
  8
0
  6
SLD-Durchgehend
 62
     7
370
    15
100
AcDbLine
 10
202.8944839601
 20
143.15835385
 30
0.0
 11
206.8525527481
 21
143.15835385
 31
0.0
  0
LWPOLYLINE
  5
EF
330
1F
100
AcDbEntity
  8
0
  6
SLD-Durchgehend
 62
     7
370
    15
100
AcDbPolyline
 90
        3
 70
   128
 43
0.0
 10
197.5925520871
 20
146.5048976091
 10
196.1186232854
 20
149.1525266168
 10
196.1106194992
 20
149.1668596713
  0
LINE
  5
F0
330
1F
100
AcDbEntity
  8
0
  6
SLD-Durchgehend
 62
     7
370
    15
100
AcDbLine
 10
197.5925520871
 20
139.7498082218
 30
0.0
 11
197.5925520871
 21
146.5048976091
 31
0.0
  0
LINE
  5
F1
330
1F
100
AcDbEntity
  8
0
  6
SLD-Durchgehend
 62
     7
370
    15
100
AcDbLine
 10
201.4125523035
 20
138.835530713
 30
0.0
 11
201.4125523035
 21
139.7498082218
 31
0.0
  0
LINE
  5
F2
330
1F
100
AcDbEntity
  8
0
  6
SLD-Durchgehend
 62
     7
370
    15
100
AcDbLine
 10
207.4525517289
 20
142.3806156812
 30
0.0
 11
207.4525517289
 21
138.549664974
 31
0.0
  0
LINE
  5
F3
330
1F
100
AcDbEntity
  8
0
  6
SLD-Durchgehend
 62
     7
370
    15
100
AcDbLine
 10
150.7525511895
 20
97.8871639667
 30
0.0
 11
150.7525511895
 21
97.8930331615
 31
0.0
  0
LINE
  5
F4
330
1F
100
AcDbEntity
  8
0
  6
SLD-Durchgehend
 62
     7
370
    15
100
AcDbLine
 10
222.7352236275
 20
144.6980628965
 30
0.0
 11
223.1065121357
 21
144.7694208322
 31
0.0
  0
LINE
  5
F5
330
1F
100
AcDbEntity
  8
0
  6
SLD-Durchgehend
 62
     7
370
    15
100
AcDbLine
 10
223.1065121357
 20
92.6299076376
 30
0.0
 11
222.7352236275
 21
92.7012655733
 31
0.0
  0
LINE
  5
F6
330
1F
100
AcDbEntity
  8
0
  6
SLD-Durchgehend
 62
     7
370
    15
100
AcDbLine
 10
223.7705004279
 20
145.6979978678
 30
0.0
 11
223.7011504237
 21
145.4391628353
 31
0.0
  0
LINE
  5
F7
330
1F
100
AcDbEntity
  8
0
  6
SLD-Durchgehend
 62
     7
370
    15
100
AcDbLine
 10
223.7705004279
 20
145.6979978678
 30
0.0
 11
228.8036209409
 21
145.6979978678
 31
0.0
  0
LINE
  5
F8
330
1F
100
AcDbEntity
  8
0
  6
SLD-Durchgehend
 62
     7
370
    15
100
AcDbLine
 10
248.0615240399
 20
84.6197288332
 30
0.0
 11
228.8036209409
 21
145.6979978678
 31
0.0
  0
LINE
  5
F9
330
1F
100
AcDbEntity
  8
0
  6
SLD-Durchgehend
 62
     7
370
    15
100
AcDbLine
 10
236.9603005115
 20
88.0879033206
 30
0.0
 11
237.6899321441
 21
87.8578536061
 31
0.0
  0
ARC
  5
FA
330
1F
100
AcDbEntity
  8
0
  6
SLD-Durchgehend
 62
     7
370
    15
100
AcDbCircle
 10
236.5042981562
 20
86.6416471894
 30
0.0
 40
1.516442497159192
100
AcDbArc
 50
72.5
 51
252.5
  0
LINE
  5
FB
330
1F
100
AcDbEntity
  8
0
  6
SLD-Durchgehend
 62
     7
370
    15
100
AcDbLine
 10
238.2556994323
 20
84.4993982313
 30
0.0
 11
236.0482935671
 21
85.1953904925
 31
0.0
  0
LINE
  5
FC
330
1F
100
AcDbEntity
  8
0
  6
SLD-Durchgehend
 62
     7
370
    15
100
AcDbLine
 10
226.3993781869
 20
81.8897876737
 30
0.0
 11
240.4781219427
 21
77.4507764576
 31
0.0
  0
LINE
  5
FD
330
1F
100
AcDbEntity
  8
0
  6
SLD-Durchgehend
 62
     7
370
    15
100
AcDbLine
 10
223.7011504237
 20
91.9601656345
 30
0.0
 11
226.3993781869
 21
81.8897876737
 31
0.0
  0
ARC
  5
FE
330
1F
100
AcDbEntity
  8
0
  6
SLD-Durchgehend
 62
     7
370
    15
100
AcDbCircle
 10
222.7351858368
 20
145.6979565279
 30
0.0
 40
1.000030878763014
100
AcDbArc
 50
291.7967293194
 51
345.001977822
  0
ARC
  5
FF
330
1F
100
AcDbEntity
  8
0
  6
SLD-Durchgehend
 62
     7
370
    15
100
AcDbCircle
 10
222.7351950093
 20
91.7013800858
 30
0.0
 40
1.000019911259597
100
AcDbArc
 50
14.9977074727
 51
68.2035853858
  0
LINE
  5
100
330
1F
100
AcDbEntity
  8
0
  6
SLD-Durchgehend
 62
     7
370
    15
100
AcDbLine
 10
237.3943005566
 20
87.6716915367
 30
0.0
 11
236.8801806931
 21
87.8337938187
 31
0.0
  0
LINE
  5
101
330
1F
100
AcDbEntity
  8
0
  6
SLD-Durchgehend
 62
     7
370
    15
100
AcDbLine
 10
238.1578919355
 20
84.809610605
 30
0.0
 11
236.1284171109
 21
85.4494999943
 31
0.0
  0
ARC
  5
102
330
1F
100
AcDbEntity
  8
0
  6
SLD-Durchgehend
 62
     7
370
    15
100
AcDbCircle
 10
236.5042981562
 20
86.6416471894
 30
0.0
 40
1.250000000000004
100
AcDbArc
 50
72.5
 51
252.5
  0
LINE
  5
103
330
1F
100
AcDbEntity
  8
0
  6
SLD-Gestrichelt
 62
     7
370
     0
100
AcDbLine
 10
186.452552012
 20
87.1996637283
 30
0.0
 11
186.452552012
 21
87.2155409155
 31
0.0
  0
ARC
  5
104
330
1F
100
AcDbEntity
  8
0
  6
SLD-Gestrichelt
 62
     7
370
     0
100
AcDbCircle
 10
193.7198942076
 20
67.7141108404
 30
0.0
 40
20.81153616533802
100
AcDbArc
 50
87.9825180967
 51
110.4382555186
  0
LINE
  5
105
330
1F
100
AcDbEntity
  8
0
  6
SLD-Gestrichelt
 62
     7
370
     0
100
AcDbLine
 10
194.452552392
 20
88.5127466021
 30
0.0
 11
196.1106194992
 21
88.5127466021
 31
0.0
  0
LINE
  5
106
330
1F
100
AcDbEntity
  8
0
  6
SLD-Gestrichelt
 62
     7
370
     0
100
AcDbLine
 10
196.1106194992
 20
149.1668596713
 30
0.0
 11
196.1106194992
 21
88.5127466021
 31
0.0
  0
LINE
  5
107
330
1F
100
AcDbEntity
  8
0
  6
SLD-Gestrichelt
 62
     7
370
     0
100
AcDbLine
 10
194.452552392
 20
149.1668596713
 30
0.0
 11
196.1106194992
 21
149.1668596713
 31
0.0
  0
ARC
  5
108
330
1F
100
AcDbEntity
  8
0
  6
SLD-Gestrichelt
 62
     7
370
     0
100
AcDbCircle
 10
194.6124908374
 20
181.9028267523
 30
0.0
 40
32.73635778517227
100
AcDbArc
 50
255.616715589
 51
269.720071658
  0
CIRCLE
  5
109
330
1F
100
AcDbEntity
  8
0
  6
SLD-Gestrichelt
 62
     7
370
     0
100
AcDbCircle
 10
188.5020705165
 20
118.6997215863
 30
0.0
 40
4.99951838295561
  0
LINE
  5
10A
330
1F
100
AcDbEntity
  8
0
  6
SLD-Gestrichelt
 62
     7
370
     0
100
AcDbLine
 10
181.5025520388
 20
87.4996650813
 30
0.0
 11
181.5025520388
 21
149.8996633885
 31
0.0
  0
ARC
  5
10B
330
1F
100
AcDbEntity
  8
0
  6
SLD-Gestrichelt
 62
     7
370
     0
100
AcDbCircle
 10
198.4726837909
 20
91.8966808732
 30
0.0
 40
0.8801328359032804
100
AcDbArc
 50
152.7504659068
 51
180.0918976009
  0
LINE
  5
10C
330
1F
100
AcDbEntity
  8
0
  6
SLD-Gestrichelt
 62
     7
370
     0
100
AcDbLine
 10
197.5925520871
 20
138.549664974
 30
0.0
 11
197.6186998997
 21
138.549664974
 31
0.0
  0
LINE
  5
10D
330
1F
100
AcDbEntity
  8
0
  6
SLD-Gestrichelt
 62
     7
370
     0
100
AcDbLine
 10
197.5925520871
 20
138.835530713
 30
0.0
 11
197.5925520871
 21
145.8193175343
 31
0.0
  0
LINE
  5
10E
330
1F
100
AcDbEntity
  8
0
  6
SLD-Gestrichelt
 62
     7
370
     0
100
AcDbLine
 10
197.5925520871
 20
91.8952692149
 30
0.0
 11
197.5925520871
 21
138.549664974
 31
0.0
  0
ARC
  5
10F
330
1F
100
AcDbEntity
  8
0
  6
SLD-Gestrichelt
 62
     7
370
     0
100
AcDbCircle
 10
200.5284312214
 20
91.895717302
 30
0.0
 40
0.8841211956749518
100
AcDbArc
 50
359.9709615589
 51
27.1866749334
  0
LINE
  5
110
330
1F
100
AcDbEntity
  8
0
  6
SLD-Gestrichelt
 62
     7
370
     0
100
AcDbLine
 10
201.4125523035
 20
138.835530713
 30
0.0
 11
201.4125523035
 21
145.8193175343
 31
0.0
  0
LINE
  5
111
330
1F
100
AcDbEntity
  8
0
  6
SLD-Gestrichelt
 62
     7
370
     0
100
AcDbLine
 10
201.3864044909
 20
138.549664974
 30
0.0
 11
201.4125523035
 21
138.549664974
 31
0.0
  0
LINE
  5
112
330
1F
100
AcDbEntity
  8
0
  6
SLD-Gestrichelt
 62
     7
370
     0
100
AcDbLine
 10
201.4125523035
 20
91.8952692149
 30
0.0
 11
201.4125523035
 21
138.549664974
 31
0.0
  0
LINE
  5
113
330
1F
100
AcDbEntity
  8
0
  6
SLD-Gestrichelt
 62
     7
370
     0
100
AcDbLine
 10
207.4525517289
 20
145.0996640918
 30
0.0
 11
207.6525513892
 21
145.0996640918
 31
0.0
  0
LINE
  5
114
330
1F
100
AcDbEntity
  8
0
  6
SLD-Gestrichelt
 62
     7
370
     0
100
AcDbLine
 10
207.6097552542
 20
145.0996640918
 30
0.0
 11
207.4525517289
 21
145.0996640918
 31
0.0
  0
LINE
  5
115
330
1F
100
AcDbEntity
  8
0
  6
SLD-Gestrichelt
 62
     7
370
     0
100
AcDbLine
 10
207.4525517289
 20
145.0996640918
 30
0.0
 11
207.4525517289
 21
92.2996643779
 31
0.0
  0
LINE
  5
116
330
1F
100
AcDbEntity
  8
0
  6
SLD-Gestrichelt
 62
     7
370
     0
100
AcDbLine
 10
207.4525517289
 20
92.2996643779
 30
0.0
 11
207.6525513892
 21
92.2996643779
 31
0.0
  0
LINE
  5
117
330
1F
100
AcDbEntity
  8
0
  6
SLD-Gestrichelt
 62
     7
370
     0
100
AcDbLine
 10
207.4525517289
 20
92.2996643779
 30
0.0
 11
207.4525517289
 21
145.0996640918
 31
0.0
  0
LWPOLYLINE
  5
118
330
1F
100
AcDbEntity
  8
0
  6
SLD-Gestrichelt
 62
     7
370
     0
100
AcDbPolyline
 90
       20
 70
   128
 43
0.0
 10
208.5025527392
 20
139.9976182578
 10
208.670362166
 20
140.5496280489
 10
209.1542941396
 20
141.0135030595
 10
209.9035021726
 20
141.3517948089
 10
210.8360876207
 20
141.5401398984
 10
211.8403811817
 20
141.5669601259
 10
212.8018786077
 20
141.4330880938
 10
213.6198704008
 20
141.1453727482
 10
214.2042529647
 20
140.7188381848
 10
214.4838360016
 20
140.1877589373
 10
214.4273307983
 20
139.607682809
 10
214.0452985529
 20
139.0445250867
 10
213.377707905
 20
138.5678835062
 10
212.4951307539
 20
138.2471676765
 10
211.5016219084
 20
138.1346359698
 10
210.5138816748
 20
138.2462605683
 10
209.6373543952
 20
138.5627407429
 10
208.9654498611
 20
139.03892225
 10
208.578025258
 20
139.6070308832
 10
208.5025527392
 20
139.9976182578
  0
LINE
  5
119
330
1F
100
AcDbEntity
  8
0
  6
SLD-Gestrichelt
 62
     7
370
     0
100
AcDbLine
 10
181.5025520388
 20
93.3757405577
 30
0.0
 11
181.5025520388
 21
144.0054494736
 31
0.0
  0
LINE
  5
11A
330
1F
100
AcDbEntity
  8
0
  6
SLD-Gestrichelt
 62
     7
370
     0
100
AcDbLine
 10
186.452552012
 20
138.549664974
 30
0.0
 11
193.6981727247
 21
138.549664974
 31
0.0
  0
ARC
  5
11B
330
1F
100
AcDbEntity
  8
0
  6
SLD-Gestrichelt
 62
     7
370
     0
100
AcDbCircle
 10
151.238856329
 20
127.4448790746
 30
0.0
 40
29.55584696060028
100
AcDbArc
 50
269.0572258187
 51
276.1182671045
  0
LWPOLYLINE
  5
11C
330
1F
100
AcDbEntity
  8
0
  6
SLD-Gestrichelt
 62
     7
370
     0
100
AcDbPolyline
 90
        3
 70
   128
 43
0.0
 10
154.3889504735
 20
98.0573817936
 10
155.0974690233
 20
98.1667432783
 10
158.3025523339
 20
98.5535755602
  0
LWPOLYLINE
  5
11D
330
1F
100
AcDbEntity
  8
0
  6
SLD-Gestrichelt
 62
     7
370
     0
100
AcDbPolyline
 90
        7
 70
   128
 43
0.0
 10
158.3025523339
 20
98.5535755602
 10
158.3823089365
 20
98.5550489125
 10
158.4611081396
 20
98.5431726871
 10
158.5559279535
 20
98.510833442
 10
158.6845119361
 20
98.4331369249
 10
158.9202483062
 20
98.1650464085
 10
159.0809480165
 20
97.8352930246
  0
LWPOLYLINE
  5
11E
330
1F
100
AcDbEntity
  8
0
  6
SLD-Gestrichelt
 62
     7
370
     0
100
AcDbPolyline
 90
        5
 70
   128
 43
0.0
 10
159.0809480165
 20
97.8352930246
 10
159.1357917402
 20
97.7211519925
 10
159.4262805645
 20
97.322417408
 10
159.6567102585
 20
96.9556141493
 10
159.7025518183
 20
96.7545155285
  0
LINE
  5
11F
330
1F
100
AcDbEntity
  8
0
  6
SLD-Gestrichelt
 62
     7
370
     0
100
AcDbLine
 10
159.7025518183
 20
96.7545155285
 30
0.0
 11
159.7025518183
 21
95.4712182132
 31
0.0
  0
LINE
  5
120
330
1F
100
AcDbEntity
  8
0
  6
SLD-Gestrichelt
 62
     7
370
     0
100
AcDbLine
 10
155.7025511627
 20
141.7277101276
 30
0.0
 11
155.7025511627
 21
140.5437718926
 31
0.0
  0
ARC
  5
121
330
1F
100
AcDbEntity
  8
0
  6
SLD-Gestrichelt
 62
     7
370
     0
100
AcDbCircle
 10
154.2446272806
 20
141.0725101224
 30
0.0
 40
1.550840469419331
100
AcDbArc
 50
272.1405139456
 51
340.0660547734
  0
LINE
  5
122
330
1F
100
AcDbEntity
  8
0
  6
SLD-Gestrichelt
 62
     7
370
     0
100
AcDbLine
 10
154.3025516782
 20
139.5227517781
 30
0.0
 11
150.7525511895
 21
139.5696028916
 31
0.0
  0
LINE
  5
123
330
1F
100
AcDbEntity
  8
0
  6
SLD-Gestrichelt
 62
     7
370
     0
100
AcDbLine
 10
150.7525511895
 20
139.5696028916
 30
0.0
 11
150.7425078068
 21
139.5596172509
 31
0.0
  0
LINE
  5
124
330
1F
100
AcDbEntity
  8
0
  6
SLD-Gestrichelt
 62
     7
370
     0
100
AcDbLine
 10
150.7425078068
 20
97.9048479197
 30
0.0
 11
150.7525511895
 21
97.8930331615
 31
0.0
  0
LINE
  5
125
330
1F
100
AcDbEntity
  8
0
  6
SLD-Gestrichelt
 62
     7
370
     0
100
AcDbLine
 10
179.5025519438
 20
142.9200954584
 30
0.0
 11
179.5025519438
 21
94.4792330114
 31
0.0
  0
ARC
  5
126
330
1F
100
AcDbEntity
  8
0
  6
SLD-Gestrichelt
 62
     7
370
     0
100
AcDbCircle
 10
171.9836664666
 20
66.5158434466
 30
0.0
 40
28.7668385746051
100
AcDbArc
 50
94.9575529144
 51
97.4143934236
  0
LWPOLYLINE
  5
127
330
1F
100
AcDbEntity
  8
0
  6
SLD-Gestrichelt
 62
     7
370
     0
100
AcDbPolyline
 90
       14
 70
   128
 43
0.0
 10
176.6856185038
 20
94.6206059156
 10
176.6869563487
 20
94.6203004418
 10
176.6026604798
 20
94.6394335327
 10
176.3563508045
 20
94.694007173
 10
175.9656661068
 20
94.7766974417
 10
175.4453827504
 20
94.8763750342
 10
174.8120861937
 20
94.9817225186
 10
174.0828676027
 20
95.0813833473
 10
173.2902902056
 20
95.1644554583
 10
172.4759259139
 20
95.2208135126
 10
171.6594670777
 20
95.2473971841
 10
170.8646540407
 20
95.2444188146
 10
170.1313380961
 20
95.2177159337
 10
169.4977025379
 20
95.1750650851
  0
LWPOLYLINE
  5
128
330
1F
100
AcDbEntity
  8
0
  6
SLD-Gestrichelt
 62
     7
370
     0
100
AcDbPolyline
 90
       14
 70
   128
 43
0.0
 10
169.4976094056
 20
142.2242466209
 10
170.1326596428
 20
142.1817280201
 10
170.8661571954
 20
142.155073568
 10
171.6612850193
 20
142.1520914731
 10
172.4792647053
 20
142.1786621062
 10
173.2931484346
 20
142.2349978087
 10
174.0870413248
 20
142.3183716682
 10
174.8147032101
 20
142.4179859308
 10
175.447845633
 20
142.523376256
 10
175.9669606451
 20
142.6228191552
 10
176.3571382378
 20
142.7053846268
 10
176.6029566404
 20
142.7598725853
 10
176.6870648478
 20
142.779033616
 10
176.6855640214
 20
142.7786927519
  0
ARC
  5
129
330
1F
100
AcDbEntity
  8
0
  6
SLD-Gestrichelt
 62
     7
370
     0
100
AcDbCircle
 10
171.6318851213
 20
167.6374023601
 30
0.0
 40
25.50261981554754
100
AcDbArc
 50
262.427316406
 51
265.1993879062
  0
LINE
  5
12A
330
1F
100
AcDbEntity
  8
0
  6
SLD-Gestrichelt
 62
     7
370
     0
100
AcDbLine
 10
149.6025522117
 20
99.0465041099
 30
0.0
 11
149.6090714697
 21
99.0488454548
 31
0.0
  0
ARC
  5
12B
330
1F
100
AcDbEntity
  8
0
  6
SLD-Gestrichelt
 62
     7
370
     0
100
AcDbCircle
 10
172.4977868744
 20
79.0239991622
 30
0.0
 40
20.02917819093253
100
AcDbArc
 50
82.0801706333
 51
100.7665046695
  0
ARC
  5
12C
330
1F
100
AcDbEntity
  8
0
  6
SLD-Gestrichelt
 62
     7
370
     0
100
AcDbCircle
 10
172.4977868744
 20
158.3753293076
 30
0.0
 40
20.02917819093253
100
AcDbArc
 50
259.2334953305
 51
277.9198293667
  0
LWPOLYLINE
  5
12D
330
1F
100
AcDbEntity
  8
0
  6
SLD-Gestrichelt
 62
     7
370
     0
100
AcDbPolyline
 90
        7
 70
   128
 43
0.0
 10
175.2575540793
 20
138.5371927021
 10
175.9389948909
 20
138.6140920071
 10
176.2412980076
 20
138.636836767
 10
176.2148521718
 20
138.6350374518
 10
176.1278331157
 20
138.6291235534
 10
175.60813463
 20
138.5811827926
 10
175.2575540793
 20
138.5371927021
  0
LWPOLYLINE
  5
12E
330
1F
100
AcDbEntity
  8
0
  6
SLD-Gestrichelt
 62
     7
370
     0
100
AcDbPolyline
 90
        7
 70
   128
 43
0.0
 10
175.2575540793
 20
98.8621357677
 10
175.9389948909
 20
98.7852364627
 10
176.2412980076
 20
98.7624917028
 10
176.2148293544
 20
98.764291018
 10
176.1278331157
 20
98.7702049164
 10
175.60813463
 20
98.8181456772
 10
175.2575540793
 20
98.8621357677
  0
LINE
  5
12F
330
1F
100
AcDbEntity
  8
0
  6
SLD-Gestrichelt
 62
     7
370
     0
100
AcDbLine
 10
181.5025520388
 20
101.699663311
 30
0.0
 11
181.5025520388
 21
135.6996651588
 31
0.0
  0
LINE
  5
130
330
1F
100
AcDbEntity
  8
0
  6
SLD-Gestrichelt
 62
     7
370
     0
100
AcDbLine
 10
193.6981727247
 20
138.549664974
 30
0.0
 11
197.6186998997
 21
138.549664974
 31
0.0
  0
LINE
  5
131
330
1F
100
AcDbEntity
  8
0
  6
SLD-Gestrichelt
 62
     7
370
     0
100
AcDbLine
 10
201.3864044909
 20
138.549664974
 30
0.0
 11
207.4525517289
 21
138.549664974
 31
0.0
  0
LINE
  5
132
330
1F
100
AcDbEntity
  8
0
  6
SLD-Gestrichelt
 62
     7
370
     0
100
AcDbLine
 10
162.5065275345
 20
135.6996651588
 30
0.0
 11
162.5065275345
 21
101.699663311
 31
0.0
  0
LINE
  5
133
330
1F
100
AcDbEntity
  8
0
  6
SLD-Gestrichelt
 62
     7
370
     0
100
AcDbLine
 10
149.6025522117
 20
102.6697289047
 30
0.0
 11
149.6025522117
 21
134.729599565
 31
0.0
  0
LINE
  5
134
330
1F
100
AcDbEntity
  8
0
  6
SLD-Gestrichelt
 62
     7
370
     0
100
AcDbLine
 10
189.1623780009
 20
135.6996651588
 30
0.0
 11
189.1623780009
 21
101.699663311
 31
0.0
  0
LINE
  5
135
330
1F
100
AcDbEntity
  8
0
  6
SLD-Gestrichelt
 62
     7
370
     0
100
AcDbLine
 10
191.4525519003
 20
134.424664065
 30
0.0
 11
191.4525519003
 21
102.9746644048
 31
0.0
  0
LINE
  5
136
330
1F
100
AcDbEntity
  8
0
  6
SLD-Gestrichelt
 62
     7
370
     0
100
AcDbLine
 10
150.7525511895
 20
102.8981730191
 30
0.0
 11
158.3025523339
 21
102.8981730191
 31
0.0
  0
LINE
  5
137
330
1F
100
AcDbEntity
  8
0
  6
SLD-Gestrichelt
 62
     7
370
     0
100
AcDbLine
 10
150.7525511895
 20
134.5011554507
 30
0.0
 11
150.7525511895
 21
102.8981730191
 31
0.0
  0
LINE
  5
138
330
1F
100
AcDbEntity
  8
0
  6
SLD-Gestrichelt
 62
     7
370
     0
100
AcDbLine
 10
154.3025516782
 20
134.5011554507
 30
0.0
 11
150.7525511895
 21
134.5011554507
 31
0.0
  0
LWPOLYLINE
  5
139
330
1F
100
AcDbEntity
  8
0
  6
SLD-Gestrichelt
 62
     7
370
     0
100
AcDbPolyline
 90
        6
 70
   128
 43
0.0
 10
155.7025511627
 20
134.9871773122
 10
155.6164261762
 20
134.8347328452
 10
155.3675860975
 20
134.6873733995
 10
154.9839240376
 20
134.5702446846
 10
154.5314912562
 20
134.5086190698
 10
154.3025516782
 20
134.5011554507
  0
LINE
  5
13A
330
1F
100
AcDbEntity
  8
0
  6
SLD-Gestrichelt
 62
     7
370
     0
100
AcDbLine
 10
155.7025511627
 20
134.9871773122
 30
0.0
 11
155.7025511627
 21
135.6996651588
 31
0.0
  0
LWPOLYLINE
  5
13B
330
1F
100
AcDbEntity
  8
0
  6
SLD-Gestrichelt
 62
     7
370
     0
100
AcDbPolyline
 90
        6
 70
   128
 43
0.0
 10
155.7025511627
 20
134.9871773122
 10
155.6164261762
 20
134.8347328452
 10
155.3675860975
 20
134.6873733995
 10
154.9839240376
 20
134.5702446846
 10
154.5314912562
 20
134.5086190698
 10
154.3025516782
 20
134.5011554507
  0
LWPOLYLINE
  5
13C
330
1F
100
AcDbEntity
  8
0
  6
SLD-Gestrichelt
 62
     7
370
     0
100
AcDbPolyline
 90
        6
 70
   128
 43
0.0
 10
158.3025523339
 20
102.8981730191
 10
158.7431461428
 20
102.8701308963
 10
159.1336832259
 20
102.7924064396
 10
159.4462835107
 20
102.675706133
 10
159.6490193967
 20
102.5317516027
 10
159.7025518183
 20
102.4121511576
  0
LINE
  5
13D
330
1F
100
AcDbEntity
  8
0
  6
SLD-Gestrichelt
 62
     7
370
     0
100
AcDbLine
 10
159.7025518183
 20
102.4121511576
 30
0.0
 11
159.7025518183
 21
101.699663311
 31
0.0
  0
LWPOLYLINE
  5
13E
330
1F
100
AcDbEntity
  8
0
  6
SLD-Gestrichelt
 62
     7
370
     0
100
AcDbPolyline
 90
        6
 70
   128
 43
0.0
 10
158.3025523339
 20
102.8981730191
 10
158.7431461428
 20
102.8701308963
 10
159.1336832259
 20
102.7924064396
 10
159.4462835107
 20
102.675706133
 10
159.6490193967
 20
102.5317516027
 10
159.7025518183
 20
102.4121511576
  0
LINE
  5
13F
330
1F
100
AcDbEntity
  8
0
  6
SLD-Gestrichelt
 62
     7
370
     0
100
AcDbLine
 10
150.7525511895
 20
102.8981730191
 30
0.0
 11
150.7525511895
 21
134.5011554507
 31
0.0
  0
LWPOLYLINE
  5
140
330
1F
100
AcDbEntity
  8
0
  6
SLD-Gestrichelt
 62
     7
370
     0
100
AcDbPolyline
 90
       12
 70
   128
 43
0.0
 10
211.6025511984
 20
114.5010953618
 10
210.8709656511
 20
114.4996816141
 10
210.2141280536
 20
114.5116495749
 10
209.6204657916
 20
114.5904408617
 10
209.162627614
 20
114.8307637626
 10
209.0028778527
 20
115.2362339047
 10
209.1017414693
 20
115.7068679889
 10
209.39709366
 20
116.2144027033
 10
209.9097345833
 20
116.7478952406
 10
210.6722698424
 20
117.2052199103
 10
211.3605433021
 20
117.3642814241
 10
211.6025511984
 20
117.3666821409
  0
LWPOLYLINE
  5
141
330
1F
100
AcDbEntity
  8
0
  6
SLD-Gestrichelt
 62
     7
370
     0
100
AcDbPolyline
 90
        7
 70
   128
 43
0.0
 10
211.6025511984
 20
120.0326463289
 10
212.3743736063
 20
118.7769287129
 10
212.7735105221
 20
118.0040141184
 10
212.8668811981
 20
117.4476701848
 10
212.7399531071
 20
116.8172617757
 10
212.2275208
 20
115.6158440129
 10
211.6025511984
 20
114.5010953618
  0
LWPOLYLINE
  5
142
330
1F
100
AcDbEntity
  8
0
  6
SLD-Gestrichelt
 62
     7
370
     0
100
AcDbPolyline
 90
       12
 70
   128
 43
0.0
 10
211.6025511984
 20
122.898233108
 10
210.8709656511
 20
122.8996468557
 10
210.2141280536
 20
122.8876788949
 10
209.6204657916
 20
122.8088876081
 10
209.162627614
 20
122.5685647072
 10
209.0028778527
 20
122.163094565
 10
209.1017414693
 20
121.6924604809
 10
209.39709366
 20
121.1849257664
 10
209.9097345833
 20
120.6514332292
 10
210.6722698424
 20
120.1941085595
 10
211.3605433021
 20
120.0350470457
 10
211.6025511984
 20
120.0326463289
  0
LWPOLYLINE
  5
143
330
1F
100
AcDbEntity
  8
0
  6
SLD-Gestrichelt
 62
     7
370
     0
100
AcDbPolyline
 90
        7
 70
   128
 43
0.0
 10
211.6025511984
 20
117.3666821409
 10
212.3743736063
 20
118.6223997569
 10
212.7735105221
 20
119.3953143514
 10
212.8668811981
 20
119.951658285
 10
212.7399531071
 20
120.5820666941
 10
212.2275208
 20
121.7834844568
 10
211.6025511984
 20
122.898233108
  0
LWPOLYLINE
  5
144
330
1F
100
AcDbEntity
  8
0
  6
SLD-Gestrichelt
 62
     7
370
     0
100
AcDbPolyline
 90
       27
 70
   128
 43
0.0
 10
211.5025513683
 20
132.5835138408
 10
212.1008404408
 20
132.6251812128
 10
212.6643595163
 20
132.7477628214
 10
213.1603595678
 20
132.9441349802
 10
213.5600124363
 20
133.2028833998
 10
213.8400909368
 20
133.5089728085
 10
213.9843230013
 20
133.8446121512
 10
213.9843230013
 20
134.1902976704
 10
213.8400909368
 20
134.5259379444
 10
213.5600124363
 20
134.8320264218
 10
213.1603595678
 20
135.0907757727
 10
212.6643595163
 20
135.2871470002
 10
212.1008404408
 20
135.4097276775
 10
211.5025513683
 20
135.4513969121
 10
210.9042622958
 20
135.4097276775
 10
210.3407432203
 20
135.2871470002
 10
209.8447450314
 20
135.0907757727
 10
209.4450921629
 20
134.8320264218
 10
209.1650117997
 20
134.5259379444
 10
209.0207797353
 20
134.1902976704
 10
209.0207797353
 20
133.8446121512
 10
209.1650117997
 20
133.5089728085
 10
209.4450921629
 20
133.2028833998
 10
209.8447450314
 20
132.9441349802
 10
210.3407432203
 20
132.7477628214
 10
210.9042622958
 20
132.6251812128
 10
211.5025513683
 20
132.5835138408
  0
LWPOLYLINE
  5
145
330
1F
100
AcDbEntity
  8
0
  6
SLD-Gestrichelt
 62
     7
370
     0
100
AcDbPolyline
 90
       22
 70
   128
 43
0.0
 10
213.9926900033
 20
118.5626912041
 10
213.9928948943
 20
118.5995921472
 10
213.9945153956
 20
118.6575745882
 10
213.9973279898
 20
118.7225558746
 10
214.0003492002
 20
118.7878847771
 10
214.002323604
 20
118.846838231
 10
214.0022528235
 20
118.8655819564
 10
214.002155966
 20
118.8902843418
 10
213.9997196261
 20
118.9100993646
 10
213.9962029521
 20
118.9023764595
 10
213.9934574131
 20
118.8695985905
 10
213.9926751022
 20
118.8199319653
 10
213.9938448433
 20
118.7611375857
 10
213.996381766
 20
118.697228292
 10
213.9994588558
 20
118.6314588552
 10
214.0018989209
 20
118.5696025926
 10
214.0024726157
 20
118.5203416238
 10
214.0006695751
 20
118.4925138654
 10
213.9995296363
 20
118.4922075039
 10
213.9972981874
 20
118.4916076448
 10
213.9941316907
 20
118.5172859253
 10
213.9926900033
 20
118.5626912041
  0
LINE
  5
146
330
1F
100
AcDbEntity
  8
0
  6
SLD-Gestrichelt
 62
     7
370
     0
100
AcDbLine
 10
209.7492621158
 20
103.5048449261
 30
0.0
 11
209.6998237882
 21
103.3960580675
 31
0.0
  0
LWPOLYLINE
  5
147
330
1F
100
AcDbEntity
  8
0
  6
SLD-Gestrichelt
 62
     7
370
     0
100
AcDbPolyline
 90
        3
 70
   128
 43
0.0
 10
212.0976720814
 20
105.2903365193
 10
212.4372602318
 20
106.0370225308
 10
212.6421083574
 20
106.3096746651
  0
LWPOLYLINE
  5
148
330
1F
100
AcDbEntity
  8
0
  6
SLD-Gestrichelt
 62
     7
370
     0
100
AcDbPolyline
 90
       19
 70
   128
 43
0.0
 10
212.6421083574
 20
106.3096746651
 10
212.8119033639
 20
106.1398861779
 10
212.9566942219
 20
106.0355165822
 10
213.102435029
 20
105.9710252879
 10
213.3370128338
 20
105.9232186375
 10
213.7498569552
 20
105.8691646753
 10
213.9910657768
 20
105.7099960593
 10
213.9471669559
 20
105.4626051185
 10
213.6583675508
 20
105.1106527296
 10
213.2110942964
 20
104.7377409262
 10
212.6566425775
 20
104.359852135
 10
211.9972177659
 20
103.9710696635
 10
211.2471678172
 20
103.5708375124
 10
210.9144472395
 20
103.3849781228
 10
210.6454347138
 20
103.1613116933
 10
210.5871171568
 20
103.0163559911
 10
210.5972369079
 20
102.8487030265
 10
210.7843973551
 20
102.4117991177
 10
211.2717305188
 20
101.7079595325
  0
LWPOLYLINE
  5
149
330
1F
100
AcDbEntity
  8
0
  6
SLD-Gestrichelt
 62
     7
370
     0
100
AcDbPolyline
 90
        7
 70
   128
 43
0.0
 10
213.5935363237
 20
103.9217598585
 10
213.3564774756
 20
104.5077759621
 10
213.0361919169
 20
105.0482522545
 10
212.8750991885
 20
105.2196910454
 10
212.7259553288
 20
105.309287071
 10
212.5661832158
 20
105.3474470822
 10
212.0976720814
 20
105.2903365193
  0
LWPOLYLINE
  5
14A
330
1F
100
AcDbEntity
  8
0
  6
SLD-Gestrichelt
 62
     7
370
     0
100
AcDbPolyline
 90
       17
 70
   128
 43
0.0
 10
213.5935363237
 20
103.9217598585
 10
213.1849129562
 20
104.1964506579
 10
212.669610313
 20
104.4038822723
 10
212.0803010527
 20
104.5308997703
 10
211.4543554251
 20
104.5694500057
 10
210.8314645354
 20
104.5170882566
 10
210.2511313621
 20
104.3771337567
 10
209.7501505975
 20
104.1584629414
 10
209.3602952425
 20
103.87494041
 10
209.1062844608
 20
103.5445472074
 10
209.0042245452
 20
103.1882315723
 10
209.06059005
 20
102.8285901842
 10
209.2718065594
 20
102.4884283391
 10
209.6244779293
 20
102.1893154679
 10
210.0962412421
 20
101.9502207486
 10
210.6571824167
 20
101.7863042501
 10
211.2717305188
 20
101.7079595325
  0
ARC
  5
14B
330
1F
100
AcDbEntity
  8
0
  6
SLD-Gestrichelt
 62
     7
370
     0
100
AcDbCircle
 10
207.4330241922
 20
108.43682338
 30
0.0
 40
5.626661487489582
100
AcDbArc
 50
325.998800125
 51
337.7871698912
  0
LWPOLYLINE
  5
14C
330
1F
100
AcDbEntity
  8
0
  6
SLD-Gestrichelt
 62
     7
370
     0
100
AcDbPolyline
 90
       14
 70
   128
 43
0.0
 10
211.2717305188
 20
101.7079595325
 10
210.8917117928
 20
101.8207464216
 10
210.8747673098
 20
101.8633842317
 10
210.9878298704
 20
101.879550129
 10
211.2557471607
 20
101.8614843337
 10
211.6309602622
 20
101.8742062
 10
211.8221235339
 20
101.955950245
 10
211.9522404734
 20
102.1202374098
 10
212.0291043882
 20
102.4331524817
 10
212.1172913228
 20
102.9650587437
 10
212.2516010765
 20
103.2296046463
 10
212.4709498946
 20
103.4487970022
 10
212.8709231381
 20
103.6798860727
 10
213.5935363237
 20
103.9217598585
  0
LINE
  5
14D
330
1F
100
AcDbEntity
  8
0
  6
SLD-Gestrichelt
 62
     7
370
     0
100
AcDbLine
 10
150.7525511895
 20
100.7096636889
 30
0.0
 11
150.7525511895
 21
97.8871639667
 31
0.0
  0
LINE
  5
14E
330
1F
100
AcDbEntity
  8
0
  6
SLD-Gestrichelt
 62
     7
370
     0
100
AcDbLine
 10
159.7025518183
 20
100.7096636889
 30
0.0
 11
159.7025518183
 21
96.7545155285
 31
0.0
  0
LINE
  5
14F
330
1F
100
AcDbEntity
  8
0
  6
SLD-Gestrichelt
 62
     7
370
     0
100
AcDbLine
 10
150.7525511895
 20
136.6896647809
 30
0.0
 11
150.7525511895
 21
139.5696028916
 31
0.0
  0
LINE
  5
150
330
1F
100
AcDbEntity
  8
0
  6
SLD-Gestrichelt
 62
     7
370
     0
100
AcDbLine
 10
149.6025522117
 20
136.6896647809
 30
0.0
 11
149.6025522117
 21
138.3903417585
 31
0.0
  0
LINE
  5
151
330
1F
100
AcDbEntity
  8
0
  6
SLD-Gestrichelt
 62
     7
370
     0
100
AcDbLine
 10
149.6025522117
 20
100.7096636889
 30
0.0
 11
149.6025522117
 21
99.0465041099
 31
0.0
  0
LINE
  5
152
330
1F
100
AcDbEntity
  8
0
  6
SLD-Gestrichelt
 62
     7
370
     0
100
AcDbLine
 10
155.7025511627
 20
136.6896647809
 30
0.0
 11
155.7025511627
 21
140.5437718926
 31
0.0
  0
LINE
  5
153
330
1F
100
AcDbEntity
  8
0
  6
SLD-Gestrichelt
 62
     7
370
     0
100
AcDbLine
 10
200.8025527809
 20
128.1996639294
 30
0.0
 11
200.8025527809
 21
109.1996645404
 31
0.0
  0
LINE
  5
154
330
1F
100
AcDbEntity
  8
0
  6
SLD-Gestrichelt
 62
     7
370
     0
100
AcDbLine
 10
203.3025522594
 20
128.1996639294
 30
0.0
 11
203.3025522594
 21
109.1996645404
 31
0.0
  0
LINE
  5
155
330
1F
100
AcDbEntity
  8
0
  6
SLD-Gestrichelt
 62
     7
370
     0
100
AcDbLine
 10
191.9525519822
 20
127.1996646968
 30
0.0
 11
191.9525519822
 21
110.199663773
 31
0.0
  0
LINE
  5
156
330
1F
100
AcDbEntity
  8
0
  6
SLD-Gestrichelt
 62
     7
370
     0
100
AcDbLine
 10
191.4525519003
 20
109.6996646223
 30
0.0
 11
191.4525519003
 21
127.6811724377
 31
0.0
  0
LINE
  5
157
330
1F
100
AcDbEntity
  8
0
  6
SLD-Gestrichelt
 62
     7
370
     0
100
AcDbLine
 10
207.4525517289
 20
92.2996643779
 30
0.0
 11
201.3148770545
 21
92.2996643779
 31
0.0
  0
LINE
  5
158
330
1F
100
AcDbEntity
  8
0
  6
SLD-Gestrichelt
 62
     7
370
     0
100
AcDbLine
 10
201.4125523035
 20
91.2018269149
 30
0.0
 11
201.4125523035
 21
91.8952692149
 31
0.0
  0
LINE
  5
159
330
1F
100
AcDbEntity
  8
0
  6
SLD-Gestrichelt
 62
     7
370
     0
100
AcDbLine
 10
207.4525517289
 20
92.2996643779
 30
0.0
 11
207.4525517289
 21
89.1393869964
 31
0.0
  0
LINE
  5
15A
330
1F
100
AcDbEntity
  8
0
  6
SLD-Gestrichelt
 62
     7
370
     0
100
AcDbLine
 10
197.6902273361
 20
92.2996643779
 30
0.0
 11
194.452552392
 21
92.2996643779
 31
0.0
  0
LINE
  5
15B
330
1F
100
AcDbEntity
  8
0
  6
SLD-Gestrichelt
 62
     7
370
     0
100
AcDbLine
 10
197.5925520871
 20
91.8952692149
 30
0.0
 11
197.5925520871
 21
91.2018269149
 31
0.0
  0
LINE
  5
15C
330
1F
100
AcDbEntity
  8
0
  6
SLD-Gestrichelt
 62
     7
370
     0
100
AcDbLine
 10
186.452552012
 20
87.2155409155
 30
0.0
 11
186.452552012
 21
92.2996643779
 31
0.0
  0
LINE
  5
15D
330
1F
100
AcDbEntity
  8
0
  6
SLD-Gestrichelt
 62
     7
370
     0
100
AcDbLine
 10
194.452552392
 20
92.2996643779
 30
0.0
 11
186.452552012
 21
92.2996643779
 31
0.0
  0
ARC
  5
15E
330
1F
100
AcDbEntity
  8
0
  6
SLD-Gestrichelt
 62
     7
370
     0
100
AcDbCircle
 10
213.0310593073
 20
101.9478008945
 30
0.0
 40
3.632434297076891
100
AcDbArc
 50
154.6180650964
 51
156.5029690367
  0
LINE
  5
15F
330
1F
100
AcDbEntity
  8
0
  6
SLD-Gestrichelt
 62
     7
370
     0
100
AcDbLine
 10
200.8025527809
 20
110.199663773
 30
0.0
 11
200.8025527809
 21
127.1996646968
 31
0.0
  0
LINE
  5
160
330
1F
100
AcDbEntity
  8
0
  6
SLD-Gestrichelt
 62
     7
370
     0
100
AcDbLine
 10
197.9868498508
 20
145.0996640918
 30
0.0
 11
194.452552392
 21
145.0996640918
 31
0.0
  0
LINE
  5
161
330
1F
100
AcDbEntity
  8
0
  6
SLD-Gestrichelt
 62
     7
370
     0
100
AcDbLine
 10
197.5925520871
 20
145.8193175343
 30
0.0
 11
197.5925520871
 21
146.5048976091
 31
0.0
  0
LINE
  5
162
330
1F
100
AcDbEntity
  8
0
  6
SLD-Gestrichelt
 62
     7
370
     0
100
AcDbLine
 10
207.4525517289
 20
145.0996640918
 30
0.0
 11
201.0182545398
 21
145.0996640918
 31
0.0
  0
LINE
  5
163
330
1F
100
AcDbEntity
  8
0
  6
SLD-Gestrichelt
 62
     7
370
     0
100
AcDbLine
 10
201.4125523035
 20
146.5048976091
 30
0.0
 11
201.4125523035
 21
145.8193175343
 31
0.0
  0
LINE
  5
164
330
1F
100
AcDbEntity
  8
0
  6
SLD-Gestrichelt
 62
     7
370
     0
100
AcDbLine
 10
207.4525517289
 20
145.0996640918
 30
0.0
 11
207.4525517289
 21
148.5461052356
 31
0.0
  0
LINE
  5
165
330
1F
100
AcDbEntity
  8
0
  6
SLD-Gestrichelt
 62
     7
370
     0
100
AcDbLine
 10
194.452552392
 20
145.0996640918
 30
0.0
 11
186.452552012
 21
145.0996640918
 31
0.0
  0
ELLIPSE
  5
166
330
1F
100
AcDbEntity
  8
0
  6
SLD-Gestrichelt
 62
     7
370
     0
100
AcDbEllipse
 10
145.4351201745
 20
118.6996642349
 30
0.0
 11
20.07002071827054
 21
-2.842170943040401E-14
 31
0.0
210
0.0
220
0.0
230
1.0
 40
0.8164965809
 41
4.921555463185702
 42
4.980534842098402
  0
LINE
  5
167
330
1F
100
AcDbEntity
  8
0
  6
SLD-Gestrichelt
 62
     7
370
     0
100
AcDbLine
 10
149.6025522117
 20
100.7096636889
 30
0.0
 11
149.6025522117
 21
102.6697289047
 31
0.0
  0
ELLIPSE
  5
168
330
1F
100
AcDbEntity
  8
0
  6
SLD-Gestrichelt
 62
     7
370
     0
100
AcDbEllipse
 10
145.4351201745
 20
118.6996642349
 30
0.0
 11
20.07002071827051
 21
-1.421085471520200E-14
 31
0.0
210
0.0
220
0.0
230
1.0
 40
0.8164965809
 41
1.302650465081199
 42
1.361629843993899
  0
LINE
  5
169
330
1F
100
AcDbEntity
  8
0
  6
SLD-Gestrichelt
 62
     7
370
     0
100
AcDbLine
 10
149.6025522117
 20
136.6896647809
 30
0.0
 11
149.6025522117
 21
134.729599565
 31
0.0
  0
LINE
  5
16A
330
1F
100
AcDbEntity
  8
0
  6
SLD-Gestrichelt
 62
     7
370
     0
100
AcDbLine
 10
159.7025518183
 20
100.7096636889
 30
0.0
 11
159.7025518183
 21
102.4121511576
 31
0.0
  0
LINE
  5
16B
330
1F
100
AcDbEntity
  8
0
  6
SLD-Gestrichelt
 62
     7
370
     0
100
AcDbLine
 10
150.7525511895
 20
100.7096636889
 30
0.0
 11
150.7525511895
 21
102.8981730191
 31
0.0
  0
LINE
  5
16C
330
1F
100
AcDbEntity
  8
0
  6
SLD-Gestrichelt
 62
     7
370
     0
100
AcDbLine
 10
155.7025511627
 20
136.6896647809
 30
0.0
 11
155.7025511627
 21
134.9871773122
 31
0.0
  0
LINE
  5
16D
330
1F
100
AcDbEntity
  8
0
  6
SLD-Gestrichelt
 62
     7
370
     0
100
AcDbLine
 10
150.7525511895
 20
136.6896647809
 30
0.0
 11
150.7525511895
 21
134.5011554507
 31
0.0
  0
LWPOLYLINE
  5
16E
330
1F
100
AcDbEntity
  8
0
  6
SLD-Gestrichelt
 62
     7
370
     0
100
AcDbPolyline
 90
       28
 70
   128
 43
0.0
 10
169.6625643287
 20
95.6320017425
 10
169.8464092676
 20
95.650192335
 10
170.4953278292
 20
95.6946555374
 10
171.1827724118
 20
95.7164559362
 10
172.500212944
 20
95.6920608727
 10
173.6782689456
 20
95.5803729443
 10
174.4068677415
 20
95.480615258
 10
175.1462028239
 20
95.3515823779
 10
175.6719530438
 20
95.2416937647
 10
176.0146224749
 20
95.1630268095
 10
176.2525372085
 20
95.0993653236
 10
176.2511756149
 20
95.0997285394
 10
176.0225256782
 20
95.1607785968
 10
175.6854143802
 20
95.238463938
 10
175.1667231199
 20
95.3474640695
 10
174.4249465753
 20
95.4775698332
 10
173.6947375227
 20
95.5781489459
 10
172.5233171944
 20
95.6907272188
 10
171.2017369334
 20
95.7168098388
 10
170.5131943215
 20
95.6956464646
 10
169.8630678345
 20
95.6516768632
 10
169.2824217368
 20
95.5947004107
 10
168.9464443241
 20
95.5539382843
 10
168.752571835
 20
95.5210495589
 10
168.7535711442
 20
95.5212190596
 10
168.941570713
 20
95.5530982313
 10
169.2735583399
 20
95.5935157684
 10
169.6625643287
 20
95.6320017425
  0
LWPOLYLINE
  5
16F
330
1F
100
AcDbEntity
  8
0
  6
SLD-Gestrichelt
 62
     7
370
     0
100
AcDbPolyline
 90
       41
 70
   128
 43
0.0
 10
170.4774082516
 20
141.7050696758
 10
169.8464064736
 20
141.7490672169
 10
169.2732854624
 20
141.8057288823
 10
168.9414831687
 20
141.8461408315
 10
168.7893283431
 20
141.870304927
 10
168.7532191042
 20
141.8780777452
 10
168.7525643845
 20
141.8782193062
 10
168.7913418625
 20
141.8699100462
 10
168.9455316279
 20
141.8453976361
 10
169.2809595604
 20
141.8046764878
 10
169.5370285649
 20
141.7782399652
 10
169.8611344088
 20
141.7477521894
 10
170.5118122388
 20
141.7037658242
 10
171.2011800025
 20
141.6825782356
 10
171.65903215
 20
141.6811197845
 10
172.102877206
 20
141.689794123
 10
172.5246266339
 20
141.708601251
 10
173.0479386513
 20
141.7499650119
 10
173.6929880333
 20
141.820790231
 10
174.4213581894
 20
141.9210713205
 10
174.7960292612
 20
141.9822610763
 10
175.161781988
 20
142.0508138684
 10
175.6830595311
 20
142.1602051554
 10
176.0217233438
 20
142.2381847946
 10
176.2012543966
 20
142.2847546486
 10
176.2517451186
 20
142.2996818868
 10
176.2525330175
 20
142.2999147175
 10
176.1895495344
 20
142.2824393807
 10
175.9849728894
 20
142.2311831114
 10
175.7568798837
 20
142.1782485989
 10
175.5188110162
 20
142.1252544818
 10
175.2169316512
 20
142.0613191871
 10
174.8752568726
 20
141.995364785
 10
174.5332165499
 20
141.9357638655
 10
174.2171107669
 20
141.8862026034
 10
173.9363295835
 20
141.8463904259
 10
173.185600235
 20
141.761234015
 10
172.4532454152
 20
141.7061611859
 10
171.770121238
 20
141.6811738012
 10
171.133763424
 20
141.6824385373
 10
170.4774082516
 20
141.7050696758
  0
LINE
  5
170
330
1F
100
AcDbEntity
  8
0
  6
SLD-Gestrichelt
 62
     7
370
     0
100
AcDbLine
 10
211.6025511984
 20
120.0326463289
 30
0.0
 11
211.6025511984
 21
114.5010953618
 31
0.0
  0
LINE
  5
171
330
1F
100
AcDbEntity
  8
0
  6
SLD-Gestrichelt
 62
     7
370
     0
100
AcDbLine
 10
211.6025511984
 20
117.3666821409
 30
0.0
 11
211.6025511984
 21
122.898233108
 31
0.0
  0
LINE
  5
172
330
1F
100
AcDbEntity
  8
0
  6
SLD-Gestrichelt
 62
     7
370
     0
100
AcDbLine
 10
203.3025522594
 20
114.4996643846
 30
0.0
 11
203.3025522594
 21
122.8806464782
 31
0.0
  0
LINE
  5
173
330
1F
100
AcDbEntity
  8
0
  6
SLD-Gestrichelt
 62
     7
370
     0
100
AcDbLine
 10
248.0727371637
 20
84.584167212
 30
0.0
 11
248.0615240399
 21
84.6197288332
 31
0.0
  0
LINE
  5
174
330
1F
100
AcDbEntity
  8
0
  6
SLD-Gestrichelt
 62
     7
370
     0
100
AcDbLine
 10
237.6899321441
 20
87.8578536061
 30
0.0
 11
248.0727371637
 21
84.584167212
 31
0.0
  0
LINE
  5
175
330
1F
100
AcDbEntity
  8
0
  6
SLD-Gestrichelt
 62
     7
370
     0
100
AcDbLine
 10
238.2985849742
 20
84.4858754275
 30
0.0
 11
238.2556994323
 21
84.4993982313
 31
0.0
  0
LINE
  5
176
330
1F
100
AcDbEntity
  8
0
  6
SLD-Gestrichelt
 62
     7
370
     0
100
AcDbLine
 10
240.5210074846
 20
77.4372536538
 30
0.0
 11
238.2985849742
 21
84.4858754275
 31
0.0
  0
LINE
  5
177
330
1F
100
AcDbEntity
  8
0
  6
SLD-Gestrichelt
 62
     7
370
     0
100
AcDbLine
 10
240.4781219427
 20
77.4507764576
 30
0.0
 11
240.5210074846
 21
77.4372536538
 31
0.0
  0
LINE
  5
178
330
1F
100
AcDbEntity
  8
0
  6
SLD-Gestrichelt
 62
     7
370
     0
100
AcDbLine
 10
247.8603360121
 20
84.3717623351
 30
0.0
 11
248.0727371637
 21
84.584167212
 31
0.0
  0
LINE
  5
179
330
1F
100
AcDbEntity
  8
0
  6
SLD-Gestrichelt
 62
     7
370
     0
100
AcDbLine
 10
247.8603360121
 20
84.3717623351
 30
0.0
 11
237.3943005566
 21
87.6716915367
 31
0.0
  0
LINE
  5
17A
330
1F
100
AcDbEntity
  8
0
  6
SLD-Gestrichelt
 62
     7
370
     0
100
AcDbLine
 10
238.5109898512
 20
84.6982803044
 30
0.0
 11
238.2985849742
 21
84.4858754275
 31
0.0
  0
LINE
  5
17B
330
1F
100
AcDbEntity
  8
0
  6
SLD-Gestrichelt
 62
     7
370
     0
100
AcDbLine
 10
238.5109898512
 20
84.6982803044
 30
0.0
 11
240.8021551434
 21
77.4316247401
 31
0.0
  0
ELLIPSE
  5
17C
330
1F
100
AcDbEntity
  8
0
  6
SLD-Gestrichelt
 62
     7
370
     0
100
AcDbEllipse
 10
226.5289851448
 20
121.6917868704
 30
0.0
 11
-14.29989576772212
 21
44.25239730289528
 31
0.0
210
0.0
220
0.0
230
1.0
 40
0.1000778042
 41
3.078464699713576
 42
3.135615738934731
  0
LINE
  5
17D
330
1F
100
AcDbEntity
  8
0
  6
SLD-Gestrichelt
 62
     7
370
     0
100
AcDbLine
 10
238.5109898512
 20
84.6982803044
 30
0.0
 11
238.1578919355
 21
84.809610605
 31
0.0
  0
LWPOLYLINE
  5
17E
330
1F
100
AcDbEntity
  8
0
  6
SLD-Gestrichelt
 62
     7
370
     0
100
AcDbPolyline
 90
       11
 70
   128
 43
0.0
 10
226.3993781869
 20
81.8897876737
 10
226.3986964587
 20
82.0409040747
 10
226.3969902758
 20
82.4419539271
 10
226.3943900232
 20
83.1127334235
 10
226.3913501863
 20
84.0380992589
 10
226.388459361
 20
85.1767752168
 10
226.3862353627
 20
86.5394156275
 10
226.385315216
 20
88.1618056295
 10
226.3865222101
 20
89.9956412462
 10
226.3899308507
 20
91.7701497523
 10
226.3960962061
 20
93.6965588329
  0
ELLIPSE
  5
17F
330
1F
100
AcDbEntity
  8
0
  6
SLD-Gestrichelt
 62
     7
370
     0
100
AcDbEllipse
 10
237.3547847924
 20
118.6996642349
 30
0.0
 11
-8.637142909526547
 21
26.98110158894312
 31
0.0
210
0.0
220
0.0
230
1.0
 40
0.1169400867
 41
6.256879463216116
 42
7.81656445026339
  0
LINE
  5
180
330
1F
100
AcDbEntity
  8
0
  6
SLD-Gestrichelt
 62
     7
370
     0
100
AcDbLine
 10
223.7705004279
 20
145.6979978678
 30
0.0
 11
223.7705004279
 21
118.6996642349
 31
0.0
  0
LINE
  5
181
330
1F
100
AcDbEntity
  8
0
  6
SLD-Gestrichelt
 62
     7
370
     0
100
AcDbLine
 10
186.452552012
 20
92.2996643779
 30
0.0
 11
194.452552392
 21
92.2996643779
 31
0.0
  0
LINE
  5
182
330
1F
100
AcDbEntity
  8
0
  6
SLD-Gestrichelt
 62
     7
370
     0
100
AcDbLine
 10
247.6459008519
 20
84.4393726287
 30
0.0
 11
247.8603360121
 21
84.3717623351
 31
0.0
  0
LWPOLYLINE
  5
183
330
1F
100
AcDbEntity
  8
0
  6
SLD-Gestrichelt
 62
     7
370
     0
100
AcDbPolyline
 90
        3
 70
   128
 43
0.0
 10
240.8021551434
 20
77.4316247401
 10
240.7814648811
 20
77.4972531793
 10
240.7553170685
 20
77.5801744161
  0
LWPOLYLINE
  5
184
330
1F
100
AcDbEntity
  8
0
  6
SLD-Gestrichelt
 62
     7
370
     0
100
AcDbPolyline
 90
       11
 70
   128
 43
0.0
 10
242.9899995093
 20
88.4645208565
 10
244.1291299526
 20
85.7850890455
 10
245.2170115773
 20
83.344625294
 10
245.7393643324
 20
82.2357851861
 10
246.2456536357
 20
81.1610463855
 10
246.3060331408
 20
81.0411069391
 10
247.207501239
 20
79.2503785191
 10
248.0954986874
 20
77.6266436873
 10
248.9031341736
 20
76.3017628191
 10
249.6244695846
 20
75.2854551969
 10
250.2542299096
 20
74.5851825771
  0
LWPOLYLINE
  5
185
330
1F
100
AcDbEntity
  8
0
  6
SLD-Gestrichelt
 62
     7
370
     0
100
AcDbPolyline
 90
       11
 70
   128
 43
0.0
 10
250.6337177817
 20
74.9632250366
 10
249.9961417977
 20
75.6679531036
 10
249.2644873325
 20
76.6929220257
 10
248.444245464
 20
78.0304614303
 10
247.5415480201
 20
79.6705577371
 10
246.5863165323
 20
81.5552566049
 10
246.5631675784
 20
81.6009323893
 10
246.2892544333
 20
82.1782369015
 10
245.5164131586
 20
83.8071238098
 10
244.4091376726
 20
86.2726140616
 10
243.249626166
 20
88.9789406059
  0
CIRCLE
  5
186
330
1F
100
AcDbEntity
  8
0
  6
SLD-Gestrichelt
 62
     7
370
     0
100
AcDbCircle
 10
244.3312708346
 20
80.8709454391
 30
0.0
 40
2.399999999999991
  0
LINE
  5
187
330
1F
100
AcDbEntity
  8
0
  6
SLD-Gestrichelt
 62
     7
370
     0
100
AcDbLine
 10
250.2542299096
 20
74.5851825771
 30
0.0
 11
250.6337177817
 21
74.9632250366
 31
0.0
  0
LINE
  5
188
330
1F
100
AcDbEntity
  8
0
  6
SLD-Gestrichelt
 62
     7
370
     0
100
AcDbLine
 10
238.5109898512
 20
84.6982803044
 30
0.0
 11
240.7553170685
 21
77.5801744161
 31
0.0
  0
LINE
  5
189
330
1F
100
AcDbEntity
  8
0
  6
SLD-Gestrichelt
 62
     7
370
     0
100
AcDbLine
 10
236.1284171109
 20
85.4494999943
 30
0.0
 11
238.5109898512
 21
84.6982803044
 31
0.0
  0
LINE
  5
18A
330
1F
100
AcDbEntity
  8
0
  6
SLD-Gestrichelt
 62
     7
370
     0
100
AcDbLine
 10
247.6459008519
 20
84.4393726287
 30
0.0
 11
236.8801806931
 21
87.8337938187
 31
0.0
  0
ARC
  5
18B
330
1F
100
AcDbEntity
  8
0
  6
SLD-Gestrichelt
 62
     7
370
     0
100
AcDbCircle
 10
236.5042981562
 20
86.6416471894
 30
0.0
 40
1.250000000000004
100
AcDbArc
 50
72.5
 51
252.5
  0
LINE
  5
18C
330
1F
100
AcDbEntity
  8
0
  6
SLD-Gestrichelt
 62
     7
370
     0
100
AcDbLine
 10
250.2542299096
 20
74.5851825771
 30
0.0
 11
240.7553170685
 21
77.5801744161
 31
0.0
  0
LINE
  5
18D
330
1F
100
AcDbEntity
  8
0
  6
SLD-Gestrichelt
 62
     7
370
     0
100
AcDbLine
 10
247.6459008519
 20
84.4393726287
 30
0.0
 11
250.6337177817
 21
74.9632250366
 31
0.0
  0
CIRCLE
  5
18E
330
1F
100
AcDbEntity
  8
0
  6
SLD-Gestrichelt
 62
     7
370
     0
100
AcDbCircle
 10
244.3312708346
 20
80.8709454391
 30
0.0
 40
1.649999999999991
  0
LINE
  5
18F
330
1F
100
AcDbEntity
  8
0
  6
SLD-Gestrichelt
 62
     7
370
     0
100
AcDbLine
 10
155.7025511627
 20
136.6896647809
 30
0.0
 11
155.7025511627
 21
140.5437718926
 31
0.0
  0
LINE
  5
190
330
1F
100
AcDbEntity
  8
0
  6
SLD-Gestrichelt
 62
     7
370
     0
100
AcDbLine
 10
159.7025518183
 20
100.7096636889
 30
0.0
 11
159.7025518183
 21
96.7545155285
 31
0.0
  0
LINE
  5
191
330
1F
100
AcDbEntity
  8
0
  6
SLD-Gestrichelt
 62
     7
370
     0
100
AcDbLine
 10
149.6025522117
 20
134.729599565
 30
0.0
 11
149.6025522117
 21
102.6697289047
 31
0.0
  0
LINE
  5
192
330
1F
100
AcDbEntity
  8
0
  6
SLD-Gestrichelt
 62
     7
370
     0
100
AcDbLine
 10
150.7525511895
 20
136.6896647809
 30
0.0
 11
150.7525511895
 21
139.5696028916
 31
0.0
  0
LINE
  5
193
330
1F
100
AcDbEntity
  8
0
  6
SLD-Gestrichelt
 62
     7
370
     0
100
AcDbLine
 10
150.7425078068
 20
139.5596172509
 30
0.0
 11
150.426705635
 21
139.0897836385
 31
0.0
  0
LINE
  5
194
330
1F
100
AcDbEntity
  8
0
  6
SLD-Gestrichelt
 62
     7
370
     0
100
AcDbLine
 10
149.6025522117
 20
136.6896647809
 30
0.0
 11
149.6025522117
 21
138.3903417585
 31
0.0
  0
LWPOLYLINE
  5
195
330
1F
100
AcDbEntity
  8
0
  6
SLD-Gestrichelt
 62
     7
370
     0
100
AcDbPolyline
 90
        3
 70
   128
 43
0.0
 10
149.6652153198
 20
138.3742168394
 10
149.6237081353
 20
138.4367421118
 10
149.6025522117
 20
138.3903417585
  0
LINE
  5
196
330
1F
100
AcDbEntity
  8
0
  6
SLD-Gestrichelt
 62
     7
370
     0
100
AcDbLine
 10
150.7525511895
 20
100.7096636889
 30
0.0
 11
150.7525511895
 21
97.8930331615
 31
0.0
  0
LINE
  5
197
330
1F
100
AcDbEntity
  8
0
  6
SLD-Gestrichelt
 62
     7
370
     0
100
AcDbLine
 10
150.54146134
 20
98.2557423262
 30
0.0
 11
150.7425078068
 21
97.9048479197
 31
0.0
  0
LWPOLYLINE
  5
198
330
1F
100
AcDbEntity
  8
0
  6
SLD-Gestrichelt
 62
     7
370
     0
100
AcDbPolyline
 90
        3
 70
   128
 43
0.0
 10
149.6025522117
 20
99.0465041099
 10
149.6218752925
 20
99.0534443257
 10
149.6328313712
 20
99.1095769999
  0
LINE
  5
199
330
1F
100
AcDbEntity
  8
0
  6
SLD-Gestrichelt
 62
     7
370
     0
100
AcDbLine
 10
149.6025522117
 20
100.7096636889
 30
0.0
 11
149.6025522117
 21
99.0465041099
 31
0.0
  0
ARC
  5
19A
330
1F
100
AcDbEntity
  8
0
  6
SLD-Gestrichelt
 62
     7
370
     0
100
AcDbCircle
 10
198.4384257427
 20
145.8149267944
 30
0.0
 40
0.8458850511768495
100
AcDbArc
 50
179.7025931636
 51
237.7340325855
  0
LINE
  5
19B
330
1F
100
AcDbEntity
  8
0
  6
SLD-Gestrichelt
 62
     7
370
     0
100
AcDbLine
 10
197.5925520871
 20
145.8193175343
 30
0.0
 11
197.5925520871
 21
91.8952692149
 31
0.0
  0
ARC
  5
19C
330
1F
100
AcDbEntity
  8
0
  6
SLD-Gestrichelt
 62
     7
370
     0
100
AcDbCircle
 10
198.4766731692
 20
91.895717302
 30
0.0
 40
0.8841211956749518
100
AcDbArc
 50
152.8133250666
 51
180.0290384411
  0
LINE
  5
19D
330
1F
100
AcDbEntity
  8
0
  6
SLD-Gestrichelt
 62
     7
370
     0
100
AcDbLine
 10
197.9868498508
 20
145.0996640918
 30
0.0
 11
198.3925525908
 21
145.0996640918
 31
0.0
  0
LINE
  5
19E
330
1F
100
AcDbEntity
  8
0
  6
SLD-Gestrichelt
 62
     7
370
     0
100
AcDbLine
 10
197.6902273361
 20
92.2996643779
 30
0.0
 11
198.3925525908
 21
92.2996643779
 31
0.0
  0
LINE
  5
19F
330
1F
100
AcDbEntity
  8
0
  6
SLD-Gestrichelt
 62
     7
370
     0
100
AcDbLine
 10
201.4125523035
 20
145.8193175343
 30
0.0
 11
201.4125523035
 21
91.8952692149
 31
0.0
  0
ARC
  5
1A0
330
1F
100
AcDbEntity
  8
0
  6
SLD-Gestrichelt
 62
     7
370
     0
100
AcDbCircle
 10
200.5717230302
 20
145.8121629798
 30
0.0
 40
0.8408597114901676
100
AcDbArc
 50
302.075860438
 51
0.4875138129
  0
ARC
  5
1A1
330
1F
100
AcDbEntity
  8
0
  6
SLD-Gestrichelt
 62
     7
370
     0
100
AcDbCircle
 10
200.5324205997
 20
91.8966808732
 30
0.0
 40
0.8801328359032539
100
AcDbArc
 50
359.9081023991
 51
27.2495340932
  0
LINE
  5
1A2
330
1F
100
AcDbEntity
  8
0
  6
SLD-Gestrichelt
 62
     7
370
     0
100
AcDbLine
 10
200.6125517998
 20
145.0996640918
 30
0.0
 11
201.0182545398
 21
145.0996640918
 31
0.0
  0
LINE
  5
1A3
330
1F
100
AcDbEntity
  8
0
  6
SLD-Gestrichelt
 62
     7
370
     0
100
AcDbLine
 10
200.6125517998
 20
92.2996643779
 30
0.0
 11
201.3148770545
 21
92.2996643779
 31
0.0
  0
LINE
  5
1A4
330
1F
100
AcDbEntity
  8
0
  6
SLD-Gestrichelt
 62
     7
370
     0
100
AcDbLine
 10
198.3925525908
 20
145.0996640918
 30
0.0
 11
200.6125517998
 21
145.0996640918
 31
0.0
  0
LINE
  5
1A5
330
1F
100
AcDbEntity
  8
0
  6
SLD-Gestrichelt
 62
     7
370
     0
100
AcDbLine
 10
198.3925525908
 20
92.2996643779
 30
0.0
 11
200.6125517998
 21
92.2996643779
 31
0.0
  0
LWPOLYLINE
  5
1A6
330
1F
100
AcDbEntity
  8
0
  6
SLD-Gestrichelt
 62
     7
370
     0
100
AcDbPolyline
 90
        3
 70
   128
 43
0.0
 10
201.4125523035
 20
146.5048976091
 10
202.8864801739
 20
149.1525266168
 10
202.8944839601
 20
149.1668596713
  0
ARC
  5
1A7
330
1F
100
AcDbEntity
  8
0
  6
SLD-Gestrichelt
 62
     7
370
     0
100
AcDbCircle
 10
206.8429929225
 20
148.5572735176
 30
0.0
 40
0.6096611099671675
100
AcDbArc
 50
358.9503492893
 51
89.1015334537
  0
LINE
  5
1A8
330
1F
100
AcDbEntity
  8
0
  6
SLD-Gestrichelt
 62
     7
370
     0
100
AcDbLine
 10
202.8944839601
 20
149.1668596713
 30
0.0
 11
206.8525527481
 21
149.1668596713
 31
0.0
  0
LWPOLYLINE
  5
1A9
330
1F
100
AcDbEntity
  8
0
  6
SLD-Gestrichelt
 62
     7
370
     0
100
AcDbPolyline
 90
        3
 70
   128
 43
0.0
 10
196.1106194992
 20
149.1668596713
 10
196.1186232854
 20
149.1525266168
 10
197.5925520871
 20
146.5048976091
  0
ARC
  5
1AA
330
1F
100
AcDbEntity
  8
0
  6
SLD-Gestrichelt
 62
     7
370
     0
100
AcDbCircle
 10
206.8384289338
 20
89.1268352533
 30
0.0
 40
0.6142510510424941
100
AcDbArc
 50
271.317549681
 51
1.1708762429
  0
LINE
  5
1AB
330
1F
100
AcDbEntity
  8
0
  6
SLD-Gestrichelt
 62
     7
370
     0
100
AcDbLine
 10
207.4525517289
 20
148.5461052356
 30
0.0
 11
207.4525517289
 21
89.1393869964
 31
0.0
  0
LINE
  5
1AC
330
1F
100
AcDbEntity
  8
0
  6
SLD-Gestrichelt
 62
     7
370
     0
100
AcDbLine
 10
197.5925520871
 20
146.5048976091
 30
0.0
 11
197.5925520871
 21
91.2018269149
 31
0.0
  0
LINE
  5
1AD
330
1F
100
AcDbEntity
  8
0
  6
SLD-Gestrichelt
 62
     7
370
     0
100
AcDbLine
 10
202.8944839601
 20
149.1668596713
 30
0.0
 11
202.8944839601
 21
88.5127466021
 31
0.0
  0
LINE
  5
1AE
330
1F
100
AcDbEntity
  8
0
  6
SLD-Gestrichelt
 62
     7
370
     0
100
AcDbLine
 10
201.4125523035
 20
146.5048976091
 30
0.0
 11
201.4125523035
 21
91.2018269149
 31
0.0
  0
LWPOLYLINE
  5
1AF
330
1F
100
AcDbEntity
  8
0
  6
SLD-Gestrichelt
 62
     7
370
     0
100
AcDbPolyline
 90
       29
 70
   128
 43
0.0
 10
211.5025513683
 20
132.5428234262
 10
212.1701140765
 20
132.5859660131
 10
212.8042031888
 20
132.7132293803
 10
213.3730214898
 20
132.9182330368
 10
213.8480481569
 20
133.1906961126
 10
214.2054599587
 20
133.5169570369
 10
214.4273345236
 20
133.8806543348
 10
214.50255186
 20
134.2635527102
 10
214.4273345236
 20
134.6464510856
 10
214.2054599587
 20
135.0101493148
 10
213.8480481569
 20
135.3364102391
 10
213.3730214898
 20
135.6088742463
 10
212.8042031888
 20
135.8138769714
 10
212.1701140765
 20
135.9411403386
 10
211.5025513683
 20
135.9842829255
 10
210.83498866
 20
135.9411403386
 10
210.2009014104
 20
135.8138769714
 10
209.6320831094
 20
135.6088742463
 10
209.157058305
 20
135.3364102391
 10
208.7996446405
 20
135.0101493148
 10
208.577768213
 20
134.6464510856
 10
208.5025527392
 20
134.2635527102
 10
208.577768213
 20
133.8806543348
 10
208.7996446405
 20
133.5169570369
 10
209.157058305
 20
133.1906961126
 10
209.6320831094
 20
132.9182330368
 10
210.2009014104
 20
132.7132293803
 10
210.83498866
 20
132.5859660131
 10
211.5025513683
 20
132.5428234262
  0
LWPOLYLINE
  5
1B0
330
1F
100
AcDbEntity
  8
0
  6
SLD-Gestrichelt
 62
     7
370
     0
100
AcDbPolyline
 90
       12
 70
   128
 43
0.0
 10
150.426705635
 20
139.0897836385
 10
150.3608462278
 20
138.9049794374
 10
150.2464127604
 20
138.6414840666
 10
150.1170781318
 20
138.408306971
 10
150.0425313477
 20
138.3017208276
 10
150.0037846033
 20
138.2547207025
 10
149.9597330455
 20
138.2089815883
 10
149.9207814102
 20
138.1762027589
 10
149.8841618065
 20
138.15302214
 10
149.8378825251
 20
138.1366699783
 10
149.7574423317
 20
138.1587311474
 10
149.6652153198
 20
138.3742168394
  0
LWPOLYLINE
  5
1B1
330
1F
100
AcDbEntity
  8
0
  6
SLD-Gestrichelt
 62
     7
370
     0
100
AcDbPolyline
 90
       12
 70
   128
 43
0.0
 10
149.6328313712
 20
99.1095769999
 10
149.717574275
 20
99.4351263938
 10
149.7686182026
 20
99.4811765698
 10
149.8356659774
 20
99.4868334232
 10
149.870154715
 20
99.4745660422
 10
149.9149364297
 20
99.4475465117
 10
149.9522936408
 20
99.4171108899
 10
149.9907535378
 20
99.3793997762
 10
150.0407096807
 20
99.3219110964
 10
150.1150254969
 20
99.2205627111
 10
150.2753508155
 20
98.9424828289
 10
150.54146134
 20
98.2557423262
  0
LINE
  5
1B2
330
1F
100
AcDbEntity
  8
0
  6
SLD-Gestrichelt
 62
     7
370
     0
100
AcDbLine
 10
149.6025522117
 20
138.3903417585
 30
0.0
 11
149.6025522117
 21
99.0465041099
 31
0.0
  0
LINE
  5
1B3
330
1F
100
AcDbEntity
  8
0
  6
SLD-Gestrichelt
 62
     7
370
     0
100
AcDbLine
 10
196.1106194992
 20
88.5127466021
 30
0.0
 11
197.5925520871
 21
91.2018269149
 31
0.0
  0
LINE
  5
1B4
330
1F
100
AcDbEntity
  8
0
  6
SLD-Gestrichelt
 62
     7
370
     0
100
AcDbLine
 10
201.4125523035
 20
91.2018269149
 30
0.0
 11
202.8944839601
 21
88.5127466021
 31
0.0
  0
LINE
  5
1B5
330
1F
100
AcDbEntity
  8
0
  6
SLD-Gestrichelt
 62
     7
370
     0
100
AcDbLine
 10
202.8944839601
 20
88.5127466021
 30
0.0
 11
206.8525527481
 21
88.5127466021
 31
0.0
  0
CIRCLE
  5
1B6
330
1F
100
AcDbEntity
  8
0
  6
SLD-Gestrichelt
 62
     7
370
     0
100
AcDbCircle
 10
244.3312708346
 20
80.8709454391
 30
0.0
 40
1.649999999999991
  0
CIRCLE
  5
1B7
330
1F
100
AcDbEntity
  8
0
  6
SLD-Gestrichelt
 62
     7
370
     0
100
AcDbCircle
 10
188.5025520388
 20
118.6996642349
 30
0.0
 40
5.000000000000014
  0
LINE
  5
1B8
330
1F
100
AcDbEntity
  8
0
  6
SLD-Gestrichelt
 62
     7
370
     0
100
AcDbLine
 10
243.249626166
 20
88.9789424685
 30
0.0
 11
242.989995784
 21
88.4645245818
 31
0.0
  0
LINE
  5
1B9
330
1F
100
AcDbEntity
  8
0
  6
SLD-Gestrichelt
 62
     7
370
     0
100
AcDbLine
 10
242.9899995093
 20
88.4645208565
 30
0.0
 11
226.3960962061
 21
93.6965588329
 31
0.0
  0
LINE
  5
1BA
330
1F
100
AcDbEntity
  8
0
  6
SLD-Gestrichelt
 62
     7
370
     0
100
AcDbLine
 10
243.249626166
 20
88.9789424685
 30
0.0
 11
233.8787180249
 21
118.6996642349
 31
0.0
  0
ARC
  5
1BB
330
1F
100
AcDbEntity
  8
0
  6
SLD-Gestrichelt
 62
     7
370
     0
100
AcDbCircle
 10
362.7583573551
 20
120.6554778476
 30
0.0
 40
139.0016171851843
100
AcDbArc
 50
180.8062033066
 51
191.1832052214
  0
LINE
  5
1BC
330
1F
100
AcDbEntity
  8
0
  6
SLD-Gestrichelt
 62
     7
370
     0
100
AcDbLine
 10
181.5025520388
 20
93.3757405577
 30
0.0
 11
181.5967128766
 21
94.0457302926
 31
0.0
  0
LINE
  5
1BD
330
1F
100
AcDbEntity
  8
0
  6
SLD-Gestrichelt
 62
     7
370
     0
100
AcDbLine
 10
181.5967128766
 20
143.3535981772
 30
0.0
 11
181.5025520388
 21
144.0235879121
 31
0.0
  0
ARC
  5
1BE
330
1F
100
AcDbEntity
  8
0
  6
SLD-Gestrichelt
 62
     7
370
     0
100
AcDbCircle
 10
181.0025520388
 20
94.1292333732
 30
0.0
 40
0.6000000000000227
100
AcDbArc
 50
352.0
 51
0.0
  0
ARC
  5
1BF
330
1F
100
AcDbEntity
  8
0
  6
SLD-Gestrichelt
 62
     7
370
     0
100
AcDbCircle
 10
181.0025520388
 20
94.1292333732
 30
0.0
 40
0.6000000000000227
100
AcDbArc
 50
0.0
 51
33.5573097619
  0
ARC
  5
1C0
330
1F
100
AcDbEntity
  8
0
  6
SLD-Gestrichelt
 62
     7
370
     0
100
AcDbCircle
 10
181.0025520388
 20
143.2700950966
 30
0.0
 40
0.6000000000000314
100
AcDbArc
 50
348.75
 51
8.0
  0
LWPOLYLINE
  5
1C1
330
1F
100
AcDbEntity
  8
0
  6
SLD-Gestrichelt
 62
     7
370
     0
100
AcDbPolyline
 90
        3
 70
   128
 43
0.0
 10
181.5910232087
 20
143.1530415861
 10
181.556879759
 20
143.040485665
 10
181.5025520388
 20
142.9384331999
  0
LINE
  5
1C2
330
1F
100
AcDbEntity
  8
0
  6
SLD-Gestrichelt
 62
     7
370
     0
100
AcDbLine
 10
181.6025520363
 20
94.1292326746
 30
0.0
 11
181.6025520363
 21
143.2700957952
 31
0.0
  0
LINE
  5
1C3
330
1F
100
AcDbEntity
  8
0
  6
SLD-Gestrichelt
 62
     7
370
     0
100
AcDbLine
 10
181.6025520363
 20
94.1292326746
 30
0.0
 11
181.6025520363
 21
143.2700957952
 31
0.0
  0
LINE
  5
1C4
330
1F
100
AcDbEntity
  8
0
  6
SLD-Gestrichelt
 62
     7
370
     0
100
AcDbLine
 10
164.584988064
 20
98.6996646819
 30
0.0
 11
168.7766595621
 21
98.6996646819
 31
0.0
  0
LINE
  5
1C5
330
1F
100
AcDbEntity
  8
0
  6
SLD-Gestrichelt
 62
     7
370
     0
100
AcDbLine
 10
168.7766595621
 20
138.6996637879
 30
0.0
 11
164.584988064
 21
138.6996637879
 31
0.0
  0
ARC
  5
1C6
330
1F
100
AcDbEntity
  8
0
  6
SLD-Gestrichelt
 62
     7
370
     0
100
AcDbCircle
 10
164.5849876041
 20
99.2996642349
 30
0.0
 40
0.6000000000000085
100
AcDbArc
 50
210.0
 51
270.0
  0
ARC
  5
1C7
330
1F
100
AcDbEntity
  8
0
  6
SLD-Gestrichelt
 62
     7
370
     0
100
AcDbCircle
 10
164.5849876041
 20
138.0996642349
 30
0.0
 40
0.6000000000000013
100
AcDbArc
 50
90.0
 51
150.0
  0
ARC
  5
1C8
330
1F
100
AcDbEntity
  8
0
  6
SLD-Gestrichelt
 62
     7
370
     0
100
AcDbCircle
 10
175.2575540404
 20
106.6996642349
 30
0.0
 40
8.000000000000014
100
AcDbArc
 50
276.8734016635
 51
321.3178125465
  0
ARC
  5
1C9
330
1F
100
AcDbEntity
  8
0
  6
SLD-Gestrichelt
 62
     7
370
     0
100
AcDbCircle
 10
175.2575540404
 20
130.6996642349
 30
0.0
 40
7.999999999999993
100
AcDbArc
 50
38.6821874535
 51
83.1180506991
  0
LINE
  5
1CA
330
1F
100
AcDbEntity
  8
0
  6
SLD-Gestrichelt
 62
     7
370
     0
100
AcDbLine
 10
164.0653715346
 20
138.3996642975
 30
0.0
 11
162.5065275345
 21
135.6996651588
 31
0.0
  0
LINE
  5
1CB
330
1F
100
AcDbEntity
  8
0
  6
SLD-Gestrichelt
 62
     7
370
     0
100
AcDbLine
 10
162.5065275345
 20
101.699663311
 30
0.0
 11
164.0653715346
 21
98.9996641723
 31
0.0
  0
ARC
  5
1CC
330
1F
100
AcDbEntity
  8
0
  6
SLD-Gestrichelt
 62
     7
370
     0
100
AcDbCircle
 10
189.9525520388
 20
102.9746642349
 30
0.0
 40
1.5
100
AcDbArc
 50
238.2116693829
 51
0.0
  0
ARC
  5
1CD
330
1F
100
AcDbEntity
  8
0
  6
SLD-Gestrichelt
 62
     7
370
     0
100
AcDbCircle
 10
189.9525520388
 20
134.4246642349
 30
0.0
 40
1.5
100
AcDbArc
 50
0.0
 51
121.7883306171
  0
LINE
  5
1CE
330
1F
100
AcDbEntity
  8
0
  6
SLD-Gestrichelt
 62
     7
370
     0
100
AcDbLine
 10
159.7025518183
 20
101.699663311
 30
0.0
 11
162.5065275345
 21
101.699663311
 31
0.0
  0
LINE
  5
1CF
330
1F
100
AcDbEntity
  8
0
  6
SLD-Gestrichelt
 62
     7
370
     0
100
AcDbLine
 10
162.5065275345
 20
135.6996651588
 30
0.0
 11
155.7025511627
 21
135.6996651588
 31
0.0
  0
LINE
  5
1D0
330
1F
100
AcDbEntity
  8
0
  6
SLD-Gestrichelt
 62
     7
370
     0
100
AcDbLine
 10
181.5025520388
 20
101.699663311
 30
0.0
 11
189.1623780009
 21
101.699663311
 31
0.0
  0
LINE
  5
1D1
330
1F
100
AcDbEntity
  8
0
  6
SLD-Gestrichelt
 62
     7
370
     0
100
AcDbLine
 10
189.1623780009
 20
135.6996651588
 30
0.0
 11
181.5025520388
 21
135.6996651588
 31
0.0
  0
LINE
  5
1D2
330
1F
100
AcDbEntity
  8
0
  6
SLD-Gestrichelt
 62
     7
370
     0
100
AcDbLine
 10
214.0025508467
 20
118.8655823202
 30
0.0
 11
214.0025508467
 21
134.0174553765
 31
0.0
  0
LINE
  5
1D3
330
1F
100
AcDbEntity
  8
0
  6
SLD-Gestrichelt
 62
     7
370
     0
100
AcDbLine
 10
214.0025508467
 20
105.6319866178
 30
0.0
 11
214.0025508467
 21
118.5331319861
 31
0.0
  0
LINE
  5
1D4
330
1F
100
AcDbEntity
  8
0
  6
SLD-Gestrichelt
 62
     7
370
     0
100
AcDbLine
 10
209.0025518898
 20
115.2619393391
 30
0.0
 11
209.0025518898
 21
103.1357757596
 31
0.0
  0
LINE
  5
1D5
330
1F
100
AcDbEntity
  8
0
  6
SLD-Gestrichelt
 62
     7
370
     0
100
AcDbLine
 10
209.0025518898
 20
134.0174553765
 30
0.0
 11
209.0025518898
 21
122.1373891307
 31
0.0
  0
LINE
  5
1D6
330
1F
100
AcDbEntity
  8
0
  6
SLD-Gestrichelt
 62
     7
370
     0
100
AcDbLine
 10
215.9350563649
 20
104.2474666459
 30
0.0
 11
213.9100444381
 21
105.8070305584
 31
0.0
  0
LINE
  5
1D7
330
1F
100
AcDbEntity
  8
0
  6
SLD-Gestrichelt
 62
     7
370
     0
100
AcDbLine
 10
210.8898752246
 20
101.8220502732
 30
0.0
 11
216.1543195013
 21
97.7676361648
 31
0.0
  0
LINE
  5
1D8
330
1F
100
AcDbEntity
  8
0
  6
SLD-Gestrichelt
 62
     7
370
     0
100
AcDbLine
 10
200.8025527809
 20
109.1996645404
 30
0.0
 11
203.3025522594
 21
109.1996645404
 31
0.0
  0
LINE
  5
1D9
330
1F
100
AcDbEntity
  8
0
  6
SLD-Gestrichelt
 62
     7
370
     0
100
AcDbLine
 10
203.3025522594
 20
128.1996639294
 30
0.0
 11
200.8025527809
 21
128.1996639294
 31
0.0
  0
LINE
  5
1DA
330
1F
100
AcDbEntity
  8
0
  6
SLD-Gestrichelt
 62
     7
370
     0
100
AcDbLine
 10
191.4525519003
 20
109.6996646223
 30
0.0
 11
191.9525519822
 21
110.199663773
 31
0.0
  0
LINE
  5
1DB
330
1F
100
AcDbEntity
  8
0
  6
SLD-Gestrichelt
 62
     7
370
     0
100
AcDbLine
 10
191.9525519822
 20
127.1996646968
 30
0.0
 11
191.4525519003
 21
127.6996638475
 31
0.0
  0
LINE
  5
1DC
330
1F
100
AcDbEntity
  8
0
  6
SLD-Gestrichelt
 62
     7
370
     0
100
AcDbLine
 10
191.9525519822
 20
110.199663773
 30
0.0
 11
200.8025527809
 21
110.199663773
 31
0.0
  0
LINE
  5
1DD
330
1F
100
AcDbEntity
  8
0
  6
SLD-Gestrichelt
 62
     7
370
     0
100
AcDbLine
 10
200.8025527809
 20
127.1996646968
 30
0.0
 11
191.9525519822
 21
127.1996646968
 31
0.0
  0
LINE
  5
1DE
330
1F
100
AcDbEntity
  8
0
  6
SLD-Gestrichelt
 62
     7
370
     0
100
AcDbLine
 10
186.452552012
 20
150.1996647415
 30
0.0
 11
186.452552012
 21
145.0996640918
 31
0.0
  0
LINE
  5
1DF
330
1F
100
AcDbEntity
  8
0
  6
SLD-Gestrichelt
 62
     7
370
     0
100
AcDbLine
 10
176.6869898763
 20
94.6202929912
 30
0.0
 11
176.2525576976
 21
95.0993597356
 31
0.0
  0
LINE
  5
1E0
330
1F
100
AcDbEntity
  8
0
  6
SLD-Gestrichelt
 62
     7
370
     0
100
AcDbLine
 10
168.7525541399
 20
95.5210476962
 30
0.0
 11
168.2701206644
 21
95.0419809518
 31
0.0
  0
LINE
  5
1E1
330
1F
100
AcDbEntity
  8
0
  6
SLD-Gestrichelt
 62
     7
370
     0
100
AcDbLine
 10
168.2699986611
 20
142.35734193
 30
0.0
 11
168.7525494833
 21
141.8782211689
 31
0.0
  0
LINE
  5
1E2
330
1F
100
AcDbEntity
  8
0
  6
SLD-Gestrichelt
 62
     7
370
     0
100
AcDbLine
 10
176.2525521096
 20
142.2999203054
 30
0.0
 11
176.6870941844
 21
142.7790392039
 31
0.0
  0
LINE
  5
1E3
330
1F
100
AcDbEntity
  8
0
  6
SLD-Gestrichelt
 62
     7
370
     0
100
AcDbLine
 10
203.3025522594
 20
114.4996643846
 30
0.0
 11
210.8468965505
 21
114.4996643846
 31
0.0
  0
LINE
  5
1E4
330
1F
100
AcDbEntity
  8
0
  6
SLD-Gestrichelt
 62
     7
370
     0
100
AcDbLine
 10
210.8468965505
 20
122.8996640851
 30
0.0
 11
203.3025522594
 21
122.8996640851
 31
0.0
  0
LINE
  5
1E5
330
1F
100
AcDbEntity
  8
0
  6
SLD-Gestrichelt
 62
     7
370
     0
100
AcDbLine
 10
176.2525521096
 20
138.6350653914
 30
0.0
 11
176.2525521096
 21
142.2996278701
 31
0.0
  0
LINE
  5
1E6
330
1F
100
AcDbEntity
  8
0
  6
SLD-Gestrichelt
 62
     7
370
     0
100
AcDbLine
 10
168.7525522773
 20
141.8780777452
 30
0.0
 11
168.7525522773
 21
138.6952865718
 31
0.0
  0
LINE
  5
1E7
330
1F
100
AcDbEntity
  8
0
  6
SLD-Gestrichelt
 62
     7
370
     0
100
AcDbLine
 10
176.2525521096
 20
95.0998421607
 30
0.0
 11
176.2525521096
 21
98.7642630783
 31
0.0
  0
LINE
  5
1E8
330
1F
100
AcDbEntity
  8
0
  6
SLD-Gestrichelt
 62
     7
370
     0
100
AcDbLine
 10
168.7525522773
 20
98.704041898
 30
0.0
 11
168.7525522773
 21
95.5213699339
 31
0.0
  0
LINE
  5
1E9
330
1F
100
AcDbEntity
  8
0
  6
SLD-Gestrichelt
 62
     7
370
     0
100
AcDbLine
 10
214.0009862248
 20
118.4913319151
 30
0.0
 11
214.1261671547
 21
118.6996642349
 31
0.0
  0
LINE
  5
1EA
330
1F
100
AcDbEntity
  8
0
  6
SLD-Gestrichelt
 62
     7
370
     0
100
AcDbLine
 10
214.1261671547
 20
118.6996642349
 30
0.0
 11
213.9997904066
 21
118.9099925535
 31
0.0
  0
ARC
  5
1EB
330
1F
100
AcDbEntity
  8
0
  6
SLD-Gestrichelt
 62
     7
370
     0
100
AcDbCircle
 10
154.3025520388
 20
140.9696642349
 30
0.0
 40
1.400000000000006
100
AcDbArc
 50
270.0
 51
301.7485287426
  0
ARC
  5
1EC
330
1F
100
AcDbEntity
  8
0
  6
SLD-Gestrichelt
 62
     7
370
     0
100
AcDbCircle
 10
158.3025520388
 20
96.4871642349
 30
0.0
 40
1.400000000000006
100
AcDbArc
 50
37.6443616934
 51
90.0
  0
LINE
  5
1ED
330
1F
100
AcDbEntity
  8
0
  6
SLD-Gestrichelt
 62
     7
370
     0
100
AcDbLine
 10
154.3025516782
 20
139.5696643589
 30
0.0
 11
150.8768175606
 21
139.5696643589
 31
0.0
  0
LINE
  5
1EE
330
1F
100
AcDbEntity
  8
0
  6
SLD-Gestrichelt
 62
     7
370
     0
100
AcDbLine
 10
150.7437148009
 20
139.5608279703
 30
0.0
 11
149.6124540333
 21
138.4295653401
 31
0.0
  0
LINE
  5
1EF
330
1F
100
AcDbEntity
  8
0
  6
SLD-Gestrichelt
 62
     7
370
     0
100
AcDbLine
 10
150.7525511895
 20
97.8871639667
 30
0.0
 11
158.3025523339
 21
97.8871639667
 31
0.0
  0
LINE
  5
1F0
330
1F
100
AcDbEntity
  8
0
  6
SLD-Gestrichelt
 62
     7
370
     0
100
AcDbLine
 10
149.5999705855
 20
99.0397445706
 30
0.0
 11
150.7525511895
 21
97.8871639667
 31
0.0
  0
LINE
  5
1F1
330
1F
100
AcDbEntity
  8
0
  6
SLD-Gestrichelt
 62
     7
370
     0
100
AcDbLine
 10
214.50255186
 20
134.2635527102
 30
0.0
 11
214.50255186
 21
139.9941090343
 31
0.0
  0
LINE
  5
1F2
330
1F
100
AcDbEntity
  8
0
  6
SLD-Gestrichelt
 62
     7
370
     0
100
AcDbLine
 10
208.5025527392
 20
139.9976182578
 30
0.0
 11
208.5025527392
 21
134.2635527102
 31
0.0
  0
DIMENSION
  5
1F3
330
1F
100
AcDbEntity
  8
VERMASSUNG
100
AcDbDimension
  2
_D
 10
142.90609358
 20
87.1996642349
 30
0.0
 11
142.90609358
 21
118.6996642349
 31
0.0
 70
   160
  1
HSK %%c<>
 71
     2
 42
-1.0
  3
SLDDIMSTYLE0
100
AcDbAlignedDimension
 13
181.8025520388
 23
150.1996642349
 33
0.0
 14
181.8025520388
 24
87.1996642349
 34
0.0
 50
90.0
100
AcDbRotatedDimension
  0
DIMENSION
  5
200
330
1F
100
AcDbEntity
  8
VERMASSUNG
100
AcDbDimension
  2
_D_1
 10
251.5025520388
 20
160.1996642349
 30
0.0
 11
200.5525520388
 21
160.1996642349
 31
0.0
 70
   160
  1
<>
 71
     2
 42
-1.0
  3
SLDDIMSTYLE0
100
AcDbAlignedDimension
 13
149.6025520388
 23
138.3903419814
 33
0.0
 14
251.5025520388
 24
73.6996642349
 34
0.0
100
AcDbRotatedDimension
  0
DIMENSION
  5
20A
330
1F
100
AcDbEntity
  8
VERMASSUNG
100
AcDbDimension
  2
_D_2
 10
251.5025520388
 20
154.1996642349
 30
0.0
 11
216.5025520388
 21
154.1996642349
 31
0.0
 70
   160
  1
<>
 71
     2
 42
-1.0
  3
SLDDIMSTYLE0
100
AcDbAlignedDimension
 13
181.5025520388
 23
149.8996642349
 33
0.0
 14
251.5025520388
 24
73.6996642349
 34
0.0
100
AcDbRotatedDimension
  0
DIMENSION
  5
214
330
1F
100
AcDbEntity
  8
VERMASSUNG
100
AcDbDimension
  2
_D_3
 10
257.8142546246
 20
73.6996642349
 30
0.0
 11
257.8142546246
 21
96.1996642349
 31
0.0
 70
   160
  1
<>
 71
     2
 42
-1.0
  3
SLDDIMSTYLE0
100
AcDbAlignedDimension
 13
239.1678998912
 23
118.6996642349
 33
0.0
 14
251.5025520388
 24
73.6996642349
 34
0.0
 50
90.0
100
AcDbRotatedDimension
  0
DIMENSION
  5
21E
330
1F
100
AcDbEntity
  8
VERMASSUNG
100
AcDbDimension
  2
_D_4
 10
228.8036200504
 20
145.6979975168
 30
0.0
 11
246.0089859329
 21
109.3984549138
 31
0.0
 70
   162
  1
<>
 71
     1
 42
-1.0
  3
SLDDIMSTYLE1
100
AcDb2LineAngularDimension
 13
251.5025520388
 23
118.6996642349
 33
0.0
 14
251.5025520388
 24
73.6996642349
 34
0.0
 15
248.0727369285
 25
84.5841665802
 35
0.0
 16
246.0089859329
 26
109.3984549138
 36
0.0
  0
LINE
  5
227
330
1F
100
AcDbEntity
  8
VERMASSUNG
  6
SLD-Punktstrich
370
     0
100
AcDbLine
 10
147.101523395
 20
118.6996642349
 30
0.0
 11
239.1678998912
 21
118.6996642349
 31
0.0
  0
ARC
  5
228
330
1F
100
AcDbEntity
  8
0
  6
SLD-Durchgehend
 62
     7
370
    15
100
AcDbCircle
 10
91.3191759973
 20
7.9788331259
 30
0.0
 40
66.77165469125954
100
AcDbArc
 50
96.7168381914
 51
100.2300076231
  0
LINE
  5
229
330
1F
100
AcDbEntity
  8
0
  6
SLD-Durchgehend
 62
     7
370
    15
100
AcDbLine
 10
79.8084875006
 20
87.817782521
 30
0.0
 11
79.4605187349
 21
87.8715067951
 31
0.0
  0
LINE
  5
22A
330
1F
100
AcDbEntity
  8
0
  6
SLD-Durchgehend
 62
     7
370
    15
100
AcDbLine
 10
83.478487448
 20
74.4154322741
 30
0.0
 11
83.478487448
 21
84.1389540432
 31
0.0
  0
LINE
  5
22B
330
1F
100
AcDbEntity
  8
0
  6
SLD-Durchgehend
 62
     7
370
    15
100
AcDbLine
 10
79.5084874864
 20
74.2116588948
 30
0.0
 11
79.5084874864
 21
84.3797158299
 31
0.0
  0
LINE
  5
22C
330
1F
100
AcDbEntity
  8
0
  6
SLD-Durchgehend
 62
     7
370
    15
100
AcDbLine
 10
83.478487448
 20
74.4154322741
 30
0.0
 11
83.478487448
 21
74.2872487602
 31
0.0
  0
LINE
  5
22D
330
1F
100
AcDbEntity
  8
0
  6
SLD-Durchgehend
 62
     7
370
    15
100
AcDbLine
 10
79.5084874864
 20
73.7006831763
 30
0.0
 11
79.5084874864
 21
74.2116588948
 31
0.0
  0
LINE
  5
22E
330
1F
100
AcDbEntity
  8
0
  6
SLD-Durchgehend
 62
     7
370
    15
100
AcDbLine
 10
83.478487448
 20
84.2037703691
 30
0.0
 11
83.478487448
 21
84.1389540432
 31
0.0
  0
LINE
  5
22F
330
1F
100
AcDbEntity
  8
0
  6
SLD-Durchgehend
 62
     7
370
    15
100
AcDbLine
 10
79.5084874864
 20
84.3797158299
 30
0.0
 11
79.5084874864
 21
84.6389699576
 31
0.0
  0
LINE
  5
230
330
1F
100
AcDbEntity
  8
0
  6
SLD-Durchgehend
 62
     7
370
    15
100
AcDbLine
 10
79.5084874864
 20
84.6389699576
 30
0.0
 11
79.5084874864
 21
87.8449454752
 31
0.0
  0
ARC
  5
231
330
1F
100
AcDbEntity
  8
0
  6
SLD-Durchgehend
 62
     7
370
    15
100
AcDbCircle
 10
76.5299812042
 20
112.3094885655
 30
0.0
 40
37.98717054009126
100
AcDbArc
 50
280.5397223889
 51
322.1084265107
  0
LINE
  5
232
330
1F
100
AcDbEntity
  8
0
  6
SLD-Durchgehend
 62
     7
370
    15
100
AcDbLine
 10
106.5084881868
 20
88.9789424685
 30
0.0
 11
106.5084881868
 21
88.4645245818
 31
0.0
  0
ARC
  5
233
330
1F
100
AcDbEntity
  8
0
  6
SLD-Durchgehend
 62
     7
370
    15
100
AcDbCircle
 10
76.5202526467
 20
112.1775066524
 30
0.0
 40
38.23087566934551
100
AcDbArc
 50
280.4866035046
 51
321.6650620722
  0
LINE
  5
234
330
1F
100
AcDbEntity
  8
0
  6
SLD-Durchgehend
 62
     7
370
    15
100
AcDbLine
 10
83.478487448
 20
84.4393726287
 30
0.0
 11
81.9784874349
 21
84.3717623351
 31
0.0
  0
LINE
  5
235
330
1F
100
AcDbEntity
  8
0
  6
SLD-Durchgehend
 62
     7
370
    15
100
AcDbLine
 10
81.9784874349
 20
84.3717623351
 30
0.0
 11
79.8084875006
 21
84.584167212
 31
0.0
  0
LINE
  5
236
330
1F
100
AcDbEntity
  8
0
  6
SLD-Durchgehend
 62
     7
370
    15
100
AcDbLine
 10
79.8084875006
 20
84.584167212
 30
0.0
 11
79.8084875006
 21
145.6979978678
 31
0.0
  0
ARC
  5
237
330
1F
100
AcDbEntity
  8
0
  6
SLD-Durchgehend
 62
     7
370
    15
100
AcDbCircle
 10
79.5084874864
 20
118.6996642349
 30
0.0
 40
27.00000000000001
100
AcDbArc
 50
0.0
 51
89.3633671277
  0
LINE
  5
238
330
1F
100
AcDbEntity
  8
0
  6
SLD-Durchgehend
 62
     7
370
    15
100
AcDbLine
 10
106.5084881868
 20
88.9789424685
 30
0.0
 11
106.5084881868
 21
118.6996642349
 31
0.0
  0
LINE
  5
239
330
1F
100
AcDbEntity
  8
0
  6
SLD-Durchgehend
 62
     7
370
    15
100
AcDbLine
 10
83.478487448
 20
84.4393726287
 30
0.0
 11
83.478487448
 21
84.2037554679
 31
0.0
  0
ARC
  5
23A
330
1F
100
AcDbEntity
  8
0
  6
SLD-Durchgehend
 62
     7
370
    15
100
AcDbCircle
 10
79.5084671995
 20
118.699485748
 30
0.0
 40
25.99982109174999
100
AcDbArc
 50
260.8219143621
 51
270.6358271909
  0
ARC
  5
23B
330
1F
100
AcDbEntity
  8
0
  6
SLD-Durchgehend
 62
     7
370
    15
100
AcDbCircle
 10
79.5084614792
 20
118.6999193166
 30
0.0
 40
25.99974456520509
100
AcDbArc
 50
89.3641583307
 51
99.1781001162
  0
ELLIPSE
  5
23C
330
1F
100
AcDbEntity
  8
0
  6
SLD-Durchgehend
 62
     7
370
    15
100
AcDbEllipse
 10
70.6356171813
 20
101.0075511004
 30
0.0
 11
-1.792932032615923
 21
3.047342459673259
 31
0.0
210
0.0
220
0.0
230
1.0
 40
0.6895695935
 41
0.0
 42
6.283185307179586
  0
ARC
  5
23D
330
1F
100
AcDbEntity
  8
0
  6
SLD-Durchgehend
 62
     7
370
    15
100
AcDbCircle
 10
79.5084874864
 20
118.6996642349
 30
0.0
 40
26.00000000000003
100
AcDbArc
 50
99.1780670049
 51
260.8219329951
  0
LWPOLYLINE
  5
23E
330
1F
100
AcDbEntity
  8
0
  6
SLD-Durchgehend
 62
     7
370
    15
100
AcDbPolyline
 90
        9
 70
   128
 43
0.0
 10
70.6496679942
 20
101.7079595325
 10
69.749247634
 20
101.8207464216
 10
69.371186548
 20
101.8633842317
 10
69.0038598861
 20
101.879550129
 10
68.6597790356
 20
101.8614843337
 10
68.3171715374
 20
101.8742062
 10
68.1158624376
 20
101.955950245
 10
67.9131787057
 20
102.1202374098
 10
67.8977438967
 20
102.1399721352
  0
ARC
  5
23F
330
1F
100
AcDbEntity
  8
0
  6
SLD-Durchgehend
 62
     7
370
    15
100
AcDbCircle
 10
75.1047695422
 20
99.9804346952
 30
0.0
 40
4.778312658857583
100
AcDbArc
 50
134.3672678988
 51
158.8055356589
  0
LINE
  5
240
330
1F
100
AcDbEntity
  8
0
  6
SLD-Durchgehend
 62
     7
370
    15
100
AcDbLine
 10
71.0445338647
 20
103.5048449261
 30
0.0
 11
70.9072904448
 21
103.3960580675
 31
0.0
  0
LWPOLYLINE
  5
241
330
1F
100
AcDbEntity
  8
0
  6
SLD-Durchgehend
 62
     7
370
    15
100
AcDbPolyline
 90
        8
 70
   128
 43
0.0
 10
68.2119302239
 20
103.414881028
 10
68.5356197666
 20
103.1882315723
 10
69.0492404412
 20
102.8285901842
 10
69.5350425105
 20
102.4884283391
 10
69.9622196864
 20
102.1893154679
 10
70.3036835204
 20
101.9502207486
 10
70.5377807628
 20
101.7863042501
 10
70.6496679942
 20
101.7079595325
  0
ARC
  5
242
330
1F
100
AcDbEntity
  8
0
  6
SLD-Durchgehend
 62
     7
370
    15
100
AcDbCircle
 10
69.1958901495
 20
105.6960932092
 30
0.0
 40
2.866889014995203
100
AcDbArc
 50
306.6520398463
 51
310.1526082952
  0
LINE
  5
243
330
1F
100
AcDbEntity
  8
0
  6
SLD-Durchgehend
 62
     7
370
    15
100
AcDbLine
 10
79.8084875006
 20
145.0996640918
 30
0.0
 11
73.8480988677
 21
145.0996640918
 31
0.0
  0
LINE
  5
244
330
1F
100
AcDbEntity
  8
0
  6
SLD-Durchgehend
 62
     7
370
    15
100
AcDbLine
 10
79.8084875006
 20
92.2996643779
 30
0.0
 11
73.8480988677
 21
92.2996643779
 31
0.0
  0
LINE
  5
245
330
1F
100
AcDbEntity
  8
0
  6
SLD-Durchgehend
 62
     7
370
    15
100
AcDbLine
 10
70.5084878738
 20
89.1393869964
 30
0.0
 11
70.5084878738
 21
88.5127466021
 31
0.0
  0
ARC
  5
246
330
1F
100
AcDbEntity
  8
0
  6
SLD-Durchgehend
 62
     7
370
    15
100
AcDbCircle
 10
79.5084874864
 20
118.6996642349
 30
0.0
 40
31.49999999999999
100
AcDbArc
 50
140.9381656697
 51
253.398450401
  0
LINE
  5
247
330
1F
100
AcDbEntity
  8
0
  6
SLD-Durchgehend
 62
     7
370
    15
100
AcDbLine
 10
55.0497978713
 20
138.549664974
 30
0.0
 11
55.8275360401
 21
138.549664974
 31
0.0
  0
LINE
  5
248
330
1F
100
AcDbEntity
  8
0
  6
SLD-Durchgehend
 62
     7
370
    15
100
AcDbLine
 10
71.5084871064
 20
148.5461052356
 30
0.0
 11
71.5084871064
 21
149.1668596713
 31
0.0
  0
LINE
  5
249
330
1F
100
AcDbEntity
  8
0
  6
SLD-Durchgehend
 62
     7
370
    15
100
AcDbLine
 10
59.6584867473
 20
143.15835385
 30
0.0
 11
59.6584867473
 21
142.3806156812
 31
0.0
  0
ARC
  5
24A
330
1F
100
AcDbEntity
  8
0
  6
SLD-Durchgehend
 62
     7
370
    15
100
AcDbCircle
 10
79.5084874864
 20
118.6996642349
 30
0.0
 40
31.49999999999998
100
AcDbArc
 50
104.7124579609
 51
129.0618343303
  0
LINE
  5
24B
330
1F
100
AcDbEntity
  8
0
  6
SLD-Durchgehend
 62
     7
370
    15
100
AcDbLine
 10
87.5084878664
 20
149.1668596713
 30
0.0
 11
87.5084878664
 21
148.5461052356
 31
0.0
  0
ARC
  5
24C
330
1F
100
AcDbEntity
  8
0
  6
SLD-Durchgehend
 62
     7
370
    15
100
AcDbCircle
 10
79.5084874864
 20
118.6996642349
 30
0.0
 40
31.5
100
AcDbArc
 50
328.9972808661
 51
75.2875420391
  0
LINE
  5
24D
330
1F
100
AcDbEntity
  8
0
  6
SLD-Durchgehend
 62
     7
370
    15
100
AcDbLine
 10
87.5084878664
 20
148.5461052356
 30
0.0
 11
87.5084878664
 21
145.0996640918
 31
0.0
  0
LINE
  5
24E
330
1F
100
AcDbEntity
  8
0
  6
SLD-Durchgehend
 62
     7
370
    15
100
AcDbLine
 10
87.5084878664
 20
145.0996640918
 30
0.0
 11
85.1688761051
 21
145.0996640918
 31
0.0
  0
LINE
  5
24F
330
1F
100
AcDbEntity
  8
0
  6
SLD-Durchgehend
 62
     7
370
    15
100
AcDbLine
 10
71.5084871064
 20
145.0996640918
 30
0.0
 11
71.5084871064
 21
148.5461052356
 31
0.0
  0
LINE
  5
250
330
1F
100
AcDbEntity
  8
0
  6
SLD-Durchgehend
 62
     7
370
    15
100
AcDbLine
 10
70.5084878738
 20
92.2996643779
 30
0.0
 11
70.5084878738
 21
89.1393869964
 31
0.0
  0
LINE
  5
251
330
1F
100
AcDbEntity
  8
0
  6
SLD-Durchgehend
 62
     7
370
    15
100
AcDbLine
 10
59.6584867473
 20
142.3806156812
 30
0.0
 11
59.6584867473
 21
138.549664974
 31
0.0
  0
LINE
  5
252
330
1F
100
AcDbEntity
  8
0
  6
SLD-Durchgehend
 62
     7
370
    15
100
AcDbLine
 10
55.8275360401
 20
138.549664974
 30
0.0
 11
59.6584867473
 21
138.549664974
 31
0.0
  0
LINE
  5
253
330
1F
100
AcDbEntity
  8
0
  6
SLD-Durchgehend
 62
     7
370
    15
100
AcDbLine
 10
73.8480988677
 20
145.0996640918
 30
0.0
 11
71.5084871064
 21
145.0996640918
 31
0.0
  0
LINE
  5
254
330
1F
100
AcDbEntity
  8
0
  6
SLD-Durchgehend
 62
     7
370
    15
100
AcDbLine
 10
73.8480988677
 20
92.2996643779
 30
0.0
 11
70.5084878738
 21
92.2996643779
 31
0.0
  0
ARC
  5
255
330
1F
100
AcDbEntity
  8
0
  6
SLD-Durchgehend
 62
     7
370
    15
100
AcDbCircle
 10
79.5116343292
 20
118.7190587667
 30
0.0
 40
31.51948509549452
100
AcDbArc
 50
253.4030421033
 51
268.1761824372
  0
ARC
  5
256
330
1F
100
AcDbEntity
  8
0
  6
SLD-Durchgehend
 62
     7
370
    15
100
AcDbCircle
 10
79.5084874864
 20
118.6962375015
 30
0.0
 40
31.50331445242662
100
AcDbArc
 50
75.289124154
 51
104.710875846
  0
ARC
  5
257
330
1F
100
AcDbEntity
  8
0
  6
SLD-Durchgehend
 62
     7
370
    15
100
AcDbCircle
 10
79.5081366159
 20
118.7000151054
 30
0.0
 40
31.49950688590019
100
AcDbArc
 50
129.0617420529
 51
140.9382579471
  0
ARC
  5
258
330
1F
100
AcDbEntity
  8
0
  6
SLD-Durchgehend
 62
     7
370
    15
100
AcDbCircle
 10
79.5084874864
 20
118.6996642349
 30
0.0
 40
31.5
100
AcDbArc
 50
268.180780706
 51
270.0
  0
CIRCLE
  5
259
330
1F
100
AcDbEntity
  8
VERMASSUNG
  6
SLD-Punktstrich
100
AcDbCircle
 10
79.5084874864
 20
113.8694318582
 30
0.0
 40
39.99999999999998
  0
DIMENSION
  5
25A
330
1F
100
AcDbEntity
  8
VERMASSUNG
100
AcDbDimension
  2
_D_5
 10
34.5241566921
 20
153.8694318582
 30
0.0
 11
34.5241566921
 21
113.8694318582
 31
0.0
 70
   160
  1
%%c<>
 71
     2
 42
-1.0
  3
SLDDIMSTYLE0
100
AcDbAlignedDimension
 13
79.5084874864
 23
73.8694318582
 33
0.0
 14
79.5084874864
 24
153.8694318582
 34
0.0
 50
90.0
100
AcDbRotatedDimension
  0
INSERT
  5
270
330
1F
100
AcDbEntity
  8
VERMASSUNG
100
AcDbBlockReference
  2
SW_CENTERMARKSYMBOL_0
 10
79.5084874864
 20
118.6996642349
 30
0.0
  0
OLE2FRAME
  5
271
330
1F
100
AcDbEntity
  8
0
100
AcDbOle2Frame
 70
     2
  3
Paintbrush-Bild
 10
13.8511154363
 20
38.264191557
 30
0.0
 11
51.6290888628
 21
31.9806341108
 31
0.0
 71
     2
 72
     0
 73
     1
 90
    12928
310
80552BED0767C5B32B40DDAF6807D121434000000000000000006FFBDDFB85D0
310
4940DDAF6807D121434000000000000000006FFBDDFB85D04940416F4BD60AFB
310
3F4000000000000000002BED0767C5B32B40416F4BD60AFB3F40000000000000
310
0000000000000100000000010000010000000100000000000100000000320000
310
D0CF11E0A1B11AE1000000000000000000000000000000003E000300FEFF0900
310
0600000000000000000000000100000001000000000000000010000002000000
310
01000000FEFFFFFF0000000000000000FFFFFFFFFFFFFFFFFFFFFFFFFFFFFFFF
310
FFFFFFFFFFFFFFFFFFFFFFFFFFFFFFFFFFFFFFFFFFFFFFFFFFFFFFFFFFFFFFFF
310
FFFFFFFFFFFFFFFFFFFFFFFFFFFFFFFFFFFFFFFFFFFFFFFFFFFFFFFFFFFFFFFF
310
FFFFFFFFFFFFFFFFFFFFFFFFFFFFFFFFFFFFFFFFFFFFFFFFFFFFFFFFFFFFFFFF
310
FFFFFFFFFFFFFFFFFFFFFFFFFFFFFFFFFFFFFFFFFFFFFFFFFFFFFFFFFFFFFFFF
310
FFFFFFFFFFFFFFFFFFFFFFFFFFFFFFFFFFFFFFFFFFFFFFFFFFFFFFFFFFFFFFFF
310
FFFFFFFFFFFFFFFFFFFFFFFFFFFFFFFFFFFFFFFFFFFFFFFFFFFFFFFFFFFFFFFF
310
FFFFFFFFFFFFFFFFFFFFFFFFFFFFFFFFFFFFFFFFFFFFFFFFFFFFFFFFFFFFFFFF
310
FFFFFFFFFFFFFFFFFFFFFFFFFFFFFFFFFFFFFFFFFFFFFFFFFFFFFFFFFFFFFFFF
310
FFFFFFFFFFFFFFFFFFFFFFFFFFFFFFFFFFFFFFFFFFFFFFFFFFFFFFFFFFFFFFFF
310
FFFFFFFFFFFFFFFFFFFFFFFFFFFFFFFFFFFFFFFFFFFFFFFFFFFFFFFFFFFFFFFF
310
FFFFFFFFFFFFFFFFFFFFFFFFFFFFFFFFFFFFFFFFFFFFFFFFFFFFFFFFFFFFFFFF
310
FFFFFFFFFFFFFFFFFFFFFFFFFFFFFFFFFFFFFFFFFFFFFFFFFFFFFFFFFFFFFFFF
310
FFFFFFFFFFFFFFFFFFFFFFFFFFFFFFFFFFFFFFFFFFFFFFFFFFFFFFFFFFFFFFFF
310
FDFFFFFFFEFFFFFFFEFFFFFFFEFFFFFF05000000060000000700000008000000
310
090000000A0000000B0000000C0000000D0000000E0000000F00000010000000
310
11000000120000001300000014000000150000001600000017000000FEFFFFFF
310
FFFFFFFFFFFFFFFFFFFFFFFFFFFFFFFFFFFFFFFFFFFFFFFFFFFFFFFFFFFFFFFF
310
FFFFFFFFFFFFFFFFFFFFFFFFFFFFFFFFFFFFFFFFFFFFFFFFFFFFFFFFFFFFFFFF
310
FFFFFFFFFFFFFFFFFFFFFFFFFFFFFFFFFFFFFFFFFFFFFFFFFFFFFFFFFFFFFFFF
310
FFFFFFFFFFFFFFFFFFFFFFFFFFFFFFFFFFFFFFFFFFFFFFFFFFFFFFFFFFFFFFFF
310
FFFFFFFFFFFFFFFFFFFFFFFFFFFFFFFFFFFFFFFFFFFFFFFFFFFFFFFFFFFFFFFF
310
FFFFFFFFFFFFFFFFFFFFFFFFFFFFFFFFFFFFFFFFFFFFFFFFFFFFFFFFFFFFFFFF
310
FFFFFFFFFFFFFFFFFFFFFFFFFFFFFFFFFFFFFFFFFFFFFFFFFFFFFFFFFFFFFFFF
310
FFFFFFFFFFFFFFFFFFFFFFFFFFFFFFFFFFFFFFFFFFFFFFFFFFFFFFFFFFFFFFFF
310
FFFFFFFFFFFFFFFFFFFFFFFFFFFFFFFFFFFFFFFFFFFFFFFFFFFFFFFFFFFFFFFF
310
FFFFFFFFFFFFFFFFFFFFFFFFFFFFFFFFFFFFFFFFFFFFFFFFFFFFFFFFFFFFFFFF
310
FFFFFFFFFFFFFFFFFFFFFFFFFFFFFFFFFFFFFFFFFFFFFFFFFFFFFFFFFFFFFFFF
310
FFFFFFFFFFFFFFFFFFFFFFFFFFFFFFFFFFFFFFFFFFFFFFFFFFFFFFFFFFFFFFFF
310
FFFFFFFFFFFFFFFFFFFFFFFFFFFFFFFFFFFFFFFFFFFFFFFFFFFFFFFFFFFFFFFF
310
52006F006F007400200045006E00740072007900000000000000000000000000
310
0000000000000000000000000000000000000000000000000000000000000000
310
16000500FFFFFFFFFFFFFFFF020000000A00030000000000C000000000000046
310
000000000000000000000000206FCE6FC149D00103000000C000000000000000
310
01004F006C006500000000000000000000000000000000000000000000000000
310
0000000000000000000000000000000000000000000000000000000000000000
310
0A000200FFFFFFFFFFFFFFFFFFFFFFFF00000000000000000000000000000000
310
0000000000000000000000000000000000000000000000001400000000000000
310
010043006F006D0070004F0062006A0000000000000000000000000000000000
310
0000000000000000000000000000000000000000000000000000000000000000
310
120002010100000003000000FFFFFFFF00000000000000000000000000000000
310
0000000000000000000000000000000000000000010000004D00000000000000
310
01004F006C006500310030004E00610074006900760065000000000000000000
310
0000000000000000000000000000000000000000000000000000000000000000
310
1A000200FFFFFFFFFFFFFFFFFFFFFFFF00000000000000000000000000000000
310
0000000000000000000000000000000000000000040000002426000000000000
310
FEFFFFFF02000000FEFFFFFFFFFFFFFFFFFFFFFFFFFFFFFFFFFFFFFFFFFFFFFF
310
FFFFFFFFFFFFFFFFFFFFFFFFFFFFFFFFFFFFFFFFFFFFFFFFFFFFFFFFFFFFFFFF
310
FFFFFFFFFFFFFFFFFFFFFFFFFFFFFFFFFFFFFFFFFFFFFFFFFFFFFFFFFFFFFFFF
310
FFFFFFFFFFFFFFFFFFFFFFFFFFFFFFFFFFFFFFFFFFFFFFFFFFFFFFFFFFFFFFFF
310
FFFFFFFFFFFFFFFFFFFFFFFFFFFFFFFFFFFFFFFFFFFFFFFFFFFFFFFFFFFFFFFF
310
FFFFFFFFFFFFFFFFFFFFFFFFFFFFFFFFFFFFFFFFFFFFFFFFFFFFFFFFFFFFFFFF
310
FFFFFFFFFFFFFFFFFFFFFFFFFFFFFFFFFFFFFFFFFFFFFFFFFFFFFFFFFFFFFFFF
310
FFFFFFFFFFFFFFFFFFFFFFFFFFFFFFFFFFFFFFFFFFFFFFFFFFFFFFFFFFFFFFFF
310
FFFFFFFFFFFFFFFFFFFFFFFFFFFFFFFFFFFFFFFFFFFFFFFFFFFFFFFFFFFFFFFF
310
FFFFFFFFFFFFFFFFFFFFFFFFFFFFFFFFFFFFFFFFFFFFFFFFFFFFFFFFFFFFFFFF
310
FFFFFFFFFFFFFFFFFFFFFFFFFFFFFFFFFFFFFFFFFFFFFFFFFFFFFFFFFFFFFFFF
310
FFFFFFFFFFFFFFFFFFFFFFFFFFFFFFFFFFFFFFFFFFFFFFFFFFFFFFFFFFFFFFFF
310
FFFFFFFFFFFFFFFFFFFFFFFFFFFFFFFFFFFFFFFFFFFFFFFFFFFFFFFFFFFFFFFF
310
FFFFFFFFFFFFFFFFFFFFFFFFFFFFFFFFFFFFFFFFFFFFFFFFFFFFFFFFFFFFFFFF
310
FFFFFFFFFFFFFFFFFFFFFFFFFFFFFFFFFFFFFFFFFFFFFFFFFFFFFFFFFFFFFFFF
310
FFFFFFFFFFFFFFFFFFFFFFFFFFFFFFFFFFFFFFFFFFFFFFFFFFFFFFFFFFFFFFFF
310
0100000200000000000000000000000000000000000000000000000000000000
310
0000000000000000000000000000000000000000000000000000000000000000
310
0100FEFF030A0000FFFFFFFF0A00030000000000C00000000000004607000000
310
5042727573680007000000504272757368000700000050427275736800F439B2
310
7100000000000000000000000000000000000000000000000000000000000000
310
0000000000000000000000000000000000000000000000000000000000000000
310
0000000000000000000000000000000000000000000000000000000000000000
310
0000000000000000000000000000000000000000000000000000000000000000
310
0000000000000000000000000000000000000000000000000000000000000000
310
0000000000000000000000000000000000000000000000000000000000000000
310
0000000000000000000000000000000000000000000000000000000000000000
310
0000000000000000000000000000000000000000000000000000000000000000
310
0000000000000000000000000000000000000000000000000000000000000000
310
0000000000000000000000000000000000000000000000000000000000000000
310
0000000000000000000000000000000000000000000000000000000000000000
310
0000000000000000000000000000000000000000000000000000000000000000
310
20260000424D0E260000000000003E00000028000000B40200006E0000000100
310
01000000000000000000130B0000130B00000200000002000000000000FFFFFF
310
FFFFFFFFFFFFFFFFFFFFFFFFFFFFFFFFFFFFFFFFFFFFFFFFFFFFFFFFFFFFFFFF
310
FFFFFFFFFFFFFFFFFFFFFFFFFFFFFFFFFFFFFFFFFFFFFFFFFFFFFFFFFFFFFFFF
310
FFFFFFFFFFFFFFFFFFFFFFFFFFFFFFFFFFFFFFFFFFFFFFFFF000FFFFFFFFFFFF
310
FFFFFFFFFFFFFFFFFFFFFFFFFFFFFFFFFFFFFFFFFFFFFFFFFFFFFFFFFFFFFFFF
310
FFFFFFFFFFFFFFFFFFFFFFFFFFFFFFFFFFFFFFFFFFFFFFFFFFFFFFFFFFFFFFFF
310
FFFFFFFFFFFFFFFFFFFFFFFFFFFFFFFFF000FFFFFFFFFFFFFFFFFFFFFFFFFFFF
310
FFFFFFFFFFFFFFFFFFFFFFFFFFFFFFFFFFFFFFFFFFFFFFFFFFFFFFFFFFFFFFFF
310
FFFFFFFFFFFFFFFFFFFFFFFFFFFFFFFFFFFFFFFFFFFFFFFFFFFFFFFFFFFFFFFF
310
FFFFFFFFFFFFFFFFF000FFFFFFFFFFFFFFFFFFFFFFFFFFFFFFFFFFFFFFFFFFFF
310
FFFFFFFFFFFFFFFFFFFFFFFFFFFFFFFFFFFFFFFFFFFFFFFFFFFFFFFFFFFFFFFF
310
FFFFFFFFFFFFFFFFFFFFFFFFFFFFFFFFFFFFFFFFFFFFFFFFFFFFFFFFFFFFFFFF
310
F000FFFFFFFFFFFFFFFFFFFFFFFFFFFFFFFFFFFFFFFFFFFFFFFFFFFFFFFFFFFF
310
FFFFFFFFFFFFFFFFFFFFFFFFFFFFFFFFFFFFFFFFFFFFFFFFFFFFFFFFFFFFFFFF
310
FFFFFFFFFFFFFFFFFFFFFFFFFFFFFFFFFFFFFFFFFFFFFFFFF000FFFFFFFFFFFF
310
FFFFFFFFFFFFFFFFFFFFFFFFFFFFFFFFFFFFFFFFFFFFFFFFFFFFFFFFFFFFFFFF
310
FFFFFFFFFFFFFFFFFFFFFFFFFFFFFFFFFFFFFFFFFFFFFFFFFFFFFFFFFFFFFFFF
310
FFFFFFFFFFFFFFFFFFFFFFFFFFFFFFFFF000FFFFFFFFFFFFFFFFFFFFFFFFFFFF
310
FFFFFFFFFFFFFFFFFFFFFFFFFFFFFFFFFFFFFFFFFFFFFFFFFFFFFFFFFFFFFFFF
310
FFFFFFFFFFFFFFFFFFFFFFFFFFFFFFFFFFFFFFFFFFFFFFFFFFFFFFFFFFFFFFFF
310
FFFFFFFFFFFFFFFFF000FFFFFFFFFFFFFFFFFFFFFFFFFFFFFFFFFFFFFFFFFFFF
310
FFFFFFFFFFFFFFFFFFFFFFFFFFFFFFFFFFFFFFFFFFFFFFFFFFFFFFFFFFFFFFFF
310
FFFFFFFFFFFFFFFFFFFFFFFFFFFFFFFFFFFFFFFFFFFFFFFFFFFFFFFFFFFFFFFF
310
F000FFFFFFFFFFFFFFFFFFFFFFFFFFFFFFFFFFFFFFFFFFFFFFFFFFFFFFFFFFFF
310
FFFFFFFFFFFFFFFFFFFFFFFFFFFFFFFFFFFFFFFFFFFFFFFFFFFFFFFFFFFFFFFF
310
FFFFFFFFFFFFFFFFFFFFFFFFFFFFFFFFFFFFFFFFFFFFFFFFF000FFFFFFFFFFFF
310
FFFFFFFFFFFFFFFFFFFFFFFFFFFFFFFFFFFFFFFFFFFFFFFFFFFFFFFFFFFFFFFF
310
FFFFFFFFFFFFFFFFFFFFFFFFFFFFFFFFFFFFFFFFFFFFFFFFFFFFFFFFFFFFFFFF
310
FFFFFFFFFFFFFFFFFFFFFFFFFFFFFFFFF000FFFFFFFFFFFFFFFFFFFFFFFFFFFF
310
FFFFFFFFFFFFFFFFFFFFFFFFFFFFFFFFFFFFFFFFFFFFFFFFFFFFFFFFFFFFFFFF
310
FFFFFFFFFFFFFFFFFFFFFFFFFFFFFFFFFFFFFFFFFFFFFFFFFFFFFFFFFFFFFFFF
310
FFFFFFFFFFFFFFFFF000FFFFFFFFFFFFFFFFFFFFFFFFFFFFFFFFFFFFFFFFFFFF
310
FFFFFFFFFFFFFFFFFFFFFFFFFFFFFFFFFFFFFFFFFFFFFFFFFFFFFFFFFFFFFFFF
310
FFFFFFFFFFFFFFFFFFFFFFFFFFFFFFFFFFFFFFFFFFFFFFFFFFFFFFFFFFFFFFFF
310
F000FFFFFFFFFFFFFFFFFFFFFFFFFFFFFFFFFFFFFFFFFFFFFFFFFFFFFFFFFFFF
310
FFFFFFFFFFFFFFFFFFFFFFFFFFFFFFFFFFFFFFFFFFFFFFFFFFFFFFFFFFFFFFFF
310
FFFFFFFFFFFFFFFFFFFFFFFFFFFFFFFFFFFFFFFFFFFFFFFFF000FFFFFFFFFFFF
310
FFFFFFFFFFFFFFFFFFFFFFFFFFFFFFFFFFFFFFFFFFFFFFFFFFFFFFFFFFFFFFFF
310
FFFFFFFFFFFFFFFFFFFFFFFFFFFFFFFFFFFFFFFFFFFFFFFFFFFFFFFFFFFFFFFF
310
FFFFFFFFFFFFFFFFFFFFFFFFFFFFFFFFF000FFFFFFFFFFFFFFFFFFFFFFFFFFFF
310
FFFFFFFFFFFFFFFFFFFFFFFFFFFFFFFFFFFFFFFFFFFFFFFFFFFFFFFFFFFFFFFF
310
FFFFFFFFFFFFFFFFFFFFFFFFFFFFFFFFFFFFFFFFFFFFFFFFFFFFFFFFFFFFFFFF
310
FFFFFFFFFFFFFFFFF000FFFFFFFFFFFFFFFFFFFFFFFFFFFFFFFFFFFFFFFFFFFF
310
FFFFFFFFFFFFFFFFFFFFFFFFFFFFFFFFFFFFFFFFFFFFFFFFFFFFFFFFFFFFFFFF
310
FFFFFFFFFFFFFFFFFFFFFFFFFFFFFFFFFFFFFFFFFFFFFFFFFFFFFFFFFFFFFFFF
310
F000FFFFFFFFFFFFFFFFFFFFFFFFFFFFFFFFFFFFFFFFFFFFFFFFFFFFFFFFFFFF
310
FFFFFFFFFFFFFFFFFFFFFFFFFFFFFFFFFFFFFFFFFFFFFFFFFFFFFFFFFFFFFFFF
310
FFFFFFFFFFFFFFFFFFFFFFFFFFFFFFFFFFFFFFFFFFFFFFFFF000FFFFFFFFFFFF
310
FFFFFFFFFFFFFFFFFFFFFFFFFFFFFFFFFFFFFFFFFFFFFFFFFFFFFFFFFFFFFFFF
310
FFFFFFFFFFFFFFFFFFFFFFFFFFFFFFFFFFFFFFFFFFFFFFFFFFFFFFFFFFFFFFFF
310
FFFFFFFFFFFFFFFFFFFFFFFFFFFFFFFFF000FFFFFFFFFFFFFFFFFFFFFFFFFFFF
310
FFFFFFFFFFFFFFFFFFFFFFFFFFFFFFFFFFFFFFFFFFFFFFFFFFFFFFFFFFFFFFFF
310
FFFFFFFFFFFFFFFFFFFFFFFFFFFFFFFFFFFFFFFFFFFFFFFFFFFFFFFFFFFFFFFF
310
FFFFFFFFFFFFFFFFF000FFFFF80003FFFFFFFFFFFFFFFFFFFFFFFFFFFFFFFFFF
310
FFFFF00007FFFFFFFFFF00007FFFFFF800000000000000007FFFFFFFFFFFFFFF
310
FFFFFFFC001FFFFFFFFFFFFFFC001FFFFFFFFFFFFFFFFFFFFFFFFFFE0007FFFF
310
F000FFFF8000007FFFFFFFF8000FFFFFC0007FFFFF80007FFFFF0000007FFFFF
310
FFF8000007FFFFF800000000000000007FFFFFF0001FFFFFFFFFFFC00001FFFF
310
FFFFFFFFC00001FFFFFFFF000000000003FFFFE000007FFFF000FFFE0000000F
310
FFFFFFF0000FFFFF80007FFFFF80007FFFFC0000001FFFFFFFC0000001FFFFF8
310
00000000000000007FFFFFF0001FFFFFFFFFFE0000003FFFFFFFFFFE0000003F
310
FFFFFF000000000003FFFF0000000FFFF000FFF800000003FFFFFFF00007FFFF
310
80007FFFFF80007FFFF000000007FFFFFF000000003FFFF80000000000000000
310
7FFFFFF0001FFFFFFFFFF80000000FFFFFFFFFF80000000FFFFFFF0000000000
310
03FFFC00000003FFF000FFE000000000FFFFFFF00007FFFF80003FFFFF80007F
310
FFC000000001FFFFFC000000001FFFF800000000000000007FFFFFF0001FFFFF
310
FFFFE000000003FFFFFFFFE000000003FFFFFF000000000003FFF000000000FF
310
F000FF80000000007FFFFFF00007FFFF80003FFFFF80007FFF8000000000FFFF
310
F80000000007FFF800000000000000007FFFFFF0001FFFFFFFFFC000000001FF
310
FFFFFFC000000001FFFFFF000000000003FFC0000000007FF000FF0000000000
310
3FFFFFE00007FFFF00003FFFFF80007FFE00000000003FFFF00000000003FFF8
310
00000000000000007FFFFFF0001FFFFFFFFF8000000000FFFFFFFF8000000000
310
FFFFFF000000000003FF80000000003FF000FE00000000001FFFFFE00003FFFF
310
00003FFFFF80007FFC00000000001FFFE00000000001FFF8000001FFFE000000
310
7FFFFFF0001FFFFFFFFE00000000003FFFFFFE00000000003FFFFF0000000000
310
03FF00000000001FF000FC00000000000FFFFFE00003FFFF00001FFFFF80007F
310
F800000000001FFFC00000000000FFF8000001FFFE0000007FFFFFF0001FFFFF
310
FFFC00000000001FFFFFFC00000000001FFFFF000000000003FE00000000000F
310
F000F8000000000007FFFFE00003FFFF00001FFFFF80007FF800000000000FFF
310
800000000000FFF8000001FFFE0000007FFFFFF0001FFFFFFFF800000000000F
310
FFFFF800000000000FFFFF000000000003FC000000000007F000F80000000000
310
03FFFFC00003FFFE00001FFFFF80007FF0000000000007FF0000000000007FF8
310
000001FFFE0000007FFFFFF0001FFFFFFFF0000000000007FFFFF00000000000
310
07FFFF000000000003F8000000000003F000F0000000000003FFFFC00001FFFE
310
00001FFFFF80007FE0000000000007FE0000000000003FF8000001FFFE000000
310
7FFFFFF0001FFFFFFFF0000000000007FFFFF0000000000007FFFF0000000000
310
03F800001F800003F000E00001FFF00001FFFFC00001FFFE00000FFFFF80007F
310
E00001FFE00003FE00001FFF00003FF8000001FFFE0000007FFFFFF0001FFFFF
310
FFE000003E000003FFFFE000003E000003FFFF000000000003F00001FFF80001
310
F000E00007FFFC0001FFFFC00001FFFE00000FFFFF80007FC0000FFFFC0003FC
310
0000FFFFC0001FF8000001FFFE0000007FFFFFF0001FFFFFFFC00003FFE00001
310
FFFFC00003FFE00001FFFF0001FFFFFFFFF00007FFFE0001F000E0000FFFFF00
310
00FFFF800001FFFC00000FFFFF80007FC0001FFFFE0001FC0001FFFFE0001FF8
310
000001FFFE0000007FFFFFF0001FFFFFFF80000FFFF80000FFFF80000FFFF800
310
00FFFF0003FFFFFFFFE0000FFFFF8000F000C0003FFFFF8000FFFF800000FFFC
310
000007FFFF80007F80003FFFFF0001FC0003FFFFF0001FF8000001FFFE000000
310
7FFFFFF0001FFFFFFF80003FFFFE0000FFFF80003FFFFE0000FFFF0003FFFFFF
310
FFE0003FFFFF8000F000C0003FFFFF8000FFFF800000FFFC000007FFFF80007F
310
80007FFFFF8001F80007FFFFF8000FF8000001FFFE0000007FFFFFF0001FFFFF
310
FF00007FFFFF00007FFF00007FFFFF00007FFF0003FFFFFFFFE0003FFFFFC000
310
F000C0007FFFFFC000FFFF000000FFFC000007FFFF80007F8000FFFFFF8000F8
310
000FFFFFF8000FF8000001FFFE0000007FFFFFF0001FFFFFFF0000FFFFFF8000
310
7FFF0000FFFFFF80007FFF0003FFFFFFFFC0007FFFFFC00070008000FFFFFFC0
310
00FFFF000000FFF8000007FFFF80007F8000FFFFFF8000F8000FFFFFF8000FF8
310
000001FFFE0000007FFFFFF0001FFFFFFE0001FFFFFFC0003FFE0001FFFFFFC0
310
003FFF0003FFFFFFFFC0007FFFFFE00070008000FFFFFFC0007FFF0000007FF8
310
000003FFFF80007F0001FFFFFF8000F8000FFFFFF8000FF8000001FFFE000000
310
7FFFFFF0001FFFFFFE0001FFFFFFC0003FFE0001FFFFFFC0003FFF0003FFFFFF
310
FFC000FFFFFFE00070008000FFFFFFC0007FFF0000007FF8000003FFFF80007F
310
0001FFFFFF8000F8001FFFFFF8000FF8000001FFFE0000007FFFFFF0001FFFFF
310
FE0003FFFFFFE0003FFE0003FFFFFFE0003FFF0003FFFFFFFFC000FFFFFFE000
310
70008000FFFFFFC0007FFE0000007FF8000003FFFF80007F0001FFFFFF8000F0
310
001FFFFFF8000FF8000001FFFE0000007FFFFFF0001FFFFFFC0003FFFFFFE000
310
1FFC0003FFFFFFE0001FFF0003FFFFFFFFC000FFFFFFC00070008000FFFFFF80
310
007FFE0000007FF0000003FFFF80007F0001FFFFFF0000F0001FFFFFF8000FF8
310
000001FFFE0000007FFFFFF0001FFFFFFC0007FFFFFFF0001FFC0007FFFFFFF0
310
001FFF0003FFFFFFFFC000FFFFFFC00070008001FFFFFF0000FFFE0000003FF0
310
000001FFFF80007F0001FFFFFF0000F8001FFFFFF0000FF8000001FFFE000000
310
7FFFFFF0001FFFFFFC0007FFFFFFF0001FFC0007FFFFFFF0001FFF0003FFFFFF
310
FFC001FFFFFF80007000FFFFFFFFFE0000FFFE0008003FF0008001FFFF80007F
310
FFFFFFFFFC0000FFFFFFFFFFE0000FF8000001FFFE0000007FFFFFF0001FFFFF
310
F8000FFFFFFFF8000FF8000FFFFFFFF8000FFF0003FFFFFFFFFFFFFFFFFF0000
310
7000FFFFFFFFFC0000FFFC0008003FF0008001FFFF80007FFFFFFFFFF80001FF
310
FFFFFFFF80000FF8000001FFFE0000007FFFFFF0001FFFFFF8000FFFFFFFF800
310
0FF8000FFFFFFFF8000FFF0003FFFFFFFFFFFFFFFFFE0000F000FFFFFFFFE000
310
00FFFC000C003FE000C001FFFF80007FFFFFFFFFC00001FFFFFFFFFE00001FF8
310
000001FFFE0000007FFFFFF0001FFFFFF8000FFFFFFFF8000FF8000FFFFFFFF8
310
000FFF0003FFFFFFFFFFFFFFFFF00000F000FFFFFFFE000001FFFC000C001FE0
310
00C000FFFF80007FFFFFFFFE000001FFFFFFFFE000001FF80FFFFFFFFFFFFFC0
310
7FFFFFF0001FFFFFF8000FFFFFFFF8000FF8000FFFFFFFF8000FFF0003FFFFFF
310
FFFFFFFFFF800000F000FFFFFFC0000001FFFC001C001FE001C000FFFF80007F
310
FFFFFF80000003FFFFFFF80000001FF80FFFFFFFFFFFFFC07FFFFFF0001FFFFF
310
F8001FFFFFFFFC000FF8001FFFFFFFFC000FFF0003FFFFFFFFFFFFFFF0000001
310
F000FFFFF800000001FFF8001C001FE001C000FFFF80007FFFFFF800000003FF
310
FFFF800000003FF80FFFFFFFFFFFFFC07FFFFFF0001FFFFFF8001FFFFFFFFC00
310
0FF8001FFFFFFFFC000FFF0003FFFFFFFFFFFFFE00000001F000FFFFC0000000
310
03FFF8001E001FC001E000FFFF80007FFFFF8000000007FFFFFC000000003FF8
310
0FFFFFFFFFFFFFC07FFFFFF0001FFFFFF8001FFFFFFFFC000FF8001FFFFFFFFC
310
000FFF0003FFFFFFFFFFFFE000000003F000FFFE0000000007FFF8001E000FC0
310
01E0007FFF80007FFFFE0000000007FFFFE0000000007FF80FFFFFFFFFFFFFC0
310
7FFFFFF0001FFFFFF0001FFFFFFFFC0007F0001FFFFFFFFC0007FF0003FFFFFF
310
FFFFFF0000000003F000FFF80000000007FFF8001E000FC003E0007FFF80007F
310
FFF0000000000FFFFF8000000000FFF80FFFFFFFFFFFFFC07FFFFFF0001FFFFF
310
F0001FFFFFFFFC0007F0001FFFFFFFFC0007FF0003FFFFFFFFFFFC0000000007
310
F000FFE0000000000FFFF0003E000FC003E0007FFF80007FFFC0000000001FFF
310
FE0000000001FFF80FFFFFFFFFFFFFC07FFFFFF0001FFFFFF0001FFFFFFFFC00
310
07F0001FFFFFFFFC0007FF0003FFFFFFFFFFF0000000000FF000FFC000000000
310
1FFFF0003F000F8003F0003FFF80007FFF80000000003FFFF80000000003FFF8
310
0FFFFFFFFFFFFFC07FFFFFF0001FFFFFF0001FFFFFFFFC0007F0001FFFFFFFFC
310
0007FF0003FFFFFFFFFFE0000000001FF000FF00000000007FFFF0003F000780
310
03F0003FFF80007FFF00000000007FFFF00000000007FFF80FFFFFFFFFFFFFC0
310
7FFFFFF0001FFFFFF0001FFFFFFFFC0007F0001FFFFFFFFC0007FF0003FFFFFF
310
FFFF80000000007FF000FE0000000000FFFFE0003F00078007F0003FFF80007F
310
FE0000000001FFFFE0000000001FFFF80FFFFFFFFFFFFFC07FFFFFF0001FFFFF
310
F0001FFFFFFFFC0007F0001FFFFFFFFC0007FF0003FFFFFFFFFF0000000000FF
310
F000FC0000000003FFFFE0007F00078007F0003FFF80007FFC0000000007FFFF
310
C0000000007FFFF80FFFFFFFFFFFFFC07FFFFFF0001FFFFFF8001FFFFFFFFC00
310
0FF8001FFFFFFFFC000FFF0003FFFFFFFFFE0000000003FFF000FC000000000F
310
FFFFE0007F80070007F8001FFF80007FF8000000001FFFFF8000000001FFFFF8
310
0FFFFFFFFFFFFFC07FFFFFF0001FFFFFF8001FFFFFFFFC000FF8001FFFFFFFFC
310
000FFF0003FFFFFFFFFC000000000FFFF000F8000000007FFFFFE0007F800700
310
07F8001FFF80007FF000000000FFFFFF800000000FFFFFF80FFFFFFFFFFFFFC0
310
7FFFFFF0001FFFFFF8000FFFFFFFF8000FF8000FFFFFFFF8000FFF0003FFFFFF
310
FFFC000000007FFFF000F800000007FFFFFFC0007F8003000FF8001FFF80007F
310
F000000007FFFFFF000000007FFFFFF80FFFFFFFFFFFFFC07FFFFFF0001FFFFF
310
F8000FFFFFFFF8000FF8000FFFFFFFF8000FFF0003FFFFFFFFF80000000FFFFF
310
F000F0000000FFFFFFFFC000FF8003000FF8001FFF80007FE0000000FFFFFFFF
310
0000000FFFFFFFF8000001FFFE0000007FFFFFF0001FFFFFF8000FFFFFFFF800
310
0FF8000FFFFFFFF8000FFF0003FFFFFFFFF8000000FFFFFFF000F000000FFFFF
310
FFFFC000FFC002000FF8000FFF80007FE000001FFFFFFFFE000001FFFFFFFFF8
310
000001FFFE0000007FFFFFF0001FFFFFF8000FFFFFFFF8000FF8000FFFFFFFF8
310
000FFF0003FFFFFFFFF000001FFFFFFFF000E00000FFFFFFFFFFC000FFC00200
310
0FFC000FFF80007FE00001FFFFFFFFFE00001FFFFFFFFFF8000001FFFE000000
310
7FFFFFF0001FFFFFFC000FFFFFFFF8001FFC000FFFFFFFF8001FFF0003FFFFFF
310
FFF00001FFFFFFFFF000E00007FFFFFFFFFF8000FFC000001FFC000FFF80007F
310
C0000FFFFFFFFFFE0000FFFFFFFFFFF8000001FFFE0000007FFFFFF0001FFFFF
310
FC0007FFFFFFF0001FFC0007FFFFFFF0001FFF0003FFFFFFFFF00007FFFFFFFF
310
F000E0001FFFFFFFFFFF8000FFC000001FFC000FFF80007FC0003FFFFFFFFFFE
310
0001FFFFFFFFFFF8000001FFFE0000007FFFFFF0001FFFFFFC0007FFFFFFF000
310
1FFC0007FFFFFFF0001FFF0003FFFFFFFFF0001FFFFFFFFFF000E0003FFFFF00
310
03FF8001FFE000001FFC0007FF80007FC0007FFFFF0007FC0003FFFFF0003FF8
310
000001FFFE0000007FFFFFF0001FFFFFFC0003FFFFFFE0001FFC0003FFFFFFE0
310
001FFF0003FFFFFFFFF0003FFFFFFFFFF000E0003FFFFF0001FF8001FFE00000
310
1FFE0007FF80007FC0007FFFFE0003FC0007FFFFE0003FF8000001FFFE000000
310
7FFFFFF0001FFFFFFE0003FFFFFFE0003FFE0003FFFFFFE0003FFF0003FFFFFF
310
FFF0003FFFFF8001F000E0003FFFFF0001FF0001FFE000001FFE0007FF80007F
310
C0007FFFFE0003FC0007FFFFE0003FF8000001FFFE0000007FFFFFF0001FFFFF
310
FE0001FFFFFFC0003FFE0001FFFFFFC0003FFF0003FFFFFFFFF0003FFFFF0001
310
F000E0003FFFFF0003FF0001FFE000003FFE0007FF80007FC0007FFFFE0003FC
310
0007FFFFE0003FF8000001FFFE0000007FFFFFF0001FFFFFFF0001FFFFFFC000
310
7FFF0001FFFFFFC0007FFF0003FFFFFFFFF0003FFFFF0001F000E0003FFFFE00
310
03FF0003FFF000003FFE0003FF80007FC0007FFFFC0003FE0007FFFFE0003FF8
310
000001FFFE0000007FFFFFF0001FFFFFFF0000FFFFFF80007FFF0000FFFFFF80
310
007FFF0003FFFFFFFFF0003FFFFF0001F000E0003FFFFE0003FF0003FFF00000
310
3FFF0003FF80007FC0007FFFFC0007FE0007FFFFC0003FF8000001FFFE000000
310
7FFFFFF0001FFFFFFF80007FFFFF0000FFFF80007FFFFF0000FFFF0003FFFFFF
310
FFF0003FFFFF0003F000E0003FFFFC0003FE0003FFF000003FFF0003FF80007F
310
E0003FFFF80007FE0003FFFFC0007FF8000001FFFE0000007FFFFFF0001FFFFF
310
FF80003FFFFE0000FFFF80003FFFFE0000FFFF0003FFFFFFFFF0001FFFFE0003
310
F000F0001FFFF80003FE0003FFF000007FFF0001FF80007FE0003FFFF00007FE
310
0001FFFF80007FF8000001FFFE0000007FFFFFF0001FFFFFFFC0000FFFF80001
310
FFFFC0000FFFF80001FFFF0003FFFFFFFFF0001FFFFC0003F000F0000FFFF000
310
07FE0007FFF800007FFF0001FF80007FE0001FFFE00007FF0000FFFE00007FF8
310
000001FFFE0000007FFFFFF0001FFFFFFFC00003FFE00001FFFFC00003FFE000
310
01FFFF0003FFFFFFFFF8000FFFF80003F000F00003FFC00007FC0007FFF80000
310
7FFF8001FF80007FF00007FF80000FFF00007FF80000FFF8000001FFFE000000
310
7F80000000000001FFE000003E000003FFFFE000003E000003FFFF0003FFFFFF
310
FFF80003FFE00007F000F800000000000FFC0007FFF800007FFF8001FF80007F
310
F000000000000FFF000000000000FFF8000001FFFE0000007F80000000000001
310
FFF0000000000007FFFFF0000000000007FFFF0003FFFFFFFFFC00007E000007
310
F000F800000000000FFC0007FFF80000FFFF8000FF80007FF800000000001FFF
310
800000000001FFF8000001FFFE0000007F80000000000001FFF800000000000F
310
FFFFF800000000000FFFFF0003FFFFFFFFFC00000000000FF000FC0000000000
310
1FFC0007FFFC0000FFFF8000FF80007FF800000000003FFFC00000000001FFF8
310
000001FFFE0000007F80000000000001FFF800000000000FFFFFF80000000000
310
0FFFFF0003FFFFFFFFFE00000000001FF000FE00000000003FF8000FFFFC0000
310
FFFF8000FF80007FFC00000000003FFFC00000000003FFF8000001FFFE000000
310
7F80000000000001FFFC00000000001FFFFFFC00000000001FFFFF0003FFFFFF
310
FFFF00000000001FF000FF00000000003FF8000FFFFC0000FFFFC000FF80007F
310
FE00000000007FFFE00000000007FFF8000001FFFE0000007F80000000000001
310
FFFE00000000003FFFFFFE00000000003FFFFF0003FFFFFFFFFF80000000003F
310
F000FF80000000007FF8000FFFFC0001FFFFC0007F80007FFF0000000000FFFF
310
F0000000000FFFF800000000000000007F80000000000001FFFF8000000000FF
310
FFFFFF8000000000FFFFFF0003FFFFFFFFFFC0000000007FF000FFC000000000
310
FFF8000FFFFE0001FFFFC0007F80007FFF8000000001FFFFF8000000001FFFF8
310
00000000000000007F80000000000001FFFFC000000001FFFFFFFFC000000001
310
FFFFFF0003FFFFFFFFFFE000000000FFF000FFE000000003FFF0001FFFFE0001
310
FFFFC0007F80007FFFC000000007FFFFFE000000003FFFF80000000000000000
310
7F80000000000001FFFFE000000003FFFFFFFFE000000003FFFFFF0003FFFFFF
310
FFFFF000000003FFF000FFF80000000FFFF0001FFFFE0001FFFFE0007F80007F
310
FFF00000000FFFFFFF00000000FFFFF800000000000000007F80000000000001
310
FFFFF80000000FFFFFFFFFF80000000FFFFFFF0003FFFFFFFFFFFC0000000FFF
310
F000FFFE0000003FFFF0001FFFFE0003FFFFE0003F80007FFFFC0000003FFFFF
310
FFC0000003FFFFF800000000000000007F80000000000001FFFFFE0000003FFF
310
FFFFFFFE0000003FFFFFFF0003FFFFFFFFFFFF0000003FFFF000FFFF800000FF
310
FFF0001FFFFF0003FFFFE0003F80007FFFFF000001FFFFFFFFF800001FFFFFF8
310
00000000000000007F80000000000001FFFFFFC00001FFFFFFFFFFFFC00001FF
310
FFFFFF0003FFFFFFFFFFFFC00000FFFFF000FFFFF8000FFFFFFFFFFFFFFFFFFF
310
FFFFFFFFFFFFFFFFFFFFF0001FFFFFFFFFFF0000FFFFFFF80000000000000000
310
7FFFFFFFFFFFFFFFFFFFFFFC001FFFFFFFFFFFFFFC001FFFFFFFFFFFFFFFFFFF
310
FFFFFFFC001FFFFFF000FFFFFFFFFFFFFFFFFFFFFFFFFFFFFFFFFFFFFFFFFFFF
310
FFFFFFFFFFFFFFFFFFFFFFFFFFFFFFFFFFFFFFFFFFFFFFFFFFFFFFFFFFFFFFFF
310
FFFFFFFFFFFFFFFFFFFFFFFFFFFFFFFFFFFFFFFFFFFFFFFFFFFFFFFFFFFFFFFF
310
F000FFFFFFFFFFFFFFFFFFFFFFFFFFFFFFFFFFFFFFFFFFFFFFFFFFFFFFFFFFFF
310
FFFFFFFFFFFFFFFFFFFFFFFFFFFFFFFFFFFFFFFFFFFFFFFFFFFFFFFFFFFFFFFF
310
FFFFFFFFFFFFFFFFFFFFFFFFFFFFFFFFFFFFFFFFFFFFFFFFF000FFFFFFFFFFFF
310
FFFFFFFFFFFFFFFFFFFFFFFFFFFFFFFFFFFFFFFFFFFFFFFFFFFFFFFFFFFFFFFF
310
FFFFFFFFFFFFFFFFFFFFFFFFFFFFFFFFFFFFFFFFFFFFFFFFFFFFFFFFFFFFFFFF
310
FFFFFFFFFFFFFFFFFFFFFFFFFFFFFFFFF000FFFFFFFFFFFFFFFFFFFFFFFFFFFF
310
FFFFFFFFFFFFFFFFFFFFFFFFFFFFFFFFFFFFFFFFFFFFFFFFFFFFFFFFFFFFFFFF
310
FFFFFFFFFFFFFFFFFFFFFFFFFFFFFFFFFFFFFFFFFFFFFFFFFFFFFFFFFFFFFFFF
310
FFFFFFFFFFFFFFFFF000FFFFFFFFFFFFFFFFFFFFFFFFFFFFFFFFFFFFFFFFFFFF
310
FFFFFFFFFFFFFFFFFFFFFFFFFFFFFFFFFFFFFFFFFFFFFFFFFFFFFFFFFFFFFFFF
310
FFFFFFFFFFFFFFFFFFFFFFFFFFFFFFFFFFFFFFFFFFFFFFFFFFFFFFFFFFFFFFFF
310
F000FFFFFFFFFFFFFFFFFFFFFFFFFFFFFFFFFFFFFFFFFFFFFFFFFFFFFFFFFFFF
310
FFFFFFFFFFFFFFFFFFFFFFFFFFFFFFFFFFFFFFFFFFFFFFFFFFFFFFFFFFFFFFFF
310
FFFFFFFFFFFFFFFFFFFFFFFFFFFFFFFFFFFFFFFFFFFFFFFFF000FFFFFFFFFFFF
310
FFFFFFFFFFFFFFFFFFFFFFFFFFFFFFFFFFFFFFFFFFFFFFFFFFFFFFFFFFFFFFFF
310
FFFFFFFFFFFFFFFFFFFFFFFFFFFFFFFFFFFFFFFFFFFFFFFFFFFFFFFFFFFFFFFF
310
FFFFFFFFFFFFFFFFFFFFFFFFFFFFFFFFF000FFFFFFFFFFFFFFFFFFFFFFFFFFFF
310
FFFFFFFFFFFFFFFFFFFFFFFFFFFFFFFFFFFFFFFFFFFFFFFFFFFFFFFFFFFFFFFF
310
FFFFFFFFFFFFFFFFFFFFFFFFFFFFFFFFFFFFFFFFFFFFFFFFFFFFFFFFFFFFFFFF
310
FFFFFFFFFFFFFFFFF000FFFFFFFFFFFFFFFFFFFFFFFFFFFFFFFFFFFFFFFFFFFF
310
FFFFFFFFFFFFFFFFFFFFFFFFFFFFFFFFFFFFFFFFFFFFFFFFFFFFFFFFFFFFFFFF
310
FFFFFFFFFFFFFFFFFFFFFFFFFFFFFFFFFFFFFFFFFFFFFFFFFFFFFFFFFFFFFFFF
310
F000FFFFFFFFFFFFFFFFFFFFFFFFFFFFFFFFFFFFFFFFFFFFFFFFFFFFFFFFFFFF
310
FFFFFFFFFFFFFFFFFFFFFFFFFFFFFFFFFFFFFFFFFFFFFFFFFFFFFFFFFFFFFFFF
310
FFFFFFFFFFFFFFFFFFFFFFFFFFFFFFFFFFFFFFFFFFFFFFFFF000FFFFFFFFFFFF
310
FFFFFFFFFFFFFFFFFFFFFFFFFFFFFFFFFFFFFFFFFFFFFFFFFFFFFFFFFFFFFFFF
310
FFFFFFFFFFFFFFFFFFFFFFFFFFFFFFFFFFFFFFFFFFFFFFFFFFFFFFFFFFFFFFFF
310
FFFFFFFFFFFFFFFFFFFFFFFFFFFFFFFFF000FFFFFFFFFFFFFFFFFFFFFFFFFFFF
310
FFFFFFFFFFFFFFFFFFFFFFFFFFFFFFFFFFFFFFFFFFFFFFFFFFFFFFFFFFFFFFFF
310
FFFFFFFFFFFFFFFFFFFFFFFFFFFFFFFFFFFFFFFFFFFFFFFFFFFFFFFFFFFFFFFF
310
FFFFFFFFFFFFFFFFF000FFFFFFFFFFFFFFFFFFFFFFFFFFFFFFFFFFFFFFFFFFFF
310
FFFFFFFFFFFFFFFFFFFFFFFFFFFFFFFFFFFFFFFFFFFFFFFFFFFFFFFFFFFFFFFF
310
FFFFFFFFFFFFFFFFFFFFFFFFFFFFFFFFFFFFFFFFFFFFFFFFFFFFFFFFFFFFFFFF
310
F000FFFFFFFFFFFFFFFFFFFFFFFFFFFFFFFFFFFFFFFFFFFFFFFFFFFFFFFFFFFF
310
FFFFFFFFFFFFFFFFFFFFFFFFFFFFFFFFFFFFFFFFFFFFFFFFFFFFFFFFFFFFFFFF
310
FFFFFFFFFFFFFFFFFFFFFFFFFFFFFFFFFFFFFFFFFFFFFFFFF000FFFFFFFFFFFF
310
FFFFFFFFFFFFFFFFFFFFFFFFFFFFFFFFFFFFFFFFFFFFFFFFFFFFFFFFFFFFFFFF
310
FFFFFFFFFFFFFFFFFFFFFFFFFFFFFFFFFFFFFFFFFFFFFFFFFFFFFFFFFFFFFFFF
310
FFFFFFFFFFFFFFFFFFFFFFFFFFFFFFFFF000FFFFFFFFFFFFFFFFFFFFFFFFFFFF
310
FFFFFFFFFFFFFFFFFFFFFFFFFFFFFFFFFFFFFFFFFFFFFFFFFFFFFFFFFFFFFFFF
310
FFFFFFFFFFFFFFFFFFFFFFFFFFFFFFFFFFFFFFFFFFFFFFFFFFFFFFFFFFFFFFFF
310
FFFFFFFFFFFFFFFFF000FFFFFFFFFFFFFFFFFFFFFFFFFFFFFFFFFFFFFFFFFFFF
310
FFFFFFFFFFFFFFFFFFFFFFFFFFFFFFFFFFFFFFFFFFFFFFFFFFFFFFFFFFFFFFFF
310
FFFFFFFFFFFFFFFFFFFFFFFFFFFFFFFFFFFFFFFFFFFFFFFFFFFFFFFFFFFFFFFF
310
F000FFFFFFFFFFFFFFFFFFFFFFFFFFFFFFFFFFFFFFFFFFFFFFFFFFFFFFFFFFFF
310
FFFFFFFFFFFFFFFFFFFFFFFFFFFFFFFFFFFFFFFFFFFFFFFFFFFFFFFFFFFFFFFF
310
FFFFFFFFFFFFFFFFFFFFFFFFFFFFFFFFFFFFFFFFFFFFFFFFF000FFFFFFFFFFFF
310
FFFFFFFFFFFFFFFFFFFFFFFFFFFFFFFFFFFFFFFFFFFFFFFFFFFFFFFFFFFFFFFF
310
FFFFFFFFFFFFFFFFFFFFFFFFFFFFFFFFFFFFFFFFFFFFFFFFFFFFFFFFFFFFFFFF
310
FFFFFFFFFFFFFFFFFFFFFFFFFFFFFFFFF000FFFFFFFFFFFFFFFFFFFFFFFFFFFF
310
FFFFFFFFFFFFFFFFFFFFFFFFFFFFFFFFFFFFFFFFFFFFFFFFFFFFFFFFFFFFFFFF
310
FFFFFFFFFFFFFFFFFFFFFFFFFFFFFFFFFFFFFFFFFFFFFFFFFFFFFFFFFFFFFFFF
310
FFFFFFFFFFFFFFFFF000FFFFFFFFFFFFFFFFFFFFFFFFFFFFFFFFFFFFFFFFFFFF
310
FFFFFFFFFFFFFFFFFFFFFFFFFFFFFFFFFFFFFFFFFFFFFFFFFFFFFFFFFFFFFFFF
310
FFFFFFFFFFFFFFFFFFFFFFFFFFFFFFFFFFFFFFFFFFFFFFFFFFFFFFFFFFFFFFFF
310
F000FFFFFFFFFFFFFFFFFFFFFFFFFFFFFFFFFFFFFFFFFFFFFFFFFFFFFFFFFFFF
310
FFFFFFFFFFFFFFFFFFFFFFFFFFFFFFFFFFFFFFFFFFFFFFFFFFFFFFFFFFFFFFFF
310
FFFFFFFFFFFFFFFFFFFFFFFFFFFFFFFFFFFFFFFFFFFFFFFFF000FFFFFFFFFFFF
310
FFFFFFFFFFFFFFFFFFFFFFFFFFFFFFFFFFFFFFFFFFFFFFFFFFFFFFFFFFFFFFFF
310
FFFFFFFFFFFFFFFFFFFFFFFFFFFFFFFFFFFFFFFFFFFFFFFFFFFFFFFFFFFFFFFF
310
FFFFFFFFFFFFFFFFFFFFFFFFFFFFFFFFF0000000000000000000000000000000
310
0000000000000000000000000000000000000000000000000000000000000000
310
0000000000000000000000000000000000000000000000000000000000000000
310
0000000000000000000000000000000000000000000000000000000000000000
310
0000000000000000000000000000000000000000000000000000000000000000
310
0000000000000000000000000000000000000000000000000000000000000000
310
0000000000000000000000000000000000000000000000000000000000000000
310
0000000000000000000000000000000000000000000000000000000000000000
310
0000000000000000000000000000000000000000000000000000000000000000
310
0000000000000000000000000000000000000000000000000000000000000000
310
0000000000000000000000000000000000000000000000000000000000000000
310
0000000000000000000000000000000000000000000000000000000000000000
310
0000000000000000000000000000000000000000000000000000000000000000
310
0000000000000000000000000000000000000000000000000000000000000000
310
0000000000000000000000000000000000000000000000000000000000000000
310
0000000000000000000000000000000000000000000000000000000000000000
  1
OLE
  0
ENDSEC
  0
SECTION
  2
OBJECTS
  0
DICTIONARY
  5
C
330
0
100
AcDbDictionary
281
     1
  3
ACAD_GROUP
350
D
  3
ACAD_LAYOUT
350
1A
  3
ACAD_MLINESTYLE
350
17
  3
ACAD_PLOTSETTINGS
350
19
  3
ACAD_PLOTSTYLENAME
350
E
  0
DICTIONARY
  5
D
102
{ACAD_REACTORS
330
C
102
}
330
C
100
AcDbDictionary
281
     1
  0
DICTIONARY
  5
1A
102
{ACAD_REACTORS
330
C
102
}
330
C
100
AcDbDictionary
281
     1
  3
Layout1
350
1E
  3
Layout2
350
26
  3
Model
350
22
  0
DICTIONARY
  5
17
102
{ACAD_REACTORS
330
C
102
}
330
C
100
AcDbDictionary
281
     1
  3
Standard
350
18
  0
DICTIONARY
  5
19
102
{ACAD_REACTORS
330
C
102
}
330
C
100
AcDbDictionary
281
     1
  0
ACDBDICTIONARYWDFLT
  5
E
102
{ACAD_REACTORS
330
C
102
}
330
C
100
AcDbDictionary
281
     1
  3
Normal
350
F
100
AcDbDictionaryWithDefault
340
F
  0
LAYOUT
  5
1E
102
{ACAD_REACTORS
330
1A
102
}
330
1A
100
AcDbPlotSettings
  1

  2
none_device
  4

  6

 40
0.0
 41
0.0
 42
0.0
 43
0.0
 44
0.0
 45
0.0
 46
0.0
 47
0.0
 48
0.0
 49
0.0
140
0.0
141
0.0
142
1.0
143
1.0
 70
   688
 72
     0
 73
     0
 74
     5
  7

 75
    16
147
1.0
148
0.0
149
0.0
100
AcDbLayout
  1
Layout1
 70
     1
 71
     1
 10
0.0
 20
0.0
 11
420.0
 21
297.0
 12
0.0
 22
0.0
 32
0.0
 14
1.0000000000E+20
 24
1.0000000000E+20
 34
1.0000000000E+20
 15
-1.0000000000E+20
 25
-1.0000000000E+20
 35
-1.0000000000E+20
146
0.0
 13
0.0
 23
0.0
 33
0.0
 16
1.0
 26
0.0
 36
0.0
 17
0.0
 27
1.0
 37
0.0
 76
     0
330
1B
  0
LAYOUT
  5
26
102
{ACAD_REACTORS
330
1A
102
}
330
1A
100
AcDbPlotSettings
  1

  2
none_device
  4

  6

 40
0.0
 41
0.0
 42
0.0
 43
0.0
 44
0.0
 45
0.0
 46
0.0
 47
0.0
 48
0.0
 49
0.0
140
0.0
141
0.0
142
1.0
143
1.0
 70
   688
 72
     0
 73
     0
 74
     5
  7

 75
    16
147
1.0
148
0.0
149
0.0
100
AcDbLayout
  1
Layout2
 70
     1
 71
     2
 10
0.0
 20
0.0
 11
0.0
 21
0.0
 12
0.0
 22
0.0
 32
0.0
 14
0.0
 24
0.0
 34
0.0
 15
0.0
 25
0.0
 35
0.0
146
0.0
 13
0.0
 23
0.0
 33
0.0
 16
1.0
 26
0.0
 36
0.0
 17
0.0
 27
1.0
 37
0.0
 76
     0
330
23
  0
LAYOUT
  5
22
102
{ACAD_REACTORS
330
1A
102
}
330
1A
100
AcDbPlotSettings
  1

  2
none_device
  4

  6

 40
0.0
 41
0.0
 42
0.0
 43
0.0
 44
0.0
 45
0.0
 46
0.0
 47
0.0
 48
0.0
 49
0.0
140
0.0
141
0.0
142
1.0
143
1.0
 70
  1712
 72
     0
 73
     0
 74
     0
  7

 75
     0
147
1.0
148
0.0
149
0.0
100
AcDbLayout
  1
Model
 70
     1
 71
     0
 10
0.0
 20
0.0
 11
297.0
 21
210.0
 12
0.0
 22
0.0
 32
0.0
 14
0.0
 24
0.0
 34
0.0
 15
297.0
 25
210.0
 35
0.0
146
0.0
 13
0.0
 23
0.0
 33
0.0
 16
1.0
 26
0.0
 36
0.0
 17
0.0
 27
1.0
 37
0.0
 76
     0
330
1F
331
29
  0
MLINESTYLE
  5
18
102
{ACAD_REACTORS
330
17
102
}
330
17
100
AcDbMlineStyle
  2
Standard
 70
     0
  3

 62
   256
 51
90.0
 52
90.0
 71
     2
 49
0.5
 62
   256
  6
BYLAYER
 49
-0.5
 62
   256
  6
BYLAYER
  0
ACDBPLACEHOLDER
  5
F
102
{ACAD_REACTORS
330
E
102
}
330
E
  0
ENDSEC
  0
EOF
