  0
SECTION
  2
HEADER
  9
$ACADVER
  1
AC1015
  9
$ACADMAINTVER
 70
     6
  9
$DWGCODEPAGE
  3
ANSI_1252
  9
$INSBASE
 10
0.0
 20
0.0
 30
0.0
  9
$EXTMIN
 10
0.0
 20
0.0
 30
0.0
  9
$EXTMAX
 10
297.0
 20
210.0
 30
0.0
  9
$LIMMIN
 10
0.0
 20
0.0
  9
$LIMMAX
 10
297.0
 20
210.0
  9
$ORTHOMODE
 70
     0
  9
$REGENMODE
 70
     1
  9
$FILLMODE
 70
     1
  9
$QTEXTMODE
 70
     0
  9
$MIRRTEXT
 70
     1
  9
$LTSCALE
 40
1.0
  9
$ATTMODE
 70
     1
  9
$TEXTSIZE
 40
2.0
  9
$TRACEWID
 40
1.0
  9
$TEXTSTYLE
  7
Standard
  9
$CLAYER
  8
0
  9
$CELTYPE
  6
ByLayer
  9
$CECOLOR
 62
   256
  9
$CELTSCALE
 40
1.0
  9
$DISPSILH
 70
     0
  9
$DIMSCALE
 40
1.0
  9
$DIMASZ
 40
3.0
  9
$DIMEXO
 40
0.0
  9
$DIMDLI
 40
3.75
  9
$DIMRND
 40
0.0
  9
$DIMDLE
 40
0.0
  9
$DIMEXE
 40
1.0
  9
$DIMTP
 40
0.0
  9
$DIMTM
 40
0.0
  9
$DIMTXT
 40
2.0
  9
$DIMCEN
 40
2.5
  9
$DIMTSZ
 40
0.0
  9
$DIMTOL
 70
     0
  9
$DIMLIM
 70
     0
  9
$DIMTIH
 70
     1
  9
$DIMTOH
 70
     1
  9
$DIMSE1
 70
     0
  9
$DIMSE2
 70
     0
  9
$DIMTAD
 70
     1
  9
$DIMZIN
 70
     0
  9
$DIMBLK
  1

  9
$DIMASO
 70
     1
  9
$DIMSHO
 70
     1
  9
$DIMPOST
  1

  9
$DIMAPOST
  1

  9
$DIMALT
 70
     0
  9
$DIMALTD
 70
     3
  9
$DIMALTF
 40
0.0393700787
  9
$DIMLFAC
 40
1.0
  9
$DIMTOFL
 70
     1
  9
$DIMTVP
 40
0.0
  9
$DIMTIX
 70
     0
  9
$DIMSOXD
 70
     0
  9
$DIMSAH
 70
     0
  9
$DIMBLK1
  1

  9
$DIMBLK2
  1

  9
$DIMSTYLE
  2
ISO-25
  9
$DIMCLRD
 70
     0
  9
$DIMCLRE
 70
     0
  9
$DIMCLRT
 70
     0
  9
$DIMTFAC
 40
1.0
  9
$DIMGAP
 40
1.524
  9
$DIMJUST
 70
     0
  9
$DIMSD1
 70
     0
  9
$DIMSD2
 70
     0
  9
$DIMTOLJ
 70
     0
  9
$DIMTZIN
 70
     0
  9
$DIMALTZ
 70
     0
  9
$DIMALTTZ
 70
     0
  9
$DIMUPT
 70
     0
  9
$DIMDEC
 70
     2
  9
$DIMTDEC
 70
     3
  9
$DIMALTU
 70
     2
  9
$DIMALTTD
 70
     3
  9
$DIMTXSTY
  7
Standard
  9
$DIMAUNIT
 70
     0
  9
$DIMADEC
 70
     2
  9
$DIMALTRND
 40
0.0
  9
$DIMAZIN
 70
     0
  9
$DIMDSEP
 70
    44
  9
$DIMATFIT
 70
     3
  9
$DIMFRAC
 70
     0
  9
$DIMLDRBLK
  1

  9
$DIMLUNIT
 70
     2
  9
$DIMLWD
 70
    -2
  9
$DIMLWE
 70
    -2
  9
$DIMTMOVE
 70
     0
  9
$LUNITS
 70
     2
  9
$LUPREC
 70
     2
  9
$SKETCHINC
 40
1.0
  9
$FILLETRAD
 40
10.0
  9
$AUNITS
 70
     0
  9
$AUPREC
 70
     2
  9
$MENU
  1
.
  9
$ELEVATION
 40
0.0
  9
$PELEVATION
 40
0.0
  9
$THICKNESS
 40
0.0
  9
$LIMCHECK
 70
     0
  9
$CHAMFERA
 40
10.0
  9
$CHAMFERB
 40
10.0
  9
$CHAMFERC
 40
20.0
  9
$CHAMFERD
 40
0.0
  9
$SKPOLY
 70
     0
  9
$TDCREATE
 40
2456091.722711482
  9
$TDUCREATE
 40
2456091.639378148
  9
$TDUPDATE
 40
2456091.722712917
  9
$TDUUPDATE
 40
2456091.639379583
  9
$TDINDWG
 40
0.0000000116
  9
$TDUSRTIMER
 40
0.0000000116
  9
$USRTIMER
 70
     1
  9
$ANGBASE
 50
0.0
  9
$ANGDIR
 70
     0
  9
$PDMODE
 70
     0
  9
$PDSIZE
 40
-1.0
  9
$PLINEWID
 40
0.0
  9
$SPLFRAME
 70
     0
  9
$SPLINETYPE
 70
     6
  9
$SPLINESEGS
 70
     8
  9
$HANDSEED
  5
33A
  9
$SURFTAB1
 70
     6
  9
$SURFTAB2
 70
     6
  9
$SURFTYPE
 70
     6
  9
$SURFU
 70
     6
  9
$SURFV
 70
     6
  9
$UCSBASE
  2

  9
$UCSNAME
  2

  9
$UCSORG
 10
0.0
 20
0.0
 30
0.0
  9
$UCSXDIR
 10
1.0
 20
0.0
 30
0.0
  9
$UCSYDIR
 10
0.0
 20
1.0
 30
0.0
  9
$UCSORTHOREF
  2

  9
$UCSORTHOVIEW
 70
     0
  9
$UCSORGTOP
 10
0.0
 20
0.0
 30
0.0
  9
$UCSORGBOTTOM
 10
0.0
 20
0.0
 30
0.0
  9
$UCSORGLEFT
 10
0.0
 20
0.0
 30
0.0
  9
$UCSORGRIGHT
 10
0.0
 20
0.0
 30
0.0
  9
$UCSORGFRONT
 10
0.0
 20
0.0
 30
0.0
  9
$UCSORGBACK
 10
0.0
 20
0.0
 30
0.0
  9
$PUCSBASE
  2

  9
$PUCSNAME
  2

  9
$PUCSORG
 10
0.0
 20
0.0
 30
0.0
  9
$PUCSXDIR
 10
1.0
 20
0.0
 30
0.0
  9
$PUCSYDIR
 10
0.0
 20
1.0
 30
0.0
  9
$PUCSORTHOREF
  2

  9
$PUCSORTHOVIEW
 70
     0
  9
$PUCSORGTOP
 10
0.0
 20
0.0
 30
0.0
  9
$PUCSORGBOTTOM
 10
0.0
 20
0.0
 30
0.0
  9
$PUCSORGLEFT
 10
0.0
 20
0.0
 30
0.0
  9
$PUCSORGRIGHT
 10
0.0
 20
0.0
 30
0.0
  9
$PUCSORGFRONT
 10
0.0
 20
0.0
 30
0.0
  9
$PUCSORGBACK
 10
0.0
 20
0.0
 30
0.0
  9
$USERI1
 70
     0
  9
$USERI2
 70
     0
  9
$USERI3
 70
     0
  9
$USERI4
 70
     0
  9
$USERI5
 70
     0
  9
$USERR1
 40
0.0
  9
$USERR2
 40
0.0
  9
$USERR3
 40
0.0
  9
$USERR4
 40
0.0
  9
$USERR5
 40
0.0
  9
$WORLDVIEW
 70
     1
  9
$SHADEDGE
 70
     3
  9
$SHADEDIF
 70
    70
  9
$TILEMODE
 70
     1
  9
$MAXACTVP
 70
    64
  9
$PINSBASE
 10
0.0
 20
0.0
 30
0.0
  9
$PLIMCHECK
 70
     0
  9
$PEXTMIN
 10
1.0000000000E+20
 20
1.0000000000E+20
 30
1.0000000000E+20
  9
$PEXTMAX
 10
-1.0000000000E+20
 20
-1.0000000000E+20
 30
-1.0000000000E+20
  9
$PLIMMIN
 10
0.0
 20
0.0
  9
$PLIMMAX
 10
420.0
 20
297.0
  9
$UNITMODE
 70
     0
  9
$VISRETAIN
 70
     1
  9
$PLINEGEN
 70
     0
  9
$PSLTSCALE
 70
     1
  9
$TREEDEPTH
 70
  3020
  9
$CMLSTYLE
  2
Standard
  9
$CMLJUST
 70
     0
  9
$CMLSCALE
 40
20.0
  9
$PROXYGRAPHICS
 70
     1
  9
$MEASUREMENT
 70
     1
  9
$CELWEIGHT
370
    -1
  9
$ENDCAPS
280
     0
  9
$JOINSTYLE
280
     0
  9
$LWDISPLAY
290
     1
  9
$INSUNITS
 70
     4
  9
$HYPERLINKBASE
  1

  9
$STYLESHEET
  1

  9
$XEDIT
290
     1
  9
$CEPSNTYPE
380
     0
  9
$PSTYLEMODE
290
     1
  9
$FINGERPRINTGUID
  2
{CF01574F-32F6-4FFD-87CA-C989AF176D88}
  9
$VERSIONGUID
  2
{FAEB1C32-E019-11D5-929B-00C0DF256EC4}
  9
$EXTNAMES
290
     1
  9
$PSVPSCALE
 40
0.0
  9
$OLESTARTUP
290
     0
  0
ENDSEC
  0
SECTION
  2
CLASSES
  0
CLASS
  1
ACDBDICTIONARYWDFLT
  2
AcDbDictionaryWithDefault
  3
ObjectDBX Classes
 90
        0
280
     0
281
     0
  0
CLASS
  1
VISUALSTYLE
  2
AcDbVisualStyle
  3
ObjectDBX Classes
 90
     4095
280
     0
281
     0
  0
CLASS
  1
MATERIAL
  2
AcDbMaterial
  3
ObjectDBX Classes
 90
     1153
280
     0
281
     0
  0
CLASS
  1
ACDBPLACEHOLDER
  2
AcDbPlaceHolder
  3
ObjectDBX Classes
 90
        0
280
     0
281
     0
  0
CLASS
  1
LAYOUT
  2
AcDbLayout
  3
ObjectDBX Classes
 90
        0
280
     0
281
     0
  0
ENDSEC
  0
SECTION
  2
TABLES
  0
TABLE
  2
VPORT
  5
8
330
0
100
AcDbSymbolTable
 70
     1
  0
VPORT
  5
29
330
8
100
AcDbSymbolTableRecord
100
AcDbViewportTableRecord
  2
*Active
 70
     0
 10
0.0
 20
0.0
 11
1.0
 21
1.0
 12
148.5
 22
105.0
 13
0.0
 23
0.0
 14
10.0
 24
10.0
 15
10.0
 25
10.0
 16
0.0
 26
0.0
 36
1.0
 17
0.0
 27
0.0
 37
0.0
 40
210.0
 41
1.4142857143
 42
50.0
 43
0.0
 44
0.0
 50
0.0
 51
0.0
 71
     0
 72
  2000
 73
     1
 74
     3
 75
     0
 76
     0
 77
     0
 78
     0
281
     0
 65
     1
110
0.0
120
0.0
130
0.0
111
1.0
121
0.0
131
0.0
112
0.0
122
1.0
132
0.0
 79
     0
146
0.0
  0
ENDTAB
  0
TABLE
  2
LTYPE
  5
5
330
0
100
AcDbSymbolTable
 70
     6
  0
LTYPE
  5
14
330
5
100
AcDbSymbolTableRecord
100
AcDbLinetypeTableRecord
  2
ByBlock
 70
     0
  3

 72
    65
 73
     0
 40
0.0
  0
LTYPE
  5
15
330
5
100
AcDbSymbolTableRecord
100
AcDbLinetypeTableRecord
  2
ByLayer
 70
     0
  3

 72
    65
 73
     0
 40
0.0
  0
LTYPE
  5
16
330
5
100
AcDbSymbolTableRecord
100
AcDbLinetypeTableRecord
  2
Continuous
 70
     0
  3
Solid line
 72
    65
 73
     0
 40
0.0
  0
LTYPE
  5
3F
330
5
100
AcDbSymbolTableRecord
100
AcDbLinetypeTableRecord
  2
HIDDEN
 70
     0
  3
Hidden __ __ __ __ __ __ __ __ __ __ __ __ __ __
 72
    65
 73
     2
 40
1.905
 49
1.27
 74
     0
 49
-0.635
 74
     0
  0
LTYPE
  5
40
330
5
100
AcDbSymbolTableRecord
100
AcDbLinetypeTableRecord
  2
PHANTOM
 70
     0
  3
Phantom ______  __  __  ______  __  __  ______
 72
    65
 73
     6
 40
12.7
 49
6.35
 74
     0
 49
-1.27
 74
     0
 49
1.27
 74
     0
 49
-1.27
 74
     0
 49
1.27
 74
     0
 49
-1.27
 74
     0
  0
LTYPE
  5
41
330
5
100
AcDbSymbolTableRecord
100
AcDbLinetypeTableRecord
  2
CENTER
 70
     0
  3
Center ____ _ ____ _ ____ _ ____ _ ____ _ ____
 72
    65
 73
     4
 40
10.16
 49
6.35
 74
     0
 49
-1.27
 74
     0
 49
1.27
 74
     0
 49
-1.27
 74
     0
  0
LTYPE
  5
42
330
5
100
AcDbSymbolTableRecord
100
AcDbLinetypeTableRecord
  2
CENTERX2
 70
     0
  3
Center (2x) ________  __  ________  __  _____
 72
    65
 73
     4
 40
20.32
 49
12.7
 74
     0
 49
-2.54
 74
     0
 49
2.54
 74
     0
 49
-2.54
 74
     0
  0
LTYPE
  5
43
330
5
100
AcDbSymbolTableRecord
100
AcDbLinetypeTableRecord
  2
DOT2
 70
     0
  3
Dot (.5x) ........................................
 72
    65
 73
     2
 40
0.635
 49
0.0
 74
     0
 49
-0.635
 74
     0
  0
ENDTAB
  0
TABLE
  2
LAYER
  5
2
330
0
100
AcDbSymbolTable
 70
     5
  0
LAYER
  5
10
330
2
100
AcDbSymbolTableRecord
100
AcDbLayerTableRecord
  2
0
 70
     0
 62
     7
  6
Continuous
370
    -3
390
F
  0
LAYER
  5
44
330
2
100
AcDbSymbolTableRecord
100
AcDbLayerTableRecord
  2
FORMAT
 70
     0
 62
     7
  6
Continuous
370
    -3
390
F
  0
LAYER
  5
45
330
2
100
AcDbSymbolTableRecord
100
AcDbLayerTableRecord
  2
VERMASSUNG
 70
     0
 62
     7
  6
Continuous
370
    -3
390
F
  0
LAYER
  5
46
330
2
100
AcDbSymbolTableRecord
100
AcDbLayerTableRecord
  2
KOPF_DÜNN
 70
     0
 62
     7
  6
Continuous
370
    -3
390
F
  0
LAYER
  5
47
330
2
100
AcDbSymbolTableRecord
100
AcDbLayerTableRecord
  2
KOPF_DICK
 70
     0
 62
     7
  6
Continuous
370
    15
390
F
  0
ENDTAB
  0
TABLE
  2
STYLE
  5
3
330
0
100
AcDbSymbolTable
 70
     3
  0
STYLE
  5
11
330
3
100
AcDbSymbolTableRecord
100
AcDbTextStyleTableRecord
  2
Standard
 70
     0
 40
0.0
 41
1.0
 50
0.0
 71
     0
 42
2.0
  3
txt
  4

  0
STYLE
  5
48
330
3
100
AcDbSymbolTableRecord
100
AcDbTextStyleTableRecord
  2
SLDTEXTSTYLE0
 70
     0
 40
0.0
 41
0.7
 50
0.0
 71
     0
 42
0.2
  3
TXT
  4

  0
STYLE
  5
4C
330
3
100
AcDbSymbolTableRecord
100
AcDbTextStyleTableRecord
  2
SLDTEXTSTYLE1
 70
     0
 40
0.0
 41
0.6423076923
 50
0.0
 71
     0
 42
0.2
  3
TXT
  4

  0
ENDTAB
  0
TABLE
  2
VIEW
  5
6
330
0
100
AcDbSymbolTable
 70
     0
  0
ENDTAB
  0
TABLE
  2
UCS
  5
7
330
0
100
AcDbSymbolTable
 70
     0
  0
ENDTAB
  0
TABLE
  2
APPID
  5
9
330
0
100
AcDbSymbolTable
 70
     1
  0
APPID
  5
12
330
9
100
AcDbSymbolTableRecord
100
AcDbRegAppTableRecord
  2
ACAD
 70
     0
  0
ENDTAB
  0
TABLE
  2
DIMSTYLE
  5
A
330
0
100
AcDbSymbolTable
 70
     2
100
AcDbDimStyleTable
  0
DIMSTYLE
105
27
330
A
100
AcDbSymbolTableRecord
100
AcDbDimStyleTableRecord
  2
ISO-25
 70
     0
 41
2.5
 42
0.625
 43
3.75
 44
1.25
 73
     0
 74
     0
 77
     1
 78
     8
140
2.5
141
2.5
143
0.0393700787
147
0.625
171
     3
172
     1
178
     0
271
     2
272
     2
274
     3
278
    44
283
     0
284
     8
340
11
  0
DIMSTYLE
105
16F
102
{ACAD_REACTORS
330
16E
330
318
330
324
330
32E
102
}
330
A
100
AcDbSymbolTableRecord
100
AcDbDimStyleTableRecord
  2
SLDDIMSTYLE0
 70
     0
 41
3.0
 44
0.0
 45
0.000000001
 73
     0
 74
     0
 77
     1
 78
    12
 79
     3
140
2.0
147
0.5
173
     1
178
     0
271
     2
272
     3
276
     2
284
    12
340
48
  0
ENDTAB
  0
TABLE
  2
BLOCK_RECORD
  5
1
330
0
100
AcDbSymbolTable
 70
     5
  0
BLOCK_RECORD
  5
1F
330
1
100
AcDbSymbolTableRecord
100
AcDbBlockTableRecord
  2
*Model_Space
340
22
  0
BLOCK_RECORD
  5
1B
330
1
100
AcDbSymbolTableRecord
100
AcDbBlockTableRecord
  2
*Paper_Space
340
1E
  0
BLOCK_RECORD
  5
23
330
1
100
AcDbSymbolTableRecord
100
AcDbBlockTableRecord
  2
*Paper_Space0
340
26
  0
BLOCK_RECORD
  5
170
330
1
100
AcDbSymbolTableRecord
100
AcDbBlockTableRecord
  2
_D
340
0
  0
BLOCK_RECORD
  5
319
330
1
100
AcDbSymbolTableRecord
100
AcDbBlockTableRecord
  2
_D_1
340
0
  0
BLOCK_RECORD
  5
325
330
1
100
AcDbSymbolTableRecord
100
AcDbBlockTableRecord
  2
_D_2
340
0
  0
BLOCK_RECORD
  5
32F
330
1
100
AcDbSymbolTableRecord
100
AcDbBlockTableRecord
  2
_D_3
340
0
  0
ENDTAB
  0
ENDSEC
  0
SECTION
  2
BLOCKS
  0
BLOCK
  5
20
330
1F
100
AcDbEntity
  8
0
100
AcDbBlockBegin
  2
*Model_Space
 70
     0
 10
0.0
 20
0.0
 30
0.0
  3
*Model_Space
  1

  0
ENDBLK
  5
21
330
1F
100
AcDbEntity
  8
0
100
AcDbBlockEnd
  0
BLOCK
  5
1C
330
1B
100
AcDbEntity
 67
     1
  8
0
100
AcDbBlockBegin
  2
*Paper_Space
 70
     0
 10
0.0
 20
0.0
 30
0.0
  3
*Paper_Space
  1

  0
ENDBLK
  5
1D
330
1B
100
AcDbEntity
 67
     1
  8
0
100
AcDbBlockEnd
  0
BLOCK
  5
24
330
23
100
AcDbEntity
  8
0
100
AcDbBlockBegin
  2
*Paper_Space0
 70
     0
 10
0.0
 20
0.0
 30
0.0
  3
*Paper_Space0
  1

  0
ENDBLK
  5
25
330
23
100
AcDbEntity
  8
0
100
AcDbBlockEnd
  0
BLOCK
  5
171
330
170
100
AcDbEntity
  8
0
100
AcDbBlockBegin
  2
_D
 70
     0
 10
0.0
 20
0.0
 30
0.0
  3
_D
  1

  0
SOLID
  5
173
330
170
100
AcDbEntity
  8
VERMASSUNG
100
AcDbTrace
 10
223.2327019823
 20
99.4010597016
 30
0.0
 11
222.7827019823
 21
96.4010597016
 31
0.0
 12
223.6827019823
 22
96.4010597016
 32
0.0
 13
223.6827019823
 23
96.4010597016
 33
0.0
  0
SOLID
  5
174
330
170
100
AcDbEntity
  8
VERMASSUNG
100
AcDbTrace
 10
223.2327019823
 20
47.4010597016
 30
0.0
 11
223.6827019823
 21
50.4010597016
 31
0.0
 12
222.7827019823
 22
50.4010597016
 32
0.0
 13
222.7827019823
 23
50.4010597016
 33
0.0
  0
LINE
  5
175
330
170
100
AcDbEntity
  8
VERMASSUNG
100
AcDbLine
 10
170.4583583608
 20
99.4010597016
 30
0.0
 11
224.2327019823
 21
99.4010597016
 31
0.0
  0
LINE
  5
176
330
170
100
AcDbEntity
  8
VERMASSUNG
100
AcDbLine
 10
170.4583583608
 20
47.4010597016
 30
0.0
 11
224.2327019823
 21
47.4010597016
 31
0.0
  0
LINE
  5
177
330
170
100
AcDbEntity
  8
VERMASSUNG
100
AcDbLine
 10
223.2327019823
 20
99.4010597016
 30
0.0
 11
223.2327019823
 21
47.4010597016
 31
0.0
  0
MTEXT
  5
178
330
170
100
AcDbEntity
  8
VERMASSUNG
100
AcDbMText
 10
220.6545665028
 20
70.1984539588
 30
0.0
 40
2.0
 41
0.0
 71
     1
 72
     1
  1
%%c
  7
SLDTEXTSTYLE0
 11
-7.044195017643634E-15
 21
1.0
 31
0.0
 73
     1
 44
1.0
  0
MTEXT
  5
179
330
170
100
AcDbEntity
  8
VERMASSUNG
100
AcDbMText
 10
220.6545666192
 20
73.8049281249
 30
0.0
 40
2.0
 41
0.0
 71
     1
 72
     1
  1
52
  7
SLDTEXTSTYLE0
 11
-7.044195017643634E-15
 21
1.0
 31
0.0
 73
     1
 44
1.0
  0
ENDBLK
  5
172
330
170
100
AcDbEntity
  8
0
100
AcDbBlockEnd
  0
BLOCK
  5
31A
330
319
100
AcDbEntity
  8
0
100
AcDbBlockBegin
  2
_D_1
 70
     0
 10
0.0
 20
0.0
 30
0.0
  3
_D_1
  1

  0
SOLID
  5
31C
330
319
100
AcDbEntity
  8
VERMASSUNG
100
AcDbTrace
 10
76.8627807568
 20
180.4965858888
 30
0.0
 11
76.4127807568
 21
177.4965858888
 31
0.0
 12
77.3127807568
 22
177.4965858888
 32
0.0
 13
77.3127807568
 23
177.4965858888
 33
0.0
  0
SOLID
  5
31D
330
319
100
AcDbEntity
  8
VERMASSUNG
100
AcDbTrace
 10
76.8627807568
 20
117.4965858888
 30
0.0
 11
77.3127807568
 21
120.4965858888
 31
0.0
 12
76.4127807568
 22
120.4965858888
 32
0.0
 13
76.4127807568
 23
120.4965858888
 33
0.0
  0
LINE
  5
31E
330
319
100
AcDbEntity
  8
VERMASSUNG
100
AcDbLine
 10
116.0278958325
 20
180.4965858888
 30
0.0
 11
75.8627807568
 21
180.4965858888
 31
0.0
  0
LINE
  5
31F
330
319
100
AcDbEntity
  8
VERMASSUNG
100
AcDbLine
 10
116.0278958325
 20
117.4965858888
 30
0.0
 11
75.8627807568
 21
117.4965858888
 31
0.0
  0
LINE
  5
320
330
319
100
AcDbEntity
  8
VERMASSUNG
100
AcDbLine
 10
76.8627807568
 20
180.4965858888
 30
0.0
 11
76.8627807568
 21
117.4965858888
 31
0.0
  0
MTEXT
  5
321
330
319
100
AcDbEntity
  8
VERMASSUNG
100
AcDbMText
 10
74.0846452677
 20
141.3939399552
 30
0.0
 40
2.0
 41
0.0
 71
     1
 72
     1
  1
HSK T
  7
SLDTEXTSTYLE0
 11
-7.044195017643634E-15
 21
1.0
 31
0.0
 73
     1
 44
1.0
  0
MTEXT
  5
322
330
319
100
AcDbEntity
  8
VERMASSUNG
100
AcDbMText
 10
74.2846452772
 20
150.1939399075
 30
0.0
 40
2.0
 41
0.0
 71
     1
 72
     1
  1
%%c
  7
SLDTEXTSTYLE0
 11
-7.044195017643634E-15
 21
1.0
 31
0.0
 73
     1
 44
1.0
  0
MTEXT
  5
323
330
319
100
AcDbEntity
  8
VERMASSUNG
100
AcDbMText
 10
74.2846453936
 20
153.800494503
 30
0.0
 40
2.0
 41
0.0
 71
     1
 72
     1
  1
63
  7
SLDTEXTSTYLE0
 11
-7.044195017643634E-15
 21
1.0
 31
0.0
 73
     1
 44
1.0
  0
ENDBLK
  5
31B
330
319
100
AcDbEntity
  8
0
100
AcDbBlockEnd
  0
BLOCK
  5
326
330
325
100
AcDbEntity
  8
0
100
AcDbBlockBegin
  2
_D_2
 70
     0
 10
0.0
 20
0.0
 30
0.0
  3
_D_2
  1

  0
SOLID
  5
328
330
325
100
AcDbEntity
  8
VERMASSUNG
100
AcDbTrace
 10
215.7278958325
 20
185.0104898323
 30
0.0
 11
212.7278958325
 21
185.4604898323
 31
0.0
 12
212.7278958325
 22
184.5604898323
 32
0.0
 13
212.7278958325
 23
184.5604898323
 33
0.0
  0
SOLID
  5
329
330
325
100
AcDbEntity
  8
VERMASSUNG
100
AcDbTrace
 10
115.7278958325
 20
185.0104898323
 30
0.0
 11
118.7278958325
 21
184.5604898323
 31
0.0
 12
118.7278958325
 22
185.4604898323
 32
0.0
 13
118.7278958325
 23
185.4604898323
 33
0.0
  0
LINE
  5
32A
330
325
100
AcDbEntity
  8
VERMASSUNG
100
AcDbLine
 10
215.7278958325
 20
148.9965858888
 30
0.0
 11
215.7278958325
 21
186.0104898323
 31
0.0
  0
LINE
  5
32B
330
325
100
AcDbEntity
  8
VERMASSUNG
100
AcDbLine
 10
115.7278958325
 20
180.1965858888
 30
0.0
 11
115.7278958325
 21
186.0104898323
 31
0.0
  0
LINE
  5
32C
330
325
100
AcDbEntity
  8
VERMASSUNG
100
AcDbLine
 10
215.7278958325
 20
185.0104898323
 30
0.0
 11
115.7278958325
 21
185.0104898323
 31
0.0
  0
MTEXT
  5
32D
330
325
100
AcDbEntity
  8
VERMASSUNG
100
AcDbMText
 10
163.8290057018
 20
187.5886251955
 30
0.0
 40
2.0
 41
0.0
 71
     1
 72
     1
  1
100
  7
SLDTEXTSTYLE0
 73
     1
 44
1.0
  0
ENDBLK
  5
327
330
325
100
AcDbEntity
  8
0
100
AcDbBlockEnd
  0
BLOCK
  5
330
330
32F
100
AcDbEntity
  8
0
100
AcDbBlockBegin
  2
_D_3
 70
     0
 10
0.0
 20
0.0
 30
0.0
  3
_D_3
  1

  0
SOLID
  5
332
330
32F
100
AcDbEntity
  8
VERMASSUNG
100
AcDbTrace
 10
83.8278958325
 20
191.0104898323
 30
0.0
 11
86.8278958325
 21
190.5604898323
 31
0.0
 12
86.8278958325
 22
191.4604898323
 32
0.0
 13
86.8278958325
 23
191.4604898323
 33
0.0
  0
SOLID
  5
333
330
32F
100
AcDbEntity
  8
VERMASSUNG
100
AcDbTrace
 10
215.7278958325
 20
191.0104898323
 30
0.0
 11
212.7278958325
 21
191.4604898323
 31
0.0
 12
212.7278958325
 22
190.5604898323
 32
0.0
 13
212.7278958325
 23
190.5604898323
 33
0.0
  0
LINE
  5
334
330
32F
100
AcDbEntity
  8
VERMASSUNG
100
AcDbLine
 10
83.8278958325
 20
170.5776359248
 30
0.0
 11
83.8278958325
 21
192.0104898323
 31
0.0
  0
LINE
  5
335
330
32F
100
AcDbEntity
  8
VERMASSUNG
100
AcDbLine
 10
215.7278958325
 20
148.9965858888
 30
0.0
 11
215.7278958325
 21
192.0104898323
 31
0.0
  0
LINE
  5
336
330
32F
100
AcDbEntity
  8
VERMASSUNG
100
AcDbLine
 10
83.8278958325
 20
191.0104898323
 30
0.0
 11
215.7278958325
 21
191.0104898323
 31
0.0
  0
MTEXT
  5
337
330
32F
100
AcDbEntity
  8
VERMASSUNG
100
AcDbMText
 10
147.0783542661
 20
193.5886251955
 30
0.0
 40
2.0
 41
0.0
 71
     1
 72
     1
  1
131.9
  7
SLDTEXTSTYLE0
 73
     1
 44
1.0
  0
ENDBLK
  5
331
330
32F
100
AcDbEntity
  8
0
100
AcDbBlockEnd
  0
ENDSEC
  0
SECTION
  2
ENTITIES
  0
MTEXT
  5
49
330
1F
100
AcDbEntity
  8
KOPF_DÜNN
100
AcDbMText
 10
13.8892156294
 20
23.8442973028
 30
0.0
 40
3.0
 41
0.0
 71
     1
 72
     1
  1
HA6.KCC.NMA.100
  7
SLDTEXTSTYLE0
 73
     1
 44
1.0
  0
MTEXT
  5
4A
330
1F
100
AcDbEntity
  8
VERMASSUNG
100
AcDbMText
 10
13.9329988022
 20
28.8834360957
 30
0.0
 40
3.0
 41
0.0
 71
     1
 72
     1
  1
Klemmhalter_Turning tool
  7
SLDTEXTSTYLE0
 73
     1
 44
1.0
  0
MTEXT
  5
4B
330
1F
100
AcDbEntity
  8
VERMASSUNG
100
AcDbMText
 10
98.8601118557
 20
13.8365368179
 30
0.0
 40
2.0
 41
0.0
 71
     1
 72
     1
  1
Datum: 03.02.2009
  7
SLDTEXTSTYLE0
 73
     1
 44
1.0
  0
MTEXT
  5
4D
330
1F
100
AcDbEntity
  8
VERMASSUNG
100
AcDbMText
 10
13.933048693
 20
18.0482802738
 30
0.0
 40
2.0
 41
0.0
 71
     1
 72
     1
  1
DIN 69893 HSK T 63  / CC.. 12 04.. / 50° / 80° / 50°
  7
SLDTEXTSTYLE1
 73
     1
 44
1.0
  0
MTEXT
  5
4E
330
1F
100
AcDbEntity
  8
VERMASSUNG
100
AcDbMText
 10
13.9808475933
 20
13.9090973692
 30
0.0
 40
2.0
 41
0.0
 71
     1
 72
     1
  1
Gewicht: 1305g
  7
SLDTEXTSTYLE0
 73
     1
 44
1.0
  0
LINE
  5
4F
330
1F
100
AcDbEntity
  8
0
  6
Continuous
 62
     7
370
    15
100
AcDbLine
 10
116.0278958467
 20
41.9010591949
 30
0.0
 11
120.6778958056
 21
41.9010591949
 31
0.0
  0
LINE
  5
50
330
1F
100
AcDbEntity
  8
0
  6
Continuous
 62
     7
370
    15
100
AcDbLine
 10
120.7058843773
 20
104.9010602082
 30
0.0
 11
116.0278958467
 21
104.9010602082
 31
0.0
  0
ARC
  5
51
330
1F
100
AcDbEntity
  8
0
  6
Continuous
 62
     7
370
    15
100
AcDbCircle
 10
116.0278958325
 20
42.2010597016
 30
0.0
 40
0.2999999999999972
100
AcDbArc
 50
180.0
 51
270.0
  0
ARC
  5
52
330
1F
100
AcDbEntity
  8
0
  6
Continuous
 62
     7
370
    15
100
AcDbCircle
 10
116.0278958325
 20
104.6010597016
 30
0.0
 40
0.2999999999999972
100
AcDbArc
 50
90.0
 51
180.0
  0
ARC
  5
53
330
1F
100
AcDbEntity
  8
0
  6
Continuous
 62
     7
370
    15
100
AcDbCircle
 10
142.6778958325
 20
46.4010597016
 30
0.0
 40
0.9999999999999929
100
AcDbArc
 50
90.0
 51
143.1139143113
  0
ARC
  5
54
330
1F
100
AcDbEntity
  8
0
  6
Continuous
 62
     7
370
    15
100
AcDbCircle
 10
142.6778958325
 20
100.4010597016
 30
0.0
 40
0.9999999999999987
100
AcDbArc
 50
216.9027440624
 51
270.0
  0
LINE
  5
55
330
1F
100
AcDbEntity
  8
0
  6
Continuous
 62
     7
370
    15
100
AcDbLine
 10
142.6778956864
 20
47.4010591651
 30
0.0
 11
170.4645733897
 21
47.4010591651
 31
0.0
  0
LINE
  5
56
330
1F
100
AcDbEntity
  8
0
  6
Continuous
 62
     7
370
    15
100
AcDbLine
 10
170.4942676787
 20
99.401060238
 30
0.0
 11
142.6778956864
 21
99.401060238
 31
0.0
  0
ARC
  5
57
330
1F
100
AcDbEntity
  8
0
  6
Continuous
 62
     7
370
    15
100
AcDbCircle
 10
115.2278958325
 20
48.8306288398
 30
0.0
 40
0.6000000000000019
100
AcDbArc
 50
33.5573097619
 51
90.0
  0
ARC
  5
58
330
1F
100
AcDbEntity
  8
0
  6
Continuous
 62
     7
370
    15
100
AcDbCircle
 10
115.2278958325
 20
97.9714905633
 30
0.0
 40
0.6000000000000085
100
AcDbArc
 50
270.0
 51
326.4426902381
  0
LINE
  5
59
330
1F
100
AcDbEntity
  8
0
  6
Continuous
 62
     7
370
    15
100
AcDbLine
 10
113.7278957375
 20
49.180628478
 30
0.0
 11
114.5846086636
 21
49.4101845915
 31
0.0
  0
LINE
  5
5A
330
1F
100
AcDbEntity
  8
0
  6
Continuous
 62
     7
370
    15
100
AcDbLine
 10
114.5846086636
 20
97.3919348116
 30
0.0
 11
113.7278957375
 21
97.6214909251
 31
0.0
  0
LINE
  5
5B
330
1F
100
AcDbEntity
  8
0
  6
Continuous
 62
     7
370
    15
100
AcDbLine
 10
102.4963873986
 20
97.0587895508
 30
0.0
 11
89.9278949563
 21
96.4291055943
 31
0.0
  0
LINE
  5
5C
330
1F
100
AcDbEntity
  8
0
  6
Continuous
 62
     7
370
    15
100
AcDbLine
 10
113.7278957375
 20
97.6214909251
 30
0.0
 11
110.9108943109
 21
97.4803583021
 31
0.0
  0
LINE
  5
5D
330
1F
100
AcDbEntity
  8
0
  6
Continuous
 62
     7
370
    15
100
AcDbLine
 10
110.9109501902
 20
49.3217592384
 30
0.0
 11
113.7278957375
 21
49.180628478
 31
0.0
  0
LINE
  5
5E
330
1F
100
AcDbEntity
  8
0
  6
Continuous
 62
     7
370
    15
100
AcDbLine
 10
93.9278956119
 20
50.1726136799
 30
0.0
 11
102.49678973
 21
49.7433093632
 31
0.0
  0
ARC
  5
5F
330
1F
100
AcDbEntity
  8
0
  6
Continuous
 62
     7
370
    15
100
AcDbCircle
 10
114.7399000329
 20
48.8306288398
 30
0.0
 40
0.6000000000000085
100
AcDbArc
 50
90.0
 51
105.0
  0
ARC
  5
60
330
1F
100
AcDbEntity
  8
0
  6
Continuous
 62
     7
370
    15
100
AcDbCircle
 10
114.7399000329
 20
97.9714905633
 30
0.0
 40
0.6000000000000085
100
AcDbArc
 50
255.0
 51
270.0
  0
LINE
  5
61
330
1F
100
AcDbEntity
  8
0
  6
Continuous
 62
     7
370
    15
100
AcDbLine
 10
114.7399000673
 20
49.4306289847
 30
0.0
 11
115.2278958087
 21
49.4306289847
 31
0.0
  0
LINE
  5
62
330
1F
100
AcDbEntity
  8
0
  6
Continuous
 62
     7
370
    15
100
AcDbLine
 10
115.2278958087
 20
97.3714904184
 30
0.0
 11
114.7399000673
 21
97.3714904184
 31
0.0
  0
LINE
  5
63
330
1F
100
AcDbEntity
  8
0
  6
Continuous
 62
     7
370
    15
100
AcDbLine
 10
84.9778949831
 20
52.5885594333
 30
0.0
 11
92.5278961275
 21
52.5885594333
 31
0.0
  0
ARC
  5
64
330
1F
100
AcDbEntity
  8
0
  6
Continuous
 62
     7
370
    15
100
AcDbCircle
 10
92.5278958325
 20
51.1885597016
 30
0.0
 40
1.400000000000005
100
AcDbArc
 50
37.6443616934
 51
90.0
  0
LINE
  5
65
330
1F
100
AcDbEntity
  8
0
  6
Continuous
 62
     7
370
    15
100
AcDbLine
 10
84.9690585945
 20
94.262223437
 30
0.0
 11
83.8377978269
 21
93.1309608067
 31
0.0
  0
LINE
  5
66
330
1F
100
AcDbEntity
  8
0
  6
Continuous
 62
     7
370
    15
100
AcDbLine
 10
83.8253143791
 20
53.7411400373
 30
0.0
 11
84.9778949831
 21
52.5885594333
 31
0.0
  0
ARC
  5
67
330
1F
100
AcDbEntity
  8
0
  6
Continuous
 62
     7
370
    15
100
AcDbCircle
 10
88.5278958325
 20
95.6710597016
 30
0.0
 40
1.400000000000008
100
AcDbArc
 50
270.0
 51
301.7485287426
  0
LINE
  5
68
330
1F
100
AcDbEntity
  8
0
  6
Continuous
 62
     7
370
    15
100
AcDbLine
 10
88.5278954719
 20
94.2710598255
 30
0.0
 11
85.1021613542
 21
94.2710598255
 31
0.0
  0
LINE
  5
69
330
1F
100
AcDbEntity
  8
0
  6
Continuous
 62
     7
370
    15
100
AcDbLine
 10
156.3812661533
 20
70.4730727966
 30
0.0
 11
156.241862065
 21
70.4454143788
 31
0.0
  0
LWPOLYLINE
  5
6A
330
1F
100
AcDbEntity
  8
0
  6
Continuous
 62
     7
370
    15
100
AcDbPolyline
 90
        3
 70
   128
 43
0.0
 10
152.7459788684
 20
73.0721560912
 10
152.7355257038
 20
73.6148935911
 10
152.7878995601
 20
73.9980663429
  0
LWPOLYLINE
  5
6B
330
1F
100
AcDbEntity
  8
0
  6
Continuous
 62
     7
370
    15
100
AcDbPolyline
 90
        3
 70
   128
 43
0.0
 10
157.0794712369
 20
70.7227675966
 10
157.0388953749
 20
70.7026747777
 10
156.3812661533
 20
70.4730727966
  0
CIRCLE
  5
6C
330
1F
100
AcDbEntity
  8
0
  6
Continuous
 62
     7
370
    15
100
AcDbCircle
 10
155.7278958325
 20
73.4010597016
 30
0.0
 40
2.860000000000006
  0
CIRCLE
  5
6D
330
1F
100
AcDbEntity
  8
0
  6
Continuous
 62
     7
370
    15
100
AcDbCircle
 10
155.7278958325
 20
73.4010597016
 30
0.0
 40
2.499999999999999
  0
LINE
  5
6E
330
1F
100
AcDbEntity
  8
0
  6
Continuous
 62
     7
370
    15
100
AcDbLine
 10
120.6778958056
 20
93.2510604407
 30
0.0
 11
130.3359632928
 21
93.2510604407
 31
0.0
  0
LINE
  5
6F
330
1F
100
AcDbEntity
  8
0
  6
Continuous
 62
     7
370
    15
100
AcDbLine
 10
130.3359632928
 20
43.2141420687
 30
0.0
 11
130.3359632928
 21
93.2510604407
 31
0.0
  0
LINE
  5
70
330
1F
100
AcDbEntity
  8
0
  6
Continuous
 62
     7
370
    15
100
AcDbLine
 10
130.3359632928
 20
43.2141420687
 30
0.0
 11
128.6778961856
 21
43.2141420687
 31
0.0
  0
SPLINE
  5
71
330
1F
100
AcDbEntity
  8
0
  6
Continuous
 62
     7
370
    15
100
AcDbSpline
210
0.0
220
0.0
230
1.0
 70
     8
 71
     3
 72
    28
 73
    24
 74
     0
 42
0.00000001
 43
0.00000001
 12
1.0
 22
0.0
 32
0.0
 13
1.0
 23
0.0
 33
0.0
 40
0.0
 40
0.0
 40
0.0
 40
0.0
 40
0.1250000000000001
 40
0.1250000000000001
 40
0.1875000000000001
 40
0.1875000000000001
 40
0.2500000000000001
 40
0.2500000000000001
 40
0.375
 40
0.375
 40
0.4375000000000001
 40
0.4375000000000001
 40
0.5
 40
0.5
 40
0.625
 40
0.625
 40
0.7499999999999999
 40
0.7499999999999999
 40
0.8124999999999999
 40
0.8124999999999999
 40
0.875
 40
0.875
 40
1.0
 40
1.0
 40
1.0
 40
1.0
 10
128.677895832461
 20
43.21414200531415
 30
0.0
 10
128.1461880749681
 20
43.21414200531414
 30
0.0
 10
127.6239495096577
 20
43.19835729136393
 30
0.0
 10
126.8540790233828
 20
43.15336187728772
 30
0.0
 10
126.5997194511914
 20
43.134806882212
 30
0.0
 10
126.0955978704929
 20
43.0909541597655
 30
0.0
 10
125.845875053065
 20
43.0656095528133
 30
0.0
 10
125.1202851016185
 20
42.98220747506319
 30
0.0
 10
124.661924840037
 20
42.9163419159121
 30
0.0
 10
124.0114268966431
 20
42.80737157542031
 30
0.0
 10
123.7997448458507
 20
42.76913193965366
 30
0.0
 10
123.3956733567127
 20
42.69137320223432
 30
0.0
 10
123.2031668428918
 20
42.65187224005896
 30
0.0
 10
122.6533318718705
 20
42.53296449769297
 30
0.0
 10
122.3234030935617
 20
42.45314681626835
 30
0.0
 10
121.738931824993
 20
42.29980365447228
 30
0.0
 10
121.4926546869796
 20
42.22846990120303
 30
0.0
 10
121.1928118942815
 20
42.13452639412841
 30
0.0
 10
121.1043550372093
 20
42.10533260076848
 30
0.0
 10
120.9509936839042
 20
42.05186602650506
 30
0.0
 10
120.885905469678
 20
42.02750669222989
 30
0.0
 10
120.7303114537372
 20
41.96391654678517
 30
0.0
 10
120.677895832461
 20
41.93381361169591
 30
0.0
 10
120.677895832461
 20
41.91693671869898
 30
0.0
  0
LINE
  5
72
330
1F
100
AcDbEntity
  8
0
  6
Continuous
 62
     7
370
    15
100
AcDbLine
 10
120.6778958056
 20
41.9169363822
 30
0.0
 11
120.6778958056
 21
41.9010591949
 31
0.0
  0
SPLINE
  5
73
330
1F
100
AcDbEntity
  8
0
  6
Continuous
 62
     7
370
    15
100
AcDbSpline
210
0.0
220
0.0
230
1.0
 70
     8
 71
     3
 72
    17
 73
    13
 74
     0
 42
0.00000001
 43
0.00000001
 12
1.0
 22
0.0
 32
0.0
 13
1.0
 23
0.0
 33
0.0
 40
0.0
 40
0.0
 40
0.0
 40
0.0
 40
0.1034797280380778
 40
0.2100239090909901
 40
0.3134862262879433
 40
0.4198361712144981
 40
0.5254127947779869
 40
0.6339610881168427
 40
0.7409508662120068
 40
0.8511696072047016
 40
0.9558996557845765
 40
1.0
 40
1.0
 40
1.0
 40
1.0
 10
128.6778961856185
 20
103.8682551379197
 30
0.0
 10
128.2426476938926
 20
103.8737031295574
 30
0.0
 10
127.3592612433156
 20
103.884760449886
 30
0.0
 10
126.0784333810929
 20
103.971119210261
 30
0.0
 10
124.8610171856509
 20
104.0989903533941
 30
0.0
 10
123.7532105693251
 20
104.2579347607125
 30
0.0
 10
122.7649720899963
 20
104.4324293336971
 30
0.0
 10
121.9402489901805
 20
104.601595766884
 30
0.0
 10
121.2912953326818
 20
104.7494765753517
 30
0.0
 10
120.8742600292022
 20
104.8512673268743
 30
0.0
 10
120.6756632863242
 20
104.9016242265088
 30
0.0
 10
120.6989764033121
 20
104.8957146215332
 30
0.0
 10
120.7058843773125
 20
104.8939635301822
 30
0.0
  0
LINE
  5
74
330
1F
100
AcDbEntity
  8
0
  6
Continuous
 62
     7
370
    15
100
AcDbLine
 10
130.3359632928
 20
103.8682551379
 30
0.0
 11
128.6778961856
 21
103.8682551379
 31
0.0
  0
LINE
  5
75
330
1F
100
AcDbEntity
  8
0
  6
Continuous
 62
     7
370
    15
100
AcDbLine
 10
130.3359632928
 20
97.8597493167
 30
0.0
 11
130.3359632928
 21
103.8682551379
 31
0.0
  0
LINE
  5
76
330
1F
100
AcDbEntity
  8
0
  6
Continuous
 62
     7
370
    15
100
AcDbLine
 10
127.9235165183
 20
97.8597493167
 30
0.0
 11
130.3359632928
 21
97.8597493167
 31
0.0
  0
SPLINE
  5
77
330
1F
100
AcDbEntity
  8
0
  6
Continuous
 62
     7
370
    15
100
AcDbSpline
210
0.0
220
0.0
230
1.0
 70
     8
 71
     3
 72
    20
 73
    16
 74
     0
 42
0.00000001
 43
0.00000001
 12
1.0
 22
0.0
 32
0.0
 13
1.0
 23
0.0
 33
0.0
 40
0.0
 40
0.0
 40
0.0
 40
0.0
 40
0.2500000000000005
 40
0.2500000000000005
 40
0.3750000000000004
 40
0.3750000000000004
 40
0.5000000000000003
 40
0.5000000000000003
 40
0.6250000000000002
 40
0.6250000000000002
 40
0.7500000000000001
 40
0.7500000000000001
 40
0.8750000000000001
 40
0.8750000000000001
 40
1.0
 40
1.0
 40
1.0
 40
1.0
 10
120.677895832461
 20
93.25105970156129
 30
0.0
 10
120.9262695667491
 20
93.90492212985868
 30
0.0
 10
121.2458396590943
 20
94.50870791185584
 30
0.0
 10
121.868145892299
 20
95.33554664802443
 30
0.0
 10
122.0995701527298
 20
95.59797528597734
 30
0.0
 10
122.6207844923795
 20
96.0946379400823
 30
0.0
 10
122.9074049750146
 20
96.32522481910384
 30
0.0
 10
123.5268897163222
 20
96.74177904368648
 30
0.0
 10
123.8611900958091
 20
96.92927684565397
 30
0.0
 10
124.5864505684339
 20
97.26067382329039
 30
0.0
 10
124.9683656258244
 20
97.40017781078566
 30
0.0
 10
125.7631538019961
 20
97.62563131825661
 30
0.0
 10
126.1773119962025
 20
97.71225742980025
 30
0.0
 10
127.0428583367838
 20
97.83023821865437
 30
0.0
 10
127.4807459517957
 20
97.85974936392871
 30
0.0
 10
127.9235161781503
 20
97.8597493639287
 30
0.0
  0
LINE
  5
78
330
1F
100
AcDbEntity
  8
0
  6
Continuous
 62
     7
370
    15
100
AcDbLine
 10
141.6778955225
 20
43.8407824631
 30
0.0
 11
141.6778955225
 21
93.2510604407
 31
0.0
  0
SPLINE
  5
79
330
1F
100
AcDbEntity
  8
0
  6
Continuous
 62
     7
370
    15
100
AcDbSpline
210
0.0
220
0.0
230
1.0
 70
     8
 71
     3
 72
    10
 73
     6
 74
     0
 42
0.00000001
 43
0.00000001
 12
1.0
 22
0.0
 32
0.0
 13
1.0
 23
0.0
 33
0.0
 40
0.0
 40
0.0
 40
0.0
 40
0.0
 40
0.5
 40
0.5
 40
1.0
 40
1.0
 40
1.0
 40
1.0
 10
141.677895832461
 20
43.84078230096847
 30
0.0
 10
141.677895832461
 20
43.68089503277481
 30
0.0
 10
141.6165861812252
 20
43.51976777726021
 30
0.0
 10
141.3974865436901
 20
43.28566877890537
 30
0.0
 10
141.2394383373766
 20
43.21414200531415
 30
0.0
 10
141.077895832461
 20
43.21414200531415
 30
0.0
  0
SPLINE
  5
7A
330
1F
100
AcDbEntity
  8
0
  6
Continuous
 62
     7
370
    15
100
AcDbSpline
210
0.0
220
0.0
230
1.0
 70
    24
 71
     3
 72
    12
 73
     8
 74
     0
 42
0.00000001
 43
0.00000001
 12
1.0
 22
0.0
 32
0.0
 13
1.0
 23
0.0
 33
0.0
 40
0.0
 40
0.0
 40
0.0
 40
0.0
 40
0.2500000000000006
 40
0.2500000000000006
 40
0.5000000000000012
 40
0.5000000000000012
 40
1.0
 40
1.0
 40
1.0
 40
1.0
 10
141.077895832461
 20
93.25105970156129
 30
0.0
 10
141.1681349001481
 20
93.25105970156129
 30
0.0
 10
141.2590330142546
 20
93.25105970156129
 30
0.0
 10
141.4136300507431
 20
93.25105970156129
 30
0.0
 10
141.4786084668512
 20
93.25105970156129
 30
0.0
 10
141.6304434947874
 20
93.25105970156129
 30
0.0
 10
141.677895832461
 20
93.25105970156127
 30
0.0
 10
141.677895832461
 20
93.25105970156129
 30
0.0
  0
LINE
  5
7B
330
1F
100
AcDbEntity
  8
0
  6
Continuous
 62
     7
370
    15
100
AcDbLine
 10
131.8178958807
 20
45.9032223816
 30
0.0
 11
131.8178958807
 21
93.2510604407
 31
0.0
  0
SPLINE
  5
7C
330
1F
100
AcDbEntity
  8
0
  6
Continuous
 62
     7
370
    15
100
AcDbSpline
210
0.0
220
0.0
230
1.0
 70
     8
 71
     3
 72
     8
 73
     4
 74
     0
 42
0.00000001
 43
0.00000001
 12
1.0
 22
0.0
 32
0.0
 13
1.0
 23
0.0
 33
0.0
 40
0.0
 40
0.0
 40
0.0
 40
0.0
 40
1.0
 40
1.0
 40
1.0
 40
1.0
 10
131.817895832461
 20
45.90322254250642
 30
0.0
 10
131.3255567096798
 20
45.00595250829973
 30
0.0
 10
130.8314426616377
 20
44.10966809324749
 30
0.0
 10
130.335963000972
 20
43.21414200531414
 30
0.0
  0
SPLINE
  5
7D
330
1F
100
AcDbEntity
  8
0
  6
Continuous
 62
     7
370
    15
100
AcDbSpline
210
0.0
220
0.0
230
1.0
 70
    24
 71
     3
 72
     8
 73
     4
 74
     0
 42
0.00000001
 43
0.00000001
 12
1.0
 22
0.0
 32
0.0
 13
1.0
 23
0.0
 33
0.0
 40
0.0
 40
0.0
 40
0.0
 40
0.0
 40
1.0
 40
1.0
 40
1.0
 40
1.0
 10
130.335963000972
 20
93.25105970156129
 30
0.0
 10
130.8426431091225
 20
93.25105970156129
 30
0.0
 10
131.3379438380961
 20
93.25105970156129
 30
0.0
 10
131.817895832461
 20
93.25105970156129
 30
0.0
  0
LINE
  5
7E
330
1F
100
AcDbEntity
  8
0
  6
Continuous
 62
     7
370
    15
100
AcDbLine
 10
137.1198277537
 20
43.2141420687
 30
0.0
 11
137.1198277537
 21
93.2510604407
 31
0.0
  0
SPLINE
  5
7F
330
1F
100
AcDbEntity
  8
0
  6
Continuous
 62
     7
370
    15
100
AcDbSpline
210
0.0
220
0.0
230
1.0
 70
     8
 71
     3
 72
     8
 73
     4
 74
     0
 42
0.00000001
 43
0.00000001
 12
1.0
 22
0.0
 32
0.0
 13
1.0
 23
0.0
 33
0.0
 40
0.0
 40
0.0
 40
0.0
 40
0.0
 40
1.0
 40
1.0
 40
1.0
 40
1.0
 10
137.11982866395
 20
43.21414200531414
 30
0.0
 10
136.6243490032843
 20
44.10966809324749
 30
0.0
 10
136.1302349552422
 20
45.00595250829972
 30
0.0
 10
135.637895832461
 20
45.90322254250642
 30
0.0
  0
LINE
  5
80
330
1F
100
AcDbEntity
  8
0
  6
Continuous
 62
     7
370
    15
100
AcDbLine
 10
135.6378960971
 20
45.9032223816
 30
0.0
 11
135.6378960971
 21
93.2510604407
 31
0.0
  0
SPLINE
  5
81
330
1F
100
AcDbEntity
  8
0
  6
Continuous
 62
     7
370
    15
100
AcDbSpline
210
0.0
220
0.0
230
1.0
 70
    24
 71
     3
 72
     8
 73
     4
 74
     0
 42
0.00000001
 43
0.00000001
 12
1.0
 22
0.0
 32
0.0
 13
1.0
 23
0.0
 33
0.0
 40
0.0
 40
0.0
 40
0.0
 40
0.0
 40
1.0
 40
1.0
 40
1.0
 40
1.0
 10
135.637895832461
 20
93.25105970156129
 30
0.0
 10
136.1178478268259
 20
93.25105970156129
 30
0.0
 10
136.6131485557995
 20
93.25105970156129
 30
0.0
 10
137.1198286639501
 20
93.25105970156129
 30
0.0
  0
LINE
  5
82
330
1F
100
AcDbEntity
  8
0
  6
Continuous
 62
     7
370
    15
100
AcDbLine
 10
141.0778965418
 20
43.2141420687
 30
0.0
 11
137.1198277537
 21
43.2141420687
 31
0.0
  0
LINE
  5
83
330
1F
100
AcDbEntity
  8
0
  6
Continuous
 62
     7
370
    15
100
AcDbLine
 10
137.1198277537
 20
93.2510604407
 30
0.0
 11
141.0778965418
 21
93.2510604407
 31
0.0
  0
LINE
  5
84
330
1F
100
AcDbEntity
  8
0
  6
Continuous
 62
     7
370
    15
100
AcDbLine
 10
115.7278958325
 20
42.2010605479
 30
0.0
 11
115.7278958325
 21
104.6010588552
 31
0.0
  0
SPLINE
  5
85
330
1F
100
AcDbEntity
  8
0
  6
Continuous
 62
     7
370
    15
100
AcDbSpline
210
0.0
220
0.0
230
1.0
 70
     8
 71
     3
 72
    10
 73
     6
 74
     0
 42
0.00000001
 43
0.00000001
 12
1.0
 22
0.0
 32
0.0
 13
1.0
 23
0.0
 33
0.0
 40
0.0
 40
0.0
 40
0.0
 40
0.0
 40
0.5
 40
0.5
 40
1.0
 40
1.0
 40
1.0
 40
1.0
 10
132.212193364152
 20
99.80105970156129
 30
0.0
 10
132.0906531004834
 20
99.87578586877305
 30
0.0
 10
131.9893187401345
 20
99.98473088468984
 30
0.0
 10
131.8536797972461
 20
100.2351613654514
 30
0.0
 10
131.817895832461
 20
100.3775807275504
 30
0.0
 10
131.817895832461
 20
100.5207135525971
 30
0.0
  0
SPLINE
  5
86
330
1F
100
AcDbEntity
  8
0
  6
Continuous
 62
     7
370
    15
100
AcDbSpline
210
0.0
220
0.0
230
1.0
 70
    24
 71
     3
 72
    12
 73
     8
 74
     0
 42
0.00000001
 43
0.00000001
 12
1.0
 22
0.0
 32
0.0
 13
1.0
 23
0.0
 33
0.0
 40
0.0
 40
0.0
 40
0.0
 40
0.0
 40
0.2499999999999979
 40
0.2499999999999979
 40
0.4999999999999959
 40
0.4999999999999959
 40
1.0
 40
1.0
 40
1.0
 40
1.0
 10
132.617895832461
 20
99.80105970156129
 30
0.0
 10
132.5685524706514
 20
99.80105970156129
 30
0.0
 10
132.5198617723498
 20
99.80105970156129
 30
0.0
 10
132.4370106747794
 20
99.80105970156129
 30
0.0
 10
132.4008107071588
 20
99.80105970156129
 30
0.0
 10
132.3050607906094
 20
99.80105970156129
 30
0.0
 10
132.2551788207972
 20
99.80105970156129
 30
0.0
 10
132.212193364152
 20
99.80105970156129
 30
0.0
  0
SPLINE
  5
87
330
1F
100
AcDbEntity
  8
0
  6
Continuous
 62
     7
370
    15
100
AcDbSpline
210
0.0
220
0.0
230
1.0
 70
    24
 71
     3
 72
    14
 73
    10
 74
     0
 42
0.00000001
 43
0.00000001
 12
1.0
 22
0.0
 32
0.0
 13
1.0
 23
0.0
 33
0.0
 40
0.0
 40
0.0
 40
0.0
 40
0.0
 40
0.1250000000000001
 40
0.1250000000000001
 40
0.2500000000000002
 40
0.2500000000000002
 40
0.5000000000000003
 40
0.5000000000000003
 40
1.0
 40
1.0
 40
1.0
 40
1.0
 10
132.617895832461
 20
47.00105970156129
 30
0.0
 10
132.5485491107299
 20
47.0010597015613
 30
0.0
 10
132.4833510573459
 20
47.0010597015613
 30
0.0
 10
132.3789718647189
 20
47.0010597015613
 30
0.0
 10
132.3360694937099
 20
47.0010597015613
 30
0.0
 10
132.2237438361053
 20
47.00105970156128
 30
0.0
 10
132.1685201417514
 20
47.0010597015613
 30
0.0
 10
132.0244627629839
 20
47.00105970156128
 30
0.0
 10
131.9623820661524
 20
47.00105970156129
 30
0.0
 10
131.9155706347933
 20
47.00105970156129
 30
0.0
  0
SPLINE
  5
88
330
1F
100
AcDbEntity
  8
0
  6
Continuous
 62
     7
370
    15
100
AcDbSpline
210
0.0
220
0.0
230
1.0
 70
     8
 71
     3
 72
     9
 73
     5
 74
     0
 42
0.00000001
 43
0.00000001
 12
1.0
 22
0.0
 32
0.0
 13
1.0
 23
0.0
 33
0.0
 40
0.0
 40
0.0
 40
0.0
 40
0.0
 40
0.5
 40
1.0
 40
1.0
 40
1.0
 40
1.0
 10
131.817895832461
 20
93.53692633302268
 30
0.0
 10
131.817895832461
 20
93.48869428089992
 30
0.0
 10
131.8223018071662
 20
93.39282426746037
 30
0.0
 10
131.83532098726
 20
93.29811563747703
 30
0.0
 10
131.8440434556211
 20
93.25105970156127
 30
0.0
  0
SPLINE
  5
89
330
1F
100
AcDbEntity
  8
0
  6
Continuous
 62
     7
370
    15
100
AcDbSpline
210
0.0
220
0.0
230
1.0
 70
    24
 71
     3
 72
    14
 73
    10
 74
     0
 42
0.00000001
 43
0.00000001
 12
1.0
 22
0.0
 32
0.0
 13
1.0
 23
0.0
 33
0.0
 40
0.0
 40
0.0
 40
0.0
 40
0.0
 40
0.5000000000000027
 40
0.5000000000000027
 40
0.7500000000000013
 40
0.7500000000000013
 40
0.8750000000000007
 40
0.8750000000000007
 40
1.0
 40
1.0
 40
1.0
 40
1.0
 10
135.5402210301287
 20
47.00105970156129
 30
0.0
 10
135.4934363250805
 20
47.00105970156129
 30
0.0
 10
135.4313851283009
 20
47.0010597015613
 30
0.0
 10
135.2879934897505
 20
47.0010597015613
 30
0.0
 10
135.2318498361992
 20
47.0010597015613
 30
0.0
 10
135.1188988140629
 20
47.00105970156129
 30
0.0
 10
135.0758980520248
 20
47.00105970156129
 30
0.0
 10
134.9718353417183
 20
47.00105970156128
 30
0.0
 10
134.9065031033614
 20
47.0010597015613
 30
0.0
 10
134.837895832461
 20
47.00105970156129
 30
0.0
  0
SPLINE
  5
8A
330
1F
100
AcDbEntity
  8
0
  6
Continuous
 62
     7
370
    15
100
AcDbSpline
210
0.0
220
0.0
230
1.0
 70
    24
 71
     3
 72
    12
 73
     8
 74
     0
 42
0.00000001
 43
0.00000001
 12
1.0
 22
0.0
 32
0.0
 13
1.0
 23
0.0
 33
0.0
 40
0.0
 40
0.0
 40
0.0
 40
0.0
 40
0.5000000000000058
 40
0.5000000000000058
 40
0.7500000000000029
 40
0.7500000000000029
 40
1.0
 40
1.0
 40
1.0
 40
1.0
 10
135.24359830077
 20
99.80105970156129
 30
0.0
 10
135.2005127511593
 20
99.80105970156129
 30
0.0
 10
135.1513605494122
 20
99.80105970156129
 30
0.0
 10
135.0548879551226
 20
99.80105970156129
 30
0.0
 10
135.0187863699884
 20
99.80105970156129
 30
0.0
 10
134.9356806121258
 20
99.80105970156129
 30
0.0
 10
134.8876840151618
 20
99.80105970156129
 30
0.0
 10
134.837895832461
 20
99.80105970156129
 30
0.0
  0
SPLINE
  5
8B
330
1F
100
AcDbEntity
  8
0
  6
Continuous
 62
     7
370
    15
100
AcDbSpline
210
0.0
220
0.0
230
1.0
 70
     8
 71
     3
 72
    10
 73
     6
 74
     0
 42
0.00000001
 43
0.00000001
 12
1.0
 22
0.0
 32
0.0
 13
1.0
 23
0.0
 33
0.0
 40
0.0
 40
0.0
 40
0.0
 40
0.0
 40
0.5
 40
0.5
 40
1.0
 40
1.0
 40
1.0
 40
1.0
 10
135.637895832461
 20
100.5207135525971
 30
0.0
 10
135.637895832461
 20
100.3769434947791
 30
0.0
 10
135.6018467737421
 20
100.2345241322839
 30
0.0
 10
135.4663379129681
 20
99.98462983892668
 30
0.0
 10
135.3664619198719
 20
99.87659950267847
 30
0.0
 10
135.24359830077
 20
99.80105970156127
 30
0.0
  0
SPLINE
  5
8C
330
1F
100
AcDbEntity
  8
0
  6
Continuous
 62
     7
370
    15
100
AcDbSpline
210
0.0
220
0.0
230
1.0
 70
     8
 71
     3
 72
    10
 73
     6
 74
     0
 42
0.00000001
 43
0.00000001
 12
1.0
 22
0.0
 32
0.0
 13
1.0
 23
0.0
 33
0.0
 40
0.0
 40
0.0
 40
0.0
 40
0.0
 40
0.5
 40
0.5
 40
1.0
 40
1.0
 40
1.0
 40
1.0
 10
135.6117482093009
 20
93.25105970156129
 30
0.0
 10
135.6204378522125
 20
93.29793855087944
 30
0.0
 10
135.626976916963
 20
93.3453610162807
 30
0.0
 10
135.6357355513561
 20
93.44129781486744
 30
0.0
 10
135.637895832461
 20
93.48921310287793
 30
0.0
 10
135.637895832461
 20
93.53692633302246
 30
0.0
  0
LINE
  5
8D
330
1F
100
AcDbEntity
  8
0
  6
Continuous
 62
     7
370
    15
100
AcDbLine
 10
134.8378955934
 20
99.8010595585
 30
0.0
 11
132.6178963844
 21
99.8010595585
 31
0.0
  0
LINE
  5
8E
330
1F
100
AcDbEntity
  8
0
  6
Continuous
 62
     7
370
    15
100
AcDbLine
 10
134.8378955934
 20
47.0010598446
 30
0.0
 11
132.6178963844
 21
47.0010598446
 31
0.0
  0
LINE
  5
8F
330
1F
100
AcDbEntity
  8
0
  6
Continuous
 62
     7
370
    15
100
AcDbLine
 10
141.8778951828
 20
99.8010595585
 30
0.0
 11
141.8501827482
 21
99.8010595585
 31
0.0
  0
SPLINE
  5
90
330
1F
100
AcDbEntity
  8
0
  6
Continuous
 62
     7
370
    15
100
AcDbSpline
210
0.0
220
0.0
230
1.0
 70
    24
 71
     3
 72
    10
 73
     6
 74
     0
 42
0.00000001
 43
0.00000001
 12
1.0
 22
0.0
 32
0.0
 13
1.0
 23
0.0
 33
0.0
 40
0.0
 40
0.0
 40
0.0
 40
0.0
 40
0.5
 40
0.5
 40
1.0
 40
1.0
 40
1.0
 40
1.0
 10
141.8778958324297
 20
47.00105970156129
 30
0.0
 10
141.8778945727068
 20
47.00105970156129
 30
0.0
 10
141.8346896519437
 20
47.00105970156128
 30
0.0
 10
141.7337626859422
 20
47.0010597015613
 30
0.0
 10
141.677895832461
 20
47.00105970156129
 30
0.0
 10
141.677895832461
 20
47.00105970156129
 30
0.0
  0
ELLIPSE
  5
91
330
1F
100
AcDbEntity
  8
0
  6
Continuous
 62
     7
370
    15
100
AcDbEllipse
 10
167.6475110747
 20
73.4010597016
 30
0.0
 11
0.0
 21
26.0
 31
0.0
210
0.0
220
0.0
230
1.0
 40
0.2679491924
 41
0.1601874882047457
 42
2.981405165385048
  0
ELLIPSE
  5
92
330
1F
100
AcDbEntity
  8
0
  6
Continuous
 62
     7
370
    15
100
AcDbEllipse
 10
164.2054380245
 20
73.4010597016
 30
0.0
 11
0.0
 21
2.500000000000014
 31
0.0
210
0.0
220
0.0
230
1.0
 40
0.2959218081
 41
0.0
 42
6.283185307179586
  0
LINE
  5
93
330
1F
100
AcDbEntity
  8
0
  6
Continuous
 62
     7
370
    15
100
AcDbLine
 10
184.4808328513
 20
99.399327978
 30
0.0
 11
172.3318565253
 21
99.399327978
 31
0.0
  0
SPLINE
  5
94
330
1F
100
AcDbEntity
  8
0
  6
Continuous
 62
     7
370
    15
100
AcDbSpline
210
0.0
220
0.0
230
1.0
 70
     8
 71
     3
 72
    18
 73
    14
 74
     0
 42
0.00000001
 43
0.00000001
 12
1.0
 22
0.0
 32
0.0
 13
1.0
 23
0.0
 33
0.0
 40
0.0
 40
0.0
 40
0.0
 40
0.0
 40
0.2500000000000011
 40
0.2500000000000011
 40
0.5000000000000022
 40
0.5000000000000022
 40
0.6250000000000017
 40
0.6250000000000017
 40
0.7500000000000011
 40
0.7500000000000011
 40
0.8750000000000006
 40
0.8750000000000006
 40
1.0
 40
1.0
 40
1.0
 40
1.0
 10
172.3318577603348
 20
99.39932887471973
 30
0.0
 10
171.6700222957917
 20
99.39932887471971
 30
0.0
 10
171.0263367263009
 20
99.40121020087179
 30
0.0
 10
169.7750865794703
 20
99.40089491778464
 30
0.0
 10
169.1981332942
 20
99.39854272426408
 30
0.0
 10
168.4136440747362
 20
99.37665472882902
 30
0.0
 10
168.1698623689082
 20
99.36625049134854
 30
0.0
 10
167.7248767621035
 20
99.33680573917196
 30
0.0
 10
167.5222320563849
 20
99.31774027100786
 30
0.0
 10
167.1576937298029
 20
99.2676762397825
 30
0.0
 10
166.9981538477271
 20
99.23684208136089
 30
0.0
 10
166.7304250082343
 20
99.16269470720843
 30
0.0
 10
166.6209353290328
 20
99.11922492241625
 30
0.0
 10
166.5363028026004
 20
99.06819199079712
 30
0.0
  0
SPLINE
  5
95
330
1F
100
AcDbEntity
  8
0
  6
Continuous
 62
     7
370
    15
100
AcDbSpline
210
0.0
220
0.0
230
1.0
 70
     8
 71
     3
 72
    16
 73
    12
 74
     0
 42
0.00000001
 43
0.00000001
 12
1.0
 22
0.0
 32
0.0
 13
1.0
 23
0.0
 33
0.0
 40
0.0
 40
0.0
 40
0.0
 40
0.0
 40
0.2499999999999994
 40
0.2499999999999994
 40
0.4999999999999988
 40
0.4999999999999988
 40
0.7499999999999982
 40
0.7499999999999982
 40
0.8749999999999991
 40
0.8749999999999991
 40
1.0
 40
1.0
 40
1.0
 40
1.0
 10
166.5363028026004
 20
47.73392741232546
 30
0.0
 10
166.7055601558589
 20
47.631866191906
 30
0.0
 10
166.9718992705646
 20
47.56013110188583
 30
0.0
 10
167.7027445625903
 20
47.45941782898787
 30
0.0
 10
168.1482904458632
 20
47.43293051987089
 30
0.0
 10
169.1952140831849
 20
47.40359630194374
 30
0.0
 10
169.7722714819348
 20
47.40123542200218
 30
0.0
 10
170.7096145945231
 20
47.40098393782033
 30
0.0
 10
171.0293445404493
 20
47.40153499728788
 30
0.0
 10
171.6743276362911
 20
47.40243620958996
 30
0.0
 10
172.0009499333193
 20
47.40279052840286
 30
0.0
 10
172.3318577603348
 20
47.40279052840285
 30
0.0
  0
LINE
  5
96
330
1F
100
AcDbEntity
  8
0
  6
Continuous
 62
     7
370
    15
100
AcDbLine
 10
172.3318565253
 20
47.4027914251
 30
0.0
 11
184.4808328513
 21
47.4027914251
 31
0.0
  0
SPLINE
  5
97
330
1F
100
AcDbEntity
  8
0
  6
Continuous
 62
     7
370
    15
100
AcDbSpline
210
0.0
220
0.0
230
1.0
 70
     8
 71
     3
 72
    70
 73
    66
 74
     0
 42
0.00000001
 43
0.00000001
 12
1.0
 22
0.0
 32
0.0
 13
1.0
 23
0.0
 33
0.0
 40
-0.03125
 40
-0.03125
 40
0.0
 40
0.0
 40
0.03125
 40
0.03125
 40
0.0625
 40
0.0625
 40
0.09375
 40
0.09375
 40
0.125
 40
0.125
 40
0.15625
 40
0.15625
 40
0.1875
 40
0.1875
 40
0.21875
 40
0.21875
 40
0.25
 40
0.25
 40
0.28125
 40
0.28125
 40
0.3125
 40
0.3125
 40
0.34375
 40
0.34375
 40
0.375
 40
0.375
 40
0.40625
 40
0.40625
 40
0.4375
 40
0.4375
 40
0.46875
 40
0.46875
 40
0.5
 40
0.5
 40
0.53125
 40
0.53125
 40
0.5625
 40
0.5625
 40
0.59375
 40
0.59375
 40
0.625
 40
0.625
 40
0.65625
 40
0.65625
 40
0.6875
 40
0.6875
 40
0.71875
 40
0.71875
 40
0.75
 40
0.75
 40
0.78125
 40
0.78125
 40
0.8125
 40
0.8125
 40
0.84375
 40
0.84375
 40
0.875
 40
0.875
 40
0.90625
 40
0.90625
 40
0.9375
 40
0.9375
 40
0.96875
 40
0.96875
 40
1.0
 40
1.0
 40
1.03125
 40
1.03125
 10
152.727895832461
 20
73.59943091186462
 30
0.0
 10
152.727895832461
 20
73.20268849125796
 30
0.0
 10
152.7473773993401
 20
73.00766503250136
 30
0.0
 10
152.8236792449192
 20
72.62402977391044
 30
0.0
 10
152.8814376101946
 20
72.43341748160888
 30
0.0
 10
153.0320749615209
 20
72.07019317604265
 30
0.0
 10
153.1242318800815
 20
71.89794684245419
 30
0.0
 10
153.341931117713
 20
71.57196521955355
 30
0.0
 10
153.4685354394249
 20
71.41774983418883
 30
0.0
 10
153.745069703162
 20
71.14127476564235
 30
0.0
 10
153.8959884284503
 20
71.01715237743575
 30
0.0
 10
154.2238554961773
 20
70.79783832531984
 30
0.0
 10
154.3982218731119
 20
70.70474171580882
 30
0.0
 10
154.7591273694501
 20
70.5550710888752
 30
0.0
 10
154.9483390797227
 20
70.49739266139777
 30
0.0
 10
155.3356571600567
 20
70.42026453336499
 30
0.0
 10
155.5304131657286
 20
70.40116824851276
 30
0.0
 10
155.922066696543
 20
70.40095206861294
 30
0.0
 10
156.1210014380109
 20
70.42046117954594
 30
0.0
 10
156.5058800783319
 20
70.49705555560497
 30
0.0
 10
156.6929640863553
 20
70.55372589790481
 30
0.0
 10
157.0563731560255
 20
70.70405867729482
 30
0.0
 10
157.2318322846313
 20
70.79791887687777
 30
0.0
 10
157.5567383232238
 20
71.01495363743065
 30
0.0
 10
157.7083080497344
 20
71.13894565655391
 30
0.0
 10
157.9883953227015
 20
71.41880478415837
 30
0.0
 10
158.1124151057922
 20
71.57015106780847
 30
0.0
 10
158.3297096948145
 20
71.89483155957748
 30
0.0
 10
158.4237410086816
 20
72.07024362586344
 30
0.0
 10
158.5743662826923
 20
72.43345512455274
 30
0.0
 10
158.6311900801809
 20
72.62044487029016
 30
0.0
 10
158.7081180303614
 20
73.00513969097048
 30
0.0
 10
158.7278227536351
 20
73.2040858099874
 30
0.0
 10
158.7279684959969
 20
73.59580122217747
 30
0.0
 10
158.7090460494716
 20
73.79057370677637
 30
0.0
 10
158.6322892712467
 20
74.1778972195656
 30
0.0
 10
158.5747639420553
 20
74.36725173991242
 30
0.0
 10
158.4253713786135
 20
74.72839190048786
 30
0.0
 10
158.332356571521
 20
74.90294642494997
 30
0.0
 10
158.1133735363109
 20
75.23091641606968
 30
0.0
 10
157.9893883677823
 20
75.38194166844384
 30
0.0
 10
157.7130958618956
 20
75.65876267076854
 30
0.0
 10
157.5589543180428
 20
75.78551224971908
 30
0.0
 10
157.2332634364624
 20
76.00341584722246
 30
0.0
 10
157.0611313753929
 20
76.0957091281809
 30
0.0
 10
156.6980557005083
 20
76.24666023145805
 30
0.0
 10
156.5074990814826
 20
76.30458504989458
 30
0.0
 10
156.1239764074192
 20
76.38122091405295
 30
0.0
 10
155.9290014829097
 20
76.40087491690785
 30
0.0
 10
155.5323415520132
 20
76.40124191807175
 30
0.0
 10
155.3371948913053
 20
76.38193270339603
 30
0.0
 10
154.9534829963965
 20
76.30597550719591
 30
0.0
 10
154.7628415105059
 20
76.24839760335858
 30
0.0
 10
154.3994479604563
 20
76.09807457410128
 30
0.0
 10
154.227111108076
 20
76.00606648631609
 30
0.0
 10
153.9009313693632
 20
75.78865597985958
 30
0.0
 10
153.7466030007024
 20
75.66218927208526
 30
0.0
 10
153.4698785309459
 20
75.3858987595039
 30
0.0
 10
153.3456217482542
 20
75.23509032298625
 30
0.0
 10
153.1260175297436
 20
74.90742201868686
 30
0.0
 10
153.0327607532804
 20
74.73312995057928
 30
0.0
 10
152.8827681736752
 20
74.37235412065418
 30
0.0
 10
152.8249673876089
 20
74.18344212364515
 30
0.0
 10
152.7473797649226
 20
73.79557178181062
 30
0.0
 10
152.727895832461
 20
73.59943091186462
 30
0.0
 10
152.727895832461
 20
73.20268849125796
 30
0.0
  0
LINE
  5
98
330
1F
100
AcDbEntity
  8
0
  6
Continuous
 62
     7
370
    15
100
AcDbLine
 10
113.7278957375
 20
49.180628478
 30
0.0
 11
113.7278957375
 21
97.6214909251
 31
0.0
  0
LINE
  5
99
330
1F
100
AcDbEntity
  8
0
  6
Continuous
 62
     7
370
    15
100
AcDbLine
 10
93.9278956119
 20
50.1726136799
 30
0.0
 11
93.9278956119
 21
51.4559109951
 31
0.0
  0
SPLINE
  5
9A
330
1F
100
AcDbEntity
  8
0
  6
Continuous
 62
     7
370
    15
100
AcDbSpline
210
0.0
220
0.0
230
1.0
 70
     8
 71
     3
 72
    14
 73
    10
 74
     0
 42
0.00000001
 43
0.00000001
 12
1.0
 22
0.0
 32
0.0
 13
1.0
 23
0.0
 33
0.0
 40
0.0
 40
0.0
 40
0.0
 40
0.0
 40
0.25
 40
0.25
 40
0.5
 40
0.5
 40
0.75
 40
0.75
 40
1.0
 40
1.0
 40
1.0
 40
1.0
 10
93.30629159572123
 20
52.53668848427807
 30
0.0
 10
93.34472798054223
 20
52.43406408656655
 30
0.0
 10
93.41352937393404
 20
52.33486766312698
 30
0.0
 10
93.55681538609302
 20
52.14397563380045
 30
0.0
 10
93.63199744119993
 20
52.05171836776756
 30
0.0
 10
93.76418472985009
 20
51.87211104595254
 30
0.0
 10
93.82170192531989
 20
51.7848014915082
 30
0.0
 10
93.9037467236122
 20
51.61486765799246
 30
0.0
 10
93.927895832461
 20
51.53296531612129
 30
0.0
 10
93.927895832461
 20
51.45591144228538
 30
0.0
  0
SPLINE
  5
9B
330
1F
100
AcDbEntity
  8
0
  6
Continuous
 62
     7
370
    15
100
AcDbSpline
210
0.0
220
0.0
230
1.0
 70
     8
 71
     3
 72
    18
 73
    14
 74
     0
 42
0.00000001
 43
0.00000001
 12
1.0
 22
0.0
 32
0.0
 13
1.0
 23
0.0
 33
0.0
 40
0.0
 40
0.0
 40
0.0
 40
0.0
 40
0.0624999999999986
 40
0.0624999999999986
 40
0.1249999999999972
 40
0.1249999999999972
 40
0.2499999999999957
 40
0.2499999999999957
 40
0.4999999999999971
 40
0.4999999999999971
 40
0.7499999999999986
 40
0.7499999999999986
 40
1.0
 40
1.0
 40
1.0
 40
1.0
 10
92.527895832461
 20
53.25497093576469
 30
0.0
 10
92.5644680428114
 20
53.25874833929213
 30
0.0
 10
92.60311851624687
 20
53.258191311409
 30
0.0
 10
92.6772100099607
 20
53.24813210624713
 30
0.0
 10
92.71256030371481
 20
53.23877822482255
 30
0.0
 10
92.80715460110423
 20
53.20439379838874
 30
0.0
 10
92.8572927742432
 20
53.17368206372591
 30
0.0
 10
92.98648604582435
 20
53.07775275368788
 30
0.0
 10
93.04476619056548
 20
53.00923725957063
 30
0.0
 10
93.14496128698897
 20
52.87266530963801
 30
0.0
 10
93.1849765384356
 20
52.8039004071351
 30
0.0
 10
93.25337595925338
 20
52.66886497802744
 30
0.0
 10
93.2817376831153
 20
52.60224695197428
 30
0.0
 10
93.30629159572123
 20
52.53668848427807
 30
0.0
  0
SPLINE
  5
9C
330
1F
100
AcDbEntity
  8
0
  6
Continuous
 62
     7
370
    15
100
AcDbSpline
210
0.0
220
0.0
230
1.0
 70
     8
 71
     3
 72
    10
 73
     6
 74
     0
 42
0.00000001
 43
0.00000001
 12
1.0
 22
0.0
 32
0.0
 13
1.0
 23
0.0
 33
0.0
 40
0.0
 40
0.0
 40
0.0
 40
0.0
 40
0.5
 40
0.5
 40
1.0
 40
1.0
 40
1.0
 40
1.0
 10
88.61429397133901
 20
52.75877727939307
 30
0.0
 10
89.24192162704635
 20
52.86205083812867
 30
0.0
 10
89.89312237207781
 20
52.95087594988021
 30
0.0
 10
91.20182707609007
 20
53.11298365675053
 30
0.0
 10
91.86287151338125
 20
53.18628312103712
 30
0.0
 10
92.5278958324609
 20
53.25497093576481
 30
0.0
  0
SPLINE
  5
9D
330
1F
100
AcDbEntity
  8
0
  6
Continuous
 62
     7
370
    15
100
AcDbSpline
210
0.0
220
0.0
230
1.0
 70
     8
 71
     3
 72
    14
 73
    10
 74
     0
 42
0.00000001
 43
0.00000001
 12
1.0
 22
0.0
 32
0.0
 13
1.0
 23
0.0
 33
0.0
 40
0.0
 40
0.0
 40
0.0
 40
0.0
 40
0.4999999999999998
 40
0.4999999999999998
 40
0.750000000000001
 40
0.750000000000001
 40
0.8750000000000004
 40
0.8750000000000004
 40
1.0
 40
1.0
 40
1.0
 40
1.0
 10
84.977895832461
 20
52.59442814303374
 30
0.0
 10
85.5939727362163
 20
52.60015426326288
 30
0.0
 10
86.2081047323322
 20
52.61004462866491
 30
0.0
 10
87.12200136284575
 20
52.64067959633469
 30
0.0
 10
87.42544029039334
 20
52.65347305397267
 30
0.0
 10
87.87657690603085
 20
52.68139888193206
 30
0.0
 10
88.02628315557334
 20
52.69216850209182
 30
0.0
 10
88.32312429182143
 20
52.71930121769136
 30
0.0
 10
88.47050984432472
 20
52.73511819051858
 30
0.0
 10
88.61429397133901
 20
52.75877727939306
 30
0.0
  0
SPLINE
  5
9E
330
1F
100
AcDbEntity
  8
0
  6
Continuous
 62
     7
370
    15
100
AcDbSpline
210
0.0
220
0.0
230
1.0
 70
     8
 71
     3
 72
     8
 73
     4
 74
     0
 42
0.00000001
 43
0.00000001
 12
1.0
 22
0.0
 32
0.0
 13
1.0
 23
0.0
 33
0.0
 40
0.0000005954826279
 40
0.0000005954826279
 40
0.0000005954826279
 40
0.0000005954826279
 40
0.0000302093805348
 40
0.0000302093805348
 40
0.0000302093805348
 40
0.0000302093805348
 10
84.96785090205142
 20
52.60624327268562
 30
0.0
 10
84.97116692937159
 20
52.60229649308982
 30
0.0
 10
84.97451548076386
 20
52.59835810195989
 30
0.0
 10
84.97789583246094
 20
52.59442814303372
 30
0.0
  0
SPLINE
  5
9F
330
1F
100
AcDbEntity
  8
0
  6
Continuous
 62
     7
370
    15
100
AcDbSpline
210
0.0
220
0.0
230
1.0
 70
     8
 71
     3
 72
     8
 73
     4
 74
     0
 42
0.00000001
 43
0.00000001
 12
1.0
 22
0.0
 32
0.0
 13
1.0
 23
0.0
 33
0.0
 40
0.0000005099763573
 40
0.0000005099763573
 40
0.0000005099763573
 40
0.0000005099763573
 40
0.0000262827998699
 40
0.0000262827998699
 40
0.0000262827998699
 40
0.0000262827998699
 10
84.97789583246097
 20
94.27099746695637
 30
0.0
 10
84.97452709323323
 20
94.26767579800048
 30
0.0
 10
84.9711786402541
 20
94.2643478407216
 30
0.0
 10
84.96785090204276
 20
94.26101359384893
 30
0.0
  0
SPLINE
  5
A0
330
1F
100
AcDbEntity
  8
0
  6
Continuous
 62
     7
370
    15
100
AcDbSpline
210
0.0
220
0.0
230
1.0
 70
     8
 71
     3
 72
    10
 73
     6
 74
     0
 42
0.00000001
 43
0.00000001
 12
1.0
 22
0.0
 32
0.0
 13
1.0
 23
0.0
 33
0.0
 40
0.0
 40
0.0
 40
0.0
 40
0.0
 40
0.5
 40
0.5
 40
1.0
 40
1.0
 40
1.0
 40
1.0
 10
88.52789583246101
 20
94.22414709338902
 30
0.0
 10
87.94031028537042
 20
94.24521261362545
 30
0.0
 10
87.34956389191002
 20
94.25597109949766
 30
0.0
 10
86.16554472661116
 20
94.26933588003334
 30
0.0
 10
85.57213073840569
 20
94.2714785226979
 30
0.0
 10
84.97789583246099
 20
94.27099746695636
 30
0.0
  0
SPLINE
  5
A1
330
1F
100
AcDbEntity
  8
0
  6
Continuous
 62
     7
370
    15
100
AcDbSpline
210
0.0
220
0.0
230
1.0
 70
     8
 71
     3
 72
    18
 73
    14
 74
     0
 42
0.00000001
 43
0.00000001
 12
1.0
 22
0.0
 32
0.0
 13
1.0
 23
0.0
 33
0.0
 40
0.0
 40
0.0
 40
0.0
 40
0.0
 40
0.2500000000000003
 40
0.2500000000000003
 40
0.4999999999999999
 40
0.4999999999999999
 40
0.7499999999999996
 40
0.7499999999999996
 40
0.8749999999999993
 40
0.8749999999999993
 40
0.9374999999999997
 40
0.9374999999999997
 40
1.0
 40
1.0
 40
1.0
 40
1.0
 10
89.927895832461
 20
95.24516737392428
 30
0.0
 10
89.92789583246102
 20
95.16196046506707
 30
0.0
 10
89.89204673252274
 20
95.07322380975351
 30
0.0
 10
89.76717499648883
 20
94.89109861919329
 30
0.0
 10
89.67677457884095
 20
94.79596857056666
 30
0.0
 10
89.45453192409877
 20
94.60678706144232
 30
0.0
 10
89.324767137653
 20
94.51184189334762
 30
0.0
 10
89.08412968034149
 20
94.3735631857677
 30
0.0
 10
88.99636238220407
 20
94.3278527524653
 30
0.0
 10
88.84183829499723
 20
94.27002944724383
 30
0.0
 10
88.78522740894249
 20
94.25231468320597
 30
0.0
 10
88.66118337803589
 20
94.22777537997304
 30
0.0
 10
88.59346870301759
 20
94.22179624143477
 30
0.0
 10
88.527895832461
 20
94.22414709338902
 30
0.0
  0
LINE
  5
A2
330
1F
100
AcDbEntity
  8
0
  6
Continuous
 62
     7
370
    15
100
AcDbLine
 10
89.9278949563
 20
95.2451673592
 30
0.0
 11
89.9278949563
 21
96.4291055943
 31
0.0
  0
SPLINE
  5
A3
330
1F
100
AcDbEntity
  8
0
  6
Continuous
 62
     7
370
    15
100
AcDbSpline
210
0.0
220
0.0
230
1.0
 70
     8
 71
     3
 72
    24
 73
    20
 74
     0
 42
0.00000001
 43
0.00000001
 12
1.0
 22
0.0
 32
0.0
 13
1.0
 23
0.0
 33
0.0
 40
0.0
 40
0.0
 40
0.0
 40
0.0
 40
0.0010489815523775
 40
0.0637843212772741
 40
0.1272220630088516
 40
0.1903789073370505
 40
0.2526748662763491
 40
0.3146354150030102
 40
0.3770891884518245
 40
0.4393540587943444
 40
0.5008133488401828
 40
0.5621845177353679
 40
0.6248438462901906
 40
0.6874304788646655
 40
0.7496743245911356
 40
0.811984857412469
 40
0.8750960476811308
 40
0.9384412548145236
 40
1.0
 40
1.0
 40
1.0
 40
1.0
 10
102.4968018371879
 20
49.74355150711472
 30
0.0
 10
102.4963551714372
 20
49.74349286214824
 30
0.0
 10
102.4691952355136
 20
49.73992689916755
 30
0.0
 10
102.5648251586454
 20
49.75279150864276
 30
0.0
 10
102.7983783346659
 20
49.78202599098282
 30
0.0
 10
103.1939342869003
 20
49.82864520172424
 30
0.0
 10
103.7209742872703
 20
49.8788260011494
 30
0.0
 10
104.3645047291066
 20
49.92320467459245
 30
0.0
 10
105.1031785633763
 20
49.95014787110325
 30
0.0
 10
105.9006932334952
 20
49.95361961940538
 30
0.0
 10
106.7272722832597
 20
49.92599417311196
 30
0.0
 10
107.5527951046784
 20
49.86751303013332
 30
0.0
 10
108.344921575594
 20
49.78206996673473
 30
0.0
 10
109.0774939544314
 20
49.68033479824221
 30
0.0
 10
109.7131341362521
 20
49.57249114719429
 30
0.0
 10
110.2350450667983
 20
49.47085975191946
 30
0.0
 10
110.6166739044373
 20
49.38837778762696
 30
0.0
 10
110.8674885803706
 20
49.33222568012005
 30
0.0
 10
110.8966098960779
 20
49.32537682920718
 30
0.0
 10
110.9109622974216
 20
49.32200138223107
 30
0.0
  0
SPLINE
  5
A4
330
1F
100
AcDbEntity
  8
0
  6
Continuous
 62
     7
370
    15
100
AcDbSpline
210
0.0
220
0.0
230
1.0
 70
     8
 71
     3
 72
    24
 73
    20
 74
     0
 42
0.00000001
 43
0.00000001
 12
1.0
 22
0.0
 32
0.0
 13
1.0
 23
0.0
 33
0.0
 40
0.0
 40
0.0
 40
0.0
 40
0.0
 40
0.061438429114026
 40
0.1250736777967296
 40
0.1884253375120635
 40
0.2508623992448768
 40
0.3129665476325514
 40
0.3753451442328022
 40
0.4377328732174486
 40
0.499092717251918
 40
0.560580729454827
 40
0.622946985474185
 40
0.6854686070210457
 40
0.7475477863222202
 40
0.8098225081553685
 40
0.873068419947611
 40
0.936404185690527
 40
0.9991757203144552
 40
1.0
 40
1.0
 40
1.0
 40
1.0
 10
110.910907815051
 20
97.48008821856911
 30
0.0
 10
110.8963070065988
 20
97.47672006069614
 30
0.0
 10
110.8665833167478
 20
97.46986331161176
 30
0.0
 10
110.6138453167618
 20
97.41352549171567
 30
0.0
 10
110.2308500177407
 20
97.33066767883042
 30
0.0
 10
109.7084940608577
 20
97.22876093060937
 30
0.0
 10
109.0737097161561
 20
97.12092236072034
 30
0.0
 10
108.3434859795419
 20
97.01945610749134
 30
0.0
 10
107.5530178846308
 20
96.93439402892413
 30
0.0
 10
106.7285341571731
 20
96.87619267196752
 30
0.0
 10
105.901497776693
 20
96.84860822428296
 30
0.0
 10
105.1031733177026
 20
96.85210215281714
 30
0.0
 10
104.363349566703
 20
96.8790558114908
 30
0.0
 10
103.7190946952434
 20
96.9234113121042
 30
0.0
 10
103.1916878381458
 20
96.97361649582695
 30
0.0
 10
102.7970225978327
 20
97.02022395587215
 30
0.0
 10
102.5644939122445
 20
97.0494271327105
 30
0.0
 10
102.4691146835783
 20
97.06218527142771
 30
0.0
 10
102.4960476279051
 20
97.05864544150894
 30
0.0
 10
102.4963967118679
 20
97.05859956097538
 30
0.0
  0
SPLINE
  5
A5
330
1F
100
AcDbEntity
  8
0
  6
Continuous
 62
     7
370
    15
100
AcDbSpline
210
0.0
220
0.0
230
1.0
 70
     8
 71
     3
 72
     9
 73
     5
 74
     0
 42
0.00000001
 43
0.00000001
 12
1.0
 22
0.0
 32
0.0
 13
1.0
 23
0.0
 33
0.0
 40
0.0
 40
0.0
 40
0.0
 40
0.0
 40
0.5865081526888636
 40
1.0
 40
1.0
 40
1.0
 40
1.0
 10
83.83441526333678
 20
53.7502409214967
 30
0.0
 10
83.83841569991871
 20
53.74444044928283
 30
0.0
 10
83.84523646884341
 20
53.73455060855808
 30
0.0
 10
83.85439017994659
 20
53.78861661408523
 30
0.0
 10
83.85817516486037
 20
53.81097246658738
 30
0.0
  0
LINE
  5
A6
330
1F
100
AcDbEntity
  8
0
  6
Continuous
 62
     7
370
    15
100
AcDbLine
 10
83.8278960053
 20
53.7478995765
 30
0.0
 11
83.8278960053
 21
93.0917372252
 31
0.0
  0
SPLINE
  5
A7
330
1F
100
AcDbEntity
  8
0
  6
Continuous
 62
     7
370
    15
100
AcDbSpline
210
0.0
220
0.0
230
1.0
 70
     8
 71
     3
 72
    10
 73
     6
 74
     0
 42
0.00000001
 43
0.00000001
 12
1.0
 22
0.0
 32
0.0
 13
1.0
 23
0.0
 33
0.0
 40
0.0
 40
0.0
 40
0.0
 40
0.0
 40
0.5
 40
0.5
 40
1.0
 40
1.0
 40
1.0
 40
1.0
 10
83.89055920718441
 20
93.07561224634203
 30
0.0
 10
83.88165491807565
 20
93.12135376555523
 30
0.0
 10
83.86513953788267
 20
93.13854460502421
 30
0.0
 10
83.83803159182108
 20
93.13822132808848
 30
0.0
 10
83.827895832461
 20
93.12034378579203
 30
0.0
 10
83.827895832461
 20
93.09173744803944
 30
0.0
  0
SPLINE
  5
A8
330
1F
100
AcDbEntity
  8
0
  6
Continuous
 62
     7
370
    15
100
AcDbSpline
210
0.0
220
0.0
230
1.0
 70
     8
 71
     3
 72
    26
 73
    22
 74
     0
 42
0.00000001
 43
0.00000001
 12
1.0
 22
0.0
 32
0.0
 13
1.0
 23
0.0
 33
0.0
 40
0.0
 40
0.0
 40
0.0
 40
0.0
 40
0.25
 40
0.25
 40
0.3749999999999994
 40
0.3749999999999994
 40
0.437500000000001
 40
0.437500000000001
 40
0.4687500000000001
 40
0.4687500000000001
 40
0.4999999999999991
 40
0.4999999999999991
 40
0.5312499999999981
 40
0.5312499999999981
 40
0.5624999999999971
 40
0.5624999999999971
 40
0.6249999999999971
 40
0.6249999999999971
 40
0.7499999999999971
 40
0.7499999999999971
 40
1.0
 40
1.0
 40
1.0
 40
1.0
 10
84.6520494785655
 20
93.79117903515913
 30
0.0
 10
84.61344895569702
 20
93.67340433880368
 30
0.0
 10
84.56715195314277
 20
93.54901465264176
 30
0.0
 10
84.47321260470886
 20
93.3437953202883
 30
0.0
 10
84.43790113779541
 20
93.27222245384185
 30
0.0
 10
84.37172116204975
 20
93.15626922124143
 30
0.0
 10
84.34718279538153
 20
93.11568468643118
 30
0.0
 10
84.3038100498277
 20
93.05154300455945
 30
0.0
 10
84.28830164840252
 20
93.0296765792744
 30
0.0
 10
84.2532590038155
 20
92.9840823109312
 30
0.0
 10
84.23370871309574
 20
92.96041201996377
 30
0.0
 10
84.19178143272515
 20
92.91579546062387
 30
0.0
 10
84.16912932249352
 20
92.89491544810593
 30
0.0
 10
84.12815560840689
 20
92.86404203435511
 30
0.0
 10
84.11055630851145
 20
92.85420316452269
 30
0.0
 10
84.0659293226553
 20
92.8352135488265
 30
0.0
 10
84.04537010000195
 20
92.83488922417304
 30
0.0
 10
83.99424466050527
 20
92.84411266504925
 30
0.0
 10
83.97333324751673
 20
92.86535956126622
 30
0.0
 10
83.92188333995578
 20
92.93932844009699
 30
0.0
 10
83.90421804065123
 20
93.00544653341174
 30
0.0
 10
83.89055920718441
 20
93.07561224634203
 30
0.0
  0
SPLINE
  5
A9
330
1F
100
AcDbEntity
  8
0
  6
Continuous
 62
     7
370
    15
100
AcDbSpline
210
0.0
220
0.0
230
1.0
 70
     8
 71
     3
 72
    10
 73
     6
 74
     0
 42
0.00000001
 43
0.00000001
 12
1.0
 22
0.0
 32
0.0
 13
1.0
 23
0.0
 33
0.0
 40
0.0
 40
0.0
 40
0.0
 40
0.0
 40
0.5
 40
0.5
 40
1.0
 40
1.0
 40
1.0
 40
1.0
 10
84.96785090204278
 20
94.26101359384893
 30
0.0
 10
84.90029164712453
 20
94.19332220103917
 30
0.0
 10
84.83665499178804
 20
94.11861503628552
 30
0.0
 10
84.7264342372162
 20
93.95964890385889
 30
0.0
 10
84.67961794399358
 20
93.87529363785092
 30
0.0
 10
84.6520494785655
 20
93.79117903515912
 30
0.0
  0
SPLINE
  5
AA
330
1F
100
AcDbEntity
  8
0
  6
Continuous
 62
     7
370
    15
100
AcDbSpline
210
0.0
220
0.0
230
1.0
 70
     8
 71
     3
 72
     8
 73
     4
 74
     0
 42
0.00000001
 43
0.00000001
 12
1.0
 22
0.0
 32
0.0
 13
1.0
 23
0.0
 33
0.0
 40
0.0
 40
0.0
 40
0.0
 40
0.0
 40
1.0
 40
1.0
 40
1.0
 40
1.0
 10
84.76680540266015
 20
52.95713739859568
 30
0.0
 10
84.80251906103005
 20
52.83390589333588
 30
0.0
 10
84.87818709997833
 20
52.71296231638889
 30
0.0
 10
84.96785090205145
 20
52.60624327268563
 30
0.0
  0
SPLINE
  5
AB
330
1F
100
AcDbEntity
  8
0
  6
Continuous
 62
     7
370
    15
100
AcDbSpline
210
0.0
220
0.0
230
1.0
 70
     8
 71
     3
 72
    26
 73
    22
 74
     0
 42
0.00000001
 43
0.00000001
 12
1.0
 22
0.0
 32
0.0
 13
1.0
 23
0.0
 33
0.0
 40
0.0
 40
0.0
 40
0.0
 40
0.0
 40
0.24999999999999
 40
0.24999999999999
 40
0.3749999999999855
 40
0.3749999999999855
 40
0.4374999999999828
 40
0.4374999999999828
 40
0.4687499999999823
 40
0.4687499999999823
 40
0.4999999999999817
 40
0.4999999999999817
 40
0.5312499999999811
 40
0.5312499999999811
 40
0.5624999999999805
 40
0.5624999999999805
 40
0.6249999999999835
 40
0.6249999999999835
 40
0.7499999999999892
 40
0.7499999999999892
 40
1.0
 40
1.0
 40
1.0
 40
1.0
 10
83.85817344806964
 20
53.81097214133445
 30
0.0
 10
83.86889748146216
 20
53.91393318182345
 30
0.0
 10
83.8836304720567
 20
54.01293187130452
 30
0.0
 10
83.93598403130372
 20
54.13152755136964
 30
0.0
 10
83.95768931402334
 20
54.16723785131843
 30
0.0
 10
84.01654482138875
 20
54.19221728414016
 30
0.0
 10
84.04000705523592
 20
54.19660273190372
 30
0.0
 10
84.09612843189656
 20
54.17684989845954
 30
0.0
 10
84.11891574202721
 20
54.16519350764912
 30
0.0
 10
84.17416829455843
 20
54.12341315821185
 30
0.0
 10
84.20557452729926
 20
54.09314157083582
 30
0.0
 10
84.26050834791968
 20
54.03149917192184
 30
0.0
 10
84.28493216611915
 20
54.000057519615
 30
0.0
 10
84.32834727210636
 20
53.94032268220126
 30
0.0
 10
84.34792183467464
 20
53.91115767232861
 30
0.0
 10
84.4015545186226
 20
53.82732239659556
 30
0.0
 10
84.43133186667478
 20
53.77528977861935
 30
0.0
 10
84.51286592664758
 20
53.62422410465199
 30
0.0
 10
84.5561087213216
 20
53.53103306278127
 30
0.0
 10
84.6691633109763
 20
53.26664652378692
 30
0.0
 10
84.72317430845547
 20
53.10768835473708
 30
0.0
 10
84.76680540265949
 20
52.95713739859624
 30
0.0
  0
LINE
  5
AC
330
1F
100
AcDbEntity
  8
0
  6
Continuous
 62
     7
370
    15
100
AcDbLine
 10
135.6378960971
 20
93.5369261796
 30
0.0
 11
135.6378960971
 21
94.4512036885
 31
0.0
  0
SPLINE
  5
AD
330
1F
100
AcDbEntity
  8
0
  6
Continuous
 62
     7
370
    15
100
AcDbSpline
210
0.0
220
0.0
230
1.0
 70
     8
 71
     3
 72
     8
 73
     4
 74
     0
 42
0.00000001
 43
0.00000001
 12
1.0
 22
0.0
 32
0.0
 13
1.0
 23
0.0
 33
0.0
 40
0.0
 40
0.0
 40
0.0
 40
0.0
 40
1.0
 40
1.0
 40
1.0
 40
1.0
 10
135.637895832461
 20
94.45120336914462
 30
0.0
 10
136.1171739830508
 20
95.5922145989972
 30
0.0
 10
136.6127418221908
 20
96.72859900976505
 30
0.0
 10
137.11982866395
 20
97.8597493639287
 30
0.0
  0
LINE
  5
AE
330
1F
100
AcDbEntity
  8
0
  6
Continuous
 62
     7
370
    15
100
AcDbLine
 10
137.1198277537
 20
97.8597493167
 30
0.0
 11
141.0778965418
 21
97.8597493167
 31
0.0
  0
SPLINE
  5
AF
330
1F
100
AcDbEntity
  8
0
  6
Continuous
 62
     7
370
    15
100
AcDbSpline
210
0.0
220
0.0
230
1.0
 70
     8
 71
     3
 72
    12
 73
     8
 74
     0
 42
0.00000001
 43
0.00000001
 12
1.0
 22
0.0
 32
0.0
 13
1.0
 23
0.0
 33
0.0
 40
0.0
 40
0.0
 40
0.0
 40
0.0
 40
0.249999999999998
 40
0.249999999999998
 40
0.499999999999996
 40
0.499999999999996
 40
1.0
 40
1.0
 40
1.0
 40
1.0
 10
141.077895832461
 20
97.85974936392871
 30
0.0
 10
141.1690955542867
 20
97.8597493639287
 30
0.0
 10
141.2596905634227
 20
97.83152966534082
 30
0.0
 10
141.4131032898693
 20
97.73708665809272
 30
0.0
 10
141.478312157193
 20
97.6707996813874
 30
0.0
 10
141.6310966865329
 20
97.4451748580991
 30
0.0
 10
141.677895832461
 20
97.26274859506654
 30
0.0
 10
141.677895832461
 20
97.08201196281965
 30
0.0
  0
LINE
  5
B0
330
1F
100
AcDbEntity
  8
0
  6
Continuous
 62
     7
370
    15
100
AcDbLine
 10
141.6778955225
 20
97.0820111479
 30
0.0
 11
141.6778955225
 21
93.2510604407
 31
0.0
  0
SPLINE
  5
B1
330
1F
100
AcDbEntity
  8
0
  6
Continuous
 62
     7
370
    15
100
AcDbSpline
210
0.0
220
0.0
230
1.0
 70
     8
 71
     3
 72
     8
 73
     4
 74
     0
 42
0.00000001
 43
0.00000001
 12
1.0
 22
0.0
 32
0.0
 13
1.0
 23
0.0
 33
0.0
 40
0.0
 40
0.0
 40
0.0
 40
0.0
 40
1.0
 40
1.0
 40
1.0
 40
1.0
 10
131.817895832461
 20
101.2062938927329
 30
0.0
 10
131.3251857356152
 20
102.0943128908593
 30
0.0
 10
130.8311030303363
 20
102.9815755265453
 30
0.0
 10
130.335963000972
 20
103.8682551747255
 30
0.0
  0
LINE
  5
B2
330
1F
100
AcDbEntity
  8
0
  6
Continuous
 62
     7
370
    15
100
AcDbLine
 10
131.8178958807
 20
94.4512036885
 30
0.0
 11
131.8178958807
 21
101.2062930758
 31
0.0
  0
SPLINE
  5
B3
330
1F
100
AcDbEntity
  8
0
  6
Continuous
 62
     7
370
    15
100
AcDbSpline
210
0.0
220
0.0
230
1.0
 70
     8
 71
     3
 72
     8
 73
     4
 74
     0
 42
0.00000001
 43
0.00000001
 12
1.0
 22
0.0
 32
0.0
 13
1.0
 23
0.0
 33
0.0
 40
0.0
 40
0.0
 40
0.0
 40
0.0
 40
1.0
 40
1.0
 40
1.0
 40
1.0
 10
130.335963000972
 20
97.85974936392869
 30
0.0
 10
130.8430498427312
 20
96.72859900976503
 30
0.0
 10
131.3386176818712
 20
95.59221459899722
 30
0.0
 10
131.817895832461
 20
94.45120336914462
 30
0.0
  0
SPLINE
  5
B4
330
1F
100
AcDbEntity
  8
0
  6
Continuous
 62
     7
370
    15
100
AcDbSpline
210
0.0
220
0.0
230
1.0
 70
     8
 71
     3
 72
     8
 73
     4
 74
     0
 42
0.00000001
 43
0.00000001
 12
1.0
 22
0.0
 32
0.0
 13
1.0
 23
0.0
 33
0.0
 40
0.0
 40
0.0
 40
0.0
 40
0.0
 40
1.0
 40
1.0
 40
1.0
 40
1.0
 10
137.11982866395
 20
103.8682551747255
 30
0.0
 10
136.6246886345857
 20
102.9815755265453
 30
0.0
 10
136.1306059293068
 20
102.0943128908593
 30
0.0
 10
135.637895832461
 20
101.2062938927329
 30
0.0
  0
LINE
  5
B5
330
1F
100
AcDbEntity
  8
0
  6
Continuous
 62
     7
370
    15
100
AcDbLine
 10
137.1198277537
 20
97.8597493167
 30
0.0
 11
137.1198277537
 21
103.8682551379
 31
0.0
  0
LINE
  5
B6
330
1F
100
AcDbEntity
  8
0
  6
Continuous
 62
     7
370
    15
100
AcDbLine
 10
135.6378960971
 20
94.4512036885
 30
0.0
 11
135.6378960971
 21
101.2062930758
 31
0.0
  0
SPLINE
  5
B7
330
1F
100
AcDbEntity
  8
0
  6
Continuous
 62
     7
370
    15
100
AcDbSpline
210
0.0
220
0.0
230
1.0
 70
     8
 71
     3
 72
    10
 73
     6
 74
     0
 42
0.00000001
 43
0.00000001
 12
1.0
 22
0.0
 32
0.0
 13
1.0
 23
0.0
 33
0.0
 40
0.0
 40
0.0
 40
0.0
 40
0.0
 40
0.5
 40
0.5
 40
1.0
 40
1.0
 40
1.0
 40
1.0
 10
141.677895832461
 20
103.2475000253252
 30
0.0
 10
141.677895832461
 20
103.407905291676
 30
0.0
 10
141.6156580013541
 20
103.5669671046646
 30
0.0
 10
141.3965230776116
 20
103.7978795702949
 30
0.0
 10
141.2389343826197
 20
103.8682551747255
 30
0.0
 10
141.077895832461
 20
103.8682551747255
 30
0.0
  0
LINE
  5
B8
330
1F
100
AcDbEntity
  8
0
  6
Continuous
 62
     7
370
    15
100
AcDbLine
 10
141.6778955225
 20
97.0820111479
 30
0.0
 11
141.6778955225
 21
103.2475007023
 31
0.0
  0
LINE
  5
B9
330
1F
100
AcDbEntity
  8
0
  6
Continuous
 62
     7
370
    15
100
AcDbLine
 10
131.8178958807
 20
94.4512036885
 30
0.0
 11
131.8178958807
 21
93.5369261796
 31
0.0
  0
LINE
  5
BA
330
1F
100
AcDbEntity
  8
0
  6
Continuous
 62
     7
370
    15
100
AcDbLine
 10
141.0778965418
 20
103.8682551379
 30
0.0
 11
137.1198277537
 21
103.8682551379
 31
0.0
  0
LINE
  5
BB
330
1F
100
AcDbEntity
  8
0
  6
Continuous
 62
     7
370
    15
100
AcDbLine
 10
84.9778949831
 20
52.5885594333
 30
0.0
 11
84.9778949831
 21
52.5944286282
 31
0.0
  0
ARC
  5
BC
330
1F
100
AcDbEntity
  8
0
  6
Continuous
 62
     7
370
    15
100
AcDbCircle
 10
197.8687744629
 20
73.4010597016
 30
0.0
 40
2.100000000000014
100
AcDbArc
 50
70.4804989879
 51
289.5195010121
  0
LINE
  5
BD
330
1F
100
AcDbEntity
  8
0
  6
Continuous
 62
     7
370
    15
100
AcDbLine
 10
205.8287653689
 20
65.3158321301
 30
0.0
 11
184.4808328513
 21
47.4027914251
 31
0.0
  0
LINE
  5
BE
330
1F
100
AcDbEntity
  8
0
  6
Continuous
 62
     7
370
    15
100
AcDbLine
 10
205.8287653689
 20
81.486287273
 30
0.0
 11
184.4808328513
 21
99.399327978
 31
0.0
  0
CIRCLE
  5
BF
330
1F
100
AcDbEntity
  8
0
  6
Continuous
 62
     7
370
    15
100
AcDbCircle
 10
205.9713390626
 20
73.4010597016
 30
0.0
 40
3.499999999999975
  0
CIRCLE
  5
C0
330
1F
100
AcDbEntity
  8
0
  6
Continuous
 62
     7
370
    15
100
AcDbCircle
 10
205.9713390626
 20
73.4010597016
 30
0.0
 40
2.633974596215555
  0
CIRCLE
  5
C1
330
1F
100
AcDbEntity
  8
0
  6
Continuous
 62
     7
370
    15
100
AcDbCircle
 10
205.9713390626
 20
73.4010597016
 30
0.0
 40
1.999999999999984
  0
SPLINE
  5
C2
330
1F
100
AcDbEntity
  8
0
  6
Continuous
 62
     7
370
    15
100
AcDbSpline
210
0.0
220
0.0
230
1.0
 70
     8
 71
     3
 72
    15
 73
    11
 74
     0
 42
0.00000001
 43
0.00000001
 12
1.0
 22
0.0
 32
0.0
 13
1.0
 23
0.0
 33
0.0
 40
0.0
 40
0.0
 40
0.0
 40
0.0
 40
0.126251505370305
 40
0.2533647211352369
 40
0.3794193878431247
 40
0.5042703664442514
 40
0.6284523736224993
 40
0.7526377731832505
 40
0.8774911716214481
 40
1.0
 40
1.0
 40
1.0
 40
1.0
 10
207.6303753618418
 20
72.98604594775225
 30
0.0
 10
207.6726029718256
 20
72.99959445633984
 30
0.0
 10
207.7573464099047
 20
73.02678394679401
 30
0.0
 10
207.8586800621463
 20
73.11839812967006
 30
0.0
 10
207.9251530634824
 20
73.23570038784204
 30
0.0
 10
207.9484915783441
 20
73.3683159999002
 30
0.0
 10
207.9270924479324
 20
73.50053266234659
 30
0.0
 10
207.8635182198946
 20
73.61738853468316
 30
0.0
 10
207.7664708044016
 20
73.70920543462978
 30
0.0
 10
207.6847159636466
 20
73.73847012330154
 30
0.0
 10
207.6442259911715
 20
73.75296377808536
 30
0.0
  0
SPLINE
  5
C3
330
1F
100
AcDbEntity
  8
0
  6
Continuous
 62
     7
370
    15
100
AcDbSpline
210
0.0
220
0.0
230
1.0
 70
     8
 71
     3
 72
    12
 73
     8
 74
     0
 42
0.00000001
 43
0.00000001
 12
1.0
 22
0.0
 32
0.0
 13
1.0
 23
0.0
 33
0.0
 40
0.0
 40
0.0
 40
0.0
 40
0.0
 40
0.2058725363071039
 40
0.4120986258712225
 40
0.6141680122335481
 40
0.8132896142456673
 40
1.0
 40
1.0
 40
1.0
 40
1.0
 10
207.6442259911715
 20
73.75296377808536
 30
0.0
 10
207.5716625704895
 20
73.77910976214709
 30
0.0
 10
207.42641111302
 20
73.83144663182946
 30
0.0
 10
207.255847648373
 20
73.99583329006902
 30
0.0
 10
207.1484719399716
 20
74.20023041808807
 30
0.0
 10
207.1104758570631
 20
74.42302790730155
 30
0.0
 10
207.1423370714551
 20
74.5637432908136
 30
0.0
 10
207.1577552322565
 20
74.63183775775815
 30
0.0
  0
SPLINE
  5
C4
330
1F
100
AcDbEntity
  8
0
  6
Continuous
 62
     7
370
    15
100
AcDbSpline
210
0.0
220
0.0
230
1.0
 70
     8
 71
     3
 72
    15
 73
    11
 74
     0
 42
0.00000001
 43
0.00000001
 12
1.0
 22
0.0
 32
0.0
 13
1.0
 23
0.0
 33
0.0
 40
0.0
 40
0.0
 40
0.0
 40
0.0
 40
0.126876789433564
 40
0.2539953835628805
 40
0.3800480130347582
 40
0.504901386755173
 40
0.629081678209215
 40
0.7532662950484945
 40
0.878122921781446
 40
1.0
 40
1.0
 40
1.0
 40
1.0
 10
207.1577552322565
 20
74.63183775775815
 30
0.0
 10
207.1671628037973
 20
74.67540507122698
 30
0.0
 10
207.1859958760444
 20
74.76262272974999
 30
0.0
 10
207.1570332403236
 20
74.89635955521695
 30
0.0
 10
207.0885018217924
 20
75.01247185536145
 30
0.0
 10
206.9851649148772
 20
75.09880293130702
 30
0.0
 10
206.8598897499021
 20
75.14618072742267
 30
0.0
 10
206.7268938938857
 20
75.14932179848029
 30
0.0
 10
206.5991408919843
 20
75.11103496175112
 30
0.0
 10
206.5331210230226
 20
75.05497982100871
 30
0.0
 10
206.5005097154795
 20
75.02729071070189
 30
0.0
  0
SPLINE
  5
C5
330
1F
100
AcDbEntity
  8
0
  6
Continuous
 62
     7
370
    15
100
AcDbSpline
210
0.0
220
0.0
230
1.0
 70
     8
 71
     3
 72
    12
 73
     8
 74
     0
 42
0.00000001
 43
0.00000001
 12
1.0
 22
0.0
 32
0.0
 13
1.0
 23
0.0
 33
0.0
 40
0.0
 40
0.0
 40
0.0
 40
0.0
 40
0.2057951368619867
 40
0.4119989080404887
 40
0.6140520990126336
 40
0.8131822382729443
 40
1.0
 40
1.0
 40
1.0
 40
1.0
 10
206.5005097154795
 20
75.02729071070189
 30
0.0
 10
206.4416077161913
 20
74.97753708483182
 30
0.0
 10
206.3236867596605
 20
74.87793104048066
 30
0.0
 10
206.0960884597509
 20
74.81239272579718
 30
0.0
 10
205.865398174456
 20
74.82156214869721
 30
0.0
 10
205.6534033356611
 20
74.90002815608119
 30
0.0
 10
205.5474353596761
 20
74.99800338800114
 30
0.0
 10
205.4961416486918
 20
75.04542821784253
 30
0.0
  0
SPLINE
  5
C6
330
1F
100
AcDbEntity
  8
0
  6
Continuous
 62
     7
370
    15
100
AcDbSpline
210
0.0
220
0.0
230
1.0
 70
     8
 71
     3
 72
    15
 73
    11
 74
     0
 42
0.00000001
 43
0.00000001
 12
1.0
 22
0.0
 32
0.0
 13
1.0
 23
0.0
 33
0.0
 40
0.0
 40
0.0
 40
0.0
 40
0.0
 40
0.1268026208767873
 40
0.2539251105502254
 40
0.3799833668452425
 40
0.5048377910589747
 40
0.6290214518432959
 40
0.7532070423007062
 40
0.8780555100180936
 40
1.0
 40
1.0
 40
1.0
 40
1.0
 10
205.4961416486918
 20
75.04542821784253
 30
0.0
 10
205.4631365538804
 20
75.07534159186525
 30
0.0
 10
205.397043106515
 20
75.13524379856356
 30
0.0
 10
205.2667790661754
 20
75.17706248335257
 30
0.0
 10
205.1319534520082
 20
75.17577920787886
 30
0.0
 10
205.0055072820826
 20
75.12948074286655
 30
0.0
 10
204.9018234654947
 20
75.04469273731716
 30
0.0
 10
204.8325784744605
 20
74.93110095698354
 30
0.0
 10
204.8018402014649
 20
74.80130037546681
 30
0.0
 10
204.8173713197003
 20
74.71607481738256
 30
0.0
 10
204.8250455025851
 20
74.67396345686848
 30
0.0
  0
SPLINE
  5
C7
330
1F
100
AcDbEntity
  8
0
  6
Continuous
 62
     7
370
    15
100
AcDbSpline
210
0.0
220
0.0
230
1.0
 70
     8
 71
     3
 72
    12
 73
     8
 74
     0
 42
0.00000001
 43
0.00000001
 12
1.0
 22
0.0
 32
0.0
 13
1.0
 23
0.0
 33
0.0
 40
0.0
 40
0.0
 40
0.0
 40
0.0
 40
0.2058498638493209
 40
0.4120528602852341
 40
0.6141091227546733
 40
0.8132444646378142
 40
1.0
 40
1.0
 40
1.0
 40
1.0
 10
204.8250455025851
 20
74.67396345686848
 30
0.0
 10
204.838685930501
 20
74.59805505762935
 30
0.0
 10
204.8659901862979
 20
74.44610803934494
 30
0.0
 10
204.8089172341006
 20
74.21621765050647
 30
0.0
 10
204.6856145298337
 20
74.021028292614
 30
0.0
 10
204.5116638327644
 20
73.87670212196083
 30
0.0
 10
204.373851315075
 20
73.8339279688866
 30
0.0
 10
204.3071556452929
 20
73.81322701344016
 30
0.0
  0
SPLINE
  5
C8
330
1F
100
AcDbEntity
  8
0
  6
Continuous
 62
     7
370
    15
100
AcDbSpline
210
0.0
220
0.0
230
1.0
 70
     8
 71
     3
 72
    15
 73
    11
 74
     0
 42
0.00000001
 43
0.00000001
 12
1.0
 22
0.0
 32
0.0
 13
1.0
 23
0.0
 33
0.0
 40
0.0
 40
0.0
 40
0.0
 40
0.0
 40
0.1262565331641874
 40
0.2533828096783589
 40
0.3794466932598609
 40
0.5043009610545293
 40
0.6284819471312459
 40
0.7526643506748447
 40
0.8775104487821149
 40
1.0
 40
1.0
 40
1.0
 40
1.0
 10
204.3071556452929
 20
73.81322701344016
 30
0.0
 10
204.2649281503165
 20
73.79967706109274
 30
0.0
 10
204.1801822678291
 20
73.77248381484438
 30
0.0
 10
204.0788444305232
 20
73.68086685404751
 30
0.0
 10
204.0123664617798
 20
73.56355656227616
 30
0.0
 10
203.9890527135321
 20
73.4309341912499
 30
0.0
 10
204.0104417521385
 20
73.29871601802816
 30
0.0
 10
204.0740289248087
 20
73.1818673603039
 30
0.0
 10
204.1710719961392
 20
73.09005948322418
 30
0.0
 10
204.2528203012378
 20
73.06079969002525
 30
0.0
 10
204.2933050159632
 20
73.04630918310704
 30
0.0
  0
SPLINE
  5
C9
330
1F
100
AcDbEntity
  8
0
  6
Continuous
 62
     7
370
    15
100
AcDbSpline
210
0.0
220
0.0
230
1.0
 70
     8
 71
     3
 72
    12
 73
     8
 74
     0
 42
0.00000001
 43
0.00000001
 12
1.0
 22
0.0
 32
0.0
 13
1.0
 23
0.0
 33
0.0
 40
0.0
 40
0.0
 40
0.0
 40
0.0
 40
0.2058756823272104
 40
0.4120934321359315
 40
0.6141693512499663
 40
0.8133074182295784
 40
1.0
 40
1.0
 40
1.0
 40
1.0
 10
204.2933050159632
 20
73.04630918310704
 30
0.0
 10
204.365871634377
 20
73.02016449764646
 30
0.0
 10
204.5111254424157
 20
72.96783168669094
 30
0.0
 10
204.6816846978333
 20
72.80343906486107
 30
0.0
 10
204.7890702372518
 20
72.59904292029842
 30
0.0
 10
204.8270626010047
 20
72.37623965787768
 30
0.0
 10
204.7952004316342
 20
72.2355236745704
 30
0.0
 10
204.7797832254587
 20
72.16743517433042
 30
0.0
  0
SPLINE
  5
CA
330
1F
100
AcDbEntity
  8
0
  6
Continuous
 62
     7
370
    15
100
AcDbSpline
210
0.0
220
0.0
230
1.0
 70
     8
 71
     3
 72
    15
 73
    11
 74
     0
 42
0.00000001
 43
0.00000001
 12
1.0
 22
0.0
 32
0.0
 13
1.0
 23
0.0
 33
0.0
 40
0.0
 40
0.0
 40
0.0
 40
0.0
 40
0.1268703722097419
 40
0.2539816102649491
 40
0.3800299288751368
 40
0.5048769148757816
 40
0.6290523916564772
 40
0.7532389914992501
 40
0.8780965740443586
 40
1.0
 40
1.0
 40
1.0
 40
1.0
 10
204.7797832254587
 20
72.16743517433042
 30
0.0
 10
204.7703764678951
 20
72.12386943384453
 30
0.0
 10
204.7515450938572
 20
72.03665524247528
 30
0.0
 10
204.7804954029367
 20
71.90291887582116
 30
0.0
 10
204.8490309816098
 20
71.78681273590482
 30
0.0
 10
204.9523588913499
 20
71.70047921428305
 30
0.0
 10
205.0776286951884
 20
71.6530966170246
 30
0.0
 10
205.2106217813268
 20
71.64994739636816
 30
0.0
 10
205.338383235712
 20
71.68823043405811
 30
0.0
 10
205.4044103931994
 20
71.74428866363866
 30
0.0
 10
205.4370287422358
 20
71.77198222138668
 30
0.0
  0
SPLINE
  5
CB
330
1F
100
AcDbEntity
  8
0
  6
Continuous
 62
     7
370
    15
100
AcDbSpline
210
0.0
220
0.0
230
1.0
 70
     8
 71
     3
 72
    12
 73
     8
 74
     0
 42
0.00000001
 43
0.00000001
 12
1.0
 22
0.0
 32
0.0
 13
1.0
 23
0.0
 33
0.0
 40
0.0
 40
0.0
 40
0.0
 40
0.0
 40
0.2058342713358124
 40
0.4120779028101838
 40
0.6141732693905406
 40
0.8133039377705714
 40
1.0
 40
1.0
 40
1.0
 40
1.0
 10
205.4370287422358
 20
71.77198222138668
 30
0.0
 10
205.4959402285942
 20
71.82174213261654
 30
0.0
 10
205.6138803635993
 20
71.9213609168479
 30
0.0
 10
205.8415166948998
 20
71.98689191844628
 30
0.0
 10
206.0722378658839
 20
71.97769642271045
 30
0.0
 10
206.2841978219161
 20
71.89919539746346
 30
0.0
 10
206.3901301924282
 20
71.80124265287569
 30
0.0
 10
206.4413893584429
 20
71.75384471424604
 30
0.0
  0
SPLINE
  5
CC
330
1F
100
AcDbEntity
  8
0
  6
Continuous
 62
     7
370
    15
100
AcDbSpline
210
0.0
220
0.0
230
1.0
 70
     8
 71
     3
 72
    15
 73
    11
 74
     0
 42
0.00000001
 43
0.00000001
 12
1.0
 22
0.0
 32
0.0
 13
1.0
 23
0.0
 33
0.0
 40
0.0
 40
0.0
 40
0.0
 40
0.0
 40
0.126787828145793
 40
0.2538977632095326
 40
0.3799442748922602
 40
0.5047854337849669
 40
0.6289612180148937
 40
0.7531509150596005
 40
0.8780091558216226
 40
1.0
 40
1.0
 40
1.0
 40
1.0
 10
206.4413893584429
 20
71.75384471424604
 30
0.0
 10
206.4743921515045
 20
71.72393333596276
 30
0.0
 10
206.5404815818587
 20
71.66403458896389
 30
0.0
 10
206.6707375285115
 20
71.62221514924384
 30
0.0
 10
206.8055542189252
 20
71.6234886429263
 30
0.0
 10
206.9319956401895
 20
71.66977245379121
 30
0.0
 10
207.035678730214
 20
71.75454848956548
 30
0.0
 10
207.1049390514642
 20
71.86812792537627
 30
0.0
 10
207.1356947887844
 20
71.99794158154693
 30
0.0
 10
207.1201617889024
 20
72.08318364526856
 30
0.0
 10
207.1124855045496
 20
72.12530959163541
 30
0.0
  0
SPLINE
  5
CD
330
1F
100
AcDbEntity
  8
0
  6
Continuous
 62
     7
370
    15
100
AcDbSpline
210
0.0
220
0.0
230
1.0
 70
     8
 71
     3
 72
    12
 73
     8
 74
     0
 42
0.00000001
 43
0.00000001
 12
1.0
 22
0.0
 32
0.0
 13
1.0
 23
0.0
 33
0.0
 40
0.0
 40
0.0
 40
0.0
 40
0.0
 40
0.205890402980981
 40
0.412133693597975
 40
0.6142236857723231
 40
0.8133500202187675
 40
1.0
 40
1.0
 40
1.0
 40
1.0
 10
207.1124855045496
 20
72.12530959163541
 30
0.0
 10
207.0988467423973
 20
72.20122981851894
 30
0.0
 10
207.0715458418182
 20
72.35320039641513
 30
0.0
 10
207.1286377464139
 20
72.58311965147281
 30
0.0
 10
207.2519779641057
 20
72.77831990965475
 30
0.0
 10
207.4259378166265
 20
72.9226017349708
 30
0.0
 10
207.5637147907249
 20
72.96535881098578
 30
0.0
 10
207.6303753618418
 20
72.98604594775225
 30
0.0
  0
LINE
  5
CE
330
1F
100
AcDbEntity
  8
0
  6
Continuous
 62
     7
370
    15
100
AcDbLine
 10
205.8270815376
 20
81.4593301411
 30
0.0
 11
196.5705249075
 21
73.6921565921
 31
0.0
  0
LINE
  5
CF
330
1F
100
AcDbEntity
  8
0
  6
Continuous
 62
     7
370
    15
100
AcDbLine
 10
206.0713413719
 20
80.3569068457
 30
0.0
 11
206.0713413719
 21
81.1682331632
 31
0.0
  0
LINE
  5
D0
330
1F
100
AcDbEntity
  8
0
  6
Continuous
 62
     7
370
    15
100
AcDbLine
 10
198.1144416694
 20
73.4010597016
 30
0.0
 11
196.8147847418
 21
73.4010597016
 31
0.0
  0
LINE
  5
D1
330
1F
100
AcDbEntity
  8
0
  6
Continuous
 62
     7
370
    15
100
AcDbLine
 10
196.5576652054
 20
73.0946419143
 30
0.0
 11
205.8142218355
 21
65.3274690057
 31
0.0
  0
ARC
  5
D2
330
1F
100
AcDbEntity
  8
0
  6
Continuous
 62
     7
370
    15
100
AcDbCircle
 10
196.8147822928
 20
73.4010597016
 30
0.0
 40
0.3999999999999935
100
AcDbArc
 50
130.0
 51
230.0
  0
LINE
  5
D3
330
1F
100
AcDbEntity
  8
0
  6
Continuous
 62
     7
370
    15
100
AcDbLine
 10
205.8142218355
 20
81.4746503974
 30
0.0
 11
196.5576652054
 21
73.7074774888
 31
0.0
  0
ARC
  5
D4
330
1F
100
AcDbEntity
  8
0
  6
Continuous
 62
     7
370
    15
100
AcDbCircle
 10
206.0713390626
 20
81.1682330731
 30
0.0
 40
0.4000000000000118
100
AcDbArc
 50
50.0
 51
130.0
  0
LINE
  5
D5
330
1F
100
AcDbEntity
  8
0
  6
Continuous
 62
     7
370
    15
100
AcDbLine
 10
215.5850100879
 20
73.7074774888
 30
0.0
 11
206.3284534578
 21
81.4746503974
 31
0.0
  0
ARC
  5
D6
330
1F
100
AcDbEntity
  8
0
  6
Continuous
 62
     7
370
    15
100
AcDbCircle
 10
215.3278958325
 20
73.4010597016
 30
0.0
 40
0.4000000000000409
100
AcDbArc
 50
310.0
 51
50.0
  0
LINE
  5
D7
330
1F
100
AcDbEntity
  8
0
  6
Continuous
 62
     7
370
    15
100
AcDbLine
 10
206.3284534578
 20
65.3274690057
 30
0.0
 11
215.5850100879
 21
73.0946419143
 31
0.0
  0
ARC
  5
D8
330
1F
100
AcDbEntity
  8
0
  6
Continuous
 62
     7
370
    15
100
AcDbCircle
 10
206.0713390626
 20
65.63388633
 30
0.0
 40
0.4000000000000118
100
AcDbArc
 50
230.0
 51
310.0
  0
ARC
  5
D9
330
1F
100
AcDbEntity
  8
0
  6
Continuous
 62
     7
370
    15
100
AcDbCircle
 10
215.3278958325
 20
73.4010597016
 30
0.0
 40
0.3800000000000331
100
AcDbArc
 50
310.0
 51
50.0
  0
LINE
  5
DA
330
1F
100
AcDbEntity
  8
0
  6
Continuous
 62
     7
370
    15
100
AcDbLine
 10
215.5721578364
 20
73.6921565921
 30
0.0
 11
206.3156012062
 21
81.4593301411
 31
0.0
  0
ARC
  5
DB
330
1F
100
AcDbEntity
  8
0
  6
Continuous
 62
     7
370
    15
100
AcDbCircle
 10
206.0713390626
 20
81.1682330731
 30
0.0
 40
0.3799999999999965
100
AcDbArc
 50
50.0
 51
130.0
  0
ARC
  5
DC
330
1F
100
AcDbEntity
  8
0
  6
Continuous
 62
     7
370
    15
100
AcDbCircle
 10
196.8147822928
 20
73.4010597016
 30
0.0
 40
0.3799999999999965
100
AcDbArc
 50
130.0
 51
230.0
  0
LINE
  5
DD
330
1F
100
AcDbEntity
  8
0
  6
Continuous
 62
     7
370
    15
100
AcDbLine
 10
196.5705249075
 20
73.109962811
 30
0.0
 11
205.8270815376
 21
65.3427892621
 31
0.0
  0
ARC
  5
DE
330
1F
100
AcDbEntity
  8
0
  6
Continuous
 62
     7
370
    15
100
AcDbCircle
 10
206.0713390626
 20
65.63388633
 30
0.0
 40
0.3800000000000148
100
AcDbArc
 50
230.0
 51
310.0
  0
LINE
  5
DF
330
1F
100
AcDbEntity
  8
0
  6
Continuous
 62
     7
370
    15
100
AcDbLine
 10
206.3156012062
 20
65.3427892621
 30
0.0
 11
215.5721578364
 21
73.109962811
 31
0.0
  0
LINE
  5
E0
330
1F
100
AcDbEntity
  8
0
  6
Continuous
 62
     7
370
    15
100
AcDbLine
 10
214.0282336239
 20
73.4010597016
 30
0.0
 11
215.3278980021
 21
73.4010597016
 31
0.0
  0
LINE
  5
E1
330
1F
100
AcDbEntity
  8
0
  6
Continuous
 62
     7
370
    15
100
AcDbLine
 10
205.4285499815
 20
78.5141105088
 30
0.0
 11
200.2479899291
 21
74.1671041259
 31
0.0
  0
LINE
  5
E2
330
1F
100
AcDbEntity
  8
0
  6
Continuous
 62
     7
370
    15
100
AcDbLine
 10
200.2479899291
 20
72.6350152772
 30
0.0
 11
205.4285499815
 21
68.2880088943
 31
0.0
  0
ARC
  5
E3
330
1F
100
AcDbEntity
  8
0
  6
Continuous
 62
     7
370
    15
100
AcDbCircle
 10
200.8907787192
 20
73.4010597016
 30
0.0
 40
1.000000000000004
100
AcDbArc
 50
130.0
 51
230.0
  0
ARC
  5
E4
330
1F
100
AcDbEntity
  8
0
  6
Continuous
 62
     7
370
    15
100
AcDbCircle
 10
206.0713390626
 20
77.748065975
 30
0.0
 40
1.000000000000033
100
AcDbArc
 50
50.0
 51
130.0
  0
LINE
  5
E5
330
1F
100
AcDbEntity
  8
0
  6
Continuous
 62
     7
370
    15
100
AcDbLine
 10
211.8946853642
 20
74.1671041259
 30
0.0
 11
206.7141253118
 21
78.5141105088
 31
0.0
  0
ARC
  5
E6
330
1F
100
AcDbEntity
  8
0
  6
Continuous
 62
     7
370
    15
100
AcDbCircle
 10
211.2518994061
 20
73.4010597016
 30
0.0
 40
1.000000000295342
100
AcDbArc
 50
310.0
 51
50.0
  0
LINE
  5
E7
330
1F
100
AcDbEntity
  8
0
  6
Continuous
 62
     7
370
    15
100
AcDbLine
 10
206.7141253118
 20
68.2880088943
 30
0.0
 11
211.8946853642
 21
72.6350152772
 31
0.0
  0
ARC
  5
E8
330
1F
100
AcDbEntity
  8
0
  6
Continuous
 62
     7
370
    15
100
AcDbCircle
 10
206.0713390626
 20
69.0540534281
 30
0.0
 40
1.000000000000033
100
AcDbArc
 50
230.0
 51
310.0
  0
CIRCLE
  5
E9
330
1F
100
AcDbEntity
  8
0
  6
Continuous
 62
     7
370
    15
100
AcDbCircle
 10
206.0713390626
 20
73.4010597016
 30
0.0
 40
3.799999999999984
  0
LINE
  5
EA
330
1F
100
AcDbEntity
  8
0
  6
Continuous
 62
     7
370
    15
100
AcDbLine
 10
206.0713413719
 20
66.4452125574
 30
0.0
 11
206.0713413719
 21
65.6338862399
 31
0.0
  0
SPLINE
  5
EB
330
1F
100
AcDbEntity
  8
0
  6
Continuous
 62
     7
370
    15
100
AcDbSpline
210
0.0
220
0.0
230
1.0
 70
    24
 71
     3
 72
    11
 73
     7
 74
     0
 42
0.00000001
 43
0.00000001
 12
1.0
 22
0.0
 32
0.0
 13
1.0
 23
0.0
 33
0.0
 40
0.0
 40
0.0
 40
0.0
 40
0.0
 40
0.0076317931991982
 40
0.3209955633153626
 40
0.6632159804659061
 40
1.0
 40
1.0
 40
1.0
 40
1.0
 10
213.3367824916064
 20
73.40105970156127
 30
0.0
 10
213.3383611064069
 20
73.40105970156128
 30
0.0
 10
213.4047581292225
 20
73.40105970156148
 30
0.0
 10
213.5519021397307
 20
73.40105970156115
 30
0.0
 10
213.791543049733
 20
73.4010597015614
 30
0.0
 10
213.9497590138932
 20
73.4010597015611
 30
0.0
 10
214.0282336239039
 20
73.40105970156095
 30
0.0
  0
SPLINE
  5
EC
330
1F
100
AcDbEntity
  8
0
  6
Continuous
 62
     7
370
    15
100
AcDbSpline
210
0.0
220
0.0
230
1.0
 70
    24
 71
     3
 72
    11
 73
     7
 74
     0
 42
0.00000001
 43
0.00000001
 12
1.0
 22
0.0
 32
0.0
 13
1.0
 23
0.0
 33
0.0
 40
0.0
 40
0.0
 40
0.0
 40
0.0
 40
0.0081161657128812
 40
0.326367969905748
 40
0.6627687668217108
 40
0.9999999999999999
 40
0.9999999999999999
 40
0.9999999999999999
 40
0.9999999999999999
 10
206.0713413719355
 20
67.13910468619997
 30
0.0
 10
206.0713413719355
 20
67.13741813637856
 30
0.0
 10
206.0713413719351
 20
67.0695984465352
 30
0.0
 10
206.0713413719356
 20
66.92042808503197
 30
0.0
 10
206.0713413719355
 20
66.67795844431296
 30
0.0
 10
206.0713413719355
 20
66.52285825423728
 30
0.0
 10
206.0713413719355
 20
66.44521255743439
 30
0.0
  0
SPLINE
  5
ED
330
1F
100
AcDbEntity
  8
0
  6
Continuous
 62
     7
370
    15
100
AcDbSpline
210
0.0
220
0.0
230
1.0
 70
    24
 71
     3
 72
    11
 73
     7
 74
     0
 42
0.00000001
 43
0.00000001
 12
1.0
 22
0.0
 32
0.0
 13
1.0
 23
0.0
 33
0.0
 40
0.0
 40
0.0
 40
0.0
 40
0.0
 40
0.3367837763691904
 40
0.6790142744631034
 40
0.9923682123111114
 40
0.9999999999999999
 40
0.9999999999999999
 40
0.9999999999999999
 40
0.9999999999999999
 10
198.1144416693865
 20
73.4010597015613
 30
0.0
 10
198.1929162180225
 20
73.40105970156127
 30
0.0
 10
198.351134464995
 20
73.40105970156121
 30
0.0
 10
198.5907765902452
 20
73.40105970156162
 30
0.0
 10
198.7379191458329
 20
73.40105970156064
 30
0.0
 10
198.8043141867624
 20
73.40105970156128
 30
0.0
 10
198.805892801684
 20
73.4010597015613
 30
0.0
  0
SPLINE
  5
EE
330
1F
100
AcDbEntity
  8
0
  6
Continuous
 62
     7
370
    15
100
AcDbSpline
210
0.0
220
0.0
230
1.0
 70
    24
 71
     3
 72
    11
 73
     7
 74
     0
 42
0.00000001
 43
0.00000001
 12
1.0
 22
0.0
 32
0.0
 13
1.0
 23
0.0
 33
0.0
 40
0.0
 40
0.0
 40
0.0
 40
0.0
 40
0.3372312331782891
 40
0.6736320300942519
 40
0.9918838342871187
 40
0.9999999999999999
 40
0.9999999999999999
 40
0.9999999999999999
 40
0.9999999999999999
 10
206.0713413719355
 20
80.35690684568817
 30
0.0
 10
206.0713413719355
 20
80.2792611488853
 30
0.0
 10
206.0713413719354
 20
80.12416095880961
 30
0.0
 10
206.0713413719357
 20
79.8816913180906
 30
0.0
 10
206.0713413719351
 20
79.73252095658741
 30
0.0
 10
206.0713413719355
 20
79.66470126674402
 30
0.0
 10
206.0713413719355
 20
79.66301471692259
 30
0.0
  0
CIRCLE
  5
EF
330
1F
100
AcDbEntity
  8
0
  6
HIDDEN
 62
     7
370
     0
100
AcDbCircle
 10
155.7278958325
 20
73.4010597016
 30
0.0
 40
2.799999999999998
  0
CIRCLE
  5
F0
330
1F
100
AcDbEntity
  8
0
  6
HIDDEN
 62
     7
370
     0
100
AcDbCircle
 10
155.7278958325
 20
73.4010597016
 30
0.0
 40
2.480384757729328
  0
LINE
  5
F1
330
1F
100
AcDbEntity
  8
0
  6
HIDDEN
 62
     7
370
     0
100
AcDbLine
 10
130.3359632928
 20
97.8597493167
 30
0.0
 11
130.3359632928
 21
93.2510604407
 31
0.0
  0
ELLIPSE
  5
F2
330
1F
100
AcDbEntity
  8
0
  6
HIDDEN
 62
     7
370
     0
100
AcDbEllipse
 10
215.5216719885
 20
73.4010597016
 30
0.0
 11
31.31569716046823
 21
25.8843321850386
 31
0.0
210
0.0
220
0.0
230
1.0
 40
0.0782280126
 41
1.680147776161882
 42
3.22441562964684
  0
ELLIPSE
  5
F3
330
1F
100
AcDbEntity
  8
0
  6
HIDDEN
 62
     7
370
     0
100
AcDbEllipse
 10
215.0572229059
 20
73.4010597016
 30
0.0
 11
0.0
 21
26.0
 31
0.0
210
0.0
220
0.0
230
1.0
 40
0.191018867
 41
1.555806571069538
 42
1.585786082520255
  0
ELLIPSE
  5
F4
330
1F
100
AcDbEntity
  8
0
  6
HIDDEN
 62
     7
370
     0
100
AcDbEllipse
 10
215.5216719885
 20
73.4010597016
 30
0.0
 11
31.31569716046822
 21
-25.88433218503859
 31
0.0
210
0.0
220
0.0
230
1.0
 40
0.0782280126
 41
3.058769677532912
 42
4.603037531017707
  0
LINE
  5
F5
330
1F
100
AcDbEntity
  8
0
  6
HIDDEN
 62
     7
370
     0
100
AcDbLine
 10
103.7230463315
 20
49.8764605517
 30
0.0
 11
103.4713880707
 21
49.8529390688
 31
0.0
  0
LINE
  5
F6
330
1F
100
AcDbEntity
  8
0
  6
HIDDEN
 62
     7
370
     0
100
AcDbLine
 10
103.348696566
 20
96.9604903157
 30
0.0
 11
103.7229531992
 21
96.9256420876
 31
0.0
  0
SPLINE
  5
F7
330
1F
100
AcDbEntity
  8
0
  6
HIDDEN
 62
     7
370
     0
100
AcDbSpline
210
0.0
220
0.0
230
1.0
 70
     8
 71
     3
 72
    15
 73
    11
 74
     0
 42
0.00000001
 43
0.00000001
 12
1.0
 22
0.0
 32
0.0
 13
1.0
 23
0.0
 33
0.0
 40
0.0
 40
0.0
 40
0.0
 40
0.0
 40
0.1409172263352446
 40
0.281889861653346
 40
0.4212989542022905
 40
0.5593768841673977
 40
0.6988856533029646
 40
0.840367202775075
 40
0.9813164473602943
 40
1.0
 40
1.0
 40
1.0
 40
1.0
 10
109.482897872877
 20
53.56353123438294
 30
0.0
 10
109.1668561532643
 20
53.60388455615762
 30
0.0
 10
108.5346484456959
 20
53.68460706672745
 30
0.0
 10
107.3004852733817
 20
53.76116501311022
 30
0.0
 10
106.0297631495661
 20
53.75648694509528
 30
0.0
 10
104.8412036830296
 20
53.67569047987205
 30
0.0
 10
103.8480810037392
 20
53.55129593301783
 30
0.0
 10
103.2086724724254
 20
53.4448889862566
 30
0.0
 10
102.927652484072
 20
53.39181192694704
 30
0.0
 10
102.9942130525608
 20
53.40406641890895
 30
0.0
 10
103.0020033557235
 20
53.40550069463189
 30
0.0
  0
SPLINE
  5
F8
330
1F
100
AcDbEntity
  8
0
  6
HIDDEN
 62
     7
370
     0
100
AcDbSpline
210
0.0
220
0.0
230
1.0
 70
     8
 71
     3
 72
    15
 73
    11
 74
     0
 42
0.00000001
 43
0.00000001
 12
1.0
 22
0.0
 32
0.0
 13
1.0
 23
0.0
 33
0.0
 40
0.0
 40
0.0
 40
0.0
 40
0.0
 40
0.1201202497733958
 40
0.2584739452442804
 40
0.3987302041697883
 40
0.5404022600041716
 40
0.680739511736143
 40
0.8190355942651634
 40
0.9577823154231621
 40
1.0
 40
1.0
 40
1.0
 40
1.0
 10
103.0020033557235
 20
93.39661870849068
 30
0.0
 10
103.022712604527
 20
93.39259420441638
 30
0.0
 10
103.067274626762
 20
93.38393430362783
 30
0.0
 10
103.6297140964904
 20
93.28464138491664
 30
0.0
 10
104.5231763519377
 20
93.16072537320532
 30
0.0
 10
105.6821551757899
 20
93.06101399767165
 30
0.0
 10
106.9551920446096
 20
93.03387693997361
 30
0.0
 10
108.1894773913367
 20
93.08921430210374
 30
0.0
 10
109.0174404690326
 20
93.17569403789508
 30
0.0
 10
109.3948507816789
 20
93.22669095703226
 30
0.0
 10
109.482897872877
 20
93.23858816873962
 30
0.0
  0
SPLINE
  5
F9
330
1F
100
AcDbEntity
  8
0
  6
HIDDEN
 62
     7
370
     0
100
AcDbSpline
210
0.0
220
0.0
230
1.0
 70
     8
 71
     3
 72
    10
 73
     6
 74
     0
 42
0.00000001
 43
0.00000001
 12
1.0
 22
0.0
 32
0.0
 13
1.0
 23
0.0
 33
0.0
 40
0.0
 40
0.0
 40
0.0
 40
0.0
 40
0.4476914124646482
 40
0.8953661625687157
 40
1.0
 40
1.0
 40
1.0
 40
1.0
 10
109.482897872877
 20
93.23858816873962
 30
0.0
 10
109.729597187144
 20
93.2680997099122
 30
0.0
 10
110.2229866339228
 20
93.32712169388485
 30
0.0
 10
110.5119964996387
 20
93.34106285286926
 30
0.0
 10
110.4516828167381
 20
93.33717504445649
 30
0.0
 10
110.4402565013884
 20
93.33643850636417
 30
0.0
  0
SPLINE
  5
FA
330
1F
100
AcDbEntity
  8
0
  6
HIDDEN
 62
     7
370
     0
100
AcDbSpline
210
0.0
220
0.0
230
1.0
 70
     8
 71
     3
 72
    10
 73
     6
 74
     0
 42
0.00000001
 43
0.00000001
 12
1.0
 22
0.0
 32
0.0
 13
1.0
 23
0.0
 33
0.0
 40
0.0
 40
0.0
 40
0.0
 40
0.0
 40
0.3457472715623323
 40
0.7967816991792672
 40
1.0
 40
1.0
 40
1.0
 40
1.0
 10
110.4402783874689
 20
53.46568089675839
 30
0.0
 10
110.4307189371249
 20
53.46623560126113
 30
0.0
 10
110.4086889871736
 20
53.46751392919773
 30
0.0
 10
109.9916307474196
 20
53.49748176827666
 30
0.0
 10
109.6034661799201
 20
53.54787769063134
 30
0.0
 10
109.482897872877
 20
53.56353123438294
 30
0.0
  0
LINE
  5
FB
330
1F
100
AcDbEntity
  8
0
  6
HIDDEN
 62
     7
370
     0
100
AcDbLine
 10
96.7318713282
 20
56.4010587777
 30
0.0
 11
96.7318713282
 21
90.4010606254
 31
0.0
  0
LINE
  5
FC
330
1F
100
AcDbEntity
  8
0
  6
HIDDEN
 62
     7
370
     0
100
AcDbLine
 10
123.3877217945
 20
56.4010587777
 30
0.0
 11
123.3877217945
 21
90.4010606254
 31
0.0
  0
LINE
  5
FD
330
1F
100
AcDbEntity
  8
0
  6
HIDDEN
 62
     7
370
     0
100
AcDbLine
 10
125.6778956939
 20
57.6760598714
 30
0.0
 11
125.6778956939
 21
89.1260595317
 31
0.0
  0
SPLINE
  5
FE
330
1F
100
AcDbEntity
  8
0
  6
HIDDEN
 62
     7
370
     0
100
AcDbSpline
210
0.0
220
0.0
230
1.0
 70
     8
 71
     3
 72
    18
 73
    14
 74
     0
 42
0.00000001
 43
0.00000001
 12
1.0
 22
0.0
 32
0.0
 13
1.0
 23
0.0
 33
0.0
 40
0.0
 40
0.0
 40
0.0
 40
0.0
 40
0.2500000000000009
 40
0.2500000000000009
 40
0.3750000000000007
 40
0.3750000000000007
 40
0.5000000000000006
 40
0.5000000000000006
 40
0.6250000000000003
 40
0.6250000000000003
 40
0.7500000000000001
 40
0.7500000000000001
 40
1.0
 40
1.0
 40
1.0
 40
1.0
 10
89.92789583246099
 20
89.68857332396541
 30
0.0
 10
89.92789583246099
 20
89.63409880341322
 30
0.0
 10
89.89298514106882
 20
89.57771774406073
 30
0.0
 10
89.79097583973578
 20
89.49364090320724
 30
0.0
 10
89.74933948505767
 20
89.46630719921633
 30
0.0
 10
89.65093368956892
 20
89.41335328361735
 30
0.0
 10
89.59339047786463
 20
89.38746592990019
 30
0.0
 10
89.46609230429169
 20
89.33968838506689
 30
0.0
 10
89.39650499953422
 20
89.31774046688902
 30
0.0
 10
89.24507075437927
 20
89.2783079019763
 30
0.0
 10
89.16238685128532
 20
89.26075165275046
 30
0.0
 10
88.90627538924726
 20
89.21831288732994
 30
0.0
 10
88.71836038535926
 20
89.20255013759292
 30
0.0
 10
88.527895832461
 20
89.20255013759294
 30
0.0
  0
LINE
  5
FF
330
1F
100
AcDbEntity
  8
0
  6
HIDDEN
 62
     7
370
     0
100
AcDbLine
 10
88.5278954719
 20
89.2025509174
 30
0.0
 11
84.9778949831
 21
89.2025509174
 31
0.0
  0
LINE
  5
100
330
1F
100
AcDbEntity
  8
0
  6
HIDDEN
 62
     7
370
     0
100
AcDbLine
 10
84.9778949831
 20
57.5995684857
 30
0.0
 11
92.5278961275
 21
57.5995684857
 31
0.0
  0
SPLINE
  5
101
330
1F
100
AcDbEntity
  8
0
  6
HIDDEN
 62
     7
370
     0
100
AcDbSpline
210
0.0
220
0.0
230
1.0
 70
     8
 71
     3
 72
    16
 73
    12
 74
     0
 42
0.00000001
 43
0.00000001
 12
1.0
 22
0.0
 32
0.0
 13
1.0
 23
0.0
 33
0.0
 40
0.0
 40
0.0
 40
0.0
 40
0.0
 40
0.1249999999999988
 40
0.1249999999999988
 40
0.2499999999999977
 40
0.2499999999999977
 40
0.4999999999999984
 40
0.4999999999999984
 40
0.7499999999999992
 40
0.7499999999999992
 40
1.0
 40
1.0
 40
1.0
 40
1.0
 10
92.527895832461
 20
57.59956926552963
 30
0.0
 10
92.62301758712682
 20
57.59956926552963
 30
0.0
 10
92.7163476558549
 20
57.59575343213684
 30
0.0
 10
92.89960941659291
 20
57.58098287940702
 30
0.0
 10
92.9904871321499
 20
57.56982483143144
 30
0.0
 10
93.24728882966966
 20
57.52735356128973
 30
0.0
 10
93.40235619454164
 20
57.48630736408692
 30
0.0
 10
93.65610265609628
 20
57.39116124750502
 30
0.0
 10
93.75697310776413
 20
57.33639851342345
 30
0.0
 10
93.89221952245896
 20
57.22513738951957
 30
0.0
 10
93.92789583246099
 20
57.1679676521909
 30
0.0
 10
93.927895832461
 20
57.11354607915717
 30
0.0
  0
LINE
  5
102
330
1F
100
AcDbEntity
  8
0
  6
HIDDEN
 62
     7
370
     0
100
AcDbLine
 10
84.9778949831
 20
57.5995684857
 30
0.0
 11
84.9778949831
 21
89.2025509174
 31
0.0
  0
LINE
  5
103
330
1F
100
AcDbEntity
  8
0
  6
HIDDEN
 62
     7
370
     0
100
AcDbLine
 10
84.9778949831
 20
55.4110591556
 30
0.0
 11
84.9778949831
 21
52.5944286282
 31
0.0
  0
LINE
  5
104
330
1F
100
AcDbEntity
  8
0
  6
HIDDEN
 62
     7
370
     0
100
AcDbLine
 10
93.9278956119
 20
55.4110591556
 30
0.0
 11
93.9278956119
 21
51.4559109951
 31
0.0
  0
LINE
  5
105
330
1F
100
AcDbEntity
  8
0
  6
HIDDEN
 62
     7
370
     0
100
AcDbLine
 10
84.9778949831
 20
91.3910602475
 30
0.0
 11
84.9778949831
 21
94.2709983582
 31
0.0
  0
LINE
  5
106
330
1F
100
AcDbEntity
  8
0
  6
HIDDEN
 62
     7
370
     0
100
AcDbLine
 10
89.9278949563
 20
91.3910602475
 30
0.0
 11
89.9278949563
 21
95.2451673592
 31
0.0
  0
LINE
  5
107
330
1F
100
AcDbEntity
  8
0
  6
HIDDEN
 62
     7
370
     0
100
AcDbLine
 10
135.0278965745
 20
63.901060007
 30
0.0
 11
135.0278965745
 21
82.9010593961
 31
0.0
  0
LINE
  5
108
330
1F
100
AcDbEntity
  8
0
  6
HIDDEN
 62
     7
370
     0
100
AcDbLine
 10
137.527896053
 20
63.901060007
 30
0.0
 11
137.527896053
 21
82.9010593961
 31
0.0
  0
LINE
  5
109
330
1F
100
AcDbEntity
  8
0
  6
HIDDEN
 62
     7
370
     0
100
AcDbLine
 10
126.1778957758
 20
64.9010592396
 30
0.0
 11
126.1778957758
 21
81.9010601635
 31
0.0
  0
LINE
  5
10A
330
1F
100
AcDbEntity
  8
0
  6
HIDDEN
 62
     7
370
     0
100
AcDbLine
 10
141.6778955225
 20
47.0010598446
 30
0.0
 11
135.5402208481
 21
47.0010598446
 31
0.0
  0
LINE
  5
10B
330
1F
100
AcDbEntity
  8
0
  6
HIDDEN
 62
     7
370
     0
100
AcDbLine
 10
120.6778958056
 20
41.9169363822
 30
0.0
 11
120.6778958056
 21
47.0010598446
 31
0.0
  0
LINE
  5
10C
330
1F
100
AcDbEntity
  8
0
  6
HIDDEN
 62
     7
370
     0
100
AcDbLine
 10
128.6778961856
 20
47.0010598446
 30
0.0
 11
120.6778958056
 21
47.0010598446
 31
0.0
  0
LINE
  5
10D
330
1F
100
AcDbEntity
  8
0
  6
HIDDEN
 62
     7
370
     0
100
AcDbLine
 10
131.9155711297
 20
47.0010598446
 30
0.0
 11
128.6778961856
 21
47.0010598446
 31
0.0
  0
LINE
  5
10E
330
1F
100
AcDbEntity
  8
0
  6
HIDDEN
 62
     7
370
     0
100
AcDbLine
 10
132.2121936444
 20
99.8010595585
 30
0.0
 11
128.6778961856
 21
99.8010595585
 31
0.0
  0
LINE
  5
10F
330
1F
100
AcDbEntity
  8
0
  6
HIDDEN
 62
     7
370
     0
100
AcDbLine
 10
141.6778955225
 20
99.8010595585
 30
0.0
 11
135.2435983334
 21
99.8010595585
 31
0.0
  0
LINE
  5
110
330
1F
100
AcDbEntity
  8
0
  6
HIDDEN
 62
     7
370
     0
100
AcDbLine
 10
128.6778961856
 20
99.8010595585
 30
0.0
 11
120.6778958056
 21
99.8010595585
 31
0.0
  0
ELLIPSE
  5
111
330
1F
100
AcDbEntity
  8
0
  6
HIDDEN
 62
     7
370
     0
100
AcDbEllipse
 10
79.6604639681
 20
73.4010597016
 30
0.0
 11
20.07002071827054
 21
-2.842170943040401E-14
 31
0.0
210
0.0
220
0.0
230
1.0
 40
0.8164965809
 41
4.921555463185703
 42
4.980534842098404
  0
ELLIPSE
  5
112
330
1F
100
AcDbEntity
  8
0
  6
HIDDEN
 62
     7
370
     0
100
AcDbEllipse
 10
79.6604639681
 20
73.4010597016
 30
0.0
 11
20.07002071827053
 21
-1.421085471520200E-14
 31
0.0
210
0.0
220
0.0
230
1.0
 40
0.8164965809
 41
1.302650465081198
 42
1.361629843993898
  0
LINE
  5
113
330
1F
100
AcDbEntity
  8
0
  6
HIDDEN
 62
     7
370
     0
100
AcDbLine
 10
84.9778949831
 20
55.4110591556
 30
0.0
 11
84.9778949831
 21
57.5995684857
 31
0.0
  0
LINE
  5
114
330
1F
100
AcDbEntity
  8
0
  6
HIDDEN
 62
     7
370
     0
100
AcDbLine
 10
93.9278956119
 20
55.4110591556
 30
0.0
 11
93.9278956119
 21
57.1135466243
 31
0.0
  0
LINE
  5
115
330
1F
100
AcDbEntity
  8
0
  6
HIDDEN
 62
     7
370
     0
100
AcDbLine
 10
84.9778949831
 20
91.3910602475
 30
0.0
 11
84.9778949831
 21
89.2025509174
 31
0.0
  0
LINE
  5
116
330
1F
100
AcDbEntity
  8
0
  6
HIDDEN
 62
     7
370
     0
100
AcDbLine
 10
89.9278949563
 20
91.3910602475
 30
0.0
 11
89.9278949563
 21
89.6885727788
 31
0.0
  0
SPLINE
  5
117
330
1F
100
AcDbEntity
  8
0
  6
HIDDEN
 62
     7
370
     0
100
AcDbSpline
210
0.0
220
0.0
230
1.0
 70
     8
 71
     3
 72
    20
 73
    16
 74
     0
 42
0.00000001
 43
0.00000001
 12
1.0
 22
0.0
 32
0.0
 13
1.0
 23
0.0
 33
0.0
 40
0.0
 40
0.0
 40
0.0
 40
0.0
 40
0.1119051860899724
 40
0.1774242448616266
 40
0.2490456465621324
 40
0.329793932586248
 40
0.3985661712018277
 40
0.4998456979868554
 40
0.6138105959536432
 40
0.678976363842428
 40
0.7495027215938899
 40
0.8296485243193552
 40
0.8980920552507716
 40
0.9995022410654278
 40
1.0
 40
1.0
 40
1.0
 40
1.0
 10
110.4766190599917
 20
49.80109792900021
 30
0.0
 10
110.4333116311367
 20
49.81452047016192
 30
0.0
 10
110.3646482552022
 20
49.83580173792934
 30
0.0
 10
109.9195540847027
 20
49.93909674448069
 30
0.0
 10
109.3929998493622
 20
50.05239603100262
 30
0.0
 10
108.7075735223375
 20
50.17533096940581
 30
0.0
 10
107.814256685913
 20
50.29736558102788
 30
0.0
 10
106.700896937076
 20
50.41510125339578
 30
0.0
 10
105.5901227239273
 20
50.42707508974615
 30
0.0
 10
104.7053747354282
 20
50.40001961754783
 30
0.0
 10
104.0381773939028
 20
50.35208631458239
 30
0.0
 10
103.4969072984377
 20
50.29579017373124
 30
0.0
 10
103.1093181752757
 20
50.25071479821803
 30
0.0
 10
102.9153780250628
 20
50.21181601589335
 30
0.0
 10
102.9785282558358
 20
50.22254906328276
 30
0.0
 10
102.9788367066799
 20
50.22260148775513
 30
0.0
  0
LINE
  5
118
330
1F
100
AcDbEntity
  8
0
  6
HIDDEN
 62
     7
370
     0
100
AcDbLine
 10
103.8879081223
 20
50.3333972092
 30
0.0
 11
104.0717530612
 21
50.3515878017
 31
0.0
  0
SPLINE
  5
119
330
1F
100
AcDbEntity
  8
0
  6
HIDDEN
 62
     7
370
     0
100
AcDbSpline
210
0.0
220
0.0
230
1.0
 70
     8
 71
     3
 72
    27
 73
    23
 74
     0
 42
0.00000001
 43
0.00000001
 12
1.0
 22
0.0
 32
0.0
 13
1.0
 23
0.0
 33
0.0
 40
0.0
 40
0.0
 40
0.0
 40
0.0
 40
0.0007882545374246
 40
0.045670557631758
 40
0.102251959144316
 40
0.1705297300958905
 40
0.2091212075099237
 40
0.2506482532541777
 40
0.321093683645669
 40
0.3861871320715094
 40
0.4266661152547974
 40
0.464797199457433
 40
0.5006012964396878
 40
0.5451929185828223
 40
0.601686906857253
 40
0.6700925228428992
 40
0.7088297101373922
 40
0.7505582383764884
 40
0.8222225132145095
 40
0.8877616185036153
 40
0.9472351009184403
 40
1.0
 40
1.0
 40
1.0
 40
1.0
 10
102.9785479966818
 20
96.57947693717415
 30
0.0
 10
102.9783313001378
 20
96.57952367634041
 30
0.0
 10
102.9657761526189
 20
96.5822316896596
 30
0.0
 10
103.0148613086462
 20
96.57039386374409
 30
0.0
 10
103.1599570177657
 20
96.54695718050988
 30
0.0
 10
103.433011754092
 20
96.51304831811676
 30
0.0
 10
103.7615371996742
 20
96.47948068078347
 30
0.0
 10
104.1542652647117
 20
96.4412976585093
 30
0.0
 10
104.7039930372231
 20
96.40232956938178
 30
0.0
 10
105.3300156754917
 20
96.38286794186196
 30
0.0
 10
105.8732075148741
 20
96.38068278557508
 30
0.0
 10
106.3182762644642
 20
96.38919750689645
 30
0.0
 10
106.7847241186622
 20
96.40898105700481
 30
0.0
 10
107.3219650455298
 20
96.4531409390442
 30
0.0
 10
107.9701780085065
 20
96.52556077263162
 30
0.0
 10
108.5557171796384
 20
96.6064584383235
 30
0.0
 10
109.0366862191689
 20
96.68462777494129
 30
0.0
 10
109.4821015855951
 20
96.76939841059287
 30
0.0
 10
109.9206006749381
 20
96.86318293802617
 30
0.0
 10
110.2596282151355
 20
96.94108589045605
 30
0.0
 10
110.4469872526384
 20
96.99128170690608
 30
0.0
 10
110.4674781802398
 20
96.99794996073756
 30
0.0
 10
110.4771112639724
 20
97.00108480405743
 30
0.0
  0
LINE
  5
11A
330
1F
100
AcDbEntity
  8
0
  6
HIDDEN
 62
     7
370
     0
100
AcDbLine
 10
148.8278973464
 20
69.2010598513
 30
0.0
 11
148.8278973464
 21
77.6010595518
 31
0.0
  0
LINE
  5
11B
330
1F
100
AcDbEntity
  8
0
  6
HIDDEN
 62
     7
370
     0
100
AcDbLine
 10
149.8493570451
 20
70.9010597574
 30
0.0
 11
149.8493570451
 21
75.9010596457
 31
0.0
  0
LINE
  5
11C
330
1F
100
AcDbEntity
  8
0
  6
HIDDEN
 62
     7
370
     0
100
AcDbLine
 10
164.5278948907
 20
73.4010597016
 30
0.0
 11
164.5278948907
 21
70.9010597574
 31
0.0
  0
LINE
  5
11D
330
1F
100
AcDbEntity
  8
0
  6
HIDDEN
 62
     7
370
     0
100
AcDbLine
 10
164.5278948907
 20
75.9010596457
 30
0.0
 11
164.5278948907
 21
73.4010597016
 31
0.0
  0
LINE
  5
11E
330
1F
100
AcDbEntity
  8
0
  6
HIDDEN
 62
     7
370
     0
100
AcDbLine
 10
198.5704395537
 20
71.4217512659
 30
0.0
 11
205.8379817371
 21
65.3235630388
 31
0.0
  0
LINE
  5
11F
330
1F
100
AcDbEntity
  8
0
  6
HIDDEN
 62
     7
370
     0
100
AcDbLine
 10
205.8379817371
 20
65.3235630388
 30
0.0
 11
205.8287653689
 21
65.3158321301
 31
0.0
  0
LINE
  5
120
330
1F
100
AcDbEntity
  8
0
  6
HIDDEN
 62
     7
370
     0
100
AcDbLine
 10
205.8379817371
 20
81.4785563643
 30
0.0
 11
205.8287653689
 21
81.486287273
 31
0.0
  0
LINE
  5
121
330
1F
100
AcDbEntity
  8
0
  6
HIDDEN
 62
     7
370
     0
100
AcDbLine
 10
205.8379817371
 20
81.4785563643
 30
0.0
 11
198.5704395537
 21
75.3803681373
 31
0.0
  0
LINE
  5
122
330
1F
100
AcDbEntity
  8
0
  6
HIDDEN
 62
     7
370
     0
100
AcDbLine
 10
205.8379817371
 20
81.1323432508
 30
0.0
 11
198.84193126
 21
75.2619630447
 31
0.0
  0
ARC
  5
123
330
1F
100
AcDbEntity
  8
0
  6
HIDDEN
 62
     7
370
     0
100
AcDbCircle
 10
197.8687744629
 20
73.4010597016
 30
0.0
 40
2.099999999999995
100
AcDbArc
 50
62.3926878054
 51
70.4804989879
  0
LINE
  5
124
330
1F
100
AcDbEntity
  8
0
  6
HIDDEN
 62
     7
370
     0
100
AcDbLine
 10
205.8379817371
 20
81.4785563643
 30
0.0
 11
205.8379817371
 21
81.1323432508
 31
0.0
  0
ARC
  5
125
330
1F
100
AcDbEntity
  8
0
  6
HIDDEN
 62
     7
370
     0
100
AcDbCircle
 10
197.8687744629
 20
73.4010597016
 30
0.0
 40
2.100000000000014
100
AcDbArc
 50
289.5195010121
 51
297.6073121946
  0
LINE
  5
126
330
1F
100
AcDbEntity
  8
0
  6
HIDDEN
 62
     7
370
     0
100
AcDbLine
 10
198.84193126
 20
71.5401563584
 30
0.0
 11
205.8379817371
 21
65.6697761523
 31
0.0
  0
LINE
  5
127
330
1F
100
AcDbEntity
  8
0
  6
HIDDEN
 62
     7
370
     0
100
AcDbLine
 10
205.8379817371
 20
65.3235630388
 30
0.0
 11
205.8379817371
 21
65.6697761523
 31
0.0
  0
LINE
  5
128
330
1F
100
AcDbEntity
  8
0
  6
HIDDEN
 62
     7
370
     0
100
AcDbLine
 10
210.0912872318
 20
73.0113406398
 30
0.0
 11
214.109772778
 21
73.0113406398
 31
0.0
  0
LINE
  5
129
330
1F
100
AcDbEntity
  8
0
  6
HIDDEN
 62
     7
370
     0
100
AcDbLine
 10
214.109772778
 20
73.7907787633
 30
0.0
 11
210.0912872318
 21
73.7907787633
 31
0.0
  0
CIRCLE
  5
12A
330
1F
100
AcDbEntity
  8
0
  6
HIDDEN
 62
     7
370
     0
100
AcDbCircle
 10
205.9713390626
 20
73.4010597016
 30
0.0
 40
2.599999999999994
  0
LINE
  5
12B
330
1F
100
AcDbEntity
  8
0
  6
HIDDEN
 62
     7
370
     0
100
AcDbLine
 10
214.109772778
 20
73.0113406398
 30
0.0
 11
214.109772778
 21
73.7907787633
 31
0.0
  0
ARC
  5
12C
330
1F
100
AcDbEntity
  8
0
  6
HIDDEN
 62
     7
370
     0
100
AcDbCircle
 10
197.8687744629
 20
73.4010597016
 30
0.0
 40
2.100000000000007
100
AcDbArc
 50
297.6073121946
 51
62.3926878054
  0
LINE
  5
12D
330
1F
100
AcDbEntity
  8
0
  6
HIDDEN
 62
     7
370
     0
100
AcDbLine
 10
214.109772778
 20
73.0113406398
 30
0.0
 11
205.5992055301
 21
65.8701306465
 31
0.0
  0
LINE
  5
12E
330
1F
100
AcDbEntity
  8
0
  6
HIDDEN
 62
     7
370
     0
100
AcDbLine
 10
214.109772778
 20
73.7907787633
 30
0.0
 11
205.5992055301
 21
80.9319887566
 31
0.0
  0
CIRCLE
  5
12F
330
1F
100
AcDbEntity
  8
0
  6
HIDDEN
 62
     7
370
     0
100
AcDbCircle
 10
205.9713390626
 20
73.4010597016
 30
0.0
 40
2.099999999999994
  0
LINE
  5
130
330
1F
100
AcDbEntity
  8
0
  6
HIDDEN
 62
     7
370
     0
100
AcDbLine
 10
131.8178958807
 20
93.5369261796
 30
0.0
 11
131.8178958807
 21
93.2510604407
 31
0.0
  0
LINE
  5
131
330
1F
100
AcDbEntity
  8
0
  6
HIDDEN
 62
     7
370
     0
100
AcDbLine
 10
135.6378960971
 20
93.5369261796
 30
0.0
 11
135.6378960971
 21
93.2510604407
 31
0.0
  0
LINE
  5
132
330
1F
100
AcDbEntity
  8
0
  6
HIDDEN
 62
     7
370
     0
100
AcDbLine
 10
137.1198277537
 20
97.8597493167
 30
0.0
 11
137.1198277537
 21
93.2510604407
 31
0.0
  0
CIRCLE
  5
133
330
1F
100
AcDbEntity
  8
0
  6
HIDDEN
 62
     7
370
     0
100
AcDbCircle
 10
122.7278958325
 20
73.4010597016
 30
0.0
 40
5.0
  0
CIRCLE
  5
134
330
1F
100
AcDbEntity
  8
0
  6
HIDDEN
 62
     7
370
     0
100
AcDbCircle
 10
205.9713390626
 20
73.4010597016
 30
0.0
 40
2.499999999999989
  0
CIRCLE
  5
135
330
1F
100
AcDbEntity
  8
0
  6
HIDDEN
 62
     7
370
     0
100
AcDbCircle
 10
205.9713390626
 20
73.4010597016
 30
0.0
 40
1.599999999999984
  0
CIRCLE
  5
136
330
1F
100
AcDbEntity
  8
0
  6
HIDDEN
 62
     7
370
     0
100
AcDbCircle
 10
206.0713390626
 20
73.4010597016
 30
0.0
 40
2.749999999999993
  0
LINE
  5
137
330
1F
100
AcDbEntity
  8
0
  6
HIDDEN
 62
     7
370
     0
100
AcDbLine
 10
206.0713413719
 20
65.8746745693
 30
0.0
 11
215.0409388904
 21
73.4010597016
 31
0.0
  0
LINE
  5
138
330
1F
100
AcDbEntity
  8
0
  6
HIDDEN
 62
     7
370
     0
100
AcDbLine
 10
197.1017438535
 20
73.4010597016
 30
0.0
 11
206.0713413719
 21
65.8746745693
 31
0.0
  0
LINE
  5
139
330
1F
100
AcDbEntity
  8
0
  6
HIDDEN
 62
     7
370
     0
100
AcDbLine
 10
215.0409388904
 20
73.4010597016
 30
0.0
 11
206.0713413719
 21
80.9274448338
 31
0.0
  0
LINE
  5
13A
330
1F
100
AcDbEntity
  8
0
  6
HIDDEN
 62
     7
370
     0
100
AcDbLine
 10
206.0713413719
 20
80.9274448338
 30
0.0
 11
197.1017438535
 21
73.4010597016
 31
0.0
  0
LINE
  5
13B
330
1F
100
AcDbEntity
  8
0
  6
HIDDEN
 62
     7
370
     0
100
AcDbLine
 10
115.7278958325
 20
48.0771360244
 30
0.0
 11
115.8220566702
 21
48.7471257592
 31
0.0
  0
LINE
  5
13C
330
1F
100
AcDbEntity
  8
0
  6
HIDDEN
 62
     7
370
     0
100
AcDbLine
 10
115.8220566702
 20
98.0549936439
 30
0.0
 11
115.7278958325
 21
98.7249833788
 31
0.0
  0
ARC
  5
13D
330
1F
100
AcDbEntity
  8
0
  6
HIDDEN
 62
     7
370
     0
100
AcDbCircle
 10
115.2278958325
 20
48.8306288398
 30
0.0
 40
0.5999999999999943
100
AcDbArc
 50
352.0
 51
0.0
  0
ARC
  5
13E
330
1F
100
AcDbEntity
  8
0
  6
HIDDEN
 62
     7
370
     0
100
AcDbCircle
 10
115.2278958325
 20
48.8306288398
 30
0.0
 40
0.6000000000000019
100
AcDbArc
 50
0.0
 51
33.5573097619
  0
ARC
  5
13F
330
1F
100
AcDbEntity
  8
0
  6
HIDDEN
 62
     7
370
     0
100
AcDbCircle
 10
115.2278958325
 20
97.9714905633
 30
0.0
 40
0.599999999999998
100
AcDbArc
 50
348.75
 51
8.0
  0
LWPOLYLINE
  5
140
330
1F
100
AcDbEntity
  8
0
  6
HIDDEN
 62
     7
370
     0
100
AcDbPolyline
 90
        3
 70
   128
 43
0.0
 10
115.8163670023
 20
97.8544370527
 10
115.7822235526
 20
97.7418811316
 10
115.7278958325
 20
97.6398286666
  0
LINE
  5
141
330
1F
100
AcDbEntity
  8
0
  6
HIDDEN
 62
     7
370
     0
100
AcDbLine
 10
115.8278958299
 20
48.8306281413
 30
0.0
 11
115.8278958299
 21
97.9714912618
 31
0.0
  0
LINE
  5
142
330
1F
100
AcDbEntity
  8
0
  6
HIDDEN
 62
     7
370
     0
100
AcDbLine
 10
98.8103318576
 20
53.4010601486
 30
0.0
 11
103.0020033557
 21
53.4010601486
 31
0.0
  0
LINE
  5
143
330
1F
100
AcDbEntity
  8
0
  6
HIDDEN
 62
     7
370
     0
100
AcDbLine
 10
103.0020033557
 20
93.4010592545
 30
0.0
 11
98.8103318576
 21
93.4010592545
 31
0.0
  0
ARC
  5
144
330
1F
100
AcDbEntity
  8
0
  6
HIDDEN
 62
     7
370
     0
100
AcDbCircle
 10
109.4828978341
 20
61.4010597016
 30
0.0
 40
8.000000000000005
100
AcDbArc
 50
276.8740760729
 51
321.3178125465
  0
ARC
  5
145
330
1F
100
AcDbEntity
  8
0
  6
HIDDEN
 62
     7
370
     0
100
AcDbCircle
 10
109.4828978341
 20
85.4010597016
 30
0.0
 40
8.000000000000009
100
AcDbArc
 50
38.6821874535
 51
83.1169256785
  0
ARC
  5
146
330
1F
100
AcDbEntity
  8
0
  6
HIDDEN
 62
     7
370
     0
100
AcDbCircle
 10
98.8103313978
 20
54.0010597016
 30
0.0
 40
0.6000000000000085
100
AcDbArc
 50
210.0
 51
270.0
  0
ARC
  5
147
330
1F
100
AcDbEntity
  8
0
  6
HIDDEN
 62
     7
370
     0
100
AcDbCircle
 10
98.8103313978
 20
92.8010597016
 30
0.0
 40
0.6000000000000085
100
AcDbArc
 50
90.0
 51
150.0
  0
LINE
  5
148
330
1F
100
AcDbEntity
  8
0
  6
HIDDEN
 62
     7
370
     0
100
AcDbLine
 10
98.2907153283
 20
93.1010597641
 30
0.0
 11
96.7318713282
 21
90.4010606254
 31
0.0
  0
LINE
  5
149
330
1F
100
AcDbEntity
  8
0
  6
HIDDEN
 62
     7
370
     0
100
AcDbLine
 10
96.7318713282
 20
56.4010587777
 30
0.0
 11
98.2907153283
 21
53.701059639
 31
0.0
  0
ARC
  5
14A
330
1F
100
AcDbEntity
  8
0
  6
HIDDEN
 62
     7
370
     0
100
AcDbCircle
 10
124.1778958325
 20
57.6760597016
 30
0.0
 40
1.5
100
AcDbArc
 50
238.2116693829
 51
0.0
  0
ARC
  5
14B
330
1F
100
AcDbEntity
  8
0
  6
HIDDEN
 62
     7
370
     0
100
AcDbCircle
 10
124.1778958325
 20
89.1260597016
 30
0.0
 40
1.5
100
AcDbArc
 50
0.0
 51
121.7883306171
  0
LINE
  5
14C
330
1F
100
AcDbEntity
  8
0
  6
HIDDEN
 62
     7
370
     0
100
AcDbLine
 10
93.9278956119
 20
56.4010587777
 30
0.0
 11
96.7318713282
 21
56.4010587777
 31
0.0
  0
LINE
  5
14D
330
1F
100
AcDbEntity
  8
0
  6
HIDDEN
 62
     7
370
     0
100
AcDbLine
 10
96.7318713282
 20
90.4010606254
 30
0.0
 11
89.9278949563
 21
90.4010606254
 31
0.0
  0
LINE
  5
14E
330
1F
100
AcDbEntity
  8
0
  6
HIDDEN
 62
     7
370
     0
100
AcDbLine
 10
115.7278958325
 20
56.4010587777
 30
0.0
 11
123.3877217945
 21
56.4010587777
 31
0.0
  0
LINE
  5
14F
330
1F
100
AcDbEntity
  8
0
  6
HIDDEN
 62
     7
370
     0
100
AcDbLine
 10
123.3877217945
 20
90.4010606254
 30
0.0
 11
115.7278958325
 21
90.4010606254
 31
0.0
  0
LINE
  5
150
330
1F
100
AcDbEntity
  8
0
  6
HIDDEN
 62
     7
370
     0
100
AcDbLine
 10
164.2054374878
 20
75.9010596457
 30
0.0
 11
155.7278949384
 21
75.9010596457
 31
0.0
  0
LINE
  5
151
330
1F
100
AcDbEntity
  8
0
  6
HIDDEN
 62
     7
370
     0
100
AcDbLine
 10
155.7278949384
 20
70.9010597574
 30
0.0
 11
164.2054374878
 21
70.9010597574
 31
0.0
  0
LINE
  5
152
330
1F
100
AcDbEntity
  8
0
  6
HIDDEN
 62
     7
370
     0
100
AcDbLine
 10
155.7278949384
 20
75.9010596457
 30
0.0
 11
155.5695626501
 21
75.9010596457
 31
0.0
  0
LINE
  5
153
330
1F
100
AcDbEntity
  8
0
  6
HIDDEN
 62
     7
370
     0
100
AcDbLine
 10
155.5695626501
 20
70.9010597574
 30
0.0
 11
155.7278949384
 21
70.9010597574
 31
0.0
  0
LINE
  5
154
330
1F
100
AcDbEntity
  8
0
  6
HIDDEN
 62
     7
370
     0
100
AcDbLine
 10
135.0278965745
 20
63.901060007
 30
0.0
 11
137.527896053
 21
63.901060007
 31
0.0
  0
LINE
  5
155
330
1F
100
AcDbEntity
  8
0
  6
HIDDEN
 62
     7
370
     0
100
AcDbLine
 10
137.527896053
 20
82.9010593961
 30
0.0
 11
135.0278965745
 21
82.9010593961
 31
0.0
  0
LINE
  5
156
330
1F
100
AcDbEntity
  8
0
  6
HIDDEN
 62
     7
370
     0
100
AcDbLine
 10
125.6778956939
 20
64.401060089
 30
0.0
 11
126.1778957758
 21
64.9010592396
 31
0.0
  0
LINE
  5
157
330
1F
100
AcDbEntity
  8
0
  6
HIDDEN
 62
     7
370
     0
100
AcDbLine
 10
126.1778957758
 20
81.9010601635
 30
0.0
 11
125.6778956939
 21
82.4010593141
 31
0.0
  0
LINE
  5
158
330
1F
100
AcDbEntity
  8
0
  6
HIDDEN
 62
     7
370
     0
100
AcDbLine
 10
126.1778957758
 20
64.9010592396
 30
0.0
 11
135.0278965745
 21
64.9010592396
 31
0.0
  0
LINE
  5
159
330
1F
100
AcDbEntity
  8
0
  6
HIDDEN
 62
     7
370
     0
100
AcDbLine
 10
135.0278965745
 20
81.9010601635
 30
0.0
 11
126.1778957758
 21
81.9010601635
 31
0.0
  0
LINE
  5
15A
330
1F
100
AcDbEntity
  8
0
  6
HIDDEN
 62
     7
370
     0
100
AcDbLine
 10
120.6778958056
 20
104.9010602082
 30
0.0
 11
120.6778958056
 21
99.8010595585
 31
0.0
  0
LINE
  5
15B
330
1F
100
AcDbEntity
  8
0
  6
HIDDEN
 62
     7
370
     0
100
AcDbLine
 10
110.9123336699
 20
49.3216884578
 30
0.0
 11
110.4779014912
 21
49.8007552023
 31
0.0
  0
LINE
  5
15C
330
1F
100
AcDbEntity
  8
0
  6
HIDDEN
 62
     7
370
     0
100
AcDbLine
 10
102.9778979335
 20
50.2224431629
 30
0.0
 11
102.495464458
 21
49.7433764185
 31
0.0
  0
LINE
  5
15D
330
1F
100
AcDbEntity
  8
0
  6
HIDDEN
 62
     7
370
     0
100
AcDbLine
 10
102.4953424547
 20
97.0587373967
 30
0.0
 11
102.9778932769
 21
96.5796166356
 31
0.0
  0
LINE
  5
15E
330
1F
100
AcDbEntity
  8
0
  6
HIDDEN
 62
     7
370
     0
100
AcDbLine
 10
110.4778959032
 20
97.0013157721
 30
0.0
 11
110.912437978
 21
97.4804346706
 31
0.0
  0
LINE
  5
15F
330
1F
100
AcDbEntity
  8
0
  6
HIDDEN
 62
     7
370
     0
100
AcDbLine
 10
148.8278973464
 20
69.2010598513
 30
0.0
 11
149.8493570451
 21
70.9010597574
 31
0.0
  0
LINE
  5
160
330
1F
100
AcDbEntity
  8
0
  6
HIDDEN
 62
     7
370
     0
100
AcDbLine
 10
149.8493570451
 20
75.9010596457
 30
0.0
 11
148.8278973464
 21
77.6010595518
 31
0.0
  0
LINE
  5
161
330
1F
100
AcDbEntity
  8
0
  6
HIDDEN
 62
     7
370
     0
100
AcDbLine
 10
137.527896053
 20
69.2010598513
 30
0.0
 11
148.8278973464
 21
69.2010598513
 31
0.0
  0
LINE
  5
162
330
1F
100
AcDbEntity
  8
0
  6
HIDDEN
 62
     7
370
     0
100
AcDbLine
 10
148.8278973464
 20
77.6010595518
 30
0.0
 11
137.527896053
 21
77.6010595518
 31
0.0
  0
LINE
  5
163
330
1F
100
AcDbEntity
  8
0
  6
HIDDEN
 62
     7
370
     0
100
AcDbLine
 10
110.4778959032
 20
93.3364608581
 30
0.0
 11
110.4778959032
 21
97.0010233368
 31
0.0
  0
LINE
  5
164
330
1F
100
AcDbEntity
  8
0
  6
HIDDEN
 62
     7
370
     0
100
AcDbLine
 10
102.9778960709
 20
96.5794732119
 30
0.0
 11
102.9778960709
 21
93.3966820384
 31
0.0
  0
LINE
  5
165
330
1F
100
AcDbEntity
  8
0
  6
HIDDEN
 62
     7
370
     0
100
AcDbLine
 10
110.4778959032
 20
49.8012376274
 30
0.0
 11
110.4778959032
 21
53.465658545
 31
0.0
  0
LINE
  5
166
330
1F
100
AcDbEntity
  8
0
  6
HIDDEN
 62
     7
370
     0
100
AcDbLine
 10
102.9778960709
 20
53.4054373647
 30
0.0
 11
102.9778960709
 21
50.2227654005
 31
0.0
  0
LINE
  5
167
330
1F
100
AcDbEntity
  8
0
  6
HIDDEN
 62
     7
370
     0
100
AcDbLine
 10
164.2054374878
 20
70.9010597574
 30
0.0
 11
164.5278948907
 21
70.9010597574
 31
0.0
  0
LINE
  5
168
330
1F
100
AcDbEntity
  8
0
  6
HIDDEN
 62
     7
370
     0
100
AcDbLine
 10
149.8493570451
 20
70.9010597574
 30
0.0
 11
155.5695626501
 21
70.9010597574
 31
0.0
  0
LINE
  5
169
330
1F
100
AcDbEntity
  8
0
  6
HIDDEN
 62
     7
370
     0
100
AcDbLine
 10
155.5695626501
 20
75.9010596457
 30
0.0
 11
149.8493570451
 21
75.9010596457
 31
0.0
  0
LINE
  5
16A
330
1F
100
AcDbEntity
  8
0
  6
HIDDEN
 62
     7
370
     0
100
AcDbLine
 10
164.5278948907
 20
75.9010596457
 30
0.0
 11
164.2054374878
 21
75.9010596457
 31
0.0
  0
LINE
  5
16B
330
1F
100
AcDbEntity
  8
0
  6
HIDDEN
 62
     7
370
     0
100
AcDbLine
 10
164.5278948907
 20
70.9010597574
 30
0.0
 11
166.030047423
 21
73.4010597016
 31
0.0
  0
LINE
  5
16C
330
1F
100
AcDbEntity
  8
0
  6
HIDDEN
 62
     7
370
     0
100
AcDbLine
 10
166.030047423
 20
73.4010597016
 30
0.0
 11
164.5278948907
 21
75.9010596457
 31
0.0
  0
CIRCLE
  5
16D
330
1F
100
AcDbEntity
  8
0
  6
HIDDEN
 62
     7
370
     0
100
AcDbCircle
 10
205.9713390626
 20
73.4010597016
 30
0.0
 40
2.279131018014145
  0
DIMENSION
  5
16E
330
1F
100
AcDbEntity
  8
VERMASSUNG
100
AcDbDimension
  2
_D
 10
223.2327019823
 20
47.4010597016
 30
0.0
 11
223.2327019823
 21
73.4010597016
 31
0.0
 70
   160
  1
%%c<>
 71
     2
 42
-1.0
  3
SLDDIMSTYLE0
100
AcDbAlignedDimension
 13
170.4583583608
 23
99.4010597016
 33
0.0
 14
170.4583583608
 24
47.4010597016
 34
0.0
 50
90.0
100
AcDbRotatedDimension
  0
LINE
  5
17A
330
1F
100
AcDbEntity
  8
VERMASSUNG
  6
CENTERX2
370
     0
100
AcDbLine
 10
81.6775336469
 20
73.4010597016
 30
0.0
 11
217.4745487053
 21
73.4010597016
 31
0.0
  0
LINE
  5
17B
330
1F
100
AcDbEntity
  8
0
  6
Continuous
 62
     7
370
    15
100
AcDbLine
 10
127.6640314225
 20
117.4965853822
 30
0.0
 11
130.3359632928
 21
117.4965853822
 31
0.0
  0
LINE
  5
17C
330
1F
100
AcDbEntity
  8
0
  6
Continuous
 62
     7
370
    15
100
AcDbLine
 10
116.0278958467
 20
117.4965853822
 30
0.0
 11
117.7278959275
 21
117.4965853822
 31
0.0
  0
LINE
  5
17D
330
1F
100
AcDbEntity
  8
0
  6
Continuous
 62
     7
370
    15
100
AcDbLine
 10
130.3359632928
 20
180.4965863954
 30
0.0
 11
116.0278958467
 21
180.4965863954
 31
0.0
  0
ARC
  5
17E
330
1F
100
AcDbEntity
  8
0
  6
Continuous
 62
     7
370
    15
100
AcDbCircle
 10
116.0278958325
 20
117.7965858888
 30
0.0
 40
0.2999999999999972
100
AcDbArc
 50
180.0
 51
270.0
  0
ARC
  5
17F
330
1F
100
AcDbEntity
  8
0
  6
Continuous
 62
     7
370
    15
100
AcDbCircle
 10
116.0278958325
 20
180.1965858888
 30
0.0
 40
0.2999999999999972
100
AcDbArc
 50
90.0
 51
180.0
  0
ARC
  5
180
330
1F
100
AcDbEntity
  8
0
  6
Continuous
 62
     7
370
    15
100
AcDbCircle
 10
141.0778958325
 20
179.8965858888
 30
0.0
 40
0.5999999999999943
100
AcDbArc
 50
0.0
 51
90.0
  0
ARC
  5
181
330
1F
100
AcDbEntity
  8
0
  6
Continuous
 62
     7
370
    15
100
AcDbCircle
 10
141.0778958325
 20
118.0965858888
 30
0.0
 40
0.6000000000000085
100
AcDbArc
 50
270.0
 51
0.0
  0
LINE
  5
182
330
1F
100
AcDbEntity
  8
0
  6
Continuous
 62
     7
370
    15
100
AcDbLine
 10
141.0778965418
 20
180.4965863954
 30
0.0
 11
137.1198277537
 21
180.4965863954
 31
0.0
  0
LINE
  5
183
330
1F
100
AcDbEntity
  8
0
  6
Continuous
 62
     7
370
    15
100
AcDbLine
 10
137.1198277537
 20
117.4965853822
 30
0.0
 11
141.0778965418
 21
117.4965853822
 31
0.0
  0
LINE
  5
184
330
1F
100
AcDbEntity
  8
0
  6
Continuous
 62
     7
370
    15
100
AcDbLine
 10
137.1198277537
 20
180.4965863954
 30
0.0
 11
135.6378960971
 21
177.9298036378
 31
0.0
  0
LINE
  5
185
330
1F
100
AcDbEntity
  8
0
  6
Continuous
 62
     7
370
    15
100
AcDbLine
 10
135.6378960971
 20
120.0633681398
 30
0.0
 11
137.1198277537
 21
117.4965853822
 31
0.0
  0
LINE
  5
186
330
1F
100
AcDbEntity
  8
0
  6
Continuous
 62
     7
370
    15
100
AcDbLine
 10
131.8178958807
 20
177.9298036378
 30
0.0
 11
130.3359632928
 21
180.4965863954
 31
0.0
  0
LINE
  5
187
330
1F
100
AcDbEntity
  8
0
  6
Continuous
 62
     7
370
    15
100
AcDbLine
 10
130.3359632928
 20
117.4965853822
 30
0.0
 11
131.8178958807
 21
120.0633681398
 31
0.0
  0
ARC
  5
188
330
1F
100
AcDbEntity
  8
0
  6
Continuous
 62
     7
370
    15
100
AcDbCircle
 10
134.8378958325
 20
120.7215858888
 30
0.0
 40
0.8000000000000114
100
AcDbArc
 50
0.0
 51
90.0
  0
ARC
  5
189
330
1F
100
AcDbEntity
  8
0
  6
Continuous
 62
     7
370
    15
100
AcDbCircle
 10
134.8378958325
 20
177.2715858888
 30
0.0
 40
0.8000000000000114
100
AcDbArc
 50
270.0
 51
0.0
  0
ARC
  5
18A
330
1F
100
AcDbEntity
  8
0
  6
Continuous
 62
     7
370
    15
100
AcDbCircle
 10
132.6178958325
 20
177.2715858888
 30
0.0
 40
0.8000000000000114
100
AcDbArc
 50
180.0
 51
270.0
  0
ARC
  5
18B
330
1F
100
AcDbEntity
  8
0
  6
Continuous
 62
     7
370
    15
100
AcDbCircle
 10
132.6178958325
 20
120.7215858888
 30
0.0
 40
0.8000000000000114
100
AcDbArc
 50
90.0
 51
180.0
  0
LINE
  5
18C
330
1F
100
AcDbEntity
  8
0
  6
Continuous
 62
     7
370
    15
100
AcDbLine
 10
132.6178963844
 20
121.521586461
 30
0.0
 11
134.8378955934
 21
121.521586461
 31
0.0
  0
LINE
  5
18D
330
1F
100
AcDbEntity
  8
0
  6
Continuous
 62
     7
370
    15
100
AcDbLine
 10
134.8378955934
 20
176.4715853166
 30
0.0
 11
132.6178963844
 21
176.4715853166
 31
0.0
  0
ARC
  5
18E
330
1F
100
AcDbEntity
  8
0
  6
Continuous
 62
     7
370
    15
100
AcDbCircle
 10
142.6778958325
 20
121.9965858888
 30
0.0
 40
1.0
100
AcDbArc
 50
90.0
 51
180.0
  0
ARC
  5
18F
330
1F
100
AcDbEntity
  8
0
  6
Continuous
 62
     7
370
    15
100
AcDbCircle
 10
142.6778958325
 20
175.9965858888
 30
0.0
 40
1.0
100
AcDbArc
 50
180.0
 51
270.0
  0
LINE
  5
190
330
1F
100
AcDbEntity
  8
0
  6
Continuous
 62
     7
370
    15
100
AcDbLine
 10
142.6778956864
 20
122.9965853524
 30
0.0
 11
210.0907358889
 21
122.9965853524
 31
0.0
  0
LINE
  5
191
330
1F
100
AcDbEntity
  8
0
  6
Continuous
 62
     7
370
    15
100
AcDbLine
 10
152.7278963093
 20
174.9965864252
 30
0.0
 11
142.6778956864
 21
174.9965864252
 31
0.0
  0
LINE
  5
192
330
1F
100
AcDbEntity
  8
0
  6
Continuous
 62
     7
370
    15
100
AcDbLine
 10
160.680832303
 20
174.9965864252
 30
0.0
 11
158.6903165642
 21
174.9965864252
 31
0.0
  0
ARC
  5
193
330
1F
100
AcDbEntity
  8
0
  6
Continuous
 62
     7
370
    15
100
AcDbCircle
 10
115.2278958325
 20
124.4261550271
 30
0.0
 40
0.6000000000000019
100
AcDbArc
 50
33.5573097619
 51
90.0
  0
ARC
  5
194
330
1F
100
AcDbEntity
  8
0
  6
Continuous
 62
     7
370
    15
100
AcDbCircle
 10
115.2278958325
 20
173.5670167505
 30
0.0
 40
0.6000000000000019
100
AcDbArc
 50
270.0
 51
326.4426902381
  0
LINE
  5
195
330
1F
100
AcDbEntity
  8
0
  6
Continuous
 62
     7
370
    15
100
AcDbLine
 10
113.7278957375
 20
124.7761546653
 30
0.0
 11
114.5846086636
 21
125.0057107788
 31
0.0
  0
LINE
  5
196
330
1F
100
AcDbEntity
  8
0
  6
Continuous
 62
     7
370
    15
100
AcDbLine
 10
114.5846086636
 20
172.9874609988
 30
0.0
 11
113.7278957375
 21
173.2170171123
 31
0.0
  0
LINE
  5
197
330
1F
100
AcDbEntity
  8
0
  6
Continuous
 62
     7
370
    15
100
AcDbLine
 10
113.7278957375
 20
173.2170171123
 30
0.0
 11
84.9678516005
 21
171.7761325669
 31
0.0
  0
LINE
  5
198
330
1F
100
AcDbEntity
  8
0
  6
Continuous
 62
     7
370
    15
100
AcDbLine
 10
84.9678516005
 20
126.2170392107
 30
0.0
 11
113.7278957375
 21
124.7761546653
 31
0.0
  0
ARC
  5
199
330
1F
100
AcDbEntity
  8
0
  6
Continuous
 62
     7
370
    15
100
AcDbCircle
 10
114.7399000329
 20
124.4261550271
 30
0.0
 40
0.5999999999999934
100
AcDbArc
 50
90.0
 51
105.0
  0
ARC
  5
19A
330
1F
100
AcDbEntity
  8
0
  6
Continuous
 62
     7
370
    15
100
AcDbCircle
 10
114.7399000329
 20
173.5670167505
 30
0.0
 40
0.5999999999999943
100
AcDbArc
 50
255.0
 51
270.0
  0
LINE
  5
19B
330
1F
100
AcDbEntity
  8
0
  6
Continuous
 62
     7
370
    15
100
AcDbLine
 10
114.7399000673
 20
125.0261551719
 30
0.0
 11
115.2278958087
 21
125.0261551719
 31
0.0
  0
LINE
  5
19C
330
1F
100
AcDbEntity
  8
0
  6
Continuous
 62
     7
370
    15
100
AcDbLine
 10
115.2278958087
 20
172.9670166057
 30
0.0
 11
114.7399000673
 21
172.9670166057
 31
0.0
  0
ARC
  5
19D
330
1F
100
AcDbEntity
  8
0
  6
Continuous
 62
     7
370
    15
100
AcDbCircle
 10
85.0278958325
 20
170.5776359248
 30
0.0
 40
1.200000000000017
100
AcDbArc
 50
92.8681319407
 51
180.0
  0
ARC
  5
19E
330
1F
100
AcDbEntity
  8
0
  6
Continuous
 62
     7
370
    15
100
AcDbCircle
 10
85.0278958325
 20
127.4155358528
 30
0.0
 40
1.200000000000017
100
AcDbArc
 50
180.0
 51
267.1318680593
  0
LINE
  5
19F
330
1F
100
AcDbEntity
  8
0
  6
Continuous
 62
     7
370
    15
100
AcDbLine
 10
196.4147854213
 20
148.7965858939
 30
0.0
 11
196.4270639781
 21
148.6965858746
 31
0.0
  0
LINE
  5
1A0
330
1F
100
AcDbEntity
  8
0
  6
Continuous
 62
     7
370
    15
100
AcDbLine
 10
215.3278980021
 20
145.5388473366
 30
0.0
 11
215.7278973226
 21
148.7965858939
 31
0.0
  0
LINE
  5
1A1
330
1F
100
AcDbEntity
  8
0
  6
Continuous
 62
     7
370
    15
100
AcDbLine
 10
130.3359632928
 20
157.9965855014
 30
0.0
 11
130.3359632928
 21
180.4965863954
 31
0.0
  0
LINE
  5
1A2
330
1F
100
AcDbEntity
  8
0
  6
Continuous
 62
     7
370
    15
100
AcDbLine
 10
130.3359632928
 20
157.9965855014
 30
0.0
 11
128.6778961856
 21
157.9965855014
 31
0.0
  0
SPLINE
  5
1A3
330
1F
100
AcDbEntity
  8
0
  6
Continuous
 62
     7
370
    15
100
AcDbSpline
210
0.0
220
0.0
230
1.0
 70
     8
 71
     3
 72
    28
 73
    24
 74
     0
 42
0.00000001
 43
0.00000001
 12
1.0
 22
0.0
 32
0.0
 13
1.0
 23
0.0
 33
0.0
 40
0.0
 40
0.0
 40
0.0
 40
0.0
 40
0.1250000000000001
 40
0.1250000000000001
 40
0.1875000000000001
 40
0.1875000000000001
 40
0.2500000000000001
 40
0.2500000000000001
 40
0.375
 40
0.375
 40
0.4375000000000001
 40
0.4375000000000001
 40
0.5
 40
0.5
 40
0.625
 40
0.625
 40
0.7499999999999999
 40
0.7499999999999999
 40
0.8124999999999999
 40
0.8124999999999999
 40
0.875
 40
0.875
 40
1.0
 40
1.0
 40
1.0
 40
1.0
 10
128.677895832461
 20
157.996585888806
 30
0.0
 10
128.1461880749681
 20
157.996585888806
 30
0.0
 10
127.6239495096577
 20
157.9441095464878
 30
0.0
 10
126.8540790233828
 20
157.7903125989309
 30
0.0
 10
126.5997194511914
 20
157.7264376238969
 30
0.0
 10
126.0955978704929
 20
157.5729413552403
 30
0.0
 10
125.845875053065
 20
157.4831263798467
 30
0.0
 10
125.1202851016185
 20
157.1811475847958
 30
0.0
 10
124.661924840037
 20
156.93519415074
 30
0.0
 10
124.0114268966431
 20
156.4998269713116
 30
0.0
 10
123.7997448458507
 20
156.3426117891393
 30
0.0
 10
123.3956733567127
 20
156.0104471685969
 30
0.0
 10
123.2031668428918
 20
155.835639902994
 30
0.0
 10
122.6533318718705
 20
155.2855807124081
 30
0.0
 10
122.3234030935617
 20
154.8849573280127
 30
0.0
 10
121.738931824993
 20
154.012371216664
 30
0.0
 10
121.4926546869796
 20
153.5522357690624
 30
0.0
 10
121.1928118942815
 20
152.8322696750962
 30
0.0
 10
121.1043550372093
 20
152.5869959650617
 30
0.0
 10
120.9509936839042
 20
152.0855396286329
 30
0.0
 10
120.885905469678
 20
151.8281082592603
 30
0.0
 10
120.7303114537372
 20
151.0521684633958
 30
0.0
 10
120.677895832461
 20
150.5279400634898
 30
0.0
 10
120.677895832461
 20
149.996585888806
 30
0.0
  0
LINE
  5
1A4
330
1F
100
AcDbEntity
  8
0
  6
Continuous
 62
     7
370
    15
100
AcDbLine
 10
128.6778961856
 20
139.9965862762
 30
0.0
 11
130.3359632928
 21
139.9965862762
 31
0.0
  0
LINE
  5
1A5
330
1F
100
AcDbEntity
  8
0
  6
Continuous
 62
     7
370
    15
100
AcDbLine
 10
130.3359632928
 20
117.4965853822
 30
0.0
 11
130.3359632928
 21
139.9965862762
 31
0.0
  0
SPLINE
  5
1A6
330
1F
100
AcDbEntity
  8
0
  6
Continuous
 62
     7
370
    15
100
AcDbSpline
210
0.0
220
0.0
230
1.0
 70
     8
 71
     3
 72
    17
 73
    13
 74
     0
 42
0.00000001
 43
0.00000001
 12
1.0
 22
0.0
 32
0.0
 13
1.0
 23
0.0
 33
0.0
 40
0.0
 40
0.0
 40
0.0
 40
0.0
 40
0.1064584947925926
 40
0.2128853820649122
 40
0.3201358678267675
 40
0.4279706072970569
 40
0.5348959099635372
 40
0.640833893296311
 40
0.7472465223320981
 40
0.8548490544915606
 40
0.9625155229041981
 40
1.0
 40
1.0
 40
1.0
 40
1.0
 10
117.7278959274559
 20
117.4965853821665
 30
0.0
 10
117.7824717037313
 20
117.5054873237479
 30
0.0
 10
117.8916070527377
 20
117.5232885639247
 30
0.0
 10
118.7415018131624
 20
117.6474201618051
 30
0.0
 10
119.9986256721171
 20
117.7873443123624
 30
0.0
 10
121.5789821668937
 20
117.8898635213337
 30
0.0
 10
123.2829031701959
 20
117.9063213974999
 30
0.0
 10
124.9129538656282
 20
117.8318966360582
 30
0.0
 10
126.3108270184096
 20
117.6976369056961
 30
0.0
 10
127.2791318506838
 20
117.5677163510417
 30
0.0
 10
127.7481346613699
 20
117.4934168103249
 30
0.0
 10
127.681292947628
 20
117.5039230369766
 30
0.0
 10
127.6640314225375
 20
117.5066362153918
 30
0.0
  0
SPLINE
  5
1A7
330
1F
100
AcDbEntity
  8
0
  6
Continuous
 62
     7
370
    15
100
AcDbSpline
210
0.0
220
0.0
230
1.0
 70
     8
 71
     3
 72
    30
 73
    26
 74
     0
 42
0.00000001
 43
0.00000001
 12
1.0
 22
0.0
 32
0.0
 13
1.0
 23
0.0
 33
0.0
 40
0.0
 40
0.0
 40
0.0
 40
0.0
 40
0.1250000000000002
 40
0.1250000000000002
 40
0.1875000000000002
 40
0.1875000000000002
 40
0.2500000000000003
 40
0.2500000000000003
 40
0.3750000000000004
 40
0.3750000000000004
 40
0.4375000000000004
 40
0.4375000000000004
 40
0.5000000000000004
 40
0.5000000000000004
 40
0.6250000000000004
 40
0.6250000000000004
 40
0.6875000000000003
 40
0.6875000000000003
 40
0.7500000000000002
 40
0.7500000000000002
 40
0.8125000000000001
 40
0.8125000000000001
 40
0.8749999999999999
 40
0.8749999999999999
 40
1.0
 40
1.0
 40
1.0
 40
1.0
 10
120.677895832461
 20
147.996585888806
 30
0.0
 10
120.677895832461
 20
147.4651679584054
 30
0.0
 10
120.7303133984394
 20
146.9435087608312
 30
0.0
 10
120.8836928783417
 20
146.1748669736722
 30
0.0
 10
120.9473739990095
 20
145.9209771745072
 30
0.0
 10
121.1003288664611
 20
145.4179043985611
 30
0.0
 10
121.1899011652304
 20
145.1684405503445
 30
0.0
 10
121.4911251980836
 20
144.4435296527476
 30
0.0
 10
121.7364401941677
 20
143.9856523158554
 30
0.0
 10
122.1705371752379
 20
143.3358850903726
 30
0.0
 10
122.3272068643416
 20
143.1244983869624
 30
0.0
 10
122.659200028184
 20
142.7198645761922
 30
0.0
 10
122.8339055571765
 20
142.527124104691
 30
0.0
 10
123.383575239768
 20
141.9766932283141
 30
0.0
 10
123.7838262024793
 20
141.6465098510335
 30
0.0
 10
124.4374130691168
 20
141.207834034383
 30
0.0
 10
124.6630891887939
 20
141.0720354758965
 30
0.0
 10
125.1228010099252
 20
140.8251584430503
 30
0.0
 10
125.3578543439683
 20
140.7133799057223
 30
0.0
 10
125.8383616262673
 20
140.5129497158487
 30
0.0
 10
126.0838151541814
 20
140.4242973726452
 30
0.0
 10
126.5854305789888
 20
140.2706298249641
 30
0.0
 10
126.8429229615893
 20
140.2053821207123
 30
0.0
 10
127.6209994780254
 20
140.049077067348
 30
0.0
 10
128.1461617552703
 20
139.996585888806
 30
0.0
 10
128.677895832461
 20
139.996585888806
 30
0.0
  0
LINE
  5
1A8
330
1F
100
AcDbEntity
  8
0
  6
Continuous
 62
     7
370
    15
100
AcDbLine
 10
120.6778958056
 20
149.9965859363
 30
0.0
 11
120.6778958056
 21
147.9965858413
 31
0.0
  0
LINE
  5
1A9
330
1F
100
AcDbEntity
  8
0
  6
Continuous
 62
     7
370
    15
100
AcDbLine
 10
115.7278958325
 20
148.9965858888
 30
0.0
 11
115.7278958325
 21
180.1965850424
 31
0.0
  0
LINE
  5
1AA
330
1F
100
AcDbEntity
  8
0
  6
Continuous
 62
     7
370
    15
100
AcDbLine
 10
115.7278958325
 20
117.7965867352
 30
0.0
 11
115.7278958325
 21
148.9965858888
 31
0.0
  0
LINE
  5
1AB
330
1F
100
AcDbEntity
  8
0
  6
Continuous
 62
     7
370
    15
100
AcDbLine
 10
141.6778955225
 20
157.9965855014
 30
0.0
 11
141.6778955225
 21
179.896585552
 31
0.0
  0
SPLINE
  5
1AC
330
1F
100
AcDbEntity
  8
0
  6
Continuous
 62
     7
370
    15
100
AcDbSpline
210
0.0
220
0.0
230
1.0
 70
    24
 71
     3
 72
    10
 73
     6
 74
     0
 42
0.00000001
 43
0.00000001
 12
1.0
 22
0.0
 32
0.0
 13
1.0
 23
0.0
 33
0.0
 40
0.0
 40
0.0
 40
0.0
 40
0.0
 40
0.5
 40
0.5
 40
1.0
 40
1.0
 40
1.0
 40
1.0
 10
141.677895832461
 20
157.996585888806
 30
0.0
 10
141.677895832461
 20
157.996585888806
 30
0.0
 10
141.6165861812252
 20
157.996585888806
 30
0.0
 10
141.3974865436901
 20
157.996585888806
 30
0.0
 10
141.2394383373766
 20
157.996585888806
 30
0.0
 10
141.077895832461
 20
157.996585888806
 30
0.0
  0
LINE
  5
1AD
330
1F
100
AcDbEntity
  8
0
  6
Continuous
 62
     7
370
    15
100
AcDbLine
 10
141.6778955225
 20
118.0965862256
 30
0.0
 11
141.6778955225
 21
139.9965862762
 31
0.0
  0
SPLINE
  5
1AE
330
1F
100
AcDbEntity
  8
0
  6
Continuous
 62
     7
370
    15
100
AcDbSpline
210
0.0
220
0.0
230
1.0
 70
    24
 71
     3
 72
    12
 73
     8
 74
     0
 42
0.00000001
 43
0.00000001
 12
1.0
 22
0.0
 32
0.0
 13
1.0
 23
0.0
 33
0.0
 40
0.0
 40
0.0
 40
0.0
 40
0.0
 40
0.2499999999999999
 40
0.2499999999999999
 40
0.4999999999999998
 40
0.4999999999999998
 40
1.0
 40
1.0
 40
1.0
 40
1.0
 10
141.077895832461
 20
139.996585888806
 30
0.0
 10
141.1577768372081
 20
139.996585888806
 30
0.0
 10
141.2383709674787
 20
139.996585888806
 30
0.0
 10
141.3849864133236
 20
139.996585888806
 30
0.0
 10
141.4514876060676
 20
139.996585888806
 30
0.0
 10
141.6172225072048
 20
139.996585888806
 30
0.0
 10
141.677895832461
 20
139.996585888806
 30
0.0
 10
141.677895832461
 20
139.996585888806
 30
0.0
  0
LINE
  5
1AF
330
1F
100
AcDbEntity
  8
0
  6
Continuous
 62
     7
370
    15
100
AcDbLine
 10
137.1198277537
 20
157.9965855014
 30
0.0
 11
137.1198277537
 21
180.4965863954
 31
0.0
  0
LINE
  5
1B0
330
1F
100
AcDbEntity
  8
0
  6
Continuous
 62
     7
370
    15
100
AcDbLine
 10
141.0778965418
 20
157.9965855014
 30
0.0
 11
137.1198277537
 21
157.9965855014
 31
0.0
  0
LINE
  5
1B1
330
1F
100
AcDbEntity
  8
0
  6
Continuous
 62
     7
370
    15
100
AcDbLine
 10
137.1198277537
 20
117.4965853822
 30
0.0
 11
137.1198277537
 21
139.9965862762
 31
0.0
  0
LINE
  5
1B2
330
1F
100
AcDbEntity
  8
0
  6
Continuous
 62
     7
370
    15
100
AcDbLine
 10
137.1198277537
 20
139.9965862762
 30
0.0
 11
141.0778965418
 21
139.9965862762
 31
0.0
  0
LINE
  5
1B3
330
1F
100
AcDbEntity
  8
0
  6
Continuous
 62
     7
370
    15
100
AcDbLine
 10
135.6378960971
 20
157.9965855014
 30
0.0
 11
135.6378960971
 21
177.9298036378
 31
0.0
  0
SPLINE
  5
1B4
330
1F
100
AcDbEntity
  8
0
  6
Continuous
 62
     7
370
    15
100
AcDbSpline
210
0.0
220
0.0
230
1.0
 70
    24
 71
     3
 72
     8
 73
     4
 74
     0
 42
0.00000001
 43
0.00000001
 12
1.0
 22
0.0
 32
0.0
 13
1.0
 23
0.0
 33
0.0
 40
0.0
 40
0.0
 40
0.0
 40
0.0
 40
1.0
 40
1.0
 40
1.0
 40
1.0
 10
137.11982866395
 20
157.996585888806
 30
0.0
 10
136.6243490032843
 20
157.996585888806
 30
0.0
 10
136.1302349552422
 20
157.996585888806
 30
0.0
 10
135.637895832461
 20
157.996585888806
 30
0.0
  0
LINE
  5
1B5
330
1F
100
AcDbEntity
  8
0
  6
Continuous
 62
     7
370
    15
100
AcDbLine
 10
135.6378960971
 20
120.0633681398
 30
0.0
 11
135.6378960971
 21
139.9965862762
 31
0.0
  0
SPLINE
  5
1B6
330
1F
100
AcDbEntity
  8
0
  6
Continuous
 62
     7
370
    15
100
AcDbSpline
210
0.0
220
0.0
230
1.0
 70
    24
 71
     3
 72
     8
 73
     4
 74
     0
 42
0.00000001
 43
0.00000001
 12
1.0
 22
0.0
 32
0.0
 13
1.0
 23
0.0
 33
0.0
 40
0.0
 40
0.0
 40
0.0
 40
0.0
 40
1.0
 40
1.0
 40
1.0
 40
1.0
 10
135.637895832461
 20
139.996585888806
 30
0.0
 10
136.1302349552422
 20
139.996585888806
 30
0.0
 10
136.6243490032843
 20
139.996585888806
 30
0.0
 10
137.11982866395
 20
139.996585888806
 30
0.0
  0
LINE
  5
1B7
330
1F
100
AcDbEntity
  8
0
  6
Continuous
 62
     7
370
    15
100
AcDbLine
 10
131.8178958807
 20
157.9965855014
 30
0.0
 11
131.8178958807
 21
177.9298036378
 31
0.0
  0
SPLINE
  5
1B8
330
1F
100
AcDbEntity
  8
0
  6
Continuous
 62
     7
370
    15
100
AcDbSpline
210
0.0
220
0.0
230
1.0
 70
    24
 71
     3
 72
     8
 73
     4
 74
     0
 42
0.00000001
 43
0.00000001
 12
1.0
 22
0.0
 32
0.0
 13
1.0
 23
0.0
 33
0.0
 40
0.0
 40
0.0
 40
0.0
 40
0.0
 40
1.0
 40
1.0
 40
1.0
 40
1.0
 10
131.817895832461
 20
157.996585888806
 30
0.0
 10
131.3255567096798
 20
157.996585888806
 30
0.0
 10
130.8314426616377
 20
157.996585888806
 30
0.0
 10
130.335963000972
 20
157.996585888806
 30
0.0
  0
LINE
  5
1B9
330
1F
100
AcDbEntity
  8
0
  6
Continuous
 62
     7
370
    15
100
AcDbLine
 10
131.8178958807
 20
120.0633681398
 30
0.0
 11
131.8178958807
 21
139.9965862762
 31
0.0
  0
SPLINE
  5
1BA
330
1F
100
AcDbEntity
  8
0
  6
Continuous
 62
     7
370
    15
100
AcDbSpline
210
0.0
220
0.0
230
1.0
 70
    24
 71
     3
 72
     8
 73
     4
 74
     0
 42
0.00000001
 43
0.00000001
 12
1.0
 22
0.0
 32
0.0
 13
1.0
 23
0.0
 33
0.0
 40
0.0
 40
0.0
 40
0.0
 40
0.0
 40
1.0
 40
1.0
 40
1.0
 40
1.0
 10
130.335963000972
 20
139.996585888806
 30
0.0
 10
130.8314426616377
 20
139.996585888806
 30
0.0
 10
131.3255567096798
 20
139.996585888806
 30
0.0
 10
131.817895832461
 20
139.996585888806
 30
0.0
  0
SPLINE
  5
1BB
330
1F
100
AcDbEntity
  8
0
  6
Continuous
 62
     7
370
    15
100
AcDbSpline
210
0.0
220
0.0
230
1.0
 70
     8
 71
     3
 72
    14
 73
    10
 74
     0
 42
0.00000001
 43
0.00000001
 12
1.0
 22
0.0
 32
0.0
 13
1.0
 23
0.0
 33
0.0
 40
0.0
 40
0.0
 40
0.0
 40
0.0
 40
0.1249999999999997
 40
0.1249999999999997
 40
0.2499999999999993
 40
0.2499999999999993
 40
0.4999999999999996
 40
0.4999999999999996
 40
1.0
 40
1.0
 40
1.0
 40
1.0
 10
134.837895832461
 20
141.3863542891764
 30
0.0
 10
134.906992464805
 20
141.3863542891764
 30
0.0
 10
134.9719856304129
 20
141.3520219134965
 30
0.0
 10
135.076306829058
 20
141.2627153294935
 30
0.0
 10
135.1190872031665
 20
141.2078104913469
 30
0.0
 10
135.2314248628128
 20
141.0365789830406
 30
0.0
 10
135.2864720449551
 20
140.9123592806816
 30
0.0
 10
135.4303488187252
 20
140.5289144805771
 30
0.0
 10
135.4933781320003
 20
140.2627471739798
 30
0.0
 10
135.5402210301287
 20
139.996585888806
 30
0.0
  0
SPLINE
  5
1BC
330
1F
100
AcDbEntity
  8
0
  6
Continuous
 62
     7
370
    15
100
AcDbSpline
210
0.0
220
0.0
230
1.0
 70
     8
 71
     3
 72
    14
 73
    10
 74
     0
 42
0.00000001
 43
0.00000001
 12
1.0
 22
0.0
 32
0.0
 13
1.0
 23
0.0
 33
0.0
 40
0.0
 40
0.0
 40
0.0
 40
0.0
 40
0.5000000000000027
 40
0.5000000000000027
 40
0.7500000000000013
 40
0.7500000000000013
 40
0.8750000000000007
 40
0.8750000000000007
 40
1.0
 40
1.0
 40
1.0
 40
1.0
 10
135.5402210301287
 20
157.996585888806
 30
0.0
 10
135.4934363250805
 20
157.730755256637
 30
0.0
 10
135.4313851283009
 20
157.468061160078
 30
0.0
 10
135.2879934897505
 20
157.0843573147809
 30
0.0
 10
135.2318498361992
 20
156.9572471129968
 30
0.0
 10
135.1188988140629
 20
156.7850708590295
 30
0.0
 10
135.0758980520248
 20
156.7300372927202
 30
0.0
 10
134.9718353417183
 20
156.6410907911662
 30
0.0
 10
134.9065031033614
 20
156.6068174884356
 30
0.0
 10
134.837895832461
 20
156.6068174884356
 30
0.0
  0
SPLINE
  5
1BD
330
1F
100
AcDbEntity
  8
0
  6
Continuous
 62
     7
370
    15
100
AcDbSpline
210
0.0
220
0.0
230
1.0
 70
     8
 71
     3
 72
    14
 73
    10
 74
     0
 42
0.00000001
 43
0.00000001
 12
1.0
 22
0.0
 32
0.0
 13
1.0
 23
0.0
 33
0.0
 40
0.0
 40
0.0
 40
0.0
 40
0.0
 40
0.1250000000000001
 40
0.1250000000000001
 40
0.2500000000000002
 40
0.2500000000000002
 40
0.5000000000000003
 40
0.5000000000000003
 40
1.0
 40
1.0
 40
1.0
 40
1.0
 10
132.617895832461
 20
156.6068174884356
 30
0.0
 10
132.5485491107299
 20
156.6068174884356
 30
0.0
 10
132.4833510573459
 20
156.6414193674975
 30
0.0
 10
132.3789718647189
 20
156.7310166972002
 30
0.0
 10
132.3360694937099
 20
156.7862022720405
 30
0.0
 10
132.2237438361053
 20
156.9577993268019
 30
0.0
 10
132.1685201417514
 20
157.0826177951266
 30
0.0
 10
132.0244627629839
 20
157.4675288905759
 30
0.0
 10
131.9623820661524
 20
157.7306033977739
 30
0.0
 10
131.9155706347933
 20
157.996585888806
 30
0.0
  0
SPLINE
  5
1BE
330
1F
100
AcDbEntity
  8
0
  6
Continuous
 62
     7
370
    15
100
AcDbSpline
210
0.0
220
0.0
230
1.0
 70
     8
 71
     3
 72
    14
 73
    10
 74
     0
 42
0.00000001
 43
0.00000001
 12
1.0
 22
0.0
 32
0.0
 13
1.0
 23
0.0
 33
0.0
 40
0.0
 40
0.0
 40
0.0
 40
0.0
 40
0.5
 40
0.5
 40
0.75
 40
0.75
 40
0.875
 40
0.875
 40
1.0
 40
1.0
 40
1.0
 40
1.0
 10
131.9155706347932
 20
139.9965858888054
 30
0.0
 10
131.962777122633
 20
140.2648130902383
 30
0.0
 10
132.0261171260624
 20
140.5308112700434
 30
0.0
 10
132.1691802323182
 20
140.9119378104127
 30
0.0
 10
132.2252608825892
 20
141.0380591896161
 30
0.0
 10
132.3366962324986
 20
141.2077389015204
 30
0.0
 10
132.3786410231716
 20
141.2618655231448
 30
0.0
 10
132.4836374661917
 20
141.3520038247475
 30
0.0
 10
132.5492014032724
 20
141.3863542891762
 30
0.0
 10
132.6178958324609
 20
141.3863542891762
 30
0.0
  0
LINE
  5
1BF
330
1F
100
AcDbEntity
  8
0
  6
Continuous
 62
     7
370
    15
100
AcDbLine
 10
132.6178963844
 20
141.3863542509
 30
0.0
 11
134.8378955934
 21
141.3863542509
 31
0.0
  0
LINE
  5
1C0
330
1F
100
AcDbEntity
  8
0
  6
Continuous
 62
     7
370
    15
100
AcDbLine
 10
134.8378955934
 20
156.6068175268
 30
0.0
 11
132.6178963844
 21
156.6068175268
 31
0.0
  0
SPLINE
  5
1C1
330
1F
100
AcDbEntity
  8
0
  6
Continuous
 62
     7
370
    15
100
AcDbSpline
210
0.0
220
0.0
230
1.0
 70
     8
 71
     3
 72
    20
 73
    16
 74
     0
 42
0.00000001
 43
0.00000001
 12
1.0
 22
0.0
 32
0.0
 13
1.0
 23
0.0
 33
0.0
 40
0.0
 40
0.0
 40
0.0
 40
0.0
 40
0.2500000000000001
 40
0.2500000000000001
 40
0.375
 40
0.375
 40
0.4375000000000001
 40
0.4375000000000001
 40
0.4687500000000001
 40
0.4687500000000001
 40
0.5
 40
0.5
 40
0.75
 40
0.75
 40
1.0
 40
1.0
 40
1.0
 40
1.0
 10
141.677895832461
 20
143.336197209572
 30
0.0
 10
141.677895832461
 20
144.2972812627117
 30
0.0
 10
141.735725229248
 20
145.2573795846081
 30
0.0
 10
141.8125837078893
 20
146.697695572774
 30
0.0
 10
141.8368526868391
 20
147.1778239223539
 30
0.0
 10
141.8619023058766
 20
147.8982099788145
 30
0.0
 10
141.8683845147409
 20
148.1383704995791
 30
0.0
 10
141.8745907448208
 20
148.4986712311837
 30
0.0
 10
141.8760777672693
 20
148.6187813907783
 30
0.0
 10
141.8778306354781
 20
148.8590225255403
 30
0.0
 10
141.8780826710985
 20
148.9797672409889
 30
0.0
 10
141.8751450499511
 20
150.0233479444816
 30
0.0
 10
141.8312669803731
 20
150.949941540031
 30
0.0
 10
141.731883181894
 20
152.8026298977365
 30
0.0
 10
141.677895832461
 20
153.728817354898
 30
0.0
 10
141.677895832461
 20
154.6569745680399
 30
0.0
  0
LINE
  5
1C2
330
1F
100
AcDbEntity
  8
0
  6
Continuous
 62
     7
370
    15
100
AcDbLine
 10
141.6778955225
 20
154.6569745075
 30
0.0
 11
141.6778955225
 21
157.9965855014
 31
0.0
  0
LINE
  5
1C3
330
1F
100
AcDbEntity
  8
0
  6
Continuous
 62
     7
370
    15
100
AcDbLine
 10
141.6778955225
 20
139.9965862762
 30
0.0
 11
141.6778955225
 21
143.3361972701
 31
0.0
  0
LWPOLYLINE
  5
1C4
330
1F
100
AcDbEntity
  8
0
  6
Continuous
 62
     7
370
    15
100
AcDbPolyline
 90
       19
 70
   128
 43
0.0
 10
160.680832303
 20
174.9965864252
 10
160.7022154693
 20
174.9167888444
 10
160.7662271325
 20
174.6778859776
 10
160.8724798624
 20
174.2813437265
 10
161.0203217332
 20
173.7295984309
 10
161.2088400487
 20
173.0260345172
 10
161.436879969
 20
172.1749714595
 10
161.7030445103
 20
171.1816321146
 10
162.00569827
 20
170.0521166455
 10
162.3429823283
 20
168.7933559548
 10
162.7128254239
 20
167.4130781572
 10
163.1129625801
 20
165.9197545629
 10
163.5409313802
 20
164.3225512486
 10
163.9941092197
 20
162.6312731784
 10
164.4697095815
 20
160.856301805
 10
164.9648192887
 20
159.0085326713
 10
165.4763947789
 20
157.0993074235
 10
166.0012956325
 20
155.1403458249
 10
166.5363031987
 20
153.1436717156
  0
LINE
  5
1C5
330
1F
100
AcDbEntity
  8
0
  6
Continuous
 62
     7
370
    15
100
AcDbLine
 10
172.3318565253
 20
148.6965858746
 30
0.0
 11
184.4808328513
 21
148.6965858746
 31
0.0
  0
ELLIPSE
  5
1C6
330
1F
100
AcDbEntity
  8
0
  6
Continuous
 62
     7
370
    15
100
AcDbEllipse
 10
215.5216719885
 20
148.9965858888
 30
0.0
 11
30.1910725141534
 21
10.96153280155482
 31
0.0
210
0.0
220
0.0
230
1.0
 40
0.7809050507
 41
2.717925142021789
 42
4.262192995506588
  0
LINE
  5
1C7
330
1F
100
AcDbEntity
  8
0
  6
Continuous
 62
     7
370
    15
100
AcDbLine
 10
210.0907358889
 20
122.9965853524
 30
0.0
 11
210.0912872318
 21
122.99950598
 31
0.0
  0
SPLINE
  5
1C8
330
1F
100
AcDbEntity
  8
0
  6
Continuous
 62
     7
370
    15
100
AcDbSpline
210
0.0
220
0.0
230
1.0
 70
     8
 71
     3
 72
    17
 73
    13
 74
     0
 42
0.00000001
 43
0.00000001
 12
1.0
 22
0.0
 32
0.0
 13
1.0
 23
0.0
 33
0.0
 40
0.0
 40
0.0
 40
0.0
 40
0.0
 40
0.1068867631095941
 40
0.2137566340952047
 40
0.3210679571841064
 40
0.4286808980060003
 40
0.5358091844213615
 40
0.642422986625629
 40
0.7492943994827987
 40
0.8567924916451776
 40
0.9643120182365864
 40
1.0
 40
1.0
 40
1.0
 40
1.0
 10
152.7278963092982
 20
174.9965864252478
 30
0.0
 10
152.7608404659396
 20
174.9926789795014
 30
0.0
 10
152.8267235728082
 20
174.9848647055319
 30
0.0
 10
153.3400368474892
 20
174.9304449593347
 30
0.0
 10
154.0977570376695
 20
174.8695430038286
 30
0.0
 10
155.0472065199658
 20
174.825332746484
 30
0.0
 10
156.070860880843
 20
174.8185217086316
 30
0.0
 10
157.0517093189903
 20
174.8513063524282
 30
0.0
 10
157.8908260408589
 20
174.9101335339512
 30
0.0
 10
158.4666307472003
 20
174.9664451114558
 30
0.0
 10
158.7425293551576
 20
174.9982523013918
 30
0.0
 10
158.7007325290551
 20
174.9934788654745
 30
0.0
 10
158.6903165642439
 20
174.9922893028885
 30
0.0
  0
SPLINE
  5
1C9
330
1F
100
AcDbEntity
  8
0
  6
Continuous
 62
     7
370
    15
100
AcDbSpline
210
0.0
220
0.0
230
1.0
 70
     8
 71
     3
 72
    16
 73
    12
 74
     0
 42
0.00000001
 43
0.00000001
 12
1.0
 22
0.0
 32
0.0
 13
1.0
 23
0.0
 33
0.0
 40
0.0
 40
0.0
 40
0.0
 40
0.0
 40
0.2499999999999994
 40
0.2499999999999994
 40
0.4999999999999988
 40
0.4999999999999988
 40
0.7499999999999982
 40
0.7499999999999982
 40
0.8749999999999991
 40
0.8749999999999991
 40
1.0
 40
1.0
 40
1.0
 40
1.0
 10
166.5363028026004
 20
153.1436716181909
 30
0.0
 10
166.7055601558589
 20
152.5119945762755
 30
0.0
 10
166.9718992705646
 20
151.9206706431173
 30
0.0
 10
167.7027445625903
 20
150.8228058917264
 30
0.0
 10
168.1482904458632
 20
150.3452442332134
 30
0.0
 10
169.1952140831849
 20
149.5392730108621
 30
0.0
 10
169.7722714819348
 20
149.2299301962885
 30
0.0
 10
170.7096145945231
 20
148.9106305912554
 30
0.0
 10
171.0293445404493
 20
148.8305556470883
 30
0.0
 10
171.6743276362911
 20
148.7237720108505
 30
0.0
 10
172.0009499333193
 20
148.696585888806
 30
0.0
 10
172.3318577603348
 20
148.696585888806
 30
0.0
  0
LINE
  5
1CA
330
1F
100
AcDbEntity
  8
0
  6
Continuous
 62
     7
370
    15
100
AcDbLine
 10
205.8379817371
 20
148.6965858746
 30
0.0
 11
184.4808328513
 21
148.6965858746
 31
0.0
  0
LINE
  5
1CB
330
1F
100
AcDbEntity
  8
0
  6
Continuous
 62
     7
370
    15
100
AcDbLine
 10
205.8379817371
 20
148.6965858746
 30
0.0
 11
205.8379817371
 21
146.5365857836
 31
0.0
  0
LINE
  5
1CC
330
1F
100
AcDbEntity
  8
0
  6
Continuous
 62
     7
370
    15
100
AcDbLine
 10
205.8379817371
 20
146.5365857836
 30
0.0
 11
205.5992055301
 21
144.0365858395
 31
0.0
  0
LINE
  5
1CD
330
1F
100
AcDbEntity
  8
0
  6
Continuous
 62
     7
370
    15
100
AcDbLine
 10
205.8379817371
 20
144.0365858395
 30
0.0
 11
205.5992055301
 21
144.0365858395
 31
0.0
  0
LINE
  5
1CE
330
1F
100
AcDbEntity
  8
0
  6
Continuous
 62
     7
370
    15
100
AcDbLine
 10
210.0912872318
 20
122.99950598
 30
0.0
 11
214.109772778
 21
144.0365858395
 31
0.0
  0
LINE
  5
1CF
330
1F
100
AcDbEntity
  8
0
  6
Continuous
 62
     7
370
    15
100
AcDbLine
 10
113.7278957375
 20
148.9965858888
 30
0.0
 11
113.7278957375
 21
173.2170171123
 31
0.0
  0
LINE
  5
1D0
330
1F
100
AcDbEntity
  8
0
  6
Continuous
 62
     7
370
    15
100
AcDbLine
 10
113.7278957375
 20
124.7761546653
 30
0.0
 11
113.7278957375
 21
148.9965858888
 31
0.0
  0
SPLINE
  5
1D1
330
1F
100
AcDbEntity
  8
0
  6
Continuous
 62
     7
370
    15
100
AcDbSpline
210
0.0
220
0.0
230
1.0
 70
     8
 71
     3
 72
    14
 73
    10
 74
     0
 42
0.00000001
 43
0.00000001
 12
1.0
 22
0.0
 32
0.0
 13
1.0
 23
0.0
 33
0.0
 40
0.0
 40
0.0
 40
0.0
 40
0.0
 40
0.5000000000000012
 40
0.5000000000000012
 40
0.7500000000000018
 40
0.7500000000000018
 40
0.8750000000000009
 40
0.8750000000000009
 40
1.0
 40
1.0
 40
1.0
 40
1.0
 10
84.97789583246099
 20
139.722171311307
 30
0.0
 10
85.5939727362163
 20
139.633512276022
 30
0.0
 10
86.20810473233217
 20
139.5367005249452
 30
0.0
 10
87.12200136284574
 20
139.3609117720556
 30
0.0
 10
87.42544029039335
 20
139.2973191231775
 30
0.0
 10
87.87657690603083
 20
139.1850977081043
 30
0.0
 10
88.02628315557334
 20
139.1448754297558
 30
0.0
 10
88.32312429182143
 20
139.0536706136622
 30
0.0
 10
88.47050984432472
 20
139.0037368467168
 30
0.0
 10
88.61429397133901
 20
138.9387340342693
 30
0.0
  0
SPLINE
  5
1D2
330
1F
100
AcDbEntity
  8
0
  6
Continuous
 62
     7
370
    15
100
AcDbSpline
210
0.0
220
0.0
230
1.0
 70
     8
 71
     3
 72
    10
 73
     6
 74
     0
 42
0.00000001
 43
0.00000001
 12
1.0
 22
0.0
 32
0.0
 13
1.0
 23
0.0
 33
0.0
 40
0.0
 40
0.0
 40
0.0
 40
0.0
 40
0.5
 40
0.5
 40
1.0
 40
1.0
 40
1.0
 40
1.0
 10
88.61429397133901
 20
138.9387340342693
 30
0.0
 10
89.24192162704632
 20
138.6549922636165
 30
0.0
 10
89.89312237207774
 20
138.4109472747986
 30
0.0
 10
91.20182707608993
 20
137.9655600106529
 30
0.0
 10
91.8628715133811
 20
137.7641713876673
 30
0.0
 10
92.52789583246071
 20
137.5754531677114
 30
0.0
  0
SPLINE
  5
1D3
330
1F
100
AcDbEntity
  8
0
  6
Continuous
 62
     7
370
    15
100
AcDbSpline
210
0.0
220
0.0
230
1.0
 70
     8
 71
     3
 72
    18
 73
    14
 74
     0
 42
0.00000001
 43
0.00000001
 12
1.0
 22
0.0
 32
0.0
 13
1.0
 23
0.0
 33
0.0
 40
0.0
 40
0.0
 40
0.0
 40
0.0
 40
0.0624999999999991
 40
0.0624999999999991
 40
0.1249999999999982
 40
0.1249999999999982
 40
0.2499999999999995
 40
0.2499999999999995
 40
0.4999999999999997
 40
0.4999999999999997
 40
0.7499999999999998
 40
0.7499999999999998
 40
1.0
 40
1.0
 40
1.0
 40
1.0
 10
92.52789583246091
 20
137.5754531677117
 30
0.0
 10
92.56446804281131
 20
137.5650748368158
 30
0.0
 10
92.60311851624677
 20
137.5621365175313
 30
0.0
 10
92.67721000996063
 20
137.5723459705397
 30
0.0
 10
92.71256030371475
 20
137.5852500460791
 30
0.0
 10
92.80715460110417
 20
137.6364916183638
 30
0.0
 10
92.85729277424315
 20
137.6860233226899
 30
0.0
 10
92.98648604582432
 20
137.8453355171323
 30
0.0
 10
93.04476619056547
 20
137.9647901500575
 30
0.0
 10
93.14496128698896
 20
138.2102636022458
 30
0.0
 10
93.18497653843559
 20
138.3377331873291
 30
0.0
 10
93.25337595925338
 20
138.5951835729927
 30
0.0
 10
93.2817376831153
 20
138.725802341356
 30
0.0
 10
93.30629159572123
 20
138.8579003234834
 30
0.0
  0
SPLINE
  5
1D4
330
1F
100
AcDbEntity
  8
0
  6
Continuous
 62
     7
370
    15
100
AcDbSpline
210
0.0
220
0.0
230
1.0
 70
     8
 71
     3
 72
    14
 73
    10
 74
     0
 42
0.00000001
 43
0.00000001
 12
1.0
 22
0.0
 32
0.0
 13
1.0
 23
0.0
 33
0.0
 40
0.0
 40
0.0
 40
0.0
 40
0.0
 40
0.25
 40
0.25
 40
0.5
 40
0.5
 40
0.75
 40
0.75
 40
1.0
 40
1.0
 40
1.0
 40
1.0
 10
93.30629159572123
 20
138.8579003234834
 30
0.0
 10
93.34472798054223
 20
139.0646848370805
 30
0.0
 10
93.41352937393404
 20
139.2687798851167
 30
0.0
 10
93.55681538609302
 20
139.6754157220549
 30
0.0
 10
93.63199744119993
 20
139.8790765043192
 30
0.0
 10
93.76418472985009
 20
140.2939865113391
 30
0.0
 10
93.82170192531989
 20
140.5051005040908
 30
0.0
 10
93.9037467236122
 20
140.939246893606
 30
0.0
 10
93.927895832461
 20
141.160614103852
 30
0.0
 10
93.927895832461
 20
141.3827029782334
 30
0.0
  0
LINE
  5
1D5
330
1F
100
AcDbEntity
  8
0
  6
Continuous
 62
     7
370
    15
100
AcDbLine
 10
93.9278956119
 20
141.3827030007
 30
0.0
 11
93.9278956119
 21
156.6104687769
 31
0.0
  0
SPLINE
  5
1D6
330
1F
100
AcDbEntity
  8
0
  6
Continuous
 62
     7
370
    15
100
AcDbSpline
210
0.0
220
0.0
230
1.0
 70
     8
 71
     3
 72
    14
 73
    10
 74
     0
 42
0.00000001
 43
0.00000001
 12
1.0
 22
0.0
 32
0.0
 13
1.0
 23
0.0
 33
0.0
 40
0.0
 40
0.0
 40
0.0
 40
0.0
 40
0.25
 40
0.25
 40
0.5
 40
0.5
 40
0.75
 40
0.75
 40
1.0
 40
1.0
 40
1.0
 40
1.0
 10
93.30629159572123
 20
159.1352714541286
 30
0.0
 10
93.34472798054223
 20
158.9284869405314
 30
0.0
 10
93.41352937393404
 20
158.7243918924953
 30
0.0
 10
93.55681538609302
 20
158.317756055557
 30
0.0
 10
93.63199744119993
 20
158.1140952732927
 30
0.0
 10
93.76418472985009
 20
157.6991852662728
 30
0.0
 10
93.82170192531989
 20
157.4880712735212
 30
0.0
 10
93.9037467236122
 20
157.053924884006
 30
0.0
 10
93.927895832461
 20
156.8325576737599
 30
0.0
 10
93.927895832461
 20
156.6104687993786
 30
0.0
  0
SPLINE
  5
1D7
330
1F
100
AcDbEntity
  8
0
  6
Continuous
 62
     7
370
    15
100
AcDbSpline
210
0.0
220
0.0
230
1.0
 70
     8
 71
     3
 72
    18
 73
    14
 74
     0
 42
0.00000001
 43
0.00000001
 12
1.0
 22
0.0
 32
0.0
 13
1.0
 23
0.0
 33
0.0
 40
0.0
 40
0.0
 40
0.0
 40
0.0
 40
0.0624999999999986
 40
0.0624999999999986
 40
0.1249999999999972
 40
0.1249999999999972
 40
0.2499999999999957
 40
0.2499999999999957
 40
0.4999999999999971
 40
0.4999999999999971
 40
0.7499999999999986
 40
0.7499999999999986
 40
1.0
 40
1.0
 40
1.0
 40
1.0
 10
92.527895832461
 20
160.4177186099003
 30
0.0
 10
92.5644680428114
 20
160.4280969407962
 30
0.0
 10
92.60311851624687
 20
160.4310352600807
 30
0.0
 10
92.6772100099607
 20
160.4208258070722
 30
0.0
 10
92.71256030371481
 20
160.4079217315328
 30
0.0
 10
92.80715460110423
 20
160.3566801592481
 30
0.0
 10
92.8572927742432
 20
160.307148454922
 30
0.0
 10
92.98648604582435
 20
160.1478362604797
 30
0.0
 10
93.04476619056548
 20
160.0283816275544
 30
0.0
 10
93.14496128698897
 20
159.7829081753662
 30
0.0
 10
93.1849765384356
 20
159.6554385902828
 30
0.0
 10
93.25337595925338
 20
159.3979882046192
 30
0.0
 10
93.2817376831153
 20
159.267369436256
 30
0.0
 10
93.30629159572123
 20
159.1352714541286
 30
0.0
  0
SPLINE
  5
1D8
330
1F
100
AcDbEntity
  8
0
  6
Continuous
 62
     7
370
    15
100
AcDbSpline
210
0.0
220
0.0
230
1.0
 70
     8
 71
     3
 72
    10
 73
     6
 74
     0
 42
0.00000001
 43
0.00000001
 12
1.0
 22
0.0
 32
0.0
 13
1.0
 23
0.0
 33
0.0
 40
0.0
 40
0.0
 40
0.0
 40
0.0
 40
0.5
 40
0.5
 40
1.0
 40
1.0
 40
1.0
 40
1.0
 10
88.61429397133901
 20
159.0544377433427
 30
0.0
 10
89.24192162704635
 20
159.3381795139955
 30
0.0
 10
89.89312237207781
 20
159.5822245028134
 30
0.0
 10
91.20182707609007
 20
160.0276117669592
 30
0.0
 10
91.86287151338125
 20
160.2290003899447
 30
0.0
 10
92.5278958324609
 20
160.4177186099007
 30
0.0
  0
SPLINE
  5
1D9
330
1F
100
AcDbEntity
  8
0
  6
Continuous
 62
     7
370
    15
100
AcDbSpline
210
0.0
220
0.0
230
1.0
 70
     8
 71
     3
 72
    14
 73
    10
 74
     0
 42
0.00000001
 43
0.00000001
 12
1.0
 22
0.0
 32
0.0
 13
1.0
 23
0.0
 33
0.0
 40
0.0
 40
0.0
 40
0.0
 40
0.0
 40
0.4999999999999998
 40
0.4999999999999998
 40
0.750000000000001
 40
0.750000000000001
 40
0.8750000000000004
 40
0.8750000000000004
 40
1.0
 40
1.0
 40
1.0
 40
1.0
 10
84.977895832461
 20
158.271000466305
 30
0.0
 10
85.5939727362163
 20
158.35965950159
 30
0.0
 10
86.2081047323322
 20
158.4564712526667
 30
0.0
 10
87.12200136284575
 20
158.6322600055564
 30
0.0
 10
87.42544029039334
 20
158.6958526544344
 30
0.0
 10
87.87657690603085
 20
158.8080740695076
 30
0.0
 10
88.02628315557334
 20
158.8482963478561
 30
0.0
 10
88.32312429182143
 20
158.9395011639498
 30
0.0
 10
88.47050984432472
 20
158.9894349308952
 30
0.0
 10
88.61429397133901
 20
159.0544377433426
 30
0.0
  0
SPLINE
  5
1DA
330
1F
100
AcDbEntity
  8
0
  6
Continuous
 62
     7
370
    15
100
AcDbSpline
210
0.0
220
0.0
230
1.0
 70
     8
 71
     3
 72
     8
 73
     4
 74
     0
 42
0.00000001
 43
0.00000001
 12
1.0
 22
0.0
 32
0.0
 13
1.0
 23
0.0
 33
0.0
 40
0.0000005954826279
 40
0.0000005954826279
 40
0.0000005954826279
 40
0.0000005954826279
 40
0.0000302093805348
 40
0.0000302093805348
 40
0.0000302093805348
 40
0.0000302093805348
 10
84.96785090205142
 20
158.2962291213151
 30
0.0
 10
84.97116692937159
 20
158.2878107222066
 30
0.0
 10
84.97451548076386
 20
158.279401132657
 30
0.0
 10
84.97789583246094
 20
158.271000466305
 30
0.0
  0
SPLINE
  5
1DB
330
1F
100
AcDbEntity
  8
0
  6
Continuous
 62
     7
370
    15
100
AcDbSpline
210
0.0
220
0.0
230
1.0
 70
     8
 71
     3
 72
     8
 73
     4
 74
     0
 42
0.00000001
 43
0.00000001
 12
1.0
 22
0.0
 32
0.0
 13
1.0
 23
0.0
 33
0.0
 40
0.0000005954826279
 40
0.0000005954826279
 40
0.0000005954826279
 40
0.0000005954826279
 40
0.0000302093805348
 40
0.0000302093805348
 40
0.0000302093805348
 40
0.0000302093805348
 10
84.96785090205142
 20
139.6969426562969
 30
0.0
 10
84.97116692937159
 20
139.7053610554054
 30
0.0
 10
84.97451548076387
 20
139.713770644955
 30
0.0
 10
84.97789583246096
 20
139.722171311307
 30
0.0
  0
SPLINE
  5
1DC
330
1F
100
AcDbEntity
  8
0
  6
Continuous
 62
     7
370
    15
100
AcDbSpline
210
0.0
220
0.0
230
1.0
 70
     8
 71
     3
 72
    39
 73
    35
 74
     0
 42
0.00000001
 43
0.00000001
 12
1.0
 22
0.0
 32
0.0
 13
1.0
 23
0.0
 33
0.0
 40
-0.0933917898677449
 40
-0.0622351123773197
 40
-0.0310035323359511
 40
0.0
 40
0.0311554731472447
 40
0.0627537544701332
 40
0.0944598246532104
 40
0.1258516844974788
 40
0.1572196167872576
 40
0.1889387571416916
 40
0.2205174397748018
 40
0.2516656885414485
 40
0.2826462244720713
 40
0.3138733795790826
 40
0.3450060568220766
 40
0.3757359628070907
 40
0.4064218143223586
 40
0.4377517454847213
 40
0.4690453247903622
 40
0.5001675072799384
 40
0.531323032262223
 40
0.5628789029232588
 40
0.5945517697249131
 40
0.6258698547354888
 40
0.6571954425802748
 40
0.6889351647119784
 40
0.7205341263069348
 40
0.7517182475210293
 40
0.7827801982305727
 40
0.8139996739131145
 40
0.8452044676924316
 40
0.875894896980719
 40
0.9066082101322551
 40
0.9377648876226803
 40
0.9689964676640489
 40
1.0
 40
1.031155473147245
 40
1.062753754470133
 40
1.09445982465321
 10
104.34233877732
 20
145.4074229349391
 30
0.0
 10
103.7024824544128
 20
145.9465816037257
 30
0.0
 10
103.1784788603455
 20
146.602367894558
 30
0.0
 10
102.7917368548951
 20
147.3543390385618
 30
0.0
 10
102.5474923250447
 20
148.1668679676021
 30
0.0
 10
102.4683787818186
 20
149.0104146447907
 30
0.0
 10
102.5524593785696
 20
149.8535956219028
 30
0.0
 10
102.8016922772221
 20
150.6643158412238
 30
0.0
 10
103.1930613324608
 20
151.4137349983301
 30
0.0
 10
103.7212053064853
 20
152.0656582066389
 30
0.0
 10
104.3644423701431
 20
152.6002801232204
 30
0.0
 10
105.1031953121007
 20
152.9931459556588
 30
0.0
 10
105.9006884561527
 20
153.2406336051399
 30
0.0
 10
106.7272738419194
 20
153.3188461490238
 30
0.0
 10
107.5527919004723
 20
153.2298953946755
 30
0.0
 10
108.344932049834
 20
152.9738972144708
 30
0.0
 10
109.0774549071168
 20
152.574476075578
 30
0.0
 10
109.713278201848
 20
152.0373075129197
 30
0.0
 10
110.2345033819169
 20
151.3843583426108
 30
0.0
 10
110.6187278273569
 20
150.6349653389185
 30
0.0
 10
110.8612677048304
 20
149.8244172122177
 30
0.0
 10
110.9393340274221
 20
148.9820686031958
 30
0.0
 10
110.8545283670851
 20
148.1398294879348
 30
0.0
 10
110.6058379264917
 20
147.3301731671946
 30
0.0
 10
110.2162340032712
 20
146.5822973408517
 30
0.0
 10
109.6906715188243
 20
145.9327603362876
 30
0.0
 10
109.0520042428603
 20
145.4004828296821
 30
0.0
 10
108.3187507631114
 20
145.0070616850936
 30
0.0
 10
107.5262431282065
 20
144.7576667672686
 30
0.0
 10
106.7013621531659
 20
144.674384785751
 30
0.0
 10
105.8751198815853
 20
144.7573574360848
 30
0.0
 10
105.0790567277837
 20
145.0098173626754
 30
0.0
 10
104.34233877732
 20
145.4074229349391
 30
0.0
 10
103.7024824544128
 20
145.9465816037257
 30
0.0
 10
103.1784788603455
 20
146.602367894558
 30
0.0
  0
SPLINE
  5
1DD
330
1F
100
AcDbEntity
  8
0
  6
Continuous
 62
     7
370
    15
100
AcDbSpline
210
0.0
220
0.0
230
1.0
 70
     8
 71
     3
 72
    42
 73
    38
 74
     0
 42
0.00000001
 43
0.00000001
 12
1.0
 22
0.0
 32
0.0
 13
1.0
 23
0.0
 33
0.0
 40
-0.0859316077047435
 40
-0.0609210129794205
 40
-0.0322766215309858
 40
0.0
 40
0.0284830185762872
 40
0.0552061382280332
 40
0.0801799849750243
 40
0.1034178158163022
 40
0.1249363295288254
 40
0.1563046582698515
 40
0.1979442359261424
 40
0.2498399451117831
 40
0.2789581882222653
 40
0.3060722232706705
 40
0.3311961507198826
 40
0.3543480221193828
 40
0.3755512447886007
 40
0.4116849506421418
 40
0.4530713442967321
 40
0.4997879465802594
 40
0.5273607820299948
 40
0.552267281468619
 40
0.574507551317974
 40
0.5940825938090333
 40
0.6109947616296124
 40
0.6252486355463573
 40
0.6621224546583179
 40
0.7036628370070499
 40
0.7499274679872661
 40
0.7824264722375788
 40
0.8111789303637421
 40
0.836182874065584
 40
0.857437910442864
 40
0.8749461318778488
 40
0.892691595361965
 40
0.9140683922952565
 40
0.9390789870205795
 40
0.9677233784690142
 40
1.0
 40
1.028483018576287
 40
1.055206138228033
 40
1.080179984975024
 10
103.5889447279872
 20
146.9030327831839
 30
0.0
 10
104.0345728685872
 20
146.3544370579413
 30
0.0
 10
104.5638489866644
 20
145.9108814819684
 30
0.0
 10
105.112225016044
 20
145.5940940719679
 30
0.0
 10
105.6658933854993
 20
145.3850477213233
 30
0.0
 10
106.2043861297733
 20
145.2707534026164
 30
0.0
 10
106.803157560892
 20
145.2298146419171
 30
0.0
 10
107.5453157077423
 20
145.3028663940253
 30
0.0
 10
108.479558343824
 20
145.619480761446
 30
0.0
 10
109.2720401834394
 20
146.1857419489353
 30
0.0
 10
109.8156430591624
 20
146.8347580580946
 30
0.0
 10
110.1344004343249
 20
147.3888833480555
 30
0.0
 10
110.3423046004015
 20
147.9445151512532
 30
0.0
 10
110.4545315474564
 20
148.4805883368949
 30
0.0
 10
110.4969774755497
 20
149.1139282642746
 30
0.0
 10
110.407922374837
 20
149.8925210743523
 30
0.0
 10
110.0627838188905
 20
150.8145648909022
 30
0.0
 10
109.5191052058359
 20
151.5522537415749
 30
0.0
 10
108.927738505916
 20
152.0542360109456
 30
0.0
 10
108.4260121035702
 20
152.3553309076729
 30
0.0
 10
107.943319739216
 20
152.5554738680121
 30
0.0
 10
107.4988150831793
 20
152.6748543962029
 30
0.0
 10
107.105086733062
 20
152.7335756237601
 30
0.0
 10
106.5714752385232
 20
152.7605409877658
 30
0.0
 10
105.8397220417845
 20
152.6795516252465
 30
0.0
 10
104.91085176679
 20
152.3321495968492
 30
0.0
 10
104.1385632890053
 20
151.7628170853248
 30
0.0
 10
103.5995670109561
 20
151.1063305924218
 30
0.0
 10
103.2758608331407
 20
150.5068792229666
 30
0.0
 10
103.0863837380444
 20
149.9461910418439
 30
0.0
 10
102.9961812772057
 20
149.4515266665354
 30
0.0
 10
102.9702062337678
 20
149.0069364001122
 30
0.0
 10
102.9936751700576
 20
148.561207795815
 30
0.0
 10
103.082096349431
 20
148.0632662259474
 30
0.0
 10
103.2692951989128
 20
147.5016034237544
 30
0.0
 10
103.5889447279872
 20
146.9030327831839
 30
0.0
 10
104.0345728685872
 20
146.3544370579413
 30
0.0
 10
104.5638489866644
 20
145.9108814819684
 30
0.0
  0
ARC
  5
1DE
330
1F
100
AcDbEntity
  8
0
  6
Continuous
 62
     7
370
    15
100
AcDbCircle
 10
92.5278958325
 20
144.1265858888
 30
0.0
 40
1.400000000000006
100
AcDbArc
 50
270.0
 51
0.0
  0
ARC
  5
1DF
330
1F
100
AcDbEntity
  8
0
  6
Continuous
 62
     7
370
    15
100
AcDbCircle
 10
92.5278958325
 20
153.8665858888
 30
0.0
 40
1.400000000000006
100
AcDbArc
 50
0.0
 51
90.0
  0
LINE
  5
1E0
330
1F
100
AcDbEntity
  8
0
  6
Continuous
 62
     7
370
    15
100
AcDbLine
 10
92.5278961275
 20
155.2665856686
 30
0.0
 11
84.9778949831
 21
155.2665856686
 31
0.0
  0
LINE
  5
1E1
330
1F
100
AcDbEntity
  8
0
  6
Continuous
 62
     7
370
    15
100
AcDbLine
 10
84.9778949831
 20
155.2665856686
 30
0.0
 11
84.9778949831
 21
158.2710006293
 31
0.0
  0
LINE
  5
1E2
330
1F
100
AcDbEntity
  8
0
  6
Continuous
 62
     7
370
    15
100
AcDbLine
 10
84.9778949831
 20
142.726586109
 30
0.0
 11
84.9778949831
 21
139.7221711483
 31
0.0
  0
LINE
  5
1E3
330
1F
100
AcDbEntity
  8
0
  6
Continuous
 62
     7
370
    15
100
AcDbLine
 10
92.5278961275
 20
142.726586109
 30
0.0
 11
84.9778949831
 21
142.726586109
 31
0.0
  0
SPLINE
  5
1E4
330
1F
100
AcDbEntity
  8
0
  6
Continuous
 62
     7
370
    15
100
AcDbSpline
210
0.0
220
0.0
230
1.0
 70
     8
 71
     3
 72
     8
 73
     4
 74
     0
 42
0.00000001
 43
0.00000001
 12
1.0
 22
0.0
 32
0.0
 13
1.0
 23
0.0
 33
0.0
 40
0.0
 40
0.0
 40
0.0
 40
0.0
 40
1.0
 40
1.0
 40
1.0
 40
1.0
 10
84.76680540266015
 20
139.0109312133237
 30
0.0
 10
84.80251906103005
 20
139.2450872399024
 30
0.0
 10
84.87818709997833
 20
139.4693131470807
 30
0.0
 10
84.96785090205145
 20
139.6969426562969
 30
0.0
  0
SPLINE
  5
1E5
330
1F
100
AcDbEntity
  8
0
  6
Continuous
 62
     7
370
    15
100
AcDbSpline
210
0.0
220
0.0
230
1.0
 70
     8
 71
     3
 72
    10
 73
     6
 74
     0
 42
0.00000001
 43
0.00000001
 12
1.0
 22
0.0
 32
0.0
 13
1.0
 23
0.0
 33
0.0
 40
0.0
 40
0.0
 40
0.0
 40
0.0
 40
0.5
 40
0.5
 40
1.0
 40
1.0
 40
1.0
 40
1.0
 10
83.82789583246056
 20
140.0805889149469
 30
0.0
 10
83.82789583246053
 20
139.9532247968958
 30
0.0
 10
83.83321539308879
 20
139.8258939845565
 30
0.0
 10
83.84634362537041
 20
139.5709759233356
 30
0.0
 10
83.85403628002442
 20
139.4429299007745
 30
0.0
 10
83.85817344806964
 20
139.3217016446638
 30
0.0
  0
LINE
  5
1E6
330
1F
100
AcDbEntity
  8
0
  6
Continuous
 62
     7
370
    15
100
AcDbLine
 10
83.8278960053
 20
141.5765857343
 30
0.0
 11
83.8278960053
 21
140.0805887785
 31
0.0
  0
LINE
  5
1E7
330
1F
100
AcDbEntity
  8
0
  6
Continuous
 62
     7
370
    15
100
AcDbLine
 10
84.9778949831
 20
142.726586109
 30
0.0
 11
83.8278960053
 21
141.5765857343
 31
0.0
  0
LINE
  5
1E8
330
1F
100
AcDbEntity
  8
0
  6
Continuous
 62
     7
370
    15
100
AcDbLine
 10
84.9778949831
 20
155.2665856686
 30
0.0
 11
83.8278960053
 21
156.4165860433
 31
0.0
  0
LINE
  5
1E9
330
1F
100
AcDbEntity
  8
0
  6
Continuous
 62
     7
370
    15
100
AcDbLine
 10
83.8278960053
 20
156.4165860433
 30
0.0
 11
83.8278960053
 21
157.9125829991
 31
0.0
  0
SPLINE
  5
1EA
330
1F
100
AcDbEntity
  8
0
  6
Continuous
 62
     7
370
    15
100
AcDbSpline
210
0.0
220
0.0
230
1.0
 70
     8
 71
     3
 72
    10
 73
     6
 74
     0
 42
0.00000001
 43
0.00000001
 12
1.0
 22
0.0
 32
0.0
 13
1.0
 23
0.0
 33
0.0
 40
0.0
 40
0.0
 40
0.0
 40
0.0
 40
0.5
 40
0.5
 40
1.0
 40
1.0
 40
1.0
 40
1.0
 10
83.82789583246056
 20
157.912582862665
 30
0.0
 10
83.82789583246053
 20
158.0399469807162
 30
0.0
 10
83.83321539308879
 20
158.1672777930555
 30
0.0
 10
83.84634362537041
 20
158.4221958542764
 30
0.0
 10
83.85403628002442
 20
158.5502418768375
 30
0.0
 10
83.85817344806964
 20
158.6714701329482
 30
0.0
  0
SPLINE
  5
1EB
330
1F
100
AcDbEntity
  8
0
  6
Continuous
 62
     7
370
    15
100
AcDbSpline
210
0.0
220
0.0
230
1.0
 70
     8
 71
     3
 72
     8
 73
     4
 74
     0
 42
0.00000001
 43
0.00000001
 12
1.0
 22
0.0
 32
0.0
 13
1.0
 23
0.0
 33
0.0
 40
0.0
 40
0.0
 40
0.0
 40
0.0
 40
1.0
 40
1.0
 40
1.0
 40
1.0
 10
84.76680540266015
 20
158.9822405642882
 30
0.0
 10
84.80251906103005
 20
158.7480845377096
 30
0.0
 10
84.87818709997833
 20
158.5238586305313
 30
0.0
 10
84.96785090205145
 20
158.2962291213151
 30
0.0
  0
LINE
  5
1EC
330
1F
100
AcDbEntity
  8
0
  6
Continuous
 62
     7
370
    15
100
AcDbLine
 10
83.8278960053
 20
157.9125829991
 30
0.0
 11
83.8278960053
 21
170.5776358973
 31
0.0
  0
SPLINE
  5
1ED
330
1F
100
AcDbEntity
  8
0
  6
Continuous
 62
     7
370
    15
100
AcDbSpline
210
0.0
220
0.0
230
1.0
 70
     8
 71
     3
 72
    26
 73
    22
 74
     0
 42
0.00000001
 43
0.00000001
 12
1.0
 22
0.0
 32
0.0
 13
1.0
 23
0.0
 33
0.0
 40
0.0
 40
0.0
 40
0.0
 40
0.0
 40
0.24999999999999
 40
0.24999999999999
 40
0.3749999999999855
 40
0.3749999999999855
 40
0.4374999999999828
 40
0.4374999999999828
 40
0.4687499999999823
 40
0.4687499999999823
 40
0.4999999999999817
 40
0.4999999999999817
 40
0.5312499999999811
 40
0.5312499999999811
 40
0.5624999999999805
 40
0.5624999999999805
 40
0.6249999999999835
 40
0.6249999999999835
 40
0.7499999999999892
 40
0.7499999999999892
 40
1.0
 40
1.0
 40
1.0
 40
1.0
 10
83.85817344806964
 20
158.6714701329482
 30
0.0
 10
83.86889748146216
 20
158.9857082427958
 30
0.0
 10
83.8836304720567
 20
159.3007812894285
 30
0.0
 10
83.93598403130372
 20
159.7796918093429
 30
0.0
 10
83.95768931402334
 20
159.9412670532166
 30
0.0
 10
84.01654482138875
 20
160.181979472254
 30
0.0
 10
84.04000705523592
 20
160.2626273735185
 30
0.0
 10
84.09612843189656
 20
160.372444837684
 30
0.0
 10
84.11891574202721
 20
160.4070448047679
 30
0.0
 10
84.17416829455843
 20
160.4538018943232
 30
0.0
 10
84.20557452729926
 20
160.4624570730366
 30
0.0
 10
84.26050834791968
 20
160.4537117203872
 30
0.0
 10
84.28493216611915
 20
160.4387369577643
 30
0.0
 10
84.32834727210636
 20
160.4015541187341
 30
0.0
 10
84.34792183467464
 20
160.3786561048393
 30
0.0
 10
84.4015545186226
 20
160.3051320551286
 30
0.0
 10
84.43133186667478
 20
160.249236753424
 30
0.0
 10
84.51286592664758
 20
160.0725768686556
 30
0.0
 10
84.5561087213216
 20
159.9429700587636
 30
0.0
 10
84.6691633109763
 20
159.5471235195599
 30
0.0
 10
84.72317430845547
 20
159.2683071315444
 30
0.0
 10
84.76680540265949
 20
158.9822405642878
 30
0.0
  0
LINE
  5
1EE
330
1F
100
AcDbEntity
  8
0
  6
Continuous
 62
     7
370
    15
100
AcDbLine
 10
83.8278960053
 20
127.4155358803
 30
0.0
 11
83.8278960053
 21
140.0805887785
 31
0.0
  0
SPLINE
  5
1EF
330
1F
100
AcDbEntity
  8
0
  6
Continuous
 62
     7
370
    15
100
AcDbSpline
210
0.0
220
0.0
230
1.0
 70
     8
 71
     3
 72
    26
 73
    22
 74
     0
 42
0.00000001
 43
0.00000001
 12
1.0
 22
0.0
 32
0.0
 13
1.0
 23
0.0
 33
0.0
 40
0.0
 40
0.0
 40
0.0
 40
0.0
 40
0.24999999999999
 40
0.24999999999999
 40
0.3749999999999855
 40
0.3749999999999855
 40
0.4374999999999828
 40
0.4374999999999828
 40
0.4687499999999823
 40
0.4687499999999823
 40
0.4999999999999817
 40
0.4999999999999817
 40
0.5312499999999811
 40
0.5312499999999811
 40
0.5624999999999805
 40
0.5624999999999805
 40
0.6249999999999835
 40
0.6249999999999835
 40
0.7499999999999892
 40
0.7499999999999892
 40
1.0
 40
1.0
 40
1.0
 40
1.0
 10
83.85817344806964
 20
139.3217016446638
 30
0.0
 10
83.86889748146216
 20
139.0074635348162
 30
0.0
 10
83.8836304720567
 20
138.6923904881835
 30
0.0
 10
83.93598403130372
 20
138.213479968269
 30
0.0
 10
83.95768931402334
 20
138.0519047243953
 30
0.0
 10
84.01654482138875
 20
137.811192305358
 30
0.0
 10
84.04000705523592
 20
137.7305444040935
 30
0.0
 10
84.09612843189656
 20
137.620726939928
 30
0.0
 10
84.11891574202721
 20
137.5861269728441
 30
0.0
 10
84.17416829455843
 20
137.5393698832888
 30
0.0
 10
84.20557452729926
 20
137.5307147045753
 30
0.0
 10
84.26050834791968
 20
137.5394600572248
 30
0.0
 10
84.28493216611915
 20
137.5544348198477
 30
0.0
 10
84.32834727210636
 20
137.5916176588779
 30
0.0
 10
84.34792183467464
 20
137.6145156727727
 30
0.0
 10
84.4015545186226
 20
137.6880397224834
 30
0.0
 10
84.43133186667478
 20
137.743935024188
 30
0.0
 10
84.51286592664758
 20
137.9205949089564
 30
0.0
 10
84.5561087213216
 20
138.0502017188484
 30
0.0
 10
84.6691633109763
 20
138.446048258052
 30
0.0
 10
84.72317430845547
 20
138.7248646460676
 30
0.0
 10
84.76680540265949
 20
139.0109312133242
 30
0.0
  0
SPLINE
  5
1F0
330
1F
100
AcDbEntity
  8
0
  6
Continuous
 62
     7
370
    15
100
AcDbSpline
210
0.0
220
0.0
230
1.0
 70
     8
 71
     3
 72
     9
 73
     5
 74
     0
 42
0.00000001
 43
0.00000001
 12
1.0
 22
0.0
 32
0.0
 13
1.0
 23
0.0
 33
0.0
 40
0.0
 40
0.0
 40
0.0
 40
0.0
 40
0.5131028265951941
 40
1.0
 40
1.0
 40
1.0
 40
1.0
 10
104.8274030525504
 20
145.7758312132388
 30
0.0
 10
104.4969090207265
 20
146.0016019395077
 30
0.0
 10
103.8528002481886
 20
146.4416126246309
 30
0.0
 10
103.4974286957628
 20
147.136021687597
 30
0.0
 10
103.3243992913781
 20
147.4741274975419
 30
0.0
  0
LINE
  5
1F1
330
1F
100
AcDbEntity
  8
0
  6
Continuous
 62
     7
370
    15
100
AcDbLine
 10
109.4131255139
 20
151.6090157926
 30
0.0
 11
109.4828978729
 21
151.5406895448
 31
0.0
  0
SPLINE
  5
1F2
330
1F
100
AcDbEntity
  8
0
  6
Continuous
 62
     7
370
    15
100
AcDbSpline
210
0.0
220
0.0
230
1.0
 70
     8
 71
     3
 72
    18
 73
    14
 74
     0
 42
0.00000001
 43
0.00000001
 12
1.0
 22
0.0
 32
0.0
 13
1.0
 23
0.0
 33
0.0
 40
0.0
 40
0.0
 40
0.0
 40
0.0
 40
0.2499999999999974
 40
0.2499999999999974
 40
0.3749999999999971
 40
0.3749999999999971
 40
0.4999999999999968
 40
0.4999999999999968
 40
0.6249999999999964
 40
0.6249999999999964
 40
0.7499999999999961
 40
0.7499999999999961
 40
1.0
 40
1.0
 40
1.0
 40
1.0
 10
89.92789583246099
 20
144.126585888806
 30
0.0
 10
89.92789583246099
 20
143.9443981073752
 30
0.0
 10
89.89298514106883
 20
143.7671587539776
 30
0.0
 10
89.79097583973578
 20
143.5160180656656
 30
0.0
 10
89.74933948505767
 20
143.4365317266187
 30
0.0
 10
89.65093368956892
 20
143.2858211686118
 30
0.0
 10
89.59339047786463
 20
143.2138842246263
 30
0.0
 10
89.46609230429169
 20
143.0834701006863
 30
0.0
 10
89.39650499953422
 20
143.0247880501086
 30
0.0
 10
89.24507075437927
 20
142.9207249955628
 30
0.0
 10
89.1623868512853
 20
142.8751729460155
 30
0.0
 10
88.90627538924726
 20
142.7659677438384
 30
0.0
 10
88.71836038535926
 20
142.726585888806
 30
0.0
 10
88.527895832461
 20
142.726585888806
 30
0.0
  0
LINE
  5
1F3
330
1F
100
AcDbEntity
  8
0
  6
Continuous
 62
     7
370
    15
100
AcDbLine
 10
89.9278949563
 20
144.1265860591
 30
0.0
 11
89.9278949563
 21
153.8665857185
 31
0.0
  0
SPLINE
  5
1F4
330
1F
100
AcDbEntity
  8
0
  6
Continuous
 62
     7
370
    15
100
AcDbSpline
210
0.0
220
0.0
230
1.0
 70
     8
 71
     3
 72
    18
 73
    14
 74
     0
 42
0.00000001
 43
0.00000001
 12
1.0
 22
0.0
 32
0.0
 13
1.0
 23
0.0
 33
0.0
 40
0.0
 40
0.0
 40
0.0
 40
0.0
 40
0.2500000000000009
 40
0.2500000000000009
 40
0.3750000000000007
 40
0.3750000000000007
 40
0.5000000000000006
 40
0.5000000000000006
 40
0.6250000000000003
 40
0.6250000000000003
 40
0.7500000000000001
 40
0.7500000000000001
 40
1.0
 40
1.0
 40
1.0
 40
1.0
 10
89.92789583246099
 20
153.866585888806
 30
0.0
 10
89.92789583246099
 20
154.0487736702368
 30
0.0
 10
89.89298514106882
 20
154.2260130236344
 30
0.0
 10
89.79097583973578
 20
154.4771537119464
 30
0.0
 10
89.74933948505767
 20
154.5566400509933
 30
0.0
 10
89.65093368956892
 20
154.7073506090001
 30
0.0
 10
89.59339047786463
 20
154.7792875529856
 30
0.0
 10
89.46609230429169
 20
154.9097016769257
 30
0.0
 10
89.39650499953422
 20
154.9683837275033
 30
0.0
 10
89.24507075437927
 20
155.0724467820492
 30
0.0
 10
89.16238685128532
 20
155.1179988315964
 30
0.0
 10
88.90627538924726
 20
155.2272040337736
 30
0.0
 10
88.71836038535926
 20
155.266585888806
 30
0.0
 10
88.527895832461
 20
155.266585888806
 30
0.0
  0
LINE
  5
1F5
330
1F
100
AcDbEntity
  8
0
  6
Continuous
 62
     7
370
    15
100
AcDbLine
 10
206.0713413719
 20
144.0365858395
 30
0.0
 11
206.0713413719
 21
145.5388473366
 31
0.0
  0
LINE
  5
1F6
330
1F
100
AcDbEntity
  8
0
  6
Continuous
 62
     7
370
    15
100
AcDbLine
 10
205.8379817371
 20
144.0365858395
 30
0.0
 11
206.0713413719
 21
144.0365858395
 31
0.0
  0
LINE
  5
1F7
330
1F
100
AcDbEntity
  8
0
  6
Continuous
 62
     7
370
    15
100
AcDbLine
 10
196.5576652054
 20
148.7965858939
 30
0.0
 11
205.8142218355
 21
148.7965858939
 31
0.0
  0
LINE
  5
1F8
330
1F
100
AcDbEntity
  8
0
  6
Continuous
 62
     7
370
    15
100
AcDbLine
 10
205.8142218355
 20
148.7965858939
 30
0.0
 11
206.3284534578
 21
148.7965858939
 31
0.0
  0
LINE
  5
1F9
330
1F
100
AcDbEntity
  8
0
  6
Continuous
 62
     7
370
    15
100
AcDbLine
 10
215.0409388904
 20
144.0365858395
 30
0.0
 11
215.3278980021
 21
145.5388473366
 31
0.0
  0
LINE
  5
1FA
330
1F
100
AcDbEntity
  8
0
  6
Continuous
 62
     7
370
    15
100
AcDbLine
 10
206.0713413719
 20
144.0365858395
 30
0.0
 11
215.0409388904
 21
144.0365858395
 31
0.0
  0
LINE
  5
1FB
330
1F
100
AcDbEntity
  8
0
  6
Continuous
 62
     7
370
    15
100
AcDbLine
 10
206.3284534578
 20
148.7965858939
 30
0.0
 11
215.5850100879
 21
148.7965858939
 31
0.0
  0
LINE
  5
1FC
330
1F
100
AcDbEntity
  8
0
  6
Continuous
 62
     7
370
    15
100
AcDbLine
 10
196.4147854213
 20
148.7965858939
 30
0.0
 11
196.5576652054
 21
148.7965858939
 31
0.0
  0
LINE
  5
1FD
330
1F
100
AcDbEntity
  8
0
  6
Continuous
 62
     7
370
    15
100
AcDbLine
 10
215.5850100879
 20
148.7965858939
 30
0.0
 11
215.7278973226
 21
148.7965858939
 31
0.0
  0
LINE
  5
1FE
330
1F
100
AcDbEntity
  8
0
  6
HIDDEN
 62
     7
370
     0
100
AcDbLine
 10
156.3812661533
 20
173.5065857899
 30
0.0
 11
152.7278963093
 21
173.5065857899
 31
0.0
  0
LINE
  5
1FF
330
1F
100
AcDbEntity
  8
0
  6
HIDDEN
 62
     7
370
     0
100
AcDbLine
 10
158.7278972928
 20
173.5065857899
 30
0.0
 11
156.3812661533
 21
173.5065857899
 31
0.0
  0
LINE
  5
200
330
1F
100
AcDbEntity
  8
0
  6
HIDDEN
 62
     7
370
     0
100
AcDbLine
 10
156.3812661533
 20
174.0565857869
 30
0.0
 11
152.7278963093
 21
174.0565857869
 31
0.0
  0
LINE
  5
201
330
1F
100
AcDbEntity
  8
0
  6
HIDDEN
 62
     7
370
     0
100
AcDbLine
 10
158.7278972928
 20
174.0565857869
 30
0.0
 11
156.3812661533
 21
174.0565857869
 31
0.0
  0
LINE
  5
202
330
1F
100
AcDbEntity
  8
0
  6
HIDDEN
 62
     7
370
     0
100
AcDbLine
 10
156.3377100591
 20
172.9963234645
 30
0.0
 11
152.9278959696
 21
172.9963234645
 31
0.0
  0
LINE
  5
203
330
1F
100
AcDbEntity
  8
0
  6
HIDDEN
 62
     7
370
     0
100
AcDbLine
 10
158.5278976325
 20
172.9963234645
 30
0.0
 11
156.3377100591
 21
172.9963234645
 31
0.0
  0
LINE
  5
204
330
1F
100
AcDbEntity
  8
0
  6
HIDDEN
 62
     7
370
     0
100
AcDbLine
 10
156.3377100591
 20
171.616323201
 30
0.0
 11
152.9278959696
 21
171.616323201
 31
0.0
  0
LINE
  5
205
330
1F
100
AcDbEntity
  8
0
  6
HIDDEN
 62
     7
370
     0
100
AcDbLine
 10
158.5278976325
 20
171.616323201
 30
0.0
 11
156.3377100591
 21
171.616323201
 31
0.0
  0
LINE
  5
206
330
1F
100
AcDbEntity
  8
0
  6
HIDDEN
 62
     7
370
     0
100
AcDbLine
 10
156.3812661533
 20
172.1265855264
 30
0.0
 11
152.7278963093
 21
172.1265855264
 31
0.0
  0
LINE
  5
207
330
1F
100
AcDbEntity
  8
0
  6
HIDDEN
 62
     7
370
     0
100
AcDbLine
 10
158.7278972928
 20
172.1265855264
 30
0.0
 11
156.3812661533
 21
172.1265855264
 31
0.0
  0
LINE
  5
208
330
1F
100
AcDbEntity
  8
0
  6
HIDDEN
 62
     7
370
     0
100
AcDbLine
 10
156.3377100591
 20
172.3063233327
 30
0.0
 11
152.9278959696
 21
172.3063233327
 31
0.0
  0
LINE
  5
209
330
1F
100
AcDbEntity
  8
0
  6
HIDDEN
 62
     7
370
     0
100
AcDbLine
 10
158.5278976325
 20
172.3063233327
 30
0.0
 11
156.3377100591
 21
172.3063233327
 31
0.0
  0
LINE
  5
20A
330
1F
100
AcDbEntity
  8
0
  6
HIDDEN
 62
     7
370
     0
100
AcDbLine
 10
156.3812661533
 20
172.8165856581
 30
0.0
 11
152.7278963093
 21
172.8165856581
 31
0.0
  0
LINE
  5
20B
330
1F
100
AcDbEntity
  8
0
  6
HIDDEN
 62
     7
370
     0
100
AcDbLine
 10
158.7278972928
 20
172.8165856581
 30
0.0
 11
156.3812661533
 21
172.8165856581
 31
0.0
  0
LINE
  5
20C
330
1F
100
AcDbEntity
  8
0
  6
HIDDEN
 62
     7
370
     0
100
AcDbLine
 10
156.3507746522
 20
174.1965859216
 30
0.0
 11
152.867896444
 21
174.1965859216
 31
0.0
  0
LINE
  5
20D
330
1F
100
AcDbEntity
  8
0
  6
HIDDEN
 62
     7
370
     0
100
AcDbLine
 10
158.5878971581
 20
174.1965859216
 30
0.0
 11
156.3507746522
 21
174.1965859216
 31
0.0
  0
LINE
  5
20E
330
1F
100
AcDbEntity
  8
0
  6
HIDDEN
 62
     7
370
     0
100
AcDbLine
 10
156.3377100591
 20
170.9263230693
 30
0.0
 11
152.9278959696
 21
170.9263230693
 31
0.0
  0
LINE
  5
20F
330
1F
100
AcDbEntity
  8
0
  6
HIDDEN
 62
     7
370
     0
100
AcDbLine
 10
158.5278976325
 20
170.9263230693
 30
0.0
 11
156.3377100591
 21
170.9263230693
 31
0.0
  0
LINE
  5
210
330
1F
100
AcDbEntity
  8
0
  6
HIDDEN
 62
     7
370
     0
100
AcDbLine
 10
156.3812661533
 20
171.4365853947
 30
0.0
 11
152.7278963093
 21
171.4365853947
 31
0.0
  0
LINE
  5
211
330
1F
100
AcDbEntity
  8
0
  6
HIDDEN
 62
     7
370
     0
100
AcDbLine
 10
158.7278972928
 20
171.4365853947
 30
0.0
 11
156.3812661533
 21
171.4365853947
 31
0.0
  0
LINE
  5
212
330
1F
100
AcDbEntity
  8
0
  6
HIDDEN
 62
     7
370
     0
100
AcDbLine
 10
156.3812661533
 20
167.9965852779
 30
0.0
 11
152.7278963093
 21
167.9965852779
 31
0.0
  0
LINE
  5
213
330
1F
100
AcDbEntity
  8
0
  6
HIDDEN
 62
     7
370
     0
100
AcDbLine
 10
158.7278972928
 20
167.9965852779
 30
0.0
 11
156.3812661533
 21
167.9965852779
 31
0.0
  0
LINE
  5
214
330
1F
100
AcDbEntity
  8
0
  6
HIDDEN
 62
     7
370
     0
100
AcDbLine
 10
156.3812661533
 20
170.746585263
 30
0.0
 11
152.7278963093
 21
170.746585263
 31
0.0
  0
LINE
  5
215
330
1F
100
AcDbEntity
  8
0
  6
HIDDEN
 62
     7
370
     0
100
AcDbLine
 10
158.7278972928
 20
170.746585263
 30
0.0
 11
156.3812661533
 21
170.746585263
 31
0.0
  0
LINE
  5
216
330
1F
100
AcDbEntity
  8
0
  6
HIDDEN
 62
     7
370
     0
100
AcDbLine
 10
156.2680992846
 20
167.6965857875
 30
0.0
 11
153.247510976
 21
167.6965857875
 31
0.0
  0
LINE
  5
217
330
1F
100
AcDbEntity
  8
0
  6
HIDDEN
 62
     7
370
     0
100
AcDbLine
 10
158.2082789008
 20
167.6965857875
 30
0.0
 11
156.2680992846
 21
167.6965857875
 31
0.0
  0
LINE
  5
218
330
1F
100
AcDbEntity
  8
0
  6
HIDDEN
 62
     7
370
     0
100
AcDbLine
 10
156.2723721925
 20
169.3399622124
 30
0.0
 11
153.2278973226
 21
169.3399622124
 31
0.0
  0
LINE
  5
219
330
1F
100
AcDbEntity
  8
0
  6
HIDDEN
 62
     7
370
     0
100
AcDbLine
 10
158.2278962795
 20
169.3399622124
 30
0.0
 11
156.2723721925
 21
169.3399622124
 31
0.0
  0
LINE
  5
21A
330
1F
100
AcDbEntity
  8
0
  6
HIDDEN
 62
     7
370
     0
100
AcDbLine
 10
120.6778958056
 20
173.4552755039
 30
0.0
 11
130.3359632928
 21
173.4552755039
 31
0.0
  0
LINE
  5
21B
330
1F
100
AcDbEntity
  8
0
  6
HIDDEN
 62
     7
370
     0
100
AcDbLine
 10
130.3359632928
 20
140.9965855088
 30
0.0
 11
130.3359632928
 21
139.9965862762
 31
0.0
  0
LINE
  5
21C
330
1F
100
AcDbEntity
  8
0
  6
HIDDEN
 62
     7
370
     0
100
AcDbLine
 10
130.3359632928
 20
157.9965855014
 30
0.0
 11
130.3359632928
 21
156.9965862688
 31
0.0
  0
SPLINE
  5
21D
330
1F
100
AcDbEntity
  8
0
  6
HIDDEN
 62
     7
370
     0
100
AcDbSpline
210
0.0
220
0.0
230
1.0
 70
     8
 71
     3
 72
    12
 73
     8
 74
     0
 42
0.00000001
 43
0.00000001
 12
1.0
 22
0.0
 32
0.0
 13
1.0
 23
0.0
 33
0.0
 40
0.0
 40
0.0
 40
0.0
 40
0.0
 40
0.2500000000000006
 40
0.2500000000000006
 40
0.5000000000000012
 40
0.5000000000000012
 40
1.0
 40
1.0
 40
1.0
 40
1.0
 10
141.077895832461
 20
173.4552755511736
 30
0.0
 10
141.1681349001481
 20
173.4552755511736
 30
0.0
 10
141.2590330142546
 20
173.4274458308701
 30
0.0
 10
141.4136300507431
 20
173.3323033696134
 30
0.0
 10
141.4786084668512
 20
173.2658805533131
 30
0.0
 10
141.6304434947874
 20
173.041681121793
 30
0.0
 10
141.677895832461
 20
172.8576947192473
 30
0.0
 10
141.677895832461
 20
172.6775381500644
 30
0.0
  0
LINE
  5
21E
330
1F
100
AcDbEntity
  8
0
  6
HIDDEN
 62
     7
370
     0
100
AcDbLine
 10
137.1198277537
 20
173.4552755039
 30
0.0
 11
141.0778965418
 21
173.4552755039
 31
0.0
  0
LINE
  5
21F
330
1F
100
AcDbEntity
  8
0
  6
HIDDEN
 62
     7
370
     0
100
AcDbLine
 10
137.1198277537
 20
140.9965855088
 30
0.0
 11
137.1198277537
 21
139.9965862762
 31
0.0
  0
SPLINE
  5
220
330
1F
100
AcDbEntity
  8
0
  6
HIDDEN
 62
     7
370
     0
100
AcDbSpline
210
0.0
220
0.0
230
1.0
 70
     8
 71
     3
 72
     8
 73
     4
 74
     0
 42
0.00000001
 43
0.00000001
 12
1.0
 22
0.0
 32
0.0
 13
1.0
 23
0.0
 33
0.0
 40
0.0
 40
0.0
 40
0.0
 40
0.0
 40
1.0
 40
1.0
 40
1.0
 40
1.0
 10
135.637895832461
 20
170.0467295563893
 30
0.0
 10
136.1178478268259
 20
171.1893449973113
 30
0.0
 10
136.6131485557995
 20
172.3250324910425
 30
0.0
 10
137.1198286639501
 20
173.4552755511735
 30
0.0
  0
SPLINE
  5
221
330
1F
100
AcDbEntity
  8
0
  6
HIDDEN
 62
     7
370
     0
100
AcDbSpline
210
0.0
220
0.0
230
1.0
 70
     8
 71
     3
 72
     8
 73
     4
 74
     0
 42
0.00000001
 43
0.00000001
 12
1.0
 22
0.0
 32
0.0
 13
1.0
 23
0.0
 33
0.0
 40
0.0
 40
0.0
 40
0.0
 40
0.0
 40
1.0
 40
1.0
 40
1.0
 40
1.0
 10
130.335963000972
 20
173.4552755511734
 30
0.0
 10
130.8426431091225
 20
172.3250324910424
 30
0.0
 10
131.3379438380961
 20
171.1893449973113
 30
0.0
 10
131.817895832461
 20
170.0467295563893
 30
0.0
  0
LINE
  5
222
330
1F
100
AcDbEntity
  8
0
  6
HIDDEN
 62
     7
370
     0
100
AcDbLine
 10
135.6378960971
 20
140.9965855088
 30
0.0
 11
135.6378960971
 21
139.9965862762
 31
0.0
  0
LINE
  5
223
330
1F
100
AcDbEntity
  8
0
  6
HIDDEN
 62
     7
370
     0
100
AcDbLine
 10
135.6378960971
 20
157.9965855014
 30
0.0
 11
135.6378960971
 21
156.9965862688
 31
0.0
  0
LINE
  5
224
330
1F
100
AcDbEntity
  8
0
  6
HIDDEN
 62
     7
370
     0
100
AcDbLine
 10
131.8178958807
 20
157.9965855014
 30
0.0
 11
131.8178958807
 21
156.9965862688
 31
0.0
  0
LINE
  5
225
330
1F
100
AcDbEntity
  8
0
  6
HIDDEN
 62
     7
370
     0
100
AcDbLine
 10
131.8178958807
 20
140.9965855088
 30
0.0
 11
131.8178958807
 21
139.9965862762
 31
0.0
  0
SPLINE
  5
226
330
1F
100
AcDbEntity
  8
0
  6
HIDDEN
 62
     7
370
     0
100
AcDbSpline
210
0.0
220
0.0
230
1.0
 70
     8
 71
     3
 72
    10
 73
     6
 74
     0
 42
0.00000001
 43
0.00000001
 12
1.0
 22
0.0
 32
0.0
 13
1.0
 23
0.0
 33
0.0
 40
0.0
 40
0.0
 40
0.0
 40
0.0
 40
0.5
 40
0.5
 40
1.0
 40
1.0
 40
1.0
 40
1.0
 10
88.52789583246101
 20
158.664288342216
 30
0.0
 10
87.94031028537042
 20
158.5490088812225
 30
0.0
 10
87.34956389191002
 20
158.4537393273823
 30
0.0
 10
86.16554472661116
 20
158.2792010964383
 30
0.0
 10
85.57213073840569
 20
158.2008261205947
 30
0.0
 10
84.97789583246099
 20
158.1276526521243
 30
0.0
  0
SPLINE
  5
227
330
1F
100
AcDbEntity
  8
0
  6
HIDDEN
 62
     7
370
     0
100
AcDbSpline
210
0.0
220
0.0
230
1.0
 70
     8
 71
     3
 72
    18
 73
    14
 74
     0
 42
0.00000001
 43
0.00000001
 12
1.0
 22
0.0
 32
0.0
 13
1.0
 23
0.0
 33
0.0
 40
0.0
 40
0.0
 40
0.0
 40
0.0
 40
0.2500000000000003
 40
0.2500000000000003
 40
0.4999999999999999
 40
0.4999999999999999
 40
0.7499999999999996
 40
0.7499999999999996
 40
0.8749999999999993
 40
0.8749999999999993
 40
0.9374999999999997
 40
0.9374999999999997
 40
1.0
 40
1.0
 40
1.0
 40
1.0
 10
89.927895832461
 20
156.2853352206173
 30
0.0
 10
89.92789583246102
 20
156.5347031976759
 30
0.0
 10
89.89204673252274
 20
156.7805117520547
 30
0.0
 10
89.76717499648883
 20
157.2526355758329
 30
0.0
 10
89.67677457884095
 20
157.4833641547844
 30
0.0
 10
89.45453192409877
 20
157.9169140838496
 30
0.0
 10
89.324767137653
 20
158.1223119142944
 30
0.0
 10
89.08412968034149
 20
158.4046054361611
 30
0.0
 10
88.99636238220407
 20
158.4949850284258
 30
0.0
 10
88.84183829499723
 20
158.6026064332954
 30
0.0
 10
88.78522740894249
 20
158.6341810092697
 30
0.0
 10
88.66118337803589
 20
158.6723554513671
 30
0.0
 10
88.59346870301759
 20
158.6771532011475
 30
0.0
 10
88.527895832461
 20
158.664288342216
 30
0.0
  0
SPLINE
  5
228
330
1F
100
AcDbEntity
  8
0
  6
HIDDEN
 62
     7
370
     0
100
AcDbSpline
210
0.0
220
0.0
230
1.0
 70
     8
 71
     3
 72
    18
 73
    14
 74
     0
 42
0.00000001
 43
0.00000001
 12
1.0
 22
0.0
 32
0.0
 13
1.0
 23
0.0
 33
0.0
 40
0.0
 40
0.0
 40
0.0
 40
0.0
 40
0.2499999999999996
 40
0.2499999999999996
 40
0.5
 40
0.5
 40
0.7500000000000003
 40
0.7500000000000003
 40
0.8750000000000007
 40
0.8750000000000007
 40
0.9375000000000003
 40
0.9375000000000003
 40
1.0
 40
1.0
 40
1.0
 40
1.0
 10
89.927895832461
 20
141.7078365569946
 30
0.0
 10
89.927895832461
 20
141.458468579936
 30
0.0
 10
89.89204673252274
 20
141.2126600255572
 30
0.0
 10
89.76717499648885
 20
140.7405362017791
 30
0.0
 10
89.67677457884095
 20
140.5098076228276
 30
0.0
 10
89.45453192409877
 20
140.0762576937623
 30
0.0
 10
89.32476713765301
 20
139.8708598633175
 30
0.0
 10
89.0841296803415
 20
139.5885663414509
 30
0.0
 10
88.99636238220405
 20
139.4981867491862
 30
0.0
 10
88.84183829499723
 20
139.3905653443166
 30
0.0
 10
88.78522740894249
 20
139.3589907683423
 30
0.0
 10
88.66118337803589
 20
139.3208163262449
 30
0.0
 10
88.59346870301759
 20
139.3160185764644
 30
0.0
 10
88.527895832461
 20
139.3288834353961
 30
0.0
  0
SPLINE
  5
229
330
1F
100
AcDbEntity
  8
0
  6
HIDDEN
 62
     7
370
     0
100
AcDbSpline
210
0.0
220
0.0
230
1.0
 70
     8
 71
     3
 72
    10
 73
     6
 74
     0
 42
0.00000001
 43
0.00000001
 12
1.0
 22
0.0
 32
0.0
 13
1.0
 23
0.0
 33
0.0
 40
0.0
 40
0.0
 40
0.0
 40
0.0
 40
0.5
 40
0.5
 40
1.0
 40
1.0
 40
1.0
 40
1.0
 10
88.52789583246101
 20
139.328883435396
 30
0.0
 10
87.94031028537042
 20
139.4441628963895
 30
0.0
 10
87.34956389191002
 20
139.5394324502297
 30
0.0
 10
86.16554472661116
 20
139.7139706811737
 30
0.0
 10
85.57213073840569
 20
139.7923456570173
 30
0.0
 10
84.97789583246099
 20
139.8655191254877
 30
0.0
  0
SPLINE
  5
22A
330
1F
100
AcDbEntity
  8
0
  6
HIDDEN
 62
     7
370
     0
100
AcDbSpline
210
0.0
220
0.0
230
1.0
 70
     8
 71
     3
 72
    41
 73
    37
 74
     0
 42
0.00000001
 43
0.00000001
 12
1.0
 22
0.0
 32
0.0
 13
1.0
 23
0.0
 33
0.0
 40
-0.0940863461924268
 40
-0.0625078247652152
 40
-0.0310258629075543
 40
0.0
 40
0.0310242906253244
 40
0.0622662226162693
 40
0.0934347433001693
 40
0.1242056137042263
 40
0.1548772054140971
 40
0.1861443571093859
 40
0.2173181888294219
 40
0.2483915620469009
 40
0.2795146377993596
 40
0.3110742610863739
 40
0.3427559922214088
 40
0.37406166043216
 40
0.3746570645539
 40
0.4058392842981873
 40
0.4375138685462118
 40
0.4690250607370177
 40
0.500090738002294
 40
0.5311420762716377
 40
0.5623306158594548
 40
0.5935237402318553
 40
0.6242029185742297
 40
0.6549461911190941
 40
0.6861285550369575
 40
0.7173886213035418
 40
0.7484274500363312
 40
0.7795640621806577
 40
0.8111862515316146
 40
0.8428533764674562
 40
0.8742383878601205
 40
0.8746487878253315
 40
0.905913653807573
 40
0.9374921752347847
 40
0.9689741370924456
 40
0.9999999999999999
 40
1.031024290625324
 40
1.062266222616269
 40
1.093434743300169
 10
103.1793870327314
 20
146.5987731034778
 30
0.0
 10
103.7034252332438
 20
145.945542768178
 30
0.0
 10
104.3435011678242
 20
145.4080505560226
 30
0.0
 10
105.0805640417128
 20
145.0103208400014
 30
0.0
 10
105.8773423648938
 20
144.7577368393022
 30
0.0
 10
106.703999251309
 20
144.6741635384716
 30
0.0
 10
107.5298721604671
 20
144.7574880218768
 30
0.0
 10
108.3220937102429
 20
145.0079811698776
 30
0.0
 10
109.0550055784611
 20
145.4024935337304
 30
0.0
 10
109.6926179814771
 20
145.9347260231878
 30
0.0
 10
110.2175793178745
 20
146.5837075043024
 30
0.0
 10
110.6065340371044
 20
147.3304484837564
 30
0.0
 10
110.8548737807341
 20
148.1388356051178
 30
0.0
 10
110.9119134087714
 20
148.7070098121555
 30
0.0
 10
110.9129511786404
 20
149.269144373202
 30
0.0
 10
110.8577169495172
 20
149.8363420754973
 30
0.0
 10
110.6126009746879
 20
150.6440398417122
 30
0.0
 10
110.2277983318367
 20
151.3917610448849
 30
0.0
 10
109.7076056579031
 20
152.0431181811509
 30
0.0
 10
109.0736706970723
 20
152.5788711520763
 30
0.0
 10
108.3434965797783
 20
152.9769430133223
 30
0.0
 10
107.5530143809836
 20
153.231103971682
 30
0.0
 10
106.7285358474034
 20
153.3188456585821
 30
0.0
 10
105.9014928467666
 20
153.2402658920936
 30
0.0
 10
105.1031900854196
 20
152.9923983260921
 30
0.0
 10
104.3632865006057
 20
152.599003686154
 30
0.0
 10
103.7193275727306
 20
152.0640558891275
 30
0.0
 10
103.1908108615721
 20
151.4113395930389
 30
0.0
 10
102.8003543487897
 20
150.6614818761006
 30
0.0
 10
102.5520954032228
 20
149.8506963350024
 30
0.0
 10
102.4958340107417
 20
149.2835749997937
 30
0.0
 10
102.4948633531995
 20
148.7216390396429
 30
0.0
 10
102.5490154507291
 20
148.1562009018655
 30
0.0
 10
102.7933905185667
 20
147.3475014024971
 30
0.0
 10
103.1793870327314
 20
146.5987731034778
 30
0.0
 10
103.7034252332438
 20
145.945542768178
 30
0.0
 10
104.3435011678242
 20
145.4080505560226
 30
0.0
  0
SPLINE
  5
22B
330
1F
100
AcDbEntity
  8
0
  6
HIDDEN
 62
     7
370
     0
100
AcDbSpline
210
0.0
220
0.0
230
1.0
 70
     8
 71
     3
 72
    10
 73
     6
 74
     0
 42
0.00000001
 43
0.00000001
 12
1.0
 22
0.0
 32
0.0
 13
1.0
 23
0.0
 33
0.0
 40
0.0
 40
0.0
 40
0.0
 40
0.0
 40
0.5
 40
0.5
 40
1.0
 40
1.0
 40
1.0
 40
1.0
 10
83.89055920718441
 20
158.7597128731636
 30
0.0
 10
83.88165491807565
 20
158.6080046823173
 30
0.0
 10
83.86513953788267
 20
158.4532004662526
 30
0.0
 10
83.83803159182108
 20
158.1385619012988
 30
0.0
 10
83.827895832461
 20
157.9828079295804
 30
0.0
 10
83.827895832461
 20
157.8294184210008
 30
0.0
  0
SPLINE
  5
22C
330
1F
100
AcDbEntity
  8
0
  6
HIDDEN
 62
     7
370
     0
100
AcDbSpline
210
0.0
220
0.0
230
1.0
 70
     8
 71
     3
 72
    26
 73
    22
 74
     0
 42
0.00000001
 43
0.00000001
 12
1.0
 22
0.0
 32
0.0
 13
1.0
 23
0.0
 33
0.0
 40
0.0
 40
0.0
 40
0.0
 40
0.0
 40
0.25
 40
0.25
 40
0.3749999999999994
 40
0.3749999999999994
 40
0.437500000000001
 40
0.437500000000001
 40
0.4687500000000001
 40
0.4687500000000001
 40
0.4999999999999991
 40
0.4999999999999991
 40
0.5312499999999981
 40
0.5312499999999981
 40
0.5624999999999971
 40
0.5624999999999971
 40
0.6249999999999971
 40
0.6249999999999971
 40
0.7499999999999971
 40
0.7499999999999971
 40
1.0
 40
1.0
 40
1.0
 40
1.0
 10
84.6520494785655
 20
159.0201578849224
 30
0.0
 10
84.61344895569702
 20
159.2308808251307
 30
0.0
 10
84.56715195314277
 20
159.4372752992911
 30
0.0
 10
84.47321260470886
 20
159.7264505006683
 30
0.0
 10
84.43790113779541
 20
159.8198515127377
 30
0.0
 10
84.37172116204975
 20
159.9449330967323
 30
0.0
 10
84.34718279538153
 20
159.9846928052652
 30
0.0
 10
84.3038100498277
 20
160.0341072035562
 30
0.0
 10
84.28830164840252
 20
160.0488411809447
 30
0.0
 10
84.2532590038155
 20
160.0716525652373
 30
0.0
 10
84.23370871309574
 20
160.0795249291513
 30
0.0
 10
84.19178143272515
 20
160.079520751637
 30
0.0
 10
84.16912932249352
 20
160.0706577749797
 30
0.0
 10
84.12815560840689
 20
160.0356826565841
 30
0.0
 10
84.11055630851145
 20
160.0112578188076
 30
0.0
 10
84.0659293226553
 20
159.9329507815247
 30
0.0
 10
84.04537010000195
 20
159.8737307105289
 30
0.0
 10
83.99424466050527
 20
159.6989087300311
 30
0.0
 10
83.97333324751673
 20
159.579392481132
 30
0.0
 10
83.92188333995578
 20
159.2257351906874
 30
0.0
 10
83.90421804065123
 20
158.9924273424508
 30
0.0
 10
83.89055920718441
 20
158.7597128731636
 30
0.0
  0
SPLINE
  5
22D
330
1F
100
AcDbEntity
  8
0
  6
HIDDEN
 62
     7
370
     0
100
AcDbSpline
210
0.0
220
0.0
230
1.0
 70
     8
 71
     3
 72
    10
 73
     6
 74
     0
 42
0.00000001
 43
0.00000001
 12
1.0
 22
0.0
 32
0.0
 13
1.0
 23
0.0
 33
0.0
 40
0.0
 40
0.0
 40
0.0
 40
0.0
 40
0.5
 40
0.5
 40
1.0
 40
1.0
 40
1.0
 40
1.0
 10
84.96785090204278
 20
158.14918541977
 30
0.0
 10
84.90029164712453
 20
158.2950387002997
 30
0.0
 10
84.83665499178804
 20
158.4384253069266
 30
0.0
 10
84.7264342372162
 20
158.7258011098308
 30
0.0
 10
84.67961794399358
 20
158.8696597139047
 30
0.0
 10
84.6520494785655
 20
159.0201578849224
 30
0.0
  0
SPLINE
  5
22E
330
1F
100
AcDbEntity
  8
0
  6
HIDDEN
 62
     7
370
     0
100
AcDbSpline
210
0.0
220
0.0
230
1.0
 70
     8
 71
     3
 72
    10
 73
     6
 74
     0
 42
0.00000001
 43
0.00000001
 12
1.0
 22
0.0
 32
0.0
 13
1.0
 23
0.0
 33
0.0
 40
0.0
 40
0.0
 40
0.0
 40
0.0
 40
0.5
 40
0.5
 40
1.0
 40
1.0
 40
1.0
 40
1.0
 10
84.96785090204278
 20
139.8439863578419
 30
0.0
 10
84.90029164712453
 20
139.6981330773122
 30
0.0
 10
84.83665499178805
 20
139.5547464706853
 30
0.0
 10
84.7264342372162
 20
139.2673706677812
 30
0.0
 10
84.67961794399358
 20
139.1235120637073
 30
0.0
 10
84.6520494785655
 20
138.9730138926896
 30
0.0
  0
SPLINE
  5
22F
330
1F
100
AcDbEntity
  8
0
  6
HIDDEN
 62
     7
370
     0
100
AcDbSpline
210
0.0
220
0.0
230
1.0
 70
     8
 71
     3
 72
    26
 73
    22
 74
     0
 42
0.00000001
 43
0.00000001
 12
1.0
 22
0.0
 32
0.0
 13
1.0
 23
0.0
 33
0.0
 40
0.0
 40
0.0
 40
0.0
 40
0.0
 40
0.2499999999999852
 40
0.2499999999999852
 40
0.3749999999999783
 40
0.3749999999999783
 40
0.4374999999999766
 40
0.4374999999999766
 40
0.468749999999977
 40
0.468749999999977
 40
0.4999999999999774
 40
0.4999999999999774
 40
0.5312499999999777
 40
0.5312499999999777
 40
0.5624999999999781
 40
0.5624999999999781
 40
0.6249999999999808
 40
0.6249999999999808
 40
0.7499999999999863
 40
0.7499999999999863
 40
1.0
 40
1.0
 40
1.0
 40
1.0
 10
84.6520494785655
 20
138.9730138926896
 30
0.0
 10
84.61344895569702
 20
138.7622909524813
 30
0.0
 10
84.56715195314278
 20
138.5558964783209
 30
0.0
 10
84.47321260470886
 20
138.2667212769437
 30
0.0
 10
84.4379011377954
 20
138.1733202648743
 30
0.0
 10
84.37172116204975
 20
138.0482386808796
 30
0.0
 10
84.34718279538153
 20
138.0084789723468
 30
0.0
 10
84.30381004982773
 20
137.9590645740557
 30
0.0
 10
84.28830164840254
 20
137.9443305966673
 30
0.0
 10
84.2532590038155
 20
137.9215192123747
 30
0.0
 10
84.23370871309574
 20
137.9136468484607
 30
0.0
 10
84.19178143272515
 20
137.9136510259749
 30
0.0
 10
84.16912932249352
 20
137.9225140026323
 30
0.0
 10
84.12815560840689
 20
137.9574891210279
 30
0.0
 10
84.11055630851146
 20
137.9819139588044
 30
0.0
 10
84.0659293226553
 20
138.0602209960873
 30
0.0
 10
84.04537010000195
 20
138.1194410670831
 30
0.0
 10
83.99424466050527
 20
138.2942630475809
 30
0.0
 10
83.97333324751673
 20
138.41377929648
 30
0.0
 10
83.92188333995578
 20
138.7674365869246
 30
0.0
 10
83.90421804065123
 20
139.0007444351612
 30
0.0
 10
83.89055920718441
 20
139.2334589044484
 30
0.0
  0
SPLINE
  5
230
330
1F
100
AcDbEntity
  8
0
  6
HIDDEN
 62
     7
370
     0
100
AcDbSpline
210
0.0
220
0.0
230
1.0
 70
     8
 71
     3
 72
    10
 73
     6
 74
     0
 42
0.00000001
 43
0.00000001
 12
1.0
 22
0.0
 32
0.0
 13
1.0
 23
0.0
 33
0.0
 40
0.0
 40
0.0
 40
0.0
 40
0.0
 40
0.5
 40
0.5
 40
1.0
 40
1.0
 40
1.0
 40
1.0
 10
83.89055920718441
 20
139.2334589044484
 30
0.0
 10
83.88165491807565
 20
139.3851670952947
 30
0.0
 10
83.86513953788267
 20
139.5399713113594
 30
0.0
 10
83.83803159182108
 20
139.8546098763132
 30
0.0
 10
83.827895832461
 20
140.0103638480316
 30
0.0
 10
83.827895832461
 20
140.1637533566112
 30
0.0
  0
LINE
  5
231
330
1F
100
AcDbEntity
  8
0
  6
HIDDEN
 62
     7
370
     0
100
AcDbLine
 10
96.7318713282
 20
148.9965858888
 30
0.0
 11
96.7318713282
 21
165.9965868127
 31
0.0
  0
LINE
  5
232
330
1F
100
AcDbEntity
  8
0
  6
HIDDEN
 62
     7
370
     0
100
AcDbLine
 10
96.7318713282
 20
131.9965849649
 30
0.0
 11
96.7318713282
 21
148.9965858888
 31
0.0
  0
LINE
  5
233
330
1F
100
AcDbEntity
  8
0
  6
HIDDEN
 62
     7
370
     0
100
AcDbLine
 10
123.3877217945
 20
148.9965858888
 30
0.0
 11
123.3877217945
 21
165.9965868127
 31
0.0
  0
LINE
  5
234
330
1F
100
AcDbEntity
  8
0
  6
HIDDEN
 62
     7
370
     0
100
AcDbLine
 10
123.3877217945
 20
131.9965849649
 30
0.0
 11
123.3877217945
 21
148.9965858888
 31
0.0
  0
LINE
  5
235
330
1F
100
AcDbEntity
  8
0
  6
HIDDEN
 62
     7
370
     0
100
AcDbLine
 10
125.6778956939
 20
148.9965858888
 30
0.0
 11
125.6778956939
 21
164.7215857189
 31
0.0
  0
LINE
  5
236
330
1F
100
AcDbEntity
  8
0
  6
HIDDEN
 62
     7
370
     0
100
AcDbLine
 10
125.6778956939
 20
133.2715860587
 30
0.0
 11
125.6778956939
 21
148.9965858888
 31
0.0
  0
LINE
  5
237
330
1F
100
AcDbEntity
  8
0
  6
HIDDEN
 62
     7
370
     0
100
AcDbLine
 10
84.9778949831
 20
131.9965849649
 30
0.0
 11
84.9778949831
 21
139.7221711483
 31
0.0
  0
LINE
  5
238
330
1F
100
AcDbEntity
  8
0
  6
HIDDEN
 62
     7
370
     0
100
AcDbLine
 10
84.9778949831
 20
158.2766416501
 30
0.0
 11
84.9778949831
 21
165.9965868127
 31
0.0
  0
LINE
  5
239
330
1F
100
AcDbEntity
  8
0
  6
HIDDEN
 62
     7
370
     0
100
AcDbLine
 10
135.0278965745
 20
148.9965858888
 30
0.0
 11
135.0278965745
 21
158.4965855833
 31
0.0
  0
LINE
  5
23A
330
1F
100
AcDbEntity
  8
0
  6
HIDDEN
 62
     7
370
     0
100
AcDbLine
 10
135.0278965745
 20
139.4965861943
 30
0.0
 11
135.0278965745
 21
148.9965858888
 31
0.0
  0
LINE
  5
23B
330
1F
100
AcDbEntity
  8
0
  6
HIDDEN
 62
     7
370
     0
100
AcDbLine
 10
137.527896053
 20
148.9965858888
 30
0.0
 11
137.527896053
 21
158.4965855833
 31
0.0
  0
LINE
  5
23C
330
1F
100
AcDbEntity
  8
0
  6
HIDDEN
 62
     7
370
     0
100
AcDbLine
 10
137.527896053
 20
139.4965861943
 30
0.0
 11
137.527896053
 21
148.9965858888
 31
0.0
  0
LINE
  5
23D
330
1F
100
AcDbEntity
  8
0
  6
HIDDEN
 62
     7
370
     0
100
AcDbLine
 10
126.1778957758
 20
148.9965858888
 30
0.0
 11
126.1778957758
 21
157.4965863507
 31
0.0
  0
LINE
  5
23E
330
1F
100
AcDbEntity
  8
0
  6
HIDDEN
 62
     7
370
     0
100
AcDbLine
 10
126.1778957758
 20
140.4965854269
 30
0.0
 11
126.1778957758
 21
148.9965858888
 31
0.0
  0
LINE
  5
23F
330
1F
100
AcDbEntity
  8
0
  6
HIDDEN
 62
     7
370
     0
100
AcDbLine
 10
198.84193126
 20
146.5365857836
 30
0.0
 11
205.8379817371
 21
146.5365857836
 31
0.0
  0
LINE
  5
240
330
1F
100
AcDbEntity
  8
0
  6
HIDDEN
 62
     7
370
     0
100
AcDbLine
 10
198.84193126
 20
144.0365858395
 30
0.0
 11
205.5992055301
 21
144.0365858395
 31
0.0
  0
LINE
  5
241
330
1F
100
AcDbEntity
  8
0
  6
HIDDEN
 62
     7
370
     0
100
AcDbLine
 10
122.7278960485
 20
122.5965860319
 30
0.0
 11
118.0278958835
 21
122.5965860319
 31
0.0
  0
LINE
  5
242
330
1F
100
AcDbEntity
  8
0
  6
HIDDEN
 62
     7
370
     0
100
AcDbLine
 10
127.4278955151
 20
122.5965860319
 30
0.0
 11
122.7278960485
 21
122.5965860319
 31
0.0
  0
LINE
  5
243
330
1F
100
AcDbEntity
  8
0
  6
HIDDEN
 62
     7
370
     0
100
AcDbLine
 10
148.8278973464
 20
148.9965858888
 30
0.0
 11
148.8278973464
 21
153.196585739
 31
0.0
  0
LINE
  5
244
330
1F
100
AcDbEntity
  8
0
  6
HIDDEN
 62
     7
370
     0
100
AcDbLine
 10
148.8278973464
 20
144.7965860386
 30
0.0
 11
148.8278973464
 21
148.9965858888
 31
0.0
  0
LINE
  5
245
330
1F
100
AcDbEntity
  8
0
  6
HIDDEN
 62
     7
370
     0
100
AcDbLine
 10
149.8493570451
 20
148.9965858888
 30
0.0
 11
149.8493570451
 21
151.4965858329
 31
0.0
  0
LINE
  5
246
330
1F
100
AcDbEntity
  8
0
  6
HIDDEN
 62
     7
370
     0
100
AcDbLine
 10
149.8493570451
 20
146.4965859447
 30
0.0
 11
149.8493570451
 21
148.9965858888
 31
0.0
  0
LINE
  5
247
330
1F
100
AcDbEntity
  8
0
  6
HIDDEN
 62
     7
370
     0
100
AcDbLine
 10
153.2278973226
 20
167.8146011215
 30
0.0
 11
158.2278962795
 21
167.8146011215
 31
0.0
  0
LINE
  5
248
330
1F
100
AcDbEntity
  8
0
  6
HIDDEN
 62
     7
370
     0
100
AcDbLine
 10
152.7278963093
 20
167.9965852779
 30
0.0
 11
158.7278972928
 21
167.9965852779
 31
0.0
  0
LINE
  5
249
330
1F
100
AcDbEntity
  8
0
  6
HIDDEN
 62
     7
370
     0
100
AcDbLine
 10
205.9713396792
 20
143.5365857575
 30
0.0
 11
208.0713379745
 21
143.5365857575
 31
0.0
  0
LINE
  5
24A
330
1F
100
AcDbEntity
  8
0
  6
HIDDEN
 62
     7
370
     0
100
AcDbLine
 10
203.8713413839
 20
143.5365857575
 30
0.0
 11
205.9713396792
 21
143.5365857575
 31
0.0
  0
LWPOLYLINE
  5
24B
330
1F
100
AcDbEntity
  8
0
  6
HIDDEN
 62
     7
370
     0
100
AcDbPolyline
 90
       10
 70
   128
 43
0.0
 10
155.7278949384
 20
148.9965858888
 10
155.2685219411
 20
149.4559596719
 10
154.8247914378
 20
149.8996900297
 10
154.4118169312
 20
150.3126663407
 10
154.0436576668
 20
150.680825023
 10
153.732852972
 20
150.9916290194
 10
153.4899863962
 20
151.2344941981
 10
153.3233318094
 20
151.4011499491
 10
153.2385591034
 20
151.4859212581
 10
153.2278973226
 20
151.4965858329
  0
LWPOLYLINE
  5
24C
330
1F
100
AcDbEntity
  8
0
  6
HIDDEN
 62
     7
370
     0
100
AcDbPolyline
 90
       10
 70
   128
 43
0.0
 10
158.2278962795
 20
151.4965858329
 10
158.1899169449
 20
151.4586053342
 10
158.0771263305
 20
151.3458175138
 10
157.8929591541
 20
151.161649406
 10
157.6430070762
 20
150.9116969789
 10
157.3348659639
 20
150.6035549352
 10
156.9778974716
 20
150.2465858609
 10
156.5829459194
 20
149.8516362296
 10
156.162017918
 20
149.4307063364
 10
155.7278949384
 20
148.9965858888
  0
LWPOLYLINE
  5
24D
330
1F
100
AcDbEntity
  8
0
  6
HIDDEN
 62
     7
370
     0
100
AcDbPolyline
 90
        4
 70
   128
 43
0.0
 10
155.7278949384
 20
163.9562658053
 10
155.6582022075
 20
163.9018150997
 10
155.5885616306
 20
163.8474072349
 10
155.5190328125
 20
163.7930841204
  0
SPLINE
  5
24E
330
1F
100
AcDbEntity
  8
0
  6
HIDDEN
 62
     7
370
     0
100
AcDbSpline
210
0.0
220
0.0
230
1.0
 70
    24
 71
     3
 72
     8
 73
     4
 74
     0
 42
0.00000001
 43
0.00000001
 12
1.0
 22
0.0
 32
0.0
 13
1.0
 23
0.0
 33
0.0
 40
0.0
 40
0.0
 40
0.0
 40
0.0
 40
1.0
 40
1.0
 40
1.0
 40
1.0
 10
155.6004038946243
 20
164.119448298403
 30
0.0
 10
155.5732911679057
 20
164.0107050910237
 30
0.0
 10
155.5460852318307
 20
163.9015880413354
 30
0.0
 10
155.5190320911226
 20
163.7930838203907
 30
0.0
  0
LWPOLYLINE
  5
24F
330
1F
100
AcDbEntity
  8
0
  6
HIDDEN
 62
     7
370
     0
100
AcDbPolyline
 90
        3
 70
   128
 43
0.0
 10
155.6004043285
 20
164.1194484215
 10
155.6641291444
 20
164.0378841218
 10
155.7278949384
 20
163.9562658053
  0
LWPOLYLINE
  5
250
330
1F
100
AcDbEntity
  8
0
  6
HIDDEN
 62
     7
370
     0
100
AcDbPolyline
 90
       10
 70
   128
 43
0.0
 10
155.7278949384
 20
163.9562658053
 10
156.1872679357
 20
164.3151686546
 10
156.630998439
 20
164.6618488264
 10
157.0439766709
 20
164.9844999444
 10
157.4121359352
 20
165.2721370589
 10
157.7229406301
 20
165.5149645191
 10
157.9658034805
 20
165.7047121804
 10
158.1324617926
 20
165.8349166643
 10
158.2172307734
 20
165.9011486005
 10
158.2278962795
 20
165.9094802123
  0
LWPOLYLINE
  5
251
330
1F
100
AcDbEntity
  8
0
  6
HIDDEN
 62
     7
370
     0
100
AcDbPolyline
 90
       10
 70
   128
 43
0.0
 10
158.2278962795
 20
160.756411871
 10
158.1899169449
 20
160.8050250467
 10
158.0771263305
 20
160.949386565
 10
157.8929591541
 20
161.1851108279
 10
157.6430070762
 20
161.5050359648
 10
157.3348659639
 20
161.8994398993
 10
156.9778974716
 20
162.3563393038
 10
156.5829459194
 20
162.8618518841
 10
156.162017918
 20
163.4006173369
 10
155.7278949384
 20
163.9562658053
  0
LINE
  5
252
330
1F
100
AcDbEntity
  8
0
  6
HIDDEN
 62
     7
370
     0
100
AcDbLine
 10
164.5278948907
 20
151.4965858329
 30
0.0
 11
164.5278948907
 21
146.4965859447
 31
0.0
  0
LINE
  5
253
330
1F
100
AcDbEntity
  8
0
  6
HIDDEN
 62
     7
370
     0
100
AcDbLine
 10
205.9713396792
 20
132.0365852695
 30
0.0
 11
208.0713379745
 21
132.0365852695
 31
0.0
  0
LINE
  5
254
330
1F
100
AcDbEntity
  8
0
  6
HIDDEN
 62
     7
370
     0
100
AcDbLine
 10
203.8713413839
 20
132.0365852695
 30
0.0
 11
205.9713396792
 21
132.0365852695
 31
0.0
  0
LINE
  5
255
330
1F
100
AcDbEntity
  8
0
  6
HIDDEN
 62
     7
370
     0
100
AcDbLine
 10
197.8687736754
 20
143.8965857048
 30
0.0
 11
199.9687719707
 21
143.8965857048
 31
0.0
  0
LINE
  5
256
330
1F
100
AcDbEntity
  8
0
  6
HIDDEN
 62
     7
370
     0
100
AcDbLine
 10
195.7687753801
 20
143.8965857048
 30
0.0
 11
197.8687736754
 21
143.8965857048
 31
0.0
  0
LINE
  5
257
330
1F
100
AcDbEntity
  8
0
  6
HIDDEN
 62
     7
370
     0
100
AcDbLine
 10
198.84193126
 20
144.0365858395
 30
0.0
 11
198.84193126
 21
146.5365857836
 31
0.0
  0
ELLIPSE
  5
258
330
1F
100
AcDbEntity
  8
0
  6
HIDDEN
 62
     7
370
     0
100
AcDbEllipse
 10
197.8687744629
 20
140.0211087464
 30
0.0
 11
-1.361789089734799
 21
17.10265383053544
 31
0.0
210
0.0
220
0.0
230
1.0
 40
0.0934710297
 41
5.095772670770317
 42
5.236931605185382
  0
LINE
  5
259
330
1F
100
AcDbEntity
  8
0
  6
HIDDEN
 62
     7
370
     0
100
AcDbLine
 10
89.9278949563
 20
144.1265860591
 30
0.0
 11
89.9278949563
 21
141.7078365591
 31
0.0
  0
LINE
  5
25A
330
1F
100
AcDbEntity
  8
0
  6
HIDDEN
 62
     7
370
     0
100
AcDbLine
 10
89.9278949563
 20
153.8665857185
 30
0.0
 11
89.9278949563
 21
156.2853352186
 31
0.0
  0
LINE
  5
25B
330
1F
100
AcDbEntity
  8
0
  6
HIDDEN
 62
     7
370
     0
100
AcDbLine
 10
135.6117482845
 20
168.8465866279
 30
0.0
 11
141.6778955225
 21
168.8465866279
 31
0.0
  0
LINE
  5
25C
330
1F
100
AcDbEntity
  8
0
  6
HIDDEN
 62
     7
370
     0
100
AcDbLine
 10
127.9235165183
 20
168.8465866279
 30
0.0
 11
131.8440436933
 21
168.8465866279
 31
0.0
  0
ARC
  5
25D
330
1F
100
AcDbEntity
  8
0
  6
HIDDEN
 62
     7
370
     0
100
AcDbCircle
 10
127.9235161782
 20
176.8465858888
 30
0.0
 40
8.000000000000034
100
AcDbArc
 50
205.0819293509
 51
270.0
  0
LINE
  5
25E
330
1F
100
AcDbEntity
  8
0
  6
HIDDEN
 62
     7
370
     0
100
AcDbLine
 10
137.1198277537
 20
157.9965855014
 30
0.0
 11
137.1198277537
 21
156.9965862688
 31
0.0
  0
ARC
  5
25F
330
1F
100
AcDbEntity
  8
0
  6
HIDDEN
 62
     7
370
     0
100
AcDbCircle
 10
128.6778958325
 20
148.9965858888
 30
0.0
 40
8.0
100
AcDbArc
 50
90.0
 51
270.0
  0
LINE
  5
260
330
1F
100
AcDbEntity
  8
0
  6
HIDDEN
 62
     7
370
     0
100
AcDbLine
 10
132.2121936444
 20
156.9965862688
 30
0.0
 11
128.6778961856
 21
156.9965862688
 31
0.0
  0
LINE
  5
261
330
1F
100
AcDbEntity
  8
0
  6
HIDDEN
 62
     7
370
     0
100
AcDbLine
 10
141.6778955225
 20
156.9965862688
 30
0.0
 11
135.2435983334
 21
156.9965862688
 31
0.0
  0
LINE
  5
262
330
1F
100
AcDbEntity
  8
0
  6
HIDDEN
 62
     7
370
     0
100
AcDbLine
 10
135.2435983334
 20
140.9965855088
 30
0.0
 11
141.6778955225
 21
140.9965855088
 31
0.0
  0
LINE
  5
263
330
1F
100
AcDbEntity
  8
0
  6
HIDDEN
 62
     7
370
     0
100
AcDbLine
 10
128.6778961856
 20
140.9965855088
 30
0.0
 11
132.2121936444
 21
140.9965855088
 31
0.0
  0
LINE
  5
264
330
1F
100
AcDbEntity
  8
0
  6
HIDDEN
 62
     7
370
     0
100
AcDbLine
 10
205.9048805002
 20
148.2965859138
 30
0.0
 11
209.4713393215
 21
148.2965859138
 31
0.0
  0
LINE
  5
265
330
1F
100
AcDbEntity
  8
0
  6
HIDDEN
 62
     7
370
     0
100
AcDbLine
 10
202.4713400368
 20
148.2965859138
 30
0.0
 11
205.9048805002
 21
148.2965859138
 31
0.0
  0
LINE
  5
266
330
1F
100
AcDbEntity
  8
0
  6
HIDDEN
 62
     7
370
     0
100
AcDbLine
 10
205.9048805002
 20
148.0965859043
 30
0.0
 11
209.4713393215
 21
148.0965859043
 31
0.0
  0
LINE
  5
267
330
1F
100
AcDbEntity
  8
0
  6
HIDDEN
 62
     7
370
     0
100
AcDbLine
 10
202.4713400368
 20
148.0965859043
 30
0.0
 11
205.9048805002
 21
148.0965859043
 31
0.0
  0
LINE
  5
268
330
1F
100
AcDbEntity
  8
0
  6
HIDDEN
 62
     7
370
     0
100
AcDbLine
 10
205.9409562115
 20
138.5965858605
 30
0.0
 11
207.5713369612
 21
138.5965858605
 31
0.0
  0
LINE
  5
269
330
1F
100
AcDbEntity
  8
0
  6
HIDDEN
 62
     7
370
     0
100
AcDbLine
 10
204.3713423971
 20
138.5965858605
 30
0.0
 11
205.9409562115
 21
138.5965858605
 31
0.0
  0
LINE
  5
26A
330
1F
100
AcDbEntity
  8
0
  6
HIDDEN
 62
     7
370
     0
100
AcDbLine
 10
205.9238720302
 20
139.4965861943
 30
0.0
 11
208.471337295
 21
139.4965861943
 31
0.0
  0
LINE
  5
26B
330
1F
100
AcDbEntity
  8
0
  6
HIDDEN
 62
     7
370
     0
100
AcDbLine
 10
203.4713420633
 20
139.4965861943
 30
0.0
 11
205.9238720302
 21
139.4965861943
 31
0.0
  0
LINE
  5
26C
330
1F
100
AcDbEntity
  8
0
  6
HIDDEN
 62
     7
370
     0
100
AcDbLine
 10
205.9238720302
 20
144.7965860386
 30
0.0
 11
208.471337295
 21
144.7965860386
 31
0.0
  0
LINE
  5
26D
330
1F
100
AcDbEntity
  8
0
  6
HIDDEN
 62
     7
370
     0
100
AcDbLine
 10
203.4713420633
 20
144.7965860386
 30
0.0
 11
205.9238720302
 21
144.7965860386
 31
0.0
  0
SPLINE
  5
26E
330
1F
100
AcDbEntity
  8
0
  6
HIDDEN
 62
     7
370
     0
100
AcDbSpline
210
0.0
220
0.0
230
1.0
 70
     8
 71
     3
 72
    12
 73
     8
 74
     0
 42
0.00000001
 43
0.00000001
 12
1.0
 22
0.0
 32
0.0
 13
1.0
 23
0.0
 33
0.0
 40
0.0
 40
0.0
 40
0.0
 40
0.0
 40
0.2357946502567546
 40
0.4731986809365601
 40
0.7086257038654225
 40
0.9418046489173559
 40
1.0
 40
1.0
 40
1.0
 40
1.0
 10
207.6303753618418
 20
148.7454792328823
 30
0.0
 10
207.6725535319125
 20
148.7521484341087
 30
0.0
 10
207.7571977527211
 20
148.7655323561771
 30
0.0
 10
207.8592773478046
 20
148.7803024362313
 30
0.0
 10
207.922943497819
 20
148.789109096188
 30
0.0
 10
207.9482806630519
 20
148.7924012875566
 30
0.0
 10
207.9378628341314
 20
148.7907821637867
 30
0.0
 10
207.9357821110903
 20
148.7904587808477
 30
0.0
  0
SPLINE
  5
26F
330
1F
100
AcDbEntity
  8
0
  6
HIDDEN
 62
     7
370
     0
100
AcDbSpline
210
0.0
220
0.0
230
1.0
 70
     8
 71
     3
 72
    10
 73
     6
 74
     0
 42
0.00000001
 43
0.00000001
 12
1.0
 22
0.0
 32
0.0
 13
1.0
 23
0.0
 33
0.0
 40
0.0
 40
0.0
 40
0.0
 40
0.0
 40
0.3342381722944344
 40
0.670274226825284
 40
0.9999999999999999
 40
0.9999999999999999
 40
0.9999999999999999
 40
0.9999999999999999
 10
207.920076287192
 20
148.7879721204696
 30
0.0
 10
207.9018840698167
 20
148.7852581934822
 30
0.0
 10
207.8654017783066
 20
148.7798157411715
 30
0.0
 10
207.7660091862174
 20
148.7648954724988
 30
0.0
 10
207.6845630663
 20
148.7518325475735
 30
0.0
 10
207.6442259911715
 20
148.7453629921835
 30
0.0
  0
SPLINE
  5
270
330
1F
100
AcDbEntity
  8
0
  6
HIDDEN
 62
     7
370
     0
100
AcDbSpline
210
0.0
220
0.0
230
1.0
 70
     8
 71
     3
 72
    11
 73
     7
 74
     0
 42
0.00000001
 43
0.00000001
 12
1.0
 22
0.0
 32
0.0
 13
1.0
 23
0.0
 33
0.0
 40
0.0
 40
0.0
 40
0.0
 40
0.0
 40
0.254540311793238
 40
0.5095177559883511
 40
0.7593558622805298
 40
0.9999999999999999
 40
0.9999999999999999
 40
0.9999999999999999
 40
0.9999999999999999
 10
207.6442259911715
 20
148.7453629921835
 30
0.0
 10
207.5715635722256
 20
148.7338568634054
 30
0.0
 10
207.4261139482146
 20
148.7108248459075
 30
0.0
 10
207.2570286850372
 20
148.6925839245357
 30
0.0
 10
207.1450034041526
 20
148.6930784592812
 30
0.0
 10
207.1319704848717
 20
148.7081949279741
 30
0.0
 10
207.1255761746584
 20
148.7156114850838
 30
0.0
  0
LINE
  5
271
330
1F
100
AcDbEntity
  8
0
  6
HIDDEN
 62
     7
370
     0
100
AcDbLine
 10
207.1577552323
 20
148.7453629922
 30
0.0
 11
207.1749288205
 21
148.7630466833
 31
0.0
  0
SPLINE
  5
272
330
1F
100
AcDbEntity
  8
0
  6
HIDDEN
 62
     7
370
     0
100
AcDbSpline
210
0.0
220
0.0
230
1.0
 70
     8
 71
     3
 72
    15
 73
    11
 74
     0
 42
0.00000001
 43
0.00000001
 12
1.0
 22
0.0
 32
0.0
 13
1.0
 23
0.0
 33
0.0
 40
0.0
 40
0.0
 40
0.0
 40
0.0
 40
0.1268026208767873
 40
0.2539251105502254
 40
0.3799833668452425
 40
0.5048377910589747
 40
0.6290214518432959
 40
0.7532070423007062
 40
0.8780555100180936
 40
1.0
 40
1.0
 40
1.0
 40
1.0
 10
205.4961416486918
 20
148.7457427098595
 30
0.0
 10
205.4631365538804
 20
148.7524585844328
 30
0.0
 10
205.397043106515
 20
148.7659072748594
 30
0.0
 10
205.2667790661754
 20
148.7806167382697
 30
0.0
 10
205.1319534520082
 20
148.7898473313429
 30
0.0
 10
205.0055072820826
 20
148.7927842682433
 30
0.0
 10
204.9018234654947
 20
148.7894588004219
 30
0.0
 10
204.8325784744605
 20
148.7800360446498
 30
0.0
 10
204.8018402014649
 20
148.7654916102884
 30
0.0
 10
204.8173713197003
 20
148.752429196915
 30
0.0
 10
204.8250455025851
 20
148.7459748420112
 30
0.0
  0
SPLINE
  5
273
330
1F
100
AcDbEntity
  8
0
  6
HIDDEN
 62
     7
370
     0
100
AcDbSpline
210
0.0
220
0.0
230
1.0
 70
     8
 71
     3
 72
    15
 73
    11
 74
     0
 42
0.00000001
 43
0.00000001
 12
1.0
 22
0.0
 32
0.0
 13
1.0
 23
0.0
 33
0.0
 40
0.0
 40
0.0
 40
0.0
 40
0.0
 40
0.1262565331641874
 40
0.2533828096783589
 40
0.3794466932598609
 40
0.5043009610545293
 40
0.6284819471312459
 40
0.7526643506748447
 40
0.8775104487821149
 40
1.0
 40
1.0
 40
1.0
 40
1.0
 10
204.3071556452929
 20
148.7462379115347
 30
0.0
 10
204.2649281503165
 20
148.7529236972448
 30
0.0
 10
204.1801822678291
 20
148.7663413250354
 30
0.0
 10
204.0788444305232
 20
148.7810428017847
 30
0.0
 10
204.0123664617798
 20
148.7902853258852
 30
0.0
 10
203.9890527135321
 20
148.7932333673308
 30
0.0
 10
204.0104417521385
 20
148.7899165561864
 30
0.0
 10
204.0740289248087
 20
148.7805000064343
 30
0.0
 10
204.1710719961392
 20
148.7659385913512
 30
0.0
 10
204.2528203012378
 20
148.7528404673194
 30
0.0
 10
204.2933050159632
 20
148.7463538029876
 30
0.0
  0
SPLINE
  5
274
330
1F
100
AcDbEntity
  8
0
  6
HIDDEN
 62
     7
370
     0
100
AcDbSpline
210
0.0
220
0.0
230
1.0
 70
     8
 71
     3
 72
    10
 73
     6
 74
     0
 42
0.00000001
 43
0.00000001
 12
1.0
 22
0.0
 32
0.0
 13
1.0
 23
0.0
 33
0.0
 40
0.0
 40
0.0
 40
0.0
 40
0.0
 40
0.3352099578206065
 40
0.6709768751847239
 40
1.0
 40
1.0
 40
1.0
 40
1.0
 10
204.2933050159632
 20
148.7463538029876
 30
0.0
 10
204.3656105855734
 20
148.7349429854584
 30
0.0
 10
204.5103418622663
 20
148.7121023910475
 30
0.0
 10
204.6847988098729
 20
148.6925763406938
 30
0.0
 10
204.7472600774418
 20
148.6961738749014
 30
0.0
 10
204.7781739000498
 20
148.6979543948725
 30
0.0
  0
SPLINE
  5
275
330
1F
100
AcDbEntity
  8
0
  6
HIDDEN
 62
     7
370
     0
100
AcDbSpline
210
0.0
220
0.0
230
1.0
 70
     8
 71
     3
 72
     9
 73
     5
 74
     0
 42
0.00000001
 43
0.00000001
 12
1.0
 22
0.0
 32
0.0
 13
1.0
 23
0.0
 33
0.0
 40
0.0
 40
0.0
 40
0.0
 40
0.0
 40
0.0235598814109846
 40
0.9999999999999999
 40
0.9999999999999999
 40
0.9999999999999999
 40
0.9999999999999999
 10
204.8119548324763
 20
148.7166238036185
 30
0.0
 10
204.812221796825
 20
148.7167667495947
 30
0.0
 10
204.8235531080502
 20
148.7228340966103
 30
0.0
 10
204.8014072903349
 20
148.7347341315044
 30
0.0
 10
204.7797832254587
 20
148.7463538029876
 30
0.0
  0
SPLINE
  5
276
330
1F
100
AcDbEntity
  8
0
  6
HIDDEN
 62
     7
370
     0
100
AcDbSpline
210
0.0
220
0.0
230
1.0
 70
     8
 71
     3
 72
    15
 73
    11
 74
     0
 42
0.00000001
 43
0.00000001
 12
1.0
 22
0.0
 32
0.0
 13
1.0
 23
0.0
 33
0.0
 40
0.0
 40
0.0
 40
0.0
 40
0.0
 40
0.0116176338071577
 40
0.1555075010616532
 40
0.2981941439578143
 40
0.4395208788524456
 40
0.5800874655965517
 40
0.7206666436421841
 40
0.8620053738206279
 40
0.9999999999999999
 40
0.9999999999999999
 40
0.9999999999999999
 40
0.9999999999999999
 10
204.7626021866022
 20
148.7640247902779
 30
0.0
 10
204.7620570996032
 20
148.7645471037977
 30
0.0
 10
204.7547608533543
 20
148.7715385162988
 30
0.0
 10
204.7829579251962
 20
148.7809335769107
 30
0.0
 10
204.8483803527044
 20
148.7904099925412
 30
0.0
 10
204.952531474675
 20
148.7932145342718
 30
0.0
 10
205.0775825739695
 20
148.7898545022807
 30
0.0
 10
205.2106341648584
 20
148.7803729195872
 30
0.0
 10
205.3383802183679
 20
148.765783512822
 30
0.0
 10
205.4044093954776
 20
148.7527009048061
 30
0.0
 10
205.4370287422358
 20
148.7462379115347
 30
0.0
  0
SPLINE
  5
277
330
1F
100
AcDbEntity
  8
0
  6
HIDDEN
 62
     7
370
     0
100
AcDbSpline
210
0.0
220
0.0
230
1.0
 70
     8
 71
     3
 72
    12
 73
     8
 74
     0
 42
0.00000001
 43
0.00000001
 12
1.0
 22
0.0
 32
0.0
 13
1.0
 23
0.0
 33
0.0
 40
0.0
 40
0.0
 40
0.0
 40
0.0
 40
0.2058342713358124
 40
0.4120779028101838
 40
0.6141732693905406
 40
0.8133039377705714
 40
1.0
 40
1.0
 40
1.0
 40
1.0
 10
205.4370287422358
 20
148.7462379115347
 30
0.0
 10
205.4959402285942
 20
148.7347448279824
 30
0.0
 10
205.6138803635993
 20
148.7117358036042
 30
0.0
 10
205.8415166948998
 20
148.6932093000813
 30
0.0
 10
206.0722378658839
 20
148.6945002502461
 30
0.0
 10
206.2841978219161
 20
148.7139410543755
 30
0.0
 10
206.3901301924282
 20
148.7355288264382
 30
0.0
 10
206.4413893584429
 20
148.7459748420112
 30
0.0
  0
SPLINE
  5
278
330
1F
100
AcDbEntity
  8
0
  6
HIDDEN
 62
     7
370
     0
100
AcDbSpline
210
0.0
220
0.0
230
1.0
 70
     8
 71
     3
 72
    15
 73
    11
 74
     0
 42
0.00000001
 43
0.00000001
 12
1.0
 22
0.0
 32
0.0
 13
1.0
 23
0.0
 33
0.0
 40
0.0
 40
0.0
 40
0.0
 40
0.0
 40
0.1413662186859007
 40
0.2830915809715351
 40
0.4236312447210058
 40
0.5628269611168565
 40
0.7012807963600587
 40
0.8397501441492639
 40
0.9789649065316933
 40
1.0
 40
1.0
 40
1.0
 40
1.0
 10
206.4413893584429
 20
148.7459748420112
 30
0.0
 10
206.4743930263436
 20
148.7526769392738
 30
0.0
 10
206.5404842085987
 20
148.766098160606
 30
0.0
 10
206.6707270271463
 20
148.7807468704429
 30
0.0
 10
206.805593070679
 20
148.7899164518447
 30
0.0
 10
206.9318524211693
 20
148.7927682018437
 30
0.0
 10
207.0362102786516
 20
148.7894388272386
 30
0.0
 10
207.1029501180626
 20
148.779716916183
 30
0.0
 10
207.1319334342042
 20
148.7698106319194
 30
0.0
 10
207.1253851933818
 20
148.7624217871677
 30
0.0
 10
207.1245256427943
 20
148.7614518952502
 30
0.0
  0
LINE
  5
279
330
1F
100
AcDbEntity
  8
0
  6
HIDDEN
 62
     7
370
     0
100
AcDbLine
 10
207.1124855045
 20
148.7457427099
 30
0.0
 11
207.0923391346
 21
148.7195902406
 31
0.0
  0
SPLINE
  5
27A
330
1F
100
AcDbEntity
  8
0
  6
HIDDEN
 62
     7
370
     0
100
AcDbSpline
210
0.0
220
0.0
230
1.0
 70
     8
 71
     3
 72
    11
 73
     7
 74
     0
 42
0.00000001
 43
0.00000001
 12
1.0
 22
0.0
 32
0.0
 13
1.0
 23
0.0
 33
0.0
 40
0.0
 40
0.0
 40
0.0
 40
0.0
 40
0.2597164061373942
 40
0.51420267973611
 40
0.7649569020675588
 40
0.9999999999999999
 40
0.9999999999999999
 40
0.9999999999999999
 40
0.9999999999999999
 10
207.0879432920634
 20
148.7138840854347
 30
0.0
 10
207.1001550133642
 20
148.7065377958038
 30
0.0
 10
207.1243325380362
 20
148.6919931550916
 30
0.0
 10
207.2530999460921
 20
148.6941664979991
 30
0.0
 10
207.4256793433326
 20
148.7133986410535
 30
0.0
 10
207.5636305108174
 20
148.7350187738173
 30
0.0
 10
207.6303753618418
 20
148.7454792328823
 30
0.0
  0
LINE
  5
27B
330
1F
100
AcDbEntity
  8
0
  6
HIDDEN
 62
     7
370
     0
100
AcDbLine
 10
207.1272302036
 20
147.0965858568
 30
0.0
 11
206.4413893584
 21
147.0965858568
 31
0.0
  0
LINE
  5
27C
330
1F
100
AcDbEntity
  8
0
  6
HIDDEN
 62
     7
370
     0
100
AcDbLine
 10
205.4370287422
 20
147.0965858568
 30
0.0
 11
204.7609407071
 21
147.0965858568
 31
0.0
  0
LINE
  5
27D
330
1F
100
AcDbEntity
  8
0
  6
HIDDEN
 62
     7
370
     0
100
AcDbLine
 10
206.4413893584
 20
147.0965858568
 30
0.0
 11
205.4370287422
 21
147.0965858568
 31
0.0
  0
LINE
  5
27E
330
1F
100
AcDbEntity
  8
0
  6
HIDDEN
 62
     7
370
     0
100
AcDbLine
 10
207.6303753618
 20
147.0965858568
 30
0.0
 11
207.1272302036
 21
147.0965858568
 31
0.0
  0
LINE
  5
27F
330
1F
100
AcDbEntity
  8
0
  6
HIDDEN
 62
     7
370
     0
100
AcDbLine
 10
204.7609407071
 20
147.0965858568
 30
0.0
 11
204.293305016
 21
147.0965858568
 31
0.0
  0
LINE
  5
280
330
1F
100
AcDbEntity
  8
0
  6
HIDDEN
 62
     7
370
     0
100
AcDbLine
 10
207.9410571222
 20
147.0965858568
 30
0.0
 11
207.6303753618
 21
147.0965858568
 31
0.0
  0
LINE
  5
281
330
1F
100
AcDbEntity
  8
0
  6
HIDDEN
 62
     7
370
     0
100
AcDbLine
 10
204.293305016
 20
147.0965858568
 30
0.0
 11
203.9964813356
 21
147.0965858568
 31
0.0
  0
LINE
  5
282
330
1F
100
AcDbEntity
  8
0
  6
HIDDEN
 62
     7
370
     0
100
AcDbLine
 10
197.1017438535
 20
144.0365858395
 30
0.0
 11
198.84193126
 21
144.0365858395
 31
0.0
  0
LINE
  5
283
330
1F
100
AcDbEntity
  8
0
  6
HIDDEN
 62
     7
370
     0
100
AcDbLine
 10
197.1017438535
 20
144.0365858395
 30
0.0
 11
196.8147847418
 21
145.5388473366
 31
0.0
  0
LINE
  5
284
330
1F
100
AcDbEntity
  8
0
  6
HIDDEN
 62
     7
370
     0
100
AcDbLine
 10
206.0713413719
 20
148.2183626755
 30
0.0
 11
206.0713413719
 21
148.5771927943
 31
0.0
  0
LINE
  5
285
330
1F
100
AcDbEntity
  8
0
  6
HIDDEN
 62
     7
370
     0
100
AcDbLine
 10
204.7857660417
 20
148.3275260213
 30
0.0
 11
204.7964874272
 21
148.327724684
 31
0.0
  0
SPLINE
  5
286
330
1F
100
AcDbEntity
  8
0
  6
HIDDEN
 62
     7
370
     0
100
AcDbSpline
210
0.0
220
0.0
230
1.0
 70
    24
 71
     3
 72
     9
 73
     5
 74
     0
 42
0.00000001
 43
0.00000001
 12
1.0
 22
0.0
 32
0.0
 13
1.0
 23
0.0
 33
0.0
 40
0.0
 40
0.0
 40
0.0
 40
0.0
 40
0.255156336801835
 40
1.0
 40
1.0
 40
1.0
 40
1.0
 10
206.0713413719355
 20
148.1671702019118
 30
0.0
 10
206.0713413719355
 20
148.1636612899462
 30
0.0
 10
206.0713413719355
 20
148.1499092820221
 30
0.0
 10
206.0713413719355
 20
148.1891411025879
 30
0.0
 10
206.0713413719355
 20
148.2183626755319
 30
0.0
  0
LINE
  5
287
330
1F
100
AcDbEntity
  8
0
  6
HIDDEN
 62
     7
370
     0
100
AcDbLine
 10
207.3469552759
 20
148.3276974429
 30
0.0
 11
207.3569167022
 21
148.3275260213
 31
0.0
  0
SPLINE
  5
288
330
1F
100
AcDbEntity
  8
0
  6
HIDDEN
 62
     7
370
     0
100
AcDbSpline
210
0.0
220
0.0
230
1.0
 70
     8
 71
     3
 72
    11
 73
     7
 74
     0
 42
0.00000001
 43
0.00000001
 12
1.0
 22
0.0
 32
0.0
 13
1.0
 23
0.0
 33
0.0
 40
0.0
 40
0.0
 40
0.0
 40
0.0
 40
0.3367837763691904
 40
0.6790142744631034
 40
0.9923682123111114
 40
0.9999999999999999
 40
0.9999999999999999
 40
0.9999999999999999
 40
0.9999999999999999
 10
198.1144416693865
 20
148.0948702916682
 30
0.0
 10
198.1929162180225
 20
148.0745766548918
 30
0.0
 10
198.351134464995
 20
148.0336611773101
 30
0.0
 10
198.5907765902452
 20
148.0700872279868
 30
0.0
 10
198.7379191458329
 20
148.1311774308768
 30
0.0
 10
198.8043141867624
 20
148.1693199798714
 30
0.0
 10
198.805892801684
 20
148.1702268608093
 30
0.0
  0
SPLINE
  5
289
330
1F
100
AcDbEntity
  8
0
  6
HIDDEN
 62
     7
370
     0
100
AcDbSpline
210
0.0
220
0.0
230
1.0
 70
     8
 71
     3
 72
    11
 73
     7
 74
     0
 42
0.00000001
 43
0.00000001
 12
1.0
 22
0.0
 32
0.0
 13
1.0
 23
0.0
 33
0.0
 40
0.0
 40
0.0
 40
0.0
 40
0.0
 40
0.0076317931991982
 40
0.3209955633153626
 40
0.6632159804659061
 40
1.0
 40
1.0
 40
1.0
 40
1.0
 10
213.3367824916064
 20
148.1702268608093
 30
0.0
 10
213.3383611064069
 20
148.169319979556
 30
0.0
 10
213.4047581292225
 20
148.1311762758206
 30
0.0
 10
213.5519021397307
 20
148.0700901002602
 30
0.0
 10
213.791543049733
 20
148.0336608484786
 30
0.0
 10
213.9497590138932
 20
148.0745763395321
 30
0.0
 10
214.0282336239039
 20
148.0948702916682
 30
0.0
  0
LINE
  5
28A
330
1F
100
AcDbEntity
  8
0
  6
HIDDEN
 62
     7
370
     0
100
AcDbLine
 10
214.0282336239
 20
148.0948702917
 30
0.0
 11
215.3278980021
 21
148.5771927943
 31
0.0
  0
LINE
  5
28B
330
1F
100
AcDbEntity
  8
0
  6
HIDDEN
 62
     7
370
     0
100
AcDbLine
 10
198.1144416694
 20
148.0948702917
 30
0.0
 11
196.8147847418
 21
148.5771927943
 31
0.0
  0
LINE
  5
28C
330
1F
100
AcDbEntity
  8
0
  6
HIDDEN
 62
     7
370
     0
100
AcDbLine
 10
199.6052059893
 20
148.3275260213
 30
0.0
 11
199.61766336
 21
148.3277943586
 31
0.0
  0
LINE
  5
28D
330
1F
100
AcDbEntity
  8
0
  6
HIDDEN
 62
     7
370
     0
100
AcDbLine
 10
212.5205117826
 20
148.3280235222
 30
0.0
 11
212.5374767546
 21
148.3275260213
 31
0.0
  0
LINE
  5
28E
330
1F
100
AcDbEntity
  8
0
  6
HIDDEN
 62
     7
370
     0
100
AcDbLine
 10
158.7278972928
 20
173.5065857899
 30
0.0
 11
158.7278972928
 21
174.0565857869
 31
0.0
  0
LINE
  5
28F
330
1F
100
AcDbEntity
  8
0
  6
HIDDEN
 62
     7
370
     0
100
AcDbLine
 10
152.7278963093
 20
174.0565857869
 30
0.0
 11
152.7278963093
 21
173.5065857899
 31
0.0
  0
LINE
  5
290
330
1F
100
AcDbEntity
  8
0
  6
HIDDEN
 62
     7
370
     0
100
AcDbLine
 10
152.7278963093
 20
173.5065857899
 30
0.0
 11
152.9278959696
 21
172.9963234645
 31
0.0
  0
LINE
  5
291
330
1F
100
AcDbEntity
  8
0
  6
HIDDEN
 62
     7
370
     0
100
AcDbLine
 10
158.5278976325
 20
172.9963234645
 30
0.0
 11
158.7278972928
 21
173.5065857899
 31
0.0
  0
LINE
  5
292
330
1F
100
AcDbEntity
  8
0
  6
HIDDEN
 62
     7
370
     0
100
AcDbLine
 10
152.7278963093
 20
172.1265855264
 30
0.0
 11
152.9278959696
 21
171.616323201
 31
0.0
  0
LINE
  5
293
330
1F
100
AcDbEntity
  8
0
  6
HIDDEN
 62
     7
370
     0
100
AcDbLine
 10
158.5278976325
 20
171.616323201
 30
0.0
 11
158.7278972928
 21
172.1265855264
 31
0.0
  0
LINE
  5
294
330
1F
100
AcDbEntity
  8
0
  6
HIDDEN
 62
     7
370
     0
100
AcDbLine
 10
152.7278963093
 20
172.8165856581
 30
0.0
 11
152.9278959696
 21
172.3063233327
 31
0.0
  0
LINE
  5
295
330
1F
100
AcDbEntity
  8
0
  6
HIDDEN
 62
     7
370
     0
100
AcDbLine
 10
158.5278976325
 20
172.3063233327
 30
0.0
 11
158.7278972928
 21
172.8165856581
 31
0.0
  0
LINE
  5
296
330
1F
100
AcDbEntity
  8
0
  6
HIDDEN
 62
     7
370
     0
100
AcDbLine
 10
158.7278972928
 20
174.0565857869
 30
0.0
 11
158.5878971581
 21
174.1965859216
 31
0.0
  0
LINE
  5
297
330
1F
100
AcDbEntity
  8
0
  6
HIDDEN
 62
     7
370
     0
100
AcDbLine
 10
152.867896444
 20
174.1965859216
 30
0.0
 11
152.7278963093
 21
174.0565857869
 31
0.0
  0
LINE
  5
298
330
1F
100
AcDbEntity
  8
0
  6
HIDDEN
 62
     7
370
     0
100
AcDbLine
 10
158.7278972928
 20
172.8165856581
 30
0.0
 11
158.5278976325
 21
172.9963234645
 31
0.0
  0
LINE
  5
299
330
1F
100
AcDbEntity
  8
0
  6
HIDDEN
 62
     7
370
     0
100
AcDbLine
 10
152.9278959696
 20
172.9963234645
 30
0.0
 11
152.7278963093
 21
172.8165856581
 31
0.0
  0
LINE
  5
29A
330
1F
100
AcDbEntity
  8
0
  6
HIDDEN
 62
     7
370
     0
100
AcDbLine
 10
158.7278972928
 20
172.1265855264
 30
0.0
 11
158.5278976325
 21
172.3063233327
 31
0.0
  0
LINE
  5
29B
330
1F
100
AcDbEntity
  8
0
  6
HIDDEN
 62
     7
370
     0
100
AcDbLine
 10
152.9278959696
 20
172.3063233327
 30
0.0
 11
152.7278963093
 21
172.1265855264
 31
0.0
  0
LINE
  5
29C
330
1F
100
AcDbEntity
  8
0
  6
HIDDEN
 62
     7
370
     0
100
AcDbLine
 10
152.7278963093
 20
171.4365853947
 30
0.0
 11
152.9278959696
 21
170.9263230693
 31
0.0
  0
LINE
  5
29D
330
1F
100
AcDbEntity
  8
0
  6
HIDDEN
 62
     7
370
     0
100
AcDbLine
 10
158.5278976325
 20
170.9263230693
 30
0.0
 11
158.7278972928
 21
171.4365853947
 31
0.0
  0
LINE
  5
29E
330
1F
100
AcDbEntity
  8
0
  6
HIDDEN
 62
     7
370
     0
100
AcDbLine
 10
158.7278972928
 20
171.4365853947
 30
0.0
 11
158.5278976325
 21
171.616323201
 31
0.0
  0
LINE
  5
29F
330
1F
100
AcDbEntity
  8
0
  6
HIDDEN
 62
     7
370
     0
100
AcDbLine
 10
152.9278959696
 20
171.616323201
 30
0.0
 11
152.7278963093
 21
171.4365853947
 31
0.0
  0
LINE
  5
2A0
330
1F
100
AcDbEntity
  8
0
  6
HIDDEN
 62
     7
370
     0
100
AcDbLine
 10
158.7278972928
 20
167.9965852779
 30
0.0
 11
158.7278972928
 21
170.746585263
 31
0.0
  0
LINE
  5
2A1
330
1F
100
AcDbEntity
  8
0
  6
HIDDEN
 62
     7
370
     0
100
AcDbLine
 10
152.7278963093
 20
170.746585263
 30
0.0
 11
152.7278963093
 21
167.9965852779
 31
0.0
  0
LINE
  5
2A2
330
1F
100
AcDbEntity
  8
0
  6
HIDDEN
 62
     7
370
     0
100
AcDbLine
 10
158.7278972928
 20
170.746585263
 30
0.0
 11
158.5278976325
 21
170.9263230693
 31
0.0
  0
LINE
  5
2A3
330
1F
100
AcDbEntity
  8
0
  6
HIDDEN
 62
     7
370
     0
100
AcDbLine
 10
152.9278959696
 20
170.9263230693
 30
0.0
 11
152.7278963093
 21
170.746585263
 31
0.0
  0
LINE
  5
2A4
330
1F
100
AcDbEntity
  8
0
  6
HIDDEN
 62
     7
370
     0
100
AcDbLine
 10
152.7278963093
 20
167.9965852779
 30
0.0
 11
153.247510976
 21
167.6965857875
 31
0.0
  0
LINE
  5
2A5
330
1F
100
AcDbEntity
  8
0
  6
HIDDEN
 62
     7
370
     0
100
AcDbLine
 10
158.2082789008
 20
167.6965857875
 30
0.0
 11
158.7278972928
 21
167.9965852779
 31
0.0
  0
LINE
  5
2A6
330
1F
100
AcDbEntity
  8
0
  6
HIDDEN
 62
     7
370
     0
100
AcDbLine
 10
153.2278973226
 20
169.3399622124
 30
0.0
 11
155.7278949384
 21
167.8965854477
 31
0.0
  0
LINE
  5
2A7
330
1F
100
AcDbEntity
  8
0
  6
HIDDEN
 62
     7
370
     0
100
AcDbLine
 10
155.7278949384
 20
167.8965854477
 30
0.0
 11
158.2278962795
 21
169.3399622124
 31
0.0
  0
LINE
  5
2A8
330
1F
100
AcDbEntity
  8
0
  6
HIDDEN
 62
     7
370
     0
100
AcDbLine
 10
158.2278962795
 20
169.3399622124
 30
0.0
 11
158.2278962795
 21
174.1965859216
 31
0.0
  0
LINE
  5
2A9
330
1F
100
AcDbEntity
  8
0
  6
HIDDEN
 62
     7
370
     0
100
AcDbLine
 10
153.2278973226
 20
174.1965859216
 30
0.0
 11
153.2278973226
 21
169.3399622124
 31
0.0
  0
CIRCLE
  5
2AA
330
1F
100
AcDbEntity
  8
0
  6
HIDDEN
 62
     7
370
     0
100
AcDbCircle
 10
155.7278958325
 20
170.7965858888
 30
0.0
 40
2.5
  0
LINE
  5
2AB
330
1F
100
AcDbEntity
  8
0
  6
HIDDEN
 62
     7
370
     0
100
AcDbLine
 10
115.7278958325
 20
123.6726622116
 30
0.0
 11
115.8220566702
 21
124.3426519465
 31
0.0
  0
LINE
  5
2AC
330
1F
100
AcDbEntity
  8
0
  6
HIDDEN
 62
     7
370
     0
100
AcDbLine
 10
115.8220566702
 20
173.6505198311
 30
0.0
 11
115.7278958325
 21
174.320509566
 31
0.0
  0
ARC
  5
2AD
330
1F
100
AcDbEntity
  8
0
  6
HIDDEN
 62
     7
370
     0
100
AcDbCircle
 10
115.2278958325
 20
124.4261550271
 30
0.0
 40
0.5999999999999943
100
AcDbArc
 50
352.0
 51
0.0
  0
ARC
  5
2AE
330
1F
100
AcDbEntity
  8
0
  6
HIDDEN
 62
     7
370
     0
100
AcDbCircle
 10
115.2278958325
 20
124.4261550271
 30
0.0
 40
0.6000000000000019
100
AcDbArc
 50
0.0
 51
33.5573097619
  0
ARC
  5
2AF
330
1F
100
AcDbEntity
  8
0
  6
HIDDEN
 62
     7
370
     0
100
AcDbCircle
 10
115.2278958325
 20
173.5670167505
 30
0.0
 40
0.599999999999998
100
AcDbArc
 50
348.75
 51
8.0
  0
LWPOLYLINE
  5
2B0
330
1F
100
AcDbEntity
  8
0
  6
HIDDEN
 62
     7
370
     0
100
AcDbPolyline
 90
        3
 70
   128
 43
0.0
 10
115.8163670023
 20
173.44996324
 10
115.7822235526
 20
173.3374073189
 10
115.7278958325
 20
173.2353548538
  0
LINE
  5
2B1
330
1F
100
AcDbEntity
  8
0
  6
HIDDEN
 62
     7
370
     0
100
AcDbLine
 10
115.8278958299
 20
124.4261543285
 30
0.0
 11
115.8278958299
 21
173.5670174491
 31
0.0
  0
ARC
  5
2B2
330
1F
100
AcDbEntity
  8
0
  6
HIDDEN
 62
     7
370
     0
100
AcDbCircle
 10
109.4828978341
 20
136.9965858888
 30
0.0
 40
7.999999999999987
100
AcDbArc
 50
270.0
 51
321.3178125465
  0
ARC
  5
2B3
330
1F
100
AcDbEntity
  8
0
  6
HIDDEN
 62
     7
370
     0
100
AcDbCircle
 10
109.4828978341
 20
160.9965858888
 30
0.0
 40
7.999999999999987
100
AcDbArc
 50
38.6821874535
 51
90.0
  0
LINE
  5
2B4
330
1F
100
AcDbEntity
  8
0
  6
HIDDEN
 62
     7
370
     0
100
AcDbLine
 10
98.8103318576
 20
128.9965863358
 30
0.0
 11
109.4828978729
 21
128.9965863358
 31
0.0
  0
LINE
  5
2B5
330
1F
100
AcDbEntity
  8
0
  6
HIDDEN
 62
     7
370
     0
100
AcDbLine
 10
109.4828978729
 20
168.9965854418
 30
0.0
 11
98.8103318576
 21
168.9965854418
 31
0.0
  0
ARC
  5
2B6
330
1F
100
AcDbEntity
  8
0
  6
HIDDEN
 62
     7
370
     0
100
AcDbCircle
 10
98.8103313978
 20
129.5965858888
 30
0.0
 40
0.599999999999989
100
AcDbArc
 50
210.0
 51
270.0
  0
ARC
  5
2B7
330
1F
100
AcDbEntity
  8
0
  6
HIDDEN
 62
     7
370
     0
100
AcDbCircle
 10
98.8103313978
 20
168.3965858888
 30
0.0
 40
0.5999999999999943
100
AcDbArc
 50
90.0
 51
150.0
  0
LINE
  5
2B8
330
1F
100
AcDbEntity
  8
0
  6
HIDDEN
 62
     7
370
     0
100
AcDbLine
 10
98.2907153283
 20
168.6965859514
 30
0.0
 11
96.7318713282
 21
165.9965868127
 31
0.0
  0
LINE
  5
2B9
330
1F
100
AcDbEntity
  8
0
  6
HIDDEN
 62
     7
370
     0
100
AcDbLine
 10
96.7318713282
 20
131.9965849649
 30
0.0
 11
98.2907153283
 21
129.2965858262
 31
0.0
  0
ARC
  5
2BA
330
1F
100
AcDbEntity
  8
0
  6
HIDDEN
 62
     7
370
     0
100
AcDbCircle
 10
124.1778958325
 20
133.2715858888
 30
0.0
 40
1.500000000000001
100
AcDbArc
 50
238.2116693829
 51
0.0
  0
ARC
  5
2BB
330
1F
100
AcDbEntity
  8
0
  6
HIDDEN
 62
     7
370
     0
100
AcDbCircle
 10
124.1778958325
 20
164.7215858888
 30
0.0
 40
1.500000000000025
100
AcDbArc
 50
0.0
 51
121.7883306171
  0
LINE
  5
2BC
330
1F
100
AcDbEntity
  8
0
  6
HIDDEN
 62
     7
370
     0
100
AcDbLine
 10
115.7278958325
 20
131.9965849649
 30
0.0
 11
123.3877217945
 21
131.9965849649
 31
0.0
  0
LINE
  5
2BD
330
1F
100
AcDbEntity
  8
0
  6
HIDDEN
 62
     7
370
     0
100
AcDbLine
 10
123.3877217945
 20
165.9965868127
 30
0.0
 11
115.7278958325
 21
165.9965868127
 31
0.0
  0
LINE
  5
2BE
330
1F
100
AcDbEntity
  8
0
  6
HIDDEN
 62
     7
370
     0
100
AcDbLine
 10
84.9778949831
 20
131.9965849649
 30
0.0
 11
96.7318713282
 21
131.9965849649
 31
0.0
  0
LINE
  5
2BF
330
1F
100
AcDbEntity
  8
0
  6
HIDDEN
 62
     7
370
     0
100
AcDbLine
 10
96.7318713282
 20
165.9965868127
 30
0.0
 11
84.9778949831
 21
165.9965868127
 31
0.0
  0
LINE
  5
2C0
330
1F
100
AcDbEntity
  8
0
  6
HIDDEN
 62
     7
370
     0
100
AcDbLine
 10
83.8278960053
 20
131.3326339256
 30
0.0
 11
84.9778949831
 21
131.9965849649
 31
0.0
  0
LINE
  5
2C1
330
1F
100
AcDbEntity
  8
0
  6
HIDDEN
 62
     7
370
     0
100
AcDbLine
 10
84.9778949831
 20
165.9965868127
 30
0.0
 11
83.8278960053
 21
166.660537852
 31
0.0
  0
LINE
  5
2C2
330
1F
100
AcDbEntity
  8
0
  6
HIDDEN
 62
     7
370
     0
100
AcDbLine
 10
135.0278965745
 20
139.4965861943
 30
0.0
 11
137.527896053
 21
139.4965861943
 31
0.0
  0
LINE
  5
2C3
330
1F
100
AcDbEntity
  8
0
  6
HIDDEN
 62
     7
370
     0
100
AcDbLine
 10
137.527896053
 20
158.4965855833
 30
0.0
 11
135.0278965745
 21
158.4965855833
 31
0.0
  0
LINE
  5
2C4
330
1F
100
AcDbEntity
  8
0
  6
HIDDEN
 62
     7
370
     0
100
AcDbLine
 10
125.6778956939
 20
139.9965862762
 30
0.0
 11
126.1778957758
 21
140.4965854269
 31
0.0
  0
LINE
  5
2C5
330
1F
100
AcDbEntity
  8
0
  6
HIDDEN
 62
     7
370
     0
100
AcDbLine
 10
126.1778957758
 20
157.4965863507
 30
0.0
 11
125.6778956939
 21
157.9965855014
 31
0.0
  0
LINE
  5
2C6
330
1F
100
AcDbEntity
  8
0
  6
HIDDEN
 62
     7
370
     0
100
AcDbLine
 10
126.1778957758
 20
140.4965854269
 30
0.0
 11
135.0278965745
 21
140.4965854269
 31
0.0
  0
LINE
  5
2C7
330
1F
100
AcDbEntity
  8
0
  6
HIDDEN
 62
     7
370
     0
100
AcDbLine
 10
135.0278965745
 20
157.4965863507
 30
0.0
 11
126.1778957758
 21
157.4965863507
 31
0.0
  0
LINE
  5
2C8
330
1F
100
AcDbEntity
  8
0
  6
HIDDEN
 62
     7
370
     0
100
AcDbLine
 10
117.7278959275
 20
122.2965865415
 30
0.0
 11
117.7278959275
 21
117.4965853822
 31
0.0
  0
LINE
  5
2C9
330
1F
100
AcDbEntity
  8
0
  6
HIDDEN
 62
     7
370
     0
100
AcDbLine
 10
127.7278959368
 20
117.4965853822
 30
0.0
 11
127.7278959368
 21
122.2965865415
 31
0.0
  0
ARC
  5
2CA
330
1F
100
AcDbEntity
  8
0
  6
HIDDEN
 62
     7
370
     0
100
AcDbCircle
 10
118.0278958325
 20
122.2965858888
 30
0.0
 40
0.2999999999999972
100
AcDbArc
 50
90.0
 51
180.0
  0
ARC
  5
2CB
330
1F
100
AcDbEntity
  8
0
  6
HIDDEN
 62
     7
370
     0
100
AcDbCircle
 10
127.4278958325
 20
122.2965858888
 30
0.0
 40
0.2999999999999972
100
AcDbArc
 50
0.0
 51
90.0
  0
LINE
  5
2CC
330
1F
100
AcDbEntity
  8
0
  6
HIDDEN
 62
     7
370
     0
100
AcDbLine
 10
137.527896053
 20
144.7965860386
 30
0.0
 11
148.8278973464
 21
144.7965860386
 31
0.0
  0
LINE
  5
2CD
330
1F
100
AcDbEntity
  8
0
  6
HIDDEN
 62
     7
370
     0
100
AcDbLine
 10
148.8278973464
 20
153.196585739
 30
0.0
 11
137.527896053
 21
153.196585739
 31
0.0
  0
LINE
  5
2CE
330
1F
100
AcDbEntity
  8
0
  6
HIDDEN
 62
     7
370
     0
100
AcDbLine
 10
148.8278973464
 20
144.7965860386
 30
0.0
 11
149.8493570451
 21
146.4965859447
 31
0.0
  0
LINE
  5
2CF
330
1F
100
AcDbEntity
  8
0
  6
HIDDEN
 62
     7
370
     0
100
AcDbLine
 10
149.8493570451
 20
151.4965858329
 30
0.0
 11
148.8278973464
 21
153.196585739
 31
0.0
  0
LINE
  5
2D0
330
1F
100
AcDbEntity
  8
0
  6
HIDDEN
 62
     7
370
     0
100
AcDbLine
 10
152.7278963093
 20
167.9965852779
 30
0.0
 11
153.2278973226
 21
167.8146011215
 31
0.0
  0
LINE
  5
2D1
330
1F
100
AcDbEntity
  8
0
  6
HIDDEN
 62
     7
370
     0
100
AcDbLine
 10
158.2278962795
 20
167.8146011215
 30
0.0
 11
158.7278972928
 21
167.9965852779
 31
0.0
  0
LINE
  5
2D2
330
1F
100
AcDbEntity
  8
0
  6
HIDDEN
 62
     7
370
     0
100
AcDbLine
 10
152.7278963093
 20
174.9965864252
 30
0.0
 11
152.7278963093
 21
167.9965852779
 31
0.0
  0
LINE
  5
2D3
330
1F
100
AcDbEntity
  8
0
  6
HIDDEN
 62
     7
370
     0
100
AcDbLine
 10
158.7278972928
 20
167.9965852779
 30
0.0
 11
158.7278972928
 21
174.9965864252
 31
0.0
  0
LINE
  5
2D4
330
1F
100
AcDbEntity
  8
0
  6
HIDDEN
 62
     7
370
     0
100
AcDbLine
 10
203.3713403706
 20
144.0365858395
 30
0.0
 11
203.8713413839
 21
143.5365857575
 31
0.0
  0
LINE
  5
2D5
330
1F
100
AcDbEntity
  8
0
  6
HIDDEN
 62
     7
370
     0
100
AcDbLine
 10
208.0713379745
 20
143.5365857575
 30
0.0
 11
208.5713389877
 21
144.0365858395
 31
0.0
  0
LINE
  5
2D6
330
1F
100
AcDbEntity
  8
0
  6
HIDDEN
 62
     7
370
     0
100
AcDbLine
 10
153.2278973226
 20
167.8146011215
 30
0.0
 11
153.2278973226
 21
151.4965858329
 31
0.0
  0
LINE
  5
2D7
330
1F
100
AcDbEntity
  8
0
  6
HIDDEN
 62
     7
370
     0
100
AcDbLine
 10
158.2278962795
 20
165.9094802123
 30
0.0
 11
158.2278962795
 21
167.8146011215
 31
0.0
  0
LINE
  5
2D8
330
1F
100
AcDbEntity
  8
0
  6
HIDDEN
 62
     7
370
     0
100
AcDbLine
 10
158.2278962795
 20
151.4965858329
 30
0.0
 11
158.2278962795
 21
160.756411871
 31
0.0
  0
LINE
  5
2D9
330
1F
100
AcDbEntity
  8
0
  6
HIDDEN
 62
     7
370
     0
100
AcDbLine
 10
149.8493570451
 20
146.4965859447
 30
0.0
 11
164.5278948907
 21
146.4965859447
 31
0.0
  0
LINE
  5
2DA
330
1F
100
AcDbEntity
  8
0
  6
HIDDEN
 62
     7
370
     0
100
AcDbLine
 10
153.2278973226
 20
151.4965858329
 30
0.0
 11
149.8493570451
 21
151.4965858329
 31
0.0
  0
LINE
  5
2DB
330
1F
100
AcDbEntity
  8
0
  6
HIDDEN
 62
     7
370
     0
100
AcDbLine
 10
164.5278948907
 20
151.4965858329
 30
0.0
 11
158.2278962795
 21
151.4965858329
 31
0.0
  0
LINE
  5
2DC
330
1F
100
AcDbEntity
  8
0
  6
HIDDEN
 62
     7
370
     0
100
AcDbLine
 10
163.4656320874
 20
164.6035657283
 30
0.0
 11
158.2278962795
 21
165.9094802123
 31
0.0
  0
LINE
  5
2DD
330
1F
100
AcDbEntity
  8
0
  6
HIDDEN
 62
     7
370
     0
100
AcDbLine
 10
158.2278962795
 20
160.756411871
 30
0.0
 11
164.9452428881
 21
159.0815893393
 31
0.0
  0
LINE
  5
2DE
330
1F
100
AcDbEntity
  8
0
  6
HIDDEN
 62
     7
370
     0
100
AcDbLine
 10
164.5278948907
 20
146.4965859447
 30
0.0
 11
166.030047423
 21
148.9965858888
 31
0.0
  0
LINE
  5
2DF
330
1F
100
AcDbEntity
  8
0
  6
HIDDEN
 62
     7
370
     0
100
AcDbLine
 10
166.030047423
 20
148.9965858888
 30
0.0
 11
164.5278948907
 21
151.4965858329
 31
0.0
  0
LINE
  5
2E0
330
1F
100
AcDbEntity
  8
0
  6
HIDDEN
 62
     7
370
     0
100
AcDbLine
 10
203.8713413839
 20
143.5365857575
 30
0.0
 11
203.8713413839
 21
132.0365852695
 31
0.0
  0
LINE
  5
2E1
330
1F
100
AcDbEntity
  8
0
  6
HIDDEN
 62
     7
370
     0
100
AcDbLine
 10
208.0713379745
 20
132.0365852695
 30
0.0
 11
208.0713379745
 21
143.5365857575
 31
0.0
  0
LINE
  5
2E2
330
1F
100
AcDbEntity
  8
0
  6
HIDDEN
 62
     7
370
     0
100
AcDbLine
 10
203.8713413839
 20
132.0365852695
 30
0.0
 11
205.9713396792
 21
130.774779154
 31
0.0
  0
LINE
  5
2E3
330
1F
100
AcDbEntity
  8
0
  6
HIDDEN
 62
     7
370
     0
100
AcDbLine
 10
205.9713396792
 20
130.774779154
 30
0.0
 11
208.0713379745
 21
132.0365852695
 31
0.0
  0
LINE
  5
2E4
330
1F
100
AcDbEntity
  8
0
  6
HIDDEN
 62
     7
370
     0
100
AcDbLine
 10
195.7687753801
 20
148.6965858746
 30
0.0
 11
195.7687753801
 21
143.8965857048
 31
0.0
  0
LINE
  5
2E5
330
1F
100
AcDbEntity
  8
0
  6
HIDDEN
 62
     7
370
     0
100
AcDbLine
 10
199.9687719707
 20
143.8965857048
 30
0.0
 11
199.9687719707
 21
144.0365858395
 31
0.0
  0
LINE
  5
2E6
330
1F
100
AcDbEntity
  8
0
  6
HIDDEN
 62
     7
370
     0
100
AcDbLine
 10
195.7687753801
 20
143.8965857048
 30
0.0
 11
197.8687736754
 21
142.6347786579
 31
0.0
  0
LINE
  5
2E7
330
1F
100
AcDbEntity
  8
0
  6
HIDDEN
 62
     7
370
     0
100
AcDbLine
 10
197.8687736754
 20
142.6347786579
 30
0.0
 11
199.9687719707
 21
143.8965857048
 31
0.0
  0
LINE
  5
2E8
330
1F
100
AcDbEntity
  8
0
  6
HIDDEN
 62
     7
370
     0
100
AcDbLine
 10
209.4713393215
 20
148.2965859138
 30
0.0
 11
208.6053136353
 21
148.7965858939
 31
0.0
  0
LINE
  5
2E9
330
1F
100
AcDbEntity
  8
0
  6
HIDDEN
 62
     7
370
     0
100
AcDbLine
 10
203.3373657231
 20
148.7965858939
 30
0.0
 11
202.4713400368
 21
148.2965859138
 31
0.0
  0
LINE
  5
2EA
330
1F
100
AcDbEntity
  8
0
  6
HIDDEN
 62
     7
370
     0
100
AcDbLine
 10
202.4713400368
 20
148.0965859043
 30
0.0
 11
203.4912425641
 21
146.330054991
 31
0.0
  0
LINE
  5
2EB
330
1F
100
AcDbEntity
  8
0
  6
HIDDEN
 62
     7
370
     0
100
AcDbLine
 10
208.4514293436
 20
146.330054991
 30
0.0
 11
209.4713393215
 21
148.0965859043
 31
0.0
  0
LINE
  5
2EC
330
1F
100
AcDbEntity
  8
0
  6
HIDDEN
 62
     7
370
     0
100
AcDbLine
 10
202.4713400368
 20
148.2965859138
 30
0.0
 11
202.4713400368
 21
148.0965859043
 31
0.0
  0
LINE
  5
2ED
330
1F
100
AcDbEntity
  8
0
  6
HIDDEN
 62
     7
370
     0
100
AcDbLine
 10
209.4713393215
 20
148.0965859043
 30
0.0
 11
209.4713393215
 21
148.2965859138
 31
0.0
  0
LINE
  5
2EE
330
1F
100
AcDbEntity
  8
0
  6
HIDDEN
 62
     7
370
     0
100
AcDbLine
 10
203.4713420633
 20
139.4965861943
 30
0.0
 11
204.3713423971
 21
138.5965858605
 31
0.0
  0
LINE
  5
2EF
330
1F
100
AcDbEntity
  8
0
  6
HIDDEN
 62
     7
370
     0
100
AcDbLine
 10
207.5713369612
 20
138.5965858605
 30
0.0
 11
208.471337295
 21
139.4965861943
 31
0.0
  0
LINE
  5
2F0
330
1F
100
AcDbEntity
  8
0
  6
HIDDEN
 62
     7
370
     0
100
AcDbLine
 10
203.4713420633
 20
144.7965860386
 30
0.0
 11
203.4713420633
 21
139.4965861943
 31
0.0
  0
LINE
  5
2F1
330
1F
100
AcDbEntity
  8
0
  6
HIDDEN
 62
     7
370
     0
100
AcDbLine
 10
208.471337295
 20
139.4965861943
 30
0.0
 11
208.471337295
 21
144.7965860386
 31
0.0
  0
ARC
  5
2F2
330
1F
100
AcDbEntity
  8
0
  6
HIDDEN
 62
     7
370
     0
100
AcDbCircle
 10
202.1922080446
 20
145.580054994
 30
0.0
 40
1.500000000000014
100
AcDbArc
 50
328.5124864464
 51
30.0
  0
ARC
  5
2F3
330
1F
100
AcDbEntity
  8
0
  6
HIDDEN
 62
     7
370
     0
100
AcDbCircle
 10
209.7504700807
 20
145.580054994
 30
0.0
 40
1.500000000000014
100
AcDbArc
 50
150.0
 51
211.4875135536
  0
LINE
  5
2F4
330
1F
100
AcDbEntity
  8
0
  6
HIDDEN
 62
     7
370
     0
100
AcDbLine
 10
203.971335626
 20
148.7965858939
 30
0.0
 11
204.0012646083
 21
148.7913093694
 31
0.0
  0
LINE
  5
2F5
330
1F
100
AcDbEntity
  8
0
  6
HIDDEN
 62
     7
370
     0
100
AcDbLine
 10
207.9358119134
 20
148.7903211634
 30
0.0
 11
207.9713362817
 21
148.7965858939
 31
0.0
  0
LINE
  5
2F6
330
1F
100
AcDbEntity
  8
0
  6
HIDDEN
 62
     7
370
     0
100
AcDbLine
 10
207.1272302036
 20
147.0965858568
 30
0.0
 11
207.1272302036
 21
148.7614518953
 31
0.0
  0
LINE
  5
2F7
330
1F
100
AcDbEntity
  8
0
  6
HIDDEN
 62
     7
370
     0
100
AcDbLine
 10
204.7609407071
 20
148.7640247903
 30
0.0
 11
204.7609407071
 21
147.0965858568
 31
0.0
  0
LINE
  5
2F8
330
1F
100
AcDbEntity
  8
0
  6
HIDDEN
 62
     7
370
     0
100
AcDbLine
 10
207.0866915945
 20
148.7195902406
 30
0.0
 11
207.0866915945
 21
147.0965858568
 31
0.0
  0
LINE
  5
2F9
330
1F
100
AcDbEntity
  8
0
  6
HIDDEN
 62
     7
370
     0
100
AcDbLine
 10
204.8127594952
 20
147.0965858568
 30
0.0
 11
204.8127594952
 21
148.7166238036
 31
0.0
  0
LINE
  5
2FA
330
1F
100
AcDbEntity
  8
0
  6
HIDDEN
 62
     7
370
     0
100
AcDbLine
 10
207.9410571222
 20
147.0965858568
 30
0.0
 11
207.9410571222
 21
148.7912960835
 31
0.0
  0
LINE
  5
2FB
330
1F
100
AcDbEntity
  8
0
  6
HIDDEN
 62
     7
370
     0
100
AcDbLine
 10
203.9964813356
 20
148.7921936165
 30
0.0
 11
203.9964813356
 21
147.0965858568
 31
0.0
  0
LINE
  5
2FC
330
1F
100
AcDbEntity
  8
0
  6
HIDDEN
 62
     7
370
     0
100
AcDbLine
 10
207.1247789625
 20
148.7156114851
 30
0.0
 11
207.1247789625
 21
147.0965858568
 31
0.0
  0
LINE
  5
2FD
330
1F
100
AcDbEntity
  8
0
  6
HIDDEN
 62
     7
370
     0
100
AcDbLine
 10
204.8508394126
 20
147.0965858568
 30
0.0
 11
204.8508394126
 21
148.7198935899
 31
0.0
  0
LINE
  5
2FE
330
1F
100
AcDbEntity
  8
0
  6
HIDDEN
 62
     7
370
     0
100
AcDbLine
 10
207.1765977506
 20
147.0965858568
 30
0.0
 11
207.1765977506
 21
148.7630466833
 31
0.0
  0
LINE
  5
2FF
330
1F
100
AcDbEntity
  8
0
  6
HIDDEN
 62
     7
370
     0
100
AcDbLine
 10
204.8103082542
 20
148.7616496267
 30
0.0
 11
204.8103082542
 21
147.0965858568
 31
0.0
  0
SPLINE
  5
300
330
1F
100
AcDbEntity
  8
0
  6
HIDDEN
 62
     7
370
     0
100
AcDbSpline
210
0.0
220
0.0
230
1.0
 70
     8
 71
     3
 72
    10
 73
     6
 74
     0
 42
0.00000001
 43
0.00000001
 12
1.0
 22
0.0
 32
0.0
 13
1.0
 23
0.0
 33
0.0
 40
0.0
 40
0.0
 40
0.0
 40
0.0
 40
0.3103103523689918
 40
0.7388770585226121
 40
0.9999999999999999
 40
0.9999999999999999
 40
0.9999999999999999
 40
0.9999999999999999
 10
204.7966140870272
 20
148.3153836704038
 30
0.0
 10
204.9123031732741
 20
148.3122169575661
 30
0.0
 10
205.1877693673495
 20
148.304676727442
 30
0.0
 10
205.6263565385146
 20
148.2466600897334
 30
0.0
 10
205.9466377470871
 20
148.1751004547162
 30
0.0
 10
206.0678992036997
 20
148.1480073086165
 30
0.0
  0
SPLINE
  5
301
330
1F
100
AcDbEntity
  8
0
  6
HIDDEN
 62
     7
370
     0
100
AcDbSpline
210
0.0
220
0.0
230
1.0
 70
     8
 71
     3
 72
    10
 73
     6
 74
     0
 42
0.00000001
 43
0.00000001
 12
1.0
 22
0.0
 32
0.0
 13
1.0
 23
0.0
 33
0.0
 40
0.0
 40
0.0
 40
0.0
 40
0.0
 40
0.2041699587189885
 40
0.6427319493232783
 40
1.0
 40
1.0
 40
1.0
 40
1.0
 10
206.0753050808131
 20
148.1470598043121
 30
0.0
 10
206.1706652519386
 20
148.1694738011689
 30
0.0
 10
206.4708613682522
 20
148.2400336033174
 30
0.0
 10
206.9117231201393
 20
148.3002694693502
 30
0.0
 10
207.2131034881539
 20
148.3117343602466
 30
0.0
 10
207.3484006885706
 20
148.3168812371038
 30
0.0
  0
LINE
  5
302
330
1F
100
AcDbEntity
  8
0
  6
HIDDEN
 62
     7
370
     0
100
AcDbLine
 10
199.5579246048
 20
148.3275260213
 30
0.0
 11
204.7857660417
 21
148.3275260213
 31
0.0
  0
LINE
  5
303
330
1F
100
AcDbEntity
  8
0
  6
HIDDEN
 62
     7
370
     0
100
AcDbLine
 10
207.3569167022
 20
148.3275260213
 30
0.0
 11
212.5374767546
 21
148.3275260213
 31
0.0
  0
ARC
  5
304
330
1F
100
AcDbEntity
  8
0
  6
HIDDEN
 62
     7
370
     0
100
AcDbCircle
 10
202.4713390626
 20
147.646585889
 30
0.0
 40
0.2000000000000171
100
AcDbArc
 50
180.0
 51
249.8944902121
  0
ARC
  5
305
330
1F
100
AcDbEntity
  8
0
  6
HIDDEN
 62
     7
370
     0
100
AcDbCircle
 10
209.6713390626
 20
147.646585889
 30
0.0
 40
0.199999999999995
100
AcDbArc
 50
290.1055097879
 51
0.0
  0
LINE
  5
306
330
1F
100
AcDbEntity
  8
0
  6
HIDDEN
 62
     7
370
     0
100
AcDbLine
 10
202.2713366512
 20
148.7965858939
 30
0.0
 11
202.2713366512
 21
147.6465858538
 31
0.0
  0
LINE
  5
307
330
1F
100
AcDbEntity
  8
0
  6
HIDDEN
 62
     7
370
     0
100
AcDbLine
 10
209.871338642
 20
147.6465858538
 30
0.0
 11
209.871338642
 21
148.7965858939
 31
0.0
  0
ARC
  5
308
330
1F
100
AcDbEntity
  8
0
  6
HIDDEN
 62
     7
370
     0
100
AcDbCircle
 10
201.9213390626
 20
146.1440879688
 30
0.0
 40
1.400000000000011
100
AcDbArc
 50
0.0
 51
69.8944902121
  0
ARC
  5
309
330
1F
100
AcDbEntity
  8
0
  6
HIDDEN
 62
     7
370
     0
100
AcDbCircle
 10
210.2213390626
 20
146.1440879688
 30
0.0
 40
1.400000000000006
100
AcDbArc
 50
110.1055097879
 51
180.0
  0
LINE
  5
30A
330
1F
100
AcDbEntity
  8
0
  6
HIDDEN
 62
     7
370
     0
100
AcDbLine
 10
203.3213395242
 20
146.1440880336
 30
0.0
 11
203.3213395242
 21
144.0365858395
 31
0.0
  0
LINE
  5
30B
330
1F
100
AcDbEntity
  8
0
  6
HIDDEN
 62
     7
370
     0
100
AcDbLine
 10
208.8213357691
 20
144.0365858395
 30
0.0
 11
208.8213357691
 21
146.1440880336
 31
0.0
  0
SPLINE
  5
30C
330
1F
100
AcDbEntity
  8
0
  6
HIDDEN
 62
     7
370
     0
100
AcDbSpline
210
0.0
220
0.0
230
1.0
 70
     8
 71
     3
 72
    10
 73
     6
 74
     0
 42
0.00000001
 43
0.00000001
 12
1.0
 22
0.0
 32
0.0
 13
1.0
 23
0.0
 33
0.0
 40
0.0
 40
0.0
 40
0.0
 40
0.0
 40
0.2312307460673119
 40
0.6848183714778381
 40
1.0
 40
1.0
 40
1.0
 40
1.0
 10
198.8651472691714
 20
148.1834423281431
 30
0.0
 10
198.8962692123594
 20
148.1988482650238
 30
0.0
 10
198.9884406852876
 20
148.2444748470642
 30
0.0
 10
199.2461970468041
 20
148.3053168941219
 30
0.0
 10
199.5167377461815
 20
148.3109157537012
 30
0.0
 10
199.6276545886217
 20
148.3132111858755
 30
0.0
  0
SPLINE
  5
30D
330
1F
100
AcDbEntity
  8
0
  6
HIDDEN
 62
     7
370
     0
100
AcDbSpline
210
0.0
220
0.0
230
1.0
 70
     8
 71
     3
 72
    11
 73
     7
 74
     0
 42
0.00000001
 43
0.00000001
 12
1.0
 22
0.0
 32
0.0
 13
1.0
 23
0.0
 33
0.0
 40
0.0
 40
0.0
 40
0.0
 40
0.0
 40
0.0513897089314859
 40
0.4161823277893237
 40
0.7965457645067429
 40
1.0
 40
1.0
 40
1.0
 40
1.0
 10
212.5232908491312
 20
148.3187429509304
 30
0.0
 10
212.5446577820012
 20
148.3189096782261
 30
0.0
 10
212.7176990395693
 20
148.3202599282173
 30
0.0
 10
212.980181201006
 20
148.2851338256426
 30
0.0
 10
213.231583239908
 20
148.2183161400858
 30
0.0
 10
213.304982423673
 20
148.1747493351218
 30
0.0
 10
213.3305612568079
 20
148.1595667679973
 30
0.0
  0
LINE
  5
30E
330
1F
100
AcDbEntity
  8
0
  6
HIDDEN
 62
     7
370
     0
100
AcDbLine
 10
199.890779293
 20
148.7965858939
 30
0.0
 11
198.8058928017
 21
148.1702268608
 31
0.0
  0
LINE
  5
30F
330
1F
100
AcDbEntity
  8
0
  6
HIDDEN
 62
     7
370
     0
100
AcDbLine
 10
213.3367824916
 20
148.1702268608
 30
0.0
 11
212.2518960003
 21
148.7965858939
 31
0.0
  0
SPLINE
  5
310
330
1F
100
AcDbEntity
  8
0
  6
HIDDEN
 62
     7
370
     0
100
AcDbSpline
210
0.0
220
0.0
230
1.0
 70
     8
 71
     3
 72
     9
 73
     5
 74
     0
 42
0.00000001
 43
0.00000001
 12
1.0
 22
0.0
 32
0.0
 13
1.0
 23
0.0
 33
0.0
 40
0.0
 40
0.0
 40
0.0
 40
0.0
 40
0.9020168929481505
 40
1.0
 40
1.0
 40
1.0
 40
1.0
 10
198.810884690684
 20
148.1591952284977
 30
0.0
 10
198.8375974468716
 20
148.1793611651297
 30
0.0
 10
198.867211921275
 20
148.2017176606562
 30
0.0
 10
198.9415959648005
 20
148.2189652152672
 30
0.0
 10
198.9488843445002
 20
148.220655184257
 30
0.0
  0
LINE
  5
311
330
1F
100
AcDbEntity
  8
0
  6
HIDDEN
 62
     7
370
     0
100
AcDbLine
 10
199.3900555734
 20
148.302977988
 30
0.0
 11
199.619227982
 21
148.3195128055
 31
0.0
  0
LINE
  5
312
330
1F
100
AcDbEntity
  8
0
  6
HIDDEN
 62
     7
370
     0
100
AcDbLine
 10
213.2873776917
 20
148.1802666346
 30
0.0
 11
213.3353445296
 21
148.1586526749
 31
0.0
  0
LINE
  5
313
330
1F
100
AcDbEntity
  8
0
  6
HIDDEN
 62
     7
370
     0
100
AcDbLine
 10
212.5208619599
 20
148.3171964316
 30
0.0
 11
212.7652931575
 21
148.3010230255
 31
0.0
  0
LINE
  5
314
330
1F
100
AcDbEntity
  8
0
  6
HIDDEN
 62
     7
370
     0
100
AcDbLine
 10
196.4270639781
 20
148.6965858746
 30
0.0
 11
196.8147847418
 21
145.5388473366
 31
0.0
  0
LINE
  5
315
330
1F
100
AcDbEntity
  8
0
  6
HIDDEN
 62
     7
370
     0
100
AcDbLine
 10
196.4347827796
 20
148.7965858939
 30
0.0
 11
196.8147847418
 21
148.5771927943
 31
0.0
  0
LINE
  5
316
330
1F
100
AcDbEntity
  8
0
  6
HIDDEN
 62
     7
370
     0
100
AcDbLine
 10
215.3278980021
 20
148.5771927943
 30
0.0
 11
215.7078925137
 21
148.7965858939
 31
0.0
  0
LINE
  5
317
330
1F
100
AcDbEntity
  8
0
  6
HIDDEN
 62
     7
370
     0
100
AcDbLine
 10
207.3096353177
 20
148.3275260213
 30
0.0
 11
207.3569167022
 21
148.3275260213
 31
0.0
  0
DIMENSION
  5
318
330
1F
100
AcDbEntity
  8
VERMASSUNG
100
AcDbDimension
  2
_D_1
 10
76.8627807568
 20
117.4965858888
 30
0.0
 11
76.8627807568
 21
148.9965858888
 31
0.0
 70
   160
  1
HSK T %%c<>
 71
     2
 42
-1.0
  3
SLDDIMSTYLE0
100
AcDbAlignedDimension
 13
116.0278958325
 23
180.4965858888
 33
0.0
 14
116.0278958325
 24
117.4965858888
 34
0.0
 50
90.0
100
AcDbRotatedDimension
  0
DIMENSION
  5
324
330
1F
100
AcDbEntity
  8
VERMASSUNG
100
AcDbDimension
  2
_D_2
 10
115.7278958325
 20
185.0104898323
 30
0.0
 11
165.7278958325
 21
185.0104898323
 31
0.0
 70
   160
  1
<>
 71
     2
 42
-1.0
  3
SLDDIMSTYLE0
100
AcDbAlignedDimension
 13
215.7278958325
 23
148.9965858888
 33
0.0
 14
115.7278958325
 24
180.1965858888
 34
0.0
100
AcDbRotatedDimension
  0
DIMENSION
  5
32E
330
1F
100
AcDbEntity
  8
VERMASSUNG
100
AcDbDimension
  2
_D_3
 10
215.7278958325
 20
191.0104898323
 30
0.0
 11
149.7778958325
 21
191.0104898323
 31
0.0
 70
   160
  1
<>
 71
     2
 42
-1.0
  3
SLDDIMSTYLE0
100
AcDbAlignedDimension
 13
83.8278958325
 23
170.5776359248
 33
0.0
 14
215.7278958325
 24
148.9965858888
 34
0.0
100
AcDbRotatedDimension
  0
LINE
  5
338
330
1F
100
AcDbEntity
  8
VERMASSUNG
  6
CENTERX2
370
     0
100
AcDbLine
 10
82.1493136253
 20
148.9965858888
 30
0.0
 11
216.1281651058
 21
148.9965858888
 31
0.0
  0
OLE2FRAME
  5
339
330
1F
100
AcDbEntity
  8
0
100
AcDbOle2Frame
 70
     2
  3
Paintbrush-Bild
 10
13.8511154363
 20
38.264191557
 30
0.0
 11
51.6290888628
 21
31.9806341108
 31
0.0
 71
     2
 72
     0
 73
     1
 90
    12928
310
80552BED0767C5B32B40DDAF6807D121434000000000000000006FFBDDFB85D0
310
4940DDAF6807D121434000000000000000006FFBDDFB85D04940416F4BD60AFB
310
3F4000000000000000002BED0767C5B32B40416F4BD60AFB3F40000000000000
310
0000000000000100000000010000010000000100000000000100000000320000
310
D0CF11E0A1B11AE1000000000000000000000000000000003E000300FEFF0900
310
0600000000000000000000000100000001000000000000000010000002000000
310
01000000FEFFFFFF0000000000000000FFFFFFFFFFFFFFFFFFFFFFFFFFFFFFFF
310
FFFFFFFFFFFFFFFFFFFFFFFFFFFFFFFFFFFFFFFFFFFFFFFFFFFFFFFFFFFFFFFF
310
FFFFFFFFFFFFFFFFFFFFFFFFFFFFFFFFFFFFFFFFFFFFFFFFFFFFFFFFFFFFFFFF
310
FFFFFFFFFFFFFFFFFFFFFFFFFFFFFFFFFFFFFFFFFFFFFFFFFFFFFFFFFFFFFFFF
310
FFFFFFFFFFFFFFFFFFFFFFFFFFFFFFFFFFFFFFFFFFFFFFFFFFFFFFFFFFFFFFFF
310
FFFFFFFFFFFFFFFFFFFFFFFFFFFFFFFFFFFFFFFFFFFFFFFFFFFFFFFFFFFFFFFF
310
FFFFFFFFFFFFFFFFFFFFFFFFFFFFFFFFFFFFFFFFFFFFFFFFFFFFFFFFFFFFFFFF
310
FFFFFFFFFFFFFFFFFFFFFFFFFFFFFFFFFFFFFFFFFFFFFFFFFFFFFFFFFFFFFFFF
310
FFFFFFFFFFFFFFFFFFFFFFFFFFFFFFFFFFFFFFFFFFFFFFFFFFFFFFFFFFFFFFFF
310
FFFFFFFFFFFFFFFFFFFFFFFFFFFFFFFFFFFFFFFFFFFFFFFFFFFFFFFFFFFFFFFF
310
FFFFFFFFFFFFFFFFFFFFFFFFFFFFFFFFFFFFFFFFFFFFFFFFFFFFFFFFFFFFFFFF
310
FFFFFFFFFFFFFFFFFFFFFFFFFFFFFFFFFFFFFFFFFFFFFFFFFFFFFFFFFFFFFFFF
310
FFFFFFFFFFFFFFFFFFFFFFFFFFFFFFFFFFFFFFFFFFFFFFFFFFFFFFFFFFFFFFFF
310
FFFFFFFFFFFFFFFFFFFFFFFFFFFFFFFFFFFFFFFFFFFFFFFFFFFFFFFFFFFFFFFF
310
FDFFFFFFFEFFFFFFFEFFFFFFFEFFFFFF05000000060000000700000008000000
310
090000000A0000000B0000000C0000000D0000000E0000000F00000010000000
310
11000000120000001300000014000000150000001600000017000000FEFFFFFF
310
FFFFFFFFFFFFFFFFFFFFFFFFFFFFFFFFFFFFFFFFFFFFFFFFFFFFFFFFFFFFFFFF
310
FFFFFFFFFFFFFFFFFFFFFFFFFFFFFFFFFFFFFFFFFFFFFFFFFFFFFFFFFFFFFFFF
310
FFFFFFFFFFFFFFFFFFFFFFFFFFFFFFFFFFFFFFFFFFFFFFFFFFFFFFFFFFFFFFFF
310
FFFFFFFFFFFFFFFFFFFFFFFFFFFFFFFFFFFFFFFFFFFFFFFFFFFFFFFFFFFFFFFF
310
FFFFFFFFFFFFFFFFFFFFFFFFFFFFFFFFFFFFFFFFFFFFFFFFFFFFFFFFFFFFFFFF
310
FFFFFFFFFFFFFFFFFFFFFFFFFFFFFFFFFFFFFFFFFFFFFFFFFFFFFFFFFFFFFFFF
310
FFFFFFFFFFFFFFFFFFFFFFFFFFFFFFFFFFFFFFFFFFFFFFFFFFFFFFFFFFFFFFFF
310
FFFFFFFFFFFFFFFFFFFFFFFFFFFFFFFFFFFFFFFFFFFFFFFFFFFFFFFFFFFFFFFF
310
FFFFFFFFFFFFFFFFFFFFFFFFFFFFFFFFFFFFFFFFFFFFFFFFFFFFFFFFFFFFFFFF
310
FFFFFFFFFFFFFFFFFFFFFFFFFFFFFFFFFFFFFFFFFFFFFFFFFFFFFFFFFFFFFFFF
310
FFFFFFFFFFFFFFFFFFFFFFFFFFFFFFFFFFFFFFFFFFFFFFFFFFFFFFFFFFFFFFFF
310
FFFFFFFFFFFFFFFFFFFFFFFFFFFFFFFFFFFFFFFFFFFFFFFFFFFFFFFFFFFFFFFF
310
FFFFFFFFFFFFFFFFFFFFFFFFFFFFFFFFFFFFFFFFFFFFFFFFFFFFFFFFFFFFFFFF
310
52006F006F007400200045006E00740072007900000000000000000000000000
310
0000000000000000000000000000000000000000000000000000000000000000
310
16000500FFFFFFFFFFFFFFFF020000000A00030000000000C000000000000046
310
000000000000000000000000D02357EEAE48CD0103000000C000000000000000
310
01004F006C006500000000000000000000000000000000000000000000000000
310
0000000000000000000000000000000000000000000000000000000000000000
310
0A000200FFFFFFFFFFFFFFFFFFFFFFFF00000000000000000000000000000000
310
0000000000000000000000000000000000000000000000001400000000000000
310
010043006F006D0070004F0062006A0000000000000000000000000000000000
310
0000000000000000000000000000000000000000000000000000000000000000
310
120002010100000003000000FFFFFFFF00000000000000000000000000000000
310
0000000000000000000000000000000000000000010000004D00000000000000
310
01004F006C006500310030004E00610074006900760065000000000000000000
310
0000000000000000000000000000000000000000000000000000000000000000
310
1A000200FFFFFFFFFFFFFFFFFFFFFFFF00000000000000000000000000000000
310
0000000000000000000000000000000000000000040000002426000000000000
310
FEFFFFFF02000000FEFFFFFFFFFFFFFFFFFFFFFFFFFFFFFFFFFFFFFFFFFFFFFF
310
FFFFFFFFFFFFFFFFFFFFFFFFFFFFFFFFFFFFFFFFFFFFFFFFFFFFFFFFFFFFFFFF
310
FFFFFFFFFFFFFFFFFFFFFFFFFFFFFFFFFFFFFFFFFFFFFFFFFFFFFFFFFFFFFFFF
310
FFFFFFFFFFFFFFFFFFFFFFFFFFFFFFFFFFFFFFFFFFFFFFFFFFFFFFFFFFFFFFFF
310
FFFFFFFFFFFFFFFFFFFFFFFFFFFFFFFFFFFFFFFFFFFFFFFFFFFFFFFFFFFFFFFF
310
FFFFFFFFFFFFFFFFFFFFFFFFFFFFFFFFFFFFFFFFFFFFFFFFFFFFFFFFFFFFFFFF
310
FFFFFFFFFFFFFFFFFFFFFFFFFFFFFFFFFFFFFFFFFFFFFFFFFFFFFFFFFFFFFFFF
310
FFFFFFFFFFFFFFFFFFFFFFFFFFFFFFFFFFFFFFFFFFFFFFFFFFFFFFFFFFFFFFFF
310
FFFFFFFFFFFFFFFFFFFFFFFFFFFFFFFFFFFFFFFFFFFFFFFFFFFFFFFFFFFFFFFF
310
FFFFFFFFFFFFFFFFFFFFFFFFFFFFFFFFFFFFFFFFFFFFFFFFFFFFFFFFFFFFFFFF
310
FFFFFFFFFFFFFFFFFFFFFFFFFFFFFFFFFFFFFFFFFFFFFFFFFFFFFFFFFFFFFFFF
310
FFFFFFFFFFFFFFFFFFFFFFFFFFFFFFFFFFFFFFFFFFFFFFFFFFFFFFFFFFFFFFFF
310
FFFFFFFFFFFFFFFFFFFFFFFFFFFFFFFFFFFFFFFFFFFFFFFFFFFFFFFFFFFFFFFF
310
FFFFFFFFFFFFFFFFFFFFFFFFFFFFFFFFFFFFFFFFFFFFFFFFFFFFFFFFFFFFFFFF
310
FFFFFFFFFFFFFFFFFFFFFFFFFFFFFFFFFFFFFFFFFFFFFFFFFFFFFFFFFFFFFFFF
310
FFFFFFFFFFFFFFFFFFFFFFFFFFFFFFFFFFFFFFFFFFFFFFFFFFFFFFFFFFFFFFFF
310
0100000200000000000000000000000000000000000000000000000000000000
310
0000000000000000000000000000000000000000000000000000000000000000
310
0100FEFF030A0000FFFFFFFF0A00030000000000C00000000000004607000000
310
5042727573680007000000504272757368000700000050427275736800F439B2
310
7100000000000000000000000000000000000000000000000000000000000000
310
0000000000000000000000000000000000000000000000000000000000000000
310
0000000000000000000000000000000000000000000000000000000000000000
310
0000000000000000000000000000000000000000000000000000000000000000
310
0000000000000000000000000000000000000000000000000000000000000000
310
0000000000000000000000000000000000000000000000000000000000000000
310
0000000000000000000000000000000000000000000000000000000000000000
310
0000000000000000000000000000000000000000000000000000000000000000
310
0000000000000000000000000000000000000000000000000000000000000000
310
0000000000000000000000000000000000000000000000000000000000000000
310
0000000000000000000000000000000000000000000000000000000000000000
310
0000000000000000000000000000000000000000000000000000000000000000
310
20260000424D0E260000000000003E00000028000000B40200006E0000000100
310
01000000000000000000130B0000130B00000200000002000000000000FFFFFF
310
FFFFFFFFFFFFFFFFFFFFFFFFFFFFFFFFFFFFFFFFFFFFFFFFFFFFFFFFFFFFFFFF
310
FFFFFFFFFFFFFFFFFFFFFFFFFFFFFFFFFFFFFFFFFFFFFFFFFFFFFFFFFFFFFFFF
310
FFFFFFFFFFFFFFFFFFFFFFFFFFFFFFFFFFFFFFFFFFFFFFFFF000FFFFFFFFFFFF
310
FFFFFFFFFFFFFFFFFFFFFFFFFFFFFFFFFFFFFFFFFFFFFFFFFFFFFFFFFFFFFFFF
310
FFFFFFFFFFFFFFFFFFFFFFFFFFFFFFFFFFFFFFFFFFFFFFFFFFFFFFFFFFFFFFFF
310
FFFFFFFFFFFFFFFFFFFFFFFFFFFFFFFFF000FFFFFFFFFFFFFFFFFFFFFFFFFFFF
310
FFFFFFFFFFFFFFFFFFFFFFFFFFFFFFFFFFFFFFFFFFFFFFFFFFFFFFFFFFFFFFFF
310
FFFFFFFFFFFFFFFFFFFFFFFFFFFFFFFFFFFFFFFFFFFFFFFFFFFFFFFFFFFFFFFF
310
FFFFFFFFFFFFFFFFF000FFFFFFFFFFFFFFFFFFFFFFFFFFFFFFFFFFFFFFFFFFFF
310
FFFFFFFFFFFFFFFFFFFFFFFFFFFFFFFFFFFFFFFFFFFFFFFFFFFFFFFFFFFFFFFF
310
FFFFFFFFFFFFFFFFFFFFFFFFFFFFFFFFFFFFFFFFFFFFFFFFFFFFFFFFFFFFFFFF
310
F000FFFFFFFFFFFFFFFFFFFFFFFFFFFFFFFFFFFFFFFFFFFFFFFFFFFFFFFFFFFF
310
FFFFFFFFFFFFFFFFFFFFFFFFFFFFFFFFFFFFFFFFFFFFFFFFFFFFFFFFFFFFFFFF
310
FFFFFFFFFFFFFFFFFFFFFFFFFFFFFFFFFFFFFFFFFFFFFFFFF000FFFFFFFFFFFF
310
FFFFFFFFFFFFFFFFFFFFFFFFFFFFFFFFFFFFFFFFFFFFFFFFFFFFFFFFFFFFFFFF
310
FFFFFFFFFFFFFFFFFFFFFFFFFFFFFFFFFFFFFFFFFFFFFFFFFFFFFFFFFFFFFFFF
310
FFFFFFFFFFFFFFFFFFFFFFFFFFFFFFFFF000FFFFFFFFFFFFFFFFFFFFFFFFFFFF
310
FFFFFFFFFFFFFFFFFFFFFFFFFFFFFFFFFFFFFFFFFFFFFFFFFFFFFFFFFFFFFFFF
310
FFFFFFFFFFFFFFFFFFFFFFFFFFFFFFFFFFFFFFFFFFFFFFFFFFFFFFFFFFFFFFFF
310
FFFFFFFFFFFFFFFFF000FFFFFFFFFFFFFFFFFFFFFFFFFFFFFFFFFFFFFFFFFFFF
310
FFFFFFFFFFFFFFFFFFFFFFFFFFFFFFFFFFFFFFFFFFFFFFFFFFFFFFFFFFFFFFFF
310
FFFFFFFFFFFFFFFFFFFFFFFFFFFFFFFFFFFFFFFFFFFFFFFFFFFFFFFFFFFFFFFF
310
F000FFFFFFFFFFFFFFFFFFFFFFFFFFFFFFFFFFFFFFFFFFFFFFFFFFFFFFFFFFFF
310
FFFFFFFFFFFFFFFFFFFFFFFFFFFFFFFFFFFFFFFFFFFFFFFFFFFFFFFFFFFFFFFF
310
FFFFFFFFFFFFFFFFFFFFFFFFFFFFFFFFFFFFFFFFFFFFFFFFF000FFFFFFFFFFFF
310
FFFFFFFFFFFFFFFFFFFFFFFFFFFFFFFFFFFFFFFFFFFFFFFFFFFFFFFFFFFFFFFF
310
FFFFFFFFFFFFFFFFFFFFFFFFFFFFFFFFFFFFFFFFFFFFFFFFFFFFFFFFFFFFFFFF
310
FFFFFFFFFFFFFFFFFFFFFFFFFFFFFFFFF000FFFFFFFFFFFFFFFFFFFFFFFFFFFF
310
FFFFFFFFFFFFFFFFFFFFFFFFFFFFFFFFFFFFFFFFFFFFFFFFFFFFFFFFFFFFFFFF
310
FFFFFFFFFFFFFFFFFFFFFFFFFFFFFFFFFFFFFFFFFFFFFFFFFFFFFFFFFFFFFFFF
310
FFFFFFFFFFFFFFFFF000FFFFFFFFFFFFFFFFFFFFFFFFFFFFFFFFFFFFFFFFFFFF
310
FFFFFFFFFFFFFFFFFFFFFFFFFFFFFFFFFFFFFFFFFFFFFFFFFFFFFFFFFFFFFFFF
310
FFFFFFFFFFFFFFFFFFFFFFFFFFFFFFFFFFFFFFFFFFFFFFFFFFFFFFFFFFFFFFFF
310
F000FFFFFFFFFFFFFFFFFFFFFFFFFFFFFFFFFFFFFFFFFFFFFFFFFFFFFFFFFFFF
310
FFFFFFFFFFFFFFFFFFFFFFFFFFFFFFFFFFFFFFFFFFFFFFFFFFFFFFFFFFFFFFFF
310
FFFFFFFFFFFFFFFFFFFFFFFFFFFFFFFFFFFFFFFFFFFFFFFFF000FFFFFFFFFFFF
310
FFFFFFFFFFFFFFFFFFFFFFFFFFFFFFFFFFFFFFFFFFFFFFFFFFFFFFFFFFFFFFFF
310
FFFFFFFFFFFFFFFFFFFFFFFFFFFFFFFFFFFFFFFFFFFFFFFFFFFFFFFFFFFFFFFF
310
FFFFFFFFFFFFFFFFFFFFFFFFFFFFFFFFF000FFFFFFFFFFFFFFFFFFFFFFFFFFFF
310
FFFFFFFFFFFFFFFFFFFFFFFFFFFFFFFFFFFFFFFFFFFFFFFFFFFFFFFFFFFFFFFF
310
FFFFFFFFFFFFFFFFFFFFFFFFFFFFFFFFFFFFFFFFFFFFFFFFFFFFFFFFFFFFFFFF
310
FFFFFFFFFFFFFFFFF000FFFFFFFFFFFFFFFFFFFFFFFFFFFFFFFFFFFFFFFFFFFF
310
FFFFFFFFFFFFFFFFFFFFFFFFFFFFFFFFFFFFFFFFFFFFFFFFFFFFFFFFFFFFFFFF
310
FFFFFFFFFFFFFFFFFFFFFFFFFFFFFFFFFFFFFFFFFFFFFFFFFFFFFFFFFFFFFFFF
310
F000FFFFFFFFFFFFFFFFFFFFFFFFFFFFFFFFFFFFFFFFFFFFFFFFFFFFFFFFFFFF
310
FFFFFFFFFFFFFFFFFFFFFFFFFFFFFFFFFFFFFFFFFFFFFFFFFFFFFFFFFFFFFFFF
310
FFFFFFFFFFFFFFFFFFFFFFFFFFFFFFFFFFFFFFFFFFFFFFFFF000FFFFFFFFFFFF
310
FFFFFFFFFFFFFFFFFFFFFFFFFFFFFFFFFFFFFFFFFFFFFFFFFFFFFFFFFFFFFFFF
310
FFFFFFFFFFFFFFFFFFFFFFFFFFFFFFFFFFFFFFFFFFFFFFFFFFFFFFFFFFFFFFFF
310
FFFFFFFFFFFFFFFFFFFFFFFFFFFFFFFFF000FFFFFFFFFFFFFFFFFFFFFFFFFFFF
310
FFFFFFFFFFFFFFFFFFFFFFFFFFFFFFFFFFFFFFFFFFFFFFFFFFFFFFFFFFFFFFFF
310
FFFFFFFFFFFFFFFFFFFFFFFFFFFFFFFFFFFFFFFFFFFFFFFFFFFFFFFFFFFFFFFF
310
FFFFFFFFFFFFFFFFF000FFFFF80003FFFFFFFFFFFFFFFFFFFFFFFFFFFFFFFFFF
310
FFFFF00007FFFFFFFFFF00007FFFFFF800000000000000007FFFFFFFFFFFFFFF
310
FFFFFFFC001FFFFFFFFFFFFFFC001FFFFFFFFFFFFFFFFFFFFFFFFFFE0007FFFF
310
F000FFFF8000007FFFFFFFF8000FFFFFC0007FFFFF80007FFFFF0000007FFFFF
310
FFF8000007FFFFF800000000000000007FFFFFF0001FFFFFFFFFFFC00001FFFF
310
FFFFFFFFC00001FFFFFFFF000000000003FFFFE000007FFFF000FFFE0000000F
310
FFFFFFF0000FFFFF80007FFFFF80007FFFFC0000001FFFFFFFC0000001FFFFF8
310
00000000000000007FFFFFF0001FFFFFFFFFFE0000003FFFFFFFFFFE0000003F
310
FFFFFF000000000003FFFF0000000FFFF000FFF800000003FFFFFFF00007FFFF
310
80007FFFFF80007FFFF000000007FFFFFF000000003FFFF80000000000000000
310
7FFFFFF0001FFFFFFFFFF80000000FFFFFFFFFF80000000FFFFFFF0000000000
310
03FFFC00000003FFF000FFE000000000FFFFFFF00007FFFF80003FFFFF80007F
310
FFC000000001FFFFFC000000001FFFF800000000000000007FFFFFF0001FFFFF
310
FFFFE000000003FFFFFFFFE000000003FFFFFF000000000003FFF000000000FF
310
F000FF80000000007FFFFFF00007FFFF80003FFFFF80007FFF8000000000FFFF
310
F80000000007FFF800000000000000007FFFFFF0001FFFFFFFFFC000000001FF
310
FFFFFFC000000001FFFFFF000000000003FFC0000000007FF000FF0000000000
310
3FFFFFE00007FFFF00003FFFFF80007FFE00000000003FFFF00000000003FFF8
310
00000000000000007FFFFFF0001FFFFFFFFF8000000000FFFFFFFF8000000000
310
FFFFFF000000000003FF80000000003FF000FE00000000001FFFFFE00003FFFF
310
00003FFFFF80007FFC00000000001FFFE00000000001FFF8000001FFFE000000
310
7FFFFFF0001FFFFFFFFE00000000003FFFFFFE00000000003FFFFF0000000000
310
03FF00000000001FF000FC00000000000FFFFFE00003FFFF00001FFFFF80007F
310
F800000000001FFFC00000000000FFF8000001FFFE0000007FFFFFF0001FFFFF
310
FFFC00000000001FFFFFFC00000000001FFFFF000000000003FE00000000000F
310
F000F8000000000007FFFFE00003FFFF00001FFFFF80007FF800000000000FFF
310
800000000000FFF8000001FFFE0000007FFFFFF0001FFFFFFFF800000000000F
310
FFFFF800000000000FFFFF000000000003FC000000000007F000F80000000000
310
03FFFFC00003FFFE00001FFFFF80007FF0000000000007FF0000000000007FF8
310
000001FFFE0000007FFFFFF0001FFFFFFFF0000000000007FFFFF00000000000
310
07FFFF000000000003F8000000000003F000F0000000000003FFFFC00001FFFE
310
00001FFFFF80007FE0000000000007FE0000000000003FF8000001FFFE000000
310
7FFFFFF0001FFFFFFFF0000000000007FFFFF0000000000007FFFF0000000000
310
03F800001F800003F000E00001FFF00001FFFFC00001FFFE00000FFFFF80007F
310
E00001FFE00003FE00001FFF00003FF8000001FFFE0000007FFFFFF0001FFFFF
310
FFE000003E000003FFFFE000003E000003FFFF000000000003F00001FFF80001
310
F000E00007FFFC0001FFFFC00001FFFE00000FFFFF80007FC0000FFFFC0003FC
310
0000FFFFC0001FF8000001FFFE0000007FFFFFF0001FFFFFFFC00003FFE00001
310
FFFFC00003FFE00001FFFF0001FFFFFFFFF00007FFFE0001F000E0000FFFFF00
310
00FFFF800001FFFC00000FFFFF80007FC0001FFFFE0001FC0001FFFFE0001FF8
310
000001FFFE0000007FFFFFF0001FFFFFFF80000FFFF80000FFFF80000FFFF800
310
00FFFF0003FFFFFFFFE0000FFFFF8000F000C0003FFFFF8000FFFF800000FFFC
310
000007FFFF80007F80003FFFFF0001FC0003FFFFF0001FF8000001FFFE000000
310
7FFFFFF0001FFFFFFF80003FFFFE0000FFFF80003FFFFE0000FFFF0003FFFFFF
310
FFE0003FFFFF8000F000C0003FFFFF8000FFFF800000FFFC000007FFFF80007F
310
80007FFFFF8001F80007FFFFF8000FF8000001FFFE0000007FFFFFF0001FFFFF
310
FF00007FFFFF00007FFF00007FFFFF00007FFF0003FFFFFFFFE0003FFFFFC000
310
F000C0007FFFFFC000FFFF000000FFFC000007FFFF80007F8000FFFFFF8000F8
310
000FFFFFF8000FF8000001FFFE0000007FFFFFF0001FFFFFFF0000FFFFFF8000
310
7FFF0000FFFFFF80007FFF0003FFFFFFFFC0007FFFFFC00070008000FFFFFFC0
310
00FFFF000000FFF8000007FFFF80007F8000FFFFFF8000F8000FFFFFF8000FF8
310
000001FFFE0000007FFFFFF0001FFFFFFE0001FFFFFFC0003FFE0001FFFFFFC0
310
003FFF0003FFFFFFFFC0007FFFFFE00070008000FFFFFFC0007FFF0000007FF8
310
000003FFFF80007F0001FFFFFF8000F8000FFFFFF8000FF8000001FFFE000000
310
7FFFFFF0001FFFFFFE0001FFFFFFC0003FFE0001FFFFFFC0003FFF0003FFFFFF
310
FFC000FFFFFFE00070008000FFFFFFC0007FFF0000007FF8000003FFFF80007F
310
0001FFFFFF8000F8001FFFFFF8000FF8000001FFFE0000007FFFFFF0001FFFFF
310
FE0003FFFFFFE0003FFE0003FFFFFFE0003FFF0003FFFFFFFFC000FFFFFFE000
310
70008000FFFFFFC0007FFE0000007FF8000003FFFF80007F0001FFFFFF8000F0
310
001FFFFFF8000FF8000001FFFE0000007FFFFFF0001FFFFFFC0003FFFFFFE000
310
1FFC0003FFFFFFE0001FFF0003FFFFFFFFC000FFFFFFC00070008000FFFFFF80
310
007FFE0000007FF0000003FFFF80007F0001FFFFFF0000F0001FFFFFF8000FF8
310
000001FFFE0000007FFFFFF0001FFFFFFC0007FFFFFFF0001FFC0007FFFFFFF0
310
001FFF0003FFFFFFFFC000FFFFFFC00070008001FFFFFF0000FFFE0000003FF0
310
000001FFFF80007F0001FFFFFF0000F8001FFFFFF0000FF8000001FFFE000000
310
7FFFFFF0001FFFFFFC0007FFFFFFF0001FFC0007FFFFFFF0001FFF0003FFFFFF
310
FFC001FFFFFF80007000FFFFFFFFFE0000FFFE0008003FF0008001FFFF80007F
310
FFFFFFFFFC0000FFFFFFFFFFE0000FF8000001FFFE0000007FFFFFF0001FFFFF
310
F8000FFFFFFFF8000FF8000FFFFFFFF8000FFF0003FFFFFFFFFFFFFFFFFF0000
310
7000FFFFFFFFFC0000FFFC0008003FF0008001FFFF80007FFFFFFFFFF80001FF
310
FFFFFFFF80000FF8000001FFFE0000007FFFFFF0001FFFFFF8000FFFFFFFF800
310
0FF8000FFFFFFFF8000FFF0003FFFFFFFFFFFFFFFFFE0000F000FFFFFFFFE000
310
00FFFC000C003FE000C001FFFF80007FFFFFFFFFC00001FFFFFFFFFE00001FF8
310
000001FFFE0000007FFFFFF0001FFFFFF8000FFFFFFFF8000FF8000FFFFFFFF8
310
000FFF0003FFFFFFFFFFFFFFFFF00000F000FFFFFFFE000001FFFC000C001FE0
310
00C000FFFF80007FFFFFFFFE000001FFFFFFFFE000001FF80FFFFFFFFFFFFFC0
310
7FFFFFF0001FFFFFF8000FFFFFFFF8000FF8000FFFFFFFF8000FFF0003FFFFFF
310
FFFFFFFFFF800000F000FFFFFFC0000001FFFC001C001FE001C000FFFF80007F
310
FFFFFF80000003FFFFFFF80000001FF80FFFFFFFFFFFFFC07FFFFFF0001FFFFF
310
F8001FFFFFFFFC000FF8001FFFFFFFFC000FFF0003FFFFFFFFFFFFFFF0000001
310
F000FFFFF800000001FFF8001C001FE001C000FFFF80007FFFFFF800000003FF
310
FFFF800000003FF80FFFFFFFFFFFFFC07FFFFFF0001FFFFFF8001FFFFFFFFC00
310
0FF8001FFFFFFFFC000FFF0003FFFFFFFFFFFFFE00000001F000FFFFC0000000
310
03FFF8001E001FC001E000FFFF80007FFFFF8000000007FFFFFC000000003FF8
310
0FFFFFFFFFFFFFC07FFFFFF0001FFFFFF8001FFFFFFFFC000FF8001FFFFFFFFC
310
000FFF0003FFFFFFFFFFFFE000000003F000FFFE0000000007FFF8001E000FC0
310
01E0007FFF80007FFFFE0000000007FFFFE0000000007FF80FFFFFFFFFFFFFC0
310
7FFFFFF0001FFFFFF0001FFFFFFFFC0007F0001FFFFFFFFC0007FF0003FFFFFF
310
FFFFFF0000000003F000FFF80000000007FFF8001E000FC003E0007FFF80007F
310
FFF0000000000FFFFF8000000000FFF80FFFFFFFFFFFFFC07FFFFFF0001FFFFF
310
F0001FFFFFFFFC0007F0001FFFFFFFFC0007FF0003FFFFFFFFFFFC0000000007
310
F000FFE0000000000FFFF0003E000FC003E0007FFF80007FFFC0000000001FFF
310
FE0000000001FFF80FFFFFFFFFFFFFC07FFFFFF0001FFFFFF0001FFFFFFFFC00
310
07F0001FFFFFFFFC0007FF0003FFFFFFFFFFF0000000000FF000FFC000000000
310
1FFFF0003F000F8003F0003FFF80007FFF80000000003FFFF80000000003FFF8
310
0FFFFFFFFFFFFFC07FFFFFF0001FFFFFF0001FFFFFFFFC0007F0001FFFFFFFFC
310
0007FF0003FFFFFFFFFFE0000000001FF000FF00000000007FFFF0003F000780
310
03F0003FFF80007FFF00000000007FFFF00000000007FFF80FFFFFFFFFFFFFC0
310
7FFFFFF0001FFFFFF0001FFFFFFFFC0007F0001FFFFFFFFC0007FF0003FFFFFF
310
FFFF80000000007FF000FE0000000000FFFFE0003F00078007F0003FFF80007F
310
FE0000000001FFFFE0000000001FFFF80FFFFFFFFFFFFFC07FFFFFF0001FFFFF
310
F0001FFFFFFFFC0007F0001FFFFFFFFC0007FF0003FFFFFFFFFF0000000000FF
310
F000FC0000000003FFFFE0007F00078007F0003FFF80007FFC0000000007FFFF
310
C0000000007FFFF80FFFFFFFFFFFFFC07FFFFFF0001FFFFFF8001FFFFFFFFC00
310
0FF8001FFFFFFFFC000FFF0003FFFFFFFFFE0000000003FFF000FC000000000F
310
FFFFE0007F80070007F8001FFF80007FF8000000001FFFFF8000000001FFFFF8
310
0FFFFFFFFFFFFFC07FFFFFF0001FFFFFF8001FFFFFFFFC000FF8001FFFFFFFFC
310
000FFF0003FFFFFFFFFC000000000FFFF000F8000000007FFFFFE0007F800700
310
07F8001FFF80007FF000000000FFFFFF800000000FFFFFF80FFFFFFFFFFFFFC0
310
7FFFFFF0001FFFFFF8000FFFFFFFF8000FF8000FFFFFFFF8000FFF0003FFFFFF
310
FFFC000000007FFFF000F800000007FFFFFFC0007F8003000FF8001FFF80007F
310
F000000007FFFFFF000000007FFFFFF80FFFFFFFFFFFFFC07FFFFFF0001FFFFF
310
F8000FFFFFFFF8000FF8000FFFFFFFF8000FFF0003FFFFFFFFF80000000FFFFF
310
F000F0000000FFFFFFFFC000FF8003000FF8001FFF80007FE0000000FFFFFFFF
310
0000000FFFFFFFF8000001FFFE0000007FFFFFF0001FFFFFF8000FFFFFFFF800
310
0FF8000FFFFFFFF8000FFF0003FFFFFFFFF8000000FFFFFFF000F000000FFFFF
310
FFFFC000FFC002000FF8000FFF80007FE000001FFFFFFFFE000001FFFFFFFFF8
310
000001FFFE0000007FFFFFF0001FFFFFF8000FFFFFFFF8000FF8000FFFFFFFF8
310
000FFF0003FFFFFFFFF000001FFFFFFFF000E00000FFFFFFFFFFC000FFC00200
310
0FFC000FFF80007FE00001FFFFFFFFFE00001FFFFFFFFFF8000001FFFE000000
310
7FFFFFF0001FFFFFFC000FFFFFFFF8001FFC000FFFFFFFF8001FFF0003FFFFFF
310
FFF00001FFFFFFFFF000E00007FFFFFFFFFF8000FFC000001FFC000FFF80007F
310
C0000FFFFFFFFFFE0000FFFFFFFFFFF8000001FFFE0000007FFFFFF0001FFFFF
310
FC0007FFFFFFF0001FFC0007FFFFFFF0001FFF0003FFFFFFFFF00007FFFFFFFF
310
F000E0001FFFFFFFFFFF8000FFC000001FFC000FFF80007FC0003FFFFFFFFFFE
310
0001FFFFFFFFFFF8000001FFFE0000007FFFFFF0001FFFFFFC0007FFFFFFF000
310
1FFC0007FFFFFFF0001FFF0003FFFFFFFFF0001FFFFFFFFFF000E0003FFFFF00
310
03FF8001FFE000001FFC0007FF80007FC0007FFFFF0007FC0003FFFFF0003FF8
310
000001FFFE0000007FFFFFF0001FFFFFFC0003FFFFFFE0001FFC0003FFFFFFE0
310
001FFF0003FFFFFFFFF0003FFFFFFFFFF000E0003FFFFF0001FF8001FFE00000
310
1FFE0007FF80007FC0007FFFFE0003FC0007FFFFE0003FF8000001FFFE000000
310
7FFFFFF0001FFFFFFE0003FFFFFFE0003FFE0003FFFFFFE0003FFF0003FFFFFF
310
FFF0003FFFFF8001F000E0003FFFFF0001FF0001FFE000001FFE0007FF80007F
310
C0007FFFFE0003FC0007FFFFE0003FF8000001FFFE0000007FFFFFF0001FFFFF
310
FE0001FFFFFFC0003FFE0001FFFFFFC0003FFF0003FFFFFFFFF0003FFFFF0001
310
F000E0003FFFFF0003FF0001FFE000003FFE0007FF80007FC0007FFFFE0003FC
310
0007FFFFE0003FF8000001FFFE0000007FFFFFF0001FFFFFFF0001FFFFFFC000
310
7FFF0001FFFFFFC0007FFF0003FFFFFFFFF0003FFFFF0001F000E0003FFFFE00
310
03FF0003FFF000003FFE0003FF80007FC0007FFFFC0003FE0007FFFFE0003FF8
310
000001FFFE0000007FFFFFF0001FFFFFFF0000FFFFFF80007FFF0000FFFFFF80
310
007FFF0003FFFFFFFFF0003FFFFF0001F000E0003FFFFE0003FF0003FFF00000
310
3FFF0003FF80007FC0007FFFFC0007FE0007FFFFC0003FF8000001FFFE000000
310
7FFFFFF0001FFFFFFF80007FFFFF0000FFFF80007FFFFF0000FFFF0003FFFFFF
310
FFF0003FFFFF0003F000E0003FFFFC0003FE0003FFF000003FFF0003FF80007F
310
E0003FFFF80007FE0003FFFFC0007FF8000001FFFE0000007FFFFFF0001FFFFF
310
FF80003FFFFE0000FFFF80003FFFFE0000FFFF0003FFFFFFFFF0001FFFFE0003
310
F000F0001FFFF80003FE0003FFF000007FFF0001FF80007FE0003FFFF00007FE
310
0001FFFF80007FF8000001FFFE0000007FFFFFF0001FFFFFFFC0000FFFF80001
310
FFFFC0000FFFF80001FFFF0003FFFFFFFFF0001FFFFC0003F000F0000FFFF000
310
07FE0007FFF800007FFF0001FF80007FE0001FFFE00007FF0000FFFE00007FF8
310
000001FFFE0000007FFFFFF0001FFFFFFFC00003FFE00001FFFFC00003FFE000
310
01FFFF0003FFFFFFFFF8000FFFF80003F000F00003FFC00007FC0007FFF80000
310
7FFF8001FF80007FF00007FF80000FFF00007FF80000FFF8000001FFFE000000
310
7F80000000000001FFE000003E000003FFFFE000003E000003FFFF0003FFFFFF
310
FFF80003FFE00007F000F800000000000FFC0007FFF800007FFF8001FF80007F
310
F000000000000FFF000000000000FFF8000001FFFE0000007F80000000000001
310
FFF0000000000007FFFFF0000000000007FFFF0003FFFFFFFFFC00007E000007
310
F000F800000000000FFC0007FFF80000FFFF8000FF80007FF800000000001FFF
310
800000000001FFF8000001FFFE0000007F80000000000001FFF800000000000F
310
FFFFF800000000000FFFFF0003FFFFFFFFFC00000000000FF000FC0000000000
310
1FFC0007FFFC0000FFFF8000FF80007FF800000000003FFFC00000000001FFF8
310
000001FFFE0000007F80000000000001FFF800000000000FFFFFF80000000000
310
0FFFFF0003FFFFFFFFFE00000000001FF000FE00000000003FF8000FFFFC0000
310
FFFF8000FF80007FFC00000000003FFFC00000000003FFF8000001FFFE000000
310
7F80000000000001FFFC00000000001FFFFFFC00000000001FFFFF0003FFFFFF
310
FFFF00000000001FF000FF00000000003FF8000FFFFC0000FFFFC000FF80007F
310
FE00000000007FFFE00000000007FFF8000001FFFE0000007F80000000000001
310
FFFE00000000003FFFFFFE00000000003FFFFF0003FFFFFFFFFF80000000003F
310
F000FF80000000007FF8000FFFFC0001FFFFC0007F80007FFF0000000000FFFF
310
F0000000000FFFF800000000000000007F80000000000001FFFF8000000000FF
310
FFFFFF8000000000FFFFFF0003FFFFFFFFFFC0000000007FF000FFC000000000
310
FFF8000FFFFE0001FFFFC0007F80007FFF8000000001FFFFF8000000001FFFF8
310
00000000000000007F80000000000001FFFFC000000001FFFFFFFFC000000001
310
FFFFFF0003FFFFFFFFFFE000000000FFF000FFE000000003FFF0001FFFFE0001
310
FFFFC0007F80007FFFC000000007FFFFFE000000003FFFF80000000000000000
310
7F80000000000001FFFFE000000003FFFFFFFFE000000003FFFFFF0003FFFFFF
310
FFFFF000000003FFF000FFF80000000FFFF0001FFFFE0001FFFFE0007F80007F
310
FFF00000000FFFFFFF00000000FFFFF800000000000000007F80000000000001
310
FFFFF80000000FFFFFFFFFF80000000FFFFFFF0003FFFFFFFFFFFC0000000FFF
310
F000FFFE0000003FFFF0001FFFFE0003FFFFE0003F80007FFFFC0000003FFFFF
310
FFC0000003FFFFF800000000000000007F80000000000001FFFFFE0000003FFF
310
FFFFFFFE0000003FFFFFFF0003FFFFFFFFFFFF0000003FFFF000FFFF800000FF
310
FFF0001FFFFF0003FFFFE0003F80007FFFFF000001FFFFFFFFF800001FFFFFF8
310
00000000000000007F80000000000001FFFFFFC00001FFFFFFFFFFFFC00001FF
310
FFFFFF0003FFFFFFFFFFFFC00000FFFFF000FFFFF8000FFFFFFFFFFFFFFFFFFF
310
FFFFFFFFFFFFFFFFFFFFF0001FFFFFFFFFFF0000FFFFFFF80000000000000000
310
7FFFFFFFFFFFFFFFFFFFFFFC001FFFFFFFFFFFFFFC001FFFFFFFFFFFFFFFFFFF
310
FFFFFFFC001FFFFFF000FFFFFFFFFFFFFFFFFFFFFFFFFFFFFFFFFFFFFFFFFFFF
310
FFFFFFFFFFFFFFFFFFFFFFFFFFFFFFFFFFFFFFFFFFFFFFFFFFFFFFFFFFFFFFFF
310
FFFFFFFFFFFFFFFFFFFFFFFFFFFFFFFFFFFFFFFFFFFFFFFFFFFFFFFFFFFFFFFF
310
F000FFFFFFFFFFFFFFFFFFFFFFFFFFFFFFFFFFFFFFFFFFFFFFFFFFFFFFFFFFFF
310
FFFFFFFFFFFFFFFFFFFFFFFFFFFFFFFFFFFFFFFFFFFFFFFFFFFFFFFFFFFFFFFF
310
FFFFFFFFFFFFFFFFFFFFFFFFFFFFFFFFFFFFFFFFFFFFFFFFF000FFFFFFFFFFFF
310
FFFFFFFFFFFFFFFFFFFFFFFFFFFFFFFFFFFFFFFFFFFFFFFFFFFFFFFFFFFFFFFF
310
FFFFFFFFFFFFFFFFFFFFFFFFFFFFFFFFFFFFFFFFFFFFFFFFFFFFFFFFFFFFFFFF
310
FFFFFFFFFFFFFFFFFFFFFFFFFFFFFFFFF000FFFFFFFFFFFFFFFFFFFFFFFFFFFF
310
FFFFFFFFFFFFFFFFFFFFFFFFFFFFFFFFFFFFFFFFFFFFFFFFFFFFFFFFFFFFFFFF
310
FFFFFFFFFFFFFFFFFFFFFFFFFFFFFFFFFFFFFFFFFFFFFFFFFFFFFFFFFFFFFFFF
310
FFFFFFFFFFFFFFFFF000FFFFFFFFFFFFFFFFFFFFFFFFFFFFFFFFFFFFFFFFFFFF
310
FFFFFFFFFFFFFFFFFFFFFFFFFFFFFFFFFFFFFFFFFFFFFFFFFFFFFFFFFFFFFFFF
310
FFFFFFFFFFFFFFFFFFFFFFFFFFFFFFFFFFFFFFFFFFFFFFFFFFFFFFFFFFFFFFFF
310
F000FFFFFFFFFFFFFFFFFFFFFFFFFFFFFFFFFFFFFFFFFFFFFFFFFFFFFFFFFFFF
310
FFFFFFFFFFFFFFFFFFFFFFFFFFFFFFFFFFFFFFFFFFFFFFFFFFFFFFFFFFFFFFFF
310
FFFFFFFFFFFFFFFFFFFFFFFFFFFFFFFFFFFFFFFFFFFFFFFFF000FFFFFFFFFFFF
310
FFFFFFFFFFFFFFFFFFFFFFFFFFFFFFFFFFFFFFFFFFFFFFFFFFFFFFFFFFFFFFFF
310
FFFFFFFFFFFFFFFFFFFFFFFFFFFFFFFFFFFFFFFFFFFFFFFFFFFFFFFFFFFFFFFF
310
FFFFFFFFFFFFFFFFFFFFFFFFFFFFFFFFF000FFFFFFFFFFFFFFFFFFFFFFFFFFFF
310
FFFFFFFFFFFFFFFFFFFFFFFFFFFFFFFFFFFFFFFFFFFFFFFFFFFFFFFFFFFFFFFF
310
FFFFFFFFFFFFFFFFFFFFFFFFFFFFFFFFFFFFFFFFFFFFFFFFFFFFFFFFFFFFFFFF
310
FFFFFFFFFFFFFFFFF000FFFFFFFFFFFFFFFFFFFFFFFFFFFFFFFFFFFFFFFFFFFF
310
FFFFFFFFFFFFFFFFFFFFFFFFFFFFFFFFFFFFFFFFFFFFFFFFFFFFFFFFFFFFFFFF
310
FFFFFFFFFFFFFFFFFFFFFFFFFFFFFFFFFFFFFFFFFFFFFFFFFFFFFFFFFFFFFFFF
310
F000FFFFFFFFFFFFFFFFFFFFFFFFFFFFFFFFFFFFFFFFFFFFFFFFFFFFFFFFFFFF
310
FFFFFFFFFFFFFFFFFFFFFFFFFFFFFFFFFFFFFFFFFFFFFFFFFFFFFFFFFFFFFFFF
310
FFFFFFFFFFFFFFFFFFFFFFFFFFFFFFFFFFFFFFFFFFFFFFFFF000FFFFFFFFFFFF
310
FFFFFFFFFFFFFFFFFFFFFFFFFFFFFFFFFFFFFFFFFFFFFFFFFFFFFFFFFFFFFFFF
310
FFFFFFFFFFFFFFFFFFFFFFFFFFFFFFFFFFFFFFFFFFFFFFFFFFFFFFFFFFFFFFFF
310
FFFFFFFFFFFFFFFFFFFFFFFFFFFFFFFFF000FFFFFFFFFFFFFFFFFFFFFFFFFFFF
310
FFFFFFFFFFFFFFFFFFFFFFFFFFFFFFFFFFFFFFFFFFFFFFFFFFFFFFFFFFFFFFFF
310
FFFFFFFFFFFFFFFFFFFFFFFFFFFFFFFFFFFFFFFFFFFFFFFFFFFFFFFFFFFFFFFF
310
FFFFFFFFFFFFFFFFF000FFFFFFFFFFFFFFFFFFFFFFFFFFFFFFFFFFFFFFFFFFFF
310
FFFFFFFFFFFFFFFFFFFFFFFFFFFFFFFFFFFFFFFFFFFFFFFFFFFFFFFFFFFFFFFF
310
FFFFFFFFFFFFFFFFFFFFFFFFFFFFFFFFFFFFFFFFFFFFFFFFFFFFFFFFFFFFFFFF
310
F000FFFFFFFFFFFFFFFFFFFFFFFFFFFFFFFFFFFFFFFFFFFFFFFFFFFFFFFFFFFF
310
FFFFFFFFFFFFFFFFFFFFFFFFFFFFFFFFFFFFFFFFFFFFFFFFFFFFFFFFFFFFFFFF
310
FFFFFFFFFFFFFFFFFFFFFFFFFFFFFFFFFFFFFFFFFFFFFFFFF000FFFFFFFFFFFF
310
FFFFFFFFFFFFFFFFFFFFFFFFFFFFFFFFFFFFFFFFFFFFFFFFFFFFFFFFFFFFFFFF
310
FFFFFFFFFFFFFFFFFFFFFFFFFFFFFFFFFFFFFFFFFFFFFFFFFFFFFFFFFFFFFFFF
310
FFFFFFFFFFFFFFFFFFFFFFFFFFFFFFFFF000FFFFFFFFFFFFFFFFFFFFFFFFFFFF
310
FFFFFFFFFFFFFFFFFFFFFFFFFFFFFFFFFFFFFFFFFFFFFFFFFFFFFFFFFFFFFFFF
310
FFFFFFFFFFFFFFFFFFFFFFFFFFFFFFFFFFFFFFFFFFFFFFFFFFFFFFFFFFFFFFFF
310
FFFFFFFFFFFFFFFFF000FFFFFFFFFFFFFFFFFFFFFFFFFFFFFFFFFFFFFFFFFFFF
310
FFFFFFFFFFFFFFFFFFFFFFFFFFFFFFFFFFFFFFFFFFFFFFFFFFFFFFFFFFFFFFFF
310
FFFFFFFFFFFFFFFFFFFFFFFFFFFFFFFFFFFFFFFFFFFFFFFFFFFFFFFFFFFFFFFF
310
F000FFFFFFFFFFFFFFFFFFFFFFFFFFFFFFFFFFFFFFFFFFFFFFFFFFFFFFFFFFFF
310
FFFFFFFFFFFFFFFFFFFFFFFFFFFFFFFFFFFFFFFFFFFFFFFFFFFFFFFFFFFFFFFF
310
FFFFFFFFFFFFFFFFFFFFFFFFFFFFFFFFFFFFFFFFFFFFFFFFF000FFFFFFFFFFFF
310
FFFFFFFFFFFFFFFFFFFFFFFFFFFFFFFFFFFFFFFFFFFFFFFFFFFFFFFFFFFFFFFF
310
FFFFFFFFFFFFFFFFFFFFFFFFFFFFFFFFFFFFFFFFFFFFFFFFFFFFFFFFFFFFFFFF
310
FFFFFFFFFFFFFFFFFFFFFFFFFFFFFFFFF000FFFFFFFFFFFFFFFFFFFFFFFFFFFF
310
FFFFFFFFFFFFFFFFFFFFFFFFFFFFFFFFFFFFFFFFFFFFFFFFFFFFFFFFFFFFFFFF
310
FFFFFFFFFFFFFFFFFFFFFFFFFFFFFFFFFFFFFFFFFFFFFFFFFFFFFFFFFFFFFFFF
310
FFFFFFFFFFFFFFFFF000FFFFFFFFFFFFFFFFFFFFFFFFFFFFFFFFFFFFFFFFFFFF
310
FFFFFFFFFFFFFFFFFFFFFFFFFFFFFFFFFFFFFFFFFFFFFFFFFFFFFFFFFFFFFFFF
310
FFFFFFFFFFFFFFFFFFFFFFFFFFFFFFFFFFFFFFFFFFFFFFFFFFFFFFFFFFFFFFFF
310
F000FFFFFFFFFFFFFFFFFFFFFFFFFFFFFFFFFFFFFFFFFFFFFFFFFFFFFFFFFFFF
310
FFFFFFFFFFFFFFFFFFFFFFFFFFFFFFFFFFFFFFFFFFFFFFFFFFFFFFFFFFFFFFFF
310
FFFFFFFFFFFFFFFFFFFFFFFFFFFFFFFFFFFFFFFFFFFFFFFFF000FFFFFFFFFFFF
310
FFFFFFFFFFFFFFFFFFFFFFFFFFFFFFFFFFFFFFFFFFFFFFFFFFFFFFFFFFFFFFFF
310
FFFFFFFFFFFFFFFFFFFFFFFFFFFFFFFFFFFFFFFFFFFFFFFFFFFFFFFFFFFFFFFF
310
FFFFFFFFFFFFFFFFFFFFFFFFFFFFFFFFF0000000000000000000000000000000
310
0000000000000000000000000000000000000000000000000000000000000000
310
0000000000000000000000000000000000000000000000000000000000000000
310
0000000000000000000000000000000000000000000000000000000000000000
310
0000000000000000000000000000000000000000000000000000000000000000
310
0000000000000000000000000000000000000000000000000000000000000000
310
0000000000000000000000000000000000000000000000000000000000000000
310
0000000000000000000000000000000000000000000000000000000000000000
310
0000000000000000000000000000000000000000000000000000000000000000
310
0000000000000000000000000000000000000000000000000000000000000000
310
0000000000000000000000000000000000000000000000000000000000000000
310
0000000000000000000000000000000000000000000000000000000000000000
310
0000000000000000000000000000000000000000000000000000000000000000
310
0000000000000000000000000000000000000000000000000000000000000000
310
0000000000000000000000000000000000000000000000000000000000000000
310
0000000000000000000000000000000000000000000000000000000000000000
  1
OLE
  0
ENDSEC
  0
SECTION
  2
OBJECTS
  0
DICTIONARY
  5
C
330
0
100
AcDbDictionary
281
     1
  3
ACAD_GROUP
350
D
  3
ACAD_LAYOUT
350
1A
  3
ACAD_MLINESTYLE
350
17
  3
ACAD_PLOTSETTINGS
350
19
  3
ACAD_PLOTSTYLENAME
350
E
  0
DICTIONARY
  5
D
102
{ACAD_REACTORS
330
C
102
}
330
C
100
AcDbDictionary
281
     1
  0
DICTIONARY
  5
1A
102
{ACAD_REACTORS
330
C
102
}
330
C
100
AcDbDictionary
281
     1
  3
Layout1
350
1E
  3
Layout2
350
26
  3
Model
350
22
  0
DICTIONARY
  5
17
102
{ACAD_REACTORS
330
C
102
}
330
C
100
AcDbDictionary
281
     1
  3
Standard
350
18
  0
DICTIONARY
  5
19
102
{ACAD_REACTORS
330
C
102
}
330
C
100
AcDbDictionary
281
     1
  0
ACDBDICTIONARYWDFLT
  5
E
102
{ACAD_REACTORS
330
C
102
}
330
C
100
AcDbDictionary
281
     1
  3
Normal
350
F
100
AcDbDictionaryWithDefault
340
F
  0
LAYOUT
  5
1E
102
{ACAD_REACTORS
330
1A
102
}
330
1A
100
AcDbPlotSettings
  1

  2
none_device
  4

  6

 40
0.0
 41
0.0
 42
0.0
 43
0.0
 44
0.0
 45
0.0
 46
0.0
 47
0.0
 48
0.0
 49
0.0
140
0.0
141
0.0
142
1.0
143
1.0
 70
   688
 72
     0
 73
     0
 74
     5
  7

 75
    16
147
1.0
148
0.0
149
0.0
100
AcDbLayout
  1
Layout1
 70
     1
 71
     1
 10
0.0
 20
0.0
 11
420.0
 21
297.0
 12
0.0
 22
0.0
 32
0.0
 14
1.0000000000E+20
 24
1.0000000000E+20
 34
1.0000000000E+20
 15
-1.0000000000E+20
 25
-1.0000000000E+20
 35
-1.0000000000E+20
146
0.0
 13
0.0
 23
0.0
 33
0.0
 16
1.0
 26
0.0
 36
0.0
 17
0.0
 27
1.0
 37
0.0
 76
     0
330
1B
  0
LAYOUT
  5
26
102
{ACAD_REACTORS
330
1A
102
}
330
1A
100
AcDbPlotSettings
  1

  2
none_device
  4

  6

 40
0.0
 41
0.0
 42
0.0
 43
0.0
 44
0.0
 45
0.0
 46
0.0
 47
0.0
 48
0.0
 49
0.0
140
0.0
141
0.0
142
1.0
143
1.0
 70
   688
 72
     0
 73
     0
 74
     5
  7

 75
    16
147
1.0
148
0.0
149
0.0
100
AcDbLayout
  1
Layout2
 70
     1
 71
     2
 10
0.0
 20
0.0
 11
0.0
 21
0.0
 12
0.0
 22
0.0
 32
0.0
 14
0.0
 24
0.0
 34
0.0
 15
0.0
 25
0.0
 35
0.0
146
0.0
 13
0.0
 23
0.0
 33
0.0
 16
1.0
 26
0.0
 36
0.0
 17
0.0
 27
1.0
 37
0.0
 76
     0
330
23
  0
LAYOUT
  5
22
102
{ACAD_REACTORS
330
1A
102
}
330
1A
100
AcDbPlotSettings
  1

  2
none_device
  4

  6

 40
0.0
 41
0.0
 42
0.0
 43
0.0
 44
0.0
 45
0.0
 46
0.0
 47
0.0
 48
0.0
 49
0.0
140
0.0
141
0.0
142
1.0
143
1.0
 70
  1712
 72
     0
 73
     0
 74
     0
  7

 75
     0
147
1.0
148
0.0
149
0.0
100
AcDbLayout
  1
Model
 70
     1
 71
     0
 10
0.0
 20
0.0
 11
297.0
 21
210.0
 12
0.0
 22
0.0
 32
0.0
 14
0.0
 24
0.0
 34
0.0
 15
297.0
 25
210.0
 35
0.0
146
0.0
 13
0.0
 23
0.0
 33
0.0
 16
1.0
 26
0.0
 36
0.0
 17
0.0
 27
1.0
 37
0.0
 76
     0
330
1F
331
29
  0
MLINESTYLE
  5
18
102
{ACAD_REACTORS
330
17
102
}
330
17
100
AcDbMlineStyle
  2
Standard
 70
     0
  3

 62
   256
 51
90.0
 52
90.0
 71
     2
 49
0.5
 62
   256
  6
BYLAYER
 49
-0.5
 62
   256
  6
BYLAYER
  0
ACDBPLACEHOLDER
  5
F
102
{ACAD_REACTORS
330
E
102
}
330
E
  0
ENDSEC
  0
EOF
