  0
SECTION
  2
HEADER
  9
$ACADVER
  1
AC1015
  9
$ACADMAINTVER
 70
     6
  9
$DWGCODEPAGE
  3
ANSI_1252
  9
$INSBASE
 10
0.0
 20
0.0
 30
0.0
  9
$EXTMIN
 10
0.0
 20
0.0
 30
0.0
  9
$EXTMAX
 10
297.0
 20
210.0
 30
0.0
  9
$LIMMIN
 10
0.0
 20
0.0
  9
$LIMMAX
 10
297.0
 20
210.0
  9
$ORTHOMODE
 70
     0
  9
$REGENMODE
 70
     1
  9
$FILLMODE
 70
     1
  9
$QTEXTMODE
 70
     0
  9
$MIRRTEXT
 70
     1
  9
$LTSCALE
 40
1.0
  9
$ATTMODE
 70
     1
  9
$TEXTSIZE
 40
2.0
  9
$TRACEWID
 40
1.0
  9
$TEXTSTYLE
  7
Standard
  9
$CLAYER
  8
0
  9
$CELTYPE
  6
ByLayer
  9
$CECOLOR
 62
   256
  9
$CELTSCALE
 40
1.0
  9
$DISPSILH
 70
     0
  9
$DIMSCALE
 40
1.0
  9
$DIMASZ
 40
3.0
  9
$DIMEXO
 40
0.0
  9
$DIMDLI
 40
3.75
  9
$DIMRND
 40
0.0
  9
$DIMDLE
 40
0.0
  9
$DIMEXE
 40
1.0
  9
$DIMTP
 40
0.0
  9
$DIMTM
 40
0.0
  9
$DIMTXT
 40
2.0
  9
$DIMCEN
 40
2.5
  9
$DIMTSZ
 40
0.0
  9
$DIMTOL
 70
     0
  9
$DIMLIM
 70
     0
  9
$DIMTIH
 70
     1
  9
$DIMTOH
 70
     1
  9
$DIMSE1
 70
     0
  9
$DIMSE2
 70
     0
  9
$DIMTAD
 70
     1
  9
$DIMZIN
 70
     0
  9
$DIMBLK
  1

  9
$DIMASO
 70
     1
  9
$DIMSHO
 70
     1
  9
$DIMPOST
  1

  9
$DIMAPOST
  1

  9
$DIMALT
 70
     0
  9
$DIMALTD
 70
     3
  9
$DIMALTF
 40
0.0393700787
  9
$DIMLFAC
 40
1.0
  9
$DIMTOFL
 70
     1
  9
$DIMTVP
 40
0.0
  9
$DIMTIX
 70
     0
  9
$DIMSOXD
 70
     0
  9
$DIMSAH
 70
     0
  9
$DIMBLK1
  1

  9
$DIMBLK2
  1

  9
$DIMSTYLE
  2
ISO-25
  9
$DIMCLRD
 70
     0
  9
$DIMCLRE
 70
     0
  9
$DIMCLRT
 70
     0
  9
$DIMTFAC
 40
1.0
  9
$DIMGAP
 40
1.524
  9
$DIMJUST
 70
     0
  9
$DIMSD1
 70
     0
  9
$DIMSD2
 70
     0
  9
$DIMTOLJ
 70
     0
  9
$DIMTZIN
 70
     0
  9
$DIMALTZ
 70
     0
  9
$DIMALTTZ
 70
     0
  9
$DIMUPT
 70
     0
  9
$DIMDEC
 70
     2
  9
$DIMTDEC
 70
     3
  9
$DIMALTU
 70
     2
  9
$DIMALTTD
 70
     3
  9
$DIMTXSTY
  7
Standard
  9
$DIMAUNIT
 70
     0
  9
$DIMADEC
 70
     2
  9
$DIMALTRND
 40
0.0
  9
$DIMAZIN
 70
     0
  9
$DIMDSEP
 70
    44
  9
$DIMATFIT
 70
     3
  9
$DIMFRAC
 70
     0
  9
$DIMLDRBLK
  1

  9
$DIMLUNIT
 70
     2
  9
$DIMLWD
 70
    -2
  9
$DIMLWE
 70
    -2
  9
$DIMTMOVE
 70
     0
  9
$LUNITS
 70
     2
  9
$LUPREC
 70
     2
  9
$SKETCHINC
 40
1.0
  9
$FILLETRAD
 40
10.0
  9
$AUNITS
 70
     0
  9
$AUPREC
 70
     2
  9
$MENU
  1
.
  9
$ELEVATION
 40
0.0
  9
$PELEVATION
 40
0.0
  9
$THICKNESS
 40
0.0
  9
$LIMCHECK
 70
     0
  9
$CHAMFERA
 40
10.0
  9
$CHAMFERB
 40
10.0
  9
$CHAMFERC
 40
20.0
  9
$CHAMFERD
 40
0.0
  9
$SKPOLY
 70
     0
  9
$TDCREATE
 40
2456043.68923228
  9
$TDUCREATE
 40
2456043.605898947
  9
$TDUPDATE
 40
2456043.689233553
  9
$TDUUPDATE
 40
2456043.60590022
  9
$TDINDWG
 40
0.0000000116
  9
$TDUSRTIMER
 40
0.0000000116
  9
$USRTIMER
 70
     1
  9
$ANGBASE
 50
0.0
  9
$ANGDIR
 70
     0
  9
$PDMODE
 70
     0
  9
$PDSIZE
 40
-1.0
  9
$PLINEWID
 40
0.0
  9
$SPLFRAME
 70
     0
  9
$SPLINETYPE
 70
     6
  9
$SPLINESEGS
 70
     8
  9
$HANDSEED
  5
20F
  9
$SURFTAB1
 70
     6
  9
$SURFTAB2
 70
     6
  9
$SURFTYPE
 70
     6
  9
$SURFU
 70
     6
  9
$SURFV
 70
     6
  9
$UCSBASE
  2

  9
$UCSNAME
  2

  9
$UCSORG
 10
0.0
 20
0.0
 30
0.0
  9
$UCSXDIR
 10
1.0
 20
0.0
 30
0.0
  9
$UCSYDIR
 10
0.0
 20
1.0
 30
0.0
  9
$UCSORTHOREF
  2

  9
$UCSORTHOVIEW
 70
     0
  9
$UCSORGTOP
 10
0.0
 20
0.0
 30
0.0
  9
$UCSORGBOTTOM
 10
0.0
 20
0.0
 30
0.0
  9
$UCSORGLEFT
 10
0.0
 20
0.0
 30
0.0
  9
$UCSORGRIGHT
 10
0.0
 20
0.0
 30
0.0
  9
$UCSORGFRONT
 10
0.0
 20
0.0
 30
0.0
  9
$UCSORGBACK
 10
0.0
 20
0.0
 30
0.0
  9
$PUCSBASE
  2

  9
$PUCSNAME
  2

  9
$PUCSORG
 10
0.0
 20
0.0
 30
0.0
  9
$PUCSXDIR
 10
1.0
 20
0.0
 30
0.0
  9
$PUCSYDIR
 10
0.0
 20
1.0
 30
0.0
  9
$PUCSORTHOREF
  2

  9
$PUCSORTHOVIEW
 70
     0
  9
$PUCSORGTOP
 10
0.0
 20
0.0
 30
0.0
  9
$PUCSORGBOTTOM
 10
0.0
 20
0.0
 30
0.0
  9
$PUCSORGLEFT
 10
0.0
 20
0.0
 30
0.0
  9
$PUCSORGRIGHT
 10
0.0
 20
0.0
 30
0.0
  9
$PUCSORGFRONT
 10
0.0
 20
0.0
 30
0.0
  9
$PUCSORGBACK
 10
0.0
 20
0.0
 30
0.0
  9
$USERI1
 70
     0
  9
$USERI2
 70
     0
  9
$USERI3
 70
     0
  9
$USERI4
 70
     0
  9
$USERI5
 70
     0
  9
$USERR1
 40
0.0
  9
$USERR2
 40
0.0
  9
$USERR3
 40
0.0
  9
$USERR4
 40
0.0
  9
$USERR5
 40
0.0
  9
$WORLDVIEW
 70
     1
  9
$SHADEDGE
 70
     3
  9
$SHADEDIF
 70
    70
  9
$TILEMODE
 70
     1
  9
$MAXACTVP
 70
    64
  9
$PINSBASE
 10
0.0
 20
0.0
 30
0.0
  9
$PLIMCHECK
 70
     0
  9
$PEXTMIN
 10
1.0000000000E+20
 20
1.0000000000E+20
 30
1.0000000000E+20
  9
$PEXTMAX
 10
-1.0000000000E+20
 20
-1.0000000000E+20
 30
-1.0000000000E+20
  9
$PLIMMIN
 10
0.0
 20
0.0
  9
$PLIMMAX
 10
420.0
 20
297.0
  9
$UNITMODE
 70
     0
  9
$VISRETAIN
 70
     1
  9
$PLINEGEN
 70
     0
  9
$PSLTSCALE
 70
     1
  9
$TREEDEPTH
 70
  3020
  9
$CMLSTYLE
  2
Standard
  9
$CMLJUST
 70
     0
  9
$CMLSCALE
 40
20.0
  9
$PROXYGRAPHICS
 70
     1
  9
$MEASUREMENT
 70
     1
  9
$CELWEIGHT
370
    -1
  9
$ENDCAPS
280
     0
  9
$JOINSTYLE
280
     0
  9
$LWDISPLAY
290
     1
  9
$INSUNITS
 70
     4
  9
$HYPERLINKBASE
  1

  9
$STYLESHEET
  1

  9
$XEDIT
290
     1
  9
$CEPSNTYPE
380
     0
  9
$PSTYLEMODE
290
     1
  9
$FINGERPRINTGUID
  2
{C940743C-D51F-4C7E-987A-E78FD6328A7F}
  9
$VERSIONGUID
  2
{FAEB1C32-E019-11D5-929B-00C0DF256EC4}
  9
$EXTNAMES
290
     1
  9
$PSVPSCALE
 40
0.0
  9
$OLESTARTUP
290
     0
  0
ENDSEC
  0
SECTION
  2
CLASSES
  0
CLASS
  1
ACDBDICTIONARYWDFLT
  2
AcDbDictionaryWithDefault
  3
ObjectDBX Classes
 90
        0
280
     0
281
     0
  0
CLASS
  1
VISUALSTYLE
  2
AcDbVisualStyle
  3
ObjectDBX Classes
 90
     4095
280
     0
281
     0
  0
CLASS
  1
MATERIAL
  2
AcDbMaterial
  3
ObjectDBX Classes
 90
     1153
280
     0
281
     0
  0
CLASS
  1
ACDBPLACEHOLDER
  2
AcDbPlaceHolder
  3
ObjectDBX Classes
 90
        0
280
     0
281
     0
  0
CLASS
  1
LAYOUT
  2
AcDbLayout
  3
ObjectDBX Classes
 90
        0
280
     0
281
     0
  0
ENDSEC
  0
SECTION
  2
TABLES
  0
TABLE
  2
VPORT
  5
8
330
0
100
AcDbSymbolTable
 70
     1
  0
VPORT
  5
29
330
8
100
AcDbSymbolTableRecord
100
AcDbViewportTableRecord
  2
*Active
 70
     0
 10
0.0
 20
0.0
 11
1.0
 21
1.0
 12
148.5
 22
105.0
 13
0.0
 23
0.0
 14
10.0
 24
10.0
 15
10.0
 25
10.0
 16
0.0
 26
0.0
 36
1.0
 17
0.0
 27
0.0
 37
0.0
 40
210.0
 41
1.4142857143
 42
50.0
 43
0.0
 44
0.0
 50
0.0
 51
0.0
 71
     0
 72
  2000
 73
     1
 74
     3
 75
     0
 76
     0
 77
     0
 78
     0
281
     0
 65
     1
110
0.0
120
0.0
130
0.0
111
1.0
121
0.0
131
0.0
112
0.0
122
1.0
132
0.0
 79
     0
146
0.0
  0
ENDTAB
  0
TABLE
  2
LTYPE
  5
5
330
0
100
AcDbSymbolTable
 70
     6
  0
LTYPE
  5
14
330
5
100
AcDbSymbolTableRecord
100
AcDbLinetypeTableRecord
  2
ByBlock
 70
     0
  3

 72
    65
 73
     0
 40
0.0
  0
LTYPE
  5
15
330
5
100
AcDbSymbolTableRecord
100
AcDbLinetypeTableRecord
  2
ByLayer
 70
     0
  3

 72
    65
 73
     0
 40
0.0
  0
LTYPE
  5
16
330
5
100
AcDbSymbolTableRecord
100
AcDbLinetypeTableRecord
  2
Continuous
 70
     0
  3
Solid line
 72
    65
 73
     0
 40
0.0
  0
LTYPE
  5
3F
330
5
100
AcDbSymbolTableRecord
100
AcDbLinetypeTableRecord
  2
HIDDEN
 70
     0
  3
Hidden __ __ __ __ __ __ __ __ __ __ __ __ __ __
 72
    65
 73
     2
 40
1.905
 49
1.27
 74
     0
 49
-0.635
 74
     0
  0
LTYPE
  5
40
330
5
100
AcDbSymbolTableRecord
100
AcDbLinetypeTableRecord
  2
PHANTOM
 70
     0
  3
Phantom ______  __  __  ______  __  __  ______
 72
    65
 73
     6
 40
12.7
 49
6.35
 74
     0
 49
-1.27
 74
     0
 49
1.27
 74
     0
 49
-1.27
 74
     0
 49
1.27
 74
     0
 49
-1.27
 74
     0
  0
LTYPE
  5
41
330
5
100
AcDbSymbolTableRecord
100
AcDbLinetypeTableRecord
  2
CENTER
 70
     0
  3
Center ____ _ ____ _ ____ _ ____ _ ____ _ ____
 72
    65
 73
     4
 40
10.16
 49
6.35
 74
     0
 49
-1.27
 74
     0
 49
1.27
 74
     0
 49
-1.27
 74
     0
  0
LTYPE
  5
42
330
5
100
AcDbSymbolTableRecord
100
AcDbLinetypeTableRecord
  2
CENTERX2
 70
     0
  3
Center (2x) ________  __  ________  __  _____
 72
    65
 73
     4
 40
20.32
 49
12.7
 74
     0
 49
-2.54
 74
     0
 49
2.54
 74
     0
 49
-2.54
 74
     0
  0
LTYPE
  5
43
330
5
100
AcDbSymbolTableRecord
100
AcDbLinetypeTableRecord
  2
DOT2
 70
     0
  3
Dot (.5x) ........................................
 72
    65
 73
     2
 40
0.635
 49
0.0
 74
     0
 49
-0.635
 74
     0
  0
ENDTAB
  0
TABLE
  2
LAYER
  5
2
330
0
100
AcDbSymbolTable
 70
     5
  0
LAYER
  5
10
330
2
100
AcDbSymbolTableRecord
100
AcDbLayerTableRecord
  2
0
 70
     0
 62
     7
  6
Continuous
370
    -3
390
F
  0
LAYER
  5
44
330
2
100
AcDbSymbolTableRecord
100
AcDbLayerTableRecord
  2
FORMAT
 70
     0
 62
     7
  6
Continuous
370
    -3
390
F
  0
LAYER
  5
45
330
2
100
AcDbSymbolTableRecord
100
AcDbLayerTableRecord
  2
VERMASSUNG
 70
     0
 62
     7
  6
Continuous
370
    -3
390
F
  0
LAYER
  5
46
330
2
100
AcDbSymbolTableRecord
100
AcDbLayerTableRecord
  2
KOPF_DÜNN
 70
     0
 62
     7
  6
Continuous
370
    -3
390
F
  0
LAYER
  5
47
330
2
100
AcDbSymbolTableRecord
100
AcDbLayerTableRecord
  2
KOPF_DICK
 70
     0
 62
     7
  6
Continuous
370
    15
390
F
  0
ENDTAB
  0
TABLE
  2
STYLE
  5
3
330
0
100
AcDbSymbolTable
 70
     3
  0
STYLE
  5
11
330
3
100
AcDbSymbolTableRecord
100
AcDbTextStyleTableRecord
  2
Standard
 70
     0
 40
0.0
 41
1.0
 50
0.0
 71
     0
 42
2.0
  3
txt
  4

  0
STYLE
  5
48
330
3
100
AcDbSymbolTableRecord
100
AcDbTextStyleTableRecord
  2
SLDTEXTSTYLE0
 70
     0
 40
0.0
 41
0.7
 50
0.0
 71
     0
 42
0.2
  3
TXT
  4

  0
STYLE
  5
4C
330
3
100
AcDbSymbolTableRecord
100
AcDbTextStyleTableRecord
  2
SLDTEXTSTYLE1
 70
     0
 40
0.0
 41
0.6526315789
 50
0.0
 71
     0
 42
0.2
  3
TXT
  4

  0
ENDTAB
  0
TABLE
  2
VIEW
  5
6
330
0
100
AcDbSymbolTable
 70
     0
  0
ENDTAB
  0
TABLE
  2
UCS
  5
7
330
0
100
AcDbSymbolTable
 70
     0
  0
ENDTAB
  0
TABLE
  2
APPID
  5
9
330
0
100
AcDbSymbolTable
 70
     1
  0
APPID
  5
12
330
9
100
AcDbSymbolTableRecord
100
AcDbRegAppTableRecord
  2
ACAD
 70
     0
  0
ENDTAB
  0
TABLE
  2
DIMSTYLE
  5
A
330
0
100
AcDbSymbolTable
 70
     3
100
AcDbDimStyleTable
  0
DIMSTYLE
105
27
330
A
100
AcDbSymbolTableRecord
100
AcDbDimStyleTableRecord
  2
ISO-25
 70
     0
 41
2.5
 42
0.625
 43
3.75
 44
1.25
 73
     0
 74
     0
 77
     1
 78
     8
140
2.5
141
2.5
143
0.0393700787
147
0.625
171
     3
172
     1
178
     0
271
     2
272
     2
274
     3
278
    44
283
     0
284
     8
340
11
  0
DIMSTYLE
105
190
102
{ACAD_REACTORS
330
18F
330
19C
330
1A6
330
1B0
330
1F7
102
}
330
A
100
AcDbSymbolTableRecord
100
AcDbDimStyleTableRecord
  2
SLDDIMSTYLE0
 70
     0
 41
3.0
 44
0.0
 45
0.000000001
 73
     0
 74
     0
 77
     1
 78
    12
 79
     3
140
2.0
147
0.5
173
     1
178
     0
271
     2
272
     3
276
     2
284
    12
340
48
  0
DIMSTYLE
105
1BB
102
{ACAD_REACTORS
330
1BA
102
}
330
A
100
AcDbSymbolTableRecord
100
AcDbDimStyleTableRecord
  2
SLDDIMSTYLE1
 70
     0
 41
3.0
 44
0.0
 73
     0
 74
     0
 77
     1
 78
    12
 79
     3
140
2.0
147
0.5
173
     1
178
     0
179
     2
272
     3
276
     2
284
    12
340
48
  0
ENDTAB
  0
TABLE
  2
BLOCK_RECORD
  5
1
330
0
100
AcDbSymbolTable
 70
     8
  0
BLOCK_RECORD
  5
1F
330
1
100
AcDbSymbolTableRecord
100
AcDbBlockTableRecord
  2
*Model_Space
340
22
  0
BLOCK_RECORD
  5
1B
330
1
100
AcDbSymbolTableRecord
100
AcDbBlockTableRecord
  2
*Paper_Space
340
1E
  0
BLOCK_RECORD
  5
23
330
1
100
AcDbSymbolTableRecord
100
AcDbBlockTableRecord
  2
*Paper_Space0
340
26
  0
BLOCK_RECORD
  5
191
330
1
100
AcDbSymbolTableRecord
100
AcDbBlockTableRecord
  2
_D
340
0
  0
BLOCK_RECORD
  5
19D
330
1
100
AcDbSymbolTableRecord
100
AcDbBlockTableRecord
  2
_D_1
340
0
  0
BLOCK_RECORD
  5
1A7
330
1
100
AcDbSymbolTableRecord
100
AcDbBlockTableRecord
  2
_D_2
340
0
  0
BLOCK_RECORD
  5
1B1
330
1
100
AcDbSymbolTableRecord
100
AcDbBlockTableRecord
  2
_D_3
340
0
  0
BLOCK_RECORD
  5
1BC
330
1
100
AcDbSymbolTableRecord
100
AcDbBlockTableRecord
  2
_D_4
340
0
  0
BLOCK_RECORD
  5
1F8
330
1
100
AcDbSymbolTableRecord
100
AcDbBlockTableRecord
  2
_D_5
340
0
  0
BLOCK_RECORD
  5
202
330
1
100
AcDbSymbolTableRecord
100
AcDbBlockTableRecord
  2
SW_CENTERMARKSYMBOL_0
340
0
102
{BLKREFS
331
20D
102
}
  0
ENDTAB
  0
ENDSEC
  0
SECTION
  2
BLOCKS
  0
BLOCK
  5
20
330
1F
100
AcDbEntity
  8
0
100
AcDbBlockBegin
  2
*Model_Space
 70
     0
 10
0.0
 20
0.0
 30
0.0
  3
*Model_Space
  1

  0
ENDBLK
  5
21
330
1F
100
AcDbEntity
  8
0
100
AcDbBlockEnd
  0
BLOCK
  5
1C
330
1B
100
AcDbEntity
 67
     1
  8
0
100
AcDbBlockBegin
  2
*Paper_Space
 70
     0
 10
0.0
 20
0.0
 30
0.0
  3
*Paper_Space
  1

  0
ENDBLK
  5
1D
330
1B
100
AcDbEntity
 67
     1
  8
0
100
AcDbBlockEnd
  0
BLOCK
  5
24
330
23
100
AcDbEntity
  8
0
100
AcDbBlockBegin
  2
*Paper_Space0
 70
     0
 10
0.0
 20
0.0
 30
0.0
  3
*Paper_Space0
  1

  0
ENDBLK
  5
25
330
23
100
AcDbEntity
  8
0
100
AcDbBlockEnd
  0
BLOCK
  5
192
330
191
100
AcDbEntity
  8
0
100
AcDbBlockBegin
  2
_D
 70
     0
 10
0.0
 20
0.0
 30
0.0
  3
_D
  1

  0
SOLID
  5
194
330
191
100
AcDbEntity
  8
VERMASSUNG
100
AcDbTrace
 10
139.7503605531
 20
155.5461301155
 30
0.0
 11
139.3003605531
 21
152.5461301155
 31
0.0
 12
140.2003605531
 22
152.5461301155
 32
0.0
 13
140.2003605531
 23
152.5461301155
 33
0.0
  0
SOLID
  5
195
330
191
100
AcDbEntity
  8
VERMASSUNG
100
AcDbTrace
 10
139.7503605531
 20
92.5461301155
 30
0.0
 11
140.2003605531
 21
95.5461301155
 31
0.0
 12
139.3003605531
 22
95.5461301155
 32
0.0
 13
139.3003605531
 23
95.5461301155
 33
0.0
  0
LINE
  5
196
330
191
100
AcDbEntity
  8
VERMASSUNG
100
AcDbLine
 10
177.5957150397
 20
155.5461301155
 30
0.0
 11
138.7503605531
 21
155.5461301155
 31
0.0
  0
LINE
  5
197
330
191
100
AcDbEntity
  8
VERMASSUNG
100
AcDbLine
 10
177.5957150397
 20
92.5461301155
 30
0.0
 11
138.7503605531
 21
92.5461301155
 31
0.0
  0
LINE
  5
198
330
191
100
AcDbEntity
  8
VERMASSUNG
100
AcDbLine
 10
139.7503605531
 20
155.5461301155
 30
0.0
 11
139.7503605531
 21
92.5461301155
 31
0.0
  0
MTEXT
  5
199
330
191
100
AcDbEntity
  8
VERMASSUNG
100
AcDbMText
 10
136.9722250641
 20
117.8420956574
 30
0.0
 40
2.0
 41
0.0
 71
     1
 72
     1
  1
HSK
  7
SLDTEXTSTYLE0
 11
-7.044195017643634E-15
 21
1.0
 31
0.0
 73
     1
 44
1.0
  0
MTEXT
  5
19A
330
191
100
AcDbEntity
  8
VERMASSUNG
100
AcDbMText
 10
137.1722250736
 20
123.8420957096
 30
0.0
 40
2.0
 41
0.0
 71
     1
 72
     1
  1
%%c
  7
SLDTEXTSTYLE0
 11
-7.044195017643634E-15
 21
1.0
 31
0.0
 73
     1
 44
1.0
  0
MTEXT
  5
19B
330
191
100
AcDbEntity
  8
VERMASSUNG
100
AcDbMText
 10
137.17222519
 20
127.4519139213
 30
0.0
 40
2.0
 41
0.0
 71
     1
 72
     1
  1
63
  7
SLDTEXTSTYLE0
 11
-7.044195017643634E-15
 21
1.0
 31
0.0
 73
     1
 44
1.0
  0
ENDBLK
  5
193
330
191
100
AcDbEntity
  8
0
100
AcDbBlockEnd
  0
BLOCK
  5
19E
330
19D
100
AcDbEntity
  8
0
100
AcDbBlockBegin
  2
_D_1
 70
     0
 10
0.0
 20
0.0
 30
0.0
  3
_D_1
  1

  0
SOLID
  5
1A0
330
19D
100
AcDbEntity
  8
VERMASSUNG
100
AcDbTrace
 10
177.2957150397
 20
162.5141458107
 30
0.0
 11
180.2957150397
 21
162.0641458107
 31
0.0
 12
180.2957150397
 22
162.9641458107
 32
0.0
 13
180.2957150397
 23
162.9641458107
 33
0.0
  0
SOLID
  5
1A1
330
19D
100
AcDbEntity
  8
VERMASSUNG
100
AcDbTrace
 10
247.2957150397
 20
162.5141458107
 30
0.0
 11
244.2957150397
 21
162.9641458107
 31
0.0
 12
244.2957150397
 22
162.0641458107
 32
0.0
 13
244.2957150397
 23
162.0641458107
 33
0.0
  0
LINE
  5
1A2
330
19D
100
AcDbEntity
  8
VERMASSUNG
100
AcDbLine
 10
177.2957150397
 20
155.2461301155
 30
0.0
 11
177.2957150397
 21
163.5141458107
 31
0.0
  0
LINE
  5
1A3
330
19D
100
AcDbEntity
  8
VERMASSUNG
100
AcDbLine
 10
247.2957150397
 20
79.0461301155
 30
0.0
 11
247.2957150397
 21
163.5141458107
 31
0.0
  0
LINE
  5
1A4
330
19D
100
AcDbEntity
  8
VERMASSUNG
100
AcDbLine
 10
177.2957150397
 20
162.5141458107
 30
0.0
 11
247.2957150397
 21
162.5141458107
 31
0.0
  0
MTEXT
  5
1A5
330
19D
100
AcDbEntity
  8
VERMASSUNG
100
AcDbMText
 10
210.8965897136
 20
165.0922811738
 30
0.0
 40
2.0
 41
0.0
 71
     1
 72
     1
  1
70
  7
SLDTEXTSTYLE0
 73
     1
 44
1.0
  0
ENDBLK
  5
19F
330
19D
100
AcDbEntity
  8
0
100
AcDbBlockEnd
  0
BLOCK
  5
1A8
330
1A7
100
AcDbEntity
  8
0
100
AcDbBlockBegin
  2
_D_2
 70
     0
 10
0.0
 20
0.0
 30
0.0
  3
_D_2
  1

  0
SOLID
  5
1AA
330
1A7
100
AcDbEntity
  8
VERMASSUNG
100
AcDbTrace
 10
145.3957150397
 20
168.5141458107
 30
0.0
 11
148.3957150397
 21
168.0641458107
 31
0.0
 12
148.3957150397
 22
168.9641458107
 32
0.0
 13
148.3957150397
 23
168.9641458107
 33
0.0
  0
SOLID
  5
1AB
330
1A7
100
AcDbEntity
  8
VERMASSUNG
100
AcDbTrace
 10
247.2957150397
 20
168.5141458107
 30
0.0
 11
244.2957150397
 21
168.9641458107
 31
0.0
 12
244.2957150397
 22
168.0641458107
 32
0.0
 13
244.2957150397
 23
168.0641458107
 33
0.0
  0
LINE
  5
1AC
330
1A7
100
AcDbEntity
  8
VERMASSUNG
100
AcDbLine
 10
145.3957150397
 20
143.736807862
 30
0.0
 11
145.3957150397
 21
169.5141458107
 31
0.0
  0
LINE
  5
1AD
330
1A7
100
AcDbEntity
  8
VERMASSUNG
100
AcDbLine
 10
247.2957150397
 20
79.0461301155
 30
0.0
 11
247.2957150397
 21
169.5141458107
 31
0.0
  0
LINE
  5
1AE
330
1A7
100
AcDbEntity
  8
VERMASSUNG
100
AcDbLine
 10
145.3957150397
 20
168.5141458107
 30
0.0
 11
247.2957150397
 21
168.5141458107
 31
0.0
  0
MTEXT
  5
1AF
330
1A7
100
AcDbEntity
  8
VERMASSUNG
100
AcDbMText
 10
193.6457214578
 20
171.0922811738
 30
0.0
 40
2.0
 41
0.0
 71
     1
 72
     1
  1
101.9
  7
SLDTEXTSTYLE0
 73
     1
 44
1.0
  0
ENDBLK
  5
1A9
330
1A7
100
AcDbEntity
  8
0
100
AcDbBlockEnd
  0
BLOCK
  5
1B2
330
1B1
100
AcDbEntity
  8
0
100
AcDbBlockBegin
  2
_D_3
 70
     0
 10
0.0
 20
0.0
 30
0.0
  3
_D_3
  1

  0
SOLID
  5
1B4
330
1B1
100
AcDbEntity
  8
VERMASSUNG
100
AcDbTrace
 10
258.3662085548
 20
124.0461301155
 30
0.0
 11
257.9162085548
 21
121.0461301155
 31
0.0
 12
258.8162085548
 22
121.0461301155
 32
0.0
 13
258.8162085548
 23
121.0461301155
 33
0.0
  0
SOLID
  5
1B5
330
1B1
100
AcDbEntity
  8
VERMASSUNG
100
AcDbTrace
 10
258.3662085548
 20
79.0461301155
 30
0.0
 11
258.8162085548
 21
82.0461301155
 31
0.0
 12
257.9162085548
 22
82.0461301155
 32
0.0
 13
257.9162085548
 23
82.0461301155
 33
0.0
  0
LINE
  5
1B6
330
1B1
100
AcDbEntity
  8
VERMASSUNG
100
AcDbLine
 10
242.4035976314
 20
124.0461301155
 30
0.0
 11
259.3662085548
 21
124.0461301155
 31
0.0
  0
LINE
  5
1B7
330
1B1
100
AcDbEntity
  8
VERMASSUNG
100
AcDbLine
 10
247.2957150397
 20
79.0461301155
 30
0.0
 11
259.3662085548
 21
79.0461301155
 31
0.0
  0
LINE
  5
1B8
330
1B1
100
AcDbEntity
  8
VERMASSUNG
100
AcDbLine
 10
258.3662085548
 20
124.0461301155
 30
0.0
 11
258.3662085548
 21
79.0461301155
 31
0.0
  0
MTEXT
  5
1B9
330
1B1
100
AcDbEntity
  8
VERMASSUNG
100
AcDbMText
 10
255.7880731916
 20
100.0473638166
 30
0.0
 40
2.0
 41
0.0
 71
     1
 72
     1
  1
45
  7
SLDTEXTSTYLE0
 11
-7.044195017643634E-15
 21
1.0
 31
0.0
 73
     1
 44
1.0
  0
ENDBLK
  5
1B3
330
1B1
100
AcDbEntity
  8
0
100
AcDbBlockEnd
  0
BLOCK
  5
1BD
330
1BC
100
AcDbEntity
  8
0
100
AcDbBlockBegin
  2
_D_4
 70
     0
 10
0.0
 20
0.0
 30
0.0
  3
_D_4
  1

  0
ARC
  5
1BF
330
1BC
100
AcDbEntity
  8
VERMASSUNG
100
AcDbCircle
 10
247.2957150397
 20
70.2846238961
 30
0.0
 40
44.29511434241199
100
AcDbArc
 50
90.0
 51
95.0
  0
ARC
  5
1C0
330
1BC
100
AcDbEntity
  8
VERMASSUNG
100
AcDbCircle
 10
247.2957150397
 20
70.2846238961
 30
0.0
 40
44.29511434241198
100
AcDbArc
 50
82.2552633682
 51
90.0
  0
ARC
  5
1C1
330
1BC
100
AcDbEntity
  8
VERMASSUNG
100
AcDbCircle
 10
247.2957150397
 20
70.2846238961
 30
0.0
 40
44.29511434241199
100
AcDbArc
 50
95.0
 51
105.9902017603
  0
SOLID
  5
1C2
330
1BC
100
AcDbEntity
  8
VERMASSUNG
100
AcDbTrace
 10
247.2957150397
 20
114.5797382385
 30
0.0
 11
250.2787877458
 21
114.028578343
 31
0.0
 12
250.3092128772
 22
114.9280639245
 32
0.0
 13
250.3092128772
 23
114.9280639245
 33
0.0
  0
SOLID
  5
1C3
330
1BC
100
AcDbEntity
  8
VERMASSUNG
100
AcDbTrace
 10
243.4351414491
 20
114.4111819554
 30
0.0
 11
240.4027522968
 21
114.4955385147
 31
0.0
 12
240.5114569854
 22
113.6021274723
 32
0.0
 13
240.5114569854
 23
113.6021274723
 33
0.0
  0
MTEXT
  5
1C4
330
1BC
100
AcDbEntity
  8
VERMASSUNG
100
AcDbMText
 10
236.0714945201
 20
115.8127149089
 30
0.0
 40
2.0
 41
0.0
 71
     1
 72
     1
  1
5°
  7
SLDTEXTSTYLE0
 11
0.9771897655374485
 21
0.2123679875331178
 31
0.0
 73
     1
 44
1.0
  0
ENDBLK
  5
1BE
330
1BC
100
AcDbEntity
  8
0
100
AcDbBlockEnd
  0
BLOCK
  5
1F9
330
1F8
100
AcDbEntity
  8
0
100
AcDbBlockBegin
  2
_D_5
 70
     0
 10
0.0
 20
0.0
 30
0.0
  3
_D_5
  1

  0
SOLID
  5
1FB
330
1F8
100
AcDbEntity
  8
VERMASSUNG
100
AcDbTrace
 10
29.5378629634
 20
79.0461301155
 30
0.0
 11
29.9878629634
 21
82.0461301155
 31
0.0
 12
29.0878629634
 22
82.0461301155
 32
0.0
 13
29.0878629634
 23
82.0461301155
 33
0.0
  0
SOLID
  5
1FC
330
1F8
100
AcDbEntity
  8
VERMASSUNG
100
AcDbTrace
 10
29.5378629634
 20
159.0461301155
 30
0.0
 11
29.0878629634
 21
156.0461301155
 31
0.0
 12
29.9878629634
 22
156.0461301155
 32
0.0
 13
29.9878629634
 23
156.0461301155
 33
0.0
  0
LINE
  5
1FD
330
1F8
100
AcDbEntity
  8
VERMASSUNG
100
AcDbLine
 10
74.6417055001
 20
79.0461301155
 30
0.0
 11
28.5378629634
 21
79.0461301155
 31
0.0
  0
LINE
  5
1FE
330
1F8
100
AcDbEntity
  8
VERMASSUNG
100
AcDbLine
 10
74.6417055001
 20
159.0461301155
 30
0.0
 11
28.5378629634
 21
159.0461301155
 31
0.0
  0
LINE
  5
1FF
330
1F8
100
AcDbEntity
  8
VERMASSUNG
100
AcDbLine
 10
29.5378629634
 20
79.0461301155
 30
0.0
 11
29.5378629634
 21
159.0461301155
 31
0.0
  0
MTEXT
  5
200
330
1F8
100
AcDbEntity
  8
VERMASSUNG
100
AcDbMText
 10
26.9597274839
 20
115.8423960601
 30
0.0
 40
2.0
 41
0.0
 71
     1
 72
     1
  1
%%c
  7
SLDTEXTSTYLE0
 11
6.123233995736766E-17
 21
1.0
 31
0.0
 73
     1
 44
1.0
  0
MTEXT
  5
201
330
1F8
100
AcDbEntity
  8
VERMASSUNG
100
AcDbMText
 10
26.9597276003
 20
119.4516135186
 30
0.0
 40
2.0
 41
0.0
 71
     1
 72
     1
  1
80
  7
SLDTEXTSTYLE0
 11
6.123233995736766E-17
 21
1.0
 31
0.0
 73
     1
 44
1.0
  0
ENDBLK
  5
1FA
330
1F8
100
AcDbEntity
  8
0
100
AcDbBlockEnd
  0
BLOCK
  5
203
330
202
100
AcDbEntity
  8
0
100
AcDbBlockBegin
  2
SW_CENTERMARKSYMBOL_0
 70
     0
 10
0.0
 20
0.0
 30
0.0
  3
SW_CENTERMARKSYMBOL_0
  1

  0
LINE
  5
205
330
202
100
AcDbEntity
  8
VERMASSUNG
 62
     0
100
AcDbLine
 10
0.0
 20
0.0
 30
0.0
 11
0.0
 21
2.5
 31
0.0
  0
LINE
  5
206
330
202
100
AcDbEntity
  8
VERMASSUNG
 62
     0
100
AcDbLine
 10
0.0
 20
0.0
 30
0.0
 11
-2.5
 21
0.0
 31
0.0
  0
LINE
  5
207
330
202
100
AcDbEntity
  8
VERMASSUNG
 62
     0
100
AcDbLine
 10
0.0
 20
0.0
 30
0.0
 11
0.0
 21
-2.5
 31
0.0
  0
LINE
  5
208
330
202
100
AcDbEntity
  8
VERMASSUNG
 62
     0
100
AcDbLine
 10
0.0
 20
0.0
 30
0.0
 11
2.5
 21
0.0
 31
0.0
  0
LINE
  5
209
330
202
100
AcDbEntity
  8
VERMASSUNG
 62
     0
100
AcDbLine
 10
0.0
 20
5.0
 30
0.0
 11
0.0
 21
34.0
 31
0.0
  0
LINE
  5
20A
330
202
100
AcDbEntity
  8
VERMASSUNG
 62
     0
100
AcDbLine
 10
-5.0
 20
0.0
 30
0.0
 11
-34.0
 21
0.0
 31
0.0
  0
LINE
  5
20B
330
202
100
AcDbEntity
  8
VERMASSUNG
 62
     0
100
AcDbLine
 10
0.0
 20
-5.0
 30
0.0
 11
0.0
 21
-34.0
 31
0.0
  0
LINE
  5
20C
330
202
100
AcDbEntity
  8
VERMASSUNG
 62
     0
100
AcDbLine
 10
5.0
 20
0.0
 30
0.0
 11
34.0
 21
0.0
 31
0.0
  0
ENDBLK
  5
204
330
202
100
AcDbEntity
  8
0
100
AcDbBlockEnd
  0
ENDSEC
  0
SECTION
  2
ENTITIES
  0
MTEXT
  5
49
330
1F
100
AcDbEntity
  8
KOPF_DÜNN
100
AcDbMText
 10
13.8892156294
 20
23.8442973028
 30
0.0
 40
3.0
 41
0.0
 71
     1
 72
     1
  1
HA6.KCC.LLA.070
  7
SLDTEXTSTYLE0
 73
     1
 44
1.0
  0
MTEXT
  5
4A
330
1F
100
AcDbEntity
  8
VERMASSUNG
100
AcDbMText
 10
13.9329988022
 20
28.8834360957
 30
0.0
 40
3.0
 41
0.0
 71
     1
 72
     1
  1
Klemmhalter links_Turning tool left 95° /80° /95°
  7
SLDTEXTSTYLE0
 73
     1
 44
1.0
  0
MTEXT
  5
4B
330
1F
100
AcDbEntity
  8
VERMASSUNG
100
AcDbMText
 10
98.8601118557
 20
13.8365368179
 30
0.0
 40
2.0
 41
0.0
 71
     1
 72
     1
  1
Datum: 04.11.2008
  7
SLDTEXTSTYLE0
 73
     1
 44
1.0
  0
MTEXT
  5
4D
330
1F
100
AcDbEntity
  8
VERMASSUNG
100
AcDbMText
 10
13.933048693
 20
18.0482802738
 30
0.0
 40
2.0
 41
0.0
 71
     1
 72
     1
  1
DIN 69893 HSK 63 A ICTM / CC.. 12 04..
  7
SLDTEXTSTYLE1
 73
     1
 44
1.0
  0
MTEXT
  5
4E
330
1F
100
AcDbEntity
  8
VERMASSUNG
100
AcDbMText
 10
13.9808475933
 20
13.9090973692
 30
0.0
 40
2.0
 41
0.0
 71
     1
 72
     1
  1
Gewicht: 1089g
  7
SLDTEXTSTYLE0
 73
     1
 44
1.0
  0
LINE
  5
4F
330
1F
100
AcDbEntity
  8
0
  6
Continuous
 62
     7
370
    15
100
AcDbLine
 10
177.595715054
 20
92.5461296089
 30
0.0
 11
182.2457150129
 21
92.5461296089
 31
0.0
  0
LINE
  5
50
330
1F
100
AcDbEntity
  8
0
  6
Continuous
 62
     7
370
    15
100
AcDbLine
 10
182.2737035846
 20
155.5461306221
 30
0.0
 11
177.595715054
 21
155.5461306221
 31
0.0
  0
ARC
  5
51
330
1F
100
AcDbEntity
  8
0
  6
Continuous
 62
     7
370
    15
100
AcDbCircle
 10
177.5957150397
 20
92.8461301155
 30
0.0
 40
0.2999999999999972
100
AcDbArc
 50
180.0
 51
270.0
  0
ARC
  5
52
330
1F
100
AcDbEntity
  8
0
  6
Continuous
 62
     7
370
    15
100
AcDbCircle
 10
177.5957150397
 20
155.2461301155
 30
0.0
 40
0.2999999999999829
100
AcDbArc
 50
90.0
 51
180.0
  0
ARC
  5
53
330
1F
100
AcDbEntity
  8
0
  6
Continuous
 62
     7
370
    15
100
AcDbCircle
 10
204.2457150397
 20
97.0461301155
 30
0.0
 40
1.0
100
AcDbArc
 50
90.0
 51
143.1139143113
  0
ARC
  5
54
330
1F
100
AcDbEntity
  8
0
  6
Continuous
 62
     7
370
    15
100
AcDbCircle
 10
204.2457150397
 20
151.0461301155
 30
0.0
 40
1.0
100
AcDbArc
 50
216.8996843908
 51
270.0
  0
LINE
  5
55
330
1F
100
AcDbEntity
  8
0
  6
Continuous
 62
     7
370
    15
100
AcDbLine
 10
204.2457148937
 20
98.046129579
 30
0.0
 11
217.0970779417
 21
98.046129579
 31
0.0
  0
LINE
  5
56
330
1F
100
AcDbEntity
  8
0
  6
Continuous
 62
     7
370
    15
100
AcDbLine
 10
217.0323920009
 20
150.0461306519
 30
0.0
 11
204.2457148937
 21
150.0461306519
 31
0.0
  0
ARC
  5
57
330
1F
100
AcDbEntity
  8
0
  6
Continuous
 62
     7
370
    15
100
AcDbCircle
 10
176.7957150397
 20
99.4756992538
 30
0.0
 40
0.6000000000000019
100
AcDbArc
 50
33.5573097619
 51
90.0
  0
ARC
  5
58
330
1F
100
AcDbEntity
  8
0
  6
Continuous
 62
     7
370
    15
100
AcDbCircle
 10
176.7957150397
 20
148.6165609772
 30
0.0
 40
0.6000000000000227
100
AcDbArc
 50
270.0
 51
326.4426902381
  0
LINE
  5
59
330
1F
100
AcDbEntity
  8
0
  6
Continuous
 62
     7
370
    15
100
AcDbLine
 10
164.0642066059
 20
147.7038599647
 30
0.0
 11
151.4957141635
 21
147.0741760082
 31
0.0
  0
LINE
  5
5A
330
1F
100
AcDbEntity
  8
0
  6
Continuous
 62
     7
370
    15
100
AcDbLine
 10
175.2957149447
 20
148.266561339
 30
0.0
 11
172.4787135181
 21
148.125428716
 31
0.0
  0
LINE
  5
5B
330
1F
100
AcDbEntity
  8
0
  6
Continuous
 62
     7
370
    15
100
AcDbLine
 10
172.4787693975
 20
99.9668296523
 30
0.0
 11
175.2957149447
 21
99.825698892
 31
0.0
  0
LINE
  5
5C
330
1F
100
AcDbEntity
  8
0
  6
Continuous
 62
     7
370
    15
100
AcDbLine
 10
155.4957148192
 20
100.8176840938
 30
0.0
 11
164.0646089373
 21
100.3883797772
 31
0.0
  0
LINE
  5
5D
330
1F
100
AcDbEntity
  8
0
  6
Continuous
 62
     7
370
    15
100
AcDbLine
 10
175.2957149447
 20
99.825698892
 30
0.0
 11
176.1524278709
 21
100.0552550055
 31
0.0
  0
LINE
  5
5E
330
1F
100
AcDbEntity
  8
0
  6
Continuous
 62
     7
370
    15
100
AcDbLine
 10
176.1524278709
 20
148.0370052255
 30
0.0
 11
175.2957149447
 21
148.266561339
 31
0.0
  0
ARC
  5
5F
330
1F
100
AcDbEntity
  8
0
  6
Continuous
 62
     7
370
    15
100
AcDbCircle
 10
176.3077192402
 20
99.4756992538
 30
0.0
 40
0.6000000000000085
100
AcDbArc
 50
90.0
 51
105.0
  0
ARC
  5
60
330
1F
100
AcDbEntity
  8
0
  6
Continuous
 62
     7
370
    15
100
AcDbCircle
 10
176.3077192402
 20
148.6165609772
 30
0.0
 40
0.6000000000000356
100
AcDbArc
 50
255.0
 51
270.0
  0
LINE
  5
61
330
1F
100
AcDbEntity
  8
0
  6
Continuous
 62
     7
370
    15
100
AcDbLine
 10
176.3077192746
 20
100.0756993986
 30
0.0
 11
176.795715016
 21
100.0756993986
 31
0.0
  0
LINE
  5
62
330
1F
100
AcDbEntity
  8
0
  6
Continuous
 62
     7
370
    15
100
AcDbLine
 10
176.795715016
 20
148.0165608324
 30
0.0
 11
176.3077192746
 21
148.0165608324
 31
0.0
  0
LINE
  5
63
330
1F
100
AcDbEntity
  8
0
  6
Continuous
 62
     7
370
    15
100
AcDbLine
 10
146.5457141904
 20
103.2336298473
 30
0.0
 11
154.0957153348
 21
103.2336298473
 31
0.0
  0
ARC
  5
64
330
1F
100
AcDbEntity
  8
0
  6
Continuous
 62
     7
370
    15
100
AcDbCircle
 10
154.0957150397
 20
101.8336301155
 30
0.0
 40
1.400000000000006
100
AcDbArc
 50
37.6443616934
 51
90.0
  0
LINE
  5
65
330
1F
100
AcDbEntity
  8
0
  6
Continuous
 62
     7
370
    15
100
AcDbLine
 10
146.5368778018
 20
144.9072938509
 30
0.0
 11
145.4056170342
 21
143.7760312207
 31
0.0
  0
LINE
  5
66
330
1F
100
AcDbEntity
  8
0
  6
Continuous
 62
     7
370
    15
100
AcDbLine
 10
145.3931335864
 20
104.3862104512
 30
0.0
 11
146.5457141904
 21
103.2336298473
 31
0.0
  0
ARC
  5
67
330
1F
100
AcDbEntity
  8
0
  6
Continuous
 62
     7
370
    15
100
AcDbCircle
 10
150.0957150397
 20
146.3161301155
 30
0.0
 40
1.400000000000006
100
AcDbArc
 50
270.0
 51
301.7485287426
  0
LINE
  5
68
330
1F
100
AcDbEntity
  8
0
  6
Continuous
 62
     7
370
    15
100
AcDbLine
 10
150.0957146791
 20
144.9161302395
 30
0.0
 11
146.6699805615
 21
144.9161302395
 31
0.0
  0
CIRCLE
  5
69
330
1F
100
AcDbEntity
  8
0
  6
Continuous
 62
     7
370
    15
100
AcDbCircle
 10
240.2705788374
 20
86.0712663178
 30
0.0
 40
3.499999999999968
  0
CIRCLE
  5
6A
330
1F
100
AcDbEntity
  8
0
  6
Continuous
 62
     7
370
    15
100
AcDbCircle
 10
240.2705788374
 20
86.0712663178
 30
0.0
 40
2.633974596215564
  0
CIRCLE
  5
6B
330
1F
100
AcDbEntity
  8
0
  6
Continuous
 62
     7
370
    15
100
AcDbCircle
 10
240.2705788374
 20
86.0712663178
 30
0.0
 40
1.999999999999977
  0
SPLINE
  5
6C
330
1F
100
AcDbEntity
  8
0
  6
Continuous
 62
     7
370
    15
100
AcDbSpline
210
0.0
220
0.0
230
1.0
 70
     8
 71
     3
 72
    15
 73
    11
 74
     0
 42
0.00000001
 43
0.00000001
 12
1.0
 22
0.0
 32
0.0
 13
1.0
 23
0.0
 33
0.0
 40
0.0
 40
0.0
 40
0.0
 40
0.0
 40
0.126248035863366
 40
0.2533636636131778
 40
0.3794170229341012
 40
0.5042689111198101
 40
0.6284500059746753
 40
0.7526379727084032
 40
0.8774900641918232
 40
1.0
 40
1.0
 40
1.0
 40
1.0
 10
238.8453189787913
 20
87.01640182207134
 30
0.0
 10
238.8009924287703
 20
87.01772941002305
 30
0.0
 10
238.712034711275
 20
87.0203937092726
 30
0.0
 10
238.5859289863373
 20
86.96787295741876
 30
0.0
 10
238.4841000026021
 20
86.87950003509283
 30
0.0
 10
238.4178318873407
 20
86.76228414803447
 30
0.0
 10
238.3938413087638
 20
86.63051276078134
 30
0.0
 10
238.4147598452946
 20
86.49913664734105
 30
0.0
 10
238.4755771508669
 20
86.3801847156707
 30
0.0
 10
238.5428691404778
 20
86.32530245307
 30
0.0
 10
238.5761965570499
 20
86.2981211490443
 30
0.0
  0
SPLINE
  5
6D
330
1F
100
AcDbEntity
  8
0
  6
Continuous
 62
     7
370
    15
100
AcDbSpline
210
0.0
220
0.0
230
1.0
 70
     8
 71
     3
 72
    12
 73
     8
 74
     0
 42
0.00000001
 43
0.00000001
 12
1.0
 22
0.0
 32
0.0
 13
1.0
 23
0.0
 33
0.0
 40
0.0
 40
0.0
 40
0.0
 40
0.0
 40
0.2058743533121221
 40
0.4120985154713147
 40
0.6141706081650358
 40
0.8132880167103198
 40
1.0
 40
1.0
 40
1.0
 40
1.0
 10
238.5761965570499
 20
86.2981211490443
 30
0.0
 10
238.6358669640404
 20
86.24924707746365
 30
0.0
 10
238.7553091662514
 20
86.15141589053144
 30
0.0
 10
238.8612001526092
 20
85.9395124869438
 30
0.0
 10
238.8941664765367
 20
85.71099332191517
 30
0.0
 10
238.855592803638
 20
85.4882940576759
 30
0.0
 10
238.778575598519
 20
85.36629282236416
 30
0.0
 10
238.741305148368
 20
85.30725353429821
 30
0.0
  0
SPLINE
  5
6E
330
1F
100
AcDbEntity
  8
0
  6
Continuous
 62
     7
370
    15
100
AcDbSpline
210
0.0
220
0.0
230
1.0
 70
     8
 71
     3
 72
    15
 73
    11
 74
     0
 42
0.00000001
 43
0.00000001
 12
1.0
 22
0.0
 32
0.0
 13
1.0
 23
0.0
 33
0.0
 40
0.0
 40
0.0
 40
0.0
 40
0.0
 40
0.1268749768960383
 40
0.2539946791252785
 40
0.3800517431534946
 40
0.5049001014620599
 40
0.6290808769899934
 40
0.7532689421453891
 40
0.878122298969878
 40
1.0
 40
1.0
 40
1.0
 40
1.0
 10
238.741305148368
 20
85.30725353429821
 30
0.0
 10
238.7178917287109
 20
85.26932828007615
 30
0.0
 10
238.6710197279546
 20
85.1934046187479
 30
0.0
 10
238.653650857536
 20
85.05767166693018
 30
0.0
 10
238.6794993949748
 20
84.92534319483609
 30
0.0
 10
238.7480745153893
 20
84.80946239417848
 30
0.0
 10
238.8503403785768
 20
84.72297266021819
 30
0.0
 10
238.9746562695551
 20
84.67560825530728
 30
0.0
 10
239.1078613001837
 20
84.6690408315624
 30
0.0
 10
239.1888077879636
 20
84.69983598422579
 30
0.0
 10
239.2287929115344
 20
84.71504786084202
 30
0.0
  0
SPLINE
  5
6F
330
1F
100
AcDbEntity
  8
0
  6
Continuous
 62
     7
370
    15
100
AcDbSpline
210
0.0
220
0.0
230
1.0
 70
     8
 71
     3
 72
    12
 73
     8
 74
     0
 42
0.00000001
 43
0.00000001
 12
1.0
 22
0.0
 32
0.0
 13
1.0
 23
0.0
 33
0.0
 40
0.0
 40
0.0
 40
0.0
 40
0.0
 40
0.2057947217208381
 40
0.4119990724893798
 40
0.6140555320107297
 40
0.8131803625862988
 40
1.0
 40
1.0
 40
1.0
 40
1.0
 10
239.2287929115344
 20
84.71504786084202
 30
0.0
 10
239.3009269742731
 20
84.74227845060473
 30
0.0
 10
239.4453386807285
 20
84.79679383191166
 30
0.0
 10
239.6817588839273
 20
84.78257898234298
 30
0.0
 10
239.8961491242719
 20
84.6969124008907
 30
0.0
 10
240.0697778719833
 20
84.55216563369845
 30
0.0
 10
240.136950496077
 20
84.42443227042281
 30
0.0
 10
240.169465964799
 20
84.36260187099484
 30
0.0
  0
SPLINE
  5
70
330
1F
100
AcDbEntity
  8
0
  6
Continuous
 62
     7
370
    15
100
AcDbSpline
210
0.0
220
0.0
230
1.0
 70
     8
 71
     3
 72
    15
 73
    11
 74
     0
 42
0.00000001
 43
0.00000001
 12
1.0
 22
0.0
 32
0.0
 13
1.0
 23
0.0
 33
0.0
 40
0.0
 40
0.0
 40
0.0
 40
0.0
 40
0.1268018663192511
 40
0.2539268763158652
 40
0.379989658101642
 40
0.5048415217442597
 40
0.6290222486397109
 40
0.753206860444798
 40
0.8780561552530634
 40
1.0
 40
1.0
 40
1.0
 40
1.0
 10
240.169465964799
 20
84.36260187099484
 30
0.0
 10
240.1905870406467
 20
84.3233837668865
 30
0.0
 10
240.2328830175917
 20
84.24484761469614
 30
0.0
 10
240.3417170401883
 20
84.16194181794656
 30
0.0
 10
240.4692328986855
 20
84.1181277510954
 30
0.0
 10
240.6038808635785
 20
84.11955634084418
 30
0.0
 10
240.729924214809
 20
84.16485431039241
 30
0.0
 10
240.8331149085229
 20
84.24881437450979
 30
0.0
 10
240.9054351212589
 20
84.3608977525551
 30
0.0
 10
240.9192475269982
 20
84.4464194415799
 30
0.0
 10
240.9260724244166
 20
84.48867687056568
 30
0.0
  0
SPLINE
  5
71
330
1F
100
AcDbEntity
  8
0
  6
Continuous
 62
     7
370
    15
100
AcDbSpline
210
0.0
220
0.0
230
1.0
 70
     8
 71
     3
 72
    12
 73
     8
 74
     0
 42
0.00000001
 43
0.00000001
 12
1.0
 22
0.0
 32
0.0
 13
1.0
 23
0.0
 33
0.0
 40
0.0
 40
0.0
 40
0.0
 40
0.0
 40
0.2058513479261891
 40
0.4120548380670065
 40
0.6141117337040877
 40
0.813242734456005
 40
1.0
 40
1.0
 40
1.0
 40
1.0
 10
240.9260724244166
 20
84.48867687056568
 30
0.0
 10
240.9385624996073
 20
84.56478304866991
 30
0.0
 10
240.9635640162941
 20
84.71712559687548
 30
0.0
 10
241.0941182853596
 20
84.91476670787188
 30
0.0
 10
241.275513752917
 20
85.05758514771789
 30
0.0
 10
241.4876687121477
 20
85.13554959232331
 30
0.0
 10
241.6318527940166
 20
85.12985214690636
 30
0.0
 10
241.7016331610728
 20
85.1270947701743
 30
0.0
  0
SPLINE
  5
72
330
1F
100
AcDbEntity
  8
0
  6
Continuous
 62
     7
370
    15
100
AcDbSpline
210
0.0
220
0.0
230
1.0
 70
     8
 71
     3
 72
    15
 73
    11
 74
     0
 42
0.00000001
 43
0.00000001
 12
1.0
 22
0.0
 32
0.0
 13
1.0
 23
0.0
 33
0.0
 40
0.0
 40
0.0
 40
0.0
 40
0.0
 40
0.1262578300535364
 40
0.2533804044648517
 40
0.3794470475431306
 40
0.5042992032844971
 40
0.6284810054998035
 40
0.7526594535323234
 40
0.8775082499731995
 40
1.0
 40
1.0
 40
1.0
 40
1.0
 10
241.7016331610728
 20
85.1270947701743
 30
0.0
 10
241.7459623330554
 20
85.12576831473584
 30
0.0
 10
241.8349242890923
 20
85.12310631891857
 30
0.0
 10
241.9610356669185
 20
85.17563188266243
 30
0.0
 10
242.0628711862558
 20
85.2640096536909
 30
0.0
 10
242.129124990496
 20
85.38124015202581
 30
0.0
 10
242.153115106344
 20
85.51300960926963
 30
0.0
 10
242.13219218308
 20
85.64438505484065
 30
0.0
 10
242.0713693577927
 20
85.76332606823884
 30
0.0
 10
242.0040797610722
 20
85.81820245098926
 30
0.0
 10
241.9707555828143
 20
85.84537916849163
 30
0.0
  0
SPLINE
  5
73
330
1F
100
AcDbEntity
  8
0
  6
Continuous
 62
     7
370
    15
100
AcDbSpline
210
0.0
220
0.0
230
1.0
 70
     8
 71
     3
 72
    12
 73
     8
 74
     0
 42
0.00000001
 43
0.00000001
 12
1.0
 22
0.0
 32
0.0
 13
1.0
 23
0.0
 33
0.0
 40
0.0
 40
0.0
 40
0.0
 40
0.0
 40
0.2058695406805315
 40
0.4120905158215183
 40
0.6141661340002335
 40
0.8133059338754403
 40
1.0
 40
1.0
 40
1.0
 40
1.0
 10
241.9707555828143
 20
85.84537916849163
 30
0.0
 10
241.9110860145358
 20
85.89425204331053
 30
0.0
 10
241.7916450176334
 20
85.99208122254329
 30
0.0
 10
241.6857623359637
 20
86.20398392168305
 30
0.0
 10
241.6527805591877
 20
86.43250588825214
 30
0.0
 10
241.691367054689
 20
86.65520718148126
 30
0.0
 10
241.768384270258
 20
86.77720956456575
 30
0.0
 10
241.8056507167865
 20
86.83624305794743
 30
0.0
  0
SPLINE
  5
74
330
1F
100
AcDbEntity
  8
0
  6
Continuous
 62
     7
370
    15
100
AcDbSpline
210
0.0
220
0.0
230
1.0
 70
     8
 71
     3
 72
    15
 73
    11
 74
     0
 42
0.00000001
 43
0.00000001
 12
1.0
 22
0.0
 32
0.0
 13
1.0
 23
0.0
 33
0.0
 40
0.0
 40
0.0
 40
0.0
 40
0.0
 40
0.1268704748336982
 40
0.253980621093657
 40
0.3800308764016654
 40
0.5048722744250275
 40
0.6290502988973437
 40
0.7532358639731163
 40
0.8780922176145467
 40
1.0
 40
1.0
 40
1.0
 40
1.0
 10
241.8056507167865
 20
86.83624305794743
 30
0.0
 10
241.8290621414777
 20
86.87416847500079
 30
0.0
 10
241.8759292174588
 20
86.95009095413609
 30
0.0
 10
241.8933063726555
 20
87.08581838875482
 30
0.0
 10
241.8674574291115
 20
87.21814075672292
 30
0.0
 10
241.7988975451677
 20
87.33402600116574
 30
0.0
 10
241.6966322807652
 20
87.42051020632415
 30
0.0
 10
241.572324482946
 20
87.46788639667233
 30
0.0
 10
241.4391115982876
 20
87.47445826408286
 30
0.0
 10
241.3581542332635
 20
87.44366507711752
 30
0.0
 10
241.3181592283298
 20
87.42845245669392
 30
0.0
  0
SPLINE
  5
75
330
1F
100
AcDbEntity
  8
0
  6
Continuous
 62
     7
370
    15
100
AcDbSpline
210
0.0
220
0.0
230
1.0
 70
     8
 71
     3
 72
    12
 73
     8
 74
     0
 42
0.00000001
 43
0.00000001
 12
1.0
 22
0.0
 32
0.0
 13
1.0
 23
0.0
 33
0.0
 40
0.0
 40
0.0
 40
0.0
 40
0.0
 40
0.2058316673564619
 40
0.412075817418054
 40
0.6141694228568967
 40
0.813300554414465
 40
1.0
 40
1.0
 40
1.0
 40
1.0
 10
241.3181592283298
 20
87.42845245669392
 30
0.0
 10
241.2460153112572
 20
87.401217611665
 30
0.0
 10
241.1015829020888
 20
87.34669334350117
 30
0.0
 10
240.8651303169196
 20
87.36092797595656
 30
0.0
 10
240.6507214169122
 20
87.44663452574638
 30
0.0
 10
240.4771343970384
 20
87.59140131265522
 30
0.0
 10
240.409986029604
 20
87.71910429002172
 30
0.0
 10
240.3774936256457
 20
87.7808984465411
 30
0.0
  0
SPLINE
  5
76
330
1F
100
AcDbEntity
  8
0
  6
Continuous
 62
     7
370
    15
100
AcDbSpline
210
0.0
220
0.0
230
1.0
 70
     8
 71
     3
 72
    15
 73
    11
 74
     0
 42
0.00000001
 43
0.00000001
 12
1.0
 22
0.0
 32
0.0
 13
1.0
 23
0.0
 33
0.0
 40
0.0
 40
0.0
 40
0.0
 40
0.0
 40
0.1267868888597993
 40
0.2538948097740347
 40
0.3799411354696335
 40
0.5047843404422014
 40
0.628961820452476
 40
0.7531471574990583
 40
0.8780084472742521
 40
1.0
 40
1.0
 40
1.0
 40
1.0
 10
240.3774936256457
 20
87.7808984465411
 30
0.0
 10
240.3563713937063
 20
87.82011172434476
 30
0.0
 10
240.3140734470614
 20
87.89863757033804
 30
0.0
 10
240.2052581874213
 20
87.9815482141967
 30
0.0
 10
240.0777532678966
 20
88.02536276009903
 30
0.0
 10
239.943114497144
 20
88.02395158221066
 30
0.0
 10
239.8170719279578
 20
87.97866696928433
 30
0.0
 10
239.7138727310703
 20
87.89472060169071
 30
0.0
 10
239.641527851242
 20
87.78263409845687
 30
0.0
 10
239.6277088774981
 20
87.69709552709814
 30
0.0
 10
239.6208797154475
 20
87.65482344697025
 30
0.0
  0
SPLINE
  5
77
330
1F
100
AcDbEntity
  8
0
  6
Continuous
 62
     7
370
    15
100
AcDbSpline
210
0.0
220
0.0
230
1.0
 70
     8
 71
     3
 72
    12
 73
     8
 74
     0
 42
0.00000001
 43
0.00000001
 12
1.0
 22
0.0
 32
0.0
 13
1.0
 23
0.0
 33
0.0
 40
0.0
 40
0.0
 40
0.0
 40
0.0
 40
0.205890845074162
 40
0.4121342930237996
 40
0.6142250780453204
 40
0.8133483350883697
 40
1.0
 40
1.0
 40
1.0
 40
1.0
 10
239.6208797154475
 20
87.65482344697025
 30
0.0
 10
239.608388941982
 20
87.57870534510754
 30
0.0
 10
239.5833860037034
 20
87.42633878365986
 30
0.0
 10
239.4527985336067
 20
87.2286769710534
 30
0.0
 10
239.2713600135962
 20
87.0858629024035
 30
0.0
 10
239.0592082740988
 20
87.00794709303325
 30
0.0
 10
238.9150620585013
 20
87.0136449807793
 30
0.0
 10
238.8453189787913
 20
87.01640182207134
 30
0.0
  0
LINE
  5
78
330
1F
100
AcDbEntity
  8
0
  6
Continuous
 62
     7
370
    15
100
AcDbLine
 10
233.4064882753
 20
92.5020147211
 30
0.0
 11
234.4596427438
 21
80.4644208498
 31
0.0
  0
ARC
  5
79
330
1F
100
AcDbEntity
  8
0
  6
Continuous
 62
     7
370
    15
100
AcDbCircle
 10
233.804966915
 20
92.5368782402
 30
0.0
 40
0.4000000000000102
100
AcDbArc
 50
85.0
 51
185.0
  0
LINE
  5
7A
330
1F
100
AcDbEntity
  8
0
  6
Continuous
 62
     7
370
    15
100
AcDbLine
 10
245.8774228153
 20
91.8822046466
 30
0.0
 11
233.839828944
 21
92.9353553898
 31
0.0
  0
ARC
  5
7B
330
1F
100
AcDbEntity
  8
0
  6
Continuous
 62
     7
370
    15
100
AcDbCircle
 10
245.842561939
 20
91.4837251395
 30
0.0
 40
0.399999999999996
100
AcDbArc
 50
5.0
 51
85.0
  0
LINE
  5
7C
330
1F
100
AcDbEntity
  8
0
  6
Continuous
 62
     7
370
    15
100
AcDbLine
 10
247.2941954193
 20
79.4809926398
 30
0.0
 11
246.2410409508
 21
91.5185865111
 31
0.0
  0
ARC
  5
7D
330
1F
100
AcDbEntity
  8
0
  6
Continuous
 62
     7
370
    15
100
AcDbCircle
 10
246.8957150397
 20
79.4461301155
 30
0.0
 40
0.4000000000000397
100
AcDbArc
 50
265.0
 51
5.0
  0
LINE
  5
7E
330
1F
100
AcDbEntity
  8
0
  6
Continuous
 62
     7
370
    15
100
AcDbLine
 10
234.823257154
 20
80.1008064396
 30
0.0
 11
246.8608547506
 21
79.0476519711
 31
0.0
  0
ARC
  5
7F
330
1F
100
AcDbEntity
  8
0
  6
Continuous
 62
     7
370
    15
100
AcDbCircle
 10
234.8581200157
 20
80.4992832162
 30
0.0
 40
0.399999999999996
100
AcDbArc
 50
185.0
 51
265.0
  0
ARC
  5
80
330
1F
100
AcDbEntity
  8
0
  6
Continuous
 62
     7
370
    15
100
AcDbCircle
 10
246.8957150397
 20
79.4461301155
 30
0.0
 40
0.3800000000000287
100
AcDbArc
 50
265.0
 51
5.0
  0
LINE
  5
81
330
1F
100
AcDbEntity
  8
0
  6
Continuous
 62
     7
370
    15
100
AcDbLine
 10
247.2742725668
 20
79.4792492039
 30
0.0
 11
246.2211180983
 21
91.5168430753
 31
0.0
  0
ARC
  5
82
330
1F
100
AcDbEntity
  8
0
  6
Continuous
 62
     7
370
    15
100
AcDbCircle
 10
245.842561939
 20
91.4837251395
 30
0.0
 40
0.3800000000000121
100
AcDbArc
 50
5.0
 51
85.0
  0
LINE
  5
83
330
1F
100
AcDbEntity
  8
0
  6
Continuous
 62
     7
370
    15
100
AcDbLine
 10
245.8756793795
 20
91.8622780688
 30
0.0
 11
233.8380855081
 21
92.9154325373
 31
0.0
  0
ARC
  5
84
330
1F
100
AcDbEntity
  8
0
  6
Continuous
 62
     7
370
    15
100
AcDbCircle
 10
233.804966915
 20
92.5368782402
 30
0.0
 40
0.3800000000000028
100
AcDbArc
 50
85.0
 51
185.0
  0
LINE
  5
85
330
1F
100
AcDbEntity
  8
0
  6
Continuous
 62
     7
370
    15
100
AcDbLine
 10
233.4264111278
 20
92.503758157
 30
0.0
 11
234.4795655963
 21
80.4661642856
 31
0.0
  0
ARC
  5
86
330
1F
100
AcDbEntity
  8
0
  6
Continuous
 62
     7
370
    15
100
AcDbCircle
 10
234.8581200157
 20
80.4992832162
 30
0.0
 40
0.3800000000000004
100
AcDbArc
 50
185.0
 51
265.0
  0
LINE
  5
87
330
1F
100
AcDbEntity
  8
0
  6
Continuous
 62
     7
370
    15
100
AcDbLine
 10
234.8250005899
 20
80.1207292921
 30
0.0
 11
246.8625981865
 21
79.0675748236
 31
0.0
  0
LINE
  5
88
330
1F
100
AcDbEntity
  8
0
  6
Continuous
 62
     7
370
    15
100
AcDbLine
 10
245.9767167029
 20
80.3651306875
 30
0.0
 11
246.8957160173
 21
79.4461313731
 31
0.0
  0
LINE
  5
89
330
1F
100
AcDbEntity
  8
0
  6
Continuous
 62
     7
370
    15
100
AcDbLine
 10
245.2688668428
 20
90.9100305385
 30
0.0
 11
245.8425615487
 21
91.4837252445
 31
0.0
  0
LINE
  5
8A
330
1F
100
AcDbEntity
  8
0
  6
Continuous
 62
     7
370
    15
100
AcDbLine
 10
235.4318131266
 20
81.0729768224
 30
0.0
 11
234.8581184206
 21
80.4992821164
 31
0.0
  0
LINE
  5
8B
330
1F
100
AcDbEntity
  8
0
  6
Continuous
 62
     7
370
    15
100
AcDbLine
 10
245.0097431002
 20
82.4154522366
 30
0.0
 11
244.4203351197
 21
89.1524572022
 31
0.0
  0
LINE
  5
8C
330
1F
100
AcDbEntity
  8
0
  6
Continuous
 62
     7
370
    15
100
AcDbLine
 10
234.7239669917
 20
91.6178766734
 30
0.0
 11
233.8049676774
 21
92.536879713
 31
0.0
  0
ARC
  5
8D
330
1F
100
AcDbEntity
  8
0
  6
Continuous
 62
     7
370
    15
100
AcDbCircle
 10
244.0135503266
 20
82.3282948287
 30
0.0
 40
1.000000000295368
100
AcDbArc
 50
265.0
 51
5.0
  0
LINE
  5
8E
330
1F
100
AcDbEntity
  8
0
  6
Continuous
 62
     7
370
    15
100
AcDbLine
 10
235.6909368691
 20
89.5675588496
 30
0.0
 11
236.2803485749
 21
82.8305501587
 31
0.0
  0
ARC
  5
8F
330
1F
100
AcDbEntity
  8
0
  6
Continuous
 62
     7
370
    15
100
AcDbCircle
 10
236.6871316282
 20
89.6547135271
 30
0.0
 40
0.9999999999999959
100
AcDbArc
 50
85.0
 51
185.0
  0
LINE
  5
90
330
1F
100
AcDbEntity
  8
0
  6
Continuous
 62
     7
370
    15
100
AcDbLine
 10
243.5112972317
 20
90.0614950902
 30
0.0
 11
236.7742885408
 21
90.650906796
 31
0.0
  0
ARC
  5
91
330
1F
100
AcDbEntity
  8
0
  6
Continuous
 62
     7
370
    15
100
AcDbCircle
 10
243.4241385912
 20
89.0653017917
 30
0.0
 40
1.000000000000011
100
AcDbArc
 50
5.0
 51
85.0
  0
LINE
  5
92
330
1F
100
AcDbEntity
  8
0
  6
Continuous
 62
     7
370
    15
100
AcDbLine
 10
237.1893864629
 20
81.9215122707
 30
0.0
 11
243.9263914285
 21
81.3321005649
 31
0.0
  0
ARC
  5
93
330
1F
100
AcDbEntity
  8
0
  6
Continuous
 62
     7
370
    15
100
AcDbCircle
 10
237.2765433635
 20
82.917706564
 30
0.0
 40
1.000000000000012
100
AcDbArc
 50
185.0
 51
265.0
  0
CIRCLE
  5
94
330
1F
100
AcDbEntity
  8
0
  6
Continuous
 62
     7
370
    15
100
AcDbCircle
 10
240.3503409774
 20
85.9915041779
 30
0.0
 40
3.800000000000006
  0
SPLINE
  5
95
330
1F
100
AcDbEntity
  8
0
  6
Continuous
 62
     7
370
    15
100
AcDbSpline
210
0.0
220
0.0
230
1.0
 70
     8
 71
     3
 72
    11
 73
     7
 74
     0
 42
0.00000001
 43
0.00000001
 12
1.0
 22
0.0
 32
0.0
 13
1.0
 23
0.0
 33
0.0
 40
0.0
 40
0.0
 40
0.0
 40
0.0
 40
0.0076226217240947
 40
0.3209870709920754
 40
0.6632115133816916
 40
1.0
 40
1.0
 40
1.0
 40
1.0
 10
245.487787252431
 20
80.85405641267803
 30
0.0
 10
245.4889017089344
 20
80.85294195551518
 30
0.0
 10
245.5358312486286
 20
80.80601238805131
 30
0.0
 10
245.6399073856348
 20
80.70194344202648
 30
0.0
 10
245.809343951311
 20
80.53249693649612
 30
0.0
 10
245.9212243450311
 20
80.4206208894368
 30
0.0
 10
245.976716702943
 20
80.3651306874564
 30
0.0
  0
SPLINE
  5
96
330
1F
100
AcDbEntity
  8
0
  6
Continuous
 62
     7
370
    15
100
AcDbSpline
210
0.0
220
0.0
230
1.0
 70
     8
 71
     3
 72
    11
 73
     7
 74
     0
 42
0.00000001
 43
0.00000001
 12
1.0
 22
0.0
 32
0.0
 13
1.0
 23
0.0
 33
0.0
 40
0.0
 40
0.0
 40
0.0
 40
0.0
 40
0.3372332472102552
 40
0.6736316160388569
 40
0.9918809519082723
 40
0.9999999999999999
 40
0.9999999999999999
 40
0.9999999999999999
 40
0.9999999999999999
 10
245.2688668427516
 20
90.91003053854016
 30
0.0
 10
245.2139638958633
 20
90.85512561291868
 30
0.0
 10
245.1042939236895
 20
90.7454516881771
 30
0.0
 10
244.9328245780593
 20
90.57401139888184
 30
0.0
 10
244.8273894287718
 20
90.46850496325801
 30
0.0
 10
244.7794026226419
 20
90.42056878427208
 30
0.0
 10
244.7782088575412
 20
90.41937627862004
 30
0.0
  0
SPLINE
  5
97
330
1F
100
AcDbEntity
  8
0
  6
Continuous
 62
     7
370
    15
100
AcDbSpline
210
0.0
220
0.0
230
1.0
 70
    24
 71
     3
 72
    11
 73
     7
 74
     0
 42
0.00000001
 43
0.00000001
 12
1.0
 22
0.0
 32
0.0
 13
1.0
 23
0.0
 33
0.0
 40
0.0
 40
0.0
 40
0.0
 40
0.0
 40
0.0081158382171161
 40
0.3263708269332518
 40
0.6627679757896715
 40
1.0
 40
1.0
 40
1.0
 40
1.0
 10
235.9224711117793
 20
81.56363480756787
 30
0.0
 10
235.9212785988903
 20
81.56244229467887
 30
0.0
 10
235.8733228107999
 20
81.5144865065888
 30
0.0
 10
235.7678418698251
 20
81.40900556561357
 30
0.0
 10
235.5963898155115
 20
81.2375535113001
 30
0.0
 10
235.4867173311218
 20
81.12788102691043
 30
0.0
 10
235.4318131265689
 20
81.07297682235745
 30
0.0
  0
SPLINE
  5
98
330
1F
100
AcDbEntity
  8
0
  6
Continuous
 62
     7
370
    15
100
AcDbSpline
210
0.0
220
0.0
230
1.0
 70
     8
 71
     3
 72
    11
 73
     7
 74
     0
 42
0.00000001
 43
0.00000001
 12
1.0
 22
0.0
 32
0.0
 13
1.0
 23
0.0
 33
0.0
 40
0.0
 40
0.0
 40
0.0
 40
0.0
 40
0.3367814523779268
 40
0.6790097493615914
 40
0.9923709883097673
 40
1.0
 40
1.0
 40
1.0
 40
1.0
 10
234.7239669916679
 20
91.6178766734412
 30
0.0
 10
234.7794572740957
 20
91.56238796550275
 30
0.0
 10
234.89133529617
 20
91.45051311787189
 30
0.0
 10
235.0607831492748
 20
91.28106397411214
 30
0.0
 10
235.1648376512941
 20
91.17700974016607
 30
0.0
 10
235.2117807404559
 20
91.13006664996809
 30
0.0
 10
235.2128964421798
 20
91.12895094821957
 30
0.0
  0
LINE
  5
99
330
1F
100
AcDbEntity
  8
0
  6
Continuous
 62
     7
370
    15
100
AcDbLine
 10
198.687646961
 20
93.8592124827
 30
0.0
 11
198.687646961
 21
143.8961308546
 31
0.0
  0
SPLINE
  5
9A
330
1F
100
AcDbEntity
  8
0
  6
Continuous
 62
     7
370
    15
100
AcDbSpline
210
0.0
220
0.0
230
1.0
 70
     8
 71
     3
 72
     8
 73
     4
 74
     0
 42
0.00000001
 43
0.00000001
 12
1.0
 22
0.0
 32
0.0
 13
1.0
 23
0.0
 33
0.0
 40
0.0
 40
0.0
 40
0.0
 40
0.0
 40
1.0
 40
1.0
 40
1.0
 40
1.0
 10
198.687647871224
 20
93.8592124192431
 30
0.0
 10
198.1921682105582
 20
94.75473850717644
 30
0.0
 10
197.6980541625161
 20
95.65102292222869
 30
0.0
 10
197.2057150397349
 20
96.54829295643538
 30
0.0
  0
LINE
  5
9B
330
1F
100
AcDbEntity
  8
0
  6
Continuous
 62
     7
370
    15
100
AcDbLine
 10
197.2057153044
 20
96.5482927955
 30
0.0
 11
197.2057153044
 21
143.8961308546
 31
0.0
  0
SPLINE
  5
9C
330
1F
100
AcDbEntity
  8
0
  6
Continuous
 62
     7
370
    15
100
AcDbSpline
210
0.0
220
0.0
230
1.0
 70
    24
 71
     3
 72
     8
 73
     4
 74
     0
 42
0.00000001
 43
0.00000001
 12
1.0
 22
0.0
 32
0.0
 13
1.0
 23
0.0
 33
0.0
 40
0.0
 40
0.0
 40
0.0
 40
0.0
 40
1.0
 40
1.0
 40
1.0
 40
1.0
 10
197.2057150397349
 20
143.8961301154903
 30
0.0
 10
197.6856670340999
 20
143.8961301154903
 30
0.0
 10
198.1809677630735
 20
143.8961301154903
 30
0.0
 10
198.687647871224
 20
143.8961301154903
 30
0.0
  0
LINE
  5
9D
330
1F
100
AcDbEntity
  8
0
  6
Continuous
 62
     7
370
    15
100
AcDbLine
 10
182.2457150129
 20
143.8961308546
 30
0.0
 11
191.9037825001
 21
143.8961308546
 31
0.0
  0
LINE
  5
9E
330
1F
100
AcDbEntity
  8
0
  6
Continuous
 62
     7
370
    15
100
AcDbLine
 10
191.9037825001
 20
93.8592124827
 30
0.0
 11
191.9037825001
 21
143.8961308546
 31
0.0
  0
LINE
  5
9F
330
1F
100
AcDbEntity
  8
0
  6
Continuous
 62
     7
370
    15
100
AcDbLine
 10
191.9037825001
 20
93.8592124827
 30
0.0
 11
190.2457153929
 21
93.8592124827
 31
0.0
  0
SPLINE
  5
A0
330
1F
100
AcDbEntity
  8
0
  6
Continuous
 62
     7
370
    15
100
AcDbSpline
210
0.0
220
0.0
230
1.0
 70
     8
 71
     3
 72
    28
 73
    24
 74
     0
 42
0.00000001
 43
0.00000001
 12
1.0
 22
0.0
 32
0.0
 13
1.0
 23
0.0
 33
0.0
 40
0.0
 40
0.0
 40
0.0
 40
0.0
 40
0.1250000000000001
 40
0.1250000000000001
 40
0.1875000000000001
 40
0.1875000000000001
 40
0.2500000000000001
 40
0.2500000000000001
 40
0.3749999999999999
 40
0.3749999999999999
 40
0.4375
 40
0.4375
 40
0.4999999999999999
 40
0.4999999999999999
 40
0.6249999999999999
 40
0.6249999999999999
 40
0.7499999999999997
 40
0.7499999999999997
 40
0.8124999999999998
 40
0.8124999999999998
 40
0.8749999999999998
 40
0.8749999999999998
 40
1.0
 40
1.0
 40
1.0
 40
1.0
 10
190.245715039735
 20
93.8592124192431
 30
0.0
 10
189.714007282242
 20
93.85921241924311
 30
0.0
 10
189.1917687169317
 20
93.84342770529287
 30
0.0
 10
188.4218982306567
 20
93.79843229121667
 30
0.0
 10
188.1675386584653
 20
93.77987729614095
 30
0.0
 10
187.6634170777668
 20
93.73602457369445
 30
0.0
 10
187.4136942603389
 20
93.71067996674225
 30
0.0
 10
186.6881043088925
 20
93.62727788899214
 30
0.0
 10
186.229744047311
 20
93.56141232984105
 30
0.0
 10
185.5792461039171
 20
93.45244198934927
 30
0.0
 10
185.3675640531246
 20
93.41420235358262
 30
0.0
 10
184.9634925639866
 20
93.33644361616327
 30
0.0
 10
184.7709860501658
 20
93.29694265398791
 30
0.0
 10
184.2211510791445
 20
93.1780349116219
 30
0.0
 10
183.8912223008357
 20
93.0982172301973
 30
0.0
 10
183.306751032267
 20
92.94487406840123
 30
0.0
 10
183.0604738942535
 20
92.87354031513198
 30
0.0
 10
182.7606311015555
 20
92.77959680805736
 30
0.0
 10
182.6721742444833
 20
92.75040301469744
 30
0.0
 10
182.5188128911782
 20
92.69693644043402
 30
0.0
 10
182.4537246769519
 20
92.67257710615885
 30
0.0
 10
182.2981306610111
 20
92.6089869607141
 30
0.0
 10
182.2457150397349
 20
92.57888402562484
 30
0.0
 10
182.2457150397349
 20
92.56200713262794
 30
0.0
  0
LINE
  5
A1
330
1F
100
AcDbEntity
  8
0
  6
Continuous
 62
     7
370
    15
100
AcDbLine
 10
182.2457150129
 20
92.5620067961
 30
0.0
 11
182.2457150129
 21
92.5461296089
 31
0.0
  0
SPLINE
  5
A2
330
1F
100
AcDbEntity
  8
0
  6
Continuous
 62
     7
370
    15
100
AcDbSpline
210
0.0
220
0.0
230
1.0
 70
     8
 71
     3
 72
    17
 73
    13
 74
     0
 42
0.00000001
 43
0.00000001
 12
1.0
 22
0.0
 32
0.0
 13
1.0
 23
0.0
 33
0.0
 40
0.0
 40
0.0
 40
0.0
 40
0.0
 40
0.1034797280380778
 40
0.2100239090909901
 40
0.3134862262879433
 40
0.4198361712144981
 40
0.5254127947779869
 40
0.6339610881168427
 40
0.7409508662120068
 40
0.8511696072047016
 40
0.9558996557845765
 40
1.0
 40
1.0
 40
1.0
 40
1.0
 10
190.2457153928925
 20
154.5133255518487
 30
0.0
 10
189.8104669011665
 20
154.5187735434864
 30
0.0
 10
188.9270804505895
 20
154.529830863815
 30
0.0
 10
187.6462525883668
 20
154.61618962419
 30
0.0
 10
186.4288363929248
 20
154.744060767323
 30
0.0
 10
185.3210297765991
 20
154.9030051746415
 30
0.0
 10
184.3327912972702
 20
155.0774997476261
 30
0.0
 10
183.5080681974544
 20
155.246666180813
 30
0.0
 10
182.8591145399558
 20
155.3945469892807
 30
0.0
 10
182.4420792364761
 20
155.4963377408032
 30
0.0
 10
182.2434824935982
 20
155.5466946404377
 30
0.0
 10
182.2667956105861
 20
155.5407850354622
 30
0.0
 10
182.2737035845865
 20
155.5390339441112
 30
0.0
  0
LINE
  5
A3
330
1F
100
AcDbEntity
  8
0
  6
Continuous
 62
     7
370
    15
100
AcDbLine
 10
191.9037825001
 20
154.5133255518
 30
0.0
 11
190.2457153929
 21
154.5133255518
 31
0.0
  0
LINE
  5
A4
330
1F
100
AcDbEntity
  8
0
  6
Continuous
 62
     7
370
    15
100
AcDbLine
 10
191.9037825001
 20
148.5048197306
 30
0.0
 11
191.9037825001
 21
154.5133255518
 31
0.0
  0
LINE
  5
A5
330
1F
100
AcDbEntity
  8
0
  6
Continuous
 62
     7
370
    15
100
AcDbLine
 10
189.4913357256
 20
148.5048197306
 30
0.0
 11
191.9037825001
 21
148.5048197306
 31
0.0
  0
SPLINE
  5
A6
330
1F
100
AcDbEntity
  8
0
  6
Continuous
 62
     7
370
    15
100
AcDbSpline
210
0.0
220
0.0
230
1.0
 70
     8
 71
     3
 72
    20
 73
    16
 74
     0
 42
0.00000001
 43
0.00000001
 12
1.0
 22
0.0
 32
0.0
 13
1.0
 23
0.0
 33
0.0
 40
0.0
 40
0.0
 40
0.0
 40
0.0
 40
0.2500000000000005
 40
0.2500000000000005
 40
0.3750000000000004
 40
0.3750000000000004
 40
0.5000000000000003
 40
0.5000000000000003
 40
0.6250000000000002
 40
0.6250000000000002
 40
0.7500000000000001
 40
0.7500000000000001
 40
0.8750000000000001
 40
0.8750000000000001
 40
1.0
 40
1.0
 40
1.0
 40
1.0
 10
182.2457150397349
 20
143.8961301154903
 30
0.0
 10
182.494088774023
 20
144.5499925437877
 30
0.0
 10
182.8136588663683
 20
145.1537783257848
 30
0.0
 10
183.4359650995729
 20
145.9806170619534
 30
0.0
 10
183.6673893600037
 20
146.2430456999063
 30
0.0
 10
184.1886036996534
 20
146.7397083540113
 30
0.0
 10
184.4752241822885
 20
146.9702952330328
 30
0.0
 10
185.0947089235961
 20
147.3868494576154
 30
0.0
 10
185.4290093030831
 20
147.5743472595829
 30
0.0
 10
186.1542697757078
 20
147.9057442372193
 30
0.0
 10
186.5361848330983
 20
148.0452482247146
 30
0.0
 10
187.33097300927
 20
148.2707017321856
 30
0.0
 10
187.7451312034764
 20
148.3573278437292
 30
0.0
 10
188.6106775440578
 20
148.4753086325833
 30
0.0
 10
189.0485651590696
 20
148.5048197778577
 30
0.0
 10
189.4913353854242
 20
148.5048197778576
 30
0.0
  0
LINE
  5
A7
330
1F
100
AcDbEntity
  8
0
  6
Continuous
 62
     7
370
    15
100
AcDbLine
 10
203.2457147298
 20
94.485852877
 30
0.0
 11
203.2457147298
 21
143.8961308546
 31
0.0
  0
SPLINE
  5
A8
330
1F
100
AcDbEntity
  8
0
  6
Continuous
 62
     7
370
    15
100
AcDbSpline
210
0.0
220
0.0
230
1.0
 70
     8
 71
     3
 72
    10
 73
     6
 74
     0
 42
0.00000001
 43
0.00000001
 12
1.0
 22
0.0
 32
0.0
 13
1.0
 23
0.0
 33
0.0
 40
0.0
 40
0.0
 40
0.0
 40
0.0
 40
0.5
 40
0.5
 40
1.0
 40
1.0
 40
1.0
 40
1.0
 10
203.2457150397349
 20
94.48585271489742
 30
0.0
 10
203.245715039735
 20
94.32596544670376
 30
0.0
 10
203.1844053884991
 20
94.16483819118916
 30
0.0
 10
202.965305750964
 20
93.93073919283432
 30
0.0
 10
202.8072575446505
 20
93.8592124192431
 30
0.0
 10
202.6457150397349
 20
93.8592124192431
 30
0.0
  0
SPLINE
  5
A9
330
1F
100
AcDbEntity
  8
0
  6
Continuous
 62
     7
370
    15
100
AcDbSpline
210
0.0
220
0.0
230
1.0
 70
    24
 71
     3
 72
    12
 73
     8
 74
     0
 42
0.00000001
 43
0.00000001
 12
1.0
 22
0.0
 32
0.0
 13
1.0
 23
0.0
 33
0.0
 40
0.0
 40
0.0
 40
0.0
 40
0.0
 40
0.2500000000000006
 40
0.2500000000000006
 40
0.5000000000000012
 40
0.5000000000000012
 40
1.0
 40
1.0
 40
1.0
 40
1.0
 10
202.6457150397349
 20
143.8961301154903
 30
0.0
 10
202.735954107422
 20
143.8961301154903
 30
0.0
 10
202.8268522215285
 20
143.8961301154903
 30
0.0
 10
202.981449258017
 20
143.8961301154903
 30
0.0
 10
203.0464276741251
 20
143.8961301154903
 30
0.0
 10
203.1982627020614
 20
143.8961301154903
 30
0.0
 10
203.2457150397349
 20
143.8961301154903
 30
0.0
 10
203.2457150397349
 20
143.8961301154903
 30
0.0
  0
LINE
  5
AA
330
1F
100
AcDbEntity
  8
0
  6
Continuous
 62
     7
370
    15
100
AcDbLine
 10
193.385715088
 20
96.5482927955
 30
0.0
 11
193.385715088
 21
143.8961308546
 31
0.0
  0
SPLINE
  5
AB
330
1F
100
AcDbEntity
  8
0
  6
Continuous
 62
     7
370
    15
100
AcDbSpline
210
0.0
220
0.0
230
1.0
 70
     8
 71
     3
 72
     8
 73
     4
 74
     0
 42
0.00000001
 43
0.00000001
 12
1.0
 22
0.0
 32
0.0
 13
1.0
 23
0.0
 33
0.0
 40
0.0
 40
0.0
 40
0.0
 40
0.0
 40
1.0
 40
1.0
 40
1.0
 40
1.0
 10
193.3857150397349
 20
96.54829295643539
 30
0.0
 10
192.8933759169538
 20
95.65102292222869
 30
0.0
 10
192.3992618689116
 20
94.75473850717644
 30
0.0
 10
191.9037822082459
 20
93.8592124192431
 30
0.0
  0
SPLINE
  5
AC
330
1F
100
AcDbEntity
  8
0
  6
Continuous
 62
     7
370
    15
100
AcDbSpline
210
0.0
220
0.0
230
1.0
 70
    24
 71
     3
 72
     8
 73
     4
 74
     0
 42
0.00000001
 43
0.00000001
 12
1.0
 22
0.0
 32
0.0
 13
1.0
 23
0.0
 33
0.0
 40
0.0
 40
0.0
 40
0.0
 40
0.0
 40
1.0
 40
1.0
 40
1.0
 40
1.0
 10
191.9037822082459
 20
143.8961301154903
 30
0.0
 10
192.4104623163964
 20
143.8961301154903
 30
0.0
 10
192.90576304537
 20
143.8961301154903
 30
0.0
 10
193.3857150397349
 20
143.8961301154903
 30
0.0
  0
LINE
  5
AD
330
1F
100
AcDbEntity
  8
0
  6
Continuous
 62
     7
370
    15
100
AcDbLine
 10
202.645715749
 20
93.8592124827
 30
0.0
 11
198.687646961
 21
93.8592124827
 31
0.0
  0
LINE
  5
AE
330
1F
100
AcDbEntity
  8
0
  6
Continuous
 62
     7
370
    15
100
AcDbLine
 10
198.687646961
 20
143.8961308546
 30
0.0
 11
202.645715749
 21
143.8961308546
 31
0.0
  0
LINE
  5
AF
330
1F
100
AcDbEntity
  8
0
  6
Continuous
 62
     7
370
    15
100
AcDbLine
 10
177.2957150397
 20
92.8461309619
 30
0.0
 11
177.2957150397
 21
155.2461292691
 31
0.0
  0
SPLINE
  5
B0
330
1F
100
AcDbEntity
  8
0
  6
Continuous
 62
     7
370
    15
100
AcDbSpline
210
0.0
220
0.0
230
1.0
 70
     8
 71
     3
 72
    10
 73
     6
 74
     0
 42
0.00000001
 43
0.00000001
 12
1.0
 22
0.0
 32
0.0
 13
1.0
 23
0.0
 33
0.0
 40
0.0
 40
0.0
 40
0.0
 40
0.0
 40
0.5
 40
0.5
 40
1.0
 40
1.0
 40
1.0
 40
1.0
 10
193.7800125714259
 20
150.4461301154902
 30
0.0
 10
193.6584723077574
 20
150.520856282702
 30
0.0
 10
193.5571379474084
 20
150.6298012986188
 30
0.0
 10
193.42149900452
 20
150.8802317793804
 30
0.0
 10
193.3857150397349
 20
151.0226511414793
 30
0.0
 10
193.3857150397349
 20
151.165783966526
 30
0.0
  0
SPLINE
  5
B1
330
1F
100
AcDbEntity
  8
0
  6
Continuous
 62
     7
370
    15
100
AcDbSpline
210
0.0
220
0.0
230
1.0
 70
    24
 71
     3
 72
    12
 73
     8
 74
     0
 42
0.00000001
 43
0.00000001
 12
1.0
 22
0.0
 32
0.0
 13
1.0
 23
0.0
 33
0.0
 40
0.0
 40
0.0
 40
0.0
 40
0.0
 40
0.2500000000000037
 40
0.2500000000000037
 40
0.5000000000000074
 40
0.5000000000000074
 40
1.0
 40
1.0
 40
1.0
 40
1.0
 10
194.185715039735
 20
150.4461301154902
 30
0.0
 10
194.1363716779253
 20
150.4461301154902
 30
0.0
 10
194.0876809796237
 20
150.4461301154902
 30
0.0
 10
194.0048298820533
 20
150.4461301154902
 30
0.0
 10
193.9686299144327
 20
150.4461301154902
 30
0.0
 10
193.8728799978833
 20
150.4461301154902
 30
0.0
 10
193.8229980280712
 20
150.4461301154902
 30
0.0
 10
193.7800125714259
 20
150.4461301154902
 30
0.0
  0
SPLINE
  5
B2
330
1F
100
AcDbEntity
  8
0
  6
Continuous
 62
     7
370
    15
100
AcDbSpline
210
0.0
220
0.0
230
1.0
 70
    24
 71
     3
 72
    14
 73
    10
 74
     0
 42
0.00000001
 43
0.00000001
 12
1.0
 22
0.0
 32
0.0
 13
1.0
 23
0.0
 33
0.0
 40
0.0
 40
0.0
 40
0.0
 40
0.0
 40
0.1250000000000013
 40
0.1250000000000013
 40
0.2500000000000026
 40
0.2500000000000026
 40
0.5000000000000017
 40
0.5000000000000017
 40
1.0
 40
1.0
 40
1.0
 40
1.0
 10
194.185715039735
 20
97.64613011549024
 30
0.0
 10
194.1163683180038
 20
97.64613011549022
 30
0.0
 10
194.0511702646199
 20
97.64613011549024
 30
0.0
 10
193.9467910719929
 20
97.64613011549024
 30
0.0
 10
193.9038887009839
 20
97.64613011549024
 30
0.0
 10
193.7915630433792
 20
97.64613011549022
 30
0.0
 10
193.7363393490253
 20
97.64613011549025
 30
0.0
 10
193.5922819702578
 20
97.64613011549024
 30
0.0
 10
193.5302012734263
 20
97.64613011549024
 30
0.0
 10
193.4833898420672
 20
97.64613011549024
 30
0.0
  0
SPLINE
  5
B3
330
1F
100
AcDbEntity
  8
0
  6
Continuous
 62
     7
370
    15
100
AcDbSpline
210
0.0
220
0.0
230
1.0
 70
     8
 71
     3
 72
     9
 73
     5
 74
     0
 42
0.00000001
 43
0.00000001
 12
1.0
 22
0.0
 32
0.0
 13
1.0
 23
0.0
 33
0.0
 40
0.0
 40
0.0
 40
0.0
 40
0.0
 40
0.5
 40
1.0
 40
1.0
 40
1.0
 40
1.0
 10
193.3857150397349
 20
144.1819967469516
 30
0.0
 10
193.3857150397349
 20
144.1337646948289
 30
0.0
 10
193.3901210144401
 20
144.0378946813893
 30
0.0
 10
193.4031401945339
 20
143.943186051406
 30
0.0
 10
193.411862662895
 20
143.8961301154903
 30
0.0
  0
SPLINE
  5
B4
330
1F
100
AcDbEntity
  8
0
  6
Continuous
 62
     7
370
    15
100
AcDbSpline
210
0.0
220
0.0
230
1.0
 70
    24
 71
     3
 72
    14
 73
    10
 74
     0
 42
0.00000001
 43
0.00000001
 12
1.0
 22
0.0
 32
0.0
 13
1.0
 23
0.0
 33
0.0
 40
0.0
 40
0.0
 40
0.0
 40
0.0
 40
0.5
 40
0.5
 40
0.75
 40
0.75
 40
0.875
 40
0.875
 40
1.0
 40
1.0
 40
1.0
 40
1.0
 10
197.1080402374026
 20
97.64613011549024
 30
0.0
 10
197.0612555323544
 20
97.64613011549024
 30
0.0
 10
196.9992043355748
 20
97.64613011549025
 30
0.0
 10
196.8558126970242
 20
97.64613011549022
 30
0.0
 10
196.7996690434731
 20
97.64613011549024
 30
0.0
 10
196.6867180213369
 20
97.64613011549024
 30
0.0
 10
196.6437172592987
 20
97.64613011549024
 30
0.0
 10
196.5396545489922
 20
97.64613011549022
 30
0.0
 10
196.4743223106353
 20
97.64613011549024
 30
0.0
 10
196.4057150397349
 20
97.64613011549024
 30
0.0
  0
SPLINE
  5
B5
330
1F
100
AcDbEntity
  8
0
  6
Continuous
 62
     7
370
    15
100
AcDbSpline
210
0.0
220
0.0
230
1.0
 70
    24
 71
     3
 72
    12
 73
     8
 74
     0
 42
0.00000001
 43
0.00000001
 12
1.0
 22
0.0
 32
0.0
 13
1.0
 23
0.0
 33
0.0
 40
0.0
 40
0.0
 40
0.0
 40
0.0
 40
0.5
 40
0.5
 40
0.75
 40
0.75
 40
1.0
 40
1.0
 40
1.0
 40
1.0
 10
196.8114175080439
 20
150.4461301154902
 30
0.0
 10
196.7683319584332
 20
150.4461301154902
 30
0.0
 10
196.7191797566861
 20
150.4461301154902
 30
0.0
 10
196.6227071623965
 20
150.4461301154902
 30
0.0
 10
196.5866055772623
 20
150.4461301154902
 30
0.0
 10
196.5034998193997
 20
150.4461301154902
 30
0.0
 10
196.4555032224357
 20
150.4461301154902
 30
0.0
 10
196.4057150397349
 20
150.4461301154902
 30
0.0
  0
SPLINE
  5
B6
330
1F
100
AcDbEntity
  8
0
  6
Continuous
 62
     7
370
    15
100
AcDbSpline
210
0.0
220
0.0
230
1.0
 70
     8
 71
     3
 72
    10
 73
     6
 74
     0
 42
0.00000001
 43
0.00000001
 12
1.0
 22
0.0
 32
0.0
 13
1.0
 23
0.0
 33
0.0
 40
0.0
 40
0.0
 40
0.0
 40
0.0
 40
0.5
 40
0.5
 40
1.0
 40
1.0
 40
1.0
 40
1.0
 10
197.2057150397349
 20
151.165783966526
 30
0.0
 10
197.2057150397349
 20
151.022013908708
 30
0.0
 10
197.169665981016
 20
150.8795945462129
 30
0.0
 10
197.034157120242
 20
150.6297002528556
 30
0.0
 10
196.9342811271459
 20
150.5216699166074
 30
0.0
 10
196.8114175080439
 20
150.4461301154902
 30
0.0
  0
SPLINE
  5
B7
330
1F
100
AcDbEntity
  8
0
  6
Continuous
 62
     7
370
    15
100
AcDbSpline
210
0.0
220
0.0
230
1.0
 70
     8
 71
     3
 72
    10
 73
     6
 74
     0
 42
0.00000001
 43
0.00000001
 12
1.0
 22
0.0
 32
0.0
 13
1.0
 23
0.0
 33
0.0
 40
0.0
 40
0.0
 40
0.0
 40
0.0
 40
0.5
 40
0.5
 40
1.0
 40
1.0
 40
1.0
 40
1.0
 10
197.1795674165748
 20
143.8961301154903
 30
0.0
 10
197.1882570594865
 20
143.9430089648084
 30
0.0
 10
197.194796124237
 20
143.9904314302096
 30
0.0
 10
197.20355475863
 20
144.0863682287964
 30
0.0
 10
197.2057150397349
 20
144.1342835168069
 30
0.0
 10
197.2057150397349
 20
144.1819967469514
 30
0.0
  0
LINE
  5
B8
330
1F
100
AcDbEntity
  8
0
  6
Continuous
 62
     7
370
    15
100
AcDbLine
 10
196.4057148007
 20
150.4461299724
 30
0.0
 11
194.1857155917
 21
150.4461299724
 31
0.0
  0
LINE
  5
B9
330
1F
100
AcDbEntity
  8
0
  6
Continuous
 62
     7
370
    15
100
AcDbLine
 10
196.4057148007
 20
97.6461302585
 30
0.0
 11
194.1857155917
 21
97.6461302585
 31
0.0
  0
LINE
  5
BA
330
1F
100
AcDbEntity
  8
0
  6
Continuous
 62
     7
370
    15
100
AcDbLine
 10
203.44571439
 20
150.4461299724
 30
0.0
 11
203.4015734253
 21
150.4461299724
 31
0.0
  0
LINE
  5
BB
330
1F
100
AcDbEntity
  8
0
  6
Continuous
 62
     7
370
    15
100
AcDbLine
 10
203.44571439
 20
97.6461302585
 30
0.0
 11
203.3963934091
 21
97.6461302585
 31
0.0
  0
SPLINE
  5
BC
330
1F
100
AcDbEntity
  8
0
  6
Continuous
 62
     7
370
    15
100
AcDbSpline
210
0.0
220
0.0
230
1.0
 70
     8
 71
     3
 72
    20
 73
    16
 74
     0
 42
0.00000001
 43
0.00000001
 12
1.0
 22
0.0
 32
0.0
 13
1.0
 23
0.0
 33
0.0
 40
0.0
 40
0.0
 40
0.0
 40
0.0
 40
0.250000000000001
 40
0.250000000000001
 40
0.3750000000000009
 40
0.3750000000000009
 40
0.5000000000000008
 40
0.5000000000000008
 40
0.6250000000000006
 40
0.6250000000000006
 40
0.7500000000000004
 40
0.7500000000000004
 40
0.8750000000000002
 40
0.8750000000000002
 40
1.0
 40
1.0
 40
1.0
 40
1.0
 10
213.1041220098743
 20
149.7132624047261
 30
0.0
 10
213.2653014165883
 20
149.8104526693676
 30
0.0
 10
213.5147310866741
 20
149.8801235480379
 30
0.0
 10
214.0229045533889
 20
149.9550237044081
 30
0.0
 10
214.2128542676913
 20
149.9746183973981
 30
0.0
 10
214.6258732173354
 20
150.0051650967837
 30
0.0
 10
214.849907289862
 20
150.0162541778461
 30
0.0
 10
215.3338306541071
 20
150.0325171984508
 30
0.0
 10
215.5930277281648
 20
150.0376159139996
 30
0.0
 10
216.1296023046171
 20
150.0439943355061
 30
0.0
 10
216.4090134073678
 20
150.045343465045
 30
0.0
 10
216.9903479955287
 20
150.0463822750138
 30
0.0
 10
217.2932931104028
 20
150.0460648226417
 30
0.0
 10
217.9039968388457
 20
150.0452444033684
 30
0.0
 10
218.2138772170564
 20
150.0447458211667
 30
0.0
 10
218.528388051756
 20
150.0445294346382
 30
0.0
  0
ELLIPSE
  5
BD
330
1F
100
AcDbEntity
  8
0
  6
Continuous
 62
     7
370
    15
100
AcDbEllipse
 10
214.215330282
 20
124.0461301155
 30
0.0
 11
0.0
 21
26.0
 31
0.0
210
0.0
220
0.0
230
1.0
 40
0.2679491924
 41
0.1601874882047334
 42
2.981405165385059
  0
SPLINE
  5
BE
330
1F
100
AcDbEntity
  8
0
  6
Continuous
 62
     7
370
    15
100
AcDbSpline
210
0.0
220
0.0
230
1.0
 70
     8
 71
     3
 72
    20
 73
    16
 74
     0
 42
0.00000001
 43
0.00000001
 12
1.0
 22
0.0
 32
0.0
 13
1.0
 23
0.0
 33
0.0
 40
0.0
 40
0.0
 40
0.0
 40
0.0
 40
0.2499999999999981
 40
0.2499999999999981
 40
0.3749999999999983
 40
0.3749999999999983
 40
0.4999999999999987
 40
0.4999999999999987
 40
0.6249999999999989
 40
0.6249999999999989
 40
0.7499999999999992
 40
0.7499999999999992
 40
0.8749999999999997
 40
0.8749999999999997
 40
1.0
 40
1.0
 40
1.0
 40
1.0
 10
218.528388051756
 20
98.04773079634226
 30
0.0
 10
217.899306834207
 20
98.04729798231553
 30
0.0
 10
217.2926883177446
 20
98.04537241783407
 30
0.0
 10
216.4160528113823
 20
98.04688720451772
 30
0.0
 10
216.1330179621866
 20
98.04824297203952
 30
0.0
 10
215.5966927781409
 20
98.05458330196151
 30
0.0
 10
215.3414734294116
 20
98.05956188593287
 30
0.0
 10
214.8574270988438
 20
98.07567997452585
 30
0.0
 10
214.6291241094365
 20
98.08690539055641
 30
0.0
 10
214.2152645715144
 20
98.11741356675671
 30
0.0
 10
214.027413008938
 20
98.13674432839458
 30
0.0
 10
213.6900300901661
 20
98.18613214040553
 30
0.0
 10
213.5400802143182
 20
98.21645370239959
 30
0.0
 10
213.2880840431904
 20
98.28853655156132
 30
0.0
 10
213.1847224192672
 20
98.33039623825493
 30
0.0
 10
213.1041220098743
 20
98.37899782625438
 30
0.0
  0
ELLIPSE
  5
BF
330
1F
100
AcDbEntity
  8
0
  6
Continuous
 62
     7
370
    15
100
AcDbEllipse
 10
211.1129159808
 20
114.6806820752
 30
0.0
 11
-0.2696657704175038
 21
3.145180515440671
 31
0.0
210
0.0
220
0.0
230
1.0
 40
0.1867150388
 41
0.0
 42
6.283185307179586
  0
LINE
  5
C0
330
1F
100
AcDbEntity
  8
0
  6
Continuous
 62
     7
370
    15
100
AcDbLine
 10
155.4957148192
 20
100.8176840938
 30
0.0
 11
155.4957148192
 21
102.1009814091
 31
0.0
  0
SPLINE
  5
C1
330
1F
100
AcDbEntity
  8
0
  6
Continuous
 62
     7
370
    15
100
AcDbSpline
210
0.0
220
0.0
230
1.0
 70
     8
 71
     3
 72
    14
 73
    10
 74
     0
 42
0.00000001
 43
0.00000001
 12
1.0
 22
0.0
 32
0.0
 13
1.0
 23
0.0
 33
0.0
 40
0.0
 40
0.0
 40
0.0
 40
0.0
 40
0.25
 40
0.25
 40
0.5
 40
0.5
 40
0.75
 40
0.75
 40
1.0
 40
1.0
 40
1.0
 40
1.0
 10
154.8741108029952
 20
103.181758898207
 30
0.0
 10
154.9125471878162
 20
103.0791345004955
 30
0.0
 10
154.981348581208
 20
102.9799380770559
 30
0.0
 10
155.1246345933669
 20
102.7890460477294
 30
0.0
 10
155.1998166484739
 20
102.6967887816965
 30
0.0
 10
155.332003937124
 20
102.5171814598815
 30
0.0
 10
155.3895211325938
 20
102.4298719054372
 30
0.0
 10
155.4715659308862
 20
102.2599380719214
 30
0.0
 10
155.4957150397349
 20
102.1780357300502
 30
0.0
 10
155.4957150397349
 20
102.1009818562143
 30
0.0
  0
SPLINE
  5
C2
330
1F
100
AcDbEntity
  8
0
  6
Continuous
 62
     7
370
    15
100
AcDbSpline
210
0.0
220
0.0
230
1.0
 70
     8
 71
     3
 72
    18
 73
    14
 74
     0
 42
0.00000001
 43
0.00000001
 12
1.0
 22
0.0
 32
0.0
 13
1.0
 23
0.0
 33
0.0
 40
0.0
 40
0.0
 40
0.0
 40
0.0
 40
0.0624999999999998
 40
0.0624999999999998
 40
0.1249999999999997
 40
0.1249999999999997
 40
0.2499999999999993
 40
0.2499999999999993
 40
0.4999999999999996
 40
0.4999999999999996
 40
0.7499999999999998
 40
0.7499999999999998
 40
1.0
 40
1.0
 40
1.0
 40
1.0
 10
154.0957150397349
 20
103.9000413496936
 30
0.0
 10
154.1322872500853
 20
103.9038187532211
 30
0.0
 10
154.1709377235208
 20
103.9032617253379
 30
0.0
 10
154.2450292172346
 20
103.8932025201761
 30
0.0
 10
154.2803795109888
 20
103.8838486387515
 30
0.0
 10
154.3749738083782
 20
103.8494642123177
 30
0.0
 10
154.4251119815171
 20
103.8187524776549
 30
0.0
 10
154.5543052530983
 20
103.7228231676168
 30
0.0
 10
154.6125853978394
 20
103.6543076734996
 30
0.0
 10
154.7127804942629
 20
103.517735723567
 30
0.0
 10
154.7527957457095
 20
103.4489708210641
 30
0.0
 10
154.8211951665273
 20
103.3139353919564
 30
0.0
 10
154.8495568903892
 20
103.2473173659032
 30
0.0
 10
154.8741108029952
 20
103.181758898207
 30
0.0
  0
SPLINE
  5
C3
330
1F
100
AcDbEntity
  8
0
  6
Continuous
 62
     7
370
    15
100
AcDbSpline
210
0.0
220
0.0
230
1.0
 70
     8
 71
     3
 72
    10
 73
     6
 74
     0
 42
0.00000001
 43
0.00000001
 12
1.0
 22
0.0
 32
0.0
 13
1.0
 23
0.0
 33
0.0
 40
0.0
 40
0.0
 40
0.0
 40
0.0
 40
0.5
 40
0.5
 40
1.0
 40
1.0
 40
1.0
 40
1.0
 10
150.1821131786129
 20
103.403847693322
 30
0.0
 10
150.8097408343203
 20
103.5071212520576
 30
0.0
 10
151.4609415793518
 20
103.5959463638092
 30
0.0
 10
152.769646283364
 20
103.7580540706795
 30
0.0
 10
153.4306907206552
 20
103.8313535349661
 30
0.0
 10
154.0957150397348
 20
103.9000413496938
 30
0.0
  0
SPLINE
  5
C4
330
1F
100
AcDbEntity
  8
0
  6
Continuous
 62
     7
370
    15
100
AcDbSpline
210
0.0
220
0.0
230
1.0
 70
     8
 71
     3
 72
    14
 73
    10
 74
     0
 42
0.00000001
 43
0.00000001
 12
1.0
 22
0.0
 32
0.0
 13
1.0
 23
0.0
 33
0.0
 40
0.0
 40
0.0
 40
0.0
 40
0.0
 40
0.4999999999999998
 40
0.4999999999999998
 40
0.750000000000001
 40
0.750000000000001
 40
0.8750000000000004
 40
0.8750000000000004
 40
1.0
 40
1.0
 40
1.0
 40
1.0
 10
146.5457150397349
 20
103.2394985569627
 30
0.0
 10
147.1617919434902
 20
103.2452246771918
 30
0.0
 10
147.7759239396061
 20
103.2551150425939
 30
0.0
 10
148.6898205701197
 20
103.2857500102636
 30
0.0
 10
148.9932594976673
 20
103.2985434679016
 30
0.0
 10
149.4443961133048
 20
103.326469295861
 30
0.0
 10
149.5941023628473
 20
103.3372389160208
 30
0.0
 10
149.8909434990954
 20
103.3643716316203
 30
0.0
 10
150.0383290515987
 20
103.3801886044475
 30
0.0
 10
150.182113178613
 20
103.403847693322
 30
0.0
  0
SPLINE
  5
C5
330
1F
100
AcDbEntity
  8
0
  6
Continuous
 62
     7
370
    15
100
AcDbSpline
210
0.0
220
0.0
230
1.0
 70
     8
 71
     3
 72
     8
 73
     4
 74
     0
 42
0.00000001
 43
0.00000001
 12
1.0
 22
0.0
 32
0.0
 13
1.0
 23
0.0
 33
0.0
 40
0.0000005954826279
 40
0.0000005954826279
 40
0.0000005954826279
 40
0.0000005954826279
 40
0.0000302093805348
 40
0.0000302093805348
 40
0.0000302093805348
 40
0.0000302093805348
 10
146.5356701093253
 20
103.2513136866146
 30
0.0
 10
146.5389861366455
 20
103.2473669070188
 30
0.0
 10
146.5423346880378
 20
103.2434285158888
 30
0.0
 10
146.5457150397349
 20
103.2394985569627
 30
0.0
  0
SPLINE
  5
C6
330
1F
100
AcDbEntity
  8
0
  6
Continuous
 62
     7
370
    15
100
AcDbSpline
210
0.0
220
0.0
230
1.0
 70
     8
 71
     3
 72
     8
 73
     4
 74
     0
 42
0.00000001
 43
0.00000001
 12
1.0
 22
0.0
 32
0.0
 13
1.0
 23
0.0
 33
0.0
 40
0.0000005099763573
 40
0.0000005099763573
 40
0.0000005099763573
 40
0.0000005099763573
 40
0.0000262827998699
 40
0.0000262827998699
 40
0.0000262827998699
 40
0.0000262827998699
 10
146.5457150397349
 20
144.9160678808853
 30
0.0
 10
146.5423463005072
 20
144.9127462119294
 30
0.0
 10
146.538997847528
 20
144.9094182546506
 30
0.0
 10
146.5356701093167
 20
144.9060840077779
 30
0.0
  0
SPLINE
  5
C7
330
1F
100
AcDbEntity
  8
0
  6
Continuous
 62
     7
370
    15
100
AcDbSpline
210
0.0
220
0.0
230
1.0
 70
     8
 71
     3
 72
    10
 73
     6
 74
     0
 42
0.00000001
 43
0.00000001
 12
1.0
 22
0.0
 32
0.0
 13
1.0
 23
0.0
 33
0.0
 40
0.0
 40
0.0
 40
0.0
 40
0.0
 40
0.5
 40
0.5
 40
1.0
 40
1.0
 40
1.0
 40
1.0
 10
150.095715039735
 20
144.869217507318
 30
0.0
 10
149.5081294926444
 20
144.8902830275544
 30
0.0
 10
148.917383099184
 20
144.9010415134266
 30
0.0
 10
147.7333639338851
 20
144.9144062939623
 30
0.0
 10
147.1399499456796
 20
144.9165489366269
 30
0.0
 10
146.5457150397349
 20
144.9160678808853
 30
0.0
  0
SPLINE
  5
C8
330
1F
100
AcDbEntity
  8
0
  6
Continuous
 62
     7
370
    15
100
AcDbSpline
210
0.0
220
0.0
230
1.0
 70
     8
 71
     3
 72
    18
 73
    14
 74
     0
 42
0.00000001
 43
0.00000001
 12
1.0
 22
0.0
 32
0.0
 13
1.0
 23
0.0
 33
0.0
 40
0.0
 40
0.0
 40
0.0
 40
0.0
 40
0.2500000000000003
 40
0.2500000000000003
 40
0.4999999999999999
 40
0.4999999999999999
 40
0.7499999999999996
 40
0.7499999999999996
 40
0.8749999999999993
 40
0.8749999999999993
 40
0.9374999999999997
 40
0.9374999999999997
 40
1.0
 40
1.0
 40
1.0
 40
1.0
 10
151.495715039735
 20
145.8902377878532
 30
0.0
 10
151.495715039735
 20
145.807030878996
 30
0.0
 10
151.4598659397967
 20
145.7182942236824
 30
0.0
 10
151.3349942037628
 20
145.5361690331222
 30
0.0
 10
151.2445937861149
 20
145.4410389844956
 30
0.0
 10
151.0223511313727
 20
145.2518574753713
 30
0.0
 10
150.8925863449269
 20
145.1569123072766
 30
0.0
 10
150.6519488876154
 20
145.0186335996966
 30
0.0
 10
150.564181589478
 20
144.9729231663943
 30
0.0
 10
150.4096575022712
 20
144.9150998611728
 30
0.0
 10
150.3530466162164
 20
144.8973850971349
 30
0.0
 10
150.2290025853098
 20
144.872845793902
 30
0.0
 10
150.1612879102915
 20
144.8668666553637
 30
0.0
 10
150.095715039735
 20
144.869217507318
 30
0.0
  0
LINE
  5
C9
330
1F
100
AcDbEntity
  8
0
  6
Continuous
 62
     7
370
    15
100
AcDbLine
 10
151.4957141635
 20
145.8902377732
 30
0.0
 11
151.4957141635
 21
147.0741760082
 31
0.0
  0
LINE
  5
CA
330
1F
100
AcDbEntity
  8
0
  6
Continuous
 62
     7
370
    15
100
AcDbLine
 10
175.2957149447
 20
99.825698892
 30
0.0
 11
175.2957149447
 21
148.266561339
 31
0.0
  0
SPLINE
  5
CB
330
1F
100
AcDbEntity
  8
0
  6
Continuous
 62
     7
370
    15
100
AcDbSpline
210
0.0
220
0.0
230
1.0
 70
     8
 71
     3
 72
    24
 73
    20
 74
     0
 42
0.00000001
 43
0.00000001
 12
1.0
 22
0.0
 32
0.0
 13
1.0
 23
0.0
 33
0.0
 40
0.0
 40
0.0
 40
0.0
 40
0.0
 40
0.0010489815523775
 40
0.0637843212772741
 40
0.1272220630088516
 40
0.1903789073370505
 40
0.2526748662763491
 40
0.3146354150030102
 40
0.3770891884518245
 40
0.4393540587943444
 40
0.5008133488401828
 40
0.5621845177353679
 40
0.6248438462901906
 40
0.6874304788646655
 40
0.7496743245911356
 40
0.811984857412469
 40
0.8750960476811308
 40
0.9384412548145236
 40
1.0
 40
1.0
 40
1.0
 40
1.0
 10
164.0646210444618
 20
100.3886219210437
 30
0.0
 10
164.0641743787111
 20
100.3885632760772
 30
0.0
 10
164.0370144427875
 20
100.3849973130965
 30
0.0
 10
164.1326443659193
 20
100.3978619225717
 30
0.0
 10
164.3661975419398
 20
100.4270964049118
 30
0.0
 10
164.7617534941742
 20
100.4737156156532
 30
0.0
 10
165.2887934945443
 20
100.5238964150784
 30
0.0
 10
165.9323239363805
 20
100.5682750885214
 30
0.0
 10
166.6709977706502
 20
100.5952182850322
 30
0.0
 10
167.4685124407691
 20
100.5986900333343
 30
0.0
 10
168.2950914905337
 20
100.5710645870409
 30
0.0
 10
169.1206143119524
 20
100.5125834440623
 30
0.0
 10
169.912740782868
 20
100.4271403806637
 30
0.0
 10
170.6453131617053
 20
100.3254052121712
 30
0.0
 10
171.2809533435261
 20
100.2175615611232
 30
0.0
 10
171.8028642740723
 20
100.1159301658484
 30
0.0
 10
172.1844931117112
 20
100.0334482015559
 30
0.0
 10
172.4353077876446
 20
99.97729609404901
 30
0.0
 10
172.4644291033518
 20
99.97044724313614
 30
0.0
 10
172.4787815046955
 20
99.96707179616001
 30
0.0
  0
SPLINE
  5
CC
330
1F
100
AcDbEntity
  8
0
  6
Continuous
 62
     7
370
    15
100
AcDbSpline
210
0.0
220
0.0
230
1.0
 70
     8
 71
     3
 72
    24
 73
    20
 74
     0
 42
0.00000001
 43
0.00000001
 12
1.0
 22
0.0
 32
0.0
 13
1.0
 23
0.0
 33
0.0
 40
0.0
 40
0.0
 40
0.0
 40
0.0
 40
0.061438429114026
 40
0.1250736777967296
 40
0.1884253375120635
 40
0.2508623992448768
 40
0.3129665476325514
 40
0.3753451442328022
 40
0.4377328732174486
 40
0.499092717251918
 40
0.560580729454827
 40
0.622946985474185
 40
0.6854686070210457
 40
0.7475477863222202
 40
0.8098225081553685
 40
0.873068419947611
 40
0.936404185690527
 40
0.9991757203144552
 40
1.0
 40
1.0
 40
1.0
 40
1.0
 10
172.4787270223249
 20
148.1251586324981
 30
0.0
 10
172.4641262138727
 20
148.1217904746251
 30
0.0
 10
172.4344025240217
 20
148.1149337255407
 30
0.0
 10
172.1816645240358
 20
148.0585959056446
 30
0.0
 10
171.7986692250146
 20
147.9757380927594
 30
0.0
 10
171.2763132681317
 20
147.8738313445383
 30
0.0
 10
170.64152892343
 20
147.7659927746493
 30
0.0
 10
169.9113051868159
 20
147.6645265214203
 30
0.0
 10
169.1208370919047
 20
147.5794644428531
 30
0.0
 10
168.296353364447
 20
147.5212630858965
 30
0.0
 10
167.469316983967
 20
147.4936786382119
 30
0.0
 10
166.6709925249765
 20
147.4971725667461
 30
0.0
 10
165.9311687739769
 20
147.5241262254197
 30
0.0
 10
165.2869139025173
 20
147.5684817260332
 30
0.0
 10
164.7595070454197
 20
147.6186869097559
 30
0.0
 10
164.3648418051066
 20
147.6652943698011
 30
0.0
 10
164.1323131195185
 20
147.6944975466395
 30
0.0
 10
164.0369338908522
 20
147.7072556853567
 30
0.0
 10
164.063866835179
 20
147.7037158554379
 30
0.0
 10
164.0642159191419
 20
147.7036699749043
 30
0.0
  0
SPLINE
  5
CD
330
1F
100
AcDbEntity
  8
0
  6
Continuous
 62
     7
370
    15
100
AcDbSpline
210
0.0
220
0.0
230
1.0
 70
     8
 71
     3
 72
     9
 73
     5
 74
     0
 42
0.00000001
 43
0.00000001
 12
1.0
 22
0.0
 32
0.0
 13
1.0
 23
0.0
 33
0.0
 40
0.0
 40
0.0
 40
0.0
 40
0.0
 40
0.5865081526888636
 40
1.0
 40
1.0
 40
1.0
 40
1.0
 10
145.4022344706107
 20
104.3953113354256
 30
0.0
 10
145.4062349071926
 20
104.3895108632118
 30
0.0
 10
145.4130556761174
 20
104.379621022487
 30
0.0
 10
145.4222093872205
 20
104.4336870280142
 30
0.0
 10
145.4259943721343
 20
104.4560428805163
 30
0.0
  0
LINE
  5
CE
330
1F
100
AcDbEntity
  8
0
  6
Continuous
 62
     7
370
    15
100
AcDbLine
 10
145.3957152126
 20
104.3929699905
 30
0.0
 11
145.3957152126
 21
143.7368076391
 31
0.0
  0
SPLINE
  5
CF
330
1F
100
AcDbEntity
  8
0
  6
Continuous
 62
     7
370
    15
100
AcDbSpline
210
0.0
220
0.0
230
1.0
 70
     8
 71
     3
 72
    10
 73
     6
 74
     0
 42
0.00000001
 43
0.00000001
 12
1.0
 22
0.0
 32
0.0
 13
1.0
 23
0.0
 33
0.0
 40
0.0
 40
0.0
 40
0.0
 40
0.0
 40
0.5
 40
0.5
 40
1.0
 40
1.0
 40
1.0
 40
1.0
 10
145.4583784144584
 20
143.720682660271
 30
0.0
 10
145.4494741253496
 20
143.7664241794842
 30
0.0
 10
145.4329587451566
 20
143.7836150189532
 30
0.0
 10
145.405850799095
 20
143.7832917420174
 30
0.0
 10
145.3957150397349
 20
143.765414199721
 30
0.0
 10
145.3957150397349
 20
143.7368078619684
 30
0.0
  0
SPLINE
  5
D0
330
1F
100
AcDbEntity
  8
0
  6
Continuous
 62
     7
370
    15
100
AcDbSpline
210
0.0
220
0.0
230
1.0
 70
     8
 71
     3
 72
    26
 73
    22
 74
     0
 42
0.00000001
 43
0.00000001
 12
1.0
 22
0.0
 32
0.0
 13
1.0
 23
0.0
 33
0.0
 40
0.0
 40
0.0
 40
0.0
 40
0.0
 40
0.2500000000000214
 40
0.2500000000000214
 40
0.3750000000000319
 40
0.3750000000000319
 40
0.437500000000036
 40
0.437500000000036
 40
0.4687500000000356
 40
0.4687500000000356
 40
0.5000000000000352
 40
0.5000000000000352
 40
0.5312500000000349
 40
0.5312500000000349
 40
0.5625000000000345
 40
0.5625000000000345
 40
0.6250000000000303
 40
0.6250000000000303
 40
0.75000000000002
 40
0.75000000000002
 40
1.0
 40
1.0
 40
1.0
 40
1.0
 10
146.2198686858394
 20
144.4362494490881
 30
0.0
 10
146.181268162971
 20
144.3184747527326
 30
0.0
 10
146.1349711604167
 20
144.1940850665707
 30
0.0
 10
146.0410318119828
 20
143.9888657342172
 30
0.0
 10
146.0057203450693
 20
143.9172928677708
 30
0.0
 10
145.9395403693237
 20
143.8013396351703
 30
0.0
 10
145.9150020026555
 20
143.7607551003601
 30
0.0
 10
145.8716292571016
 20
143.6966134184883
 30
0.0
 10
145.8561208556764
 20
143.6747469932033
 30
0.0
 10
145.8210782110894
 20
143.6291527248601
 30
0.0
 10
145.8015279203696
 20
143.6054824338927
 30
0.0
 10
145.759600639999
 20
143.5608658745527
 30
0.0
 10
145.7369485297674
 20
143.5399858620349
 30
0.0
 10
145.6959748156808
 20
143.509112448284
 30
0.0
 10
145.6783755157853
 20
143.4992735784516
 30
0.0
 10
145.6337485299292
 20
143.4802839627554
 30
0.0
 10
145.6131893072759
 20
143.479959638102
 30
0.0
 10
145.5620638677792
 20
143.4891830789782
 30
0.0
 10
145.5411524547906
 20
143.5104299751952
 30
0.0
 10
145.4897025472297
 20
143.5843988540259
 30
0.0
 10
145.4720372479252
 20
143.6505169473407
 30
0.0
 10
145.4583784144584
 20
143.720682660271
 30
0.0
  0
SPLINE
  5
D1
330
1F
100
AcDbEntity
  8
0
  6
Continuous
 62
     7
370
    15
100
AcDbSpline
210
0.0
220
0.0
230
1.0
 70
     8
 71
     3
 72
    10
 73
     6
 74
     0
 42
0.00000001
 43
0.00000001
 12
1.0
 22
0.0
 32
0.0
 13
1.0
 23
0.0
 33
0.0
 40
0.0
 40
0.0
 40
0.0
 40
0.0
 40
0.5
 40
0.5
 40
1.0
 40
1.0
 40
1.0
 40
1.0
 10
146.5356701093167
 20
144.9060840077779
 30
0.0
 10
146.4681108543985
 20
144.8383926149681
 30
0.0
 10
146.404474199062
 20
144.7636854502145
 30
0.0
 10
146.2942534444901
 20
144.6047193177879
 30
0.0
 10
146.2474371512675
 20
144.5203640517799
 30
0.0
 10
146.2198686858394
 20
144.4362494490881
 30
0.0
  0
SPLINE
  5
D2
330
1F
100
AcDbEntity
  8
0
  6
Continuous
 62
     7
370
    15
100
AcDbSpline
210
0.0
220
0.0
230
1.0
 70
     8
 71
     3
 72
     8
 73
     4
 74
     0
 42
0.00000001
 43
0.00000001
 12
1.0
 22
0.0
 32
0.0
 13
1.0
 23
0.0
 33
0.0
 40
0.0
 40
0.0
 40
0.0
 40
0.0
 40
1.0
 40
1.0
 40
1.0
 40
1.0
 10
146.3346246099341
 20
103.6022078125246
 30
0.0
 10
146.370338268304
 20
103.4789763072648
 30
0.0
 10
146.4460063072523
 20
103.3580327303178
 30
0.0
 10
146.5356701093254
 20
103.2513136866146
 30
0.0
  0
SPLINE
  5
D3
330
1F
100
AcDbEntity
  8
0
  6
Continuous
 62
     7
370
    15
100
AcDbSpline
210
0.0
220
0.0
230
1.0
 70
     8
 71
     3
 72
    26
 73
    22
 74
     0
 42
0.00000001
 43
0.00000001
 12
1.0
 22
0.0
 32
0.0
 13
1.0
 23
0.0
 33
0.0
 40
0.0
 40
0.0
 40
0.0
 40
0.0
 40
0.2500000000000047
 40
0.2500000000000047
 40
0.375000000000008
 40
0.375000000000008
 40
0.437500000000009
 40
0.437500000000009
 40
0.468750000000009
 40
0.468750000000009
 40
0.5000000000000091
 40
0.5000000000000091
 40
0.5312500000000092
 40
0.5312500000000092
 40
0.5625000000000094
 40
0.5625000000000094
 40
0.6250000000000078
 40
0.6250000000000078
 40
0.7500000000000054
 40
0.7500000000000054
 40
1.0
 40
1.0
 40
1.0
 40
1.0
 10
145.4259926553435
 20
104.4560425552634
 30
0.0
 10
145.4367166887361
 20
104.5590035957524
 30
0.0
 10
145.4514496793307
 20
104.6580022852335
 30
0.0
 10
145.5038032385776
 20
104.7765979652986
 30
0.0
 10
145.5255085212972
 20
104.8123082652474
 30
0.0
 10
145.5843640286627
 20
104.8372876980691
 30
0.0
 10
145.6078262625098
 20
104.8416731458327
 30
0.0
 10
145.6639476391704
 20
104.8219203123885
 30
0.0
 10
145.6867349493011
 20
104.8102639215781
 30
0.0
 10
145.7419875018323
 20
104.7684835721409
 30
0.0
 10
145.7733937345731
 20
104.7382119847649
 30
0.0
 10
145.8283275551935
 20
104.6765695858509
 30
0.0
 10
145.852751373393
 20
104.645127933544
 30
0.0
 10
145.8961664793802
 20
104.5853930961303
 30
0.0
 10
145.9157410419485
 20
104.5562280862576
 30
0.0
 10
145.9693737258965
 20
104.4723928105246
 30
0.0
 10
145.9991510739487
 20
104.4203601925484
 30
0.0
 10
146.0806851339215
 20
104.269294518581
 30
0.0
 10
146.1239279285955
 20
104.1761034767103
 30
0.0
 10
146.2369825182502
 20
103.9117169377159
 30
0.0
 10
146.2909935157294
 20
103.7527587686661
 30
0.0
 10
146.3346246099334
 20
103.6022078125252
 30
0.0
  0
LINE
  5
D4
330
1F
100
AcDbEntity
  8
0
  6
Continuous
 62
     7
370
    15
100
AcDbLine
 10
197.2057153044
 20
144.1819965936
 30
0.0
 11
197.2057153044
 21
145.0962741024
 31
0.0
  0
SPLINE
  5
D5
330
1F
100
AcDbEntity
  8
0
  6
Continuous
 62
     7
370
    15
100
AcDbSpline
210
0.0
220
0.0
230
1.0
 70
     8
 71
     3
 72
     8
 73
     4
 74
     0
 42
0.00000001
 43
0.00000001
 12
1.0
 22
0.0
 32
0.0
 13
1.0
 23
0.0
 33
0.0
 40
0.0
 40
0.0
 40
0.0
 40
0.0
 40
1.0
 40
1.0
 40
1.0
 40
1.0
 10
197.2057150397349
 20
145.0962737830735
 30
0.0
 10
197.6849931903248
 20
146.2372850129262
 30
0.0
 10
198.1805610294647
 20
147.373669423694
 30
0.0
 10
198.687647871224
 20
148.5048197778576
 30
0.0
  0
LINE
  5
D6
330
1F
100
AcDbEntity
  8
0
  6
Continuous
 62
     7
370
    15
100
AcDbLine
 10
198.687646961
 20
148.5048197306
 30
0.0
 11
202.645715749
 21
148.5048197306
 31
0.0
  0
SPLINE
  5
D7
330
1F
100
AcDbEntity
  8
0
  6
Continuous
 62
     7
370
    15
100
AcDbSpline
210
0.0
220
0.0
230
1.0
 70
     8
 71
     3
 72
    12
 73
     8
 74
     0
 42
0.00000001
 43
0.00000001
 12
1.0
 22
0.0
 32
0.0
 13
1.0
 23
0.0
 33
0.0
 40
0.0
 40
0.0
 40
0.0
 40
0.0
 40
0.249999999999998
 40
0.249999999999998
 40
0.499999999999996
 40
0.499999999999996
 40
1.0
 40
1.0
 40
1.0
 40
1.0
 10
202.6457150397349
 20
148.5048197778577
 30
0.0
 10
202.7369147615606
 20
148.5048197778576
 30
0.0
 10
202.8275097706966
 20
148.4766000792698
 30
0.0
 10
202.9809224971433
 20
148.3821570720217
 30
0.0
 10
203.046131364467
 20
148.3158700953163
 30
0.0
 10
203.1989158938069
 20
148.0902452720281
 30
0.0
 10
203.245715039735
 20
147.9078190089955
 30
0.0
 10
203.2457150397349
 20
147.7270823767486
 30
0.0
  0
LINE
  5
D8
330
1F
100
AcDbEntity
  8
0
  6
Continuous
 62
     7
370
    15
100
AcDbLine
 10
203.2457147298
 20
147.7270815618
 30
0.0
 11
203.2457147298
 21
143.8961308546
 31
0.0
  0
SPLINE
  5
D9
330
1F
100
AcDbEntity
  8
0
  6
Continuous
 62
     7
370
    15
100
AcDbSpline
210
0.0
220
0.0
230
1.0
 70
     8
 71
     3
 72
    10
 73
     6
 74
     0
 42
0.00000001
 43
0.00000001
 12
1.0
 22
0.0
 32
0.0
 13
1.0
 23
0.0
 33
0.0
 40
0.0
 40
0.0
 40
0.0
 40
0.0
 40
0.5
 40
0.5
 40
1.0
 40
1.0
 40
1.0
 40
1.0
 10
203.2457150397349
 20
153.8925704392541
 30
0.0
 10
203.2457150397349
 20
154.0529757056049
 30
0.0
 10
203.1834772086281
 20
154.2120375185935
 30
0.0
 10
202.9643422848855
 20
154.4429499842239
 30
0.0
 10
202.8067535898936
 20
154.5133255886545
 30
0.0
 10
202.6457150397349
 20
154.5133255886545
 30
0.0
  0
LINE
  5
DA
330
1F
100
AcDbEntity
  8
0
  6
Continuous
 62
     7
370
    15
100
AcDbLine
 10
203.2457147298
 20
147.7270815618
 30
0.0
 11
203.2457147298
 21
153.8925711162
 31
0.0
  0
SPLINE
  5
DB
330
1F
100
AcDbEntity
  8
0
  6
Continuous
 62
     7
370
    15
100
AcDbSpline
210
0.0
220
0.0
230
1.0
 70
     8
 71
     3
 72
     8
 73
     4
 74
     0
 42
0.00000001
 43
0.00000001
 12
1.0
 22
0.0
 32
0.0
 13
1.0
 23
0.0
 33
0.0
 40
0.0
 40
0.0
 40
0.0
 40
0.0
 40
1.0
 40
1.0
 40
1.0
 40
1.0
 10
198.687647871224
 20
154.5133255886545
 30
0.0
 10
198.1925078418597
 20
153.6266459404742
 30
0.0
 10
197.6984251365807
 20
152.7393833047882
 30
0.0
 10
197.2057150397349
 20
151.8513643066618
 30
0.0
  0
LINE
  5
DC
330
1F
100
AcDbEntity
  8
0
  6
Continuous
 62
     7
370
    15
100
AcDbLine
 10
198.687646961
 20
148.5048197306
 30
0.0
 11
198.687646961
 21
154.5133255518
 31
0.0
  0
LINE
  5
DD
330
1F
100
AcDbEntity
  8
0
  6
Continuous
 62
     7
370
    15
100
AcDbLine
 10
197.2057153044
 20
145.0962741024
 30
0.0
 11
197.2057153044
 21
151.8513634897
 31
0.0
  0
SPLINE
  5
DE
330
1F
100
AcDbEntity
  8
0
  6
Continuous
 62
     7
370
    15
100
AcDbSpline
210
0.0
220
0.0
230
1.0
 70
     8
 71
     3
 72
     8
 73
     4
 74
     0
 42
0.00000001
 43
0.00000001
 12
1.0
 22
0.0
 32
0.0
 13
1.0
 23
0.0
 33
0.0
 40
0.0
 40
0.0
 40
0.0
 40
0.0
 40
1.0
 40
1.0
 40
1.0
 40
1.0
 10
193.3857150397349
 20
151.8513643066618
 30
0.0
 10
192.8930049428892
 20
152.7393833047882
 30
0.0
 10
192.3989222376102
 20
153.6266459404742
 30
0.0
 10
191.9037822082459
 20
154.5133255886545
 30
0.0
  0
LINE
  5
DF
330
1F
100
AcDbEntity
  8
0
  6
Continuous
 62
     7
370
    15
100
AcDbLine
 10
193.385715088
 20
145.0962741024
 30
0.0
 11
193.385715088
 21
151.8513634897
 31
0.0
  0
SPLINE
  5
E0
330
1F
100
AcDbEntity
  8
0
  6
Continuous
 62
     7
370
    15
100
AcDbSpline
210
0.0
220
0.0
230
1.0
 70
     8
 71
     3
 72
     8
 73
     4
 74
     0
 42
0.00000001
 43
0.00000001
 12
1.0
 22
0.0
 32
0.0
 13
1.0
 23
0.0
 33
0.0
 40
0.0
 40
0.0
 40
0.0
 40
0.0
 40
1.0
 40
1.0
 40
1.0
 40
1.0
 10
191.9037822082459
 20
148.5048197778576
 30
0.0
 10
192.4108690500051
 20
147.373669423694
 30
0.0
 10
192.9064368891451
 20
146.2372850129262
 30
0.0
 10
193.3857150397349
 20
145.0962737830736
 30
0.0
  0
LINE
  5
E1
330
1F
100
AcDbEntity
  8
0
  6
Continuous
 62
     7
370
    15
100
AcDbLine
 10
193.385715088
 20
145.0962741024
 30
0.0
 11
193.385715088
 21
144.1819965936
 31
0.0
  0
LINE
  5
E2
330
1F
100
AcDbEntity
  8
0
  6
Continuous
 62
     7
370
    15
100
AcDbLine
 10
202.645715749
 20
154.5133255518
 30
0.0
 11
198.687646961
 21
154.5133255518
 31
0.0
  0
LINE
  5
E3
330
1F
100
AcDbEntity
  8
0
  6
Continuous
 62
     7
370
    15
100
AcDbLine
 10
146.5457141904
 20
103.2336298473
 30
0.0
 11
146.5457141904
 21
103.2394990421
 31
0.0
  0
SPLINE
  5
E4
330
1F
100
AcDbEntity
  8
0
  6
Continuous
 62
     7
370
    15
100
AcDbSpline
210
0.0
220
0.0
230
1.0
 70
     8
 71
     3
 72
     8
 73
     4
 74
     0
 42
0.00000001
 43
0.00000001
 12
1.0
 22
0.0
 32
0.0
 13
1.0
 23
0.0
 33
0.0
 40
0.0
 40
0.0
 40
0.0
 40
0.0
 40
1.0
 40
1.0
 40
1.0
 40
1.0
 10
218.528388051756
 20
150.0445294346382
 30
0.0
 10
218.6566119952283
 20
150.0444412153117
 30
0.0
 10
218.7803918963934
 20
150.0681846236314
 30
0.0
 10
218.8996769676087
 20
150.115886645915
 30
0.0
  0
SPLINE
  5
E5
330
1F
100
AcDbEntity
  8
0
  6
Continuous
 62
     7
370
    15
100
AcDbSpline
210
0.0
220
0.0
230
1.0
 70
     8
 71
     3
 72
     8
 73
     4
 74
     0
 42
0.00000001
 43
0.00000001
 12
1.0
 22
0.0
 32
0.0
 13
1.0
 23
0.0
 33
0.0
 40
0.0
 40
0.0
 40
0.0
 40
0.0
 40
1.0
 40
1.0
 40
1.0
 40
1.0
 10
218.8996769676071
 20
97.97637358506613
 30
0.0
 10
218.7803918963923
 20
98.02407560734932
 30
0.0
 10
218.6566119952277
 20
98.04781901566874
 30
0.0
 10
218.528388051756
 20
98.04773079634226
 30
0.0
  0
LINE
  5
E6
330
1F
100
AcDbEntity
  8
0
  6
Continuous
 62
     7
370
    15
100
AcDbLine
 10
219.5636634288
 20
151.0444637484
 30
0.0
 11
221.3892046866
 21
151.0444637484
 31
0.0
  0
LINE
  5
E7
330
1F
100
AcDbEntity
  8
0
  6
Continuous
 62
     7
370
    15
100
AcDbLine
 10
242.9203991351
 20
120.2947308871
 30
0.0
 11
221.3892046866
 21
151.0444637484
 31
0.0
  0
LINE
  5
E8
330
1F
100
AcDbEntity
  8
0
  6
Continuous
 62
     7
370
    15
100
AcDbLine
 10
245.4025377092
 20
91.923749084
 30
0.0
 11
242.9203991351
 21
120.2947308871
 31
0.0
  0
ARC
  5
E9
330
1F
100
AcDbEntity
  8
0
  6
Continuous
 62
     7
370
    15
100
AcDbCircle
 10
234.2855132829
 20
92.0563318723
 30
0.0
 40
2.099999999999994
100
AcDbArc
 50
17.3926878054
 51
252.6073121946
  0
LINE
  5
EA
330
1F
100
AcDbEntity
  8
0
  6
Continuous
 62
     7
370
    15
100
AcDbLine
 10
223.6815434454
 20
81.6790592022
 30
0.0
 11
234.4356891272
 21
80.7381924338
 31
0.0
  0
LINE
  5
EB
330
1F
100
AcDbEntity
  8
0
  6
Continuous
 62
     7
370
    15
100
AcDbLine
 10
219.5636634288
 20
151.0444637484
 30
0.0
 11
219.4943134246
 21
150.7856287159
 31
0.0
  0
LINE
  5
EC
330
1F
100
AcDbEntity
  8
0
  6
Continuous
 62
     7
370
    15
100
AcDbLine
 10
219.4943134246
 20
97.3066315151
 30
0.0
 11
223.6815434454
 21
81.6790592022
 31
0.0
  0
SPLINE
  5
ED
330
1F
100
AcDbEntity
  8
0
  6
Continuous
 62
     7
370
    15
100
AcDbSpline
210
0.0
220
0.0
230
1.0
 70
     8
 71
     3
 72
    10
 73
     6
 74
     0
 42
0.00000001
 43
0.00000001
 12
1.0
 22
0.0
 32
0.0
 13
1.0
 23
0.0
 33
0.0
 40
0.0
 40
0.0
 40
0.0
 40
0.0
 40
0.5
 40
0.5
 40
1.0
 40
1.0
 40
1.0
 40
1.0
 10
218.8996769676087
 20
150.115886645915
 30
0.0
 10
219.0425781127243
 20
150.1730327207692
 30
0.0
 10
219.1741708290864
 20
150.2653790610394
 30
0.0
 10
219.3793783451445
 20
150.4969381011369
 30
0.0
 10
219.4544820424074
 20
150.6369644297261
 30
0.0
 10
219.4943138780451
 20
150.7856282196539
 30
0.0
  0
SPLINE
  5
EE
330
1F
100
AcDbEntity
  8
0
  6
Continuous
 62
     7
370
    15
100
AcDbSpline
210
0.0
220
0.0
230
1.0
 70
     8
 71
     3
 72
    10
 73
     6
 74
     0
 42
0.00000001
 43
0.00000001
 12
1.0
 22
0.0
 32
0.0
 13
1.0
 23
0.0
 33
0.0
 40
0.0
 40
0.0
 40
0.0
 40
0.0
 40
0.5
 40
0.5
 40
1.0
 40
1.0
 40
1.0
 40
1.0
 10
219.4943138780451
 20
97.30663201132658
 30
0.0
 10
219.4540609784286
 20
97.45686733231463
 30
0.0
 10
219.3792957683004
 20
97.59561804740967
 30
0.0
 10
219.173101019646
 20
97.82788448443326
 30
0.0
 10
219.0432940627703
 20
97.91894120225464
 30
0.0
 10
218.8996769676065
 20
97.97637358506638
 30
0.0
  0
CIRCLE
  5
EF
330
1F
100
AcDbEntity
  8
0
  6
HIDDEN
 62
     7
370
     0
100
AcDbCircle
 10
208.2070091892
 20
124.0253394591
 30
0.0
 40
1.959601263697239
  0
CIRCLE
  5
F0
330
1F
100
AcDbEntity
  8
0
  6
HIDDEN
 62
     7
370
     0
100
AcDbCircle
 10
208.2595643341
 20
124.0183819901
 30
0.0
 40
2.472258479495501
  0
CIRCLE
  5
F1
330
1F
100
AcDbEntity
  8
0
  6
HIDDEN
 62
     7
370
     0
100
AcDbCircle
 10
208.563449377
 20
124.0183825962
 30
0.0
 40
2.472259085794988
  0
CIRCLE
  5
F2
330
1F
100
AcDbEntity
  8
0
  6
HIDDEN
 62
     7
370
     0
100
AcDbCircle
 10
209.1621256596
 20
124.0251333362
 30
0.0
 40
1.979010490356645
  0
CIRCLE
  5
F3
330
1F
100
AcDbEntity
  8
0
  6
HIDDEN
 62
     7
370
     0
100
AcDbCircle
 10
208.4423028676
 20
124.0251342854
 30
0.0
 40
1.979011444906717
  0
CIRCLE
  5
F4
330
1F
100
AcDbEntity
  8
0
  6
HIDDEN
 62
     7
370
     0
100
AcDbCircle
 10
208.6832658889
 20
124.0183825962
 30
0.0
 40
2.472259085794988
  0
CIRCLE
  5
F5
330
1F
100
AcDbEntity
  8
0
  6
HIDDEN
 62
     7
370
     0
100
AcDbCircle
 10
208.5945886829
 20
124.0220370658
 30
0.0
 40
2.27591405853885
  0
CIRCLE
  5
F6
330
1F
100
AcDbEntity
  8
0
  6
HIDDEN
 62
     7
370
     0
100
AcDbCircle
 10
208.8030824008
 20
124.0183825962
 30
0.0
 40
2.472259085794988
  0
CIRCLE
  5
F7
330
1F
100
AcDbEntity
  8
0
  6
HIDDEN
 62
     7
370
     0
100
AcDbCircle
 10
208.7144050981
 20
124.0220363119
 30
0.0
 40
2.275913304413648
  0
CIRCLE
  5
F8
330
1F
100
AcDbEntity
  8
0
  6
HIDDEN
 62
     7
370
     0
100
AcDbCircle
 10
208.9229006824
 20
124.0183819898
 30
0.0
 40
2.472258474855825
  0
CIRCLE
  5
F9
330
1F
100
AcDbEntity
  8
0
  6
HIDDEN
 62
     7
370
     0
100
AcDbCircle
 10
208.8342217196
 20
124.0220374588
 30
0.0
 40
2.275914442339308
  0
CIRCLE
  5
FA
330
1F
100
AcDbEntity
  8
0
  6
HIDDEN
 62
     7
370
     0
100
AcDbCircle
 10
209.0427171942
 20
124.0183819898
 30
0.0
 40
2.472258474855825
  0
CIRCLE
  5
FB
330
1F
100
AcDbEntity
  8
0
  6
HIDDEN
 62
     7
370
     0
100
AcDbCircle
 10
208.9540401411
 20
124.0220376792
 30
0.0
 40
2.27591466749144
  0
CIRCLE
  5
FC
330
1F
100
AcDbEntity
  8
0
  6
HIDDEN
 62
     7
370
     0
100
AcDbCircle
 10
209.1382244172
 20
124.0183825962
 30
0.0
 40
2.472259085794988
  0
CIRCLE
  5
FD
330
1F
100
AcDbEntity
  8
0
  6
HIDDEN
 62
     7
370
     0
100
AcDbCircle
 10
209.1626087789
 20
124.0214085318
 30
0.0
 40
2.335285690945399
  0
CIRCLE
  5
FE
330
1F
100
AcDbEntity
  8
0
  6
HIDDEN
 62
     7
370
     0
100
AcDbCircle
 10
240.2705788374
 20
86.0712663178
 30
0.0
 40
2.499999999999991
  0
CIRCLE
  5
FF
330
1F
100
AcDbEntity
  8
0
  6
HIDDEN
 62
     7
370
     0
100
AcDbCircle
 10
240.2705788374
 20
86.0712663178
 30
0.0
 40
1.599999999999983
  0
CIRCLE
  5
100
330
1F
100
AcDbEntity
  8
0
  6
HIDDEN
 62
     7
370
     0
100
AcDbCircle
 10
240.3503409774
 20
85.9915041779
 30
0.0
 40
2.75
  0
LINE
  5
101
330
1F
100
AcDbEntity
  8
0
  6
HIDDEN
 62
     7
370
     0
100
AcDbLine
 10
234.0078767893
 20
92.3339668758
 30
0.0
 11
235.0283828137
 21
80.6695465095
 31
0.0
  0
LINE
  5
102
330
1F
100
AcDbEntity
  8
0
  6
HIDDEN
 62
     7
370
     0
100
AcDbLine
 10
245.6723008809
 20
91.3134608514
 30
0.0
 11
234.0078767893
 21
92.3339668758
 31
0.0
  0
LINE
  5
103
330
1F
100
AcDbEntity
  8
0
  6
HIDDEN
 62
     7
370
     0
100
AcDbLine
 10
235.0283828137
 20
80.6695465095
 30
0.0
 11
246.6928069053
 21
79.6490404851
 31
0.0
  0
LINE
  5
104
330
1F
100
AcDbEntity
  8
0
  6
HIDDEN
 62
     7
370
     0
100
AcDbLine
 10
246.6928069053
 20
79.6490404851
 30
0.0
 11
245.6723008809
 21
91.3134608514
 31
0.0
  0
LINE
  5
105
330
1F
100
AcDbEntity
  8
0
  6
HIDDEN
 62
     7
370
     0
100
AcDbLine
 10
191.9037825001
 20
148.5048197306
 30
0.0
 11
191.9037825001
 21
143.8961308546
 31
0.0
  0
SPLINE
  5
106
330
1F
100
AcDbEntity
  8
0
  6
HIDDEN
 62
     7
370
     0
100
AcDbSpline
210
0.0
220
0.0
230
1.0
 70
     8
 71
     3
 72
    12
 73
     8
 74
     0
 42
0.00000001
 43
0.00000001
 12
1.0
 22
0.0
 32
0.0
 13
1.0
 23
0.0
 33
0.0
 40
0.0
 40
0.0
 40
0.0
 40
0.0
 40
0.1980675419451301
 40
0.3960026259879053
 40
0.5975903618836911
 40
0.8053764826861848
 40
1.0
 40
1.0
 40
1.0
 40
1.0
 10
211.8342821059276
 20
124.0461301154902
 30
0.0
 10
211.8070123211592
 20
123.7718286626861
 30
0.0
 10
211.7524909883231
 20
123.2234091964981
 30
0.0
 10
211.3296242082324
 20
122.4889140697665
 30
0.0
 10
210.7032753608061
 20
121.9226205585244
 30
0.0
 10
209.9229284819839
 20
121.5670387701686
 30
0.0
 10
209.3631227212417
 20
121.5643063188259
 30
0.0
 10
209.0923753140021
 20
121.5629847816637
 30
0.0
  0
SPLINE
  5
107
330
1F
100
AcDbEntity
  8
0
  6
HIDDEN
 62
     7
370
     0
100
AcDbSpline
210
0.0
220
0.0
230
1.0
 70
     8
 71
     3
 72
    13
 73
     9
 74
     0
 42
0.00000001
 43
0.00000001
 12
1.0
 22
0.0
 32
0.0
 13
1.0
 23
0.0
 33
0.0
 40
0.0
 40
0.0
 40
0.0
 40
0.0
 40
0.040208240253009
 40
0.2460698100563344
 40
0.4552342243230587
 40
0.6652723267204003
 40
0.8713634811206465
 40
1.0
 40
1.0
 40
1.0
 40
1.0
 10
209.0872604904224
 20
126.5171489309033
 30
0.0
 10
209.141875336012
 20
126.5281112664163
 30
0.0
 10
209.4761119152787
 20
126.5951995000838
 30
0.0
 10
210.1159623584245
 20
126.4415337636773
 30
0.0
 10
210.8906232793168
 20
126.0484126553235
 30
0.0
 10
211.4835977684487
 20
125.3954911895355
 30
0.0
 10
211.792037364206
 20
124.6875996541142
 30
0.0
 10
211.8225543621615
 20
124.2242112227749
 30
0.0
 10
211.8342821059276
 20
124.0461301154902
 30
0.0
  0
LINE
  5
108
330
1F
100
AcDbEntity
  8
0
  6
HIDDEN
 62
     7
370
     0
100
AcDbLine
 10
165.2908655388
 20
100.5215309657
 30
0.0
 11
165.0420003144
 21
100.4982683904
 31
0.0
  0
LINE
  5
109
330
1F
100
AcDbEntity
  8
0
  6
HIDDEN
 62
     7
370
     0
100
AcDbLine
 10
164.9094395844
 20
147.6062163807
 30
0.0
 11
165.2907724065
 21
147.5707125015
 31
0.0
  0
SPLINE
  5
10A
330
1F
100
AcDbEntity
  8
0
  6
HIDDEN
 62
     7
370
     0
100
AcDbSpline
210
0.0
220
0.0
230
1.0
 70
     8
 71
     3
 72
    10
 73
     6
 74
     0
 42
0.00000001
 43
0.00000001
 12
1.0
 22
0.0
 32
0.0
 13
1.0
 23
0.0
 33
0.0
 40
0.0
 40
0.0
 40
0.0
 40
0.0
 40
0.447575989067177
 40
0.8951353200696481
 40
1.0
 40
1.0
 40
1.0
 40
1.0
 10
171.0507170801509
 20
143.8836585826686
 30
0.0
 10
171.2974226964633
 20
143.9131702662125
 30
0.0
 10
171.7908247470984
 20
143.9721925349224
 30
0.0
 10
172.0798387439052
 20
143.9861356986956
 30
0.0
 10
172.0194704749523
 20
143.9822423860187
 30
0.0
 10
172.0080109817434
 20
143.9815033323577
 30
0.0
  0
SPLINE
  5
10B
330
1F
100
AcDbEntity
  8
0
  6
HIDDEN
 62
     7
370
     0
100
AcDbSpline
210
0.0
220
0.0
230
1.0
 70
     8
 71
     3
 72
    10
 73
     6
 74
     0
 42
0.00000001
 43
0.00000001
 12
1.0
 22
0.0
 32
0.0
 13
1.0
 23
0.0
 33
0.0
 40
0.0
 40
0.0
 40
0.0
 40
0.0
 40
0.3454686090141458
 40
0.7966951434385214
 40
1.0
 40
1.0
 40
1.0
 40
1.0
 10
172.0079900269855
 20
104.1107587612679
 30
0.0
 10
171.9984300358762
 20
104.1113136221686
 30
0.0
 10
171.9763834640912
 20
104.1125932029272
 30
0.0
 10
171.5594441449555
 20
104.1425526109639
 30
0.0
 10
171.1712840103019
 20
104.1929482061748
 30
0.0
 10
171.0507170801509
 20
104.2086016483119
 30
0.0
  0
SPLINE
  5
10C
330
1F
100
AcDbEntity
  8
0
  6
HIDDEN
 62
     7
370
     0
100
AcDbSpline
210
0.0
220
0.0
230
1.0
 70
     8
 71
     3
 72
    15
 73
    11
 74
     0
 42
0.00000001
 43
0.00000001
 12
1.0
 22
0.0
 32
0.0
 13
1.0
 23
0.0
 33
0.0
 40
0.0
 40
0.0
 40
0.0
 40
0.0
 40
0.1409172263352446
 40
0.281889861653346
 40
0.4212989542022905
 40
0.5593768841673977
 40
0.6988856533029646
 40
0.840367202775075
 40
0.9813164473602943
 40
1.0
 40
1.0
 40
1.0
 40
1.0
 10
171.0507170801509
 20
104.2086016483119
 30
0.0
 10
170.7346753605383
 20
104.2489549700866
 30
0.0
 10
170.1024676529699
 20
104.3296774806564
 30
0.0
 10
168.8683044806556
 20
104.4062354270392
 30
0.0
 10
167.59758235684
 20
104.4015573590242
 30
0.0
 10
166.4090228903035
 20
104.320760893801
 30
0.0
 10
165.4159002110131
 20
104.1963663469468
 30
0.0
 10
164.7764916796993
 20
104.0899594001856
 30
0.0
 10
164.495471691346
 20
104.036882340876
 30
0.0
 10
164.5620322598348
 20
104.0491368328379
 30
0.0
 10
164.5698225629974
 20
104.0505711085608
 30
0.0
  0
SPLINE
  5
10D
330
1F
100
AcDbEntity
  8
0
  6
HIDDEN
 62
     7
370
     0
100
AcDbSpline
210
0.0
220
0.0
230
1.0
 70
     8
 71
     3
 72
    15
 73
    11
 74
     0
 42
0.00000001
 43
0.00000001
 12
1.0
 22
0.0
 32
0.0
 13
1.0
 23
0.0
 33
0.0
 40
0.0
 40
0.0
 40
0.0
 40
0.0
 40
0.1201202497733958
 40
0.2584739452442804
 40
0.3987302041697883
 40
0.5404022600041716
 40
0.680739511736143
 40
0.8190355942651634
 40
0.9577823154231621
 40
1.0
 40
1.0
 40
1.0
 40
1.0
 10
164.5698225629974
 20
144.0416891224196
 30
0.0
 10
164.5905318118009
 20
144.0376646183453
 30
0.0
 10
164.6350938340359
 20
144.0290047175567
 30
0.0
 10
165.1975333037643
 20
143.9297117988456
 30
0.0
 10
166.0909955592116
 20
143.8057957871343
 30
0.0
 10
167.2499743830638
 20
143.7060844116006
 30
0.0
 10
168.5230112518835
 20
143.6789473539026
 30
0.0
 10
169.7572965986106
 20
143.7342847160327
 30
0.0
 10
170.5852596763065
 20
143.820764451824
 30
0.0
 10
170.9626699889528
 20
143.8717613709612
 30
0.0
 10
171.0507170801509
 20
143.8836585826686
 30
0.0
  0
LINE
  5
10E
330
1F
100
AcDbEntity
  8
0
  6
HIDDEN
 62
     7
370
     0
100
AcDbLine
 10
158.2996905354
 20
107.0461291916
 30
0.0
 11
158.2996905354
 21
141.0461310394
 31
0.0
  0
LINE
  5
10F
330
1F
100
AcDbEntity
  8
0
  6
HIDDEN
 62
     7
370
     0
100
AcDbLine
 10
184.9555410018
 20
107.0461291916
 30
0.0
 11
184.9555410018
 21
141.0461310394
 31
0.0
  0
LINE
  5
110
330
1F
100
AcDbEntity
  8
0
  6
HIDDEN
 62
     7
370
     0
100
AcDbLine
 10
187.2457149012
 20
108.3211302854
 30
0.0
 11
187.2457149012
 21
139.7711299456
 31
0.0
  0
LWPOLYLINE
  5
111
330
1F
100
AcDbEntity
  8
0
  6
HIDDEN
 62
     7
370
     0
100
AcDbPolyline
 90
       20
 70
   128
 43
0.0
 10
202.2379361597
 20
126.125755031
 10
202.2598874328
 20
126.3155392467
 10
202.1786034612
 20
126.4071455322
 10
201.9996554164
 20
126.3942956089
 10
201.7353106794
 20
126.2778702754
 10
201.4036834744
 20
126.0658486377
 10
201.0275017974
 20
125.7727620055
 10
200.6325502453
 20
125.4186970278
 10
200.245893052
 20
125.027919547
 10
199.8940337954
 20
124.6272120139
 10
199.6010844169
 20
124.2440368756
 10
199.3871242312
 20
123.9046553188
 10
199.266815981
 20
123.6323269937
 10
199.2484055964
 20
123.4457161141
 10
199.3331559507
 20
123.3576120672
 10
199.515255591
 20
123.3740531121
 10
199.7822266576
 20
123.493912523
 10
200.1157723872
 20
123.7089755983
 10
200.493030673
 20
124.0045029541
 10
200.8881480006
 20
124.3602404525
  0
SPLINE
  5
112
330
1F
100
AcDbEntity
  8
0
  6
HIDDEN
 62
     7
370
     0
100
AcDbSpline
210
0.0
220
0.0
230
1.0
 70
     8
 71
     3
 72
    26
 73
    22
 74
     0
 42
0.00000001
 43
0.00000001
 12
1.0
 22
0.0
 32
0.0
 13
1.0
 23
0.0
 33
0.0
 40
0.0
 40
0.0
 40
0.0
 40
0.0
 40
0.062499999999999
 40
0.062499999999999
 40
0.1249999999999979
 40
0.1249999999999979
 40
0.1874999999999969
 40
0.1874999999999969
 40
0.2499999999999959
 40
0.2499999999999959
 40
0.3749999999999962
 40
0.3749999999999962
 40
0.4999999999999966
 40
0.4999999999999966
 40
0.6249999999999974
 40
0.6249999999999974
 40
0.7499999999999983
 40
0.7499999999999983
 40
0.8749999999999991
 40
0.8749999999999991
 40
1.0
 40
1.0
 40
1.0
 40
1.0
 10
202.2379370557993
 20
126.1257551191445
 30
0.0
 10
202.1765882132273
 20
126.1356716483717
 30
0.0
 10
202.1122655549576
 20
126.1422954877829
 30
0.0
 10
201.9746364914976
 20
126.1475191077391
 30
0.0
 10
201.9003209743666
 20
126.1460076375396
 30
0.0
 10
201.7447734171042
 20
126.1327070601089
 30
0.0
 10
201.6613687345791
 20
126.1205838399018
 30
0.0
 10
201.4954315218805
 20
126.0864940937998
 30
0.0
 10
201.4113995575437
 20
126.0643136999067
 30
0.0
 10
201.1707291899409
 20
125.9882111398496
 30
0.0
 10
201.0239190149684
 20
125.9257528009455
 30
0.0
 10
200.7463432319138
 20
125.7768513273337
 30
0.0
 10
200.6143219875132
 20
125.6896451886036
 30
0.0
 10
200.3617375865196
 20
125.4714184404303
 30
0.0
 10
200.2482129052056
 20
125.3448386592465
 30
0.0
 10
200.0565614878346
 20
125.0583143668872
 30
0.0
 10
199.9822620800374
 20
124.9053167272745
 30
0.0
 10
199.8673375935598
 20
124.5827902347788
 30
0.0
 10
199.8276504622626
 20
124.4145423303373
 30
0.0
 10
199.7805009757454
 20
124.0865050943493
 30
0.0
 10
199.7728759084147
 20
123.9258250293644
 30
0.0
 10
199.7778880938622
 20
123.7763158430039
 30
0.0
  0
SPLINE
  5
113
330
1F
100
AcDbEntity
  8
0
  6
HIDDEN
 62
     7
370
     0
100
AcDbSpline
210
0.0
220
0.0
230
1.0
 70
     8
 71
     3
 72
    14
 73
    10
 74
     0
 42
0.00000001
 43
0.00000001
 12
1.0
 22
0.0
 32
0.0
 13
1.0
 23
0.0
 33
0.0
 40
0.0
 40
0.0
 40
0.0
 40
0.0
 40
0.25
 40
0.25
 40
0.5
 40
0.5
 40
0.75
 40
0.75
 40
1.0
 40
1.0
 40
1.0
 40
1.0
 10
199.7778880938622
 20
123.7763158430039
 30
0.0
 10
199.8448358063494
 20
123.8740552405015
 30
0.0
 10
199.9173564134351
 20
123.9662331293738
 30
0.0
 10
200.0801432233036
 20
124.1276652587972
 30
0.0
 10
200.1725318732919
 20
124.1968581202603
 30
0.0
 10
200.3668589893485
 20
124.293963178326
 30
0.0
 10
200.4695212690748
 20
124.3234617390817
 30
0.0
 10
200.6783657410308
 20
124.3566491050372
 30
0.0
 10
200.7830046085425
 20
124.360715442599
 30
0.0
 10
200.8881487945924
 20
124.3602404381685
 30
0.0
  0
SPLINE
  5
114
330
1F
100
AcDbEntity
  8
0
  6
HIDDEN
 62
     7
370
     0
100
AcDbSpline
210
0.0
220
0.0
230
1.0
 70
     8
 71
     3
 72
    88
 73
    84
 74
     0
 42
0.00000001
 43
0.00000001
 12
1.0
 22
0.0
 32
0.0
 13
1.0
 23
0.0
 33
0.0
 40
0.0
 40
0.0
 40
0.0
 40
0.0
 40
0.0312499999999996
 40
0.0312499999999996
 40
0.0468749999999995
 40
0.0468749999999995
 40
0.0624999999999995
 40
0.0624999999999995
 40
0.0937499999999993
 40
0.0937499999999993
 40
0.1249999999999992
 40
0.1249999999999992
 40
0.1562499999999991
 40
0.1562499999999991
 40
0.187499999999999
 40
0.187499999999999
 40
0.2031249999999992
 40
0.2031249999999992
 40
0.2187499999999994
 40
0.2187499999999994
 40
0.2499999999999993
 40
0.2499999999999993
 40
0.2812499999999993
 40
0.2812499999999993
 40
0.3124999999999993
 40
0.3124999999999993
 40
0.343749999999999
 40
0.343749999999999
 40
0.3593749999999989
 40
0.3593749999999989
 40
0.3749999999999988
 40
0.3749999999999988
 40
0.4062499999999989
 40
0.4062499999999989
 40
0.437499999999999
 40
0.437499999999999
 40
0.4687499999999991
 40
0.4687499999999991
 40
0.4843749999999991
 40
0.4843749999999991
 40
0.499999999999999
 40
0.499999999999999
 40
0.5156249999999989
 40
0.5156249999999989
 40
0.5312499999999988
 40
0.5312499999999988
 40
0.5468749999999987
 40
0.5468749999999987
 40
0.5624999999999986
 40
0.5624999999999986
 40
0.5937499999999986
 40
0.5937499999999986
 40
0.6249999999999984
 40
0.6249999999999984
 40
0.6562499999999983
 40
0.6562499999999983
 40
0.6874999999999982
 40
0.6874999999999982
 40
0.7187499999999982
 40
0.7187499999999982
 40
0.7343749999999981
 40
0.7343749999999981
 40
0.749999999999998
 40
0.749999999999998
 40
0.7812499999999981
 40
0.7812499999999981
 40
0.8124999999999982
 40
0.8124999999999982
 40
0.8437499999999984
 40
0.8437499999999984
 40
0.8593749999999984
 40
0.8593749999999984
 40
0.8749999999999984
 40
0.8749999999999984
 40
0.8906249999999984
 40
0.8906249999999984
 40
0.9062499999999984
 40
0.9062499999999984
 40
0.9374999999999989
 40
0.9374999999999989
 40
0.9687499999999994
 40
0.9687499999999994
 40
1.0
 40
1.0
 40
1.0
 40
1.0
 10
199.893624762393
 20
123.3055289731381
 30
0.0
 10
199.9744781629897
 20
123.1491906128847
 30
0.0
 10
200.0722000108628
 20
122.9979920177961
 30
0.0
 10
200.2556512992433
 20
122.7705769806279
 30
0.0
 10
200.3222746077454
 20
122.6958530567447
 30
0.0
 10
200.4669449570252
 20
122.550709276466
 30
0.0
 10
200.5465393115732
 20
122.4790465607345
 30
0.0
 10
200.794542603147
 20
122.2824854197162
 30
0.0
 10
200.9770314305748
 20
122.1727312632913
 30
0.0
 10
201.3476207858596
 20
122.0183707469079
 30
0.0
 10
201.5407628470937
 20
121.9705220222877
 30
0.0
 10
201.929980525775
 20
121.936261276755
 30
0.0
 10
202.1299567173549
 20
121.949777845911
 30
0.0
 10
202.51934572986
 20
122.0375607620748
 30
0.0
 10
202.7154871114672
 20
122.1139772992355
 30
0.0
 10
202.9867135790556
 20
122.2685330639254
 30
0.0
 10
203.0737632003905
 20
122.3266008654259
 30
0.0
 10
203.2413025251635
 20
122.4558337457162
 30
0.0
 10
203.3214286657462
 20
122.5269619184552
 30
0.0
 10
203.5423859834718
 20
122.7500091603493
 30
0.0
 10
203.6691601659236
 20
122.9173259628158
 30
0.0
 10
203.8719390449631
 20
123.2554096682382
 30
0.0
 10
203.9501486048871
 20
123.4295496210191
 30
0.0
 10
204.0658328497573
 20
123.7551671064442
 30
0.0
 10
204.1045359865651
 20
123.9109751229001
 30
0.0
 10
204.163437830113
 20
124.1676242067609
 30
0.0
 10
204.1851126745877
 20
124.269802318097
 30
0.0
 10
204.2294937792961
 20
124.3419143709199
 30
0.0
 10
204.2464681793961
 20
124.3527339577237
 30
0.0
 10
204.2836430014611
 20
124.349338526756
 30
0.0
 10
204.3041539557103
 20
124.3354665516375
 30
0.0
 10
204.3667264146421
 20
124.2673326376567
 30
0.0
 10
204.4090399321458
 20
124.189369202731
 30
0.0
 10
204.4791222526832
 20
123.9980498261824
 30
0.0
 10
204.5061227457063
 20
123.8863026029428
 30
0.0
 10
204.5320247670712
 20
123.6410159345349
 30
0.0
 10
204.5312325088826
 20
123.5057956929696
 30
0.0
 10
204.4958196581106
 20
123.2888592170637
 30
0.0
 10
204.4783971106786
 20
123.2148665510778
 30
0.0
 10
204.429362718536
 20
123.0634961575573
 30
0.0
 10
204.3973452491146
 20
122.9853655440626
 30
0.0
 10
204.3169342746363
 20
122.8303338273599
 30
0.0
 10
204.2686709595
 20
122.7532838372899
 30
0.0
 10
204.1519625123582
 20
122.6009416958006
 30
0.0
 10
204.0842918150908
 20
122.5270454279005
 30
0.0
 10
203.932984610222
 20
122.3898002573339
 30
0.0
 10
203.8477310498123
 20
122.3252814740177
 30
0.0
 10
203.669073470763
 20
122.2129742273458
 30
0.0
 10
203.5736754874922
 20
122.1637277259569
 30
0.0
 10
203.2818502778825
 20
122.0405245665759
 30
0.0
 10
203.0803824420714
 20
121.9906048664072
 30
0.0
 10
202.6880223120375
 20
121.9409282342359
 30
0.0
 10
202.4969165088676
 20
121.9404357517234
 30
0.0
 10
202.1224372069219
 20
121.9779122223568
 30
0.0
 10
201.9437888739457
 20
122.0153199990014
 30
0.0
 10
201.5958951124152
 20
122.1259386109089
 30
0.0
 10
201.4249044759298
 20
122.1998439602835
 30
0.0
 10
201.0949984651084
 20
122.3951406730174
 30
0.0
 10
200.933665515721
 20
122.5189096822935
 30
0.0
 10
200.7225989356119
 20
122.7482585339262
 30
0.0
 10
200.6565603094897
 20
122.833316062357
 30
0.0
 10
200.5424500495896
 20
123.0113349461115
 30
0.0
 10
200.4937437453425
 20
123.104546988652
 30
0.0
 10
200.3717604065284
 20
123.3968663175029
 30
0.0
 10
200.3264993619586
 20
123.5962468742842
 30
0.0
 10
200.2945109811102
 20
124.0098271358467
 30
0.0
 10
200.3087535794689
 20
124.2152409290623
 30
0.0
 10
200.3951289617164
 20
124.6275903617101
 30
0.0
 10
200.4657592073654
 20
124.8252937212735
 30
0.0
 10
200.6109139872571
 20
125.1061630242731
 30
0.0
 10
200.6663966855093
 20
125.1975776269133
 30
0.0
 10
200.785867230878
 20
125.3673459993513
 30
0.0
 10
200.8503412502767
 20
125.4467857584774
 30
0.0
 10
200.9881972849616
 20
125.5949612864219
 30
0.0
 10
201.0620334820851
 20
125.6638761221678
 30
0.0
 10
201.2119162291798
 20
125.7858647649502
 30
0.0
 10
201.2886310578454
 20
125.8397487783331
 30
0.0
 10
201.5226037255802
 20
125.9816415510906
 30
0.0
 10
201.6798131281642
 20
126.0471655126723
 30
0.0
 10
201.9760706921238
 20
126.1293097289526
 30
0.0
 10
202.1132966140455
 20
126.145304498651
 30
0.0
 10
202.3422762445618
 20
126.1468916331017
 30
0.0
 10
202.4332326000444
 20
126.1320879225326
 30
0.0
 10
202.4762750030413
 20
126.1194099279891
 30
0.0
  0
SPLINE
  5
115
330
1F
100
AcDbEntity
  8
0
  6
HIDDEN
 62
     7
370
     0
100
AcDbSpline
210
0.0
220
0.0
230
1.0
 70
     8
 71
     3
 72
    10
 73
     6
 74
     0
 42
0.00000001
 43
0.00000001
 12
1.0
 22
0.0
 32
0.0
 13
1.0
 23
0.0
 33
0.0
 40
0.0
 40
0.0
 40
0.0
 40
0.0
 40
0.3170171692845944
 40
0.9104696535844702
 40
1.0
 40
1.0
 40
1.0
 40
1.0
 10
202.4772320447017
 20
126.1124811231604
 30
0.0
 10
202.4836792619832
 20
126.1080140091676
 30
0.0
 10
202.5021955956508
 20
126.0951845093059
 30
0.0
 10
202.3595933789195
 20
126.1136618358881
 30
0.0
 10
202.2520356124044
 20
126.1243534912083
 30
0.0
 10
202.2379361597348
 20
126.1257550309857
 30
0.0
  0
SPLINE
  5
116
330
1F
100
AcDbEntity
  8
0
  6
HIDDEN
 62
     7
370
     0
100
AcDbSpline
210
0.0
220
0.0
230
1.0
 70
     8
 71
     3
 72
    16
 73
    12
 74
     0
 42
0.00000001
 43
0.00000001
 12
1.0
 22
0.0
 32
0.0
 13
1.0
 23
0.0
 33
0.0
 40
0.0
 40
0.0
 40
0.0
 40
0.0
 40
0.2500000000000019
 40
0.2500000000000019
 40
0.5000000000000038
 40
0.5000000000000038
 40
0.6250000000000019
 40
0.6250000000000019
 40
0.7500000000000001
 40
0.7500000000000001
 40
1.0
 40
1.0
 40
1.0
 40
1.0
 10
200.8881487945933
 20
124.3602404381679
 30
0.0
 10
200.8150719106131
 20
124.2303717815096
 30
0.0
 10
200.7523140873487
 20
124.0968520237911
 30
0.0
 10
200.6322944977695
 20
123.8416512348071
 30
0.0
 10
200.5743450267336
 20
123.7190668291724
 30
0.0
 10
200.4652669714998
 20
123.5589475628419
 30
0.0
 10
200.4258268116406
 20
123.5108193315177
 30
0.0
 10
200.337526499488
 20
123.4279508394391
 30
0.0
 10
200.2879859670653
 20
123.3931057746169
 30
0.0
 10
200.1311437254082
 20
123.3157306833535
 30
0.0
 10
200.0119696485779
 20
123.298426950006
 30
0.0
 10
199.893624762393
 20
123.305528973138
 30
0.0
  0
SPLINE
  5
117
330
1F
100
AcDbEntity
  8
0
  6
HIDDEN
 62
     7
370
     0
100
AcDbSpline
210
0.0
220
0.0
230
1.0
 70
     8
 71
     3
 72
    18
 73
    14
 74
     0
 42
0.00000001
 43
0.00000001
 12
1.0
 22
0.0
 32
0.0
 13
1.0
 23
0.0
 33
0.0
 40
0.0
 40
0.0
 40
0.0
 40
0.0
 40
0.2500000000000009
 40
0.2500000000000009
 40
0.3750000000000007
 40
0.3750000000000007
 40
0.5000000000000006
 40
0.5000000000000006
 40
0.6250000000000003
 40
0.6250000000000003
 40
0.7500000000000001
 40
0.7500000000000001
 40
1.0
 40
1.0
 40
1.0
 40
1.0
 10
151.4957150397349
 20
140.3336437378944
 30
0.0
 10
151.4957150397349
 20
140.2791692173422
 30
0.0
 10
151.4608043483427
 20
140.2227881579897
 30
0.0
 10
151.3587950470097
 20
140.1387113171362
 30
0.0
 10
151.3171586923316
 20
140.1113776131453
 30
0.0
 10
151.2187528968429
 20
140.0584236975463
 30
0.0
 10
151.1612096851386
 20
140.0325363438292
 30
0.0
 10
151.0339115115656
 20
139.9847587989959
 30
0.0
 10
150.9643242068082
 20
139.962810880818
 30
0.0
 10
150.8128899616532
 20
139.9233783159053
 30
0.0
 10
150.7302060585592
 20
139.9058220666794
 30
0.0
 10
150.4740945965212
 20
139.8633833012589
 30
0.0
 10
150.2861795926332
 20
139.8476205515219
 30
0.0
 10
150.095715039735
 20
139.8476205515219
 30
0.0
  0
LINE
  5
118
330
1F
100
AcDbEntity
  8
0
  6
HIDDEN
 62
     7
370
     0
100
AcDbLine
 10
150.0957146791
 20
139.8476213313
 30
0.0
 11
146.5457141904
 21
139.8476213313
 31
0.0
  0
LINE
  5
119
330
1F
100
AcDbEntity
  8
0
  6
HIDDEN
 62
     7
370
     0
100
AcDbLine
 10
146.5457141904
 20
108.2446388997
 30
0.0
 11
154.0957153348
 21
108.2446388997
 31
0.0
  0
SPLINE
  5
11A
330
1F
100
AcDbEntity
  8
0
  6
HIDDEN
 62
     7
370
     0
100
AcDbSpline
210
0.0
220
0.0
230
1.0
 70
     8
 71
     3
 72
    16
 73
    12
 74
     0
 42
0.00000001
 43
0.00000001
 12
1.0
 22
0.0
 32
0.0
 13
1.0
 23
0.0
 33
0.0
 40
0.0
 40
0.0
 40
0.0
 40
0.0
 40
0.1249999999999988
 40
0.1249999999999988
 40
0.2499999999999977
 40
0.2499999999999977
 40
0.4999999999999984
 40
0.4999999999999984
 40
0.7499999999999992
 40
0.7499999999999992
 40
1.0
 40
1.0
 40
1.0
 40
1.0
 10
154.0957150397349
 20
108.2446396794586
 30
0.0
 10
154.1908367944008
 20
108.2446396794586
 30
0.0
 10
154.2841668631289
 20
108.2408238460658
 30
0.0
 10
154.4674286238668
 20
108.226053293336
 30
0.0
 10
154.5583063394239
 20
108.2148952453604
 30
0.0
 10
154.8151080369436
 20
108.1724239752187
 30
0.0
 10
154.9701754018156
 20
108.1313777780159
 30
0.0
 10
155.2239218633702
 20
108.036231661434
 30
0.0
 10
155.3247923150381
 20
107.9814689273524
 30
0.0
 10
155.4600387297329
 20
107.8702078034485
 30
0.0
 10
155.4957150397349
 20
107.8130380661198
 30
0.0
 10
155.4957150397349
 20
107.7586164930861
 30
0.0
  0
LINE
  5
11B
330
1F
100
AcDbEntity
  8
0
  6
HIDDEN
 62
     7
370
     0
100
AcDbLine
 10
146.5457141904
 20
108.2446388997
 30
0.0
 11
146.5457141904
 21
139.8476213313
 31
0.0
  0
SPLINE
  5
11C
330
1F
100
AcDbEntity
  8
0
  6
HIDDEN
 62
     7
370
     0
100
AcDbSpline
210
0.0
220
0.0
230
1.0
 70
     8
 71
     3
 72
    60
 73
    56
 74
     0
 42
0.00000001
 43
0.00000001
 12
1.0
 22
0.0
 32
0.0
 13
1.0
 23
0.0
 33
0.0
 40
-0.0312500000000001
 40
-0.0312500000000001
 40
0.0
 40
0.0
 40
0.03125
 40
0.03125
 40
0.0625
 40
0.0625
 40
0.09375
 40
0.09375
 40
0.125
 40
0.125
 40
0.1875
 40
0.1875
 40
0.2187499999999996
 40
0.2187499999999996
 40
0.2499999999999992
 40
0.2499999999999992
 40
0.3124999999999984
 40
0.3124999999999984
 40
0.3437499999999984
 40
0.3437499999999984
 40
0.3749999999999984
 40
0.3749999999999984
 40
0.4062499999999986
 40
0.4062499999999986
 40
0.4374999999999986
 40
0.4374999999999986
 40
0.4687499999999986
 40
0.4687499999999986
 40
0.4999999999999986
 40
0.4999999999999986
 40
0.5312499999999986
 40
0.5312499999999986
 40
0.5624999999999986
 40
0.5624999999999986
 40
0.6249999999999987
 40
0.6249999999999987
 40
0.6874999999999988
 40
0.6874999999999988
 40
0.7187499999999989
 40
0.7187499999999989
 40
0.749999999999999
 40
0.749999999999999
 40
0.7812499999999992
 40
0.7812499999999992
 40
0.8124999999999993
 40
0.8124999999999993
 40
0.8437499999999994
 40
0.8437499999999994
 40
0.8749999999999996
 40
0.8749999999999996
 40
0.9374999999999997
 40
0.9374999999999997
 40
0.9687499999999999
 40
0.9687499999999999
 40
1.0
 40
1.0
 40
1.03125
 40
1.03125
 10
206.1030361072994
 20
124.1883090028463
 30
0.0
 10
206.1030361072993
 20
123.9039512281342
 30
0.0
 10
206.0897962185477
 20
123.7643891623143
 30
0.0
 10
206.0379781495524
 20
123.490217413502
 30
0.0
 10
205.9986981657154
 20
123.3541539564666
 30
0.0
 10
205.8967738524554
 20
123.0967553954674
 30
0.0
 10
205.8343978225482
 20
122.9749286170274
 30
0.0
 10
205.6862265563543
 20
122.7445988586649
 30
0.0
 10
205.6005397998498
 20
122.6368833690953
 30
0.0
 10
205.3172146328687
 20
122.346896485786
 30
0.0
 10
205.0857164473743
 20
122.1911965629208
 30
0.0
 10
204.7029254174481
 20
122.0387824362381
 30
0.0
 10
204.5664303950858
 20
122.0003363245346
 30
0.0
 10
204.2903282936313
 20
121.9527466603236
 30
0.0
 10
204.1506797334569
 20
121.9430466097154
 30
0.0
 10
203.7270376641034
 20
121.9548171103819
 30
0.0
 10
203.4479640806796
 20
122.017878485066
 30
0.0
 10
203.0649079779826
 20
122.177863053439
 30
0.0
 10
202.9436404550243
 20
122.241584292479
 30
0.0
 10
202.712999972514
 20
122.389748899447
 30
0.0
 10
202.6039160485682
 20
122.474341786841
 30
0.0
 10
202.4051609407949
 20
122.659387480066
 30
0.0
 10
202.3143984336197
 20
122.760458264766
 30
0.0
 10
202.1512216390048
 20
122.9819147667383
 30
0.0
 10
202.0797839604335
 20
123.101500756959
 30
0.0
 10
201.9632390048708
 20
123.3519149528512
 30
0.0
 10
201.9169450737265
 20
123.4855549663172
 30
0.0
 10
201.8547525545646
 20
123.7595442843367
 30
0.0
 10
201.8387758487622
 20
123.8983821455628
 30
0.0
 10
201.8377386634317
 20
124.1798544737169
 30
0.0
 10
201.8532762153698
 20
124.3225177694254
 30
0.0
 10
201.9136623652217
 20
124.5956607664635
 30
0.0
 10
201.959072508523
 20
124.7296300549062
 30
0.0
 10
202.1332901454772
 20
125.1090607011492
 30
0.0
 10
202.3000606481723
 20
125.3337095186382
 30
0.0
 10
202.6975822654363
 20
125.7063991338
 30
0.0
 10
202.9315881933766
 20
125.8576524038756
 30
0.0
 10
203.3116604504242
 20
126.0179621654943
 30
0.0
 10
203.4457182168067
 20
126.0612354660736
 30
0.0
 10
203.7193743579747
 20
126.1223800453061
 30
0.0
 10
203.8582429412613
 20
126.1404114095431
 30
0.0
 10
204.1404702748925
 20
126.1495602505162
 30
0.0
 10
204.2833016016499
 20
126.1401925581967
 30
0.0
 10
204.5586010859238
 20
126.0937775622135
 30
0.0
 10
204.6940791908368
 20
126.0564212742156
 30
0.0
 10
204.9531796673423
 20
125.954383982107
 30
0.0
 10
205.0745371816234
 20
125.8909092090495
 30
0.0
 10
205.3023905648483
 20
125.7395915108314
 30
0.0
 10
205.4085730714217
 20
125.6514921400267
 30
0.0
 10
205.6934165250031
 20
125.3610318643943
 30
0.0
 10
205.8447870479756
 20
125.1258780452526
 30
0.0
 10
205.9977609640221
 20
124.7409234538655
 30
0.0
 10
206.0373647318996
 20
124.6046861505282
 30
0.0
 10
206.0897508841349
 20
124.3287056807207
 30
0.0
 10
206.1030361072994
 20
124.1883090028463
 30
0.0
 10
206.1030361072993
 20
123.9039512281342
 30
0.0
  0
ARC
  5
11D
330
1F
100
AcDbEntity
  8
0
  6
HIDDEN
 62
     7
370
     0
100
AcDbCircle
 10
201.8502417343
 20
124.036151562
 30
0.0
 40
2.088579013351441
100
AcDbArc
 50
200.4761856551
 51
187.146563925
  0
LINE
  5
11E
330
1F
100
AcDbEntity
  8
0
  6
HIDDEN
 62
     7
370
     0
100
AcDbLine
 10
146.5457141904
 20
106.0561295695
 30
0.0
 11
146.5457141904
 21
103.2394990421
 31
0.0
  0
LINE
  5
11F
330
1F
100
AcDbEntity
  8
0
  6
HIDDEN
 62
     7
370
     0
100
AcDbLine
 10
155.4957148192
 20
106.0561295695
 30
0.0
 11
155.4957148192
 21
102.1009814091
 31
0.0
  0
LINE
  5
120
330
1F
100
AcDbEntity
  8
0
  6
HIDDEN
 62
     7
370
     0
100
AcDbLine
 10
146.5457141904
 20
142.0361306615
 30
0.0
 11
146.5457141904
 21
144.9160687722
 31
0.0
  0
LINE
  5
121
330
1F
100
AcDbEntity
  8
0
  6
HIDDEN
 62
     7
370
     0
100
AcDbLine
 10
151.4957141635
 20
142.0361306615
 30
0.0
 11
151.4957141635
 21
145.8902377732
 31
0.0
  0
LINE
  5
122
330
1F
100
AcDbEntity
  8
0
  6
HIDDEN
 62
     7
370
     0
100
AcDbLine
 10
196.5957157818
 20
114.546130421
 30
0.0
 11
196.5957157818
 21
133.54612981
 31
0.0
  0
LINE
  5
123
330
1F
100
AcDbEntity
  8
0
  6
HIDDEN
 62
     7
370
     0
100
AcDbLine
 10
199.0957152603
 20
114.546130421
 30
0.0
 11
199.0957152603
 21
133.54612981
 31
0.0
  0
LINE
  5
124
330
1F
100
AcDbEntity
  8
0
  6
HIDDEN
 62
     7
370
     0
100
AcDbLine
 10
187.7457149831
 20
115.5461296536
 30
0.0
 11
187.7457149831
 21
132.5461305774
 31
0.0
  0
LINE
  5
125
330
1F
100
AcDbEntity
  8
0
  6
HIDDEN
 62
     7
370
     0
100
AcDbLine
 10
203.2457147298
 20
97.6461302585
 30
0.0
 11
197.1080400554
 21
97.6461302585
 31
0.0
  0
LINE
  5
126
330
1F
100
AcDbEntity
  8
0
  6
HIDDEN
 62
     7
370
     0
100
AcDbLine
 10
193.483390337
 20
97.6461302585
 30
0.0
 11
190.2457153929
 21
97.6461302585
 31
0.0
  0
LINE
  5
127
330
1F
100
AcDbEntity
  8
0
  6
HIDDEN
 62
     7
370
     0
100
AcDbLine
 10
182.2457150129
 20
92.5620067961
 30
0.0
 11
182.2457150129
 21
97.6461302585
 31
0.0
  0
LINE
  5
128
330
1F
100
AcDbEntity
  8
0
  6
HIDDEN
 62
     7
370
     0
100
AcDbLine
 10
190.2457153929
 20
97.6461302585
 30
0.0
 11
182.2457150129
 21
97.6461302585
 31
0.0
  0
LINE
  5
129
330
1F
100
AcDbEntity
  8
0
  6
HIDDEN
 62
     7
370
     0
100
AcDbLine
 10
203.2457147298
 20
150.4461299724
 30
0.0
 11
196.8114175407
 21
150.4461299724
 31
0.0
  0
LINE
  5
12A
330
1F
100
AcDbEntity
  8
0
  6
HIDDEN
 62
     7
370
     0
100
AcDbLine
 10
193.7800128517
 20
150.4461299724
 30
0.0
 11
190.2457153929
 21
150.4461299724
 31
0.0
  0
LINE
  5
12B
330
1F
100
AcDbEntity
  8
0
  6
HIDDEN
 62
     7
370
     0
100
AcDbLine
 10
190.2457153929
 20
150.4461299724
 30
0.0
 11
182.2457150129
 21
150.4461299724
 31
0.0
  0
ELLIPSE
  5
12C
330
1F
100
AcDbEntity
  8
0
  6
HIDDEN
 62
     7
370
     0
100
AcDbEllipse
 10
141.2282831754
 20
124.0461301155
 30
0.0
 11
20.07002071827054
 21
-2.842170943040401E-14
 31
0.0
210
0.0
220
0.0
230
1.0
 40
0.8164965809
 41
4.921555463185703
 42
4.980534842098403
  0
ELLIPSE
  5
12D
330
1F
100
AcDbEntity
  8
0
  6
HIDDEN
 62
     7
370
     0
100
AcDbEllipse
 10
141.2282831754
 20
124.0461301155
 30
0.0
 11
20.07002071827051
 21
-1.421085471520200E-14
 31
0.0
210
0.0
220
0.0
230
1.0
 40
0.8164965809
 41
1.302650465081198
 42
1.361629843993899
  0
LINE
  5
12E
330
1F
100
AcDbEntity
  8
0
  6
HIDDEN
 62
     7
370
     0
100
AcDbLine
 10
155.4957148192
 20
106.0561295695
 30
0.0
 11
155.4957148192
 21
107.7586170382
 31
0.0
  0
LINE
  5
12F
330
1F
100
AcDbEntity
  8
0
  6
HIDDEN
 62
     7
370
     0
100
AcDbLine
 10
146.5457141904
 20
106.0561295695
 30
0.0
 11
146.5457141904
 21
108.2446388997
 31
0.0
  0
LINE
  5
130
330
1F
100
AcDbEntity
  8
0
  6
HIDDEN
 62
     7
370
     0
100
AcDbLine
 10
151.4957141635
 20
142.0361306615
 30
0.0
 11
151.4957141635
 21
140.3336431927
 31
0.0
  0
LINE
  5
131
330
1F
100
AcDbEntity
  8
0
  6
HIDDEN
 62
     7
370
     0
100
AcDbLine
 10
146.5457141904
 20
142.0361306615
 30
0.0
 11
146.5457141904
 21
139.8476213313
 31
0.0
  0
SPLINE
  5
132
330
1F
100
AcDbEntity
  8
0
  6
HIDDEN
 62
     7
370
     0
100
AcDbSpline
210
0.0
220
0.0
230
1.0
 70
     8
 71
     3
 72
    20
 73
    16
 74
     0
 42
0.00000001
 43
0.00000001
 12
1.0
 22
0.0
 32
0.0
 13
1.0
 23
0.0
 33
0.0
 40
0.0
 40
0.0
 40
0.0
 40
0.0
 40
0.111852948200872
 40
0.1773724750862557
 40
0.2489943884998734
 40
0.329743251445911
 40
0.3985159814181998
 40
0.4997962318146146
 40
0.6137619440259048
 40
0.6789281775042634
 40
0.7494550391450815
 40
0.8296014144879091
 40
0.8980454344275182
 40
0.9994563441015314
 40
1.0
 40
1.0
 40
1.0
 40
1.0
 10
172.0443297681857
 20
100.4461962826064
 30
0.0
 10
172.0010376255916
 20
100.4596140199596
 30
0.0
 10
171.9323864670193
 20
100.4808913963961
 30
0.0
 10
171.487370154333
 20
100.5841677849184
 30
0.0
 10
170.9608200565094
 20
100.697466244557
 30
0.0
 10
170.2753924992833
 20
100.8204014324275
 30
0.0
 10
169.3820759755043
 20
100.9424359669301
 30
0.0
 10
168.2687161539317
 20
101.0601717360915
 30
0.0
 10
167.157941793475
 20
101.072145288812
 30
0.0
 10
166.273194236323
 20
101.0450904738806
 30
0.0
 10
165.6059953065651
 20
100.9971547853383
 30
0.0
 10
165.0647317218852
 20
100.9408684147668
 30
0.0
 10
164.6771178513596
 20
100.8957559036905
 30
0.0
 10
164.4832090996285
 20
100.8569721544969
 30
0.0
 10
164.5464036895843
 20
100.8676281190275
 30
0.0
 10
164.5467406643082
 20
100.8676849402001
 30
0.0
  0
LINE
  5
133
330
1F
100
AcDbEntity
  8
0
  6
HIDDEN
 62
     7
370
     0
100
AcDbLine
 10
165.4557273296
 20
100.9784676231
 30
0.0
 11
165.6395722685
 21
100.9966582156
 31
0.0
  0
SPLINE
  5
134
330
1F
100
AcDbEntity
  8
0
  6
HIDDEN
 62
     7
370
     0
100
AcDbSpline
210
0.0
220
0.0
230
1.0
 70
     8
 71
     3
 72
    27
 73
    23
 74
     0
 42
0.00000001
 43
0.00000001
 12
1.0
 22
0.0
 32
0.0
 13
1.0
 23
0.0
 33
0.0
 40
0.0
 40
0.0
 40
0.0
 40
0.0
 40
0.0008088009030776
 40
0.0456913139811059
 40
0.1022729808899836
 40
0.1705510720999582
 40
0.2091427305281728
 40
0.2506699710559566
 40
0.3211157318733028
 40
0.3862094856214078
 40
0.426688658672265
 40
0.4648199217295974
 40
0.5006241866517638
 40
0.5452160179528917
 40
0.6017102712136284
 40
0.6701162080573349
 40
0.7088535770494645
 40
0.7505823139410457
 40
0.8222469095989708
 40
0.8877863223007049
 40
0.9472600836772191
 40
1.0
 40
1.0
 40
1.0
 40
1.0
 10
164.5463839677621
 20
147.2245436258128
 30
0.0
 10
164.5461615040452
 20
147.2245916486815
 30
0.0
 10
164.5335939370462
 20
147.2273045882479
 30
0.0
 10
164.5826756192209
 20
147.2154642157617
 30
0.0
 10
164.7277780228779
 20
147.1920276171404
 30
0.0
 10
165.000830686251
 20
147.1581187285718
 30
0.0
 10
165.3293564664943
 20
147.1245510954643
 30
0.0
 10
165.7220844423951
 20
147.0863680720645
 30
0.0
 10
166.2718122534514
 20
147.0473999834245
 30
0.0
 10
166.8978348813881
 20
147.0279383557716
 30
0.0
 10
167.4410267224405
 20
147.0257531995118
 30
0.0
 10
167.8860954716048
 20
147.0342679208096
 30
0.0
 10
168.3525433262177
 20
147.0540514709916
 30
0.0
 10
168.8897842514118
 20
147.0982113526662
 30
0.0
 10
169.537997223056
 20
147.1706311881734
 30
0.0
 10
170.1235363598653
 20
147.2515288462545
 30
0.0
 10
170.6045055233317
 20
147.3296982078832
 30
0.0
 10
171.0499205230078
 20
147.4144687648505
 30
0.0
 10
171.4884205940643
 20
147.5082535383938
 30
0.0
 10
171.8274454276191
 20
147.5861557668034
 30
0.0
 10
172.0147862001196
 20
147.6363467062271
 30
0.0
 10
172.0352760982593
 20
147.6430141154869
 30
0.0
 10
172.0449062568594
 20
147.6461477674058
 30
0.0
  0
LINE
  5
135
330
1F
100
AcDbEntity
  8
0
  6
HIDDEN
 62
     7
370
     0
100
AcDbLine
 10
207.3957141993
 20
119.8461302652
 30
0.0
 11
207.3957141993
 21
128.2461299657
 31
0.0
  0
SPLINE
  5
136
330
1F
100
AcDbEntity
  8
0
  6
HIDDEN
 62
     7
370
     0
100
AcDbSpline
210
0.0
220
0.0
230
1.0
 70
     8
 71
     3
 72
    52
 73
    48
 74
     0
 42
0.00000001
 43
0.00000001
 12
1.0
 22
0.0
 32
0.0
 13
1.0
 23
0.0
 33
0.0
 40
0.0
 40
0.0
 40
0.0
 40
0.0
 40
0.0624999999999991
 40
0.0624999999999991
 40
0.1249999999999981
 40
0.1249999999999981
 40
0.1874999999999972
 40
0.1874999999999972
 40
0.2187499999999967
 40
0.2187499999999967
 40
0.2499999999999962
 40
0.2499999999999962
 40
0.2812499999999957
 40
0.2812499999999957
 40
0.3124999999999952
 40
0.3124999999999952
 40
0.3749999999999949
 40
0.3749999999999949
 40
0.4062499999999951
 40
0.4062499999999951
 40
0.4374999999999952
 40
0.4374999999999952
 40
0.4687499999999952
 40
0.4687499999999952
 40
0.4999999999999953
 40
0.4999999999999953
 40
0.5312499999999954
 40
0.5312499999999954
 40
0.5624999999999956
 40
0.5624999999999956
 40
0.5937499999999956
 40
0.5937499999999956
 40
0.6249999999999957
 40
0.6249999999999957
 40
0.6562499999999958
 40
0.6562499999999958
 40
0.6874999999999959
 40
0.6874999999999959
 40
0.718749999999996
 40
0.718749999999996
 40
0.749999999999996
 40
0.749999999999996
 40
0.812499999999997
 40
0.812499999999997
 40
0.8749999999999981
 40
0.8749999999999981
 40
1.0
 40
1.0
 40
1.0
 40
1.0
 10
207.3957150397349
 20
124.8766386776487
 30
0.0
 10
207.2913442526119
 20
125.0973911528316
 30
0.0
 10
207.1529370728757
 20
125.2903913973707
 30
0.0
 10
206.8159235744389
 20
125.6312617687181
 30
0.0
 10
206.6243284497093
 20
125.7716540166519
 30
0.0
 10
206.1968655226445
 20
125.9944555208408
 30
0.0
 10
205.9684516638413
 20
126.0727009667768
 30
0.0
 10
205.6069472109768
 20
126.1346356276772
 30
0.0
 10
205.4825248552488
 20
126.1456748583294
 30
0.0
 10
205.2382629380508
 20
126.1465571043738
 30
0.0
 10
205.1169435119085
 20
126.1367519314699
 30
0.0
 10
204.8759937986786
 20
126.0955171230379
 30
0.0
 10
204.756184971844
 20
126.0636796127551
 30
0.0
 10
204.5296281241831
 20
125.9806544776094
 30
0.0
 10
204.421333500915
 20
125.9293070995996
 30
0.0
 10
204.110796048832
 20
125.7451316309251
 30
0.0
 10
203.9314810419882
 20
125.5873298414512
 30
0.0
 10
203.7083158536868
 20
125.3073299126954
 30
0.0
 10
203.6427461236878
 20
125.2082571683857
 30
0.0
 10
203.5282979257842
 20
124.9985828520893
 30
0.0
 10
203.4790618613577
 20
124.8868101401719
 30
0.0
 10
203.4001726851508
 20
124.6568107151832
 30
0.0
 10
203.3704765221001
 20
124.5391903288216
 30
0.0
 10
203.3301999762612
 20
124.2986760381835
 30
0.0
 10
203.3196750121438
 20
124.1744086680456
 30
0.0
 10
203.3191184983924
 20
123.9280848317392
 30
0.0
 10
203.3288071230535
 20
123.8061755071748
 30
0.0
 10
203.3678635922401
 20
123.5648097795391
 30
0.0
 10
203.3976938848402
 20
123.4443683728793
 30
0.0
 10
203.4754084220736
 20
123.2145372948024
 30
0.0
 10
203.5232528546893
 20
123.1043085685168
 30
0.0
 10
203.6371688574826
 20
122.8929556227149
 30
0.0
 10
203.7035817928321
 20
122.7917595525115
 30
0.0
 10
203.8504996549338
 20
122.6057121050708
 30
0.0
 10
203.9314811041199
 20
122.5198115258118
 30
0.0
 10
204.1096092486093
 20
122.3622715730293
 30
0.0
 10
204.2066519433563
 20
122.2910880073162
 30
0.0
 10
204.4102430871319
 20
122.1687916964217
 30
0.0
 10
204.5176564276605
 20
122.1168463238208
 30
0.0
 10
204.7448421608547
 20
122.0319671919212
 30
0.0
 10
204.8639041103121
 20
121.9996273713149
 30
0.0
 10
205.2234689677604
 20
121.9357705746379
 30
0.0
 10
205.4759640803936
 20
121.9363526424202
 30
0.0
 10
205.9582763433473
 20
122.0166963024961
 30
0.0
 10
206.1923024268661
 20
122.0961026229432
 30
0.0
 10
206.8317312288593
 20
122.4273800179254
 30
0.0
 10
207.1867867252445
 20
122.7737216325697
 30
0.0
 10
207.3957150397349
 20
123.2156215533317
 30
0.0
  0
LINE
  5
137
330
1F
100
AcDbEntity
  8
0
  6
HIDDEN
 62
     7
370
     0
100
AcDbLine
 10
245.405793613
 20
91.8864887304
 30
0.0
 11
245.4025377092
 21
91.923749084
 31
0.0
  0
LINE
  5
138
330
1F
100
AcDbEntity
  8
0
  6
HIDDEN
 62
     7
370
     0
100
AcDbLine
 10
236.2894978879
 20
92.6840622074
 30
0.0
 11
245.405793613
 21
91.8864887304
 31
0.0
  0
LINE
  5
139
330
1F
100
AcDbEntity
  8
0
  6
HIDDEN
 62
     7
370
     0
100
AcDbLine
 10
234.4729532061
 20
80.7349328048
 30
0.0
 11
233.657785183
 21
90.0523457773
 31
0.0
  0
LINE
  5
13A
330
1F
100
AcDbEntity
  8
0
  6
HIDDEN
 62
     7
370
     0
100
AcDbLine
 10
234.4356891272
 20
80.7381924338
 30
0.0
 11
234.4729532061
 21
80.7349328048
 31
0.0
  0
ARC
  5
13B
330
1F
100
AcDbEntity
  8
0
  6
HIDDEN
 62
     7
370
     0
100
AcDbCircle
 10
234.2855132829
 20
92.0563318723
 30
0.0
 40
2.099999999999994
100
AcDbArc
 50
10.4473909781
 51
17.3926878054
  0
LINE
  5
13C
330
1F
100
AcDbEntity
  8
0
  6
HIDDEN
 62
     7
370
     0
100
AcDbLine
 10
245.4270948229
 20
91.64304846
 30
0.0
 11
245.405793613
 21
91.8864887304
 31
0.0
  0
LINE
  5
13D
330
1F
100
AcDbEntity
  8
0
  6
HIDDEN
 62
     7
370
     0
100
AcDbLine
 10
245.4270948229
 20
91.64304846
 30
0.0
 11
236.3507006822
 21
92.43713134
 31
0.0
  0
SPLINE
  5
13E
330
1F
100
AcDbEntity
  8
0
  6
HIDDEN
 62
     7
370
     0
100
AcDbSpline
210
0.0
220
0.0
230
1.0
 70
     8
 71
     3
 72
    20
 73
    16
 74
     0
 42
0.00000001
 43
0.00000001
 12
1.0
 22
0.0
 32
0.0
 13
1.0
 23
0.0
 33
0.0
 40
0.0
 40
0.0
 40
0.0
 40
0.0
 40
0.2500000000000001
 40
0.2500000000000001
 40
0.3750000000000002
 40
0.3750000000000002
 40
0.5000000000000002
 40
0.5000000000000002
 40
0.7499999999999999
 40
0.7499999999999999
 40
0.8125
 40
0.8125
 40
0.875
 40
0.875
 40
1.0
 40
1.0
 40
1.0
 40
1.0
 10
223.6815429299547
 20
81.67905972828555
 30
0.0
 10
223.680964303714
 20
81.69890883918372
 30
0.0
 10
223.6732356849896
 20
81.9640146008588
 30
0.0
 10
223.6512211537461
 20
82.7193057921842
 30
0.0
 10
223.642113866033
 20
83.03178176602086
 30
0.0
 10
223.6203817083672
 20
83.77751237701301
 30
0.0
 10
223.607891723013
 20
84.20613878048158
 30
0.0
 10
223.5657198096975
 20
85.65359269121677
 30
0.0
 10
223.5313790783175
 20
86.8325014695659
 30
0.0
 10
223.4805552512811
 20
88.57806365911355
 30
0.0
 10
223.4699702848711
 20
88.94164260981712
 30
0.0
 10
223.4481013094998
 20
89.69289488037599
 30
0.0
 10
223.4368295776688
 20
90.08014629963019
 30
0.0
 10
223.4020106952403
 20
91.27652400835461
 30
0.0
 10
223.3774622587159
 20
92.12019056645454
 30
0.0
 10
223.351570417394
 20
93.01026925772844
 30
0.0
  0
LINE
  5
13F
330
1F
100
AcDbEntity
  8
0
  6
HIDDEN
 62
     7
370
     0
100
AcDbLine
 10
233.9047160504
 20
89.9911467082
 30
0.0
 11
234.7105447707
 21
80.7804819293
 31
0.0
  0
ELLIPSE
  5
140
330
1F
100
AcDbEntity
  8
0
  6
HIDDEN
 62
     7
370
     0
100
AcDbEllipse
 10
231.0727850193
 20
119.1763749102
 30
0.0
 11
-3.464323080040742
 21
38.43931649698042
 31
0.0
210
0.0
220
0.0
230
1.0
 40
0.1208634283
 41
3.12785330668399
 42
3.17946728888307
  0
ARC
  5
141
330
1F
100
AcDbEntity
  8
0
  6
HIDDEN
 62
     7
370
     0
100
AcDbCircle
 10
234.2855132829
 20
92.0563318723
 30
0.0
 40
2.1
100
AcDbArc
 50
252.6073121946
 51
259.5526090219
  0
LINE
  5
142
330
1F
100
AcDbEntity
  8
0
  6
HIDDEN
 62
     7
370
     0
100
AcDbLine
 10
219.5636634288
 20
151.0444637484
 30
0.0
 11
219.5636634288
 21
124.0461301155
 31
0.0
  0
CIRCLE
  5
143
330
1F
100
AcDbEntity
  8
0
  6
HIDDEN
 62
     7
370
     0
100
AcDbCircle
 10
208.1910225371
 20
124.0515831855
 30
0.0
 40
2.089172430576362
  0
CIRCLE
  5
144
330
1F
100
AcDbEntity
  8
0
  6
HIDDEN
 62
     7
370
     0
100
AcDbCircle
 10
240.2705788374
 20
86.0712663178
 30
0.0
 40
3.0
  0
LINE
  5
145
330
1F
100
AcDbEntity
  8
0
  6
HIDDEN
 62
     7
370
     0
100
AcDbLine
 10
246.4469004927
 20
79.9866076655
 30
0.0
 11
234.6900072453
 21
81.0152050204
 31
0.0
  0
ARC
  5
146
330
1F
100
AcDbEntity
  8
0
  6
HIDDEN
 62
     7
370
     0
100
AcDbCircle
 10
234.2855132829
 20
92.0563318723
 30
0.0
 40
2.099999999999994
100
AcDbArc
 50
259.5526090219
 51
10.4473909781
  0
LINE
  5
147
330
1F
100
AcDbEntity
  8
0
  6
HIDDEN
 62
     7
370
     0
100
AcDbLine
 10
245.4270948229
 20
91.64304846
 30
0.0
 11
246.4469004927
 21
79.9866076655
 31
0.0
  0
CIRCLE
  5
148
330
1F
100
AcDbEntity
  8
0
  6
HIDDEN
 62
     7
370
     0
100
AcDbCircle
 10
240.2705788374
 20
86.0712663178
 30
0.0
 40
2.100000000000009
  0
LINE
  5
149
330
1F
100
AcDbEntity
  8
0
  6
HIDDEN
 62
     7
370
     0
100
AcDbLine
 10
193.385715088
 20
144.1819965936
 30
0.0
 11
193.385715088
 21
143.8961308546
 31
0.0
  0
LINE
  5
14A
330
1F
100
AcDbEntity
  8
0
  6
HIDDEN
 62
     7
370
     0
100
AcDbLine
 10
197.2057153044
 20
144.1819965936
 30
0.0
 11
197.2057153044
 21
143.8961308546
 31
0.0
  0
LINE
  5
14B
330
1F
100
AcDbEntity
  8
0
  6
HIDDEN
 62
     7
370
     0
100
AcDbLine
 10
198.687646961
 20
148.5048197306
 30
0.0
 11
198.687646961
 21
143.8961308546
 31
0.0
  0
LINE
  5
14C
330
1F
100
AcDbEntity
  8
0
  6
HIDDEN
 62
     7
370
     0
100
AcDbLine
 10
239.2706838009
 20
84.2245910413
 30
0.0
 11
239.5506989715
 21
84.2322539635
 31
0.0
  0
LINE
  5
14D
330
1F
100
AcDbEntity
  8
0
  6
HIDDEN
 62
     7
370
     0
100
AcDbLine
 10
240.647316402
 20
84.1429364033
 30
0.0
 11
240.9346107898
 21
84.0790178723
 31
0.0
  0
CIRCLE
  5
14E
330
1F
100
AcDbEntity
  8
0
  6
HIDDEN
 62
     7
370
     0
100
AcDbCircle
 10
208.2256509129
 20
124.0517867153
 30
0.0
 40
2.490201161910869
  0
CIRCLE
  5
14F
330
1F
100
AcDbEntity
  8
0
  6
HIDDEN
 62
     7
370
     0
100
AcDbCircle
 10
184.2957150397
 20
124.0461301155
 30
0.0
 40
4.999999999999986
  0
LINE
  5
150
330
1F
100
AcDbEntity
  8
0
  6
HIDDEN
 62
     7
370
     0
100
AcDbLine
 10
245.476834899
 20
91.0745579846
 30
0.0
 11
223.3515721319
 21
93.0102691151
 31
0.0
  0
SPLINE
  5
151
330
1F
100
AcDbEntity
  8
0
  6
HIDDEN
 62
     7
370
     0
100
AcDbSpline
210
0.0
220
0.0
230
1.0
 70
     8
 71
     3
 72
    16
 73
    12
 74
     0
 42
0.00000001
 43
0.00000001
 12
1.0
 22
0.0
 32
0.0
 13
1.0
 23
0.0
 33
0.0
 40
0.0
 40
0.0
 40
0.0
 40
0.0
 40
0.125
 40
0.125
 40
0.25
 40
0.25
 40
0.5
 40
0.5
 40
0.75
 40
0.75
 40
1.0
 40
1.0
 40
1.0
 40
1.0
 10
219.563664232166
 20
124.0461301154902
 30
0.0
 10
219.563664232166
 20
122.7440521990564
 30
0.0
 10
219.5890320758424
 20
121.4401600325531
 30
0.0
 10
219.6893545933974
 20
118.8288293630391
 30
0.0
 10
219.7644123209962
 20
117.5203420019827
 30
0.0
 10
220.0562703811527
 20
113.6093732781568
 30
0.0
 10
220.3397580420549
 20
111.0153258945633
 30
0.0
 10
221.0332009424905
 20
105.8460985089494
 30
0.0
 10
221.4426013190376
 20
103.2708357283086
 30
0.0
 10
222.3430945438889
 20
98.13249766245457
 30
0.0
 10
222.8342205410636
 20
95.56942732263835
 30
0.0
 10
223.351570417394
 20
93.01026925772854
 30
0.0
  0
LINE
  5
152
330
1F
100
AcDbEntity
  8
0
  6
HIDDEN
 62
     7
370
     0
100
AcDbLine
 10
208.2538255063
 20
121.5461301714
 30
0.0
 11
208.5577104745
 21
121.5461301714
 31
0.0
  0
LINE
  5
153
330
1F
100
AcDbEntity
  8
0
  6
HIDDEN
 62
     7
370
     0
100
AcDbLine
 10
208.5577104745
 20
126.5461300596
 30
0.0
 11
208.2538255063
 21
126.5461300596
 31
0.0
  0
LINE
  5
154
330
1F
100
AcDbEntity
  8
0
  6
HIDDEN
 62
     7
370
     0
100
AcDbLine
 10
208.4369719533
 20
122.0461300205
 30
0.0
 11
209.1567967591
 21
122.0461300205
 31
0.0
  0
LINE
  5
155
330
1F
100
AcDbEntity
  8
0
  6
HIDDEN
 62
     7
370
     0
100
AcDbLine
 10
209.1567967591
 20
126.0461302105
 30
0.0
 11
208.4369719533
 21
126.0461302105
 31
0.0
  0
LINE
  5
156
330
1F
100
AcDbEntity
  8
0
  6
HIDDEN
 62
     7
370
     0
100
AcDbLine
 10
209.0369802473
 20
121.5461301714
 30
0.0
 11
209.1324855146
 21
121.5461301714
 31
0.0
  0
LINE
  5
157
330
1F
100
AcDbEntity
  8
0
  6
HIDDEN
 62
     7
370
     0
100
AcDbLine
 10
209.1324855146
 20
126.5461300596
 30
0.0
 11
209.0369802473
 21
126.5461300596
 31
0.0
  0
CIRCLE
  5
158
330
1F
100
AcDbEntity
  8
0
  6
HIDDEN
 62
     7
370
     0
100
AcDbCircle
 10
208.7400408712
 20
124.0461301155
 30
0.0
 40
2.0
  0
CIRCLE
  5
159
330
1F
100
AcDbEntity
  8
0
  6
HIDDEN
 62
     7
370
     0
100
AcDbCircle
 10
240.2705788374
 20
86.0712663178
 30
0.0
 40
2.279131018014139
  0
LINE
  5
15A
330
1F
100
AcDbEntity
  8
0
  6
HIDDEN
 62
     7
370
     0
100
AcDbLine
 10
177.2957150397
 20
98.7222064383
 30
0.0
 11
177.3898758775
 21
99.3921961732
 31
0.0
  0
LINE
  5
15B
330
1F
100
AcDbEntity
  8
0
  6
HIDDEN
 62
     7
370
     0
100
AcDbLine
 10
177.3898758775
 20
148.7000640578
 30
0.0
 11
177.2957150397
 21
149.3700537927
 31
0.0
  0
ARC
  5
15C
330
1F
100
AcDbEntity
  8
0
  6
HIDDEN
 62
     7
370
     0
100
AcDbCircle
 10
176.7957150397
 20
99.4756992538
 30
0.0
 40
0.5999999999999943
100
AcDbArc
 50
352.0
 51
0.0
  0
ARC
  5
15D
330
1F
100
AcDbEntity
  8
0
  6
HIDDEN
 62
     7
370
     0
100
AcDbCircle
 10
176.7957150397
 20
99.4756992538
 30
0.0
 40
0.6000000000000019
100
AcDbArc
 50
0.0
 51
33.5573097619
  0
ARC
  5
15E
330
1F
100
AcDbEntity
  8
0
  6
HIDDEN
 62
     7
370
     0
100
AcDbCircle
 10
176.7957150397
 20
148.6165609772
 30
0.0
 40
0.6000000000000035
100
AcDbArc
 50
348.75
 51
8.0
  0
LWPOLYLINE
  5
15F
330
1F
100
AcDbEntity
  8
0
  6
HIDDEN
 62
     7
370
     0
100
AcDbPolyline
 90
        3
 70
   128
 43
0.0
 10
177.3841862096
 20
148.4995074667
 10
177.3500427599
 20
148.3869515456
 10
177.2957150397
 20
148.2848990805
  0
LINE
  5
160
330
1F
100
AcDbEntity
  8
0
  6
HIDDEN
 62
     7
370
     0
100
AcDbLine
 10
177.3957150372
 20
99.4756985552
 30
0.0
 11
177.3957150372
 21
148.6165616758
 31
0.0
  0
ARC
  5
161
330
1F
100
AcDbEntity
  8
0
  6
HIDDEN
 62
     7
370
     0
100
AcDbCircle
 10
171.0507170413
 20
112.0461301155
 30
0.0
 40
8.000000000000016
100
AcDbArc
 50
276.8737999394
 51
321.3178125465
  0
ARC
  5
162
330
1F
100
AcDbEntity
  8
0
  6
HIDDEN
 62
     7
370
     0
100
AcDbCircle
 10
171.0507170413
 20
136.0461301155
 30
0.0
 40
8.000000000000016
100
AcDbArc
 50
38.6821874535
 51
83.1188225219
  0
LINE
  5
163
330
1F
100
AcDbEntity
  8
0
  6
HIDDEN
 62
     7
370
     0
100
AcDbLine
 10
160.3781510649
 20
104.0461305625
 30
0.0
 11
164.569822563
 21
104.0461305625
 31
0.0
  0
LINE
  5
164
330
1F
100
AcDbEntity
  8
0
  6
HIDDEN
 62
     7
370
     0
100
AcDbLine
 10
164.569822563
 20
144.0461296685
 30
0.0
 11
160.3781510649
 21
144.0461296685
 31
0.0
  0
ARC
  5
165
330
1F
100
AcDbEntity
  8
0
  6
HIDDEN
 62
     7
370
     0
100
AcDbCircle
 10
160.378150605
 20
104.6461301155
 30
0.0
 40
0.6000000000000155
100
AcDbArc
 50
210.0
 51
270.0
  0
ARC
  5
166
330
1F
100
AcDbEntity
  8
0
  6
HIDDEN
 62
     7
370
     0
100
AcDbCircle
 10
160.378150605
 20
143.4461301155
 30
0.0
 40
0.6000000000000227
100
AcDbArc
 50
90.0
 51
150.0
  0
LINE
  5
167
330
1F
100
AcDbEntity
  8
0
  6
HIDDEN
 62
     7
370
     0
100
AcDbLine
 10
159.8585345355
 20
143.7461301781
 30
0.0
 11
158.2996905354
 21
141.0461310394
 31
0.0
  0
LINE
  5
168
330
1F
100
AcDbEntity
  8
0
  6
HIDDEN
 62
     7
370
     0
100
AcDbLine
 10
158.2996905354
 20
107.0461291916
 30
0.0
 11
159.8585345355
 21
104.3461300529
 31
0.0
  0
ARC
  5
169
330
1F
100
AcDbEntity
  8
0
  6
HIDDEN
 62
     7
370
     0
100
AcDbCircle
 10
185.7457150397
 20
108.3211301155
 30
0.0
 40
1.500000000000001
100
AcDbArc
 50
238.2116693829
 51
0.0
  0
ARC
  5
16A
330
1F
100
AcDbEntity
  8
0
  6
HIDDEN
 62
     7
370
     0
100
AcDbCircle
 10
185.7457150397
 20
139.7711301155
 30
0.0
 40
1.500000000000001
100
AcDbArc
 50
0.0
 51
121.7883306171
  0
LINE
  5
16B
330
1F
100
AcDbEntity
  8
0
  6
HIDDEN
 62
     7
370
     0
100
AcDbLine
 10
201.9907519726
 20
126.3916373815
 30
0.0
 11
199.8770799992
 21
125.7462718155
 31
0.0
  0
LINE
  5
16C
330
1F
100
AcDbEntity
  8
0
  6
HIDDEN
 62
     7
370
     0
100
AcDbLine
 10
199.8770799992
 20
125.7462718155
 30
0.0
 11
199.2640574036
 21
123.6229932207
 31
0.0
  0
LINE
  5
16D
330
1F
100
AcDbEntity
  8
0
  6
HIDDEN
 62
     7
370
     0
100
AcDbLine
 10
199.280059388
 20
123.3868115911
 30
0.0
 11
211.2511102614
 21
111.5971459172
 31
0.0
  0
LINE
  5
16E
330
1F
100
AcDbEntity
  8
0
  6
HIDDEN
 62
     7
370
     0
100
AcDbLine
 10
202.4875138459
 20
126.1228255558
 30
0.0
 11
202.2271495817
 21
126.3792445048
 31
0.0
  0
LINE
  5
16F
330
1F
100
AcDbEntity
  8
0
  6
HIDDEN
 62
     7
370
     0
100
AcDbLine
 10
210.9747197983
 20
117.7642177887
 30
0.0
 11
204.3201704083
 21
124.317937773
 31
0.0
  0
LINE
  5
170
330
1F
100
AcDbEntity
  8
0
  6
HIDDEN
 62
     7
370
     0
100
AcDbLine
 10
177.2957150397
 20
107.0461291916
 30
0.0
 11
184.9555410018
 21
107.0461291916
 31
0.0
  0
LINE
  5
171
330
1F
100
AcDbEntity
  8
0
  6
HIDDEN
 62
     7
370
     0
100
AcDbLine
 10
184.9555410018
 20
141.0461310394
 30
0.0
 11
177.2957150397
 21
141.0461310394
 31
0.0
  0
LINE
  5
172
330
1F
100
AcDbEntity
  8
0
  6
HIDDEN
 62
     7
370
     0
100
AcDbLine
 10
155.4957148192
 20
107.0461291916
 30
0.0
 11
158.2996905354
 21
107.0461291916
 31
0.0
  0
LINE
  5
173
330
1F
100
AcDbEntity
  8
0
  6
HIDDEN
 62
     7
370
     0
100
AcDbLine
 10
158.2996905354
 20
141.0461310394
 30
0.0
 11
151.4957141635
 21
141.0461310394
 31
0.0
  0
LINE
  5
174
330
1F
100
AcDbEntity
  8
0
  6
HIDDEN
 62
     7
370
     0
100
AcDbLine
 10
201.9773427901
 20
126.1461300406
 30
0.0
 11
201.8288434056
 21
126.1461300406
 31
0.0
  0
LINE
  5
175
330
1F
100
AcDbEntity
  8
0
  6
HIDDEN
 62
     7
370
     0
100
AcDbLine
 10
204.0691845623
 20
126.1461300406
 30
0.0
 11
202.23399294
 21
126.1461300406
 31
0.0
  0
LINE
  5
176
330
1F
100
AcDbEntity
  8
0
  6
HIDDEN
 62
     7
370
     0
100
AcDbLine
 10
202.5667731223
 20
121.9461301904
 30
0.0
 11
204.0681005029
 21
121.9461301904
 31
0.0
  0
LINE
  5
177
330
1F
100
AcDbEntity
  8
0
  6
HIDDEN
 62
     7
370
     0
100
AcDbLine
 10
201.8288434056
 20
121.9461301904
 30
0.0
 11
201.9009221849
 21
121.9461301904
 31
0.0
  0
LINE
  5
178
330
1F
100
AcDbEntity
  8
0
  6
HIDDEN
 62
     7
370
     0
100
AcDbLine
 10
196.5957157818
 20
114.546130421
 30
0.0
 11
199.0957152603
 21
114.546130421
 31
0.0
  0
LINE
  5
179
330
1F
100
AcDbEntity
  8
0
  6
HIDDEN
 62
     7
370
     0
100
AcDbLine
 10
199.0957152603
 20
133.54612981
 30
0.0
 11
196.5957157818
 21
133.54612981
 31
0.0
  0
LINE
  5
17A
330
1F
100
AcDbEntity
  8
0
  6
HIDDEN
 62
     7
370
     0
100
AcDbLine
 10
187.2457149012
 20
115.0461305029
 30
0.0
 11
187.7457149831
 21
115.5461296536
 31
0.0
  0
LINE
  5
17B
330
1F
100
AcDbEntity
  8
0
  6
HIDDEN
 62
     7
370
     0
100
AcDbLine
 10
187.7457149831
 20
132.5461305774
 30
0.0
 11
187.2457149012
 21
133.0461297281
 31
0.0
  0
LINE
  5
17C
330
1F
100
AcDbEntity
  8
0
  6
HIDDEN
 62
     7
370
     0
100
AcDbLine
 10
187.7457149831
 20
115.5461296536
 30
0.0
 11
196.5957157818
 21
115.5461296536
 31
0.0
  0
LINE
  5
17D
330
1F
100
AcDbEntity
  8
0
  6
HIDDEN
 62
     7
370
     0
100
AcDbLine
 10
196.5957157818
 20
132.5461305774
 30
0.0
 11
187.7457149831
 21
132.5461305774
 31
0.0
  0
LINE
  5
17E
330
1F
100
AcDbEntity
  8
0
  6
HIDDEN
 62
     7
370
     0
100
AcDbLine
 10
182.2457150129
 20
155.5461306221
 30
0.0
 11
182.2457150129
 21
150.4461299724
 31
0.0
  0
LINE
  5
17F
330
1F
100
AcDbEntity
  8
0
  6
HIDDEN
 62
     7
370
     0
100
AcDbLine
 10
172.4801528772
 20
99.9667588718
 30
0.0
 11
172.0457206985
 21
100.4458256162
 31
0.0
  0
LINE
  5
180
330
1F
100
AcDbEntity
  8
0
  6
HIDDEN
 62
     7
370
     0
100
AcDbLine
 10
164.5457171408
 20
100.8675135768
 30
0.0
 11
164.0632836652
 21
100.3884468324
 31
0.0
  0
LINE
  5
181
330
1F
100
AcDbEntity
  8
0
  6
HIDDEN
 62
     7
370
     0
100
AcDbLine
 10
164.063161662
 20
147.7038078106
 30
0.0
 11
164.5457124842
 21
147.2246870495
 31
0.0
  0
LINE
  5
182
330
1F
100
AcDbEntity
  8
0
  6
HIDDEN
 62
     7
370
     0
100
AcDbLine
 10
172.0457151105
 20
147.646386186
 30
0.0
 11
172.4802571853
 21
148.1255050845
 31
0.0
  0
LINE
  5
183
330
1F
100
AcDbEntity
  8
0
  6
HIDDEN
 62
     7
370
     0
100
AcDbLine
 10
207.3957141993
 20
119.8461302652
 30
0.0
 11
209.9193301556
 21
124.0461301155
 31
0.0
  0
LINE
  5
184
330
1F
100
AcDbEntity
  8
0
  6
HIDDEN
 62
     7
370
     0
100
AcDbLine
 10
209.9193301556
 20
124.0461301155
 30
0.0
 11
207.3957141993
 21
128.2461299657
 31
0.0
  0
LINE
  5
185
330
1F
100
AcDbEntity
  8
0
  6
HIDDEN
 62
     7
370
     0
100
AcDbLine
 10
199.0957152603
 20
119.8461302652
 30
0.0
 11
207.3957141993
 21
119.8461302652
 31
0.0
  0
LINE
  5
186
330
1F
100
AcDbEntity
  8
0
  6
HIDDEN
 62
     7
370
     0
100
AcDbLine
 10
207.3957141993
 20
128.2461299657
 30
0.0
 11
199.0957152603
 21
128.2461299657
 31
0.0
  0
LINE
  5
187
330
1F
100
AcDbEntity
  8
0
  6
HIDDEN
 62
     7
370
     0
100
AcDbLine
 10
172.0457151105
 20
100.4463080413
 30
0.0
 11
172.0457151105
 21
104.1107289589
 31
0.0
  0
LINE
  5
188
330
1F
100
AcDbEntity
  8
0
  6
HIDDEN
 62
     7
370
     0
100
AcDbLine
 10
164.5457152782
 20
104.0505077786
 30
0.0
 11
164.5457152782
 21
100.8678358145
 31
0.0
  0
LINE
  5
189
330
1F
100
AcDbEntity
  8
0
  6
HIDDEN
 62
     7
370
     0
100
AcDbLine
 10
172.0457151105
 20
143.981531272
 30
0.0
 11
172.0457151105
 21
147.6460937507
 31
0.0
  0
LINE
  5
18A
330
1F
100
AcDbEntity
  8
0
  6
HIDDEN
 62
     7
370
     0
100
AcDbLine
 10
164.5457152782
 20
147.2245436258
 30
0.0
 11
164.5457152782
 21
144.0417524524
 31
0.0
  0
LINE
  5
18B
330
1F
100
AcDbEntity
  8
0
  6
HIDDEN
 62
     7
370
     0
100
AcDbLine
 10
208.2120910791
 20
126.1461300406
 30
0.0
 11
205.3553987799
 21
126.1461300406
 31
0.0
  0
LINE
  5
18C
330
1F
100
AcDbEntity
  8
0
  6
HIDDEN
 62
     7
370
     0
100
AcDbLine
 10
205.3528618572
 20
121.9461301904
 30
0.0
 11
208.2120910791
 21
121.9461301904
 31
0.0
  0
LINE
  5
18D
330
1F
100
AcDbEntity
  8
0
  6
HIDDEN
 62
     7
370
     0
100
AcDbLine
 10
209.2745159326
 20
126.5461300596
 30
0.0
 11
208.2538255063
 21
126.5461300596
 31
0.0
  0
LINE
  5
18E
330
1F
100
AcDbEntity
  8
0
  6
HIDDEN
 62
     7
370
     0
100
AcDbLine
 10
208.2538255063
 20
121.5461301714
 30
0.0
 11
209.2749108133
 21
121.5461301714
 31
0.0
  0
DIMENSION
  5
18F
330
1F
100
AcDbEntity
  8
VERMASSUNG
100
AcDbDimension
  2
_D
 10
139.7503605531
 20
92.5461301155
 30
0.0
 11
139.7503605531
 21
124.0461301155
 31
0.0
 70
   160
  1
HSK %%c<>
 71
     2
 42
-1.0
  3
SLDDIMSTYLE0
100
AcDbAlignedDimension
 13
177.5957150397
 23
155.5461301155
 33
0.0
 14
177.5957150397
 24
92.5461301155
 34
0.0
 50
90.0
100
AcDbRotatedDimension
  0
DIMENSION
  5
19C
330
1F
100
AcDbEntity
  8
VERMASSUNG
100
AcDbDimension
  2
_D_1
 10
247.2957150397
 20
162.5141458107
 30
0.0
 11
212.2957150397
 21
162.5141458107
 31
0.0
 70
   160
  1
<>
 71
     2
 42
-1.0
  3
SLDDIMSTYLE0
100
AcDbAlignedDimension
 13
177.2957150397
 23
155.2461301155
 33
0.0
 14
247.2957150397
 24
79.0461301155
 34
0.0
100
AcDbRotatedDimension
  0
DIMENSION
  5
1A6
330
1F
100
AcDbEntity
  8
VERMASSUNG
100
AcDbDimension
  2
_D_2
 10
247.2957150397
 20
168.5141458107
 30
0.0
 11
196.3457150397
 21
168.5141458107
 31
0.0
 70
   160
  1
<>
 71
     2
 42
-1.0
  3
SLDDIMSTYLE0
100
AcDbAlignedDimension
 13
145.3957150397
 23
143.736807862
 33
0.0
 14
247.2957150397
 24
79.0461301155
 34
0.0
100
AcDbRotatedDimension
  0
DIMENSION
  5
1B0
330
1F
100
AcDbEntity
  8
VERMASSUNG
100
AcDbDimension
  2
_D_3
 10
258.3662085548
 20
79.0461301155
 30
0.0
 11
258.3662085548
 21
101.5461301155
 31
0.0
 70
   160
  1
<>
 71
     2
 42
-1.0
  3
SLDDIMSTYLE0
100
AcDbAlignedDimension
 13
242.4035976314
 23
124.0461301155
 33
0.0
 14
247.2957150397
 24
79.0461301155
 34
0.0
 50
90.0
100
AcDbRotatedDimension
  0
DIMENSION
  5
1BA
330
1F
100
AcDbEntity
  8
VERMASSUNG
100
AcDbDimension
  2
_D_4
 10
246.4469013702
 20
79.986608534
 30
0.0
 11
237.8888507493
 21
113.5693562948
 31
0.0
 70
   162
  1
<>
 71
     1
 42
-1.0
  3
SLDDIMSTYLE1
100
AcDb2LineAngularDimension
 13
247.2957150397
 23
79.0461301155
 33
0.0
 14
247.2957150397
 24
149.3759366265
 34
0.0
 15
242.9203976078
 25
120.2947309848
 35
0.0
 16
245.3635892888
 26
114.5375791047
 36
0.0
  0
LINE
  5
1C5
330
1F
100
AcDbEntity
  8
VERMASSUNG
  6
CENTERX2
370
     0
100
AcDbLine
 10
142.6752981124
 20
124.0461301155
 30
0.0
 11
242.4035976314
 21
124.0461301155
 31
0.0
  0
LINE
  5
1C6
330
1F
100
AcDbEntity
  8
0
  6
Continuous
 62
     7
370
    15
100
AcDbLine
 10
74.6417055001
 20
79.0461283274
 30
0.0
 11
77.8994441593
 21
79.4461313731
 31
0.0
  0
LINE
  5
1C7
330
1F
100
AcDbEntity
  8
0
  6
Continuous
 62
     7
370
    15
100
AcDbLine
 10
74.9417055143
 20
92.9000433631
 30
0.0
 11
74.6417055001
 21
92.9368790335
 31
0.0
  0
LINE
  5
1C8
330
1F
100
AcDbEntity
  8
0
  6
Continuous
 62
     7
370
    15
100
AcDbLine
 10
79.4017054235
 20
91.3134608514
 30
0.0
 11
77.8994441593
 21
91.4837252445
 31
0.0
  0
LINE
  5
1C9
330
1F
100
AcDbEntity
  8
0
  6
Continuous
 62
     7
370
    15
100
AcDbLine
 10
79.4017054235
 20
79.6490404851
 30
0.0
 11
79.4017054235
 21
91.3134608514
 31
0.0
  0
LINE
  5
1CA
330
1F
100
AcDbEntity
  8
0
  6
Continuous
 62
     7
370
    15
100
AcDbLine
 10
79.4017054235
 20
79.6490404851
 30
0.0
 11
77.8994441593
 21
79.4461313731
 31
0.0
  0
LINE
  5
1CB
330
1F
100
AcDbEntity
  8
0
  6
Continuous
 62
     7
370
    15
100
AcDbLine
 10
74.6417055001
 20
79.4809926398
 30
0.0
 11
74.6417055001
 21
91.5185865111
 31
0.0
  0
LINE
  5
1CC
330
1F
100
AcDbEntity
  8
0
  6
Continuous
 62
     7
370
    15
100
AcDbLine
 10
74.6417055001
 20
79.0461283274
 30
0.0
 11
74.6417055001
 21
79.4809926398
 31
0.0
  0
LINE
  5
1CD
330
1F
100
AcDbEntity
  8
0
  6
Continuous
 62
     7
370
    15
100
AcDbLine
 10
74.6417055001
 20
91.5185865111
 30
0.0
 11
74.6417055001
 21
91.8822046466
 31
0.0
  0
LINE
  5
1CE
330
1F
100
AcDbEntity
  8
0
  6
Continuous
 62
     7
370
    15
100
AcDbLine
 10
79.4017054235
 20
91.3134608514
 30
0.0
 11
79.4017054235
 21
91.332538063
 31
0.0
  0
LINE
  5
1CF
330
1F
100
AcDbEntity
  8
0
  6
Continuous
 62
     7
370
    15
100
AcDbLine
 10
74.6417055001
 20
91.8822046466
 30
0.0
 11
74.6417055001
 21
92.9353553898
 31
0.0
  0
LINE
  5
1D0
330
1F
100
AcDbEntity
  8
0
  6
Continuous
 62
     7
370
    15
100
AcDbLine
 10
74.6417055001
 20
92.9353553898
 30
0.0
 11
74.6417055001
 21
92.9368790335
 31
0.0
  0
LINE
  5
1D1
330
1F
100
AcDbEntity
  8
0
  6
Continuous
 62
     7
370
    15
100
AcDbLine
 10
79.4017054235
 20
91.64304846
 30
0.0
 11
76.9017054794
 21
91.64304846
 31
0.0
  0
LINE
  5
1D2
330
1F
100
AcDbEntity
  8
0
  6
Continuous
 62
     7
370
    15
100
AcDbLine
 10
76.9017054794
 20
91.64304846
 30
0.0
 11
74.9417055143
 21
91.8864887304
 31
0.0
  0
LINE
  5
1D3
330
1F
100
AcDbEntity
  8
0
  6
Continuous
 62
     7
370
    15
100
AcDbLine
 10
74.9417055143
 20
91.8864887304
 30
0.0
 11
74.9417055143
 21
120.2947308871
 31
0.0
  0
LINE
  5
1D4
330
1F
100
AcDbEntity
  8
0
  6
Continuous
 62
     7
370
    15
100
AcDbLine
 10
101.6417062005
 20
120.2947308871
 30
0.0
 11
74.9417055143
 21
120.2947308871
 31
0.0
  0
LINE
  5
1D5
330
1F
100
AcDbEntity
  8
0
  6
Continuous
 62
     7
370
    15
100
AcDbLine
 10
101.6417062005
 20
91.0745579846
 30
0.0
 11
101.6417062005
 21
120.2947308871
 31
0.0
  0
ELLIPSE
  5
1D6
330
1F
100
AcDbEntity
  8
0
  6
Continuous
 62
     7
370
    15
100
AcDbEllipse
 10
74.6417055001
 20
118.1232218095
 30
0.0
 11
1.065814103640150E-12
 21
38.43937906834999
 31
0.0
210
0.0
220
0.0
230
1.0
 40
0.9885695586
 41
3.267185727419534
 42
3.931838538365225
  0
LINE
  5
1D7
330
1F
100
AcDbEntity
  8
0
  6
Continuous
 62
     7
370
    15
100
AcDbLine
 10
79.4017054235
 20
91.64304846
 30
0.0
 11
79.4017054235
 21
91.332538063
 31
0.0
  0
ARC
  5
1D8
330
1F
100
AcDbEntity
  8
0
  6
Continuous
 62
     7
370
    15
100
AcDbCircle
 10
74.6417055001
 20
124.0461301155
 30
0.0
 40
27.00000000000004
100
AcDbArc
 50
0.0
 51
89.3633671277
  0
LINE
  5
1D9
330
1F
100
AcDbEntity
  8
0
  6
Continuous
 62
     7
370
    15
100
AcDbLine
 10
74.9417055143
 20
120.2947308871
 30
0.0
 11
74.9417055143
 21
151.0444637484
 31
0.0
  0
LINE
  5
1DA
330
1F
100
AcDbEntity
  8
0
  6
Continuous
 62
     7
370
    15
100
AcDbLine
 10
101.6417062005
 20
120.2947308871
 30
0.0
 11
101.6417062005
 21
124.0461301155
 31
0.0
  0
SPLINE
  5
1DB
330
1F
100
AcDbEntity
  8
0
  6
Continuous
 62
     7
370
    15
100
AcDbSpline
210
0.0
220
0.0
230
1.0
 70
     8
 71
     3
 72
    20
 73
    16
 74
     0
 42
0.00000001
 43
0.00000001
 12
1.0
 22
0.0
 32
0.0
 13
1.0
 23
0.0
 33
0.0
 40
0.0
 40
0.0
 40
0.0
 40
0.0
 40
0.2499999999999981
 40
0.2499999999999981
 40
0.3749999999999983
 40
0.3749999999999983
 40
0.4999999999999987
 40
0.4999999999999987
 40
0.6249999999999989
 40
0.6249999999999989
 40
0.7499999999999992
 40
0.7499999999999992
 40
0.8749999999999997
 40
0.8749999999999997
 40
1.0
 40
1.0
 40
1.0
 40
1.0
 10
74.93020652630969
 20
98.04773079634226
 30
0.0
 10
74.8912032962485
 20
98.04729798231553
 30
0.0
 10
74.75648956489745
 20
98.04537241783407
 30
0.0
 10
74.41255028046332
 20
98.04688720451772
 30
0.0
 10
74.27483137703716
 20
98.04824297203952
 30
0.0
 10
73.96036359920066
 20
98.05458330196151
 30
0.0
 10
73.78288323645904
 20
98.05956188593287
 30
0.0
 10
73.38670609545768
 20
98.07567997452585
 30
0.0
 10
73.1676979428371
 20
98.08690539055641
 30
0.0
 10
72.70374143079435
 20
98.11741356675671
 30
0.0
 10
72.45707065808419
 20
98.13674432839458
 30
0.0
 10
71.93441793020224
 20
98.18613214040553
 30
0.0
 10
71.65674784925093
 20
98.21645370239959
 30
0.0
 10
71.08804125346857
 20
98.28853655156132
 30
0.0
 10
70.79542459367613
 20
98.33039623825493
 30
0.0
 10
70.49461977071095
 20
98.37899782625438
 30
0.0
  0
SPLINE
  5
1DC
330
1F
100
AcDbEntity
  8
0
  6
Continuous
 62
     7
370
    15
100
AcDbSpline
210
0.0
220
0.0
230
1.0
 70
     8
 71
     3
 72
    20
 73
    16
 74
     0
 42
0.00000001
 43
0.00000001
 12
1.0
 22
0.0
 32
0.0
 13
1.0
 23
0.0
 33
0.0
 40
0.0
 40
0.0
 40
0.0
 40
0.0
 40
0.250000000000001
 40
0.250000000000001
 40
0.3750000000000009
 40
0.3750000000000009
 40
0.5000000000000008
 40
0.5000000000000008
 40
0.6250000000000006
 40
0.6250000000000006
 40
0.7500000000000004
 40
0.7500000000000004
 40
0.8750000000000002
 40
0.8750000000000002
 40
1.0
 40
1.0
 40
1.0
 40
1.0
 10
70.49461977071095
 20
149.7132624047261
 30
0.0
 10
71.0961495057014
 20
149.8104526693676
 30
0.0
 10
71.6609909946987
 20
149.8801235480379
 30
0.0
 10
72.45099741661447
 20
149.9550237044081
 30
0.0
 10
72.70070641698602
 20
149.9746183973981
 30
0.0
 10
73.16438195203865
 20
150.0051650967837
 30
0.0
 10
73.3798799479477
 20
150.0162541778461
 30
0.0
 10
73.7772785727366
 20
150.0325171984508
 30
0.0
 10
73.95796626495185
 20
150.0376159139996
 30
0.0
 10
74.27307376867385
 20
150.0439943355061
 30
0.0
 10
74.40926488881675
 20
150.045343465045
 30
0.0
 10
74.63837764406534
 20
150.0463822750138
 30
0.0
 10
74.73112438361828
 20
150.0460648226417
 30
0.0
 10
74.86677606395956
 20
150.0452444033684
 30
0.0
 10
74.91070675728095
 20
150.0447458211667
 30
0.0
 10
74.93020652630969
 20
150.0445294346382
 30
0.0
  0
ELLIPSE
  5
1DD
330
1F
100
AcDbEntity
  8
0
  6
Continuous
 62
     7
370
    15
100
AcDbEllipse
 10
63.0633377019
 20
114.6806820752
 30
0.0
 11
-1.601252499401795
 21
2.994078830326487
 31
0.0
210
0.0
220
0.0
230
1.0
 40
0.6023174662
 41
0.0
 42
6.283185307179586
  0
ARC
  5
1DE
330
1F
100
AcDbEntity
  8
0
  6
Continuous
 62
     7
370
    15
100
AcDbCircle
 10
74.6417055001
 20
124.0461301155
 30
0.0
 40
26.00000000000003
100
AcDbArc
 50
99.1780670049
 51
260.8219329951
  0
SPLINE
  5
1DF
330
1F
100
AcDbEntity
  8
0
  6
Continuous
 62
     7
370
    15
100
AcDbSpline
210
0.0
220
0.0
230
1.0
 70
    24
 71
     3
 72
    10
 73
     6
 74
     0
 42
0.00000001
 43
0.00000001
 12
1.0
 22
0.0
 32
0.0
 13
1.0
 23
0.0
 33
0.0
 40
0.0
 40
0.0
 40
0.0
 40
0.0
 40
0.0503274356820612
 40
0.3857712687057358
 40
1.0
 40
1.0
 40
1.0
 40
1.0
 10
74.94170551434483
 20
150.4461299724391
 30
0.0
 10
74.84170764707105
 20
150.4461299724391
 30
0.0
 10
74.07520119580299
 20
150.4461299724391
 30
0.0
 10
72.08727912825678
 20
150.4461299724391
 30
0.0
 10
70.20119645799211
 20
150.4461299724391
 30
0.0
 10
68.98131688138794
 20
150.4461299724391
 30
0.0
  0
SPLINE
  5
1E0
330
1F
100
AcDbEntity
  8
0
  6
Continuous
 62
     7
370
    15
100
AcDbSpline
210
0.0
220
0.0
230
1.0
 70
    24
 71
     3
 72
    10
 73
     6
 74
     0
 42
0.00000001
 43
0.00000001
 12
1.0
 22
0.0
 32
0.0
 13
1.0
 23
0.0
 33
0.0
 40
0.0
 40
0.0
 40
0.0
 40
0.0
 40
0.0503274356820612
 40
0.3857712687057358
 40
1.0
 40
1.0
 40
1.0
 40
1.0
 10
74.94170551434483
 20
97.64613025854138
 30
0.0
 10
74.84170764707105
 20
97.64613025854138
 30
0.0
 10
74.07520119580299
 20
97.64613025854138
 30
0.0
 10
72.08727912825678
 20
97.64613025854139
 30
0.0
 10
70.20119645799211
 20
97.64613025854139
 30
0.0
 10
68.98131688138794
 20
97.64613025854138
 30
0.0
  0
SPLINE
  5
1E1
330
1F
100
AcDbEntity
  8
0
  6
Continuous
 62
     7
370
    15
100
AcDbSpline
210
0.0
220
0.0
230
1.0
 70
    24
 71
     3
 72
    10
 73
     6
 74
     0
 42
0.00000001
 43
0.00000001
 12
1.0
 22
0.0
 32
0.0
 13
1.0
 23
0.0
 33
0.0
 40
0.0
 40
0.0
 40
0.0
 40
0.0
 40
0.5
 40
0.5
 40
1.0
 40
1.0
 40
1.0
 40
1.0
 10
65.64170550009558
 20
94.48585271489742
 30
0.0
 10
65.64170550009558
 20
94.32596544670376
 30
0.0
 10
65.64170550009558
 20
94.16483819118916
 30
0.0
 10
65.6417055000956
 20
93.93073919283432
 30
0.0
 10
65.64170550009558
 20
93.8592124192431
 30
0.0
 10
65.64170550009558
 20
93.8592124192431
 30
0.0
  0
ARC
  5
1E2
330
1F
100
AcDbEntity
  8
0
  6
Continuous
 62
     7
370
    15
100
AcDbCircle
 10
74.6417055001
 20
124.0461301155
 30
0.0
 40
31.5
100
AcDbArc
 50
140.9381656697
 51
253.398450401
  0
SPLINE
  5
1E3
330
1F
100
AcDbEntity
  8
0
  6
Continuous
 62
     7
370
    15
100
AcDbSpline
210
0.0
220
0.0
230
1.0
 70
    24
 71
     3
 72
    12
 73
     8
 74
     0
 42
0.00000001
 43
0.00000001
 12
1.0
 22
0.0
 32
0.0
 13
1.0
 23
0.0
 33
0.0
 40
0.0
 40
0.0
 40
0.0
 40
0.0
 40
0.2500000000000006
 40
0.2500000000000006
 40
0.5000000000000012
 40
0.5000000000000012
 40
1.0
 40
1.0
 40
1.0
 40
1.0
 10
50.18301583772798
 20
143.8961301154903
 30
0.0
 10
50.18301583772796
 20
143.8961301154903
 30
0.0
 10
50.21084555803146
 20
143.8961301154903
 30
0.0
 10
50.30598801928813
 20
143.8961301154903
 30
0.0
 10
50.3724108355885
 20
143.8961301154903
 30
0.0
 10
50.59661026710862
 20
143.8961301154903
 30
0.0
 10
50.78059666965423
 20
143.8961301154903
 30
0.0
 10
50.96075323883721
 20
143.8961301154903
 30
0.0
  0
SPLINE
  5
1E4
330
1F
100
AcDbEntity
  8
0
  6
Continuous
 62
     7
370
    15
100
AcDbSpline
210
0.0
220
0.0
230
1.0
 70
    24
 71
     3
 72
    10
 73
     6
 74
     0
 42
0.00000001
 43
0.00000001
 12
1.0
 22
0.0
 32
0.0
 13
1.0
 23
0.0
 33
0.0
 40
0.0
 40
0.0
 40
0.0
 40
0.0
 40
0.5
 40
0.5
 40
1.0
 40
1.0
 40
1.0
 40
1.0
 10
66.64170550009558
 20
153.8925704392541
 30
0.0
 10
66.64170550009558
 20
154.0529757056049
 30
0.0
 10
66.64170550009558
 20
154.2120375185935
 30
0.0
 10
66.64170550009558
 20
154.4429499842239
 30
0.0
 10
66.64170550009558
 20
154.5133255886545
 30
0.0
 10
66.64170550009558
 20
154.5133255886545
 30
0.0
  0
SPLINE
  5
1E5
330
1F
100
AcDbEntity
  8
0
  6
Continuous
 62
     7
370
    15
100
AcDbSpline
210
0.0
220
0.0
230
1.0
 70
    24
 71
     3
 72
    12
 73
     8
 74
     0
 42
0.00000001
 43
0.00000001
 12
1.0
 22
0.0
 32
0.0
 13
1.0
 23
0.0
 33
0.0
 40
0.0
 40
0.0
 40
0.0
 40
0.0
 40
0.249999999999998
 40
0.249999999999998
 40
0.499999999999996
 40
0.499999999999996
 40
1.0
 40
1.0
 40
1.0
 40
1.0
 10
54.79170550009559
 20
148.5048197778577
 30
0.0
 10
54.79170550009559
 20
148.5048197778576
 30
0.0
 10
54.79170550009559
 20
148.4766000792698
 30
0.0
 10
54.79170550009559
 20
148.3821570720217
 30
0.0
 10
54.79170550009558
 20
148.3158700953163
 30
0.0
 10
54.79170550009559
 20
148.0902452720281
 30
0.0
 10
54.79170550009559
 20
147.9078190089955
 30
0.0
 10
54.79170550009559
 20
147.7270823767486
 30
0.0
  0
ARC
  5
1E6
330
1F
100
AcDbEntity
  8
0
  6
Continuous
 62
     7
370
    15
100
AcDbCircle
 10
74.6417055001
 20
124.0461301155
 30
0.0
 40
31.50000000000001
100
AcDbArc
 50
104.7124579609
 51
129.0618343303
  0
SPLINE
  5
1E7
330
1F
100
AcDbEntity
  8
0
  6
Continuous
 62
     7
370
    15
100
AcDbSpline
210
0.0
220
0.0
230
1.0
 70
    24
 71
     3
 72
    12
 73
     8
 74
     0
 42
0.00000001
 43
0.00000001
 12
1.0
 22
0.0
 32
0.0
 13
1.0
 23
0.0
 33
0.0
 40
0.0
 40
0.0
 40
0.0
 40
0.0
 40
0.2500000000000038
 40
0.2500000000000038
 40
0.5000000000000077
 40
0.5000000000000077
 40
1.0
 40
1.0
 40
1.0
 40
1.0
 10
82.64170550009558
 20
154.5133255886545
 30
0.0
 10
82.64170550009558
 20
154.5133255886545
 30
0.0
 10
82.64170550009558
 20
154.4963228386937
 30
0.0
 10
82.64170550009558
 20
154.432262297582
 30
0.0
 10
82.64170550009558
 20
154.3851036819434
 30
0.0
 10
82.64170550009558
 20
154.2118816492512
 30
0.0
 10
82.64170550009558
 20
154.0517725590169
 30
0.0
 10
82.64170550009558
 20
153.8925704392535
 30
0.0
  0
ARC
  5
1E8
330
1F
100
AcDbEntity
  8
0
  6
Continuous
 62
     7
370
    15
100
AcDbCircle
 10
74.6417055001
 20
124.0461301155
 30
0.0
 40
31.5
100
AcDbArc
 50
328.9972808661
 51
75.2875420391
  0
LINE
  5
1E9
330
1F
100
AcDbEntity
  8
0
  6
Continuous
 62
     7
370
    15
100
AcDbLine
 10
82.6417058801
 20
153.8925711162
 30
0.0
 11
82.6417058801
 21
150.4461299724
 31
0.0
  0
LINE
  5
1EA
330
1F
100
AcDbEntity
  8
0
  6
Continuous
 62
     7
370
    15
100
AcDbLine
 10
82.6417058801
 20
150.4461299724
 30
0.0
 11
80.3020941188
 21
150.4461299724
 31
0.0
  0
LINE
  5
1EB
330
1F
100
AcDbEntity
  8
0
  6
Continuous
 62
     7
370
    15
100
AcDbLine
 10
66.6417051201
 20
150.4461299724
 30
0.0
 11
66.6417051201
 21
153.8925711162
 31
0.0
  0
LINE
  5
1EC
330
1F
100
AcDbEntity
  8
0
  6
Continuous
 62
     7
370
    15
100
AcDbLine
 10
65.6417058875
 20
97.6461302585
 30
0.0
 11
65.6417058875
 21
94.485852877
 31
0.0
  0
LINE
  5
1ED
330
1F
100
AcDbEntity
  8
0
  6
Continuous
 62
     7
370
    15
100
AcDbLine
 10
54.791704761
 20
147.7270815618
 30
0.0
 11
54.791704761
 21
143.8961308546
 31
0.0
  0
LINE
  5
1EE
330
1F
100
AcDbEntity
  8
0
  6
Continuous
 62
     7
370
    15
100
AcDbLine
 10
50.9607540538
 20
143.8961308546
 30
0.0
 11
54.791704761
 21
143.8961308546
 31
0.0
  0
LINE
  5
1EF
330
1F
100
AcDbEntity
  8
0
  6
Continuous
 62
     7
370
    15
100
AcDbLine
 10
68.9813168814
 20
150.4461299724
 30
0.0
 11
66.6417051201
 21
150.4461299724
 31
0.0
  0
LINE
  5
1F0
330
1F
100
AcDbEntity
  8
0
  6
Continuous
 62
     7
370
    15
100
AcDbLine
 10
68.9813168814
 20
97.6461302585
 30
0.0
 11
65.6417058875
 21
97.6461302585
 31
0.0
  0
SPLINE
  5
1F1
330
1F
100
AcDbEntity
  8
0
  6
Continuous
 62
     7
370
    15
100
AcDbSpline
210
0.0
220
0.0
230
1.0
 70
     8
 71
     3
 72
    28
 73
    24
 74
     0
 42
0.00000001
 43
0.00000001
 12
1.0
 22
0.0
 32
0.0
 13
1.0
 23
0.0
 33
0.0
 40
0.0
 40
0.0
 40
0.0
 40
0.0
 40
0.1250000000000001
 40
0.1250000000000001
 40
0.1875000000000001
 40
0.1875000000000001
 40
0.2500000000000001
 40
0.2500000000000001
 40
0.3749999999999999
 40
0.3749999999999999
 40
0.4375
 40
0.4375
 40
0.4999999999999999
 40
0.4999999999999999
 40
0.6249999999999999
 40
0.6249999999999999
 40
0.7499999999999997
 40
0.7499999999999997
 40
0.8124999999999998
 40
0.8124999999999998
 40
0.8749999999999998
 40
0.8749999999999998
 40
1.0
 40
1.0
 40
1.0
 40
1.0
 10
65.6417055000956
 20
93.8592124192431
 30
0.0
 10
65.6417055000956
 20
93.85921241924311
 30
0.0
 10
65.6941818424138
 20
93.84342770529287
 30
0.0
 10
65.8479787899707
 20
93.79843229121667
 30
0.0
 10
65.91185376500471
 20
93.77987729614095
 30
0.0
 10
66.06535003366123
 20
93.73602457369445
 30
0.0
 10
66.15516500905493
 20
93.71067996674225
 30
0.0
 10
66.45714380410581
 20
93.62727788899214
 30
0.0
 10
66.70309723816155
 20
93.56141232984105
 30
0.0
 10
67.13846441758993
 20
93.45244198934927
 30
0.0
 10
67.29567959976228
 20
93.41420235358262
 30
0.0
 10
67.62784422030472
 20
93.33644361616327
 30
0.0
 10
67.80265148590762
 20
93.29694265398791
 30
0.0
 10
68.35271067649344
 20
93.1780349116219
 30
0.0
 10
68.7533340608889
 20
93.0982172301973
 30
0.0
 10
69.62592017223763
 20
92.94487406840123
 30
0.0
 10
70.08605561983919
 20
92.87354031513198
 30
0.0
 10
70.80602171380538
 20
92.77959680805736
 30
0.0
 10
71.05129542383989
 20
92.75040301469744
 30
0.0
 10
71.55275176026872
 20
92.69693644043402
 30
0.0
 10
71.81018312964125
 20
92.67257710615885
 30
0.0
 10
72.58612292550575
 20
92.6089869607141
 30
0.0
 10
73.11035132541177
 20
92.57888402562484
 30
0.0
 10
73.6417055000956
 20
92.56200713262794
 30
0.0
  0
SPLINE
  5
1F2
330
1F
100
AcDbEntity
  8
0
  6
Continuous
 62
     7
370
    15
100
AcDbSpline
210
0.0
220
0.0
230
1.0
 70
     8
 71
     3
 72
    50
 73
    46
 74
     0
 42
0.00000001
 43
0.00000001
 12
1.0
 22
0.0
 32
0.0
 13
1.0
 23
0.0
 33
0.0
 40
0.0
 40
0.0
 40
0.0
 40
0.0
 40
0.0625000000000004
 40
0.0625000000000004
 40
0.0937500000000005
 40
0.0937500000000005
 40
0.1250000000000006
 40
0.1250000000000006
 40
0.1875000000000006
 40
0.1875000000000006
 40
0.2187500000000006
 40
0.2187500000000006
 40
0.2500000000000006
 40
0.2500000000000006
 40
0.3125000000000006
 40
0.3125000000000006
 40
0.3750000000000005
 40
0.3750000000000005
 40
0.4062500000000006
 40
0.4062500000000006
 40
0.4375000000000006
 40
0.4375000000000006
 40
0.5000000000000006
 40
0.5000000000000006
 40
0.5625000000000007
 40
0.5625000000000007
 40
0.6250000000000006
 40
0.6250000000000006
 40
0.6562500000000006
 40
0.6562500000000006
 40
0.6875000000000006
 40
0.6875000000000006
 40
0.7187500000000006
 40
0.7187500000000006
 40
0.7500000000000004
 40
0.7500000000000004
 40
0.8125000000000004
 40
0.8125000000000004
 40
0.8750000000000004
 40
0.8750000000000004
 40
0.9375000000000003
 40
0.9375000000000003
 40
0.9687500000000002
 40
0.9687500000000002
 40
1.0
 40
1.0
 40
1.0
 40
1.0
 10
66.6417055000956
 20
154.5133255886545
 30
0.0
 10
66.6417055000956
 20
154.5133255886545
 30
0.0
 10
66.69399964204865
 20
154.5271916920357
 30
0.0
 10
66.84735217688142
 20
154.5666288349197
 30
0.0
 10
66.91104967223262
 20
154.5828815371847
 30
0.0
 10
67.06414132252243
 20
154.621230247035
 30
0.0
 10
67.15379742448326
 20
154.6433836934431
 30
0.0
 10
67.4553788126573
 20
154.7161396393052
 30
0.0
 10
67.70112024309127
 20
154.7734203421499
 30
0.0
 10
68.13628030944194
 20
154.8674127816057
 30
0.0
 10
68.29342113690312
 20
154.9002717487989
 30
0.0
 10
68.62606022962741
 20
154.9668478022471
 30
0.0
 10
68.80112618506745
 20
155.000491240086
 30
0.0
 10
69.35198171576906
 20
155.1010521046631
 30
0.0
 10
69.75316612495571
 20
155.1676149144132
 30
0.0
 10
70.62665533104311
 20
155.2923139697128
 30
0.0
 10
71.08869592402554
 20
155.3488369787834
 30
0.0
 10
71.80981133761946
 20
155.4195059133983
 30
0.0
 10
72.05537197530285
 20
155.4407821234697
 30
0.0
 10
72.55716027446104
 20
155.4780878497116
 30
0.0
 10
72.8149214907777
 20
155.4941790465716
 30
0.0
 10
73.59003395499747
 20
155.5328205181793
 30
0.0
 10
74.11046313871715
 20
155.5460099367357
 30
0.0
 10
75.15859897950253
 20
155.5462486601938
 30
0.0
 10
75.69110730987629
 20
155.5328486574896
 30
0.0
 10
76.71879757204289
 20
155.4817846692945
 30
0.0
 10
77.21856175262462
 20
155.4443455345402
 30
0.0
 10
77.94705675264508
 20
155.3731820516218
 30
0.0
 10
78.18640774509058
 20
155.3469135934293
 30
0.0
 10
78.64764621657744
 20
155.291232120677
 30
0.0
 10
78.8709128716447
 20
155.2616943487411
 30
0.0
 10
79.30310047766679
 20
155.2000872037134
 30
0.0
 10
79.51202105790675
 20
155.1680162609923
 30
0.0
 10
79.91544598343046
 20
155.1021992840228
 30
0.0
 10
80.11092564339984
 20
155.0682690655597
 30
0.0
 10
80.66678385693606
 20
154.9668404379794
 30
0.0
 10
80.99634124356763
 20
154.8999214092893
 30
0.0
 10
81.57573674135357
 20
154.7748958469475
 30
0.0
 10
81.82725671279795
 20
154.7163190527134
 30
0.0
 10
82.22871120941151
 20
154.6194842010685
 30
0.0
 10
82.38119420495862
 20
154.5807292415093
 30
0.0
 10
82.53650515413386
 20
154.540801711073
 30
0.0
 10
82.57601860154001
 20
154.5305099198225
 30
0.0
 10
82.62853194883579
 20
154.5167937072835
 30
0.0
 10
82.64170550009558
 20
154.5133255886544
 30
0.0
 10
82.64170550009558
 20
154.5133255886545
 30
0.0
  0
SPLINE
  5
1F3
330
1F
100
AcDbEntity
  8
0
  6
Continuous
 62
     7
370
    15
100
AcDbSpline
210
0.0
220
0.0
230
1.0
 70
     8
 71
     3
 72
    20
 73
    16
 74
     0
 42
0.00000001
 43
0.00000001
 12
1.0
 22
0.0
 32
0.0
 13
1.0
 23
0.0
 33
0.0
 40
0.0
 40
0.0
 40
0.0
 40
0.0
 40
0.2500000000000005
 40
0.2500000000000005
 40
0.3750000000000004
 40
0.3750000000000004
 40
0.5000000000000003
 40
0.5000000000000003
 40
0.6250000000000002
 40
0.6250000000000002
 40
0.7500000000000001
 40
0.7500000000000001
 40
0.8750000000000001
 40
0.8750000000000001
 40
1.0
 40
1.0
 40
1.0
 40
1.0
 10
50.18301583772818
 20
143.8961301154903
 30
0.0
 10
50.71367260556285
 20
144.5499925437877
 30
0.0
 10
51.24740060182437
 20
145.1537783257848
 30
0.0
 10
52.03037291981311
 20
145.9806170619534
 30
0.0
 10
52.28835651990979
 20
146.2430456999063
 30
0.0
 10
52.79275177631762
 20
146.7397083540113
 30
0.0
 10
53.03553019874561
 20
146.9702952330328
 30
0.0
 10
53.48621027825868
 20
147.3868494576154
 30
0.0
 10
53.69567414424996
 20
147.5743472595829
 30
0.0
 10
54.07396266083801
 20
147.9057442372193
 30
0.0
 10
54.23771034702248
 20
148.0452482247146
 30
0.0
 10
54.50589614922193
 20
148.2707017321856
 30
0.0
 10
54.61112055730869
 20
148.3573278437292
 30
0.0
 10
54.75517978262221
 20
148.4753086325833
 30
0.0
 10
54.79170550009559
 20
148.5048197778577
 30
0.0
 10
54.79170550009559
 20
148.5048197778576
 30
0.0
  0
ARC
  5
1F4
330
1F
100
AcDbEntity
  8
0
  6
Continuous
 62
     7
370
    15
100
AcDbCircle
 10
74.6417055001
 20
124.0461301155
 30
0.0
 40
31.49999999999997
100
AcDbArc
 50
268.180780706
 51
270.0
  0
CIRCLE
  5
1F5
330
1F
100
AcDbEntity
  8
VERMASSUNG
  6
CENTERX2
100
AcDbCircle
 10
74.6417055001
 20
119.0461301155
 30
0.0
 40
39.99999999999999
  0
POINT
  5
1F6
330
1F
100
AcDbEntity
  8
VERMASSUNG
100
AcDbPoint
 10
74.6417055001
 20
79.0461301155
 30
0.0
  0
DIMENSION
  5
1F7
330
1F
100
AcDbEntity
  8
VERMASSUNG
100
AcDbDimension
  2
_D_5
 10
29.5378629634
 20
159.0461301155
 30
0.0
 11
29.5378629634
 21
119.0461301155
 31
0.0
 70
   160
  1
%%c<>
 71
     2
 42
-1.0
  3
SLDDIMSTYLE0
100
AcDbAlignedDimension
 13
74.6417055001
 23
79.0461301155
 33
0.0
 14
74.6417055001
 24
159.0461301155
 34
0.0
 50
90.0
100
AcDbRotatedDimension
  0
INSERT
  5
20D
330
1F
100
AcDbEntity
  8
VERMASSUNG
100
AcDbBlockReference
  2
SW_CENTERMARKSYMBOL_0
 10
74.6417055001
 20
124.0461301155
 30
0.0
  0
OLE2FRAME
  5
20E
330
1F
100
AcDbEntity
  8
0
100
AcDbOle2Frame
 70
     2
  3
Paintbrush-Bild
 10
13.8511154363
 20
38.264191557
 30
0.0
 11
51.6290888628
 21
31.9806341108
 31
0.0
 71
     2
 72
     0
 73
     1
 90
    12928
310
80552BED0767C5B32B40DDAF6807D121434000000000000000006FFBDDFB85D0
310
4940DDAF6807D121434000000000000000006FFBDDFB85D04940416F4BD60AFB
310
3F4000000000000000002BED0767C5B32B40416F4BD60AFB3F40000000000000
310
0000000000000100000000010000010000000100000000000100000000320000
310
D0CF11E0A1B11AE1000000000000000000000000000000003E000300FEFF0900
310
0600000000000000000000000100000001000000000000000010000002000000
310
01000000FEFFFFFF0000000000000000FFFFFFFFFFFFFFFFFFFFFFFFFFFFFFFF
310
FFFFFFFFFFFFFFFFFFFFFFFFFFFFFFFFFFFFFFFFFFFFFFFFFFFFFFFFFFFFFFFF
310
FFFFFFFFFFFFFFFFFFFFFFFFFFFFFFFFFFFFFFFFFFFFFFFFFFFFFFFFFFFFFFFF
310
FFFFFFFFFFFFFFFFFFFFFFFFFFFFFFFFFFFFFFFFFFFFFFFFFFFFFFFFFFFFFFFF
310
FFFFFFFFFFFFFFFFFFFFFFFFFFFFFFFFFFFFFFFFFFFFFFFFFFFFFFFFFFFFFFFF
310
FFFFFFFFFFFFFFFFFFFFFFFFFFFFFFFFFFFFFFFFFFFFFFFFFFFFFFFFFFFFFFFF
310
FFFFFFFFFFFFFFFFFFFFFFFFFFFFFFFFFFFFFFFFFFFFFFFFFFFFFFFFFFFFFFFF
310
FFFFFFFFFFFFFFFFFFFFFFFFFFFFFFFFFFFFFFFFFFFFFFFFFFFFFFFFFFFFFFFF
310
FFFFFFFFFFFFFFFFFFFFFFFFFFFFFFFFFFFFFFFFFFFFFFFFFFFFFFFFFFFFFFFF
310
FFFFFFFFFFFFFFFFFFFFFFFFFFFFFFFFFFFFFFFFFFFFFFFFFFFFFFFFFFFFFFFF
310
FFFFFFFFFFFFFFFFFFFFFFFFFFFFFFFFFFFFFFFFFFFFFFFFFFFFFFFFFFFFFFFF
310
FFFFFFFFFFFFFFFFFFFFFFFFFFFFFFFFFFFFFFFFFFFFFFFFFFFFFFFFFFFFFFFF
310
FFFFFFFFFFFFFFFFFFFFFFFFFFFFFFFFFFFFFFFFFFFFFFFFFFFFFFFFFFFFFFFF
310
FFFFFFFFFFFFFFFFFFFFFFFFFFFFFFFFFFFFFFFFFFFFFFFFFFFFFFFFFFFFFFFF
310
FDFFFFFFFEFFFFFFFEFFFFFFFEFFFFFF05000000060000000700000008000000
310
090000000A0000000B0000000C0000000D0000000E0000000F00000010000000
310
11000000120000001300000014000000150000001600000017000000FEFFFFFF
310
FFFFFFFFFFFFFFFFFFFFFFFFFFFFFFFFFFFFFFFFFFFFFFFFFFFFFFFFFFFFFFFF
310
FFFFFFFFFFFFFFFFFFFFFFFFFFFFFFFFFFFFFFFFFFFFFFFFFFFFFFFFFFFFFFFF
310
FFFFFFFFFFFFFFFFFFFFFFFFFFFFFFFFFFFFFFFFFFFFFFFFFFFFFFFFFFFFFFFF
310
FFFFFFFFFFFFFFFFFFFFFFFFFFFFFFFFFFFFFFFFFFFFFFFFFFFFFFFFFFFFFFFF
310
FFFFFFFFFFFFFFFFFFFFFFFFFFFFFFFFFFFFFFFFFFFFFFFFFFFFFFFFFFFFFFFF
310
FFFFFFFFFFFFFFFFFFFFFFFFFFFFFFFFFFFFFFFFFFFFFFFFFFFFFFFFFFFFFFFF
310
FFFFFFFFFFFFFFFFFFFFFFFFFFFFFFFFFFFFFFFFFFFFFFFFFFFFFFFFFFFFFFFF
310
FFFFFFFFFFFFFFFFFFFFFFFFFFFFFFFFFFFFFFFFFFFFFFFFFFFFFFFFFFFFFFFF
310
FFFFFFFFFFFFFFFFFFFFFFFFFFFFFFFFFFFFFFFFFFFFFFFFFFFFFFFFFFFFFFFF
310
FFFFFFFFFFFFFFFFFFFFFFFFFFFFFFFFFFFFFFFFFFFFFFFFFFFFFFFFFFFFFFFF
310
FFFFFFFFFFFFFFFFFFFFFFFFFFFFFFFFFFFFFFFFFFFFFFFFFFFFFFFFFFFFFFFF
310
FFFFFFFFFFFFFFFFFFFFFFFFFFFFFFFFFFFFFFFFFFFFFFFFFFFFFFFFFFFFFFFF
310
FFFFFFFFFFFFFFFFFFFFFFFFFFFFFFFFFFFFFFFFFFFFFFFFFFFFFFFFFFFFFFFF
310
52006F006F007400200045006E00740072007900000000000000000000000000
310
0000000000000000000000000000000000000000000000000000000000000000
310
16000500FFFFFFFFFFFFFFFF020000000A00030000000000C000000000000046
310
000000000000000000000000301A633EF022CD0103000000C000000000000000
310
01004F006C006500000000000000000000000000000000000000000000000000
310
0000000000000000000000000000000000000000000000000000000000000000
310
0A000200FFFFFFFFFFFFFFFFFFFFFFFF00000000000000000000000000000000
310
0000000000000000000000000000000000000000000000001400000000000000
310
010043006F006D0070004F0062006A0000000000000000000000000000000000
310
0000000000000000000000000000000000000000000000000000000000000000
310
120002010100000003000000FFFFFFFF00000000000000000000000000000000
310
0000000000000000000000000000000000000000010000004D00000000000000
310
01004F006C006500310030004E00610074006900760065000000000000000000
310
0000000000000000000000000000000000000000000000000000000000000000
310
1A000200FFFFFFFFFFFFFFFFFFFFFFFF00000000000000000000000000000000
310
0000000000000000000000000000000000000000040000002426000000000000
310
FEFFFFFF02000000FEFFFFFFFFFFFFFFFFFFFFFFFFFFFFFFFFFFFFFFFFFFFFFF
310
FFFFFFFFFFFFFFFFFFFFFFFFFFFFFFFFFFFFFFFFFFFFFFFFFFFFFFFFFFFFFFFF
310
FFFFFFFFFFFFFFFFFFFFFFFFFFFFFFFFFFFFFFFFFFFFFFFFFFFFFFFFFFFFFFFF
310
FFFFFFFFFFFFFFFFFFFFFFFFFFFFFFFFFFFFFFFFFFFFFFFFFFFFFFFFFFFFFFFF
310
FFFFFFFFFFFFFFFFFFFFFFFFFFFFFFFFFFFFFFFFFFFFFFFFFFFFFFFFFFFFFFFF
310
FFFFFFFFFFFFFFFFFFFFFFFFFFFFFFFFFFFFFFFFFFFFFFFFFFFFFFFFFFFFFFFF
310
FFFFFFFFFFFFFFFFFFFFFFFFFFFFFFFFFFFFFFFFFFFFFFFFFFFFFFFFFFFFFFFF
310
FFFFFFFFFFFFFFFFFFFFFFFFFFFFFFFFFFFFFFFFFFFFFFFFFFFFFFFFFFFFFFFF
310
FFFFFFFFFFFFFFFFFFFFFFFFFFFFFFFFFFFFFFFFFFFFFFFFFFFFFFFFFFFFFFFF
310
FFFFFFFFFFFFFFFFFFFFFFFFFFFFFFFFFFFFFFFFFFFFFFFFFFFFFFFFFFFFFFFF
310
FFFFFFFFFFFFFFFFFFFFFFFFFFFFFFFFFFFFFFFFFFFFFFFFFFFFFFFFFFFFFFFF
310
FFFFFFFFFFFFFFFFFFFFFFFFFFFFFFFFFFFFFFFFFFFFFFFFFFFFFFFFFFFFFFFF
310
FFFFFFFFFFFFFFFFFFFFFFFFFFFFFFFFFFFFFFFFFFFFFFFFFFFFFFFFFFFFFFFF
310
FFFFFFFFFFFFFFFFFFFFFFFFFFFFFFFFFFFFFFFFFFFFFFFFFFFFFFFFFFFFFFFF
310
FFFFFFFFFFFFFFFFFFFFFFFFFFFFFFFFFFFFFFFFFFFFFFFFFFFFFFFFFFFFFFFF
310
FFFFFFFFFFFFFFFFFFFFFFFFFFFFFFFFFFFFFFFFFFFFFFFFFFFFFFFFFFFFFFFF
310
0100000200000000000000000000000000000000000000000000000000000000
310
0000000000000000000000000000000000000000000000000000000000000000
310
0100FEFF030A0000FFFFFFFF0A00030000000000C00000000000004607000000
310
5042727573680007000000504272757368000700000050427275736800F439B2
310
7100000000000000000000000000000000000000000000000000000000000000
310
0000000000000000000000000000000000000000000000000000000000000000
310
0000000000000000000000000000000000000000000000000000000000000000
310
0000000000000000000000000000000000000000000000000000000000000000
310
0000000000000000000000000000000000000000000000000000000000000000
310
0000000000000000000000000000000000000000000000000000000000000000
310
0000000000000000000000000000000000000000000000000000000000000000
310
0000000000000000000000000000000000000000000000000000000000000000
310
0000000000000000000000000000000000000000000000000000000000000000
310
0000000000000000000000000000000000000000000000000000000000000000
310
0000000000000000000000000000000000000000000000000000000000000000
310
0000000000000000000000000000000000000000000000000000000000000000
310
20260000424D0E260000000000003E00000028000000B40200006E0000000100
310
01000000000000000000130B0000130B00000200000002000000000000FFFFFF
310
FFFFFFFFFFFFFFFFFFFFFFFFFFFFFFFFFFFFFFFFFFFFFFFFFFFFFFFFFFFFFFFF
310
FFFFFFFFFFFFFFFFFFFFFFFFFFFFFFFFFFFFFFFFFFFFFFFFFFFFFFFFFFFFFFFF
310
FFFFFFFFFFFFFFFFFFFFFFFFFFFFFFFFFFFFFFFFFFFFFFFFF000FFFFFFFFFFFF
310
FFFFFFFFFFFFFFFFFFFFFFFFFFFFFFFFFFFFFFFFFFFFFFFFFFFFFFFFFFFFFFFF
310
FFFFFFFFFFFFFFFFFFFFFFFFFFFFFFFFFFFFFFFFFFFFFFFFFFFFFFFFFFFFFFFF
310
FFFFFFFFFFFFFFFFFFFFFFFFFFFFFFFFF000FFFFFFFFFFFFFFFFFFFFFFFFFFFF
310
FFFFFFFFFFFFFFFFFFFFFFFFFFFFFFFFFFFFFFFFFFFFFFFFFFFFFFFFFFFFFFFF
310
FFFFFFFFFFFFFFFFFFFFFFFFFFFFFFFFFFFFFFFFFFFFFFFFFFFFFFFFFFFFFFFF
310
FFFFFFFFFFFFFFFFF000FFFFFFFFFFFFFFFFFFFFFFFFFFFFFFFFFFFFFFFFFFFF
310
FFFFFFFFFFFFFFFFFFFFFFFFFFFFFFFFFFFFFFFFFFFFFFFFFFFFFFFFFFFFFFFF
310
FFFFFFFFFFFFFFFFFFFFFFFFFFFFFFFFFFFFFFFFFFFFFFFFFFFFFFFFFFFFFFFF
310
F000FFFFFFFFFFFFFFFFFFFFFFFFFFFFFFFFFFFFFFFFFFFFFFFFFFFFFFFFFFFF
310
FFFFFFFFFFFFFFFFFFFFFFFFFFFFFFFFFFFFFFFFFFFFFFFFFFFFFFFFFFFFFFFF
310
FFFFFFFFFFFFFFFFFFFFFFFFFFFFFFFFFFFFFFFFFFFFFFFFF000FFFFFFFFFFFF
310
FFFFFFFFFFFFFFFFFFFFFFFFFFFFFFFFFFFFFFFFFFFFFFFFFFFFFFFFFFFFFFFF
310
FFFFFFFFFFFFFFFFFFFFFFFFFFFFFFFFFFFFFFFFFFFFFFFFFFFFFFFFFFFFFFFF
310
FFFFFFFFFFFFFFFFFFFFFFFFFFFFFFFFF000FFFFFFFFFFFFFFFFFFFFFFFFFFFF
310
FFFFFFFFFFFFFFFFFFFFFFFFFFFFFFFFFFFFFFFFFFFFFFFFFFFFFFFFFFFFFFFF
310
FFFFFFFFFFFFFFFFFFFFFFFFFFFFFFFFFFFFFFFFFFFFFFFFFFFFFFFFFFFFFFFF
310
FFFFFFFFFFFFFFFFF000FFFFFFFFFFFFFFFFFFFFFFFFFFFFFFFFFFFFFFFFFFFF
310
FFFFFFFFFFFFFFFFFFFFFFFFFFFFFFFFFFFFFFFFFFFFFFFFFFFFFFFFFFFFFFFF
310
FFFFFFFFFFFFFFFFFFFFFFFFFFFFFFFFFFFFFFFFFFFFFFFFFFFFFFFFFFFFFFFF
310
F000FFFFFFFFFFFFFFFFFFFFFFFFFFFFFFFFFFFFFFFFFFFFFFFFFFFFFFFFFFFF
310
FFFFFFFFFFFFFFFFFFFFFFFFFFFFFFFFFFFFFFFFFFFFFFFFFFFFFFFFFFFFFFFF
310
FFFFFFFFFFFFFFFFFFFFFFFFFFFFFFFFFFFFFFFFFFFFFFFFF000FFFFFFFFFFFF
310
FFFFFFFFFFFFFFFFFFFFFFFFFFFFFFFFFFFFFFFFFFFFFFFFFFFFFFFFFFFFFFFF
310
FFFFFFFFFFFFFFFFFFFFFFFFFFFFFFFFFFFFFFFFFFFFFFFFFFFFFFFFFFFFFFFF
310
FFFFFFFFFFFFFFFFFFFFFFFFFFFFFFFFF000FFFFFFFFFFFFFFFFFFFFFFFFFFFF
310
FFFFFFFFFFFFFFFFFFFFFFFFFFFFFFFFFFFFFFFFFFFFFFFFFFFFFFFFFFFFFFFF
310
FFFFFFFFFFFFFFFFFFFFFFFFFFFFFFFFFFFFFFFFFFFFFFFFFFFFFFFFFFFFFFFF
310
FFFFFFFFFFFFFFFFF000FFFFFFFFFFFFFFFFFFFFFFFFFFFFFFFFFFFFFFFFFFFF
310
FFFFFFFFFFFFFFFFFFFFFFFFFFFFFFFFFFFFFFFFFFFFFFFFFFFFFFFFFFFFFFFF
310
FFFFFFFFFFFFFFFFFFFFFFFFFFFFFFFFFFFFFFFFFFFFFFFFFFFFFFFFFFFFFFFF
310
F000FFFFFFFFFFFFFFFFFFFFFFFFFFFFFFFFFFFFFFFFFFFFFFFFFFFFFFFFFFFF
310
FFFFFFFFFFFFFFFFFFFFFFFFFFFFFFFFFFFFFFFFFFFFFFFFFFFFFFFFFFFFFFFF
310
FFFFFFFFFFFFFFFFFFFFFFFFFFFFFFFFFFFFFFFFFFFFFFFFF000FFFFFFFFFFFF
310
FFFFFFFFFFFFFFFFFFFFFFFFFFFFFFFFFFFFFFFFFFFFFFFFFFFFFFFFFFFFFFFF
310
FFFFFFFFFFFFFFFFFFFFFFFFFFFFFFFFFFFFFFFFFFFFFFFFFFFFFFFFFFFFFFFF
310
FFFFFFFFFFFFFFFFFFFFFFFFFFFFFFFFF000FFFFFFFFFFFFFFFFFFFFFFFFFFFF
310
FFFFFFFFFFFFFFFFFFFFFFFFFFFFFFFFFFFFFFFFFFFFFFFFFFFFFFFFFFFFFFFF
310
FFFFFFFFFFFFFFFFFFFFFFFFFFFFFFFFFFFFFFFFFFFFFFFFFFFFFFFFFFFFFFFF
310
FFFFFFFFFFFFFFFFF000FFFFFFFFFFFFFFFFFFFFFFFFFFFFFFFFFFFFFFFFFFFF
310
FFFFFFFFFFFFFFFFFFFFFFFFFFFFFFFFFFFFFFFFFFFFFFFFFFFFFFFFFFFFFFFF
310
FFFFFFFFFFFFFFFFFFFFFFFFFFFFFFFFFFFFFFFFFFFFFFFFFFFFFFFFFFFFFFFF
310
F000FFFFFFFFFFFFFFFFFFFFFFFFFFFFFFFFFFFFFFFFFFFFFFFFFFFFFFFFFFFF
310
FFFFFFFFFFFFFFFFFFFFFFFFFFFFFFFFFFFFFFFFFFFFFFFFFFFFFFFFFFFFFFFF
310
FFFFFFFFFFFFFFFFFFFFFFFFFFFFFFFFFFFFFFFFFFFFFFFFF000FFFFFFFFFFFF
310
FFFFFFFFFFFFFFFFFFFFFFFFFFFFFFFFFFFFFFFFFFFFFFFFFFFFFFFFFFFFFFFF
310
FFFFFFFFFFFFFFFFFFFFFFFFFFFFFFFFFFFFFFFFFFFFFFFFFFFFFFFFFFFFFFFF
310
FFFFFFFFFFFFFFFFFFFFFFFFFFFFFFFFF000FFFFFFFFFFFFFFFFFFFFFFFFFFFF
310
FFFFFFFFFFFFFFFFFFFFFFFFFFFFFFFFFFFFFFFFFFFFFFFFFFFFFFFFFFFFFFFF
310
FFFFFFFFFFFFFFFFFFFFFFFFFFFFFFFFFFFFFFFFFFFFFFFFFFFFFFFFFFFFFFFF
310
FFFFFFFFFFFFFFFFF000FFFFF80003FFFFFFFFFFFFFFFFFFFFFFFFFFFFFFFFFF
310
FFFFF00007FFFFFFFFFF00007FFFFFF800000000000000007FFFFFFFFFFFFFFF
310
FFFFFFFC001FFFFFFFFFFFFFFC001FFFFFFFFFFFFFFFFFFFFFFFFFFE0007FFFF
310
F000FFFF8000007FFFFFFFF8000FFFFFC0007FFFFF80007FFFFF0000007FFFFF
310
FFF8000007FFFFF800000000000000007FFFFFF0001FFFFFFFFFFFC00001FFFF
310
FFFFFFFFC00001FFFFFFFF000000000003FFFFE000007FFFF000FFFE0000000F
310
FFFFFFF0000FFFFF80007FFFFF80007FFFFC0000001FFFFFFFC0000001FFFFF8
310
00000000000000007FFFFFF0001FFFFFFFFFFE0000003FFFFFFFFFFE0000003F
310
FFFFFF000000000003FFFF0000000FFFF000FFF800000003FFFFFFF00007FFFF
310
80007FFFFF80007FFFF000000007FFFFFF000000003FFFF80000000000000000
310
7FFFFFF0001FFFFFFFFFF80000000FFFFFFFFFF80000000FFFFFFF0000000000
310
03FFFC00000003FFF000FFE000000000FFFFFFF00007FFFF80003FFFFF80007F
310
FFC000000001FFFFFC000000001FFFF800000000000000007FFFFFF0001FFFFF
310
FFFFE000000003FFFFFFFFE000000003FFFFFF000000000003FFF000000000FF
310
F000FF80000000007FFFFFF00007FFFF80003FFFFF80007FFF8000000000FFFF
310
F80000000007FFF800000000000000007FFFFFF0001FFFFFFFFFC000000001FF
310
FFFFFFC000000001FFFFFF000000000003FFC0000000007FF000FF0000000000
310
3FFFFFE00007FFFF00003FFFFF80007FFE00000000003FFFF00000000003FFF8
310
00000000000000007FFFFFF0001FFFFFFFFF8000000000FFFFFFFF8000000000
310
FFFFFF000000000003FF80000000003FF000FE00000000001FFFFFE00003FFFF
310
00003FFFFF80007FFC00000000001FFFE00000000001FFF8000001FFFE000000
310
7FFFFFF0001FFFFFFFFE00000000003FFFFFFE00000000003FFFFF0000000000
310
03FF00000000001FF000FC00000000000FFFFFE00003FFFF00001FFFFF80007F
310
F800000000001FFFC00000000000FFF8000001FFFE0000007FFFFFF0001FFFFF
310
FFFC00000000001FFFFFFC00000000001FFFFF000000000003FE00000000000F
310
F000F8000000000007FFFFE00003FFFF00001FFFFF80007FF800000000000FFF
310
800000000000FFF8000001FFFE0000007FFFFFF0001FFFFFFFF800000000000F
310
FFFFF800000000000FFFFF000000000003FC000000000007F000F80000000000
310
03FFFFC00003FFFE00001FFFFF80007FF0000000000007FF0000000000007FF8
310
000001FFFE0000007FFFFFF0001FFFFFFFF0000000000007FFFFF00000000000
310
07FFFF000000000003F8000000000003F000F0000000000003FFFFC00001FFFE
310
00001FFFFF80007FE0000000000007FE0000000000003FF8000001FFFE000000
310
7FFFFFF0001FFFFFFFF0000000000007FFFFF0000000000007FFFF0000000000
310
03F800001F800003F000E00001FFF00001FFFFC00001FFFE00000FFFFF80007F
310
E00001FFE00003FE00001FFF00003FF8000001FFFE0000007FFFFFF0001FFFFF
310
FFE000003E000003FFFFE000003E000003FFFF000000000003F00001FFF80001
310
F000E00007FFFC0001FFFFC00001FFFE00000FFFFF80007FC0000FFFFC0003FC
310
0000FFFFC0001FF8000001FFFE0000007FFFFFF0001FFFFFFFC00003FFE00001
310
FFFFC00003FFE00001FFFF0001FFFFFFFFF00007FFFE0001F000E0000FFFFF00
310
00FFFF800001FFFC00000FFFFF80007FC0001FFFFE0001FC0001FFFFE0001FF8
310
000001FFFE0000007FFFFFF0001FFFFFFF80000FFFF80000FFFF80000FFFF800
310
00FFFF0003FFFFFFFFE0000FFFFF8000F000C0003FFFFF8000FFFF800000FFFC
310
000007FFFF80007F80003FFFFF0001FC0003FFFFF0001FF8000001FFFE000000
310
7FFFFFF0001FFFFFFF80003FFFFE0000FFFF80003FFFFE0000FFFF0003FFFFFF
310
FFE0003FFFFF8000F000C0003FFFFF8000FFFF800000FFFC000007FFFF80007F
310
80007FFFFF8001F80007FFFFF8000FF8000001FFFE0000007FFFFFF0001FFFFF
310
FF00007FFFFF00007FFF00007FFFFF00007FFF0003FFFFFFFFE0003FFFFFC000
310
F000C0007FFFFFC000FFFF000000FFFC000007FFFF80007F8000FFFFFF8000F8
310
000FFFFFF8000FF8000001FFFE0000007FFFFFF0001FFFFFFF0000FFFFFF8000
310
7FFF0000FFFFFF80007FFF0003FFFFFFFFC0007FFFFFC00070008000FFFFFFC0
310
00FFFF000000FFF8000007FFFF80007F8000FFFFFF8000F8000FFFFFF8000FF8
310
000001FFFE0000007FFFFFF0001FFFFFFE0001FFFFFFC0003FFE0001FFFFFFC0
310
003FFF0003FFFFFFFFC0007FFFFFE00070008000FFFFFFC0007FFF0000007FF8
310
000003FFFF80007F0001FFFFFF8000F8000FFFFFF8000FF8000001FFFE000000
310
7FFFFFF0001FFFFFFE0001FFFFFFC0003FFE0001FFFFFFC0003FFF0003FFFFFF
310
FFC000FFFFFFE00070008000FFFFFFC0007FFF0000007FF8000003FFFF80007F
310
0001FFFFFF8000F8001FFFFFF8000FF8000001FFFE0000007FFFFFF0001FFFFF
310
FE0003FFFFFFE0003FFE0003FFFFFFE0003FFF0003FFFFFFFFC000FFFFFFE000
310
70008000FFFFFFC0007FFE0000007FF8000003FFFF80007F0001FFFFFF8000F0
310
001FFFFFF8000FF8000001FFFE0000007FFFFFF0001FFFFFFC0003FFFFFFE000
310
1FFC0003FFFFFFE0001FFF0003FFFFFFFFC000FFFFFFC00070008000FFFFFF80
310
007FFE0000007FF0000003FFFF80007F0001FFFFFF0000F0001FFFFFF8000FF8
310
000001FFFE0000007FFFFFF0001FFFFFFC0007FFFFFFF0001FFC0007FFFFFFF0
310
001FFF0003FFFFFFFFC000FFFFFFC00070008001FFFFFF0000FFFE0000003FF0
310
000001FFFF80007F0001FFFFFF0000F8001FFFFFF0000FF8000001FFFE000000
310
7FFFFFF0001FFFFFFC0007FFFFFFF0001FFC0007FFFFFFF0001FFF0003FFFFFF
310
FFC001FFFFFF80007000FFFFFFFFFE0000FFFE0008003FF0008001FFFF80007F
310
FFFFFFFFFC0000FFFFFFFFFFE0000FF8000001FFFE0000007FFFFFF0001FFFFF
310
F8000FFFFFFFF8000FF8000FFFFFFFF8000FFF0003FFFFFFFFFFFFFFFFFF0000
310
7000FFFFFFFFFC0000FFFC0008003FF0008001FFFF80007FFFFFFFFFF80001FF
310
FFFFFFFF80000FF8000001FFFE0000007FFFFFF0001FFFFFF8000FFFFFFFF800
310
0FF8000FFFFFFFF8000FFF0003FFFFFFFFFFFFFFFFFE0000F000FFFFFFFFE000
310
00FFFC000C003FE000C001FFFF80007FFFFFFFFFC00001FFFFFFFFFE00001FF8
310
000001FFFE0000007FFFFFF0001FFFFFF8000FFFFFFFF8000FF8000FFFFFFFF8
310
000FFF0003FFFFFFFFFFFFFFFFF00000F000FFFFFFFE000001FFFC000C001FE0
310
00C000FFFF80007FFFFFFFFE000001FFFFFFFFE000001FF80FFFFFFFFFFFFFC0
310
7FFFFFF0001FFFFFF8000FFFFFFFF8000FF8000FFFFFFFF8000FFF0003FFFFFF
310
FFFFFFFFFF800000F000FFFFFFC0000001FFFC001C001FE001C000FFFF80007F
310
FFFFFF80000003FFFFFFF80000001FF80FFFFFFFFFFFFFC07FFFFFF0001FFFFF
310
F8001FFFFFFFFC000FF8001FFFFFFFFC000FFF0003FFFFFFFFFFFFFFF0000001
310
F000FFFFF800000001FFF8001C001FE001C000FFFF80007FFFFFF800000003FF
310
FFFF800000003FF80FFFFFFFFFFFFFC07FFFFFF0001FFFFFF8001FFFFFFFFC00
310
0FF8001FFFFFFFFC000FFF0003FFFFFFFFFFFFFE00000001F000FFFFC0000000
310
03FFF8001E001FC001E000FFFF80007FFFFF8000000007FFFFFC000000003FF8
310
0FFFFFFFFFFFFFC07FFFFFF0001FFFFFF8001FFFFFFFFC000FF8001FFFFFFFFC
310
000FFF0003FFFFFFFFFFFFE000000003F000FFFE0000000007FFF8001E000FC0
310
01E0007FFF80007FFFFE0000000007FFFFE0000000007FF80FFFFFFFFFFFFFC0
310
7FFFFFF0001FFFFFF0001FFFFFFFFC0007F0001FFFFFFFFC0007FF0003FFFFFF
310
FFFFFF0000000003F000FFF80000000007FFF8001E000FC003E0007FFF80007F
310
FFF0000000000FFFFF8000000000FFF80FFFFFFFFFFFFFC07FFFFFF0001FFFFF
310
F0001FFFFFFFFC0007F0001FFFFFFFFC0007FF0003FFFFFFFFFFFC0000000007
310
F000FFE0000000000FFFF0003E000FC003E0007FFF80007FFFC0000000001FFF
310
FE0000000001FFF80FFFFFFFFFFFFFC07FFFFFF0001FFFFFF0001FFFFFFFFC00
310
07F0001FFFFFFFFC0007FF0003FFFFFFFFFFF0000000000FF000FFC000000000
310
1FFFF0003F000F8003F0003FFF80007FFF80000000003FFFF80000000003FFF8
310
0FFFFFFFFFFFFFC07FFFFFF0001FFFFFF0001FFFFFFFFC0007F0001FFFFFFFFC
310
0007FF0003FFFFFFFFFFE0000000001FF000FF00000000007FFFF0003F000780
310
03F0003FFF80007FFF00000000007FFFF00000000007FFF80FFFFFFFFFFFFFC0
310
7FFFFFF0001FFFFFF0001FFFFFFFFC0007F0001FFFFFFFFC0007FF0003FFFFFF
310
FFFF80000000007FF000FE0000000000FFFFE0003F00078007F0003FFF80007F
310
FE0000000001FFFFE0000000001FFFF80FFFFFFFFFFFFFC07FFFFFF0001FFFFF
310
F0001FFFFFFFFC0007F0001FFFFFFFFC0007FF0003FFFFFFFFFF0000000000FF
310
F000FC0000000003FFFFE0007F00078007F0003FFF80007FFC0000000007FFFF
310
C0000000007FFFF80FFFFFFFFFFFFFC07FFFFFF0001FFFFFF8001FFFFFFFFC00
310
0FF8001FFFFFFFFC000FFF0003FFFFFFFFFE0000000003FFF000FC000000000F
310
FFFFE0007F80070007F8001FFF80007FF8000000001FFFFF8000000001FFFFF8
310
0FFFFFFFFFFFFFC07FFFFFF0001FFFFFF8001FFFFFFFFC000FF8001FFFFFFFFC
310
000FFF0003FFFFFFFFFC000000000FFFF000F8000000007FFFFFE0007F800700
310
07F8001FFF80007FF000000000FFFFFF800000000FFFFFF80FFFFFFFFFFFFFC0
310
7FFFFFF0001FFFFFF8000FFFFFFFF8000FF8000FFFFFFFF8000FFF0003FFFFFF
310
FFFC000000007FFFF000F800000007FFFFFFC0007F8003000FF8001FFF80007F
310
F000000007FFFFFF000000007FFFFFF80FFFFFFFFFFFFFC07FFFFFF0001FFFFF
310
F8000FFFFFFFF8000FF8000FFFFFFFF8000FFF0003FFFFFFFFF80000000FFFFF
310
F000F0000000FFFFFFFFC000FF8003000FF8001FFF80007FE0000000FFFFFFFF
310
0000000FFFFFFFF8000001FFFE0000007FFFFFF0001FFFFFF8000FFFFFFFF800
310
0FF8000FFFFFFFF8000FFF0003FFFFFFFFF8000000FFFFFFF000F000000FFFFF
310
FFFFC000FFC002000FF8000FFF80007FE000001FFFFFFFFE000001FFFFFFFFF8
310
000001FFFE0000007FFFFFF0001FFFFFF8000FFFFFFFF8000FF8000FFFFFFFF8
310
000FFF0003FFFFFFFFF000001FFFFFFFF000E00000FFFFFFFFFFC000FFC00200
310
0FFC000FFF80007FE00001FFFFFFFFFE00001FFFFFFFFFF8000001FFFE000000
310
7FFFFFF0001FFFFFFC000FFFFFFFF8001FFC000FFFFFFFF8001FFF0003FFFFFF
310
FFF00001FFFFFFFFF000E00007FFFFFFFFFF8000FFC000001FFC000FFF80007F
310
C0000FFFFFFFFFFE0000FFFFFFFFFFF8000001FFFE0000007FFFFFF0001FFFFF
310
FC0007FFFFFFF0001FFC0007FFFFFFF0001FFF0003FFFFFFFFF00007FFFFFFFF
310
F000E0001FFFFFFFFFFF8000FFC000001FFC000FFF80007FC0003FFFFFFFFFFE
310
0001FFFFFFFFFFF8000001FFFE0000007FFFFFF0001FFFFFFC0007FFFFFFF000
310
1FFC0007FFFFFFF0001FFF0003FFFFFFFFF0001FFFFFFFFFF000E0003FFFFF00
310
03FF8001FFE000001FFC0007FF80007FC0007FFFFF0007FC0003FFFFF0003FF8
310
000001FFFE0000007FFFFFF0001FFFFFFC0003FFFFFFE0001FFC0003FFFFFFE0
310
001FFF0003FFFFFFFFF0003FFFFFFFFFF000E0003FFFFF0001FF8001FFE00000
310
1FFE0007FF80007FC0007FFFFE0003FC0007FFFFE0003FF8000001FFFE000000
310
7FFFFFF0001FFFFFFE0003FFFFFFE0003FFE0003FFFFFFE0003FFF0003FFFFFF
310
FFF0003FFFFF8001F000E0003FFFFF0001FF0001FFE000001FFE0007FF80007F
310
C0007FFFFE0003FC0007FFFFE0003FF8000001FFFE0000007FFFFFF0001FFFFF
310
FE0001FFFFFFC0003FFE0001FFFFFFC0003FFF0003FFFFFFFFF0003FFFFF0001
310
F000E0003FFFFF0003FF0001FFE000003FFE0007FF80007FC0007FFFFE0003FC
310
0007FFFFE0003FF8000001FFFE0000007FFFFFF0001FFFFFFF0001FFFFFFC000
310
7FFF0001FFFFFFC0007FFF0003FFFFFFFFF0003FFFFF0001F000E0003FFFFE00
310
03FF0003FFF000003FFE0003FF80007FC0007FFFFC0003FE0007FFFFE0003FF8
310
000001FFFE0000007FFFFFF0001FFFFFFF0000FFFFFF80007FFF0000FFFFFF80
310
007FFF0003FFFFFFFFF0003FFFFF0001F000E0003FFFFE0003FF0003FFF00000
310
3FFF0003FF80007FC0007FFFFC0007FE0007FFFFC0003FF8000001FFFE000000
310
7FFFFFF0001FFFFFFF80007FFFFF0000FFFF80007FFFFF0000FFFF0003FFFFFF
310
FFF0003FFFFF0003F000E0003FFFFC0003FE0003FFF000003FFF0003FF80007F
310
E0003FFFF80007FE0003FFFFC0007FF8000001FFFE0000007FFFFFF0001FFFFF
310
FF80003FFFFE0000FFFF80003FFFFE0000FFFF0003FFFFFFFFF0001FFFFE0003
310
F000F0001FFFF80003FE0003FFF000007FFF0001FF80007FE0003FFFF00007FE
310
0001FFFF80007FF8000001FFFE0000007FFFFFF0001FFFFFFFC0000FFFF80001
310
FFFFC0000FFFF80001FFFF0003FFFFFFFFF0001FFFFC0003F000F0000FFFF000
310
07FE0007FFF800007FFF0001FF80007FE0001FFFE00007FF0000FFFE00007FF8
310
000001FFFE0000007FFFFFF0001FFFFFFFC00003FFE00001FFFFC00003FFE000
310
01FFFF0003FFFFFFFFF8000FFFF80003F000F00003FFC00007FC0007FFF80000
310
7FFF8001FF80007FF00007FF80000FFF00007FF80000FFF8000001FFFE000000
310
7F80000000000001FFE000003E000003FFFFE000003E000003FFFF0003FFFFFF
310
FFF80003FFE00007F000F800000000000FFC0007FFF800007FFF8001FF80007F
310
F000000000000FFF000000000000FFF8000001FFFE0000007F80000000000001
310
FFF0000000000007FFFFF0000000000007FFFF0003FFFFFFFFFC00007E000007
310
F000F800000000000FFC0007FFF80000FFFF8000FF80007FF800000000001FFF
310
800000000001FFF8000001FFFE0000007F80000000000001FFF800000000000F
310
FFFFF800000000000FFFFF0003FFFFFFFFFC00000000000FF000FC0000000000
310
1FFC0007FFFC0000FFFF8000FF80007FF800000000003FFFC00000000001FFF8
310
000001FFFE0000007F80000000000001FFF800000000000FFFFFF80000000000
310
0FFFFF0003FFFFFFFFFE00000000001FF000FE00000000003FF8000FFFFC0000
310
FFFF8000FF80007FFC00000000003FFFC00000000003FFF8000001FFFE000000
310
7F80000000000001FFFC00000000001FFFFFFC00000000001FFFFF0003FFFFFF
310
FFFF00000000001FF000FF00000000003FF8000FFFFC0000FFFFC000FF80007F
310
FE00000000007FFFE00000000007FFF8000001FFFE0000007F80000000000001
310
FFFE00000000003FFFFFFE00000000003FFFFF0003FFFFFFFFFF80000000003F
310
F000FF80000000007FF8000FFFFC0001FFFFC0007F80007FFF0000000000FFFF
310
F0000000000FFFF800000000000000007F80000000000001FFFF8000000000FF
310
FFFFFF8000000000FFFFFF0003FFFFFFFFFFC0000000007FF000FFC000000000
310
FFF8000FFFFE0001FFFFC0007F80007FFF8000000001FFFFF8000000001FFFF8
310
00000000000000007F80000000000001FFFFC000000001FFFFFFFFC000000001
310
FFFFFF0003FFFFFFFFFFE000000000FFF000FFE000000003FFF0001FFFFE0001
310
FFFFC0007F80007FFFC000000007FFFFFE000000003FFFF80000000000000000
310
7F80000000000001FFFFE000000003FFFFFFFFE000000003FFFFFF0003FFFFFF
310
FFFFF000000003FFF000FFF80000000FFFF0001FFFFE0001FFFFE0007F80007F
310
FFF00000000FFFFFFF00000000FFFFF800000000000000007F80000000000001
310
FFFFF80000000FFFFFFFFFF80000000FFFFFFF0003FFFFFFFFFFFC0000000FFF
310
F000FFFE0000003FFFF0001FFFFE0003FFFFE0003F80007FFFFC0000003FFFFF
310
FFC0000003FFFFF800000000000000007F80000000000001FFFFFE0000003FFF
310
FFFFFFFE0000003FFFFFFF0003FFFFFFFFFFFF0000003FFFF000FFFF800000FF
310
FFF0001FFFFF0003FFFFE0003F80007FFFFF000001FFFFFFFFF800001FFFFFF8
310
00000000000000007F80000000000001FFFFFFC00001FFFFFFFFFFFFC00001FF
310
FFFFFF0003FFFFFFFFFFFFC00000FFFFF000FFFFF8000FFFFFFFFFFFFFFFFFFF
310
FFFFFFFFFFFFFFFFFFFFF0001FFFFFFFFFFF0000FFFFFFF80000000000000000
310
7FFFFFFFFFFFFFFFFFFFFFFC001FFFFFFFFFFFFFFC001FFFFFFFFFFFFFFFFFFF
310
FFFFFFFC001FFFFFF000FFFFFFFFFFFFFFFFFFFFFFFFFFFFFFFFFFFFFFFFFFFF
310
FFFFFFFFFFFFFFFFFFFFFFFFFFFFFFFFFFFFFFFFFFFFFFFFFFFFFFFFFFFFFFFF
310
FFFFFFFFFFFFFFFFFFFFFFFFFFFFFFFFFFFFFFFFFFFFFFFFFFFFFFFFFFFFFFFF
310
F000FFFFFFFFFFFFFFFFFFFFFFFFFFFFFFFFFFFFFFFFFFFFFFFFFFFFFFFFFFFF
310
FFFFFFFFFFFFFFFFFFFFFFFFFFFFFFFFFFFFFFFFFFFFFFFFFFFFFFFFFFFFFFFF
310
FFFFFFFFFFFFFFFFFFFFFFFFFFFFFFFFFFFFFFFFFFFFFFFFF000FFFFFFFFFFFF
310
FFFFFFFFFFFFFFFFFFFFFFFFFFFFFFFFFFFFFFFFFFFFFFFFFFFFFFFFFFFFFFFF
310
FFFFFFFFFFFFFFFFFFFFFFFFFFFFFFFFFFFFFFFFFFFFFFFFFFFFFFFFFFFFFFFF
310
FFFFFFFFFFFFFFFFFFFFFFFFFFFFFFFFF000FFFFFFFFFFFFFFFFFFFFFFFFFFFF
310
FFFFFFFFFFFFFFFFFFFFFFFFFFFFFFFFFFFFFFFFFFFFFFFFFFFFFFFFFFFFFFFF
310
FFFFFFFFFFFFFFFFFFFFFFFFFFFFFFFFFFFFFFFFFFFFFFFFFFFFFFFFFFFFFFFF
310
FFFFFFFFFFFFFFFFF000FFFFFFFFFFFFFFFFFFFFFFFFFFFFFFFFFFFFFFFFFFFF
310
FFFFFFFFFFFFFFFFFFFFFFFFFFFFFFFFFFFFFFFFFFFFFFFFFFFFFFFFFFFFFFFF
310
FFFFFFFFFFFFFFFFFFFFFFFFFFFFFFFFFFFFFFFFFFFFFFFFFFFFFFFFFFFFFFFF
310
F000FFFFFFFFFFFFFFFFFFFFFFFFFFFFFFFFFFFFFFFFFFFFFFFFFFFFFFFFFFFF
310
FFFFFFFFFFFFFFFFFFFFFFFFFFFFFFFFFFFFFFFFFFFFFFFFFFFFFFFFFFFFFFFF
310
FFFFFFFFFFFFFFFFFFFFFFFFFFFFFFFFFFFFFFFFFFFFFFFFF000FFFFFFFFFFFF
310
FFFFFFFFFFFFFFFFFFFFFFFFFFFFFFFFFFFFFFFFFFFFFFFFFFFFFFFFFFFFFFFF
310
FFFFFFFFFFFFFFFFFFFFFFFFFFFFFFFFFFFFFFFFFFFFFFFFFFFFFFFFFFFFFFFF
310
FFFFFFFFFFFFFFFFFFFFFFFFFFFFFFFFF000FFFFFFFFFFFFFFFFFFFFFFFFFFFF
310
FFFFFFFFFFFFFFFFFFFFFFFFFFFFFFFFFFFFFFFFFFFFFFFFFFFFFFFFFFFFFFFF
310
FFFFFFFFFFFFFFFFFFFFFFFFFFFFFFFFFFFFFFFFFFFFFFFFFFFFFFFFFFFFFFFF
310
FFFFFFFFFFFFFFFFF000FFFFFFFFFFFFFFFFFFFFFFFFFFFFFFFFFFFFFFFFFFFF
310
FFFFFFFFFFFFFFFFFFFFFFFFFFFFFFFFFFFFFFFFFFFFFFFFFFFFFFFFFFFFFFFF
310
FFFFFFFFFFFFFFFFFFFFFFFFFFFFFFFFFFFFFFFFFFFFFFFFFFFFFFFFFFFFFFFF
310
F000FFFFFFFFFFFFFFFFFFFFFFFFFFFFFFFFFFFFFFFFFFFFFFFFFFFFFFFFFFFF
310
FFFFFFFFFFFFFFFFFFFFFFFFFFFFFFFFFFFFFFFFFFFFFFFFFFFFFFFFFFFFFFFF
310
FFFFFFFFFFFFFFFFFFFFFFFFFFFFFFFFFFFFFFFFFFFFFFFFF000FFFFFFFFFFFF
310
FFFFFFFFFFFFFFFFFFFFFFFFFFFFFFFFFFFFFFFFFFFFFFFFFFFFFFFFFFFFFFFF
310
FFFFFFFFFFFFFFFFFFFFFFFFFFFFFFFFFFFFFFFFFFFFFFFFFFFFFFFFFFFFFFFF
310
FFFFFFFFFFFFFFFFFFFFFFFFFFFFFFFFF000FFFFFFFFFFFFFFFFFFFFFFFFFFFF
310
FFFFFFFFFFFFFFFFFFFFFFFFFFFFFFFFFFFFFFFFFFFFFFFFFFFFFFFFFFFFFFFF
310
FFFFFFFFFFFFFFFFFFFFFFFFFFFFFFFFFFFFFFFFFFFFFFFFFFFFFFFFFFFFFFFF
310
FFFFFFFFFFFFFFFFF000FFFFFFFFFFFFFFFFFFFFFFFFFFFFFFFFFFFFFFFFFFFF
310
FFFFFFFFFFFFFFFFFFFFFFFFFFFFFFFFFFFFFFFFFFFFFFFFFFFFFFFFFFFFFFFF
310
FFFFFFFFFFFFFFFFFFFFFFFFFFFFFFFFFFFFFFFFFFFFFFFFFFFFFFFFFFFFFFFF
310
F000FFFFFFFFFFFFFFFFFFFFFFFFFFFFFFFFFFFFFFFFFFFFFFFFFFFFFFFFFFFF
310
FFFFFFFFFFFFFFFFFFFFFFFFFFFFFFFFFFFFFFFFFFFFFFFFFFFFFFFFFFFFFFFF
310
FFFFFFFFFFFFFFFFFFFFFFFFFFFFFFFFFFFFFFFFFFFFFFFFF000FFFFFFFFFFFF
310
FFFFFFFFFFFFFFFFFFFFFFFFFFFFFFFFFFFFFFFFFFFFFFFFFFFFFFFFFFFFFFFF
310
FFFFFFFFFFFFFFFFFFFFFFFFFFFFFFFFFFFFFFFFFFFFFFFFFFFFFFFFFFFFFFFF
310
FFFFFFFFFFFFFFFFFFFFFFFFFFFFFFFFF000FFFFFFFFFFFFFFFFFFFFFFFFFFFF
310
FFFFFFFFFFFFFFFFFFFFFFFFFFFFFFFFFFFFFFFFFFFFFFFFFFFFFFFFFFFFFFFF
310
FFFFFFFFFFFFFFFFFFFFFFFFFFFFFFFFFFFFFFFFFFFFFFFFFFFFFFFFFFFFFFFF
310
FFFFFFFFFFFFFFFFF000FFFFFFFFFFFFFFFFFFFFFFFFFFFFFFFFFFFFFFFFFFFF
310
FFFFFFFFFFFFFFFFFFFFFFFFFFFFFFFFFFFFFFFFFFFFFFFFFFFFFFFFFFFFFFFF
310
FFFFFFFFFFFFFFFFFFFFFFFFFFFFFFFFFFFFFFFFFFFFFFFFFFFFFFFFFFFFFFFF
310
F000FFFFFFFFFFFFFFFFFFFFFFFFFFFFFFFFFFFFFFFFFFFFFFFFFFFFFFFFFFFF
310
FFFFFFFFFFFFFFFFFFFFFFFFFFFFFFFFFFFFFFFFFFFFFFFFFFFFFFFFFFFFFFFF
310
FFFFFFFFFFFFFFFFFFFFFFFFFFFFFFFFFFFFFFFFFFFFFFFFF000FFFFFFFFFFFF
310
FFFFFFFFFFFFFFFFFFFFFFFFFFFFFFFFFFFFFFFFFFFFFFFFFFFFFFFFFFFFFFFF
310
FFFFFFFFFFFFFFFFFFFFFFFFFFFFFFFFFFFFFFFFFFFFFFFFFFFFFFFFFFFFFFFF
310
FFFFFFFFFFFFFFFFFFFFFFFFFFFFFFFFF000FFFFFFFFFFFFFFFFFFFFFFFFFFFF
310
FFFFFFFFFFFFFFFFFFFFFFFFFFFFFFFFFFFFFFFFFFFFFFFFFFFFFFFFFFFFFFFF
310
FFFFFFFFFFFFFFFFFFFFFFFFFFFFFFFFFFFFFFFFFFFFFFFFFFFFFFFFFFFFFFFF
310
FFFFFFFFFFFFFFFFF000FFFFFFFFFFFFFFFFFFFFFFFFFFFFFFFFFFFFFFFFFFFF
310
FFFFFFFFFFFFFFFFFFFFFFFFFFFFFFFFFFFFFFFFFFFFFFFFFFFFFFFFFFFFFFFF
310
FFFFFFFFFFFFFFFFFFFFFFFFFFFFFFFFFFFFFFFFFFFFFFFFFFFFFFFFFFFFFFFF
310
F000FFFFFFFFFFFFFFFFFFFFFFFFFFFFFFFFFFFFFFFFFFFFFFFFFFFFFFFFFFFF
310
FFFFFFFFFFFFFFFFFFFFFFFFFFFFFFFFFFFFFFFFFFFFFFFFFFFFFFFFFFFFFFFF
310
FFFFFFFFFFFFFFFFFFFFFFFFFFFFFFFFFFFFFFFFFFFFFFFFF000FFFFFFFFFFFF
310
FFFFFFFFFFFFFFFFFFFFFFFFFFFFFFFFFFFFFFFFFFFFFFFFFFFFFFFFFFFFFFFF
310
FFFFFFFFFFFFFFFFFFFFFFFFFFFFFFFFFFFFFFFFFFFFFFFFFFFFFFFFFFFFFFFF
310
FFFFFFFFFFFFFFFFFFFFFFFFFFFFFFFFF0000000000000000000000000000000
310
0000000000000000000000000000000000000000000000000000000000000000
310
0000000000000000000000000000000000000000000000000000000000000000
310
0000000000000000000000000000000000000000000000000000000000000000
310
0000000000000000000000000000000000000000000000000000000000000000
310
0000000000000000000000000000000000000000000000000000000000000000
310
0000000000000000000000000000000000000000000000000000000000000000
310
0000000000000000000000000000000000000000000000000000000000000000
310
0000000000000000000000000000000000000000000000000000000000000000
310
0000000000000000000000000000000000000000000000000000000000000000
310
0000000000000000000000000000000000000000000000000000000000000000
310
0000000000000000000000000000000000000000000000000000000000000000
310
0000000000000000000000000000000000000000000000000000000000000000
310
0000000000000000000000000000000000000000000000000000000000000000
310
0000000000000000000000000000000000000000000000000000000000000000
310
0000000000000000000000000000000000000000000000000000000000000000
  1
OLE
  0
ENDSEC
  0
SECTION
  2
OBJECTS
  0
DICTIONARY
  5
C
330
0
100
AcDbDictionary
281
     1
  3
ACAD_GROUP
350
D
  3
ACAD_LAYOUT
350
1A
  3
ACAD_MLINESTYLE
350
17
  3
ACAD_PLOTSETTINGS
350
19
  3
ACAD_PLOTSTYLENAME
350
E
  0
DICTIONARY
  5
D
102
{ACAD_REACTORS
330
C
102
}
330
C
100
AcDbDictionary
281
     1
  0
DICTIONARY
  5
1A
102
{ACAD_REACTORS
330
C
102
}
330
C
100
AcDbDictionary
281
     1
  3
Layout1
350
1E
  3
Layout2
350
26
  3
Model
350
22
  0
DICTIONARY
  5
17
102
{ACAD_REACTORS
330
C
102
}
330
C
100
AcDbDictionary
281
     1
  3
Standard
350
18
  0
DICTIONARY
  5
19
102
{ACAD_REACTORS
330
C
102
}
330
C
100
AcDbDictionary
281
     1
  0
ACDBDICTIONARYWDFLT
  5
E
102
{ACAD_REACTORS
330
C
102
}
330
C
100
AcDbDictionary
281
     1
  3
Normal
350
F
100
AcDbDictionaryWithDefault
340
F
  0
LAYOUT
  5
1E
102
{ACAD_REACTORS
330
1A
102
}
330
1A
100
AcDbPlotSettings
  1

  2
none_device
  4

  6

 40
0.0
 41
0.0
 42
0.0
 43
0.0
 44
0.0
 45
0.0
 46
0.0
 47
0.0
 48
0.0
 49
0.0
140
0.0
141
0.0
142
1.0
143
1.0
 70
   688
 72
     0
 73
     0
 74
     5
  7

 75
    16
147
1.0
148
0.0
149
0.0
100
AcDbLayout
  1
Layout1
 70
     1
 71
     1
 10
0.0
 20
0.0
 11
420.0
 21
297.0
 12
0.0
 22
0.0
 32
0.0
 14
1.0000000000E+20
 24
1.0000000000E+20
 34
1.0000000000E+20
 15
-1.0000000000E+20
 25
-1.0000000000E+20
 35
-1.0000000000E+20
146
0.0
 13
0.0
 23
0.0
 33
0.0
 16
1.0
 26
0.0
 36
0.0
 17
0.0
 27
1.0
 37
0.0
 76
     0
330
1B
  0
LAYOUT
  5
26
102
{ACAD_REACTORS
330
1A
102
}
330
1A
100
AcDbPlotSettings
  1

  2
none_device
  4

  6

 40
0.0
 41
0.0
 42
0.0
 43
0.0
 44
0.0
 45
0.0
 46
0.0
 47
0.0
 48
0.0
 49
0.0
140
0.0
141
0.0
142
1.0
143
1.0
 70
   688
 72
     0
 73
     0
 74
     5
  7

 75
    16
147
1.0
148
0.0
149
0.0
100
AcDbLayout
  1
Layout2
 70
     1
 71
     2
 10
0.0
 20
0.0
 11
0.0
 21
0.0
 12
0.0
 22
0.0
 32
0.0
 14
0.0
 24
0.0
 34
0.0
 15
0.0
 25
0.0
 35
0.0
146
0.0
 13
0.0
 23
0.0
 33
0.0
 16
1.0
 26
0.0
 36
0.0
 17
0.0
 27
1.0
 37
0.0
 76
     0
330
23
  0
LAYOUT
  5
22
102
{ACAD_REACTORS
330
1A
102
}
330
1A
100
AcDbPlotSettings
  1

  2
none_device
  4

  6

 40
0.0
 41
0.0
 42
0.0
 43
0.0
 44
0.0
 45
0.0
 46
0.0
 47
0.0
 48
0.0
 49
0.0
140
0.0
141
0.0
142
1.0
143
1.0
 70
  1712
 72
     0
 73
     0
 74
     0
  7

 75
     0
147
1.0
148
0.0
149
0.0
100
AcDbLayout
  1
Model
 70
     1
 71
     0
 10
0.0
 20
0.0
 11
297.0
 21
210.0
 12
0.0
 22
0.0
 32
0.0
 14
0.0
 24
0.0
 34
0.0
 15
297.0
 25
210.0
 35
0.0
146
0.0
 13
0.0
 23
0.0
 33
0.0
 16
1.0
 26
0.0
 36
0.0
 17
0.0
 27
1.0
 37
0.0
 76
     0
330
1F
331
29
  0
MLINESTYLE
  5
18
102
{ACAD_REACTORS
330
17
102
}
330
17
100
AcDbMlineStyle
  2
Standard
 70
     0
  3

 62
   256
 51
90.0
 52
90.0
 71
     2
 49
0.5
 62
   256
  6
BYLAYER
 49
-0.5
 62
   256
  6
BYLAYER
  0
ACDBPLACEHOLDER
  5
F
102
{ACAD_REACTORS
330
E
102
}
330
E
  0
ENDSEC
  0
EOF
