  0
SECTION
  2
HEADER
  9
$ACADVER
  1
AC1015
  9
$ACADMAINTVER
 70
     6
  9
$DWGCODEPAGE
  3
ANSI_1252
  9
$INSBASE
 10
0.0
 20
0.0
 30
0.0
  9
$EXTMIN
 10
0.0
 20
0.0
 30
0.0
  9
$EXTMAX
 10
297.0
 20
210.0
 30
0.0
  9
$LIMMIN
 10
0.0
 20
0.0
  9
$LIMMAX
 10
297.0
 20
210.0
  9
$ORTHOMODE
 70
     0
  9
$REGENMODE
 70
     1
  9
$FILLMODE
 70
     1
  9
$QTEXTMODE
 70
     0
  9
$MIRRTEXT
 70
     1
  9
$LTSCALE
 40
1.0
  9
$ATTMODE
 70
     1
  9
$TEXTSIZE
 40
2.0
  9
$TRACEWID
 40
1.0
  9
$TEXTSTYLE
  7
Standard
  9
$CLAYER
  8
0
  9
$CELTYPE
  6
ByLayer
  9
$CECOLOR
 62
   256
  9
$CELTSCALE
 40
1.0
  9
$DISPSILH
 70
     0
  9
$DIMSCALE
 40
1.0
  9
$DIMASZ
 40
3.0
  9
$DIMEXO
 40
0.0
  9
$DIMDLI
 40
3.75
  9
$DIMRND
 40
0.0
  9
$DIMDLE
 40
0.0
  9
$DIMEXE
 40
1.0
  9
$DIMTP
 40
0.0
  9
$DIMTM
 40
0.0
  9
$DIMTXT
 40
2.0
  9
$DIMCEN
 40
2.5
  9
$DIMTSZ
 40
0.0
  9
$DIMTOL
 70
     0
  9
$DIMLIM
 70
     0
  9
$DIMTIH
 70
     1
  9
$DIMTOH
 70
     1
  9
$DIMSE1
 70
     0
  9
$DIMSE2
 70
     0
  9
$DIMTAD
 70
     1
  9
$DIMZIN
 70
     0
  9
$DIMBLK
  1

  9
$DIMASO
 70
     1
  9
$DIMSHO
 70
     1
  9
$DIMPOST
  1

  9
$DIMAPOST
  1

  9
$DIMALT
 70
     0
  9
$DIMALTD
 70
     3
  9
$DIMALTF
 40
0.0393700787
  9
$DIMLFAC
 40
2.0
  9
$DIMTOFL
 70
     1
  9
$DIMTVP
 40
0.0
  9
$DIMTIX
 70
     0
  9
$DIMSOXD
 70
     0
  9
$DIMSAH
 70
     0
  9
$DIMBLK1
  1

  9
$DIMBLK2
  1

  9
$DIMSTYLE
  2
ISO-25
  9
$DIMCLRD
 70
     0
  9
$DIMCLRE
 70
     0
  9
$DIMCLRT
 70
     0
  9
$DIMTFAC
 40
1.0
  9
$DIMGAP
 40
1.524
  9
$DIMJUST
 70
     0
  9
$DIMSD1
 70
     0
  9
$DIMSD2
 70
     0
  9
$DIMTOLJ
 70
     0
  9
$DIMTZIN
 70
     0
  9
$DIMALTZ
 70
     0
  9
$DIMALTTZ
 70
     0
  9
$DIMUPT
 70
     0
  9
$DIMDEC
 70
     2
  9
$DIMTDEC
 70
     3
  9
$DIMALTU
 70
     2
  9
$DIMALTTD
 70
     3
  9
$DIMTXSTY
  7
Standard
  9
$DIMAUNIT
 70
     0
  9
$DIMADEC
 70
     2
  9
$DIMALTRND
 40
0.0
  9
$DIMAZIN
 70
     0
  9
$DIMDSEP
 70
    44
  9
$DIMATFIT
 70
     3
  9
$DIMFRAC
 70
     0
  9
$DIMLDRBLK
  1

  9
$DIMLUNIT
 70
     2
  9
$DIMLWD
 70
    -2
  9
$DIMLWE
 70
    -2
  9
$DIMTMOVE
 70
     0
  9
$LUNITS
 70
     2
  9
$LUPREC
 70
     2
  9
$SKETCHINC
 40
1.0
  9
$FILLETRAD
 40
10.0
  9
$AUNITS
 70
     0
  9
$AUPREC
 70
     2
  9
$MENU
  1
.
  9
$ELEVATION
 40
0.0
  9
$PELEVATION
 40
0.0
  9
$THICKNESS
 40
0.0
  9
$LIMCHECK
 70
     0
  9
$CHAMFERA
 40
0.0
  9
$CHAMFERB
 40
0.0
  9
$CHAMFERC
 40
0.0
  9
$CHAMFERD
 40
0.0
  9
$SKPOLY
 70
     0
  9
$TDCREATE
 40
2458169.350474676
  9
$TDUCREATE
 40
2458169.308808009
  9
$TDUPDATE
 40
2458169.350476863
  9
$TDUUPDATE
 40
2458169.308810197
  9
$TDINDWG
 40
0.0000000116
  9
$TDUSRTIMER
 40
0.0000000116
  9
$USRTIMER
 70
     1
  9
$ANGBASE
 50
0.0
  9
$ANGDIR
 70
     0
  9
$PDMODE
 70
     0
  9
$PDSIZE
 40
-1.0
  9
$PLINEWID
 40
0.0
  9
$SPLFRAME
 70
     0
  9
$SPLINETYPE
 70
     6
  9
$SPLINESEGS
 70
     8
  9
$HANDSEED
  5
279
  9
$SURFTAB1
 70
     6
  9
$SURFTAB2
 70
     6
  9
$SURFTYPE
 70
     6
  9
$SURFU
 70
     6
  9
$SURFV
 70
     6
  9
$UCSBASE
  2

  9
$UCSNAME
  2

  9
$UCSORG
 10
0.0
 20
0.0
 30
0.0
  9
$UCSXDIR
 10
1.0
 20
0.0
 30
0.0
  9
$UCSYDIR
 10
0.0
 20
1.0
 30
0.0
  9
$UCSORTHOREF
  2

  9
$UCSORTHOVIEW
 70
     0
  9
$UCSORGTOP
 10
0.0
 20
0.0
 30
0.0
  9
$UCSORGBOTTOM
 10
0.0
 20
0.0
 30
0.0
  9
$UCSORGLEFT
 10
0.0
 20
0.0
 30
0.0
  9
$UCSORGRIGHT
 10
0.0
 20
0.0
 30
0.0
  9
$UCSORGFRONT
 10
0.0
 20
0.0
 30
0.0
  9
$UCSORGBACK
 10
0.0
 20
0.0
 30
0.0
  9
$PUCSBASE
  2

  9
$PUCSNAME
  2

  9
$PUCSORG
 10
0.0
 20
0.0
 30
0.0
  9
$PUCSXDIR
 10
1.0
 20
0.0
 30
0.0
  9
$PUCSYDIR
 10
0.0
 20
1.0
 30
0.0
  9
$PUCSORTHOREF
  2

  9
$PUCSORTHOVIEW
 70
     0
  9
$PUCSORGTOP
 10
0.0
 20
0.0
 30
0.0
  9
$PUCSORGBOTTOM
 10
0.0
 20
0.0
 30
0.0
  9
$PUCSORGLEFT
 10
0.0
 20
0.0
 30
0.0
  9
$PUCSORGRIGHT
 10
0.0
 20
0.0
 30
0.0
  9
$PUCSORGFRONT
 10
0.0
 20
0.0
 30
0.0
  9
$PUCSORGBACK
 10
0.0
 20
0.0
 30
0.0
  9
$USERI1
 70
     0
  9
$USERI2
 70
     0
  9
$USERI3
 70
     0
  9
$USERI4
 70
     0
  9
$USERI5
 70
     0
  9
$USERR1
 40
0.0
  9
$USERR2
 40
0.0
  9
$USERR3
 40
0.0
  9
$USERR4
 40
0.0
  9
$USERR5
 40
0.0
  9
$WORLDVIEW
 70
     1
  9
$SHADEDGE
 70
     3
  9
$SHADEDIF
 70
    70
  9
$TILEMODE
 70
     1
  9
$MAXACTVP
 70
    64
  9
$PINSBASE
 10
0.0
 20
0.0
 30
0.0
  9
$PLIMCHECK
 70
     0
  9
$PEXTMIN
 10
1.0000000000E+20
 20
1.0000000000E+20
 30
1.0000000000E+20
  9
$PEXTMAX
 10
-1.0000000000E+20
 20
-1.0000000000E+20
 30
-1.0000000000E+20
  9
$PLIMMIN
 10
0.0
 20
0.0
  9
$PLIMMAX
 10
420.0
 20
297.0
  9
$UNITMODE
 70
     0
  9
$VISRETAIN
 70
     1
  9
$PLINEGEN
 70
     0
  9
$PSLTSCALE
 70
     1
  9
$TREEDEPTH
 70
  3020
  9
$CMLSTYLE
  2
Standard
  9
$CMLJUST
 70
     0
  9
$CMLSCALE
 40
20.0
  9
$PROXYGRAPHICS
 70
     1
  9
$MEASUREMENT
 70
     1
  9
$CELWEIGHT
370
    -1
  9
$ENDCAPS
280
     0
  9
$JOINSTYLE
280
     0
  9
$LWDISPLAY
290
     1
  9
$INSUNITS
 70
     4
  9
$HYPERLINKBASE
  1

  9
$STYLESHEET
  1

  9
$XEDIT
290
     1
  9
$CEPSNTYPE
380
     0
  9
$PSTYLEMODE
290
     1
  9
$FINGERPRINTGUID
  2
{80DB2A18-AFDE-4763-83B0-45F619A4DFED}
  9
$VERSIONGUID
  2
{FAEB1C32-E019-11D5-929B-00C0DF256EC4}
  9
$EXTNAMES
290
     1
  9
$PSVPSCALE
 40
0.0
  9
$OLESTARTUP
290
     0
  0
ENDSEC
  0
SECTION
  2
CLASSES
  0
CLASS
  1
ACDBDICTIONARYWDFLT
  2
AcDbDictionaryWithDefault
  3
ObjectDBX Classes
 90
        0
280
     0
281
     0
  0
CLASS
  1
VISUALSTYLE
  2
AcDbVisualStyle
  3
ObjectDBX Classes
 90
     4095
280
     0
281
     0
  0
CLASS
  1
MATERIAL
  2
AcDbMaterial
  3
ObjectDBX Classes
 90
     1153
280
     0
281
     0
  0
CLASS
  1
SCALE
  2
AcDbScale
  3
ObjectDBX Classes
 90
     1153
280
     0
281
     0
  0
CLASS
  1
TABLESTYLE
  2
AcDbTableStyle
  3
ObjectDBX Classes
 90
     4095
280
     0
281
     0
  0
CLASS
  1
MLEADERSTYLE
  2
AcDbMLeaderStyle
  3
ACDB_MLEADERSTYLE_CLASS
 90
     4095
280
     0
281
     0
  0
CLASS
  1
SUN
  2
AcDbSun
  3
SCENEOE
 90
     1153
280
     0
281
     0
  0
CLASS
  1
ACDBPLACEHOLDER
  2
AcDbPlaceHolder
  3
ObjectDBX Classes
 90
        0
280
     0
281
     0
  0
CLASS
  1
LAYOUT
  2
AcDbLayout
  3
ObjectDBX Classes
 90
        0
280
     0
281
     0
  0
ENDSEC
  0
SECTION
  2
TABLES
  0
TABLE
  2
VPORT
  5
8
330
0
100
AcDbSymbolTable
 70
     1
  0
VPORT
  5
29
330
8
100
AcDbSymbolTableRecord
100
AcDbViewportTableRecord
  2
*Active
 70
     0
 10
0.0
 20
0.0
 11
1.0
 21
1.0
 12
148.5
 22
105.0
 13
0.0
 23
0.0
 14
10.0
 24
10.0
 15
10.0
 25
10.0
 16
0.0
 26
0.0
 36
1.0
 17
0.0
 27
0.0
 37
0.0
 40
210.0
 41
1.4142857143
 42
50.0
 43
0.0
 44
0.0
 50
0.0
 51
0.0
 71
     0
 72
  2000
 73
     1
 74
     3
 75
     0
 76
     0
 77
     0
 78
     0
281
     0
 65
     1
110
0.0
120
0.0
130
0.0
111
1.0
121
0.0
131
0.0
112
0.0
122
1.0
132
0.0
 79
     0
146
0.0
  0
ENDTAB
  0
TABLE
  2
LTYPE
  5
5
330
0
100
AcDbSymbolTable
 70
     6
  0
LTYPE
  5
14
330
5
100
AcDbSymbolTableRecord
100
AcDbLinetypeTableRecord
  2
ByBlock
 70
     0
  3

 72
    65
 73
     0
 40
0.0
  0
LTYPE
  5
15
330
5
100
AcDbSymbolTableRecord
100
AcDbLinetypeTableRecord
  2
ByLayer
 70
     0
  3

 72
    65
 73
     0
 40
0.0
  0
LTYPE
  5
16
330
5
100
AcDbSymbolTableRecord
100
AcDbLinetypeTableRecord
  2
Continuous
 70
     0
  3
Solid line
 72
    65
 73
     0
 40
0.0
  0
LTYPE
  5
6E
330
5
100
AcDbSymbolTableRecord
100
AcDbLinetypeTableRecord
  2
HIDDEN
 70
     0
  3
Hidden __ __ __ __ __ __ __ __ __ __ __ __ __ __
 72
    65
 73
     2
 40
1.905
 49
1.27
 74
     0
 49
-0.635
 74
     0
  0
LTYPE
  5
6F
330
5
100
AcDbSymbolTableRecord
100
AcDbLinetypeTableRecord
  2
PHANTOM
 70
     0
  3
Phantom ______  __  __  ______  __  __  ______
 72
    65
 73
     6
 40
12.7
 49
6.35
 74
     0
 49
-1.27
 74
     0
 49
1.27
 74
     0
 49
-1.27
 74
     0
 49
1.27
 74
     0
 49
-1.27
 74
     0
  0
LTYPE
  5
70
330
5
100
AcDbSymbolTableRecord
100
AcDbLinetypeTableRecord
  2
CENTER
 70
     0
  3
Center ____ _ ____ _ ____ _ ____ _ ____ _ ____
 72
    65
 73
     4
 40
10.16
 49
6.35
 74
     0
 49
-1.27
 74
     0
 49
1.27
 74
     0
 49
-1.27
 74
     0
  0
LTYPE
  5
71
330
5
100
AcDbSymbolTableRecord
100
AcDbLinetypeTableRecord
  2
CENTERX2
 70
     0
  3
Center (2x) ________  __  ________  __  _____
 72
    65
 73
     4
 40
20.32
 49
12.7
 74
     0
 49
-2.54
 74
     0
 49
2.54
 74
     0
 49
-2.54
 74
     0
  0
LTYPE
  5
72
330
5
100
AcDbSymbolTableRecord
100
AcDbLinetypeTableRecord
  2
DOT2
 70
     0
  3
Dot (.5x) ........................................
 72
    65
 73
     2
 40
0.635
 49
0.0
 74
     0
 49
-0.635
 74
     0
  0
ENDTAB
  0
TABLE
  2
LAYER
  5
2
330
0
100
AcDbSymbolTable
 70
     5
  0
LAYER
  5
10
330
2
100
AcDbSymbolTableRecord
100
AcDbLayerTableRecord
  2
0
 70
     0
 62
     7
  6
Continuous
370
    -3
390
F
  0
LAYER
  5
73
330
2
100
AcDbSymbolTableRecord
100
AcDbLayerTableRecord
  2
FORMAT
 70
     0
 62
     7
  6
Continuous
370
    -3
390
F
  0
LAYER
  5
74
330
2
100
AcDbSymbolTableRecord
100
AcDbLayerTableRecord
  2
VERMASSUNG
 70
     0
 62
     7
  6
Continuous
370
    -3
390
F
  0
LAYER
  5
75
330
2
100
AcDbSymbolTableRecord
100
AcDbLayerTableRecord
  2
KOPF_DÜNN
 70
     0
 62
     7
  6
Continuous
370
    -3
390
F
  0
LAYER
  5
76
330
2
100
AcDbSymbolTableRecord
100
AcDbLayerTableRecord
  2
KOPF_DICK
 70
     0
 62
     7
  6
Continuous
370
    25
390
F
  0
ENDTAB
  0
TABLE
  2
STYLE
  5
3
330
0
100
AcDbSymbolTable
 70
     3
  0
STYLE
  5
11
330
3
100
AcDbSymbolTableRecord
100
AcDbTextStyleTableRecord
  2
Standard
 70
     0
 40
0.0
 41
1.0
 50
0.0
 71
     0
 42
2.0
  3
txt
  4

  0
STYLE
  5
77
330
3
100
AcDbSymbolTableRecord
100
AcDbTextStyleTableRecord
  2
SLDTEXTSTYLE0
 70
     0
 40
0.0
 41
0.7
 50
0.0
 71
     0
 42
2.0
  3
TXT
  4

  0
STYLE
  5
7B
330
3
100
AcDbSymbolTableRecord
100
AcDbTextStyleTableRecord
  2
SLDTEXTSTYLE1
 70
     0
 40
0.0
 41
0.6428571429
 50
0.0
 71
     0
 42
2.0
  3
TXT
  4

  0
ENDTAB
  0
TABLE
  2
VIEW
  5
6
330
0
100
AcDbSymbolTable
 70
     0
  0
ENDTAB
  0
TABLE
  2
UCS
  5
7
330
0
100
AcDbSymbolTable
 70
     0
  0
ENDTAB
  0
TABLE
  2
APPID
  5
9
330
0
100
AcDbSymbolTable
 70
     1
  0
APPID
  5
12
330
9
100
AcDbSymbolTableRecord
100
AcDbRegAppTableRecord
  2
ACAD
 70
     0
  0
ENDTAB
  0
TABLE
  2
DIMSTYLE
  5
A
330
0
100
AcDbSymbolTable
 70
     3
100
AcDbDimStyleTable
  0
DIMSTYLE
105
27
330
A
100
AcDbSymbolTableRecord
100
AcDbDimStyleTableRecord
  2
ISO-25
 70
     0
 41
2.5
 42
0.625
 43
3.75
 44
1.25
 73
     0
 74
     0
 77
     1
 78
     8
140
2.5
141
2.5
143
0.0393700787
147
0.625
171
     3
172
     1
178
     0
271
     2
272
     2
274
     3
278
    44
283
     0
284
     8
340
11
  0
DIMSTYLE
105
12D
102
{ACAD_REACTORS
330
12C
330
138
330
14E
330
15A
330
164
330
16E
330
17A
102
}
330
A
100
AcDbSymbolTableRecord
100
AcDbDimStyleTableRecord
  2
SLDDIMSTYLE0
 70
     0
 41
3.0
 44
0.0
 45
0.000000001
 73
     0
 74
     0
 77
     1
 78
    12
 79
     3
140
2.0
147
0.5
173
     1
178
     0
271
     2
272
     3
276
     2
284
    12
340
77
  0
DIMSTYLE
105
144
102
{ACAD_REACTORS
330
143
102
}
330
A
100
AcDbSymbolTableRecord
100
AcDbDimStyleTableRecord
  2
SLDDIMSTYLE1
 70
     0
 41
3.0
 44
0.0
 45
0.000000001
 73
     0
 74
     0
 77
     1
 78
    12
 79
     3
140
2.0
147
0.5
173
     1
178
     0
271
     0
272
     3
276
     2
284
    12
340
77
  0
ENDTAB
  0
TABLE
  2
BLOCK_RECORD
  5
1
330
0
100
AcDbSymbolTable
 70
     9
  0
BLOCK_RECORD
  5
1F
330
1
100
AcDbSymbolTableRecord
100
AcDbBlockTableRecord
  2
*Model_Space
340
22
  0
BLOCK_RECORD
  5
1B
330
1
100
AcDbSymbolTableRecord
100
AcDbBlockTableRecord
  2
*Paper_Space
340
1E
  0
BLOCK_RECORD
  5
23
330
1
100
AcDbSymbolTableRecord
100
AcDbBlockTableRecord
  2
*Paper_Space0
340
26
  0
BLOCK_RECORD
  5
12E
330
1
100
AcDbSymbolTableRecord
100
AcDbBlockTableRecord
  2
_D
340
0
  0
BLOCK_RECORD
  5
139
330
1
100
AcDbSymbolTableRecord
100
AcDbBlockTableRecord
  2
_D_1
340
0
  0
BLOCK_RECORD
  5
145
330
1
100
AcDbSymbolTableRecord
100
AcDbBlockTableRecord
  2
_D_2
340
0
  0
BLOCK_RECORD
  5
14F
330
1
100
AcDbSymbolTableRecord
100
AcDbBlockTableRecord
  2
_D_3
340
0
  0
BLOCK_RECORD
  5
15B
330
1
100
AcDbSymbolTableRecord
100
AcDbBlockTableRecord
  2
_D_4
340
0
  0
BLOCK_RECORD
  5
165
330
1
100
AcDbSymbolTableRecord
100
AcDbBlockTableRecord
  2
_D_5
340
0
  0
BLOCK_RECORD
  5
16F
330
1
100
AcDbSymbolTableRecord
100
AcDbBlockTableRecord
  2
_D_6
340
0
  0
BLOCK_RECORD
  5
17B
330
1
100
AcDbSymbolTableRecord
100
AcDbBlockTableRecord
  2
_D_7
340
0
  0
ENDTAB
  0
ENDSEC
  0
SECTION
  2
BLOCKS
  0
BLOCK
  5
20
330
1F
100
AcDbEntity
  8
0
100
AcDbBlockBegin
  2
*Model_Space
 70
     0
 10
0.0
 20
0.0
 30
0.0
  3
*Model_Space
  1

  0
ENDBLK
  5
21
330
1F
100
AcDbEntity
  8
0
100
AcDbBlockEnd
  0
BLOCK
  5
1C
330
1B
100
AcDbEntity
 67
     1
  8
0
100
AcDbBlockBegin
  2
*Paper_Space
 70
     0
 10
0.0
 20
0.0
 30
0.0
  3
*Paper_Space
  1

  0
ENDBLK
  5
1D
330
1B
100
AcDbEntity
 67
     1
  8
0
100
AcDbBlockEnd
  0
BLOCK
  5
24
330
23
100
AcDbEntity
  8
0
100
AcDbBlockBegin
  2
*Paper_Space0
 70
     0
 10
0.0
 20
0.0
 30
0.0
  3
*Paper_Space0
  1

  0
ENDBLK
  5
25
330
23
100
AcDbEntity
  8
0
100
AcDbBlockEnd
  0
BLOCK
  5
12F
330
12E
100
AcDbEntity
  8
0
100
AcDbBlockBegin
  2
_D
 70
     0
 10
0.0
 20
0.0
 30
0.0
  3
_D
  1

  0
SOLID
  5
131
330
12E
100
AcDbEntity
  8
VERMASSUNG
100
AcDbTrace
 10
258.677722036
 20
144.5090059393
 30
0.0
 11
258.227722036
 21
141.5090059393
 31
0.0
 12
259.127722036
 22
141.5090059393
 32
0.0
 13
259.127722036
 23
141.5090059393
 33
0.0
  0
SOLID
  5
132
330
12E
100
AcDbEntity
  8
VERMASSUNG
100
AcDbTrace
 10
258.677722036
 20
104.5090059393
 30
0.0
 11
259.127722036
 21
107.5090059393
 31
0.0
 12
258.227722036
 22
107.5090059393
 32
0.0
 13
258.227722036
 23
107.5090059393
 33
0.0
  0
LINE
  5
133
330
12E
100
AcDbEntity
  8
VERMASSUNG
100
AcDbLine
 10
207.779838072
 20
144.5090059393
 30
0.0
 11
259.677722036
 21
144.5090059393
 31
0.0
  0
LINE
  5
134
330
12E
100
AcDbEntity
  8
VERMASSUNG
100
AcDbLine
 10
207.779838072
 20
104.5090059393
 30
0.0
 11
259.677722036
 21
104.5090059393
 31
0.0
  0
LINE
  5
135
330
12E
100
AcDbEntity
  8
VERMASSUNG
100
AcDbLine
 10
258.677722036
 20
144.5090059393
 30
0.0
 11
258.677722036
 21
104.5090059393
 31
0.0
  0
MTEXT
  5
136
330
12E
100
AcDbEntity
  8
VERMASSUNG
100
AcDbMText
 10
256.0995867311
 20
121.2040059191
 30
0.0
 40
2.0
 41
0.0
 71
     1
 72
     1
  1
%%c
  7
SLDTEXTSTYLE0
 11
-7.044195017643634E-15
 21
1.0
 31
0.0
 73
     1
 44
1.0
  0
MTEXT
  5
137
330
12E
100
AcDbEntity
  8
VERMASSUNG
100
AcDbMText
 10
255.8995867798
 20
124.8140059334
 30
0.0
 40
2.0
 41
0.0
 71
     1
 72
     1
  1
40
  7
SLDTEXTSTYLE0
 11
-7.044195017643634E-15
 21
1.0
 31
0.0
 73
     1
 44
1.0
  0
ENDBLK
  5
130
330
12E
100
AcDbEntity
  8
0
100
AcDbBlockEnd
  0
BLOCK
  5
13A
330
139
100
AcDbEntity
  8
0
100
AcDbBlockBegin
  2
_D_1
 70
     0
 10
0.0
 20
0.0
 30
0.0
  3
_D_1
  1

  0
SOLID
  5
13C
330
139
100
AcDbEntity
  8
VERMASSUNG
100
AcDbTrace
 10
269.2242115813
 20
164.5090059393
 30
0.0
 11
268.7742115813
 21
161.5090059393
 31
0.0
 12
269.6742115813
 22
161.5090059393
 32
0.0
 13
269.6742115813
 23
161.5090059393
 33
0.0
  0
SOLID
  5
13D
330
139
100
AcDbEntity
  8
VERMASSUNG
100
AcDbTrace
 10
269.2242115813
 20
84.5090059393
 30
0.0
 11
269.6742115813
 21
87.5090059393
 31
0.0
 12
268.7742115813
 22
87.5090059393
 32
0.0
 13
268.7742115813
 23
87.5090059393
 33
0.0
  0
LINE
  5
13E
330
139
100
AcDbEntity
  8
VERMASSUNG
100
AcDbLine
 10
180.779838072
 20
164.5090059393
 30
0.0
 11
270.2242115813
 21
164.5090059393
 31
0.0
  0
LINE
  5
13F
330
139
100
AcDbEntity
  8
VERMASSUNG
100
AcDbLine
 10
180.779838072
 20
84.5090059393
 30
0.0
 11
270.2242115813
 21
84.5090059393
 31
0.0
  0
LINE
  5
140
330
139
100
AcDbEntity
  8
VERMASSUNG
100
AcDbLine
 10
269.2242115813
 20
164.5090059393
 30
0.0
 11
269.2242115813
 21
84.5090059393
 31
0.0
  0
MTEXT
  5
141
330
139
100
AcDbEntity
  8
VERMASSUNG
100
AcDbMText
 10
266.6460762763
 20
121.304005982
 30
0.0
 40
2.0
 41
0.0
 71
     1
 72
     1
  1
%%c
  7
SLDTEXTSTYLE0
 11
-7.044195017643634E-15
 21
1.0
 31
0.0
 73
     1
 44
1.0
  0
MTEXT
  5
142
330
139
100
AcDbEntity
  8
VERMASSUNG
100
AcDbMText
 10
266.446076325
 20
124.9140059963
 30
0.0
 40
2.0
 41
0.0
 71
     1
 72
     1
  1
80
  7
SLDTEXTSTYLE0
 11
-7.044195017643634E-15
 21
1.0
 31
0.0
 73
     1
 44
1.0
  0
ENDBLK
  5
13B
330
139
100
AcDbEntity
  8
0
100
AcDbBlockEnd
  0
BLOCK
  5
146
330
145
100
AcDbEntity
  8
0
100
AcDbBlockBegin
  2
_D_2
 70
     0
 10
0.0
 20
0.0
 30
0.0
  3
_D_2
  1

  0
SOLID
  5
148
330
145
100
AcDbEntity
  8
VERMASSUNG
100
AcDbTrace
 10
246.8941262913
 20
115.8940059393
 30
0.0
 11
247.3441262913
 21
118.8940059393
 31
0.0
 12
246.4441262913
 22
118.8940059393
 32
0.0
 13
246.4441262913
 23
118.8940059393
 33
0.0
  0
SOLID
  5
149
330
145
100
AcDbEntity
  8
VERMASSUNG
100
AcDbTrace
 10
246.8941262913
 20
133.1240059393
 30
0.0
 11
246.4441262913
 21
130.1240059393
 31
0.0
 12
247.3441262913
 22
130.1240059393
 32
0.0
 13
247.3441262913
 23
130.1240059393
 33
0.0
  0
LINE
  5
14A
330
145
100
AcDbEntity
  8
VERMASSUNG
100
AcDbLine
 10
233.779838072
 20
115.8940059393
 30
0.0
 11
247.8941262913
 21
115.8940059393
 31
0.0
  0
LINE
  5
14B
330
145
100
AcDbEntity
  8
VERMASSUNG
100
AcDbLine
 10
233.779838072
 20
133.1240059393
 30
0.0
 11
247.8941262913
 21
133.1240059393
 31
0.0
  0
LINE
  5
14C
330
145
100
AcDbEntity
  8
VERMASSUNG
100
AcDbLine
 10
246.8941262913
 20
115.8940059393
 30
0.0
 11
246.8941262913
 21
133.1240059393
 31
0.0
  0
MTEXT
  5
14D
330
145
100
AcDbEntity
  8
VERMASSUNG
100
AcDbMText
 10
244.3159906953
 20
123.3090058823
 30
0.0
 40
2.0
 41
0.0
 71
     1
 72
     1
  1
17
  7
SLDTEXTSTYLE0
 11
6.123233995736766E-17
 21
1.0
 31
0.0
 73
     1
 44
1.0
  0
ENDBLK
  5
147
330
145
100
AcDbEntity
  8
0
100
AcDbBlockEnd
  0
BLOCK
  5
150
330
14F
100
AcDbEntity
  8
0
100
AcDbBlockBegin
  2
_D_3
 70
     0
 10
0.0
 20
0.0
 30
0.0
  3
_D_3
  1

  0
SOLID
  5
152
330
14F
100
AcDbEntity
  8
VERMASSUNG
100
AcDbTrace
 10
38.1706240661
 20
156.0090059393
 30
0.0
 11
37.7206240661
 21
153.0090059393
 31
0.0
 12
38.6206240661
 22
153.0090059393
 32
0.0
 13
38.6206240661
 23
153.0090059393
 33
0.0
  0
SOLID
  5
153
330
14F
100
AcDbEntity
  8
VERMASSUNG
100
AcDbTrace
 10
38.1706240661
 20
93.0090059393
 30
0.0
 11
38.6206240661
 21
96.0090059393
 31
0.0
 12
37.7206240661
 22
96.0090059393
 32
0.0
 13
37.7206240661
 23
96.0090059393
 33
0.0
  0
LINE
  5
154
330
14F
100
AcDbEntity
  8
VERMASSUNG
100
AcDbLine
 10
82.079838072
 20
156.0090059393
 30
0.0
 11
37.1706240661
 21
156.0090059393
 31
0.0
  0
LINE
  5
155
330
14F
100
AcDbEntity
  8
VERMASSUNG
100
AcDbLine
 10
82.079838072
 20
93.0090059393
 30
0.0
 11
37.1706240661
 21
93.0090059393
 31
0.0
  0
LINE
  5
156
330
14F
100
AcDbEntity
  8
VERMASSUNG
100
AcDbLine
 10
38.1706240661
 20
156.0090059393
 30
0.0
 11
38.1706240661
 21
93.0090059393
 31
0.0
  0
MTEXT
  5
157
330
14F
100
AcDbEntity
  8
VERMASSUNG
100
AcDbMText
 10
35.3924888099
 20
116.8040066414
 30
0.0
 40
2.0
 41
0.0
 71
     1
 72
     1
  1
HSK A
  7
SLDTEXTSTYLE0
 11
-7.044195017643634E-15
 21
1.0
 31
0.0
 73
     1
 44
1.0
  0
MTEXT
  5
158
330
14F
100
AcDbEntity
  8
VERMASSUNG
100
AcDbMText
 10
35.5924887611
 20
125.804006254
 30
0.0
 40
2.0
 41
0.0
 71
     1
 72
     1
  1
%%c
  7
SLDTEXTSTYLE0
 11
-7.044195017643634E-15
 21
1.0
 31
0.0
 73
     1
 44
1.0
  0
MTEXT
  5
159
330
14F
100
AcDbEntity
  8
VERMASSUNG
100
AcDbMText
 10
35.3924888099
 20
129.4140062683
 30
0.0
 40
2.0
 41
0.0
 71
     1
 72
     1
  1
63
  7
SLDTEXTSTYLE0
 11
-7.044195017643634E-15
 21
1.0
 31
0.0
 73
     1
 44
1.0
  0
ENDBLK
  5
151
330
14F
100
AcDbEntity
  8
0
100
AcDbBlockEnd
  0
BLOCK
  5
15C
330
15B
100
AcDbEntity
  8
0
100
AcDbBlockBegin
  2
_D_4
 70
     0
 10
0.0
 20
0.0
 30
0.0
  3
_D_4
  1

  0
SOLID
  5
15E
330
15B
100
AcDbEntity
  8
VERMASSUNG
100
AcDbTrace
 10
107.729838072
 20
173.1451653206
 30
0.0
 11
110.729838072
 21
172.6951653206
 31
0.0
 12
110.729838072
 22
173.5951653206
 32
0.0
 13
110.729838072
 23
173.5951653206
 33
0.0
  0
SOLID
  5
15F
330
15B
100
AcDbEntity
  8
VERMASSUNG
100
AcDbTrace
 10
181.779838072
 20
173.1451653206
 30
0.0
 11
178.779838072
 21
173.5951653206
 31
0.0
 12
178.779838072
 22
172.6951653206
 32
0.0
 13
178.779838072
 23
172.6951653206
 33
0.0
  0
LINE
  5
160
330
15B
100
AcDbEntity
  8
VERMASSUNG
100
AcDbLine
 10
107.729838072
 20
154.355446263
 30
0.0
 11
107.729838072
 21
174.1451653206
 31
0.0
  0
LINE
  5
161
330
15B
100
AcDbEntity
  8
VERMASSUNG
100
AcDbLine
 10
181.779838072
 20
163.5090059393
 30
0.0
 11
181.779838072
 21
174.1451653206
 31
0.0
  0
LINE
  5
162
330
15B
100
AcDbEntity
  8
VERMASSUNG
100
AcDbLine
 10
107.729838072
 20
173.1451653206
 30
0.0
 11
181.779838072
 21
173.1451653206
 31
0.0
  0
MTEXT
  5
163
330
15B
100
AcDbEntity
  8
VERMASSUNG
100
AcDbMText
 10
141.5548381528
 20
175.7233009166
 30
0.0
 40
2.0
 41
0.0
 71
     1
 72
     1
  1
74.05
  7
SLDTEXTSTYLE0
 73
     1
 44
1.0
  0
ENDBLK
  5
15D
330
15B
100
AcDbEntity
  8
0
100
AcDbBlockEnd
  0
BLOCK
  5
166
330
165
100
AcDbEntity
  8
0
100
AcDbBlockBegin
  2
_D_5
 70
     0
 10
0.0
 20
0.0
 30
0.0
  3
_D_5
  1

  0
SOLID
  5
168
330
165
100
AcDbEntity
  8
VERMASSUNG
100
AcDbTrace
 10
81.779838072
 20
182.6618064817
 30
0.0
 11
84.779838072
 21
182.2118064817
 31
0.0
 12
84.779838072
 22
183.1118064817
 32
0.0
 13
84.779838072
 23
183.1118064817
 33
0.0
  0
SOLID
  5
169
330
165
100
AcDbEntity
  8
VERMASSUNG
100
AcDbTrace
 10
181.779838072
 20
182.6618064817
 30
0.0
 11
178.779838072
 21
183.1118064817
 31
0.0
 12
178.779838072
 22
182.2118064817
 32
0.0
 13
178.779838072
 23
182.2118064817
 33
0.0
  0
LINE
  5
16A
330
165
100
AcDbEntity
  8
VERMASSUNG
100
AcDbLine
 10
81.779838072
 20
155.7090059393
 30
0.0
 11
81.779838072
 21
183.6618064817
 31
0.0
  0
LINE
  5
16B
330
165
100
AcDbEntity
  8
VERMASSUNG
100
AcDbLine
 10
181.779838072
 20
163.5090059393
 30
0.0
 11
181.779838072
 21
183.6618064817
 31
0.0
  0
LINE
  5
16C
330
165
100
AcDbEntity
  8
VERMASSUNG
100
AcDbLine
 10
81.779838072
 20
182.6618064817
 30
0.0
 11
181.779838072
 21
182.6618064817
 31
0.0
  0
MTEXT
  5
16D
330
165
100
AcDbEntity
  8
VERMASSUNG
100
AcDbMText
 10
129.8798380399
 20
185.2399420776
 30
0.0
 40
2.0
 41
0.0
 71
     1
 72
     1
  1
100
  7
SLDTEXTSTYLE0
 73
     1
 44
1.0
  0
ENDBLK
  5
167
330
165
100
AcDbEntity
  8
0
100
AcDbBlockEnd
  0
BLOCK
  5
170
330
16F
100
AcDbEntity
  8
0
100
AcDbBlockBegin
  2
_D_6
 70
     0
 10
0.0
 20
0.0
 30
0.0
  3
_D_6
  1

  0
ARC
  5
172
330
16F
100
AcDbEntity
  8
VERMASSUNG
100
AcDbCircle
 10
142.729838202
 20
194.4090062041
 30
0.0
 40
4.24852922888762
100
AcDbArc
 50
153.4349488229
 51
206.5650511771
  0
ARC
  5
173
330
16F
100
AcDbEntity
  8
VERMASSUNG
100
AcDbCircle
 10
140.9298380001
 20
194.4090062041
 30
0.0
 40
4.24852922888762
100
AcDbArc
 50
333.4349488229
 51
26.5650511771
  0
SOLID
  5
174
330
16F
100
AcDbEntity
  8
VERMASSUNG
100
AcDbTrace
 10
49.879838072
 20
192.5090059393
 30
0.0
 11
52.879838072
 21
192.0590059393
 31
0.0
 12
52.879838072
 22
192.9590059393
 32
0.0
 13
52.879838072
 23
192.9590059393
 33
0.0
  0
SOLID
  5
175
330
16F
100
AcDbEntity
  8
VERMASSUNG
100
AcDbTrace
 10
233.779838072
 20
192.5090059393
 30
0.0
 11
230.779838072
 21
192.9590059393
 31
0.0
 12
230.779838072
 22
192.0590059393
 32
0.0
 13
230.779838072
 23
192.0590059393
 33
0.0
  0
LINE
  5
176
330
16F
100
AcDbEntity
  8
VERMASSUNG
100
AcDbLine
 10
49.879838072
 20
144.1996836858
 30
0.0
 11
49.879838072
 21
193.5090059393
 31
0.0
  0
LINE
  5
177
330
16F
100
AcDbEntity
  8
VERMASSUNG
100
AcDbLine
 10
233.779838072
 20
138.5090059393
 30
0.0
 11
233.779838072
 21
193.5090059393
 31
0.0
  0
LINE
  5
178
330
16F
100
AcDbEntity
  8
VERMASSUNG
100
AcDbLine
 10
49.879838072
 20
192.5090059393
 30
0.0
 11
233.779838072
 21
192.5090059393
 31
0.0
  0
MTEXT
  5
179
330
16F
100
AcDbEntity
  8
VERMASSUNG
100
AcDbMText
 10
138.9298381379
 20
195.0871417681
 30
0.0
 40
2.0
 41
0.0
 71
     1
 72
     1
  1
183.9
  7
SLDTEXTSTYLE0
 73
     1
 44
1.0
  0
ENDBLK
  5
171
330
16F
100
AcDbEntity
  8
0
100
AcDbBlockEnd
  0
BLOCK
  5
17C
330
17B
100
AcDbEntity
  8
0
100
AcDbBlockBegin
  2
_D_7
 70
     0
 10
0.0
 20
0.0
 30
0.0
  3
_D_7
  1

  0
SOLID
  5
17E
330
17B
100
AcDbEntity
  8
VERMASSUNG
100
AcDbTrace
 10
181.779838072
 20
173.1451653206
 30
0.0
 11
184.779838072
 21
172.6951653206
 31
0.0
 12
184.779838072
 22
173.5951653206
 32
0.0
 13
184.779838072
 23
173.5951653206
 33
0.0
  0
SOLID
  5
17F
330
17B
100
AcDbEntity
  8
VERMASSUNG
100
AcDbTrace
 10
208.779838072
 20
173.1451653206
 30
0.0
 11
205.779838072
 21
173.5951653206
 31
0.0
 12
205.779838072
 22
172.6951653206
 32
0.0
 13
205.779838072
 23
172.6951653206
 33
0.0
  0
LINE
  5
180
330
17B
100
AcDbEntity
  8
VERMASSUNG
100
AcDbLine
 10
181.779838072
 20
163.5090059393
 30
0.0
 11
181.779838072
 21
174.1451653206
 31
0.0
  0
LINE
  5
181
330
17B
100
AcDbEntity
  8
VERMASSUNG
100
AcDbLine
 10
208.779838072
 20
143.5090059393
 30
0.0
 11
208.779838072
 21
174.1451653206
 31
0.0
  0
LINE
  5
182
330
17B
100
AcDbEntity
  8
VERMASSUNG
100
AcDbLine
 10
181.779838072
 20
173.1451653206
 30
0.0
 11
208.779838072
 21
173.1451653206
 31
0.0
  0
MTEXT
  5
183
330
17B
100
AcDbEntity
  8
VERMASSUNG
100
AcDbMText
 10
193.8798381219
 20
175.7233009166
 30
0.0
 40
2.0
 41
0.0
 71
     1
 72
     1
  1
27
  7
SLDTEXTSTYLE0
 73
     1
 44
1.0
  0
ENDBLK
  5
17D
330
17B
100
AcDbEntity
  8
0
100
AcDbBlockEnd
  0
ENDSEC
  0
SECTION
  2
ENTITIES
  0
MTEXT
  5
78
330
1F
100
AcDbEntity
  8
KOPF_DÜNN
100
AcDbMText
 10
13.8892156294
 20
23.8442973028
 30
0.0
 40
3.0
 41
0.0
 71
     1
 72
     1
  1
HA6.D40.K01.100
  7
SLDTEXTSTYLE0
 73
     1
 44
1.0
  0
MTEXT
  5
79
330
1F
100
AcDbEntity
  8
VERMASSUNG
100
AcDbMText
 10
13.9329988022
 20
28.8834360957
 30
0.0
 40
3.0
 41
0.0
 71
     1
 72
     1
  1
Fräsdorn Typ S_Milling arbor type S
  7
SLDTEXTSTYLE0
 73
     1
 44
1.0
  0
MTEXT
  5
7A
330
1F
100
AcDbEntity
  8
VERMASSUNG
100
AcDbMText
 10
98.8601118557
 20
13.8365368761
 30
0.0
 40
2.0
 41
0.0
 71
     1
 72
     1
  1
Datum: 19.02.2018
  7
SLDTEXTSTYLE0
 73
     1
 44
1.0
  0
MTEXT
  5
7C
330
1F
100
AcDbEntity
  8
VERMASSUNG
100
AcDbMText
 10
13.933048693
 20
18.0482802738
 30
0.0
 40
2.0
 41
0.0
 71
     1
 72
     1
  1
HSK A 63 / Ø40
  7
SLDTEXTSTYLE1
 73
     1
 44
1.0
  0
MTEXT
  5
7D
330
1F
100
AcDbEntity
  8
VERMASSUNG
100
AcDbMText
 10
13.9808475933
 20
13.9090974274
 30
0.0
 40
2.0
 41
0.0
 71
     1
 72
     1
  1
Gewicht: 3408g
  7
SLDTEXTSTYLE0
 73
     1
 44
1.0
  0
LINE
  5
7E
330
1F
100
AcDbEntity
  8
0
  6
Continuous
 62
     7
370
    25
100
AcDbLine
 10
181.7798395621
 20
146.5090058201
 30
0.0
 11
188.2798378335
 21
146.5090058201
 31
0.0
  0
LINE
  5
7F
330
1F
100
AcDbEntity
  8
0
  6
Continuous
 62
     7
370
    25
100
AcDbLine
 10
188.2798378335
 20
162.5090047174
 30
0.0
 11
181.7798395621
 21
162.5090047174
 31
0.0
  0
ARC
  5
80
330
1F
100
AcDbEntity
  8
0
  6
Continuous
 62
     7
370
    25
100
AcDbCircle
 10
188.279838072
 20
147.0090059393
 30
0.0
 40
0.5
100
AcDbArc
 50
270.0
 51
0.0
  0
ARC
  5
81
330
1F
100
AcDbEntity
  8
0
  6
Continuous
 62
     7
370
    25
100
AcDbCircle
 10
188.279838072
 20
162.0090059393
 30
0.0
 40
0.5
100
AcDbArc
 50
0.0
 51
90.0
  0
LINE
  5
82
330
1F
100
AcDbEntity
  8
0
  6
Continuous
 62
     7
370
    25
100
AcDbLine
 10
181.7798395621
 20
86.5090071612
 30
0.0
 11
188.2798378335
 21
86.5090071612
 31
0.0
  0
LINE
  5
83
330
1F
100
AcDbEntity
  8
0
  6
Continuous
 62
     7
370
    25
100
AcDbLine
 10
188.2798378335
 20
102.5090060585
 30
0.0
 11
181.7798395621
 21
102.5090060585
 31
0.0
  0
ARC
  5
84
330
1F
100
AcDbEntity
  8
0
  6
Continuous
 62
     7
370
    25
100
AcDbCircle
 10
188.279838072
 20
87.0090059393
 30
0.0
 40
0.5
100
AcDbArc
 50
270.0
 51
0.0
  0
ARC
  5
85
330
1F
100
AcDbEntity
  8
0
  6
Continuous
 62
     7
370
    25
100
AcDbCircle
 10
188.279838072
 20
102.0090059393
 30
0.0
 40
0.5
100
AcDbArc
 50
0.0
 51
90.0
  0
LINE
  5
86
330
1F
100
AcDbEntity
  8
0
  6
Continuous
 62
     7
370
    25
100
AcDbLine
 10
232.7798311578
 20
139.509005604
 30
0.0
 11
213.7798373567
 21
139.509005604
 31
0.0
  0
LINE
  5
87
330
1F
100
AcDbEntity
  8
0
  6
Continuous
 62
     7
370
    25
100
AcDbLine
 10
213.7798373567
 20
109.5090062745
 30
0.0
 11
232.7798311578
 21
109.5090062745
 31
0.0
  0
ARC
  5
88
330
1F
100
AcDbEntity
  8
0
  6
Continuous
 62
     7
370
    25
100
AcDbCircle
 10
232.779838072
 20
138.5090059393
 30
0.0
 40
1.0
100
AcDbArc
 50
0.0
 51
90.0
  0
ARC
  5
89
330
1F
100
AcDbEntity
  8
0
  6
Continuous
 62
     7
370
    25
100
AcDbCircle
 10
232.779838072
 20
110.5090059393
 30
0.0
 40
1.0
100
AcDbArc
 50
270.0
 51
0.0
  0
ARC
  5
8A
330
1F
100
AcDbEntity
  8
0
  6
Continuous
 62
     7
370
    25
100
AcDbCircle
 10
212.979838072
 20
113.7090059393
 30
0.0
 40
0.8000000000000398
100
AcDbArc
 50
0.0
 51
90.0
  0
ARC
  5
8B
330
1F
100
AcDbEntity
  8
0
  6
Continuous
 62
     7
370
    25
100
AcDbCircle
 10
212.979838072
 20
135.3090059393
 30
0.0
 40
0.8000000000000398
100
AcDbArc
 50
270.0
 51
0.0
  0
LINE
  5
8C
330
1F
100
AcDbEntity
  8
0
  6
Continuous
 62
     7
370
    25
100
AcDbLine
 10
212.9798387157
 20
134.5090057158
 30
0.0
 11
208.7798421251
 21
134.5090057158
 31
0.0
  0
LINE
  5
8D
330
1F
100
AcDbEntity
  8
0
  6
Continuous
 62
     7
370
    25
100
AcDbLine
 10
208.7798421251
 20
114.5090061628
 30
0.0
 11
212.9798387157
 21
114.5090061628
 31
0.0
  0
ARC
  5
8E
330
1F
100
AcDbEntity
  8
0
  6
Continuous
 62
     7
370
    25
100
AcDbCircle
 10
180.779838072
 20
85.5090059393
 30
0.0
 40
1.0
100
AcDbArc
 50
270.0
 51
0.0
  0
ARC
  5
8F
330
1F
100
AcDbEntity
  8
0
  6
Continuous
 62
     7
370
    25
100
AcDbCircle
 10
180.779838072
 20
163.5090059393
 30
0.0
 40
1.0
100
AcDbArc
 50
0.0
 51
90.0
  0
LINE
  5
90
330
1F
100
AcDbEntity
  8
0
  6
Continuous
 62
     7
370
    25
100
AcDbLine
 10
132.4400906431
 20
84.5090068333
 30
0.0
 11
180.7798375355
 21
84.5090068333
 31
0.0
  0
LINE
  5
91
330
1F
100
AcDbEntity
  8
0
  6
Continuous
 62
     7
370
    25
100
AcDbLine
 10
180.7798375355
 20
164.5090050452
 30
0.0
 11
132.4400906431
 21
164.5090050452
 31
0.0
  0
ARC
  5
92
330
1F
100
AcDbEntity
  8
0
  6
Continuous
 62
     7
370
    25
100
AcDbCircle
 10
132.4400921098
 20
85.5090059393
 30
0.0
 40
1.000000000000014
100
AcDbArc
 50
210.0
 51
270.0
  0
ARC
  5
93
330
1F
100
AcDbEntity
  8
0
  6
Continuous
 62
     7
370
    25
100
AcDbCircle
 10
132.4400921098
 20
163.5090059393
 30
0.0
 40
1.000000000000008
100
AcDbArc
 50
90.0
 51
150.0
  0
LINE
  5
94
330
1F
100
AcDbEntity
  8
0
  6
Continuous
 62
     7
370
    25
100
AcDbLine
 10
131.5740649568
 20
164.0090077572
 30
0.0
 11
124.0685139762
 21
151.0090056263
 31
0.0
  0
LINE
  5
95
330
1F
100
AcDbEntity
  8
0
  6
Continuous
 62
     7
370
    25
100
AcDbLine
 10
124.0685139762
 20
98.0090062522
 30
0.0
 11
131.5740649568
 21
85.0090041213
 31
0.0
  0
LINE
  5
96
330
1F
100
AcDbEntity
  8
0
  6
Continuous
 62
     7
370
    25
100
AcDbLine
 10
82.0798380862
 20
93.0090054326
 30
0.0
 11
86.7298380451
 21
93.0090054326
 31
0.0
  0
LINE
  5
97
330
1F
100
AcDbEntity
  8
0
  6
Continuous
 62
     7
370
    25
100
AcDbLine
 10
86.7578266168
 20
156.0090064459
 30
0.0
 11
82.0798380862
 21
156.0090064459
 31
0.0
  0
ARC
  5
98
330
1F
100
AcDbEntity
  8
0
  6
Continuous
 62
     7
370
    25
100
AcDbCircle
 10
82.079838072
 20
93.3090059393
 30
0.0
 40
0.2999999999999972
100
AcDbArc
 50
180.0
 51
270.0
  0
ARC
  5
99
330
1F
100
AcDbEntity
  8
0
  6
Continuous
 62
     7
370
    25
100
AcDbCircle
 10
82.079838072
 20
155.7090059393
 30
0.0
 40
0.3000000000000114
100
AcDbArc
 50
90.0
 51
180.0
  0
ARC
  5
9A
330
1F
100
AcDbEntity
  8
0
  6
Continuous
 62
     7
370
    25
100
AcDbCircle
 10
108.729838072
 20
97.5090059393
 30
0.0
 40
1.0
100
AcDbArc
 50
90.0
 51
143.1139143113
  0
ARC
  5
9B
330
1F
100
AcDbEntity
  8
0
  6
Continuous
 62
     7
370
    25
100
AcDbCircle
 10
108.729838072
 20
151.5090059393
 30
0.0
 40
1.00000000000004
100
AcDbArc
 50
216.9137525652
 51
270.0
  0
ARC
  5
9C
330
1F
100
AcDbEntity
  8
0
  6
Continuous
 62
     7
370
    25
100
AcDbCircle
 10
123.2024878028
 20
97.5090059393
 30
0.0
 40
0.9999999999999858
100
AcDbArc
 50
30.0
 51
90.0
  0
ARC
  5
9D
330
1F
100
AcDbEntity
  8
0
  6
Continuous
 62
     7
370
    25
100
AcDbCircle
 10
123.2024878028
 20
151.5090059393
 30
0.0
 40
1.0
100
AcDbArc
 50
270.0
 51
330.0
  0
LINE
  5
9E
330
1F
100
AcDbEntity
  8
0
  6
Continuous
 62
     7
370
    25
100
AcDbLine
 10
108.7298379259
 20
98.5090054028
 30
0.0
 11
123.20248829
 21
98.5090054028
 31
0.0
  0
LINE
  5
9F
330
1F
100
AcDbEntity
  8
0
  6
Continuous
 62
     7
370
    25
100
AcDbLine
 10
123.20248829
 20
150.5090064757
 30
0.0
 11
108.7298379259
 21
150.5090064757
 31
0.0
  0
ARC
  5
A0
330
1F
100
AcDbEntity
  8
0
  6
Continuous
 62
     7
370
    25
100
AcDbCircle
 10
81.2798313193
 20
99.9385683249
 30
0.0
 40
0.6000067526677242
100
AcDbArc
 50
33.5571153394
 51
90.0
  0
ARC
  5
A1
330
1F
100
AcDbEntity
  8
0
  6
Continuous
 62
     7
370
    25
100
AcDbCircle
 10
81.2798313193
 20
149.0794435537
 30
0.0
 40
0.6000067526677242
100
AcDbArc
 50
270.0
 51
326.4428846606
  0
LINE
  5
A2
330
1F
100
AcDbEntity
  8
0
  6
Continuous
 62
     7
370
    25
100
AcDbLine
 10
68.5494155603
 20
148.1667898052
 30
0.0
 11
55.9798371958
 21
147.537051832
 31
0.0
  0
LINE
  5
A3
330
1F
100
AcDbEntity
  8
0
  6
Continuous
 62
     7
370
    25
100
AcDbLine
 10
79.779837977
 20
148.7294371628
 30
0.0
 11
76.9612286219
 21
148.5882244461
 31
0.0
  0
LINE
  5
A4
330
1F
100
AcDbEntity
  8
0
  6
Continuous
 62
     7
370
    25
100
AcDbLine
 10
76.9614502767
 20
100.4297762566
 30
0.0
 11
79.779837977
 21
100.2885747158
 31
0.0
  0
LINE
  5
A5
330
1F
100
AcDbEntity
  8
0
  6
Continuous
 62
     7
370
    25
100
AcDbLine
 10
59.9798378514
 20
101.2805599176
 30
0.0
 11
68.5501149835
 21
100.8511866831
 31
0.0
  0
LINE
  5
A6
330
1F
100
AcDbEntity
  8
0
  6
Continuous
 62
     7
370
    25
100
AcDbLine
 10
79.779837977
 20
100.2885747158
 30
0.0
 11
80.6365509031
 21
100.5181308292
 31
0.0
  0
LINE
  5
A7
330
1F
100
AcDbEntity
  8
0
  6
Continuous
 62
     7
370
    25
100
AcDbLine
 10
80.6365509031
 20
148.4998810493
 30
0.0
 11
79.779837977
 21
148.7294371628
 31
0.0
  0
ARC
  5
A8
330
1F
100
AcDbEntity
  8
0
  6
Continuous
 62
     7
370
    25
100
AcDbCircle
 10
80.7918422724
 20
99.9385750775
 30
0.0
 40
0.6000000000000109
100
AcDbArc
 50
90.0
 51
105.0
  0
ARC
  5
A9
330
1F
100
AcDbEntity
  8
0
  6
Continuous
 62
     7
370
    25
100
AcDbCircle
 10
80.7918422724
 20
149.079436801
 30
0.0
 40
0.6000000000000245
100
AcDbArc
 50
255.0
 51
270.0
  0
LINE
  5
AA
330
1F
100
AcDbEntity
  8
0
  6
Continuous
 62
     7
370
    25
100
AcDbLine
 10
80.7918423068
 20
100.5385752224
 30
0.0
 11
81.2798312961
 21
100.5385752224
 31
0.0
  0
LINE
  5
AB
330
1F
100
AcDbEntity
  8
0
  6
Continuous
 62
     7
370
    25
100
AcDbLine
 10
81.2798312961
 20
148.4794366561
 30
0.0
 11
80.7918423068
 21
148.4794366561
 31
0.0
  0
ARC
  5
AC
330
1F
100
AcDbEntity
  8
0
  6
Continuous
 62
     7
370
    25
100
AcDbCircle
 10
182.179838072
 20
104.2590059393
 30
0.0
 40
0.6000000000000085
100
AcDbArc
 50
90.0
 51
131.8103148958
  0
ARC
  5
AD
330
1F
100
AcDbEntity
  8
0
  6
Continuous
 62
     7
370
    25
100
AcDbCircle
 10
182.179838072
 20
144.7590059393
 30
0.0
 40
0.5999999999999842
100
AcDbArc
 50
228.1896851042
 51
270.0
  0
LINE
  5
AE
330
1F
100
AcDbEntity
  8
0
  6
Continuous
 62
     7
370
    25
100
AcDbLine
 10
184.2798371779
 20
104.5090063863
 30
0.0
 11
207.7798400985
 21
104.5090063863
 31
0.0
  0
LINE
  5
AF
330
1F
100
AcDbEntity
  8
0
  6
Continuous
 62
     7
370
    25
100
AcDbLine
 10
207.7798400985
 20
144.5090054922
 30
0.0
 11
184.2798371779
 21
144.5090054922
 31
0.0
  0
ARC
  5
B0
330
1F
100
AcDbEntity
  8
0
  6
Continuous
 62
     7
370
    25
100
AcDbCircle
 10
207.779838072
 20
105.5090059393
 30
0.0
 40
1.0
100
AcDbArc
 50
270.0
 51
0.0
  0
ARC
  5
B1
330
1F
100
AcDbEntity
  8
0
  6
Continuous
 62
     7
370
    25
100
AcDbCircle
 10
207.779838072
 20
143.5090059393
 30
0.0
 40
1.0
100
AcDbArc
 50
0.0
 51
90.0
  0
LINE
  5
B2
330
1F
100
AcDbEntity
  8
0
  6
Continuous
 62
     7
370
    25
100
AcDbLine
 10
184.2798371779
 20
144.5090054922
 30
0.0
 11
183.0499176847
 21
144.1794495486
 31
0.0
  0
LINE
  5
B3
330
1F
100
AcDbEntity
  8
0
  6
Continuous
 62
     7
370
    25
100
AcDbLine
 10
183.0499176847
 20
104.8385623299
 30
0.0
 11
184.2798371779
 21
104.5090063863
 31
0.0
  0
ARC
  5
B4
330
1F
100
AcDbEntity
  8
0
  6
Continuous
 62
     7
370
    25
100
AcDbCircle
 10
182.8946287908
 20
104.2590059393
 30
0.0
 40
0.6000000000000085
100
AcDbArc
 50
75.0
 51
90.0
  0
ARC
  5
B5
330
1F
100
AcDbEntity
  8
0
  6
Continuous
 62
     7
370
    25
100
AcDbCircle
 10
182.8946287908
 20
144.7590059393
 30
0.0
 40
0.5999999999999659
100
AcDbArc
 50
270.0
 51
285.0
  0
LINE
  5
B6
330
1F
100
AcDbEntity
  8
0
  6
Continuous
 62
     7
370
    25
100
AcDbLine
 10
182.1798388826
 20
104.8590067231
 30
0.0
 11
182.8946252333
 21
104.8590067231
 31
0.0
  0
LINE
  5
B7
330
1F
100
AcDbEntity
  8
0
  6
Continuous
 62
     7
370
    25
100
AcDbLine
 10
182.8946252333
 20
144.1590051555
 30
0.0
 11
182.1798388826
 21
144.1590051555
 31
0.0
  0
LINE
  5
B8
330
1F
100
AcDbEntity
  8
0
  6
Continuous
 62
     7
370
    25
100
AcDbLine
 10
51.1631746756
 20
103.6390058153
 30
0.0
 11
58.579838367
 21
103.6390058153
 31
0.0
  0
ARC
  5
B9
330
1F
100
AcDbEntity
  8
0
  6
Continuous
 62
     7
370
    25
100
AcDbCircle
 10
58.579838072
 20
102.2390059393
 30
0.0
 40
1.400000000000006
100
AcDbArc
 50
42.2465410162
 51
90.0
  0
LINE
  5
BA
330
1F
100
AcDbEntity
  8
0
  6
Continuous
 62
     7
370
    25
100
AcDbLine
 10
49.8808701502
 20
104.7879728877
 30
0.0
 11
51.021000834
 21
103.6478422039
 31
0.0
  0
LINE
  5
BB
330
1F
100
AcDbEntity
  8
0
  6
Continuous
 62
     7
370
    25
100
AcDbLine
 10
51.021000834
 20
145.3701696747
 30
0.0
 11
49.8897400664
 21
144.2389070444
 31
0.0
  0
ARC
  5
BC
330
1F
100
AcDbEntity
  8
0
  6
Continuous
 62
     7
370
    25
100
AcDbCircle
 10
54.579838072
 20
146.7790059393
 30
0.0
 40
1.399999999999977
100
AcDbArc
 50
270.0
 51
301.7485287426
  0
LINE
  5
BD
330
1F
100
AcDbEntity
  8
0
  6
Continuous
 62
     7
370
    25
100
AcDbLine
 10
54.5798377113
 20
145.3790060633
 30
0.0
 11
51.1541035937
 21
145.3790060633
 31
0.0
  0
LINE
  5
BE
330
1F
100
AcDbEntity
  8
0
  6
Continuous
 62
     7
370
    25
100
AcDbLine
 10
188.7798388468
 20
147.0090068333
 30
0.0
 11
188.7798388468
 21
162.0090074294
 31
0.0
  0
LINE
  5
BF
330
1F
100
AcDbEntity
  8
0
  6
Continuous
 62
     7
370
    25
100
AcDbLine
 10
188.7798388468
 20
87.0090044492
 30
0.0
 11
188.7798388468
 21
102.0090050452
 31
0.0
  0
LINE
  5
C0
330
1F
100
AcDbEntity
  8
0
  6
Continuous
 62
     7
370
    25
100
AcDbLine
 10
213.7798373567
 20
139.509005604
 30
0.0
 11
213.7798373567
 21
109.5090062745
 31
0.0
  0
LINE
  5
C1
330
1F
100
AcDbEntity
  8
0
  6
Continuous
 62
     7
370
    25
100
AcDbLine
 10
233.7798331844
 20
138.5090063714
 30
0.0
 11
233.7798331844
 21
110.5090055071
 31
0.0
  0
LINE
  5
C2
330
1F
100
AcDbEntity
  8
0
  6
Continuous
 62
     7
370
    25
100
AcDbLine
 10
181.7798395621
 20
85.5090051346
 30
0.0
 11
181.7798395621
 21
163.5090067439
 31
0.0
  0
SPLINE
  5
C3
330
1F
100
AcDbEntity
  8
0
  6
Continuous
 62
     7
370
    25
100
AcDbSpline
210
0.0
220
0.0
230
1.0
 70
    11
 71
     3
 72
    66
 73
    62
 74
     0
 42
0.000000001
 43
0.00000001
 40
0.0
 40
0.0
 40
0.0
 40
0.0
 40
0.0312500000000008
 40
0.0312500000000008
 40
0.0625000000000017
 40
0.0625000000000017
 40
0.1250000000000029
 40
0.1250000000000029
 40
0.1562500000000035
 40
0.1562500000000035
 40
0.1875000000000041
 40
0.1875000000000041
 40
0.2187500000000047
 40
0.2187500000000047
 40
0.2500000000000053
 40
0.2500000000000053
 40
0.2812500000000059
 40
0.2812500000000059
 40
0.3125000000000065
 40
0.3125000000000065
 40
0.3750000000000077
 40
0.3750000000000077
 40
0.4062500000000087
 40
0.4062500000000087
 40
0.4375000000000097
 40
0.4375000000000097
 40
0.4687500000000107
 40
0.4687500000000107
 40
0.5000000000000117
 40
0.5000000000000117
 40
0.5312500000000127
 40
0.5312500000000127
 40
0.5625000000000138
 40
0.5625000000000138
 40
0.5937500000000148
 40
0.5937500000000148
 40
0.6250000000000159
 40
0.6250000000000159
 40
0.6562500000000153
 40
0.6562500000000153
 40
0.687500000000014
 40
0.687500000000014
 40
0.7187500000000125
 40
0.7187500000000125
 40
0.7500000000000112
 40
0.7500000000000112
 40
0.7812500000000098
 40
0.7812500000000098
 40
0.8125000000000084
 40
0.8125000000000084
 40
0.843750000000007
 40
0.843750000000007
 40
0.8750000000000057
 40
0.8750000000000057
 40
0.9062500000000042
 40
0.9062500000000042
 40
0.9375000000000029
 40
0.9375000000000029
 40
0.9687500000000014
 40
0.9687500000000014
 40
1.0
 40
1.0
 40
1.0
 40
1.0
 10
139.2403303138773
 20
96.40374221232767
 30
0.0
 10
139.2589040171204
 20
96.56244956272378
 30
0.0
 10
139.301497976644
 20
96.7182963816151
 30
0.0
 10
139.432429108784
 20
97.02428130879395
 30
0.0
 10
139.5218631808279
 20
97.17511289308311
 30
0.0
 10
139.8465005829501
 20
97.59913124782852
 30
0.0
 10
140.145455943467
 20
97.8537110128044
 30
0.0
 10
140.6686511551707
 20
98.15904271824351
 30
0.0
 10
140.8585463319866
 20
98.24993243208488
 30
0.0
 10
141.2530361277489
 20
98.40241922325168
 30
0.0
 10
141.4578940105714
 20
98.46459343038924
 30
0.0
 10
141.8825129051773
 20
98.56096046324721
 30
0.0
 10
142.1028203868956
 20
98.5948454314654
 30
0.0
 10
142.5415626006198
 20
98.6317353722844
 30
0.0
 10
142.7620801673149
 20
98.63532490970793
 30
0.0
 10
143.2054525871437
 20
98.61219167626022
 30
0.0
 10
143.4262981719058
 20
98.58527540594025
 30
0.0
 10
143.8534196802605
 20
98.50301632544512
 30
0.0
 10
144.0616494605365
 20
98.44761198120521
 30
0.0
 10
144.6694574961203
 20
98.23681433098696
 30
0.0
 10
145.0325989247277
 20
98.04439206406335
 30
0.0
 10
145.4951030514791
 20
97.6833922380012
 30
0.0
 10
145.6307432531014
 20
97.55448865675297
 30
0.0
 10
145.8650724762282
 20
97.28024790907759
 30
0.0
 10
145.9646505440215
 20
97.13300415584932
 30
0.0
 10
146.1176304715988
 20
96.83060040242519
 30
0.0
 10
146.1711178927733
 20
96.67664858021038
 30
0.0
 10
146.2315223222545
 20
96.3635100010323
 30
0.0
 10
146.2377018528933
 20
96.20353121727636
 30
0.0
 10
146.2014670039672
 20
95.89422280927414
 30
0.0
 10
146.1595480737492
 20
95.74250606232489
 30
0.0
 10
146.0278666410851
 20
95.44721361997507
 30
0.0
 10
145.9402641793319
 20
95.30814697098685
 30
0.0
 10
145.7242788862227
 20
95.04556865000008
 30
0.0
 10
145.5943565942455
 20
94.92126277684982
 30
0.0
 10
145.304591756284
 20
94.69713140732337
 30
0.0
 10
145.1441039508979
 20
94.59604457917759
 30
0.0
 10
144.7924379693781
 20
94.41472052677035
 30
0.0
 10
144.6043346884029
 20
94.33627150363449
 30
0.0
 10
144.2114168452814
 20
94.20435612835145
 30
0.0
 10
144.0039233219223
 20
94.1500880096624
 30
0.0
 10
143.5776533975332
 20
94.06724811440921
 30
0.0
 10
143.3612929035428
 20
94.03890319710369
 30
0.0
 10
142.9223334057745
 20
94.00721462949446
 30
0.0
 10
142.6975100583382
 20
94.00406814902999
 30
0.0
 10
142.2554904434369
 20
94.02359867664445
 30
0.0
 10
142.0378300737896
 20
94.04594318230868
 30
0.0
 10
141.6092220538806
 20
94.116073005757
 30
0.0
 10
141.3966431559076
 20
94.16454502135534
 30
0.0
 10
140.9948228077823
 20
94.28476359635604
 30
0.0
 10
140.8038169308359
 20
94.35657400342515
 30
0.0
 10
140.4423081076955
 20
94.52507072037466
 30
0.0
 10
140.2714936312977
 20
94.62247722516507
 30
0.0
 10
139.9670068906406
 20
94.83550720140435
 30
0.0
 10
139.831128371382
 20
94.95195793241956
 30
0.0
 10
139.5942905838841
 20
95.20680434284569
 30
0.0
 10
139.4951476151858
 20
95.34401266579943
 30
0.0
 10
139.3431035614978
 20
95.62859601407943
 30
0.0
 10
139.2886574658457
 20
95.77821482075407
 30
0.0
 10
139.2277848983043
 20
96.08804101876822
 30
0.0
 10
139.2217566106343
 20
96.24503486193157
 30
0.0
 10
139.2403303138773
 20
96.40374221232767
 30
0.0
  0
SPLINE
  5
C4
330
1F
100
AcDbEntity
  8
0
  6
Continuous
 62
     7
370
    25
100
AcDbSpline
210
0.0
220
0.0
230
1.0
 70
    11
 71
     3
 72
    68
 73
    64
 74
     0
 42
0.000000001
 43
0.00000001
 40
0.0
 40
0.0
 40
0.0
 40
0.0
 40
0.0312500000000003
 40
0.0312500000000003
 40
0.0625000000000007
 40
0.0625000000000007
 40
0.093750000000001
 40
0.093750000000001
 40
0.1250000000000013
 40
0.1250000000000013
 40
0.1562500000000017
 40
0.1562500000000017
 40
0.187500000000002
 40
0.187500000000002
 40
0.2187500000000023
 40
0.2187500000000023
 40
0.2500000000000018
 40
0.2500000000000018
 40
0.2812500000000012
 40
0.2812500000000012
 40
0.3125000000000007
 40
0.3125000000000007
 40
0.3437500000000001
 40
0.3437500000000001
 40
0.3749999999999996
 40
0.3749999999999996
 40
0.406249999999999
 40
0.406249999999999
 40
0.4374999999999984
 40
0.4374999999999984
 40
0.4687499999999979
 40
0.4687499999999979
 40
0.4999999999999973
 40
0.4999999999999973
 40
0.5312499999999968
 40
0.5312499999999968
 40
0.5624999999999962
 40
0.5624999999999962
 40
0.624999999999996
 40
0.624999999999996
 40
0.6562499999999963
 40
0.6562499999999963
 40
0.6874999999999967
 40
0.6874999999999967
 40
0.718749999999997
 40
0.718749999999997
 40
0.7499999999999973
 40
0.7499999999999973
 40
0.7812499999999977
 40
0.7812499999999977
 40
0.812499999999998
 40
0.812499999999998
 40
0.8437499999999983
 40
0.8437499999999983
 40
0.8749999999999987
 40
0.8749999999999987
 40
0.906249999999999
 40
0.906249999999999
 40
0.9374999999999993
 40
0.9374999999999993
 40
0.9687499999999997
 40
0.9687499999999997
 40
1.0
 40
1.0
 40
1.0
 40
1.0
 10
140.0565677119821
 20
154.2439040695003
 30
0.0
 10
140.2064825228001
 20
154.3549182624996
 30
0.0
 10
140.3702737682349
 20
154.4533794021646
 30
0.0
 10
140.7234561496954
 20
154.6278638496611
 30
0.0
 10
140.9148406437575
 20
154.7044441623496
 30
0.0
 10
141.313914858224
 20
154.8319490289138
 30
0.0
 10
141.52029009435
 20
154.882806027977
 30
0.0
 10
141.9462639391633
 20
154.9600714219873
 30
0.0
 10
142.1676118940052
 20
154.9863985565373
 30
0.0
 10
142.6078271774358
 20
155.0127273641574
 30
0.0
 10
142.8282393975992
 20
155.0131970250532
 30
0.0
 10
143.2696769520415
 20
154.9885865556348
 30
0.0
 10
143.4909540737597
 20
154.9631359991172
 30
0.0
 10
143.9165144379553
 20
154.8878614558195
 30
0.0
 10
144.1230951150519
 20
154.8380087767526
 30
0.0
 10
144.5233461886641
 20
154.7123683428947
 30
0.0
 10
144.7155074473667
 20
154.63668624474
 30
0.0
 10
145.0700454778523
 20
154.4642014177268
 30
0.0
 10
145.2345269269194
 20
154.3668144766828
 30
0.0
 10
145.5359345767455
 20
154.1472543178247
 30
0.0
 10
145.6693100236866
 20
154.0273412555702
 30
0.0
 10
145.8958873090526
 20
153.7713566236073
 30
0.0
 10
145.9906748949344
 20
153.6333964414619
 30
0.0
 10
146.1354243340954
 20
153.3428382337675
 30
0.0
 10
146.1842389046288
 20
153.1933827620683
 30
0.0
 10
146.2350384406037
 20
152.8858573694557
 30
0.0
 10
146.2363648684239
 20
152.7261139358403
 30
0.0
 10
146.1905015259082
 20
152.4126074485467
 30
0.0
 10
146.1440208091869
 20
152.2574005117608
 30
0.0
 10
146.0034819800546
 20
151.9504057799208
 30
0.0
 10
145.9111437137163
 20
151.8028040850373
 30
0.0
 10
145.6874251816399
 20
151.5228035469961
 30
0.0
 10
145.5539799506285
 20
151.3885455485765
 30
0.0
 10
145.257191790897
 20
151.1437656189474
 30
0.0
 10
145.0938311089598
 20
151.0325061825211
 30
0.0
 10
144.7380411455347
 20
150.8322613444078
 30
0.0
 10
144.5466929414258
 20
150.7442935883242
 30
0.0
 10
143.9517994674479
 20
150.5239196276954
 30
0.0
 10
143.5149539559159
 20
150.4311978805763
 30
0.0
 10
142.8559586431945
 20
150.3842795788278
 30
0.0
 10
142.6320129902791
 20
150.3835598895651
 30
0.0
 10
142.189265061064
 20
150.412639121311
 30
0.0
 10
141.9721380231304
 20
150.4420149071463
 30
0.0
 10
141.5462840121184
 20
150.5298939772858
 30
0.0
 10
141.3354273078347
 20
150.5892758103679
 30
0.0
 10
140.935985724065
 20
150.7344690375286
 30
0.0
 10
140.7470808379142
 20
150.8199144438012
 30
0.0
 10
140.3913423106664
 20
151.0164461290777
 30
0.0
 10
140.2231485391965
 20
151.1289387424945
 30
0.0
 10
139.9243921610057
 20
151.3711848320616
 30
0.0
 10
139.7921982709819
 20
151.5014505692812
 30
0.0
 10
139.5638772485905
 20
151.7805091241391
 30
0.0
 10
139.4683661359668
 20
151.9296276190281
 30
0.0
 10
139.3250946032474
 20
152.231798145613
 30
0.0
 10
139.2756625794787
 20
152.3866069784228
 30
0.0
 10
139.2242605208797
 20
152.7038690173019
 30
0.0
 10
139.2232995124842
 20
152.8604911749923
 30
0.0
 10
139.2689507393527
 20
153.1687901298381
 30
0.0
 10
139.3166461467647
 20
153.3223091863737
 30
0.0
 10
139.4563034911371
 20
153.6124671242936
 30
0.0
 10
139.5478317754716
 20
153.750094127598
 30
0.0
 10
139.7736229096589
 20
154.0112261138016
 30
0.0
 10
139.9066529011641
 20
154.132889876501
 30
0.0
 10
140.0565677119821
 20
154.2439040695003
 30
0.0
  0
SPLINE
  5
C5
330
1F
100
AcDbEntity
  8
0
  6
Continuous
 62
     7
370
    25
100
AcDbSpline
210
0.0
220
0.0
230
1.0
 70
    11
 71
     3
 72
    95
 73
    91
 74
     0
 42
0.000000001
 43
0.00000001
 40
0.0
 40
0.0
 40
0.0
 40
0.0
 40
0.0312499999999991
 40
0.0312499999999991
 40
0.0468749999999991
 40
0.0468749999999991
 40
0.0624999999999991
 40
0.0624999999999991
 40
0.0937499999999983
 40
0.0937499999999983
 40
0.1249999999999975
 40
0.1249999999999975
 40
0.1562499999999966
 40
0.1562499999999966
 40
0.1718749999999963
 40
0.1718749999999963
 40
0.1874999999999958
 40
0.1874999999999958
 40
0.2187499999999951
 40
0.2187499999999951
 40
0.2499999999999943
 40
0.2499999999999943
 40
0.2656249999999939
 40
0.2656249999999939
 40
0.2812499999999936
 40
0.2812499999999936
 40
0.3124999999999928
 40
0.3124999999999928
 40
0.3281249999999925
 40
0.3281249999999925
 40
0.3437499999999921
 40
0.3437499999999921
 40
0.3749999999999908
 40
0.3749999999999908
 40
0.4062499999999896
 40
0.4062499999999896
 40
0.421874999999989
 40
0.421874999999989
 40
0.4374999999999883
 40
0.4374999999999883
 40
0.4687499999999862
 40
0.4687499999999862
 40
0.4843749999999857
 40
0.4843749999999857
 40
0.4999999999999851
 40
0.4999999999999851
 40
0.5312499999999838
 40
0.5312499999999838
 40
0.5468749999999836
 40
0.5468749999999836
 40
0.5624999999999835
 40
0.5781249999999832
 40
0.5781249999999832
 40
0.593749999999983
 40
0.593749999999983
 40
0.6249999999999832
 40
0.6249999999999832
 40
0.6406249999999837
 40
0.6406249999999837
 40
0.6562499999999842
 40
0.6562499999999842
 40
0.6874999999999846
 40
0.6874999999999846
 40
0.7031249999999848
 40
0.7031249999999848
 40
0.718749999999985
 40
0.718749999999985
 40
0.7499999999999856
 40
0.7499999999999856
 40
0.7812499999999862
 40
0.7812499999999862
 40
0.7968749999999866
 40
0.7968749999999866
 40
0.8124999999999869
 40
0.8124999999999869
 40
0.8437499999999879
 40
0.8437499999999879
 40
0.8593749999999887
 40
0.8593749999999887
 40
0.8749999999999893
 40
0.8749999999999893
 40
0.9062499999999913
 40
0.9062499999999913
 40
0.9374999999999933
 40
0.9374999999999933
 40
0.9531249999999949
 40
0.9531249999999949
 40
0.9687499999999963
 40
0.9687499999999963
 40
1.0
 40
1.0
 40
1.0
 40
1.0
 10
157.7798380719578
 20
132.2148878547852
 30
0.0
 10
158.2959317702492
 20
132.2148878547851
 30
0.0
 10
158.8035932944674
 20
132.1662198345924
 30
0.0
 10
159.5529448168005
 20
132.0229965529053
 30
0.0
 10
159.800690517335
 20
131.9634642290104
 30
0.0
 10
160.292015350168
 20
131.8202332588702
 30
0.0
 10
160.5365603365759
 20
131.7360422846269
 30
0.0
 10
161.2488909621591
 20
131.4517445807022
 30
0.0
 10
161.6997885902749
 20
131.2193996867722
 30
0.0
 10
162.5540484365411
 20
130.6691150222421
 30
0.0
 10
162.9601328080598
 20
130.3474557859012
 30
0.0
 10
163.6898179268283
 20
129.6415117020485
 30
0.0
 10
164.0176285446512
 20
129.255484698189
 30
0.0
 10
164.45252526133
 20
128.6252000681431
 30
0.0
 10
164.5883691159949
 20
128.4055039790872
 30
0.0
 10
164.8347333748583
 20
127.9581628052005
 30
0.0
 10
164.9460206854149
 20
127.7295889386464
 30
0.0
 10
165.2448174894009
 20
127.0293546938413
 30
0.0
 10
165.3979555905358
 20
126.5417284566476
 30
0.0
 10
165.604849281832
 20
125.5323214098424
 30
0.0
 10
165.6559218962655
 20
125.0252502756912
 30
0.0
 10
165.6566126945731
 20
124.261204696093
 30
0.0
 10
165.6440927055358
 20
124.0059454358952
 30
0.0
 10
165.5928074322429
 20
123.4942389756604
 30
0.0
 10
165.5539700291684
 20
123.2387526243959
 30
0.0
 10
165.4008547724708
 20
122.4878947197835
 30
0.0
 10
165.2498723398269
 20
122.0023947413245
 30
0.0
 10
164.9499255918192
 20
121.2966584638391
 30
0.0
 10
164.8369313894774
 20
121.0641616860944
 30
0.0
 10
164.5905967564644
 20
120.6162369865294
 30
0.0
 10
164.4569917764186
 20
120.3998764163924
 30
0.0
 10
164.025613711129
 20
119.7729511660592
 30
0.0
 10
163.6958923872104
 20
119.3827234669817
 30
0.0
 10
162.9594365932864
 20
118.6695385815798
 30
0.0
 10
162.5615410189751
 20
118.3544759519733
 30
0.0
 10
161.9218233346502
 20
117.9412736555843
 30
0.0
 10
161.7013859335942
 20
117.8135123690084
 30
0.0
 10
161.245758100413
 20
117.5783331730369
 30
0.0
 10
161.0113820863992
 20
117.4714958216228
 30
0.0
 10
160.3009062727868
 20
117.1878769605828
 30
0.0
 10
159.8130784785239
 20
117.0452576465747
 30
0.0
 10
159.0600834635349
 20
116.9005595220468
 30
0.0
 10
158.8041146590253
 20
116.8638515984991
 30
0.0
 10
158.2927721976258
 20
116.8152582016712
 30
0.0
 10
158.0376230113847
 20
116.8032231828692
 30
0.0
 10
157.2737008709697
 20
116.8029276621929
 30
0.0
 10
156.7664389927115
 20
116.8501270027332
 30
0.0
 10
156.0086740932913
 20
116.9944890482262
 30
0.0
 10
155.7580874989349
 20
117.0548053424962
 30
0.0
 10
155.2683189060507
 20
117.1975908979889
 30
0.0
 10
154.7876709618203
 20
117.3629407422895
 30
0.0
 10
154.3250697850826
 20
117.5730900289455
 30
0.0
 10
153.8716514776217
 20
117.8061297693286
 30
0.0
 10
153.6483489198114
 20
117.9348991853116
 30
0.0
 10
153.0029473512948
 20
118.3505812809398
 30
0.0
 10
152.6057119406074
 20
118.665380626714
 30
0.0
 10
152.0584844761738
 20
119.1936248521691
 30
0.0
 10
151.8842365885831
 20
119.3791126095474
 30
0.0
 10
151.5526307276624
 20
119.7696576641315
 30
0.0
 10
151.3963407771099
 20
119.9736725215918
 30
0.0
 10
150.9629740756035
 20
120.6018112269312
 30
0.0
 10
150.7178501206747
 20
121.0455546487443
 30
0.0
 10
150.4166601321736
 20
121.7494420705525
 30
0.0
 10
150.3270224160732
 20
121.991976955718
 30
0.0
 10
150.1739253403771
 20
122.4813109769302
 30
0.0
 10
150.1102026921762
 20
122.7282459098012
 30
0.0
 10
149.9566229593016
 20
123.4757134281034
 30
0.0
 10
149.903961835396
 20
123.9828411652005
 30
0.0
 10
149.902631993399
 20
125.0155715161357
 30
0.0
 10
149.9540202255584
 20
125.5232467747102
 30
0.0
 10
150.1058449572359
 20
126.2715749786116
 30
0.0
 10
150.1690083387476
 20
126.5188455837147
 30
0.0
 10
150.3210532355
 20
127.0089481244718
 30
0.0
 10
150.4100485738252
 20
127.2515057681851
 30
0.0
 10
150.7095577259291
 20
127.9561358090102
 30
0.0
 10
150.9538744609031
 20
128.4010625859148
 30
0.0
 10
151.3869897779963
 20
129.0317139191047
 30
0.0
 10
151.5434926582903
 20
129.2367776599916
 30
0.0
 10
151.8734722686415
 20
129.626988389122
 30
0.0
 10
152.0471044590266
 20
129.8126334193588
 30
0.0
 10
152.5932543391279
 20
130.3420705989973
 30
0.0
 10
152.9913177661771
 20
130.6589724458778
 30
0.0
 10
153.8544658531172
 20
131.2168109342641
 30
0.0
 10
154.3065712355331
 20
131.4495177465892
 30
0.0
 10
155.0142328478083
 20
131.732763220756
 30
0.0
 10
155.2550734502253
 20
131.8161259772659
 30
0.0
 10
155.7468740153724
 20
131.9603498295036
 30
0.0
 10
155.998287500279
 20
132.0211703076208
 30
0.0
 10
156.753828750115
 20
132.1662057995381
 30
0.0
 10
157.2637443736664
 20
132.2148878547851
 30
0.0
 10
157.7798380719578
 20
132.2148878547851
 30
0.0
  0
LINE
  5
C6
330
1F
100
AcDbEntity
  8
0
  6
Continuous
 62
     7
370
    25
100
AcDbLine
 10
107.729837762
 20
94.9487287008
 30
0.0
 11
107.729837762
 21
144.3590066784
 31
0.0
  0
SPLINE
  5
C7
330
1F
100
AcDbEntity
  8
0
  6
Continuous
 62
     7
370
    25
100
AcDbSpline
210
0.0
220
0.0
230
1.0
 70
     8
 71
     3
 72
    10
 73
     6
 74
     0
 42
0.000000001
 43
0.00000001
 40
0.0
 40
0.0
 40
0.0
 40
0.0
 40
0.5
 40
0.5
 40
1.0
 40
1.0
 40
1.0
 40
1.0
 10
107.7298380719578
 20
94.94872853867992
 30
0.0
 10
107.7298380719578
 20
94.78765018775925
 30
0.0
 10
107.6681538526688
 20
94.6271654189364
 30
0.0
 10
107.4492705364722
 20
94.39359468363628
 30
0.0
 10
107.2900984867531
 20
94.32208824302523
 30
0.0
 10
107.1298380719566
 20
94.32208824302558
 30
0.0
  0
SPLINE
  5
C8
330
1F
100
AcDbEntity
  8
0
  6
Continuous
 62
     7
370
    25
100
AcDbSpline
210
0.0
220
0.0
230
1.0
 70
    24
 71
     3
 72
    12
 73
     8
 74
     0
 42
0.000000001
 43
0.00000001
 40
0.0
 40
0.0
 40
0.0
 40
0.0
 40
0.250000000000002
 40
0.250000000000002
 40
0.500000000000004
 40
0.500000000000004
 40
1.0
 40
1.0
 40
1.0
 40
1.0
 10
107.1298380719578
 20
144.3590059392727
 30
0.0
 10
107.2208304067906
 20
144.3590059392727
 30
0.0
 10
107.3108229966258
 20
144.3590059392727
 30
0.0
 10
107.4650434737638
 20
144.3590059392727
 30
0.0
 10
107.5303205104225
 20
144.3590059392727
 30
0.0
 10
107.683108698195
 20
144.3590059392727
 30
0.0
 10
107.7298380719578
 20
144.3590059392727
 30
0.0
 10
107.7298380719578
 20
144.3590059392727
 30
0.0
  0
LINE
  5
C9
330
1F
100
AcDbEntity
  8
0
  6
Continuous
 62
     7
370
    25
100
AcDbLine
 10
86.7298380451
 20
144.3590066784
 30
0.0
 11
96.3879055323
 21
144.3590066784
 31
0.0
  0
LINE
  5
CA
330
1F
100
AcDbEntity
  8
0
  6
Continuous
 62
     7
370
    25
100
AcDbLine
 10
96.3879055323
 20
94.3220883065
 30
0.0
 11
96.3879055323
 21
144.3590066784
 31
0.0
  0
LINE
  5
CB
330
1F
100
AcDbEntity
  8
0
  6
Continuous
 62
     7
370
    25
100
AcDbLine
 10
96.3879055323
 20
94.3220883065
 30
0.0
 11
94.7298384251
 21
94.3220883065
 31
0.0
  0
SPLINE
  5
CC
330
1F
100
AcDbEntity
  8
0
  6
Continuous
 62
     7
370
    25
100
AcDbSpline
210
0.0
220
0.0
230
1.0
 70
     8
 71
     3
 72
    28
 73
    24
 74
     0
 42
0.000000001
 43
0.00000001
 40
0.0
 40
0.0
 40
0.0
 40
0.0
 40
0.1249999999999999
 40
0.1249999999999999
 40
0.1874999999999998
 40
0.1874999999999998
 40
0.2499999999999997
 40
0.2499999999999997
 40
0.3749999999999993
 40
0.3749999999999993
 40
0.4374999999999993
 40
0.4374999999999993
 40
0.4999999999999992
 40
0.4999999999999992
 40
0.6249999999999992
 40
0.6249999999999992
 40
0.7499999999999992
 40
0.7499999999999992
 40
0.8124999999999993
 40
0.8124999999999993
 40
0.8749999999999996
 40
0.8749999999999996
 40
1.0
 40
1.0
 40
1.0
 40
1.0
 10
94.72983807195779
 20
94.3220882430256
 30
0.0
 10
94.19813031446486
 20
94.3220882430256
 30
0.0
 10
93.67589174915453
 20
94.30630352907538
 30
0.0
 10
92.90602126287953
 20
94.26130811499918
 30
0.0
 10
92.65166169068819
 20
94.24275311992345
 30
0.0
 10
92.14754010998968
 20
94.19890039747696
 30
0.0
 10
91.89781729256174
 20
94.17355579052474
 30
0.0
 10
91.17222734111535
 20
94.09015371277464
 30
0.0
 10
90.7138670795338
 20
94.02428815362356
 30
0.0
 10
90.06336913613993
 20
93.91531781313178
 30
0.0
 10
89.85168708534746
 20
93.87707817736512
 30
0.0
 10
89.44761559620945
 20
93.79931943994576
 30
0.0
 10
89.2551090823886
 20
93.75981847777042
 30
0.0
 10
88.70527411136732
 20
93.64091073540442
 30
0.0
 10
88.37534533305852
 20
93.56109305397979
 30
0.0
 10
87.79087406448983
 20
93.40774989218374
 30
0.0
 10
87.5445969264764
 20
93.33641613891449
 30
0.0
 10
87.24475413377832
 20
93.24247263183986
 30
0.0
 10
87.15629727670614
 20
93.21327883847994
 30
0.0
 10
87.002935923401
 20
93.15981226421653
 30
0.0
 10
86.93784770917478
 20
93.13545292994135
 30
0.0
 10
86.78225369323397
 20
93.07186278449662
 30
0.0
 10
86.72983807195777
 20
93.04175984940736
 30
0.0
 10
86.72983807195779
 20
93.02488295641042
 30
0.0
  0
LINE
  5
CD
330
1F
100
AcDbEntity
  8
0
  6
Continuous
 62
     7
370
    25
100
AcDbLine
 10
86.7298380451
 20
93.0248826199
 30
0.0
 11
86.7298380451
 21
93.0090054326
 31
0.0
  0
SPLINE
  5
CE
330
1F
100
AcDbEntity
  8
0
  6
Continuous
 62
     7
370
    25
100
AcDbSpline
210
0.0
220
0.0
230
1.0
 70
     8
 71
     3
 72
    17
 73
    13
 74
     0
 42
0.000000001
 43
0.00000001
 40
0.0
 40
0.0
 40
0.0
 40
0.0
 40
0.1034797280380778
 40
0.2100239090909901
 40
0.3134862262879433
 40
0.4198361712144981
 40
0.5254127947779869
 40
0.6339610881168427
 40
0.7409508662120068
 40
0.8511696072047016
 40
0.9558996557845765
 40
1.0
 40
1.0
 40
1.0
 40
1.0
 10
94.72983842511532
 20
154.9762013756312
 30
0.0
 10
94.2945899333894
 20
154.9816493672689
 30
0.0
 10
93.4112034828124
 20
154.9927066875975
 30
0.0
 10
92.13037562058965
 20
155.0790654479725
 30
0.0
 10
90.9129594251477
 20
155.2069365911055
 30
0.0
 10
89.80515280882192
 20
155.365880998424
 30
0.0
 10
88.81691432949307
 20
155.5403755714086
 30
0.0
 10
87.99219122967725
 20
155.7095420045955
 30
0.0
 10
87.34323757217862
 20
155.8574228130632
 30
0.0
 10
86.92620226869899
 20
155.9592135645858
 30
0.0
 10
86.727605525821
 20
156.0095704642202
 30
0.0
 10
86.75091864280893
 20
156.0036608592447
 30
0.0
 10
86.75782661680934
 20
156.0019097678937
 30
0.0
  0
LINE
  5
CF
330
1F
100
AcDbEntity
  8
0
  6
Continuous
 62
     7
370
    25
100
AcDbLine
 10
96.3879055323
 20
154.9762013756
 30
0.0
 11
94.7298384251
 21
154.9762013756
 31
0.0
  0
LINE
  5
D0
330
1F
100
AcDbEntity
  8
0
  6
Continuous
 62
     7
370
    25
100
AcDbLine
 10
96.3879055323
 20
148.9676955544
 30
0.0
 11
96.3879055323
 21
154.9762013756
 31
0.0
  0
LINE
  5
D1
330
1F
100
AcDbEntity
  8
0
  6
Continuous
 62
     7
370
    25
100
AcDbLine
 10
93.9754587578
 20
148.9676955544
 30
0.0
 11
96.3879055323
 21
148.9676955544
 31
0.0
  0
SPLINE
  5
D2
330
1F
100
AcDbEntity
  8
0
  6
Continuous
 62
     7
370
    25
100
AcDbSpline
210
0.0
220
0.0
230
1.0
 70
     8
 71
     3
 72
    20
 73
    16
 74
     0
 42
0.000000001
 43
0.00000001
 40
0.0
 40
0.0
 40
0.0
 40
0.0
 40
0.2499999999999995
 40
0.2499999999999995
 40
0.3749999999999996
 40
0.3749999999999996
 40
0.4999999999999997
 40
0.4999999999999997
 40
0.6249999999999998
 40
0.6249999999999998
 40
0.7499999999999998
 40
0.7499999999999998
 40
0.8749999999999999
 40
0.8749999999999999
 40
1.0
 40
1.0
 40
1.0
 40
1.0
 10
86.72983807195777
 20
144.3590059392727
 30
0.0
 10
86.97821180624585
 20
145.0128683675701
 30
0.0
 10
87.29778189859111
 20
145.6166541495673
 30
0.0
 10
87.92008813179581
 20
146.4434928857359
 30
0.0
 10
88.15151239222655
 20
146.7059215236888
 30
0.0
 10
88.67272673187627
 20
147.2025841777938
 30
0.0
 10
88.95934721451135
 20
147.4331710568153
 30
0.0
 10
89.57883195581896
 20
147.849725281398
 30
0.0
 10
89.91313233530592
 20
148.0372230833655
 30
0.0
 10
90.6383928079307
 20
148.3686200610019
 30
0.0
 10
91.02030786532117
 20
148.5081240484972
 30
0.0
 10
91.81509604149286
 20
148.7335775559681
 30
0.0
 10
92.22925423569924
 20
148.8202036675117
 30
0.0
 10
93.09480057628063
 20
148.9381844563659
 30
0.0
 10
93.53268819129244
 20
148.9676956016402
 30
0.0
 10
93.97545841764706
 20
148.9676956016402
 30
0.0
  0
SPLINE
  5
D3
330
1F
100
AcDbEntity
  8
0
  6
Continuous
 62
     7
370
    25
100
AcDbSpline
210
0.0
220
0.0
230
1.0
 70
    11
 71
     3
 72
    70
 73
    66
 74
     0
 42
0.000000001
 43
0.00000001
 40
0.0
 40
0.0
 40
0.0
 40
0.0
 40
0.0312500000000001
 40
0.0312500000000001
 40
0.0625000000000002
 40
0.0625000000000002
 40
0.0937500000000003
 40
0.0937500000000003
 40
0.1250000000000004
 40
0.1250000000000004
 40
0.1562500000000005
 40
0.1562500000000005
 40
0.1875000000000006
 40
0.1875000000000006
 40
0.2187500000000007
 40
0.2187500000000007
 40
0.2500000000000008
 40
0.2500000000000008
 40
0.2812500000000009
 40
0.2812500000000009
 40
0.3125000000000011
 40
0.3125000000000011
 40
0.3437500000000012
 40
0.3437500000000012
 40
0.3750000000000012
 40
0.3750000000000012
 40
0.4062500000000013
 40
0.4062500000000013
 40
0.4375000000000014
 40
0.4375000000000014
 40
0.4687500000000016
 40
0.4687500000000016
 40
0.5000000000000017
 40
0.5000000000000017
 40
0.5312500000000018
 40
0.5312500000000018
 40
0.5625000000000019
 40
0.5625000000000019
 40
0.593750000000002
 40
0.593750000000002
 40
0.6250000000000021
 40
0.6250000000000021
 40
0.6562500000000022
 40
0.6562500000000022
 40
0.6875000000000023
 40
0.6875000000000023
 40
0.7187500000000021
 40
0.7187500000000021
 40
0.7500000000000018
 40
0.7500000000000018
 40
0.7812500000000016
 40
0.7812500000000016
 40
0.8125000000000013
 40
0.8125000000000013
 40
0.8437500000000011
 40
0.8437500000000011
 40
0.8750000000000009
 40
0.8750000000000009
 40
0.9062500000000007
 40
0.9062500000000007
 40
0.9375000000000004
 40
0.9375000000000004
 40
0.9687500000000002
 40
0.9687500000000002
 40
1.0
 40
1.0
 40
1.0
 40
1.0
 10
89.77983807195781
 20
135.1299128252561
 30
0.0
 10
89.51529273329764
 20
135.1299128252561
 30
0.0
 10
89.25522206592055
 20
135.1545901200413
 30
0.0
 10
88.74364738608513
 20
135.2510617930832
 30
0.0
 10
88.48947210234495
 20
135.3240427090633
 30
0.0
 10
88.00520147228323
 20
135.5137833120019
 30
0.0
 10
87.77556038040207
 20
135.6296439703956
 30
0.0
 10
87.34095603216859
 20
135.9022618163533
 30
0.0
 10
87.13539025552197
 20
136.0603008984071
 30
0.0
 10
86.76683311492674
 20
136.4038437493778
 30
0.0
 10
86.60135213219125
 20
136.5906061934794
 30
0.0
 10
86.30892762275614
 20
136.9941493678762
 30
0.0
 10
86.18482664612965
 20
137.2076463643054
 30
0.0
 10
85.98524744937994
 20
137.6470296782279
 30
0.0
 10
85.90831386352166
 20
137.8761696653735
 30
0.0
 10
85.80545680500128
 20
138.3421437881335
 30
0.0
 10
85.77998389554217
 20
138.5750262338097
 30
0.0
 10
85.77969348497439
 20
139.0404237688895
 30
0.0
 10
85.80571811875012
 20
139.2752995262838
 30
0.0
 10
85.90786640324214
 20
139.7267926735301
 30
0.0
 10
85.9834428508253
 20
139.9448391489415
 30
0.0
 10
86.18394038197022
 20
140.3659336739793
 30
0.0
 10
86.3090692234786
 20
140.5678550584976
 30
0.0
 10
86.59842802450018
 20
140.9398845410165
 30
0.0
 10
86.76383901155566
 20
141.1125128445969
 30
0.0
 10
87.13682956970348
 20
141.4298308491429
 30
0.0
 10
87.33856260279258
 20
141.5696177826445
 30
0.0
 10
87.77142185362044
 20
141.8137940361963
 30
0.0
 10
88.00534038650983
 20
141.9190235472378
 30
0.0
 10
88.48952412165244
 20
142.087180693613
 30
0.0
 10
88.73883974760794
 20
142.1504315842068
 30
0.0
 10
89.25187227203567
 20
142.2360107933094
 30
0.0
 10
89.51716609494031
 20
142.2578829582318
 30
0.0
 10
90.03950071481005
 20
142.2580466078757
 30
0.0
 10
90.29925437729179
 20
142.2370449157798
 30
0.0
 10
90.81586619293702
 20
142.1516425607021
 30
0.0
 10
91.06823223343731
 20
142.0876363774152
 30
0.0
 10
91.54975735497013
 20
141.920821857374
 30
0.0
 10
91.78260808708369
 20
141.8166886939748
 30
0.0
 10
92.21969793552246
 20
141.5707020414798
 30
0.0
 10
92.42101892417965
 20
141.430952210531
 30
0.0
 10
92.79010494947954
 20
141.1178141408064
 30
0.0
 10
92.95908970053124
 20
140.9423579815363
 30
0.0
 10
93.24954575719043
 20
140.5695177174361
 30
0.0
 10
93.37261756855258
 20
140.3713959073251
 30
0.0
 10
93.5739538099746
 20
139.9506845645915
 30
0.0
 10
93.65116635591683
 20
139.728694543924
 30
0.0
 10
93.75336989881689
 20
139.2788296042156
 30
0.0
 10
93.77959825026923
 20
139.0485741910988
 30
0.0
 10
93.78007464958633
 20
138.5772582485498
 30
0.0
 10
93.75433223708836
 20
138.3440208328356
 30
0.0
 10
93.65302146072449
 20
137.8823442933375
 30
0.0
 10
93.57618882133356
 20
137.6514469062254
 30
0.0
 10
93.37578498211838
 20
137.2091708924337
 30
0.0
 10
93.25311348382634
 20
136.9981084611478
 30
0.0
 10
92.96316619466211
 20
136.5966099504152
 30
0.0
 10
92.79459521529687
 20
136.4057034283393
 30
0.0
 10
92.42632562118371
 20
136.0619780963422
 30
0.0
 10
92.22526376391339
 20
135.9068409101281
 30
0.0
 10
91.78823284532847
 20
135.6317635500484
 30
0.0
 10
91.55608463219886
 20
135.5146473206264
 30
0.0
 10
91.0750743507
 20
135.3257208355618
 30
0.0
 10
90.82297426786955
 20
135.2526458651675
 30
0.0
 10
90.30590478161056
 20
135.154593806033
 30
0.0
 10
90.04438341061794
 20
135.1299128252561
 30
0.0
 10
89.7798380719578
 20
135.1299128252561
 30
0.0
  0
SPLINE
  5
D4
330
1F
100
AcDbEntity
  8
0
  6
Continuous
 62
     7
370
    25
100
AcDbSpline
210
0.0
220
0.0
230
1.0
 70
    11
 71
     3
 72
    70
 73
    66
 74
     0
 42
0.000000001
 43
0.00000001
 40
0.0
 40
0.0
 40
0.0
 40
0.0
 40
0.0312499999999997
 40
0.0312499999999997
 40
0.0624999999999994
 40
0.0624999999999994
 40
0.0937499999999991
 40
0.0937499999999991
 40
0.1249999999999988
 40
0.1249999999999988
 40
0.1562499999999986
 40
0.1562499999999986
 40
0.1874999999999983
 40
0.1874999999999983
 40
0.2187499999999979
 40
0.2187499999999979
 40
0.2499999999999977
 40
0.2499999999999977
 40
0.2812499999999976
 40
0.2812499999999976
 40
0.3124999999999974
 40
0.3124999999999974
 40
0.3437499999999973
 40
0.3437499999999973
 40
0.3749999999999972
 40
0.3749999999999972
 40
0.4062499999999971
 40
0.4062499999999971
 40
0.4374999999999969
 40
0.4374999999999969
 40
0.4687499999999968
 40
0.4687499999999968
 40
0.4999999999999967
 40
0.4999999999999967
 40
0.5312499999999968
 40
0.5312499999999968
 40
0.562499999999997
 40
0.562499999999997
 40
0.5937499999999971
 40
0.5937499999999971
 40
0.6249999999999972
 40
0.6249999999999972
 40
0.6562499999999974
 40
0.6562499999999974
 40
0.6874999999999976
 40
0.6874999999999976
 40
0.7187499999999978
 40
0.7187499999999978
 40
0.7499999999999979
 40
0.7499999999999979
 40
0.7812499999999981
 40
0.7812499999999981
 40
0.8124999999999984
 40
0.8124999999999984
 40
0.8437499999999987
 40
0.8437499999999987
 40
0.8749999999999989
 40
0.8749999999999989
 40
0.9062499999999992
 40
0.9062499999999992
 40
0.9374999999999994
 40
0.9374999999999994
 40
0.9687499999999998
 40
0.9687499999999998
 40
1.0
 40
1.0
 40
1.0
 40
1.0
 10
89.77983807195778
 20
149.567969334052
 30
0.0
 10
89.51529273329764
 20
149.567969334052
 30
0.0
 10
89.25522206592055
 20
149.5838697744667
 30
0.0
 10
88.74364738608513
 20
149.645814124641
 30
0.0
 10
88.48947210234495
 20
149.6926163587323
 30
0.0
 10
88.00520147228325
 20
149.8135933421873
 30
0.0
 10
87.77556038040207
 20
149.8871956699942
 30
0.0
 10
87.34095603216859
 20
150.0590199409723
 30
0.0
 10
87.13539025552197
 20
150.1580233638998
 30
0.0
 10
86.76683311492675
 20
150.3711197778126
 30
0.0
 10
86.60135213219125
 20
150.4860194939423
 30
0.0
 10
86.30892762275616
 20
150.7313863926325
 30
0.0
 10
86.18482664612965
 20
150.8598262931028
 30
0.0
 10
85.98524744937994
 20
151.1207184411888
 30
0.0
 10
85.90831386352167
 20
151.2550996125282
 30
0.0
 10
85.80545680500128
 20
151.5244195636346
 30
0.0
 10
85.77998389554217
 20
151.6571008278527
 30
0.0
 10
85.7796934849744
 20
151.9182873019837
 30
0.0
 10
85.80571811875014
 20
152.0480523401484
 30
0.0
 10
85.90786640324214
 20
152.2936349744211
 30
0.0
 10
85.9834428508253
 20
152.41029651173
 30
0.0
 10
86.18394038197022
 20
152.6322017018845
 30
0.0
 10
86.30906922347862
 20
152.7368129558075
 30
0.0
 10
86.59842802450018
 20
152.9268593674156
 30
0.0
 10
86.76383901155566
 20
153.0136190388653
 30
0.0
 10
87.13682956970348
 20
153.1711234146168
 30
0.0
 10
87.33856260279258
 20
153.239448679404
 30
0.0
 10
87.77142185362045
 20
153.3576784030232
 30
0.0
 10
88.00534038650984
 20
153.4079733191271
 30
0.0
 10
88.48952412165244
 20
153.4878388560167
 30
0.0
 10
88.73883974760795
 20
153.5175799838163
 30
0.0
 10
89.25187227203568
 20
153.5577327253245
 30
0.0
 10
89.51716609494031
 20
153.5679309947344
 30
0.0
 10
90.03950071481006
 20
153.5680074531191
 30
0.0
 10
90.2992543772918
 20
153.55821644151
 30
0.0
 10
90.81586619293704
 20
153.5181496027713
 30
0.0
 10
91.06823223343731
 20
153.4880524359145
 30
0.0
 10
91.54975735497014
 20
153.4088302260843
 30
0.0
 10
91.7826080870837
 20
153.3590727466209
 30
0.0
 10
92.21969793552246
 20
153.2399808041705
 30
0.0
 10
92.42101892417965
 20
153.1716655426232
 30
0.0
 10
92.79010494947954
 20
153.0162645756897
 30
0.0
 10
92.95908970053124
 20
152.9281122336228
 30
0.0
 10
93.24954575719043
 20
152.7376728445064
 30
0.0
 10
93.37261756855258
 20
152.6350482668074
 30
0.0
 10
93.57395380997458
 20
152.4134079201993
 30
0.0
 10
93.65116635591683
 20
152.2946538446518
 30
0.0
 10
93.75336989881689
 20
152.0499879057341
 30
0.0
 10
93.77959825026922
 20
151.9228311802856
 30
0.0
 10
93.78007464958633
 20
151.65838303443
 30
0.0
 10
93.75433223708835
 20
151.5254823541728
 30
0.0
 10
93.65302146072449
 20
151.2586900806908
 30
0.0
 10
93.57618882133356
 20
151.1233261792222
 30
0.0
 10
93.37578498211838
 20
150.8607463839197
 30
0.0
 10
93.25311348382634
 20
150.7337712241659
 30
0.0
 10
92.9631661946621
 20
150.4896918380835
 30
0.0
 10
92.79459521529687
 20
150.3722667133296
 30
0.0
 10
92.42632562118371
 20
150.1590702523812
 30
0.0
 10
92.22526376391339
 20
150.0618961339563
 30
0.0
 10
91.78823284532845
 20
149.8885412467421
 30
0.0
 10
91.55608463219886
 20
149.8141416950855
 30
0.0
 10
91.07507435069999
 20
149.6936888155808
 30
0.0
 10
90.82297426786955
 20
149.6468304403148
 30
0.0
 10
90.30590478161056
 20
149.583872943331
 30
0.0
 10
90.04438341061794
 20
149.567969334052
 30
0.0
 10
89.77983807195778
 20
149.567969334052
 30
0.0
  0
LINE
  5
D5
330
1F
100
AcDbEntity
  8
0
  6
Continuous
 62
     7
370
    25
100
AcDbLine
 10
103.1717699932
 20
94.3220883065
 30
0.0
 11
103.1717699932
 21
144.3590066784
 31
0.0
  0
SPLINE
  5
D6
330
1F
100
AcDbEntity
  8
0
  6
Continuous
 62
     7
370
    25
100
AcDbSpline
210
0.0
220
0.0
230
1.0
 70
     8
 71
     3
 72
     8
 73
     4
 74
     0
 42
0.000000001
 43
0.00000001
 40
0.0
 40
0.0
 40
0.0
 40
0.0
 40
1.0
 40
1.0
 40
1.0
 40
1.0
 10
103.1717709034468
 20
94.3220882430256
 30
0.0
 10
102.6762912427811
 20
95.21761433095897
 30
0.0
 10
102.182177194739
 20
96.11389874601122
 30
0.0
 10
101.6898380719578
 20
97.01116878021791
 30
0.0
  0
LINE
  5
D7
330
1F
100
AcDbEntity
  8
0
  6
Continuous
 62
     7
370
    25
100
AcDbLine
 10
101.6898383366
 20
97.0111686193
 30
0.0
 11
101.6898383366
 21
144.3590066784
 31
0.0
  0
SPLINE
  5
D8
330
1F
100
AcDbEntity
  8
0
  6
Continuous
 62
     7
370
    25
100
AcDbSpline
210
0.0
220
0.0
230
1.0
 70
    24
 71
     3
 72
     8
 73
     4
 74
     0
 42
0.000000001
 43
0.00000001
 40
0.0
 40
0.0
 40
0.0
 40
0.0
 40
1.0
 40
1.0
 40
1.0
 40
1.0
 10
101.6898380719578
 20
144.3590059392727
 30
0.0
 10
102.1697900663227
 20
144.3590059392727
 30
0.0
 10
102.6650907952963
 20
144.3590059392727
 30
0.0
 10
103.1717709034468
 20
144.3590059392727
 30
0.0
  0
LINE
  5
D9
330
1F
100
AcDbEntity
  8
0
  6
Continuous
 62
     7
370
    25
100
AcDbLine
 10
107.1298387813
 20
94.3220883065
 30
0.0
 11
103.1717699932
 21
94.3220883065
 31
0.0
  0
LINE
  5
DA
330
1F
100
AcDbEntity
  8
0
  6
Continuous
 62
     7
370
    25
100
AcDbLine
 10
103.1717699932
 20
144.3590066784
 30
0.0
 11
107.1298387813
 21
144.3590066784
 31
0.0
  0
LINE
  5
DB
330
1F
100
AcDbEntity
  8
0
  6
Continuous
 62
     7
370
    25
100
AcDbLine
 10
81.779838072
 20
93.3090067857
 30
0.0
 11
81.779838072
 21
155.7090050929
 31
0.0
  0
LINE
  5
DC
330
1F
100
AcDbEntity
  8
0
  6
Continuous
 62
     7
370
    25
100
AcDbLine
 10
97.8698381202
 20
97.0111686193
 30
0.0
 11
97.8698381202
 21
144.3590066784
 31
0.0
  0
SPLINE
  5
DD
330
1F
100
AcDbEntity
  8
0
  6
Continuous
 62
     7
370
    25
100
AcDbSpline
210
0.0
220
0.0
230
1.0
 70
     8
 71
     3
 72
     8
 73
     4
 74
     0
 42
0.000000001
 43
0.00000001
 40
0.0
 40
0.0
 40
0.0
 40
0.0
 40
1.0
 40
1.0
 40
1.0
 40
1.0
 10
97.86983807195779
 20
97.0111687802179
 30
0.0
 10
97.37749894917661
 20
96.1138987460112
 30
0.0
 10
96.88338490113448
 20
95.21761433095897
 30
0.0
 10
96.38790524046874
 20
94.3220882430256
 30
0.0
  0
SPLINE
  5
DE
330
1F
100
AcDbEntity
  8
0
  6
Continuous
 62
     7
370
    25
100
AcDbSpline
210
0.0
220
0.0
230
1.0
 70
    24
 71
     3
 72
     8
 73
     4
 74
     0
 42
0.000000001
 43
0.00000001
 40
0.0
 40
0.0
 40
0.0
 40
0.0
 40
1.0
 40
1.0
 40
1.0
 40
1.0
 10
96.38790524046871
 20
144.3590059392727
 30
0.0
 10
96.89458534861924
 20
144.3590059392727
 30
0.0
 10
97.38988607759289
 20
144.3590059392727
 30
0.0
 10
97.86983807195779
 20
144.3590059392727
 30
0.0
  0
LWPOLYLINE
  5
DF
330
1F
100
AcDbEntity
  8
0
  6
Continuous
 62
     7
370
    25
100
AcDbPolyline
 90
       22
 70
   128
 43
0.0
 10
142.729837911
 20
150.6172615491
 10
143.4667264091
 20
150.6957981192
 10
144.1381392049
 20
150.9244322233
 10
144.6844194995
 20
151.2828442656
 10
145.0570230352
 20
151.7391904645
 10
145.2228506075
 20
152.2529228978
 10
145.1671575176
 20
152.7783937209
 10
144.8948984014
 20
153.2689120077
 10
144.4302727448
 20
153.6808937245
 10
143.8145455884
 20
153.977732306
 10
143.102445172
 20
154.1330508344
 10
142.3572306501
 20
154.1330508344
 10
141.6451302337
 20
153.977732306
 10
141.0294068026
 20
153.6808937245
 10
140.5647736954
 20
153.2689120077
 10
140.2925183045
 20
152.7783937209
 10
140.2368289398
 20
152.2529228978
 10
140.4026527869
 20
151.7391904645
 10
140.7752600478
 20
151.2828442656
 10
141.3215366172
 20
150.9244322233
 10
141.992949413
 20
150.6957981192
 10
142.729837911
 20
150.6172615491
  0
LWPOLYLINE
  5
E0
330
1F
100
AcDbEntity
  8
0
  6
Continuous
 62
     7
370
    25
100
AcDbPolyline
 90
       22
 70
   128
 43
0.0
 10
142.729837911
 20
94.8652151429
 10
143.4667264091
 20
94.9437535756
 10
144.1381392049
 20
95.1723858171
 10
144.6844194995
 20
95.5307978593
 10
145.0570230352
 20
95.9871459209
 10
145.2228506075
 20
96.5008783542
 10
145.1671575176
 20
97.0263473146
 10
144.8948984014
 20
97.5168656014
 10
144.4302727448
 20
97.9288473182
 10
143.8145455884
 20
98.2256858998
 10
143.102445172
 20
98.3810062908
 10
142.3572306501
 20
98.3810062908
 10
141.6451302337
 20
98.2256858998
 10
141.0294068026
 20
97.9288473182
 10
140.5647736954
 20
97.5168656014
 10
140.2925183045
 20
97.0263473146
 10
140.2368289398
 20
96.5008783542
 10
140.4026527869
 20
95.9871459209
 10
140.7752600478
 20
95.5307978593
 10
141.3215366172
 20
95.1723858171
 10
141.992949413
 20
94.9437535756
 10
142.729837911
 20
94.8652151429
  0
ARC
  5
E1
330
1F
100
AcDbEntity
  8
0
  6
Continuous
 62
     7
370
    25
100
AcDbCircle
 10
89.7767445418
 20
136.3996067999
 30
0.0
 40
4.117627639703874
100
AcDbArc
 50
19.4347339901
 51
159.2359811865
  0
SPLINE
  5
E2
330
1F
100
AcDbEntity
  8
0
  6
Continuous
 62
     7
370
    25
100
AcDbSpline
210
0.0
220
0.0
230
1.0
 70
    24
 71
     3
 72
    14
 73
    10
 74
     0
 42
0.000000001
 43
0.00000001
 40
0.0
 40
0.0
 40
0.0
 40
0.0
 40
0.5
 40
0.5
 40
0.75
 40
0.75
 40
0.875
 40
0.875
 40
1.0
 40
1.0
 40
1.0
 40
1.0
 10
101.5921632696255
 20
98.10900593927278
 30
0.0
 10
101.5453785645773
 20
98.10900593927278
 30
0.0
 10
101.4833273677977
 20
98.10900593927278
 30
0.0
 10
101.3399357292471
 20
98.10900593927276
 30
0.0
 10
101.2837920756959
 20
98.10900593927278
 30
0.0
 10
101.1708410535597
 20
98.10900593927276
 30
0.0
 10
101.1278402915216
 20
98.10900593927278
 30
0.0
 10
101.0237775812151
 20
98.10900593927276
 30
0.0
 10
100.9584453428582
 20
98.10900593927276
 30
0.0
 10
100.8898380719578
 20
98.10900593927278
 30
0.0
  0
SPLINE
  5
E3
330
1F
100
AcDbEntity
  8
0
  6
Continuous
 62
     7
370
    25
100
AcDbSpline
210
0.0
220
0.0
230
1.0
 70
    24
 71
     3
 72
    12
 73
     8
 74
     0
 42
0.000000001
 43
0.00000001
 40
0.0
 40
0.0
 40
0.0
 40
0.0
 40
0.5000000000000074
 40
0.5000000000000074
 40
0.7500000000000037
 40
0.7500000000000037
 40
1.0
 40
1.0
 40
1.0
 40
1.0
 10
101.2955405402668
 20
150.9090059392728
 30
0.0
 10
101.2524549906559
 20
150.9090059392728
 30
0.0
 10
101.2033027889066
 20
150.9090059392728
 30
0.0
 10
101.1068301946186
 20
150.9090059392728
 30
0.0
 10
101.0707286094841
 20
150.9090059392728
 30
0.0
 10
100.9876228516228
 20
150.9090059392728
 30
0.0
 10
100.9396262546565
 20
150.9090059392728
 30
0.0
 10
100.8898380719578
 20
150.9090059392728
 30
0.0
  0
SPLINE
  5
E4
330
1F
100
AcDbEntity
  8
0
  6
Continuous
 62
     7
370
    25
100
AcDbSpline
210
0.0
220
0.0
230
1.0
 70
     8
 71
     3
 72
    10
 73
     6
 74
     0
 42
0.000000001
 43
0.00000001
 40
0.0
 40
0.0
 40
0.0
 40
0.0
 40
0.5
 40
0.5
 40
1.0
 40
1.0
 40
1.0
 40
1.0
 10
101.6898380719578
 20
151.6286597903085
 30
0.0
 10
101.6898380719578
 20
151.4848897324905
 30
0.0
 10
101.6537890132389
 20
151.3424703699954
 30
0.0
 10
101.5182801524649
 20
151.0925760766382
 30
0.0
 10
101.4184041593687
 20
150.9845457403899
 30
0.0
 10
101.2955405402668
 20
150.9090059392727
 30
0.0
  0
SPLINE
  5
E5
330
1F
100
AcDbEntity
  8
0
  6
Continuous
 62
     7
370
    25
100
AcDbSpline
210
0.0
220
0.0
230
1.0
 70
     8
 71
     3
 72
    10
 73
     6
 74
     0
 42
0.000000001
 43
0.00000001
 40
0.0
 40
0.0
 40
0.0
 40
0.0
 40
0.5
 40
0.5
 40
1.0
 40
1.0
 40
1.0
 40
1.0
 10
101.6636904487977
 20
144.3590059392727
 30
0.0
 10
101.6723800917093
 20
144.405884788591
 30
0.0
 10
101.6789191564598
 20
144.4533072539923
 30
0.0
 10
101.6876777908529
 20
144.549244052579
 30
0.0
 10
101.6898380719578
 20
144.5971593405896
 30
0.0
 10
101.6898380719578
 20
144.6448725707341
 30
0.0
  0
SPLINE
  5
E6
330
1F
100
AcDbEntity
  8
0
  6
Continuous
 62
     7
370
    25
100
AcDbSpline
210
0.0
220
0.0
230
1.0
 70
     8
 71
     3
 72
    10
 73
     6
 74
     0
 42
0.000000001
 43
0.00000001
 40
0.0
 40
0.0
 40
0.0
 40
0.0
 40
0.5
 40
0.5
 40
1.0
 40
1.0
 40
1.0
 40
1.0
 10
98.26413560364874
 20
150.9090059392728
 30
0.0
 10
98.14259533998022
 20
150.9837321064845
 30
0.0
 10
98.0412609796313
 20
151.0926771224013
 30
0.0
 10
97.90562203674287
 20
151.3431076031629
 30
0.0
 10
97.86983807195779
 20
151.4855269652618
 30
0.0
 10
97.86983807195779
 20
151.6286597903085
 30
0.0
  0
SPLINE
  5
E7
330
1F
100
AcDbEntity
  8
0
  6
Continuous
 62
     7
370
    25
100
AcDbSpline
210
0.0
220
0.0
230
1.0
 70
    24
 71
     3
 72
    12
 73
     8
 74
     0
 42
0.000000001
 43
0.00000001
 40
0.0
 40
0.0
 40
0.0
 40
0.0
 40
0.2499999999999963
 40
0.2499999999999963
 40
0.4999999999999926
 40
0.4999999999999926
 40
1.0
 40
1.0
 40
1.0
 40
1.0
 10
98.66983807195778
 20
150.9090059392728
 30
0.0
 10
98.61996138964032
 20
150.9090059392728
 30
0.0
 10
98.57195819623674
 20
150.9090059392728
 30
0.0
 10
98.48891009352477
 20
150.9090059392728
 30
0.0
 10
98.45278051405693
 20
150.9090059392728
 30
0.0
 10
98.35686848311272
 20
150.9090059392728
 30
0.0
 10
98.30710981514392
 20
150.9090059392728
 30
0.0
 10
98.26413560364874
 20
150.9090059392728
 30
0.0
  0
SPLINE
  5
E8
330
1F
100
AcDbEntity
  8
0
  6
Continuous
 62
     7
370
    25
100
AcDbSpline
210
0.0
220
0.0
230
1.0
 70
    24
 71
     3
 72
    14
 73
    10
 74
     0
 42
0.000000001
 43
0.00000001
 40
0.0
 40
0.0
 40
0.0
 40
0.0
 40
0.1249999999999993
 40
0.1249999999999993
 40
0.2499999999999987
 40
0.2499999999999987
 40
0.4999999999999973
 40
0.4999999999999973
 40
1.0
 40
1.0
 40
1.0
 40
1.0
 10
98.66983807195778
 20
98.10900593927278
 30
0.0
 10
98.60140022407134
 20
98.10900593927276
 30
0.0
 10
98.53585018530627
 20
98.10900593927278
 30
0.0
 10
98.43142354589834
 20
98.10900593927276
 30
0.0
 10
98.3888789361369
 20
98.10900593927278
 30
0.0
 10
98.27626947559668
 20
98.10900593927276
 30
0.0
 10
98.22073042857716
 20
98.10900593927278
 30
0.0
 10
98.07811873311337
 20
98.10900593927276
 30
0.0
 10
98.01471337811762
 20
98.10900593927278
 30
0.0
 10
97.96751287429007
 20
98.10900593927278
 30
0.0
  0
SPLINE
  5
E9
330
1F
100
AcDbEntity
  8
0
  6
Continuous
 62
     7
370
    25
100
AcDbSpline
210
0.0
220
0.0
230
1.0
 70
     8
 71
     3
 72
    10
 73
     6
 74
     0
 42
0.000000001
 43
0.00000001
 40
0.0
 40
0.0
 40
0.0
 40
0.0
 40
0.5
 40
0.5
 40
1.0
 40
1.0
 40
1.0
 40
1.0
 10
97.86983807195779
 20
144.6448725707341
 30
0.0
 10
97.86983807195779
 20
144.5971010627408
 30
0.0
 10
97.87199931555494
 20
144.5493913406792
 30
0.0
 10
97.88067068941511
 20
144.4540962231309
 30
0.0
 10
97.8871998723711
 20
144.4064036591642
 30
0.0
 10
97.89598569511793
 20
144.3590059392727
 30
0.0
  0
LINE
  5
EA
330
1F
100
AcDbEntity
  8
0
  6
Continuous
 62
     7
370
    25
100
AcDbLine
 10
100.8898378329
 20
150.9090057962
 30
0.0
 11
98.6698386239
 21
150.9090057962
 31
0.0
  0
LINE
  5
EB
330
1F
100
AcDbEntity
  8
0
  6
Continuous
 62
     7
370
    25
100
AcDbLine
 10
100.8898378329
 20
98.1090060823
 30
0.0
 11
98.6698386239
 21
98.1090060823
 31
0.0
  0
LINE
  5
EC
330
1F
100
AcDbEntity
  8
0
  6
Continuous
 62
     7
370
    25
100
AcDbLine
 10
59.9798378514
 20
101.2805599176
 30
0.0
 11
59.9798378514
 21
102.5452680342
 31
0.0
  0
SPLINE
  5
ED
330
1F
100
AcDbEntity
  8
0
  6
Continuous
 62
     7
370
    25
100
AcDbSpline
210
0.0
220
0.0
230
1.0
 70
     8
 71
     3
 72
    14
 73
    10
 74
     0
 42
0.000000001
 43
0.00000001
 40
0.0
 40
0.0
 40
0.0
 40
0.0
 40
0.25
 40
0.25
 40
0.5
 40
0.5
 40
0.75
 40
0.75
 40
1.0
 40
1.0
 40
1.0
 40
1.0
 10
59.20155095404208
 20
103.6758546157128
 30
0.0
 10
59.25817762924415
 20
103.5681571618759
 30
0.0
 10
59.35270028953388
 20
103.4653675801566
 30
0.0
 10
59.53574526509611
 20
103.2670102679365
 30
0.0
 10
59.62737184205083
 20
103.1709507592582
 30
0.0
 10
59.78622515974403
 20
102.983421716549
 30
0.0
 10
59.85411576736574
 20
102.8920127437654
 30
0.0
 10
59.95103279307332
 20
102.7136365228553
 30
0.0
 10
59.97983807195836
 20
102.6264146166091
 30
0.0
 10
59.97983807195836
 20
102.5452684080748
 30
0.0
  0
SPLINE
  5
EE
330
1F
100
AcDbEntity
  8
0
  6
Continuous
 62
     7
370
    25
100
AcDbSpline
210
0.0
220
0.0
230
1.0
 70
     8
 71
     3
 72
    14
 73
    10
 74
     0
 42
0.000000001
 43
0.00000001
 40
0.0
 40
0.0
 40
0.0
 40
0.0
 40
0.125
 40
0.125
 40
0.25
 40
0.25
 40
0.5
 40
0.5
 40
1.0
 40
1.0
 40
1.0
 40
1.0
 10
58.57983807195779
 20
104.1225364779921
 30
0.0
 10
58.62838248061497
 20
104.1282847912724
 30
0.0
 10
58.68129783539987
 20
104.1251839026162
 30
0.0
 10
58.7765931803829
 20
104.1029890584539
 30
0.0
 10
58.81684417766786
 20
104.085756831358
 30
0.0
 10
58.92111419118082
 20
104.0294289149059
 30
0.0
 10
58.97143616633416
 20
103.9852425689601
 30
0.0
 10
59.09911911385952
 20
103.8542346701095
 30
0.0
 10
59.1552045609218
 20
103.7640001498792
 30
0.0
 10
59.20155095404353
 20
103.6758546157133
 30
0.0
  0
SPLINE
  5
EF
330
1F
100
AcDbEntity
  8
0
  6
Continuous
 62
     7
370
    25
100
AcDbSpline
210
0.0
220
0.0
230
1.0
 70
     8
 71
     3
 72
     8
 73
     4
 74
     0
 42
0.000000001
 43
0.00000001
 40
0.0
 40
0.0
 40
0.0
 40
0.0
 40
1.0
 40
1.0
 40
1.0
 40
1.0
 10
56.31131297901153
 20
103.8126911914093
 30
0.0
 10
57.0458900054945
 20
103.9313162024783
 30
0.0
 10
57.80936507489017
 20
104.0313020746146
 30
0.0
 10
58.57983807195779
 20
104.1225364779921
 30
0.0
  0
SPLINE
  5
F0
330
1F
100
AcDbEntity
  8
0
  6
Continuous
 62
     7
370
    25
100
AcDbSpline
210
0.0
220
0.0
230
1.0
 70
     8
 71
     3
 72
    14
 73
    10
 74
     0
 42
0.000000001
 43
0.00000001
 40
0.0
 40
0.0
 40
0.0
 40
0.0
 40
0.5000000000000002
 40
0.5000000000000002
 40
0.7500000000000002
 40
0.7500000000000002
 40
0.8750000000000001
 40
0.8750000000000001
 40
1.0
 40
1.0
 40
1.0
 40
1.0
 10
51.0298380719578
 20
103.6390681738777
 30
0.0
 10
51.92198420251136
 20
103.638345947677
 30
0.0
 10
52.81196063830494
 20
103.6429321541345
 30
0.0
 10
54.13855580538053
 20
103.670657158526
 30
0.0
 10
54.57940273387926
 20
103.6832636961502
 30
0.0
 10
55.23584297130169
 20
103.7142798441577
 30
0.0
 10
55.45385662789356
 20
103.7266230167844
 30
0.0
 10
55.88656548157633
 20
103.7596470719477
 30
0.0
 10
56.10184194674113
 20
103.7788642370862
 30
0.0
 10
56.31131297901151
 20
103.8126911914093
 30
0.0
  0
SPLINE
  5
F1
330
1F
100
AcDbEntity
  8
0
  6
Continuous
 62
     7
370
    25
100
AcDbSpline
210
0.0
220
0.0
230
1.0
 70
     8
 71
     3
 72
     8
 73
     4
 74
     0
 42
0.000000001
 43
0.00000001
 40
0.0000005163856712
 40
0.0000005163856712
 40
0.0000005163856712
 40
0.0000005163856712
 40
0.000026289209185
 40
0.000026289209185
 40
0.000026289209185
 40
0.000026289209185
 10
51.01979314153911
 20
103.6490520469856
 30
0.0
 10
51.02312087975059
 20
103.6457178001127
 30
0.0
 10
51.02646933272987
 20
103.6423898428337
 30
0.0
 10
51.02983807195777
 20
103.6390681738777
 30
0.0
  0
SPLINE
  5
F2
330
1F
100
AcDbEntity
  8
0
  6
Continuous
 62
     7
370
    25
100
AcDbSpline
210
0.0
220
0.0
230
1.0
 70
     8
 71
     3
 72
     8
 73
     4
 74
     0
 42
0.000000001
 43
0.00000001
 40
0.0000005099763573
 40
0.0000005099763573
 40
0.0000005099763573
 40
0.0000005099763573
 40
0.0000262827998699
 40
0.0000262827998699
 40
0.0000262827998699
 40
0.0000262827998699
 10
51.02983807195777
 20
145.3789437046678
 30
0.0
 10
51.02646933273004
 20
145.375622035712
 30
0.0
 10
51.02312087975091
 20
145.3722940784331
 30
0.0
 10
51.01979314153958
 20
145.3689598315604
 30
0.0
  0
SPLINE
  5
F3
330
1F
100
AcDbEntity
  8
0
  6
Continuous
 62
     7
370
    25
100
AcDbSpline
210
0.0
220
0.0
230
1.0
 70
     8
 71
     3
 72
    10
 73
     6
 74
     0
 42
0.000000001
 43
0.00000001
 40
0.0
 40
0.0
 40
0.0
 40
0.0
 40
0.5
 40
0.5
 40
1.0
 40
1.0
 40
1.0
 40
1.0
 10
54.57983807195779
 20
145.3320933311005
 30
0.0
 10
53.99225252486721
 20
145.3531588513369
 30
0.0
 10
53.40150613140682
 20
145.3639173372091
 30
0.0
 10
52.21748696610796
 20
145.3772821177448
 30
0.0
 10
51.6240729779025
 20
145.3794247604094
 30
0.0
 10
51.0298380719578
 20
145.3789437046678
 30
0.0
  0
SPLINE
  5
F4
330
1F
100
AcDbEntity
  8
0
  6
Continuous
 62
     7
370
    25
100
AcDbSpline
210
0.0
220
0.0
230
1.0
 70
     8
 71
     3
 72
    18
 73
    14
 74
     0
 42
0.000000001
 43
0.00000001
 40
0.0
 40
0.0
 40
0.0
 40
0.0
 40
0.2500000000000008
 40
0.2500000000000008
 40
0.5000000000000009
 40
0.5000000000000009
 40
0.7500000000000009
 40
0.7500000000000009
 40
0.875000000000001
 40
0.875000000000001
 40
0.9375000000000006
 40
0.9375000000000006
 40
1.0
 40
1.0
 40
1.0
 40
1.0
 10
55.97983807195781
 20
146.3531136116358
 30
0.0
 10
55.97983807195782
 20
146.2699067027786
 30
0.0
 10
55.94398897201955
 20
146.181170047465
 30
0.0
 10
55.81911723598562
 20
145.9990448569048
 30
0.0
 10
55.72871681833776
 20
145.9039148082781
 30
0.0
 10
55.50647416359557
 20
145.7147332991538
 30
0.0
 10
55.37670937714981
 20
145.6197881310591
 30
0.0
 10
55.1360719198383
 20
145.4815094234791
 30
0.0
 10
55.04830462170086
 20
145.4357989901768
 30
0.0
 10
54.89378053449402
 20
145.3779756849553
 30
0.0
 10
54.83716964843928
 20
145.3602609209175
 30
0.0
 10
54.71312561753268
 20
145.3357216176845
 30
0.0
 10
54.64541094251439
 20
145.3297424791462
 30
0.0
 10
54.57983807195779
 20
145.3320933311005
 30
0.0
  0
LINE
  5
F5
330
1F
100
AcDbEntity
  8
0
  6
Continuous
 62
     7
370
    25
100
AcDbLine
 10
55.9798371958
 20
146.3531135969
 30
0.0
 11
55.9798371958
 21
147.537051832
 31
0.0
  0
LINE
  5
F6
330
1F
100
AcDbEntity
  8
0
  6
Continuous
 62
     7
370
    25
100
AcDbLine
 10
79.779837977
 20
100.2885747158
 30
0.0
 11
79.779837977
 21
148.7294371628
 31
0.0
  0
SPLINE
  5
F7
330
1F
100
AcDbEntity
  8
0
  6
Continuous
 62
     7
370
    25
100
AcDbSpline
210
0.0
220
0.0
230
1.0
 70
     8
 71
     3
 72
    18
 73
    14
 74
     0
 42
0.000000001
 43
0.00000001
 40
0.0
 40
0.0
 40
0.0
 40
0.0
 40
0.001067142096085
 40
0.1270947925777493
 40
0.2524053537361832
 40
0.3766468838452861
 40
0.4391416358858051
 40
0.5008278334298175
 40
0.5624255844801763
 40
0.6253162510714301
 40
0.7499985254815132
 40
0.8752758926324193
 40
1.0
 40
1.0
 40
1.0
 40
1.0
 10
68.55013919790146
 20
100.8516672455348
 30
0.0
 10
68.54922712261873
 20
100.8515520776427
 30
0.0
 10
68.44060052143821
 20
100.837835779313
 30
0.0
 10
68.82828199348096
 20
100.8888220406946
 30
0.0
 10
69.69423045359049
 20
100.9883790765691
 30
0.0
 10
70.89463824731331
 20
101.0575097061882
 30
0.0
 10
71.95221379717104
 20
101.061460406455
 30
0.0
 10
72.7793481612943
 20
101.0339735385307
 30
0.0
 10
73.60461979734214
 20
100.9754310497184
 30
0.0
 10
74.65898500445093
 20
100.8619124477587
 30
0.0
 10
75.82082121070434
 20
100.6787582919252
 30
0.0
 10
76.77305593137748
 20
100.474158143259
 30
0.0
 10
76.89876103408612
 20
100.4448714732499
 30
0.0
 10
76.96147449110505
 20
100.4302605443276
 30
0.0
  0
SPLINE
  5
F8
330
1F
100
AcDbEntity
  8
0
  6
Continuous
 62
     7
370
    25
100
AcDbSpline
210
0.0
220
0.0
230
1.0
 70
     8
 71
     3
 72
    18
 73
    14
 74
     0
 42
0.000000001
 43
0.00000001
 40
0.0
 40
0.0
 40
0.0
 40
0.0
 40
0.1248907819469273
 40
0.2505384063477967
 40
0.3748721756041158
 40
0.4374907331267689
 40
0.4990776026247599
 40
0.5607931145009658
 40
0.6233901196104445
 40
0.7478191009174896
 40
0.8731941046696081
 40
0.9991614615322162
 40
0.9999999999999999
 40
0.9999999999999999
 40
0.9999999999999999
 40
0.9999999999999999
 10
76.96125563030002
 20
148.5876861416377
 30
0.0
 10
76.89751479833231
 20
148.5730246754107
 30
0.0
 10
76.76964686275274
 20
148.5436128939646
 30
0.0
 10
75.81764802616422
 20
148.3386589346071
 30
0.0
 10
74.65710395531158
 20
148.1553976727434
 30
0.0
 10
73.60484018364821
 20
148.0423671183684
 30
0.0
 10
72.78061288462993
 20
147.9841063108957
 30
0.0
 10
71.95300913930527
 20
147.9566591747736
 30
0.0
 10
70.89419180961103
 20
147.9606439686482
 30
0.0
 10
69.69197206998518
 20
148.0297367531441
 30
0.0
 10
68.82679129898631
 20
148.1293454903313
 30
0.0
 10
68.44064255134862
 20
148.1802030959746
 30
0.0
 10
68.54872042371223
 20
148.1665022885512
 30
0.0
 10
68.54943511803505
 20
148.1664116882361
 30
0.0
  0
SPLINE
  5
F9
330
1F
100
AcDbEntity
  8
0
  6
Continuous
 62
     7
370
    25
100
AcDbSpline
210
0.0
220
0.0
230
1.0
 70
     8
 71
     3
 72
     9
 73
     5
 74
     0
 42
0.000000001
 43
0.00000001
 40
0.0
 40
0.0
 40
0.0
 40
0.0
 40
0.7009339503679092
 40
0.9999999999999999
 40
0.9999999999999999
 40
0.9999999999999999
 40
0.9999999999999999
 10
49.90062163938639
 20
104.8077262394704
 30
0.0
 10
49.90976231033623
 20
104.7898969557095
 30
0.0
 10
49.92280301259503
 20
104.7644604880487
 30
0.0
 10
49.93796647586329
 20
104.8183398475222
 30
0.0
 10
49.9425013529217
 20
104.8344533347167
 30
0.0
  0
LINE
  5
FA
330
1F
100
AcDbEntity
  8
0
  6
Continuous
 62
     7
370
    25
100
AcDbLine
 10
49.8798382448
 20
104.8183284157
 30
0.0
 11
49.8798382448
 21
144.1996834629
 31
0.0
  0
SPLINE
  5
FB
330
1F
100
AcDbEntity
  8
0
  6
Continuous
 62
     7
370
    25
100
AcDbSpline
210
0.0
220
0.0
230
1.0
 70
     8
 71
     3
 72
    10
 73
     6
 74
     0
 42
0.000000001
 43
0.00000001
 40
0.0
 40
0.0
 40
0.0
 40
0.0
 40
0.5
 40
0.5
 40
1.0
 40
1.0
 40
1.0
 40
1.0
 10
49.94250144668119
 20
144.1835584840535
 30
0.0
 10
49.93359715757245
 20
144.2293000032667
 30
0.0
 10
49.91708177737947
 20
144.2464908427357
 30
0.0
 10
49.88997383131785
 20
144.2461675657999
 30
0.0
 10
49.87983807195781
 20
144.2282900235035
 30
0.0
 10
49.8798380719578
 20
144.1996836857509
 30
0.0
  0
SPLINE
  5
FC
330
1F
100
AcDbEntity
  8
0
  6
Continuous
 62
     7
370
    25
100
AcDbSpline
210
0.0
220
0.0
230
1.0
 70
     8
 71
     3
 72
    26
 73
    22
 74
     0
 42
0.000000001
 43
0.00000001
 40
0.0
 40
0.0
 40
0.0
 40
0.0
 40
0.2500000000000165
 40
0.2500000000000165
 40
0.3750000000000256
 40
0.3750000000000256
 40
0.4375000000000291
 40
0.4375000000000291
 40
0.4687500000000291
 40
0.4687500000000291
 40
0.5000000000000292
 40
0.5000000000000292
 40
0.5312500000000293
 40
0.5312500000000293
 40
0.5625000000000293
 40
0.5625000000000293
 40
0.625000000000026
 40
0.625000000000026
 40
0.7500000000000173
 40
0.7500000000000173
 40
1.0
 40
1.0
 40
1.0
 40
1.0
 10
50.7039917180623
 20
144.8991252728706
 30
0.0
 10
50.66539119519383
 20
144.7813505765151
 30
0.0
 10
50.61909419263957
 20
144.6569608903532
 30
0.0
 10
50.52515484420564
 20
144.4517415579998
 30
0.0
 10
50.48984337729219
 20
144.3801686915533
 30
0.0
 10
50.42366340154653
 20
144.2642154589529
 30
0.0
 10
50.39912503487828
 20
144.2236309241426
 30
0.0
 10
50.3557522893245
 20
144.1594892422709
 30
0.0
 10
50.34024388789929
 20
144.1376228169858
 30
0.0
 10
50.30520124331228
 20
144.0920285486426
 30
0.0
 10
50.2856509525925
 20
144.0683582576752
 30
0.0
 10
50.2437236722219
 20
144.0237416983353
 30
0.0
 10
50.22107156199026
 20
144.0028616858174
 30
0.0
 10
50.18009784790362
 20
143.9719882720665
 30
0.0
 10
50.16249854800819
 20
143.9621494022341
 30
0.0
 10
50.11787156215205
 20
143.943159786538
 30
0.0
 10
50.09731233949871
 20
143.9428354618845
 30
0.0
 10
50.04618690000205
 20
143.9520589027607
 30
0.0
 10
50.02527548701352
 20
143.9733057989777
 30
0.0
 10
49.97382557945258
 20
144.0472746778084
 30
0.0
 10
49.95616028014803
 20
144.1133927711232
 30
0.0
 10
49.94250144668119
 20
144.1835584840535
 30
0.0
  0
SPLINE
  5
FD
330
1F
100
AcDbEntity
  8
0
  6
Continuous
 62
     7
370
    25
100
AcDbSpline
210
0.0
220
0.0
230
1.0
 70
     8
 71
     3
 72
    10
 73
     6
 74
     0
 42
0.000000001
 43
0.00000001
 40
0.0
 40
0.0
 40
0.0
 40
0.0
 40
0.5
 40
0.5
 40
1.0
 40
1.0
 40
1.0
 40
1.0
 10
51.01979314153959
 20
145.3689598315604
 30
0.0
 10
50.95223388662136
 20
145.3012684387507
 30
0.0
 10
50.88859723128486
 20
145.226561273997
 30
0.0
 10
50.77837647671299
 20
145.0675951415704
 30
0.0
 10
50.73156018349037
 20
144.9832398755624
 30
0.0
 10
50.7039917180623
 20
144.8991252728706
 30
0.0
  0
SPLINE
  5
FE
330
1F
100
AcDbEntity
  8
0
  6
Continuous
 62
     7
370
    25
100
AcDbSpline
210
0.0
220
0.0
230
1.0
 70
     8
 71
     3
 72
    10
 73
     6
 74
     0
 42
0.000000001
 43
0.00000001
 40
0.0
 40
0.0
 40
0.0
 40
0.0
 40
0.5
 40
0.5
 40
1.0
 40
1.0
 40
1.0
 40
1.0
 10
50.70399171806233
 20
104.1188866056748
 30
0.0
 10
50.73146913281555
 20
104.0350498092092
 30
0.0
 10
50.77817776310322
 20
103.9507393216224
 30
0.0
 10
50.88845622584516
 20
103.7916180911395
 30
0.0
 10
50.9523437644568
 20
103.7166333470514
 30
0.0
 10
51.01979314153913
 20
103.6490520469856
 30
0.0
  0
SPLINE
  5
FF
330
1F
100
AcDbEntity
  8
0
  6
Continuous
 62
     7
370
    25
100
AcDbSpline
210
0.0
220
0.0
230
1.0
 70
     8
 71
     3
 72
    24
 73
    20
 74
     0
 42
0.000000001
 43
0.00000001
 40
0.0
 40
0.0
 40
0.0
 40
0.0
 40
0.2499999999999952
 40
0.2499999999999952
 40
0.3749999999999937
 40
0.3749999999999937
 40
0.4374999999999931
 40
0.4374999999999931
 40
0.468749999999992
 40
0.468749999999992
 40
0.4999999999999909
 40
0.4999999999999909
 40
0.5624999999999933
 40
0.5624999999999933
 40
0.6249999999999958
 40
0.6249999999999958
 40
0.7499999999999981
 40
0.7499999999999981
 40
1.0
 40
1.0
 40
1.0
 40
1.0
 10
49.94250144668119
 20
104.834453394492
 30
0.0
 10
49.95625456535142
 20
104.9051034524823
 30
0.0
 10
49.97402713275728
 20
104.9717015652472
 30
0.0
 10
50.02627822431266
 20
105.0457995854804
 30
0.0
 10
50.0473132998942
 20
105.067057392642
 30
0.0
 10
50.10021370752263
 20
105.0752033187882
 30
0.0
 10
50.12131938040054
 20
105.0742635153925
 30
0.0
 10
50.16737154907851
 20
105.0532475238151
 30
0.0
 10
50.18574202106189
 20
105.0423387177075
 30
0.0
 10
50.2272936561276
 20
105.0097038067602
 30
0.0
 10
50.24986032888451
 20
104.9882118263888
 30
0.0
 10
50.31264134534455
 20
104.9197458828025
 30
0.0
 10
50.34577110631241
 20
104.8736714245974
 30
0.0
 10
50.40268879279744
 20
104.7886635362627
 30
0.0
 10
50.42687481830121
 20
104.7483832350813
 30
0.0
 10
50.49208276868099
 20
104.6334470086154
 30
0.0
 10
50.52679882887223
 20
104.5628640234684
 30
0.0
 10
50.62001409920311
 20
104.3586582643898
 30
0.0
 10
50.66568663456379
 20
104.2357598820624
 30
0.0
 10
50.70399171806233
 20
104.1188866056748
 30
0.0
  0
LINE
  5
100
330
1F
100
AcDbEntity
  8
0
  6
Continuous
 62
     7
370
    25
100
AcDbLine
 10
184.2798371779
 20
104.5090063863
 30
0.0
 11
184.2798371779
 21
144.5090054922
 31
0.0
  0
LINE
  5
101
330
1F
100
AcDbEntity
  8
0
  6
Continuous
 62
     7
370
    25
100
AcDbLine
 10
208.7798421251
 20
105.5090065502
 30
0.0
 11
208.7798421251
 21
143.5090053283
 31
0.0
  0
SPLINE
  5
102
330
1F
100
AcDbEntity
  8
0
  6
Continuous
 62
     7
370
    25
100
AcDbSpline
210
0.0
220
0.0
230
1.0
 70
     8
 71
     3
 72
    10
 73
     6
 74
     0
 42
0.000000001
 43
0.00000001
 40
0.0
 40
0.0
 40
0.0
 40
0.0
 40
0.5
 40
0.5
 40
1.0
 40
1.0
 40
1.0
 40
1.0
 10
107.7298380719578
 20
154.3554462630367
 30
0.0
 10
107.7298380719578
 20
154.5160630791436
 30
0.0
 10
107.6680669963227
 20
154.6745223980138
 30
0.0
 10
107.4476331207225
 20
154.9066016666847
 30
0.0
 10
107.2900980680091
 20
154.976201412437
 30
0.0
 10
107.1298380719578
 20
154.976201412437
 30
0.0
  0
SPLINE
  5
103
330
1F
100
AcDbEntity
  8
0
  6
Continuous
 62
     7
370
    25
100
AcDbSpline
210
0.0
220
0.0
230
1.0
 70
     8
 71
     3
 72
    12
 73
     8
 74
     0
 42
0.000000001
 43
0.00000001
 40
0.0
 40
0.0
 40
0.0
 40
0.0
 40
0.2500000000000007
 40
0.2500000000000007
 40
0.5000000000000013
 40
0.5000000000000013
 40
1.0
 40
1.0
 40
1.0
 40
1.0
 10
107.1298380719576
 20
148.9676956016402
 30
0.0
 10
107.2208059493433
 20
148.9676956016403
 30
0.0
 10
107.310136509269
 20
148.9403240204447
 30
0.0
 10
107.4659029768832
 20
148.8445777620583
 30
0.0
 10
107.5307276392302
 20
148.778088979499
 30
0.0
 10
107.6824210825717
 20
148.5539495165526
 30
0.0
 10
107.7298380719578
 20
148.3709176259229
 30
0.0
 10
107.7298380719578
 20
148.1899582005312
 30
0.0
  0
LINE
  5
104
330
1F
100
AcDbEntity
  8
0
  6
Continuous
 62
     7
370
    25
100
AcDbLine
 10
107.729837762
 20
148.1899573856
 30
0.0
 11
107.729837762
 21
154.35544694
 31
0.0
  0
LINE
  5
105
330
1F
100
AcDbEntity
  8
0
  6
Continuous
 62
     7
370
    25
100
AcDbLine
 10
107.1298387813
 20
154.9762013756
 30
0.0
 11
103.1717699932
 21
154.9762013756
 31
0.0
  0
LINE
  5
106
330
1F
100
AcDbEntity
  8
0
  6
Continuous
 62
     7
370
    25
100
AcDbLine
 10
103.1717699932
 20
148.9676955544
 30
0.0
 11
107.1298387813
 21
148.9676955544
 31
0.0
  0
LINE
  5
107
330
1F
100
AcDbEntity
  8
0
  6
Continuous
 62
     7
370
    25
100
AcDbLine
 10
103.1717699932
 20
148.9676955544
 30
0.0
 11
103.1717699932
 21
154.9762013756
 31
0.0
  0
SPLINE
  5
108
330
1F
100
AcDbEntity
  8
0
  6
Continuous
 62
     7
370
    25
100
AcDbSpline
210
0.0
220
0.0
230
1.0
 70
     8
 71
     3
 72
     8
 73
     4
 74
     0
 42
0.000000001
 43
0.00000001
 40
0.0
 40
0.0
 40
0.0
 40
0.0
 40
1.0
 40
1.0
 40
1.0
 40
1.0
 10
97.86983807195779
 20
152.3142401304444
 30
0.0
 10
97.37712797511203
 20
153.2022591285708
 30
0.0
 10
96.88304526983306
 20
154.0895217642567
 30
0.0
 10
96.38790524046874
 20
154.976201412437
 30
0.0
  0
LINE
  5
109
330
1F
100
AcDbEntity
  8
0
  6
Continuous
 62
     7
370
    25
100
AcDbLine
 10
97.8698381202
 20
145.5591499262
 30
0.0
 11
97.8698381202
 21
152.3142393135
 31
0.0
  0
SPLINE
  5
10A
330
1F
100
AcDbEntity
  8
0
  6
Continuous
 62
     7
370
    25
100
AcDbSpline
210
0.0
220
0.0
230
1.0
 70
     8
 71
     3
 72
     8
 73
     4
 74
     0
 42
0.000000001
 43
0.00000001
 40
0.0
 40
0.0
 40
0.0
 40
0.0
 40
1.0
 40
1.0
 40
1.0
 40
1.0
 10
96.38790524046874
 20
148.9676956016402
 30
0.0
 10
96.89499208222801
 20
147.8365452474765
 30
0.0
 10
97.39055992136794
 20
146.7001608367087
 30
0.0
 10
97.86983807195779
 20
145.5591496068561
 30
0.0
  0
SPLINE
  5
10B
330
1F
100
AcDbEntity
  8
0
  6
Continuous
 62
     7
370
    25
100
AcDbSpline
210
0.0
220
0.0
230
1.0
 70
     8
 71
     3
 72
     8
 73
     4
 74
     0
 42
0.000000001
 43
0.00000001
 40
0.0
 40
0.0
 40
0.0
 40
0.0
 40
1.0
 40
1.0
 40
1.0
 40
1.0
 10
101.6898380719578
 20
145.5591496068561
 30
0.0
 10
102.1691162225476
 20
146.7001608367087
 30
0.0
 10
102.6646840616876
 20
147.8365452474765
 30
0.0
 10
103.1717709034468
 20
148.9676956016402
 30
0.0
  0
LINE
  5
10C
330
1F
100
AcDbEntity
  8
0
  6
Continuous
 62
     7
370
    25
100
AcDbLine
 10
101.6898383366
 20
144.6448724174
 30
0.0
 11
101.6898383366
 21
145.5591499262
 31
0.0
  0
LINE
  5
10D
330
1F
100
AcDbEntity
  8
0
  6
Continuous
 62
     7
370
    25
100
AcDbLine
 10
107.729837762
 20
148.1899573856
 30
0.0
 11
107.729837762
 21
144.3590066784
 31
0.0
  0
SPLINE
  5
10E
330
1F
100
AcDbEntity
  8
0
  6
Continuous
 62
     7
370
    25
100
AcDbSpline
210
0.0
220
0.0
230
1.0
 70
     8
 71
     3
 72
     8
 73
     4
 74
     0
 42
0.000000001
 43
0.00000001
 40
0.0
 40
0.0
 40
0.0
 40
0.0
 40
1.0
 40
1.0
 40
1.0
 40
1.0
 10
103.1717709034468
 20
154.976201412437
 30
0.0
 10
102.6766308740825
 20
154.0895217642567
 30
0.0
 10
102.1825481688035
 20
153.2022591285707
 30
0.0
 10
101.6898380719578
 20
152.3142401304444
 30
0.0
  0
LINE
  5
10F
330
1F
100
AcDbEntity
  8
0
  6
Continuous
 62
     7
370
    25
100
AcDbLine
 10
101.6898383366
 20
145.5591499262
 30
0.0
 11
101.6898383366
 21
152.3142393135
 31
0.0
  0
LINE
  5
110
330
1F
100
AcDbEntity
  8
0
  6
Continuous
 62
     7
370
    25
100
AcDbLine
 10
97.8698381202
 20
145.5591499262
 30
0.0
 11
97.8698381202
 21
144.6448724174
 31
0.0
  0
ARC
  5
111
330
1F
100
AcDbEntity
  8
0
  6
Continuous
 62
     7
370
    25
100
AcDbCircle
 10
89.7800329879
 20
143.2663150116
 30
0.0
 40
7.200661780763431
100
AcDbArc
 50
70.8261462199
 51
109.2370657592
  0
LINE
  5
112
330
1F
100
AcDbEntity
  8
0
  6
HIDDEN
 62
     7
370
    18
100
AcDbLine
 10
213.7798373567
 20
109.5090062745
 30
0.0
 11
213.7798373567
 21
139.509005604
 31
0.0
  0
LINE
  5
113
330
1F
100
AcDbEntity
  8
0
  6
HIDDEN
 62
     7
370
    18
100
AcDbLine
 10
233.7798331844
 20
110.5090064385
 30
0.0
 11
233.7798331844
 21
138.5090063714
 31
0.0
  0
LINE
  5
114
330
1F
100
AcDbEntity
  8
0
  6
HIDDEN
 62
     7
370
    18
100
AcDbLine
 10
213.7798373567
 20
113.7090056591
 30
0.0
 11
213.7798373567
 21
135.3090062194
 31
0.0
  0
LINE
  5
115
330
1F
100
AcDbEntity
  8
0
  6
HIDDEN
 62
     7
370
    18
100
AcDbLine
 10
175.1538370716
 20
114.5090061628
 30
0.0
 11
175.1538370716
 21
134.5090057158
 31
0.0
  0
LINE
  5
116
330
1F
100
AcDbEntity
  8
0
  6
HIDDEN
 62
     7
370
    18
100
AcDbLine
 10
173.7798382508
 20
115.8830059149
 30
0.0
 11
173.7798382508
 21
133.1350059637
 31
0.0
  0
LINE
  5
117
330
1F
100
AcDbEntity
  8
0
  6
HIDDEN
 62
     7
370
    18
100
AcDbLine
 10
233.7798331844
 20
124.5090059393
 30
0.0
 11
233.7798331844
 21
115.8940057658
 31
0.0
  0
LINE
  5
118
330
1F
100
AcDbEntity
  8
0
  6
HIDDEN
 62
     7
370
    18
100
AcDbLine
 10
223.7798427211
 20
124.5090059393
 30
0.0
 11
223.7798427211
 21
120.2015058525
 31
0.0
  0
LINE
  5
119
330
1F
100
AcDbEntity
  8
0
  6
HIDDEN
 62
     7
370
    18
100
AcDbLine
 10
223.7798427211
 20
124.5090059393
 30
0.0
 11
223.7798427211
 21
128.816506026
 31
0.0
  0
LINE
  5
11A
330
1F
100
AcDbEntity
  8
0
  6
HIDDEN
 62
     7
370
    18
100
AcDbLine
 10
223.7798427211
 20
124.5090059393
 30
0.0
 11
233.7798331844
 21
124.5090059393
 31
0.0
  0
LINE
  5
11B
330
1F
100
AcDbEntity
  8
0
  6
HIDDEN
 62
     7
370
    18
100
AcDbLine
 10
233.7798331844
 20
124.5090059393
 30
0.0
 11
233.7798331844
 21
133.1240061127
 31
0.0
  0
LINE
  5
11C
330
1F
100
AcDbEntity
  8
0
  6
HIDDEN
 62
     7
370
    18
100
AcDbLine
 10
223.7798427211
 20
128.816506026
 30
0.0
 11
223.7798427211
 21
133.1240061127
 31
0.0
  0
LINE
  5
11D
330
1F
100
AcDbEntity
  8
0
  6
HIDDEN
 62
     7
370
    18
100
AcDbLine
 10
223.7798427211
 20
120.2015058525
 30
0.0
 11
223.7798427211
 21
128.816506026
 31
0.0
  0
LINE
  5
11E
330
1F
100
AcDbEntity
  8
0
  6
HIDDEN
 62
     7
370
    18
100
AcDbLine
 10
223.7798427211
 20
115.8940057658
 30
0.0
 11
223.7798427211
 21
120.2015058525
 31
0.0
  0
LINE
  5
11F
330
1F
100
AcDbEntity
  8
0
  6
HIDDEN
 62
     7
370
    18
100
AcDbLine
 10
223.7798427211
 20
120.2015058525
 30
0.0
 11
223.7798427211
 21
115.8940057658
 31
0.0
  0
LINE
  5
120
330
1F
100
AcDbEntity
  8
0
  6
HIDDEN
 62
     7
370
    18
100
AcDbLine
 10
223.7798427211
 20
133.1240061127
 30
0.0
 11
223.7798427211
 21
128.816506026
 31
0.0
  0
LINE
  5
121
330
1F
100
AcDbEntity
  8
0
  6
HIDDEN
 62
     7
370
    18
100
AcDbLine
 10
223.7798427211
 20
128.816506026
 30
0.0
 11
223.7798427211
 21
120.2015058525
 31
0.0
  0
LINE
  5
122
330
1F
100
AcDbEntity
  8
0
  6
HIDDEN
 62
     7
370
    18
100
AcDbLine
 10
223.7798427211
 20
120.2015058525
 30
0.0
 11
223.7798427211
 21
115.8940057658
 31
0.0
  0
LINE
  5
123
330
1F
100
AcDbEntity
  8
0
  6
HIDDEN
 62
     7
370
    18
100
AcDbLine
 10
223.7798427211
 20
128.816506026
 30
0.0
 11
223.7798427211
 21
133.1240061127
 31
0.0
  0
LINE
  5
124
330
1F
100
AcDbEntity
  8
0
  6
HIDDEN
 62
     7
370
    18
100
AcDbLine
 10
223.7798427211
 20
133.1240061127
 30
0.0
 11
233.7798331844
 21
133.1240061127
 31
0.0
  0
LINE
  5
125
330
1F
100
AcDbEntity
  8
0
  6
HIDDEN
 62
     7
370
    18
100
AcDbLine
 10
223.7798427211
 20
115.8940057658
 30
0.0
 11
233.7798331844
 21
115.8940057658
 31
0.0
  0
LINE
  5
126
330
1F
100
AcDbEntity
  8
0
  6
HIDDEN
 62
     7
370
    18
100
AcDbLine
 10
208.7798421251
 20
134.5090057158
 30
0.0
 11
175.1538370716
 21
134.5090057158
 31
0.0
  0
LINE
  5
127
330
1F
100
AcDbEntity
  8
0
  6
HIDDEN
 62
     7
370
    18
100
AcDbLine
 10
175.1538370716
 20
114.5090061628
 30
0.0
 11
208.7798421251
 21
114.5090061628
 31
0.0
  0
LINE
  5
128
330
1F
100
AcDbEntity
  8
0
  6
HIDDEN
 62
     7
370
    18
100
AcDbLine
 10
175.1538370716
 20
134.5090057158
 30
0.0
 11
173.7798382508
 21
133.1350059637
 31
0.0
  0
LINE
  5
129
330
1F
100
AcDbEntity
  8
0
  6
HIDDEN
 62
     7
370
    18
100
AcDbLine
 10
173.7798382508
 20
115.8830059149
 30
0.0
 11
175.1538370716
 21
114.5090061628
 31
0.0
  0
LINE
  5
12A
330
1F
100
AcDbEntity
  8
0
  6
HIDDEN
 62
     7
370
    18
100
AcDbLine
 10
223.7798427211
 20
133.1240061127
 30
0.0
 11
218.8059692251
 21
124.5090059393
 31
0.0
  0
LINE
  5
12B
330
1F
100
AcDbEntity
  8
0
  6
HIDDEN
 62
     7
370
    18
100
AcDbLine
 10
218.8059692251
 20
124.5090059393
 30
0.0
 11
223.7798427211
 21
115.8940057658
 31
0.0
  0
DIMENSION
  5
12C
330
1F
100
AcDbEntity
  8
VERMASSUNG
100
AcDbDimension
  2
_D
 10
258.677722036
 20
104.5090059393
 30
0.0
 11
258.677722036
 21
124.5090059393
 31
0.0
 70
   160
  1
%%c<>
 71
     2
 42
-1.0
  3
SLDDIMSTYLE0
100
AcDbAlignedDimension
 13
207.779838072
 23
144.5090059393
 33
0.0
 14
207.779838072
 24
104.5090059393
 34
0.0
 50
90.0
100
AcDbRotatedDimension
  0
DIMENSION
  5
138
330
1F
100
AcDbEntity
  8
VERMASSUNG
100
AcDbDimension
  2
_D_1
 10
269.2242115813
 20
84.5090059393
 30
0.0
 11
269.2242115813
 21
124.5090059393
 31
0.0
 70
   160
  1
%%c<>
 71
     2
 42
-1.0
  3
SLDDIMSTYLE0
100
AcDbAlignedDimension
 13
180.779838072
 23
164.5090059393
 33
0.0
 14
180.779838072
 24
84.5090059393
 34
0.0
 50
90.0
100
AcDbRotatedDimension
  0
DIMENSION
  5
143
330
1F
100
AcDbEntity
  8
VERMASSUNG
100
AcDbDimension
  2
_D_2
 10
246.8941262913
 20
133.1240059393
 30
0.0
 11
246.8941262913
 21
124.5090059393
 31
0.0
 70
   160
  1
<>
 71
     2
 42
-1.0
  3
SLDDIMSTYLE1
100
AcDbAlignedDimension
 13
233.779838072
 23
115.8940059393
 33
0.0
 14
233.779838072
 24
133.1240059393
 34
0.0
 50
90.0
100
AcDbRotatedDimension
  0
DIMENSION
  5
14E
330
1F
100
AcDbEntity
  8
VERMASSUNG
100
AcDbDimension
  2
_D_3
 10
38.1706240661
 20
93.0090059393
 30
0.0
 11
38.1706240661
 21
124.5090059393
 31
0.0
 70
   160
  1
HSK A %%c<>
 71
     2
 42
-1.0
  3
SLDDIMSTYLE0
100
AcDbAlignedDimension
 13
82.079838072
 23
156.0090059393
 33
0.0
 14
82.079838072
 24
93.0090059393
 34
0.0
 50
90.0
100
AcDbRotatedDimension
  0
DIMENSION
  5
15A
330
1F
100
AcDbEntity
  8
VERMASSUNG
100
AcDbDimension
  2
_D_4
 10
181.779838072
 20
173.1451653206
 30
0.0
 11
144.754838072
 21
173.1451653206
 31
0.0
 70
   160
  1
<>
 71
     2
 42
-1.0
  3
SLDDIMSTYLE0
100
AcDbAlignedDimension
 13
107.729838072
 23
154.355446263
 33
0.0
 14
181.779838072
 24
163.5090059393
 34
0.0
100
AcDbRotatedDimension
  0
DIMENSION
  5
164
330
1F
100
AcDbEntity
  8
VERMASSUNG
100
AcDbDimension
  2
_D_5
 10
181.779838072
 20
182.6618064817
 30
0.0
 11
131.779838072
 21
182.6618064817
 31
0.0
 70
   160
  1
<>
 71
     2
 42
-1.0
  3
SLDDIMSTYLE0
100
AcDbAlignedDimension
 13
81.779838072
 23
155.7090059393
 33
0.0
 14
181.779838072
 24
163.5090059393
 34
0.0
100
AcDbRotatedDimension
  0
DIMENSION
  5
16E
330
1F
100
AcDbEntity
  8
VERMASSUNG
100
AcDbDimension
  2
_D_6
 10
233.779838072
 20
192.5090059393
 30
0.0
 11
141.829838072
 21
192.5090059393
 31
0.0
 70
   160
  1
(<>)
 71
     2
 42
-1.0
  3
SLDDIMSTYLE0
100
AcDbAlignedDimension
 13
49.879838072
 23
144.1996836858
 33
0.0
 14
233.779838072
 24
138.5090059393
 34
0.0
100
AcDbRotatedDimension
  0
DIMENSION
  5
17A
330
1F
100
AcDbEntity
  8
VERMASSUNG
100
AcDbDimension
  2
_D_7
 10
208.779838072
 20
173.1451653206
 30
0.0
 11
195.279838072
 21
173.1451653206
 31
0.0
 70
   160
  1
<>
 71
     2
 42
-1.0
  3
SLDDIMSTYLE0
100
AcDbAlignedDimension
 13
181.779838072
 23
163.5090059393
 33
0.0
 14
208.779838072
 24
143.5090059393
 34
0.0
100
AcDbRotatedDimension
  0
LINE
  5
184
330
1F
100
AcDbEntity
  8
VERMASSUNG
  6
CENTERX2
370
    18
100
AcDbLine
 10
237.3420209112
 20
124.5090059393
 30
0.0
 11
44.3571555738
 21
124.5090059393
 31
0.0
  0
LINE
  5
185
330
1F
100
AcDbEntity
  8
0
  6
Continuous
 62
     7
370
    25
100
AcDbLine
 10
274.819615103
 20
38.6160560812
 30
0.0
 11
272.5215186752
 21
39.9427189101
 31
0.0
  0
LINE
  5
186
330
1F
100
AcDbEntity
  8
0
  6
Continuous
 62
     7
370
    25
100
AcDbLine
 10
247.3086390591
 20
20.7682056714
 30
0.0
 11
249.6067354868
 21
19.4415428425
 31
0.0
  0
LINE
  5
187
330
1F
100
AcDbEntity
  8
0
  6
Continuous
 62
     7
370
    25
100
AcDbLine
 10
253.6064108244
 20
26.3699339172
 30
0.0
 11
251.3083143967
 21
27.6965967462
 31
0.0
  0
SPLINE
  5
188
330
1F
100
AcDbEntity
  8
0
  6
Continuous
 62
     7
370
    25
100
AcDbSpline
210
0.0
220
0.0
230
1.0
 70
     8
 71
     3
 72
    25
 73
    21
 74
     0
 42
0.000000001
 43
0.00000001
 40
0.0
 40
0.0
 40
0.0
 40
0.0
 40
0.0332027160776766
 40
0.0899128386551199
 40
0.1468168986270626
 40
0.2046698666372873
 40
0.2636779326475565
 40
0.3235581763667653
 40
0.3838713417090459
 40
0.4442645805170939
 40
0.5045786094124592
 40
0.5647919774531257
 40
0.6249265919568312
 40
0.6850217083048964
 40
0.7451231338126323
 40
0.8052672947695427
 40
0.865500150314561
 40
0.9258707946380229
 40
0.9832216767193336
 40
1.0
 40
1.0
 40
1.0
 40
1.0
 10
274.1742046066455
 20
13.48489448579614
 30
0.0
 10
274.2809452374687
 20
13.41885145302979
 30
0.0
 10
274.5699984912658
 20
13.24000715199363
 30
0.0
 10
275.1169680401681
 20
13.09271486307069
 30
0.0
 10
275.787183529644
 20
13.03351607600963
 30
0.0
 10
276.4986086869366
 20
13.11278834299396
 30
0.0
 10
277.2382827150684
 20
13.32313699143813
 30
0.0
 10
277.9946977468544
 20
13.6647358298441
 30
0.0
 10
278.7516211348486
 20
14.13079468475033
 30
0.0
 10
279.492802335189
 20
14.71106386760859
 30
0.0
 10
280.2031792360398
 20
15.39259364645864
 30
0.0
 10
280.8693589577013
 20
16.16120782675817
 30
0.0
 10
281.4792172060857
 20
17.00175183828838
 30
0.0
 10
282.0215838854051
 20
17.89813886846535
 30
0.0
 10
282.4863718815229
 20
18.83346254297621
 30
0.0
 10
282.8645953931324
 20
19.79022743280239
 30
0.0
 10
283.1490009525996
 20
20.75099539903253
 30
0.0
 10
283.3289508432701
 20
21.68094712871289
 30
0.0
 10
283.3913311314734
 20
22.36129421852531
 30
0.0
 10
283.3951798499347
 20
22.72203640639531
 30
0.0
 10
283.3960509646625
 20
22.80368639872294
 30
0.0
  0
SPLINE
  5
189
330
1F
100
AcDbEntity
  8
0
  6
Continuous
 62
     7
370
    25
100
AcDbSpline
210
0.0
220
0.0
230
1.0
 70
     8
 71
     3
 72
    14
 73
    10
 74
     0
 42
0.000000001
 43
0.00000001
 40
0.0
 40
0.0
 40
0.0
 40
0.0
 40
0.0957678127254398
 40
0.2772189592626522
 40
0.4586885530542403
 40
0.6386266777419631
 40
0.815375790317747
 40
0.9881100213632019
 40
1.0
 40
1.0
 40
1.0
 40
1.0
 10
283.3960509646625
 20
22.80368639872294
 30
0.0
 10
283.3929717128036
 20
22.95752414137199
 30
0.0
 10
283.3840582065708
 20
23.40283804902852
 30
0.0
 10
283.2846125898716
 20
24.09450861321232
 30
0.0
 10
283.059816916142
 20
24.83853074369831
 30
0.0
 10
282.7263515125285
 20
25.48998427964178
 30
0.0
 10
282.2842905209893
 20
26.01269937954916
 30
0.0
 10
281.9363669365728
 20
26.32532421034158
 30
0.0
 10
281.7234284977794
 20
26.42192033161948
 30
0.0
 10
281.7097150552544
 20
26.42814121576229
 30
0.0
  0
LINE
  5
18A
330
1F
100
AcDbEntity
  8
0
  6
Continuous
 62
     7
370
    25
100
AcDbLine
 10
281.6959939512
 20
26.4416268565
 30
0.0
 11
274.9784817215
 21
30.3195641225
 31
0.0
  0
LINE
  5
18B
330
1F
100
AcDbEntity
  8
0
  6
Continuous
 62
     7
370
    25
100
AcDbLine
 10
267.4790914514
 20
17.3288315701
 30
0.0
 11
274.196603681
 21
13.4508943041
 31
0.0
  0
LINE
  5
18C
330
1F
100
AcDbEntity
  8
0
  6
Continuous
 62
     7
370
    25
100
AcDbLine
 10
270.933272641
 20
29.7681405502
 30
0.0
 11
270.8897797275
 21
29.7932484747
 31
0.0
  0
LINE
  5
18D
330
1F
100
AcDbEntity
  8
0
  6
Continuous
 62
     7
370
    25
100
AcDbLine
 10
265.9034835448
 20
21.1250837209
 30
0.0
 11
265.9336791276
 21
21.107652182
 31
0.0
  0
SPLINE
  5
18E
330
1F
100
AcDbEntity
  8
0
  6
Continuous
 62
     7
370
    25
100
AcDbSpline
210
0.0
220
0.0
230
1.0
 70
     8
 71
     3
 72
    17
 73
    13
 74
     0
 42
0.000000001
 43
0.00000001
 40
0.0
 40
0.0
 40
0.0
 40
0.0
 40
0.0413162767528331
 40
0.1473001908873271
 40
0.2538627020719099
 40
0.3609407900432869
 40
0.4684054312406456
 40
0.5761163787258858
 40
0.6839556545100482
 40
0.7918367923361682
 40
0.8996976668682253
 40
1.0
 40
1.0
 40
1.0
 40
1.0
 10
252.4058696983959
 20
12.33103274558007
 30
0.0
 10
252.54205441684
 20
12.3109417295827
 30
0.0
 10
253.0275782006685
 20
12.23931353062282
 30
0.0
 10
253.9123637751324
 20
12.25593304305606
 30
0.0
 10
255.0511202523992
 20
12.37905574688372
 30
0.0
 10
256.2266678597809
 20
12.64437107252004
 30
0.0
 10
257.4262863070372
 20
13.0393839233247
 30
0.0
 10
258.6417093456097
 20
13.56430866061858
 30
0.0
 10
259.8635117788319
 20
14.21342614988238
 30
0.0
 10
261.0817188175958
 20
14.98464290382108
 30
0.0
 10
262.2622171820266
 20
15.84059398843331
 30
0.0
 10
263.0217276370905
 20
16.49078233315646
 30
0.0
 10
263.3876937054263
 20
16.80407212477102
 30
0.0
  0
SPLINE
  5
18F
330
1F
100
AcDbEntity
  8
0
  6
Continuous
 62
     7
370
    25
100
AcDbSpline
210
0.0
220
0.0
230
1.0
 70
     8
 71
     3
 72
    14
 73
    10
 74
     0
 42
0.000000001
 43
0.00000001
 40
0.0
 40
0.0
 40
0.0
 40
0.0
 40
0.0595675026539734
 40
0.2298649267826014
 40
0.4001465209397045
 40
0.5702737744151641
 40
0.7400540232253268
 40
0.9092467495491378
 40
1.0
 40
1.0
 40
1.0
 40
1.0
 10
273.825696267576
 20
39.18983215411351
 30
0.0
 10
273.8229728022621
 20
39.35297135916424
 30
0.0
 10
273.8124632269551
 20
39.98250893844123
 30
0.0
 10
273.6854731264504
 20
41.01335918823493
 30
0.0
 10
273.4443338900612
 20
42.26945073480535
 30
0.0
 10
273.093033023247
 20
43.43817387874114
 30
0.0
 10
272.6369936484566
 20
44.50833667735957
 30
0.0
 10
272.1814991227432
 20
45.34447421634254
 30
0.0
 10
271.8424406548132
 20
45.77799870499537
 30
0.0
 10
271.7240673741826
 20
45.92935229385817
 30
0.0
  0
LINE
  5
190
330
1F
100
AcDbEntity
  8
0
  6
Continuous
 62
     7
370
    25
100
AcDbLine
 10
237.3313591738
 20
20.2993816249
 30
0.0
 11
249.5623377332
 21
13.2385879958
 31
0.0
  0
LINE
  5
191
330
1F
100
AcDbEntity
  8
0
  6
Continuous
 62
     7
370
    25
100
AcDbLine
 10
232.471656319
 20
23.1048283674
 30
0.0
 11
234.8848175944
 21
21.7117400158
 31
0.0
  0
LINE
  5
192
330
1F
100
AcDbEntity
  8
0
  6
Continuous
 62
     7
370
    25
100
AcDbLine
 10
254.8844152238
 20
56.3529871337
 30
0.0
 11
252.4700303727
 21
57.7467818405
 31
0.0
  0
LINE
  5
193
330
1F
100
AcDbEntity
  8
0
  6
Continuous
 62
     7
370
    25
100
AcDbLine
 10
269.560711787
 20
47.8805414689
 30
0.0
 11
257.3446742854
 21
54.9327098089
 31
0.0
  0
SPLINE
  5
194
330
1F
100
AcDbEntity
  8
0
  6
Continuous
 62
     7
370
    25
100
AcDbSpline
210
0.0
220
0.0
230
1.0
 70
     8
 71
     3
 72
    13
 73
     9
 74
     0
 42
0.000000001
 43
0.00000001
 40
0.0
 40
0.0
 40
0.0
 40
0.0
 40
0.1098891438377168
 40
0.2851109957518538
 40
0.4615795278630259
 40
0.6403755379640387
 40
0.8215559643626789
 40
1.0
 40
1.0
 40
1.0
 40
1.0
 10
264.3725259436902
 20
16.26844030722314
 30
0.0
 10
264.5102078673426
 20
16.20155125880377
 30
0.0
 10
264.8674281438746
 20
16.02800542403134
 30
0.0
 10
265.5144164423784
 20
15.89574860352456
 30
0.0
 10
266.2905740822663
 20
15.85679976933758
 30
0.0
 10
267.1093516315092
 20
15.95915465880527
 30
0.0
 10
267.9508457068069
 20
16.1822247732134
 30
0.0
 10
268.5200810335469
 20
16.43794007222415
 30
0.0
 10
268.8025330346031
 20
16.56482484994855
 30
0.0
  0
SPLINE
  5
195
330
1F
100
AcDbEntity
  8
0
  6
Continuous
 62
     7
370
    25
100
AcDbSpline
210
0.0
220
0.0
230
1.0
 70
     8
 71
     3
 72
    14
 73
    10
 74
     0
 42
0.000000001
 43
0.00000001
 40
0.0
 40
0.0
 40
0.0
 40
0.0
 40
0.0026373612977222
 40
0.1719423094030869
 40
0.3411300393820841
 40
0.5095407707294203
 40
0.6762785301977036
 40
0.84058682633292
 40
1.0
 40
1.0
 40
1.0
 40
1.0
 10
276.3024037953026
 20
29.55528036656317
 30
0.0
 10
276.3023234340599
 20
29.56049187336881
 30
0.0
 10
276.297084296875
 20
29.90025514979382
 30
0.0
 10
276.1872070613504
 20
30.51864967254422
 30
0.0
 10
275.9633715541923
 20
31.38761524180139
 30
0.0
 10
275.6198596492869
 20
32.15759132782475
 30
0.0
 10
275.1766728231855
 20
32.81966833414955
 30
0.0
 10
274.648551729571
 20
33.36889799723478
 30
0.0
 10
274.2295535714713
 20
33.627586461918
 30
0.0
 10
274.0232224122061
 20
33.75497482813109
 30
0.0
  0
LINE
  5
196
330
1F
100
AcDbEntity
  8
0
  6
Continuous
 62
     7
370
    25
100
AcDbLine
 10
255.7993679873
 20
21.1847193392
 30
0.0
 11
264.1078736988
 21
16.3883210861
 31
0.0
  0
LINE
  5
197
330
1F
100
AcDbEntity
  8
0
  6
Continuous
 62
     7
370
    25
100
AcDbLine
 10
274.1070607257
 20
33.7092978227
 30
0.0
 11
265.7985550142
 21
38.5056960757
 31
0.0
  0
SPLINE
  5
198
330
1F
100
AcDbEntity
  8
0
  6
Continuous
 62
     7
370
    25
100
AcDbSpline
210
0.0
220
0.0
230
1.0
 70
     8
 71
     3
 72
    25
 73
    21
 74
     0
 42
0.000000001
 43
0.00000001
 40
0.0
 40
0.0
 40
0.0
 40
0.0
 40
0.0046547966831126
 40
0.0707400135245336
 40
0.1339592301449843
 40
0.1962318345917555
 40
0.2283980354056956
 40
0.2901798571565567
 40
0.3521889275944798
 40
0.4143969688876852
 40
0.4767577574335265
 40
0.5391957805690638
 40
0.6016231251980623
 40
0.663927237904971
 40
0.7260213845292863
 40
0.7878298378672445
 40
0.8493196202007717
 40
0.9105806622372193
 40
0.9718775009344006
 40
1.0
 40
1.0
 40
1.0
 40
1.0
 10
265.9830831365647
 20
20.98058470631788
 30
0.0
 10
265.9759785522364
 20
20.98876702265268
 30
0.0
 10
265.868008553613
 20
21.11311556193161
 30
0.0
 10
265.7222859183445
 20
21.46166719554263
 30
0.0
 10
265.5732159374911
 20
22.0291654421564
 30
0.0
 10
265.5333886242892
 20
22.58485633543193
 30
0.0
 10
265.5541084808538
 20
23.17605693485335
 30
0.0
 10
265.6368485758211
 20
23.8042695593629
 30
0.0
 10
265.8315551693743
 20
24.58740222155503
 30
0.0
 10
266.1189125908185
 20
25.38499136982593
 30
0.0
 10
266.4918253568342
 20
26.17366549717516
 30
0.0
 10
266.9401783858904
 20
26.93060067902832
 30
0.0
 10
267.4510477240386
 20
27.63375851134961
 30
0.0
 10
268.0090323761969
 20
28.26286037671451
 30
0.0
 10
268.5968448868489
 20
28.800379858665
 30
0.0
 10
269.1953315109137
 20
29.23146520763937
 30
0.0
 10
269.7861142685894
 20
29.54814012410515
 30
0.0
 10
270.3447411252642
 20
29.73764359619515
 30
0.0
 10
270.7746737955341
 20
29.81285832390505
 30
0.0
 10
270.9885017245987
 20
29.78752214870971
 30
0.0
 10
271.055750888882
 20
29.77955388836376
 30
0.0
  0
LINE
  5
199
330
1F
100
AcDbEntity
  8
0
  6
Continuous
 62
     7
370
    25
100
AcDbLine
 10
264.7604840622
 20
38.8957797645
 30
0.0
 11
264.2603646187
 21
38.9976754417
 31
0.0
  0
LINE
  5
19A
330
1F
100
AcDbEntity
  8
0
  6
Continuous
 62
     7
370
    25
100
AcDbLine
 10
254.6041044369
 20
22.2707293013
 30
0.0
 11
254.9424441903
 21
21.8885929436
 31
0.0
  0
SPLINE
  5
19B
330
1F
100
AcDbEntity
  8
0
  6
Continuous
 62
     7
370
    25
100
AcDbSpline
210
0.0
220
0.0
230
1.0
 70
     8
 71
     3
 72
    13
 73
     9
 74
     0
 42
0.000000001
 43
0.00000001
 40
0.0
 40
0.0
 40
0.0
 40
0.0
 40
0.1278812291170188
 40
0.3080766320513976
 40
0.4892393969880687
 40
0.6712168976790541
 40
0.8537757438193307
 40
1.0
 40
1.0
 40
1.0
 40
1.0
 10
249.6417391030714
 20
58.65488289003044
 30
0.0
 10
249.3904578497115
 20
58.68350017090061
 30
0.0
 10
248.78510018489
 20
58.75244160640153
 30
0.0
 10
247.7732971550967
 20
58.70583800582825
 30
0.0
 10
246.6222031271072
 20
58.53931338960733
 30
0.0
 10
245.4381989302342
 20
58.23093897199094
 30
0.0
 10
244.3138554491784
 20
57.83495986162531
 30
0.0
 10
243.5834439833984
 20
57.48320218320128
 30
0.0
 10
243.2585979905978
 20
57.32676012605083
 30
0.0
  0
SPLINE
  5
19C
330
1F
100
AcDbEntity
  8
0
  6
Continuous
 62
     7
370
    25
100
AcDbSpline
210
0.0
220
0.0
230
1.0
 70
     8
 71
     3
 72
    14
 73
    10
 74
     0
 42
0.000000001
 43
0.00000001
 40
0.0
 40
0.0
 40
0.0
 40
0.0
 40
0.0835262208700072
 40
0.2420572291045343
 40
0.4006586428393686
 40
0.559160130303261
 40
0.7173996491572977
 40
0.8751638585810585
 40
1.0
 40
1.0
 40
1.0
 40
1.0
 10
228.1822622276102
 20
32.46582584943501
 30
0.0
 10
228.1852071619215
 20
32.21958909042799
 30
0.0
 10
228.1937415195385
 20
31.50600014831983
 30
0.0
 10
228.2886315002991
 20
30.37144331925032
 30
0.0
 10
228.5017644383403
 20
29.09393418043472
 30
0.0
 10
228.8202871213398
 20
27.89781145858623
 30
0.0
 10
229.2441657185198
 20
26.79617813484486
 30
0.0
 10
229.7220929730215
 20
25.85148720749068
 30
0.0
 10
230.1026596985612
 20
25.32734742475293
 30
0.0
 10
230.2707715973156
 20
25.09581343038234
 30
0.0
  0
LINE
  5
19D
330
1F
100
AcDbEntity
  8
0
  6
Continuous
 62
     7
370
    25
100
AcDbLine
 10
227.5885316701
 20
34.0064805079
 30
0.0
 11
228.2304966616
 21
33.6358820067
 31
0.0
  0
LINE
  5
19E
330
1F
100
AcDbEntity
  8
0
  6
Continuous
 62
     7
370
    25
100
AcDbLine
 10
241.2294395331
 20
56.1531525247
 30
0.0
 11
240.5874745416
 21
56.5237510258
 31
0.0
  0
LINE
  5
19F
330
1F
100
AcDbEntity
  8
0
  6
Continuous
 62
     7
370
    25
100
AcDbLine
 10
216.7914450586
 20
37.0641652189
 30
0.0
 11
221.850110817
 21
34.1438596371
 31
0.0
  0
LINE
  5
1A0
330
1F
100
AcDbEntity
  8
0
  6
Continuous
 62
     7
370
    25
100
AcDbLine
 10
234.7334661211
 20
63.0785388695
 30
0.0
 11
232.5401655479
 21
64.3447043394
 31
0.0
  0
LINE
  5
1A1
330
1F
100
AcDbEntity
  8
0
  6
Continuous
 62
     7
370
    25
100
AcDbLine
 10
224.2485690985
 20
32.7592591432
 30
0.0
 11
225.6479577387
 21
31.9514092768
 31
0.0
  0
LINE
  5
1A2
330
1F
100
AcDbEntity
  8
0
  6
Continuous
 62
     7
370
    25
100
AcDbLine
 10
225.3638715161
 20
63.9340268955
 30
0.0
 11
219.1734892622
 21
67.0182462151
 31
0.0
  0
LINE
  5
1A3
330
1F
100
AcDbEntity
  8
0
  6
Continuous
 62
     7
370
    25
100
AcDbLine
 10
207.7917914323
 20
47.3024308347
 30
0.0
 11
213.5583535386
 21
43.4840532596
 31
0.0
  0
SPLINE
  5
1A4
330
1F
100
AcDbEntity
  8
0
  6
Continuous
 62
     7
370
    25
100
AcDbSpline
210
0.0
220
0.0
230
1.0
 70
     8
 71
     3
 72
    10
 73
     6
 74
     0
 42
0.000000001
 43
0.00000001
 40
0.0
 40
0.0
 40
0.0
 40
0.0
 40
0.3233406893871372
 40
0.5057585715530892
 40
1.0
 40
1.0
 40
1.0
 40
1.0
 10
243.3396729690187
 20
57.36426172894635
 30
0.0
 10
243.224379819086
 20
57.51485078508944
 30
0.0
 10
243.044042172963
 20
57.75039709406407
 30
0.0
 10
242.6987001103703
 20
58.23051050753359
 30
0.0
 10
242.4086739763023
 20
58.48317261230953
 30
0.0
 10
242.1968348298656
 20
58.66772054894511
 30
0.0
  0
SPLINE
  5
1A5
330
1F
100
AcDbEntity
  8
0
  6
Continuous
 62
     7
370
    25
100
AcDbSpline
210
0.0
220
0.0
230
1.0
 70
     8
 71
     3
 72
    24
 73
    20
 74
     0
 42
0.000000001
 43
0.00000001
 40
0.0
 40
0.0
 40
0.0
 40
0.0
 40
0.0389800847799546
 40
0.0997665111652857
 40
0.1609650162928737
 40
0.2229372668217106
 40
0.2857409695601466
 40
0.3491952131194994
 40
0.4130339340965146
 40
0.4770305418646392
 40
0.5410203632188777
 40
0.604945399233267
 40
0.668794394251929
 40
0.7325766792017341
 40
0.7963114221577426
 40
0.8600220510805001
 40
0.9237339827959109
 40
0.987467502451501
 40
1.0
 40
1.0
 40
1.0
 40
1.0
 10
219.1042956615141
 20
67.03338168763517
 30
0.0
 10
218.9535859342889
 20
67.10635161176215
 30
0.0
 10
218.5678560476349
 20
67.29311248699472
 30
0.0
 10
217.8764286748899
 20
67.44524535375483
 30
0.0
 10
217.0524789901017
 20
67.50480362537031
 30
0.0
 10
216.1843720143827
 20
67.42551197934316
 30
0.0
 10
215.2840710332117
 20
67.21387290817796
 30
0.0
 10
214.3615444811869
 20
66.86937656995029
 30
0.0
 10
213.4297254812005
 20
66.39662465918752
 30
0.0
 10
212.5017483812645
 20
65.80230421690784
 30
0.0
 10
211.5902466755469
 20
65.09526637337056
 30
0.0
 10
210.7069262604882
 20
64.28560981166946
 30
0.0
 10
209.8626556273073
 20
63.38426279149892
 30
0.0
 10
209.0674380401089
 20
62.40298567735739
 30
0.0
 10
208.3315822925653
 20
61.3542556257666
 30
0.0
 10
207.6614644131194
 20
60.25141578847651
 30
0.0
 10
207.0750488274971
 20
59.10768213806001
 30
0.0
 10
206.686011668856
 20
58.25245359675784
 30
0.0
 10
206.5210465730899
 20
57.78238788948606
 30
0.0
 10
206.4939385014471
 20
57.70514382273149
 30
0.0
  0
LINE
  5
1A6
330
1F
100
AcDbEntity
  8
0
  6
Continuous
 62
     7
370
    25
100
AcDbLine
 10
206.6076052592
 20
55.8585712528
 30
0.0
 11
209.1611655895
 21
54.384432252
 31
0.0
  0
LINE
  5
1A7
330
1F
100
AcDbEntity
  8
0
  6
Continuous
 62
     7
370
    25
100
AcDbLine
 10
206.3093129145
 20
56.9868809262
 30
0.0
 11
206.3093129145
 21
56.5214749568
 31
0.0
  0
LINE
  5
1A8
330
1F
100
AcDbEntity
  8
0
  6
Continuous
 62
     7
370
    25
100
AcDbLine
 10
206.3093129145
 20
49.5155322614
 30
0.0
 11
206.3093129145
 21
49.050126292
 31
0.0
  0
SPLINE
  5
1A9
330
1F
100
AcDbEntity
  8
0
  6
Continuous
 62
     7
370
    25
100
AcDbSpline
210
0.0
220
0.0
230
1.0
 70
     8
 71
     3
 72
    10
 73
     6
 74
     0
 42
0.000000001
 43
0.00000001
 40
0.0
 40
0.0
 40
0.0
 40
0.0
 40
0.3362509949736925
 40
0.7292554617438286
 40
1.0
 40
1.0
 40
1.0
 40
1.0
 10
206.4238667316197
 20
48.76412376342471
 30
0.0
 10
206.5539582396916
 20
48.56213862058564
 30
0.0
 10
206.8360984986234
 20
48.12407666446257
 30
0.0
 10
207.3214447761343
 20
47.62661997802127
 30
0.0
 10
207.6998318366786
 20
47.38072011889522
 30
0.0
 10
207.8541766706646
 20
47.28041707766701
 30
0.0
  0
ARC
  5
1AA
330
1F
100
AcDbEntity
  8
0
  6
Continuous
 62
     7
370
    25
100
AcDbCircle
 10
274.0201804966
 20
36.9929879551
 30
0.0
 40
1.809266655804644
100
AcDbArc
 50
63.7776641328
 51
116.0208101837
  0
LWPOLYLINE
  5
1AB
330
1F
100
AcDbEntity
  8
0
  6
Continuous
 62
     7
370
    25
100
AcDbPolyline
 90
       10
 70
   128
 43
0.0
 10
268.2417399923
 20
37.0952755615
 10
268.5729878798
 20
37.7208582885
 10
269.0255442755
 20
38.3866326441
 10
269.5393532129
 20
38.9742891657
 10
270.0933781464
 20
39.459768211
 10
270.6649381445
 20
39.823194929
 10
271.2306331452
 20
40.0496905875
 10
271.7673034553
 20
40.1299821839
 10
272.2529773958
 20
40.0607822076
 10
272.5215186752
 20
39.9427189101
  0
LWPOLYLINE
  5
1AC
330
1F
100
AcDbEntity
  8
0
  6
Continuous
 62
     7
370
    25
100
AcDbPolyline
 90
       13
 70
   128
 43
0.0
 10
272.0349484557
 20
34.90550324
 10
272.2111249167
 20
35.3574408317
 10
272.4839019544
 20
35.7792216634
 10
272.8185117116
 20
36.1130242545
 10
273.1745966053
 20
36.3185876881
 10
273.5092063625
 20
36.3711172993
 10
273.7819834002
 20
36.2642781317
 10
273.9600248592
 20
36.0109553715
 10
274.0218595543
 20
35.6417053391
 10
273.9600248592
 20
35.2010624874
 10
273.7819834002
 20
34.7421774341
 10
273.5092063625
 20
34.3203966025
 10
273.3524694769
 20
34.1449146304
  0
SPLINE
  5
1AD
330
1F
100
AcDbEntity
  8
0
  6
Continuous
 62
     7
370
    25
100
AcDbSpline
210
0.0
220
0.0
230
1.0
 70
     8
 71
     3
 72
     9
 73
     5
 74
     0
 42
0.000000001
 43
0.00000001
 40
0.0
 40
0.0
 40
0.0
 40
0.0
 40
0.6311978020354347
 40
1.0
 40
1.0
 40
1.0
 40
1.0
 10
273.8757535527168
 20
34.97348008298551
 30
0.0
 10
273.6841222595887
 20
34.85231793131783
 30
0.0
 10
273.3805228292513
 20
34.66036201626718
 30
0.0
 10
273.212570182985
 20
34.36891928409668
 30
0.0
 10
273.150628877888
 20
34.26143456389139
 30
0.0
  0
SPLINE
  5
1AE
330
1F
100
AcDbEntity
  8
0
  6
Continuous
 62
     7
370
    25
100
AcDbSpline
210
0.0
220
0.0
230
1.0
 70
     8
 71
     3
 72
    11
 73
     7
 74
     0
 42
0.000000001
 43
0.00000001
 40
0.0
 40
0.0
 40
0.0
 40
0.0
 40
0.184241996819023
 40
0.5169670674472885
 40
0.8653135927090866
 40
0.9999999999999999
 40
0.9999999999999999
 40
0.9999999999999999
 40
0.9999999999999999
 10
273.8757535527168
 20
36.15205526273327
 30
0.0
 10
273.8482712194972
 20
36.09957455287704
 30
0.0
 10
273.7711581754767
 20
35.95231823162374
 30
0.0
 10
273.7136973476697
 20
35.6283323510587
 30
0.0
 10
273.7823110034278
 20
35.25562251464188
 30
0.0
 10
273.8553795083247
 20
35.034997908336
 30
0.0
 10
273.8757535527168
 20
34.97348008298551
 30
0.0
  0
SPLINE
  5
1AF
330
1F
100
AcDbEntity
  8
0
  6
Continuous
 62
     7
370
    25
100
AcDbSpline
210
0.0
220
0.0
230
1.0
 70
     8
 71
     3
 72
    10
 73
     6
 74
     0
 42
0.000000001
 43
0.00000001
 40
0.0
 40
0.0
 40
0.0
 40
0.0
 40
0.4391259271787122
 40
0.7513739080116174
 40
1.0
 40
1.0
 40
1.0
 40
1.0
 10
272.9918702606261
 20
36.23108788916546
 30
0.0
 10
273.0578700502141
 20
36.25472147860016
 30
0.0
 10
273.1708001159685
 20
36.29516013492816
 30
0.0
 10
273.531582374432
 20
36.24043648939286
 30
0.0
 10
273.770046427812
 20
36.17920025904674
 30
0.0
 10
273.8757535527168
 20
36.15205526273327
 30
0.0
  0
SPLINE
  5
1B0
330
1F
100
AcDbEntity
  8
0
  6
Continuous
 62
     7
370
    25
100
AcDbSpline
210
0.0
220
0.0
230
1.0
 70
     8
 71
     3
 72
     9
 73
     5
 74
     0
 42
0.000000001
 43
0.00000001
 40
0.0
 40
0.0
 40
0.0
 40
0.0
 40
0.3415401741386072
 40
1.0
 40
1.0
 40
1.0
 40
1.0
 10
272.059201991384
 20
34.89150189410994
 30
0.0
 10
272.113453318338
 20
34.98931529462615
 30
0.0
 10
272.2722964971554
 20
35.27570444566202
 30
0.0
 10
272.5453594253134
 20
35.49397860831593
 30
0.0
 10
272.7251603934376
 20
35.63770337544708
 30
0.0
  0
SPLINE
  5
1B1
330
1F
100
AcDbEntity
  8
0
  6
Continuous
 62
     7
370
    25
100
AcDbSpline
210
0.0
220
0.0
230
1.0
 70
     8
 71
     3
 72
     9
 73
     5
 74
     0
 42
0.000000001
 43
0.00000001
 40
0.0
 40
0.0
 40
0.0
 40
0.0
 40
0.4011313178770138
 40
1.0
 40
1.0
 40
1.0
 40
1.0
 10
272.7251603934376
 20
35.63770337544708
 30
0.0
 10
272.71387753641
 20
35.68571171139961
 30
0.0
 10
272.685749946953
 20
35.80539405434559
 30
0.0
 10
272.6823876643125
 20
35.91594619390896
 30
0.0
 10
272.6803740985387
 20
35.98215240803513
 30
0.0
  0
LINE
  5
1B2
330
1F
100
AcDbEntity
  8
0
  6
Continuous
 62
     7
370
    25
100
AcDbLine
 10
272.7251603934
 20
35.6377033754
 30
0.0
 11
273.8757535527
 21
34.973480083
 31
0.0
  0
ARC
  5
1B3
330
1F
100
AcDbEntity
  8
0
  6
Continuous
 62
     7
370
    25
100
AcDbCircle
 10
252.8069761104
 20
24.7468726856
 30
0.0
 40
1.809260518443438
100
AcDbArc
 50
63.7775646025
 51
116.0208548582
  0
ARC
  5
1B4
330
1F
100
AcDbEntity
  8
0
  6
Continuous
 62
     7
370
    25
100
AcDbCircle
 10
250.6300356505
 20
20.949308836
 30
0.0
 40
1.822224331995175
100
AcDbArc
 50
186.8076505399
 51
235.8357980873
  0
LWPOLYLINE
  5
1B5
330
1F
100
AcDbEntity
  8
0
  6
Continuous
 62
     7
370
    25
100
AcDbPolyline
 90
       13
 70
   128
 43
0.0
 10
246.4800504566
 20
22.5995854778
 10
246.5379483727
 20
23.2904830629
 10
246.7092713606
 20
24.0199424889
 10
246.9870072385
 20
24.7581006083
 10
247.3597842598
 20
25.4747365047
 10
247.812341314
 20
26.1405112405
 10
248.326149593
 20
26.7281673819
 10
248.8801745264
 20
27.2136464272
 10
249.4517345245
 20
27.5770731452
 10
250.0174295253
 20
27.8035688037
 10
250.5540998353
 20
27.8838604001
 10
251.0397744343
 20
27.814660804
 10
251.3083143967
 20
27.6965967462
  0
ARC
  5
1B6
330
1F
100
AcDbEntity
  8
0
  6
Continuous
 62
     7
370
    25
100
AcDbCircle
 10
248.4713034556
 20
22.3973740125
 30
0.0
 40
2.001493937705761
100
AcDbArc
 50
174.2014991383
 51
234.4862519257
  0
LWPOLYLINE
  5
1B7
330
1F
100
AcDbEntity
  8
0
  6
Continuous
 62
     7
370
    25
100
AcDbPolyline
 90
       19
 70
   128
 43
0.0
 10
250.7580451425
 20
22.211791143
 10
250.8198798377
 20
22.6524339947
 10
250.9979212967
 20
23.1113190479
 10
251.2706983344
 20
23.5330998796
 10
251.6053080916
 20
23.8669024707
 10
251.9613929853
 20
24.0724659043
 10
252.2960027425
 20
24.1249955155
 10
252.5687797802
 20
24.0181563479
 10
252.7468218978
 20
23.7648339679
 10
252.8086552758
 20
23.3955831752
 10
252.7468218978
 20
22.9549410838
 10
252.5687797802
 20
22.4960556504
 10
252.2960027425
 20
22.0742748187
 10
251.9613929853
 20
21.7404722276
 10
251.6053080916
 20
21.534908794
 10
251.2706983344
 20
21.4823791828
 10
250.9979212967
 20
21.5892183504
 10
250.8198798377
 20
21.8425411106
 10
250.7580451425
 20
22.211791143
  0
SPLINE
  5
1B8
330
1F
100
AcDbEntity
  8
0
  6
Continuous
 62
     7
370
    25
100
AcDbSpline
210
0.0
220
0.0
230
1.0
 70
     8
 71
     3
 72
    10
 73
     6
 74
     0
 42
0.000000001
 43
0.00000001
 40
0.0
 40
0.0
 40
0.0
 40
0.0
 40
0.2693778725034243
 40
0.9660840045951541
 40
1.0
 40
1.0
 40
1.0
 40
1.0
 10
250.8947840070909
 20
21.70684875248367
 30
0.0
 10
250.8751049233647
 20
21.76788320850178
 30
0.0
 10
250.8045287923843
 20
21.98677428199751
 30
0.0
 10
250.7372973010693
 20
22.23272543493265
 30
0.0
 10
250.7602021652089
 20
22.36667917240984
 30
0.0
 10
250.7612654251865
 20
22.37289739955321
 30
0.0
  0
SPLINE
  5
1B9
330
1F
100
AcDbEntity
  8
0
  6
Continuous
 62
     7
370
    25
100
AcDbSpline
210
0.0
220
0.0
230
1.0
 70
     8
 71
     3
 72
    10
 73
     6
 74
     0
 42
0.000000001
 43
0.00000001
 40
0.0
 40
0.0
 40
0.0
 40
0.0
 40
0.4391259271787122
 40
0.7513739080116174
 40
1.0
 40
1.0
 40
1.0
 40
1.0
 10
251.7786672991816
 20
21.62781612605147
 30
0.0
 10
251.5915916818585
 20
21.67407812419884
 30
0.0
 10
251.2714927558287
 20
21.75323550523468
 30
0.0
 10
251.0027986853575
 20
21.75479777141374
 30
0.0
 10
250.9279591298423
 20
21.72157558974635
 30
0.0
 10
250.8947840070909
 20
21.70684875248367
 30
0.0
  0
SPLINE
  5
1BA
330
1F
100
AcDbEntity
  8
0
  6
Continuous
 62
     7
370
    25
100
AcDbSpline
210
0.0
220
0.0
230
1.0
 70
     8
 71
     3
 72
    10
 73
     6
 74
     0
 42
0.000000001
 43
0.00000001
 40
0.0
 40
0.0
 40
0.0
 40
0.0
 40
0.4391253862650267
 40
0.7513738763982162
 40
1.0
 40
1.0
 40
1.0
 40
1.0
 10
252.6625505912724
 20
22.72735867936704
 30
0.0
 10
252.4754752764788
 20
22.6048949988529
 30
0.0
 10
252.1553764872687
 20
22.39535118010777
 30
0.0
 10
251.8866819915195
 20
21.97723907473944
 30
0.0
 10
251.8118424070097
 20
21.73513619288132
 30
0.0
 10
251.7786672991816
 20
21.62781612605147
 30
0.0
  0
SPLINE
  5
1BB
330
1F
100
AcDbEntity
  8
0
  6
Continuous
 62
     7
370
    25
100
AcDbSpline
210
0.0
220
0.0
230
1.0
 70
     8
 71
     3
 72
    11
 73
     7
 74
     0
 42
0.000000001
 43
0.00000001
 40
0.0
 40
0.0
 40
0.0
 40
0.0
 40
0.184241996819023
 40
0.5169670674472885
 40
0.8653135927090866
 40
0.9999999999999999
 40
0.9999999999999999
 40
0.9999999999999999
 40
0.9999999999999999
 10
252.6625505912724
 20
23.9059338591148
 30
0.0
 10
252.6350682580528
 20
23.85345314925857
 30
0.0
 10
252.5579552140323
 20
23.70619682800528
 30
0.0
 10
252.5004943862253
 20
23.38221094744024
 30
0.0
 10
252.5691080419834
 20
23.00950111102341
 30
0.0
 10
252.6421765468803
 20
22.78887650471753
 30
0.0
 10
252.6625505912724
 20
22.72735867936704
 30
0.0
  0
SPLINE
  5
1BC
330
1F
100
AcDbEntity
  8
0
  6
Continuous
 62
     7
370
    25
100
AcDbSpline
210
0.0
220
0.0
230
1.0
 70
     8
 71
     3
 72
    10
 73
     6
 74
     0
 42
0.000000001
 43
0.00000001
 40
0.0
 40
0.0
 40
0.0
 40
0.0
 40
0.439125404033696
 40
0.7513739128717637
 40
1.0
 40
1.0
 40
1.0
 40
1.0
 10
251.7786672991816
 20
23.98496648554699
 30
0.0
 10
251.8446668536623
 20
24.00859980659389
 30
0.0
 10
251.9575966523994
 20
24.04903805212932
 30
0.0
 10
252.3183792396661
 20
23.99431525620385
 30
0.0
 10
252.5568434828801
 20
23.93307888986286
 30
0.0
 10
252.6625505912724
 20
23.9059338591148
 30
0.0
  0
SPLINE
  5
1BD
330
1F
100
AcDbEntity
  8
0
  6
Continuous
 62
     7
370
    25
100
AcDbSpline
210
0.0
220
0.0
230
1.0
 70
     8
 71
     3
 72
     9
 73
     5
 74
     0
 42
0.000000001
 43
0.00000001
 40
0.0
 40
0.0
 40
0.0
 40
0.0
 40
0.3723142283607826
 40
1.0
 40
1.0
 40
1.0
 40
1.0
 10
250.8207201404561
 20
22.6043967965701
 30
0.0
 10
250.8823022349619
 20
22.71652426715706
 30
0.0
 10
251.0477057834023
 20
23.01768780603289
 30
0.0
 10
251.3329276958132
 20
23.24739686432316
 30
0.0
 10
251.5119574319932
 20
23.39158197182862
 30
0.0
  0
SPLINE
  5
1BE
330
1F
100
AcDbEntity
  8
0
  6
Continuous
 62
     7
370
    25
100
AcDbSpline
210
0.0
220
0.0
230
1.0
 70
     8
 71
     3
 72
     9
 73
     5
 74
     0
 42
0.000000001
 43
0.00000001
 40
0.0
 40
0.0
 40
0.0
 40
0.0
 40
0.4011313178770138
 40
1.0
 40
1.0
 40
1.0
 40
1.0
 10
251.5119574319932
 20
23.39158197182862
 30
0.0
 10
251.5006745749656
 20
23.43959030778115
 30
0.0
 10
251.4725469855086
 20
23.55927265072712
 30
0.0
 10
251.4691847028681
 20
23.66982479029049
 30
0.0
 10
251.4671711370943
 20
23.73603100441667
 30
0.0
  0
LINE
  5
1BF
330
1F
100
AcDbEntity
  8
0
  6
Continuous
 62
     7
370
    25
100
AcDbLine
 10
250.7838409895
 20
22.2021171303
 30
0.0
 11
251.7786672992
 21
21.6278161261
 31
0.0
  0
LINE
  5
1C0
330
1F
100
AcDbEntity
  8
0
  6
Continuous
 62
     7
370
    25
100
AcDbLine
 10
251.511957432
 20
23.3915819718
 30
0.0
 11
252.6625505913
 21
22.7273586794
 31
0.0
  0
LWPOLYLINE
  5
1C1
330
1F
100
AcDbEntity
  8
0
  6
Continuous
 62
     7
370
    25
100
AcDbPolyline
 90
       23
 70
   128
 43
0.0
 10
274.9784817215
 20
30.3195641225
 10
274.5353405367
 20
30.5210104982
 10
273.8804369566
 20
30.6585509979
 10
273.1662999323
 20
30.6434234837
 10
272.4088820458
 20
30.4759656253
 10
271.6251027461
 20
30.1599181442
 10
270.8324704268
 20
29.7023412461
 10
270.0486911271
 20
29.1134564098
 10
269.2912732406
 20
28.4064181906
 10
268.5771362163
 20
27.597020647
 10
267.9222326362
 20
26.7033445686
 10
267.3411919021
 20
25.7453533002
 10
266.8469937615
 20
24.7444464755
 10
266.4506777254
 20
23.7229827589
 10
266.1610966074
 20
22.7037799594
 10
265.9847192904
 20
21.7096054436
 10
265.9254858461
 20
20.7626674954
 10
265.9847192904
 20
19.8841190262
 10
266.1610966074
 20
19.0935854261
 10
266.4506777254
 20
18.4087258686
 10
266.8469937615
 20
17.8448389076
 10
267.3411919021
 20
17.4145211107
 10
267.4790914514
 20
17.3288315701
  0
LINE
  5
1C2
330
1F
100
AcDbEntity
  8
0
  6
Continuous
 62
     7
370
    25
100
AcDbLine
 10
278.2998529232
 20
23.803528081
 30
0.0
 11
275.2539904019
 21
20.0145041036
 31
0.0
  0
LINE
  5
1C3
330
1F
100
AcDbEntity
  8
0
  6
Continuous
 62
     7
370
    25
100
AcDbLine
 10
275.2539904019
 20
20.0145041036
 30
0.0
 11
275.2539904019
 21
15.9531341614
 31
0.0
  0
LINE
  5
1C4
330
1F
100
AcDbEntity
  8
0
  6
Continuous
 62
     7
370
    25
100
AcDbLine
 10
278.2998529232
 20
15.6807881965
 30
0.0
 11
275.2539904019
 21
15.9531341614
 31
0.0
  0
LINE
  5
1C5
330
1F
100
AcDbEntity
  8
0
  6
Continuous
 62
     7
370
    25
100
AcDbLine
 10
281.3457154445
 20
19.4698121739
 30
0.0
 11
278.2998529232
 21
15.6807881965
 31
0.0
  0
LINE
  5
1C6
330
1F
100
AcDbEntity
  8
0
  6
Continuous
 62
     7
370
    25
100
AcDbLine
 10
281.3457154445
 20
19.4698121739
 30
0.0
 11
281.3457154445
 21
23.5311821161
 31
0.0
  0
LINE
  5
1C7
330
1F
100
AcDbEntity
  8
0
  6
Continuous
 62
     7
370
    25
100
AcDbLine
 10
278.2998529232
 20
23.803528081
 30
0.0
 11
281.3457154445
 21
23.5311821161
 31
0.0
  0
ARC
  5
1C8
330
1F
100
AcDbEntity
  8
0
  6
Continuous
 62
     7
370
    25
100
AcDbCircle
 10
271.059768836
 20
23.9287603235
 30
0.0
 40
6.776706559958416
100
AcDbArc
 50
320.4788893947
 51
353.6116582221
  0
ARC
  5
1C9
330
1F
100
AcDbEntity
  8
0
  6
Continuous
 62
     7
370
    25
100
AcDbCircle
 10
271.5332081029
 20
23.3896083813
 30
0.0
 40
6.069486423967756
100
AcDbArc
 50
307.8090166298
 51
321.5609398536
  0
LINE
  5
1CA
330
1F
100
AcDbEntity
  8
0
  6
Continuous
 62
     7
370
    25
100
AcDbLine
 10
275.2539897433
 20
17.4391275829
 30
0.0
 11
278.2998529232
 21
15.6807881965
 31
0.0
  0
LINE
  5
1CB
330
1F
100
AcDbEntity
  8
0
  6
Continuous
 62
     7
370
    25
100
AcDbLine
 10
277.8101849103
 20
21.510830507
 30
0.0
 11
281.3457154445
 21
19.4698121739
 31
0.0
  0
LINE
  5
1CC
330
1F
100
AcDbEntity
  8
0
  6
Continuous
 62
     7
370
    25
100
AcDbLine
 10
277.8101849103
 20
21.510830507
 30
0.0
 11
277.8101849103
 21
23.1943795439
 31
0.0
  0
LINE
  5
1CD
330
1F
100
AcDbEntity
  8
0
  6
Continuous
 62
     7
370
    25
100
AcDbLine
 10
276.2872536496
 20
19.6163185183
 30
0.0
 11
275.2539938181
 21
18.3309530269
 31
0.0
  0
LINE
  5
1CE
330
1F
100
AcDbEntity
  8
0
  6
Continuous
 62
     7
370
    25
100
AcDbLine
 10
277.8101849103
 20
21.510830507
 30
0.0
 11
276.2872536496
 21
19.6163185183
 31
0.0
  0
ARC
  5
1CF
330
1F
100
AcDbEntity
  8
0
  6
Continuous
 62
     7
370
    25
100
AcDbCircle
 10
266.0938858059
 20
41.8761250325
 30
0.0
 40
6.927253900280826
100
AcDbArc
 50
36.8198599666
 51
83.6475822764
  0
ARC
  5
1D0
330
1F
100
AcDbEntity
  8
0
  6
Continuous
 62
     7
370
    25
100
AcDbCircle
 10
253.0360642277
 20
19.2556327294
 30
0.0
 40
6.940651524943709
100
AcDbArc
 50
216.4392818595
 51
263.7067829258
  0
ARC
  5
1D1
330
1F
100
AcDbEntity
  8
0
  6
Continuous
 62
     7
370
    25
100
AcDbCircle
 10
248.9885824931
 20
51.6492036248
 30
0.0
 40
7.021462770306227
100
AcDbArc
 50
60.2755412608
 51
83.613111049
  0
ARC
  5
1D2
330
1F
100
AcDbEntity
  8
0
  6
Continuous
 62
     7
370
    25
100
AcDbCircle
 10
236.0445186535
 20
29.2061646537
 30
0.0
 40
7.070477334693865
100
AcDbArc
 50
216.5116274291
 51
239.6473210612
  0
SPLINE
  5
1D3
330
1F
100
AcDbEntity
  8
0
  6
Continuous
 62
     7
370
    25
100
AcDbSpline
210
0.0
220
0.0
230
1.0
 70
    11
 71
     3
 72
    66
 73
    62
 74
     0
 42
0.000000001
 43
0.00000001
 40
0.0
 40
0.0
 40
0.0
 40
0.0
 40
0.0312500000000008
 40
0.0312500000000008
 40
0.0625000000000017
 40
0.0625000000000017
 40
0.1250000000000029
 40
0.1250000000000029
 40
0.1562500000000035
 40
0.1562500000000035
 40
0.1875000000000041
 40
0.1875000000000041
 40
0.2187500000000047
 40
0.2187500000000047
 40
0.2500000000000053
 40
0.2500000000000053
 40
0.2812500000000059
 40
0.2812500000000059
 40
0.3125000000000065
 40
0.3125000000000065
 40
0.3750000000000077
 40
0.3750000000000077
 40
0.4062500000000087
 40
0.4062500000000087
 40
0.4375000000000097
 40
0.4375000000000097
 40
0.4687500000000107
 40
0.4687500000000107
 40
0.5000000000000117
 40
0.5000000000000117
 40
0.5312500000000127
 40
0.5312500000000127
 40
0.5625000000000138
 40
0.5625000000000138
 40
0.5937500000000148
 40
0.5937500000000148
 40
0.6250000000000159
 40
0.6250000000000159
 40
0.6562500000000153
 40
0.6562500000000153
 40
0.687500000000014
 40
0.687500000000014
 40
0.7187500000000125
 40
0.7187500000000125
 40
0.7500000000000112
 40
0.7500000000000112
 40
0.7812500000000098
 40
0.7812500000000098
 40
0.8125000000000084
 40
0.8125000000000084
 40
0.843750000000007
 40
0.843750000000007
 40
0.8750000000000057
 40
0.8750000000000057
 40
0.9062500000000042
 40
0.9062500000000042
 40
0.9375000000000029
 40
0.9375000000000029
 40
0.9687500000000014
 40
0.9687500000000014
 40
1.0
 40
1.0
 40
1.0
 40
1.0
 10
234.9383798541194
 20
44.92177598120972
 30
0.0
 10
235.0010581717215
 20
45.01436058006047
 30
0.0
 10
235.0712175817621
 20
45.09923660893745
 30
0.0
 10
235.2256907359389
 20
45.25436598374375
 30
0.0
 10
235.3106374733785
 20
45.32477939752126
 30
0.0
 10
235.5753272546063
 20
45.50553208793805
 30
0.0
 10
235.7710314750367
 20
45.58965141672537
 30
0.0
 10
236.0639599757904
 20
45.65508033427986
 30
0.0
 10
236.1632324259096
 20
45.66720874984417
 30
0.0
 10
236.3566178527935
 20
45.67171863960196
 30
0.0
 10
236.4510279535961
 20
45.66437645522698
 30
0.0
 10
236.6352242947023
 20
45.63102335656149
 30
0.0
 10
236.7250948972406
 20
45.60472991047918
 30
0.0
 10
236.8932562581545
 20
45.53550426040097
 30
0.0
 10
236.9724900846717
 20
45.49246958717724
 30
0.0
 10
237.1210670738769
 20
45.38923794880409
 30
0.0
 10
237.1896314405333
 20
45.32934385725691
 30
0.0
 10
237.3115587211913
 20
45.1967197733863
 30
0.0
 10
237.3655906722708
 20
45.12355864397815
 30
0.0
 10
237.5059550401175
 20
44.8822180649791
 30
0.0
 10
237.5663133785701
 20
44.70043331976505
 30
0.0
 10
237.6022005682385
 20
44.40018466086551
 30
0.0
 10
237.6045823232129
 20
44.2984621941559
 30
0.0
 10
237.590471468385
 20
44.0915889234404
 30
0.0
 10
237.5736191036845
 20
43.98512902927934
 30
0.0
 10
237.520789803421
 20
43.7750791786255
 30
0.0
 10
237.4852702737992
 20
43.67220735153879
 30
0.0
 10
237.3959152582552
 20
43.47075020848036
 30
0.0
 10
237.3415390108449
 20
43.37179740266274
 30
0.0
 10
237.2193710207613
 20
43.18819592447918
 30
0.0
 10
237.150910470559
 20
43.10200619076097
 30
0.0
 10
236.9999524093531
 20
42.94249637253631
 30
0.0
 10
236.9198127767077
 20
42.87159135447489
 30
0.0
 10
236.7506149883295
 20
42.74645846668331
 30
0.0
 10
236.6607317585643
 20
42.69200877919435
 30
0.0
 10
236.4790420119939
 20
42.603974857736
 30
0.0
 10
236.3865614134156
 20
42.56971836843192
 30
0.0
 10
236.1981209797682
 20
42.52052104961506
 30
0.0
 10
236.1038805088793
 20
42.50614550275146
 30
0.0
 10
235.9183239450164
 20
42.4972203990466
 30
0.0
 10
235.825777228943
 20
42.50267482272923
 30
0.0
 10
235.6457797260242
 20
42.53321922215002
 30
0.0
 10
235.559263298164
 20
42.55797477970349
 30
0.0
 10
235.3928640788736
 20
42.62586903280371
 30
0.0
 10
235.3122645732663
 20
42.66959643644461
 30
0.0
 10
235.1628921239674
 20
42.77319355337034
 30
0.0
 10
235.0938375380196
 20
42.83292989208721
 30
0.0
 10
234.9670963562071
 20
42.96827773446634
 30
0.0
 10
234.9090758115238
 20
43.04468734102888
 30
0.0
 10
234.8095145498385
 20
43.20811824043088
 30
0.0
 10
234.7673725873201
 20
43.29554688957519
 30
0.0
 10
234.6991325027507
 20
43.48213215143988
 30
0.0
 10
234.6731788654924
 20
43.5818176863806
 30
0.0
 10
234.6408440163397
 20
43.78443297596824
 30
0.0
 10
234.6339752559346
 20
43.88837535719434
 30
0.0
 10
234.6403422656308
 20
44.10175904926299
 30
0.0
 10
234.6538004006919
 20
44.21003410668589
 30
0.0
 10
234.7006601176818
 20
44.42165499481693
 30
0.0
 10
234.7343087523557
 20
44.52675104576605
 30
0.0
 10
234.8223271525099
 20
44.7315537157462
 30
0.0
 10
234.8757015365173
 20
44.82919138235897
 30
0.0
 10
234.9383798541194
 20
44.92177598120972
 30
0.0
  0
SPLINE
  5
1D4
330
1F
100
AcDbEntity
  8
0
  6
Continuous
 62
     7
370
    25
100
AcDbSpline
210
0.0
220
0.0
230
1.0
 70
     8
 71
     3
 72
    20
 73
    16
 74
     0
 42
0.000000001
 43
0.00000001
 40
0.0
 40
0.0
 40
0.0
 40
0.0
 40
0.0690603126325745
 40
0.1355670063824531
 40
0.2146369729246634
 40
0.2895841846433067
 40
0.3632593038454781
 40
0.4394474173622878
 40
0.5204966932599827
 40
0.6066158250686775
 40
0.696043382033442
 40
0.785932846546847
 40
0.8730564097693044
 40
0.9547515843411843
 40
1.0
 40
1.0
 40
1.0
 40
1.0
 10
236.1264571660668
 20
21.0481194423457
 30
0.0
 10
235.9843801446125
 20
21.12306619764952
 30
0.0
 10
235.7054796337391
 20
21.27018842845485
 30
0.0
 10
235.2888516648231
 20
21.48882096135487
 30
0.0
 10
234.9324900170332
 20
21.68208325292982
 30
0.0
 10
234.6958389629634
 20
21.8224576397086
 30
0.0
 10
234.6117954554054
 20
21.88890496756938
 30
0.0
 10
234.678795455541
 20
21.87563805138872
 30
0.0
 10
234.8975515877182
 20
21.77319540495066
 30
0.0
 10
235.2597301304272
 20
21.57580196664079
 30
0.0
 10
235.7327152023482
 20
21.2951899120074
 30
0.0
 10
236.2603356845141
 20
20.96585028943608
 30
0.0
 10
236.7602277180264
 20
20.64885453880502
 30
0.0
 10
237.1381080323718
 20
20.41215547637351
 30
0.0
 10
237.2811958664496
 20
20.33008498857649
 30
0.0
 10
237.332198818078
 20
20.30083136861496
 30
0.0
  0
LINE
  5
1D5
330
1F
100
AcDbEntity
  8
0
  6
Continuous
 62
     7
370
    25
100
AcDbLine
 10
255.6765481194
 20
55.8635395086
 30
0.0
 11
256.0811572066
 21
55.6088735739
 31
0.0
  0
LWPOLYLINE
  5
1D6
330
1F
100
AcDbEntity
  8
0
  6
Continuous
 62
     7
370
    25
100
AcDbPolyline
 90
       14
 70
   128
 43
0.0
 10
257.3446347727
 20
54.93263985
 10
257.0319769381
 20
55.1059953058
 10
256.6260198104
 20
55.3214660077
 10
256.1566771152
 20
55.5683536453
 10
255.6613021555
 20
55.8341403258
 10
255.1989867888
 20
56.0945094049
 10
254.8404376216
 20
56.3134775906
 10
254.6441643579
 20
56.4521184034
 10
254.634873612
 20
56.4829407058
 10
254.7929387819
 20
56.4049822824
 10
255.0734800594
 20
56.24027958
 10
255.4407272824
 20
56.0123334632
 10
255.6765481194
 20
55.8635395086
 10
255.6765481194
 20
55.8635395086
  0
SPLINE
  5
1D7
330
1F
100
AcDbEntity
  8
0
  6
Continuous
 62
     7
370
    25
100
AcDbSpline
210
0.0
220
0.0
230
1.0
 70
    11
 71
     3
 72
    95
 73
    91
 74
     0
 42
0.000000001
 43
0.00000001
 40
0.0
 40
0.0
 40
0.0
 40
0.0
 40
0.0312499999999991
 40
0.0312499999999991
 40
0.0468749999999991
 40
0.0468749999999991
 40
0.0624999999999991
 40
0.0624999999999991
 40
0.0937499999999983
 40
0.0937499999999983
 40
0.1249999999999975
 40
0.1249999999999975
 40
0.1562499999999966
 40
0.1562499999999966
 40
0.1718749999999963
 40
0.1718749999999963
 40
0.1874999999999958
 40
0.1874999999999958
 40
0.2187499999999951
 40
0.2187499999999951
 40
0.2499999999999943
 40
0.2499999999999943
 40
0.2656249999999939
 40
0.2656249999999939
 40
0.2812499999999936
 40
0.2812499999999936
 40
0.3124999999999928
 40
0.3124999999999928
 40
0.3281249999999925
 40
0.3281249999999925
 40
0.3437499999999921
 40
0.3437499999999921
 40
0.3749999999999908
 40
0.3749999999999908
 40
0.4062499999999896
 40
0.4062499999999896
 40
0.421874999999989
 40
0.421874999999989
 40
0.4374999999999883
 40
0.4374999999999883
 40
0.4687499999999862
 40
0.4687499999999862
 40
0.4843749999999857
 40
0.4843749999999857
 40
0.4999999999999851
 40
0.4999999999999851
 40
0.5312499999999838
 40
0.5312499999999838
 40
0.5468749999999836
 40
0.5468749999999836
 40
0.5624999999999835
 40
0.5781249999999832
 40
0.5781249999999832
 40
0.593749999999983
 40
0.593749999999983
 40
0.6249999999999832
 40
0.6249999999999832
 40
0.6406249999999837
 40
0.6406249999999837
 40
0.6562499999999842
 40
0.6562499999999842
 40
0.6874999999999846
 40
0.6874999999999846
 40
0.7031249999999848
 40
0.7031249999999848
 40
0.718749999999985
 40
0.718749999999985
 40
0.7499999999999856
 40
0.7499999999999856
 40
0.7812499999999862
 40
0.7812499999999862
 40
0.7968749999999866
 40
0.7968749999999866
 40
0.8124999999999869
 40
0.8124999999999869
 40
0.8437499999999879
 40
0.8437499999999879
 40
0.8593749999999887
 40
0.8593749999999887
 40
0.8749999999999893
 40
0.8749999999999893
 40
0.9062499999999913
 40
0.9062499999999913
 40
0.9374999999999933
 40
0.9374999999999933
 40
0.9531249999999949
 40
0.9531249999999949
 40
0.9687499999999963
 40
0.9687499999999963
 40
1.0
 40
1.0
 40
1.0
 40
1.0
 10
254.1542376448395
 20
52.85160664416742
 30
0.0
 10
254.3367043217342
 20
52.74627087373101
 30
0.0
 10
254.4989830313427
 20
52.63666019403608
 30
0.0
 10
254.7132817259574
 20
52.46574093018026
 30
0.0
 10
254.7798252034233
 20
52.40766957429587
 30
0.0
 10
254.9028949688231
 20
52.2891372813245
 30
0.0
 10
254.9595886735191
 20
52.22841443766971
 30
0.0
 10
255.110921164257
 20
52.04603375856568
 30
0.0
 10
255.1881912244519
 20
51.92322285688227
 30
0.0
 10
255.2956626806109
 20
51.67317389803615
 30
0.0
 10
255.3255114734043
 20
51.54481530861025
 30
0.0
 10
255.3339051967949
 20
51.2917025401851
 30
0.0
 10
255.3133225961236
 20
51.16588397235813
 30
0.0
 10
255.2442425368717
 20
50.97647425607469
 30
0.0
 10
255.214596295094
 20
50.91296661239397
 30
0.0
 10
255.1435402253565
 20
50.78822084806642
 30
0.0
 10
255.1020731658126
 20
50.72668401154105
 30
0.0
 10
254.9601435974999
 20
50.54418921490943
 30
0.0
 10
254.8418841828831
 20
50.42493995227327
 30
0.0
 10
254.5581528650465
 20
50.1924448410203
 30
0.0
 10
254.3969330422948
 20
50.08253332501206
 30
0.0
 10
254.1270463711439
 20
49.92650273743822
 30
0.0
 10
254.0323721096464
 20
49.87598416776839
 30
0.0
 10
253.8333244733816
 20
49.77804685214506
 30
0.0
 10
253.7292653121029
 20
49.7308338375337
 30
0.0
 10
253.4096625359165
 20
49.59717177290803
 30
0.0
 10
253.1846320214181
 20
49.51751552730308
 30
0.0
 10
252.8290693778928
 20
49.41318851453816
 30
0.0
 10
252.7069198704639
 20
49.38084558305847
 30
0.0
 10
252.4614621294799
 20
49.32285636999564
 30
0.0
 10
252.3377306226219
 20
49.29705307357818
 30
0.0
 10
251.9635638971074
 20
49.22934805835478
 30
0.0
 10
251.7090234789728
 20
49.19696522354985
 30
0.0
 10
251.1964981016552
 20
49.16142302258153
 30
0.0
 10
250.9444293113088
 20
49.15855761886052
 30
0.0
 10
250.5721658821039
 20
49.1773143146692
 30
0.0
 10
250.4490590554916
 20
49.18743347964398
 30
0.0
 10
250.204821888089
 20
49.21583072964579
 30
0.0
 10
250.0841847458262
 20
49.23410098110377
 30
0.0
 10
249.7327192030321
 20
49.30024106013865
 30
0.0
 10
249.5098224903132
 20
49.35960759246225
 30
0.0
 10
249.1924400371247
 20
49.47239160564446
 30
0.0
 10
249.0889631875722
 20
49.51422291210384
 30
0.0
 10
248.8909959663812
 20
49.60479512153925
 30
0.0
 10
248.7965320847753
 20
49.65344817513414
 30
0.0
 10
248.5263403395452
 20
49.80928222980495
 30
0.0
 10
248.3636836694501
 20
49.92627009783418
 30
0.0
 10
248.1468130106445
 20
50.12174401473121
 30
0.0
 10
248.0795423009197
 20
50.18990532046731
 30
0.0
 10
247.9568652715716
 20
50.32995853358113
 30
0.0
 10
247.8453905592938
 20
50.47432476464283
 30
0.0
 10
247.7561353375938
 20
50.62690904117175
 30
0.0
 10
247.6782197479893
 20
50.78347799613579
 30
0.0
 10
247.6447972351729
 20
50.86421398938607
 30
0.0
 10
247.5635791366479
 20
51.10844824547104
 30
0.0
 10
247.5344335863907
 20
51.27352352067763
 30
0.0
 10
247.5277219978853
 20
51.52292061190987
 30
0.0
 10
247.5316958919585
 20
51.6063529756423
 30
0.0
 10
247.5525340437171
 20
51.7735672387174
 30
0.0
 10
247.5694073463701
 20
51.85685708627233
 30
0.0
 10
247.6382696487179
 20
52.10141094458881
 30
0.0
 10
247.7084922346727
 20
52.25899772669414
 30
0.0
 10
247.8508672776017
 20
52.48570809643354
 30
0.0
 10
247.9049245901367
 20
52.56007446426659
 30
0.0
 10
248.0238023022666
 20
52.70256365803515
 30
0.0
 10
248.0885776267101
 20
52.77078510553113
 30
0.0
 10
248.29854866688
 20
52.96638419993842
 30
0.0
 10
248.4592268788853
 20
53.08476637986958
 30
0.0
 10
248.82388202588
 20
53.29592345819105
 30
0.0
 10
249.0215408185859
 20
53.38502313899503
 30
0.0
 10
249.3397929410123
 20
53.49520516088891
 30
0.0
 10
249.4495479295353
 20
53.52800555129257
 30
0.0
 10
249.6765813333276
 20
53.58570606250412
 30
0.0
 10
249.7938030142886
 20
53.61052073963678
 30
0.0
 10
250.1488198305763
 20
53.67173390551491
 30
0.0
 10
250.3925042111454
 20
53.69572382247748
 30
0.0
 10
250.7686025171531
 20
53.70811947281645
 30
0.0
 10
250.8964356219969
 20
53.70825363642418
 30
0.0
 10
251.1510613583931
 20
53.70078996012325
 30
0.0
 10
251.2780850379069
 20
53.6932478441741
 30
0.0
 10
251.6583624897561
 20
53.65994124417208
 30
0.0
 10
251.9111408865105
 20
53.62353242476809
 30
0.0
 10
252.4135355082046
 20
53.52413168263553
 30
0.0
 10
252.655653181575
 20
53.46267956992934
 30
0.0
 10
253.0059917417494
 20
53.35510892449093
 30
0.0
 10
253.1206149385397
 20
53.31666107807149
 30
0.0
 10
253.3454835278063
 20
53.23466760525826
 30
0.0
 10
253.4558749040917
 20
53.19102385107398
 30
0.0
 10
253.774276864628
 20
53.05502079868195
 30
0.0
 10
253.9717709679447
 20
52.95694241460383
 30
0.0
 10
254.1542376448394
 20
52.85160664416742
 30
0.0
  0
LWPOLYLINE
  5
1D8
330
1F
100
AcDbEntity
  8
0
  6
Continuous
 62
     7
370
    25
100
AcDbPolyline
 90
       23
 70
   128
 43
0.0
 10
252.3037103474
 20
27.121967452
 10
252.4695377814
 20
28.2196853035
 10
252.7560955215
 20
29.4252947617
 10
253.1511761282
 20
30.6450044258
 10
253.6487901391
 20
31.8603249631
 10
254.2413952441
 20
33.0528333468
 10
254.9200072496
 20
34.2044521257
 10
255.6743396904
 20
35.2977246988
 10
256.4929572705
 20
36.3160768997
 10
257.3634507064
 20
37.2440726862
 10
258.2726242479
 20
38.0676440677
 10
259.2066957108
 20
38.7743062021
 10
260.1515055446
 20
39.3533480505
 10
261.0927313733
 20
39.7959904504
 10
262.0161051923
 20
40.095524428
 10
262.9076295764
 20
40.2474086358
 10
263.7537901219
 20
40.2493418029
 10
264.5417596992
 20
40.1012931936
 10
265.2595932985
 20
39.8055078645
 10
265.8964094597
 20
39.3664691951
 10
266.4425549081
 20
38.790833092
 10
266.8897507515
 20
38.0873256932
 10
267.0294148708
 20
37.7951362813
  0
ARC
  5
1D9
330
1F
100
AcDbEntity
  8
0
  6
Continuous
 62
     7
370
    25
100
AcDbCircle
 10
256.4632452179
 20
24.3679597035
 30
0.0
 40
3.934863789566358
100
AcDbArc
 50
222.7682561462
 51
278.2847010438
  0
LINE
  5
1DA
330
1F
100
AcDbEntity
  8
0
  6
Continuous
 62
     7
370
    25
100
AcDbLine
 10
274.0307219171
 20
33.7520420497
 30
0.0
 11
274.1070607257
 21
33.7092978227
 31
0.0
  0
LINE
  5
1DB
330
1F
100
AcDbEntity
  8
0
  6
Continuous
 62
     7
370
    25
100
AcDbLine
 10
264.3414755701
 20
16.265514638
 30
0.0
 11
264.1078736988
 21
16.3883210861
 31
0.0
  0
ARC
  5
1DC
330
1F
100
AcDbEntity
  8
0
  6
Continuous
 62
     7
370
    25
100
AcDbCircle
 10
257.750618922
 20
24.4379802146
 30
0.0
 40
3.793558558144043
100
AcDbArc
 50
200.6367550221
 51
239.0453816355
  0
LWPOLYLINE
  5
1DD
330
1F
100
AcDbEntity
  8
0
  6
Continuous
 62
     7
370
    25
100
AcDbPolyline
 90
       20
 70
   128
 43
0.0
 10
253.7416659882
 20
26.2804973977
 10
253.811263606
 20
27.0614712848
 10
254.0082527076
 20
28.2014720366
 10
254.3177850899
 20
29.3687147466
 10
254.7347313499
 20
30.5438542905
 10
255.25218138
 20
31.7074151017
 10
255.8615592842
 20
32.8401132162
 10
256.5527656242
 20
33.9231764146
 10
257.3143450181
 20
34.9386546649
 10
258.133675308
 20
35.8697179215
 10
258.9971779646
 20
36.7009357651
 10
259.890542075
 20
37.4185333257
 10
260.7989615007
 20
38.0106156438
 10
261.7073809264
 20
38.4673720695
 10
262.6007450368
 20
38.7812307556
 10
263.4642476935
 20
38.946991858
 10
264.2835779834
 20
38.9619072184
 10
265.0451573772
 20
38.8257298198
 10
265.7363637172
 20
38.5407164746
 10
265.7985550142
 20
38.5056960757
  0
LWPOLYLINE
  5
1DE
330
1F
100
AcDbEntity
  8
0
  6
Continuous
 62
     7
370
    25
100
AcDbPolyline
 90
       18
 70
   128
 43
0.0
 10
266.5324047452
 20
27.5565867789
 10
266.4727182222
 20
27.8908412956
 10
266.3017192382
 20
28.1110398654
 10
266.0425019612
 20
28.1874437505
 10
265.7300759342
 20
28.1097343671
 10
265.4066350919
 20
27.8884061364
 10
265.1158626669
 20
27.5533517974
 10
264.8970283269
 20
27.1498209109
 10
264.7796875494
 20
26.7323134593
 10
264.7796875494
 20
26.3572162789
 10
264.8970283269
 20
26.0751876052
 10
265.1158626669
 20
25.9243174697
 10
265.4066350919
 20
25.9249814464
 10
265.7300759342
 20
26.0770904436
 10
266.0425019612
 20
26.3601004728
 10
266.3017192382
 20
26.7357898753
 10
266.4727182222
 20
27.1534200498
 10
266.5324047452
 20
27.5565867789
  0
ARC
  5
1DF
330
1F
100
AcDbEntity
  8
0
  6
Continuous
 62
     7
370
    25
100
AcDbCircle
 10
268.6127102311
 20
25.2889039997
 30
0.0
 40
16.04151059609944
100
AcDbArc
 50
124.9066113077
 51
169.0402059694
  0
ARC
  5
1E0
330
1F
100
AcDbEntity
  8
0
  6
Continuous
 62
     7
370
    25
100
AcDbCircle
 10
263.5457449625
 20
32.9533360909
 30
0.0
 40
6.086437335662509
100
AcDbArc
 50
83.2572454968
 51
124.7590907533
  0
LWPOLYLINE
  5
1E1
330
1F
100
AcDbEntity
  8
0
  6
Continuous
 62
     7
370
    25
100
AcDbPolyline
 90
        3
 70
   128
 43
0.0
 10
254.6041044369
 20
22.2707293013
 10
254.3044877592
 20
22.6572018427
 10
254.1409520601
 20
22.9187046343
  0
ARC
  5
1E2
330
1F
100
AcDbEntity
  8
0
  6
Continuous
 62
     7
370
    25
100
AcDbCircle
 10
263.1806982585
 20
35.5294264066
 30
0.0
 40
3.716335261333875
100
AcDbArc
 50
65.0053705377
 51
94.3745963966
  0
LWPOLYLINE
  5
1E3
330
1F
100
AcDbEntity
  8
0
  6
Continuous
 62
     7
370
    25
100
AcDbPolyline
 90
        3
 70
   128
 43
0.0
 10
254.9360102104
 20
21.8958596
 10
254.5448173212
 20
22.2081980739
 10
254.0760143033
 20
22.7388035241
  0
LWPOLYLINE
  5
1E4
330
1F
100
AcDbEntity
  8
0
  6
Continuous
 62
     7
370
    25
100
AcDbPolyline
 90
        3
 70
   128
 43
0.0
 10
263.1499426744
 20
39.0890454119
 10
263.782877045
 20
39.0809353813
 10
264.4642440715
 20
38.9561365208
  0
LWPOLYLINE
  5
1E5
330
1F
100
AcDbEntity
  8
0
  6
Continuous
 62
     7
370
    25
100
AcDbPolyline
 90
        3
 70
   128
 43
0.0
 10
254.7420319743
 20
22.1149465252
 10
254.29265569
 20
22.6433898676
 10
254.13151841
 20
22.8914793897
  0
LWPOLYLINE
  5
1E6
330
1F
100
AcDbEntity
  8
0
  6
Continuous
 62
     7
370
    25
100
AcDbPolyline
 90
       20
 70
   128
 43
0.0
 10
228.1992974569
 20
32.5405322275
 10
228.2571584945
 20
34.0404121884
 10
228.4302608697
 20
35.5946679308
 10
228.7171715897
 20
37.190421055
 10
229.1155119917
 20
38.814448
 10
229.6219814506
 20
40.4532919241
 10
230.2323837209
 20
42.0933728747
 10
230.9416598636
 20
43.7210999537
 10
231.7439343446
 20
45.3229861423
 10
232.6325571815
 20
46.8857574244
 10
233.6001665052
 20
48.3964634276
 10
234.6387438779
 20
49.8425884454
 10
235.7396834398
 20
51.2121461088
 10
236.8938623739
 20
52.4937907873
 10
238.0917169677
 20
53.6769002821
 10
239.3233206503
 20
54.7516710666
 10
240.5784689455
 20
55.7091977471
 10
241.8467608012
 20
56.5415473902
 10
243.117686835
 20
57.2418211121
 10
243.1806485467
 20
57.2730304473
  0
LWPOLYLINE
  5
1E7
330
1F
100
AcDbEntity
  8
0
  6
Continuous
 62
     7
370
    25
100
AcDbPolyline
 90
       18
 70
   128
 43
0.0
 10
235.6281556347
 20
42.9345171179
 10
235.9896563983
 20
42.8232931006
 10
236.3867429316
 20
42.8732921343
 10
236.765788638
 20
43.0777623828
 10
237.0756002433
 20
43.4090878586
 10
237.2743377805
 20
43.8225207963
 10
237.3351576586
 20
44.2622274856
 10
237.2498465103
 20
44.668820976
 10
237.0299268889
 20
44.9873898229
 10
236.7051011274
 20
45.1749077436
 10
236.3192361926
 20
45.2060508771
 10
235.9244486382
 20
45.0766124684
 10
235.5740535692
 20
44.8040739786
 10
235.3153753108
 20
44.4252440827
 10
235.1833496493
 20
43.9912849661
 10
235.1958073357
 20
43.5608046197
 10
235.3510657889
 20
43.1919436124
 10
235.6281556347
 20
42.9345171179
  0
LINE
  5
1E8
330
1F
100
AcDbEntity
  8
0
  6
Continuous
 62
     7
370
    25
100
AcDbLine
 10
240.2529734442
 20
56.6979306966
 30
0.0
 11
240.5874745416
 21
56.5237510258
 31
0.0
  0
ARC
  5
1E9
330
1F
100
AcDbEntity
  8
0
  6
Continuous
 62
     7
370
    25
100
AcDbCircle
 10
247.4615763706
 20
37.4888428565
 30
0.0
 40
24.8240393606985
100
AcDbArc
 50
127.4649367316
 51
165.9309805307
  0
SPLINE
  5
1EA
330
1F
100
AcDbEntity
  8
0
  6
Continuous
 62
     7
370
    25
100
AcDbSpline
210
0.0
220
0.0
230
1.0
 70
     8
 71
     3
 72
    10
 73
     6
 74
     0
 42
0.000000001
 43
0.00000001
 40
0.0
 40
0.0
 40
0.0
 40
0.0
 40
0.5
 40
0.5
 40
1.0
 40
1.0
 40
1.0
 40
1.0
 10
223.283313465048
 20
43.11033885409192
 30
0.0
 10
223.2263636679288
 20
43.07746243600926
 30
0.0
 10
223.1478150688972
 20
43.05729704348627
 30
0.0
 10
222.9878484049029
 20
43.05429931146179
 30
0.0
 10
222.9062912425097
 20
43.07219204006272
 30
0.0
 10
222.8496306294807
 20
43.10490151572377
 30
0.0
  0
SPLINE
  5
1EB
330
1F
100
AcDbEntity
  8
0
  6
Continuous
 62
     7
370
    25
100
AcDbSpline
210
0.0
220
0.0
230
1.0
 70
     8
 71
     3
 72
    12
 73
     8
 74
     0
 42
0.000000001
 43
0.00000001
 40
0.0
 40
0.0
 40
0.0
 40
0.0
 40
0.250000000000002
 40
0.250000000000002
 40
0.500000000000004
 40
0.500000000000004
 40
1.0
 40
1.0
 40
1.0
 40
1.0
 10
240.5403525358259
 20
59.62886339397856
 30
0.0
 10
240.572523184324
 20
59.61029167391077
 30
0.0
 10
240.6043403695885
 20
59.5805687421904
 30
0.0
 10
240.6588655421796
 20
59.51040558662607
 30
0.0
 10
240.6819444598181
 20
59.4699522901794
 30
0.0
 10
240.7359632416477
 20
59.34661795063046
 30
0.0
 10
240.7524845701818
 20
59.26305671563903
 30
0.0
 10
240.7524845701818
 20
59.18887501273742
 30
0.0
  0
LINE
  5
1EC
330
1F
100
AcDbEntity
  8
0
  6
Continuous
 62
     7
370
    25
100
AcDbLine
 10
222.8496309027
 20
43.1049012257
 30
0.0
 11
221.4502422625
 21
43.9127510922
 31
0.0
  0
LWPOLYLINE
  5
1ED
330
1F
100
AcDbEntity
  8
0
  6
Continuous
 62
     7
370
    25
100
AcDbPolyline
 90
       20
 70
   128
 43
0.0
 10
221.4502422625
 20
43.9127510922
 10
221.8352721629
 20
45.3863509809
 10
222.3299951634
 20
46.8707543591
 10
222.9291350055
 20
48.3501326868
 10
223.6263031489
 20
49.8087126618
 10
224.4140672602
 20
51.2309423749
 10
225.2840276043
 20
52.601657083
 10
226.2269072647
 20
53.9062411794
 10
227.2326535594
 20
55.1307856006
 10
228.2905427498
 20
56.2622326841
 10
229.3892944622
 20
57.2885175086
 10
230.5171936838
 20
58.1986991583
 10
231.6622140749
 20
58.9830714526
 10
232.8121468375
 20
59.6332723229
 10
233.9547308196
 20
60.1423680445
 10
235.0777833183
 20
60.50493103
 10
236.1693294014
 20
60.717093952
 10
237.217730941
 20
60.7765960959
 10
238.2118088149
 20
60.6828021932
 10
239.1409644077
 20
60.4367132472
  0
LINE
  5
1EE
330
1F
100
AcDbEntity
  8
0
  6
Continuous
 62
     7
370
    25
100
AcDbLine
 10
239.1409644077
 20
60.4367132472
 30
0.0
 11
240.5403530479
 21
59.6288633808
 31
0.0
  0
LINE
  5
1EF
330
1F
100
AcDbEntity
  8
0
  6
Continuous
 62
     7
370
    25
100
AcDbLine
 10
224.4006401962
 20
42.3918934786
 30
0.0
 11
224.4006401962
 21
43.7553578147
 31
0.0
  0
LINE
  5
1F0
330
1F
100
AcDbEntity
  8
0
  6
Continuous
 62
     7
370
    25
100
AcDbLine
 10
224.4006401962
 20
43.7553578147
 30
0.0
 11
223.2833134128
 21
43.1103387923
 31
0.0
  0
LINE
  5
1F1
330
1F
100
AcDbEntity
  8
0
  6
Continuous
 62
     7
370
    25
100
AcDbLine
 10
240.7524847219
 20
59.1888748941
 30
0.0
 11
240.7524847219
 21
57.6248110937
 31
0.0
  0
LINE
  5
1F2
330
1F
100
AcDbEntity
  8
0
  6
Continuous
 62
     7
370
    25
100
AcDbLine
 10
242.1069303336
 20
58.4067159021
 30
0.0
 11
240.7524847219
 21
57.6248110937
 31
0.0
  0
SPLINE
  5
1F3
330
1F
100
AcDbEntity
  8
0
  6
Continuous
 62
     7
370
    25
100
AcDbSpline
210
0.0
220
0.0
230
1.0
 70
     8
 71
     3
 72
    20
 73
    16
 74
     0
 42
0.000000001
 43
0.00000001
 40
0.0
 40
0.0
 40
0.0
 40
0.0
 40
0.2499999999999999
 40
0.2499999999999999
 40
0.3749999999999998
 40
0.3749999999999998
 40
0.4374999999999998
 40
0.4374999999999998
 40
0.4687499999999998
 40
0.4687499999999998
 40
0.4999999999999999
 40
0.4999999999999999
 40
0.7499999999999999
 40
0.7499999999999999
 40
1.0
 40
1.0
 40
1.0
 40
1.0
 10
224.4006402552429
 20
37.76995504310425
 30
0.0
 10
224.4006402552429
 20
38.16233721962481
 30
0.0
 10
224.4210860345529
 20
38.54251385409085
 30
0.0
 10
224.4482596102724
 20
39.11486527590908
 30
0.0
 10
224.4568399900663
 20
39.30593412427667
 30
0.0
 10
224.4656963678101
 20
39.59493375393839
 30
0.0
 10
224.4679881747326
 20
39.69166115526755
 30
0.0
 10
224.4701824084202
 20
39.83749457707603
 30
0.0
 10
224.4707081502487
 20
39.88622849639424
 30
0.0
 10
224.4713278827472
 20
39.98395407805152
 30
0.0
 10
224.4714169907953
 20
40.03319913106192
 30
0.0
 10
224.4703783848784
 20
40.45986182294462
 30
0.0
 10
224.4548651446064
 20
40.84711816932727
 30
0.0
 10
224.4197276656841
 20
41.62380043202883
 30
0.0
 10
224.4006402552429
 20
42.01295428864658
 30
0.0
 10
224.4006402552429
 20
42.39189341083485
 30
0.0
  0
LWPOLYLINE
  5
1F4
330
1F
100
AcDbEntity
  8
0
  6
Continuous
 62
     7
370
    25
100
AcDbPolyline
 90
       19
 70
   128
 43
0.0
 10
220.5264597343
 20
45.5437328847
 10
220.9169239439
 20
46.9343505528
 10
221.411780629
 20
48.3310911785
 10
222.0054934058
 20
49.7183289094
 10
222.691420853
 20
51.0805452224
 10
223.4618889514
 20
52.4025004006
 10
224.3082786704
 20
53.6694050101
 10
225.2211207987
 20
54.8670875728
 10
226.1902042744
 20
55.9821483598
 10
227.2046868206
 20
57.0021129947
 10
228.2532202337
 20
57.9155724622
 10
229.3240738605
 20
58.7123061009
 10
230.4052681796
 20
59.3834013048
 10
231.4847077656
 20
59.9213515747
 10
232.5503168263
 20
60.320137043
 10
233.5901744094
 20
60.5752972045
 10
234.5926470794
 20
60.6839778501
 10
235.5465204818
 20
60.6449629114
 10
235.6415257345
 20
60.6325643452
  0
SPLINE
  5
1F5
330
1F
100
AcDbEntity
  8
0
  6
Continuous
 62
     7
370
    25
100
AcDbSpline
210
0.0
220
0.0
230
1.0
 70
     8
 71
     3
 72
     8
 73
     4
 74
     0
 42
0.000000001
 43
0.00000001
 40
0.0
 40
0.0
 40
0.0
 40
0.0
 40
1.0
 40
1.0
 40
1.0
 40
1.0
 10
220.5264597740901
 20
45.5437330855702
 30
0.0
 10
220.0351587450376
 20
45.46108586536631
 30
0.0
 10
219.5435786541349
 20
45.37900207787587
 30
0.0
 10
219.0517838553829
 20
45.29735179079412
 30
0.0
  0
LWPOLYLINE
  5
1F6
330
1F
100
AcDbEntity
  8
0
  6
Continuous
 62
     7
370
    25
100
AcDbPolyline
 90
       20
 70
   128
 43
0.0
 10
219.051783981
 20
45.297351586
 10
219.4368138814
 20
46.7709514747
 10
219.9315368819
 20
48.2553548529
 10
220.530676724
 20
49.7347331806
 10
221.2278448674
 20
51.1933131557
 10
222.0156089787
 20
52.6155428688
 10
222.8855693228
 20
53.9862575768
 10
223.8284489832
 20
55.2908416733
 10
224.834195278
 20
56.5153860945
 10
225.8920844683
 20
57.6468331779
 10
226.9908361807
 20
58.6731180025
 10
228.1187354024
 20
59.5832996521
 10
229.2637557934
 20
60.3676719465
 10
230.413688556
 20
61.0178728167
 10
231.5562725381
 20
61.5269685383
 10
232.6793250368
 20
61.8895315238
 10
233.7708711199
 20
62.1016944459
 10
234.8192726595
 20
62.1611965897
 10
235.8133505334
 20
62.0674026871
 10
236.7425061262
 20
61.821313741
  0
LINE
  5
1F7
330
1F
100
AcDbEntity
  8
0
  6
Continuous
 62
     7
370
    25
100
AcDbLine
 10
236.7425061262
 20
61.821313741
 30
0.0
 11
237.0871557237
 21
60.7077962766
 31
0.0
  0
LINE
  5
1F8
330
1F
100
AcDbEntity
  8
0
  6
Continuous
 62
     7
370
    25
100
AcDbLine
 10
233.3278636196
 20
63.7925449013
 30
0.0
 11
236.7425061262
 21
61.821313741
 31
0.0
  0
LINE
  5
1F9
330
1F
100
AcDbEntity
  8
0
  6
Continuous
 62
     7
370
    25
100
AcDbLine
 10
219.051783981
 20
45.297351586
 30
0.0
 11
218.4655687334
 21
45.6357664451
 31
0.0
  0
SPLINE
  5
1FA
330
1F
100
AcDbEntity
  8
0
  6
Continuous
 62
     7
370
    25
100
AcDbSpline
210
0.0
220
0.0
230
1.0
 70
     8
 71
     3
 72
    28
 73
    24
 74
     0
 42
0.000000001
 43
0.00000001
 40
0.0
 40
0.0
 40
0.0
 40
0.0
 40
0.1249999999999999
 40
0.1249999999999999
 40
0.1874999999999998
 40
0.1874999999999998
 40
0.2499999999999997
 40
0.2499999999999997
 40
0.3749999999999993
 40
0.3749999999999993
 40
0.4374999999999993
 40
0.4374999999999993
 40
0.4999999999999992
 40
0.4999999999999992
 40
0.6249999999999992
 40
0.6249999999999992
 40
0.7499999999999992
 40
0.7499999999999992
 40
0.8124999999999993
 40
0.8124999999999993
 40
0.8749999999999996
 40
0.8749999999999996
 40
1.0
 40
1.0
 40
1.0
 40
1.0
 10
218.4655685861245
 20
45.63576666237394
 30
0.0
 10
218.2775815056581
 20
45.74428929395802
 30
0.0
 10
218.0873615510574
 20
45.82623301450592
 30
0.0
 10
217.7992629491094
 20
45.91139074454438
 30
0.0
 10
217.7027730785099
 20
45.93344067494819
 30
0.0
 10
217.509034905675
 20
45.96471449840715
 30
0.0
 10
217.4117838851436
 20
45.97384174973057
 30
0.0
 10
217.1257620102582
 20
45.98162459183898
 30
0.0
 10
216.9404201939017
 20
45.96131804820192
 30
0.0
 10
216.6719076070858
 20
45.89409739506878
 30
0.0
 10
216.5835469474201
 20
45.86531103746319
 30
0.0
 10
216.4131942371304
 20
45.79629914736803
 30
0.0
 10
216.331167207349
 20
45.75615925745791
 30
0.0
 10
216.0947309535964
 20
45.61953948969469
 30
0.0
 10
215.949863703474
 20
45.50702500000562
 30
0.0
 10
215.6890069099899
 20
45.23876803500615
 30
0.0
 10
215.5767145024876
 20
45.08661464862887
 30
0.0
 10
215.4374900210337
 20
44.83469826093056
 30
0.0
 10
215.395894234668
 20
44.74665597525419
 30
0.0
 10
215.3227695196067
 20
44.56231492020236
 30
0.0
 10
215.2911450355538
 20
44.46552615752059
 30
0.0
 10
215.2136517321316
 20
44.16751107862378
 30
0.0
 10
215.1844770167417
 20
43.95803820148725
 30
0.0
 10
215.178510134
 20
43.73765740880338
 30
0.0
  0
ARC
  5
1FB
330
1F
100
AcDbEntity
  8
0
  6
Continuous
 62
     7
370
    25
100
AcDbCircle
 10
230.0230599718
 20
43.3293869396
 30
0.0
 40
14.85016324625915
100
AcDbArc
 50
178.4245883564
 51
181.5754116436
  0
SPLINE
  5
1FC
330
1F
100
AcDbEntity
  8
0
  6
Continuous
 62
     7
370
    25
100
AcDbSpline
210
0.0
220
0.0
230
1.0
 70
     8
 71
     3
 72
    30
 73
    26
 74
     0
 42
0.000000001
 43
0.00000001
 40
0.0
 40
0.0
 40
0.0
 40
0.0
 40
0.125
 40
0.125
 40
0.1875000000000001
 40
0.1875000000000001
 40
0.2500000000000001
 40
0.2500000000000001
 40
0.3750000000000001
 40
0.3750000000000001
 40
0.4375000000000001
 40
0.4375000000000001
 40
0.5000000000000001
 40
0.5000000000000001
 40
0.6250000000000002
 40
0.6250000000000002
 40
0.6875000000000001
 40
0.6875000000000001
 40
0.75
 40
0.75
 40
0.8124999999999999
 40
0.8124999999999999
 40
0.8749999999999998
 40
0.8749999999999998
 40
1.0
 40
1.0
 40
1.0
 40
1.0
 10
215.178510134
 20
42.92111659691763
 30
0.0
 10
215.1844777326915
 20
42.70759940414292
 30
0.0
 10
215.2136229526909
 20
42.49004950612379
 30
0.0
 10
215.2900576139498
 20
42.1577504765882
 30
0.0
 10
215.3210235975272
 20
42.04597617528863
 30
0.0
 10
215.3939935383428
 20
41.82027430175363
 30
0.0
 10
215.4361297369014
 20
41.70618652918112
 30
0.0
 10
215.5760215262658
 20
41.36802380181992
 30
0.0
 10
215.687865450808
 20
41.14551358254716
 30
0.0
 10
215.8816520479526
 20
40.81490332659759
 30
0.0
 10
215.9509926855559
 20
40.70467668689144
 30
0.0
 10
216.0964850700026
 20
40.4879466864379
 30
0.0
 10
216.1723723607216
 20
40.38174975080717
 30
0.0
 10
216.4087603091931
 20
40.06911157755758
 30
0.0
 10
216.5779058114439
 20
39.86856902972241
 30
0.0
 10
216.847771808778
 20
39.57846419030007
 30
0.0
 10
216.9399633148289
 20
39.48412077392762
 30
0.0
 10
217.1255619098635
 20
39.30281574586722
 30
0.0
 10
217.2193907901504
 20
39.21539641237307
 30
0.0
 10
217.4088408406158
 20
39.04678886204842
 30
0.0
 10
217.5044622558214
 20
38.96560067627908
 30
0.0
 10
217.6973239452478
 20
38.80943799673094
 30
0.0
 10
217.7950588541462
 20
38.73411101703423
 30
0.0
 10
218.0863148092666
 20
38.52082078359039
 30
0.0
 10
218.2775722002397
 20
38.39542735888996
 30
0.0
 10
218.4655685861245
 20
38.28689935540219
 30
0.0
  0
LINE
  5
1FD
330
1F
100
AcDbEntity
  8
0
  6
Continuous
 62
     7
370
    25
100
AcDbLine
 10
218.4655687334
 20
38.2868994544
 30
0.0
 11
219.051783981
 21
37.9484845954
 31
0.0
  0
ARC
  5
1FE
330
1F
100
AcDbEntity
  8
0
  6
Continuous
 62
     7
370
    25
100
AcDbCircle
 10
224.9156830738
 20
39.3799889106
 30
0.0
 40
6.036101156837931
100
AcDbArc
 50
193.7188113049
 51
252.9033667284
  0
LINE
  5
1FF
330
1F
100
AcDbEntity
  8
0
  6
Continuous
 62
     7
370
    25
100
AcDbLine
 10
238.3719237045
 20
60.8803652086
 30
0.0
 11
238.7062357996
 21
60.5730364882
 31
0.0
  0
LINE
  5
200
330
1F
100
AcDbEntity
  8
0
  6
Continuous
 62
     7
370
    25
100
AcDbLine
 10
237.5189949678
 20
61.3727504876
 30
0.0
 11
238.3719237045
 21
60.8803652086
 31
0.0
  0
SPLINE
  5
201
330
1F
100
AcDbEntity
  8
0
  6
Continuous
 62
     7
370
    25
100
AcDbSpline
210
0.0
220
0.0
230
1.0
 70
     8
 71
     3
 72
    20
 73
    16
 74
     0
 42
0.000000001
 43
0.00000001
 40
0.0
 40
0.0
 40
0.0
 40
0.0
 40
0.2499999999999995
 40
0.2499999999999995
 40
0.3749999999999996
 40
0.3749999999999996
 40
0.4999999999999997
 40
0.4999999999999997
 40
0.6249999999999998
 40
0.6249999999999998
 40
0.7499999999999998
 40
0.7499999999999998
 40
0.8749999999999999
 40
0.8749999999999999
 40
1.0
 40
1.0
 40
1.0
 40
1.0
 10
233.3278633677231
 20
63.79254476427439
 30
0.0
 10
233.646852022121
 20
63.65865437501459
 30
0.0
 10
233.973307622219
 20
63.4987580279526
 30
0.0
 10
234.4856577396021
 20
63.22083910048308
 30
0.0
 10
234.66026110628
 20
63.12184008767279
 30
0.0
 10
235.0201349686289
 20
62.91089938277408
 30
0.0
 10
235.2029953849824
 20
62.80034356556405
 30
0.0
 10
235.5692904741596
 20
62.57492569655321
 30
0.0
 10
235.7537739904182
 20
62.45944509517375
 30
0.0
 10
236.1273588146537
 20
62.22461275087797
 30
0.0
 10
236.311708285893
 20
62.10828282560271
 30
0.0
 10
236.6724181923694
 20
61.88258813880334
 30
0.0
 10
236.8494721816232
 20
61.77277816470665
 30
0.0
 10
237.1972015329756
 20
61.56138340117074
 30
0.0
 10
237.3624519494339
 20
61.46312056602773
 30
0.0
 10
237.5189948642153
 20
61.37275026491035
 30
0.0
  0
SPLINE
  5
202
330
1F
100
AcDbEntity
  8
0
  6
Continuous
 62
     7
370
    25
100
AcDbSpline
210
0.0
220
0.0
230
1.0
 70
    11
 71
     3
 72
    70
 73
    66
 74
     0
 42
0.000000001
 43
0.00000001
 40
0.0
 40
0.0
 40
0.0
 40
0.0
 40
0.0312500000000001
 40
0.0312500000000001
 40
0.0625000000000002
 40
0.0625000000000002
 40
0.0937500000000003
 40
0.0937500000000003
 40
0.1250000000000004
 40
0.1250000000000004
 40
0.1562500000000005
 40
0.1562500000000005
 40
0.1875000000000006
 40
0.1875000000000006
 40
0.2187500000000007
 40
0.2187500000000007
 40
0.2500000000000008
 40
0.2500000000000008
 40
0.2812500000000009
 40
0.2812500000000009
 40
0.3125000000000011
 40
0.3125000000000011
 40
0.3437500000000012
 40
0.3437500000000012
 40
0.3750000000000012
 40
0.3750000000000012
 40
0.4062500000000013
 40
0.4062500000000013
 40
0.4375000000000014
 40
0.4375000000000014
 40
0.4687500000000016
 40
0.4687500000000016
 40
0.5000000000000017
 40
0.5000000000000017
 40
0.5312500000000018
 40
0.5312500000000018
 40
0.5625000000000019
 40
0.5625000000000019
 40
0.593750000000002
 40
0.593750000000002
 40
0.6250000000000021
 40
0.6250000000000021
 40
0.6562500000000022
 40
0.6562500000000022
 40
0.6875000000000023
 40
0.6875000000000023
 40
0.7187500000000021
 40
0.7187500000000021
 40
0.7500000000000018
 40
0.7500000000000018
 40
0.7812500000000016
 40
0.7812500000000016
 40
0.8125000000000013
 40
0.8125000000000013
 40
0.8437500000000011
 40
0.8437500000000011
 40
0.8750000000000009
 40
0.8750000000000009
 40
0.9062500000000007
 40
0.9062500000000007
 40
0.9375000000000004
 40
0.9375000000000004
 40
0.9687500000000002
 40
0.9687500000000002
 40
1.0
 40
1.0
 40
1.0
 40
1.0
 10
231.143224046471
 20
63.4080446939486
 30
0.0
 10
231.049693145022
 20
63.46203893405536
 30
0.0
 10
230.966469020019
 20
63.51656164942982
 30
0.0
 10
230.8197079445216
 20
63.62644971374337
 30
0.0
 10
230.7556460614437
 20
63.68242494768253
 30
0.0
 10
230.6515139717227
 20
63.7913919820878
 30
0.0
 10
230.6112865136801
 20
63.84424368054678
 30
0.0
 10
230.5540156365702
 20
63.9460017326985
 30
0.0
 10
230.5372124125532
 20
63.99507260630153
 30
0.0
 10
230.5283685256431
 20
64.08417528210944
 30
0.0
 10
230.5358926584659
 20
64.12478554764883
 30
0.0
 10
230.5751790392213
 20
64.19706499354642
 30
0.0
 10
230.6067853051281
 20
64.22802852488402
 30
0.0
 10
230.6915688638327
 20
64.27777905712418
 30
0.0
 10
230.7453819530779
 20
64.29692761349831
 30
0.0
 10
230.8737632223221
 20
64.32196467526471
 30
0.0
 10
230.947093567093
 20
64.32774675450746
 30
0.0
 10
231.1115337679533
 20
64.32599757407574
 30
0.0
 10
231.2037759858586
 20
64.31823653032282
 30
0.0
 10
231.3995177912226
 20
64.28978602348224
 30
0.0
 10
231.5033291712032
 20
64.2692341178133
 30
0.0
 10
231.7230951502325
 20
64.21586795225065
 30
0.0
 10
231.8387248665385
 20
64.18301559051767
 30
0.0
 10
232.0725609366829
 20
64.10846279330612
 30
0.0
 10
232.192075874041
 20
64.06644415804547
 30
0.0
 10
232.436136806937
 20
63.97365726181095
 30
0.0
 10
232.5568823490804
 20
63.92435025273551
 30
0.0
 10
232.7962505472059
 20
63.82095757867889
 30
0.0
 10
232.9161574880507
 20
63.76623796205111
 30
0.0
 10
233.1467948185339
 20
63.65588756608926
 30
0.0
 10
233.2573037702459
 20
63.6004411645927
 30
0.0
 10
233.4689449782844
 20
63.48949418563389
 30
0.0
 10
233.5704734869437
 20
63.43370550164585
 30
0.0
 10
233.7552045217094
 20
63.32708377867985
 30
0.0
 10
233.8396160903501
 20
63.27564490858018
 30
0.0
 10
233.9920716571897
 20
63.17642869523811
 30
0.0
 10
234.0586669233591
 20
63.12953464008893
 30
0.0
 10
234.1699339235721
 20
63.04269409726245
 30
0.0
 10
234.21544245642
 20
63.00208254521077
 30
0.0
 10
234.2830076392992
 20
62.92803916828267
 30
0.0
 10
234.3047763308697
 20
62.89507377976308
 30
0.0
 10
234.3245569202601
 20
62.83620337671083
 30
0.0
 10
234.3222689319426
 20
62.81012784370639
 30
0.0
 10
234.2931417160705
 20
62.76638891125162
 30
0.0
 10
234.2666075345488
 20
62.74845904115418
 30
0.0
 10
234.1890467236684
 20
62.71984595866517
 30
0.0
 10
234.1378601565977
 20
62.70931906727048
 30
0.0
 10
234.0149432909777
 20
62.69605681852415
 30
0.0
 10
233.9428088315535
 20
62.69314645388686
 30
0.0
 10
233.7763419146184
 20
62.69492550380157
 30
0.0
 10
233.6847787182588
 20
62.69958281066808
 30
0.0
 10
233.4857326438748
 20
62.7162869421463
 30
0.0
 10
233.3769336496173
 20
62.72853186904675
 30
0.0
 10
233.1497120085207
 20
62.76038177778601
 30
0.0
 10
233.0317192461624
 20
62.77984933694755
 30
0.0
 10
232.7872562391974
 20
62.82653017506255
 30
0.0
 10
232.6601617497209
 20
62.85396699404658
 30
0.0
 10
232.4084335295094
 20
62.91525462979643
 30
0.0
 10
232.2824981499594
 20
62.94931647292769
 30
0.0
 10
232.0307298535679
 20
63.02535782988958
 30
0.0
 10
231.9072462256902
 20
63.06669374234677
 30
0.0
 10
231.6703878103886
 20
63.15478971893633
 30
0.0
 10
231.5554210677846
 20
63.20214416322165
 30
0.0
 10
231.3379427597838
 20
63.30211598685681
 30
0.0
 10
231.2367549479199
 20
63.35405045384184
 30
0.0
 10
231.1432240464709
 20
63.4080446939486
 30
0.0
  0
LINE
  5
203
330
1F
100
AcDbEntity
  8
0
  6
Continuous
 62
     7
370
    25
100
AcDbLine
 10
221.6610746281
 20
44.7694742185
 30
0.0
 11
221.1974467822
 21
45.0371208769
 31
0.0
  0
LINE
  5
204
330
1F
100
AcDbEntity
  8
0
  6
Continuous
 62
     7
370
    25
100
AcDbLine
 10
220.7716286106
 20
45.6852658644
 30
0.0
 11
220.5264597343
 21
45.5437328847
 31
0.0
  0
SPLINE
  5
205
330
1F
100
AcDbEntity
  8
0
  6
Continuous
 62
     7
370
    25
100
AcDbSpline
210
0.0
220
0.0
230
1.0
 70
     8
 71
     3
 72
    14
 73
    10
 74
     0
 42
0.000000001
 43
0.00000001
 40
0.0
 40
0.0
 40
0.0
 40
0.0
 40
0.1249999999999993
 40
0.1249999999999993
 40
0.2499999999999987
 40
0.2499999999999987
 40
0.4999999999999973
 40
0.4999999999999973
 40
1.0
 40
1.0
 40
1.0
 40
1.0
 10
221.1974465364678
 20
45.03712094474822
 30
0.0
 10
221.1732501033027
 20
45.05108924829076
 30
0.0
 10
221.1500746648438
 20
45.07845442428832
 30
0.0
 10
221.1131542724129
 20
45.13625619341384
 30
0.0
 10
221.0981124813802
 20
45.16722667253021
 30
0.0
 10
221.0582990247933
 20
45.2602531454594
 30
0.0
 10
221.0386630064093
 20
45.3228641997442
 30
0.0
 10
220.9882421579398
 20
45.50719495065918
 30
0.0
 10
220.9658249796993
 20
45.62873918555984
 30
0.0
 10
220.9491370815333
 20
45.74786825086221
 30
0.0
  0
SPLINE
  5
206
330
1F
100
AcDbEntity
  8
0
  6
Continuous
 62
     7
370
    25
100
AcDbSpline
210
0.0
220
0.0
230
1.0
 70
     8
 71
     3
 72
    10
 73
     6
 74
     0
 42
0.000000001
 43
0.00000001
 40
0.0
 40
0.0
 40
0.0
 40
0.0
 40
0.5
 40
0.5
 40
1.0
 40
1.0
 40
1.0
 40
1.0
 10
220.9491370815333
 20
45.74786825086221
 30
0.0
 10
220.9157470633455
 20
45.74171848166198
 30
0.0
 10
220.8835077119174
 20
45.7331718738139
 30
0.0
 10
220.8235198176551
 20
45.71193590004498
 30
0.0
 10
220.7962579444061
 20
45.69948425403679
 30
0.0
 10
220.7716283784562
 20
45.68526590825993
 30
0.0
  0
LWPOLYLINE
  5
207
330
1F
100
AcDbEntity
  8
0
  6
Continuous
 62
     7
370
    25
100
AcDbPolyline
 90
       21
 70
   128
 43
0.0
 10
213.5288737937
 20
44.397682291
 10
213.5873387166
 20
45.7411710054
 10
213.7621137949
 20
47.1379205625
 10
214.0513465428
 20
48.5731251136
 10
214.4519707771
 20
50.0315713159
 10
214.9597395444
 20
51.4977987871
 10
215.5692712188
 20
52.9562656916
 10
216.2741035031
 20
54.3915116646
 10
217.0667665271
 20
55.7883228261
 10
217.9388559456
 20
57.1318922313
 10
218.8811290865
 20
58.407978418
 10
219.8835964881
 20
59.6030540692
 10
220.9356322056
 20
60.7044510601
 10
222.0260846109
 20
61.7004951455
 10
223.1433942722
 20
62.5806264817
 10
224.2757174929
 20
63.3355165716
 10
225.4110514556
 20
63.9571633232
 10
226.5373612801
 20
64.4389765655
 10
227.6427078219
 20
64.775849544
 10
228.7153740924
 20
64.9642106084
 10
229.5914404612
 20
65.006037134
  0
ARC
  5
208
330
1F
100
AcDbEntity
  8
0
  6
Continuous
 62
     7
370
    25
100
AcDbCircle
 10
222.5725208727
 20
43.9037139123
 30
0.0
 40
9.057127428071896
100
AcDbArc
 50
176.8735834483
 51
217.1552298321
  0
LINE
  5
209
330
1F
100
AcDbEntity
  8
0
  6
Continuous
 62
     7
370
    25
100
AcDbLine
 10
219.804446353
 20
39.0598170522
 30
0.0
 11
220.9491373071
 21
38.3990010302
 31
0.0
  0
ARC
  5
20A
330
1F
100
AcDbEntity
  8
0
  6
Continuous
 62
     7
370
    25
100
AcDbCircle
 10
223.1168823832
 20
44.2382393845
 30
0.0
 40
6.14721809490224
100
AcDbArc
 50
182.6054747885
 51
237.394528727
  0
LINE
  5
20B
330
1F
100
AcDbEntity
  8
0
  6
Continuous
 62
     7
370
    25
100
AcDbLine
 10
216.9760190939
 20
44.775337274
 30
0.0
 11
216.9760190939
 21
43.9587964234
 31
0.0
  0
ARC
  5
20C
330
1F
100
AcDbEntity
  8
0
  6
Continuous
 62
     7
370
    25
100
AcDbCircle
 10
219.5329732466
 20
44.8676723711
 30
0.0
 40
2.558620782671421
100
AcDbArc
 50
154.7300572726
 51
182.0681299793
  0
LINE
  5
20D
330
1F
100
AcDbEntity
  8
0
  6
Continuous
 62
     7
370
    25
100
AcDbLine
 10
224.4006401962
 20
36.4064908241
 30
0.0
 11
224.4006401962
 21
37.7699551603
 31
0.0
  0
LINE
  5
20E
330
1F
100
AcDbEntity
  8
0
  6
Continuous
 62
     7
370
    25
100
AcDbLine
 10
222.2306445047
 20
37.6592026721
 30
0.0
 11
224.4006401962
 21
36.4064908241
 31
0.0
  0
SPLINE
  5
20F
330
1F
100
AcDbEntity
  8
0
  6
Continuous
 62
     7
370
    25
100
AcDbSpline
210
0.0
220
0.0
230
1.0
 70
     8
 71
     3
 72
    14
 73
    10
 74
     0
 42
0.000000001
 43
0.00000001
 40
0.0
 40
0.0
 40
0.0
 40
0.0
 40
0.1249999999999983
 40
0.1249999999999983
 40
0.2499999999999966
 40
0.2499999999999966
 40
0.4999999999999968
 40
0.4999999999999968
 40
1.0
 40
1.0
 40
1.0
 40
1.0
 10
221.9823350635849
 20
38.36994975368632
 30
0.0
 10
222.0067644122287
 20
38.35584699090001
 30
0.0
 10
222.0297429662948
 20
38.32856486104033
 30
0.0
 10
222.0666260797865
 20
38.27081145753383
 30
0.0
 10
222.0817512261034
 20
38.23966387586323
 30
0.0
 10
222.1214685865627
 20
38.14682677430724
 30
0.0
 10
222.1409307044517
 20
38.08487630449049
 30
0.0
 10
222.1917988256457
 20
37.89896159899298
 30
0.0
 10
222.2140830530609
 20
37.7774289540197
 30
0.0
 10
222.2306445185194
 20
37.65920244757215
 30
0.0
  0
LINE
  5
210
330
1F
100
AcDbEntity
  8
0
  6
Continuous
 62
     7
370
    25
100
AcDbLine
 10
221.1974467822
 20
38.8230561566
 30
0.0
 11
221.9823350297
 21
38.369949816
 31
0.0
  0
SPLINE
  5
211
330
1F
100
AcDbEntity
  8
0
  6
Continuous
 62
     7
370
    25
100
AcDbSpline
210
0.0
220
0.0
230
1.0
 70
     8
 71
     3
 72
    14
 73
    10
 74
     0
 42
0.000000001
 43
0.00000001
 40
0.0
 40
0.0
 40
0.0
 40
0.0
 40
0.4999999999999998
 40
0.4999999999999998
 40
0.7499999999999981
 40
0.7499999999999981
 40
0.8749999999999991
 40
0.8749999999999991
 40
1.0
 40
1.0
 40
1.0
 40
1.0
 10
220.9491370815333
 20
38.39900094389022
 30
0.0
 10
220.9657611629871
 20
38.49848068812032
 30
0.0
 10
220.9881785645914
 20
38.59431582151632
 30
0.0
 10
221.0386096224401
 20
38.72053177108995
 30
0.0
 10
221.0581443163713
 20
38.76036531978421
 30
0.0
 10
221.0980874737067
 20
38.80762565125606
 30
0.0
 10
221.1131044408723
 20
38.82122826486132
 30
0.0
 10
221.150165808394
 20
38.83644866643704
 30
0.0
 10
221.1731494707424
 20
38.83708265323092
 30
0.0
 10
221.1974465364678
 20
38.82305625574789
 30
0.0
  0
LINE
  5
212
330
1F
100
AcDbEntity
  8
0
  6
Continuous
 62
     7
370
    25
100
AcDbLine
 10
223.2833134128
 20
35.7614718016
 30
0.0
 11
224.4006401962
 21
36.4064908241
 31
0.0
  0
ARC
  5
213
330
1F
100
AcDbEntity
  8
0
  6
Continuous
 62
     7
370
    25
100
AcDbCircle
 10
228.5219136252
 20
36.9969085994
 30
0.0
 40
5.783445218704364
100
AcDbArc
 50
195.6275103446
 51
267.1078207466
  0
SPLINE
  5
214
330
1F
100
AcDbEntity
  8
0
  6
Continuous
 62
     7
370
    25
100
AcDbSpline
210
0.0
220
0.0
230
1.0
 70
     8
 71
     3
 72
    10
 73
     6
 74
     0
 42
0.000000001
 43
0.00000001
 40
0.0
 40
0.0
 40
0.0
 40
0.0
 40
0.5
 40
0.5
 40
1.0
 40
1.0
 40
1.0
 40
1.0
 10
222.8496306294811
 20
35.75603420875179
 30
0.0
 10
222.9067080815076
 20
35.72308409705972
 30
0.0
 10
222.9880375849729
 20
35.70540733886803
 30
0.0
 10
223.1480011368939
 20
35.70846150043963
 30
0.0
 10
223.2267080757346
 20
35.7287939514317
 30
0.0
 10
223.283313465048
 20
35.76147154712017
 30
0.0
  0
ARC
  5
215
330
1F
100
AcDbEntity
  8
0
  6
Continuous
 62
     7
370
    25
100
AcDbCircle
 10
227.6368667244
 20
38.1827809038
 30
0.0
 40
6.394931515601384
100
AcDbArc
 50
194.6641757708
 51
238.0052799592
  0
LINE
  5
216
330
1F
100
AcDbEntity
  8
0
  6
Continuous
 62
     7
370
    25
100
AcDbLine
 10
221.4502422625
 20
36.5638841015
 30
0.0
 11
222.8496309027
 21
35.7560342351
 31
0.0
  0
SPLINE
  5
217
330
1F
100
AcDbEntity
  8
0
  6
Continuous
 62
     7
370
    25
100
AcDbSpline
210
0.0
220
0.0
230
1.0
 70
     8
 71
     3
 72
     8
 73
     4
 74
     0
 42
0.000000001
 43
0.00000001
 40
0.0
 40
0.0
 40
0.0
 40
0.0
 40
1.0
 40
1.0
 40
1.0
 40
1.0
 10
221.8770337261564
 20
37.41519603180777
 30
0.0
 10
221.7338690294659
 20
37.13157398480076
 30
0.0
 10
221.5916803326133
 20
36.84779083881674
 30
0.0
 10
221.4502425618581
 20
36.56388374462966
 30
0.0
  0
LINE
  5
218
330
1F
100
AcDbEntity
  8
0
  6
Continuous
 62
     7
370
    25
100
AcDbLine
 10
222.1222026392
 20
37.5567290828
 30
0.0
 11
221.8770337628
 21
37.4151961031
 31
0.0
  0
SPLINE
  5
219
330
1F
100
AcDbEntity
  8
0
  6
Continuous
 62
     7
370
    25
100
AcDbSpline
210
0.0
220
0.0
230
1.0
 70
     8
 71
     3
 72
    10
 73
     6
 74
     0
 42
0.000000001
 43
0.00000001
 40
0.0
 40
0.0
 40
0.0
 40
0.0
 40
0.5
 40
0.5
 40
1.0
 40
1.0
 40
1.0
 40
1.0
 10
222.2306445185194
 20
37.65920244757215
 30
0.0
 10
222.2199916515495
 20
37.63992680036603
 30
0.0
 10
222.2051868883973
 20
37.62131541894099
 30
0.0
 10
222.1684011170665
 20
37.58668514470948
 30
0.0
 10
222.1468318964724
 20
37.57094720027439
 30
0.0
 10
222.1222023305226
 20
37.55672885449754
 30
0.0
  0
SPLINE
  5
21A
330
1F
100
AcDbEntity
  8
0
  6
Continuous
 62
     7
370
    25
100
AcDbSpline
210
0.0
220
0.0
230
1.0
 70
     8
 71
     3
 72
    14
 73
    10
 74
     0
 42
0.000000001
 43
0.00000001
 40
0.0
 40
0.0
 40
0.0
 40
0.0
 40
0.5000000000000002
 40
0.5000000000000002
 40
0.7500000000000002
 40
0.7500000000000002
 40
0.8750000000000001
 40
0.8750000000000001
 40
1.0
 40
1.0
 40
1.0
 40
1.0
 10
206.3093352618407
 20
49.05426179470896
 30
0.0
 10
206.6245012056806
 20
48.8271738038131
 30
0.0
 10
206.9407768609465
 20
48.59732742876497
 30
0.0
 10
207.4196013495176
 20
48.24201882677585
 30
0.0
 10
207.5799213599416
 20
48.12188051258031
 30
0.0
 10
207.8229738958953
 20
47.9356116783365
 30
0.0
 10
207.9044173339119
 20
47.87251843710949
 30
0.0
 10
208.0690787829453
 20
47.74217319469735
 30
0.0
 10
208.1519848010115
 20
47.6756487527201
 30
0.0
 10
208.2380036290962
 20
47.60185528139655
 30
0.0
  0
SPLINE
  5
21B
330
1F
100
AcDbEntity
  8
0
  6
Continuous
 62
     7
370
    25
100
AcDbSpline
210
0.0
220
0.0
230
1.0
 70
     8
 71
     3
 72
     8
 73
     4
 74
     0
 42
0.000000001
 43
0.00000001
 40
0.0
 40
0.0
 40
0.0
 40
0.0
 40
1.0
 40
1.0
 40
1.0
 40
1.0
 10
208.2380036290962
 20
47.60185528139655
 30
0.0
 10
208.5396561023337
 20
47.34307492331472
 30
0.0
 10
208.8449356458572
 20
47.09549990791005
 30
0.0
 10
209.1495952189838
 20
46.85452705134352
 30
0.0
  0
SPLINE
  5
21C
330
1F
100
AcDbEntity
  8
0
  6
Continuous
 62
     7
370
    25
100
AcDbSpline
210
0.0
220
0.0
230
1.0
 70
     8
 71
     3
 72
    14
 73
    10
 74
     0
 42
0.000000001
 43
0.00000001
 40
0.0
 40
0.0
 40
0.0
 40
0.0
 40
0.1250000000000022
 40
0.1250000000000022
 40
0.2500000000000044
 40
0.2500000000000044
 40
0.500000000000003
 40
0.500000000000003
 40
1.0
 40
1.0
 40
1.0
 40
1.0
 10
209.1495952189838
 20
46.85452705134347
 30
0.0
 10
209.1687905949094
 20
46.83934431960727
 30
0.0
 10
209.1864026683098
 20
46.82797650111048
 30
0.0
 10
209.212247598229
 20
46.81670803189804
 30
0.0
 10
209.2203859624767
 20
46.81632456166099
 30
0.0
 10
209.2373360534448
 20
46.82210035435537
 30
0.0
 10
209.2395053259545
 20
46.83476577997342
 30
0.0
 10
209.2383297781399
 20
46.87920260701718
 30
0.0
 10
209.2262562575357
 20
46.91968587779062
 30
0.0
 10
209.2114780294957
 20
46.96368954767312
 30
0.0
  0
SPLINE
  5
21D
330
1F
100
AcDbEntity
  8
0
  6
Continuous
 62
     7
370
    25
100
AcDbSpline
210
0.0
220
0.0
230
1.0
 70
     8
 71
     3
 72
    14
 73
    10
 74
     0
 42
0.000000001
 43
0.00000001
 40
0.0
 40
0.0
 40
0.0
 40
0.0
 40
0.25
 40
0.25
 40
0.5
 40
0.5
 40
0.75
 40
0.75
 40
1.0
 40
1.0
 40
1.0
 40
1.0
 10
209.211478029495
 20
46.96368954767382
 30
0.0
 10
209.1934217825484
 20
47.01745385066059
 30
0.0
 10
209.1904989844473
 20
47.06200445975764
 30
0.0
 10
209.1850852559039
 20
47.15426580960236
 30
0.0
 10
209.1835179778628
 20
47.20156021252261
 30
0.0
 10
209.1733795780557
 20
47.30632126735039
 30
0.0
 10
209.1650645803115
 20
47.3635824743854
 30
0.0
 10
209.1362644056526
 20
47.49320383175982
 30
0.0
 10
209.1156110089821
 20
47.56599803137287
 30
0.0
 10
209.086921491821
 20
47.64568473033263
 30
0.0
  0
ARC
  5
21E
330
1F
100
AcDbEntity
  8
0
  6
Continuous
 62
     7
370
    25
100
AcDbCircle
 10
219.4418918202
 20
50.732246197
 30
0.0
 40
10.80519673566385
100
AcDbArc
 50
163.4019784234
 51
196.5980215766
  0
SPLINE
  5
21F
330
1F
100
AcDbEntity
  8
0
  6
Continuous
 62
     7
370
    25
100
AcDbSpline
210
0.0
220
0.0
230
1.0
 70
     8
 71
     3
 72
    14
 73
    10
 74
     0
 42
0.000000001
 43
0.00000001
 40
0.0
 40
0.0
 40
0.0
 40
0.0
 40
0.25
 40
0.25
 40
0.5
 40
0.5
 40
0.75
 40
0.75
 40
1.0
 40
1.0
 40
1.0
 40
1.0
 10
209.211478029495
 20
55.28001274259681
 30
0.0
 10
209.1934217825484
 20
55.15917066365225
 30
0.0
 10
209.1904989844473
 20
55.03407639708615
 30
0.0
 10
209.1850852559039
 20
54.78612508643478
 30
0.0
 10
209.1835179778628
 20
54.66221646212102
 30
0.0
 10
209.1733795780557
 20
54.41606072288083
 30
0.0
 10
209.1650645803115
 20
54.29377278101941
 30
0.0
 10
209.1362644056526
 20
54.05177560381063
 30
0.0
 10
209.1156110089821
 20
53.93161863663104
 30
0.0
 10
209.086921491821
 20
53.81880772622576
 30
0.0
  0
SPLINE
  5
220
330
1F
100
AcDbEntity
  8
0
  6
Continuous
 62
     7
370
    25
100
AcDbSpline
210
0.0
220
0.0
230
1.0
 70
     8
 71
     3
 72
    14
 73
    10
 74
     0
 42
0.000000001
 43
0.00000001
 40
0.0
 40
0.0
 40
0.0
 40
0.0
 40
0.125
 40
0.125
 40
0.25
 40
0.25
 40
0.5
 40
0.5
 40
1.0
 40
1.0
 40
1.0
 40
1.0
 10
209.149595218984
 20
55.82529830689083
 30
0.0
 10
209.1687905949095
 20
55.823011498917
 30
0.0
 10
209.1864026683099
 20
55.81151325964418
 30
0.0
 10
209.2122475982291
 20
55.77482175711766
 30
0.0
 10
209.2203859624767
 20
55.75174034201559
 30
0.0
 10
209.2373360534448
 20
55.6804078229385
 30
0.0
 10
209.2395053259545
 20
55.62916371733043
 30
0.0
 10
209.2383297781399
 20
55.47912823756884
 30
0.0
 10
209.2262562575357
 20
55.37891656268576
 30
0.0
 10
209.2114780294957
 20
55.28001274259713
 30
0.0
  0
SPLINE
  5
221
330
1F
100
AcDbEntity
  8
0
  6
Continuous
 62
     7
370
    25
100
AcDbSpline
210
0.0
220
0.0
230
1.0
 70
     8
 71
     3
 72
     8
 73
     4
 74
     0
 42
0.000000001
 43
0.00000001
 40
0.0
 40
0.0
 40
0.0
 40
0.0
 40
1.0
 40
1.0
 40
1.0
 40
1.0
 10
208.2380036290962
 20
55.87751111802692
 30
0.0
 10
208.5396561023338
 20
55.88485736517002
 30
0.0
 10
208.8449356458572
 20
55.86159339920007
 30
0.0
 10
209.149595218984
 20
55.82529830689083
 30
0.0
  0
SPLINE
  5
222
330
1F
100
AcDbEntity
  8
0
  6
Continuous
 62
     7
370
    25
100
AcDbSpline
210
0.0
220
0.0
230
1.0
 70
     8
 71
     3
 72
    14
 73
    10
 74
     0
 42
0.000000001
 43
0.00000001
 40
0.0
 40
0.0
 40
0.0
 40
0.0
 40
0.5000000000000002
 40
0.5000000000000002
 40
0.7500000000000002
 40
0.7500000000000002
 40
0.8750000000000001
 40
0.8750000000000001
 40
1.0
 40
1.0
 40
1.0
 40
1.0
 10
206.3093352618407
 20
56.5101504630119
 30
0.0
 10
206.6245012056806
 20
56.37276596928578
 30
0.0
 10
206.9407768609465
 20
56.24119246165463
 30
0.0
 10
207.4196013495176
 20
56.06629699513387
 30
0.0
 10
207.5799213599416
 20
56.01162584486935
 30
0.0
 10
207.8229738958953
 20
55.9425940291493
 30
0.0
 10
207.9044173339119
 20
55.9217317446405
 30
0.0
 10
208.0690787829453
 20
55.88892403121087
 30
0.0
 10
208.1519848010115
 20
55.87541627171823
 30
0.0
 10
208.2380036290962
 20
55.87751111802692
 30
0.0
  0
SPLINE
  5
223
330
1F
100
AcDbEntity
  8
0
  6
Continuous
 62
     7
370
    25
100
AcDbSpline
210
0.0
220
0.0
230
1.0
 70
     8
 71
     3
 72
     8
 73
     4
 74
     0
 42
0.000000001
 43
0.00000001
 40
0.0000005163856712
 40
0.0000005163856712
 40
0.0000005163856712
 40
0.0000005163856712
 40
0.000026289209185
 40
0.000026289209185
 40
0.000026289209185
 40
0.000026289209185
 10
206.3093136748215
 20
56.52302957421737
 30
0.0
 10
206.3093113736622
 20
56.51873673918607
 30
0.0
 10
206.3093186199865
 20
56.51444367150579
 30
0.0
 10
206.3093352618407
 20
56.5101504630119
 30
0.0
  0
LINE
  5
224
330
1F
100
AcDbEntity
  8
0
  6
Continuous
 62
     7
370
    25
100
AcDbLine
 10
219.117046071
 20
67.0457897738
 30
0.0
 11
219.1734892622
 21
67.0182462151
 31
0.0
  0
SPLINE
  5
225
330
1F
100
AcDbEntity
  8
0
  6
Continuous
 62
     7
370
    25
100
AcDbSpline
210
0.0
220
0.0
230
1.0
 70
     8
 71
     3
 72
     8
 73
     4
 74
     0
 42
0.000000001
 43
0.00000001
 40
0.0000005163856716
 40
0.0000005163856716
 40
0.0000005163856716
 40
0.0000005163856716
 40
0.0000262892091854
 40
0.0000262892091854
 40
0.0000262892091854
 40
0.0000262892091854
 10
206.3093136748215
 20
49.04955852233808
 30
0.0
 10
206.3093113736622
 20
49.05113190803755
 30
0.0
 10
206.3093186199865
 20
49.05269963797146
 30
0.0
 10
206.3093352618407
 20
49.05426179470896
 30
0.0
  0
SPLINE
  5
226
330
1F
100
AcDbEntity
  8
0
  6
Continuous
 62
     7
370
    25
100
AcDbSpline
210
0.0
220
0.0
230
1.0
 70
     8
 71
     3
 72
    18
 73
    14
 74
     0
 42
0.000000001
 43
0.00000001
 40
0.0
 40
0.0
 40
0.0
 40
0.0
 40
0.123480323942453
 40
0.2476349801844026
 40
0.3717669636922916
 40
0.4951926441015773
 40
0.6175653734792613
 40
0.6791200997633317
 40
0.7398784335649428
 40
0.8005496512563226
 40
0.8624943368730831
 40
0.9853011810191643
 40
1.0
 40
1.0
 40
1.0
 40
1.0
 10
211.9981822446179
 20
47.17658742601607
 30
0.0
 10
211.8651353708325
 20
47.42152217985351
 30
0.0
 10
211.5983150475491
 20
47.91272928861743
 30
0.0
 10
211.4736196317048
 20
48.66475033979869
 30
0.0
 10
211.6094462497521
 20
49.28943738858191
 30
0.0
 10
211.9765218735384
 20
49.70630254191989
 30
0.0
 10
212.4191625924576
 20
49.80028611042775
 30
0.0
 10
212.7953860792655
 20
49.71834187812602
 30
0.0
 10
213.0776152916605
 20
49.5760687735715
 30
0.0
 10
213.3499735942272
 20
49.35937302599319
 30
0.0
 10
213.6763391221143
 20
48.98161849082126
 30
0.0
 10
213.9310471375104
 20
48.59952782284306
 30
0.0
 10
214.022610775224
 20
48.30522937403098
 30
0.0
 10
214.0323985709072
 20
48.27377001790659
 30
0.0
  0
SPLINE
  5
227
330
1F
100
AcDbEntity
  8
0
  6
Continuous
 62
     7
370
    25
100
AcDbSpline
210
0.0
220
0.0
230
1.0
 70
     8
 71
     3
 72
    13
 73
     9
 74
     0
 42
0.000000001
 43
0.00000001
 40
0.0
 40
0.0
 40
0.0
 40
0.0
 40
0.0502431273591777
 40
0.2098527236158214
 40
0.3668312875883531
 40
0.5239270455907811
 40
0.6832905232864399
 40
1.0
 40
1.0
 40
1.0
 40
1.0
 10
213.6510217815359
 20
45.84925777813639
 30
0.0
 10
213.6299575589648
 20
45.84503437509054
 30
0.0
 10
213.5419776757501
 20
45.82739429815496
 30
0.0
 10
213.3373284756159
 20
45.91348905048359
 30
0.0
 10
213.0698464184285
 20
46.05028938863171
 30
0.0
 10
212.786845574191
 20
46.26129285429172
 30
0.0
 10
212.4071755187641
 20
46.60930871406146
 30
0.0
 10
212.161571392446
 20
46.94996466425854
 30
0.0
 10
211.9981822446179
 20
47.17658742601607
 30
0.0
  0
ARC
  5
228
330
1F
100
AcDbEntity
  8
0
  6
Continuous
 62
     7
370
    25
100
AcDbCircle
 10
226.7172346694
 20
40.198911937
 30
0.0
 40
6.507064994322932
100
AcDbArc
 50
197.9375395368
 51
217.5314892267
  0
SPLINE
  5
229
330
1F
100
AcDbEntity
  8
0
  6
Continuous
 62
     7
370
    25
100
AcDbSpline
210
0.0
220
0.0
230
1.0
 70
     8
 71
     3
 72
     8
 73
     4
 74
     0
 42
0.000000001
 43
0.00000001
 40
0.0
 40
0.0
 40
0.0
 40
0.0
 40
1.0
 40
1.0
 40
1.0
 40
1.0
 10
219.0517838553829
 20
37.94848448382238
 30
0.0
 10
219.5435786541349
 20
38.03013477090413
 30
0.0
 10
220.0351587450376
 20
38.11221855839457
 30
0.0
 10
220.5264597740901
 20
38.19486577859845
 30
0.0
  0
SPLINE
  5
22A
330
1F
100
AcDbEntity
  8
0
  6
Continuous
 62
     7
370
    25
100
AcDbSpline
210
0.0
220
0.0
230
1.0
 70
     8
 71
     3
 72
    10
 73
     6
 74
     0
 42
0.000000001
 43
0.00000001
 40
0.0
 40
0.0
 40
0.0
 40
0.0
 40
0.5
 40
0.5
 40
1.0
 40
1.0
 40
1.0
 40
1.0
 10
220.7716283784563
 20
38.33639860128822
 30
0.0
 10
220.7964606818082
 20
38.35073398487607
 30
0.0
 10
220.8241356793016
 20
38.36332942501217
 30
0.0
 10
220.8842606887561
 20
38.38452732315243
 30
0.0
 10
220.9159550889509
 20
38.39288948881909
 30
0.0
 10
220.9491370815325
 20
38.39900094389033
 30
0.0
  0
LINE
  5
22B
330
1F
100
AcDbEntity
  8
0
  6
Continuous
 62
     7
370
    25
100
AcDbLine
 10
220.5264597343
 20
38.1948658941
 30
0.0
 11
220.7716286106
 21
38.3363988738
 31
0.0
  0
SPLINE
  5
22C
330
1F
100
AcDbEntity
  8
0
  6
Continuous
 62
     7
370
    25
100
AcDbSpline
210
0.0
220
0.0
230
1.0
 70
     8
 71
     3
 72
    12
 73
     8
 74
     0
 42
0.000000001
 43
0.00000001
 40
0.0
 40
0.0
 40
0.0
 40
0.0
 40
0.0817741409628327
 40
0.3405040516491249
 40
0.5983877235900965
 40
0.8598176690737378
 40
1.0
 40
1.0
 40
1.0
 40
1.0
 10
213.0171738450554
 20
49.49606060050608
 30
0.0
 10
213.0036498696239
 20
49.44945360484319
 30
0.0
 10
212.9473366100212
 20
49.25538405337436
 30
0.0
 10
213.0254850708583
 20
48.82195303729232
 30
0.0
 10
213.248918424202
 20
48.27397597268068
 30
0.0
 10
213.5513459881991
 20
47.81712490026684
 30
0.0
 10
213.7776037015506
 20
47.60290768522674
 30
0.0
 10
213.8565787118048
 20
47.52813539789206
 30
0.0
  0
LINE
  5
22D
330
1F
100
AcDbEntity
  8
0
  6
Continuous
 62
     7
370
    25
100
AcDbLine
 10
240.770381986
 20
59.4957647147
 30
0.0
 11
242.1697706262
 21
58.6879148483
 31
0.0
  0
SPLINE
  5
22E
330
1F
100
AcDbEntity
  8
0
  6
Continuous
 62
     7
370
    25
100
AcDbSpline
210
0.0
220
0.0
230
1.0
 70
     8
 71
     3
 72
    12
 73
     8
 74
     0
 42
0.000000001
 43
0.00000001
 40
0.0
 40
0.0
 40
0.0
 40
0.0
 40
0.2500000000000007
 40
0.2500000000000007
 40
0.5000000000000013
 40
0.5000000000000013
 40
1.0
 40
1.0
 40
1.0
 40
1.0
 10
242.169770392148
 20
58.68791470096668
 30
0.0
 10
242.2019323936328
 20
58.66934797271343
 30
0.0
 10
242.2238382006405
 20
58.64552882904383
 30
0.0
 10
242.2450585491171
 20
58.59419457161044
 30
0.0
 10
242.2444701937737
 20
58.56739323120721
 30
0.0
 10
242.2188566579074
 20
58.49068497286137
 30
0.0
 10
242.1709095497578
 20
58.44364988911003
 30
0.0
 10
242.1069307313507
 20
58.4067157034099
 30
0.0
  0
SPLINE
  5
22F
330
1F
100
AcDbEntity
  8
0
  6
Continuous
 62
     7
370
    25
100
AcDbSpline
210
0.0
220
0.0
230
1.0
 70
     8
 71
     3
 72
    12
 73
     8
 74
     0
 42
0.000000001
 43
0.00000001
 40
0.0
 40
0.0
 40
0.0
 40
0.0
 40
0.1913022358271552
 40
0.3677542338176517
 40
0.6753312058559278
 40
0.9505318103186751
 40
1.0
 40
1.0
 40
1.0
 40
1.0
 10
212.2894515414149
 20
47.35951058427737
 30
0.0
 10
212.3690084670662
 20
47.24510133929377
 30
0.0
 10
212.5219465449264
 20
47.0251641072553
 30
0.0
 10
212.8467497060523
 20
46.67137579383526
 30
0.0
 10
213.2316191033397
 20
46.36690413097659
 30
0.0
 10
213.5306351207009
 20
46.19993125535594
 30
0.0
 10
213.6593270249001
 20
46.18348116961722
 30
0.0
 10
213.6789351783235
 20
46.18097475084129
 30
0.0
  0
SPLINE
  5
230
330
1F
100
AcDbEntity
  8
0
  6
Continuous
 62
     7
370
    25
100
AcDbSpline
210
0.0
220
0.0
230
1.0
 70
     8
 71
     3
 72
    17
 73
    13
 74
     0
 42
0.000000001
 43
0.00000001
 40
0.0
 40
0.0
 40
0.0
 40
0.0
 40
0.0289262372233959
 40
0.1765391490396024
 40
0.2609450399798628
 40
0.3522942291882687
 40
0.456102994178353
 40
0.5447544041828026
 40
0.6761058376662186
 40
0.8084237434163528
 40
0.8968644292644855
 40
1.0
 40
1.0
 40
1.0
 40
1.0
 10
213.3327602270819
 20
49.35786883872099
 30
0.0
 10
213.3054976839742
 20
49.38391502171221
 30
0.0
 10
213.1391121937452
 20
49.54287696845584
 30
0.0
 10
212.8513361864123
 20
49.62136274860814
 30
0.0
 10
212.5310625166223
 20
49.62500817389622
 30
0.0
 10
212.2771175032303
 20
49.53395695733465
 30
0.0
 10
212.0686378041664
 20
49.35315669452423
 30
0.0
 10
211.9055433723255
 20
49.06103106372355
 30
0.0
 10
211.828539341643
 20
48.65124344299034
 30
0.0
 10
211.9039310250985
 20
48.18664692503877
 30
0.0
 10
212.0626759262822
 20
47.74470780314086
 30
0.0
 10
212.2100905170937
 20
47.49431187601581
 30
0.0
 10
212.2894515414149
 20
47.35951058427737
 30
0.0
  0
LINE
  5
231
330
1F
100
AcDbEntity
  8
0
  6
Continuous
 62
     7
370
    25
100
AcDbLine
 10
238.3719237045
 20
60.8803652086
 30
0.0
 11
238.2198233015
 21
60.6515656158
 31
0.0
  0
LINE
  5
232
330
1F
100
AcDbEntity
  8
0
  6
Continuous
 62
     7
370
    25
100
AcDbLine
 10
208.149090682
 20
51.2292430149
 30
0.0
 11
208.6494738726
 21
50.9403779476
 31
0.0
  0
SPLINE
  5
233
330
1F
100
AcDbEntity
  8
0
  6
Continuous
 62
     7
370
    25
100
AcDbSpline
210
0.0
220
0.0
230
1.0
 70
     8
 71
     3
 72
     9
 73
     5
 74
     0
 42
0.000000001
 43
0.00000001
 40
0.0
 40
0.0
 40
0.0
 40
0.0
 40
0.7009339503679092
 40
0.9999999999999999
 40
0.9999999999999999
 40
0.9999999999999999
 40
0.9999999999999999
 10
206.3232799849259
 20
56.98662160824716
 30
0.0
 10
206.320208096407
 20
57.04062559260116
 30
0.0
 10
206.3158255315201
 20
57.11767134609285
 30
0.0
 10
206.3402358555966
 20
57.20730408650712
 30
0.0
 10
206.3475361547884
 20
57.23411019610052
 30
0.0
  0
SPLINE
  5
234
330
1F
100
AcDbEntity
  8
0
  6
Continuous
 62
     7
370
    25
100
AcDbSpline
210
0.0
220
0.0
230
1.0
 70
     8
 71
     3
 72
    10
 73
     6
 74
     0
 42
0.000000001
 43
0.00000001
 40
0.0
 40
0.0
 40
0.0
 40
0.0
 40
0.5
 40
0.5
 40
1.0
 40
1.0
 40
1.0
 40
1.0
 10
206.3637726120395
 20
57.03897175332474
 30
0.0
 10
206.3438465615434
 20
56.95501127930903
 30
0.0
 10
206.3305522974026
 20
56.86956541679763
 30
0.0
 10
206.3132837712619
 20
56.69715194586515
 30
0.0
 10
206.3093603166396
 20
56.61004033960126
 30
0.0
 10
206.3093136748215
 20
56.52302957421736
 30
0.0
  0
SPLINE
  5
235
330
1F
100
AcDbEntity
  8
0
  6
Continuous
 62
     7
370
    25
100
AcDbSpline
210
0.0
220
0.0
230
1.0
 70
     8
 71
     3
 72
    24
 73
    20
 74
     0
 42
0.000000001
 43
0.00000001
 40
0.0
 40
0.0
 40
0.0
 40
0.0
 40
0.2499999999999952
 40
0.2499999999999952
 40
0.3749999999999937
 40
0.3749999999999937
 40
0.4374999999999931
 40
0.4374999999999931
 40
0.468749999999992
 40
0.468749999999992
 40
0.4999999999999909
 40
0.4999999999999909
 40
0.5624999999999933
 40
0.5624999999999933
 40
0.6249999999999958
 40
0.6249999999999958
 40
0.7499999999999981
 40
0.7499999999999981
 40
1.0
 40
1.0
 40
1.0
 40
1.0
 10
206.3475362090712
 20
57.23411010404099
 30
0.0
 10
206.3773772383564
 20
57.34138916059724
 30
0.0
 10
206.4072067783974
 20
57.44727373396791
 30
0.0
 10
206.4518779352687
 20
57.59722177721819
 30
0.0
 10
206.4668307273605
 20
57.64622203998113
 30
0.0
 10
206.4884138656498
 20
57.70937232188388
 30
0.0
 10
206.4955435771795
 20
57.7290125061124
 30
0.0
 10
206.5043952024809
 20
57.7467224356004
 30
0.0
 10
206.5070332997508
 20
57.75043880208608
 30
0.0
 10
206.5101858377958
 20
57.74829045370387
 30
0.0
 10
206.5105657989326
 20
57.7421280446373
 30
0.0
 10
206.5085558736718
 20
57.71348296128456
 30
0.0
 10
206.5039792320734
 20
57.68518195629637
 30
0.0
 10
206.494047845967
 20
57.62880294614708
 30
0.0
 10
206.488357660232
 20
57.59933319819103
 30
0.0
 10
206.4707760596134
 20
57.5114787776247
 30
0.0
 10
206.4580951866851
 20
57.45225378457537
 30
0.0
 10
206.4188541230647
 20
57.27376047744558
 30
0.0
 10
206.3915506630282
 20
57.15601744327186
 30
0.0
 10
206.3637726120395
 20
57.03897175332477
 30
0.0
  0
ARC
  5
236
330
1F
100
AcDbEntity
  8
0
  6
Continuous
 62
     7
370
    25
100
AcDbCircle
 10
207.0264506394
 20
56.4443629224
 30
0.0
 40
0.7201273031243802
100
AcDbArc
 50
174.7584203609
 51
234.4349513408
  0
ARC
  5
237
330
1F
100
AcDbEntity
  8
0
  6
Continuous
 62
     7
370
    25
100
AcDbCircle
 10
208.5217854069
 20
48.9444651861
 30
0.0
 40
2.215173511102267
100
AcDbArc
 50
122.6235856257
 51
177.1589283586
  0
LINE
  5
238
330
1F
100
AcDbEntity
  8
0
  6
Continuous
 62
     7
370
    25
100
AcDbLine
 10
207.3275465302
 20
50.8101519737
 30
0.0
 11
208.0716333356
 21
51.2397041432
 31
0.0
  0
SPLINE
  5
239
330
1F
100
AcDbEntity
  8
0
  6
Continuous
 62
     7
370
    25
100
AcDbSpline
210
0.0
220
0.0
230
1.0
 70
     8
 71
     3
 72
     8
 73
     4
 74
     0
 42
0.000000001
 43
0.00000001
 40
0.0
 40
0.0
 40
0.0
 40
0.0
 40
0.0001590976915385
 40
0.0001590976915385
 40
0.0001590976915385
 40
0.0001590976915385
 10
208.1490911069991
 20
51.22924299797034
 30
0.0
 10
208.1232709780514
 20
51.23272754735024
 30
0.0
 10
208.0974518341169
 20
51.23621453000568
 30
0.0
 10
208.0716336550785
 20
51.23970389104286
 30
0.0
  0
ARC
  5
23A
330
1F
100
AcDbEntity
  8
0
  6
Continuous
 62
     7
370
    25
100
AcDbCircle
 10
207.6564053569
 20
49.439123943
 30
0.0
 40
1.353479563765854
100
AcDbArc
 50
122.9135810547
 51
170.975405912
  0
LINE
  5
23B
330
1F
100
AcDbEntity
  8
0
  6
Continuous
 62
     7
370
    25
100
AcDbLine
 10
207.3275465302
 20
50.8101519737
 30
0.0
 11
206.9209604924
 21
50.5753579774
 31
0.0
  0
SPLINE
  5
23C
330
1F
100
AcDbEntity
  8
0
  6
Continuous
 62
     7
370
    25
100
AcDbSpline
210
0.0
220
0.0
230
1.0
 70
     8
 71
     3
 72
    10
 73
     6
 74
     0
 42
0.000000001
 43
0.00000001
 40
0.0
 40
0.0
 40
0.0
 40
0.0
 40
0.5
 40
0.5
 40
1.0
 40
1.0
 40
1.0
 40
1.0
 10
206.3637726120395
 20
48.85431613762077
 30
0.0
 10
206.3438465615434
 20
48.89283769913639
 30
0.0
 10
206.3305522974026
 20
48.92480102632949
 30
0.0
 10
206.3132837712619
 20
48.98724444982633
 30
0.0
 10
206.3093603166396
 20
49.01766782703853
 30
0.0
 10
206.3093136748215
 20
49.04955852233807
 30
0.0
  0
LINE
  5
23D
330
1F
100
AcDbEntity
  8
0
  6
Continuous
 62
     7
370
    25
100
AcDbLine
 10
206.3196803806
 20
49.6514286004
 30
0.0
 11
206.3232799849
 21
49.5157923396
 31
0.0
  0
LINE
  5
23E
330
1F
100
AcDbEntity
  8
0
  6
Continuous
 62
     7
370
    25
100
AcDbLine
 10
206.4184106904
 20
48.7594970268
 30
0.0
 11
206.3637725696
 21
48.8543163153
 31
0.0
  0
LWPOLYLINE
  5
23F
330
1F
100
AcDbEntity
  8
0
  6
Continuous
 62
     7
370
    18
100
AcDbPolyline
 90
       19
 70
   128
 43
0.0
 10
270.8431817767
 20
35.5934957678
 10
270.851324021
 20
35.6112090363
 10
271.2222538249
 20
36.3010576105
 10
271.6707285618
 20
36.9362202957
 10
272.1771492884
 20
37.4889384232
 10
272.7193810068
 20
37.9350543542
 10
273.27372731
 20
38.2550716633
 10
273.8159590285
 20
38.4350031486
 10
274.3223797551
 20
38.4669859463
 10
274.7708551505
 20
38.3496215508
 10
275.1417842959
 20
38.0880390322
 10
275.4189577768
 20
37.69367195
 10
275.5902596913
 20
37.1837549087
 10
275.6482050225
 20
36.5805745935
 10
275.5902596913
 20
35.9104920229
 10
275.4189577768
 20
35.202794001
 10
275.1417842959
 20
34.4884092296
 10
274.7708551505
 20
33.7985610356
 10
274.5113635897
 20
33.4110939898
  0
ARC
  5
240
330
1F
100
AcDbEntity
  8
0
  6
Continuous
 62
     7
370
    18
100
AcDbCircle
 10
275.6543298285
 20
33.6390429796
 30
0.0
 40
5.540136294187231
100
AcDbArc
 50
115.9911899251
 51
157.3941603252
  0
LWPOLYLINE
  5
241
330
1F
100
AcDbEntity
  8
0
  6
Continuous
 62
     7
370
    18
100
AcDbPolyline
 90
       31
 70
   128
 43
0.0
 10
249.1316996744
 20
21.2729218886
 10
249.1896450056
 20
21.9430044592
 10
249.3609469201
 20
22.6507024811
 10
249.638120401
 20
23.3650872525
 10
250.0090495464
 20
24.0549354465
 10
250.4575249418
 20
24.6900985119
 10
250.9639456684
 20
25.2428166395
 10
251.5061773868
 20
25.6889325704
 10
252.0605236901
 20
26.0089498795
 10
252.6027554085
 20
26.1888813648
 10
253.1091761351
 20
26.2208641626
 10
253.557650872
 20
26.1034993869
 10
253.9285806759
 20
25.8419172484
 10
254.2057541568
 20
25.4475501662
 10
254.3770560713
 20
24.9376331249
 10
254.435000744
 20
24.3344524296
 10
254.3770560713
 20
23.6643702391
 10
254.2057541568
 20
22.9566722172
 10
253.9285806759
 20
22.2422874458
 10
253.557650872
 20
21.5524388716
 10
253.1091761351
 20
20.9172761864
 10
252.6027554085
 20
20.3645580588
 10
252.0605236901
 20
19.9184421279
 10
251.5061773868
 20
19.5984248188
 10
250.9639456684
 20
19.4184933334
 10
250.4575249418
 20
19.3865105357
 10
250.0090495464
 20
19.5038749313
 10
249.638120401
 20
19.7654574499
 10
249.3609469201
 20
20.1598245321
 10
249.1896450056
 20
20.6697415734
 10
249.1316996744
 20
21.2729218886
  0
ARC
  5
242
330
1F
100
AcDbEntity
  8
0
  6
Continuous
 62
     7
370
    18
100
AcDbCircle
 10
254.5423533015
 20
21.21754974
 30
0.0
 40
5.742149430516375
100
AcDbArc
 50
116.132228847
 51
184.8375548179
  0
LWPOLYLINE
  5
243
330
1F
100
AcDbEntity
  8
0
  6
Continuous
 62
     7
370
    18
100
AcDbPolyline
 90
       42
 70
   128
 43
0.0
 10
283.2496005443
 20
22.5995866183
 10
283.1915913342
 20
23.4386092485
 10
283.0189242569
 20
24.1909903623
 10
282.7356460684
 20
24.8390944458
 10
282.3483965438
 20
25.3677308197
 10
281.8662527312
 20
25.7645086005
 10
281.3005155836
 20
26.0201274074
 10
280.6644453887
 20
26.128596115
 10
279.9729511001
 20
26.0873719526
 10
279.2422408154
 20
25.8974214685
 10
278.4894417749
 20
25.5631965995
 10
277.7321989172
 20
25.0925318205
 10
276.9882614368
 20
24.4964587013
 10
276.2750664603
 20
23.788948838
 10
275.6093308109
 20
22.9865857873
 10
275.0066588654
 20
22.1081759484
 10
274.4811762387
 20
21.1743085741
 10
274.0452003473
 20
20.2068728133
 10
273.7089501557
 20
19.2285447105
 10
273.480306466
 20
18.2622549995
 10
273.3646288427
 20
17.3306530418
 10
273.3646288427
 20
16.4555747996
 10
273.480306466
 20
15.657531383
 10
273.7089501557
 20
14.955228057
 10
274.0452003473
 20
14.3651261618
 10
274.4811762387
 20
13.9010574506
 10
275.0066588654
 20
13.573899403
 10
275.6093308109
 20
13.3913197812
 10
276.2750664603
 20
13.3575987503
 10
276.9882614368
 20
13.4735262794
 10
277.7321989172
 20
13.7363850922
 10
278.4894417749
 20
14.1400143069
 10
279.2422408154
 20
14.6749527095
 10
279.9729511001
 20
15.3286623623
 10
280.6644453887
 20
16.0858205113
 10
281.3005155836
 20
16.9286802341
 10
281.8662527312
 20
17.8374852481
 10
282.3483965438
 20
18.7909344259
 10
282.7356460684
 20
19.7666795839
 10
283.0189242569
 20
20.741849702
 10
283.1915913342
 20
21.6935879799
 10
283.2496005443
 20
22.5995866183
  0
LWPOLYLINE
  5
244
330
1F
100
AcDbEntity
  8
0
  6
Continuous
 62
     7
370
    18
100
AcDbPolyline
 90
       23
 70
   128
 43
0.0
 10
274.1679497509
 20
13.4676902948
 10
274.0587041318
 20
13.5365838447
 10
273.5645059912
 20
13.9669016417
 10
273.168189955
 20
14.5307886027
 10
272.8786088371
 20
15.2156481602
 10
272.70223152
 20
16.0061817603
 10
272.6429980757
 20
16.8847302294
 10
272.70223152
 20
17.8316681777
 10
272.8786088371
 20
18.8258426934
 10
273.168189955
 20
19.845045493
 10
273.5645059912
 20
20.8665092096
 10
274.0587041318
 20
21.8674160343
 10
274.6397448659
 20
22.8254073027
 10
275.2946484459
 20
23.719083381
 10
276.0087854702
 20
24.5284809247
 10
276.7662033567
 20
25.2355191439
 10
277.5499826564
 20
25.8244039801
 10
278.3426149757
 20
26.2819808783
 10
279.1263942754
 20
26.5980283594
 10
279.8838121619
 20
26.7654862178
 10
280.5979491863
 20
26.7806137319
 10
281.2528527663
 20
26.6430732323
 10
281.7107193356
 20
26.4330594307
  0
LWPOLYLINE
  5
245
330
1F
100
AcDbEntity
  8
0
  6
Continuous
 62
     7
370
    18
100
AcDbPolyline
 90
       35
 70
   128
 43
0.0
 10
246.1264963495
 20
22.3954830362
 10
246.1836250856
 20
23.8763772543
 10
246.3545358247
 20
25.4109586014
 10
246.6378140131
 20
26.9865118907
 10
247.0311125984
 20
28.5899817155
 10
247.5311717851
 20
30.2080808134
 10
248.1338466941
 20
31.8274010918
 10
248.8341455581
 20
33.434524271
 10
249.6262639657
 20
35.0161336696
 10
250.5036388624
 20
36.5591225651
 10
251.4589999168
 20
38.0507067374
 10
252.4844307655
 20
39.4785259854
 10
253.5714342085
 20
40.830747163
 10
254.7110033327
 20
42.096167596
 10
255.8936949392
 20
43.2643015771
 10
257.1097088977
 20
44.3254672421
 10
258.348969148
 20
45.2708743954
 10
259.6012066353
 20
46.0926875968
 10
260.8560449619
 20
46.7840969003
 10
262.1030862449
 20
47.3393735028
 10
263.3319969744
 20
47.7539162663
 10
264.5325940767
 20
48.0242892342
 10
265.6949290846
 20
48.1482534917
 10
266.809370126
 20
48.1247810363
 10
267.8666830899
 20
47.9540666524
 10
268.8581060416
 20
47.6375237221
 10
269.7754249554
 20
47.1777769933
 10
270.6110375936
 20
46.5786348171
 10
271.3580206778
 20
45.845062525
 10
272.0101838895
 20
44.9831383174
 10
272.5621218954
 20
44.0000045887
 10
273.0092643967
 20
42.9038082264
 10
273.3479024707
 20
41.7036317869
 10
273.5752333519
 20
40.4094212471
 10
273.6778016591
 20
39.2752097379
  0
LWPOLYLINE
  5
246
330
1F
100
AcDbEntity
  8
0
  6
Continuous
 62
     7
370
    18
100
AcDbPolyline
 90
       21
 70
   128
 43
0.0
 10
263.2864997807
 20
16.8624899355
 10
262.1030862449
 20
15.8977706249
 10
260.8560449619
 20
15.013244009
 10
259.6012066353
 20
14.2558478195
 10
258.348969148
 20
13.6318583928
 10
257.1097088977
 20
13.1464461169
 10
255.8936949392
 20
12.8036319499
 10
254.7110033327
 20
12.6062592679
 10
253.5714342085
 20
12.5559611959
 10
252.4844307655
 20
12.6531549122
 10
251.4589999168
 20
12.8970369032
 10
250.5036388624
 20
13.2855846808
 10
249.6262639657
 20
13.8155780828
 10
248.8341455581
 20
14.4826270349
 10
248.1338466941
 20
15.2812023562
 10
247.5311717851
 20
16.2046889959
 10
247.0311125984
 20
17.2454320462
 10
246.6378140131
 20
18.3948089901
 10
246.3545358247
 20
19.6432962448
 10
246.1836250856
 20
20.9805482529
 10
246.1264963495
 20
22.3954830362
  0
LWPOLYLINE
  5
247
330
1F
100
AcDbEntity
  8
0
  6
Continuous
 62
     7
370
    18
100
AcDbPolyline
 90
       25
 70
   128
 43
0.0
 10
245.4193894525
 20
22.3954837966
 10
245.4779827915
 20
23.9143495004
 10
245.6532754857
 20
25.4882788776
 10
245.9438174201
 20
27.1042310765
 10
246.3472009559
 20
28.748815902
 10
246.8600806871
 20
30.4084038918
 10
247.4782103187
 20
32.0692455148
 10
248.1964650572
 20
33.7175772537
 10
249.008893636
 20
35.3397398524
 10
249.9087657302
 20
36.9222935211
 10
250.8886233232
 20
38.4521236364
 10
251.9403472199
 20
39.9165529031
 10
253.0552229007
 20
41.3034470523
 10
254.2240113154
 20
42.6013142654
 10
255.4370282379
 20
43.7993988936
 10
256.6842223032
 20
44.8877751777
 10
257.955258314
 20
45.8574242372
 10
259.2396045381
 20
46.7003088011
 10
260.5266181969
 20
47.4094468938
 10
261.8056348615
 20
47.9789604012
 10
263.0660559579
 20
48.4041331902
 10
264.2974377111
 20
48.6814396417
 10
265.4895758092
 20
48.8085813585
 10
266.6325924139
 20
48.7845069769
 10
266.8603421294
 20
48.7608466175
  0
ARC
  5
248
330
1F
100
AcDbEntity
  8
0
  6
Continuous
 62
     7
370
    18
100
AcDbCircle
 10
257.4973309411
 20
21.860791471
 30
0.0
 40
12.08977115109524
100
AcDbArc
 50
177.4651621366
 51
213.8126325944
  0
LWPOLYLINE
  5
249
330
1F
100
AcDbEntity
  8
0
  6
Continuous
 62
     7
370
    18
100
AcDbPolyline
 90
       25
 70
   128
 43
0.0
 10
228.3287080382
 20
32.2617241682
 10
228.3873013773
 20
33.780589872
 10
228.5625940715
 20
35.3545192493
 10
228.8531360059
 20
36.9704714481
 10
229.2565195417
 20
38.6150562736
 10
229.7693992729
 20
40.2746442634
 10
230.3875289044
 20
41.9354858864
 10
231.1057836429
 20
43.5838176254
 10
231.9182122217
 20
45.205980224
 10
232.8180843159
 20
46.7885338927
 10
233.797941909
 20
48.318364008
 10
234.8496658056
 20
49.7827932747
 10
235.9645414864
 20
51.1696874239
 10
237.1333299012
 20
52.467554637
 10
238.3463468237
 20
53.6656392652
 10
239.593540889
 20
54.7540155494
 10
240.8645768997
 20
55.7236646088
 10
242.1489231239
 20
56.5665491727
 10
243.4359367826
 20
57.2756872654
 10
244.7149534473
 20
57.8452007728
 10
245.9753745437
 20
58.2703735618
 10
247.2067562968
 20
58.5476800133
 10
248.3988943949
 20
58.6748217301
 10
249.5419109997
 20
58.6507473486
 10
249.7696607152
 20
58.6270869891
  0
ARC
  5
24A
330
1F
100
AcDbEntity
  8
0
  6
Continuous
 62
     7
370
    18
100
AcDbCircle
 10
240.4066495268
 20
31.7270318426
 30
0.0
 40
12.08977115109596
100
AcDbArc
 50
177.4651621366
 51
213.8126325944
  0
LWPOLYLINE
  5
24B
330
1F
100
AcDbEntity
  8
0
  6
Continuous
 62
     7
370
    18
100
AcDbPolyline
 90
       25
 70
   128
 43
0.0
 10
262.7435071141
 20
20.9667686064
 10
262.8009763177
 20
22.0124545376
 10
262.9724007214
 20
23.1066011105
 10
263.2548471682
 20
24.2304870494
 10
263.6434832583
 20
25.3648825073
 10
264.1316586801
 20
26.4903778634
 10
264.7110214428
 20
27.5877149885
 10
265.3716574881
 20
28.638118794
 10
266.1022642167
 20
29.6236160395
 10
266.8903398196
 20
30.5273450137
 10
267.722400598
 20
31.3338422085
 10
268.5842097251
 20
32.029308602
 10
269.4610213193
 20
32.6018444763
 10
270.3378329136
 20
33.0416537203
 10
271.1996420407
 20
33.3412109653
 10
272.0317028191
 20
33.4953906967
 10
272.819778422
 20
33.5015544459
 10
273.5503851506
 20
33.359597774
 10
274.2110211959
 20
33.0719481108
 10
274.7903839586
 20
32.6435289932
 10
275.2785593804
 20
32.0816689818
 10
275.6671954705
 20
31.3959832024
 10
275.9496419173
 20
30.5982029896
 10
276.121066321
 20
29.7019788205
 10
276.1264295075
 20
29.6568683239
  0
LWPOLYLINE
  5
24C
330
1F
100
AcDbEntity
  8
0
  6
Continuous
 62
     7
370
    18
100
AcDbPolyline
 90
       13
 70
   128
 43
0.0
 10
268.6270389081
 20
16.6661352012
 10
268.5842097251
 20
16.6477603053
 10
267.722400598
 20
16.3482030603
 10
266.8903398196
 20
16.194023329
 10
266.1022642167
 20
16.1878595797
 10
265.3716574881
 20
16.3298162516
 10
264.7110214428
 20
16.6174659148
 10
264.1316586801
 20
17.0458850324
 10
263.6434832583
 20
17.6077450439
 10
263.2548471682
 20
18.2934308232
 10
262.9724007214
 20
19.0912110361
 10
262.8009763177
 20
19.9874352052
 10
262.7435071141
 20
20.9667686064
  0
LWPOLYLINE
  5
24D
330
1F
100
AcDbEntity
  8
0
  6
Continuous
 62
     7
370
    18
100
AcDbPolyline
 90
       20
 70
   128
 43
0.0
 10
262.0363995584
 20
20.9667689865
 10
262.094452891
 20
22.0444517194
 10
262.2676593162
 20
23.1714655213
 10
262.5531758975
 20
24.3293058402
 10
262.9463137978
 20
25.498960308
 10
263.4406173055
 20
26.6612232798
 10
264.0279701888
 20
27.7970101799
 10
264.6987283925
 20
28.8876721311
 10
265.441878089
 20
29.9152999351
 10
266.245216778
 20
30.8630198751
 10
267.0955533189
 20
31.7152707912
 10
267.9789254981
 20
32.4580585771
 10
268.8808283378
 20
33.0791868402
 10
269.7864525302
 20
33.5684561447
 10
270.6809277698
 20
33.9178333816
 10
271.549566909
 20
34.1215813098
 10
272.3781067792
 20
34.1763549932
 10
273.1529430033
 20
34.0812544648
 10
273.8613525014
 20
33.837841008
 10
274.0307219171
 20
33.7520420497
  0
LWPOLYLINE
  5
24E
330
1F
100
AcDbEntity
  8
0
  6
Continuous
 62
     7
370
    18
100
AcDbPolyline
 90
        8
 70
   128
 43
0.0
 10
264.1078736988
 20
16.3883210861
 10
264.0279701888
 20
16.4359462985
 10
263.4406173055
 20
16.8935899943
 10
262.9463137978
 20
17.485142284
 10
262.5531758975
 20
18.2008893937
 10
262.2676593162
 20
19.0290792847
 10
262.094452891
 20
19.9561132048
 10
262.0363995584
 20
20.9667689865
  0
LWPOLYLINE
  5
24F
330
1F
100
AcDbEntity
  8
0
  6
Continuous
 62
     7
370
    18
100
AcDbPolyline
 90
       14
 70
   128
 43
0.0
 10
265.3951573196
 20
22.4975336868
 10
265.453641011
 20
23.3247729927
 10
265.6274098332
 20
24.1957380784
 10
265.911464775
 20
25.0853729686
 10
266.2976336281
 20
25.9680839584
 10
266.7748077346
 20
26.8184777628
 10
267.3292592403
 20
27.6120895824
 10
267.9450375386
 20
28.3260887761
 10
268.6044280294
 20
28.9399351448
 10
269.288461163
 20
29.4359693774
 10
269.977458508
 20
29.7999210655
 10
270.6515989139
 20
30.0213203348
 10
271.2914885847
 20
30.093798043
 10
271.478651379
 20
30.0856951444
  0
ARC
  5
250
330
1F
100
AcDbEntity
  8
0
  6
Continuous
 62
     7
370
    18
100
AcDbCircle
 10
268.7856417098
 20
22.3155578332
 30
0.0
 40
3.395364429788813
100
AcDbArc
 50
176.9277387859
 51
212.7939435495
  0
LWPOLYLINE
  5
251
330
1F
100
AcDbEntity
  8
0
  6
Continuous
 62
     7
370
    18
100
AcDbPolyline
 90
        3
 70
   128
 43
0.0
 10
252.6793526958
 20
26.905113205
 10
252.7164741912
 20
27.340634947
 10
252.8637833537
 20
28.3387178326
  0
LWPOLYLINE
  5
252
330
1F
100
AcDbEntity
  8
0
  6
Continuous
 62
     7
370
    18
100
AcDbPolyline
 90
       10
 70
   128
 43
0.0
 10
259.4331080871
 20
38.4443198686
 10
259.6160140703
 20
38.5593762477
 10
260.5367397378
 20
39.056804508
 10
261.4461306401
 20
39.4120075587
 10
262.3292544658
 20
39.6191530166
 10
263.1716104351
 20
39.6748401454
 10
263.9593669732
 20
39.5781534098
 10
264.6795894427
 20
39.3306813949
 10
265.3204513721
 20
38.9364870326
 10
265.763545471
 20
38.5256261014
  0
ARC
  5
253
330
1F
100
AcDbEntity
  8
0
  6
Continuous
 62
     7
370
    18
100
AcDbCircle
 10
256.4965731248
 20
24.5929337589
 30
0.0
 40
3.466035318579497
100
AcDbArc
 50
221.3234789532
 51
257.8082397082
  0
ARC
  5
254
330
1F
100
AcDbEntity
  8
0
  6
Continuous
 62
     7
370
    18
100
AcDbCircle
 10
268.6705383512
 20
25.2979916897
 30
0.0
 40
15.29829618670149
100
AcDbArc
 50
124.1815194046
 51
175.5732938108
  0
LWPOLYLINE
  5
255
330
1F
100
AcDbEntity
  8
0
  6
Continuous
 62
     7
370
    18
100
AcDbPolyline
 90
       17
 70
   128
 43
0.0
 10
253.1171616458
 20
26.6523718949
 10
253.1686110941
 20
27.3446761809
 10
253.3459004952
 20
28.4762542782
 10
253.638009107
 20
29.6385886945
 10
254.0399405522
 20
30.8117923681
 10
254.5448173212
 20
31.9757918153
 10
255.1439999687
 20
33.1106694226
 10
255.8272369323
 20
34.1970077318
 10
256.5828380592
 20
35.2162200357
 10
257.3978741449
 20
36.1508659507
 10
258.2584001804
 20
36.9849533001
 10
259.1496921805
 20
37.7042124765
 10
260.0564999832
 20
38.296334775
 10
260.9633077858
 20
38.7511904799
 10
261.8545997859
 20
39.0609951426
 10
262.7151258214
 20
39.2204500056
 10
262.8972275366
 20
39.2349347556
  0
LWPOLYLINE
  5
256
330
1F
100
AcDbEntity
  8
0
  6
Continuous
 62
     7
370
    18
100
AcDbPolyline
 90
       17
 70
   128
 43
0.0
 10
253.3698767837
 20
26.5064825511
 10
253.4213262319
 20
27.1987868372
 10
253.5986156331
 20
28.3303649345
 10
253.8907242449
 20
29.4926993508
 10
254.29265569
 20
30.6659030244
 10
254.7975324591
 20
31.8299024716
 10
255.3967151066
 20
32.9647800788
 10
256.0799520702
 20
34.0511183881
 10
256.835553197
 20
35.0703306919
 10
257.6505892828
 20
36.0049766069
 10
258.5111153183
 20
36.8390639564
 10
259.4024073184
 20
37.5583231327
 10
260.309215121
 20
38.1504454313
 10
261.2160229237
 20
38.6053011361
 10
262.1073149238
 20
38.9151057989
 10
262.9678409593
 20
39.0745606618
 10
263.1499426744
 20
39.0890454119
  0
LWPOLYLINE
  5
257
330
1F
100
AcDbEntity
  8
0
  6
Continuous
 62
     7
370
    18
100
AcDbPolyline
 90
       22
 70
   128
 43
0.0
 10
224.8956147608
 20
39.9584629305
 10
224.9534145537
 20
41.1803363905
 10
225.1260875579
 20
42.4535786062
 10
225.411461235
 20
43.7621772846
 10
225.8059478345
 20
45.0896761554
 10
226.3045858821
 20
46.4193812421
 10
226.9011047171
 20
47.7345709345
 10
227.5880028589
 20
49.0187058685
 10
228.3566428377
 20
50.2556369043
 10
229.1973578787
 20
51.4298093002
 10
230.0995753792
 20
52.5264571897
 10
231.051949605
 20
53.5317896924
 10
232.0425042658
 20
54.4331637155
 10
233.058782169
 20
55.219244873
 10
234.0880031059
 20
55.8801465404
 10
235.1172240428
 20
56.4075580728
 10
236.1335019459
 20
56.7948464064
 10
237.1240566067
 20
57.0371424509
 10
238.0764308325
 20
57.131397824
 10
238.978648333
 20
57.0764280878
 10
239.819363374
 20
56.872924617
 10
240.2529734442
 20
56.6979306966
  0
LWPOLYLINE
  5
258
330
1F
100
AcDbEntity
  8
0
  6
Continuous
 62
     7
370
    18
100
AcDbPolyline
 90
        9
 70
   128
 43
0.0
 10
227.5885316701
 20
34.0064805079
 10
227.5880028589
 20
34.0067851229
 10
226.9011047171
 20
34.4978443435
 10
226.3045858821
 20
35.124308049
 10
225.8059478345
 20
35.8782979004
 10
225.411461235
 20
36.7503322381
 10
225.1260875579
 20
37.7294454823
 10
224.9534145537
 20
38.8033236909
 10
224.8956147608
 20
39.9584629305
  0
LINE
  5
259
330
1F
100
AcDbEntity
  8
0
  6
Continuous
 62
     7
370
    18
100
AcDbLine
 10
223.2833134128
 20
43.1103387923
 30
0.0
 11
223.382168846
 21
43.5233323498
 31
0.0
  0
LWPOLYLINE
  5
25A
330
1F
100
AcDbEntity
  8
0
  6
Continuous
 62
     7
370
    18
100
AcDbPolyline
 90
        9
 70
   128
 43
0.0
 10
232.3617137951
 20
57.1923217469
 10
233.4151895848
 20
57.895080438
 10
234.5487673534
 20
58.5197742321
 10
235.6735731445
 20
59.0038865423
 10
236.7774906447
 20
59.342202253
 10
237.8486284334
 20
59.531077914
 10
238.8754478232
 20
59.568477518
 10
239.8468879003
 20
59.4539990576
 10
240.7524847219
 20
59.1888748941
  0
LWPOLYLINE
  5
25B
330
1F
100
AcDbEntity
  8
0
  6
Continuous
 62
     7
370
    18
100
AcDbPolyline
 90
       20
 70
   128
 43
0.0
 10
222.8496309027
 20
43.1049012257
 10
223.2346608031
 20
44.5785011145
 10
223.7293838036
 20
46.0629044927
 10
224.3285236457
 20
47.5422828203
 10
225.0256917891
 20
49.0008627954
 10
225.8134559004
 20
50.4230925085
 10
226.6834162445
 20
51.7938072165
 10
227.6262959049
 20
53.098391313
 10
228.6320421997
 20
54.3229357342
 10
229.68993139
 20
55.4543828176
 10
230.7886831024
 20
56.4806676422
 10
231.9165823241
 20
57.3908492918
 10
233.0616027151
 20
58.1752215862
 10
234.2115354777
 20
58.8254224564
 10
235.3541194598
 20
59.3345181781
 10
236.4771719585
 20
59.6970811636
 10
237.5687180416
 20
59.9092440856
 10
238.6171195812
 20
59.9687462295
 10
239.6111974551
 20
59.8749523268
 10
240.5403530479
 20
59.6288633808
  0
LWPOLYLINE
  5
25C
330
1F
100
AcDbEntity
  8
0
  6
Continuous
 62
     7
370
    18
100
AcDbPolyline
 90
       22
 70
   128
 43
0.0
 10
224.4006401962
 20
42.3918934786
 10
224.6867376137
 20
43.7607990777
 10
225.0888527928
 20
45.1516114718
 10
225.6018299886
 20
46.5464971491
 10
226.2190903414
 20
47.9275683583
 10
226.9327201218
 20
49.2771165624
 10
227.7335668784
 20
50.5778367662
 10
228.611362585
 20
51.8130491797
 10
229.5548510698
 20
52.9669157478
 10
230.5519342115
 20
54.0246401386
 10
231.589826204
 20
54.9726594604
 10
232.6552184389
 20
55.7988162536
 10
233.7344496573
 20
56.4925190747
 10
234.8136808758
 20
57.0448700954
 10
235.8790731106
 20
57.4487889937
 10
236.9169651031
 20
57.6990942593
 10
237.9140482448
 20
57.7925775598
 10
238.8575367296
 20
57.7280396092
 10
239.7353324363
 20
57.5063085461
 10
240.5361791928
 20
57.1302263259
 10
241.2498089733
 20
56.6046175283
 10
241.5213532157
 20
56.3407528704
  0
ARC
  5
25D
330
1F
100
AcDbEntity
  8
0
  6
Continuous
 62
     7
370
    18
100
AcDbCircle
 10
238.5317344128
 20
53.982664562
 30
0.0
 40
5.688080179794588
100
AcDbArc
 50
34.8821512507
 51
51.0573820933
  0
ARC
  5
25E
330
1F
100
AcDbEntity
  8
0
  6
Continuous
 62
     7
370
    18
100
AcDbCircle
 10
229.7749448885
 20
38.4808040492
 30
0.0
 40
5.421112161531137
100
AcDbArc
 50
187.5346658299
 51
253.2656535212
  0
LWPOLYLINE
  5
25F
330
1F
100
AcDbEntity
  8
0
  6
Continuous
 62
     7
370
    18
100
AcDbPolyline
 90
       25
 70
   128
 43
0.0
 10
213.5288733204
 20
44.2752207951
 10
213.5860139103
 20
45.6092843617
 10
213.7568469411
 20
46.9956303008
 10
214.039621343
 20
48.4200340331
 10
214.4314349104
 20
49.8678790688
 10
214.9282665704
 20
51.3243078612
 10
215.5250185302
 20
52.774376272
 10
216.2155676427
 20
54.2032041378
 10
216.9928279691
 20
55.5961296385
 10
217.8488225598
 20
56.9388594819
 10
218.7747690653
 20
58.2176164254
 10
219.761165676
 20
59.4192778623
 10
220.7978902337
 20
60.5315128861
 10
221.8743052689
 20
61.5429090877
 10
222.9793645206
 20
62.4430880406
 10
224.1017289638
 20
63.2228118262
 10
225.2298816427
 20
63.8740805051
 10
226.3522460858
 20
64.3902111225
 10
227.4573053376
 20
64.7659064239
 10
228.5337203727
 20
64.9973125682
 10
229.5704449304
 20
65.0820542403
 10
230.5568415412
 20
65.0192620886
 10
231.4827880466
 20
64.8095802244
 10
232.3387826373
 20
64.4551606987
 10
232.5401655479
 20
64.3447043394
  0
LWPOLYLINE
  5
260
330
1F
100
AcDbEntity
  8
0
  6
Continuous
 62
     7
370
    18
100
AcDbPolyline
 90
        9
 70
   128
 43
0.0
 10
216.7914450586
 20
37.0641652189
 10
216.2155676427
 20
37.4492286893
 10
215.5250185302
 20
38.0807655205
 10
214.9282665704
 20
38.8418387843
 10
214.4314349104
 20
39.7246379521
 10
214.039621343
 20
40.720104672
 10
213.7568469411
 20
41.8180240293
 10
213.5860139103
 20
43.0071303493
 10
213.5288733204
 20
44.2752207951
  0
LWPOLYLINE
  5
261
330
1F
100
AcDbEntity
  8
0
  6
Continuous
 62
     7
370
    18
100
AcDbPolyline
 90
       15
 70
   128
 43
0.0
 10
221.1974467822
 20
45.0371208769
 10
221.5573387216
 20
46.4319943025
 10
222.0300557989
 20
47.8380119912
 10
222.6096533327
 20
49.2374964003
 10
223.2888458452
 20
50.6128530033
 10
224.0590933312
 20
51.9467896753
 10
224.9107125522
 20
53.222535316
 10
225.8329955745
 20
54.4240512467
 10
226.8143474051
 20
55.5362315798
 10
227.8424303771
 20
56.5450930359
 10
228.9043185789
 20
57.4379507858
 10
229.986661379
 20
58.2035812935
 10
231.0758511075
 20
58.8323571399
 10
232.1581939076
 20
59.3163730297
 10
232.3435098139
 20
59.3848612751
  0
LWPOLYLINE
  5
262
330
1F
100
AcDbEntity
  8
0
  6
Continuous
 62
     7
370
    18
100
AcDbPolyline
 90
       17
 70
   128
 43
0.0
 10
220.7716286106
 20
45.6852658644
 10
221.1887790194
 20
47.1314583182
 10
221.7204812697
 20
48.5820784649
 10
222.3600135977
 20
50.0187853307
 10
223.0992884184
 20
51.4234114557
 10
223.9289583509
 20
52.778197106
 10
224.8385331106
 20
54.0660125087
 10
225.8165115469
 20
55.2705740003
 10
226.8505284989
 20
56.3766504793
 10
227.9275087299
 20
57.3702564541
 10
229.0338351859
 20
58.2388282639
 10
230.1555191056
 20
58.9713846402
 10
231.2783775394
 20
59.558661125
 10
232.3882129675
 20
59.9932342949
 10
233.4709920122
 20
60.2696074386
 10
234.5130241093
 20
60.3842863256
 10
234.6629058759
 20
60.3874074601
  0
LINE
  5
263
330
1F
100
AcDbEntity
  8
0
  6
Continuous
 62
     7
370
    18
100
AcDbLine
 10
215.1785100055
 20
43.737657365
 30
0.0
 11
216.9760190939
 21
44.775337274
 31
0.0
  0
ARC
  5
264
330
1F
100
AcDbEntity
  8
0
  6
Continuous
 62
     7
370
    18
100
AcDbCircle
 10
228.8467634674
 20
37.0779858437
 30
0.0
 40
5.717095917813191
100
AcDbArc
 50
193.3133633978
 51
263.7263493323
  0
LINE
  5
265
330
1F
100
AcDbEntity
  8
0
  6
Continuous
 62
     7
370
    18
100
AcDbLine
 10
222.9522630886
 20
35.4389511232
 30
0.0
 11
222.8496309027
 21
35.7560342351
 31
0.0
  0
LWPOLYLINE
  5
266
330
1F
100
AcDbEntity
  8
0
  6
Continuous
 62
     7
370
    18
100
AcDbPolyline
 90
       17
 70
   128
 43
0.0
 10
206.3093142315
 20
56.5230296429
 10
206.7572120834
 20
57.7888488207
 10
207.3077901949
 20
59.0436255681
 10
207.9528872241
 20
60.2687601088
 10
208.6829407753
 20
61.4460936763
 10
209.4871296452
 20
62.5581735219
 10
210.3535335197
 20
63.5885165904
 10
211.2693101223
 20
64.5218505698
 10
212.2208850397
 20
65.3443398263
 10
213.1941535657
 20
66.0437939425
 10
214.1746891303
 20
66.6098450752
 10
215.1479576563
 20
67.0341028803
 10
216.0995325737
 20
67.3102786376
 10
217.0153091763
 20
67.4342778176
 10
217.8817130508
 20
67.4042633701
 10
218.6859019207
 20
67.22068023
 10
219.117046071
 20
67.0457897738
  0
ARC
  5
267
330
1F
100
AcDbEntity
  8
0
  6
Continuous
 62
     7
370
    18
100
AcDbCircle
 10
210.2115098195
 20
50.8581378858
 30
0.0
 40
4.300940560710519
100
AcDbArc
 50
204.8666556743
 51
235.7640548478
  0
LINE
  5
268
330
1F
100
AcDbEntity
  8
0
  6
Continuous
 62
     7
370
    18
100
AcDbLine
 10
215.1785100055
 20
42.9211165143
 30
0.0
 11
216.9760190939
 21
43.9587964234
 31
0.0
  0
LINE
  5
269
330
1F
100
AcDbEntity
  8
0
  6
Continuous
 62
     7
370
    18
100
AcDbLine
 10
218.4655687334
 20
38.2868994544
 30
0.0
 11
219.804446353
 21
39.0598170522
 31
0.0
  0
LINE
  5
26A
330
1F
100
AcDbEntity
  8
0
  6
Continuous
 62
     7
370
    18
100
AcDbLine
 10
222.1540307538
 20
37.8493949551
 30
0.0
 11
221.9823350297
 21
38.369949816
 31
0.0
  0
LWPOLYLINE
  5
26B
330
1F
100
AcDbEntity
  8
0
  6
Continuous
 62
     7
370
    18
100
AcDbPolyline
 90
        3
 70
   128
 43
0.0
 10
221.8850917134
 20
37.2142742119
 10
221.5573387216
 20
37.8437051197
 10
221.1974467822
 20
38.8230561566
  0
LWPOLYLINE
  5
26C
330
1F
100
AcDbEntity
  8
0
  6
Continuous
 62
     7
370
    18
100
AcDbPolyline
 90
        3
 70
   128
 43
0.0
 10
221.5502830758
 20
36.7706281553
 10
221.178364138
 20
37.3916927923
 10
220.7716286106
 20
38.3363988738
  0
LINE
  5
26D
330
1F
100
AcDbEntity
  8
0
  6
Continuous
 62
     7
370
    18
100
AcDbLine
 10
237.5189949678
 20
61.3727504876
 30
0.0
 11
236.9780059228
 21
61.0604441596
 31
0.0
  0
ARC
  5
26E
330
1F
100
AcDbEntity
  8
0
  6
Continuous
 62
     7
370
    18
100
AcDbCircle
 10
210.0717533045
 20
55.0269386744
 30
0.0
 40
1.102097410650205
100
AcDbArc
 50
159.4112025223
 51
213.191486534
  0
ARC
  5
26F
330
1F
100
AcDbEntity
  8
0
  6
Continuous
 62
     7
370
    18
100
AcDbCircle
 10
208.7399286473
 20
54.8554408893
 30
0.0
 40
0.6345234148788852
100
AcDbArc
 50
41.9991509505
 51
61.7717641965
  0
LINE
  5
270
330
1F
100
AcDbEntity
  8
0
  6
Continuous
 62
     7
370
    18
100
AcDbLine
 10
209.0400487178
 20
55.4145007316
 30
0.0
 11
209.1495956211
 21
55.82529859
 31
0.0
  0
LINE
  5
271
330
1F
100
AcDbEntity
  8
0
  6
Continuous
 62
     7
370
    18
100
AcDbLine
 10
209.0400487178
 20
55.4145007316
 30
0.0
 11
208.2380040688
 21
55.877511252
 31
0.0
  0
LINE
  5
272
330
1F
100
AcDbEntity
  8
0
  6
Continuous
 62
     7
370
    18
100
AcDbLine
 10
206.3637725696
 20
57.0389715674
 30
0.0
 11
206.3475361548
 21
57.2341101961
 31
0.0
  0
ARC
  5
273
330
1F
100
AcDbEntity
  8
0
  6
Continuous
 62
     7
370
    18
100
AcDbCircle
 10
208.8300850666
 20
46.761878923
 30
0.0
 40
0.4314949854784314
100
AcDbArc
 50
27.885175929
 51
60.8829215863
  0
ARC
  5
274
330
1F
100
AcDbEntity
  8
0
  6
Continuous
 62
     7
370
    18
100
AcDbCircle
 10
210.2797837569
 20
47.5339396557
 30
0.0
 40
1.301169858631128
100
AcDbArc
 50
165.9701496118
 51
197.6767200265
  0
LINE
  5
275
330
1F
100
AcDbEntity
  8
0
  6
Continuous
 62
     7
370
    18
100
AcDbLine
 10
208.6482772973
 20
50.0477103309
 30
0.0
 11
207.3275465302
 21
50.8101519737
 31
0.0
  0
LINE
  5
276
330
1F
100
AcDbEntity
  8
0
  6
Continuous
 62
     7
370
    18
100
AcDbLine
 10
209.0400487178
 20
47.1388446876
 30
0.0
 11
208.2380040688
 21
47.601855208
 31
0.0
  0
LINE
  5
277
330
1F
100
AcDbEntity
  8
0
  6
Continuous
 62
     7
370
    18
100
AcDbLine
 10
209.0400487178
 20
47.1388446876
 30
0.0
 11
209.1495956211
 21
46.8545269915
 31
0.0
  0
OLE2FRAME
  5
278
330
1F
100
AcDbEntity
  8
0
100
AcDbOle2Frame
 70
     2
  3
Paintbrush-Bild
 10
13.8511154363
 20
38.264191557
 30
0.0
 11
51.6290888628
 21
31.9806341108
 31
0.0
 71
     2
 72
     0
 73
     1
 90
    12928
310
80552BED0767C5B32B40DDAF6807D121434000000000000000006FFBDDFB85D0
310
4940DDAF6807D121434000000000000000006FFBDDFB85D04940416F4BD60AFB
310
3F4000000000000000002BED0767C5B32B40416F4BD60AFB3F40000000000000
310
0000000000000100000000010000010000000100000000000100000000320000
310
D0CF11E0A1B11AE1000000000000000000000000000000003E000300FEFF0900
310
0600000000000000000000000100000001000000000000000010000002000000
310
01000000FEFFFFFF0000000000000000FFFFFFFFFFFFFFFFFFFFFFFFFFFFFFFF
310
FFFFFFFFFFFFFFFFFFFFFFFFFFFFFFFFFFFFFFFFFFFFFFFFFFFFFFFFFFFFFFFF
310
FFFFFFFFFFFFFFFFFFFFFFFFFFFFFFFFFFFFFFFFFFFFFFFFFFFFFFFFFFFFFFFF
310
FFFFFFFFFFFFFFFFFFFFFFFFFFFFFFFFFFFFFFFFFFFFFFFFFFFFFFFFFFFFFFFF
310
FFFFFFFFFFFFFFFFFFFFFFFFFFFFFFFFFFFFFFFFFFFFFFFFFFFFFFFFFFFFFFFF
310
FFFFFFFFFFFFFFFFFFFFFFFFFFFFFFFFFFFFFFFFFFFFFFFFFFFFFFFFFFFFFFFF
310
FFFFFFFFFFFFFFFFFFFFFFFFFFFFFFFFFFFFFFFFFFFFFFFFFFFFFFFFFFFFFFFF
310
FFFFFFFFFFFFFFFFFFFFFFFFFFFFFFFFFFFFFFFFFFFFFFFFFFFFFFFFFFFFFFFF
310
FFFFFFFFFFFFFFFFFFFFFFFFFFFFFFFFFFFFFFFFFFFFFFFFFFFFFFFFFFFFFFFF
310
FFFFFFFFFFFFFFFFFFFFFFFFFFFFFFFFFFFFFFFFFFFFFFFFFFFFFFFFFFFFFFFF
310
FFFFFFFFFFFFFFFFFFFFFFFFFFFFFFFFFFFFFFFFFFFFFFFFFFFFFFFFFFFFFFFF
310
FFFFFFFFFFFFFFFFFFFFFFFFFFFFFFFFFFFFFFFFFFFFFFFFFFFFFFFFFFFFFFFF
310
FFFFFFFFFFFFFFFFFFFFFFFFFFFFFFFFFFFFFFFFFFFFFFFFFFFFFFFFFFFFFFFF
310
FFFFFFFFFFFFFFFFFFFFFFFFFFFFFFFFFFFFFFFFFFFFFFFFFFFFFFFFFFFFFFFF
310
FDFFFFFFFEFFFFFFFEFFFFFFFEFFFFFF05000000060000000700000008000000
310
090000000A0000000B0000000C0000000D0000000E0000000F00000010000000
310
11000000120000001300000014000000150000001600000017000000FEFFFFFF
310
FFFFFFFFFFFFFFFFFFFFFFFFFFFFFFFFFFFFFFFFFFFFFFFFFFFFFFFFFFFFFFFF
310
FFFFFFFFFFFFFFFFFFFFFFFFFFFFFFFFFFFFFFFFFFFFFFFFFFFFFFFFFFFFFFFF
310
FFFFFFFFFFFFFFFFFFFFFFFFFFFFFFFFFFFFFFFFFFFFFFFFFFFFFFFFFFFFFFFF
310
FFFFFFFFFFFFFFFFFFFFFFFFFFFFFFFFFFFFFFFFFFFFFFFFFFFFFFFFFFFFFFFF
310
FFFFFFFFFFFFFFFFFFFFFFFFFFFFFFFFFFFFFFFFFFFFFFFFFFFFFFFFFFFFFFFF
310
FFFFFFFFFFFFFFFFFFFFFFFFFFFFFFFFFFFFFFFFFFFFFFFFFFFFFFFFFFFFFFFF
310
FFFFFFFFFFFFFFFFFFFFFFFFFFFFFFFFFFFFFFFFFFFFFFFFFFFFFFFFFFFFFFFF
310
FFFFFFFFFFFFFFFFFFFFFFFFFFFFFFFFFFFFFFFFFFFFFFFFFFFFFFFFFFFFFFFF
310
FFFFFFFFFFFFFFFFFFFFFFFFFFFFFFFFFFFFFFFFFFFFFFFFFFFFFFFFFFFFFFFF
310
FFFFFFFFFFFFFFFFFFFFFFFFFFFFFFFFFFFFFFFFFFFFFFFFFFFFFFFFFFFFFFFF
310
FFFFFFFFFFFFFFFFFFFFFFFFFFFFFFFFFFFFFFFFFFFFFFFFFFFFFFFFFFFFFFFF
310
FFFFFFFFFFFFFFFFFFFFFFFFFFFFFFFFFFFFFFFFFFFFFFFFFFFFFFFFFFFFFFFF
310
FFFFFFFFFFFFFFFFFFFFFFFFFFFFFFFFFFFFFFFFFFFFFFFFFFFFFFFFFFFFFFFF
310
52006F006F007400200045006E00740072007900000000000000000000000000
310
0000000000000000000000000000000000000000000000000000000000000000
310
16000500FFFFFFFFFFFFFFFF020000000A00030000000000C000000000000046
310
0000000000000000000000000047F1B452A9D30103000000C000000000000000
310
01004F006C006500000000000000000000000000000000000000000000000000
310
0000000000000000000000000000000000000000000000000000000000000000
310
0A000200FFFFFFFFFFFFFFFFFFFFFFFF00000000000000000000000000000000
310
0000000000000000000000000000000000000000000000001400000000000000
310
010043006F006D0070004F0062006A0000000000000000000000000000000000
310
0000000000000000000000000000000000000000000000000000000000000000
310
120002010100000003000000FFFFFFFF00000000000000000000000000000000
310
0000000000000000000000000000000000000000010000004D00000000000000
310
01004F006C006500310030004E00610074006900760065000000000000000000
310
0000000000000000000000000000000000000000000000000000000000000000
310
1A000200FFFFFFFFFFFFFFFFFFFFFFFF00000000000000000000000000000000
310
0000000000000000000000000000000000000000040000002426000000000000
310
FEFFFFFF02000000FEFFFFFFFFFFFFFFFFFFFFFFFFFFFFFFFFFFFFFFFFFFFFFF
310
FFFFFFFFFFFFFFFFFFFFFFFFFFFFFFFFFFFFFFFFFFFFFFFFFFFFFFFFFFFFFFFF
310
FFFFFFFFFFFFFFFFFFFFFFFFFFFFFFFFFFFFFFFFFFFFFFFFFFFFFFFFFFFFFFFF
310
FFFFFFFFFFFFFFFFFFFFFFFFFFFFFFFFFFFFFFFFFFFFFFFFFFFFFFFFFFFFFFFF
310
FFFFFFFFFFFFFFFFFFFFFFFFFFFFFFFFFFFFFFFFFFFFFFFFFFFFFFFFFFFFFFFF
310
FFFFFFFFFFFFFFFFFFFFFFFFFFFFFFFFFFFFFFFFFFFFFFFFFFFFFFFFFFFFFFFF
310
FFFFFFFFFFFFFFFFFFFFFFFFFFFFFFFFFFFFFFFFFFFFFFFFFFFFFFFFFFFFFFFF
310
FFFFFFFFFFFFFFFFFFFFFFFFFFFFFFFFFFFFFFFFFFFFFFFFFFFFFFFFFFFFFFFF
310
FFFFFFFFFFFFFFFFFFFFFFFFFFFFFFFFFFFFFFFFFFFFFFFFFFFFFFFFFFFFFFFF
310
FFFFFFFFFFFFFFFFFFFFFFFFFFFFFFFFFFFFFFFFFFFFFFFFFFFFFFFFFFFFFFFF
310
FFFFFFFFFFFFFFFFFFFFFFFFFFFFFFFFFFFFFFFFFFFFFFFFFFFFFFFFFFFFFFFF
310
FFFFFFFFFFFFFFFFFFFFFFFFFFFFFFFFFFFFFFFFFFFFFFFFFFFFFFFFFFFFFFFF
310
FFFFFFFFFFFFFFFFFFFFFFFFFFFFFFFFFFFFFFFFFFFFFFFFFFFFFFFFFFFFFFFF
310
FFFFFFFFFFFFFFFFFFFFFFFFFFFFFFFFFFFFFFFFFFFFFFFFFFFFFFFFFFFFFFFF
310
FFFFFFFFFFFFFFFFFFFFFFFFFFFFFFFFFFFFFFFFFFFFFFFFFFFFFFFFFFFFFFFF
310
FFFFFFFFFFFFFFFFFFFFFFFFFFFFFFFFFFFFFFFFFFFFFFFFFFFFFFFFFFFFFFFF
310
0100000200000000000000000000000000000000000000000000000000000000
310
0000000000000000000000000000000000000000000000000000000000000000
310
0100FEFF030A0000FFFFFFFF0A00030000000000C00000000000004607000000
310
5042727573680007000000504272757368000700000050427275736800F439B2
310
7100000000000000000000000000000000000000000000000000000000000000
310
0000000000000000000000000000000000000000000000000000000000000000
310
0000000000000000000000000000000000000000000000000000000000000000
310
0000000000000000000000000000000000000000000000000000000000000000
310
0000000000000000000000000000000000000000000000000000000000000000
310
0000000000000000000000000000000000000000000000000000000000000000
310
0000000000000000000000000000000000000000000000000000000000000000
310
0000000000000000000000000000000000000000000000000000000000000000
310
0000000000000000000000000000000000000000000000000000000000000000
310
0000000000000000000000000000000000000000000000000000000000000000
310
0000000000000000000000000000000000000000000000000000000000000000
310
0000000000000000000000000000000000000000000000000000000000000000
310
20260000424D0E260000000000003E00000028000000B40200006E0000000100
310
01000000000000000000130B0000130B00000200000002000000000000FFFFFF
310
FFFFFFFFFFFFFFFFFFFFFFFFFFFFFFFFFFFFFFFFFFFFFFFFFFFFFFFFFFFFFFFF
310
FFFFFFFFFFFFFFFFFFFFFFFFFFFFFFFFFFFFFFFFFFFFFFFFFFFFFFFFFFFFFFFF
310
FFFFFFFFFFFFFFFFFFFFFFFFFFFFFFFFFFFFFFFFFFFFFFFFF000FFFFFFFFFFFF
310
FFFFFFFFFFFFFFFFFFFFFFFFFFFFFFFFFFFFFFFFFFFFFFFFFFFFFFFFFFFFFFFF
310
FFFFFFFFFFFFFFFFFFFFFFFFFFFFFFFFFFFFFFFFFFFFFFFFFFFFFFFFFFFFFFFF
310
FFFFFFFFFFFFFFFFFFFFFFFFFFFFFFFFF000FFFFFFFFFFFFFFFFFFFFFFFFFFFF
310
FFFFFFFFFFFFFFFFFFFFFFFFFFFFFFFFFFFFFFFFFFFFFFFFFFFFFFFFFFFFFFFF
310
FFFFFFFFFFFFFFFFFFFFFFFFFFFFFFFFFFFFFFFFFFFFFFFFFFFFFFFFFFFFFFFF
310
FFFFFFFFFFFFFFFFF000FFFFFFFFFFFFFFFFFFFFFFFFFFFFFFFFFFFFFFFFFFFF
310
FFFFFFFFFFFFFFFFFFFFFFFFFFFFFFFFFFFFFFFFFFFFFFFFFFFFFFFFFFFFFFFF
310
FFFFFFFFFFFFFFFFFFFFFFFFFFFFFFFFFFFFFFFFFFFFFFFFFFFFFFFFFFFFFFFF
310
F000FFFFFFFFFFFFFFFFFFFFFFFFFFFFFFFFFFFFFFFFFFFFFFFFFFFFFFFFFFFF
310
FFFFFFFFFFFFFFFFFFFFFFFFFFFFFFFFFFFFFFFFFFFFFFFFFFFFFFFFFFFFFFFF
310
FFFFFFFFFFFFFFFFFFFFFFFFFFFFFFFFFFFFFFFFFFFFFFFFF000FFFFFFFFFFFF
310
FFFFFFFFFFFFFFFFFFFFFFFFFFFFFFFFFFFFFFFFFFFFFFFFFFFFFFFFFFFFFFFF
310
FFFFFFFFFFFFFFFFFFFFFFFFFFFFFFFFFFFFFFFFFFFFFFFFFFFFFFFFFFFFFFFF
310
FFFFFFFFFFFFFFFFFFFFFFFFFFFFFFFFF000FFFFFFFFFFFFFFFFFFFFFFFFFFFF
310
FFFFFFFFFFFFFFFFFFFFFFFFFFFFFFFFFFFFFFFFFFFFFFFFFFFFFFFFFFFFFFFF
310
FFFFFFFFFFFFFFFFFFFFFFFFFFFFFFFFFFFFFFFFFFFFFFFFFFFFFFFFFFFFFFFF
310
FFFFFFFFFFFFFFFFF000FFFFFFFFFFFFFFFFFFFFFFFFFFFFFFFFFFFFFFFFFFFF
310
FFFFFFFFFFFFFFFFFFFFFFFFFFFFFFFFFFFFFFFFFFFFFFFFFFFFFFFFFFFFFFFF
310
FFFFFFFFFFFFFFFFFFFFFFFFFFFFFFFFFFFFFFFFFFFFFFFFFFFFFFFFFFFFFFFF
310
F000FFFFFFFFFFFFFFFFFFFFFFFFFFFFFFFFFFFFFFFFFFFFFFFFFFFFFFFFFFFF
310
FFFFFFFFFFFFFFFFFFFFFFFFFFFFFFFFFFFFFFFFFFFFFFFFFFFFFFFFFFFFFFFF
310
FFFFFFFFFFFFFFFFFFFFFFFFFFFFFFFFFFFFFFFFFFFFFFFFF000FFFFFFFFFFFF
310
FFFFFFFFFFFFFFFFFFFFFFFFFFFFFFFFFFFFFFFFFFFFFFFFFFFFFFFFFFFFFFFF
310
FFFFFFFFFFFFFFFFFFFFFFFFFFFFFFFFFFFFFFFFFFFFFFFFFFFFFFFFFFFFFFFF
310
FFFFFFFFFFFFFFFFFFFFFFFFFFFFFFFFF000FFFFFFFFFFFFFFFFFFFFFFFFFFFF
310
FFFFFFFFFFFFFFFFFFFFFFFFFFFFFFFFFFFFFFFFFFFFFFFFFFFFFFFFFFFFFFFF
310
FFFFFFFFFFFFFFFFFFFFFFFFFFFFFFFFFFFFFFFFFFFFFFFFFFFFFFFFFFFFFFFF
310
FFFFFFFFFFFFFFFFF000FFFFFFFFFFFFFFFFFFFFFFFFFFFFFFFFFFFFFFFFFFFF
310
FFFFFFFFFFFFFFFFFFFFFFFFFFFFFFFFFFFFFFFFFFFFFFFFFFFFFFFFFFFFFFFF
310
FFFFFFFFFFFFFFFFFFFFFFFFFFFFFFFFFFFFFFFFFFFFFFFFFFFFFFFFFFFFFFFF
310
F000FFFFFFFFFFFFFFFFFFFFFFFFFFFFFFFFFFFFFFFFFFFFFFFFFFFFFFFFFFFF
310
FFFFFFFFFFFFFFFFFFFFFFFFFFFFFFFFFFFFFFFFFFFFFFFFFFFFFFFFFFFFFFFF
310
FFFFFFFFFFFFFFFFFFFFFFFFFFFFFFFFFFFFFFFFFFFFFFFFF000FFFFFFFFFFFF
310
FFFFFFFFFFFFFFFFFFFFFFFFFFFFFFFFFFFFFFFFFFFFFFFFFFFFFFFFFFFFFFFF
310
FFFFFFFFFFFFFFFFFFFFFFFFFFFFFFFFFFFFFFFFFFFFFFFFFFFFFFFFFFFFFFFF
310
FFFFFFFFFFFFFFFFFFFFFFFFFFFFFFFFF000FFFFFFFFFFFFFFFFFFFFFFFFFFFF
310
FFFFFFFFFFFFFFFFFFFFFFFFFFFFFFFFFFFFFFFFFFFFFFFFFFFFFFFFFFFFFFFF
310
FFFFFFFFFFFFFFFFFFFFFFFFFFFFFFFFFFFFFFFFFFFFFFFFFFFFFFFFFFFFFFFF
310
FFFFFFFFFFFFFFFFF000FFFFFFFFFFFFFFFFFFFFFFFFFFFFFFFFFFFFFFFFFFFF
310
FFFFFFFFFFFFFFFFFFFFFFFFFFFFFFFFFFFFFFFFFFFFFFFFFFFFFFFFFFFFFFFF
310
FFFFFFFFFFFFFFFFFFFFFFFFFFFFFFFFFFFFFFFFFFFFFFFFFFFFFFFFFFFFFFFF
310
F000FFFFFFFFFFFFFFFFFFFFFFFFFFFFFFFFFFFFFFFFFFFFFFFFFFFFFFFFFFFF
310
FFFFFFFFFFFFFFFFFFFFFFFFFFFFFFFFFFFFFFFFFFFFFFFFFFFFFFFFFFFFFFFF
310
FFFFFFFFFFFFFFFFFFFFFFFFFFFFFFFFFFFFFFFFFFFFFFFFF000FFFFFFFFFFFF
310
FFFFFFFFFFFFFFFFFFFFFFFFFFFFFFFFFFFFFFFFFFFFFFFFFFFFFFFFFFFFFFFF
310
FFFFFFFFFFFFFFFFFFFFFFFFFFFFFFFFFFFFFFFFFFFFFFFFFFFFFFFFFFFFFFFF
310
FFFFFFFFFFFFFFFFFFFFFFFFFFFFFFFFF000FFFFFFFFFFFFFFFFFFFFFFFFFFFF
310
FFFFFFFFFFFFFFFFFFFFFFFFFFFFFFFFFFFFFFFFFFFFFFFFFFFFFFFFFFFFFFFF
310
FFFFFFFFFFFFFFFFFFFFFFFFFFFFFFFFFFFFFFFFFFFFFFFFFFFFFFFFFFFFFFFF
310
FFFFFFFFFFFFFFFFF000FFFFF80003FFFFFFFFFFFFFFFFFFFFFFFFFFFFFFFFFF
310
FFFFF00007FFFFFFFFFF00007FFFFFF800000000000000007FFFFFFFFFFFFFFF
310
FFFFFFFC001FFFFFFFFFFFFFFC001FFFFFFFFFFFFFFFFFFFFFFFFFFE0007FFFF
310
F000FFFF8000007FFFFFFFF8000FFFFFC0007FFFFF80007FFFFF0000007FFFFF
310
FFF8000007FFFFF800000000000000007FFFFFF0001FFFFFFFFFFFC00001FFFF
310
FFFFFFFFC00001FFFFFFFF000000000003FFFFE000007FFFF000FFFE0000000F
310
FFFFFFF0000FFFFF80007FFFFF80007FFFFC0000001FFFFFFFC0000001FFFFF8
310
00000000000000007FFFFFF0001FFFFFFFFFFE0000003FFFFFFFFFFE0000003F
310
FFFFFF000000000003FFFF0000000FFFF000FFF800000003FFFFFFF00007FFFF
310
80007FFFFF80007FFFF000000007FFFFFF000000003FFFF80000000000000000
310
7FFFFFF0001FFFFFFFFFF80000000FFFFFFFFFF80000000FFFFFFF0000000000
310
03FFFC00000003FFF000FFE000000000FFFFFFF00007FFFF80003FFFFF80007F
310
FFC000000001FFFFFC000000001FFFF800000000000000007FFFFFF0001FFFFF
310
FFFFE000000003FFFFFFFFE000000003FFFFFF000000000003FFF000000000FF
310
F000FF80000000007FFFFFF00007FFFF80003FFFFF80007FFF8000000000FFFF
310
F80000000007FFF800000000000000007FFFFFF0001FFFFFFFFFC000000001FF
310
FFFFFFC000000001FFFFFF000000000003FFC0000000007FF000FF0000000000
310
3FFFFFE00007FFFF00003FFFFF80007FFE00000000003FFFF00000000003FFF8
310
00000000000000007FFFFFF0001FFFFFFFFF8000000000FFFFFFFF8000000000
310
FFFFFF000000000003FF80000000003FF000FE00000000001FFFFFE00003FFFF
310
00003FFFFF80007FFC00000000001FFFE00000000001FFF8000001FFFE000000
310
7FFFFFF0001FFFFFFFFE00000000003FFFFFFE00000000003FFFFF0000000000
310
03FF00000000001FF000FC00000000000FFFFFE00003FFFF00001FFFFF80007F
310
F800000000001FFFC00000000000FFF8000001FFFE0000007FFFFFF0001FFFFF
310
FFFC00000000001FFFFFFC00000000001FFFFF000000000003FE00000000000F
310
F000F8000000000007FFFFE00003FFFF00001FFFFF80007FF800000000000FFF
310
800000000000FFF8000001FFFE0000007FFFFFF0001FFFFFFFF800000000000F
310
FFFFF800000000000FFFFF000000000003FC000000000007F000F80000000000
310
03FFFFC00003FFFE00001FFFFF80007FF0000000000007FF0000000000007FF8
310
000001FFFE0000007FFFFFF0001FFFFFFFF0000000000007FFFFF00000000000
310
07FFFF000000000003F8000000000003F000F0000000000003FFFFC00001FFFE
310
00001FFFFF80007FE0000000000007FE0000000000003FF8000001FFFE000000
310
7FFFFFF0001FFFFFFFF0000000000007FFFFF0000000000007FFFF0000000000
310
03F800001F800003F000E00001FFF00001FFFFC00001FFFE00000FFFFF80007F
310
E00001FFE00003FE00001FFF00003FF8000001FFFE0000007FFFFFF0001FFFFF
310
FFE000003E000003FFFFE000003E000003FFFF000000000003F00001FFF80001
310
F000E00007FFFC0001FFFFC00001FFFE00000FFFFF80007FC0000FFFFC0003FC
310
0000FFFFC0001FF8000001FFFE0000007FFFFFF0001FFFFFFFC00003FFE00001
310
FFFFC00003FFE00001FFFF0001FFFFFFFFF00007FFFE0001F000E0000FFFFF00
310
00FFFF800001FFFC00000FFFFF80007FC0001FFFFE0001FC0001FFFFE0001FF8
310
000001FFFE0000007FFFFFF0001FFFFFFF80000FFFF80000FFFF80000FFFF800
310
00FFFF0003FFFFFFFFE0000FFFFF8000F000C0003FFFFF8000FFFF800000FFFC
310
000007FFFF80007F80003FFFFF0001FC0003FFFFF0001FF8000001FFFE000000
310
7FFFFFF0001FFFFFFF80003FFFFE0000FFFF80003FFFFE0000FFFF0003FFFFFF
310
FFE0003FFFFF8000F000C0003FFFFF8000FFFF800000FFFC000007FFFF80007F
310
80007FFFFF8001F80007FFFFF8000FF8000001FFFE0000007FFFFFF0001FFFFF
310
FF00007FFFFF00007FFF00007FFFFF00007FFF0003FFFFFFFFE0003FFFFFC000
310
F000C0007FFFFFC000FFFF000000FFFC000007FFFF80007F8000FFFFFF8000F8
310
000FFFFFF8000FF8000001FFFE0000007FFFFFF0001FFFFFFF0000FFFFFF8000
310
7FFF0000FFFFFF80007FFF0003FFFFFFFFC0007FFFFFC00070008000FFFFFFC0
310
00FFFF000000FFF8000007FFFF80007F8000FFFFFF8000F8000FFFFFF8000FF8
310
000001FFFE0000007FFFFFF0001FFFFFFE0001FFFFFFC0003FFE0001FFFFFFC0
310
003FFF0003FFFFFFFFC0007FFFFFE00070008000FFFFFFC0007FFF0000007FF8
310
000003FFFF80007F0001FFFFFF8000F8000FFFFFF8000FF8000001FFFE000000
310
7FFFFFF0001FFFFFFE0001FFFFFFC0003FFE0001FFFFFFC0003FFF0003FFFFFF
310
FFC000FFFFFFE00070008000FFFFFFC0007FFF0000007FF8000003FFFF80007F
310
0001FFFFFF8000F8001FFFFFF8000FF8000001FFFE0000007FFFFFF0001FFFFF
310
FE0003FFFFFFE0003FFE0003FFFFFFE0003FFF0003FFFFFFFFC000FFFFFFE000
310
70008000FFFFFFC0007FFE0000007FF8000003FFFF80007F0001FFFFFF8000F0
310
001FFFFFF8000FF8000001FFFE0000007FFFFFF0001FFFFFFC0003FFFFFFE000
310
1FFC0003FFFFFFE0001FFF0003FFFFFFFFC000FFFFFFC00070008000FFFFFF80
310
007FFE0000007FF0000003FFFF80007F0001FFFFFF0000F0001FFFFFF8000FF8
310
000001FFFE0000007FFFFFF0001FFFFFFC0007FFFFFFF0001FFC0007FFFFFFF0
310
001FFF0003FFFFFFFFC000FFFFFFC00070008001FFFFFF0000FFFE0000003FF0
310
000001FFFF80007F0001FFFFFF0000F8001FFFFFF0000FF8000001FFFE000000
310
7FFFFFF0001FFFFFFC0007FFFFFFF0001FFC0007FFFFFFF0001FFF0003FFFFFF
310
FFC001FFFFFF80007000FFFFFFFFFE0000FFFE0008003FF0008001FFFF80007F
310
FFFFFFFFFC0000FFFFFFFFFFE0000FF8000001FFFE0000007FFFFFF0001FFFFF
310
F8000FFFFFFFF8000FF8000FFFFFFFF8000FFF0003FFFFFFFFFFFFFFFFFF0000
310
7000FFFFFFFFFC0000FFFC0008003FF0008001FFFF80007FFFFFFFFFF80001FF
310
FFFFFFFF80000FF8000001FFFE0000007FFFFFF0001FFFFFF8000FFFFFFFF800
310
0FF8000FFFFFFFF8000FFF0003FFFFFFFFFFFFFFFFFE0000F000FFFFFFFFE000
310
00FFFC000C003FE000C001FFFF80007FFFFFFFFFC00001FFFFFFFFFE00001FF8
310
000001FFFE0000007FFFFFF0001FFFFFF8000FFFFFFFF8000FF8000FFFFFFFF8
310
000FFF0003FFFFFFFFFFFFFFFFF00000F000FFFFFFFE000001FFFC000C001FE0
310
00C000FFFF80007FFFFFFFFE000001FFFFFFFFE000001FF80FFFFFFFFFFFFFC0
310
7FFFFFF0001FFFFFF8000FFFFFFFF8000FF8000FFFFFFFF8000FFF0003FFFFFF
310
FFFFFFFFFF800000F000FFFFFFC0000001FFFC001C001FE001C000FFFF80007F
310
FFFFFF80000003FFFFFFF80000001FF80FFFFFFFFFFFFFC07FFFFFF0001FFFFF
310
F8001FFFFFFFFC000FF8001FFFFFFFFC000FFF0003FFFFFFFFFFFFFFF0000001
310
F000FFFFF800000001FFF8001C001FE001C000FFFF80007FFFFFF800000003FF
310
FFFF800000003FF80FFFFFFFFFFFFFC07FFFFFF0001FFFFFF8001FFFFFFFFC00
310
0FF8001FFFFFFFFC000FFF0003FFFFFFFFFFFFFE00000001F000FFFFC0000000
310
03FFF8001E001FC001E000FFFF80007FFFFF8000000007FFFFFC000000003FF8
310
0FFFFFFFFFFFFFC07FFFFFF0001FFFFFF8001FFFFFFFFC000FF8001FFFFFFFFC
310
000FFF0003FFFFFFFFFFFFE000000003F000FFFE0000000007FFF8001E000FC0
310
01E0007FFF80007FFFFE0000000007FFFFE0000000007FF80FFFFFFFFFFFFFC0
310
7FFFFFF0001FFFFFF0001FFFFFFFFC0007F0001FFFFFFFFC0007FF0003FFFFFF
310
FFFFFF0000000003F000FFF80000000007FFF8001E000FC003E0007FFF80007F
310
FFF0000000000FFFFF8000000000FFF80FFFFFFFFFFFFFC07FFFFFF0001FFFFF
310
F0001FFFFFFFFC0007F0001FFFFFFFFC0007FF0003FFFFFFFFFFFC0000000007
310
F000FFE0000000000FFFF0003E000FC003E0007FFF80007FFFC0000000001FFF
310
FE0000000001FFF80FFFFFFFFFFFFFC07FFFFFF0001FFFFFF0001FFFFFFFFC00
310
07F0001FFFFFFFFC0007FF0003FFFFFFFFFFF0000000000FF000FFC000000000
310
1FFFF0003F000F8003F0003FFF80007FFF80000000003FFFF80000000003FFF8
310
0FFFFFFFFFFFFFC07FFFFFF0001FFFFFF0001FFFFFFFFC0007F0001FFFFFFFFC
310
0007FF0003FFFFFFFFFFE0000000001FF000FF00000000007FFFF0003F000780
310
03F0003FFF80007FFF00000000007FFFF00000000007FFF80FFFFFFFFFFFFFC0
310
7FFFFFF0001FFFFFF0001FFFFFFFFC0007F0001FFFFFFFFC0007FF0003FFFFFF
310
FFFF80000000007FF000FE0000000000FFFFE0003F00078007F0003FFF80007F
310
FE0000000001FFFFE0000000001FFFF80FFFFFFFFFFFFFC07FFFFFF0001FFFFF
310
F0001FFFFFFFFC0007F0001FFFFFFFFC0007FF0003FFFFFFFFFF0000000000FF
310
F000FC0000000003FFFFE0007F00078007F0003FFF80007FFC0000000007FFFF
310
C0000000007FFFF80FFFFFFFFFFFFFC07FFFFFF0001FFFFFF8001FFFFFFFFC00
310
0FF8001FFFFFFFFC000FFF0003FFFFFFFFFE0000000003FFF000FC000000000F
310
FFFFE0007F80070007F8001FFF80007FF8000000001FFFFF8000000001FFFFF8
310
0FFFFFFFFFFFFFC07FFFFFF0001FFFFFF8001FFFFFFFFC000FF8001FFFFFFFFC
310
000FFF0003FFFFFFFFFC000000000FFFF000F8000000007FFFFFE0007F800700
310
07F8001FFF80007FF000000000FFFFFF800000000FFFFFF80FFFFFFFFFFFFFC0
310
7FFFFFF0001FFFFFF8000FFFFFFFF8000FF8000FFFFFFFF8000FFF0003FFFFFF
310
FFFC000000007FFFF000F800000007FFFFFFC0007F8003000FF8001FFF80007F
310
F000000007FFFFFF000000007FFFFFF80FFFFFFFFFFFFFC07FFFFFF0001FFFFF
310
F8000FFFFFFFF8000FF8000FFFFFFFF8000FFF0003FFFFFFFFF80000000FFFFF
310
F000F0000000FFFFFFFFC000FF8003000FF8001FFF80007FE0000000FFFFFFFF
310
0000000FFFFFFFF8000001FFFE0000007FFFFFF0001FFFFFF8000FFFFFFFF800
310
0FF8000FFFFFFFF8000FFF0003FFFFFFFFF8000000FFFFFFF000F000000FFFFF
310
FFFFC000FFC002000FF8000FFF80007FE000001FFFFFFFFE000001FFFFFFFFF8
310
000001FFFE0000007FFFFFF0001FFFFFF8000FFFFFFFF8000FF8000FFFFFFFF8
310
000FFF0003FFFFFFFFF000001FFFFFFFF000E00000FFFFFFFFFFC000FFC00200
310
0FFC000FFF80007FE00001FFFFFFFFFE00001FFFFFFFFFF8000001FFFE000000
310
7FFFFFF0001FFFFFFC000FFFFFFFF8001FFC000FFFFFFFF8001FFF0003FFFFFF
310
FFF00001FFFFFFFFF000E00007FFFFFFFFFF8000FFC000001FFC000FFF80007F
310
C0000FFFFFFFFFFE0000FFFFFFFFFFF8000001FFFE0000007FFFFFF0001FFFFF
310
FC0007FFFFFFF0001FFC0007FFFFFFF0001FFF0003FFFFFFFFF00007FFFFFFFF
310
F000E0001FFFFFFFFFFF8000FFC000001FFC000FFF80007FC0003FFFFFFFFFFE
310
0001FFFFFFFFFFF8000001FFFE0000007FFFFFF0001FFFFFFC0007FFFFFFF000
310
1FFC0007FFFFFFF0001FFF0003FFFFFFFFF0001FFFFFFFFFF000E0003FFFFF00
310
03FF8001FFE000001FFC0007FF80007FC0007FFFFF0007FC0003FFFFF0003FF8
310
000001FFFE0000007FFFFFF0001FFFFFFC0003FFFFFFE0001FFC0003FFFFFFE0
310
001FFF0003FFFFFFFFF0003FFFFFFFFFF000E0003FFFFF0001FF8001FFE00000
310
1FFE0007FF80007FC0007FFFFE0003FC0007FFFFE0003FF8000001FFFE000000
310
7FFFFFF0001FFFFFFE0003FFFFFFE0003FFE0003FFFFFFE0003FFF0003FFFFFF
310
FFF0003FFFFF8001F000E0003FFFFF0001FF0001FFE000001FFE0007FF80007F
310
C0007FFFFE0003FC0007FFFFE0003FF8000001FFFE0000007FFFFFF0001FFFFF
310
FE0001FFFFFFC0003FFE0001FFFFFFC0003FFF0003FFFFFFFFF0003FFFFF0001
310
F000E0003FFFFF0003FF0001FFE000003FFE0007FF80007FC0007FFFFE0003FC
310
0007FFFFE0003FF8000001FFFE0000007FFFFFF0001FFFFFFF0001FFFFFFC000
310
7FFF0001FFFFFFC0007FFF0003FFFFFFFFF0003FFFFF0001F000E0003FFFFE00
310
03FF0003FFF000003FFE0003FF80007FC0007FFFFC0003FE0007FFFFE0003FF8
310
000001FFFE0000007FFFFFF0001FFFFFFF0000FFFFFF80007FFF0000FFFFFF80
310
007FFF0003FFFFFFFFF0003FFFFF0001F000E0003FFFFE0003FF0003FFF00000
310
3FFF0003FF80007FC0007FFFFC0007FE0007FFFFC0003FF8000001FFFE000000
310
7FFFFFF0001FFFFFFF80007FFFFF0000FFFF80007FFFFF0000FFFF0003FFFFFF
310
FFF0003FFFFF0003F000E0003FFFFC0003FE0003FFF000003FFF0003FF80007F
310
E0003FFFF80007FE0003FFFFC0007FF8000001FFFE0000007FFFFFF0001FFFFF
310
FF80003FFFFE0000FFFF80003FFFFE0000FFFF0003FFFFFFFFF0001FFFFE0003
310
F000F0001FFFF80003FE0003FFF000007FFF0001FF80007FE0003FFFF00007FE
310
0001FFFF80007FF8000001FFFE0000007FFFFFF0001FFFFFFFC0000FFFF80001
310
FFFFC0000FFFF80001FFFF0003FFFFFFFFF0001FFFFC0003F000F0000FFFF000
310
07FE0007FFF800007FFF0001FF80007FE0001FFFE00007FF0000FFFE00007FF8
310
000001FFFE0000007FFFFFF0001FFFFFFFC00003FFE00001FFFFC00003FFE000
310
01FFFF0003FFFFFFFFF8000FFFF80003F000F00003FFC00007FC0007FFF80000
310
7FFF8001FF80007FF00007FF80000FFF00007FF80000FFF8000001FFFE000000
310
7F80000000000001FFE000003E000003FFFFE000003E000003FFFF0003FFFFFF
310
FFF80003FFE00007F000F800000000000FFC0007FFF800007FFF8001FF80007F
310
F000000000000FFF000000000000FFF8000001FFFE0000007F80000000000001
310
FFF0000000000007FFFFF0000000000007FFFF0003FFFFFFFFFC00007E000007
310
F000F800000000000FFC0007FFF80000FFFF8000FF80007FF800000000001FFF
310
800000000001FFF8000001FFFE0000007F80000000000001FFF800000000000F
310
FFFFF800000000000FFFFF0003FFFFFFFFFC00000000000FF000FC0000000000
310
1FFC0007FFFC0000FFFF8000FF80007FF800000000003FFFC00000000001FFF8
310
000001FFFE0000007F80000000000001FFF800000000000FFFFFF80000000000
310
0FFFFF0003FFFFFFFFFE00000000001FF000FE00000000003FF8000FFFFC0000
310
FFFF8000FF80007FFC00000000003FFFC00000000003FFF8000001FFFE000000
310
7F80000000000001FFFC00000000001FFFFFFC00000000001FFFFF0003FFFFFF
310
FFFF00000000001FF000FF00000000003FF8000FFFFC0000FFFFC000FF80007F
310
FE00000000007FFFE00000000007FFF8000001FFFE0000007F80000000000001
310
FFFE00000000003FFFFFFE00000000003FFFFF0003FFFFFFFFFF80000000003F
310
F000FF80000000007FF8000FFFFC0001FFFFC0007F80007FFF0000000000FFFF
310
F0000000000FFFF800000000000000007F80000000000001FFFF8000000000FF
310
FFFFFF8000000000FFFFFF0003FFFFFFFFFFC0000000007FF000FFC000000000
310
FFF8000FFFFE0001FFFFC0007F80007FFF8000000001FFFFF8000000001FFFF8
310
00000000000000007F80000000000001FFFFC000000001FFFFFFFFC000000001
310
FFFFFF0003FFFFFFFFFFE000000000FFF000FFE000000003FFF0001FFFFE0001
310
FFFFC0007F80007FFFC000000007FFFFFE000000003FFFF80000000000000000
310
7F80000000000001FFFFE000000003FFFFFFFFE000000003FFFFFF0003FFFFFF
310
FFFFF000000003FFF000FFF80000000FFFF0001FFFFE0001FFFFE0007F80007F
310
FFF00000000FFFFFFF00000000FFFFF800000000000000007F80000000000001
310
FFFFF80000000FFFFFFFFFF80000000FFFFFFF0003FFFFFFFFFFFC0000000FFF
310
F000FFFE0000003FFFF0001FFFFE0003FFFFE0003F80007FFFFC0000003FFFFF
310
FFC0000003FFFFF800000000000000007F80000000000001FFFFFE0000003FFF
310
FFFFFFFE0000003FFFFFFF0003FFFFFFFFFFFF0000003FFFF000FFFF800000FF
310
FFF0001FFFFF0003FFFFE0003F80007FFFFF000001FFFFFFFFF800001FFFFFF8
310
00000000000000007F80000000000001FFFFFFC00001FFFFFFFFFFFFC00001FF
310
FFFFFF0003FFFFFFFFFFFFC00000FFFFF000FFFFF8000FFFFFFFFFFFFFFFFFFF
310
FFFFFFFFFFFFFFFFFFFFF0001FFFFFFFFFFF0000FFFFFFF80000000000000000
310
7FFFFFFFFFFFFFFFFFFFFFFC001FFFFFFFFFFFFFFC001FFFFFFFFFFFFFFFFFFF
310
FFFFFFFC001FFFFFF000FFFFFFFFFFFFFFFFFFFFFFFFFFFFFFFFFFFFFFFFFFFF
310
FFFFFFFFFFFFFFFFFFFFFFFFFFFFFFFFFFFFFFFFFFFFFFFFFFFFFFFFFFFFFFFF
310
FFFFFFFFFFFFFFFFFFFFFFFFFFFFFFFFFFFFFFFFFFFFFFFFFFFFFFFFFFFFFFFF
310
F000FFFFFFFFFFFFFFFFFFFFFFFFFFFFFFFFFFFFFFFFFFFFFFFFFFFFFFFFFFFF
310
FFFFFFFFFFFFFFFFFFFFFFFFFFFFFFFFFFFFFFFFFFFFFFFFFFFFFFFFFFFFFFFF
310
FFFFFFFFFFFFFFFFFFFFFFFFFFFFFFFFFFFFFFFFFFFFFFFFF000FFFFFFFFFFFF
310
FFFFFFFFFFFFFFFFFFFFFFFFFFFFFFFFFFFFFFFFFFFFFFFFFFFFFFFFFFFFFFFF
310
FFFFFFFFFFFFFFFFFFFFFFFFFFFFFFFFFFFFFFFFFFFFFFFFFFFFFFFFFFFFFFFF
310
FFFFFFFFFFFFFFFFFFFFFFFFFFFFFFFFF000FFFFFFFFFFFFFFFFFFFFFFFFFFFF
310
FFFFFFFFFFFFFFFFFFFFFFFFFFFFFFFFFFFFFFFFFFFFFFFFFFFFFFFFFFFFFFFF
310
FFFFFFFFFFFFFFFFFFFFFFFFFFFFFFFFFFFFFFFFFFFFFFFFFFFFFFFFFFFFFFFF
310
FFFFFFFFFFFFFFFFF000FFFFFFFFFFFFFFFFFFFFFFFFFFFFFFFFFFFFFFFFFFFF
310
FFFFFFFFFFFFFFFFFFFFFFFFFFFFFFFFFFFFFFFFFFFFFFFFFFFFFFFFFFFFFFFF
310
FFFFFFFFFFFFFFFFFFFFFFFFFFFFFFFFFFFFFFFFFFFFFFFFFFFFFFFFFFFFFFFF
310
F000FFFFFFFFFFFFFFFFFFFFFFFFFFFFFFFFFFFFFFFFFFFFFFFFFFFFFFFFFFFF
310
FFFFFFFFFFFFFFFFFFFFFFFFFFFFFFFFFFFFFFFFFFFFFFFFFFFFFFFFFFFFFFFF
310
FFFFFFFFFFFFFFFFFFFFFFFFFFFFFFFFFFFFFFFFFFFFFFFFF000FFFFFFFFFFFF
310
FFFFFFFFFFFFFFFFFFFFFFFFFFFFFFFFFFFFFFFFFFFFFFFFFFFFFFFFFFFFFFFF
310
FFFFFFFFFFFFFFFFFFFFFFFFFFFFFFFFFFFFFFFFFFFFFFFFFFFFFFFFFFFFFFFF
310
FFFFFFFFFFFFFFFFFFFFFFFFFFFFFFFFF000FFFFFFFFFFFFFFFFFFFFFFFFFFFF
310
FFFFFFFFFFFFFFFFFFFFFFFFFFFFFFFFFFFFFFFFFFFFFFFFFFFFFFFFFFFFFFFF
310
FFFFFFFFFFFFFFFFFFFFFFFFFFFFFFFFFFFFFFFFFFFFFFFFFFFFFFFFFFFFFFFF
310
FFFFFFFFFFFFFFFFF000FFFFFFFFFFFFFFFFFFFFFFFFFFFFFFFFFFFFFFFFFFFF
310
FFFFFFFFFFFFFFFFFFFFFFFFFFFFFFFFFFFFFFFFFFFFFFFFFFFFFFFFFFFFFFFF
310
FFFFFFFFFFFFFFFFFFFFFFFFFFFFFFFFFFFFFFFFFFFFFFFFFFFFFFFFFFFFFFFF
310
F000FFFFFFFFFFFFFFFFFFFFFFFFFFFFFFFFFFFFFFFFFFFFFFFFFFFFFFFFFFFF
310
FFFFFFFFFFFFFFFFFFFFFFFFFFFFFFFFFFFFFFFFFFFFFFFFFFFFFFFFFFFFFFFF
310
FFFFFFFFFFFFFFFFFFFFFFFFFFFFFFFFFFFFFFFFFFFFFFFFF000FFFFFFFFFFFF
310
FFFFFFFFFFFFFFFFFFFFFFFFFFFFFFFFFFFFFFFFFFFFFFFFFFFFFFFFFFFFFFFF
310
FFFFFFFFFFFFFFFFFFFFFFFFFFFFFFFFFFFFFFFFFFFFFFFFFFFFFFFFFFFFFFFF
310
FFFFFFFFFFFFFFFFFFFFFFFFFFFFFFFFF000FFFFFFFFFFFFFFFFFFFFFFFFFFFF
310
FFFFFFFFFFFFFFFFFFFFFFFFFFFFFFFFFFFFFFFFFFFFFFFFFFFFFFFFFFFFFFFF
310
FFFFFFFFFFFFFFFFFFFFFFFFFFFFFFFFFFFFFFFFFFFFFFFFFFFFFFFFFFFFFFFF
310
FFFFFFFFFFFFFFFFF000FFFFFFFFFFFFFFFFFFFFFFFFFFFFFFFFFFFFFFFFFFFF
310
FFFFFFFFFFFFFFFFFFFFFFFFFFFFFFFFFFFFFFFFFFFFFFFFFFFFFFFFFFFFFFFF
310
FFFFFFFFFFFFFFFFFFFFFFFFFFFFFFFFFFFFFFFFFFFFFFFFFFFFFFFFFFFFFFFF
310
F000FFFFFFFFFFFFFFFFFFFFFFFFFFFFFFFFFFFFFFFFFFFFFFFFFFFFFFFFFFFF
310
FFFFFFFFFFFFFFFFFFFFFFFFFFFFFFFFFFFFFFFFFFFFFFFFFFFFFFFFFFFFFFFF
310
FFFFFFFFFFFFFFFFFFFFFFFFFFFFFFFFFFFFFFFFFFFFFFFFF000FFFFFFFFFFFF
310
FFFFFFFFFFFFFFFFFFFFFFFFFFFFFFFFFFFFFFFFFFFFFFFFFFFFFFFFFFFFFFFF
310
FFFFFFFFFFFFFFFFFFFFFFFFFFFFFFFFFFFFFFFFFFFFFFFFFFFFFFFFFFFFFFFF
310
FFFFFFFFFFFFFFFFFFFFFFFFFFFFFFFFF000FFFFFFFFFFFFFFFFFFFFFFFFFFFF
310
FFFFFFFFFFFFFFFFFFFFFFFFFFFFFFFFFFFFFFFFFFFFFFFFFFFFFFFFFFFFFFFF
310
FFFFFFFFFFFFFFFFFFFFFFFFFFFFFFFFFFFFFFFFFFFFFFFFFFFFFFFFFFFFFFFF
310
FFFFFFFFFFFFFFFFF000FFFFFFFFFFFFFFFFFFFFFFFFFFFFFFFFFFFFFFFFFFFF
310
FFFFFFFFFFFFFFFFFFFFFFFFFFFFFFFFFFFFFFFFFFFFFFFFFFFFFFFFFFFFFFFF
310
FFFFFFFFFFFFFFFFFFFFFFFFFFFFFFFFFFFFFFFFFFFFFFFFFFFFFFFFFFFFFFFF
310
F000FFFFFFFFFFFFFFFFFFFFFFFFFFFFFFFFFFFFFFFFFFFFFFFFFFFFFFFFFFFF
310
FFFFFFFFFFFFFFFFFFFFFFFFFFFFFFFFFFFFFFFFFFFFFFFFFFFFFFFFFFFFFFFF
310
FFFFFFFFFFFFFFFFFFFFFFFFFFFFFFFFFFFFFFFFFFFFFFFFF000FFFFFFFFFFFF
310
FFFFFFFFFFFFFFFFFFFFFFFFFFFFFFFFFFFFFFFFFFFFFFFFFFFFFFFFFFFFFFFF
310
FFFFFFFFFFFFFFFFFFFFFFFFFFFFFFFFFFFFFFFFFFFFFFFFFFFFFFFFFFFFFFFF
310
FFFFFFFFFFFFFFFFFFFFFFFFFFFFFFFFF000FFFFFFFFFFFFFFFFFFFFFFFFFFFF
310
FFFFFFFFFFFFFFFFFFFFFFFFFFFFFFFFFFFFFFFFFFFFFFFFFFFFFFFFFFFFFFFF
310
FFFFFFFFFFFFFFFFFFFFFFFFFFFFFFFFFFFFFFFFFFFFFFFFFFFFFFFFFFFFFFFF
310
FFFFFFFFFFFFFFFFF000FFFFFFFFFFFFFFFFFFFFFFFFFFFFFFFFFFFFFFFFFFFF
310
FFFFFFFFFFFFFFFFFFFFFFFFFFFFFFFFFFFFFFFFFFFFFFFFFFFFFFFFFFFFFFFF
310
FFFFFFFFFFFFFFFFFFFFFFFFFFFFFFFFFFFFFFFFFFFFFFFFFFFFFFFFFFFFFFFF
310
F000FFFFFFFFFFFFFFFFFFFFFFFFFFFFFFFFFFFFFFFFFFFFFFFFFFFFFFFFFFFF
310
FFFFFFFFFFFFFFFFFFFFFFFFFFFFFFFFFFFFFFFFFFFFFFFFFFFFFFFFFFFFFFFF
310
FFFFFFFFFFFFFFFFFFFFFFFFFFFFFFFFFFFFFFFFFFFFFFFFF000FFFFFFFFFFFF
310
FFFFFFFFFFFFFFFFFFFFFFFFFFFFFFFFFFFFFFFFFFFFFFFFFFFFFFFFFFFFFFFF
310
FFFFFFFFFFFFFFFFFFFFFFFFFFFFFFFFFFFFFFFFFFFFFFFFFFFFFFFFFFFFFFFF
310
FFFFFFFFFFFFFFFFFFFFFFFFFFFFFFFFF0000000000000000000000000000000
310
0000000000000000000000000000000000000000000000000000000000000000
310
0000000000000000000000000000000000000000000000000000000000000000
310
0000000000000000000000000000000000000000000000000000000000000000
310
0000000000000000000000000000000000000000000000000000000000000000
310
0000000000000000000000000000000000000000000000000000000000000000
310
0000000000000000000000000000000000000000000000000000000000000000
310
0000000000000000000000000000000000000000000000000000000000000000
310
0000000000000000000000000000000000000000000000000000000000000000
310
0000000000000000000000000000000000000000000000000000000000000000
310
0000000000000000000000000000000000000000000000000000000000000000
310
0000000000000000000000000000000000000000000000000000000000000000
310
0000000000000000000000000000000000000000000000000000000000000000
310
0000000000000000000000000000000000000000000000000000000000000000
310
0000000000000000000000000000000000000000000000000000000000000000
310
0000000000000000000000000000000000000000000000000000000000000000
  1
OLE
  0
ENDSEC
  0
SECTION
  2
OBJECTS
  0
DICTIONARY
  5
C
330
0
100
AcDbDictionary
281
     1
  3
ACAD_GROUP
350
D
  3
ACAD_LAYOUT
350
1A
  3
ACAD_MLINESTYLE
350
17
  3
ACAD_PLOTSETTINGS
350
19
  3
ACAD_PLOTSTYLENAME
350
E
  3
ACAD_SCALELIST
350
47
  0
DICTIONARY
  5
D
102
{ACAD_REACTORS
330
C
102
}
330
C
100
AcDbDictionary
281
     1
  0
DICTIONARY
  5
1A
102
{ACAD_REACTORS
330
C
102
}
330
C
100
AcDbDictionary
281
     1
  3
Layout1
350
1E
  3
Layout2
350
26
  3
Model
350
22
  0
DICTIONARY
  5
17
102
{ACAD_REACTORS
330
C
102
}
330
C
100
AcDbDictionary
281
     1
  3
Standard
350
18
  0
DICTIONARY
  5
19
102
{ACAD_REACTORS
330
C
102
}
330
C
100
AcDbDictionary
281
     1
  0
ACDBDICTIONARYWDFLT
  5
E
102
{ACAD_REACTORS
330
C
102
}
330
C
100
AcDbDictionary
281
     1
  3
Normal
350
F
100
AcDbDictionaryWithDefault
340
F
  0
DICTIONARY
  5
47
102
{ACAD_REACTORS
330
C
102
}
330
C
100
AcDbDictionary
281
     1
  3
A0
350
48
  3
A1
350
49
  3
A2
350
4A
  3
A3
350
4B
  3
A4
350
4C
  3
A5
350
4D
  3
A6
350
4E
  3
A7
350
4F
  3
A8
350
50
  3
A9
350
51
  3
B0
350
52
  3
B1
350
53
  3
B2
350
54
  3
B3
350
55
  3
B4
350
56
  3
B5
350
57
  3
B6
350
58
  3
B7
350
59
  3
B8
350
5A
  3
B9
350
5B
  3
C0
350
5C
  3
C1
350
5D
  3
C2
350
5E
  3
C3
350
5F
  3
C4
350
60
  3
C5
350
61
  3
C6
350
62
  3
C7
350
63
  3
C8
350
64
  3
C9
350
65
  3
D0
350
66
  3
D1
350
67
  3
D2
350
68
  0
LAYOUT
  5
1E
102
{ACAD_REACTORS
330
1A
102
}
330
1A
100
AcDbPlotSettings
  1

  2
none_device
  4

  6

 40
0.0
 41
0.0
 42
0.0
 43
0.0
 44
0.0
 45
0.0
 46
0.0
 47
0.0
 48
0.0
 49
0.0
140
0.0
141
0.0
142
1.0
143
1.0
 70
   688
 72
     1
 73
     0
 74
     5
  7

 75
    16
147
1.0
148
0.0
149
0.0
100
AcDbLayout
  1
Layout1
 70
     1
 71
     1
 10
0.0
 20
0.0
 11
420.0
 21
297.0
 12
0.0
 22
0.0
 32
0.0
 14
1.0000000000E+20
 24
1.0000000000E+20
 34
1.0000000000E+20
 15
-1.0000000000E+20
 25
-1.0000000000E+20
 35
-1.0000000000E+20
146
0.0
 13
0.0
 23
0.0
 33
0.0
 16
1.0
 26
0.0
 36
0.0
 17
0.0
 27
1.0
 37
0.0
 76
     0
330
1B
  0
LAYOUT
  5
26
102
{ACAD_REACTORS
330
1A
102
}
330
1A
100
AcDbPlotSettings
  1

  2
none_device
  4

  6

 40
0.0
 41
0.0
 42
0.0
 43
0.0
 44
0.0
 45
0.0
 46
0.0
 47
0.0
 48
0.0
 49
0.0
140
0.0
141
0.0
142
1.0
143
1.0
 70
   688
 72
     1
 73
     0
 74
     5
  7

 75
    16
147
1.0
148
0.0
149
0.0
100
AcDbLayout
  1
Layout2
 70
     1
 71
     2
 10
0.0
 20
0.0
 11
0.0
 21
0.0
 12
0.0
 22
0.0
 32
0.0
 14
0.0
 24
0.0
 34
0.0
 15
0.0
 25
0.0
 35
0.0
146
0.0
 13
0.0
 23
0.0
 33
0.0
 16
1.0
 26
0.0
 36
0.0
 17
0.0
 27
1.0
 37
0.0
 76
     0
330
23
  0
LAYOUT
  5
22
102
{ACAD_REACTORS
330
1A
102
}
330
1A
100
AcDbPlotSettings
  1

  2
none_device
  4
Letter_(8.50_x_11.00_Inches)
  6

 40
6.35
 41
6.35
 42
6.35000508
 43
6.35000508
 44
215.9
 45
279.4
 46
0.0
 47
0.0
 48
0.0
 49
0.0
140
0.0
141
0.0
142
1.0
143
1.0
 70
  1712
 72
     1
 73
     0
 74
     0
  7

 75
     0
147
1.0
148
0.0
149
0.0
100
AcDbLayout
  1
Model
 70
     1
 71
     0
 10
0.0
 20
0.0
 11
297.0
 21
210.0
 12
0.0
 22
0.0
 32
0.0
 14
0.0
 24
0.0
 34
0.0
 15
297.0
 25
210.0
 35
0.0
146
0.0
 13
0.0
 23
0.0
 33
0.0
 16
1.0
 26
0.0
 36
0.0
 17
0.0
 27
1.0
 37
0.0
 76
     0
330
1F
331
29
  0
MLINESTYLE
  5
18
102
{ACAD_REACTORS
330
17
102
}
330
17
100
AcDbMlineStyle
  2
Standard
 70
     0
  3

 62
   256
 51
90.0
 52
90.0
 71
     2
 49
0.5
 62
   256
  6
BYLAYER
 49
-0.5
 62
   256
  6
BYLAYER
  0
ACDBPLACEHOLDER
  5
F
102
{ACAD_REACTORS
330
E
102
}
330
E
  0
SCALE
  5
48
102
{ACAD_REACTORS
330
47
102
}
330
47
100
AcDbScale
 70
     0
300
1:1
140
1.0
141
1.0
290
     1
  0
SCALE
  5
49
102
{ACAD_REACTORS
330
47
102
}
330
47
100
AcDbScale
 70
     0
300
1:2
140
1.0
141
2.0
290
     0
  0
SCALE
  5
4A
102
{ACAD_REACTORS
330
47
102
}
330
47
100
AcDbScale
 70
     0
300
1:4
140
1.0
141
4.0
290
     0
  0
SCALE
  5
4B
102
{ACAD_REACTORS
330
47
102
}
330
47
100
AcDbScale
 70
     0
300
1:5
140
1.0
141
5.0
290
     0
  0
SCALE
  5
4C
102
{ACAD_REACTORS
330
47
102
}
330
47
100
AcDbScale
 70
     0
300
1:8
140
1.0
141
8.0
290
     0
  0
SCALE
  5
4D
102
{ACAD_REACTORS
330
47
102
}
330
47
100
AcDbScale
 70
     0
300
1:10
140
1.0
141
10.0
290
     0
  0
SCALE
  5
4E
102
{ACAD_REACTORS
330
47
102
}
330
47
100
AcDbScale
 70
     0
300
1:16
140
1.0
141
16.0
290
     0
  0
SCALE
  5
4F
102
{ACAD_REACTORS
330
47
102
}
330
47
100
AcDbScale
 70
     0
300
1:20
140
1.0
141
20.0
290
     0
  0
SCALE
  5
50
102
{ACAD_REACTORS
330
47
102
}
330
47
100
AcDbScale
 70
     0
300
1:30
140
1.0
141
30.0
290
     0
  0
SCALE
  5
51
102
{ACAD_REACTORS
330
47
102
}
330
47
100
AcDbScale
 70
     0
300
1:40
140
1.0
141
40.0
290
     0
  0
SCALE
  5
52
102
{ACAD_REACTORS
330
47
102
}
330
47
100
AcDbScale
 70
     0
300
1:50
140
1.0
141
50.0
290
     0
  0
SCALE
  5
53
102
{ACAD_REACTORS
330
47
102
}
330
47
100
AcDbScale
 70
     0
300
1:100
140
1.0
141
100.0
290
     0
  0
SCALE
  5
54
102
{ACAD_REACTORS
330
47
102
}
330
47
100
AcDbScale
 70
     0
300
2:1
140
2.0
141
1.0
290
     0
  0
SCALE
  5
55
102
{ACAD_REACTORS
330
47
102
}
330
47
100
AcDbScale
 70
     0
300
4:1
140
4.0
141
1.0
290
     0
  0
SCALE
  5
56
102
{ACAD_REACTORS
330
47
102
}
330
47
100
AcDbScale
 70
     0
300
8:1
140
8.0
141
1.0
290
     0
  0
SCALE
  5
57
102
{ACAD_REACTORS
330
47
102
}
330
47
100
AcDbScale
 70
     0
300
10:1
140
10.0
141
1.0
290
     0
  0
SCALE
  5
58
102
{ACAD_REACTORS
330
47
102
}
330
47
100
AcDbScale
 70
     0
300
100:1
140
100.0
141
1.0
290
     0
  0
SCALE
  5
59
102
{ACAD_REACTORS
330
47
102
}
330
47
100
AcDbScale
 70
     0
300
1/128" = 1'-0"
140
0.0078125
141
12.0
290
     0
  0
SCALE
  5
5A
102
{ACAD_REACTORS
330
47
102
}
330
47
100
AcDbScale
 70
     0
300
1/64" = 1'-0"
140
0.015625
141
12.0
290
     0
  0
SCALE
  5
5B
102
{ACAD_REACTORS
330
47
102
}
330
47
100
AcDbScale
 70
     0
300
1/32" = 1'-0"
140
0.03125
141
12.0
290
     0
  0
SCALE
  5
5C
102
{ACAD_REACTORS
330
47
102
}
330
47
100
AcDbScale
 70
     0
300
1/16" = 1'-0"
140
0.0625
141
12.0
290
     0
  0
SCALE
  5
5D
102
{ACAD_REACTORS
330
47
102
}
330
47
100
AcDbScale
 70
     0
300
3/32" = 1'-0"
140
0.09375
141
12.0
290
     0
  0
SCALE
  5
5E
102
{ACAD_REACTORS
330
47
102
}
330
47
100
AcDbScale
 70
     0
300
1/8" = 1'-0"
140
0.125
141
12.0
290
     0
  0
SCALE
  5
5F
102
{ACAD_REACTORS
330
47
102
}
330
47
100
AcDbScale
 70
     0
300
3/16" = 1'-0"
140
0.1875
141
12.0
290
     0
  0
SCALE
  5
60
102
{ACAD_REACTORS
330
47
102
}
330
47
100
AcDbScale
 70
     0
300
1/4" = 1'-0"
140
0.25
141
12.0
290
     0
  0
SCALE
  5
61
102
{ACAD_REACTORS
330
47
102
}
330
47
100
AcDbScale
 70
     0
300
3/8" = 1'-0"
140
0.375
141
12.0
290
     0
  0
SCALE
  5
62
102
{ACAD_REACTORS
330
47
102
}
330
47
100
AcDbScale
 70
     0
300
1/2" = 1'-0"
140
0.5
141
12.0
290
     0
  0
SCALE
  5
63
102
{ACAD_REACTORS
330
47
102
}
330
47
100
AcDbScale
 70
     0
300
3/4" = 1'-0"
140
0.75
141
12.0
290
     0
  0
SCALE
  5
64
102
{ACAD_REACTORS
330
47
102
}
330
47
100
AcDbScale
 70
     0
300
1" = 1'-0"
140
1.0
141
12.0
290
     0
  0
SCALE
  5
65
102
{ACAD_REACTORS
330
47
102
}
330
47
100
AcDbScale
 70
     0
300
1-1/2" = 1'-0"
140
1.5
141
12.0
290
     0
  0
SCALE
  5
66
102
{ACAD_REACTORS
330
47
102
}
330
47
100
AcDbScale
 70
     0
300
3" = 1'-0"
140
3.0
141
12.0
290
     0
  0
SCALE
  5
67
102
{ACAD_REACTORS
330
47
102
}
330
47
100
AcDbScale
 70
     0
300
6" = 1'-0"
140
6.0
141
12.0
290
     0
  0
SCALE
  5
68
102
{ACAD_REACTORS
330
47
102
}
330
47
100
AcDbScale
 70
     0
300
1'-0" = 1'-0"
140
12.0
141
12.0
290
     0
  0
ENDSEC
  0
EOF
