  0
SECTION
  2
HEADER
  9
$ACADVER
  1
AC1015
  9
$ACADMAINTVER
 70
     6
  9
$DWGCODEPAGE
  3
ANSI_1252
  9
$INSBASE
 10
0.0
 20
0.0
 30
0.0
  9
$EXTMIN
 10
0.0
 20
0.0
 30
0.0
  9
$EXTMAX
 10
297.0
 20
210.0
 30
0.0
  9
$LIMMIN
 10
0.0
 20
0.0
  9
$LIMMAX
 10
297.0
 20
210.0
  9
$ORTHOMODE
 70
     0
  9
$REGENMODE
 70
     1
  9
$FILLMODE
 70
     1
  9
$QTEXTMODE
 70
     0
  9
$MIRRTEXT
 70
     1
  9
$LTSCALE
 40
1.0
  9
$ATTMODE
 70
     1
  9
$TEXTSIZE
 40
2.0
  9
$TRACEWID
 40
1.0
  9
$TEXTSTYLE
  7
Standard
  9
$CLAYER
  8
0
  9
$CELTYPE
  6
ByLayer
  9
$CECOLOR
 62
   256
  9
$CELTSCALE
 40
1.0
  9
$DISPSILH
 70
     0
  9
$DIMSCALE
 40
1.0
  9
$DIMASZ
 40
3.0
  9
$DIMEXO
 40
0.0
  9
$DIMDLI
 40
3.75
  9
$DIMRND
 40
0.0
  9
$DIMDLE
 40
0.0
  9
$DIMEXE
 40
1.0
  9
$DIMTP
 40
0.0
  9
$DIMTM
 40
0.0
  9
$DIMTXT
 40
2.0
  9
$DIMCEN
 40
2.5
  9
$DIMTSZ
 40
0.0
  9
$DIMTOL
 70
     0
  9
$DIMLIM
 70
     0
  9
$DIMTIH
 70
     1
  9
$DIMTOH
 70
     1
  9
$DIMSE1
 70
     0
  9
$DIMSE2
 70
     0
  9
$DIMTAD
 70
     1
  9
$DIMZIN
 70
     0
  9
$DIMBLK
  1

  9
$DIMASO
 70
     1
  9
$DIMSHO
 70
     1
  9
$DIMPOST
  1

  9
$DIMAPOST
  1

  9
$DIMALT
 70
     0
  9
$DIMALTD
 70
     3
  9
$DIMALTF
 40
0.0393700787
  9
$DIMLFAC
 40
2.0
  9
$DIMTOFL
 70
     1
  9
$DIMTVP
 40
0.0
  9
$DIMTIX
 70
     0
  9
$DIMSOXD
 70
     0
  9
$DIMSAH
 70
     0
  9
$DIMBLK1
  1

  9
$DIMBLK2
  1

  9
$DIMSTYLE
  2
ISO-25
  9
$DIMCLRD
 70
     0
  9
$DIMCLRE
 70
     0
  9
$DIMCLRT
 70
     0
  9
$DIMTFAC
 40
1.0
  9
$DIMGAP
 40
1.524
  9
$DIMJUST
 70
     0
  9
$DIMSD1
 70
     0
  9
$DIMSD2
 70
     0
  9
$DIMTOLJ
 70
     0
  9
$DIMTZIN
 70
     0
  9
$DIMALTZ
 70
     0
  9
$DIMALTTZ
 70
     0
  9
$DIMUPT
 70
     0
  9
$DIMDEC
 70
     2
  9
$DIMTDEC
 70
     3
  9
$DIMALTU
 70
     2
  9
$DIMALTTD
 70
     3
  9
$DIMTXSTY
  7
Standard
  9
$DIMAUNIT
 70
     0
  9
$DIMADEC
 70
     2
  9
$DIMALTRND
 40
0.0
  9
$DIMAZIN
 70
     0
  9
$DIMDSEP
 70
    44
  9
$DIMATFIT
 70
     3
  9
$DIMFRAC
 70
     0
  9
$DIMLDRBLK
  1

  9
$DIMLUNIT
 70
     2
  9
$DIMLWD
 70
    -2
  9
$DIMLWE
 70
    -2
  9
$DIMTMOVE
 70
     0
  9
$LUNITS
 70
     2
  9
$LUPREC
 70
     2
  9
$SKETCHINC
 40
1.0
  9
$FILLETRAD
 40
10.0
  9
$AUNITS
 70
     0
  9
$AUPREC
 70
     2
  9
$MENU
  1
.
  9
$ELEVATION
 40
0.0
  9
$PELEVATION
 40
0.0
  9
$THICKNESS
 40
0.0
  9
$LIMCHECK
 70
     0
  9
$CHAMFERA
 40
0.0
  9
$CHAMFERB
 40
0.0
  9
$CHAMFERC
 40
0.0
  9
$CHAMFERD
 40
0.0
  9
$SKPOLY
 70
     0
  9
$TDCREATE
 40
2458166.681130775
  9
$TDUCREATE
 40
2458166.639464109
  9
$TDUPDATE
 40
2458166.681133206
  9
$TDUUPDATE
 40
2458166.639466539
  9
$TDINDWG
 40
0.0000000116
  9
$TDUSRTIMER
 40
0.0000000116
  9
$USRTIMER
 70
     1
  9
$ANGBASE
 50
0.0
  9
$ANGDIR
 70
     0
  9
$PDMODE
 70
     0
  9
$PDSIZE
 40
-1.0
  9
$PLINEWID
 40
0.0
  9
$SPLFRAME
 70
     0
  9
$SPLINETYPE
 70
     6
  9
$SPLINESEGS
 70
     8
  9
$HANDSEED
  5
28C
  9
$SURFTAB1
 70
     6
  9
$SURFTAB2
 70
     6
  9
$SURFTYPE
 70
     6
  9
$SURFU
 70
     6
  9
$SURFV
 70
     6
  9
$UCSBASE
  2

  9
$UCSNAME
  2

  9
$UCSORG
 10
0.0
 20
0.0
 30
0.0
  9
$UCSXDIR
 10
1.0
 20
0.0
 30
0.0
  9
$UCSYDIR
 10
0.0
 20
1.0
 30
0.0
  9
$UCSORTHOREF
  2

  9
$UCSORTHOVIEW
 70
     0
  9
$UCSORGTOP
 10
0.0
 20
0.0
 30
0.0
  9
$UCSORGBOTTOM
 10
0.0
 20
0.0
 30
0.0
  9
$UCSORGLEFT
 10
0.0
 20
0.0
 30
0.0
  9
$UCSORGRIGHT
 10
0.0
 20
0.0
 30
0.0
  9
$UCSORGFRONT
 10
0.0
 20
0.0
 30
0.0
  9
$UCSORGBACK
 10
0.0
 20
0.0
 30
0.0
  9
$PUCSBASE
  2

  9
$PUCSNAME
  2

  9
$PUCSORG
 10
0.0
 20
0.0
 30
0.0
  9
$PUCSXDIR
 10
1.0
 20
0.0
 30
0.0
  9
$PUCSYDIR
 10
0.0
 20
1.0
 30
0.0
  9
$PUCSORTHOREF
  2

  9
$PUCSORTHOVIEW
 70
     0
  9
$PUCSORGTOP
 10
0.0
 20
0.0
 30
0.0
  9
$PUCSORGBOTTOM
 10
0.0
 20
0.0
 30
0.0
  9
$PUCSORGLEFT
 10
0.0
 20
0.0
 30
0.0
  9
$PUCSORGRIGHT
 10
0.0
 20
0.0
 30
0.0
  9
$PUCSORGFRONT
 10
0.0
 20
0.0
 30
0.0
  9
$PUCSORGBACK
 10
0.0
 20
0.0
 30
0.0
  9
$USERI1
 70
     0
  9
$USERI2
 70
     0
  9
$USERI3
 70
     0
  9
$USERI4
 70
     0
  9
$USERI5
 70
     0
  9
$USERR1
 40
0.0
  9
$USERR2
 40
0.0
  9
$USERR3
 40
0.0
  9
$USERR4
 40
0.0
  9
$USERR5
 40
0.0
  9
$WORLDVIEW
 70
     1
  9
$SHADEDGE
 70
     3
  9
$SHADEDIF
 70
    70
  9
$TILEMODE
 70
     1
  9
$MAXACTVP
 70
    64
  9
$PINSBASE
 10
0.0
 20
0.0
 30
0.0
  9
$PLIMCHECK
 70
     0
  9
$PEXTMIN
 10
1.0000000000E+20
 20
1.0000000000E+20
 30
1.0000000000E+20
  9
$PEXTMAX
 10
-1.0000000000E+20
 20
-1.0000000000E+20
 30
-1.0000000000E+20
  9
$PLIMMIN
 10
0.0
 20
0.0
  9
$PLIMMAX
 10
420.0
 20
297.0
  9
$UNITMODE
 70
     0
  9
$VISRETAIN
 70
     1
  9
$PLINEGEN
 70
     0
  9
$PSLTSCALE
 70
     1
  9
$TREEDEPTH
 70
  3020
  9
$CMLSTYLE
  2
Standard
  9
$CMLJUST
 70
     0
  9
$CMLSCALE
 40
20.0
  9
$PROXYGRAPHICS
 70
     1
  9
$MEASUREMENT
 70
     1
  9
$CELWEIGHT
370
    -1
  9
$ENDCAPS
280
     0
  9
$JOINSTYLE
280
     0
  9
$LWDISPLAY
290
     1
  9
$INSUNITS
 70
     4
  9
$HYPERLINKBASE
  1

  9
$STYLESHEET
  1

  9
$XEDIT
290
     1
  9
$CEPSNTYPE
380
     0
  9
$PSTYLEMODE
290
     1
  9
$FINGERPRINTGUID
  2
{73B42A42-077C-49BE-86E2-F5585F9CC2AC}
  9
$VERSIONGUID
  2
{FAEB1C32-E019-11D5-929B-00C0DF256EC4}
  9
$EXTNAMES
290
     1
  9
$PSVPSCALE
 40
0.0
  9
$OLESTARTUP
290
     0
  0
ENDSEC
  0
SECTION
  2
CLASSES
  0
CLASS
  1
ACDBDICTIONARYWDFLT
  2
AcDbDictionaryWithDefault
  3
ObjectDBX Classes
 90
        0
280
     0
281
     0
  0
CLASS
  1
VISUALSTYLE
  2
AcDbVisualStyle
  3
ObjectDBX Classes
 90
     4095
280
     0
281
     0
  0
CLASS
  1
MATERIAL
  2
AcDbMaterial
  3
ObjectDBX Classes
 90
     1153
280
     0
281
     0
  0
CLASS
  1
SCALE
  2
AcDbScale
  3
ObjectDBX Classes
 90
     1153
280
     0
281
     0
  0
CLASS
  1
TABLESTYLE
  2
AcDbTableStyle
  3
ObjectDBX Classes
 90
     4095
280
     0
281
     0
  0
CLASS
  1
MLEADERSTYLE
  2
AcDbMLeaderStyle
  3
ACDB_MLEADERSTYLE_CLASS
 90
     4095
280
     0
281
     0
  0
CLASS
  1
SUN
  2
AcDbSun
  3
SCENEOE
 90
     1153
280
     0
281
     0
  0
CLASS
  1
ACDBPLACEHOLDER
  2
AcDbPlaceHolder
  3
ObjectDBX Classes
 90
        0
280
     0
281
     0
  0
CLASS
  1
LAYOUT
  2
AcDbLayout
  3
ObjectDBX Classes
 90
        0
280
     0
281
     0
  0
ENDSEC
  0
SECTION
  2
TABLES
  0
TABLE
  2
VPORT
  5
8
330
0
100
AcDbSymbolTable
 70
     1
  0
VPORT
  5
29
330
8
100
AcDbSymbolTableRecord
100
AcDbViewportTableRecord
  2
*Active
 70
     0
 10
0.0
 20
0.0
 11
1.0
 21
1.0
 12
148.5
 22
105.0
 13
0.0
 23
0.0
 14
10.0
 24
10.0
 15
10.0
 25
10.0
 16
0.0
 26
0.0
 36
1.0
 17
0.0
 27
0.0
 37
0.0
 40
210.0
 41
1.4142857143
 42
50.0
 43
0.0
 44
0.0
 50
0.0
 51
0.0
 71
     0
 72
  2000
 73
     1
 74
     3
 75
     0
 76
     0
 77
     0
 78
     0
281
     0
 65
     1
110
0.0
120
0.0
130
0.0
111
1.0
121
0.0
131
0.0
112
0.0
122
1.0
132
0.0
 79
     0
146
0.0
  0
ENDTAB
  0
TABLE
  2
LTYPE
  5
5
330
0
100
AcDbSymbolTable
 70
     6
  0
LTYPE
  5
14
330
5
100
AcDbSymbolTableRecord
100
AcDbLinetypeTableRecord
  2
ByBlock
 70
     0
  3

 72
    65
 73
     0
 40
0.0
  0
LTYPE
  5
15
330
5
100
AcDbSymbolTableRecord
100
AcDbLinetypeTableRecord
  2
ByLayer
 70
     0
  3

 72
    65
 73
     0
 40
0.0
  0
LTYPE
  5
16
330
5
100
AcDbSymbolTableRecord
100
AcDbLinetypeTableRecord
  2
Continuous
 70
     0
  3
Solid line
 72
    65
 73
     0
 40
0.0
  0
LTYPE
  5
6E
330
5
100
AcDbSymbolTableRecord
100
AcDbLinetypeTableRecord
  2
HIDDEN
 70
     0
  3
Hidden __ __ __ __ __ __ __ __ __ __ __ __ __ __
 72
    65
 73
     2
 40
1.905
 49
1.27
 74
     0
 49
-0.635
 74
     0
  0
LTYPE
  5
6F
330
5
100
AcDbSymbolTableRecord
100
AcDbLinetypeTableRecord
  2
PHANTOM
 70
     0
  3
Phantom ______  __  __  ______  __  __  ______
 72
    65
 73
     6
 40
12.7
 49
6.35
 74
     0
 49
-1.27
 74
     0
 49
1.27
 74
     0
 49
-1.27
 74
     0
 49
1.27
 74
     0
 49
-1.27
 74
     0
  0
LTYPE
  5
70
330
5
100
AcDbSymbolTableRecord
100
AcDbLinetypeTableRecord
  2
CENTER
 70
     0
  3
Center ____ _ ____ _ ____ _ ____ _ ____ _ ____
 72
    65
 73
     4
 40
10.16
 49
6.35
 74
     0
 49
-1.27
 74
     0
 49
1.27
 74
     0
 49
-1.27
 74
     0
  0
LTYPE
  5
71
330
5
100
AcDbSymbolTableRecord
100
AcDbLinetypeTableRecord
  2
CENTERX2
 70
     0
  3
Center (2x) ________  __  ________  __  _____
 72
    65
 73
     4
 40
20.32
 49
12.7
 74
     0
 49
-2.54
 74
     0
 49
2.54
 74
     0
 49
-2.54
 74
     0
  0
LTYPE
  5
72
330
5
100
AcDbSymbolTableRecord
100
AcDbLinetypeTableRecord
  2
DOT2
 70
     0
  3
Dot (.5x) ........................................
 72
    65
 73
     2
 40
0.635
 49
0.0
 74
     0
 49
-0.635
 74
     0
  0
ENDTAB
  0
TABLE
  2
LAYER
  5
2
330
0
100
AcDbSymbolTable
 70
     5
  0
LAYER
  5
10
330
2
100
AcDbSymbolTableRecord
100
AcDbLayerTableRecord
  2
0
 70
     0
 62
     7
  6
Continuous
370
    -3
390
F
  0
LAYER
  5
73
330
2
100
AcDbSymbolTableRecord
100
AcDbLayerTableRecord
  2
FORMAT
 70
     0
 62
     7
  6
Continuous
370
    -3
390
F
  0
LAYER
  5
74
330
2
100
AcDbSymbolTableRecord
100
AcDbLayerTableRecord
  2
VERMASSUNG
 70
     0
 62
     7
  6
Continuous
370
    -3
390
F
  0
LAYER
  5
75
330
2
100
AcDbSymbolTableRecord
100
AcDbLayerTableRecord
  2
KOPF_DÜNN
 70
     0
 62
     7
  6
Continuous
370
    -3
390
F
  0
LAYER
  5
76
330
2
100
AcDbSymbolTableRecord
100
AcDbLayerTableRecord
  2
KOPF_DICK
 70
     0
 62
     7
  6
Continuous
370
    25
390
F
  0
ENDTAB
  0
TABLE
  2
STYLE
  5
3
330
0
100
AcDbSymbolTable
 70
     3
  0
STYLE
  5
11
330
3
100
AcDbSymbolTableRecord
100
AcDbTextStyleTableRecord
  2
Standard
 70
     0
 40
0.0
 41
1.0
 50
0.0
 71
     0
 42
2.0
  3
txt
  4

  0
STYLE
  5
77
330
3
100
AcDbSymbolTableRecord
100
AcDbTextStyleTableRecord
  2
SLDTEXTSTYLE0
 70
     0
 40
0.0
 41
0.7
 50
0.0
 71
     0
 42
2.0
  3
TXT
  4

  0
STYLE
  5
7B
330
3
100
AcDbSymbolTableRecord
100
AcDbTextStyleTableRecord
  2
SLDTEXTSTYLE1
 70
     0
 40
0.0
 41
0.6428571429
 50
0.0
 71
     0
 42
2.0
  3
TXT
  4

  0
ENDTAB
  0
TABLE
  2
VIEW
  5
6
330
0
100
AcDbSymbolTable
 70
     0
  0
ENDTAB
  0
TABLE
  2
UCS
  5
7
330
0
100
AcDbSymbolTable
 70
     0
  0
ENDTAB
  0
TABLE
  2
APPID
  5
9
330
0
100
AcDbSymbolTable
 70
     1
  0
APPID
  5
12
330
9
100
AcDbSymbolTableRecord
100
AcDbRegAppTableRecord
  2
ACAD
 70
     0
  0
ENDTAB
  0
TABLE
  2
DIMSTYLE
  5
A
330
0
100
AcDbSymbolTable
 70
     3
100
AcDbDimStyleTable
  0
DIMSTYLE
105
27
330
A
100
AcDbSymbolTableRecord
100
AcDbDimStyleTableRecord
  2
ISO-25
 70
     0
 41
2.5
 42
0.625
 43
3.75
 44
1.25
 73
     0
 74
     0
 77
     1
 78
     8
140
2.5
141
2.5
143
0.0393700787
147
0.625
171
     3
172
     1
178
     0
271
     2
272
     2
274
     3
278
    44
283
     0
284
     8
340
11
  0
DIMSTYLE
105
12D
102
{ACAD_REACTORS
330
12C
330
138
330
143
330
14E
330
15A
330
164
330
16E
330
178
102
}
330
A
100
AcDbSymbolTableRecord
100
AcDbDimStyleTableRecord
  2
SLDDIMSTYLE0
 70
     0
 41
3.0
 44
0.0
 45
0.000000001
 73
     0
 74
     0
 77
     1
 78
    12
 79
     3
140
2.0
147
0.5
173
     1
178
     0
271
     2
272
     3
276
     2
284
    12
340
77
  0
DIMSTYLE
105
183
102
{ACAD_REACTORS
330
182
102
}
330
A
100
AcDbSymbolTableRecord
100
AcDbDimStyleTableRecord
  2
SLDDIMSTYLE1
 70
     0
 41
3.0
 44
0.0
 45
0.000000001
 73
     0
 74
     0
 77
     1
 78
    12
 79
     3
140
2.0
147
0.5
173
     1
178
     0
271
     0
272
     3
276
     2
284
    12
340
77
  0
ENDTAB
  0
TABLE
  2
BLOCK_RECORD
  5
1
330
0
100
AcDbSymbolTable
 70
    10
  0
BLOCK_RECORD
  5
1F
330
1
100
AcDbSymbolTableRecord
100
AcDbBlockTableRecord
  2
*Model_Space
340
22
  0
BLOCK_RECORD
  5
1B
330
1
100
AcDbSymbolTableRecord
100
AcDbBlockTableRecord
  2
*Paper_Space
340
1E
  0
BLOCK_RECORD
  5
23
330
1
100
AcDbSymbolTableRecord
100
AcDbBlockTableRecord
  2
*Paper_Space0
340
26
  0
BLOCK_RECORD
  5
12E
330
1
100
AcDbSymbolTableRecord
100
AcDbBlockTableRecord
  2
_D
340
0
  0
BLOCK_RECORD
  5
139
330
1
100
AcDbSymbolTableRecord
100
AcDbBlockTableRecord
  2
_D_1
340
0
  0
BLOCK_RECORD
  5
144
330
1
100
AcDbSymbolTableRecord
100
AcDbBlockTableRecord
  2
_D_2
340
0
  0
BLOCK_RECORD
  5
14F
330
1
100
AcDbSymbolTableRecord
100
AcDbBlockTableRecord
  2
_D_3
340
0
  0
BLOCK_RECORD
  5
15B
330
1
100
AcDbSymbolTableRecord
100
AcDbBlockTableRecord
  2
_D_4
340
0
  0
BLOCK_RECORD
  5
165
330
1
100
AcDbSymbolTableRecord
100
AcDbBlockTableRecord
  2
_D_5
340
0
  0
BLOCK_RECORD
  5
16F
330
1
100
AcDbSymbolTableRecord
100
AcDbBlockTableRecord
  2
_D_6
340
0
  0
BLOCK_RECORD
  5
179
330
1
100
AcDbSymbolTableRecord
100
AcDbBlockTableRecord
  2
_D_7
340
0
  0
BLOCK_RECORD
  5
184
330
1
100
AcDbSymbolTableRecord
100
AcDbBlockTableRecord
  2
_D_8
340
0
  0
ENDTAB
  0
ENDSEC
  0
SECTION
  2
BLOCKS
  0
BLOCK
  5
20
330
1F
100
AcDbEntity
  8
0
100
AcDbBlockBegin
  2
*Model_Space
 70
     0
 10
0.0
 20
0.0
 30
0.0
  3
*Model_Space
  1

  0
ENDBLK
  5
21
330
1F
100
AcDbEntity
  8
0
100
AcDbBlockEnd
  0
BLOCK
  5
1C
330
1B
100
AcDbEntity
 67
     1
  8
0
100
AcDbBlockBegin
  2
*Paper_Space
 70
     0
 10
0.0
 20
0.0
 30
0.0
  3
*Paper_Space
  1

  0
ENDBLK
  5
1D
330
1B
100
AcDbEntity
 67
     1
  8
0
100
AcDbBlockEnd
  0
BLOCK
  5
24
330
23
100
AcDbEntity
  8
0
100
AcDbBlockBegin
  2
*Paper_Space0
 70
     0
 10
0.0
 20
0.0
 30
0.0
  3
*Paper_Space0
  1

  0
ENDBLK
  5
25
330
23
100
AcDbEntity
  8
0
100
AcDbBlockEnd
  0
BLOCK
  5
12F
330
12E
100
AcDbEntity
  8
0
100
AcDbBlockBegin
  2
_D
 70
     0
 10
0.0
 20
0.0
 30
0.0
  3
_D
  1

  0
SOLID
  5
131
330
12E
100
AcDbEntity
  8
VERMASSUNG
100
AcDbTrace
 10
244.3212930193
 20
139.4900945023
 30
0.0
 11
243.8712930193
 21
136.4900945023
 31
0.0
 12
244.7712930193
 22
136.4900945023
 32
0.0
 13
244.7712930193
 23
136.4900945023
 33
0.0
  0
SOLID
  5
132
330
12E
100
AcDbEntity
  8
VERMASSUNG
100
AcDbTrace
 10
244.3212930193
 20
107.4900945023
 30
0.0
 11
244.7712930193
 21
110.4900945023
 31
0.0
 12
243.8712930193
 22
110.4900945023
 32
0.0
 13
243.8712930193
 23
110.4900945023
 33
0.0
  0
LINE
  5
133
330
12E
100
AcDbEntity
  8
VERMASSUNG
100
AcDbLine
 10
200.3212930193
 20
139.4900945023
 30
0.0
 11
245.3212930193
 21
139.4900945023
 31
0.0
  0
LINE
  5
134
330
12E
100
AcDbEntity
  8
VERMASSUNG
100
AcDbLine
 10
200.3212930193
 20
107.4900945023
 30
0.0
 11
245.3212930193
 21
107.4900945023
 31
0.0
  0
LINE
  5
135
330
12E
100
AcDbEntity
  8
VERMASSUNG
100
AcDbLine
 10
244.3212930193
 20
139.4900945023
 30
0.0
 11
244.3212930193
 21
107.4900945023
 31
0.0
  0
MTEXT
  5
136
330
12E
100
AcDbEntity
  8
VERMASSUNG
100
AcDbMText
 10
241.7431577144
 20
120.2850945451
 30
0.0
 40
2.0
 41
0.0
 71
     1
 72
     1
  1
%%c
  7
SLDTEXTSTYLE0
 11
-7.044195017643634E-15
 21
1.0
 31
0.0
 73
     1
 44
1.0
  0
MTEXT
  5
137
330
12E
100
AcDbEntity
  8
VERMASSUNG
100
AcDbMText
 10
241.5431577631
 20
123.8950945594
 30
0.0
 40
2.0
 41
0.0
 71
     1
 72
     1
  1
32
  7
SLDTEXTSTYLE0
 11
-7.044195017643634E-15
 21
1.0
 31
0.0
 73
     1
 44
1.0
  0
ENDBLK
  5
130
330
12E
100
AcDbEntity
  8
0
100
AcDbBlockEnd
  0
BLOCK
  5
13A
330
139
100
AcDbEntity
  8
0
100
AcDbBlockBegin
  2
_D_1
 70
     0
 10
0.0
 20
0.0
 30
0.0
  3
_D_1
  1

  0
SOLID
  5
13C
330
139
100
AcDbEntity
  8
VERMASSUNG
100
AcDbTrace
 10
264.4927530428
 20
87.4900945023
 30
0.0
 11
264.9427530428
 21
90.4900945023
 31
0.0
 12
264.0427530428
 22
90.4900945023
 32
0.0
 13
264.0427530428
 23
90.4900945023
 33
0.0
  0
SOLID
  5
13D
330
139
100
AcDbEntity
  8
VERMASSUNG
100
AcDbTrace
 10
264.4927530428
 20
159.4900945023
 30
0.0
 11
264.0427530428
 21
156.4900945023
 31
0.0
 12
264.9427530428
 22
156.4900945023
 32
0.0
 13
264.9427530428
 23
156.4900945023
 33
0.0
  0
LINE
  5
13E
330
139
100
AcDbEntity
  8
VERMASSUNG
100
AcDbLine
 10
176.3212930193
 20
87.4900945023
 30
0.0
 11
265.4927530428
 21
87.4900945023
 31
0.0
  0
LINE
  5
13F
330
139
100
AcDbEntity
  8
VERMASSUNG
100
AcDbLine
 10
176.3212930193
 20
159.4900945023
 30
0.0
 11
265.4927530428
 21
159.4900945023
 31
0.0
  0
LINE
  5
140
330
139
100
AcDbEntity
  8
VERMASSUNG
100
AcDbLine
 10
264.4927530428
 20
87.4900945023
 30
0.0
 11
264.4927530428
 21
159.4900945023
 31
0.0
  0
MTEXT
  5
141
330
139
100
AcDbEntity
  8
VERMASSUNG
100
AcDbMText
 10
261.9146177379
 20
120.2850945451
 30
0.0
 40
2.0
 41
0.0
 71
     1
 72
     1
  1
%%c
  7
SLDTEXTSTYLE0
 11
6.123233995736766E-17
 21
1.0
 31
0.0
 73
     1
 44
1.0
  0
MTEXT
  5
142
330
139
100
AcDbEntity
  8
VERMASSUNG
100
AcDbMText
 10
261.7146177866
 20
123.8950945594
 30
0.0
 40
2.0
 41
0.0
 71
     1
 72
     1
  1
72
  7
SLDTEXTSTYLE0
 11
6.123233995736766E-17
 21
1.0
 31
0.0
 73
     1
 44
1.0
  0
ENDBLK
  5
13B
330
139
100
AcDbEntity
  8
0
100
AcDbBlockEnd
  0
BLOCK
  5
145
330
144
100
AcDbEntity
  8
0
100
AcDbBlockBegin
  2
_D_2
 70
     0
 10
0.0
 20
0.0
 30
0.0
  3
_D_2
  1

  0
SOLID
  5
147
330
144
100
AcDbEntity
  8
VERMASSUNG
100
AcDbTrace
 10
254.581264225
 20
149.4900945023
 30
0.0
 11
254.131264225
 21
146.4900945023
 31
0.0
 12
255.031264225
 22
146.4900945023
 32
0.0
 13
255.031264225
 23
146.4900945023
 33
0.0
  0
SOLID
  5
148
330
144
100
AcDbEntity
  8
VERMASSUNG
100
AcDbTrace
 10
254.581264225
 20
97.4900945023
 30
0.0
 11
255.031264225
 21
100.4900945023
 31
0.0
 12
254.131264225
 22
100.4900945023
 32
0.0
 13
254.131264225
 23
100.4900945023
 33
0.0
  0
LINE
  5
149
330
144
100
AcDbEntity
  8
VERMASSUNG
100
AcDbLine
 10
118.7439427501
 20
149.4900945023
 30
0.0
 11
255.581264225
 21
149.4900945023
 31
0.0
  0
LINE
  5
14A
330
144
100
AcDbEntity
  8
VERMASSUNG
100
AcDbLine
 10
118.7439427501
 20
97.4900945023
 30
0.0
 11
255.581264225
 21
97.4900945023
 31
0.0
  0
LINE
  5
14B
330
144
100
AcDbEntity
  8
VERMASSUNG
100
AcDbLine
 10
254.581264225
 20
149.4900945023
 30
0.0
 11
254.581264225
 21
97.4900945023
 31
0.0
  0
MTEXT
  5
14C
330
144
100
AcDbEntity
  8
VERMASSUNG
100
AcDbMText
 10
252.0031289201
 20
120.2850945451
 30
0.0
 40
2.0
 41
0.0
 71
     1
 72
     1
  1
%%c
  7
SLDTEXTSTYLE0
 11
-7.044195017643634E-15
 21
1.0
 31
0.0
 73
     1
 44
1.0
  0
MTEXT
  5
14D
330
144
100
AcDbEntity
  8
VERMASSUNG
100
AcDbMText
 10
251.8031289688
 20
123.8950945594
 30
0.0
 40
2.0
 41
0.0
 71
     1
 72
     1
  1
52
  7
SLDTEXTSTYLE0
 11
-7.044195017643634E-15
 21
1.0
 31
0.0
 73
     1
 44
1.0
  0
ENDBLK
  5
146
330
144
100
AcDbEntity
  8
0
100
AcDbBlockEnd
  0
BLOCK
  5
150
330
14F
100
AcDbEntity
  8
0
100
AcDbBlockBegin
  2
_D_3
 70
     0
 10
0.0
 20
0.0
 30
0.0
  3
_D_3
  1

  0
SOLID
  5
152
330
14F
100
AcDbEntity
  8
VERMASSUNG
100
AcDbTrace
 10
35.275989177
 20
154.9900945023
 30
0.0
 11
34.825989177
 21
151.9900945023
 31
0.0
 12
35.725989177
 22
151.9900945023
 32
0.0
 13
35.725989177
 23
151.9900945023
 33
0.0
  0
SOLID
  5
153
330
14F
100
AcDbEntity
  8
VERMASSUNG
100
AcDbTrace
 10
35.275989177
 20
91.9900945023
 30
0.0
 11
35.725989177
 21
94.9900945023
 31
0.0
 12
34.825989177
 22
94.9900945023
 32
0.0
 13
34.825989177
 23
94.9900945023
 33
0.0
  0
LINE
  5
154
330
14F
100
AcDbEntity
  8
VERMASSUNG
100
AcDbLine
 10
77.6212930193
 20
154.9900945023
 30
0.0
 11
34.275989177
 21
154.9900945023
 31
0.0
  0
LINE
  5
155
330
14F
100
AcDbEntity
  8
VERMASSUNG
100
AcDbLine
 10
77.6212930193
 20
91.9900945023
 30
0.0
 11
34.275989177
 21
91.9900945023
 31
0.0
  0
LINE
  5
156
330
14F
100
AcDbEntity
  8
VERMASSUNG
100
AcDbLine
 10
35.275989177
 20
154.9900945023
 30
0.0
 11
35.275989177
 21
91.9900945023
 31
0.0
  0
MTEXT
  5
157
330
14F
100
AcDbEntity
  8
VERMASSUNG
100
AcDbMText
 10
32.4978539208
 20
115.7850952045
 30
0.0
 40
2.0
 41
0.0
 71
     1
 72
     1
  1
HSK A
  7
SLDTEXTSTYLE0
 11
-7.044195017643634E-15
 21
1.0
 31
0.0
 73
     1
 44
1.0
  0
MTEXT
  5
158
330
14F
100
AcDbEntity
  8
VERMASSUNG
100
AcDbMText
 10
32.6978538721
 20
124.785094817
 30
0.0
 40
2.0
 41
0.0
 71
     1
 72
     1
  1
%%c
  7
SLDTEXTSTYLE0
 11
-7.044195017643634E-15
 21
1.0
 31
0.0
 73
     1
 44
1.0
  0
MTEXT
  5
159
330
14F
100
AcDbEntity
  8
VERMASSUNG
100
AcDbMText
 10
32.4978539208
 20
128.3950948313
 30
0.0
 40
2.0
 41
0.0
 71
     1
 72
     1
  1
63
  7
SLDTEXTSTYLE0
 11
-7.044195017643634E-15
 21
1.0
 31
0.0
 73
     1
 44
1.0
  0
ENDBLK
  5
151
330
14F
100
AcDbEntity
  8
0
100
AcDbBlockEnd
  0
BLOCK
  5
15C
330
15B
100
AcDbEntity
  8
0
100
AcDbBlockBegin
  2
_D_4
 70
     0
 10
0.0
 20
0.0
 30
0.0
  3
_D_4
  1

  0
SOLID
  5
15E
330
15B
100
AcDbEntity
  8
VERMASSUNG
100
AcDbTrace
 10
103.2712930193
 20
170.7486242823
 30
0.0
 11
106.2712930193
 21
170.2986242823
 31
0.0
 12
106.2712930193
 22
171.1986242823
 32
0.0
 13
106.2712930193
 23
171.1986242823
 33
0.0
  0
SOLID
  5
15F
330
15B
100
AcDbEntity
  8
VERMASSUNG
100
AcDbTrace
 10
177.3212930193
 20
170.7486242823
 30
0.0
 11
174.3212930193
 21
171.1986242823
 31
0.0
 12
174.3212930193
 22
170.2986242823
 32
0.0
 13
174.3212930193
 23
170.2986242823
 33
0.0
  0
LINE
  5
160
330
15B
100
AcDbEntity
  8
VERMASSUNG
100
AcDbLine
 10
103.2712930193
 20
153.3365348261
 30
0.0
 11
103.2712930193
 21
171.7486242823
 31
0.0
  0
LINE
  5
161
330
15B
100
AcDbEntity
  8
VERMASSUNG
100
AcDbLine
 10
177.3212930193
 20
158.4900945023
 30
0.0
 11
177.3212930193
 21
171.7486242823
 31
0.0
  0
LINE
  5
162
330
15B
100
AcDbEntity
  8
VERMASSUNG
100
AcDbLine
 10
103.2712930193
 20
170.7486242823
 30
0.0
 11
177.3212930193
 21
170.7486242823
 31
0.0
  0
MTEXT
  5
163
330
15B
100
AcDbEntity
  8
VERMASSUNG
100
AcDbMText
 10
137.0962931002
 20
173.3267598783
 30
0.0
 40
2.0
 41
0.0
 71
     1
 72
     1
  1
74.05
  7
SLDTEXTSTYLE0
 73
     1
 44
1.0
  0
ENDBLK
  5
15D
330
15B
100
AcDbEntity
  8
0
100
AcDbBlockEnd
  0
BLOCK
  5
166
330
165
100
AcDbEntity
  8
0
100
AcDbBlockBegin
  2
_D_5
 70
     0
 10
0.0
 20
0.0
 30
0.0
  3
_D_5
  1

  0
SOLID
  5
168
330
165
100
AcDbEntity
  8
VERMASSUNG
100
AcDbTrace
 10
77.3212930193
 20
178.5483285918
 30
0.0
 11
80.3212930193
 21
178.0983285918
 31
0.0
 12
80.3212930193
 22
178.9983285918
 32
0.0
 13
80.3212930193
 23
178.9983285918
 33
0.0
  0
SOLID
  5
169
330
165
100
AcDbEntity
  8
VERMASSUNG
100
AcDbTrace
 10
177.3212930193
 20
178.5483285918
 30
0.0
 11
174.3212930193
 21
178.9983285918
 31
0.0
 12
174.3212930193
 22
178.0983285918
 32
0.0
 13
174.3212930193
 23
178.0983285918
 33
0.0
  0
LINE
  5
16A
330
165
100
AcDbEntity
  8
VERMASSUNG
100
AcDbLine
 10
77.3212930193
 20
154.6900945023
 30
0.0
 11
77.3212930193
 21
179.5483285918
 31
0.0
  0
LINE
  5
16B
330
165
100
AcDbEntity
  8
VERMASSUNG
100
AcDbLine
 10
177.3212930193
 20
158.4900945023
 30
0.0
 11
177.3212930193
 21
179.5483285918
 31
0.0
  0
LINE
  5
16C
330
165
100
AcDbEntity
  8
VERMASSUNG
100
AcDbLine
 10
77.3212930193
 20
178.5483285918
 30
0.0
 11
177.3212930193
 21
178.5483285918
 31
0.0
  0
MTEXT
  5
16D
330
165
100
AcDbEntity
  8
VERMASSUNG
100
AcDbMText
 10
125.4212929873
 20
181.1264641877
 30
0.0
 40
2.0
 41
0.0
 71
     1
 72
     1
  1
100
  7
SLDTEXTSTYLE0
 73
     1
 44
1.0
  0
ENDBLK
  5
167
330
165
100
AcDbEntity
  8
0
100
AcDbBlockEnd
  0
BLOCK
  5
170
330
16F
100
AcDbEntity
  8
0
100
AcDbBlockBegin
  2
_D_6
 70
     0
 10
0.0
 20
0.0
 30
0.0
  3
_D_6
  1

  0
SOLID
  5
172
330
16F
100
AcDbEntity
  8
VERMASSUNG
100
AcDbTrace
 10
177.3212930193
 20
170.7486242823
 30
0.0
 11
180.3212930193
 21
170.2986242823
 31
0.0
 12
180.3212930193
 22
171.1986242823
 32
0.0
 13
180.3212930193
 23
171.1986242823
 33
0.0
  0
SOLID
  5
173
330
16F
100
AcDbEntity
  8
VERMASSUNG
100
AcDbTrace
 10
201.3212930193
 20
170.7486242823
 30
0.0
 11
198.3212930193
 21
171.1986242823
 31
0.0
 12
198.3212930193
 22
170.2986242823
 32
0.0
 13
198.3212930193
 23
170.2986242823
 33
0.0
  0
LINE
  5
174
330
16F
100
AcDbEntity
  8
VERMASSUNG
100
AcDbLine
 10
177.3212930193
 20
158.4900945023
 30
0.0
 11
177.3212930193
 21
171.7486242823
 31
0.0
  0
LINE
  5
175
330
16F
100
AcDbEntity
  8
VERMASSUNG
100
AcDbLine
 10
201.3212930193
 20
138.4900945023
 30
0.0
 11
201.3212930193
 21
171.7486242823
 31
0.0
  0
LINE
  5
176
330
16F
100
AcDbEntity
  8
VERMASSUNG
100
AcDbLine
 10
177.3212930193
 20
170.7486242823
 30
0.0
 11
201.3212930193
 21
170.7486242823
 31
0.0
  0
MTEXT
  5
177
330
16F
100
AcDbEntity
  8
VERMASSUNG
100
AcDbMText
 10
187.8212930063
 20
173.3267598783
 30
0.0
 40
2.0
 41
0.0
 71
     1
 72
     1
  1
24
  7
SLDTEXTSTYLE0
 73
     1
 44
1.0
  0
ENDBLK
  5
171
330
16F
100
AcDbEntity
  8
0
100
AcDbBlockEnd
  0
BLOCK
  5
17A
330
179
100
AcDbEntity
  8
0
100
AcDbBlockBegin
  2
_D_7
 70
     0
 10
0.0
 20
0.0
 30
0.0
  3
_D_7
  1

  0
SOLID
  5
17C
330
179
100
AcDbEntity
  8
VERMASSUNG
100
AcDbTrace
 10
45.4212930193
 20
187.4900945023
 30
0.0
 11
48.4212930193
 21
187.0400945023
 31
0.0
 12
48.4212930193
 22
187.9400945023
 32
0.0
 13
48.4212930193
 23
187.9400945023
 33
0.0
  0
SOLID
  5
17D
330
179
100
AcDbEntity
  8
VERMASSUNG
100
AcDbTrace
 10
222.3212930193
 20
187.4900945023
 30
0.0
 11
219.3212930193
 21
187.9400945023
 31
0.0
 12
219.3212930193
 22
187.0400945023
 32
0.0
 13
219.3212930193
 23
187.0400945023
 33
0.0
  0
LINE
  5
17E
330
179
100
AcDbEntity
  8
VERMASSUNG
100
AcDbLine
 10
45.4212930193
 20
143.1807722488
 30
0.0
 11
45.4212930193
 21
188.4900945023
 31
0.0
  0
LINE
  5
17F
330
179
100
AcDbEntity
  8
VERMASSUNG
100
AcDbLine
 10
222.3212930193
 20
134.6900945023
 30
0.0
 11
222.3212930193
 21
188.4900945023
 31
0.0
  0
LINE
  5
180
330
179
100
AcDbEntity
  8
VERMASSUNG
100
AcDbLine
 10
45.4212930193
 20
187.4900945023
 30
0.0
 11
222.3212930193
 21
187.4900945023
 31
0.0
  0
MTEXT
  5
181
330
179
100
AcDbEntity
  8
VERMASSUNG
100
AcDbMText
 10
130.9712930562
 20
190.0682300983
 30
0.0
 40
2.0
 41
0.0
 71
     1
 72
     1
  1
176.9
  7
SLDTEXTSTYLE0
 73
     1
 44
1.0
  0
ENDBLK
  5
17B
330
179
100
AcDbEntity
  8
0
100
AcDbBlockEnd
  0
BLOCK
  5
185
330
184
100
AcDbEntity
  8
0
100
AcDbBlockBegin
  2
_D_8
 70
     0
 10
0.0
 20
0.0
 30
0.0
  3
_D_8
  1

  0
SOLID
  5
187
330
184
100
AcDbEntity
  8
VERMASSUNG
100
AcDbTrace
 10
235.3778805642
 20
130.5610945023
 30
0.0
 11
234.9278805642
 21
127.5610945023
 31
0.0
 12
235.8278805642
 22
127.5610945023
 32
0.0
 13
235.8278805642
 23
127.5610945023
 33
0.0
  0
SOLID
  5
188
330
184
100
AcDbEntity
  8
VERMASSUNG
100
AcDbTrace
 10
235.3778805642
 20
116.4190945023
 30
0.0
 11
235.8278805642
 21
119.4190945023
 31
0.0
 12
234.9278805642
 22
119.4190945023
 32
0.0
 13
234.9278805642
 23
119.4190945023
 33
0.0
  0
LINE
  5
189
330
184
100
AcDbEntity
  8
VERMASSUNG
100
AcDbLine
 10
222.3212930193
 20
130.5610945023
 30
0.0
 11
236.3778805642
 21
130.5610945023
 31
0.0
  0
LINE
  5
18A
330
184
100
AcDbEntity
  8
VERMASSUNG
100
AcDbLine
 10
222.3212930193
 20
116.4190945023
 30
0.0
 11
236.3778805642
 21
116.4190945023
 31
0.0
  0
LINE
  5
18B
330
184
100
AcDbEntity
  8
VERMASSUNG
100
AcDbLine
 10
235.3778805642
 20
130.5610945023
 30
0.0
 11
235.3778805642
 21
116.4190945023
 31
0.0
  0
MTEXT
  5
18C
330
184
100
AcDbEntity
  8
VERMASSUNG
100
AcDbMText
 10
232.7997449683
 20
120.2900943503
 30
0.0
 40
2.0
 41
0.0
 71
     1
 72
     1
  1
SW
  7
SLDTEXTSTYLE0
 11
-7.044195017643634E-15
 21
1.0
 31
0.0
 73
     1
 44
1.0
  0
MTEXT
  5
18D
330
184
100
AcDbEntity
  8
VERMASSUNG
100
AcDbMText
 10
232.7997449683
 20
124.0900944144
 30
0.0
 40
2.0
 41
0.0
 71
     1
 72
     1
  1
14
  7
SLDTEXTSTYLE0
 11
-7.044195017643634E-15
 21
1.0
 31
0.0
 73
     1
 44
1.0
  0
ENDBLK
  5
186
330
184
100
AcDbEntity
  8
0
100
AcDbBlockEnd
  0
ENDSEC
  0
SECTION
  2
ENTITIES
  0
MTEXT
  5
78
330
1F
100
AcDbEntity
  8
KOPF_DÜNN
100
AcDbMText
 10
13.8892156294
 20
23.8442973028
 30
0.0
 40
3.0
 41
0.0
 71
     1
 72
     1
  1
HA6.D32.K01.100
  7
SLDTEXTSTYLE0
 73
     1
 44
1.0
  0
MTEXT
  5
79
330
1F
100
AcDbEntity
  8
VERMASSUNG
100
AcDbMText
 10
13.9329988022
 20
28.8834360957
 30
0.0
 40
3.0
 41
0.0
 71
     1
 72
     1
  1
Fräsdorn Typ S_Milling arbor type S
  7
SLDTEXTSTYLE0
 73
     1
 44
1.0
  0
MTEXT
  5
7A
330
1F
100
AcDbEntity
  8
VERMASSUNG
100
AcDbMText
 10
98.8601118557
 20
13.8365368761
 30
0.0
 40
2.0
 41
0.0
 71
     1
 72
     1
  1
Datum: 16.02.2018
  7
SLDTEXTSTYLE0
 73
     1
 44
1.0
  0
MTEXT
  5
7C
330
1F
100
AcDbEntity
  8
VERMASSUNG
100
AcDbMText
 10
13.933048693
 20
18.0482802738
 30
0.0
 40
2.0
 41
0.0
 71
     1
 72
     1
  1
HSK A 63 / Ø32
  7
SLDTEXTSTYLE1
 73
     1
 44
1.0
  0
MTEXT
  5
7D
330
1F
100
AcDbEntity
  8
VERMASSUNG
100
AcDbMText
 10
13.9808475933
 20
13.9090974274
 30
0.0
 40
2.0
 41
0.0
 71
     1
 72
     1
  1
Gewicht: 3055g
  7
SLDTEXTSTYLE0
 73
     1
 44
1.0
  0
LINE
  5
7E
330
1F
100
AcDbEntity
  8
0
  6
Continuous
 62
     7
370
    25
100
AcDbLine
 10
177.3212945094
 20
143.4900940553
 30
0.0
 11
183.8212927809
 21
143.4900940553
 31
0.0
  0
LINE
  5
7F
330
1F
100
AcDbEntity
  8
0
  6
Continuous
 62
     7
370
    25
100
AcDbLine
 10
183.8212927809
 20
157.4900963501
 30
0.0
 11
177.3212945094
 21
157.4900963501
 31
0.0
  0
ARC
  5
80
330
1F
100
AcDbEntity
  8
0
  6
Continuous
 62
     7
370
    25
100
AcDbCircle
 10
183.8212930193
 20
143.9900945023
 30
0.0
 40
0.5
100
AcDbArc
 50
270.0
 51
0.0
  0
ARC
  5
81
330
1F
100
AcDbEntity
  8
0
  6
Continuous
 62
     7
370
    25
100
AcDbCircle
 10
183.8212930193
 20
156.9900945023
 30
0.0
 40
0.5
100
AcDbArc
 50
0.0
 51
90.0
  0
LINE
  5
82
330
1F
100
AcDbEntity
  8
0
  6
Continuous
 62
     7
370
    25
100
AcDbLine
 10
177.3212945094
 20
89.4900926546
 30
0.0
 11
183.8212927809
 21
89.4900926546
 31
0.0
  0
LINE
  5
83
330
1F
100
AcDbEntity
  8
0
  6
Continuous
 62
     7
370
    25
100
AcDbLine
 10
183.8212927809
 20
103.4900949493
 30
0.0
 11
177.3212945094
 21
103.4900949493
 31
0.0
  0
ARC
  5
84
330
1F
100
AcDbEntity
  8
0
  6
Continuous
 62
     7
370
    25
100
AcDbCircle
 10
183.8212930193
 20
89.9900945023
 30
0.0
 40
0.5
100
AcDbArc
 50
270.0
 51
0.0
  0
ARC
  5
85
330
1F
100
AcDbEntity
  8
0
  6
Continuous
 62
     7
370
    25
100
AcDbCircle
 10
183.8212930193
 20
102.9900945023
 30
0.0
 40
0.5
100
AcDbArc
 50
0.0
 51
90.0
  0
LINE
  5
86
330
1F
100
AcDbEntity
  8
0
  6
Continuous
 62
     7
370
    25
100
AcDbLine
 10
221.521290206
 20
135.4900946066
 30
0.0
 11
206.3212862244
 21
135.4900946066
 31
0.0
  0
LINE
  5
87
330
1F
100
AcDbEntity
  8
0
  6
Continuous
 62
     7
370
    25
100
AcDbLine
 10
206.3212862244
 20
111.490094398
 30
0.0
 11
221.521290206
 21
111.490094398
 31
0.0
  0
ARC
  5
88
330
1F
100
AcDbEntity
  8
0
  6
Continuous
 62
     7
370
    25
100
AcDbCircle
 10
221.5212930193
 20
134.6900945023
 30
0.0
 40
0.8000000000000114
100
AcDbArc
 50
0.0
 51
90.0
  0
ARC
  5
89
330
1F
100
AcDbEntity
  8
0
  6
Continuous
 62
     7
370
    25
100
AcDbCircle
 10
221.5212930193
 20
112.2900945023
 30
0.0
 40
0.8000000000000114
100
AcDbArc
 50
270.0
 51
0.0
  0
ARC
  5
8A
330
1F
100
AcDbEntity
  8
0
  6
Continuous
 62
     7
370
    25
100
AcDbCircle
 10
205.7212930193
 20
114.8900945023
 30
0.0
 40
0.6000000000000085
100
AcDbArc
 50
0.0
 51
90.0
  0
ARC
  5
8B
330
1F
100
AcDbEntity
  8
0
  6
Continuous
 62
     7
370
    25
100
AcDbCircle
 10
205.7212930193
 20
132.0900945023
 30
0.0
 40
0.6000000000000227
100
AcDbArc
 50
270.0
 51
0.0
  0
LINE
  5
8C
330
1F
100
AcDbEntity
  8
0
  6
Continuous
 62
     7
370
    25
100
AcDbLine
 10
205.7212909689
 20
131.4900948823
 30
0.0
 11
201.3212909928
 21
131.4900948823
 31
0.0
  0
LINE
  5
8D
330
1F
100
AcDbEntity
  8
0
  6
Continuous
 62
     7
370
    25
100
AcDbLine
 10
201.3212909928
 20
115.4900941223
 30
0.0
 11
205.7212909689
 21
115.4900941223
 31
0.0
  0
ARC
  5
8E
330
1F
100
AcDbEntity
  8
0
  6
Continuous
 62
     7
370
    25
100
AcDbCircle
 10
176.3212930193
 20
88.4900945023
 30
0.0
 40
1.0
100
AcDbArc
 50
270.0
 51
0.0
  0
ARC
  5
8F
330
1F
100
AcDbEntity
  8
0
  6
Continuous
 62
     7
370
    25
100
AcDbCircle
 10
176.3212930193
 20
158.4900945023
 30
0.0
 40
1.0
100
AcDbArc
 50
0.0
 51
90.0
  0
LINE
  5
90
330
1F
100
AcDbEntity
  8
0
  6
Continuous
 62
     7
370
    25
100
AcDbLine
 10
125.6721450022
 20
87.490096052
 30
0.0
 11
176.3212924829
 21
87.490096052
 31
0.0
  0
LINE
  5
91
330
1F
100
AcDbEntity
  8
0
  6
Continuous
 62
     7
370
    25
100
AcDbLine
 10
176.3212924829
 20
159.4900929526
 30
0.0
 11
125.6721450022
 21
159.4900929526
 31
0.0
  0
ARC
  5
92
330
1F
100
AcDbEntity
  8
0
  6
Continuous
 62
     7
370
    25
100
AcDbCircle
 10
125.6721459804
 20
88.4900945023
 30
0.0
 40
1.000000000000008
100
AcDbArc
 50
210.0
 51
270.0
  0
ARC
  5
93
330
1F
100
AcDbEntity
  8
0
  6
Continuous
 62
     7
370
    25
100
AcDbCircle
 10
125.6721459804
 20
158.4900945023
 30
0.0
 40
1.000000000000008
100
AcDbArc
 50
90.0
 51
150.0
  0
LINE
  5
94
330
1F
100
AcDbEntity
  8
0
  6
Continuous
 62
     7
370
    25
100
AcDbLine
 10
124.8061193159
 20
158.9900956646
 30
0.0
 11
119.6099689236
 21
149.9900941894
 31
0.0
  0
LINE
  5
95
330
1F
100
AcDbEntity
  8
0
  6
Continuous
 62
     7
370
    25
100
AcDbLine
 10
119.6099689236
 20
96.9900948152
 30
0.0
 11
124.8061193159
 21
87.99009334
 31
0.0
  0
LINE
  5
96
330
1F
100
AcDbEntity
  8
0
  6
Continuous
 62
     7
370
    25
100
AcDbLine
 10
77.6212930336
 20
91.9900939957
 30
0.0
 11
82.2712929925
 21
91.9900939957
 31
0.0
  0
LINE
  5
97
330
1F
100
AcDbEntity
  8
0
  6
Continuous
 62
     7
370
    25
100
AcDbLine
 10
82.2992815642
 20
154.990095009
 30
0.0
 11
77.6212930336
 21
154.990095009
 31
0.0
  0
ARC
  5
98
330
1F
100
AcDbEntity
  8
0
  6
Continuous
 62
     7
370
    25
100
AcDbCircle
 10
77.6212930193
 20
92.2900945023
 30
0.0
 40
0.3000000000000114
100
AcDbArc
 50
180.0
 51
270.0
  0
ARC
  5
99
330
1F
100
AcDbEntity
  8
0
  6
Continuous
 62
     7
370
    25
100
AcDbCircle
 10
77.6212930193
 20
154.6900945023
 30
0.0
 40
0.3000000000000114
100
AcDbArc
 50
90.0
 51
180.0
  0
ARC
  5
9A
330
1F
100
AcDbEntity
  8
0
  6
Continuous
 62
     7
370
    25
100
AcDbCircle
 10
104.2712930193
 20
96.4900945023
 30
0.0
 40
1.000000000000006
100
AcDbArc
 50
90.0
 51
143.1139143113
  0
ARC
  5
9B
330
1F
100
AcDbEntity
  8
0
  6
Continuous
 62
     7
370
    25
100
AcDbCircle
 10
104.2712930193
 20
150.4900945023
 30
0.0
 40
1.000000000000006
100
AcDbArc
 50
216.9123953447
 51
270.0
  0
ARC
  5
9C
330
1F
100
AcDbEntity
  8
0
  6
Continuous
 62
     7
370
    25
100
AcDbCircle
 10
118.7439427501
 20
96.4900945023
 30
0.0
 40
1.000000000000001
100
AcDbArc
 50
30.0
 51
90.0
  0
ARC
  5
9D
330
1F
100
AcDbEntity
  8
0
  6
Continuous
 62
     7
370
    25
100
AcDbCircle
 10
118.7439427501
 20
150.4900945023
 30
0.0
 40
1.000000000000008
100
AcDbArc
 50
270.0
 51
330.0
  0
LINE
  5
9E
330
1F
100
AcDbEntity
  8
0
  6
Continuous
 62
     7
370
    25
100
AcDbLine
 10
104.2712928733
 20
97.4900939659
 30
0.0
 11
118.7439432373
 21
97.4900939659
 31
0.0
  0
LINE
  5
9F
330
1F
100
AcDbEntity
  8
0
  6
Continuous
 62
     7
370
    25
100
AcDbLine
 10
118.7439432373
 20
149.4900950388
 30
0.0
 11
104.2712928733
 21
149.4900950388
 31
0.0
  0
ARC
  5
A0
330
1F
100
AcDbEntity
  8
0
  6
Continuous
 62
     7
370
    25
100
AcDbCircle
 10
76.8212862667
 20
98.9196568879
 30
0.0
 40
0.6000067526677242
100
AcDbArc
 50
33.5571153394
 51
90.0
  0
ARC
  5
A1
330
1F
100
AcDbEntity
  8
0
  6
Continuous
 62
     7
370
    25
100
AcDbCircle
 10
76.8212862667
 20
148.0605321167
 30
0.0
 40
0.6000067526677242
100
AcDbArc
 50
270.0
 51
326.4428846606
  0
LINE
  5
A2
330
1F
100
AcDbEntity
  8
0
  6
Continuous
 62
     7
370
    25
100
AcDbLine
 10
64.0908705076
 20
147.1478783682
 30
0.0
 11
51.5212921431
 21
146.518140395
 31
0.0
  0
LINE
  5
A3
330
1F
100
AcDbEntity
  8
0
  6
Continuous
 62
     7
370
    25
100
AcDbLine
 10
75.3212929243
 20
147.7105257258
 30
0.0
 11
72.5026835693
 21
147.5693130091
 31
0.0
  0
LINE
  5
A4
330
1F
100
AcDbEntity
  8
0
  6
Continuous
 62
     7
370
    25
100
AcDbLine
 10
72.5029052241
 20
99.4108648196
 30
0.0
 11
75.3212929243
 21
99.2696632788
 31
0.0
  0
LINE
  5
A5
330
1F
100
AcDbEntity
  8
0
  6
Continuous
 62
     7
370
    25
100
AcDbLine
 10
55.5212927988
 20
100.2616484806
 30
0.0
 11
64.0915699309
 21
99.8322752461
 31
0.0
  0
LINE
  5
A6
330
1F
100
AcDbEntity
  8
0
  6
Continuous
 62
     7
370
    25
100
AcDbLine
 10
75.3212929243
 20
99.2696632788
 30
0.0
 11
76.1780058505
 21
99.4992193923
 31
0.0
  0
LINE
  5
A7
330
1F
100
AcDbEntity
  8
0
  6
Continuous
 62
     7
370
    25
100
AcDbLine
 10
76.1780058505
 20
147.4809696123
 30
0.0
 11
75.3212929243
 21
147.7105257258
 31
0.0
  0
ARC
  5
A8
330
1F
100
AcDbEntity
  8
0
  6
Continuous
 62
     7
370
    25
100
AcDbCircle
 10
76.3332972198
 20
98.9196636406
 30
0.0
 40
0.6000000000000085
100
AcDbArc
 50
90.0
 51
105.0
  0
ARC
  5
A9
330
1F
100
AcDbEntity
  8
0
  6
Continuous
 62
     7
370
    25
100
AcDbCircle
 10
76.3332972198
 20
148.060525364
 30
0.0
 40
0.6000000000000227
100
AcDbArc
 50
255.0
 51
270.0
  0
LINE
  5
AA
330
1F
100
AcDbEntity
  8
0
  6
Continuous
 62
     7
370
    25
100
AcDbLine
 10
76.3332972542
 20
99.5196637854
 30
0.0
 11
76.8212862435
 21
99.5196637854
 31
0.0
  0
LINE
  5
AB
330
1F
100
AcDbEntity
  8
0
  6
Continuous
 62
     7
370
    25
100
AcDbLine
 10
76.8212862435
 20
147.4605252192
 30
0.0
 11
76.3332972542
 21
147.4605252192
 31
0.0
  0
ARC
  5
AC
330
1F
100
AcDbEntity
  8
0
  6
Continuous
 62
     7
370
    25
100
AcDbCircle
 10
177.7212930193
 20
107.2400945023
 30
0.0
 40
0.5999999999999948
100
AcDbArc
 50
90.0
 51
131.8103148958
  0
ARC
  5
AD
330
1F
100
AcDbEntity
  8
0
  6
Continuous
 62
     7
370
    25
100
AcDbCircle
 10
177.7212930193
 20
139.7400945023
 30
0.0
 40
0.5999999999999943
100
AcDbArc
 50
228.1896851042
 51
270.0
  0
ARC
  5
AE
330
1F
100
AcDbEntity
  8
0
  6
Continuous
 62
     7
370
    25
100
AcDbCircle
 10
200.3212930193
 20
108.4900945023
 30
0.0
 40
1.000000000000014
100
AcDbArc
 50
270.0
 51
0.0
  0
ARC
  5
AF
330
1F
100
AcDbEntity
  8
0
  6
Continuous
 62
     7
370
    25
100
AcDbCircle
 10
200.3212930193
 20
138.4900945023
 30
0.0
 40
1.0
100
AcDbArc
 50
0.0
 51
90.0
  0
LINE
  5
B0
330
1F
100
AcDbEntity
  8
0
  6
Continuous
 62
     7
370
    25
100
AcDbLine
 10
179.8212921253
 20
107.4900937424
 30
0.0
 11
200.3212964168
 21
107.4900937424
 31
0.0
  0
LINE
  5
B1
330
1F
100
AcDbEntity
  8
0
  6
Continuous
 62
     7
370
    25
100
AcDbLine
 10
200.3212964168
 20
139.4900952623
 30
0.0
 11
179.8212921253
 21
139.4900952623
 31
0.0
  0
LINE
  5
B2
330
1F
100
AcDbEntity
  8
0
  6
Continuous
 62
     7
370
    25
100
AcDbLine
 10
179.8212921253
 20
139.4900952623
 30
0.0
 11
178.5913726321
 21
139.1605393187
 31
0.0
  0
LINE
  5
B3
330
1F
100
AcDbEntity
  8
0
  6
Continuous
 62
     7
370
    25
100
AcDbLine
 10
178.5913726321
 20
107.819649686
 30
0.0
 11
179.8212921253
 21
107.4900937424
 31
0.0
  0
ARC
  5
B4
330
1F
100
AcDbEntity
  8
0
  6
Continuous
 62
     7
370
    25
100
AcDbCircle
 10
178.4360837381
 20
107.2400945023
 30
0.0
 40
0.6000000000000085
100
AcDbArc
 50
75.0
 51
90.0
  0
ARC
  5
B5
330
1F
100
AcDbEntity
  8
0
  6
Continuous
 62
     7
370
    25
100
AcDbCircle
 10
178.4360837381
 20
139.7400945023
 30
0.0
 40
0.5999999999999943
100
AcDbArc
 50
270.0
 51
285.0
  0
LINE
  5
B6
330
1F
100
AcDbEntity
  8
0
  6
Continuous
 62
     7
370
    25
100
AcDbLine
 10
177.72129383
 20
107.8400940791
 30
0.0
 11
178.4360801807
 21
107.8400940791
 31
0.0
  0
LINE
  5
B7
330
1F
100
AcDbEntity
  8
0
  6
Continuous
 62
     7
370
    25
100
AcDbLine
 10
178.4360801807
 20
139.1400949255
 30
0.0
 11
177.72129383
 21
139.1400949255
 31
0.0
  0
LINE
  5
B8
330
1F
100
AcDbEntity
  8
0
  6
Continuous
 62
     7
370
    25
100
AcDbLine
 10
46.704629623
 20
102.6200943783
 30
0.0
 11
54.1212933144
 21
102.6200943783
 31
0.0
  0
ARC
  5
B9
330
1F
100
AcDbEntity
  8
0
  6
Continuous
 62
     7
370
    25
100
AcDbCircle
 10
54.1212930193
 20
101.2200945023
 30
0.0
 40
1.399999999999997
100
AcDbArc
 50
42.2465410162
 51
90.0
  0
LINE
  5
BA
330
1F
100
AcDbEntity
  8
0
  6
Continuous
 62
     7
370
    25
100
AcDbLine
 10
45.4223250976
 20
103.7690614507
 30
0.0
 11
46.5624557814
 21
102.6289307669
 31
0.0
  0
LINE
  5
BB
330
1F
100
AcDbEntity
  8
0
  6
Continuous
 62
     7
370
    25
100
AcDbLine
 10
46.5624557814
 20
144.3512582377
 30
0.0
 11
45.4311950138
 21
143.2199956075
 31
0.0
  0
ARC
  5
BC
330
1F
100
AcDbEntity
  8
0
  6
Continuous
 62
     7
370
    25
100
AcDbCircle
 10
50.1212930193
 20
145.7600945023
 30
0.0
 40
1.399999999999984
100
AcDbArc
 50
270.0
 51
301.7485287426
  0
LINE
  5
BD
330
1F
100
AcDbEntity
  8
0
  6
Continuous
 62
     7
370
    25
100
AcDbLine
 10
50.1212926587
 20
144.3600946263
 30
0.0
 11
46.6955585411
 21
144.3600946263
 31
0.0
  0
LINE
  5
BE
330
1F
100
AcDbEntity
  8
0
  6
Continuous
 62
     7
370
    25
100
AcDbLine
 10
184.3212937942
 20
143.9900950686
 30
0.0
 11
184.3212937942
 21
156.9900953368
 31
0.0
  0
LINE
  5
BF
330
1F
100
AcDbEntity
  8
0
  6
Continuous
 62
     7
370
    25
100
AcDbLine
 10
184.3212937942
 20
89.9900936678
 30
0.0
 11
184.3212937942
 21
102.9900939361
 31
0.0
  0
LINE
  5
C0
330
1F
100
AcDbEntity
  8
0
  6
Continuous
 62
     7
370
    25
100
AcDbLine
 10
206.3212862244
 20
135.4900946066
 30
0.0
 11
206.3212862244
 21
111.490094398
 31
0.0
  0
LINE
  5
C1
330
1F
100
AcDbEntity
  8
0
  6
Continuous
 62
     7
370
    25
100
AcDbLine
 10
222.321288847
 20
134.690094103
 30
0.0
 11
222.321288847
 21
112.2900949017
 31
0.0
  0
SPLINE
  5
C2
330
1F
100
AcDbEntity
  8
0
  6
Continuous
 62
     7
370
    25
100
AcDbSpline
210
0.0
220
0.0
230
1.0
 70
    11
 71
     3
 72
    96
 73
    92
 74
     0
 42
0.000000001
 43
0.00000001
 40
0.0
 40
0.0
 40
0.0
 40
0.0
 40
0.0312500000000027
 40
0.0312500000000027
 40
0.0468750000000036
 40
0.0468750000000036
 40
0.0625000000000045
 40
0.0625000000000045
 40
0.0937500000000054
 40
0.0937500000000054
 40
0.1093750000000058
 40
0.1093750000000058
 40
0.1250000000000063
 40
0.1250000000000063
 40
0.1562500000000079
 40
0.1562500000000079
 40
0.1718750000000087
 40
0.1718750000000087
 40
0.1875000000000095
 40
0.1875000000000095
 40
0.2187500000000108
 40
0.2187500000000108
 40
0.2343750000000115
 40
0.2343750000000115
 40
0.2500000000000121
 40
0.2656250000000127
 40
0.2656250000000127
 40
0.2812500000000133
 40
0.2812500000000133
 40
0.3125000000000148
 40
0.3125000000000148
 40
0.3281250000000157
 40
0.3281250000000157
 40
0.3437500000000166
 40
0.3437500000000166
 40
0.3593750000000175
 40
0.3593750000000175
 40
0.3750000000000184
 40
0.3750000000000184
 40
0.4062500000000195
 40
0.4062500000000195
 40
0.4375000000000207
 40
0.4375000000000207
 40
0.4687500000000218
 40
0.4687500000000218
 40
0.4843750000000219
 40
0.4843750000000219
 40
0.500000000000022
 40
0.500000000000022
 40
0.5312500000000213
 40
0.5312500000000213
 40
0.5468750000000214
 40
0.5468750000000214
 40
0.5625000000000215
 40
0.5625000000000215
 40
0.593750000000021
 40
0.593750000000021
 40
0.6250000000000203
 40
0.6250000000000203
 40
0.6406250000000197
 40
0.6406250000000197
 40
0.656250000000019
 40
0.656250000000019
 40
0.6875000000000171
 40
0.6875000000000171
 40
0.7187500000000153
 40
0.7187500000000153
 40
0.7500000000000135
 40
0.7500000000000135
 40
0.7656250000000128
 40
0.7656250000000128
 40
0.7812500000000119
 40
0.796875000000011
 40
0.796875000000011
 40
0.8125000000000101
 40
0.8125000000000101
 40
0.8437500000000083
 40
0.8437500000000083
 40
0.8593750000000071
 40
0.8593750000000071
 40
0.8750000000000059
 40
0.8750000000000059
 40
0.9062500000000042
 40
0.9062500000000042
 40
0.9375000000000027
 40
0.9375000000000027
 40
0.9531250000000022
 40
0.9531250000000022
 40
0.9687500000000018
 40
0.9687500000000018
 40
1.0
 40
1.0
 40
1.0
 40
1.0
 10
152.3212930193291
 20
130.3958864774519
 30
0.0
 10
152.7900886010856
 20
130.3958864774519
 30
0.0
 10
153.2515888833602
 20
130.3534599533408
 30
0.0
 10
153.9333031057649
 20
130.2284209179702
 30
0.0
 10
154.15877280758
 20
130.1764337725616
 30
0.0
 10
154.6060955709059
 20
130.0513269593174
 30
0.0
 10
154.8290828374472
 20
129.9777212228148
 30
0.0
 10
155.4808656875228
 20
129.728175831915
 30
0.0
 10
155.8941615582821
 20
129.5238913238575
 30
0.0
 10
156.4824404411055
 20
129.1604062819439
 30
0.0
 10
156.6732204238099
 20
129.0296700524868
 30
0.0
 10
157.0437229106874
 20
128.7481720794651
 30
0.0
 10
157.2226604406146
 20
128.5978275777494
 30
0.0
 10
157.7308440872076
 20
128.1263851259472
 30
0.0
 10
158.0356694516281
 20
127.7821955536546
 30
0.0
 10
158.4407952083573
 20
127.2195830684689
 30
0.0
 10
158.5676856726289
 20
127.0232036466056
 30
0.0
 10
158.8000483672105
 20
126.6191056390523
 30
0.0
 10
158.9049634722367
 20
126.4126351861178
 30
0.0
 10
159.1866372118745
 20
125.7801945413394
 30
0.0
 10
159.3306760429925
 20
125.3413313226741
 30
0.0
 10
159.4778572651178
 20
124.6557452205539
 30
0.0
 10
159.5148980586254
 20
124.4240248796982
 30
0.0
 10
159.5640791435036
 20
123.962468872512
 30
0.0
 10
159.588905306102
 20
123.5003861342785
 30
0.0
 10
159.5654779569554
 20
123.037259277717
 30
0.0
 10
159.5173858056737
 20
122.5735989721076
 30
0.0
 10
159.4807144697049
 20
122.3408134106774
 30
0.0
 10
159.3360444738576
 20
121.658080168768
 30
0.0
 10
159.1935176054996
 20
121.2183315335745
 30
0.0
 10
158.911706150516
 20
120.5813255196944
 30
0.0
 10
158.8056528472682
 20
120.3717171575936
 30
0.0
 10
158.5745947779736
 20
119.9681604331624
 30
0.0
 10
158.4494900215613
 20
119.7736362754524
 30
0.0
 10
158.1807418439126
 20
119.3985693084027
 30
0.0
 10
158.037096580161
 20
119.2180279932605
 30
0.0
 10
157.7313112130957
 20
118.8708262301909
 30
0.0
 10
157.5683809769812
 20
118.7034509935084
 30
0.0
 10
157.0568732322978
 20
118.2278502232229
 30
0.0
 10
156.6894752605107
 20
117.948647082637
 30
0.0
 10
155.9043698804407
 20
117.4616882730034
 30
0.0
 10
155.482288303445
 20
117.2527958214072
 30
0.0
 10
154.6170745016366
 20
116.9210608825433
 30
0.0
 10
154.172152346305
 20
116.7961438796834
 30
0.0
 10
153.4863920293024
 20
116.6695213003726
 30
0.0
 10
153.2535159537463
 20
116.6374424913399
 30
0.0
 10
152.7890015681168
 20
116.5949857869849
 30
0.0
 10
152.5571867692707
 20
116.5844394692323
 30
0.0
 10
151.8630365140549
 20
116.5840326098223
 30
0.0
 10
151.4019833378303
 20
116.625106969565
 30
0.0
 10
150.7130576446171
 20
116.7508831793693
 30
0.0
 10
150.4845022691056
 20
116.8035944477443
 30
0.0
 10
150.0377297913759
 20
116.9284836447339
 30
0.0
 10
149.8183461277319
 20
117.0008535557729
 30
0.0
 10
149.1720961214996
 20
117.2475717197402
 30
0.0
 10
148.7559185628915
 20
117.4518974037572
 30
0.0
 10
147.9617304584416
 20
117.9421505645191
 30
0.0
 10
147.5946211858121
 20
118.2210839166724
 30
0.0
 10
147.0881286036799
 20
118.6897870861094
 30
0.0
 10
146.9267110566886
 20
118.8544637556444
 30
0.0
 10
146.6192194797443
 20
119.2013794995871
 30
0.0
 10
146.4725591122142
 20
119.3845966909224
 30
0.0
 10
146.0658723779715
 20
119.9493282204302
 30
0.0
 10
145.8358761657153
 20
120.3484219748268
 30
0.0
 10
145.4586486113214
 20
121.1924836015504
 30
0.0
 10
145.3113163582502
 20
121.6420102038549
 30
0.0
 10
145.1167522163857
 20
122.5475374734091
 30
0.0
 10
145.0668222766642
 20
123.0075079150031
 30
0.0
 10
145.0652196510359
 20
123.7086404918374
 30
0.0
 10
145.0771778935091
 20
123.9435873172332
 30
0.0
 10
145.125121226409
 20
124.4058416589412
 30
0.0
 10
145.1970257058369
 20
124.8632785099985
 30
0.0
 10
145.3160973005837
 20
125.3112456468879
 30
0.0
 10
145.4591126995439
 20
125.7544168193901
 30
0.0
 10
145.5430143951497
 20
125.9742294230167
 30
0.0
 10
145.8250370537029
 20
126.6116627224051
 30
0.0
 10
146.0544066532404
 20
127.0123362820739
 30
0.0
 10
146.4590620203411
 20
127.5780611321864
 30
0.0
 10
146.6049933803097
 20
127.761611807911
 30
0.0
 10
146.9121385193956
 20
128.1103293675379
 30
0.0
 10
147.0734687692317
 20
128.2759053978784
 30
0.0
 10
147.5799634857675
 20
128.7472859254341
 30
0.0
 10
147.9485997024304
 20
129.028700636524
 30
0.0
 10
148.7417540954475
 20
129.5207383783066
 30
0.0
 10
149.1562316145383
 20
129.7254648859183
 30
0.0
 10
149.803474930282
 20
129.9741775581682
 30
0.0
 10
150.0235085816921
 20
130.0472781281079
 30
0.0
 10
150.4722921264792
 20
130.1736074165274
 30
0.0
 10
150.701134412634
 20
130.2267276688597
 30
0.0
 10
151.3886521925732
 20
130.3534191911365
 30
0.0
 10
151.8524974375726
 20
130.3958864774519
 30
0.0
 10
152.3212930193291
 20
130.3958864774519
 30
0.0
  0
LINE
  5
C3
330
1F
100
AcDbEntity
  8
0
  6
Continuous
 62
     7
370
    25
100
AcDbLine
 10
177.3212945094
 20
88.4900943533
 30
0.0
 11
177.3212945094
 21
158.4900946513
 31
0.0
  0
SPLINE
  5
C4
330
1F
100
AcDbEntity
  8
0
  6
Continuous
 62
     7
370
    25
100
AcDbSpline
210
0.0
220
0.0
230
1.0
 70
    11
 71
     3
 72
    66
 73
    62
 74
     0
 42
0.000000001
 43
0.00000001
 40
0.0
 40
0.0
 40
0.0
 40
0.0
 40
0.0312499999999983
 40
0.0312499999999983
 40
0.0624999999999967
 40
0.0624999999999967
 40
0.1249999999999939
 40
0.1249999999999939
 40
0.156249999999992
 40
0.156249999999992
 40
0.1874999999999902
 40
0.1874999999999902
 40
0.2187499999999884
 40
0.2187499999999884
 40
0.2499999999999866
 40
0.2499999999999866
 40
0.2812499999999847
 40
0.2812499999999847
 40
0.3124999999999829
 40
0.3124999999999829
 40
0.3437499999999828
 40
0.3437499999999828
 40
0.3749999999999828
 40
0.3749999999999828
 40
0.4062499999999828
 40
0.4062499999999828
 40
0.4374999999999827
 40
0.4374999999999827
 40
0.4687499999999827
 40
0.4687499999999827
 40
0.4999999999999826
 40
0.4999999999999826
 40
0.5312499999999825
 40
0.5312499999999825
 40
0.5624999999999823
 40
0.5624999999999823
 40
0.5937499999999822
 40
0.5937499999999822
 40
0.6249999999999821
 40
0.6249999999999821
 40
0.6562499999999836
 40
0.6562499999999836
 40
0.687499999999985
 40
0.687499999999985
 40
0.7187499999999865
 40
0.7187499999999865
 40
0.7499999999999879
 40
0.7499999999999879
 40
0.7812499999999895
 40
0.7812499999999895
 40
0.8124999999999909
 40
0.8124999999999909
 40
0.8437499999999923
 40
0.8437499999999923
 40
0.8749999999999938
 40
0.8749999999999938
 40
0.9062499999999952
 40
0.9062499999999952
 40
0.9374999999999967
 40
0.9374999999999967
 40
1.0
 40
1.0
 40
1.0
 40
1.0
 10
134.7819673797437
 20
98.21356022640657
 30
0.0
 10
134.8007770343249
 20
98.37186122049494
 30
0.0
 10
134.8437843763167
 20
98.52733605608402
 30
0.0
 10
134.9757226383813
 20
98.83263355813928
 30
0.0
 10
135.0657863669784
 20
98.98319335608254
 30
0.0
 10
135.3922364294902
 20
99.40632553806932
 30
0.0
 10
135.6921419498563
 20
99.66010063867475
 30
0.0
 10
136.215777732929
 20
99.96432916800168
 30
0.0
 10
136.4056438519078
 20
100.0548386476935
 30
0.0
 10
136.7995609666465
 20
100.2065817413178
 30
0.0
 10
137.0040431048659
 20
100.2684556120695
 30
0.0
 10
137.4277369079998
 20
100.3643251758333
 30
0.0
 10
137.6473299747378
 20
100.397988828528
 30
0.0
 10
138.0846627628632
 20
100.4346105090167
 30
0.0
 10
138.3044718896113
 20
100.4381379034799
 30
0.0
 10
138.746420526957
 20
100.4150165445546
 30
0.0
 10
138.9665560611404
 20
100.3881796167392
 30
0.0
 10
139.3924641593204
 20
100.3062049128662
 30
0.0
 10
139.6001606727242
 20
100.2510062819757
 30
0.0
 10
140.0044544322353
 20
100.1110516198698
 30
0.0
 10
140.1970912806934
 20
100.0274578105258
 30
0.0
 10
140.5561657011608
 20
99.83692160553088
 30
0.0
 10
140.7239111939483
 20
99.72952677513713
 30
0.0
 10
141.0331417969258
 20
99.48927113454626
 30
0.0
 10
141.1692160722824
 20
99.36062350983258
 30
0.0
 10
141.4043858756783
 20
99.08705688051714
 30
0.0
 10
141.5043538192915
 20
98.94034210188212
 30
0.0
 10
141.6584153717214
 20
98.63818521768775
 30
0.0
 10
141.7122402561992
 20
98.48451407144604
 30
0.0
 10
141.7730027464095
 20
98.17230006850957
 30
0.0
 10
141.7792196967292
 20
98.01268937013313
 30
0.0
 10
141.7425937360646
 20
97.70451185647391
 30
0.0
 10
141.7003422223219
 20
97.55373339853647
 30
0.0
 10
141.5676010123572
 20
97.260283352559
 30
0.0
 10
141.4793795122207
 20
97.1223781117149
 30
0.0
 10
141.2621954820059
 20
96.862434018481
 30
0.0
 10
141.1317141898513
 20
96.73964322051293
 30
0.0
 10
140.8410947734168
 20
96.51858355724397
 30
0.0
 10
140.6802784091613
 20
96.41904773136322
 30
0.0
 10
140.3282288734265
 20
96.24072516426003
 30
0.0
 10
140.1403397138963
 20
96.1638029897107
 30
0.0
 10
139.747820606772
 20
96.03444289930557
 30
0.0
 10
139.5405734282606
 20
95.98127680088875
 30
0.0
 10
139.1154599870922
 20
95.90025238905278
 30
0.0
 10
138.8997131663131
 20
95.87254858570061
 30
0.0
 10
138.462045233653
 20
95.84161733621187
 30
0.0
 10
138.2379358697433
 20
95.83858389288068
 30
0.0
 10
137.7973446132733
 20
95.85777828467315
 30
0.0
 10
137.5803473075921
 20
95.87968457996273
 30
0.0
 10
137.1529652875026
 20
95.94842722570007
 30
0.0
 10
136.9408971601529
 20
95.99594233201402
 30
0.0
 10
136.5397286009856
 20
96.113926164549
 30
0.0
 10
136.3489537082398
 20
96.18443513759858
 30
0.0
 10
135.9877168292282
 20
96.3500188737645
 30
0.0
 10
135.8166871871858
 20
96.44593275472462
 30
0.0
 10
135.5116137675437
 20
96.65603228417939
 30
0.0
 10
135.3754110269166
 20
96.77098199650874
 30
0.0
 10
135.1378798564324
 20
97.02283849524193
 30
0.0
 10
135.0380177580776
 20
97.15905235798725
 30
0.0
 10
134.808681430178
 20
97.58282194898656
 30
0.0
 10
134.7443480705812
 20
97.89695823822977
 30
0.0
 10
134.7819673797437
 20
98.21356022640657
 30
0.0
  0
SPLINE
  5
C5
330
1F
100
AcDbEntity
  8
0
  6
Continuous
 62
     7
370
    25
100
AcDbSpline
210
0.0
220
0.0
230
1.0
 70
    11
 71
     3
 72
    68
 73
    64
 74
     0
 42
0.000000001
 43
0.00000001
 40
0.0
 40
0.0
 40
0.0
 40
0.0
 40
0.0312500000000013
 40
0.0312500000000013
 40
0.0625000000000026
 40
0.0625000000000026
 40
0.0937500000000039
 40
0.0937500000000039
 40
0.1250000000000052
 40
0.1250000000000052
 40
0.1562500000000065
 40
0.1562500000000065
 40
0.1875000000000078
 40
0.1875000000000078
 40
0.2187500000000091
 40
0.2187500000000091
 40
0.2500000000000095
 40
0.2500000000000095
 40
0.2812500000000099
 40
0.2812500000000099
 40
0.3125000000000103
 40
0.3125000000000103
 40
0.3437500000000107
 40
0.3437500000000107
 40
0.3750000000000111
 40
0.3750000000000111
 40
0.4062500000000115
 40
0.4062500000000115
 40
0.4375000000000119
 40
0.4375000000000119
 40
0.4687500000000124
 40
0.4687500000000124
 40
0.5000000000000128
 40
0.5000000000000128
 40
0.5312500000000132
 40
0.5312500000000132
 40
0.5625000000000135
 40
0.5625000000000135
 40
0.6250000000000125
 40
0.6250000000000125
 40
0.6562500000000114
 40
0.6562500000000114
 40
0.6875000000000104
 40
0.6875000000000104
 40
0.7187500000000094
 40
0.7187500000000094
 40
0.7500000000000083
 40
0.7500000000000083
 40
0.7812500000000073
 40
0.7812500000000073
 40
0.8125000000000063
 40
0.8125000000000063
 40
0.8437500000000053
 40
0.8437500000000053
 40
0.8750000000000042
 40
0.8750000000000042
 40
0.9062500000000032
 40
0.9062500000000032
 40
0.9375000000000022
 40
0.9375000000000022
 40
0.9687500000000011
 40
0.9687500000000011
 40
1.0
 40
1.0
 40
1.0
 40
1.0
 10
135.5952234026664
 20
150.3802308992252
 30
0.0
 10
135.7449766589004
 20
150.4900280053822
 30
0.0
 10
135.9085271172981
 20
150.5872804571391
 30
0.0
 10
136.260986840242
 20
150.7595207587845
 30
0.0
 10
136.4518541293058
 20
150.8350483353998
 30
0.0
 10
136.8498062624686
 20
150.9608678856249
 30
0.0
 10
137.0555380028334
 20
151.0110727382654
 30
0.0
 10
137.480039895163
 20
151.0874995851786
 30
0.0
 10
137.7005829349617
 20
151.113653887919
 30
0.0
 10
138.1393396514367
 20
151.1401990683525
 30
0.0
 10
138.3590181261436
 20
151.1410418386054
 30
0.0
 10
138.7989781642789
 20
151.11775908117
 30
0.0
 10
139.0197719922054
 20
151.0932521604654
 30
0.0
 10
139.4446037490783
 20
151.0203069355215
 30
0.0
 10
139.6508866944181
 20
150.971858502216
 30
0.0
 10
140.0507083382809
 20
150.8495367354771
 30
0.0
 10
140.243334517983
 20
150.7755489213988
 30
0.0
 10
140.5987350749041
 20
150.6067099207843
 30
0.0
 10
140.7637262804809
 20
150.5112750319132
 30
0.0
 10
141.0663751528618
 20
150.2958690831282
 30
0.0
 10
141.2012865363398
 20
150.1774053884341
 30
0.0
 10
141.4301071443017
 20
149.9247671087134
 30
0.0
 10
141.5257886620323
 20
149.7889280079891
 30
0.0
 10
141.6733295366089
 20
149.5003395736993
 30
0.0
 10
141.7232684555372
 20
149.3518188694646
 30
0.0
 10
141.7760187220284
 20
149.0460677846158
 30
0.0
 10
141.7782165817233
 20
148.8869167484015
 30
0.0
 10
141.7335525060653
 20
148.5739310487332
 30
0.0
 10
141.6874611117859
 20
148.4189961979413
 30
0.0
 10
141.5476219078755
 20
148.1125709002936
 30
0.0
 10
141.4552482547966
 20
147.9647161901744
 30
0.0
 10
141.2317433537631
 20
147.6847940336642
 30
0.0
 10
141.0984378073266
 20
147.5505928382039
 30
0.0
 10
140.8019072641274
 20
147.3057489887358
 30
0.0
 10
140.6387635883399
 20
147.1944651165809
 30
0.0
 10
140.2837169678371
 20
146.9941390052268
 30
0.0
 10
140.0928133663109
 20
146.9060708178966
 30
0.0
 10
139.4995608287423
 20
146.685262004037
 30
0.0
 10
139.0642420035473
 20
146.5920292915574
 30
0.0
 10
138.4075010342776
 20
146.5439112875047
 30
0.0
 10
138.1844524206146
 20
146.5427068303126
 30
0.0
 10
137.7427986799098
 20
146.5707090733992
 30
0.0
 10
137.5261757783495
 20
146.599499692188
 30
0.0
 10
137.1012303730078
 20
146.6860517464285
 30
0.0
 10
136.8907947092344
 20
146.7446536901745
 30
0.0
 10
136.4911197840515
 20
146.8884870590805
 30
0.0
 10
136.3020240036615
 20
146.9732155263279
 30
0.0
 10
135.9457083578202
 20
147.1681406589428
 30
0.0
 10
135.7769026533429
 20
147.2798386420465
 30
0.0
 10
135.4762014350274
 20
147.5209489436468
 30
0.0
 10
135.3430397581564
 20
147.6505920848319
 30
0.0
 10
135.1127159153751
 20
147.9281883046827
 30
0.0
 10
135.0157547363935
 20
148.0770520737504
 30
0.0
 10
134.8700346931067
 20
148.3785290408395
 30
0.0
 10
134.8195482111749
 20
148.5328375791933
 30
0.0
 10
134.7662093255157
 20
148.8487039885379
 30
0.0
 10
134.764394614011
 20
149.0055928485886
 30
0.0
 10
134.8088709930509
 20
149.3127474829493
 30
0.0
 10
134.8561338140729
 20
149.4655206037941
 30
0.0
 10
134.9954145193303
 20
149.7542838765465
 30
0.0
 10
135.0868630383978
 20
149.8909567869176
 30
0.0
 10
135.312392097156
 20
150.1498403329813
 30
0.0
 10
135.4454701464324
 20
150.2704337930683
 30
0.0
 10
135.5952234026664
 20
150.3802308992252
 30
0.0
  0
LINE
  5
C6
330
1F
100
AcDbEntity
  8
0
  6
Continuous
 62
     7
370
    25
100
AcDbLine
 10
103.2712927094
 20
93.9298172638
 30
0.0
 11
103.2712927094
 21
143.3400952414
 31
0.0
  0
SPLINE
  5
C7
330
1F
100
AcDbEntity
  8
0
  6
Continuous
 62
     7
370
    25
100
AcDbSpline
210
0.0
220
0.0
230
1.0
 70
     8
 71
     3
 72
    10
 73
     6
 74
     0
 42
0.000000001
 43
0.00000001
 40
0.0
 40
0.0
 40
0.0
 40
0.0
 40
0.5
 40
0.5
 40
1.0
 40
1.0
 40
1.0
 40
1.0
 10
103.2712930193291
 20
93.92981710171799
 30
0.0
 10
103.2712930193291
 20
93.76873875079733
 30
0.0
 10
103.2096088000401
 20
93.60825398197447
 30
0.0
 10
102.9907254838435
 20
93.37468324667437
 30
0.0
 10
102.8315534341244
 20
93.30317680606332
 30
0.0
 10
102.6712930193279
 20
93.30317680606365
 30
0.0
  0
SPLINE
  5
C8
330
1F
100
AcDbEntity
  8
0
  6
Continuous
 62
     7
370
    25
100
AcDbSpline
210
0.0
220
0.0
230
1.0
 70
    24
 71
     3
 72
    12
 73
     8
 74
     0
 42
0.000000001
 43
0.00000001
 40
0.0
 40
0.0
 40
0.0
 40
0.0
 40
0.250000000000002
 40
0.250000000000002
 40
0.500000000000004
 40
0.500000000000004
 40
1.0
 40
1.0
 40
1.0
 40
1.0
 10
102.6712930193291
 20
143.3400945023108
 30
0.0
 10
102.7622853541619
 20
143.3400945023108
 30
0.0
 10
102.852277943997
 20
143.3400945023108
 30
0.0
 10
103.0064984211351
 20
143.3400945023108
 30
0.0
 10
103.0717754577938
 20
143.3400945023108
 30
0.0
 10
103.2245636455663
 20
143.3400945023108
 30
0.0
 10
103.2712930193291
 20
143.3400945023108
 30
0.0
 10
103.2712930193291
 20
143.3400945023108
 30
0.0
  0
LINE
  5
C9
330
1F
100
AcDbEntity
  8
0
  6
Continuous
 62
     7
370
    25
100
AcDbLine
 10
82.2712929925
 20
143.3400952414
 30
0.0
 11
91.9293604797
 21
143.3400952414
 31
0.0
  0
LINE
  5
CA
330
1F
100
AcDbEntity
  8
0
  6
Continuous
 62
     7
370
    25
100
AcDbLine
 10
91.9293604797
 20
93.3031768695
 30
0.0
 11
91.9293604797
 21
143.3400952414
 31
0.0
  0
LINE
  5
CB
330
1F
100
AcDbEntity
  8
0
  6
Continuous
 62
     7
370
    25
100
AcDbLine
 10
91.9293604797
 20
93.3031768695
 30
0.0
 11
90.2712933725
 21
93.3031768695
 31
0.0
  0
SPLINE
  5
CC
330
1F
100
AcDbEntity
  8
0
  6
Continuous
 62
     7
370
    25
100
AcDbSpline
210
0.0
220
0.0
230
1.0
 70
     8
 71
     3
 72
    28
 73
    24
 74
     0
 42
0.000000001
 43
0.00000001
 40
0.0
 40
0.0
 40
0.0
 40
0.0
 40
0.1249999999999999
 40
0.1249999999999999
 40
0.1874999999999998
 40
0.1874999999999998
 40
0.2499999999999997
 40
0.2499999999999997
 40
0.3749999999999993
 40
0.3749999999999993
 40
0.4374999999999993
 40
0.4374999999999993
 40
0.4999999999999992
 40
0.4999999999999992
 40
0.6249999999999992
 40
0.6249999999999992
 40
0.7499999999999992
 40
0.7499999999999992
 40
0.8124999999999993
 40
0.8124999999999993
 40
0.8749999999999996
 40
0.8749999999999996
 40
1.0
 40
1.0
 40
1.0
 40
1.0
 10
90.27129301932908
 20
93.30317680606368
 30
0.0
 10
89.73958526183614
 20
93.30317680606368
 30
0.0
 10
89.21734669652582
 20
93.28739209211345
 30
0.0
 10
88.44747621025081
 20
93.24239667803725
 30
0.0
 10
88.19311663805948
 20
93.22384168296152
 30
0.0
 10
87.68899505736097
 20
93.17998896051503
 30
0.0
 10
87.43927223993305
 20
93.15464435356283
 30
0.0
 10
86.71368228848664
 20
93.07124227581272
 30
0.0
 10
86.2553220269051
 20
93.00537671666163
 30
0.0
 10
85.60482408351122
 20
92.89640637616986
 30
0.0
 10
85.39314203271876
 20
92.8581667404032
 30
0.0
 10
84.98907054358077
 20
92.78040800298385
 30
0.0
 10
84.79656402975989
 20
92.74090704080851
 30
0.0
 10
84.24672905873862
 20
92.62199929844249
 30
0.0
 10
83.91680028042981
 20
92.54218161701787
 30
0.0
 10
83.33232901186112
 20
92.38883845522182
 30
0.0
 10
83.08605187384768
 20
92.31750470195256
 30
0.0
 10
82.78620908114961
 20
92.22356119487795
 30
0.0
 10
82.69775222407743
 20
92.19436740151801
 30
0.0
 10
82.5443908707723
 20
92.14090082725461
 30
0.0
 10
82.47930265654607
 20
92.11654149297944
 30
0.0
 10
82.32370864060529
 20
92.05295134753469
 30
0.0
 10
82.2712930193291
 20
92.02284841244543
 30
0.0
 10
82.2712930193291
 20
92.00597151944851
 30
0.0
  0
LINE
  5
CD
330
1F
100
AcDbEntity
  8
0
  6
Continuous
 62
     7
370
    25
100
AcDbLine
 10
82.2712929925
 20
92.0059711829
 30
0.0
 11
82.2712929925
 21
91.9900939957
 31
0.0
  0
SPLINE
  5
CE
330
1F
100
AcDbEntity
  8
0
  6
Continuous
 62
     7
370
    25
100
AcDbSpline
210
0.0
220
0.0
230
1.0
 70
     8
 71
     3
 72
    17
 73
    13
 74
     0
 42
0.000000001
 43
0.00000001
 40
0.0
 40
0.0
 40
0.0
 40
0.0
 40
0.1034797280380778
 40
0.2100239090909901
 40
0.3134862262879433
 40
0.4198361712144981
 40
0.5254127947779869
 40
0.6339610881168427
 40
0.7409508662120068
 40
0.8511696072047016
 40
0.9558996557845765
 40
1.0
 40
1.0
 40
1.0
 40
1.0
 10
90.27129337248661
 20
153.9572899386693
 30
0.0
 10
89.83604488076072
 20
153.962737930307
 30
0.0
 10
88.95265843018372
 20
153.9737952506356
 30
0.0
 10
87.67183056796095
 20
154.0601540110106
 30
0.0
 10
86.45441437251903
 20
154.1880251541436
 30
0.0
 10
85.34660775619321
 20
154.3469695614621
 30
0.0
 10
84.35836927686437
 20
154.5214641344467
 30
0.0
 10
83.53364617704854
 20
154.6906305676336
 30
0.0
 10
82.88469251954992
 20
154.8385113761013
 30
0.0
 10
82.46765721607028
 20
154.9403021276238
 30
0.0
 10
82.26906047319231
 20
154.9906590272583
 30
0.0
 10
82.29237359018022
 20
154.9847494222828
 30
0.0
 10
82.29928156418063
 20
154.9829983309318
 30
0.0
  0
LINE
  5
CF
330
1F
100
AcDbEntity
  8
0
  6
Continuous
 62
     7
370
    25
100
AcDbLine
 10
91.9293604797
 20
153.9572899387
 30
0.0
 11
90.2712933725
 21
153.9572899387
 31
0.0
  0
LINE
  5
D0
330
1F
100
AcDbEntity
  8
0
  6
Continuous
 62
     7
370
    25
100
AcDbLine
 10
91.9293604797
 20
147.9487841174
 30
0.0
 11
91.9293604797
 21
153.9572899387
 31
0.0
  0
LINE
  5
D1
330
1F
100
AcDbEntity
  8
0
  6
Continuous
 62
     7
370
    25
100
AcDbLine
 10
89.5169137051
 20
147.9487841174
 30
0.0
 11
91.9293604797
 21
147.9487841174
 31
0.0
  0
SPLINE
  5
D2
330
1F
100
AcDbEntity
  8
0
  6
Continuous
 62
     7
370
    25
100
AcDbSpline
210
0.0
220
0.0
230
1.0
 70
     8
 71
     3
 72
    20
 73
    16
 74
     0
 42
0.000000001
 43
0.00000001
 40
0.0
 40
0.0
 40
0.0
 40
0.0
 40
0.2499999999999995
 40
0.2499999999999995
 40
0.3749999999999996
 40
0.3749999999999996
 40
0.4999999999999997
 40
0.4999999999999997
 40
0.6249999999999998
 40
0.6249999999999998
 40
0.7499999999999998
 40
0.7499999999999998
 40
0.8749999999999999
 40
0.8749999999999999
 40
1.0
 40
1.0
 40
1.0
 40
1.0
 10
82.2712930193291
 20
143.3400945023108
 30
0.0
 10
82.51966675361714
 20
143.9939569306082
 30
0.0
 10
82.83923684596242
 20
144.5977427126054
 30
0.0
 10
83.46154307916709
 20
145.424581448774
 30
0.0
 10
83.69296733959786
 20
145.6870100867269
 30
0.0
 10
84.21418167924756
 20
146.1836727408319
 30
0.0
 10
84.50080216188263
 20
146.4142596198534
 30
0.0
 10
85.12028690319025
 20
146.8308138444361
 30
0.0
 10
85.45458728267721
 20
147.0183116464036
 30
0.0
 10
86.179847755302
 20
147.3497086240399
 30
0.0
 10
86.56176281269248
 20
147.4892126115352
 30
0.0
 10
87.35655098886416
 20
147.7146661190062
 30
0.0
 10
87.77070918307054
 20
147.8012922305498
 30
0.0
 10
88.63625552365193
 20
147.9192730194039
 30
0.0
 10
89.07414313866374
 20
147.9487841646783
 30
0.0
 10
89.51691336501837
 20
147.9487841646783
 30
0.0
  0
SPLINE
  5
D3
330
1F
100
AcDbEntity
  8
0
  6
Continuous
 62
     7
370
    25
100
AcDbSpline
210
0.0
220
0.0
230
1.0
 70
    11
 71
     3
 72
    70
 73
    66
 74
     0
 42
0.000000001
 43
0.00000001
 40
0.0
 40
0.0
 40
0.0
 40
0.0
 40
0.0312500000000001
 40
0.0312500000000001
 40
0.0625000000000002
 40
0.0625000000000002
 40
0.0937500000000003
 40
0.0937500000000003
 40
0.1250000000000004
 40
0.1250000000000004
 40
0.1562500000000005
 40
0.1562500000000005
 40
0.1875000000000006
 40
0.1875000000000006
 40
0.2187500000000007
 40
0.2187500000000007
 40
0.2500000000000008
 40
0.2500000000000008
 40
0.2812500000000009
 40
0.2812500000000009
 40
0.3125000000000011
 40
0.3125000000000011
 40
0.3437500000000012
 40
0.3437500000000012
 40
0.3750000000000012
 40
0.3750000000000012
 40
0.4062500000000013
 40
0.4062500000000013
 40
0.4375000000000014
 40
0.4375000000000014
 40
0.4687500000000016
 40
0.4687500000000016
 40
0.5000000000000017
 40
0.5000000000000017
 40
0.5312500000000018
 40
0.5312500000000018
 40
0.5625000000000019
 40
0.5625000000000019
 40
0.593750000000002
 40
0.593750000000002
 40
0.6250000000000021
 40
0.6250000000000021
 40
0.6562500000000022
 40
0.6562500000000022
 40
0.6875000000000023
 40
0.6875000000000023
 40
0.7187500000000021
 40
0.7187500000000021
 40
0.7500000000000018
 40
0.7500000000000018
 40
0.7812500000000016
 40
0.7812500000000016
 40
0.8125000000000013
 40
0.8125000000000013
 40
0.8437500000000011
 40
0.8437500000000011
 40
0.8750000000000009
 40
0.8750000000000009
 40
0.9062500000000007
 40
0.9062500000000007
 40
0.9375000000000004
 40
0.9375000000000004
 40
0.9687500000000002
 40
0.9687500000000002
 40
1.0
 40
1.0
 40
1.0
 40
1.0
 10
85.32129301932909
 20
134.1110013882942
 30
0.0
 10
85.05674768066895
 20
134.1110013882942
 30
0.0
 10
84.79667701329186
 20
134.1356786830794
 30
0.0
 10
84.28510233345644
 20
134.2321503561213
 30
0.0
 10
84.03092704971624
 20
134.3051312721013
 30
0.0
 10
83.54665641965452
 20
134.49487187504
 30
0.0
 10
83.31701532777338
 20
134.6107325334337
 30
0.0
 10
82.88241097953988
 20
134.8833503793914
 30
0.0
 10
82.67684520289328
 20
135.0413894614452
 30
0.0
 10
82.30828806229803
 20
135.3849323124158
 30
0.0
 10
82.14280707956254
 20
135.5716947565175
 30
0.0
 10
81.85038257012745
 20
135.9752379309143
 30
0.0
 10
81.72628159350096
 20
136.1887349273435
 30
0.0
 10
81.52670239675122
 20
136.628118241266
 30
0.0
 10
81.44976881089298
 20
136.8572582284116
 30
0.0
 10
81.34691175237259
 20
137.3232323511716
 30
0.0
 10
81.32143884291345
 20
137.5561147968478
 30
0.0
 10
81.3211484323457
 20
138.0215123319276
 30
0.0
 10
81.34717306612144
 20
138.2563880893219
 30
0.0
 10
81.44932135061342
 20
138.7078812365682
 30
0.0
 10
81.52489779819659
 20
138.9259277119795
 30
0.0
 10
81.72539532934152
 20
139.3470222370174
 30
0.0
 10
81.8505241708499
 20
139.5489436215357
 30
0.0
 10
82.13988297187147
 20
139.9209731040546
 30
0.0
 10
82.30529395892695
 20
140.0936014076349
 30
0.0
 10
82.67828451707477
 20
140.410919412181
 30
0.0
 10
82.88001755016387
 20
140.5507063456826
 30
0.0
 10
83.31287680099176
 20
140.7948825992344
 30
0.0
 10
83.54679533388112
 20
140.9001121102759
 30
0.0
 10
84.03097906902374
 20
141.068269256651
 30
0.0
 10
84.28029469497925
 20
141.1315201472449
 30
0.0
 10
84.79332721940696
 20
141.2170993563475
 30
0.0
 10
85.0586210423116
 20
141.2389715212699
 30
0.0
 10
85.58095566218135
 20
141.2391351709138
 30
0.0
 10
85.8407093246631
 20
141.2181334788178
 30
0.0
 10
86.35732114030833
 20
141.1327311237402
 30
0.0
 10
86.6096871808086
 20
141.0687249404532
 30
0.0
 10
87.09121230234143
 20
140.901910420412
 30
0.0
 10
87.32406303445501
 20
140.7977772570129
 30
0.0
 10
87.76115288289375
 20
140.5517906045179
 30
0.0
 10
87.96247387155094
 20
140.4120407735691
 30
0.0
 10
88.33155989685083
 20
140.0989027038445
 30
0.0
 10
88.50054464790254
 20
139.9234465445744
 30
0.0
 10
88.79100070456175
 20
139.5506062804742
 30
0.0
 10
88.91407251592388
 20
139.3524844703632
 30
0.0
 10
89.11540875734589
 20
138.9317731276296
 30
0.0
 10
89.19262130328813
 20
138.709783106962
 30
0.0
 10
89.29482484618819
 20
138.2599181672537
 30
0.0
 10
89.32105319764052
 20
138.0296627541369
 30
0.0
 10
89.32152959695762
 20
137.5583468115878
 30
0.0
 10
89.29578718445966
 20
137.3251093958737
 30
0.0
 10
89.1944764080958
 20
136.8634328563756
 30
0.0
 10
89.11764376870485
 20
136.6325354692635
 30
0.0
 10
88.91723992948967
 20
136.1902594554718
 30
0.0
 10
88.79456843119763
 20
135.9791970241859
 30
0.0
 10
88.50462114203339
 20
135.5776985134532
 30
0.0
 10
88.33605016266816
 20
135.3867919913773
 30
0.0
 10
87.967780568555
 20
135.0430666593803
 30
0.0
 10
87.7667187112847
 20
134.8879294731662
 30
0.0
 10
87.32968779269977
 20
134.6128521130864
 30
0.0
 10
87.09753957957015
 20
134.4957358836644
 30
0.0
 10
86.6165292980713
 20
134.3068093985999
 30
0.0
 10
86.36442921524086
 20
134.2337344282056
 30
0.0
 10
85.84735972898186
 20
134.1356823690711
 30
0.0
 10
85.58583835798923
 20
134.1110013882942
 30
0.0
 10
85.32129301932909
 20
134.1110013882942
 30
0.0
  0
SPLINE
  5
D4
330
1F
100
AcDbEntity
  8
0
  6
Continuous
 62
     7
370
    25
100
AcDbSpline
210
0.0
220
0.0
230
1.0
 70
    11
 71
     3
 72
    70
 73
    66
 74
     0
 42
0.000000001
 43
0.00000001
 40
0.0
 40
0.0
 40
0.0
 40
0.0
 40
0.0312499999999997
 40
0.0312499999999997
 40
0.0624999999999994
 40
0.0624999999999994
 40
0.0937499999999991
 40
0.0937499999999991
 40
0.1249999999999988
 40
0.1249999999999988
 40
0.1562499999999986
 40
0.1562499999999986
 40
0.1874999999999983
 40
0.1874999999999983
 40
0.2187499999999979
 40
0.2187499999999979
 40
0.2499999999999977
 40
0.2499999999999977
 40
0.2812499999999976
 40
0.2812499999999976
 40
0.3124999999999974
 40
0.3124999999999974
 40
0.3437499999999973
 40
0.3437499999999973
 40
0.3749999999999972
 40
0.3749999999999972
 40
0.4062499999999971
 40
0.4062499999999971
 40
0.4374999999999969
 40
0.4374999999999969
 40
0.4687499999999968
 40
0.4687499999999968
 40
0.4999999999999967
 40
0.4999999999999967
 40
0.5312499999999968
 40
0.5312499999999968
 40
0.562499999999997
 40
0.562499999999997
 40
0.5937499999999971
 40
0.5937499999999971
 40
0.6249999999999972
 40
0.6249999999999972
 40
0.6562499999999974
 40
0.6562499999999974
 40
0.6874999999999976
 40
0.6874999999999976
 40
0.7187499999999978
 40
0.7187499999999978
 40
0.7499999999999979
 40
0.7499999999999979
 40
0.7812499999999981
 40
0.7812499999999981
 40
0.8124999999999984
 40
0.8124999999999984
 40
0.8437499999999987
 40
0.8437499999999987
 40
0.8749999999999989
 40
0.8749999999999989
 40
0.9062499999999992
 40
0.9062499999999992
 40
0.9374999999999994
 40
0.9374999999999994
 40
0.9687499999999998
 40
0.9687499999999998
 40
1.0
 40
1.0
 40
1.0
 40
1.0
 10
85.32129301932909
 20
148.54905789709
 30
0.0
 10
85.05674768066895
 20
148.54905789709
 30
0.0
 10
84.79667701329186
 20
148.5649583375048
 30
0.0
 10
84.28510233345644
 20
148.6269026876791
 30
0.0
 10
84.03092704971624
 20
148.6737049217704
 30
0.0
 10
83.54665641965452
 20
148.7946819052254
 30
0.0
 10
83.31701532777338
 20
148.8682842330323
 30
0.0
 10
82.88241097953988
 20
149.0401085040104
 30
0.0
 10
82.67684520289329
 20
149.1391119269378
 30
0.0
 10
82.30828806229803
 20
149.3522083408507
 30
0.0
 10
82.14280707956254
 20
149.4671080569803
 30
0.0
 10
81.85038257012745
 20
149.7124749556706
 30
0.0
 10
81.72628159350096
 20
149.8409148561409
 30
0.0
 10
81.52670239675123
 20
150.1018070042269
 30
0.0
 10
81.44976881089298
 20
150.2361881755663
 30
0.0
 10
81.3469117523726
 20
150.5055081266726
 30
0.0
 10
81.32143884291347
 20
150.6381893908907
 30
0.0
 10
81.3211484323457
 20
150.8993758650218
 30
0.0
 10
81.34717306612144
 20
151.0291409031865
 30
0.0
 10
81.44932135061343
 20
151.2747235374592
 30
0.0
 10
81.5248977981966
 20
151.3913850747681
 30
0.0
 10
81.72539532934154
 20
151.6132902649226
 30
0.0
 10
81.8505241708499
 20
151.7179015188456
 30
0.0
 10
82.13988297187149
 20
151.9079479304537
 30
0.0
 10
82.30529395892695
 20
151.9947076019033
 30
0.0
 10
82.67828451707477
 20
152.1522119776549
 30
0.0
 10
82.88001755016388
 20
152.2205372424421
 30
0.0
 10
83.31287680099176
 20
152.3387669660613
 30
0.0
 10
83.54679533388112
 20
152.3890618821652
 30
0.0
 10
84.03097906902374
 20
152.4689274190548
 30
0.0
 10
84.28029469497925
 20
152.4986685468544
 30
0.0
 10
84.79332721940696
 20
152.5388212883626
 30
0.0
 10
85.05862104231161
 20
152.5490195577725
 30
0.0
 10
85.58095566218135
 20
152.5490960161572
 30
0.0
 10
85.8407093246631
 20
152.5393050045481
 30
0.0
 10
86.35732114030833
 20
152.4992381658094
 30
0.0
 10
86.6096871808086
 20
152.4691409989526
 30
0.0
 10
87.09121230234143
 20
152.3899187891223
 30
0.0
 10
87.32406303445501
 20
152.340161309659
 30
0.0
 10
87.76115288289377
 20
152.2210693672086
 30
0.0
 10
87.96247387155094
 20
152.1527541056613
 30
0.0
 10
88.33155989685085
 20
151.9973531387278
 30
0.0
 10
88.50054464790254
 20
151.9092007966609
 30
0.0
 10
88.79100070456174
 20
151.7187614075445
 30
0.0
 10
88.91407251592388
 20
151.6161368298455
 30
0.0
 10
89.11540875734589
 20
151.3944964832374
 30
0.0
 10
89.19262130328813
 20
151.2757424076898
 30
0.0
 10
89.29482484618819
 20
151.0310764687722
 30
0.0
 10
89.32105319764051
 20
150.9039197433236
 30
0.0
 10
89.32152959695762
 20
150.6394715974681
 30
0.0
 10
89.29578718445966
 20
150.5065709172109
 30
0.0
 10
89.19447640809578
 20
150.2397786437288
 30
0.0
 10
89.11764376870485
 20
150.1044147422603
 30
0.0
 10
88.91723992948967
 20
149.8418349469577
 30
0.0
 10
88.79456843119762
 20
149.714859787204
 30
0.0
 10
88.50462114203339
 20
149.4707804011215
 30
0.0
 10
88.33605016266816
 20
149.3533552763677
 30
0.0
 10
87.967780568555
 20
149.1401588154193
 30
0.0
 10
87.7667187112847
 20
149.0429846969944
 30
0.0
 10
87.32968779269976
 20
148.8696298097802
 30
0.0
 10
87.09753957957014
 20
148.7952302581235
 30
0.0
 10
86.61652929807128
 20
148.6747773786188
 30
0.0
 10
86.36442921524086
 20
148.6279190033528
 30
0.0
 10
85.84735972898186
 20
148.5649615063691
 30
0.0
 10
85.58583835798925
 20
148.54905789709
 30
0.0
 10
85.32129301932909
 20
148.54905789709
 30
0.0
  0
LINE
  5
D5
330
1F
100
AcDbEntity
  8
0
  6
Continuous
 62
     7
370
    25
100
AcDbLine
 10
98.7132249406
 20
93.3031768695
 30
0.0
 11
98.7132249406
 21
143.3400952414
 31
0.0
  0
SPLINE
  5
D6
330
1F
100
AcDbEntity
  8
0
  6
Continuous
 62
     7
370
    25
100
AcDbSpline
210
0.0
220
0.0
230
1.0
 70
     8
 71
     3
 72
     8
 73
     4
 74
     0
 42
0.000000001
 43
0.00000001
 40
0.0
 40
0.0
 40
0.0
 40
0.0
 40
1.0
 40
1.0
 40
1.0
 40
1.0
 10
98.71322585081813
 20
93.30317680606368
 30
0.0
 10
98.2177461901524
 20
94.19870289399704
 30
0.0
 10
97.72363214211028
 20
95.09498730904929
 30
0.0
 10
97.23129301932909
 20
95.99225734325599
 30
0.0
  0
LINE
  5
D7
330
1F
100
AcDbEntity
  8
0
  6
Continuous
 62
     7
370
    25
100
AcDbLine
 10
97.231293284
 20
95.9922571823
 30
0.0
 11
97.231293284
 21
143.3400952414
 31
0.0
  0
SPLINE
  5
D8
330
1F
100
AcDbEntity
  8
0
  6
Continuous
 62
     7
370
    25
100
AcDbSpline
210
0.0
220
0.0
230
1.0
 70
    24
 71
     3
 72
     8
 73
     4
 74
     0
 42
0.000000001
 43
0.00000001
 40
0.0
 40
0.0
 40
0.0
 40
0.0
 40
1.0
 40
1.0
 40
1.0
 40
1.0
 10
97.23129301932909
 20
143.3400945023108
 30
0.0
 10
97.71124501369398
 20
143.3400945023108
 30
0.0
 10
98.2065457426676
 20
143.3400945023108
 30
0.0
 10
98.71322585081815
 20
143.3400945023108
 30
0.0
  0
LINE
  5
D9
330
1F
100
AcDbEntity
  8
0
  6
Continuous
 62
     7
370
    25
100
AcDbLine
 10
102.6712937286
 20
93.3031768695
 30
0.0
 11
98.7132249406
 21
93.3031768695
 31
0.0
  0
LINE
  5
DA
330
1F
100
AcDbEntity
  8
0
  6
Continuous
 62
     7
370
    25
100
AcDbLine
 10
98.7132249406
 20
143.3400952414
 30
0.0
 11
102.6712937286
 21
143.3400952414
 31
0.0
  0
LINE
  5
DB
330
1F
100
AcDbEntity
  8
0
  6
Continuous
 62
     7
370
    25
100
AcDbLine
 10
77.3212930193
 20
92.2900953487
 30
0.0
 11
77.3212930193
 21
154.6900936559
 31
0.0
  0
LINE
  5
DC
330
1F
100
AcDbEntity
  8
0
  6
Continuous
 62
     7
370
    25
100
AcDbLine
 10
93.4112930676
 20
95.9922571823
 30
0.0
 11
93.4112930676
 21
143.3400952414
 31
0.0
  0
SPLINE
  5
DD
330
1F
100
AcDbEntity
  8
0
  6
Continuous
 62
     7
370
    25
100
AcDbSpline
210
0.0
220
0.0
230
1.0
 70
     8
 71
     3
 72
     8
 73
     4
 74
     0
 42
0.000000001
 43
0.00000001
 40
0.0
 40
0.0
 40
0.0
 40
0.0
 40
1.0
 40
1.0
 40
1.0
 40
1.0
 10
93.4112930193291
 20
95.99225734325597
 30
0.0
 10
92.91895389654792
 20
95.09498730904927
 30
0.0
 10
92.42483984850577
 20
94.19870289399704
 30
0.0
 10
91.92936018784003
 20
93.30317680606368
 30
0.0
  0
SPLINE
  5
DE
330
1F
100
AcDbEntity
  8
0
  6
Continuous
 62
     7
370
    25
100
AcDbSpline
210
0.0
220
0.0
230
1.0
 70
    24
 71
     3
 72
     8
 73
     4
 74
     0
 42
0.000000001
 43
0.00000001
 40
0.0
 40
0.0
 40
0.0
 40
0.0
 40
1.0
 40
1.0
 40
1.0
 40
1.0
 10
91.92936018784
 20
143.3400945023108
 30
0.0
 10
92.43604029599057
 20
143.3400945023108
 30
0.0
 10
92.9313410249642
 20
143.3400945023108
 30
0.0
 10
93.4112930193291
 20
143.3400945023108
 30
0.0
  0
ARC
  5
DF
330
1F
100
AcDbEntity
  8
0
  6
Continuous
 62
     7
370
    25
100
AcDbCircle
 10
85.3184316416
 20
135.4007072667
 30
0.0
 40
4.110793060673537
100
AcDbArc
 50
19.1727787623
 51
159.4979364143
  0
SPLINE
  5
E0
330
1F
100
AcDbEntity
  8
0
  6
Continuous
 62
     7
370
    25
100
AcDbSpline
210
0.0
220
0.0
230
1.0
 70
    24
 71
     3
 72
    14
 73
    10
 74
     0
 42
0.000000001
 43
0.00000001
 40
0.0
 40
0.0
 40
0.0
 40
0.0
 40
0.5
 40
0.5
 40
0.75
 40
0.75
 40
0.875
 40
0.875
 40
1.0
 40
1.0
 40
1.0
 40
1.0
 10
97.1336182169968
 20
97.09009450231085
 30
0.0
 10
97.0868335119486
 20
97.09009450231085
 30
0.0
 10
97.02478231516898
 20
97.09009450231085
 30
0.0
 10
96.88139067661838
 20
97.09009450231083
 30
0.0
 10
96.82524702306722
 20
97.09009450231085
 30
0.0
 10
96.71229600093103
 20
97.09009450231083
 30
0.0
 10
96.6692952388929
 20
97.09009450231085
 30
0.0
 10
96.56523252858642
 20
97.09009450231083
 30
0.0
 10
96.4999002902295
 20
97.09009450231083
 30
0.0
 10
96.43129301932909
 20
97.09009450231085
 30
0.0
  0
SPLINE
  5
E1
330
1F
100
AcDbEntity
  8
0
  6
Continuous
 62
     7
370
    25
100
AcDbSpline
210
0.0
220
0.0
230
1.0
 70
    24
 71
     3
 72
    12
 73
     8
 74
     0
 42
0.000000001
 43
0.00000001
 40
0.0
 40
0.0
 40
0.0
 40
0.0
 40
0.5000000000000074
 40
0.5000000000000074
 40
0.7500000000000037
 40
0.7500000000000037
 40
1.0
 40
1.0
 40
1.0
 40
1.0
 10
96.83699548763812
 20
149.8900945023108
 30
0.0
 10
96.79390993802718
 20
149.8900945023108
 30
0.0
 10
96.74475773627786
 20
149.8900945023108
 30
0.0
 10
96.64828514198993
 20
149.8900945023108
 30
0.0
 10
96.61218355685536
 20
149.8900945023108
 30
0.0
 10
96.5290777989941
 20
149.8900945023108
 30
0.0
 10
96.48108120202782
 20
149.8900945023108
 30
0.0
 10
96.43129301932909
 20
149.8900945023108
 30
0.0
  0
SPLINE
  5
E2
330
1F
100
AcDbEntity
  8
0
  6
Continuous
 62
     7
370
    25
100
AcDbSpline
210
0.0
220
0.0
230
1.0
 70
     8
 71
     3
 72
    10
 73
     6
 74
     0
 42
0.000000001
 43
0.00000001
 40
0.0
 40
0.0
 40
0.0
 40
0.0
 40
0.5
 40
0.5
 40
1.0
 40
1.0
 40
1.0
 40
1.0
 10
97.23129301932909
 20
150.6097483533466
 30
0.0
 10
97.23129301932909
 20
150.4659782955286
 30
0.0
 10
97.1952439606102
 20
150.3235589330334
 30
0.0
 10
97.05973509983619
 20
150.0736646396762
 30
0.0
 10
96.95985910674001
 20
149.965634303428
 30
0.0
 10
96.83699548763809
 20
149.8900945023108
 30
0.0
  0
SPLINE
  5
E3
330
1F
100
AcDbEntity
  8
0
  6
Continuous
 62
     7
370
    25
100
AcDbSpline
210
0.0
220
0.0
230
1.0
 70
     8
 71
     3
 72
    10
 73
     6
 74
     0
 42
0.000000001
 43
0.00000001
 40
0.0
 40
0.0
 40
0.0
 40
0.0
 40
0.5
 40
0.5
 40
1.0
 40
1.0
 40
1.0
 40
1.0
 10
97.20514539616894
 20
143.3400945023108
 30
0.0
 10
97.21383503908062
 20
143.386973351629
 30
0.0
 10
97.22037410383113
 20
143.4343958170303
 30
0.0
 10
97.22913273822415
 20
143.5303326156171
 30
0.0
 10
97.23129301932909
 20
143.5782479036277
 30
0.0
 10
97.23129301932909
 20
143.6259611337722
 30
0.0
  0
SPLINE
  5
E4
330
1F
100
AcDbEntity
  8
0
  6
Continuous
 62
     7
370
    25
100
AcDbSpline
210
0.0
220
0.0
230
1.0
 70
     8
 71
     3
 72
    10
 73
     6
 74
     0
 42
0.000000001
 43
0.00000001
 40
0.0
 40
0.0
 40
0.0
 40
0.0
 40
0.5
 40
0.5
 40
1.0
 40
1.0
 40
1.0
 40
1.0
 10
93.80559055102003
 20
149.8900945023108
 30
0.0
 10
93.68405028735152
 20
149.9648206695226
 30
0.0
 10
93.5827159270026
 20
150.0737656854394
 30
0.0
 10
93.44707698411418
 20
150.324196166201
 30
0.0
 10
93.4112930193291
 20
150.4666155282999
 30
0.0
 10
93.4112930193291
 20
150.6097483533466
 30
0.0
  0
SPLINE
  5
E5
330
1F
100
AcDbEntity
  8
0
  6
Continuous
 62
     7
370
    25
100
AcDbSpline
210
0.0
220
0.0
230
1.0
 70
    24
 71
     3
 72
    12
 73
     8
 74
     0
 42
0.000000001
 43
0.00000001
 40
0.0
 40
0.0
 40
0.0
 40
0.0
 40
0.2499999999999963
 40
0.2499999999999963
 40
0.4999999999999926
 40
0.4999999999999926
 40
1.0
 40
1.0
 40
1.0
 40
1.0
 10
94.21129301932909
 20
149.8900945023108
 30
0.0
 10
94.16141633701164
 20
149.8900945023108
 30
0.0
 10
94.11341314360804
 20
149.8900945023108
 30
0.0
 10
94.03036504089607
 20
149.8900945023108
 30
0.0
 10
93.99423546142822
 20
149.8900945023108
 30
0.0
 10
93.89832343048401
 20
149.8900945023108
 30
0.0
 10
93.84856476251521
 20
149.8900945023108
 30
0.0
 10
93.80559055102005
 20
149.8900945023108
 30
0.0
  0
SPLINE
  5
E6
330
1F
100
AcDbEntity
  8
0
  6
Continuous
 62
     7
370
    25
100
AcDbSpline
210
0.0
220
0.0
230
1.0
 70
    24
 71
     3
 72
    14
 73
    10
 74
     0
 42
0.000000001
 43
0.00000001
 40
0.0
 40
0.0
 40
0.0
 40
0.0
 40
0.1249999999999993
 40
0.1249999999999993
 40
0.2499999999999987
 40
0.2499999999999987
 40
0.4999999999999973
 40
0.4999999999999973
 40
1.0
 40
1.0
 40
1.0
 40
1.0
 10
94.21129301932906
 20
97.09009450231085
 30
0.0
 10
94.14285517144263
 20
97.09009450231083
 30
0.0
 10
94.07730513267758
 20
97.09009450231085
 30
0.0
 10
93.97287849326966
 20
97.09009450231083
 30
0.0
 10
93.93033388350821
 20
97.09009450231085
 30
0.0
 10
93.81772442296797
 20
97.09009450231083
 30
0.0
 10
93.76218537594845
 20
97.09009450231085
 30
0.0
 10
93.61957368048465
 20
97.09009450231083
 30
0.0
 10
93.55616832548891
 20
97.09009450231085
 30
0.0
 10
93.50896782166137
 20
97.09009450231085
 30
0.0
  0
SPLINE
  5
E7
330
1F
100
AcDbEntity
  8
0
  6
Continuous
 62
     7
370
    25
100
AcDbSpline
210
0.0
220
0.0
230
1.0
 70
     8
 71
     3
 72
    10
 73
     6
 74
     0
 42
0.000000001
 43
0.00000001
 40
0.0
 40
0.0
 40
0.0
 40
0.0
 40
0.5
 40
0.5
 40
1.0
 40
1.0
 40
1.0
 40
1.0
 10
93.4112930193291
 20
143.6259611337722
 30
0.0
 10
93.4112930193291
 20
143.5781896257789
 30
0.0
 10
93.41345426292624
 20
143.5304799037173
 30
0.0
 10
93.4221256367864
 20
143.4351847861689
 30
0.0
 10
93.4286548197424
 20
143.3874922222023
 30
0.0
 10
93.43744064248922
 20
143.3400945023108
 30
0.0
  0
LWPOLYLINE
  5
E8
330
1F
100
AcDbEntity
  8
0
  6
Continuous
 62
     7
370
    25
100
AcDbPolyline
 90
       22
 70
   128
 43
0.0
 10
138.2712928584
 20
146.7699234531
 10
139.0081813565
 20
146.8484600231
 10
139.6795941522
 20
147.0770922646
 10
140.2258744469
 20
147.4355061695
 10
140.5984779826
 20
147.8918523685
 10
140.7643055549
 20
148.4055848018
 10
140.7086124649
 20
148.9310556248
 10
140.4363533488
 20
149.4215739116
 10
139.9717276922
 20
149.8335556284
 10
139.3560005358
 20
150.13039421
 10
138.6439001193
 20
150.2857127384
 10
137.8986855975
 20
150.2857127384
 10
137.186585181
 20
150.13039421
 10
136.5708617499
 20
149.8335556284
 10
136.1062286427
 20
149.4215739116
 10
135.8339732519
 20
148.9310556248
 10
135.7782838872
 20
148.4055848018
 10
135.9441077342
 20
147.8918523685
 10
136.3167149952
 20
147.4355061695
 10
136.8629915645
 20
147.0770922646
 10
137.5344043603
 20
146.8484600231
 10
138.2712928584
 20
146.7699234531
  0
LWPOLYLINE
  5
E9
330
1F
100
AcDbEntity
  8
0
  6
Continuous
 62
     7
370
    25
100
AcDbPolyline
 90
       22
 70
   128
 43
0.0
 10
138.2712928584
 20
96.6747322277
 10
139.0081813565
 20
96.7532687977
 10
139.6795941522
 20
96.9819010392
 10
140.2258744469
 20
97.3403130815
 10
140.5984779826
 20
97.796661143
 10
140.7643055549
 20
98.3103935764
 10
140.7086124649
 20
98.8358643994
 10
140.4363533488
 20
99.3263826862
 10
139.9717276922
 20
99.738364403
 10
139.3560005358
 20
100.0352011219
 10
138.6439001193
 20
100.190521513
 10
137.8986855975
 20
100.190521513
 10
137.186585181
 20
100.0352011219
 10
136.5708617499
 20
99.738364403
 10
136.1062286427
 20
99.3263826862
 10
135.8339732519
 20
98.8358643994
 10
135.7782838872
 20
98.3103935764
 10
135.9441077342
 20
97.796661143
 10
136.3167149952
 20
97.3403130815
 10
136.8629915645
 20
96.9819010392
 10
137.5344043603
 20
96.7532687977
 10
138.2712928584
 20
96.6747322277
  0
LINE
  5
EA
330
1F
100
AcDbEntity
  8
0
  6
Continuous
 62
     7
370
    25
100
AcDbLine
 10
96.4312927803
 20
149.8900943593
 30
0.0
 11
94.2112935713
 21
149.8900943593
 31
0.0
  0
LINE
  5
EB
330
1F
100
AcDbEntity
  8
0
  6
Continuous
 62
     7
370
    25
100
AcDbLine
 10
96.4312927803
 20
97.0900946454
 30
0.0
 11
94.2112935713
 21
97.0900946454
 31
0.0
  0
LINE
  5
EC
330
1F
100
AcDbEntity
  8
0
  6
Continuous
 62
     7
370
    25
100
AcDbLine
 10
55.5212927988
 20
100.2616484806
 30
0.0
 11
55.5212927988
 21
101.5263565973
 31
0.0
  0
SPLINE
  5
ED
330
1F
100
AcDbEntity
  8
0
  6
Continuous
 62
     7
370
    25
100
AcDbSpline
210
0.0
220
0.0
230
1.0
 70
     8
 71
     3
 72
    14
 73
    10
 74
     0
 42
0.000000001
 43
0.00000001
 40
0.0
 40
0.0
 40
0.0
 40
0.0
 40
0.25
 40
0.25
 40
0.5
 40
0.5
 40
0.75
 40
0.75
 40
1.0
 40
1.0
 40
1.0
 40
1.0
 10
54.74300590141337
 20
102.6569431787509
 30
0.0
 10
54.79963257661545
 20
102.549245724914
 30
0.0
 10
54.89415523690518
 20
102.4464561431947
 30
0.0
 10
55.07720021246741
 20
102.2480988309746
 30
0.0
 10
55.16882678942214
 20
102.1520393222963
 30
0.0
 10
55.32768010711533
 20
101.9645102795871
 30
0.0
 10
55.39557071473703
 20
101.8731013068035
 30
0.0
 10
55.49248774044462
 20
101.6947250858934
 30
0.0
 10
55.52129301932968
 20
101.6075031796472
 30
0.0
 10
55.52129301932966
 20
101.5263569711129
 30
0.0
  0
SPLINE
  5
EE
330
1F
100
AcDbEntity
  8
0
  6
Continuous
 62
     7
370
    25
100
AcDbSpline
210
0.0
220
0.0
230
1.0
 70
     8
 71
     3
 72
    14
 73
    10
 74
     0
 42
0.000000001
 43
0.00000001
 40
0.0
 40
0.0
 40
0.0
 40
0.0
 40
0.125
 40
0.125
 40
0.25
 40
0.25
 40
0.5
 40
0.5
 40
1.0
 40
1.0
 40
1.0
 40
1.0
 10
54.12129301932909
 20
103.1036250410302
 30
0.0
 10
54.16983742798626
 20
103.1093733543105
 30
0.0
 10
54.22275278277117
 20
103.1062724656543
 30
0.0
 10
54.3180481277542
 20
103.0840776214919
 30
0.0
 10
54.35829912503916
 20
103.0668453943961
 30
0.0
 10
54.46256913855212
 20
103.010517477944
 30
0.0
 10
54.51289111370546
 20
102.9663311319982
 30
0.0
 10
54.64057406123082
 20
102.8353232331476
 30
0.0
 10
54.6966595082931
 20
102.7450887129173
 30
0.0
 10
54.74300590141484
 20
102.6569431787514
 30
0.0
  0
SPLINE
  5
EF
330
1F
100
AcDbEntity
  8
0
  6
Continuous
 62
     7
370
    25
100
AcDbSpline
210
0.0
220
0.0
230
1.0
 70
     8
 71
     3
 72
     8
 73
     4
 74
     0
 42
0.000000001
 43
0.00000001
 40
0.0
 40
0.0
 40
0.0
 40
0.0
 40
1.0
 40
1.0
 40
1.0
 40
1.0
 10
51.85276792638282
 20
102.7937797544474
 30
0.0
 10
52.58734495286579
 20
102.9124047655164
 30
0.0
 10
53.35082002226147
 20
103.0123906376527
 30
0.0
 10
54.12129301932909
 20
103.1036250410302
 30
0.0
  0
SPLINE
  5
F0
330
1F
100
AcDbEntity
  8
0
  6
Continuous
 62
     7
370
    25
100
AcDbSpline
210
0.0
220
0.0
230
1.0
 70
     8
 71
     3
 72
    14
 73
    10
 74
     0
 42
0.000000001
 43
0.00000001
 40
0.0
 40
0.0
 40
0.0
 40
0.0
 40
0.5000000000000002
 40
0.5000000000000002
 40
0.7500000000000002
 40
0.7500000000000002
 40
0.8750000000000001
 40
0.8750000000000001
 40
1.0
 40
1.0
 40
1.0
 40
1.0
 10
46.57129301932909
 20
102.6201567369158
 30
0.0
 10
47.46343914988266
 20
102.6194345107151
 30
0.0
 10
48.35341558567624
 20
102.6240207171726
 30
0.0
 10
49.68001075275183
 20
102.6517457215641
 30
0.0
 10
50.12085768125056
 20
102.6643522591883
 30
0.0
 10
50.77729791867299
 20
102.6953684071957
 30
0.0
 10
50.99531157526486
 20
102.7077115798225
 30
0.0
 10
51.42802042894762
 20
102.7407356349858
 30
0.0
 10
51.64329689411243
 20
102.7599528001242
 30
0.0
 10
51.85276792638282
 20
102.7937797544474
 30
0.0
  0
SPLINE
  5
F1
330
1F
100
AcDbEntity
  8
0
  6
Continuous
 62
     7
370
    25
100
AcDbSpline
210
0.0
220
0.0
230
1.0
 70
     8
 71
     3
 72
     8
 73
     4
 74
     0
 42
0.000000001
 43
0.00000001
 40
0.0000005163856712
 40
0.0000005163856712
 40
0.0000005163856712
 40
0.0000005163856712
 40
0.000026289209185
 40
0.000026289209185
 40
0.000026289209185
 40
0.000026289209185
 10
46.5612480889104
 20
102.6301406100236
 30
0.0
 10
46.56457582712189
 20
102.6268063631508
 30
0.0
 10
46.56792428010117
 20
102.6234784058718
 30
0.0
 10
46.57129301932907
 20
102.6201567369158
 30
0.0
  0
SPLINE
  5
F2
330
1F
100
AcDbEntity
  8
0
  6
Continuous
 62
     7
370
    25
100
AcDbSpline
210
0.0
220
0.0
230
1.0
 70
     8
 71
     3
 72
     8
 73
     4
 74
     0
 42
0.000000001
 43
0.00000001
 40
0.0000005099763573
 40
0.0000005099763573
 40
0.0000005099763573
 40
0.0000005099763573
 40
0.0000262827998699
 40
0.0000262827998699
 40
0.0000262827998699
 40
0.0000262827998699
 10
46.57129301932908
 20
144.3600322677059
 30
0.0
 10
46.56792428010134
 20
144.3567105987501
 30
0.0
 10
46.5645758271222
 20
144.3533826414712
 30
0.0
 10
46.56124808891088
 20
144.3500483945985
 30
0.0
  0
SPLINE
  5
F3
330
1F
100
AcDbEntity
  8
0
  6
Continuous
 62
     7
370
    25
100
AcDbSpline
210
0.0
220
0.0
230
1.0
 70
     8
 71
     3
 72
    10
 73
     6
 74
     0
 42
0.000000001
 43
0.00000001
 40
0.0
 40
0.0
 40
0.0
 40
0.0
 40
0.5
 40
0.5
 40
1.0
 40
1.0
 40
1.0
 40
1.0
 10
50.1212930193291
 20
144.3131818941386
 30
0.0
 10
49.53370747223851
 20
144.334247414375
 30
0.0
 10
48.94296107877812
 20
144.3450059002472
 30
0.0
 10
47.75894191347926
 20
144.3583706807829
 30
0.0
 10
47.1655279252738
 20
144.3605133234475
 30
0.0
 10
46.57129301932909
 20
144.3600322677059
 30
0.0
  0
SPLINE
  5
F4
330
1F
100
AcDbEntity
  8
0
  6
Continuous
 62
     7
370
    25
100
AcDbSpline
210
0.0
220
0.0
230
1.0
 70
     8
 71
     3
 72
    18
 73
    14
 74
     0
 42
0.000000001
 43
0.00000001
 40
0.0
 40
0.0
 40
0.0
 40
0.0
 40
0.2500000000000008
 40
0.2500000000000008
 40
0.5000000000000009
 40
0.5000000000000009
 40
0.7500000000000009
 40
0.7500000000000009
 40
0.875000000000001
 40
0.875000000000001
 40
0.9375000000000006
 40
0.9375000000000006
 40
1.0
 40
1.0
 40
1.0
 40
1.0
 10
51.5212930193291
 20
145.3342021746738
 30
0.0
 10
51.52129301932911
 20
145.2509952658166
 30
0.0
 10
51.48544391939085
 20
145.162258610503
 30
0.0
 10
51.36057218335692
 20
144.9801334199428
 30
0.0
 10
51.27017176570906
 20
144.8850033713162
 30
0.0
 10
51.04792911096687
 20
144.6958218621919
 30
0.0
 10
50.91816432452109
 20
144.6008766940972
 30
0.0
 10
50.67752686720959
 20
144.4625979865172
 30
0.0
 10
50.58975956907216
 20
144.4168875532148
 30
0.0
 10
50.43523548186532
 20
144.3590642479934
 30
0.0
 10
50.37862459581058
 20
144.3413494839555
 30
0.0
 10
50.25458056490397
 20
144.3168101807226
 30
0.0
 10
50.18686588988569
 20
144.3108310421843
 30
0.0
 10
50.12129301932909
 20
144.3131818941386
 30
0.0
  0
LINE
  5
F5
330
1F
100
AcDbEntity
  8
0
  6
Continuous
 62
     7
370
    25
100
AcDbLine
 10
51.5212921431
 20
145.33420216
 30
0.0
 11
51.5212921431
 21
146.518140395
 31
0.0
  0
LINE
  5
F6
330
1F
100
AcDbEntity
  8
0
  6
Continuous
 62
     7
370
    25
100
AcDbLine
 10
75.3212929243
 20
99.2696632788
 30
0.0
 11
75.3212929243
 21
147.7105257258
 31
0.0
  0
SPLINE
  5
F7
330
1F
100
AcDbEntity
  8
0
  6
Continuous
 62
     7
370
    25
100
AcDbSpline
210
0.0
220
0.0
230
1.0
 70
     8
 71
     3
 72
    18
 73
    14
 74
     0
 42
0.000000001
 43
0.00000001
 40
0.0
 40
0.0
 40
0.0
 40
0.0
 40
0.001067142096085
 40
0.1270947925777493
 40
0.2524053537361832
 40
0.3766468838452861
 40
0.4391416358858051
 40
0.5008278334298175
 40
0.5624255844801763
 40
0.6253162510714301
 40
0.7499985254815132
 40
0.8752758926324193
 40
1.0
 40
1.0
 40
1.0
 40
1.0
 10
64.09159414527275
 20
99.83275580857286
 30
0.0
 10
64.09068206999002
 20
99.83264064068081
 30
0.0
 10
63.9820554688095
 20
99.81892434235107
 30
0.0
 10
64.36973694085223
 20
99.8699106037327
 30
0.0
 10
65.2356854009618
 20
99.96946763960722
 30
0.0
 10
66.4360931946846
 20
100.0385982692263
 30
0.0
 10
67.49366874454233
 20
100.042548969493
 30
0.0
 10
68.32080310866559
 20
100.0150621015688
 30
0.0
 10
69.14607474471343
 20
99.95651961275648
 30
0.0
 10
70.20043995182222
 20
99.84300101079677
 30
0.0
 10
71.36227615807564
 20
99.65984685496323
 30
0.0
 10
72.31451087874878
 20
99.45524670629709
 30
0.0
 10
72.44021598145741
 20
99.42596003628798
 30
0.0
 10
72.50292943847634
 20
99.4113491073657
 30
0.0
  0
SPLINE
  5
F8
330
1F
100
AcDbEntity
  8
0
  6
Continuous
 62
     7
370
    25
100
AcDbSpline
210
0.0
220
0.0
230
1.0
 70
     8
 71
     3
 72
    18
 73
    14
 74
     0
 42
0.000000001
 43
0.00000001
 40
0.0
 40
0.0
 40
0.0
 40
0.0
 40
0.1248907819469273
 40
0.2505384063477967
 40
0.3748721756041158
 40
0.4374907331267689
 40
0.4990776026247599
 40
0.5607931145009658
 40
0.6233901196104445
 40
0.7478191009174896
 40
0.8731941046696081
 40
0.9991614615322162
 40
0.9999999999999999
 40
0.9999999999999999
 40
0.9999999999999999
 40
0.9999999999999999
 10
72.50271057767131
 20
147.5687747046758
 30
0.0
 10
72.4389697457036
 20
147.5541132384487
 30
0.0
 10
72.31110181012404
 20
147.5247014570027
 30
0.0
 10
71.35910297353551
 20
147.3197474976452
 30
0.0
 10
70.19855890268288
 20
147.1364862357815
 30
0.0
 10
69.14629513101951
 20
147.0234556814065
 30
0.0
 10
68.32206783200124
 20
146.9651948739337
 30
0.0
 10
67.49446408667656
 20
146.9377477378117
 30
0.0
 10
66.43564675698232
 20
146.9417325316863
 30
0.0
 10
65.23342701735649
 20
147.0108253161822
 30
0.0
 10
64.36824624635759
 20
147.1104340533694
 30
0.0
 10
63.98209749871992
 20
147.1612916590126
 30
0.0
 10
64.09017537108352
 20
147.1475908515892
 30
0.0
 10
64.09089006540634
 20
147.1475002512742
 30
0.0
  0
SPLINE
  5
F9
330
1F
100
AcDbEntity
  8
0
  6
Continuous
 62
     7
370
    25
100
AcDbSpline
210
0.0
220
0.0
230
1.0
 70
     8
 71
     3
 72
     9
 73
     5
 74
     0
 42
0.000000001
 43
0.00000001
 40
0.0
 40
0.0
 40
0.0
 40
0.0
 40
0.7009339503679092
 40
0.9999999999999999
 40
0.9999999999999999
 40
0.9999999999999999
 40
0.9999999999999999
 10
45.44207658675768
 20
103.7888148025084
 30
0.0
 10
45.45121725770751
 20
103.7709855187475
 30
0.0
 10
45.46425795996633
 20
103.7455490510867
 30
0.0
 10
45.47942142323461
 20
103.7994284105603
 30
0.0
 10
45.48395630029299
 20
103.8155418977548
 30
0.0
  0
LINE
  5
FA
330
1F
100
AcDbEntity
  8
0
  6
Continuous
 62
     7
370
    25
100
AcDbLine
 10
45.4212931922
 20
103.7994169787
 30
0.0
 11
45.4212931922
 21
143.1807720259
 31
0.0
  0
SPLINE
  5
FB
330
1F
100
AcDbEntity
  8
0
  6
Continuous
 62
     7
370
    25
100
AcDbSpline
210
0.0
220
0.0
230
1.0
 70
     8
 71
     3
 72
    10
 73
     6
 74
     0
 42
0.000000001
 43
0.00000001
 40
0.0
 40
0.0
 40
0.0
 40
0.0
 40
0.5
 40
0.5
 40
1.0
 40
1.0
 40
1.0
 40
1.0
 10
45.48395639405251
 20
143.1646470470916
 30
0.0
 10
45.47505210494374
 20
143.2103885663047
 30
0.0
 10
45.45853672475075
 20
143.2275794057738
 30
0.0
 10
45.43142877868914
 20
143.227256128838
 30
0.0
 10
45.4212930193291
 20
143.2093785865416
 30
0.0
 10
45.4212930193291
 20
143.180772248789
 30
0.0
  0
SPLINE
  5
FC
330
1F
100
AcDbEntity
  8
0
  6
Continuous
 62
     7
370
    25
100
AcDbSpline
210
0.0
220
0.0
230
1.0
 70
     8
 71
     3
 72
    26
 73
    22
 74
     0
 42
0.000000001
 43
0.00000001
 40
0.0
 40
0.0
 40
0.0
 40
0.0
 40
0.2500000000000165
 40
0.2500000000000165
 40
0.3750000000000256
 40
0.3750000000000256
 40
0.4375000000000291
 40
0.4375000000000291
 40
0.4687500000000291
 40
0.4687500000000291
 40
0.5000000000000292
 40
0.5000000000000292
 40
0.5312500000000293
 40
0.5312500000000293
 40
0.5625000000000293
 40
0.5625000000000293
 40
0.625000000000026
 40
0.625000000000026
 40
0.7500000000000173
 40
0.7500000000000173
 40
1.0
 40
1.0
 40
1.0
 40
1.0
 10
46.2454466654336
 20
143.8802138359087
 30
0.0
 10
46.20684614256513
 20
143.7624391395532
 30
0.0
 10
46.16054914001087
 20
143.6380494533913
 30
0.0
 10
46.06660979157695
 20
143.4328301210378
 30
0.0
 10
46.03129832466349
 20
143.3612572545914
 30
0.0
 10
45.96511834891781
 20
143.2453040219909
 30
0.0
 10
45.9405799822496
 20
143.2047194871807
 30
0.0
 10
45.8972072366958
 20
143.1405778053089
 30
0.0
 10
45.8816988352706
 20
143.1187113800239
 30
0.0
 10
45.84665619068357
 20
143.0731171116807
 30
0.0
 10
45.8271058999638
 20
143.0494468207133
 30
0.0
 10
45.78517861959319
 20
143.0048302613733
 30
0.0
 10
45.76252650936155
 20
142.9839502488554
 30
0.0
 10
45.72155279527493
 20
142.9530768351046
 30
0.0
 10
45.70395349537951
 20
142.9432379652722
 30
0.0
 10
45.65932650952335
 20
142.924248349576
 30
0.0
 10
45.63876728687003
 20
142.9239240249226
 30
0.0
 10
45.58764184737335
 20
142.9331474657988
 30
0.0
 10
45.56673043438481
 20
142.9543943620158
 30
0.0
 10
45.51528052682388
 20
143.0283632408465
 30
0.0
 10
45.49761522751933
 20
143.0944813341613
 30
0.0
 10
45.48395639405251
 20
143.1646470470916
 30
0.0
  0
SPLINE
  5
FD
330
1F
100
AcDbEntity
  8
0
  6
Continuous
 62
     7
370
    25
100
AcDbSpline
210
0.0
220
0.0
230
1.0
 70
     8
 71
     3
 72
    10
 73
     6
 74
     0
 42
0.000000001
 43
0.00000001
 40
0.0
 40
0.0
 40
0.0
 40
0.0
 40
0.5
 40
0.5
 40
1.0
 40
1.0
 40
1.0
 40
1.0
 10
46.56124808891091
 20
144.3500483945985
 30
0.0
 10
46.49368883399266
 20
144.2823570017887
 30
0.0
 10
46.43005217865616
 20
144.2076498370351
 30
0.0
 10
46.31983142408428
 20
144.0486837046085
 30
0.0
 10
46.27301513086167
 20
143.9643284386005
 30
0.0
 10
46.24544666543359
 20
143.8802138359087
 30
0.0
  0
SPLINE
  5
FE
330
1F
100
AcDbEntity
  8
0
  6
Continuous
 62
     7
370
    25
100
AcDbSpline
210
0.0
220
0.0
230
1.0
 70
     8
 71
     3
 72
    10
 73
     6
 74
     0
 42
0.000000001
 43
0.00000001
 40
0.0
 40
0.0
 40
0.0
 40
0.0
 40
0.5
 40
0.5
 40
1.0
 40
1.0
 40
1.0
 40
1.0
 10
46.24544666543365
 20
103.0999751687129
 30
0.0
 10
46.27292408018685
 20
103.0161383722473
 30
0.0
 10
46.31963271047452
 20
102.9318278846604
 30
0.0
 10
46.42991117321646
 20
102.7727066541776
 30
0.0
 10
46.4937987118281
 20
102.6977219100895
 30
0.0
 10
46.56124808891043
 20
102.6301406100236
 30
0.0
  0
SPLINE
  5
FF
330
1F
100
AcDbEntity
  8
0
  6
Continuous
 62
     7
370
    25
100
AcDbSpline
210
0.0
220
0.0
230
1.0
 70
     8
 71
     3
 72
    24
 73
    20
 74
     0
 42
0.000000001
 43
0.00000001
 40
0.0
 40
0.0
 40
0.0
 40
0.0
 40
0.2499999999999952
 40
0.2499999999999952
 40
0.3749999999999937
 40
0.3749999999999937
 40
0.4374999999999931
 40
0.4374999999999931
 40
0.468749999999992
 40
0.468749999999992
 40
0.4999999999999909
 40
0.4999999999999909
 40
0.5624999999999933
 40
0.5624999999999933
 40
0.6249999999999958
 40
0.6249999999999958
 40
0.7499999999999981
 40
0.7499999999999981
 40
1.0
 40
1.0
 40
1.0
 40
1.0
 10
45.48395639405251
 20
103.8155419575301
 30
0.0
 10
45.49770951272272
 20
103.8861920155204
 30
0.0
 10
45.51548208012858
 20
103.9527901282853
 30
0.0
 10
45.56773317168394
 20
104.0268881485185
 30
0.0
 10
45.58876824726548
 20
104.0481459556801
 30
0.0
 10
45.64166865489394
 20
104.0562918818263
 30
0.0
 10
45.66277432777184
 20
104.0553520784305
 30
0.0
 10
45.7088264964498
 20
104.0343360868532
 30
0.0
 10
45.72719696843319
 20
104.0234272807456
 30
0.0
 10
45.7687486034989
 20
103.9907923697982
 30
0.0
 10
45.79131527625582
 20
103.9693003894269
 30
0.0
 10
45.85409629271585
 20
103.9008344458405
 30
0.0
 10
45.88722605368373
 20
103.8547599876355
 30
0.0
 10
45.94414374016876
 20
103.7697520993008
 30
0.0
 10
45.96832976567251
 20
103.7294717981194
 30
0.0
 10
46.03353771605229
 20
103.6145355716534
 30
0.0
 10
46.06825377624353
 20
103.5439525865064
 30
0.0
 10
46.16146904657442
 20
103.3397468274278
 30
0.0
 10
46.20714158193509
 20
103.2168484451005
 30
0.0
 10
46.24544666543363
 20
103.0999751687129
 30
0.0
  0
SPLINE
  5
100
330
1F
100
AcDbEntity
  8
0
  6
Continuous
 62
     7
370
    25
100
AcDbSpline
210
0.0
220
0.0
230
1.0
 70
     8
 71
     3
 72
    10
 73
     6
 74
     0
 42
0.000000001
 43
0.00000001
 40
0.0
 40
0.0
 40
0.0
 40
0.0
 40
0.5
 40
0.5
 40
1.0
 40
1.0
 40
1.0
 40
1.0
 10
103.2712930193291
 20
153.3365348260747
 30
0.0
 10
103.2712930193291
 20
153.4971516421817
 30
0.0
 10
103.209521943694
 20
153.6556109610519
 30
0.0
 10
102.9890880680938
 20
153.8876902297228
 30
0.0
 10
102.8315530153804
 20
153.9572899754751
 30
0.0
 10
102.6712930193291
 20
153.9572899754751
 30
0.0
  0
SPLINE
  5
101
330
1F
100
AcDbEntity
  8
0
  6
Continuous
 62
     7
370
    25
100
AcDbSpline
210
0.0
220
0.0
230
1.0
 70
     8
 71
     3
 72
    12
 73
     8
 74
     0
 42
0.000000001
 43
0.00000001
 40
0.0
 40
0.0
 40
0.0
 40
0.0
 40
0.2500000000000007
 40
0.2500000000000007
 40
0.5000000000000013
 40
0.5000000000000013
 40
1.0
 40
1.0
 40
1.0
 40
1.0
 10
102.6712930193289
 20
147.9487841646783
 30
0.0
 10
102.7622608967146
 20
147.9487841646783
 30
0.0
 10
102.8515914566403
 20
147.9214125834828
 30
0.0
 10
103.0073579242545
 20
147.8256663250964
 30
0.0
 10
103.0721825866015
 20
147.7591775425371
 30
0.0
 10
103.223876029943
 20
147.5350380795906
 30
0.0
 10
103.2712930193291
 20
147.3520061889609
 30
0.0
 10
103.2712930193291
 20
147.1710467635692
 30
0.0
  0
LINE
  5
102
330
1F
100
AcDbEntity
  8
0
  6
Continuous
 62
     7
370
    25
100
AcDbLine
 10
103.2712927094
 20
147.1710459486
 30
0.0
 11
103.2712927094
 21
153.336535503
 31
0.0
  0
LINE
  5
103
330
1F
100
AcDbEntity
  8
0
  6
Continuous
 62
     7
370
    25
100
AcDbLine
 10
102.6712937286
 20
153.9572899387
 30
0.0
 11
98.7132249406
 21
153.9572899387
 31
0.0
  0
LINE
  5
104
330
1F
100
AcDbEntity
  8
0
  6
Continuous
 62
     7
370
    25
100
AcDbLine
 10
98.7132249406
 20
147.9487841174
 30
0.0
 11
102.6712937286
 21
147.9487841174
 31
0.0
  0
LINE
  5
105
330
1F
100
AcDbEntity
  8
0
  6
Continuous
 62
     7
370
    25
100
AcDbLine
 10
98.7132249406
 20
147.9487841174
 30
0.0
 11
98.7132249406
 21
153.9572899387
 31
0.0
  0
SPLINE
  5
106
330
1F
100
AcDbEntity
  8
0
  6
Continuous
 62
     7
370
    25
100
AcDbSpline
210
0.0
220
0.0
230
1.0
 70
     8
 71
     3
 72
     8
 73
     4
 74
     0
 42
0.000000001
 43
0.00000001
 40
0.0
 40
0.0
 40
0.0
 40
0.0
 40
1.0
 40
1.0
 40
1.0
 40
1.0
 10
93.4112930193291
 20
151.2953286934824
 30
0.0
 10
92.91858292248334
 20
152.1833476916088
 30
0.0
 10
92.42450021720435
 20
153.0706103272948
 30
0.0
 10
91.92936018784003
 20
153.9572899754751
 30
0.0
  0
SPLINE
  5
107
330
1F
100
AcDbEntity
  8
0
  6
Continuous
 62
     7
370
    25
100
AcDbSpline
210
0.0
220
0.0
230
1.0
 70
     8
 71
     3
 72
     8
 73
     4
 74
     0
 42
0.000000001
 43
0.00000001
 40
0.0
 40
0.0
 40
0.0
 40
0.0
 40
1.0
 40
1.0
 40
1.0
 40
1.0
 10
91.92936018784003
 20
147.9487841646783
 30
0.0
 10
92.43644702959931
 20
146.8176338105146
 30
0.0
 10
92.93201486873926
 20
145.6812493997468
 30
0.0
 10
93.4112930193291
 20
144.5402381698942
 30
0.0
  0
LINE
  5
108
330
1F
100
AcDbEntity
  8
0
  6
Continuous
 62
     7
370
    25
100
AcDbLine
 10
93.4112930676
 20
144.5402384893
 30
0.0
 11
93.4112930676
 21
151.2953278765
 31
0.0
  0
SPLINE
  5
109
330
1F
100
AcDbEntity
  8
0
  6
Continuous
 62
     7
370
    25
100
AcDbSpline
210
0.0
220
0.0
230
1.0
 70
     8
 71
     3
 72
     8
 73
     4
 74
     0
 42
0.000000001
 43
0.00000001
 40
0.0
 40
0.0
 40
0.0
 40
0.0
 40
1.0
 40
1.0
 40
1.0
 40
1.0
 10
97.23129301932909
 20
144.5402381698942
 30
0.0
 10
97.71057116991894
 20
145.6812493997468
 30
0.0
 10
98.20613900905886
 20
146.8176338105146
 30
0.0
 10
98.71322585081815
 20
147.9487841646783
 30
0.0
  0
LINE
  5
10A
330
1F
100
AcDbEntity
  8
0
  6
Continuous
 62
     7
370
    25
100
AcDbLine
 10
97.231293284
 20
143.6259609804
 30
0.0
 11
97.231293284
 21
144.5402384893
 31
0.0
  0
LINE
  5
10B
330
1F
100
AcDbEntity
  8
0
  6
Continuous
 62
     7
370
    25
100
AcDbLine
 10
103.2712927094
 20
147.1710459486
 30
0.0
 11
103.2712927094
 21
143.3400952414
 31
0.0
  0
SPLINE
  5
10C
330
1F
100
AcDbEntity
  8
0
  6
Continuous
 62
     7
370
    25
100
AcDbSpline
210
0.0
220
0.0
230
1.0
 70
     8
 71
     3
 72
     8
 73
     4
 74
     0
 42
0.000000001
 43
0.00000001
 40
0.0
 40
0.0
 40
0.0
 40
0.0
 40
1.0
 40
1.0
 40
1.0
 40
1.0
 10
98.71322585081815
 20
153.9572899754751
 30
0.0
 10
98.21808582145383
 20
153.0706103272948
 30
0.0
 10
97.72400311617486
 20
152.1833476916088
 30
0.0
 10
97.23129301932909
 20
151.2953286934824
 30
0.0
  0
LINE
  5
10D
330
1F
100
AcDbEntity
  8
0
  6
Continuous
 62
     7
370
    25
100
AcDbLine
 10
97.231293284
 20
144.5402384893
 30
0.0
 11
97.231293284
 21
151.2953278765
 31
0.0
  0
LINE
  5
10E
330
1F
100
AcDbEntity
  8
0
  6
Continuous
 62
     7
370
    25
100
AcDbLine
 10
93.4112930676
 20
144.5402384893
 30
0.0
 11
93.4112930676
 21
143.6259609804
 31
0.0
  0
ARC
  5
10F
330
1F
100
AcDbEntity
  8
0
  6
Continuous
 62
     7
370
    25
100
AcDbCircle
 10
85.3214863498
 20
142.2502777925
 30
0.0
 40
7.197947589070871
100
AcDbArc
 50
70.8186200787
 51
109.2445919003
  0
LINE
  5
110
330
1F
100
AcDbEntity
  8
0
  6
Continuous
 62
     7
370
    25
100
AcDbLine
 10
201.3212909928
 20
108.4900948376
 30
0.0
 11
201.3212909928
 21
138.490094167
 31
0.0
  0
LINE
  5
111
330
1F
100
AcDbEntity
  8
0
  6
Continuous
 62
     7
370
    25
100
AcDbLine
 10
179.8212921253
 20
107.4900937424
 30
0.0
 11
179.8212921253
 21
139.4900952623
 31
0.0
  0
LINE
  5
112
330
1F
100
AcDbEntity
  8
0
  6
HIDDEN
 62
     7
370
    18
100
AcDbLine
 10
206.3212862244
 20
111.490094398
 30
0.0
 11
206.3212862244
 21
135.4900946066
 31
0.0
  0
LINE
  5
113
330
1F
100
AcDbEntity
  8
0
  6
HIDDEN
 62
     7
370
    18
100
AcDbLine
 10
222.321288847
 20
112.2900949017
 30
0.0
 11
222.321288847
 21
134.690094103
 31
0.0
  0
LINE
  5
114
330
1F
100
AcDbEntity
  8
0
  6
HIDDEN
 62
     7
370
    18
100
AcDbLine
 10
206.3212862244
 20
114.8900942102
 30
0.0
 11
206.3212862244
 21
132.0900947944
 31
0.0
  0
LINE
  5
115
330
1F
100
AcDbEntity
  8
0
  6
HIDDEN
 62
     7
370
    18
100
AcDbLine
 10
222.321288847
 20
123.4900945023
 30
0.0
 11
222.321288847
 21
116.4190944441
 31
0.0
  0
LINE
  5
116
330
1F
100
AcDbEntity
  8
0
  6
HIDDEN
 62
     7
370
    18
100
AcDbLine
 10
214.3212875357
 20
123.4900945023
 30
0.0
 11
214.3212875357
 21
119.9545944732
 31
0.0
  0
LINE
  5
117
330
1F
100
AcDbEntity
  8
0
  6
HIDDEN
 62
     7
370
    18
100
AcDbLine
 10
214.3212875357
 20
123.4900945023
 30
0.0
 11
214.3212875357
 21
127.0255945314
 31
0.0
  0
LINE
  5
118
330
1F
100
AcDbEntity
  8
0
  6
HIDDEN
 62
     7
370
    18
100
AcDbLine
 10
214.3212875357
 20
123.4900945023
 30
0.0
 11
222.321288847
 21
123.4900945023
 31
0.0
  0
LINE
  5
119
330
1F
100
AcDbEntity
  8
0
  6
HIDDEN
 62
     7
370
    18
100
AcDbLine
 10
222.321288847
 20
123.4900945023
 30
0.0
 11
222.321288847
 21
130.5610945605
 31
0.0
  0
LINE
  5
11A
330
1F
100
AcDbEntity
  8
0
  6
HIDDEN
 62
     7
370
    18
100
AcDbLine
 10
171.3212898007
 20
116.591594477
 30
0.0
 11
171.3212898007
 21
130.3885945276
 31
0.0
  0
LINE
  5
11B
330
1F
100
AcDbEntity
  8
0
  6
HIDDEN
 62
     7
370
    18
100
AcDbLine
 10
172.4227910867
 20
115.4900941223
 30
0.0
 11
172.4227910867
 21
131.4900948823
 31
0.0
  0
LINE
  5
11C
330
1F
100
AcDbEntity
  8
0
  6
HIDDEN
 62
     7
370
    18
100
AcDbLine
 10
214.3212875357
 20
127.0255945314
 30
0.0
 11
214.3212875357
 21
130.5610945605
 31
0.0
  0
LINE
  5
11D
330
1F
100
AcDbEntity
  8
0
  6
HIDDEN
 62
     7
370
    18
100
AcDbLine
 10
214.3212875357
 20
119.9545944732
 30
0.0
 11
214.3212875357
 21
127.0255945314
 31
0.0
  0
LINE
  5
11E
330
1F
100
AcDbEntity
  8
0
  6
HIDDEN
 62
     7
370
    18
100
AcDbLine
 10
214.3212875357
 20
116.4190944441
 30
0.0
 11
214.3212875357
 21
119.9545944732
 31
0.0
  0
LINE
  5
11F
330
1F
100
AcDbEntity
  8
0
  6
HIDDEN
 62
     7
370
    18
100
AcDbLine
 10
214.3212875357
 20
119.9545944732
 30
0.0
 11
214.3212875357
 21
116.4190944441
 31
0.0
  0
LINE
  5
120
330
1F
100
AcDbEntity
  8
0
  6
HIDDEN
 62
     7
370
    18
100
AcDbLine
 10
214.3212875357
 20
130.5610945605
 30
0.0
 11
214.3212875357
 21
127.0255945314
 31
0.0
  0
LINE
  5
121
330
1F
100
AcDbEntity
  8
0
  6
HIDDEN
 62
     7
370
    18
100
AcDbLine
 10
214.3212875357
 20
127.0255945314
 30
0.0
 11
214.3212875357
 21
119.9545944732
 31
0.0
  0
LINE
  5
122
330
1F
100
AcDbEntity
  8
0
  6
HIDDEN
 62
     7
370
    18
100
AcDbLine
 10
214.3212875357
 20
119.9545944732
 30
0.0
 11
214.3212875357
 21
116.4190944441
 31
0.0
  0
LINE
  5
123
330
1F
100
AcDbEntity
  8
0
  6
HIDDEN
 62
     7
370
    18
100
AcDbLine
 10
214.3212875357
 20
127.0255945314
 30
0.0
 11
214.3212875357
 21
130.5610945605
 31
0.0
  0
LINE
  5
124
330
1F
100
AcDbEntity
  8
0
  6
HIDDEN
 62
     7
370
    18
100
AcDbLine
 10
214.3212875357
 20
130.5610945605
 30
0.0
 11
222.321288847
 21
130.5610945605
 31
0.0
  0
LINE
  5
125
330
1F
100
AcDbEntity
  8
0
  6
HIDDEN
 62
     7
370
    18
100
AcDbLine
 10
214.3212875357
 20
116.4190944441
 30
0.0
 11
222.321288847
 21
116.4190944441
 31
0.0
  0
LINE
  5
126
330
1F
100
AcDbEntity
  8
0
  6
HIDDEN
 62
     7
370
    18
100
AcDbLine
 10
172.4227910867
 20
131.4900948823
 30
0.0
 11
171.3212898007
 21
130.3885945276
 31
0.0
  0
LINE
  5
127
330
1F
100
AcDbEntity
  8
0
  6
HIDDEN
 62
     7
370
    18
100
AcDbLine
 10
171.3212898007
 20
116.591594477
 30
0.0
 11
172.4227910867
 21
115.4900941223
 31
0.0
  0
LINE
  5
128
330
1F
100
AcDbEntity
  8
0
  6
HIDDEN
 62
     7
370
    18
100
AcDbLine
 10
201.3212909928
 20
131.4900948823
 30
0.0
 11
172.4227910867
 21
131.4900948823
 31
0.0
  0
LINE
  5
129
330
1F
100
AcDbEntity
  8
0
  6
HIDDEN
 62
     7
370
    18
100
AcDbLine
 10
172.4227910867
 20
115.4900941223
 30
0.0
 11
201.3212909928
 21
115.4900941223
 31
0.0
  0
LINE
  5
12A
330
1F
100
AcDbEntity
  8
0
  6
HIDDEN
 62
     7
370
    18
100
AcDbLine
 10
214.3212875357
 20
130.5610945605
 30
0.0
 11
210.2388462057
 21
123.4900945023
 31
0.0
  0
LINE
  5
12B
330
1F
100
AcDbEntity
  8
0
  6
HIDDEN
 62
     7
370
    18
100
AcDbLine
 10
210.2388462057
 20
123.4900945023
 30
0.0
 11
214.3212875357
 21
116.4190944441
 31
0.0
  0
DIMENSION
  5
12C
330
1F
100
AcDbEntity
  8
VERMASSUNG
100
AcDbDimension
  2
_D
 10
244.3212930193
 20
107.4900945023
 30
0.0
 11
244.3212930193
 21
123.4900945023
 31
0.0
 70
   160
  1
%%c<>
 71
     2
 42
-1.0
  3
SLDDIMSTYLE0
100
AcDbAlignedDimension
 13
200.3212930193
 23
139.4900945023
 33
0.0
 14
200.3212930193
 24
107.4900945023
 34
0.0
 50
90.0
100
AcDbRotatedDimension
  0
DIMENSION
  5
138
330
1F
100
AcDbEntity
  8
VERMASSUNG
100
AcDbDimension
  2
_D_1
 10
264.4927530428
 20
159.4900945023
 30
0.0
 11
264.4927530428
 21
123.4900945023
 31
0.0
 70
   160
  1
%%c<>
 71
     2
 42
-1.0
  3
SLDDIMSTYLE0
100
AcDbAlignedDimension
 13
176.3212930193
 23
87.4900945023
 33
0.0
 14
176.3212930193
 24
159.4900945023
 34
0.0
 50
90.0
100
AcDbRotatedDimension
  0
DIMENSION
  5
143
330
1F
100
AcDbEntity
  8
VERMASSUNG
100
AcDbDimension
  2
_D_2
 10
254.581264225
 20
97.4900945023
 30
0.0
 11
254.581264225
 21
123.4900945023
 31
0.0
 70
   160
  1
%%c<>
 71
     2
 42
-1.0
  3
SLDDIMSTYLE0
100
AcDbAlignedDimension
 13
118.7439427501
 23
149.4900945023
 33
0.0
 14
118.7439427501
 24
97.4900945023
 34
0.0
 50
90.0
100
AcDbRotatedDimension
  0
DIMENSION
  5
14E
330
1F
100
AcDbEntity
  8
VERMASSUNG
100
AcDbDimension
  2
_D_3
 10
35.275989177
 20
91.9900945023
 30
0.0
 11
35.275989177
 21
123.4900945023
 31
0.0
 70
   160
  1
HSK A %%c<>
 71
     2
 42
-1.0
  3
SLDDIMSTYLE0
100
AcDbAlignedDimension
 13
77.6212930193
 23
154.9900945023
 33
0.0
 14
77.6212930193
 24
91.9900945023
 34
0.0
 50
90.0
100
AcDbRotatedDimension
  0
DIMENSION
  5
15A
330
1F
100
AcDbEntity
  8
VERMASSUNG
100
AcDbDimension
  2
_D_4
 10
177.3212930193
 20
170.7486242823
 30
0.0
 11
140.2962930193
 21
170.7486242823
 31
0.0
 70
   160
  1
<>
 71
     2
 42
-1.0
  3
SLDDIMSTYLE0
100
AcDbAlignedDimension
 13
103.2712930193
 23
153.3365348261
 33
0.0
 14
177.3212930193
 24
158.4900945023
 34
0.0
100
AcDbRotatedDimension
  0
DIMENSION
  5
164
330
1F
100
AcDbEntity
  8
VERMASSUNG
100
AcDbDimension
  2
_D_5
 10
177.3212930193
 20
178.5483285918
 30
0.0
 11
127.3212930193
 21
178.5483285918
 31
0.0
 70
   160
  1
<>
 71
     2
 42
-1.0
  3
SLDDIMSTYLE0
100
AcDbAlignedDimension
 13
77.3212930193
 23
154.6900945023
 33
0.0
 14
177.3212930193
 24
158.4900945023
 34
0.0
100
AcDbRotatedDimension
  0
DIMENSION
  5
16E
330
1F
100
AcDbEntity
  8
VERMASSUNG
100
AcDbDimension
  2
_D_6
 10
201.3212930193
 20
170.7486242823
 30
0.0
 11
189.3212930193
 21
170.7486242823
 31
0.0
 70
   160
  1
<>
 71
     2
 42
-1.0
  3
SLDDIMSTYLE0
100
AcDbAlignedDimension
 13
177.3212930193
 23
158.4900945023
 33
0.0
 14
201.3212930193
 24
138.4900945023
 34
0.0
100
AcDbRotatedDimension
  0
DIMENSION
  5
178
330
1F
100
AcDbEntity
  8
VERMASSUNG
100
AcDbDimension
  2
_D_7
 10
222.3212930193
 20
187.4900945023
 30
0.0
 11
133.8712930193
 21
187.4900945023
 31
0.0
 70
   160
  1
<>
 71
     2
 42
-1.0
  3
SLDDIMSTYLE0
100
AcDbAlignedDimension
 13
45.4212930193
 23
143.1807722488
 33
0.0
 14
222.3212930193
 24
134.6900945023
 34
0.0
100
AcDbRotatedDimension
  0
DIMENSION
  5
182
330
1F
100
AcDbEntity
  8
VERMASSUNG
100
AcDbDimension
  2
_D_8
 10
235.3778805642
 20
116.4190945023
 30
0.0
 11
235.3778805642
 21
123.4900945023
 31
0.0
 70
   160
  1
SW<>
 71
     2
 42
-1.0
  3
SLDDIMSTYLE1
100
AcDbAlignedDimension
 13
222.3212930193
 23
130.5610945023
 33
0.0
 14
222.3212930193
 24
116.4190945023
 34
0.0
 50
90.0
100
AcDbRotatedDimension
  0
LINE
  5
18E
330
1F
100
AcDbEntity
  8
VERMASSUNG
  6
CENTERX2
370
    18
100
AcDbLine
 10
228.1060150376
 20
123.4900945023
 30
0.0
 11
38.7541353383
 21
123.4900945023
 31
0.0
  0
SPLINE
  5
18F
330
1F
100
AcDbEntity
  8
0
  6
Continuous
 62
     7
370
    25
100
AcDbSpline
210
0.0
220
0.0
230
1.0
 70
     8
 71
     3
 72
    18
 73
    14
 74
     0
 42
0.000000001
 43
0.00000001
 40
0.0
 40
0.0
 40
0.0
 40
0.0
 40
0.0121391135112275
 40
0.1121022617096668
 40
0.2118790779722747
 40
0.3115907290807468
 40
0.4113934340902918
 40
0.5114240372211792
 40
0.6118679381837941
 40
0.7128525542709883
 40
0.8141537225546043
 40
0.9143726475136017
 40
1.0
 40
1.0
 40
1.0
 40
1.0
 10
271.8006646108093
 20
34.23836314108172
 30
0.0
 10
271.8204897821449
 20
34.25442821129562
 30
0.0
 10
272.0035712356159
 20
34.40278589028398
 30
0.0
 10
272.3201396686953
 20
34.77319241660616
 30
0.0
 10
272.726351247844
 20
35.33181864730253
 30
0.0
 10
273.0619910240921
 20
35.9486913556284
 30
0.0
 10
273.3176633062641
 20
36.58788612124637
 30
0.0
 10
273.4820331221591
 20
37.22880750389577
 30
0.0
 10
273.5473468046904
 20
37.84674160391462
 30
0.0
 10
273.5087102440551
 20
38.42036760538195
 30
0.0
 10
273.3602834029032
 20
38.92195001439111
 30
0.0
 10
273.1236467614557
 20
39.32628854479202
 30
0.0
 10
272.8941314554584
 20
39.49658091536486
 30
0.0
 10
272.7883839081962
 20
39.57504191572074
 30
0.0
  0
LINE
  5
190
330
1F
100
AcDbEntity
  8
0
  6
Continuous
 62
     7
370
    25
100
AcDbLine
 10
272.7326051884
 20
39.6183263677
 30
0.0
 11
270.4345087606
 21
40.9449891966
 31
0.0
  0
SPLINE
  5
191
330
1F
100
AcDbEntity
  8
0
  6
Continuous
 62
     7
370
    25
100
AcDbSpline
210
0.0
220
0.0
230
1.0
 70
     8
 71
     3
 72
    23
 73
    19
 74
     0
 42
0.000000001
 43
0.00000001
 40
0.0
 40
0.0
 40
0.0
 40
0.0
 40
0.0536947586600119
 40
0.1138475493225332
 40
0.1746147289774862
 40
0.2371624569717175
 40
0.301051571416508
 40
0.3653639656332609
 40
0.4295837473332018
 40
0.4936838229568686
 40
0.5577420342330388
 40
0.6218586971045543
 40
0.6861218141847274
 40
0.7506504736720231
 40
0.8155264816514636
 40
0.8806058746658104
 40
0.9449899761978392
 40
1.0
 40
1.0
 40
1.0
 40
1.0
 10
250.0450303919408
 20
22.60465874229642
 30
0.0
 10
250.1542077947648
 20
22.53732492982037
 30
0.0
 10
250.3856936988475
 20
22.39455886236338
 30
0.0
 10
250.8133539099247
 20
22.33040354969205
 30
0.0
 10
251.2842515949833
 20
22.37833838902654
 30
0.0
 10
251.7797739334497
 20
22.55262952662472
 30
0.0
 10
252.2830527298202
 20
22.84644632293361
 30
0.0
 10
252.7736427651017
 20
23.25015971495513
 30
0.0
 10
253.2300237920634
 20
23.74562502875568
 30
0.0
 10
253.6339955364632
 20
24.31192995094478
 30
0.0
 10
253.9702349208275
 20
24.92674720992483
 30
0.0
 10
254.2257456510154
 20
25.56649330382985
 30
0.0
 10
254.3901583191692
 20
26.20726615838267
 30
0.0
 10
254.4554624606401
 20
26.82524112036905
 30
0.0
 10
254.4168287418223
 20
27.39885650133805
 30
0.0
 10
254.2684001007724
 20
27.90044092092748
 30
0.0
 10
254.0317639494674
 20
28.30477934527553
 30
0.0
 10
253.802248150197
 20
28.47507128005351
 30
0.0
 10
253.696500320934
 20
28.55353212022661
 30
0.0
  0
LINE
  5
192
330
1F
100
AcDbEntity
  8
0
  6
Continuous
 62
     7
370
    25
100
AcDbLine
 10
247.8429102408
 20
23.8611375433
 30
0.0
 11
250.1410066685
 21
22.5344747144
 31
0.0
  0
LINE
  5
193
330
1F
100
AcDbEntity
  8
0
  6
Continuous
 62
     7
370
    25
100
AcDbLine
 10
253.6407222597
 20
28.5968169524
 30
0.0
 11
251.3426258319
 21
29.9234797813
 31
0.0
  0
SPLINE
  5
194
330
1F
100
AcDbEntity
  8
0
  6
Continuous
 62
     7
370
    25
100
AcDbSpline
210
0.0
220
0.0
230
1.0
 70
     8
 71
     3
 72
    23
 73
    19
 74
     0
 42
0.000000001
 43
0.00000001
 40
0.0
 40
0.0
 40
0.0
 40
0.0
 40
0.0306972823627921
 40
0.0942354446253279
 40
0.1584331291628142
 40
0.2239960450260136
 40
0.2908150630870173
 40
0.3583399005033303
 40
0.4260573701784586
 40
0.4936937856533433
 40
0.561212194608236
 40
0.6286412341056429
 40
0.6960341966103185
 40
0.7634525292741614
 40
0.8309410259398188
 40
0.8985667659689988
 40
0.9663929377223628
 40
1.0
 40
1.0
 40
1.0
 40
1.0
 10
271.9669398550854
 20
18.10151489839835
 30
0.0
 10
272.0475849848906
 20
18.06080931075844
 30
0.0
 10
272.2951518402964
 20
17.93585006828714
 30
0.0
 10
272.7722448043658
 20
17.86135243347118
 30
0.0
 10
273.3754447190042
 20
17.872629431833
 30
0.0
 10
274.0127086489299
 20
18.01652671680403
 30
0.0
 10
274.6688965934092
 20
18.2834867150772
 30
0.0
 10
275.3299411254325
 20
18.67118332961695
 30
0.0
 10
275.9784899954424
 20
19.16914798323419
 30
0.0
 10
276.5986299674271
 20
19.76438960544661
 30
0.0
 10
277.1762095757256
 20
20.44198121167881
 30
0.0
 10
277.6986199247364
 20
21.18605897290417
 30
0.0
 10
278.1544649462923
 20
21.97972601104103
 30
0.0
 10
278.5334421790113
 20
22.80511889615
 30
0.0
 10
278.8272363552855
 20
23.64425295724849
 30
0.0
 10
279.0269438756802
 20
24.47790238709238
 30
0.0
 10
279.1152633393724
 20
25.15390540720031
 30
0.0
 10
279.1230039423987
 20
25.53983045410524
 30
0.0
 10
279.1255685744983
 20
25.66769591368302
 30
0.0
  0
SPLINE
  5
195
330
1F
100
AcDbEntity
  8
0
  6
Continuous
 62
     7
370
    25
100
AcDbSpline
210
0.0
220
0.0
230
1.0
 70
     8
 71
     3
 72
    13
 73
     9
 74
     0
 42
0.000000001
 43
0.00000001
 40
0.0
 40
0.0
 40
0.0
 40
0.0
 40
0.101185317394422
 40
0.2930371592326602
 40
0.4848541521489204
 40
0.674605097696014
 40
0.8602735921343492
 40
1.0
 40
1.0
 40
1.0
 40
1.0
 10
279.1255685744983
 20
25.66769591368302
 30
0.0
 10
279.1226472551983
 20
25.80177759096354
 30
0.0
 10
279.1141869851615
 20
26.19008406493818
 30
0.0
 10
279.0192297753008
 20
26.78873145572693
 30
0.0
 10
278.8060741328501
 20
27.42609480348746
 30
0.0
 10
278.485878891149
 20
27.9633866986274
 30
0.0
 10
278.1117569051356
 20
28.37020956995832
 30
0.0
 10
277.8144590379824
 20
28.53606130371202
 30
0.0
 10
277.6867976556149
 20
28.60727897439957
 30
0.0
  0
LINE
  5
196
330
1F
100
AcDbEntity
  8
0
  6
Continuous
 62
     7
370
    25
100
AcDbLine
 10
277.7655240174
 20
28.5780478238
 30
0.0
 11
272.3915110726
 21
31.6803994613
 31
0.0
  0
LINE
  5
197
330
1F
100
AcDbEntity
  8
0
  6
Continuous
 62
     7
370
    25
100
AcDbLine
 10
266.3919987248
 20
21.2878130392
 30
0.0
 11
271.7660116695
 21
18.1854614016
 31
0.0
  0
LINE
  5
198
330
1F
100
AcDbEntity
  8
0
  6
Continuous
 62
     7
370
    25
100
AcDbLine
 10
269.1553438412
 20
31.2392605085
 30
0.0
 11
268.6391002646
 21
31.5372815816
 31
0.0
  0
LINE
  5
199
330
1F
100
AcDbEntity
  8
0
  6
Continuous
 62
     7
370
    25
100
AcDbLine
 10
264.6390907157
 20
24.6090838231
 30
0.0
 11
265.1556688329
 21
24.3108696238
 31
0.0
  0
SPLINE
  5
19A
330
1F
100
AcDbEntity
  8
0
  6
Continuous
 62
     7
370
    25
100
AcDbSpline
210
0.0
220
0.0
230
1.0
 70
     8
 71
     3
 72
    19
 73
    15
 74
     0
 42
0.000000001
 43
0.00000001
 40
0.0
 40
0.0
 40
0.0
 40
0.0
 40
0.0043934957082722
 40
0.1017425087699125
 40
0.1996673884170026
 40
0.2981859834638313
 40
0.3972009637409353
 40
0.4965645008585936
 40
0.5961325904966932
 40
0.6957928878245314
 40
0.7954610441737384
 40
0.8950941148335468
 40
0.9946768652422208
 40
1.0
 40
1.0
 40
1.0
 40
1.0
 10
252.0377992439866
 20
16.22963459416856
 30
0.0
 10
252.0519456183707
 20
16.22638882845175
 30
0.0
 10
252.3795407078856
 20
16.15122491141742
 30
0.0
 10
253.0676133374759
 20
16.12146319182232
 30
0.0
 10
254.0972940964057
 20
16.15094513290099
 30
0.0
 10
255.169631321666
 20
16.32268833881804
 30
0.0
 10
256.2691548235477
 20
16.6173282079204
 30
0.0
 10
257.388918943624
 20
17.03792014480975
 30
0.0
 10
258.5192978303503
 20
17.57943819757132
 30
0.0
 10
259.6508641393906
 20
18.23854504910469
 30
0.0
 10
260.7759280402187
 20
19.00615838218533
 30
0.0
 10
261.880805122649
 20
19.88846210590575
 30
0.0
 10
262.6305022711807
 20
20.53410881082887
 30
0.0
 10
262.9989063139117
 20
20.90752623159858
 30
0.0
 10
263.0175998730161
 20
20.92647417954741
 30
0.0
  0
SPLINE
  5
19B
330
1F
100
AcDbEntity
  8
0
  6
Continuous
 62
     7
370
    25
100
AcDbSpline
210
0.0
220
0.0
230
1.0
 70
     8
 71
     3
 72
    14
 73
    10
 74
     0
 42
0.000000001
 43
0.00000001
 40
0.0
 40
0.0
 40
0.0
 40
0.0
 40
0.0795858039191933
 40
0.2484891544900372
 40
0.4173653494264663
 40
0.5860487011933424
 40
0.7543075763329548
 40
0.9218591816800684
 40
1.0
 40
1.0
 40
1.0
 40
1.0
 10
271.6393027671074
 20
40.24947612997584
 30
0.0
 10
271.6357817300489
 20
40.45315168839975
 30
0.0
 10
271.6247880668766
 20
41.08908378697389
 30
0.0
 10
271.4981493238919
 20
42.09252001667458
 30
0.0
 10
271.2641296226638
 20
43.25015988510905
 30
0.0
 10
270.9263750310377
 20
44.32475569159858
 30
0.0
 10
270.4879144827112
 20
45.30341373184993
 30
0.0
 10
270.0645191832958
 20
46.04576209186013
 30
0.0
 10
269.7554037723066
 20
46.41961452439263
 30
0.0
 10
269.6570917006135
 20
46.53851576918061
 30
0.0
  0
LINE
  5
19C
330
1F
100
AcDbEntity
  8
0
  6
Continuous
 62
     7
370
    25
100
AcDbLine
 10
237.5549738377
 20
24.0790416004
 30
0.0
 11
249.7858865426
 21
17.0182859883
 31
0.0
  0
LINE
  5
19D
330
1F
100
AcDbEntity
  8
0
  6
Continuous
 62
     7
370
    25
100
AcDbLine
 10
231.8787087201
 20
27.3558797033
 30
0.0
 11
235.1081148398
 21
25.4915832331
 31
0.0
  0
LINE
  5
19E
330
1F
100
AcDbEntity
  8
0
  6
Continuous
 62
     7
370
    25
100
AcDbLine
 10
253.1075033814
 20
56.6688517005
 30
0.0
 11
249.8772464222
 21
58.5336393499
 31
0.0
  0
LINE
  5
19F
330
1F
100
AcDbEntity
  8
0
  6
Continuous
 62
     7
370
    25
100
AcDbLine
 10
267.7844242447
 20
48.1960456349
 30
0.0
 11
255.5686396242
 21
55.2480679897
 31
0.0
  0
SPLINE
  5
1A0
330
1F
100
AcDbEntity
  8
0
  6
Continuous
 62
     7
370
    25
100
AcDbSpline
210
0.0
220
0.0
230
1.0
 70
     8
 71
     3
 72
    13
 73
     9
 74
     0
 42
0.000000001
 43
0.00000001
 40
0.0
 40
0.0
 40
0.0
 40
0.0
 40
0.1273011316294959
 40
0.3002953259751191
 40
0.4739098935652562
 40
0.6501171175974639
 40
0.8295085217432756
 40
1.0
 40
1.0
 40
1.0
 40
1.0
 10
263.1863337932127
 20
20.84718564667414
 30
0.0
 10
263.3215298453211
 20
20.76465397859952
 30
0.0
 10
263.6404487898643
 20
20.56996698838588
 30
0.0
 10
264.2182728679242
 20
20.40746342151804
 30
0.0
 10
264.8897701400987
 20
20.33988617952042
 30
0.0
 10
265.6014738946189
 20
20.4055171667992
 30
0.0
 10
266.3265499926018
 20
20.58324801327811
 30
0.0
 10
266.814200725341
 20
20.80086398560586
 30
0.0
 10
267.0518239372192
 20
20.90690423701703
 30
0.0
  0
SPLINE
  5
1A1
330
1F
100
AcDbEntity
  8
0
  6
Continuous
 62
     7
370
    25
100
AcDbSpline
210
0.0
220
0.0
230
1.0
 70
     8
 71
     3
 72
    14
 73
    10
 74
     0
 42
0.000000001
 43
0.00000001
 40
0.0
 40
0.0
 40
0.0
 40
0.0
 40
0.0386410725318919
 40
0.2178477826676066
 40
0.3966260484748043
 40
0.5737990241086839
 40
0.7480052750028688
 40
0.9186729639732814
 40
1.0
 40
1.0
 40
1.0
 40
1.0
 10
273.0449686535745
 20
31.30316614766934
 30
0.0
 10
273.0430544705193
 20
31.36611336007623
 30
0.0
 10
273.0322628307724
 20
31.72099250160699
 30
0.0
 10
272.9093434633079
 20
32.30854213165544
 30
0.0
 10
272.6704080946366
 20
33.04351391234573
 30
0.0
 10
272.321254606183
 20
33.68114919096632
 30
0.0
 10
271.8765246130421
 20
34.20341439506974
 30
0.0
 10
271.449883871324
 20
34.55767851962604
 30
0.0
 10
271.1529556073884
 20
34.68772749993623
 30
0.0
 10
271.0571270315374
 20
34.72969860908164
 30
0.0
  0
LINE
  5
1A2
330
1F
100
AcDbEntity
  8
0
  6
Continuous
 62
     7
370
    25
100
AcDbLine
 10
256.022917126
 20
24.964417902
 30
0.0
 11
263.2707631504
 21
20.780325453
 31
0.0
  0
LINE
  5
1A3
330
1F
100
AcDbEntity
  8
0
  6
Continuous
 62
     7
370
    25
100
AcDbLine
 10
271.270113167
 20
34.6371072224
 30
0.0
 11
264.0222671426
 21
38.8211996714
 31
0.0
  0
SPLINE
  5
1A4
330
1F
100
AcDbEntity
  8
0
  6
Continuous
 62
     7
370
    25
100
AcDbSpline
210
0.0
220
0.0
230
1.0
 70
     8
 71
     3
 72
    12
 73
     8
 74
     0
 42
0.000000001
 43
0.00000001
 40
0.0
 40
0.0
 40
0.0
 40
0.0
 40
0.2305575793162087
 40
0.4607945033692814
 40
0.7063837528400908
 40
0.9279233746824113
 40
1.0
 40
1.0
 40
1.0
 40
1.0
 10
265.0844936716999
 20
24.07571204064588
 30
0.0
 10
264.9970516810861
 20
24.14184114201131
 30
0.0
 10
264.8222893125794
 20
24.27400737359785
 30
0.0
 10
264.6161328680166
 20
24.6154242827441
 30
0.0
 10
264.4700883762883
 20
25.05331895242791
 30
0.0
 10
264.4160797265378
 20
25.46457853549573
 30
0.0
 10
264.4125474218741
 20
25.70959991039908
 30
0.0
 10
264.4116803152266
 20
25.76974751464282
 30
0.0
  0
SPLINE
  5
1A5
330
1F
100
AcDbEntity
  8
0
  6
Continuous
 62
     7
370
    25
100
AcDbSpline
210
0.0
220
0.0
230
1.0
 70
     8
 71
     3
 72
    21
 73
    17
 74
     0
 42
0.000000001
 43
0.00000001
 40
0.0
 40
0.0
 40
0.0
 40
0.0
 40
0.0386251571946656
 40
0.1129383653151216
 40
0.1876076586089924
 40
0.2625889472533213
 40
0.337790161753547
 40
0.4130766008644665
 40
0.4882789995491314
 40
0.5632211414460556
 40
0.6377605162967547
 40
0.7117980666350564
 40
0.7853831542168158
 40
0.8588790295173973
 40
0.9331872513472632
 40
0.9999999999999999
 40
0.9999999999999999
 40
0.9999999999999999
 40
0.9999999999999999
 10
264.4116803152266
 20
25.76974751464282
 30
0.0
 10
264.4140957776311
 20
25.8745901624754
 30
0.0
 10
264.4211584899996
 20
26.18114573717105
 30
0.0
 10
264.5016363726423
 20
26.73453438449944
 30
0.0
 10
264.6836076436412
 20
27.42296891771822
 30
0.0
 10
264.9534686877903
 20
28.12315013823444
 30
0.0
 10
265.3018714515659
 20
28.80975066062822
 30
0.0
 10
265.7178967549756
 20
29.4594634888046
 30
0.0
 10
266.1869524070918
 20
30.04984476706323
 30
0.0
 10
266.6918895885066
 20
30.56097272007778
 30
0.0
 10
267.2135035561588
 20
30.97641998278288
 30
0.0
 10
267.7310557640581
 20
31.28405340777216
 30
0.0
 10
268.2240110647418
 20
31.47842566528366
 30
0.0
 10
268.6708553102668
 20
31.55725793548409
 30
0.0
 10
269.046890763832
 20
31.54017331980474
 30
0.0
 10
269.2407716878036
 20
31.45556344616227
 30
0.0
 10
269.3325632719854
 20
31.41550548594642
 30
0.0
  0
LINE
  5
1A6
330
1F
100
AcDbEntity
  8
0
  6
Continuous
 62
     7
370
    25
100
AcDbLine
 10
263.1918102493
 20
39.1332666224
 30
0.0
 11
262.6916908058
 21
39.2351622997
 31
0.0
  0
LINE
  5
1A7
330
1F
100
AcDbEntity
  8
0
  6
Continuous
 62
     7
370
    25
100
AcDbLine
 10
254.9990384667
 20
25.9096535235
 30
0.0
 11
255.33737822
 21
25.5275167855
 31
0.0
  0
SPLINE
  5
1A8
330
1F
100
AcDbEntity
  8
0
  6
Continuous
 62
     7
370
    25
100
AcDbSpline
210
0.0
220
0.0
230
1.0
 70
     8
 71
     3
 72
    13
 73
     9
 74
     0
 42
0.000000001
 43
0.00000001
 40
0.0
 40
0.0
 40
0.0
 40
0.0
 40
0.0575632667720291
 40
0.2499425760278032
 40
0.4435016232740339
 40
0.638186702786911
 40
0.8337581364253354
 40
1.0
 40
1.0
 40
1.0
 40
1.0
 10
247.5446718967546
 20
59.3236852982652
 30
0.0
 10
247.449409542615
 20
59.34204641154934
 30
0.0
 10
247.0357756485134
 20
59.42177128142423
 30
0.0
 10
246.2553268754523
 20
59.43399212526555
 30
0.0
 10
245.2107487034774
 20
59.35841423749392
 30
0.0
 10
244.1281549397135
 20
59.14261319586773
 30
0.0
 10
243.077911926612
 20
58.83189892589097
 30
0.0
 10
242.3857243082529
 20
58.53379273243934
 30
0.0
 10
242.0676858046775
 20
58.39682228518307
 30
0.0
  0
SPLINE
  5
1A9
330
1F
100
AcDbEntity
  8
0
  6
Continuous
 62
     7
370
    25
100
AcDbSpline
210
0.0
220
0.0
230
1.0
 70
     8
 71
     3
 72
    14
 73
    10
 74
     0
 42
0.000000001
 43
0.00000001
 40
0.0
 40
0.0
 40
0.0
 40
0.0
 40
0.083674413531962
 40
0.2424589615169724
 40
0.4013186350203636
 40
0.5600548454684615
 40
0.7184717882735704
 40
0.8763149830379154
 40
1.0
 40
1.0
 40
1.0
 40
1.0
 10
228.0036102471209
 20
35.80118851773901
 30
0.0
 10
228.0064216225804
 20
35.57294238972949
 30
0.0
 10
228.0145679978648
 20
34.91156555024535
 30
0.0
 10
228.105175772757
 20
33.86109359852631
 30
0.0
 10
228.308721103003
 20
32.68029354532865
 30
0.0
 10
228.6129405590045
 20
31.5774036296082
 30
0.0
 10
229.017713044074
 20
30.56536897260859
 30
0.0
 10
229.472598333637
 20
29.70314968471107
 30
0.0
 10
229.8340288469201
 20
29.22939683412918
 30
0.0
 10
229.9928176904676
 20
29.02126092831452
 30
0.0
  0
LINE
  5
1AA
330
1F
100
AcDbEntity
  8
0
  6
Continuous
 62
     7
370
    25
100
AcDbLine
 10
226.8121623037
 20
36.0540815871
 30
0.0
 11
228.012640868
 21
35.3610600633
 31
0.0
  0
LINE
  5
1AB
330
1F
100
AcDbEntity
  8
0
  6
Continuous
 62
     7
370
    25
100
AcDbLine
 10
241.0279558145
 20
57.8688791836
 30
0.0
 11
239.8111051752
 21
58.5713521051
 31
0.0
  0
LINE
  5
1AC
330
1F
100
AcDbEntity
  8
0
  6
Continuous
 62
     7
370
    25
100
AcDbLine
 10
216.0150756921
 20
39.1117662982
 30
0.0
 11
221.0737414505
 21
36.1914607163
 31
0.0
  0
LINE
  5
1AD
330
1F
100
AcDbEntity
  8
0
  6
Continuous
 62
     7
370
    25
100
AcDbLine
 10
233.9570967547
 20
65.1261399488
 30
0.0
 11
231.7637961814
 21
66.3923054186
 31
0.0
  0
LINE
  5
1AE
330
1F
100
AcDbEntity
  8
0
  6
Continuous
 62
     7
370
    25
100
AcDbLine
 10
223.472199732
 20
34.8068602225
 30
0.0
 11
224.8715883722
 21
33.999010356
 31
0.0
  0
LINE
  5
1AF
330
1F
100
AcDbEntity
  8
0
  6
Continuous
 62
     7
370
    25
100
AcDbLine
 10
224.5875021496
 20
65.9816279747
 30
0.0
 11
218.3971198958
 21
69.0658472943
 31
0.0
  0
LINE
  5
1B0
330
1F
100
AcDbEntity
  8
0
  6
Continuous
 62
     7
370
    25
100
AcDbLine
 10
207.0154220659
 20
49.3500319139
 30
0.0
 11
216.8109042366
 21
42.863870589
 31
0.0
  0
SPLINE
  5
1B1
330
1F
100
AcDbEntity
  8
0
  6
Continuous
 62
     7
370
    25
100
AcDbSpline
210
0.0
220
0.0
230
1.0
 70
     8
 71
     3
 72
    10
 73
     6
 74
     0
 42
0.000000001
 43
0.00000001
 40
0.0
 40
0.0
 40
0.0
 40
0.0
 40
0.2504937521486483
 40
0.9314440683824641
 40
1.0
 40
1.0
 40
1.0
 40
1.0
 10
242.2679806350553
 20
59.8061372655183
 30
0.0
 10
242.205920366018
 20
59.8930714610888
 30
0.0
 10
241.9751534547433
 20
60.21633038515051
 30
0.0
 10
241.6772875338298
 20
60.50255884804304
 30
0.0
 10
241.4419070317795
 20
60.69732568869366
 30
0.0
 10
241.4203772184539
 20
60.71514064653729
 30
0.0
  0
SPLINE
  5
1B2
330
1F
100
AcDbEntity
  8
0
  6
Continuous
 62
     7
370
    25
100
AcDbSpline
210
0.0
220
0.0
230
1.0
 70
     8
 71
     3
 72
     9
 73
     5
 74
     0
 42
0.000000001
 43
0.00000001
 40
0.0
 40
0.0
 40
0.0
 40
0.0
 40
0.5052372268333093
 40
0.9999999999999999
 40
0.9999999999999999
 40
0.9999999999999999
 40
0.9999999999999999
 10
242.9350361722592
 20
58.75266203894981
 30
0.0
 10
242.8378154912408
 20
58.94700422881398
 30
0.0
 10
242.645389684402
 20
59.33165955415937
 30
0.0
 10
242.3929020949853
 20
59.64908631904576
 30
0.0
 10
242.2679806350553
 20
59.8061372655183
 30
0.0
  0
SPLINE
  5
1B3
330
1F
100
AcDbEntity
  8
0
  6
Continuous
 62
     7
370
    25
100
AcDbSpline
210
0.0
220
0.0
230
1.0
 70
     8
 71
     3
 72
    24
 73
    20
 74
     0
 42
0.000000001
 43
0.00000001
 40
0.0
 40
0.0
 40
0.0
 40
0.0
 40
0.0263829727533314
 40
0.086025180639039
 40
0.1460118989352607
 40
0.2067118567340265
 40
0.2682186132448343
 40
0.330390054637325
 40
0.3929806928894654
 40
0.4557643388618766
 40
0.5185728699265586
 40
0.5813275466335877
 40
0.6440093837420928
 40
0.7066224028461621
 40
0.7691821832604079
 40
0.8317095899685947
 40
0.8942278166085439
 40
0.9567590660059665
 40
1.0
 40
1.0
 40
1.0
 40
1.0
 10
218.257805134401
 20
69.11334243517386
 30
0.0
 10
218.157021146703
 20
69.16357609533394
 30
0.0
 10
217.8284015924057
 20
69.32736960449729
 30
0.0
 10
217.2074927286923
 20
69.47287965971607
 30
0.0
 10
216.4108533202586
 20
69.55176886775283
 30
0.0
 10
215.5697950658951
 20
69.49636327532593
 30
0.0
 10
214.6966420668822
 20
69.31542102908664
 30
0.0
 10
213.7999428488296
 20
69.0072913766041
 30
0.0
 10
212.8916461684375
 20
68.57593455321958
 30
0.0
 10
211.9839192076257
 20
68.0269839564241
 30
0.0
 10
211.0886843155731
 20
67.36827903095953
 30
0.0
 10
210.2170258850019
 20
66.60889390924218
 30
0.0
 10
209.37923066147
 20
65.75874468133968
 30
0.0
 10
208.5848579341379
 20
64.82848572096724
 30
0.0
 10
207.8433214698082
 20
63.82945844946097
 30
0.0
 10
207.1620956932766
 20
62.7737902198582
 30
0.0
 10
206.5532276333175
 20
61.67365307809929
 30
0.0
 10
206.0647881580424
 20
60.6599869520931
 30
0.0
 10
205.818877922388
 20
60.01256150929729
 30
0.0
 10
205.7183468760634
 20
59.74788624269734
 30
0.0
  0
LINE
  5
1B4
330
1F
100
AcDbEntity
  8
0
  6
Continuous
 62
     7
370
    25
100
AcDbLine
 10
205.8312358927
 20
57.906172332
 30
0.0
 11
208.3847962231
 21
56.4320333312
 31
0.0
  0
LINE
  5
1B5
330
1F
100
AcDbEntity
  8
0
  6
Continuous
 62
     7
370
    25
100
AcDbLine
 10
205.532943548
 20
59.0344820054
 30
0.0
 11
205.532943548
 21
58.569076036
 31
0.0
  0
LINE
  5
1B6
330
1F
100
AcDbEntity
  8
0
  6
Continuous
 62
     7
370
    25
100
AcDbLine
 10
205.532943548
 20
51.5631333406
 30
0.0
 11
205.532943548
 21
51.0977273712
 31
0.0
  0
SPLINE
  5
1B7
330
1F
100
AcDbEntity
  8
0
  6
Continuous
 62
     7
370
    25
100
AcDbSpline
210
0.0
220
0.0
230
1.0
 70
     8
 71
     3
 72
    10
 73
     6
 74
     0
 42
0.000000001
 43
0.00000001
 40
0.0
 40
0.0
 40
0.0
 40
0.0
 40
0.3660366327995881
 40
0.8031455592625047
 40
1.0
 40
1.0
 40
1.0
 40
1.0
 10
205.6479254191022
 20
50.81170960151437
 30
0.0
 10
205.7718958815489
 20
50.61853949844986
 30
0.0
 10
206.043907799133
 20
50.19469200189756
 30
0.0
 10
206.4631154645746
 20
49.74931590979849
 30
0.0
 10
206.7758711451366
 20
49.53633751570526
 30
0.0
 10
206.8729861327996
 20
49.4702047628878
 30
0.0
  0
LWPOLYLINE
  5
1B8
330
1F
100
AcDbEntity
  8
0
  6
Continuous
 62
     7
370
    25
100
AcDbPolyline
 90
        3
 70
   128
 43
0.0
 10
272.7326051884
 20
39.6183263677
 10
272.7794948744
 20
39.5897667765
 10
272.7847421571
 20
39.5863789923
  0
LWPOLYLINE
  5
1B9
330
1F
100
AcDbEntity
  8
0
  6
Continuous
 62
     7
370
    25
100
AcDbPolyline
 90
       11
 70
   128
 43
0.0
 10
266.3417751572
 20
37.482175794
 10
266.4385166625
 20
37.8171504299
 10
266.7144211281
 20
38.5059516376
 10
267.0824520191
 20
39.1670658231
 10
267.5253995919
 20
39.7695793132
 10
268.0225519631
 20
40.2853190913
 10
268.5506638288
 20
40.6901703987
 10
269.0850410869
 20
40.9652028783
 10
269.6006959246
 20
41.0975554548
 10
270.073518369
 20
41.0810406029
 10
270.4345087606
 20
40.9449891966
  0
LWPOLYLINE
  5
1BA
330
1F
100
AcDbEntity
  8
0
  6
Continuous
 62
     7
370
    25
100
AcDbPolyline
 90
       20
 70
   128
 43
0.0
 10
270.134219709
 20
35.8932082019
 10
270.1897738651
 20
36.3097179729
 10
270.3504152612
 20
36.7452333528
 10
270.5987359315
 20
37.1525596044
 10
270.907827089
 20
37.4875568057
 10
271.244193843
 20
37.7139229359
 10
271.5713850964
 20
37.8071272664
 10
271.8539448128
 20
37.7570698043
 10
272.0612533068
 20
37.5691751904
 10
272.1708456496
 20
37.2638047165
 10
272.1708456496
 20
36.8740499466
 10
272.0612533068
 20
36.442146847
 10
271.8539448128
 20
36.0148989407
 10
271.5713850964
 20
35.6386049742
 10
271.244193843
 20
35.3540423245
 10
270.907827089
 20
35.192047667
 10
270.5987359315
 20
35.1701758141
 10
270.3504152612
 20
35.2907971224
 10
270.1897738651
 20
35.5408398944
 10
270.134219709
 20
35.8932082019
  0
SPLINE
  5
1BB
330
1F
100
AcDbEntity
  8
0
  6
Continuous
 62
     7
370
    25
100
AcDbSpline
210
0.0
220
0.0
230
1.0
 70
     8
 71
     3
 72
    10
 73
     6
 74
     0
 42
0.000000001
 43
0.00000001
 40
0.0
 40
0.0
 40
0.0
 40
0.0
 40
0.2693778725034243
 40
0.9660840045951541
 40
1.0
 40
1.0
 40
1.0
 40
1.0
 10
270.2709572564521
 20
35.38826505110313
 30
0.0
 10
270.2512781727258
 20
35.44929950712125
 30
0.0
 10
270.1807020417455
 20
35.66819058061697
 30
0.0
 10
270.1134705504305
 20
35.9141417335521
 30
0.0
 10
270.1363754145701
 20
36.04809547102931
 30
0.0
 10
270.1374386745476
 20
36.05431369817267
 30
0.0
  0
SPLINE
  5
1BC
330
1F
100
AcDbEntity
  8
0
  6
Continuous
 62
     7
370
    25
100
AcDbSpline
210
0.0
220
0.0
230
1.0
 70
     8
 71
     3
 72
    10
 73
     6
 74
     0
 42
0.000000001
 43
0.00000001
 40
0.0
 40
0.0
 40
0.0
 40
0.0
 40
0.4391257080004486
 40
0.751373532982911
 40
1.0
 40
1.0
 40
1.0
 40
1.0
 10
271.1548412070874
 20
35.30923280484059
 30
0.0
 10
270.9677655649261
 20
35.35549478885655
 30
0.0
 10
270.6476665963966
 20
35.43465214571262
 30
0.0
 10
270.3789726255985
 20
35.43621454568104
 30
0.0
 10
270.3041326170868
 20
35.40299204585808
 30
0.0
 10
270.2709572564521
 20
35.38826505110313
 30
0.0
  0
SPLINE
  5
1BD
330
1F
100
AcDbEntity
  8
0
  6
Continuous
 62
     7
370
    25
100
AcDbSpline
210
0.0
220
0.0
230
1.0
 70
     8
 71
     3
 72
    10
 73
     6
 74
     0
 42
0.000000001
 43
0.00000001
 40
0.0
 40
0.0
 40
0.0
 40
0.0
 40
0.4391253862650267
 40
0.7513738763982162
 40
1.0
 40
1.0
 40
1.0
 40
1.0
 10
272.0387244991781
 20
36.40877535815616
 30
0.0
 10
271.8516491843845
 20
36.28631167764203
 30
0.0
 10
271.5315503951743
 20
36.07676785889689
 30
0.0
 10
271.2628558994252
 20
35.65865575352856
 30
0.0
 10
271.1880163149154
 20
35.41655287167044
 30
0.0
 10
271.1548412070874
 20
35.30923280484059
 30
0.0
  0
SPLINE
  5
1BE
330
1F
100
AcDbEntity
  8
0
  6
Continuous
 62
     7
370
    25
100
AcDbSpline
210
0.0
220
0.0
230
1.0
 70
     8
 71
     3
 72
    11
 73
     7
 74
     0
 42
0.000000001
 43
0.00000001
 40
0.0
 40
0.0
 40
0.0
 40
0.0
 40
0.184241996819023
 40
0.5169670674472885
 40
0.8653135927090866
 40
0.9999999999999999
 40
0.9999999999999999
 40
0.9999999999999999
 40
0.9999999999999999
 10
272.0387244991781
 20
37.58735053790392
 30
0.0
 10
272.0112421659585
 20
37.53486982804769
 30
0.0
 10
271.934129121938
 20
37.38761350679439
 30
0.0
 10
271.876668294131
 20
37.06362762622935
 30
0.0
 10
271.945281949889
 20
36.69091778981253
 30
0.0
 10
272.0183504547859
 20
36.47029318350666
 30
0.0
 10
272.0387244991781
 20
36.40877535815616
 30
0.0
  0
SPLINE
  5
1BF
330
1F
100
AcDbEntity
  8
0
  6
Continuous
 62
     7
370
    25
100
AcDbSpline
210
0.0
220
0.0
230
1.0
 70
     8
 71
     3
 72
    10
 73
     6
 74
     0
 42
0.000000001
 43
0.00000001
 40
0.0
 40
0.0
 40
0.0
 40
0.0
 40
0.439125404033696
 40
0.7513739128717637
 40
1.0
 40
1.0
 40
1.0
 40
1.0
 10
271.1548412070874
 20
37.66638316433611
 30
0.0
 10
271.220840761568
 20
37.690016485383
 30
0.0
 10
271.3337705603051
 20
37.73045473091843
 30
0.0
 10
271.6945531475718
 20
37.67573193499297
 30
0.0
 10
271.9330173907858
 20
37.61449556865198
 30
0.0
 10
272.0387244991781
 20
37.58735053790392
 30
0.0
  0
SPLINE
  5
1C0
330
1F
100
AcDbEntity
  8
0
  6
Continuous
 62
     7
370
    25
100
AcDbSpline
210
0.0
220
0.0
230
1.0
 70
     8
 71
     3
 72
     9
 73
     5
 74
     0
 42
0.000000001
 43
0.00000001
 40
0.0
 40
0.0
 40
0.0
 40
0.0
 40
0.3723142283607826
 40
1.0
 40
1.0
 40
1.0
 40
1.0
 10
270.1968940483619
 20
36.28581347535922
 30
0.0
 10
270.2584761428676
 20
36.39794094594617
 30
0.0
 10
270.423879691308
 20
36.69910448482201
 30
0.0
 10
270.7091016037189
 20
36.92881354311228
 30
0.0
 10
270.8881313398988
 20
37.07299865061773
 30
0.0
  0
SPLINE
  5
1C1
330
1F
100
AcDbEntity
  8
0
  6
Continuous
 62
     7
370
    25
100
AcDbSpline
210
0.0
220
0.0
230
1.0
 70
     8
 71
     3
 72
     9
 73
     5
 74
     0
 42
0.000000001
 43
0.00000001
 40
0.0
 40
0.0
 40
0.0
 40
0.0
 40
0.4011313178770138
 40
1.0
 40
1.0
 40
1.0
 40
1.0
 10
270.8881313398988
 20
37.07299865061773
 30
0.0
 10
270.8768484828713
 20
37.12100698657026
 30
0.0
 10
270.8487208934143
 20
37.24068932951624
 30
0.0
 10
270.8453586107739
 20
37.35124146907961
 30
0.0
 10
270.843345045
 20
37.41744768320579
 30
0.0
  0
LINE
  5
1C2
330
1F
100
AcDbEntity
  8
0
  6
Continuous
 62
     7
370
    25
100
AcDbLine
 10
270.1600148974
 20
35.8835338091
 30
0.0
 11
271.1548412071
 21
35.3092328048
 31
0.0
  0
LINE
  5
1C3
330
1F
100
AcDbEntity
  8
0
  6
Continuous
 62
     7
370
    25
100
AcDbLine
 10
270.8881313399
 20
37.0729986506
 30
0.0
 11
272.0387244992
 21
36.4087753582
 31
0.0
  0
LWPOLYLINE
  5
1C4
330
1F
100
AcDbEntity
  8
0
  6
Continuous
 62
     7
370
    25
100
AcDbPolyline
 90
        3
 70
   128
 43
0.0
 10
253.6407222597
 20
28.5968169524
 10
253.6876112872
 20
28.568256981
 10
253.6928592283
 20
28.5648695769
  0
LINE
  5
1C5
330
1F
100
AcDbEntity
  8
0
  6
Continuous
 62
     7
370
    25
100
AcDbLine
 10
250.1410066685
 20
22.5344747144
 30
0.0
 11
250.0532358565
 21
22.590502259
 31
0.0
  0
LWPOLYLINE
  5
1C6
330
1F
100
AcDbEntity
  8
0
  6
Continuous
 62
     7
370
    25
100
AcDbPolyline
 90
       12
 70
   128
 43
0.0
 10
247.1178935673
 20
25.4635940424
 10
247.1757559219
 20
26.1113597441
 10
247.3466337338
 20
26.7956410145
 10
247.6225375408
 20
27.4844418421
 10
247.9905690904
 20
28.1455564078
 10
248.4335160046
 20
28.7480695177
 10
248.9306690344
 20
29.263809676
 10
249.4587809
 20
29.6686609834
 10
249.9931581581
 20
29.943693463
 10
250.5088129959
 20
30.0760460395
 10
250.9816347817
 20
30.0595308074
 10
251.3426258319
 20
29.9234797813
  0
ARC
  5
1C7
330
1F
100
AcDbEntity
  8
0
  6
Continuous
 62
     7
370
    25
100
AcDbCircle
 10
248.8390355949
 20
25.2770670841
 30
0.0
 40
1.731219854757234
100
AcDbArc
 50
173.8147697334
 51
234.8731013908
  0
LWPOLYLINE
  5
1C8
330
1F
100
AcDbEntity
  8
0
  6
Continuous
 62
     7
370
    25
100
AcDbPolyline
 90
       20
 70
   128
 43
0.0
 10
251.0423367803
 20
24.8716987866
 10
251.0978902779
 20
25.2882081774
 10
251.2585316739
 20
25.7237235573
 10
251.5068530028
 20
26.1310501891
 10
251.8159441603
 20
26.4660473904
 10
252.1523102558
 20
26.6924131404
 10
252.4795015091
 20
26.7856174709
 10
252.7620612255
 20
26.7355600088
 10
252.9693703781
 20
26.5476657751
 10
253.0789627209
 20
26.2422953012
 10
253.0789627209
 20
25.8525405313
 10
252.9693703781
 20
25.4206374317
 10
252.7620612255
 20
24.9933891452
 10
252.4795015091
 20
24.6170951787
 10
252.1523102558
 20
24.332532529
 10
251.8159441603
 20
24.1705382517
 10
251.5068530028
 20
24.1486663987
 10
251.2585316739
 20
24.2692873269
 10
251.0978902779
 20
24.5193300989
 10
251.0423367803
 20
24.8716987866
  0
SPLINE
  5
1C9
330
1F
100
AcDbEntity
  8
0
  6
Continuous
 62
     7
370
    25
100
AcDbSpline
210
0.0
220
0.0
230
1.0
 70
     8
 71
     3
 72
    10
 73
     6
 74
     0
 42
0.000000001
 43
0.00000001
 40
0.0
 40
0.0
 40
0.0
 40
0.0
 40
0.2693778725034243
 40
0.9660840045951541
 40
1.0
 40
1.0
 40
1.0
 40
1.0
 10
251.1790743277344
 20
24.36675563577866
 30
0.0
 10
251.1593952440081
 20
24.42779009179677
 30
0.0
 10
251.0888191130277
 20
24.6466811652925
 30
0.0
 10
251.0215876217127
 20
24.89263231822763
 30
0.0
 10
251.0444924858523
 20
25.02658605570483
 30
0.0
 10
251.0455557458299
 20
25.03280428284819
 30
0.0
  0
SPLINE
  5
1CA
330
1F
100
AcDbEntity
  8
0
  6
Continuous
 62
     7
370
    25
100
AcDbSpline
210
0.0
220
0.0
230
1.0
 70
     8
 71
     3
 72
    10
 73
     6
 74
     0
 42
0.000000001
 43
0.00000001
 40
0.0
 40
0.0
 40
0.0
 40
0.0
 40
0.439125404033696
 40
0.7513739128717637
 40
1.0
 40
1.0
 40
1.0
 40
1.0
 10
252.0629576198251
 20
24.28772300934646
 30
0.0
 10
251.8758823034571
 20
24.33398523786857
 30
0.0
 10
251.555783508967
 20
24.41314310790643
 30
0.0
 10
251.2870890401803
 20
24.4147045646043
 30
0.0
 10
251.2122494390944
 20
24.38148243565032
 30
0.0
 10
251.1790743277344
 20
24.36675563577866
 30
0.0
  0
SPLINE
  5
1CB
330
1F
100
AcDbEntity
  8
0
  6
Continuous
 62
     7
370
    25
100
AcDbSpline
210
0.0
220
0.0
230
1.0
 70
     8
 71
     3
 72
    10
 73
     6
 74
     0
 42
0.000000001
 43
0.00000001
 40
0.0
 40
0.0
 40
0.0
 40
0.0
 40
0.4391256902318468
 40
0.7513734965094317
 40
0.9999999999999999
 40
0.9999999999999999
 40
0.9999999999999999
 40
0.9999999999999999
 10
252.9468415704603
 20
25.38726594283169
 30
0.0
 10
252.7597659298735
 20
25.26480223492437
 30
0.0
 10
252.4396669666239
 20
25.05525862029947
 30
0.0
 10
252.1709729688634
 20
24.63714574761432
 30
0.0
 10
252.0961329769277
 20
24.39504316546331
 30
0.0
 10
252.0629576198251
 20
24.28772300934646
 30
0.0
  0
SPLINE
  5
1CC
330
1F
100
AcDbEntity
  8
0
  6
Continuous
 62
     7
370
    25
100
AcDbSpline
210
0.0
220
0.0
230
1.0
 70
     8
 71
     3
 72
    11
 73
     7
 74
     0
 42
0.000000001
 43
0.00000001
 40
0.0
 40
0.0
 40
0.0
 40
0.0
 40
0.184241996819023
 40
0.5169670674472885
 40
0.8653135927090866
 40
0.9999999999999999
 40
0.9999999999999999
 40
0.9999999999999999
 40
0.9999999999999999
 10
252.9468415704603
 20
26.56584112257945
 30
0.0
 10
252.9193592372407
 20
26.51336041272322
 30
0.0
 10
252.8422461932202
 20
26.36610409146992
 30
0.0
 10
252.7847853654132
 20
26.04211821090487
 30
0.0
 10
252.8533990211713
 20
25.66940837448806
 30
0.0
 10
252.9264675260682
 20
25.44878376818217
 30
0.0
 10
252.9468415704603
 20
25.38726594283169
 30
0.0
  0
SPLINE
  5
1CD
330
1F
100
AcDbEntity
  8
0
  6
Continuous
 62
     7
370
    25
100
AcDbSpline
210
0.0
220
0.0
230
1.0
 70
     8
 71
     3
 72
    10
 73
     6
 74
     0
 42
0.000000001
 43
0.00000001
 40
0.0
 40
0.0
 40
0.0
 40
0.0
 40
0.4391257080004486
 40
0.751373532982911
 40
1.0
 40
1.0
 40
1.0
 40
1.0
 10
252.0629576198251
 20
26.64487336884198
 30
0.0
 10
252.128957409803
 20
26.6685069865218
 30
0.0
 10
252.2418874762242
 20
26.70894569117909
 30
0.0
 10
252.602669911094
 20
26.65422175247721
 30
0.0
 10
252.8411342159427
 20
26.5929859566262
 30
0.0
 10
252.9468415704603
 20
26.56584112257945
 30
0.0
  0
SPLINE
  5
1CE
330
1F
100
AcDbEntity
  8
0
  6
Continuous
 62
     7
370
    25
100
AcDbSpline
210
0.0
220
0.0
230
1.0
 70
     8
 71
     3
 72
     9
 73
     5
 74
     0
 42
0.000000001
 43
0.00000001
 40
0.0
 40
0.0
 40
0.0
 40
0.0
 40
0.3723142283607826
 40
1.0
 40
1.0
 40
1.0
 40
1.0
 10
251.1050111196441
 20
25.26430406003474
 30
0.0
 10
251.1665932141498
 20
25.3764315306217
 30
0.0
 10
251.3319967625902
 20
25.67759506949753
 30
0.0
 10
251.6172186750011
 20
25.90730412778781
 30
0.0
 10
251.7962484111811
 20
26.05148923529326
 30
0.0
  0
SPLINE
  5
1CF
330
1F
100
AcDbEntity
  8
0
  6
Continuous
 62
     7
370
    25
100
AcDbSpline
210
0.0
220
0.0
230
1.0
 70
     8
 71
     3
 72
     9
 73
     5
 74
     0
 42
0.000000001
 43
0.00000001
 40
0.0
 40
0.0
 40
0.0
 40
0.0
 40
0.4011313178770138
 40
1.0
 40
1.0
 40
1.0
 40
1.0
 10
251.7962484111811
 20
26.05148923529326
 30
0.0
 10
251.7849655541535
 20
26.09949757124578
 30
0.0
 10
251.7568379646966
 20
26.21917991419177
 30
0.0
 10
251.753475682056
 20
26.32973205375513
 30
0.0
 10
251.7514621162822
 20
26.39593826788132
 30
0.0
  0
LINE
  5
1D0
330
1F
100
AcDbEntity
  8
0
  6
Continuous
 62
     7
370
    25
100
AcDbLine
 10
251.0681313101
 20
24.8620240136
 30
0.0
 11
252.0629576198
 21
24.2877230093
 31
0.0
  0
LINE
  5
1D1
330
1F
100
AcDbEntity
  8
0
  6
Continuous
 62
     7
370
    25
100
AcDbLine
 10
251.7962484112
 20
26.0514892353
 30
0.0
 11
252.9468415705
 21
25.3872659428
 31
0.0
  0
LINE
  5
1D2
330
1F
100
AcDbEntity
  8
0
  6
Continuous
 62
     7
370
    25
100
AcDbLine
 10
271.9362941571
 20
18.0977340138
 30
0.0
 11
271.7660116695
 21
18.1854614016
 31
0.0
  0
LWPOLYLINE
  5
1D3
330
1F
100
AcDbEntity
  8
0
  6
Continuous
 62
     7
370
    25
100
AcDbPolyline
 90
        3
 70
   128
 43
0.0
 10
277.7017555063
 20
28.6133280687
 10
277.7047482618
 20
28.611739371
 10
277.7655240174
 20
28.5780478238
  0
LWPOLYLINE
  5
1D4
330
1F
100
AcDbEntity
  8
0
  6
Continuous
 62
     7
370
    25
100
AcDbPolyline
 90
       22
 70
   128
 43
0.0
 10
272.3915110726
 20
31.6803994613
 10
272.3307353171
 20
31.7140910086
 10
271.801849497
 20
31.9074235913
 10
271.2105433711
 20
31.9602953144
 10
270.5721316389
 20
31.8713368109
 10
269.9031487065
 20
31.6428513021
 10
269.220920983
 20
31.2807574252
 10
268.5431177319
 20
30.7944326082
 10
267.8872938359
 20
30.1964730678
 10
267.2704345367
 20
29.5023644528
 10
266.7085164534
 20
28.7300850784
 10
266.2160925964
 20
27.8996355591
 10
265.8059171618
 20
27.0325250565
 10
265.4886126371
 20
26.1512106589
 10
265.2723976579
 20
25.2785179345
 10
265.162871828
 20
24.4370494301
 10
265.162871828
 20
23.6485986053
 10
265.2723976579
 20
22.9335859323
 10
265.4886126371
 20
22.3105297093
 10
265.8059171618
 20
21.7955673179
 10
266.2160925964
 20
21.4020352917
 10
266.3919987248
 20
21.2878130392
  0
LINE
  5
1D5
330
1F
100
AcDbEntity
  8
0
  6
Continuous
 62
     7
370
    25
100
AcDbLine
 10
275.0486100754
 20
26.5519551269
 30
0.0
 11
272.54863403
 21
23.4420087457
 31
0.0
  0
LINE
  5
1D6
330
1F
100
AcDbEntity
  8
0
  6
Continuous
 62
     7
370
    25
100
AcDbLine
 10
272.54863403
 20
23.4420087457
 30
0.0
 11
272.54863403
 21
20.1085268865
 31
0.0
  0
LINE
  5
1D7
330
1F
100
AcDbEntity
  8
0
  6
Continuous
 62
     7
370
    25
100
AcDbLine
 10
275.0486100754
 20
19.8849914085
 30
0.0
 11
272.54863403
 21
20.1085268865
 31
0.0
  0
LINE
  5
1D8
330
1F
100
AcDbEntity
  8
0
  6
Continuous
 62
     7
370
    25
100
AcDbLine
 10
277.5485861209
 20
22.9949377896
 30
0.0
 11
275.0486100754
 21
19.8849914085
 31
0.0
  0
LINE
  5
1D9
330
1F
100
AcDbEntity
  8
0
  6
Continuous
 62
     7
370
    25
100
AcDbLine
 10
277.5485861209
 20
22.9949377896
 30
0.0
 11
277.5485861209
 21
26.3284196488
 31
0.0
  0
LINE
  5
1DA
330
1F
100
AcDbEntity
  8
0
  6
Continuous
 62
     7
370
    25
100
AcDbLine
 10
275.0486100754
 20
26.5519551269
 30
0.0
 11
277.5485861209
 21
26.3284196488
 31
0.0
  0
ARC
  5
1DB
330
1F
100
AcDbEntity
  8
0
  6
Continuous
 62
     7
370
    25
100
AcDbCircle
 10
269.2350981826
 20
26.580847617
 30
0.0
 40
5.499306232543049
100
AcDbArc
 50
320.36379399
 51
355.3911953877
  0
ARC
  5
1DC
330
1F
100
AcDbEntity
  8
0
  6
Continuous
 62
     7
370
    25
100
AcDbCircle
 10
269.6042217799
 20
26.1370138542
 30
0.0
 40
4.933060165465898
100
AcDbArc
 50
306.6462894478
 51
321.5989108827
  0
LINE
  5
1DD
330
1F
100
AcDbEntity
  8
0
  6
Continuous
 62
     7
370
    25
100
AcDbLine
 10
272.5486381459
 20
21.328194484
 30
0.0
 11
275.0486100754
 21
19.8849914085
 31
0.0
  0
LINE
  5
1DE
330
1F
100
AcDbEntity
  8
0
  6
Continuous
 62
     7
370
    25
100
AcDbLine
 10
274.7201585325
 20
24.6277542809
 30
0.0
 11
277.5485861209
 21
22.9949377896
 31
0.0
  0
LINE
  5
1DF
330
1F
100
AcDbEntity
  8
0
  6
Continuous
 62
     7
370
    25
100
AcDbLine
 10
274.7201585325
 20
24.6277542809
 30
0.0
 11
274.7201585325
 21
26.1433654377
 31
0.0
  0
LINE
  5
1E0
330
1F
100
AcDbEntity
  8
0
  6
Continuous
 62
     7
370
    25
100
AcDbLine
 10
273.4701705098
 20
23.0727809953
 30
0.0
 11
272.5486335772
 21
21.92639777
 31
0.0
  0
LINE
  5
1E1
330
1F
100
AcDbEntity
  8
0
  6
Continuous
 62
     7
370
    25
100
AcDbLine
 10
274.7201585325
 20
24.6277542809
 30
0.0
 11
273.4701705098
 21
23.0727809953
 31
0.0
  0
ARC
  5
1E2
330
1F
100
AcDbEntity
  8
0
  6
Continuous
 62
     7
370
    25
100
AcDbCircle
 10
264.6739596225
 20
42.8075328235
 30
0.0
 40
6.216700109738801
100
AcDbArc
 50
37.9821233404
 51
81.7044836245
  0
ARC
  5
1E3
330
1F
100
AcDbEntity
  8
0
  6
Continuous
 62
     7
370
    25
100
AcDbCircle
 10
252.8965293341
 20
22.4080878658
 30
0.0
 40
6.217709738592514
100
AcDbArc
 50
217.8504946011
 51
261.0192600808
  0
ARC
  5
1E4
330
1F
100
AcDbEntity
  8
0
  6
Continuous
 62
     7
370
    25
100
AcDbCircle
 10
246.76309651
 20
53.0927017237
 30
0.0
 40
6.269109340885437
100
AcDbArc
 50
60.2151038636
 51
81.740283099
  0
ARC
  5
1E5
330
1F
100
AcDbEntity
  8
0
  6
Continuous
 62
     7
370
    25
100
AcDbCircle
 10
235.05903284
 20
32.8042865301
 30
0.0
 40
6.308692293739796
100
AcDbArc
 50
217.8824509893
 51
239.7271921234
  0
SPLINE
  5
1E6
330
1F
100
AcDbEntity
  8
0
  6
Continuous
 62
     7
370
    25
100
AcDbSpline
210
0.0
220
0.0
230
1.0
 70
    11
 71
     3
 72
    66
 73
    62
 74
     0
 42
0.000000001
 43
0.00000001
 40
0.0
 40
0.0
 40
0.0
 40
0.0
 40
0.0312499999999983
 40
0.0312499999999983
 40
0.0624999999999967
 40
0.0624999999999967
 40
0.1249999999999939
 40
0.1249999999999939
 40
0.156249999999992
 40
0.156249999999992
 40
0.1874999999999902
 40
0.1874999999999902
 40
0.2187499999999884
 40
0.2187499999999884
 40
0.2499999999999866
 40
0.2499999999999866
 40
0.2812499999999847
 40
0.2812499999999847
 40
0.3124999999999829
 40
0.3124999999999829
 40
0.3437499999999828
 40
0.3437499999999828
 40
0.3749999999999828
 40
0.3749999999999828
 40
0.4062499999999828
 40
0.4062499999999828
 40
0.4374999999999827
 40
0.4374999999999827
 40
0.4687499999999827
 40
0.4687499999999827
 40
0.4999999999999826
 40
0.4999999999999826
 40
0.5312499999999825
 40
0.5312499999999825
 40
0.5624999999999823
 40
0.5624999999999823
 40
0.5937499999999822
 40
0.5937499999999822
 40
0.6249999999999821
 40
0.6249999999999821
 40
0.6562499999999836
 40
0.6562499999999836
 40
0.687499999999985
 40
0.687499999999985
 40
0.7187499999999865
 40
0.7187499999999865
 40
0.7499999999999879
 40
0.7499999999999879
 40
0.7812499999999895
 40
0.7812499999999895
 40
0.8124999999999909
 40
0.8124999999999909
 40
0.8437499999999923
 40
0.8437499999999923
 40
0.8749999999999938
 40
0.8749999999999938
 40
0.9062499999999952
 40
0.9062499999999952
 40
0.9374999999999967
 40
0.9374999999999967
 40
1.0
 40
1.0
 40
1.0
 40
1.0
 10
235.1621817647697
 20
46.39199727453605
 30
0.0
 10
235.224799835117
 20
46.48419633992886
 30
0.0
 10
235.2949738819731
 20
46.56856300373287
 30
0.0
 10
235.4495600688663
 20
46.72249528548029
 30
0.0
 10
235.5346333325312
 20
46.79223496199029
 30
0.0
 10
235.7996506766022
 20
46.97080172074634
 30
0.0
 10
235.9954063374524
 20
47.05318624942466
 30
0.0
 10
236.2881005720525
 20
47.11644938733359
 30
0.0
 10
236.3872283156021
 20
47.12790524389423
 30
0.0
 10
236.5801483323807
 20
47.1313081065058
 30
0.0
 10
236.6743194024573
 20
47.12352948642021
 30
0.0
 10
236.858012792452
 20
47.08954362985715
 30
0.0
 10
236.947552564298
 20
47.06307607538314
 30
0.0
 10
237.1151207736633
 20
46.99377465688788
 30
0.0
 10
237.1940821579809
 20
46.95082932284227
 30
0.0
 10
237.3421599623394
 20
46.84803135173554
 30
0.0
 10
237.4105013400177
 20
46.78848450886812
 30
0.0
 10
237.5321001577132
 20
46.65673647145334
 30
0.0
 10
237.5860163011341
 20
46.58411109654751
 30
0.0
 10
237.6794742852881
 20
46.42448296363233
 30
0.0
 10
237.7180268214875
 20
46.33892270784026
 30
0.0
 10
237.7776140790123
 20
46.15942583195059
 30
0.0
 10
237.7989512603262
 20
46.06497674311762
 30
0.0
 10
237.823337592144
 20
45.8658721603674
 30
0.0
 10
237.8259633096596
 20
45.76469927107242
 30
0.0
 10
237.8123879816677
 20
45.55894538832068
 30
0.0
 10
237.7958604796462
 20
45.45312948231919
 30
0.0
 10
237.7435008729698
 20
45.2436630360165
 30
0.0
 10
237.7081998885852
 20
45.14113102024125
 30
0.0
 10
237.619298353691
 20
44.94043403731148
 30
0.0
 10
237.5650654739697
 20
44.84172696434981
 30
0.0
 10
237.4431590365342
 20
44.65872840312642
 30
0.0
 10
237.3749126355606
 20
44.57299039758874
 30
0.0
 10
237.224231271981
 20
44.41424868791307
 30
0.0
 10
237.1442833960035
 20
44.34380978355017
 30
0.0
 10
236.9755931302108
 20
44.21968677241479
 30
0.0
 10
236.8860479240053
 20
44.16579877208651
 30
0.0
 10
236.7051420504805
 20
44.07885234141663
 30
0.0
 10
236.6130936509095
 20
44.04512061667133
 30
0.0
 10
236.425578795675
 20
43.99689424401272
 30
0.0
 10
236.3319538506437
 20
43.9829731379055
 30
0.0
 10
236.147441690877
 20
43.97475958981266
 30
0.0
 10
236.0553716938635
 20
43.98050207907959
 30
0.0
 10
235.8764249398263
 20
44.01140589187001
 30
0.0
 10
235.7903521462226
 20
44.03624560098709
 30
0.0
 10
235.6246773165446
 20
44.10413804135766
 30
0.0
 10
235.5443702068957
 20
44.14777154185184
 30
0.0
 10
235.3953839166036
 20
44.25100688138065
 30
0.0
 10
235.3264088284054
 20
44.31049062417967
 30
0.0
 10
235.1996106616029
 20
44.445193357117
 30
0.0
 10
235.1414323830834
 20
44.52122088277403
 30
0.0
 10
235.0413114628183
 20
44.68387704843797
 30
0.0
 10
234.9987910391369
 20
44.77087931089414
 30
0.0
 10
234.9296172071036
 20
44.95652874637756
 30
0.0
 10
234.9030597750859
 20
45.05584042004655
 30
0.0
 10
234.8694814341924
 20
45.25775154094586
 30
0.0
 10
234.8619673539773
 20
45.36131814786852
 30
0.0
 10
234.8670321223511
 20
45.57389347095987
 30
0.0
 10
234.8798844119054
 20
45.68211918968512
 30
0.0
 10
234.9486269513184
 20
45.99886653371884
 30
0.0
 10
235.0369456240751
 20
46.20759914375041
 30
0.0
 10
235.1621817647697
 20
46.39199727453605
 30
0.0
  0
SPLINE
  5
1E7
330
1F
100
AcDbEntity
  8
0
  6
Continuous
 62
     7
370
    25
100
AcDbSpline
210
0.0
220
0.0
230
1.0
 70
     8
 71
     3
 72
    20
 73
    16
 74
     0
 42
0.000000001
 43
0.00000001
 40
0.0
 40
0.0
 40
0.0
 40
0.0
 40
0.0700822214301993
 40
0.1366151558471224
 40
0.2153825952724098
 40
0.2895860321190562
 40
0.3623978114503644
 40
0.4379787823955519
 40
0.5188895520420781
 40
0.6053540826484997
 40
0.6954394481780777
 40
0.7860708796529075
 40
0.8737431650769707
 40
0.9554434685594018
 40
1.0
 40
1.0
 40
1.0
 40
1.0
 10
236.3518321193926
 20
24.8321003468502
 30
0.0
 10
236.2077664307797
 20
24.90740599046701
 30
0.0
 10
235.9269312046634
 20
25.05420345248988
 30
0.0
 10
235.5088082110748
 20
25.2714883988204
 30
0.0
 10
235.1544753102772
 20
25.46247929854283
 30
0.0
 10
234.9213006466501
 20
25.60123381866633
 30
0.0
 10
234.8397397327126
 20
25.6677588860843
 30
0.0
 10
234.9070253633302
 20
25.65654211111727
 30
0.0
 10
235.1247659792712
 20
25.55704291865728
 30
0.0
 10
235.4861467279578
 20
25.36157351035766
 30
0.0
 10
235.9592988692342
 20
25.0803817686104
 30
0.0
 10
236.4877408007079
 20
24.74810941932426
 30
0.0
 10
236.9878175099082
 20
24.4280844568552
 30
0.0
 10
237.3641948035333
 20
24.19045600163643
 30
0.0
 10
237.5058868526653
 20
24.10927361855149
 30
0.0
 10
237.5558905316414
 20
24.08062403766701
 30
0.0
  0
LINE
  5
1E8
330
1F
100
AcDbEntity
  8
0
  6
Continuous
 62
     7
370
    25
100
AcDbLine
 10
253.8934143484
 20
56.1800327331
 30
0.0
 11
254.302172266
 21
55.9205830443
 31
0.0
  0
LWPOLYLINE
  5
1E9
330
1F
100
AcDbEntity
  8
0
  6
Continuous
 62
     7
370
    25
100
AcDbPolyline
 90
       15
 70
   128
 43
0.0
 10
255.5686093311
 20
55.2480170416
 10
255.5671289231
 20
55.2489397174
 10
255.252502699
 20
55.4224512078
 10
254.8501972005
 20
55.6340976941
 10
254.3835808795
 20
55.8772294117
 10
253.8884884355
 20
56.1408872297
 10
253.4246524895
 20
56.4014619189
 10
253.064789526
 20
56.6224925744
 10
252.8689515602
 20
56.7635958026
 10
252.8620032571
 20
56.7955567861
 10
253.0219077418
 20
56.7174865281
 10
253.3008191217
 20
56.5531786867
 10
253.6633834347
 20
56.3264364444
 10
253.8934143484
 20
56.1800327331
 10
253.8934143484
 20
56.1800327331
  0
SPLINE
  5
1EA
330
1F
100
AcDbEntity
  8
0
  6
Continuous
 62
     7
370
    25
100
AcDbSpline
210
0.0
220
0.0
230
1.0
 70
    11
 71
     3
 72
    96
 73
    92
 74
     0
 42
0.000000001
 43
0.00000001
 40
0.0
 40
0.0
 40
0.0
 40
0.0
 40
0.0312500000000027
 40
0.0312500000000027
 40
0.0468750000000036
 40
0.0468750000000036
 40
0.0625000000000045
 40
0.0625000000000045
 40
0.0937500000000054
 40
0.0937500000000054
 40
0.1093750000000058
 40
0.1093750000000058
 40
0.1250000000000063
 40
0.1250000000000063
 40
0.1562500000000079
 40
0.1562500000000079
 40
0.1718750000000087
 40
0.1718750000000087
 40
0.1875000000000095
 40
0.1875000000000095
 40
0.2187500000000108
 40
0.2187500000000108
 40
0.2343750000000115
 40
0.2343750000000115
 40
0.2500000000000121
 40
0.2656250000000127
 40
0.2656250000000127
 40
0.2812500000000133
 40
0.2812500000000133
 40
0.3125000000000148
 40
0.3125000000000148
 40
0.3281250000000157
 40
0.3281250000000157
 40
0.3437500000000166
 40
0.3437500000000166
 40
0.3593750000000175
 40
0.3593750000000175
 40
0.3750000000000184
 40
0.3750000000000184
 40
0.4062500000000195
 40
0.4062500000000195
 40
0.4375000000000207
 40
0.4375000000000207
 40
0.4687500000000218
 40
0.4687500000000218
 40
0.4843750000000219
 40
0.4843750000000219
 40
0.500000000000022
 40
0.500000000000022
 40
0.5312500000000213
 40
0.5312500000000213
 40
0.5468750000000214
 40
0.5468750000000214
 40
0.5625000000000215
 40
0.5625000000000215
 40
0.593750000000021
 40
0.593750000000021
 40
0.6250000000000203
 40
0.6250000000000203
 40
0.6406250000000197
 40
0.6406250000000197
 40
0.656250000000019
 40
0.656250000000019
 40
0.6875000000000171
 40
0.6875000000000171
 40
0.7187500000000153
 40
0.7187500000000153
 40
0.7500000000000135
 40
0.7500000000000135
 40
0.7656250000000128
 40
0.7656250000000128
 40
0.7812500000000119
 40
0.796875000000011
 40
0.796875000000011
 40
0.8125000000000101
 40
0.8125000000000101
 40
0.8437500000000083
 40
0.8437500000000083
 40
0.8593750000000071
 40
0.8593750000000071
 40
0.8750000000000059
 40
0.8750000000000059
 40
0.9062500000000042
 40
0.9062500000000042
 40
0.9375000000000027
 40
0.9375000000000027
 40
0.9531250000000022
 40
0.9531250000000022
 40
0.9687500000000018
 40
0.9687500000000018
 40
1.0
 40
1.0
 40
1.0
 40
1.0
 10
252.7414403766006
 20
53.3398783158472
 30
0.0
 10
252.9071846440258
 20
53.24419618691404
 30
0.0
 10
253.0553495921332
 20
53.14476013949677
 30
0.0
 10
253.2521639919683
 20
52.9898897222936
 30
0.0
 10
253.3134993379946
 20
52.93730127583129
 30
0.0
 10
253.4274198796492
 20
52.83002841241815
 30
0.0
 10
253.4802342260864
 20
52.7750490017516
 30
0.0
 10
253.6224466436016
 20
52.60950482394663
 30
0.0
 10
253.6963433195574
 20
52.49806422541407
 30
0.0
 10
253.7758199441955
 20
52.32799611043179
 30
0.0
 10
253.79704861674
 20
52.27081659333782
 30
0.0
 10
253.8285164643918
 20
52.15517446997693
 30
0.0
 10
253.8386256264634
 20
52.09692544779903
 30
0.0
 10
253.8516156004561
 20
51.92370423201645
 30
0.0
 10
253.8376982512949
 20
51.80903760752381
 30
0.0
 10
253.7820182844757
 20
51.63666212550335
 30
0.0
 10
253.7574502279103
 20
51.57884258068842
 30
0.0
 10
253.6967326257246
 20
51.46427105790705
 30
0.0
 10
253.6608273881387
 20
51.40784673558795
 30
0.0
 10
253.5368125595184
 20
51.24077917189327
 30
0.0
 10
253.4325763976714
 20
51.13230290666358
 30
0.0
 10
253.2422215268372
 20
50.97318146484486
 30
0.0
 10
253.1733919127931
 20
50.92109218418475
 30
0.0
 10
253.0275953608155
 20
50.82053103817987
 30
0.0
 10
252.8730018159405
 20
50.72302453858862
 30
0.0
 10
252.700978926805
 20
50.63151363062283
 30
0.0
 10
252.5200471105267
 20
50.54309450070126
 30
0.0
 10
252.4247797108326
 20
50.50032853636322
 30
0.0
 10
252.1322484907358
 20
50.37984022754635
 30
0.0
 10
251.9263830121958
 20
50.30877928942247
 30
0.0
 10
251.6015319807427
 20
50.21674894829945
 30
0.0
 10
251.4899287286784
 20
50.18839999874463
 30
0.0
 10
251.265558516636
 20
50.13793236409277
 30
0.0
 10
251.1525526303164
 20
50.11570775184983
 30
0.0
 10
250.924929602993
 20
50.0773034313014
 30
0.0
 10
250.8103123388403
 20
50.06112395908165
 30
0.0
 10
250.5794465249673
 20
50.03503067874438
 30
0.0
 10
250.4626659051284
 20
50.02509078759289
 30
0.0
 10
250.1136703427777
 20
50.00549133156841
 30
0.0
 10
249.8850623271368
 20
50.00595357445442
 30
0.0
 10
249.4353197198148
 20
50.03443785804117
 30
0.0
 10
249.2122367126298
 20
50.06301933809538
 30
0.0
 10
248.7890514269988
 20
50.14742341628198
 30
0.0
 10
248.5875828605274
 20
50.20305772092255
 30
0.0
 10
248.3003621330758
 20
50.30726781621456
 30
0.0
 10
248.2066864352751
 20
50.34570971581903
 30
0.0
 10
248.0274450874784
 20
50.42848077062488
 30
0.0
 10
247.9417574929569
 20
50.47279850799718
 30
0.0
 10
247.6961944701203
 20
50.61436047479167
 30
0.0
 10
247.5477095355758
 20
50.72015555904841
 30
0.0
 10
247.3486061263057
 20
50.89628684581033
 30
0.0
 10
247.2864358460118
 20
50.9577912290015
 30
0.0
 10
247.1726329207308
 20
51.08401348110126
 30
0.0
 10
247.1206557100334
 20
51.14902383240312
 30
0.0
 10
246.9793998725507
 20
51.34949802267184
 30
0.0
 10
246.9044989239855
 20
51.49077819817607
 30
0.0
 10
246.7970416941248
 20
51.78556936875406
 30
0.0
 10
246.7658667984717
 20
51.93494984701436
 30
0.0
 10
246.7525062234849
 20
52.16058904730419
 30
0.0
 10
246.7536584973105
 20
52.23606573762059
 30
0.0
 10
246.7675970452241
 20
52.38732363504386
 30
0.0
 10
246.7805218342298
 20
52.46346329266878
 30
0.0
 10
246.8363991074613
 20
52.68696976713534
 30
0.0
 10
246.8961841168262
 20
52.83075895711723
 30
0.0
 10
247.0612348859427
 20
53.1061345848829
 30
0.0
 10
247.1680767227323
 20
53.23868770844145
 30
0.0
 10
247.4194401471138
 20
53.47755853909972
 30
0.0
 10
247.5644113568314
 20
53.58542258376461
 30
0.0
 10
247.8117325429018
 20
53.72897284619636
 30
0.0
 10
247.8990266668015
 20
53.77358322017758
 30
0.0
 10
248.079408784532
 20
53.85455507013078
 30
0.0
 10
248.2665592067062
 20
53.92787322697541
 30
0.0
 10
248.4670376728739
 20
53.98628543296531
 30
0.0
 10
248.6742859227347
 20
54.03726460422061
 30
0.0
 10
248.7816651429999
 20
54.05905092291469
 30
0.0
 10
249.1067419144314
 20
54.11204213573195
 30
0.0
 10
249.3294958095888
 20
54.1316324665426
 30
0.0
 10
249.6725770255492
 20
54.13934130317108
 30
0.0
 10
249.7890665164081
 20
54.13823051369886
 30
0.0
 10
250.0209489973016
 20
54.12899756219979
 30
0.0
 10
250.1365278210643
 20
54.1209240154572
 30
0.0
 10
250.4822589291901
 20
54.08708026093294
 30
0.0
 10
250.7120866387554
 20
54.05163338540787
 30
0.0
 10
251.1664706755777
 20
53.95747098635293
 30
0.0
 10
251.3853923586873
 20
53.90001573904464
 30
0.0
 10
251.7021606360648
 20
53.80032721220625
 30
0.0
 10
251.805799233922
 20
53.76482410023814
 30
0.0
 10
252.0091323260759
 20
53.68936111795893
 30
0.0
 10
252.1088211375783
 20
53.64936829417154
 30
0.0
 10
252.3966875970293
 20
53.52498531511348
 30
0.0
 10
252.5756961091755
 20
53.43556044478036
 30
0.0
 10
252.7414403766007
 20
53.3398783158472
 30
0.0
  0
LWPOLYLINE
  5
1EB
330
1F
100
AcDbEntity
  8
0
  6
Continuous
 62
     7
370
    25
100
AcDbPolyline
 90
       22
 70
   128
 43
0.0
 10
252.8791530732
 20
29.0364614181
 10
252.9313842138
 20
29.783651636
 10
253.0980374626
 20
30.8266567666
 10
253.3724872034
 20
31.8977933771
 10
253.7498345235
 20
32.9779458862
 10
254.2233471226
 20
34.047840043
 10
254.7845742281
 20
35.0883829384
 10
255.4235006952
 20
36.0810061488
 10
256.1287254721
 20
37.0079967117
 10
256.8876636086
 20
37.8528118426
 10
257.6867714783
 20
38.6003766357
 10
258.5117892878
 20
39.2373495371
 10
259.3479944926
 20
39.7523644577
 10
260.1804650092
 20
40.1362313917
 10
260.9943453493
 20
40.3820991781
 10
261.7751119314
 20
40.4855812852
 10
262.5088317645
 20
40.4448310003
 10
263.1824115021
 20
40.2605745584
 10
263.7838315546
 20
39.9361010437
 10
264.3023592927
 20
39.4771999167
 10
264.7287415077
 20
38.8920610902
 10
265.0395633202
 20
38.2339273388
  0
ARC
  5
1EC
330
1F
100
AcDbEntity
  8
0
  6
Continuous
 62
     7
370
    25
100
AcDbCircle
 10
256.364951162
 20
27.6267989143
 30
0.0
 40
3.319070395900757
100
AcDbArc
 50
226.019566847
 51
281.73873041
  0
LINE
  5
1ED
330
1F
100
AcDbEntity
  8
0
  6
Continuous
 62
     7
370
    25
100
AcDbLine
 10
271.0877309119
 20
34.7332036891
 30
0.0
 11
271.270113167
 21
34.6371072224
 31
0.0
  0
LINE
  5
1EE
330
1F
100
AcDbEntity
  8
0
  6
Continuous
 62
     7
370
    25
100
AcDbLine
 10
263.2707631504
 20
20.780325453
 30
0.0
 11
263.1896380403
 21
20.829097558
 31
0.0
  0
LWPOLYLINE
  5
1EF
330
1F
100
AcDbEntity
  8
0
  6
Continuous
 62
     7
370
    25
100
AcDbPolyline
 90
       25
 70
   128
 43
0.0
 10
256.022917126
 20
24.964417902
 10
255.8407238731
 20
25.0796449357
 10
255.3501276417
 20
25.513210902
 10
254.9509327782
 20
26.0715724196
 10
254.6509483034
 20
26.7438073681
 10
254.4560418488
 20
27.5167651775
 10
254.3700267165
 20
28.3753258954
 10
254.3945858168
 20
29.3026948024
 10
254.5292374245
 20
30.2807302698
 10
254.7713486787
 20
31.2903010329
 10
255.1161833273
 20
32.311657602
 10
255.5569955695
 20
33.3248210635
 10
256.0851620943
 20
34.3099717121
 10
256.6903516555
 20
35.2478388664
 10
257.3607255985
 20
36.1200759492
 10
258.0831699972
 20
36.9096203543
 10
258.8435527334
 20
37.601027028
 10
259.6269995092
 20
38.180772296
 10
260.4181847593
 20
38.6375138189
 10
261.2016315352
 20
38.9623169444
 10
261.9620142714
 20
39.1488294909
 10
262.68445867
 20
39.1934016338
 10
263.354832613
 20
39.0951618306
 10
263.9600221742
 20
38.8560316706
 10
264.0222671426
 20
38.8211996714
  0
LWPOLYLINE
  5
1F0
330
1F
100
AcDbEntity
  8
0
  6
Continuous
 62
     7
370
    25
100
AcDbPolyline
 90
       18
 70
   128
 43
0.0
 10
265.4453730986
 20
29.7833888154
 10
265.3856864111
 20
30.1176432372
 10
265.214687427
 20
30.3378418069
 10
264.9554704792
 20
30.4142458821
 10
264.643044123
 20
30.3365363087
 10
264.3196032807
 20
30.1152080779
 10
264.0288308557
 20
29.7801533587
 10
263.809996845
 20
29.3766230425
 10
263.6926560674
 20
28.9591155909
 10
263.6926560674
 20
28.5840180303
 10
263.809996845
 20
28.3019895467
 10
264.0288308557
 20
28.1511194112
 10
264.3196032807
 20
28.1517833879
 10
264.643044123
 20
28.303892195
 10
264.9554704792
 20
28.5869024143
 10
265.214687427
 20
28.9625918169
 10
265.3856864111
 20
29.3802218012
 10
265.4453730986
 20
29.7833888154
  0
LINE
  5
1F1
330
1F
100
AcDbEntity
  8
0
  6
Continuous
 62
     7
370
    25
100
AcDbLine
 10
269.3180319935
 20
31.4308808366
 30
0.0
 11
269.3952654349
 21
31.3894239893
 31
0.0
  0
LWPOLYLINE
  5
1F2
330
1F
100
AcDbEntity
  8
0
  6
Continuous
 62
     7
370
    25
100
AcDbPolyline
 90
        3
 70
   128
 43
0.0
 10
265.1456108826
 20
24.0280086861
 10
265.1454381793
 20
24.028108418
 10
265.0610381273
 20
24.0808818157
  0
ARC
  5
1F3
330
1F
100
AcDbEntity
  8
0
  6
Continuous
 62
     7
370
    25
100
AcDbCircle
 10
266.4543737057
 20
28.1670822619
 30
0.0
 40
13.25819963453143
100
AcDbArc
 50
129.9825382355
 51
167.4758814819
  0
ARC
  5
1F4
330
1F
100
AcDbEntity
  8
0
  6
Continuous
 62
     7
370
    25
100
AcDbCircle
 10
257.513938517
 20
28.1020692078
 30
0.0
 40
3.336376596841934
100
AcDbArc
 50
201.64759082
 51
221.0809578587
  0
LINE
  5
1F5
330
1F
100
AcDbEntity
  8
0
  6
Continuous
 62
     7
370
    25
100
AcDbLine
 10
254.100405424
 20
28.0932870741
 30
0.0
 11
254.0474110304
 21
28.9454682835
 31
0.0
  0
ARC
  5
1F6
330
1F
100
AcDbEntity
  8
0
  6
Continuous
 62
     7
370
    25
100
AcDbCircle
 10
261.7447555438
 20
36.4342472807
 30
0.0
 40
3.034515422752689
100
AcDbArc
 50
63.664533491
 51
98.4632245475
  0
LWPOLYLINE
  5
1F7
330
1F
100
AcDbEntity
  8
0
  6
Continuous
 62
     7
370
    25
100
AcDbPolyline
 90
        3
 70
   128
 43
0.0
 10
255.2691418138
 20
25.6045868065
 10
255.0984846143
 20
25.7232217228
 10
255.0826686802
 20
25.735262285
  0
LWPOLYLINE
  5
1F8
330
1F
100
AcDbEntity
  8
0
  6
Continuous
 62
     7
370
    25
100
AcDbPolyline
 90
       17
 70
   128
 43
0.0
 10
253.9997350422
 20
28.9813365299
 10
254.056054427
 20
29.9231599732
 10
254.2238650678
 20
30.910834951
 10
254.4997514235
 20
31.9242557153
 10
254.8780970971
 20
32.942791625
 10
255.3511997522
 20
33.9457086215
 10
255.9094288338
 20
34.9125897503
 10
256.541420498
 20
35.8237522562
 10
257.2343085959
 20
36.6606476604
 10
257.9739884215
 20
37.4062391152
 10
258.7454020251
 20
38.0453482436
 10
259.5328457546
 20
38.5649653795
 10
260.320289484
 20
38.9545114216
 10
261.0917030877
 20
39.2060574817
 10
261.8313829132
 20
39.3144821753
 10
262.5242710112
 20
39.2775783407
 10
262.866831047
 20
39.1994787879
  0
ARC
  5
1F9
330
1F
100
AcDbEntity
  8
0
  6
Continuous
 62
     7
370
    25
100
AcDbCircle
 10
257.3571844974
 20
28.073455277
 30
0.0
 40
3.208607449359172
100
AcDbArc
 50
204.1490512032
 51
225.7319143958
  0
LINE
  5
1FA
330
1F
100
AcDbEntity
  8
0
  6
Continuous
 62
     7
370
    25
100
AcDbLine
 10
254.0447442544
 20
28.1940063488
 30
0.0
 11
253.9997350422
 21
28.9813365299
 31
0.0
  0
LWPOLYLINE
  5
1FB
330
1F
100
AcDbEntity
  8
0
  6
Continuous
 62
     7
370
    25
100
AcDbPolyline
 90
       18
 70
   128
 43
0.0
 10
235.8517867621
 20
44.404643294
 10
236.2132868673
 20
44.2934188965
 10
236.610374059
 20
44.3434183105
 10
236.989419107
 20
44.5478881788
 10
237.2992307122
 20
44.8792136546
 10
237.497968908
 20
45.2926469725
 10
237.5587881275
 20
45.7323532816
 10
237.4734776377
 20
46.1389471522
 10
237.2535573578
 20
46.4575156189
 10
236.9287315964
 20
46.6450335396
 10
236.5428673201
 20
46.6761770533
 10
236.1480791072
 20
46.5467382644
 10
235.7976846966
 20
46.2742001547
 10
235.5390057797
 20
45.8953698786
 10
235.4069801182
 20
45.4614107621
 10
235.4194384632
 20
45.0309307958
 10
235.5746962579
 20
44.6620694084
 10
235.8517867621
 20
44.404643294
  0
LWPOLYLINE
  5
1FC
330
1F
100
AcDbEntity
  8
0
  6
Continuous
 62
     7
370
    25
100
AcDbPolyline
 90
       19
 70
   128
 43
0.0
 10
228.0206454765
 20
35.8758948958
 10
228.0757959448
 20
37.2649347929
 10
228.2407613441
 20
38.7054424002
 10
228.5140915592
 20
40.1847583331
 10
228.8933855369
 20
41.6898826085
 10
229.375311042
 20
43.2075889982
 10
229.9556303406
 20
44.7245382401
 10
230.6292449811
 20
46.227399898
 10
231.390235307
 20
47.7029671882
 10
232.2319131401
 20
49.1382725646
 10
233.1468823671
 20
50.520702543
 10
234.1271021597
 20
51.8381079621
 10
235.1639577677
 20
53.0789110126
 10
236.2483378987
 20
54.2322092225
 10
237.3707124258
 20
55.2878659454
 10
238.5212181633
 20
56.2366055052
 10
239.6897445597
 20
57.0700877608
 10
240.8660223953
 20
57.780989729
 10
241.8854418439
 20
58.2938676202
  0
ARC
  5
1FD
330
1F
100
AcDbEntity
  8
0
  6
Continuous
 62
     7
370
    25
100
AcDbCircle
 10
246.8489034851
 20
39.456014618
 30
0.0
 40
25.00274223277196
100
AcDbArc
 50
128.9897349624
 51
165.3703432013
  0
SPLINE
  5
1FE
330
1F
100
AcDbEntity
  8
0
  6
Continuous
 62
     7
370
    25
100
AcDbSpline
210
0.0
220
0.0
230
1.0
 70
     8
 71
     3
 72
    10
 73
     6
 74
     0
 42
0.000000001
 43
0.00000001
 40
0.0
 40
0.0
 40
0.0
 40
0.0
 40
0.5
 40
0.5
 40
1.0
 40
1.0
 40
1.0
 40
1.0
 10
222.5069440986004
 20
45.15793993332475
 30
0.0
 10
222.4499943014812
 20
45.12506351524208
 30
0.0
 10
222.3714457024495
 20
45.10489812271909
 30
0.0
 10
222.2114790384552
 20
45.10190039069462
 30
0.0
 10
222.1299218760621
 20
45.11979311929555
 30
0.0
 10
222.073261263033
 20
45.1525025949566
 30
0.0
  0
SPLINE
  5
1FF
330
1F
100
AcDbEntity
  8
0
  6
Continuous
 62
     7
370
    25
100
AcDbSpline
210
0.0
220
0.0
230
1.0
 70
     8
 71
     3
 72
    12
 73
     8
 74
     0
 42
0.000000001
 43
0.00000001
 40
0.0
 40
0.0
 40
0.0
 40
0.0
 40
0.250000000000002
 40
0.250000000000002
 40
0.500000000000004
 40
0.500000000000004
 40
1.0
 40
1.0
 40
1.0
 40
1.0
 10
239.7639831693782
 20
61.67646447321139
 30
0.0
 10
239.7961538178764
 20
61.65789275314359
 30
0.0
 10
239.8279710031408
 20
61.62816982142322
 30
0.0
 10
239.8824961757319
 20
61.5580066658589
 30
0.0
 10
239.9055750933705
 20
61.51755336941222
 30
0.0
 10
239.9595938752001
 20
61.39421902986328
 30
0.0
 10
239.9761152037342
 20
61.31065779487185
 30
0.0
 10
239.9761152037342
 20
61.23647609197023
 30
0.0
  0
LINE
  5
200
330
1F
100
AcDbEntity
  8
0
  6
Continuous
 62
     7
370
    25
100
AcDbLine
 10
222.0732615362
 20
45.152502305
 30
0.0
 11
220.673872896
 21
45.9603521714
 31
0.0
  0
LWPOLYLINE
  5
201
330
1F
100
AcDbEntity
  8
0
  6
Continuous
 62
     7
370
    25
100
AcDbPolyline
 90
       20
 70
   128
 43
0.0
 10
220.673872896
 20
45.9603521714
 10
221.0589027964
 20
47.4339520601
 10
221.553625797
 20
48.9183554383
 10
222.152765639
 20
50.397733766
 10
222.8499337824
 20
51.8563137411
 10
223.6376978938
 20
53.2785434542
 10
224.5076582379
 20
54.6492581622
 10
225.4505378982
 20
55.9538422587
 10
226.456284193
 20
57.1783866799
 10
227.5141733833
 20
58.3098337633
 10
228.6129250958
 20
59.3361185879
 10
229.7408243174
 20
60.2463002375
 10
230.8858447084
 20
61.0306725318
 10
232.035777471
 20
61.6808734021
 10
233.1783614532
 20
62.1899691237
 10
234.3014139518
 20
62.5525321092
 10
235.3929600349
 20
62.7646950313
 10
236.4413615745
 20
62.8241971751
 10
237.4354394484
 20
62.7304032724
 10
238.3645950412
 20
62.4843143264
  0
LINE
  5
202
330
1F
100
AcDbEntity
  8
0
  6
Continuous
 62
     7
370
    25
100
AcDbLine
 10
238.3645950412
 20
62.4843143264
 30
0.0
 11
239.7639836815
 21
61.67646446
 31
0.0
  0
LINE
  5
203
330
1F
100
AcDbEntity
  8
0
  6
Continuous
 62
     7
370
    25
100
AcDbLine
 10
223.6242708298
 20
44.4394945578
 30
0.0
 11
223.6242708298
 21
45.802958894
 31
0.0
  0
LINE
  5
204
330
1F
100
AcDbEntity
  8
0
  6
Continuous
 62
     7
370
    25
100
AcDbLine
 10
223.6242708298
 20
45.802958894
 30
0.0
 11
222.5069440463
 21
45.1579398715
 31
0.0
  0
LINE
  5
205
330
1F
100
AcDbEntity
  8
0
  6
Continuous
 62
     7
370
    25
100
AcDbLine
 10
239.9761153555
 20
61.2364759734
 30
0.0
 11
239.9761153555
 21
59.672412173
 31
0.0
  0
LINE
  5
206
330
1F
100
AcDbEntity
  8
0
  6
Continuous
 62
     7
370
    25
100
AcDbLine
 10
241.3305609672
 20
60.4543169813
 30
0.0
 11
239.9761153555
 21
59.672412173
 31
0.0
  0
SPLINE
  5
207
330
1F
100
AcDbEntity
  8
0
  6
Continuous
 62
     7
370
    25
100
AcDbSpline
210
0.0
220
0.0
230
1.0
 70
     8
 71
     3
 72
    20
 73
    16
 74
     0
 42
0.000000001
 43
0.00000001
 40
0.0
 40
0.0
 40
0.0
 40
0.0
 40
0.2499999999999999
 40
0.2499999999999999
 40
0.3749999999999998
 40
0.3749999999999998
 40
0.4374999999999998
 40
0.4374999999999998
 40
0.4687499999999998
 40
0.4687499999999998
 40
0.4999999999999999
 40
0.4999999999999999
 40
0.7499999999999999
 40
0.7499999999999999
 40
1.0
 40
1.0
 40
1.0
 40
1.0
 10
223.6242708887953
 20
39.81755612233706
 30
0.0
 10
223.6242708887953
 20
40.20993829885763
 30
0.0
 10
223.6447166681052
 20
40.59011493332367
 30
0.0
 10
223.6718902438247
 20
41.16246635514189
 30
0.0
 10
223.6804706236187
 20
41.35353520350949
 30
0.0
 10
223.6893270013625
 20
41.64253483317121
 30
0.0
 10
223.691618808285
 20
41.73926223450038
 30
0.0
 10
223.6938130419725
 20
41.88509565630885
 30
0.0
 10
223.694338783801
 20
41.93382957562706
 30
0.0
 10
223.6949585162996
 20
42.03155515728434
 30
0.0
 10
223.6950476243477
 20
42.08080021029474
 30
0.0
 10
223.6940090184307
 20
42.50746290217743
 30
0.0
 10
223.6784957781587
 20
42.89471924856009
 30
0.0
 10
223.6433582992364
 20
43.67140151126166
 30
0.0
 10
223.6242708887953
 20
44.0605553678794
 30
0.0
 10
223.6242708887953
 20
44.43949449006767
 30
0.0
  0
LWPOLYLINE
  5
208
330
1F
100
AcDbEntity
  8
0
  6
Continuous
 62
     7
370
    25
100
AcDbPolyline
 90
       19
 70
   128
 43
0.0
 10
219.7500903678
 20
47.5913339639
 10
220.1405545775
 20
48.9819516321
 10
220.6354112626
 20
50.3786922577
 10
221.2291240394
 20
51.7659299886
 10
221.9150514865
 20
53.1281463016
 10
222.6855195849
 20
54.4501014798
 10
223.531909304
 20
55.7170060894
 10
224.4447514323
 20
56.914688652
 10
225.4138349079
 20
58.029749439
 10
226.4283174541
 20
59.0497140739
 10
227.4768508673
 20
59.9631735414
 10
228.5477044941
 20
60.7599071801
 10
229.6288988131
 20
61.431002384
 10
230.7083383991
 20
61.9689526539
 10
231.7739474598
 20
62.3677381222
 10
232.813805043
 20
62.6228982837
 10
233.816277713
 20
62.7315789294
 10
234.7701511154
 20
62.6925639907
 10
234.8651563681
 20
62.6801654245
  0
SPLINE
  5
209
330
1F
100
AcDbEntity
  8
0
  6
Continuous
 62
     7
370
    25
100
AcDbSpline
210
0.0
220
0.0
230
1.0
 70
     8
 71
     3
 72
     8
 73
     4
 74
     0
 42
0.000000001
 43
0.00000001
 40
0.0
 40
0.0
 40
0.0
 40
0.0
 40
1.0
 40
1.0
 40
1.0
 40
1.0
 10
219.7500904076424
 20
47.59133416480302
 30
0.0
 10
219.2587893785899
 20
47.50868694459913
 30
0.0
 10
218.7672092876872
 20
47.42660315710869
 30
0.0
 10
218.2754144889353
 20
47.34495287002695
 30
0.0
  0
LWPOLYLINE
  5
20A
330
1F
100
AcDbEntity
  8
0
  6
Continuous
 62
     7
370
    25
100
AcDbPolyline
 90
       20
 70
   128
 43
0.0
 10
218.2754146145
 20
47.3449526652
 10
218.6604445149
 20
48.818552554
 10
219.1551675155
 20
50.3029559322
 10
219.7543073576
 20
51.7823342598
 10
220.451475501
 20
53.2409142349
 10
221.2392396123
 20
54.663143948
 10
222.1091999564
 20
56.033858656
 10
223.0520796168
 20
57.3384427525
 10
224.0578259115
 20
58.5629871737
 10
225.1157151019
 20
59.6944342571
 10
226.2144668143
 20
60.7207190817
 10
227.3423660359
 20
61.6309007313
 10
228.4873864269
 20
62.4152730257
 10
229.6373191896
 20
63.0654738959
 10
230.7799031717
 20
63.5745696176
 10
231.9029556704
 20
63.9371326031
 10
232.9945017534
 20
64.1492955251
 10
234.0429032931
 20
64.208797669
 10
235.0369811669
 20
64.1150037663
 10
235.9661367598
 20
63.8689148203
  0
LINE
  5
20B
330
1F
100
AcDbEntity
  8
0
  6
Continuous
 62
     7
370
    25
100
AcDbLine
 10
235.9661367598
 20
63.8689148203
 30
0.0
 11
236.301974044
 21
62.7838688299
 31
0.0
  0
LINE
  5
20C
330
1F
100
AcDbEntity
  8
0
  6
Continuous
 62
     7
370
    25
100
AcDbLine
 10
232.5514942531
 20
65.8401459805
 30
0.0
 11
235.9661367598
 21
63.8689148203
 31
0.0
  0
LINE
  5
20D
330
1F
100
AcDbEntity
  8
0
  6
Continuous
 62
     7
370
    25
100
AcDbLine
 10
218.2754146145
 20
47.3449526652
 30
0.0
 11
217.689199367
 21
47.6833675243
 31
0.0
  0
SPLINE
  5
20E
330
1F
100
AcDbEntity
  8
0
  6
Continuous
 62
     7
370
    25
100
AcDbSpline
210
0.0
220
0.0
230
1.0
 70
     8
 71
     3
 72
    28
 73
    24
 74
     0
 42
0.000000001
 43
0.00000001
 40
0.0
 40
0.0
 40
0.0
 40
0.0
 40
0.1249999999999999
 40
0.1249999999999999
 40
0.1874999999999998
 40
0.1874999999999998
 40
0.2499999999999997
 40
0.2499999999999997
 40
0.3749999999999993
 40
0.3749999999999993
 40
0.4374999999999993
 40
0.4374999999999993
 40
0.4999999999999992
 40
0.4999999999999992
 40
0.6249999999999992
 40
0.6249999999999992
 40
0.7499999999999992
 40
0.7499999999999992
 40
0.8124999999999993
 40
0.8124999999999993
 40
0.8749999999999996
 40
0.8749999999999996
 40
1.0
 40
1.0
 40
1.0
 40
1.0
 10
217.6891992196768
 20
47.68336774160677
 30
0.0
 10
217.5012121392105
 20
47.79189037319084
 30
0.0
 10
217.3109921846098
 20
47.87383409373874
 30
0.0
 10
217.0228935826618
 20
47.9589918237772
 30
0.0
 10
216.9264037120622
 20
47.98104175418101
 30
0.0
 10
216.7326655392273
 20
48.01231557763997
 30
0.0
 10
216.6354145186959
 20
48.0214428289634
 30
0.0
 10
216.3493926438106
 20
48.02922567107181
 30
0.0
 10
216.164050827454
 20
48.00891912743473
 30
0.0
 10
215.8955382406382
 20
47.9416984743016
 30
0.0
 10
215.8071775809724
 20
47.91291211669601
 30
0.0
 10
215.6368248706827
 20
47.84390022660086
 30
0.0
 10
215.5547978409013
 20
47.80376033669072
 30
0.0
 10
215.3183615871487
 20
47.66714056892751
 30
0.0
 10
215.1734943370264
 20
47.55462607923844
 30
0.0
 10
214.9126375435422
 20
47.28636911423897
 30
0.0
 10
214.8003451360399
 20
47.13421572786169
 30
0.0
 10
214.6611206545861
 20
46.88229934016339
 30
0.0
 10
214.6195248682203
 20
46.79425705448701
 30
0.0
 10
214.5464001531591
 20
46.60991599943519
 30
0.0
 10
214.5147756691061
 20
46.51312723675341
 30
0.0
 10
214.437282365684
 20
46.2151121578566
 30
0.0
 10
214.4081076502941
 20
46.00563928072008
 30
0.0
 10
214.4021407675523
 20
45.78525848803621
 30
0.0
  0
ARC
  5
20F
330
1F
100
AcDbEntity
  8
0
  6
Continuous
 62
     7
370
    25
100
AcDbCircle
 10
229.2466906053
 20
45.3769880189
 30
0.0
 40
14.85016324625955
100
AcDbArc
 50
178.4245883564
 51
181.5754116436
  0
SPLINE
  5
210
330
1F
100
AcDbEntity
  8
0
  6
Continuous
 62
     7
370
    25
100
AcDbSpline
210
0.0
220
0.0
230
1.0
 70
     8
 71
     3
 72
    30
 73
    26
 74
     0
 42
0.000000001
 43
0.00000001
 40
0.0
 40
0.0
 40
0.0
 40
0.0
 40
0.125
 40
0.125
 40
0.1875000000000001
 40
0.1875000000000001
 40
0.2500000000000001
 40
0.2500000000000001
 40
0.3750000000000001
 40
0.3750000000000001
 40
0.4375000000000001
 40
0.4375000000000001
 40
0.5000000000000001
 40
0.5000000000000001
 40
0.6250000000000002
 40
0.6250000000000002
 40
0.6875000000000001
 40
0.6875000000000001
 40
0.75
 40
0.75
 40
0.8124999999999999
 40
0.8124999999999999
 40
0.8749999999999998
 40
0.8749999999999998
 40
1.0
 40
1.0
 40
1.0
 40
1.0
 10
214.4021407675523
 20
44.96871767615045
 30
0.0
 10
214.4081083662438
 20
44.75520048337574
 30
0.0
 10
214.4372535862433
 20
44.53765058535661
 30
0.0
 10
214.5136882475022
 20
44.20535155582102
 30
0.0
 10
214.5446542310795
 20
44.09357725452146
 30
0.0
 10
214.6176241718951
 20
43.86787538098645
 30
0.0
 10
214.6597603704537
 20
43.75378760841394
 30
0.0
 10
214.7996521598182
 20
43.41562488105275
 30
0.0
 10
214.9114960843604
 20
43.19311466177997
 30
0.0
 10
215.105282681505
 20
42.86250440583041
 30
0.0
 10
215.1746233191082
 20
42.75227776612427
 30
0.0
 10
215.3201157035549
 20
42.53554776567072
 30
0.0
 10
215.396002994274
 20
42.42935083004
 30
0.0
 10
215.6323909427454
 20
42.11671265679039
 30
0.0
 10
215.8015364449963
 20
41.91617010895524
 30
0.0
 10
216.0714024423303
 20
41.62606526953289
 30
0.0
 10
216.1635939483812
 20
41.53172185316044
 30
0.0
 10
216.3491925434159
 20
41.35041682510005
 30
0.0
 10
216.4430214237028
 20
41.26299749160589
 30
0.0
 10
216.6324714741681
 20
41.09438994128124
 30
0.0
 10
216.7280928893738
 20
41.0132017555119
 30
0.0
 10
216.9209545788002
 20
40.85703907596375
 30
0.0
 10
217.0186894876986
 20
40.78171209626706
 30
0.0
 10
217.309945442819
 20
40.56842186282321
 30
0.0
 10
217.5012028337921
 20
40.44302843812278
 30
0.0
 10
217.6891992196768
 20
40.33450043463501
 30
0.0
  0
LINE
  5
211
330
1F
100
AcDbEntity
  8
0
  6
Continuous
 62
     7
370
    25
100
AcDbLine
 10
217.689199367
 20
40.3345005337
 30
0.0
 11
218.2754146145
 21
39.9960856746
 31
0.0
  0
ARC
  5
212
330
1F
100
AcDbEntity
  8
0
  6
Continuous
 62
     7
370
    25
100
AcDbCircle
 10
224.1517819287
 20
41.4393440041
 30
0.0
 40
6.051007140674931
100
AcDbArc
 50
193.7989340506
 51
252.8232439827
  0
LINE
  5
213
330
1F
100
AcDbEntity
  8
0
  6
Continuous
 62
     7
370
    25
100
AcDbLine
 10
237.5955543381
 20
62.9279662878
 30
0.0
 11
237.9298664332
 21
62.6206375674
 31
0.0
  0
LINE
  5
214
330
1F
100
AcDbEntity
  8
0
  6
Continuous
 62
     7
370
    25
100
AcDbLine
 10
236.7426256013
 20
63.4203515668
 30
0.0
 11
237.5955543381
 21
62.9279662878
 31
0.0
  0
SPLINE
  5
215
330
1F
100
AcDbEntity
  8
0
  6
Continuous
 62
     7
370
    25
100
AcDbSpline
210
0.0
220
0.0
230
1.0
 70
     8
 71
     3
 72
    20
 73
    16
 74
     0
 42
0.000000001
 43
0.00000001
 40
0.0
 40
0.0
 40
0.0
 40
0.0
 40
0.2499999999999995
 40
0.2499999999999995
 40
0.3749999999999996
 40
0.3749999999999996
 40
0.4999999999999997
 40
0.4999999999999997
 40
0.6249999999999998
 40
0.6249999999999998
 40
0.7499999999999998
 40
0.7499999999999998
 40
0.8749999999999999
 40
0.8749999999999999
 40
1.0
 40
1.0
 40
1.0
 40
1.0
 10
232.5514940012754
 20
65.8401458435072
 30
0.0
 10
232.8704826556734
 20
65.70625545424741
 30
0.0
 10
233.1969382557714
 20
65.54635910718542
 30
0.0
 10
233.7092883731545
 20
65.26844017971591
 30
0.0
 10
233.8838917398324
 20
65.16944116690561
 30
0.0
 10
234.2437656021812
 20
64.95850046200691
 30
0.0
 10
234.4266260185347
 20
64.84794464479685
 30
0.0
 10
234.792921107712
 20
64.62252677578603
 30
0.0
 10
234.9774046239706
 20
64.50704617440657
 30
0.0
 10
235.3509894482061
 20
64.27221383011081
 30
0.0
 10
235.5353389194453
 20
64.15588390483553
 30
0.0
 10
235.8960488259218
 20
63.93018921803615
 30
0.0
 10
236.0731028151756
 20
63.82037924393946
 30
0.0
 10
236.420832166528
 20
63.60898448040356
 30
0.0
 10
236.5860825829863
 20
63.51072164526055
 30
0.0
 10
236.7426254977677
 20
63.42035134414317
 30
0.0
  0
SPLINE
  5
216
330
1F
100
AcDbEntity
  8
0
  6
Continuous
 62
     7
370
    25
100
AcDbSpline
210
0.0
220
0.0
230
1.0
 70
    11
 71
     3
 72
    70
 73
    66
 74
     0
 42
0.000000001
 43
0.00000001
 40
0.0
 40
0.0
 40
0.0
 40
0.0
 40
0.0312500000000001
 40
0.0312500000000001
 40
0.0625000000000002
 40
0.0625000000000002
 40
0.0937500000000003
 40
0.0937500000000003
 40
0.1250000000000004
 40
0.1250000000000004
 40
0.1562500000000005
 40
0.1562500000000005
 40
0.1875000000000006
 40
0.1875000000000006
 40
0.2187500000000007
 40
0.2187500000000007
 40
0.2500000000000008
 40
0.2500000000000008
 40
0.2812500000000009
 40
0.2812500000000009
 40
0.3125000000000011
 40
0.3125000000000011
 40
0.3437500000000012
 40
0.3437500000000012
 40
0.3750000000000012
 40
0.3750000000000012
 40
0.4062500000000013
 40
0.4062500000000013
 40
0.4375000000000014
 40
0.4375000000000014
 40
0.4687500000000016
 40
0.4687500000000016
 40
0.5000000000000017
 40
0.5000000000000017
 40
0.5312500000000018
 40
0.5312500000000018
 40
0.5625000000000019
 40
0.5625000000000019
 40
0.593750000000002
 40
0.593750000000002
 40
0.6250000000000021
 40
0.6250000000000021
 40
0.6562500000000022
 40
0.6562500000000022
 40
0.6875000000000023
 40
0.6875000000000023
 40
0.7187500000000021
 40
0.7187500000000021
 40
0.7500000000000018
 40
0.7500000000000018
 40
0.7812500000000016
 40
0.7812500000000016
 40
0.8125000000000013
 40
0.8125000000000013
 40
0.8437500000000011
 40
0.8437500000000011
 40
0.8750000000000009
 40
0.8750000000000009
 40
0.9062500000000007
 40
0.9062500000000007
 40
0.9375000000000004
 40
0.9375000000000004
 40
0.9687500000000002
 40
0.9687500000000002
 40
1.0
 40
1.0
 40
1.0
 40
1.0
 10
230.3668546800233
 20
65.45564577318143
 30
0.0
 10
230.2733237785744
 20
65.50964001328818
 30
0.0
 10
230.1900996535713
 20
65.56416272866264
 30
0.0
 10
230.043338578074
 20
65.6740507929762
 30
0.0
 10
229.979276694996
 20
65.73002602691535
 30
0.0
 10
229.8751446052751
 20
65.83899306132062
 30
0.0
 10
229.8349171472325
 20
65.8918447597796
 30
0.0
 10
229.7776462701225
 20
65.99360281193132
 30
0.0
 10
229.7608430461055
 20
66.04267368553435
 30
0.0
 10
229.7519991591955
 20
66.13177636134226
 30
0.0
 10
229.7595232920183
 20
66.17238662688165
 30
0.0
 10
229.7988096727737
 20
66.24466607277925
 30
0.0
 10
229.8304159386805
 20
66.27562960411684
 30
0.0
 10
229.9151994973851
 20
66.32538013635698
 30
0.0
 10
229.9690125866303
 20
66.34452869273113
 30
0.0
 10
230.0973938558745
 20
66.36956575449753
 30
0.0
 10
230.1707242006454
 20
66.37534783374028
 30
0.0
 10
230.3351644015057
 20
66.37359865330855
 30
0.0
 10
230.427406619411
 20
66.36583760955564
 30
0.0
 10
230.623148424775
 20
66.33738710271506
 30
0.0
 10
230.7269598047556
 20
66.31683519704612
 30
0.0
 10
230.9467257837848
 20
66.26346903148347
 30
0.0
 10
231.0623555000909
 20
66.23061666975049
 30
0.0
 10
231.2961915702353
 20
66.15606387253895
 30
0.0
 10
231.4157065075933
 20
66.11404523727829
 30
0.0
 10
231.6597674404893
 20
66.02125834104378
 30
0.0
 10
231.7805129826328
 20
65.97195133196834
 30
0.0
 10
232.0198811807582
 20
65.8685586579117
 30
0.0
 10
232.139788121603
 20
65.81383904128393
 30
0.0
 10
232.3704254520862
 20
65.70348864532208
 30
0.0
 10
232.4809344037982
 20
65.64804224382551
 30
0.0
 10
232.6925756118368
 20
65.53709526486672
 30
0.0
 10
232.7941041204961
 20
65.48130658087867
 30
0.0
 10
232.9788351552618
 20
65.37468485791267
 30
0.0
 10
233.0632467239025
 20
65.323245987813
 30
0.0
 10
233.215702290742
 20
65.22402977447094
 30
0.0
 10
233.2822975569115
 20
65.17713571932175
 30
0.0
 10
233.3935645571245
 20
65.09029517649529
 30
0.0
 10
233.4390730899724
 20
65.04968362444359
 30
0.0
 10
233.5066382728515
 20
64.97564024751549
 30
0.0
 10
233.5284069644221
 20
64.94267485899591
 30
0.0
 10
233.5481875538125
 20
64.88380445594366
 30
0.0
 10
233.5458995654949
 20
64.8577289229392
 30
0.0
 10
233.5167723496228
 20
64.81398999048444
 30
0.0
 10
233.4902381681012
 20
64.79606012038701
 30
0.0
 10
233.4126773572207
 20
64.767447037898
 30
0.0
 10
233.3614907901501
 20
64.75692014650329
 30
0.0
 10
233.2385739245301
 20
64.74365789775698
 30
0.0
 10
233.1664394651058
 20
64.74074753311967
 30
0.0
 10
232.9999725481708
 20
64.74252658303439
 30
0.0
 10
232.9084093518111
 20
64.7471838899009
 30
0.0
 10
232.7093632774271
 20
64.76388802137913
 30
0.0
 10
232.6005642831696
 20
64.77613294827958
 30
0.0
 10
232.3733426420731
 20
64.80798285701883
 30
0.0
 10
232.2553498797147
 20
64.82745041618038
 30
0.0
 10
232.0108868727497
 20
64.87413125429538
 30
0.0
 10
231.8837923832732
 20
64.9015680732794
 30
0.0
 10
231.6320641630617
 20
64.96285570902926
 30
0.0
 10
231.5061287835117
 20
64.99691755216051
 30
0.0
 10
231.2543604871203
 20
65.07295890912239
 30
0.0
 10
231.1308768592425
 20
65.1142948215796
 30
0.0
 10
230.894018443941
 20
65.20239079816915
 30
0.0
 10
230.779051701337
 20
65.24974524245447
 30
0.0
 10
230.5615733933361
 20
65.34971706608962
 30
0.0
 10
230.4603855814723
 20
65.40165153307466
 30
0.0
 10
230.3668546800233
 20
65.45564577318142
 30
0.0
  0
LINE
  5
217
330
1F
100
AcDbEntity
  8
0
  6
Continuous
 62
     7
370
    25
100
AcDbLine
 10
220.8847052617
 20
46.8170752977
 30
0.0
 11
220.4210774157
 21
47.0847219562
 31
0.0
  0
LINE
  5
218
330
1F
100
AcDbEntity
  8
0
  6
Continuous
 62
     7
370
    25
100
AcDbLine
 10
219.9952592442
 20
47.7328669436
 30
0.0
 11
219.7500903678
 21
47.5913339639
 31
0.0
  0
SPLINE
  5
219
330
1F
100
AcDbEntity
  8
0
  6
Continuous
 62
     7
370
    25
100
AcDbSpline
210
0.0
220
0.0
230
1.0
 70
     8
 71
     3
 72
    14
 73
    10
 74
     0
 42
0.000000001
 43
0.00000001
 40
0.0
 40
0.0
 40
0.0
 40
0.0
 40
0.1249999999999993
 40
0.1249999999999993
 40
0.2499999999999987
 40
0.2499999999999987
 40
0.4999999999999973
 40
0.4999999999999973
 40
1.0
 40
1.0
 40
1.0
 40
1.0
 10
220.4210771700202
 20
47.08472202398104
 30
0.0
 10
220.3968807368551
 20
47.09869032752358
 30
0.0
 10
220.3737052983961
 20
47.12605550352114
 30
0.0
 10
220.3367849059652
 20
47.18385727264666
 30
0.0
 10
220.3217431149326
 20
47.21482775176302
 30
0.0
 10
220.2819296583457
 20
47.30785422469223
 30
0.0
 10
220.2622936399616
 20
47.37046527897702
 30
0.0
 10
220.2118727914921
 20
47.554796029892
 30
0.0
 10
220.1894556132516
 20
47.67634026479266
 30
0.0
 10
220.1727677150857
 20
47.79546933009503
 30
0.0
  0
SPLINE
  5
21A
330
1F
100
AcDbEntity
  8
0
  6
Continuous
 62
     7
370
    25
100
AcDbSpline
210
0.0
220
0.0
230
1.0
 70
     8
 71
     3
 72
    10
 73
     6
 74
     0
 42
0.000000001
 43
0.00000001
 40
0.0
 40
0.0
 40
0.0
 40
0.0
 40
0.5
 40
0.5
 40
1.0
 40
1.0
 40
1.0
 40
1.0
 10
220.1727677150857
 20
47.79546933009503
 30
0.0
 10
220.1393776968979
 20
47.7893195608948
 30
0.0
 10
220.1071383454698
 20
47.78077295304671
 30
0.0
 10
220.0471504512074
 20
47.7595369792778
 30
0.0
 10
220.0198885779584
 20
47.74708533326962
 30
0.0
 10
219.9952590120085
 20
47.73286698749276
 30
0.0
  0
LWPOLYLINE
  5
21B
330
1F
100
AcDbEntity
  8
0
  6
Continuous
 62
     7
370
    25
100
AcDbPolyline
 90
       21
 70
   128
 43
0.0
 10
212.7525044273
 20
46.4452833702
 10
212.807319038
 20
47.7452260407
 10
212.9712189122
 20
49.0955374308
 10
213.2425748109
 20
50.4827972345
 10
213.6186893357
 20
51.8932179423
 10
214.0958259052
 20
53.312783243
 10
214.6692410232
 20
54.7273835729
 10
215.333236304
 20
56.122960409
 10
216.0812131318
 20
57.4856439076
 10
216.9057378562
 20
58.801892443
 10
217.7986148906
 20
60.0586218795
 10
218.7509713357
 20
61.2433441578
 10
219.7533422606
 20
62.3442849685
 10
220.7957652039
 20
63.3505021852
 10
221.8678801081
 20
64.2519952674
 10
222.9590322992
 20
65.0398050132
 10
224.058377031
 20
65.7061020488
 10
225.1549886384
 20
66.2442642905
 10
226.2379684568
 20
66.6489438075
 10
227.2965533994
 20
66.9161173353
 10
228.2731693071
 20
67.0403315309
  0
LINE
  5
21C
330
1F
100
AcDbEntity
  8
0
  6
Continuous
 62
     7
370
    25
100
AcDbLine
 10
219.0280769865
 20
41.1074181314
 30
0.0
 11
220.1727679406
 21
40.4466021095
 31
0.0
  0
ARC
  5
21D
330
1F
100
AcDbEntity
  8
0
  6
Continuous
 62
     7
370
    25
100
AcDbCircle
 10
222.3405130167
 20
46.2858404638
 30
0.0
 40
6.147218094902164
100
AcDbArc
 50
182.6054747885
 51
237.394528727
  0
LINE
  5
21E
330
1F
100
AcDbEntity
  8
0
  6
Continuous
 62
     7
370
    25
100
AcDbLine
 10
216.1996497274
 20
46.8229383533
 30
0.0
 11
216.1996497274
 21
46.0063975026
 31
0.0
  0
ARC
  5
21F
330
1F
100
AcDbEntity
  8
0
  6
Continuous
 62
     7
370
    25
100
AcDbCircle
 10
218.7683294914
 20
46.9136646939
 30
0.0
 40
2.5702815018645
100
AcDbArc
 50
155.2737223123
 51
182.0228587718
  0
LINE
  5
220
330
1F
100
AcDbEntity
  8
0
  6
Continuous
 62
     7
370
    25
100
AcDbLine
 10
223.6242708298
 20
38.4540919034
 30
0.0
 11
223.6242708298
 21
39.8175562395
 31
0.0
  0
LINE
  5
221
330
1F
100
AcDbEntity
  8
0
  6
Continuous
 62
     7
370
    25
100
AcDbLine
 10
221.4542751383
 20
39.7068037513
 30
0.0
 11
223.6242708298
 21
38.4540919034
 31
0.0
  0
SPLINE
  5
222
330
1F
100
AcDbEntity
  8
0
  6
Continuous
 62
     7
370
    25
100
AcDbSpline
210
0.0
220
0.0
230
1.0
 70
     8
 71
     3
 72
    14
 73
    10
 74
     0
 42
0.000000001
 43
0.00000001
 40
0.0
 40
0.0
 40
0.0
 40
0.0
 40
0.1249999999999983
 40
0.1249999999999983
 40
0.2499999999999966
 40
0.2499999999999966
 40
0.4999999999999968
 40
0.4999999999999968
 40
1.0
 40
1.0
 40
1.0
 40
1.0
 10
221.2059656971373
 20
40.41755083291914
 30
0.0
 10
221.2303950457811
 20
40.40344807013282
 30
0.0
 10
221.2533735998471
 20
40.37616594027315
 30
0.0
 10
221.2902567133389
 20
40.31841253676665
 30
0.0
 10
221.3053818596558
 20
40.28726495509605
 30
0.0
 10
221.345099220115
 20
40.19442785354007
 30
0.0
 10
221.3645613380041
 20
40.13247738372331
 30
0.0
 10
221.4154294591981
 20
39.9465626782258
 30
0.0
 10
221.4377136866133
 20
39.82503003325252
 30
0.0
 10
221.4542751520718
 20
39.70680352680498
 30
0.0
  0
LINE
  5
223
330
1F
100
AcDbEntity
  8
0
  6
Continuous
 62
     7
370
    25
100
AcDbLine
 10
220.4210774157
 20
40.8706572359
 30
0.0
 11
221.2059656632
 21
40.4175508953
 31
0.0
  0
SPLINE
  5
224
330
1F
100
AcDbEntity
  8
0
  6
Continuous
 62
     7
370
    25
100
AcDbSpline
210
0.0
220
0.0
230
1.0
 70
     8
 71
     3
 72
    14
 73
    10
 74
     0
 42
0.000000001
 43
0.00000001
 40
0.0
 40
0.0
 40
0.0
 40
0.0
 40
0.4999999999999998
 40
0.4999999999999998
 40
0.7499999999999981
 40
0.7499999999999981
 40
0.8749999999999991
 40
0.8749999999999991
 40
1.0
 40
1.0
 40
1.0
 40
1.0
 10
220.1727677150857
 20
40.44660202312303
 30
0.0
 10
220.1893917965394
 20
40.54608176735314
 30
0.0
 10
220.2118091981437
 20
40.64191690074914
 30
0.0
 10
220.2622402559924
 20
40.76813285032278
 30
0.0
 10
220.2817749499236
 20
40.80796639901703
 30
0.0
 10
220.3217181072591
 20
40.85522673048888
 30
0.0
 10
220.3367350744247
 20
40.86882934409414
 30
0.0
 10
220.3737964419464
 20
40.88404974566986
 30
0.0
 10
220.3967801042947
 20
40.88468373246375
 30
0.0
 10
220.4210771700202
 20
40.87065733498071
 30
0.0
  0
LINE
  5
225
330
1F
100
AcDbEntity
  8
0
  6
Continuous
 62
     7
370
    25
100
AcDbLine
 10
222.5069440463
 20
37.8090728809
 30
0.0
 11
223.6242708298
 21
38.4540919034
 31
0.0
  0
ARC
  5
226
330
1F
100
AcDbEntity
  8
0
  6
Continuous
 62
     7
370
    25
100
AcDbCircle
 10
227.7598478974
 20
39.036333563
 30
0.0
 40
5.778537387965853
100
AcDbArc
 50
198.6322687466
 51
274.3875206196
  0
SPLINE
  5
227
330
1F
100
AcDbEntity
  8
0
  6
Continuous
 62
     7
370
    25
100
AcDbSpline
210
0.0
220
0.0
230
1.0
 70
     8
 71
     3
 72
    10
 73
     6
 74
     0
 42
0.000000001
 43
0.00000001
 40
0.0
 40
0.0
 40
0.0
 40
0.0
 40
0.5
 40
0.5
 40
1.0
 40
1.0
 40
1.0
 40
1.0
 10
222.0732612630334
 20
37.80363528798461
 30
0.0
 10
222.13033871506
 20
37.77068517629253
 30
0.0
 10
222.2116682185253
 20
37.75300841810085
 30
0.0
 10
222.3716317704462
 20
37.75606257967246
 30
0.0
 10
222.4503387092869
 20
37.77639503066452
 30
0.0
 10
222.5069440986004
 20
37.80907262635299
 30
0.0
  0
ARC
  5
228
330
1F
100
AcDbEntity
  8
0
  6
Continuous
 62
     7
370
    25
100
AcDbCircle
 10
226.878050371
 20
40.2432923403
 30
0.0
 40
6.415186103836146
100
AcDbArc
 50
194.7360387637
 51
237.9334169662
  0
LINE
  5
229
330
1F
100
AcDbEntity
  8
0
  6
Continuous
 62
     7
370
    25
100
AcDbLine
 10
220.673872896
 20
38.6114851808
 30
0.0
 11
222.0732615362
 21
37.8036353143
 31
0.0
  0
SPLINE
  5
22A
330
1F
100
AcDbEntity
  8
0
  6
Continuous
 62
     7
370
    25
100
AcDbSpline
210
0.0
220
0.0
230
1.0
 70
     8
 71
     3
 72
     8
 73
     4
 74
     0
 42
0.000000001
 43
0.00000001
 40
0.0
 40
0.0
 40
0.0
 40
0.0
 40
1.0
 40
1.0
 40
1.0
 40
1.0
 10
221.1006643597087
 20
39.46279711104059
 30
0.0
 10
220.9574996630182
 20
39.17917506403358
 30
0.0
 10
220.8153109661657
 20
38.89539191804956
 30
0.0
 10
220.6738731954105
 20
38.61148482386248
 30
0.0
  0
LINE
  5
22B
330
1F
100
AcDbEntity
  8
0
  6
Continuous
 62
     7
370
    25
100
AcDbLine
 10
221.3458332727
 20
39.6043301621
 30
0.0
 11
221.1006643964
 21
39.4627971824
 31
0.0
  0
SPLINE
  5
22C
330
1F
100
AcDbEntity
  8
0
  6
Continuous
 62
     7
370
    25
100
AcDbSpline
210
0.0
220
0.0
230
1.0
 70
     8
 71
     3
 72
    10
 73
     6
 74
     0
 42
0.000000001
 43
0.00000001
 40
0.0
 40
0.0
 40
0.0
 40
0.0
 40
0.5
 40
0.5
 40
1.0
 40
1.0
 40
1.0
 40
1.0
 10
221.4542751520718
 20
39.70680352680498
 30
0.0
 10
221.4436222851018
 20
39.68752787959886
 30
0.0
 10
221.4288175219497
 20
39.66891649817381
 30
0.0
 10
221.3920317506188
 20
39.6342862239423
 30
0.0
 10
221.3704625300248
 20
39.61854827950721
 30
0.0
 10
221.345832964075
 20
39.60432993373036
 30
0.0
  0
SPLINE
  5
22D
330
1F
100
AcDbEntity
  8
0
  6
Continuous
 62
     7
370
    25
100
AcDbSpline
210
0.0
220
0.0
230
1.0
 70
     8
 71
     3
 72
    14
 73
    10
 74
     0
 42
0.000000001
 43
0.00000001
 40
0.0
 40
0.0
 40
0.0
 40
0.0
 40
0.5000000000000002
 40
0.5000000000000002
 40
0.7500000000000002
 40
0.7500000000000002
 40
0.8750000000000001
 40
0.8750000000000001
 40
1.0
 40
1.0
 40
1.0
 40
1.0
 10
205.5329658953931
 20
51.10186287394178
 30
0.0
 10
205.8481318392329
 20
50.87477488304592
 30
0.0
 10
206.1644074944989
 20
50.64492850799779
 30
0.0
 10
206.6432319830699
 20
50.28961990600868
 30
0.0
 10
206.803551993494
 20
50.16948159181313
 30
0.0
 10
207.0466045294477
 20
49.98321275756933
 30
0.0
 10
207.1280479674643
 20
49.92011951634232
 30
0.0
 10
207.2927094164976
 20
49.78977427393018
 30
0.0
 10
207.3756154345639
 20
49.72324983195293
 30
0.0
 10
207.4616342626485
 20
49.64945636062937
 30
0.0
  0
SPLINE
  5
22E
330
1F
100
AcDbEntity
  8
0
  6
Continuous
 62
     7
370
    25
100
AcDbSpline
210
0.0
220
0.0
230
1.0
 70
     8
 71
     3
 72
     8
 73
     4
 74
     0
 42
0.000000001
 43
0.00000001
 40
0.0
 40
0.0
 40
0.0
 40
0.0
 40
1.0
 40
1.0
 40
1.0
 40
1.0
 10
207.4616342626485
 20
49.64945636062937
 30
0.0
 10
207.7632867358861
 20
49.39067600254754
 30
0.0
 10
208.0685662794095
 20
49.14310098714287
 30
0.0
 10
208.3732258525361
 20
48.90212813057634
 30
0.0
  0
SPLINE
  5
22F
330
1F
100
AcDbEntity
  8
0
  6
Continuous
 62
     7
370
    25
100
AcDbSpline
210
0.0
220
0.0
230
1.0
 70
     8
 71
     3
 72
    14
 73
    10
 74
     0
 42
0.000000001
 43
0.00000001
 40
0.0
 40
0.0
 40
0.0
 40
0.0
 40
0.1250000000000022
 40
0.1250000000000022
 40
0.2500000000000044
 40
0.2500000000000044
 40
0.500000000000003
 40
0.500000000000003
 40
1.0
 40
1.0
 40
1.0
 40
1.0
 10
208.3732258525362
 20
48.90212813057629
 30
0.0
 10
208.3924212284618
 20
48.88694539884008
 30
0.0
 10
208.4100333018621
 20
48.87557758034331
 30
0.0
 10
208.4358782317814
 20
48.86430911113086
 30
0.0
 10
208.4440165960291
 20
48.8639256408938
 30
0.0
 10
208.4609666869971
 20
48.8697014335882
 30
0.0
 10
208.4631359595069
 20
48.88236685920624
 30
0.0
 10
208.4619604116923
 20
48.92680368625
 30
0.0
 10
208.4498868910881
 20
48.96728695702345
 30
0.0
 10
208.435108663048
 20
49.01129062690594
 30
0.0
  0
SPLINE
  5
230
330
1F
100
AcDbEntity
  8
0
  6
Continuous
 62
     7
370
    25
100
AcDbSpline
210
0.0
220
0.0
230
1.0
 70
     8
 71
     3
 72
    14
 73
    10
 74
     0
 42
0.000000001
 43
0.00000001
 40
0.0
 40
0.0
 40
0.0
 40
0.0
 40
0.25
 40
0.25
 40
0.5
 40
0.5
 40
0.75
 40
0.75
 40
1.0
 40
1.0
 40
1.0
 40
1.0
 10
208.4351086630473
 20
49.01129062690664
 30
0.0
 10
208.4170524161008
 20
49.06505492989341
 30
0.0
 10
208.4141296179996
 20
49.10960553899046
 30
0.0
 10
208.4087158894563
 20
49.20186688883518
 30
0.0
 10
208.4071486114152
 20
49.24916129175543
 30
0.0
 10
208.397010211608
 20
49.35392234658321
 30
0.0
 10
208.3886952138638
 20
49.41118355361822
 30
0.0
 10
208.359895039205
 20
49.54080491099263
 30
0.0
 10
208.3392416425344
 20
49.61359911060568
 30
0.0
 10
208.3105521253733
 20
49.69328580956545
 30
0.0
  0
ARC
  5
231
330
1F
100
AcDbEntity
  8
0
  6
Continuous
 62
     7
370
    25
100
AcDbCircle
 10
218.6655224537
 20
52.7798472762
 30
0.0
 40
10.8051967356641
100
AcDbArc
 50
163.4019784234
 51
196.5980215766
  0
SPLINE
  5
232
330
1F
100
AcDbEntity
  8
0
  6
Continuous
 62
     7
370
    25
100
AcDbSpline
210
0.0
220
0.0
230
1.0
 70
     8
 71
     3
 72
    14
 73
    10
 74
     0
 42
0.000000001
 43
0.00000001
 40
0.0
 40
0.0
 40
0.0
 40
0.0
 40
0.25
 40
0.25
 40
0.5
 40
0.5
 40
0.75
 40
0.75
 40
1.0
 40
1.0
 40
1.0
 40
1.0
 10
208.4351086630473
 20
57.32761382182963
 30
0.0
 10
208.4170524161008
 20
57.20677174288507
 30
0.0
 10
208.4141296179996
 20
57.08167747631897
 30
0.0
 10
208.4087158894563
 20
56.83372616566761
 30
0.0
 10
208.4071486114152
 20
56.70981754135384
 30
0.0
 10
208.397010211608
 20
56.46366180211364
 30
0.0
 10
208.3886952138638
 20
56.34137386025223
 30
0.0
 10
208.359895039205
 20
56.09937668304345
 30
0.0
 10
208.3392416425344
 20
55.97921971586385
 30
0.0
 10
208.3105521253733
 20
55.86640880545858
 30
0.0
  0
SPLINE
  5
233
330
1F
100
AcDbEntity
  8
0
  6
Continuous
 62
     7
370
    25
100
AcDbSpline
210
0.0
220
0.0
230
1.0
 70
     8
 71
     3
 72
    14
 73
    10
 74
     0
 42
0.000000001
 43
0.00000001
 40
0.0
 40
0.0
 40
0.0
 40
0.0
 40
0.125
 40
0.125
 40
0.25
 40
0.25
 40
0.5
 40
0.5
 40
1.0
 40
1.0
 40
1.0
 40
1.0
 10
208.3732258525363
 20
57.87289938612365
 30
0.0
 10
208.3924212284618
 20
57.87061257814982
 30
0.0
 10
208.4100333018622
 20
57.859114338877
 30
0.0
 10
208.4358782317815
 20
57.82242283635049
 30
0.0
 10
208.4440165960291
 20
57.79934142124841
 30
0.0
 10
208.4609666869971
 20
57.72800890217132
 30
0.0
 10
208.4631359595069
 20
57.67676479656325
 30
0.0
 10
208.4619604116923
 20
57.52672931680166
 30
0.0
 10
208.4498868910881
 20
57.42651764191858
 30
0.0
 10
208.435108663048
 20
57.32761382182995
 30
0.0
  0
SPLINE
  5
234
330
1F
100
AcDbEntity
  8
0
  6
Continuous
 62
     7
370
    25
100
AcDbSpline
210
0.0
220
0.0
230
1.0
 70
     8
 71
     3
 72
     8
 73
     4
 74
     0
 42
0.000000001
 43
0.00000001
 40
0.0
 40
0.0
 40
0.0
 40
0.0
 40
1.0
 40
1.0
 40
1.0
 40
1.0
 10
207.4616342626485
 20
57.92511219725974
 30
0.0
 10
207.7632867358861
 20
57.93245844440284
 30
0.0
 10
208.0685662794096
 20
57.9091944784329
 30
0.0
 10
208.3732258525363
 20
57.87289938612365
 30
0.0
  0
SPLINE
  5
235
330
1F
100
AcDbEntity
  8
0
  6
Continuous
 62
     7
370
    25
100
AcDbSpline
210
0.0
220
0.0
230
1.0
 70
     8
 71
     3
 72
    14
 73
    10
 74
     0
 42
0.000000001
 43
0.00000001
 40
0.0
 40
0.0
 40
0.0
 40
0.0
 40
0.5000000000000002
 40
0.5000000000000002
 40
0.7500000000000002
 40
0.7500000000000002
 40
0.8750000000000001
 40
0.8750000000000001
 40
1.0
 40
1.0
 40
1.0
 40
1.0
 10
205.5329658953931
 20
58.55775154224472
 30
0.0
 10
205.8481318392329
 20
58.42036704851861
 30
0.0
 10
206.1644074944989
 20
58.28879354088745
 30
0.0
 10
206.6432319830699
 20
58.11389807436668
 30
0.0
 10
206.803551993494
 20
58.05922692410218
 30
0.0
 10
207.0466045294477
 20
57.99019510838212
 30
0.0
 10
207.1280479674643
 20
57.96933282387333
 30
0.0
 10
207.2927094164976
 20
57.93652511044369
 30
0.0
 10
207.3756154345639
 20
57.92301735095105
 30
0.0
 10
207.4616342626485
 20
57.92511219725974
 30
0.0
  0
SPLINE
  5
236
330
1F
100
AcDbEntity
  8
0
  6
Continuous
 62
     7
370
    25
100
AcDbSpline
210
0.0
220
0.0
230
1.0
 70
     8
 71
     3
 72
     8
 73
     4
 74
     0
 42
0.000000001
 43
0.00000001
 40
0.0000005163856712
 40
0.0000005163856712
 40
0.0000005163856712
 40
0.0000005163856712
 40
0.000026289209185
 40
0.000026289209185
 40
0.000026289209185
 40
0.000026289209185
 10
205.5329443083738
 20
58.57063065345019
 30
0.0
 10
205.5329420072145
 20
58.5663378184189
 30
0.0
 10
205.5329492535388
 20
58.56204475073861
 30
0.0
 10
205.5329658953931
 20
58.55775154224472
 30
0.0
  0
LINE
  5
237
330
1F
100
AcDbEntity
  8
0
  6
Continuous
 62
     7
370
    25
100
AcDbLine
 10
218.2783741136
 20
69.1224766099
 30
0.0
 11
218.3971198958
 21
69.0658472943
 31
0.0
  0
LINE
  5
238
330
1F
100
AcDbEntity
  8
0
  6
Continuous
 62
     7
370
    25
100
AcDbLine
 10
207.0154220659
 20
49.3500319139
 30
0.0
 11
206.877686165
 21
49.4456490921
 31
0.0
  0
SPLINE
  5
239
330
1F
100
AcDbEntity
  8
0
  6
Continuous
 62
     7
370
    25
100
AcDbSpline
210
0.0
220
0.0
230
1.0
 70
     8
 71
     3
 72
     8
 73
     4
 74
     0
 42
0.000000001
 43
0.00000001
 40
0.0000005163856716
 40
0.0000005163856716
 40
0.0000005163856716
 40
0.0000005163856716
 40
0.0000262892091854
 40
0.0000262892091854
 40
0.0000262892091854
 40
0.0000262892091854
 10
205.5329443083738
 20
51.09715960157091
 30
0.0
 10
205.5329420072145
 20
51.09873298727037
 30
0.0
 10
205.5329492535388
 20
51.10030071720428
 30
0.0
 10
205.5329658953931
 20
51.10186287394178
 30
0.0
  0
SPLINE
  5
23A
330
1F
100
AcDbEntity
  8
0
  6
Continuous
 62
     7
370
    25
100
AcDbSpline
210
0.0
220
0.0
230
1.0
 70
     8
 71
     3
 72
    18
 73
    14
 74
     0
 42
0.000000001
 43
0.00000001
 40
0.0
 40
0.0
 40
0.0
 40
0.0
 40
0.1235288603591399
 40
0.2477323180776048
 40
0.3719130941500365
 40
0.495387289497273
 40
0.6178081199293967
 40
0.6793870415325962
 40
0.7401692576153064
 40
0.8008643233450519
 40
0.8628333575622746
 40
0.9856884734003079
 40
1.0
 40
1.0
 40
1.0
 40
1.0
 10
211.2218128781703
 20
49.2241885052489
 30
0.0
 10
211.0887660039458
 20
49.46912325892482
 30
0.0
 10
210.8219456797819
 20
49.96033036736483
 30
0.0
 10
210.6972502705687
 20
50.71235142098544
 30
0.0
 10
210.8330768634415
 20
51.33703846050791
 30
0.0
 10
211.2001525805099
 20
51.75390364816086
 30
0.0
 10
211.6427930115198
 20
51.84788711075765
 30
0.0
 10
212.0190170849388
 20
51.76594309424817
 30
0.0
 10
212.3012445266411
 20
51.6236693383222
 30
0.0
 10
212.5736094958109
 20
51.40697604313712
 30
0.0
 10
212.8999412575802
 20
51.0292090866771
 30
0.0
 10
213.1543129911225
 20
50.64793201218009
 30
0.0
 10
213.2456852164939
 20
50.35450023171435
 30
0.0
 10
213.2552187008064
 20
50.32388450287023
 30
0.0
  0
SPLINE
  5
23B
330
1F
100
AcDbEntity
  8
0
  6
Continuous
 62
     7
370
    25
100
AcDbSpline
210
0.0
220
0.0
230
1.0
 70
     8
 71
     3
 72
    13
 73
     9
 74
     0
 42
0.000000001
 43
0.00000001
 40
0.0
 40
0.0
 40
0.0
 40
0.0
 40
0.0481186308333585
 40
0.2080852553384968
 40
0.3654149622439146
 40
0.5228621253287496
 40
0.6825820807340833
 40
1.0
 40
1.0
 40
1.0
 40
1.0
 10
212.8717712828658
 20
47.89646637756574
 30
0.0
 10
212.8516252310515
 20
47.89247083378712
 30
0.0
 10
212.7645052057464
 20
47.87519241723636
 30
0.0
 10
212.5609060528988
 20
47.9612121989809
 30
0.0
 10
212.2934911468636
 20
48.09785803904902
 30
0.0
 10
212.010472468784
 20
48.30890253593905
 30
0.0
 10
211.6308082261014
 20
48.65690502203153
 30
0.0
 10
211.3852028544568
 20
48.99756383741466
 30
0.0
 10
211.2218128781703
 20
49.2241885052489
 30
0.0
  0
ARC
  5
23C
330
1F
100
AcDbEntity
  8
0
  6
Continuous
 62
     7
370
    25
100
AcDbCircle
 10
225.940865303
 20
42.2465130163
 30
0.0
 40
6.507064994324722
100
AcDbArc
 50
197.9375395368
 51
217.5314892267
  0
SPLINE
  5
23D
330
1F
100
AcDbEntity
  8
0
  6
Continuous
 62
     7
370
    25
100
AcDbSpline
210
0.0
220
0.0
230
1.0
 70
     8
 71
     3
 72
     8
 73
     4
 74
     0
 42
0.000000001
 43
0.00000001
 40
0.0
 40
0.0
 40
0.0
 40
0.0
 40
1.0
 40
1.0
 40
1.0
 40
1.0
 10
218.2754144889353
 20
39.9960855630552
 30
0.0
 10
218.7672092876872
 20
40.07773585013695
 30
0.0
 10
219.2587893785899
 20
40.15981963762738
 30
0.0
 10
219.7500904076424
 20
40.24246685783127
 30
0.0
  0
SPLINE
  5
23E
330
1F
100
AcDbEntity
  8
0
  6
Continuous
 62
     7
370
    25
100
AcDbSpline
210
0.0
220
0.0
230
1.0
 70
     8
 71
     3
 72
    10
 73
     6
 74
     0
 42
0.000000001
 43
0.00000001
 40
0.0
 40
0.0
 40
0.0
 40
0.0
 40
0.5
 40
0.5
 40
1.0
 40
1.0
 40
1.0
 40
1.0
 10
219.9952590120086
 20
40.38399968052104
 30
0.0
 10
220.0200913153606
 20
40.39833506410888
 30
0.0
 10
220.047766312854
 20
40.41093050424498
 30
0.0
 10
220.1078913223085
 20
40.43212840238525
 30
0.0
 10
220.1395857225033
 20
40.44049056805191
 30
0.0
 10
220.1727677150849
 20
40.44660202312316
 30
0.0
  0
LINE
  5
23F
330
1F
100
AcDbEntity
  8
0
  6
Continuous
 62
     7
370
    25
100
AcDbLine
 10
219.7500903678
 20
40.2424669733
 30
0.0
 11
219.9952592442
 21
40.383999953
 31
0.0
  0
SPLINE
  5
240
330
1F
100
AcDbEntity
  8
0
  6
Continuous
 62
     7
370
    25
100
AcDbSpline
210
0.0
220
0.0
230
1.0
 70
     8
 71
     3
 72
    12
 73
     8
 74
     0
 42
0.000000001
 43
0.00000001
 40
0.0
 40
0.0
 40
0.0
 40
0.0
 40
0.0818751107092873
 40
0.3402241526867374
 40
0.5977282016420904
 40
0.8587733037748996
 40
1.0
 40
1.0
 40
1.0
 40
1.0
 10
212.2408986504724
 20
51.54404904664165
 30
0.0
 10
212.2273341228461
 20
51.49731758801803
 30
0.0
 10
212.1709680321222
 20
51.30312950355258
 30
0.0
 10
212.2491088561199
 20
50.8695667691258
 30
0.0
 10
212.4725360865118
 20
50.32155098065477
 30
0.0
 10
212.7755996280179
 20
49.86393294141047
 30
0.0
 10
213.0025902345874
 20
49.64908851823105
 30
0.0
 10
213.0822804678347
 20
49.57366247988615
 30
0.0
  0
LINE
  5
241
330
1F
100
AcDbEntity
  8
0
  6
Continuous
 62
     7
370
    25
100
AcDbLine
 10
239.9940126196
 20
61.543365794
 30
0.0
 11
241.3934012598
 21
60.7355159275
 31
0.0
  0
SPLINE
  5
242
330
1F
100
AcDbEntity
  8
0
  6
Continuous
 62
     7
370
    25
100
AcDbSpline
210
0.0
220
0.0
230
1.0
 70
     8
 71
     3
 72
    12
 73
     8
 74
     0
 42
0.000000001
 43
0.00000001
 40
0.0
 40
0.0
 40
0.0
 40
0.0
 40
0.2500000000000007
 40
0.2500000000000007
 40
0.5000000000000013
 40
0.5000000000000013
 40
1.0
 40
1.0
 40
1.0
 40
1.0
 10
241.3934010257003
 20
60.73551578019951
 30
0.0
 10
241.4255630271851
 20
60.71694905194626
 30
0.0
 10
241.4474688341929
 20
60.69312990827665
 30
0.0
 10
241.4686891826695
 20
60.64179565084326
 30
0.0
 10
241.4681008273261
 20
60.61499431044003
 30
0.0
 10
241.4424872914598
 20
60.53828605209419
 30
0.0
 10
241.3945401833101
 20
60.49125096834285
 30
0.0
 10
241.3305613649031
 20
60.45431678264271
 30
0.0
  0
SPLINE
  5
243
330
1F
100
AcDbEntity
  8
0
  6
Continuous
 62
     7
370
    25
100
AcDbSpline
210
0.0
220
0.0
230
1.0
 70
     8
 71
     3
 72
    12
 73
     8
 74
     0
 42
0.000000001
 43
0.00000001
 40
0.0
 40
0.0
 40
0.0
 40
0.0
 40
0.1918544761159402
 40
0.3688158455829675
 40
0.6772807131292475
 40
0.9532757508646911
 40
1.0
 40
1.0
 40
1.0
 40
1.0
 10
211.5130821749673
 20
49.40711166351018
 30
0.0
 10
211.5926385058396
 20
49.29270408426861
 30
0.0
 10
211.745575440313
 20
49.07277005440744
 30
0.0
 10
212.0703886108449
 20
48.71895370857476
 30
0.0
 10
212.4551945745029
 20
48.41465969838301
 30
0.0
 10
212.7530210281791
 20
48.2479659412543
 30
0.0
 10
212.8806334965278
 20
48.23149226402056
 30
0.0
 10
212.8991096056618
 20
48.22910715649659
 30
0.0
  0
SPLINE
  5
244
330
1F
100
AcDbEntity
  8
0
  6
Continuous
 62
     7
370
    25
100
AcDbSpline
210
0.0
220
0.0
230
1.0
 70
     8
 71
     3
 72
    17
 73
    13
 74
     0
 42
0.000000001
 43
0.00000001
 40
0.0
 40
0.0
 40
0.0
 40
0.0
 40
0.0289294857607187
 40
0.1765419037668031
 40
0.2609475123436659
 40
0.352296395961228
 40
0.456104813679395
 40
0.5447559271178933
 40
0.676106921190782
 40
0.8084243842972451
 40
0.8968647742843631
 40
1.0
 40
1.0
 40
1.0
 40
1.0
 10
212.5564000802574
 20
51.40546107868497
 30
0.0
 10
212.5291345273353
 20
51.43151041053992
 30
0.0
 10
212.3627467574343
 20
51.59047620328028
 30
0.0
 10
212.074966766235
 20
51.66896401483557
 30
0.0
 10
211.7546931620963
 20
51.6726092116384
 30
0.0
 10
211.500748132964
 20
51.58155804985725
 30
0.0
 10
211.2922684386105
 20
51.40075777065352
 30
0.0
 10
211.1291740055319
 20
51.10863214416041
 30
0.0
 10
211.0521699753051
 20
50.69884452184125
 30
0.0
 10
211.1275616586323
 20
50.23424800433632
 30
0.0
 10
211.2863065598391
 20
49.7923088823576
 30
0.0
 10
211.4337211506477
 20
49.541912955243
 30
0.0
 10
211.5130821749673
 20
49.40711166351018
 30
0.0
  0
SPLINE
  5
245
330
1F
100
AcDbEntity
  8
0
  6
Continuous
 62
     7
370
    25
100
AcDbSpline
210
0.0
220
0.0
230
1.0
 70
     8
 71
     3
 72
     9
 73
     5
 74
     0
 42
0.000000001
 43
0.00000001
 40
0.0
 40
0.0
 40
0.0
 40
0.0
 40
0.9074526390094665
 40
0.9999999999999999
 40
0.9999999999999999
 40
0.9999999999999999
 40
0.9999999999999999
 10
237.595554338085
 20
62.92796628781394
 30
0.0
 10
237.5440859844469
 20
62.84931267550375
 30
0.0
 10
237.4873685851848
 20
62.76263750488986
 30
0.0
 10
237.4280569976322
 20
62.67654702235806
 30
0.0
 10
237.4225678667281
 20
62.66857957539333
 30
0.0
  0
LINE
  5
246
330
1F
100
AcDbEntity
  8
0
  6
Continuous
 62
     7
370
    25
100
AcDbLine
 10
207.3727213156
 20
53.2768440941
 30
0.0
 11
207.8731045062
 21
52.9879790269
 31
0.0
  0
ARC
  5
247
330
1F
100
AcDbEntity
  8
0
  6
Continuous
 62
     7
370
    25
100
AcDbCircle
 10
206.250081273
 20
58.4919640016
 30
0.0
 40
0.7201273031244555
100
AcDbArc
 50
174.7584203609
 51
234.4349513408
  0
ARC
  5
248
330
1F
100
AcDbEntity
  8
0
  6
Continuous
 62
     7
370
    25
100
AcDbCircle
 10
207.7454160404
 20
50.9920662653
 30
0.0
 40
2.215173511102388
100
AcDbArc
 50
122.6235856257
 51
177.1589283586
  0
LINE
  5
249
330
1F
100
AcDbEntity
  8
0
  6
Continuous
 62
     7
370
    25
100
AcDbLine
 10
206.5511771637
 20
52.857753053
 30
0.0
 11
207.2952639691
 21
53.2873052225
 31
0.0
  0
SPLINE
  5
24A
330
1F
100
AcDbEntity
  8
0
  6
Continuous
 62
     7
370
    25
100
AcDbSpline
210
0.0
220
0.0
230
1.0
 70
     8
 71
     3
 72
     8
 73
     4
 74
     0
 42
0.000000001
 43
0.00000001
 40
0.0
 40
0.0
 40
0.0
 40
0.0
 40
0.0001590976915385
 40
0.0001590976915385
 40
0.0001590976915385
 40
0.0001590976915385
 10
207.3727217405514
 20
53.27684407720316
 30
0.0
 10
207.3469016116037
 20
53.28032862658306
 30
0.0
 10
207.3210824676692
 20
53.28381560923849
 30
0.0
 10
207.2952642886308
 20
53.28730497027568
 30
0.0
  0
ARC
  5
24B
330
1F
100
AcDbEntity
  8
0
  6
Continuous
 62
     7
370
    25
100
AcDbCircle
 10
206.8800359904
 20
51.4867250223
 30
0.0
 40
1.353479563765874
100
AcDbArc
 50
122.9135810547
 51
170.975405912
  0
LINE
  5
24C
330
1F
100
AcDbEntity
  8
0
  6
Continuous
 62
     7
370
    25
100
AcDbLine
 10
206.5511771637
 20
52.857753053
 30
0.0
 11
206.1445911259
 21
52.6229590566
 31
0.0
  0
SPLINE
  5
24D
330
1F
100
AcDbEntity
  8
0
  6
Continuous
 62
     7
370
    25
100
AcDbSpline
210
0.0
220
0.0
230
1.0
 70
     8
 71
     3
 72
    10
 73
     6
 74
     0
 42
0.000000001
 43
0.00000001
 40
0.0
 40
0.0
 40
0.0
 40
0.0
 40
0.5
 40
0.5
 40
1.0
 40
1.0
 40
1.0
 40
1.0
 10
205.5874032455919
 20
50.90191721685359
 30
0.0
 10
205.5674771950957
 20
50.94043877836922
 30
0.0
 10
205.554182930955
 20
50.97240210556231
 30
0.0
 10
205.5369144048142
 20
51.03484552905915
 30
0.0
 10
205.532990950192
 20
51.06526890627135
 30
0.0
 10
205.5329443083738
 20
51.0971596015709
 30
0.0
  0
LINE
  5
24E
330
1F
100
AcDbEntity
  8
0
  6
Continuous
 62
     7
370
    25
100
AcDbLine
 10
205.5433110142
 20
51.6990296796
 30
0.0
 11
205.5469106185
 21
51.5633934188
 31
0.0
  0
LINE
  5
24F
330
1F
100
AcDbEntity
  8
0
  6
Continuous
 62
     7
370
    25
100
AcDbLine
 10
205.6421493252
 20
50.806910629
 30
0.0
 11
205.5874032032
 21
50.9019173945
 31
0.0
  0
LWPOLYLINE
  5
250
330
1F
100
AcDbEntity
  8
0
  6
Continuous
 62
     7
370
    18
100
AcDbPolyline
 90
       20
 70
   128
 43
0.0
 10
268.957293989
 20
35.9722696562
 10
269.0890107931
 20
36.4412442201
 10
269.3628000138
 20
37.1024679149
 10
269.7266847086
 20
37.7327345024
 10
270.1624172677
 20
38.3004392411
 10
270.6481498187
 20
38.7771160626
 10
271.1595247756
 20
39.1388619114
 10
271.6708990741
 20
39.3675366403
 10
272.156631625
 20
39.4516746848
 10
272.5923648427
 20
39.3870564306
 10
272.9562495375
 20
39.1769221689
 10
273.2300380996
 20
38.8318083995
 10
273.4000031687
 20
38.369021504
 10
273.4576218619
 20
37.8117674271
 10
273.4000031687
 20
37.1879882231
 10
273.2300380996
 20
36.5289638358
 10
272.9562495375
 20
35.8677405212
 10
272.5923648427
 20
35.2374739337
 10
272.156631625
 20
34.6697688148
 10
271.7494937269
 20
34.2608673376
  0
LWPOLYLINE
  5
251
330
1F
100
AcDbEntity
  8
0
  6
Continuous
 62
     7
370
    18
100
AcDbPolyline
 90
       11
 70
   128
 43
0.0
 10
268.6398715849
 20
36.155512965
 10
268.7366130902
 20
36.4904876009
 10
269.0125175558
 20
37.1792888087
 10
269.3805484468
 20
37.8404029942
 10
269.8234960196
 20
38.4429164843
 10
270.3206483908
 20
38.9586562624
 10
270.8487602565
 20
39.3635075698
 10
271.3831375146
 20
39.6385400494
 10
271.8987923523
 20
39.7708926259
 10
272.3716147967
 20
39.754377774
 10
272.7326051884
 20
39.6183263677
  0
LWPOLYLINE
  5
252
330
1F
100
AcDbEntity
  8
0
  6
Continuous
 62
     7
370
    18
100
AcDbPolyline
 90
       29
 70
   128
 43
0.0
 10
249.7695441021
 20
24.1369312134
 10
249.8271627953
 20
24.7607104175
 10
249.9971278644
 20
25.4197348048
 10
250.2709164265
 20
26.0809581194
 10
250.6348011213
 20
26.7112247069
 10
251.070534339
 20
27.2789298258
 10
251.5562668899
 20
27.7556066473
 10
252.0676411884
 20
28.1173521159
 10
252.5790161453
 20
28.346027225
 10
253.0647486963
 20
28.4301652695
 10
253.5004812554
 20
28.3655466351
 10
253.8643659502
 20
28.1554123734
 10
254.1381551708
 20
27.8102989842
 10
254.30812024
 20
27.3475120887
 10
254.3657382746
 20
26.7902576316
 10
254.30812024
 20
26.1664788077
 10
254.1381551708
 20
25.5074544204
 10
253.8643659502
 20
24.8462307257
 10
253.5004812554
 20
24.2159641382
 10
253.0647486963
 20
23.6482593995
 10
252.5790161453
 20
23.1715825779
 10
252.0676411884
 20
22.8098367291
 10
251.5562668899
 20
22.5811620002
 10
251.070534339
 20
22.4970239558
 10
250.6348011213
 20
22.56164221
 10
250.2709164265
 20
22.7717764717
 10
249.9971278644
 20
23.116890241
 10
249.8271627953
 20
23.5796771365
 10
249.7695441021
 20
24.1369312134
  0
LWPOLYLINE
  5
253
330
1F
100
AcDbEntity
  8
0
  6
Continuous
 62
     7
370
    18
100
AcDbPolyline
 90
       12
 70
   128
 43
0.0
 10
249.415989995
 20
24.1369312134
 10
249.4738523497
 20
24.7846969151
 10
249.6447301615
 20
25.4689781856
 10
249.9206339686
 20
26.1577790132
 10
250.2886655181
 20
26.8188935789
 10
250.7316124324
 20
27.4214066888
 10
251.2287654621
 20
27.9371468471
 10
251.7568773278
 20
28.3419981545
 10
252.2912545859
 20
28.6170306341
 10
252.8069094236
 20
28.7493832106
 10
253.2797312094
 20
28.7328679785
 10
253.6407222597
 20
28.5968169524
  0
ARC
  5
254
330
1F
100
AcDbEntity
  8
0
  6
Continuous
 62
     7
370
    18
100
AcDbCircle
 10
251.1785511655
 20
23.9587286602
 30
0.0
 40
1.771546790164425
100
AcDbArc
 50
174.2267671766
 51
230.5639748187
  0
LWPOLYLINE
  5
255
330
1F
100
AcDbEntity
  8
0
  6
Continuous
 62
     7
370
    18
100
AcDbPolyline
 90
       38
 70
   128
 43
0.0
 10
279.0084079089
 20
25.5044158993
 10
278.9514500651
 20
26.2443128058
 10
278.782214334
 20
26.8971616955
 10
278.5055696644
 20
27.4441812921
 10
278.1294745666
 20
27.8696351131
 10
277.664748433
 20
28.1612832535
 10
277.1247610343
 20
28.3107359827
 10
276.5250464475
 20
28.3136935168
 10
275.8828573862
 20
28.1700710612
 10
275.2166686685
 20
27.8840000042
 10
274.5456451846
 20
27.4637101364
 10
273.8890910862
 20
26.921292664
 10
273.2658942017
 20
26.2723517192
 10
272.6939828701
 20
25.5355561958
 10
272.1898097558
 20
24.7321024055
 10
271.7678793018
 20
23.8851043976
 10
271.4403294709
 20
23.0189285456
 10
271.2165830474
 20
22.1584931935
 10
271.1030773039
 20
21.3285516838
 10
271.1030773039
 20
20.5529796782
 10
271.2165830474
 20
19.8540891105
 10
271.4403294709
 20
19.2519858803
 10
271.7678793018
 20
18.7639910131
 10
272.1898097558
 20
18.4041435382
 10
272.6939828701
 20
18.1827956352
 10
273.2658942017
 20
18.10631488
 10
273.8890910862
 20
18.1769017426
 10
274.5456451846
 20
18.3925254968
 10
275.2166686685
 20
18.7469828526
 10
275.8828573862
 20
19.2300769169
 10
276.5250464475
 20
19.827910169
 10
277.1247610343
 20
20.5232834266
 10
277.664748433
 20
21.2961923358
 10
278.1294745666
 20
22.124401849
 10
278.5055696644
 20
22.984085827
 10
278.782214334
 20
23.8505125604
 10
278.9514500651
 20
24.6987568661
 10
279.0084079089
 20
25.5044158993
  0
LWPOLYLINE
  5
256
330
1F
100
AcDbEntity
  8
0
  6
Continuous
 62
     7
370
    18
100
AcDbPolyline
 90
       21
 70
   128
 43
0.0
 10
271.7660116695
 20
18.1854614016
 10
271.5901055411
 20
18.2996836541
 10
271.1799301065
 20
18.6932156803
 10
270.8626255818
 20
19.2081780717
 10
270.6464106026
 20
19.8312342947
 10
270.5368847728
 20
20.5462469677
 10
270.5368847728
 20
21.3346977926
 10
270.6464106026
 20
22.176166297
 10
270.8626255818
 20
23.0488590213
 10
271.1799301065
 20
23.9301734189
 10
271.5901055411
 20
24.7972839215
 10
272.0825293981
 20
25.6277334408
 10
272.6444474814
 20
26.4000128152
 10
273.2613067806
 20
27.0941214302
 10
273.9171306766
 20
27.6920809706
 10
274.5949339277
 20
28.1784057876
 10
275.2771616513
 20
28.5404996645
 10
275.9461445836
 20
28.7689851733
 10
276.5845563158
 20
28.8579436768
 10
277.1758624417
 20
28.8050719537
 10
277.7017555063
 20
28.6133280687
  0
LWPOLYLINE
  5
257
330
1F
100
AcDbEntity
  8
0
  6
Continuous
 62
     7
370
    18
100
AcDbPolyline
 90
       34
 70
   128
 43
0.0
 10
246.7643407773
 20
25.2594923611
 10
246.8187141631
 20
26.6289681875
 10
246.9813562173
 20
28.049186958
 10
247.2508365813
 20
29.5076673293
 10
247.624788446
 20
30.991592682
 10
248.0999256743
 20
32.4879227166
 10
248.672071777
 20
33.9835063797
 10
249.3361987668
 20
35.4652010631
 10
250.0864712807
 20
36.9199862884
 10
250.9162946542
 20
38.335075491
 10
251.8183768237
 20
39.698034646
 10
252.7847902307
 20
40.9968849254
 10
253.8070426142
 20
42.2202127682
 10
254.876149781
 20
43.3572674029
 10
255.9827162765
 20
44.3980553277
 10
257.1170178678
 20
45.3334312726
 10
258.2690860021
 20
46.1551750939
 10
259.4287965455
 20
46.8560642948
 10
260.5859576984
 20
47.4299399871
 10
261.7304005459
 20
47.8717591647
 10
262.8520674669
 20
48.1776396577
 10
263.9411012027
 20
48.3448917782
 10
264.9879314551
 20
48.3720462595
 10
265.9833583574
 20
48.258864419
 10
266.9186344629
 20
48.0063421431
 10
267.7855398191
 20
47.6166969524
 10
268.5764570415
 20
47.0933543065
 10
269.284435193
 20
46.4409129963
 10
269.9032516864
 20
45.6651063552
 10
270.4274689199
 20
44.7727524434
 10
270.8524803744
 20
43.7716928259
 10
271.1745507857
 20
42.6707256484
 10
271.3908510464
 20
41.4795265458
 10
271.493767065
 20
40.3334926578
  0
LWPOLYLINE
  5
258
330
1F
100
AcDbEntity
  8
0
  6
Continuous
 62
     7
370
    18
100
AcDbPolyline
 90
       22
 70
   128
 43
0.0
 10
262.9218580383
 20
20.9817436025
 10
262.8520674669
 20
20.9158389312
 10
261.7304005459
 20
19.9266703631
 10
260.5859576984
 20
19.0471439546
 10
259.4287965455
 20
18.2849898179
 10
258.2690860021
 20
17.6469057263
 10
257.1170178678
 20
17.1384999927
 10
255.9827162765
 20
16.7642391967
 10
254.876149781
 20
16.5274126406
 10
253.8070426142
 20
16.4301024148
 10
252.7847902307
 20
16.4731627782
 10
251.8183768237
 20
16.6562158884
 10
250.9162946542
 20
16.9776531398
 10
250.0864712807
 20
17.434648669
 10
249.3361987668
 20
18.0231876883
 10
248.672071777
 20
18.7380976707
 10
248.0999256743
 20
19.5730955047
 10
247.624788446
 20
20.5208437723
 10
247.2508365813
 20
21.5730134922
 10
246.9813562173
 20
22.720358458
 10
246.8187141631
 20
23.9527947097
 10
246.7643407773
 20
25.2594923611
  0
LWPOLYLINE
  5
259
330
1F
100
AcDbEntity
  8
0
  6
Continuous
 62
     7
370
    18
100
AcDbPolyline
 90
       24
 70
   128
 43
0.0
 10
246.0572338802
 20
25.2594931215
 10
246.113160114
 20
26.668096424
 10
246.2804488583
 20
28.1288927732
 10
246.5576289246
 20
29.6290442675
 10
246.9422650154
 20
31.1553674657
 10
247.4309774802
 20
32.6944494502
 10
248.0194706332
 20
34.2327638905
 10
248.7025729244
 20
35.7567932834
 10
249.4742817207
 20
37.2531430187
 10
250.3278140135
 20
38.7086638085
 10
251.255670298
 20
40.1105646102
 10
252.2496958176
 20
41.4465255493
 10
253.3011553086
 20
42.7048057086
 10
254.4008080746
 20
43.8743473036
 10
255.5389909626
 20
44.9448714938
 10
256.7057010109
 20
45.9069732425
 10
257.8906855047
 20
46.7521953583
 10
259.0835306532
 20
47.4731101058
 10
260.273753601
 20
48.0633814482
 10
261.450894665
 20
48.5178243786
 10
262.6046091606
 20
48.8324442409
 10
263.7247581366
 20
49.0044739017
 10
264.8014981635
 20
49.0324058113
 10
265.5708974441
 20
48.9591881128
  0
ARC
  5
25A
330
1F
100
AcDbEntity
  8
0
  6
Continuous
 62
     7
370
    18
100
AcDbCircle
 10
256.791263386
 20
24.7539502349
 30
0.0
 40
10.74592774230332
100
AcDbArc
 50
177.3035209529
 51
214.9834550002
  0
LWPOLYLINE
  5
25B
330
1F
100
AcDbEntity
  8
0
  6
Continuous
 62
     7
370
    18
100
AcDbPolyline
 90
       24
 70
   128
 43
0.0
 10
228.1500560577
 20
35.5970868365
 10
228.2059822915
 20
37.0056901391
 10
228.3732710358
 20
38.4664864882
 10
228.6504511021
 20
39.9666379825
 10
229.0350871929
 20
41.4929611807
 10
229.5237996577
 20
43.0320431652
 10
230.1122928107
 20
44.5703576055
 10
230.795395102
 20
46.0943869985
 10
231.5671038982
 20
47.5907367338
 10
232.420636191
 20
49.0462575235
 10
233.3484924755
 20
50.4481583252
 10
234.3425179951
 20
51.7841192644
 10
235.3939774862
 20
53.0423994236
 10
236.4936302521
 20
54.2119410186
 10
237.6318131402
 20
55.2824652089
 10
238.7985231884
 20
56.2445669576
 10
239.9835076822
 20
57.0897890733
 10
241.1763528307
 20
57.8107038208
 10
242.3665757785
 20
58.4009751633
 10
243.5437168426
 20
58.8554180936
 10
244.6974313382
 20
59.1700379559
 10
245.8175803141
 20
59.3420676167
 10
246.894320341
 20
59.3699995264
 10
247.6637196216
 20
59.2967818278
  0
ARC
  5
25C
330
1F
100
AcDbEntity
  8
0
  6
Continuous
 62
     7
370
    18
100
AcDbCircle
 10
238.8840855636
 20
35.09154395
 30
0.0
 40
10.74592774230399
100
AcDbArc
 50
177.3035209529
 51
214.9834550002
  0
LWPOLYLINE
  5
25D
330
1F
100
AcDbEntity
  8
0
  6
Continuous
 62
     7
370
    18
100
AcDbPolyline
 90
       22
 70
   128
 43
0.0
 10
262.3206888913
 20
24.4430850659
 10
262.3772041931
 20
25.3673803916
 10
262.5455456208
 20
26.3372272177
 10
262.8221250945
 20
27.3319545984
 10
263.2010483117
 20
28.330362522
 10
263.6742385532
 20
29.3111705727
 10
264.2316111977
 20
30.2534753323
 10
264.8612864315
 20
31.1371927597
 10
265.5498436116
 20
31.9434881138
 10
266.2826078143
 20
32.6551767381
 10
267.0439612039
 20
33.2570897426
 10
267.8176769145
 20
33.7363990706
 10
268.5872644977
 20
34.0828887851
 10
269.3363215855
 20
34.2891740492
 10
270.0488832067
 20
34.3508579148
 10
270.7097625843
 20
34.2666261586
 10
271.3048737803
 20
34.0382738441
 10
271.821533557
 20
33.6706681735
 10
272.2487300622
 20
33.1716435181
 10
272.5773579304
 20
32.5518359959
 10
272.8004135407
 20
31.8244558848
 10
272.8739285105
 20
31.401905576
  0
LWPOLYLINE
  5
25E
330
1F
100
AcDbEntity
  8
0
  6
Continuous
 62
     7
370
    18
100
AcDbPolyline
 90
       11
 70
   128
 43
0.0
 10
266.874416245
 20
21.0093192013
 10
266.2826078143
 20
20.8053276148
 10
265.5498436116
 20
20.6709846989
 10
264.8612864315
 20
20.6822888548
 10
264.2316111977
 20
20.838998732
 10
263.6742385532
 20
21.1377747341
 10
263.2010483117
 20
21.572248961
 10
262.8221250945
 20
22.1331614505
 10
262.5455456208
 20
22.808556968
 10
262.3772041931
 20
23.5840409188
 10
262.3206888913
 20
24.4430850659
  0
LWPOLYLINE
  5
25F
330
1F
100
AcDbEntity
  8
0
  6
Continuous
 62
     7
370
    18
100
AcDbPolyline
 90
       18
 70
   128
 43
0.0
 10
261.6135836405
 20
24.4430837353
 10
261.6686359858
 20
25.3839889436
 10
261.832720911
 20
26.3701421094
 10
262.1026448047
 20
27.3823493542
 10
262.4731537987
 20
28.4009088131
 10
262.9370365014
 20
29.4059953248
 10
263.4852639383
 20
30.3780464485
 10
264.1071653835
 20
31.298141918
 10
264.7906364596
 20
32.1483733979
 10
265.5223740738
 20
32.9121922775
 10
266.2881357192
 20
33.5747308474
 10
267.0730167844
 20
34.1230947073
 10
267.8617404568
 20
34.5466095916
 10
268.6389550556
 20
34.837032941
 10
269.3895331342
 20
34.9887113609
 10
270.0988654178
 20
34.9986932736
 10
270.7531455208
 20
34.8667841551
 10
271.0877309119
 20
34.7332036891
  0
ARC
  5
260
330
1F
100
AcDbEntity
  8
0
  6
Continuous
 62
     7
370
    18
100
AcDbCircle
 10
265.6324354549
 20
24.045048816
 30
0.0
 40
4.038514789204964
100
AcDbArc
 50
174.3437607525
 51
232.7801385705
  0
LWPOLYLINE
  5
261
330
1F
100
AcDbEntity
  8
0
  6
Continuous
 62
     7
370
    18
100
AcDbPolyline
 90
       14
 70
   128
 43
0.0
 10
264.265232529
 20
25.5656462136
 10
264.3224215219
 20
26.311345863
 10
264.492041843
 20
27.0976811338
 10
264.7683167399
 20
27.8978738655
 10
265.1418380811
 20
28.6846748462
 10
265.5998862441
 20
29.4312901696
 10
266.126862779
 20
30.1122951272
 10
266.704822101
 20
30.7044982831
 10
267.3140826198
 20
31.1877336278
 10
267.9338966435
 20
31.5455446475
 10
268.5431571622
 20
31.7657465246
 10
269.1211164843
 20
31.8408409982
 10
269.6480930192
 20
31.7682701968
 10
269.9314214217
 20
31.6550957635
  0
ARC
  5
262
330
1F
100
AcDbEntity
  8
0
  6
Continuous
 62
     7
370
    18
100
AcDbCircle
 10
266.6474044498
 20
25.3255447949
 30
0.0
 40
2.394241372888918
100
AcDbArc
 50
174.2445398466
 51
232.3122558008
  0
LWPOLYLINE
  5
263
330
1F
100
AcDbEntity
  8
0
  6
Continuous
 62
     7
370
    18
100
AcDbPolyline
 90
        3
 70
   128
 43
0.0
 10
253.295297226
 20
29.1089910362
 10
253.3514967557
 20
30.0695082847
 10
253.5116554386
 20
31.0421303324
  0
LWPOLYLINE
  5
264
330
1F
100
AcDbEntity
  8
0
  6
Continuous
 62
     7
370
    18
100
AcDbPolyline
 90
       11
 70
   128
 43
0.0
 10
257.9352629586
 20
38.3260492186
 10
258.0672852451
 20
38.4309783806
 10
258.8685264081
 20
38.990771532
 10
259.6736901914
 20
39.4231147272
 10
260.4671050673
 20
39.7195914095
 10
261.2333281878
 20
39.8744315069
 10
261.9574456188
 20
39.8846212545
 10
262.6253635201
 20
39.7499625435
 10
263.2240815644
 20
39.4730760082
 10
263.7419464775
 20
39.059351192
 10
263.8979596227
 20
38.8886331662
  0
ARC
  5
265
330
1F
100
AcDbEntity
  8
0
  6
Continuous
 62
     7
370
    18
100
AcDbCircle
 10
256.386313572
 20
27.7930789271
 30
0.0
 40
2.796923841909544
100
AcDbArc
 50
221.3097900274
 51
260.0358706816
  0
LINE
  5
266
330
1F
100
AcDbEntity
  8
0
  6
Continuous
 62
     7
370
    18
100
AcDbLine
 10
253.3019695989
 20
28.792374751
 30
0.0
 11
253.295297226
 21
29.1089910362
 31
0.0
  0
LWPOLYLINE
  5
267
330
1F
100
AcDbEntity
  8
0
  6
Continuous
 62
     7
370
    18
100
AcDbPolyline
 90
       17
 70
   128
 43
0.0
 10
254.0474110304
 20
28.9454682835
 10
254.1038038429
 20
29.8885220539
 10
254.2718337791
 20
30.8774874216
 10
254.5480803585
 20
31.8922319279
 10
254.9269202698
 20
32.9120986012
 10
255.4006412982
 20
33.916325437
 10
255.9595997179
 20
34.8844698164
 10
256.5924165383
 20
35.7968227495
 10
257.2862099703
 20
36.6348115193
 10
258.0268560453
 20
37.3813767512
 10
258.799277469
 20
38.021320916
 10
259.5877499273
 20
38.541616716
 10
260.3762223856
 20
38.9316718389
 10
261.1486438093
 20
39.1835464671
 10
261.8892898843
 20
39.2921129913
 10
262.5830833163
 20
39.2551610676
 10
262.6916908058
 20
39.2351622997
  0
LWPOLYLINE
  5
268
330
1F
100
AcDbEntity
  8
0
  6
Continuous
 62
     7
370
    18
100
AcDbPolyline
 90
       15
 70
   128
 43
0.0
 10
253.7470199043
 20
29.1272258736
 10
253.8033392892
 20
30.069049317
 10
253.97114993
 20
31.0567242948
 10
254.2470362856
 20
32.0701450591
 10
254.6253819593
 20
33.0886809687
 10
255.0984846143
 20
34.0915979652
 10
255.656713696
 20
35.058479094
 10
256.2887053601
 20
35.9696415999
 10
256.9815934581
 20
36.8065370041
 10
257.7212732836
 20
37.5521284589
 10
258.4926868873
 20
38.1912375874
 10
259.2801306167
 20
38.7108547233
 10
260.0675743462
 20
39.1004007653
 10
260.8389879498
 20
39.3519468255
 10
261.2981520165
 20
39.4357184434
  0
LWPOLYLINE
  5
269
330
1F
100
AcDbEntity
  8
0
  6
Continuous
 62
     7
370
    18
100
AcDbPolyline
 90
        3
 70
   128
 43
0.0
 10
255.0826686802
 20
25.735262285
 10
254.6253819593
 20
26.1799060206
 10
254.3730589847
 20
26.5364183503
  0
LINE
  5
26A
330
1F
100
AcDbEntity
  8
0
  6
Continuous
 62
     7
370
    18
100
AcDbLine
 10
253.7768048846
 20
28.4823471725
 30
0.0
 11
253.7470199043
 21
29.1272258736
 31
0.0
  0
LWPOLYLINE
  5
26B
330
1F
100
AcDbEntity
  8
0
  6
Continuous
 62
     7
370
    18
100
AcDbPolyline
 90
       23
 70
   128
 43
0.0
 10
224.1192453943
 20
42.0060640097
 10
224.1750372851
 20
43.2060125625
 10
224.3417346564
 20
44.4558108382
 10
224.6173144595
 20
45.7402877923
 10
224.998431947
 20
47.043852348
 10
225.4804601851
 20
48.3506804672
 10
226.0575480058
 20
49.6449086825
 10
226.7226904712
 20
50.910828009
 10
227.4678144842
 20
52.1330710094
 10
228.2838739481
 20
53.2968009511
 10
229.160963695
 20
54.3878920246
 10
230.0884373652
 20
55.3931008171
 10
231.0550358231
 20
56.3002240962
 10
232.0490265222
 20
57.0982515079
 10
233.0583435276
 20
57.7774958394
 10
234.0707351126
 20
58.3297116858
 10
235.0739123429
 20
58.7481964346
 10
236.055697825
 20
59.0278692926
 10
237.0041741259
 20
59.1653371946
 10
237.907827912
 20
59.1589293431
 10
238.7556901366
 20
59.008724905
 10
239.5374687369
 20
58.7165467251
 10
239.8111051752
 20
58.5713521051
  0
LWPOLYLINE
  5
26C
330
1F
100
AcDbEntity
  8
0
  6
Continuous
 62
     7
370
    18
100
AcDbPolyline
 90
        9
 70
   128
 43
0.0
 10
226.8121623037
 20
36.0540815871
 10
226.7226904712
 20
36.1071737144
 10
226.0575480058
 20
36.6051358967
 10
225.4804601851
 20
37.2330726967
 10
224.998431947
 20
37.9833628585
 10
224.6173144595
 20
38.8468985294
 10
224.3417346564
 20
39.8131978153
 10
224.1750372851
 20
40.8705314029
 10
224.1192453943
 20
42.0060640097
  0
LINE
  5
26D
330
1F
100
AcDbEntity
  8
0
  6
Continuous
 62
     7
370
    18
100
AcDbLine
 10
222.5069440463
 20
45.1579398715
 30
0.0
 11
222.656785971
 21
45.7709627049
 31
0.0
  0
LWPOLYLINE
  5
26E
330
1F
100
AcDbEntity
  8
0
  6
Continuous
 62
     7
370
    18
100
AcDbPolyline
 90
       10
 70
   128
 43
0.0
 10
231.1176494118
 20
58.8896134725
 10
231.5086816161
 20
59.1841354276
 10
232.6388202183
 20
59.9426815172
 10
233.7723979869
 20
60.5673753113
 10
234.897203778
 20
61.0514876216
 10
236.0011212782
 20
61.3898033322
 10
237.072259067
 20
61.5786789932
 10
238.0990784567
 20
61.6160785972
 10
239.0705185339
 20
61.5016001368
 10
239.9761153555
 20
61.2364759734
  0
LWPOLYLINE
  5
26F
330
1F
100
AcDbEntity
  8
0
  6
Continuous
 62
     7
370
    18
100
AcDbPolyline
 90
       20
 70
   128
 43
0.0
 10
222.0732615362
 20
45.152502305
 10
222.4582914366
 20
46.6261021937
 10
222.9530144372
 20
48.1105055719
 10
223.5521542793
 20
49.5898838996
 10
224.2493224226
 20
51.0484638747
 10
225.037086534
 20
52.4706935877
 10
225.9070468781
 20
53.8414082958
 10
226.8499265385
 20
55.1459923922
 10
227.8556728332
 20
56.3705368134
 10
228.9135620236
 20
57.5019838969
 10
230.012313736
 20
58.5282687214
 10
231.1402129576
 20
59.4384503711
 10
232.2852333486
 20
60.2228226654
 10
233.4351661112
 20
60.8730235357
 10
234.5777500934
 20
61.3821192573
 10
235.7008025921
 20
61.7446822428
 10
236.7923486751
 20
61.9568451648
 10
237.8407502147
 20
62.0163473087
 10
238.8348280886
 20
61.922553406
 10
239.7639836815
 20
61.67646446
  0
LWPOLYLINE
  5
270
330
1F
100
AcDbEntity
  8
0
  6
Continuous
 62
     7
370
    18
100
AcDbPolyline
 90
       23
 70
   128
 43
0.0
 10
223.6242708298
 20
44.4394945578
 10
223.8966678873
 20
45.7531055241
 10
224.2761574528
 20
47.0875609956
 10
224.758254838
 20
48.4270893929
 10
225.337262316
 20
49.755859934
 10
226.0063376092
 20
51.0581685617
 10
226.7575722567
 20
52.3186231084
 10
227.5820877614
 20
53.5223269391
 10
228.4701399695
 20
54.6550547988
 10
229.4112329986
 20
55.7034182021
 10
230.3942448552
 20
56.6550284461
 10
231.4075574971
 20
57.4986378539
 10
232.43919521
 20
58.2242766925
 10
233.4769653717
 20
58.8233686548
 10
234.5086030847
 20
59.2888333663
 10
235.5219157266
 20
59.6151698318
 10
236.5049275832
 20
59.7985209191
 10
237.4460206123
 20
59.836720399
 10
238.3340728204
 20
59.7293157942
 10
239.1585883251
 20
59.4775773021
 10
239.9098229726
 20
59.0844798172
 10
240.5788982658
 20
58.55466908
 10
241.1348257343
 20
57.9255585899
  0
ARC
  5
271
330
1F
100
AcDbEntity
  8
0
  6
Continuous
 62
     7
370
    18
100
AcDbCircle
 10
237.5802555526
 20
55.8626826547
 30
0.0
 40
5.928566141355078
100
AcDbArc
 50
28.7264976685
 51
50.7591094211
  0
LWPOLYLINE
  5
272
330
1F
100
AcDbEntity
  8
0
  6
Continuous
 62
     7
370
    18
100
AcDbPolyline
 90
        9
 70
   128
 43
0.0
 10
228.0074824888
 20
35.2338411875
 10
227.5820877614
 20
35.3043220208
 10
226.7575722567
 20
35.5560605129
 10
226.0063376092
 20
35.9491579978
 10
225.337262316
 20
36.478968735
 10
224.758254838
 20
37.1392314717
 10
224.2761574528
 20
37.922142076
 10
223.8966678873
 20
38.8184482215
 10
223.6242708298
 20
39.8175562395
  0
LWPOLYLINE
  5
273
330
1F
100
AcDbEntity
  8
0
  6
Continuous
 62
     7
370
    18
100
AcDbPolyline
 90
       25
 70
   128
 43
0.0
 10
212.752503954
 20
46.3228218744
 10
212.8078454002
 20
47.6352638437
 10
212.97332183
 20
48.9985592293
 10
213.2472868821
 20
50.3991580677
 10
213.6270181333
 20
51.8231409116
 10
214.1087421238
 20
53.2563553303
 10
214.687671235
 20
54.6845579227
 10
215.3580511049
 20
56.0935536682
 10
216.1132198972
 20
57.4693404082
 10
216.9456728389
 20
58.7982442034
 10
217.8471353181
 20
60.0670584908
 10
218.8086488246
 20
61.2631720242
 10
219.8206578776
 20
62.3746989047
 10
220.8731041976
 20
63.3905907405
 10
221.9555279575
 20
64.3007521323
 10
223.0571719974
 20
65.0961373378
 10
224.1670873563
 20
65.7688416122
 10
225.2742432491
 20
66.3121783848
 10
226.3676363849
 20
66.720748451
 10
227.4364001207
 20
66.9904908179
 10
228.4699122983
 20
67.1187259456
 10
229.4579019282
 20
67.1041777904
 10
230.390549124
 20
66.946991952
 10
231.2585858596
 20
66.64872996
 10
231.7637961814
 20
66.3923054186
  0
LWPOLYLINE
  5
274
330
1F
100
AcDbEntity
  8
0
  6
Continuous
 62
     7
370
    18
100
AcDbPolyline
 90
        9
 70
   128
 43
0.0
 10
216.0150756921
 20
39.1117662982
 10
215.3580511049
 20
39.5603907875
 10
214.687671235
 20
40.1953824103
 10
214.1087421238
 20
40.9551676787
 10
213.6270181333
 20
41.8321954167
 10
213.2472868821
 20
42.8177498901
 10
212.97332183
 20
43.9020354124
 10
212.8078454002
 20
45.0742757789
 10
212.752503954
 20
46.3228218744
  0
LWPOLYLINE
  5
275
330
1F
100
AcDbEntity
  8
0
  6
Continuous
 62
     7
370
    18
100
AcDbPolyline
 90
       15
 70
   128
 43
0.0
 10
220.4210774157
 20
47.0847219562
 10
220.763685196
 20
48.4211307153
 10
221.210119762
 20
49.7684503594
 10
221.7552260272
 20
51.1111226816
 10
222.3927089647
 20
52.4336424344
 10
223.1152080226
 20
53.7207383122
 10
223.9143787833
 20
54.9575467103
 10
224.7809940506
 20
56.129786431
 10
225.7050455942
 20
57.2239200826
 10
226.6758633468
 20
58.2273141458
 10
227.682236082
 20
59.128380123
 10
228.7125432058
 20
59.9167144989
 10
229.7548868768
 20
60.5832122745
 10
230.7972305478
 20
61.120178885
 10
231.5671404474
 20
61.4324623543
  0
LWPOLYLINE
  5
276
330
1F
100
AcDbEntity
  8
0
  6
Continuous
 62
     7
370
    18
100
AcDbPolyline
 90
       17
 70
   128
 43
0.0
 10
219.9952592442
 20
47.7328669436
 10
220.3875456465
 20
49.1026728528
 10
220.8829370697
 20
50.4773200801
 10
221.4758115193
 20
51.8412082569
 10
222.1594386705
 20
53.1788561308
 10
222.9260602105
 20
54.4750825488
 10
223.7669761076
 20
55.7151767923
 10
224.6726414178
 20
56.8850643492
 10
225.6327779078
 20
57.9714664107
 10
226.6364879829
 20
58.9620538541
 10
227.6723806342
 20
59.8455830685
 10
228.7286983727
 20
60.6120277885
 10
229.7934527661
 20
61.2526877564
 10
230.8545593991
 20
61.7602924887
 10
231.8999749333
 20
62.1290811592
 10
232.9178346604
 20
62.3548683193
 10
233.8865365094
 20
62.4350085394
  0
LINE
  5
277
330
1F
100
AcDbEntity
  8
0
  6
Continuous
 62
     7
370
    18
100
AcDbLine
 10
214.4021406391
 20
45.7852584442
 30
0.0
 11
216.1996497274
 21
46.8229383533
 31
0.0
  0
ARC
  5
278
330
1F
100
AcDbEntity
  8
0
  6
Continuous
 62
     7
370
    18
100
AcDbCircle
 10
228.0707664315
 20
39.1312055774
 30
0.0
 40
5.718754619784588
100
AcDbArc
 50
193.3672844155
 51
271.1073188678
  0
LINE
  5
279
330
1F
100
AcDbEntity
  8
0
  6
Continuous
 62
     7
370
    18
100
AcDbLine
 10
222.2841716102
 20
37.1901310981
 30
0.0
 11
222.0732615362
 21
37.8036353143
 31
0.0
  0
LWPOLYLINE
  5
27A
330
1F
100
AcDbEntity
  8
0
  6
Continuous
 62
     7
370
    18
100
AcDbPolyline
 90
       17
 70
   128
 43
0.0
 10
205.5329448651
 20
58.5706307222
 10
205.9808427169
 20
59.8364499
 10
206.5314208285
 20
61.0912266474
 10
207.1765178576
 20
62.316361188
 10
207.9065714088
 20
63.4936947555
 10
208.7107602787
 20
64.6057746011
 10
209.5771641532
 20
65.6361176696
 10
210.4929407558
 20
66.569451649
 10
211.4445156732
 20
67.3919409056
 10
212.4177841992
 20
68.0913950217
 10
213.3983197638
 20
68.6574461544
 10
214.3715882898
 20
69.0817039595
 10
215.3231632073
 20
69.3578797169
 10
216.2389398099
 20
69.4818788969
 10
217.1053436844
 20
69.4518644493
 10
217.9095325543
 20
69.2682813092
 10
218.2783741136
 20
69.1224766099
  0
ARC
  5
27B
330
1F
100
AcDbEntity
  8
0
  6
Continuous
 62
     7
370
    18
100
AcDbCircle
 10
209.4631577328
 20
52.9241001344
 30
0.0
 40
4.334084088003189
100
AcDbArc
 50
204.9311339793
 51
233.3772259833
  0
LINE
  5
27C
330
1F
100
AcDbEntity
  8
0
  6
Continuous
 62
     7
370
    18
100
AcDbLine
 10
214.4021406391
 20
44.9687175935
 30
0.0
 11
216.1996497274
 21
46.0063975026
 31
0.0
  0
LINE
  5
27D
330
1F
100
AcDbEntity
  8
0
  6
Continuous
 62
     7
370
    18
100
AcDbLine
 10
217.689199367
 20
40.3345005337
 30
0.0
 11
219.0280769865
 21
41.1074181314
 31
0.0
  0
LINE
  5
27E
330
1F
100
AcDbEntity
  8
0
  6
Continuous
 62
     7
370
    18
100
AcDbLine
 10
221.4080156793
 20
39.8164601659
 30
0.0
 11
221.2059656632
 21
40.4175508953
 31
0.0
  0
LWPOLYLINE
  5
27F
330
1F
100
AcDbEntity
  8
0
  6
Continuous
 62
     7
370
    18
100
AcDbPolyline
 90
        3
 70
   128
 43
0.0
 10
221.0394829774
 20
39.3811459438
 10
220.763685196
 20
39.929815
 10
220.4210774157
 20
40.8706572359
  0
LWPOLYLINE
  5
280
330
1F
100
AcDbEntity
  8
0
  6
Continuous
 62
     7
370
    18
100
AcDbPolyline
 90
        3
 70
   128
 43
0.0
 10
220.7681468351
 20
38.8266720544
 10
220.382818614
 20
39.476294472
 10
219.9952592442
 20
40.383999953
  0
LINE
  5
281
330
1F
100
AcDbEntity
  8
0
  6
Continuous
 62
     7
370
    18
100
AcDbLine
 10
236.7426256013
 20
63.4203515668
 30
0.0
 11
236.2016365564
 21
63.1080452388
 31
0.0
  0
ARC
  5
282
330
1F
100
AcDbEntity
  8
0
  6
Continuous
 62
     7
370
    18
100
AcDbCircle
 10
209.2953839381
 20
57.0745397536
 30
0.0
 40
1.102097410650299
100
AcDbArc
 50
159.4112025223
 51
213.191486534
  0
ARC
  5
283
330
1F
100
AcDbEntity
  8
0
  6
Continuous
 62
     7
370
    18
100
AcDbCircle
 10
207.9635592809
 20
56.9030419685
 30
0.0
 40
0.6345234148784815
100
AcDbArc
 50
41.9991509505
 51
61.7717641965
  0
LINE
  5
284
330
1F
100
AcDbEntity
  8
0
  6
Continuous
 62
     7
370
    18
100
AcDbLine
 10
208.2636793513
 20
57.4621018109
 30
0.0
 11
208.3732262546
 21
57.8728996693
 31
0.0
  0
LINE
  5
285
330
1F
100
AcDbEntity
  8
0
  6
Continuous
 62
     7
370
    18
100
AcDbLine
 10
208.2636793513
 20
57.4621018109
 30
0.0
 11
207.4616347023
 21
57.9251123313
 31
0.0
  0
ARC
  5
286
330
1F
100
AcDbEntity
  8
0
  6
Continuous
 62
     7
370
    18
100
AcDbCircle
 10
208.0537157002
 20
48.8094800022
 30
0.0
 40
0.4314949854782815
100
AcDbArc
 50
27.885175929
 51
60.8829215863
  0
ARC
  5
287
330
1F
100
AcDbEntity
  8
0
  6
Continuous
 62
     7
370
    18
100
AcDbCircle
 10
209.5034143905
 20
49.5815407349
 30
0.0
 40
1.301169858632031
100
AcDbArc
 50
165.9701496118
 51
197.6767200264
  0
LINE
  5
288
330
1F
100
AcDbEntity
  8
0
  6
Continuous
 62
     7
370
    18
100
AcDbLine
 10
207.8719079308
 20
52.0953114102
 30
0.0
 11
206.5511771637
 21
52.857753053
 31
0.0
  0
LINE
  5
289
330
1F
100
AcDbEntity
  8
0
  6
Continuous
 62
     7
370
    18
100
AcDbLine
 10
208.2636793513
 20
49.1864457669
 30
0.0
 11
207.4616347023
 21
49.6494562873
 31
0.0
  0
LINE
  5
28A
330
1F
100
AcDbEntity
  8
0
  6
Continuous
 62
     7
370
    18
100
AcDbLine
 10
208.2636793513
 20
49.1864457669
 30
0.0
 11
208.3732262546
 21
48.9021280708
 31
0.0
  0
OLE2FRAME
  5
28B
330
1F
100
AcDbEntity
  8
0
100
AcDbOle2Frame
 70
     2
  3
Paintbrush-Bild
 10
13.8511154363
 20
38.264191557
 30
0.0
 11
51.6290888628
 21
31.9806341108
 31
0.0
 71
     2
 72
     0
 73
     1
 90
    12928
310
80552BED0767C5B32B40DDAF6807D121434000000000000000006FFBDDFB85D0
310
4940DDAF6807D121434000000000000000006FFBDDFB85D04940416F4BD60AFB
310
3F4000000000000000002BED0767C5B32B40416F4BD60AFB3F40000000000000
310
0000000000000100000000010000010000000100000000000100000000320000
310
D0CF11E0A1B11AE1000000000000000000000000000000003E000300FEFF0900
310
0600000000000000000000000100000001000000000000000010000002000000
310
01000000FEFFFFFF0000000000000000FFFFFFFFFFFFFFFFFFFFFFFFFFFFFFFF
310
FFFFFFFFFFFFFFFFFFFFFFFFFFFFFFFFFFFFFFFFFFFFFFFFFFFFFFFFFFFFFFFF
310
FFFFFFFFFFFFFFFFFFFFFFFFFFFFFFFFFFFFFFFFFFFFFFFFFFFFFFFFFFFFFFFF
310
FFFFFFFFFFFFFFFFFFFFFFFFFFFFFFFFFFFFFFFFFFFFFFFFFFFFFFFFFFFFFFFF
310
FFFFFFFFFFFFFFFFFFFFFFFFFFFFFFFFFFFFFFFFFFFFFFFFFFFFFFFFFFFFFFFF
310
FFFFFFFFFFFFFFFFFFFFFFFFFFFFFFFFFFFFFFFFFFFFFFFFFFFFFFFFFFFFFFFF
310
FFFFFFFFFFFFFFFFFFFFFFFFFFFFFFFFFFFFFFFFFFFFFFFFFFFFFFFFFFFFFFFF
310
FFFFFFFFFFFFFFFFFFFFFFFFFFFFFFFFFFFFFFFFFFFFFFFFFFFFFFFFFFFFFFFF
310
FFFFFFFFFFFFFFFFFFFFFFFFFFFFFFFFFFFFFFFFFFFFFFFFFFFFFFFFFFFFFFFF
310
FFFFFFFFFFFFFFFFFFFFFFFFFFFFFFFFFFFFFFFFFFFFFFFFFFFFFFFFFFFFFFFF
310
FFFFFFFFFFFFFFFFFFFFFFFFFFFFFFFFFFFFFFFFFFFFFFFFFFFFFFFFFFFFFFFF
310
FFFFFFFFFFFFFFFFFFFFFFFFFFFFFFFFFFFFFFFFFFFFFFFFFFFFFFFFFFFFFFFF
310
FFFFFFFFFFFFFFFFFFFFFFFFFFFFFFFFFFFFFFFFFFFFFFFFFFFFFFFFFFFFFFFF
310
FFFFFFFFFFFFFFFFFFFFFFFFFFFFFFFFFFFFFFFFFFFFFFFFFFFFFFFFFFFFFFFF
310
FDFFFFFFFEFFFFFFFEFFFFFFFEFFFFFF05000000060000000700000008000000
310
090000000A0000000B0000000C0000000D0000000E0000000F00000010000000
310
11000000120000001300000014000000150000001600000017000000FEFFFFFF
310
FFFFFFFFFFFFFFFFFFFFFFFFFFFFFFFFFFFFFFFFFFFFFFFFFFFFFFFFFFFFFFFF
310
FFFFFFFFFFFFFFFFFFFFFFFFFFFFFFFFFFFFFFFFFFFFFFFFFFFFFFFFFFFFFFFF
310
FFFFFFFFFFFFFFFFFFFFFFFFFFFFFFFFFFFFFFFFFFFFFFFFFFFFFFFFFFFFFFFF
310
FFFFFFFFFFFFFFFFFFFFFFFFFFFFFFFFFFFFFFFFFFFFFFFFFFFFFFFFFFFFFFFF
310
FFFFFFFFFFFFFFFFFFFFFFFFFFFFFFFFFFFFFFFFFFFFFFFFFFFFFFFFFFFFFFFF
310
FFFFFFFFFFFFFFFFFFFFFFFFFFFFFFFFFFFFFFFFFFFFFFFFFFFFFFFFFFFFFFFF
310
FFFFFFFFFFFFFFFFFFFFFFFFFFFFFFFFFFFFFFFFFFFFFFFFFFFFFFFFFFFFFFFF
310
FFFFFFFFFFFFFFFFFFFFFFFFFFFFFFFFFFFFFFFFFFFFFFFFFFFFFFFFFFFFFFFF
310
FFFFFFFFFFFFFFFFFFFFFFFFFFFFFFFFFFFFFFFFFFFFFFFFFFFFFFFFFFFFFFFF
310
FFFFFFFFFFFFFFFFFFFFFFFFFFFFFFFFFFFFFFFFFFFFFFFFFFFFFFFFFFFFFFFF
310
FFFFFFFFFFFFFFFFFFFFFFFFFFFFFFFFFFFFFFFFFFFFFFFFFFFFFFFFFFFFFFFF
310
FFFFFFFFFFFFFFFFFFFFFFFFFFFFFFFFFFFFFFFFFFFFFFFFFFFFFFFFFFFFFFFF
310
FFFFFFFFFFFFFFFFFFFFFFFFFFFFFFFFFFFFFFFFFFFFFFFFFFFFFFFFFFFFFFFF
310
52006F006F007400200045006E00740072007900000000000000000000000000
310
0000000000000000000000000000000000000000000000000000000000000000
310
16000500FFFFFFFFFFFFFFFF020000000A00030000000000C000000000000046
310
00000000000000000000000030C4FAB939A7D30103000000C000000000000000
310
01004F006C006500000000000000000000000000000000000000000000000000
310
0000000000000000000000000000000000000000000000000000000000000000
310
0A000200FFFFFFFFFFFFFFFFFFFFFFFF00000000000000000000000000000000
310
0000000000000000000000000000000000000000000000001400000000000000
310
010043006F006D0070004F0062006A0000000000000000000000000000000000
310
0000000000000000000000000000000000000000000000000000000000000000
310
120002010100000003000000FFFFFFFF00000000000000000000000000000000
310
0000000000000000000000000000000000000000010000004D00000000000000
310
01004F006C006500310030004E00610074006900760065000000000000000000
310
0000000000000000000000000000000000000000000000000000000000000000
310
1A000200FFFFFFFFFFFFFFFFFFFFFFFF00000000000000000000000000000000
310
0000000000000000000000000000000000000000040000002426000000000000
310
FEFFFFFF02000000FEFFFFFFFFFFFFFFFFFFFFFFFFFFFFFFFFFFFFFFFFFFFFFF
310
FFFFFFFFFFFFFFFFFFFFFFFFFFFFFFFFFFFFFFFFFFFFFFFFFFFFFFFFFFFFFFFF
310
FFFFFFFFFFFFFFFFFFFFFFFFFFFFFFFFFFFFFFFFFFFFFFFFFFFFFFFFFFFFFFFF
310
FFFFFFFFFFFFFFFFFFFFFFFFFFFFFFFFFFFFFFFFFFFFFFFFFFFFFFFFFFFFFFFF
310
FFFFFFFFFFFFFFFFFFFFFFFFFFFFFFFFFFFFFFFFFFFFFFFFFFFFFFFFFFFFFFFF
310
FFFFFFFFFFFFFFFFFFFFFFFFFFFFFFFFFFFFFFFFFFFFFFFFFFFFFFFFFFFFFFFF
310
FFFFFFFFFFFFFFFFFFFFFFFFFFFFFFFFFFFFFFFFFFFFFFFFFFFFFFFFFFFFFFFF
310
FFFFFFFFFFFFFFFFFFFFFFFFFFFFFFFFFFFFFFFFFFFFFFFFFFFFFFFFFFFFFFFF
310
FFFFFFFFFFFFFFFFFFFFFFFFFFFFFFFFFFFFFFFFFFFFFFFFFFFFFFFFFFFFFFFF
310
FFFFFFFFFFFFFFFFFFFFFFFFFFFFFFFFFFFFFFFFFFFFFFFFFFFFFFFFFFFFFFFF
310
FFFFFFFFFFFFFFFFFFFFFFFFFFFFFFFFFFFFFFFFFFFFFFFFFFFFFFFFFFFFFFFF
310
FFFFFFFFFFFFFFFFFFFFFFFFFFFFFFFFFFFFFFFFFFFFFFFFFFFFFFFFFFFFFFFF
310
FFFFFFFFFFFFFFFFFFFFFFFFFFFFFFFFFFFFFFFFFFFFFFFFFFFFFFFFFFFFFFFF
310
FFFFFFFFFFFFFFFFFFFFFFFFFFFFFFFFFFFFFFFFFFFFFFFFFFFFFFFFFFFFFFFF
310
FFFFFFFFFFFFFFFFFFFFFFFFFFFFFFFFFFFFFFFFFFFFFFFFFFFFFFFFFFFFFFFF
310
FFFFFFFFFFFFFFFFFFFFFFFFFFFFFFFFFFFFFFFFFFFFFFFFFFFFFFFFFFFFFFFF
310
0100000200000000000000000000000000000000000000000000000000000000
310
0000000000000000000000000000000000000000000000000000000000000000
310
0100FEFF030A0000FFFFFFFF0A00030000000000C00000000000004607000000
310
5042727573680007000000504272757368000700000050427275736800F439B2
310
7100000000000000000000000000000000000000000000000000000000000000
310
0000000000000000000000000000000000000000000000000000000000000000
310
0000000000000000000000000000000000000000000000000000000000000000
310
0000000000000000000000000000000000000000000000000000000000000000
310
0000000000000000000000000000000000000000000000000000000000000000
310
0000000000000000000000000000000000000000000000000000000000000000
310
0000000000000000000000000000000000000000000000000000000000000000
310
0000000000000000000000000000000000000000000000000000000000000000
310
0000000000000000000000000000000000000000000000000000000000000000
310
0000000000000000000000000000000000000000000000000000000000000000
310
0000000000000000000000000000000000000000000000000000000000000000
310
0000000000000000000000000000000000000000000000000000000000000000
310
20260000424D0E260000000000003E00000028000000B40200006E0000000100
310
01000000000000000000130B0000130B00000200000002000000000000FFFFFF
310
FFFFFFFFFFFFFFFFFFFFFFFFFFFFFFFFFFFFFFFFFFFFFFFFFFFFFFFFFFFFFFFF
310
FFFFFFFFFFFFFFFFFFFFFFFFFFFFFFFFFFFFFFFFFFFFFFFFFFFFFFFFFFFFFFFF
310
FFFFFFFFFFFFFFFFFFFFFFFFFFFFFFFFFFFFFFFFFFFFFFFFF000FFFFFFFFFFFF
310
FFFFFFFFFFFFFFFFFFFFFFFFFFFFFFFFFFFFFFFFFFFFFFFFFFFFFFFFFFFFFFFF
310
FFFFFFFFFFFFFFFFFFFFFFFFFFFFFFFFFFFFFFFFFFFFFFFFFFFFFFFFFFFFFFFF
310
FFFFFFFFFFFFFFFFFFFFFFFFFFFFFFFFF000FFFFFFFFFFFFFFFFFFFFFFFFFFFF
310
FFFFFFFFFFFFFFFFFFFFFFFFFFFFFFFFFFFFFFFFFFFFFFFFFFFFFFFFFFFFFFFF
310
FFFFFFFFFFFFFFFFFFFFFFFFFFFFFFFFFFFFFFFFFFFFFFFFFFFFFFFFFFFFFFFF
310
FFFFFFFFFFFFFFFFF000FFFFFFFFFFFFFFFFFFFFFFFFFFFFFFFFFFFFFFFFFFFF
310
FFFFFFFFFFFFFFFFFFFFFFFFFFFFFFFFFFFFFFFFFFFFFFFFFFFFFFFFFFFFFFFF
310
FFFFFFFFFFFFFFFFFFFFFFFFFFFFFFFFFFFFFFFFFFFFFFFFFFFFFFFFFFFFFFFF
310
F000FFFFFFFFFFFFFFFFFFFFFFFFFFFFFFFFFFFFFFFFFFFFFFFFFFFFFFFFFFFF
310
FFFFFFFFFFFFFFFFFFFFFFFFFFFFFFFFFFFFFFFFFFFFFFFFFFFFFFFFFFFFFFFF
310
FFFFFFFFFFFFFFFFFFFFFFFFFFFFFFFFFFFFFFFFFFFFFFFFF000FFFFFFFFFFFF
310
FFFFFFFFFFFFFFFFFFFFFFFFFFFFFFFFFFFFFFFFFFFFFFFFFFFFFFFFFFFFFFFF
310
FFFFFFFFFFFFFFFFFFFFFFFFFFFFFFFFFFFFFFFFFFFFFFFFFFFFFFFFFFFFFFFF
310
FFFFFFFFFFFFFFFFFFFFFFFFFFFFFFFFF000FFFFFFFFFFFFFFFFFFFFFFFFFFFF
310
FFFFFFFFFFFFFFFFFFFFFFFFFFFFFFFFFFFFFFFFFFFFFFFFFFFFFFFFFFFFFFFF
310
FFFFFFFFFFFFFFFFFFFFFFFFFFFFFFFFFFFFFFFFFFFFFFFFFFFFFFFFFFFFFFFF
310
FFFFFFFFFFFFFFFFF000FFFFFFFFFFFFFFFFFFFFFFFFFFFFFFFFFFFFFFFFFFFF
310
FFFFFFFFFFFFFFFFFFFFFFFFFFFFFFFFFFFFFFFFFFFFFFFFFFFFFFFFFFFFFFFF
310
FFFFFFFFFFFFFFFFFFFFFFFFFFFFFFFFFFFFFFFFFFFFFFFFFFFFFFFFFFFFFFFF
310
F000FFFFFFFFFFFFFFFFFFFFFFFFFFFFFFFFFFFFFFFFFFFFFFFFFFFFFFFFFFFF
310
FFFFFFFFFFFFFFFFFFFFFFFFFFFFFFFFFFFFFFFFFFFFFFFFFFFFFFFFFFFFFFFF
310
FFFFFFFFFFFFFFFFFFFFFFFFFFFFFFFFFFFFFFFFFFFFFFFFF000FFFFFFFFFFFF
310
FFFFFFFFFFFFFFFFFFFFFFFFFFFFFFFFFFFFFFFFFFFFFFFFFFFFFFFFFFFFFFFF
310
FFFFFFFFFFFFFFFFFFFFFFFFFFFFFFFFFFFFFFFFFFFFFFFFFFFFFFFFFFFFFFFF
310
FFFFFFFFFFFFFFFFFFFFFFFFFFFFFFFFF000FFFFFFFFFFFFFFFFFFFFFFFFFFFF
310
FFFFFFFFFFFFFFFFFFFFFFFFFFFFFFFFFFFFFFFFFFFFFFFFFFFFFFFFFFFFFFFF
310
FFFFFFFFFFFFFFFFFFFFFFFFFFFFFFFFFFFFFFFFFFFFFFFFFFFFFFFFFFFFFFFF
310
FFFFFFFFFFFFFFFFF000FFFFFFFFFFFFFFFFFFFFFFFFFFFFFFFFFFFFFFFFFFFF
310
FFFFFFFFFFFFFFFFFFFFFFFFFFFFFFFFFFFFFFFFFFFFFFFFFFFFFFFFFFFFFFFF
310
FFFFFFFFFFFFFFFFFFFFFFFFFFFFFFFFFFFFFFFFFFFFFFFFFFFFFFFFFFFFFFFF
310
F000FFFFFFFFFFFFFFFFFFFFFFFFFFFFFFFFFFFFFFFFFFFFFFFFFFFFFFFFFFFF
310
FFFFFFFFFFFFFFFFFFFFFFFFFFFFFFFFFFFFFFFFFFFFFFFFFFFFFFFFFFFFFFFF
310
FFFFFFFFFFFFFFFFFFFFFFFFFFFFFFFFFFFFFFFFFFFFFFFFF000FFFFFFFFFFFF
310
FFFFFFFFFFFFFFFFFFFFFFFFFFFFFFFFFFFFFFFFFFFFFFFFFFFFFFFFFFFFFFFF
310
FFFFFFFFFFFFFFFFFFFFFFFFFFFFFFFFFFFFFFFFFFFFFFFFFFFFFFFFFFFFFFFF
310
FFFFFFFFFFFFFFFFFFFFFFFFFFFFFFFFF000FFFFFFFFFFFFFFFFFFFFFFFFFFFF
310
FFFFFFFFFFFFFFFFFFFFFFFFFFFFFFFFFFFFFFFFFFFFFFFFFFFFFFFFFFFFFFFF
310
FFFFFFFFFFFFFFFFFFFFFFFFFFFFFFFFFFFFFFFFFFFFFFFFFFFFFFFFFFFFFFFF
310
FFFFFFFFFFFFFFFFF000FFFFFFFFFFFFFFFFFFFFFFFFFFFFFFFFFFFFFFFFFFFF
310
FFFFFFFFFFFFFFFFFFFFFFFFFFFFFFFFFFFFFFFFFFFFFFFFFFFFFFFFFFFFFFFF
310
FFFFFFFFFFFFFFFFFFFFFFFFFFFFFFFFFFFFFFFFFFFFFFFFFFFFFFFFFFFFFFFF
310
F000FFFFFFFFFFFFFFFFFFFFFFFFFFFFFFFFFFFFFFFFFFFFFFFFFFFFFFFFFFFF
310
FFFFFFFFFFFFFFFFFFFFFFFFFFFFFFFFFFFFFFFFFFFFFFFFFFFFFFFFFFFFFFFF
310
FFFFFFFFFFFFFFFFFFFFFFFFFFFFFFFFFFFFFFFFFFFFFFFFF000FFFFFFFFFFFF
310
FFFFFFFFFFFFFFFFFFFFFFFFFFFFFFFFFFFFFFFFFFFFFFFFFFFFFFFFFFFFFFFF
310
FFFFFFFFFFFFFFFFFFFFFFFFFFFFFFFFFFFFFFFFFFFFFFFFFFFFFFFFFFFFFFFF
310
FFFFFFFFFFFFFFFFFFFFFFFFFFFFFFFFF000FFFFFFFFFFFFFFFFFFFFFFFFFFFF
310
FFFFFFFFFFFFFFFFFFFFFFFFFFFFFFFFFFFFFFFFFFFFFFFFFFFFFFFFFFFFFFFF
310
FFFFFFFFFFFFFFFFFFFFFFFFFFFFFFFFFFFFFFFFFFFFFFFFFFFFFFFFFFFFFFFF
310
FFFFFFFFFFFFFFFFF000FFFFF80003FFFFFFFFFFFFFFFFFFFFFFFFFFFFFFFFFF
310
FFFFF00007FFFFFFFFFF00007FFFFFF800000000000000007FFFFFFFFFFFFFFF
310
FFFFFFFC001FFFFFFFFFFFFFFC001FFFFFFFFFFFFFFFFFFFFFFFFFFE0007FFFF
310
F000FFFF8000007FFFFFFFF8000FFFFFC0007FFFFF80007FFFFF0000007FFFFF
310
FFF8000007FFFFF800000000000000007FFFFFF0001FFFFFFFFFFFC00001FFFF
310
FFFFFFFFC00001FFFFFFFF000000000003FFFFE000007FFFF000FFFE0000000F
310
FFFFFFF0000FFFFF80007FFFFF80007FFFFC0000001FFFFFFFC0000001FFFFF8
310
00000000000000007FFFFFF0001FFFFFFFFFFE0000003FFFFFFFFFFE0000003F
310
FFFFFF000000000003FFFF0000000FFFF000FFF800000003FFFFFFF00007FFFF
310
80007FFFFF80007FFFF000000007FFFFFF000000003FFFF80000000000000000
310
7FFFFFF0001FFFFFFFFFF80000000FFFFFFFFFF80000000FFFFFFF0000000000
310
03FFFC00000003FFF000FFE000000000FFFFFFF00007FFFF80003FFFFF80007F
310
FFC000000001FFFFFC000000001FFFF800000000000000007FFFFFF0001FFFFF
310
FFFFE000000003FFFFFFFFE000000003FFFFFF000000000003FFF000000000FF
310
F000FF80000000007FFFFFF00007FFFF80003FFFFF80007FFF8000000000FFFF
310
F80000000007FFF800000000000000007FFFFFF0001FFFFFFFFFC000000001FF
310
FFFFFFC000000001FFFFFF000000000003FFC0000000007FF000FF0000000000
310
3FFFFFE00007FFFF00003FFFFF80007FFE00000000003FFFF00000000003FFF8
310
00000000000000007FFFFFF0001FFFFFFFFF8000000000FFFFFFFF8000000000
310
FFFFFF000000000003FF80000000003FF000FE00000000001FFFFFE00003FFFF
310
00003FFFFF80007FFC00000000001FFFE00000000001FFF8000001FFFE000000
310
7FFFFFF0001FFFFFFFFE00000000003FFFFFFE00000000003FFFFF0000000000
310
03FF00000000001FF000FC00000000000FFFFFE00003FFFF00001FFFFF80007F
310
F800000000001FFFC00000000000FFF8000001FFFE0000007FFFFFF0001FFFFF
310
FFFC00000000001FFFFFFC00000000001FFFFF000000000003FE00000000000F
310
F000F8000000000007FFFFE00003FFFF00001FFFFF80007FF800000000000FFF
310
800000000000FFF8000001FFFE0000007FFFFFF0001FFFFFFFF800000000000F
310
FFFFF800000000000FFFFF000000000003FC000000000007F000F80000000000
310
03FFFFC00003FFFE00001FFFFF80007FF0000000000007FF0000000000007FF8
310
000001FFFE0000007FFFFFF0001FFFFFFFF0000000000007FFFFF00000000000
310
07FFFF000000000003F8000000000003F000F0000000000003FFFFC00001FFFE
310
00001FFFFF80007FE0000000000007FE0000000000003FF8000001FFFE000000
310
7FFFFFF0001FFFFFFFF0000000000007FFFFF0000000000007FFFF0000000000
310
03F800001F800003F000E00001FFF00001FFFFC00001FFFE00000FFFFF80007F
310
E00001FFE00003FE00001FFF00003FF8000001FFFE0000007FFFFFF0001FFFFF
310
FFE000003E000003FFFFE000003E000003FFFF000000000003F00001FFF80001
310
F000E00007FFFC0001FFFFC00001FFFE00000FFFFF80007FC0000FFFFC0003FC
310
0000FFFFC0001FF8000001FFFE0000007FFFFFF0001FFFFFFFC00003FFE00001
310
FFFFC00003FFE00001FFFF0001FFFFFFFFF00007FFFE0001F000E0000FFFFF00
310
00FFFF800001FFFC00000FFFFF80007FC0001FFFFE0001FC0001FFFFE0001FF8
310
000001FFFE0000007FFFFFF0001FFFFFFF80000FFFF80000FFFF80000FFFF800
310
00FFFF0003FFFFFFFFE0000FFFFF8000F000C0003FFFFF8000FFFF800000FFFC
310
000007FFFF80007F80003FFFFF0001FC0003FFFFF0001FF8000001FFFE000000
310
7FFFFFF0001FFFFFFF80003FFFFE0000FFFF80003FFFFE0000FFFF0003FFFFFF
310
FFE0003FFFFF8000F000C0003FFFFF8000FFFF800000FFFC000007FFFF80007F
310
80007FFFFF8001F80007FFFFF8000FF8000001FFFE0000007FFFFFF0001FFFFF
310
FF00007FFFFF00007FFF00007FFFFF00007FFF0003FFFFFFFFE0003FFFFFC000
310
F000C0007FFFFFC000FFFF000000FFFC000007FFFF80007F8000FFFFFF8000F8
310
000FFFFFF8000FF8000001FFFE0000007FFFFFF0001FFFFFFF0000FFFFFF8000
310
7FFF0000FFFFFF80007FFF0003FFFFFFFFC0007FFFFFC00070008000FFFFFFC0
310
00FFFF000000FFF8000007FFFF80007F8000FFFFFF8000F8000FFFFFF8000FF8
310
000001FFFE0000007FFFFFF0001FFFFFFE0001FFFFFFC0003FFE0001FFFFFFC0
310
003FFF0003FFFFFFFFC0007FFFFFE00070008000FFFFFFC0007FFF0000007FF8
310
000003FFFF80007F0001FFFFFF8000F8000FFFFFF8000FF8000001FFFE000000
310
7FFFFFF0001FFFFFFE0001FFFFFFC0003FFE0001FFFFFFC0003FFF0003FFFFFF
310
FFC000FFFFFFE00070008000FFFFFFC0007FFF0000007FF8000003FFFF80007F
310
0001FFFFFF8000F8001FFFFFF8000FF8000001FFFE0000007FFFFFF0001FFFFF
310
FE0003FFFFFFE0003FFE0003FFFFFFE0003FFF0003FFFFFFFFC000FFFFFFE000
310
70008000FFFFFFC0007FFE0000007FF8000003FFFF80007F0001FFFFFF8000F0
310
001FFFFFF8000FF8000001FFFE0000007FFFFFF0001FFFFFFC0003FFFFFFE000
310
1FFC0003FFFFFFE0001FFF0003FFFFFFFFC000FFFFFFC00070008000FFFFFF80
310
007FFE0000007FF0000003FFFF80007F0001FFFFFF0000F0001FFFFFF8000FF8
310
000001FFFE0000007FFFFFF0001FFFFFFC0007FFFFFFF0001FFC0007FFFFFFF0
310
001FFF0003FFFFFFFFC000FFFFFFC00070008001FFFFFF0000FFFE0000003FF0
310
000001FFFF80007F0001FFFFFF0000F8001FFFFFF0000FF8000001FFFE000000
310
7FFFFFF0001FFFFFFC0007FFFFFFF0001FFC0007FFFFFFF0001FFF0003FFFFFF
310
FFC001FFFFFF80007000FFFFFFFFFE0000FFFE0008003FF0008001FFFF80007F
310
FFFFFFFFFC0000FFFFFFFFFFE0000FF8000001FFFE0000007FFFFFF0001FFFFF
310
F8000FFFFFFFF8000FF8000FFFFFFFF8000FFF0003FFFFFFFFFFFFFFFFFF0000
310
7000FFFFFFFFFC0000FFFC0008003FF0008001FFFF80007FFFFFFFFFF80001FF
310
FFFFFFFF80000FF8000001FFFE0000007FFFFFF0001FFFFFF8000FFFFFFFF800
310
0FF8000FFFFFFFF8000FFF0003FFFFFFFFFFFFFFFFFE0000F000FFFFFFFFE000
310
00FFFC000C003FE000C001FFFF80007FFFFFFFFFC00001FFFFFFFFFE00001FF8
310
000001FFFE0000007FFFFFF0001FFFFFF8000FFFFFFFF8000FF8000FFFFFFFF8
310
000FFF0003FFFFFFFFFFFFFFFFF00000F000FFFFFFFE000001FFFC000C001FE0
310
00C000FFFF80007FFFFFFFFE000001FFFFFFFFE000001FF80FFFFFFFFFFFFFC0
310
7FFFFFF0001FFFFFF8000FFFFFFFF8000FF8000FFFFFFFF8000FFF0003FFFFFF
310
FFFFFFFFFF800000F000FFFFFFC0000001FFFC001C001FE001C000FFFF80007F
310
FFFFFF80000003FFFFFFF80000001FF80FFFFFFFFFFFFFC07FFFFFF0001FFFFF
310
F8001FFFFFFFFC000FF8001FFFFFFFFC000FFF0003FFFFFFFFFFFFFFF0000001
310
F000FFFFF800000001FFF8001C001FE001C000FFFF80007FFFFFF800000003FF
310
FFFF800000003FF80FFFFFFFFFFFFFC07FFFFFF0001FFFFFF8001FFFFFFFFC00
310
0FF8001FFFFFFFFC000FFF0003FFFFFFFFFFFFFE00000001F000FFFFC0000000
310
03FFF8001E001FC001E000FFFF80007FFFFF8000000007FFFFFC000000003FF8
310
0FFFFFFFFFFFFFC07FFFFFF0001FFFFFF8001FFFFFFFFC000FF8001FFFFFFFFC
310
000FFF0003FFFFFFFFFFFFE000000003F000FFFE0000000007FFF8001E000FC0
310
01E0007FFF80007FFFFE0000000007FFFFE0000000007FF80FFFFFFFFFFFFFC0
310
7FFFFFF0001FFFFFF0001FFFFFFFFC0007F0001FFFFFFFFC0007FF0003FFFFFF
310
FFFFFF0000000003F000FFF80000000007FFF8001E000FC003E0007FFF80007F
310
FFF0000000000FFFFF8000000000FFF80FFFFFFFFFFFFFC07FFFFFF0001FFFFF
310
F0001FFFFFFFFC0007F0001FFFFFFFFC0007FF0003FFFFFFFFFFFC0000000007
310
F000FFE0000000000FFFF0003E000FC003E0007FFF80007FFFC0000000001FFF
310
FE0000000001FFF80FFFFFFFFFFFFFC07FFFFFF0001FFFFFF0001FFFFFFFFC00
310
07F0001FFFFFFFFC0007FF0003FFFFFFFFFFF0000000000FF000FFC000000000
310
1FFFF0003F000F8003F0003FFF80007FFF80000000003FFFF80000000003FFF8
310
0FFFFFFFFFFFFFC07FFFFFF0001FFFFFF0001FFFFFFFFC0007F0001FFFFFFFFC
310
0007FF0003FFFFFFFFFFE0000000001FF000FF00000000007FFFF0003F000780
310
03F0003FFF80007FFF00000000007FFFF00000000007FFF80FFFFFFFFFFFFFC0
310
7FFFFFF0001FFFFFF0001FFFFFFFFC0007F0001FFFFFFFFC0007FF0003FFFFFF
310
FFFF80000000007FF000FE0000000000FFFFE0003F00078007F0003FFF80007F
310
FE0000000001FFFFE0000000001FFFF80FFFFFFFFFFFFFC07FFFFFF0001FFFFF
310
F0001FFFFFFFFC0007F0001FFFFFFFFC0007FF0003FFFFFFFFFF0000000000FF
310
F000FC0000000003FFFFE0007F00078007F0003FFF80007FFC0000000007FFFF
310
C0000000007FFFF80FFFFFFFFFFFFFC07FFFFFF0001FFFFFF8001FFFFFFFFC00
310
0FF8001FFFFFFFFC000FFF0003FFFFFFFFFE0000000003FFF000FC000000000F
310
FFFFE0007F80070007F8001FFF80007FF8000000001FFFFF8000000001FFFFF8
310
0FFFFFFFFFFFFFC07FFFFFF0001FFFFFF8001FFFFFFFFC000FF8001FFFFFFFFC
310
000FFF0003FFFFFFFFFC000000000FFFF000F8000000007FFFFFE0007F800700
310
07F8001FFF80007FF000000000FFFFFF800000000FFFFFF80FFFFFFFFFFFFFC0
310
7FFFFFF0001FFFFFF8000FFFFFFFF8000FF8000FFFFFFFF8000FFF0003FFFFFF
310
FFFC000000007FFFF000F800000007FFFFFFC0007F8003000FF8001FFF80007F
310
F000000007FFFFFF000000007FFFFFF80FFFFFFFFFFFFFC07FFFFFF0001FFFFF
310
F8000FFFFFFFF8000FF8000FFFFFFFF8000FFF0003FFFFFFFFF80000000FFFFF
310
F000F0000000FFFFFFFFC000FF8003000FF8001FFF80007FE0000000FFFFFFFF
310
0000000FFFFFFFF8000001FFFE0000007FFFFFF0001FFFFFF8000FFFFFFFF800
310
0FF8000FFFFFFFF8000FFF0003FFFFFFFFF8000000FFFFFFF000F000000FFFFF
310
FFFFC000FFC002000FF8000FFF80007FE000001FFFFFFFFE000001FFFFFFFFF8
310
000001FFFE0000007FFFFFF0001FFFFFF8000FFFFFFFF8000FF8000FFFFFFFF8
310
000FFF0003FFFFFFFFF000001FFFFFFFF000E00000FFFFFFFFFFC000FFC00200
310
0FFC000FFF80007FE00001FFFFFFFFFE00001FFFFFFFFFF8000001FFFE000000
310
7FFFFFF0001FFFFFFC000FFFFFFFF8001FFC000FFFFFFFF8001FFF0003FFFFFF
310
FFF00001FFFFFFFFF000E00007FFFFFFFFFF8000FFC000001FFC000FFF80007F
310
C0000FFFFFFFFFFE0000FFFFFFFFFFF8000001FFFE0000007FFFFFF0001FFFFF
310
FC0007FFFFFFF0001FFC0007FFFFFFF0001FFF0003FFFFFFFFF00007FFFFFFFF
310
F000E0001FFFFFFFFFFF8000FFC000001FFC000FFF80007FC0003FFFFFFFFFFE
310
0001FFFFFFFFFFF8000001FFFE0000007FFFFFF0001FFFFFFC0007FFFFFFF000
310
1FFC0007FFFFFFF0001FFF0003FFFFFFFFF0001FFFFFFFFFF000E0003FFFFF00
310
03FF8001FFE000001FFC0007FF80007FC0007FFFFF0007FC0003FFFFF0003FF8
310
000001FFFE0000007FFFFFF0001FFFFFFC0003FFFFFFE0001FFC0003FFFFFFE0
310
001FFF0003FFFFFFFFF0003FFFFFFFFFF000E0003FFFFF0001FF8001FFE00000
310
1FFE0007FF80007FC0007FFFFE0003FC0007FFFFE0003FF8000001FFFE000000
310
7FFFFFF0001FFFFFFE0003FFFFFFE0003FFE0003FFFFFFE0003FFF0003FFFFFF
310
FFF0003FFFFF8001F000E0003FFFFF0001FF0001FFE000001FFE0007FF80007F
310
C0007FFFFE0003FC0007FFFFE0003FF8000001FFFE0000007FFFFFF0001FFFFF
310
FE0001FFFFFFC0003FFE0001FFFFFFC0003FFF0003FFFFFFFFF0003FFFFF0001
310
F000E0003FFFFF0003FF0001FFE000003FFE0007FF80007FC0007FFFFE0003FC
310
0007FFFFE0003FF8000001FFFE0000007FFFFFF0001FFFFFFF0001FFFFFFC000
310
7FFF0001FFFFFFC0007FFF0003FFFFFFFFF0003FFFFF0001F000E0003FFFFE00
310
03FF0003FFF000003FFE0003FF80007FC0007FFFFC0003FE0007FFFFE0003FF8
310
000001FFFE0000007FFFFFF0001FFFFFFF0000FFFFFF80007FFF0000FFFFFF80
310
007FFF0003FFFFFFFFF0003FFFFF0001F000E0003FFFFE0003FF0003FFF00000
310
3FFF0003FF80007FC0007FFFFC0007FE0007FFFFC0003FF8000001FFFE000000
310
7FFFFFF0001FFFFFFF80007FFFFF0000FFFF80007FFFFF0000FFFF0003FFFFFF
310
FFF0003FFFFF0003F000E0003FFFFC0003FE0003FFF000003FFF0003FF80007F
310
E0003FFFF80007FE0003FFFFC0007FF8000001FFFE0000007FFFFFF0001FFFFF
310
FF80003FFFFE0000FFFF80003FFFFE0000FFFF0003FFFFFFFFF0001FFFFE0003
310
F000F0001FFFF80003FE0003FFF000007FFF0001FF80007FE0003FFFF00007FE
310
0001FFFF80007FF8000001FFFE0000007FFFFFF0001FFFFFFFC0000FFFF80001
310
FFFFC0000FFFF80001FFFF0003FFFFFFFFF0001FFFFC0003F000F0000FFFF000
310
07FE0007FFF800007FFF0001FF80007FE0001FFFE00007FF0000FFFE00007FF8
310
000001FFFE0000007FFFFFF0001FFFFFFFC00003FFE00001FFFFC00003FFE000
310
01FFFF0003FFFFFFFFF8000FFFF80003F000F00003FFC00007FC0007FFF80000
310
7FFF8001FF80007FF00007FF80000FFF00007FF80000FFF8000001FFFE000000
310
7F80000000000001FFE000003E000003FFFFE000003E000003FFFF0003FFFFFF
310
FFF80003FFE00007F000F800000000000FFC0007FFF800007FFF8001FF80007F
310
F000000000000FFF000000000000FFF8000001FFFE0000007F80000000000001
310
FFF0000000000007FFFFF0000000000007FFFF0003FFFFFFFFFC00007E000007
310
F000F800000000000FFC0007FFF80000FFFF8000FF80007FF800000000001FFF
310
800000000001FFF8000001FFFE0000007F80000000000001FFF800000000000F
310
FFFFF800000000000FFFFF0003FFFFFFFFFC00000000000FF000FC0000000000
310
1FFC0007FFFC0000FFFF8000FF80007FF800000000003FFFC00000000001FFF8
310
000001FFFE0000007F80000000000001FFF800000000000FFFFFF80000000000
310
0FFFFF0003FFFFFFFFFE00000000001FF000FE00000000003FF8000FFFFC0000
310
FFFF8000FF80007FFC00000000003FFFC00000000003FFF8000001FFFE000000
310
7F80000000000001FFFC00000000001FFFFFFC00000000001FFFFF0003FFFFFF
310
FFFF00000000001FF000FF00000000003FF8000FFFFC0000FFFFC000FF80007F
310
FE00000000007FFFE00000000007FFF8000001FFFE0000007F80000000000001
310
FFFE00000000003FFFFFFE00000000003FFFFF0003FFFFFFFFFF80000000003F
310
F000FF80000000007FF8000FFFFC0001FFFFC0007F80007FFF0000000000FFFF
310
F0000000000FFFF800000000000000007F80000000000001FFFF8000000000FF
310
FFFFFF8000000000FFFFFF0003FFFFFFFFFFC0000000007FF000FFC000000000
310
FFF8000FFFFE0001FFFFC0007F80007FFF8000000001FFFFF8000000001FFFF8
310
00000000000000007F80000000000001FFFFC000000001FFFFFFFFC000000001
310
FFFFFF0003FFFFFFFFFFE000000000FFF000FFE000000003FFF0001FFFFE0001
310
FFFFC0007F80007FFFC000000007FFFFFE000000003FFFF80000000000000000
310
7F80000000000001FFFFE000000003FFFFFFFFE000000003FFFFFF0003FFFFFF
310
FFFFF000000003FFF000FFF80000000FFFF0001FFFFE0001FFFFE0007F80007F
310
FFF00000000FFFFFFF00000000FFFFF800000000000000007F80000000000001
310
FFFFF80000000FFFFFFFFFF80000000FFFFFFF0003FFFFFFFFFFFC0000000FFF
310
F000FFFE0000003FFFF0001FFFFE0003FFFFE0003F80007FFFFC0000003FFFFF
310
FFC0000003FFFFF800000000000000007F80000000000001FFFFFE0000003FFF
310
FFFFFFFE0000003FFFFFFF0003FFFFFFFFFFFF0000003FFFF000FFFF800000FF
310
FFF0001FFFFF0003FFFFE0003F80007FFFFF000001FFFFFFFFF800001FFFFFF8
310
00000000000000007F80000000000001FFFFFFC00001FFFFFFFFFFFFC00001FF
310
FFFFFF0003FFFFFFFFFFFFC00000FFFFF000FFFFF8000FFFFFFFFFFFFFFFFFFF
310
FFFFFFFFFFFFFFFFFFFFF0001FFFFFFFFFFF0000FFFFFFF80000000000000000
310
7FFFFFFFFFFFFFFFFFFFFFFC001FFFFFFFFFFFFFFC001FFFFFFFFFFFFFFFFFFF
310
FFFFFFFC001FFFFFF000FFFFFFFFFFFFFFFFFFFFFFFFFFFFFFFFFFFFFFFFFFFF
310
FFFFFFFFFFFFFFFFFFFFFFFFFFFFFFFFFFFFFFFFFFFFFFFFFFFFFFFFFFFFFFFF
310
FFFFFFFFFFFFFFFFFFFFFFFFFFFFFFFFFFFFFFFFFFFFFFFFFFFFFFFFFFFFFFFF
310
F000FFFFFFFFFFFFFFFFFFFFFFFFFFFFFFFFFFFFFFFFFFFFFFFFFFFFFFFFFFFF
310
FFFFFFFFFFFFFFFFFFFFFFFFFFFFFFFFFFFFFFFFFFFFFFFFFFFFFFFFFFFFFFFF
310
FFFFFFFFFFFFFFFFFFFFFFFFFFFFFFFFFFFFFFFFFFFFFFFFF000FFFFFFFFFFFF
310
FFFFFFFFFFFFFFFFFFFFFFFFFFFFFFFFFFFFFFFFFFFFFFFFFFFFFFFFFFFFFFFF
310
FFFFFFFFFFFFFFFFFFFFFFFFFFFFFFFFFFFFFFFFFFFFFFFFFFFFFFFFFFFFFFFF
310
FFFFFFFFFFFFFFFFFFFFFFFFFFFFFFFFF000FFFFFFFFFFFFFFFFFFFFFFFFFFFF
310
FFFFFFFFFFFFFFFFFFFFFFFFFFFFFFFFFFFFFFFFFFFFFFFFFFFFFFFFFFFFFFFF
310
FFFFFFFFFFFFFFFFFFFFFFFFFFFFFFFFFFFFFFFFFFFFFFFFFFFFFFFFFFFFFFFF
310
FFFFFFFFFFFFFFFFF000FFFFFFFFFFFFFFFFFFFFFFFFFFFFFFFFFFFFFFFFFFFF
310
FFFFFFFFFFFFFFFFFFFFFFFFFFFFFFFFFFFFFFFFFFFFFFFFFFFFFFFFFFFFFFFF
310
FFFFFFFFFFFFFFFFFFFFFFFFFFFFFFFFFFFFFFFFFFFFFFFFFFFFFFFFFFFFFFFF
310
F000FFFFFFFFFFFFFFFFFFFFFFFFFFFFFFFFFFFFFFFFFFFFFFFFFFFFFFFFFFFF
310
FFFFFFFFFFFFFFFFFFFFFFFFFFFFFFFFFFFFFFFFFFFFFFFFFFFFFFFFFFFFFFFF
310
FFFFFFFFFFFFFFFFFFFFFFFFFFFFFFFFFFFFFFFFFFFFFFFFF000FFFFFFFFFFFF
310
FFFFFFFFFFFFFFFFFFFFFFFFFFFFFFFFFFFFFFFFFFFFFFFFFFFFFFFFFFFFFFFF
310
FFFFFFFFFFFFFFFFFFFFFFFFFFFFFFFFFFFFFFFFFFFFFFFFFFFFFFFFFFFFFFFF
310
FFFFFFFFFFFFFFFFFFFFFFFFFFFFFFFFF000FFFFFFFFFFFFFFFFFFFFFFFFFFFF
310
FFFFFFFFFFFFFFFFFFFFFFFFFFFFFFFFFFFFFFFFFFFFFFFFFFFFFFFFFFFFFFFF
310
FFFFFFFFFFFFFFFFFFFFFFFFFFFFFFFFFFFFFFFFFFFFFFFFFFFFFFFFFFFFFFFF
310
FFFFFFFFFFFFFFFFF000FFFFFFFFFFFFFFFFFFFFFFFFFFFFFFFFFFFFFFFFFFFF
310
FFFFFFFFFFFFFFFFFFFFFFFFFFFFFFFFFFFFFFFFFFFFFFFFFFFFFFFFFFFFFFFF
310
FFFFFFFFFFFFFFFFFFFFFFFFFFFFFFFFFFFFFFFFFFFFFFFFFFFFFFFFFFFFFFFF
310
F000FFFFFFFFFFFFFFFFFFFFFFFFFFFFFFFFFFFFFFFFFFFFFFFFFFFFFFFFFFFF
310
FFFFFFFFFFFFFFFFFFFFFFFFFFFFFFFFFFFFFFFFFFFFFFFFFFFFFFFFFFFFFFFF
310
FFFFFFFFFFFFFFFFFFFFFFFFFFFFFFFFFFFFFFFFFFFFFFFFF000FFFFFFFFFFFF
310
FFFFFFFFFFFFFFFFFFFFFFFFFFFFFFFFFFFFFFFFFFFFFFFFFFFFFFFFFFFFFFFF
310
FFFFFFFFFFFFFFFFFFFFFFFFFFFFFFFFFFFFFFFFFFFFFFFFFFFFFFFFFFFFFFFF
310
FFFFFFFFFFFFFFFFFFFFFFFFFFFFFFFFF000FFFFFFFFFFFFFFFFFFFFFFFFFFFF
310
FFFFFFFFFFFFFFFFFFFFFFFFFFFFFFFFFFFFFFFFFFFFFFFFFFFFFFFFFFFFFFFF
310
FFFFFFFFFFFFFFFFFFFFFFFFFFFFFFFFFFFFFFFFFFFFFFFFFFFFFFFFFFFFFFFF
310
FFFFFFFFFFFFFFFFF000FFFFFFFFFFFFFFFFFFFFFFFFFFFFFFFFFFFFFFFFFFFF
310
FFFFFFFFFFFFFFFFFFFFFFFFFFFFFFFFFFFFFFFFFFFFFFFFFFFFFFFFFFFFFFFF
310
FFFFFFFFFFFFFFFFFFFFFFFFFFFFFFFFFFFFFFFFFFFFFFFFFFFFFFFFFFFFFFFF
310
F000FFFFFFFFFFFFFFFFFFFFFFFFFFFFFFFFFFFFFFFFFFFFFFFFFFFFFFFFFFFF
310
FFFFFFFFFFFFFFFFFFFFFFFFFFFFFFFFFFFFFFFFFFFFFFFFFFFFFFFFFFFFFFFF
310
FFFFFFFFFFFFFFFFFFFFFFFFFFFFFFFFFFFFFFFFFFFFFFFFF000FFFFFFFFFFFF
310
FFFFFFFFFFFFFFFFFFFFFFFFFFFFFFFFFFFFFFFFFFFFFFFFFFFFFFFFFFFFFFFF
310
FFFFFFFFFFFFFFFFFFFFFFFFFFFFFFFFFFFFFFFFFFFFFFFFFFFFFFFFFFFFFFFF
310
FFFFFFFFFFFFFFFFFFFFFFFFFFFFFFFFF000FFFFFFFFFFFFFFFFFFFFFFFFFFFF
310
FFFFFFFFFFFFFFFFFFFFFFFFFFFFFFFFFFFFFFFFFFFFFFFFFFFFFFFFFFFFFFFF
310
FFFFFFFFFFFFFFFFFFFFFFFFFFFFFFFFFFFFFFFFFFFFFFFFFFFFFFFFFFFFFFFF
310
FFFFFFFFFFFFFFFFF000FFFFFFFFFFFFFFFFFFFFFFFFFFFFFFFFFFFFFFFFFFFF
310
FFFFFFFFFFFFFFFFFFFFFFFFFFFFFFFFFFFFFFFFFFFFFFFFFFFFFFFFFFFFFFFF
310
FFFFFFFFFFFFFFFFFFFFFFFFFFFFFFFFFFFFFFFFFFFFFFFFFFFFFFFFFFFFFFFF
310
F000FFFFFFFFFFFFFFFFFFFFFFFFFFFFFFFFFFFFFFFFFFFFFFFFFFFFFFFFFFFF
310
FFFFFFFFFFFFFFFFFFFFFFFFFFFFFFFFFFFFFFFFFFFFFFFFFFFFFFFFFFFFFFFF
310
FFFFFFFFFFFFFFFFFFFFFFFFFFFFFFFFFFFFFFFFFFFFFFFFF000FFFFFFFFFFFF
310
FFFFFFFFFFFFFFFFFFFFFFFFFFFFFFFFFFFFFFFFFFFFFFFFFFFFFFFFFFFFFFFF
310
FFFFFFFFFFFFFFFFFFFFFFFFFFFFFFFFFFFFFFFFFFFFFFFFFFFFFFFFFFFFFFFF
310
FFFFFFFFFFFFFFFFFFFFFFFFFFFFFFFFF000FFFFFFFFFFFFFFFFFFFFFFFFFFFF
310
FFFFFFFFFFFFFFFFFFFFFFFFFFFFFFFFFFFFFFFFFFFFFFFFFFFFFFFFFFFFFFFF
310
FFFFFFFFFFFFFFFFFFFFFFFFFFFFFFFFFFFFFFFFFFFFFFFFFFFFFFFFFFFFFFFF
310
FFFFFFFFFFFFFFFFF000FFFFFFFFFFFFFFFFFFFFFFFFFFFFFFFFFFFFFFFFFFFF
310
FFFFFFFFFFFFFFFFFFFFFFFFFFFFFFFFFFFFFFFFFFFFFFFFFFFFFFFFFFFFFFFF
310
FFFFFFFFFFFFFFFFFFFFFFFFFFFFFFFFFFFFFFFFFFFFFFFFFFFFFFFFFFFFFFFF
310
F000FFFFFFFFFFFFFFFFFFFFFFFFFFFFFFFFFFFFFFFFFFFFFFFFFFFFFFFFFFFF
310
FFFFFFFFFFFFFFFFFFFFFFFFFFFFFFFFFFFFFFFFFFFFFFFFFFFFFFFFFFFFFFFF
310
FFFFFFFFFFFFFFFFFFFFFFFFFFFFFFFFFFFFFFFFFFFFFFFFF000FFFFFFFFFFFF
310
FFFFFFFFFFFFFFFFFFFFFFFFFFFFFFFFFFFFFFFFFFFFFFFFFFFFFFFFFFFFFFFF
310
FFFFFFFFFFFFFFFFFFFFFFFFFFFFFFFFFFFFFFFFFFFFFFFFFFFFFFFFFFFFFFFF
310
FFFFFFFFFFFFFFFFFFFFFFFFFFFFFFFFF0000000000000000000000000000000
310
0000000000000000000000000000000000000000000000000000000000000000
310
0000000000000000000000000000000000000000000000000000000000000000
310
0000000000000000000000000000000000000000000000000000000000000000
310
0000000000000000000000000000000000000000000000000000000000000000
310
0000000000000000000000000000000000000000000000000000000000000000
310
0000000000000000000000000000000000000000000000000000000000000000
310
0000000000000000000000000000000000000000000000000000000000000000
310
0000000000000000000000000000000000000000000000000000000000000000
310
0000000000000000000000000000000000000000000000000000000000000000
310
0000000000000000000000000000000000000000000000000000000000000000
310
0000000000000000000000000000000000000000000000000000000000000000
310
0000000000000000000000000000000000000000000000000000000000000000
310
0000000000000000000000000000000000000000000000000000000000000000
310
0000000000000000000000000000000000000000000000000000000000000000
310
0000000000000000000000000000000000000000000000000000000000000000
  1
OLE
  0
ENDSEC
  0
SECTION
  2
OBJECTS
  0
DICTIONARY
  5
C
330
0
100
AcDbDictionary
281
     1
  3
ACAD_GROUP
350
D
  3
ACAD_LAYOUT
350
1A
  3
ACAD_MLINESTYLE
350
17
  3
ACAD_PLOTSETTINGS
350
19
  3
ACAD_PLOTSTYLENAME
350
E
  3
ACAD_SCALELIST
350
47
  0
DICTIONARY
  5
D
102
{ACAD_REACTORS
330
C
102
}
330
C
100
AcDbDictionary
281
     1
  0
DICTIONARY
  5
1A
102
{ACAD_REACTORS
330
C
102
}
330
C
100
AcDbDictionary
281
     1
  3
Layout1
350
1E
  3
Layout2
350
26
  3
Model
350
22
  0
DICTIONARY
  5
17
102
{ACAD_REACTORS
330
C
102
}
330
C
100
AcDbDictionary
281
     1
  3
Standard
350
18
  0
DICTIONARY
  5
19
102
{ACAD_REACTORS
330
C
102
}
330
C
100
AcDbDictionary
281
     1
  0
ACDBDICTIONARYWDFLT
  5
E
102
{ACAD_REACTORS
330
C
102
}
330
C
100
AcDbDictionary
281
     1
  3
Normal
350
F
100
AcDbDictionaryWithDefault
340
F
  0
DICTIONARY
  5
47
102
{ACAD_REACTORS
330
C
102
}
330
C
100
AcDbDictionary
281
     1
  3
A0
350
48
  3
A1
350
49
  3
A2
350
4A
  3
A3
350
4B
  3
A4
350
4C
  3
A5
350
4D
  3
A6
350
4E
  3
A7
350
4F
  3
A8
350
50
  3
A9
350
51
  3
B0
350
52
  3
B1
350
53
  3
B2
350
54
  3
B3
350
55
  3
B4
350
56
  3
B5
350
57
  3
B6
350
58
  3
B7
350
59
  3
B8
350
5A
  3
B9
350
5B
  3
C0
350
5C
  3
C1
350
5D
  3
C2
350
5E
  3
C3
350
5F
  3
C4
350
60
  3
C5
350
61
  3
C6
350
62
  3
C7
350
63
  3
C8
350
64
  3
C9
350
65
  3
D0
350
66
  3
D1
350
67
  3
D2
350
68
  0
LAYOUT
  5
1E
102
{ACAD_REACTORS
330
1A
102
}
330
1A
100
AcDbPlotSettings
  1

  2
none_device
  4

  6

 40
0.0
 41
0.0
 42
0.0
 43
0.0
 44
0.0
 45
0.0
 46
0.0
 47
0.0
 48
0.0
 49
0.0
140
0.0
141
0.0
142
1.0
143
1.0
 70
   688
 72
     1
 73
     0
 74
     5
  7

 75
    16
147
1.0
148
0.0
149
0.0
100
AcDbLayout
  1
Layout1
 70
     1
 71
     1
 10
0.0
 20
0.0
 11
420.0
 21
297.0
 12
0.0
 22
0.0
 32
0.0
 14
1.0000000000E+20
 24
1.0000000000E+20
 34
1.0000000000E+20
 15
-1.0000000000E+20
 25
-1.0000000000E+20
 35
-1.0000000000E+20
146
0.0
 13
0.0
 23
0.0
 33
0.0
 16
1.0
 26
0.0
 36
0.0
 17
0.0
 27
1.0
 37
0.0
 76
     0
330
1B
  0
LAYOUT
  5
26
102
{ACAD_REACTORS
330
1A
102
}
330
1A
100
AcDbPlotSettings
  1

  2
none_device
  4

  6

 40
0.0
 41
0.0
 42
0.0
 43
0.0
 44
0.0
 45
0.0
 46
0.0
 47
0.0
 48
0.0
 49
0.0
140
0.0
141
0.0
142
1.0
143
1.0
 70
   688
 72
     1
 73
     0
 74
     5
  7

 75
    16
147
1.0
148
0.0
149
0.0
100
AcDbLayout
  1
Layout2
 70
     1
 71
     2
 10
0.0
 20
0.0
 11
0.0
 21
0.0
 12
0.0
 22
0.0
 32
0.0
 14
0.0
 24
0.0
 34
0.0
 15
0.0
 25
0.0
 35
0.0
146
0.0
 13
0.0
 23
0.0
 33
0.0
 16
1.0
 26
0.0
 36
0.0
 17
0.0
 27
1.0
 37
0.0
 76
     0
330
23
  0
LAYOUT
  5
22
102
{ACAD_REACTORS
330
1A
102
}
330
1A
100
AcDbPlotSettings
  1

  2
none_device
  4
Letter_(8.50_x_11.00_Inches)
  6

 40
6.35
 41
6.35
 42
6.35000508
 43
6.35000508
 44
215.9
 45
279.4
 46
0.0
 47
0.0
 48
0.0
 49
0.0
140
0.0
141
0.0
142
1.0
143
1.0
 70
  1712
 72
     1
 73
     0
 74
     0
  7

 75
     0
147
1.0
148
0.0
149
0.0
100
AcDbLayout
  1
Model
 70
     1
 71
     0
 10
0.0
 20
0.0
 11
297.0
 21
210.0
 12
0.0
 22
0.0
 32
0.0
 14
0.0
 24
0.0
 34
0.0
 15
297.0
 25
210.0
 35
0.0
146
0.0
 13
0.0
 23
0.0
 33
0.0
 16
1.0
 26
0.0
 36
0.0
 17
0.0
 27
1.0
 37
0.0
 76
     0
330
1F
331
29
  0
MLINESTYLE
  5
18
102
{ACAD_REACTORS
330
17
102
}
330
17
100
AcDbMlineStyle
  2
Standard
 70
     0
  3

 62
   256
 51
90.0
 52
90.0
 71
     2
 49
0.5
 62
   256
  6
BYLAYER
 49
-0.5
 62
   256
  6
BYLAYER
  0
ACDBPLACEHOLDER
  5
F
102
{ACAD_REACTORS
330
E
102
}
330
E
  0
SCALE
  5
48
102
{ACAD_REACTORS
330
47
102
}
330
47
100
AcDbScale
 70
     0
300
1:1
140
1.0
141
1.0
290
     1
  0
SCALE
  5
49
102
{ACAD_REACTORS
330
47
102
}
330
47
100
AcDbScale
 70
     0
300
1:2
140
1.0
141
2.0
290
     0
  0
SCALE
  5
4A
102
{ACAD_REACTORS
330
47
102
}
330
47
100
AcDbScale
 70
     0
300
1:4
140
1.0
141
4.0
290
     0
  0
SCALE
  5
4B
102
{ACAD_REACTORS
330
47
102
}
330
47
100
AcDbScale
 70
     0
300
1:5
140
1.0
141
5.0
290
     0
  0
SCALE
  5
4C
102
{ACAD_REACTORS
330
47
102
}
330
47
100
AcDbScale
 70
     0
300
1:8
140
1.0
141
8.0
290
     0
  0
SCALE
  5
4D
102
{ACAD_REACTORS
330
47
102
}
330
47
100
AcDbScale
 70
     0
300
1:10
140
1.0
141
10.0
290
     0
  0
SCALE
  5
4E
102
{ACAD_REACTORS
330
47
102
}
330
47
100
AcDbScale
 70
     0
300
1:16
140
1.0
141
16.0
290
     0
  0
SCALE
  5
4F
102
{ACAD_REACTORS
330
47
102
}
330
47
100
AcDbScale
 70
     0
300
1:20
140
1.0
141
20.0
290
     0
  0
SCALE
  5
50
102
{ACAD_REACTORS
330
47
102
}
330
47
100
AcDbScale
 70
     0
300
1:30
140
1.0
141
30.0
290
     0
  0
SCALE
  5
51
102
{ACAD_REACTORS
330
47
102
}
330
47
100
AcDbScale
 70
     0
300
1:40
140
1.0
141
40.0
290
     0
  0
SCALE
  5
52
102
{ACAD_REACTORS
330
47
102
}
330
47
100
AcDbScale
 70
     0
300
1:50
140
1.0
141
50.0
290
     0
  0
SCALE
  5
53
102
{ACAD_REACTORS
330
47
102
}
330
47
100
AcDbScale
 70
     0
300
1:100
140
1.0
141
100.0
290
     0
  0
SCALE
  5
54
102
{ACAD_REACTORS
330
47
102
}
330
47
100
AcDbScale
 70
     0
300
2:1
140
2.0
141
1.0
290
     0
  0
SCALE
  5
55
102
{ACAD_REACTORS
330
47
102
}
330
47
100
AcDbScale
 70
     0
300
4:1
140
4.0
141
1.0
290
     0
  0
SCALE
  5
56
102
{ACAD_REACTORS
330
47
102
}
330
47
100
AcDbScale
 70
     0
300
8:1
140
8.0
141
1.0
290
     0
  0
SCALE
  5
57
102
{ACAD_REACTORS
330
47
102
}
330
47
100
AcDbScale
 70
     0
300
10:1
140
10.0
141
1.0
290
     0
  0
SCALE
  5
58
102
{ACAD_REACTORS
330
47
102
}
330
47
100
AcDbScale
 70
     0
300
100:1
140
100.0
141
1.0
290
     0
  0
SCALE
  5
59
102
{ACAD_REACTORS
330
47
102
}
330
47
100
AcDbScale
 70
     0
300
1/128" = 1'-0"
140
0.0078125
141
12.0
290
     0
  0
SCALE
  5
5A
102
{ACAD_REACTORS
330
47
102
}
330
47
100
AcDbScale
 70
     0
300
1/64" = 1'-0"
140
0.015625
141
12.0
290
     0
  0
SCALE
  5
5B
102
{ACAD_REACTORS
330
47
102
}
330
47
100
AcDbScale
 70
     0
300
1/32" = 1'-0"
140
0.03125
141
12.0
290
     0
  0
SCALE
  5
5C
102
{ACAD_REACTORS
330
47
102
}
330
47
100
AcDbScale
 70
     0
300
1/16" = 1'-0"
140
0.0625
141
12.0
290
     0
  0
SCALE
  5
5D
102
{ACAD_REACTORS
330
47
102
}
330
47
100
AcDbScale
 70
     0
300
3/32" = 1'-0"
140
0.09375
141
12.0
290
     0
  0
SCALE
  5
5E
102
{ACAD_REACTORS
330
47
102
}
330
47
100
AcDbScale
 70
     0
300
1/8" = 1'-0"
140
0.125
141
12.0
290
     0
  0
SCALE
  5
5F
102
{ACAD_REACTORS
330
47
102
}
330
47
100
AcDbScale
 70
     0
300
3/16" = 1'-0"
140
0.1875
141
12.0
290
     0
  0
SCALE
  5
60
102
{ACAD_REACTORS
330
47
102
}
330
47
100
AcDbScale
 70
     0
300
1/4" = 1'-0"
140
0.25
141
12.0
290
     0
  0
SCALE
  5
61
102
{ACAD_REACTORS
330
47
102
}
330
47
100
AcDbScale
 70
     0
300
3/8" = 1'-0"
140
0.375
141
12.0
290
     0
  0
SCALE
  5
62
102
{ACAD_REACTORS
330
47
102
}
330
47
100
AcDbScale
 70
     0
300
1/2" = 1'-0"
140
0.5
141
12.0
290
     0
  0
SCALE
  5
63
102
{ACAD_REACTORS
330
47
102
}
330
47
100
AcDbScale
 70
     0
300
3/4" = 1'-0"
140
0.75
141
12.0
290
     0
  0
SCALE
  5
64
102
{ACAD_REACTORS
330
47
102
}
330
47
100
AcDbScale
 70
     0
300
1" = 1'-0"
140
1.0
141
12.0
290
     0
  0
SCALE
  5
65
102
{ACAD_REACTORS
330
47
102
}
330
47
100
AcDbScale
 70
     0
300
1-1/2" = 1'-0"
140
1.5
141
12.0
290
     0
  0
SCALE
  5
66
102
{ACAD_REACTORS
330
47
102
}
330
47
100
AcDbScale
 70
     0
300
3" = 1'-0"
140
3.0
141
12.0
290
     0
  0
SCALE
  5
67
102
{ACAD_REACTORS
330
47
102
}
330
47
100
AcDbScale
 70
     0
300
6" = 1'-0"
140
6.0
141
12.0
290
     0
  0
SCALE
  5
68
102
{ACAD_REACTORS
330
47
102
}
330
47
100
AcDbScale
 70
     0
300
1'-0" = 1'-0"
140
12.0
141
12.0
290
     0
  0
ENDSEC
  0
EOF
